  0
SECTION
  2
HEADER
  9
$ACADVER
  1
AC1009
  9
$INSBASE
 10
0.0
 20
0.0
 30
0.0
  9
$EXTMIN
 10
646.1699641970499
 20
80.66359279137953
 30
0.0
  9
$EXTMAX
 10
1159.16996419705
 20
436.1635927913794
 30
0.0
  9
$LIMMIN
 10
0.0
 20
0.0
  9
$LIMMAX
 10
3000.0
 20
2500.0
  9
$ORTHOMODE
 70
     0
  9
$REGENMODE
 70
     1
  9
$FILLMODE
 70
     1
  9
$QTEXTMODE
 70
     0
  9
$MIRRTEXT
 70
     1
  9
$DRAGMODE
 70
     2
  9
$LTSCALE
 40
10.0
  9
$OSMODE
 70
    37
  9
$ATTMODE
 70
     1
  9
$TEXTSIZE
 40
3.0
  9
$TRACEWID
 40
1.0
  9
$TEXTSTYLE
  7
STANDARD
  9
$CLAYER
  8
0
  9
$CELTYPE
  6
CONTINUOUS
  9
$CECOLOR
 62
    20
  9
$DIMSCALE
 40
1.0
  9
$DIMASZ
 40
2.0
  9
$DIMEXO
 40
0.0
  9
$DIMDLI
 40
0.0
  9
$DIMRND
 40
0.0
  9
$DIMDLE
 40
0.0
  9
$DIMEXE
 40
1.0
  9
$DIMTP
 40
0.2
  9
$DIMTM
 40
0.2
  9
$DIMTXT
 40
3.0
  9
$DIMCEN
 40
2.0
  9
$DIMTSZ
 40
0.0
  9
$DIMTOL
 70
     0
  9
$DIMLIM
 70
     0
  9
$DIMTIH
 70
     0
  9
$DIMTOH
 70
     0
  9
$DIMSE1
 70
     0
  9
$DIMSE2
 70
     0
  9
$DIMTAD
 70
     3
  9
$DIMZIN
 70
     8
  9
$DIMBLK
  1
OPEN
  9
$DIMASO
 70
     1
  9
$DIMSHO
 70
     1
  9
$DIMPOST
  1

  9
$DIMAPOST
  1

  9
$DIMALT
 70
     0
  9
$DIMALTD
 70
     3
  9
$DIMALTF
 40
0.03937007874016
  9
$DIMLFAC
 40
1.0
  9
$DIMTOFL
 70
     1
  9
$DIMTVP
 40
0.0
  9
$DIMTIX
 70
     0
  9
$DIMSOXD
 70
     0
  9
$DIMSAH
 70
     0
  9
$DIMBLK1
  1

  9
$DIMBLK2
  1

  9
$DIMSTYLE
  2
DMC
  9
$DIMCLRD
 70
     5
  9
$DIMCLRE
 70
     5
  9
$DIMCLRT
 70
     5
  9
$DIMTFAC
 40
0.7
  9
$DIMGAP
 40
0.5
  9
$LUNITS
 70
     2
  9
$LUPREC
 70
     4
  9
$SKETCHINC
 40
1.0
  9
$FILLETRAD
 40
0.0
  9
$AUNITS
 70
     0
  9
$AUPREC
 70
     0
  9
$MENU
  1
.
  9
$ELEVATION
 40
0.0
  9
$PELEVATION
 40
0.0
  9
$THICKNESS
 40
0.0
  9
$LIMCHECK
 70
     0
  9
$BLIPMODE
 70
     0
  9
$CHAMFERA
 40
2.0
  9
$CHAMFERB
 40
2.0
  9
$SKPOLY
 70
     0
  9
$TDCREATE
 40
2451810.404221065
  9
$TDUPDATE
 40
2458936.722905092
  9
$TDINDWG
 40
4.901335093
  9
$TDUSRTIMER
 40
2458367.703674236
  9
$USRTIMER
 70
     1
  9
$ANGBASE
 50
0.0
  9
$ANGDIR
 70
     0
  9
$PDMODE
 70
     0
  9
$PDSIZE
 40
0.0
  9
$PLINEWID
 40
0.2
  9
$COORDS
 70
     0
  9
$SPLFRAME
 70
     0
  9
$SPLINETYPE
 70
     6
  9
$SPLINESEGS
 70
     8
  9
$ATTDIA
 70
     1
  9
$ATTREQ
 70
     1
  9
$HANDLING
 70
     1
  9
$HANDSEED
  5
74B
  9
$SURFTAB1
 70
     6
  9
$SURFTAB2
 70
     6
  9
$SURFTYPE
 70
     6
  9
$SURFU
 70
     6
  9
$SURFV
 70
     6
  9
$UCSNAME
  2

  9
$UCSORG
 10
0.0
 20
0.0
 30
0.0
  9
$UCSXDIR
 10
1.0
 20
0.0
 30
0.0
  9
$UCSYDIR
 10
0.0
 20
1.0
 30
0.0
  9
$PUCSNAME
  2

  9
$PUCSORG
 10
0.0
 20
0.0
 30
0.0
  9
$PUCSXDIR
 10
1.0
 20
0.0
 30
0.0
  9
$PUCSYDIR
 10
0.0
 20
1.0
 30
0.0
  9
$USERI1
 70
     0
  9
$USERI2
 70
     0
  9
$USERI3
 70
     0
  9
$USERI4
 70
     0
  9
$USERI5
 70
     0
  9
$USERR1
 40
0.0
  9
$USERR2
 40
0.0
  9
$USERR3
 40
0.0
  9
$USERR4
 40
0.0
  9
$USERR5
 40
0.0
  9
$WORLDVIEW
 70
     1
  9
$SHADEDGE
 70
     3
  9
$SHADEDIF
 70
    70
  9
$TILEMODE
 70
     1
  9
$MAXACTVP
 70
    64
  9
$PLIMCHECK
 70
     0
  9
$PEXTMIN
 10
1.000000000000000E+20
 20
1.000000000000000E+20
 30
1.000000000000000E+20
  9
$PEXTMAX
 10
-1.000000000000000E+20
 20
-1.000000000000000E+20
 30
-1.000000000000000E+20
  9
$PLIMMIN
 10
0.0
 20
0.0
  9
$PLIMMAX
 10
420.0
 20
297.0
  9
$UNITMODE
 70
     0
  9
$VISRETAIN
 70
     1
  9
$PLINEGEN
 70
     0
  9
$PSLTSCALE
 70
     1
  0
ENDSEC
  0
SECTION
  2
TABLES
  0
TABLE
  2
VPORT
 70
     1
  0
VPORT
  2
*ACTIVE
 70
     0
 10
0.0
 20
0.0
 11
1.0
 21
1.0
 12
904.8548754107788
 22
225.5150978865763
 13
0.0
 23
0.0
 14
10.0
 24
10.0
 15
10.0
 25
10.0
 16
0.0
 26
0.0
 36
1.0
 17
0.0
 27
0.0
 37
0.0
 40
571.0542409601584
 41
2.16030534351145
 42
50.0
 43
0.0
 44
0.0
 50
0.0
 51
0.0
 71
    16
 72
 20000
 73
     1
 74
     1
 75
     0
 76
     0
 77
     0
 78
     0
  0
ENDTAB
  0
TABLE
  2
LTYPE
 70
     3
  0
LTYPE
  2
CONTINUOUS
 70
     0
  3
Solid line
 72
    65
 73
     0
 40
0.0
  0
LTYPE
  2
CENTER2
 70
     0
  3
Center (.5x) ___ _ ___ _ ___ _ ___ _ ___ _ ___
 72
    65
 73
     4
 40
28.575
 49
19.05
 49
-3.174999999999999
 49
3.174999999999999
 49
-3.174999999999999
  0
LTYPE
  2
PHANTOM2
 70
     0
  3
___ _ _ ___ _ _ ___ _ _ ___ _ _ ___ _ _ ___ _ _
 72
    65
 73
     6
 40
1.25
 49
0.625
 49
-0.125
 49
0.125
 49
-0.125
 49
0.125
 49
-0.125
  0
ENDTAB
  0
TABLE
  2
LAYER
 70
    10
  0
LAYER
  2
0
 70
     0
 62
     7
  6
CONTINUOUS
  0
LAYER
  2
DEFPOINTS
 70
     0
 62
     7
  6
CONTINUOUS
  0
LAYER
  2
回04-下接
 70
     0
 62
     7
  6
CONTINUOUS
  0
LAYER
  2
回07-寸法
 70
     0
 62
     7
  6
CONTINUOUS
  0
LAYER
  2
回02-上接
 70
     0
 62
     7
  6
CONTINUOUS
  0
LAYER
  2
回08-記事
 70
     0
 62
     7
  6
CONTINUOUS
  0
LAYER
  2
回05-ﾃｰﾙ
 70
     0
 62
     7
  6
CONTINUOUS
  0
LAYER
  2
回04-図面枠
 70
     0
 62
     7
  6
CONTINUOUS
  0
LAYER
  2
回02-寸法
 70
     0
 62
     7
  6
CONTINUOUS
  0
LAYER
  2
回03-記事
 70
     0
 62
     7
  6
CONTINUOUS
  0
ENDTAB
  0
TABLE
  2
STYLE
 70
     1
  0
STYLE
  2
STANDARD
 70
     0
 40
3.0
 41
1.0
 50
0.0
 71
     0
 42
3.0
  3
isocp.shx
  4
bigfont.shx
  0
ENDTAB
  0
TABLE
  2
VIEW
 70
     0
  0
ENDTAB
  0
TABLE
  2
UCS
 70
     0
  0
ENDTAB
  0
TABLE
  2
APPID
 70
     6
  0
APPID
  2
ACAD
 70
     0
  0
APPID
  2
ACAECLAYERSTANDARD
 70
     0
  0
APPID
  2
ACAD_PSEXT
 70
     0
  0
APPID
  2
ACAD_NAV_VCDISPLAY
 70
     0
  0
APPID
  2
ACAD_MLEADERVER
 70
     0
  0
APPID
  2
ACADSTRINGINFO
 70
     0
  0
ENDTAB
  0
TABLE
  2
DIMSTYLE
 70
     2
  0
DIMSTYLE
  2
DMC
 70
     0
  3

  4

  5
OPEN
  6

  7

 40
1.0
 41
2.0
 42
0.0
 43
0.0
 44
1.0
 45
0.0
 46
0.0
 47
0.0
 48
0.0
140
3.0
141
2.0
142
0.0
143
0.03937007874016
144
1.0
145
0.0
146
0.7
147
0.5
 71
     0
 72
     0
 73
     0
 74
     0
 75
     0
 76
     0
 77
     3
 78
     8
170
     0
171
     3
172
     1
173
     0
174
     0
175
     0
176
     5
177
     5
178
     5
  0
DIMSTYLE
  2
KOUSA
 70
     0
  3

  4

  5

  6
OPEN
  7
OPEN
 40
1.0
 41
2.0
 42
0.0
 43
0.0
 44
1.0
 45
0.0
 46
0.0
 47
0.1
 48
0.1
140
3.0
141
2.0
142
0.0
143
25.4
144
1.0
145
0.0
146
0.7
147
0.5
 71
     1
 72
     0
 73
     0
 74
     0
 75
     0
 76
     0
 77
     3
 78
     8
170
     0
171
     2
172
     1
173
     1
174
     0
175
     0
176
     5
177
     5
178
     5
  0
ENDTAB
  0
ENDSEC
  0
SECTION
  2
BLOCKS
  0
BLOCK
  8
0
  2
$MODEL_SPACE
 70
     0
 10
0.0
 20
0.0
 30
0.0
  3
$MODEL_SPACE
  1

  0
ENDBLK
  8
0
  5
1D
  0
BLOCK
 67
     1
  8
0
  2
$PAPER_SPACE
 70
     0
 10
0.0
 20
0.0
 30
0.0
  3
$PAPER_SPACE
  1

  0
ENDBLK
  5
23
 67
     1
  8
0
  0
BLOCK
  8
0
  2
_OPEN
 70
     0
 10
0.0
 20
0.0
 30
0.0
  3
_OPEN
  1

  0
LINE
  5
11
  8
0
  6
CONTINUOUS
 62
     0
 10
-1.0
 20
0.1666666666666666
 30
0.0
 11
0.0
 21
0.0
 31
0.0
  0
LINE
  5
12
  8
0
  6
CONTINUOUS
 62
     0
 10
-1.0
 20
-0.1666666666666666
 30
0.0
 11
0.0
 21
0.0
 31
0.0
  0
LINE
  5
13
  8
0
  6
CONTINUOUS
 62
     0
 10
0.0
 20
0.0
 30
0.0
 11
-1.0
 21
0.0
 31
0.0
  0
ENDBLK
  5
14
  8
0
  0
BLOCK
  8
0
  2
*D1
 70
     1
 10
0.0
 20
0.0
 30
0.0
  3
*D1
  1

  0
LINE
  5
1AF
  8
回07-寸法
  6
CONTINUOUS
 62
     5
 10
812.7805456835451
 20
233.7748238092593
 30
0.0
 11
717.0201382582932
 21
233.7748238092593
 31
0.0
  0
LINE
  5
1B0
  8
回07-寸法
  6
CONTINUOUS
 62
     5
 10
733.280502174743
 20
288.0198238092596
 30
0.0
 11
717.0201382582932
 21
288.0198238092596
 31
0.0
  0
LINE
  5
1B1
  8
回07-寸法
  6
CONTINUOUS
 62
     5
 10
718.0201382582932
 20
235.7748238092593
 30
0.0
 11
718.0201382582932
 21
286.0198238092596
 31
0.0
  0
INSERT
  5
1B2
  8
回07-寸法
  6
CONTINUOUS
 62
     5
 66
     1
  2
_OPEN
 10
718.0201382582932
 20
233.7748238092593
 30
0.0
 41
2.0
 42
2.0
 43
2.0
 50
270.0
  0
SEQEND
  5
1B3
  8
0
  6
CONTINUOUS
 62
    20
  0
INSERT
  5
1B4
  8
回07-寸法
  6
CONTINUOUS
 62
     5
 66
     1
  2
_OPEN
 10
718.0201382582931
 20
288.0198238092596
 30
0.0
 41
2.0
 42
2.0
 43
2.0
 50
90.0
  0
SEQEND
  5
1B5
  8
0
  6
CONTINUOUS
 62
    20
  0
TEXT
  5
1B6
  8
回07-寸法
  6
CONTINUOUS
 62
     5
 10
717.3701382582931
 20
254.8973238092594
 30
0.0
 40
3.0
  1
(54.25)
 50
90.0
1001
ACAD
1000
MTEXTBEGIN
1070
    73
1070
     1
1070
    44
1040
1.0
1070
    74
1070
     0
1000
MTEXTEND
  0
POINT
  5
1B7
  8
DEFPOINTS
  6
CONTINUOUS
 62
     0
 10
812.7805456835451
 20
233.7748238092593
 30
0.0
  0
POINT
  5
1B8
  8
DEFPOINTS
  6
CONTINUOUS
 62
     0
 10
733.280502174743
 20
288.0198238092596
 30
0.0
  0
POINT
  5
1B9
  8
DEFPOINTS
  6
CONTINUOUS
 62
     0
 10
718.0201382582931
 20
288.0198238092596
 30
0.0
  0
ENDBLK
  5
1BA
  8
0
 62
    20
  0
BLOCK
  8
0
  2
*D2
 70
     1
 10
0.0
 20
0.0
 30
0.0
  3
*D2
  1

  0
LINE
  5
1A0
  8
回07-寸法
  6
CONTINUOUS
 62
     5
 10
732.780502172777
 20
293.769823809259
 30
0.0
 11
732.780502172777
 21
316.7053686841389
 31
0.0
  0
LINE
  5
1A1
  8
回07-寸法
  6
CONTINUOUS
 62
     5
 10
812.7805456835446
 20
299.8219483534505
 30
0.0
 11
812.7805456835446
 21
316.7053686841389
 31
0.0
  0
LINE
  5
1A2
  8
回07-寸法
  6
CONTINUOUS
 62
     5
 10
734.7805021727769
 20
315.7053686841389
 30
0.0
 11
810.7805456835446
 21
315.7053686841389
 31
0.0
  0
INSERT
  5
1A3
  8
回07-寸法
  6
CONTINUOUS
 62
     5
 66
     1
  2
_OPEN
 10
732.780502172777
 20
315.7053686841389
 30
0.0
 41
2.0
 42
2.0
 43
2.0
 50
180.0
  0
SEQEND
  5
1A4
  8
0
  6
CONTINUOUS
 62
    20
  0
INSERT
  5
1A5
  8
回07-寸法
  6
CONTINUOUS
 62
     5
 66
     1
  2
_OPEN
 10
812.7805456835446
 20
315.7053686841389
 30
0.0
 41
2.0
 42
2.0
 43
2.0
  0
SEQEND
  5
1A6
  8
0
  6
CONTINUOUS
 62
    20
  0
INSERT
  5
1A7
  8
回07-寸法
  6
CONTINUOUS
 62
     5
 66
     1
  2
*X86
 10
0.0
 20
0.0
 30
0.0
  0
SEQEND
  5
6C6
  8
0
  6
CONTINUOUS
 62
    20
  0
POINT
  5
1A8
  8
DEFPOINTS
  6
CONTINUOUS
 62
     0
 10
732.780502172777
 20
293.769823809259
 30
0.0
  0
POINT
  5
1A9
  8
DEFPOINTS
  6
CONTINUOUS
 62
     0
 10
812.7805456835446
 20
299.8219483534505
 30
0.0
  0
POINT
  5
1AA
  8
DEFPOINTS
  6
CONTINUOUS
 62
     0
 10
812.7805456835446
 20
315.7053686841389
 30
0.0
  0
ENDBLK
  5
1AB
  8
0
 62
    20
  0
BLOCK
  8
0
  2
*D3
 70
     1
 10
0.0
 20
0.0
 30
0.0
  3
*D3
  1

  0
LINE
  5
18F
  8
回07-寸法
  6
CONTINUOUS
 62
     5
 10
733.2805021736808
 20
288.0198238092596
 30
0.0
 11
717.0201382582931
 21
288.0198238092596
 31
0.0
  0
LINE
  5
190
  8
回07-寸法
  6
CONTINUOUS
 62
     5
 10
733.2805021727774
 20
294.2698238092595
 30
0.0
 11
717.0201382582931
 21
294.2698238092595
 31
0.0
  0
LINE
  5
191
  8
回07-寸法
  6
CONTINUOUS
 62
     5
 10
718.020138258293
 20
286.0198238092596
 30
0.0
 11
718.020138258293
 21
284.0198238092596
 31
0.0
  0
LINE
  5
192
  8
回07-寸法
  6
CONTINUOUS
 62
     5
 10
718.020138258293
 20
296.2698238092595
 30
0.0
 11
718.020138258293
 21
311.0504753840628
 31
0.0
  0
LINE
  5
193
  8
回07-寸法
  6
CONTINUOUS
 62
     5
 10
718.020138258293
 20
288.0198238092596
 30
0.0
 11
718.020138258293
 21
294.2698238092595
 31
0.0
  0
INSERT
  5
194
  8
回07-寸法
  6
CONTINUOUS
 62
     5
 66
     1
  2
_OPEN
 10
718.020138258293
 20
288.0198238092596
 30
0.0
 41
2.0
 42
2.0
 43
2.0
 50
90.0
  0
SEQEND
  5
195
  8
0
  6
CONTINUOUS
 62
    20
  0
INSERT
  5
196
  8
回07-寸法
  6
CONTINUOUS
 62
     5
 66
     1
  2
_OPEN
 10
718.020138258293
 20
294.2698238092595
 30
0.0
 41
2.0
 42
2.0
 43
2.0
 50
270.0
  0
SEQEND
  5
197
  8
0
  6
CONTINUOUS
 62
    20
  0
INSERT
  5
198
  8
回07-寸法
  6
CONTINUOUS
 62
     5
 66
     1
  2
*X87
 10
0.0
 20
0.0
 30
0.0
  0
SEQEND
  5
6CC
  8
0
  6
CONTINUOUS
 62
    20
  0
POINT
  5
199
  8
DEFPOINTS
  6
CONTINUOUS
 62
     0
 10
733.2805021736808
 20
288.0198238092596
 30
0.0
  0
POINT
  5
19A
  8
DEFPOINTS
  6
CONTINUOUS
 62
     0
 10
733.2805021727774
 20
294.2698238092595
 30
0.0
  0
POINT
  5
19B
  8
DEFPOINTS
  6
CONTINUOUS
 62
     0
 10
718.020138258293
 20
294.2698238092595
 30
0.0
  0
ENDBLK
  5
19C
  8
0
 62
    20
  0
BLOCK
  8
0
  2
*D4
 70
     1
 10
0.0
 20
0.0
 30
0.0
  3
*D4
  1

  0
LINE
  5
353
  8
回07-寸法
  6
CONTINUOUS
 62
     5
 10
808.5927893608861
 20
283.1448238092595
 30
0.0
 11
786.6196813920331
 21
283.1448238092595
 31
0.0
  0
LINE
  5
354
  8
回07-寸法
  6
CONTINUOUS
 62
     5
 10
808.5886157751795
 20
299.1436207749877
 30
0.0
 11
786.6196813920331
 21
299.1436207749877
 31
0.0
  0
LINE
  5
355
  8
回07-寸法
  6
CONTINUOUS
 62
     5
 10
787.6196813920331
 20
301.1436207749877
 30
0.0
 11
787.6196813920331
 21
303.1436207749877
 31
0.0
  0
LINE
  5
356
  8
回07-寸法
  6
CONTINUOUS
 62
     5
 10
787.6196813920331
 20
281.1448238092595
 30
0.0
 11
787.6196813920331
 21
274.0068641773016
 31
0.0
  0
LINE
  5
357
  8
回07-寸法
  6
CONTINUOUS
 62
     5
 10
787.6196813920331
 20
299.1436207749877
 30
0.0
 11
787.6196813920331
 21
283.1448238092595
 31
0.0
  0
INSERT
  5
358
  8
回07-寸法
  6
CONTINUOUS
 62
     5
 66
     1
  2
_OPEN
 10
787.6196813920331
 20
299.1436207749877
 30
0.0
 41
2.0
 42
2.0
 43
2.0
 50
270.0
  0
SEQEND
  5
359
  8
0
  6
CONTINUOUS
 62
    20
  0
INSERT
  5
35A
  8
回07-寸法
  6
CONTINUOUS
 62
     5
 66
     1
  2
_OPEN
 10
787.6196813920331
 20
283.1448238092595
 30
0.0
 41
2.0
 42
2.0
 43
2.0
 50
90.0
  0
SEQEND
  5
35B
  8
0
  6
CONTINUOUS
 62
    20
  0
TEXT
  5
35C
  8
回07-寸法
  6
CONTINUOUS
 62
     5
 10
787.119681392033
 20
274.1300210834693
 30
0.0
 40
3.0
  1
16
 50
90.0
1001
ACAD
1000
MTEXTBEGIN
1070
    73
1070
     1
1070
    44
1040
1.0
1070
    74
1070
     0
1000
MTEXTEND
  0
POINT
  5
35D
  8
DEFPOINTS
  6
CONTINUOUS
 62
     0
 10
808.5927893608861
 20
283.1448238092595
 30
0.0
  0
POINT
  5
35E
  8
DEFPOINTS
  6
CONTINUOUS
 62
     0
 10
808.5886157751795
 20
299.1436207749877
 30
0.0
  0
POINT
  5
35F
  8
DEFPOINTS
  6
CONTINUOUS
 62
     0
 10
787.6196813920331
 20
299.1436207749877
 30
0.0
  0
ENDBLK
  5
360
  8
0
 62
    20
  0
BLOCK
  8
0
  2
*D5
 70
     1
 10
0.0
 20
0.0
 30
0.0
  3
*D5
  1

  0
LINE
  5
342
  8
回07-寸法
  6
CONTINUOUS
 62
     5
 10
812.7805456835446
 20
282.4676994647918
 30
0.0
 11
812.7805456835446
 21
267.1485177213624
 31
0.0
  0
LINE
  5
343
  8
回07-寸法
  6
CONTINUOUS
 62
     5
 10
803.2533965035025
 20
287.9401464700956
 30
0.0
 11
803.2533965035025
 21
267.1485177213624
 31
0.0
  0
LINE
  5
344
  8
回07-寸法
  6
CONTINUOUS
 62
     5
 10
814.7805456835447
 20
268.1485177213624
 30
0.0
 11
816.7805456835447
 21
268.1485177213624
 31
0.0
  0
LINE
  5
345
  8
回07-寸法
  6
CONTINUOUS
 62
     5
 10
801.2533965035025
 20
268.1485177213624
 30
0.0
 11
791.3032437136187
 21
268.1485177213624
 31
0.0
  0
LINE
  5
346
  8
回07-寸法
  6
CONTINUOUS
 62
     5
 10
812.7805456835446
 20
268.1485177213624
 30
0.0
 11
803.2533965035025
 21
268.1485177213624
 31
0.0
  0
INSERT
  5
347
  8
回07-寸法
  6
CONTINUOUS
 62
     5
 66
     1
  2
_OPEN
 10
812.7805456835446
 20
268.1485177213624
 30
0.0
 41
2.0
 42
2.0
 43
2.0
 50
180.0
  0
SEQEND
  5
348
  8
0
  6
CONTINUOUS
 62
    20
  0
INSERT
  5
349
  8
回07-寸法
  6
CONTINUOUS
 62
     5
 66
     1
  2
_OPEN
 10
803.2533965035025
 20
268.1485177213624
 30
0.0
 41
2.0
 42
2.0
 43
2.0
  0
SEQEND
  5
34A
  8
0
  6
CONTINUOUS
 62
    20
  0
TEXT
  5
34B
  8
回07-寸法
  6
CONTINUOUS
 62
     5
 10
791.4666766767497
 20
268.6485177213624
 30
0.0
 40
3.0
  1
9.53
1001
ACAD
1000
MTEXTBEGIN
1070
    73
1070
     1
1070
    44
1040
1.0
1070
    74
1070
     0
1000
MTEXTEND
  0
POINT
  5
34C
  8
DEFPOINTS
  6
CONTINUOUS
 62
     0
 10
812.7805456835446
 20
282.4676994647918
 30
0.0
  0
POINT
  5
34D
  8
DEFPOINTS
  6
CONTINUOUS
 62
     0
 10
803.2533965035025
 20
287.9401464700956
 30
0.0
  0
POINT
  5
34E
  8
DEFPOINTS
  6
CONTINUOUS
 62
     0
 10
803.2533965035025
 20
268.1485177213624
 30
0.0
  0
ENDBLK
  5
34F
  8
0
 62
    20
  0
BLOCK
  8
0
  2
*D6
 70
     1
 10
0.0
 20
0.0
 30
0.0
  3
*D6
  1

  0
LINE
  5
32F
  8
回07-寸法
  6
CONTINUOUS
 62
     5
 10
812.7805456835446
 20
282.4676994647921
 30
0.0
 11
812.7805456835446
 21
274.8115476583491
 31
0.0
  0
LINE
  5
330
  8
回07-寸法
  6
CONTINUOUS
 62
     5
 10
808.2112639700381
 20
283.2204654501048
 30
0.0
 11
808.2112639700381
 21
274.8115476583491
 31
0.0
  0
LINE
  5
331
  8
回07-寸法
  6
CONTINUOUS
 62
     5
 10
814.7805456835447
 20
275.8115476583491
 30
0.0
 11
816.7805456835447
 21
275.8115476583491
 31
0.0
  0
LINE
  5
332
  8
回07-寸法
  6
CONTINUOUS
 62
     5
 10
806.2112639700382
 20
275.8115476583491
 30
0.0
 11
794.2456928657701
 21
275.8115476583491
 31
0.0
  0
LINE
  5
333
  8
回07-寸法
  6
CONTINUOUS
 62
     5
 10
812.7805456835446
 20
275.8115476583491
 30
0.0
 11
808.2112639700381
 21
275.8115476583491
 31
0.0
  0
INSERT
  5
334
  8
回07-寸法
  6
CONTINUOUS
 62
     5
 66
     1
  2
_OPEN
 10
812.7805456835446
 20
275.8115476583491
 30
0.0
 41
2.0
 42
2.0
 43
2.0
 50
180.0
  0
SEQEND
  5
335
  8
0
  6
CONTINUOUS
 62
    20
  0
INSERT
  5
336
  8
回07-寸法
  6
CONTINUOUS
 62
     5
 66
     1
  2
_OPEN
 10
808.2112639700381
 20
275.8115476583491
 30
0.0
 41
2.0
 42
2.0
 43
2.0
  0
SEQEND
  5
337
  8
0
  6
CONTINUOUS
 62
    20
  0
TEXT
  5
338
  8
回07-寸法
  6
CONTINUOUS
 62
     5
 10
794.2956928657702
 20
276.3115476583491
 30
0.0
 40
3.0
  1
4.57
1001
ACAD
1000
MTEXTBEGIN
1070
    73
1070
     1
1070
    44
1040
1.0
1070
    74
1070
     0
1000
MTEXTEND
  0
POINT
  5
339
  8
DEFPOINTS
  6
CONTINUOUS
 62
     0
 10
812.7805456835446
 20
282.4676994647921
 30
0.0
  0
POINT
  5
33A
  8
DEFPOINTS
  6
CONTINUOUS
 62
     0
 10
808.2112639700381
 20
283.2204654501048
 30
0.0
  0
POINT
  5
33B
  8
DEFPOINTS
  6
CONTINUOUS
 62
     0
 10
808.2112639700381
 20
275.8115476583491
 30
0.0
  0
ENDBLK
  5
33C
  8
0
 62
    20
  0
BLOCK
  8
0
  2
*D7
 70
     1
 10
0.0
 20
0.0
 30
0.0
  3
*D7
  1

  0
LINE
  5
2F5
  8
回08-記事
 62
     5
 10
903.470545683545
 20
283.1448238092593
 30
0.0
 11
913.0943125494122
 21
283.1448238092593
 31
0.0
  0
LINE
  5
2F6
  8
回08-記事
 62
     5
 10
903.470545683545
 20
279.1448238092593
 30
0.0
 11
913.0943125494122
 21
279.1448238092593
 31
0.0
  0
LINE
  5
2F7
  8
回08-記事
 62
     5
 10
912.0943125494122
 20
285.1448238092593
 30
0.0
 11
912.0943125494122
 21
287.1448238092593
 31
0.0
  0
LINE
  5
2F8
  8
回08-記事
 62
     5
 10
912.0943125494122
 20
277.1448238092593
 30
0.0
 11
912.0943125494122
 21
272.6448238092593
 31
0.0
  0
LINE
  5
2F9
  8
回08-記事
 62
     5
 10
912.0943125494122
 20
283.1448238092593
 30
0.0
 11
912.0943125494122
 21
279.1448238092593
 31
0.0
  0
INSERT
  5
2FA
  8
回08-記事
 62
     5
 66
     1
  2
_OPEN
 10
912.0943125494122
 20
283.1448238092593
 30
0.0
 41
2.0
 42
2.0
 43
2.0
 50
270.0
  0
SEQEND
  5
2FB
  8
0
  6
CONTINUOUS
 62
    20
  0
INSERT
  5
2FC
  8
回08-記事
 62
     5
 66
     1
  2
_OPEN
 10
912.0943125494122
 20
279.1448238092593
 30
0.0
 41
2.0
 42
2.0
 43
2.0
 50
90.0
  0
SEQEND
  5
2FD
  8
0
  6
CONTINUOUS
 62
    20
  0
TEXT
  5
2FE
  8
回08-記事
 62
     5
 10
911.5943125494121
 20
272.6948238092589
 30
0.0
 40
3.0
  1
4
 50
90.0
1001
ACAD
1000
MTEXTBEGIN
1070
    73
1070
     1
1070
    44
1040
1.0
1070
    74
1070
     0
1000
MTEXTEND
  0
POINT
  5
2FF
  8
DEFPOINTS
 62
     0
 10
903.470545683545
 20
283.1448238092593
 30
0.0
  0
POINT
  5
300
  8
DEFPOINTS
 62
     0
 10
903.470545683545
 20
279.1448238092593
 30
0.0
  0
POINT
  5
301
  8
DEFPOINTS
 62
     0
 10
912.0943125494122
 20
279.1448238092593
 30
0.0
  0
ENDBLK
  5
302
  8
0
 62
    20
  0
BLOCK
  8
0
  2
*D8
 70
     1
 10
0.0
 20
0.0
 30
0.0
  3
*D8
  1

  0
LINE
  5
2E4
  8
回08-記事
 62
     5
 10
903.4705456835444
 20
279.1448238092591
 30
0.0
 11
903.4705456835444
 21
271.4766981477867
 31
0.0
  0
LINE
  5
2E5
  8
回08-記事
 62
     5
 10
899.4705456835445
 20
279.1448238092591
 30
0.0
 11
899.4705456835445
 21
271.4766981477867
 31
0.0
  0
LINE
  5
2E6
  8
回08-記事
 62
     5
 10
905.4705456835446
 20
272.4766981477867
 30
0.0
 11
907.4705456835445
 21
272.4766981477867
 31
0.0
  0
LINE
  5
2E7
  8
回08-記事
 62
     5
 10
897.4705456835446
 20
272.4766981477867
 30
0.0
 11
892.9705456835446
 21
272.4766981477867
 31
0.0
  0
LINE
  5
2E8
  8
回08-記事
 62
     5
 10
903.4705456835444
 20
272.4766981477867
 30
0.0
 11
899.4705456835445
 21
272.4766981477867
 31
0.0
  0
INSERT
  5
2E9
  8
回08-記事
 62
     5
 66
     1
  2
_OPEN
 10
903.4705456835444
 20
272.4766981477867
 30
0.0
 41
2.0
 42
2.0
 43
2.0
 50
180.0
  0
SEQEND
  5
2EA
  8
0
  6
CONTINUOUS
 62
    20
  0
INSERT
  5
2EB
  8
回08-記事
 62
     5
 66
     1
  2
_OPEN
 10
899.4705456835445
 20
272.4766981477867
 30
0.0
 41
2.0
 42
2.0
 43
2.0
  0
SEQEND
  5
2EC
  8
0
  6
CONTINUOUS
 62
    20
  0
TEXT
  5
2ED
  8
回08-記事
 62
     5
 10
893.0205456835444
 20
272.9766981477867
 30
0.0
 40
3.0
  1
4
1001
ACAD
1000
MTEXTBEGIN
1070
    73
1070
     1
1070
    44
1040
1.0
1070
    74
1070
     0
1000
MTEXTEND
  0
POINT
  5
2EE
  8
DEFPOINTS
 62
     0
 10
903.4705456835444
 20
279.1448238092591
 30
0.0
  0
POINT
  5
2EF
  8
DEFPOINTS
 62
     0
 10
899.4705456835445
 20
279.1448238092591
 30
0.0
  0
POINT
  5
2F0
  8
DEFPOINTS
 62
     0
 10
899.4705456835445
 20
272.4766981477867
 30
0.0
  0
ENDBLK
  5
2F1
  8
0
 62
    20
  0
BLOCK
  8
0
  2
*D9
 70
     1
 10
0.0
 20
0.0
 30
0.0
  3
*D9
  1

  0
LINE
  5
DC
  8
回07-寸法
  6
CONTINUOUS
 62
     5
 10
820.9805456835445
 20
341.0748238092592
 30
0.0
 11
820.9805456835445
 21
363.7992460374715
 31
0.0
  0
LINE
  5
DD
  8
回07-寸法
  6
CONTINUOUS
 62
     5
 10
953.9605456835445
 20
341.0748238092592
 30
0.0
 11
953.9605456835445
 21
363.7992460374715
 31
0.0
  0
LINE
  5
DE
  8
回07-寸法
  6
CONTINUOUS
 62
     5
 10
822.9805456835444
 20
362.7992460374715
 30
0.0
 11
951.9605456835446
 21
362.7992460374715
 31
0.0
  0
INSERT
  5
DF
  8
回07-寸法
  6
CONTINUOUS
 62
     5
 66
     1
  2
_OPEN
 10
820.9805456835445
 20
362.7992460374715
 30
0.0
 41
2.0
 42
2.0
 43
2.0
 50
180.0
  0
SEQEND
  5
E0
  8
0
  6
CONTINUOUS
 62
    20
  0
INSERT
  5
E1
  8
回07-寸法
  6
CONTINUOUS
 62
     5
 66
     1
  2
_OPEN
 10
953.9605456835445
 20
362.7992460374715
 30
0.0
 41
2.0
 42
2.0
 43
2.0
  0
SEQEND
  5
E2
  8
0
  6
CONTINUOUS
 62
    20
  0
TEXT
  5
E3
  8
回07-寸法
  6
CONTINUOUS
 62
     5
 10
869.315720681935
 20
363.4492460374715
 30
0.0
 40
3.0
  1
132.98 (Active area)
1001
ACAD
1000
MTEXTBEGIN
1070
    73
1070
     1
1070
    44
1040
1.0
1070
    74
1070
     0
1000
MTEXTEND
  0
POINT
  5
E4
  8
DEFPOINTS
  6
CONTINUOUS
 62
     0
 10
820.9805456835445
 20
341.0748238092592
 30
0.0
  0
POINT
  5
E5
  8
DEFPOINTS
  6
CONTINUOUS
 62
     0
 10
953.9605456835445
 20
341.0748238092592
 30
0.0
  0
POINT
  5
E6
  8
DEFPOINTS
  6
CONTINUOUS
 62
     0
 10
953.9605456835445
 20
362.7992460374715
 30
0.0
  0
ENDBLK
  5
E7
  8
0
 62
    20
  0
BLOCK
  8
0
  2
*D10
 70
     1
 10
0.0
 20
0.0
 30
0.0
  3
*D10
  1

  0
LINE
  5
2D3
  8
回07-寸法
  6
CONTINUOUS
 62
     5
 10
818.9805456835445
 20
343.0748238092592
 30
0.0
 11
818.9805456835445
 21
371.1815328799279
 31
0.0
  0
LINE
  5
2D4
  8
回07-寸法
  6
CONTINUOUS
 62
     5
 10
955.9605456835445
 20
343.0748238092592
 30
0.0
 11
955.9605456835445
 21
371.1815328799279
 31
0.0
  0
LINE
  5
2D5
  8
回07-寸法
  6
CONTINUOUS
 62
     5
 10
820.9805456835445
 20
370.1815328799278
 30
0.0
 11
953.9605456835445
 21
370.1815328799278
 31
0.0
  0
INSERT
  5
2D6
  8
回07-寸法
  6
CONTINUOUS
 62
     5
 66
     1
  2
_OPEN
 10
818.9805456835445
 20
370.1815328799278
 30
0.0
 41
2.0
 42
2.0
 43
2.0
 50
180.0
  0
SEQEND
  5
2D7
  8
0
  6
CONTINUOUS
 62
    20
  0
INSERT
  5
2D8
  8
回07-寸法
  6
CONTINUOUS
 62
     5
 66
     1
  2
_OPEN
 10
955.9605456835445
 20
370.1815328799278
 30
0.0
 41
2.0
 42
2.0
 43
2.0
  0
SEQEND
  5
2D9
  8
0
  6
CONTINUOUS
 62
    20
  0
TEXT
  5
2DA
  8
回07-寸法
  6
CONTINUOUS
 62
     5
 10
868.2657206819351
 20
371.4858984099893
 30
0.0
 40
3.0
  1
136.98 (Viewing area)
1001
ACAD
1000
MTEXTBEGIN
1070
    73
1070
     1
1070
    44
1040
1.0
1070
    74
1070
     0
1000
MTEXTEND
  0
POINT
  5
2DB
  8
DEFPOINTS
  6
CONTINUOUS
 62
     0
 10
818.9805456835445
 20
343.0748238092592
 30
0.0
  0
POINT
  5
2DC
  8
DEFPOINTS
  6
CONTINUOUS
 62
     0
 10
955.9605456835445
 20
343.0748238092592
 30
0.0
  0
POINT
  5
2DD
  8
DEFPOINTS
  6
CONTINUOUS
 62
     0
 10
955.9605456835445
 20
370.1815328799278
 30
0.0
  0
ENDBLK
  5
2DE
  8
0
 62
    20
  0
BLOCK
  8
0
  2
*D11
 70
     1
 10
0.0
 20
0.0
 30
0.0
  3
*D11
  1

  0
LINE
  5
2C4
  8
回07-寸法
  6
CONTINUOUS
 62
     5
 10
818.4805456835444
 20
343.8748238092592
 30
0.0
 11
818.4805456835444
 21
378.8324721457196
 31
0.0
  0
LINE
  5
2C5
  8
回07-寸法
  6
CONTINUOUS
 62
     5
 10
956.4605456835446
 20
343.8748238092591
 30
0.0
 11
956.4605456835446
 21
378.8324721457196
 31
0.0
  0
LINE
  5
2C6
  8
回07-寸法
  6
CONTINUOUS
 62
     5
 10
820.4805456835444
 20
377.8324721457196
 30
0.0
 11
954.4605456835444
 21
377.8324721457196
 31
0.0
  0
INSERT
  5
2C7
  8
回07-寸法
  6
CONTINUOUS
 62
     5
 66
     1
  2
_OPEN
 10
818.4805456835444
 20
377.8324721457196
 30
0.0
 41
2.0
 42
2.0
 43
2.0
 50
180.0
  0
SEQEND
  5
2C8
  8
0
  6
CONTINUOUS
 62
    20
  0
INSERT
  5
2C9
  8
回07-寸法
  6
CONTINUOUS
 62
     5
 66
     1
  2
_OPEN
 10
956.4605456835446
 20
377.8324721457196
 30
0.0
 41
2.0
 42
2.0
 43
2.0
  0
SEQEND
  5
2CA
  8
0
  6
CONTINUOUS
 62
    20
  0
TEXT
  5
2CB
  8
回07-寸法
  6
CONTINUOUS
 62
     5
 10
882.065130130754
 20
378.3324721457196
 30
0.0
 40
3.0
  1
137.98
1001
ACAD
1000
MTEXTBEGIN
1070
    73
1070
     1
1070
    44
1040
1.0
1070
    74
1070
     0
1000
MTEXTEND
  0
POINT
  5
2CC
  8
DEFPOINTS
  6
CONTINUOUS
 62
     0
 10
818.4805456835444
 20
343.8748238092592
 30
0.0
  0
POINT
  5
2CD
  8
DEFPOINTS
  6
CONTINUOUS
 62
     0
 10
956.4605456835446
 20
343.8748238092591
 30
0.0
  0
POINT
  5
2CE
  8
DEFPOINTS
  6
CONTINUOUS
 62
     0
 10
956.4605456835446
 20
377.8324721457196
 30
0.0
  0
ENDBLK
  5
2CF
  8
0
 62
    20
  0
BLOCK
  8
0
  2
*D12
 70
     1
 10
0.0
 20
0.0
 30
0.0
  3
*D12
  1

  0
LINE
  5
2B3
  8
回07-寸法
  6
CONTINUOUS
 62
     5
 10
953.9605456835445
 20
341.0748238092592
 30
0.0
 11
953.9605456835445
 21
363.7992460374715
 31
0.0
  0
LINE
  5
2B4
  8
回07-寸法
  6
CONTINUOUS
 62
     5
 10
960.0805456835443
 20
348.0748238092591
 30
0.0
 11
960.0805456835443
 21
363.7992460374715
 31
0.0
  0
LINE
  5
2B5
  8
回07-寸法
  6
CONTINUOUS
 62
     5
 10
951.9605456835446
 20
362.7992460374715
 30
0.0
 11
949.9605456835444
 21
362.7992460374715
 31
0.0
  0
LINE
  5
2B6
  8
回07-寸法
  6
CONTINUOUS
 62
     5
 10
962.0805456835444
 20
362.7992460374715
 30
0.0
 11
973.1781834788199
 21
362.7992460374715
 31
0.0
  0
LINE
  5
2B7
  8
回07-寸法
  6
CONTINUOUS
 62
     5
 10
953.9605456835445
 20
362.7992460374715
 30
0.0
 11
960.0805456835443
 21
362.7992460374715
 31
0.0
  0
INSERT
  5
2B8
  8
回07-寸法
  6
CONTINUOUS
 62
     5
 66
     1
  2
_OPEN
 10
953.9605456835445
 20
362.7992460374715
 30
0.0
 41
2.0
 42
2.0
 43
2.0
  0
SEQEND
  5
2B9
  8
0
  6
CONTINUOUS
 62
    20
  0
INSERT
  5
2BA
  8
回07-寸法
  6
CONTINUOUS
 62
     5
 66
     1
  2
_OPEN
 10
960.0805456835443
 20
362.7992460374715
 30
0.0
 41
2.0
 42
2.0
 43
2.0
 50
180.0
  0
SEQEND
  5
2BB
  8
0
  6
CONTINUOUS
 62
    20
  0
TEXT
  5
2BC
  8
回07-寸法
  6
CONTINUOUS
 62
     5
 10
964.1293645811822
 20
363.4492460374715
 30
0.0
 40
3.0
  1
(6.12)
1001
ACAD
1000
MTEXTBEGIN
1070
    73
1070
     1
1070
    44
1040
1.0
1070
    74
1070
     0
1000
MTEXTEND
  0
POINT
  5
2BD
  8
DEFPOINTS
  6
CONTINUOUS
 62
     0
 10
953.9605456835445
 20
341.0748238092592
 30
0.0
  0
POINT
  5
2BE
  8
DEFPOINTS
  6
CONTINUOUS
 62
     0
 10
960.0805456835443
 20
348.0748238092591
 30
0.0
  0
POINT
  5
2BF
  8
DEFPOINTS
  6
CONTINUOUS
 62
     0
 10
960.0805456835443
 20
362.7992460374715
 30
0.0
  0
ENDBLK
  5
2C0
  8
0
 62
    20
  0
BLOCK
  8
0
  2
*D13
 70
     1
 10
0.0
 20
0.0
 30
0.0
  3
*D13
  1

  0
LINE
  5
2A2
  8
回07-寸法
  6
CONTINUOUS
 62
     5
 10
955.9605456835445
 20
343.0748238092592
 30
0.0
 11
955.9605456835445
 21
371.1815328799279
 31
0.0
  0
LINE
  5
2A3
  8
回07-寸法
  6
CONTINUOUS
 62
     5
 10
960.0805456835443
 20
348.0748238092591
 30
0.0
 11
960.0805456835443
 21
371.1815328799279
 31
0.0
  0
LINE
  5
2A4
  8
回07-寸法
  6
CONTINUOUS
 62
     5
 10
953.9605456835445
 20
370.1815328799278
 30
0.0
 11
951.9605456835446
 21
370.1815328799278
 31
0.0
  0
LINE
  5
2A5
  8
回07-寸法
  6
CONTINUOUS
 62
     5
 10
962.0805456835444
 20
370.1815328799278
 30
0.0
 11
973.4781834788201
 21
370.1815328799278
 31
0.0
  0
LINE
  5
2A6
  8
回07-寸法
  6
CONTINUOUS
 62
     5
 10
955.9605456835445
 20
370.1815328799278
 30
0.0
 11
960.0805456835443
 21
370.1815328799278
 31
0.0
  0
INSERT
  5
2A7
  8
回07-寸法
  6
CONTINUOUS
 62
     5
 66
     1
  2
_OPEN
 10
955.9605456835445
 20
370.1815328799278
 30
0.0
 41
2.0
 42
2.0
 43
2.0
  0
SEQEND
  5
2A8
  8
0
  6
CONTINUOUS
 62
    20
  0
INSERT
  5
2A9
  8
回07-寸法
  6
CONTINUOUS
 62
     5
 66
     1
  2
_OPEN
 10
960.0805456835443
 20
370.1815328799278
 30
0.0
 41
2.0
 42
2.0
 43
2.0
 50
180.0
  0
SEQEND
  5
2AA
  8
0
  6
CONTINUOUS
 62
    20
  0
TEXT
  5
2AB
  8
回07-寸法
  6
CONTINUOUS
 62
     5
 10
964.1293645811822
 20
370.8315328799278
 30
0.0
 40
3.0
  1
(4.12)
1001
ACAD
1000
MTEXTBEGIN
1070
    73
1070
     1
1070
    44
1040
1.0
1070
    74
1070
     0
1000
MTEXTEND
  0
POINT
  5
2AC
  8
DEFPOINTS
  6
CONTINUOUS
 62
     0
 10
955.9605456835445
 20
343.0748238092592
 30
0.0
  0
POINT
  5
2AD
  8
DEFPOINTS
  6
CONTINUOUS
 62
     0
 10
960.0805456835443
 20
348.0748238092591
 30
0.0
  0
POINT
  5
2AE
  8
DEFPOINTS
  6
CONTINUOUS
 62
     0
 10
960.0805456835443
 20
370.1815328799278
 30
0.0
  0
ENDBLK
  5
2AF
  8
0
 62
    20
  0
BLOCK
  8
0
  2
*D14
 70
     1
 10
0.0
 20
0.0
 30
0.0
  3
*D14
  1

  0
LINE
  5
291
  8
回07-寸法
  6
CONTINUOUS
 62
     5
 10
956.4605456835446
 20
343.8748238092591
 30
0.0
 11
956.4605456835446
 21
378.8324721457196
 31
0.0
  0
LINE
  5
292
  8
回07-寸法
  6
CONTINUOUS
 62
     5
 10
960.0805456835443
 20
348.0748238092591
 30
0.0
 11
960.0805456835443
 21
378.8324721457196
 31
0.0
  0
LINE
  5
293
  8
回07-寸法
  6
CONTINUOUS
 62
     5
 10
954.4605456835444
 20
377.8324721457196
 30
0.0
 11
952.4605456835445
 21
377.8324721457196
 31
0.0
  0
LINE
  5
294
  8
回07-寸法
  6
CONTINUOUS
 62
     5
 10
962.0805456835444
 20
377.8324721457196
 30
0.0
 11
973.7781834788199
 21
377.8324721457196
 31
0.0
  0
LINE
  5
295
  8
回07-寸法
  6
CONTINUOUS
 62
     5
 10
956.4605456835446
 20
377.8324721457196
 30
0.0
 11
960.0805456835443
 21
377.8324721457196
 31
0.0
  0
INSERT
  5
296
  8
回07-寸法
  6
CONTINUOUS
 62
     5
 66
     1
  2
_OPEN
 10
956.4605456835446
 20
377.8324721457196
 30
0.0
 41
2.0
 42
2.0
 43
2.0
  0
SEQEND
  5
297
  8
0
  6
CONTINUOUS
 62
    20
  0
INSERT
  5
298
  8
回07-寸法
  6
CONTINUOUS
 62
     5
 66
     1
  2
_OPEN
 10
960.0805456835443
 20
377.8324721457196
 30
0.0
 41
2.0
 42
2.0
 43
2.0
 50
180.0
  0
SEQEND
  5
299
  8
0
  6
CONTINUOUS
 62
    20
  0
TEXT
  5
29A
  8
回07-寸法
  6
CONTINUOUS
 62
     5
 10
964.1293645811822
 20
378.4824721457196
 30
0.0
 40
3.0
  1
(3.62)
1001
ACAD
1000
MTEXTBEGIN
1070
    73
1070
     1
1070
    44
1040
1.0
1070
    74
1070
     0
1000
MTEXTEND
  0
POINT
  5
29B
  8
DEFPOINTS
  6
CONTINUOUS
 62
     0
 10
956.4605456835446
 20
343.8748238092591
 30
0.0
  0
POINT
  5
29C
  8
DEFPOINTS
  6
CONTINUOUS
 62
     0
 10
960.0805456835443
 20
348.0748238092591
 30
0.0
  0
POINT
  5
29D
  8
DEFPOINTS
  6
CONTINUOUS
 62
     0
 10
960.0805456835443
 20
377.8324721457196
 30
0.0
  0
ENDBLK
  5
29E
  8
0
 62
    20
  0
BLOCK
  8
0
  2
*D15
 70
     1
 10
0.0
 20
0.0
 30
0.0
  3
*D15
  1

  0
LINE
  5
CB
  8
回07-寸法
  6
CONTINUOUS
 62
     5
 10
820.9805456835445
 20
341.0748238092592
 30
0.0
 11
820.9805456835445
 21
363.7992460374715
 31
0.0
  0
LINE
  5
CC
  8
回07-寸法
  6
CONTINUOUS
 62
     5
 10
812.7805456835444
 20
348.0748238092592
 30
0.0
 11
812.7805456835444
 21
363.7992460374715
 31
0.0
  0
LINE
  5
CD
  8
回07-寸法
  6
CONTINUOUS
 62
     5
 10
822.9805456835444
 20
362.7992460374715
 30
0.0
 11
824.9805456835444
 21
362.7992460374715
 31
0.0
  0
LINE
  5
CE
  8
回07-寸法
  6
CONTINUOUS
 62
     5
 10
810.7805456835444
 20
362.7992460374715
 30
0.0
 11
803.40036851819
 21
362.7992460374715
 31
0.0
  0
LINE
  5
CF
  8
回07-寸法
  6
CONTINUOUS
 62
     5
 10
820.9805456835445
 20
362.7992460374715
 30
0.0
 11
812.7805456835444
 21
362.7992460374715
 31
0.0
  0
INSERT
  5
D0
  8
回07-寸法
  6
CONTINUOUS
 62
     5
 66
     1
  2
_OPEN
 10
820.9805456835445
 20
362.7992460374715
 30
0.0
 41
2.0
 42
2.0
 43
2.0
 50
180.0
  0
SEQEND
  5
D1
  8
0
  6
CONTINUOUS
 62
    20
  0
INSERT
  5
D2
  8
回07-寸法
  6
CONTINUOUS
 62
     5
 66
     1
  2
_OPEN
 10
812.7805456835444
 20
362.7992460374715
 30
0.0
 41
2.0
 42
2.0
 43
2.0
  0
SEQEND
  5
D3
  8
0
  6
CONTINUOUS
 62
    20
  0
TEXT
  5
D4
  8
回07-寸法
  6
CONTINUOUS
 62
     5
 10
803.5401254155269
 20
363.2995413130621
 30
0.0
 40
3.0
  1
8.2
1001
ACAD
1000
MTEXTBEGIN
1070
    73
1070
     1
1070
    44
1040
1.0
1070
    74
1070
     0
1000
MTEXTEND
  0
POINT
  5
D5
  8
DEFPOINTS
  6
CONTINUOUS
 62
     0
 10
820.9805456835445
 20
341.0748238092592
 30
0.0
  0
POINT
  5
D6
  8
DEFPOINTS
  6
CONTINUOUS
 62
     0
 10
812.7805456835444
 20
348.0748238092592
 30
0.0
  0
POINT
  5
D7
  8
DEFPOINTS
  6
CONTINUOUS
 62
     0
 10
812.7805456835444
 20
362.7992460374715
 30
0.0
  0
ENDBLK
  5
D8
  8
0
 62
    20
  0
BLOCK
  8
0
  2
*D16
 70
     1
 10
0.0
 20
0.0
 30
0.0
  3
*D16
  1

  0
LINE
  5
280
  8
回07-寸法
  6
CONTINUOUS
 62
     5
 10
818.9805456835445
 20
343.0748238092592
 30
0.0
 11
818.9805456835445
 21
371.1815328799279
 31
0.0
  0
LINE
  5
281
  8
回07-寸法
  6
CONTINUOUS
 62
     5
 10
812.7805456835444
 20
348.0748238092592
 30
0.0
 11
812.7805456835444
 21
371.1815328799279
 31
0.0
  0
LINE
  5
282
  8
回07-寸法
  6
CONTINUOUS
 62
     5
 10
820.9805456835445
 20
370.1815328799278
 30
0.0
 11
822.9805456835444
 21
370.1815328799278
 31
0.0
  0
LINE
  5
283
  8
回07-寸法
  6
CONTINUOUS
 62
     5
 10
810.7805456835444
 20
370.1815328799278
 30
0.0
 11
803.2208409591348
 21
370.1815328799278
 31
0.0
  0
LINE
  5
284
  8
回07-寸法
  6
CONTINUOUS
 62
     5
 10
818.9805456835445
 20
370.1815328799278
 30
0.0
 11
812.7805456835444
 21
370.1815328799278
 31
0.0
  0
INSERT
  5
285
  8
回07-寸法
  6
CONTINUOUS
 62
     5
 66
     1
  2
_OPEN
 10
818.9805456835445
 20
370.1815328799278
 30
0.0
 41
2.0
 42
2.0
 43
2.0
 50
180.0
  0
SEQEND
  5
286
  8
0
  6
CONTINUOUS
 62
    20
  0
INSERT
  5
287
  8
回07-寸法
  6
CONTINUOUS
 62
     5
 66
     1
  2
_OPEN
 10
812.7805456835444
 20
370.1815328799278
 30
0.0
 41
2.0
 42
2.0
 43
2.0
  0
SEQEND
  5
288
  8
0
  6
CONTINUOUS
 62
    20
  0
TEXT
  5
289
  8
回07-寸法
  6
CONTINUOUS
 62
     5
 10
803.4503616359993
 20
370.6818281555184
 30
0.0
 40
3.0
  1
6.2
1001
ACAD
1000
MTEXTBEGIN
1070
    73
1070
     1
1070
    44
1040
1.0
1070
    74
1070
     0
1000
MTEXTEND
  0
POINT
  5
28A
  8
DEFPOINTS
  6
CONTINUOUS
 62
     0
 10
818.9805456835445
 20
343.0748238092592
 30
0.0
  0
POINT
  5
28B
  8
DEFPOINTS
  6
CONTINUOUS
 62
     0
 10
812.7805456835444
 20
348.0748238092592
 30
0.0
  0
POINT
  5
28C
  8
DEFPOINTS
  6
CONTINUOUS
 62
     0
 10
812.7805456835444
 20
370.1815328799278
 30
0.0
  0
ENDBLK
  5
28D
  8
0
 62
    20
  0
BLOCK
  8
0
  2
*D17
 70
     1
 10
0.0
 20
0.0
 30
0.0
  3
*D17
  1

  0
LINE
  5
26F
  8
回07-寸法
  6
CONTINUOUS
 62
     5
 10
818.4805456835444
 20
343.8748238092592
 30
0.0
 11
818.4805456835444
 21
378.8324721457196
 31
0.0
  0
LINE
  5
270
  8
回07-寸法
  6
CONTINUOUS
 62
     5
 10
812.7805456835444
 20
348.0748238092592
 30
0.0
 11
812.7805456835444
 21
378.8324721457196
 31
0.0
  0
LINE
  5
271
  8
回07-寸法
  6
CONTINUOUS
 62
     5
 10
820.4805456835444
 20
377.8324721457196
 30
0.0
 11
822.4805456835445
 21
377.8324721457196
 31
0.0
  0
LINE
  5
272
  8
回07-寸法
  6
CONTINUOUS
 62
     5
 10
810.7805456835444
 20
377.8324721457196
 30
0.0
 11
773.2742267859066
 21
377.8324721457196
 31
0.0
  0
LINE
  5
273
  8
回07-寸法
  6
CONTINUOUS
 62
     5
 10
818.4805456835444
 20
377.8324721457196
 30
0.0
 11
812.7805456835444
 21
377.8324721457196
 31
0.0
  0
INSERT
  5
274
  8
回07-寸法
  6
CONTINUOUS
 62
     5
 66
     1
  2
_OPEN
 10
818.4805456835444
 20
377.8324721457196
 30
0.0
 41
2.0
 42
2.0
 43
2.0
 50
180.0
  0
SEQEND
  5
275
  8
0
  6
CONTINUOUS
 62
    20
  0
INSERT
  5
276
  8
回07-寸法
  6
CONTINUOUS
 62
     5
 66
     1
  2
_OPEN
 10
812.7805456835444
 20
377.8324721457196
 30
0.0
 41
2.0
 42
2.0
 43
2.0
  0
SEQEND
  5
277
  8
0
  6
CONTINUOUS
 62
    20
  0
TEXT
  5
278
  8
回07-寸法
  6
CONTINUOUS
 62
     5
 10
773.3242267859066
 20
378.4862221457196
 30
0.0
 40
3.0
  1
5.7(Insulation Area)
1001
ACAD
1000
MTEXTBEGIN
1070
    73
1070
     1
1070
    44
1040
1.0
1070
    74
1070
     0
1000
MTEXTEND
  0
POINT
  5
279
  8
DEFPOINTS
  6
CONTINUOUS
 62
     0
 10
818.4805456835444
 20
343.8748238092592
 30
0.0
  0
POINT
  5
27A
  8
DEFPOINTS
  6
CONTINUOUS
 62
     0
 10
812.7805456835444
 20
348.0748238092592
 30
0.0
  0
POINT
  5
27B
  8
DEFPOINTS
  6
CONTINUOUS
 62
     0
 10
812.7805456835444
 20
377.8324721457196
 30
0.0
  0
ENDBLK
  5
27C
  8
0
 62
    20
  0
BLOCK
  8
0
  2
*D18
 70
     1
 10
0.0
 20
0.0
 30
0.0
  3
*D18
  1

  0
LINE
  5
260
  8
回07-寸法
  6
CONTINUOUS
 62
     5
 10
812.7805456835444
 20
348.0748238092592
 30
0.0
 11
812.7805456835444
 21
386.1327503664928
 31
0.0
  0
LINE
  5
261
  8
回07-寸法
  6
CONTINUOUS
 62
     5
 10
960.0805456835443
 20
348.0748238092591
 30
0.0
 11
960.0805456835443
 21
386.1327503664928
 31
0.0
  0
LINE
  5
262
  8
回07-寸法
  6
CONTINUOUS
 62
     5
 10
814.7805456835444
 20
385.1327503664927
 30
0.0
 11
958.0805456835443
 21
385.1327503664927
 31
0.0
  0
INSERT
  5
263
  8
回07-寸法
  6
CONTINUOUS
 62
     5
 66
     1
  2
_OPEN
 10
812.7805456835444
 20
385.1327503664927
 30
0.0
 41
2.0
 42
2.0
 43
2.0
 50
180.0
  0
SEQEND
  5
264
  8
0
  6
CONTINUOUS
 62
    20
  0
INSERT
  5
265
  8
回07-寸法
  6
CONTINUOUS
 62
     5
 66
     1
  2
_OPEN
 10
960.0805456835443
 20
385.1327503664927
 30
0.0
 41
2.0
 42
2.0
 43
2.0
  0
SEQEND
  5
266
  8
0
  6
CONTINUOUS
 62
    20
  0
INSERT
  5
267
  8
回07-寸法
  6
CONTINUOUS
 62
     5
 66
     1
  2
*X88
 10
0.0
 20
0.0
 30
0.0
  0
SEQEND
  5
6D2
  8
0
  6
CONTINUOUS
 62
    20
  0
POINT
  5
268
  8
DEFPOINTS
  6
CONTINUOUS
 62
     0
 10
812.7805456835444
 20
348.0748238092592
 30
0.0
  0
POINT
  5
269
  8
DEFPOINTS
  6
CONTINUOUS
 62
     0
 10
960.0805456835443
 20
348.0748238092591
 30
0.0
  0
POINT
  5
26A
  8
DEFPOINTS
  6
CONTINUOUS
 62
     0
 10
960.0805456835443
 20
385.1327503664927
 30
0.0
  0
ENDBLK
  5
26B
  8
0
 62
    20
  0
BLOCK
  8
0
  2
*D19
 70
     1
 10
0.0
 20
0.0
 30
0.0
  3
*D19
  1

  0
LINE
  5
251
  8
回07-寸法
  6
CONTINUOUS
 62
     5
 10
953.9605456835449
 20
341.0748238092593
 30
0.0
 11
976.9982078946707
 21
341.0748238092593
 31
0.0
  0
LINE
  5
252
  8
回07-寸法
  6
CONTINUOUS
 62
     5
 10
953.9605456835449
 20
241.2148238092592
 30
0.0
 11
976.9982078946709
 21
241.2148238092592
 31
0.0
  0
LINE
  5
253
  8
回07-寸法
  6
CONTINUOUS
 62
     5
 10
975.9982078946707
 20
339.0748238092593
 30
0.0
 11
975.9982078946707
 21
243.2148238092593
 31
0.0
  0
INSERT
  5
254
  8
回07-寸法
  6
CONTINUOUS
 62
     5
 66
     1
  2
_OPEN
 10
975.9982078946707
 20
341.0748238092593
 30
0.0
 41
2.0
 42
2.0
 43
2.0
 50
90.0
  0
SEQEND
  5
255
  8
0
  6
CONTINUOUS
 62
    20
  0
INSERT
  5
256
  8
回07-寸法
  6
CONTINUOUS
 62
     5
 66
     1
  2
_OPEN
 10
975.9982078946707
 20
241.2148238092593
 30
0.0
 41
2.0
 42
2.0
 43
2.0
 50
270.0
  0
SEQEND
  5
257
  8
0
  6
CONTINUOUS
 62
    20
  0
TEXT
  5
258
  8
回07-寸法
  6
CONTINUOUS
 62
     5
 10
975.3482078946706
 20
273.7291677020686
 30
0.0
 40
3.0
  1
99.86 (Active area)
 50
90.0
1001
ACAD
1000
MTEXTBEGIN
1070
    73
1070
     1
1070
    44
1040
1.0
1070
    74
1070
     0
1000
MTEXTEND
  0
POINT
  5
259
  8
DEFPOINTS
  6
CONTINUOUS
 62
     0
 10
953.9605456835449
 20
341.0748238092593
 30
0.0
  0
POINT
  5
25A
  8
DEFPOINTS
  6
CONTINUOUS
 62
     0
 10
953.9605456835449
 20
241.2148238092592
 30
0.0
  0
POINT
  5
25B
  8
DEFPOINTS
  6
CONTINUOUS
 62
     0
 10
975.9982078946707
 20
241.2148238092593
 30
0.0
  0
ENDBLK
  5
25C
  8
0
 62
    20
  0
BLOCK
  8
0
  2
*D20
 70
     1
 10
0.0
 20
0.0
 30
0.0
  3
*D20
  1

  0
LINE
  5
242
  8
回07-寸法
  6
CONTINUOUS
 62
     5
 10
955.960545683545
 20
343.0748238092593
 30
0.0
 11
985.9626679335281
 21
343.0748238092593
 31
0.0
  0
LINE
  5
243
  8
回07-寸法
  6
CONTINUOUS
 62
     5
 10
955.960545683545
 20
239.2148238092592
 30
0.0
 11
985.9626679335283
 21
239.2148238092592
 31
0.0
  0
LINE
  5
244
  8
回07-寸法
  6
CONTINUOUS
 62
     5
 10
984.9626679335282
 20
341.0748238092593
 30
0.0
 11
984.9626679335282
 21
241.2148238092593
 31
0.0
  0
INSERT
  5
245
  8
回07-寸法
  6
CONTINUOUS
 62
     5
 66
     1
  2
_OPEN
 10
984.9626679335282
 20
343.0748238092593
 30
0.0
 41
2.0
 42
2.0
 43
2.0
 50
90.0
  0
SEQEND
  5
246
  8
0
  6
CONTINUOUS
 62
    20
  0
INSERT
  5
247
  8
回07-寸法
  6
CONTINUOUS
 62
     5
 66
     1
  2
_OPEN
 10
984.9626679335283
 20
239.2148238092593
 30
0.0
 41
2.0
 42
2.0
 43
2.0
 50
270.0
  0
SEQEND
  5
248
  8
0
  6
CONTINUOUS
 62
    20
  0
TEXT
  5
249
  8
回07-寸法
  6
CONTINUOUS
 62
     5
 10
983.6583024034666
 20
271.9454143604399
 30
0.0
 40
3.0
  1
103.86 (Viewing area)
 50
90.0
1001
ACAD
1000
MTEXTBEGIN
1070
    73
1070
     1
1070
    44
1040
1.0
1070
    74
1070
     0
1000
MTEXTEND
  0
POINT
  5
24A
  8
DEFPOINTS
  6
CONTINUOUS
 62
     0
 10
955.960545683545
 20
343.0748238092593
 30
0.0
  0
POINT
  5
24B
  8
DEFPOINTS
  6
CONTINUOUS
 62
     0
 10
955.960545683545
 20
239.2148238092592
 30
0.0
  0
POINT
  5
24C
  8
DEFPOINTS
  6
CONTINUOUS
 62
     0
 10
984.9626679335283
 20
239.2148238092593
 30
0.0
  0
ENDBLK
  5
24D
  8
0
 62
    20
  0
BLOCK
  8
0
  2
*D21
 70
     1
 10
0.0
 20
0.0
 30
0.0
  3
*D21
  1

  0
LINE
  5
233
  8
回07-寸法
  6
CONTINUOUS
 62
     5
 10
956.4605456835449
 20
238.4148238092593
 30
0.0
 11
994.9101974464385
 21
238.4148238092593
 31
0.0
  0
LINE
  5
234
  8
回07-寸法
  6
CONTINUOUS
 62
     5
 10
956.4605456835449
 20
343.8748238092592
 30
0.0
 11
994.9101974464383
 21
343.8748238092592
 31
0.0
  0
LINE
  5
235
  8
回07-寸法
  6
CONTINUOUS
 62
     5
 10
993.9101974464385
 20
240.4148238092593
 30
0.0
 11
993.9101974464385
 21
341.8748238092592
 31
0.0
  0
INSERT
  5
236
  8
回07-寸法
  6
CONTINUOUS
 62
     5
 66
     1
  2
_OPEN
 10
993.9101974464385
 20
238.4148238092593
 30
0.0
 41
2.0
 42
2.0
 43
2.0
 50
270.0
  0
SEQEND
  5
237
  8
0
  6
CONTINUOUS
 62
    20
  0
INSERT
  5
238
  8
回07-寸法
  6
CONTINUOUS
 62
     5
 66
     1
  2
_OPEN
 10
993.9101974464383
 20
343.8748238092592
 30
0.0
 41
2.0
 42
2.0
 43
2.0
 50
90.0
  0
SEQEND
  5
239
  8
0
  6
CONTINUOUS
 62
    20
  0
TEXT
  5
23A
  8
回07-寸法
  6
CONTINUOUS
 62
     5
 10
993.4101974464381
 20
285.5935712666081
 30
0.0
 40
3.0
  1
105.46
 50
90.0
1001
ACAD
1000
MTEXTBEGIN
1070
    73
1070
     1
1070
    44
1040
1.0
1070
    74
1070
     0
1000
MTEXTEND
  0
POINT
  5
23B
  8
DEFPOINTS
  6
CONTINUOUS
 62
     0
 10
956.4605456835449
 20
238.4148238092593
 30
0.0
  0
POINT
  5
23C
  8
DEFPOINTS
  6
CONTINUOUS
 62
     0
 10
956.4605456835449
 20
343.8748238092592
 30
0.0
  0
POINT
  5
23D
  8
DEFPOINTS
  6
CONTINUOUS
 62
     0
 10
993.9101974464383
 20
343.8748238092592
 30
0.0
  0
ENDBLK
  5
23E
  8
0
 62
    20
  0
BLOCK
  8
0
  2
*D22
 70
     1
 10
0.0
 20
0.0
 30
0.0
  3
*D22
  1

  0
LINE
  5
222
  8
回07-寸法
  6
CONTINUOUS
 62
     5
 10
953.9605456835449
 20
341.0748238092593
 30
0.0
 11
976.9982078946704
 21
341.0748238092593
 31
0.0
  0
LINE
  5
223
  8
回07-寸法
  6
CONTINUOUS
 62
     5
 10
960.0805456835448
 20
348.0748238092592
 30
0.0
 11
976.9982078946704
 21
348.0748238092592
 31
0.0
  0
LINE
  5
224
  8
回07-寸法
  6
CONTINUOUS
 62
     5
 10
975.9982078946704
 20
339.0748238092593
 30
0.0
 11
975.9982078946704
 21
337.0748238092593
 31
0.0
  0
LINE
  5
225
  8
回07-寸法
  6
CONTINUOUS
 62
     5
 10
975.9982078946704
 20
350.0748238092592
 30
0.0
 11
975.9982078946704
 21
356.6724616045352
 31
0.0
  0
LINE
  5
226
  8
回07-寸法
  6
CONTINUOUS
 62
     5
 10
975.9982078946704
 20
341.0748238092593
 30
0.0
 11
975.9982078946704
 21
348.0748238092592
 31
0.0
  0
INSERT
  5
227
  8
回07-寸法
  6
CONTINUOUS
 62
     5
 66
     1
  2
_OPEN
 10
975.9982078946704
 20
341.0748238092593
 30
0.0
 41
2.0
 42
2.0
 43
2.0
 50
90.0
  0
SEQEND
  5
228
  8
0
  6
CONTINUOUS
 62
    20
  0
INSERT
  5
229
  8
回07-寸法
  6
CONTINUOUS
 62
     5
 66
     1
  2
_OPEN
 10
975.9982078946704
 20
348.0748238092592
 30
0.0
 41
2.0
 42
2.0
 43
2.0
 50
270.0
  0
SEQEND
  5
22A
  8
0
  6
CONTINUOUS
 62
    20
  0
TEXT
  5
22B
  8
回07-寸法
  6
CONTINUOUS
 62
     5
 10
975.3482078946701
 20
352.123642706897
 30
0.0
 40
3.0
  1
(7)
 50
90.0
1001
ACAD
1000
MTEXTBEGIN
1070
    73
1070
     1
1070
    44
1040
1.0
1070
    74
1070
     0
1000
MTEXTEND
  0
POINT
  5
22C
  8
DEFPOINTS
  6
CONTINUOUS
 62
     0
 10
953.9605456835449
 20
341.0748238092593
 30
0.0
  0
POINT
  5
22D
  8
DEFPOINTS
  6
CONTINUOUS
 62
     0
 10
960.0805456835448
 20
348.0748238092592
 30
0.0
  0
POINT
  5
22E
  8
DEFPOINTS
  6
CONTINUOUS
 62
     0
 10
975.9982078946704
 20
348.0748238092592
 30
0.0
  0
ENDBLK
  5
22F
  8
0
 62
    20
  0
BLOCK
  8
0
  2
*D23
 70
     1
 10
0.0
 20
0.0
 30
0.0
  3
*D23
  1

  0
LINE
  5
211
  8
回07-寸法
  6
CONTINUOUS
 62
     5
 10
955.960545683545
 20
343.0748238092593
 30
0.0
 11
985.9626679335301
 21
343.0748238092593
 31
0.0
  0
LINE
  5
212
  8
回07-寸法
  6
CONTINUOUS
 62
     5
 10
960.0805456835448
 20
348.0748238092592
 30
0.0
 11
985.9626679335301
 21
348.0748238092592
 31
0.0
  0
LINE
  5
213
  8
回07-寸法
  6
CONTINUOUS
 62
     5
 10
984.9626679335301
 20
341.0748238092593
 30
0.0
 11
984.9626679335301
 21
339.0748238092593
 31
0.0
  0
LINE
  5
214
  8
回07-寸法
  6
CONTINUOUS
 62
     5
 10
984.9626679335301
 20
350.0748238092592
 30
0.0
 11
984.9626679335301
 21
356.6724616045348
 31
0.0
  0
LINE
  5
215
  8
回07-寸法
  6
CONTINUOUS
 62
     5
 10
984.9626679335301
 20
343.0748238092593
 30
0.0
 11
984.9626679335301
 21
348.0748238092592
 31
0.0
  0
INSERT
  5
216
  8
回07-寸法
  6
CONTINUOUS
 62
     5
 66
     1
  2
_OPEN
 10
984.9626679335301
 20
343.0748238092593
 30
0.0
 41
2.0
 42
2.0
 43
2.0
 50
90.0
  0
SEQEND
  5
217
  8
0
  6
CONTINUOUS
 62
    20
  0
INSERT
  5
218
  8
回07-寸法
  6
CONTINUOUS
 62
     5
 66
     1
  2
_OPEN
 10
984.9626679335301
 20
348.0748238092592
 30
0.0
 41
2.0
 42
2.0
 43
2.0
 50
270.0
  0
SEQEND
  5
219
  8
0
  6
CONTINUOUS
 62
    20
  0
TEXT
  5
21A
  8
回07-寸法
  6
CONTINUOUS
 62
     5
 10
984.31266793353
 20
352.1236427068966
 30
0.0
 40
3.0
  1
(5)
 50
90.0
1001
ACAD
1000
MTEXTBEGIN
1070
    73
1070
     1
1070
    44
1040
1.0
1070
    74
1070
     0
1000
MTEXTEND
  0
POINT
  5
21B
  8
DEFPOINTS
  6
CONTINUOUS
 62
     0
 10
955.960545683545
 20
343.0748238092593
 30
0.0
  0
POINT
  5
21C
  8
DEFPOINTS
  6
CONTINUOUS
 62
     0
 10
960.0805456835448
 20
348.0748238092592
 30
0.0
  0
POINT
  5
21D
  8
DEFPOINTS
  6
CONTINUOUS
 62
     0
 10
984.9626679335301
 20
348.0748238092592
 30
0.0
  0
ENDBLK
  5
21E
  8
0
 62
    20
  0
BLOCK
  8
0
  2
*D24
 70
     1
 10
0.0
 20
0.0
 30
0.0
  3
*D24
  1

  0
LINE
  5
200
  8
回07-寸法
  6
CONTINUOUS
 62
     5
 10
956.4605456835449
 20
343.8748238092592
 30
0.0
 11
994.9101974464406
 21
343.8748238092592
 31
0.0
  0
LINE
  5
201
  8
回07-寸法
  6
CONTINUOUS
 62
     5
 10
960.0805456835448
 20
348.0748238092592
 30
0.0
 11
994.9101974464406
 21
348.0748238092592
 31
0.0
  0
LINE
  5
202
  8
回07-寸法
  6
CONTINUOUS
 62
     5
 10
993.9101974464406
 20
341.8748238092592
 30
0.0
 11
993.9101974464406
 21
339.8748238092592
 31
0.0
  0
LINE
  5
203
  8
回07-寸法
  6
CONTINUOUS
 62
     5
 10
993.9101974464406
 20
350.0748238092592
 30
0.0
 11
993.9101974464406
 21
359.9724616045348
 31
0.0
  0
LINE
  5
204
  8
回07-寸法
  6
CONTINUOUS
 62
     5
 10
993.9101974464406
 20
343.8748238092592
 30
0.0
 11
993.9101974464406
 21
348.0748238092592
 31
0.0
  0
INSERT
  5
205
  8
回07-寸法
  6
CONTINUOUS
 62
     5
 66
     1
  2
_OPEN
 10
993.9101974464406
 20
343.8748238092592
 30
0.0
 41
2.0
 42
2.0
 43
2.0
 50
90.0
  0
SEQEND
  5
206
  8
0
  6
CONTINUOUS
 62
    20
  0
INSERT
  5
207
  8
回07-寸法
  6
CONTINUOUS
 62
     5
 66
     1
  2
_OPEN
 10
993.9101974464406
 20
348.0748238092592
 30
0.0
 41
2.0
 42
2.0
 43
2.0
 50
270.0
  0
SEQEND
  5
208
  8
0
  6
CONTINUOUS
 62
    20
  0
TEXT
  5
209
  8
回07-寸法
  6
CONTINUOUS
 62
     5
 10
993.2601974464406
 20
352.1236427068967
 30
0.0
 40
3.0
  1
(4.2)
 50
90.0
1001
ACAD
1000
MTEXTBEGIN
1070
    73
1070
     1
1070
    44
1040
1.0
1070
    74
1070
     0
1000
MTEXTEND
  0
POINT
  5
20A
  8
DEFPOINTS
  6
CONTINUOUS
 62
     0
 10
956.4605456835449
 20
343.8748238092592
 30
0.0
  0
POINT
  5
20B
  8
DEFPOINTS
  6
CONTINUOUS
 62
     0
 10
960.0805456835448
 20
348.0748238092592
 30
0.0
  0
POINT
  5
20C
  8
DEFPOINTS
  6
CONTINUOUS
 62
     0
 10
993.9101974464406
 20
348.0748238092592
 30
0.0
  0
ENDBLK
  5
20D
  8
0
 62
    20
  0
BLOCK
  8
0
  2
*D25
 70
     1
 10
0.0
 20
0.0
 30
0.0
  3
*D25
  1

  0
LINE
  5
1EF
  8
回07-寸法
  6
CONTINUOUS
 62
     5
 10
953.9605456835449
 20
241.2148238092592
 30
0.0
 11
976.9982078946686
 21
241.2148238092592
 31
0.0
  0
LINE
  5
1F0
  8
回07-寸法
  6
CONTINUOUS
 62
     5
 10
960.0805456835448
 20
233.7748238092589
 30
0.0
 11
976.9982078946686
 21
233.7748238092589
 31
0.0
  0
LINE
  5
1F1
  8
回07-寸法
  6
CONTINUOUS
 62
     5
 10
975.9982078946686
 20
243.2148238092593
 30
0.0
 11
975.9982078946686
 21
245.2148238092593
 31
0.0
  0
LINE
  5
1F2
  8
回07-寸法
  6
CONTINUOUS
 62
     5
 10
975.9982078946686
 20
231.7748238092589
 30
0.0
 11
975.9982078946686
 21
221.8748238092589
 31
0.0
  0
LINE
  5
1F3
  8
回07-寸法
  6
CONTINUOUS
 62
     5
 10
975.9982078946686
 20
241.2148238092593
 30
0.0
 11
975.9982078946686
 21
233.7748238092589
 31
0.0
  0
INSERT
  5
1F4
  8
回07-寸法
  6
CONTINUOUS
 62
     5
 66
     1
  2
_OPEN
 10
975.9982078946686
 20
241.2148238092593
 30
0.0
 41
2.0
 42
2.0
 43
2.0
 50
270.0
  0
SEQEND
  5
1F5
  8
0
  6
CONTINUOUS
 62
    20
  0
INSERT
  5
1F6
  8
回07-寸法
  6
CONTINUOUS
 62
     5
 66
     1
  2
_OPEN
 10
975.9982078946686
 20
233.7748238092589
 30
0.0
 41
2.0
 42
2.0
 43
2.0
 50
90.0
  0
SEQEND
  5
1F7
  8
0
  6
CONTINUOUS
 62
    20
  0
TEXT
  5
1F8
  8
回07-寸法
  6
CONTINUOUS
 62
     5
 10
975.4982078946683
 20
221.9248238092585
 30
0.0
 40
3.0
  1
7.44
 50
90.0
1001
ACAD
1000
MTEXTBEGIN
1070
    73
1070
     1
1070
    44
1040
1.0
1070
    74
1070
     0
1000
MTEXTEND
  0
POINT
  5
1F9
  8
DEFPOINTS
  6
CONTINUOUS
 62
     0
 10
953.9605456835449
 20
241.2148238092592
 30
0.0
  0
POINT
  5
1FA
  8
DEFPOINTS
  6
CONTINUOUS
 62
     0
 10
960.0805456835448
 20
233.7748238092589
 30
0.0
  0
POINT
  5
1FB
  8
DEFPOINTS
  6
CONTINUOUS
 62
     0
 10
975.9982078946686
 20
233.7748238092589
 30
0.0
  0
ENDBLK
  5
1FC
  8
0
 62
    20
  0
BLOCK
  8
0
  2
*D26
 70
     1
 10
0.0
 20
0.0
 30
0.0
  3
*D26
  1

  0
LINE
  5
1DE
  8
回07-寸法
  6
CONTINUOUS
 62
     5
 10
955.960545683545
 20
239.2148238092592
 30
0.0
 11
985.9626679335288
 21
239.2148238092592
 31
0.0
  0
LINE
  5
1DF
  8
回07-寸法
  6
CONTINUOUS
 62
     5
 10
960.0805456835448
 20
233.7748238092589
 30
0.0
 11
985.9626679335288
 21
233.7748238092589
 31
0.0
  0
LINE
  5
1E0
  8
回07-寸法
  6
CONTINUOUS
 62
     5
 10
984.9626679335287
 20
241.2148238092593
 30
0.0
 11
984.9626679335287
 21
243.2148238092593
 31
0.0
  0
LINE
  5
1E1
  8
回07-寸法
  6
CONTINUOUS
 62
     5
 10
984.9626679335287
 20
231.7748238092589
 30
0.0
 11
984.9626679335287
 21
221.8748238092589
 31
0.0
  0
LINE
  5
1E2
  8
回07-寸法
  6
CONTINUOUS
 62
     5
 10
984.9626679335287
 20
239.2148238092593
 30
0.0
 11
984.9626679335287
 21
233.7748238092589
 31
0.0
  0
INSERT
  5
1E3
  8
回07-寸法
  6
CONTINUOUS
 62
     5
 66
     1
  2
_OPEN
 10
984.9626679335287
 20
239.2148238092593
 30
0.0
 41
2.0
 42
2.0
 43
2.0
 50
270.0
  0
SEQEND
  5
1E4
  8
0
  6
CONTINUOUS
 62
    20
  0
INSERT
  5
1E5
  8
回07-寸法
  6
CONTINUOUS
 62
     5
 66
     1
  2
_OPEN
 10
984.9626679335287
 20
233.7748238092589
 30
0.0
 41
2.0
 42
2.0
 43
2.0
 50
90.0
  0
SEQEND
  5
1E6
  8
0
  6
CONTINUOUS
 62
    20
  0
TEXT
  5
1E7
  8
回07-寸法
  6
CONTINUOUS
 62
     5
 10
984.4626679335286
 20
221.9248238092585
 30
0.0
 40
3.0
  1
5.44
 50
90.0
1001
ACAD
1000
MTEXTBEGIN
1070
    73
1070
     1
1070
    44
1040
1.0
1070
    74
1070
     0
1000
MTEXTEND
  0
POINT
  5
1E8
  8
DEFPOINTS
  6
CONTINUOUS
 62
     0
 10
955.960545683545
 20
239.2148238092592
 30
0.0
  0
POINT
  5
1E9
  8
DEFPOINTS
  6
CONTINUOUS
 62
     0
 10
960.0805456835448
 20
233.7748238092589
 30
0.0
  0
POINT
  5
1EA
  8
DEFPOINTS
  6
CONTINUOUS
 62
     0
 10
984.9626679335287
 20
233.7748238092589
 30
0.0
  0
ENDBLK
  5
1EB
  8
0
 62
    20
  0
BLOCK
  8
0
  2
*D27
 70
     1
 10
0.0
 20
0.0
 30
0.0
  3
*D27
  1

  0
LINE
  5
1CD
  8
回07-寸法
  6
CONTINUOUS
 62
     5
 10
956.4605456835449
 20
238.4148238092593
 30
0.0
 11
994.9101974464429
 21
238.4148238092593
 31
0.0
  0
LINE
  5
1CE
  8
回07-寸法
  6
CONTINUOUS
 62
     5
 10
960.0805456835448
 20
233.7748238092589
 30
0.0
 11
994.9101974464429
 21
233.7748238092589
 31
0.0
  0
LINE
  5
1CF
  8
回07-寸法
  6
CONTINUOUS
 62
     5
 10
993.910197446443
 20
240.4148238092593
 30
0.0
 11
993.910197446443
 21
242.4148238092593
 31
0.0
  0
LINE
  5
1D0
  8
回07-寸法
  6
CONTINUOUS
 62
     5
 10
993.910197446443
 20
231.7748238092589
 30
0.0
 11
993.910197446443
 21
191.5685049116211
 31
0.0
  0
LINE
  5
1D1
  8
回07-寸法
  6
CONTINUOUS
 62
     5
 10
993.910197446443
 20
238.4148238092593
 30
0.0
 11
993.910197446443
 21
233.7748238092589
 31
0.0
  0
INSERT
  5
1D2
  8
回07-寸法
  6
CONTINUOUS
 62
     5
 66
     1
  2
_OPEN
 10
993.910197446443
 20
238.4148238092593
 30
0.0
 41
2.0
 42
2.0
 43
2.0
 50
270.0
  0
SEQEND
  5
1D3
  8
0
  6
CONTINUOUS
 62
    20
  0
INSERT
  5
1D4
  8
回07-寸法
  6
CONTINUOUS
 62
     5
 66
     1
  2
_OPEN
 10
993.910197446443
 20
233.7748238092589
 30
0.0
 41
2.0
 42
2.0
 43
2.0
 50
90.0
  0
SEQEND
  5
1D5
  8
0
  6
CONTINUOUS
 62
    20
  0
TEXT
  5
1D6
  8
回07-寸法
  6
CONTINUOUS
 62
     5
 10
993.2564474464427
 20
191.6185049116208
 30
0.0
 40
3.0
  1
4.64(Insulation Area)
 50
90.0
1001
ACAD
1000
MTEXTBEGIN
1070
    73
1070
     1
1070
    44
1040
1.0
1070
    74
1070
     0
1000
MTEXTEND
  0
POINT
  5
1D7
  8
DEFPOINTS
  6
CONTINUOUS
 62
     0
 10
956.4605456835449
 20
238.4148238092593
 30
0.0
  0
POINT
  5
1D8
  8
DEFPOINTS
  6
CONTINUOUS
 62
     0
 10
960.0805456835448
 20
233.7748238092589
 30
0.0
  0
POINT
  5
1D9
  8
DEFPOINTS
  6
CONTINUOUS
 62
     0
 10
993.910197446443
 20
233.7748238092589
 30
0.0
  0
ENDBLK
  5
1DA
  8
0
 62
    20
  0
BLOCK
  8
0
  2
*D28
 70
     1
 10
0.0
 20
0.0
 30
0.0
  3
*D28
  1

  0
LINE
  5
1BE
  8
回07-寸法
  6
CONTINUOUS
 62
     5
 10
960.0805456835448
 20
233.7748238092589
 30
0.0
 11
1004.377278193133
 21
233.7748238092589
 31
0.0
  0
LINE
  5
1BF
  8
回07-寸法
  6
CONTINUOUS
 62
     5
 10
960.0805456835448
 20
348.0748238092592
 30
0.0
 11
1004.377278193133
 21
348.0748238092592
 31
0.0
  0
LINE
  5
1C0
  8
回07-寸法
  6
CONTINUOUS
 62
     5
 10
1003.377278193133
 20
235.7748238092589
 30
0.0
 11
1003.377278193133
 21
346.0748238092592
 31
0.0
  0
INSERT
  5
1C1
  8
回07-寸法
  6
CONTINUOUS
 62
     5
 66
     1
  2
_OPEN
 10
1003.377278193133
 20
233.7748238092589
 30
0.0
 41
2.0
 42
2.0
 43
2.0
 50
270.0
  0
SEQEND
  5
1C2
  8
0
  6
CONTINUOUS
 62
    20
  0
INSERT
  5
1C3
  8
回07-寸法
  6
CONTINUOUS
 62
     5
 66
     1
  2
_OPEN
 10
1003.377278193133
 20
348.0748238092592
 30
0.0
 41
2.0
 42
2.0
 43
2.0
 50
90.0
  0
SEQEND
  5
1C4
  8
0
  6
CONTINUOUS
 62
    20
  0
INSERT
  5
1C5
  8
回07-寸法
  6
CONTINUOUS
 62
     5
 66
     1
  2
*X89
 10
0.0
 20
0.0
 30
0.0
  0
SEQEND
  5
6D8
  8
0
  6
CONTINUOUS
 62
    20
  0
POINT
  5
1C6
  8
DEFPOINTS
  6
CONTINUOUS
 62
     0
 10
960.0805456835448
 20
233.7748238092589
 30
0.0
  0
POINT
  5
1C7
  8
DEFPOINTS
  6
CONTINUOUS
 62
     0
 10
960.0805456835448
 20
348.0748238092592
 30
0.0
  0
POINT
  5
1C8
  8
DEFPOINTS
  6
CONTINUOUS
 62
     0
 10
1003.377278193133
 20
348.0748238092592
 30
0.0
  0
ENDBLK
  5
1C9
  8
0
 62
    20
  0
BLOCK
  8
0
  2
*D29
 70
     1
 10
0.0
 20
0.0
 30
0.0
  3
*D29
  1

  0
LINE
  5
15D
  8
回07-寸法
  6
CONTINUOUS
 62
     5
 10
960.460545683545
 20
170.4268568570402
 30
0.0
 11
969.2290704359047
 21
170.4268568570402
 31
0.0
  0
LINE
  5
15E
  8
回07-寸法
  6
CONTINUOUS
 62
     5
 10
959.9605456835449
 20
175.9268568570402
 30
0.0
 11
969.2290704359047
 21
175.9268568570402
 31
0.0
  0
LINE
  5
15F
  8
回07-寸法
  6
CONTINUOUS
 62
     5
 10
968.2290704359045
 20
168.4268568570402
 30
0.0
 11
968.2290704359045
 21
166.4268568570402
 31
0.0
  0
LINE
  5
160
  8
回07-寸法
  6
CONTINUOUS
 62
     5
 10
968.2290704359045
 20
177.9268568570403
 30
0.0
 11
968.2290704359045
 21
189.897205973182
 31
0.0
  0
LINE
  5
161
  8
回07-寸法
  6
CONTINUOUS
 62
     5
 10
968.2290704359045
 20
170.4268568570402
 30
0.0
 11
968.2290704359045
 21
175.9268568570403
 31
0.0
  0
INSERT
  5
162
  8
回07-寸法
  6
CONTINUOUS
 62
     5
 66
     1
  2
_OPEN
 10
968.2290704359045
 20
170.4268568570402
 30
0.0
 41
2.0
 42
2.0
 43
2.0
 50
90.0
  0
SEQEND
  5
163
  8
0
  6
CONTINUOUS
 62
    20
  0
INSERT
  5
164
  8
回07-寸法
  6
CONTINUOUS
 62
     5
 66
     1
  2
_OPEN
 10
968.2290704359045
 20
175.9268568570403
 30
0.0
 41
2.0
 42
2.0
 43
2.0
 50
270.0
  0
SEQEND
  5
165
  8
0
  6
CONTINUOUS
 62
    20
  0
INSERT
  5
166
  8
回07-寸法
  6
CONTINUOUS
 62
     5
 66
     1
  2
*X90
 10
0.0
 20
0.0
 30
0.0
  0
SEQEND
  5
6DE
  8
0
  6
CONTINUOUS
 62
    20
  0
POINT
  5
167
  8
DEFPOINTS
  6
CONTINUOUS
 62
     0
 10
960.460545683545
 20
170.4268568570402
 30
0.0
  0
POINT
  5
168
  8
DEFPOINTS
  6
CONTINUOUS
 62
     0
 10
959.9605456835449
 20
175.9268568570402
 30
0.0
  0
POINT
  5
169
  8
DEFPOINTS
  6
CONTINUOUS
 62
     0
 10
968.2290704359045
 20
175.9268568570403
 30
0.0
  0
ENDBLK
  5
16A
  8
0
 62
    20
  0
BLOCK
  8
0
  2
*D30
 70
     1
 10
0.0
 20
0.0
 30
0.0
  3
*D30
  1

  0
LINE
  5
144
  8
回07-寸法
  6
CONTINUOUS
 62
     5
 10
812.7805456835446
 20
173.4268568570399
 30
0.0
 11
812.7805456835446
 21
186.118016255628
 31
0.0
  0
LINE
  5
145
  8
回07-寸法
  6
CONTINUOUS
 62
     5
 10
813.2805456835447
 20
175.92685685704
 30
0.0
 11
813.2805456835447
 21
186.118016255628
 31
0.0
  0
LINE
  5
146
  8
回07-寸法
  6
CONTINUOUS
 62
     5
 10
810.7805456835446
 20
185.118016255628
 30
0.0
 11
808.7805456835447
 21
185.118016255628
 31
0.0
  0
LINE
  5
147
  8
回07-寸法
  6
CONTINUOUS
 62
     5
 10
815.2805456835446
 20
185.118016255628
 30
0.0
 11
824.8781834788202
 21
185.118016255628
 31
0.0
  0
LINE
  5
148
  8
回07-寸法
  6
CONTINUOUS
 62
     5
 10
812.7805456835446
 20
185.118016255628
 30
0.0
 11
813.2805456835447
 21
185.118016255628
 31
0.0
  0
INSERT
  5
149
  8
回07-寸法
  6
CONTINUOUS
 62
     5
 66
     1
  2
_OPEN
 10
812.7805456835446
 20
185.118016255628
 30
0.0
 41
2.0
 42
2.0
 43
2.0
  0
SEQEND
  5
14A
  8
0
  6
CONTINUOUS
 62
    20
  0
INSERT
  5
14B
  8
回07-寸法
  6
CONTINUOUS
 62
     5
 66
     1
  2
_OPEN
 10
813.2805456835447
 20
185.118016255628
 30
0.0
 41
2.0
 42
2.0
 43
2.0
 50
180.0
  0
SEQEND
  5
14C
  8
0
  6
CONTINUOUS
 62
    20
  0
TEXT
  5
14D
  8
回07-寸法
  6
CONTINUOUS
 62
     5
 10
817.3293645811824
 20
185.768016255628
 30
0.0
 40
3.0
  1
(0.5)
1001
ACAD
1000
MTEXTBEGIN
1070
    73
1070
     1
1070
    44
1040
1.0
1070
    74
1070
     0
1000
MTEXTEND
  0
POINT
  5
14E
  8
DEFPOINTS
  6
CONTINUOUS
 62
     0
 10
812.7805456835446
 20
173.4268568570399
 30
0.0
  0
POINT
  5
14F
  8
DEFPOINTS
  6
CONTINUOUS
 62
     0
 10
813.2805456835447
 20
175.92685685704
 30
0.0
  0
POINT
  5
150
  8
DEFPOINTS
  6
CONTINUOUS
 62
     0
 10
813.2805456835447
 20
185.118016255628
 30
0.0
  0
ENDBLK
  5
151
  8
0
 62
    20
  0
BLOCK
  8
0
  2
*D31
 70
     1
 10
0.0
 20
0.0
 30
0.0
  3
*D31
  1

  0
LINE
  5
133
  8
回07-寸法
  6
CONTINUOUS
 62
     5
 10
960.4605456835445
 20
173.4268568570399
 30
0.0
 11
960.4605456835445
 21
186.118016255628
 31
0.0
  0
LINE
  5
134
  8
回07-寸法
  6
CONTINUOUS
 62
     5
 10
959.9605456835446
 20
175.9268568570402
 30
0.0
 11
959.9605456835446
 21
186.118016255628
 31
0.0
  0
LINE
  5
135
  8
回07-寸法
  6
CONTINUOUS
 62
     5
 10
962.4605456835444
 20
185.118016255628
 30
0.0
 11
964.4605456835446
 21
185.118016255628
 31
0.0
  0
LINE
  5
136
  8
回07-寸法
  6
CONTINUOUS
 62
     5
 10
957.9605456835444
 20
185.118016255628
 30
0.0
 11
948.3629078882689
 21
185.118016255628
 31
0.0
  0
LINE
  5
137
  8
回07-寸法
  6
CONTINUOUS
 62
     5
 10
960.4605456835445
 20
185.118016255628
 30
0.0
 11
959.9605456835446
 21
185.118016255628
 31
0.0
  0
INSERT
  5
138
  8
回07-寸法
  6
CONTINUOUS
 62
     5
 66
     1
  2
_OPEN
 10
960.4605456835445
 20
185.118016255628
 30
0.0
 41
2.0
 42
2.0
 43
2.0
 50
180.0
  0
SEQEND
  5
139
  8
0
  6
CONTINUOUS
 62
    20
  0
INSERT
  5
13A
  8
回07-寸法
  6
CONTINUOUS
 62
     5
 66
     1
  2
_OPEN
 10
959.9605456835446
 20
185.118016255628
 30
0.0
 41
2.0
 42
2.0
 43
2.0
  0
SEQEND
  5
13B
  8
0
  6
CONTINUOUS
 62
    20
  0
TEXT
  5
13C
  8
回07-寸法
  6
CONTINUOUS
 62
     5
 10
948.4117267859067
 20
185.768016255628
 30
0.0
 40
3.0
  1
(0.5)
1001
ACAD
1000
MTEXTBEGIN
1070
    73
1070
     1
1070
    44
1040
1.0
1070
    74
1070
     0
1000
MTEXTEND
  0
POINT
  5
13D
  8
DEFPOINTS
  6
CONTINUOUS
 62
     0
 10
960.4605456835445
 20
173.4268568570399
 30
0.0
  0
POINT
  5
13E
  8
DEFPOINTS
  6
CONTINUOUS
 62
     0
 10
959.9605456835446
 20
175.9268568570402
 30
0.0
  0
POINT
  5
13F
  8
DEFPOINTS
  6
CONTINUOUS
 62
     0
 10
959.9605456835446
 20
185.118016255628
 30
0.0
  0
ENDBLK
  5
140
  8
0
 62
    20
  0
BLOCK
  8
0
  2
*D32
 70
     1
 10
0.0
 20
0.0
 30
0.0
  3
*D32
  1

  0
LINE
  5
11E
  8
回07-寸法
  6
CONTINUOUS
 62
     5
 10
737.7805456835451
 20
171.92685685704
 30
0.0
 11
729.3259378973754
 21
171.92685685704
 31
0.0
  0
LINE
  5
11F
  8
回07-寸法
  6
CONTINUOUS
 62
     5
 10
737.7805456835451
 20
174.42685685704
 30
0.0
 11
729.3259378973754
 21
174.42685685704
 31
0.0
  0
LINE
  5
120
  8
回07-寸法
  6
CONTINUOUS
 62
     5
 10
730.3259378973754
 20
176.42685685704
 30
0.0
 11
730.3259378973754
 21
178.42685685704
 31
0.0
  0
LINE
  5
121
  8
回07-寸法
  6
CONTINUOUS
 62
     5
 10
730.3259378973754
 20
169.92685685704
 30
0.0
 11
730.3259378973754
 21
156.2913527977054
 31
0.0
  0
LINE
  5
122
  8
回07-寸法
  6
CONTINUOUS
 62
     5
 10
730.3259378973754
 20
174.42685685704
 30
0.0
 11
730.3259378973754
 21
171.92685685704
 31
0.0
  0
INSERT
  5
123
  8
回07-寸法
  6
CONTINUOUS
 62
     5
 66
     1
  2
_OPEN
 10
730.3259378973754
 20
174.42685685704
 30
0.0
 41
2.0
 42
2.0
 43
2.0
 50
270.0
  0
SEQEND
  5
124
  8
0
  6
CONTINUOUS
 62
    20
  0
INSERT
  5
125
  8
回07-寸法
  6
CONTINUOUS
 62
     5
 66
     1
  2
_OPEN
 10
730.3259378973754
 20
171.92685685704
 30
0.0
 41
2.0
 42
2.0
 43
2.0
 50
90.0
  0
SEQEND
  5
126
  8
0
  6
CONTINUOUS
 62
    20
  0
INSERT
  5
127
  8
回07-寸法
  6
CONTINUOUS
 62
     5
 66
     1
  2
*X91
 10
0.0
 20
0.0
 30
0.0
  0
SEQEND
  5
6E4
  8
0
  6
CONTINUOUS
 62
    20
  0
POINT
  5
128
  8
DEFPOINTS
  6
CONTINUOUS
 62
     0
 10
737.7805456835451
 20
171.92685685704
 30
0.0
  0
POINT
  5
129
  8
DEFPOINTS
  6
CONTINUOUS
 62
     0
 10
737.7805456835451
 20
174.42685685704
 30
0.0
  0
POINT
  5
12A
  8
DEFPOINTS
  6
CONTINUOUS
 62
     0
 10
730.3259378973754
 20
174.42685685704
 30
0.0
  0
ENDBLK
  5
12B
  8
0
 62
    20
  0
BLOCK
  8
0
  2
*D33
 70
     1
 10
0.0
 20
0.0
 30
0.0
  3
*D33
  1

  0
LINE
  5
10D
  8
回07-寸法
  6
CONTINUOUS
 62
     5
 10
747.7805456835449
 20
171.92685685704
 30
0.0
 11
747.7805456835449
 21
158.8470171683744
 31
0.0
  0
LINE
  5
10E
  8
回07-寸法
  6
CONTINUOUS
 62
     5
 10
737.7805456835448
 20
171.92685685704
 30
0.0
 11
737.7805456835448
 21
158.8470171683744
 31
0.0
  0
LINE
  5
10F
  8
回07-寸法
  6
CONTINUOUS
 62
     5
 10
735.7805456835449
 20
159.8470171683744
 30
0.0
 11
733.7805456835448
 21
159.8470171683744
 31
0.0
  0
LINE
  5
110
  8
回07-寸法
  6
CONTINUOUS
 62
     5
 10
749.7805456835449
 20
159.8470171683744
 30
0.0
 11
757.8781834788204
 21
159.8470171683744
 31
0.0
  0
LINE
  5
111
  8
回07-寸法
  6
CONTINUOUS
 62
     5
 10
737.7805456835448
 20
159.8470171683744
 30
0.0
 11
747.7805456835449
 21
159.8470171683744
 31
0.0
  0
INSERT
  5
112
  8
回07-寸法
  6
CONTINUOUS
 62
     5
 66
     1
  2
_OPEN
 10
737.7805456835448
 20
159.8470171683744
 30
0.0
 41
2.0
 42
2.0
 43
2.0
  0
SEQEND
  5
113
  8
0
  6
CONTINUOUS
 62
    20
  0
INSERT
  5
114
  8
回07-寸法
  6
CONTINUOUS
 62
     5
 66
     1
  2
_OPEN
 10
747.7805456835449
 20
159.8470171683744
 30
0.0
 41
2.0
 42
2.0
 43
2.0
 50
180.0
  0
SEQEND
  5
115
  8
0
  6
CONTINUOUS
 62
    20
  0
TEXT
  5
116
  8
回07-寸法
  6
CONTINUOUS
 62
     5
 10
751.8293645811827
 20
160.4970171683745
 30
0.0
 40
3.0
  1
(10)
1001
ACAD
1000
MTEXTBEGIN
1070
    73
1070
     1
1070
    44
1040
1.0
1070
    74
1070
     0
1000
MTEXTEND
  0
POINT
  5
117
  8
DEFPOINTS
  6
CONTINUOUS
 62
     0
 10
747.7805456835449
 20
171.92685685704
 30
0.0
  0
POINT
  5
118
  8
DEFPOINTS
  6
CONTINUOUS
 62
     0
 10
737.7805456835448
 20
171.92685685704
 30
0.0
  0
POINT
  5
119
  8
DEFPOINTS
  6
CONTINUOUS
 62
     0
 10
737.7805456835448
 20
159.8470171683744
 30
0.0
  0
ENDBLK
  5
11A
  8
0
 62
    20
  0
BLOCK
  8
0
  2
*D34
 70
     1
 10
0.0
 20
0.0
 30
0.0
  3
*D34
  1

  0
LINE
  5
FC
  8
回07-寸法
  6
CONTINUOUS
 62
     5
 10
742.7805456835449
 20
175.42685685704
 30
0.0
 11
742.7805456835449
 21
185.2707632064358
 31
0.0
  0
LINE
  5
FD
  8
回07-寸法
  6
CONTINUOUS
 62
     5
 10
737.7805456835448
 20
174.42685685704
 30
0.0
 11
737.7805456835448
 21
185.2707632064358
 31
0.0
  0
LINE
  5
FE
  8
回07-寸法
  6
CONTINUOUS
 62
     5
 10
744.7805456835449
 20
184.2707632064358
 30
0.0
 11
746.7805456835449
 21
184.2707632064358
 31
0.0
  0
LINE
  5
FF
  8
回07-寸法
  6
CONTINUOUS
 62
     5
 10
735.7805456835449
 20
184.2707632064358
 30
0.0
 11
731.4562816148329
 21
184.2707632064358
 31
0.0
  0
LINE
  5
100
  8
回07-寸法
  6
CONTINUOUS
 62
     5
 10
742.7805456835449
 20
184.2707632064358
 30
0.0
 11
737.7805456835448
 21
184.2707632064358
 31
0.0
  0
INSERT
  5
101
  8
回07-寸法
  6
CONTINUOUS
 62
     5
 66
     1
  2
_OPEN
 10
742.7805456835449
 20
184.2707632064358
 30
0.0
 41
2.0
 42
2.0
 43
2.0
 50
180.0
  0
SEQEND
  5
102
  8
0
  6
CONTINUOUS
 62
    20
  0
INSERT
  5
103
  8
回07-寸法
  6
CONTINUOUS
 62
     5
 66
     1
  2
_OPEN
 10
737.7805456835448
 20
184.2707632064358
 30
0.0
 41
2.0
 42
2.0
 43
2.0
  0
SEQEND
  5
104
  8
0
  6
CONTINUOUS
 62
    20
  0
TEXT
  5
105
  8
回07-寸法
  6
CONTINUOUS
 62
     5
 10
731.5684136491888
 20
184.7707632064358
 30
0.0
 40
3.0
  1
5
1001
ACAD
1000
MTEXTBEGIN
1070
    73
1070
     1
1070
    44
1040
1.0
1070
    74
1070
     0
1000
MTEXTEND
  0
POINT
  5
106
  8
DEFPOINTS
  6
CONTINUOUS
 62
     0
 10
742.7805456835449
 20
175.42685685704
 30
0.0
  0
POINT
  5
107
  8
DEFPOINTS
  6
CONTINUOUS
 62
     0
 10
737.7805456835448
 20
174.42685685704
 30
0.0
  0
POINT
  5
108
  8
DEFPOINTS
  6
CONTINUOUS
 62
     0
 10
737.7805456835448
 20
184.2707632064358
 30
0.0
  0
ENDBLK
  5
109
  8
0
 62
    20
  0
BLOCK
  8
0
  2
*D35
 70
     1
 10
0.0
 20
0.0
 30
0.0
  3
*D35
  1

  0
LINE
  5
B4
  8
回02-寸法
  6
CONTINUOUS
 62
     5
 10
722.3679693745297
 20
363.610177202172
 30
0.0
 11
691.9487692693097
 21
363.610177202172
 31
0.0
  0
LINE
  5
B5
  8
回02-寸法
  6
CONTINUOUS
 62
     5
 10
722.3679693745297
 20
351.1101772021729
 30
0.0
 11
691.9487692693097
 21
351.1101772021729
 31
0.0
  0
LINE
  5
B6
  8
回02-寸法
  6
CONTINUOUS
 62
     5
 10
692.9487692693097
 20
365.610177202172
 30
0.0
 11
692.9487692693097
 21
367.610177202172
 31
0.0
  0
LINE
  5
B7
  8
回02-寸法
  6
CONTINUOUS
 62
     5
 10
692.9487692693097
 20
349.1101772021729
 30
0.0
 11
692.9487692693097
 21
334.5603005269761
 31
0.0
  0
LINE
  5
B8
  8
回02-寸法
  6
CONTINUOUS
 62
     5
 10
692.9487692693097
 20
363.610177202172
 30
0.0
 11
692.9487692693097
 21
351.1101772021729
 31
0.0
  0
INSERT
  5
B9
  8
回02-寸法
  6
CONTINUOUS
 62
     5
 66
     1
  2
_OPEN
 10
692.9487692693097
 20
363.610177202172
 30
0.0
 41
2.0
 42
2.0
 43
2.0
 50
270.0
  0
SEQEND
  5
BA
  8
0
  6
CONTINUOUS
 62
    20
  0
INSERT
  5
BB
  8
回02-寸法
  6
CONTINUOUS
 62
     5
 66
     1
  2
_OPEN
 10
692.9487692693097
 20
351.1101772021729
 30
0.0
 41
2.0
 42
2.0
 43
2.0
 50
90.0
  0
SEQEND
  5
BC
  8
0
  6
CONTINUOUS
 62
    20
  0
INSERT
  5
BD
  8
回02-寸法
  6
CONTINUOUS
 62
     5
 66
     1
  2
*X92
 10
0.0
 20
0.0
 30
0.0
  0
SEQEND
  5
6EA
  8
0
  6
CONTINUOUS
 62
    20
  0
POINT
  5
BE
  8
DEFPOINTS
  6
CONTINUOUS
 62
     0
 10
722.3679693745297
 20
363.610177202172
 30
0.0
  0
POINT
  5
BF
  8
DEFPOINTS
  6
CONTINUOUS
 62
     0
 10
722.3679693745297
 20
351.1101772021729
 30
0.0
  0
POINT
  5
C0
  8
DEFPOINTS
  6
CONTINUOUS
 62
     0
 10
692.9487692693097
 20
351.1101772021729
 30
0.0
  0
ENDBLK
  5
C1
  8
0
 62
    20
  0
BLOCK
  8
0
  2
*D36
 70
     1
 10
0.0
 20
0.0
 30
0.0
  3
*D36
  1

  0
LINE
  5
9A
  8
回02-寸法
  6
CONTINUOUS
 62
     5
 10
718.4684402847196
 20
356.1101772021673
 30
0.0
 11
705.4034565558327
 21
356.1101772021673
 31
0.0
  0
LINE
  5
9B
  8
回02-寸法
  6
CONTINUOUS
 62
     5
 10
718.4684402847196
 20
353.6101772021674
 30
0.0
 11
705.4034565558327
 21
353.6101772021674
 31
0.0
  0
LINE
  5
9C
  8
回02-寸法
  6
CONTINUOUS
 62
     5
 10
706.4034565558328
 20
358.1101772021674
 30
0.0
 11
706.4034565558328
 21
360.1101772021674
 31
0.0
  0
LINE
  5
9D
  8
回02-寸法
  6
CONTINUOUS
 62
     5
 10
706.4034565558328
 20
351.6101772021674
 30
0.0
 11
706.4034565558328
 21
336.6850526649626
 31
0.0
  0
LINE
  5
9E
  8
回02-寸法
  6
CONTINUOUS
 62
     5
 10
706.4034565558328
 20
356.1101772021673
 30
0.0
 11
706.4034565558328
 21
353.6101772021674
 31
0.0
  0
INSERT
  5
9F
  8
回02-寸法
  6
CONTINUOUS
 62
     5
 66
     1
  2
_OPEN
 10
706.4034565558328
 20
356.1101772021673
 30
0.0
 41
2.0
 42
2.0
 43
2.0
 50
270.0
  0
SEQEND
  5
A0
  8
0
  6
CONTINUOUS
 62
    20
  0
INSERT
  5
A1
  8
回02-寸法
  6
CONTINUOUS
 62
     5
 66
     1
  2
_OPEN
 10
706.4034565558328
 20
353.6101772021674
 30
0.0
 41
2.0
 42
2.0
 43
2.0
 50
90.0
  0
SEQEND
  5
A2
  8
0
  6
CONTINUOUS
 62
    20
  0
INSERT
  5
A3
  8
回02-寸法
  6
CONTINUOUS
 62
     5
 66
     1
  2
*X93
 10
0.0
 20
0.0
 30
0.0
  0
SEQEND
  5
6F0
  8
0
  6
CONTINUOUS
 62
    20
  0
POINT
  5
A4
  8
DEFPOINTS
  6
CONTINUOUS
 62
     0
 10
718.4684402847196
 20
356.1101772021673
 30
0.0
  0
POINT
  5
A5
  8
DEFPOINTS
  6
CONTINUOUS
 62
     0
 10
718.4684402847196
 20
353.6101772021674
 30
0.0
  0
POINT
  5
A6
  8
DEFPOINTS
  6
CONTINUOUS
 62
     0
 10
706.4034565558328
 20
353.6101772021674
 30
0.0
  0
ENDBLK
  5
A7
  8
0
 62
    20
  0
BLOCK
  8
0
  2
*D37
 70
     1
 10
0.0
 20
0.0
 30
0.0
  3
*D37
  1

  0
LINE
  5
89
  8
回02-寸法
  6
CONTINUOUS
 62
     5
 10
721.3678823529943
 20
354.3101772021674
 30
0.0
 11
712.1680941486853
 21
354.3101772021674
 31
0.0
  0
LINE
  5
8A
  8
回02-寸法
  6
CONTINUOUS
 62
     5
 10
721.3678823529943
 20
352.9101772021674
 30
0.0
 11
712.1680941486853
 21
352.9101772021674
 31
0.0
  0
LINE
  5
8B
  8
回02-寸法
  6
CONTINUOUS
 62
     5
 10
713.1680941486853
 20
356.3101772021674
 30
0.0
 11
713.1680941486853
 21
358.3101772021674
 31
0.0
  0
LINE
  5
8C
  8
回02-寸法
  6
CONTINUOUS
 62
     5
 10
713.1680941486853
 20
350.9101772021674
 30
0.0
 11
713.1680941486853
 21
333.6351977021674
 31
0.0
  0
LINE
  5
8D
  8
回02-寸法
  6
CONTINUOUS
 62
     5
 10
713.1680941486853
 20
354.3101772021674
 30
0.0
 11
713.1680941486853
 21
352.9101772021674
 31
0.0
  0
INSERT
  5
8E
  8
回02-寸法
  6
CONTINUOUS
 62
     5
 66
     1
  2
_OPEN
 10
713.1680941486853
 20
354.3101772021674
 30
0.0
 41
2.0
 42
2.0
 43
2.0
 50
270.0
  0
SEQEND
  5
8F
  8
0
  6
CONTINUOUS
 62
    20
  0
INSERT
  5
90
  8
回02-寸法
  6
CONTINUOUS
 62
     5
 66
     1
  2
_OPEN
 10
713.1680941486853
 20
352.9101772021674
 30
0.0
 41
2.0
 42
2.0
 43
2.0
 50
90.0
  0
SEQEND
  5
91
  8
0
  6
CONTINUOUS
 62
    20
  0
INSERT
  5
92
  8
回02-寸法
  6
CONTINUOUS
 62
     5
 66
     1
  2
*X94
 10
0.0
 20
0.0
 30
0.0
  0
SEQEND
  5
6F6
  8
0
  6
CONTINUOUS
 62
    20
  0
POINT
  5
93
  8
DEFPOINTS
  6
CONTINUOUS
 62
     0
 10
721.3678823529943
 20
354.3101772021674
 30
0.0
  0
POINT
  5
94
  8
DEFPOINTS
  6
CONTINUOUS
 62
     0
 10
721.3678823529943
 20
352.9101772021674
 30
0.0
  0
POINT
  5
95
  8
DEFPOINTS
  6
CONTINUOUS
 62
     0
 10
713.1680941486853
 20
352.9101772021674
 30
0.0
  0
ENDBLK
  5
96
  8
0
 62
    20
  0
BLOCK
  8
0
  2
*D38
 70
     1
 10
0.0
 20
0.0
 30
0.0
  3
*D38
  1

  0
LINE
  5
77
  8
回02-寸法
  6
CONTINUOUS
 62
     5
 10
718.4684402847196
 20
353.6101772021674
 30
0.0
 11
698.9887185296384
 21
353.6101772021674
 31
0.0
  0
LINE
  5
78
  8
回02-寸法
  6
CONTINUOUS
 62
     5
 10
718.4683532631842
 20
361.1101772021673
 30
0.0
 11
698.9887185296384
 21
361.1101772021673
 31
0.0
  0
LINE
  5
79
  8
回02-寸法
  6
CONTINUOUS
 62
     5
 10
699.9887185296385
 20
363.1101772021673
 30
0.0
 11
699.9887185296385
 21
365.1101772021673
 31
0.0
  0
LINE
  5
7A
  8
回02-寸法
  6
CONTINUOUS
 62
     5
 10
699.9887185296385
 20
351.6101772021674
 30
0.0
 11
699.9887185296385
 21
336.5140047301265
 31
0.0
  0
LINE
  5
7B
  8
回02-寸法
  6
CONTINUOUS
 62
     5
 10
699.9887185296385
 20
361.1101772021673
 30
0.0
 11
699.9887185296385
 21
353.6101772021674
 31
0.0
  0
INSERT
  5
7C
  8
回02-寸法
  6
CONTINUOUS
 62
     5
 66
     1
  2
_OPEN
 10
699.9887185296385
 20
361.1101772021673
 30
0.0
 41
2.0
 42
2.0
 43
2.0
 50
270.0
  0
SEQEND
  5
7D
  8
0
  6
CONTINUOUS
 62
    20
  0
INSERT
  5
7E
  8
回02-寸法
  6
CONTINUOUS
 62
     5
 66
     1
  2
_OPEN
 10
699.9887185296385
 20
353.6101772021674
 30
0.0
 41
2.0
 42
2.0
 43
2.0
 50
90.0
  0
SEQEND
  5
7F
  8
0
  6
CONTINUOUS
 62
    20
  0
INSERT
  5
80
  8
回02-寸法
  6
CONTINUOUS
 62
     5
 66
     1
  2
*X95
 10
0.0
 20
0.0
 30
0.0
  0
SEQEND
  5
6FC
  8
0
  6
CONTINUOUS
 62
    20
  0
POINT
  5
81
  8
DEFPOINTS
  6
CONTINUOUS
 62
     0
 10
718.4684402847196
 20
353.6101772021674
 30
0.0
  0
POINT
  5
83
  8
DEFPOINTS
  6
CONTINUOUS
 62
     0
 10
718.4683532631842
 20
361.1101772021673
 30
0.0
  0
POINT
  5
84
  8
DEFPOINTS
  6
CONTINUOUS
 62
     0
 10
699.9887185296385
 20
361.1101772021673
 30
0.0
  0
ENDBLK
  5
85
  8
0
 62
    20
  0
BLOCK
  8
0
  2
*D39
 70
     1
 10
0.0
 20
0.0
 30
0.0
  3
*D39
  1

  0
LINE
  5
413
  8
回02-寸法
  6
CONTINUOUS
 62
     5
 10
708.7415793584581
 20
284.4588678332742
 30
0.0
 11
689.2618576033773
 21
284.4588678332742
 31
0.0
  0
LINE
  5
415
  8
回02-寸法
  6
CONTINUOUS
 62
     5
 10
708.7414923369228
 20
291.9588678332742
 30
0.0
 11
689.2618576033773
 21
291.9588678332742
 31
0.0
  0
LINE
  5
416
  8
回02-寸法
  6
CONTINUOUS
 62
     5
 10
690.2618576033773
 20
282.4588678332742
 30
0.0
 11
690.2618576033773
 21
267.3626953612333
 31
0.0
  0
LINE
  5
417
  8
回02-寸法
  6
CONTINUOUS
 62
     5
 10
690.2618576033773
 20
284.4588678332742
 30
0.0
 11
690.2618576033773
 21
291.9588678332742
 31
0.0
  0
LINE
  5
418
  8
回02-寸法
  6
CONTINUOUS
 62
     5
 10
690.2618576033773
 20
293.9588678332742
 30
0.0
 11
690.2618576033773
 21
295.9588678332742
 31
0.0
  0
INSERT
  5
419
  8
回02-寸法
  6
CONTINUOUS
 62
     5
  2
_OPEN
 10
690.2618576033773
 20
284.4588678332742
 30
0.0
 41
2.0
 42
2.0
 43
2.0
 50
90.0
  0
INSERT
  5
41A
  8
回02-寸法
  6
CONTINUOUS
 62
     5
  2
_OPEN
 10
690.2618576033773
 20
291.9588678332742
 30
0.0
 41
2.0
 42
2.0
 43
2.0
 50
270.0
  0
INSERT
  5
41B
  8
回02-寸法
  6
CONTINUOUS
 62
     5
 66
     1
  2
*X96
 10
0.0
 20
0.0
 30
0.0
  0
SEQEND
  5
702
  8
0
  6
CONTINUOUS
 62
    20
  0
POINT
  5
41C
  8
DEFPOINTS
  6
CONTINUOUS
 62
     0
 10
708.7415793584581
 20
284.4588678332742
 30
0.0
  0
POINT
  5
41D
  8
DEFPOINTS
  6
CONTINUOUS
 62
     0
 10
708.7414923369228
 20
291.9588678332742
 30
0.0
  0
POINT
  5
41E
  8
DEFPOINTS
  6
CONTINUOUS
 62
     0
 10
690.2618576033773
 20
291.9588678332742
 30
0.0
  0
ENDBLK
  5
420
  8
0
  6
CONTINUOUS
 62
    20
  0
BLOCK
  8
0
  2
*D40
 70
     1
 10
0.0
 20
0.0
 30
0.0
  3
*D40
  1

  0
LINE
  5
422
  8
回02-寸法
  6
CONTINUOUS
 62
     5
 10
711.6410214267329
 20
285.1588678332742
 30
0.0
 11
702.441233222424
 21
285.1588678332742
 31
0.0
  0
LINE
  5
423
  8
回02-寸法
  6
CONTINUOUS
 62
     5
 10
711.6410214267329
 20
283.7588678332743
 30
0.0
 11
702.441233222424
 21
283.7588678332743
 31
0.0
  0
LINE
  5
424
  8
回02-寸法
  6
CONTINUOUS
 62
     5
 10
703.4412332224241
 20
281.7588678332743
 30
0.0
 11
703.4412332224241
 21
264.4838883332743
 31
0.0
  0
LINE
  5
425
  8
回02-寸法
  6
CONTINUOUS
 62
     5
 10
703.4412332224241
 20
285.1588678332742
 30
0.0
 11
703.4412332224241
 21
283.7588678332743
 31
0.0
  0
LINE
  5
426
  8
回02-寸法
  6
CONTINUOUS
 62
     5
 10
703.4412332224241
 20
287.1588678332742
 30
0.0
 11
703.4412332224241
 21
289.1588678332743
 31
0.0
  0
INSERT
  5
427
  8
回02-寸法
  6
CONTINUOUS
 62
     5
  2
_OPEN
 10
703.4412332224241
 20
285.1588678332742
 30
0.0
 41
2.0
 42
2.0
 43
2.0
 50
270.0
  0
INSERT
  5
428
  8
回02-寸法
  6
CONTINUOUS
 62
     5
  2
_OPEN
 10
703.4412332224241
 20
283.7588678332743
 30
0.0
 41
2.0
 42
2.0
 43
2.0
 50
90.0
  0
INSERT
  5
429
  8
回02-寸法
  6
CONTINUOUS
 62
     5
 66
     1
  2
*X97
 10
0.0
 20
0.0
 30
0.0
  0
SEQEND
  5
708
  8
0
  6
CONTINUOUS
 62
    20
  0
POINT
  5
42A
  8
DEFPOINTS
  6
CONTINUOUS
 62
     0
 10
711.6410214267329
 20
285.1588678332742
 30
0.0
  0
POINT
  5
42B
  8
DEFPOINTS
  6
CONTINUOUS
 62
     0
 10
711.6410214267329
 20
283.7588678332743
 30
0.0
  0
POINT
  5
42C
  8
DEFPOINTS
  6
CONTINUOUS
 62
     0
 10
703.4412332224241
 20
283.7588678332743
 30
0.0
  0
ENDBLK
  5
42E
  8
0
  6
CONTINUOUS
 62
    20
  0
BLOCK
  8
0
  2
*D41
 70
     1
 10
0.0
 20
0.0
 30
0.0
  3
*D41
  1

  0
LINE
  5
430
  8
回02-寸法
  6
CONTINUOUS
 62
     5
 10
708.7415793584581
 20
286.9588678332742
 30
0.0
 11
695.6765956295716
 21
286.9588678332742
 31
0.0
  0
LINE
  5
431
  8
回02-寸法
  6
CONTINUOUS
 62
     5
 10
708.7415793584581
 20
284.4588678332742
 30
0.0
 11
695.6765956295716
 21
284.4588678332742
 31
0.0
  0
LINE
  5
432
  8
回02-寸法
  6
CONTINUOUS
 62
     5
 10
696.6765956295716
 20
282.4588678332742
 30
0.0
 11
696.6765956295716
 21
267.683337526585
 31
0.0
  0
LINE
  5
433
  8
回02-寸法
  6
CONTINUOUS
 62
     5
 10
696.6765956295716
 20
286.9588678332742
 30
0.0
 11
696.6765956295716
 21
284.4588678332742
 31
0.0
  0
LINE
  5
434
  8
回02-寸法
  6
CONTINUOUS
 62
     5
 10
696.6765956295716
 20
288.9588678332742
 30
0.0
 11
696.6765956295716
 21
290.9588678332742
 31
0.0
  0
INSERT
  5
435
  8
回02-寸法
  6
CONTINUOUS
 62
     5
  2
_OPEN
 10
696.6765956295716
 20
286.9588678332742
 30
0.0
 41
2.0
 42
2.0
 43
2.0
 50
270.0
  0
INSERT
  5
436
  8
回02-寸法
  6
CONTINUOUS
 62
     5
  2
_OPEN
 10
696.6765956295716
 20
284.4588678332742
 30
0.0
 41
2.0
 42
2.0
 43
2.0
 50
90.0
  0
INSERT
  5
437
  8
回02-寸法
  6
CONTINUOUS
 62
     5
 66
     1
  2
*X98
 10
0.0
 20
0.0
 30
0.0
  0
SEQEND
  5
70E
  8
0
  6
CONTINUOUS
 62
    20
  0
POINT
  5
438
  8
DEFPOINTS
  6
CONTINUOUS
 62
     0
 10
708.7415793584581
 20
286.9588678332742
 30
0.0
  0
POINT
  5
439
  8
DEFPOINTS
  6
CONTINUOUS
 62
     0
 10
708.7415793584581
 20
284.4588678332742
 30
0.0
  0
POINT
  5
43A
  8
DEFPOINTS
  6
CONTINUOUS
 62
     0
 10
696.6765956295716
 20
284.4588678332742
 30
0.0
  0
ENDBLK
  5
43C
  8
0
  6
CONTINUOUS
 62
    20
  0
BLOCK
  8
0
  2
*D42
 70
     1
 10
0.0
 20
0.0
 30
0.0
  3
*D42
  1

  0
LINE
  5
43E
  8
回02-寸法
  6
CONTINUOUS
 62
     5
 10
712.6411084482683
 20
294.4588678332788
 30
0.0
 11
682.2219083430485
 21
294.4588678332788
 31
0.0
  0
LINE
  5
43F
  8
回02-寸法
  6
CONTINUOUS
 62
     5
 10
712.6411084482683
 20
281.9588678332798
 30
0.0
 11
682.2219083430485
 21
281.9588678332798
 31
0.0
  0
LINE
  5
440
  8
回02-寸法
  6
CONTINUOUS
 62
     5
 10
683.2219083430485
 20
292.4588678332789
 30
0.0
 11
683.2219083430485
 21
283.9588678332798
 31
0.0
  0
INSERT
  5
441
  8
回02-寸法
  6
CONTINUOUS
 62
     5
  2
_OPEN
 10
683.2219083430485
 20
294.4588678332788
 30
0.0
 41
2.0
 42
2.0
 43
2.0
 50
90.0
  0
INSERT
  5
442
  8
回02-寸法
  6
CONTINUOUS
 62
     5
  2
_OPEN
 10
683.2219083430485
 20
281.9588678332798
 30
0.0
 41
2.0
 42
2.0
 43
2.0
 50
270.0
  0
INSERT
  5
443
  8
回02-寸法
  6
CONTINUOUS
 62
     5
 66
     1
  2
*X99
 10
0.0
 20
0.0
 30
0.0
  0
SEQEND
  5
714
  8
0
  6
CONTINUOUS
 62
    20
  0
POINT
  5
444
  8
DEFPOINTS
  6
CONTINUOUS
 62
     0
 10
712.6411084482683
 20
294.4588678332788
 30
0.0
  0
POINT
  5
445
  8
DEFPOINTS
  6
CONTINUOUS
 62
     0
 10
712.6411084482683
 20
281.9588678332798
 30
0.0
  0
POINT
  5
446
  8
DEFPOINTS
  6
CONTINUOUS
 62
     0
 10
683.2219083430485
 20
281.9588678332798
 30
0.0
  0
ENDBLK
  5
448
  8
0
  6
CONTINUOUS
 62
    20
  0
BLOCK
  8
0
  2
*D43
 70
     1
 10
0.0
 20
0.0
 30
0.0
  3
*D43
  1

  0
LINE
  5
44A
  8
回07-寸法
  6
CONTINUOUS
 62
     5
 10
811.2536847572833
 20
271.9235144403661
 30
0.0
 11
811.2536847572833
 21
294.6479366685785
 31
0.0
  0
LINE
  5
44B
  8
回07-寸法
  6
CONTINUOUS
 62
     5
 10
803.0536847572832
 20
278.9235144403662
 30
0.0
 11
803.0536847572832
 21
294.6479366685785
 31
0.0
  0
LINE
  5
44C
  8
回07-寸法
  6
CONTINUOUS
 62
     5
 10
801.0536847572833
 20
293.6479366685785
 30
0.0
 11
793.7632644892658
 21
293.6479366685785
 31
0.0
  0
LINE
  5
44D
  8
回07-寸法
  6
CONTINUOUS
 62
     5
 10
811.2536847572833
 20
293.6479366685785
 30
0.0
 11
803.0536847572832
 21
293.6479366685785
 31
0.0
  0
LINE
  5
44E
  8
回07-寸法
  6
CONTINUOUS
 62
     5
 10
813.2536847572833
 20
293.6479366685785
 30
0.0
 11
815.2536847572832
 21
293.6479366685785
 31
0.0
  0
INSERT
  5
44F
  8
回07-寸法
  6
CONTINUOUS
 62
     5
  2
_OPEN
 10
811.2536847572833
 20
293.6479366685785
 30
0.0
 41
2.0
 42
2.0
 43
2.0
 50
180.0
  0
INSERT
  5
450
  8
回07-寸法
  6
CONTINUOUS
 62
     5
  2
_OPEN
 10
803.0536847572832
 20
293.6479366685785
 30
0.0
 41
2.0
 42
2.0
 43
2.0
  0
TEXT
  5
451
  8
回07-寸法
  6
CONTINUOUS
 62
     5
 10
793.8132644892657
 20
294.1479366685785
 30
0.0
 40
3.0
  1
8.2
  0
POINT
  5
452
  8
DEFPOINTS
  6
CONTINUOUS
 62
     0
 10
811.2536847572833
 20
271.9235144403661
 30
0.0
  0
POINT
  5
453
  8
DEFPOINTS
  6
CONTINUOUS
 62
     0
 10
803.0536847572832
 20
278.9235144403662
 30
0.0
  0
POINT
  5
454
  8
DEFPOINTS
  6
CONTINUOUS
 62
     0
 10
803.0536847572832
 20
293.6479366685785
 30
0.0
  0
ENDBLK
  5
456
  8
0
  6
CONTINUOUS
 62
    20
  0
BLOCK
  8
0
  2
*D44
 70
     1
 10
0.0
 20
0.0
 30
0.0
  3
*D44
  1

  0
LINE
  5
458
  8
回07-寸法
  6
CONTINUOUS
 62
     5
 10
811.2536847572833
 20
271.9235144403661
 30
0.0
 11
811.2536847572833
 21
294.6479366685785
 31
0.0
  0
LINE
  5
459
  8
回07-寸法
  6
CONTINUOUS
 62
     5
 10
944.2336847572832
 20
271.9235144403661
 30
0.0
 11
944.2336847572832
 21
294.6479366685785
 31
0.0
  0
LINE
  5
45A
  8
回07-寸法
  6
CONTINUOUS
 62
     5
 10
813.2536847572833
 20
293.6479366685785
 30
0.0
 11
942.2336847572832
 21
293.6479366685785
 31
0.0
  0
INSERT
  5
45B
  8
回07-寸法
  6
CONTINUOUS
 62
     5
  2
_OPEN
 10
811.2536847572833
 20
293.6479366685785
 30
0.0
 41
2.0
 42
2.0
 43
2.0
 50
180.0
  0
INSERT
  5
45C
  8
回07-寸法
  6
CONTINUOUS
 62
     5
  2
_OPEN
 10
944.2336847572832
 20
293.6479366685785
 30
0.0
 41
2.0
 42
2.0
 43
2.0
  0
TEXT
  5
45D
  8
回07-寸法
  6
CONTINUOUS
 62
     5
 10
859.5888597556738
 20
294.2979366685785
 30
0.0
 40
3.0
  1
132.98 (Active area)
  0
POINT
  5
45E
  8
DEFPOINTS
  6
CONTINUOUS
 62
     0
 10
811.2536847572833
 20
271.9235144403661
 30
0.0
  0
POINT
  5
45F
  8
DEFPOINTS
  6
CONTINUOUS
 62
     0
 10
944.2336847572832
 20
271.9235144403661
 30
0.0
  0
POINT
  5
460
  8
DEFPOINTS
  6
CONTINUOUS
 62
     0
 10
944.2336847572832
 20
293.6479366685785
 30
0.0
  0
ENDBLK
  5
462
  8
0
  6
CONTINUOUS
 62
    20
  0
BLOCK
  8
0
  2
*D45
 70
     1
 10
0.0
 20
0.0
 30
0.0
  3
*D45
  1

  0
LINE
  5
464
  8
回07-寸法
  6
CONTINUOUS
 62
     5
 10
733.0536847572837
 20
106.275547488147
 30
0.0
 11
733.0536847572837
 21
116.1194538375428
 31
0.0
  0
LINE
  5
466
  8
回07-寸法
  6
CONTINUOUS
 62
     5
 10
728.0536847572837
 20
105.275547488147
 30
0.0
 11
728.0536847572837
 21
116.1194538375428
 31
0.0
  0
LINE
  5
467
  8
回07-寸法
  6
CONTINUOUS
 62
     5
 10
731.0536847572836
 20
115.1194538375428
 30
0.0
 11
730.0536847572836
 21
115.1194538375428
 31
0.0
  0
INSERT
  5
468
  8
回07-寸法
  6
CONTINUOUS
 62
     5
  2
_OPEN
 10
733.0536847572837
 20
115.1194538375428
 30
0.0
 41
2.0
 42
2.0
 43
2.0
  0
INSERT
  5
469
  8
回07-寸法
  6
CONTINUOUS
 62
     5
  2
_OPEN
 10
728.0536847572837
 20
115.1194538375428
 30
0.0
 41
2.0
 42
2.0
 43
2.0
 50
180.0
  0
TEXT
  5
46A
  8
回07-寸法
  6
CONTINUOUS
 62
     5
 10
729.5036847572836
 20
115.6194538375428
 30
0.0
 40
3.0
  1
5
  0
POINT
  5
46B
  8
DEFPOINTS
  6
CONTINUOUS
 62
     0
 10
733.0536847572837
 20
106.275547488147
 30
0.0
  0
POINT
  5
46C
  8
DEFPOINTS
  6
CONTINUOUS
 62
     0
 10
728.0536847572837
 20
105.275547488147
 30
0.0
  0
POINT
  5
46D
  8
DEFPOINTS
  6
CONTINUOUS
 62
     0
 10
728.0536847572837
 20
115.1194538375428
 30
0.0
  0
ENDBLK
  5
46F
  8
0
  6
CONTINUOUS
 62
    20
  0
BLOCK
  8
0
  2
*D46
 70
     1
 10
0.0
 20
0.0
 30
0.0
  3
*D46
  1

  0
LINE
  5
471
  8
回07-寸法
  6
CONTINUOUS
 62
     5
 10
738.0536847572837
 20
102.7755474881469
 30
0.0
 11
738.0536847572837
 21
89.69570779948146
 31
0.0
  0
LINE
  5
472
  8
回07-寸法
  6
CONTINUOUS
 62
     5
 10
728.0536847572837
 20
102.7755474881469
 30
0.0
 11
728.0536847572837
 21
89.69570779948146
 31
0.0
  0
LINE
  5
473
  8
回07-寸法
  6
CONTINUOUS
 62
     5
 10
740.0536847572837
 20
90.69570779948145
 30
0.0
 11
748.1513225525593
 21
90.69570779948145
 31
0.0
  0
LINE
  5
474
  8
回07-寸法
  6
CONTINUOUS
 62
     5
 10
738.0536847572837
 20
90.69570779948145
 30
0.0
 11
728.0536847572837
 21
90.69570779948145
 31
0.0
  0
LINE
  5
475
  8
回07-寸法
  6
CONTINUOUS
 62
     5
 10
726.0536847572836
 20
90.69570779948145
 30
0.0
 11
724.0536847572837
 21
90.69570779948145
 31
0.0
  0
INSERT
  5
476
  8
回07-寸法
  6
CONTINUOUS
 62
     5
  2
_OPEN
 10
738.0536847572837
 20
90.69570779948145
 30
0.0
 41
2.0
 42
2.0
 43
2.0
 50
180.0
  0
INSERT
  5
477
  8
回07-寸法
  6
CONTINUOUS
 62
     5
  2
_OPEN
 10
728.0536847572837
 20
90.69570779948145
 30
0.0
 41
2.0
 42
2.0
 43
2.0
  0
TEXT
  5
478
  8
回07-寸法
  6
CONTINUOUS
 62
     5
 10
742.1025036549215
 20
91.34570779948147
 30
0.0
 40
3.0
  1
(10)
  0
POINT
  5
479
  8
DEFPOINTS
  6
CONTINUOUS
 62
     0
 10
738.0536847572837
 20
102.7755474881469
 30
0.0
  0
POINT
  5
47A
  8
DEFPOINTS
  6
CONTINUOUS
 62
     0
 10
728.0536847572837
 20
102.7755474881469
 30
0.0
  0
POINT
  5
47B
  8
DEFPOINTS
  6
CONTINUOUS
 62
     0
 10
728.0536847572837
 20
90.69570779948145
 30
0.0
  0
ENDBLK
  5
47D
  8
0
  6
CONTINUOUS
 62
    20
  0
BLOCK
  8
0
  2
*D47
 70
     1
 10
0.0
 20
0.0
 30
0.0
  3
*D47
  1

  0
LINE
  5
47F
  8
回07-寸法
  6
CONTINUOUS
 62
     5
 10
728.0536847572837
 20
102.7755474881469
 30
0.0
 11
719.5990769711141
 21
102.7755474881469
 31
0.0
  0
LINE
  5
480
  8
回07-寸法
  6
CONTINUOUS
 62
     5
 10
728.0536847572837
 20
105.275547488147
 30
0.0
 11
719.5990769711141
 21
105.275547488147
 31
0.0
  0
LINE
  5
481
  8
回07-寸法
  6
CONTINUOUS
 62
     5
 10
720.599076971114
 20
100.7755474881469
 30
0.0
 11
720.599076971114
 21
87.18146685611719
 31
0.0
  0
LINE
  5
482
  8
回07-寸法
  6
CONTINUOUS
 62
     5
 10
720.599076971114
 20
102.7755474881469
 30
0.0
 11
720.599076971114
 21
105.275547488147
 31
0.0
  0
LINE
  5
483
  8
回07-寸法
  6
CONTINUOUS
 62
     5
 10
720.599076971114
 20
107.275547488147
 30
0.0
 11
720.599076971114
 21
109.2755474881469
 31
0.0
  0
INSERT
  5
484
  8
回07-寸法
  6
CONTINUOUS
 62
     5
  2
_OPEN
 10
720.599076971114
 20
102.7755474881469
 30
0.0
 41
2.0
 42
2.0
 43
2.0
 50
90.0
  0
INSERT
  5
485
  8
回07-寸法
  6
CONTINUOUS
 62
     5
  2
_OPEN
 10
720.599076971114
 20
105.275547488147
 30
0.0
 41
2.0
 42
2.0
 43
2.0
 50
270.0
  0
INSERT
  5
486
  8
回07-寸法
  6
CONTINUOUS
 62
     5
 66
     1
  2
*X100
 10
0.0
 20
0.0
 30
0.0
  0
SEQEND
  5
71A
  8
0
  6
CONTINUOUS
 62
    20
  0
POINT
  5
487
  8
DEFPOINTS
  6
CONTINUOUS
 62
     0
 10
728.0536847572837
 20
102.7755474881469
 30
0.0
  0
POINT
  5
488
  8
DEFPOINTS
  6
CONTINUOUS
 62
     0
 10
728.0536847572837
 20
105.275547488147
 30
0.0
  0
POINT
  5
489
  8
DEFPOINTS
  6
CONTINUOUS
 62
     0
 10
720.599076971114
 20
105.275547488147
 30
0.0
  0
ENDBLK
  5
48B
  8
0
  6
CONTINUOUS
 62
    20
  0
BLOCK
  8
0
  2
*D48
 70
     1
 10
0.0
 20
0.0
 30
0.0
  3
*D48
  1

  0
LINE
  5
48D
  8
回07-寸法
  6
CONTINUOUS
 62
     5
 10
950.7336847572833
 20
104.275547488147
 30
0.0
 11
950.7336847572833
 21
116.966706886735
 31
0.0
  0
LINE
  5
48E
  8
回07-寸法
  6
CONTINUOUS
 62
     5
 10
950.2336847572832
 20
106.7755474881472
 30
0.0
 11
950.2336847572832
 21
116.966706886735
 31
0.0
  0
LINE
  5
48F
  8
回07-寸法
  6
CONTINUOUS
 62
     5
 10
948.2336847572833
 20
115.966706886735
 30
0.0
 11
938.6360469620075
 21
115.966706886735
 31
0.0
  0
LINE
  5
490
  8
回07-寸法
  6
CONTINUOUS
 62
     5
 10
950.7336847572833
 20
115.966706886735
 30
0.0
 11
950.2336847572832
 21
115.966706886735
 31
0.0
  0
LINE
  5
491
  8
回07-寸法
  6
CONTINUOUS
 62
     5
 10
952.7336847572833
 20
115.966706886735
 30
0.0
 11
954.7336847572832
 21
115.966706886735
 31
0.0
  0
INSERT
  5
492
  8
回07-寸法
  6
CONTINUOUS
 62
     5
  2
_OPEN
 10
950.7336847572833
 20
115.966706886735
 30
0.0
 41
2.0
 42
2.0
 43
2.0
 50
180.0
  0
INSERT
  5
493
  8
回07-寸法
  6
CONTINUOUS
 62
     5
  2
_OPEN
 10
950.2336847572832
 20
115.966706886735
 30
0.0
 41
2.0
 42
2.0
 43
2.0
  0
TEXT
  5
494
  8
回07-寸法
  6
CONTINUOUS
 62
     5
 10
938.6848658596454
 20
116.616706886735
 30
0.0
 40
3.0
  1
(0.5)
  0
POINT
  5
495
  8
DEFPOINTS
  6
CONTINUOUS
 62
     0
 10
950.7336847572833
 20
104.275547488147
 30
0.0
  0
POINT
  5
496
  8
DEFPOINTS
  6
CONTINUOUS
 62
     0
 10
950.2336847572832
 20
106.7755474881472
 30
0.0
  0
POINT
  5
497
  8
DEFPOINTS
  6
CONTINUOUS
 62
     0
 10
950.2336847572832
 20
115.966706886735
 30
0.0
  0
ENDBLK
  5
499
  8
0
  6
CONTINUOUS
 62
    20
  0
BLOCK
  8
0
  2
*D49
 70
     1
 10
0.0
 20
0.0
 30
0.0
  3
*D49
  1

  0
LINE
  5
49B
  8
回07-寸法
  6
CONTINUOUS
 62
     5
 10
803.0536847572834
 20
104.275547488147
 30
0.0
 11
803.0536847572834
 21
116.966706886735
 31
0.0
  0
LINE
  5
49C
  8
回07-寸法
  6
CONTINUOUS
 62
     5
 10
803.5536847572835
 20
106.7755474881469
 30
0.0
 11
803.5536847572835
 21
116.966706886735
 31
0.0
  0
LINE
  5
49D
  8
回07-寸法
  6
CONTINUOUS
 62
     5
 10
805.5536847572835
 20
115.966706886735
 30
0.0
 11
815.151322552559
 21
115.966706886735
 31
0.0
  0
LINE
  5
49E
  8
回07-寸法
  6
CONTINUOUS
 62
     5
 10
803.0536847572834
 20
115.966706886735
 30
0.0
 11
803.5536847572835
 21
115.966706886735
 31
0.0
  0
LINE
  5
49F
  8
回07-寸法
  6
CONTINUOUS
 62
     5
 10
801.0536847572835
 20
115.966706886735
 30
0.0
 11
799.0536847572834
 21
115.966706886735
 31
0.0
  0
INSERT
  5
4A0
  8
回07-寸法
  6
CONTINUOUS
 62
     5
  2
_OPEN
 10
803.0536847572834
 20
115.966706886735
 30
0.0
 41
2.0
 42
2.0
 43
2.0
  0
INSERT
  5
4A1
  8
回07-寸法
  6
CONTINUOUS
 62
     5
  2
_OPEN
 10
803.5536847572835
 20
115.966706886735
 30
0.0
 41
2.0
 42
2.0
 43
2.0
 50
180.0
  0
TEXT
  5
4A2
  8
回07-寸法
  6
CONTINUOUS
 62
     5
 10
807.6025036549212
 20
116.616706886735
 30
0.0
 40
3.0
  1
(0.5)
  0
POINT
  5
4A3
  8
DEFPOINTS
  6
CONTINUOUS
 62
     0
 10
803.0536847572834
 20
104.275547488147
 30
0.0
  0
POINT
  5
4A4
  8
DEFPOINTS
  6
CONTINUOUS
 62
     0
 10
803.5536847572835
 20
106.7755474881469
 30
0.0
  0
POINT
  5
4A5
  8
DEFPOINTS
  6
CONTINUOUS
 62
     0
 10
803.5536847572835
 20
115.966706886735
 30
0.0
  0
ENDBLK
  5
4A7
  8
0
  6
CONTINUOUS
 62
    20
  0
BLOCK
  8
0
  2
*D50
 70
     1
 10
0.0
 20
0.0
 30
0.0
  3
*D50
  1

  0
LINE
  5
4A9
  8
回07-寸法
  6
CONTINUOUS
 62
     5
 10
950.7336847572833
 20
101.2755474881472
 30
0.0
 11
959.5022095096434
 21
101.2755474881472
 31
0.0
  0
LINE
  5
4AA
  8
回07-寸法
  6
CONTINUOUS
 62
     5
 10
950.2336847572832
 20
106.7755474881472
 30
0.0
 11
959.5022095096434
 21
106.7755474881472
 31
0.0
  0
LINE
  5
4AB
  8
回07-寸法
  6
CONTINUOUS
 62
     5
 10
958.5022095096434
 20
108.7755474881472
 30
0.0
 11
958.5022095096434
 21
120.6262147573798
 31
0.0
  0
LINE
  5
4AC
  8
回07-寸法
  6
CONTINUOUS
 62
     5
 10
958.5022095096434
 20
101.2755474881472
 30
0.0
 11
958.5022095096434
 21
106.7755474881472
 31
0.0
  0
LINE
  5
4AD
  8
回07-寸法
  6
CONTINUOUS
 62
     5
 10
958.5022095096434
 20
99.27554748814721
 30
0.0
 11
958.5022095096434
 21
97.2755474881472
 31
0.0
  0
INSERT
  5
4AE
  8
回07-寸法
  6
CONTINUOUS
 62
     5
  2
_OPEN
 10
958.5022095096434
 20
101.2755474881472
 30
0.0
 41
2.0
 42
2.0
 43
2.0
 50
90.0
  0
INSERT
  5
4AF
  8
回07-寸法
  6
CONTINUOUS
 62
     5
  2
_OPEN
 10
958.5022095096434
 20
106.7755474881472
 30
0.0
 41
2.0
 42
2.0
 43
2.0
 50
270.0
  0
INSERT
  5
4B0
  8
回07-寸法
  6
CONTINUOUS
 62
     5
 66
     1
  2
*X101
 10
0.0
 20
0.0
 30
0.0
  0
SEQEND
  5
720
  8
0
  6
CONTINUOUS
 62
    20
  0
POINT
  5
4B1
  8
DEFPOINTS
  6
CONTINUOUS
 62
     0
 10
950.7336847572833
 20
101.2755474881472
 30
0.0
  0
POINT
  5
4B2
  8
DEFPOINTS
  6
CONTINUOUS
 62
     0
 10
950.2336847572832
 20
106.7755474881472
 30
0.0
  0
POINT
  5
4B3
  8
DEFPOINTS
  6
CONTINUOUS
 62
     0
 10
958.5022095096434
 20
106.7755474881472
 30
0.0
  0
ENDBLK
  5
4B5
  8
0
  6
CONTINUOUS
 62
    20
  0
BLOCK
  8
0
  2
*D51
 70
     1
 10
0.0
 20
0.0
 30
0.0
  3
*D51
  1

  0
LINE
  5
4B7
  8
回07-寸法
  6
CONTINUOUS
 62
     5
 10
723.5536412474194
 20
218.8685144403665
 30
0.0
 11
707.2932773320318
 21
218.8685144403665
 31
0.0
  0
LINE
  5
4B8
  8
回07-寸法
  6
CONTINUOUS
 62
     5
 10
723.553641246516
 20
225.1185144403664
 30
0.0
 11
707.2932773320318
 21
225.1185144403664
 31
0.0
  0
LINE
  5
4B9
  8
回07-寸法
  6
CONTINUOUS
 62
     5
 10
708.2932773320318
 20
227.1185144403664
 30
0.0
 11
708.2932773320318
 21
241.7465724075062
 31
0.0
  0
LINE
  5
4BA
  8
回07-寸法
  6
CONTINUOUS
 62
     5
 10
708.2932773320318
 20
218.8685144403665
 30
0.0
 11
708.2932773320318
 21
225.1185144403664
 31
0.0
  0
LINE
  5
4BB
  8
回07-寸法
  6
CONTINUOUS
 62
     5
 10
708.2932773320318
 20
216.8685144403665
 30
0.0
 11
708.2932773320318
 21
214.8685144403665
 31
0.0
  0
INSERT
  5
4BC
  8
回07-寸法
  6
CONTINUOUS
 62
     5
  2
_OPEN
 10
708.2932773320318
 20
218.8685144403665
 30
0.0
 41
2.0
 42
2.0
 43
2.0
 50
90.0
  0
INSERT
  5
4BD
  8
回07-寸法
  6
CONTINUOUS
 62
     5
  2
_OPEN
 10
708.2932773320318
 20
225.1185144403664
 30
0.0
 41
2.0
 42
2.0
 43
2.0
 50
270.0
  0
INSERT
  5
4BE
  8
回07-寸法
  6
CONTINUOUS
 62
     5
 66
     1
  2
*X102
 10
0.0
 20
0.0
 30
0.0
  0
SEQEND
  5
726
  8
0
  6
CONTINUOUS
 62
    20
  0
POINT
  5
4BF
  8
DEFPOINTS
  6
CONTINUOUS
 62
     0
 10
723.5536412474194
 20
218.8685144403665
 30
0.0
  0
POINT
  5
4C0
  8
DEFPOINTS
  6
CONTINUOUS
 62
     0
 10
723.553641246516
 20
225.1185144403664
 30
0.0
  0
POINT
  5
4C1
  8
DEFPOINTS
  6
CONTINUOUS
 62
     0
 10
708.2932773320318
 20
225.1185144403664
 30
0.0
  0
ENDBLK
  5
4C3
  8
0
  6
CONTINUOUS
 62
    20
  0
BLOCK
  8
0
  2
*D52
 70
     1
 10
0.0
 20
0.0
 30
0.0
  3
*D52
  1

  0
LINE
  5
4C5
  8
回07-寸法
  6
CONTINUOUS
 62
     5
 10
723.0536412465157
 20
224.618514440366
 30
0.0
 11
723.0536412465157
 21
247.5540593152459
 31
0.0
  0
LINE
  5
4C6
  8
回07-寸法
  6
CONTINUOUS
 62
     5
 10
803.0536847572834
 20
230.6706389845575
 30
0.0
 11
803.0536847572834
 21
247.5540593152459
 31
0.0
  0
LINE
  5
4C7
  8
回07-寸法
  6
CONTINUOUS
 62
     5
 10
725.0536412465158
 20
246.5540593152458
 30
0.0
 11
801.0536847572835
 21
246.5540593152458
 31
0.0
  0
INSERT
  5
4C8
  8
回07-寸法
  6
CONTINUOUS
 62
     5
  2
_OPEN
 10
723.0536412465157
 20
246.5540593152458
 30
0.0
 41
2.0
 42
2.0
 43
2.0
 50
180.0
  0
INSERT
  5
4C9
  8
回07-寸法
  6
CONTINUOUS
 62
     5
  2
_OPEN
 10
803.0536847572834
 20
246.5540593152458
 30
0.0
 41
2.0
 42
2.0
 43
2.0
  0
INSERT
  5
4CA
  8
回07-寸法
  6
CONTINUOUS
 62
     5
 66
     1
  2
*X103
 10
0.0
 20
0.0
 30
0.0
  0
SEQEND
  5
72C
  8
0
  6
CONTINUOUS
 62
    20
  0
POINT
  5
4CB
  8
DEFPOINTS
  6
CONTINUOUS
 62
     0
 10
723.0536412465157
 20
224.618514440366
 30
0.0
  0
POINT
  5
4CC
  8
DEFPOINTS
  6
CONTINUOUS
 62
     0
 10
803.0536847572834
 20
230.6706389845575
 30
0.0
  0
POINT
  5
4CD
  8
DEFPOINTS
  6
CONTINUOUS
 62
     0
 10
803.0536847572834
 20
246.5540593152458
 30
0.0
  0
ENDBLK
  5
4CF
  8
0
  6
CONTINUOUS
 62
    20
  0
BLOCK
  8
0
  2
*D53
 70
     1
 10
0.0
 20
0.0
 30
0.0
  3
*D53
  1

  0
LINE
  5
4D1
  8
回07-寸法
  6
CONTINUOUS
 62
     5
 10
803.0536847572834
 20
164.6235144403661
 30
0.0
 11
707.2932773320319
 21
164.6235144403661
 31
0.0
  0
LINE
  5
4D2
  8
回07-寸法
  6
CONTINUOUS
 62
     5
 10
723.5536412484815
 20
218.8685144403665
 30
0.0
 11
707.2932773320319
 21
218.8685144403665
 31
0.0
  0
LINE
  5
4D3
  8
回07-寸法
  6
CONTINUOUS
 62
     5
 10
708.2932773320319
 20
166.6235144403661
 30
0.0
 11
708.2932773320319
 21
216.8685144403665
 31
0.0
  0
INSERT
  5
4D4
  8
回07-寸法
  6
CONTINUOUS
 62
     5
  2
_OPEN
 10
708.2932773320319
 20
164.6235144403661
 30
0.0
 41
2.0
 42
2.0
 43
2.0
 50
270.0
  0
INSERT
  5
4D5
  8
回07-寸法
  6
CONTINUOUS
 62
     5
  2
_OPEN
 10
708.2932773320319
 20
218.8685144403665
 30
0.0
 41
2.0
 42
2.0
 43
2.0
 50
90.0
  0
TEXT
  5
4D6
  8
回07-寸法
  6
CONTINUOUS
 62
     5
 10
707.643277332032
 20
185.7460144403663
 30
0.0
 40
3.0
  1
(54.25)
 50
90.0
  0
POINT
  5
4D7
  8
DEFPOINTS
  6
CONTINUOUS
 62
     0
 10
803.0536847572834
 20
164.6235144403661
 30
0.0
  0
POINT
  5
4D8
  8
DEFPOINTS
  6
CONTINUOUS
 62
     0
 10
723.5536412484815
 20
218.8685144403665
 30
0.0
  0
POINT
  5
4D9
  8
DEFPOINTS
  6
CONTINUOUS
 62
     0
 10
708.2932773320319
 20
218.8685144403665
 30
0.0
  0
ENDBLK
  5
4DB
  8
0
  6
CONTINUOUS
 62
    20
  0
BLOCK
  8
0
  2
*D54
 70
     1
 10
0.0
 20
0.0
 30
0.0
  3
*D54
  1

  0
LINE
  5
4DD
  8
回07-寸法
  6
CONTINUOUS
 62
     5
 10
950.3536847572831
 20
164.6235144403658
 30
0.0
 11
994.6504172668722
 21
164.6235144403658
 31
0.0
  0
LINE
  5
4DE
  8
回07-寸法
  6
CONTINUOUS
 62
     5
 10
950.3536847572831
 20
278.923514440366
 30
0.0
 11
994.6504172668722
 21
278.923514440366
 31
0.0
  0
LINE
  5
4DF
  8
回07-寸法
  6
CONTINUOUS
 62
     5
 10
993.6504172668721
 20
166.6235144403658
 30
0.0
 11
993.6504172668721
 21
276.923514440366
 31
0.0
  0
INSERT
  5
4E0
  8
回07-寸法
  6
CONTINUOUS
 62
     5
  2
_OPEN
 10
993.6504172668721
 20
164.6235144403658
 30
0.0
 41
2.0
 42
2.0
 43
2.0
 50
270.0
  0
INSERT
  5
4E1
  8
回07-寸法
  6
CONTINUOUS
 62
     5
  2
_OPEN
 10
993.6504172668721
 20
278.923514440366
 30
0.0
 41
2.0
 42
2.0
 43
2.0
 50
90.0
  0
INSERT
  5
4E2
  8
回07-寸法
  6
CONTINUOUS
 62
     5
 66
     1
  2
*X104
 10
0.0
 20
0.0
 30
0.0
  0
SEQEND
  5
732
  8
0
  6
CONTINUOUS
 62
    20
  0
POINT
  5
4E3
  8
DEFPOINTS
  6
CONTINUOUS
 62
     0
 10
950.3536847572831
 20
164.6235144403658
 30
0.0
  0
POINT
  5
4E4
  8
DEFPOINTS
  6
CONTINUOUS
 62
     0
 10
950.3536847572831
 20
278.923514440366
 30
0.0
  0
POINT
  5
4E5
  8
DEFPOINTS
  6
CONTINUOUS
 62
     0
 10
993.6504172668721
 20
278.923514440366
 30
0.0
  0
ENDBLK
  5
4E7
  8
0
  6
CONTINUOUS
 62
    20
  0
BLOCK
  8
0
  2
*D55
 70
     1
 10
0.0
 20
0.0
 30
0.0
  3
*D55
  1

  0
LINE
  5
4E9
  8
回07-寸法
  6
CONTINUOUS
 62
     5
 10
946.7336847572832
 20
169.2635144403662
 30
0.0
 11
985.1833365201816
 21
169.2635144403662
 31
0.0
  0
LINE
  5
4EA
  8
回07-寸法
  6
CONTINUOUS
 62
     5
 10
950.3536847572831
 20
164.6235144403658
 30
0.0
 11
985.1833365201816
 21
164.6235144403658
 31
0.0
  0
LINE
  5
4EB
  8
回07-寸法
  6
CONTINUOUS
 62
     5
 10
984.1833365201816
 20
162.6235144403658
 30
0.0
 11
984.1833365201816
 21
122.4171955427279
 31
0.0
  0
LINE
  5
4EC
  8
回07-寸法
  6
CONTINUOUS
 62
     5
 10
984.1833365201816
 20
169.2635144403662
 30
0.0
 11
984.1833365201816
 21
164.6235144403658
 31
0.0
  0
LINE
  5
4ED
  8
回07-寸法
  6
CONTINUOUS
 62
     5
 10
984.1833365201816
 20
171.2635144403662
 30
0.0
 11
984.1833365201816
 21
173.2635144403662
 31
0.0
  0
INSERT
  5
4EE
  8
回07-寸法
  6
CONTINUOUS
 62
     5
  2
_OPEN
 10
984.1833365201816
 20
169.2635144403662
 30
0.0
 41
2.0
 42
2.0
 43
2.0
 50
270.0
  0
INSERT
  5
4EF
  8
回07-寸法
  6
CONTINUOUS
 62
     5
  2
_OPEN
 10
984.1833365201816
 20
164.6235144403658
 30
0.0
 41
2.0
 42
2.0
 43
2.0
 50
90.0
  0
TEXT
  5
4F0
  8
回07-寸法
  6
CONTINUOUS
 62
     5
 10
983.5333365201817
 20
122.4671955427279
 30
0.0
 40
3.0
  1
4.64(Insulation Area)
 50
90.0
  0
POINT
  5
4F1
  8
DEFPOINTS
  6
CONTINUOUS
 62
     0
 10
946.7336847572832
 20
169.2635144403662
 30
0.0
  0
POINT
  5
4F2
  8
DEFPOINTS
  6
CONTINUOUS
 62
     0
 10
950.3536847572831
 20
164.6235144403658
 30
0.0
  0
POINT
  5
4F3
  8
DEFPOINTS
  6
CONTINUOUS
 62
     0
 10
984.1833365201816
 20
164.6235144403658
 30
0.0
  0
ENDBLK
  5
4F5
  8
0
  6
CONTINUOUS
 62
    20
  0
BLOCK
  8
0
  2
*D56
 70
     1
 10
0.0
 20
0.0
 30
0.0
  3
*D56
  1

  0
LINE
  5
4F7
  8
回07-寸法
  6
CONTINUOUS
 62
     5
 10
946.2336847572833
 20
170.0635144403661
 30
0.0
 11
976.2358070072673
 21
170.0635144403661
 31
0.0
  0
LINE
  5
4F8
  8
回07-寸法
  6
CONTINUOUS
 62
     5
 10
950.3536847572831
 20
164.6235144403658
 30
0.0
 11
976.2358070072673
 21
164.6235144403658
 31
0.0
  0
LINE
  5
4F9
  8
回07-寸法
  6
CONTINUOUS
 62
     5
 10
975.2358070072673
 20
162.6235144403658
 30
0.0
 11
975.2358070072673
 21
152.7235144403655
 31
0.0
  0
LINE
  5
4FA
  8
回07-寸法
  6
CONTINUOUS
 62
     5
 10
975.2358070072673
 20
170.0635144403661
 30
0.0
 11
975.2358070072673
 21
164.6235144403658
 31
0.0
  0
LINE
  5
4FB
  8
回07-寸法
  6
CONTINUOUS
 62
     5
 10
975.2358070072673
 20
172.0635144403661
 30
0.0
 11
975.2358070072673
 21
174.0635144403661
 31
0.0
  0
INSERT
  5
4FC
  8
回07-寸法
  6
CONTINUOUS
 62
     5
  2
_OPEN
 10
975.2358070072673
 20
170.0635144403661
 30
0.0
 41
2.0
 42
2.0
 43
2.0
 50
270.0
  0
INSERT
  5
4FD
  8
回07-寸法
  6
CONTINUOUS
 62
     5
  2
_OPEN
 10
975.2358070072673
 20
164.6235144403658
 30
0.0
 41
2.0
 42
2.0
 43
2.0
 50
90.0
  0
TEXT
  5
4FE
  8
回07-寸法
  6
CONTINUOUS
 62
     5
 10
974.7358070072673
 20
152.7735144403655
 30
0.0
 40
3.0
  1
5.44
 50
90.0
  0
POINT
  5
4FF
  8
DEFPOINTS
  6
CONTINUOUS
 62
     0
 10
946.2336847572833
 20
170.0635144403661
 30
0.0
  0
POINT
  5
500
  8
DEFPOINTS
  6
CONTINUOUS
 62
     0
 10
950.3536847572831
 20
164.6235144403658
 30
0.0
  0
POINT
  5
501
  8
DEFPOINTS
  6
CONTINUOUS
 62
     0
 10
975.2358070072673
 20
164.6235144403658
 30
0.0
  0
ENDBLK
  5
503
  8
0
  6
CONTINUOUS
 62
    20
  0
BLOCK
  8
0
  2
*D57
 70
     1
 10
0.0
 20
0.0
 30
0.0
  3
*D57
  1

  0
LINE
  5
505
  8
回07-寸法
  6
CONTINUOUS
 62
     5
 10
944.2336847572832
 20
172.0635144403661
 30
0.0
 11
967.2713469684072
 21
172.0635144403661
 31
0.0
  0
LINE
  5
506
  8
回07-寸法
  6
CONTINUOUS
 62
     5
 10
950.3536847572831
 20
164.6235144403658
 30
0.0
 11
967.2713469684072
 21
164.6235144403658
 31
0.0
  0
LINE
  5
507
  8
回07-寸法
  6
CONTINUOUS
 62
     5
 10
966.2713469684073
 20
162.6235144403658
 30
0.0
 11
966.2713469684073
 21
152.7235144403655
 31
0.0
  0
LINE
  5
508
  8
回07-寸法
  6
CONTINUOUS
 62
     5
 10
966.2713469684073
 20
172.0635144403661
 30
0.0
 11
966.2713469684073
 21
164.6235144403658
 31
0.0
  0
LINE
  5
509
  8
回07-寸法
  6
CONTINUOUS
 62
     5
 10
966.2713469684073
 20
174.0635144403661
 30
0.0
 11
966.2713469684073
 21
176.0635144403661
 31
0.0
  0
INSERT
  5
50A
  8
回07-寸法
  6
CONTINUOUS
 62
     5
  2
_OPEN
 10
966.2713469684073
 20
172.0635144403661
 30
0.0
 41
2.0
 42
2.0
 43
2.0
 50
270.0
  0
INSERT
  5
50B
  8
回07-寸法
  6
CONTINUOUS
 62
     5
  2
_OPEN
 10
966.2713469684073
 20
164.6235144403658
 30
0.0
 41
2.0
 42
2.0
 43
2.0
 50
90.0
  0
TEXT
  5
50C
  8
回07-寸法
  6
CONTINUOUS
 62
     5
 10
965.7713469684072
 20
152.7735144403655
 30
0.0
 40
3.0
  1
7.44
 50
90.0
  0
POINT
  5
50D
  8
DEFPOINTS
  6
CONTINUOUS
 62
     0
 10
944.2336847572832
 20
172.0635144403661
 30
0.0
  0
POINT
  5
50E
  8
DEFPOINTS
  6
CONTINUOUS
 62
     0
 10
950.3536847572831
 20
164.6235144403658
 30
0.0
  0
POINT
  5
50F
  8
DEFPOINTS
  6
CONTINUOUS
 62
     0
 10
966.2713469684073
 20
164.6235144403658
 30
0.0
  0
ENDBLK
  5
511
  8
0
  6
CONTINUOUS
 62
    20
  0
BLOCK
  8
0
  2
*D58
 70
     1
 10
0.0
 20
0.0
 30
0.0
  3
*D58
  1

  0
LINE
  5
513
  8
回07-寸法
  6
CONTINUOUS
 62
     5
 10
946.7336847572832
 20
274.7235144403661
 30
0.0
 11
985.1833365201795
 21
274.7235144403661
 31
0.0
  0
LINE
  5
514
  8
回07-寸法
  6
CONTINUOUS
 62
     5
 10
950.3536847572831
 20
278.923514440366
 30
0.0
 11
985.1833365201795
 21
278.923514440366
 31
0.0
  0
LINE
  5
515
  8
回07-寸法
  6
CONTINUOUS
 62
     5
 10
984.1833365201793
 20
280.923514440366
 30
0.0
 11
984.1833365201793
 21
290.8211522356416
 31
0.0
  0
LINE
  5
516
  8
回07-寸法
  6
CONTINUOUS
 62
     5
 10
984.1833365201793
 20
274.7235144403661
 30
0.0
 11
984.1833365201793
 21
278.923514440366
 31
0.0
  0
LINE
  5
517
  8
回07-寸法
  6
CONTINUOUS
 62
     5
 10
984.1833365201793
 20
272.7235144403661
 30
0.0
 11
984.1833365201793
 21
270.7235144403661
 31
0.0
  0
INSERT
  5
518
  8
回07-寸法
  6
CONTINUOUS
 62
     5
  2
_OPEN
 10
984.1833365201793
 20
274.7235144403661
 30
0.0
 41
2.0
 42
2.0
 43
2.0
 50
90.0
  0
INSERT
  5
519
  8
回07-寸法
  6
CONTINUOUS
 62
     5
  2
_OPEN
 10
984.1833365201793
 20
278.923514440366
 30
0.0
 41
2.0
 42
2.0
 43
2.0
 50
270.0
  0
TEXT
  5
51A
  8
回07-寸法
  6
CONTINUOUS
 62
     5
 10
983.5333365201794
 20
282.9723333380039
 30
0.0
 40
3.0
  1
(4.2)
 50
90.0
  0
POINT
  5
51B
  8
DEFPOINTS
  6
CONTINUOUS
 62
     0
 10
946.7336847572832
 20
274.7235144403661
 30
0.0
  0
POINT
  5
51C
  8
DEFPOINTS
  6
CONTINUOUS
 62
     0
 10
950.3536847572831
 20
278.923514440366
 30
0.0
  0
POINT
  5
51D
  8
DEFPOINTS
  6
CONTINUOUS
 62
     0
 10
984.1833365201793
 20
278.923514440366
 30
0.0
  0
ENDBLK
  5
51F
  8
0
  6
CONTINUOUS
 62
    20
  0
BLOCK
  8
0
  2
*D59
 70
     1
 10
0.0
 20
0.0
 30
0.0
  3
*D59
  1

  0
LINE
  5
521
  8
回07-寸法
  6
CONTINUOUS
 62
     5
 10
946.2336847572833
 20
273.9235144403661
 30
0.0
 11
976.2358070072689
 21
273.9235144403661
 31
0.0
  0
LINE
  5
522
  8
回07-寸法
  6
CONTINUOUS
 62
     5
 10
950.3536847572831
 20
278.923514440366
 30
0.0
 11
976.2358070072689
 21
278.923514440366
 31
0.0
  0
LINE
  5
523
  8
回07-寸法
  6
CONTINUOUS
 62
     5
 10
975.2358070072689
 20
280.923514440366
 30
0.0
 11
975.2358070072689
 21
287.5211522356417
 31
0.0
  0
LINE
  5
524
  8
回07-寸法
  6
CONTINUOUS
 62
     5
 10
975.2358070072689
 20
273.9235144403661
 30
0.0
 11
975.2358070072689
 21
278.923514440366
 31
0.0
  0
LINE
  5
525
  8
回07-寸法
  6
CONTINUOUS
 62
     5
 10
975.2358070072689
 20
271.9235144403661
 30
0.0
 11
975.2358070072689
 21
269.9235144403662
 31
0.0
  0
INSERT
  5
526
  8
回07-寸法
  6
CONTINUOUS
 62
     5
  2
_OPEN
 10
975.2358070072689
 20
273.9235144403661
 30
0.0
 41
2.0
 42
2.0
 43
2.0
 50
90.0
  0
INSERT
  5
527
  8
回07-寸法
  6
CONTINUOUS
 62
     5
  2
_OPEN
 10
975.2358070072689
 20
278.923514440366
 30
0.0
 41
2.0
 42
2.0
 43
2.0
 50
270.0
  0
TEXT
  5
528
  8
回07-寸法
  6
CONTINUOUS
 62
     5
 10
974.585807007269
 20
282.9723333380039
 30
0.0
 40
3.0
  1
(5)
 50
90.0
  0
POINT
  5
529
  8
DEFPOINTS
  6
CONTINUOUS
 62
     0
 10
946.2336847572833
 20
273.9235144403661
 30
0.0
  0
POINT
  5
52A
  8
DEFPOINTS
  6
CONTINUOUS
 62
     0
 10
950.3536847572831
 20
278.923514440366
 30
0.0
  0
POINT
  5
52B
  8
DEFPOINTS
  6
CONTINUOUS
 62
     0
 10
975.2358070072689
 20
278.923514440366
 30
0.0
  0
ENDBLK
  5
52D
  8
0
  6
CONTINUOUS
 62
    20
  0
BLOCK
  8
0
  2
*D60
 70
     1
 10
0.0
 20
0.0
 30
0.0
  3
*D60
  1

  0
LINE
  5
52F
  8
回07-寸法
  6
CONTINUOUS
 62
     5
 10
944.2336847572832
 20
271.9235144403661
 30
0.0
 11
967.271346968409
 21
271.9235144403661
 31
0.0
  0
LINE
  5
530
  8
回07-寸法
  6
CONTINUOUS
 62
     5
 10
950.3536847572831
 20
278.923514440366
 30
0.0
 11
967.271346968409
 21
278.923514440366
 31
0.0
  0
LINE
  5
531
  8
回07-寸法
  6
CONTINUOUS
 62
     5
 10
966.271346968409
 20
280.923514440366
 30
0.0
 11
966.271346968409
 21
287.5211522356419
 31
0.0
  0
LINE
  5
532
  8
回07-寸法
  6
CONTINUOUS
 62
     5
 10
966.271346968409
 20
271.9235144403661
 30
0.0
 11
966.271346968409
 21
278.923514440366
 31
0.0
  0
LINE
  5
533
  8
回07-寸法
  6
CONTINUOUS
 62
     5
 10
966.271346968409
 20
269.9235144403662
 30
0.0
 11
966.271346968409
 21
267.9235144403662
 31
0.0
  0
INSERT
  5
534
  8
回07-寸法
  6
CONTINUOUS
 62
     5
  2
_OPEN
 10
966.271346968409
 20
271.9235144403661
 30
0.0
 41
2.0
 42
2.0
 43
2.0
 50
90.0
  0
INSERT
  5
535
  8
回07-寸法
  6
CONTINUOUS
 62
     5
  2
_OPEN
 10
966.271346968409
 20
278.923514440366
 30
0.0
 41
2.0
 42
2.0
 43
2.0
 50
270.0
  0
TEXT
  5
536
  8
回07-寸法
  6
CONTINUOUS
 62
     5
 10
965.621346968409
 20
282.972333338004
 30
0.0
 40
3.0
  1
(7)
 50
90.0
  0
POINT
  5
537
  8
DEFPOINTS
  6
CONTINUOUS
 62
     0
 10
944.2336847572832
 20
271.9235144403661
 30
0.0
  0
POINT
  5
538
  8
DEFPOINTS
  6
CONTINUOUS
 62
     0
 10
950.3536847572831
 20
278.923514440366
 30
0.0
  0
POINT
  5
539
  8
DEFPOINTS
  6
CONTINUOUS
 62
     0
 10
966.271346968409
 20
278.923514440366
 30
0.0
  0
ENDBLK
  5
53B
  8
0
  6
CONTINUOUS
 62
    20
  0
BLOCK
  8
0
  2
*D61
 70
     1
 10
0.0
 20
0.0
 30
0.0
  3
*D61
  1

  0
LINE
  5
53D
  8
回07-寸法
  6
CONTINUOUS
 62
     5
 10
946.7336847572832
 20
169.2635144403662
 30
0.0
 11
985.1833365201771
 21
169.2635144403662
 31
0.0
  0
LINE
  5
53E
  8
回07-寸法
  6
CONTINUOUS
 62
     5
 10
946.7336847572832
 20
274.7235144403661
 30
0.0
 11
985.1833365201771
 21
274.7235144403661
 31
0.0
  0
LINE
  5
53F
  8
回07-寸法
  6
CONTINUOUS
 62
     5
 10
984.1833365201772
 20
171.2635144403662
 30
0.0
 11
984.1833365201772
 21
272.7235144403661
 31
0.0
  0
INSERT
  5
540
  8
回07-寸法
  6
CONTINUOUS
 62
     5
  2
_OPEN
 10
984.1833365201772
 20
169.2635144403662
 30
0.0
 41
2.0
 42
2.0
 43
2.0
 50
270.0
  0
INSERT
  5
541
  8
回07-寸法
  6
CONTINUOUS
 62
     5
  2
_OPEN
 10
984.1833365201772
 20
274.7235144403661
 30
0.0
 41
2.0
 42
2.0
 43
2.0
 50
90.0
  0
TEXT
  5
542
  8
回07-寸法
  6
CONTINUOUS
 62
     5
 10
983.6833365201771
 20
216.4422618977153
 30
0.0
 40
3.0
  1
105.46
 50
90.0
  0
POINT
  5
543
  8
DEFPOINTS
  6
CONTINUOUS
 62
     0
 10
946.7336847572832
 20
169.2635144403662
 30
0.0
  0
POINT
  5
544
  8
DEFPOINTS
  6
CONTINUOUS
 62
     0
 10
946.7336847572832
 20
274.7235144403661
 30
0.0
  0
POINT
  5
545
  8
DEFPOINTS
  6
CONTINUOUS
 62
     0
 10
984.1833365201772
 20
274.7235144403661
 30
0.0
  0
ENDBLK
  5
547
  8
0
  6
CONTINUOUS
 62
    20
  0
BLOCK
  8
0
  2
*D62
 70
     1
 10
0.0
 20
0.0
 30
0.0
  3
*D62
  1

  0
LINE
  5
549
  8
回07-寸法
  6
CONTINUOUS
 62
     5
 10
946.2336847572833
 20
273.9235144403661
 30
0.0
 11
976.2358070072671
 21
273.9235144403661
 31
0.0
  0
LINE
  5
54A
  8
回07-寸法
  6
CONTINUOUS
 62
     5
 10
946.2336847572833
 20
170.0635144403661
 30
0.0
 11
976.2358070072671
 21
170.0635144403661
 31
0.0
  0
LINE
  5
54B
  8
回07-寸法
  6
CONTINUOUS
 62
     5
 10
975.2358070072672
 20
271.9235144403661
 30
0.0
 11
975.2358070072672
 21
172.0635144403661
 31
0.0
  0
INSERT
  5
54C
  8
回07-寸法
  6
CONTINUOUS
 62
     5
  2
_OPEN
 10
975.2358070072672
 20
273.9235144403661
 30
0.0
 41
2.0
 42
2.0
 43
2.0
 50
90.0
  0
INSERT
  5
54D
  8
回07-寸法
  6
CONTINUOUS
 62
     5
  2
_OPEN
 10
975.2358070072672
 20
170.0635144403661
 30
0.0
 41
2.0
 42
2.0
 43
2.0
 50
270.0
  0
TEXT
  5
54E
  8
回07-寸法
  6
CONTINUOUS
 62
     5
 10
973.9858070072671
 20
202.7941049915472
 30
0.0
 40
3.0
  1
103.86 (Viewing area)
 50
90.0
  0
POINT
  5
54F
  8
DEFPOINTS
  6
CONTINUOUS
 62
     0
 10
946.2336847572833
 20
273.9235144403661
 30
0.0
  0
POINT
  5
550
  8
DEFPOINTS
  6
CONTINUOUS
 62
     0
 10
946.2336847572833
 20
170.0635144403661
 30
0.0
  0
POINT
  5
551
  8
DEFPOINTS
  6
CONTINUOUS
 62
     0
 10
975.2358070072672
 20
170.0635144403661
 30
0.0
  0
ENDBLK
  5
553
  8
0
  6
CONTINUOUS
 62
    20
  0
BLOCK
  8
0
  2
*D63
 70
     1
 10
0.0
 20
0.0
 30
0.0
  3
*D63
  1

  0
LINE
  5
555
  8
回07-寸法
  6
CONTINUOUS
 62
     5
 10
944.2336847572832
 20
271.9235144403661
 30
0.0
 11
967.2713469684095
 21
271.9235144403661
 31
0.0
  0
LINE
  5
556
  8
回07-寸法
  6
CONTINUOUS
 62
     5
 10
944.2336847572832
 20
172.0635144403661
 30
0.0
 11
967.2713469684095
 21
172.0635144403661
 31
0.0
  0
LINE
  5
557
  8
回07-寸法
  6
CONTINUOUS
 62
     5
 10
966.2713469684096
 20
269.9235144403662
 30
0.0
 11
966.2713469684096
 21
174.0635144403661
 31
0.0
  0
INSERT
  5
558
  8
回07-寸法
  6
CONTINUOUS
 62
     5
  2
_OPEN
 10
966.2713469684096
 20
271.9235144403661
 30
0.0
 41
2.0
 42
2.0
 43
2.0
 50
90.0
  0
INSERT
  5
559
  8
回07-寸法
  6
CONTINUOUS
 62
     5
  2
_OPEN
 10
966.2713469684096
 20
172.0635144403661
 30
0.0
 41
2.0
 42
2.0
 43
2.0
 50
270.0
  0
TEXT
  5
55A
  8
回07-寸法
  6
CONTINUOUS
 62
     5
 10
965.6213469684097
 20
204.5778583331759
 30
0.0
 40
3.0
  1
99.86 (Active area)
 50
90.0
  0
POINT
  5
55B
  8
DEFPOINTS
  6
CONTINUOUS
 62
     0
 10
944.2336847572832
 20
271.9235144403661
 30
0.0
  0
POINT
  5
55C
  8
DEFPOINTS
  6
CONTINUOUS
 62
     0
 10
944.2336847572832
 20
172.0635144403661
 30
0.0
  0
POINT
  5
55D
  8
DEFPOINTS
  6
CONTINUOUS
 62
     0
 10
966.2713469684096
 20
172.0635144403661
 30
0.0
  0
ENDBLK
  5
55F
  8
0
  6
CONTINUOUS
 62
    20
  0
BLOCK
  8
0
  2
*D64
 70
     1
 10
0.0
 20
0.0
 30
0.0
  3
*D64
  1

  0
LINE
  5
561
  8
回07-寸法
  6
CONTINUOUS
 62
     5
 10
803.0536847572832
 20
278.9235144403662
 30
0.0
 11
803.0536847572832
 21
316.9814409975998
 31
0.0
  0
LINE
  5
562
  8
回07-寸法
  6
CONTINUOUS
 62
     5
 10
950.3536847572831
 20
278.923514440366
 30
0.0
 11
950.3536847572831
 21
316.9814409975998
 31
0.0
  0
LINE
  5
563
  8
回07-寸法
  6
CONTINUOUS
 62
     5
 10
805.0536847572832
 20
315.9814409975997
 30
0.0
 11
948.3536847572832
 21
315.9814409975997
 31
0.0
  0
INSERT
  5
564
  8
回07-寸法
  6
CONTINUOUS
 62
     5
  2
_OPEN
 10
803.0536847572832
 20
315.9814409975997
 30
0.0
 41
2.0
 42
2.0
 43
2.0
 50
180.0
  0
INSERT
  5
565
  8
回07-寸法
  6
CONTINUOUS
 62
     5
  2
_OPEN
 10
950.3536847572831
 20
315.9814409975997
 30
0.0
 41
2.0
 42
2.0
 43
2.0
  0
INSERT
  5
566
  8
回07-寸法
  6
CONTINUOUS
 62
     5
 66
     1
  2
*X105
 10
0.0
 20
0.0
 30
0.0
  0
SEQEND
  5
738
  8
0
  6
CONTINUOUS
 62
    20
  0
POINT
  5
567
  8
DEFPOINTS
  6
CONTINUOUS
 62
     0
 10
803.0536847572832
 20
278.9235144403662
 30
0.0
  0
POINT
  5
568
  8
DEFPOINTS
  6
CONTINUOUS
 62
     0
 10
950.3536847572831
 20
278.923514440366
 30
0.0
  0
POINT
  5
569
  8
DEFPOINTS
  6
CONTINUOUS
 62
     0
 10
950.3536847572831
 20
315.9814409975997
 30
0.0
  0
ENDBLK
  5
56B
  8
0
  6
CONTINUOUS
 62
    20
  0
BLOCK
  8
0
  2
*D65
 70
     1
 10
0.0
 20
0.0
 30
0.0
  3
*D65
  1

  0
LINE
  5
56D
  8
回07-寸法
  6
CONTINUOUS
 62
     5
 10
808.7536847572833
 20
274.7235144403662
 30
0.0
 11
808.7536847572833
 21
309.6811627768266
 31
0.0
  0
LINE
  5
56E
  8
回07-寸法
  6
CONTINUOUS
 62
     5
 10
803.0536847572832
 20
278.9235144403662
 30
0.0
 11
803.0536847572832
 21
309.6811627768266
 31
0.0
  0
LINE
  5
56F
  8
回07-寸法
  6
CONTINUOUS
 62
     5
 10
801.0536847572833
 20
308.6811627768266
 30
0.0
 11
763.5473658596453
 21
308.6811627768266
 31
0.0
  0
LINE
  5
570
  8
回07-寸法
  6
CONTINUOUS
 62
     5
 10
808.7536847572833
 20
308.6811627768266
 30
0.0
 11
803.0536847572832
 21
308.6811627768266
 31
0.0
  0
LINE
  5
571
  8
回07-寸法
  6
CONTINUOUS
 62
     5
 10
810.7536847572832
 20
308.6811627768266
 30
0.0
 11
812.7536847572832
 21
308.6811627768266
 31
0.0
  0
INSERT
  5
572
  8
回07-寸法
  6
CONTINUOUS
 62
     5
  2
_OPEN
 10
808.7536847572833
 20
308.6811627768266
 30
0.0
 41
2.0
 42
2.0
 43
2.0
 50
180.0
  0
INSERT
  5
573
  8
回07-寸法
  6
CONTINUOUS
 62
     5
  2
_OPEN
 10
803.0536847572832
 20
308.6811627768266
 30
0.0
 41
2.0
 42
2.0
 43
2.0
  0
TEXT
  5
574
  8
回07-寸法
  6
CONTINUOUS
 62
     5
 10
763.5973658596453
 20
309.3311627768266
 30
0.0
 40
3.0
  1
5.7(Insulation Area)
  0
POINT
  5
575
  8
DEFPOINTS
  6
CONTINUOUS
 62
     0
 10
808.7536847572833
 20
274.7235144403662
 30
0.0
  0
POINT
  5
576
  8
DEFPOINTS
  6
CONTINUOUS
 62
     0
 10
803.0536847572832
 20
278.9235144403662
 30
0.0
  0
POINT
  5
577
  8
DEFPOINTS
  6
CONTINUOUS
 62
     0
 10
803.0536847572832
 20
308.6811627768266
 30
0.0
  0
ENDBLK
  5
579
  8
0
  6
CONTINUOUS
 62
    20
  0
BLOCK
  8
0
  2
*D66
 70
     1
 10
0.0
 20
0.0
 30
0.0
  3
*D66
  1

  0
LINE
  5
57B
  8
回07-寸法
  6
CONTINUOUS
 62
     5
 10
809.2536847572832
 20
273.9235144403661
 30
0.0
 11
809.2536847572832
 21
302.0302235110348
 31
0.0
  0
LINE
  5
57C
  8
回07-寸法
  6
CONTINUOUS
 62
     5
 10
803.0536847572832
 20
278.9235144403662
 30
0.0
 11
803.0536847572832
 21
302.0302235110348
 31
0.0
  0
LINE
  5
57D
  8
回07-寸法
  6
CONTINUOUS
 62
     5
 10
801.0536847572833
 20
301.0302235110348
 30
0.0
 11
793.6735007097381
 21
301.0302235110348
 31
0.0
  0
LINE
  5
57E
  8
回07-寸法
  6
CONTINUOUS
 62
     5
 10
809.2536847572832
 20
301.0302235110348
 30
0.0
 11
803.0536847572832
 21
301.0302235110348
 31
0.0
  0
LINE
  5
57F
  8
回07-寸法
  6
CONTINUOUS
 62
     5
 10
811.2536847572833
 20
301.0302235110348
 30
0.0
 11
813.2536847572833
 21
301.0302235110348
 31
0.0
  0
INSERT
  5
580
  8
回07-寸法
  6
CONTINUOUS
 62
     5
  2
_OPEN
 10
809.2536847572832
 20
301.0302235110348
 30
0.0
 41
2.0
 42
2.0
 43
2.0
 50
180.0
  0
INSERT
  5
581
  8
回07-寸法
  6
CONTINUOUS
 62
     5
  2
_OPEN
 10
803.0536847572832
 20
301.0302235110348
 30
0.0
 41
2.0
 42
2.0
 43
2.0
  0
TEXT
  5
582
  8
回07-寸法
  6
CONTINUOUS
 62
     5
 10
793.7235007097381
 20
301.5302235110348
 30
0.0
 40
3.0
  1
6.2
  0
POINT
  5
583
  8
DEFPOINTS
  6
CONTINUOUS
 62
     0
 10
809.2536847572832
 20
273.9235144403661
 30
0.0
  0
POINT
  5
584
  8
DEFPOINTS
  6
CONTINUOUS
 62
     0
 10
803.0536847572832
 20
278.9235144403662
 30
0.0
  0
POINT
  5
585
  8
DEFPOINTS
  6
CONTINUOUS
 62
     0
 10
803.0536847572832
 20
301.0302235110348
 30
0.0
  0
ENDBLK
  5
587
  8
0
  6
CONTINUOUS
 62
    20
  0
BLOCK
  8
0
  2
*D67
 70
     1
 10
0.0
 20
0.0
 30
0.0
  3
*D67
  1

  0
LINE
  5
589
  8
回07-寸法
  6
CONTINUOUS
 62
     5
 10
946.7336847572832
 20
274.7235144403661
 30
0.0
 11
946.7336847572832
 21
309.6811627768266
 31
0.0
  0
LINE
  5
58A
  8
回07-寸法
  6
CONTINUOUS
 62
     5
 10
950.3536847572831
 20
278.923514440366
 30
0.0
 11
950.3536847572831
 21
309.6811627768266
 31
0.0
  0
LINE
  5
58B
  8
回07-寸法
  6
CONTINUOUS
 62
     5
 10
952.3536847572831
 20
308.6811627768266
 30
0.0
 11
964.0513225525587
 21
308.6811627768266
 31
0.0
  0
LINE
  5
58C
  8
回07-寸法
  6
CONTINUOUS
 62
     5
 10
946.7336847572832
 20
308.6811627768266
 30
0.0
 11
950.3536847572831
 21
308.6811627768266
 31
0.0
  0
LINE
  5
58D
  8
回07-寸法
  6
CONTINUOUS
 62
     5
 10
944.7336847572833
 20
308.6811627768266
 30
0.0
 11
942.7336847572833
 21
308.6811627768266
 31
0.0
  0
INSERT
  5
58E
  8
回07-寸法
  6
CONTINUOUS
 62
     5
  2
_OPEN
 10
946.7336847572832
 20
308.6811627768266
 30
0.0
 41
2.0
 42
2.0
 43
2.0
  0
INSERT
  5
58F
  8
回07-寸法
  6
CONTINUOUS
 62
     5
  2
_OPEN
 10
950.3536847572831
 20
308.6811627768266
 30
0.0
 41
2.0
 42
2.0
 43
2.0
 50
180.0
  0
TEXT
  5
590
  8
回07-寸法
  6
CONTINUOUS
 62
     5
 10
954.4025036549211
 20
309.3311627768266
 30
0.0
 40
3.0
  1
(3.62)
  0
POINT
  5
591
  8
DEFPOINTS
  6
CONTINUOUS
 62
     0
 10
946.7336847572832
 20
274.7235144403661
 30
0.0
  0
POINT
  5
592
  8
DEFPOINTS
  6
CONTINUOUS
 62
     0
 10
950.3536847572831
 20
278.923514440366
 30
0.0
  0
POINT
  5
593
  8
DEFPOINTS
  6
CONTINUOUS
 62
     0
 10
950.3536847572831
 20
308.6811627768266
 30
0.0
  0
ENDBLK
  5
595
  8
0
  6
CONTINUOUS
 62
    20
  0
BLOCK
  8
0
  2
*D68
 70
     1
 10
0.0
 20
0.0
 30
0.0
  3
*D68
  1

  0
LINE
  5
597
  8
回07-寸法
  6
CONTINUOUS
 62
     5
 10
946.2336847572833
 20
273.9235144403661
 30
0.0
 11
946.2336847572833
 21
302.0302235110348
 31
0.0
  0
LINE
  5
598
  8
回07-寸法
  6
CONTINUOUS
 62
     5
 10
950.3536847572831
 20
278.923514440366
 30
0.0
 11
950.3536847572831
 21
302.0302235110348
 31
0.0
  0
LINE
  5
599
  8
回07-寸法
  6
CONTINUOUS
 62
     5
 10
952.3536847572831
 20
301.0302235110348
 30
0.0
 11
963.7513225525587
 21
301.0302235110348
 31
0.0
  0
LINE
  5
59A
  8
回07-寸法
  6
CONTINUOUS
 62
     5
 10
946.2336847572833
 20
301.0302235110348
 30
0.0
 11
950.3536847572831
 21
301.0302235110348
 31
0.0
  0
LINE
  5
59B
  8
回07-寸法
  6
CONTINUOUS
 62
     5
 10
944.2336847572832
 20
301.0302235110348
 30
0.0
 11
942.2336847572832
 21
301.0302235110348
 31
0.0
  0
INSERT
  5
59C
  8
回07-寸法
  6
CONTINUOUS
 62
     5
  2
_OPEN
 10
946.2336847572833
 20
301.0302235110348
 30
0.0
 41
2.0
 42
2.0
 43
2.0
  0
INSERT
  5
59D
  8
回07-寸法
  6
CONTINUOUS
 62
     5
  2
_OPEN
 10
950.3536847572831
 20
301.0302235110348
 30
0.0
 41
2.0
 42
2.0
 43
2.0
 50
180.0
  0
TEXT
  5
59E
  8
回07-寸法
  6
CONTINUOUS
 62
     5
 10
954.4025036549211
 20
301.6802235110348
 30
0.0
 40
3.0
  1
(4.12)
  0
POINT
  5
59F
  8
DEFPOINTS
  6
CONTINUOUS
 62
     0
 10
946.2336847572833
 20
273.9235144403661
 30
0.0
  0
POINT
  5
5A0
  8
DEFPOINTS
  6
CONTINUOUS
 62
     0
 10
950.3536847572831
 20
278.923514440366
 30
0.0
  0
POINT
  5
5A1
  8
DEFPOINTS
  6
CONTINUOUS
 62
     0
 10
950.3536847572831
 20
301.0302235110348
 30
0.0
  0
ENDBLK
  5
5A3
  8
0
  6
CONTINUOUS
 62
    20
  0
BLOCK
  8
0
  2
*D69
 70
     1
 10
0.0
 20
0.0
 30
0.0
  3
*D69
  1

  0
LINE
  5
5A5
  8
回07-寸法
  6
CONTINUOUS
 62
     5
 10
944.2336847572832
 20
271.9235144403661
 30
0.0
 11
944.2336847572832
 21
294.6479366685785
 31
0.0
  0
LINE
  5
5A6
  8
回07-寸法
  6
CONTINUOUS
 62
     5
 10
950.3536847572831
 20
278.923514440366
 30
0.0
 11
950.3536847572831
 21
294.6479366685785
 31
0.0
  0
LINE
  5
5A7
  8
回07-寸法
  6
CONTINUOUS
 62
     5
 10
952.3536847572831
 20
293.6479366685785
 30
0.0
 11
963.4513225525589
 21
293.6479366685785
 31
0.0
  0
LINE
  5
5A8
  8
回07-寸法
  6
CONTINUOUS
 62
     5
 10
944.2336847572832
 20
293.6479366685785
 30
0.0
 11
950.3536847572831
 21
293.6479366685785
 31
0.0
  0
LINE
  5
5A9
  8
回07-寸法
  6
CONTINUOUS
 62
     5
 10
942.2336847572832
 20
293.6479366685785
 30
0.0
 11
940.2336847572833
 21
293.6479366685785
 31
0.0
  0
INSERT
  5
5AA
  8
回07-寸法
  6
CONTINUOUS
 62
     5
  2
_OPEN
 10
944.2336847572832
 20
293.6479366685785
 30
0.0
 41
2.0
 42
2.0
 43
2.0
  0
INSERT
  5
5AB
  8
回07-寸法
  6
CONTINUOUS
 62
     5
  2
_OPEN
 10
950.3536847572831
 20
293.6479366685785
 30
0.0
 41
2.0
 42
2.0
 43
2.0
 50
180.0
  0
TEXT
  5
5AC
  8
回07-寸法
  6
CONTINUOUS
 62
     5
 10
954.4025036549211
 20
294.2979366685785
 30
0.0
 40
3.0
  1
(6.12)
  0
POINT
  5
5AD
  8
DEFPOINTS
  6
CONTINUOUS
 62
     0
 10
944.2336847572832
 20
271.9235144403661
 30
0.0
  0
POINT
  5
5AE
  8
DEFPOINTS
  6
CONTINUOUS
 62
     0
 10
950.3536847572831
 20
278.923514440366
 30
0.0
  0
POINT
  5
5AF
  8
DEFPOINTS
  6
CONTINUOUS
 62
     0
 10
950.3536847572831
 20
293.6479366685785
 30
0.0
  0
ENDBLK
  5
5B1
  8
0
  6
CONTINUOUS
 62
    20
  0
BLOCK
  8
0
  2
*D70
 70
     1
 10
0.0
 20
0.0
 30
0.0
  3
*D70
  1

  0
LINE
  5
5B3
  8
回07-寸法
  6
CONTINUOUS
 62
     5
 10
808.7536847572833
 20
274.7235144403662
 30
0.0
 11
808.7536847572833
 21
309.6811627768266
 31
0.0
  0
LINE
  5
5B4
  8
回07-寸法
  6
CONTINUOUS
 62
     5
 10
946.7336847572832
 20
274.7235144403661
 30
0.0
 11
946.7336847572832
 21
309.6811627768266
 31
0.0
  0
LINE
  5
5B5
  8
回07-寸法
  6
CONTINUOUS
 62
     5
 10
810.7536847572832
 20
308.6811627768266
 30
0.0
 11
944.7336847572833
 21
308.6811627768266
 31
0.0
  0
INSERT
  5
5B6
  8
回07-寸法
  6
CONTINUOUS
 62
     5
  2
_OPEN
 10
808.7536847572833
 20
308.6811627768266
 30
0.0
 41
2.0
 42
2.0
 43
2.0
 50
180.0
  0
INSERT
  5
5B7
  8
回07-寸法
  6
CONTINUOUS
 62
     5
  2
_OPEN
 10
946.7336847572832
 20
308.6811627768266
 30
0.0
 41
2.0
 42
2.0
 43
2.0
  0
TEXT
  5
5B8
  8
回07-寸法
  6
CONTINUOUS
 62
     5
 10
872.3382692044928
 20
309.1811627768266
 30
0.0
 40
3.0
  1
137.98
  0
POINT
  5
5B9
  8
DEFPOINTS
  6
CONTINUOUS
 62
     0
 10
808.7536847572833
 20
274.7235144403662
 30
0.0
  0
POINT
  5
5BA
  8
DEFPOINTS
  6
CONTINUOUS
 62
     0
 10
946.7336847572832
 20
274.7235144403661
 30
0.0
  0
POINT
  5
5BB
  8
DEFPOINTS
  6
CONTINUOUS
 62
     0
 10
946.7336847572832
 20
308.6811627768266
 30
0.0
  0
ENDBLK
  5
5BD
  8
0
  6
CONTINUOUS
 62
    20
  0
BLOCK
  8
0
  2
*D71
 70
     1
 10
0.0
 20
0.0
 30
0.0
  3
*D71
  1

  0
LINE
  5
5BF
  8
回07-寸法
  6
CONTINUOUS
 62
     5
 10
809.2536847572832
 20
273.9235144403661
 30
0.0
 11
809.2536847572832
 21
302.0302235110348
 31
0.0
  0
LINE
  5
5C0
  8
回07-寸法
  6
CONTINUOUS
 62
     5
 10
946.2336847572833
 20
273.9235144403661
 30
0.0
 11
946.2336847572833
 21
302.0302235110348
 31
0.0
  0
LINE
  5
5C1
  8
回07-寸法
  6
CONTINUOUS
 62
     5
 10
811.2536847572833
 20
301.0302235110348
 30
0.0
 11
944.2336847572832
 21
301.0302235110348
 31
0.0
  0
INSERT
  5
5C2
  8
回07-寸法
  6
CONTINUOUS
 62
     5
  2
_OPEN
 10
809.2536847572832
 20
301.0302235110348
 30
0.0
 41
2.0
 42
2.0
 43
2.0
 50
180.0
  0
INSERT
  5
5C3
  8
回07-寸法
  6
CONTINUOUS
 62
     5
  2
_OPEN
 10
946.2336847572833
 20
301.0302235110348
 30
0.0
 41
2.0
 42
2.0
 43
2.0
  0
TEXT
  5
5C4
  8
回07-寸法
  6
CONTINUOUS
 62
     5
 10
858.538859755674
 20
302.2802235110348
 30
0.0
 40
3.0
  1
136.98 (Viewing area)
  0
POINT
  5
5C5
  8
DEFPOINTS
  6
CONTINUOUS
 62
     0
 10
809.2536847572832
 20
273.9235144403661
 30
0.0
  0
POINT
  5
5C6
  8
DEFPOINTS
  6
CONTINUOUS
 62
     0
 10
946.2336847572833
 20
273.9235144403661
 30
0.0
  0
POINT
  5
5C7
  8
DEFPOINTS
  6
CONTINUOUS
 62
     0
 10
946.2336847572833
 20
301.0302235110348
 30
0.0
  0
ENDBLK
  5
5C9
  8
0
  6
CONTINUOUS
 62
    20
  0
BLOCK
  8
0
  2
*D72
 70
     1
 10
0.0
 20
0.0
 30
0.0
  3
*D72
  1

  0
LINE
  5
5CB
  8
回08-記事
 62
     5
 10
893.7436847572833
 20
209.9935144403661
 30
0.0
 11
893.7436847572833
 21
202.3253887788937
 31
0.0
  0
LINE
  5
5CC
  8
回08-記事
 62
     5
 10
889.7436847572832
 20
209.9935144403661
 30
0.0
 11
889.7436847572832
 21
202.3253887788937
 31
0.0
  0
LINE
  5
5CD
  8
回08-記事
 62
     5
 10
887.7436847572832
 20
203.3253887788937
 30
0.0
 11
883.2436847572832
 21
203.3253887788937
 31
0.0
  0
LINE
  5
5CE
  8
回08-記事
 62
     5
 10
893.7436847572833
 20
203.3253887788937
 30
0.0
 11
889.7436847572832
 21
203.3253887788937
 31
0.0
  0
LINE
  5
5CF
  8
回08-記事
 62
     5
 10
895.7436847572832
 20
203.3253887788937
 30
0.0
 11
897.7436847572832
 21
203.3253887788937
 31
0.0
  0
INSERT
  5
5D0
  8
回08-記事
  6
CONTINUOUS
 62
     5
  2
_OPEN
 10
893.7436847572833
 20
203.3253887788937
 30
0.0
 41
2.0
 42
2.0
 43
2.0
 50
180.0
  0
INSERT
  5
5D1
  8
回08-記事
  6
CONTINUOUS
 62
     5
  2
_OPEN
 10
889.7436847572832
 20
203.3253887788937
 30
0.0
 41
2.0
 42
2.0
 43
2.0
  0
TEXT
  5
5D2
  8
回08-記事
  6
CONTINUOUS
 62
     5
 10
883.2936847572833
 20
203.8253887788937
 30
0.0
 40
3.0
  1
4
  0
POINT
  5
5D3
  8
DEFPOINTS
  6
CONTINUOUS
 62
     0
 10
893.7436847572833
 20
209.9935144403661
 30
0.0
  0
POINT
  5
5D4
  8
DEFPOINTS
  6
CONTINUOUS
 62
     0
 10
889.7436847572832
 20
209.9935144403661
 30
0.0
  0
POINT
  5
5D5
  8
DEFPOINTS
  6
CONTINUOUS
 62
     0
 10
889.7436847572832
 20
203.3253887788937
 30
0.0
  0
ENDBLK
  5
5D7
  8
0
  6
CONTINUOUS
 62
    20
  0
BLOCK
  8
0
  2
*D73
 70
     1
 10
0.0
 20
0.0
 30
0.0
  3
*D73
  1

  0
LINE
  5
5D9
  8
回08-記事
 62
     5
 10
893.7436847572833
 20
213.9935144403661
 30
0.0
 11
903.367451623151
 21
213.9935144403661
 31
0.0
  0
LINE
  5
5DA
  8
回08-記事
 62
     5
 10
893.7436847572833
 20
209.9935144403661
 30
0.0
 11
903.367451623151
 21
209.9935144403661
 31
0.0
  0
LINE
  5
5DB
  8
回08-記事
 62
     5
 10
902.3674516231508
 20
207.9935144403661
 30
0.0
 11
902.3674516231508
 21
203.4935144403661
 31
0.0
  0
LINE
  5
5DC
  8
回08-記事
 62
     5
 10
902.3674516231508
 20
213.9935144403661
 30
0.0
 11
902.3674516231508
 21
209.9935144403661
 31
0.0
  0
LINE
  5
5DD
  8
回08-記事
 62
     5
 10
902.3674516231508
 20
215.9935144403661
 30
0.0
 11
902.3674516231508
 21
217.9935144403661
 31
0.0
  0
INSERT
  5
5DE
  8
回08-記事
  6
CONTINUOUS
 62
     5
  2
_OPEN
 10
902.3674516231508
 20
213.9935144403661
 30
0.0
 41
2.0
 42
2.0
 43
2.0
 50
270.0
  0
INSERT
  5
5DF
  8
回08-記事
  6
CONTINUOUS
 62
     5
  2
_OPEN
 10
902.3674516231508
 20
209.9935144403661
 30
0.0
 41
2.0
 42
2.0
 43
2.0
 50
90.0
  0
TEXT
  5
5E0
  8
回08-記事
  6
CONTINUOUS
 62
     5
 10
901.8674516231508
 20
203.543514440366
 30
0.0
 40
3.0
  1
4
 50
90.0
  0
POINT
  5
5E1
  8
DEFPOINTS
  6
CONTINUOUS
 62
     0
 10
893.7436847572833
 20
213.9935144403661
 30
0.0
  0
POINT
  5
5E2
  8
DEFPOINTS
  6
CONTINUOUS
 62
     0
 10
893.7436847572833
 20
209.9935144403661
 30
0.0
  0
POINT
  5
5E3
  8
DEFPOINTS
  6
CONTINUOUS
 62
     0
 10
902.3674516231508
 20
209.9935144403661
 30
0.0
  0
ENDBLK
  5
5E5
  8
0
  6
CONTINUOUS
 62
    20
  0
BLOCK
  8
0
  2
*D74
 70
     1
 10
0.0
 20
0.0
 30
0.0
  3
*D74
  1

  0
LINE
  5
5E7
  8
回07-寸法
  6
CONTINUOUS
 62
     5
 10
803.0536847572834
 20
213.3163900958991
 30
0.0
 11
803.0536847572834
 21
205.6602382894561
 31
0.0
  0
LINE
  5
5E9
  8
回07-寸法
  6
CONTINUOUS
 62
     5
 10
798.484403043777
 20
214.0691560812118
 30
0.0
 11
798.484403043777
 21
205.6602382894561
 31
0.0
  0
LINE
  5
5EA
  8
回07-寸法
  6
CONTINUOUS
 62
     5
 10
796.4844030437769
 20
206.6602382894561
 30
0.0
 11
784.518831939509
 21
206.6602382894561
 31
0.0
  0
LINE
  5
5EB
  8
回07-寸法
  6
CONTINUOUS
 62
     5
 10
803.0536847572834
 20
206.6602382894561
 30
0.0
 11
798.484403043777
 21
206.6602382894561
 31
0.0
  0
LINE
  5
5EC
  8
回07-寸法
  6
CONTINUOUS
 62
     5
 10
805.0536847572834
 20
206.6602382894561
 30
0.0
 11
807.0536847572835
 21
206.6602382894561
 31
0.0
  0
INSERT
  5
5ED
  8
回07-寸法
  6
CONTINUOUS
 62
     5
  2
_OPEN
 10
803.0536847572834
 20
206.6602382894561
 30
0.0
 41
2.0
 42
2.0
 43
2.0
 50
180.0
  0
INSERT
  5
5EE
  8
回07-寸法
  6
CONTINUOUS
 62
     5
  2
_OPEN
 10
798.484403043777
 20
206.6602382894561
 30
0.0
 41
2.0
 42
2.0
 43
2.0
  0
TEXT
  5
5EF
  8
回07-寸法
  6
CONTINUOUS
 62
     5
 10
784.5688319395089
 20
207.1602382894561
 30
0.0
 40
3.0
  1
4.57
  0
POINT
  5
5F0
  8
DEFPOINTS
  6
CONTINUOUS
 62
     0
 10
803.0536847572834
 20
213.3163900958991
 30
0.0
  0
POINT
  5
5F1
  8
DEFPOINTS
  6
CONTINUOUS
 62
     0
 10
798.484403043777
 20
214.0691560812118
 30
0.0
  0
POINT
  5
5F2
  8
DEFPOINTS
  6
CONTINUOUS
 62
     0
 10
798.484403043777
 20
206.6602382894561
 30
0.0
  0
ENDBLK
  5
5F4
  8
0
  6
CONTINUOUS
 62
    20
  0
BLOCK
  8
0
  2
*D75
 70
     1
 10
0.0
 20
0.0
 30
0.0
  3
*D75
  1

  0
LINE
  5
5F6
  8
回07-寸法
  6
CONTINUOUS
 62
     5
 10
803.0536847572834
 20
213.3163900958988
 30
0.0
 11
803.0536847572834
 21
197.9972083524694
 31
0.0
  0
LINE
  5
5F7
  8
回07-寸法
  6
CONTINUOUS
 62
     5
 10
793.5265355772412
 20
218.7888371012026
 30
0.0
 11
793.5265355772412
 21
197.9972083524694
 31
0.0
  0
LINE
  5
5F8
  8
回07-寸法
  6
CONTINUOUS
 62
     5
 10
791.5265355772413
 20
198.9972083524694
 30
0.0
 11
781.7006468560695
 21
198.9972083524694
 31
0.0
  0
LINE
  5
5F9
  8
回07-寸法
  6
CONTINUOUS
 62
     5
 10
803.0536847572834
 20
198.9972083524694
 30
0.0
 11
793.5265355772412
 21
198.9972083524694
 31
0.0
  0
LINE
  5
5FA
  8
回07-寸法
  6
CONTINUOUS
 62
     5
 10
805.0536847572834
 20
198.9972083524694
 30
0.0
 11
807.0536847572835
 21
198.9972083524694
 31
0.0
  0
INSERT
  5
5FB
  8
回07-寸法
  6
CONTINUOUS
 62
     5
  2
_OPEN
 10
803.0536847572834
 20
198.9972083524694
 30
0.0
 41
2.0
 42
2.0
 43
2.0
 50
180.0
  0
INSERT
  5
5FC
  8
回07-寸法
  6
CONTINUOUS
 62
     5
  2
_OPEN
 10
793.5265355772412
 20
198.9972083524694
 30
0.0
 41
2.0
 42
2.0
 43
2.0
  0
TEXT
  5
5FD
  8
回07-寸法
  6
CONTINUOUS
 62
     5
 10
781.7398157504885
 20
199.4972083524693
 30
0.0
 40
3.0
  1
9.53
  0
POINT
  5
5FE
  8
DEFPOINTS
  6
CONTINUOUS
 62
     0
 10
803.0536847572834
 20
213.3163900958988
 30
0.0
  0
POINT
  5
5FF
  8
DEFPOINTS
  6
CONTINUOUS
 62
     0
 10
793.5265355772412
 20
218.7888371012026
 30
0.0
  0
POINT
  5
600
  8
DEFPOINTS
  6
CONTINUOUS
 62
     0
 10
793.5265355772412
 20
198.9972083524694
 30
0.0
  0
ENDBLK
  5
602
  8
0
  6
CONTINUOUS
 62
    20
  0
BLOCK
  8
0
  2
*D76
 70
     1
 10
0.0
 20
0.0
 30
0.0
  3
*D76
  1

  0
LINE
  5
604
  8
回07-寸法
  6
CONTINUOUS
 62
     5
 10
798.8659284346245
 20
213.9935144403664
 30
0.0
 11
776.8928204657718
 21
213.9935144403664
 31
0.0
  0
LINE
  5
605
  8
回07-寸法
  6
CONTINUOUS
 62
     5
 10
798.8617548489178
 20
229.9923114060945
 30
0.0
 11
776.8928204657718
 21
229.9923114060945
 31
0.0
  0
LINE
  5
606
  8
回07-寸法
  6
CONTINUOUS
 62
     5
 10
777.8928204657717
 20
211.9935144403664
 30
0.0
 11
777.8928204657717
 21
204.9287117145763
 31
0.0
  0
LINE
  5
607
  8
回07-寸法
  6
CONTINUOUS
 62
     5
 10
777.8928204657717
 20
213.9935144403664
 30
0.0
 11
777.8928204657717
 21
229.9923114060945
 31
0.0
  0
LINE
  5
608
  8
回07-寸法
  6
CONTINUOUS
 62
     5
 10
777.8928204657717
 20
231.9923114060945
 30
0.0
 11
777.8928204657717
 21
233.9923114060945
 31
0.0
  0
INSERT
  5
609
  8
回07-寸法
  6
CONTINUOUS
 62
     5
  2
_OPEN
 10
777.8928204657717
 20
213.9935144403664
 30
0.0
 41
2.0
 42
2.0
 43
2.0
 50
90.0
  0
INSERT
  5
60A
  8
回07-寸法
  6
CONTINUOUS
 62
     5
  2
_OPEN
 10
777.8928204657717
 20
229.9923114060945
 30
0.0
 41
2.0
 42
2.0
 43
2.0
 50
270.0
  0
TEXT
  5
60B
  8
回07-寸法
  6
CONTINUOUS
 62
     5
 10
777.3928204657718
 20
204.9787117145763
 30
0.0
 40
3.0
  1
16
 50
90.0
  0
POINT
  5
60C
  8
DEFPOINTS
  6
CONTINUOUS
 62
     0
 10
798.8659284346245
 20
213.9935144403664
 30
0.0
  0
POINT
  5
60D
  8
DEFPOINTS
  6
CONTINUOUS
 62
     0
 10
798.8617548489178
 20
229.9923114060945
 30
0.0
  0
POINT
  5
60E
  8
DEFPOINTS
  6
CONTINUOUS
 62
     0
 10
777.8928204657717
 20
229.9923114060945
 30
0.0
  0
ENDBLK
  5
610
  8
0
  6
CONTINUOUS
 62
    20
  0
BLOCK
  8
0
  2
*X77
 70
     1
 10
0.0
 20
0.0
 30
0.0
  3
*X77
  1

  0
INSERT
  5
616
  8
回03-記事
  6
CONTINUOUS
 62
     5
  2
_OPEN
 10
725.6676460784051
 20
225.1094036786284
 30
0.0
 41
2.0
 42
2.0
 43
2.0
 50
236.6265780747945
  0
LINE
  5
617
  8
回03-記事
  6
CONTINUOUS
 62
     5
 10
726.7678329101889
 20
226.7796099339064
 30
0.0
 11
729.5278192108931
 21
230.969576811117
 31
0.0
  0
LINE
  5
618
  8
回03-記事
  6
CONTINUOUS
 62
     5
 10
729.5278192108931
 20
230.969576811117
 30
0.0
 11
732.027819210893
 21
230.969576811117
 31
0.0
  0
ENDBLK
  5
61A
  8
0
  6
CONTINUOUS
 62
    20
  0
BLOCK
  8
0
  2
*X78
 70
     1
 10
0.0
 20
0.0
 30
0.0
  3
*X78
  1

  0
INSERT
  5
61D
  8
回03-記事
  6
CONTINUOUS
 62
     5
  2
_OPEN
 10
801.6119459965524
 20
216.4701228434163
 30
0.0
 41
2.0
 42
2.0
 43
2.0
 50
70.22821374870611
  0
LINE
  5
61E
  8
回03-記事
  6
CONTINUOUS
 62
     5
 10
800.9353968604646
 20
214.5880279291097
 30
0.0
 11
791.7205948973792
 21
188.9533312220095
 31
0.0
  0
LINE
  5
61F
  8
回03-記事
  6
CONTINUOUS
 62
     5
 10
791.7205948973792
 20
188.9533312220095
 30
0.0
 11
756.8205948973792
 21
188.9533312220095
 31
0.0
  0
ENDBLK
  5
621
  8
0
  6
CONTINUOUS
 62
    20
  0
BLOCK
  8
0
  2
*X79
 70
     1
 10
0.0
 20
0.0
 30
0.0
  3
*X79
  1

  0
INSERT
  5
624
  8
回02-寸法
  6
CONTINUOUS
 62
     5
  2
_OPEN
 10
711.9278073218209
 20
294.1854761456206
 30
0.0
 41
2.0
 42
2.0
 43
2.0
 50
294.1578552206892
  0
LINE
  5
625
  8
回02-寸法
 62
     5
 10
711.1093033233693
 20
296.0103189346078
 30
0.0
 11
709.9300755234861
 21
298.639390205195
 31
0.0
  0
LINE
  5
626
  8
回02-寸法
 62
     5
 10
709.9300755234861
 20
298.639390205195
 30
0.0
 11
696.6300755234861
 21
298.639390205195
 31
0.0
  0
ENDBLK
  5
628
  8
0
  6
CONTINUOUS
 62
    20
  0
BLOCK
  8
0
  2
*X80
 70
     1
 10
0.0
 20
0.0
 30
0.0
  3
*X80
  1

  0
INSERT
  5
637
  8
回03-記事
  6
CONTINUOUS
 62
     5
  2
_OPEN
 10
730.4738476089481
 20
105.275547488147
 30
0.0
 41
2.0
 42
2.0
 43
2.0
 50
324.3887742357533
  0
LINE
  5
638
  8
回03-記事
  6
CONTINUOUS
 62
     5
 10
728.8478742247523
 20
106.4401120221626
 30
0.0
 11
722.0092832107004
 21
111.338089218476
 31
0.0
  0
LINE
  5
639
  8
回03-記事
  6
CONTINUOUS
 62
     5
 10
722.0092832107004
 20
111.338089218476
 30
0.0
 11
695.8017832107004
 21
111.338089218476
 31
0.0
  0
ENDBLK
  5
63B
  8
0
  6
CONTINUOUS
 62
    20
  0
BLOCK
  8
0
  2
*X81
 70
     1
 10
0.0
 20
0.0
 30
0.0
  3
*X81
  1

  0
LINE
  5
666
  8
回08-記事
  6
CONTINUOUS
 62
    40
 10
799.1780766833451
 20
102.2755474881469
 30
0.0
 11
800.178076683345
 21
103.2755474881469
 31
0.0
1001
ACAD
1010
0.0
1020
0.0
1030
0.0
  0
LINE
  5
667
  8
回08-記事
  6
CONTINUOUS
 62
    40
 10
802.0536847572834
 20
100.6610275015507
 30
0.0
 11
803.0536847572834
 21
101.6610275015507
 31
0.0
1001
ACAD
1010
0.0
1020
0.0
1030
0.0
  0
LINE
  5
668
  8
回08-記事
  6
CONTINUOUS
 62
    40
 10
806.1583328044143
 20
100.275547488147
 30
0.0
 11
807.1536847572836
 21
101.2708994410164
 31
0.0
1001
ACAD
1010
0.0
1020
0.0
1030
0.0
  0
ENDBLK
  5
66A
  8
0
  6
CONTINUOUS
 62
    20
  0
BLOCK
  8
0
  2
*X82
 70
     1
 10
0.0
 20
0.0
 30
0.0
  3
*X82
  1

  0
TEXT
  5
67C
  8
回08-記事
 62
     5
 10
899.0834112664682
 20
228.5014188257264
 30
0.0
 40
4.0
  1
φ0.05
  7
Standard
  0
POLYLINE
  5
67D
  8
回08-記事
  6
BYBLOCK
 62
     5
 66
     1
 10
0.0
 20
0.0
 30
0.0
  0
VERTEX
  5
67E
  8
回08-記事
  6
BYBLOCK
 62
     5
 10
894.9178979884704
 20
223.6125336767265
 30
0.0
  0
VERTEX
  5
680
  8
回08-記事
  6
BYBLOCK
 62
     5
 10
897.8834112664682
 20
227.7014188257264
 30
0.0
  0
SEQEND
  5
67F
  8
0
  6
CONTINUOUS
 62
    20
  0
SOLID
  5
681
  8
回08-記事
 62
     5
 10
895.1877345278639
 20
223.4168314715287
 30
0.0
 11
893.7436847572833
 21
221.9935144403661
 31
0.0
 12
894.648061449077
 22
223.8082358819244
 32
0.0
 13
894.648061449077
 23
223.8082358819244
 33
0.0
  0
POLYLINE
  5
682
  8
回08-記事
  6
BYBLOCK
 62
     5
 66
     1
 10
0.0
 20
0.0
 30
0.0
  0
VERTEX
  5
683
  8
回08-記事
  6
BYBLOCK
 62
     5
 10
897.8834112664682
 20
227.7014188257264
 30
0.0
  0
VERTEX
  5
685
  8
回08-記事
  6
BYBLOCK
 62
     5
 10
912.8834112664682
 20
227.7014188257264
 30
0.0
  0
SEQEND
  5
684
  8
0
  6
CONTINUOUS
 62
    20
  0
ENDBLK
  5
687
  8
0
  6
CONTINUOUS
 62
    20
  0
BLOCK
  8
0
  2
*X83
 70
     1
 10
0.0
 20
0.0
 30
0.0
  3
*X83
  1

  0
LINE
  5
6A0
  8
回08-記事
  6
CONTINUOUS
 62
     7
 10
798.953684757284
 20
219.7271649483232
 30
0.0
 11
799.9700342493268
 21
220.743514440366
 31
0.0
  0
LINE
  5
6A1
  8
回08-記事
  6
CONTINUOUS
 62
     7
 10
798.953684757284
 20
217.4821009180559
 30
0.0
 11
802.215098279594
 21
220.7435144403659
 31
0.0
  0
LINE
  5
6A2
  8
回08-記事
  6
CONTINUOUS
 62
     7
 10
798.953684757284
 20
215.2370368877887
 30
0.0
 11
804.4601623098612
 21
220.743514440366
 31
0.0
  0
LINE
  5
6A3
  8
回08-記事
  6
CONTINUOUS
 62
     7
 10
800.7052263401286
 20
214.743514440366
 30
0.0
 11
806.7052263401285
 21
220.743514440366
 31
0.0
  0
LINE
  5
6A4
  8
回08-記事
  6
CONTINUOUS
 62
     7
 10
802.9502903703958
 20
214.7435144403661
 30
0.0
 11
807.153684757284
 21
218.9469088272542
 31
0.0
  0
LINE
  5
6A5
  8
回08-記事
  6
CONTINUOUS
 62
     7
 10
805.1953544006632
 20
214.7435144403661
 30
0.0
 11
807.1536847572838
 21
216.7018447969868
 31
0.0
  0
ENDBLK
  5
6A7
  8
0
  6
CONTINUOUS
 62
    20
  0
BLOCK
  8
0
  2
*X84
 70
     1
 10
0.0
 20
0.0
 30
0.0
  3
*X84
  1

  0
INSERT
  5
6AF
  8
回07-寸法
  6
CONTINUOUS
 62
     5
  2
_OPEN
 10
793.5241620669871
 20
225.1942446392929
 30
0.0
 41
2.0
 42
2.0
 43
2.0
 50
291.0327910500981
  0
LINE
  5
6B0
  8
回07-寸法
  6
CONTINUOUS
 62
     5
 10
792.8063576871661
 20
227.0609949901191
 30
0.0
 11
790.9501562943383
 21
231.8883054644986
 31
0.0
  0
LINE
  5
6B1
  8
回07-寸法
  6
CONTINUOUS
 62
     5
 10
790.9501562943383
 20
231.8883054644986
 30
0.0
 11
788.4501562943382
 21
231.8883054644986
 31
0.0
  0
ENDBLK
  5
6B3
  8
0
  6
CONTINUOUS
 62
    20
  0
BLOCK
  8
0
  2
*X85
 70
     1
 10
0.0
 20
0.0
 30
0.0
  3
*X85
  1

  0
INSERT
  5
6B6
  8
回07-寸法
  6
CONTINUOUS
 62
     5
  2
_OPEN
 10
803.1667593754695
 20
230.8111482517974
 30
0.0
 41
1.999999999999999
 42
1.999999999999999
 43
2.0
 50
305.6504758064011
  0
LINE
  5
6B7
  8
回07-寸法
  6
CONTINUOUS
 62
     5
 10
802.0010812539776
 20
232.436323478373
 30
0.0
 11
799.3144485565494
 21
236.1819963380303
 31
0.0
  0
LINE
  5
6B8
  8
回07-寸法
  6
CONTINUOUS
 62
     5
 10
799.3144485565494
 20
236.1819963380303
 30
0.0
 11
796.8144485565495
 21
236.1819963380303
 31
0.0
  0
ENDBLK
  5
6BA
  8
0
  6
CONTINUOUS
 62
    20
  0
BLOCK
  8
0
  2
*X86
 70
     1
 10
0.0
 20
0.0
 30
0.0
  3
*X86
  1

  0
TEXT
  5
6C2
  8
回07-寸法
  6
CONTINUOUS
 62
     5
 10
771.5946080134544
 20
316.2053686841389
 30
0.0
 40
3.0
  1
80
  0
TEXT
  5
6C3
  8
回07-寸法
  6
CONTINUOUS
 62
     5
 10
775.7946080134545
 20
316.2053686841389
 30
0.0
 40
2.1
  1
±1
  0
ENDBLK
  5
6C5
  8
0
  6
CONTINUOUS
 62
    20
  0
BLOCK
  8
0
  2
*X87
 70
     1
 10
0.0
 20
0.0
 30
0.0
  3
*X87
  1

  0
TEXT
  5
6C8
  8
回07-寸法
  6
CONTINUOUS
 62
     5
 10
717.5198429827026
 20
298.4724174169226
 30
0.0
 40
3.0
  1
6.25
 50
90.0
  0
TEXT
  5
6C9
  8
回07-寸法
  6
CONTINUOUS
 62
     5
 10
717.5198429827026
 20
305.6724174169227
 30
0.0
 40
2.1
  1
±0.2
 50
90.0
  0
ENDBLK
  5
6CB
  8
0
  6
CONTINUOUS
 62
    20
  0
BLOCK
  8
0
  2
*X88
 70
     1
 10
0.0
 20
0.0
 30
0.0
  3
*X88
  1

  0
TEXT
  5
6CE
  8
回07-寸法
  6
CONTINUOUS
 62
     5
 10
879.3430456835443
 20
385.6327503664928
 30
0.0
 40
3.0
  1
147.3
  0
TEXT
  5
6CF
  8
回07-寸法
  6
CONTINUOUS
 62
     5
 10
888.3430456835442
 20
385.6327503664928
 30
0.0
 40
2.1
  1
±0.3
  0
ENDBLK
  5
6D1
  8
0
  6
CONTINUOUS
 62
    20
  0
BLOCK
  8
0
  2
*X89
 70
     1
 10
0.0
 20
0.0
 30
0.0
  3
*X89
  1

  0
TEXT
  5
6D4
  8
回07-寸法
  6
CONTINUOUS
 62
     5
 10
1002.877278193133
 20
284.1373238092588
 30
0.0
 40
3.0
  1
114.3
 50
90.0
  0
TEXT
  5
6D5
  8
回07-寸法
  6
CONTINUOUS
 62
     5
 10
1002.877278193133
 20
292.5373238092587
 30
0.0
 40
2.1
  1
±0.3
 50
90.0
  0
ENDBLK
  5
6D7
  8
0
  6
CONTINUOUS
 62
    20
  0
BLOCK
  8
0
  2
*X90
 70
     1
 10
0.0
 20
0.0
 30
0.0
  3
*X90
  1

  0
TEXT
  5
6DA
  8
回07-寸法
  6
CONTINUOUS
 62
     5
 10
967.7290704359045
 20
180.0366977804945
 30
0.0
 40
3.0
  1
1.4
 50
90.0
  0
TEXT
  5
6DB
  8
回07-寸法
  6
CONTINUOUS
 62
     5
 10
967.7290704359045
 20
184.8366977804944
 30
0.0
 40
2.000099999999999
  1
±0.2
 50
90.0
  0
ENDBLK
  5
6DD
  8
0
  6
CONTINUOUS
 62
    20
  0
BLOCK
  8
0
  2
*X91
 70
     1
 10
0.0
 20
0.0
 30
0.0
  3
*X91
  1

  0
TEXT
  5
6E0
  8
回07-寸法
  6
CONTINUOUS
 62
     5
 10
729.8259378973753
 20
156.3851384297346
 30
0.0
 40
3.0
  1
0.3
 50
90.0
  0
TEXT
  5
6E1
  8
回07-寸法
  6
CONTINUOUS
 62
     5
 10
729.8259378973753
 20
161.4851384297346
 30
0.0
 40
2.000099999999999
  1
±0.05
 50
90.0
  0
ENDBLK
  5
6E3
  8
0
  6
CONTINUOUS
 62
    20
  0
BLOCK
  8
0
  2
*X92
 70
     1
 10
0.0
 20
0.0
 30
0.0
  3
*X92
  1

  0
TEXT
  5
6E6
  8
回02-寸法
  6
CONTINUOUS
 62
     5
 10
692.4484739937191
 20
334.7599052299578
 30
0.0
 40
3.0
  1
6.25
 50
90.0
  0
TEXT
  5
6E7
  8
回02-寸法
  6
CONTINUOUS
 62
     5
 10
692.4484739937191
 20
341.9599052299578
 30
0.0
 40
2.000099999999999
  1
±0.2
 50
90.0
  0
ENDBLK
  5
6E9
  8
0
  6
CONTINUOUS
 62
    20
  0
BLOCK
  8
0
  2
*X93
 70
     1
 10
0.0
 20
0.0
 30
0.0
  3
*X93
  1

  0
TEXT
  5
6EC
  8
回02-寸法
  6
CONTINUOUS
 62
     5
 10
705.9031612802421
 20
336.80984978022
 30
0.0
 40
3.0
  1
1.25
 50
90.0
  0
TEXT
  5
6ED
  8
回02-寸法
  6
CONTINUOUS
 62
     5
 10
705.9031612802421
 20
343.40984978022
 30
0.0
 40
2.499989999999999
  1
±0.2
 50
90.0
  0
ENDBLK
  5
6EF
  8
0
  6
CONTINUOUS
 62
    20
  0
BLOCK
  8
0
  2
*X94
 70
     1
 10
0.0
 20
0.0
 30
0.0
  3
*X94
  1

  0
TEXT
  5
6F2
  8
回02-寸法
  6
CONTINUOUS
 62
     5
 10
712.6680941486854
 20
333.6851977021671
 30
0.0
 40
3.0
  1
4-0.7
 50
90.0
  0
TEXT
  5
6F3
  8
回02-寸法
  6
CONTINUOUS
 62
     5
 10
712.6680941486854
 20
343.2851977021671
 30
0.0
 40
2.499989999999999
  1
±0.1
 50
90.0
  0
ENDBLK
  5
6F5
  8
0
  6
CONTINUOUS
 62
    20
  0
BLOCK
  8
0
  2
*X95
 70
     1
 10
0.0
 20
0.0
 30
0.0
  3
*X95
  1

  0
TEXT
  5
6F8
  8
回02-寸法
  6
CONTINUOUS
 62
     5
 10
699.4887185296384
 20
336.5640047301262
 30
0.0
 40
3.0
  1
3.75
 50
90.0
  0
TEXT
  5
6F9
  8
回02-寸法
  6
CONTINUOUS
 62
     5
 10
699.4887185296384
 20
343.7640047301262
 30
0.0
 40
2.00001
  1
±0.1
 50
90.0
  0
ENDBLK
  5
6FB
  8
0
  6
CONTINUOUS
 62
    20
  0
BLOCK
  8
0
  2
*X96
 70
     1
 10
0.0
 20
0.0
 30
0.0
  3
*X96
  1

  0
TEXT
  5
6FE
  8
回02-寸法
  6
CONTINUOUS
 62
     5
 10
689.7618576033773
 20
267.4126953612332
 30
0.0
 40
3.0
  1
3.75
 50
90.0
  0
TEXT
  5
6FF
  8
回02-寸法
  6
CONTINUOUS
 62
     5
 10
689.7618576033773
 20
274.6126953612332
 30
0.0
 40
2.00001
  1
±0.1
 50
90.0
  0
ENDBLK
  5
701
  8
0
  6
CONTINUOUS
 62
    20
  0
BLOCK
  8
0
  2
*X97
 70
     1
 10
0.0
 20
0.0
 30
0.0
  3
*X97
  1

  0
TEXT
  5
704
  8
回02-寸法
  6
CONTINUOUS
 62
     5
 10
702.941233222424
 20
264.5338883332743
 30
0.0
 40
3.0
  1
4-0.7
 50
90.0
  0
TEXT
  5
705
  8
回02-寸法
  6
CONTINUOUS
 62
     5
 10
702.941233222424
 20
274.1338883332743
 30
0.0
 40
2.499989999999999
  1
±0.1
 50
90.0
  0
ENDBLK
  5
707
  8
0
  6
CONTINUOUS
 62
    20
  0
BLOCK
  8
0
  2
*X98
 70
     1
 10
0.0
 20
0.0
 30
0.0
  3
*X98
  1

  0
TEXT
  5
70A
  8
回02-寸法
  6
CONTINUOUS
 62
     5
 10
696.1765956295716
 20
267.7333375265849
 30
0.0
 40
3.0
  1
1.25
 50
90.0
  0
TEXT
  5
70B
  8
回02-寸法
  6
CONTINUOUS
 62
     5
 10
696.1765956295716
 20
274.333337526585
 30
0.0
 40
2.499989999999999
  1
±0.2
 50
90.0
  0
ENDBLK
  5
70D
  8
0
  6
CONTINUOUS
 62
    20
  0
BLOCK
  8
0
  2
*X99
 70
     1
 10
0.0
 20
0.0
 30
0.0
  3
*X99
  1

  0
TEXT
  5
710
  8
回02-寸法
  6
CONTINUOUS
 62
     5
 10
682.7219083430485
 20
282.1335341986629
 30
0.0
 40
3.0
  1
6.25
 50
90.0
  0
TEXT
  5
711
  8
回02-寸法
  6
CONTINUOUS
 62
     5
 10
682.7219083430485
 20
289.333534198663
 30
0.0
 40
2.000099999999999
  1
±0.2
 50
90.0
  0
ENDBLK
  5
713
  8
0
  6
CONTINUOUS
 62
    20
  0
BLOCK
  8
0
  2
*X100
 70
     1
 10
0.0
 20
0.0
 30
0.0
  3
*X100
  1

  0
TEXT
  5
716
  8
回07-寸法
  6
CONTINUOUS
 62
     5
 10
720.0990769711141
 20
87.23382906084168
 30
0.0
 40
3.0
  1
0.3
 50
90.0
  0
TEXT
  5
717
  8
回07-寸法
  6
CONTINUOUS
 62
     5
 10
720.0990769711141
 20
92.33382906084171
 30
0.0
 40
2.000099999999999
  1
±0.05
 50
90.0
  0
ENDBLK
  5
719
  8
0
  6
CONTINUOUS
 62
    20
  0
BLOCK
  8
0
  2
*X101
 70
     1
 10
0.0
 20
0.0
 30
0.0
  3
*X101
  1

  0
TEXT
  5
71C
  8
回07-寸法
  6
CONTINUOUS
 62
     5
 10
958.0022095096433
 20
110.8255474881471
 30
0.0
 40
3.0
  1
1.4
 50
90.0
  0
TEXT
  5
71D
  8
回07-寸法
  6
CONTINUOUS
 62
     5
 10
958.0022095096433
 20
115.625547488147
 30
0.0
 40
2.000099999999999
  1
±0.2
 50
90.0
  0
ENDBLK
  5
71F
  8
0
  6
CONTINUOUS
 62
    20
  0
BLOCK
  8
0
  2
*X102
 70
     1
 10
0.0
 20
0.0
 30
0.0
  3
*X102
  1

  0
TEXT
  5
722
  8
回07-寸法
  6
CONTINUOUS
 62
     5
 10
707.7932773320319
 20
229.3211080480296
 30
0.0
 40
3.0
  1
6.25
 50
90.0
  0
TEXT
  5
723
  8
回07-寸法
  6
CONTINUOUS
 62
     5
 10
707.7932773320319
 20
236.5211080480297
 30
0.0
 40
2.1
  1
±0.2
 50
90.0
  0
ENDBLK
  5
725
  8
0
  6
CONTINUOUS
 62
    20
  0
BLOCK
  8
0
  2
*X103
 70
     1
 10
0.0
 20
0.0
 30
0.0
  3
*X103
  1

  0
TEXT
  5
728
  8
回07-寸法
  6
CONTINUOUS
 62
     5
 10
761.8677470871932
 20
247.0540593152459
 30
0.0
 40
3.0
  1
80
  0
TEXT
  5
729
  8
回07-寸法
  6
CONTINUOUS
 62
     5
 10
766.0677470871933
 20
247.0540593152459
 30
0.0
 40
2.1
  1
±1
  0
ENDBLK
  5
72B
  8
0
  6
CONTINUOUS
 62
    20
  0
BLOCK
  8
0
  2
*X104
 70
     1
 10
0.0
 20
0.0
 30
0.0
  3
*X104
  1

  0
TEXT
  5
72E
  8
回07-寸法
  6
CONTINUOUS
 62
     5
 10
993.1504172668722
 20
214.9860144403659
 30
0.0
 40
3.0
  1
114.3
 50
90.0
  0
TEXT
  5
72F
  8
回07-寸法
  6
CONTINUOUS
 62
     5
 10
993.1504172668722
 20
223.3860144403659
 30
0.0
 40
2.1
  1
±0.3
 50
90.0
  0
ENDBLK
  5
731
  8
0
  6
CONTINUOUS
 62
    20
  0
BLOCK
  8
0
  2
*X105
 70
     1
 10
0.0
 20
0.0
 30
0.0
  3
*X105
  1

  0
TEXT
  5
734
  8
回07-寸法
  6
CONTINUOUS
 62
     5
 10
869.6161847572831
 20
316.4814409975997
 30
0.0
 40
3.0
  1
147.3
  0
TEXT
  5
735
  8
回07-寸法
  6
CONTINUOUS
 62
     5
 10
878.6161847572831
 20
316.4814409975997
 30
0.0
 40
2.1
  1
±0.3
  0
ENDBLK
  5
737
  8
0
  6
CONTINUOUS
 62
    20
  0
ENDSEC
  0
SECTION
  2
ENTITIES
  0
TEXT
  5
5E
  8
回03-記事
  6
CONTINUOUS
 62
     5
 10
800.0280530568996
 20
27.24445378082811
 30
0.0
 40
6.0
  1
without affecting product specification.
  0
TEXT
  5
60
  8
回03-記事
  6
CONTINUOUS
 62
     5
 10
800.0280530568996
 20
37.76908592357785
 30
0.0
 40
6.0
  1
Edges and corners of ITO glass may be chamfered 
  0
TEXT
  5
61
  8
回03-記事
  6
CONTINUOUS
 62
     5
 10
800.0280530568996
 20
48.29371806632758
 30
0.0
 40
6.0
  1
Unit: mm
  0
TEXT
  5
62
  8
回03-記事
  6
CONTINUOUS
 62
     5
 10
800.0280530568996
 20
58.81835020907733
 30
0.0
 40
6.0
  1
EXCEPT WHERE INDICATED
  0
TEXT
  5
63
  8
回03-記事
  6
CONTINUOUS
 62
     5
 10
800.0280530568996
 20
69.34298235182706
 30
0.0
 40
6.0
  1
TOLERANCE=±0.5mm
  0
TEXT
  5
64
  8
回03-記事
  6
CONTINUOUS
 62
     5
 10
731.577819210893
 20
231.469576811117
 30
0.0
 40
3.0
  1
A
1001
ACAD
1000
MTEXTBEGIN
1070
    73
1070
     1
1070
    44
1040
1.0
1070
    74
1070
     0
1000
MTEXTEND
  0
INSERT
  5
65
  8
回03-記事
  6
CONTINUOUS
 62
     7
 66
     1
  2
*X77
 10
0.0
 20
0.0
 30
0.0
  0
SEQEND
  5
61B
  8
0
  6
CONTINUOUS
 62
    20
  0
CIRCLE
  5
66
  8
回03-記事
  6
CONTINUOUS
 62
     5
 10
724.8611087497997
 20
221.7395886684428
 30
0.0
 40
7.742816109002717
  0
TEXT
  5
67
  8
回02-寸法
  6
CONTINUOUS
 62
     5
 10
953.705314237227
 20
314.4655527479332
 30
0.0
 40
3.0
  1
(Insulation Area)
  0
TEXT
  5
6A
  8
回02-寸法
  6
CONTINUOUS
 62
     5
 10
988.2762952369839
 20
281.0325101082668
 30
0.0
 40
3.0
  1
(Insulation Area)
 50
90.0
  0
TEXT
  5
6B
  8
回03-記事
  6
CONTINUOUS
 62
     5
 10
756.3705948973791
 20
189.4533312220094
 30
0.0
 40
3.0
  1
PROTECTION TAPE
1001
ACAD
1000
MTEXTBEGIN
1070
    73
1070
     1
1070
    44
1040
1.0
1070
    74
1070
     0
1000
MTEXTEND
  0
INSERT
  5
6C
  8
回03-記事
  6
CONTINUOUS
 62
     5
 66
     1
  2
*X78
 10
0.0
 20
0.0
 30
0.0
  0
SEQEND
  5
622
  8
0
  6
CONTINUOUS
 62
    20
  0
TEXT
  5
6D
  8
回02-寸法
 62
     5
 10
696.1800755234861
 20
299.1393902051949
 30
0.0
 40
3.0
  1
2-R0.5
1001
ACAD
1000
MTEXTBEGIN
1070
    73
1070
     1
1070
    44
1040
1.0
1070
    74
1070
     0
1000
MTEXTEND
  0
INSERT
  5
6E
  8
回02-寸法
 62
     1
 66
     1
  2
*X79
 10
0.0
 20
0.0
 30
0.0
  0
SEQEND
  5
629
  8
0
  6
CONTINUOUS
 62
    20
  0
TEXT
  5
6F
  8
回03-記事
  6
CONTINUOUS
 62
     5
 10
701.5571820298172
 20
306.7264118905764
 30
0.0
 40
5.0
  1
SECTION A
  0
LINE
  5
70
  8
回03-記事
  6
CONTINUOUS
 62
     8
 10
721.6411084482682
 20
294.4588678332788
 30
0.0
 11
721.6411084482682
 21
281.9588678332793
 31
0.0
  0
LINE
  5
71
  8
回03-記事
  6
CONTINUOUS
 62
     7
 10
708.7414923369228
 20
284.4588678332742
 30
0.0
 11
725.252934276304
 21
284.4588678332742
 31
0.0
  0
LINE
  5
72
  8
回03-記事
  6
CONTINUOUS
 62
     7
 10
708.7415793584581
 20
286.9588678332742
 30
0.0
 11
725.252934276304
 21
286.9588678332742
 31
0.0
  0
LINE
  5
73
  8
回03-記事
  6
CONTINUOUS
 62
     7
 10
708.7414923369228
 20
291.9588678332742
 30
0.0
 11
725.252934276304
 21
291.9588678332742
 31
0.0
  0
DIMENSION
  5
74
  8
回02-寸法
  6
CONTINUOUS
 62
     5
  2
*D39
 10
690.2618576033773
 20
291.9588678332742
 30
0.0
 11
690.2618576033773
 21
273.2877056112333
 31
0.0
 70
   160
  1
3.75{\H0.66667x;±0.1}
  3
DMC
 13
708.7415793584581
 23
284.4588678332742
 33
0.0
 14
708.7414923369228
 24
291.9588678332742
 34
0.0
 50
90.0
1001
ACAD
1000
DSTYLE
1002
{
1070
   170
1070
     1
1070
   271
1070
     3
1070
   272
1070
     3
1070
   371
1070
     9
1070
   372
1070
     9
1002
}
  0
DIMENSION
  5
86
  8
回02-寸法
  6
CONTINUOUS
 62
     5
  2
*D40
 10
703.4412332224241
 20
283.7588678332743
 30
0.0
 11
701.4412332224241
 21
272.1213780832743
 31
0.0
 70
    32
  1
4-0.7{\H0.83333x;±0.1}
  3
DMC
 13
711.6410214267329
 23
285.1588678332742
 33
0.0
 14
711.6410214267329
 24
283.7588678332743
 34
0.0
 50
90.0
1001
ACAD
1000
DSTYLE
1002
{
1070
   170
1070
     1
1070
   271
1070
     3
1070
   272
1070
     3
1070
   371
1070
     9
1070
   372
1070
     9
1002
}
  0
DIMENSION
  5
97
  8
回02-寸法
  6
CONTINUOUS
 62
     5
  2
*D41
 10
696.6765956295716
 20
284.4588678332742
 30
0.0
 11
694.6765956295715
 21
274.0711026799296
 31
0.0
 70
    32
  1
1.25{\H0.83333x;±0.2}
  3
DMC
 13
708.7415793584581
 23
286.9588678332742
 33
0.0
 14
708.7415793584581
 24
284.4588678332742
 34
0.0
 50
90.0
1001
ACAD
1000
DSTYLE
1002
{
1070
   170
1070
     1
1070
   271
1070
     3
1070
   272
1070
     3
1070
   371
1070
     9
1070
   372
1070
     9
1002
}
  0
POLYLINE
  5
A8
  8
回03-記事
  6
CONTINUOUS
 62
     8
 66
     1
 10
0.0
 20
0.0
 30
0.0
 40
1.399999999999999
 41
1.399999999999999
  0
VERTEX
  5
62A
  8
回03-記事
  6
CONTINUOUS
 62
     8
 10
711.6410214267329
 20
289.4588678332742
 30
0.0
  0
VERTEX
  5
62C
  8
回03-記事
  6
CONTINUOUS
 62
     8
 10
721.6411084482682
 20
289.4588678332742
 30
0.0
  0
SEQEND
  5
62B
  8
0
  6
CONTINUOUS
 62
    20
  0
POLYLINE
  5
A9
  8
回03-記事
  6
CONTINUOUS
 62
     8
 66
     1
 10
0.0
 20
0.0
 30
0.0
 40
1.399999999999999
 41
1.399999999999999
  0
VERTEX
  5
62D
  8
回03-記事
  6
CONTINUOUS
 62
     8
 10
711.6410214267329
 20
291.9588678332742
 30
0.0
  0
VERTEX
  5
62F
  8
回03-記事
  6
CONTINUOUS
 62
     8
 10
721.6411084482682
 20
291.9588678332742
 30
0.0
  0
SEQEND
  5
62E
  8
0
  6
CONTINUOUS
 62
    20
  0
POLYLINE
  5
AA
  8
回03-記事
  6
CONTINUOUS
 62
     8
 66
     1
 10
0.0
 20
0.0
 30
0.0
 40
1.399999999999999
 41
1.399999999999999
  0
VERTEX
  5
630
  8
回03-記事
  6
CONTINUOUS
 62
     8
 10
711.6410214267329
 20
284.4588678332742
 30
0.0
  0
VERTEX
  5
632
  8
回03-記事
  6
CONTINUOUS
 62
     8
 10
721.6411084482682
 20
284.4588678332742
 30
0.0
  0
SEQEND
  5
631
  8
0
  6
CONTINUOUS
 62
    20
  0
POLYLINE
  5
AB
  8
回03-記事
  6
CONTINUOUS
 62
     8
 66
     1
 10
0.0
 20
0.0
 30
0.0
 40
1.399999999999999
 41
1.399999999999999
  0
VERTEX
  5
633
  8
回03-記事
  6
CONTINUOUS
 62
     8
 10
711.6410214267329
 20
286.9588678332742
 30
0.0
  0
VERTEX
  5
635
  8
回03-記事
  6
CONTINUOUS
 62
     8
 10
721.6411084482682
 20
286.9588678332742
 30
0.0
  0
SEQEND
  5
634
  8
0
  6
CONTINUOUS
 62
    20
  0
LINE
  5
AC
  8
回03-記事
  6
CONTINUOUS
 62
     8
 10
712.6411084482683
 20
281.9588678332793
 30
0.0
 11
736.3917713540598
 21
281.9588678332793
 31
0.0
  0
LINE
  5
AD
  8
回03-記事
  6
CONTINUOUS
 62
     8
 10
711.6411084482682
 20
293.4588678332793
 30
0.0
 11
711.6411084482682
 21
282.9588678332798
 31
0.0
  0
ARC
  5
AE
  8
回03-記事
  6
CONTINUOUS
 62
     8
 10
712.6411084482683
 20
282.9588678332798
 30
0.0
 40
1.0
 50
180.0
 51
270.0
  0
ARC
  5
AF
  8
回03-記事
  6
CONTINUOUS
 62
     8
 10
712.6411084482683
 20
293.4588678332793
 30
0.0
 40
1.0
 50
90.0
 51
180.0
  0
LINE
  5
B0
  8
回03-記事
  6
CONTINUOUS
 62
     8
 10
712.6411084482683
 20
294.4588678332788
 30
0.0
 11
736.3917713540598
 21
294.4588678332788
 31
0.0
  0
DIMENSION
  5
B1
  8
回02-寸法
  6
CONTINUOUS
 62
     5
  2
*D42
 10
683.2219083430485
 20
281.9588678332798
 30
0.0
 11
681.2219083430485
 21
288.2088678332793
 31
0.0
 70
    32
  1
6.25{\H0.6667x;±0.2}
  3
DMC
 13
712.6411084482683
 23
294.4588678332788
 33
0.0
 14
712.6411084482683
 24
281.9588678332798
 34
0.0
 50
90.0
1001
ACAD
1000
DSTYLE
1002
{
1070
   170
1070
     1
1070
   271
1070
     3
1070
   272
1070
     3
1070
   371
1070
     9
1070
   372
1070
     9
1002
}
  0
TEXT
  5
C2
  8
回03-記事
  6
CONTINUOUS
 62
     5
 10
695.3517832107004
 20
112.588089218476
 30
0.0
 40
3.0
  1
Trace Expose
1001
ACAD
1000
MTEXTBEGIN
1070
    73
1070
     1
1070
    44
1040
1.0
1070
    74
1070
     0
1000
MTEXTEND
  0
INSERT
  5
C3
  8
回03-記事
  6
CONTINUOUS
 62
     8
 66
     1
  2
*X80
 10
0.0
 20
0.0
 30
0.0
  0
SEQEND
  5
63C
  8
0
  6
CONTINUOUS
 62
    20
  0
DIMENSION
  5
C4
  8
回07-寸法
  6
CONTINUOUS
 62
     5
  2
*D43
 10
803.0536847572832
 20
293.6479366685785
 30
0.0
 11
796.363596174606
 21
293.6479366685785
 31
0.0
 70
   160
  3
DMC
 13
811.2536847572833
 23
271.9235144403661
 33
0.0
 14
803.0536847572832
 24
278.9235144403662
 34
0.0
1001
ACAD
1000
DSTYLE
1002
{
1070
     3
1000
<>
1070
    47
1040
0.2
1070
    48
1040
0.2
1070
   371
1070
     9
1070
   372
1070
     9
1002
}
  0
DIMENSION
  5
D9
  8
回07-寸法
  6
CONTINUOUS
 62
     5
  2
*D44
 10
944.2336847572832
 20
293.6479366685785
 30
0.0
 11
877.7436847572833
 21
295.7979366685785
 31
0.0
 70
    32
  1
<> (Active area)
  3
DMC
 13
811.2536847572833
 23
271.9235144403661
 33
0.0
 14
944.2336847572832
 24
271.9235144403661
 34
0.0
1001
ACAD
1000
DSTYLE
1002
{
1070
    47
1040
0.2
1070
    48
1040
0.2
1070
   371
1070
     9
1070
   372
1070
     9
1002
}
  0
POLYLINE
  5
E8
  8
回08-記事
 62
     7
 66
     1
 10
0.0
 20
0.0
 30
0.0
 70
     1
  0
VERTEX
  5
63D
  8
回08-記事
 62
     7
 10
811.2536847572833
 20
172.0635144403661
 30
0.0
  0
VERTEX
  5
63F
  8
回08-記事
 62
     7
 10
944.2336847572832
 20
172.0635144403661
 30
0.0
  0
VERTEX
  5
640
  8
回08-記事
 62
     7
 10
944.2336847572832
 20
271.9235144403661
 30
0.0
  0
VERTEX
  5
641
  8
回08-記事
 62
     7
 10
811.2536847572833
 20
271.9235144403661
 30
0.0
  0
SEQEND
  5
63E
  8
0
  6
CONTINUOUS
 62
    20
  0
ARC
  5
EC
  8
回08-記事
  6
CONTINUOUS
 62
     7
 10
944.9309430691462
 20
104.275547488147
 30
0.0
 40
0.5
 50
0.0
 51
180.0
  0
ARC
  5
ED
  8
回08-記事
  6
CONTINUOUS
 62
     7
 10
940.9309430691463
 20
104.275547488147
 30
0.0
 40
0.5
 50
0.0
 51
180.0
  0
ARC
  5
EE
  8
回08-記事
  6
CONTINUOUS
 62
     7
 10
936.9309430691462
 20
104.275547488147
 30
0.0
 40
0.5
 50
0.0
 51
180.0
  0
ARC
  5
EF
  8
回08-記事
  6
CONTINUOUS
 62
     7
 10
932.9309430691463
 20
104.275547488147
 30
0.0
 40
0.5
 50
0.0
 51
180.0
  0
POLYLINE
  5
F0
  8
回08-記事
  6
PHANTOM2
 62
     7
 66
     1
 10
0.0
 20
0.0
 30
0.0
 70
     1
  0
VERTEX
  5
642
  8
回08-記事
  6
PHANTOM2
 62
     7
 10
808.7536847572833
 20
169.2635144403662
 30
0.0
  0
VERTEX
  5
644
  8
回08-記事
  6
PHANTOM2
 62
     7
 10
946.7336847572832
 20
169.2635144403662
 30
0.0
  0
VERTEX
  5
645
  8
回08-記事
  6
PHANTOM2
 62
     7
 10
946.7336847572832
 20
274.7235144403661
 30
0.0
  0
VERTEX
  5
646
  8
回08-記事
  6
PHANTOM2
 62
     7
 10
808.7536847572833
 20
274.7235144403661
 30
0.0
  0
SEQEND
  5
643
  8
0
  6
CONTINUOUS
 62
    20
  0
LINE
  5
F2
  8
回08-記事
  6
CONTINUOUS
 62
     7
 10
735.457249019829
 20
103.4321806700248
 30
0.0
 11
740.6709543576987
 21
98.84648270912402
 31
0.0
  0
LINE
  5
F3
  8
回08-記事
  6
CONTINUOUS
 62
     7
 10
795.2778077448222
 20
103.6982688994424
 30
0.0
 11
790.3312887481063
 21
97.90811078137478
 31
0.0
  0
TEXT
  5
F4
  8
回08-記事
  6
CONTINUOUS
 62
     7
 10
788.4632756094272
 20
94.81462137741919
 30
0.0
 40
3.0
  1
4
  0
LINE
  5
F5
  8
回08-記事
  6
CONTINUOUS
 62
     7
 10
791.4582654295675
 20
105.7778663882148
 30
0.0
 11
790.3312887481063
 21
97.90811078137478
 31
0.0
  0
TEXT
  5
F6
  8
回08-記事
  6
CONTINUOUS
 62
     7
 10
741.4162513507364
 20
98.26056713070119
 30
0.0
 40
3.0
  1
5
  0
TEXT
  5
F7
  8
回08-記事
  6
CONTINUOUS
 62
     7
 10
749.3007234723777
 20
111.9508737197366
 30
0.0
 40
3.0
  1
3
  0
LINE
  5
F8
  8
回08-記事
  6
CONTINUOUS
 62
     7
 10
748.4357391333144
 20
104.7566701310677
 30
0.0
 11
750.2520756397284
 21
110.873213621363
 31
0.0
  0
DIMENSION
  5
F9
  8
回07-寸法
  6
CONTINUOUS
 62
     7
  2
*D45
 10
728.0536847572837
 20
115.1194538375428
 30
0.0
 11
730.5536847572836
 21
117.1194538375428
 31
0.0
 70
    32
  3
DMC
 13
733.0536847572837
 23
106.275547488147
 33
0.0
 14
728.0536847572837
 24
105.275547488147
 34
0.0
 50
180.0
1001
ACAD
1000
DSTYLE
1002
{
1070
    47
1040
0.2
1070
    48
1040
0.2
1070
   371
1070
     9
1070
   372
1070
     9
1002
}
  0
DIMENSION
  5
10A
  8
回07-寸法
  6
CONTINUOUS
 62
     7
  2
*D46
 10
728.0536847572837
 20
90.69570779948145
 30
0.0
 11
745.1025036549215
 21
90.69570779948145
 31
0.0
 70
   160
  1
(<>)
  3
DMC
 13
738.0536847572837
 23
102.7755474881469
 33
0.0
 14
728.0536847572837
 24
102.7755474881469
 34
0.0
 50
180.0
1001
ACAD
1000
DSTYLE
1002
{
1070
    47
1040
0.2
1070
    48
1040
0.2
1070
   371
1070
     9
1070
   372
1070
     9
1002
}
  0
DIMENSION
  5
11B
  8
回07-寸法
  6
CONTINUOUS
 62
     7
  2
*D47
 10
720.599076971114
 20
105.275547488147
 30
0.0
 11
720.599076971114
 21
92.95779545847944
 31
0.0
 70
   160
  1
0.3{\H0.6667x;±0.05}
  3
DMC
 13
728.0536847572837
 23
102.7755474881469
 33
0.0
 14
728.0536847572837
 24
105.275547488147
 34
0.0
 50
90.0
1001
ACADSTRINGINFO
1000
MIFCodePage
1070
     1
1001
ACAD
1000
DSTYLE
1002
{
1070
    47
1040
0.2
1070
    48
1040
0.2
1070
   371
1070
     9
1070
   372
1070
     9
1002
}
  0
POLYLINE
  5
12C
  8
回08-記事
  6
CONTINUOUS
 62
     7
 66
     1
 10
0.0
 20
0.0
 30
0.0
 70
     1
  0
VERTEX
  5
647
  8
回08-記事
  6
CONTINUOUS
 62
     7
 10
793.7536847572835
 20
104.275547488147
 30
0.0
  0
VERTEX
  5
649
  8
回08-記事
  6
CONTINUOUS
 62
     7
 10
803.0536847572834
 20
104.275547488147
 30
0.0
  0
VERTEX
  5
64A
  8
回08-記事
  6
CONTINUOUS
 62
     7
 10
803.0536847572834
 20
103.275547488147
 30
0.0
  0
VERTEX
  5
64B
  8
回08-記事
  6
CONTINUOUS
 62
     7
 10
793.7536847572835
 20
103.275547488147
 30
0.0
  0
SEQEND
  5
648
  8
0
  6
CONTINUOUS
 62
    20
  0
POLYLINE
  5
12D
  8
回08-記事
  6
CONTINUOUS
 62
     7
 66
     1
 10
0.0
 20
0.0
 30
0.0
 70
     1
  0
VERTEX
  5
64C
  8
回08-記事
  6
CONTINUOUS
 62
     7
 10
728.0536847572837
 20
102.7755474881469
 30
0.0
  0
VERTEX
  5
64E
  8
回08-記事
  6
CONTINUOUS
 62
     7
 10
738.0536847572837
 20
102.7755474881469
 30
0.0
  0
VERTEX
  5
64F
  8
回08-記事
  6
CONTINUOUS
 62
     7
 10
738.0536847572837
 20
104.275547488147
 30
0.0
  0
VERTEX
  5
650
  8
回08-記事
  6
CONTINUOUS
 62
     7
 10
728.0536847572837
 20
104.275547488147
 30
0.0
  0
SEQEND
  5
64D
  8
0
  6
CONTINUOUS
 62
    20
  0
POLYLINE
  5
12E
  8
回08-記事
  6
CONTINUOUS
 62
     7
 66
     1
 10
0.0
 20
0.0
 30
0.0
 70
     1
  0
VERTEX
  5
651
  8
回08-記事
  6
CONTINUOUS
 62
     7
 10
733.0536847572837
 20
105.275547488147
 30
0.0
  0
VERTEX
  5
653
  8
回08-記事
  6
CONTINUOUS
 62
     7
 10
803.5536847572835
 20
105.275547488147
 30
0.0
  0
VERTEX
  5
654
  8
回08-記事
  6
CONTINUOUS
 62
     7
 10
803.5536847572835
 20
106.275547488147
 30
0.0
  0
VERTEX
  5
655
  8
回08-記事
  6
CONTINUOUS
 62
     7
 10
733.0536847572834
 20
106.275547488147
 30
0.0
  0
SEQEND
  5
652
  8
0
  6
CONTINUOUS
 62
    20
  0
POLYLINE
  5
12F
  8
回08-記事
  6
CONTINUOUS
 62
     7
 66
     1
 10
0.0
 20
0.0
 30
0.0
 70
     1
  0
VERTEX
  5
656
  8
回08-記事
  6
CONTINUOUS
 62
     7
 10
728.0536847572837
 20
105.275547488147
 30
0.0
  0
VERTEX
  5
658
  8
回08-記事
  6
CONTINUOUS
 62
     7
 10
808.7536847572833
 20
105.275547488147
 30
0.0
  0
VERTEX
  5
659
  8
回08-記事
  6
CONTINUOUS
 62
     7
 10
808.7536847572833
 20
104.275547488147
 30
0.0
  0
VERTEX
  5
65A
  8
回08-記事
  6
CONTINUOUS
 62
     7
 10
728.0536847572837
 20
104.275547488147
 30
0.0
  0
SEQEND
  5
657
  8
0
  6
CONTINUOUS
 62
    20
  0
DIMENSION
  5
130
  8
回07-寸法
  6
CONTINUOUS
 62
     5
  2
*D48
 10
950.2336847572832
 20
115.966706886735
 30
0.0
 11
942.4348658596455
 21
118.116706886735
 31
0.0
 70
    32
  1
(<>)
  3
DMC
 13
950.7336847572833
 23
104.275547488147
 33
0.0
 14
950.2336847572832
 24
106.7755474881472
 34
0.0
1001
ACAD
1000
DSTYLE
1002
{
1070
    47
1040
0.2
1070
    48
1040
0.2
1070
   371
1070
     9
1070
   372
1070
     9
1002
}
  0
DIMENSION
  5
141
  8
回07-寸法
  6
CONTINUOUS
 62
     5
  2
*D49
 10
803.5536847572835
 20
115.966706886735
 30
0.0
 11
811.3525036549212
 21
118.116706886735
 31
0.0
 70
    32
  1
(<>)
  3
DMC
 13
803.0536847572834
 23
104.275547488147
 33
0.0
 14
803.5536847572835
 24
106.7755474881469
 34
0.0
1001
ACAD
1000
DSTYLE
1002
{
1070
    47
1040
0.2
1070
    48
1040
0.2
1070
   371
1070
     9
1070
   372
1070
     9
1002
}
  0
TEXT
  5
152
  8
回08-記事
  6
CONTINUOUS
 62
     7
 10
796.4710126294044
 20
92.57994255372029
 30
0.0
 40
3.0
  1
6
  0
LINE
  5
153
  8
回08-記事
  6
CONTINUOUS
 62
     7
 10
802.4138557876879
 20
101.3557915571007
 30
0.0
 11
798.1590168856421
 21
96.03848048603669
 31
0.0
  0
POLYLINE
  5
154
  8
回08-記事
  6
CONTINUOUS
 62
    40
 66
     1
 10
0.0
 20
0.0
 30
0.0
1001
ACAD
1000
ASC_BOUNDS
1002
{
1070
    19
1005
155
1002
}
  0
VERTEX
  5
65B
  8
回08-記事
  6
CONTINUOUS
 62
    40
 10
798.9536847572836
 20
103.275547488147
 30
0.0
  0
VERTEX
  5
65D
  8
回08-記事
  6
CONTINUOUS
 62
    40
 10
803.0536847572834
 20
103.275547488147
 30
0.0
  0
VERTEX
  5
65E
  8
回08-記事
  6
CONTINUOUS
 62
    40
 10
803.0536847572834
 20
101.2755474881469
 30
0.0
  0
VERTEX
  5
65F
  8
回08-記事
  6
CONTINUOUS
 62
    40
 10
807.1536847572836
 20
101.2755474881469
 30
0.0
  0
VERTEX
  5
660
  8
回08-記事
  6
CONTINUOUS
 62
    40
 10
807.1536847572836
 20
100.2755474881469
 30
0.0
  0
VERTEX
  5
661
  8
回08-記事
  6
CONTINUOUS
 62
    40
 10
802.0536847572834
 20
100.2755474881469
 30
0.0
  0
VERTEX
  5
662
  8
回08-記事
  6
CONTINUOUS
 62
    40
 10
802.0536847572834
 20
102.275547488147
 30
0.0
  0
VERTEX
  5
663
  8
回08-記事
  6
CONTINUOUS
 62
    40
 10
798.9536847572836
 20
102.275547488147
 30
0.0
  0
VERTEX
  5
664
  8
回08-記事
  6
CONTINUOUS
 62
    40
 10
798.9536847572836
 20
103.275547488147
 30
0.0
  0
SEQEND
  5
65C
  8
0
  6
CONTINUOUS
 62
    20
  0
INSERT
  5
155
  8
回08-記事
  6
CONTINUOUS
 62
    40
 66
     1
  2
*X81
 10
0.0
 20
0.0
 30
0.0
1001
ACAD
1010
0.0
1020
0.0
1030
0.0
  0
SEQEND
  5
66B
  8
0
  6
CONTINUOUS
 62
    20
  0
LINE
  5
156
  8
回08-記事
  6
CONTINUOUS
 62
     7
 10
900.8163393500797
 20
102.1520600739705
 30
0.0
 11
903.1261847242747
 21
94.74599450544799
 31
0.0
  0
TEXT
  5
157
  8
回08-記事
  6
CONTINUOUS
 62
     7
 10
902.2618953942027
 20
90.11835147711559
 30
0.0
 40
3.0
  1
2
  0
TEXT
  5
158
  8
回08-記事
  6
CONTINUOUS
 62
     7
 10
891.8225780946603
 20
113.4467093480244
 30
0.0
 40
3.0
  1
1
  0
LINE
  5
159
  8
回08-記事
  6
CONTINUOUS
 62
     7
 10
890.9080401291655
 20
106.3990349023234
 30
0.0
 11
892.7739302620109
 21
112.3690492496508
 31
0.0
  0
DIMENSION
  5
15A
  8
回07-寸法
  6
CONTINUOUS
 62
     7
  2
*D50
 10
958.5022095096434
 20
106.7755474881472
 30
0.0
 11
956.5022095096434
 21
115.7008811227635
 31
0.0
 70
    32
  1
1.4{\H0.6667x;±0.2}
  3
DMC
 13
950.7336847572833
 23
101.2755474881472
 33
0.0
 14
950.2336847572832
 24
106.7755474881472
 34
0.0
 50
90.0
1001
ACAD
1000
DSTYLE
1002
{
1070
    47
1040
0.2
1070
    48
1040
0.2
1070
   371
1070
     9
1070
   372
1070
     9
1002
}
1001
ACADSTRINGINFO
1000
MIFCodePage
1070
     1
  0
ARC
  5
16B
  8
回08-記事
  6
CONTINUOUS
 62
     7
 10
928.9309430691462
 20
104.275547488147
 30
0.0
 40
0.5
 50
0.0
 51
180.0
  0
ARC
  5
16C
  8
回08-記事
  6
CONTINUOUS
 62
     7
 10
924.9309430691463
 20
104.275547488147
 30
0.0
 40
0.5
 50
0.0
 51
180.0
  0
ARC
  5
16D
  8
回08-記事
  6
CONTINUOUS
 62
     7
 10
920.9309430691462
 20
104.275547488147
 30
0.0
 40
0.5
 50
0.0
 51
180.0
  0
ARC
  5
16E
  8
回08-記事
  6
CONTINUOUS
 62
     7
 10
916.9309430691463
 20
104.275547488147
 30
0.0
 40
0.5
 50
0.0
 51
180.0
  0
ARC
  5
16F
  8
回08-記事
  6
CONTINUOUS
 62
     7
 10
912.9309430691462
 20
104.275547488147
 30
0.0
 40
0.5
 50
0.0
 51
180.0
  0
ARC
  5
170
  8
回08-記事
  6
CONTINUOUS
 62
     7
 10
908.9309430691463
 20
104.275547488147
 30
0.0
 40
0.5
 50
0.0
 51
180.0
  0
ARC
  5
171
  8
回08-記事
  6
CONTINUOUS
 62
     7
 10
904.9309430691462
 20
104.275547488147
 30
0.0
 40
0.5
 50
0.0
 51
180.0
  0
ARC
  5
172
  8
回08-記事
  6
CONTINUOUS
 62
     7
 10
900.9309430691462
 20
104.275547488147
 30
0.0
 40
0.5
 50
0.0
 51
180.0
  0
ARC
  5
173
  8
回08-記事
  6
CONTINUOUS
 62
     7
 10
896.9309430691462
 20
104.275547488147
 30
0.0
 40
0.5
 50
0.0
 51
180.0
  0
ARC
  5
174
  8
回08-記事
  6
CONTINUOUS
 62
     7
 10
892.9309430691462
 20
104.275547488147
 30
0.0
 40
0.5
 50
0.0
 51
180.0
  0
ARC
  5
175
  8
回08-記事
  6
CONTINUOUS
 62
     7
 10
888.9309430691461
 20
104.275547488147
 30
0.0
 40
0.5
 50
0.0
 51
180.0
  0
ARC
  5
176
  8
回08-記事
  6
CONTINUOUS
 62
     7
 10
884.9309430691462
 20
104.275547488147
 30
0.0
 40
0.5
 50
0.0
 51
180.0
  0
ARC
  5
177
  8
回08-記事
  6
CONTINUOUS
 62
     7
 10
880.9309430691461
 20
104.275547488147
 30
0.0
 40
0.5
 50
0.0
 51
180.0
  0
ARC
  5
178
  8
回08-記事
  6
CONTINUOUS
 62
     7
 10
876.9309430691462
 20
104.275547488147
 30
0.0
 40
0.5
 50
0.0
 51
180.0
  0
ARC
  5
179
  8
回08-記事
  6
CONTINUOUS
 62
     7
 10
872.9309430691461
 20
104.275547488147
 30
0.0
 40
0.5
 50
0.0
 51
180.0
  0
ARC
  5
17A
  8
回08-記事
  6
CONTINUOUS
 62
     7
 10
868.9309430691462
 20
104.275547488147
 30
0.0
 40
0.5
 50
0.0
 51
180.0
  0
ARC
  5
17B
  8
回08-記事
  6
CONTINUOUS
 62
     7
 10
864.9309430691461
 20
104.275547488147
 30
0.0
 40
0.5
 50
0.0
 51
180.0
  0
ARC
  5
17C
  8
回08-記事
  6
CONTINUOUS
 62
     7
 10
860.9309430691462
 20
104.275547488147
 30
0.0
 40
0.5
 50
0.0
 51
180.0
  0
ARC
  5
17D
  8
回08-記事
  6
CONTINUOUS
 62
     7
 10
856.9309430691461
 20
104.275547488147
 30
0.0
 40
0.5
 50
0.0
 51
180.0
  0
ARC
  5
17E
  8
回08-記事
  6
CONTINUOUS
 62
     7
 10
852.9309430691462
 20
104.275547488147
 30
0.0
 40
0.5
 50
0.0
 51
180.0
  0
ARC
  5
17F
  8
回08-記事
  6
CONTINUOUS
 62
     7
 10
848.9309430691461
 20
104.275547488147
 30
0.0
 40
0.5
 50
0.0
 51
180.0
  0
ARC
  5
180
  8
回08-記事
  6
CONTINUOUS
 62
     7
 10
844.9309430691462
 20
104.275547488147
 30
0.0
 40
0.5
 50
0.0
 51
180.0
  0
ARC
  5
181
  8
回08-記事
  6
CONTINUOUS
 62
     7
 10
840.9309430691461
 20
104.275547488147
 30
0.0
 40
0.5
 50
0.0
 51
180.0
  0
ARC
  5
182
  8
回08-記事
  6
CONTINUOUS
 62
     7
 10
836.9309430691462
 20
104.275547488147
 30
0.0
 40
0.5
 50
0.0
 51
180.0
  0
ARC
  5
183
  8
回08-記事
  6
CONTINUOUS
 62
     7
 10
832.9309430691463
 20
104.275547488147
 30
0.0
 40
0.5
 50
0.0
 51
180.0
  0
ARC
  5
184
  8
回08-記事
  6
CONTINUOUS
 62
     7
 10
828.9309430691462
 20
104.275547488147
 30
0.0
 40
0.5
 50
0.0
 51
180.0
  0
ARC
  5
185
  8
回08-記事
  6
CONTINUOUS
 62
     7
 10
824.9309430691463
 20
104.275547488147
 30
0.0
 40
0.5
 50
0.0
 51
180.0
  0
ARC
  5
186
  8
回08-記事
  6
CONTINUOUS
 62
     7
 10
820.9309430691462
 20
104.275547488147
 30
0.0
 40
0.5
 50
0.0
 51
180.0
  0
ARC
  5
187
  8
回08-記事
  6
CONTINUOUS
 62
     7
 10
816.9309430691463
 20
104.275547488147
 30
0.0
 40
0.5
 50
0.0
 51
180.0
  0
ARC
  5
188
  8
回08-記事
  6
CONTINUOUS
 62
     7
 10
812.9309430691462
 20
104.275547488147
 30
0.0
 40
0.5
 50
0.0
 51
180.0
  0
POLYLINE
  5
189
  8
回08-記事
  6
CONTINUOUS
 62
     7
 66
     1
 10
0.0
 20
0.0
 30
0.0
 70
     1
  0
VERTEX
  5
66C
  8
回08-記事
  6
CONTINUOUS
 62
     7
 10
946.7336847572832
 20
105.275547488147
 30
0.0
  0
VERTEX
  5
66E
  8
回08-記事
  6
CONTINUOUS
 62
     7
 10
950.2336847572832
 20
105.275547488147
 30
0.0
  0
VERTEX
  5
66F
  8
回08-記事
  6
CONTINUOUS
 62
     7
 10
950.2336847572832
 20
104.275547488147
 30
0.0
  0
VERTEX
  5
670
  8
回08-記事
  6
CONTINUOUS
 62
     7
 10
946.7336847572832
 20
104.275547488147
 30
0.0
  0
SEQEND
  5
66D
  8
0
  6
CONTINUOUS
 62
    20
  0
POLYLINE
  5
18A
  8
回08-記事
  6
CONTINUOUS
 62
     7
 66
     1
 10
0.0
 20
0.0
 30
0.0
 70
     1
  0
VERTEX
  5
671
  8
回08-記事
  6
CONTINUOUS
 62
     7
 10
950.7336847572833
 20
104.275547488147
 30
0.0
  0
VERTEX
  5
673
  8
回08-記事
  6
CONTINUOUS
 62
     7
 10
803.0536847572834
 20
104.275547488147
 30
0.0
  0
VERTEX
  5
674
  8
回08-記事
  6
CONTINUOUS
 62
     7
 10
803.0536847572834
 20
101.2755474881469
 30
0.0
  0
VERTEX
  5
675
  8
回08-記事
  6
CONTINUOUS
 62
     7
 10
950.7336847572833
 20
101.2755474881469
 30
0.0
  0
SEQEND
  5
672
  8
0
  6
CONTINUOUS
 62
    20
  0
POLYLINE
  5
18B
  8
回08-記事
  6
CONTINUOUS
 62
     7
 66
     1
 10
0.0
 20
0.0
 30
0.0
 70
     1
  0
VERTEX
  5
676
  8
回08-記事
  6
CONTINUOUS
 62
     7
 10
803.5536847572835
 20
106.7755474881469
 30
0.0
  0
VERTEX
  5
678
  8
回08-記事
  6
CONTINUOUS
 62
     7
 10
950.2336847572832
 20
106.7755474881469
 30
0.0
  0
VERTEX
  5
679
  8
回08-記事
  6
CONTINUOUS
 62
     7
 10
950.2336847572832
 20
105.275547488147
 30
0.0
  0
VERTEX
  5
67A
  8
回08-記事
  6
CONTINUOUS
 62
     7
 10
803.5536847572835
 20
105.275547488147
 30
0.0
  0
SEQEND
  5
677
  8
0
  6
CONTINUOUS
 62
    20
  0
DIMENSION
  5
18C
  8
回07-寸法
  6
CONTINUOUS
 62
     5
  2
*D51
 10
708.2932773320318
 20
225.1185144403664
 30
0.0
 11
708.2932773320318
 21
235.5088402277679
 31
0.0
 70
   160
  1
<>
  3
DMC
 13
723.5536412474194
 23
218.8685144403665
 33
0.0
 14
723.553641246516
 24
225.1185144403664
 34
0.0
 50
90.0
1001
ACAD
1000
DSTYLE
1002
{
1070
    47
1040
0.2
1070
    48
1040
0.2
1070
    71
1070
     1
1070
   371
1070
     9
1070
   372
1070
     9
1002
}
  0
DIMENSION
  5
19D
  8
回07-寸法
  6
CONTINUOUS
 62
     5
  2
*D52
 10
803.0536847572834
 20
246.5540593152458
 30
0.0
 11
765.2952470871932
 21
246.5540593152458
 31
0.0
 70
   160
  3
DMC
 13
723.0536412465157
 23
224.618514440366
 33
0.0
 14
803.0536847572834
 24
230.6706389845575
 34
0.0
1001
ACAD
1000
DSTYLE
1002
{
1070
   147
1040
0.5
1070
    72
1070
     0
1070
    71
1070
     1
1070
    47
1040
1.0
1070
    48
1040
1.0
1070
   371
1070
     9
1070
   372
1070
     9
1002
}
  0
DIMENSION
  5
1AC
  8
回07-寸法
  6
CONTINUOUS
 62
     5
  2
*D53
 10
708.2932773320319
 20
218.8685144403665
 30
0.0
 11
708.2932773320319
 21
191.7460144403663
 31
0.0
 70
   160
  1
(<>)
  3
DMC
 13
803.0536847572834
 23
164.6235144403661
 33
0.0
 14
723.5536412484815
 24
218.8685144403665
 34
0.0
 50
90.0
1001
ACAD
1000
DSTYLE
1002
{
1070
    47
1040
0.2
1070
    48
1040
0.2
1070
   371
1070
     9
1070
   372
1070
     9
1002
}
  0
DIMENSION
  5
1BB
  8
回07-寸法
  6
CONTINUOUS
 62
     7
  2
*D54
 10
993.6504172668721
 20
278.923514440366
 30
0.0
 11
991.6504172668721
 21
221.7735144403659
 31
0.0
 70
    32
  3
DMC
 13
950.3536847572831
 23
164.6235144403658
 33
0.0
 14
950.3536847572831
 24
278.923514440366
 34
0.0
 50
90.0
1001
ACAD
1000
DSTYLE
1002
{
1070
   147
1040
0.5
1070
    72
1070
     0
1070
    71
1070
     1
1070
    47
1040
0.3
1070
    48
1040
0.3
1070
   371
1070
     9
1070
   372
1070
     9
1002
}
  0
DIMENSION
  5
1CA
  8
回07-寸法
  6
CONTINUOUS
 62
     7
  2
*D55
 10
984.1833365201816
 20
164.6235144403658
 30
0.0
 11
982.0333365201816
 21
141.5203549915468
 31
0.0
 70
    32
  1
<>(Insulation Area)
  3
DMC
 13
946.7336847572832
 23
169.2635144403662
 33
0.0
 14
950.3536847572831
 24
164.6235144403658
 34
0.0
 50
90.0
1001
ACAD
1000
DSTYLE
1002
{
1070
     3
1000
<>
1070
    47
1040
0.2
1070
    48
1040
0.2
1070
   371
1070
     9
1070
   372
1070
     9
1002
}
1001
ACADSTRINGINFO
1000
MIFCodePage
1070
     1
  0
DIMENSION
  5
1DB
  8
回07-寸法
  6
CONTINUOUS
 62
     7
  2
*D56
 10
975.2358070072673
 20
164.6235144403658
 30
0.0
 11
975.2358070072673
 21
156.6735144403656
 31
0.0
 70
   160
  3
DMC
 13
946.2336847572833
 23
170.0635144403661
 33
0.0
 14
950.3536847572831
 24
164.6235144403658
 34
0.0
 50
90.0
1001
ACAD
1000
DSTYLE
1002
{
1070
     3
1000
<>
1070
    47
1040
0.2
1070
    48
1040
0.2
1070
   371
1070
     9
1070
   372
1070
     9
1002
}
  0
DIMENSION
  5
1EC
  8
回07-寸法
  6
CONTINUOUS
 62
     7
  2
*D57
 10
966.2713469684073
 20
164.6235144403658
 30
0.0
 11
966.2713469684073
 21
156.6735144403656
 31
0.0
 70
   160
  3
DMC
 13
944.2336847572832
 23
172.0635144403661
 33
0.0
 14
950.3536847572831
 24
164.6235144403658
 34
0.0
 50
90.0
1001
ACAD
1000
DSTYLE
1002
{
1070
     3
1000
<>
1070
    47
1040
0.2
1070
    48
1040
0.2
1070
   371
1070
     9
1070
   372
1070
     9
1002
}
  0
DIMENSION
  5
1FD
  8
回07-寸法
  6
CONTINUOUS
 62
     7
  2
*D58
 10
984.1833365201793
 20
278.923514440366
 30
0.0
 11
982.0333365201793
 21
286.8723333380038
 31
0.0
 70
    32
  1
(<>)
  3
DMC
 13
946.7336847572832
 23
274.7235144403661
 33
0.0
 14
950.3536847572831
 24
278.923514440366
 34
0.0
 50
90.0
1001
ACAD
1000
DSTYLE
1002
{
1070
    47
1040
0.2
1070
    48
1040
0.2
1070
   371
1070
     9
1070
   372
1070
     9
1002
}
1001
ACADSTRINGINFO
1000
MIFCodePage
1070
     1
  0
DIMENSION
  5
20E
  8
回07-寸法
  6
CONTINUOUS
 62
     7
  2
*D59
 10
975.2358070072689
 20
278.923514440366
 30
0.0
 11
973.085807007269
 21
285.2223333380038
 31
0.0
 70
    32
  3
DMC
 13
946.2336847572833
 23
273.9235144403661
 33
0.0
 14
950.3536847572831
 24
278.923514440366
 34
0.0
 50
90.0
1001
ACAD
1000
DSTYLE
1002
{
1070
     3
1000
(<>)
1070
    47
1040
0.2
1070
    48
1040
0.2
1070
   371
1070
     9
1070
   372
1070
     9
1002
}
  0
DIMENSION
  5
21F
  8
回07-寸法
  6
CONTINUOUS
 62
     7
  2
*D60
 10
966.271346968409
 20
278.923514440366
 30
0.0
 11
966.271346968409
 21
285.222333338004
 31
0.0
 70
   160
  3
DMC
 13
944.2336847572832
 23
271.9235144403661
 33
0.0
 14
950.3536847572831
 24
278.923514440366
 34
0.0
 50
90.0
1001
ACAD
1000
DSTYLE
1002
{
1070
     3
1000
(<>)
1070
    47
1040
0.2
1070
    48
1040
0.2
1070
   371
1070
     9
1070
   372
1070
     9
1002
}
  0
DIMENSION
  5
230
  8
回07-寸法
  6
CONTINUOUS
 62
     7
  2
*D61
 10
984.1833365201772
 20
274.7235144403661
 30
0.0
 11
982.183336520177
 21
221.9935144403661
 31
0.0
 70
    32
  3
DMC
 13
946.7336847572832
 23
169.2635144403662
 33
0.0
 14
946.7336847572832
 24
274.7235144403661
 34
0.0
 50
90.0
1001
ACAD
1000
DSTYLE
1002
{
1070
    47
1040
0.2
1070
    48
1040
0.2
1070
   371
1070
     9
1070
   372
1070
     9
1002
}
  0
DIMENSION
  5
23F
  8
回07-寸法
  6
CONTINUOUS
 62
     7
  2
*D62
 10
975.2358070072672
 20
170.0635144403661
 30
0.0
 11
972.785807007267
 21
221.9935144403661
 31
0.0
 70
    32
  1
<> (Viewing area)
  3
DMC
 13
946.2336847572833
 23
273.9235144403661
 33
0.0
 14
946.2336847572833
 24
170.0635144403661
 34
0.0
 50
90.0
1001
ACAD
1000
DSTYLE
1002
{
1070
    47
1040
0.2
1070
    48
1040
0.2
1070
   371
1070
     9
1070
   372
1070
     9
1002
}
  0
DIMENSION
  5
24E
  8
回07-寸法
  6
CONTINUOUS
 62
     7
  2
*D63
 10
966.2713469684096
 20
172.0635144403661
 30
0.0
 11
964.1213469684096
 21
221.9935144403661
 31
0.0
 70
    32
  1
<> (Active area)
  3
DMC
 13
944.2336847572832
 23
271.9235144403661
 33
0.0
 14
944.2336847572832
 24
172.0635144403661
 34
0.0
 50
90.0
1001
ACAD
1000
DSTYLE
1002
{
1070
    47
1040
0.2
1070
    48
1040
0.2
1070
   371
1070
     9
1070
   372
1070
     9
1002
}
  0
DIMENSION
  5
25D
  8
回07-寸法
  6
CONTINUOUS
 62
     5
  2
*D64
 10
950.3536847572831
 20
315.9814409975997
 30
0.0
 11
876.7036847572832
 21
317.9814409975997
 31
0.0
 70
    32
  3
DMC
 13
803.0536847572832
 23
278.9235144403662
 33
0.0
 14
950.3536847572831
 24
278.923514440366
 34
0.0
1001
ACAD
1000
DSTYLE
1002
{
1070
   147
1040
0.5
1070
    72
1070
     0
1070
    71
1070
     1
1070
    47
1040
0.3
1070
    48
1040
0.3
1070
   371
1070
     9
1070
   372
1070
     9
1002
}
  0
DIMENSION
  5
26C
  8
回07-寸法
  6
CONTINUOUS
 62
     5
  2
*D65
 10
803.0536847572832
 20
308.6811627768266
 30
0.0
 11
781.3005253084643
 21
308.6811627768266
 31
0.0
 70
   160
  1
<>(Insulation Area)
  3
DMC
 13
808.7536847572833
 23
274.7235144403662
 33
0.0
 14
803.0536847572832
 24
278.9235144403662
 34
0.0
1001
ACADSTRINGINFO
1000
MIFCodePage
1070
     1
1001
ACAD
1000
DSTYLE
1002
{
1070
     3
1000
<>
1070
    47
1040
0.2
1070
    48
1040
0.2
1070
   371
1070
     9
1070
   372
1070
     9
1002
}
  0
DIMENSION
  5
27D
  8
回07-寸法
  6
CONTINUOUS
 62
     5
  2
*D66
 10
803.0536847572832
 20
301.0302235110348
 30
0.0
 11
796.2738323950784
 21
301.0302235110348
 31
0.0
 70
   160
  3
DMC
 13
809.2536847572832
 23
273.9235144403661
 33
0.0
 14
803.0536847572832
 24
278.9235144403662
 34
0.0
1001
ACAD
1000
DSTYLE
1002
{
1070
     3
1000
<>
1070
    47
1040
0.2
1070
    48
1040
0.2
1070
   371
1070
     9
1070
   372
1070
     9
1002
}
  0
DIMENSION
  5
28E
  8
回07-寸法
  6
CONTINUOUS
 62
     5
  2
*D67
 10
950.3536847572831
 20
308.6811627768266
 30
0.0
 11
959.2025036549209
 21
310.8311627768265
 31
0.0
 70
    32
  1
(<>)
  3
DMC
 13
946.7336847572832
 23
274.7235144403661
 33
0.0
 14
950.3536847572831
 24
278.923514440366
 34
0.0
1001
ACAD
1000
DSTYLE
1002
{
1070
    47
1040
0.2
1070
    48
1040
0.2
1070
   371
1070
     9
1070
   372
1070
     9
1002
}
1001
ACADSTRINGINFO
1000
MIFCodePage
1070
     1
  0
DIMENSION
  5
29F
  8
回07-寸法
  6
CONTINUOUS
 62
     5
  2
*D68
 10
950.3536847572831
 20
301.0302235110348
 30
0.0
 11
959.0525036549209
 21
303.1802235110348
 31
0.0
 70
    32
  3
DMC
 13
946.2336847572833
 23
273.9235144403661
 33
0.0
 14
950.3536847572831
 24
278.923514440366
 34
0.0
1001
ACAD
1000
DSTYLE
1002
{
1070
     3
1000
(<>)
1070
    47
1040
0.2
1070
    48
1040
0.2
1070
   371
1070
     9
1070
   372
1070
     9
1002
}
  0
DIMENSION
  5
2B0
  8
回07-寸法
  6
CONTINUOUS
 62
     5
  2
*D69
 10
950.3536847572831
 20
293.6479366685785
 30
0.0
 11
958.9025036549211
 21
295.7979366685785
 31
0.0
 70
    32
  3
DMC
 13
944.2336847572832
 23
271.9235144403661
 33
0.0
 14
950.3536847572831
 24
278.923514440366
 34
0.0
1001
ACAD
1000
DSTYLE
1002
{
1070
     3
1000
(<>)
1070
    47
1040
0.2
1070
    48
1040
0.2
1070
   371
1070
     9
1070
   372
1070
     9
1002
}
  0
DIMENSION
  5
2C1
  8
回07-寸法
  6
CONTINUOUS
 62
     5
  2
*D70
 10
946.7336847572832
 20
308.6811627768266
 30
0.0
 11
877.7436847572833
 21
310.6811627768266
 31
0.0
 70
    32
  3
DMC
 13
808.7536847572833
 23
274.7235144403662
 33
0.0
 14
946.7336847572832
 24
274.7235144403661
 34
0.0
1001
ACAD
1000
DSTYLE
1002
{
1070
    47
1040
0.2
1070
    48
1040
0.2
1070
   371
1070
     9
1070
   372
1070
     9
1002
}
  0
DIMENSION
  5
2D0
  8
回07-寸法
  6
CONTINUOUS
 62
     5
  2
*D71
 10
946.2336847572833
 20
301.0302235110348
 30
0.0
 11
877.7436847572833
 21
303.4802235110348
 31
0.0
 70
    32
  1
<> (Viewing area)
  3
DMC
 13
809.2536847572832
 23
273.9235144403661
 33
0.0
 14
946.2336847572833
 24
273.9235144403661
 34
0.0
1001
ACAD
1000
DSTYLE
1002
{
1070
    47
1040
0.2
1070
    48
1040
0.2
1070
   371
1070
     9
1070
   372
1070
     9
1002
}
  0
INSERT
  5
2DF
  8
0
  6
CONTINUOUS
 62
    20
 66
     1
  2
*X82
 10
0.0
 20
0.0
 30
0.0
1001
ACADSTRINGINFO
1000
MIFCodePage
1070
     1
1001
ACAD_MLEADERVER
1070
     2
  0
SEQEND
  5
688
  8
0
  6
CONTINUOUS
 62
    20
  0
DIMENSION
  5
2E1
  8
回08-記事
 62
     7
  2
*D72
 10
889.7436847572832
 20
203.3253887788937
 30
0.0
 11
884.4936847572833
 21
205.3253887788937
 31
0.0
 70
    32
  3
DMC
 13
893.7436847572833
 23
209.9935144403661
 33
0.0
 14
889.7436847572832
 24
209.9935144403661
 34
0.0
1001
ACAD
1000
DSTYLE
1002
{
1070
    47
1040
0.2
1070
    48
1040
0.2
1070
   371
1070
     9
1070
   372
1070
     9
1002
}
  0
DIMENSION
  5
2F2
  8
回08-記事
 62
     7
  2
*D73
 10
902.3674516231508
 20
209.9935144403661
 30
0.0
 11
900.3674516231509
 21
204.7435144403662
 31
0.0
 70
    32
  3
DMC
 13
893.7436847572833
 23
213.9935144403661
 33
0.0
 14
893.7436847572833
 24
209.9935144403661
 34
0.0
 50
90.0
1001
ACAD
1000
DSTYLE
1002
{
1070
    47
1040
0.2
1070
    48
1040
0.2
1070
   371
1070
     9
1070
   372
1070
     9
1002
}
  0
CIRCLE
  5
303
  8
回08-記事
 62
     7
 10
893.7436847572833
 20
221.9935144403661
 30
0.0
 40
0.05
  0
CIRCLE
  5
304
  8
回08-記事
 62
     7
 10
893.7436847572833
 20
217.9935144403661
 30
0.0
 40
0.05
  0
CIRCLE
  5
305
  8
回08-記事
 62
     7
 10
893.7436847572833
 20
213.9935144403661
 30
0.0
 40
0.05
  0
CIRCLE
  5
306
  8
回08-記事
 62
     7
 10
893.7436847572833
 20
209.9935144403661
 30
0.0
 40
0.05
  0
CIRCLE
  5
307
  8
回08-記事
 62
     7
 10
889.7436847572832
 20
221.9935144403661
 30
0.0
 40
0.05
  0
CIRCLE
  5
308
  8
回08-記事
 62
     7
 10
889.7436847572832
 20
217.9935144403661
 30
0.0
 40
0.05
  0
CIRCLE
  5
309
  8
回08-記事
 62
     7
 10
889.7436847572832
 20
213.9935144403661
 30
0.0
 40
0.05
  0
CIRCLE
  5
30A
  8
回08-記事
 62
     7
 10
889.7436847572832
 20
209.9935144403661
 30
0.0
 40
0.05
  0
CIRCLE
  5
30B
  8
回08-記事
 62
     7
 10
885.7436847572833
 20
221.9935144403661
 30
0.0
 40
0.05
  0
CIRCLE
  5
30C
  8
回08-記事
 62
     7
 10
885.7436847572833
 20
217.9935144403661
 30
0.0
 40
0.05
  0
CIRCLE
  5
30D
  8
回08-記事
 62
     7
 10
885.7436847572833
 20
213.9935144403661
 30
0.0
 40
0.05
  0
CIRCLE
  5
30E
  8
回08-記事
 62
     7
 10
885.7436847572833
 20
209.9935144403661
 30
0.0
 40
0.05
  0
CIRCLE
  5
30F
  8
回08-記事
 62
     7
 10
881.7436847572833
 20
221.9935144403661
 30
0.0
 40
0.05
  0
CIRCLE
  5
310
  8
回08-記事
 62
     7
 10
881.7436847572833
 20
217.9935144403661
 30
0.0
 40
0.05
  0
CIRCLE
  5
311
  8
回08-記事
 62
     7
 10
881.7436847572833
 20
213.9935144403661
 30
0.0
 40
0.05
  0
CIRCLE
  5
312
  8
回08-記事
 62
     7
 10
881.7436847572833
 20
209.9935144403661
 30
0.0
 40
0.05
  0
CIRCLE
  5
313
  8
回08-記事
 62
     7
 10
877.7436847572833
 20
221.9935144403661
 30
0.0
 40
0.05
  0
CIRCLE
  5
314
  8
回08-記事
 62
     7
 10
877.7436847572833
 20
217.9935144403661
 30
0.0
 40
0.05
  0
CIRCLE
  5
315
  8
回08-記事
 62
     7
 10
877.7436847572833
 20
213.9935144403661
 30
0.0
 40
0.05
  0
CIRCLE
  5
316
  8
回08-記事
 62
     7
 10
877.7436847572833
 20
209.9935144403661
 30
0.0
 40
0.05
  0
LINE
  5
317
  8
回08-記事
  6
CENTER2
 62
     7
 10
877.7436847572833
 20
275.8335157453407
 30
0.0
 11
877.7436847572833
 21
168.1535131353915
 31
0.0
  0
TEXT
  5
319
  8
回07-寸法
  6
CONTINUOUS
 62
     7
 10
867.5872058758313
 20
174.511946934464
 30
0.0
 40
5.0
  1
YD
  0
TEXT
  5
31A
  8
回07-寸法
  6
CONTINUOUS
 62
     7
 10
867.5872058758313
 20
263.8155728918933
 30
0.0
 40
5.0
  1
YU
  0
TEXT
  5
31B
  8
回07-寸法
  6
CONTINUOUS
 62
     7
 10
934.2871985497952
 20
224.5816825902588
 30
0.0
 40
5.0
  1
XR
  0
TEXT
  5
31C
  8
回07-寸法
  6
CONTINUOUS
 62
     7
 10
813.1342874369575
 20
224.5816825902588
 30
0.0
 40
5.0
  1
XL
  0
LINE
  5
31D
  8
回08-記事
  6
CENTER2
 62
     7
 10
946.7336847572832
 20
221.9935144403661
 30
0.0
 11
808.7536847572833
 21
221.9935144403661
 31
0.0
  0
POLYLINE
  5
31E
  8
回02-上接
  6
CONTINUOUS
 62
     7
 66
     1
 10
0.0
 20
0.0
 30
0.0
 70
     1
  0
VERTEX
  5
689
  8
回02-上接
  6
CONTINUOUS
 62
     7
 10
803.5536847572835
 20
230.8602338544499
 30
0.0
  0
VERTEX
  5
68B
  8
回02-上接
  6
CONTINUOUS
 62
     7
 10
803.5536847572835
 20
230.8602338544499
 30
0.0
 42
-0.1316524975872415
  0
VERTEX
  5
68C
  8
回02-上接
  6
CONTINUOUS
 62
     7
 10
803.4866974591757
 20
230.6102338544501
 30
0.0
  0
VERTEX
  5
68D
  8
回02-上接
  6
CONTINUOUS
 62
     7
 10
802.920672055391
 20
229.6298490967187
 30
0.0
 42
0.1316524975872414
  0
VERTEX
  5
68E
  8
回02-上接
  6
CONTINUOUS
 62
     7
 10
802.8536847572832
 20
229.3798490967189
 30
0.0
  0
VERTEX
  5
68F
  8
回02-上接
  6
CONTINUOUS
 62
     7
 10
802.8536847572832
 20
214.6071797840134
 30
0.0
 42
0.1316524975872412
  0
VERTEX
  5
690
  8
回02-上接
  6
CONTINUOUS
 62
     7
 10
802.920672055391
 20
214.3571797840137
 30
0.0
  0
VERTEX
  5
691
  8
回02-上接
  6
CONTINUOUS
 62
     7
 10
803.4866974591759
 20
213.3767950262822
 30
0.0
 42
-0.1316524975872414
  0
VERTEX
  5
692
  8
回02-上接
  6
CONTINUOUS
 62
     7
 10
803.5536847572835
 20
213.1267950262823
 30
0.0
  0
VERTEX
  5
693
  8
回02-上接
  6
CONTINUOUS
 62
     7
 10
803.5536847572835
 20
165.1235144403661
 30
0.0
  0
VERTEX
  5
694
  8
回02-上接
  6
CONTINUOUS
 62
     7
 10
949.8536847572832
 20
165.1235144403661
 30
0.0
  0
VERTEX
  5
695
  8
回02-上接
  6
CONTINUOUS
 62
     7
 10
949.8536847572832
 20
278.4235144403661
 30
0.0
  0
VERTEX
  5
696
  8
回02-上接
  6
CONTINUOUS
 62
     7
 10
803.5536847572835
 20
278.4235144403661
 30
0.0
  0
SEQEND
  5
68A
  8
0
  6
CONTINUOUS
 62
    20
  0
POLYLINE
  5
322
  8
回04-下接
  6
CONTINUOUS
 62
     7
 66
     1
 10
0.0
 20
0.0
 30
0.0
  0
VERTEX
  5
697
  8
回04-下接
  6
CONTINUOUS
 62
     7
 10
803.0536847572834
 20
230.9687956030194
 30
0.0
  0
VERTEX
  5
699
  8
回04-下接
  6
CONTINUOUS
 62
     7
 10
803.0536847572834
 20
230.8602338544499
 30
0.0
  0
SEQEND
  5
698
  8
0
  6
CONTINUOUS
 62
    20
  0
POLYLINE
  5
326
  8
回04-下接
  6
CONTINUOUS
 62
     7
 66
     1
 10
0.0
 20
0.0
 30
0.0
 70
     1
  0
VERTEX
  5
69A
  8
回04-下接
  6
CONTINUOUS
 62
     7
 10
803.0536847572834
 20
164.6235144403661
 30
0.0
  0
VERTEX
  5
69C
  8
回04-下接
  6
CONTINUOUS
 62
     7
 10
950.3536847572831
 20
164.6235144403661
 30
0.0
  0
VERTEX
  5
69D
  8
回04-下接
  6
CONTINUOUS
 62
     7
 10
950.3536847572831
 20
278.923514440366
 30
0.0
  0
VERTEX
  5
69E
  8
回04-下接
  6
CONTINUOUS
 62
     7
 10
803.0536847572834
 20
278.923514440366
 30
0.0
  0
SEQEND
  5
69B
  8
0
  6
CONTINUOUS
 62
    20
  0
INSERT
  5
327
  8
回08-記事
  6
CONTINUOUS
 62
     7
 66
     1
  2
*X83
 10
0.0
 20
0.0
 30
0.0
1001
ACAD
1000
HATCH
1002
{
1070
    19
1000
ANSI31
1040
0.5
1040
6.283185307179586
1000
ASC_BOUNDS
1070
     1
1070
     2
1070
     1
1005
328
1000
ASC_SEEDPOINT
1011
1052.258491799173
1021
4.99384635919597
1031
0.0
1000
R14_HATCH_DATA
1000
327
1011
1.0
1021
0.0
1031
0.0
1011
0.0
1021
1.0
1031
0.0
1011
0.0
1021
0.0
1031
1.0
1040
0.0
1010
0.0
1020
0.0
1030
1.0
1000
ANSI31
1070
     0
1070
     1
1071
        1
1071
        1
1071
        4
1070
     1
1040
807.1536847572838
1040
220.743514440366
1040
798.953684757284
1040
220.743514440366
1070
     1
1040
798.953684757284
1040
220.743514440366
1040
798.953684757284
1040
214.743514440366
1070
     1
1040
798.953684757284
1040
214.743514440366
1040
807.1536847572838
1040
214.743514440366
1070
     1
1040
807.1536847572838
1040
214.743514440366
1040
807.1536847572838
1040
220.743514440366
1071
        1
1005
328
1070
     0
1070
     1
1040
6.283185307179586
1040
0.5
1070
     0
1070
     1
1040
0.7853981633974481
1040
0.0
1040
0.0
1040
-1.122532015133643
1040
1.122532015133644
1070
     0
1071
        1
1040
1052.258491799173
1040
4.99384635919597
1040
0.0
1002
}
  0
SEQEND
  5
6A8
  8
0
  6
CONTINUOUS
 62
    20
  0
POLYLINE
  5
328
  8
回08-記事
  6
CONTINUOUS
 62
     7
 66
     1
 10
0.0
 20
0.0
 30
0.0
 70
     1
1001
ACAD
1000
ASC_BOUNDS
1002
{
1070
    19
1005
327
1002
}
  0
VERTEX
  5
6A9
  8
回08-記事
  6
CONTINUOUS
 62
     7
 10
807.1536847572838
 20
220.743514440366
 30
0.0
  0
VERTEX
  5
6AB
  8
回08-記事
  6
CONTINUOUS
 62
     7
 10
798.953684757284
 20
220.743514440366
 30
0.0
  0
VERTEX
  5
6AC
  8
回08-記事
  6
CONTINUOUS
 62
     7
 10
798.953684757284
 20
214.743514440366
 30
0.0
  0
VERTEX
  5
6AD
  8
回08-記事
  6
CONTINUOUS
 62
     7
 10
807.1536847572838
 20
214.743514440366
 30
0.0
  0
SEQEND
  5
6AA
  8
0
  6
CONTINUOUS
 62
    20
  0
TEXT
  5
329
  8
回07-寸法
  6
CONTINUOUS
 62
     5
 10
780.5001562943382
 20
232.3883054644986
 30
0.0
 40
3.0
  1
4-R1
1001
ACAD
1000
MTEXTBEGIN
1070
    73
1070
     1
1070
    44
1040
1.0
1070
    74
1070
     0
1000
MTEXTEND
  0
INSERT
  5
32A
  8
回07-寸法
  6
CONTINUOUS
 62
     7
 66
     1
  2
*X84
 10
0.0
 20
0.0
 30
0.0
  0
SEQEND
  5
6B4
  8
0
  6
CONTINUOUS
 62
    20
  0
DIMENSION
  5
32C
  8
回07-寸法
  6
CONTINUOUS
 62
     3
  2
*D74
 10
798.484403043777
 20
206.6602382894561
 30
0.0
 11
788.3188319395089
 21
206.6602382894561
 31
0.0
 70
   160
  3
KOUSA
 13
803.0536847572834
 23
213.3163900958991
 33
0.0
 14
798.484403043777
 24
214.0691560812118
 34
0.0
1001
ACAD
1000
DSTYLE
1002
{
1070
    71
1070
     0
1070
   288
1070
     0
1070
   341
1005
0
1002
}
  0
TEXT
  5
33D
  8
回07-寸法
  6
CONTINUOUS
 62
     5
 10
788.5637851858688
 20
236.6819963380303
 30
0.0
 40
3.0
  1
2-R2
1001
ACAD
1000
MTEXTBEGIN
1070
    73
1070
     1
1070
    44
1040
1.0
1070
    74
1070
     0
1000
MTEXTEND
  0
INSERT
  5
33E
  8
回07-寸法
  6
CONTINUOUS
 62
     7
 66
     1
  2
*X85
 10
0.0
 20
0.0
 30
0.0
  0
SEQEND
  5
6BB
  8
0
  6
CONTINUOUS
 62
    20
  0
DIMENSION
  5
33F
  8
回07-寸法
  6
CONTINUOUS
 62
     5
  2
*D75
 10
793.5265355772412
 20
198.9972083524694
 30
0.0
 11
785.3506468560695
 21
198.9972083524694
 31
0.0
 70
   160
  3
KOUSA
 13
803.0536847572834
 23
213.3163900958988
 33
0.0
 14
793.5265355772412
 24
218.7888371012026
 34
0.0
1001
ACAD
1000
DSTYLE
1002
{
1070
    71
1070
     0
1070
   288
1070
     0
1070
   341
1005
0
1002
}
  0
DIMENSION
  5
350
  8
回07-寸法
  6
CONTINUOUS
 62
     5
  2
*D76
 10
777.8928204657717
 20
229.9923114060945
 30
0.0
 11
777.8928204657717
 21
206.7799642572272
 31
0.0
 70
   160
  3
KOUSA
 13
798.8659284346245
 23
213.9935144403664
 33
0.0
 14
798.8617548489178
 24
229.9923114060945
 34
0.0
 50
90.0
1001
ACAD
1000
DSTYLE
1002
{
1070
    71
1070
     0
1070
   288
1070
     0
1070
   341
1005
0
1002
}
  0
TEXT
  5
361
  8
回08-記事
  6
CONTINUOUS
 62
     7
 10
722.5595622540818
 20
219.3309142621894
 30
0.0
 40
3.0
  1
1
 50
90.0
  0
TEXT
  5
362
  8
回08-記事
  6
CONTINUOUS
 62
     7
 10
722.5366692982929
 20
222.7830236323872
 30
0.0
 40
3.0
  1
4
 50
90.0
  0
LINE
  5
363
  8
回05-ﾃｰﾙ
  6
BYBLOCK
 62
     7
 10
803.5536847572835
 20
211.9935144403661
 30
0.0
 11
803.5536847572835
 21
211.9935144403661
 31
0.0
  0
ARC
  5
367
  8
回05-ﾃｰﾙ
  6
BYBLOCK
 62
     7
 10
793.14498345741
 20
217.8644897747867
 30
0.0
 40
1.0
 50
45.143598144216
 51
89.99668642115283
  0
ARC
  5
368
  8
回05-ﾃｰﾙ
  6
BYBLOCK
 62
     7
 10
793.1424221885058
 20
226.1185144403666
 30
0.0
 40
1.0
 50
270.0
 51
314.8829928953722
  0
ARC
  5
369
  8
回05-ﾃｰﾙ
  6
BYBLOCK
 62
     7
 10
798.8622017528837
 20
228.9923115059564
 30
0.0
 40
1.0
 50
90.02560571194576
 51
134.8829928953722
  0
ARC
  5
36A
  8
回05-ﾃｰﾙ
  6
BYBLOCK
 62
     7
 10
798.8659284346235
 20
214.9935144403666
 30
0.0
 40
1.0
 50
225.1435981442159
 51
270.0
  0
ARC
  5
36B
  8
回05-ﾃｰﾙ
  6
BYBLOCK
 62
     7
 10
801.5536847572834
 20
211.9935144403666
 30
0.0
 40
2.0
 50
0.0
 51
90.0
  0
ARC
  5
36C
  8
回05-ﾃｰﾙ
  6
BYBLOCK
 62
     7
 10
801.5536847572834
 20
231.9935146400898
 30
0.0
 40
2.0
 50
270.0256057119457
 51
0.0
  0
ARC
  5
36D
  8
回05-ﾃｰﾙ
  6
BYBLOCK
 62
     7
 10
801.0536847572835
 20
221.9935144403666
 30
0.0
 40
0.5
 50
90.0
 51
272.4902279154731
  0
LINE
  5
36E
  8
回05-ﾃｰﾙ
  6
BYBLOCK
 62
     7
 10
806.5536847572834
 20
221.4935144403662
 30
0.0
 11
801.0536847572835
 21
221.4935144403662
 31
0.0
  0
LINE
  5
36F
  8
回05-ﾃｰﾙ
  6
BYBLOCK
 62
     7
 10
801.0536847572835
 20
222.4935144403661
 30
0.0
 11
806.5536847572834
 21
222.4935144403661
 31
0.0
  0
LINE
  5
370
  8
回05-ﾃｰﾙ
  6
BYBLOCK
 62
     7
 10
806.5536847572834
 20
221.4935144403662
 30
0.0
 11
806.5536847572834
 21
211.9935144403661
 31
0.0
  0
LINE
  5
371
  8
回05-ﾃｰﾙ
  6
BYBLOCK
 62
     7
 10
793.8503158259277
 20
218.573366527065
 30
0.0
 11
798.1605960661059
 21
214.2846376880874
 31
0.0
  0
LINE
  5
372
  8
回05-ﾃｰﾙ
  6
BYBLOCK
 62
     7
 10
793.8480834715969
 20
225.4099651100118
 30
0.0
 11
798.1565404697926
 21
229.7008608363107
 31
0.0
  0
LINE
  5
373
  8
回05-ﾃｰﾙ
  6
BYBLOCK
 62
     7
 10
806.5536847572834
 20
231.9935144403661
 30
0.0
 11
806.5536847572834
 21
222.4935144403661
 31
0.0
  0
LINE
  5
374
  8
回05-ﾃｰﾙ
  6
BYBLOCK
 62
     7
 10
803.5536847572835
 20
211.9935144403661
 30
0.0
 11
806.5536847572834
 21
211.9935144403661
 31
0.0
  0
LINE
  5
375
  8
回05-ﾃｰﾙ
  6
BYBLOCK
 62
     7
 10
806.5536847572834
 20
231.9935144403661
 30
0.0
 11
803.5536847572835
 21
231.9935144403661
 31
0.0
  0
LINE
  5
376
  8
回05-ﾃｰﾙ
  6
BYBLOCK
 62
     7
 10
798.8659284346235
 20
213.9935144403661
 30
0.0
 11
801.5536847572834
 21
213.9935144403661
 31
0.0
  0
LINE
  5
377
  8
回05-ﾃｰﾙ
  6
BYBLOCK
 62
     7
 10
798.8617548489178
 20
229.9923114060943
 30
0.0
 11
801.5545785652152
 21
229.9935148398126
 31
0.0
  0
LINE
  5
378
  8
回05-ﾃｰﾙ
  6
BYBLOCK
 62
     7
 10
723.0536412465157
 20
224.6185144403662
 30
0.0
 11
723.0536412465157
 21
219.3685144403661
 31
0.0
  0
ARC
  5
379
  8
回05-ﾃｰﾙ
  6
BYBLOCK
 62
     7
 10
723.5536412465157
 20
219.3685144403666
 30
0.0
 40
0.5
 50
180.0
 51
270.0
  0
ARC
  5
37A
  8
回05-ﾃｰﾙ
  6
BYBLOCK
 62
     7
 10
723.5536412465157
 20
224.6185144403666
 30
0.0
 40
0.5
 50
90.0
 51
180.0
  0
LINE
  5
37B
  8
回05-ﾃｰﾙ
  6
BYBLOCK
 62
     7
 10
723.5536412465157
 20
218.8685144403666
 30
0.0
 11
793.1450412902709
 21
218.8644897731141
 31
0.0
  0
LINE
  5
37C
  8
回05-ﾃｰﾙ
  6
BYBLOCK
 62
     7
 10
723.5536412465157
 20
225.1185144403666
 30
0.0
 11
793.1424221885058
 21
225.1185144403666
 31
0.0
  0
POLYLINE
  5
37D
  8
回08-記事
 62
     7
 66
     1
 10
0.0
 20
0.0
 30
0.0
 70
     1
  0
VERTEX
  5
6BC
  8
回08-記事
 62
     7
 10
809.2536847572832
 20
170.0635144403661
 30
0.0
  0
VERTEX
  5
6BE
  8
回08-記事
 62
     7
 10
946.2336847572833
 20
170.0635144403661
 30
0.0
  0
VERTEX
  5
6BF
  8
回08-記事
 62
     7
 10
946.2336847572833
 20
273.9235144403661
 30
0.0
  0
VERTEX
  5
6C0
  8
回08-記事
 62
     7
 10
809.2536847572832
 20
273.9235144403661
 30
0.0
  0
SEQEND
  5
6BD
  8
0
  6
CONTINUOUS
 62
    20
  0
LINE
  5
37E
  8
回04-図面枠
  6
CONTINUOUS
 62
     7
 10
1128.308021788985
 20
16.01228342248646
 30
0.0
 11
1128.308021788985
 21
26.01228342248646
 31
0.0
  0
LINE
  5
380
  8
回04-図面枠
  6
CENTER2
 62
     7
 10
1133.525429767991
 20
17.4212578494064
 30
0.0
 11
1133.525429767991
 21
24.42131859799815
 31
0.0
  0
LINE
  5
381
  8
回04-図面枠
  6
CONTINUOUS
 62
     7
 10
1138.291922917928
 20
19.44337258558812
 30
0.0
 11
1143.462728069668
 21
18.12713561082478
 31
0.0
  0
LINE
  5
382
  8
回04-図面枠
  6
CONTINUOUS
 62
     7
 10
1138.291922917928
 20
22.39920386181643
 30
0.0
 11
1143.462728069668
 21
23.71544083658069
 31
0.0
  0
LINE
  5
383
  8
回04-図面枠
  6
CONTINUOUS
 62
     7
 10
1143.462728069668
 20
23.71544083658069
 30
0.0
 11
1143.462728069668
 21
18.12713561082478
 31
0.0
  0
LINE
  5
384
  8
回04-図面枠
  6
CONTINUOUS
 62
     7
 10
1138.291922917928
 20
22.39920386181643
 30
0.0
 11
1138.291922917928
 21
19.44337258558812
 31
0.0
  0
LINE
  5
385
  8
回04-図面枠
  6
CENTER2
 62
     7
 10
1130.316425455791
 20
20.92128822370273
 30
0.0
 11
1143.921007907912
 21
20.92128822370273
 31
0.0
  0
CIRCLE
  5
386
  8
回04-図面枠
  6
CONTINUOUS
 62
     7
 10
1133.525429767991
 20
20.92128822370273
 30
0.0
 40
1.477915638114184
  0
CIRCLE
  5
387
  8
回04-図面枠
  6
CONTINUOUS
 62
     7
 10
1133.525429767991
 20
20.92128822370273
 30
0.0
 40
2.794152612877607
  0
TEXT
  5
388
  8
回03-記事
  6
CONTINUOUS
 10
1094.315596436632
 20
58.94968874270467
 30
0.0
 40
3.372171263999999
  1
PROTECTION TAPE
  0
TEXT
  5
389
  8
回03-記事
  6
CONTINUOUS
 10
1089.050305684421
 20
58.93187320883749
 30
0.0
 40
3.507058114560001
  1
6
  0
LINE
  5
38A
  8
回03-記事
  6
CONTINUOUS
 10
1087.25853068401
 20
57.92489673695195
 30
0.0
 11
1139.502687880926
 21
57.92489673695195
 31
0.0
  0
TEXT
  5
38B
  8
回03-記事
  6
CONTINUOUS
 10
1093.887525448236
 20
64.6487929598868
 30
0.0
 40
3.507058114560001
  1
STIFFENER
  0
TEXT
  5
38C
  8
回03-記事
  6
CONTINUOUS
 10
1093.887525448236
 20
70.49388981748757
 30
0.0
 40
3.507058114560001
  1
REINFORCEMENT FILM
  0
TEXT
  5
38D
  8
回03-記事
  6
CONTINUOUS
 10
1107.689610974098
 20
94.10684505690801
 30
0.0
 40
3.507058114560001
  1
ITEM
  0
LINE
  5
38E
  8
回03-記事
  6
CONTINUOUS
 10
1139.502687880926
 20
57.92489673695195
 30
0.0
 11
1139.502687880926
 21
98.84057474015186
 31
0.0
  0
TEXT
  5
38F
  8
回03-記事
  6
CONTINUOUS
 10
1089.050305684421
 20
76.46716378163524
 30
0.0
 40
3.507058114560001
  1
3
  0
TEXT
  5
390
  8
回03-記事
  6
CONTINUOUS
 10
1089.050305684421
 20
70.62206692403719
 30
0.0
 40
3.507058114560001
  1
4
  0
TEXT
  5
391
  8
回03-記事
  6
CONTINUOUS
 10
1089.050305684421
 20
82.31226063923873
 30
0.0
 40
3.507058114560001
  1
2
  0
TEXT
  5
392
  8
回03-記事
  6
CONTINUOUS
 10
1089.050305684421
 20
64.77697006643734
 30
0.0
 40
3.507058114560001
  1
5
  0
LINE
  5
393
  8
回03-記事
  6
CONTINUOUS
 10
1093.340125082994
 20
98.84057474015186
 30
0.0
 11
1093.340125082994
 21
57.92489673695195
 31
0.0
  0
LINE
  5
394
  8
回03-記事
  6
CONTINUOUS
 10
1087.25853068401
 20
98.84057474015186
 30
0.0
 11
1087.25853068401
 21
57.92489673695195
 31
0.0
  0
TEXT
  5
395
  8
回03-記事
  6
CONTINUOUS
 10
1089.050305684421
 20
88.15735749683677
 30
0.0
 40
3.507058114560001
  1
1
  0
LINE
  5
396
  8
回03-記事
  6
CONTINUOUS
 10
1087.25853068401
 20
63.7699935945518
 30
0.0
 11
1139.502687880926
 21
63.7699935945518
 31
0.0
  0
LINE
  5
397
  8
回03-記事
  6
CONTINUOUS
 10
1087.25853068401
 20
98.84057474015186
 30
0.0
 11
1139.502687880926
 21
98.84057474015186
 31
0.0
  0
LINE
  5
398
  8
回03-記事
  6
CONTINUOUS
 10
1087.25853068401
 20
87.15038102495304
 30
0.0
 11
1139.502687880926
 21
87.15038102494942
 31
0.0
  0
LINE
  5
399
  8
回03-記事
  6
CONTINUOUS
 10
1087.25853068401
 20
92.9954778825529
 30
0.0
 11
1139.502687880926
 21
92.9954778825529
 31
0.0
  0
LINE
  5
39A
  8
回03-記事
  6
CONTINUOUS
 10
1087.25853068401
 20
69.61509045215257
 30
0.0
 11
1139.502687880926
 21
69.61509045215257
 31
0.0
  0
LINE
  5
39B
  8
回03-記事
  6
CONTINUOUS
 10
1087.25853068401
 20
75.46018730975243
 30
0.0
 11
1139.502687880926
 21
75.46018730975243
 31
0.0
  0
LINE
  5
39C
  8
回03-記事
  6
CONTINUOUS
 10
1087.25853068401
 20
81.30528416735229
 30
0.0
 11
1139.502687880926
 21
81.30528416735229
 31
0.0
  0
TEXT
  5
39D
  8
回03-記事
  6
CONTINUOUS
 10
1093.887525448236
 20
88.08212470714147
 30
0.0
 40
3.507058114560001
  1
ITO FILM
  0
TEXT
  5
39E
  8
回03-記事
  6
CONTINUOUS
 10
1093.887525448236
 20
82.2370278495407
 30
0.0
 40
3.507058114560001
  1
ITO GLASS
  0
TEXT
  5
39F
  8
回03-記事
  6
CONTINUOUS
 10
1093.887525448236
 20
76.39193099193903
 30
0.0
 40
3.507058114560001
  1
TAIL
  0
TEXT
  5
3A0
  8
回04-図面枠
 62
     7
 10
1087.943103270789
 20
30.76959265879378
 30
0.0
 40
5.0
  1
Sep/08/2023
 72
     1
 11
1107.443103270789
 21
30.76959265879378
 31
0.0
  0
TEXT
  5
3A1
  8
回04-図面枠
  6
CONTINUOUS
 62
     7
 10
1102.393833376021
 20
41.70902957441632
 30
0.0
 40
3.0
  1
DATE
  0
TEXT
  5
3A2
  8
回04-図面枠
 62
     7
 10
1112.299550045875
 20
362.8474642359322
 30
0.0
 40
3.6
  1
H
  0
LINE
  5
3A3
  8
回04-図面枠
 62
     7
 10
1081.943103270789
 20
367.0122834224865
 30
0.0
 11
1081.943103270789
 21
362.5122834224864
 31
0.0
  0
LINE
  5
3A4
  8
回04-図面枠
 62
     7
 10
1149.443103270789
 20
293.2122834224863
 30
0.0
 11
1144.943103270789
 21
293.2122834224863
 31
0.0
  0
TEXT
  5
3A5
  8
回04-図面枠
 62
     7
 10
1145.935733341111
 20
256.5721019887599
 30
0.0
 40
3.6
  1
2
  0
LINE
  5
3A6
  8
回04-図面枠
 62
     7
 10
1149.443103270789
 20
223.9122834224861
 30
0.0
 11
1144.943103270789
 21
223.9122834224861
 31
0.0
  0
TEXT
  5
3A7
  8
回04-図面枠
 62
     7
 10
1146.207082174082
 20
325.8721019887596
 30
0.0
 40
3.6
  1
1
  0
TEXT
  5
3A8
  8
回04-図面枠
 62
     7
 10
1145.93080058133
 20
187.2721019887597
 30
0.0
 40
3.6
  1
3
  0
LINE
  5
3A9
  8
回04-図面枠
 62
     7
 10
1149.443103270789
 20
154.6122834224864
 30
0.0
 11
1144.943103270789
 21
154.6122834224864
 31
0.0
  0
TEXT
  5
3AA
  8
回04-図面枠
 62
     7
 10
1145.865017673257
 20
117.9721019887595
 30
0.0
 40
3.6
  1
4
  0
LINE
  5
3AB
  8
回04-図面枠
 62
     7
 10
1149.443103270789
 20
85.31228342248619
 30
0.0
 11
1144.943103270789
 21
85.31228342248619
 31
0.0
  0
TEXT
  5
3AC
  8
回04-図面枠
 62
     7
 10
1145.865017673257
 20
48.67210198875977
 30
0.0
 40
3.6
  1
5
  0
TEXT
  5
3AD
  8
回04-図面枠
 62
     7
 10
1112.299550045875
 20
11.84746423593225
 30
0.0
 40
3.6
  1
H
  0
LINE
  5
3AE
  8
回04-図面枠
 62
     7
 10
1081.943103270789
 20
16.01228342248652
 30
0.0
 11
1081.943103270789
 21
11.51228342248652
 31
0.0
  0
TEXT
  5
3AF
  8
回04-図面枠
 62
     7
 10
1079.494784676133
 20
18.54999125967862
 30
0.0
 40
5.0
  1
DMC Co., Ltd.
 72
     1
 11
1099.369784676133
 21
18.54999125967862
 31
0.0
  0
LINE
  5
3B0
  8
回04-図面枠
 62
     7
 10
1149.443103270789
 20
11.51228342248652
 30
0.0
 11
1149.443103270789
 21
367.0122834224865
 31
0.0
  0
LINE
  5
3B1
  8
回04-図面枠
 62
     7
 10
1144.943103270789
 20
362.5122834224864
 30
0.0
 11
1144.943103270789
 21
16.01228342248652
 31
0.0
  0
TEXT
  5
3B2
  8
回04-図面枠
 62
     7
 10
1049.299550045875
 20
362.8474642359322
 30
0.0
 40
3.6
  1
G
  0
LINE
  5
3B3
  8
回04-図面枠
 62
     7
 10
1018.943103270789
 20
367.0122834224865
 30
0.0
 11
1018.943103270789
 21
362.5122834224864
 31
0.0
  0
TEXT
  5
3B4
  8
回04-図面枠
 62
     7
 10
986.2995500458755
 20
362.8474642359322
 30
0.0
 40
3.6
  1
F
  0
LINE
  5
3B5
  8
回04-図面枠
 62
     7
 10
955.9431032707889
 20
367.0122834224865
 30
0.0
 11
955.9431032707889
 21
362.5122834224864
 31
0.0
  0
TEXT
  5
3B6
  8
回04-図面枠
 62
     7
 10
923.2995500458756
 20
362.8474642359322
 30
0.0
 40
3.6
  1
E
  0
LINE
  5
3B7
  8
回04-図面枠
 62
     7
 10
892.9431032707888
 20
367.0122834224865
 30
0.0
 11
892.9431032707888
 21
362.5122834224864
 31
0.0
  0
TEXT
  5
3B8
  8
回04-図面枠
 62
     7
 10
860.2995500458755
 20
362.8474642359322
 30
0.0
 40
3.6
  1
D
  0
LINE
  5
3B9
  8
回04-図面枠
 62
     7
 10
829.9431032707889
 20
367.0122834224865
 30
0.0
 11
829.9431032707889
 21
362.5122834224864
 31
0.0
  0
TEXT
  5
3BA
  8
回04-図面枠
 62
     7
 10
797.2995500458755
 20
362.8474642359322
 30
0.0
 40
3.6
  1
C
  0
LINE
  5
3BB
  8
回04-図面枠
 62
     7
 10
766.9431032707889
 20
367.0122834224865
 30
0.0
 11
766.9431032707889
 21
362.5122834224864
 31
0.0
  0
TEXT
  5
3BC
  8
回04-図面枠
 62
     7
 10
734.2995500458755
 20
362.8474642359322
 30
0.0
 40
3.6
  1
B
  0
LINE
  5
3BD
  8
回04-図面枠
 62
     7
 10
703.9431032707887
 20
367.0122834224865
 30
0.0
 11
703.9431032707887
 21
362.5122834224864
 31
0.0
  0
TEXT
  5
3BE
  8
回04-図面枠
 62
     7
 10
671.2995500458758
 20
362.8474642359322
 30
0.0
 40
3.6
  1
A
  0
LINE
  5
3BF
  8
回04-図面枠
 62
     7
 10
640.9431032707886
 20
293.2122834224863
 30
0.0
 11
636.4431032707886
 21
293.2122834224863
 31
0.0
  0
TEXT
  5
3C0
  8
回04-図面枠
 62
     7
 10
637.4357333411105
 20
256.5721019887599
 30
0.0
 40
3.6
  1
2
  0
LINE
  5
3C1
  8
回04-図面枠
 62
     7
 10
640.9431032707886
 20
223.9122834224861
 30
0.0
 11
636.4431032707886
 21
223.9122834224861
 31
0.0
  0
TEXT
  5
3C2
  8
回04-図面枠
 62
     7
 10
637.707082174082
 20
325.8721019887596
 30
0.0
 40
3.6
  1
1
  0
TEXT
  5
3C3
  8
回04-図面枠
 62
     7
 10
1015.193103270789
 20
33.50416561771846
 30
0.0
 40
5.0
  1
LST-065B080A
 72
     1
 11
1037.443103270789
 21
33.50416561771846
 31
0.0
  0
TEXT
  5
3C4
  8
回04-図面枠
 62
     7
 10
1027.993103270789
 20
41.95953634184957
 30
0.0
 40
3.0
  1
PART　No.
 72
     1
 11
1037.443103270789
 21
41.95953634184957
 31
0.0
  0
TEXT
  5
3C5
  8
回04-図面枠
 62
     7
 10
1049.299550045875
 20
11.84746423593225
 30
0.0
 40
3.6
  1
G
  0
LINE
  5
3C6
  8
回04-図面枠
 62
     7
 10
1007.943103270789
 20
21.01228342248652
 30
0.0
 11
1066.943103270789
 21
21.01228342248652
 31
0.0
  0
TEXT
  5
3C7
  8
回04-図面枠
 62
     7
 10
1014.102512719608
 20
22.16231415387239
 30
0.0
 40
3.0
  1
STANDARD TOUCHSCREEN
 72
     1
 11
1037.443103270789
 21
22.16231415387239
 31
0.0
  0
TEXT
  5
3C8
  8
回04-図面枠
 62
     7
 10
1020.863001809439
 20
17.16231415387239
 30
0.0
 40
3.0
  1
CIRCUIT　DRAWING
 72
     1
 11
1037.443103270789
 21
17.16231415387239
 31
0.0
  0
LINE
  5
3C9
  8
回04-図面枠
 62
     7
 10
1069.943103270789
 20
46.01228342248646
 30
0.0
 11
1069.943103270789
 21
16.01228342248652
 31
0.0
  0
TEXT
  5
3CA
  8
回04-図面枠
 62
     7
 10
1032.643103270789
 20
26.75590311206162
 30
0.0
 40
3.0
  1
TYPE
 72
     1
 11
1037.443103270789
 21
26.75590311206162
 31
0.0
  0
LINE
  5
3CB
  8
回04-図面枠
 62
     7
 10
1018.943103270789
 20
16.01228342248652
 30
0.0
 11
1018.943103270789
 21
11.51228342248652
 31
0.0
  0
TEXT
  5
3CC
  8
回04-図面枠
 62
     7
 10
986.2995500458755
 20
11.84746423593225
 30
0.0
 40
3.6
  1
F
  0
LINE
  5
3CD
  8
回04-図面枠
 62
     7
 10
1004.943103270789
 20
46.01228342248646
 30
0.0
 11
1004.943103270789
 21
16.01228342248652
 31
0.0
  0
LINE
  5
3CE
  8
回04-図面枠
 62
     7
 10
955.9431032707889
 20
16.01228342248652
 30
0.0
 11
955.9431032707889
 21
11.51228342248652
 31
0.0
  0
TEXT
  5
3CF
  8
回04-図面枠
 62
     7
 10
923.2995500458756
 20
11.84746423593225
 30
0.0
 40
3.6
  1
E
  0
LINE
  5
3D0
  8
回04-図面枠
 62
     7
 10
892.9431032707888
 20
16.01228342248652
 30
0.0
 11
892.9431032707888
 21
11.51228342248652
 31
0.0
  0
TEXT
  5
3D1
  8
回04-図面枠
 62
     7
 10
860.2995500458755
 20
11.84746423593225
 30
0.0
 40
3.6
  1
D
  0
LINE
  5
3D2
  8
回04-図面枠
 62
     7
 10
1004.943103270789
 20
31.01228342248652
 30
0.0
 11
1069.943103270789
 21
31.01228342248652
 31
0.0
  0
LINE
  5
3D3
  8
回04-図面枠
 62
     7
 10
829.9431032707889
 20
16.01228342248652
 30
0.0
 11
829.9431032707889
 21
11.51228342248652
 31
0.0
  0
TEXT
  5
3D4
  8
回04-図面枠
 62
     7
 10
797.2995500458755
 20
11.84746423593225
 30
0.0
 40
3.6
  1
C
  0
LINE
  5
3D5
  8
回04-図面枠
 62
     7
 10
766.9431032707889
 20
16.01228342248652
 30
0.0
 11
766.9431032707889
 21
11.51228342248652
 31
0.0
  0
TEXT
  5
3D6
  8
回04-図面枠
 62
     7
 10
734.2995500458755
 20
11.84746423593225
 30
0.0
 40
3.6
  1
B
  0
TEXT
  5
3D7
  8
回04-図面枠
 62
     7
 10
637.4308005813297
 20
187.2721019887597
 30
0.0
 40
3.6
  1
3
  0
LINE
  5
3D8
  8
回04-図面枠
 62
     7
 10
640.9431032707886
 20
154.6122834224864
 30
0.0
 11
636.4431032707886
 21
154.6122834224864
 31
0.0
  0
TEXT
  5
3D9
  8
回04-図面枠
 62
     7
 10
637.3650176732569
 20
117.9721019887595
 30
0.0
 40
3.6
  1
4
  0
LINE
  5
3DA
  8
回04-図面枠
 62
     7
 10
703.9431032707887
 20
16.01228342248652
 30
0.0
 11
703.9431032707887
 21
11.51228342248652
 31
0.0
  0
TEXT
  5
3DB
  8
回04-図面枠
 62
     7
 10
671.2995500458758
 20
11.84746423593225
 30
0.0
 40
3.6
  1
A
  0
LINE
  5
3DC
  8
回04-図面枠
 62
     7
 10
640.9431032707886
 20
85.31228342248619
 30
0.0
 11
636.4431032707886
 21
85.31228342248619
 31
0.0
  0
TEXT
  5
3DD
  8
回04-図面枠
 62
     7
 10
637.3650176732569
 20
48.67210198875977
 30
0.0
 40
3.6
  1
5
  0
LINE
  5
3DE
  8
回04-図面枠
 62
     7
 10
636.4431032707886
 20
11.51228342248652
 30
0.0
 11
636.4431032707886
 21
367.0122834224865
 31
0.0
  0
LINE
  5
3DF
  8
回04-図面枠
 62
     7
 10
640.9431032707886
 20
362.5122834224864
 30
0.0
 11
640.9431032707886
 21
16.01228342248652
 31
0.0
  0
LINE
  5
3E0
  8
回04-図面枠
 62
     7
 10
640.9431032707886
 20
16.01228342248652
 30
0.0
 11
1144.943103270789
 21
16.01228342248652
 31
0.0
  0
LINE
  5
3E1
  8
回04-図面枠
 62
     7
 10
1149.443103270789
 20
11.51228342248652
 30
0.0
 11
636.4431032707886
 21
11.51228342248652
 31
0.0
  0
LINE
  5
3E2
  8
回04-図面枠
 62
     7
 10
1149.443103270789
 20
367.0122834224865
 30
0.0
 11
636.4431032707886
 21
367.0122834224865
 31
0.0
  0
LINE
  5
3E3
  8
回04-図面枠
 62
     7
 10
640.9431032707886
 20
362.5122834224864
 30
0.0
 11
1144.943103270789
 21
362.5122834224864
 31
0.0
  0
LINE
  5
3E4
  8
回04-図面枠
 62
     7
 10
1004.943103270789
 20
26.01228342248652
 30
0.0
 11
1144.943103270789
 21
26.01228342248652
 31
0.0
  0
LINE
  5
3E5
  8
回04-図面枠
 62
     7
 10
1004.943103270789
 20
46.01228342248646
 30
0.0
 11
1144.943103270789
 21
46.01228342248646
 31
0.0
  0
LINE
  5
3E6
  8
回04-図面枠
 62
     7
 10
1004.943103270789
 20
41.01228342248652
 30
0.0
 11
1144.943103270789
 21
41.01228342248652
 31
0.0
  0
LINE
  5
3E7
  8
回03-記事
  6
CONTINUOUS
 62
     7
 10
1112.650029579309
 20
277.4390669405366
 30
0.0
 11
1112.650029579309
 21
316.4390669405366
 31
0.0
  0
LINE
  5
3E8
  8
回03-記事
  6
CONTINUOUS
 62
     7
 10
1134.100029579309
 20
255.9890669405366
 30
0.0
 11
1134.100029579309
 21
337.8890669405366
 31
0.0
  0
TEXT
  5
3E9
  8
回03-記事
  6
CONTINUOUS
 62
     7
 10
1049.368318647103
 20
313.3771677217151
 30
0.0
 40
6.240000000000001
  1
3
  0
TEXT
  5
3EA
  8
回03-記事
  6
CONTINUOUS
 62
     7
 10
1049.011748937048
 20
335.0285688055751
 30
0.0
 40
6.240000000000001
  1
4
  0
LINE
  5
3EB
  8
回03-記事
  6
CONTINUOUS
 62
     7
 10
1102.97802957931
 20
279.4670669405364
 30
0.0
 11
1105.78602957931
 21
273.8510669405362
 31
0.0
  0
LINE
  5
3EC
  8
回03-記事
  6
CONTINUOUS
 62
     7
 10
1105.78602957931
 20
273.8510669405362
 30
0.0
 11
1107.58002957931
 21
277.4390669405366
 31
0.0
  0
LINE
  5
3ED
  8
回03-記事
  6
CONTINUOUS
 62
     7
 10
1097.36202957931
 20
279.4670669405364
 30
0.0
 11
1100.170029579309
 21
273.8510669405362
 31
0.0
  0
LINE
  5
3EE
  8
回03-記事
  6
CONTINUOUS
 62
     7
 10
1094.554029579311
 20
273.8510669405362
 30
0.0
 11
1097.36202957931
 21
279.4670669405364
 31
0.0
  0
LINE
  5
3EF
  8
回03-記事
  6
CONTINUOUS
 62
     7
 10
1100.170029579309
 20
273.8510669405362
 30
0.0
 11
1102.97802957931
 21
279.4670669405364
 31
0.0
  0
LINE
  5
3F0
  8
回03-記事
  6
CONTINUOUS
 62
     7
 10
1086.13002957931
 20
279.4670669405364
 30
0.0
 11
1088.93802957931
 21
273.8510669405362
 31
0.0
  0
LINE
  5
3F1
  8
回03-記事
  6
CONTINUOUS
 62
     7
 10
1085.66202957931
 20
274.0850669405365
 30
0.0
 11
1091.27802957931
 21
276.8930669405368
 31
0.0
  0
LINE
  5
3F2
  8
回03-記事
  6
CONTINUOUS
 62
     7
 10
1085.66202957931
 20
274.0850669405365
 30
0.0
 11
1091.27802957931
 21
271.277066940537
 31
0.0
  0
LINE
  5
3F3
  8
回03-記事
  6
CONTINUOUS
 62
     7
 10
1085.66202957931
 20
268.4690669405361
 30
0.0
 11
1091.27802957931
 21
271.277066940537
 31
0.0
  0
LINE
  5
3F4
  8
回03-記事
  6
CONTINUOUS
 62
     7
 10
1085.66202957931
 20
262.8530669405366
 30
0.0
 11
1091.27802957931
 21
265.6610669405368
 31
0.0
  0
LINE
  5
3F5
  8
回03-記事
  6
CONTINUOUS
 62
     7
 10
1085.66202957931
 20
268.4690669405361
 30
0.0
 11
1091.27802957931
 21
265.6610669405368
 31
0.0
  0
LINE
  5
3F6
  8
回03-記事
  6
CONTINUOUS
 62
     7
 10
1085.66202957931
 20
279.7010669405361
 30
0.0
 11
1091.27802957931
 21
282.5090669405363
 31
0.0
  0
LINE
  5
3F7
  8
回03-記事
  6
CONTINUOUS
 62
     7
 10
1085.66202957931
 20
285.3170669405365
 30
0.0
 11
1091.27802957931
 21
288.1250669405358
 31
0.0
  0
LINE
  5
3F8
  8
回03-記事
  6
CONTINUOUS
 62
     7
 10
1085.66202957931
 20
285.3170669405365
 30
0.0
 11
1091.27802957931
 21
282.5090669405363
 31
0.0
  0
LINE
  5
3F9
  8
回03-記事
  6
CONTINUOUS
 62
     7
 10
1085.66202957931
 20
279.7010669405361
 30
0.0
 11
1091.27802957931
 21
276.8930669405368
 31
0.0
  0
LINE
  5
3FA
  8
回03-記事
  6
CONTINUOUS
 62
     7
 10
1080.51402957931
 20
279.4670669405364
 30
0.0
 11
1083.32202957931
 21
273.8510669405362
 31
0.0
  0
LINE
  5
3FB
  8
回03-記事
  6
CONTINUOUS
 62
     7
 10
1077.70602957931
 20
273.8510669405362
 30
0.0
 11
1080.51402957931
 21
279.4670669405364
 31
0.0
  0
LINE
  5
3FC
  8
回03-記事
  6
CONTINUOUS
 62
     7
 10
1073.10402957931
 20
275.8790669405364
 30
0.0
 11
1074.89802957931
 21
279.4670669405364
 31
0.0
  0
LINE
  5
3FD
  8
回03-記事
  6
CONTINUOUS
 62
     7
 10
1074.89802957931
 20
279.4670669405364
 30
0.0
 11
1077.70602957931
 21
273.8510669405362
 31
0.0
  0
LINE
  5
3FE
  8
回03-記事
  6
CONTINUOUS
 62
     7
 10
1083.32202957931
 20
273.8510669405362
 30
0.0
 11
1086.13002957931
 21
279.4670669405364
 31
0.0
  0
LINE
  5
3FF
  8
回03-記事
  6
CONTINUOUS
 62
     7
 10
1088.47002957931
 20
289.529066940536
 30
0.0
 11
1088.47002957931
 21
294.2090669405363
 31
0.0
  0
LINE
  5
400
  8
回03-記事
  6
CONTINUOUS
 62
     7
 10
1088.93802957931
 20
273.8510669405362
 30
0.0
 11
1091.74602957931
 21
279.4670669405364
 31
0.0
  0
LINE
  5
401
  8
回03-記事
  6
CONTINUOUS
 62
     7
 10
1088.47002957931
 20
289.529066940536
 30
0.0
 11
1091.27802957931
 21
288.1250669405358
 31
0.0
  0
TEXT
  5
402
  8
回03-記事
  6
CONTINUOUS
 62
     7
 10
1090.002289477438
 20
295.2375208870158
 30
0.0
 40
5.459999999999999
  1
YU
  0
LINE
  5
403
  8
回03-記事
  6
CONTINUOUS
 62
     7
 10
1091.74602957931
 20
279.4670669405364
 30
0.0
 11
1094.554029579311
 21
273.8510669405362
 31
0.0
  0
LINE
  5
404
  8
回03-記事
  6
CONTINUOUS
 62
     7
 10
1088.47002957931
 20
255.9890669405366
 30
0.0
 11
1088.47002957931
 21
261.4490669405364
 31
0.0
  0
LINE
  5
405
  8
回03-記事
  6
CONTINUOUS
 62
     7
 10
1085.66202957931
 20
262.8530669405366
 30
0.0
 11
1088.47002957931
 21
261.4490669405364
 31
0.0
  0
TEXT
  5
406
  8
回03-記事
  6
CONTINUOUS
 62
     7
 10
1074.12690141397
 20
258.2131447991949
 30
0.0
 40
5.459999999999999
  1
YD
  0
TEXT
  5
407
  8
回03-記事
  6
CONTINUOUS
 62
     7
 10
1062.297096404252
 20
278.1662262707814
 30
0.0
 40
5.459999999999999
  1
XL
  0
TEXT
  5
408
  8
回03-記事
  6
CONTINUOUS
 62
     7
 10
1049.610304890694
 20
272.7868666603486
 30
0.0
 40
6.240000000000001
  1
1
  0
TEXT
  5
409
  8
回03-記事
  6
CONTINUOUS
 62
     7
 10
1049.131813595971
 20
291.8361221592654
 30
0.0
 40
6.240000000000001
  1
2
  0
LINE
  5
40A
  8
回03-記事
  6
CONTINUOUS
 62
     7
 10
1055.71002957931
 20
294.2090669405363
 30
0.0
 11
1088.47002957931
 21
294.2090669405363
 31
0.0
  0
LINE
  5
40B
  8
回03-記事
  6
CONTINUOUS
 62
     7
 10
1055.71002957931
 20
275.8790669405364
 30
0.0
 11
1073.10402957931
 21
275.8790669405364
 31
0.0
  0
TEXT
  5
40C
  8
回03-記事
  6
CONTINUOUS
 62
     7
 10
1058.849386711832
 20
237.6840457186907
 30
0.0
 40
8.0
  1
Pin Assignment
  0
LINE
  5
40D
  8
回03-記事
  6
CONTINUOUS
 62
     7
 10
1088.47002957931
 20
255.9890669405366
 30
0.0
 11
1134.100029579309
 21
255.9890669405366
 31
0.0
  0
LINE
  5
40E
  8
回03-記事
  6
CONTINUOUS
 62
     7
 10
1055.71002957931
 20
337.8890669405366
 30
0.0
 11
1134.100029579309
 21
337.8890669405366
 31
0.0
  0
LINE
  5
40F
  8
回03-記事
  6
CONTINUOUS
 62
     7
 10
1055.71002957931
 20
316.4390669405366
 30
0.0
 11
1112.650029579309
 21
316.4390669405366
 31
0.0
  0
LINE
  5
410
  8
回03-記事
  6
CONTINUOUS
 62
     7
 10
1107.58002957931
 20
277.4390669405366
 30
0.0
 11
1112.650029579309
 21
277.4390669405366
 31
0.0
  0
TEXT
  5
411
  8
回03-記事
  6
CONTINUOUS
 62
     7
 10
1107.876647757612
 20
269.4758618632543
 30
0.0
 40
5.459999999999999
  1
XR
  0
ENDSEC
  0
EOF
