  0
SECTION
  2
HEADER
  9
$ACADVER
  1
AC1009
  9
$INSBASE
 10
0.0
 20
0.0
 30
0.0
  9
$EXTMIN
 10
1960.653065691534
 20
23.39663438605615
 30
0.0
  9
$EXTMAX
 10
2473.653065691535
 20
378.8966343860561
 30
0.0
  9
$LIMMIN
 10
0.0
 20
0.0
  9
$LIMMAX
 10
3000.0
 20
2500.0
  9
$ORTHOMODE
 70
     0
  9
$REGENMODE
 70
     1
  9
$FILLMODE
 70
     1
  9
$QTEXTMODE
 70
     0
  9
$MIRRTEXT
 70
     1
  9
$DRAGMODE
 70
     2
  9
$LTSCALE
 40
10.0
  9
$OSMODE
 70
    37
  9
$ATTMODE
 70
     1
  9
$TEXTSIZE
 40
3.0
  9
$TRACEWID
 40
1.0
  9
$TEXTSTYLE
  7
STANDARD
  9
$CLAYER
  8
0
  9
$CELTYPE
  6
CONTINUOUS
  9
$CECOLOR
 62
     7
  9
$DIMSCALE
 40
1.0
  9
$DIMASZ
 40
2.0
  9
$DIMEXO
 40
0.0
  9
$DIMDLI
 40
0.0
  9
$DIMRND
 40
0.0
  9
$DIMDLE
 40
0.0
  9
$DIMEXE
 40
1.0
  9
$DIMTP
 40
0.2
  9
$DIMTM
 40
0.2
  9
$DIMTXT
 40
3.0
  9
$DIMCEN
 40
2.0
  9
$DIMTSZ
 40
0.0
  9
$DIMTOL
 70
     0
  9
$DIMLIM
 70
     0
  9
$DIMTIH
 70
     0
  9
$DIMTOH
 70
     0
  9
$DIMSE1
 70
     0
  9
$DIMSE2
 70
     0
  9
$DIMTAD
 70
     3
  9
$DIMZIN
 70
     8
  9
$DIMBLK
  1
OPEN
  9
$DIMASO
 70
     1
  9
$DIMSHO
 70
     1
  9
$DIMPOST
  1

  9
$DIMAPOST
  1

  9
$DIMALT
 70
     0
  9
$DIMALTD
 70
     3
  9
$DIMALTF
 40
0.03937007874016
  9
$DIMLFAC
 40
1.0
  9
$DIMTOFL
 70
     1
  9
$DIMTVP
 40
0.0
  9
$DIMTIX
 70
     0
  9
$DIMSOXD
 70
     0
  9
$DIMSAH
 70
     0
  9
$DIMBLK1
  1

  9
$DIMBLK2
  1

  9
$DIMSTYLE
  2
DMC
  9
$DIMCLRD
 70
     5
  9
$DIMCLRE
 70
     5
  9
$DIMCLRT
 70
     5
  9
$DIMTFAC
 40
0.7
  9
$DIMGAP
 40
0.5
  9
$LUNITS
 70
     2
  9
$LUPREC
 70
     4
  9
$SKETCHINC
 40
1.0
  9
$FILLETRAD
 40
0.0
  9
$AUNITS
 70
     0
  9
$AUPREC
 70
     0
  9
$MENU
  1
.
  9
$ELEVATION
 40
0.0
  9
$PELEVATION
 40
0.0
  9
$THICKNESS
 40
0.0
  9
$LIMCHECK
 70
     0
  9
$BLIPMODE
 70
     0
  9
$CHAMFERA
 40
10.0
  9
$CHAMFERB
 40
10.0
  9
$SKPOLY
 70
     0
  9
$TDCREATE
 40
2451810.404221065
  9
$TDUPDATE
 40
2460200.380215984
  9
$TDINDWG
 40
4.545215938
  9
$TDUSRTIMER
 40
2458367.347555081
  9
$USRTIMER
 70
     1
  9
$ANGBASE
 50
0.0
  9
$ANGDIR
 70
     0
  9
$PDMODE
 70
     0
  9
$PDSIZE
 40
0.0
  9
$PLINEWID
 40
0.2
  9
$COORDS
 70
     0
  9
$SPLFRAME
 70
     0
  9
$SPLINETYPE
 70
     6
  9
$SPLINESEGS
 70
     8
  9
$ATTDIA
 70
     1
  9
$ATTREQ
 70
     1
  9
$HANDLING
 70
     1
  9
$HANDSEED
  5
783
  9
$SURFTAB1
 70
     6
  9
$SURFTAB2
 70
     6
  9
$SURFTYPE
 70
     6
  9
$SURFU
 70
     6
  9
$SURFV
 70
     6
  9
$UCSNAME
  2

  9
$UCSORG
 10
0.0
 20
0.0
 30
0.0
  9
$UCSXDIR
 10
1.0
 20
0.0
 30
0.0
  9
$UCSYDIR
 10
0.0
 20
1.0
 30
0.0
  9
$PUCSNAME
  2

  9
$PUCSORG
 10
0.0
 20
0.0
 30
0.0
  9
$PUCSXDIR
 10
1.0
 20
0.0
 30
0.0
  9
$PUCSYDIR
 10
0.0
 20
1.0
 30
0.0
  9
$USERI1
 70
     0
  9
$USERI2
 70
     0
  9
$USERI3
 70
     0
  9
$USERI4
 70
     0
  9
$USERI5
 70
     0
  9
$USERR1
 40
0.0
  9
$USERR2
 40
0.0
  9
$USERR3
 40
0.0
  9
$USERR4
 40
0.0
  9
$USERR5
 40
0.0
  9
$WORLDVIEW
 70
     1
  9
$SHADEDGE
 70
     3
  9
$SHADEDIF
 70
    70
  9
$TILEMODE
 70
     1
  9
$MAXACTVP
 70
    64
  9
$PLIMCHECK
 70
     0
  9
$PEXTMIN
 10
1.000000000000000E+20
 20
1.000000000000000E+20
 30
1.000000000000000E+20
  9
$PEXTMAX
 10
-1.000000000000000E+20
 20
-1.000000000000000E+20
 30
-1.000000000000000E+20
  9
$PLIMMIN
 10
0.0
 20
0.0
  9
$PLIMMAX
 10
420.0
 20
297.0
  9
$UNITMODE
 70
     0
  9
$VISRETAIN
 70
     1
  9
$PLINEGEN
 70
     0
  9
$PSLTSCALE
 70
     1
  0
ENDSEC
  0
SECTION
  2
TABLES
  0
TABLE
  2
VPORT
 70
     1
  0
VPORT
  2
*ACTIVE
 70
     0
 10
0.0
 20
0.0
 11
1.0
 21
1.0
 12
2169.784865255365
 22
139.6753904247434
 13
0.0
 23
0.0
 14
10.0
 24
10.0
 15
10.0
 25
10.0
 16
0.0
 26
0.0
 36
1.0
 17
0.0
 27
0.0
 37
0.0
 40
723.5068664760778
 41
0.9460154241645243
 42
50.0
 43
0.0
 44
0.0
 50
0.0
 51
0.0
 71
    16
 72
   500
 73
     1
 74
     1
 75
     0
 76
     0
 77
     0
 78
     0
  0
ENDTAB
  0
TABLE
  2
LTYPE
 70
     3
  0
LTYPE
  2
CONTINUOUS
 70
     0
  3
Solid line
 72
    65
 73
     0
 40
0.0
  0
LTYPE
  2
CENTER2
 70
     0
  3
Center (.5x) ___ _ ___ _ ___ _ ___ _ ___ _ ___
 72
    65
 73
     4
 40
28.575
 49
19.05
 49
-3.174999999999999
 49
3.174999999999999
 49
-3.174999999999999
  0
LTYPE
  2
PHANTOM2
 70
     0
  3
___ _ _ ___ _ _ ___ _ _ ___ _ _ ___ _ _ ___ _ _
 72
    65
 73
     6
 40
1.25
 49
0.625
 49
-0.125
 49
0.125
 49
-0.125
 49
0.125
 49
-0.125
  0
ENDTAB
  0
TABLE
  2
LAYER
 70
     6
  0
LAYER
  2
0
 70
     0
 62
     7
  6
CONTINUOUS
  0
LAYER
  2
DEFPOINTS
 70
     0
 62
     7
  6
CONTINUOUS
  0
LAYER
  2
回04-図面枠
 70
     0
 62
     7
  6
CONTINUOUS
  0
LAYER
  2
回01-TP外形
 70
     0
 62
     7
  6
CONTINUOUS
  0
LAYER
  2
回02-寸法
 70
     0
 62
     7
  6
CONTINUOUS
  0
LAYER
  2
回03-記事
 70
     0
 62
     7
  6
CONTINUOUS
  0
ENDTAB
  0
TABLE
  2
STYLE
 70
     1
  0
STYLE
  2
STANDARD
 70
     0
 40
3.0
 41
1.0
 50
0.0
 71
     0
 42
3.0
  3
isocp.shx
  4
bigfont.shx
  0
ENDTAB
  0
TABLE
  2
VIEW
 70
     0
  0
ENDTAB
  0
TABLE
  2
UCS
 70
     0
  0
ENDTAB
  0
TABLE
  2
APPID
 70
     6
  0
APPID
  2
ACAD
 70
     0
  0
APPID
  2
ACAECLAYERSTANDARD
 70
     0
  0
APPID
  2
ACAD_PSEXT
 70
     0
  0
APPID
  2
ACAD_NAV_VCDISPLAY
 70
     0
  0
APPID
  2
ACAD_MLEADERVER
 70
     0
  0
APPID
  2
ACADSTRINGINFO
 70
     0
  0
ENDTAB
  0
TABLE
  2
DIMSTYLE
 70
     2
  0
DIMSTYLE
  2
DMC
 70
     0
  3

  4

  5
OPEN
  6

  7

 40
1.0
 41
2.0
 42
0.0
 43
0.0
 44
1.0
 45
0.0
 46
0.0
 47
0.0
 48
0.0
140
3.0
141
2.0
142
0.0
143
0.03937007874016
144
1.0
145
0.0
146
0.7
147
0.5
 71
     0
 72
     0
 73
     0
 74
     0
 75
     0
 76
     0
 77
     3
 78
     8
170
     0
171
     3
172
     1
173
     0
174
     0
175
     0
176
     5
177
     5
178
     5
  0
DIMSTYLE
  2
KOUSA
 70
     0
  3

  4

  5

  6
OPEN
  7
OPEN
 40
1.0
 41
2.0
 42
0.0
 43
0.0
 44
1.0
 45
0.0
 46
0.0
 47
0.1
 48
0.1
140
3.0
141
2.0
142
0.0
143
25.4
144
1.0
145
0.0
146
0.7
147
0.5
 71
     1
 72
     0
 73
     0
 74
     0
 75
     0
 76
     0
 77
     3
 78
     8
170
     0
171
     2
172
     1
173
     1
174
     0
175
     0
176
     5
177
     5
178
     5
  0
ENDTAB
  0
ENDSEC
  0
SECTION
  2
BLOCKS
  0
BLOCK
  8
0
  2
$MODEL_SPACE
 70
     0
 10
0.0
 20
0.0
 30
0.0
  3
$MODEL_SPACE
  1

  0
ENDBLK
  8
0
  5
1D
  0
BLOCK
 67
     1
  8
0
  2
$PAPER_SPACE
 70
     0
 10
0.0
 20
0.0
 30
0.0
  3
$PAPER_SPACE
  1

  0
ENDBLK
  5
23
 67
     1
  8
0
  0
BLOCK
  8
0
  2
_OPEN
 70
     0
 10
0.0
 20
0.0
 30
0.0
  3
_OPEN
  1

  0
LINE
  5
11
  8
0
  6
CONTINUOUS
 62
     0
 10
-1.0
 20
0.1666666666666666
 30
0.0
 11
0.0
 21
0.0
 31
0.0
  0
LINE
  5
12
  8
0
  6
CONTINUOUS
 62
     0
 10
-1.0
 20
-0.1666666666666666
 30
0.0
 11
0.0
 21
0.0
 31
0.0
  0
LINE
  5
13
  8
0
  6
CONTINUOUS
 62
     0
 10
0.0
 20
0.0
 30
0.0
 11
-1.0
 21
0.0
 31
0.0
  0
ENDBLK
  5
14
  8
0
  0
BLOCK
  8
0
  2
*D1
 70
     1
 10
0.0
 20
0.0
 30
0.0
  3
*D1
  1

  0
LINE
  5
3BF
  8
回02-寸法
  6
CONTINUOUS
 62
     5
 10
2112.573090193357
 20
220.8685646631113
 30
0.0
 11
2090.599982224504
 21
220.8685646631113
 31
0.0
  0
LINE
  5
3C0
  8
回02-寸法
  6
CONTINUOUS
 62
     5
 10
2112.56891660765
 20
236.8673616288395
 30
0.0
 11
2090.599982224504
 21
236.8673616288395
 31
0.0
  0
LINE
  5
3C1
  8
回02-寸法
  6
CONTINUOUS
 62
     5
 10
2091.599982224503
 20
238.8673616288395
 30
0.0
 11
2091.599982224503
 21
240.8673616288395
 31
0.0
  0
LINE
  5
3C2
  8
回02-寸法
  6
CONTINUOUS
 62
     5
 10
2091.599982224503
 20
218.8685646631113
 30
0.0
 11
2091.599982224503
 21
211.7306050311538
 31
0.0
  0
LINE
  5
3C3
  8
回02-寸法
  6
CONTINUOUS
 62
     5
 10
2091.599982224503
 20
236.8673616288395
 30
0.0
 11
2091.599982224503
 21
220.8685646631113
 31
0.0
  0
INSERT
  5
3C4
  8
回02-寸法
  6
CONTINUOUS
 62
     5
 66
     1
  2
_OPEN
 10
2091.599982224503
 20
236.8673616288395
 30
0.0
 41
2.0
 42
2.0
 43
2.0
 50
270.0
  0
SEQEND
  5
3C5
  8
0
  6
CONTINUOUS
 62
     7
  0
INSERT
  5
3C6
  8
回02-寸法
  6
CONTINUOUS
 62
     5
 66
     1
  2
_OPEN
 10
2091.599982224503
 20
220.8685646631113
 30
0.0
 41
2.0
 42
2.0
 43
2.0
 50
90.0
  0
SEQEND
  5
3C7
  8
0
  6
CONTINUOUS
 62
     7
  0
TEXT
  5
3C8
  8
回02-寸法
  6
CONTINUOUS
 62
     5
 10
2091.099982224503
 20
211.8537619373214
 30
0.0
 40
3.0
  1
16
 50
90.0
1001
ACAD
1000
MTEXTBEGIN
1070
    73
1070
     1
1070
    44
1040
1.0
1070
    74
1070
     0
1000
MTEXTEND
  0
POINT
  5
3C9
  8
DEFPOINTS
  6
CONTINUOUS
 62
     0
 10
2112.573090193357
 20
220.8685646631113
 30
0.0
  0
POINT
  5
3CA
  8
DEFPOINTS
  6
CONTINUOUS
 62
     0
 10
2112.56891660765
 20
236.8673616288395
 30
0.0
  0
POINT
  5
3CB
  8
DEFPOINTS
  6
CONTINUOUS
 62
     0
 10
2091.599982224503
 20
236.8673616288395
 30
0.0
  0
ENDBLK
  5
3CC
  8
0
 62
     7
  0
BLOCK
  8
0
  2
*D2
 70
     1
 10
0.0
 20
0.0
 30
0.0
  3
*D2
  1

  0
LINE
  5
3AE
  8
回02-寸法
  6
CONTINUOUS
 62
     5
 10
2116.760846516015
 20
220.1914403186437
 30
0.0
 11
2116.760846516015
 21
204.8722585752142
 31
0.0
  0
LINE
  5
3AF
  8
回02-寸法
  6
CONTINUOUS
 62
     5
 10
2107.264915395987
 20
225.6503752069028
 30
0.0
 11
2107.264915395987
 21
204.8722585752142
 31
0.0
  0
LINE
  5
3B0
  8
回02-寸法
  6
CONTINUOUS
 62
     5
 10
2118.760846516015
 20
205.8722585752142
 30
0.0
 11
2120.760846516015
 21
205.8722585752142
 31
0.0
  0
LINE
  5
3B1
  8
回02-寸法
  6
CONTINUOUS
 62
     5
 10
2105.264915395987
 20
205.8722585752142
 30
0.0
 11
2096.333544546089
 21
205.8722585752142
 31
0.0
  0
LINE
  5
3B2
  8
回02-寸法
  6
CONTINUOUS
 62
     5
 10
2116.760846516015
 20
205.8722585752142
 30
0.0
 11
2107.264915395987
 21
205.8722585752142
 31
0.0
  0
INSERT
  5
3B3
  8
回02-寸法
  6
CONTINUOUS
 62
     5
 66
     1
  2
_OPEN
 10
2116.760846516015
 20
205.8722585752142
 30
0.0
 41
2.0
 42
2.0
 43
2.0
 50
180.0
  0
SEQEND
  5
3B4
  8
0
  6
CONTINUOUS
 62
     7
  0
INSERT
  5
3B5
  8
回02-寸法
  6
CONTINUOUS
 62
     5
 66
     1
  2
_OPEN
 10
2107.264915395987
 20
205.8722585752142
 30
0.0
 41
2.0
 42
2.0
 43
2.0
  0
SEQEND
  5
3B6
  8
0
  6
CONTINUOUS
 62
     7
  0
TEXT
  5
3B7
  8
回02-寸法
  6
CONTINUOUS
 62
     5
 10
2096.49697750922
 20
206.3722585752142
 30
0.0
 40
3.0
  1
9.5
1001
ACAD
1000
MTEXTBEGIN
1070
    73
1070
     1
1070
    44
1040
1.0
1070
    74
1070
     0
1000
MTEXTEND
  0
POINT
  5
3B8
  8
DEFPOINTS
  6
CONTINUOUS
 62
     0
 10
2116.760846516015
 20
220.1914403186437
 30
0.0
  0
POINT
  5
3B9
  8
DEFPOINTS
  6
CONTINUOUS
 62
     0
 10
2107.264915395987
 20
225.6503752069028
 30
0.0
  0
POINT
  5
3BA
  8
DEFPOINTS
  6
CONTINUOUS
 62
     0
 10
2107.264915395987
 20
205.8722585752142
 30
0.0
  0
ENDBLK
  5
3BB
  8
0
 62
     7
  0
BLOCK
  8
0
  2
*D3
 70
     1
 10
0.0
 20
0.0
 30
0.0
  3
*D3
  1

  0
LINE
  5
39B
  8
回02-寸法
  6
CONTINUOUS
 62
     5
 10
2116.760846516015
 20
220.1914403186439
 30
0.0
 11
2116.760846516015
 21
212.535288512201
 31
0.0
  0
LINE
  5
39C
  8
回02-寸法
  6
CONTINUOUS
 62
     5
 10
2112.160344003452
 20
220.9577185824149
 30
0.0
 11
2112.160344003452
 21
212.535288512201
 31
0.0
  0
LINE
  5
39D
  8
回02-寸法
  6
CONTINUOUS
 62
     5
 10
2118.760846516015
 20
213.535288512201
 30
0.0
 11
2120.760846516015
 21
213.535288512201
 31
0.0
  0
LINE
  5
39E
  8
回02-寸法
  6
CONTINUOUS
 62
     5
 10
2110.160344003452
 20
213.535288512201
 30
0.0
 11
2099.201584249422
 21
213.535288512201
 31
0.0
  0
LINE
  5
39F
  8
回02-寸法
  6
CONTINUOUS
 62
     5
 10
2116.760846516015
 20
213.535288512201
 30
0.0
 11
2112.160344003452
 21
213.535288512201
 31
0.0
  0
INSERT
  5
3A0
  8
回02-寸法
  6
CONTINUOUS
 62
     5
 66
     1
  2
_OPEN
 10
2116.760846516015
 20
213.535288512201
 30
0.0
 41
2.0
 42
2.0
 43
2.0
 50
180.0
  0
SEQEND
  5
3A1
  8
0
  6
CONTINUOUS
 62
     7
  0
INSERT
  5
3A2
  8
回02-寸法
  6
CONTINUOUS
 62
     5
 66
     1
  2
_OPEN
 10
2112.160344003452
 20
213.535288512201
 30
0.0
 41
2.0
 42
2.0
 43
2.0
  0
SEQEND
  5
3A3
  8
0
  6
CONTINUOUS
 62
     7
  0
TEXT
  5
3A4
  8
回02-寸法
  6
CONTINUOUS
 62
     5
 10
2099.324741155589
 20
214.0352885122009
 30
0.0
 40
3.0
  1
4.6
1001
ACAD
1000
MTEXTBEGIN
1070
    73
1070
     1
1070
    44
1040
1.0
1070
    74
1070
     0
1000
MTEXTEND
  0
POINT
  5
3A5
  8
DEFPOINTS
  6
CONTINUOUS
 62
     0
 10
2116.760846516015
 20
220.1914403186439
 30
0.0
  0
POINT
  5
3A6
  8
DEFPOINTS
  6
CONTINUOUS
 62
     0
 10
2112.160344003452
 20
220.9577185824149
 30
0.0
  0
POINT
  5
3A7
  8
DEFPOINTS
  6
CONTINUOUS
 62
     0
 10
2112.160344003452
 20
213.535288512201
 30
0.0
  0
ENDBLK
  5
3A8
  8
0
 62
     7
  0
BLOCK
  8
0
  2
*D4
 70
     1
 10
0.0
 20
0.0
 30
0.0
  3
*D4
  1

  0
LINE
  5
31A
  8
回02-寸法
 62
     5
 10
2246.435846516016
 20
196.8685646631112
 30
0.0
 11
2256.059613381891
 21
196.8685646631112
 31
0.0
  0
LINE
  5
31B
  8
回02-寸法
 62
     5
 10
2246.435846516016
 20
192.8685646631112
 30
0.0
 11
2256.059613381891
 21
192.8685646631112
 31
0.0
  0
LINE
  5
31C
  8
回02-寸法
 62
     5
 10
2255.059613381891
 20
198.8685646631112
 30
0.0
 11
2255.059613381891
 21
200.8685646631112
 31
0.0
  0
LINE
  5
31D
  8
回02-寸法
 62
     5
 10
2255.059613381891
 20
190.8685646631112
 30
0.0
 11
2255.059613381891
 21
186.3685646631111
 31
0.0
  0
LINE
  5
31E
  8
回02-寸法
 62
     5
 10
2255.059613381891
 20
196.8685646631112
 30
0.0
 11
2255.059613381891
 21
192.8685646631112
 31
0.0
  0
INSERT
  5
31F
  8
回02-寸法
 62
     5
 66
     1
  2
_OPEN
 10
2255.059613381891
 20
196.8685646631112
 30
0.0
 41
2.0
 42
2.0
 43
2.0
 50
270.0
  0
SEQEND
  5
320
  8
0
  6
CONTINUOUS
 62
     7
  0
INSERT
  5
321
  8
回02-寸法
 62
     5
 66
     1
  2
_OPEN
 10
2255.059613381891
 20
192.8685646631112
 30
0.0
 41
2.0
 42
2.0
 43
2.0
 50
90.0
  0
SEQEND
  5
322
  8
0
  6
CONTINUOUS
 62
     7
  0
TEXT
  5
323
  8
回02-寸法
 62
     5
 10
2254.559613381891
 20
186.4185646631108
 30
0.0
 40
3.0
  1
4
 50
90.0
1001
ACAD
1000
MTEXTBEGIN
1070
    73
1070
     1
1070
    44
1040
1.0
1070
    74
1070
     0
1000
MTEXTEND
  0
POINT
  5
324
  8
DEFPOINTS
 62
     0
 10
2246.435846516016
 20
196.8685646631112
 30
0.0
  0
POINT
  5
325
  8
DEFPOINTS
 62
     0
 10
2246.435846516016
 20
192.8685646631112
 30
0.0
  0
POINT
  5
326
  8
DEFPOINTS
 62
     0
 10
2255.059613381891
 20
192.8685646631112
 30
0.0
  0
ENDBLK
  5
327
  8
0
 62
     7
  0
BLOCK
  8
0
  2
*D5
 70
     1
 10
0.0
 20
0.0
 30
0.0
  3
*D5
  1

  0
LINE
  5
309
  8
回02-寸法
 62
     5
 10
2246.435846516015
 20
192.8685646631111
 30
0.0
 11
2246.435846516015
 21
185.2004390016386
 31
0.0
  0
LINE
  5
30A
  8
回02-寸法
 62
     5
 10
2242.435846516015
 20
192.8685646631111
 30
0.0
 11
2242.435846516015
 21
185.2004390016386
 31
0.0
  0
LINE
  5
30B
  8
回02-寸法
 62
     5
 10
2248.435846516015
 20
186.2004390016386
 30
0.0
 11
2250.435846516015
 21
186.2004390016386
 31
0.0
  0
LINE
  5
30C
  8
回02-寸法
 62
     5
 10
2240.435846516015
 20
186.2004390016386
 30
0.0
 11
2235.935846516015
 21
186.2004390016386
 31
0.0
  0
LINE
  5
30D
  8
回02-寸法
 62
     5
 10
2246.435846516015
 20
186.2004390016386
 30
0.0
 11
2242.435846516015
 21
186.2004390016386
 31
0.0
  0
INSERT
  5
30E
  8
回02-寸法
 62
     5
 66
     1
  2
_OPEN
 10
2246.435846516015
 20
186.2004390016386
 30
0.0
 41
2.0
 42
2.0
 43
2.0
 50
180.0
  0
SEQEND
  5
30F
  8
0
  6
CONTINUOUS
 62
     7
  0
INSERT
  5
310
  8
回02-寸法
 62
     5
 66
     1
  2
_OPEN
 10
2242.435846516015
 20
186.2004390016386
 30
0.0
 41
2.0
 42
2.0
 43
2.0
  0
SEQEND
  5
311
  8
0
  6
CONTINUOUS
 62
     7
  0
TEXT
  5
312
  8
回02-寸法
 62
     5
 10
2235.985846516015
 20
186.7004390016386
 30
0.0
 40
3.0
  1
4
1001
ACAD
1000
MTEXTBEGIN
1070
    73
1070
     1
1070
    44
1040
1.0
1070
    74
1070
     0
1000
MTEXTEND
  0
POINT
  5
313
  8
DEFPOINTS
 62
     0
 10
2246.435846516015
 20
192.8685646631111
 30
0.0
  0
POINT
  5
314
  8
DEFPOINTS
 62
     0
 10
2242.435846516015
 20
192.8685646631111
 30
0.0
  0
POINT
  5
315
  8
DEFPOINTS
 62
     0
 10
2242.435846516015
 20
186.2004390016386
 30
0.0
  0
ENDBLK
  5
316
  8
0
 62
     7
  0
BLOCK
  8
0
  2
*D6
 70
     1
 10
0.0
 20
0.0
 30
0.0
  3
*D6
  1

  0
LINE
  5
2F8
  8
回02-寸法
  6
CONTINUOUS
 62
     5
 10
2124.960846516015
 20
293.018564663111
 30
0.0
 11
2124.960846516015
 21
315.7429868913233
 31
0.0
  0
LINE
  5
2F9
  8
回02-寸法
  6
CONTINUOUS
 62
     5
 10
2295.860846516015
 20
293.018564663111
 30
0.0
 11
2295.860846516015
 21
315.7429868913233
 31
0.0
  0
LINE
  5
2FA
  8
回02-寸法
  6
CONTINUOUS
 62
     5
 10
2126.960846516015
 20
314.7429868913233
 30
0.0
 11
2293.860846516015
 21
314.7429868913233
 31
0.0
  0
INSERT
  5
2FB
  8
回02-寸法
  6
CONTINUOUS
 62
     5
 66
     1
  2
_OPEN
 10
2124.960846516015
 20
314.7429868913233
 30
0.0
 41
2.0
 42
2.0
 43
2.0
 50
180.0
  0
SEQEND
  5
2FC
  8
0
  6
CONTINUOUS
 62
     7
  0
INSERT
  5
2FD
  8
回02-寸法
  6
CONTINUOUS
 62
     5
 66
     1
  2
_OPEN
 10
2295.860846516015
 20
314.7429868913233
 30
0.0
 41
2.0
 42
2.0
 43
2.0
  0
SEQEND
  5
2FE
  8
0
  6
CONTINUOUS
 62
     7
  0
TEXT
  5
2FF
  8
回02-寸法
  6
CONTINUOUS
 62
     5
 10
2193.306021514406
 20
315.3929868913233
 30
0.0
 40
3.0
  1
170.9 (Active area)
1001
ACAD
1000
MTEXTBEGIN
1070
    73
1070
     1
1070
    44
1040
1.0
1070
    74
1070
     0
1000
MTEXTEND
  0
POINT
  5
300
  8
DEFPOINTS
  6
CONTINUOUS
 62
     0
 10
2124.960846516015
 20
293.018564663111
 30
0.0
  0
POINT
  5
301
  8
DEFPOINTS
  6
CONTINUOUS
 62
     0
 10
2295.860846516015
 20
293.018564663111
 30
0.0
  0
POINT
  5
302
  8
DEFPOINTS
  6
CONTINUOUS
 62
     0
 10
2295.860846516015
 20
314.7429868913233
 30
0.0
  0
ENDBLK
  5
303
  8
0
 62
     7
  0
BLOCK
  8
0
  2
*D7
 70
     1
 10
0.0
 20
0.0
 30
0.0
  3
*D7
  1

  0
LINE
  5
2E9
  8
回02-寸法
  6
CONTINUOUS
 62
     5
 10
2122.960846516015
 20
295.018564663111
 30
0.0
 11
2122.960846516015
 21
323.1252737337797
 31
0.0
  0
LINE
  5
2EA
  8
回02-寸法
  6
CONTINUOUS
 62
     5
 10
2297.860846516015
 20
295.018564663111
 30
0.0
 11
2297.860846516015
 21
323.1252737337797
 31
0.0
  0
LINE
  5
2EB
  8
回02-寸法
  6
CONTINUOUS
 62
     5
 10
2124.960846516015
 20
322.1252737337796
 30
0.0
 11
2295.860846516015
 21
322.1252737337796
 31
0.0
  0
INSERT
  5
2EC
  8
回02-寸法
  6
CONTINUOUS
 62
     5
 66
     1
  2
_OPEN
 10
2122.960846516015
 20
322.1252737337796
 30
0.0
 41
2.0
 42
2.0
 43
2.0
 50
180.0
  0
SEQEND
  5
2ED
  8
0
  6
CONTINUOUS
 62
     7
  0
INSERT
  5
2EE
  8
回02-寸法
  6
CONTINUOUS
 62
     5
 66
     1
  2
_OPEN
 10
2297.860846516015
 20
322.1252737337796
 30
0.0
 41
2.0
 42
2.0
 43
2.0
  0
SEQEND
  5
2EF
  8
0
  6
CONTINUOUS
 62
     7
  0
TEXT
  5
2F0
  8
回02-寸法
  6
CONTINUOUS
 62
     5
 10
2192.106021514406
 20
323.4296392638411
 30
0.0
 40
3.0
  1
174.9 (Viewing area)
1001
ACAD
1000
MTEXTBEGIN
1070
    73
1070
     1
1070
    44
1040
1.0
1070
    74
1070
     0
1000
MTEXTEND
  0
POINT
  5
2F1
  8
DEFPOINTS
  6
CONTINUOUS
 62
     0
 10
2122.960846516015
 20
295.018564663111
 30
0.0
  0
POINT
  5
2F2
  8
DEFPOINTS
  6
CONTINUOUS
 62
     0
 10
2297.860846516015
 20
295.018564663111
 30
0.0
  0
POINT
  5
2F3
  8
DEFPOINTS
  6
CONTINUOUS
 62
     0
 10
2297.860846516015
 20
322.1252737337796
 30
0.0
  0
ENDBLK
  5
2F4
  8
0
 62
     7
  0
BLOCK
  8
0
  2
*D8
 70
     1
 10
0.0
 20
0.0
 30
0.0
  3
*D8
  1

  0
LINE
  5
2DA
  8
回02-寸法
  6
CONTINUOUS
 62
     5
 10
2122.460846516014
 20
295.818564663111
 30
0.0
 11
2122.460846516014
 21
330.7762129995714
 31
0.0
  0
LINE
  5
2DB
  8
回02-寸法
  6
CONTINUOUS
 62
     5
 10
2298.360846516015
 20
295.8185646631109
 30
0.0
 11
2298.360846516015
 21
330.7762129995714
 31
0.0
  0
LINE
  5
2DC
  8
回02-寸法
  6
CONTINUOUS
 62
     5
 10
2124.460846516015
 20
329.7762129995714
 30
0.0
 11
2296.360846516015
 21
329.7762129995714
 31
0.0
  0
INSERT
  5
2DD
  8
回02-寸法
  6
CONTINUOUS
 62
     5
 66
     1
  2
_OPEN
 10
2122.460846516014
 20
329.7762129995714
 30
0.0
 41
2.0
 42
2.0
 43
2.0
 50
180.0
  0
SEQEND
  5
2DE
  8
0
  6
CONTINUOUS
 62
     7
  0
INSERT
  5
2DF
  8
回02-寸法
  6
CONTINUOUS
 62
     5
 66
     1
  2
_OPEN
 10
2298.360846516015
 20
329.7762129995714
 30
0.0
 41
2.0
 42
2.0
 43
2.0
  0
SEQEND
  5
2E0
  8
0
  6
CONTINUOUS
 62
     7
  0
TEXT
  5
2E1
  8
回02-寸法
  6
CONTINUOUS
 62
     5
 10
2206.055430963225
 20
330.2762129995714
 30
0.0
 40
3.0
  1
175.9
1001
ACAD
1000
MTEXTBEGIN
1070
    73
1070
     1
1070
    44
1040
1.0
1070
    74
1070
     0
1000
MTEXTEND
  0
POINT
  5
2E2
  8
DEFPOINTS
  6
CONTINUOUS
 62
     0
 10
2122.460846516014
 20
295.818564663111
 30
0.0
  0
POINT
  5
2E3
  8
DEFPOINTS
  6
CONTINUOUS
 62
     0
 10
2298.360846516015
 20
295.8185646631109
 30
0.0
  0
POINT
  5
2E4
  8
DEFPOINTS
  6
CONTINUOUS
 62
     0
 10
2298.360846516015
 20
329.7762129995714
 30
0.0
  0
ENDBLK
  5
2E5
  8
0
 62
     7
  0
BLOCK
  8
0
  2
*D9
 70
     1
 10
0.0
 20
0.0
 30
0.0
  3
*D9
  1

  0
LINE
  5
2C9
  8
回02-寸法
  6
CONTINUOUS
 62
     5
 10
2295.860846516015
 20
293.018564663111
 30
0.0
 11
2295.860846516015
 21
315.7429868913233
 31
0.0
  0
LINE
  5
2CA
  8
回02-寸法
  6
CONTINUOUS
 62
     5
 10
2302.360846516015
 20
300.5185646631107
 30
0.0
 11
2302.360846516015
 21
315.7429868913233
 31
0.0
  0
LINE
  5
2CB
  8
回02-寸法
  6
CONTINUOUS
 62
     5
 10
2293.860846516015
 20
314.7429868913233
 30
0.0
 11
2291.860846516015
 21
314.7429868913233
 31
0.0
  0
LINE
  5
2CC
  8
回02-寸法
  6
CONTINUOUS
 62
     5
 10
2304.360846516015
 20
314.7429868913233
 30
0.0
 11
2313.958484311291
 21
314.7429868913233
 31
0.0
  0
LINE
  5
2CD
  8
回02-寸法
  6
CONTINUOUS
 62
     5
 10
2295.860846516015
 20
314.7429868913233
 30
0.0
 11
2302.360846516015
 21
314.7429868913233
 31
0.0
  0
INSERT
  5
2CE
  8
回02-寸法
  6
CONTINUOUS
 62
     5
 66
     1
  2
_OPEN
 10
2295.860846516015
 20
314.7429868913233
 30
0.0
 41
2.0
 42
2.0
 43
2.0
  0
SEQEND
  5
2CF
  8
0
  6
CONTINUOUS
 62
     7
  0
INSERT
  5
2D0
  8
回02-寸法
  6
CONTINUOUS
 62
     5
 66
     1
  2
_OPEN
 10
2302.360846516015
 20
314.7429868913233
 30
0.0
 41
2.0
 42
2.0
 43
2.0
 50
180.0
  0
SEQEND
  5
2D1
  8
0
  6
CONTINUOUS
 62
     7
  0
TEXT
  5
2D2
  8
回02-寸法
  6
CONTINUOUS
 62
     5
 10
2306.409665413653
 20
315.3929868913233
 30
0.0
 40
3.0
  1
(6.5)
1001
ACAD
1000
MTEXTBEGIN
1070
    73
1070
     1
1070
    44
1040
1.0
1070
    74
1070
     0
1000
MTEXTEND
  0
POINT
  5
2D3
  8
DEFPOINTS
  6
CONTINUOUS
 62
     0
 10
2295.860846516015
 20
293.018564663111
 30
0.0
  0
POINT
  5
2D4
  8
DEFPOINTS
  6
CONTINUOUS
 62
     0
 10
2302.360846516015
 20
300.5185646631107
 30
0.0
  0
POINT
  5
2D5
  8
DEFPOINTS
  6
CONTINUOUS
 62
     0
 10
2302.360846516015
 20
314.7429868913233
 30
0.0
  0
ENDBLK
  5
2D6
  8
0
 62
     7
  0
BLOCK
  8
0
  2
*D10
 70
     1
 10
0.0
 20
0.0
 30
0.0
  3
*D10
  1

  0
LINE
  5
2B8
  8
回02-寸法
  6
CONTINUOUS
 62
     5
 10
2297.860846516015
 20
295.018564663111
 30
0.0
 11
2297.860846516015
 21
323.1252737337797
 31
0.0
  0
LINE
  5
2B9
  8
回02-寸法
  6
CONTINUOUS
 62
     5
 10
2302.360846516015
 20
300.5185646631107
 30
0.0
 11
2302.360846516015
 21
323.1252737337797
 31
0.0
  0
LINE
  5
2BA
  8
回02-寸法
  6
CONTINUOUS
 62
     5
 10
2295.860846516015
 20
322.1252737337796
 30
0.0
 11
2293.860846516015
 21
322.1252737337796
 31
0.0
  0
LINE
  5
2BB
  8
回02-寸法
  6
CONTINUOUS
 62
     5
 10
2304.360846516015
 20
322.1252737337796
 30
0.0
 11
2314.25848431129
 21
322.1252737337796
 31
0.0
  0
LINE
  5
2BC
  8
回02-寸法
  6
CONTINUOUS
 62
     5
 10
2297.860846516015
 20
322.1252737337796
 30
0.0
 11
2302.360846516015
 21
322.1252737337796
 31
0.0
  0
INSERT
  5
2BD
  8
回02-寸法
  6
CONTINUOUS
 62
     5
 66
     1
  2
_OPEN
 10
2297.860846516015
 20
322.1252737337796
 30
0.0
 41
2.0
 42
2.0
 43
2.0
  0
SEQEND
  5
2BE
  8
0
  6
CONTINUOUS
 62
     7
  0
INSERT
  5
2BF
  8
回02-寸法
  6
CONTINUOUS
 62
     5
 66
     1
  2
_OPEN
 10
2302.360846516015
 20
322.1252737337796
 30
0.0
 41
2.0
 42
2.0
 43
2.0
 50
180.0
  0
SEQEND
  5
2C0
  8
0
  6
CONTINUOUS
 62
     7
  0
TEXT
  5
2C1
  8
回02-寸法
  6
CONTINUOUS
 62
     5
 10
2306.409665413653
 20
322.7752737337796
 30
0.0
 40
3.0
  1
(4.5)
1001
ACAD
1000
MTEXTBEGIN
1070
    73
1070
     1
1070
    44
1040
1.0
1070
    74
1070
     0
1000
MTEXTEND
  0
POINT
  5
2C2
  8
DEFPOINTS
  6
CONTINUOUS
 62
     0
 10
2297.860846516015
 20
295.018564663111
 30
0.0
  0
POINT
  5
2C3
  8
DEFPOINTS
  6
CONTINUOUS
 62
     0
 10
2302.360846516015
 20
300.5185646631107
 30
0.0
  0
POINT
  5
2C4
  8
DEFPOINTS
  6
CONTINUOUS
 62
     0
 10
2302.360846516015
 20
322.1252737337796
 30
0.0
  0
ENDBLK
  5
2C5
  8
0
 62
     7
  0
BLOCK
  8
0
  2
*D11
 70
     1
 10
0.0
 20
0.0
 30
0.0
  3
*D11
  1

  0
LINE
  5
2A7
  8
回02-寸法
  6
CONTINUOUS
 62
     5
 10
2298.360846516015
 20
295.8185646631109
 30
0.0
 11
2298.360846516015
 21
330.7762129995714
 31
0.0
  0
LINE
  5
2A8
  8
回02-寸法
  6
CONTINUOUS
 62
     5
 10
2302.360846516015
 20
300.5185646631107
 30
0.0
 11
2302.360846516015
 21
330.7762129995714
 31
0.0
  0
LINE
  5
2A9
  8
回02-寸法
  6
CONTINUOUS
 62
     5
 10
2296.360846516015
 20
329.7762129995714
 30
0.0
 11
2294.360846516015
 21
329.7762129995714
 31
0.0
  0
LINE
  5
2AA
  8
回02-寸法
  6
CONTINUOUS
 62
     5
 10
2304.360846516015
 20
329.7762129995714
 30
0.0
 11
2311.258484311291
 21
329.7762129995714
 31
0.0
  0
LINE
  5
2AB
  8
回02-寸法
  6
CONTINUOUS
 62
     5
 10
2298.360846516015
 20
329.7762129995714
 30
0.0
 11
2302.360846516015
 21
329.7762129995714
 31
0.0
  0
INSERT
  5
2AC
  8
回02-寸法
  6
CONTINUOUS
 62
     5
 66
     1
  2
_OPEN
 10
2298.360846516015
 20
329.7762129995714
 30
0.0
 41
2.0
 42
2.0
 43
2.0
  0
SEQEND
  5
2AD
  8
0
  6
CONTINUOUS
 62
     7
  0
INSERT
  5
2AE
  8
回02-寸法
  6
CONTINUOUS
 62
     5
 66
     1
  2
_OPEN
 10
2302.360846516015
 20
329.7762129995714
 30
0.0
 41
2.0
 42
2.0
 43
2.0
 50
180.0
  0
SEQEND
  5
2AF
  8
0
  6
CONTINUOUS
 62
     7
  0
TEXT
  5
2B0
  8
回02-寸法
  6
CONTINUOUS
 62
     5
 10
2306.409665413653
 20
330.4262129995714
 30
0.0
 40
3.0
  1
(4)
1001
ACAD
1000
MTEXTBEGIN
1070
    73
1070
     1
1070
    44
1040
1.0
1070
    74
1070
     0
1000
MTEXTEND
  0
POINT
  5
2B1
  8
DEFPOINTS
  6
CONTINUOUS
 62
     0
 10
2298.360846516015
 20
295.8185646631109
 30
0.0
  0
POINT
  5
2B2
  8
DEFPOINTS
  6
CONTINUOUS
 62
     0
 10
2302.360846516015
 20
300.5185646631107
 30
0.0
  0
POINT
  5
2B3
  8
DEFPOINTS
  6
CONTINUOUS
 62
     0
 10
2302.360846516015
 20
329.7762129995714
 30
0.0
  0
ENDBLK
  5
2B4
  8
0
 62
     7
  0
BLOCK
  8
0
  2
*D12
 70
     1
 10
0.0
 20
0.0
 30
0.0
  3
*D12
  1

  0
LINE
  5
296
  8
回02-寸法
  6
CONTINUOUS
 62
     5
 10
2124.960846516015
 20
293.018564663111
 30
0.0
 11
2124.960846516015
 21
315.7429868913233
 31
0.0
  0
LINE
  5
297
  8
回02-寸法
  6
CONTINUOUS
 62
     5
 10
2116.760846516015
 20
300.5185646631109
 30
0.0
 11
2116.760846516015
 21
315.7429868913233
 31
0.0
  0
LINE
  5
298
  8
回02-寸法
  6
CONTINUOUS
 62
     5
 10
2126.960846516015
 20
314.7429868913233
 30
0.0
 11
2128.960846516015
 21
314.7429868913233
 31
0.0
  0
LINE
  5
299
  8
回02-寸法
  6
CONTINUOUS
 62
     5
 10
2114.760846516015
 20
314.7429868913233
 30
0.0
 11
2107.380669350661
 21
314.7429868913233
 31
0.0
  0
LINE
  5
29A
  8
回02-寸法
  6
CONTINUOUS
 62
     5
 10
2124.960846516015
 20
314.7429868913233
 30
0.0
 11
2116.760846516015
 21
314.7429868913233
 31
0.0
  0
INSERT
  5
29B
  8
回02-寸法
  6
CONTINUOUS
 62
     5
 66
     1
  2
_OPEN
 10
2124.960846516015
 20
314.7429868913233
 30
0.0
 41
2.0
 42
2.0
 43
2.0
 50
180.0
  0
SEQEND
  5
29C
  8
0
  6
CONTINUOUS
 62
     7
  0
INSERT
  5
29D
  8
回02-寸法
  6
CONTINUOUS
 62
     5
 66
     1
  2
_OPEN
 10
2116.760846516015
 20
314.7429868913233
 30
0.0
 41
2.0
 42
2.0
 43
2.0
  0
SEQEND
  5
29E
  8
0
  6
CONTINUOUS
 62
     7
  0
TEXT
  5
29F
  8
回02-寸法
  6
CONTINUOUS
 62
     5
 10
2107.520426247997
 20
315.2432821669139
 30
0.0
 40
3.0
  1
8.2
1001
ACAD
1000
MTEXTBEGIN
1070
    73
1070
     1
1070
    44
1040
1.0
1070
    74
1070
     0
1000
MTEXTEND
  0
POINT
  5
2A0
  8
DEFPOINTS
  6
CONTINUOUS
 62
     0
 10
2124.960846516015
 20
293.018564663111
 30
0.0
  0
POINT
  5
2A1
  8
DEFPOINTS
  6
CONTINUOUS
 62
     0
 10
2116.760846516015
 20
300.5185646631109
 30
0.0
  0
POINT
  5
2A2
  8
DEFPOINTS
  6
CONTINUOUS
 62
     0
 10
2116.760846516015
 20
314.7429868913233
 30
0.0
  0
ENDBLK
  5
2A3
  8
0
 62
     7
  0
BLOCK
  8
0
  2
*D13
 70
     1
 10
0.0
 20
0.0
 30
0.0
  3
*D13
  1

  0
LINE
  5
285
  8
回02-寸法
  6
CONTINUOUS
 62
     5
 10
2122.960846516015
 20
295.018564663111
 30
0.0
 11
2122.960846516015
 21
323.1252737337797
 31
0.0
  0
LINE
  5
286
  8
回02-寸法
  6
CONTINUOUS
 62
     5
 10
2116.760846516015
 20
300.5185646631109
 30
0.0
 11
2116.760846516015
 21
323.1252737337797
 31
0.0
  0
LINE
  5
287
  8
回02-寸法
  6
CONTINUOUS
 62
     5
 10
2124.960846516015
 20
322.1252737337796
 30
0.0
 11
2126.960846516015
 21
322.1252737337796
 31
0.0
  0
LINE
  5
288
  8
回02-寸法
  6
CONTINUOUS
 62
     5
 10
2114.760846516015
 20
322.1252737337796
 30
0.0
 11
2107.201141791605
 21
322.1252737337796
 31
0.0
  0
LINE
  5
289
  8
回02-寸法
  6
CONTINUOUS
 62
     5
 10
2122.960846516015
 20
322.1252737337796
 30
0.0
 11
2116.760846516015
 21
322.1252737337796
 31
0.0
  0
INSERT
  5
28A
  8
回02-寸法
  6
CONTINUOUS
 62
     5
 66
     1
  2
_OPEN
 10
2122.960846516015
 20
322.1252737337796
 30
0.0
 41
2.0
 42
2.0
 43
2.0
 50
180.0
  0
SEQEND
  5
28B
  8
0
  6
CONTINUOUS
 62
     7
  0
INSERT
  5
28C
  8
回02-寸法
  6
CONTINUOUS
 62
     5
 66
     1
  2
_OPEN
 10
2116.760846516015
 20
322.1252737337796
 30
0.0
 41
2.0
 42
2.0
 43
2.0
  0
SEQEND
  5
28D
  8
0
  6
CONTINUOUS
 62
     7
  0
TEXT
  5
28E
  8
回02-寸法
  6
CONTINUOUS
 62
     5
 10
2107.43066246847
 20
322.6255690093702
 30
0.0
 40
3.0
  1
6.2
1001
ACAD
1000
MTEXTBEGIN
1070
    73
1070
     1
1070
    44
1040
1.0
1070
    74
1070
     0
1000
MTEXTEND
  0
POINT
  5
28F
  8
DEFPOINTS
  6
CONTINUOUS
 62
     0
 10
2122.960846516015
 20
295.018564663111
 30
0.0
  0
POINT
  5
290
  8
DEFPOINTS
  6
CONTINUOUS
 62
     0
 10
2116.760846516015
 20
300.5185646631109
 30
0.0
  0
POINT
  5
291
  8
DEFPOINTS
  6
CONTINUOUS
 62
     0
 10
2116.760846516015
 20
322.1252737337796
 30
0.0
  0
ENDBLK
  5
292
  8
0
 62
     7
  0
BLOCK
  8
0
  2
*D14
 70
     1
 10
0.0
 20
0.0
 30
0.0
  3
*D14
  1

  0
LINE
  5
274
  8
回02-寸法
  6
CONTINUOUS
 62
     5
 10
2122.460846516014
 20
295.818564663111
 30
0.0
 11
2122.460846516014
 21
330.7762129995714
 31
0.0
  0
LINE
  5
275
  8
回02-寸法
  6
CONTINUOUS
 62
     5
 10
2116.760846516015
 20
300.5185646631109
 30
0.0
 11
2116.760846516015
 21
330.7762129995714
 31
0.0
  0
LINE
  5
276
  8
回02-寸法
  6
CONTINUOUS
 62
     5
 10
2124.460846516015
 20
329.7762129995714
 30
0.0
 11
2126.460846516014
 21
329.7762129995714
 31
0.0
  0
LINE
  5
277
  8
回02-寸法
  6
CONTINUOUS
 62
     5
 10
2114.760846516015
 20
329.7762129995714
 30
0.0
 11
2076.803346516015
 21
329.7762129995714
 31
0.0
  0
LINE
  5
278
  8
回02-寸法
  6
CONTINUOUS
 62
     5
 10
2122.460846516014
 20
329.7762129995714
 30
0.0
 11
2116.760846516015
 21
329.7762129995714
 31
0.0
  0
INSERT
  5
279
  8
回02-寸法
  6
CONTINUOUS
 62
     5
 66
     1
  2
_OPEN
 10
2122.460846516014
 20
329.7762129995714
 30
0.0
 41
2.0
 42
2.0
 43
2.0
 50
180.0
  0
SEQEND
  5
27A
  8
0
  6
CONTINUOUS
 62
     7
  0
INSERT
  5
27B
  8
回02-寸法
  6
CONTINUOUS
 62
     5
 66
     1
  2
_OPEN
 10
2116.760846516015
 20
329.7762129995714
 30
0.0
 41
2.0
 42
2.0
 43
2.0
  0
SEQEND
  5
27C
  8
0
  6
CONTINUOUS
 62
     7
  0
TEXT
  5
27D
  8
回02-寸法
  6
CONTINUOUS
 62
     5
 10
2076.853346516015
 20
330.4262129995714
 30
0.0
 40
3.0
  1
5.7(Insulation Area）
1001
ACAD
1000
MTEXTBEGIN
1070
    73
1070
     1
1070
    44
1040
1.0
1070
    74
1070
     0
1000
MTEXTEND
  0
POINT
  5
27E
  8
DEFPOINTS
  6
CONTINUOUS
 62
     0
 10
2122.460846516014
 20
295.818564663111
 30
0.0
  0
POINT
  5
27F
  8
DEFPOINTS
  6
CONTINUOUS
 62
     0
 10
2116.760846516015
 20
300.5185646631109
 30
0.0
  0
POINT
  5
280
  8
DEFPOINTS
  6
CONTINUOUS
 62
     0
 10
2116.760846516015
 20
329.7762129995714
 30
0.0
  0
ENDBLK
  5
281
  8
0
 62
     7
  0
BLOCK
  8
0
  2
*D15
 70
     1
 10
0.0
 20
0.0
 30
0.0
  3
*D15
  1

  0
LINE
  5
265
  8
回02-寸法
  6
CONTINUOUS
 62
     5
 10
2116.760846516015
 20
300.5185646631109
 30
0.0
 11
2116.760846516015
 21
338.0764912203446
 31
0.0
  0
LINE
  5
266
  8
回02-寸法
  6
CONTINUOUS
 62
     5
 10
2302.360846516015
 20
300.5185646631107
 30
0.0
 11
2302.360846516015
 21
338.0764912203446
 31
0.0
  0
LINE
  5
267
  8
回02-寸法
  6
CONTINUOUS
 62
     5
 10
2118.760846516015
 20
337.0764912203445
 30
0.0
 11
2300.360846516015
 21
337.0764912203445
 31
0.0
  0
INSERT
  5
268
  8
回02-寸法
  6
CONTINUOUS
 62
     5
 66
     1
  2
_OPEN
 10
2116.760846516015
 20
337.0764912203445
 30
0.0
 41
2.0
 42
2.0
 43
2.0
 50
180.0
  0
SEQEND
  5
269
  8
0
  6
CONTINUOUS
 62
     7
  0
INSERT
  5
26A
  8
回02-寸法
  6
CONTINUOUS
 62
     5
 66
     1
  2
_OPEN
 10
2302.360846516015
 20
337.0764912203445
 30
0.0
 41
2.0
 42
2.0
 43
2.0
  0
SEQEND
  5
26B
  8
0
  6
CONTINUOUS
 62
     7
  0
INSERT
  5
26C
  8
回02-寸法
  6
CONTINUOUS
 62
     5
 66
     1
  2
*X86
 10
0.0
 20
0.0
 30
0.0
  0
SEQEND
  5
701
  8
0
  6
CONTINUOUS
 62
     7
  0
POINT
  5
26D
  8
DEFPOINTS
  6
CONTINUOUS
 62
     0
 10
2116.760846516015
 20
300.5185646631109
 30
0.0
  0
POINT
  5
26E
  8
DEFPOINTS
  6
CONTINUOUS
 62
     0
 10
2302.360846516015
 20
300.5185646631107
 30
0.0
  0
POINT
  5
26F
  8
DEFPOINTS
  6
CONTINUOUS
 62
     0
 10
2302.360846516015
 20
337.0764912203445
 30
0.0
  0
ENDBLK
  5
270
  8
0
 62
     7
  0
BLOCK
  8
0
  2
*D16
 70
     1
 10
0.0
 20
0.0
 30
0.0
  3
*D16
  1

  0
LINE
  5
256
  8
回02-寸法
  6
CONTINUOUS
 62
     5
 10
2295.860846516016
 20
293.0185646631111
 30
0.0
 11
2318.89850872715
 21
293.0185646631111
 31
0.0
  0
LINE
  5
257
  8
回02-寸法
  6
CONTINUOUS
 62
     5
 10
2295.860846516016
 20
164.718564663111
 30
0.0
 11
2318.89850872715
 21
164.718564663111
 31
0.0
  0
LINE
  5
258
  8
回02-寸法
  6
CONTINUOUS
 62
     5
 10
2317.89850872715
 20
291.0185646631111
 30
0.0
 11
2317.89850872715
 21
166.7185646631111
 31
0.0
  0
INSERT
  5
259
  8
回02-寸法
  6
CONTINUOUS
 62
     5
 66
     1
  2
_OPEN
 10
2317.89850872715
 20
293.0185646631111
 30
0.0
 41
2.0
 42
2.0
 43
2.0
 50
90.0
  0
SEQEND
  5
25A
  8
0
  6
CONTINUOUS
 62
     7
  0
INSERT
  5
25B
  8
回02-寸法
  6
CONTINUOUS
 62
     5
 66
     1
  2
_OPEN
 10
2317.89850872715
 20
164.718564663111
 30
0.0
 41
2.0
 42
2.0
 43
2.0
 50
270.0
  0
SEQEND
  5
25C
  8
0
  6
CONTINUOUS
 62
     7
  0
TEXT
  5
25D
  8
回02-寸法
  6
CONTINUOUS
 62
     5
 10
2317.248508727149
 20
211.7691552142915
 30
0.0
 40
3.0
  1
128.3 (Active area)
 50
90.0
1001
ACAD
1000
MTEXTBEGIN
1070
    73
1070
     1
1070
    44
1040
1.0
1070
    74
1070
     0
1000
MTEXTEND
  0
POINT
  5
25E
  8
DEFPOINTS
  6
CONTINUOUS
 62
     0
 10
2295.860846516016
 20
293.0185646631111
 30
0.0
  0
POINT
  5
25F
  8
DEFPOINTS
  6
CONTINUOUS
 62
     0
 10
2295.860846516016
 20
164.718564663111
 30
0.0
  0
POINT
  5
260
  8
DEFPOINTS
  6
CONTINUOUS
 62
     0
 10
2317.89850872715
 20
164.718564663111
 30
0.0
  0
ENDBLK
  5
261
  8
0
 62
     7
  0
BLOCK
  8
0
  2
*D17
 70
     1
 10
0.0
 20
0.0
 30
0.0
  3
*D17
  1

  0
LINE
  5
247
  8
回02-寸法
  6
CONTINUOUS
 62
     5
 10
2297.860846516016
 20
295.0185646631111
 30
0.0
 11
2327.862968766007
 21
295.0185646631111
 31
0.0
  0
LINE
  5
248
  8
回02-寸法
  6
CONTINUOUS
 62
     5
 10
2297.860846516016
 20
162.7185646631111
 30
0.0
 11
2327.862968766007
 21
162.7185646631111
 31
0.0
  0
LINE
  5
249
  8
回02-寸法
  6
CONTINUOUS
 62
     5
 10
2326.862968766007
 20
293.0185646631111
 30
0.0
 11
2326.862968766007
 21
164.718564663111
 31
0.0
  0
INSERT
  5
24A
  8
回02-寸法
  6
CONTINUOUS
 62
     5
 66
     1
  2
_OPEN
 10
2326.862968766007
 20
295.0185646631111
 30
0.0
 41
2.0
 42
2.0
 43
2.0
 50
90.0
  0
SEQEND
  5
24B
  8
0
  6
CONTINUOUS
 62
     7
  0
INSERT
  5
24C
  8
回02-寸法
  6
CONTINUOUS
 62
     5
 66
     1
  2
_OPEN
 10
2326.862968766007
 20
162.7185646631111
 30
0.0
 41
2.0
 42
2.0
 43
2.0
 50
270.0
  0
SEQEND
  5
24D
  8
0
  6
CONTINUOUS
 62
     7
  0
TEXT
  5
24E
  8
回02-寸法
  6
CONTINUOUS
 62
     5
 10
2325.558603235945
 20
210.7191552142913
 30
0.0
 40
3.0
  1
132.3 (Viewing area)
 50
90.0
1001
ACAD
1000
MTEXTBEGIN
1070
    73
1070
     1
1070
    44
1040
1.0
1070
    74
1070
     0
1000
MTEXTEND
  0
POINT
  5
24F
  8
DEFPOINTS
  6
CONTINUOUS
 62
     0
 10
2297.860846516016
 20
295.0185646631111
 30
0.0
  0
POINT
  5
250
  8
DEFPOINTS
  6
CONTINUOUS
 62
     0
 10
2297.860846516016
 20
162.7185646631111
 30
0.0
  0
POINT
  5
251
  8
DEFPOINTS
  6
CONTINUOUS
 62
     0
 10
2326.862968766007
 20
162.7185646631111
 30
0.0
  0
ENDBLK
  5
252
  8
0
 62
     7
  0
BLOCK
  8
0
  2
*D18
 70
     1
 10
0.0
 20
0.0
 30
0.0
  3
*D18
  1

  0
LINE
  5
238
  8
回02-寸法
  6
CONTINUOUS
 62
     5
 10
2298.360846516016
 20
161.9185646631111
 30
0.0
 11
2336.810498278917
 21
161.9185646631111
 31
0.0
  0
LINE
  5
239
  8
回02-寸法
  6
CONTINUOUS
 62
     5
 10
2298.360846516016
 20
295.818564663111
 30
0.0
 11
2336.810498278917
 21
295.818564663111
 31
0.0
  0
LINE
  5
23A
  8
回02-寸法
  6
CONTINUOUS
 62
     5
 10
2335.810498278917
 20
163.9185646631111
 30
0.0
 11
2335.810498278917
 21
293.818564663111
 31
0.0
  0
INSERT
  5
23B
  8
回02-寸法
  6
CONTINUOUS
 62
     5
 66
     1
  2
_OPEN
 10
2335.810498278917
 20
161.9185646631111
 30
0.0
 41
2.0
 42
2.0
 43
2.0
 50
270.0
  0
SEQEND
  5
23C
  8
0
  6
CONTINUOUS
 62
     7
  0
INSERT
  5
23D
  8
回02-寸法
  6
CONTINUOUS
 62
     5
 66
     1
  2
_OPEN
 10
2335.810498278917
 20
295.818564663111
 30
0.0
 41
2.0
 42
2.0
 43
2.0
 50
90.0
  0
SEQEND
  5
23E
  8
0
  6
CONTINUOUS
 62
     7
  0
TEXT
  5
23F
  8
回02-寸法
  6
CONTINUOUS
 62
     5
 10
2335.310498278917
 20
224.5131491103198
 30
0.0
 40
3.0
  1
133.9
 50
90.0
1001
ACAD
1000
MTEXTBEGIN
1070
    73
1070
     1
1070
    44
1040
1.0
1070
    74
1070
     0
1000
MTEXTEND
  0
POINT
  5
240
  8
DEFPOINTS
  6
CONTINUOUS
 62
     0
 10
2298.360846516016
 20
161.9185646631111
 30
0.0
  0
POINT
  5
241
  8
DEFPOINTS
  6
CONTINUOUS
 62
     0
 10
2298.360846516016
 20
295.818564663111
 30
0.0
  0
POINT
  5
242
  8
DEFPOINTS
  6
CONTINUOUS
 62
     0
 10
2335.810498278917
 20
295.818564663111
 30
0.0
  0
ENDBLK
  5
243
  8
0
 62
     7
  0
BLOCK
  8
0
  2
*D19
 70
     1
 10
0.0
 20
0.0
 30
0.0
  3
*D19
  1

  0
LINE
  5
227
  8
回02-寸法
  6
CONTINUOUS
 62
     5
 10
2295.860846516016
 20
293.0185646631111
 30
0.0
 11
2318.898508727151
 21
293.0185646631111
 31
0.0
  0
LINE
  5
228
  8
回02-寸法
  6
CONTINUOUS
 62
     5
 10
2302.360846516016
 20
300.5185646631109
 30
0.0
 11
2318.898508727151
 21
300.5185646631109
 31
0.0
  0
LINE
  5
229
  8
回02-寸法
  6
CONTINUOUS
 62
     5
 10
2317.898508727151
 20
291.0185646631111
 30
0.0
 11
2317.898508727151
 21
289.0185646631111
 31
0.0
  0
LINE
  5
22A
  8
回02-寸法
  6
CONTINUOUS
 62
     5
 10
2317.898508727151
 20
302.5185646631109
 30
0.0
 11
2317.898508727151
 21
312.1162024583865
 31
0.0
  0
LINE
  5
22B
  8
回02-寸法
  6
CONTINUOUS
 62
     5
 10
2317.898508727151
 20
293.0185646631111
 30
0.0
 11
2317.898508727151
 21
300.5185646631109
 31
0.0
  0
INSERT
  5
22C
  8
回02-寸法
  6
CONTINUOUS
 62
     5
 66
     1
  2
_OPEN
 10
2317.898508727151
 20
293.0185646631111
 30
0.0
 41
2.0
 42
2.0
 43
2.0
 50
90.0
  0
SEQEND
  5
22D
  8
0
  6
CONTINUOUS
 62
     7
  0
INSERT
  5
22E
  8
回02-寸法
  6
CONTINUOUS
 62
     5
 66
     1
  2
_OPEN
 10
2317.898508727151
 20
300.5185646631109
 30
0.0
 41
2.0
 42
2.0
 43
2.0
 50
270.0
  0
SEQEND
  5
22F
  8
0
  6
CONTINUOUS
 62
     7
  0
TEXT
  5
230
  8
回02-寸法
  6
CONTINUOUS
 62
     5
 10
2317.248508727151
 20
304.5673835607479
 30
0.0
 40
3.0
  1
(7.5)
 50
90.0
1001
ACAD
1000
MTEXTBEGIN
1070
    73
1070
     1
1070
    44
1040
1.0
1070
    74
1070
     0
1000
MTEXTEND
  0
POINT
  5
231
  8
DEFPOINTS
  6
CONTINUOUS
 62
     0
 10
2295.860846516016
 20
293.0185646631111
 30
0.0
  0
POINT
  5
232
  8
DEFPOINTS
  6
CONTINUOUS
 62
     0
 10
2302.360846516016
 20
300.5185646631109
 30
0.0
  0
POINT
  5
233
  8
DEFPOINTS
  6
CONTINUOUS
 62
     0
 10
2317.898508727151
 20
300.5185646631109
 30
0.0
  0
ENDBLK
  5
234
  8
0
 62
     7
  0
BLOCK
  8
0
  2
*D20
 70
     1
 10
0.0
 20
0.0
 30
0.0
  3
*D20
  1

  0
LINE
  5
216
  8
回02-寸法
  6
CONTINUOUS
 62
     5
 10
2297.860846516016
 20
295.0185646631111
 30
0.0
 11
2327.862968766009
 21
295.0185646631111
 31
0.0
  0
LINE
  5
217
  8
回02-寸法
  6
CONTINUOUS
 62
     5
 10
2302.360846516016
 20
300.5185646631109
 30
0.0
 11
2327.862968766009
 21
300.5185646631109
 31
0.0
  0
LINE
  5
218
  8
回02-寸法
  6
CONTINUOUS
 62
     5
 10
2326.862968766009
 20
293.0185646631111
 30
0.0
 11
2326.862968766009
 21
291.0185646631111
 31
0.0
  0
LINE
  5
219
  8
回02-寸法
  6
CONTINUOUS
 62
     5
 10
2326.862968766009
 20
302.5185646631109
 30
0.0
 11
2326.862968766009
 21
312.1162024583865
 31
0.0
  0
LINE
  5
21A
  8
回02-寸法
  6
CONTINUOUS
 62
     5
 10
2326.862968766009
 20
295.0185646631111
 30
0.0
 11
2326.862968766009
 21
300.5185646631109
 31
0.0
  0
INSERT
  5
21B
  8
回02-寸法
  6
CONTINUOUS
 62
     5
 66
     1
  2
_OPEN
 10
2326.862968766009
 20
295.0185646631111
 30
0.0
 41
2.0
 42
2.0
 43
2.0
 50
90.0
  0
SEQEND
  5
21C
  8
0
  6
CONTINUOUS
 62
     7
  0
INSERT
  5
21D
  8
回02-寸法
  6
CONTINUOUS
 62
     5
 66
     1
  2
_OPEN
 10
2326.862968766009
 20
300.5185646631109
 30
0.0
 41
2.0
 42
2.0
 43
2.0
 50
270.0
  0
SEQEND
  5
21E
  8
0
  6
CONTINUOUS
 62
     7
  0
TEXT
  5
21F
  8
回02-寸法
  6
CONTINUOUS
 62
     5
 10
2326.212968766008
 20
304.5673835607479
 30
0.0
 40
3.0
  1
(5.5)
 50
90.0
1001
ACAD
1000
MTEXTBEGIN
1070
    73
1070
     1
1070
    44
1040
1.0
1070
    74
1070
     0
1000
MTEXTEND
  0
POINT
  5
220
  8
DEFPOINTS
  6
CONTINUOUS
 62
     0
 10
2297.860846516016
 20
295.0185646631111
 30
0.0
  0
POINT
  5
221
  8
DEFPOINTS
  6
CONTINUOUS
 62
     0
 10
2302.360846516016
 20
300.5185646631109
 30
0.0
  0
POINT
  5
222
  8
DEFPOINTS
  6
CONTINUOUS
 62
     0
 10
2326.862968766009
 20
300.5185646631109
 30
0.0
  0
ENDBLK
  5
223
  8
0
 62
     7
  0
BLOCK
  8
0
  2
*D21
 70
     1
 10
0.0
 20
0.0
 30
0.0
  3
*D21
  1

  0
LINE
  5
205
  8
回02-寸法
  6
CONTINUOUS
 62
     5
 10
2298.360846516016
 20
295.818564663111
 30
0.0
 11
2336.810498278924
 21
295.818564663111
 31
0.0
  0
LINE
  5
206
  8
回02-寸法
  6
CONTINUOUS
 62
     5
 10
2302.360846516016
 20
300.5185646631109
 30
0.0
 11
2336.810498278924
 21
300.5185646631109
 31
0.0
  0
LINE
  5
207
  8
回02-寸法
  6
CONTINUOUS
 62
     5
 10
2335.810498278924
 20
293.818564663111
 30
0.0
 11
2335.810498278924
 21
291.818564663111
 31
0.0
  0
LINE
  5
208
  8
回02-寸法
  6
CONTINUOUS
 62
     5
 10
2335.810498278924
 20
302.5185646631109
 30
0.0
 11
2335.810498278924
 21
312.4162024583865
 31
0.0
  0
LINE
  5
209
  8
回02-寸法
  6
CONTINUOUS
 62
     5
 10
2335.810498278924
 20
295.818564663111
 30
0.0
 11
2335.810498278924
 21
300.5185646631109
 31
0.0
  0
INSERT
  5
20A
  8
回02-寸法
  6
CONTINUOUS
 62
     5
 66
     1
  2
_OPEN
 10
2335.810498278924
 20
295.818564663111
 30
0.0
 41
2.0
 42
2.0
 43
2.0
 50
90.0
  0
SEQEND
  5
20B
  8
0
  6
CONTINUOUS
 62
     7
  0
INSERT
  5
20C
  8
回02-寸法
  6
CONTINUOUS
 62
     5
 66
     1
  2
_OPEN
 10
2335.810498278924
 20
300.5185646631109
 30
0.0
 41
2.0
 42
2.0
 43
2.0
 50
270.0
  0
SEQEND
  5
20D
  8
0
  6
CONTINUOUS
 62
     7
  0
TEXT
  5
20E
  8
回02-寸法
  6
CONTINUOUS
 62
     5
 10
2335.160498278924
 20
304.5673835607479
 30
0.0
 40
3.0
  1
(4.7)
 50
90.0
1001
ACAD
1000
MTEXTBEGIN
1070
    73
1070
     1
1070
    44
1040
1.0
1070
    74
1070
     0
1000
MTEXTEND
  0
POINT
  5
20F
  8
DEFPOINTS
  6
CONTINUOUS
 62
     0
 10
2298.360846516016
 20
295.818564663111
 30
0.0
  0
POINT
  5
210
  8
DEFPOINTS
  6
CONTINUOUS
 62
     0
 10
2302.360846516016
 20
300.5185646631109
 30
0.0
  0
POINT
  5
211
  8
DEFPOINTS
  6
CONTINUOUS
 62
     0
 10
2335.810498278924
 20
300.5185646631109
 30
0.0
  0
ENDBLK
  5
212
  8
0
 62
     7
  0
BLOCK
  8
0
  2
*D22
 70
     1
 10
0.0
 20
0.0
 30
0.0
  3
*D22
  1

  0
LINE
  5
1F4
  8
回02-寸法
  6
CONTINUOUS
 62
     5
 10
2295.860846516016
 20
164.718564663111
 30
0.0
 11
2318.898508727139
 21
164.718564663111
 31
0.0
  0
LINE
  5
1F5
  8
回02-寸法
  6
CONTINUOUS
 62
     5
 10
2302.360846516016
 20
157.2185646631106
 30
0.0
 11
2318.898508727139
 21
157.2185646631106
 31
0.0
  0
LINE
  5
1F6
  8
回02-寸法
  6
CONTINUOUS
 62
     5
 10
2317.898508727139
 20
166.7185646631111
 30
0.0
 11
2317.898508727139
 21
168.718564663111
 31
0.0
  0
LINE
  5
1F7
  8
回02-寸法
  6
CONTINUOUS
 62
     5
 10
2317.898508727139
 20
155.2185646631106
 30
0.0
 11
2317.898508727139
 21
147.8943005943987
 31
0.0
  0
LINE
  5
1F8
  8
回02-寸法
  6
CONTINUOUS
 62
     5
 10
2317.898508727139
 20
164.718564663111
 30
0.0
 11
2317.898508727139
 21
157.2185646631106
 31
0.0
  0
INSERT
  5
1F9
  8
回02-寸法
  6
CONTINUOUS
 62
     5
 66
     1
  2
_OPEN
 10
2317.898508727139
 20
164.718564663111
 30
0.0
 41
2.0
 42
2.0
 43
2.0
 50
270.0
  0
SEQEND
  5
1FA
  8
0
  6
CONTINUOUS
 62
     7
  0
INSERT
  5
1FB
  8
回02-寸法
  6
CONTINUOUS
 62
     5
 66
     1
  2
_OPEN
 10
2317.898508727139
 20
157.2185646631106
 30
0.0
 41
2.0
 42
2.0
 43
2.0
 50
90.0
  0
SEQEND
  5
1FC
  8
0
  6
CONTINUOUS
 62
     7
  0
TEXT
  5
1FD
  8
回02-寸法
  6
CONTINUOUS
 62
     5
 10
2317.398508727139
 20
148.0064326287543
 30
0.0
 40
3.0
  1
7.5
 50
90.0
1001
ACAD
1000
MTEXTBEGIN
1070
    73
1070
     1
1070
    44
1040
1.0
1070
    74
1070
     0
1000
MTEXTEND
  0
POINT
  5
1FE
  8
DEFPOINTS
  6
CONTINUOUS
 62
     0
 10
2295.860846516016
 20
164.718564663111
 30
0.0
  0
POINT
  5
1FF
  8
DEFPOINTS
  6
CONTINUOUS
 62
     0
 10
2302.360846516016
 20
157.2185646631106
 30
0.0
  0
POINT
  5
200
  8
DEFPOINTS
  6
CONTINUOUS
 62
     0
 10
2317.898508727139
 20
157.2185646631106
 30
0.0
  0
ENDBLK
  5
201
  8
0
 62
     7
  0
BLOCK
  8
0
  2
*D23
 70
     1
 10
0.0
 20
0.0
 30
0.0
  3
*D23
  1

  0
LINE
  5
1E3
  8
回02-寸法
  6
CONTINUOUS
 62
     5
 10
2297.860846516016
 20
162.7185646631111
 30
0.0
 11
2327.862968765999
 21
162.7185646631111
 31
0.0
  0
LINE
  5
1E4
  8
回02-寸法
  6
CONTINUOUS
 62
     5
 10
2302.360846516016
 20
157.2185646631106
 30
0.0
 11
2327.862968765999
 21
157.2185646631106
 31
0.0
  0
LINE
  5
1E5
  8
回02-寸法
  6
CONTINUOUS
 62
     5
 10
2326.862968765999
 20
164.718564663111
 30
0.0
 11
2326.862968765999
 21
166.7185646631111
 31
0.0
  0
LINE
  5
1E6
  8
回02-寸法
  6
CONTINUOUS
 62
     5
 10
2326.862968765999
 20
155.2185646631106
 30
0.0
 11
2326.862968765999
 21
147.8943005943987
 31
0.0
  0
LINE
  5
1E7
  8
回02-寸法
  6
CONTINUOUS
 62
     5
 10
2326.862968765999
 20
162.7185646631111
 30
0.0
 11
2326.862968765999
 21
157.2185646631106
 31
0.0
  0
INSERT
  5
1E8
  8
回02-寸法
  6
CONTINUOUS
 62
     5
 66
     1
  2
_OPEN
 10
2326.862968765999
 20
162.7185646631111
 30
0.0
 41
2.0
 42
2.0
 43
2.0
 50
270.0
  0
SEQEND
  5
1E9
  8
0
  6
CONTINUOUS
 62
     7
  0
INSERT
  5
1EA
  8
回02-寸法
  6
CONTINUOUS
 62
     5
 66
     1
  2
_OPEN
 10
2326.862968765999
 20
157.2185646631106
 30
0.0
 41
2.0
 42
2.0
 43
2.0
 50
90.0
  0
SEQEND
  5
1EB
  8
0
  6
CONTINUOUS
 62
     7
  0
TEXT
  5
1EC
  8
回02-寸法
  6
CONTINUOUS
 62
     5
 10
2326.362968765999
 20
148.0064326287543
 30
0.0
 40
3.0
  1
5.5
 50
90.0
1001
ACAD
1000
MTEXTBEGIN
1070
    73
1070
     1
1070
    44
1040
1.0
1070
    74
1070
     0
1000
MTEXTEND
  0
POINT
  5
1ED
  8
DEFPOINTS
  6
CONTINUOUS
 62
     0
 10
2297.860846516016
 20
162.7185646631111
 30
0.0
  0
POINT
  5
1EE
  8
DEFPOINTS
  6
CONTINUOUS
 62
     0
 10
2302.360846516016
 20
157.2185646631106
 30
0.0
  0
POINT
  5
1EF
  8
DEFPOINTS
  6
CONTINUOUS
 62
     0
 10
2326.862968765999
 20
157.2185646631106
 30
0.0
  0
ENDBLK
  5
1F0
  8
0
 62
     7
  0
BLOCK
  8
0
  2
*D24
 70
     1
 10
0.0
 20
0.0
 30
0.0
  3
*D24
  1

  0
LINE
  5
1D2
  8
回02-寸法
  6
CONTINUOUS
 62
     5
 10
2298.360846516016
 20
161.9185646631111
 30
0.0
 11
2336.81049827892
 21
161.9185646631111
 31
0.0
  0
LINE
  5
1D3
  8
回02-寸法
  6
CONTINUOUS
 62
     5
 10
2302.360846516016
 20
157.2185646631106
 30
0.0
 11
2336.81049827892
 21
157.2185646631106
 31
0.0
  0
LINE
  5
1D4
  8
回02-寸法
  6
CONTINUOUS
 62
     5
 10
2335.81049827892
 20
163.9185646631111
 30
0.0
 11
2335.81049827892
 21
165.9185646631111
 31
0.0
  0
LINE
  5
1D5
  8
回02-寸法
  6
CONTINUOUS
 62
     5
 10
2335.81049827892
 20
155.2185646631106
 30
0.0
 11
2335.81049827892
 21
116.9610646631106
 31
0.0
  0
LINE
  5
1D6
  8
回02-寸法
  6
CONTINUOUS
 62
     5
 10
2335.81049827892
 20
161.9185646631111
 30
0.0
 11
2335.81049827892
 21
157.2185646631106
 31
0.0
  0
INSERT
  5
1D7
  8
回02-寸法
  6
CONTINUOUS
 62
     5
 66
     1
  2
_OPEN
 10
2335.81049827892
 20
161.9185646631111
 30
0.0
 41
2.0
 42
2.0
 43
2.0
 50
270.0
  0
SEQEND
  5
1D8
  8
0
  6
CONTINUOUS
 62
     7
  0
INSERT
  5
1D9
  8
回02-寸法
  6
CONTINUOUS
 62
     5
 66
     1
  2
_OPEN
 10
2335.81049827892
 20
157.2185646631106
 30
0.0
 41
2.0
 42
2.0
 43
2.0
 50
90.0
  0
SEQEND
  5
1DA
  8
0
  6
CONTINUOUS
 62
     7
  0
TEXT
  5
1DB
  8
回02-寸法
  6
CONTINUOUS
 62
     5
 10
2335.16049827892
 20
117.0110646631101
 30
0.0
 40
3.0
  1
4.7(Insulation Area）
 50
90.0
1001
ACAD
1000
MTEXTBEGIN
1070
    73
1070
     1
1070
    44
1040
1.0
1070
    74
1070
     0
1000
MTEXTEND
  0
POINT
  5
1DC
  8
DEFPOINTS
  6
CONTINUOUS
 62
     0
 10
2298.360846516016
 20
161.9185646631111
 30
0.0
  0
POINT
  5
1DD
  8
DEFPOINTS
  6
CONTINUOUS
 62
     0
 10
2302.360846516016
 20
157.2185646631106
 30
0.0
  0
POINT
  5
1DE
  8
DEFPOINTS
  6
CONTINUOUS
 62
     0
 10
2335.81049827892
 20
157.2185646631106
 30
0.0
  0
ENDBLK
  5
1DF
  8
0
 62
     7
  0
BLOCK
  8
0
  2
*D25
 70
     1
 10
0.0
 20
0.0
 30
0.0
  3
*D25
  1

  0
LINE
  5
1C3
  8
回02-寸法
  6
CONTINUOUS
 62
     5
 10
2302.360846516016
 20
157.2185646631106
 30
0.0
 11
2346.277579025612
 21
157.2185646631106
 31
0.0
  0
LINE
  5
1C4
  8
回02-寸法
  6
CONTINUOUS
 62
     5
 10
2302.360846516016
 20
300.5185646631109
 30
0.0
 11
2346.277579025612
 21
300.5185646631109
 31
0.0
  0
LINE
  5
1C5
  8
回02-寸法
  6
CONTINUOUS
 62
     5
 10
2345.277579025612
 20
159.2185646631106
 30
0.0
 11
2345.277579025612
 21
298.5185646631109
 31
0.0
  0
INSERT
  5
1C6
  8
回02-寸法
  6
CONTINUOUS
 62
     5
 66
     1
  2
_OPEN
 10
2345.277579025612
 20
157.2185646631106
 30
0.0
 41
2.0
 42
2.0
 43
2.0
 50
270.0
  0
SEQEND
  5
1C7
  8
0
  6
CONTINUOUS
 62
     7
  0
INSERT
  5
1C8
  8
回02-寸法
  6
CONTINUOUS
 62
     5
 66
     1
  2
_OPEN
 10
2345.277579025612
 20
300.5185646631109
 30
0.0
 41
2.0
 42
2.0
 43
2.0
 50
90.0
  0
SEQEND
  5
1C9
  8
0
  6
CONTINUOUS
 62
     7
  0
INSERT
  5
1CA
  8
回02-寸法
  6
CONTINUOUS
 62
     5
 66
     1
  2
*X87
 10
0.0
 20
0.0
 30
0.0
  0
SEQEND
  5
707
  8
0
  6
CONTINUOUS
 62
     7
  0
POINT
  5
1CB
  8
DEFPOINTS
  6
CONTINUOUS
 62
     0
 10
2302.360846516016
 20
157.2185646631106
 30
0.0
  0
POINT
  5
1CC
  8
DEFPOINTS
  6
CONTINUOUS
 62
     0
 10
2302.360846516016
 20
300.5185646631109
 30
0.0
  0
POINT
  5
1CD
  8
DEFPOINTS
  6
CONTINUOUS
 62
     0
 10
2345.277579025612
 20
300.5185646631109
 30
0.0
  0
ENDBLK
  5
1CE
  8
0
 62
     7
  0
BLOCK
  8
0
  2
*D26
 70
     1
 10
0.0
 20
0.0
 30
0.0
  3
*D26
  1

  0
LINE
  5
153
  8
回02-寸法
  6
CONTINUOUS
 62
     5
 10
2302.360846516016
 20
108.1505977108921
 30
0.0
 11
2311.129371268384
 21
108.1505977108921
 31
0.0
  0
LINE
  5
154
  8
回02-寸法
  6
CONTINUOUS
 62
     5
 10
2301.860846516016
 20
113.6505977108921
 30
0.0
 11
2311.129371268384
 21
113.6505977108921
 31
0.0
  0
LINE
  5
155
  8
回02-寸法
  6
CONTINUOUS
 62
     5
 10
2310.129371268384
 20
106.1505977108921
 30
0.0
 11
2310.129371268384
 21
104.1505977108921
 31
0.0
  0
LINE
  5
156
  8
回02-寸法
  6
CONTINUOUS
 62
     5
 10
2310.129371268384
 20
115.6505977108921
 30
0.0
 11
2310.129371268384
 21
127.397127929396
 31
0.0
  0
LINE
  5
157
  8
回02-寸法
  6
CONTINUOUS
 62
     5
 10
2310.129371268384
 20
108.1505977108921
 30
0.0
 11
2310.129371268384
 21
113.6505977108921
 31
0.0
  0
INSERT
  5
158
  8
回02-寸法
  6
CONTINUOUS
 62
     5
 66
     1
  2
_OPEN
 10
2310.129371268384
 20
108.1505977108921
 30
0.0
 41
2.0
 42
2.0
 43
2.0
 50
90.0
  0
SEQEND
  5
159
  8
0
  6
CONTINUOUS
 62
     7
  0
INSERT
  5
15A
  8
回02-寸法
  6
CONTINUOUS
 62
     5
 66
     1
  2
_OPEN
 10
2310.129371268384
 20
113.6505977108921
 30
0.0
 41
2.0
 42
2.0
 43
2.0
 50
270.0
  0
SEQEND
  5
15B
  8
0
  6
CONTINUOUS
 62
     7
  0
INSERT
  5
15C
  8
回02-寸法
  6
CONTINUOUS
 62
     5
 66
     1
  2
*X88
 10
0.0
 20
0.0
 30
0.0
  0
SEQEND
  5
70D
  8
0
  6
CONTINUOUS
 62
     7
  0
POINT
  5
15D
  8
DEFPOINTS
  6
CONTINUOUS
 62
     0
 10
2302.360846516016
 20
108.1505977108921
 30
0.0
  0
POINT
  5
15E
  8
DEFPOINTS
  6
CONTINUOUS
 62
     0
 10
2301.860846516016
 20
113.6505977108921
 30
0.0
  0
POINT
  5
15F
  8
DEFPOINTS
  6
CONTINUOUS
 62
     0
 10
2310.129371268384
 20
113.6505977108921
 30
0.0
  0
ENDBLK
  5
160
  8
0
 62
     7
  0
BLOCK
  8
0
  2
*D27
 70
     1
 10
0.0
 20
0.0
 30
0.0
  3
*D27
  1

  0
LINE
  5
13A
  8
回02-寸法
  6
CONTINUOUS
 62
     5
 10
2116.760846516015
 20
111.1505977108918
 30
0.0
 11
2116.760846516015
 21
123.8417571094799
 31
0.0
  0
LINE
  5
13B
  8
回02-寸法
  6
CONTINUOUS
 62
     5
 10
2117.260846516015
 20
113.6505977108918
 30
0.0
 11
2117.260846516015
 21
123.8417571094799
 31
0.0
  0
LINE
  5
13C
  8
回02-寸法
  6
CONTINUOUS
 62
     5
 10
2114.760846516015
 20
122.8417571094799
 30
0.0
 11
2112.760846516015
 21
122.8417571094799
 31
0.0
  0
LINE
  5
13D
  8
回02-寸法
  6
CONTINUOUS
 62
     5
 10
2119.260846516015
 20
122.8417571094799
 30
0.0
 11
2128.85848431129
 21
122.8417571094799
 31
0.0
  0
LINE
  5
13E
  8
回02-寸法
  6
CONTINUOUS
 62
     5
 10
2116.760846516015
 20
122.8417571094799
 30
0.0
 11
2117.260846516015
 21
122.8417571094799
 31
0.0
  0
INSERT
  5
13F
  8
回02-寸法
  6
CONTINUOUS
 62
     5
 66
     1
  2
_OPEN
 10
2116.760846516015
 20
122.8417571094799
 30
0.0
 41
2.0
 42
2.0
 43
2.0
  0
SEQEND
  5
140
  8
0
  6
CONTINUOUS
 62
     7
  0
INSERT
  5
141
  8
回02-寸法
  6
CONTINUOUS
 62
     5
 66
     1
  2
_OPEN
 10
2117.260846516015
 20
122.8417571094799
 30
0.0
 41
2.0
 42
2.0
 43
2.0
 50
180.0
  0
SEQEND
  5
142
  8
0
  6
CONTINUOUS
 62
     7
  0
TEXT
  5
143
  8
回02-寸法
  6
CONTINUOUS
 62
     5
 10
2121.309665413653
 20
123.4917571094799
 30
0.0
 40
3.0
  1
(0.5)
1001
ACAD
1000
MTEXTBEGIN
1070
    73
1070
     1
1070
    44
1040
1.0
1070
    74
1070
     0
1000
MTEXTEND
  0
POINT
  5
144
  8
DEFPOINTS
  6
CONTINUOUS
 62
     0
 10
2116.760846516015
 20
111.1505977108918
 30
0.0
  0
POINT
  5
145
  8
DEFPOINTS
  6
CONTINUOUS
 62
     0
 10
2117.260846516015
 20
113.6505977108918
 30
0.0
  0
POINT
  5
146
  8
DEFPOINTS
  6
CONTINUOUS
 62
     0
 10
2117.260846516015
 20
122.8417571094799
 30
0.0
  0
ENDBLK
  5
147
  8
0
 62
     7
  0
BLOCK
  8
0
  2
*D28
 70
     1
 10
0.0
 20
0.0
 30
0.0
  3
*D28
  1

  0
LINE
  5
129
  8
回02-寸法
  6
CONTINUOUS
 62
     5
 10
2302.360846516015
 20
111.1505977108918
 30
0.0
 11
2302.360846516015
 21
123.8417571094799
 31
0.0
  0
LINE
  5
12A
  8
回02-寸法
  6
CONTINUOUS
 62
     5
 10
2301.860846516015
 20
113.650597710892
 30
0.0
 11
2301.860846516015
 21
123.8417571094799
 31
0.0
  0
LINE
  5
12B
  8
回02-寸法
  6
CONTINUOUS
 62
     5
 10
2304.360846516015
 20
122.8417571094799
 30
0.0
 11
2306.360846516015
 21
122.8417571094799
 31
0.0
  0
LINE
  5
12C
  8
回02-寸法
  6
CONTINUOUS
 62
     5
 10
2299.860846516015
 20
122.8417571094799
 30
0.0
 11
2290.263208720739
 21
122.8417571094799
 31
0.0
  0
LINE
  5
12D
  8
回02-寸法
  6
CONTINUOUS
 62
     5
 10
2302.360846516015
 20
122.8417571094799
 30
0.0
 11
2301.860846516015
 21
122.8417571094799
 31
0.0
  0
INSERT
  5
12E
  8
回02-寸法
  6
CONTINUOUS
 62
     5
 66
     1
  2
_OPEN
 10
2302.360846516015
 20
122.8417571094799
 30
0.0
 41
2.0
 42
2.0
 43
2.0
 50
180.0
  0
SEQEND
  5
12F
  8
0
  6
CONTINUOUS
 62
     7
  0
INSERT
  5
130
  8
回02-寸法
  6
CONTINUOUS
 62
     5
 66
     1
  2
_OPEN
 10
2301.860846516015
 20
122.8417571094799
 30
0.0
 41
2.0
 42
2.0
 43
2.0
  0
SEQEND
  5
131
  8
0
  6
CONTINUOUS
 62
     7
  0
TEXT
  5
132
  8
回02-寸法
  6
CONTINUOUS
 62
     5
 10
2290.312027618377
 20
123.4917571094799
 30
0.0
 40
3.0
  1
(0.5)
1001
ACAD
1000
MTEXTBEGIN
1070
    73
1070
     1
1070
    44
1040
1.0
1070
    74
1070
     0
1000
MTEXTEND
  0
POINT
  5
133
  8
DEFPOINTS
  6
CONTINUOUS
 62
     0
 10
2302.360846516015
 20
111.1505977108918
 30
0.0
  0
POINT
  5
134
  8
DEFPOINTS
  6
CONTINUOUS
 62
     0
 10
2301.860846516015
 20
113.650597710892
 30
0.0
  0
POINT
  5
135
  8
DEFPOINTS
  6
CONTINUOUS
 62
     0
 10
2301.860846516015
 20
122.8417571094799
 30
0.0
  0
ENDBLK
  5
136
  8
0
 62
     7
  0
BLOCK
  8
0
  2
*D29
 70
     1
 10
0.0
 20
0.0
 30
0.0
  3
*D29
  1

  0
LINE
  5
112
  8
回02-寸法
  6
CONTINUOUS
 62
     5
 10
2041.760846516016
 20
109.6505977108918
 30
0.0
 11
2032.383843158009
 21
109.6505977108918
 31
0.0
  0
LINE
  5
113
  8
回02-寸法
  6
CONTINUOUS
 62
     5
 10
2041.760846516016
 20
112.1505977108919
 30
0.0
 11
2032.383843158009
 21
112.1505977108919
 31
0.0
  0
LINE
  5
114
  8
回02-寸法
  6
CONTINUOUS
 62
     5
 10
2033.383843158008
 20
114.1505977108918
 30
0.0
 11
2033.383843158008
 21
116.1505977108918
 31
0.0
  0
LINE
  5
115
  8
回02-寸法
  6
CONTINUOUS
 62
     5
 10
2033.383843158008
 20
107.6505977108918
 30
0.0
 11
2033.383843158008
 21
94.01509365155721
 31
0.0
  0
LINE
  5
116
  8
回02-寸法
  6
CONTINUOUS
 62
     5
 10
2033.383843158008
 20
112.1505977108919
 30
0.0
 11
2033.383843158008
 21
109.6505977108918
 31
0.0
  0
INSERT
  5
117
  8
回02-寸法
  6
CONTINUOUS
 62
     5
 66
     1
  2
_OPEN
 10
2033.383843158008
 20
112.1505977108919
 30
0.0
 41
2.0
 42
2.0
 43
2.0
 50
270.0
  0
SEQEND
  5
118
  8
0
  6
CONTINUOUS
 62
     7
  0
INSERT
  5
119
  8
回02-寸法
  6
CONTINUOUS
 62
     5
 66
     1
  2
_OPEN
 10
2033.383843158008
 20
109.6505977108918
 30
0.0
 41
2.0
 42
2.0
 43
2.0
 50
90.0
  0
SEQEND
  5
11A
  8
0
  6
CONTINUOUS
 62
     7
  0
INSERT
  5
11B
  8
回02-寸法
  6
CONTINUOUS
 62
     5
 66
     1
  2
*X89
 10
0.0
 20
0.0
 30
0.0
  0
SEQEND
  5
713
  8
0
  6
CONTINUOUS
 62
     7
  0
POINT
  5
11C
  8
DEFPOINTS
  6
CONTINUOUS
 62
     0
 10
2041.760846516016
 20
109.6505977108918
 30
0.0
  0
POINT
  5
11D
  8
DEFPOINTS
  6
CONTINUOUS
 62
     0
 10
2041.760846516016
 20
112.1505977108919
 30
0.0
  0
POINT
  5
11E
  8
DEFPOINTS
  6
CONTINUOUS
 62
     0
 10
2033.383843158008
 20
112.1505977108919
 30
0.0
  0
ENDBLK
  5
11F
  8
0
 62
     7
  0
BLOCK
  8
0
  2
*D30
 70
     1
 10
0.0
 20
0.0
 30
0.0
  3
*D30
  1

  0
LINE
  5
101
  8
回02-寸法
  6
CONTINUOUS
 62
     5
 10
2051.760846516015
 20
109.6505977108918
 30
0.0
 11
2051.760846516015
 21
96.90409135555963
 31
0.0
  0
LINE
  5
102
  8
回02-寸法
  6
CONTINUOUS
 62
     5
 10
2041.760846516015
 20
109.6505977108918
 30
0.0
 11
2041.760846516015
 21
96.90409135555963
 31
0.0
  0
LINE
  5
103
  8
回02-寸法
  6
CONTINUOUS
 62
     5
 10
2039.760846516015
 20
97.90409135555963
 30
0.0
 11
2037.760846516015
 21
97.90409135555963
 31
0.0
  0
LINE
  5
104
  8
回02-寸法
  6
CONTINUOUS
 62
     5
 10
2053.760846516015
 20
97.90409135555963
 30
0.0
 11
2061.858484311291
 21
97.90409135555963
 31
0.0
  0
LINE
  5
105
  8
回02-寸法
  6
CONTINUOUS
 62
     5
 10
2041.760846516015
 20
97.90409135555963
 30
0.0
 11
2051.760846516015
 21
97.90409135555963
 31
0.0
  0
INSERT
  5
106
  8
回02-寸法
  6
CONTINUOUS
 62
     5
 66
     1
  2
_OPEN
 10
2041.760846516015
 20
97.90409135555963
 30
0.0
 41
2.0
 42
2.0
 43
2.0
  0
SEQEND
  5
107
  8
0
  6
CONTINUOUS
 62
     7
  0
INSERT
  5
108
  8
回02-寸法
  6
CONTINUOUS
 62
     5
 66
     1
  2
_OPEN
 10
2051.760846516015
 20
97.90409135555963
 30
0.0
 41
2.0
 42
2.0
 43
2.0
 50
180.0
  0
SEQEND
  5
109
  8
0
  6
CONTINUOUS
 62
     7
  0
TEXT
  5
10A
  8
回02-寸法
  6
CONTINUOUS
 62
     5
 10
2055.809665413653
 20
98.55409135555964
 30
0.0
 40
3.0
  1
(10)
1001
ACAD
1000
MTEXTBEGIN
1070
    73
1070
     1
1070
    44
1040
1.0
1070
    74
1070
     0
1000
MTEXTEND
  0
POINT
  5
10B
  8
DEFPOINTS
  6
CONTINUOUS
 62
     0
 10
2051.760846516015
 20
109.6505977108918
 30
0.0
  0
POINT
  5
10C
  8
DEFPOINTS
  6
CONTINUOUS
 62
     0
 10
2041.760846516015
 20
109.6505977108918
 30
0.0
  0
POINT
  5
10D
  8
DEFPOINTS
  6
CONTINUOUS
 62
     0
 10
2041.760846516015
 20
97.90409135555963
 30
0.0
  0
ENDBLK
  5
10E
  8
0
 62
     7
  0
BLOCK
  8
0
  2
*D31
 70
     1
 10
0.0
 20
0.0
 30
0.0
  3
*D31
  1

  0
LINE
  5
F0
  8
回02-寸法
  6
CONTINUOUS
 62
     5
 10
2046.760846516015
 20
113.1505977108918
 30
0.0
 11
2046.760846516015
 21
121.5044900184493
 31
0.0
  0
LINE
  5
F1
  8
回02-寸法
  6
CONTINUOUS
 62
     5
 10
2041.760846516015
 20
112.1505977108918
 30
0.0
 11
2041.760846516015
 21
121.5044900184493
 31
0.0
  0
LINE
  5
F2
  8
回02-寸法
  6
CONTINUOUS
 62
     5
 10
2039.760846516015
 20
120.5044900184493
 30
0.0
 11
2037.760846516015
 21
120.5044900184493
 31
0.0
  0
LINE
  5
F3
  8
回02-寸法
  6
CONTINUOUS
 62
     5
 10
2048.760846516015
 20
120.5044900184493
 30
0.0
 11
2053.964114206797
 21
120.5044900184493
 31
0.0
  0
LINE
  5
F4
  8
回02-寸法
  6
CONTINUOUS
 62
     5
 10
2041.760846516015
 20
120.5044900184493
 30
0.0
 11
2046.760846516015
 21
120.5044900184493
 31
0.0
  0
INSERT
  5
F5
  8
回02-寸法
  6
CONTINUOUS
 62
     5
 66
     1
  2
_OPEN
 10
2041.760846516015
 20
120.5044900184493
 30
0.0
 41
2.0
 42
2.0
 43
2.0
  0
SEQEND
  5
F6
  8
0
  6
CONTINUOUS
 62
     7
  0
INSERT
  5
F7
  8
回02-寸法
  6
CONTINUOUS
 62
     5
 66
     1
  2
_OPEN
 10
2046.760846516015
 20
120.5044900184493
 30
0.0
 41
2.0
 42
2.0
 43
2.0
 50
180.0
  0
SEQEND
  5
F8
  8
0
  6
CONTINUOUS
 62
     7
  0
TEXT
  5
F9
  8
回02-寸法
  6
CONTINUOUS
 62
     5
 10
2051.751982172441
 20
121.0044900184493
 30
0.0
 40
3.0
  1
5
1001
ACAD
1000
MTEXTBEGIN
1070
    73
1070
     1
1070
    44
1040
1.0
1070
    74
1070
     0
1000
MTEXTEND
  0
POINT
  5
FA
  8
DEFPOINTS
  6
CONTINUOUS
 62
     0
 10
2046.760846516015
 20
113.1505977108918
 30
0.0
  0
POINT
  5
FB
  8
DEFPOINTS
  6
CONTINUOUS
 62
     0
 10
2041.760846516015
 20
112.1505977108918
 30
0.0
  0
POINT
  5
FC
  8
DEFPOINTS
  6
CONTINUOUS
 62
     0
 10
2041.760846516015
 20
120.5044900184493
 30
0.0
  0
ENDBLK
  5
FD
  8
0
 62
     7
  0
BLOCK
  8
0
  2
*D32
 70
     1
 10
0.0
 20
0.0
 30
0.0
  3
*D32
  1

  0
LINE
  5
1B2
  8
回02-寸法
  6
CONTINUOUS
 62
     5
 10
2116.760846516016
 20
300.5185646631111
 30
0.0
 11
2021.000439090764
 21
300.5185646631111
 31
0.0
  0
LINE
  5
1B3
  8
回02-寸法
  6
CONTINUOUS
 62
     5
 10
2036.760803005248
 20
228.868564663111
 30
0.0
 11
2021.000439090764
 21
228.868564663111
 31
0.0
  0
LINE
  5
1B4
  8
回02-寸法
  6
CONTINUOUS
 62
     5
 10
2022.000439090764
 20
298.5185646631111
 30
0.0
 11
2022.000439090764
 21
230.868564663111
 31
0.0
  0
INSERT
  5
1B5
  8
回02-寸法
  6
CONTINUOUS
 62
     5
 66
     1
  2
_OPEN
 10
2022.000439090764
 20
300.5185646631111
 30
0.0
 41
2.0
 42
2.0
 43
2.0
 50
90.0
  0
SEQEND
  5
1B6
  8
0
  6
CONTINUOUS
 62
     7
  0
INSERT
  5
1B7
  8
回02-寸法
  6
CONTINUOUS
 62
     5
 66
     1
  2
_OPEN
 10
2022.000439090764
 20
228.868564663111
 30
0.0
 41
2.0
 42
2.0
 43
2.0
 50
270.0
  0
SEQEND
  5
1B8
  8
0
  6
CONTINUOUS
 62
     7
  0
TEXT
  5
1B9
  8
回02-寸法
  6
CONTINUOUS
 62
     5
 10
2021.350439090763
 20
259.1435646631105
 30
0.0
 40
3.0
  1
(71.65)
 50
90.0
1001
ACAD
1000
MTEXTBEGIN
1070
    73
1070
     1
1070
    44
1040
1.0
1070
    74
1070
     0
1000
MTEXTEND
  0
POINT
  5
1BA
  8
DEFPOINTS
  6
CONTINUOUS
 62
     0
 10
2116.760846516016
 20
300.5185646631111
 30
0.0
  0
POINT
  5
1BB
  8
DEFPOINTS
  6
CONTINUOUS
 62
     0
 10
2036.760803005248
 20
228.868564663111
 30
0.0
  0
POINT
  5
1BC
  8
DEFPOINTS
  6
CONTINUOUS
 62
     0
 10
2022.000439090764
 20
228.868564663111
 30
0.0
  0
ENDBLK
  5
1BD
  8
0
 62
     7
  0
BLOCK
  8
0
  2
*D33
 70
     1
 10
0.0
 20
0.0
 30
0.0
  3
*D33
  1

  0
LINE
  5
1A3
  8
回02-寸法
  6
CONTINUOUS
 62
     5
 10
2036.760803005247
 20
231.4935646631109
 30
0.0
 11
2036.760803005247
 21
254.4291095379907
 31
0.0
  0
LINE
  5
1A4
  8
回02-寸法
  6
CONTINUOUS
 62
     5
 10
2116.760846516015
 20
238.6456890075785
 30
0.0
 11
2116.760846516015
 21
254.4291095379907
 31
0.0
  0
LINE
  5
1A5
  8
回02-寸法
  6
CONTINUOUS
 62
     5
 10
2038.760803005247
 20
253.4291095379907
 30
0.0
 11
2114.760846516015
 21
253.4291095379907
 31
0.0
  0
INSERT
  5
1A6
  8
回02-寸法
  6
CONTINUOUS
 62
     5
 66
     1
  2
_OPEN
 10
2036.760803005247
 20
253.4291095379907
 30
0.0
 41
2.0
 42
2.0
 43
2.0
 50
180.0
  0
SEQEND
  5
1A7
  8
0
  6
CONTINUOUS
 62
     7
  0
INSERT
  5
1A8
  8
回02-寸法
  6
CONTINUOUS
 62
     5
 66
     1
  2
_OPEN
 10
2116.760846516015
 20
253.4291095379907
 30
0.0
 41
2.0
 42
2.0
 43
2.0
  0
SEQEND
  5
1A9
  8
0
  6
CONTINUOUS
 62
     7
  0
INSERT
  5
1AA
  8
回02-寸法
  6
CONTINUOUS
 62
     5
 66
     1
  2
*X90
 10
0.0
 20
0.0
 30
0.0
  0
SEQEND
  5
719
  8
0
  6
CONTINUOUS
 62
     7
  0
POINT
  5
1AB
  8
DEFPOINTS
  6
CONTINUOUS
 62
     0
 10
2036.760803005247
 20
231.4935646631109
 30
0.0
  0
POINT
  5
1AC
  8
DEFPOINTS
  6
CONTINUOUS
 62
     0
 10
2116.760846516015
 20
238.6456890075785
 30
0.0
  0
POINT
  5
1AD
  8
DEFPOINTS
  6
CONTINUOUS
 62
     0
 10
2116.760846516015
 20
253.4291095379907
 30
0.0
  0
ENDBLK
  5
1AE
  8
0
 62
     7
  0
BLOCK
  8
0
  2
*D34
 70
     1
 10
0.0
 20
0.0
 30
0.0
  3
*D34
  1

  0
LINE
  5
192
  8
回02-寸法
  6
CONTINUOUS
 62
     5
 10
2037.260803006152
 20
225.7435646631114
 30
0.0
 11
2028.100217174864
 21
225.7435646631114
 31
0.0
  0
LINE
  5
193
  8
回02-寸法
  6
CONTINUOUS
 62
     5
 10
2037.260803005248
 20
231.9935646631113
 30
0.0
 11
2028.100217174864
 21
231.9935646631113
 31
0.0
  0
LINE
  5
194
  8
回02-寸法
  6
CONTINUOUS
 62
     5
 10
2029.100217174865
 20
233.9935646631113
 30
0.0
 11
2029.100217174865
 21
235.9935646631113
 31
0.0
  0
LINE
  5
195
  8
回02-寸法
  6
CONTINUOUS
 62
     5
 10
2029.100217174865
 20
223.7435646631114
 30
0.0
 11
2029.100217174865
 21
209.5090371040563
 31
0.0
  0
LINE
  5
196
  8
回02-寸法
  6
CONTINUOUS
 62
     5
 10
2029.100217174865
 20
231.9935646631113
 30
0.0
 11
2029.100217174865
 21
225.7435646631114
 31
0.0
  0
INSERT
  5
197
  8
回02-寸法
  6
CONTINUOUS
 62
     5
 66
     1
  2
_OPEN
 10
2029.100217174865
 20
231.9935646631113
 30
0.0
 41
2.0
 42
2.0
 43
2.0
 50
270.0
  0
SEQEND
  5
198
  8
0
  6
CONTINUOUS
 62
     7
  0
INSERT
  5
199
  8
回02-寸法
  6
CONTINUOUS
 62
     5
 66
     1
  2
_OPEN
 10
2029.100217174865
 20
225.7435646631114
 30
0.0
 41
2.0
 42
2.0
 43
2.0
 50
90.0
  0
SEQEND
  5
19A
  8
0
  6
CONTINUOUS
 62
     7
  0
INSERT
  5
19B
  8
回02-寸法
  6
CONTINUOUS
 62
     5
 66
     1
  2
*X91
 10
0.0
 20
0.0
 30
0.0
  0
SEQEND
  5
71F
  8
0
  6
CONTINUOUS
 62
     7
  0
POINT
  5
19C
  8
DEFPOINTS
  6
CONTINUOUS
 62
     0
 10
2037.260803006152
 20
225.7435646631114
 30
0.0
  0
POINT
  5
19D
  8
DEFPOINTS
  6
CONTINUOUS
 62
     0
 10
2037.260803005248
 20
231.9935646631113
 30
0.0
  0
POINT
  5
19E
  8
DEFPOINTS
  6
CONTINUOUS
 62
     0
 10
2029.100217174865
 20
231.9935646631113
 30
0.0
  0
ENDBLK
  5
19F
  8
0
 62
     7
  0
BLOCK
  8
0
  2
*D35
 70
     1
 10
0.0
 20
0.0
 30
0.0
  3
*D35
  1

  0
LINE
  5
D6
  8
回02-寸法
  6
CONTINUOUS
 62
     5
 10
2013.809075997055
 20
180.6065146114844
 30
0.0
 11
1983.389875891833
 21
180.6065146114844
 31
0.0
  0
LINE
  5
D7
  8
回02-寸法
  6
CONTINUOUS
 62
     5
 10
2013.809075997055
 20
168.1065146114853
 30
0.0
 11
1983.389875891833
 21
168.1065146114853
 31
0.0
  0
LINE
  5
D8
  8
回02-寸法
  6
CONTINUOUS
 62
     5
 10
1984.389875891833
 20
182.6065146114844
 30
0.0
 11
1984.389875891833
 21
184.6065146114844
 31
0.0
  0
LINE
  5
D9
  8
回02-寸法
  6
CONTINUOUS
 62
     5
 10
1984.389875891833
 20
166.1065146114853
 30
0.0
 11
1984.389875891833
 21
151.5566379362885
 31
0.0
  0
LINE
  5
DA
  8
回02-寸法
  6
CONTINUOUS
 62
     5
 10
1984.389875891833
 20
180.6065146114844
 30
0.0
 11
1984.389875891833
 21
168.1065146114853
 31
0.0
  0
INSERT
  5
DB
  8
回02-寸法
  6
CONTINUOUS
 62
     5
 66
     1
  2
_OPEN
 10
1984.389875891833
 20
180.6065146114844
 30
0.0
 41
2.0
 42
2.0
 43
2.0
 50
270.0
  0
SEQEND
  5
DC
  8
0
  6
CONTINUOUS
 62
     7
  0
INSERT
  5
DD
  8
回02-寸法
  6
CONTINUOUS
 62
     5
 66
     1
  2
_OPEN
 10
1984.389875891833
 20
168.1065146114853
 30
0.0
 41
2.0
 42
2.0
 43
2.0
 50
90.0
  0
SEQEND
  5
DE
  8
0
  6
CONTINUOUS
 62
     7
  0
INSERT
  5
DF
  8
回02-寸法
  6
CONTINUOUS
 62
     5
 66
     1
  2
*X92
 10
0.0
 20
0.0
 30
0.0
  0
SEQEND
  5
725
  8
0
  6
CONTINUOUS
 62
     7
  0
POINT
  5
E0
  8
DEFPOINTS
  6
CONTINUOUS
 62
     0
 10
2013.809075997055
 20
180.6065146114844
 30
0.0
  0
POINT
  5
E1
  8
DEFPOINTS
  6
CONTINUOUS
 62
     0
 10
2013.809075997055
 20
168.1065146114853
 30
0.0
  0
POINT
  5
E2
  8
DEFPOINTS
  6
CONTINUOUS
 62
     0
 10
1984.389875891833
 20
168.1065146114853
 30
0.0
  0
ENDBLK
  5
E3
  8
0
 62
     7
  0
BLOCK
  8
0
  2
*D36
 70
     1
 10
0.0
 20
0.0
 30
0.0
  3
*D36
  1

  0
LINE
  5
BC
  8
回02-寸法
  6
CONTINUOUS
 62
     5
 10
2009.909546907245
 20
173.1065146114798
 30
0.0
 11
1996.844563178356
 21
173.1065146114798
 31
0.0
  0
LINE
  5
BD
  8
回02-寸法
  6
CONTINUOUS
 62
     5
 10
2009.909546907245
 20
170.6065146114798
 30
0.0
 11
1996.844563178356
 21
170.6065146114798
 31
0.0
  0
LINE
  5
BE
  8
回02-寸法
  6
CONTINUOUS
 62
     5
 10
1997.844563178356
 20
175.1065146114798
 30
0.0
 11
1997.844563178356
 21
177.1065146114798
 31
0.0
  0
LINE
  5
BF
  8
回02-寸法
  6
CONTINUOUS
 62
     5
 10
1997.844563178356
 20
168.6065146114797
 30
0.0
 11
1997.844563178356
 21
153.6813900742751
 31
0.0
  0
LINE
  5
C0
  8
回02-寸法
  6
CONTINUOUS
 62
     5
 10
1997.844563178356
 20
173.1065146114798
 30
0.0
 11
1997.844563178356
 21
170.6065146114798
 31
0.0
  0
INSERT
  5
C1
  8
回02-寸法
  6
CONTINUOUS
 62
     5
 66
     1
  2
_OPEN
 10
1997.844563178356
 20
173.1065146114798
 30
0.0
 41
2.0
 42
2.0
 43
2.0
 50
270.0
  0
SEQEND
  5
C2
  8
0
  6
CONTINUOUS
 62
     7
  0
INSERT
  5
C3
  8
回02-寸法
  6
CONTINUOUS
 62
     5
 66
     1
  2
_OPEN
 10
1997.844563178356
 20
170.6065146114798
 30
0.0
 41
2.0
 42
2.0
 43
2.0
 50
90.0
  0
SEQEND
  5
C4
  8
0
  6
CONTINUOUS
 62
     7
  0
INSERT
  5
C5
  8
回02-寸法
  6
CONTINUOUS
 62
     5
 66
     1
  2
*X93
 10
0.0
 20
0.0
 30
0.0
  0
SEQEND
  5
72B
  8
0
  6
CONTINUOUS
 62
     7
  0
POINT
  5
C6
  8
DEFPOINTS
  6
CONTINUOUS
 62
     0
 10
2009.909546907245
 20
173.1065146114798
 30
0.0
  0
POINT
  5
C7
  8
DEFPOINTS
  6
CONTINUOUS
 62
     0
 10
2009.909546907245
 20
170.6065146114798
 30
0.0
  0
POINT
  5
C8
  8
DEFPOINTS
  6
CONTINUOUS
 62
     0
 10
1997.844563178356
 20
170.6065146114798
 30
0.0
  0
ENDBLK
  5
C9
  8
0
 62
     7
  0
BLOCK
  8
0
  2
*D37
 70
     1
 10
0.0
 20
0.0
 30
0.0
  3
*D37
  1

  0
LINE
  5
AB
  8
回02-寸法
  6
CONTINUOUS
 62
     5
 10
2012.808988975519
 20
171.3065146114798
 30
0.0
 11
2003.609200771209
 21
171.3065146114798
 31
0.0
  0
LINE
  5
AC
  8
回02-寸法
  6
CONTINUOUS
 62
     5
 10
2012.808988975519
 20
169.9065146114798
 30
0.0
 11
2003.609200771209
 21
169.9065146114798
 31
0.0
  0
LINE
  5
AD
  8
回02-寸法
  6
CONTINUOUS
 62
     5
 10
2004.609200771209
 20
173.3065146114798
 30
0.0
 11
2004.609200771209
 21
175.3065146114798
 31
0.0
  0
LINE
  5
AE
  8
回02-寸法
  6
CONTINUOUS
 62
     5
 10
2004.609200771209
 20
167.9065146114798
 30
0.0
 11
2004.609200771209
 21
150.6315351114798
 31
0.0
  0
LINE
  5
AF
  8
回02-寸法
  6
CONTINUOUS
 62
     5
 10
2004.609200771209
 20
171.3065146114798
 30
0.0
 11
2004.609200771209
 21
169.9065146114798
 31
0.0
  0
INSERT
  5
B0
  8
回02-寸法
  6
CONTINUOUS
 62
     5
 66
     1
  2
_OPEN
 10
2004.609200771209
 20
171.3065146114798
 30
0.0
 41
2.0
 42
2.0
 43
2.0
 50
270.0
  0
SEQEND
  5
B1
  8
0
  6
CONTINUOUS
 62
     7
  0
INSERT
  5
B2
  8
回02-寸法
  6
CONTINUOUS
 62
     5
 66
     1
  2
_OPEN
 10
2004.609200771209
 20
169.9065146114798
 30
0.0
 41
2.0
 42
2.0
 43
2.0
 50
90.0
  0
SEQEND
  5
B3
  8
0
  6
CONTINUOUS
 62
     7
  0
INSERT
  5
B4
  8
回02-寸法
  6
CONTINUOUS
 62
     5
 66
     1
  2
*X94
 10
0.0
 20
0.0
 30
0.0
  0
SEQEND
  5
731
  8
0
  6
CONTINUOUS
 62
     7
  0
POINT
  5
B5
  8
DEFPOINTS
  6
CONTINUOUS
 62
     0
 10
2012.808988975519
 20
171.3065146114798
 30
0.0
  0
POINT
  5
B6
  8
DEFPOINTS
  6
CONTINUOUS
 62
     0
 10
2012.808988975519
 20
169.9065146114798
 30
0.0
  0
POINT
  5
B7
  8
DEFPOINTS
  6
CONTINUOUS
 62
     0
 10
2004.609200771209
 20
169.9065146114798
 30
0.0
  0
ENDBLK
  5
B8
  8
0
 62
     7
  0
BLOCK
  8
0
  2
*D38
 70
     1
 10
0.0
 20
0.0
 30
0.0
  3
*D38
  1

  0
LINE
  5
99
  8
回02-寸法
  6
CONTINUOUS
 62
     5
 10
2009.909546907245
 20
170.6065146114798
 30
0.0
 11
1990.429825152163
 21
170.6065146114798
 31
0.0
  0
LINE
  5
9A
  8
回02-寸法
  6
CONTINUOUS
 62
     5
 10
2009.909459885709
 20
178.1065146114798
 30
0.0
 11
1990.429825152163
 21
178.1065146114798
 31
0.0
  0
LINE
  5
9B
  8
回02-寸法
  6
CONTINUOUS
 62
     5
 10
1991.429825152163
 20
180.1065146114798
 30
0.0
 11
1991.429825152163
 21
182.1065146114797
 31
0.0
  0
LINE
  5
9C
  8
回02-寸法
  6
CONTINUOUS
 62
     5
 10
1991.429825152163
 20
168.6065146114797
 30
0.0
 11
1991.429825152163
 21
153.5103421394394
 31
0.0
  0
LINE
  5
9D
  8
回02-寸法
  6
CONTINUOUS
 62
     5
 10
1991.429825152163
 20
178.1065146114798
 30
0.0
 11
1991.429825152163
 21
170.6065146114798
 31
0.0
  0
INSERT
  5
9E
  8
回02-寸法
  6
CONTINUOUS
 62
     5
 66
     1
  2
_OPEN
 10
1991.429825152163
 20
178.1065146114798
 30
0.0
 41
2.0
 42
2.0
 43
2.0
 50
270.0
  0
SEQEND
  5
9F
  8
0
  6
CONTINUOUS
 62
     7
  0
INSERT
  5
A0
  8
回02-寸法
  6
CONTINUOUS
 62
     5
 66
     1
  2
_OPEN
 10
1991.429825152163
 20
170.6065146114798
 30
0.0
 41
2.0
 42
2.0
 43
2.0
 50
90.0
  0
SEQEND
  5
A1
  8
0
  6
CONTINUOUS
 62
     7
  0
INSERT
  5
A2
  8
回02-寸法
  6
CONTINUOUS
 62
     5
 66
     1
  2
*X95
 10
0.0
 20
0.0
 30
0.0
  0
SEQEND
  5
737
  8
0
  6
CONTINUOUS
 62
     7
  0
POINT
  5
A3
  8
DEFPOINTS
  6
CONTINUOUS
 62
     0
 10
2009.909546907245
 20
170.6065146114798
 30
0.0
  0
POINT
  5
A5
  8
DEFPOINTS
  6
CONTINUOUS
 62
     0
 10
2009.909459885709
 20
178.1065146114798
 30
0.0
  0
POINT
  5
A6
  8
DEFPOINTS
  6
CONTINUOUS
 62
     0
 10
1991.429825152163
 20
178.1065146114798
 30
0.0
  0
ENDBLK
  5
A7
  8
0
 62
     7
  0
BLOCK
  8
0
  2
*D39
 70
     1
 10
0.0
 20
0.0
 30
0.0
  3
*D39
  1

  0
LINE
  5
45D
  8
回02-寸法
  6
CONTINUOUS
 62
     5
 10
2000.182685980982
 20
101.4552052425867
 30
0.0
 11
1980.702964225901
 21
101.4552052425867
 31
0.0
  0
LINE
  5
45F
  8
回02-寸法
  6
CONTINUOUS
 62
     5
 10
2000.182598959447
 20
108.9552052425867
 30
0.0
 11
1980.702964225901
 21
108.9552052425867
 31
0.0
  0
LINE
  5
460
  8
回02-寸法
  6
CONTINUOUS
 62
     5
 10
1981.702964225901
 20
99.45520524258672
 30
0.0
 11
1981.702964225901
 21
84.35903277054576
 31
0.0
  0
LINE
  5
461
  8
回02-寸法
  6
CONTINUOUS
 62
     5
 10
1981.702964225901
 20
101.4552052425867
 30
0.0
 11
1981.702964225901
 21
108.9552052425867
 31
0.0
  0
LINE
  5
462
  8
回02-寸法
  6
CONTINUOUS
 62
     5
 10
1981.702964225901
 20
110.9552052425867
 30
0.0
 11
1981.702964225901
 21
112.9552052425867
 31
0.0
  0
INSERT
  5
463
  8
回02-寸法
  6
CONTINUOUS
 62
     5
  2
_OPEN
 10
1981.702964225901
 20
101.4552052425867
 30
0.0
 41
2.0
 42
2.0
 43
2.0
 50
90.0
  0
INSERT
  5
464
  8
回02-寸法
  6
CONTINUOUS
 62
     5
  2
_OPEN
 10
1981.702964225901
 20
108.9552052425867
 30
0.0
 41
2.0
 42
2.0
 43
2.0
 50
270.0
  0
INSERT
  5
465
  8
回02-寸法
  6
CONTINUOUS
 62
     5
 66
     1
  2
*X96
 10
0.0
 20
0.0
 30
0.0
  0
SEQEND
  5
73D
  8
0
  6
CONTINUOUS
 62
     7
  0
POINT
  5
466
  8
DEFPOINTS
  6
CONTINUOUS
 62
     0
 10
2000.182685980982
 20
101.4552052425867
 30
0.0
  0
POINT
  5
467
  8
DEFPOINTS
  6
CONTINUOUS
 62
     0
 10
2000.182598959447
 20
108.9552052425867
 30
0.0
  0
POINT
  5
468
  8
DEFPOINTS
  6
CONTINUOUS
 62
     0
 10
1981.702964225901
 20
108.9552052425867
 30
0.0
  0
ENDBLK
  5
46A
  8
0
  6
CONTINUOUS
 62
     7
  0
BLOCK
  8
0
  2
*D40
 70
     1
 10
0.0
 20
0.0
 30
0.0
  3
*D40
  1

  0
LINE
  5
46C
  8
回02-寸法
  6
CONTINUOUS
 62
     5
 10
2003.082128049257
 20
102.1552052425867
 30
0.0
 11
1993.882339844948
 21
102.1552052425867
 31
0.0
  0
LINE
  5
46D
  8
回02-寸法
  6
CONTINUOUS
 62
     5
 10
2003.082128049257
 20
100.7552052425868
 30
0.0
 11
1993.882339844948
 21
100.7552052425868
 31
0.0
  0
LINE
  5
46E
  8
回02-寸法
  6
CONTINUOUS
 62
     5
 10
1994.882339844948
 20
98.75520524258678
 30
0.0
 11
1994.882339844948
 21
81.4802257425868
 31
0.0
  0
LINE
  5
46F
  8
回02-寸法
  6
CONTINUOUS
 62
     5
 10
1994.882339844948
 20
102.1552052425867
 30
0.0
 11
1994.882339844948
 21
100.7552052425868
 31
0.0
  0
LINE
  5
470
  8
回02-寸法
  6
CONTINUOUS
 62
     5
 10
1994.882339844948
 20
104.1552052425867
 30
0.0
 11
1994.882339844948
 21
106.1552052425867
 31
0.0
  0
INSERT
  5
471
  8
回02-寸法
  6
CONTINUOUS
 62
     5
  2
_OPEN
 10
1994.882339844948
 20
102.1552052425867
 30
0.0
 41
2.0
 42
2.0
 43
2.0
 50
270.0
  0
INSERT
  5
472
  8
回02-寸法
  6
CONTINUOUS
 62
     5
  2
_OPEN
 10
1994.882339844948
 20
100.7552052425868
 30
0.0
 41
2.0
 42
2.0
 43
2.0
 50
90.0
  0
INSERT
  5
473
  8
回02-寸法
  6
CONTINUOUS
 62
     5
 66
     1
  2
*X97
 10
0.0
 20
0.0
 30
0.0
  0
SEQEND
  5
743
  8
0
  6
CONTINUOUS
 62
     7
  0
POINT
  5
474
  8
DEFPOINTS
  6
CONTINUOUS
 62
     0
 10
2003.082128049257
 20
102.1552052425867
 30
0.0
  0
POINT
  5
475
  8
DEFPOINTS
  6
CONTINUOUS
 62
     0
 10
2003.082128049257
 20
100.7552052425868
 30
0.0
  0
POINT
  5
476
  8
DEFPOINTS
  6
CONTINUOUS
 62
     0
 10
1994.882339844948
 20
100.7552052425868
 30
0.0
  0
ENDBLK
  5
478
  8
0
  6
CONTINUOUS
 62
     7
  0
BLOCK
  8
0
  2
*D41
 70
     1
 10
0.0
 20
0.0
 30
0.0
  3
*D41
  1

  0
LINE
  5
47A
  8
回02-寸法
  6
CONTINUOUS
 62
     5
 10
2000.182685980982
 20
103.9552052425867
 30
0.0
 11
1987.117702252095
 21
103.9552052425867
 31
0.0
  0
LINE
  5
47B
  8
回02-寸法
  6
CONTINUOUS
 62
     5
 10
2000.182685980982
 20
101.4552052425867
 30
0.0
 11
1987.117702252095
 21
101.4552052425867
 31
0.0
  0
LINE
  5
47C
  8
回02-寸法
  6
CONTINUOUS
 62
     5
 10
1988.117702252095
 20
99.45520524258672
 30
0.0
 11
1988.117702252095
 21
84.67967493589748
 31
0.0
  0
LINE
  5
47D
  8
回02-寸法
  6
CONTINUOUS
 62
     5
 10
1988.117702252095
 20
103.9552052425867
 30
0.0
 11
1988.117702252095
 21
101.4552052425867
 31
0.0
  0
LINE
  5
47E
  8
回02-寸法
  6
CONTINUOUS
 62
     5
 10
1988.117702252095
 20
105.9552052425867
 30
0.0
 11
1988.117702252095
 21
107.9552052425867
 31
0.0
  0
INSERT
  5
47F
  8
回02-寸法
  6
CONTINUOUS
 62
     5
  2
_OPEN
 10
1988.117702252095
 20
103.9552052425867
 30
0.0
 41
2.0
 42
2.0
 43
2.0
 50
270.0
  0
INSERT
  5
480
  8
回02-寸法
  6
CONTINUOUS
 62
     5
  2
_OPEN
 10
1988.117702252095
 20
101.4552052425867
 30
0.0
 41
2.0
 42
2.0
 43
2.0
 50
90.0
  0
INSERT
  5
481
  8
回02-寸法
  6
CONTINUOUS
 62
     5
 66
     1
  2
*X98
 10
0.0
 20
0.0
 30
0.0
  0
SEQEND
  5
749
  8
0
  6
CONTINUOUS
 62
     7
  0
POINT
  5
482
  8
DEFPOINTS
  6
CONTINUOUS
 62
     0
 10
2000.182685980982
 20
103.9552052425867
 30
0.0
  0
POINT
  5
483
  8
DEFPOINTS
  6
CONTINUOUS
 62
     0
 10
2000.182685980982
 20
101.4552052425867
 30
0.0
  0
POINT
  5
484
  8
DEFPOINTS
  6
CONTINUOUS
 62
     0
 10
1988.117702252095
 20
101.4552052425867
 30
0.0
  0
ENDBLK
  5
486
  8
0
  6
CONTINUOUS
 62
     7
  0
BLOCK
  8
0
  2
*D42
 70
     1
 10
0.0
 20
0.0
 30
0.0
  3
*D42
  1

  0
LINE
  5
488
  8
回02-寸法
  6
CONTINUOUS
 62
     5
 10
2004.082215070793
 20
111.4552052425914
 30
0.0
 11
1973.663014965572
 21
111.4552052425914
 31
0.0
  0
LINE
  5
489
  8
回02-寸法
  6
CONTINUOUS
 62
     5
 10
2004.082215070793
 20
98.95520524259229
 30
0.0
 11
1973.663014965572
 21
98.95520524259229
 31
0.0
  0
LINE
  5
48A
  8
回02-寸法
  6
CONTINUOUS
 62
     5
 10
1974.663014965572
 20
109.4552052425914
 30
0.0
 11
1974.663014965572
 21
100.9552052425923
 31
0.0
  0
INSERT
  5
48B
  8
回02-寸法
  6
CONTINUOUS
 62
     5
  2
_OPEN
 10
1974.663014965572
 20
111.4552052425914
 30
0.0
 41
2.0
 42
2.0
 43
2.0
 50
90.0
  0
INSERT
  5
48C
  8
回02-寸法
  6
CONTINUOUS
 62
     5
  2
_OPEN
 10
1974.663014965572
 20
98.95520524259229
 30
0.0
 41
2.0
 42
2.0
 43
2.0
 50
270.0
  0
INSERT
  5
48D
  8
回02-寸法
  6
CONTINUOUS
 62
     5
 66
     1
  2
*X99
 10
0.0
 20
0.0
 30
0.0
  0
SEQEND
  5
74F
  8
0
  6
CONTINUOUS
 62
     7
  0
POINT
  5
48E
  8
DEFPOINTS
  6
CONTINUOUS
 62
     0
 10
2004.082215070793
 20
111.4552052425914
 30
0.0
  0
POINT
  5
48F
  8
DEFPOINTS
  6
CONTINUOUS
 62
     0
 10
2004.082215070793
 20
98.95520524259229
 30
0.0
  0
POINT
  5
490
  8
DEFPOINTS
  6
CONTINUOUS
 62
     0
 10
1974.663014965572
 20
98.95520524259229
 30
0.0
  0
ENDBLK
  5
492
  8
0
  6
CONTINUOUS
 62
     7
  0
BLOCK
  8
0
  2
*D43
 70
     1
 10
0.0
 20
0.0
 30
0.0
  3
*D43
  1

  0
LINE
  5
494
  8
回02-寸法
  6
CONTINUOUS
 62
     5
 10
2037.033985589754
 20
43.9992883419988
 30
0.0
 11
2037.033985589754
 21
52.35318064955635
 31
0.0
  0
LINE
  5
496
  8
回02-寸法
  6
CONTINUOUS
 62
     5
 10
2032.033985589754
 20
42.99928834199881
 30
0.0
 11
2032.033985589754
 21
52.35318064955635
 31
0.0
  0
LINE
  5
497
  8
回02-寸法
  6
CONTINUOUS
 62
     5
 10
2039.033985589754
 20
51.35318064955635
 30
0.0
 11
2044.17512124618
 21
51.35318064955635
 31
0.0
  0
LINE
  5
498
  8
回02-寸法
  6
CONTINUOUS
 62
     5
 10
2037.033985589754
 20
51.35318064955635
 30
0.0
 11
2032.033985589754
 21
51.35318064955635
 31
0.0
  0
LINE
  5
499
  8
回02-寸法
  6
CONTINUOUS
 62
     5
 10
2030.033985589754
 20
51.35318064955635
 30
0.0
 11
2028.033985589754
 21
51.35318064955635
 31
0.0
  0
INSERT
  5
49A
  8
回02-寸法
  6
CONTINUOUS
 62
     5
  2
_OPEN
 10
2037.033985589754
 20
51.35318064955635
 30
0.0
 41
2.0
 42
2.0
 43
2.0
 50
180.0
  0
INSERT
  5
49B
  8
回02-寸法
  6
CONTINUOUS
 62
     5
  2
_OPEN
 10
2032.033985589754
 20
51.35318064955635
 30
0.0
 41
2.0
 42
2.0
 43
2.0
  0
TEXT
  5
49C
  8
回02-寸法
  6
CONTINUOUS
 62
     5
 10
2042.02512124618
 20
51.85318064955635
 30
0.0
 40
3.0
  1
5
  0
POINT
  5
49D
  8
DEFPOINTS
  6
CONTINUOUS
 62
     0
 10
2037.033985589754
 20
43.9992883419988
 30
0.0
  0
POINT
  5
49E
  8
DEFPOINTS
  6
CONTINUOUS
 62
     0
 10
2032.033985589754
 20
42.99928834199881
 30
0.0
  0
POINT
  5
49F
  8
DEFPOINTS
  6
CONTINUOUS
 62
     0
 10
2032.033985589754
 20
51.35318064955635
 30
0.0
  0
ENDBLK
  5
4A1
  8
0
  6
CONTINUOUS
 62
     7
  0
BLOCK
  8
0
  2
*D44
 70
     1
 10
0.0
 20
0.0
 30
0.0
  3
*D44
  1

  0
LINE
  5
4A3
  8
回02-寸法
  6
CONTINUOUS
 62
     5
 10
2042.033985589754
 20
40.49928834199881
 30
0.0
 11
2042.033985589754
 21
27.75278198666662
 31
0.0
  0
LINE
  5
4A4
  8
回02-寸法
  6
CONTINUOUS
 62
     5
 10
2032.033985589754
 20
40.49928834199881
 30
0.0
 11
2032.033985589754
 21
27.75278198666662
 31
0.0
  0
LINE
  5
4A5
  8
回02-寸法
  6
CONTINUOUS
 62
     5
 10
2044.033985589754
 20
28.75278198666662
 30
0.0
 11
2052.131623385029
 21
28.75278198666662
 31
0.0
  0
LINE
  5
4A6
  8
回02-寸法
  6
CONTINUOUS
 62
     5
 10
2042.033985589754
 20
28.75278198666662
 30
0.0
 11
2032.033985589754
 21
28.75278198666662
 31
0.0
  0
LINE
  5
4A7
  8
回02-寸法
  6
CONTINUOUS
 62
     5
 10
2030.033985589754
 20
28.75278198666662
 30
0.0
 11
2028.033985589754
 21
28.75278198666662
 31
0.0
  0
INSERT
  5
4A8
  8
回02-寸法
  6
CONTINUOUS
 62
     5
  2
_OPEN
 10
2042.033985589754
 20
28.75278198666662
 30
0.0
 41
2.0
 42
2.0
 43
2.0
 50
180.0
  0
INSERT
  5
4A9
  8
回02-寸法
  6
CONTINUOUS
 62
     5
  2
_OPEN
 10
2032.033985589754
 20
28.75278198666662
 30
0.0
 41
2.0
 42
2.0
 43
2.0
  0
TEXT
  5
4AA
  8
回02-寸法
  6
CONTINUOUS
 62
     5
 10
2046.082804487392
 20
29.40278198666662
 30
0.0
 40
3.0
  1
(10)
  0
POINT
  5
4AB
  8
DEFPOINTS
  6
CONTINUOUS
 62
     0
 10
2042.033985589754
 20
40.49928834199881
 30
0.0
  0
POINT
  5
4AC
  8
DEFPOINTS
  6
CONTINUOUS
 62
     0
 10
2032.033985589754
 20
40.49928834199881
 30
0.0
  0
POINT
  5
4AD
  8
DEFPOINTS
  6
CONTINUOUS
 62
     0
 10
2032.033985589754
 20
28.75278198666662
 30
0.0
  0
ENDBLK
  5
4AF
  8
0
  6
CONTINUOUS
 62
     7
  0
BLOCK
  8
0
  2
*D45
 70
     1
 10
0.0
 20
0.0
 30
0.0
  3
*D45
  1

  0
LINE
  5
4B1
  8
回02-寸法
  6
CONTINUOUS
 62
     5
 10
2032.033985589754
 20
40.49928834199881
 30
0.0
 11
2022.656982231747
 21
40.49928834199881
 31
0.0
  0
LINE
  5
4B2
  8
回02-寸法
  6
CONTINUOUS
 62
     5
 10
2032.033985589754
 20
42.99928834199881
 30
0.0
 11
2022.656982231747
 21
42.99928834199881
 31
0.0
  0
LINE
  5
4B3
  8
回02-寸法
  6
CONTINUOUS
 62
     5
 10
2023.656982231747
 20
38.49928834199881
 30
0.0
 11
2023.656982231747
 21
24.90520770996879
 31
0.0
  0
LINE
  5
4B4
  8
回02-寸法
  6
CONTINUOUS
 62
     5
 10
2023.656982231747
 20
40.49928834199881
 30
0.0
 11
2023.656982231747
 21
42.99928834199881
 31
0.0
  0
LINE
  5
4B5
  8
回02-寸法
  6
CONTINUOUS
 62
     5
 10
2023.656982231747
 20
44.9992883419988
 30
0.0
 11
2023.656982231747
 21
46.9992883419988
 31
0.0
  0
INSERT
  5
4B6
  8
回02-寸法
  6
CONTINUOUS
 62
     5
  2
_OPEN
 10
2023.656982231747
 20
40.49928834199881
 30
0.0
 41
2.0
 42
2.0
 43
2.0
 50
90.0
  0
INSERT
  5
4B7
  8
回02-寸法
  6
CONTINUOUS
 62
     5
  2
_OPEN
 10
2023.656982231747
 20
42.99928834199881
 30
0.0
 41
2.0
 42
2.0
 43
2.0
 50
270.0
  0
INSERT
  5
4B8
  8
回02-寸法
  6
CONTINUOUS
 62
     5
 66
     1
  2
*X100
 10
0.0
 20
0.0
 30
0.0
  0
SEQEND
  5
755
  8
0
  6
CONTINUOUS
 62
     7
  0
POINT
  5
4B9
  8
DEFPOINTS
  6
CONTINUOUS
 62
     0
 10
2032.033985589754
 20
40.49928834199881
 30
0.0
  0
POINT
  5
4BA
  8
DEFPOINTS
  6
CONTINUOUS
 62
     0
 10
2032.033985589754
 20
42.99928834199881
 30
0.0
  0
POINT
  5
4BB
  8
DEFPOINTS
  6
CONTINUOUS
 62
     0
 10
2023.656982231747
 20
42.99928834199881
 30
0.0
  0
ENDBLK
  5
4BD
  8
0
  6
CONTINUOUS
 62
     7
  0
BLOCK
  8
0
  2
*D46
 70
     1
 10
0.0
 20
0.0
 30
0.0
  3
*D46
  1

  0
LINE
  5
4BF
  8
回02-寸法
  6
CONTINUOUS
 62
     5
 10
2292.633985589754
 20
41.9992883419988
 30
0.0
 11
2292.633985589754
 21
54.69044774058687
 31
0.0
  0
LINE
  5
4C0
  8
回02-寸法
  6
CONTINUOUS
 62
     5
 10
2292.133985589754
 20
44.49928834199903
 30
0.0
 11
2292.133985589754
 21
54.69044774058687
 31
0.0
  0
LINE
  5
4C1
  8
回02-寸法
  6
CONTINUOUS
 62
     5
 10
2290.133985589754
 20
53.69044774058687
 30
0.0
 11
2280.536347794479
 21
53.69044774058687
 31
0.0
  0
LINE
  5
4C2
  8
回02-寸法
  6
CONTINUOUS
 62
     5
 10
2292.633985589754
 20
53.69044774058687
 30
0.0
 11
2292.133985589754
 21
53.69044774058687
 31
0.0
  0
LINE
  5
4C3
  8
回02-寸法
  6
CONTINUOUS
 62
     5
 10
2294.633985589754
 20
53.69044774058687
 30
0.0
 11
2296.633985589754
 21
53.69044774058687
 31
0.0
  0
INSERT
  5
4C4
  8
回02-寸法
  6
CONTINUOUS
 62
     5
  2
_OPEN
 10
2292.633985589754
 20
53.69044774058687
 30
0.0
 41
2.0
 42
2.0
 43
2.0
 50
180.0
  0
INSERT
  5
4C5
  8
回02-寸法
  6
CONTINUOUS
 62
     5
  2
_OPEN
 10
2292.133985589754
 20
53.69044774058687
 30
0.0
 41
2.0
 42
2.0
 43
2.0
  0
TEXT
  5
4C6
  8
回02-寸法
  6
CONTINUOUS
 62
     5
 10
2280.585166692116
 20
54.34044774058689
 30
0.0
 40
3.0
  1
(0.5)
  0
POINT
  5
4C7
  8
DEFPOINTS
  6
CONTINUOUS
 62
     0
 10
2292.633985589754
 20
41.9992883419988
 30
0.0
  0
POINT
  5
4C8
  8
DEFPOINTS
  6
CONTINUOUS
 62
     0
 10
2292.133985589754
 20
44.49928834199903
 30
0.0
  0
POINT
  5
4C9
  8
DEFPOINTS
  6
CONTINUOUS
 62
     0
 10
2292.133985589754
 20
53.69044774058687
 30
0.0
  0
ENDBLK
  5
4CB
  8
0
  6
CONTINUOUS
 62
     7
  0
BLOCK
  8
0
  2
*D47
 70
     1
 10
0.0
 20
0.0
 30
0.0
  3
*D47
  1

  0
LINE
  5
4CD
  8
回02-寸法
  6
CONTINUOUS
 62
     5
 10
2107.033985589754
 20
41.9992883419988
 30
0.0
 11
2107.033985589754
 21
54.69044774058687
 31
0.0
  0
LINE
  5
4CE
  8
回02-寸法
  6
CONTINUOUS
 62
     5
 10
2107.533985589753
 20
44.4992883419988
 30
0.0
 11
2107.533985589753
 21
54.69044774058687
 31
0.0
  0
LINE
  5
4CF
  8
回02-寸法
  6
CONTINUOUS
 62
     5
 10
2109.533985589754
 20
53.69044774058687
 30
0.0
 11
2119.13162338503
 21
53.69044774058687
 31
0.0
  0
LINE
  5
4D0
  8
回02-寸法
  6
CONTINUOUS
 62
     5
 10
2107.033985589754
 20
53.69044774058687
 30
0.0
 11
2107.533985589753
 21
53.69044774058687
 31
0.0
  0
LINE
  5
4D1
  8
回02-寸法
  6
CONTINUOUS
 62
     5
 10
2105.033985589754
 20
53.69044774058687
 30
0.0
 11
2103.033985589754
 21
53.69044774058687
 31
0.0
  0
INSERT
  5
4D2
  8
回02-寸法
  6
CONTINUOUS
 62
     5
  2
_OPEN
 10
2107.033985589754
 20
53.69044774058687
 30
0.0
 41
2.0
 42
2.0
 43
2.0
  0
INSERT
  5
4D3
  8
回02-寸法
  6
CONTINUOUS
 62
     5
  2
_OPEN
 10
2107.533985589753
 20
53.69044774058687
 30
0.0
 41
2.0
 42
2.0
 43
2.0
 50
180.0
  0
TEXT
  5
4D4
  8
回02-寸法
  6
CONTINUOUS
 62
     5
 10
2111.582804487392
 20
54.34044774058689
 30
0.0
 40
3.0
  1
(0.5)
  0
POINT
  5
4D5
  8
DEFPOINTS
  6
CONTINUOUS
 62
     0
 10
2107.033985589754
 20
41.9992883419988
 30
0.0
  0
POINT
  5
4D6
  8
DEFPOINTS
  6
CONTINUOUS
 62
     0
 10
2107.533985589753
 20
44.4992883419988
 30
0.0
  0
POINT
  5
4D7
  8
DEFPOINTS
  6
CONTINUOUS
 62
     0
 10
2107.533985589753
 20
53.69044774058687
 30
0.0
  0
ENDBLK
  5
4D9
  8
0
  6
CONTINUOUS
 62
     7
  0
BLOCK
  8
0
  2
*D48
 70
     1
 10
0.0
 20
0.0
 30
0.0
  3
*D48
  1

  0
LINE
  5
4DB
  8
回02-寸法
  6
CONTINUOUS
 62
     5
 10
2292.633985589754
 20
38.99928834199903
 30
0.0
 11
2301.402510342123
 21
38.99928834199903
 31
0.0
  0
LINE
  5
4DC
  8
回02-寸法
  6
CONTINUOUS
 62
     5
 10
2292.133985589754
 20
44.49928834199903
 30
0.0
 11
2301.402510342123
 21
44.49928834199903
 31
0.0
  0
LINE
  5
4DD
  8
回02-寸法
  6
CONTINUOUS
 62
     5
 10
2300.402510342123
 20
46.49928834199903
 30
0.0
 11
2300.402510342123
 21
58.04995561123172
 31
0.0
  0
LINE
  5
4DE
  8
回02-寸法
  6
CONTINUOUS
 62
     5
 10
2300.402510342123
 20
38.99928834199903
 30
0.0
 11
2300.402510342123
 21
44.49928834199903
 31
0.0
  0
LINE
  5
4DF
  8
回02-寸法
  6
CONTINUOUS
 62
     5
 10
2300.402510342123
 20
36.99928834199904
 30
0.0
 11
2300.402510342123
 21
34.99928834199903
 31
0.0
  0
INSERT
  5
4E0
  8
回02-寸法
  6
CONTINUOUS
 62
     5
  2
_OPEN
 10
2300.402510342123
 20
38.99928834199903
 30
0.0
 41
2.0
 42
2.0
 43
2.0
 50
90.0
  0
INSERT
  5
4E1
  8
回02-寸法
  6
CONTINUOUS
 62
     5
  2
_OPEN
 10
2300.402510342123
 20
44.49928834199903
 30
0.0
 41
2.0
 42
2.0
 43
2.0
 50
270.0
  0
INSERT
  5
4E2
  8
回02-寸法
  6
CONTINUOUS
 62
     5
 66
     1
  2
*X101
 10
0.0
 20
0.0
 30
0.0
  0
SEQEND
  5
75B
  8
0
  6
CONTINUOUS
 62
     7
  0
POINT
  5
4E3
  8
DEFPOINTS
  6
CONTINUOUS
 62
     0
 10
2292.633985589754
 20
38.99928834199903
 30
0.0
  0
POINT
  5
4E4
  8
DEFPOINTS
  6
CONTINUOUS
 62
     0
 10
2292.133985589754
 20
44.49928834199903
 30
0.0
  0
POINT
  5
4E5
  8
DEFPOINTS
  6
CONTINUOUS
 62
     0
 10
2300.402510342123
 20
44.49928834199903
 30
0.0
  0
ENDBLK
  5
4E7
  8
0
  6
CONTINUOUS
 62
     7
  0
BLOCK
  8
0
  2
*D49
 70
     1
 10
0.0
 20
0.0
 30
0.0
  3
*D49
  1

  0
LINE
  5
4E9
  8
回02-寸法
  6
CONTINUOUS
 62
     5
 10
2027.53394207989
 20
156.5922552942183
 30
0.0
 11
2018.373356248603
 21
156.5922552942183
 31
0.0
  0
LINE
  5
4EA
  8
回02-寸法
  6
CONTINUOUS
 62
     5
 10
2027.533942078986
 20
162.8422552942182
 30
0.0
 11
2018.373356248603
 21
162.8422552942182
 31
0.0
  0
LINE
  5
4EB
  8
回02-寸法
  6
CONTINUOUS
 62
     5
 10
2019.373356248603
 20
154.5922552942183
 30
0.0
 11
2019.373356248603
 21
140.4474915146903
 31
0.0
  0
LINE
  5
4EC
  8
回02-寸法
  6
CONTINUOUS
 62
     5
 10
2019.373356248603
 20
156.5922552942183
 30
0.0
 11
2019.373356248603
 21
162.8422552942182
 31
0.0
  0
LINE
  5
4ED
  8
回02-寸法
  6
CONTINUOUS
 62
     5
 10
2019.373356248603
 20
164.8422552942182
 30
0.0
 11
2019.373356248603
 21
166.8422552942182
 31
0.0
  0
INSERT
  5
4EE
  8
回02-寸法
  6
CONTINUOUS
 62
     5
  2
_OPEN
 10
2019.373356248603
 20
156.5922552942183
 30
0.0
 41
2.0
 42
2.0
 43
2.0
 50
90.0
  0
INSERT
  5
4EF
  8
回02-寸法
  6
CONTINUOUS
 62
     5
  2
_OPEN
 10
2019.373356248603
 20
162.8422552942182
 30
0.0
 41
2.0
 42
2.0
 43
2.0
 50
270.0
  0
INSERT
  5
4F0
  8
回02-寸法
  6
CONTINUOUS
 62
     5
 66
     1
  2
*X102
 10
0.0
 20
0.0
 30
0.0
  0
SEQEND
  5
761
  8
0
  6
CONTINUOUS
 62
     7
  0
POINT
  5
4F1
  8
DEFPOINTS
  6
CONTINUOUS
 62
     0
 10
2027.53394207989
 20
156.5922552942183
 30
0.0
  0
POINT
  5
4F2
  8
DEFPOINTS
  6
CONTINUOUS
 62
     0
 10
2027.533942078986
 20
162.8422552942182
 30
0.0
  0
POINT
  5
4F3
  8
DEFPOINTS
  6
CONTINUOUS
 62
     0
 10
2019.373356248603
 20
162.8422552942182
 30
0.0
  0
ENDBLK
  5
4F5
  8
0
  6
CONTINUOUS
 62
     7
  0
BLOCK
  8
0
  2
*D50
 70
     1
 10
0.0
 20
0.0
 30
0.0
  3
*D50
  1

  0
LINE
  5
4F7
  8
回02-寸法
  6
CONTINUOUS
 62
     5
 10
2027.033942078986
 20
162.3422552942178
 30
0.0
 11
2027.033942078986
 21
185.2778001690977
 31
0.0
  0
LINE
  5
4F8
  8
回02-寸法
  6
CONTINUOUS
 62
     5
 10
2107.033985589754
 20
169.4943796386855
 30
0.0
 11
2107.033985589754
 21
185.2778001690977
 31
0.0
  0
LINE
  5
4F9
  8
回02-寸法
  6
CONTINUOUS
 62
     5
 10
2029.033942078986
 20
184.2778001690977
 30
0.0
 11
2105.033985589754
 21
184.2778001690977
 31
0.0
  0
INSERT
  5
4FA
  8
回02-寸法
  6
CONTINUOUS
 62
     5
  2
_OPEN
 10
2027.033942078986
 20
184.2778001690977
 30
0.0
 41
2.0
 42
2.0
 43
2.0
 50
180.0
  0
INSERT
  5
4FB
  8
回02-寸法
  6
CONTINUOUS
 62
     5
  2
_OPEN
 10
2107.033985589754
 20
184.2778001690977
 30
0.0
 41
2.0
 42
2.0
 43
2.0
  0
INSERT
  5
4FC
  8
回02-寸法
  6
CONTINUOUS
 62
     5
 66
     1
  2
*X103
 10
0.0
 20
0.0
 30
0.0
  0
SEQEND
  5
767
  8
0
  6
CONTINUOUS
 62
     7
  0
POINT
  5
4FD
  8
DEFPOINTS
  6
CONTINUOUS
 62
     0
 10
2027.033942078986
 20
162.3422552942178
 30
0.0
  0
POINT
  5
4FE
  8
DEFPOINTS
  6
CONTINUOUS
 62
     0
 10
2107.033985589754
 20
169.4943796386855
 30
0.0
  0
POINT
  5
4FF
  8
DEFPOINTS
  6
CONTINUOUS
 62
     0
 10
2107.033985589754
 20
184.2778001690977
 30
0.0
  0
ENDBLK
  5
501
  8
0
  6
CONTINUOUS
 62
     7
  0
BLOCK
  8
0
  2
*D51
 70
     1
 10
0.0
 20
0.0
 30
0.0
  3
*D51
  1

  0
LINE
  5
503
  8
回02-寸法
  6
CONTINUOUS
 62
     5
 10
2107.033985589754
 20
231.3672552942179
 30
0.0
 11
2011.273578164502
 21
231.3672552942179
 31
0.0
  0
LINE
  5
504
  8
回02-寸法
  6
CONTINUOUS
 62
     5
 10
2027.033942078986
 20
159.7172552942178
 30
0.0
 11
2011.273578164502
 21
159.7172552942178
 31
0.0
  0
LINE
  5
505
  8
回02-寸法
  6
CONTINUOUS
 62
     5
 10
2012.273578164502
 20
229.3672552942179
 30
0.0
 11
2012.273578164502
 21
161.7172552942179
 31
0.0
  0
INSERT
  5
506
  8
回02-寸法
  6
CONTINUOUS
 62
     5
  2
_OPEN
 10
2012.273578164502
 20
231.3672552942179
 30
0.0
 41
2.0
 42
2.0
 43
2.0
 50
90.0
  0
INSERT
  5
507
  8
回02-寸法
  6
CONTINUOUS
 62
     5
  2
_OPEN
 10
2012.273578164502
 20
159.7172552942178
 30
0.0
 41
2.0
 42
2.0
 43
2.0
 50
270.0
  0
TEXT
  5
508
  8
回02-寸法
  6
CONTINUOUS
 62
     5
 10
2011.623578164502
 20
189.9922552942175
 30
0.0
 40
3.0
  1
(71.65)
 50
90.0
  0
POINT
  5
509
  8
DEFPOINTS
  6
CONTINUOUS
 62
     0
 10
2107.033985589754
 20
231.3672552942179
 30
0.0
  0
POINT
  5
50A
  8
DEFPOINTS
  6
CONTINUOUS
 62
     0
 10
2027.033942078986
 20
159.7172552942178
 30
0.0
  0
POINT
  5
50B
  8
DEFPOINTS
  6
CONTINUOUS
 62
     0
 10
2012.273578164502
 20
159.7172552942178
 30
0.0
  0
ENDBLK
  5
50D
  8
0
  6
CONTINUOUS
 62
     7
  0
BLOCK
  8
0
  2
*D52
 70
     1
 10
0.0
 20
0.0
 30
0.0
  3
*D52
  1

  0
LINE
  5
50F
  8
回02-寸法
  6
CONTINUOUS
 62
     5
 10
2292.633985589754
 20
88.06725529421754
 30
0.0
 11
2336.550718099351
 21
88.06725529421754
 31
0.0
  0
LINE
  5
510
  8
回02-寸法
  6
CONTINUOUS
 62
     5
 10
2292.633985589754
 20
231.3672552942177
 30
0.0
 11
2336.550718099351
 21
231.3672552942177
 31
0.0
  0
LINE
  5
511
  8
回02-寸法
  6
CONTINUOUS
 62
     5
 10
2335.550718099351
 20
90.06725529421755
 30
0.0
 11
2335.550718099351
 21
229.3672552942177
 31
0.0
  0
INSERT
  5
512
  8
回02-寸法
  6
CONTINUOUS
 62
     5
  2
_OPEN
 10
2335.550718099351
 20
88.06725529421754
 30
0.0
 41
2.0
 42
2.0
 43
2.0
 50
270.0
  0
INSERT
  5
513
  8
回02-寸法
  6
CONTINUOUS
 62
     5
  2
_OPEN
 10
2335.550718099351
 20
231.3672552942177
 30
0.0
 41
2.0
 42
2.0
 43
2.0
 50
90.0
  0
INSERT
  5
514
  8
回02-寸法
  6
CONTINUOUS
 62
     5
 66
     1
  2
*X104
 10
0.0
 20
0.0
 30
0.0
  0
SEQEND
  5
76D
  8
0
  6
CONTINUOUS
 62
     7
  0
POINT
  5
515
  8
DEFPOINTS
  6
CONTINUOUS
 62
     0
 10
2292.633985589754
 20
88.06725529421754
 30
0.0
  0
POINT
  5
516
  8
DEFPOINTS
  6
CONTINUOUS
 62
     0
 10
2292.633985589754
 20
231.3672552942177
 30
0.0
  0
POINT
  5
517
  8
DEFPOINTS
  6
CONTINUOUS
 62
     0
 10
2335.550718099351
 20
231.3672552942177
 30
0.0
  0
ENDBLK
  5
519
  8
0
  6
CONTINUOUS
 62
     7
  0
BLOCK
  8
0
  2
*D53
 70
     1
 10
0.0
 20
0.0
 30
0.0
  3
*D53
  1

  0
LINE
  5
51B
  8
回02-寸法
  6
CONTINUOUS
 62
     5
 10
2288.633985589754
 20
92.76725529421804
 30
0.0
 11
2327.083637352659
 21
92.76725529421804
 31
0.0
  0
LINE
  5
51C
  8
回02-寸法
  6
CONTINUOUS
 62
     5
 10
2292.633985589754
 20
88.06725529421754
 30
0.0
 11
2327.083637352659
 21
88.06725529421754
 31
0.0
  0
LINE
  5
51D
  8
回02-寸法
  6
CONTINUOUS
 62
     5
 10
2326.083637352659
 20
86.06725529421755
 30
0.0
 11
2326.083637352659
 21
47.80975529421783
 31
0.0
  0
LINE
  5
51E
  8
回02-寸法
  6
CONTINUOUS
 62
     5
 10
2326.083637352659
 20
92.76725529421804
 30
0.0
 11
2326.083637352659
 21
88.06725529421754
 31
0.0
  0
LINE
  5
51F
  8
回02-寸法
  6
CONTINUOUS
 62
     5
 10
2326.083637352659
 20
94.76725529421804
 30
0.0
 11
2326.083637352659
 21
96.76725529421805
 31
0.0
  0
INSERT
  5
520
  8
回02-寸法
  6
CONTINUOUS
 62
     5
  2
_OPEN
 10
2326.083637352659
 20
92.76725529421804
 30
0.0
 41
2.0
 42
2.0
 43
2.0
 50
270.0
  0
INSERT
  5
521
  8
回02-寸法
  6
CONTINUOUS
 62
     5
  2
_OPEN
 10
2326.083637352659
 20
88.06725529421754
 30
0.0
 41
2.0
 42
2.0
 43
2.0
 50
90.0
  0
TEXT
  5
522
  8
回02-寸法
  6
CONTINUOUS
 62
     5
 10
2325.433637352659
 20
47.85975529421785
 30
0.0
 40
3.0
  1
4.7(Insulation Area）
 50
90.0
  0
POINT
  5
523
  8
DEFPOINTS
  6
CONTINUOUS
 62
     0
 10
2288.633985589754
 20
92.76725529421804
 30
0.0
  0
POINT
  5
524
  8
DEFPOINTS
  6
CONTINUOUS
 62
     0
 10
2292.633985589754
 20
88.06725529421754
 30
0.0
  0
POINT
  5
525
  8
DEFPOINTS
  6
CONTINUOUS
 62
     0
 10
2326.083637352659
 20
88.06725529421754
 30
0.0
  0
ENDBLK
  5
527
  8
0
  6
CONTINUOUS
 62
     7
  0
BLOCK
  8
0
  2
*D54
 70
     1
 10
0.0
 20
0.0
 30
0.0
  3
*D54
  1

  0
LINE
  5
529
  8
回02-寸法
  6
CONTINUOUS
 62
     5
 10
2288.133985589754
 20
93.56725529421799
 30
0.0
 11
2318.136107839738
 21
93.56725529421799
 31
0.0
  0
LINE
  5
52A
  8
回02-寸法
  6
CONTINUOUS
 62
     5
 10
2292.633985589754
 20
88.06725529421754
 30
0.0
 11
2318.136107839738
 21
88.06725529421754
 31
0.0
  0
LINE
  5
52B
  8
回02-寸法
  6
CONTINUOUS
 62
     5
 10
2317.136107839738
 20
86.06725529421755
 30
0.0
 11
2317.136107839738
 21
78.80512325986103
 31
0.0
  0
LINE
  5
52C
  8
回02-寸法
  6
CONTINUOUS
 62
     5
 10
2317.136107839738
 20
93.56725529421799
 30
0.0
 11
2317.136107839738
 21
88.06725529421754
 31
0.0
  0
LINE
  5
52D
  8
回02-寸法
  6
CONTINUOUS
 62
     5
 10
2317.136107839738
 20
95.567255294218
 30
0.0
 11
2317.136107839738
 21
97.567255294218
 31
0.0
  0
INSERT
  5
52E
  8
回02-寸法
  6
CONTINUOUS
 62
     5
  2
_OPEN
 10
2317.136107839738
 20
93.56725529421799
 30
0.0
 41
2.0
 42
2.0
 43
2.0
 50
270.0
  0
INSERT
  5
52F
  8
回02-寸法
  6
CONTINUOUS
 62
     5
  2
_OPEN
 10
2317.136107839738
 20
88.06725529421754
 30
0.0
 41
2.0
 42
2.0
 43
2.0
 50
90.0
  0
TEXT
  5
530
  8
回02-寸法
  6
CONTINUOUS
 62
     5
 10
2316.636107839737
 20
78.8551232598611
 30
0.0
 40
3.0
  1
5.5
 50
90.0
  0
POINT
  5
531
  8
DEFPOINTS
  6
CONTINUOUS
 62
     0
 10
2288.133985589754
 20
93.56725529421799
 30
0.0
  0
POINT
  5
532
  8
DEFPOINTS
  6
CONTINUOUS
 62
     0
 10
2292.633985589754
 20
88.06725529421754
 30
0.0
  0
POINT
  5
533
  8
DEFPOINTS
  6
CONTINUOUS
 62
     0
 10
2317.136107839738
 20
88.06725529421754
 30
0.0
  0
ENDBLK
  5
535
  8
0
  6
CONTINUOUS
 62
     7
  0
BLOCK
  8
0
  2
*D55
 70
     1
 10
0.0
 20
0.0
 30
0.0
  3
*D55
  1

  0
LINE
  5
537
  8
回02-寸法
  6
CONTINUOUS
 62
     5
 10
2286.133985589754
 20
95.567255294218
 30
0.0
 11
2309.171647800877
 21
95.567255294218
 31
0.0
  0
LINE
  5
538
  8
回02-寸法
  6
CONTINUOUS
 62
     5
 10
2292.633985589754
 20
88.06725529421754
 30
0.0
 11
2309.171647800877
 21
88.06725529421754
 31
0.0
  0
LINE
  5
539
  8
回02-寸法
  6
CONTINUOUS
 62
     5
 10
2308.171647800878
 20
86.06725529421755
 30
0.0
 11
2308.171647800878
 21
78.80512325986103
 31
0.0
  0
LINE
  5
53A
  8
回02-寸法
  6
CONTINUOUS
 62
     5
 10
2308.171647800878
 20
95.567255294218
 30
0.0
 11
2308.171647800878
 21
88.06725529421754
 31
0.0
  0
LINE
  5
53B
  8
回02-寸法
  6
CONTINUOUS
 62
     5
 10
2308.171647800878
 20
97.567255294218
 30
0.0
 11
2308.171647800878
 21
99.56725529421801
 31
0.0
  0
INSERT
  5
53C
  8
回02-寸法
  6
CONTINUOUS
 62
     5
  2
_OPEN
 10
2308.171647800878
 20
95.567255294218
 30
0.0
 41
2.0
 42
2.0
 43
2.0
 50
270.0
  0
INSERT
  5
53D
  8
回02-寸法
  6
CONTINUOUS
 62
     5
  2
_OPEN
 10
2308.171647800878
 20
88.06725529421754
 30
0.0
 41
2.0
 42
2.0
 43
2.0
 50
90.0
  0
TEXT
  5
53E
  8
回02-寸法
  6
CONTINUOUS
 62
     5
 10
2307.671647800878
 20
78.8551232598611
 30
0.0
 40
3.0
  1
7.5
 50
90.0
  0
POINT
  5
53F
  8
DEFPOINTS
  6
CONTINUOUS
 62
     0
 10
2286.133985589754
 20
95.567255294218
 30
0.0
  0
POINT
  5
540
  8
DEFPOINTS
  6
CONTINUOUS
 62
     0
 10
2292.633985589754
 20
88.06725529421754
 30
0.0
  0
POINT
  5
541
  8
DEFPOINTS
  6
CONTINUOUS
 62
     0
 10
2308.171647800878
 20
88.06725529421754
 30
0.0
  0
ENDBLK
  5
543
  8
0
  6
CONTINUOUS
 62
     7
  0
BLOCK
  8
0
  2
*D56
 70
     1
 10
0.0
 20
0.0
 30
0.0
  3
*D56
  1

  0
LINE
  5
545
  8
回02-寸法
  6
CONTINUOUS
 62
     5
 10
2288.633985589754
 20
226.6672552942179
 30
0.0
 11
2327.083637352663
 21
226.6672552942179
 31
0.0
  0
LINE
  5
546
  8
回02-寸法
  6
CONTINUOUS
 62
     5
 10
2292.633985589754
 20
231.3672552942177
 30
0.0
 11
2327.083637352663
 21
231.3672552942177
 31
0.0
  0
LINE
  5
547
  8
回02-寸法
  6
CONTINUOUS
 62
     5
 10
2326.083637352663
 20
233.3672552942177
 30
0.0
 11
2326.083637352663
 21
243.2648930894936
 31
0.0
  0
LINE
  5
548
  8
回02-寸法
  6
CONTINUOUS
 62
     5
 10
2326.083637352663
 20
226.6672552942179
 30
0.0
 11
2326.083637352663
 21
231.3672552942177
 31
0.0
  0
LINE
  5
549
  8
回02-寸法
  6
CONTINUOUS
 62
     5
 10
2326.083637352663
 20
224.6672552942179
 30
0.0
 11
2326.083637352663
 21
222.6672552942179
 31
0.0
  0
INSERT
  5
54A
  8
回02-寸法
  6
CONTINUOUS
 62
     5
  2
_OPEN
 10
2326.083637352663
 20
226.6672552942179
 30
0.0
 41
2.0
 42
2.0
 43
2.0
 50
90.0
  0
INSERT
  5
54B
  8
回02-寸法
  6
CONTINUOUS
 62
     5
  2
_OPEN
 10
2326.083637352663
 20
231.3672552942177
 30
0.0
 41
2.0
 42
2.0
 43
2.0
 50
270.0
  0
TEXT
  5
54C
  8
回02-寸法
  6
CONTINUOUS
 62
     5
 10
2325.433637352663
 20
235.4160741918554
 30
0.0
 40
3.0
  1
(4.7)
 50
90.0
  0
POINT
  5
54D
  8
DEFPOINTS
  6
CONTINUOUS
 62
     0
 10
2288.633985589754
 20
226.6672552942179
 30
0.0
  0
POINT
  5
54E
  8
DEFPOINTS
  6
CONTINUOUS
 62
     0
 10
2292.633985589754
 20
231.3672552942177
 30
0.0
  0
POINT
  5
54F
  8
DEFPOINTS
  6
CONTINUOUS
 62
     0
 10
2326.083637352663
 20
231.3672552942177
 30
0.0
  0
ENDBLK
  5
551
  8
0
  6
CONTINUOUS
 62
     7
  0
BLOCK
  8
0
  2
*D57
 70
     1
 10
0.0
 20
0.0
 30
0.0
  3
*D57
  1

  0
LINE
  5
553
  8
回02-寸法
  6
CONTINUOUS
 62
     5
 10
2288.133985589754
 20
225.8672552942179
 30
0.0
 11
2318.136107839748
 21
225.8672552942179
 31
0.0
  0
LINE
  5
554
  8
回02-寸法
  6
CONTINUOUS
 62
     5
 10
2292.633985589754
 20
231.3672552942177
 30
0.0
 11
2318.136107839748
 21
231.3672552942177
 31
0.0
  0
LINE
  5
555
  8
回02-寸法
  6
CONTINUOUS
 62
     5
 10
2317.136107839748
 20
233.3672552942177
 30
0.0
 11
2317.136107839748
 21
242.9648930894934
 31
0.0
  0
LINE
  5
556
  8
回02-寸法
  6
CONTINUOUS
 62
     5
 10
2317.136107839748
 20
225.8672552942179
 30
0.0
 11
2317.136107839748
 21
231.3672552942177
 31
0.0
  0
LINE
  5
557
  8
回02-寸法
  6
CONTINUOUS
 62
     5
 10
2317.136107839748
 20
223.867255294218
 30
0.0
 11
2317.136107839748
 21
221.867255294218
 31
0.0
  0
INSERT
  5
558
  8
回02-寸法
  6
CONTINUOUS
 62
     5
  2
_OPEN
 10
2317.136107839748
 20
225.8672552942179
 30
0.0
 41
2.0
 42
2.0
 43
2.0
 50
90.0
  0
INSERT
  5
559
  8
回02-寸法
  6
CONTINUOUS
 62
     5
  2
_OPEN
 10
2317.136107839748
 20
231.3672552942177
 30
0.0
 41
2.0
 42
2.0
 43
2.0
 50
270.0
  0
TEXT
  5
55A
  8
回02-寸法
  6
CONTINUOUS
 62
     5
 10
2316.486107839748
 20
235.4160741918554
 30
0.0
 40
3.0
  1
(5.5)
 50
90.0
  0
POINT
  5
55B
  8
DEFPOINTS
  6
CONTINUOUS
 62
     0
 10
2288.133985589754
 20
225.8672552942179
 30
0.0
  0
POINT
  5
55C
  8
DEFPOINTS
  6
CONTINUOUS
 62
     0
 10
2292.633985589754
 20
231.3672552942177
 30
0.0
  0
POINT
  5
55D
  8
DEFPOINTS
  6
CONTINUOUS
 62
     0
 10
2317.136107839748
 20
231.3672552942177
 30
0.0
  0
ENDBLK
  5
55F
  8
0
  6
CONTINUOUS
 62
     7
  0
BLOCK
  8
0
  2
*D58
 70
     1
 10
0.0
 20
0.0
 30
0.0
  3
*D58
  1

  0
LINE
  5
561
  8
回02-寸法
  6
CONTINUOUS
 62
     5
 10
2286.133985589754
 20
223.867255294218
 30
0.0
 11
2309.17164780089
 21
223.867255294218
 31
0.0
  0
LINE
  5
562
  8
回02-寸法
  6
CONTINUOUS
 62
     5
 10
2292.633985589754
 20
231.3672552942177
 30
0.0
 11
2309.17164780089
 21
231.3672552942177
 31
0.0
  0
LINE
  5
563
  8
回02-寸法
  6
CONTINUOUS
 62
     5
 10
2308.17164780089
 20
233.3672552942177
 30
0.0
 11
2308.17164780089
 21
242.9648930894934
 31
0.0
  0
LINE
  5
564
  8
回02-寸法
  6
CONTINUOUS
 62
     5
 10
2308.17164780089
 20
223.867255294218
 30
0.0
 11
2308.17164780089
 21
231.3672552942177
 31
0.0
  0
LINE
  5
565
  8
回02-寸法
  6
CONTINUOUS
 62
     5
 10
2308.17164780089
 20
221.867255294218
 30
0.0
 11
2308.17164780089
 21
219.867255294218
 31
0.0
  0
INSERT
  5
566
  8
回02-寸法
  6
CONTINUOUS
 62
     5
  2
_OPEN
 10
2308.17164780089
 20
223.867255294218
 30
0.0
 41
2.0
 42
2.0
 43
2.0
 50
90.0
  0
INSERT
  5
567
  8
回02-寸法
  6
CONTINUOUS
 62
     5
  2
_OPEN
 10
2308.17164780089
 20
231.3672552942177
 30
0.0
 41
2.0
 42
2.0
 43
2.0
 50
270.0
  0
TEXT
  5
568
  8
回02-寸法
  6
CONTINUOUS
 62
     5
 10
2307.52164780089
 20
235.4160741918554
 30
0.0
 40
3.0
  1
(7.5)
 50
90.0
  0
POINT
  5
569
  8
DEFPOINTS
  6
CONTINUOUS
 62
     0
 10
2286.133985589754
 20
223.867255294218
 30
0.0
  0
POINT
  5
56A
  8
DEFPOINTS
  6
CONTINUOUS
 62
     0
 10
2292.633985589754
 20
231.3672552942177
 30
0.0
  0
POINT
  5
56B
  8
DEFPOINTS
  6
CONTINUOUS
 62
     0
 10
2308.17164780089
 20
231.3672552942177
 30
0.0
  0
ENDBLK
  5
56D
  8
0
  6
CONTINUOUS
 62
     7
  0
BLOCK
  8
0
  2
*D59
 70
     1
 10
0.0
 20
0.0
 30
0.0
  3
*D59
  1

  0
LINE
  5
56F
  8
回02-寸法
  6
CONTINUOUS
 62
     5
 10
2288.633985589754
 20
92.76725529421804
 30
0.0
 11
2327.083637352656
 21
92.76725529421804
 31
0.0
  0
LINE
  5
570
  8
回02-寸法
  6
CONTINUOUS
 62
     5
 10
2288.633985589754
 20
226.6672552942179
 30
0.0
 11
2327.083637352656
 21
226.6672552942179
 31
0.0
  0
LINE
  5
571
  8
回02-寸法
  6
CONTINUOUS
 62
     5
 10
2326.083637352656
 20
94.76725529421804
 30
0.0
 11
2326.083637352656
 21
224.6672552942179
 31
0.0
  0
INSERT
  5
572
  8
回02-寸法
  6
CONTINUOUS
 62
     5
  2
_OPEN
 10
2326.083637352656
 20
92.76725529421804
 30
0.0
 41
2.0
 42
2.0
 43
2.0
 50
270.0
  0
INSERT
  5
573
  8
回02-寸法
  6
CONTINUOUS
 62
     5
  2
_OPEN
 10
2326.083637352656
 20
226.6672552942179
 30
0.0
 41
2.0
 42
2.0
 43
2.0
 50
90.0
  0
TEXT
  5
574
  8
回02-寸法
  6
CONTINUOUS
 62
     5
 10
2325.583637352656
 20
155.3618397414275
 30
0.0
 40
3.0
  1
133.9
 50
90.0
  0
POINT
  5
575
  8
DEFPOINTS
  6
CONTINUOUS
 62
     0
 10
2288.633985589754
 20
92.76725529421804
 30
0.0
  0
POINT
  5
576
  8
DEFPOINTS
  6
CONTINUOUS
 62
     0
 10
2288.633985589754
 20
226.6672552942179
 30
0.0
  0
POINT
  5
577
  8
DEFPOINTS
  6
CONTINUOUS
 62
     0
 10
2326.083637352656
 20
226.6672552942179
 30
0.0
  0
ENDBLK
  5
579
  8
0
  6
CONTINUOUS
 62
     7
  0
BLOCK
  8
0
  2
*D60
 70
     1
 10
0.0
 20
0.0
 30
0.0
  3
*D60
  1

  0
LINE
  5
57B
  8
回02-寸法
  6
CONTINUOUS
 62
     5
 10
2288.133985589754
 20
225.8672552942179
 30
0.0
 11
2318.136107839746
 21
225.8672552942179
 31
0.0
  0
LINE
  5
57C
  8
回02-寸法
  6
CONTINUOUS
 62
     5
 10
2288.133985589754
 20
93.56725529421799
 30
0.0
 11
2318.136107839746
 21
93.56725529421799
 31
0.0
  0
LINE
  5
57D
  8
回02-寸法
  6
CONTINUOUS
 62
     5
 10
2317.136107839746
 20
223.867255294218
 30
0.0
 11
2317.136107839746
 21
95.567255294218
 31
0.0
  0
INSERT
  5
57E
  8
回02-寸法
  6
CONTINUOUS
 62
     5
  2
_OPEN
 10
2317.136107839746
 20
225.8672552942179
 30
0.0
 41
2.0
 42
2.0
 43
2.0
 50
90.0
  0
INSERT
  5
57F
  8
回02-寸法
  6
CONTINUOUS
 62
     5
  2
_OPEN
 10
2317.136107839746
 20
93.56725529421799
 30
0.0
 41
2.0
 42
2.0
 43
2.0
 50
270.0
  0
TEXT
  5
580
  8
回02-寸法
  6
CONTINUOUS
 62
     5
 10
2315.886107839746
 20
141.567845845399
 30
0.0
 40
3.0
  1
132.3 (Viewing area)
 50
90.0
  0
POINT
  5
581
  8
DEFPOINTS
  6
CONTINUOUS
 62
     0
 10
2288.133985589754
 20
225.8672552942179
 30
0.0
  0
POINT
  5
582
  8
DEFPOINTS
  6
CONTINUOUS
 62
     0
 10
2288.133985589754
 20
93.56725529421799
 30
0.0
  0
POINT
  5
583
  8
DEFPOINTS
  6
CONTINUOUS
 62
     0
 10
2317.136107839746
 20
93.56725529421799
 30
0.0
  0
ENDBLK
  5
585
  8
0
  6
CONTINUOUS
 62
     7
  0
BLOCK
  8
0
  2
*D61
 70
     1
 10
0.0
 20
0.0
 30
0.0
  3
*D61
  1

  0
LINE
  5
587
  8
回02-寸法
  6
CONTINUOUS
 62
     5
 10
2286.133985589754
 20
223.867255294218
 30
0.0
 11
2309.171647800889
 21
223.867255294218
 31
0.0
  0
LINE
  5
588
  8
回02-寸法
  6
CONTINUOUS
 62
     5
 10
2286.133985589754
 20
95.567255294218
 30
0.0
 11
2309.171647800889
 21
95.567255294218
 31
0.0
  0
LINE
  5
589
  8
回02-寸法
  6
CONTINUOUS
 62
     5
 10
2308.171647800889
 20
221.867255294218
 30
0.0
 11
2308.171647800889
 21
97.567255294218
 31
0.0
  0
INSERT
  5
58A
  8
回02-寸法
  6
CONTINUOUS
 62
     5
  2
_OPEN
 10
2308.171647800889
 20
223.867255294218
 30
0.0
 41
2.0
 42
2.0
 43
2.0
 50
90.0
  0
INSERT
  5
58B
  8
回02-寸法
  6
CONTINUOUS
 62
     5
  2
_OPEN
 10
2308.171647800889
 20
95.567255294218
 30
0.0
 41
2.0
 42
2.0
 43
2.0
 50
270.0
  0
TEXT
  5
58C
  8
回02-寸法
  6
CONTINUOUS
 62
     5
 10
2307.521647800888
 20
142.6178458453992
 30
0.0
 40
3.0
  1
128.3 (Active area)
 50
90.0
  0
POINT
  5
58D
  8
DEFPOINTS
  6
CONTINUOUS
 62
     0
 10
2286.133985589754
 20
223.867255294218
 30
0.0
  0
POINT
  5
58E
  8
DEFPOINTS
  6
CONTINUOUS
 62
     0
 10
2286.133985589754
 20
95.567255294218
 30
0.0
  0
POINT
  5
58F
  8
DEFPOINTS
  6
CONTINUOUS
 62
     0
 10
2308.171647800889
 20
95.567255294218
 30
0.0
  0
ENDBLK
  5
591
  8
0
  6
CONTINUOUS
 62
     7
  0
BLOCK
  8
0
  2
*D62
 70
     1
 10
0.0
 20
0.0
 30
0.0
  3
*D62
  1

  0
LINE
  5
593
  8
回02-寸法
  6
CONTINUOUS
 62
     5
 10
2107.033985589754
 20
231.3672552942179
 30
0.0
 11
2107.033985589754
 21
268.9251818514516
 31
0.0
  0
LINE
  5
594
  8
回02-寸法
  6
CONTINUOUS
 62
     5
 10
2292.633985589754
 20
231.3672552942177
 30
0.0
 11
2292.633985589754
 21
268.9251818514516
 31
0.0
  0
LINE
  5
595
  8
回02-寸法
  6
CONTINUOUS
 62
     5
 10
2109.033985589753
 20
267.9251818514515
 30
0.0
 11
2290.633985589754
 21
267.9251818514515
 31
0.0
  0
INSERT
  5
596
  8
回02-寸法
  6
CONTINUOUS
 62
     5
  2
_OPEN
 10
2107.033985589754
 20
267.9251818514515
 30
0.0
 41
2.0
 42
2.0
 43
2.0
 50
180.0
  0
INSERT
  5
597
  8
回02-寸法
  6
CONTINUOUS
 62
     5
  2
_OPEN
 10
2292.633985589754
 20
267.9251818514515
 30
0.0
 41
2.0
 42
2.0
 43
2.0
  0
INSERT
  5
598
  8
回02-寸法
  6
CONTINUOUS
 62
     5
 66
     1
  2
*X105
 10
0.0
 20
0.0
 30
0.0
  0
SEQEND
  5
773
  8
0
  6
CONTINUOUS
 62
     7
  0
POINT
  5
599
  8
DEFPOINTS
  6
CONTINUOUS
 62
     0
 10
2107.033985589754
 20
231.3672552942179
 30
0.0
  0
POINT
  5
59A
  8
DEFPOINTS
  6
CONTINUOUS
 62
     0
 10
2292.633985589754
 20
231.3672552942177
 30
0.0
  0
POINT
  5
59B
  8
DEFPOINTS
  6
CONTINUOUS
 62
     0
 10
2292.633985589754
 20
267.9251818514515
 30
0.0
  0
ENDBLK
  5
59D
  8
0
  6
CONTINUOUS
 62
     7
  0
BLOCK
  8
0
  2
*D63
 70
     1
 10
0.0
 20
0.0
 30
0.0
  3
*D63
  1

  0
LINE
  5
59F
  8
回02-寸法
  6
CONTINUOUS
 62
     5
 10
2112.733985589754
 20
226.667255294218
 30
0.0
 11
2112.733985589754
 21
261.6249036306784
 31
0.0
  0
LINE
  5
5A0
  8
回02-寸法
  6
CONTINUOUS
 62
     5
 10
2107.033985589754
 20
231.3672552942179
 30
0.0
 11
2107.033985589754
 21
261.6249036306784
 31
0.0
  0
LINE
  5
5A1
  8
回02-寸法
  6
CONTINUOUS
 62
     5
 10
2105.033985589754
 20
260.6249036306784
 30
0.0
 11
2067.076485589753
 21
260.6249036306784
 31
0.0
  0
LINE
  5
5A2
  8
回02-寸法
  6
CONTINUOUS
 62
     5
 10
2112.733985589754
 20
260.6249036306784
 30
0.0
 11
2107.033985589754
 21
260.6249036306784
 31
0.0
  0
LINE
  5
5A3
  8
回02-寸法
  6
CONTINUOUS
 62
     5
 10
2114.733985589754
 20
260.6249036306784
 30
0.0
 11
2116.733985589753
 21
260.6249036306784
 31
0.0
  0
INSERT
  5
5A4
  8
回02-寸法
  6
CONTINUOUS
 62
     5
  2
_OPEN
 10
2112.733985589754
 20
260.6249036306784
 30
0.0
 41
2.0
 42
2.0
 43
2.0
 50
180.0
  0
INSERT
  5
5A5
  8
回02-寸法
  6
CONTINUOUS
 62
     5
  2
_OPEN
 10
2107.033985589754
 20
260.6249036306784
 30
0.0
 41
2.0
 42
2.0
 43
2.0
  0
TEXT
  5
5A6
  8
回02-寸法
  6
CONTINUOUS
 62
     5
 10
2067.126485589753
 20
261.2749036306784
 30
0.0
 40
3.0
  1
5.7(Insulation Area）
  0
POINT
  5
5A7
  8
DEFPOINTS
  6
CONTINUOUS
 62
     0
 10
2112.733985589754
 20
226.667255294218
 30
0.0
  0
POINT
  5
5A8
  8
DEFPOINTS
  6
CONTINUOUS
 62
     0
 10
2107.033985589754
 20
231.3672552942179
 30
0.0
  0
POINT
  5
5A9
  8
DEFPOINTS
  6
CONTINUOUS
 62
     0
 10
2107.033985589754
 20
260.6249036306784
 30
0.0
  0
ENDBLK
  5
5AB
  8
0
  6
CONTINUOUS
 62
     7
  0
BLOCK
  8
0
  2
*D64
 70
     1
 10
0.0
 20
0.0
 30
0.0
  3
*D64
  1

  0
LINE
  5
5AD
  8
回02-寸法
  6
CONTINUOUS
 62
     5
 10
2113.233985589753
 20
225.8672552942179
 30
0.0
 11
2113.233985589753
 21
253.9739643648866
 31
0.0
  0
LINE
  5
5AE
  8
回02-寸法
  6
CONTINUOUS
 62
     5
 10
2107.033985589754
 20
231.3672552942179
 30
0.0
 11
2107.033985589754
 21
253.9739643648866
 31
0.0
  0
LINE
  5
5AF
  8
回02-寸法
  6
CONTINUOUS
 62
     5
 10
2105.033985589754
 20
252.9739643648866
 30
0.0
 11
2097.653801542208
 21
252.9739643648866
 31
0.0
  0
LINE
  5
5B0
  8
回02-寸法
  6
CONTINUOUS
 62
     5
 10
2113.233985589753
 20
252.9739643648866
 30
0.0
 11
2107.033985589754
 21
252.9739643648866
 31
0.0
  0
LINE
  5
5B1
  8
回02-寸法
  6
CONTINUOUS
 62
     5
 10
2115.233985589753
 20
252.9739643648866
 30
0.0
 11
2117.233985589754
 21
252.9739643648866
 31
0.0
  0
INSERT
  5
5B2
  8
回02-寸法
  6
CONTINUOUS
 62
     5
  2
_OPEN
 10
2113.233985589753
 20
252.9739643648866
 30
0.0
 41
2.0
 42
2.0
 43
2.0
 50
180.0
  0
INSERT
  5
5B3
  8
回02-寸法
  6
CONTINUOUS
 62
     5
  2
_OPEN
 10
2107.033985589754
 20
252.9739643648866
 30
0.0
 41
2.0
 42
2.0
 43
2.0
  0
TEXT
  5
5B4
  8
回02-寸法
  6
CONTINUOUS
 62
     5
 10
2097.703801542209
 20
253.4739643648866
 30
0.0
 40
3.0
  1
6.2
  0
POINT
  5
5B5
  8
DEFPOINTS
  6
CONTINUOUS
 62
     0
 10
2113.233985589753
 20
225.8672552942179
 30
0.0
  0
POINT
  5
5B6
  8
DEFPOINTS
  6
CONTINUOUS
 62
     0
 10
2107.033985589754
 20
231.3672552942179
 30
0.0
  0
POINT
  5
5B7
  8
DEFPOINTS
  6
CONTINUOUS
 62
     0
 10
2107.033985589754
 20
252.9739643648866
 30
0.0
  0
ENDBLK
  5
5B9
  8
0
  6
CONTINUOUS
 62
     7
  0
BLOCK
  8
0
  2
*D65
 70
     1
 10
0.0
 20
0.0
 30
0.0
  3
*D65
  1

  0
LINE
  5
5BB
  8
回02-寸法
  6
CONTINUOUS
 62
     5
 10
2115.233985589753
 20
223.867255294218
 30
0.0
 11
2115.233985589753
 21
246.5916775224303
 31
0.0
  0
LINE
  5
5BC
  8
回02-寸法
  6
CONTINUOUS
 62
     5
 10
2107.033985589754
 20
231.3672552942179
 30
0.0
 11
2107.033985589754
 21
246.5916775224303
 31
0.0
  0
LINE
  5
5BD
  8
回02-寸法
  6
CONTINUOUS
 62
     5
 10
2105.033985589754
 20
245.5916775224303
 30
0.0
 11
2097.743565321736
 21
245.5916775224303
 31
0.0
  0
LINE
  5
5BE
  8
回02-寸法
  6
CONTINUOUS
 62
     5
 10
2115.233985589753
 20
245.5916775224303
 30
0.0
 11
2107.033985589754
 21
245.5916775224303
 31
0.0
  0
LINE
  5
5BF
  8
回02-寸法
  6
CONTINUOUS
 62
     5
 10
2117.233985589754
 20
245.5916775224303
 30
0.0
 11
2119.233985589754
 21
245.5916775224303
 31
0.0
  0
INSERT
  5
5C0
  8
回02-寸法
  6
CONTINUOUS
 62
     5
  2
_OPEN
 10
2115.233985589753
 20
245.5916775224303
 30
0.0
 41
2.0
 42
2.0
 43
2.0
 50
180.0
  0
INSERT
  5
5C1
  8
回02-寸法
  6
CONTINUOUS
 62
     5
  2
_OPEN
 10
2107.033985589754
 20
245.5916775224303
 30
0.0
 41
2.0
 42
2.0
 43
2.0
  0
TEXT
  5
5C2
  8
回02-寸法
  6
CONTINUOUS
 62
     5
 10
2097.793565321737
 20
246.0916775224303
 30
0.0
 40
3.0
  1
8.2
  0
POINT
  5
5C3
  8
DEFPOINTS
  6
CONTINUOUS
 62
     0
 10
2115.233985589753
 20
223.867255294218
 30
0.0
  0
POINT
  5
5C4
  8
DEFPOINTS
  6
CONTINUOUS
 62
     0
 10
2107.033985589754
 20
231.3672552942179
 30
0.0
  0
POINT
  5
5C5
  8
DEFPOINTS
  6
CONTINUOUS
 62
     0
 10
2107.033985589754
 20
245.5916775224303
 30
0.0
  0
ENDBLK
  5
5C7
  8
0
  6
CONTINUOUS
 62
     7
  0
BLOCK
  8
0
  2
*D66
 70
     1
 10
0.0
 20
0.0
 30
0.0
  3
*D66
  1

  0
LINE
  5
5C9
  8
回02-寸法
  6
CONTINUOUS
 62
     5
 10
2288.633985589754
 20
226.6672552942179
 30
0.0
 11
2288.633985589754
 21
261.6249036306784
 31
0.0
  0
LINE
  5
5CA
  8
回02-寸法
  6
CONTINUOUS
 62
     5
 10
2292.633985589754
 20
231.3672552942177
 30
0.0
 11
2292.633985589754
 21
261.6249036306784
 31
0.0
  0
LINE
  5
5CB
  8
回02-寸法
  6
CONTINUOUS
 62
     5
 10
2294.633985589754
 20
260.6249036306784
 30
0.0
 11
2301.53162338503
 21
260.6249036306784
 31
0.0
  0
LINE
  5
5CC
  8
回02-寸法
  6
CONTINUOUS
 62
     5
 10
2288.633985589754
 20
260.6249036306784
 30
0.0
 11
2292.633985589754
 21
260.6249036306784
 31
0.0
  0
LINE
  5
5CD
  8
回02-寸法
  6
CONTINUOUS
 62
     5
 10
2286.633985589754
 20
260.6249036306784
 30
0.0
 11
2284.633985589754
 21
260.6249036306784
 31
0.0
  0
INSERT
  5
5CE
  8
回02-寸法
  6
CONTINUOUS
 62
     5
  2
_OPEN
 10
2288.633985589754
 20
260.6249036306784
 30
0.0
 41
2.0
 42
2.0
 43
2.0
  0
INSERT
  5
5CF
  8
回02-寸法
  6
CONTINUOUS
 62
     5
  2
_OPEN
 10
2292.633985589754
 20
260.6249036306784
 30
0.0
 41
2.0
 42
2.0
 43
2.0
 50
180.0
  0
TEXT
  5
5D0
  8
回02-寸法
  6
CONTINUOUS
 62
     5
 10
2296.682804487392
 20
261.2749036306784
 30
0.0
 40
3.0
  1
(4)
  0
POINT
  5
5D1
  8
DEFPOINTS
  6
CONTINUOUS
 62
     0
 10
2288.633985589754
 20
226.6672552942179
 30
0.0
  0
POINT
  5
5D2
  8
DEFPOINTS
  6
CONTINUOUS
 62
     0
 10
2292.633985589754
 20
231.3672552942177
 30
0.0
  0
POINT
  5
5D3
  8
DEFPOINTS
  6
CONTINUOUS
 62
     0
 10
2292.633985589754
 20
260.6249036306784
 30
0.0
  0
ENDBLK
  5
5D5
  8
0
  6
CONTINUOUS
 62
     7
  0
BLOCK
  8
0
  2
*D67
 70
     1
 10
0.0
 20
0.0
 30
0.0
  3
*D67
  1

  0
LINE
  5
5D7
  8
回02-寸法
  6
CONTINUOUS
 62
     5
 10
2288.133985589754
 20
225.8672552942179
 30
0.0
 11
2288.133985589754
 21
253.9739643648866
 31
0.0
  0
LINE
  5
5D8
  8
回02-寸法
  6
CONTINUOUS
 62
     5
 10
2292.633985589754
 20
231.3672552942177
 30
0.0
 11
2292.633985589754
 21
253.9739643648866
 31
0.0
  0
LINE
  5
5D9
  8
回02-寸法
  6
CONTINUOUS
 62
     5
 10
2294.633985589754
 20
252.9739643648866
 30
0.0
 11
2304.53162338503
 21
252.9739643648866
 31
0.0
  0
LINE
  5
5DA
  8
回02-寸法
  6
CONTINUOUS
 62
     5
 10
2288.133985589754
 20
252.9739643648866
 30
0.0
 11
2292.633985589754
 21
252.9739643648866
 31
0.0
  0
LINE
  5
5DB
  8
回02-寸法
  6
CONTINUOUS
 62
     5
 10
2286.133985589754
 20
252.9739643648866
 30
0.0
 11
2284.133985589754
 21
252.9739643648866
 31
0.0
  0
INSERT
  5
5DC
  8
回02-寸法
  6
CONTINUOUS
 62
     5
  2
_OPEN
 10
2288.133985589754
 20
252.9739643648866
 30
0.0
 41
2.0
 42
2.0
 43
2.0
  0
INSERT
  5
5DD
  8
回02-寸法
  6
CONTINUOUS
 62
     5
  2
_OPEN
 10
2292.633985589754
 20
252.9739643648866
 30
0.0
 41
2.0
 42
2.0
 43
2.0
 50
180.0
  0
TEXT
  5
5DE
  8
回02-寸法
  6
CONTINUOUS
 62
     5
 10
2296.682804487392
 20
253.6239643648866
 30
0.0
 40
3.0
  1
(4.5)
  0
POINT
  5
5DF
  8
DEFPOINTS
  6
CONTINUOUS
 62
     0
 10
2288.133985589754
 20
225.8672552942179
 30
0.0
  0
POINT
  5
5E0
  8
DEFPOINTS
  6
CONTINUOUS
 62
     0
 10
2292.633985589754
 20
231.3672552942177
 30
0.0
  0
POINT
  5
5E1
  8
DEFPOINTS
  6
CONTINUOUS
 62
     0
 10
2292.633985589754
 20
252.9739643648866
 30
0.0
  0
ENDBLK
  5
5E3
  8
0
  6
CONTINUOUS
 62
     7
  0
BLOCK
  8
0
  2
*D68
 70
     1
 10
0.0
 20
0.0
 30
0.0
  3
*D68
  1

  0
LINE
  5
5E5
  8
回02-寸法
  6
CONTINUOUS
 62
     5
 10
2286.133985589754
 20
223.867255294218
 30
0.0
 11
2286.133985589754
 21
246.5916775224303
 31
0.0
  0
LINE
  5
5E6
  8
回02-寸法
  6
CONTINUOUS
 62
     5
 10
2292.633985589754
 20
231.3672552942177
 30
0.0
 11
2292.633985589754
 21
246.5916775224303
 31
0.0
  0
LINE
  5
5E7
  8
回02-寸法
  6
CONTINUOUS
 62
     5
 10
2294.633985589754
 20
245.5916775224303
 30
0.0
 11
2304.23162338503
 21
245.5916775224303
 31
0.0
  0
LINE
  5
5E8
  8
回02-寸法
  6
CONTINUOUS
 62
     5
 10
2286.133985589754
 20
245.5916775224303
 30
0.0
 11
2292.633985589754
 21
245.5916775224303
 31
0.0
  0
LINE
  5
5E9
  8
回02-寸法
  6
CONTINUOUS
 62
     5
 10
2284.133985589754
 20
245.5916775224303
 30
0.0
 11
2282.133985589754
 21
245.5916775224303
 31
0.0
  0
INSERT
  5
5EA
  8
回02-寸法
  6
CONTINUOUS
 62
     5
  2
_OPEN
 10
2286.133985589754
 20
245.5916775224303
 30
0.0
 41
2.0
 42
2.0
 43
2.0
  0
INSERT
  5
5EB
  8
回02-寸法
  6
CONTINUOUS
 62
     5
  2
_OPEN
 10
2292.633985589754
 20
245.5916775224303
 30
0.0
 41
2.0
 42
2.0
 43
2.0
 50
180.0
  0
TEXT
  5
5EC
  8
回02-寸法
  6
CONTINUOUS
 62
     5
 10
2296.682804487392
 20
246.2416775224303
 30
0.0
 40
3.0
  1
(6.5)
  0
POINT
  5
5ED
  8
DEFPOINTS
  6
CONTINUOUS
 62
     0
 10
2286.133985589754
 20
223.867255294218
 30
0.0
  0
POINT
  5
5EE
  8
DEFPOINTS
  6
CONTINUOUS
 62
     0
 10
2292.633985589754
 20
231.3672552942177
 30
0.0
  0
POINT
  5
5EF
  8
DEFPOINTS
  6
CONTINUOUS
 62
     0
 10
2292.633985589754
 20
245.5916775224303
 30
0.0
  0
ENDBLK
  5
5F1
  8
0
  6
CONTINUOUS
 62
     7
  0
BLOCK
  8
0
  2
*D69
 70
     1
 10
0.0
 20
0.0
 30
0.0
  3
*D69
  1

  0
LINE
  5
5F3
  8
回02-寸法
  6
CONTINUOUS
 62
     5
 10
2112.733985589754
 20
226.667255294218
 30
0.0
 11
2112.733985589754
 21
261.6249036306784
 31
0.0
  0
LINE
  5
5F4
  8
回02-寸法
  6
CONTINUOUS
 62
     5
 10
2288.633985589754
 20
226.6672552942179
 30
0.0
 11
2288.633985589754
 21
261.6249036306784
 31
0.0
  0
LINE
  5
5F5
  8
回02-寸法
  6
CONTINUOUS
 62
     5
 10
2114.733985589754
 20
260.6249036306784
 30
0.0
 11
2286.633985589754
 21
260.6249036306784
 31
0.0
  0
INSERT
  5
5F6
  8
回02-寸法
  6
CONTINUOUS
 62
     5
  2
_OPEN
 10
2112.733985589754
 20
260.6249036306784
 30
0.0
 41
2.0
 42
2.0
 43
2.0
 50
180.0
  0
INSERT
  5
5F7
  8
回02-寸法
  6
CONTINUOUS
 62
     5
  2
_OPEN
 10
2288.633985589754
 20
260.6249036306784
 30
0.0
 41
2.0
 42
2.0
 43
2.0
  0
TEXT
  5
5F8
  8
回02-寸法
  6
CONTINUOUS
 62
     5
 10
2196.328570036964
 20
261.1249036306784
 30
0.0
 40
3.0
  1
175.9
  0
POINT
  5
5F9
  8
DEFPOINTS
  6
CONTINUOUS
 62
     0
 10
2112.733985589754
 20
226.667255294218
 30
0.0
  0
POINT
  5
5FA
  8
DEFPOINTS
  6
CONTINUOUS
 62
     0
 10
2288.633985589754
 20
226.6672552942179
 30
0.0
  0
POINT
  5
5FB
  8
DEFPOINTS
  6
CONTINUOUS
 62
     0
 10
2288.633985589754
 20
260.6249036306784
 30
0.0
  0
ENDBLK
  5
5FD
  8
0
  6
CONTINUOUS
 62
     7
  0
BLOCK
  8
0
  2
*D70
 70
     1
 10
0.0
 20
0.0
 30
0.0
  3
*D70
  1

  0
LINE
  5
5FF
  8
回02-寸法
  6
CONTINUOUS
 62
     5
 10
2113.233985589753
 20
225.8672552942179
 30
0.0
 11
2113.233985589753
 21
253.9739643648866
 31
0.0
  0
LINE
  5
600
  8
回02-寸法
  6
CONTINUOUS
 62
     5
 10
2288.133985589754
 20
225.8672552942179
 30
0.0
 11
2288.133985589754
 21
253.9739643648866
 31
0.0
  0
LINE
  5
601
  8
回02-寸法
  6
CONTINUOUS
 62
     5
 10
2115.233985589753
 20
252.9739643648866
 30
0.0
 11
2286.133985589754
 21
252.9739643648866
 31
0.0
  0
INSERT
  5
602
  8
回02-寸法
  6
CONTINUOUS
 62
     5
  2
_OPEN
 10
2113.233985589753
 20
252.9739643648866
 30
0.0
 41
2.0
 42
2.0
 43
2.0
 50
180.0
  0
INSERT
  5
603
  8
回02-寸法
  6
CONTINUOUS
 62
     5
  2
_OPEN
 10
2288.133985589754
 20
252.9739643648866
 30
0.0
 41
2.0
 42
2.0
 43
2.0
  0
TEXT
  5
604
  8
回02-寸法
  6
CONTINUOUS
 62
     5
 10
2182.379160588145
 20
254.2239643648866
 30
0.0
 40
3.0
  1
174.9 (Viewing area)
  0
POINT
  5
605
  8
DEFPOINTS
  6
CONTINUOUS
 62
     0
 10
2113.233985589753
 20
225.8672552942179
 30
0.0
  0
POINT
  5
606
  8
DEFPOINTS
  6
CONTINUOUS
 62
     0
 10
2288.133985589754
 20
225.8672552942179
 30
0.0
  0
POINT
  5
607
  8
DEFPOINTS
  6
CONTINUOUS
 62
     0
 10
2288.133985589754
 20
252.9739643648866
 30
0.0
  0
ENDBLK
  5
609
  8
0
  6
CONTINUOUS
 62
     7
  0
BLOCK
  8
0
  2
*D71
 70
     1
 10
0.0
 20
0.0
 30
0.0
  3
*D71
  1

  0
LINE
  5
60B
  8
回02-寸法
  6
CONTINUOUS
 62
     5
 10
2115.233985589753
 20
223.867255294218
 30
0.0
 11
2115.233985589753
 21
246.5916775224303
 31
0.0
  0
LINE
  5
60C
  8
回02-寸法
  6
CONTINUOUS
 62
     5
 10
2286.133985589754
 20
223.867255294218
 30
0.0
 11
2286.133985589754
 21
246.5916775224303
 31
0.0
  0
LINE
  5
60D
  8
回02-寸法
  6
CONTINUOUS
 62
     5
 10
2117.233985589754
 20
245.5916775224303
 30
0.0
 11
2284.133985589754
 21
245.5916775224303
 31
0.0
  0
INSERT
  5
60E
  8
回02-寸法
  6
CONTINUOUS
 62
     5
  2
_OPEN
 10
2115.233985589753
 20
245.5916775224303
 30
0.0
 41
2.0
 42
2.0
 43
2.0
 50
180.0
  0
INSERT
  5
60F
  8
回02-寸法
  6
CONTINUOUS
 62
     5
  2
_OPEN
 10
2286.133985589754
 20
245.5916775224303
 30
0.0
 41
2.0
 42
2.0
 43
2.0
  0
TEXT
  5
610
  8
回02-寸法
  6
CONTINUOUS
 62
     5
 10
2183.579160588145
 20
246.2416775224303
 30
0.0
 40
3.0
  1
170.9 (Active area)
  0
POINT
  5
611
  8
DEFPOINTS
  6
CONTINUOUS
 62
     0
 10
2115.233985589753
 20
223.867255294218
 30
0.0
  0
POINT
  5
612
  8
DEFPOINTS
  6
CONTINUOUS
 62
     0
 10
2286.133985589754
 20
223.867255294218
 30
0.0
  0
POINT
  5
613
  8
DEFPOINTS
  6
CONTINUOUS
 62
     0
 10
2286.133985589754
 20
245.5916775224303
 30
0.0
  0
ENDBLK
  5
615
  8
0
  6
CONTINUOUS
 62
     7
  0
BLOCK
  8
0
  2
*D72
 70
     1
 10
0.0
 20
0.0
 30
0.0
  3
*D72
  1

  0
LINE
  5
617
  8
回02-寸法
 62
     5
 10
2236.708985589754
 20
123.7172552942181
 30
0.0
 11
2236.708985589754
 21
116.0491296327456
 31
0.0
  0
LINE
  5
618
  8
回02-寸法
 62
     5
 10
2232.708985589754
 20
123.7172552942181
 30
0.0
 11
2232.708985589754
 21
116.0491296327456
 31
0.0
  0
LINE
  5
619
  8
回02-寸法
 62
     5
 10
2230.708985589754
 20
117.0491296327456
 30
0.0
 11
2226.208985589754
 21
117.0491296327456
 31
0.0
  0
LINE
  5
61A
  8
回02-寸法
 62
     5
 10
2236.708985589754
 20
117.0491296327456
 30
0.0
 11
2232.708985589754
 21
117.0491296327456
 31
0.0
  0
LINE
  5
61B
  8
回02-寸法
 62
     5
 10
2238.708985589754
 20
117.0491296327456
 30
0.0
 11
2240.708985589754
 21
117.0491296327456
 31
0.0
  0
INSERT
  5
61C
  8
回02-寸法
  6
CONTINUOUS
 62
     5
  2
_OPEN
 10
2236.708985589754
 20
117.0491296327456
 30
0.0
 41
2.0
 42
2.0
 43
2.0
 50
180.0
  0
INSERT
  5
61D
  8
回02-寸法
  6
CONTINUOUS
 62
     5
  2
_OPEN
 10
2232.708985589754
 20
117.0491296327456
 30
0.0
 41
2.0
 42
2.0
 43
2.0
  0
TEXT
  5
61E
  8
回02-寸法
  6
CONTINUOUS
 62
     5
 10
2226.258985589754
 20
117.5491296327456
 30
0.0
 40
3.0
  1
4
  0
POINT
  5
61F
  8
DEFPOINTS
  6
CONTINUOUS
 62
     0
 10
2236.708985589754
 20
123.7172552942181
 30
0.0
  0
POINT
  5
620
  8
DEFPOINTS
  6
CONTINUOUS
 62
     0
 10
2232.708985589754
 20
123.7172552942181
 30
0.0
  0
POINT
  5
621
  8
DEFPOINTS
  6
CONTINUOUS
 62
     0
 10
2232.708985589754
 20
117.0491296327456
 30
0.0
  0
ENDBLK
  5
623
  8
0
  6
CONTINUOUS
 62
     7
  0
BLOCK
  8
0
  2
*D73
 70
     1
 10
0.0
 20
0.0
 30
0.0
  3
*D73
  1

  0
LINE
  5
625
  8
回02-寸法
 62
     5
 10
2236.708985589754
 20
127.7172552942181
 30
0.0
 11
2246.33275245563
 21
127.7172552942181
 31
0.0
  0
LINE
  5
626
  8
回02-寸法
 62
     5
 10
2236.708985589754
 20
123.7172552942181
 30
0.0
 11
2246.33275245563
 21
123.7172552942181
 31
0.0
  0
LINE
  5
627
  8
回02-寸法
 62
     5
 10
2245.33275245563
 20
121.7172552942181
 30
0.0
 11
2245.33275245563
 21
117.2172552942181
 31
0.0
  0
LINE
  5
628
  8
回02-寸法
 62
     5
 10
2245.33275245563
 20
127.7172552942181
 30
0.0
 11
2245.33275245563
 21
123.7172552942181
 31
0.0
  0
LINE
  5
629
  8
回02-寸法
 62
     5
 10
2245.33275245563
 20
129.7172552942181
 30
0.0
 11
2245.33275245563
 21
131.7172552942181
 31
0.0
  0
INSERT
  5
62A
  8
回02-寸法
  6
CONTINUOUS
 62
     5
  2
_OPEN
 10
2245.33275245563
 20
127.7172552942181
 30
0.0
 41
2.0
 42
2.0
 43
2.0
 50
270.0
  0
INSERT
  5
62B
  8
回02-寸法
  6
CONTINUOUS
 62
     5
  2
_OPEN
 10
2245.33275245563
 20
123.7172552942181
 30
0.0
 41
2.0
 42
2.0
 43
2.0
 50
90.0
  0
TEXT
  5
62C
  8
回02-寸法
  6
CONTINUOUS
 62
     5
 10
2244.83275245563
 20
117.2672552942181
 30
0.0
 40
3.0
  1
4
 50
90.0
  0
POINT
  5
62D
  8
DEFPOINTS
  6
CONTINUOUS
 62
     0
 10
2236.708985589754
 20
127.7172552942181
 30
0.0
  0
POINT
  5
62E
  8
DEFPOINTS
  6
CONTINUOUS
 62
     0
 10
2236.708985589754
 20
123.7172552942181
 30
0.0
  0
POINT
  5
62F
  8
DEFPOINTS
  6
CONTINUOUS
 62
     0
 10
2245.33275245563
 20
123.7172552942181
 30
0.0
  0
ENDBLK
  5
631
  8
0
  6
CONTINUOUS
 62
     7
  0
BLOCK
  8
0
  2
*D74
 70
     1
 10
0.0
 20
0.0
 30
0.0
  3
*D74
  1

  0
LINE
  5
633
  8
回02-寸法
  6
CONTINUOUS
 62
     5
 10
2107.033985589754
 20
151.0401309497509
 30
0.0
 11
2107.033985589754
 21
143.3839791433079
 31
0.0
  0
LINE
  5
634
  8
回02-寸法
  6
CONTINUOUS
 62
     5
 10
2102.433483077192
 20
151.8064092135219
 30
0.0
 11
2102.433483077192
 21
143.3839791433079
 31
0.0
  0
LINE
  5
635
  8
回02-寸法
  6
CONTINUOUS
 62
     5
 10
2100.433483077191
 20
144.3839791433079
 30
0.0
 11
2089.547880229329
 21
144.3839791433079
 31
0.0
  0
LINE
  5
636
  8
回02-寸法
  6
CONTINUOUS
 62
     5
 10
2107.033985589754
 20
144.3839791433079
 30
0.0
 11
2102.433483077192
 21
144.3839791433079
 31
0.0
  0
LINE
  5
637
  8
回02-寸法
  6
CONTINUOUS
 62
     5
 10
2109.033985589753
 20
144.3839791433079
 30
0.0
 11
2111.033985589754
 21
144.3839791433079
 31
0.0
  0
INSERT
  5
638
  8
回02-寸法
  6
CONTINUOUS
 62
     5
  2
_OPEN
 10
2107.033985589754
 20
144.3839791433079
 30
0.0
 41
2.0
 42
2.0
 43
2.0
 50
180.0
  0
INSERT
  5
639
  8
回02-寸法
  6
CONTINUOUS
 62
     5
  2
_OPEN
 10
2102.433483077192
 20
144.3839791433079
 30
0.0
 41
2.0
 42
2.0
 43
2.0
  0
TEXT
  5
63A
  8
回02-寸法
  6
CONTINUOUS
 62
     5
 10
2089.597880229328
 20
144.8839791433079
 30
0.0
 40
3.0
  1
4.6
  0
POINT
  5
63B
  8
DEFPOINTS
  6
CONTINUOUS
 62
     0
 10
2107.033985589754
 20
151.0401309497509
 30
0.0
  0
POINT
  5
63C
  8
DEFPOINTS
  6
CONTINUOUS
 62
     0
 10
2102.433483077192
 20
151.8064092135219
 30
0.0
  0
POINT
  5
63D
  8
DEFPOINTS
  6
CONTINUOUS
 62
     0
 10
2102.433483077192
 20
144.3839791433079
 30
0.0
  0
ENDBLK
  5
63F
  8
0
  6
CONTINUOUS
 62
     7
  0
BLOCK
  8
0
  2
*D75
 70
     1
 10
0.0
 20
0.0
 30
0.0
  3
*D75
  1

  0
LINE
  5
641
  8
回02-寸法
  6
CONTINUOUS
 62
     5
 10
2107.033985589754
 20
151.0401309497507
 30
0.0
 11
2107.033985589754
 21
135.7209492063212
 31
0.0
  0
LINE
  5
642
  8
回02-寸法
  6
CONTINUOUS
 62
     5
 10
2097.538054469726
 20
156.4990658380098
 30
0.0
 11
2097.538054469726
 21
135.7209492063212
 31
0.0
  0
LINE
  5
643
  8
回02-寸法
  6
CONTINUOUS
 62
     5
 10
2095.538054469726
 20
136.7209492063212
 30
0.0
 11
2086.73094768854
 21
136.7209492063212
 31
0.0
  0
LINE
  5
644
  8
回02-寸法
  6
CONTINUOUS
 62
     5
 10
2107.033985589754
 20
136.7209492063212
 30
0.0
 11
2097.538054469726
 21
136.7209492063212
 31
0.0
  0
LINE
  5
645
  8
回02-寸法
  6
CONTINUOUS
 62
     5
 10
2109.033985589753
 20
136.7209492063212
 30
0.0
 11
2111.033985589754
 21
136.7209492063212
 31
0.0
  0
INSERT
  5
646
  8
回02-寸法
  6
CONTINUOUS
 62
     5
  2
_OPEN
 10
2107.033985589754
 20
136.7209492063212
 30
0.0
 41
2.0
 42
2.0
 43
2.0
 50
180.0
  0
INSERT
  5
647
  8
回02-寸法
  6
CONTINUOUS
 62
     5
  2
_OPEN
 10
2097.538054469726
 20
136.7209492063212
 30
0.0
 41
2.0
 42
2.0
 43
2.0
  0
TEXT
  5
648
  8
回02-寸法
  6
CONTINUOUS
 62
     5
 10
2086.770116582959
 20
137.2209492063212
 30
0.0
 40
3.0
  1
9.5
  0
POINT
  5
649
  8
DEFPOINTS
  6
CONTINUOUS
 62
     0
 10
2107.033985589754
 20
151.0401309497507
 30
0.0
  0
POINT
  5
64A
  8
DEFPOINTS
  6
CONTINUOUS
 62
     0
 10
2097.538054469726
 20
156.4990658380098
 30
0.0
  0
POINT
  5
64B
  8
DEFPOINTS
  6
CONTINUOUS
 62
     0
 10
2097.538054469726
 20
136.7209492063212
 30
0.0
  0
ENDBLK
  5
64D
  8
0
  6
CONTINUOUS
 62
     7
  0
BLOCK
  8
0
  2
*D76
 70
     1
 10
0.0
 20
0.0
 30
0.0
  3
*D76
  1

  0
LINE
  5
64F
  8
回02-寸法
  6
CONTINUOUS
 62
     5
 10
2102.846229267095
 20
151.7172552942182
 30
0.0
 11
2080.873121298242
 21
151.7172552942182
 31
0.0
  0
LINE
  5
650
  8
回02-寸法
  6
CONTINUOUS
 62
     5
 10
2102.842055681388
 20
167.7160522599463
 30
0.0
 11
2080.873121298242
 21
167.7160522599463
 31
0.0
  0
LINE
  5
651
  8
回02-寸法
  6
CONTINUOUS
 62
     5
 10
2081.873121298242
 20
149.7172552942182
 30
0.0
 11
2081.873121298242
 21
142.6524525684281
 31
0.0
  0
LINE
  5
652
  8
回02-寸法
  6
CONTINUOUS
 62
     5
 10
2081.873121298242
 20
151.7172552942182
 30
0.0
 11
2081.873121298242
 21
167.7160522599463
 31
0.0
  0
LINE
  5
653
  8
回02-寸法
  6
CONTINUOUS
 62
     5
 10
2081.873121298242
 20
169.7160522599463
 30
0.0
 11
2081.873121298242
 21
171.7160522599463
 31
0.0
  0
INSERT
  5
654
  8
回02-寸法
  6
CONTINUOUS
 62
     5
  2
_OPEN
 10
2081.873121298242
 20
151.7172552942182
 30
0.0
 41
2.0
 42
2.0
 43
2.0
 50
90.0
  0
INSERT
  5
655
  8
回02-寸法
  6
CONTINUOUS
 62
     5
  2
_OPEN
 10
2081.873121298242
 20
167.7160522599463
 30
0.0
 41
2.0
 42
2.0
 43
2.0
 50
270.0
  0
TEXT
  5
656
  8
回02-寸法
  6
CONTINUOUS
 62
     5
 10
2081.373121298242
 20
142.7024525684283
 30
0.0
 40
3.0
  1
16
 50
90.0
  0
POINT
  5
657
  8
DEFPOINTS
  6
CONTINUOUS
 62
     0
 10
2102.846229267095
 20
151.7172552942182
 30
0.0
  0
POINT
  5
658
  8
DEFPOINTS
  6
CONTINUOUS
 62
     0
 10
2102.842055681388
 20
167.7160522599463
 30
0.0
  0
POINT
  5
659
  8
DEFPOINTS
  6
CONTINUOUS
 62
     0
 10
2081.873121298242
 20
167.7160522599463
 30
0.0
  0
ENDBLK
  5
65B
  8
0
  6
CONTINUOUS
 62
     7
  0
BLOCK
  8
0
  2
*X77
 70
     1
 10
0.0
 20
0.0
 30
0.0
  3
*X77
  1

  0
INSERT
  5
660
  8
回03-記事
  6
CONTINUOUS
 62
     5
  2
_OPEN
 10
2029.647946910875
 20
162.8331445324801
 30
0.0
 41
2.0
 42
2.0
 43
2.0
 50
236.6265780747914
  0
LINE
  5
661
  8
回03-記事
  6
CONTINUOUS
 62
     5
 10
2030.748133742659
 20
164.503350787758
 30
0.0
 11
2033.508120043364
 21
168.6933176649687
 31
0.0
  0
LINE
  5
662
  8
回03-記事
  6
CONTINUOUS
 62
     5
 10
2033.508120043364
 20
168.6933176649687
 30
0.0
 11
2036.008120043364
 21
168.6933176649687
 31
0.0
  0
ENDBLK
  5
664
  8
0
  6
CONTINUOUS
 62
     7
  0
BLOCK
  8
0
  2
*X78
 70
     1
 10
0.0
 20
0.0
 30
0.0
  3
*X78
  1

  0
INSERT
  5
667
  8
回02-寸法
  6
CONTINUOUS
 62
     5
  2
_OPEN
 10
2003.368913944346
 20
111.1818135549331
 30
0.0
 41
2.0
 42
2.0
 43
2.0
 50
294.1578552206892
  0
LINE
  5
668
  8
回02-寸法
 62
     5
 10
2002.550409945893
 20
113.0066563439203
 30
0.0
 11
2001.37118214601
 21
115.6357276145074
 31
0.0
  0
LINE
  5
669
  8
回02-寸法
 62
     5
 10
2001.37118214601
 20
115.6357276145074
 30
0.0
 11
1988.07118214601
 21
115.6357276145074
 31
0.0
  0
ENDBLK
  5
66B
  8
0
  6
CONTINUOUS
 62
     7
  0
BLOCK
  8
0
  2
*X79
 70
     1
 10
0.0
 20
0.0
 30
0.0
  3
*X79
  1

  0
INSERT
  5
67A
  8
回03-記事
  6
CONTINUOUS
 62
     5
  2
_OPEN
 10
2034.454148441418
 20
42.99928834199881
 30
0.0
 41
2.0
 42
2.0
 43
2.0
 50
324.3887742357533
  0
LINE
  5
67B
  8
回03-記事
  6
CONTINUOUS
 62
     5
 10
2032.828175057223
 20
44.16385287601447
 30
0.0
 11
2025.989584043171
 21
49.06183007232783
 31
0.0
  0
LINE
  5
67C
  8
回03-記事
  6
CONTINUOUS
 62
     5
 10
2025.989584043171
 20
49.06183007232783
 30
0.0
 11
1999.782084043171
 21
49.06183007232783
 31
0.0
  0
ENDBLK
  5
67E
  8
0
  6
CONTINUOUS
 62
     7
  0
BLOCK
  8
0
  2
*X80
 70
     1
 10
0.0
 20
0.0
 30
0.0
  3
*X80
  1

  0
LINE
  5
69F
  8
回01-TP外形
  6
CONTINUOUS
 62
     7
 10
2103.158377515815
 20
39.99928834199862
 30
0.0
 11
2104.158377515815
 21
40.99928834199864
 31
0.0
1001
ACAD
1010
0.0
1020
0.0
1030
0.0
  0
LINE
  5
6A0
  8
回01-TP外形
  6
CONTINUOUS
 62
     7
 10
2106.033985589754
 20
38.3847683554025
 30
0.0
 11
2107.033985589754
 21
39.38476835540283
 31
0.0
1001
ACAD
1010
0.0
1020
0.0
1030
0.0
  0
LINE
  5
6A1
  8
回01-TP外形
  6
CONTINUOUS
 62
     7
 10
2110.138633636885
 20
37.99928834199903
 30
0.0
 11
2111.133985589754
 21
38.99464029486847
 31
0.0
1001
ACAD
1010
0.0
1020
0.0
1030
0.0
  0
ENDBLK
  5
6A3
  8
0
  6
CONTINUOUS
 62
     7
  0
BLOCK
  8
0
  2
*X81
 70
     1
 10
0.0
 20
0.0
 30
0.0
  3
*X81
  1

  0
TEXT
  5
6BA
  8
回02-寸法
 62
     5
 10
2241.582309060524
 20
139.8305787649887
 30
0.0
 40
4.0
  1
φ0.05
  7
Standard
  0
POLYLINE
  5
6BB
  8
回02-寸法
  6
BYBLOCK
 62
     5
 66
     1
 10
0.0
 20
0.0
 30
0.0
  0
VERTEX
  5
6BC
  8
回02-寸法
  6
BYBLOCK
 62
     5
 10
2238.194098946449
 20
137.0568217605663
 30
0.0
  0
VERTEX
  5
6BE
  8
回02-寸法
  6
BYBLOCK
 62
     5
 10
2240.382309060525
 20
139.0305787649886
 30
0.0
  0
SEQEND
  5
6BD
  8
0
  6
CONTINUOUS
 62
     7
  0
SOLID
  5
6BF
  8
回02-寸法
 62
     5
 10
2238.417360024174
 20
136.8093028677837
 30
0.0
 11
2236.708985589754
 21
135.7172552942181
 31
0.0
 12
2237.970837868725
 22
137.3043406533489
 32
0.0
 13
2237.970837868725
 23
137.3043406533489
 33
0.0
  0
POLYLINE
  5
6C0
  8
回02-寸法
  6
BYBLOCK
 62
     5
 66
     1
 10
0.0
 20
0.0
 30
0.0
  0
VERTEX
  5
6C1
  8
回02-寸法
  6
BYBLOCK
 62
     5
 10
2240.382309060525
 20
139.0305787649886
 30
0.0
  0
VERTEX
  5
6C3
  8
回02-寸法
  6
BYBLOCK
 62
     5
 10
2255.382309060524
 20
139.0305787649886
 30
0.0
  0
SEQEND
  5
6C2
  8
0
  6
CONTINUOUS
 62
     7
  0
ENDBLK
  5
6C5
  8
0
  6
CONTINUOUS
 62
     7
  0
BLOCK
  8
0
  2
*X82
 70
     1
 10
0.0
 20
0.0
 30
0.0
  3
*X82
  1

  0
LINE
  5
6CF
  8
回01-TP外形
  6
CONTINUOUS
 62
     7
 10
2102.933985589754
 20
156.3860984667556
 30
0.0
 11
2105.015142417216
 21
158.4672552942178
 31
0.0
  0
LINE
  5
6D0
  8
回01-TP外形
  6
CONTINUOUS
 62
     7
 10
2102.933985589754
 20
154.1410344364882
 30
0.0
 11
2107.260206447484
 21
158.4672552942178
 31
0.0
  0
LINE
  5
6D1
  8
回01-TP外形
  6
CONTINUOUS
 62
     7
 10
2103.505270477751
 20
152.4672552942178
 30
0.0
 11
2109.505270477751
 21
158.4672552942179
 31
0.0
  0
LINE
  5
6D2
  8
回01-TP外形
  6
CONTINUOUS
 62
     7
 10
2105.750334508019
 20
152.4672552942177
 30
0.0
 11
2111.133985589754
 21
157.8509063759532
 31
0.0
  0
LINE
  5
6D3
  8
回01-TP外形
  6
CONTINUOUS
 62
     7
 10
2107.995398538287
 20
152.4672552942178
 30
0.0
 11
2111.133985589754
 21
155.6058423456857
 31
0.0
  0
LINE
  5
6D4
  8
回01-TP外形
  6
CONTINUOUS
 62
     7
 10
2110.240462568554
 20
152.467255294218
 30
0.0
 11
2111.133985589754
 21
153.3607783154181
 31
0.0
  0
ENDBLK
  5
6D6
  8
0
  6
CONTINUOUS
 62
     7
  0
BLOCK
  8
0
  2
*X83
 70
     1
 10
0.0
 20
0.0
 30
0.0
  3
*X83
  1

  0
SOLID
  5
6DE
  8
回02-寸法
  6
CONTINUOUS
 62
     5
 10
2097.356535502928
 20
164.9401696085177
 30
0.0
 11
2097.504462899458
 21
162.9179854931447
 31
0.0
 12
2096.708688081537
 22
164.7828859061095
 32
0.0
 13
2096.708688081537
 23
164.7828859061095
 33
0.0
  0
LINE
  5
6DF
  8
回02-寸法
  6
CONTINUOUS
 62
     5
 10
2097.032611792233
 20
164.8615277573136
 30
0.0
 11
2095.879285989012
 21
169.6120463183504
 31
0.0
  0
LINE
  5
6E0
  8
回02-寸法
  6
CONTINUOUS
 62
     5
 10
2095.879285989012
 20
169.6120463183504
 30
0.0
 11
2093.379285989012
 21
169.6120463183504
 31
0.0
  0
ENDBLK
  5
6E2
  8
0
  6
CONTINUOUS
 62
     7
  0
BLOCK
  8
0
  2
*X84
 70
     1
 10
0.0
 20
0.0
 30
0.0
  3
*X84
  1

  0
SOLID
  5
6E5
  8
回02-寸法
  6
CONTINUOUS
 62
     5
 10
2106.252244624211
 20
170.3543440191402
 30
0.0
 11
2107.14706020794
 21
168.5348891056492
 31
0.0
 12
2105.710519548685
 22
169.9657846453095
 32
0.0
 13
2105.710519548685
 23
169.9657846453095
 33
0.0
  0
LINE
  5
6E6
  8
回02-寸法
  6
CONTINUOUS
 62
     5
 10
2105.981382086448
 20
170.1600643322248
 30
0.0
 11
2103.29474938902
 21
173.9057371918821
 31
0.0
  0
LINE
  5
6E7
  8
回02-寸法
  6
CONTINUOUS
 62
     5
 10
2103.29474938902
 20
173.9057371918821
 30
0.0
 11
2100.79474938902
 21
173.9057371918821
 31
0.0
  0
ENDBLK
  5
6E9
  8
0
  6
CONTINUOUS
 62
     7
  0
BLOCK
  8
0
  2
*X85
 70
     1
 10
0.0
 20
0.0
 30
0.0
  3
*X85
  1

  0
INSERT
  5
6F6
  8
回03-記事
  6
CONTINUOUS
 62
     5
  2
_OPEN
 10
2105.592246829023
 20
154.1938636972681
 30
0.0
 41
2.0
 42
2.0
 43
2.0
 50
70.22821374870611
  0
LINE
  5
6F7
  8
回03-記事
  6
CONTINUOUS
 62
     5
 10
2104.915697692935
 20
152.3117687829615
 30
0.0
 11
2095.70089572985
 21
126.6770720758613
 31
0.0
  0
LINE
  5
6F8
  8
回03-記事
  6
CONTINUOUS
 62
     5
 10
2095.70089572985
 20
126.6770720758613
 30
0.0
 11
2060.800895729849
 21
126.6770720758613
 31
0.0
  0
ENDBLK
  5
6FA
  8
0
  6
CONTINUOUS
 62
     7
  0
BLOCK
  8
0
  2
*X86
 70
     1
 10
0.0
 20
0.0
 30
0.0
  3
*X86
  1

  0
TEXT
  5
6FD
  8
回02-寸法
  6
CONTINUOUS
 62
     5
 10
2202.623346516015
 20
337.5764912203446
 30
0.0
 40
3.0
  1
185.6
  0
TEXT
  5
6FE
  8
回02-寸法
  6
CONTINUOUS
 62
     5
 10
2211.323346516015
 20
337.5764912203446
 30
0.0
 40
2.1
  1
±0.3
  0
ENDBLK
  5
700
  8
0
  6
CONTINUOUS
 62
     7
  0
BLOCK
  8
0
  2
*X87
 70
     1
 10
0.0
 20
0.0
 30
0.0
  3
*X87
  1

  0
TEXT
  5
703
  8
回02-寸法
  6
CONTINUOUS
 62
     5
 10
2344.777579025612
 20
221.7810646631106
 30
0.0
 40
3.0
  1
143.3
 50
90.0
  0
TEXT
  5
704
  8
回02-寸法
  6
CONTINUOUS
 62
     5
 10
2344.777579025612
 20
230.7810646631105
 30
0.0
 40
2.1
  1
±0.3
 50
90.0
  0
ENDBLK
  5
706
  8
0
  6
CONTINUOUS
 62
     7
  0
BLOCK
  8
0
  2
*X88
 70
     1
 10
0.0
 20
0.0
 30
0.0
  3
*X88
  1

  0
TEXT
  5
709
  8
回02-寸法
  6
CONTINUOUS
 62
     5
 10
2309.629075992793
 20
117.798529185527
 30
0.0
 40
3.0
  1
2.1
 50
90.0
  0
TEXT
  5
70A
  8
回02-寸法
  6
CONTINUOUS
 62
     5
 10
2309.629075992793
 20
122.298529185527
 30
0.0
 40
2.000099999999999
  1
±0.2
 50
90.0
  0
ENDBLK
  5
70C
  8
0
  6
CONTINUOUS
 62
     7
  0
BLOCK
  8
0
  2
*X89
 70
     1
 10
0.0
 20
0.0
 30
0.0
  3
*X89
  1

  0
TEXT
  5
70F
  8
回02-寸法
  6
CONTINUOUS
 62
     5
 10
2032.883843158008
 20
94.10887928358624
 30
0.0
 40
3.0
  1
0.3
 50
90.0
  0
TEXT
  5
710
  8
回02-寸法
  6
CONTINUOUS
 62
     5
 10
2032.883843158008
 20
99.20887928358617
 30
0.0
 40
2.000099999999999
  1
±0.05
 50
90.0
  0
ENDBLK
  5
712
  8
0
  6
CONTINUOUS
 62
     7
  0
BLOCK
  8
0
  2
*X90
 70
     1
 10
0.0
 20
0.0
 30
0.0
  3
*X90
  1

  0
TEXT
  5
715
  8
回02-寸法
  6
CONTINUOUS
 62
     5
 10
2075.574908845925
 20
253.9291095379907
 30
0.0
 40
3.0
  1
80
  0
TEXT
  5
716
  8
回02-寸法
  6
CONTINUOUS
 62
     5
 10
2079.774908845925
 20
253.9291095379907
 30
0.0
 40
2.1
  1
±1
  0
ENDBLK
  5
718
  8
0
  6
CONTINUOUS
 62
     7
  0
BLOCK
  8
0
  2
*X91
 70
     1
 10
0.0
 20
0.0
 30
0.0
  3
*X91
  1

  0
TEXT
  5
71B
  8
回02-寸法
  6
CONTINUOUS
 62
     5
 10
2028.599921899274
 20
209.6488008835834
 30
0.0
 40
3.0
  1
6.25
 50
90.0
  0
TEXT
  5
71C
  8
回02-寸法
  6
CONTINUOUS
 62
     5
 10
2028.599921899274
 20
216.8488008835834
 30
0.0
 40
2.1
  1
±0.1
 50
90.0
  0
ENDBLK
  5
71E
  8
0
  6
CONTINUOUS
 62
     7
  0
BLOCK
  8
0
  2
*X92
 70
     1
 10
0.0
 20
0.0
 30
0.0
  3
*X92
  1

  0
TEXT
  5
721
  8
回02-寸法
  6
CONTINUOUS
 62
     5
 10
1983.889580616242
 20
151.7562426392698
 30
0.0
 40
3.0
  1
6.25
 50
90.0
  0
TEXT
  5
722
  8
回02-寸法
  6
CONTINUOUS
 62
     5
 10
1983.889580616242
 20
158.9562426392699
 30
0.0
 40
2.000099999999999
  1
±0.2
 50
90.0
  0
ENDBLK
  5
724
  8
0
  6
CONTINUOUS
 62
     7
  0
BLOCK
  8
0
  2
*X93
 70
     1
 10
0.0
 20
0.0
 30
0.0
  3
*X93
  1

  0
TEXT
  5
727
  8
回02-寸法
  6
CONTINUOUS
 62
     5
 10
1997.344267902766
 20
153.8061871895322
 30
0.0
 40
3.0
  1
1.25
 50
90.0
  0
TEXT
  5
728
  8
回02-寸法
  6
CONTINUOUS
 62
     5
 10
1997.344267902766
 20
160.4061871895321
 30
0.0
 40
2.499989999999999
  1
±0.2
 50
90.0
  0
ENDBLK
  5
72A
  8
0
  6
CONTINUOUS
 62
     7
  0
BLOCK
  8
0
  2
*X94
 70
     1
 10
0.0
 20
0.0
 30
0.0
  3
*X94
  1

  0
TEXT
  5
72D
  8
回02-寸法
  6
CONTINUOUS
 62
     5
 10
2004.109200771209
 20
150.6815351114792
 30
0.0
 40
3.0
  1
4-0.7
 50
90.0
  0
TEXT
  5
72E
  8
回02-寸法
  6
CONTINUOUS
 62
     5
 10
2004.109200771209
 20
160.2815351114791
 30
0.0
 40
2.499989999999999
  1
±0.1
 50
90.0
  0
ENDBLK
  5
730
  8
0
  6
CONTINUOUS
 62
     7
  0
BLOCK
  8
0
  2
*X95
 70
     1
 10
0.0
 20
0.0
 30
0.0
  3
*X95
  1

  0
TEXT
  5
733
  8
回02-寸法
  6
CONTINUOUS
 62
     5
 10
1990.929825152162
 20
153.5603421394387
 30
0.0
 40
3.0
  1
3.75
 50
90.0
  0
TEXT
  5
734
  8
回02-寸法
  6
CONTINUOUS
 62
     5
 10
1990.929825152162
 20
160.7603421394387
 30
0.0
 40
2.00001
  1
±0.1
 50
90.0
  0
ENDBLK
  5
736
  8
0
  6
CONTINUOUS
 62
     7
  0
BLOCK
  8
0
  2
*X96
 70
     1
 10
0.0
 20
0.0
 30
0.0
  3
*X96
  1

  0
TEXT
  5
739
  8
回02-寸法
  6
CONTINUOUS
 62
     5
 10
1981.202964225902
 20
84.40903277054577
 30
0.0
 40
3.0
  1
3.75
 50
90.0
  0
TEXT
  5
73A
  8
回02-寸法
  6
CONTINUOUS
 62
     5
 10
1981.202964225902
 20
91.60903277054581
 30
0.0
 40
2.00001
  1
±0.1
 50
90.0
  0
ENDBLK
  5
73C
  8
0
  6
CONTINUOUS
 62
     7
  0
BLOCK
  8
0
  2
*X97
 70
     1
 10
0.0
 20
0.0
 30
0.0
  3
*X97
  1

  0
TEXT
  5
73F
  8
回02-寸法
  6
CONTINUOUS
 62
     5
 10
1994.382339844948
 20
81.5302257425867
 30
0.0
 40
3.0
  1
4-0.7
 50
90.0
  0
TEXT
  5
740
  8
回02-寸法
  6
CONTINUOUS
 62
     5
 10
1994.382339844948
 20
91.13022574258662
 30
0.0
 40
2.499989999999999
  1
±0.1
 50
90.0
  0
ENDBLK
  5
742
  8
0
  6
CONTINUOUS
 62
     7
  0
BLOCK
  8
0
  2
*X98
 70
     1
 10
0.0
 20
0.0
 30
0.0
  3
*X98
  1

  0
TEXT
  5
745
  8
回02-寸法
  6
CONTINUOUS
 62
     5
 10
1987.617702252095
 20
84.72967493589749
 30
0.0
 40
3.0
  1
1.25
 50
90.0
  0
TEXT
  5
746
  8
回02-寸法
  6
CONTINUOUS
 62
     5
 10
1987.617702252095
 20
91.3296749358974
 30
0.0
 40
2.499989999999999
  1
±0.2
 50
90.0
  0
ENDBLK
  5
748
  8
0
  6
CONTINUOUS
 62
     7
  0
BLOCK
  8
0
  2
*X99
 70
     1
 10
0.0
 20
0.0
 30
0.0
  3
*X99
  1

  0
TEXT
  5
74B
  8
回02-寸法
  6
CONTINUOUS
 62
     5
 10
1974.163014965572
 20
99.12987160797525
 30
0.0
 40
3.0
  1
6.25
 50
90.0
  0
TEXT
  5
74C
  8
回02-寸法
  6
CONTINUOUS
 62
     5
 10
1974.163014965572
 20
106.3298716079753
 30
0.0
 40
2.000099999999999
  1
±0.2
 50
90.0
  0
ENDBLK
  5
74E
  8
0
  6
CONTINUOUS
 62
     7
  0
BLOCK
  8
0
  2
*X100
 70
     1
 10
0.0
 20
0.0
 30
0.0
  3
*X100
  1

  0
TEXT
  5
751
  8
回02-寸法
  6
CONTINUOUS
 62
     5
 10
2023.156982231746
 20
24.9575699146933
 30
0.0
 40
3.0
  1
0.3
 50
90.0
  0
TEXT
  5
752
  8
回02-寸法
  6
CONTINUOUS
 62
     5
 10
2023.156982231746
 20
30.05756991469321
 30
0.0
 40
2.000099999999999
  1
±0.05
 50
90.0
  0
ENDBLK
  5
754
  8
0
  6
CONTINUOUS
 62
     7
  0
BLOCK
  8
0
  2
*X101
 70
     1
 10
0.0
 20
0.0
 30
0.0
  3
*X101
  1

  0
TEXT
  5
757
  8
回02-寸法
  6
CONTINUOUS
 62
     5
 10
2299.902510342123
 20
48.54928834199927
 30
0.0
 40
3.0
  1
2.1
 50
90.0
  0
TEXT
  5
758
  8
回02-寸法
  6
CONTINUOUS
 62
     5
 10
2299.902510342123
 20
53.04928834199927
 30
0.0
 40
2.000099999999999
  1
±0.2
 50
90.0
  0
ENDBLK
  5
75A
  8
0
  6
CONTINUOUS
 62
     7
  0
BLOCK
  8
0
  2
*X102
 70
     1
 10
0.0
 20
0.0
 30
0.0
  3
*X102
  1

  0
TEXT
  5
75D
  8
回02-寸法
  6
CONTINUOUS
 62
     5
 10
2018.873356248603
 20
140.4974915146901
 30
0.0
 40
3.0
  1
6.25
 50
90.0
  0
TEXT
  5
75E
  8
回02-寸法
  6
CONTINUOUS
 62
     5
 10
2018.873356248603
 20
147.6974915146902
 30
0.0
 40
2.1
  1
±0.1
 50
90.0
  0
ENDBLK
  5
760
  8
0
  6
CONTINUOUS
 62
     7
  0
BLOCK
  8
0
  2
*X103
 70
     1
 10
0.0
 20
0.0
 30
0.0
  3
*X103
  1

  0
TEXT
  5
763
  8
回02-寸法
  6
CONTINUOUS
 62
     5
 10
2065.848047919664
 20
184.7778001690977
 30
0.0
 40
3.0
  1
80
  0
TEXT
  5
764
  8
回02-寸法
  6
CONTINUOUS
 62
     5
 10
2070.048047919664
 20
184.7778001690977
 30
0.0
 40
2.1
  1
±1
  0
ENDBLK
  5
766
  8
0
  6
CONTINUOUS
 62
     7
  0
BLOCK
  8
0
  2
*X104
 70
     1
 10
0.0
 20
0.0
 30
0.0
  3
*X104
  1

  0
TEXT
  5
769
  8
回02-寸法
  6
CONTINUOUS
 62
     5
 10
2335.050718099351
 20
152.6297552942178
 30
0.0
 40
3.0
  1
143.3
 50
90.0
  0
TEXT
  5
76A
  8
回02-寸法
  6
CONTINUOUS
 62
     5
 10
2335.050718099351
 20
161.6297552942178
 30
0.0
 40
2.1
  1
±0.3
 50
90.0
  0
ENDBLK
  5
76C
  8
0
  6
CONTINUOUS
 62
     7
  0
BLOCK
  8
0
  2
*X105
 70
     1
 10
0.0
 20
0.0
 30
0.0
  3
*X105
  1

  0
TEXT
  5
76F
  8
回02-寸法
  6
CONTINUOUS
 62
     5
 10
2192.896485589754
 20
268.4251818514515
 30
0.0
 40
3.0
  1
185.6
  0
TEXT
  5
770
  8
回02-寸法
  6
CONTINUOUS
 62
     5
 10
2201.596485589754
 20
268.4251818514515
 30
0.0
 40
2.1
  1
±0.3
  0
ENDBLK
  5
772
  8
0
  6
CONTINUOUS
 62
     7
  0
ENDSEC
  0
SECTION
  2
ENTITIES
  0
TEXT
  5
5F
  8
回03-記事
  6
CONTINUOUS
 62
     5
 10
2143.725773849696
 20
-31.98434790483366
 30
0.0
 40
5.2
  1
without affecting product specification.
  0
TEXT
  5
61
  8
回03-記事
  6
CONTINUOUS
 62
     5
 10
2143.725773849696
 20
-22.86300004778389
 30
0.0
 40
5.2
  1
Edges and corners of ITO glass may be chamfered 
  0
TEXT
  5
62
  8
回03-記事
  6
CONTINUOUS
 62
     5
 10
2143.725773849696
 20
-13.74165219073411
 30
0.0
 40
5.2
  1
Unit: mm
  0
TEXT
  5
63
  8
回03-記事
  6
CONTINUOUS
 62
     5
 10
2143.725773849696
 20
-4.62030433368433
 30
0.0
 40
5.2
  1
EXCEPT WHERE INDICATED
  0
TEXT
  5
64
  8
回03-記事
  6
CONTINUOUS
 62
     5
 10
2143.725773849696
 20
4.501043523365439
 30
0.0
 40
5.2
  1
TOLERANCE=±0.5mm
  0
LINE
  5
65
  8
回04-図面枠
  6
CONTINUOUS
 62
     7
 10
2442.79112328347
 20
-41.25467498283689
 30
0.0
 11
2442.79112328347
 21
-31.25467498283689
 31
0.0
  0
LINE
  5
68
  8
回04-図面枠
  6
CENTER2
 62
     7
 10
2448.008531262476
 20
-39.84570055591695
 30
0.0
 11
2448.008531262476
 21
-32.8456398073252
 31
0.0
  0
LINE
  5
6A
  8
回04-図面枠
  6
CONTINUOUS
 62
     7
 10
2452.775024412413
 20
-37.82358581973523
 30
0.0
 11
2457.945829564153
 21
-39.13982279449857
 31
0.0
  0
LINE
  5
6B
  8
回04-図面枠
  6
CONTINUOUS
 62
     7
 10
2452.775024412413
 20
-34.86775454350692
 30
0.0
 11
2457.945829564153
 21
-33.55151756874267
 31
0.0
  0
LINE
  5
6C
  8
回04-図面枠
  6
CONTINUOUS
 62
     7
 10
2457.945829564153
 20
-33.55151756874267
 30
0.0
 11
2457.945829564153
 21
-39.13982279449857
 31
0.0
  0
LINE
  5
6D
  8
回04-図面枠
  6
CONTINUOUS
 62
     7
 10
2452.775024412413
 20
-34.86775454350692
 30
0.0
 11
2452.775024412413
 21
-37.82358581973523
 31
0.0
  0
LINE
  5
6E
  8
回04-図面枠
  6
CENTER2
 62
     7
 10
2444.799526950276
 20
-36.34567018162062
 30
0.0
 11
2458.404109402397
 21
-36.34567018162062
 31
0.0
  0
CIRCLE
  5
6F
  8
回04-図面枠
  6
CONTINUOUS
 62
     7
 10
2448.008531262476
 20
-36.34567018162062
 30
0.0
 40
1.477915638114184
  0
CIRCLE
  5
70
  8
回04-図面枠
  6
CONTINUOUS
 62
     7
 10
2448.008531262476
 20
-36.34567018162062
 30
0.0
 40
2.794152612877607
  0
TEXT
  5
71
  8
回03-記事
  6
CONTINUOUS
 10
2408.798697931117
 20
1.682730337381315
 30
0.0
 40
3.372171263999999
  1
PROTECTION TAPE
  0
TEXT
  5
72
  8
回03-記事
  6
CONTINUOUS
 10
2403.533407178906
 20
1.664914803514136
 30
0.0
 40
3.507058114560001
  1
6
  0
LINE
  5
73
  8
回03-記事
  6
CONTINUOUS
 10
2401.741632178495
 20
0.6579383316285999
 30
0.0
 11
2453.985789375412
 21
0.6579383316285999
 31
0.0
  0
TEXT
  5
74
  8
回03-記事
  6
CONTINUOUS
 10
2408.370626942721
 20
7.381834554563454
 30
0.0
 40
3.507058114560001
  1
STIFFENER
  0
TEXT
  5
75
  8
回03-記事
  6
CONTINUOUS
 10
2408.370626942721
 20
13.22693141216422
 30
0.0
 40
3.507058114560001
  1
REINFORCEMENT FILM
  0
TEXT
  5
76
  8
回03-記事
  6
CONTINUOUS
 10
2422.172712468583
 20
36.83988665158466
 30
0.0
 40
3.507058114560001
  1
ITEM
  0
LINE
  5
77
  8
回03-記事
  6
CONTINUOUS
 10
2453.985789375412
 20
0.6579383316285999
 30
0.0
 11
2453.985789375412
 21
41.5736163348285
 31
0.0
  0
TEXT
  5
78
  8
回03-記事
  6
CONTINUOUS
 10
2403.533407178906
 20
19.20020537631188
 30
0.0
 40
3.507058114560001
  1
3
  0
TEXT
  5
79
  8
回03-記事
  6
CONTINUOUS
 10
2403.533407178906
 20
13.35510851871385
 30
0.0
 40
3.507058114560001
  1
4
  0
TEXT
  5
7A
  8
回03-記事
  6
CONTINUOUS
 10
2403.533407178906
 20
25.04530223391538
 30
0.0
 40
3.507058114560001
  1
2
  0
TEXT
  5
7B
  8
回03-記事
  6
CONTINUOUS
 10
2403.533407178906
 20
7.510011661113992
 30
0.0
 40
3.507058114560001
  1
5
  0
LINE
  5
7C
  8
回03-記事
  6
CONTINUOUS
 10
2407.823226577479
 20
41.5736163348285
 30
0.0
 11
2407.823226577479
 21
0.6579383316285999
 31
0.0
  0
LINE
  5
7D
  8
回03-記事
  6
CONTINUOUS
 10
2401.741632178495
 20
41.5736163348285
 30
0.0
 11
2401.741632178495
 21
0.6579383316285999
 31
0.0
  0
TEXT
  5
7E
  8
回03-記事
  6
CONTINUOUS
 10
2403.533407178906
 20
30.89039909151342
 30
0.0
 40
3.507058114560001
  1
1
  0
LINE
  5
7F
  8
回03-記事
  6
CONTINUOUS
 10
2401.741632178495
 20
6.503035189228455
 30
0.0
 11
2453.985789375412
 21
6.503035189228455
 31
0.0
  0
LINE
  5
80
  8
回03-記事
  6
CONTINUOUS
 10
2401.741632178495
 20
41.5736163348285
 30
0.0
 11
2453.985789375412
 21
41.5736163348285
 31
0.0
  0
LINE
  5
81
  8
回03-記事
  6
CONTINUOUS
 10
2401.741632178495
 20
29.8834226196297
 30
0.0
 11
2453.985789375412
 21
29.88342261962606
 31
0.0
  0
LINE
  5
82
  8
回03-記事
  6
CONTINUOUS
 10
2401.741632178495
 20
35.72851947722956
 30
0.0
 11
2453.985789375412
 21
35.72851947722956
 31
0.0
  0
LINE
  5
83
  8
回03-記事
  6
CONTINUOUS
 10
2401.741632178495
 20
12.34813204682922
 30
0.0
 11
2453.985789375412
 21
12.34813204682922
 31
0.0
  0
LINE
  5
84
  8
回03-記事
  6
CONTINUOUS
 10
2401.741632178495
 20
18.19322890442908
 30
0.0
 11
2453.985789375412
 21
18.19322890442908
 31
0.0
  0
LINE
  5
85
  8
回03-記事
  6
CONTINUOUS
 10
2401.741632178495
 20
24.03832576202893
 30
0.0
 11
2453.985789375412
 21
24.03832576202893
 31
0.0
  0
TEXT
  5
86
  8
回03-記事
  6
CONTINUOUS
 10
2408.370626942721
 20
30.81516630181813
 30
0.0
 40
3.507058114560001
  1
ITO FILM
  0
TEXT
  5
87
  8
回03-記事
  6
CONTINUOUS
 10
2408.370626942721
 20
24.97006944421736
 30
0.0
 40
3.507058114560001
  1
ITO GLASS
  0
TEXT
  5
88
  8
回03-記事
  6
CONTINUOUS
 10
2408.370626942721
 20
19.12497258661568
 30
0.0
 40
3.507058114560001
  1
TAIL
  0
TEXT
  5
89
  8
回02-寸法
  6
CONTINUOUS
 62
     5
 10
2296.590404316066
 20
265.8469337193352
 30
0.0
 40
3.0
  1
(Insulation Area)
  0
TEXT
  5
8B
  8
回02-寸法
  6
CONTINUOUS
 62
     5
 10
2331.161385315823
 20
232.4138910796689
 30
0.0
 40
3.0
  1
(Insulation Area)
 50
90.0
  0
TEXT
  5
8C
  8
回03-記事
  6
CONTINUOUS
 62
     5
 10
2035.558120043364
 20
169.1933176649687
 30
0.0
 40
3.0
  1
A
1001
ACAD
1000
MTEXTBEGIN
1070
    73
1070
     1
1070
    44
1040
1.0
1070
    74
1070
     0
1000
MTEXTEND
  0
INSERT
  5
8D
  8
回03-記事
  6
CONTINUOUS
 62
     7
 66
     1
  2
*X77
 10
0.0
 20
0.0
 30
0.0
  0
SEQEND
  5
665
  8
0
  6
CONTINUOUS
 62
     7
  0
CIRCLE
  5
8E
  8
回03-記事
  6
CONTINUOUS
 62
     5
 10
2028.84140958227
 20
159.4633295222945
 30
0.0
 40
7.742816109002717
  0
TEXT
  5
8F
  8
回02-寸法
 62
     5
 10
1987.62118214601
 20
116.1357276145074
 30
0.0
 40
3.0
  1
2-R0.5
1001
ACAD
1000
MTEXTBEGIN
1070
    73
1070
     1
1070
    44
1040
1.0
1070
    74
1070
     0
1000
MTEXTEND
  0
INSERT
  5
90
  8
回02-寸法
 62
     1
 66
     1
  2
*X78
 10
0.0
 20
0.0
 30
0.0
  0
SEQEND
  5
66C
  8
0
  6
CONTINUOUS
 62
     7
  0
TEXT
  5
91
  8
回03-記事
  6
CONTINUOUS
 62
     5
 10
1992.998288652341
 20
123.7227492998889
 30
0.0
 40
5.0
  1
SECTION A
  0
LINE
  5
92
  8
回03-記事
  6
CONTINUOUS
 62
     8
 10
2013.082215070792
 20
111.4552052425912
 30
0.0
 11
2013.082215070792
 21
98.95520524259183
 31
0.0
  0
LINE
  5
93
  8
回03-記事
  6
CONTINUOUS
 62
     7
 10
2000.182598959447
 20
101.4552052425867
 30
0.0
 11
2016.694040898828
 21
101.4552052425867
 31
0.0
  0
LINE
  5
94
  8
回03-記事
  6
CONTINUOUS
 62
     7
 10
2000.182685980982
 20
103.9552052425867
 30
0.0
 11
2016.694040898828
 21
103.9552052425867
 31
0.0
  0
LINE
  5
95
  8
回03-記事
  6
CONTINUOUS
 62
     7
 10
2000.182598959447
 20
108.9552052425867
 30
0.0
 11
2016.694040898828
 21
108.9552052425867
 31
0.0
  0
DIMENSION
  5
96
  8
回02-寸法
  6
CONTINUOUS
 62
     5
  2
*D39
 10
1981.702964225901
 20
108.9552052425867
 30
0.0
 11
1981.702964225901
 21
90.28404302054577
 31
0.0
 70
   160
  1
3.75{\H0.66667x;±0.1}
  3
DMC
 13
2000.182685980982
 23
101.4552052425867
 33
0.0
 14
2000.182598959447
 24
108.9552052425867
 34
0.0
 50
90.0
1001
ACAD
1000
DSTYLE
1002
{
1070
   170
1070
     1
1070
   271
1070
     3
1070
   272
1070
     3
1070
   371
1070
     9
1070
   372
1070
     9
1002
}
  0
DIMENSION
  5
A8
  8
回02-寸法
  6
CONTINUOUS
 62
     5
  2
*D40
 10
1994.882339844948
 20
100.7552052425868
 30
0.0
 11
1992.882339844948
 21
89.11771549258679
 31
0.0
 70
    32
  1
4-0.7{\H0.83333x;±0.1}
  3
DMC
 13
2003.082128049257
 23
102.1552052425867
 33
0.0
 14
2003.082128049257
 24
100.7552052425868
 34
0.0
 50
90.0
1001
ACAD
1000
DSTYLE
1002
{
1070
   170
1070
     1
1070
   271
1070
     3
1070
   272
1070
     3
1070
   371
1070
     9
1070
   372
1070
     9
1002
}
  0
DIMENSION
  5
B9
  8
回02-寸法
  6
CONTINUOUS
 62
     5
  2
*D41
 10
1988.117702252095
 20
101.4552052425867
 30
0.0
 11
1986.117702252095
 21
91.06744008924209
 31
0.0
 70
    32
  1
1.25{\H0.83333x;±0.2}
  3
DMC
 13
2000.182685980982
 23
103.9552052425867
 33
0.0
 14
2000.182685980982
 24
101.4552052425867
 34
0.0
 50
90.0
1001
ACAD
1000
DSTYLE
1002
{
1070
   170
1070
     1
1070
   271
1070
     3
1070
   272
1070
     3
1070
   371
1070
     9
1070
   372
1070
     9
1002
}
  0
POLYLINE
  5
CA
  8
回03-記事
  6
CONTINUOUS
 62
     8
 66
     1
 10
0.0
 20
0.0
 30
0.0
 40
1.399999999999999
 41
1.399999999999999
  0
VERTEX
  5
66D
  8
回03-記事
  6
CONTINUOUS
 62
     8
 10
2003.082128049257
 20
106.4552052425867
 30
0.0
  0
VERTEX
  5
66F
  8
回03-記事
  6
CONTINUOUS
 62
     8
 10
2013.082215070792
 20
106.4552052425867
 30
0.0
  0
SEQEND
  5
66E
  8
0
  6
CONTINUOUS
 62
     7
  0
POLYLINE
  5
CB
  8
回03-記事
  6
CONTINUOUS
 62
     8
 66
     1
 10
0.0
 20
0.0
 30
0.0
 40
1.399999999999999
 41
1.399999999999999
  0
VERTEX
  5
670
  8
回03-記事
  6
CONTINUOUS
 62
     8
 10
2003.082128049257
 20
108.9552052425867
 30
0.0
  0
VERTEX
  5
672
  8
回03-記事
  6
CONTINUOUS
 62
     8
 10
2013.082215070792
 20
108.9552052425867
 30
0.0
  0
SEQEND
  5
671
  8
0
  6
CONTINUOUS
 62
     7
  0
POLYLINE
  5
CC
  8
回03-記事
  6
CONTINUOUS
 62
     8
 66
     1
 10
0.0
 20
0.0
 30
0.0
 40
1.399999999999999
 41
1.399999999999999
  0
VERTEX
  5
673
  8
回03-記事
  6
CONTINUOUS
 62
     8
 10
2003.082128049257
 20
101.4552052425867
 30
0.0
  0
VERTEX
  5
675
  8
回03-記事
  6
CONTINUOUS
 62
     8
 10
2013.082215070792
 20
101.4552052425867
 30
0.0
  0
SEQEND
  5
674
  8
0
  6
CONTINUOUS
 62
     7
  0
POLYLINE
  5
CD
  8
回03-記事
  6
CONTINUOUS
 62
     8
 66
     1
 10
0.0
 20
0.0
 30
0.0
 40
1.399999999999999
 41
1.399999999999999
  0
VERTEX
  5
676
  8
回03-記事
  6
CONTINUOUS
 62
     8
 10
2003.082128049257
 20
103.9552052425867
 30
0.0
  0
VERTEX
  5
678
  8
回03-記事
  6
CONTINUOUS
 62
     8
 10
2013.082215070792
 20
103.9552052425867
 30
0.0
  0
SEQEND
  5
677
  8
0
  6
CONTINUOUS
 62
     7
  0
LINE
  5
CE
  8
回03-記事
  6
CONTINUOUS
 62
     8
 10
2004.082215070793
 20
98.95520524259183
 30
0.0
 11
2027.832877976584
 21
98.95520524259183
 31
0.0
  0
LINE
  5
CF
  8
回03-記事
  6
CONTINUOUS
 62
     8
 10
2003.082215070793
 20
110.4552052425918
 30
0.0
 11
2003.082215070793
 21
99.95520524259228
 31
0.0
  0
ARC
  5
D0
  8
回03-記事
  6
CONTINUOUS
 62
     8
 10
2004.082215070793
 20
99.95520524259228
 30
0.0
 40
1.0
 50
180.0
 51
270.0
  0
ARC
  5
D1
  8
回03-記事
  6
CONTINUOUS
 62
     8
 10
2004.082215070793
 20
110.4552052425918
 30
0.0
 40
1.0
 50
90.0
 51
180.0
  0
LINE
  5
D2
  8
回03-記事
  6
CONTINUOUS
 62
     8
 10
2004.082215070793
 20
111.4552052425914
 30
0.0
 11
2027.832877976584
 21
111.4552052425914
 31
0.0
  0
DIMENSION
  5
D3
  8
回02-寸法
  6
CONTINUOUS
 62
     5
  2
*D42
 10
1974.663014965572
 20
98.95520524259229
 30
0.0
 11
1972.663014965572
 21
105.2052052425918
 31
0.0
 70
    32
  1
6.25{\H0.6667x;±0.2}
  3
DMC
 13
2004.082215070793
 23
111.4552052425914
 33
0.0
 14
2004.082215070793
 24
98.95520524259229
 34
0.0
 50
90.0
1001
ACAD
1000
DSTYLE
1002
{
1070
   170
1070
     1
1070
   271
1070
     3
1070
   272
1070
     3
1070
   371
1070
     9
1070
   372
1070
     9
1002
}
  0
TEXT
  5
E4
  8
回03-記事
  6
CONTINUOUS
 62
     5
 10
1999.332084043171
 20
50.31183007232783
 30
0.0
 40
3.0
  1
Trace Expose
1001
ACAD
1000
MTEXTBEGIN
1070
    73
1070
     1
1070
    44
1040
1.0
1070
    74
1070
     0
1000
MTEXTEND
  0
INSERT
  5
E5
  8
回03-記事
  6
CONTINUOUS
 62
     8
 66
     1
  2
*X79
 10
0.0
 20
0.0
 30
0.0
  0
SEQEND
  5
67F
  8
0
  6
CONTINUOUS
 62
     7
  0
LINE
  5
E6
  8
回03-記事
  6
CONTINUOUS
 62
     7
 10
2039.4375498523
 20
41.15592152387665
 30
0.0
 11
2044.651255190169
 21
36.57022356297586
 31
0.0
  0
LINE
  5
E7
  8
回03-記事
  6
CONTINUOUS
 62
     7
 10
2099.258108577293
 20
41.42200975329427
 30
0.0
 11
2094.311589580577
 21
35.63185163522661
 31
0.0
  0
TEXT
  5
E8
  8
回03-記事
  6
CONTINUOUS
 62
     7
 10
2092.443576441898
 20
32.53836223127104
 30
0.0
 40
3.0
  1
4
  0
LINE
  5
E9
  8
回03-記事
  6
CONTINUOUS
 62
     7
 10
2095.438566262038
 20
43.50160724206665
 30
0.0
 11
2094.311589580577
 21
35.63185163522661
 31
0.0
  0
TEXT
  5
EA
  8
回03-記事
  6
CONTINUOUS
 62
     7
 10
2045.396552183207
 20
35.98430798455303
 30
0.0
 40
3.0
  1
5
  0
TEXT
  5
EB
  8
回03-記事
  6
CONTINUOUS
 62
     7
 10
2053.281024304848
 20
49.67461457358848
 30
0.0
 40
3.0
  1
3
  0
LINE
  5
EC
  8
回03-記事
  6
CONTINUOUS
 62
     7
 10
2052.416039965785
 20
42.48041098491961
 30
0.0
 11
2054.232376472199
 21
48.59695447521488
 31
0.0
  0
DIMENSION
  5
ED
  8
回02-寸法
  6
CONTINUOUS
 62
     7
  2
*D43
 10
2032.033985589754
 20
51.35318064955635
 30
0.0
 11
2043.07512124618
 21
51.35318064955635
 31
0.0
 70
   160
  3
DMC
 13
2037.033985589754
 23
43.9992883419988
 33
0.0
 14
2032.033985589754
 24
42.99928834199881
 34
0.0
 50
180.0
1001
ACAD
1000
DSTYLE
1002
{
1070
    47
1040
0.2
1070
    48
1040
0.2
1070
   371
1070
     9
1070
   372
1070
     9
1002
}
  0
DIMENSION
  5
FE
  8
回02-寸法
  6
CONTINUOUS
 62
     7
  2
*D44
 10
2032.033985589754
 20
28.75278198666662
 30
0.0
 11
2049.082804487392
 21
28.75278198666662
 31
0.0
 70
   160
  1
(<>)
  3
DMC
 13
2042.033985589754
 23
40.49928834199881
 33
0.0
 14
2032.033985589754
 24
40.49928834199881
 34
0.0
 50
180.0
1001
ACAD
1000
DSTYLE
1002
{
1070
    47
1040
0.2
1070
    48
1040
0.2
1070
   371
1070
     9
1070
   372
1070
     9
1002
}
  0
DIMENSION
  5
10F
  8
回02-寸法
  6
CONTINUOUS
 62
     7
  2
*D45
 10
2023.656982231747
 20
42.99928834199881
 30
0.0
 11
2023.656982231747
 21
30.68153631233092
 31
0.0
 70
   160
  1
0.3{\H0.6667x;±0.05}
  3
DMC
 13
2032.033985589754
 23
40.49928834199881
 33
0.0
 14
2032.033985589754
 24
42.99928834199881
 34
0.0
 50
90.0
1001
ACADSTRINGINFO
1000
MIFCodePage
1070
     1
1001
ACAD
1000
DSTYLE
1002
{
1070
    47
1040
0.2
1070
    48
1040
0.2
1070
   371
1070
     9
1070
   372
1070
     9
1002
}
  0
POLYLINE
  5
121
  8
回01-TP外形
  6
CONTINUOUS
 62
     7
 66
     1
 10
0.0
 20
0.0
 30
0.0
 70
     1
  0
VERTEX
  5
680
  8
回01-TP外形
  6
CONTINUOUS
 62
     7
 10
2097.733985589754
 20
41.9992883419988
 30
0.0
  0
VERTEX
  5
682
  8
回01-TP外形
  6
CONTINUOUS
 62
     7
 10
2107.033985589754
 20
41.9992883419988
 30
0.0
  0
VERTEX
  5
683
  8
回01-TP外形
  6
CONTINUOUS
 62
     7
 10
2107.033985589754
 20
40.9992883419988
 30
0.0
  0
VERTEX
  5
684
  8
回01-TP外形
  6
CONTINUOUS
 62
     7
 10
2097.733985589754
 20
40.9992883419988
 30
0.0
  0
SEQEND
  5
681
  8
0
  6
CONTINUOUS
 62
     7
  0
POLYLINE
  5
123
  8
回01-TP外形
  6
CONTINUOUS
 62
     7
 66
     1
 10
0.0
 20
0.0
 30
0.0
 70
     1
  0
VERTEX
  5
685
  8
回01-TP外形
  6
CONTINUOUS
 62
     7
 10
2032.033985589754
 20
40.49928834199881
 30
0.0
  0
VERTEX
  5
687
  8
回01-TP外形
  6
CONTINUOUS
 62
     7
 10
2042.033985589754
 20
40.49928834199881
 30
0.0
  0
VERTEX
  5
688
  8
回01-TP外形
  6
CONTINUOUS
 62
     7
 10
2042.033985589754
 20
41.9992883419988
 30
0.0
  0
VERTEX
  5
689
  8
回01-TP外形
  6
CONTINUOUS
 62
     7
 10
2032.033985589754
 20
41.9992883419988
 30
0.0
  0
SEQEND
  5
686
  8
0
  6
CONTINUOUS
 62
     7
  0
POLYLINE
  5
124
  8
回01-TP外形
  6
CONTINUOUS
 62
     7
 66
     1
 10
0.0
 20
0.0
 30
0.0
 70
     1
  0
VERTEX
  5
68A
  8
回01-TP外形
  6
CONTINUOUS
 62
     7
 10
2037.033985589754
 20
42.99928834199881
 30
0.0
  0
VERTEX
  5
68C
  8
回01-TP外形
  6
CONTINUOUS
 62
     7
 10
2107.533985589753
 20
42.99928834199881
 30
0.0
  0
VERTEX
  5
68D
  8
回01-TP外形
  6
CONTINUOUS
 62
     7
 10
2107.533985589753
 20
43.9992883419988
 30
0.0
  0
VERTEX
  5
68E
  8
回01-TP外形
  6
CONTINUOUS
 62
     7
 10
2037.033985589753
 20
43.9992883419988
 30
0.0
  0
SEQEND
  5
68B
  8
0
  6
CONTINUOUS
 62
     7
  0
POLYLINE
  5
125
  8
回01-TP外形
  6
CONTINUOUS
 62
     7
 66
     1
 10
0.0
 20
0.0
 30
0.0
 70
     1
  0
VERTEX
  5
68F
  8
回01-TP外形
  6
CONTINUOUS
 62
     7
 10
2032.033985589754
 20
42.99928834199881
 30
0.0
  0
VERTEX
  5
691
  8
回01-TP外形
  6
CONTINUOUS
 62
     7
 10
2112.733985589754
 20
42.99928834199881
 30
0.0
  0
VERTEX
  5
692
  8
回01-TP外形
  6
CONTINUOUS
 62
     7
 10
2112.733985589754
 20
41.9992883419988
 30
0.0
  0
VERTEX
  5
693
  8
回01-TP外形
  6
CONTINUOUS
 62
     7
 10
2032.033985589754
 20
41.9992883419988
 30
0.0
  0
SEQEND
  5
690
  8
0
  6
CONTINUOUS
 62
     7
  0
DIMENSION
  5
126
  8
回02-寸法
  6
CONTINUOUS
 62
     7
  2
*D46
 10
2292.133985589754
 20
53.69044774058687
 30
0.0
 11
2284.335166692116
 21
55.84044774058688
 31
0.0
 70
    32
  1
(<>)
  3
DMC
 13
2292.633985589754
 23
41.9992883419988
 33
0.0
 14
2292.133985589754
 24
44.49928834199903
 34
0.0
1001
ACAD
1000
DSTYLE
1002
{
1070
    47
1040
0.2
1070
    48
1040
0.2
1070
   371
1070
     9
1070
   372
1070
     9
1002
}
  0
DIMENSION
  5
137
  8
回02-寸法
  6
CONTINUOUS
 62
     7
  2
*D47
 10
2107.533985589753
 20
53.69044774058687
 30
0.0
 11
2115.332804487392
 21
55.84044774058688
 31
0.0
 70
    32
  1
(<>)
  3
DMC
 13
2107.033985589754
 23
41.9992883419988
 33
0.0
 14
2107.533985589753
 24
44.4992883419988
 34
0.0
1001
ACAD
1000
DSTYLE
1002
{
1070
    47
1040
0.2
1070
    48
1040
0.2
1070
   371
1070
     9
1070
   372
1070
     9
1002
}
  0
TEXT
  5
148
  8
回03-記事
  6
CONTINUOUS
 62
     7
 10
2100.451313461875
 20
30.30368340757212
 30
0.0
 40
3.0
  1
6
  0
LINE
  5
149
  8
回03-記事
  6
CONTINUOUS
 62
     7
 10
2106.394156620158
 20
39.0795324109526
 30
0.0
 11
2102.139317718112
 21
33.76222133988853
 31
0.0
  0
POLYLINE
  5
14A
  8
回01-TP外形
  6
CONTINUOUS
 62
     7
 66
     1
 10
0.0
 20
0.0
 30
0.0
1001
ACAD
1000
ASC_BOUNDS
1002
{
1070
    19
1005
14B
1002
}
  0
VERTEX
  5
694
  8
回01-TP外形
  6
CONTINUOUS
 62
     7
 10
2102.933985589754
 20
40.9992883419988
 30
0.0
  0
VERTEX
  5
696
  8
回01-TP外形
  6
CONTINUOUS
 62
     7
 10
2107.033985589754
 20
40.9992883419988
 30
0.0
  0
VERTEX
  5
697
  8
回01-TP外形
  6
CONTINUOUS
 62
     7
 10
2107.033985589754
 20
38.99928834199881
 30
0.0
  0
VERTEX
  5
698
  8
回01-TP外形
  6
CONTINUOUS
 62
     7
 10
2111.133985589754
 20
38.99928834199881
 30
0.0
  0
VERTEX
  5
699
  8
回01-TP外形
  6
CONTINUOUS
 62
     7
 10
2111.133985589754
 20
37.99928834199881
 30
0.0
  0
VERTEX
  5
69A
  8
回01-TP外形
  6
CONTINUOUS
 62
     7
 10
2106.033985589754
 20
37.99928834199881
 30
0.0
  0
VERTEX
  5
69B
  8
回01-TP外形
  6
CONTINUOUS
 62
     7
 10
2106.033985589754
 20
39.99928834199881
 30
0.0
  0
VERTEX
  5
69C
  8
回01-TP外形
  6
CONTINUOUS
 62
     7
 10
2102.933985589754
 20
39.99928834199881
 30
0.0
  0
VERTEX
  5
69D
  8
回01-TP外形
  6
CONTINUOUS
 62
     7
 10
2102.933985589754
 20
40.9992883419988
 30
0.0
  0
SEQEND
  5
695
  8
0
  6
CONTINUOUS
 62
     7
  0
INSERT
  5
14B
  8
回01-TP外形
  6
CONTINUOUS
 62
     7
 66
     1
  2
*X80
 10
0.0
 20
0.0
 30
0.0
1001
ACAD
1010
0.0
1020
0.0
1030
0.0
  0
SEQEND
  5
6A4
  8
0
  6
CONTINUOUS
 62
     7
  0
LINE
  5
14C
  8
回03-記事
  6
CONTINUOUS
 62
     7
 10
2204.79664018255
 20
39.87580092782236
 30
0.0
 11
2207.106485556745
 21
32.46973535929982
 31
0.0
  0
TEXT
  5
14D
  8
回03-記事
  6
CONTINUOUS
 62
     7
 10
2206.242196226673
 20
27.84209233096743
 30
0.0
 40
3.0
  1
2
  0
TEXT
  5
14E
  8
回03-記事
  6
CONTINUOUS
 62
     7
 10
2195.80287892713
 20
51.17045020187624
 30
0.0
 40
3.0
  1
1
  0
LINE
  5
14F
  8
回03-記事
  6
CONTINUOUS
 62
     7
 10
2194.888340961636
 20
44.12277575617525
 30
0.0
 11
2196.754231094481
 21
50.09279010350264
 31
0.0
  0
DIMENSION
  5
150
  8
回02-寸法
  6
CONTINUOUS
 62
     7
  2
*D48
 10
2300.402510342123
 20
44.49928834199903
 30
0.0
 11
2298.402510342123
 21
53.27462197661538
 31
0.0
 70
    32
  1
2.1{\H0.6667x;±0.2}
  3
DMC
 13
2292.633985589754
 23
38.99928834199903
 33
0.0
 14
2292.133985589754
 24
44.49928834199903
 34
0.0
 50
90.0
1001
ACAD
1000
DSTYLE
1002
{
1070
    47
1040
0.2
1070
    48
1040
0.2
1070
   371
1070
     9
1070
   372
1070
     9
1002
}
1001
ACADSTRINGINFO
1000
MIFCodePage
1070
     1
  0
ARC
  5
161
  8
回01-TP外形
  6
CONTINUOUS
 62
     7
 10
2284.911243901616
 20
41.9992883419988
 30
0.0
 40
0.5
 50
0.0
 51
180.0
  0
ARC
  5
162
  8
回01-TP外形
  6
CONTINUOUS
 62
     7
 10
2280.911243901616
 20
41.9992883419988
 30
0.0
 40
0.5
 50
0.0
 51
180.0
  0
ARC
  5
163
  8
回01-TP外形
  6
CONTINUOUS
 62
     7
 10
2276.911243901616
 20
41.9992883419988
 30
0.0
 40
0.5
 50
0.0
 51
180.0
  0
ARC
  5
164
  8
回01-TP外形
  6
CONTINUOUS
 62
     7
 10
2272.911243901616
 20
41.9992883419988
 30
0.0
 40
0.5
 50
0.0
 51
180.0
  0
ARC
  5
165
  8
回01-TP外形
  6
CONTINUOUS
 62
     7
 10
2268.911243901616
 20
41.9992883419988
 30
0.0
 40
0.5
 50
0.0
 51
180.0
  0
ARC
  5
166
  8
回01-TP外形
  6
CONTINUOUS
 62
     7
 10
2264.911243901616
 20
41.9992883419988
 30
0.0
 40
0.5
 50
0.0
 51
180.0
  0
ARC
  5
167
  8
回01-TP外形
  6
CONTINUOUS
 62
     7
 10
2260.911243901616
 20
41.9992883419988
 30
0.0
 40
0.5
 50
0.0
 51
180.0
  0
ARC
  5
168
  8
回01-TP外形
  6
CONTINUOUS
 62
     7
 10
2256.911243901616
 20
41.9992883419988
 30
0.0
 40
0.5
 50
0.0
 51
180.0
  0
ARC
  5
169
  8
回01-TP外形
  6
CONTINUOUS
 62
     7
 10
2252.911243901616
 20
41.9992883419988
 30
0.0
 40
0.5
 50
0.0
 51
180.0
  0
ARC
  5
16A
  8
回01-TP外形
  6
CONTINUOUS
 62
     7
 10
2248.911243901616
 20
41.9992883419988
 30
0.0
 40
0.5
 50
0.0
 51
180.0
  0
ARC
  5
16B
  8
回01-TP外形
  6
CONTINUOUS
 62
     7
 10
2244.911243901616
 20
41.9992883419988
 30
0.0
 40
0.5
 50
0.0
 51
180.0
  0
ARC
  5
16C
  8
回01-TP外形
  6
CONTINUOUS
 62
     7
 10
2240.911243901616
 20
41.9992883419988
 30
0.0
 40
0.5
 50
0.0
 51
180.0
  0
ARC
  5
16D
  8
回01-TP外形
  6
CONTINUOUS
 62
     7
 10
2236.911243901616
 20
41.9992883419988
 30
0.0
 40
0.5
 50
0.0
 51
180.0
  0
ARC
  5
16E
  8
回01-TP外形
  6
CONTINUOUS
 62
     7
 10
2232.911243901616
 20
41.9992883419988
 30
0.0
 40
0.5
 50
0.0
 51
180.0
  0
ARC
  5
16F
  8
回01-TP外形
  6
CONTINUOUS
 62
     7
 10
2228.911243901616
 20
41.9992883419988
 30
0.0
 40
0.5
 50
0.0
 51
180.0
  0
ARC
  5
170
  8
回01-TP外形
  6
CONTINUOUS
 62
     7
 10
2224.911243901616
 20
41.9992883419988
 30
0.0
 40
0.5
 50
0.0
 51
180.0
  0
ARC
  5
171
  8
回01-TP外形
  6
CONTINUOUS
 62
     7
 10
2220.911243901616
 20
41.9992883419988
 30
0.0
 40
0.5
 50
0.0
 51
180.0
  0
ARC
  5
172
  8
回01-TP外形
  6
CONTINUOUS
 62
     7
 10
2216.911243901616
 20
41.9992883419988
 30
0.0
 40
0.5
 50
0.0
 51
180.0
  0
ARC
  5
173
  8
回01-TP外形
  6
CONTINUOUS
 62
     7
 10
2212.911243901616
 20
41.9992883419988
 30
0.0
 40
0.5
 50
0.0
 51
180.0
  0
ARC
  5
174
  8
回01-TP外形
  6
CONTINUOUS
 62
     7
 10
2208.911243901616
 20
41.9992883419988
 30
0.0
 40
0.5
 50
0.0
 51
180.0
  0
ARC
  5
175
  8
回01-TP外形
  6
CONTINUOUS
 62
     7
 10
2204.911243901616
 20
41.9992883419988
 30
0.0
 40
0.5
 50
0.0
 51
180.0
  0
ARC
  5
176
  8
回01-TP外形
  6
CONTINUOUS
 62
     7
 10
2200.911243901616
 20
41.9992883419988
 30
0.0
 40
0.5
 50
0.0
 51
180.0
  0
ARC
  5
177
  8
回01-TP外形
  6
CONTINUOUS
 62
     7
 10
2196.911243901616
 20
41.9992883419988
 30
0.0
 40
0.5
 50
0.0
 51
180.0
  0
ARC
  5
178
  8
回01-TP外形
  6
CONTINUOUS
 62
     7
 10
2192.911243901616
 20
41.9992883419988
 30
0.0
 40
0.5
 50
0.0
 51
180.0
  0
ARC
  5
179
  8
回01-TP外形
  6
CONTINUOUS
 62
     7
 10
2188.911243901616
 20
41.9992883419988
 30
0.0
 40
0.5
 50
0.0
 51
180.0
  0
ARC
  5
17A
  8
回01-TP外形
  6
CONTINUOUS
 62
     7
 10
2184.911243901616
 20
41.9992883419988
 30
0.0
 40
0.5
 50
0.0
 51
180.0
  0
ARC
  5
17B
  8
回01-TP外形
  6
CONTINUOUS
 62
     7
 10
2180.911243901616
 20
41.9992883419988
 30
0.0
 40
0.5
 50
0.0
 51
180.0
  0
ARC
  5
17C
  8
回01-TP外形
  6
CONTINUOUS
 62
     7
 10
2176.911243901616
 20
41.9992883419988
 30
0.0
 40
0.5
 50
0.0
 51
180.0
  0
ARC
  5
17D
  8
回01-TP外形
  6
CONTINUOUS
 62
     7
 10
2172.911243901616
 20
41.9992883419988
 30
0.0
 40
0.5
 50
0.0
 51
180.0
  0
ARC
  5
17E
  8
回01-TP外形
  6
CONTINUOUS
 62
     7
 10
2168.911243901616
 20
41.9992883419988
 30
0.0
 40
0.5
 50
0.0
 51
180.0
  0
ARC
  5
17F
  8
回01-TP外形
  6
CONTINUOUS
 62
     7
 10
2164.911243901616
 20
41.9992883419988
 30
0.0
 40
0.5
 50
0.0
 51
180.0
  0
ARC
  5
180
  8
回01-TP外形
  6
CONTINUOUS
 62
     7
 10
2160.911243901616
 20
41.9992883419988
 30
0.0
 40
0.5
 50
0.0
 51
180.0
  0
ARC
  5
181
  8
回01-TP外形
  6
CONTINUOUS
 62
     7
 10
2156.911243901616
 20
41.9992883419988
 30
0.0
 40
0.5
 50
0.0
 51
180.0
  0
ARC
  5
182
  8
回01-TP外形
  6
CONTINUOUS
 62
     7
 10
2152.911243901616
 20
41.9992883419988
 30
0.0
 40
0.5
 50
0.0
 51
180.0
  0
ARC
  5
183
  8
回01-TP外形
  6
CONTINUOUS
 62
     7
 10
2148.911243901617
 20
41.9992883419988
 30
0.0
 40
0.5
 50
0.0
 51
180.0
  0
ARC
  5
184
  8
回01-TP外形
  6
CONTINUOUS
 62
     7
 10
2144.911243901616
 20
41.9992883419988
 30
0.0
 40
0.5
 50
0.0
 51
180.0
  0
ARC
  5
185
  8
回01-TP外形
  6
CONTINUOUS
 62
     7
 10
2140.911243901616
 20
41.9992883419988
 30
0.0
 40
0.5
 50
0.0
 51
180.0
  0
ARC
  5
186
  8
回01-TP外形
  6
CONTINUOUS
 62
     7
 10
2136.911243901616
 20
41.9992883419988
 30
0.0
 40
0.5
 50
0.0
 51
180.0
  0
ARC
  5
187
  8
回01-TP外形
  6
CONTINUOUS
 62
     7
 10
2132.911243901617
 20
41.9992883419988
 30
0.0
 40
0.5
 50
0.0
 51
180.0
  0
ARC
  5
188
  8
回01-TP外形
  6
CONTINUOUS
 62
     7
 10
2128.911243901616
 20
41.9992883419988
 30
0.0
 40
0.5
 50
0.0
 51
180.0
  0
ARC
  5
189
  8
回01-TP外形
  6
CONTINUOUS
 62
     7
 10
2124.911243901616
 20
41.9992883419988
 30
0.0
 40
0.5
 50
0.0
 51
180.0
  0
ARC
  5
18A
  8
回01-TP外形
  6
CONTINUOUS
 62
     7
 10
2120.911243901616
 20
41.9992883419988
 30
0.0
 40
0.5
 50
0.0
 51
180.0
  0
ARC
  5
18B
  8
回01-TP外形
  6
CONTINUOUS
 62
     7
 10
2116.911243901617
 20
41.9992883419988
 30
0.0
 40
0.5
 50
0.0
 51
180.0
  0
POLYLINE
  5
18C
  8
回01-TP外形
  6
CONTINUOUS
 62
     7
 66
     1
 10
0.0
 20
0.0
 30
0.0
 70
     1
  0
VERTEX
  5
6A5
  8
回01-TP外形
  6
CONTINUOUS
 62
     7
 10
2288.633985589754
 20
42.99928834199881
 30
0.0
  0
VERTEX
  5
6A7
  8
回01-TP外形
  6
CONTINUOUS
 62
     7
 10
2292.133985589754
 20
42.99928834199881
 30
0.0
  0
VERTEX
  5
6A8
  8
回01-TP外形
  6
CONTINUOUS
 62
     7
 10
2292.133985589754
 20
41.9992883419988
 30
0.0
  0
VERTEX
  5
6A9
  8
回01-TP外形
  6
CONTINUOUS
 62
     7
 10
2288.633985589754
 20
41.9992883419988
 30
0.0
  0
SEQEND
  5
6A6
  8
0
  6
CONTINUOUS
 62
     7
  0
POLYLINE
  5
18D
  8
回01-TP外形
  6
CONTINUOUS
 62
     7
 66
     1
 10
0.0
 20
0.0
 30
0.0
 70
     1
  0
VERTEX
  5
6AA
  8
回01-TP外形
  6
CONTINUOUS
 62
     7
 10
2292.633985589754
 20
41.9992883419988
 30
0.0
  0
VERTEX
  5
6AC
  8
回01-TP外形
  6
CONTINUOUS
 62
     7
 10
2107.033985589754
 20
41.9992883419988
 30
0.0
  0
VERTEX
  5
6AD
  8
回01-TP外形
  6
CONTINUOUS
 62
     7
 10
2107.033985589754
 20
38.99928834199881
 30
0.0
  0
VERTEX
  5
6AE
  8
回01-TP外形
  6
CONTINUOUS
 62
     7
 10
2292.633985589754
 20
38.99928834199881
 30
0.0
  0
SEQEND
  5
6AB
  8
0
  6
CONTINUOUS
 62
     7
  0
POLYLINE
  5
18E
  8
回01-TP外形
  6
CONTINUOUS
 62
     7
 66
     1
 10
0.0
 20
0.0
 30
0.0
 70
     1
  0
VERTEX
  5
6AF
  8
回01-TP外形
  6
CONTINUOUS
 62
     7
 10
2107.533985589753
 20
44.4992883419988
 30
0.0
  0
VERTEX
  5
6B1
  8
回01-TP外形
  6
CONTINUOUS
 62
     7
 10
2292.133985589754
 20
44.4992883419988
 30
0.0
  0
VERTEX
  5
6B2
  8
回01-TP外形
  6
CONTINUOUS
 62
     7
 10
2292.133985589754
 20
42.99928834199881
 30
0.0
  0
VERTEX
  5
6B3
  8
回01-TP外形
  6
CONTINUOUS
 62
     7
 10
2107.533985589753
 20
42.99928834199881
 30
0.0
  0
SEQEND
  5
6B0
  8
0
  6
CONTINUOUS
 62
     7
  0
DIMENSION
  5
18F
  8
回02-寸法
  6
CONTINUOUS
 62
     7
  2
*D49
 10
2019.373356248603
 20
162.8422552942182
 30
0.0
 11
2019.373356248603
 21
146.4749915146902
 31
0.0
 70
   160
  1
<>
  3
DMC
 13
2027.53394207989
 23
156.5922552942183
 33
0.0
 14
2027.533942078986
 24
162.8422552942182
 34
0.0
 50
90.0
1001
ACAD
1000
DSTYLE
1002
{
1070
    47
1040
0.1
1070
    48
1040
0.1
1070
    71
1070
     1
1070
   371
1070
     9
1070
   372
1070
     9
1002
}
  0
DIMENSION
  5
1A0
  8
回02-寸法
  6
CONTINUOUS
 62
     7
  2
*D50
 10
2107.033985589754
 20
184.2778001690977
 30
0.0
 11
2069.275547919664
 21
184.2778001690977
 31
0.0
 70
   160
  3
DMC
 13
2027.033942078986
 23
162.3422552942178
 33
0.0
 14
2107.033985589754
 24
169.4943796386855
 34
0.0
1001
ACAD
1000
DSTYLE
1002
{
1070
   147
1040
0.5
1070
    72
1070
     0
1070
    71
1070
     1
1070
    47
1040
1.0
1070
    48
1040
1.0
1070
   371
1070
     9
1070
   372
1070
     9
1002
}
  0
DIMENSION
  5
1AF
  8
回02-寸法
  6
CONTINUOUS
 62
     7
  2
*D51
 10
2012.273578164502
 20
159.7172552942178
 30
0.0
 11
2012.273578164502
 21
195.5422552942174
 31
0.0
 70
   160
  1
(<>)
  3
DMC
 13
2107.033985589754
 23
231.3672552942179
 33
0.0
 14
2027.033942078986
 24
159.7172552942178
 34
0.0
 50
90.0
1001
ACAD
1000
DSTYLE
1002
{
1070
    47
1040
0.2
1070
    48
1040
0.2
1070
   371
1070
     9
1070
   372
1070
     9
1002
}
  0
POLYLINE
  5
1BE
  8
回01-TP外形
  6
PHANTOM2
 62
     7
 66
     1
 10
0.0
 20
0.0
 30
0.0
 70
     1
  0
VERTEX
  5
6B4
  8
回01-TP外形
  6
PHANTOM2
 62
     7
 10
2112.733985589754
 20
92.76725529421804
 30
0.0
  0
VERTEX
  5
6B6
  8
回01-TP外形
  6
PHANTOM2
 62
     7
 10
2288.633985589754
 20
92.76725529421804
 30
0.0
  0
VERTEX
  5
6B7
  8
回01-TP外形
  6
PHANTOM2
 62
     7
 10
2288.633985589754
 20
226.6672552942179
 30
0.0
  0
VERTEX
  5
6B8
  8
回01-TP外形
  6
PHANTOM2
 62
     7
 10
2112.733985589754
 20
226.6672552942179
 30
0.0
  0
SEQEND
  5
6B5
  8
0
  6
CONTINUOUS
 62
     7
  0
DIMENSION
  5
1C0
  8
回02-寸法
  6
CONTINUOUS
 62
     7
  2
*D52
 10
2335.550718099351
 20
231.3672552942177
 30
0.0
 11
2333.550718099351
 21
159.7172552942176
 31
0.0
 70
    32
  3
DMC
 13
2292.633985589754
 23
88.06725529421754
 33
0.0
 14
2292.633985589754
 24
231.3672552942177
 34
0.0
 50
90.0
1001
ACAD
1000
DSTYLE
1002
{
1070
   147
1040
0.5
1070
    72
1070
     0
1070
    71
1070
     1
1070
    47
1040
0.3
1070
    48
1040
0.3
1070
   371
1070
     9
1070
   372
1070
     9
1002
}
  0
DIMENSION
  5
1CF
  8
回02-寸法
  6
CONTINUOUS
 62
     7
  2
*D53
 10
2326.083637352659
 20
88.06725529421754
 30
0.0
 11
2323.933637352659
 21
65.93850529421769
 31
0.0
 70
    32
  1
<>(Insulation Area）
  3
DMC
 13
2288.633985589754
 23
92.76725529421804
 33
0.0
 14
2292.633985589754
 24
88.06725529421754
 34
0.0
 50
90.0
1001
ACAD
1000
DSTYLE
1002
{
1070
     3
1000
<>
1070
    47
1040
0.2
1070
    48
1040
0.2
1070
   371
1070
     9
1070
   372
1070
     9
1002
}
1001
ACADSTRINGINFO
1000
MIFCodePage
1070
     1
  0
DIMENSION
  5
1E0
  8
回02-寸法
  6
CONTINUOUS
 62
     7
  2
*D54
 10
2317.136107839738
 20
88.06725529421754
 30
0.0
 11
2317.136107839738
 21
81.40512325986094
 31
0.0
 70
   160
  3
DMC
 13
2288.133985589754
 23
93.56725529421799
 33
0.0
 14
2292.633985589754
 24
88.06725529421754
 34
0.0
 50
90.0
1001
ACAD
1000
DSTYLE
1002
{
1070
     3
1000
<>
1070
    47
1040
0.2
1070
    48
1040
0.2
1070
   371
1070
     9
1070
   372
1070
     9
1002
}
  0
DIMENSION
  5
1F1
  8
回02-寸法
  6
CONTINUOUS
 62
     7
  2
*D55
 10
2308.171647800878
 20
88.06725529421754
 30
0.0
 11
2308.171647800878
 21
81.40512325986094
 31
0.0
 70
   160
  3
DMC
 13
2286.133985589754
 23
95.567255294218
 33
0.0
 14
2292.633985589754
 24
88.06725529421754
 34
0.0
 50
90.0
1001
ACAD
1000
DSTYLE
1002
{
1070
     3
1000
<>
1070
    47
1040
0.2
1070
    48
1040
0.2
1070
   371
1070
     9
1070
   372
1070
     9
1002
}
  0
DIMENSION
  5
202
  8
回02-寸法
  6
CONTINUOUS
 62
     7
  2
*D56
 10
2326.083637352663
 20
231.3672552942177
 30
0.0
 11
2323.933637352663
 21
239.3160741918556
 31
0.0
 70
    32
  1
(<>)
  3
DMC
 13
2288.633985589754
 23
226.6672552942179
 33
0.0
 14
2292.633985589754
 24
231.3672552942177
 34
0.0
 50
90.0
1001
ACAD
1000
DSTYLE
1002
{
1070
    47
1040
0.2
1070
    48
1040
0.2
1070
   371
1070
     9
1070
   372
1070
     9
1002
}
1001
ACADSTRINGINFO
1000
MIFCodePage
1070
     1
  0
DIMENSION
  5
213
  8
回02-寸法
  6
CONTINUOUS
 62
     7
  2
*D57
 10
2317.136107839748
 20
231.3672552942177
 30
0.0
 11
2314.986107839748
 21
239.1660741918556
 31
0.0
 70
    32
  3
DMC
 13
2288.133985589754
 23
225.8672552942179
 33
0.0
 14
2292.633985589754
 24
231.3672552942177
 34
0.0
 50
90.0
1001
ACAD
1000
DSTYLE
1002
{
1070
     3
1000
(<>)
1070
    47
1040
0.2
1070
    48
1040
0.2
1070
   371
1070
     9
1070
   372
1070
     9
1002
}
  0
DIMENSION
  5
224
  8
回02-寸法
  6
CONTINUOUS
 62
     7
  2
*D58
 10
2308.17164780089
 20
231.3672552942177
 30
0.0
 11
2306.02164780089
 21
239.1660741918556
 31
0.0
 70
    32
  3
DMC
 13
2286.133985589754
 23
223.867255294218
 33
0.0
 14
2292.633985589754
 24
231.3672552942177
 34
0.0
 50
90.0
1001
ACAD
1000
DSTYLE
1002
{
1070
     3
1000
(<>)
1070
    47
1040
0.2
1070
    48
1040
0.2
1070
   371
1070
     9
1070
   372
1070
     9
1002
}
  0
DIMENSION
  5
235
  8
回02-寸法
  6
CONTINUOUS
 62
     7
  2
*D59
 10
2326.083637352656
 20
226.6672552942179
 30
0.0
 11
2324.083637352656
 21
159.717255294218
 31
0.0
 70
    32
  3
DMC
 13
2288.633985589754
 23
92.76725529421804
 33
0.0
 14
2288.633985589754
 24
226.6672552942179
 34
0.0
 50
90.0
1001
ACAD
1000
DSTYLE
1002
{
1070
    47
1040
0.2
1070
    48
1040
0.2
1070
   371
1070
     9
1070
   372
1070
     9
1002
}
  0
DIMENSION
  5
244
  8
回02-寸法
  6
CONTINUOUS
 62
     7
  2
*D60
 10
2317.136107839746
 20
93.56725529421799
 30
0.0
 11
2314.686107839746
 21
159.717255294218
 31
0.0
 70
    32
  1
<> (Viewing area)
  3
DMC
 13
2288.133985589754
 23
225.8672552942179
 33
0.0
 14
2288.133985589754
 24
93.56725529421799
 34
0.0
 50
90.0
1001
ACAD
1000
DSTYLE
1002
{
1070
    47
1040
0.2
1070
    48
1040
0.2
1070
   371
1070
     9
1070
   372
1070
     9
1002
}
  0
DIMENSION
  5
253
  8
回02-寸法
  6
CONTINUOUS
 62
     7
  2
*D61
 10
2308.171647800889
 20
95.567255294218
 30
0.0
 11
2306.021647800888
 21
159.717255294218
 31
0.0
 70
    32
  1
<> (Active area)
  3
DMC
 13
2286.133985589754
 23
223.867255294218
 33
0.0
 14
2286.133985589754
 24
95.567255294218
 34
0.0
 50
90.0
1001
ACAD
1000
DSTYLE
1002
{
1070
    47
1040
0.2
1070
    48
1040
0.2
1070
   371
1070
     9
1070
   372
1070
     9
1002
}
  0
DIMENSION
  5
262
  8
回02-寸法
  6
CONTINUOUS
 62
     7
  2
*D62
 10
2292.633985589754
 20
267.9251818514515
 30
0.0
 11
2199.833985589754
 21
269.9251818514516
 31
0.0
 70
    32
  3
DMC
 13
2107.033985589754
 23
231.3672552942179
 33
0.0
 14
2292.633985589754
 24
231.3672552942177
 34
0.0
1001
ACAD
1000
DSTYLE
1002
{
1070
   147
1040
0.5
1070
    72
1070
     0
1070
    71
1070
     1
1070
    47
1040
0.3
1070
    48
1040
0.3
1070
   371
1070
     9
1070
   372
1070
     9
1002
}
  0
DIMENSION
  5
271
  8
回02-寸法
  6
CONTINUOUS
 62
     7
  2
*D63
 10
2107.033985589754
 20
260.6249036306784
 30
0.0
 11
2085.055235589754
 21
262.7749036306783
 31
0.0
 70
    32
  1
<>(Insulation Area）
  3
DMC
 13
2112.733985589754
 23
226.667255294218
 33
0.0
 14
2107.033985589754
 24
231.3672552942179
 34
0.0
1001
ACAD
1000
DSTYLE
1002
{
1070
     3
1000
<>
1070
    47
1040
0.2
1070
    48
1040
0.2
1070
   371
1070
     9
1070
   372
1070
     9
1002
}
1001
ACADSTRINGINFO
1000
MIFCodePage
1070
     1
  0
DIMENSION
  5
282
  8
回02-寸法
  6
CONTINUOUS
 62
     7
  2
*D64
 10
2107.033985589754
 20
252.9739643648866
 30
0.0
 11
2100.254133227549
 21
252.9739643648866
 31
0.0
 70
   160
  3
DMC
 13
2113.233985589753
 23
225.8672552942179
 33
0.0
 14
2107.033985589754
 24
231.3672552942179
 34
0.0
1001
ACAD
1000
DSTYLE
1002
{
1070
     3
1000
<>
1070
    47
1040
0.2
1070
    48
1040
0.2
1070
   371
1070
     9
1070
   372
1070
     9
1002
}
  0
DIMENSION
  5
293
  8
回02-寸法
  6
CONTINUOUS
 62
     7
  2
*D65
 10
2107.033985589754
 20
245.5916775224303
 30
0.0
 11
2100.343897007077
 21
245.5916775224303
 31
0.0
 70
   160
  3
DMC
 13
2115.233985589753
 23
223.867255294218
 33
0.0
 14
2107.033985589754
 24
231.3672552942179
 34
0.0
1001
ACAD
1000
DSTYLE
1002
{
1070
     3
1000
<>
1070
    47
1040
0.2
1070
    48
1040
0.2
1070
   371
1070
     9
1070
   372
1070
     9
1002
}
  0
DIMENSION
  5
2A4
  8
回02-寸法
  6
CONTINUOUS
 62
     7
  2
*D66
 10
2292.633985589754
 20
260.6249036306784
 30
0.0
 11
2299.082804487392
 21
262.7749036306783
 31
0.0
 70
    32
  1
(<>)
  3
DMC
 13
2288.633985589754
 23
226.6672552942179
 33
0.0
 14
2292.633985589754
 24
231.3672552942177
 34
0.0
1001
ACAD
1000
DSTYLE
1002
{
1070
    47
1040
0.2
1070
    48
1040
0.2
1070
   371
1070
     9
1070
   372
1070
     9
1002
}
1001
ACADSTRINGINFO
1000
MIFCodePage
1070
     1
  0
DIMENSION
  5
2B5
  8
回02-寸法
  6
CONTINUOUS
 62
     7
  2
*D67
 10
2292.633985589754
 20
252.9739643648866
 30
0.0
 11
2300.582804487392
 21
255.1239643648866
 31
0.0
 70
    32
  3
DMC
 13
2288.133985589754
 23
225.8672552942179
 33
0.0
 14
2292.633985589754
 24
231.3672552942177
 34
0.0
1001
ACAD
1000
DSTYLE
1002
{
1070
     3
1000
(<>)
1070
    47
1040
0.2
1070
    48
1040
0.2
1070
   371
1070
     9
1070
   372
1070
     9
1002
}
  0
DIMENSION
  5
2C6
  8
回02-寸法
  6
CONTINUOUS
 62
     7
  2
*D68
 10
2292.633985589754
 20
245.5916775224303
 30
0.0
 11
2300.432804487392
 21
247.7416775224303
 31
0.0
 70
    32
  3
DMC
 13
2286.133985589754
 23
223.867255294218
 33
0.0
 14
2292.633985589754
 24
231.3672552942177
 34
0.0
1001
ACAD
1000
DSTYLE
1002
{
1070
     3
1000
(<>)
1070
    47
1040
0.2
1070
    48
1040
0.2
1070
   371
1070
     9
1070
   372
1070
     9
1002
}
  0
DIMENSION
  5
2D7
  8
回02-寸法
  6
CONTINUOUS
 62
     7
  2
*D69
 10
2288.633985589754
 20
260.6249036306784
 30
0.0
 11
2200.683985589754
 21
262.6249036306784
 31
0.0
 70
    32
  3
DMC
 13
2112.733985589754
 23
226.667255294218
 33
0.0
 14
2288.633985589754
 24
226.6672552942179
 34
0.0
1001
ACAD
1000
DSTYLE
1002
{
1070
    47
1040
0.2
1070
    48
1040
0.2
1070
   371
1070
     9
1070
   372
1070
     9
1002
}
  0
DIMENSION
  5
2E6
  8
回02-寸法
  6
CONTINUOUS
 62
     7
  2
*D70
 10
2288.133985589754
 20
252.9739643648866
 30
0.0
 11
2200.683985589754
 21
255.4239643648866
 31
0.0
 70
    32
  1
<> (Viewing area)
  3
DMC
 13
2113.233985589753
 23
225.8672552942179
 33
0.0
 14
2288.133985589754
 24
225.8672552942179
 34
0.0
1001
ACAD
1000
DSTYLE
1002
{
1070
    47
1040
0.2
1070
    48
1040
0.2
1070
   371
1070
     9
1070
   372
1070
     9
1002
}
  0
DIMENSION
  5
2F5
  8
回02-寸法
  6
CONTINUOUS
 62
     7
  2
*D71
 10
2286.133985589754
 20
245.5916775224303
 30
0.0
 11
2200.683985589754
 21
247.7416775224303
 31
0.0
 70
    32
  1
<> (Active area)
  3
DMC
 13
2115.233985589753
 23
223.867255294218
 33
0.0
 14
2286.133985589754
 24
223.867255294218
 34
0.0
1001
ACAD
1000
DSTYLE
1002
{
1070
    47
1040
0.2
1070
    48
1040
0.2
1070
   371
1070
     9
1070
   372
1070
     9
1002
}
  0
INSERT
  5
304
  8
0
  6
CONTINUOUS
 62
     7
 66
     1
  2
*X81
 10
0.0
 20
0.0
 30
0.0
1001
ACADSTRINGINFO
1000
MIFCodePage
1070
     1
1001
ACAD_MLEADERVER
1070
     2
  0
SEQEND
  5
6C6
  8
0
  6
CONTINUOUS
 62
     7
  0
DIMENSION
  5
306
  8
回02-寸法
 62
     7
  2
*D72
 10
2232.708985589754
 20
117.0491296327456
 30
0.0
 11
2227.458985589754
 21
119.0491296327456
 31
0.0
 70
    32
  3
DMC
 13
2236.708985589754
 23
123.7172552942181
 33
0.0
 14
2232.708985589754
 24
123.7172552942181
 34
0.0
1001
ACAD
1000
DSTYLE
1002
{
1070
    47
1040
0.2
1070
    48
1040
0.2
1070
   371
1070
     9
1070
   372
1070
     9
1002
}
  0
DIMENSION
  5
317
  8
回02-寸法
 62
     7
  2
*D73
 10
2245.33275245563
 20
123.7172552942181
 30
0.0
 11
2243.33275245563
 21
118.4672552942181
 31
0.0
 70
    32
  3
DMC
 13
2236.708985589754
 23
127.7172552942181
 33
0.0
 14
2236.708985589754
 24
123.7172552942181
 34
0.0
 50
90.0
1001
ACAD
1000
DSTYLE
1002
{
1070
    47
1040
0.2
1070
    48
1040
0.2
1070
   371
1070
     9
1070
   372
1070
     9
1002
}
  0
CIRCLE
  5
328
  8
回03-記事
 62
     7
 10
2236.708985589754
 20
159.7172552942181
 30
0.0
 40
0.05
  0
CIRCLE
  5
329
  8
回03-記事
 62
     7
 10
2236.708985589754
 20
155.7172552942181
 30
0.0
 40
0.05
  0
CIRCLE
  5
32A
  8
回03-記事
 62
     7
 10
2236.708985589754
 20
151.7172552942181
 30
0.0
 40
0.05
  0
CIRCLE
  5
32B
  8
回03-記事
 62
     7
 10
2236.708985589754
 20
147.7172552942181
 30
0.0
 40
0.05
  0
CIRCLE
  5
32C
  8
回03-記事
 62
     7
 10
2236.708985589754
 20
143.7172552942181
 30
0.0
 40
0.05
  0
CIRCLE
  5
32D
  8
回03-記事
 62
     7
 10
2236.708985589754
 20
139.7172552942181
 30
0.0
 40
0.05
  0
CIRCLE
  5
32E
  8
回03-記事
 62
     7
 10
2236.708985589754
 20
135.7172552942181
 30
0.0
 40
0.05
  0
CIRCLE
  5
32F
  8
回03-記事
 62
     7
 10
2236.708985589754
 20
131.7172552942181
 30
0.0
 40
0.05
  0
CIRCLE
  5
330
  8
回03-記事
 62
     7
 10
2236.708985589754
 20
127.7172552942181
 30
0.0
 40
0.05
  0
CIRCLE
  5
331
  8
回03-記事
 62
     7
 10
2236.708985589754
 20
123.7172552942181
 30
0.0
 40
0.05
  0
CIRCLE
  5
332
  8
回03-記事
 62
     7
 10
2232.708985589754
 20
159.7172552942181
 30
0.0
 40
0.05
  0
CIRCLE
  5
333
  8
回03-記事
 62
     7
 10
2232.708985589754
 20
155.7172552942181
 30
0.0
 40
0.05
  0
CIRCLE
  5
334
  8
回03-記事
 62
     7
 10
2232.708985589754
 20
151.7172552942181
 30
0.0
 40
0.05
  0
CIRCLE
  5
335
  8
回03-記事
 62
     7
 10
2232.708985589754
 20
147.7172552942181
 30
0.0
 40
0.05
  0
CIRCLE
  5
336
  8
回03-記事
 62
     7
 10
2232.708985589754
 20
143.7172552942181
 30
0.0
 40
0.05
  0
CIRCLE
  5
337
  8
回03-記事
 62
     7
 10
2232.708985589754
 20
139.7172552942181
 30
0.0
 40
0.05
  0
CIRCLE
  5
338
  8
回03-記事
 62
     7
 10
2232.708985589754
 20
135.7172552942181
 30
0.0
 40
0.05
  0
CIRCLE
  5
339
  8
回03-記事
 62
     7
 10
2232.708985589754
 20
131.7172552942181
 30
0.0
 40
0.05
  0
CIRCLE
  5
33A
  8
回03-記事
 62
     7
 10
2232.708985589754
 20
127.7172552942181
 30
0.0
 40
0.05
  0
CIRCLE
  5
33B
  8
回03-記事
 62
     7
 10
2232.708985589754
 20
123.7172552942181
 30
0.0
 40
0.05
  0
CIRCLE
  5
33C
  8
回03-記事
 62
     7
 10
2228.708985589754
 20
159.7172552942181
 30
0.0
 40
0.05
  0
CIRCLE
  5
33D
  8
回03-記事
 62
     7
 10
2228.708985589754
 20
155.7172552942181
 30
0.0
 40
0.05
  0
CIRCLE
  5
33E
  8
回03-記事
 62
     7
 10
2228.708985589754
 20
151.7172552942181
 30
0.0
 40
0.05
  0
CIRCLE
  5
33F
  8
回03-記事
 62
     7
 10
2228.708985589754
 20
147.7172552942181
 30
0.0
 40
0.05
  0
CIRCLE
  5
340
  8
回03-記事
 62
     7
 10
2228.708985589754
 20
143.7172552942181
 30
0.0
 40
0.05
  0
CIRCLE
  5
341
  8
回03-記事
 62
     7
 10
2228.708985589754
 20
139.7172552942181
 30
0.0
 40
0.05
  0
CIRCLE
  5
342
  8
回03-記事
 62
     7
 10
2228.708985589754
 20
135.7172552942181
 30
0.0
 40
0.05
  0
CIRCLE
  5
343
  8
回03-記事
 62
     7
 10
2228.708985589754
 20
131.7172552942181
 30
0.0
 40
0.05
  0
CIRCLE
  5
344
  8
回03-記事
 62
     7
 10
2228.708985589754
 20
127.7172552942181
 30
0.0
 40
0.05
  0
CIRCLE
  5
345
  8
回03-記事
 62
     7
 10
2228.708985589754
 20
123.7172552942181
 30
0.0
 40
0.05
  0
CIRCLE
  5
346
  8
回03-記事
 62
     7
 10
2224.708985589754
 20
159.7172552942181
 30
0.0
 40
0.05
  0
CIRCLE
  5
347
  8
回03-記事
 62
     7
 10
2224.708985589754
 20
155.7172552942181
 30
0.0
 40
0.05
  0
CIRCLE
  5
348
  8
回03-記事
 62
     7
 10
2224.708985589754
 20
151.7172552942181
 30
0.0
 40
0.05
  0
CIRCLE
  5
349
  8
回03-記事
 62
     7
 10
2224.708985589754
 20
147.7172552942181
 30
0.0
 40
0.05
  0
CIRCLE
  5
34A
  8
回03-記事
 62
     7
 10
2224.708985589754
 20
143.7172552942181
 30
0.0
 40
0.05
  0
CIRCLE
  5
34B
  8
回03-記事
 62
     7
 10
2224.708985589754
 20
139.7172552942181
 30
0.0
 40
0.05
  0
CIRCLE
  5
34C
  8
回03-記事
 62
     7
 10
2224.708985589754
 20
135.7172552942181
 30
0.0
 40
0.05
  0
CIRCLE
  5
34D
  8
回03-記事
 62
     7
 10
2224.708985589754
 20
131.7172552942181
 30
0.0
 40
0.05
  0
CIRCLE
  5
34E
  8
回03-記事
 62
     7
 10
2224.708985589754
 20
127.7172552942181
 30
0.0
 40
0.05
  0
CIRCLE
  5
34F
  8
回03-記事
 62
     7
 10
2224.708985589754
 20
123.7172552942181
 30
0.0
 40
0.05
  0
CIRCLE
  5
350
  8
回03-記事
 62
     7
 10
2220.708985589754
 20
159.7172552942181
 30
0.0
 40
0.05
  0
CIRCLE
  5
351
  8
回03-記事
 62
     7
 10
2220.708985589754
 20
155.7172552942181
 30
0.0
 40
0.05
  0
CIRCLE
  5
352
  8
回03-記事
 62
     7
 10
2220.708985589754
 20
151.7172552942181
 30
0.0
 40
0.05
  0
CIRCLE
  5
353
  8
回03-記事
 62
     7
 10
2220.708985589754
 20
147.7172552942181
 30
0.0
 40
0.05
  0
CIRCLE
  5
354
  8
回03-記事
 62
     7
 10
2220.708985589754
 20
143.7172552942181
 30
0.0
 40
0.05
  0
CIRCLE
  5
355
  8
回03-記事
 62
     7
 10
2220.708985589754
 20
139.7172552942181
 30
0.0
 40
0.05
  0
CIRCLE
  5
356
  8
回03-記事
 62
     7
 10
2220.708985589754
 20
135.7172552942181
 30
0.0
 40
0.05
  0
CIRCLE
  5
357
  8
回03-記事
 62
     7
 10
2220.708985589754
 20
131.7172552942181
 30
0.0
 40
0.05
  0
CIRCLE
  5
358
  8
回03-記事
 62
     7
 10
2220.708985589754
 20
127.7172552942181
 30
0.0
 40
0.05
  0
CIRCLE
  5
359
  8
回03-記事
 62
     7
 10
2220.708985589754
 20
123.7172552942181
 30
0.0
 40
0.05
  0
CIRCLE
  5
35A
  8
回03-記事
 62
     7
 10
2216.708985589754
 20
159.7172552942181
 30
0.0
 40
0.05
  0
CIRCLE
  5
35B
  8
回03-記事
 62
     7
 10
2216.708985589754
 20
155.7172552942181
 30
0.0
 40
0.05
  0
CIRCLE
  5
35C
  8
回03-記事
 62
     7
 10
2216.708985589754
 20
151.7172552942181
 30
0.0
 40
0.05
  0
CIRCLE
  5
35D
  8
回03-記事
 62
     7
 10
2216.708985589754
 20
147.7172552942181
 30
0.0
 40
0.05
  0
CIRCLE
  5
35E
  8
回03-記事
 62
     7
 10
2216.708985589754
 20
143.7172552942181
 30
0.0
 40
0.05
  0
CIRCLE
  5
35F
  8
回03-記事
 62
     7
 10
2216.708985589754
 20
139.7172552942181
 30
0.0
 40
0.05
  0
CIRCLE
  5
360
  8
回03-記事
 62
     7
 10
2216.708985589754
 20
135.7172552942181
 30
0.0
 40
0.05
  0
CIRCLE
  5
361
  8
回03-記事
 62
     7
 10
2216.708985589754
 20
131.7172552942181
 30
0.0
 40
0.05
  0
CIRCLE
  5
362
  8
回03-記事
 62
     7
 10
2216.708985589754
 20
127.7172552942181
 30
0.0
 40
0.05
  0
CIRCLE
  5
363
  8
回03-記事
 62
     7
 10
2216.708985589754
 20
123.7172552942181
 30
0.0
 40
0.05
  0
CIRCLE
  5
364
  8
回03-記事
 62
     7
 10
2212.708985589754
 20
159.7172552942181
 30
0.0
 40
0.05
  0
CIRCLE
  5
365
  8
回03-記事
 62
     7
 10
2212.708985589754
 20
155.7172552942181
 30
0.0
 40
0.05
  0
CIRCLE
  5
366
  8
回03-記事
 62
     7
 10
2212.708985589754
 20
151.7172552942181
 30
0.0
 40
0.05
  0
CIRCLE
  5
367
  8
回03-記事
 62
     7
 10
2212.708985589754
 20
147.7172552942181
 30
0.0
 40
0.05
  0
CIRCLE
  5
368
  8
回03-記事
 62
     7
 10
2212.708985589754
 20
143.7172552942181
 30
0.0
 40
0.05
  0
CIRCLE
  5
369
  8
回03-記事
 62
     7
 10
2212.708985589754
 20
139.7172552942181
 30
0.0
 40
0.05
  0
CIRCLE
  5
36A
  8
回03-記事
 62
     7
 10
2212.708985589754
 20
135.7172552942181
 30
0.0
 40
0.05
  0
CIRCLE
  5
36B
  8
回03-記事
 62
     7
 10
2212.708985589754
 20
131.7172552942181
 30
0.0
 40
0.05
  0
CIRCLE
  5
36C
  8
回03-記事
 62
     7
 10
2212.708985589754
 20
127.7172552942181
 30
0.0
 40
0.05
  0
CIRCLE
  5
36D
  8
回03-記事
 62
     7
 10
2212.708985589754
 20
123.7172552942181
 30
0.0
 40
0.05
  0
CIRCLE
  5
36E
  8
回03-記事
 62
     7
 10
2208.708985589754
 20
159.7172552942181
 30
0.0
 40
0.05
  0
CIRCLE
  5
36F
  8
回03-記事
 62
     7
 10
2208.708985589754
 20
155.7172552942181
 30
0.0
 40
0.05
  0
CIRCLE
  5
370
  8
回03-記事
 62
     7
 10
2208.708985589754
 20
151.7172552942181
 30
0.0
 40
0.05
  0
CIRCLE
  5
371
  8
回03-記事
 62
     7
 10
2208.708985589754
 20
147.7172552942181
 30
0.0
 40
0.05
  0
CIRCLE
  5
372
  8
回03-記事
 62
     7
 10
2208.708985589754
 20
143.7172552942181
 30
0.0
 40
0.05
  0
CIRCLE
  5
373
  8
回03-記事
 62
     7
 10
2208.708985589754
 20
139.7172552942181
 30
0.0
 40
0.05
  0
CIRCLE
  5
374
  8
回03-記事
 62
     7
 10
2208.708985589754
 20
135.7172552942181
 30
0.0
 40
0.05
  0
CIRCLE
  5
375
  8
回03-記事
 62
     7
 10
2208.708985589754
 20
131.7172552942181
 30
0.0
 40
0.05
  0
CIRCLE
  5
376
  8
回03-記事
 62
     7
 10
2208.708985589754
 20
127.7172552942181
 30
0.0
 40
0.05
  0
CIRCLE
  5
377
  8
回03-記事
 62
     7
 10
2208.708985589754
 20
123.7172552942181
 30
0.0
 40
0.05
  0
CIRCLE
  5
378
  8
回03-記事
 62
     7
 10
2204.708985589754
 20
159.7172552942181
 30
0.0
 40
0.05
  0
CIRCLE
  5
379
  8
回03-記事
 62
     7
 10
2204.708985589754
 20
155.7172552942181
 30
0.0
 40
0.05
  0
CIRCLE
  5
37A
  8
回03-記事
 62
     7
 10
2204.708985589754
 20
151.7172552942181
 30
0.0
 40
0.05
  0
CIRCLE
  5
37B
  8
回03-記事
 62
     7
 10
2204.708985589754
 20
147.7172552942181
 30
0.0
 40
0.05
  0
CIRCLE
  5
37C
  8
回03-記事
 62
     7
 10
2204.708985589754
 20
143.7172552942181
 30
0.0
 40
0.05
  0
CIRCLE
  5
37D
  8
回03-記事
 62
     7
 10
2204.708985589754
 20
139.7172552942181
 30
0.0
 40
0.05
  0
CIRCLE
  5
37E
  8
回03-記事
 62
     7
 10
2204.708985589754
 20
135.7172552942181
 30
0.0
 40
0.05
  0
CIRCLE
  5
37F
  8
回03-記事
 62
     7
 10
2204.708985589754
 20
131.7172552942181
 30
0.0
 40
0.05
  0
CIRCLE
  5
380
  8
回03-記事
 62
     7
 10
2204.708985589754
 20
127.7172552942181
 30
0.0
 40
0.05
  0
CIRCLE
  5
381
  8
回03-記事
 62
     7
 10
2204.708985589754
 20
123.7172552942181
 30
0.0
 40
0.05
  0
CIRCLE
  5
382
  8
回03-記事
 62
     7
 10
2200.708985589754
 20
159.7172552942181
 30
0.0
 40
0.05
  0
CIRCLE
  5
383
  8
回03-記事
 62
     7
 10
2200.708985589754
 20
155.7172552942181
 30
0.0
 40
0.05
  0
CIRCLE
  5
384
  8
回03-記事
 62
     7
 10
2200.708985589754
 20
151.7172552942181
 30
0.0
 40
0.05
  0
CIRCLE
  5
385
  8
回03-記事
 62
     7
 10
2200.708985589754
 20
147.7172552942181
 30
0.0
 40
0.05
  0
CIRCLE
  5
386
  8
回03-記事
 62
     7
 10
2200.708985589754
 20
143.7172552942181
 30
0.0
 40
0.05
  0
CIRCLE
  5
387
  8
回03-記事
 62
     7
 10
2200.708985589754
 20
139.7172552942181
 30
0.0
 40
0.05
  0
CIRCLE
  5
388
  8
回03-記事
 62
     7
 10
2200.708985589754
 20
135.7172552942181
 30
0.0
 40
0.05
  0
CIRCLE
  5
389
  8
回03-記事
 62
     7
 10
2200.708985589754
 20
131.7172552942181
 30
0.0
 40
0.05
  0
CIRCLE
  5
38A
  8
回03-記事
 62
     7
 10
2200.708985589754
 20
127.7172552942181
 30
0.0
 40
0.05
  0
CIRCLE
  5
38B
  8
回03-記事
 62
     7
 10
2200.708985589754
 20
123.7172552942181
 30
0.0
 40
0.05
  0
LINE
  5
38C
  8
回01-TP外形
  6
CENTER2
 62
     7
 10
2200.708985589754
 20
227.851521546332
 30
0.0
 11
2200.708985589754
 21
91.73151893638289
 31
0.0
  0
TEXT
  5
38D
  8
回03-記事
  6
CONTINUOUS
 62
     7
 10
2190.552506708302
 20
98.01568778831603
 30
0.0
 40
5.0
  1
YD
  0
TEXT
  5
38E
  8
回03-記事
  6
CONTINUOUS
 62
     7
 10
2190.552506708302
 20
215.7593137457453
 30
0.0
 40
5.0
  1
YU
  0
TEXT
  5
38F
  8
回03-記事
  6
CONTINUOUS
 62
     7
 10
2276.187499382266
 20
162.3054234441106
 30
0.0
 40
5.0
  1
XR
  0
TEXT
  5
390
  8
回03-記事
  6
CONTINUOUS
 62
     7
 10
2117.114588269428
 20
162.3054234441106
 30
0.0
 40
5.0
  1
XL
  0
LINE
  5
391
  8
回01-TP外形
  6
CENTER2
 62
     7
 10
2288.633985589754
 20
159.717255294218
 30
0.0
 11
2112.733985589754
 21
159.717255294218
 31
0.0
  0
POLYLINE
  5
392
  8
回01-TP外形
  6
CONTINUOUS
 62
     7
 66
     1
 10
0.0
 20
0.0
 30
0.0
  0
VERTEX
  5
6C7
  8
回01-TP外形
  6
CONTINUOUS
 62
     7
 10
2107.033985589754
 20
168.5839747083017
 30
0.0
  0
VERTEX
  5
6C9
  8
回01-TP外形
  6
CONTINUOUS
 62
     7
 10
2107.033985589754
 20
88.067255294218
 30
0.0
  0
VERTEX
  5
6CA
  8
回01-TP外形
  6
CONTINUOUS
 62
     7
 10
2292.633985589754
 20
88.067255294218
 30
0.0
  0
VERTEX
  5
6CB
  8
回01-TP外形
  6
CONTINUOUS
 62
     7
 10
2292.633985589754
 20
231.3672552942179
 30
0.0
  0
VERTEX
  5
6CC
  8
回01-TP外形
  6
CONTINUOUS
 62
     7
 10
2107.033985589754
 20
231.3672552942179
 30
0.0
  0
VERTEX
  5
6CD
  8
回01-TP外形
  6
CONTINUOUS
 62
     7
 10
2107.033985589754
 20
168.5839747083017
 30
0.0
  0
SEQEND
  5
6C8
  8
0
  6
CONTINUOUS
 62
     7
  0
INSERT
  5
393
  8
回01-TP外形
  6
CONTINUOUS
 62
     7
 66
     1
  2
*X82
 10
0.0
 20
0.0
 30
0.0
1001
ACAD
1000
HATCH
1002
{
1070
    19
1000
ANSI31
1040
0.5
1040
6.283185307179586
1000
ASC_BOUNDS
1070
     1
1070
     2
1070
     1
1005
394
1000
ASC_SEEDPOINT
1011
2356.238792631643
1021
-57.28241278695219
1031
0.0
1000
R14_HATCH_DATA
1000
393
1011
1.0
1021
0.0
1031
0.0
1011
0.0
1021
1.0
1031
0.0
1011
0.0
1021
0.0
1031
1.0
1040
0.0
1010
0.0
1020
0.0
1030
1.0
1000
ANSI31
1070
     0
1070
     1
1071
        1
1071
        1
1071
        4
1070
     1
1040
2111.133985589754
1040
158.4672552942178
1040
2102.933985589754
1040
158.4672552942178
1070
     1
1040
2102.933985589754
1040
158.4672552942178
1040
2102.933985589754
1040
152.4672552942178
1070
     1
1040
2102.933985589754
1040
152.4672552942178
1040
2111.133985589754
1040
152.4672552942178
1070
     1
1040
2111.133985589754
1040
152.4672552942178
1040
2111.133985589754
1040
158.4672552942178
1071
        1
1005
394
1070
     0
1070
     1
1040
6.283185307179586
1040
0.5
1070
     0
1070
     1
1040
0.7853981633974481
1040
2356.238792631643
1040
-57.28241278695219
1040
-1.122532015133643
1040
1.122532015133644
1070
     0
1071
        1
1040
2356.238792631643
1040
-57.28241278695219
1040
0.0
1002
}
  0
SEQEND
  5
6D7
  8
0
  6
CONTINUOUS
 62
     7
  0
POLYLINE
  5
394
  8
回01-TP外形
  6
CONTINUOUS
 62
     7
 66
     1
 10
0.0
 20
0.0
 30
0.0
 70
     1
1001
ACAD
1000
ASC_BOUNDS
1002
{
1070
    19
1005
393
1002
}
  0
VERTEX
  5
6D8
  8
回01-TP外形
  6
CONTINUOUS
 62
     7
 10
2111.133985589754
 20
158.4672552942178
 30
0.0
  0
VERTEX
  5
6DA
  8
回01-TP外形
  6
CONTINUOUS
 62
     7
 10
2102.933985589754
 20
158.4672552942178
 30
0.0
  0
VERTEX
  5
6DB
  8
回01-TP外形
  6
CONTINUOUS
 62
     7
 10
2102.933985589754
 20
152.4672552942178
 30
0.0
  0
VERTEX
  5
6DC
  8
回01-TP外形
  6
CONTINUOUS
 62
     7
 10
2111.133985589754
 20
152.4672552942178
 30
0.0
  0
SEQEND
  5
6D9
  8
0
  6
CONTINUOUS
 62
     7
  0
TEXT
  5
395
  8
回02-寸法
  6
CONTINUOUS
 62
     5
 10
2085.429285989012
 20
170.1120463183504
 30
0.0
 40
3.0
  1
4-R1
1001
ACAD
1000
MTEXTBEGIN
1070
    73
1070
     1
1070
    44
1040
1.0
1070
    74
1070
     0
1000
MTEXTEND
  0
INSERT
  5
396
  8
回02-寸法
  6
CONTINUOUS
 62
     5
 66
     1
  2
*X83
 10
0.0
 20
0.0
 30
0.0
  0
SEQEND
  5
6E3
  8
0
  6
CONTINUOUS
 62
     7
  0
DIMENSION
  5
398
  8
回02-寸法
  6
CONTINUOUS
 62
     7
  2
*D74
 10
2102.433483077192
 20
144.3839791433079
 30
0.0
 11
2092.299132771979
 21
144.3839791433079
 31
0.0
 70
   160
  3
KOUSA
 13
2107.033985589754
 23
151.0401309497509
 33
0.0
 14
2102.433483077192
 24
151.8064092135219
 34
0.0
1001
ACAD
1000
DSTYLE
1002
{
1070
    71
1070
     0
1070
   288
1070
     0
1070
   341
1005
0
1002
}
  0
TEXT
  5
3A9
  8
回02-寸法
  6
CONTINUOUS
 62
     5
 10
2092.544086018339
 20
174.4057371918821
 30
0.0
 40
3.0
  1
2-R2
1001
ACAD
1000
MTEXTBEGIN
1070
    73
1070
     1
1070
    44
1040
1.0
1070
    74
1070
     0
1000
MTEXTEND
  0
INSERT
  5
3AA
  8
回02-寸法
  6
CONTINUOUS
 62
     5
 66
     1
  2
*X84
 10
0.0
 20
0.0
 30
0.0
  0
SEQEND
  5
6EA
  8
0
  6
CONTINUOUS
 62
     7
  0
DIMENSION
  5
3AB
  8
回02-寸法
  6
CONTINUOUS
 62
     7
  2
*D75
 10
2097.538054469726
 20
136.7209492063212
 30
0.0
 11
2089.33094768854
 21
136.7209492063212
 31
0.0
 70
   160
  3
KOUSA
 13
2107.033985589754
 23
151.0401309497507
 33
0.0
 14
2097.538054469726
 24
156.4990658380098
 34
0.0
1001
ACAD
1000
DSTYLE
1002
{
1070
    71
1070
     0
1070
   288
1070
     0
1070
   341
1005
0
1002
}
  0
DIMENSION
  5
3BC
  8
回02-寸法
  6
CONTINUOUS
 62
     7
  2
*D76
 10
2081.873121298242
 20
167.7160522599463
 30
0.0
 11
2081.873121298242
 21
144.503705111079
 31
0.0
 70
   160
  3
KOUSA
 13
2102.846229267095
 23
151.7172552942182
 33
0.0
 14
2102.842055681388
 24
167.7160522599463
 34
0.0
 50
90.0
1001
ACAD
1000
DSTYLE
1002
{
1070
    71
1070
     0
1070
   288
1070
     0
1070
   341
1005
0
1002
}
  0
TEXT
  5
3CD
  8
回03-記事
  6
CONTINUOUS
 62
     7
 10
2026.539863086552
 20
157.0546551160412
 30
0.0
 40
3.0
  1
1
 50
90.0
  0
TEXT
  5
3CE
  8
回03-記事
  6
CONTINUOUS
 62
     7
 10
2026.516970130763
 20
160.5067644862391
 30
0.0
 40
3.0
  1
4
 50
90.0
  0
LINE
  5
3CF
  8
回01-TP外形
  6
BYBLOCK
 62
     7
 10
2107.533985589753
 20
149.7172552942179
 30
0.0
 11
2107.533985589753
 21
149.7172552942179
 31
0.0
  0
ARC
  5
3D0
  8
回01-TP外形
  6
BYBLOCK
 62
     7
 10
2097.12528428988
 20
155.5882306286385
 30
0.0
 40
1.0
 50
45.14359814421679
 51
89.99668642115283
  0
ARC
  5
3D1
  8
回01-TP外形
  6
BYBLOCK
 62
     7
 10
2097.122723020976
 20
163.8422552942184
 30
0.0
 40
1.0
 50
270.0
 51
314.8829928953715
  0
ARC
  5
3D2
  8
回01-TP外形
  6
BYBLOCK
 62
     7
 10
2102.842502585354
 20
166.7160523598082
 30
0.0
 40
1.0
 50
90.02560571194576
 51
134.8829928953715
  0
ARC
  5
3D3
  8
回01-TP外形
  6
BYBLOCK
 62
     7
 10
2102.846229267094
 20
152.7172552942184
 30
0.0
 40
1.0
 50
225.1435981442168
 51
270.0
  0
ARC
  5
3D4
  8
回01-TP外形
  6
BYBLOCK
 62
     7
 10
2105.533985589754
 20
149.7172552942184
 30
0.0
 40
2.0
 50
0.0
 51
90.0
  0
ARC
  5
3D5
  8
回01-TP外形
  6
BYBLOCK
 62
     7
 10
2105.533985589754
 20
169.7172554939416
 30
0.0
 40
2.0
 50
270.0256057119457
 51
0.0
  0
ARC
  5
3D6
  8
回01-TP外形
  6
BYBLOCK
 62
     7
 10
2105.033985589754
 20
159.7172552942184
 30
0.0
 40
0.5
 50
90.0
 51
272.4902279154731
  0
LINE
  5
3D7
  8
回01-TP外形
  6
BYBLOCK
 62
     7
 10
2110.533985589754
 20
159.2172552942179
 30
0.0
 11
2105.033985589754
 21
159.2172552942179
 31
0.0
  0
LINE
  5
3D8
  8
回01-TP外形
  6
BYBLOCK
 62
     7
 10
2105.033985589754
 20
160.2172552942179
 30
0.0
 11
2110.533985589754
 21
160.2172552942179
 31
0.0
  0
LINE
  5
3D9
  8
回01-TP外形
  6
BYBLOCK
 62
     7
 10
2110.533985589754
 20
159.2172552942179
 30
0.0
 11
2110.533985589754
 21
149.7172552942179
 31
0.0
  0
LINE
  5
3DA
  8
回01-TP外形
  6
BYBLOCK
 62
     7
 10
2097.830616658398
 20
156.2971073809167
 30
0.0
 11
2102.140896898576
 21
152.0083785419393
 31
0.0
  0
LINE
  5
3DB
  8
回01-TP外形
  6
BYBLOCK
 62
     7
 10
2097.828384304067
 20
163.1337059638636
 30
0.0
 11
2102.136841302263
 21
167.4246016901625
 31
0.0
  0
LINE
  5
3DC
  8
回01-TP外形
  6
BYBLOCK
 62
     7
 10
2110.533985589754
 20
169.7172552942179
 30
0.0
 11
2110.533985589754
 21
160.2172552942179
 31
0.0
  0
LINE
  5
3DD
  8
回01-TP外形
  6
BYBLOCK
 62
     7
 10
2107.533985589753
 20
149.7172552942179
 30
0.0
 11
2110.533985589754
 21
149.7172552942179
 31
0.0
  0
LINE
  5
3DE
  8
回01-TP外形
  6
BYBLOCK
 62
     7
 10
2110.533985589754
 20
169.7172552942179
 30
0.0
 11
2107.533985589753
 21
169.7172552942179
 31
0.0
  0
LINE
  5
3DF
  8
回01-TP外形
  6
BYBLOCK
 62
     7
 10
2102.846229267094
 20
151.717255294218
 30
0.0
 11
2105.533985589754
 21
151.717255294218
 31
0.0
  0
LINE
  5
3E0
  8
回01-TP外形
  6
BYBLOCK
 62
     7
 10
2102.842055681388
 20
167.7160522599461
 30
0.0
 11
2105.534879397685
 21
167.7172556936644
 31
0.0
  0
LINE
  5
3E1
  8
回01-TP外形
  6
BYBLOCK
 62
     7
 10
2027.033942078986
 20
162.3422552942179
 30
0.0
 11
2027.033942078986
 21
157.0922552942179
 31
0.0
  0
ARC
  5
3E2
  8
回01-TP外形
  6
BYBLOCK
 62
     7
 10
2027.533942078986
 20
157.0922552942184
 30
0.0
 40
0.5
 50
180.0
 51
270.0
  0
ARC
  5
3E3
  8
回01-TP外形
  6
BYBLOCK
 62
     7
 10
2027.533942078986
 20
162.3422552942184
 30
0.0
 40
0.5
 50
90.0
 51
180.0
  0
LINE
  5
3E4
  8
回01-TP外形
  6
BYBLOCK
 62
     7
 10
2027.533942078986
 20
156.5922552942184
 30
0.0
 11
2097.125342122741
 21
156.588230626966
 31
0.0
  0
LINE
  5
3E5
  8
回01-TP外形
  6
BYBLOCK
 62
     7
 10
2027.533942078986
 20
162.8422552942184
 30
0.0
 11
2097.122723020976
 21
162.8422552942184
 31
0.0
  0
POLYLINE
  5
3E6
  8
回01-TP外形
 62
     7
 66
     1
 10
0.0
 20
0.0
 30
0.0
 70
     1
  0
VERTEX
  5
6EB
  8
回01-TP外形
 62
     7
 10
2113.233985589753
 20
93.56725529421799
 30
0.0
  0
VERTEX
  5
6ED
  8
回01-TP外形
 62
     7
 10
2288.133985589754
 20
93.56725529421799
 30
0.0
  0
VERTEX
  5
6EE
  8
回01-TP外形
 62
     7
 10
2288.133985589754
 20
225.8672552942179
 30
0.0
  0
VERTEX
  5
6EF
  8
回01-TP外形
 62
     7
 10
2113.233985589753
 20
225.8672552942179
 30
0.0
  0
SEQEND
  5
6EC
  8
0
  6
CONTINUOUS
 62
     7
  0
POLYLINE
  5
3E7
  8
回01-TP外形
 62
     7
 66
     1
 10
0.0
 20
0.0
 30
0.0
 70
     1
  0
VERTEX
  5
6F0
  8
回01-TP外形
 62
     7
 10
2115.233985589753
 20
95.567255294218
 30
0.0
  0
VERTEX
  5
6F2
  8
回01-TP外形
 62
     7
 10
2286.133985589754
 20
95.567255294218
 30
0.0
  0
VERTEX
  5
6F3
  8
回01-TP外形
 62
     7
 10
2286.133985589754
 20
223.867255294218
 30
0.0
  0
VERTEX
  5
6F4
  8
回01-TP外形
 62
     7
 10
2115.233985589753
 20
223.867255294218
 30
0.0
  0
SEQEND
  5
6F1
  8
0
  6
CONTINUOUS
 62
     7
  0
TEXT
  5
3E8
  8
回03-記事
  6
CONTINUOUS
 62
     5
 10
2060.350895729849
 20
127.1770720758613
 30
0.0
 40
3.0
  1
PROTECTION TAPE
1001
ACAD
1000
MTEXTBEGIN
1070
    73
1070
     1
1070
    44
1040
1.0
1070
    74
1070
     0
1000
MTEXTEND
  0
INSERT
  5
3E9
  8
回03-記事
  6
CONTINUOUS
 62
     5
 66
     1
  2
*X85
 10
0.0
 20
0.0
 30
0.0
  0
SEQEND
  5
6FB
  8
0
  6
CONTINUOUS
 62
     7
  0
TEXT
  5
3EA
  8
回04-図面枠
 62
     7
 10
2402.426204765274
 20
-26.4973657465296
 30
0.0
 40
5.0
  1
Sep/08/2023
 72
     1
 11
2421.926204765274
 21
-26.4973657465296
 31
0.0
  0
TEXT
  5
3EB
  8
回04-図面枠
  6
CONTINUOUS
 62
     7
 10
2416.876934870507
 20
-15.55792883090706
 30
0.0
 40
3.0
  1
DATE
  0
TEXT
  5
3EC
  8
回04-図面枠
 62
     7
 10
2426.78265154036
 20
305.5805058306088
 30
0.0
 40
3.6
  1
H
  0
LINE
  5
3ED
  8
回04-図面枠
 62
     7
 10
2396.426204765274
 20
309.7453250171631
 30
0.0
 11
2396.426204765274
 21
305.2453250171631
 31
0.0
  0
LINE
  5
3EE
  8
回04-図面枠
 62
     7
 10
2463.926204765274
 20
235.9453250171629
 30
0.0
 11
2459.426204765274
 21
235.9453250171629
 31
0.0
  0
TEXT
  5
3EF
  8
回04-図面枠
 62
     7
 10
2460.418834835596
 20
199.3051435834365
 30
0.0
 40
3.6
  1
2
  0
LINE
  5
3F0
  8
回04-図面枠
 62
     7
 10
2463.926204765274
 20
166.6453250171627
 30
0.0
 11
2459.426204765274
 21
166.6453250171627
 31
0.0
  0
TEXT
  5
3F1
  8
回04-図面枠
 62
     7
 10
2460.690183668567
 20
268.6051435834362
 30
0.0
 40
3.6
  1
1
  0
TEXT
  5
3F2
  8
回04-図面枠
 62
     7
 10
2460.413902075815
 20
130.0051435834363
 30
0.0
 40
3.6
  1
3
  0
LINE
  5
3F3
  8
回04-図面枠
 62
     7
 10
2463.926204765274
 20
97.34532501716302
 30
0.0
 11
2459.426204765274
 21
97.34532501716302
 31
0.0
  0
TEXT
  5
3F4
  8
回04-図面枠
 62
     7
 10
2460.348119167742
 20
60.70514358343615
 30
0.0
 40
3.6
  1
4
  0
LINE
  5
3F5
  8
回04-図面枠
 62
     7
 10
2463.926204765274
 20
28.04532501716284
 30
0.0
 11
2459.426204765274
 21
28.04532501716284
 31
0.0
  0
TEXT
  5
3F6
  8
回04-図面枠
 62
     7
 10
2460.348119167742
 20
-8.594856416563573
 30
0.0
 40
3.6
  1
5
  0
TEXT
  5
3F7
  8
回04-図面枠
 62
     7
 10
2426.78265154036
 20
-45.41949416939113
 30
0.0
 40
3.6
  1
H
  0
LINE
  5
3F8
  8
回04-図面枠
 62
     7
 10
2396.426204765274
 20
-41.25467498283685
 30
0.0
 11
2396.426204765274
 21
-45.75467498283686
 31
0.0
  0
TEXT
  5
3F9
  8
回04-図面枠
 62
     7
 10
2393.977886170618
 20
-38.71696714564476
 30
0.0
 40
5.0
  1
DMC Co., Ltd.
 72
     1
 11
2413.852886170618
 21
-38.71696714564476
 31
0.0
  0
LINE
  5
3FA
  8
回04-図面枠
 62
     7
 10
2463.926204765274
 20
-45.75467498283686
 30
0.0
 11
2463.926204765274
 21
309.7453250171631
 31
0.0
  0
LINE
  5
3FB
  8
回04-図面枠
 62
     7
 10
2459.426204765274
 20
305.2453250171631
 30
0.0
 11
2459.426204765274
 21
-41.25467498283685
 31
0.0
  0
TEXT
  5
3FC
  8
回04-図面枠
 62
     7
 10
2363.78265154036
 20
305.5805058306088
 30
0.0
 40
3.6
  1
G
  0
LINE
  5
3FD
  8
回04-図面枠
 62
     7
 10
2333.426204765274
 20
309.7453250171631
 30
0.0
 11
2333.426204765274
 21
305.2453250171631
 31
0.0
  0
TEXT
  5
3FE
  8
回04-図面枠
 62
     7
 10
2300.782651540361
 20
305.5805058306088
 30
0.0
 40
3.6
  1
F
  0
LINE
  5
3FF
  8
回04-図面枠
 62
     7
 10
2270.426204765274
 20
309.7453250171631
 30
0.0
 11
2270.426204765274
 21
305.2453250171631
 31
0.0
  0
TEXT
  5
400
  8
回04-図面枠
 62
     7
 10
2237.78265154036
 20
305.5805058306088
 30
0.0
 40
3.6
  1
E
  0
LINE
  5
401
  8
回04-図面枠
 62
     7
 10
2207.426204765274
 20
309.7453250171631
 30
0.0
 11
2207.426204765274
 21
305.2453250171631
 31
0.0
  0
TEXT
  5
402
  8
回04-図面枠
 62
     7
 10
2174.78265154036
 20
305.5805058306088
 30
0.0
 40
3.6
  1
D
  0
LINE
  5
403
  8
回04-図面枠
 62
     7
 10
2144.426204765274
 20
309.7453250171631
 30
0.0
 11
2144.426204765274
 21
305.2453250171631
 31
0.0
  0
TEXT
  5
404
  8
回04-図面枠
 62
     7
 10
2111.782651540361
 20
305.5805058306088
 30
0.0
 40
3.6
  1
C
  0
LINE
  5
405
  8
回04-図面枠
 62
     7
 10
2081.426204765274
 20
309.7453250171631
 30
0.0
 11
2081.426204765274
 21
305.2453250171631
 31
0.0
  0
TEXT
  5
406
  8
回04-図面枠
 62
     7
 10
2048.78265154036
 20
305.5805058306088
 30
0.0
 40
3.6
  1
B
  0
LINE
  5
407
  8
回04-図面枠
 62
     7
 10
2018.426204765273
 20
309.7453250171631
 30
0.0
 11
2018.426204765273
 21
305.2453250171631
 31
0.0
  0
TEXT
  5
408
  8
回04-図面枠
 62
     7
 10
1985.78265154036
 20
305.5805058306088
 30
0.0
 40
3.6
  1
A
  0
LINE
  5
409
  8
回04-図面枠
 62
     7
 10
1955.426204765273
 20
235.9453250171629
 30
0.0
 11
1950.926204765274
 21
235.9453250171629
 31
0.0
  0
TEXT
  5
40A
  8
回04-図面枠
 62
     7
 10
1951.918834835595
 20
199.3051435834365
 30
0.0
 40
3.6
  1
2
  0
LINE
  5
40B
  8
回04-図面枠
 62
     7
 10
1955.426204765273
 20
166.6453250171627
 30
0.0
 11
1950.926204765274
 21
166.6453250171627
 31
0.0
  0
TEXT
  5
40C
  8
回04-図面枠
 62
     7
 10
1952.190183668567
 20
268.6051435834362
 30
0.0
 40
3.6
  1
1
  0
TEXT
  5
40D
  8
回04-図面枠
 62
     7
 10
2329.426204765274
 20
-23.76279278760492
 30
0.0
 40
5.0
  1
LST-084B080A
 72
     1
 11
2351.926204765274
 21
-23.76279278760492
 31
0.0
  0
TEXT
  5
40E
  8
回04-図面枠
 62
     7
 10
2342.476204765274
 20
-15.30742206347378
 30
0.0
 40
3.0
  1
PART　No.
 72
     1
 11
2351.926204765274
 21
-15.30742206347378
 31
0.0
  0
TEXT
  5
40F
  8
回04-図面枠
 62
     7
 10
2363.78265154036
 20
-45.41949416939113
 30
0.0
 40
3.6
  1
G
  0
LINE
  5
410
  8
回04-図面枠
 62
     7
 10
2322.426204765274
 20
-36.25467498283686
 30
0.0
 11
2381.426204765274
 21
-36.25467498283686
 31
0.0
  0
TEXT
  5
411
  8
回04-図面枠
 62
     7
 10
2328.585614214092
 20
-35.10464425145099
 30
0.0
 40
3.0
  1
STANDARD TOUCHSCREEN
 72
     1
 11
2351.926204765274
 21
-35.10464425145099
 31
0.0
  0
TEXT
  5
412
  8
回04-図面枠
 62
     7
 10
2335.346103303924
 20
-40.10464425145099
 30
0.0
 40
3.0
  1
CIRCUIT　DRAWING
 72
     1
 11
2351.926204765274
 21
-40.10464425145099
 31
0.0
  0
LINE
  5
413
  8
回04-図面枠
 62
     7
 10
2384.426204765274
 20
-11.25467498283689
 30
0.0
 11
2384.426204765274
 21
-41.25467498283685
 31
0.0
  0
TEXT
  5
414
  8
回04-図面枠
 62
     7
 10
2347.126204765274
 20
-30.51105529326176
 30
0.0
 40
3.0
  1
TYPE
 72
     1
 11
2351.926204765274
 21
-30.51105529326176
 31
0.0
  0
LINE
  5
415
  8
回04-図面枠
 62
     7
 10
2333.426204765274
 20
-41.25467498283685
 30
0.0
 11
2333.426204765274
 21
-45.75467498283686
 31
0.0
  0
TEXT
  5
416
  8
回04-図面枠
 62
     7
 10
2300.782651540361
 20
-45.41949416939113
 30
0.0
 40
3.6
  1
F
  0
LINE
  5
417
  8
回04-図面枠
 62
     7
 10
2319.426204765274
 20
-11.25467498283689
 30
0.0
 11
2319.426204765274
 21
-41.25467498283685
 31
0.0
  0
LINE
  5
418
  8
回04-図面枠
 62
     7
 10
2270.426204765274
 20
-41.25467498283685
 30
0.0
 11
2270.426204765274
 21
-45.75467498283686
 31
0.0
  0
TEXT
  5
419
  8
回04-図面枠
 62
     7
 10
2237.78265154036
 20
-45.41949416939113
 30
0.0
 40
3.6
  1
E
  0
LINE
  5
41A
  8
回04-図面枠
 62
     7
 10
2207.426204765274
 20
-41.25467498283685
 30
0.0
 11
2207.426204765274
 21
-45.75467498283686
 31
0.0
  0
TEXT
  5
41B
  8
回04-図面枠
 62
     7
 10
2174.78265154036
 20
-45.41949416939113
 30
0.0
 40
3.6
  1
D
  0
LINE
  5
41C
  8
回04-図面枠
 62
     7
 10
2319.426204765274
 20
-26.25467498283686
 30
0.0
 11
2384.426204765274
 21
-26.25467498283686
 31
0.0
  0
LINE
  5
41D
  8
回04-図面枠
 62
     7
 10
2144.426204765274
 20
-41.25467498283685
 30
0.0
 11
2144.426204765274
 21
-45.75467498283686
 31
0.0
  0
TEXT
  5
41E
  8
回04-図面枠
 62
     7
 10
2111.782651540361
 20
-45.41949416939113
 30
0.0
 40
3.6
  1
C
  0
LINE
  5
41F
  8
回04-図面枠
 62
     7
 10
2081.426204765274
 20
-41.25467498283685
 30
0.0
 11
2081.426204765274
 21
-45.75467498283686
 31
0.0
  0
TEXT
  5
420
  8
回04-図面枠
 62
     7
 10
2048.78265154036
 20
-45.41949416939113
 30
0.0
 40
3.6
  1
B
  0
TEXT
  5
421
  8
回04-図面枠
 62
     7
 10
1951.913902075814
 20
130.0051435834363
 30
0.0
 40
3.6
  1
3
  0
LINE
  5
422
  8
回04-図面枠
 62
     7
 10
1955.426204765273
 20
97.34532501716302
 30
0.0
 11
1950.926204765274
 21
97.34532501716302
 31
0.0
  0
TEXT
  5
423
  8
回04-図面枠
 62
     7
 10
1951.848119167742
 20
60.70514358343615
 30
0.0
 40
3.6
  1
4
  0
LINE
  5
424
  8
回04-図面枠
 62
     7
 10
2018.426204765273
 20
-41.25467498283685
 30
0.0
 11
2018.426204765273
 21
-45.75467498283686
 31
0.0
  0
TEXT
  5
425
  8
回04-図面枠
 62
     7
 10
1985.78265154036
 20
-45.41949416939113
 30
0.0
 40
3.6
  1
A
  0
LINE
  5
426
  8
回04-図面枠
 62
     7
 10
1955.426204765273
 20
28.04532501716284
 30
0.0
 11
1950.926204765274
 21
28.04532501716284
 31
0.0
  0
TEXT
  5
427
  8
回04-図面枠
 62
     7
 10
1951.848119167742
 20
-8.594856416563573
 30
0.0
 40
3.6
  1
5
  0
LINE
  5
428
  8
回04-図面枠
 62
     7
 10
1950.926204765274
 20
-45.75467498283686
 30
0.0
 11
1950.926204765274
 21
309.7453250171631
 31
0.0
  0
LINE
  5
429
  8
回04-図面枠
 62
     7
 10
1955.426204765273
 20
305.2453250171631
 30
0.0
 11
1955.426204765273
 21
-41.25467498283685
 31
0.0
  0
LINE
  5
42A
  8
回04-図面枠
 62
     7
 10
1955.426204765273
 20
-41.25467498283685
 30
0.0
 11
2459.426204765274
 21
-41.25467498283685
 31
0.0
  0
LINE
  5
42B
  8
回04-図面枠
 62
     7
 10
2463.926204765274
 20
-45.75467498283686
 30
0.0
 11
1950.926204765274
 21
-45.75467498283686
 31
0.0
  0
LINE
  5
42C
  8
回04-図面枠
 62
     7
 10
2463.926204765274
 20
309.7453250171631
 30
0.0
 11
1950.926204765274
 21
309.7453250171631
 31
0.0
  0
LINE
  5
42D
  8
回04-図面枠
 62
     7
 10
1955.426204765273
 20
305.2453250171631
 30
0.0
 11
2459.426204765274
 21
305.2453250171631
 31
0.0
  0
LINE
  5
42E
  8
回04-図面枠
 62
     7
 10
2319.426204765274
 20
-31.25467498283686
 30
0.0
 11
2459.426204765274
 21
-31.25467498283686
 31
0.0
  0
LINE
  5
42F
  8
回04-図面枠
 62
     7
 10
2319.426204765274
 20
-11.25467498283689
 30
0.0
 11
2459.426204765274
 21
-11.25467498283689
 31
0.0
  0
LINE
  5
430
  8
回04-図面枠
 62
     7
 10
2319.426204765274
 20
-16.25467498283686
 30
0.0
 11
2459.426204765274
 21
-16.25467498283686
 31
0.0
  0
LINE
  5
431
  8
回03-記事
  6
CONTINUOUS
 62
     7
 10
2427.133131073794
 20
220.1721085352132
 30
0.0
 11
2427.133131073794
 21
259.1721085352132
 31
0.0
  0
LINE
  5
432
  8
回03-記事
  6
CONTINUOUS
 62
     7
 10
2448.583131073794
 20
198.7221085352132
 30
0.0
 11
2448.583131073794
 21
280.6221085352133
 31
0.0
  0
TEXT
  5
433
  8
回03-記事
  6
CONTINUOUS
 62
     7
 10
2363.851420141588
 20
256.1102093163917
 30
0.0
 40
6.240000000000001
  1
3
  0
TEXT
  5
434
  8
回03-記事
  6
CONTINUOUS
 62
     7
 10
2363.494850431534
 20
277.7616104002518
 30
0.0
 40
6.240000000000001
  1
4
  0
LINE
  5
435
  8
回03-記事
  6
CONTINUOUS
 62
     7
 10
2417.461131073795
 20
222.200108535213
 30
0.0
 11
2420.269131073796
 21
216.5841085352128
 31
0.0
  0
LINE
  5
436
  8
回03-記事
  6
CONTINUOUS
 62
     7
 10
2420.269131073796
 20
216.5841085352128
 30
0.0
 11
2422.063131073795
 21
220.1721085352132
 31
0.0
  0
LINE
  5
437
  8
回03-記事
  6
CONTINUOUS
 62
     7
 10
2411.845131073795
 20
222.200108535213
 30
0.0
 11
2414.653131073795
 21
216.5841085352128
 31
0.0
  0
LINE
  5
438
  8
回03-記事
  6
CONTINUOUS
 62
     7
 10
2409.037131073796
 20
216.5841085352128
 30
0.0
 11
2411.845131073795
 21
222.200108535213
 31
0.0
  0
LINE
  5
439
  8
回03-記事
  6
CONTINUOUS
 62
     7
 10
2414.653131073795
 20
216.5841085352128
 30
0.0
 11
2417.461131073795
 21
222.200108535213
 31
0.0
  0
LINE
  5
43A
  8
回03-記事
  6
CONTINUOUS
 62
     7
 10
2400.613131073795
 20
222.200108535213
 30
0.0
 11
2403.421131073795
 21
216.5841085352128
 31
0.0
  0
LINE
  5
43B
  8
回03-記事
  6
CONTINUOUS
 62
     7
 10
2400.145131073795
 20
216.8181085352132
 30
0.0
 11
2405.761131073795
 21
219.6261085352134
 31
0.0
  0
LINE
  5
43C
  8
回03-記事
  6
CONTINUOUS
 62
     7
 10
2400.145131073795
 20
216.8181085352132
 30
0.0
 11
2405.761131073795
 21
214.0101085352136
 31
0.0
  0
LINE
  5
43D
  8
回03-記事
  6
CONTINUOUS
 62
     7
 10
2400.145131073795
 20
211.2021085352127
 30
0.0
 11
2405.761131073795
 21
214.0101085352136
 31
0.0
  0
LINE
  5
43E
  8
回03-記事
  6
CONTINUOUS
 62
     7
 10
2400.145131073795
 20
205.5861085352132
 30
0.0
 11
2405.761131073795
 21
208.3941085352134
 31
0.0
  0
LINE
  5
43F
  8
回03-記事
  6
CONTINUOUS
 62
     7
 10
2400.145131073795
 20
211.2021085352127
 30
0.0
 11
2405.761131073795
 21
208.3941085352134
 31
0.0
  0
LINE
  5
440
  8
回03-記事
  6
CONTINUOUS
 62
     7
 10
2400.145131073795
 20
222.4341085352127
 30
0.0
 11
2405.761131073795
 21
225.2421085352129
 31
0.0
  0
LINE
  5
441
  8
回03-記事
  6
CONTINUOUS
 62
     7
 10
2400.145131073795
 20
228.0501085352132
 30
0.0
 11
2405.761131073795
 21
230.8581085352125
 31
0.0
  0
LINE
  5
442
  8
回03-記事
  6
CONTINUOUS
 62
     7
 10
2400.145131073795
 20
228.0501085352132
 30
0.0
 11
2405.761131073795
 21
225.2421085352129
 31
0.0
  0
LINE
  5
443
  8
回03-記事
  6
CONTINUOUS
 62
     7
 10
2400.145131073795
 20
222.4341085352127
 30
0.0
 11
2405.761131073795
 21
219.6261085352134
 31
0.0
  0
LINE
  5
444
  8
回03-記事
  6
CONTINUOUS
 62
     7
 10
2394.997131073795
 20
222.200108535213
 30
0.0
 11
2397.805131073795
 21
216.5841085352128
 31
0.0
  0
LINE
  5
445
  8
回03-記事
  6
CONTINUOUS
 62
     7
 10
2392.189131073795
 20
216.5841085352128
 30
0.0
 11
2394.997131073795
 21
222.200108535213
 31
0.0
  0
LINE
  5
446
  8
回03-記事
  6
CONTINUOUS
 62
     7
 10
2387.587131073795
 20
218.6121085352131
 30
0.0
 11
2389.381131073795
 21
222.200108535213
 31
0.0
  0
LINE
  5
447
  8
回03-記事
  6
CONTINUOUS
 62
     7
 10
2389.381131073795
 20
222.200108535213
 30
0.0
 11
2392.189131073795
 21
216.5841085352128
 31
0.0
  0
LINE
  5
448
  8
回03-記事
  6
CONTINUOUS
 62
     7
 10
2397.805131073795
 20
216.5841085352128
 30
0.0
 11
2400.613131073795
 21
222.200108535213
 31
0.0
  0
LINE
  5
449
  8
回03-記事
  6
CONTINUOUS
 62
     7
 10
2402.953131073795
 20
232.2621085352127
 30
0.0
 11
2402.953131073795
 21
236.942108535213
 31
0.0
  0
LINE
  5
44A
  8
回03-記事
  6
CONTINUOUS
 62
     7
 10
2403.421131073795
 20
216.5841085352128
 30
0.0
 11
2406.229131073795
 21
222.200108535213
 31
0.0
  0
LINE
  5
44B
  8
回03-記事
  6
CONTINUOUS
 62
     7
 10
2402.953131073795
 20
232.2621085352127
 30
0.0
 11
2405.761131073795
 21
230.8581085352125
 31
0.0
  0
TEXT
  5
44C
  8
回03-記事
  6
CONTINUOUS
 62
     7
 10
2404.485390971923
 20
237.9705624816924
 30
0.0
 40
5.459999999999999
  1
YU
  0
LINE
  5
44D
  8
回03-記事
  6
CONTINUOUS
 62
     7
 10
2406.229131073795
 20
222.200108535213
 30
0.0
 11
2409.037131073796
 21
216.5841085352128
 31
0.0
  0
LINE
  5
44E
  8
回03-記事
  6
CONTINUOUS
 62
     7
 10
2402.953131073795
 20
198.7221085352132
 30
0.0
 11
2402.953131073795
 21
204.182108535213
 31
0.0
  0
LINE
  5
44F
  8
回03-記事
  6
CONTINUOUS
 62
     7
 10
2400.145131073795
 20
205.5861085352132
 30
0.0
 11
2402.953131073795
 21
204.182108535213
 31
0.0
  0
TEXT
  5
450
  8
回03-記事
  6
CONTINUOUS
 62
     7
 10
2388.610002908455
 20
200.9461863938715
 30
0.0
 40
5.459999999999999
  1
YD
  0
TEXT
  5
451
  8
回03-記事
  6
CONTINUOUS
 62
     7
 10
2376.780197898737
 20
220.8992678654581
 30
0.0
 40
5.459999999999999
  1
XL
  0
TEXT
  5
452
  8
回03-記事
  6
CONTINUOUS
 62
     7
 10
2364.093406385179
 20
215.5199082550252
 30
0.0
 40
6.240000000000001
  1
1
  0
TEXT
  5
453
  8
回03-記事
  6
CONTINUOUS
 62
     7
 10
2363.614915090457
 20
234.5691637539421
 30
0.0
 40
6.240000000000001
  1
2
  0
LINE
  5
454
  8
回03-記事
  6
CONTINUOUS
 62
     7
 10
2370.193131073795
 20
236.942108535213
 30
0.0
 11
2402.953131073795
 21
236.942108535213
 31
0.0
  0
LINE
  5
455
  8
回03-記事
  6
CONTINUOUS
 62
     7
 10
2370.193131073795
 20
218.6121085352131
 30
0.0
 11
2387.587131073795
 21
218.6121085352131
 31
0.0
  0
TEXT
  5
456
  8
回03-記事
  6
CONTINUOUS
 62
     7
 10
2373.332488206317
 20
180.4170873133673
 30
0.0
 40
8.0
  1
Pin Assignment
  0
LINE
  5
457
  8
回03-記事
  6
CONTINUOUS
 62
     7
 10
2402.953131073795
 20
198.7221085352132
 30
0.0
 11
2448.583131073794
 21
198.7221085352132
 31
0.0
  0
LINE
  5
458
  8
回03-記事
  6
CONTINUOUS
 62
     7
 10
2370.193131073795
 20
280.6221085352133
 30
0.0
 11
2448.583131073794
 21
280.6221085352133
 31
0.0
  0
LINE
  5
459
  8
回03-記事
  6
CONTINUOUS
 62
     7
 10
2370.193131073795
 20
259.1721085352132
 30
0.0
 11
2427.133131073794
 21
259.1721085352132
 31
0.0
  0
LINE
  5
45A
  8
回03-記事
  6
CONTINUOUS
 62
     7
 10
2422.063131073795
 20
220.1721085352132
 30
0.0
 11
2427.133131073794
 21
220.1721085352132
 31
0.0
  0
TEXT
  5
45B
  8
回03-記事
  6
CONTINUOUS
 62
     7
 10
2422.359749252097
 20
212.2089034579309
 30
0.0
 40
5.459999999999999
  1
XR
  0
ENDSEC
  0
EOF
