  0
SECTION
  2
HEADER
  9
$ACADVER
  1
AC1009
  9
$INSBASE
 10
0.0
 20
0.0
 30
0.0
  9
$EXTMIN
 10
2055.442418613231
 20
372.7384828900172
 30
0.0
  9
$EXTMAX
 10
2568.442418613231
 20
728.2384828900172
 30
0.0
  9
$LIMMIN
 10
0.0
 20
0.0
  9
$LIMMAX
 10
880.0
 20
620.0
  9
$ORTHOMODE
 70
     0
  9
$REGENMODE
 70
     1
  9
$FILLMODE
 70
     1
  9
$QTEXTMODE
 70
     0
  9
$MIRRTEXT
 70
     1
  9
$DRAGMODE
 70
     2
  9
$LTSCALE
 40
2.087542087542086
  9
$OSMODE
 70
    37
  9
$ATTMODE
 70
     1
  9
$TEXTSIZE
 40
4.0
  9
$TRACEWID
 40
1.0
  9
$TEXTSTYLE
  7
STANDARD
  9
$CLAYER
  8
回04-図面枠
  9
$CELTYPE
  6
CONTINUOUS
  9
$CECOLOR
 62
     1
  9
$DIMSCALE
 40
1.0
  9
$DIMASZ
 40
1.5
  9
$DIMEXO
 40
0.0
  9
$DIMDLI
 40
0.0
  9
$DIMRND
 40
0.0
  9
$DIMDLE
 40
0.0
  9
$DIMEXE
 40
1.0
  9
$DIMTP
 40
0.3
  9
$DIMTM
 40
0.3
  9
$DIMTXT
 40
4.0
  9
$DIMCEN
 40
1.5
  9
$DIMTSZ
 40
0.0
  9
$DIMTOL
 70
     0
  9
$DIMLIM
 70
     0
  9
$DIMTIH
 70
     0
  9
$DIMTOH
 70
     0
  9
$DIMSE1
 70
     0
  9
$DIMSE2
 70
     0
  9
$DIMTAD
 70
     3
  9
$DIMZIN
 70
     8
  9
$DIMBLK
  1

  9
$DIMASO
 70
     1
  9
$DIMSHO
 70
     1
  9
$DIMPOST
  1

  9
$DIMAPOST
  1

  9
$DIMALT
 70
     0
  9
$DIMALTD
 70
     2
  9
$DIMALTF
 40
25.4
  9
$DIMLFAC
 40
1.0
  9
$DIMTOFL
 70
     1
  9
$DIMTVP
 40
0.0
  9
$DIMTIX
 70
     0
  9
$DIMSOXD
 70
     0
  9
$DIMSAH
 70
     1
  9
$DIMBLK1
  1
OPEN
  9
$DIMBLK2
  1
OPEN
  9
$DIMSTYLE
  2
STANDARD
  9
$DIMCLRD
 70
     5
  9
$DIMCLRE
 70
     5
  9
$DIMCLRT
 70
     5
  9
$DIMTFAC
 40
0.7
  9
$DIMGAP
 40
0.5
  9
$LUNITS
 70
     2
  9
$LUPREC
 70
     4
  9
$SKETCHINC
 40
1.0
  9
$FILLETRAD
 40
0.5
  9
$AUNITS
 70
     0
  9
$AUPREC
 70
     0
  9
$MENU
  1
.
  9
$ELEVATION
 40
0.0
  9
$PELEVATION
 40
0.0
  9
$THICKNESS
 40
0.0
  9
$LIMCHECK
 70
     0
  9
$BLIPMODE
 70
     0
  9
$CHAMFERA
 40
1.7
  9
$CHAMFERB
 40
1.7
  9
$SKPOLY
 70
     0
  9
$TDCREATE
 40
2450431.727493866
  9
$TDUPDATE
 40
2460200.402025232
  9
$TDINDWG
 40
6.233296910
  9
$TDUSRTIMER
 40
6.233294109
  9
$USRTIMER
 70
     1
  9
$ANGBASE
 50
0.0
  9
$ANGDIR
 70
     0
  9
$PDMODE
 70
    34
  9
$PDSIZE
 40
0.0
  9
$PLINEWID
 40
2.0
  9
$COORDS
 70
     0
  9
$SPLFRAME
 70
     0
  9
$SPLINETYPE
 70
     6
  9
$SPLINESEGS
 70
     8
  9
$ATTDIA
 70
     1
  9
$ATTREQ
 70
     1
  9
$HANDLING
 70
     1
  9
$HANDSEED
  5
A42
  9
$SURFTAB1
 70
     6
  9
$SURFTAB2
 70
     6
  9
$SURFTYPE
 70
     6
  9
$SURFU
 70
     6
  9
$SURFV
 70
     6
  9
$UCSNAME
  2

  9
$UCSORG
 10
0.0
 20
0.0
 30
0.0
  9
$UCSXDIR
 10
1.0
 20
0.0
 30
0.0
  9
$UCSYDIR
 10
0.0
 20
1.0
 30
0.0
  9
$PUCSNAME
  2

  9
$PUCSORG
 10
0.0
 20
0.0
 30
0.0
  9
$PUCSXDIR
 10
1.0
 20
0.0
 30
0.0
  9
$PUCSYDIR
 10
0.0
 20
1.0
 30
0.0
  9
$USERI1
 70
     0
  9
$USERI2
 70
     0
  9
$USERI3
 70
     0
  9
$USERI4
 70
     0
  9
$USERI5
 70
     0
  9
$USERR1
 40
0.0
  9
$USERR2
 40
0.0
  9
$USERR3
 40
0.0
  9
$USERR4
 40
0.0
  9
$USERR5
 40
0.0
  9
$WORLDVIEW
 70
     1
  9
$SHADEDGE
 70
     3
  9
$SHADEDIF
 70
    70
  9
$TILEMODE
 70
     1
  9
$MAXACTVP
 70
    16
  9
$PLIMCHECK
 70
     0
  9
$PEXTMIN
 10
1.000000000000000E+20
 20
1.000000000000000E+20
 30
1.000000000000000E+20
  9
$PEXTMAX
 10
-1.000000000000000E+20
 20
-1.000000000000000E+20
 30
-1.000000000000000E+20
  9
$PLIMMIN
 10
0.0
 20
0.0
  9
$PLIMMAX
 10
420.0
 20
297.0
  9
$UNITMODE
 70
     0
  9
$VISRETAIN
 70
     0
  9
$PLINEGEN
 70
     0
  9
$PSLTSCALE
 70
     1
  0
ENDSEC
  0
SECTION
  2
TABLES
  0
TABLE
  2
VPORT
 70
     1
  0
VPORT
  2
*ACTIVE
 70
     0
 10
0.0
 20
0.0
 11
1.0
 21
1.0
 12
2350.925369138542
 22
575.1523845906675
 13
0.0
 23
0.0
 14
1.0
 24
1.0
 15
5.0
 25
5.0
 16
0.0
 26
0.0
 36
1.0
 17
0.0
 27
0.0
 37
0.0
 40
497.3774110635247
 41
2.16030534351145
 42
50.0
 43
0.0
 44
0.0
 50
0.0
 51
0.0
 71
     0
 72
   100
 73
     1
 74
     0
 75
     0
 76
     0
 77
     0
 78
     0
  0
ENDTAB
  0
TABLE
  2
LTYPE
 70
     3
  0
LTYPE
  2
CONTINUOUS
 70
     0
  3
Solid line
 72
    65
 73
     0
 40
0.0
  0
LTYPE
  2
CENTER2
 70
     0
  3
___ _ ___ _ ___ _ ___ _ ___ _ ___ _ ___ _ ___ _
 72
    65
 73
     4
 40
1.125
 49
0.75
 49
-0.125
 49
0.125
 49
-0.125
  0
LTYPE
  2
PHANTOM2
 70
     0
  3
Phantom (.5x) ___ _ _ ___ _ _ ___ _ _ ___ _ _
 72
    65
 73
     6
 40
1.25
 49
0.625
 49
-0.125
 49
0.125
 49
-0.125
 49
0.125
 49
-0.125
  0
ENDTAB
  0
TABLE
  2
LAYER
 70
     6
  0
LAYER
  2
0
 70
     0
 62
     7
  6
CONTINUOUS
  0
LAYER
  2
DEFPOINTS
 70
     0
 62
     7
  6
CONTINUOUS
  0
LAYER
  2
回04-図面枠
 70
     0
 62
     7
  6
CONTINUOUS
  0
LAYER
  2
回01-TP外形
 70
     0
 62
     7
  6
CONTINUOUS
  0
LAYER
  2
回02-寸法
 70
     0
 62
     7
  6
CONTINUOUS
  0
LAYER
  2
回03-記事
 70
     0
 62
     7
  6
CONTINUOUS
  0
ENDTAB
  0
TABLE
  2
STYLE
 70
     2
  0
STYLE
  2
STANDARD
 70
     0
 40
4.0
 41
1.0
 50
0.0
 71
     0
 42
4.0
  3
isocp.shx
  4
bigfont.shx
  0
STYLE
  2
ANNOTATIVE
 70
     0
 40
0.0
 41
1.0
 50
0.0
 71
     0
 42
0.2
  3
txt.shx
  4

  0
ENDTAB
  0
TABLE
  2
VIEW
 70
     0
  0
ENDTAB
  0
TABLE
  2
UCS
 70
     0
  0
ENDTAB
  0
TABLE
  2
APPID
 70
     7
  0
APPID
  2
ACAD
 70
     0
  0
APPID
  2
ACADANNOTATIVE
 70
     0
  0
APPID
  2
ACAD_PSEXT
 70
     0
  0
APPID
  2
ACAECLAYERSTANDARD
 70
     0
  0
APPID
  2
ACADSTRINGINFO
 70
     0
  0
APPID
  2
ACAD_MLEADERVER
 70
     0
  0
APPID
  2
ACAD_NAV_VCDISPLAY
 70
     0
  0
ENDTAB
  0
TABLE
  2
DIMSTYLE
 70
     4
  0
DIMSTYLE
  2
STANDARD
 70
     0
  3

  4

  5

  6
OPEN
  7
OPEN
 40
1.0
 41
2.0
 42
0.0
 43
0.0
 44
1.0
 45
0.0
 46
0.0
 47
0.0
 48
0.0
140
3.0
141
2.0
142
0.0
143
25.4
144
1.0
145
0.0
146
1.0
147
0.5
 71
     0
 72
     0
 73
     0
 74
     0
 75
     0
 76
     0
 77
     3
 78
     8
170
     0
171
     2
172
     1
173
     1
174
     0
175
     0
176
     5
177
     5
178
     5
  0
DIMSTYLE
  2
RUISIN
 70
     0
  3

  4

  5

  6
OPEN
  7
OPEN
 40
1.0
 41
2.0
 42
0.0
 43
0.0
 44
1.0
 45
0.0
 46
0.0
 47
0.0
 48
0.0
140
3.0
141
2.0
142
0.0
143
25.4
144
1.0
145
0.0
146
1.0
147
0.5
 71
     0
 72
     0
 73
     0
 74
     0
 75
     0
 76
     0
 77
     3
 78
     8
170
     0
171
     2
172
     1
173
     1
174
     0
175
     0
176
     5
177
     5
178
     5
  0
DIMSTYLE
  2
KOUSA
 70
     0
  3

  4

  5

  6
OPEN
  7
OPEN
 40
1.0
 41
2.0
 42
0.0
 43
0.0
 44
1.0
 45
0.0
 46
0.0
 47
0.1
 48
0.1
140
3.0
141
2.0
142
0.0
143
25.4
144
1.0
145
0.0
146
0.7
147
0.5
 71
     1
 72
     0
 73
     0
 74
     0
 75
     0
 76
     0
 77
     3
 78
     8
170
     0
171
     2
172
     1
173
     1
174
     0
175
     0
176
     5
177
     5
178
     5
  0
DIMSTYLE
  2
DMC
 70
     0
  3

  4

  5
OPEN
  6

  7

 40
1.0
 41
2.0
 42
0.0
 43
0.0
 44
1.0
 45
0.0
 46
0.0
 47
0.0
 48
0.0
140
3.0
141
2.0
142
0.0
143
0.03937007874016
144
1.0
145
0.0
146
0.7
147
0.5
 71
     0
 72
     0
 73
     0
 74
     0
 75
     0
 76
     0
 77
     3
 78
     8
170
     0
171
     3
172
     1
173
     0
174
     0
175
     0
176
     5
177
     5
178
     5
  0
ENDTAB
  0
ENDSEC
  0
SECTION
  2
BLOCKS
  0
BLOCK
  8
0
  2
$MODEL_SPACE
 70
     0
 10
0.0
 20
0.0
 30
0.0
  3
$MODEL_SPACE
  1

  0
ENDBLK
  8
0
  5
21
  0
BLOCK
 67
     1
  8
0
  2
$PAPER_SPACE
 70
     0
 10
0.0
 20
0.0
 30
0.0
  3
$PAPER_SPACE
  1

  0
ENDBLK
  5
28
 67
     1
  8
0
  0
BLOCK
  8
0
  2
_OPEN
 70
     0
 10
0.0
 20
0.0
 30
0.0
  3
_OPEN
  1

  0
LINE
  5
7F3
  8
0
  6
BYBLOCK
 62
     0
 10
-1.0
 20
0.166667
 30
0.0
 11
0.0
 21
0.0
 31
0.0
  0
LINE
  5
7F4
  8
0
  6
BYBLOCK
 62
     0
 10
-1.0
 20
-0.166667
 30
0.0
 11
0.0
 21
0.0
 31
0.0
  0
LINE
  5
7F5
  8
0
  6
BYBLOCK
 62
     0
 10
0.0
 20
0.0
 30
0.0
 11
-1.0
 21
0.0
 31
0.0
  0
LINE
  5
14
  8
0
  6
BYBLOCK
 62
     0
 10
-1.0
 20
0.1666666666666666
 30
0.0
 11
0.0
 21
0.0
 31
0.0
  0
LINE
  5
16
  8
0
  6
BYBLOCK
 62
     0
 10
0.0
 20
0.0
 30
0.0
 11
-1.0
 21
-0.1666666666666666
 31
0.0
  0
LINE
  5
17
  8
0
  6
BYBLOCK
 62
     0
 10
0.0
 20
0.0
 30
0.0
 11
-1.0
 21
0.0
 31
0.0
  0
ENDBLK
  5
18
  8
0
  0
BLOCK
  8
0
  2
*D11
 70
     1
 10
0.0
 20
0.0
 30
0.0
  3
*D11
  1

  0
LINE
  5
24C
  8
回02-寸法
  6
CONTINUOUS
 62
     5
 10
593.4593464239367
 20
-2519.701447675168
 30
0.0
 11
603.3190724589309
 21
-2519.701447675168
 31
0.0
  0
LINE
  5
24D
  8
回02-寸法
  6
CONTINUOUS
 62
     5
 10
593.9593464239371
 20
-2532.701447675171
 30
0.0
 11
603.3190724589309
 21
-2532.701447675171
 31
0.0
  0
LINE
  5
24E
  8
回02-寸法
  6
CONTINUOUS
 62
     5
 10
602.3190724589309
 20
-2517.70144767517
 30
0.0
 11
602.3190724589309
 21
-2515.701447675168
 31
0.0
  0
LINE
  5
24F
  8
回02-寸法
  6
CONTINUOUS
 62
     5
 10
602.3190724589309
 20
-2534.70144767517
 30
0.0
 11
602.3190724589309
 21
-2552.288229171232
 31
0.0
  0
LINE
  5
250
  8
回02-寸法
  6
CONTINUOUS
 62
     5
 10
602.3190724589309
 20
-2519.701447675168
 30
0.0
 11
602.3190724589309
 21
-2532.701447675171
 31
0.0
  0
INSERT
  5
251
  8
回02-寸法
  6
CONTINUOUS
 62
     5
 66
     1
  2
_OPEN
 10
602.3190724589309
 20
-2519.701447675168
 30
0.0
 41
2.0
 42
2.0
 43
2.0
 50
270.0
  0
SEQEND
  5
252
  8
回04-図面枠
  6
CONTINUOUS
 62
     1
  0
INSERT
  5
253
  8
回02-寸法
  6
CONTINUOUS
 62
     5
 66
     1
  2
_OPEN
 10
602.3190724589309
 20
-2532.701447675171
 30
0.0
 41
2.0
 42
2.0
 43
2.0
 50
90.0
  0
SEQEND
  5
254
  8
回04-図面枠
  6
CONTINUOUS
 62
     1
  0
INSERT
  5
255
  8
回02-寸法
  6
CONTINUOUS
 62
     5
 66
     1
  2
*X8585
 10
0.0
 20
0.0
 30
0.0
  0
SEQEND
  5
6ED
  8
回04-図面枠
  6
CONTINUOUS
 62
     1
  0
POINT
  5
256
  8
DEFPOINTS
  6
CONTINUOUS
 62
     0
 10
593.4593464239367
 20
-2519.701447675168
 30
0.0
  0
POINT
  5
257
  8
DEFPOINTS
  6
CONTINUOUS
 62
     0
 10
593.9593464239371
 20
-2532.701447675171
 30
0.0
  0
POINT
  5
258
  8
DEFPOINTS
  6
CONTINUOUS
 62
     0
 10
602.3190724589309
 20
-2532.701447675171
 30
0.0
  0
ENDBLK
  5
259
  8
0
 62
     1
  0
BLOCK
  8
0
  2
*D22
 70
     1
 10
0.0
 20
0.0
 30
0.0
  3
*D22
  1

  0
LINE
  5
232
  8
回02-寸法
  6
CONTINUOUS
 62
     5
 10
593.4593464239368
 20
-2519.701447675168
 30
0.0
 11
593.4593464239368
 21
-2510.52307659354
 31
0.0
  0
LINE
  5
233
  8
回02-寸法
  6
CONTINUOUS
 62
     5
 10
593.9593464239368
 20
-2526.701447675169
 30
0.0
 11
593.9593464239368
 21
-2510.52307659354
 31
0.0
  0
LINE
  5
234
  8
回02-寸法
  6
CONTINUOUS
 62
     5
 10
591.4593464239368
 20
-2511.523076593541
 30
0.0
 11
589.459346423937
 21
-2511.523076593541
 31
0.0
  0
LINE
  5
235
  8
回02-寸法
  6
CONTINUOUS
 62
     5
 10
595.9593464239368
 20
-2511.523076593541
 30
0.0
 11
607.7561968176378
 21
-2511.523076593541
 31
0.0
  0
LINE
  5
236
  8
回02-寸法
  6
CONTINUOUS
 62
     5
 10
593.4593464239368
 20
-2511.523076593541
 30
0.0
 11
593.9593464239368
 21
-2511.523076593541
 31
0.0
  0
INSERT
  5
237
  8
回02-寸法
  6
CONTINUOUS
 62
     5
 66
     1
  2
_OPEN
 10
593.4593464239368
 20
-2511.523076593541
 30
0.0
 41
2.0
 42
2.0
 43
2.0
  0
SEQEND
  5
238
  8
回04-図面枠
  6
CONTINUOUS
 62
     1
  0
INSERT
  5
239
  8
回02-寸法
  6
CONTINUOUS
 62
     5
 66
     1
  2
_OPEN
 10
593.9593464239368
 20
-2511.523076593541
 30
0.0
 41
2.0
 42
2.0
 43
2.0
 50
180.0
  0
SEQEND
  5
23A
  8
回04-図面枠
  6
CONTINUOUS
 62
     1
  0
TEXT
  5
23B
  8
回02-寸法
  6
CONTINUOUS
 62
     5
 10
597.8577716207873
 20
-2510.823076593541
 30
0.0
 40
4.0
  1
(0.5)
1001
ACAD
1000
MTEXTBEGIN
1070
    73
1070
     1
1070
    44
1040
1.0
1070
    74
1070
     0
1000
MTEXTEND
  0
POINT
  5
23C
  8
DEFPOINTS
  6
CONTINUOUS
 62
     0
 10
593.4593464239368
 20
-2519.701447675168
 30
0.0
  0
POINT
  5
23D
  8
DEFPOINTS
  6
CONTINUOUS
 62
     0
 10
593.9593464239368
 20
-2526.701447675169
 30
0.0
  0
POINT
  5
23E
  8
DEFPOINTS
  6
CONTINUOUS
 62
     0
 10
593.9593464239368
 20
-2511.523076593541
 30
0.0
  0
ENDBLK
  5
23F
  8
0
 62
     1
  0
BLOCK
  8
0
  2
*D33
 70
     1
 10
0.0
 20
0.0
 30
0.0
  3
*D33
  1

  0
LINE
  5
221
  8
回02-寸法
  6
CONTINUOUS
 62
     5
 10
379.7593464239365
 20
-2526.701447675169
 30
0.0
 11
379.7593464239365
 21
-2514.106346617009
 31
0.0
  0
LINE
  5
222
  8
回02-寸法
  6
CONTINUOUS
 62
     5
 10
380.2593464239365
 20
-2519.701447675168
 30
0.0
 11
380.2593464239365
 21
-2514.106346617009
 31
0.0
  0
LINE
  5
223
  8
回02-寸法
  6
CONTINUOUS
 62
     5
 10
377.7593464239365
 20
-2515.106346617009
 30
0.0
 11
375.7593464239365
 21
-2515.106346617009
 31
0.0
  0
LINE
  5
224
  8
回02-寸法
  6
CONTINUOUS
 62
     5
 10
382.2593464239364
 20
-2515.106346617009
 30
0.0
 11
394.0561968176372
 21
-2515.106346617009
 31
0.0
  0
LINE
  5
225
  8
回02-寸法
  6
CONTINUOUS
 62
     5
 10
379.7593464239365
 20
-2515.106346617009
 30
0.0
 11
380.2593464239365
 21
-2515.106346617009
 31
0.0
  0
INSERT
  5
226
  8
回02-寸法
  6
CONTINUOUS
 62
     5
 66
     1
  2
_OPEN
 10
379.7593464239365
 20
-2515.106346617009
 30
0.0
 41
2.0
 42
2.0
 43
2.0
  0
SEQEND
  5
227
  8
回04-図面枠
  6
CONTINUOUS
 62
     1
  0
INSERT
  5
228
  8
回02-寸法
  6
CONTINUOUS
 62
     5
 66
     1
  2
_OPEN
 10
380.2593464239365
 20
-2515.106346617009
 30
0.0
 41
2.0
 42
2.0
 43
2.0
 50
180.0
  0
SEQEND
  5
229
  8
回04-図面枠
  6
CONTINUOUS
 62
     1
  0
TEXT
  5
22A
  8
回02-寸法
  6
CONTINUOUS
 62
     5
 10
384.1577716207869
 20
-2514.406346617009
 30
0.0
 40
4.0
  1
(0.5)
1001
ACAD
1000
MTEXTBEGIN
1070
    73
1070
     1
1070
    44
1040
1.0
1070
    74
1070
     0
1000
MTEXTEND
  0
POINT
  5
22B
  8
DEFPOINTS
  6
CONTINUOUS
 62
     0
 10
379.7593464239365
 20
-2526.701447675169
 30
0.0
  0
POINT
  5
22C
  8
DEFPOINTS
  6
CONTINUOUS
 62
     0
 10
380.2593464239365
 20
-2519.701447675168
 30
0.0
  0
POINT
  5
22D
  8
DEFPOINTS
  6
CONTINUOUS
 62
     0
 10
380.2593464239365
 20
-2515.106346617009
 30
0.0
  0
ENDBLK
  5
22E
  8
0
 62
     1
  0
BLOCK
  8
0
  2
*D44
 70
     1
 10
0.0
 20
0.0
 30
0.0
  3
*D44
  1

  0
LINE
  5
2F8
  8
回02-寸法
  6
CONTINUOUS
 62
     5
 10
379.7593029131683
 20
-2423.779572002298
 30
0.0
 11
379.7593029131683
 21
-2436.904810278329
 31
0.0
  0
LINE
  5
2F9
  8
回02-寸法
  6
CONTINUOUS
 62
     5
 10
370.2634153039096
 20
-2416.12669364664
 30
0.0
 11
370.2634153039096
 21
-2436.904810278329
 31
0.0
  0
LINE
  5
2FA
  8
回02-寸法
  6
CONTINUOUS
 62
     5
 10
381.7593029131683
 20
-2435.904810278329
 30
0.0
 11
383.7593029131683
 21
-2435.904810278329
 31
0.0
  0
LINE
  5
2FB
  8
回02-寸法
  6
CONTINUOUS
 62
     5
 10
368.2634153039096
 20
-2435.904810278329
 30
0.0
 11
358.5906230977737
 21
-2435.904810278329
 31
0.0
  0
LINE
  5
2FC
  8
回02-寸法
  6
CONTINUOUS
 62
     5
 10
379.7593029131683
 20
-2435.904810278329
 30
0.0
 11
370.2634153039096
 21
-2435.904810278329
 31
0.0
  0
INSERT
  5
2FD
  8
回02-寸法
  6
CONTINUOUS
 62
     5
 66
     1
  2
_OPEN
 10
379.7593029131683
 20
-2435.904810278329
 30
0.0
 41
2.0
 42
2.0
 43
2.0
 50
180.0
  0
SEQEND
  5
2FE
  8
回04-図面枠
  6
CONTINUOUS
 62
     1
  0
INSERT
  5
2FF
  8
回02-寸法
  6
CONTINUOUS
 62
     5
 66
     1
  2
_OPEN
 10
370.2634153039096
 20
-2435.904810278329
 30
0.0
 41
2.0
 42
2.0
 43
2.0
  0
SEQEND
  5
300
  8
回04-図面枠
  6
CONTINUOUS
 62
     1
  0
TEXT
  5
301
  8
回02-寸法
  6
CONTINUOUS
 62
     5
 10
358.641867048615
 20
-2435.404810278329
 30
0.0
 40
4.0
  1
9.5
1001
ACAD
1000
MTEXTBEGIN
1070
    73
1070
     1
1070
    44
1040
1.0
1070
    74
1070
     0
1000
MTEXTEND
  0
POINT
  5
302
  8
DEFPOINTS
  6
CONTINUOUS
 62
     0
 10
379.7593029131683
 20
-2423.779572002298
 30
0.0
  0
POINT
  5
303
  8
DEFPOINTS
  6
CONTINUOUS
 62
     0
 10
370.2634153039096
 20
-2416.12669364664
 30
0.0
  0
POINT
  5
304
  8
DEFPOINTS
  6
CONTINUOUS
 62
     0
 10
370.2634153039096
 20
-2435.904810278329
 30
0.0
  0
ENDBLK
  5
305
  8
0
 62
     1
  0
BLOCK
  8
0
  2
*D55
 70
     1
 10
0.0
 20
0.0
 30
0.0
  3
*D55
  1

  0
LINE
  5
2E7
  8
回02-寸法
 62
     5
 10
300.2593029131702
 20
-2409.783504190432
 30
0.0
 11
288.3162578649995
 21
-2409.783504190432
 31
0.0
  0
LINE
  5
2E8
  8
回02-寸法
 62
     5
 10
300.2593029131702
 20
-2416.033504190432
 30
0.0
 11
288.3162578649995
 21
-2416.033504190432
 31
0.0
  0
LINE
  5
2E9
  8
回02-寸法
 62
     5
 10
289.3162578649995
 20
-2418.033504190433
 30
0.0
 11
289.3162578649995
 21
-2420.033504190433
 31
0.0
  0
LINE
  5
2EA
  8
回02-寸法
 62
     5
 10
289.3162578649995
 20
-2407.783504190432
 30
0.0
 11
289.3162578649995
 21
-2387.112526828225
 31
0.0
  0
LINE
  5
2EB
  8
回02-寸法
 62
     5
 10
289.3162578649995
 20
-2416.033504190432
 30
0.0
 11
289.3162578649995
 21
-2409.783504190432
 31
0.0
  0
INSERT
  5
2EC
  8
回02-寸法
 62
     5
 66
     1
  2
_OPEN
 10
289.3162578649995
 20
-2416.033504190432
 30
0.0
 41
2.0
 42
2.0
 43
2.0
 50
90.0
  0
SEQEND
  5
2ED
  8
回04-図面枠
  6
CONTINUOUS
 62
     1
  0
INSERT
  5
2EE
  8
回02-寸法
 62
     5
 66
     1
  2
_OPEN
 10
289.3162578649995
 20
-2409.783504190432
 30
0.0
 41
2.0
 42
2.0
 43
2.0
 50
270.0
  0
SEQEND
  5
2EF
  8
回04-図面枠
  6
CONTINUOUS
 62
     1
  0
INSERT
  5
2F0
  8
回02-寸法
 62
     5
 66
     1
  2
*X8686
 10
0.0
 20
0.0
 30
0.0
  0
SEQEND
  5
6F3
  8
回04-図面枠
  6
CONTINUOUS
 62
     1
  0
POINT
  5
2F1
  8
DEFPOINTS
 62
     0
 10
300.2593029131702
 20
-2409.783504190432
 30
0.0
  0
POINT
  5
2F2
  8
DEFPOINTS
 62
     0
 10
300.2593029131702
 20
-2416.033504190432
 30
0.0
  0
POINT
  5
2F3
  8
DEFPOINTS
 62
     0
 10
289.3162578649995
 20
-2416.033504190432
 30
0.0
  0
ENDBLK
  5
2F4
  8
0
 62
     1
  0
BLOCK
  8
0
  2
*D66
 70
     1
 10
0.0
 20
0.0
 30
0.0
  3
*D66
  1

  0
LINE
  5
2D4
  8
回02-寸法
  6
CONTINUOUS
 62
     5
 10
379.7593464239369
 20
-2421.585628534899
 30
0.0
 11
379.7593464239369
 21
-2429.241780341342
 31
0.0
  0
LINE
  5
2D5
  8
回02-寸法
  6
CONTINUOUS
 62
     5
 10
375.1588439113746
 20
-2420.819350271128
 30
0.0
 11
375.1588439113746
 21
-2429.241780341342
 31
0.0
  0
LINE
  5
2D6
  8
回02-寸法
  6
CONTINUOUS
 62
     5
 10
381.7593464239369
 20
-2428.241780341342
 30
0.0
 11
383.7593464239369
 21
-2428.241780341342
 31
0.0
  0
LINE
  5
2D7
  8
回02-寸法
  6
CONTINUOUS
 62
     5
 10
373.1588439113746
 20
-2428.241780341342
 30
0.0
 11
361.4252810077372
 21
-2428.241780341342
 31
0.0
  0
LINE
  5
2D8
  8
回02-寸法
  6
CONTINUOUS
 62
     5
 10
379.7593464239369
 20
-2428.241780341342
 30
0.0
 11
375.1588439113746
 21
-2428.241780341342
 31
0.0
  0
INSERT
  5
2D9
  8
回02-寸法
  6
CONTINUOUS
 62
     5
 66
     1
  2
_OPEN
 10
379.7593464239369
 20
-2428.241780341342
 30
0.0
 41
2.0
 42
2.0
 43
2.0
 50
180.0
  0
SEQEND
  5
2DA
  8
回04-図面枠
  6
CONTINUOUS
 62
     1
  0
INSERT
  5
2DB
  8
回02-寸法
  6
CONTINUOUS
 62
     5
 66
     1
  2
_OPEN
 10
375.1588439113746
 20
-2428.241780341342
 30
0.0
 41
2.0
 42
2.0
 43
2.0
  0
SEQEND
  5
2DC
  8
回04-図面枠
  6
CONTINUOUS
 62
     1
  0
TEXT
  5
2DD
  8
回02-寸法
  6
CONTINUOUS
 62
     5
 10
361.4228235492947
 20
-2427.741780341342
 30
0.0
 40
4.0
  1
4.6
1001
ACAD
1000
MTEXTBEGIN
1070
    73
1070
     1
1070
    44
1040
1.0
1070
    74
1070
     0
1000
MTEXTEND
  0
POINT
  5
2DE
  8
DEFPOINTS
  6
CONTINUOUS
 62
     0
 10
379.7593464239369
 20
-2421.585628534899
 30
0.0
  0
POINT
  5
2DF
  8
DEFPOINTS
  6
CONTINUOUS
 62
     0
 10
375.1588439113746
 20
-2420.819350271128
 30
0.0
  0
POINT
  5
2E0
  8
DEFPOINTS
  6
CONTINUOUS
 62
     0
 10
375.1588439113746
 20
-2428.241780341342
 30
0.0
  0
ENDBLK
  5
2E1
  8
0
 62
     1
  0
BLOCK
  8
0
  2
*D77
 70
     1
 10
0.0
 20
0.0
 30
0.0
  3
*D77
  1

  0
LINE
  5
2BE
  8
回02-寸法
  6
CONTINUOUS
 62
     5
 10
299.7593464239364
 20
-2531.701447675168
 30
0.0
 11
299.7593464239364
 21
-2543.736523898439
 31
0.0
  0
LINE
  5
2BF
  8
回02-寸法
  6
CONTINUOUS
 62
     5
 10
309.7593464239364
 20
-2531.701447675168
 30
0.0
 11
309.7593464239364
 21
-2543.736523898439
 31
0.0
  0
LINE
  5
2C0
  8
回02-寸法
  6
CONTINUOUS
 62
     5
 10
297.7593464239364
 20
-2542.736523898439
 30
0.0
 11
295.7593464239364
 21
-2542.736523898439
 31
0.0
  0
LINE
  5
2C1
  8
回02-寸法
  6
CONTINUOUS
 62
     5
 10
311.7593464239365
 20
-2542.736523898439
 30
0.0
 11
323.6043333038687
 21
-2542.736523898439
 31
0.0
  0
LINE
  5
2C2
  8
回02-寸法
  6
CONTINUOUS
 62
     5
 10
299.7593464239364
 20
-2542.736523898439
 30
0.0
 11
309.7593464239364
 21
-2542.736523898439
 31
0.0
  0
INSERT
  5
2C3
  8
回02-寸法
  6
CONTINUOUS
 62
     5
 66
     1
  2
_OPEN
 10
299.7593464239364
 20
-2542.736523898439
 30
0.0
 41
2.0
 42
2.0
 43
2.0
  0
SEQEND
  5
2C4
  8
回04-図面枠
  6
CONTINUOUS
 62
     1
  0
INSERT
  5
2C5
  8
回02-寸法
  6
CONTINUOUS
 62
     5
 66
     1
  2
_OPEN
 10
309.7593464239364
 20
-2542.736523898439
 30
0.0
 41
2.0
 42
2.0
 43
2.0
 50
180.0
  0
SEQEND
  5
2C6
  8
回04-図面枠
  6
CONTINUOUS
 62
     1
  0
TEXT
  5
2C7
  8
回02-寸法
  6
CONTINUOUS
 62
     5
 10
315.7059081070183
 20
-2541.936523898439
 30
0.0
 40
4.0
  1
(10)
1001
ACAD
1000
MTEXTBEGIN
1070
    73
1070
     1
1070
    44
1040
1.0
1070
    74
1070
     0
1000
MTEXTEND
  0
POINT
  5
2C8
  8
DEFPOINTS
  6
CONTINUOUS
 62
     0
 10
299.7593464239364
 20
-2531.701447675168
 30
0.0
  0
POINT
  5
2C9
  8
DEFPOINTS
  6
CONTINUOUS
 62
     0
 10
309.7593464239364
 20
-2531.701447675168
 30
0.0
  0
POINT
  5
2CA
  8
DEFPOINTS
  6
CONTINUOUS
 62
     0
 10
309.7593464239364
 20
-2542.736523898439
 30
0.0
  0
ENDBLK
  5
2CB
  8
0
 62
     1
  0
BLOCK
  8
0
  2
*D88
 70
     1
 10
0.0
 20
0.0
 30
0.0
  3
*D88
  1

  0
LINE
  5
2AC
  8
回02-寸法
  6
CONTINUOUS
 62
     5
 10
299.7593464239364
 20
-2523.701447675168
 30
0.0
 11
299.7593464239364
 21
-2513.962580847681
 31
0.0
  0
LINE
  5
2AD
  8
回02-寸法
  6
CONTINUOUS
 62
     5
 10
304.7593464239365
 20
-2523.701447675168
 30
0.0
 11
304.7593464239365
 21
-2513.962580847681
 31
0.0
  0
LINE
  5
2AE
  8
回02-寸法
  6
CONTINUOUS
 62
     5
 10
297.7593464239364
 20
-2514.962580847682
 30
0.0
 11
295.7593464239364
 21
-2514.962580847682
 31
0.0
  0
LINE
  5
2AF
  8
回02-寸法
  6
CONTINUOUS
 62
     5
 10
306.7593464239365
 20
-2514.962580847682
 30
0.0
 11
311.5250318488857
 21
-2514.962580847682
 31
0.0
  0
LINE
  5
2B0
  8
回02-寸法
  6
CONTINUOUS
 62
     5
 10
299.7593464239364
 20
-2514.962580847682
 30
0.0
 11
304.7593464239365
 21
-2514.962580847682
 31
0.0
  0
INSERT
  5
2B1
  8
回02-寸法
  6
CONTINUOUS
 62
     5
 66
     1
  2
_OPEN
 10
299.7593464239364
 20
-2514.962580847682
 30
0.0
 41
2.0
 42
2.0
 43
2.0
  0
SEQEND
  5
2B2
  8
回04-図面枠
  6
CONTINUOUS
 62
     1
  0
INSERT
  5
2B3
  8
回02-寸法
  6
CONTINUOUS
 62
     5
 66
     1
  2
_OPEN
 10
304.7593464239365
 20
-2514.962580847682
 30
0.0
 41
2.0
 42
2.0
 43
2.0
 50
180.0
  0
SEQEND
  5
2B4
  8
回04-図面枠
  6
CONTINUOUS
 62
     1
  0
TEXT
  5
2B5
  8
回02-寸法
  6
CONTINUOUS
 62
     5
 10
308.742189136411
 20
-2514.462580847681
 30
0.0
 40
4.0
  1
5
1001
ACAD
1000
MTEXTBEGIN
1070
    73
1070
     1
1070
    44
1040
1.0
1070
    74
1070
     0
1000
MTEXTEND
  0
POINT
  5
2B6
  8
DEFPOINTS
  6
CONTINUOUS
 62
     0
 10
299.7593464239364
 20
-2523.701447675168
 30
0.0
  0
POINT
  5
2B7
  8
DEFPOINTS
  6
CONTINUOUS
 62
     0
 10
304.7593464239365
 20
-2523.701447675168
 30
0.0
  0
POINT
  5
2B8
  8
DEFPOINTS
  6
CONTINUOUS
 62
     0
 10
304.7593464239365
 20
-2514.962580847682
 30
0.0
  0
ENDBLK
  5
2B9
  8
0
 62
     1
  0
BLOCK
  8
0
  2
*D99
 70
     1
 10
0.0
 20
0.0
 30
0.0
  3
*D99
  1

  0
LINE
  5
29B
  8
回02-寸法
  6
CONTINUOUS
 62
     5
 10
299.7593464239366
 20
-2523.701447675168
 30
0.0
 11
291.253220646944
 21
-2523.701447675168
 31
0.0
  0
LINE
  5
29C
  8
回02-寸法
  6
CONTINUOUS
 62
     5
 10
299.7593464239366
 20
-2531.701447675168
 30
0.0
 11
291.253220646944
 21
-2531.701447675168
 31
0.0
  0
LINE
  5
29D
  8
回02-寸法
  6
CONTINUOUS
 62
     5
 10
292.253220646944
 20
-2521.701447675168
 30
0.0
 11
292.253220646944
 21
-2519.701447675168
 31
0.0
  0
LINE
  5
29E
  8
回02-寸法
  6
CONTINUOUS
 62
     5
 10
292.253220646944
 20
-2533.70144767517
 30
0.0
 11
292.253220646944
 21
-2551.280577078932
 31
0.0
  0
LINE
  5
29F
  8
回02-寸法
  6
CONTINUOUS
 62
     5
 10
292.253220646944
 20
-2523.701447675168
 30
0.0
 11
292.253220646944
 21
-2531.701447675168
 31
0.0
  0
INSERT
  5
2A0
  8
回02-寸法
  6
CONTINUOUS
 62
     5
 66
     1
  2
_OPEN
 10
292.253220646944
 20
-2523.701447675168
 30
0.0
 41
2.0
 42
2.0
 43
2.0
 50
270.0
  0
SEQEND
  5
2A1
  8
回04-図面枠
  6
CONTINUOUS
 62
     1
  0
INSERT
  5
2A2
  8
回02-寸法
  6
CONTINUOUS
 62
     5
 66
     1
  2
_OPEN
 10
292.253220646944
 20
-2531.701447675168
 30
0.0
 41
2.0
 42
2.0
 43
2.0
 50
90.0
  0
SEQEND
  5
2A3
  8
回04-図面枠
  6
CONTINUOUS
 62
     1
  0
INSERT
  5
2A4
  8
回02-寸法
  6
CONTINUOUS
 62
     5
 66
     1
  2
*X8787
 10
0.0
 20
0.0
 30
0.0
  0
SEQEND
  5
6F9
  8
回04-図面枠
  6
CONTINUOUS
 62
     1
  0
POINT
  5
2A5
  8
DEFPOINTS
  6
CONTINUOUS
 62
     0
 10
299.7593464239366
 20
-2523.701447675168
 30
0.0
  0
POINT
  5
2A6
  8
DEFPOINTS
  6
CONTINUOUS
 62
     0
 10
299.7593464239366
 20
-2531.701447675168
 30
0.0
  0
POINT
  5
2A7
  8
DEFPOINTS
  6
CONTINUOUS
 62
     0
 10
292.253220646944
 20
-2531.701447675168
 30
0.0
  0
ENDBLK
  5
2A8
  8
0
 62
     1
  0
BLOCK
  8
0
  2
*D1010
 70
     1
 10
0.0
 20
0.0
 30
0.0
  3
*D1010
  1

  0
LINE
  5
450
  8
回02-寸法
  6
CONTINUOUS
 62
     5
 10
387.659346423937
 20
-2351.629368804578
 30
0.0
 11
387.659346423937
 21
-2302.152081679008
 31
0.0
  0
LINE
  5
451
  8
回02-寸法
  6
CONTINUOUS
 62
     5
 10
588.9593464239368
 20
-2351.629368804578
 30
0.0
 11
588.9593464239368
 21
-2302.152081679008
 31
0.0
  0
LINE
  5
452
  8
回02-寸法
  6
CONTINUOUS
 62
     5
 10
389.159346423937
 20
-2303.152081679008
 30
0.0
 11
587.4593464239368
 21
-2303.152081679008
 31
0.0
  0
INSERT
  5
453
  8
回02-寸法
  6
CONTINUOUS
 62
     5
 66
     1
  2
_OPEN
 10
387.659346423937
 20
-2303.152081679008
 30
0.0
 41
1.5
 42
1.5
 43
1.5
 50
180.0
  0
SEQEND
  5
454
  8
回04-図面枠
  6
CONTINUOUS
 62
     1
  0
INSERT
  5
455
  8
回02-寸法
  6
CONTINUOUS
 62
     5
 66
     1
  2
_OPEN
 10
588.9593464239368
 20
-2303.152081679008
 30
0.0
 41
1.5
 42
1.5
 43
1.5
  0
SEQEND
  5
456
  8
回04-図面枠
  6
CONTINUOUS
 62
     1
  0
INSERT
  5
457
  8
回02-寸法
  6
CONTINUOUS
 62
     5
 66
     1
  2
*X8888
 10
0.0
 20
0.0
 30
0.0
  0
SEQEND
  5
6FF
  8
回04-図面枠
  6
CONTINUOUS
 62
     1
  0
POINT
  5
458
  8
DEFPOINTS
  6
CONTINUOUS
 62
     0
 10
387.659346423937
 20
-2351.629368804578
 30
0.0
  0
POINT
  5
459
  8
DEFPOINTS
  6
CONTINUOUS
 62
     0
 10
588.9593464239368
 20
-2351.629368804578
 30
0.0
  0
POINT
  5
45A
  8
DEFPOINTS
  6
CONTINUOUS
 62
     0
 10
588.9593464239368
 20
-2303.152081679008
 30
0.0
  0
ENDBLK
  5
45B
  8
0
 62
     1
  0
BLOCK
  8
0
  2
*D1111
 70
     1
 10
0.0
 20
0.0
 30
0.0
  3
*D1111
  1

  0
LINE
  5
441
  8
回02-寸法
  6
CONTINUOUS
 62
     5
 10
379.7593464239369
 20
-2345.169368804578
 30
0.0
 11
379.7593464239369
 21
-2288.970883367028
 31
0.0
  0
LINE
  5
442
  8
回02-寸法
  6
CONTINUOUS
 62
     5
 10
593.9593464239368
 20
-2345.169368804578
 30
0.0
 11
593.9593464239368
 21
-2288.970883367028
 31
0.0
  0
LINE
  5
443
  8
回02-寸法
  6
CONTINUOUS
 62
     5
 10
381.2593464239368
 20
-2289.970883367028
 30
0.0
 11
592.4593464239368
 21
-2289.970883367028
 31
0.0
  0
INSERT
  5
444
  8
回02-寸法
  6
CONTINUOUS
 62
     5
 66
     1
  2
_OPEN
 10
379.7593464239369
 20
-2289.970883367028
 30
0.0
 41
1.5
 42
1.5
 43
1.5
 50
180.0
  0
SEQEND
  5
445
  8
回04-図面枠
  6
CONTINUOUS
 62
     1
  0
INSERT
  5
446
  8
回02-寸法
  6
CONTINUOUS
 62
     5
 66
     1
  2
_OPEN
 10
593.9593464239368
 20
-2289.970883367028
 30
0.0
 41
1.5
 42
1.5
 43
1.5
  0
SEQEND
  5
447
  8
回04-図面枠
  6
CONTINUOUS
 62
     1
  0
INSERT
  5
448
  8
回02-寸法
  6
CONTINUOUS
 62
     5
 66
     1
  2
*X8989
 10
0.0
 20
0.0
 30
0.0
  0
SEQEND
  5
705
  8
回04-図面枠
  6
CONTINUOUS
 62
     1
  0
POINT
  5
449
  8
DEFPOINTS
  6
CONTINUOUS
 62
     0
 10
379.7593464239369
 20
-2345.169368804578
 30
0.0
  0
POINT
  5
44A
  8
DEFPOINTS
  6
CONTINUOUS
 62
     0
 10
593.9593464239368
 20
-2345.169368804578
 30
0.0
  0
POINT
  5
44B
  8
DEFPOINTS
  6
CONTINUOUS
 62
     0
 10
593.9593464239368
 20
-2289.970883367028
 30
0.0
  0
ENDBLK
  5
44C
  8
0
 62
     1
  0
BLOCK
  8
0
  2
*D1212
 70
     1
 10
0.0
 20
0.0
 30
0.0
  3
*D1212
  1

  0
LINE
  5
432
  8
回02-寸法
  6
CONTINUOUS
 62
     5
 10
586.9593464239371
 20
-2472.209368804579
 30
0.0
 11
633.4327379354983
 21
-2472.209368804579
 31
0.0
  0
LINE
  5
433
  8
回02-寸法
  6
CONTINUOUS
 62
     5
 10
586.9593464239371
 20
-2353.629368804579
 30
0.0
 11
633.4327379354983
 21
-2353.629368804579
 31
0.0
  0
LINE
  5
434
  8
回02-寸法
  6
CONTINUOUS
 62
     5
 10
632.4327379354984
 20
-2470.709368804579
 30
0.0
 11
632.4327379354984
 21
-2355.129368804579
 31
0.0
  0
INSERT
  5
435
  8
回02-寸法
  6
CONTINUOUS
 62
     5
 66
     1
  2
_OPEN
 10
632.4327379354984
 20
-2472.209368804579
 30
0.0
 41
1.5
 42
1.5
 43
1.5
 50
270.0
  0
SEQEND
  5
436
  8
回04-図面枠
  6
CONTINUOUS
 62
     1
  0
INSERT
  5
437
  8
回02-寸法
  6
CONTINUOUS
 62
     5
 66
     1
  2
_OPEN
 10
632.4327379354984
 20
-2353.629368804579
 30
0.0
 41
1.5
 42
1.5
 43
1.5
 50
90.0
  0
SEQEND
  5
438
  8
回04-図面枠
  6
CONTINUOUS
 62
     1
  0
INSERT
  5
439
  8
回02-寸法
  6
CONTINUOUS
 62
     5
 66
     1
  2
*X9090
 10
0.0
 20
0.0
 30
0.0
  0
SEQEND
  5
70B
  8
回04-図面枠
  6
CONTINUOUS
 62
     1
  0
POINT
  5
43A
  8
DEFPOINTS
  6
CONTINUOUS
 62
     0
 10
586.9593464239371
 20
-2472.209368804579
 30
0.0
  0
POINT
  5
43B
  8
DEFPOINTS
  6
CONTINUOUS
 62
     0
 10
586.9593464239371
 20
-2353.629368804579
 30
0.0
  0
POINT
  5
43C
  8
DEFPOINTS
  6
CONTINUOUS
 62
     0
 10
632.4327379354984
 20
-2353.629368804579
 30
0.0
  0
ENDBLK
  5
43D
  8
0
 62
     1
  0
BLOCK
  8
0
  2
*D1313
 70
     1
 10
0.0
 20
0.0
 30
0.0
  3
*D1313
  1

  0
LINE
  5
423
  8
回02-寸法
  6
CONTINUOUS
 62
     5
 10
588.9593464239371
 20
-2351.629368804579
 30
0.0
 11
641.7839643956156
 21
-2351.629368804579
 31
0.0
  0
LINE
  5
424
  8
回02-寸法
  6
CONTINUOUS
 62
     5
 10
588.9593464239371
 20
-2474.209368804579
 30
0.0
 11
641.7839643956156
 21
-2474.209368804579
 31
0.0
  0
LINE
  5
425
  8
回02-寸法
  6
CONTINUOUS
 62
     5
 10
640.7839643956156
 20
-2353.129368804579
 30
0.0
 11
640.7839643956156
 21
-2472.709368804579
 31
0.0
  0
INSERT
  5
426
  8
回02-寸法
  6
CONTINUOUS
 62
     5
 66
     1
  2
_OPEN
 10
640.7839643956156
 20
-2351.629368804579
 30
0.0
 41
1.5
 42
1.5
 43
1.5
 50
90.0
  0
SEQEND
  5
427
  8
回04-図面枠
  6
CONTINUOUS
 62
     1
  0
INSERT
  5
428
  8
回02-寸法
  6
CONTINUOUS
 62
     5
 66
     1
  2
_OPEN
 10
640.7839643956156
 20
-2474.209368804579
 30
0.0
 41
1.5
 42
1.5
 43
1.5
 50
270.0
  0
SEQEND
  5
429
  8
回04-図面枠
  6
CONTINUOUS
 62
     1
  0
INSERT
  5
42A
  8
回02-寸法
  6
CONTINUOUS
 62
     5
 66
     1
  2
*X9191
 10
0.0
 20
0.0
 30
0.0
  0
SEQEND
  5
711
  8
回04-図面枠
  6
CONTINUOUS
 62
     1
  0
POINT
  5
42B
  8
DEFPOINTS
  6
CONTINUOUS
 62
     0
 10
588.9593464239371
 20
-2351.629368804579
 30
0.0
  0
POINT
  5
42C
  8
DEFPOINTS
  6
CONTINUOUS
 62
     0
 10
588.9593464239371
 20
-2474.209368804579
 30
0.0
  0
POINT
  5
42D
  8
DEFPOINTS
  6
CONTINUOUS
 62
     0
 10
640.7839643956156
 20
-2474.209368804579
 30
0.0
  0
ENDBLK
  5
42E
  8
0
 62
     1
  0
BLOCK
  8
0
  2
*D1414
 70
     1
 10
0.0
 20
0.0
 30
0.0
  3
*D1414
  1

  0
LINE
  5
414
  8
回02-寸法
  6
CONTINUOUS
 62
     5
 10
593.9593464239371
 20
-2480.669368804579
 30
0.0
 11
655.8970566259517
 21
-2480.669368804579
 31
0.0
  0
LINE
  5
415
  8
回02-寸法
  6
CONTINUOUS
 62
     5
 10
593.9593464239371
 20
-2345.169368804579
 30
0.0
 11
655.8970566259517
 21
-2345.169368804579
 31
0.0
  0
LINE
  5
416
  8
回02-寸法
  6
CONTINUOUS
 62
     5
 10
654.8970566259518
 20
-2479.169368804579
 30
0.0
 11
654.8970566259518
 21
-2346.669368804579
 31
0.0
  0
INSERT
  5
417
  8
回02-寸法
  6
CONTINUOUS
 62
     5
 66
     1
  2
_OPEN
 10
654.8970566259518
 20
-2480.669368804579
 30
0.0
 41
1.5
 42
1.5
 43
1.5
 50
270.0
  0
SEQEND
  5
418
  8
回04-図面枠
  6
CONTINUOUS
 62
     1
  0
INSERT
  5
419
  8
回02-寸法
  6
CONTINUOUS
 62
     5
 66
     1
  2
_OPEN
 10
654.8970566259518
 20
-2345.169368804579
 30
0.0
 41
1.5
 42
1.5
 43
1.5
 50
90.0
  0
SEQEND
  5
41A
  8
回04-図面枠
  6
CONTINUOUS
 62
     1
  0
INSERT
  5
41B
  8
回02-寸法
  6
CONTINUOUS
 62
     5
 66
     1
  2
*X9292
 10
0.0
 20
0.0
 30
0.0
  0
SEQEND
  5
717
  8
回04-図面枠
  6
CONTINUOUS
 62
     1
  0
POINT
  5
41C
  8
DEFPOINTS
  6
CONTINUOUS
 62
     0
 10
593.9593464239371
 20
-2480.669368804579
 30
0.0
  0
POINT
  5
41D
  8
DEFPOINTS
  6
CONTINUOUS
 62
     0
 10
593.9593464239371
 20
-2345.169368804579
 30
0.0
  0
POINT
  5
41E
  8
DEFPOINTS
  6
CONTINUOUS
 62
     0
 10
654.8970566259518
 20
-2345.169368804579
 30
0.0
  0
ENDBLK
  5
41F
  8
0
 62
     1
  0
BLOCK
  8
0
  2
*D1515
 70
     1
 10
0.0
 20
0.0
 30
0.0
  3
*D1515
  1

  0
LINE
  5
403
  8
回02-寸法
  6
CONTINUOUS
 62
     5
 10
387.659346423937
 20
-2351.629368804578
 30
0.0
 11
387.659346423937
 21
-2302.152081679008
 31
0.0
  0
LINE
  5
404
  8
回02-寸法
  6
CONTINUOUS
 62
     5
 10
379.7593464239369
 20
-2345.169368804578
 30
0.0
 11
379.7593464239369
 21
-2302.152081679008
 31
0.0
  0
LINE
  5
405
  8
回02-寸法
  6
CONTINUOUS
 62
     5
 10
389.159346423937
 20
-2303.152081679008
 30
0.0
 11
390.659346423937
 21
-2303.152081679008
 31
0.0
  0
LINE
  5
406
  8
回02-寸法
  6
CONTINUOUS
 62
     5
 10
378.2593464239369
 20
-2303.152081679008
 30
0.0
 11
369.8729725079298
 21
-2303.152081679008
 31
0.0
  0
LINE
  5
407
  8
回02-寸法
  6
CONTINUOUS
 62
     5
 10
387.659346423937
 20
-2303.152081679008
 30
0.0
 11
379.7593464239369
 21
-2303.152081679008
 31
0.0
  0
INSERT
  5
408
  8
回02-寸法
  6
CONTINUOUS
 62
     5
 66
     1
  2
_OPEN
 10
387.659346423937
 20
-2303.152081679008
 30
0.0
 41
1.5
 42
1.5
 43
1.5
 50
180.0
  0
SEQEND
  5
409
  8
回04-図面枠
  6
CONTINUOUS
 62
     1
  0
INSERT
  5
40A
  8
回02-寸法
  6
CONTINUOUS
 62
     5
 66
     1
  2
_OPEN
 10
379.7593464239369
 20
-2303.152081679008
 30
0.0
 41
1.5
 42
1.5
 43
1.5
  0
SEQEND
  5
40B
  8
回04-図面枠
  6
CONTINUOUS
 62
     1
  0
TEXT
  5
40C
  8
回02-寸法
  6
CONTINUOUS
 62
     5
 10
369.9089387288794
 20
-2302.652081679008
 30
0.0
 40
4.0
  1
7.9
1001
ACAD
1000
MTEXTBEGIN
1070
    73
1070
     1
1070
    44
1040
1.0
1070
    74
1070
     0
1000
MTEXTEND
  0
POINT
  5
40D
  8
DEFPOINTS
  6
CONTINUOUS
 62
     0
 10
387.659346423937
 20
-2351.629368804578
 30
0.0
  0
POINT
  5
40E
  8
DEFPOINTS
  6
CONTINUOUS
 62
     0
 10
379.7593464239369
 20
-2345.169368804578
 30
0.0
  0
POINT
  5
40F
  8
DEFPOINTS
  6
CONTINUOUS
 62
     0
 10
379.7593464239369
 20
-2303.152081679008
 30
0.0
  0
ENDBLK
  5
410
  8
0
 62
     1
  0
BLOCK
  8
0
  2
*D1616
 70
     1
 10
0.0
 20
0.0
 30
0.0
  3
*D1616
  1

  0
LINE
  5
3F2
  8
回02-寸法
  6
CONTINUOUS
 62
     5
 10
586.9593464239371
 20
-2472.209368804579
 30
0.0
 11
633.4327379354983
 21
-2472.209368804579
 31
0.0
  0
LINE
  5
3F3
  8
回02-寸法
  6
CONTINUOUS
 62
     5
 10
593.9593464239371
 20
-2480.669368804579
 30
0.0
 11
633.4327379354983
 21
-2480.669368804579
 31
0.0
  0
LINE
  5
3F4
  8
回02-寸法
  6
CONTINUOUS
 62
     5
 10
632.4327379354983
 20
-2470.709368804579
 30
0.0
 11
632.4327379354983
 21
-2469.209368804579
 31
0.0
  0
LINE
  5
3F5
  8
回02-寸法
  6
CONTINUOUS
 62
     5
 10
632.4327379354983
 20
-2482.169368804579
 30
0.0
 11
632.4327379354983
 21
-2494.582646038647
 31
0.0
  0
LINE
  5
3F6
  8
回02-寸法
  6
CONTINUOUS
 62
     5
 10
632.4327379354983
 20
-2472.209368804579
 30
0.0
 11
632.4327379354983
 21
-2480.669368804579
 31
0.0
  0
INSERT
  5
3F7
  8
回02-寸法
  6
CONTINUOUS
 62
     5
 66
     1
  2
_OPEN
 10
632.4327379354983
 20
-2472.209368804579
 30
0.0
 41
1.5
 42
1.5
 43
1.5
 50
270.0
  0
SEQEND
  5
3F8
  8
回04-図面枠
  6
CONTINUOUS
 62
     1
  0
INSERT
  5
3F9
  8
回02-寸法
  6
CONTINUOUS
 62
     5
 66
     1
  2
_OPEN
 10
632.4327379354983
 20
-2480.669368804579
 30
0.0
 41
1.5
 42
1.5
 43
1.5
 50
90.0
  0
SEQEND
  5
3FA
  8
回04-図面枠
  6
CONTINUOUS
 62
     1
  0
TEXT
  5
3FB
  8
回02-寸法
  6
CONTINUOUS
 62
     5
 10
631.9327379354973
 20
-2494.585103497089
 30
0.0
 40
4.0
  1
8.46
 50
90.0
1001
ACAD
1000
MTEXTBEGIN
1070
    73
1070
     1
1070
    44
1040
1.0
1070
    74
1070
     0
1000
MTEXTEND
  0
POINT
  5
3FC
  8
DEFPOINTS
  6
CONTINUOUS
 62
     0
 10
586.9593464239371
 20
-2472.209368804579
 30
0.0
  0
POINT
  5
3FD
  8
DEFPOINTS
  6
CONTINUOUS
 62
     0
 10
593.9593464239371
 20
-2480.669368804579
 30
0.0
  0
POINT
  5
3FE
  8
DEFPOINTS
  6
CONTINUOUS
 62
     0
 10
632.4327379354983
 20
-2480.669368804579
 30
0.0
  0
ENDBLK
  5
3FF
  8
0
 62
     1
  0
BLOCK
  8
0
  2
*D1717
 70
     1
 10
0.0
 20
0.0
 30
0.0
  3
*D1717
  1

  0
LINE
  5
3E1
  8
回02-寸法
  6
CONTINUOUS
 62
     5
 10
588.9593464239371
 20
-2474.209368804579
 30
0.0
 11
641.7839643956148
 21
-2474.209368804579
 31
0.0
  0
LINE
  5
3E2
  8
回02-寸法
  6
CONTINUOUS
 62
     5
 10
593.9593464239371
 20
-2480.669368804579
 30
0.0
 11
641.7839643956148
 21
-2480.669368804579
 31
0.0
  0
LINE
  5
3E3
  8
回02-寸法
  6
CONTINUOUS
 62
     5
 10
640.7839643956148
 20
-2472.709368804579
 30
0.0
 11
640.7839643956148
 21
-2471.209368804579
 31
0.0
  0
LINE
  5
3E4
  8
回02-寸法
  6
CONTINUOUS
 62
     5
 10
640.7839643956148
 20
-2482.169368804579
 30
0.0
 11
640.7839643956148
 21
-2493.90716408017
 31
0.0
  0
LINE
  5
3E5
  8
回02-寸法
  6
CONTINUOUS
 62
     5
 10
640.7839643956148
 20
-2474.209368804579
 30
0.0
 11
640.7839643956148
 21
-2480.669368804579
 31
0.0
  0
INSERT
  5
3E6
  8
回02-寸法
  6
CONTINUOUS
 62
     5
 66
     1
  2
_OPEN
 10
640.7839643956148
 20
-2474.209368804579
 30
0.0
 41
1.5
 42
1.5
 43
1.5
 50
270.0
  0
SEQEND
  5
3E7
  8
回04-図面枠
  6
CONTINUOUS
 62
     1
  0
INSERT
  5
3E8
  8
回02-寸法
  6
CONTINUOUS
 62
     5
 66
     1
  2
_OPEN
 10
640.7839643956148
 20
-2480.669368804579
 30
0.0
 41
1.5
 42
1.5
 43
1.5
 50
90.0
  0
SEQEND
  5
3E9
  8
回04-図面枠
  6
CONTINUOUS
 62
     1
  0
TEXT
  5
3EA
  8
回02-寸法
  6
CONTINUOUS
 62
     5
 10
640.283964395614
 20
-2493.789936499242
 30
0.0
 40
4.0
  1
6.46
 50
90.0
1001
ACAD
1000
MTEXTBEGIN
1070
    73
1070
     1
1070
    44
1040
1.0
1070
    74
1070
     0
1000
MTEXTEND
  0
POINT
  5
3EB
  8
DEFPOINTS
  6
CONTINUOUS
 62
     0
 10
588.9593464239371
 20
-2474.209368804579
 30
0.0
  0
POINT
  5
3EC
  8
DEFPOINTS
  6
CONTINUOUS
 62
     0
 10
593.9593464239371
 20
-2480.669368804579
 30
0.0
  0
POINT
  5
3ED
  8
DEFPOINTS
  6
CONTINUOUS
 62
     0
 10
640.7839643956148
 20
-2480.669368804579
 30
0.0
  0
ENDBLK
  5
3EE
  8
0
 62
     1
  0
BLOCK
  8
0
  2
*D1818
 70
     1
 10
0.0
 20
0.0
 30
0.0
  3
*D1818
  1

  0
LINE
  5
3D2
  8
回02-寸法
  6
CONTINUOUS
 62
     5
 10
589.459346423937
 20
-2350.829368804578
 30
0.0
 11
589.459346423937
 21
-2295.126894886376
 31
0.0
  0
LINE
  5
3D3
  8
回02-寸法
  6
CONTINUOUS
 62
     5
 10
387.159346423937
 20
-2350.829368804578
 30
0.0
 11
387.159346423937
 21
-2295.126894886376
 31
0.0
  0
LINE
  5
3D4
  8
回02-寸法
  6
CONTINUOUS
 62
     5
 10
587.9593464239368
 20
-2296.126894886376
 30
0.0
 11
388.659346423937
 21
-2296.126894886376
 31
0.0
  0
INSERT
  5
3D5
  8
回02-寸法
  6
CONTINUOUS
 62
     5
 66
     1
  2
_OPEN
 10
589.459346423937
 20
-2296.126894886376
 30
0.0
 41
1.5
 42
1.5
 43
1.5
  0
SEQEND
  5
3D6
  8
回04-図面枠
  6
CONTINUOUS
 62
     1
  0
INSERT
  5
3D7
  8
回02-寸法
  6
CONTINUOUS
 62
     5
 66
     1
  2
_OPEN
 10
387.159346423937
 20
-2296.126894886376
 30
0.0
 41
1.5
 42
1.5
 43
1.5
 50
180.0
  0
SEQEND
  5
3D8
  8
回04-図面枠
  6
CONTINUOUS
 62
     1
  0
TEXT
  5
3D9
  8
回02-寸法
  6
CONTINUOUS
 62
     5
 10
482.1093464239369
 20
-2295.626501185589
 30
0.0
 40
4.0
  1
202.3
1001
ACAD
1000
MTEXTBEGIN
1070
    73
1070
     1
1070
    44
1040
1.0
1070
    74
1070
     0
1000
MTEXTEND
  0
POINT
  5
3DA
  8
DEFPOINTS
  6
CONTINUOUS
 62
     0
 10
589.459346423937
 20
-2350.829368804578
 30
0.0
  0
POINT
  5
3DB
  8
DEFPOINTS
  6
CONTINUOUS
 62
     0
 10
387.159346423937
 20
-2350.829368804578
 30
0.0
  0
POINT
  5
3DC
  8
DEFPOINTS
  6
CONTINUOUS
 62
     0
 10
387.159346423937
 20
-2296.126894886376
 30
0.0
  0
ENDBLK
  5
3DD
  8
0
 62
     1
  0
BLOCK
  8
0
  2
*D1919
 70
     1
 10
0.0
 20
0.0
 30
0.0
  3
*D1919
  1

  0
LINE
  5
3C3
  8
回02-寸法
  6
CONTINUOUS
 62
     5
 10
589.4593464239371
 20
-2350.829368804579
 30
0.0
 11
648.7730280780518
 21
-2350.829368804579
 31
0.0
  0
LINE
  5
3C4
  8
回02-寸法
  6
CONTINUOUS
 62
     5
 10
589.4593464239371
 20
-2475.009368804579
 30
0.0
 11
648.7730280780518
 21
-2475.009368804579
 31
0.0
  0
LINE
  5
3C5
  8
回02-寸法
  6
CONTINUOUS
 62
     5
 10
647.7730280780519
 20
-2352.329368804578
 30
0.0
 11
647.7730280780519
 21
-2473.509368804579
 31
0.0
  0
INSERT
  5
3C6
  8
回02-寸法
  6
CONTINUOUS
 62
     5
 66
     1
  2
_OPEN
 10
647.7730280780519
 20
-2350.829368804579
 30
0.0
 41
1.5
 42
1.5
 43
1.5
 50
90.0
  0
SEQEND
  5
3C7
  8
回04-図面枠
  6
CONTINUOUS
 62
     1
  0
INSERT
  5
3C8
  8
回02-寸法
  6
CONTINUOUS
 62
     5
 66
     1
  2
_OPEN
 10
647.7730280780519
 20
-2475.009368804579
 30
0.0
 41
1.5
 42
1.5
 43
1.5
 50
270.0
  0
SEQEND
  5
3C9
  8
回04-図面枠
  6
CONTINUOUS
 62
     1
  0
TEXT
  5
3CA
  8
回02-寸法
  6
CONTINUOUS
 62
     5
 10
647.2726343772636
 20
-2419.919368804579
 30
0.0
 40
4.0
  1
124.18
 50
90.0
1001
ACAD
1000
MTEXTBEGIN
1070
    73
1070
     1
1070
    44
1040
1.0
1070
    74
1070
     0
1000
MTEXTEND
  0
POINT
  5
3CB
  8
DEFPOINTS
  6
CONTINUOUS
 62
     0
 10
589.4593464239371
 20
-2350.829368804579
 30
0.0
  0
POINT
  5
3CC
  8
DEFPOINTS
  6
CONTINUOUS
 62
     0
 10
589.4593464239371
 20
-2475.009368804579
 30
0.0
  0
POINT
  5
3CD
  8
DEFPOINTS
  6
CONTINUOUS
 62
     0
 10
647.7730280780519
 20
-2475.009368804579
 30
0.0
  0
ENDBLK
  5
3CE
  8
0
 62
     1
  0
BLOCK
  8
0
  2
*D2020
 70
     1
 10
0.0
 20
0.0
 30
0.0
  3
*D2020
  1

  0
LINE
  5
3B2
  8
回02-寸法
  6
CONTINUOUS
 62
     5
 10
589.4593464239371
 20
-2350.829368804579
 30
0.0
 11
648.7730280780531
 21
-2350.829368804579
 31
0.0
  0
LINE
  5
3B3
  8
回02-寸法
  6
CONTINUOUS
 62
     5
 10
593.9593464239371
 20
-2345.169368804579
 30
0.0
 11
648.7730280780531
 21
-2345.169368804579
 31
0.0
  0
LINE
  5
3B4
  8
回02-寸法
  6
CONTINUOUS
 62
     5
 10
647.7730280780531
 20
-2352.329368804578
 30
0.0
 11
647.7730280780531
 21
-2353.829368804579
 31
0.0
  0
LINE
  5
3B5
  8
回02-寸法
  6
CONTINUOUS
 62
     5
 10
647.7730280780531
 20
-2343.669368804579
 30
0.0
 11
647.7730280780531
 21
-2289.162518410878
 31
0.0
  0
LINE
  5
3B6
  8
回02-寸法
  6
CONTINUOUS
 62
     5
 10
647.7730280780531
 20
-2350.829368804579
 30
0.0
 11
647.7730280780531
 21
-2345.169368804579
 31
0.0
  0
INSERT
  5
3B7
  8
回02-寸法
  6
CONTINUOUS
 62
     5
 66
     1
  2
_OPEN
 10
647.7730280780531
 20
-2350.829368804579
 30
0.0
 41
1.5
 42
1.5
 43
1.5
 50
90.0
  0
SEQEND
  5
3B8
  8
回04-図面枠
  6
CONTINUOUS
 62
     1
  0
INSERT
  5
3B9
  8
回02-寸法
  6
CONTINUOUS
 62
     5
 66
     1
  2
_OPEN
 10
647.7730280780531
 20
-2345.169368804579
 30
0.0
 41
1.5
 42
1.5
 43
1.5
 50
270.0
  0
SEQEND
  5
3BA
  8
回04-図面枠
  6
CONTINUOUS
 62
     1
  0
TEXT
  5
3BB
  8
回02-寸法
  6
CONTINUOUS
 62
     5
 10
647.0680280780522
 20
-2342.270943607728
 30
0.0
 40
4.0
  1
(5.66)(Insulation Area)
 50
90.0
1001
ACAD
1000
MTEXTBEGIN
1070
    73
1070
     1
1070
    44
1040
1.0
1070
    74
1070
     0
1000
MTEXTEND
  0
POINT
  5
3BC
  8
DEFPOINTS
  6
CONTINUOUS
 62
     0
 10
589.4593464239371
 20
-2350.829368804579
 30
0.0
  0
POINT
  5
3BD
  8
DEFPOINTS
  6
CONTINUOUS
 62
     0
 10
593.9593464239371
 20
-2345.169368804579
 30
0.0
  0
POINT
  5
3BE
  8
DEFPOINTS
  6
CONTINUOUS
 62
     0
 10
647.7730280780531
 20
-2345.169368804579
 30
0.0
  0
ENDBLK
  5
3BF
  8
0
 62
     1
  0
BLOCK
  8
0
  2
*D2121
 70
     1
 10
0.0
 20
0.0
 30
0.0
  3
*D2121
  1

  0
LINE
  5
3A1
  8
回02-寸法
  6
CONTINUOUS
 62
     5
 10
588.9593464239371
 20
-2351.629368804579
 30
0.0
 11
641.7839643956148
 21
-2351.629368804579
 31
0.0
  0
LINE
  5
3A2
  8
回02-寸法
  6
CONTINUOUS
 62
     5
 10
593.9593464239371
 20
-2345.169368804579
 30
0.0
 11
641.7839643956148
 21
-2345.169368804579
 31
0.0
  0
LINE
  5
3A3
  8
回02-寸法
  6
CONTINUOUS
 62
     5
 10
640.7839643956148
 20
-2353.129368804579
 30
0.0
 11
640.7839643956148
 21
-2354.629368804579
 31
0.0
  0
LINE
  5
3A4
  8
回02-寸法
  6
CONTINUOUS
 62
     5
 10
640.7839643956148
 20
-2343.669368804579
 30
0.0
 11
640.7839643956148
 21
-2329.172518410878
 31
0.0
  0
LINE
  5
3A5
  8
回02-寸法
  6
CONTINUOUS
 62
     5
 10
640.7839643956148
 20
-2351.629368804579
 30
0.0
 11
640.7839643956148
 21
-2345.169368804579
 31
0.0
  0
INSERT
  5
3A6
  8
回02-寸法
  6
CONTINUOUS
 62
     5
 66
     1
  2
_OPEN
 10
640.7839643956148
 20
-2351.629368804579
 30
0.0
 41
1.5
 42
1.5
 43
1.5
 50
90.0
  0
SEQEND
  5
3A7
  8
回04-図面枠
  6
CONTINUOUS
 62
     1
  0
INSERT
  5
3A8
  8
回02-寸法
  6
CONTINUOUS
 62
     5
 66
     1
  2
_OPEN
 10
640.7839643956148
 20
-2345.169368804579
 30
0.0
 41
1.5
 42
1.5
 43
1.5
 50
270.0
  0
SEQEND
  5
3A9
  8
回04-図面枠
  6
CONTINUOUS
 62
     1
  0
TEXT
  5
3AA
  8
回02-寸法
  6
CONTINUOUS
 62
     5
 10
640.0839643956142
 20
-2342.270943607728
 30
0.0
 40
4.0
  1
(6.46)
 50
90.0
1001
ACAD
1000
MTEXTBEGIN
1070
    73
1070
     1
1070
    44
1040
1.0
1070
    74
1070
     0
1000
MTEXTEND
  0
POINT
  5
3AB
  8
DEFPOINTS
  6
CONTINUOUS
 62
     0
 10
588.9593464239371
 20
-2351.629368804579
 30
0.0
  0
POINT
  5
3AC
  8
DEFPOINTS
  6
CONTINUOUS
 62
     0
 10
593.9593464239371
 20
-2345.169368804579
 30
0.0
  0
POINT
  5
3AD
  8
DEFPOINTS
  6
CONTINUOUS
 62
     0
 10
640.7839643956148
 20
-2345.169368804579
 30
0.0
  0
ENDBLK
  5
3AE
  8
0
 62
     1
  0
BLOCK
  8
0
  2
*D2222
 70
     1
 10
0.0
 20
0.0
 30
0.0
  3
*D2222
  1

  0
LINE
  5
390
  8
回02-寸法
  6
CONTINUOUS
 62
     5
 10
586.9593464239371
 20
-2353.629368804579
 30
0.0
 11
633.4327379354979
 21
-2353.629368804579
 31
0.0
  0
LINE
  5
391
  8
回02-寸法
  6
CONTINUOUS
 62
     5
 10
593.9593464239371
 20
-2345.169368804579
 30
0.0
 11
633.4327379354979
 21
-2345.169368804579
 31
0.0
  0
LINE
  5
392
  8
回02-寸法
  6
CONTINUOUS
 62
     5
 10
632.4327379354979
 20
-2355.129368804579
 30
0.0
 11
632.4327379354979
 21
-2356.629368804579
 31
0.0
  0
LINE
  5
393
  8
回02-寸法
  6
CONTINUOUS
 62
     5
 10
632.4327379354979
 20
-2343.669368804579
 30
0.0
 11
632.4327379354979
 21
-2328.497110202473
 31
0.0
  0
LINE
  5
394
  8
回02-寸法
  6
CONTINUOUS
 62
     5
 10
632.4327379354979
 20
-2353.629368804579
 30
0.0
 11
632.4327379354979
 21
-2345.169368804579
 31
0.0
  0
INSERT
  5
395
  8
回02-寸法
  6
CONTINUOUS
 62
     5
 66
     1
  2
_OPEN
 10
632.4327379354979
 20
-2353.629368804579
 30
0.0
 41
1.5
 42
1.5
 43
1.5
 50
90.0
  0
SEQEND
  5
396
  8
回04-図面枠
  6
CONTINUOUS
 62
     1
  0
INSERT
  5
397
  8
回02-寸法
  6
CONTINUOUS
 62
     5
 66
     1
  2
_OPEN
 10
632.4327379354979
 20
-2345.169368804579
 30
0.0
 41
1.5
 42
1.5
 43
1.5
 50
270.0
  0
SEQEND
  5
398
  8
回04-図面枠
  6
CONTINUOUS
 62
     1
  0
TEXT
  5
399
  8
回02-寸法
  6
CONTINUOUS
 62
     5
 10
631.7327379354972
 20
-2341.595535399323
 30
0.0
 40
4.0
  1
(8.46)
 50
90.0
1001
ACAD
1000
MTEXTBEGIN
1070
    73
1070
     1
1070
    44
1040
1.0
1070
    74
1070
     0
1000
MTEXTEND
  0
POINT
  5
39A
  8
DEFPOINTS
  6
CONTINUOUS
 62
     0
 10
586.9593464239371
 20
-2353.629368804579
 30
0.0
  0
POINT
  5
39B
  8
DEFPOINTS
  6
CONTINUOUS
 62
     0
 10
593.9593464239371
 20
-2345.169368804579
 30
0.0
  0
POINT
  5
39C
  8
DEFPOINTS
  6
CONTINUOUS
 62
     0
 10
632.4327379354979
 20
-2345.169368804579
 30
0.0
  0
ENDBLK
  5
39D
  8
0
 62
     1
  0
BLOCK
  8
0
  2
*D2323
 70
     1
 10
0.0
 20
0.0
 30
0.0
  3
*D2323
  1

  0
LINE
  5
37F
  8
回02-寸法
  6
CONTINUOUS
 62
     5
 10
589.4593464239371
 20
-2475.009368804579
 30
0.0
 11
648.7730280780525
 21
-2475.009368804579
 31
0.0
  0
LINE
  5
380
  8
回02-寸法
  6
CONTINUOUS
 62
     5
 10
593.9593464239371
 20
-2480.669368804579
 30
0.0
 11
648.7730280780525
 21
-2480.669368804579
 31
0.0
  0
LINE
  5
381
  8
回02-寸法
  6
CONTINUOUS
 62
     5
 10
647.7730280780527
 20
-2473.509368804579
 30
0.0
 11
647.7730280780527
 21
-2472.009368804579
 31
0.0
  0
LINE
  5
382
  8
回02-寸法
  6
CONTINUOUS
 62
     5
 10
647.7730280780527
 20
-2482.169368804579
 30
0.0
 11
647.7730280780527
 21
-2533.477794001429
 31
0.0
  0
LINE
  5
383
  8
回02-寸法
  6
CONTINUOUS
 62
     5
 10
647.7730280780527
 20
-2475.009368804579
 30
0.0
 11
647.7730280780527
 21
-2480.669368804579
 31
0.0
  0
INSERT
  5
384
  8
回02-寸法
  6
CONTINUOUS
 62
     5
 66
     1
  2
_OPEN
 10
647.7730280780527
 20
-2475.009368804579
 30
0.0
 41
1.5
 42
1.5
 43
1.5
 50
270.0
  0
SEQEND
  5
385
  8
回04-図面枠
  6
CONTINUOUS
 62
     1
  0
INSERT
  5
386
  8
回02-寸法
  6
CONTINUOUS
 62
     5
 66
     1
  2
_OPEN
 10
647.7730280780527
 20
-2480.669368804579
 30
0.0
 41
1.5
 42
1.5
 43
1.5
 50
90.0
  0
SEQEND
  5
387
  8
回04-図面枠
  6
CONTINUOUS
 62
     1
  0
TEXT
  5
388
  8
回02-寸法
  6
CONTINUOUS
 62
     5
 10
647.0680280780517
 20
-2533.577794001429
 30
0.0
 40
4.0
  1
5.66(Insulation Area)
 50
90.0
1001
ACAD
1000
MTEXTBEGIN
1070
    73
1070
     1
1070
    44
1040
1.0
1070
    74
1070
     0
1000
MTEXTEND
  0
POINT
  5
389
  8
DEFPOINTS
  6
CONTINUOUS
 62
     0
 10
589.4593464239371
 20
-2475.009368804579
 30
0.0
  0
POINT
  5
38A
  8
DEFPOINTS
  6
CONTINUOUS
 62
     0
 10
593.9593464239371
 20
-2480.669368804579
 30
0.0
  0
POINT
  5
38B
  8
DEFPOINTS
  6
CONTINUOUS
 62
     0
 10
647.7730280780527
 20
-2480.669368804579
 30
0.0
  0
ENDBLK
  5
38C
  8
0
 62
     1
  0
BLOCK
  8
0
  2
*D2424
 70
     1
 10
0.0
 20
0.0
 30
0.0
  3
*D2424
  1

  0
LINE
  5
36E
  8
回02-寸法
  6
CONTINUOUS
 62
     5
 10
586.9593464239368
 20
-2353.629368804578
 30
0.0
 11
586.9593464239368
 21
-2309.598709935699
 31
0.0
  0
LINE
  5
36F
  8
回02-寸法
  6
CONTINUOUS
 62
     5
 10
593.9593464239368
 20
-2345.169368804578
 30
0.0
 11
593.9593464239368
 21
-2309.598709935699
 31
0.0
  0
LINE
  5
370
  8
回02-寸法
  6
CONTINUOUS
 62
     5
 10
585.4593464239368
 20
-2310.598709935699
 30
0.0
 11
583.9593464239368
 21
-2310.598709935699
 31
0.0
  0
LINE
  5
371
  8
回02-寸法
  6
CONTINUOUS
 62
     5
 10
595.4593464239368
 20
-2310.598709935699
 30
0.0
 11
602.8562827782971
 21
-2310.598709935699
 31
0.0
  0
LINE
  5
372
  8
回02-寸法
  6
CONTINUOUS
 62
     5
 10
586.9593464239368
 20
-2310.598709935699
 30
0.0
 11
593.9593464239368
 21
-2310.598709935699
 31
0.0
  0
INSERT
  5
373
  8
回02-寸法
  6
CONTINUOUS
 62
     5
 66
     1
  2
_OPEN
 10
586.9593464239368
 20
-2310.598709935699
 30
0.0
 41
1.5
 42
1.5
 43
1.5
  0
SEQEND
  5
374
  8
回04-図面枠
  6
CONTINUOUS
 62
     1
  0
INSERT
  5
375
  8
回02-寸法
  6
CONTINUOUS
 62
     5
 66
     1
  2
_OPEN
 10
593.9593464239368
 20
-2310.598709935699
 30
0.0
 41
1.5
 42
1.5
 43
1.5
 50
180.0
  0
SEQEND
  5
376
  8
回04-図面枠
  6
CONTINUOUS
 62
     1
  0
TEXT
  5
377
  8
回02-寸法
  6
CONTINUOUS
 62
     5
 10
596.9578575814469
 20
-2309.8987099357
 30
0.0
 40
4.0
  1
(7)
1001
ACAD
1000
MTEXTBEGIN
1070
    73
1070
     1
1070
    44
1040
1.0
1070
    74
1070
     0
1000
MTEXTEND
  0
POINT
  5
378
  8
DEFPOINTS
  6
CONTINUOUS
 62
     0
 10
586.9593464239368
 20
-2353.629368804578
 30
0.0
  0
POINT
  5
379
  8
DEFPOINTS
  6
CONTINUOUS
 62
     0
 10
593.9593464239368
 20
-2345.169368804578
 30
0.0
  0
POINT
  5
37A
  8
DEFPOINTS
  6
CONTINUOUS
 62
     0
 10
593.9593464239368
 20
-2310.598709935699
 30
0.0
  0
ENDBLK
  5
37B
  8
0
 62
     1
  0
BLOCK
  8
0
  2
*D2525
 70
     1
 10
0.0
 20
0.0
 30
0.0
  3
*D2525
  1

  0
LINE
  5
35D
  8
回02-寸法
  6
CONTINUOUS
 62
     5
 10
588.9593464239368
 20
-2351.629368804578
 30
0.0
 11
588.9593464239368
 21
-2302.152081679008
 31
0.0
  0
LINE
  5
35E
  8
回02-寸法
  6
CONTINUOUS
 62
     5
 10
593.9593464239368
 20
-2345.169368804578
 30
0.0
 11
593.9593464239368
 21
-2302.152081679008
 31
0.0
  0
LINE
  5
35F
  8
回02-寸法
  6
CONTINUOUS
 62
     5
 10
587.4593464239368
 20
-2303.152081679008
 30
0.0
 11
585.9593464239368
 21
-2303.152081679008
 31
0.0
  0
LINE
  5
360
  8
回02-寸法
  6
CONTINUOUS
 62
     5
 10
595.4593464239368
 20
-2303.152081679008
 30
0.0
 11
602.7561968176378
 21
-2303.152081679008
 31
0.0
  0
LINE
  5
361
  8
回02-寸法
  6
CONTINUOUS
 62
     5
 10
588.9593464239368
 20
-2303.152081679008
 30
0.0
 11
593.9593464239368
 21
-2303.152081679008
 31
0.0
  0
INSERT
  5
362
  8
回02-寸法
  6
CONTINUOUS
 62
     5
 66
     1
  2
_OPEN
 10
588.9593464239368
 20
-2303.152081679008
 30
0.0
 41
1.5
 42
1.5
 43
1.5
  0
SEQEND
  5
363
  8
回04-図面枠
  6
CONTINUOUS
 62
     1
  0
INSERT
  5
364
  8
回02-寸法
  6
CONTINUOUS
 62
     5
 66
     1
  2
_OPEN
 10
593.9593464239368
 20
-2303.152081679008
 30
0.0
 41
1.5
 42
1.5
 43
1.5
 50
180.0
  0
SEQEND
  5
365
  8
回04-図面枠
  6
CONTINUOUS
 62
     1
  0
TEXT
  5
366
  8
回02-寸法
  6
CONTINUOUS
 62
     5
 10
596.8577716207874
 20
-2302.452081679009
 30
0.0
 40
4.0
  1
(5)
1001
ACAD
1000
MTEXTBEGIN
1070
    73
1070
     1
1070
    44
1040
1.0
1070
    74
1070
     0
1000
MTEXTEND
  0
POINT
  5
367
  8
DEFPOINTS
  6
CONTINUOUS
 62
     0
 10
588.9593464239368
 20
-2351.629368804578
 30
0.0
  0
POINT
  5
368
  8
DEFPOINTS
  6
CONTINUOUS
 62
     0
 10
593.9593464239368
 20
-2345.169368804578
 30
0.0
  0
POINT
  5
369
  8
DEFPOINTS
  6
CONTINUOUS
 62
     0
 10
593.9593464239368
 20
-2303.152081679008
 30
0.0
  0
ENDBLK
  5
36A
  8
0
 62
     1
  0
BLOCK
  8
0
  2
*D2626
 70
     1
 10
0.0
 20
0.0
 30
0.0
  3
*D2626
  1

  0
LINE
  5
34C
  8
回02-寸法
  6
CONTINUOUS
 62
     5
 10
589.459346423937
 20
-2350.829368804578
 30
0.0
 11
589.459346423937
 21
-2295.126894886376
 31
0.0
  0
LINE
  5
34D
  8
回02-寸法
  6
CONTINUOUS
 62
     5
 10
593.9593464239368
 20
-2345.169368804578
 30
0.0
 11
593.9593464239368
 21
-2295.126894886376
 31
0.0
  0
LINE
  5
34E
  8
回02-寸法
  6
CONTINUOUS
 62
     5
 10
587.9593464239368
 20
-2296.126894886376
 30
0.0
 11
586.4593464239368
 21
-2296.126894886376
 31
0.0
  0
LINE
  5
34F
  8
回02-寸法
  6
CONTINUOUS
 62
     5
 10
595.4593464239368
 20
-2296.126894886376
 30
0.0
 11
607.1561968176378
 21
-2296.126894886376
 31
0.0
  0
LINE
  5
350
  8
回02-寸法
  6
CONTINUOUS
 62
     5
 10
589.459346423937
 20
-2296.126894886376
 30
0.0
 11
593.9593464239368
 21
-2296.126894886376
 31
0.0
  0
INSERT
  5
351
  8
回02-寸法
  6
CONTINUOUS
 62
     5
 66
     1
  2
_OPEN
 10
589.459346423937
 20
-2296.126894886376
 30
0.0
 41
1.5
 42
1.5
 43
1.5
  0
SEQEND
  5
352
  8
回04-図面枠
  6
CONTINUOUS
 62
     1
  0
INSERT
  5
353
  8
回02-寸法
  6
CONTINUOUS
 62
     5
 66
     1
  2
_OPEN
 10
593.9593464239368
 20
-2296.126894886376
 30
0.0
 41
1.5
 42
1.5
 43
1.5
 50
180.0
  0
SEQEND
  5
354
  8
回04-図面枠
  6
CONTINUOUS
 62
     1
  0
TEXT
  5
355
  8
回02-寸法
  6
CONTINUOUS
 62
     5
 10
596.8577716207874
 20
-2295.426894886376
 30
0.0
 40
4.0
  1
(4.5)
1001
ACAD
1000
MTEXTBEGIN
1070
    73
1070
     1
1070
    44
1040
1.0
1070
    74
1070
     0
1000
MTEXTEND
  0
POINT
  5
356
  8
DEFPOINTS
  6
CONTINUOUS
 62
     0
 10
589.459346423937
 20
-2350.829368804578
 30
0.0
  0
POINT
  5
357
  8
DEFPOINTS
  6
CONTINUOUS
 62
     0
 10
593.9593464239368
 20
-2345.169368804578
 30
0.0
  0
POINT
  5
358
  8
DEFPOINTS
  6
CONTINUOUS
 62
     0
 10
593.9593464239368
 20
-2296.126894886376
 30
0.0
  0
ENDBLK
  5
359
  8
0
 62
     1
  0
BLOCK
  8
0
  2
*D2727
 70
     1
 10
0.0
 20
0.0
 30
0.0
  3
*D2727
  1

  0
LINE
  5
33B
  8
回02-寸法
  6
CONTINUOUS
 62
     5
 10
387.159346423937
 20
-2350.829368804578
 30
0.0
 11
387.159346423937
 21
-2295.126894886376
 31
0.0
  0
LINE
  5
33C
  8
回02-寸法
  6
CONTINUOUS
 62
     5
 10
379.7593464239369
 20
-2345.169368804578
 30
0.0
 11
379.7593464239369
 21
-2295.126894886376
 31
0.0
  0
LINE
  5
33D
  8
回02-寸法
  6
CONTINUOUS
 62
     5
 10
388.659346423937
 20
-2296.126894886376
 30
0.0
 11
390.159346423937
 21
-2296.126894886376
 31
0.0
  0
LINE
  5
33E
  8
回02-寸法
  6
CONTINUOUS
 62
     5
 10
378.2593464239369
 20
-2296.126894886376
 30
0.0
 11
329.3509212270865
 21
-2296.126894886376
 31
0.0
  0
LINE
  5
33F
  8
回02-寸法
  6
CONTINUOUS
 62
     5
 10
387.159346423937
 20
-2296.126894886376
 30
0.0
 11
379.7593464239369
 21
-2296.126894886376
 31
0.0
  0
INSERT
  5
340
  8
回02-寸法
  6
CONTINUOUS
 62
     5
 66
     1
  2
_OPEN
 10
387.159346423937
 20
-2296.126894886376
 30
0.0
 41
1.5
 42
1.5
 43
1.5
 50
180.0
  0
SEQEND
  5
341
  8
回04-図面枠
  6
CONTINUOUS
 62
     1
  0
INSERT
  5
342
  8
回02-寸法
  6
CONTINUOUS
 62
     5
 66
     1
  2
_OPEN
 10
379.7593464239369
 20
-2296.126894886376
 30
0.0
 41
1.5
 42
1.5
 43
1.5
  0
SEQEND
  5
343
  8
回04-図面枠
  6
CONTINUOUS
 62
     1
  0
TEXT
  5
344
  8
回02-寸法
  6
CONTINUOUS
 62
     5
 10
329.2509212270865
 20
-2295.421894886376
 30
0.0
 40
4.0
  1
7.4(Insulation Area)
1001
ACAD
1000
MTEXTBEGIN
1070
    73
1070
     1
1070
    44
1040
1.0
1070
    74
1070
     0
1000
MTEXTEND
  0
POINT
  5
345
  8
DEFPOINTS
  6
CONTINUOUS
 62
     0
 10
387.159346423937
 20
-2350.829368804578
 30
0.0
  0
POINT
  5
346
  8
DEFPOINTS
  6
CONTINUOUS
 62
     0
 10
379.7593464239369
 20
-2345.169368804578
 30
0.0
  0
POINT
  5
347
  8
DEFPOINTS
  6
CONTINUOUS
 62
     0
 10
379.7593464239369
 20
-2296.126894886376
 30
0.0
  0
ENDBLK
  5
348
  8
0
 62
     1
  0
BLOCK
  8
0
  2
*D2828
 70
     1
 10
0.0
 20
0.0
 30
0.0
  3
*D2828
  1

  0
LINE
  5
328
  8
回02-寸法
  6
CONTINUOUS
 62
     5
 10
375.5674165155723
 20
-2404.909707224704
 30
0.0
 11
351.1976585881344
 21
-2404.909707224704
 31
0.0
  0
LINE
  5
329
  8
回02-寸法
  6
CONTINUOUS
 62
     5
 10
375.5715901012782
 20
-2420.908504190432
 30
0.0
 11
351.1976585881344
 21
-2420.908504190432
 31
0.0
  0
LINE
  5
32A
  8
回02-寸法
  6
CONTINUOUS
 62
     5
 10
352.1976585881344
 20
-2402.909707224704
 30
0.0
 11
352.1976585881344
 21
-2400.909707224704
 31
0.0
  0
LINE
  5
32B
  8
回02-寸法
  6
CONTINUOUS
 62
     5
 10
352.1976585881344
 20
-2422.908504190433
 30
0.0
 11
352.1976585881344
 21
-2432.618581602721
 31
0.0
  0
LINE
  5
32C
  8
回02-寸法
  6
CONTINUOUS
 62
     5
 10
352.1976585881344
 20
-2404.909707224704
 30
0.0
 11
352.1976585881344
 21
-2420.908504190432
 31
0.0
  0
INSERT
  5
32D
  8
回02-寸法
  6
CONTINUOUS
 62
     5
 66
     1
  2
_OPEN
 10
352.1976585881344
 20
-2404.909707224704
 30
0.0
 41
2.0
 42
2.0
 43
2.0
 50
270.0
  0
SEQEND
  5
32E
  8
回04-図面枠
  6
CONTINUOUS
 62
     1
  0
INSERT
  5
32F
  8
回02-寸法
  6
CONTINUOUS
 62
     5
 66
     1
  2
_OPEN
 10
352.1976585881344
 20
-2420.908504190432
 30
0.0
 41
2.0
 42
2.0
 43
2.0
 50
90.0
  0
SEQEND
  5
330
  8
回04-図面枠
  6
CONTINUOUS
 62
     1
  0
TEXT
  5
331
  8
回02-寸法
  6
CONTINUOUS
 62
     5
 10
351.6976585881334
 20
-2432.621039061162
 30
0.0
 40
4.0
  1
16
 50
90.0
1001
ACAD
1000
MTEXTBEGIN
1070
    73
1070
     1
1070
    44
1040
1.0
1070
    74
1070
     0
1000
MTEXTEND
  0
POINT
  5
332
  8
DEFPOINTS
  6
CONTINUOUS
 62
     0
 10
375.5674165155723
 20
-2404.909707224704
 30
0.0
  0
POINT
  5
333
  8
DEFPOINTS
  6
CONTINUOUS
 62
     0
 10
375.5715901012782
 20
-2420.908504190432
 30
0.0
  0
POINT
  5
334
  8
DEFPOINTS
  6
CONTINUOUS
 62
     0
 10
352.1976585881344
 20
-2420.908504190432
 30
0.0
  0
ENDBLK
  5
335
  8
0
 62
     1
  0
BLOCK
  8
0
  2
*D2929
 70
     1
 10
0.0
 20
0.0
 30
0.0
  3
*D2929
  1

  0
LINE
  5
318
  8
回02-寸法
  6
CONTINUOUS
 62
     5
 10
300.2593029367589
 20
-2416.033504190433
 30
0.0
 11
288.3162578649979
 21
-2416.033504190433
 31
0.0
  0
LINE
  5
319
  8
回02-寸法
  6
CONTINUOUS
 62
     5
 10
379.7593464239373
 20
-2480.669368804579
 30
0.0
 11
288.3162578649979
 21
-2480.669368804579
 31
0.0
  0
LINE
  5
31A
  8
回02-寸法
  6
CONTINUOUS
 62
     5
 10
289.3162578649978
 20
-2417.533504190434
 30
0.0
 11
289.3162578649978
 21
-2479.169368804579
 31
0.0
  0
INSERT
  5
31B
  8
回02-寸法
  6
CONTINUOUS
 62
     5
 66
     1
  2
_OPEN
 10
289.3162578649978
 20
-2416.033504190433
 30
0.0
 41
1.5
 42
1.5
 43
1.5
 50
90.0
  0
SEQEND
  5
31C
  8
回04-図面枠
  6
CONTINUOUS
 62
     1
  0
INSERT
  5
31D
  8
回02-寸法
  6
CONTINUOUS
 62
     5
 66
     1
  2
_OPEN
 10
289.316257864998
 20
-2480.669368804579
 30
0.0
 41
1.5
 42
1.5
 43
1.5
 50
270.0
  0
SEQEND
  5
31E
  8
回04-図面枠
  6
CONTINUOUS
 62
     1
  0
TEXT
  5
31F
  8
回02-寸法
  6
CONTINUOUS
 62
     5
 10
288.6162578649973
 20
-2456.551436497505
 30
0.0
 40
4.0
  1
(64.64)
 50
90.0
1001
ACAD
1000
MTEXTBEGIN
1070
    73
1070
     1
1070
    44
1040
1.0
1070
    74
1070
     0
1000
MTEXTEND
  0
POINT
  5
320
  8
DEFPOINTS
  6
CONTINUOUS
 62
     0
 10
300.2593029367589
 20
-2416.033504190433
 30
0.0
  0
POINT
  5
321
  8
DEFPOINTS
  6
CONTINUOUS
 62
     0
 10
379.7593464239373
 20
-2480.669368804579
 30
0.0
  0
POINT
  5
322
  8
DEFPOINTS
  6
CONTINUOUS
 62
     0
 10
289.316257864998
 20
-2480.669368804579
 30
0.0
  0
ENDBLK
  5
323
  8
0
 62
     1
  0
BLOCK
  8
0
  2
*D3030
 70
     1
 10
0.0
 20
0.0
 30
0.0
  3
*D3030
  1

  0
LINE
  5
309
  8
回02-寸法
  6
CONTINUOUS
 62
     5
 10
379.7593464239365
 20
-2404.231379646241
 30
0.0
 11
379.7593464239365
 21
-2382.003123335451
 31
0.0
  0
LINE
  5
30A
  8
回02-寸法
  6
CONTINUOUS
 62
     5
 10
299.7593029131692
 20
-2410.283504190431
 30
0.0
 11
299.7593029131692
 21
-2382.003123335451
 31
0.0
  0
LINE
  5
30B
  8
回02-寸法
  6
CONTINUOUS
 62
     5
 10
378.2593464239365
 20
-2383.003123335451
 30
0.0
 11
301.2593029131692
 21
-2383.003123335451
 31
0.0
  0
INSERT
  5
30C
  8
回02-寸法
  6
CONTINUOUS
 62
     5
 66
     1
  2
_OPEN
 10
379.7593464239365
 20
-2383.003123335451
 30
0.0
 41
1.5
 42
1.5
 43
1.5
  0
SEQEND
  5
30D
  8
回04-図面枠
  6
CONTINUOUS
 62
     1
  0
INSERT
  5
30E
  8
回02-寸法
  6
CONTINUOUS
 62
     5
 66
     1
  2
_OPEN
 10
299.7593029131692
 20
-2383.003123335451
 30
0.0
 41
1.5
 42
1.5
 43
1.5
 50
180.0
  0
SEQEND
  5
30F
  8
回04-図面枠
  6
CONTINUOUS
 62
     1
  0
INSERT
  5
310
  8
回02-寸法
  6
CONTINUOUS
 62
     5
 66
     1
  2
*X9393
 10
0.0
 20
0.0
 30
0.0
  0
SEQEND
  5
71D
  8
回04-図面枠
  6
CONTINUOUS
 62
     1
  0
POINT
  5
311
  8
DEFPOINTS
  6
CONTINUOUS
 62
     0
 10
379.7593464239365
 20
-2404.231379646241
 30
0.0
  0
POINT
  5
312
  8
DEFPOINTS
  6
CONTINUOUS
 62
     0
 10
299.7593029131692
 20
-2410.283504190431
 30
0.0
  0
POINT
  5
313
  8
DEFPOINTS
  6
CONTINUOUS
 62
     0
 10
299.7593029131692
 20
-2383.003123335451
 30
0.0
  0
ENDBLK
  5
314
  8
0
 62
     1
  0
BLOCK
  8
0
  2
*D3131
 70
     1
 10
0.0
 20
0.0
 30
0.0
  3
*D3131
  1

  0
LINE
  5
19D
  8
回02-寸法
  6
CONTINUOUS
 62
     5
 10
524.3093464239374
 20
-2436.919368804579
 30
0.0
 11
535.4359820397246
 21
-2436.919368804579
 31
0.0
  0
LINE
  5
19E
  8
回02-寸法
  6
CONTINUOUS
 62
     5
 10
524.3093464239374
 20
-2440.919368804579
 30
0.0
 11
535.4359820397246
 21
-2440.919368804579
 31
0.0
  0
LINE
  5
19F
  8
回02-寸法
  6
CONTINUOUS
 62
     5
 10
534.4359820397246
 20
-2435.419368804579
 30
0.0
 11
534.4359820397246
 21
-2433.919368804579
 31
0.0
  0
LINE
  5
1A0
  8
回02-寸法
  6
CONTINUOUS
 62
     5
 10
534.4359820397246
 20
-2442.419368804579
 30
0.0
 11
534.4359820397246
 21
-2446.919368804579
 31
0.0
  0
LINE
  5
1A1
  8
回02-寸法
  6
CONTINUOUS
 62
     5
 10
534.4359820397246
 20
-2436.919368804579
 30
0.0
 11
534.4359820397246
 21
-2440.919368804579
 31
0.0
  0
INSERT
  5
1A2
  8
回02-寸法
  6
CONTINUOUS
 62
     5
 66
     1
  2
_OPEN
 10
534.4359820397246
 20
-2436.919368804579
 30
0.0
 41
1.5
 42
1.5
 43
1.5
 50
270.0
  0
SEQEND
  5
1A3
  8
回04-図面枠
  6
CONTINUOUS
 62
     1
  0
INSERT
  5
1A4
  8
回02-寸法
  6
CONTINUOUS
 62
     5
 66
     1
  2
_OPEN
 10
534.4359820397246
 20
-2440.919368804579
 30
0.0
 41
1.5
 42
1.5
 43
1.5
 50
90.0
  0
SEQEND
  5
1A5
  8
回04-図面枠
  6
CONTINUOUS
 62
     1
  0
TEXT
  5
1A6
  8
回02-寸法
  6
CONTINUOUS
 62
     5
 10
533.9359820397238
 20
-2447.019368804578
 30
0.0
 40
4.0
  1
4
 50
90.0
1001
ACAD
1000
MTEXTBEGIN
1070
    73
1070
     1
1070
    44
1040
1.0
1070
    74
1070
     0
1000
MTEXTEND
  0
POINT
  5
1A7
  8
DEFPOINTS
  6
CONTINUOUS
 62
     0
 10
524.3093464239374
 20
-2436.919368804579
 30
0.0
  0
POINT
  5
1A8
  8
DEFPOINTS
  6
CONTINUOUS
 62
     0
 10
524.3093464239374
 20
-2440.919368804579
 30
0.0
  0
POINT
  5
1A9
  8
DEFPOINTS
  6
CONTINUOUS
 62
     0
 10
534.4359820397246
 20
-2440.919368804579
 30
0.0
  0
ENDBLK
  5
1AA
  8
0
 62
     1
  0
BLOCK
  8
0
  2
*D3232
 70
     1
 10
0.0
 20
0.0
 30
0.0
  3
*D3232
  1

  0
LINE
  5
18C
  8
回02-寸法
  6
CONTINUOUS
 62
     5
 10
516.3093464239372
 20
-2448.919368804578
 30
0.0
 11
516.3093464239372
 21
-2458.094592285231
 31
0.0
  0
LINE
  5
18D
  8
回02-寸法
  6
CONTINUOUS
 62
     5
 10
520.3093464239372
 20
-2448.919368804578
 30
0.0
 11
520.3093464239372
 21
-2458.094592285231
 31
0.0
  0
LINE
  5
18E
  8
回02-寸法
  6
CONTINUOUS
 62
     5
 10
514.8093464239372
 20
-2457.094592285231
 30
0.0
 11
513.3093464239371
 21
-2457.094592285231
 31
0.0
  0
LINE
  5
18F
  8
回02-寸法
  6
CONTINUOUS
 62
     5
 10
521.8093464239371
 20
-2457.094592285231
 30
0.0
 11
526.3093464239371
 21
-2457.094592285231
 31
0.0
  0
LINE
  5
190
  8
回02-寸法
  6
CONTINUOUS
 62
     5
 10
516.3093464239372
 20
-2457.094592285231
 30
0.0
 11
520.3093464239372
 21
-2457.094592285231
 31
0.0
  0
INSERT
  5
191
  8
回02-寸法
  6
CONTINUOUS
 62
     5
 66
     1
  2
_OPEN
 10
516.3093464239372
 20
-2457.094592285231
 30
0.0
 41
1.5
 42
1.5
 43
1.5
  0
SEQEND
  5
192
  8
回04-図面枠
  6
CONTINUOUS
 62
     1
  0
INSERT
  5
193
  8
回02-寸法
  6
CONTINUOUS
 62
     5
 66
     1
  2
_OPEN
 10
520.3093464239372
 20
-2457.094592285231
 30
0.0
 41
1.5
 42
1.5
 43
1.5
 50
180.0
  0
SEQEND
  5
194
  8
回04-図面枠
  6
CONTINUOUS
 62
     1
  0
TEXT
  5
195
  8
回02-寸法
  6
CONTINUOUS
 62
     5
 10
523.2093464239372
 20
-2456.594592285231
 30
0.0
 40
4.0
  1
4
1001
ACAD
1000
MTEXTBEGIN
1070
    73
1070
     1
1070
    44
1040
1.0
1070
    74
1070
     0
1000
MTEXTEND
  0
POINT
  5
196
  8
DEFPOINTS
  6
CONTINUOUS
 62
     0
 10
516.3093464239372
 20
-2448.919368804578
 30
0.0
  0
POINT
  5
197
  8
DEFPOINTS
  6
CONTINUOUS
 62
     0
 10
520.3093464239372
 20
-2448.919368804578
 30
0.0
  0
POINT
  5
198
  8
DEFPOINTS
  6
CONTINUOUS
 62
     0
 10
520.3093464239372
 20
-2457.094592285231
 30
0.0
  0
ENDBLK
  5
199
  8
0
 62
     1
  0
BLOCK
  8
0
  2
*D3333
 70
     1
 10
0.0
 20
0.0
 30
0.0
  3
*D3333
  1

  0
LINE
  5
E7
  8
回02-寸法
  6
CONTINUOUS
 62
     5
 10
389.659346423937
 20
-2353.629368804577
 30
0.0
 11
389.659346423937
 21
-2309.598709935698
 31
0.0
  0
LINE
  5
E8
  8
回02-寸法
  6
CONTINUOUS
 62
     5
 10
586.9593464239368
 20
-2353.629368804577
 30
0.0
 11
586.9593464239368
 21
-2309.598709935698
 31
0.0
  0
LINE
  5
E9
  8
回02-寸法
  6
CONTINUOUS
 62
     5
 10
391.159346423937
 20
-2310.598709935698
 30
0.0
 11
585.4593464239368
 21
-2310.598709935698
 31
0.0
  0
INSERT
  5
EA
  8
回02-寸法
  6
CONTINUOUS
 62
     5
 66
     1
  2
_OPEN
 10
389.659346423937
 20
-2310.598709935698
 30
0.0
 41
1.5
 42
1.5
 43
1.5
 50
180.0
  0
SEQEND
  5
EB
  8
回04-図面枠
  6
CONTINUOUS
 62
     1
  0
INSERT
  5
EC
  8
回02-寸法
  6
CONTINUOUS
 62
     5
 66
     1
  2
_OPEN
 10
586.9593464239368
 20
-2310.598709935698
 30
0.0
 41
1.5
 42
1.5
 43
1.5
  0
SEQEND
  5
ED
  8
回04-図面枠
  6
CONTINUOUS
 62
     1
  0
INSERT
  5
EE
  8
回02-寸法
  6
CONTINUOUS
 62
     5
 66
     1
  2
*X9494
 10
0.0
 20
0.0
 30
0.0
  0
SEQEND
  5
723
  8
回04-図面枠
  6
CONTINUOUS
 62
     1
  0
POINT
  5
EF
  8
DEFPOINTS
  6
CONTINUOUS
 62
     0
 10
389.659346423937
 20
-2353.629368804577
 30
0.0
  0
POINT
  5
F0
  8
DEFPOINTS
  6
CONTINUOUS
 62
     0
 10
586.9593464239368
 20
-2353.629368804577
 30
0.0
  0
POINT
  5
F1
  8
DEFPOINTS
  6
CONTINUOUS
 62
     0
 10
586.9593464239368
 20
-2310.598709935698
 30
0.0
  0
ENDBLK
  5
F2
  8
0
 62
     1
  0
BLOCK
  8
0
  2
*D3434
 70
     1
 10
0.0
 20
0.0
 30
0.0
  3
*D3434
  1

  0
LINE
  5
D6
  8
回02-寸法
  6
CONTINUOUS
 62
     5
 10
302.4185902224524
 20
-2335.702492515347
 30
0.0
 11
271.9993901172316
 21
-2335.702492515347
 31
0.0
  0
LINE
  5
D7
  8
回02-寸法
  6
CONTINUOUS
 62
     5
 10
302.4185902224524
 20
-2348.202492515346
 30
0.0
 11
271.9993901172316
 21
-2348.202492515346
 31
0.0
  0
LINE
  5
D8
  8
回02-寸法
  6
CONTINUOUS
 62
     5
 10
272.9993901172317
 20
-2333.702492515346
 30
0.0
 11
272.9993901172317
 21
-2331.702492515347
 31
0.0
  0
LINE
  5
D9
  8
回02-寸法
  6
CONTINUOUS
 62
     5
 10
272.9993901172317
 20
-2350.202492515346
 30
0.0
 11
272.9993901172317
 21
-2368.602328082275
 31
0.0
  0
LINE
  5
DA
  8
回02-寸法
  6
CONTINUOUS
 62
     5
 10
272.9993901172317
 20
-2335.702492515347
 30
0.0
 11
272.9993901172317
 21
-2348.202492515346
 31
0.0
  0
INSERT
  5
DB
  8
回02-寸法
  6
CONTINUOUS
 62
     5
 66
     1
  2
_OPEN
 10
272.9993901172317
 20
-2335.702492515347
 30
0.0
 41
2.0
 42
2.0
 43
2.0
 50
270.0
  0
SEQEND
  5
DC
  8
回04-図面枠
  6
CONTINUOUS
 62
     1
  0
INSERT
  5
DD
  8
回02-寸法
  6
CONTINUOUS
 62
     5
 66
     1
  2
_OPEN
 10
272.9993901172317
 20
-2348.202492515346
 30
0.0
 41
2.0
 42
2.0
 43
2.0
 50
90.0
  0
SEQEND
  5
DE
  8
回04-図面枠
  6
CONTINUOUS
 62
     1
  0
INSERT
  5
DF
  8
回02-寸法
  6
CONTINUOUS
 62
     5
 66
     1
  2
*X9595
 10
0.0
 20
0.0
 30
0.0
  0
SEQEND
  5
729
  8
回04-図面枠
  6
CONTINUOUS
 62
     1
  0
POINT
  5
E0
  8
DEFPOINTS
  6
CONTINUOUS
 62
     0
 10
302.4185902224524
 20
-2335.702492515347
 30
0.0
  0
POINT
  5
E1
  8
DEFPOINTS
  6
CONTINUOUS
 62
     0
 10
302.4185902224524
 20
-2348.202492515346
 30
0.0
  0
POINT
  5
E2
  8
DEFPOINTS
  6
CONTINUOUS
 62
     0
 10
272.9993901172317
 20
-2348.202492515346
 30
0.0
  0
ENDBLK
  5
E3
  8
0
 62
     1
  0
BLOCK
  8
0
  2
*D3535
 70
     1
 10
0.0
 20
0.0
 30
0.0
  3
*D3535
  1

  0
LINE
  5
BC
  8
回02-寸法
  6
CONTINUOUS
 62
     5
 10
298.5190611326422
 20
-2343.202492515351
 30
0.0
 11
285.4540774037547
 21
-2343.202492515351
 31
0.0
  0
LINE
  5
BD
  8
回02-寸法
  6
CONTINUOUS
 62
     5
 10
298.5190611326422
 20
-2345.702492515351
 30
0.0
 11
285.4540774037547
 21
-2345.702492515351
 31
0.0
  0
LINE
  5
BE
  8
回02-寸法
  6
CONTINUOUS
 62
     5
 10
286.4540774037547
 20
-2341.202492515351
 30
0.0
 11
286.4540774037547
 21
-2339.202492515351
 31
0.0
  0
LINE
  5
BF
  8
回02-寸法
  6
CONTINUOUS
 62
     5
 10
286.4540774037547
 20
-2347.702492515351
 30
0.0
 11
286.4540774037547
 21
-2366.602658564957
 31
0.0
  0
LINE
  5
C0
  8
回02-寸法
  6
CONTINUOUS
 62
     5
 10
286.4540774037547
 20
-2343.202492515351
 30
0.0
 11
286.4540774037547
 21
-2345.702492515351
 31
0.0
  0
INSERT
  5
C1
  8
回02-寸法
  6
CONTINUOUS
 62
     5
 66
     1
  2
_OPEN
 10
286.4540774037547
 20
-2343.202492515351
 30
0.0
 41
2.0
 42
2.0
 43
2.0
 50
270.0
  0
SEQEND
  5
C2
  8
回04-図面枠
  6
CONTINUOUS
 62
     1
  0
INSERT
  5
C3
  8
回02-寸法
  6
CONTINUOUS
 62
     5
 66
     1
  2
_OPEN
 10
286.4540774037547
 20
-2345.702492515351
 30
0.0
 41
2.0
 42
2.0
 43
2.0
 50
90.0
  0
SEQEND
  5
C4
  8
回04-図面枠
  6
CONTINUOUS
 62
     1
  0
INSERT
  5
C5
  8
回02-寸法
  6
CONTINUOUS
 62
     5
 66
     1
  2
*X9696
 10
0.0
 20
0.0
 30
0.0
  0
SEQEND
  5
72F
  8
回04-図面枠
  6
CONTINUOUS
 62
     1
  0
POINT
  5
C6
  8
DEFPOINTS
  6
CONTINUOUS
 62
     0
 10
298.5190611326422
 20
-2343.202492515351
 30
0.0
  0
POINT
  5
C7
  8
DEFPOINTS
  6
CONTINUOUS
 62
     0
 10
298.5190611326422
 20
-2345.702492515351
 30
0.0
  0
POINT
  5
C8
  8
DEFPOINTS
  6
CONTINUOUS
 62
     0
 10
286.4540774037547
 20
-2345.702492515351
 30
0.0
  0
ENDBLK
  5
C9
  8
0
 62
     1
  0
BLOCK
  8
0
  2
*D3636
 70
     1
 10
0.0
 20
0.0
 30
0.0
  3
*D3636
  1

  0
LINE
  5
AB
  8
回02-寸法
  6
CONTINUOUS
 62
     5
 10
301.4185032009168
 20
-2345.002492515351
 30
0.0
 11
292.2187149966072
 21
-2345.002492515351
 31
0.0
  0
LINE
  5
AC
  8
回02-寸法
  6
CONTINUOUS
 62
     5
 10
301.4185032009168
 20
-2346.402492515351
 30
0.0
 11
292.2187149966072
 21
-2346.402492515351
 31
0.0
  0
LINE
  5
AD
  8
回02-寸法
  6
CONTINUOUS
 62
     5
 10
293.2187149966072
 20
-2343.002492515351
 30
0.0
 11
293.2187149966072
 21
-2341.002492515351
 31
0.0
  0
LINE
  5
AE
  8
回02-寸法
  6
CONTINUOUS
 62
     5
 10
293.2187149966072
 20
-2348.402492515351
 30
0.0
 11
293.2187149966072
 21
-2370.435798515351
 31
0.0
  0
LINE
  5
AF
  8
回02-寸法
  6
CONTINUOUS
 62
     5
 10
293.2187149966072
 20
-2345.002492515351
 30
0.0
 11
293.2187149966072
 21
-2346.402492515351
 31
0.0
  0
INSERT
  5
B0
  8
回02-寸法
  6
CONTINUOUS
 62
     5
 66
     1
  2
_OPEN
 10
293.2187149966072
 20
-2345.002492515351
 30
0.0
 41
2.0
 42
2.0
 43
2.0
 50
270.0
  0
SEQEND
  5
B1
  8
回04-図面枠
  6
CONTINUOUS
 62
     1
  0
INSERT
  5
B2
  8
回02-寸法
  6
CONTINUOUS
 62
     5
 66
     1
  2
_OPEN
 10
293.2187149966072
 20
-2346.402492515351
 30
0.0
 41
2.0
 42
2.0
 43
2.0
 50
90.0
  0
SEQEND
  5
B3
  8
回04-図面枠
  6
CONTINUOUS
 62
     1
  0
INSERT
  5
B4
  8
回02-寸法
  6
CONTINUOUS
 62
     5
 66
     1
  2
*X9797
 10
0.0
 20
0.0
 30
0.0
  0
SEQEND
  5
735
  8
回04-図面枠
  6
CONTINUOUS
 62
     1
  0
POINT
  5
B5
  8
DEFPOINTS
  6
CONTINUOUS
 62
     0
 10
301.4185032009168
 20
-2345.002492515351
 30
0.0
  0
POINT
  5
B6
  8
DEFPOINTS
  6
CONTINUOUS
 62
     0
 10
301.4185032009168
 20
-2346.402492515351
 30
0.0
  0
POINT
  5
B7
  8
DEFPOINTS
  6
CONTINUOUS
 62
     0
 10
293.2187149966072
 20
-2346.402492515351
 30
0.0
  0
ENDBLK
  5
B8
  8
0
 62
     1
  0
BLOCK
  8
0
  2
*D3737
 70
     1
 10
0.0
 20
0.0
 30
0.0
  3
*D3737
  1

  0
LINE
  5
9A
  8
回02-寸法
  6
CONTINUOUS
 62
     5
 10
298.5190611326422
 20
-2345.702492515351
 30
0.0
 11
279.039339377562
 21
-2345.702492515351
 31
0.0
  0
LINE
  5
9B
  8
回02-寸法
  6
CONTINUOUS
 62
     5
 10
298.5189741111068
 20
-2338.202492515351
 30
0.0
 11
279.039339377562
 21
-2338.202492515351
 31
0.0
  0
LINE
  5
9C
  8
回02-寸法
  6
CONTINUOUS
 62
     5
 10
280.0393393775619
 20
-2336.202492515351
 30
0.0
 11
280.0393393775619
 21
-2334.202492515351
 31
0.0
  0
LINE
  5
9D
  8
回02-寸法
  6
CONTINUOUS
 62
     5
 10
280.0393393775619
 20
-2347.702492515351
 30
0.0
 11
280.0393393775619
 21
-2365.169186515351
 31
0.0
  0
LINE
  5
9E
  8
回02-寸法
  6
CONTINUOUS
 62
     5
 10
280.0393393775619
 20
-2338.202492515351
 30
0.0
 11
280.0393393775619
 21
-2345.702492515351
 31
0.0
  0
INSERT
  5
9F
  8
回02-寸法
  6
CONTINUOUS
 62
     5
 66
     1
  2
_OPEN
 10
280.0393393775619
 20
-2338.202492515351
 30
0.0
 41
2.0
 42
2.0
 43
2.0
 50
270.0
  0
SEQEND
  5
A0
  8
回04-図面枠
  6
CONTINUOUS
 62
     1
  0
INSERT
  5
A1
  8
回02-寸法
  6
CONTINUOUS
 62
     5
 66
     1
  2
_OPEN
 10
280.0393393775619
 20
-2345.702492515351
 30
0.0
 41
2.0
 42
2.0
 43
2.0
 50
90.0
  0
SEQEND
  5
A2
  8
回04-図面枠
  6
CONTINUOUS
 62
     1
  0
INSERT
  5
A3
  8
回02-寸法
  6
CONTINUOUS
 62
     5
 66
     1
  2
*X9898
 10
0.0
 20
0.0
 30
0.0
  0
SEQEND
  5
73B
  8
回04-図面枠
  6
CONTINUOUS
 62
     1
  0
POINT
  5
A4
  8
DEFPOINTS
  6
CONTINUOUS
 62
     0
 10
298.5190611326422
 20
-2345.702492515351
 30
0.0
  0
POINT
  5
A5
  8
DEFPOINTS
  6
CONTINUOUS
 62
     0
 10
298.5189741111068
 20
-2338.202492515351
 30
0.0
  0
POINT
  5
A6
  8
DEFPOINTS
  6
CONTINUOUS
 62
     0
 10
280.0393393775619
 20
-2338.202492515351
 30
0.0
  0
ENDBLK
  5
A7
  8
0
 62
     1
  0
BLOCK
  8
0
  2
*D3838
 70
     1
 10
0.0
 20
0.0
 30
0.0
  3
*D3838
  1

  0
LINE
  5
81
  8
回02-寸法
  6
CONTINUOUS
 62
     5
 10
389.659346423937
 20
-2353.629368804578
 30
0.0
 11
389.659346423937
 21
-2309.598709935699
 31
0.0
  0
LINE
  5
82
  8
回02-寸法
  6
CONTINUOUS
 62
     5
 10
379.7593464239369
 20
-2345.169368804578
 30
0.0
 11
379.7593464239369
 21
-2309.598709935699
 31
0.0
  0
LINE
  5
83
  8
回02-寸法
  6
CONTINUOUS
 62
     5
 10
391.159346423937
 20
-2310.598709935699
 30
0.0
 11
392.659346423937
 21
-2310.598709935699
 31
0.0
  0
LINE
  5
84
  8
回02-寸法
  6
CONTINUOUS
 62
     5
 10
378.2593464239369
 20
-2310.598709935699
 30
0.0
 11
369.7072870829805
 21
-2310.598709935699
 31
0.0
  0
LINE
  5
85
  8
回02-寸法
  6
CONTINUOUS
 62
     5
 10
389.659346423937
 20
-2310.598709935699
 30
0.0
 11
379.7593464239369
 21
-2310.598709935699
 31
0.0
  0
INSERT
  5
86
  8
回02-寸法
  6
CONTINUOUS
 62
     5
 66
     1
  2
_OPEN
 10
389.659346423937
 20
-2310.598709935699
 30
0.0
 41
1.5
 42
1.5
 43
1.5
 50
180.0
  0
SEQEND
  5
87
  8
回04-図面枠
  6
CONTINUOUS
 62
     1
  0
INSERT
  5
88
  8
回02-寸法
  6
CONTINUOUS
 62
     5
 66
     1
  2
_OPEN
 10
379.7593464239369
 20
-2310.598709935699
 30
0.0
 41
1.5
 42
1.5
 43
1.5
  0
SEQEND
  5
89
  8
回04-図面枠
  6
CONTINUOUS
 62
     1
  0
TEXT
  5
8A
  8
回02-寸法
  6
CONTINUOUS
 62
     5
 10
369.8116545422968
 20
-2310.098709935699
 30
0.0
 40
4.0
  1
9.9
1001
ACAD
1000
MTEXTBEGIN
1070
    73
1070
     1
1070
    44
1040
1.0
1070
    74
1070
     0
1000
MTEXTEND
  0
POINT
  5
8B
  8
DEFPOINTS
  6
CONTINUOUS
 62
     0
 10
389.659346423937
 20
-2353.629368804578
 30
0.0
  0
POINT
  5
8D
  8
DEFPOINTS
  6
CONTINUOUS
 62
     0
 10
379.7593464239369
 20
-2345.169368804578
 30
0.0
  0
POINT
  5
8E
  8
DEFPOINTS
  6
CONTINUOUS
 62
     0
 10
379.7593464239369
 20
-2310.598709935699
 30
0.0
  0
ENDBLK
  5
8F
  8
0
 62
     1
  0
BLOCK
  8
回04-図面枠
  2
*D3939
 70
     1
 10
0.0
 20
0.0
 30
0.0
  3
*D3939
  1

  0
LINE
  5
45E
  8
回02-寸法
  6
CONTINUOUS
 62
     5
 10
2197.744288395726
 20
631.8838949526615
 30
0.0
 11
2197.744288395726
 21
675.9145538215407
 31
0.0
  0
LINE
  5
460
  8
回02-寸法
  6
CONTINUOUS
 62
     5
 10
2187.844288395726
 20
640.3438949526615
 30
0.0
 11
2187.844288395726
 21
675.9145538215407
 31
0.0
  0
LINE
  5
461
  8
回02-寸法
  6
CONTINUOUS
 62
     5
 10
2186.344288395726
 20
674.9145538215407
 30
0.0
 11
2178.011037988194
 21
674.9145538215407
 31
0.0
  0
LINE
  5
462
  8
回02-寸法
  6
CONTINUOUS
 62
     5
 10
2197.744288395726
 20
674.9145538215407
 30
0.0
 11
2187.844288395726
 21
674.9145538215407
 31
0.0
  0
LINE
  5
463
  8
回02-寸法
  6
CONTINUOUS
 62
     5
 10
2199.244288395726
 20
674.9145538215407
 30
0.0
 11
2200.744288395726
 21
674.9145538215407
 31
0.0
  0
INSERT
  5
464
  8
回02-寸法
  6
CONTINUOUS
 62
     5
  2
_OPEN
 10
2197.744288395726
 20
674.9145538215407
 30
0.0
 41
1.5
 42
1.5
 43
1.5
 50
180.0
  0
INSERT
  5
465
  8
回02-寸法
  6
CONTINUOUS
 62
     5
  2
_OPEN
 10
2187.844288395726
 20
674.9145538215407
 30
0.0
 41
1.5
 42
1.5
 43
1.5
  0
TEXT
  5
466
  8
回02-寸法
  6
CONTINUOUS
 62
     5
 10
2177.896596514086
 20
675.4145538215407
 30
0.0
 40
4.0
  1
9.9
  0
POINT
  5
467
  8
DEFPOINTS
  6
CONTINUOUS
 62
     0
 10
2197.744288395726
 20
631.8838949526615
 30
0.0
  0
POINT
  5
468
  8
DEFPOINTS
  6
CONTINUOUS
 62
     0
 10
2187.844288395726
 20
640.3438949526615
 30
0.0
  0
POINT
  5
469
  8
DEFPOINTS
  6
CONTINUOUS
 62
     0
 10
2187.844288395726
 20
674.9145538215407
 30
0.0
  0
ENDBLK
  5
46B
  8
回04-図面枠
  6
CONTINUOUS
 62
     1
  0
BLOCK
  8
回04-図面枠
  2
*D4040
 70
     1
 10
0.0
 20
0.0
 30
0.0
  3
*D4040
  1

  0
LINE
  5
46D
  8
回02-寸法
  6
CONTINUOUS
 62
     5
 10
2106.604003104431
 20
639.8107712418894
 30
0.0
 11
2087.12428134935
 21
639.8107712418894
 31
0.0
  0
LINE
  5
46F
  8
回02-寸法
  6
CONTINUOUS
 62
     5
 10
2106.603916082895
 20
647.3107712418896
 30
0.0
 11
2087.12428134935
 21
647.3107712418896
 31
0.0
  0
LINE
  5
470
  8
回02-寸法
  6
CONTINUOUS
 62
     5
 10
2088.12428134935
 20
637.8107712418896
 30
0.0
 11
2088.12428134935
 21
620.3440772418892
 31
0.0
  0
LINE
  5
471
  8
回02-寸法
  6
CONTINUOUS
 62
     5
 10
2088.12428134935
 20
639.8107712418894
 30
0.0
 11
2088.12428134935
 21
647.3107712418896
 31
0.0
  0
LINE
  5
472
  8
回02-寸法
  6
CONTINUOUS
 62
     5
 10
2088.12428134935
 20
649.3107712418896
 30
0.0
 11
2088.12428134935
 21
651.3107712418896
 31
0.0
  0
INSERT
  5
473
  8
回02-寸法
  6
CONTINUOUS
 62
     5
  2
_OPEN
 10
2088.12428134935
 20
639.8107712418894
 30
0.0
 41
2.0
 42
2.0
 43
2.0
 50
90.0
  0
INSERT
  5
474
  8
回02-寸法
  6
CONTINUOUS
 62
     5
  2
_OPEN
 10
2088.12428134935
 20
647.3107712418896
 30
0.0
 41
2.0
 42
2.0
 43
2.0
 50
270.0
  0
INSERT
  5
475
  8
回02-寸法
  6
CONTINUOUS
 62
     5
 66
     1
  2
*X9999
 10
0.0
 20
0.0
 30
0.0
  0
SEQEND
  5
741
  8
回04-図面枠
  6
CONTINUOUS
 62
     1
  0
POINT
  5
476
  8
DEFPOINTS
  6
CONTINUOUS
 62
     0
 10
2106.604003104431
 20
639.8107712418894
 30
0.0
  0
POINT
  5
477
  8
DEFPOINTS
  6
CONTINUOUS
 62
     0
 10
2106.603916082895
 20
647.3107712418896
 30
0.0
  0
POINT
  5
478
  8
DEFPOINTS
  6
CONTINUOUS
 62
     0
 10
2088.12428134935
 20
647.3107712418896
 30
0.0
  0
ENDBLK
  5
47A
  8
回04-図面枠
  6
CONTINUOUS
 62
     1
  0
BLOCK
  8
回04-図面枠
  2
*D4141
 70
     1
 10
0.0
 20
0.0
 30
0.0
  3
*D4141
  1

  0
LINE
  5
47C
  8
回02-寸法
  6
CONTINUOUS
 62
     5
 10
2109.503445172705
 20
640.5107712418892
 30
0.0
 11
2100.303656968396
 21
640.5107712418892
 31
0.0
  0
LINE
  5
47D
  8
回02-寸法
  6
CONTINUOUS
 62
     5
 10
2109.503445172705
 20
639.1107712418897
 30
0.0
 11
2100.303656968396
 21
639.1107712418897
 31
0.0
  0
LINE
  5
47E
  8
回02-寸法
  6
CONTINUOUS
 62
     5
 10
2101.303656968396
 20
637.1107712418897
 30
0.0
 11
2101.303656968396
 21
615.0774652418895
 31
0.0
  0
LINE
  5
47F
  8
回02-寸法
  6
CONTINUOUS
 62
     5
 10
2101.303656968396
 20
640.5107712418892
 30
0.0
 11
2101.303656968396
 21
639.1107712418897
 31
0.0
  0
LINE
  5
480
  8
回02-寸法
  6
CONTINUOUS
 62
     5
 10
2101.303656968396
 20
642.5107712418893
 30
0.0
 11
2101.303656968396
 21
644.5107712418892
 31
0.0
  0
INSERT
  5
481
  8
回02-寸法
  6
CONTINUOUS
 62
     5
  2
_OPEN
 10
2101.303656968396
 20
640.5107712418892
 30
0.0
 41
2.0
 42
2.0
 43
2.0
 50
270.0
  0
INSERT
  5
482
  8
回02-寸法
  6
CONTINUOUS
 62
     5
  2
_OPEN
 10
2101.303656968396
 20
639.1107712418897
 30
0.0
 41
2.0
 42
2.0
 43
2.0
 50
90.0
  0
INSERT
  5
483
  8
回02-寸法
  6
CONTINUOUS
 62
     5
 66
     1
  2
*X100100
 10
0.0
 20
0.0
 30
0.0
  0
SEQEND
  5
747
  8
回04-図面枠
  6
CONTINUOUS
 62
     1
  0
POINT
  5
484
  8
DEFPOINTS
  6
CONTINUOUS
 62
     0
 10
2109.503445172705
 20
640.5107712418892
 30
0.0
  0
POINT
  5
485
  8
DEFPOINTS
  6
CONTINUOUS
 62
     0
 10
2109.503445172705
 20
639.1107712418897
 30
0.0
  0
POINT
  5
486
  8
DEFPOINTS
  6
CONTINUOUS
 62
     0
 10
2101.303656968396
 20
639.1107712418897
 30
0.0
  0
ENDBLK
  5
488
  8
回04-図面枠
  6
CONTINUOUS
 62
     1
  0
BLOCK
  8
回04-図面枠
  2
*D4242
 70
     1
 10
0.0
 20
0.0
 30
0.0
  3
*D4242
  1

  0
LINE
  5
48A
  8
回02-寸法
  6
CONTINUOUS
 62
     5
 10
2106.604003104431
 20
642.3107712418896
 30
0.0
 11
2093.539019375544
 21
642.3107712418896
 31
0.0
  0
LINE
  5
48B
  8
回02-寸法
  6
CONTINUOUS
 62
     5
 10
2106.604003104431
 20
639.8107712418894
 30
0.0
 11
2093.539019375544
 21
639.8107712418894
 31
0.0
  0
LINE
  5
48C
  8
回02-寸法
  6
CONTINUOUS
 62
     5
 10
2094.539019375543
 20
637.8107712418896
 30
0.0
 11
2094.539019375543
 21
619.1100641663042
 31
0.0
  0
LINE
  5
48D
  8
回02-寸法
  6
CONTINUOUS
 62
     5
 10
2094.539019375543
 20
642.3107712418896
 30
0.0
 11
2094.539019375543
 21
639.8107712418894
 31
0.0
  0
LINE
  5
48E
  8
回02-寸法
  6
CONTINUOUS
 62
     5
 10
2094.539019375543
 20
644.3107712418894
 30
0.0
 11
2094.539019375543
 21
646.3107712418896
 31
0.0
  0
INSERT
  5
48F
  8
回02-寸法
  6
CONTINUOUS
 62
     5
  2
_OPEN
 10
2094.539019375543
 20
642.3107712418896
 30
0.0
 41
2.0
 42
2.0
 43
2.0
 50
270.0
  0
INSERT
  5
490
  8
回02-寸法
  6
CONTINUOUS
 62
     5
  2
_OPEN
 10
2094.539019375543
 20
639.8107712418894
 30
0.0
 41
2.0
 42
2.0
 43
2.0
 50
90.0
  0
INSERT
  5
491
  8
回02-寸法
  6
CONTINUOUS
 62
     5
 66
     1
  2
*X101101
 10
0.0
 20
0.0
 30
0.0
  0
SEQEND
  5
74D
  8
回04-図面枠
  6
CONTINUOUS
 62
     1
  0
POINT
  5
492
  8
DEFPOINTS
  6
CONTINUOUS
 62
     0
 10
2106.604003104431
 20
642.3107712418896
 30
0.0
  0
POINT
  5
493
  8
DEFPOINTS
  6
CONTINUOUS
 62
     0
 10
2106.604003104431
 20
639.8107712418894
 30
0.0
  0
POINT
  5
494
  8
DEFPOINTS
  6
CONTINUOUS
 62
     0
 10
2094.539019375543
 20
639.8107712418894
 30
0.0
  0
ENDBLK
  5
496
  8
回04-図面枠
  6
CONTINUOUS
 62
     1
  0
BLOCK
  8
回04-図面枠
  2
*D4343
 70
     1
 10
0.0
 20
0.0
 30
0.0
  3
*D4343
  1

  0
LINE
  5
498
  8
回02-寸法
  6
CONTINUOUS
 62
     5
 10
2110.503532194241
 20
649.8107712418941
 30
0.0
 11
2080.08433208902
 21
649.8107712418941
 31
0.0
  0
LINE
  5
499
  8
回02-寸法
  6
CONTINUOUS
 62
     5
 10
2110.503532194241
 20
637.3107712418949
 30
0.0
 11
2080.08433208902
 21
637.3107712418949
 31
0.0
  0
LINE
  5
49A
  8
回02-寸法
  6
CONTINUOUS
 62
     5
 10
2081.08433208902
 20
635.3107712418951
 30
0.0
 11
2081.08433208902
 21
617.309881549585
 31
0.0
  0
LINE
  5
49B
  8
回02-寸法
  6
CONTINUOUS
 62
     5
 10
2081.08433208902
 20
649.8107712418941
 30
0.0
 11
2081.08433208902
 21
637.3107712418949
 31
0.0
  0
LINE
  5
49C
  8
回02-寸法
  6
CONTINUOUS
 62
     5
 10
2081.08433208902
 20
651.8107712418941
 30
0.0
 11
2081.08433208902
 21
653.8107712418941
 31
0.0
  0
INSERT
  5
49D
  8
回02-寸法
  6
CONTINUOUS
 62
     5
  2
_OPEN
 10
2081.08433208902
 20
649.8107712418941
 30
0.0
 41
2.0
 42
2.0
 43
2.0
 50
270.0
  0
INSERT
  5
49E
  8
回02-寸法
  6
CONTINUOUS
 62
     5
  2
_OPEN
 10
2081.08433208902
 20
637.3107712418949
 30
0.0
 41
2.0
 42
2.0
 43
2.0
 50
90.0
  0
INSERT
  5
49F
  8
回02-寸法
  6
CONTINUOUS
 62
     5
 66
     1
  2
*X102102
 10
0.0
 20
0.0
 30
0.0
  0
SEQEND
  5
753
  8
回04-図面枠
  6
CONTINUOUS
 62
     1
  0
POINT
  5
4A0
  8
DEFPOINTS
  6
CONTINUOUS
 62
     0
 10
2110.503532194241
 20
649.8107712418941
 30
0.0
  0
POINT
  5
4A1
  8
DEFPOINTS
  6
CONTINUOUS
 62
     0
 10
2110.503532194241
 20
637.3107712418949
 30
0.0
  0
POINT
  5
4A2
  8
DEFPOINTS
  6
CONTINUOUS
 62
     0
 10
2081.08433208902
 20
637.3107712418949
 30
0.0
  0
ENDBLK
  5
4A4
  8
回04-図面枠
  6
CONTINUOUS
 62
     1
  0
BLOCK
  8
回04-図面枠
  2
*D4444
 70
     1
 10
0.0
 20
0.0
 30
0.0
  3
*D4444
  1

  0
LINE
  5
4A6
  8
回02-寸法
  6
CONTINUOUS
 62
     5
 10
2197.744288395726
 20
631.8838949526625
 30
0.0
 11
2197.744288395726
 21
675.9145538215416
 31
0.0
  0
LINE
  5
4A7
  8
回02-寸法
  6
CONTINUOUS
 62
     5
 10
2395.044288395726
 20
631.8838949526625
 30
0.0
 11
2395.044288395726
 21
675.9145538215416
 31
0.0
  0
LINE
  5
4A8
  8
回02-寸法
  6
CONTINUOUS
 62
     5
 10
2199.244288395726
 20
674.9145538215416
 30
0.0
 11
2393.544288395726
 21
674.9145538215416
 31
0.0
  0
INSERT
  5
4A9
  8
回02-寸法
  6
CONTINUOUS
 62
     5
  2
_OPEN
 10
2197.744288395726
 20
674.9145538215416
 30
0.0
 41
1.5
 42
1.5
 43
1.5
 50
180.0
  0
INSERT
  5
4AA
  8
回02-寸法
  6
CONTINUOUS
 62
     5
  2
_OPEN
 10
2395.044288395726
 20
674.9145538215416
 30
0.0
 41
1.5
 42
1.5
 43
1.5
  0
INSERT
  5
4AB
  8
回02-寸法
  6
CONTINUOUS
 62
     5
 66
     1
  2
*X103103
 10
0.0
 20
0.0
 30
0.0
  0
SEQEND
  5
759
  8
回04-図面枠
  6
CONTINUOUS
 62
     1
  0
POINT
  5
4AC
  8
DEFPOINTS
  6
CONTINUOUS
 62
     0
 10
2197.744288395726
 20
631.8838949526625
 30
0.0
  0
POINT
  5
4AD
  8
DEFPOINTS
  6
CONTINUOUS
 62
     0
 10
2395.044288395726
 20
631.8838949526625
 30
0.0
  0
POINT
  5
4AE
  8
DEFPOINTS
  6
CONTINUOUS
 62
     0
 10
2395.044288395726
 20
674.9145538215416
 30
0.0
  0
ENDBLK
  5
4B0
  8
回04-図面枠
  6
CONTINUOUS
 62
     1
  0
BLOCK
  8
回04-図面枠
  2
*D4545
 70
     1
 10
0.0
 20
0.0
 30
0.0
  3
*D4545
  1

  0
LINE
  5
4B2
  8
回02-寸法
  6
CONTINUOUS
 62
     5
 10
2324.394288395726
 20
536.5938949526617
 30
0.0
 11
2324.394288395726
 21
527.4186714720086
 31
0.0
  0
LINE
  5
4B4
  8
回02-寸法
  6
CONTINUOUS
 62
     5
 10
2328.394288395726
 20
536.5938949526617
 30
0.0
 11
2328.394288395726
 21
527.4186714720086
 31
0.0
  0
LINE
  5
4B5
  8
回02-寸法
  6
CONTINUOUS
 62
     5
 10
2325.894288395726
 20
528.4186714720085
 30
0.0
 11
2326.894288395726
 21
528.4186714720085
 31
0.0
  0
INSERT
  5
4B6
  8
回02-寸法
  6
CONTINUOUS
 62
     5
  2
_OPEN
 10
2324.394288395726
 20
528.4186714720085
 30
0.0
 41
1.5
 42
1.5
 43
1.5
 50
180.0
  0
INSERT
  5
4B7
  8
回02-寸法
  6
CONTINUOUS
 62
     5
  2
_OPEN
 10
2328.394288395726
 20
528.4186714720085
 30
0.0
 41
1.5
 42
1.5
 43
1.5
  0
TEXT
  5
4B8
  8
回02-寸法
  6
CONTINUOUS
 62
     5
 10
2324.794288395726
 20
528.9186714720085
 30
0.0
 40
4.0
  1
4
  0
POINT
  5
4B9
  8
DEFPOINTS
  6
CONTINUOUS
 62
     0
 10
2324.394288395726
 20
536.5938949526617
 30
0.0
  0
POINT
  5
4BA
  8
DEFPOINTS
  6
CONTINUOUS
 62
     0
 10
2328.394288395726
 20
536.5938949526617
 30
0.0
  0
POINT
  5
4BB
  8
DEFPOINTS
  6
CONTINUOUS
 62
     0
 10
2328.394288395726
 20
528.4186714720085
 30
0.0
  0
ENDBLK
  5
4BD
  8
回04-図面枠
  6
CONTINUOUS
 62
     1
  0
BLOCK
  8
回04-図面枠
  2
*D4646
 70
     1
 10
0.0
 20
0.0
 30
0.0
  3
*D4646
  1

  0
LINE
  5
4BF
  8
回02-寸法
  6
CONTINUOUS
 62
     5
 10
2332.394288395726
 20
548.5938949526617
 30
0.0
 11
2343.520924011514
 21
548.5938949526617
 31
0.0
  0
LINE
  5
4C0
  8
回02-寸法
  6
CONTINUOUS
 62
     5
 10
2332.394288395726
 20
544.5938949526617
 30
0.0
 11
2343.520924011514
 21
544.5938949526617
 31
0.0
  0
LINE
  5
4C1
  8
回02-寸法
  6
CONTINUOUS
 62
     5
 10
2342.520924011514
 20
547.0938949526615
 30
0.0
 11
2342.520924011514
 21
546.0938949526616
 31
0.0
  0
INSERT
  5
4C2
  8
回02-寸法
  6
CONTINUOUS
 62
     5
  2
_OPEN
 10
2342.520924011514
 20
548.5938949526617
 30
0.0
 41
1.5
 42
1.5
 43
1.5
 50
90.0
  0
INSERT
  5
4C3
  8
回02-寸法
  6
CONTINUOUS
 62
     5
  2
_OPEN
 10
2342.520924011514
 20
544.5938949526617
 30
0.0
 41
1.5
 42
1.5
 43
1.5
 50
270.0
  0
TEXT
  5
4C4
  8
回02-寸法
  6
CONTINUOUS
 62
     5
 10
2342.020924011514
 20
544.9938949526616
 30
0.0
 40
4.0
  1
4
 50
90.0
  0
POINT
  5
4C5
  8
DEFPOINTS
  6
CONTINUOUS
 62
     0
 10
2332.394288395726
 20
548.5938949526617
 30
0.0
  0
POINT
  5
4C6
  8
DEFPOINTS
  6
CONTINUOUS
 62
     0
 10
2332.394288395726
 20
544.5938949526617
 30
0.0
  0
POINT
  5
4C7
  8
DEFPOINTS
  6
CONTINUOUS
 62
     0
 10
2342.520924011514
 20
544.5938949526617
 30
0.0
  0
ENDBLK
  5
4C9
  8
回04-図面枠
  6
CONTINUOUS
 62
     1
  0
BLOCK
  8
回04-図面枠
  2
*D4747
 70
     1
 10
0.0
 20
0.0
 30
0.0
  3
*D4747
  1

  0
LINE
  5
4CB
  8
回02-寸法
  6
CONTINUOUS
 62
     5
 10
2187.844288395725
 20
458.8118160820721
 30
0.0
 11
2187.844288395725
 21
471.4069171402311
 31
0.0
  0
LINE
  5
4CC
  8
回02-寸法
  6
CONTINUOUS
 62
     5
 10
2188.344288395725
 20
465.8118160820722
 30
0.0
 11
2188.344288395725
 21
471.4069171402311
 31
0.0
  0
LINE
  5
4CD
  8
回02-寸法
  6
CONTINUOUS
 62
     5
 10
2190.344288395725
 20
470.406917140231
 30
0.0
 11
2202.141138789426
 21
470.406917140231
 31
0.0
  0
LINE
  5
4CE
  8
回02-寸法
  6
CONTINUOUS
 62
     5
 10
2187.844288395725
 20
470.406917140231
 30
0.0
 11
2188.344288395725
 21
470.406917140231
 31
0.0
  0
LINE
  5
4CF
  8
回02-寸法
  6
CONTINUOUS
 62
     5
 10
2185.844288395725
 20
470.406917140231
 30
0.0
 11
2183.844288395725
 21
470.406917140231
 31
0.0
  0
INSERT
  5
4D0
  8
回02-寸法
  6
CONTINUOUS
 62
     5
  2
_OPEN
 10
2187.844288395725
 20
470.406917140231
 30
0.0
 41
2.0
 42
2.0
 43
2.0
  0
INSERT
  5
4D1
  8
回02-寸法
  6
CONTINUOUS
 62
     5
  2
_OPEN
 10
2188.344288395725
 20
470.406917140231
 30
0.0
 41
2.0
 42
2.0
 43
2.0
 50
180.0
  0
TEXT
  5
4D2
  8
回02-寸法
  6
CONTINUOUS
 62
     5
 10
2192.242713592575
 20
471.1069171402311
 30
0.0
 40
4.0
  1
(0.5)
  0
POINT
  5
4D3
  8
DEFPOINTS
  6
CONTINUOUS
 62
     0
 10
2187.844288395725
 20
458.8118160820721
 30
0.0
  0
POINT
  5
4D4
  8
DEFPOINTS
  6
CONTINUOUS
 62
     0
 10
2188.344288395725
 20
465.8118160820722
 30
0.0
  0
POINT
  5
4D5
  8
DEFPOINTS
  6
CONTINUOUS
 62
     0
 10
2188.344288395725
 20
470.406917140231
 30
0.0
  0
ENDBLK
  5
4D7
  8
回04-図面枠
  6
CONTINUOUS
 62
     1
  0
BLOCK
  8
回04-図面枠
  2
*D4848
 70
     1
 10
0.0
 20
0.0
 30
0.0
  3
*D4848
  1

  0
LINE
  5
4D9
  8
回02-寸法
  6
CONTINUOUS
 62
     5
 10
2401.544288395726
 20
465.8118160820722
 30
0.0
 11
2401.544288395726
 21
474.9901871636993
 31
0.0
  0
LINE
  5
4DA
  8
回02-寸法
  6
CONTINUOUS
 62
     5
 10
2402.044288395726
 20
458.8118160820721
 30
0.0
 11
2402.044288395726
 21
474.9901871636993
 31
0.0
  0
LINE
  5
4DB
  8
回02-寸法
  6
CONTINUOUS
 62
     5
 10
2404.044288395726
 20
473.9901871636993
 30
0.0
 11
2415.841138789426
 21
473.9901871636993
 31
0.0
  0
LINE
  5
4DC
  8
回02-寸法
  6
CONTINUOUS
 62
     5
 10
2401.544288395726
 20
473.9901871636993
 30
0.0
 11
2402.044288395726
 21
473.9901871636993
 31
0.0
  0
LINE
  5
4DD
  8
回02-寸法
  6
CONTINUOUS
 62
     5
 10
2399.544288395726
 20
473.9901871636993
 30
0.0
 11
2397.544288395726
 21
473.9901871636993
 31
0.0
  0
INSERT
  5
4DE
  8
回02-寸法
  6
CONTINUOUS
 62
     5
  2
_OPEN
 10
2401.544288395726
 20
473.9901871636993
 30
0.0
 41
2.0
 42
2.0
 43
2.0
  0
INSERT
  5
4DF
  8
回02-寸法
  6
CONTINUOUS
 62
     5
  2
_OPEN
 10
2402.044288395726
 20
473.9901871636993
 30
0.0
 41
2.0
 42
2.0
 43
2.0
 50
180.0
  0
TEXT
  5
4E0
  8
回02-寸法
  6
CONTINUOUS
 62
     5
 10
2405.942713592577
 20
474.6901871636993
 30
0.0
 40
4.0
  1
(0.5)
  0
POINT
  5
4E1
  8
DEFPOINTS
  6
CONTINUOUS
 62
     0
 10
2401.544288395726
 20
465.8118160820722
 30
0.0
  0
POINT
  5
4E2
  8
DEFPOINTS
  6
CONTINUOUS
 62
     0
 10
2402.044288395726
 20
458.8118160820721
 30
0.0
  0
POINT
  5
4E3
  8
DEFPOINTS
  6
CONTINUOUS
 62
     0
 10
2402.044288395726
 20
473.9901871636993
 30
0.0
  0
ENDBLK
  5
4E5
  8
回04-図面枠
  6
CONTINUOUS
 62
     1
  0
BLOCK
  8
回04-図面枠
  2
*D4949
 70
     1
 10
0.0
 20
0.0
 30
0.0
  3
*D4949
  1

  0
LINE
  5
4E7
  8
回02-寸法
  6
CONTINUOUS
 62
     5
 10
2401.544288395725
 20
465.8118160820722
 30
0.0
 11
2411.404014430719
 21
465.8118160820722
 31
0.0
  0
LINE
  5
4E8
  8
回02-寸法
  6
CONTINUOUS
 62
     5
 10
2402.044288395726
 20
452.8118160820708
 30
0.0
 11
2411.404014430719
 21
452.8118160820708
 31
0.0
  0
LINE
  5
4E9
  8
回02-寸法
  6
CONTINUOUS
 62
     5
 10
2410.404014430719
 20
450.8118160820708
 30
0.0
 11
2410.404014430719
 21
433.36557888492
 31
0.0
  0
LINE
  5
4EA
  8
回02-寸法
  6
CONTINUOUS
 62
     5
 10
2410.404014430719
 20
465.8118160820722
 30
0.0
 11
2410.404014430719
 21
452.8118160820708
 31
0.0
  0
LINE
  5
4EB
  8
回02-寸法
  6
CONTINUOUS
 62
     5
 10
2410.404014430719
 20
467.8118160820722
 30
0.0
 11
2410.404014430719
 21
469.8118160820722
 31
0.0
  0
INSERT
  5
4EC
  8
回02-寸法
  6
CONTINUOUS
 62
     5
  2
_OPEN
 10
2410.404014430719
 20
465.8118160820722
 30
0.0
 41
2.0
 42
2.0
 43
2.0
 50
270.0
  0
INSERT
  5
4ED
  8
回02-寸法
  6
CONTINUOUS
 62
     5
  2
_OPEN
 10
2410.404014430719
 20
452.8118160820708
 30
0.0
 41
2.0
 42
2.0
 43
2.0
 50
90.0
  0
INSERT
  5
4EE
  8
回02-寸法
  6
CONTINUOUS
 62
     5
 66
     1
  2
*X104104
 10
0.0
 20
0.0
 30
0.0
  0
SEQEND
  5
75F
  8
回04-図面枠
  6
CONTINUOUS
 62
     1
  0
POINT
  5
4EF
  8
DEFPOINTS
  6
CONTINUOUS
 62
     0
 10
2401.544288395725
 20
465.8118160820722
 30
0.0
  0
POINT
  5
4F0
  8
DEFPOINTS
  6
CONTINUOUS
 62
     0
 10
2402.044288395726
 20
452.8118160820708
 30
0.0
  0
POINT
  5
4F1
  8
DEFPOINTS
  6
CONTINUOUS
 62
     0
 10
2410.404014430719
 20
452.8118160820708
 30
0.0
  0
ENDBLK
  5
4F3
  8
回04-図面枠
  6
CONTINUOUS
 62
     1
  0
BLOCK
  8
回04-図面枠
  2
*D5050
 70
     1
 10
0.0
 20
0.0
 30
0.0
  3
*D5050
  1

  0
LINE
  5
4F5
  8
回02-寸法
  6
CONTINUOUS
 62
     5
 10
2107.844288395725
 20
461.8118160820722
 30
0.0
 11
2099.338162618732
 21
461.8118160820722
 31
0.0
  0
LINE
  5
4F6
  8
回02-寸法
  6
CONTINUOUS
 62
     5
 10
2107.844288395725
 20
453.8118160820721
 30
0.0
 11
2099.338162618732
 21
453.8118160820721
 31
0.0
  0
LINE
  5
4F7
  8
回02-寸法
  6
CONTINUOUS
 62
     5
 10
2100.338162618732
 20
451.8118160820722
 30
0.0
 11
2100.338162618732
 21
434.2906765770402
 31
0.0
  0
LINE
  5
4F8
  8
回02-寸法
  6
CONTINUOUS
 62
     5
 10
2100.338162618732
 20
461.8118160820722
 30
0.0
 11
2100.338162618732
 21
453.8118160820721
 31
0.0
  0
LINE
  5
4F9
  8
回02-寸法
  6
CONTINUOUS
 62
     5
 10
2100.338162618732
 20
463.8118160820722
 30
0.0
 11
2100.338162618732
 21
465.8118160820722
 31
0.0
  0
INSERT
  5
4FA
  8
回02-寸法
  6
CONTINUOUS
 62
     5
  2
_OPEN
 10
2100.338162618732
 20
461.8118160820722
 30
0.0
 41
2.0
 42
2.0
 43
2.0
 50
270.0
  0
INSERT
  5
4FB
  8
回02-寸法
  6
CONTINUOUS
 62
     5
  2
_OPEN
 10
2100.338162618732
 20
453.8118160820721
 30
0.0
 41
2.0
 42
2.0
 43
2.0
 50
90.0
  0
INSERT
  5
4FC
  8
回02-寸法
  6
CONTINUOUS
 62
     5
 66
     1
  2
*X105105
 10
0.0
 20
0.0
 30
0.0
  0
SEQEND
  5
765
  8
回04-図面枠
  6
CONTINUOUS
 62
     1
  0
POINT
  5
4FD
  8
DEFPOINTS
  6
CONTINUOUS
 62
     0
 10
2107.844288395725
 20
461.8118160820722
 30
0.0
  0
POINT
  5
4FE
  8
DEFPOINTS
  6
CONTINUOUS
 62
     0
 10
2107.844288395725
 20
453.8118160820721
 30
0.0
  0
POINT
  5
4FF
  8
DEFPOINTS
  6
CONTINUOUS
 62
     0
 10
2100.338162618732
 20
453.8118160820721
 30
0.0
  0
ENDBLK
  5
501
  8
回04-図面枠
  6
CONTINUOUS
 62
     1
  0
BLOCK
  8
回04-図面枠
  2
*D5151
 70
     1
 10
0.0
 20
0.0
 30
0.0
  3
*D5151
  1

  0
LINE
  5
503
  8
回02-寸法
  6
CONTINUOUS
 62
     5
 10
2107.844288395725
 20
461.8118160820722
 30
0.0
 11
2107.844288395725
 21
471.5506829095584
 31
0.0
  0
LINE
  5
504
  8
回02-寸法
  6
CONTINUOUS
 62
     5
 10
2112.844288395725
 20
461.8118160820722
 30
0.0
 11
2112.844288395725
 21
471.5506829095584
 31
0.0
  0
LINE
  5
505
  8
回02-寸法
  6
CONTINUOUS
 62
     5
 10
2114.844288395725
 20
470.5506829095583
 30
0.0
 11
2119.5271311082
 21
470.5506829095583
 31
0.0
  0
LINE
  5
506
  8
回02-寸法
  6
CONTINUOUS
 62
     5
 10
2107.844288395725
 20
470.5506829095583
 30
0.0
 11
2112.844288395725
 21
470.5506829095583
 31
0.0
  0
LINE
  5
507
  8
回02-寸法
  6
CONTINUOUS
 62
     5
 10
2105.844288395725
 20
470.5506829095583
 30
0.0
 11
2103.844288395725
 21
470.5506829095583
 31
0.0
  0
INSERT
  5
508
  8
回02-寸法
  6
CONTINUOUS
 62
     5
  2
_OPEN
 10
2107.844288395725
 20
470.5506829095583
 30
0.0
 41
2.0
 42
2.0
 43
2.0
  0
INSERT
  5
509
  8
回02-寸法
  6
CONTINUOUS
 62
     5
  2
_OPEN
 10
2112.844288395725
 20
470.5506829095583
 30
0.0
 41
2.0
 42
2.0
 43
2.0
 50
180.0
  0
TEXT
  5
50A
  8
回02-寸法
  6
CONTINUOUS
 62
     5
 10
2116.8271311082
 20
471.0506829095584
 30
0.0
 40
4.0
  1
5
  0
POINT
  5
50B
  8
DEFPOINTS
  6
CONTINUOUS
 62
     0
 10
2107.844288395725
 20
461.8118160820722
 30
0.0
  0
POINT
  5
50C
  8
DEFPOINTS
  6
CONTINUOUS
 62
     0
 10
2112.844288395725
 20
461.8118160820722
 30
0.0
  0
POINT
  5
50D
  8
DEFPOINTS
  6
CONTINUOUS
 62
     0
 10
2112.844288395725
 20
470.5506829095583
 30
0.0
  0
ENDBLK
  5
50F
  8
回04-図面枠
  6
CONTINUOUS
 62
     1
  0
BLOCK
  8
回04-図面枠
  2
*D5252
 70
     1
 10
0.0
 20
0.0
 30
0.0
  3
*D5252
  1

  0
LINE
  5
511
  8
回02-寸法
  6
CONTINUOUS
 62
     5
 10
2107.844288395725
 20
453.8118160820721
 30
0.0
 11
2107.844288395725
 21
441.7767398588006
 31
0.0
  0
LINE
  5
512
  8
回02-寸法
  6
CONTINUOUS
 62
     5
 10
2117.844288395725
 20
453.8118160820721
 30
0.0
 11
2117.844288395725
 21
441.7767398588006
 31
0.0
  0
LINE
  5
513
  8
回02-寸法
  6
CONTINUOUS
 62
     5
 10
2119.844288395725
 20
442.7767398588007
 30
0.0
 11
2131.689275275657
 21
442.7767398588007
 31
0.0
  0
LINE
  5
514
  8
回02-寸法
  6
CONTINUOUS
 62
     5
 10
2107.844288395725
 20
442.7767398588007
 30
0.0
 11
2117.844288395725
 21
442.7767398588007
 31
0.0
  0
LINE
  5
515
  8
回02-寸法
  6
CONTINUOUS
 62
     5
 10
2105.844288395725
 20
442.7767398588007
 30
0.0
 11
2103.844288395725
 21
442.7767398588007
 31
0.0
  0
INSERT
  5
516
  8
回02-寸法
  6
CONTINUOUS
 62
     5
  2
_OPEN
 10
2107.844288395725
 20
442.7767398588007
 30
0.0
 41
2.0
 42
2.0
 43
2.0
  0
INSERT
  5
517
  8
回02-寸法
  6
CONTINUOUS
 62
     5
  2
_OPEN
 10
2117.844288395725
 20
442.7767398588007
 30
0.0
 41
2.0
 42
2.0
 43
2.0
 50
180.0
  0
TEXT
  5
518
  8
回02-寸法
  6
CONTINUOUS
 62
     5
 10
2123.790850078807
 20
443.5767398588006
 30
0.0
 40
4.0
  1
(10)
  0
POINT
  5
519
  8
DEFPOINTS
  6
CONTINUOUS
 62
     0
 10
2107.844288395725
 20
453.8118160820721
 30
0.0
  0
POINT
  5
51A
  8
DEFPOINTS
  6
CONTINUOUS
 62
     0
 10
2117.844288395725
 20
453.8118160820721
 30
0.0
  0
POINT
  5
51B
  8
DEFPOINTS
  6
CONTINUOUS
 62
     0
 10
2117.844288395725
 20
442.7767398588007
 30
0.0
  0
ENDBLK
  5
51D
  8
回04-図面枠
  6
CONTINUOUS
 62
     1
  0
BLOCK
  8
回04-図面枠
  2
*D5353
 70
     1
 10
0.0
 20
0.0
 30
0.0
  3
*D5353
  1

  0
LINE
  5
51F
  8
回02-寸法
  6
CONTINUOUS
 62
     5
 10
2187.844288395726
 20
563.927635222341
 30
0.0
 11
2187.844288395726
 21
556.2714834158978
 31
0.0
  0
LINE
  5
520
  8
回02-寸法
  6
CONTINUOUS
 62
     5
 10
2183.243785883163
 20
564.6939134861118
 30
0.0
 11
2183.243785883163
 21
556.2714834158978
 31
0.0
  0
LINE
  5
521
  8
回02-寸法
  6
CONTINUOUS
 62
     5
 10
2181.243785883164
 20
557.2714834158978
 30
0.0
 11
2169.607765521084
 21
557.2714834158978
 31
0.0
  0
LINE
  5
522
  8
回02-寸法
  6
CONTINUOUS
 62
     5
 10
2187.844288395726
 20
557.2714834158978
 30
0.0
 11
2183.243785883163
 21
557.2714834158978
 31
0.0
  0
LINE
  5
523
  8
回02-寸法
  6
CONTINUOUS
 62
     5
 10
2189.844288395726
 20
557.2714834158978
 30
0.0
 11
2191.844288395726
 21
557.2714834158978
 31
0.0
  0
INSERT
  5
524
  8
回02-寸法
  6
CONTINUOUS
 62
     5
  2
_OPEN
 10
2187.844288395726
 20
557.2714834158978
 30
0.0
 41
2.0
 42
2.0
 43
2.0
 50
180.0
  0
INSERT
  5
525
  8
回02-寸法
  6
CONTINUOUS
 62
     5
  2
_OPEN
 10
2183.243785883163
 20
557.2714834158978
 30
0.0
 41
2.0
 42
2.0
 43
2.0
  0
TEXT
  5
526
  8
回02-寸法
  6
CONTINUOUS
 62
     5
 10
2169.507765521084
 20
557.7714834158978
 30
0.0
 40
4.0
  1
4.6
  0
POINT
  5
527
  8
DEFPOINTS
  6
CONTINUOUS
 62
     0
 10
2187.844288395726
 20
563.927635222341
 30
0.0
  0
POINT
  5
528
  8
DEFPOINTS
  6
CONTINUOUS
 62
     0
 10
2183.243785883163
 20
564.6939134861118
 30
0.0
  0
POINT
  5
529
  8
DEFPOINTS
  6
CONTINUOUS
 62
     0
 10
2183.243785883163
 20
557.2714834158978
 30
0.0
  0
ENDBLK
  5
52B
  8
回04-図面枠
  6
CONTINUOUS
 62
     1
  0
BLOCK
  8
回04-図面枠
  2
*D5454
 70
     1
 10
0.0
 20
0.0
 30
0.0
  3
*D5454
  1

  0
LINE
  5
52D
  8
回02-寸法
 62
     5
 10
2108.344244884959
 20
575.7297595668083
 30
0.0
 11
2096.401199836789
 21
575.7297595668083
 31
0.0
  0
LINE
  5
52E
  8
回02-寸法
 62
     5
 10
2108.344244884959
 20
569.4797595668083
 30
0.0
 11
2096.401199836789
 21
569.4797595668083
 31
0.0
  0
LINE
  5
52F
  8
回02-寸法
 62
     5
 10
2097.401199836788
 20
577.7297595668082
 30
0.0
 11
2097.401199836788
 21
598.1972787854637
 31
0.0
  0
LINE
  5
530
  8
回02-寸法
 62
     5
 10
2097.401199836788
 20
575.7297595668083
 30
0.0
 11
2097.401199836788
 21
569.4797595668083
 31
0.0
  0
LINE
  5
531
  8
回02-寸法
 62
     5
 10
2097.401199836788
 20
567.4797595668082
 30
0.0
 11
2097.401199836788
 21
565.4797595668083
 31
0.0
  0
INSERT
  5
532
  8
回02-寸法
  6
CONTINUOUS
 62
     5
  2
_OPEN
 10
2097.401199836788
 20
575.7297595668083
 30
0.0
 41
2.0
 42
2.0
 43
2.0
 50
270.0
  0
INSERT
  5
533
  8
回02-寸法
  6
CONTINUOUS
 62
     5
  2
_OPEN
 10
2097.401199836788
 20
569.4797595668083
 30
0.0
 41
2.0
 42
2.0
 43
2.0
 50
90.0
  0
INSERT
  5
534
  8
回02-寸法
  6
CONTINUOUS
 62
     5
 66
     1
  2
*X106106
 10
0.0
 20
0.0
 30
0.0
  0
SEQEND
  5
76B
  8
回04-図面枠
  6
CONTINUOUS
 62
     1
  0
POINT
  5
535
  8
DEFPOINTS
  6
CONTINUOUS
 62
     0
 10
2108.344244884959
 20
575.7297595668083
 30
0.0
  0
POINT
  5
536
  8
DEFPOINTS
  6
CONTINUOUS
 62
     0
 10
2108.344244884959
 20
569.4797595668083
 30
0.0
  0
POINT
  5
537
  8
DEFPOINTS
  6
CONTINUOUS
 62
     0
 10
2097.401199836788
 20
569.4797595668083
 30
0.0
  0
ENDBLK
  5
539
  8
回04-図面枠
  6
CONTINUOUS
 62
     1
  0
BLOCK
  8
回04-図面枠
  2
*D5555
 70
     1
 10
0.0
 20
0.0
 30
0.0
  3
*D5555
  1

  0
LINE
  5
53B
  8
回02-寸法
  6
CONTINUOUS
 62
     5
 10
2187.844244884957
 20
561.7336917549423
 30
0.0
 11
2187.844244884957
 21
548.6084534789109
 31
0.0
  0
LINE
  5
53C
  8
回02-寸法
  6
CONTINUOUS
 62
     5
 10
2178.348357275698
 20
569.3865701105996
 30
0.0
 11
2178.348357275698
 21
548.6084534789109
 31
0.0
  0
LINE
  5
53D
  8
回02-寸法
  6
CONTINUOUS
 62
     5
 10
2176.348357275699
 20
549.6084534789111
 30
0.0
 11
2166.841250494512
 21
549.6084534789111
 31
0.0
  0
LINE
  5
53E
  8
回02-寸法
  6
CONTINUOUS
 62
     5
 10
2187.844244884957
 20
549.6084534789111
 30
0.0
 11
2178.348357275698
 21
549.6084534789111
 31
0.0
  0
LINE
  5
53F
  8
回02-寸法
  6
CONTINUOUS
 62
     5
 10
2189.844244884957
 20
549.6084534789111
 30
0.0
 11
2191.844244884958
 21
549.6084534789111
 31
0.0
  0
INSERT
  5
540
  8
回02-寸法
  6
CONTINUOUS
 62
     5
  2
_OPEN
 10
2187.844244884957
 20
549.6084534789111
 30
0.0
 41
2.0
 42
2.0
 43
2.0
 50
180.0
  0
INSERT
  5
541
  8
回02-寸法
  6
CONTINUOUS
 62
     5
  2
_OPEN
 10
2178.348357275698
 20
549.6084534789111
 30
0.0
 41
2.0
 42
2.0
 43
2.0
  0
TEXT
  5
542
  8
回02-寸法
  6
CONTINUOUS
 62
     5
 10
2166.726809020404
 20
550.1084534789111
 30
0.0
 40
4.0
  1
9.5
  0
POINT
  5
543
  8
DEFPOINTS
  6
CONTINUOUS
 62
     0
 10
2187.844244884957
 20
561.7336917549423
 30
0.0
  0
POINT
  5
544
  8
DEFPOINTS
  6
CONTINUOUS
 62
     0
 10
2178.348357275698
 20
569.3865701105996
 30
0.0
  0
POINT
  5
545
  8
DEFPOINTS
  6
CONTINUOUS
 62
     0
 10
2178.348357275698
 20
549.6084534789111
 30
0.0
  0
ENDBLK
  5
547
  8
回04-図面枠
  6
CONTINUOUS
 62
     1
  0
BLOCK
  8
回04-図面枠
  2
*D5656
 70
     1
 10
0.0
 20
0.0
 30
0.0
  3
*D5656
  1

  0
LINE
  5
549
  8
回02-寸法
  6
CONTINUOUS
 62
     5
 10
2187.844288395725
 20
581.2818841109993
 30
0.0
 11
2187.844288395725
 21
603.5101404217884
 31
0.0
  0
LINE
  5
54A
  8
回02-寸法
  6
CONTINUOUS
 62
     5
 10
2107.844244884958
 20
575.2297595668083
 30
0.0
 11
2107.844244884958
 21
603.5101404217884
 31
0.0
  0
LINE
  5
54B
  8
回02-寸法
  6
CONTINUOUS
 62
     5
 10
2186.344288395725
 20
602.5101404217885
 30
0.0
 11
2109.344244884958
 21
602.5101404217885
 31
0.0
  0
INSERT
  5
54C
  8
回02-寸法
  6
CONTINUOUS
 62
     5
  2
_OPEN
 10
2187.844288395725
 20
602.5101404217885
 30
0.0
 41
1.5
 42
1.5
 43
1.5
  0
INSERT
  5
54D
  8
回02-寸法
  6
CONTINUOUS
 62
     5
  2
_OPEN
 10
2107.844244884958
 20
602.5101404217885
 30
0.0
 41
1.5
 42
1.5
 43
1.5
 50
180.0
  0
INSERT
  5
54E
  8
回02-寸法
  6
CONTINUOUS
 62
     5
 66
     1
  2
*X107107
 10
0.0
 20
0.0
 30
0.0
  0
SEQEND
  5
771
  8
回04-図面枠
  6
CONTINUOUS
 62
     1
  0
POINT
  5
54F
  8
DEFPOINTS
  6
CONTINUOUS
 62
     0
 10
2187.844288395725
 20
581.2818841109993
 30
0.0
  0
POINT
  5
550
  8
DEFPOINTS
  6
CONTINUOUS
 62
     0
 10
2107.844244884958
 20
575.2297595668083
 30
0.0
  0
POINT
  5
551
  8
DEFPOINTS
  6
CONTINUOUS
 62
     0
 10
2107.844244884958
 20
602.5101404217885
 30
0.0
  0
ENDBLK
  5
553
  8
回04-図面枠
  6
CONTINUOUS
 62
     1
  0
BLOCK
  8
回04-図面枠
  2
*D5757
 70
     1
 10
0.0
 20
0.0
 30
0.0
  3
*D5757
  1

  0
LINE
  5
555
  8
回02-寸法
  6
CONTINUOUS
 62
     5
 10
2108.344244908548
 20
569.4797595668074
 30
0.0
 11
2096.401199836787
 21
569.4797595668074
 31
0.0
  0
LINE
  5
556
  8
回02-寸法
  6
CONTINUOUS
 62
     5
 10
2187.844288395726
 20
504.8438949526617
 30
0.0
 11
2096.401199836787
 21
504.8438949526617
 31
0.0
  0
LINE
  5
557
  8
回02-寸法
  6
CONTINUOUS
 62
     5
 10
2097.401199836788
 20
567.9797595668072
 30
0.0
 11
2097.401199836788
 21
506.3438949526616
 31
0.0
  0
INSERT
  5
558
  8
回02-寸法
  6
CONTINUOUS
 62
     5
  2
_OPEN
 10
2097.401199836788
 20
569.4797595668074
 30
0.0
 41
1.5
 42
1.5
 43
1.5
 50
90.0
  0
INSERT
  5
559
  8
回02-寸法
  6
CONTINUOUS
 62
     5
  2
_OPEN
 10
2097.401199836788
 20
504.8438949526617
 30
0.0
 41
1.5
 42
1.5
 43
1.5
 50
270.0
  0
TEXT
  5
55A
  8
回02-寸法
  6
CONTINUOUS
 62
     5
 10
2096.701199836787
 20
528.9618272597346
 30
0.0
 40
4.0
  1
(64.64)
 50
90.0
  0
POINT
  5
55B
  8
DEFPOINTS
  6
CONTINUOUS
 62
     0
 10
2108.344244908548
 20
569.4797595668074
 30
0.0
  0
POINT
  5
55C
  8
DEFPOINTS
  6
CONTINUOUS
 62
     0
 10
2187.844288395726
 20
504.8438949526617
 30
0.0
  0
POINT
  5
55D
  8
DEFPOINTS
  6
CONTINUOUS
 62
     0
 10
2097.401199836788
 20
504.8438949526617
 30
0.0
  0
ENDBLK
  5
55F
  8
回04-図面枠
  6
CONTINUOUS
 62
     1
  0
BLOCK
  8
回04-図面枠
  2
*D5858
 70
     1
 10
0.0
 20
0.0
 30
0.0
  3
*D5858
  1

  0
LINE
  5
561
  8
回02-寸法
  6
CONTINUOUS
 62
     5
 10
2183.652358487361
 20
580.6035565325368
 30
0.0
 11
2159.282600559923
 21
580.6035565325368
 31
0.0
  0
LINE
  5
562
  8
回02-寸法
  6
CONTINUOUS
 62
     5
 10
2183.656532073067
 20
564.6047595668083
 30
0.0
 11
2159.282600559923
 21
564.6047595668083
 31
0.0
  0
LINE
  5
563
  8
回02-寸法
  6
CONTINUOUS
 62
     5
 10
2160.282600559924
 20
562.6047595668081
 30
0.0
 11
2160.282600559924
 21
552.9922246960771
 31
0.0
  0
LINE
  5
564
  8
回02-寸法
  6
CONTINUOUS
 62
     5
 10
2160.282600559924
 20
580.6035565325368
 30
0.0
 11
2160.282600559924
 21
564.6047595668083
 31
0.0
  0
LINE
  5
565
  8
回02-寸法
  6
CONTINUOUS
 62
     5
 10
2160.282600559924
 20
582.6035565325367
 30
0.0
 11
2160.282600559924
 21
584.6035565325368
 31
0.0
  0
INSERT
  5
566
  8
回02-寸法
  6
CONTINUOUS
 62
     5
  2
_OPEN
 10
2160.282600559924
 20
580.6035565325368
 30
0.0
 41
2.0
 42
2.0
 43
2.0
 50
270.0
  0
INSERT
  5
567
  8
回02-寸法
  6
CONTINUOUS
 62
     5
  2
_OPEN
 10
2160.282600559924
 20
564.6047595668083
 30
0.0
 41
2.0
 42
2.0
 43
2.0
 50
90.0
  0
TEXT
  5
568
  8
回02-寸法
  6
CONTINUOUS
 62
     5
 10
2159.782600559923
 20
552.8922246960774
 30
0.0
 40
4.0
  1
16
 50
90.0
  0
POINT
  5
569
  8
DEFPOINTS
  6
CONTINUOUS
 62
     0
 10
2183.652358487361
 20
580.6035565325368
 30
0.0
  0
POINT
  5
56A
  8
DEFPOINTS
  6
CONTINUOUS
 62
     0
 10
2183.656532073067
 20
564.6047595668083
 30
0.0
  0
POINT
  5
56B
  8
DEFPOINTS
  6
CONTINUOUS
 62
     0
 10
2160.282600559924
 20
564.6047595668083
 30
0.0
  0
ENDBLK
  5
56D
  8
回04-図面枠
  6
CONTINUOUS
 62
     1
  0
BLOCK
  8
回04-図面枠
  2
*D5959
 70
     1
 10
0.0
 20
0.0
 30
0.0
  3
*D5959
  1

  0
LINE
  5
56F
  8
回02-寸法
  6
CONTINUOUS
 62
     5
 10
2195.244288395726
 20
634.6838949526617
 30
0.0
 11
2195.244288395726
 21
690.3863688708637
 31
0.0
  0
LINE
  5
570
  8
回02-寸法
  6
CONTINUOUS
 62
     5
 10
2187.844288395726
 20
640.3438949526615
 30
0.0
 11
2187.844288395726
 21
690.3863688708637
 31
0.0
  0
LINE
  5
571
  8
回02-寸法
  6
CONTINUOUS
 62
     5
 10
2186.344288395726
 20
689.3863688708637
 30
0.0
 11
2137.435863198875
 21
689.3863688708637
 31
0.0
  0
LINE
  5
572
  8
回02-寸法
  6
CONTINUOUS
 62
     5
 10
2195.244288395726
 20
689.3863688708637
 30
0.0
 11
2187.844288395726
 21
689.3863688708637
 31
0.0
  0
LINE
  5
573
  8
回02-寸法
  6
CONTINUOUS
 62
     5
 10
2196.744288395726
 20
689.3863688708637
 30
0.0
 11
2198.244288395725
 21
689.3863688708637
 31
0.0
  0
INSERT
  5
574
  8
回02-寸法
  6
CONTINUOUS
 62
     5
  2
_OPEN
 10
2195.244288395726
 20
689.3863688708637
 30
0.0
 41
1.5
 42
1.5
 43
1.5
 50
180.0
  0
INSERT
  5
575
  8
回02-寸法
  6
CONTINUOUS
 62
     5
  2
_OPEN
 10
2187.844288395726
 20
689.3863688708637
 30
0.0
 41
1.5
 42
1.5
 43
1.5
  0
TEXT
  5
576
  8
回02-寸法
  6
CONTINUOUS
 62
     5
 10
2137.335863198876
 20
690.0863688708637
 30
0.0
 40
4.0
  1
7.4(Insulation Area)
  0
POINT
  5
577
  8
DEFPOINTS
  6
CONTINUOUS
 62
     0
 10
2195.244288395726
 20
634.6838949526617
 30
0.0
  0
POINT
  5
578
  8
DEFPOINTS
  6
CONTINUOUS
 62
     0
 10
2187.844288395726
 20
640.3438949526615
 30
0.0
  0
POINT
  5
579
  8
DEFPOINTS
  6
CONTINUOUS
 62
     0
 10
2187.844288395726
 20
689.3863688708637
 30
0.0
  0
ENDBLK
  5
57B
  8
回04-図面枠
  6
CONTINUOUS
 62
     1
  0
BLOCK
  8
回04-図面枠
  2
*D6060
 70
     1
 10
0.0
 20
0.0
 30
0.0
  3
*D6060
  1

  0
LINE
  5
57D
  8
回02-寸法
  6
CONTINUOUS
 62
     5
 10
2397.544288395726
 20
634.6838949526617
 30
0.0
 11
2397.544288395726
 21
690.3863688708637
 31
0.0
  0
LINE
  5
57E
  8
回02-寸法
  6
CONTINUOUS
 62
     5
 10
2402.044288395726
 20
640.3438949526615
 30
0.0
 11
2402.044288395726
 21
690.3863688708637
 31
0.0
  0
LINE
  5
57F
  8
回02-寸法
  6
CONTINUOUS
 62
     5
 10
2403.544288395726
 20
689.3863688708637
 30
0.0
 11
2415.241138789426
 21
689.3863688708637
 31
0.0
  0
LINE
  5
580
  8
回02-寸法
  6
CONTINUOUS
 62
     5
 10
2397.544288395726
 20
689.3863688708637
 30
0.0
 11
2402.044288395726
 21
689.3863688708637
 31
0.0
  0
LINE
  5
581
  8
回02-寸法
  6
CONTINUOUS
 62
     5
 10
2396.044288395726
 20
689.3863688708637
 30
0.0
 11
2394.544288395726
 21
689.3863688708637
 31
0.0
  0
INSERT
  5
582
  8
回02-寸法
  6
CONTINUOUS
 62
     5
  2
_OPEN
 10
2397.544288395726
 20
689.3863688708637
 30
0.0
 41
1.5
 42
1.5
 43
1.5
  0
INSERT
  5
583
  8
回02-寸法
  6
CONTINUOUS
 62
     5
  2
_OPEN
 10
2402.044288395726
 20
689.3863688708637
 30
0.0
 41
1.5
 42
1.5
 43
1.5
 50
180.0
  0
TEXT
  5
584
  8
回02-寸法
  6
CONTINUOUS
 62
     5
 10
2404.942713592576
 20
690.0863688708637
 30
0.0
 40
4.0
  1
(4.5)
  0
POINT
  5
585
  8
DEFPOINTS
  6
CONTINUOUS
 62
     0
 10
2397.544288395726
 20
634.6838949526617
 30
0.0
  0
POINT
  5
586
  8
DEFPOINTS
  6
CONTINUOUS
 62
     0
 10
2402.044288395726
 20
640.3438949526615
 30
0.0
  0
POINT
  5
587
  8
DEFPOINTS
  6
CONTINUOUS
 62
     0
 10
2402.044288395726
 20
689.3863688708637
 30
0.0
  0
ENDBLK
  5
589
  8
回04-図面枠
  6
CONTINUOUS
 62
     1
  0
BLOCK
  8
回04-図面枠
  2
*D6161
 70
     1
 10
0.0
 20
0.0
 30
0.0
  3
*D6161
  1

  0
LINE
  5
58B
  8
回02-寸法
  6
CONTINUOUS
 62
     5
 10
2397.044288395726
 20
633.8838949526615
 30
0.0
 11
2397.044288395726
 21
683.3611820782316
 31
0.0
  0
LINE
  5
58C
  8
回02-寸法
  6
CONTINUOUS
 62
     5
 10
2402.044288395726
 20
640.3438949526615
 30
0.0
 11
2402.044288395726
 21
683.3611820782316
 31
0.0
  0
LINE
  5
58D
  8
回02-寸法
  6
CONTINUOUS
 62
     5
 10
2403.544288395726
 20
682.3611820782316
 30
0.0
 11
2410.841138789427
 21
682.3611820782316
 31
0.0
  0
LINE
  5
58E
  8
回02-寸法
  6
CONTINUOUS
 62
     5
 10
2397.044288395726
 20
682.3611820782316
 30
0.0
 11
2402.044288395726
 21
682.3611820782316
 31
0.0
  0
LINE
  5
58F
  8
回02-寸法
  6
CONTINUOUS
 62
     5
 10
2395.544288395726
 20
682.3611820782316
 30
0.0
 11
2394.044288395726
 21
682.3611820782316
 31
0.0
  0
INSERT
  5
590
  8
回02-寸法
  6
CONTINUOUS
 62
     5
  2
_OPEN
 10
2397.044288395726
 20
682.3611820782316
 30
0.0
 41
1.5
 42
1.5
 43
1.5
  0
INSERT
  5
591
  8
回02-寸法
  6
CONTINUOUS
 62
     5
  2
_OPEN
 10
2402.044288395726
 20
682.3611820782316
 30
0.0
 41
1.5
 42
1.5
 43
1.5
 50
180.0
  0
TEXT
  5
592
  8
回02-寸法
  6
CONTINUOUS
 62
     5
 10
2404.942713592576
 20
683.0611820782316
 30
0.0
 40
4.0
  1
(5)
  0
POINT
  5
593
  8
DEFPOINTS
  6
CONTINUOUS
 62
     0
 10
2397.044288395726
 20
633.8838949526615
 30
0.0
  0
POINT
  5
594
  8
DEFPOINTS
  6
CONTINUOUS
 62
     0
 10
2402.044288395726
 20
640.3438949526615
 30
0.0
  0
POINT
  5
595
  8
DEFPOINTS
  6
CONTINUOUS
 62
     0
 10
2402.044288395726
 20
682.3611820782316
 30
0.0
  0
ENDBLK
  5
597
  8
回04-図面枠
  6
CONTINUOUS
 62
     1
  0
BLOCK
  8
回04-図面枠
  2
*D6262
 70
     1
 10
0.0
 20
0.0
 30
0.0
  3
*D6262
  1

  0
LINE
  5
599
  8
回02-寸法
  6
CONTINUOUS
 62
     5
 10
2395.044288395726
 20
631.8838949526615
 30
0.0
 11
2395.044288395726
 21
675.9145538215407
 31
0.0
  0
LINE
  5
59A
  8
回02-寸法
  6
CONTINUOUS
 62
     5
 10
2402.044288395726
 20
640.3438949526615
 30
0.0
 11
2402.044288395726
 21
675.9145538215407
 31
0.0
  0
LINE
  5
59B
  8
回02-寸法
  6
CONTINUOUS
 62
     5
 10
2403.544288395726
 20
674.9145538215407
 30
0.0
 11
2410.941224750086
 21
674.9145538215407
 31
0.0
  0
LINE
  5
59C
  8
回02-寸法
  6
CONTINUOUS
 62
     5
 10
2395.044288395726
 20
674.9145538215407
 30
0.0
 11
2402.044288395726
 21
674.9145538215407
 31
0.0
  0
LINE
  5
59D
  8
回02-寸法
  6
CONTINUOUS
 62
     5
 10
2393.544288395726
 20
674.9145538215407
 30
0.0
 11
2392.044288395727
 21
674.9145538215407
 31
0.0
  0
INSERT
  5
59E
  8
回02-寸法
  6
CONTINUOUS
 62
     5
  2
_OPEN
 10
2395.044288395726
 20
674.9145538215407
 30
0.0
 41
1.5
 42
1.5
 43
1.5
  0
INSERT
  5
59F
  8
回02-寸法
  6
CONTINUOUS
 62
     5
  2
_OPEN
 10
2402.044288395726
 20
674.9145538215407
 30
0.0
 41
1.5
 42
1.5
 43
1.5
 50
180.0
  0
TEXT
  5
5A0
  8
回02-寸法
  6
CONTINUOUS
 62
     5
 10
2405.042799553236
 20
675.6145538215407
 30
0.0
 40
4.0
  1
(7)
  0
POINT
  5
5A1
  8
DEFPOINTS
  6
CONTINUOUS
 62
     0
 10
2395.044288395726
 20
631.8838949526615
 30
0.0
  0
POINT
  5
5A2
  8
DEFPOINTS
  6
CONTINUOUS
 62
     0
 10
2402.044288395726
 20
640.3438949526615
 30
0.0
  0
POINT
  5
5A3
  8
DEFPOINTS
  6
CONTINUOUS
 62
     0
 10
2402.044288395726
 20
674.9145538215407
 30
0.0
  0
ENDBLK
  5
5A5
  8
回04-図面枠
  6
CONTINUOUS
 62
     1
  0
BLOCK
  8
回04-図面枠
  2
*D6363
 70
     1
 10
0.0
 20
0.0
 30
0.0
  3
*D6363
  1

  0
LINE
  5
5A7
  8
回02-寸法
  6
CONTINUOUS
 62
     5
 10
2397.544288395726
 20
510.5038949526615
 30
0.0
 11
2456.857970049842
 21
510.5038949526615
 31
0.0
  0
LINE
  5
5A8
  8
回02-寸法
  6
CONTINUOUS
 62
     5
 10
2402.044288395726
 20
504.8438949526617
 30
0.0
 11
2456.857970049842
 21
504.8438949526617
 31
0.0
  0
LINE
  5
5A9
  8
回02-寸法
  6
CONTINUOUS
 62
     5
 10
2455.857970049841
 20
503.3438949526615
 30
0.0
 11
2455.857970049841
 21
452.0354697558113
 31
0.0
  0
LINE
  5
5AA
  8
回02-寸法
  6
CONTINUOUS
 62
     5
 10
2455.857970049841
 20
510.5038949526615
 30
0.0
 11
2455.857970049841
 21
504.8438949526617
 31
0.0
  0
LINE
  5
5AB
  8
回02-寸法
  6
CONTINUOUS
 62
     5
 10
2455.857970049841
 20
512.0038949526615
 30
0.0
 11
2455.857970049841
 21
513.5038949526615
 31
0.0
  0
INSERT
  5
5AC
  8
回02-寸法
  6
CONTINUOUS
 62
     5
  2
_OPEN
 10
2455.857970049841
 20
510.5038949526615
 30
0.0
 41
1.5
 42
1.5
 43
1.5
 50
270.0
  0
INSERT
  5
5AD
  8
回02-寸法
  6
CONTINUOUS
 62
     5
  2
_OPEN
 10
2455.857970049841
 20
504.8438949526617
 30
0.0
 41
1.5
 42
1.5
 43
1.5
 50
90.0
  0
TEXT
  5
5AE
  8
回02-寸法
  6
CONTINUOUS
 62
     5
 10
2455.157970049842
 20
451.9354697558115
 30
0.0
 40
4.0
  1
5.66(Insulation Area)
 50
90.0
  0
POINT
  5
5AF
  8
DEFPOINTS
  6
CONTINUOUS
 62
     0
 10
2397.544288395726
 20
510.5038949526615
 30
0.0
  0
POINT
  5
5B0
  8
DEFPOINTS
  6
CONTINUOUS
 62
     0
 10
2402.044288395726
 20
504.8438949526617
 30
0.0
  0
POINT
  5
5B1
  8
DEFPOINTS
  6
CONTINUOUS
 62
     0
 10
2455.857970049841
 20
504.8438949526617
 30
0.0
  0
ENDBLK
  5
5B3
  8
回04-図面枠
  6
CONTINUOUS
 62
     1
  0
BLOCK
  8
回04-図面枠
  2
*D6464
 70
     1
 10
0.0
 20
0.0
 30
0.0
  3
*D6464
  1

  0
LINE
  5
5B5
  8
回02-寸法
  6
CONTINUOUS
 62
     5
 10
2395.044288395726
 20
631.8838949526615
 30
0.0
 11
2441.517679907286
 21
631.8838949526615
 31
0.0
  0
LINE
  5
5B6
  8
回02-寸法
  6
CONTINUOUS
 62
     5
 10
2402.044288395726
 20
640.3438949526615
 30
0.0
 11
2441.517679907286
 21
640.3438949526615
 31
0.0
  0
LINE
  5
5B7
  8
回02-寸法
  6
CONTINUOUS
 62
     5
 10
2440.517679907286
 20
641.8438949526618
 30
0.0
 11
2440.517679907286
 21
657.0161535547668
 31
0.0
  0
LINE
  5
5B8
  8
回02-寸法
  6
CONTINUOUS
 62
     5
 10
2440.517679907286
 20
631.8838949526615
 30
0.0
 11
2440.517679907286
 21
640.3438949526615
 31
0.0
  0
LINE
  5
5B9
  8
回02-寸法
  6
CONTINUOUS
 62
     5
 10
2440.517679907286
 20
630.3838949526615
 30
0.0
 11
2440.517679907286
 21
628.8838949526615
 31
0.0
  0
INSERT
  5
5BA
  8
回02-寸法
  6
CONTINUOUS
 62
     5
  2
_OPEN
 10
2440.517679907286
 20
631.8838949526615
 30
0.0
 41
1.5
 42
1.5
 43
1.5
 50
90.0
  0
INSERT
  5
5BB
  8
回02-寸法
  6
CONTINUOUS
 62
     5
  2
_OPEN
 10
2440.517679907286
 20
640.3438949526615
 30
0.0
 41
1.5
 42
1.5
 43
1.5
 50
270.0
  0
TEXT
  5
5BC
  8
回02-寸法
  6
CONTINUOUS
 62
     5
 10
2439.817679907287
 20
643.9177283579165
 30
0.0
 40
4.0
  1
(8.46)
 50
90.0
  0
POINT
  5
5BD
  8
DEFPOINTS
  6
CONTINUOUS
 62
     0
 10
2395.044288395726
 20
631.8838949526615
 30
0.0
  0
POINT
  5
5BE
  8
DEFPOINTS
  6
CONTINUOUS
 62
     0
 10
2402.044288395726
 20
640.3438949526615
 30
0.0
  0
POINT
  5
5BF
  8
DEFPOINTS
  6
CONTINUOUS
 62
     0
 10
2440.517679907286
 20
640.3438949526615
 30
0.0
  0
ENDBLK
  5
5C1
  8
回04-図面枠
  6
CONTINUOUS
 62
     1
  0
BLOCK
  8
回04-図面枠
  2
*D6565
 70
     1
 10
0.0
 20
0.0
 30
0.0
  3
*D6565
  1

  0
LINE
  5
5C3
  8
回02-寸法
  6
CONTINUOUS
 62
     5
 10
2397.044288395726
 20
633.8838949526615
 30
0.0
 11
2449.868906367404
 21
633.8838949526615
 31
0.0
  0
LINE
  5
5C4
  8
回02-寸法
  6
CONTINUOUS
 62
     5
 10
2402.044288395726
 20
640.3438949526615
 30
0.0
 11
2449.868906367404
 21
640.3438949526615
 31
0.0
  0
LINE
  5
5C5
  8
回02-寸法
  6
CONTINUOUS
 62
     5
 10
2448.868906367404
 20
641.8438949526618
 30
0.0
 11
2448.868906367404
 21
656.3407453463622
 31
0.0
  0
LINE
  5
5C6
  8
回02-寸法
  6
CONTINUOUS
 62
     5
 10
2448.868906367404
 20
633.8838949526615
 30
0.0
 11
2448.868906367404
 21
640.3438949526615
 31
0.0
  0
LINE
  5
5C7
  8
回02-寸法
  6
CONTINUOUS
 62
     5
 10
2448.868906367404
 20
632.3838949526615
 30
0.0
 11
2448.868906367404
 21
630.8838949526617
 31
0.0
  0
INSERT
  5
5C8
  8
回02-寸法
  6
CONTINUOUS
 62
     5
  2
_OPEN
 10
2448.868906367404
 20
633.8838949526615
 30
0.0
 41
1.5
 42
1.5
 43
1.5
 50
90.0
  0
INSERT
  5
5C9
  8
回02-寸法
  6
CONTINUOUS
 62
     5
  2
_OPEN
 10
2448.868906367404
 20
640.3438949526615
 30
0.0
 41
1.5
 42
1.5
 43
1.5
 50
270.0
  0
TEXT
  5
5CA
  8
回02-寸法
  6
CONTINUOUS
 62
     5
 10
2448.168906367404
 20
643.2423201495121
 30
0.0
 40
4.0
  1
(6.46)
 50
90.0
  0
POINT
  5
5CB
  8
DEFPOINTS
  6
CONTINUOUS
 62
     0
 10
2397.044288395726
 20
633.8838949526615
 30
0.0
  0
POINT
  5
5CC
  8
DEFPOINTS
  6
CONTINUOUS
 62
     0
 10
2402.044288395726
 20
640.3438949526615
 30
0.0
  0
POINT
  5
5CD
  8
DEFPOINTS
  6
CONTINUOUS
 62
     0
 10
2448.868906367404
 20
640.3438949526615
 30
0.0
  0
ENDBLK
  5
5CF
  8
回04-図面枠
  6
CONTINUOUS
 62
     1
  0
BLOCK
  8
回04-図面枠
  2
*D6666
 70
     1
 10
0.0
 20
0.0
 30
0.0
  3
*D6666
  1

  0
LINE
  5
5D1
  8
回02-寸法
  6
CONTINUOUS
 62
     5
 10
2397.544288395726
 20
634.6838949526617
 30
0.0
 11
2456.857970049842
 21
634.6838949526617
 31
0.0
  0
LINE
  5
5D2
  8
回02-寸法
  6
CONTINUOUS
 62
     5
 10
2402.044288395726
 20
640.3438949526615
 30
0.0
 11
2456.857970049842
 21
640.3438949526615
 31
0.0
  0
LINE
  5
5D3
  8
回02-寸法
  6
CONTINUOUS
 62
     5
 10
2455.857970049843
 20
641.8438949526618
 30
0.0
 11
2455.857970049843
 21
696.3507453463626
 31
0.0
  0
LINE
  5
5D4
  8
回02-寸法
  6
CONTINUOUS
 62
     5
 10
2455.857970049843
 20
634.6838949526617
 30
0.0
 11
2455.857970049843
 21
640.3438949526615
 31
0.0
  0
LINE
  5
5D5
  8
回02-寸法
  6
CONTINUOUS
 62
     5
 10
2455.857970049843
 20
633.1838949526617
 30
0.0
 11
2455.857970049843
 21
631.6838949526617
 31
0.0
  0
INSERT
  5
5D6
  8
回02-寸法
  6
CONTINUOUS
 62
     5
  2
_OPEN
 10
2455.857970049843
 20
634.6838949526617
 30
0.0
 41
1.5
 42
1.5
 43
1.5
 50
90.0
  0
INSERT
  5
5D7
  8
回02-寸法
  6
CONTINUOUS
 62
     5
  2
_OPEN
 10
2455.857970049843
 20
640.3438949526615
 30
0.0
 41
1.5
 42
1.5
 43
1.5
 50
270.0
  0
TEXT
  5
5D8
  8
回02-寸法
  6
CONTINUOUS
 62
     5
 10
2455.157970049842
 20
643.2423201495121
 30
0.0
 40
4.0
  1
(5.66)(Insulation Area)
 50
90.0
  0
POINT
  5
5D9
  8
DEFPOINTS
  6
CONTINUOUS
 62
     0
 10
2397.544288395726
 20
634.6838949526617
 30
0.0
  0
POINT
  5
5DA
  8
DEFPOINTS
  6
CONTINUOUS
 62
     0
 10
2402.044288395726
 20
640.3438949526615
 30
0.0
  0
POINT
  5
5DB
  8
DEFPOINTS
  6
CONTINUOUS
 62
     0
 10
2455.857970049843
 20
640.3438949526615
 30
0.0
  0
ENDBLK
  5
5DD
  8
回04-図面枠
  6
CONTINUOUS
 62
     1
  0
BLOCK
  8
回04-図面枠
  2
*D6767
 70
     1
 10
0.0
 20
0.0
 30
0.0
  3
*D6767
  1

  0
LINE
  5
5DF
  8
回02-寸法
  6
CONTINUOUS
 62
     5
 10
2397.544288395726
 20
634.6838949526617
 30
0.0
 11
2456.857970049841
 21
634.6838949526617
 31
0.0
  0
LINE
  5
5E0
  8
回02-寸法
  6
CONTINUOUS
 62
     5
 10
2397.544288395726
 20
510.5038949526615
 30
0.0
 11
2456.857970049841
 21
510.5038949526615
 31
0.0
  0
LINE
  5
5E1
  8
回02-寸法
  6
CONTINUOUS
 62
     5
 10
2455.857970049841
 20
633.1838949526617
 30
0.0
 11
2455.857970049841
 21
512.0038949526615
 31
0.0
  0
INSERT
  5
5E2
  8
回02-寸法
  6
CONTINUOUS
 62
     5
  2
_OPEN
 10
2455.857970049841
 20
634.6838949526617
 30
0.0
 41
1.5
 42
1.5
 43
1.5
 50
90.0
  0
INSERT
  5
5E3
  8
回02-寸法
  6
CONTINUOUS
 62
     5
  2
_OPEN
 10
2455.857970049841
 20
510.5038949526615
 30
0.0
 41
1.5
 42
1.5
 43
1.5
 50
270.0
  0
TEXT
  5
5E4
  8
回02-寸法
  6
CONTINUOUS
 62
     5
 10
2455.357970049841
 20
565.5938949526618
 30
0.0
 40
4.0
  1
124.18
 50
90.0
  0
POINT
  5
5E5
  8
DEFPOINTS
  6
CONTINUOUS
 62
     0
 10
2397.544288395726
 20
634.6838949526617
 30
0.0
  0
POINT
  5
5E6
  8
DEFPOINTS
  6
CONTINUOUS
 62
     0
 10
2397.544288395726
 20
510.5038949526615
 30
0.0
  0
POINT
  5
5E7
  8
DEFPOINTS
  6
CONTINUOUS
 62
     0
 10
2455.857970049841
 20
510.5038949526615
 30
0.0
  0
ENDBLK
  5
5E9
  8
回04-図面枠
  6
CONTINUOUS
 62
     1
  0
BLOCK
  8
回04-図面枠
  2
*D6868
 70
     1
 10
0.0
 20
0.0
 30
0.0
  3
*D6868
  1

  0
LINE
  5
5EB
  8
回02-寸法
  6
CONTINUOUS
 62
     5
 10
2397.544288395726
 20
634.6838949526617
 30
0.0
 11
2397.544288395726
 21
690.3863688708637
 31
0.0
  0
LINE
  5
5EC
  8
回02-寸法
  6
CONTINUOUS
 62
     5
 10
2195.244288395726
 20
634.6838949526617
 30
0.0
 11
2195.244288395726
 21
690.3863688708637
 31
0.0
  0
LINE
  5
5ED
  8
回02-寸法
  6
CONTINUOUS
 62
     5
 10
2396.044288395726
 20
689.3863688708637
 30
0.0
 11
2196.744288395726
 21
689.3863688708637
 31
0.0
  0
INSERT
  5
5EE
  8
回02-寸法
  6
CONTINUOUS
 62
     5
  2
_OPEN
 10
2397.544288395726
 20
689.3863688708637
 30
0.0
 41
1.5
 42
1.5
 43
1.5
  0
INSERT
  5
5EF
  8
回02-寸法
  6
CONTINUOUS
 62
     5
  2
_OPEN
 10
2195.244288395726
 20
689.3863688708637
 30
0.0
 41
1.5
 42
1.5
 43
1.5
 50
180.0
  0
TEXT
  5
5F0
  8
回02-寸法
  6
CONTINUOUS
 62
     5
 10
2290.194288395726
 20
689.8863688708637
 30
0.0
 40
4.0
  1
202.3
  0
POINT
  5
5F1
  8
DEFPOINTS
  6
CONTINUOUS
 62
     0
 10
2397.544288395726
 20
634.6838949526617
 30
0.0
  0
POINT
  5
5F2
  8
DEFPOINTS
  6
CONTINUOUS
 62
     0
 10
2195.244288395726
 20
634.6838949526617
 30
0.0
  0
POINT
  5
5F3
  8
DEFPOINTS
  6
CONTINUOUS
 62
     0
 10
2195.244288395726
 20
689.3863688708637
 30
0.0
  0
ENDBLK
  5
5F5
  8
回04-図面枠
  6
CONTINUOUS
 62
     1
  0
BLOCK
  8
回04-図面枠
  2
*D6969
 70
     1
 10
0.0
 20
0.0
 30
0.0
  3
*D6969
  1

  0
LINE
  5
5F7
  8
回02-寸法
  6
CONTINUOUS
 62
     5
 10
2397.044288395726
 20
511.3038949526616
 30
0.0
 11
2449.868906367404
 21
511.3038949526616
 31
0.0
  0
LINE
  5
5F8
  8
回02-寸法
  6
CONTINUOUS
 62
     5
 10
2402.044288395726
 20
504.8438949526617
 30
0.0
 11
2449.868906367404
 21
504.8438949526617
 31
0.0
  0
LINE
  5
5F9
  8
回02-寸法
  6
CONTINUOUS
 62
     5
 10
2448.868906367404
 20
503.3438949526615
 30
0.0
 11
2448.868906367404
 21
492.0405548389261
 31
0.0
  0
LINE
  5
5FA
  8
回02-寸法
  6
CONTINUOUS
 62
     5
 10
2448.868906367404
 20
511.3038949526616
 30
0.0
 11
2448.868906367404
 21
504.8438949526617
 31
0.0
  0
LINE
  5
5FB
  8
回02-寸法
  6
CONTINUOUS
 62
     5
 10
2448.868906367404
 20
512.8038949526617
 30
0.0
 11
2448.868906367404
 21
514.3038949526617
 31
0.0
  0
INSERT
  5
5FC
  8
回02-寸法
  6
CONTINUOUS
 62
     5
  2
_OPEN
 10
2448.868906367404
 20
511.3038949526616
 30
0.0
 41
1.5
 42
1.5
 43
1.5
 50
270.0
  0
INSERT
  5
5FD
  8
回02-寸法
  6
CONTINUOUS
 62
     5
  2
_OPEN
 10
2448.868906367404
 20
504.8438949526617
 30
0.0
 41
1.5
 42
1.5
 43
1.5
 50
90.0
  0
TEXT
  5
5FE
  8
回02-寸法
  6
CONTINUOUS
 62
     5
 10
2448.368906367404
 20
491.9405548389263
 30
0.0
 40
4.0
  1
6.46
 50
90.0
  0
POINT
  5
5FF
  8
DEFPOINTS
  6
CONTINUOUS
 62
     0
 10
2397.044288395726
 20
511.3038949526616
 30
0.0
  0
POINT
  5
600
  8
DEFPOINTS
  6
CONTINUOUS
 62
     0
 10
2402.044288395726
 20
504.8438949526617
 30
0.0
  0
POINT
  5
601
  8
DEFPOINTS
  6
CONTINUOUS
 62
     0
 10
2448.868906367404
 20
504.8438949526617
 30
0.0
  0
ENDBLK
  5
603
  8
回04-図面枠
  6
CONTINUOUS
 62
     1
  0
BLOCK
  8
回04-図面枠
  2
*D7070
 70
     1
 10
0.0
 20
0.0
 30
0.0
  3
*D7070
  1

  0
LINE
  5
605
  8
回02-寸法
  6
CONTINUOUS
 62
     5
 10
2395.044288395726
 20
513.3038949526617
 30
0.0
 11
2441.517679907286
 21
513.3038949526617
 31
0.0
  0
LINE
  5
606
  8
回02-寸法
  6
CONTINUOUS
 62
     5
 10
2402.044288395726
 20
504.8438949526617
 30
0.0
 11
2441.517679907286
 21
504.8438949526617
 31
0.0
  0
LINE
  5
607
  8
回02-寸法
  6
CONTINUOUS
 62
     5
 10
2440.517679907286
 20
503.3438949526615
 30
0.0
 11
2440.517679907286
 21
491.0281602601506
 31
0.0
  0
LINE
  5
608
  8
回02-寸法
  6
CONTINUOUS
 62
     5
 10
2440.517679907286
 20
513.3038949526617
 30
0.0
 11
2440.517679907286
 21
504.8438949526617
 31
0.0
  0
LINE
  5
609
  8
回02-寸法
  6
CONTINUOUS
 62
     5
 10
2440.517679907286
 20
514.8038949526617
 30
0.0
 11
2440.517679907286
 21
516.3038949526617
 31
0.0
  0
INSERT
  5
60A
  8
回02-寸法
  6
CONTINUOUS
 62
     5
  2
_OPEN
 10
2440.517679907286
 20
513.3038949526617
 30
0.0
 41
1.5
 42
1.5
 43
1.5
 50
270.0
  0
INSERT
  5
60B
  8
回02-寸法
  6
CONTINUOUS
 62
     5
  2
_OPEN
 10
2440.517679907286
 20
504.8438949526617
 30
0.0
 41
1.5
 42
1.5
 43
1.5
 50
90.0
  0
TEXT
  5
60C
  8
回02-寸法
  6
CONTINUOUS
 62
     5
 10
2440.017679907286
 20
490.9281602601509
 30
0.0
 40
4.0
  1
8.46
 50
90.0
  0
POINT
  5
60D
  8
DEFPOINTS
  6
CONTINUOUS
 62
     0
 10
2395.044288395726
 20
513.3038949526617
 30
0.0
  0
POINT
  5
60E
  8
DEFPOINTS
  6
CONTINUOUS
 62
     0
 10
2402.044288395726
 20
504.8438949526617
 30
0.0
  0
POINT
  5
60F
  8
DEFPOINTS
  6
CONTINUOUS
 62
     0
 10
2440.517679907286
 20
504.8438949526617
 30
0.0
  0
ENDBLK
  5
611
  8
回04-図面枠
  6
CONTINUOUS
 62
     1
  0
BLOCK
  8
回04-図面枠
  2
*D7171
 70
     1
 10
0.0
 20
0.0
 30
0.0
  3
*D7171
  1

  0
LINE
  5
613
  8
回02-寸法
  6
CONTINUOUS
 62
     5
 10
2195.744288395726
 20
633.8838949526615
 30
0.0
 11
2195.744288395726
 21
683.3611820782316
 31
0.0
  0
LINE
  5
614
  8
回02-寸法
  6
CONTINUOUS
 62
     5
 10
2187.844288395726
 20
640.3438949526615
 30
0.0
 11
2187.844288395726
 21
683.3611820782316
 31
0.0
  0
LINE
  5
615
  8
回02-寸法
  6
CONTINUOUS
 62
     5
 10
2186.344288395726
 20
682.3611820782316
 30
0.0
 11
2178.093880700668
 21
682.3611820782316
 31
0.0
  0
LINE
  5
616
  8
回02-寸法
  6
CONTINUOUS
 62
     5
 10
2195.744288395726
 20
682.3611820782316
 30
0.0
 11
2187.844288395726
 21
682.3611820782316
 31
0.0
  0
LINE
  5
617
  8
回02-寸法
  6
CONTINUOUS
 62
     5
 10
2197.244288395726
 20
682.3611820782316
 30
0.0
 11
2198.744288395726
 21
682.3611820782316
 31
0.0
  0
INSERT
  5
618
  8
回02-寸法
  6
CONTINUOUS
 62
     5
  2
_OPEN
 10
2195.744288395726
 20
682.3611820782316
 30
0.0
 41
1.5
 42
1.5
 43
1.5
 50
180.0
  0
INSERT
  5
619
  8
回02-寸法
  6
CONTINUOUS
 62
     5
  2
_OPEN
 10
2187.844288395726
 20
682.3611820782316
 30
0.0
 41
1.5
 42
1.5
 43
1.5
  0
TEXT
  5
61A
  8
回02-寸法
  6
CONTINUOUS
 62
     5
 10
2177.993880700668
 20
682.8611820782316
 30
0.0
 40
4.0
  1
7.9
  0
POINT
  5
61B
  8
DEFPOINTS
  6
CONTINUOUS
 62
     0
 10
2195.744288395726
 20
633.8838949526615
 30
0.0
  0
POINT
  5
61C
  8
DEFPOINTS
  6
CONTINUOUS
 62
     0
 10
2187.844288395726
 20
640.3438949526615
 30
0.0
  0
POINT
  5
61D
  8
DEFPOINTS
  6
CONTINUOUS
 62
     0
 10
2187.844288395726
 20
682.3611820782316
 30
0.0
  0
ENDBLK
  5
61F
  8
回04-図面枠
  6
CONTINUOUS
 62
     1
  0
BLOCK
  8
回04-図面枠
  2
*D7272
 70
     1
 10
0.0
 20
0.0
 30
0.0
  3
*D7272
  1

  0
LINE
  5
621
  8
回02-寸法
  6
CONTINUOUS
 62
     5
 10
2402.044288395726
 20
504.8438949526617
 30
0.0
 11
2463.98199859774
 21
504.8438949526617
 31
0.0
  0
LINE
  5
622
  8
回02-寸法
  6
CONTINUOUS
 62
     5
 10
2402.044288395726
 20
640.3438949526615
 30
0.0
 11
2463.98199859774
 21
640.3438949526615
 31
0.0
  0
LINE
  5
623
  8
回02-寸法
  6
CONTINUOUS
 62
     5
 10
2462.981998597741
 20
506.3438949526616
 30
0.0
 11
2462.981998597741
 21
638.8438949526618
 31
0.0
  0
INSERT
  5
624
  8
回02-寸法
  6
CONTINUOUS
 62
     5
  2
_OPEN
 10
2462.981998597741
 20
504.8438949526617
 30
0.0
 41
1.5
 42
1.5
 43
1.5
 50
270.0
  0
INSERT
  5
625
  8
回02-寸法
  6
CONTINUOUS
 62
     5
  2
_OPEN
 10
2462.981998597741
 20
640.3438949526615
 30
0.0
 41
1.5
 42
1.5
 43
1.5
 50
90.0
  0
INSERT
  5
626
  8
回02-寸法
  6
CONTINUOUS
 62
     5
 66
     1
  2
*X108108
 10
0.0
 20
0.0
 30
0.0
  0
SEQEND
  5
777
  8
回04-図面枠
  6
CONTINUOUS
 62
     1
  0
POINT
  5
627
  8
DEFPOINTS
  6
CONTINUOUS
 62
     0
 10
2402.044288395726
 20
504.8438949526617
 30
0.0
  0
POINT
  5
628
  8
DEFPOINTS
  6
CONTINUOUS
 62
     0
 10
2402.044288395726
 20
640.3438949526615
 30
0.0
  0
POINT
  5
629
  8
DEFPOINTS
  6
CONTINUOUS
 62
     0
 10
2462.981998597741
 20
640.3438949526615
 30
0.0
  0
ENDBLK
  5
62B
  8
回04-図面枠
  6
CONTINUOUS
 62
     1
  0
BLOCK
  8
回04-図面枠
  2
*D7373
 70
     1
 10
0.0
 20
0.0
 30
0.0
  3
*D7373
  1

  0
LINE
  5
62D
  8
回02-寸法
  6
CONTINUOUS
 62
     5
 10
2397.044288395726
 20
633.8838949526615
 30
0.0
 11
2449.868906367405
 21
633.8838949526615
 31
0.0
  0
LINE
  5
62E
  8
回02-寸法
  6
CONTINUOUS
 62
     5
 10
2397.044288395726
 20
511.3038949526616
 30
0.0
 11
2449.868906367405
 21
511.3038949526616
 31
0.0
  0
LINE
  5
62F
  8
回02-寸法
  6
CONTINUOUS
 62
     5
 10
2448.868906367405
 20
632.3838949526615
 30
0.0
 11
2448.868906367405
 21
512.8038949526617
 31
0.0
  0
INSERT
  5
630
  8
回02-寸法
  6
CONTINUOUS
 62
     5
  2
_OPEN
 10
2448.868906367405
 20
633.8838949526615
 30
0.0
 41
1.5
 42
1.5
 43
1.5
 50
90.0
  0
INSERT
  5
631
  8
回02-寸法
  6
CONTINUOUS
 62
     5
  2
_OPEN
 10
2448.868906367405
 20
511.3038949526616
 30
0.0
 41
1.5
 42
1.5
 43
1.5
 50
270.0
  0
INSERT
  5
632
  8
回02-寸法
  6
CONTINUOUS
 62
     5
 66
     1
  2
*X109109
 10
0.0
 20
0.0
 30
0.0
  0
SEQEND
  5
77D
  8
回04-図面枠
  6
CONTINUOUS
 62
     1
  0
POINT
  5
633
  8
DEFPOINTS
  6
CONTINUOUS
 62
     0
 10
2397.044288395726
 20
633.8838949526615
 30
0.0
  0
POINT
  5
634
  8
DEFPOINTS
  6
CONTINUOUS
 62
     0
 10
2397.044288395726
 20
511.3038949526616
 30
0.0
  0
POINT
  5
635
  8
DEFPOINTS
  6
CONTINUOUS
 62
     0
 10
2448.868906367405
 20
511.3038949526616
 30
0.0
  0
ENDBLK
  5
637
  8
回04-図面枠
  6
CONTINUOUS
 62
     1
  0
BLOCK
  8
回04-図面枠
  2
*D7474
 70
     1
 10
0.0
 20
0.0
 30
0.0
  3
*D7474
  1

  0
LINE
  5
639
  8
回02-寸法
  6
CONTINUOUS
 62
     5
 10
2395.044288395726
 20
513.3038949526617
 30
0.0
 11
2441.517679907287
 21
513.3038949526617
 31
0.0
  0
LINE
  5
63A
  8
回02-寸法
  6
CONTINUOUS
 62
     5
 10
2395.044288395726
 20
631.8838949526615
 30
0.0
 11
2441.517679907287
 21
631.8838949526615
 31
0.0
  0
LINE
  5
63B
  8
回02-寸法
  6
CONTINUOUS
 62
     5
 10
2440.517679907287
 20
514.8038949526617
 30
0.0
 11
2440.517679907287
 21
630.3838949526615
 31
0.0
  0
INSERT
  5
63C
  8
回02-寸法
  6
CONTINUOUS
 62
     5
  2
_OPEN
 10
2440.517679907287
 20
513.3038949526617
 30
0.0
 41
1.5
 42
1.5
 43
1.5
 50
270.0
  0
INSERT
  5
63D
  8
回02-寸法
  6
CONTINUOUS
 62
     5
  2
_OPEN
 10
2440.517679907287
 20
631.8838949526615
 30
0.0
 41
1.5
 42
1.5
 43
1.5
 50
90.0
  0
INSERT
  5
63E
  8
回02-寸法
  6
CONTINUOUS
 62
     5
 66
     1
  2
*X110110
 10
0.0
 20
0.0
 30
0.0
  0
SEQEND
  5
783
  8
回04-図面枠
  6
CONTINUOUS
 62
     1
  0
POINT
  5
63F
  8
DEFPOINTS
  6
CONTINUOUS
 62
     0
 10
2395.044288395726
 20
513.3038949526617
 30
0.0
  0
POINT
  5
640
  8
DEFPOINTS
  6
CONTINUOUS
 62
     0
 10
2395.044288395726
 20
631.8838949526615
 30
0.0
  0
POINT
  5
641
  8
DEFPOINTS
  6
CONTINUOUS
 62
     0
 10
2440.517679907287
 20
631.8838949526615
 30
0.0
  0
ENDBLK
  5
643
  8
回04-図面枠
  6
CONTINUOUS
 62
     1
  0
BLOCK
  8
回04-図面枠
  2
*D7575
 70
     1
 10
0.0
 20
0.0
 30
0.0
  3
*D7575
  1

  0
LINE
  5
645
  8
回02-寸法
  6
CONTINUOUS
 62
     5
 10
2187.844288395726
 20
640.3438949526615
 30
0.0
 11
2187.844288395726
 21
696.5423803902117
 31
0.0
  0
LINE
  5
646
  8
回02-寸法
  6
CONTINUOUS
 62
     5
 10
2402.044288395726
 20
640.3438949526615
 30
0.0
 11
2402.044288395726
 21
696.5423803902117
 31
0.0
  0
LINE
  5
647
  8
回02-寸法
  6
CONTINUOUS
 62
     5
 10
2189.344288395726
 20
695.5423803902117
 30
0.0
 11
2400.544288395726
 21
695.5423803902117
 31
0.0
  0
INSERT
  5
648
  8
回02-寸法
  6
CONTINUOUS
 62
     5
  2
_OPEN
 10
2187.844288395726
 20
695.5423803902117
 30
0.0
 41
1.5
 42
1.5
 43
1.5
 50
180.0
  0
INSERT
  5
649
  8
回02-寸法
  6
CONTINUOUS
 62
     5
  2
_OPEN
 10
2402.044288395726
 20
695.5423803902117
 30
0.0
 41
1.5
 42
1.5
 43
1.5
  0
INSERT
  5
64A
  8
回02-寸法
  6
CONTINUOUS
 62
     5
 66
     1
  2
*X111111
 10
0.0
 20
0.0
 30
0.0
  0
SEQEND
  5
789
  8
回04-図面枠
  6
CONTINUOUS
 62
     1
  0
POINT
  5
64B
  8
DEFPOINTS
  6
CONTINUOUS
 62
     0
 10
2187.844288395726
 20
640.3438949526615
 30
0.0
  0
POINT
  5
64C
  8
DEFPOINTS
  6
CONTINUOUS
 62
     0
 10
2402.044288395726
 20
640.3438949526615
 30
0.0
  0
POINT
  5
64D
  8
DEFPOINTS
  6
CONTINUOUS
 62
     0
 10
2402.044288395726
 20
695.5423803902117
 30
0.0
  0
ENDBLK
  5
64F
  8
回04-図面枠
  6
CONTINUOUS
 62
     1
  0
BLOCK
  8
回04-図面枠
  2
*D7676
 70
     1
 10
0.0
 20
0.0
 30
0.0
  3
*D7676
  1

  0
LINE
  5
651
  8
回02-寸法
  6
CONTINUOUS
 62
     5
 10
2195.744288395726
 20
633.8838949526615
 30
0.0
 11
2195.744288395726
 21
683.3611820782316
 31
0.0
  0
LINE
  5
652
  8
回02-寸法
  6
CONTINUOUS
 62
     5
 10
2397.044288395726
 20
633.8838949526615
 30
0.0
 11
2397.044288395726
 21
683.3611820782316
 31
0.0
  0
LINE
  5
653
  8
回02-寸法
  6
CONTINUOUS
 62
     5
 10
2197.244288395726
 20
682.3611820782316
 30
0.0
 11
2395.544288395726
 21
682.3611820782316
 31
0.0
  0
INSERT
  5
654
  8
回02-寸法
  6
CONTINUOUS
 62
     5
  2
_OPEN
 10
2195.744288395726
 20
682.3611820782316
 30
0.0
 41
1.5
 42
1.5
 43
1.5
 50
180.0
  0
INSERT
  5
655
  8
回02-寸法
  6
CONTINUOUS
 62
     5
  2
_OPEN
 10
2397.044288395726
 20
682.3611820782316
 30
0.0
 41
1.5
 42
1.5
 43
1.5
  0
INSERT
  5
656
  8
回02-寸法
  6
CONTINUOUS
 62
     5
 66
     1
  2
*X112112
 10
0.0
 20
0.0
 30
0.0
  0
SEQEND
  5
78F
  8
回04-図面枠
  6
CONTINUOUS
 62
     1
  0
POINT
  5
657
  8
DEFPOINTS
  6
CONTINUOUS
 62
     0
 10
2195.744288395726
 20
633.8838949526615
 30
0.0
  0
POINT
  5
658
  8
DEFPOINTS
  6
CONTINUOUS
 62
     0
 10
2397.044288395726
 20
633.8838949526615
 30
0.0
  0
POINT
  5
659
  8
DEFPOINTS
  6
CONTINUOUS
 62
     0
 10
2397.044288395726
 20
682.3611820782316
 30
0.0
  0
ENDBLK
  5
65B
  8
回04-図面枠
  6
CONTINUOUS
 62
     1
  0
BLOCK
  8
回04-図面枠
  2
*X7777
 70
     1
 10
0.0
 20
0.0
 30
0.0
  3
*X7777
  1

  0
INSERT
  5
660
  8
回03-記事
  6
CONTINUOUS
 62
     5
  2
_OPEN
 10
2110.26445124739
 20
461.8118160820713
 30
0.0
 41
2.0
 42
2.0
 43
2.0
 50
324.3887742357533
  0
LINE
  5
661
  8
回03-記事
  6
CONTINUOUS
 62
     5
 10
2108.638477863194
 20
462.9763806160871
 30
0.0
 11
2101.799886849142
 21
467.8743578124002
 31
0.0
  0
LINE
  5
662
  8
回03-記事
  6
CONTINUOUS
 62
     5
 10
2101.799886849142
 20
467.8743578124002
 30
0.0
 11
2075.592386849142
 21
467.8743578124002
 31
0.0
  0
ENDBLK
  5
664
  8
回04-図面枠
  6
CONTINUOUS
 62
     1
  0
BLOCK
  8
回04-図面枠
  2
*X7878
 70
     1
 10
0.0
 20
0.0
 30
0.0
  3
*X7878
  1

  0
INSERT
  5
667
  8
回03-記事
  6
CONTINUOUS
 62
     5
  2
_OPEN
 10
2110.458249716848
 20
575.7209506724489
 30
0.0
 41
2.0
 42
2.0
 43
2.0
 50
236.6265780747958
  0
LINE
  5
668
  8
回03-記事
  6
CONTINUOUS
 62
     5
 10
2111.558436548632
 20
577.3911569277268
 30
0.0
 11
2114.318422849336
 21
581.5811238049377
 31
0.0
  0
LINE
  5
669
  8
回03-記事
  6
CONTINUOUS
 62
     5
 10
2114.318422849336
 20
581.5811238049377
 30
0.0
 11
2116.818422849336
 21
581.5811238049377
 31
0.0
  0
ENDBLK
  5
66B
  8
回04-図面枠
  6
CONTINUOUS
 62
     1
  0
BLOCK
  8
回04-図面枠
  2
*X7979
 70
     1
 10
0.0
 20
0.0
 30
0.0
  3
*X7979
  1

  0
INSERT
  5
66E
  8
回03-記事
  6
CONTINUOUS
 62
     5
  2
_OPEN
 10
2186.402549634995
 20
567.0816698372369
 30
0.0
 41
2.0
 42
2.0
 43
2.0
 50
70.22821374870611
  0
LINE
  5
66F
  8
回03-記事
  6
CONTINUOUS
 62
     5
 10
2185.726000498907
 20
565.1995749229302
 30
0.0
 11
2176.511198535822
 21
539.56487821583
 31
0.0
  0
LINE
  5
670
  8
回03-記事
  6
CONTINUOUS
 62
     5
 10
2176.511198535822
 20
539.56487821583
 30
0.0
 11
2141.611198535822
 21
539.56487821583
 31
0.0
  0
ENDBLK
  5
672
  8
回04-図面枠
  6
CONTINUOUS
 62
     1
  0
BLOCK
  8
回04-図面枠
  2
*X8080
 70
     1
 10
0.0
 20
0.0
 30
0.0
  3
*X8080
  1

  0
INSERT
  5
675
  8
回02-寸法
  6
CONTINUOUS
 62
     5
  2
_OPEN
 10
2109.790231067794
 20
649.5373795542358
 30
0.0
 41
2.0
 42
2.0
 43
2.0
 50
294.1578552206892
  0
LINE
  5
676
  8
回02-寸法
 62
     5
 10
2108.971727069342
 20
651.3622223432231
 30
0.0
 11
2107.792499269459
 21
653.9912936138103
 31
0.0
  0
LINE
  5
677
  8
回02-寸法
 62
     5
 10
2107.792499269459
 20
653.9912936138103
 30
0.0
 11
2094.492499269459
 21
653.9912936138103
 31
0.0
  0
ENDBLK
  5
679
  8
回04-図面枠
  6
CONTINUOUS
 62
     1
  0
BLOCK
  8
回04-図面枠
  2
*X8181
 70
     1
 10
0.0
 20
0.0
 30
0.0
  3
*X8181
  1

  0
TEXT
  5
697
  8
回02-寸法
  6
CONTINUOUS
 62
     5
 10
2336.368629493764
 20
557.3182360506986
 30
0.0
 40
3.0
  1
φ0.05
  0
POLYLINE
  5
698
  8
回02-寸法
  6
BYBLOCK
 62
     5
 66
     1
 10
0.0
 20
0.0
 30
0.0
  0
VERTEX
  5
A28
  8
回02-寸法
  6
BYBLOCK
 62
     5
 10
2333.866355302531
 20
553.9477852812662
 30
0.0
  0
VERTEX
  5
A2A
  8
回02-寸法
  6
BYBLOCK
 62
     5
 10
2336.878629493763
 20
556.7182360506985
 30
0.0
  0
SEQEND
  5
A29
  8
回04-図面枠
  6
CONTINUOUS
 62
     1
  0
SOLID
  5
69C
  8
回02-寸法
  6
CONTINUOUS
 62
     5
 10
2334.092003690632
 20
553.7024407967988
 30
0.0
 11
2332.394288395726
 21
552.5938949526617
 31
0.0
 12
2333.640706914431
 22
554.1931297657338
 32
0.0
 13
2333.640706914431
 23
554.1931297657338
 33
0.0
  0
POLYLINE
  5
69D
  8
回02-寸法
  6
BYBLOCK
 62
     5
 66
     1
 10
0.0
 20
0.0
 30
0.0
  0
VERTEX
  5
A2B
  8
回02-寸法
  6
BYBLOCK
 62
     5
 10
2336.878629493763
 20
556.7182360506985
 30
0.0
  0
VERTEX
  5
A2D
  8
回02-寸法
  6
BYBLOCK
 62
     5
 10
2346.718629493763
 20
556.7182360506985
 30
0.0
  0
SEQEND
  5
A2C
  8
回04-図面枠
  6
CONTINUOUS
 62
     1
  0
ENDBLK
  5
6A2
  8
回04-図面枠
  6
CONTINUOUS
 62
     1
  0
BLOCK
  8
回04-図面枠
  2
*X8282
 70
     1
 10
0.0
 20
0.0
 30
0.0
  3
*X8282
  1

  0
LINE
  5
6A5
  8
回03-記事
  6
CONTINUOUS
 62
     7
 10
2183.744288395727
 20
569.2736029390697
 30
0.0
 11
2185.825445223189
 21
571.354759766532
 31
0.0
  0
LINE
  5
6A6
  8
回03-記事
  6
CONTINUOUS
 62
     7
 10
2183.744288395727
 20
567.0285389088023
 30
0.0
 11
2188.070509253456
 21
571.354759766532
 31
0.0
  0
LINE
  5
6A7
  8
回03-記事
  6
CONTINUOUS
 62
     7
 10
2184.315573283724
 20
565.3547597665321
 30
0.0
 11
2190.315573283724
 21
571.354759766532
 31
0.0
  0
LINE
  5
6A8
  8
回03-記事
  6
CONTINUOUS
 62
     7
 10
2186.560637313991
 20
565.3547597665318
 30
0.0
 11
2191.944288395727
 21
570.7384108482673
 31
0.0
  0
LINE
  5
6A9
  8
回03-記事
  6
CONTINUOUS
 62
     7
 10
2188.805701344259
 20
565.3547597665321
 30
0.0
 11
2191.944288395726
 21
568.4933468179997
 31
0.0
  0
LINE
  5
6AA
  8
回03-記事
  6
CONTINUOUS
 62
     7
 10
2191.050765374527
 20
565.3547597665316
 30
0.0
 11
2191.944288395726
 21
566.2482827877322
 31
0.0
  0
ENDBLK
  5
6AC
  8
回04-図面枠
  6
CONTINUOUS
 62
     1
  0
BLOCK
  8
回04-図面枠
  2
*X8383
 70
     1
 10
0.0
 20
0.0
 30
0.0
  3
*X8383
  1

  0
SOLID
  5
6C3
  8
回02-寸法
  6
CONTINUOUS
 62
     5
 10
2187.062547430183
 20
583.2418482917301
 30
0.0
 11
2187.957363013912
 21
581.4223933782391
 31
0.0
 12
2186.520822354657
 22
582.8532889178993
 32
0.0
 13
2186.520822354657
 23
582.8532889178993
 33
0.0
  0
LINE
  5
6C4
  8
回02-寸法
  6
CONTINUOUS
 62
     5
 10
2186.79168489242
 20
583.0475686048147
 30
0.0
 11
2184.105052194992
 21
586.793241464472
 31
0.0
  0
LINE
  5
6C5
  8
回02-寸法
  6
CONTINUOUS
 62
     5
 10
2184.105052194992
 20
586.793241464472
 30
0.0
 11
2181.605052194992
 21
586.793241464472
 31
0.0
  0
ENDBLK
  5
6C7
  8
回04-図面枠
  6
CONTINUOUS
 62
     1
  0
BLOCK
  8
回04-図面枠
  2
*X8484
 70
     1
 10
0.0
 20
0.0
 30
0.0
  3
*X8484
  1

  0
SOLID
  5
6CA
  8
回02-寸法
  6
CONTINUOUS
 62
     5
 10
2177.876116794066
 20
577.7850599826429
 30
0.0
 11
2178.31476570543
 21
575.8054897657342
 31
0.0
 12
2177.257804772981
 22
577.5357916753407
 32
0.0
 13
2177.257804772981
 23
577.5357916753407
 33
0.0
  0
LINE
  5
6CB
  8
回02-寸法
  6
CONTINUOUS
 62
     5
 10
2177.566960783523
 20
577.6604258289917
 30
0.0
 11
2175.913462519709
 21
581.7619414385262
 31
0.0
  0
LINE
  5
6CC
  8
回02-寸法
  6
CONTINUOUS
 62
     5
 10
2175.913462519709
 20
581.7619414385262
 30
0.0
 11
2173.413462519709
 21
581.7619414385262
 31
0.0
  0
ENDBLK
  5
6CE
  8
回04-図面枠
  6
CONTINUOUS
 62
     1
  0
BLOCK
  8
回04-図面枠
  2
*X8585
 70
     1
 10
0.0
 20
0.0
 30
0.0
  3
*X8585
  1

  0
TEXT
  5
6E9
  8
回02-寸法
  6
CONTINUOUS
 62
     5
 10
601.8186787581425
 20
-2552.24768487232
 30
0.0
 40
4.0
  1
2.1
 50
90.0
  0
TEXT
  5
6EA
  8
回02-寸法
  6
CONTINUOUS
 62
     5
 10
601.3186787581425
 20
-2546.24768487232
 30
0.0
 40
3.0
  1
±0.2
 50
90.0
  0
ENDBLK
  5
6EC
  8
回04-図面枠
  6
CONTINUOUS
 62
     1
  0
BLOCK
  8
回04-図面枠
  2
*X8686
 70
     1
 10
0.0
 20
0.0
 30
0.0
  3
*X8686
  1

  0
TEXT
  5
6EF
  8
回02-寸法
 62
     5
 10
288.8158641642112
 20
-2403.716604117745
 30
0.0
 40
4.0
  1
6.25
 50
90.0
  0
TEXT
  5
6F0
  8
回02-寸法
 62
     5
 10
288.8158641642112
 20
-2394.116604117745
 30
0.0
 40
2.799999999999998
  1
±0.2
 50
90.0
  0
ENDBLK
  5
6F2
  8
回04-図面枠
  6
CONTINUOUS
 62
     1
  0
BLOCK
  8
回04-図面枠
  2
*X8787
 70
     1
 10
0.0
 20
0.0
 30
0.0
  3
*X8787
  1

  0
TEXT
  5
6F5
  8
回02-寸法
  6
CONTINUOUS
 62
     5
 10
291.7532206469432
 20
-2551.319437573901
 30
0.0
 40
4.0
  1
0.3
 50
90.0
  0
TEXT
  5
6F6
  8
回02-寸法
  6
CONTINUOUS
 62
     5
 10
291.1532206469433
 20
-2544.5194375739
 30
0.0
 40
2.799999999999998
  1
±0.05
 50
90.0
  0
ENDBLK
  5
6F8
  8
回04-図面枠
  6
CONTINUOUS
 62
     1
  0
BLOCK
  8
回04-図面枠
  2
*X8888
 70
     1
 10
0.0
 20
0.0
 30
0.0
  3
*X8888
  1

  0
TEXT
  5
6FB
  8
回02-寸法
  6
CONTINUOUS
 62
     5
 10
466.8349369751179
 20
-2302.501687978221
 30
0.0
 40
4.0
  1
201.3 
  0
TEXT
  5
6FC
  8
回02-寸法
  6
CONTINUOUS
 62
     5
 10
480.834936975118
 20
-2302.501687978221
 30
0.0
 40
3.0
  1
(VIEWING AREA)
  0
ENDBLK
  5
6FE
  8
回04-図面枠
  6
CONTINUOUS
 62
     1
  0
BLOCK
  8
回04-図面枠
  2
*X8989
 70
     1
 10
0.0
 20
0.0
 30
0.0
  3
*X8989
  1

  0
TEXT
  5
701
  8
回02-寸法
  6
CONTINUOUS
 62
     5
 10
478.8593464239371
 20
-2289.470489666241
 30
0.0
 40
4.0
  1
214.2
  0
TEXT
  5
702
  8
回02-寸法
  6
CONTINUOUS
 62
     5
 10
490.8593464239372
 20
-2289.470489666241
 30
0.0
 40
2.799999999999998
  1
±0.3
  0
ENDBLK
  5
704
  8
回04-図面枠
  6
CONTINUOUS
 62
     1
  0
BLOCK
  8
回04-図面枠
  2
*X9090
 70
     1
 10
0.0
 20
0.0
 30
0.0
  3
*X9090
  1

  0
TEXT
  5
707
  8
回02-寸法
  6
CONTINUOUS
 62
     5
 10
631.7827379354976
 20
-2434.493778253397
 30
0.0
 40
4.0
  1
118.58 
 50
90.0
  0
TEXT
  5
708
  8
回02-寸法
  6
CONTINUOUS
 62
     5
 10
631.7827379354976
 20
-2418.493778253397
 30
0.0
 40
3.0
  1
(ACTIVE AREA)
 50
90.0
  0
ENDBLK
  5
70A
  8
回04-図面枠
  6
CONTINUOUS
 62
     1
  0
BLOCK
  8
回04-図面枠
  2
*X9191
 70
     1
 10
0.0
 20
0.0
 30
0.0
  3
*X9191
  1

  0
TEXT
  5
70D
  8
回02-寸法
  6
CONTINUOUS
 62
     5
 10
640.1335706948275
 20
-2435.793778253398
 30
0.0
 40
4.0
  1
122.58 
 50
90.0
  0
TEXT
  5
70E
  8
回02-寸法
  6
CONTINUOUS
 62
     5
 10
640.1335706948275
 20
-2418.993778253398
 30
0.0
 40
3.0
  1
(VIEWING AREA)
 50
90.0
  0
ENDBLK
  5
710
  8
回04-図面枠
  6
CONTINUOUS
 62
     1
  0
BLOCK
  8
回04-図面枠
  2
*X9292
 70
     1
 10
0.0
 20
0.0
 30
0.0
  3
*X9292
  1

  0
TEXT
  5
713
  8
回02-寸法
  6
CONTINUOUS
 62
     5
 10
654.3970566259511
 20
-2422.169369004294
 30
0.0
 40
4.0
  1
135.5
 50
90.0
  0
TEXT
  5
714
  8
回02-寸法
  6
CONTINUOUS
 62
     5
 10
654.3970566259511
 20
-2410.569369004294
 30
0.0
 40
2.799999999999998
  1
±0.3
 50
90.0
  0
ENDBLK
  5
716
  8
回04-図面枠
  6
CONTINUOUS
 62
     1
  0
BLOCK
  8
回04-図面枠
  2
*X9393
 70
     1
 10
0.0
 20
0.0
 30
0.0
  3
*X9393
  1

  0
TEXT
  5
719
  8
回02-寸法
  6
CONTINUOUS
 62
     5
 10
335.1893246685528
 20
-2382.503123335451
 30
0.0
 40
4.0
  1
80
  0
TEXT
  5
71A
  8
回02-寸法
  6
CONTINUOUS
 62
     5
 10
340.7893246685528
 20
-2382.503123335451
 30
0.0
 40
2.799999999999998
  1
±1
  0
ENDBLK
  5
71C
  8
回04-図面枠
  6
CONTINUOUS
 62
     1
  0
BLOCK
  8
回04-図面枠
  2
*X9494
 70
     1
 10
0.0
 20
0.0
 30
0.0
  3
*X9494
  1

  0
TEXT
  5
71F
  8
回02-寸法
  6
CONTINUOUS
 62
     5
 10
467.7277162380639
 20
-2309.948709935699
 30
0.0
 40
4.0
  1
197.3 
  0
TEXT
  5
720
  8
回02-寸法
  6
CONTINUOUS
 62
     5
 10
481.7421577121718
 20
-2309.948709935699
 30
0.0
 40
3.0
  1
(ACTIVE AREA)
  0
ENDBLK
  5
722
  8
回04-図面枠
  6
CONTINUOUS
 62
     1
  0
BLOCK
  8
回04-図面枠
  2
*X9595
 70
     1
 10
0.0
 20
0.0
 30
0.0
  3
*X9595
  1

  0
TEXT
  5
725
  8
回02-寸法
  6
CONTINUOUS
 62
     5
 10
272.4989964164433
 20
-2368.502855144965
 30
0.0
 40
4.0
  1
6.25
 50
90.0
  0
TEXT
  5
726
  8
回02-寸法
  6
CONTINUOUS
 62
     5
 10
272.4989964164433
 20
-2358.902855144965
 30
0.0
 40
2.666799999999998
  1
±0.2
 50
90.0
  0
ENDBLK
  5
728
  8
回04-図面枠
  6
CONTINUOUS
 62
     1
  0
BLOCK
  8
回04-図面枠
  2
*X9696
 70
     1
 10
0.0
 20
0.0
 30
0.0
  3
*X9696
  1

  0
TEXT
  5
72B
  8
回02-寸法
  6
CONTINUOUS
 62
     5
 10
285.9536837029664
 20
-2366.602929077947
 30
0.0
 40
4.0
  1
1.25
 50
90.0
  0
TEXT
  5
72C
  8
回02-寸法
  6
CONTINUOUS
 62
     5
 10
285.9536837029664
 20
-2357.802929077946
 30
0.0
 40
3.333319999999999
  1
±0.2
 50
90.0
  0
ENDBLK
  5
72E
  8
回04-図面枠
  6
CONTINUOUS
 62
     1
  0
BLOCK
  8
回04-図面枠
  2
*X9797
 70
     1
 10
0.0
 20
0.0
 30
0.0
  3
*X9797
  1

  0
TEXT
  5
731
  8
回02-寸法
  6
CONTINUOUS
 62
     5
 10
292.7187149966067
 20
-2370.535798515351
 30
0.0
 40
4.0
  1
4-0.7
 50
90.0
  0
TEXT
  5
732
  8
回02-寸法
  6
CONTINUOUS
 62
     5
 10
292.7187149966067
 20
-2357.735798515351
 30
0.0
 40
3.333319999999999
  1
±0.1
 50
90.0
  0
ENDBLK
  5
734
  8
回04-図面枠
  6
CONTINUOUS
 62
     1
  0
BLOCK
  8
回04-図面枠
  2
*X9898
 70
     1
 10
0.0
 20
0.0
 30
0.0
  3
*X9898
  1

  0
TEXT
  5
737
  8
回02-寸法
  6
CONTINUOUS
 62
     5
 10
279.5393393775612
 20
-2365.269186515351
 30
0.0
 40
4.0
  1
3.75
 50
90.0
  0
TEXT
  5
738
  8
回02-寸法
  6
CONTINUOUS
 62
     5
 10
279.5393393775612
 20
-2355.669186515351
 30
0.0
 40
2.666679999999999
  1
±0.1
 50
90.0
  0
ENDBLK
  5
73A
  8
回04-図面枠
  6
CONTINUOUS
 62
     1
  0
BLOCK
  8
回04-図面枠
  2
*X9999
 70
     1
 10
0.0
 20
0.0
 30
0.0
  3
*X9999
  1

  0
TEXT
  5
73D
  8
回02-寸法
  6
CONTINUOUS
 62
     5
 10
2087.62428134935
 20
620.2440772418895
 30
0.0
 40
4.0
  1
3.75
 50
90.0
  0
TEXT
  5
73E
  8
回02-寸法
  6
CONTINUOUS
 62
     5
 10
2087.62428134935
 20
629.8440772418892
 30
0.0
 40
2.666679999999999
  1
±0.1
 50
90.0
  0
ENDBLK
  5
740
  8
回04-図面枠
  6
CONTINUOUS
 62
     1
  0
BLOCK
  8
回04-図面枠
  2
*X100100
 70
     1
 10
0.0
 20
0.0
 30
0.0
  3
*X100100
  1

  0
TEXT
  5
743
  8
回02-寸法
  6
CONTINUOUS
 62
     5
 10
2100.803656968396
 20
614.9774652418896
 30
0.0
 40
4.0
  1
4-0.7
 50
90.0
  0
TEXT
  5
744
  8
回02-寸法
  6
CONTINUOUS
 62
     5
 10
2100.803656968396
 20
627.7774652418896
 30
0.0
 40
3.333319999999999
  1
±0.1
 50
90.0
  0
ENDBLK
  5
746
  8
回04-図面枠
  6
CONTINUOUS
 62
     1
  0
BLOCK
  8
回04-図面枠
  2
*X101101
 70
     1
 10
0.0
 20
0.0
 30
0.0
  3
*X101101
  1

  0
TEXT
  5
749
  8
回02-寸法
  6
CONTINUOUS
 62
     5
 10
2094.039019375543
 20
619.0100641663042
 30
0.0
 40
4.0
  1
1.25
 50
90.0
  0
TEXT
  5
74A
  8
回02-寸法
  6
CONTINUOUS
 62
     5
 10
2094.039019375543
 20
627.8100641663045
 30
0.0
 40
3.333319999999999
  1
±0.2
 50
90.0
  0
ENDBLK
  5
74C
  8
回04-図面枠
  6
CONTINUOUS
 62
     1
  0
BLOCK
  8
回04-図面枠
  2
*X102102
 70
     1
 10
0.0
 20
0.0
 30
0.0
  3
*X102102
  1

  0
TEXT
  5
74F
  8
回02-寸法
  6
CONTINUOUS
 62
     5
 10
2080.584332089021
 20
617.2098815495851
 30
0.0
 40
4.0
  1
6.25
 50
90.0
  0
TEXT
  5
750
  8
回02-寸法
  6
CONTINUOUS
 62
     5
 10
2080.584332089021
 20
626.809881549585
 30
0.0
 40
2.666799999999998
  1
±0.2
 50
90.0
  0
ENDBLK
  5
752
  8
回04-図面枠
  6
CONTINUOUS
 62
     1
  0
BLOCK
  8
回04-図面枠
  2
*X103103
 70
     1
 10
0.0
 20
0.0
 30
0.0
  3
*X103103
  1

  0
TEXT
  5
755
  8
回02-寸法
  6
CONTINUOUS
 62
     5
 10
2275.812658209853
 20
675.5645538215417
 30
0.0
 40
4.0
  1
197.3 
  0
TEXT
  5
756
  8
回02-寸法
  6
CONTINUOUS
 62
     5
 10
2289.827099683961
 20
675.5645538215417
 30
0.0
 40
3.0
  1
(ACTIVE AREA)
  0
ENDBLK
  5
758
  8
回04-図面枠
  6
CONTINUOUS
 62
     1
  0
BLOCK
  8
回04-図面枠
  2
*X104104
 70
     1
 10
0.0
 20
0.0
 30
0.0
  3
*X104104
  1

  0
TEXT
  5
75B
  8
回02-寸法
  6
CONTINUOUS
 62
     5
 10
2409.904014430719
 20
433.26557888492
 30
0.0
 40
4.0
  1
2.1
 50
90.0
  0
TEXT
  5
75C
  8
回02-寸法
  6
CONTINUOUS
 62
     5
 10
2409.40401443072
 20
439.2655788849201
 30
0.0
 40
3.0
  1
±0.2
 50
90.0
  0
ENDBLK
  5
75E
  8
回04-図面枠
  6
CONTINUOUS
 62
     1
  0
BLOCK
  8
回04-図面枠
  2
*X105105
 70
     1
 10
0.0
 20
0.0
 30
0.0
  3
*X105105
  1

  0
TEXT
  5
761
  8
回02-寸法
  6
CONTINUOUS
 62
     5
 10
2099.838162618732
 20
434.1938261833397
 30
0.0
 40
4.0
  1
0.3
 50
90.0
  0
TEXT
  5
762
  8
回02-寸法
  6
CONTINUOUS
 62
     5
 10
2099.238162618732
 20
440.9938261833397
 30
0.0
 40
2.799999999999998
  1
±0.05
 50
90.0
  0
ENDBLK
  5
764
  8
回04-図面枠
  6
CONTINUOUS
 62
     1
  0
BLOCK
  8
回04-図面枠
  2
*X106106
 70
     1
 10
0.0
 20
0.0
 30
0.0
  3
*X106106
  1

  0
TEXT
  5
767
  8
回02-寸法
  6
CONTINUOUS
 62
     5
 10
2096.901199836788
 20
581.7966596394947
 30
0.0
 40
4.0
  1
6.25
 50
90.0
  0
TEXT
  5
768
  8
回02-寸法
  6
CONTINUOUS
 62
     5
 10
2096.901199836788
 20
591.3966596394948
 30
0.0
 40
2.799999999999998
  1
±0.2
 50
90.0
  0
ENDBLK
  5
76A
  8
回04-図面枠
  6
CONTINUOUS
 62
     1
  0
BLOCK
  8
回04-図面枠
  2
*X107107
 70
     1
 10
0.0
 20
0.0
 30
0.0
  3
*X107107
  1

  0
TEXT
  5
76D
  8
回02-寸法
  6
CONTINUOUS
 62
     5
 10
2143.274266640342
 20
603.0101404217885
 30
0.0
 40
4.0
  1
80
  0
TEXT
  5
76E
  8
回02-寸法
  6
CONTINUOUS
 62
     5
 10
2148.874266640342
 20
603.0101404217885
 30
0.0
 40
2.799999999999998
  1
±1
  0
ENDBLK
  5
770
  8
回04-図面枠
  6
CONTINUOUS
 62
     1
  0
BLOCK
  8
回04-図面枠
  2
*X108108
 70
     1
 10
0.0
 20
0.0
 30
0.0
  3
*X108108
  1

  0
TEXT
  5
773
  8
回02-寸法
  6
CONTINUOUS
 62
     5
 10
2462.48199859774
 20
563.3438947529453
 30
0.0
 40
4.0
  1
135.5
 50
90.0
  0
TEXT
  5
774
  8
回02-寸法
  6
CONTINUOUS
 62
     5
 10
2462.48199859774
 20
574.943894752945
 30
0.0
 40
2.799999999999998
  1
±0.3
 50
90.0
  0
ENDBLK
  5
776
  8
回04-図面枠
  6
CONTINUOUS
 62
     1
  0
BLOCK
  8
回04-図面枠
  2
*X109109
 70
     1
 10
0.0
 20
0.0
 30
0.0
  3
*X109109
  1

  0
TEXT
  5
779
  8
回02-寸法
  6
CONTINUOUS
 62
     5
 10
2448.218906367405
 20
549.7194855038428
 30
0.0
 40
4.0
  1
122.58 
 50
90.0
  0
TEXT
  5
77A
  8
回02-寸法
  6
CONTINUOUS
 62
     5
 10
2448.218906367405
 20
566.519485503843
 30
0.0
 40
3.0
  1
(VIEWING AREA)
 50
90.0
  0
ENDBLK
  5
77C
  8
回04-図面枠
  6
CONTINUOUS
 62
     1
  0
BLOCK
  8
回04-図面枠
  2
*X110110
 70
     1
 10
0.0
 20
0.0
 30
0.0
  3
*X110110
  1

  0
TEXT
  5
77F
  8
回02-寸法
  6
CONTINUOUS
 62
     5
 10
2439.867679907287
 20
551.019485503843
 30
0.0
 40
4.0
  1
118.58 
 50
90.0
  0
TEXT
  5
780
  8
回02-寸法
  6
CONTINUOUS
 62
     5
 10
2439.867679907287
 20
567.019485503843
 30
0.0
 40
3.0
  1
(ACTIVE AREA)
 50
90.0
  0
ENDBLK
  5
782
  8
回04-図面枠
  6
CONTINUOUS
 62
     1
  0
BLOCK
  8
回04-図面枠
  2
*X111111
 70
     1
 10
0.0
 20
0.0
 30
0.0
  3
*X111111
  1

  0
TEXT
  5
785
  8
回02-寸法
  6
CONTINUOUS
 62
     5
 10
2286.944288395726
 20
696.0423803902117
 30
0.0
 40
4.0
  1
214.2
  0
TEXT
  5
786
  8
回02-寸法
  6
CONTINUOUS
 62
     5
 10
2298.944288395726
 20
696.0423803902117
 30
0.0
 40
2.799999999999998
  1
±0.3
  0
ENDBLK
  5
788
  8
回04-図面枠
  6
CONTINUOUS
 62
     1
  0
BLOCK
  8
回04-図面枠
  2
*X112112
 70
     1
 10
0.0
 20
0.0
 30
0.0
  3
*X112112
  1

  0
TEXT
  5
78B
  8
回02-寸法
  6
CONTINUOUS
 62
     5
 10
2274.919878946907
 20
683.0111820782317
 30
0.0
 40
4.0
  1
201.3 
  0
TEXT
  5
78C
  8
回02-寸法
  6
CONTINUOUS
 62
     5
 10
2288.919878946907
 20
683.0111820782317
 30
0.0
 40
3.0
  1
(VIEWING AREA)
  0
ENDBLK
  5
78E
  8
回04-図面枠
  6
CONTINUOUS
 62
     1
  0
ENDSEC
  0
SECTION
  2
ENTITIES
  0
TEXT
  5
64
  8
回03-記事
  6
CONTINUOUS
 62
     5
 10
2247.609729463492
 20
388.0651015192007
 30
0.0
 40
5.2
  1
without affecting product specification.
  0
TEXT
  5
66
  8
回03-記事
  6
CONTINUOUS
 62
     5
 10
2247.609729463492
 20
397.1864493762506
 30
0.0
 40
5.2
  1
Edges and corners of ITO glass may be chamfered 
  0
TEXT
  5
67
  8
回03-記事
  6
CONTINUOUS
 62
     5
 10
2247.609729463492
 20
406.3077972333003
 30
0.0
 40
5.2
  1
Unit: mm
  0
TEXT
  5
68
  8
回03-記事
  6
CONTINUOUS
 62
     5
 10
2247.609729463492
 20
415.4291450903506
 30
0.0
 40
5.2
  1
EXCEPT WHERE INDICATED
  0
TEXT
  5
69
  8
回03-記事
  6
CONTINUOUS
 62
     5
 10
2247.609729463492
 20
424.5504929473999
 30
0.0
 40
5.2
  1
TOLERANCE=±0.5mm
  0
LINE
  5
6A
  8
回04-図面枠
  6
CONTINUOUS
 62
     7
 10
2547.307337131428
 20
377.2384828900172
 30
0.0
 11
2547.307337131428
 21
387.2384828900172
 31
0.0
  0
LINE
  5
6B
  8
回04-図面枠
  6
CENTER2
 62
     7
 10
2552.524745110434
 20
378.6474573169371
 30
0.0
 11
2552.524745110434
 21
385.6475180655289
 31
0.0
  0
LINE
  5
6D
  8
回04-図面枠
  6
CONTINUOUS
 62
     7
 10
2557.29123826037
 20
380.6695720531188
 30
0.0
 11
2562.462043412111
 21
379.3533350783555
 31
0.0
  0
LINE
  5
6E
  8
回04-図面枠
  6
CONTINUOUS
 62
     7
 10
2557.29123826037
 20
383.6254033293471
 30
0.0
 11
2562.462043412111
 21
384.9416403041114
 31
0.0
  0
LINE
  5
6F
  8
回04-図面枠
  6
CONTINUOUS
 62
     7
 10
2562.462043412111
 20
384.9416403041114
 30
0.0
 11
2562.462043412111
 21
379.3533350783555
 31
0.0
  0
LINE
  5
70
  8
回04-図面枠
  6
CONTINUOUS
 62
     7
 10
2557.29123826037
 20
383.6254033293471
 30
0.0
 11
2557.29123826037
 21
380.6695720531188
 31
0.0
  0
LINE
  5
71
  8
回04-図面枠
  6
CENTER2
 62
     7
 10
2549.315740798233
 20
382.1474876912335
 30
0.0
 11
2562.920323250355
 21
382.1474876912335
 31
0.0
  0
CIRCLE
  5
72
  8
回04-図面枠
  6
CONTINUOUS
 62
     7
 10
2552.524745110434
 20
382.1474876912335
 30
0.0
 40
1.477915638114184
  0
CIRCLE
  5
73
  8
回04-図面枠
  6
CONTINUOUS
 62
     7
 10
2552.524745110434
 20
382.1474876912335
 30
0.0
 40
2.794152612877606
  0
TEXT
  5
74
  8
回03-記事
  6
CONTINUOUS
 62
     5
 10
2075.142386849142
 20
469.1243578124002
 30
0.0
 40
3.0
  1
Trace Expose
1001
ACAD
1000
MTEXTBEGIN
1070
    73
1070
     1
1070
    44
1040
1.0
1070
    74
1070
     0
1000
MTEXTEND
  0
INSERT
  5
75
  8
回03-記事
  6
CONTINUOUS
 62
     8
 66
     1
  2
*X7777
 10
0.0
 20
0.0
 30
0.0
  0
SEQEND
  5
665
  8
回04-図面枠
  6
CONTINUOUS
 62
     1
  0
TEXT
  5
77
  8
回02-寸法
  6
CONTINUOUS
 62
     5
 10
2404.072670580838
 20
695.7228068077829
 30
0.0
 40
4.0
  1
(Insulation Area)
  0
TEXT
  5
79
  8
回03-記事
  6
CONTINUOUS
 62
     5
 10
2116.368422849336
 20
582.0811238049377
 30
0.0
 40
3.0
  1
A
1001
ACAD
1000
MTEXTBEGIN
1070
    73
1070
     1
1070
    44
1040
1.0
1070
    74
1070
     0
1000
MTEXTEND
  0
INSERT
  5
7A
  8
回03-記事
  6
CONTINUOUS
 62
     7
 66
     1
  2
*X7878
 10
0.0
 20
0.0
 30
0.0
  0
SEQEND
  5
66C
  8
回04-図面枠
  6
CONTINUOUS
 62
     1
  0
CIRCLE
  5
7B
  8
回03-記事
  6
CONTINUOUS
 62
     5
 10
2109.651712388242
 20
572.3511356622634
 30
0.0
 40
7.742816109002717
  0
TEXT
  5
7C
  8
回03-記事
  6
CONTINUOUS
 62
     5
 10
2141.161198535822
 20
540.06487821583
 30
0.0
 40
3.0
  1
PROTECTION TAPE
1001
ACAD
1000
MTEXTBEGIN
1070
    73
1070
     1
1070
    44
1040
1.0
1070
    74
1070
     0
1000
MTEXTEND
  0
INSERT
  5
7D
  8
回03-記事
  6
CONTINUOUS
 62
     5
 66
     1
  2
*X7979
 10
0.0
 20
0.0
 30
0.0
  0
SEQEND
  5
673
  8
回04-図面枠
  6
CONTINUOUS
 62
     1
  0
DIMENSION
  5
7E
  8
回02-寸法
  6
CONTINUOUS
 62
     1
  2
*D3939
 10
2187.844288395726
 20
674.9145538215407
 30
0.0
 11
2181.318258725248
 21
674.9145538215407
 31
0.0
 70
   160
  3
STANDARD
 13
2197.744288395726
 23
631.8838949526615
 33
0.0
 14
2187.844288395726
 24
640.3438949526615
 34
0.0
1001
ACAD
1000
DSTYLE
1002
{
1070
    41
1040
1.5
1070
    47
1040
0.3
1070
    48
1040
0.3
1070
   140
1040
4.0
1070
   141
1040
1.5
1070
   146
1040
0.7
1070
   283
1070
     0
1070
   288
1070
     0
1070
   341
1005
0
1070
   371
1070
    13
1070
   372
1070
    13
1002
}
  0
TEXT
  5
90
  8
回02-寸法
 62
     5
 10
2094.042499269459
 20
654.4912936138103
 30
0.0
 40
3.0
  1
2-R0.5
1001
ACAD
1000
MTEXTBEGIN
1070
    73
1070
     1
1070
    44
1040
1.0
1070
    74
1070
     0
1000
MTEXTEND
  0
INSERT
  5
91
  8
回02-寸法
 62
     1
 66
     1
  2
*X8080
 10
0.0
 20
0.0
 30
0.0
  0
SEQEND
  5
67A
  8
回04-図面枠
  6
CONTINUOUS
 62
     1
  0
TEXT
  5
92
  8
回03-記事
  6
CONTINUOUS
 62
     5
 10
2099.41960577579
 20
662.0783152991918
 30
0.0
 40
5.0
  1
SECTION A
  0
LINE
  5
93
  8
回03-記事
  6
CONTINUOUS
 62
     8
 10
2119.503532194241
 20
649.8107712418941
 30
0.0
 11
2119.503532194241
 21
637.3107712418946
 31
0.0
  0
LINE
  5
94
  8
回03-記事
  6
CONTINUOUS
 62
     7
 10
2106.603916082895
 20
639.8107712418894
 30
0.0
 11
2123.115358022277
 21
639.8107712418894
 31
0.0
  0
LINE
  5
95
  8
回03-記事
  6
CONTINUOUS
 62
     7
 10
2106.604003104431
 20
642.3107712418896
 30
0.0
 11
2123.115358022277
 21
642.3107712418896
 31
0.0
  0
LINE
  5
96
  8
回03-記事
  6
CONTINUOUS
 62
     7
 10
2106.603916082895
 20
647.3107712418896
 30
0.0
 11
2123.115358022277
 21
647.3107712418896
 31
0.0
  0
DIMENSION
  5
97
  8
回02-寸法
  6
CONTINUOUS
 62
     5
  2
*D4040
 10
2088.12428134935
 20
647.3107712418896
 30
0.0
 11
2088.12428134935
 21
628.0774242418893
 31
0.0
 70
   160
  1
3.75{\H0.66667x;±0.1}
  3
DMC
 13
2106.604003104431
 23
639.8107712418894
 33
0.0
 14
2106.603916082895
 24
647.3107712418896
 34
0.0
 50
90.0
1001
ACAD
1000
DSTYLE
1002
{
1070
   170
1070
     1
1070
   271
1070
     3
1070
   272
1070
     3
1070
   371
1070
     9
1070
   372
1070
     9
1002
}
  0
DIMENSION
  5
A8
  8
回02-寸法
  6
CONTINUOUS
 62
     5
  2
*D4141
 10
2101.303656968396
 20
639.1107712418897
 30
0.0
 11
2098.803656968396
 21
625.0941182418896
 31
0.0
 70
    32
  1
4-0.7{\H0.83333x;±0.1}
  3
DMC
 13
2109.503445172705
 23
640.5107712418892
 33
0.0
 14
2109.503445172705
 24
639.1107712418897
 34
0.0
 50
90.0
1001
ACAD
1000
DSTYLE
1002
{
1070
   170
1070
     1
1070
   271
1070
     3
1070
   272
1070
     3
1070
   371
1070
     9
1070
   372
1070
     9
1002
}
  0
DIMENSION
  5
B9
  8
回02-寸法
  6
CONTINUOUS
 62
     5
  2
*D4242
 10
2094.539019375543
 20
639.8107712418894
 30
0.0
 11
2092.039019375544
 21
627.4604177040969
 31
0.0
 70
    32
  1
1.25{\H0.83333x;±0.2}
  3
DMC
 13
2106.604003104431
 23
642.3107712418896
 33
0.0
 14
2106.604003104431
 24
639.8107712418894
 34
0.0
 50
90.0
1001
ACAD
1000
DSTYLE
1002
{
1070
   170
1070
     1
1070
   271
1070
     3
1070
   272
1070
     3
1070
   371
1070
     9
1070
   372
1070
     9
1002
}
  0
POLYLINE
  5
CA
  8
回03-記事
  6
CONTINUOUS
 62
     8
 66
     1
 10
0.0
 20
0.0
 30
0.0
 40
1.399999999999999
 41
1.399999999999999
  0
VERTEX
  5
9E1
  8
回03-記事
  6
CONTINUOUS
 62
     8
 10
2109.503445172705
 20
644.8107712418894
 30
0.0
  0
VERTEX
  5
9E3
  8
回03-記事
  6
CONTINUOUS
 62
     8
 10
2119.503532194241
 20
644.8107712418894
 30
0.0
  0
SEQEND
  5
9E2
  8
回04-図面枠
  6
CONTINUOUS
 62
     1
  0
POLYLINE
  5
CB
  8
回03-記事
  6
CONTINUOUS
 62
     8
 66
     1
 10
0.0
 20
0.0
 30
0.0
 40
1.399999999999999
 41
1.399999999999999
  0
VERTEX
  5
9E4
  8
回03-記事
  6
CONTINUOUS
 62
     8
 10
2109.503445172705
 20
647.3107712418896
 30
0.0
  0
VERTEX
  5
9E6
  8
回03-記事
  6
CONTINUOUS
 62
     8
 10
2119.503532194241
 20
647.3107712418896
 30
0.0
  0
SEQEND
  5
9E5
  8
回04-図面枠
  6
CONTINUOUS
 62
     1
  0
POLYLINE
  5
CC
  8
回03-記事
  6
CONTINUOUS
 62
     8
 66
     1
 10
0.0
 20
0.0
 30
0.0
 40
1.399999999999999
 41
1.399999999999999
  0
VERTEX
  5
9E7
  8
回03-記事
  6
CONTINUOUS
 62
     8
 10
2109.503445172705
 20
639.8107712418894
 30
0.0
  0
VERTEX
  5
9E9
  8
回03-記事
  6
CONTINUOUS
 62
     8
 10
2119.503532194241
 20
639.8107712418894
 30
0.0
  0
SEQEND
  5
9E8
  8
回04-図面枠
  6
CONTINUOUS
 62
     1
  0
POLYLINE
  5
CD
  8
回03-記事
  6
CONTINUOUS
 62
     8
 66
     1
 10
0.0
 20
0.0
 30
0.0
 40
1.399999999999999
 41
1.399999999999999
  0
VERTEX
  5
9EA
  8
回03-記事
  6
CONTINUOUS
 62
     8
 10
2109.503445172705
 20
642.3107712418896
 30
0.0
  0
VERTEX
  5
9EC
  8
回03-記事
  6
CONTINUOUS
 62
     8
 10
2119.503532194241
 20
642.3107712418896
 30
0.0
  0
SEQEND
  5
9EB
  8
回04-図面枠
  6
CONTINUOUS
 62
     1
  0
LINE
  5
CE
  8
回03-記事
  6
CONTINUOUS
 62
     8
 10
2110.503532194241
 20
637.3107712418946
 30
0.0
 11
2134.254195100032
 21
637.3107712418946
 31
0.0
  0
LINE
  5
CF
  8
回03-記事
  6
CONTINUOUS
 62
     8
 10
2109.503532194241
 20
648.8107712418946
 30
0.0
 11
2109.503532194241
 21
638.3107712418949
 31
0.0
  0
ARC
  5
D0
  8
回03-記事
  6
CONTINUOUS
 62
     8
 10
2110.503532194241
 20
638.3107712418949
 30
0.0
 40
1.0
 50
180.0
 51
270.0
  0
ARC
  5
D1
  8
回03-記事
  6
CONTINUOUS
 62
     8
 10
2110.503532194241
 20
648.8107712418946
 30
0.0
 40
1.0
 50
90.0
 51
180.0
  0
LINE
  5
D2
  8
回03-記事
  6
CONTINUOUS
 62
     8
 10
2110.503532194241
 20
649.8107712418941
 30
0.0
 11
2134.254195100032
 21
649.8107712418941
 31
0.0
  0
DIMENSION
  5
D3
  8
回02-寸法
  6
CONTINUOUS
 62
     5
  2
*D4343
 10
2081.08433208902
 20
637.3107712418949
 30
0.0
 11
2078.58433208902
 21
625.31032639574
 31
0.0
 70
    32
  1
6.25{\H0.6667x;±0.2}
  3
DMC
 13
2110.503532194241
 23
649.8107712418941
 33
0.0
 14
2110.503532194241
 24
637.3107712418949
 34
0.0
 50
90.0
1001
ACAD
1000
DSTYLE
1002
{
1070
   170
1070
     1
1070
   271
1070
     3
1070
   272
1070
     3
1070
   371
1070
     9
1070
   372
1070
     9
1002
}
  0
DIMENSION
  5
E4
  8
回02-寸法
  6
CONTINUOUS
 62
     1
  2
*D4444
 10
2395.044288395726
 20
674.9145538215416
 30
0.0
 11
2296.394288395726
 21
677.4895538215417
 31
0.0
 70
    32
  1
<> {\H0.75x;(ACTIVE AREA)}
  3
STANDARD
 13
2197.744288395726
 23
631.8838949526625
 33
0.0
 14
2395.044288395726
 24
631.8838949526625
 34
0.0
1001
ACAD
1000
DSTYLE
1002
{
1070
    41
1040
1.5
1070
    47
1040
0.3
1070
    48
1040
0.3
1070
   140
1040
4.0
1070
   141
1040
1.5
1070
   146
1040
0.7
1070
   283
1070
     0
1070
   288
1070
     0
1070
   341
1005
0
1070
   371
1070
    13
1070
   372
1070
    13
1002
}
  0
TEXT
  5
F3
  8
回03-記事
  6
CONTINUOUS
 10
2513.314911779075
 20
420.1758882102352
 30
0.0
 40
3.372171263999998
  1
PROTECTION TAPE
  0
TEXT
  5
F4
  8
回03-記事
  6
CONTINUOUS
 10
2508.049621026863
 20
420.1580726763681
 30
0.0
 40
3.507058114560001
  1
6
  0
LINE
  5
F5
  8
回03-記事
  6
CONTINUOUS
 10
2506.257846026452
 20
419.1510962044826
 30
0.0
 11
2558.502003223369
 21
419.1510962044826
 31
0.0
  0
TEXT
  5
F6
  8
回03-記事
  6
CONTINUOUS
 10
2512.886840790679
 20
431.7200892850181
 30
0.0
 40
3.507058114560001
  1
STIFFENER
  0
TEXT
  5
F7
  8
回03-記事
  6
CONTINUOUS
 10
2512.886840790679
 20
425.8749924274183
 30
0.0
 40
3.507058114560001
  1
REINFORCEMENT FILM
  0
TEXT
  5
F8
  8
回03-記事
  6
CONTINUOUS
 10
2526.68892631654
 20
455.3330445244387
 30
0.0
 40
3.507058114560001
  1
ITEM
  0
LINE
  5
F9
  8
回03-記事
  6
CONTINUOUS
 10
2558.502003223369
 20
419.1510962044826
 30
0.0
 11
2558.502003223369
 21
460.0667742076825
 31
0.0
  0
TEXT
  5
FA
  8
回03-記事
  6
CONTINUOUS
 10
2508.049621026863
 20
437.6933632491659
 30
0.0
 40
3.507058114560001
  1
3
  0
TEXT
  5
FB
  8
回03-記事
  6
CONTINUOUS
 10
2508.049621026863
 20
431.8482663915678
 30
0.0
 40
3.507058114560001
  1
4
  0
TEXT
  5
FC
  8
回03-記事
  6
CONTINUOUS
 10
2508.049621026863
 20
443.5384601067694
 30
0.0
 40
3.507058114560001
  1
2
  0
TEXT
  5
FD
  8
回03-記事
  6
CONTINUOUS
 10
2508.049621026863
 20
426.0031695339679
 30
0.0
 40
3.507058114560001
  1
5
  0
LINE
  5
FE
  8
回03-記事
  6
CONTINUOUS
 10
2512.339440425436
 20
460.0667742076825
 30
0.0
 11
2512.339440425436
 21
419.1510962044826
 31
0.0
  0
LINE
  5
FF
  8
回03-記事
  6
CONTINUOUS
 10
2506.257846026452
 20
460.0667742076825
 30
0.0
 11
2506.257846026452
 21
419.1510962044826
 31
0.0
  0
TEXT
  5
100
  8
回03-記事
  6
CONTINUOUS
 10
2508.049621026863
 20
449.3835569643675
 30
0.0
 40
3.507058114560001
  1
1
  0
LINE
  5
101
  8
回03-記事
  6
CONTINUOUS
 10
2506.257846026452
 20
424.9961930620825
 30
0.0
 11
2558.502003223369
 21
424.9961930620825
 31
0.0
  0
LINE
  5
102
  8
回03-記事
  6
CONTINUOUS
 10
2506.257846026452
 20
460.0667742076825
 30
0.0
 11
2558.502003223369
 21
460.0667742076825
 31
0.0
  0
LINE
  5
103
  8
回03-記事
  6
CONTINUOUS
 10
2506.257846026452
 20
448.3765804924837
 30
0.0
 11
2558.502003223369
 21
448.37658049248
 31
0.0
  0
LINE
  5
104
  8
回03-記事
  6
CONTINUOUS
 10
2506.257846026452
 20
454.2216773500836
 30
0.0
 11
2558.502003223369
 21
454.2216773500836
 31
0.0
  0
LINE
  5
105
  8
回03-記事
  6
CONTINUOUS
 10
2506.257846026452
 20
430.8412899196833
 30
0.0
 11
2558.502003223369
 21
430.8412899196833
 31
0.0
  0
LINE
  5
106
  8
回03-記事
  6
CONTINUOUS
 10
2506.257846026452
 20
436.686386777283
 30
0.0
 11
2558.502003223369
 21
436.686386777283
 31
0.0
  0
LINE
  5
107
  8
回03-記事
  6
CONTINUOUS
 10
2506.257846026452
 20
442.531483634883
 30
0.0
 11
2558.502003223369
 21
442.531483634883
 31
0.0
  0
TEXT
  5
108
  8
回03-記事
  6
CONTINUOUS
 10
2512.886840790679
 20
449.308324174672
 30
0.0
 40
3.507058114560001
  1
ITO FILM
  0
TEXT
  5
109
  8
回03-記事
  6
CONTINUOUS
 10
2512.886840790679
 20
443.4632273170713
 30
0.0
 40
3.507058114560001
  1
ITO GLASS
  0
TEXT
  5
10A
  8
回03-記事
  6
CONTINUOUS
 10
2512.886840790679
 20
437.6181304594696
 30
0.0
 40
3.507058114560001
  1
TAIL
  0
TEXT
  5
10B
  8
回04-図面枠
 62
     7
 10
2506.942418613231
 20
391.9957921263245
 30
0.0
 40
5.0
  1
Sep/08/2023
 72
     1
 11
2526.442418613231
 21
391.9957921263245
 31
0.0
  0
TEXT
  5
10C
  8
回04-図面枠
  6
CONTINUOUS
 62
     7
 10
2521.393148718464
 20
402.935229041947
 30
0.0
 40
3.0
  1
DATE
  0
TEXT
  5
10D
  8
回04-図面枠
 62
     7
 10
2531.298865388318
 20
724.0736637034627
 30
0.0
 40
3.6
  1
H
  0
LINE
  5
10E
  8
回04-図面枠
 62
     7
 10
2500.942418613231
 20
728.2384828900172
 30
0.0
 11
2500.942418613231
 21
723.7384828900172
 31
0.0
  0
LINE
  5
10F
  8
回04-図面枠
 62
     7
 10
2568.442418613231
 20
654.4384828900168
 30
0.0
 11
2563.942418613231
 21
654.4384828900168
 31
0.0
  0
TEXT
  5
110
  8
回04-図面枠
 62
     7
 10
2564.935048683553
 20
617.7983014562904
 30
0.0
 40
3.6
  1
2
  0
LINE
  5
111
  8
回04-図面枠
 62
     7
 10
2568.442418613231
 20
585.1384828900168
 30
0.0
 11
2563.942418613231
 21
585.1384828900168
 31
0.0
  0
TEXT
  5
112
  8
回04-図面枠
 62
     7
 10
2565.206397516524
 20
687.0983014562902
 30
0.0
 40
3.6
  1
1
  0
TEXT
  5
113
  8
回04-図面枠
 62
     7
 10
2564.930115923772
 20
548.4983014562904
 30
0.0
 40
3.6
  1
3
  0
LINE
  5
114
  8
回04-図面枠
 62
     7
 10
2568.442418613231
 20
515.8384828900169
 30
0.0
 11
2563.942418613231
 21
515.8384828900169
 31
0.0
  0
TEXT
  5
115
  8
回04-図面枠
 62
     7
 10
2564.864333015699
 20
479.1983014562902
 30
0.0
 40
3.6
  1
4
  0
LINE
  5
116
  8
回04-図面枠
 62
     7
 10
2568.442418613231
 20
446.5384828900168
 30
0.0
 11
2563.942418613231
 21
446.5384828900168
 31
0.0
  0
TEXT
  5
117
  8
回04-図面枠
 62
     7
 10
2564.864333015699
 20
409.8983014562905
 30
0.0
 40
3.6
  1
5
  0
TEXT
  5
118
  8
回04-図面枠
 62
     7
 10
2531.298865388318
 20
373.0736637034629
 30
0.0
 40
3.6
  1
H
  0
LINE
  5
119
  8
回04-図面枠
 62
     7
 10
2500.942418613231
 20
377.2384828900172
 30
0.0
 11
2500.942418613231
 21
372.7384828900172
 31
0.0
  0
TEXT
  5
11A
  8
回04-図面枠
 62
     7
 10
2499.790264877967
 20
379.7761907272093
 30
0.0
 40
5.0
  1
DMC Co., Ltd.
 72
     1
 11
2519.665264877967
 21
379.7761907272093
 31
0.0
  0
LINE
  5
11B
  8
回04-図面枠
 62
     7
 10
2568.442418613231
 20
372.7384828900172
 30
0.0
 11
2568.442418613231
 21
728.2384828900172
 31
0.0
  0
LINE
  5
11C
  8
回04-図面枠
 62
     7
 10
2563.942418613231
 20
723.7384828900172
 30
0.0
 11
2563.942418613231
 21
377.2384828900172
 31
0.0
  0
TEXT
  5
11D
  8
回04-図面枠
 62
     7
 10
2468.298865388318
 20
724.0736637034627
 30
0.0
 40
3.6
  1
G
  0
LINE
  5
11E
  8
回04-図面枠
 62
     7
 10
2437.942418613231
 20
728.2384828900172
 30
0.0
 11
2437.942418613231
 21
723.7384828900172
 31
0.0
  0
TEXT
  5
11F
  8
回04-図面枠
 62
     7
 10
2405.298865388318
 20
724.0736637034627
 30
0.0
 40
3.6
  1
F
  0
LINE
  5
120
  8
回04-図面枠
 62
     7
 10
2374.942418613231
 20
728.2384828900172
 30
0.0
 11
2374.942418613231
 21
723.7384828900172
 31
0.0
  0
TEXT
  5
121
  8
回04-図面枠
 62
     7
 10
2342.298865388318
 20
724.0736637034627
 30
0.0
 40
3.6
  1
E
  0
LINE
  5
122
  8
回04-図面枠
 62
     7
 10
2311.942418613231
 20
728.2384828900172
 30
0.0
 11
2311.942418613231
 21
723.7384828900172
 31
0.0
  0
TEXT
  5
123
  8
回04-図面枠
 62
     7
 10
2279.298865388318
 20
724.0736637034627
 30
0.0
 40
3.6
  1
D
  0
LINE
  5
124
  8
回04-図面枠
 62
     7
 10
2248.942418613231
 20
728.2384828900172
 30
0.0
 11
2248.942418613231
 21
723.7384828900172
 31
0.0
  0
TEXT
  5
125
  8
回04-図面枠
 62
     7
 10
2216.298865388317
 20
724.0736637034627
 30
0.0
 40
3.6
  1
C
  0
LINE
  5
126
  8
回04-図面枠
 62
     7
 10
2185.942418613231
 20
728.2384828900172
 30
0.0
 11
2185.942418613231
 21
723.7384828900172
 31
0.0
  0
TEXT
  5
127
  8
回04-図面枠
 62
     7
 10
2153.298865388318
 20
724.0736637034627
 30
0.0
 40
3.6
  1
B
  0
LINE
  5
128
  8
回04-図面枠
 62
     7
 10
2122.942418613231
 20
728.2384828900172
 30
0.0
 11
2122.942418613231
 21
723.7384828900172
 31
0.0
  0
TEXT
  5
129
  8
回04-図面枠
 62
     7
 10
2090.298865388318
 20
724.0736637034627
 30
0.0
 40
3.6
  1
A
  0
LINE
  5
12A
  8
回04-図面枠
 62
     7
 10
2059.942418613231
 20
654.4384828900168
 30
0.0
 11
2055.442418613231
 21
654.4384828900168
 31
0.0
  0
TEXT
  5
12B
  8
回04-図面枠
 62
     7
 10
2056.435048683553
 20
617.7983014562904
 30
0.0
 40
3.6
  1
2
  0
LINE
  5
12C
  8
回04-図面枠
 62
     7
 10
2059.942418613231
 20
585.1384828900168
 30
0.0
 11
2055.442418613231
 21
585.1384828900168
 31
0.0
  0
TEXT
  5
12D
  8
回04-図面枠
 62
     7
 10
2056.706397516524
 20
687.0983014562902
 30
0.0
 40
3.6
  1
1
  0
TEXT
  5
12E
  8
回04-図面枠
 62
     7
 10
2431.433392691914
 20
394.7303650852491
 30
0.0
 40
5.0
  1
LST-090WB080A
 72
     1
 11
2456.442418613231
 21
394.7303650852491
 31
0.0
  0
TEXT
  5
12F
  8
回04-図面枠
 62
     7
 10
2446.992418613231
 20
403.1857358093803
 30
0.0
 40
3.0
  1
PART　No.
 72
     1
 11
2456.442418613231
 21
403.1857358093803
 31
0.0
  0
TEXT
  5
130
  8
回04-図面枠
 62
     7
 10
2468.298865388318
 20
373.0736637034629
 30
0.0
 40
3.6
  1
G
  0
LINE
  5
131
  8
回04-図面枠
 62
     7
 10
2426.942418613232
 20
382.2384828900172
 30
0.0
 11
2485.942418613231
 21
382.2384828900172
 31
0.0
  0
TEXT
  5
132
  8
回04-図面枠
 62
     7
 10
2433.042418613231
 20
383.388513621403
 30
0.0
 40
3.0
  1
STANDARD TOUCHSCREEN
 72
     1
 11
2456.442418613231
 21
383.388513621403
 31
0.0
  0
TEXT
  5
133
  8
回04-図面枠
 62
     7
 10
2439.792418613231
 20
378.388513621403
 30
0.0
 40
3.0
  1
CIRCUIT　DRAWING
 72
     1
 11
2456.442418613231
 21
378.388513621403
 31
0.0
  0
LINE
  5
134
  8
回04-図面枠
 62
     7
 10
2488.942418613231
 20
407.2384828900172
 30
0.0
 11
2488.942418613231
 21
377.2384828900172
 31
0.0
  0
TEXT
  5
135
  8
回04-図面枠
 62
     7
 10
2451.642418613231
 20
387.9821025795923
 30
0.0
 40
3.0
  1
TYPE
 72
     1
 11
2456.442418613231
 21
387.9821025795923
 31
0.0
  0
LINE
  5
136
  8
回04-図面枠
 62
     7
 10
2437.942418613231
 20
377.2384828900172
 30
0.0
 11
2437.942418613231
 21
372.7384828900172
 31
0.0
  0
TEXT
  5
137
  8
回04-図面枠
 62
     7
 10
2405.298865388318
 20
373.0736637034629
 30
0.0
 40
3.6
  1
F
  0
LINE
  5
138
  8
回04-図面枠
 62
     7
 10
2423.942418613231
 20
407.2384828900172
 30
0.0
 11
2423.942418613231
 21
377.2384828900172
 31
0.0
  0
LINE
  5
139
  8
回04-図面枠
 62
     7
 10
2374.942418613231
 20
377.2384828900172
 30
0.0
 11
2374.942418613231
 21
372.7384828900172
 31
0.0
  0
TEXT
  5
13A
  8
回04-図面枠
 62
     7
 10
2342.298865388318
 20
373.0736637034629
 30
0.0
 40
3.6
  1
E
  0
LINE
  5
13B
  8
回04-図面枠
 62
     7
 10
2311.942418613231
 20
377.2384828900172
 30
0.0
 11
2311.942418613231
 21
372.7384828900172
 31
0.0
  0
TEXT
  5
13C
  8
回04-図面枠
 62
     7
 10
2279.298865388318
 20
373.0736637034629
 30
0.0
 40
3.6
  1
D
  0
LINE
  5
13D
  8
回04-図面枠
 62
     7
 10
2423.942418613231
 20
392.2384828900172
 30
0.0
 11
2488.942418613231
 21
392.2384828900172
 31
0.0
  0
LINE
  5
13E
  8
回04-図面枠
 62
     7
 10
2248.942418613231
 20
377.2384828900172
 30
0.0
 11
2248.942418613231
 21
372.7384828900172
 31
0.0
  0
TEXT
  5
13F
  8
回04-図面枠
 62
     7
 10
2216.298865388317
 20
373.0736637034629
 30
0.0
 40
3.6
  1
C
  0
LINE
  5
140
  8
回04-図面枠
 62
     7
 10
2185.942418613231
 20
377.2384828900172
 30
0.0
 11
2185.942418613231
 21
372.7384828900172
 31
0.0
  0
TEXT
  5
141
  8
回04-図面枠
 62
     7
 10
2153.298865388318
 20
373.0736637034629
 30
0.0
 40
3.6
  1
B
  0
TEXT
  5
142
  8
回04-図面枠
 62
     7
 10
2056.430115923772
 20
548.4983014562904
 30
0.0
 40
3.6
  1
3
  0
LINE
  5
143
  8
回04-図面枠
 62
     7
 10
2059.942418613231
 20
515.8384828900169
 30
0.0
 11
2055.442418613231
 21
515.8384828900169
 31
0.0
  0
TEXT
  5
144
  8
回04-図面枠
 62
     7
 10
2056.364333015699
 20
479.1983014562902
 30
0.0
 40
3.6
  1
4
  0
LINE
  5
145
  8
回04-図面枠
 62
     7
 10
2122.942418613231
 20
377.2384828900172
 30
0.0
 11
2122.942418613231
 21
372.7384828900172
 31
0.0
  0
TEXT
  5
146
  8
回04-図面枠
 62
     7
 10
2090.298865388318
 20
373.0736637034629
 30
0.0
 40
3.6
  1
A
  0
LINE
  5
147
  8
回04-図面枠
 62
     7
 10
2059.942418613231
 20
446.5384828900168
 30
0.0
 11
2055.442418613231
 21
446.5384828900168
 31
0.0
  0
TEXT
  5
148
  8
回04-図面枠
 62
     7
 10
2056.364333015699
 20
409.8983014562905
 30
0.0
 40
3.6
  1
5
  0
LINE
  5
149
  8
回04-図面枠
 62
     7
 10
2055.442418613231
 20
372.7384828900172
 30
0.0
 11
2055.442418613231
 21
728.2384828900172
 31
0.0
  0
LINE
  5
14A
  8
回04-図面枠
 62
     7
 10
2059.942418613231
 20
723.7384828900172
 30
0.0
 11
2059.942418613231
 21
377.2384828900172
 31
0.0
  0
LINE
  5
14B
  8
回04-図面枠
 62
     7
 10
2059.942418613231
 20
377.2384828900172
 30
0.0
 11
2563.942418613231
 21
377.2384828900172
 31
0.0
  0
LINE
  5
14C
  8
回04-図面枠
 62
     7
 10
2568.442418613231
 20
372.7384828900172
 30
0.0
 11
2055.442418613231
 21
372.7384828900172
 31
0.0
  0
LINE
  5
14D
  8
回04-図面枠
 62
     7
 10
2568.442418613231
 20
728.2384828900172
 30
0.0
 11
2055.442418613231
 21
728.2384828900172
 31
0.0
  0
LINE
  5
14E
  8
回04-図面枠
 62
     7
 10
2059.942418613231
 20
723.7384828900172
 30
0.0
 11
2563.942418613231
 21
723.7384828900172
 31
0.0
  0
LINE
  5
14F
  8
回04-図面枠
 62
     7
 10
2423.942418613231
 20
387.2384828900172
 30
0.0
 11
2563.942418613231
 21
387.2384828900172
 31
0.0
  0
LINE
  5
150
  8
回04-図面枠
 62
     7
 10
2423.942418613231
 20
407.2384828900172
 30
0.0
 11
2563.942418613231
 21
407.2384828900172
 31
0.0
  0
LINE
  5
151
  8
回04-図面枠
 62
     7
 10
2423.942418613231
 20
402.2384828900171
 30
0.0
 11
2563.942418613231
 21
402.2384828900171
 31
0.0
  0
LINE
  5
152
  8
回03-記事
  6
CONTINUOUS
 62
     7
 10
2527.952527997539
 20
652.4596421696513
 30
0.0
 11
2527.952527997539
 21
683.6596421696517
 31
0.0
  0
LINE
  5
153
  8
回03-記事
  6
CONTINUOUS
 62
     7
 10
2545.112527997539
 20
635.2996421696516
 30
0.0
 11
2545.112527997539
 21
700.8196421696516
 31
0.0
  0
TEXT
  5
154
  8
回03-記事
  6
CONTINUOUS
 62
     7
 10
2477.327159251773
 20
681.2101227945941
 30
0.0
 40
4.991999999999999
  1
3
  0
TEXT
  5
155
  8
回03-記事
  6
CONTINUOUS
 62
     7
 10
2477.04190348373
 20
698.5312436616823
 30
0.0
 40
4.991999999999999
  1
4
  0
LINE
  5
156
  8
回03-記事
  6
CONTINUOUS
 62
     7
 10
2520.214927997538
 20
654.0820421696512
 30
0.0
 11
2522.46132799754
 21
649.5892421696512
 31
0.0
  0
LINE
  5
157
  8
回03-記事
  6
CONTINUOUS
 62
     7
 10
2522.46132799754
 20
649.5892421696512
 30
0.0
 11
2523.896527997538
 21
652.4596421696513
 31
0.0
  0
LINE
  5
158
  8
回03-記事
  6
CONTINUOUS
 62
     7
 10
2515.722127997539
 20
654.0820421696512
 30
0.0
 11
2517.968527997539
 21
649.5892421696512
 31
0.0
  0
LINE
  5
159
  8
回03-記事
  6
CONTINUOUS
 62
     7
 10
2513.475727997539
 20
649.5892421696512
 30
0.0
 11
2515.722127997539
 21
654.0820421696512
 31
0.0
  0
LINE
  5
15A
  8
回03-記事
  6
CONTINUOUS
 62
     7
 10
2517.968527997539
 20
649.5892421696512
 30
0.0
 11
2520.214927997538
 21
654.0820421696512
 31
0.0
  0
LINE
  5
15B
  8
回03-記事
  6
CONTINUOUS
 62
     7
 10
2506.736527997539
 20
654.0820421696512
 30
0.0
 11
2508.982927997538
 21
649.5892421696512
 31
0.0
  0
LINE
  5
15C
  8
回03-記事
  6
CONTINUOUS
 62
     7
 10
2506.362127997539
 20
649.7764421696516
 30
0.0
 11
2510.854927997539
 21
652.0228421696515
 31
0.0
  0
LINE
  5
15D
  8
回03-記事
  6
CONTINUOUS
 62
     7
 10
2506.362127997539
 20
649.7764421696516
 30
0.0
 11
2510.854927997539
 21
647.530042169652
 31
0.0
  0
LINE
  5
15E
  8
回03-記事
  6
CONTINUOUS
 62
     7
 10
2506.362127997539
 20
645.2836421696511
 30
0.0
 11
2510.854927997539
 21
647.530042169652
 31
0.0
  0
LINE
  5
15F
  8
回03-記事
  6
CONTINUOUS
 62
     7
 10
2506.362127997539
 20
640.7908421696514
 30
0.0
 11
2510.854927997539
 21
643.0372421696517
 31
0.0
  0
LINE
  5
160
  8
回03-記事
  6
CONTINUOUS
 62
     7
 10
2506.362127997539
 20
645.2836421696511
 30
0.0
 11
2510.854927997539
 21
643.0372421696517
 31
0.0
  0
LINE
  5
161
  8
回03-記事
  6
CONTINUOUS
 62
     7
 10
2506.362127997539
 20
654.2692421696511
 30
0.0
 11
2510.854927997539
 21
656.5156421696515
 31
0.0
  0
LINE
  5
162
  8
回03-記事
  6
CONTINUOUS
 62
     7
 10
2506.362127997539
 20
658.7620421696515
 30
0.0
 11
2510.854927997539
 21
661.0084421696504
 31
0.0
  0
LINE
  5
163
  8
回03-記事
  6
CONTINUOUS
 62
     7
 10
2506.362127997539
 20
658.7620421696515
 30
0.0
 11
2510.854927997539
 21
656.5156421696515
 31
0.0
  0
LINE
  5
164
  8
回03-記事
  6
CONTINUOUS
 62
     7
 10
2506.362127997539
 20
654.2692421696511
 30
0.0
 11
2510.854927997539
 21
652.0228421696515
 31
0.0
  0
LINE
  5
165
  8
回03-記事
  6
CONTINUOUS
 62
     7
 10
2502.24372799754
 20
654.0820421696512
 30
0.0
 11
2504.490127997538
 21
649.5892421696512
 31
0.0
  0
LINE
  5
166
  8
回03-記事
  6
CONTINUOUS
 62
     7
 10
2499.997327997539
 20
649.5892421696512
 30
0.0
 11
2502.24372799754
 21
654.0820421696512
 31
0.0
  0
LINE
  5
167
  8
回03-記事
  6
CONTINUOUS
 62
     7
 10
2496.315727997539
 20
651.2116421696514
 30
0.0
 11
2497.750927997538
 21
654.0820421696512
 31
0.0
  0
LINE
  5
168
  8
回03-記事
  6
CONTINUOUS
 62
     7
 10
2497.750927997538
 20
654.0820421696512
 30
0.0
 11
2499.997327997539
 21
649.5892421696512
 31
0.0
  0
LINE
  5
169
  8
回03-記事
  6
CONTINUOUS
 62
     7
 10
2504.490127997538
 20
649.5892421696512
 30
0.0
 11
2506.736527997539
 21
654.0820421696512
 31
0.0
  0
LINE
  5
16A
  8
回03-記事
  6
CONTINUOUS
 62
     7
 10
2508.60852799754
 20
662.131642169651
 30
0.0
 11
2508.60852799754
 21
665.875642169651
 31
0.0
  0
LINE
  5
16B
  8
回03-記事
  6
CONTINUOUS
 62
     7
 10
2508.982927997538
 20
649.5892421696512
 30
0.0
 11
2511.229327997539
 21
654.0820421696512
 31
0.0
  0
LINE
  5
16C
  8
回03-記事
  6
CONTINUOUS
 62
     7
 10
2508.60852799754
 20
662.131642169651
 30
0.0
 11
2510.854927997539
 21
661.0084421696504
 31
0.0
  0
TEXT
  5
16D
  8
回03-記事
  6
CONTINUOUS
 62
     7
 10
2509.834335916041
 20
666.6984053268347
 30
0.0
 40
4.368
  1
YU
  0
LINE
  5
16E
  8
回03-記事
  6
CONTINUOUS
 62
     7
 10
2511.229327997539
 20
654.0820421696512
 30
0.0
 11
2513.475727997539
 21
649.5892421696512
 31
0.0
  0
LINE
  5
16F
  8
回03-記事
  6
CONTINUOUS
 62
     7
 10
2508.60852799754
 20
635.2996421696516
 30
0.0
 11
2508.60852799754
 21
639.6676421696511
 31
0.0
  0
LINE
  5
170
  8
回03-記事
  6
CONTINUOUS
 62
     7
 10
2506.362127997539
 20
640.7908421696514
 30
0.0
 11
2508.60852799754
 21
639.6676421696511
 31
0.0
  0
TEXT
  5
171
  8
回03-記事
  6
CONTINUOUS
 62
     7
 10
2497.134025465266
 20
637.0789044565781
 30
0.0
 40
4.368
  1
YD
  0
TEXT
  5
172
  8
回03-記事
  6
CONTINUOUS
 62
     7
 10
2487.670181457493
 20
653.0413696338472
 30
0.0
 40
4.368
  1
XL
  0
TEXT
  5
173
  8
回03-記事
  6
CONTINUOUS
 62
     7
 10
2477.520748246647
 20
648.7378819455007
 30
0.0
 40
4.991999999999999
  1
1
  0
TEXT
  5
174
  8
回03-記事
  6
CONTINUOUS
 62
     7
 10
2477.137955210868
 20
663.977286344634
 30
0.0
 40
4.991999999999999
  1
2
  0
LINE
  5
175
  8
回03-記事
  6
CONTINUOUS
 62
     7
 10
2482.400527997538
 20
665.875642169651
 30
0.0
 11
2508.60852799754
 21
665.875642169651
 31
0.0
  0
LINE
  5
176
  8
回03-記事
  6
CONTINUOUS
 62
     7
 10
2482.400527997538
 20
651.2116421696514
 30
0.0
 11
2496.315727997539
 21
651.2116421696514
 31
0.0
  0
TEXT
  5
177
  8
回03-記事
  6
CONTINUOUS
 62
     7
 10
2487.610855411015
 20
620.6556251921747
 30
0.0
 40
6.4
  1
Pin Assignment
  0
LINE
  5
178
  8
回03-記事
  6
CONTINUOUS
 62
     7
 10
2508.60852799754
 20
635.2996421696516
 30
0.0
 11
2545.112527997539
 21
635.2996421696516
 31
0.0
  0
LINE
  5
179
  8
回03-記事
  6
CONTINUOUS
 62
     7
 10
2482.400527997538
 20
700.8196421696516
 30
0.0
 11
2545.112527997539
 21
700.8196421696516
 31
0.0
  0
LINE
  5
17A
  8
回03-記事
  6
CONTINUOUS
 62
     7
 10
2482.400527997538
 20
683.6596421696517
 30
0.0
 11
2527.952527997539
 21
683.6596421696517
 31
0.0
  0
LINE
  5
17B
  8
回03-記事
  6
CONTINUOUS
 62
     7
 10
2523.896527997538
 20
652.4596421696513
 30
0.0
 11
2527.952527997539
 21
652.4596421696513
 31
0.0
  0
TEXT
  5
17C
  8
回03-記事
  6
CONTINUOUS
 62
     7
 10
2524.13382254018
 20
646.0890781078254
 30
0.0
 40
4.368
  1
XR
  0
POLYLINE
  5
17D
  8
回01-TP外形
  6
CONTINUOUS
 62
     7
 66
     1
 10
0.0
 20
0.0
 30
0.0
 70
     1
  0
VERTEX
  5
9ED
  8
回01-TP外形
  6
CONTINUOUS
 62
     7
 10
2112.844288395725
 20
461.8118160820722
 30
0.0
  0
VERTEX
  5
9EF
  8
回01-TP外形
  6
CONTINUOUS
 62
     7
 10
2188.344288395725
 20
461.8118160820722
 30
0.0
  0
VERTEX
  5
9F0
  8
回01-TP外形
  6
CONTINUOUS
 62
     7
 10
2188.344288395725
 20
462.8118160820721
 30
0.0
  0
VERTEX
  5
9F1
  8
回01-TP外形
  6
CONTINUOUS
 62
     7
 10
2112.844288395725
 20
462.8118160820721
 30
0.0
  0
SEQEND
  5
9EE
  8
回04-図面枠
  6
CONTINUOUS
 62
     1
  0
POLYLINE
  5
17F
  8
回01-TP外形
  6
CONTINUOUS
 62
     7
 66
     1
 10
0.0
 20
0.0
 30
0.0
 70
     1
  0
VERTEX
  5
9F2
  8
回01-TP外形
  6
CONTINUOUS
 62
     7
 10
2178.864288395725
 20
458.8118160820721
 30
0.0
  0
VERTEX
  5
9F4
  8
回01-TP外形
  6
CONTINUOUS
 62
     7
 10
2187.844288395725
 20
458.8118160820721
 30
0.0
  0
VERTEX
  5
9F5
  8
回01-TP外形
  6
CONTINUOUS
 62
     7
 10
2187.844288395725
 20
457.8118160820721
 30
0.0
  0
VERTEX
  5
9F6
  8
回01-TP外形
  6
CONTINUOUS
 62
     7
 10
2178.864288395725
 20
457.8118160820721
 30
0.0
  0
SEQEND
  5
9F3
  8
回04-図面枠
  6
CONTINUOUS
 62
     1
  0
LINE
  5
180
  8
回01-TP外形
  6
CONTINUOUS
 62
     7
 10
2401.544288395726
 20
458.8118160820721
 30
0.0
 11
2401.544288395726
 21
465.8118160820722
 31
0.0
  0
POLYLINE
  5
181
  8
回01-TP外形
  6
PHANTOM2
 62
     7
 66
     1
 10
0.0
 20
0.0
 30
0.0
 70
     1
  0
VERTEX
  5
9F7
  8
回01-TP外形
  6
PHANTOM2
 62
     7
 10
2195.244288395726
 20
510.5038949526615
 30
0.0
  0
VERTEX
  5
9F9
  8
回01-TP外形
  6
PHANTOM2
 62
     7
 10
2397.544288395726
 20
510.5038949526615
 30
0.0
  0
VERTEX
  5
9FA
  8
回01-TP外形
  6
PHANTOM2
 62
     7
 10
2397.544288395726
 20
634.6838949526617
 30
0.0
  0
VERTEX
  5
9FB
  8
回01-TP外形
  6
PHANTOM2
 62
     7
 10
2195.244288395726
 20
634.6838949526617
 30
0.0
  0
SEQEND
  5
9F8
  8
回04-図面枠
  6
CONTINUOUS
 62
     1
  0
TEXT
  5
183
  8
回03-記事
  6
CONTINUOUS
 62
     7
 10
2380.536753837831
 20
577.7200968101319
 30
0.0
 40
5.0
  1
XR
  0
TEXT
  5
184
  8
回03-記事
  6
CONTINUOUS
 62
     7
 10
2285.178541803119
 20
621.8284129567937
 30
0.0
 40
5.0
  1
YU
  0
TEXT
  5
185
  8
回03-記事
  6
CONTINUOUS
 62
     7
 10
2285.490775504398
 20
516.9319876061972
 30
0.0
 40
5.0
  1
YD
  0
TEXT
  5
186
  8
回03-記事
  6
CONTINUOUS
 62
     7
 10
2201.13580548923
 20
578.4651062999983
 30
0.0
 40
5.0
  1
XL
  0
INSERT
  5
187
  8
回04-図面枠
  6
CONTINUOUS
 62
     1
 66
     1
  2
*X8181
 10
0.0
 20
0.0
 30
0.0
1001
ACADSTRINGINFO
1000
MIFCodePage
1070
     1
1001
ACAD_MLEADERVER
1070
     2
  0
SEQEND
  5
6A3
  8
回04-図面枠
  6
CONTINUOUS
 62
     1
  0
DIMENSION
  5
189
  8
回02-寸法
  6
CONTINUOUS
 62
     7
  2
*D4545
 10
2328.394288395726
 20
528.4186714720085
 30
0.0
 11
2326.394288395726
 21
530.9186714720085
 31
0.0
 70
    32
  3
STANDARD
 13
2324.394288395726
 23
536.5938949526617
 33
0.0
 14
2328.394288395726
 24
536.5938949526617
 34
0.0
1001
ACAD
1000
DSTYLE
1002
{
1070
    41
1040
1.5
1070
    47
1040
0.3
1070
    48
1040
0.3
1070
   140
1040
4.0
1070
   141
1040
1.5
1070
   146
1040
0.7
1070
   271
1070
     1
1070
   272
1070
     1
1070
   283
1070
     0
1070
   288
1070
     0
1070
   341
1005
0
1070
   371
1070
    13
1070
   372
1070
    13
1002
}
  0
DIMENSION
  5
19A
  8
回02-寸法
  6
CONTINUOUS
 62
     7
  2
*D4646
 10
2342.520924011514
 20
544.5938949526617
 30
0.0
 11
2340.020924011514
 21
546.5938949526615
 31
0.0
 70
    32
  3
STANDARD
 13
2332.394288395726
 23
548.5938949526617
 33
0.0
 14
2332.394288395726
 24
544.5938949526617
 34
0.0
 50
90.0
1001
ACAD
1000
DSTYLE
1002
{
1070
    41
1040
1.5
1070
    47
1040
0.3
1070
    48
1040
0.3
1070
   140
1040
4.0
1070
   141
1040
1.5
1070
   146
1040
0.7
1070
   271
1070
     1
1070
   272
1070
     1
1070
   283
1070
     0
1070
   288
1070
     0
1070
   341
1005
0
1070
   371
1070
    13
1070
   372
1070
    13
1002
}
  0
CIRCLE
  5
1AB
  8
回03-記事
  6
CONTINUOUS
 62
     7
 10
2332.394288395726
 20
572.5938949526615
 30
0.0
 40
0.025
  0
CIRCLE
  5
1AC
  8
回03-記事
  6
CONTINUOUS
 62
     7
 10
2332.394288395726
 20
568.5938949526615
 30
0.0
 40
0.025
  0
CIRCLE
  5
1AD
  8
回03-記事
  6
CONTINUOUS
 62
     7
 10
2332.394288395726
 20
564.5938949526615
 30
0.0
 40
0.025
  0
CIRCLE
  5
1AE
  8
回03-記事
  6
CONTINUOUS
 62
     7
 10
2332.394288395726
 20
560.5938949526615
 30
0.0
 40
0.025
  0
CIRCLE
  5
1AF
  8
回03-記事
  6
CONTINUOUS
 62
     7
 10
2332.394288395726
 20
556.5938949526617
 30
0.0
 40
0.025
  0
CIRCLE
  5
1B0
  8
回03-記事
  6
CONTINUOUS
 62
     7
 10
2332.394288395726
 20
552.5938949526617
 30
0.0
 40
0.025
  0
CIRCLE
  5
1B1
  8
回03-記事
  6
CONTINUOUS
 62
     7
 10
2332.394288395726
 20
548.5938949526617
 30
0.0
 40
0.025
  0
CIRCLE
  5
1B2
  8
回03-記事
  6
CONTINUOUS
 62
     7
 10
2332.394288395726
 20
544.5938949526617
 30
0.0
 40
0.025
  0
CIRCLE
  5
1B3
  8
回03-記事
  6
CONTINUOUS
 62
     7
 10
2332.394288395726
 20
540.5938949526617
 30
0.0
 40
0.025
  0
CIRCLE
  5
1B4
  8
回03-記事
  6
CONTINUOUS
 62
     7
 10
2332.394288395726
 20
536.5938949526617
 30
0.0
 40
0.025
  0
CIRCLE
  5
1B5
  8
回03-記事
  6
CONTINUOUS
 62
     7
 10
2328.394288395726
 20
572.5938949526615
 30
0.0
 40
0.025
  0
CIRCLE
  5
1B6
  8
回03-記事
  6
CONTINUOUS
 62
     7
 10
2328.394288395726
 20
568.5938949526615
 30
0.0
 40
0.025
  0
CIRCLE
  5
1B7
  8
回03-記事
  6
CONTINUOUS
 62
     7
 10
2328.394288395726
 20
564.5938949526615
 30
0.0
 40
0.025
  0
CIRCLE
  5
1B8
  8
回03-記事
  6
CONTINUOUS
 62
     7
 10
2328.394288395726
 20
560.5938949526615
 30
0.0
 40
0.025
  0
CIRCLE
  5
1B9
  8
回03-記事
  6
CONTINUOUS
 62
     7
 10
2328.394288395726
 20
556.5938949526617
 30
0.0
 40
0.025
  0
CIRCLE
  5
1BA
  8
回03-記事
  6
CONTINUOUS
 62
     7
 10
2328.394288395726
 20
552.5938949526617
 30
0.0
 40
0.025
  0
CIRCLE
  5
1BB
  8
回03-記事
  6
CONTINUOUS
 62
     7
 10
2328.394288395726
 20
548.5938949526617
 30
0.0
 40
0.025
  0
CIRCLE
  5
1BC
  8
回03-記事
  6
CONTINUOUS
 62
     7
 10
2328.394288395726
 20
544.5938949526617
 30
0.0
 40
0.025
  0
CIRCLE
  5
1BD
  8
回03-記事
  6
CONTINUOUS
 62
     7
 10
2328.394288395726
 20
540.5938949526617
 30
0.0
 40
0.025
  0
CIRCLE
  5
1BE
  8
回03-記事
  6
CONTINUOUS
 62
     7
 10
2328.394288395726
 20
536.5938949526617
 30
0.0
 40
0.025
  0
CIRCLE
  5
1BF
  8
回03-記事
  6
CONTINUOUS
 62
     7
 10
2324.394288395726
 20
572.5938949526615
 30
0.0
 40
0.025
  0
CIRCLE
  5
1C0
  8
回03-記事
  6
CONTINUOUS
 62
     7
 10
2324.394288395726
 20
568.5938949526615
 30
0.0
 40
0.025
  0
CIRCLE
  5
1C1
  8
回03-記事
  6
CONTINUOUS
 62
     7
 10
2324.394288395726
 20
564.5938949526615
 30
0.0
 40
0.025
  0
CIRCLE
  5
1C2
  8
回03-記事
  6
CONTINUOUS
 62
     7
 10
2324.394288395726
 20
560.5938949526615
 30
0.0
 40
0.025
  0
CIRCLE
  5
1C3
  8
回03-記事
  6
CONTINUOUS
 62
     7
 10
2324.394288395726
 20
556.5938949526617
 30
0.0
 40
0.025
  0
CIRCLE
  5
1C4
  8
回03-記事
  6
CONTINUOUS
 62
     7
 10
2324.394288395726
 20
552.5938949526617
 30
0.0
 40
0.025
  0
CIRCLE
  5
1C5
  8
回03-記事
  6
CONTINUOUS
 62
     7
 10
2324.394288395726
 20
548.5938949526617
 30
0.0
 40
0.025
  0
CIRCLE
  5
1C6
  8
回03-記事
  6
CONTINUOUS
 62
     7
 10
2324.394288395726
 20
544.5938949526617
 30
0.0
 40
0.025
  0
CIRCLE
  5
1C7
  8
回03-記事
  6
CONTINUOUS
 62
     7
 10
2324.394288395726
 20
540.5938949526617
 30
0.0
 40
0.025
  0
CIRCLE
  5
1C8
  8
回03-記事
  6
CONTINUOUS
 62
     7
 10
2324.394288395726
 20
536.5938949526617
 30
0.0
 40
0.025
  0
CIRCLE
  5
1C9
  8
回03-記事
  6
CONTINUOUS
 62
     7
 10
2320.394288395726
 20
572.5938949526615
 30
0.0
 40
0.025
  0
CIRCLE
  5
1CA
  8
回03-記事
  6
CONTINUOUS
 62
     7
 10
2320.394288395726
 20
568.5938949526615
 30
0.0
 40
0.025
  0
CIRCLE
  5
1CB
  8
回03-記事
  6
CONTINUOUS
 62
     7
 10
2320.394288395726
 20
564.5938949526615
 30
0.0
 40
0.025
  0
CIRCLE
  5
1CC
  8
回03-記事
  6
CONTINUOUS
 62
     7
 10
2320.394288395726
 20
560.5938949526615
 30
0.0
 40
0.025
  0
CIRCLE
  5
1CD
  8
回03-記事
  6
CONTINUOUS
 62
     7
 10
2320.394288395726
 20
556.5938949526617
 30
0.0
 40
0.025
  0
CIRCLE
  5
1CE
  8
回03-記事
  6
CONTINUOUS
 62
     7
 10
2320.394288395726
 20
552.5938949526617
 30
0.0
 40
0.025
  0
CIRCLE
  5
1CF
  8
回03-記事
  6
CONTINUOUS
 62
     7
 10
2320.394288395726
 20
548.5938949526617
 30
0.0
 40
0.025
  0
CIRCLE
  5
1D0
  8
回03-記事
  6
CONTINUOUS
 62
     7
 10
2320.394288395726
 20
544.5938949526617
 30
0.0
 40
0.025
  0
CIRCLE
  5
1D1
  8
回03-記事
  6
CONTINUOUS
 62
     7
 10
2320.394288395726
 20
540.5938949526617
 30
0.0
 40
0.025
  0
CIRCLE
  5
1D2
  8
回03-記事
  6
CONTINUOUS
 62
     7
 10
2320.394288395726
 20
536.5938949526617
 30
0.0
 40
0.025
  0
CIRCLE
  5
1D3
  8
回03-記事
  6
CONTINUOUS
 62
     7
 10
2316.394288395726
 20
572.5938949526615
 30
0.0
 40
0.025
  0
CIRCLE
  5
1D4
  8
回03-記事
  6
CONTINUOUS
 62
     7
 10
2316.394288395726
 20
568.5938949526615
 30
0.0
 40
0.025
  0
CIRCLE
  5
1D5
  8
回03-記事
  6
CONTINUOUS
 62
     7
 10
2316.394288395726
 20
564.5938949526615
 30
0.0
 40
0.025
  0
CIRCLE
  5
1D6
  8
回03-記事
  6
CONTINUOUS
 62
     7
 10
2316.394288395726
 20
560.5938949526615
 30
0.0
 40
0.025
  0
CIRCLE
  5
1D7
  8
回03-記事
  6
CONTINUOUS
 62
     7
 10
2316.394288395726
 20
556.5938949526617
 30
0.0
 40
0.025
  0
CIRCLE
  5
1D8
  8
回03-記事
  6
CONTINUOUS
 62
     7
 10
2316.394288395726
 20
552.5938949526617
 30
0.0
 40
0.025
  0
CIRCLE
  5
1D9
  8
回03-記事
  6
CONTINUOUS
 62
     7
 10
2316.394288395726
 20
548.5938949526617
 30
0.0
 40
0.025
  0
CIRCLE
  5
1DA
  8
回03-記事
  6
CONTINUOUS
 62
     7
 10
2316.394288395726
 20
544.5938949526617
 30
0.0
 40
0.025
  0
CIRCLE
  5
1DB
  8
回03-記事
  6
CONTINUOUS
 62
     7
 10
2316.394288395726
 20
540.5938949526617
 30
0.0
 40
0.025
  0
CIRCLE
  5
1DC
  8
回03-記事
  6
CONTINUOUS
 62
     7
 10
2316.394288395726
 20
536.5938949526617
 30
0.0
 40
0.025
  0
CIRCLE
  5
1DD
  8
回03-記事
  6
CONTINUOUS
 62
     7
 10
2312.394288395726
 20
572.5938949526615
 30
0.0
 40
0.025
  0
CIRCLE
  5
1DE
  8
回03-記事
  6
CONTINUOUS
 62
     7
 10
2312.394288395726
 20
568.5938949526615
 30
0.0
 40
0.025
  0
CIRCLE
  5
1DF
  8
回03-記事
  6
CONTINUOUS
 62
     7
 10
2312.394288395726
 20
564.5938949526615
 30
0.0
 40
0.025
  0
CIRCLE
  5
1E0
  8
回03-記事
  6
CONTINUOUS
 62
     7
 10
2312.394288395726
 20
560.5938949526615
 30
0.0
 40
0.025
  0
CIRCLE
  5
1E1
  8
回03-記事
  6
CONTINUOUS
 62
     7
 10
2312.394288395726
 20
556.5938949526617
 30
0.0
 40
0.025
  0
CIRCLE
  5
1E2
  8
回03-記事
  6
CONTINUOUS
 62
     7
 10
2312.394288395726
 20
552.5938949526617
 30
0.0
 40
0.025
  0
CIRCLE
  5
1E3
  8
回03-記事
  6
CONTINUOUS
 62
     7
 10
2312.394288395726
 20
548.5938949526617
 30
0.0
 40
0.025
  0
CIRCLE
  5
1E4
  8
回03-記事
  6
CONTINUOUS
 62
     7
 10
2312.394288395726
 20
544.5938949526617
 30
0.0
 40
0.025
  0
CIRCLE
  5
1E5
  8
回03-記事
  6
CONTINUOUS
 62
     7
 10
2312.394288395726
 20
540.5938949526617
 30
0.0
 40
0.025
  0
CIRCLE
  5
1E6
  8
回03-記事
  6
CONTINUOUS
 62
     7
 10
2312.394288395726
 20
536.5938949526617
 30
0.0
 40
0.025
  0
CIRCLE
  5
1E7
  8
回03-記事
  6
CONTINUOUS
 62
     7
 10
2308.394288395726
 20
572.5938949526615
 30
0.0
 40
0.025
  0
CIRCLE
  5
1E8
  8
回03-記事
  6
CONTINUOUS
 62
     7
 10
2308.394288395726
 20
568.5938949526615
 30
0.0
 40
0.025
  0
CIRCLE
  5
1E9
  8
回03-記事
  6
CONTINUOUS
 62
     7
 10
2308.394288395726
 20
564.5938949526615
 30
0.0
 40
0.025
  0
CIRCLE
  5
1EA
  8
回03-記事
  6
CONTINUOUS
 62
     7
 10
2308.394288395726
 20
560.5938949526615
 30
0.0
 40
0.025
  0
CIRCLE
  5
1EB
  8
回03-記事
  6
CONTINUOUS
 62
     7
 10
2308.394288395726
 20
556.5938949526617
 30
0.0
 40
0.025
  0
CIRCLE
  5
1EC
  8
回03-記事
  6
CONTINUOUS
 62
     7
 10
2308.394288395726
 20
552.5938949526617
 30
0.0
 40
0.025
  0
CIRCLE
  5
1ED
  8
回03-記事
  6
CONTINUOUS
 62
     7
 10
2308.394288395726
 20
548.5938949526617
 30
0.0
 40
0.025
  0
CIRCLE
  5
1EE
  8
回03-記事
  6
CONTINUOUS
 62
     7
 10
2308.394288395726
 20
544.5938949526617
 30
0.0
 40
0.025
  0
CIRCLE
  5
1EF
  8
回03-記事
  6
CONTINUOUS
 62
     7
 10
2308.394288395726
 20
540.5938949526617
 30
0.0
 40
0.025
  0
CIRCLE
  5
1F0
  8
回03-記事
  6
CONTINUOUS
 62
     7
 10
2308.394288395726
 20
536.5938949526617
 30
0.0
 40
0.025
  0
CIRCLE
  5
1F1
  8
回03-記事
  6
CONTINUOUS
 62
     7
 10
2304.394288395726
 20
572.5938949526615
 30
0.0
 40
0.025
  0
CIRCLE
  5
1F2
  8
回03-記事
  6
CONTINUOUS
 62
     7
 10
2304.394288395726
 20
568.5938949526615
 30
0.0
 40
0.025
  0
CIRCLE
  5
1F3
  8
回03-記事
  6
CONTINUOUS
 62
     7
 10
2304.394288395726
 20
564.5938949526615
 30
0.0
 40
0.025
  0
CIRCLE
  5
1F4
  8
回03-記事
  6
CONTINUOUS
 62
     7
 10
2304.394288395726
 20
560.5938949526615
 30
0.0
 40
0.025
  0
CIRCLE
  5
1F5
  8
回03-記事
  6
CONTINUOUS
 62
     7
 10
2304.394288395726
 20
556.5938949526617
 30
0.0
 40
0.025
  0
CIRCLE
  5
1F6
  8
回03-記事
  6
CONTINUOUS
 62
     7
 10
2304.394288395726
 20
552.5938949526617
 30
0.0
 40
0.025
  0
CIRCLE
  5
1F7
  8
回03-記事
  6
CONTINUOUS
 62
     7
 10
2304.394288395726
 20
548.5938949526617
 30
0.0
 40
0.025
  0
CIRCLE
  5
1F8
  8
回03-記事
  6
CONTINUOUS
 62
     7
 10
2304.394288395726
 20
544.5938949526617
 30
0.0
 40
0.025
  0
CIRCLE
  5
1F9
  8
回03-記事
  6
CONTINUOUS
 62
     7
 10
2304.394288395726
 20
540.5938949526617
 30
0.0
 40
0.025
  0
CIRCLE
  5
1FA
  8
回03-記事
  6
CONTINUOUS
 62
     7
 10
2304.394288395726
 20
536.5938949526617
 30
0.0
 40
0.025
  0
CIRCLE
  5
1FB
  8
回03-記事
  6
CONTINUOUS
 62
     7
 10
2300.394288395726
 20
572.5938949526615
 30
0.0
 40
0.025
  0
CIRCLE
  5
1FC
  8
回03-記事
  6
CONTINUOUS
 62
     7
 10
2300.394288395726
 20
568.5938949526615
 30
0.0
 40
0.025
  0
CIRCLE
  5
1FD
  8
回03-記事
  6
CONTINUOUS
 62
     7
 10
2300.394288395726
 20
564.5938949526615
 30
0.0
 40
0.025
  0
CIRCLE
  5
1FE
  8
回03-記事
  6
CONTINUOUS
 62
     7
 10
2300.394288395726
 20
560.5938949526615
 30
0.0
 40
0.025
  0
CIRCLE
  5
1FF
  8
回03-記事
  6
CONTINUOUS
 62
     7
 10
2300.394288395726
 20
556.5938949526617
 30
0.0
 40
0.025
  0
CIRCLE
  5
200
  8
回03-記事
  6
CONTINUOUS
 62
     7
 10
2300.394288395726
 20
552.5938949526617
 30
0.0
 40
0.025
  0
CIRCLE
  5
201
  8
回03-記事
  6
CONTINUOUS
 62
     7
 10
2300.394288395726
 20
548.5938949526617
 30
0.0
 40
0.025
  0
CIRCLE
  5
202
  8
回03-記事
  6
CONTINUOUS
 62
     7
 10
2300.394288395726
 20
544.5938949526617
 30
0.0
 40
0.025
  0
CIRCLE
  5
203
  8
回03-記事
  6
CONTINUOUS
 62
     7
 10
2300.394288395726
 20
540.5938949526617
 30
0.0
 40
0.025
  0
CIRCLE
  5
204
  8
回03-記事
  6
CONTINUOUS
 62
     7
 10
2300.394288395726
 20
536.5938949526617
 30
0.0
 40
0.025
  0
CIRCLE
  5
205
  8
回03-記事
  6
CONTINUOUS
 62
     7
 10
2296.394288395726
 20
572.5938949526615
 30
0.0
 40
0.025
  0
CIRCLE
  5
206
  8
回03-記事
  6
CONTINUOUS
 62
     7
 10
2296.394288395726
 20
568.5938949526615
 30
0.0
 40
0.025
  0
CIRCLE
  5
207
  8
回03-記事
  6
CONTINUOUS
 62
     7
 10
2296.394288395726
 20
564.5938949526615
 30
0.0
 40
0.025
  0
CIRCLE
  5
208
  8
回03-記事
  6
CONTINUOUS
 62
     7
 10
2296.394288395726
 20
560.5938949526615
 30
0.0
 40
0.025
  0
CIRCLE
  5
209
  8
回03-記事
  6
CONTINUOUS
 62
     7
 10
2296.394288395726
 20
556.5938949526617
 30
0.0
 40
0.025
  0
CIRCLE
  5
20A
  8
回03-記事
  6
CONTINUOUS
 62
     7
 10
2296.394288395726
 20
552.5938949526617
 30
0.0
 40
0.025
  0
CIRCLE
  5
20B
  8
回03-記事
  6
CONTINUOUS
 62
     7
 10
2296.394288395726
 20
548.5938949526617
 30
0.0
 40
0.025
  0
CIRCLE
  5
20C
  8
回03-記事
  6
CONTINUOUS
 62
     7
 10
2296.394288395726
 20
544.5938949526617
 30
0.0
 40
0.025
  0
CIRCLE
  5
20D
  8
回03-記事
  6
CONTINUOUS
 62
     7
 10
2296.394288395726
 20
540.5938949526617
 30
0.0
 40
0.025
  0
CIRCLE
  5
20E
  8
回03-記事
  6
CONTINUOUS
 62
     7
 10
2296.394288395726
 20
536.5938949526617
 30
0.0
 40
0.025
  0
LINE
  5
20F
  8
回01-TP外形
  6
CENTER2
 62
     7
 10
2296.394288395726
 20
635.8838949526615
 30
0.0
 11
2296.394288395726
 21
509.3038949526616
 31
0.0
  0
LINE
  5
210
  8
回01-TP外形
  6
CENTER2
 62
     7
 10
2179.530360135278
 20
572.5938949526615
 30
0.0
 11
2409.594288395726
 21
572.5938949526615
 31
0.0
  0
TEXT
  5
211
  8
回03-記事
  6
CONTINUOUS
 62
     7
 10
2107.350165892524
 20
569.942159588355
 30
0.0
 40
3.0
  1
1
 50
90.0
  0
TEXT
  5
212
  8
回03-記事
  6
CONTINUOUS
 62
     7
 10
2107.327272936736
 20
573.3942689585527
 30
0.0
 40
3.0
  1
4
 50
90.0
  0
INSERT
  5
213
  8
回03-記事
  6
CONTINUOUS
 62
     7
 66
     1
  2
*X8282
 10
0.0
 20
0.0
 30
0.0
1001
ACAD
1000
HATCH
1002
{
1070
    19
1000
ANSI31
1040
0.5
1040
6.283185307179585
1000
ASC_BOUNDS
1070
     1
1070
     2
1070
     1
1005
214
1000
ASC_SEEDPOINT
1011
2437.049095437616
1021
355.6050916853619
1031
0.0
1000
R14_HATCH_DATA
1000
213
1011
1.0
1021
0.0
1031
0.0
1011
0.0
1021
1.0
1031
0.0
1011
0.0
1021
0.0
1031
1.0
1040
0.0
1010
0.0
1020
0.0
1030
1.0
1000
ANSI31
1070
     0
1070
     1
1071
        1
1071
        1
1071
        4
1070
     1
1040
2191.944288395726
1040
571.354759766532
1040
2183.744288395727
1040
571.354759766532
1070
     1
1040
2183.744288395727
1040
571.354759766532
1040
2183.744288395727
1040
565.3547597665318
1070
     1
1040
2183.744288395727
1040
565.3547597665318
1040
2191.944288395726
1040
565.3547597665318
1070
     1
1040
2191.944288395726
1040
565.3547597665318
1040
2191.944288395726
1040
571.354759766532
1071
        1
1005
214
1070
     0
1070
     1
1040
6.283185307179585
1040
0.5
1070
     0
1070
     1
1040
0.7853981633974481
1040
2437.049095437616
1040
355.6050916853619
1040
-1.122532015133643
1040
1.122532015133643
1070
     0
1071
        1
1040
2437.049095437616
1040
355.6050916853619
1040
0.0
1002
}
  0
SEQEND
  5
6AD
  8
回04-図面枠
  6
CONTINUOUS
 62
     1
  0
POLYLINE
  5
214
  8
回03-記事
  6
CONTINUOUS
 62
     7
 66
     1
 10
0.0
 20
0.0
 30
0.0
 70
     1
1001
ACAD
1000
ASC_BOUNDS
1002
{
1070
    19
1005
213
1002
}
  0
VERTEX
  5
9FC
  8
回03-記事
  6
CONTINUOUS
 62
     7
 10
2191.944288395726
 20
571.354759766532
 30
0.0
  0
VERTEX
  5
9FE
  8
回03-記事
  6
CONTINUOUS
 62
     7
 10
2183.744288395727
 20
571.354759766532
 30
0.0
  0
VERTEX
  5
9FF
  8
回03-記事
  6
CONTINUOUS
 62
     7
 10
2183.744288395727
 20
565.3547597665318
 30
0.0
  0
VERTEX
  5
A00
  8
回03-記事
  6
CONTINUOUS
 62
     7
 10
2191.944288395726
 20
565.3547597665318
 30
0.0
  0
SEQEND
  5
9FD
  8
回04-図面枠
  6
CONTINUOUS
 62
     1
  0
LINE
  5
215
  8
回01-TP外形
  6
BYBLOCK
 62
     7
 10
2188.344288395726
 20
562.6047597665318
 30
0.0
 11
2188.344288395726
 21
562.6047597665318
 31
0.0
  0
POLYLINE
  5
216
  8
回01-TP外形
  6
CONTINUOUS
 62
     7
 66
     1
 10
0.0
 20
0.0
 30
0.0
 70
     1
  0
VERTEX
  5
A01
  8
回01-TP外形
  6
CONTINUOUS
 62
     7
 10
2195.744288395726
 20
511.3038949526616
 30
0.0
  0
VERTEX
  5
A03
  8
回01-TP外形
  6
CONTINUOUS
 62
     7
 10
2397.044288395726
 20
511.3038949526616
 30
0.0
  0
VERTEX
  5
A04
  8
回01-TP外形
  6
CONTINUOUS
 62
     7
 10
2397.044288395726
 20
633.8838949526615
 30
0.0
  0
VERTEX
  5
A05
  8
回01-TP外形
  6
CONTINUOUS
 62
     7
 10
2195.744288395726
 20
633.8838949526615
 30
0.0
  0
SEQEND
  5
A02
  8
回04-図面枠
  6
CONTINUOUS
 62
     1
  0
POLYLINE
  5
217
  8
回01-TP外形
  6
CONTINUOUS
 62
     7
 66
     1
 10
0.0
 20
0.0
 30
0.0
 70
     1
  0
VERTEX
  5
A06
  8
回01-TP外形
  6
CONTINUOUS
 62
     7
 10
2187.844288395726
 20
504.8438949526617
 30
0.0
  0
VERTEX
  5
A08
  8
回01-TP外形
  6
CONTINUOUS
 62
     7
 10
2402.044288395726
 20
504.8438949526617
 30
0.0
  0
VERTEX
  5
A09
  8
回01-TP外形
  6
CONTINUOUS
 62
     7
 10
2402.044288395726
 20
640.3438949526615
 30
0.0
  0
VERTEX
  5
A0A
  8
回01-TP外形
  6
CONTINUOUS
 62
     7
 10
2187.844288395726
 20
640.3438949526615
 30
0.0
  0
SEQEND
  5
A07
  8
回04-図面枠
  6
CONTINUOUS
 62
     1
  0
POLYLINE
  5
218
  8
回01-TP外形
  6
CONTINUOUS
 62
     7
 66
     1
 10
0.0
 20
0.0
 30
0.0
 70
     1
  0
VERTEX
  5
A0B
  8
回01-TP外形
  6
CONTINUOUS
 62
     7
 10
2197.744288395726
 20
513.3038949526617
 30
0.0
  0
VERTEX
  5
A0D
  8
回01-TP外形
  6
CONTINUOUS
 62
     7
 10
2395.044288395726
 20
513.3038949526617
 30
0.0
  0
VERTEX
  5
A0E
  8
回01-TP外形
  6
CONTINUOUS
 62
     7
 10
2395.044288395726
 20
631.8838949526615
 30
0.0
  0
VERTEX
  5
A0F
  8
回01-TP外形
  6
CONTINUOUS
 62
     7
 10
2197.744288395726
 20
631.8838949526615
 30
0.0
  0
SEQEND
  5
A0C
  8
回04-図面枠
  6
CONTINUOUS
 62
     1
  0
LINE
  5
219
  8
回01-TP外形
  6
CONTINUOUS
 62
     7
 10
2107.844288395725
 20
453.8118160820721
 30
0.0
 11
2107.844288395725
 21
461.811816082073
 31
0.0
  0
LINE
  5
21A
  8
回03-記事
  6
CONTINUOUS
 62
     7
 10
2180.370301609455
 20
462.5394796181466
 30
0.0
 11
2177.965282984762
 21
465.6976189412902
 31
0.0
  0
LINE
  5
21B
  8
回03-記事
  6
CONTINUOUS
 62
     7
 10
2180.215589271685
 20
458.2352522578516
 30
0.0
 11
2177.965282984762
 21
465.6976189412902
 31
0.0
  0
LINE
  5
21C
  8
回03-記事
  6
CONTINUOUS
 62
     7
 10
2116.893611572207
 20
456.2464979938154
 30
0.0
 11
2121.853175615951
 21
453.657924040474
 31
0.0
  0
LINE
  5
21D
  8
回01-TP外形
  6
CONTINUOUS
 62
     7
 10
2195.244288395726
 20
461.8118160820722
 30
0.0
 11
2195.244288395726
 21
458.8118160820721
 31
0.0
  0
DIMENSION
  5
21E
  8
回02-寸法
  6
CONTINUOUS
 62
     7
  2
*D4747
 10
2188.344288395725
 20
470.406917140231
 30
0.0
 11
2197.242713592576
 21
473.106917140231
 31
0.0
 70
    32
  1
(<>)
  3
STANDARD
 13
2187.844288395725
 23
458.8118160820721
 33
0.0
 14
2188.344288395725
 24
465.8118160820722
 34
0.0
1001
ACAD
1000
DSTYLE
1002
{
1070
    47
1040
0.3
1070
    48
1040
0.3
1070
   140
1040
4.0
1070
   146
1040
0.7
1070
   283
1070
     0
1070
   288
1070
     0
1070
   341
1005
0
1070
   371
1070
    13
1070
   372
1070
    13
1002
}
  0
DIMENSION
  5
22F
  8
回02-寸法
  6
CONTINUOUS
 62
     7
  2
*D4848
 10
2402.044288395726
 20
473.9901871636993
 30
0.0
 11
2410.942713592576
 21
476.6901871636993
 31
0.0
 70
    32
  1
(<>)
  3
STANDARD
 13
2401.544288395726
 23
465.8118160820722
 33
0.0
 14
2402.044288395726
 24
458.8118160820721
 34
0.0
1001
ACAD
1000
DSTYLE
1002
{
1070
    47
1040
0.3
1070
    48
1040
0.3
1070
   140
1040
4.0
1070
   146
1040
0.7
1070
   283
1070
     0
1070
   288
1070
     0
1070
   341
1005
0
1070
   371
1070
    13
1070
   372
1070
    13
1002
}
  0
LINE
  5
240
  8
回03-記事
  6
CONTINUOUS
 62
     7
 10
2188.570242786889
 20
451.3891982980258
 30
0.0
 11
2191.574779980279
 21
445.5284732138224
 31
0.0
  0
TEXT
  5
241
  8
回03-記事
  6
CONTINUOUS
 62
     7
 10
2191.544887796055
 20
439.7444712027853
 30
0.0
 40
5.0
  1
6
  0
LINE
  5
242
  8
回01-TP外形
  6
CONTINUOUS
 62
     7
 10
2186.344288395725
 20
451.3118160820722
 30
0.0
 11
2186.344288395725
 21
455.8118160820722
 31
0.0
  0
LINE
  5
243
  8
回01-TP外形
  6
CONTINUOUS
 62
     7
 10
2191.344288395725
 20
451.3118160820722
 30
0.0
 11
2186.344288395725
 21
451.3118160820722
 31
0.0
  0
LINE
  5
244
  8
回01-TP外形
  6
CONTINUOUS
 62
     7
 10
2191.344288395725
 20
452.8118160820723
 30
0.0
 11
2191.344288395725
 21
451.3118160820722
 31
0.0
  0
LINE
  5
245
  8
回01-TP外形
  6
CONTINUOUS
 62
     7
 10
2183.652805391325
 20
455.8118160820722
 30
0.0
 11
2186.344288395725
 21
455.8118160820722
 31
0.0
  0
LINE
  5
246
  8
回01-TP外形
  6
CONTINUOUS
 62
     7
 10
2183.652805391325
 20
457.8118160820721
 30
0.0
 11
2183.652805391325
 21
455.8118160820722
 31
0.0
  0
LINE
  5
247
  8
回01-TP外形
  6
CONTINUOUS
 62
     7
 10
2397.544288395726
 20
458.8118160820721
 30
0.0
 11
2397.544288395726
 21
461.8118160820722
 31
0.0
  0
LINE
  5
248
  8
回01-TP外形
  6
CONTINUOUS
 62
     7
 10
2402.044288395726
 20
452.8118160820716
 30
0.0
 11
2402.044288395726
 21
458.8118160820721
 31
0.0
  0
DIMENSION
  5
249
  8
回02-寸法
  6
CONTINUOUS
 62
     7
  2
*D4949
 10
2410.404014430719
 20
452.8118160820708
 30
0.0
 11
2410.404014430719
 21
439.9409105702601
 31
0.0
 70
   160
  1
2.1{\H0.75x;±0.2}
  3
STANDARD
 13
2401.544288395725
 23
465.8118160820722
 33
0.0
 14
2402.044288395726
 24
452.8118160820708
 34
0.0
 50
90.0
1001
ACAD
1000
DSTYLE
1002
{
1070
   372
1070
    13
1070
   371
1070
    13
1070
   140
1040
4.0
1002
}
1001
ACADSTRINGINFO
1000
MIFCodePage
1070
     1
  0
ARC
  5
25A
  8
回01-TP外形
  6
CONTINUOUS
 62
     7
 10
2390.344288395725
 20
458.8118160820721
 30
0.0
 40
0.5
 50
0.0
 51
180.0
  0
ARC
  5
25B
  8
回01-TP外形
  6
CONTINUOUS
 62
     7
 10
2386.344288395725
 20
458.8118160820721
 30
0.0
 40
0.5
 50
0.0
 51
180.0
  0
ARC
  5
25C
  8
回01-TP外形
  6
CONTINUOUS
 62
     7
 10
2394.344288395725
 20
458.8118160820721
 30
0.0
 40
0.5
 50
0.0
 51
180.0
  0
ARC
  5
25D
  8
回01-TP外形
  6
CONTINUOUS
 62
     7
 10
2370.344288395725
 20
458.8118160820721
 30
0.0
 40
0.5
 50
0.0
 51
180.0
  0
ARC
  5
25E
  8
回01-TP外形
  6
CONTINUOUS
 62
     7
 10
2382.344288395725
 20
458.8118160820721
 30
0.0
 40
0.5
 50
0.0
 51
180.0
  0
ARC
  5
25F
  8
回01-TP外形
  6
CONTINUOUS
 62
     7
 10
2374.344288395725
 20
458.8118160820721
 30
0.0
 40
0.5
 50
0.0
 51
180.0
  0
ARC
  5
260
  8
回01-TP外形
  6
CONTINUOUS
 62
     7
 10
2378.344288395725
 20
458.8118160820721
 30
0.0
 40
0.5
 50
0.0
 51
180.0
  0
ARC
  5
261
  8
回01-TP外形
  6
CONTINUOUS
 62
     7
 10
2354.344288395725
 20
458.8118160820721
 30
0.0
 40
0.5
 50
0.0
 51
180.0
  0
ARC
  5
262
  8
回01-TP外形
  6
CONTINUOUS
 62
     7
 10
2350.344288395725
 20
458.8118160820721
 30
0.0
 40
0.5
 50
0.0
 51
180.0
  0
ARC
  5
263
  8
回01-TP外形
  6
CONTINUOUS
 62
     7
 10
2362.344288395725
 20
458.8118160820721
 30
0.0
 40
0.5
 50
0.0
 51
180.0
  0
ARC
  5
264
  8
回01-TP外形
  6
CONTINUOUS
 62
     7
 10
2358.344288395725
 20
458.8118160820721
 30
0.0
 40
0.5
 50
0.0
 51
180.0
  0
ARC
  5
265
  8
回01-TP外形
  6
CONTINUOUS
 62
     7
 10
2366.344288395725
 20
458.8118160820721
 30
0.0
 40
0.5
 50
0.0
 51
180.0
  0
ARC
  5
266
  8
回01-TP外形
  6
CONTINUOUS
 62
     7
 10
2334.344288395725
 20
458.8118160820721
 30
0.0
 40
0.5
 50
0.0
 51
180.0
  0
ARC
  5
267
  8
回01-TP外形
  6
CONTINUOUS
 62
     7
 10
2338.344288395725
 20
458.8118160820721
 30
0.0
 40
0.5
 50
0.0
 51
180.0
  0
ARC
  5
268
  8
回01-TP外形
  6
CONTINUOUS
 62
     7
 10
2342.344288395725
 20
458.8118160820721
 30
0.0
 40
0.5
 50
0.0
 51
180.0
  0
ARC
  5
269
  8
回01-TP外形
  6
CONTINUOUS
 62
     7
 10
2346.344288395725
 20
458.8118160820721
 30
0.0
 40
0.5
 50
0.0
 51
180.0
  0
ARC
  5
26A
  8
回01-TP外形
  6
CONTINUOUS
 62
     7
 10
2314.344288395725
 20
458.8118160820721
 30
0.0
 40
0.5
 50
0.0
 51
180.0
  0
ARC
  5
26B
  8
回01-TP外形
  6
CONTINUOUS
 62
     7
 10
2318.344288395725
 20
458.8118160820721
 30
0.0
 40
0.5
 50
0.0
 51
180.0
  0
ARC
  5
26C
  8
回01-TP外形
  6
CONTINUOUS
 62
     7
 10
2322.344288395725
 20
458.8118160820721
 30
0.0
 40
0.5
 50
0.0
 51
180.0
  0
ARC
  5
26D
  8
回01-TP外形
  6
CONTINUOUS
 62
     7
 10
2326.344288395725
 20
458.8118160820721
 30
0.0
 40
0.5
 50
0.0
 51
180.0
  0
ARC
  5
26E
  8
回01-TP外形
  6
CONTINUOUS
 62
     7
 10
2330.344288395725
 20
458.8118160820721
 30
0.0
 40
0.5
 50
0.0
 51
180.0
  0
ARC
  5
26F
  8
回01-TP外形
  6
CONTINUOUS
 62
     7
 10
2306.344288395725
 20
458.8118160820721
 30
0.0
 40
0.5
 50
0.0
 51
180.0
  0
ARC
  5
270
  8
回01-TP外形
  6
CONTINUOUS
 62
     7
 10
2298.344288395725
 20
458.8118160820721
 30
0.0
 40
0.5
 50
0.0
 51
180.0
  0
ARC
  5
271
  8
回01-TP外形
  6
CONTINUOUS
 62
     7
 10
2302.344288395725
 20
458.8118160820721
 30
0.0
 40
0.5
 50
0.0
 51
180.0
  0
ARC
  5
272
  8
回01-TP外形
  6
CONTINUOUS
 62
     7
 10
2310.344288395725
 20
458.8118160820721
 30
0.0
 40
0.5
 50
0.0
 51
180.0
  0
LINE
  5
273
  8
回03-記事
  6
CONTINUOUS
 62
     7
 10
2283.817883506996
 20
454.6759436608922
 30
0.0
 11
2289.806068712266
 21
447.7900740221193
 31
0.0
  0
ARC
  5
274
  8
回01-TP外形
  6
CONTINUOUS
 62
     7
 10
2286.344288395725
 20
458.8118160820721
 30
0.0
 40
0.5
 50
0.0
 51
180.0
  0
ARC
  5
275
  8
回01-TP外形
  6
CONTINUOUS
 62
     7
 10
2278.344288395725
 20
458.8118160820721
 30
0.0
 40
0.5
 50
0.0
 51
180.0
  0
ARC
  5
276
  8
回01-TP外形
  6
CONTINUOUS
 62
     7
 10
2282.344288395725
 20
458.8118160820721
 30
0.0
 40
0.5
 50
0.0
 51
180.0
  0
TEXT
  5
277
  8
回03-記事
  6
CONTINUOUS
 62
     7
 10
2290.492668931408
 20
443.4484156605631
 30
0.0
 40
5.0
  1
2
  0
ARC
  5
278
  8
回01-TP外形
  6
CONTINUOUS
 62
     7
 10
2290.344288395725
 20
458.8118160820721
 30
0.0
 40
0.5
 50
0.0
 51
180.0
  0
ARC
  5
279
  8
回01-TP外形
  6
CONTINUOUS
 62
     7
 10
2294.344288395725
 20
458.8118160820721
 30
0.0
 40
0.5
 50
0.0
 51
180.0
  0
ARC
  5
27A
  8
回01-TP外形
  6
CONTINUOUS
 62
     7
 10
2266.344288395725
 20
458.8118160820721
 30
0.0
 40
0.5
 50
0.0
 51
180.0
  0
ARC
  5
27B
  8
回01-TP外形
  6
CONTINUOUS
 62
     7
 10
2262.344288395725
 20
458.8118160820721
 30
0.0
 40
0.5
 50
0.0
 51
180.0
  0
ARC
  5
27C
  8
回01-TP外形
  6
CONTINUOUS
 62
     7
 10
2270.344288395725
 20
458.8118160820721
 30
0.0
 40
0.5
 50
0.0
 51
180.0
  0
ARC
  5
27D
  8
回01-TP外形
  6
CONTINUOUS
 62
     7
 10
2274.344288395725
 20
458.8118160820721
 30
0.0
 40
0.5
 50
0.0
 51
180.0
  0
ARC
  5
27E
  8
回01-TP外形
  6
CONTINUOUS
 62
     7
 10
2242.344288395725
 20
458.8118160820721
 30
0.0
 40
0.5
 50
0.0
 51
180.0
  0
ARC
  5
27F
  8
回01-TP外形
  6
CONTINUOUS
 62
     7
 10
2246.344288395725
 20
458.8118160820721
 30
0.0
 40
0.5
 50
0.0
 51
180.0
  0
ARC
  5
280
  8
回01-TP外形
  6
CONTINUOUS
 62
     7
 10
2258.344288395725
 20
458.8118160820721
 30
0.0
 40
0.5
 50
0.0
 51
180.0
  0
ARC
  5
281
  8
回01-TP外形
  6
CONTINUOUS
 62
     7
 10
2250.344288395725
 20
458.8118160820721
 30
0.0
 40
0.5
 50
0.0
 51
180.0
  0
ARC
  5
282
  8
回01-TP外形
  6
CONTINUOUS
 62
     7
 10
2254.344288395725
 20
458.8118160820721
 30
0.0
 40
0.5
 50
0.0
 51
180.0
  0
ARC
  5
283
  8
回01-TP外形
  6
CONTINUOUS
 62
     7
 10
2226.344288395725
 20
458.8118160820721
 30
0.0
 40
0.5
 50
0.0
 51
180.0
  0
TEXT
  5
284
  8
回03-記事
  6
CONTINUOUS
 62
     7
 10
2225.567452648502
 20
471.1426621759551
 30
0.0
 40
5.0
  1
1
  0
ARC
  5
285
  8
回01-TP外形
  6
CONTINUOUS
 62
     7
 10
2238.344288395725
 20
458.8118160820721
 30
0.0
 40
0.5
 50
0.0
 51
180.0
  0
ARC
  5
286
  8
回01-TP外形
  6
CONTINUOUS
 62
     7
 10
2230.344288395725
 20
458.8118160820721
 30
0.0
 40
0.5
 50
0.0
 51
180.0
  0
ARC
  5
287
  8
回01-TP外形
  6
CONTINUOUS
 62
     7
 10
2234.344288395725
 20
458.8118160820721
 30
0.0
 40
0.5
 50
0.0
 51
180.0
  0
LINE
  5
288
  8
回03-記事
  6
CONTINUOUS
 62
     7
 10
2234.762669847169
 20
464.1265436403787
 30
0.0
 11
2229.452391621796
 21
469.9964652996609
 31
0.0
  0
ARC
  5
289
  8
回01-TP外形
  6
CONTINUOUS
 62
     7
 10
2210.344288395725
 20
458.8118160820721
 30
0.0
 40
0.5
 50
0.0
 51
180.0
  0
ARC
  5
28A
  8
回01-TP外形
  6
CONTINUOUS
 62
     7
 10
2206.344288395725
 20
458.8118160820721
 30
0.0
 40
0.5
 50
0.0
 51
180.0
  0
ARC
  5
28B
  8
回01-TP外形
  6
CONTINUOUS
 62
     7
 10
2218.344288395725
 20
458.8118160820721
 30
0.0
 40
0.5
 50
0.0
 51
180.0
  0
ARC
  5
28C
  8
回01-TP外形
  6
CONTINUOUS
 62
     7
 10
2214.344288395725
 20
458.8118160820721
 30
0.0
 40
0.5
 50
0.0
 51
180.0
  0
ARC
  5
28D
  8
回01-TP外形
  6
CONTINUOUS
 62
     7
 10
2222.344288395725
 20
458.8118160820721
 30
0.0
 40
0.5
 50
0.0
 51
180.0
  0
LINE
  5
28E
  8
回01-TP外形
  6
CONTINUOUS
 62
     7
 10
2188.344288395725
 20
461.8118160820722
 30
0.0
 11
2188.344288395725
 21
465.8118160820722
 31
0.0
  0
LINE
  5
28F
  8
回01-TP外形
  6
CONTINUOUS
 62
     7
 10
2187.844288395725
 20
452.8118160820716
 30
0.0
 11
2187.844288395725
 21
458.8118160820721
 31
0.0
  0
ARC
  5
290
  8
回01-TP外形
  6
CONTINUOUS
 62
     7
 10
2198.344288395725
 20
458.8118160820721
 30
0.0
 40
0.5
 50
0.0
 51
180.0
  0
LINE
  5
291
  8
回01-TP外形
  6
CONTINUOUS
 62
     7
 10
2191.344288395726
 20
458.8118160820721
 30
0.0
 11
2191.344288395726
 21
461.8118160820722
 31
0.0
  0
ARC
  5
292
  8
回01-TP外形
  6
CONTINUOUS
 62
     7
 10
2202.344288395725
 20
458.8118160820721
 30
0.0
 40
0.5
 50
0.0
 51
180.0
  0
LINE
  5
293
  8
回03-記事
  6
CONTINUOUS
 62
     7
 10
2170.789774319322
 20
460.1498706127158
 30
0.0
 11
2173.794311512712
 21
454.2891455285126
 31
0.0
  0
TEXT
  5
294
  8
回03-記事
  6
CONTINUOUS
 62
     7
 10
2173.764419328488
 20
448.5051435174755
 30
0.0
 40
5.0
  1
3
  0
TEXT
  5
295
  8
回03-記事
  6
CONTINUOUS
 62
     7
 10
2175.869812360641
 20
466.2479716615171
 30
0.0
 40
5.0
  1
5
  0
LINE
  5
296
  8
回01-TP外形
  6
CONTINUOUS
 62
     7
 10
2117.844288395725
 20
453.8118160820721
 30
0.0
 11
2117.844331906493
 21
458.8118160820721
 31
0.0
  0
TEXT
  5
297
  8
回03-記事
  6
CONTINUOUS
 62
     7
 10
2121.21464223733
 20
451.4733447248736
 30
0.0
 40
5.0
  1
4
  0
DIMENSION
  5
298
  8
回02-寸法
  6
CONTINUOUS
 62
     7
  2
*D5050
 10
2100.338162618732
 20
453.8118160820721
 30
0.0
 11
2100.338162618732
 21
442.02225138019
 31
0.0
 70
   160
  1
0.3{\H0.7x;±0.05}
  3
STANDARD
 13
2107.844288395725
 23
461.8118160820722
 33
0.0
 14
2107.844288395725
 24
453.8118160820721
 34
0.0
 50
90.0
1001
ACADSTRINGINFO
1000
MIFCodePage
1070
     1
1001
ACAD
1000
DSTYLE
1002
{
1070
   140
1040
4.0
1070
   371
1070
    13
1070
   372
1070
    13
1002
}
  0
DIMENSION
  5
2A9
  8
回02-寸法
  6
CONTINUOUS
 62
     7
  2
*D5151
 10
2112.844288395725
 20
470.5506829095583
 30
0.0
 11
2118.2271311082
 21
470.5506829095583
 31
0.0
 70
   160
  3
STANDARD
 13
2107.844288395725
 23
461.8118160820722
 33
0.0
 14
2112.844288395725
 24
461.8118160820722
 34
0.0
1001
ACAD
1000
DSTYLE
1002
{
1070
   140
1040
4.0
1070
   371
1070
    13
1070
   372
1070
    13
1002
}
  0
LINE
  5
2BA
  8
回01-TP外形
  6
CONTINUOUS
 62
     7
 10
2107.844288395725
 20
453.8118160820721
 30
0.0
 11
2117.844288395725
 21
453.8118160820721
 31
0.0
  0
DIMENSION
  5
2BB
  8
回02-寸法
  6
CONTINUOUS
 62
     7
  2
*D5252
 10
2117.844288395725
 20
442.7767398588007
 30
0.0
 11
2127.790850078807
 21
442.7767398588007
 31
0.0
 70
   160
  1
(<>)
  3
STANDARD
 13
2107.844288395725
 23
453.8118160820721
 33
0.0
 14
2117.844288395725
 24
453.8118160820721
 34
0.0
1001
ACAD
1000
DSTYLE
1002
{
1070
   140
1040
4.0
1070
   371
1070
    13
1070
   372
1070
    13
1002
}
  0
LINE
  5
2CC
  8
回01-TP外形
  6
CONTINUOUS
 62
     7
 10
2107.844288395725
 20
458.8118160820721
 30
0.0
 11
2402.044288395726
 21
458.8118160820721
 31
0.0
  0
LINE
  5
2CD
  8
回01-TP外形
  6
CONTINUOUS
 62
     7
 10
2107.844288395725
 20
461.8118160820722
 30
0.0
 11
2401.544288395726
 21
461.8118160820722
 31
0.0
  0
LINE
  5
2CE
  8
回01-TP外形
  6
CONTINUOUS
 62
     7
 10
2187.844288395725
 20
452.8118160820723
 30
0.0
 11
2402.044288395726
 21
452.8118160820723
 31
0.0
  0
LINE
  5
2CF
  8
回01-TP外形
  6
CONTINUOUS
 62
     7
 10
2188.344288395725
 20
465.8118160820722
 30
0.0
 11
2401.544288395726
 21
465.8118160820722
 31
0.0
  0
DIMENSION
  5
2D0
  8
回02-寸法
  6
CONTINUOUS
 62
     7
  2
*D5353
 10
2183.243785883163
 20
557.2714834158978
 30
0.0
 11
2173.109435577952
 21
557.2714834158978
 31
0.0
 70
   160
  3
KOUSA
 13
2187.844288395726
 23
563.927635222341
 33
0.0
 14
2183.243785883163
 24
564.6939134861118
 34
0.0
1001
ACAD
1000
DSTYLE
1002
{
1070
    71
1070
     0
1070
   288
1070
     0
1070
   341
1005
0
1002
}
  0
TEXT
  5
2E2
  8
回02-寸法
  6
CONTINUOUS
 62
     5
 10
2173.354388824312
 20
587.2932414644719
 30
0.0
 40
3.0
  1
2-R2
1001
ACAD
1000
MTEXTBEGIN
1070
    73
1070
     1
1070
    44
1040
1.0
1070
    74
1070
     0
1000
MTEXTEND
  0
INSERT
  5
2E3
  8
回02-寸法
  6
CONTINUOUS
 62
     5
 66
     1
  2
*X8383
 10
0.0
 20
0.0
 30
0.0
  0
SEQEND
  5
6C8
  8
回04-図面枠
  6
CONTINUOUS
 62
     1
  0
DIMENSION
  5
2E4
  8
回02-寸法
 62
     7
  2
*D5454
 10
2097.401199836788
 20
569.4797595668083
 30
0.0
 11
2097.401199836788
 21
590.0469692124792
 31
0.0
 70
   160
  1
<>
  3
KOUSA
 13
2108.344244884959
 23
575.7297595668083
 33
0.0
 14
2108.344244884959
 24
569.4797595668083
 34
0.0
 50
90.0
1001
ACAD
1000
DSTYLE
1002
{
1070
    47
1040
0.2
1070
   147
1040
0.5
1070
    48
1040
0.2
1070
    72
1070
     0
1070
    71
1070
     1
1070
   288
1070
     0
1070
   341
1005
0
1002
}
  0
DIMENSION
  5
2F5
  8
回02-寸法
  6
CONTINUOUS
 62
     7
  2
*D5555
 10
2178.348357275698
 20
549.6084534789111
 30
0.0
 11
2170.141250494512
 21
549.6084534789111
 31
0.0
 70
   160
  3
KOUSA
 13
2187.844244884957
 23
561.7336917549423
 33
0.0
 14
2178.348357275698
 24
569.3865701105996
 34
0.0
1001
ACAD
1000
DSTYLE
1002
{
1070
    71
1070
     0
1070
   288
1070
     0
1070
   341
1005
0
1002
}
  0
DIMENSION
  5
306
  8
回02-寸法
  6
CONTINUOUS
 62
     7
  2
*D5656
 10
2107.844244884958
 20
602.5101404217885
 30
0.0
 11
2147.844266640342
 21
605.0101404217883
 31
0.0
 70
    32
  3
STANDARD
 13
2187.844288395725
 23
581.2818841109993
 33
0.0
 14
2107.844244884958
 24
575.2297595668083
 34
0.0
1001
ACAD
1000
DSTYLE
1002
{
1070
   147
1040
0.5
1070
    72
1070
     0
1070
    71
1070
     1
1070
    41
1040
1.5
1070
    47
1040
1.0
1070
    48
1040
1.0
1070
   140
1040
4.0
1070
   141
1040
1.5
1070
   146
1040
0.7
1070
   283
1070
     0
1070
   288
1070
     0
1070
   341
1005
0
1070
   371
1070
    13
1070
   372
1070
    13
1002
}
  0
DIMENSION
  5
315
  8
回02-寸法
  6
CONTINUOUS
 62
     7
  2
*D5757
 10
2097.401199836788
 20
504.8438949526617
 30
0.0
 11
2094.701199836787
 21
537.1618272597345
 31
0.0
 70
    32
  3
STANDARD
 13
2108.344244908548
 23
569.4797595668074
 33
0.0
 14
2187.844288395726
 24
504.8438949526617
 34
0.0
 50
90.0
1001
ACAD
1000
DSTYLE
1002
{
1070
     3
1000
(<>)
1070
    41
1040
1.5
1070
    47
1040
0.3
1070
    48
1040
0.3
1070
   140
1040
4.0
1070
   141
1040
1.5
1070
   146
1040
0.7
1070
   283
1070
     0
1070
   288
1070
     0
1070
   341
1005
0
1070
   371
1070
    13
1070
   372
1070
    13
1002
}
  0
DIMENSION
  5
324
  8
回02-寸法
  6
CONTINUOUS
 62
     7
  2
*D5858
 10
2160.282600559924
 20
564.6047595668083
 30
0.0
 11
2160.282600559924
 21
555.2938947529451
 31
0.0
 70
   160
  3
RUISIN
 13
2183.652358487361
 23
580.6035565325368
 33
0.0
 14
2183.656532073067
 24
564.6047595668083
 34
0.0
 50
90.0
1001
ACAD
1000
DSTYLE
1002
{
1070
    47
1040
0.1
1070
    48
1040
0.1
1070
   140
1040
4.0
1070
   146
1040
0.7
1070
   283
1070
     0
1070
   341
1005
0
1070
   371
1070
     9
1070
   372
1070
     9
1002
}
  0
TEXT
  5
336
  8
回02-寸法
  6
CONTINUOUS
 62
     5
 10
2165.463462519709
 20
582.2619414385262
 30
0.0
 40
3.0
  1
4-R1
1001
ACAD
1000
MTEXTBEGIN
1070
    73
1070
     1
1070
    44
1040
1.0
1070
    74
1070
     0
1000
MTEXTEND
  0
INSERT
  5
337
  8
回02-寸法
  6
CONTINUOUS
 62
     5
 66
     1
  2
*X8484
 10
0.0
 20
0.0
 30
0.0
  0
SEQEND
  5
6CF
  8
回04-図面枠
  6
CONTINUOUS
 62
     1
  0
DIMENSION
  5
338
  8
回02-寸法
  6
CONTINUOUS
 62
     7
  2
*D5959
 10
2187.844288395726
 20
689.3863688708637
 30
0.0
 11
2161.1400757973
 21
692.0863688708638
 31
0.0
 70
    32
  1
<>(Insulation Area)
  3
STANDARD
 13
2195.244288395726
 23
634.6838949526617
 33
0.0
 14
2187.844288395726
 24
640.3438949526615
 34
0.0
1001
ACAD
1000
DSTYLE
1002
{
1070
    41
1040
1.5
1070
    47
1040
0.3
1070
    48
1040
0.3
1070
   140
1040
4.0
1070
   141
1040
1.5
1070
   146
1040
0.7
1070
   283
1070
     0
1070
   288
1070
     0
1070
   341
1005
0
1070
   371
1070
    13
1070
   372
1070
    13
1002
}
1001
ACADSTRINGINFO
1000
MIFCodePage
1070
     1
  0
DIMENSION
  5
349
  8
回02-寸法
  6
CONTINUOUS
 62
     7
  2
*D6060
 10
2402.044288395726
 20
689.3863688708637
 30
0.0
 11
2410.142713592576
 21
692.0863688708638
 31
0.0
 70
    32
  1
(<>)
  3
STANDARD
 13
2397.544288395726
 23
634.6838949526617
 33
0.0
 14
2402.044288395726
 24
640.3438949526615
 34
0.0
1001
ACAD
1000
DSTYLE
1002
{
1070
    41
1040
1.5
1070
    47
1040
0.3
1070
    48
1040
0.3
1070
   140
1040
4.0
1070
   141
1040
1.5
1070
   146
1040
0.7
1070
   283
1070
     0
1070
   288
1070
     0
1070
   341
1005
0
1070
   371
1070
    13
1070
   372
1070
    13
1002
}
1001
ACADSTRINGINFO
1000
MIFCodePage
1070
     1
  0
DIMENSION
  5
35A
  8
回02-寸法
  6
CONTINUOUS
 62
     7
  2
*D6161
 10
2402.044288395726
 20
682.3611820782316
 30
0.0
 11
2407.942713592576
 21
685.0611820782317
 31
0.0
 70
    32
  1
(<>)
  3
STANDARD
 13
2397.044288395726
 23
633.8838949526615
 33
0.0
 14
2402.044288395726
 24
640.3438949526615
 34
0.0
1001
ACAD
1000
DSTYLE
1002
{
1070
    41
1040
1.5
1070
    47
1040
0.3
1070
    48
1040
0.3
1070
   140
1040
4.0
1070
   141
1040
1.5
1070
   146
1040
0.7
1070
   283
1070
     0
1070
   288
1070
     0
1070
   341
1005
0
1070
   371
1070
    13
1070
   372
1070
    13
1002
}
  0
DIMENSION
  5
36B
  8
回02-寸法
  6
CONTINUOUS
 62
     7
  2
*D6262
 10
2402.044288395726
 20
674.9145538215407
 30
0.0
 11
2408.042799553236
 21
674.9145538215407
 31
0.0
 70
   160
  1
(<>)
  3
STANDARD
 13
2395.044288395726
 23
631.8838949526615
 33
0.0
 14
2402.044288395726
 24
640.3438949526615
 34
0.0
1001
ACAD
1000
DSTYLE
1002
{
1070
    41
1040
1.5
1070
    47
1040
0.3
1070
    48
1040
0.3
1070
   140
1040
4.0
1070
   141
1040
1.5
1070
   146
1040
0.7
1070
   283
1070
     0
1070
   288
1070
     0
1070
   341
1005
0
1070
   371
1070
    13
1070
   372
1070
    13
1002
}
  0
DIMENSION
  5
37C
  8
回02-寸法
  6
CONTINUOUS
 62
     7
  2
*D6363
 10
2455.857970049841
 20
504.8438949526617
 30
0.0
 11
2453.157970049842
 21
476.9396823542365
 31
0.0
 70
    32
  1
<>(Insulation Area)
  3
STANDARD
 13
2397.544288395726
 23
510.5038949526615
 33
0.0
 14
2402.044288395726
 24
504.8438949526617
 34
0.0
 50
90.0
1001
ACAD
1000
DSTYLE
1002
{
1070
    41
1040
1.5
1070
    47
1040
0.3
1070
    48
1040
0.3
1070
   140
1040
4.0
1070
   141
1040
1.5
1070
   146
1040
0.7
1070
   283
1070
     0
1070
   288
1070
     0
1070
   341
1005
0
1070
   371
1070
    13
1070
   372
1070
    13
1002
}
1001
ACADSTRINGINFO
1000
MIFCodePage
1070
     1
  0
DIMENSION
  5
38D
  8
回02-寸法
  6
CONTINUOUS
 62
     7
  2
*D6464
 10
2440.517679907286
 20
640.3438949526615
 30
0.0
 11
2440.517679907286
 21
650.5177283579164
 31
0.0
 70
   160
  1
(<>)
  3
STANDARD
 13
2395.044288395726
 23
631.8838949526615
 33
0.0
 14
2402.044288395726
 24
640.3438949526615
 34
0.0
 50
90.0
1001
ACAD
1000
DSTYLE
1002
{
1070
    41
1040
1.5
1070
    47
1040
0.3
1070
    48
1040
0.3
1070
   140
1040
4.0
1070
   141
1040
1.5
1070
   146
1040
0.7
1070
   283
1070
     0
1070
   288
1070
     0
1070
   341
1005
0
1070
   371
1070
    13
1070
   372
1070
    13
1002
}
  0
DIMENSION
  5
39E
  8
回02-寸法
  6
CONTINUOUS
 62
     7
  2
*D6565
 10
2448.868906367404
 20
640.3438949526615
 30
0.0
 11
2446.168906367404
 21
649.842320149512
 31
0.0
 70
    32
  1
(<>)
  3
STANDARD
 13
2397.044288395726
 23
633.8838949526615
 33
0.0
 14
2402.044288395726
 24
640.3438949526615
 34
0.0
 50
90.0
1001
ACAD
1000
DSTYLE
1002
{
1070
    41
1040
1.5
1070
    47
1040
0.3
1070
    48
1040
0.3
1070
   140
1040
4.0
1070
   141
1040
1.5
1070
   146
1040
0.7
1070
   283
1070
     0
1070
   288
1070
     0
1070
   341
1005
0
1070
   371
1070
    13
1070
   372
1070
    13
1002
}
  0
DIMENSION
  5
3AF
  8
回02-寸法
  6
CONTINUOUS
 62
     7
  2
*D6666
 10
2455.857970049843
 20
640.3438949526615
 30
0.0
 11
2453.157970049842
 21
669.8473201495121
 31
0.0
 70
    32
  1
(<>)(Insulation Area)
  3
STANDARD
 13
2397.544288395726
 23
634.6838949526617
 33
0.0
 14
2402.044288395726
 24
640.3438949526615
 34
0.0
 50
90.0
1001
ACAD
1000
DSTYLE
1002
{
1070
    41
1040
1.5
1070
    47
1040
0.3
1070
    48
1040
0.3
1070
   140
1040
4.0
1070
   141
1040
1.5
1070
   146
1040
0.7
1070
   283
1070
     0
1070
   288
1070
     0
1070
   341
1005
0
1070
   371
1070
    13
1070
   372
1070
    13
1002
}
1001
ACADSTRINGINFO
1000
MIFCodePage
1070
     1
  0
DIMENSION
  5
3C0
  8
回02-寸法
  6
CONTINUOUS
 62
     7
  2
*D6767
 10
2455.857970049841
 20
510.5038949526615
 30
0.0
 11
2453.357970049841
 21
572.5938949526615
 31
0.0
 70
    32
  3
STANDARD
 13
2397.544288395726
 23
634.6838949526617
 33
0.0
 14
2397.544288395726
 24
510.5038949526615
 34
0.0
 50
90.0
1001
ACAD
1000
DSTYLE
1002
{
1070
    41
1040
1.5
1070
    47
1040
0.3
1070
    48
1040
0.3
1070
   140
1040
4.0
1070
   141
1040
1.5
1070
   146
1040
0.7
1070
   283
1070
     0
1070
   288
1070
     0
1070
   341
1005
0
1070
   371
1070
    13
1070
   372
1070
    13
1002
}
  0
DIMENSION
  5
3CF
  8
回02-寸法
  6
CONTINUOUS
 62
     7
  2
*D6868
 10
2195.244288395726
 20
689.3863688708637
 30
0.0
 11
2296.394288395726
 21
691.8863688708637
 31
0.0
 70
    32
  3
STANDARD
 13
2397.544288395726
 23
634.6838949526617
 33
0.0
 14
2195.244288395726
 24
634.6838949526617
 34
0.0
1001
ACAD
1000
DSTYLE
1002
{
1070
    41
1040
1.5
1070
    47
1040
0.3
1070
    48
1040
0.3
1070
   140
1040
4.0
1070
   141
1040
1.5
1070
   146
1040
0.7
1070
   283
1070
     0
1070
   288
1070
     0
1070
   341
1005
0
1070
   371
1070
    13
1070
   372
1070
    13
1002
}
  0
DIMENSION
  5
3DE
  8
回02-寸法
  6
CONTINUOUS
 62
     7
  2
*D6969
 10
2448.868906367404
 20
504.8438949526617
 30
0.0
 11
2446.368906367404
 21
496.9422248957938
 31
0.0
 70
    32
  3
STANDARD
 13
2397.044288395726
 23
511.3038949526616
 33
0.0
 14
2402.044288395726
 24
504.8438949526617
 34
0.0
 50
90.0
1001
ACAD
1000
DSTYLE
1002
{
1070
    41
1040
1.5
1070
    47
1040
0.3
1070
    48
1040
0.3
1070
   140
1040
4.0
1070
   141
1040
1.5
1070
   146
1040
0.7
1070
   283
1070
     0
1070
   288
1070
     0
1070
   341
1005
0
1070
   371
1070
    13
1070
   372
1070
    13
1002
}
  0
DIMENSION
  5
3EF
  8
回02-寸法
  6
CONTINUOUS
 62
     7
  2
*D7070
 10
2440.517679907286
 20
504.8438949526617
 30
0.0
 11
2440.517679907286
 21
495.9298303170185
 31
0.0
 70
   160
  3
STANDARD
 13
2395.044288395726
 23
513.3038949526617
 33
0.0
 14
2402.044288395726
 24
504.8438949526617
 34
0.0
 50
90.0
1001
ACAD
1000
DSTYLE
1002
{
1070
    41
1040
1.5
1070
    47
1040
0.3
1070
    48
1040
0.3
1070
   140
1040
4.0
1070
   141
1040
1.5
1070
   146
1040
0.7
1070
   283
1070
     0
1070
   288
1070
     0
1070
   341
1005
0
1070
   371
1070
    13
1070
   372
1070
    13
1002
}
  0
DIMENSION
  5
400
  8
回02-寸法
  6
CONTINUOUS
 62
     7
  2
*D7171
 10
2187.844288395726
 20
682.3611820782316
 30
0.0
 11
2181.401101437722
 21
682.3611820782316
 31
0.0
 70
   160
  3
STANDARD
 13
2195.744288395726
 23
633.8838949526615
 33
0.0
 14
2187.844288395726
 24
640.3438949526615
 34
0.0
1001
ACAD
1000
DSTYLE
1002
{
1070
    41
1040
1.5
1070
    47
1040
0.3
1070
    48
1040
0.3
1070
   140
1040
4.0
1070
   141
1040
1.5
1070
   146
1040
0.7
1070
   283
1070
     0
1070
   288
1070
     0
1070
   341
1005
0
1070
   371
1070
    13
1070
   372
1070
    13
1002
}
  0
DIMENSION
  5
411
  8
回02-寸法
  6
CONTINUOUS
 62
     7
  2
*D7272
 10
2462.981998597741
 20
640.3438949526615
 30
0.0
 11
2462.981998597741
 21
572.5938947529453
 31
0.0
 70
   160
  3
STANDARD
 13
2402.044288395726
 23
504.8438949526617
 33
0.0
 14
2402.044288395726
 24
640.3438949526615
 34
0.0
 50
90.0
1001
ACAD
1000
DSTYLE
1002
{
1070
   147
1040
0.5
1070
    72
1070
     0
1070
    71
1070
     1
1070
    41
1040
1.5
1070
    47
1040
0.3
1070
    48
1040
0.3
1070
   140
1040
4.0
1070
   141
1040
1.5
1070
   146
1040
0.7
1070
   283
1070
     0
1070
   288
1070
     0
1070
   341
1005
0
1070
   371
1070
    13
1070
   372
1070
    13
1002
}
  0
DIMENSION
  5
420
  8
回02-寸法
  6
CONTINUOUS
 62
     7
  2
*D7373
 10
2448.868906367405
 20
511.3038949526616
 30
0.0
 11
2446.293906367405
 21
572.5938949526615
 31
0.0
 70
    32
  1
<> {\H0.75x;(VIEWING AREA)}
  3
STANDARD
 13
2397.044288395726
 23
633.8838949526615
 33
0.0
 14
2397.044288395726
 24
511.3038949526616
 34
0.0
 50
90.0
1001
ACAD
1000
DSTYLE
1002
{
1070
    41
1040
1.5
1070
    47
1040
0.3
1070
    48
1040
0.3
1070
   140
1040
4.0
1070
   141
1040
1.5
1070
   146
1040
0.7
1070
   283
1070
     0
1070
   288
1070
     0
1070
   341
1005
0
1070
   371
1070
    13
1070
   372
1070
    13
1002
}
  0
DIMENSION
  5
42F
  8
回02-寸法
  6
CONTINUOUS
 62
     7
  2
*D7474
 10
2440.517679907287
 20
631.8838949526615
 30
0.0
 11
2437.942679907287
 21
572.5938949526615
 31
0.0
 70
    32
  1
<> {\H0.75x;(ACTIVE AREA)}
  3
STANDARD
 13
2395.044288395726
 23
513.3038949526617
 33
0.0
 14
2395.044288395726
 24
631.8838949526615
 34
0.0
 50
90.0
1001
ACAD
1000
DSTYLE
1002
{
1070
    41
1040
1.5
1070
    47
1040
0.3
1070
    48
1040
0.3
1070
   140
1040
4.0
1070
   141
1040
1.5
1070
   146
1040
0.7
1070
   283
1070
     0
1070
   288
1070
     0
1070
   341
1005
0
1070
   371
1070
    13
1070
   372
1070
    13
1002
}
  0
DIMENSION
  5
43E
  8
回02-寸法
  6
CONTINUOUS
 62
     7
  2
*D7575
 10
2402.044288395726
 20
695.5423803902117
 30
0.0
 11
2296.394288395726
 21
695.5423803902117
 31
0.0
 70
   160
  3
STANDARD
 13
2187.844288395726
 23
640.3438949526615
 33
0.0
 14
2402.044288395726
 24
640.3438949526615
 34
0.0
1001
ACAD
1000
DSTYLE
1002
{
1070
    41
1040
1.5
1070
    47
1040
0.3
1070
    48
1040
0.3
1070
    71
1070
     1
1070
   140
1040
4.0
1070
   141
1040
1.5
1070
   146
1040
0.7
1070
   283
1070
     0
1070
   288
1070
     0
1070
   341
1005
0
1070
   371
1070
    13
1070
   372
1070
    13
1002
}
  0
DIMENSION
  5
44D
  8
回02-寸法
  6
CONTINUOUS
 62
     7
  2
*D7676
 10
2397.044288395726
 20
682.3611820782316
 30
0.0
 11
2296.394288395726
 21
684.9361820782316
 31
0.0
 70
    32
  1
<> {\H0.75x;(VIEWING AREA)}
  3
STANDARD
 13
2195.744288395726
 23
633.8838949526615
 33
0.0
 14
2397.044288395726
 24
633.8838949526615
 34
0.0
1001
ACAD
1000
DSTYLE
1002
{
1070
    41
1040
1.5
1070
    47
1040
0.3
1070
    48
1040
0.3
1070
   140
1040
4.0
1070
   141
1040
1.5
1070
   146
1040
0.7
1070
   283
1070
     0
1070
   288
1070
     0
1070
   341
1005
0
1070
   371
1070
    13
1070
   372
1070
    13
1002
}
  0
POLYLINE
  5
45C
  8
回01-TP外形
  6
BYBLOCK
 62
     7
 66
     1
 10
0.0
 20
0.0
 30
0.0
  0
VERTEX
  5
A10
  8
回01-TP外形
  6
BYBLOCK
 62
     7
 10
2188.344288395726
 20
582.6047597665318
 30
0.0
  0
VERTEX
  5
A12
  8
回01-TP外形
  6
BYBLOCK
 62
     7
 10
2191.344288395726
 20
582.6047597665318
 30
0.0
  0
VERTEX
  5
A13
  8
回01-TP外形
  6
BYBLOCK
 62
     7
 10
2191.344288395726
 20
573.104759766532
 30
0.0
  0
VERTEX
  5
A14
  8
回01-TP外形
  6
BYBLOCK
 62
     7
 10
2185.844288395726
 20
573.104759766532
 30
0.0
 42
1.021970931653833
  0
VERTEX
  5
A15
  8
回01-TP外形
  6
BYBLOCK
 62
     7
 10
2185.866012892732
 20
572.1052319432532
 30
0.0
  0
VERTEX
  5
A16
  8
回01-TP外形
  6
BYBLOCK
 62
     7
 10
2191.344288395726
 20
572.1047597665318
 30
0.0
  0
VERTEX
  5
A17
  8
回01-TP外形
  6
BYBLOCK
 62
     7
 10
2191.344288395726
 20
562.6047597665318
 30
0.0
  0
VERTEX
  5
A18
  8
回01-TP外形
  6
BYBLOCK
 62
     7
 10
2188.344288395726
 20
562.6047597665318
 30
0.0
 42
0.4142135623730951
  0
VERTEX
  5
A19
  8
回01-TP外形
  6
BYBLOCK
 62
     7
 10
2186.344288395726
 20
564.6047597665322
 30
0.0
  0
VERTEX
  5
A1A
  8
回01-TP外形
  6
BYBLOCK
 62
     7
 10
2183.656532073066
 20
564.6047597665322
 30
0.0
 42
-0.1982610926034393
  0
VERTEX
  5
A1B
  8
回01-TP外形
  6
BYBLOCK
 62
     7
 10
2182.951199704548
 20
564.8958830142537
 30
0.0
  0
VERTEX
  5
A1C
  8
回01-TP外形
  6
BYBLOCK
 62
     7
 10
2178.64091946437
 20
569.1846118532307
 30
0.0
 42
0.1982460661155559
  0
VERTEX
  5
A1D
  8
回01-TP外形
  6
BYBLOCK
 62
     7
 10
2177.935644928714
 20
569.4757350992804
 30
0.0
  0
VERTEX
  5
A1E
  8
回01-TP外形
  6
BYBLOCK
 62
     7
 10
2108.344244884958
 20
569.4797597665322
 30
0.0
 42
-0.4142135623730951
  0
VERTEX
  5
A1F
  8
回01-TP外形
  6
BYBLOCK
 62
     7
 10
2107.844244884958
 20
569.9797597665322
 30
0.0
  0
VERTEX
  5
A20
  8
回01-TP外形
  6
BYBLOCK
 62
     7
 10
2107.844244884958
 20
575.2297597665318
 30
0.0
 42
-0.4142135623730951
  0
VERTEX
  5
A21
  8
回01-TP外形
  6
BYBLOCK
 62
     7
 10
2108.344244884958
 20
575.7297597665322
 30
0.0
  0
VERTEX
  5
A22
  8
回01-TP外形
  6
BYBLOCK
 62
     7
 10
2177.933025826948
 20
575.7297597665322
 30
0.0
 42
0.1983816813358623
  0
VERTEX
  5
A23
  8
回01-TP外形
  6
BYBLOCK
 62
     7
 10
2178.638687110039
 20
576.0212104361776
 30
0.0
  0
VERTEX
  5
A24
  8
回01-TP外形
  6
BYBLOCK
 62
     7
 10
2182.947144108235
 20
580.3121061624765
 30
0.0
 42
-0.1982655609048175
  0
VERTEX
  5
A25
  8
回01-TP外形
  6
BYBLOCK
 62
     7
 10
2183.652358487361
 20
580.6035567322606
 30
0.0
  0
VERTEX
  5
A26
  8
回01-TP外形
  6
BYBLOCK
 62
     7
 10
2186.345182203658
 20
580.6047601659782
 30
0.0
 42
0.4140826732844626
  0
VERTEX
  5
A27
  8
回01-TP外形
  6
BYBLOCK
 62
     7
 10
2188.344288395726
 20
582.6047599662556
 30
0.0
  0
SEQEND
  5
A11
  8
回04-図面枠
  6
CONTINUOUS
 62
     1
  0
ENDSEC
  0
EOF
