  0
SECTION
  2
HEADER
  9
$ACADVER
  1
AC1009
  9
$INSBASE
 10
0.0
 20
0.0
 30
0.0
  9
$EXTMIN
 10
-290.1837864013187
 20
1514.968088650531
 30
0.0
  9
$EXTMAX
 10
279.8162135986813
 20
1909.968088650531
 30
0.0
  9
$LIMMIN
 10
0.0
 20
0.0
  9
$LIMMAX
 10
880.0
 20
620.0
  9
$ORTHOMODE
 70
     0
  9
$REGENMODE
 70
     1
  9
$FILLMODE
 70
     1
  9
$QTEXTMODE
 70
     0
  9
$MIRRTEXT
 70
     1
  9
$DRAGMODE
 70
     2
  9
$LTSCALE
 40
2.087542087542086
  9
$OSMODE
 70
    37
  9
$ATTMODE
 70
     1
  9
$TEXTSIZE
 40
4.0
  9
$TRACEWID
 40
1.0
  9
$TEXTSTYLE
  7
STANDARD
  9
$CLAYER
  8
0
  9
$CELTYPE
  6
CONTINUOUS
  9
$CECOLOR
 62
     5
  9
$DIMSCALE
 40
1.0
  9
$DIMASZ
 40
2.0
  9
$DIMEXO
 40
0.0
  9
$DIMDLI
 40
0.0
  9
$DIMRND
 40
0.0
  9
$DIMDLE
 40
0.0
  9
$DIMEXE
 40
1.0
  9
$DIMTP
 40
0.0
  9
$DIMTM
 40
0.0
  9
$DIMTXT
 40
3.0
  9
$DIMCEN
 40
2.0
  9
$DIMTSZ
 40
0.0
  9
$DIMTOL
 70
     0
  9
$DIMLIM
 70
     0
  9
$DIMTIH
 70
     0
  9
$DIMTOH
 70
     0
  9
$DIMSE1
 70
     0
  9
$DIMSE2
 70
     0
  9
$DIMTAD
 70
     3
  9
$DIMZIN
 70
     8
  9
$DIMBLK
  1

  9
$DIMASO
 70
     1
  9
$DIMSHO
 70
     1
  9
$DIMPOST
  1

  9
$DIMAPOST
  1

  9
$DIMALT
 70
     0
  9
$DIMALTD
 70
     2
  9
$DIMALTF
 40
25.4
  9
$DIMLFAC
 40
1.0
  9
$DIMTOFL
 70
     1
  9
$DIMTVP
 40
0.0
  9
$DIMTIX
 70
     0
  9
$DIMSOXD
 70
     0
  9
$DIMSAH
 70
     1
  9
$DIMBLK1
  1
OPEN
  9
$DIMBLK2
  1
OPEN
  9
$DIMSTYLE
  2
RUISIN
  9
$DIMCLRD
 70
     5
  9
$DIMCLRE
 70
     5
  9
$DIMCLRT
 70
     5
  9
$DIMTFAC
 40
1.0
  9
$DIMGAP
 40
0.5
  9
$LUNITS
 70
     2
  9
$LUPREC
 70
     4
  9
$SKETCHINC
 40
1.0
  9
$FILLETRAD
 40
10.0
  9
$AUNITS
 70
     0
  9
$AUPREC
 70
     0
  9
$MENU
  1
.
  9
$ELEVATION
 40
0.0
  9
$PELEVATION
 40
0.0
  9
$THICKNESS
 40
0.0
  9
$LIMCHECK
 70
     0
  9
$BLIPMODE
 70
     0
  9
$CHAMFERA
 40
0.0
  9
$CHAMFERB
 40
0.0
  9
$SKPOLY
 70
     0
  9
$TDCREATE
 40
2450431.727493866
  9
$TDUPDATE
 40
2460200.412742396
  9
$TDINDWG
 40
8.765251181
  9
$TDUSRTIMER
 40
2458403.707729514
  9
$USRTIMER
 70
     1
  9
$ANGBASE
 50
0.0
  9
$ANGDIR
 70
     0
  9
$PDMODE
 70
    34
  9
$PDSIZE
 40
0.0
  9
$PLINEWID
 40
0.2
  9
$COORDS
 70
     0
  9
$SPLFRAME
 70
     0
  9
$SPLINETYPE
 70
     6
  9
$SPLINESEGS
 70
     8
  9
$ATTDIA
 70
     1
  9
$ATTREQ
 70
     1
  9
$HANDLING
 70
     1
  9
$HANDSEED
  5
A2B
  9
$SURFTAB1
 70
     6
  9
$SURFTAB2
 70
     6
  9
$SURFTYPE
 70
     6
  9
$SURFU
 70
     6
  9
$SURFV
 70
     6
  9
$UCSNAME
  2

  9
$UCSORG
 10
0.0
 20
0.0
 30
0.0
  9
$UCSXDIR
 10
1.0
 20
0.0
 30
0.0
  9
$UCSYDIR
 10
0.0
 20
1.0
 30
0.0
  9
$PUCSNAME
  2

  9
$PUCSORG
 10
0.0
 20
0.0
 30
0.0
  9
$PUCSXDIR
 10
1.0
 20
0.0
 30
0.0
  9
$PUCSYDIR
 10
0.0
 20
1.0
 30
0.0
  9
$USERI1
 70
     0
  9
$USERI2
 70
     0
  9
$USERI3
 70
     0
  9
$USERI4
 70
     0
  9
$USERI5
 70
     0
  9
$USERR1
 40
0.0
  9
$USERR2
 40
0.0
  9
$USERR3
 40
0.0
  9
$USERR4
 40
0.0
  9
$USERR5
 40
0.0
  9
$WORLDVIEW
 70
     1
  9
$SHADEDGE
 70
     3
  9
$SHADEDIF
 70
    70
  9
$TILEMODE
 70
     1
  9
$MAXACTVP
 70
    16
  9
$PLIMCHECK
 70
     0
  9
$PEXTMIN
 10
1.000000000000000E+20
 20
1.000000000000000E+20
 30
1.000000000000000E+20
  9
$PEXTMAX
 10
-1.000000000000000E+20
 20
-1.000000000000000E+20
 30
-1.000000000000000E+20
  9
$PLIMMIN
 10
0.0
 20
0.0
  9
$PLIMMAX
 10
420.0
 20
297.0
  9
$UNITMODE
 70
     0
  9
$VISRETAIN
 70
     0
  9
$PLINEGEN
 70
     0
  9
$PSLTSCALE
 70
     1
  0
ENDSEC
  0
SECTION
  2
TABLES
  0
TABLE
  2
VPORT
 70
     1
  0
VPORT
  2
*ACTIVE
 70
     0
 10
0.0
 20
0.0
 11
1.0
 21
1.0
 12
-55.83368672947341
 22
1634.201745070127
 13
0.0
 23
0.0
 14
0.25
 24
0.25
 15
1.0
 25
1.0
 16
0.0
 26
0.0
 36
1.0
 17
0.0
 27
0.0
 37
0.0
 40
933.9133906568932
 41
0.2982005141388175
 42
50.0
 43
0.0
 44
0.0
 50
0.0
 51
0.0
 71
    16
 72
   100
 73
     1
 74
     0
 75
     0
 76
     0
 77
     0
 78
     0
  0
ENDTAB
  0
TABLE
  2
LTYPE
 70
     3
  0
LTYPE
  2
CONTINUOUS
 70
     0
  3
Solid line
 72
    65
 73
     0
 40
0.0
  0
LTYPE
  2
CENTER2
 70
     0
  3
___ _ ___ _ ___ _ ___ _ ___ _ ___ _ ___ _ ___ _
 72
    65
 73
     4
 40
1.125
 49
0.75
 49
-0.125
 49
0.125
 49
-0.125
  0
LTYPE
  2
PHANTOM2
 70
     0
  3
Phantom (.5x) ___ _ _ ___ _ _ ___ _ _ ___ _ _
 72
    65
 73
     6
 40
1.25
 49
0.625
 49
-0.125
 49
0.125
 49
-0.125
 49
0.125
 49
-0.125
  0
ENDTAB
  0
TABLE
  2
LAYER
 70
     6
  0
LAYER
  2
0
 70
     0
 62
     7
  6
CONTINUOUS
  0
LAYER
  2
DEFPOINTS
 70
     0
 62
     7
  6
CONTINUOUS
  0
LAYER
  2
回04-図面枠
 70
     0
 62
     7
  6
CONTINUOUS
  0
LAYER
  2
回01-TP外形
 70
     0
 62
     7
  6
CONTINUOUS
  0
LAYER
  2
回02-寸法
 70
     0
 62
     7
  6
CONTINUOUS
  0
LAYER
  2
回03-記事
 70
     0
 62
     7
  6
CONTINUOUS
  0
ENDTAB
  0
TABLE
  2
STYLE
 70
     2
  0
STYLE
  2
STANDARD
 70
     0
 40
4.0
 41
1.0
 50
0.0
 71
     0
 42
4.0
  3
isocp.shx
  4
bigfont.shx
  0
STYLE
  2
ANNOTATIVE
 70
     0
 40
0.0
 41
1.0
 50
0.0
 71
     0
 42
0.2
  3
txt.shx
  4

  0
ENDTAB
  0
TABLE
  2
VIEW
 70
     0
  0
ENDTAB
  0
TABLE
  2
UCS
 70
     0
  0
ENDTAB
  0
TABLE
  2
APPID
 70
     7
  0
APPID
  2
ACAD
 70
     0
  0
APPID
  2
ACADANNOTATIVE
 70
     0
  0
APPID
  2
ACAD_PSEXT
 70
     0
  0
APPID
  2
ACAECLAYERSTANDARD
 70
     0
  0
APPID
  2
ACADSTRINGINFO
 70
     0
  0
APPID
  2
ACAD_NAV_VCDISPLAY
 70
     0
  0
APPID
  2
ACAD_MLEADERVER
 70
     0
  0
ENDTAB
  0
TABLE
  2
DIMSTYLE
 70
     4
  0
DIMSTYLE
  2
STANDARD
 70
     0
  3

  4

  5

  6
OPEN
  7
OPEN
 40
1.0
 41
2.0
 42
0.0
 43
0.0
 44
1.0
 45
0.0
 46
0.0
 47
0.0
 48
0.0
140
3.0
141
2.0
142
0.0
143
25.4
144
1.0
145
0.0
146
1.0
147
0.5
 71
     0
 72
     0
 73
     0
 74
     0
 75
     0
 76
     0
 77
     3
 78
     8
170
     0
171
     2
172
     1
173
     1
174
     0
175
     0
176
     5
177
     5
178
     5
  0
DIMSTYLE
  2
RUISIN
 70
     0
  3

  4

  5

  6
OPEN
  7
OPEN
 40
1.0
 41
2.0
 42
0.0
 43
0.0
 44
1.0
 45
0.0
 46
0.0
 47
0.0
 48
0.0
140
3.0
141
2.0
142
0.0
143
25.4
144
1.0
145
0.0
146
1.0
147
0.5
 71
     0
 72
     0
 73
     0
 74
     0
 75
     0
 76
     0
 77
     3
 78
     8
170
     0
171
     2
172
     1
173
     1
174
     0
175
     0
176
     5
177
     5
178
     5
  0
DIMSTYLE
  2
KOUSA
 70
     0
  3

  4

  5

  6
OPEN
  7
OPEN
 40
1.0
 41
2.0
 42
0.0
 43
0.0
 44
1.0
 45
0.0
 46
0.0
 47
0.1
 48
0.1
140
3.0
141
2.0
142
0.0
143
25.4
144
1.0
145
0.0
146
0.7
147
0.5
 71
     1
 72
     0
 73
     0
 74
     0
 75
     0
 76
     0
 77
     3
 78
     8
170
     0
171
     2
172
     1
173
     1
174
     0
175
     0
176
     5
177
     5
178
     5
  0
DIMSTYLE
  2
DMC
 70
     0
  3

  4

  5

  6

  7

 40
1.0
 41
2.0
 42
0.0
 43
0.0
 44
1.0
 45
0.0
 46
0.0
 47
0.0
 48
0.0
140
3.0
141
2.0
142
0.0
143
0.03937007874016
144
1.0
145
0.0
146
0.7
147
0.5
 71
     0
 72
     0
 73
     0
 74
     0
 75
     0
 76
     0
 77
     3
 78
     8
170
     0
171
     3
172
     1
173
     0
174
     0
175
     0
176
     5
177
     5
178
     5
  0
ENDTAB
  0
ENDSEC
  0
SECTION
  2
BLOCKS
  0
BLOCK
  8
0
  2
$MODEL_SPACE
 70
     0
 10
0.0
 20
0.0
 30
0.0
  3
$MODEL_SPACE
  1

  0
ENDBLK
  8
0
  5
1F
  0
BLOCK
 67
     1
  8
0
  2
$PAPER_SPACE
 70
     0
 10
0.0
 20
0.0
 30
0.0
  3
$PAPER_SPACE
  1

  0
ENDBLK
  5
26
 67
     1
  8
0
  0
BLOCK
  8
0
  2
_OPEN
 70
     0
 10
0.0
 20
0.0
 30
0.0
  3
_OPEN
  1

  0
LINE
  5
7E9
  8
0
  6
BYBLOCK
 62
     0
 10
-1.0
 20
0.166667
 30
0.0
 11
0.0
 21
0.0
 31
0.0
  0
LINE
  5
7EA
  8
0
  6
BYBLOCK
 62
     0
 10
-1.0
 20
-0.166667
 30
0.0
 11
0.0
 21
0.0
 31
0.0
  0
LINE
  5
7EB
  8
0
  6
BYBLOCK
 62
     0
 10
0.0
 20
0.0
 30
0.0
 11
-1.0
 21
0.0
 31
0.0
  0
LINE
  5
12
  8
0
  6
BYBLOCK
 62
     0
 10
-1.0
 20
0.1666666666666666
 30
0.0
 11
0.0
 21
0.0
 31
0.0
  0
LINE
  5
14
  8
0
  6
BYBLOCK
 62
     0
 10
0.0
 20
0.0
 30
0.0
 11
-1.0
 21
-0.1666666666666666
 31
0.0
  0
LINE
  5
15
  8
0
  6
BYBLOCK
 62
     0
 10
0.0
 20
0.0
 30
0.0
 11
-1.0
 21
0.0
 31
0.0
  0
ENDBLK
  5
16
  8
0
  0
BLOCK
  8
0
  2
*D11
 70
     1
 10
0.0
 20
0.0
 30
0.0
  3
*D11
  1

  0
LINE
  5
454
  8
回02-寸法
  6
CONTINUOUS
 62
     5
 10
-5609.673431336779
 20
1084.325654750926
 30
0.0
 11
-5634.043189264216
 21
1084.325654750926
 31
0.0
  0
LINE
  5
455
  8
回02-寸法
  6
CONTINUOUS
 62
     5
 10
-5609.669257751073
 20
1068.326857785197
 30
0.0
 11
-5634.043189264216
 21
1068.326857785197
 31
0.0
  0
LINE
  5
456
  8
回02-寸法
  6
CONTINUOUS
 62
     5
 10
-5633.043189264217
 20
1086.325654750925
 30
0.0
 11
-5633.043189264217
 21
1088.325654750925
 31
0.0
  0
LINE
  5
457
  8
回02-寸法
  6
CONTINUOUS
 62
     5
 10
-5633.043189264217
 20
1066.326857785197
 30
0.0
 11
-5633.043189264217
 21
1056.616780372907
 31
0.0
  0
LINE
  5
458
  8
回02-寸法
  6
CONTINUOUS
 62
     5
 10
-5633.043189264217
 20
1084.325654750925
 30
0.0
 11
-5633.043189264217
 21
1068.326857785197
 31
0.0
  0
INSERT
  5
459
  8
回02-寸法
  6
CONTINUOUS
 62
     5
 66
     1
  2
_OPEN
 10
-5633.043189264217
 20
1084.325654750925
 30
0.0
 41
2.0
 42
2.0
 43
2.0
 50
270.0
  0
SEQEND
  5
45A
  8
0
  6
CONTINUOUS
 62
     5
  0
INSERT
  5
45B
  8
回02-寸法
  6
CONTINUOUS
 62
     5
 66
     1
  2
_OPEN
 10
-5633.043189264217
 20
1068.326857785197
 30
0.0
 41
2.0
 42
2.0
 43
2.0
 50
90.0
  0
SEQEND
  5
45C
  8
0
  6
CONTINUOUS
 62
     5
  0
TEXT
  5
45D
  8
回02-寸法
  6
CONTINUOUS
 62
     5
 10
-5633.543189264216
 20
1056.614322914465
 30
0.0
 40
4.0
  1
16
 50
90.0
1001
ACAD
1000
MTEXTBEGIN
1070
    73
1070
     1
1070
    44
1040
1.0
1070
    74
1070
     0
1000
MTEXTEND
  0
POINT
  5
45E
  8
DEFPOINTS
  6
CONTINUOUS
 62
     0
 10
-5609.673431336779
 20
1084.325654750926
 30
0.0
  0
POINT
  5
45F
  8
DEFPOINTS
  6
CONTINUOUS
 62
     0
 10
-5609.669257751073
 20
1068.326857785197
 30
0.0
  0
POINT
  5
460
  8
DEFPOINTS
  6
CONTINUOUS
 62
     0
 10
-5633.043189264217
 20
1068.326857785197
 30
0.0
  0
ENDBLK
  5
461
  8
0
 62
     3
  0
BLOCK
  8
0
  2
*D22
 70
     1
 10
0.0
 20
0.0
 30
0.0
  3
*D22
  1

  0
LINE
  5
445
  8
回02-寸法
  6
CONTINUOUS
 62
     5
 10
-5605.481501428412
 20
1085.003982329387
 30
0.0
 11
-5605.481501428412
 21
1107.232238640177
 31
0.0
  0
LINE
  5
446
  8
回02-寸法
  6
CONTINUOUS
 62
     5
 10
-5685.48154493918
 20
1078.951857785197
 30
0.0
 11
-5685.48154493918
 21
1107.232238640177
 31
0.0
  0
LINE
  5
447
  8
回02-寸法
  6
CONTINUOUS
 62
     5
 10
-5606.981501428412
 20
1106.232238640177
 30
0.0
 11
-5683.98154493918
 21
1106.232238640177
 31
0.0
  0
INSERT
  5
448
  8
回02-寸法
  6
CONTINUOUS
 62
     5
 66
     1
  2
_OPEN
 10
-5605.481501428412
 20
1106.232238640177
 30
0.0
 41
1.5
 42
1.5
 43
1.5
  0
SEQEND
  5
449
  8
0
  6
CONTINUOUS
 62
     5
  0
INSERT
  5
44A
  8
回02-寸法
  6
CONTINUOUS
 62
     5
 66
     1
  2
_OPEN
 10
-5685.48154493918
 20
1106.232238640177
 30
0.0
 41
1.5
 42
1.5
 43
1.5
 50
180.0
  0
SEQEND
  5
44B
  8
0
  6
CONTINUOUS
 62
     5
  0
INSERT
  5
44C
  8
回02-寸法
  6
CONTINUOUS
 62
     5
 66
     1
  2
*X8585
 10
0.0
 20
0.0
 30
0.0
  0
SEQEND
  5
6EF
  8
0
  6
CONTINUOUS
 62
     5
  0
POINT
  5
44D
  8
DEFPOINTS
  6
CONTINUOUS
 62
     0
 10
-5605.481501428412
 20
1085.003982329387
 30
0.0
  0
POINT
  5
44E
  8
DEFPOINTS
  6
CONTINUOUS
 62
     0
 10
-5685.48154493918
 20
1078.951857785197
 30
0.0
  0
POINT
  5
44F
  8
DEFPOINTS
  6
CONTINUOUS
 62
     0
 10
-5685.48154493918
 20
1106.232238640177
 30
0.0
  0
ENDBLK
  5
450
  8
0
 62
     3
  0
BLOCK
  8
0
  2
*D33
 70
     1
 10
0.0
 20
0.0
 30
0.0
  3
*D33
  1

  0
LINE
  5
432
  8
回02-寸法
  6
CONTINUOUS
 62
     5
 10
-5605.481544939181
 20
1065.455789973331
 30
0.0
 11
-5605.481544939181
 21
1052.330551697299
 31
0.0
  0
LINE
  5
433
  8
回02-寸法
  6
CONTINUOUS
 62
     5
 10
-5614.977432548439
 20
1073.108668328988
 30
0.0
 11
-5614.977432548439
 21
1052.330551697299
 31
0.0
  0
LINE
  5
434
  8
回02-寸法
  6
CONTINUOUS
 62
     5
 10
-5603.481544939181
 20
1053.330551697299
 30
0.0
 11
-5601.481544939181
 21
1053.330551697299
 31
0.0
  0
LINE
  5
435
  8
回02-寸法
  6
CONTINUOUS
 62
     5
 10
-5616.97743254844
 20
1053.330551697299
 30
0.0
 11
-5626.650224754577
 21
1053.330551697299
 31
0.0
  0
LINE
  5
436
  8
回02-寸法
  6
CONTINUOUS
 62
     5
 10
-5605.481544939181
 20
1053.330551697299
 30
0.0
 11
-5614.977432548439
 21
1053.330551697299
 31
0.0
  0
INSERT
  5
437
  8
回02-寸法
  6
CONTINUOUS
 62
     5
 66
     1
  2
_OPEN
 10
-5605.481544939181
 20
1053.330551697299
 30
0.0
 41
2.0
 42
2.0
 43
2.0
 50
180.0
  0
SEQEND
  5
438
  8
0
  6
CONTINUOUS
 62
     5
  0
INSERT
  5
439
  8
回02-寸法
  6
CONTINUOUS
 62
     5
 66
     1
  2
_OPEN
 10
-5614.977432548439
 20
1053.330551697299
 30
0.0
 41
2.0
 42
2.0
 43
2.0
  0
SEQEND
  5
43A
  8
0
  6
CONTINUOUS
 62
     5
  0
TEXT
  5
43B
  8
回02-寸法
  6
CONTINUOUS
 62
     5
 10
-5626.598980803734
 20
1053.830551697299
 30
0.0
 40
4.0
  1
9.5
1001
ACAD
1000
MTEXTBEGIN
1070
    73
1070
     1
1070
    44
1040
1.0
1070
    74
1070
     0
1000
MTEXTEND
  0
POINT
  5
43C
  8
DEFPOINTS
  6
CONTINUOUS
 62
     0
 10
-5605.481544939181
 20
1065.455789973331
 30
0.0
  0
POINT
  5
43D
  8
DEFPOINTS
  6
CONTINUOUS
 62
     0
 10
-5614.977432548439
 20
1073.108668328988
 30
0.0
  0
POINT
  5
43E
  8
DEFPOINTS
  6
CONTINUOUS
 62
     0
 10
-5614.977432548439
 20
1053.330551697299
 30
0.0
  0
ENDBLK
  5
43F
  8
0
 62
     3
  0
BLOCK
  8
0
  2
*D44
 70
     1
 10
0.0
 20
0.0
 30
0.0
  3
*D44
  1

  0
LINE
  5
421
  8
回02-寸法
 62
     5
 10
-5684.981544939181
 20
1079.451857785197
 30
0.0
 11
-5696.924589987351
 21
1079.451857785197
 31
0.0
  0
LINE
  5
422
  8
回02-寸法
 62
     5
 10
-5684.981544939181
 20
1073.201857785197
 30
0.0
 11
-5696.924589987351
 21
1073.201857785197
 31
0.0
  0
LINE
  5
423
  8
回02-寸法
 62
     5
 10
-5695.924589987352
 20
1071.201857785197
 30
0.0
 11
-5695.924589987352
 21
1069.201857785197
 31
0.0
  0
LINE
  5
424
  8
回02-寸法
 62
     5
 10
-5695.924589987352
 20
1081.451857785197
 30
0.0
 11
-5695.924589987352
 21
1102.122835147401
 31
0.0
  0
LINE
  5
425
  8
回02-寸法
 62
     5
 10
-5695.924589987352
 20
1073.201857785197
 30
0.0
 11
-5695.924589987352
 21
1079.451857785197
 31
0.0
  0
INSERT
  5
426
  8
回02-寸法
 62
     5
 66
     1
  2
_OPEN
 10
-5695.924589987352
 20
1073.201857785197
 30
0.0
 41
2.0
 42
2.0
 43
2.0
 50
90.0
  0
SEQEND
  5
427
  8
0
  6
CONTINUOUS
 62
     5
  0
INSERT
  5
428
  8
回02-寸法
 62
     5
 66
     1
  2
_OPEN
 10
-5695.924589987352
 20
1079.451857785197
 30
0.0
 41
2.0
 42
2.0
 43
2.0
 50
270.0
  0
SEQEND
  5
429
  8
0
  6
CONTINUOUS
 62
     5
  0
INSERT
  5
42A
  8
回02-寸法
 62
     5
 66
     1
  2
*X8686
 10
0.0
 20
0.0
 30
0.0
  0
SEQEND
  5
6F5
  8
0
  6
CONTINUOUS
 62
     5
  0
POINT
  5
42B
  8
DEFPOINTS
 62
     0
 10
-5684.981544939181
 20
1079.451857785197
 30
0.0
  0
POINT
  5
42C
  8
DEFPOINTS
 62
     0
 10
-5684.981544939181
 20
1073.201857785197
 30
0.0
  0
POINT
  5
42D
  8
DEFPOINTS
 62
     0
 10
-5695.924589987352
 20
1073.201857785197
 30
0.0
  0
ENDBLK
  5
42E
  8
0
 62
     3
  0
BLOCK
  8
0
  2
*D55
 70
     1
 10
0.0
 20
0.0
 30
0.0
  3
*D55
  1

  0
LINE
  5
410
  8
回02-寸法
  6
CONTINUOUS
 62
     5
 10
-5605.481501428412
 20
1067.649733440729
 30
0.0
 11
-5605.481501428412
 21
1059.993581634286
 31
0.0
  0
LINE
  5
411
  8
回02-寸法
  6
CONTINUOUS
 62
     5
 10
-5610.082003940974
 20
1068.4160117045
 30
0.0
 11
-5610.082003940974
 21
1059.993581634286
 31
0.0
  0
LINE
  5
412
  8
回02-寸法
  6
CONTINUOUS
 62
     5
 10
-5603.481501428412
 20
1060.993581634286
 30
0.0
 11
-5601.481501428413
 21
1060.993581634286
 31
0.0
  0
LINE
  5
413
  8
回02-寸法
  6
CONTINUOUS
 62
     5
 10
-5612.082003940976
 20
1060.993581634286
 30
0.0
 11
-5623.815566844612
 21
1060.993581634286
 31
0.0
  0
LINE
  5
414
  8
回02-寸法
  6
CONTINUOUS
 62
     5
 10
-5605.481501428412
 20
1060.993581634286
 30
0.0
 11
-5610.082003940974
 21
1060.993581634286
 31
0.0
  0
INSERT
  5
415
  8
回02-寸法
  6
CONTINUOUS
 62
     5
 66
     1
  2
_OPEN
 10
-5605.481501428412
 20
1060.993581634286
 30
0.0
 41
2.0
 42
2.0
 43
2.0
 50
180.0
  0
SEQEND
  5
416
  8
0
  6
CONTINUOUS
 62
     5
  0
INSERT
  5
417
  8
回02-寸法
  6
CONTINUOUS
 62
     5
 66
     1
  2
_OPEN
 10
-5610.082003940974
 20
1060.993581634286
 30
0.0
 41
2.0
 42
2.0
 43
2.0
  0
SEQEND
  5
418
  8
0
  6
CONTINUOUS
 62
     5
  0
TEXT
  5
419
  8
回02-寸法
  6
CONTINUOUS
 62
     5
 10
-5623.818024303055
 20
1061.493581634286
 30
0.0
 40
4.0
  1
4.6
1001
ACAD
1000
MTEXTBEGIN
1070
    73
1070
     1
1070
    44
1040
1.0
1070
    74
1070
     0
1000
MTEXTEND
  0
POINT
  5
41A
  8
DEFPOINTS
  6
CONTINUOUS
 62
     0
 10
-5605.481501428412
 20
1067.649733440729
 30
0.0
  0
POINT
  5
41B
  8
DEFPOINTS
  6
CONTINUOUS
 62
     0
 10
-5610.082003940974
 20
1068.4160117045
 30
0.0
  0
POINT
  5
41C
  8
DEFPOINTS
  6
CONTINUOUS
 62
     0
 10
-5610.082003940974
 20
1060.993581634286
 30
0.0
  0
ENDBLK
  5
41D
  8
0
 62
     3
  0
BLOCK
  8
0
  2
*D66
 70
     1
 10
0.0
 20
0.0
 30
0.0
  3
*D66
  1

  0
LINE
  5
398
  8
回02-寸法
  6
CONTINUOUS
 62
     5
 10
-5436.481501428414
 20
1052.315992971335
 30
0.0
 11
-5425.354865812636
 21
1052.315992971335
 31
0.0
  0
LINE
  5
399
  8
回02-寸法
  6
CONTINUOUS
 62
     5
 10
-5436.481501428414
 20
1048.315992971335
 30
0.0
 11
-5425.354865812636
 21
1048.315992971335
 31
0.0
  0
LINE
  5
39A
  8
回02-寸法
  6
CONTINUOUS
 62
     5
 10
-5426.354865812634
 20
1053.815992971335
 30
0.0
 11
-5426.354865812634
 21
1055.315992971335
 31
0.0
  0
LINE
  5
39B
  8
回02-寸法
  6
CONTINUOUS
 62
     5
 10
-5426.354865812634
 20
1046.815992971335
 30
0.0
 11
-5426.354865812634
 21
1042.315992971335
 31
0.0
  0
LINE
  5
39C
  8
回02-寸法
  6
CONTINUOUS
 62
     5
 10
-5426.354865812634
 20
1052.315992971335
 30
0.0
 11
-5426.354865812634
 21
1048.315992971335
 31
0.0
  0
INSERT
  5
39D
  8
回02-寸法
  6
CONTINUOUS
 62
     5
 66
     1
  2
_OPEN
 10
-5426.354865812634
 20
1052.315992971335
 30
0.0
 41
1.5
 42
1.5
 43
1.5
 50
270.0
  0
SEQEND
  5
39E
  8
0
  6
CONTINUOUS
 62
     5
  0
INSERT
  5
39F
  8
回02-寸法
  6
CONTINUOUS
 62
     5
 66
     1
  2
_OPEN
 10
-5426.354865812634
 20
1048.315992971335
 30
0.0
 41
1.5
 42
1.5
 43
1.5
 50
90.0
  0
SEQEND
  5
3A0
  8
0
  6
CONTINUOUS
 62
     5
  0
TEXT
  5
3A1
  8
回02-寸法
  6
CONTINUOUS
 62
     5
 10
-5426.854865812635
 20
1042.215992971336
 30
0.0
 40
4.0
  1
4
 50
90.0
1001
ACAD
1000
MTEXTBEGIN
1070
    73
1070
     1
1070
    44
1040
1.0
1070
    74
1070
     0
1000
MTEXTEND
  0
POINT
  5
3A2
  8
DEFPOINTS
  6
CONTINUOUS
 62
     0
 10
-5436.481501428414
 20
1052.315992971335
 30
0.0
  0
POINT
  5
3A3
  8
DEFPOINTS
  6
CONTINUOUS
 62
     0
 10
-5436.481501428414
 20
1048.315992971335
 30
0.0
  0
POINT
  5
3A4
  8
DEFPOINTS
  6
CONTINUOUS
 62
     0
 10
-5426.354865812634
 20
1048.315992971335
 30
0.0
  0
ENDBLK
  5
3A5
  8
0
 62
     4
  0
BLOCK
  8
0
  2
*D77
 70
     1
 10
0.0
 20
0.0
 30
0.0
  3
*D77
  1

  0
LINE
  5
387
  8
回02-寸法
  6
CONTINUOUS
 62
     5
 10
-5444.481501428413
 20
1040.315992971335
 30
0.0
 11
-5444.481501428413
 21
1031.140769490681
 31
0.0
  0
LINE
  5
388
  8
回02-寸法
  6
CONTINUOUS
 62
     5
 10
-5440.481501428412
 20
1040.315992971335
 30
0.0
 11
-5440.481501428412
 21
1031.140769490681
 31
0.0
  0
LINE
  5
389
  8
回02-寸法
  6
CONTINUOUS
 62
     5
 10
-5445.981501428413
 20
1032.140769490681
 30
0.0
 11
-5447.481501428413
 21
1032.140769490681
 31
0.0
  0
LINE
  5
38A
  8
回02-寸法
  6
CONTINUOUS
 62
     5
 10
-5438.981501428412
 20
1032.140769490681
 30
0.0
 11
-5434.481501428412
 21
1032.140769490681
 31
0.0
  0
LINE
  5
38B
  8
回02-寸法
  6
CONTINUOUS
 62
     5
 10
-5444.481501428413
 20
1032.140769490681
 30
0.0
 11
-5440.481501428412
 21
1032.140769490681
 31
0.0
  0
INSERT
  5
38C
  8
回02-寸法
  6
CONTINUOUS
 62
     5
 66
     1
  2
_OPEN
 10
-5444.481501428413
 20
1032.140769490681
 30
0.0
 41
1.5
 42
1.5
 43
1.5
  0
SEQEND
  5
38D
  8
0
  6
CONTINUOUS
 62
     5
  0
INSERT
  5
38E
  8
回02-寸法
  6
CONTINUOUS
 62
     5
 66
     1
  2
_OPEN
 10
-5440.481501428412
 20
1032.140769490681
 30
0.0
 41
1.5
 42
1.5
 43
1.5
 50
180.0
  0
SEQEND
  5
38F
  8
0
  6
CONTINUOUS
 62
     5
  0
TEXT
  5
390
  8
回02-寸法
  6
CONTINUOUS
 62
     5
 10
-5437.581501428414
 20
1032.640769490681
 30
0.0
 40
4.0
  1
4
1001
ACAD
1000
MTEXTBEGIN
1070
    73
1070
     1
1070
    44
1040
1.0
1070
    74
1070
     0
1000
MTEXTEND
  0
POINT
  5
391
  8
DEFPOINTS
  6
CONTINUOUS
 62
     0
 10
-5444.481501428413
 20
1040.315992971335
 30
0.0
  0
POINT
  5
392
  8
DEFPOINTS
  6
CONTINUOUS
 62
     0
 10
-5440.481501428412
 20
1040.315992971335
 30
0.0
  0
POINT
  5
393
  8
DEFPOINTS
  6
CONTINUOUS
 62
     0
 10
-5440.481501428412
 20
1032.140769490681
 30
0.0
  0
ENDBLK
  5
394
  8
0
 62
     4
  0
BLOCK
  8
0
  2
*D88
 70
     1
 10
0.0
 20
0.0
 30
0.0
  3
*D88
  1

  0
LINE
  5
338
  8
回02-寸法
  6
CONTINUOUS
 62
     5
 10
-5595.731501428412
 20
1168.815992971334
 30
0.0
 11
-5595.731501428412
 21
1192.686652039937
 31
0.0
  0
LINE
  5
339
  8
回02-寸法
  6
CONTINUOUS
 62
     5
 10
-5349.231501428413
 20
1168.815992971334
 30
0.0
 11
-5349.231501428413
 21
1192.686652039937
 31
0.0
  0
LINE
  5
33A
  8
回02-寸法
  6
CONTINUOUS
 62
     5
 10
-5594.231501428414
 20
1191.686652039937
 30
0.0
 11
-5350.731501428413
 21
1191.686652039937
 31
0.0
  0
INSERT
  5
33B
  8
回02-寸法
  6
CONTINUOUS
 62
     5
 66
     1
  2
_OPEN
 10
-5595.731501428412
 20
1191.686652039937
 30
0.0
 41
1.5
 42
1.5
 43
1.5
 50
180.0
  0
SEQEND
  5
33C
  8
0
  6
CONTINUOUS
 62
     5
  0
INSERT
  5
33D
  8
回02-寸法
  6
CONTINUOUS
 62
     5
 66
     1
  2
_OPEN
 10
-5349.231501428413
 20
1191.686652039937
 30
0.0
 41
1.5
 42
1.5
 43
1.5
  0
SEQEND
  5
33E
  8
0
  6
CONTINUOUS
 62
     5
  0
INSERT
  5
33F
  8
回02-寸法
  6
CONTINUOUS
 62
     5
 66
     1
  2
*X8787
 10
0.0
 20
0.0
 30
0.0
  0
SEQEND
  5
6FB
  8
0
  6
CONTINUOUS
 62
     5
  0
POINT
  5
340
  8
DEFPOINTS
  6
CONTINUOUS
 62
     0
 10
-5595.731501428412
 20
1168.815992971334
 30
0.0
  0
POINT
  5
341
  8
DEFPOINTS
  6
CONTINUOUS
 62
     0
 10
-5349.231501428413
 20
1168.815992971334
 30
0.0
  0
POINT
  5
342
  8
DEFPOINTS
  6
CONTINUOUS
 62
     0
 10
-5349.231501428413
 20
1191.686652039937
 30
0.0
  0
ENDBLK
  5
343
  8
0
 62
     1
  0
BLOCK
  8
0
  2
*D99
 70
     1
 10
0.0
 20
0.0
 30
0.0
  3
*D99
  1

  0
LINE
  5
329
  8
回02-寸法
  6
CONTINUOUS
 62
     5
 10
-5597.731501428413
 20
1170.815992971334
 30
0.0
 11
-5597.731501428413
 21
1200.133280296628
 31
0.0
  0
LINE
  5
32A
  8
回02-寸法
  6
CONTINUOUS
 62
     5
 10
-5347.231501428412
 20
1170.815992971334
 30
0.0
 11
-5347.231501428412
 21
1200.133280296628
 31
0.0
  0
LINE
  5
32B
  8
回02-寸法
  6
CONTINUOUS
 62
     5
 10
-5596.231501428412
 20
1199.133280296628
 30
0.0
 11
-5348.731501428412
 21
1199.133280296628
 31
0.0
  0
INSERT
  5
32C
  8
回02-寸法
  6
CONTINUOUS
 62
     5
 66
     1
  2
_OPEN
 10
-5597.731501428413
 20
1199.133280296628
 30
0.0
 41
1.5
 42
1.5
 43
1.5
 50
180.0
  0
SEQEND
  5
32D
  8
0
  6
CONTINUOUS
 62
     5
  0
INSERT
  5
32E
  8
回02-寸法
  6
CONTINUOUS
 62
     5
 66
     1
  2
_OPEN
 10
-5347.231501428412
 20
1199.133280296628
 30
0.0
 41
1.5
 42
1.5
 43
1.5
  0
SEQEND
  5
32F
  8
0
  6
CONTINUOUS
 62
     5
  0
INSERT
  5
330
  8
回02-寸法
  6
CONTINUOUS
 62
     5
 66
     1
  2
*X8888
 10
0.0
 20
0.0
 30
0.0
  0
SEQEND
  5
701
  8
0
  6
CONTINUOUS
 62
     5
  0
POINT
  5
331
  8
DEFPOINTS
  6
CONTINUOUS
 62
     0
 10
-5597.731501428413
 20
1170.815992971334
 30
0.0
  0
POINT
  5
332
  8
DEFPOINTS
  6
CONTINUOUS
 62
     0
 10
-5347.231501428412
 20
1170.815992971334
 30
0.0
  0
POINT
  5
333
  8
DEFPOINTS
  6
CONTINUOUS
 62
     0
 10
-5347.231501428412
 20
1199.133280296628
 30
0.0
  0
ENDBLK
  5
334
  8
0
 62
     1
  0
BLOCK
  8
0
  2
*D1010
 70
     1
 10
0.0
 20
0.0
 30
0.0
  3
*D1010
  1

  0
LINE
  5
31A
  8
回02-寸法
  6
CONTINUOUS
 62
     5
 10
-5605.481501428412
 20
1176.815992971334
 30
0.0
 11
-5605.481501428412
 21
1213.314478608608
 31
0.0
  0
LINE
  5
31B
  8
回02-寸法
  6
CONTINUOUS
 62
     5
 10
-5342.481501428412
 20
1176.815992971334
 30
0.0
 11
-5342.481501428412
 21
1213.314478608608
 31
0.0
  0
LINE
  5
31C
  8
回02-寸法
  6
CONTINUOUS
 62
     5
 10
-5603.981501428412
 20
1212.314478608608
 30
0.0
 11
-5343.981501428412
 21
1212.314478608608
 31
0.0
  0
INSERT
  5
31D
  8
回02-寸法
  6
CONTINUOUS
 62
     5
 66
     1
  2
_OPEN
 10
-5605.481501428412
 20
1212.314478608608
 30
0.0
 41
1.5
 42
1.5
 43
1.5
 50
180.0
  0
SEQEND
  5
31E
  8
0
  6
CONTINUOUS
 62
     5
  0
INSERT
  5
31F
  8
回02-寸法
  6
CONTINUOUS
 62
     5
 66
     1
  2
_OPEN
 10
-5342.481501428412
 20
1212.314478608608
 30
0.0
 41
1.5
 42
1.5
 43
1.5
  0
SEQEND
  5
320
  8
0
  6
CONTINUOUS
 62
     5
  0
INSERT
  5
321
  8
回02-寸法
  6
CONTINUOUS
 62
     5
 66
     1
  2
*X8989
 10
0.0
 20
0.0
 30
0.0
  0
SEQEND
  5
707
  8
0
  6
CONTINUOUS
 62
     5
  0
POINT
  5
322
  8
DEFPOINTS
  6
CONTINUOUS
 62
     0
 10
-5605.481501428412
 20
1176.815992971334
 30
0.0
  0
POINT
  5
323
  8
DEFPOINTS
  6
CONTINUOUS
 62
     0
 10
-5342.481501428412
 20
1176.815992971334
 30
0.0
  0
POINT
  5
324
  8
DEFPOINTS
  6
CONTINUOUS
 62
     0
 10
-5342.481501428412
 20
1212.314478608608
 30
0.0
  0
ENDBLK
  5
325
  8
0
 62
     1
  0
BLOCK
  8
0
  2
*D1111
 70
     1
 10
0.0
 20
0.0
 30
0.0
  3
*D1111
  1

  0
LINE
  5
30B
  8
回02-寸法
  6
CONTINUOUS
 62
     5
 10
-5349.231501428414
 20
983.8159929713352
 30
0.0
 11
-5317.158109916866
 21
983.8159929713352
 31
0.0
  0
LINE
  5
30C
  8
回02-寸法
  6
CONTINUOUS
 62
     5
 10
-5349.231501428414
 20
1168.815992971335
 30
0.0
 11
-5317.158109916866
 21
1168.815992971335
 31
0.0
  0
LINE
  5
30D
  8
回02-寸法
  6
CONTINUOUS
 62
     5
 10
-5318.158109916866
 20
985.3159929713353
 30
0.0
 11
-5318.158109916866
 21
1167.315992971335
 31
0.0
  0
INSERT
  5
30E
  8
回02-寸法
  6
CONTINUOUS
 62
     5
 66
     1
  2
_OPEN
 10
-5318.158109916866
 20
983.8159929713352
 30
0.0
 41
1.5
 42
1.5
 43
1.5
 50
270.0
  0
SEQEND
  5
30F
  8
0
  6
CONTINUOUS
 62
     5
  0
INSERT
  5
310
  8
回02-寸法
  6
CONTINUOUS
 62
     5
 66
     1
  2
_OPEN
 10
-5318.158109916866
 20
1168.815992971335
 30
0.0
 41
1.5
 42
1.5
 43
1.5
 50
90.0
  0
SEQEND
  5
311
  8
0
  6
CONTINUOUS
 62
     5
  0
INSERT
  5
312
  8
回02-寸法
  6
CONTINUOUS
 62
     5
 66
     1
  2
*X9090
 10
0.0
 20
0.0
 30
0.0
  0
SEQEND
  5
70D
  8
0
  6
CONTINUOUS
 62
     5
  0
POINT
  5
313
  8
DEFPOINTS
  6
CONTINUOUS
 62
     0
 10
-5349.231501428414
 20
983.8159929713352
 30
0.0
  0
POINT
  5
314
  8
DEFPOINTS
  6
CONTINUOUS
 62
     0
 10
-5349.231501428414
 20
1168.815992971335
 30
0.0
  0
POINT
  5
315
  8
DEFPOINTS
  6
CONTINUOUS
 62
     0
 10
-5318.158109916866
 20
1168.815992971335
 30
0.0
  0
ENDBLK
  5
316
  8
0
 62
     1
  0
BLOCK
  8
0
  2
*D1212
 70
     1
 10
0.0
 20
0.0
 30
0.0
  3
*D1212
  1

  0
LINE
  5
2FC
  8
回02-寸法
  6
CONTINUOUS
 62
     5
 10
-5347.231501428414
 20
1170.815992971335
 30
0.0
 11
-5308.80688345675
 21
1170.815992971335
 31
0.0
  0
LINE
  5
2FD
  8
回02-寸法
  6
CONTINUOUS
 62
     5
 10
-5347.231501428414
 20
981.8159929713353
 30
0.0
 11
-5308.80688345675
 21
981.8159929713353
 31
0.0
  0
LINE
  5
2FE
  8
回02-寸法
  6
CONTINUOUS
 62
     5
 10
-5309.806883456749
 20
1169.315992971335
 30
0.0
 11
-5309.806883456749
 21
983.3159929713353
 31
0.0
  0
INSERT
  5
2FF
  8
回02-寸法
  6
CONTINUOUS
 62
     5
 66
     1
  2
_OPEN
 10
-5309.806883456749
 20
1170.815992971335
 30
0.0
 41
1.5
 42
1.5
 43
1.5
 50
90.0
  0
SEQEND
  5
300
  8
0
  6
CONTINUOUS
 62
     5
  0
INSERT
  5
301
  8
回02-寸法
  6
CONTINUOUS
 62
     5
 66
     1
  2
_OPEN
 10
-5309.806883456749
 20
981.8159929713353
 30
0.0
 41
1.5
 42
1.5
 43
1.5
 50
270.0
  0
SEQEND
  5
302
  8
0
  6
CONTINUOUS
 62
     5
  0
INSERT
  5
303
  8
回02-寸法
  6
CONTINUOUS
 62
     5
 66
     1
  2
*X9191
 10
0.0
 20
0.0
 30
0.0
  0
SEQEND
  5
713
  8
0
  6
CONTINUOUS
 62
     5
  0
POINT
  5
304
  8
DEFPOINTS
  6
CONTINUOUS
 62
     0
 10
-5347.231501428414
 20
1170.815992971335
 30
0.0
  0
POINT
  5
305
  8
DEFPOINTS
  6
CONTINUOUS
 62
     0
 10
-5347.231501428414
 20
981.8159929713353
 30
0.0
  0
POINT
  5
306
  8
DEFPOINTS
  6
CONTINUOUS
 62
     0
 10
-5309.806883456749
 20
981.8159929713353
 30
0.0
  0
ENDBLK
  5
307
  8
0
 62
     1
  0
BLOCK
  8
0
  2
*D1313
 70
     1
 10
0.0
 20
0.0
 30
0.0
  3
*D1313
  1

  0
LINE
  5
2ED
  8
回02-寸法
  6
CONTINUOUS
 62
     5
 10
-5342.481501428414
 20
975.8159929713352
 30
0.0
 11
-5294.693791226399
 21
975.8159929713352
 31
0.0
  0
LINE
  5
2EE
  8
回02-寸法
  6
CONTINUOUS
 62
     5
 10
-5342.481501428414
 20
1176.815992971335
 30
0.0
 11
-5294.693791226399
 21
1176.815992971335
 31
0.0
  0
LINE
  5
2EF
  8
回02-寸法
  6
CONTINUOUS
 62
     5
 10
-5295.693791226399
 20
977.3159929713353
 30
0.0
 11
-5295.693791226399
 21
1175.315992971335
 31
0.0
  0
INSERT
  5
2F0
  8
回02-寸法
  6
CONTINUOUS
 62
     5
 66
     1
  2
_OPEN
 10
-5295.693791226399
 20
975.8159929713352
 30
0.0
 41
1.5
 42
1.5
 43
1.5
 50
270.0
  0
SEQEND
  5
2F1
  8
0
  6
CONTINUOUS
 62
     5
  0
INSERT
  5
2F2
  8
回02-寸法
  6
CONTINUOUS
 62
     5
 66
     1
  2
_OPEN
 10
-5295.693791226399
 20
1176.815992971335
 30
0.0
 41
1.5
 42
1.5
 43
1.5
 50
90.0
  0
SEQEND
  5
2F3
  8
0
  6
CONTINUOUS
 62
     5
  0
INSERT
  5
2F4
  8
回02-寸法
  6
CONTINUOUS
 62
     5
 66
     1
  2
*X9292
 10
0.0
 20
0.0
 30
0.0
  0
SEQEND
  5
719
  8
0
  6
CONTINUOUS
 62
     5
  0
POINT
  5
2F5
  8
DEFPOINTS
  6
CONTINUOUS
 62
     0
 10
-5342.481501428414
 20
975.8159929713352
 30
0.0
  0
POINT
  5
2F6
  8
DEFPOINTS
  6
CONTINUOUS
 62
     0
 10
-5342.481501428414
 20
1176.815992971335
 30
0.0
  0
POINT
  5
2F7
  8
DEFPOINTS
  6
CONTINUOUS
 62
     0
 10
-5295.693791226399
 20
1176.815992971335
 30
0.0
  0
ENDBLK
  5
2F8
  8
0
 62
     1
  0
BLOCK
  8
0
  2
*D1414
 70
     1
 10
0.0
 20
0.0
 30
0.0
  3
*D1414
  1

  0
LINE
  5
2DC
  8
回02-寸法
  6
CONTINUOUS
 62
     5
 10
-5595.731501428412
 20
1168.815992971334
 30
0.0
 11
-5595.731501428412
 21
1192.686652039937
 31
0.0
  0
LINE
  5
2DD
  8
回02-寸法
  6
CONTINUOUS
 62
     5
 10
-5605.481501428412
 20
1176.815992971334
 30
0.0
 11
-5605.481501428412
 21
1192.686652039937
 31
0.0
  0
LINE
  5
2DE
  8
回02-寸法
  6
CONTINUOUS
 62
     5
 10
-5594.231501428414
 20
1191.686652039937
 30
0.0
 11
-5592.731501428414
 21
1191.686652039937
 31
0.0
  0
LINE
  5
2DF
  8
回02-寸法
  6
CONTINUOUS
 62
     5
 10
-5606.981501428412
 20
1191.686652039937
 30
0.0
 11
-5623.279178945257
 21
1191.686652039937
 31
0.0
  0
LINE
  5
2E0
  8
回02-寸法
  6
CONTINUOUS
 62
     5
 10
-5595.731501428412
 20
1191.686652039937
 30
0.0
 11
-5605.481501428412
 21
1191.686652039937
 31
0.0
  0
INSERT
  5
2E1
  8
回02-寸法
  6
CONTINUOUS
 62
     5
 66
     1
  2
_OPEN
 10
-5595.731501428412
 20
1191.686652039937
 30
0.0
 41
1.5
 42
1.5
 43
1.5
 50
180.0
  0
SEQEND
  5
2E2
  8
0
  6
CONTINUOUS
 62
     5
  0
INSERT
  5
2E3
  8
回02-寸法
  6
CONTINUOUS
 62
     5
 66
     1
  2
_OPEN
 10
-5605.481501428412
 20
1191.686652039937
 30
0.0
 41
1.5
 42
1.5
 43
1.5
  0
SEQEND
  5
2E4
  8
0
  6
CONTINUOUS
 62
     5
  0
TEXT
  5
2E5
  8
回02-寸法
  6
CONTINUOUS
 62
     5
 10
-5623.227934994416
 20
1192.186652039937
 30
0.0
 40
4.0
  1
9.75
1001
ACAD
1000
MTEXTBEGIN
1070
    73
1070
     1
1070
    44
1040
1.0
1070
    74
1070
     0
1000
MTEXTEND
  0
POINT
  5
2E6
  8
DEFPOINTS
  6
CONTINUOUS
 62
     0
 10
-5595.731501428412
 20
1168.815992971334
 30
0.0
  0
POINT
  5
2E7
  8
DEFPOINTS
  6
CONTINUOUS
 62
     0
 10
-5605.481501428412
 20
1176.815992971334
 30
0.0
  0
POINT
  5
2E8
  8
DEFPOINTS
  6
CONTINUOUS
 62
     0
 10
-5605.481501428412
 20
1191.686652039937
 30
0.0
  0
ENDBLK
  5
2E9
  8
0
 62
     1
  0
BLOCK
  8
0
  2
*D1515
 70
     1
 10
0.0
 20
0.0
 30
0.0
  3
*D1515
  1

  0
LINE
  5
2CB
  8
回02-寸法
  6
CONTINUOUS
 62
     5
 10
-5597.731501428413
 20
1170.815992971334
 30
0.0
 11
-5597.731501428413
 21
1200.133280296628
 31
0.0
  0
LINE
  5
2CC
  8
回02-寸法
  6
CONTINUOUS
 62
     5
 10
-5605.481501428412
 20
1176.815992971334
 30
0.0
 11
-5605.481501428412
 21
1200.133280296628
 31
0.0
  0
LINE
  5
2CD
  8
回02-寸法
  6
CONTINUOUS
 62
     5
 10
-5596.231501428412
 20
1199.133280296628
 30
0.0
 11
-5594.731501428412
 21
1199.133280296628
 31
0.0
  0
LINE
  5
2CE
  8
回02-寸法
  6
CONTINUOUS
 62
     5
 10
-5606.981501428412
 20
1199.133280296628
 30
0.0
 11
-5625.055466051424
 21
1199.133280296628
 31
0.0
  0
LINE
  5
2CF
  8
回02-寸法
  6
CONTINUOUS
 62
     5
 10
-5597.731501428413
 20
1199.133280296628
 30
0.0
 11
-5605.481501428412
 21
1199.133280296628
 31
0.0
  0
INSERT
  5
2D0
  8
回02-寸法
  6
CONTINUOUS
 62
     5
 66
     1
  2
_OPEN
 10
-5597.731501428413
 20
1199.133280296628
 30
0.0
 41
1.5
 42
1.5
 43
1.5
 50
180.0
  0
SEQEND
  5
2D1
  8
0
  6
CONTINUOUS
 62
     5
  0
INSERT
  5
2D2
  8
回02-寸法
  6
CONTINUOUS
 62
     5
 66
     1
  2
_OPEN
 10
-5605.481501428412
 20
1199.133280296628
 30
0.0
 41
1.5
 42
1.5
 43
1.5
  0
SEQEND
  5
2D3
  8
0
  6
CONTINUOUS
 62
     5
  0
TEXT
  5
2D4
  8
回02-寸法
  6
CONTINUOUS
 62
     5
 10
-5625.072623338951
 20
1199.633280296628
 30
0.0
 40
4.0
  1
7.75
1001
ACAD
1000
MTEXTBEGIN
1070
    73
1070
     1
1070
    44
1040
1.0
1070
    74
1070
     0
1000
MTEXTEND
  0
POINT
  5
2D5
  8
DEFPOINTS
  6
CONTINUOUS
 62
     0
 10
-5597.731501428413
 20
1170.815992971334
 30
0.0
  0
POINT
  5
2D6
  8
DEFPOINTS
  6
CONTINUOUS
 62
     0
 10
-5605.481501428412
 20
1176.815992971334
 30
0.0
  0
POINT
  5
2D7
  8
DEFPOINTS
  6
CONTINUOUS
 62
     0
 10
-5605.481501428412
 20
1199.133280296628
 30
0.0
  0
ENDBLK
  5
2D8
  8
0
 62
     1
  0
BLOCK
  8
0
  2
*D1616
 70
     1
 10
0.0
 20
0.0
 30
0.0
  3
*D1616
  1

  0
LINE
  5
2BA
  8
回02-寸法
  6
CONTINUOUS
 62
     5
 10
-5349.231501428414
 20
983.8159929713352
 30
0.0
 11
-5317.158109916853
 21
983.8159929713352
 31
0.0
  0
LINE
  5
2BB
  8
回02-寸法
  6
CONTINUOUS
 62
     5
 10
-5342.481501428414
 20
975.8159929713352
 30
0.0
 11
-5317.158109916853
 21
975.8159929713352
 31
0.0
  0
LINE
  5
2BC
  8
回02-寸法
  6
CONTINUOUS
 62
     5
 10
-5318.158109916852
 20
985.3159929713353
 30
0.0
 11
-5318.158109916852
 21
986.8159929713353
 31
0.0
  0
LINE
  5
2BD
  8
回02-寸法
  6
CONTINUOUS
 62
     5
 10
-5318.158109916852
 20
974.3159929713353
 30
0.0
 11
-5318.158109916852
 21
965.4358307547207
 31
0.0
  0
LINE
  5
2BE
  8
回02-寸法
  6
CONTINUOUS
 62
     5
 10
-5318.158109916852
 20
983.8159929713352
 30
0.0
 11
-5318.158109916852
 21
975.8159929713352
 31
0.0
  0
INSERT
  5
2BF
  8
回02-寸法
  6
CONTINUOUS
 62
     5
 66
     1
  2
_OPEN
 10
-5318.158109916852
 20
983.8159929713352
 30
0.0
 41
1.5
 42
1.5
 43
1.5
 50
270.0
  0
SEQEND
  5
2C0
  8
0
  6
CONTINUOUS
 62
     5
  0
INSERT
  5
2C1
  8
回02-寸法
  6
CONTINUOUS
 62
     5
 66
     1
  2
_OPEN
 10
-5318.158109916852
 20
975.8159929713352
 30
0.0
 41
1.5
 42
1.5
 43
1.5
 50
90.0
  0
SEQEND
  5
2C2
  8
0
  6
CONTINUOUS
 62
     5
  0
TEXT
  5
2C3
  8
回02-寸法
  6
CONTINUOUS
 62
     5
 10
-5318.658109916851
 20
965.3358307547216
 30
0.0
 40
4.0
  1
8
 50
90.0
1001
ACAD
1000
MTEXTBEGIN
1070
    73
1070
     1
1070
    44
1040
1.0
1070
    74
1070
     0
1000
MTEXTEND
  0
POINT
  5
2C4
  8
DEFPOINTS
  6
CONTINUOUS
 62
     0
 10
-5349.231501428414
 20
983.8159929713352
 30
0.0
  0
POINT
  5
2C5
  8
DEFPOINTS
  6
CONTINUOUS
 62
     0
 10
-5342.481501428414
 20
975.8159929713352
 30
0.0
  0
POINT
  5
2C6
  8
DEFPOINTS
  6
CONTINUOUS
 62
     0
 10
-5318.158109916852
 20
975.8159929713352
 30
0.0
  0
ENDBLK
  5
2C7
  8
0
 62
     1
  0
BLOCK
  8
0
  2
*D1717
 70
     1
 10
0.0
 20
0.0
 30
0.0
  3
*D1717
  1

  0
LINE
  5
2A9
  8
回02-寸法
  6
CONTINUOUS
 62
     5
 10
-5347.231501428414
 20
981.8159929713353
 30
0.0
 11
-5308.80688345674
 21
981.8159929713353
 31
0.0
  0
LINE
  5
2AA
  8
回02-寸法
  6
CONTINUOUS
 62
     5
 10
-5342.481501428414
 20
975.8159929713352
 30
0.0
 11
-5308.80688345674
 21
975.8159929713352
 31
0.0
  0
LINE
  5
2AB
  8
回02-寸法
  6
CONTINUOUS
 62
     5
 10
-5309.80688345674
 20
983.3159929713353
 30
0.0
 11
-5309.80688345674
 21
984.8159929713352
 31
0.0
  0
LINE
  5
2AC
  8
回02-寸法
  6
CONTINUOUS
 62
     5
 10
-5309.80688345674
 20
974.3159929713353
 30
0.0
 11
-5309.80688345674
 21
965.7018877976454
 31
0.0
  0
LINE
  5
2AD
  8
回02-寸法
  6
CONTINUOUS
 62
     5
 10
-5309.80688345674
 20
981.8159929713353
 30
0.0
 11
-5309.80688345674
 21
975.8159929713352
 31
0.0
  0
INSERT
  5
2AE
  8
回02-寸法
  6
CONTINUOUS
 62
     5
 66
     1
  2
_OPEN
 10
-5309.80688345674
 20
981.8159929713353
 30
0.0
 41
1.5
 42
1.5
 43
1.5
 50
270.0
  0
SEQEND
  5
2AF
  8
0
  6
CONTINUOUS
 62
     5
  0
INSERT
  5
2B0
  8
回02-寸法
  6
CONTINUOUS
 62
     5
 66
     1
  2
_OPEN
 10
-5309.80688345674
 20
975.8159929713352
 30
0.0
 41
1.5
 42
1.5
 43
1.5
 50
90.0
  0
SEQEND
  5
2B1
  8
0
  6
CONTINUOUS
 62
     5
  0
TEXT
  5
2B2
  8
回02-寸法
  6
CONTINUOUS
 62
     5
 10
-5310.306883456739
 20
965.8191153785738
 30
0.0
 40
4.0
  1
6
 50
90.0
1001
ACAD
1000
MTEXTBEGIN
1070
    73
1070
     1
1070
    44
1040
1.0
1070
    74
1070
     0
1000
MTEXTEND
  0
POINT
  5
2B3
  8
DEFPOINTS
  6
CONTINUOUS
 62
     0
 10
-5347.231501428414
 20
981.8159929713353
 30
0.0
  0
POINT
  5
2B4
  8
DEFPOINTS
  6
CONTINUOUS
 62
     0
 10
-5342.481501428414
 20
975.8159929713352
 30
0.0
  0
POINT
  5
2B5
  8
DEFPOINTS
  6
CONTINUOUS
 62
     0
 10
-5309.80688345674
 20
975.8159929713352
 30
0.0
  0
ENDBLK
  5
2B6
  8
0
 62
     1
  0
BLOCK
  8
0
  2
*D1818
 70
     1
 10
0.0
 20
0.0
 30
0.0
  3
*D1818
  1

  0
LINE
  5
29A
  8
回02-寸法
  6
CONTINUOUS
 62
     5
 10
-5346.731501428412
 20
1171.615992971335
 30
0.0
 11
-5346.731501428412
 21
1207.15846708926
 31
0.0
  0
LINE
  5
29B
  8
回02-寸法
  6
CONTINUOUS
 62
     5
 10
-5598.231501428412
 20
1171.615992971335
 30
0.0
 11
-5598.231501428412
 21
1207.15846708926
 31
0.0
  0
LINE
  5
29C
  8
回02-寸法
  6
CONTINUOUS
 62
     5
 10
-5348.231501428412
 20
1206.15846708926
 30
0.0
 11
-5596.731501428412
 21
1206.15846708926
 31
0.0
  0
INSERT
  5
29D
  8
回02-寸法
  6
CONTINUOUS
 62
     5
 66
     1
  2
_OPEN
 10
-5346.731501428412
 20
1206.15846708926
 30
0.0
 41
1.5
 42
1.5
 43
1.5
  0
SEQEND
  5
29E
  8
0
  6
CONTINUOUS
 62
     5
  0
INSERT
  5
29F
  8
回02-寸法
  6
CONTINUOUS
 62
     5
 66
     1
  2
_OPEN
 10
-5598.231501428412
 20
1206.15846708926
 30
0.0
 41
1.5
 42
1.5
 43
1.5
 50
180.0
  0
SEQEND
  5
2A0
  8
0
  6
CONTINUOUS
 62
     5
  0
TEXT
  5
2A1
  8
回02-寸法
  6
CONTINUOUS
 62
     5
 10
-5478.281501428412
 20
1206.658860790047
 30
0.0
 40
4.0
  1
251.5
1001
ACAD
1000
MTEXTBEGIN
1070
    73
1070
     1
1070
    44
1040
1.0
1070
    74
1070
     0
1000
MTEXTEND
  0
POINT
  5
2A2
  8
DEFPOINTS
  6
CONTINUOUS
 62
     0
 10
-5346.731501428412
 20
1171.615992971335
 30
0.0
  0
POINT
  5
2A3
  8
DEFPOINTS
  6
CONTINUOUS
 62
     0
 10
-5598.231501428412
 20
1171.615992971335
 30
0.0
  0
POINT
  5
2A4
  8
DEFPOINTS
  6
CONTINUOUS
 62
     0
 10
-5598.231501428412
 20
1206.15846708926
 30
0.0
  0
ENDBLK
  5
2A5
  8
0
 62
     1
  0
BLOCK
  8
0
  2
*D1919
 70
     1
 10
0.0
 20
0.0
 30
0.0
  3
*D1919
  1

  0
LINE
  5
28B
  8
回02-寸法
  6
CONTINUOUS
 62
     5
 10
-5346.731501428414
 20
1171.615992971335
 30
0.0
 11
-5300.817819774319
 21
1171.615992971335
 31
0.0
  0
LINE
  5
28C
  8
回02-寸法
  6
CONTINUOUS
 62
     5
 10
-5346.731501428414
 20
981.0159929713353
 30
0.0
 11
-5300.817819774319
 21
981.0159929713353
 31
0.0
  0
LINE
  5
28D
  8
回02-寸法
  6
CONTINUOUS
 62
     5
 10
-5301.817819774321
 20
1170.115992971335
 30
0.0
 11
-5301.817819774321
 21
982.5159929713352
 31
0.0
  0
INSERT
  5
28E
  8
回02-寸法
  6
CONTINUOUS
 62
     5
 66
     1
  2
_OPEN
 10
-5301.817819774321
 20
1171.615992971335
 30
0.0
 41
1.5
 42
1.5
 43
1.5
 50
90.0
  0
SEQEND
  5
28F
  8
0
  6
CONTINUOUS
 62
     5
  0
INSERT
  5
290
  8
回02-寸法
  6
CONTINUOUS
 62
     5
 66
     1
  2
_OPEN
 10
-5301.817819774321
 20
981.0159929713353
 30
0.0
 41
1.5
 42
1.5
 43
1.5
 50
270.0
  0
SEQEND
  5
291
  8
0
  6
CONTINUOUS
 62
     5
  0
TEXT
  5
292
  8
回02-寸法
  6
CONTINUOUS
 62
     5
 10
-5302.317819774319
 20
1070.507102177415
 30
0.0
 40
4.0
  1
190.6
 50
90.0
1001
ACAD
1000
MTEXTBEGIN
1070
    73
1070
     1
1070
    44
1040
1.0
1070
    74
1070
     0
1000
MTEXTEND
  0
POINT
  5
293
  8
DEFPOINTS
  6
CONTINUOUS
 62
     0
 10
-5346.731501428414
 20
1171.615992971335
 30
0.0
  0
POINT
  5
294
  8
DEFPOINTS
  6
CONTINUOUS
 62
     0
 10
-5346.731501428414
 20
981.0159929713353
 30
0.0
  0
POINT
  5
295
  8
DEFPOINTS
  6
CONTINUOUS
 62
     0
 10
-5301.817819774321
 20
981.0159929713353
 30
0.0
  0
ENDBLK
  5
296
  8
0
 62
     1
  0
BLOCK
  8
0
  2
*D2020
 70
     1
 10
0.0
 20
0.0
 30
0.0
  3
*D2020
  1

  0
LINE
  5
27A
  8
回02-寸法
  6
CONTINUOUS
 62
     5
 10
-5346.731501428414
 20
1171.615992971335
 30
0.0
 11
-5300.817819774326
 21
1171.615992971335
 31
0.0
  0
LINE
  5
27B
  8
回02-寸法
  6
CONTINUOUS
 62
     5
 10
-5342.481501428414
 20
1176.815992971335
 30
0.0
 11
-5300.817819774326
 21
1176.815992971335
 31
0.0
  0
LINE
  5
27C
  8
回02-寸法
  6
CONTINUOUS
 62
     5
 10
-5301.817819774324
 20
1170.115992971335
 30
0.0
 11
-5301.817819774324
 21
1168.615992971335
 31
0.0
  0
LINE
  5
27D
  8
回02-寸法
  6
CONTINUOUS
 62
     5
 10
-5301.817819774324
 20
1178.315992971335
 30
0.0
 11
-5301.817819774324
 21
1189.612843365036
 31
0.0
  0
LINE
  5
27E
  8
回02-寸法
  6
CONTINUOUS
 62
     5
 10
-5301.817819774324
 20
1171.615992971335
 30
0.0
 11
-5301.817819774324
 21
1176.815992971335
 31
0.0
  0
INSERT
  5
27F
  8
回02-寸法
  6
CONTINUOUS
 62
     5
 66
     1
  2
_OPEN
 10
-5301.817819774324
 20
1171.615992971335
 30
0.0
 41
1.5
 42
1.5
 43
1.5
 50
90.0
  0
SEQEND
  5
280
  8
0
  6
CONTINUOUS
 62
     5
  0
INSERT
  5
281
  8
回02-寸法
  6
CONTINUOUS
 62
     5
 66
     1
  2
_OPEN
 10
-5301.817819774324
 20
1176.815992971335
 30
0.0
 41
1.5
 42
1.5
 43
1.5
 50
270.0
  0
SEQEND
  5
282
  8
0
  6
CONTINUOUS
 62
     5
  0
TEXT
  5
283
  8
回02-寸法
  6
CONTINUOUS
 62
     5
 10
-5302.517819774323
 20
1179.714418168187
 30
0.0
 40
4.0
  1
(5.2)
 50
90.0
1001
ACAD
1000
MTEXTBEGIN
1070
    73
1070
     1
1070
    44
1040
1.0
1070
    74
1070
     0
1000
MTEXTEND
  0
POINT
  5
284
  8
DEFPOINTS
  6
CONTINUOUS
 62
     0
 10
-5346.731501428414
 20
1171.615992971335
 30
0.0
  0
POINT
  5
285
  8
DEFPOINTS
  6
CONTINUOUS
 62
     0
 10
-5342.481501428414
 20
1176.815992971335
 30
0.0
  0
POINT
  5
286
  8
DEFPOINTS
  6
CONTINUOUS
 62
     0
 10
-5301.817819774324
 20
1176.815992971335
 30
0.0
  0
ENDBLK
  5
287
  8
0
 62
     1
  0
BLOCK
  8
0
  2
*D2121
 70
     1
 10
0.0
 20
0.0
 30
0.0
  3
*D2121
  1

  0
LINE
  5
269
  8
回02-寸法
  6
CONTINUOUS
 62
     5
 10
-5347.231501428414
 20
1170.815992971335
 30
0.0
 11
-5308.806883456743
 21
1170.815992971335
 31
0.0
  0
LINE
  5
26A
  8
回02-寸法
  6
CONTINUOUS
 62
     5
 10
-5342.481501428414
 20
1176.815992971335
 30
0.0
 11
-5308.806883456743
 21
1176.815992971335
 31
0.0
  0
LINE
  5
26B
  8
回02-寸法
  6
CONTINUOUS
 62
     5
 10
-5309.806883456741
 20
1169.315992971335
 30
0.0
 11
-5309.806883456741
 21
1167.815992971335
 31
0.0
  0
LINE
  5
26C
  8
回02-寸法
  6
CONTINUOUS
 62
     5
 10
-5309.806883456741
 20
1178.315992971335
 30
0.0
 11
-5309.806883456741
 21
1185.612843365036
 31
0.0
  0
LINE
  5
26D
  8
回02-寸法
  6
CONTINUOUS
 62
     5
 10
-5309.806883456741
 20
1170.815992971335
 30
0.0
 11
-5309.806883456741
 21
1176.815992971335
 31
0.0
  0
INSERT
  5
26E
  8
回02-寸法
  6
CONTINUOUS
 62
     5
 66
     1
  2
_OPEN
 10
-5309.806883456741
 20
1170.815992971335
 30
0.0
 41
1.5
 42
1.5
 43
1.5
 50
90.0
  0
SEQEND
  5
26F
  8
0
  6
CONTINUOUS
 62
     5
  0
INSERT
  5
270
  8
回02-寸法
  6
CONTINUOUS
 62
     5
 66
     1
  2
_OPEN
 10
-5309.806883456741
 20
1176.815992971335
 30
0.0
 41
1.5
 42
1.5
 43
1.5
 50
270.0
  0
SEQEND
  5
271
  8
0
  6
CONTINUOUS
 62
     5
  0
TEXT
  5
272
  8
回02-寸法
  6
CONTINUOUS
 62
     5
 10
-5310.50688345674
 20
1179.714418168187
 30
0.0
 40
4.0
  1
(6)
 50
90.0
1001
ACAD
1000
MTEXTBEGIN
1070
    73
1070
     1
1070
    44
1040
1.0
1070
    74
1070
     0
1000
MTEXTEND
  0
POINT
  5
273
  8
DEFPOINTS
  6
CONTINUOUS
 62
     0
 10
-5347.231501428414
 20
1170.815992971335
 30
0.0
  0
POINT
  5
274
  8
DEFPOINTS
  6
CONTINUOUS
 62
     0
 10
-5342.481501428414
 20
1176.815992971335
 30
0.0
  0
POINT
  5
275
  8
DEFPOINTS
  6
CONTINUOUS
 62
     0
 10
-5309.806883456741
 20
1176.815992971335
 30
0.0
  0
ENDBLK
  5
276
  8
0
 62
     1
  0
BLOCK
  8
0
  2
*D2222
 70
     1
 10
0.0
 20
0.0
 30
0.0
  3
*D2222
  1

  0
LINE
  5
258
  8
回02-寸法
  6
CONTINUOUS
 62
     5
 10
-5349.231501428414
 20
1168.815992971335
 30
0.0
 11
-5317.158109916853
 21
1168.815992971335
 31
0.0
  0
LINE
  5
259
  8
回02-寸法
  6
CONTINUOUS
 62
     5
 10
-5342.481501428414
 20
1176.815992971335
 30
0.0
 11
-5317.158109916853
 21
1176.815992971335
 31
0.0
  0
LINE
  5
25A
  8
回02-寸法
  6
CONTINUOUS
 62
     5
 10
-5318.158109916852
 20
1167.315992971335
 30
0.0
 11
-5318.158109916852
 21
1165.815992971335
 31
0.0
  0
LINE
  5
25B
  8
回02-寸法
  6
CONTINUOUS
 62
     5
 10
-5318.158109916852
 20
1178.315992971335
 30
0.0
 11
-5318.158109916852
 21
1189.262843365043
 31
0.0
  0
LINE
  5
25C
  8
回02-寸法
  6
CONTINUOUS
 62
     5
 10
-5318.158109916852
 20
1168.815992971335
 30
0.0
 11
-5318.158109916852
 21
1176.815992971335
 31
0.0
  0
INSERT
  5
25D
  8
回02-寸法
  6
CONTINUOUS
 62
     5
 66
     1
  2
_OPEN
 10
-5318.158109916852
 20
1168.815992971335
 30
0.0
 41
1.5
 42
1.5
 43
1.5
 50
90.0
  0
SEQEND
  5
25E
  8
0
  6
CONTINUOUS
 62
     5
  0
INSERT
  5
25F
  8
回02-寸法
  6
CONTINUOUS
 62
     5
 66
     1
  2
_OPEN
 10
-5318.158109916852
 20
1176.815992971335
 30
0.0
 41
1.5
 42
1.5
 43
1.5
 50
270.0
  0
SEQEND
  5
260
  8
0
  6
CONTINUOUS
 62
     5
  0
TEXT
  5
261
  8
回02-寸法
  6
CONTINUOUS
 62
     5
 10
-5318.858109916852
 20
1183.364418168194
 30
0.0
 40
4.0
  1
(8)
 50
90.0
1001
ACAD
1000
MTEXTBEGIN
1070
    73
1070
     1
1070
    44
1040
1.0
1070
    74
1070
     0
1000
MTEXTEND
  0
POINT
  5
262
  8
DEFPOINTS
  6
CONTINUOUS
 62
     0
 10
-5349.231501428414
 20
1168.815992971335
 30
0.0
  0
POINT
  5
263
  8
DEFPOINTS
  6
CONTINUOUS
 62
     0
 10
-5342.481501428414
 20
1176.815992971335
 30
0.0
  0
POINT
  5
264
  8
DEFPOINTS
  6
CONTINUOUS
 62
     0
 10
-5318.158109916852
 20
1176.815992971335
 30
0.0
  0
ENDBLK
  5
265
  8
0
 62
     1
  0
BLOCK
  8
0
  2
*D2323
 70
     1
 10
0.0
 20
0.0
 30
0.0
  3
*D2323
  1

  0
LINE
  5
247
  8
回02-寸法
  6
CONTINUOUS
 62
     5
 10
-5346.731501428414
 20
981.0159929713353
 30
0.0
 11
-5300.817819774326
 21
981.0159929713353
 31
0.0
  0
LINE
  5
248
  8
回02-寸法
  6
CONTINUOUS
 62
     5
 10
-5342.481501428414
 20
975.8159929713352
 30
0.0
 11
-5300.817819774326
 21
975.8159929713352
 31
0.0
  0
LINE
  5
249
  8
回02-寸法
  6
CONTINUOUS
 62
     5
 10
-5301.817819774324
 20
982.5159929713352
 30
0.0
 11
-5301.817819774324
 21
984.0159929713353
 31
0.0
  0
LINE
  5
24A
  8
回02-寸法
  6
CONTINUOUS
 62
     5
 10
-5301.817819774324
 20
974.3159929713353
 30
0.0
 11
-5301.817819774324
 21
925.8075677744846
 31
0.0
  0
LINE
  5
24B
  8
回02-寸法
  6
CONTINUOUS
 62
     5
 10
-5301.817819774324
 20
981.0159929713353
 30
0.0
 11
-5301.817819774324
 21
975.8159929713352
 31
0.0
  0
INSERT
  5
24C
  8
回02-寸法
  6
CONTINUOUS
 62
     5
 66
     1
  2
_OPEN
 10
-5301.817819774324
 20
981.0159929713353
 30
0.0
 41
1.5
 42
1.5
 43
1.5
 50
270.0
  0
SEQEND
  5
24D
  8
0
  6
CONTINUOUS
 62
     5
  0
INSERT
  5
24E
  8
回02-寸法
  6
CONTINUOUS
 62
     5
 66
     1
  2
_OPEN
 10
-5301.817819774324
 20
975.8159929713352
 30
0.0
 41
1.5
 42
1.5
 43
1.5
 50
90.0
  0
SEQEND
  5
24F
  8
0
  6
CONTINUOUS
 62
     5
  0
TEXT
  5
250
  8
回02-寸法
  6
CONTINUOUS
 62
     5
 10
-5302.522819774324
 20
925.707567774485
 30
0.0
 40
4.0
  1
5.2(Insulation Area)
 50
90.0
1001
ACAD
1000
MTEXTBEGIN
1070
    73
1070
     1
1070
    44
1040
1.0
1070
    74
1070
     0
1000
MTEXTEND
  0
POINT
  5
251
  8
DEFPOINTS
  6
CONTINUOUS
 62
     0
 10
-5346.731501428414
 20
981.0159929713353
 30
0.0
  0
POINT
  5
252
  8
DEFPOINTS
  6
CONTINUOUS
 62
     0
 10
-5342.481501428414
 20
975.8159929713352
 30
0.0
  0
POINT
  5
253
  8
DEFPOINTS
  6
CONTINUOUS
 62
     0
 10
-5301.817819774324
 20
975.8159929713352
 30
0.0
  0
ENDBLK
  5
254
  8
0
 62
     1
  0
BLOCK
  8
0
  2
*D2424
 70
     1
 10
0.0
 20
0.0
 30
0.0
  3
*D2424
  1

  0
LINE
  5
236
  8
回02-寸法
  6
CONTINUOUS
 62
     5
 10
-5349.231501428413
 20
1168.815992971334
 30
0.0
 11
-5349.231501428413
 21
1192.686652039937
 31
0.0
  0
LINE
  5
237
  8
回02-寸法
  6
CONTINUOUS
 62
     5
 10
-5342.481501428412
 20
1176.815992971334
 30
0.0
 11
-5342.481501428412
 21
1192.686652039937
 31
0.0
  0
LINE
  5
238
  8
回02-寸法
  6
CONTINUOUS
 62
     5
 10
-5350.731501428413
 20
1191.686652039937
 30
0.0
 11
-5352.231501428413
 21
1191.686652039937
 31
0.0
  0
LINE
  5
239
  8
回02-寸法
  6
CONTINUOUS
 62
     5
 10
-5340.981501428412
 20
1191.686652039937
 30
0.0
 11
-5326.884651034711
 21
1191.686652039937
 31
0.0
  0
LINE
  5
23A
  8
回02-寸法
  6
CONTINUOUS
 62
     5
 10
-5349.231501428413
 20
1191.686652039937
 30
0.0
 11
-5342.481501428412
 21
1191.686652039937
 31
0.0
  0
INSERT
  5
23B
  8
回02-寸法
  6
CONTINUOUS
 62
     5
 66
     1
  2
_OPEN
 10
-5349.231501428413
 20
1191.686652039937
 30
0.0
 41
1.5
 42
1.5
 43
1.5
  0
SEQEND
  5
23C
  8
0
  6
CONTINUOUS
 62
     5
  0
INSERT
  5
23D
  8
回02-寸法
  6
CONTINUOUS
 62
     5
 66
     1
  2
_OPEN
 10
-5342.481501428412
 20
1191.686652039937
 30
0.0
 41
1.5
 42
1.5
 43
1.5
 50
180.0
  0
SEQEND
  5
23E
  8
0
  6
CONTINUOUS
 62
     5
  0
TEXT
  5
23F
  8
回02-寸法
  6
CONTINUOUS
 62
     5
 10
-5339.583076231562
 20
1192.386652039937
 30
0.0
 40
4.0
  1
(6.75)
1001
ACAD
1000
MTEXTBEGIN
1070
    73
1070
     1
1070
    44
1040
1.0
1070
    74
1070
     0
1000
MTEXTEND
  0
POINT
  5
240
  8
DEFPOINTS
  6
CONTINUOUS
 62
     0
 10
-5349.231501428413
 20
1168.815992971334
 30
0.0
  0
POINT
  5
241
  8
DEFPOINTS
  6
CONTINUOUS
 62
     0
 10
-5342.481501428412
 20
1176.815992971334
 30
0.0
  0
POINT
  5
242
  8
DEFPOINTS
  6
CONTINUOUS
 62
     0
 10
-5342.481501428412
 20
1191.686652039937
 30
0.0
  0
ENDBLK
  5
243
  8
0
 62
     1
  0
BLOCK
  8
0
  2
*D2525
 70
     1
 10
0.0
 20
0.0
 30
0.0
  3
*D2525
  1

  0
LINE
  5
225
  8
回02-寸法
  6
CONTINUOUS
 62
     5
 10
-5347.231501428412
 20
1170.815992971334
 30
0.0
 11
-5347.231501428412
 21
1200.133280296628
 31
0.0
  0
LINE
  5
226
  8
回02-寸法
  6
CONTINUOUS
 62
     5
 10
-5342.481501428412
 20
1176.815992971334
 30
0.0
 11
-5342.481501428412
 21
1200.133280296628
 31
0.0
  0
LINE
  5
227
  8
回02-寸法
  6
CONTINUOUS
 62
     5
 10
-5348.731501428412
 20
1199.133280296628
 30
0.0
 11
-5350.231501428412
 21
1199.133280296628
 31
0.0
  0
LINE
  5
228
  8
回02-寸法
  6
CONTINUOUS
 62
     5
 10
-5340.981501428412
 20
1199.133280296628
 30
0.0
 11
-5326.484651034712
 21
1199.133280296628
 31
0.0
  0
LINE
  5
229
  8
回02-寸法
  6
CONTINUOUS
 62
     5
 10
-5347.231501428412
 20
1199.133280296628
 30
0.0
 11
-5342.481501428412
 21
1199.133280296628
 31
0.0
  0
INSERT
  5
22A
  8
回02-寸法
  6
CONTINUOUS
 62
     5
 66
     1
  2
_OPEN
 10
-5347.231501428412
 20
1199.133280296628
 30
0.0
 41
1.5
 42
1.5
 43
1.5
  0
SEQEND
  5
22B
  8
0
  6
CONTINUOUS
 62
     5
  0
INSERT
  5
22C
  8
回02-寸法
  6
CONTINUOUS
 62
     5
 66
     1
  2
_OPEN
 10
-5342.481501428412
 20
1199.133280296628
 30
0.0
 41
1.5
 42
1.5
 43
1.5
 50
180.0
  0
SEQEND
  5
22D
  8
0
  6
CONTINUOUS
 62
     5
  0
TEXT
  5
22E
  8
回02-寸法
  6
CONTINUOUS
 62
     5
 10
-5339.583076231562
 20
1199.833280296628
 30
0.0
 40
4.0
  1
(4.75)
1001
ACAD
1000
MTEXTBEGIN
1070
    73
1070
     1
1070
    44
1040
1.0
1070
    74
1070
     0
1000
MTEXTEND
  0
POINT
  5
22F
  8
DEFPOINTS
  6
CONTINUOUS
 62
     0
 10
-5347.231501428412
 20
1170.815992971334
 30
0.0
  0
POINT
  5
230
  8
DEFPOINTS
  6
CONTINUOUS
 62
     0
 10
-5342.481501428412
 20
1176.815992971334
 30
0.0
  0
POINT
  5
231
  8
DEFPOINTS
  6
CONTINUOUS
 62
     0
 10
-5342.481501428412
 20
1199.133280296628
 30
0.0
  0
ENDBLK
  5
232
  8
0
 62
     1
  0
BLOCK
  8
0
  2
*D2626
 70
     1
 10
0.0
 20
0.0
 30
0.0
  3
*D2626
  1

  0
LINE
  5
214
  8
回02-寸法
  6
CONTINUOUS
 62
     5
 10
-5346.731501428412
 20
1171.615992971335
 30
0.0
 11
-5346.731501428412
 21
1207.15846708926
 31
0.0
  0
LINE
  5
215
  8
回02-寸法
  6
CONTINUOUS
 62
     5
 10
-5342.481501428412
 20
1176.815992971334
 30
0.0
 11
-5342.481501428412
 21
1207.15846708926
 31
0.0
  0
LINE
  5
216
  8
回02-寸法
  6
CONTINUOUS
 62
     5
 10
-5348.231501428412
 20
1206.15846708926
 30
0.0
 11
-5349.731501428412
 21
1206.15846708926
 31
0.0
  0
LINE
  5
217
  8
回02-寸法
  6
CONTINUOUS
 62
     5
 10
-5340.981501428412
 20
1206.15846708926
 30
0.0
 11
-5326.484651034712
 21
1206.15846708926
 31
0.0
  0
LINE
  5
218
  8
回02-寸法
  6
CONTINUOUS
 62
     5
 10
-5346.731501428412
 20
1206.15846708926
 30
0.0
 11
-5342.481501428412
 21
1206.15846708926
 31
0.0
  0
INSERT
  5
219
  8
回02-寸法
  6
CONTINUOUS
 62
     5
 66
     1
  2
_OPEN
 10
-5346.731501428412
 20
1206.15846708926
 30
0.0
 41
1.5
 42
1.5
 43
1.5
  0
SEQEND
  5
21A
  8
0
  6
CONTINUOUS
 62
     5
  0
INSERT
  5
21B
  8
回02-寸法
  6
CONTINUOUS
 62
     5
 66
     1
  2
_OPEN
 10
-5342.481501428412
 20
1206.15846708926
 30
0.0
 41
1.5
 42
1.5
 43
1.5
 50
180.0
  0
SEQEND
  5
21C
  8
0
  6
CONTINUOUS
 62
     5
  0
TEXT
  5
21D
  8
回02-寸法
  6
CONTINUOUS
 62
     5
 10
-5339.583076231562
 20
1206.85846708926
 30
0.0
 40
4.0
  1
(4.25)
1001
ACAD
1000
MTEXTBEGIN
1070
    73
1070
     1
1070
    44
1040
1.0
1070
    74
1070
     0
1000
MTEXTEND
  0
POINT
  5
21E
  8
DEFPOINTS
  6
CONTINUOUS
 62
     0
 10
-5346.731501428412
 20
1171.615992971335
 30
0.0
  0
POINT
  5
21F
  8
DEFPOINTS
  6
CONTINUOUS
 62
     0
 10
-5342.481501428412
 20
1176.815992971334
 30
0.0
  0
POINT
  5
220
  8
DEFPOINTS
  6
CONTINUOUS
 62
     0
 10
-5342.481501428412
 20
1206.15846708926
 30
0.0
  0
ENDBLK
  5
221
  8
0
 62
     1
  0
BLOCK
  8
0
  2
*D2727
 70
     1
 10
0.0
 20
0.0
 30
0.0
  3
*D2727
  1

  0
LINE
  5
203
  8
回02-寸法
  6
CONTINUOUS
 62
     5
 10
-5598.231501428412
 20
1171.615992971335
 30
0.0
 11
-5598.231501428412
 21
1207.15846708926
 31
0.0
  0
LINE
  5
204
  8
回02-寸法
  6
CONTINUOUS
 62
     5
 10
-5605.481501428412
 20
1176.815992971334
 30
0.0
 11
-5605.481501428412
 21
1207.15846708926
 31
0.0
  0
LINE
  5
205
  8
回02-寸法
  6
CONTINUOUS
 62
     5
 10
-5596.731501428412
 20
1206.15846708926
 30
0.0
 11
-5595.231501428412
 21
1206.15846708926
 31
0.0
  0
LINE
  5
206
  8
回02-寸法
  6
CONTINUOUS
 62
     5
 10
-5606.981501428412
 20
1206.15846708926
 30
0.0
 11
-5658.289926625262
 21
1206.15846708926
 31
0.0
  0
LINE
  5
207
  8
回02-寸法
  6
CONTINUOUS
 62
     5
 10
-5598.231501428412
 20
1206.15846708926
 30
0.0
 11
-5605.481501428412
 21
1206.15846708926
 31
0.0
  0
INSERT
  5
208
  8
回02-寸法
  6
CONTINUOUS
 62
     5
 66
     1
  2
_OPEN
 10
-5598.231501428412
 20
1206.15846708926
 30
0.0
 41
1.5
 42
1.5
 43
1.5
 50
180.0
  0
SEQEND
  5
209
  8
0
  6
CONTINUOUS
 62
     5
  0
INSERT
  5
20A
  8
回02-寸法
  6
CONTINUOUS
 62
     5
 66
     1
  2
_OPEN
 10
-5605.481501428412
 20
1206.15846708926
 30
0.0
 41
1.5
 42
1.5
 43
1.5
  0
SEQEND
  5
20B
  8
0
  6
CONTINUOUS
 62
     5
  0
TEXT
  5
20C
  8
回02-寸法
  6
CONTINUOUS
 62
     5
 10
-5658.389926625263
 20
1206.86346708926
 30
0.0
 40
4.0
  1
7.25(Insulation Area)
1001
ACAD
1000
MTEXTBEGIN
1070
    73
1070
     1
1070
    44
1040
1.0
1070
    74
1070
     0
1000
MTEXTEND
  0
POINT
  5
20D
  8
DEFPOINTS
  6
CONTINUOUS
 62
     0
 10
-5598.231501428412
 20
1171.615992971335
 30
0.0
  0
POINT
  5
20E
  8
DEFPOINTS
  6
CONTINUOUS
 62
     0
 10
-5605.481501428412
 20
1176.815992971334
 30
0.0
  0
POINT
  5
20F
  8
DEFPOINTS
  6
CONTINUOUS
 62
     0
 10
-5605.481501428412
 20
1206.15846708926
 30
0.0
  0
ENDBLK
  5
210
  8
0
 62
     1
  0
BLOCK
  8
0
  2
*D2828
 70
     1
 10
0.0
 20
0.0
 30
0.0
  3
*D2828
  1

  0
LINE
  5
1F4
  8
回02-寸法
  6
CONTINUOUS
 62
     5
 10
-5684.981544929784
 20
1073.201857785197
 30
0.0
 11
-5696.924590001561
 21
1073.201857785197
 31
0.0
  0
LINE
  5
1F5
  8
回02-寸法
  6
CONTINUOUS
 62
     5
 10
-5605.481501428414
 20
975.8159929713352
 30
0.0
 11
-5696.924590001561
 21
975.8159929713352
 31
0.0
  0
LINE
  5
1F6
  8
回02-寸法
  6
CONTINUOUS
 62
     5
 10
-5695.924590001562
 20
1071.701857785197
 30
0.0
 11
-5695.924590001562
 21
977.3159929713353
 31
0.0
  0
INSERT
  5
1F7
  8
回02-寸法
  6
CONTINUOUS
 62
     5
 66
     1
  2
_OPEN
 10
-5695.924590001562
 20
1073.201857785197
 30
0.0
 41
1.5
 42
1.5
 43
1.5
 50
90.0
  0
SEQEND
  5
1F8
  8
0
  6
CONTINUOUS
 62
     5
  0
INSERT
  5
1F9
  8
回02-寸法
  6
CONTINUOUS
 62
     5
 66
     1
  2
_OPEN
 10
-5695.924590001562
 20
975.8159929713352
 30
0.0
 41
1.5
 42
1.5
 43
1.5
 50
270.0
  0
SEQEND
  5
1FA
  8
0
  6
CONTINUOUS
 62
     5
  0
TEXT
  5
1FB
  8
回02-寸法
  6
CONTINUOUS
 62
     5
 10
-5696.625476844796
 20
1016.69448390416
 30
0.0
 40
4.0
  1
(97.39)
 50
90.0
1001
ACAD
1000
MTEXTBEGIN
1070
    73
1070
     1
1070
    44
1040
1.0
1070
    74
1070
     0
1000
MTEXTEND
  0
POINT
  5
1FC
  8
DEFPOINTS
  6
CONTINUOUS
 62
     0
 10
-5684.981544929784
 20
1073.201857785197
 30
0.0
  0
POINT
  5
1FD
  8
DEFPOINTS
  6
CONTINUOUS
 62
     0
 10
-5605.481501428414
 20
975.8159929713352
 30
0.0
  0
POINT
  5
1FE
  8
DEFPOINTS
  6
CONTINUOUS
 62
     0
 10
-5695.924590001562
 20
975.8159929713352
 30
0.0
  0
ENDBLK
  5
1FF
  8
0
 62
     1
  0
BLOCK
  8
0
  2
*D2929
 70
     1
 10
0.0
 20
0.0
 30
0.0
  3
*D2929
  1

  0
LINE
  5
1DE
  8
回02-寸法
  6
CONTINUOUS
 62
     5
 10
-5685.481501428412
 20
937.3737907472932
 30
0.0
 11
-5685.481501428412
 21
943.9774542713166
 31
0.0
  0
LINE
  5
1DF
  8
回02-寸法
  6
CONTINUOUS
 62
     5
 10
-5680.481501428412
 20
937.3737907472932
 30
0.0
 11
-5680.481501428412
 21
943.9774542713166
 31
0.0
  0
LINE
  5
1E0
  8
回02-寸法
  6
CONTINUOUS
 62
     5
 10
-5687.481501428412
 20
942.9774542713166
 30
0.0
 11
-5689.481501428412
 21
942.9774542713166
 31
0.0
  0
LINE
  5
1E1
  8
回02-寸法
  6
CONTINUOUS
 62
     5
 10
-5678.481501428412
 20
942.9774542713166
 30
0.0
 11
-5673.715816003463
 21
942.9774542713166
 31
0.0
  0
LINE
  5
1E2
  8
回02-寸法
  6
CONTINUOUS
 62
     5
 10
-5685.481501428412
 20
942.9774542713166
 30
0.0
 11
-5680.481501428412
 21
942.9774542713166
 31
0.0
  0
INSERT
  5
1E3
  8
回02-寸法
  6
CONTINUOUS
 62
     5
 66
     1
  2
_OPEN
 10
-5685.481501428412
 20
942.9774542713166
 30
0.0
 41
2.0
 42
2.0
 43
2.0
  0
SEQEND
  5
1E4
  8
0
  6
CONTINUOUS
 62
     5
  0
INSERT
  5
1E5
  8
回02-寸法
  6
CONTINUOUS
 62
     5
 66
     1
  2
_OPEN
 10
-5680.481501428412
 20
942.9774542713166
 30
0.0
 41
2.0
 42
2.0
 43
2.0
 50
180.0
  0
SEQEND
  5
1E6
  8
0
  6
CONTINUOUS
 62
     5
  0
TEXT
  5
1E7
  8
回02-寸法
  6
CONTINUOUS
 62
     5
 10
-5676.498658715939
 20
943.4774542713167
 30
0.0
 40
4.0
  1
5
1001
ACAD
1000
MTEXTBEGIN
1070
    73
1070
     1
1070
    44
1040
1.0
1070
    74
1070
     0
1000
MTEXTEND
  0
POINT
  5
1E8
  8
DEFPOINTS
  6
CONTINUOUS
 62
     0
 10
-5685.481501428412
 20
937.3737907472932
 30
0.0
  0
POINT
  5
1E9
  8
DEFPOINTS
  6
CONTINUOUS
 62
     0
 10
-5680.481501428412
 20
937.3737907472932
 30
0.0
  0
POINT
  5
1EA
  8
DEFPOINTS
  6
CONTINUOUS
 62
     0
 10
-5680.481501428412
 20
942.9774542713166
 30
0.0
  0
ENDBLK
  5
1EB
  8
0
 62
     1
  0
BLOCK
  8
0
  2
*D3030
 70
     1
 10
0.0
 20
0.0
 30
0.0
  3
*D3030
  1

  0
LINE
  5
1CC
  8
回02-寸法
  6
CONTINUOUS
 62
     5
 10
-5685.481501428412
 20
934.3737907472927
 30
0.0
 11
-5685.481501428412
 21
923.279725926025
 31
0.0
  0
LINE
  5
1CD
  8
回02-寸法
  6
CONTINUOUS
 62
     5
 10
-5675.481501428413
 20
934.3737907472933
 30
0.0
 11
-5675.481501428413
 21
923.279725926025
 31
0.0
  0
LINE
  5
1CE
  8
回02-寸法
  6
CONTINUOUS
 62
     5
 10
-5687.481501428412
 20
924.2797259260251
 30
0.0
 11
-5689.481501428412
 21
924.2797259260251
 31
0.0
  0
LINE
  5
1CF
  8
回02-寸法
  6
CONTINUOUS
 62
     5
 10
-5673.481501428412
 20
924.2797259260251
 30
0.0
 11
-5663.68465103471
 21
924.2797259260251
 31
0.0
  0
LINE
  5
1D0
  8
回02-寸法
  6
CONTINUOUS
 62
     5
 10
-5685.481501428412
 20
924.2797259260251
 30
0.0
 11
-5675.481501428413
 21
924.2797259260251
 31
0.0
  0
INSERT
  5
1D1
  8
回02-寸法
  6
CONTINUOUS
 62
     5
 66
     1
  2
_OPEN
 10
-5685.481501428412
 20
924.2797259260251
 30
0.0
 41
2.0
 42
2.0
 43
2.0
  0
SEQEND
  5
1D2
  8
0
  6
CONTINUOUS
 62
     5
  0
INSERT
  5
1D3
  8
回02-寸法
  6
CONTINUOUS
 62
     5
 66
     1
  2
_OPEN
 10
-5675.481501428413
 20
924.2797259260251
 30
0.0
 41
2.0
 42
2.0
 43
2.0
 50
180.0
  0
SEQEND
  5
1D4
  8
0
  6
CONTINUOUS
 62
     5
  0
TEXT
  5
1D5
  8
回02-寸法
  6
CONTINUOUS
 62
     5
 10
-5671.583076231563
 20
925.0797259260249
 30
0.0
 40
4.0
  1
(10)
1001
ACAD
1000
MTEXTBEGIN
1070
    73
1070
     1
1070
    44
1040
1.0
1070
    74
1070
     0
1000
MTEXTEND
  0
POINT
  5
1D6
  8
DEFPOINTS
  6
CONTINUOUS
 62
     0
 10
-5685.481501428412
 20
934.3737907472927
 30
0.0
  0
POINT
  5
1D7
  8
DEFPOINTS
  6
CONTINUOUS
 62
     0
 10
-5675.481501428413
 20
934.3737907472933
 30
0.0
  0
POINT
  5
1D8
  8
DEFPOINTS
  6
CONTINUOUS
 62
     0
 10
-5675.481501428413
 20
924.2797259260251
 30
0.0
  0
ENDBLK
  5
1D9
  8
0
 62
     1
  0
BLOCK
  8
0
  2
*D3131
 70
     1
 10
0.0
 20
0.0
 30
0.0
  3
*D3131
  1

  0
LINE
  5
1BB
  8
回02-寸法
  6
CONTINUOUS
 62
     5
 10
-5685.481544939182
 20
937.3737907472937
 30
0.0
 11
-5693.987627205406
 21
937.3737907472937
 31
0.0
  0
LINE
  5
1BC
  8
回02-寸法
  6
CONTINUOUS
 62
     5
 10
-5685.481501428414
 20
930.3737907472937
 30
0.0
 11
-5693.987627205406
 21
930.3737907472937
 31
0.0
  0
LINE
  5
1BD
  8
回02-寸法
  6
CONTINUOUS
 62
     5
 10
-5692.987627205406
 20
939.3737907472937
 30
0.0
 11
-5692.987627205406
 21
941.3737907472937
 31
0.0
  0
LINE
  5
1BE
  8
回02-寸法
  6
CONTINUOUS
 62
     5
 10
-5692.987627205406
 20
928.3737907472938
 30
0.0
 11
-5692.987627205406
 21
910.79466134353
 31
0.0
  0
LINE
  5
1BF
  8
回02-寸法
  6
CONTINUOUS
 62
     5
 10
-5692.987627205406
 20
937.3737907472937
 30
0.0
 11
-5692.987627205406
 21
930.3737907472937
 31
0.0
  0
INSERT
  5
1C0
  8
回02-寸法
  6
CONTINUOUS
 62
     5
 66
     1
  2
_OPEN
 10
-5692.987627205406
 20
937.3737907472937
 30
0.0
 41
2.0
 42
2.0
 43
2.0
 50
270.0
  0
SEQEND
  5
1C1
  8
0
  6
CONTINUOUS
 62
     5
  0
INSERT
  5
1C2
  8
回02-寸法
  6
CONTINUOUS
 62
     5
 66
     1
  2
_OPEN
 10
-5692.987627205406
 20
930.3737907472937
 30
0.0
 41
2.0
 42
2.0
 43
2.0
 50
90.0
  0
SEQEND
  5
1C3
  8
0
  6
CONTINUOUS
 62
     5
  0
INSERT
  5
1C4
  8
回02-寸法
  6
CONTINUOUS
 62
     5
 66
     1
  2
*X9393
 10
0.0
 20
0.0
 30
0.0
  0
SEQEND
  5
71F
  8
0
  6
CONTINUOUS
 62
     5
  0
POINT
  5
1C5
  8
DEFPOINTS
  6
CONTINUOUS
 62
     0
 10
-5685.481544939182
 20
937.3737907472937
 30
0.0
  0
POINT
  5
1C6
  8
DEFPOINTS
  6
CONTINUOUS
 62
     0
 10
-5685.481501428414
 20
930.3737907472937
 30
0.0
  0
POINT
  5
1C7
  8
DEFPOINTS
  6
CONTINUOUS
 62
     0
 10
-5692.987627205406
 20
930.3737907472937
 30
0.0
  0
ENDBLK
  5
1C8
  8
0
 62
     1
  0
BLOCK
  8
0
  2
*D3232
 70
     1
 10
0.0
 20
0.0
 30
0.0
  3
*D3232
  1

  0
LINE
  5
16A
  8
回02-寸法
  6
CONTINUOUS
 62
     5
 10
-5342.981501428415
 20
941.3737907472937
 30
0.0
 11
-5333.12177539342
 21
941.3737907472937
 31
0.0
  0
LINE
  5
16B
  8
回02-寸法
  6
CONTINUOUS
 62
     5
 10
-5342.481501428415
 20
928.3737907472923
 30
0.0
 11
-5333.12177539342
 21
928.3737907472923
 31
0.0
  0
LINE
  5
16C
  8
回02-寸法
  6
CONTINUOUS
 62
     5
 10
-5334.121775393421
 20
943.3737907472936
 30
0.0
 11
-5334.121775393421
 21
945.3737907472937
 31
0.0
  0
LINE
  5
16D
  8
回02-寸法
  6
CONTINUOUS
 62
     5
 10
-5334.121775393421
 20
926.3737907472924
 30
0.0
 11
-5334.121775393421
 21
907.6319797236688
 31
0.0
  0
LINE
  5
16E
  8
回02-寸法
  6
CONTINUOUS
 62
     5
 10
-5334.121775393421
 20
941.3737907472937
 30
0.0
 11
-5334.121775393421
 21
928.3737907472923
 31
0.0
  0
INSERT
  5
16F
  8
回02-寸法
  6
CONTINUOUS
 62
     5
 66
     1
  2
_OPEN
 10
-5334.121775393421
 20
941.3737907472937
 30
0.0
 41
2.0
 42
2.0
 43
2.0
 50
270.0
  0
SEQEND
  5
170
  8
0
  6
CONTINUOUS
 62
     5
  0
INSERT
  5
171
  8
回02-寸法
  6
CONTINUOUS
 62
     5
 66
     1
  2
_OPEN
 10
-5334.121775393421
 20
928.3737907472923
 30
0.0
 41
2.0
 42
2.0
 43
2.0
 50
90.0
  0
SEQEND
  5
172
  8
0
  6
CONTINUOUS
 62
     5
  0
TEXT
  5
173
  8
回02-寸法
  6
CONTINUOUS
 62
     5
 10
-5334.622169094207
 20
907.7024429883604
 30
0.0
 40
4.0
  1
2.1±0.2
 50
90.0
1001
ACAD
1000
MTEXTBEGIN
1070
    73
1070
     1
1070
    44
1040
1.0
1070
    74
1070
     0
1000
MTEXTEND
  0
POINT
  5
174
  8
DEFPOINTS
  6
CONTINUOUS
 62
     0
 10
-5342.981501428415
 20
941.3737907472937
 30
0.0
  0
POINT
  5
175
  8
DEFPOINTS
  6
CONTINUOUS
 62
     0
 10
-5342.481501428415
 20
928.3737907472923
 30
0.0
  0
POINT
  5
176
  8
DEFPOINTS
  6
CONTINUOUS
 62
     0
 10
-5334.121775393421
 20
928.3737907472923
 30
0.0
  0
ENDBLK
  5
177
  8
0
 62
     1
  0
BLOCK
  8
0
  2
*D3333
 70
     1
 10
0.0
 20
0.0
 30
0.0
  3
*D3333
  1

  0
LINE
  5
14D
  8
回02-寸法
  6
CONTINUOUS
 62
     5
 10
-5342.981501428413
 20
941.3737907472933
 30
0.0
 11
-5342.981501428413
 21
950.5521618289204
 31
0.0
  0
LINE
  5
14E
  8
回02-寸法
  6
CONTINUOUS
 62
     5
 10
-5342.481501428413
 20
934.3737907472933
 30
0.0
 11
-5342.481501428413
 21
950.5521618289204
 31
0.0
  0
LINE
  5
14F
  8
回02-寸法
  6
CONTINUOUS
 62
     5
 10
-5344.981501428414
 20
949.5521618289204
 30
0.0
 11
-5346.981501428412
 21
949.5521618289204
 31
0.0
  0
LINE
  5
150
  8
回02-寸法
  6
CONTINUOUS
 62
     5
 10
-5340.481501428413
 20
949.5521618289204
 30
0.0
 11
-5328.684651034713
 21
949.5521618289204
 31
0.0
  0
LINE
  5
151
  8
回02-寸法
  6
CONTINUOUS
 62
     5
 10
-5342.981501428413
 20
949.5521618289204
 30
0.0
 11
-5342.481501428413
 21
949.5521618289204
 31
0.0
  0
INSERT
  5
152
  8
回02-寸法
  6
CONTINUOUS
 62
     5
 66
     1
  2
_OPEN
 10
-5342.981501428413
 20
949.5521618289204
 30
0.0
 41
2.0
 42
2.0
 43
2.0
  0
SEQEND
  5
153
  8
0
  6
CONTINUOUS
 62
     5
  0
INSERT
  5
154
  8
回02-寸法
  6
CONTINUOUS
 62
     5
 66
     1
  2
_OPEN
 10
-5342.481501428413
 20
949.5521618289204
 30
0.0
 41
2.0
 42
2.0
 43
2.0
 50
180.0
  0
SEQEND
  5
155
  8
0
  6
CONTINUOUS
 62
     5
  0
TEXT
  5
156
  8
回02-寸法
  6
CONTINUOUS
 62
     5
 10
-5338.583076231563
 20
950.2521618289204
 30
0.0
 40
4.0
  1
(0.5)
1001
ACAD
1000
MTEXTBEGIN
1070
    73
1070
     1
1070
    44
1040
1.0
1070
    74
1070
     0
1000
MTEXTEND
  0
POINT
  5
157
  8
DEFPOINTS
  6
CONTINUOUS
 62
     0
 10
-5342.981501428413
 20
941.3737907472933
 30
0.0
  0
POINT
  5
158
  8
DEFPOINTS
  6
CONTINUOUS
 62
     0
 10
-5342.481501428413
 20
934.3737907472933
 30
0.0
  0
POINT
  5
159
  8
DEFPOINTS
  6
CONTINUOUS
 62
     0
 10
-5342.481501428413
 20
949.5521618289204
 30
0.0
  0
ENDBLK
  5
15A
  8
0
 62
     1
  0
BLOCK
  8
0
  2
*D3434
 70
     1
 10
0.0
 20
0.0
 30
0.0
  3
*D3434
  1

  0
LINE
  5
13C
  8
回02-寸法
  6
CONTINUOUS
 62
     5
 10
-5605.481501428412
 20
934.3737907472933
 30
0.0
 11
-5605.481501428412
 21
946.968891805452
 31
0.0
  0
LINE
  5
13D
  8
回02-寸法
  6
CONTINUOUS
 62
     5
 10
-5604.981501428412
 20
941.3737907472933
 30
0.0
 11
-5604.981501428412
 21
946.968891805452
 31
0.0
  0
LINE
  5
13E
  8
回02-寸法
  6
CONTINUOUS
 62
     5
 10
-5607.481501428413
 20
945.9688918054521
 30
0.0
 11
-5609.481501428412
 21
945.9688918054521
 31
0.0
  0
LINE
  5
13F
  8
回02-寸法
  6
CONTINUOUS
 62
     5
 10
-5602.981501428413
 20
945.9688918054521
 30
0.0
 11
-5591.184651034712
 21
945.9688918054521
 31
0.0
  0
LINE
  5
140
  8
回02-寸法
  6
CONTINUOUS
 62
     5
 10
-5605.481501428412
 20
945.9688918054521
 30
0.0
 11
-5604.981501428412
 21
945.9688918054521
 31
0.0
  0
INSERT
  5
141
  8
回02-寸法
  6
CONTINUOUS
 62
     5
 66
     1
  2
_OPEN
 10
-5605.481501428412
 20
945.9688918054521
 30
0.0
 41
2.0
 42
2.0
 43
2.0
  0
SEQEND
  5
142
  8
0
  6
CONTINUOUS
 62
     5
  0
INSERT
  5
143
  8
回02-寸法
  6
CONTINUOUS
 62
     5
 66
     1
  2
_OPEN
 10
-5604.981501428412
 20
945.9688918054521
 30
0.0
 41
2.0
 42
2.0
 43
2.0
 50
180.0
  0
SEQEND
  5
144
  8
0
  6
CONTINUOUS
 62
     5
  0
TEXT
  5
145
  8
回02-寸法
  6
CONTINUOUS
 62
     5
 10
-5601.083076231563
 20
946.6688918054522
 30
0.0
 40
4.0
  1
(0.5)
1001
ACAD
1000
MTEXTBEGIN
1070
    73
1070
     1
1070
    44
1040
1.0
1070
    74
1070
     0
1000
MTEXTEND
  0
POINT
  5
146
  8
DEFPOINTS
  6
CONTINUOUS
 62
     0
 10
-5605.481501428412
 20
934.3737907472933
 30
0.0
  0
POINT
  5
147
  8
DEFPOINTS
  6
CONTINUOUS
 62
     0
 10
-5604.981501428412
 20
941.3737907472933
 30
0.0
  0
POINT
  5
148
  8
DEFPOINTS
  6
CONTINUOUS
 62
     0
 10
-5604.981501428412
 20
945.9688918054521
 30
0.0
  0
ENDBLK
  5
149
  8
0
 62
     1
  0
BLOCK
  8
0
  2
*D3535
 70
     1
 10
0.0
 20
0.0
 30
0.0
  3
*D3535
  1

  0
LINE
  5
B0
  8
回02-寸法
  6
CONTINUOUS
 62
     5
 10
-5671.244873328035
 20
1156.172511417504
 30
0.0
 11
-5711.078217466931
 21
1156.172511417504
 31
0.0
  0
LINE
  5
B1
  8
回02-寸法
  6
CONTINUOUS
 62
     5
 10
-5671.244873328035
 20
1139.672511417506
 30
0.0
 11
-5711.078217466931
 21
1139.672511417506
 31
0.0
  0
LINE
  5
B2
  8
回02-寸法
  6
CONTINUOUS
 62
     5
 10
-5710.078217466931
 20
1154.672511417504
 30
0.0
 11
-5710.078217466931
 21
1141.172511417506
 31
0.0
  0
INSERT
  5
B3
  8
回02-寸法
  6
CONTINUOUS
 62
     5
 66
     1
  2
_OPEN
 10
-5710.078217466931
 20
1156.172511417504
 30
0.0
 41
1.5
 42
1.5
 43
1.5
 50
90.0
  0
SEQEND
  5
B4
  8
0
  6
CONTINUOUS
 62
     5
  0
INSERT
  5
B5
  8
回02-寸法
  6
CONTINUOUS
 62
     5
 66
     1
  2
_OPEN
 10
-5710.078217466931
 20
1139.672511417506
 30
0.0
 41
1.5
 42
1.5
 43
1.5
 50
270.0
  0
SEQEND
  5
B6
  8
0
  6
CONTINUOUS
 62
     5
  0
INSERT
  5
B7
  8
回02-寸法
  6
CONTINUOUS
 62
     5
 66
     1
  2
*X9494
 10
0.0
 20
0.0
 30
0.0
  0
SEQEND
  5
725
  8
0
  6
CONTINUOUS
 62
     5
  0
POINT
  5
B8
  8
DEFPOINTS
  6
CONTINUOUS
 62
     0
 10
-5671.244873328035
 20
1156.172511417504
 30
0.0
  0
POINT
  5
B9
  8
DEFPOINTS
  6
CONTINUOUS
 62
     0
 10
-5671.244873328035
 20
1139.672511417506
 30
0.0
  0
POINT
  5
BA
  8
DEFPOINTS
  6
CONTINUOUS
 62
     0
 10
-5710.078217466931
 20
1139.672511417506
 30
0.0
  0
ENDBLK
  5
BB
  8
0
 62
     5
  0
BLOCK
  8
0
  2
*D3636
 70
     1
 10
0.0
 20
0.0
 30
0.0
  3
*D3636
  1

  0
LINE
  5
96
  8
回02-寸法
  6
CONTINUOUS
 62
     5
 10
-5676.392251726585
 20
1146.272511417498
 30
0.0
 11
-5693.318030248715
 21
1146.272511417498
 31
0.0
  0
LINE
  5
97
  8
回02-寸法
  6
CONTINUOUS
 62
     5
 10
-5676.392251726585
 20
1142.972511417499
 30
0.0
 11
-5693.318030248715
 21
1142.972511417499
 31
0.0
  0
LINE
  5
98
  8
回02-寸法
  6
CONTINUOUS
 62
     5
 10
-5692.318030248714
 20
1147.772511417499
 30
0.0
 11
-5692.318030248714
 21
1149.272511417498
 31
0.0
  0
LINE
  5
99
  8
回02-寸法
  6
CONTINUOUS
 62
     5
 10
-5692.318030248714
 20
1141.472511417499
 30
0.0
 11
-5692.318030248714
 21
1120.571951667102
 31
0.0
  0
LINE
  5
9A
  8
回02-寸法
  6
CONTINUOUS
 62
     5
 10
-5692.318030248714
 20
1146.272511417498
 30
0.0
 11
-5692.318030248714
 21
1142.972511417499
 31
0.0
  0
INSERT
  5
9B
  8
回02-寸法
  6
CONTINUOUS
 62
     5
 66
     1
  2
_OPEN
 10
-5692.318030248714
 20
1146.272511417498
 30
0.0
 41
1.5
 42
1.5
 43
1.5
 50
270.0
  0
SEQEND
  5
9C
  8
0
  6
CONTINUOUS
 62
     5
  0
INSERT
  5
9D
  8
回02-寸法
  6
CONTINUOUS
 62
     5
 66
     1
  2
_OPEN
 10
-5692.318030248714
 20
1142.972511417499
 30
0.0
 41
1.5
 42
1.5
 43
1.5
 50
90.0
  0
SEQEND
  5
9E
  8
0
  6
CONTINUOUS
 62
     5
  0
INSERT
  5
9F
  8
回02-寸法
  6
CONTINUOUS
 62
     5
 66
     1
  2
*X9595
 10
0.0
 20
0.0
 30
0.0
  0
SEQEND
  5
72B
  8
0
  6
CONTINUOUS
 62
     5
  0
POINT
  5
A0
  8
DEFPOINTS
  6
CONTINUOUS
 62
     0
 10
-5676.392251726585
 20
1146.272511417498
 30
0.0
  0
POINT
  5
A1
  8
DEFPOINTS
  6
CONTINUOUS
 62
     0
 10
-5676.392251726585
 20
1142.972511417499
 30
0.0
  0
POINT
  5
A2
  8
DEFPOINTS
  6
CONTINUOUS
 62
     0
 10
-5692.318030248714
 20
1142.972511417499
 30
0.0
  0
ENDBLK
  5
A3
  8
0
 62
     5
  0
BLOCK
  8
0
  2
*D3737
 70
     1
 10
0.0
 20
0.0
 30
0.0
  3
*D3737
  1

  0
LINE
  5
85
  8
回02-寸法
  6
CONTINUOUS
 62
     5
 10
-5676.392251726585
 20
1142.972511417499
 30
0.0
 11
-5701.78548444329
 21
1142.972511417499
 31
0.0
  0
LINE
  5
86
  8
回02-寸法
  6
CONTINUOUS
 62
     5
 10
-5676.39236659501
 20
1152.872511417498
 30
0.0
 11
-5701.78548444329
 21
1152.872511417498
 31
0.0
  0
LINE
  5
87
  8
回02-寸法
  6
CONTINUOUS
 62
     5
 10
-5700.78548444329
 20
1154.372511417498
 30
0.0
 11
-5700.78548444329
 21
1155.872511417499
 31
0.0
  0
LINE
  5
88
  8
回02-寸法
  6
CONTINUOUS
 62
     5
 10
-5700.78548444329
 20
1141.472511417499
 30
0.0
 11
-5700.78548444329
 21
1119.751146377496
 31
0.0
  0
LINE
  5
89
  8
回02-寸法
  6
CONTINUOUS
 62
     5
 10
-5700.78548444329
 20
1152.872511417498
 30
0.0
 11
-5700.78548444329
 21
1142.972511417499
 31
0.0
  0
INSERT
  5
8A
  8
回02-寸法
  6
CONTINUOUS
 62
     5
 66
     1
  2
_OPEN
 10
-5700.78548444329
 20
1152.872511417498
 30
0.0
 41
1.5
 42
1.5
 43
1.5
 50
270.0
  0
SEQEND
  5
8B
  8
0
  6
CONTINUOUS
 62
     5
  0
INSERT
  5
8C
  8
回02-寸法
  6
CONTINUOUS
 62
     5
 66
     1
  2
_OPEN
 10
-5700.78548444329
 20
1142.972511417499
 30
0.0
 41
1.5
 42
1.5
 43
1.5
 50
90.0
  0
SEQEND
  5
8D
  8
0
  6
CONTINUOUS
 62
     5
  0
INSERT
  5
8E
  8
回02-寸法
  6
CONTINUOUS
 62
     5
 66
     1
  2
*X9696
 10
0.0
 20
0.0
 30
0.0
  0
SEQEND
  5
731
  8
0
  6
CONTINUOUS
 62
     5
  0
POINT
  5
8F
  8
DEFPOINTS
  6
CONTINUOUS
 62
     0
 10
-5676.392251726585
 20
1142.972511417499
 30
0.0
  0
POINT
  5
90
  8
DEFPOINTS
  6
CONTINUOUS
 62
     0
 10
-5676.39236659501
 20
1152.872511417498
 30
0.0
  0
POINT
  5
91
  8
DEFPOINTS
  6
CONTINUOUS
 62
     0
 10
-5700.78548444329
 20
1152.872511417498
 30
0.0
  0
ENDBLK
  5
92
  8
0
 62
     5
  0
BLOCK
  8
0
  2
*D3838
 70
     1
 10
0.0
 20
0.0
 30
0.0
  3
*D3838
  1

  0
LINE
  5
6D
  8
回02-寸法
  6
CONTINUOUS
 62
     5
 10
-5672.564873328035
 20
1142.048511417499
 30
0.0
 11
-5683.948068845457
 21
1142.048511417499
 31
0.0
  0
LINE
  5
6E
  8
回02-寸法
  6
CONTINUOUS
 62
     5
 10
-5672.564873328035
 20
1143.896511417499
 30
0.0
 11
-5683.948068845457
 21
1143.896511417499
 31
0.0
  0
LINE
  5
6F
  8
回02-寸法
  6
CONTINUOUS
 62
     5
 10
-5682.948068845457
 20
1145.396511417499
 30
0.0
 11
-5682.948068845457
 21
1146.896511417499
 31
0.0
  0
LINE
  5
70
  8
回02-寸法
  6
CONTINUOUS
 62
     5
 10
-5682.948068845457
 20
1140.548511417499
 30
0.0
 11
-5682.948068845457
 21
1119.698511417496
 31
0.0
  0
LINE
  5
71
  8
回02-寸法
  6
CONTINUOUS
 62
     5
 10
-5682.948068845457
 20
1143.896511417499
 30
0.0
 11
-5682.948068845457
 21
1142.048511417499
 31
0.0
  0
INSERT
  5
72
  8
回02-寸法
  6
CONTINUOUS
 62
     5
 66
     1
  2
_OPEN
 10
-5682.948068845457
 20
1143.896511417499
 30
0.0
 41
1.5
 42
1.5
 43
1.5
 50
270.0
  0
SEQEND
  5
73
  8
0
  6
CONTINUOUS
 62
     5
  0
INSERT
  5
74
  8
回02-寸法
  6
CONTINUOUS
 62
     5
 66
     1
  2
_OPEN
 10
-5682.948068845457
 20
1142.048511417499
 30
0.0
 41
1.5
 42
1.5
 43
1.5
 50
90.0
  0
SEQEND
  5
75
  8
0
  6
CONTINUOUS
 62
     5
  0
INSERT
  5
76
  8
回02-寸法
  6
CONTINUOUS
 62
     5
 66
     1
  2
*X9797
 10
0.0
 20
0.0
 30
0.0
  0
SEQEND
  5
737
  8
0
  6
CONTINUOUS
 62
     5
  0
POINT
  5
77
  8
DEFPOINTS
  6
CONTINUOUS
 62
     0
 10
-5672.564873328035
 20
1142.048511417499
 30
0.0
  0
POINT
  5
79
  8
DEFPOINTS
  6
CONTINUOUS
 62
     0
 10
-5672.564873328035
 20
1143.896511417499
 30
0.0
  0
POINT
  5
7A
  8
DEFPOINTS
  6
CONTINUOUS
 62
     0
 10
-5682.948068845457
 20
1143.896511417499
 30
0.0
  0
ENDBLK
  5
7B
  8
0
 62
     5
  0
BLOCK
  8
0
  2
*D3939
 70
     1
 10
0.0
 20
0.0
 30
0.0
  3
*D3939
  1

  0
LINE
  5
468
  8
回02-寸法
  6
CONTINUOUS
 62
     5
 10
-225.4099857540277
 20
1805.525245917977
 30
0.0
 11
-236.7931812714505
 21
1805.525245917977
 31
0.0
  0
LINE
  5
46A
  8
回02-寸法
  6
CONTINUOUS
 62
     5
 10
-225.4099857540277
 20
1807.373245917977
 30
0.0
 11
-236.7931812714505
 21
1807.373245917977
 31
0.0
  0
LINE
  5
46B
  8
回02-寸法
  6
CONTINUOUS
 62
     5
 10
-235.7931812714505
 20
1804.025245917977
 30
0.0
 11
-235.7931812714505
 21
1783.175245917976
 31
0.0
  0
LINE
  5
46C
  8
回02-寸法
  6
CONTINUOUS
 62
     5
 10
-235.7931812714505
 20
1805.525245917977
 30
0.0
 11
-235.7931812714505
 21
1807.373245917977
 31
0.0
  0
LINE
  5
46D
  8
回02-寸法
  6
CONTINUOUS
 62
     5
 10
-235.7931812714505
 20
1808.873245917977
 30
0.0
 11
-235.7931812714505
 21
1810.373245917977
 31
0.0
  0
INSERT
  5
46E
  8
回02-寸法
  6
CONTINUOUS
 62
     5
  2
_OPEN
 10
-235.7931812714505
 20
1805.525245917977
 30
0.0
 41
1.5
 42
1.5
 43
1.5
 50
90.0
  0
INSERT
  5
46F
  8
回02-寸法
  6
CONTINUOUS
 62
     5
  2
_OPEN
 10
-235.7931812714505
 20
1807.373245917977
 30
0.0
 41
1.5
 42
1.5
 43
1.5
 50
270.0
  0
INSERT
  5
470
  8
回02-寸法
  6
CONTINUOUS
 62
     5
 66
     1
  2
*X9898
 10
0.0
 20
0.0
 30
0.0
  0
SEQEND
  5
73D
  8
0
  6
CONTINUOUS
 62
     5
  0
POINT
  5
471
  8
DEFPOINTS
  6
CONTINUOUS
 62
     0
 10
-225.4099857540277
 20
1805.525245917977
 30
0.0
  0
POINT
  5
472
  8
DEFPOINTS
  6
CONTINUOUS
 62
     0
 10
-225.4099857540277
 20
1807.373245917977
 30
0.0
  0
POINT
  5
473
  8
DEFPOINTS
  6
CONTINUOUS
 62
     0
 10
-235.7931812714505
 20
1807.373245917977
 30
0.0
  0
ENDBLK
  5
475
  8
0
  6
CONTINUOUS
 62
     5
  0
BLOCK
  8
0
  2
*D4040
 70
     1
 10
0.0
 20
0.0
 30
0.0
  3
*D4040
  1

  0
LINE
  5
477
  8
回02-寸法
  6
CONTINUOUS
 62
     5
 10
-229.2373641525774
 20
1806.449245917977
 30
0.0
 11
-254.6305968692841
 21
1806.449245917977
 31
0.0
  0
LINE
  5
479
  8
回02-寸法
  6
CONTINUOUS
 62
     5
 10
-229.2374790210033
 20
1816.349245917976
 30
0.0
 11
-254.6305968692841
 21
1816.349245917976
 31
0.0
  0
LINE
  5
47A
  8
回02-寸法
  6
CONTINUOUS
 62
     5
 10
-253.6305968692841
 20
1804.949245917977
 30
0.0
 11
-253.6305968692841
 21
1783.227880877976
 31
0.0
  0
LINE
  5
47B
  8
回02-寸法
  6
CONTINUOUS
 62
     5
 10
-253.6305968692841
 20
1806.449245917977
 30
0.0
 11
-253.6305968692841
 21
1816.349245917976
 31
0.0
  0
LINE
  5
47C
  8
回02-寸法
  6
CONTINUOUS
 62
     5
 10
-253.6305968692841
 20
1817.849245917976
 30
0.0
 11
-253.6305968692841
 21
1819.349245917976
 31
0.0
  0
INSERT
  5
47D
  8
回02-寸法
  6
CONTINUOUS
 62
     5
  2
_OPEN
 10
-253.6305968692841
 20
1806.449245917977
 30
0.0
 41
1.5
 42
1.5
 43
1.5
 50
90.0
  0
INSERT
  5
47E
  8
回02-寸法
  6
CONTINUOUS
 62
     5
  2
_OPEN
 10
-253.6305968692841
 20
1816.349245917976
 30
0.0
 41
1.5
 42
1.5
 43
1.5
 50
270.0
  0
INSERT
  5
47F
  8
回02-寸法
  6
CONTINUOUS
 62
     5
 66
     1
  2
*X9999
 10
0.0
 20
0.0
 30
0.0
  0
SEQEND
  5
743
  8
0
  6
CONTINUOUS
 62
     5
  0
POINT
  5
480
  8
DEFPOINTS
  6
CONTINUOUS
 62
     0
 10
-229.2373641525774
 20
1806.449245917977
 30
0.0
  0
POINT
  5
481
  8
DEFPOINTS
  6
CONTINUOUS
 62
     0
 10
-229.2374790210033
 20
1816.349245917976
 30
0.0
  0
POINT
  5
482
  8
DEFPOINTS
  6
CONTINUOUS
 62
     0
 10
-253.6305968692841
 20
1816.349245917976
 30
0.0
  0
ENDBLK
  5
484
  8
0
  6
CONTINUOUS
 62
     5
  0
BLOCK
  8
0
  2
*D4141
 70
     1
 10
0.0
 20
0.0
 30
0.0
  3
*D4141
  1

  0
LINE
  5
486
  8
回02-寸法
  6
CONTINUOUS
 62
     5
 10
-229.2373641525774
 20
1809.749245917976
 30
0.0
 11
-246.1631426747099
 21
1809.749245917976
 31
0.0
  0
LINE
  5
487
  8
回02-寸法
  6
CONTINUOUS
 62
     5
 10
-229.2373641525774
 20
1806.449245917977
 30
0.0
 11
-246.1631426747099
 21
1806.449245917977
 31
0.0
  0
LINE
  5
488
  8
回02-寸法
  6
CONTINUOUS
 62
     5
 10
-245.1631426747099
 20
1804.949245917977
 30
0.0
 11
-245.1631426747099
 21
1784.148415654592
 31
0.0
  0
LINE
  5
489
  8
回02-寸法
  6
CONTINUOUS
 62
     5
 10
-245.1631426747099
 20
1809.749245917976
 30
0.0
 11
-245.1631426747099
 21
1806.449245917977
 31
0.0
  0
LINE
  5
48A
  8
回02-寸法
  6
CONTINUOUS
 62
     5
 10
-245.1631426747099
 20
1811.249245917976
 30
0.0
 11
-245.1631426747099
 21
1812.749245917976
 31
0.0
  0
INSERT
  5
48B
  8
回02-寸法
  6
CONTINUOUS
 62
     5
  2
_OPEN
 10
-245.1631426747099
 20
1809.749245917976
 30
0.0
 41
1.5
 42
1.5
 43
1.5
 50
270.0
  0
INSERT
  5
48C
  8
回02-寸法
  6
CONTINUOUS
 62
     5
  2
_OPEN
 10
-245.1631426747099
 20
1806.449245917977
 30
0.0
 41
1.5
 42
1.5
 43
1.5
 50
90.0
  0
INSERT
  5
48D
  8
回02-寸法
  6
CONTINUOUS
 62
     5
 66
     1
  2
*X100100
 10
0.0
 20
0.0
 30
0.0
  0
SEQEND
  5
749
  8
0
  6
CONTINUOUS
 62
     5
  0
POINT
  5
48E
  8
DEFPOINTS
  6
CONTINUOUS
 62
     0
 10
-229.2373641525774
 20
1809.749245917976
 30
0.0
  0
POINT
  5
48F
  8
DEFPOINTS
  6
CONTINUOUS
 62
     0
 10
-229.2373641525774
 20
1806.449245917977
 30
0.0
  0
POINT
  5
490
  8
DEFPOINTS
  6
CONTINUOUS
 62
     0
 10
-245.1631426747099
 20
1806.449245917977
 30
0.0
  0
ENDBLK
  5
492
  8
0
  6
CONTINUOUS
 62
     5
  0
BLOCK
  8
0
  2
*D4242
 70
     1
 10
0.0
 20
0.0
 30
0.0
  3
*D4242
  1

  0
LINE
  5
494
  8
回02-寸法
  6
CONTINUOUS
 62
     5
 10
-224.089985754028
 20
1819.649245917982
 30
0.0
 11
-263.9233298929266
 21
1819.649245917982
 31
0.0
  0
LINE
  5
495
  8
回02-寸法
  6
CONTINUOUS
 62
     5
 10
-224.089985754028
 20
1803.149245917984
 30
0.0
 11
-263.9233298929266
 21
1803.149245917984
 31
0.0
  0
LINE
  5
496
  8
回02-寸法
  6
CONTINUOUS
 62
     5
 10
-262.9233298929266
 20
1818.149245917982
 30
0.0
 11
-262.9233298929266
 21
1804.649245917984
 31
0.0
  0
INSERT
  5
497
  8
回02-寸法
  6
CONTINUOUS
 62
     5
  2
_OPEN
 10
-262.9233298929266
 20
1819.649245917982
 30
0.0
 41
1.5
 42
1.5
 43
1.5
 50
90.0
  0
INSERT
  5
498
  8
回02-寸法
  6
CONTINUOUS
 62
     5
  2
_OPEN
 10
-262.9233298929266
 20
1803.149245917984
 30
0.0
 41
1.5
 42
1.5
 43
1.5
 50
270.0
  0
INSERT
  5
499
  8
回02-寸法
  6
CONTINUOUS
 62
     5
 66
     1
  2
*X101101
 10
0.0
 20
0.0
 30
0.0
  0
SEQEND
  5
74F
  8
0
  6
CONTINUOUS
 62
     5
  0
POINT
  5
49A
  8
DEFPOINTS
  6
CONTINUOUS
 62
     0
 10
-224.089985754028
 20
1819.649245917982
 30
0.0
  0
POINT
  5
49B
  8
DEFPOINTS
  6
CONTINUOUS
 62
     0
 10
-224.089985754028
 20
1803.149245917984
 30
0.0
  0
POINT
  5
49C
  8
DEFPOINTS
  6
CONTINUOUS
 62
     0
 10
-262.9233298929266
 20
1803.149245917984
 30
0.0
  0
ENDBLK
  5
49E
  8
0
  6
CONTINUOUS
 62
     5
  0
BLOCK
  8
0
  2
*D4343
 70
     1
 10
0.0
 20
0.0
 30
0.0
  3
*D4343
  1

  0
LINE
  5
4A0
  8
回02-寸法
  6
CONTINUOUS
 62
     5
 10
-158.3266138544077
 20
1597.850525247771
 30
0.0
 11
-158.3266138544077
 21
1610.44562630593
 31
0.0
  0
LINE
  5
4A1
  8
回02-寸法
  6
CONTINUOUS
 62
     5
 10
-157.8266138544077
 20
1604.850525247772
 30
0.0
 11
-157.8266138544077
 21
1610.44562630593
 31
0.0
  0
LINE
  5
4A2
  8
回02-寸法
  6
CONTINUOUS
 62
     5
 10
-155.8266138544077
 20
1609.44562630593
 30
0.0
 11
-144.0297634607069
 21
1609.44562630593
 31
0.0
  0
LINE
  5
4A3
  8
回02-寸法
  6
CONTINUOUS
 62
     5
 10
-158.3266138544077
 20
1609.44562630593
 30
0.0
 11
-157.8266138544077
 21
1609.44562630593
 31
0.0
  0
LINE
  5
4A4
  8
回02-寸法
  6
CONTINUOUS
 62
     5
 10
-160.3266138544077
 20
1609.44562630593
 30
0.0
 11
-162.3266138544077
 21
1609.44562630593
 31
0.0
  0
INSERT
  5
4A5
  8
回02-寸法
  6
CONTINUOUS
 62
     5
  2
_OPEN
 10
-158.3266138544077
 20
1609.44562630593
 30
0.0
 41
2.0
 42
2.0
 43
2.0
  0
INSERT
  5
4A6
  8
回02-寸法
  6
CONTINUOUS
 62
     5
  2
_OPEN
 10
-157.8266138544077
 20
1609.44562630593
 30
0.0
 41
2.0
 42
2.0
 43
2.0
 50
180.0
  0
TEXT
  5
4A7
  8
回02-寸法
  6
CONTINUOUS
 62
     5
 10
-153.9281886575573
 20
1610.14562630593
 30
0.0
 40
4.0
  1
(0.5)
  0
POINT
  5
4A8
  8
DEFPOINTS
  6
CONTINUOUS
 62
     0
 10
-158.3266138544077
 20
1597.850525247771
 30
0.0
  0
POINT
  5
4A9
  8
DEFPOINTS
  6
CONTINUOUS
 62
     0
 10
-157.8266138544077
 20
1604.850525247772
 30
0.0
  0
POINT
  5
4AA
  8
DEFPOINTS
  6
CONTINUOUS
 62
     0
 10
-157.8266138544077
 20
1609.44562630593
 30
0.0
  0
ENDBLK
  5
4AC
  8
0
  6
CONTINUOUS
 62
     5
  0
BLOCK
  8
0
  2
*D4444
 70
     1
 10
0.0
 20
0.0
 30
0.0
  3
*D4444
  1

  0
LINE
  5
4AE
  8
回02-寸法
  6
CONTINUOUS
 62
     5
 10
104.1733861455914
 20
1604.850525247772
 30
0.0
 11
104.1733861455914
 21
1614.028896329398
 31
0.0
  0
LINE
  5
4AF
  8
回02-寸法
  6
CONTINUOUS
 62
     5
 10
104.6733861455914
 20
1597.850525247771
 30
0.0
 11
104.6733861455914
 21
1614.028896329398
 31
0.0
  0
LINE
  5
4B0
  8
回02-寸法
  6
CONTINUOUS
 62
     5
 10
106.6733861455914
 20
1613.028896329399
 30
0.0
 11
118.4702365392922
 21
1613.028896329399
 31
0.0
  0
LINE
  5
4B1
  8
回02-寸法
  6
CONTINUOUS
 62
     5
 10
104.1733861455914
 20
1613.028896329399
 30
0.0
 11
104.6733861455914
 21
1613.028896329399
 31
0.0
  0
LINE
  5
4B2
  8
回02-寸法
  6
CONTINUOUS
 62
     5
 10
102.1733861455914
 20
1613.028896329399
 30
0.0
 11
100.1733861455914
 21
1613.028896329399
 31
0.0
  0
INSERT
  5
4B3
  8
回02-寸法
  6
CONTINUOUS
 62
     5
  2
_OPEN
 10
104.1733861455914
 20
1613.028896329399
 30
0.0
 41
2.0
 42
2.0
 43
2.0
  0
INSERT
  5
4B4
  8
回02-寸法
  6
CONTINUOUS
 62
     5
  2
_OPEN
 10
104.6733861455914
 20
1613.028896329399
 30
0.0
 41
2.0
 42
2.0
 43
2.0
 50
180.0
  0
TEXT
  5
4B5
  8
回02-寸法
  6
CONTINUOUS
 62
     5
 10
108.5718113424418
 20
1613.728896329399
 30
0.0
 40
4.0
  1
(0.5)
  0
POINT
  5
4B6
  8
DEFPOINTS
  6
CONTINUOUS
 62
     0
 10
104.1733861455914
 20
1604.850525247772
 30
0.0
  0
POINT
  5
4B7
  8
DEFPOINTS
  6
CONTINUOUS
 62
     0
 10
104.6733861455914
 20
1597.850525247771
 30
0.0
  0
POINT
  5
4B8
  8
DEFPOINTS
  6
CONTINUOUS
 62
     0
 10
104.6733861455914
 20
1613.028896329399
 30
0.0
  0
ENDBLK
  5
4BA
  8
0
  6
CONTINUOUS
 62
     5
  0
BLOCK
  8
0
  2
*D4545
 70
     1
 10
0.0
 20
0.0
 30
0.0
  3
*D4545
  1

  0
LINE
  5
4BC
  8
回02-寸法
  6
CONTINUOUS
 62
     5
 10
104.1733861455914
 20
1604.850525247772
 30
0.0
 11
114.0331121805848
 21
1604.850525247772
 31
0.0
  0
LINE
  5
4BD
  8
回02-寸法
  6
CONTINUOUS
 62
     5
 10
104.6733861455914
 20
1591.85052524777
 30
0.0
 11
114.0331121805848
 21
1591.85052524777
 31
0.0
  0
LINE
  5
4BE
  8
回02-寸法
  6
CONTINUOUS
 62
     5
 10
113.0331121805848
 20
1589.85052524777
 30
0.0
 11
113.0331121805848
 21
1571.279177488839
 31
0.0
  0
LINE
  5
4BF
  8
回02-寸法
  6
CONTINUOUS
 62
     5
 10
113.0331121805848
 20
1604.850525247772
 30
0.0
 11
113.0331121805848
 21
1591.85052524777
 31
0.0
  0
LINE
  5
4C0
  8
回02-寸法
  6
CONTINUOUS
 62
     5
 10
113.0331121805848
 20
1606.850525247772
 30
0.0
 11
113.0331121805848
 21
1608.850525247772
 31
0.0
  0
INSERT
  5
4C1
  8
回02-寸法
  6
CONTINUOUS
 62
     5
  2
_OPEN
 10
113.0331121805848
 20
1604.850525247772
 30
0.0
 41
2.0
 42
2.0
 43
2.0
 50
270.0
  0
INSERT
  5
4C2
  8
回02-寸法
  6
CONTINUOUS
 62
     5
  2
_OPEN
 10
113.0331121805848
 20
1591.85052524777
 30
0.0
 41
2.0
 42
2.0
 43
2.0
 50
90.0
  0
TEXT
  5
4C3
  8
回02-寸法
  6
CONTINUOUS
 62
     5
 10
112.5331121805848
 20
1571.179177488839
 30
0.0
 40
4.0
  1
2.1±0.2
 50
90.0
  0
POINT
  5
4C4
  8
DEFPOINTS
  6
CONTINUOUS
 62
     0
 10
104.1733861455914
 20
1604.850525247772
 30
0.0
  0
POINT
  5
4C5
  8
DEFPOINTS
  6
CONTINUOUS
 62
     0
 10
104.6733861455914
 20
1591.85052524777
 30
0.0
  0
POINT
  5
4C6
  8
DEFPOINTS
  6
CONTINUOUS
 62
     0
 10
113.0331121805848
 20
1591.85052524777
 30
0.0
  0
ENDBLK
  5
4C8
  8
0
  6
CONTINUOUS
 62
     5
  0
BLOCK
  8
0
  2
*D4646
 70
     1
 10
0.0
 20
0.0
 30
0.0
  3
*D4646
  1

  0
LINE
  5
4CA
  8
回02-寸法
  6
CONTINUOUS
 62
     5
 10
-238.3266573651754
 20
1600.850525247772
 30
0.0
 11
-246.8327396314007
 21
1600.850525247772
 31
0.0
  0
LINE
  5
4CB
  8
回02-寸法
  6
CONTINUOUS
 62
     5
 10
-238.3266138544077
 20
1593.850525247771
 30
0.0
 11
-246.8327396314007
 21
1593.850525247771
 31
0.0
  0
LINE
  5
4CC
  8
回02-寸法
  6
CONTINUOUS
 62
     5
 10
-245.8327396314007
 20
1591.850525247771
 30
0.0
 11
-245.8327396314007
 21
1574.329385742742
 31
0.0
  0
LINE
  5
4CD
  8
回02-寸法
  6
CONTINUOUS
 62
     5
 10
-245.8327396314007
 20
1600.850525247772
 30
0.0
 11
-245.8327396314007
 21
1593.850525247771
 31
0.0
  0
LINE
  5
4CE
  8
回02-寸法
  6
CONTINUOUS
 62
     5
 10
-245.8327396314007
 20
1602.850525247772
 30
0.0
 11
-245.8327396314007
 21
1604.850525247772
 31
0.0
  0
INSERT
  5
4CF
  8
回02-寸法
  6
CONTINUOUS
 62
     5
  2
_OPEN
 10
-245.8327396314007
 20
1600.850525247772
 30
0.0
 41
2.0
 42
2.0
 43
2.0
 50
270.0
  0
INSERT
  5
4D0
  8
回02-寸法
  6
CONTINUOUS
 62
     5
  2
_OPEN
 10
-245.8327396314007
 20
1593.850525247771
 30
0.0
 41
2.0
 42
2.0
 43
2.0
 50
90.0
  0
INSERT
  5
4D1
  8
回02-寸法
  6
CONTINUOUS
 62
     5
 66
     1
  2
*X102102
 10
0.0
 20
0.0
 30
0.0
  0
SEQEND
  5
755
  8
0
  6
CONTINUOUS
 62
     5
  0
POINT
  5
4D2
  8
DEFPOINTS
  6
CONTINUOUS
 62
     0
 10
-238.3266573651754
 20
1600.850525247772
 30
0.0
  0
POINT
  5
4D3
  8
DEFPOINTS
  6
CONTINUOUS
 62
     0
 10
-238.3266138544077
 20
1593.850525247771
 30
0.0
  0
POINT
  5
4D4
  8
DEFPOINTS
  6
CONTINUOUS
 62
     0
 10
-245.8327396314007
 20
1593.850525247771
 30
0.0
  0
ENDBLK
  5
4D6
  8
0
  6
CONTINUOUS
 62
     5
  0
BLOCK
  8
0
  2
*D4747
 70
     1
 10
0.0
 20
0.0
 30
0.0
  3
*D4747
  1

  0
LINE
  5
4D8
  8
回02-寸法
  6
CONTINUOUS
 62
     5
 10
-238.3266138544077
 20
1597.850525247771
 30
0.0
 11
-238.3266138544077
 21
1586.756460426503
 31
0.0
  0
LINE
  5
4D9
  8
回02-寸法
  6
CONTINUOUS
 62
     5
 10
-228.3266138544077
 20
1597.850525247771
 30
0.0
 11
-228.3266138544077
 21
1586.756460426503
 31
0.0
  0
LINE
  5
4DA
  8
回02-寸法
  6
CONTINUOUS
 62
     5
 10
-226.3266138544077
 20
1587.756460426503
 30
0.0
 11
-216.5297634607069
 21
1587.756460426503
 31
0.0
  0
LINE
  5
4DB
  8
回02-寸法
  6
CONTINUOUS
 62
     5
 10
-238.3266138544077
 20
1587.756460426503
 30
0.0
 11
-228.3266138544077
 21
1587.756460426503
 31
0.0
  0
LINE
  5
4DC
  8
回02-寸法
  6
CONTINUOUS
 62
     5
 10
-240.3266138544077
 20
1587.756460426503
 30
0.0
 11
-242.3266138544077
 21
1587.756460426503
 31
0.0
  0
INSERT
  5
4DD
  8
回02-寸法
  6
CONTINUOUS
 62
     5
  2
_OPEN
 10
-238.3266138544077
 20
1587.756460426503
 30
0.0
 41
2.0
 42
2.0
 43
2.0
  0
INSERT
  5
4DE
  8
回02-寸法
  6
CONTINUOUS
 62
     5
  2
_OPEN
 10
-228.3266138544077
 20
1587.756460426503
 30
0.0
 41
2.0
 42
2.0
 43
2.0
 50
180.0
  0
TEXT
  5
4DF
  8
回02-寸法
  6
CONTINUOUS
 62
     5
 10
-224.4281886575572
 20
1588.556460426503
 30
0.0
 40
4.0
  1
(10)
  0
POINT
  5
4E0
  8
DEFPOINTS
  6
CONTINUOUS
 62
     0
 10
-238.3266138544077
 20
1597.850525247771
 30
0.0
  0
POINT
  5
4E1
  8
DEFPOINTS
  6
CONTINUOUS
 62
     0
 10
-228.3266138544077
 20
1597.850525247771
 30
0.0
  0
POINT
  5
4E2
  8
DEFPOINTS
  6
CONTINUOUS
 62
     0
 10
-228.3266138544077
 20
1587.756460426503
 30
0.0
  0
ENDBLK
  5
4E4
  8
0
  6
CONTINUOUS
 62
     5
  0
BLOCK
  8
0
  2
*D4848
 70
     1
 10
0.0
 20
0.0
 30
0.0
  3
*D4848
  1

  0
LINE
  5
4E6
  8
回02-寸法
  6
CONTINUOUS
 62
     5
 10
-238.3266138544077
 20
1600.850525247772
 30
0.0
 11
-238.3266138544077
 21
1607.454188771795
 31
0.0
  0
LINE
  5
4E7
  8
回02-寸法
  6
CONTINUOUS
 62
     5
 10
-233.3266138544077
 20
1600.850525247772
 30
0.0
 11
-233.3266138544077
 21
1607.454188771795
 31
0.0
  0
LINE
  5
4E8
  8
回02-寸法
  6
CONTINUOUS
 62
     5
 10
-231.3266138544077
 20
1606.454188771795
 30
0.0
 11
-226.6437711419332
 21
1606.454188771795
 31
0.0
  0
LINE
  5
4E9
  8
回02-寸法
  6
CONTINUOUS
 62
     5
 10
-238.3266138544077
 20
1606.454188771795
 30
0.0
 11
-233.3266138544077
 21
1606.454188771795
 31
0.0
  0
LINE
  5
4EA
  8
回02-寸法
  6
CONTINUOUS
 62
     5
 10
-240.3266138544077
 20
1606.454188771795
 30
0.0
 11
-242.3266138544077
 21
1606.454188771795
 31
0.0
  0
INSERT
  5
4EB
  8
回02-寸法
  6
CONTINUOUS
 62
     5
  2
_OPEN
 10
-238.3266138544077
 20
1606.454188771795
 30
0.0
 41
2.0
 42
2.0
 43
2.0
  0
INSERT
  5
4EC
  8
回02-寸法
  6
CONTINUOUS
 62
     5
  2
_OPEN
 10
-233.3266138544077
 20
1606.454188771795
 30
0.0
 41
2.0
 42
2.0
 43
2.0
 50
180.0
  0
TEXT
  5
4ED
  8
回02-寸法
  6
CONTINUOUS
 62
     5
 10
-229.3437711419332
 20
1606.954188771795
 30
0.0
 40
4.0
  1
5
  0
POINT
  5
4EE
  8
DEFPOINTS
  6
CONTINUOUS
 62
     0
 10
-238.3266138544077
 20
1600.850525247772
 30
0.0
  0
POINT
  5
4EF
  8
DEFPOINTS
  6
CONTINUOUS
 62
     0
 10
-233.3266138544077
 20
1600.850525247772
 30
0.0
  0
POINT
  5
4F0
  8
DEFPOINTS
  6
CONTINUOUS
 62
     0
 10
-233.3266138544077
 20
1606.454188771795
 30
0.0
  0
ENDBLK
  5
4F2
  8
0
  6
CONTINUOUS
 62
     5
  0
BLOCK
  8
0
  2
*D4949
 70
     1
 10
0.0
 20
0.0
 30
0.0
  3
*D4949
  1

  0
LINE
  5
4F4
  8
回02-寸法
  6
CONTINUOUS
 62
     5
 10
-237.8266573557776
 20
1736.678592285675
 30
0.0
 11
-249.7697024275567
 21
1736.678592285675
 31
0.0
  0
LINE
  5
4F5
  8
回02-寸法
  6
CONTINUOUS
 62
     5
 10
-158.3266138544077
 20
1639.292727471813
 30
0.0
 11
-249.7697024275567
 21
1639.292727471813
 31
0.0
  0
LINE
  5
4F6
  8
回02-寸法
  6
CONTINUOUS
 62
     5
 10
-248.7697024275567
 20
1735.178592285675
 30
0.0
 11
-248.7697024275567
 21
1640.792727471813
 31
0.0
  0
INSERT
  5
4F7
  8
回02-寸法
  6
CONTINUOUS
 62
     5
  2
_OPEN
 10
-248.7697024275567
 20
1736.678592285675
 30
0.0
 41
1.5
 42
1.5
 43
1.5
 50
90.0
  0
INSERT
  5
4F8
  8
回02-寸法
  6
CONTINUOUS
 62
     5
  2
_OPEN
 10
-248.7697024275567
 20
1639.292727471813
 30
0.0
 41
1.5
 42
1.5
 43
1.5
 50
270.0
  0
TEXT
  5
4F9
  8
回02-寸法
  6
CONTINUOUS
 62
     5
 10
-249.4697024275565
 20
1680.171218404636
 30
0.0
 40
4.0
  1
(97.39)
 50
90.0
  0
POINT
  5
4FA
  8
DEFPOINTS
  6
CONTINUOUS
 62
     0
 10
-237.8266573557776
 20
1736.678592285675
 30
0.0
  0
POINT
  5
4FB
  8
DEFPOINTS
  6
CONTINUOUS
 62
     0
 10
-158.3266138544077
 20
1639.292727471813
 30
0.0
  0
POINT
  5
4FC
  8
DEFPOINTS
  6
CONTINUOUS
 62
     0
 10
-248.7697024275567
 20
1639.292727471813
 30
0.0
  0
ENDBLK
  5
4FE
  8
0
  6
CONTINUOUS
 62
     5
  0
BLOCK
  8
0
  2
*D5050
 70
     1
 10
0.0
 20
0.0
 30
0.0
  3
*D5050
  1

  0
LINE
  5
500
  8
回02-寸法
  6
CONTINUOUS
 62
     5
 10
-151.0766138544077
 20
1835.092727471813
 30
0.0
 11
-151.0766138544077
 21
1870.635201589738
 31
0.0
  0
LINE
  5
501
  8
回02-寸法
  6
CONTINUOUS
 62
     5
 10
-158.3266138544077
 20
1840.292727471813
 30
0.0
 11
-158.3266138544077
 21
1870.635201589738
 31
0.0
  0
LINE
  5
502
  8
回02-寸法
  6
CONTINUOUS
 62
     5
 10
-159.8266138544077
 20
1869.635201589738
 30
0.0
 11
-211.1350390512581
 21
1869.635201589738
 31
0.0
  0
LINE
  5
503
  8
回02-寸法
  6
CONTINUOUS
 62
     5
 10
-151.0766138544077
 20
1869.635201589738
 30
0.0
 11
-158.3266138544077
 21
1869.635201589738
 31
0.0
  0
LINE
  5
504
  8
回02-寸法
  6
CONTINUOUS
 62
     5
 10
-149.5766138544077
 20
1869.635201589738
 30
0.0
 11
-148.0766138544077
 21
1869.635201589738
 31
0.0
  0
INSERT
  5
505
  8
回02-寸法
  6
CONTINUOUS
 62
     5
  2
_OPEN
 10
-151.0766138544077
 20
1869.635201589738
 30
0.0
 41
1.5
 42
1.5
 43
1.5
 50
180.0
  0
INSERT
  5
506
  8
回02-寸法
  6
CONTINUOUS
 62
     5
  2
_OPEN
 10
-158.3266138544077
 20
1869.635201589738
 30
0.0
 41
1.5
 42
1.5
 43
1.5
  0
TEXT
  5
507
  8
回02-寸法
  6
CONTINUOUS
 62
     5
 10
-211.2350390512581
 20
1870.335201589739
 30
0.0
 40
4.0
  1
7.25(Insulation Area)
  0
POINT
  5
508
  8
DEFPOINTS
  6
CONTINUOUS
 62
     0
 10
-151.0766138544077
 20
1835.092727471813
 30
0.0
  0
POINT
  5
509
  8
DEFPOINTS
  6
CONTINUOUS
 62
     0
 10
-158.3266138544077
 20
1840.292727471813
 30
0.0
  0
POINT
  5
50A
  8
DEFPOINTS
  6
CONTINUOUS
 62
     0
 10
-158.3266138544077
 20
1869.635201589738
 30
0.0
  0
ENDBLK
  5
50C
  8
0
  6
CONTINUOUS
 62
     5
  0
BLOCK
  8
0
  2
*D5151
 70
     1
 10
0.0
 20
0.0
 30
0.0
  3
*D5151
  1

  0
LINE
  5
50E
  8
回02-寸法
  6
CONTINUOUS
 62
     5
 10
100.4233861455923
 20
1835.092727471813
 30
0.0
 11
100.4233861455923
 21
1870.635201589738
 31
0.0
  0
LINE
  5
50F
  8
回02-寸法
  6
CONTINUOUS
 62
     5
 10
104.6733861455923
 20
1840.292727471813
 30
0.0
 11
104.6733861455923
 21
1870.635201589738
 31
0.0
  0
LINE
  5
510
  8
回02-寸法
  6
CONTINUOUS
 62
     5
 10
106.1733861455923
 20
1869.635201589738
 30
0.0
 11
120.6702365392931
 21
1869.635201589738
 31
0.0
  0
LINE
  5
511
  8
回02-寸法
  6
CONTINUOUS
 62
     5
 10
100.4233861455923
 20
1869.635201589738
 30
0.0
 11
104.6733861455923
 21
1869.635201589738
 31
0.0
  0
LINE
  5
512
  8
回02-寸法
  6
CONTINUOUS
 62
     5
 10
98.92338614559228
 20
1869.635201589738
 30
0.0
 11
97.4233861455923
 21
1869.635201589738
 31
0.0
  0
INSERT
  5
513
  8
回02-寸法
  6
CONTINUOUS
 62
     5
  2
_OPEN
 10
100.4233861455923
 20
1869.635201589738
 30
0.0
 41
1.5
 42
1.5
 43
1.5
  0
INSERT
  5
514
  8
回02-寸法
  6
CONTINUOUS
 62
     5
  2
_OPEN
 10
104.6733861455923
 20
1869.635201589738
 30
0.0
 41
1.5
 42
1.5
 43
1.5
 50
180.0
  0
TEXT
  5
515
  8
回02-寸法
  6
CONTINUOUS
 62
     5
 10
107.5718113424427
 20
1870.335201589739
 30
0.0
 40
4.0
  1
(4.25)
  0
POINT
  5
516
  8
DEFPOINTS
  6
CONTINUOUS
 62
     0
 10
100.4233861455923
 20
1835.092727471813
 30
0.0
  0
POINT
  5
517
  8
DEFPOINTS
  6
CONTINUOUS
 62
     0
 10
104.6733861455923
 20
1840.292727471813
 30
0.0
  0
POINT
  5
518
  8
DEFPOINTS
  6
CONTINUOUS
 62
     0
 10
104.6733861455923
 20
1869.635201589738
 30
0.0
  0
ENDBLK
  5
51A
  8
0
  6
CONTINUOUS
 62
     5
  0
BLOCK
  8
0
  2
*D5252
 70
     1
 10
0.0
 20
0.0
 30
0.0
  3
*D5252
  1

  0
LINE
  5
51C
  8
回02-寸法
  6
CONTINUOUS
 62
     5
 10
99.9233861455923
 20
1834.292727471813
 30
0.0
 11
99.9233861455923
 21
1863.610014797106
 31
0.0
  0
LINE
  5
51D
  8
回02-寸法
  6
CONTINUOUS
 62
     5
 10
104.6733861455923
 20
1840.292727471813
 30
0.0
 11
104.6733861455923
 21
1863.610014797106
 31
0.0
  0
LINE
  5
51E
  8
回02-寸法
  6
CONTINUOUS
 62
     5
 10
106.1733861455923
 20
1862.610014797106
 30
0.0
 11
120.6702365392931
 21
1862.610014797106
 31
0.0
  0
LINE
  5
51F
  8
回02-寸法
  6
CONTINUOUS
 62
     5
 10
99.9233861455923
 20
1862.610014797106
 30
0.0
 11
104.6733861455923
 21
1862.610014797106
 31
0.0
  0
LINE
  5
520
  8
回02-寸法
  6
CONTINUOUS
 62
     5
 10
98.42338614559231
 20
1862.610014797106
 30
0.0
 11
96.92338614559231
 21
1862.610014797106
 31
0.0
  0
INSERT
  5
521
  8
回02-寸法
  6
CONTINUOUS
 62
     5
  2
_OPEN
 10
99.9233861455923
 20
1862.610014797106
 30
0.0
 41
1.5
 42
1.5
 43
1.5
  0
INSERT
  5
522
  8
回02-寸法
  6
CONTINUOUS
 62
     5
  2
_OPEN
 10
104.6733861455923
 20
1862.610014797106
 30
0.0
 41
1.5
 42
1.5
 43
1.5
 50
180.0
  0
TEXT
  5
523
  8
回02-寸法
  6
CONTINUOUS
 62
     5
 10
107.5718113424427
 20
1863.310014797107
 30
0.0
 40
4.0
  1
(4.75)
  0
POINT
  5
524
  8
DEFPOINTS
  6
CONTINUOUS
 62
     0
 10
99.9233861455923
 20
1834.292727471813
 30
0.0
  0
POINT
  5
525
  8
DEFPOINTS
  6
CONTINUOUS
 62
     0
 10
104.6733861455923
 20
1840.292727471813
 30
0.0
  0
POINT
  5
526
  8
DEFPOINTS
  6
CONTINUOUS
 62
     0
 10
104.6733861455923
 20
1862.610014797106
 30
0.0
  0
ENDBLK
  5
528
  8
0
  6
CONTINUOUS
 62
     5
  0
BLOCK
  8
0
  2
*D5353
 70
     1
 10
0.0
 20
0.0
 30
0.0
  3
*D5353
  1

  0
LINE
  5
52A
  8
回02-寸法
  6
CONTINUOUS
 62
     5
 10
97.92338614559231
 20
1832.292727471813
 30
0.0
 11
97.92338614559231
 21
1856.163386540416
 31
0.0
  0
LINE
  5
52B
  8
回02-寸法
  6
CONTINUOUS
 62
     5
 10
104.6733861455923
 20
1840.292727471813
 30
0.0
 11
104.6733861455923
 21
1856.163386540416
 31
0.0
  0
LINE
  5
52C
  8
回02-寸法
  6
CONTINUOUS
 62
     5
 10
106.1733861455923
 20
1855.163386540415
 30
0.0
 11
120.270236539293
 21
1855.163386540415
 31
0.0
  0
LINE
  5
52D
  8
回02-寸法
  6
CONTINUOUS
 62
     5
 10
97.92338614559231
 20
1855.163386540415
 30
0.0
 11
104.6733861455923
 21
1855.163386540415
 31
0.0
  0
LINE
  5
52E
  8
回02-寸法
  6
CONTINUOUS
 62
     5
 10
96.42338614559228
 20
1855.163386540415
 30
0.0
 11
94.92338614559228
 21
1855.163386540415
 31
0.0
  0
INSERT
  5
52F
  8
回02-寸法
  6
CONTINUOUS
 62
     5
  2
_OPEN
 10
97.92338614559231
 20
1855.163386540415
 30
0.0
 41
1.5
 42
1.5
 43
1.5
  0
INSERT
  5
530
  8
回02-寸法
  6
CONTINUOUS
 62
     5
  2
_OPEN
 10
104.6733861455923
 20
1855.163386540415
 30
0.0
 41
1.5
 42
1.5
 43
1.5
 50
180.0
  0
TEXT
  5
531
  8
回02-寸法
  6
CONTINUOUS
 62
     5
 10
107.5718113424427
 20
1855.863386540416
 30
0.0
 40
4.0
  1
(6.75)
  0
POINT
  5
532
  8
DEFPOINTS
  6
CONTINUOUS
 62
     0
 10
97.92338614559231
 20
1832.292727471813
 30
0.0
  0
POINT
  5
533
  8
DEFPOINTS
  6
CONTINUOUS
 62
     0
 10
104.6733861455923
 20
1840.292727471813
 30
0.0
  0
POINT
  5
534
  8
DEFPOINTS
  6
CONTINUOUS
 62
     0
 10
104.6733861455923
 20
1855.163386540415
 30
0.0
  0
ENDBLK
  5
536
  8
0
  6
CONTINUOUS
 62
     5
  0
BLOCK
  8
0
  2
*D5454
 70
     1
 10
0.0
 20
0.0
 30
0.0
  3
*D5454
  1

  0
LINE
  5
538
  8
回02-寸法
  6
CONTINUOUS
 62
     5
 10
100.4233861455923
 20
1644.492727471813
 30
0.0
 11
146.337067799679
 21
1644.492727471813
 31
0.0
  0
LINE
  5
539
  8
回02-寸法
  6
CONTINUOUS
 62
     5
 10
104.6733861455923
 20
1639.292727471813
 30
0.0
 11
146.337067799679
 21
1639.292727471813
 31
0.0
  0
LINE
  5
53A
  8
回02-寸法
  6
CONTINUOUS
 62
     5
 10
145.337067799679
 20
1637.792727471813
 30
0.0
 11
145.337067799679
 21
1589.284302274963
 31
0.0
  0
LINE
  5
53B
  8
回02-寸法
  6
CONTINUOUS
 62
     5
 10
145.337067799679
 20
1644.492727471813
 30
0.0
 11
145.337067799679
 21
1639.292727471813
 31
0.0
  0
LINE
  5
53C
  8
回02-寸法
  6
CONTINUOUS
 62
     5
 10
145.337067799679
 20
1645.992727471813
 30
0.0
 11
145.337067799679
 21
1647.492727471813
 31
0.0
  0
INSERT
  5
53D
  8
回02-寸法
  6
CONTINUOUS
 62
     5
  2
_OPEN
 10
145.337067799679
 20
1644.492727471813
 30
0.0
 41
1.5
 42
1.5
 43
1.5
 50
270.0
  0
INSERT
  5
53E
  8
回02-寸法
  6
CONTINUOUS
 62
     5
  2
_OPEN
 10
145.337067799679
 20
1639.292727471813
 30
0.0
 41
1.5
 42
1.5
 43
1.5
 50
90.0
  0
TEXT
  5
53F
  8
回02-寸法
  6
CONTINUOUS
 62
     5
 10
144.637067799679
 20
1589.184302274962
 30
0.0
 40
4.0
  1
5.2(Insulation Area)
 50
90.0
  0
POINT
  5
540
  8
DEFPOINTS
  6
CONTINUOUS
 62
     0
 10
100.4233861455923
 20
1644.492727471813
 30
0.0
  0
POINT
  5
541
  8
DEFPOINTS
  6
CONTINUOUS
 62
     0
 10
104.6733861455923
 20
1639.292727471813
 30
0.0
  0
POINT
  5
542
  8
DEFPOINTS
  6
CONTINUOUS
 62
     0
 10
145.337067799679
 20
1639.292727471813
 30
0.0
  0
ENDBLK
  5
544
  8
0
  6
CONTINUOUS
 62
     5
  0
BLOCK
  8
0
  2
*D5555
 70
     1
 10
0.0
 20
0.0
 30
0.0
  3
*D5555
  1

  0
LINE
  5
546
  8
回02-寸法
  6
CONTINUOUS
 62
     5
 10
97.92338614559231
 20
1832.292727471813
 30
0.0
 11
129.9967776571529
 21
1832.292727471813
 31
0.0
  0
LINE
  5
547
  8
回02-寸法
  6
CONTINUOUS
 62
     5
 10
104.6733861455923
 20
1840.292727471813
 30
0.0
 11
129.9967776571529
 21
1840.292727471813
 31
0.0
  0
LINE
  5
548
  8
回02-寸法
  6
CONTINUOUS
 62
     5
 10
128.9967776571529
 20
1841.792727471813
 30
0.0
 11
128.9967776571529
 21
1852.739577865523
 31
0.0
  0
LINE
  5
549
  8
回02-寸法
  6
CONTINUOUS
 62
     5
 10
128.9967776571529
 20
1832.292727471813
 30
0.0
 11
128.9967776571529
 21
1840.292727471813
 31
0.0
  0
LINE
  5
54A
  8
回02-寸法
  6
CONTINUOUS
 62
     5
 10
128.9967776571529
 20
1830.792727471813
 30
0.0
 11
128.9967776571529
 21
1829.292727471813
 31
0.0
  0
INSERT
  5
54B
  8
回02-寸法
  6
CONTINUOUS
 62
     5
  2
_OPEN
 10
128.9967776571529
 20
1832.292727471813
 30
0.0
 41
1.5
 42
1.5
 43
1.5
 50
90.0
  0
INSERT
  5
54C
  8
回02-寸法
  6
CONTINUOUS
 62
     5
  2
_OPEN
 10
128.9967776571529
 20
1840.292727471813
 30
0.0
 41
1.5
 42
1.5
 43
1.5
 50
270.0
  0
TEXT
  5
54D
  8
回02-寸法
  6
CONTINUOUS
 62
     5
 10
128.2967776571529
 20
1846.841152668673
 30
0.0
 40
4.0
  1
(8)
 50
90.0
  0
POINT
  5
54E
  8
DEFPOINTS
  6
CONTINUOUS
 62
     0
 10
97.92338614559231
 20
1832.292727471813
 30
0.0
  0
POINT
  5
54F
  8
DEFPOINTS
  6
CONTINUOUS
 62
     0
 10
104.6733861455923
 20
1840.292727471813
 30
0.0
  0
POINT
  5
550
  8
DEFPOINTS
  6
CONTINUOUS
 62
     0
 10
128.9967776571529
 20
1840.292727471813
 30
0.0
  0
ENDBLK
  5
552
  8
0
  6
CONTINUOUS
 62
     5
  0
BLOCK
  8
0
  2
*D5656
 70
     1
 10
0.0
 20
0.0
 30
0.0
  3
*D5656
  1

  0
LINE
  5
554
  8
回02-寸法
  6
CONTINUOUS
 62
     5
 10
99.9233861455923
 20
1834.292727471813
 30
0.0
 11
138.3480041172643
 21
1834.292727471813
 31
0.0
  0
LINE
  5
555
  8
回02-寸法
  6
CONTINUOUS
 62
     5
 10
104.6733861455923
 20
1840.292727471813
 30
0.0
 11
138.3480041172643
 21
1840.292727471813
 31
0.0
  0
LINE
  5
556
  8
回02-寸法
  6
CONTINUOUS
 62
     5
 10
137.3480041172643
 20
1841.792727471813
 30
0.0
 11
137.3480041172643
 21
1849.089577865515
 31
0.0
  0
LINE
  5
557
  8
回02-寸法
  6
CONTINUOUS
 62
     5
 10
137.3480041172643
 20
1834.292727471813
 30
0.0
 11
137.3480041172643
 21
1840.292727471813
 31
0.0
  0
LINE
  5
558
  8
回02-寸法
  6
CONTINUOUS
 62
     5
 10
137.3480041172643
 20
1832.792727471813
 30
0.0
 11
137.3480041172643
 21
1831.292727471813
 31
0.0
  0
INSERT
  5
559
  8
回02-寸法
  6
CONTINUOUS
 62
     5
  2
_OPEN
 10
137.3480041172643
 20
1834.292727471813
 30
0.0
 41
1.5
 42
1.5
 43
1.5
 50
90.0
  0
INSERT
  5
55A
  8
回02-寸法
  6
CONTINUOUS
 62
     5
  2
_OPEN
 10
137.3480041172643
 20
1840.292727471813
 30
0.0
 41
1.5
 42
1.5
 43
1.5
 50
270.0
  0
TEXT
  5
55B
  8
回02-寸法
  6
CONTINUOUS
 62
     5
 10
136.6480041172642
 20
1843.191152668665
 30
0.0
 40
4.0
  1
(6)
 50
90.0
  0
POINT
  5
55C
  8
DEFPOINTS
  6
CONTINUOUS
 62
     0
 10
99.9233861455923
 20
1834.292727471813
 30
0.0
  0
POINT
  5
55D
  8
DEFPOINTS
  6
CONTINUOUS
 62
     0
 10
104.6733861455923
 20
1840.292727471813
 30
0.0
  0
POINT
  5
55E
  8
DEFPOINTS
  6
CONTINUOUS
 62
     0
 10
137.3480041172643
 20
1840.292727471813
 30
0.0
  0
ENDBLK
  5
560
  8
0
  6
CONTINUOUS
 62
     5
  0
BLOCK
  8
0
  2
*D5757
 70
     1
 10
0.0
 20
0.0
 30
0.0
  3
*D5757
  1

  0
LINE
  5
562
  8
回02-寸法
  6
CONTINUOUS
 62
     5
 10
100.4233861455923
 20
1835.092727471813
 30
0.0
 11
146.337067799679
 21
1835.092727471813
 31
0.0
  0
LINE
  5
563
  8
回02-寸法
  6
CONTINUOUS
 62
     5
 10
104.6733861455923
 20
1840.292727471813
 30
0.0
 11
146.337067799679
 21
1840.292727471813
 31
0.0
  0
LINE
  5
564
  8
回02-寸法
  6
CONTINUOUS
 62
     5
 10
145.337067799679
 20
1841.792727471813
 30
0.0
 11
145.337067799679
 21
1853.089577865514
 31
0.0
  0
LINE
  5
565
  8
回02-寸法
  6
CONTINUOUS
 62
     5
 10
145.337067799679
 20
1835.092727471813
 30
0.0
 11
145.337067799679
 21
1840.292727471813
 31
0.0
  0
LINE
  5
566
  8
回02-寸法
  6
CONTINUOUS
 62
     5
 10
145.337067799679
 20
1833.592727471813
 30
0.0
 11
145.337067799679
 21
1832.092727471813
 31
0.0
  0
INSERT
  5
567
  8
回02-寸法
  6
CONTINUOUS
 62
     5
  2
_OPEN
 10
145.337067799679
 20
1835.092727471813
 30
0.0
 41
1.5
 42
1.5
 43
1.5
 50
90.0
  0
INSERT
  5
568
  8
回02-寸法
  6
CONTINUOUS
 62
     5
  2
_OPEN
 10
145.337067799679
 20
1840.292727471813
 30
0.0
 41
1.5
 42
1.5
 43
1.5
 50
270.0
  0
TEXT
  5
569
  8
回02-寸法
  6
CONTINUOUS
 62
     5
 10
144.637067799679
 20
1843.191152668664
 30
0.0
 40
4.0
  1
(5.2)
 50
90.0
  0
POINT
  5
56A
  8
DEFPOINTS
  6
CONTINUOUS
 62
     0
 10
100.4233861455923
 20
1835.092727471813
 30
0.0
  0
POINT
  5
56B
  8
DEFPOINTS
  6
CONTINUOUS
 62
     0
 10
104.6733861455923
 20
1840.292727471813
 30
0.0
  0
POINT
  5
56C
  8
DEFPOINTS
  6
CONTINUOUS
 62
     0
 10
145.337067799679
 20
1840.292727471813
 30
0.0
  0
ENDBLK
  5
56E
  8
0
  6
CONTINUOUS
 62
     5
  0
BLOCK
  8
0
  2
*D5858
 70
     1
 10
0.0
 20
0.0
 30
0.0
  3
*D5858
  1

  0
LINE
  5
570
  8
回02-寸法
  6
CONTINUOUS
 62
     5
 10
100.4233861455923
 20
1835.092727471813
 30
0.0
 11
146.3370677996845
 21
1835.092727471813
 31
0.0
  0
LINE
  5
571
  8
回02-寸法
  6
CONTINUOUS
 62
     5
 10
100.4233861455923
 20
1644.492727471813
 30
0.0
 11
146.3370677996845
 21
1644.492727471813
 31
0.0
  0
LINE
  5
572
  8
回02-寸法
  6
CONTINUOUS
 62
     5
 10
145.3370677996845
 20
1833.592727471813
 30
0.0
 11
145.3370677996845
 21
1645.992727471813
 31
0.0
  0
INSERT
  5
573
  8
回02-寸法
  6
CONTINUOUS
 62
     5
  2
_OPEN
 10
145.3370677996845
 20
1835.092727471813
 30
0.0
 41
1.5
 42
1.5
 43
1.5
 50
90.0
  0
INSERT
  5
574
  8
回02-寸法
  6
CONTINUOUS
 62
     5
  2
_OPEN
 10
145.3370677996845
 20
1644.492727471813
 30
0.0
 41
1.5
 42
1.5
 43
1.5
 50
270.0
  0
TEXT
  5
575
  8
回02-寸法
  6
CONTINUOUS
 62
     5
 10
144.8370677996845
 20
1733.983836677891
 30
0.0
 40
4.0
  1
190.6
 50
90.0
  0
POINT
  5
576
  8
DEFPOINTS
  6
CONTINUOUS
 62
     0
 10
100.4233861455923
 20
1835.092727471813
 30
0.0
  0
POINT
  5
577
  8
DEFPOINTS
  6
CONTINUOUS
 62
     0
 10
100.4233861455923
 20
1644.492727471813
 30
0.0
  0
POINT
  5
578
  8
DEFPOINTS
  6
CONTINUOUS
 62
     0
 10
145.3370677996845
 20
1644.492727471813
 30
0.0
  0
ENDBLK
  5
57A
  8
0
  6
CONTINUOUS
 62
     5
  0
BLOCK
  8
0
  2
*D5959
 70
     1
 10
0.0
 20
0.0
 30
0.0
  3
*D5959
  1

  0
LINE
  5
57C
  8
回02-寸法
  6
CONTINUOUS
 62
     5
 10
100.4233861455923
 20
1835.092727471813
 30
0.0
 11
100.4233861455923
 21
1870.635201589738
 31
0.0
  0
LINE
  5
57D
  8
回02-寸法
  6
CONTINUOUS
 62
     5
 10
-151.0766138544077
 20
1835.092727471813
 30
0.0
 11
-151.0766138544077
 21
1870.635201589738
 31
0.0
  0
LINE
  5
57E
  8
回02-寸法
  6
CONTINUOUS
 62
     5
 10
98.92338614559228
 20
1869.635201589738
 30
0.0
 11
-149.5766138544077
 21
1869.635201589738
 31
0.0
  0
INSERT
  5
57F
  8
回02-寸法
  6
CONTINUOUS
 62
     5
  2
_OPEN
 10
100.4233861455923
 20
1869.635201589738
 30
0.0
 41
1.5
 42
1.5
 43
1.5
  0
INSERT
  5
580
  8
回02-寸法
  6
CONTINUOUS
 62
     5
  2
_OPEN
 10
-151.0766138544077
 20
1869.635201589738
 30
0.0
 41
1.5
 42
1.5
 43
1.5
 50
180.0
  0
TEXT
  5
581
  8
回02-寸法
  6
CONTINUOUS
 62
     5
 10
-31.1266138544077
 20
1870.135201589739
 30
0.0
 40
4.0
  1
251.5
  0
POINT
  5
582
  8
DEFPOINTS
  6
CONTINUOUS
 62
     0
 10
100.4233861455923
 20
1835.092727471813
 30
0.0
  0
POINT
  5
583
  8
DEFPOINTS
  6
CONTINUOUS
 62
     0
 10
-151.0766138544077
 20
1835.092727471813
 30
0.0
  0
POINT
  5
584
  8
DEFPOINTS
  6
CONTINUOUS
 62
     0
 10
-151.0766138544077
 20
1869.635201589738
 30
0.0
  0
ENDBLK
  5
586
  8
0
  6
CONTINUOUS
 62
     5
  0
BLOCK
  8
0
  2
*D6060
 70
     1
 10
0.0
 20
0.0
 30
0.0
  3
*D6060
  1

  0
LINE
  5
588
  8
回02-寸法
  6
CONTINUOUS
 62
     5
 10
99.9233861455923
 20
1645.292727471813
 30
0.0
 11
138.3480041172652
 21
1645.292727471813
 31
0.0
  0
LINE
  5
589
  8
回02-寸法
  6
CONTINUOUS
 62
     5
 10
104.6733861455923
 20
1639.292727471813
 30
0.0
 11
138.3480041172652
 21
1639.292727471813
 31
0.0
  0
LINE
  5
58A
  8
回02-寸法
  6
CONTINUOUS
 62
     5
 10
137.3480041172652
 20
1637.792727471813
 30
0.0
 11
137.3480041172652
 21
1629.395849879053
 31
0.0
  0
LINE
  5
58B
  8
回02-寸法
  6
CONTINUOUS
 62
     5
 10
137.3480041172652
 20
1645.292727471813
 30
0.0
 11
137.3480041172652
 21
1639.292727471813
 31
0.0
  0
LINE
  5
58C
  8
回02-寸法
  6
CONTINUOUS
 62
     5
 10
137.3480041172652
 20
1646.792727471813
 30
0.0
 11
137.3480041172652
 21
1648.292727471813
 31
0.0
  0
INSERT
  5
58D
  8
回02-寸法
  6
CONTINUOUS
 62
     5
  2
_OPEN
 10
137.3480041172652
 20
1645.292727471813
 30
0.0
 41
1.5
 42
1.5
 43
1.5
 50
270.0
  0
INSERT
  5
58E
  8
回02-寸法
  6
CONTINUOUS
 62
     5
  2
_OPEN
 10
137.3480041172652
 20
1639.292727471813
 30
0.0
 41
1.5
 42
1.5
 43
1.5
 50
90.0
  0
TEXT
  5
58F
  8
回02-寸法
  6
CONTINUOUS
 62
     5
 10
136.8480041172652
 20
1629.295849879052
 30
0.0
 40
4.0
  1
6
 50
90.0
  0
POINT
  5
590
  8
DEFPOINTS
  6
CONTINUOUS
 62
     0
 10
99.9233861455923
 20
1645.292727471813
 30
0.0
  0
POINT
  5
591
  8
DEFPOINTS
  6
CONTINUOUS
 62
     0
 10
104.6733861455923
 20
1639.292727471813
 30
0.0
  0
POINT
  5
592
  8
DEFPOINTS
  6
CONTINUOUS
 62
     0
 10
137.3480041172652
 20
1639.292727471813
 30
0.0
  0
ENDBLK
  5
594
  8
0
  6
CONTINUOUS
 62
     5
  0
BLOCK
  8
0
  2
*D6161
 70
     1
 10
0.0
 20
0.0
 30
0.0
  3
*D6161
  1

  0
LINE
  5
596
  8
回02-寸法
  6
CONTINUOUS
 62
     5
 10
97.92338614559231
 20
1647.292727471813
 30
0.0
 11
129.9967776571529
 21
1647.292727471813
 31
0.0
  0
LINE
  5
597
  8
回02-寸法
  6
CONTINUOUS
 62
     5
 10
104.6733861455923
 20
1639.292727471813
 30
0.0
 11
129.9967776571529
 21
1639.292727471813
 31
0.0
  0
LINE
  5
598
  8
回02-寸法
  6
CONTINUOUS
 62
     5
 10
128.9967776571529
 20
1637.792727471813
 30
0.0
 11
128.9967776571529
 21
1628.9125652552
 31
0.0
  0
LINE
  5
599
  8
回02-寸法
  6
CONTINUOUS
 62
     5
 10
128.9967776571529
 20
1647.292727471813
 30
0.0
 11
128.9967776571529
 21
1639.292727471813
 31
0.0
  0
LINE
  5
59A
  8
回02-寸法
  6
CONTINUOUS
 62
     5
 10
128.9967776571529
 20
1648.792727471813
 30
0.0
 11
128.9967776571529
 21
1650.292727471813
 31
0.0
  0
INSERT
  5
59B
  8
回02-寸法
  6
CONTINUOUS
 62
     5
  2
_OPEN
 10
128.9967776571529
 20
1647.292727471813
 30
0.0
 41
1.5
 42
1.5
 43
1.5
 50
270.0
  0
INSERT
  5
59C
  8
回02-寸法
  6
CONTINUOUS
 62
     5
  2
_OPEN
 10
128.9967776571529
 20
1639.292727471813
 30
0.0
 41
1.5
 42
1.5
 43
1.5
 50
90.0
  0
TEXT
  5
59D
  8
回02-寸法
  6
CONTINUOUS
 62
     5
 10
128.4967776571529
 20
1628.8125652552
 30
0.0
 40
4.0
  1
8
 50
90.0
  0
POINT
  5
59E
  8
DEFPOINTS
  6
CONTINUOUS
 62
     0
 10
97.92338614559231
 20
1647.292727471813
 30
0.0
  0
POINT
  5
59F
  8
DEFPOINTS
  6
CONTINUOUS
 62
     0
 10
104.6733861455923
 20
1639.292727471813
 30
0.0
  0
POINT
  5
5A0
  8
DEFPOINTS
  6
CONTINUOUS
 62
     0
 10
128.9967776571529
 20
1639.292727471813
 30
0.0
  0
ENDBLK
  5
5A2
  8
0
  6
CONTINUOUS
 62
     5
  0
BLOCK
  8
0
  2
*D6262
 70
     1
 10
0.0
 20
0.0
 30
0.0
  3
*D6262
  1

  0
LINE
  5
5A4
  8
回02-寸法
  6
CONTINUOUS
 62
     5
 10
-150.5766138544077
 20
1834.292727471813
 30
0.0
 11
-150.5766138544077
 21
1863.610014797106
 31
0.0
  0
LINE
  5
5A5
  8
回02-寸法
  6
CONTINUOUS
 62
     5
 10
-158.3266138544077
 20
1840.292727471813
 30
0.0
 11
-158.3266138544077
 21
1863.610014797106
 31
0.0
  0
LINE
  5
5A6
  8
回02-寸法
  6
CONTINUOUS
 62
     5
 10
-159.8266138544077
 20
1862.610014797106
 30
0.0
 11
-177.8177357649449
 21
1862.610014797106
 31
0.0
  0
LINE
  5
5A7
  8
回02-寸法
  6
CONTINUOUS
 62
     5
 10
-150.5766138544077
 20
1862.610014797106
 30
0.0
 11
-158.3266138544077
 21
1862.610014797106
 31
0.0
  0
LINE
  5
5A8
  8
回02-寸法
  6
CONTINUOUS
 62
     5
 10
-149.0766138544077
 20
1862.610014797106
 30
0.0
 11
-147.5766138544077
 21
1862.610014797106
 31
0.0
  0
INSERT
  5
5A9
  8
回02-寸法
  6
CONTINUOUS
 62
     5
  2
_OPEN
 10
-150.5766138544077
 20
1862.610014797106
 30
0.0
 41
1.5
 42
1.5
 43
1.5
 50
180.0
  0
INSERT
  5
5AA
  8
回02-寸法
  6
CONTINUOUS
 62
     5
  2
_OPEN
 10
-158.3266138544077
 20
1862.610014797106
 30
0.0
 41
1.5
 42
1.5
 43
1.5
  0
TEXT
  5
5AB
  8
回02-寸法
  6
CONTINUOUS
 62
     5
 10
-177.9177357649448
 20
1863.110014797106
 30
0.0
 40
4.0
  1
7.75
  0
POINT
  5
5AC
  8
DEFPOINTS
  6
CONTINUOUS
 62
     0
 10
-150.5766138544077
 20
1834.292727471813
 30
0.0
  0
POINT
  5
5AD
  8
DEFPOINTS
  6
CONTINUOUS
 62
     0
 10
-158.3266138544077
 20
1840.292727471813
 30
0.0
  0
POINT
  5
5AE
  8
DEFPOINTS
  6
CONTINUOUS
 62
     0
 10
-158.3266138544077
 20
1862.610014797106
 30
0.0
  0
ENDBLK
  5
5B0
  8
0
  6
CONTINUOUS
 62
     5
  0
BLOCK
  8
0
  2
*D6363
 70
     1
 10
0.0
 20
0.0
 30
0.0
  3
*D6363
  1

  0
LINE
  5
5B2
  8
回02-寸法
  6
CONTINUOUS
 62
     5
 10
-148.5766138544077
 20
1832.292727471813
 30
0.0
 11
-148.5766138544077
 21
1856.163386540416
 31
0.0
  0
LINE
  5
5B3
  8
回02-寸法
  6
CONTINUOUS
 62
     5
 10
-158.3266138544077
 20
1840.292727471813
 30
0.0
 11
-158.3266138544077
 21
1856.163386540416
 31
0.0
  0
LINE
  5
5B4
  8
回02-寸法
  6
CONTINUOUS
 62
     5
 10
-159.8266138544077
 20
1855.163386540415
 30
0.0
 11
-175.9586059463046
 21
1855.163386540415
 31
0.0
  0
LINE
  5
5B5
  8
回02-寸法
  6
CONTINUOUS
 62
     5
 10
-148.5766138544077
 20
1855.163386540415
 30
0.0
 11
-158.3266138544077
 21
1855.163386540415
 31
0.0
  0
LINE
  5
5B6
  8
回02-寸法
  6
CONTINUOUS
 62
     5
 10
-147.0766138544077
 20
1855.163386540415
 30
0.0
 11
-145.5766138544077
 21
1855.163386540415
 31
0.0
  0
INSERT
  5
5B7
  8
回02-寸法
  6
CONTINUOUS
 62
     5
  2
_OPEN
 10
-148.5766138544077
 20
1855.163386540415
 30
0.0
 41
1.5
 42
1.5
 43
1.5
 50
180.0
  0
INSERT
  5
5B8
  8
回02-寸法
  6
CONTINUOUS
 62
     5
  2
_OPEN
 10
-158.3266138544077
 20
1855.163386540415
 30
0.0
 41
1.5
 42
1.5
 43
1.5
  0
TEXT
  5
5B9
  8
回02-寸法
  6
CONTINUOUS
 62
     5
 10
-176.0730474204126
 20
1855.663386540415
 30
0.0
 40
4.0
  1
9.75
  0
POINT
  5
5BA
  8
DEFPOINTS
  6
CONTINUOUS
 62
     0
 10
-148.5766138544077
 20
1832.292727471813
 30
0.0
  0
POINT
  5
5BB
  8
DEFPOINTS
  6
CONTINUOUS
 62
     0
 10
-158.3266138544077
 20
1840.292727471813
 30
0.0
  0
POINT
  5
5BC
  8
DEFPOINTS
  6
CONTINUOUS
 62
     0
 10
-158.3266138544077
 20
1855.163386540415
 30
0.0
  0
ENDBLK
  5
5BE
  8
0
  6
CONTINUOUS
 62
     5
  0
BLOCK
  8
0
  2
*D6464
 70
     1
 10
0.0
 20
0.0
 30
0.0
  3
*D6464
  1

  0
LINE
  5
5C0
  8
回02-寸法
  6
CONTINUOUS
 62
     5
 10
104.6733861455923
 20
1639.292727471813
 30
0.0
 11
152.4610963476061
 21
1639.292727471813
 31
0.0
  0
LINE
  5
5C1
  8
回02-寸法
  6
CONTINUOUS
 62
     5
 10
104.6733861455923
 20
1840.292727471813
 30
0.0
 11
152.4610963476061
 21
1840.292727471813
 31
0.0
  0
LINE
  5
5C2
  8
回02-寸法
  6
CONTINUOUS
 62
     5
 10
151.4610963476061
 20
1640.792727471813
 30
0.0
 11
151.4610963476061
 21
1838.792727471813
 31
0.0
  0
INSERT
  5
5C3
  8
回02-寸法
  6
CONTINUOUS
 62
     5
  2
_OPEN
 10
151.4610963476061
 20
1639.292727471813
 30
0.0
 41
1.5
 42
1.5
 43
1.5
 50
270.0
  0
INSERT
  5
5C4
  8
回02-寸法
  6
CONTINUOUS
 62
     5
  2
_OPEN
 10
151.4610963476061
 20
1840.292727471813
 30
0.0
 41
1.5
 42
1.5
 43
1.5
 50
90.0
  0
INSERT
  5
5C5
  8
回02-寸法
  6
CONTINUOUS
 62
     5
 66
     1
  2
*X103103
 10
0.0
 20
0.0
 30
0.0
  0
SEQEND
  5
75B
  8
0
  6
CONTINUOUS
 62
     5
  0
POINT
  5
5C6
  8
DEFPOINTS
  6
CONTINUOUS
 62
     0
 10
104.6733861455923
 20
1639.292727471813
 30
0.0
  0
POINT
  5
5C7
  8
DEFPOINTS
  6
CONTINUOUS
 62
     0
 10
104.6733861455923
 20
1840.292727471813
 30
0.0
  0
POINT
  5
5C8
  8
DEFPOINTS
  6
CONTINUOUS
 62
     0
 10
151.4610963476061
 20
1840.292727471813
 30
0.0
  0
ENDBLK
  5
5CA
  8
0
  6
CONTINUOUS
 62
     5
  0
BLOCK
  8
0
  2
*D6565
 70
     1
 10
0.0
 20
0.0
 30
0.0
  3
*D6565
  1

  0
LINE
  5
5CC
  8
回02-寸法
  6
CONTINUOUS
 62
     5
 10
99.9233861455923
 20
1834.292727471813
 30
0.0
 11
138.3480041172552
 21
1834.292727471813
 31
0.0
  0
LINE
  5
5CD
  8
回02-寸法
  6
CONTINUOUS
 62
     5
 10
99.9233861455923
 20
1645.292727471813
 30
0.0
 11
138.3480041172552
 21
1645.292727471813
 31
0.0
  0
LINE
  5
5CE
  8
回02-寸法
  6
CONTINUOUS
 62
     5
 10
137.3480041172552
 20
1832.792727471813
 30
0.0
 11
137.3480041172552
 21
1646.792727471813
 31
0.0
  0
INSERT
  5
5CF
  8
回02-寸法
  6
CONTINUOUS
 62
     5
  2
_OPEN
 10
137.3480041172552
 20
1834.292727471813
 30
0.0
 41
1.5
 42
1.5
 43
1.5
 50
90.0
  0
INSERT
  5
5D0
  8
回02-寸法
  6
CONTINUOUS
 62
     5
  2
_OPEN
 10
137.3480041172552
 20
1645.292727471813
 30
0.0
 41
1.5
 42
1.5
 43
1.5
 50
270.0
  0
INSERT
  5
5D1
  8
回02-寸法
  6
CONTINUOUS
 62
     5
 66
     1
  2
*X104104
 10
0.0
 20
0.0
 30
0.0
  0
SEQEND
  5
761
  8
0
  6
CONTINUOUS
 62
     5
  0
POINT
  5
5D2
  8
DEFPOINTS
  6
CONTINUOUS
 62
     0
 10
99.9233861455923
 20
1834.292727471813
 30
0.0
  0
POINT
  5
5D3
  8
DEFPOINTS
  6
CONTINUOUS
 62
     0
 10
99.9233861455923
 20
1645.292727471813
 30
0.0
  0
POINT
  5
5D4
  8
DEFPOINTS
  6
CONTINUOUS
 62
     0
 10
137.3480041172552
 20
1645.292727471813
 30
0.0
  0
ENDBLK
  5
5D6
  8
0
  6
CONTINUOUS
 62
     5
  0
BLOCK
  8
0
  2
*D6666
 70
     1
 10
0.0
 20
0.0
 30
0.0
  3
*D6666
  1

  0
LINE
  5
5D8
  8
回02-寸法
  6
CONTINUOUS
 62
     5
 10
97.92338614559231
 20
1647.292727471813
 30
0.0
 11
129.9967776571384
 21
1647.292727471813
 31
0.0
  0
LINE
  5
5D9
  8
回02-寸法
  6
CONTINUOUS
 62
     5
 10
97.92338614559231
 20
1832.292727471813
 30
0.0
 11
129.9967776571384
 21
1832.292727471813
 31
0.0
  0
LINE
  5
5DA
  8
回02-寸法
  6
CONTINUOUS
 62
     5
 10
128.9967776571384
 20
1648.792727471813
 30
0.0
 11
128.9967776571384
 21
1830.792727471813
 31
0.0
  0
INSERT
  5
5DB
  8
回02-寸法
  6
CONTINUOUS
 62
     5
  2
_OPEN
 10
128.9967776571384
 20
1647.292727471813
 30
0.0
 41
1.5
 42
1.5
 43
1.5
 50
270.0
  0
INSERT
  5
5DC
  8
回02-寸法
  6
CONTINUOUS
 62
     5
  2
_OPEN
 10
128.9967776571384
 20
1832.292727471813
 30
0.0
 41
1.5
 42
1.5
 43
1.5
 50
90.0
  0
INSERT
  5
5DD
  8
回02-寸法
  6
CONTINUOUS
 62
     5
 66
     1
  2
*X105105
 10
0.0
 20
0.0
 30
0.0
  0
SEQEND
  5
767
  8
0
  6
CONTINUOUS
 62
     5
  0
POINT
  5
5DE
  8
DEFPOINTS
  6
CONTINUOUS
 62
     0
 10
97.92338614559231
 20
1647.292727471813
 30
0.0
  0
POINT
  5
5DF
  8
DEFPOINTS
  6
CONTINUOUS
 62
     0
 10
97.92338614559231
 20
1832.292727471813
 30
0.0
  0
POINT
  5
5E0
  8
DEFPOINTS
  6
CONTINUOUS
 62
     0
 10
128.9967776571384
 20
1832.292727471813
 30
0.0
  0
ENDBLK
  5
5E2
  8
0
  6
CONTINUOUS
 62
     5
  0
BLOCK
  8
0
  2
*D6767
 70
     1
 10
0.0
 20
0.0
 30
0.0
  3
*D6767
  1

  0
LINE
  5
5E4
  8
回02-寸法
  6
CONTINUOUS
 62
     5
 10
-158.3266138544077
 20
1840.292727471813
 30
0.0
 11
-158.3266138544077
 21
1876.791213109086
 31
0.0
  0
LINE
  5
5E5
  8
回02-寸法
  6
CONTINUOUS
 62
     5
 10
104.6733861455923
 20
1840.292727471813
 30
0.0
 11
104.6733861455923
 21
1876.791213109086
 31
0.0
  0
LINE
  5
5E6
  8
回02-寸法
  6
CONTINUOUS
 62
     5
 10
-156.8266138544077
 20
1875.791213109086
 30
0.0
 11
103.1733861455923
 21
1875.791213109086
 31
0.0
  0
INSERT
  5
5E7
  8
回02-寸法
  6
CONTINUOUS
 62
     5
  2
_OPEN
 10
-158.3266138544077
 20
1875.791213109086
 30
0.0
 41
1.5
 42
1.5
 43
1.5
 50
180.0
  0
INSERT
  5
5E8
  8
回02-寸法
  6
CONTINUOUS
 62
     5
  2
_OPEN
 10
104.6733861455923
 20
1875.791213109086
 30
0.0
 41
1.5
 42
1.5
 43
1.5
  0
INSERT
  5
5E9
  8
回02-寸法
  6
CONTINUOUS
 62
     5
 66
     1
  2
*X106106
 10
0.0
 20
0.0
 30
0.0
  0
SEQEND
  5
76D
  8
0
  6
CONTINUOUS
 62
     5
  0
POINT
  5
5EA
  8
DEFPOINTS
  6
CONTINUOUS
 62
     0
 10
-158.3266138544077
 20
1840.292727471813
 30
0.0
  0
POINT
  5
5EB
  8
DEFPOINTS
  6
CONTINUOUS
 62
     0
 10
104.6733861455923
 20
1840.292727471813
 30
0.0
  0
POINT
  5
5EC
  8
DEFPOINTS
  6
CONTINUOUS
 62
     0
 10
104.6733861455923
 20
1875.791213109086
 30
0.0
  0
ENDBLK
  5
5EE
  8
0
  6
CONTINUOUS
 62
     5
  0
BLOCK
  8
0
  2
*D6868
 70
     1
 10
0.0
 20
0.0
 30
0.0
  3
*D6868
  1

  0
LINE
  5
5F0
  8
回02-寸法
  6
CONTINUOUS
 62
     5
 10
-150.5766138544077
 20
1834.292727471813
 30
0.0
 11
-150.5766138544077
 21
1863.610014797106
 31
0.0
  0
LINE
  5
5F1
  8
回02-寸法
  6
CONTINUOUS
 62
     5
 10
99.9233861455923
 20
1834.292727471813
 30
0.0
 11
99.9233861455923
 21
1863.610014797106
 31
0.0
  0
LINE
  5
5F2
  8
回02-寸法
  6
CONTINUOUS
 62
     5
 10
-149.0766138544077
 20
1862.610014797106
 30
0.0
 11
98.42338614559231
 21
1862.610014797106
 31
0.0
  0
INSERT
  5
5F3
  8
回02-寸法
  6
CONTINUOUS
 62
     5
  2
_OPEN
 10
-150.5766138544077
 20
1862.610014797106
 30
0.0
 41
1.5
 42
1.5
 43
1.5
 50
180.0
  0
INSERT
  5
5F4
  8
回02-寸法
  6
CONTINUOUS
 62
     5
  2
_OPEN
 10
99.9233861455923
 20
1862.610014797106
 30
0.0
 41
1.5
 42
1.5
 43
1.5
  0
INSERT
  5
5F5
  8
回02-寸法
  6
CONTINUOUS
 62
     5
 66
     1
  2
*X107107
 10
0.0
 20
0.0
 30
0.0
  0
SEQEND
  5
773
  8
0
  6
CONTINUOUS
 62
     5
  0
POINT
  5
5F6
  8
DEFPOINTS
  6
CONTINUOUS
 62
     0
 10
-150.5766138544077
 20
1834.292727471813
 30
0.0
  0
POINT
  5
5F7
  8
DEFPOINTS
  6
CONTINUOUS
 62
     0
 10
99.9233861455923
 20
1834.292727471813
 30
0.0
  0
POINT
  5
5F8
  8
DEFPOINTS
  6
CONTINUOUS
 62
     0
 10
99.9233861455923
 20
1862.610014797106
 30
0.0
  0
ENDBLK
  5
5FA
  8
0
  6
CONTINUOUS
 62
     5
  0
BLOCK
  8
0
  2
*D6969
 70
     1
 10
0.0
 20
0.0
 30
0.0
  3
*D6969
  1

  0
LINE
  5
5FC
  8
回02-寸法
  6
CONTINUOUS
 62
     5
 10
-148.5766138544077
 20
1832.292727471813
 30
0.0
 11
-148.5766138544077
 21
1856.163386540416
 31
0.0
  0
LINE
  5
5FD
  8
回02-寸法
  6
CONTINUOUS
 62
     5
 10
97.92338614559231
 20
1832.292727471813
 30
0.0
 11
97.92338614559231
 21
1856.163386540416
 31
0.0
  0
LINE
  5
5FE
  8
回02-寸法
  6
CONTINUOUS
 62
     5
 10
-147.0766138544077
 20
1855.163386540415
 30
0.0
 11
96.42338614559228
 21
1855.163386540415
 31
0.0
  0
INSERT
  5
5FF
  8
回02-寸法
  6
CONTINUOUS
 62
     5
  2
_OPEN
 10
-148.5766138544077
 20
1855.163386540415
 30
0.0
 41
1.5
 42
1.5
 43
1.5
 50
180.0
  0
INSERT
  5
600
  8
回02-寸法
  6
CONTINUOUS
 62
     5
  2
_OPEN
 10
97.92338614559231
 20
1855.163386540415
 30
0.0
 41
1.5
 42
1.5
 43
1.5
  0
INSERT
  5
601
  8
回02-寸法
  6
CONTINUOUS
 62
     5
 66
     1
  2
*X108108
 10
0.0
 20
0.0
 30
0.0
  0
SEQEND
  5
779
  8
0
  6
CONTINUOUS
 62
     5
  0
POINT
  5
602
  8
DEFPOINTS
  6
CONTINUOUS
 62
     0
 10
-148.5766138544077
 20
1832.292727471813
 30
0.0
  0
POINT
  5
603
  8
DEFPOINTS
  6
CONTINUOUS
 62
     0
 10
97.92338614559231
 20
1832.292727471813
 30
0.0
  0
POINT
  5
604
  8
DEFPOINTS
  6
CONTINUOUS
 62
     0
 10
97.92338614559231
 20
1855.163386540415
 30
0.0
  0
ENDBLK
  5
606
  8
0
  6
CONTINUOUS
 62
     5
  0
BLOCK
  8
0
  2
*D7070
 70
     1
 10
0.0
 20
0.0
 30
0.0
  3
*D7070
  1

  0
LINE
  5
608
  8
回02-寸法
  6
CONTINUOUS
 62
     5
 10
2.673386145592303
 20
1703.792727471813
 30
0.0
 11
2.673386145592303
 21
1694.61750399116
 31
0.0
  0
LINE
  5
609
  8
回02-寸法
  6
CONTINUOUS
 62
     5
 10
6.673386145592303
 20
1703.792727471813
 30
0.0
 11
6.673386145592303
 21
1694.61750399116
 31
0.0
  0
LINE
  5
60A
  8
回02-寸法
  6
CONTINUOUS
 62
     5
 10
4.173386145592303
 20
1695.61750399116
 30
0.0
 11
5.173386145592302
 21
1695.61750399116
 31
0.0
  0
INSERT
  5
60B
  8
回02-寸法
  6
CONTINUOUS
 62
     5
  2
_OPEN
 10
2.673386145592303
 20
1695.61750399116
 30
0.0
 41
1.5
 42
1.5
 43
1.5
 50
180.0
  0
INSERT
  5
60C
  8
回02-寸法
  6
CONTINUOUS
 62
     5
  2
_OPEN
 10
6.673386145592303
 20
1695.61750399116
 30
0.0
 41
1.5
 42
1.5
 43
1.5
  0
TEXT
  5
60D
  8
回02-寸法
  6
CONTINUOUS
 62
     5
 10
3.073386145592303
 20
1696.11750399116
 30
0.0
 40
4.0
  1
4
  0
POINT
  5
60E
  8
DEFPOINTS
  6
CONTINUOUS
 62
     0
 10
2.673386145592303
 20
1703.792727471813
 30
0.0
  0
POINT
  5
60F
  8
DEFPOINTS
  6
CONTINUOUS
 62
     0
 10
6.673386145592303
 20
1703.792727471813
 30
0.0
  0
POINT
  5
610
  8
DEFPOINTS
  6
CONTINUOUS
 62
     0
 10
6.673386145592303
 20
1695.61750399116
 30
0.0
  0
ENDBLK
  5
612
  8
0
  6
CONTINUOUS
 62
     5
  0
BLOCK
  8
0
  2
*D7171
 70
     1
 10
0.0
 20
0.0
 30
0.0
  3
*D7171
  1

  0
LINE
  5
614
  8
回02-寸法
  6
CONTINUOUS
 62
     5
 10
10.6733861455923
 20
1715.792727471813
 30
0.0
 11
21.80002176136895
 21
1715.792727471813
 31
0.0
  0
LINE
  5
615
  8
回02-寸法
  6
CONTINUOUS
 62
     5
 10
10.6733861455923
 20
1711.792727471813
 30
0.0
 11
21.80002176136895
 21
1711.792727471813
 31
0.0
  0
LINE
  5
616
  8
回02-寸法
  6
CONTINUOUS
 62
     5
 10
20.80002176136895
 20
1714.292727471813
 30
0.0
 11
20.80002176136895
 21
1713.292727471813
 31
0.0
  0
INSERT
  5
617
  8
回02-寸法
  6
CONTINUOUS
 62
     5
  2
_OPEN
 10
20.80002176136895
 20
1715.792727471813
 30
0.0
 41
1.5
 42
1.5
 43
1.5
 50
90.0
  0
INSERT
  5
618
  8
回02-寸法
  6
CONTINUOUS
 62
     5
  2
_OPEN
 10
20.80002176136895
 20
1711.792727471813
 30
0.0
 41
1.5
 42
1.5
 43
1.5
 50
270.0
  0
TEXT
  5
619
  8
回02-寸法
  6
CONTINUOUS
 62
     5
 10
20.30002176136895
 20
1712.192727471813
 30
0.0
 40
4.0
  1
4
 50
90.0
  0
POINT
  5
61A
  8
DEFPOINTS
  6
CONTINUOUS
 62
     0
 10
10.6733861455923
 20
1715.792727471813
 30
0.0
  0
POINT
  5
61B
  8
DEFPOINTS
  6
CONTINUOUS
 62
     0
 10
10.6733861455923
 20
1711.792727471813
 30
0.0
  0
POINT
  5
61C
  8
DEFPOINTS
  6
CONTINUOUS
 62
     0
 10
20.80002176136895
 20
1711.792727471813
 30
0.0
  0
ENDBLK
  5
61E
  8
0
  6
CONTINUOUS
 62
     5
  0
BLOCK
  8
0
  2
*D7272
 70
     1
 10
0.0
 20
0.0
 30
0.0
  3
*D7272
  1

  0
LINE
  5
620
  8
回02-寸法
  6
CONTINUOUS
 62
     5
 10
-158.3266138544077
 20
1731.126467941208
 30
0.0
 11
-158.3266138544077
 21
1723.470316134765
 31
0.0
  0
LINE
  5
621
  8
回02-寸法
  6
CONTINUOUS
 62
     5
 10
-162.92711636697
 20
1731.892746204979
 30
0.0
 11
-162.92711636697
 21
1723.470316134765
 31
0.0
  0
LINE
  5
622
  8
回02-寸法
  6
CONTINUOUS
 62
     5
 10
-164.92711636697
 20
1724.470316134764
 30
0.0
 11
-176.56313672905
 21
1724.470316134764
 31
0.0
  0
LINE
  5
623
  8
回02-寸法
  6
CONTINUOUS
 62
     5
 10
-158.3266138544077
 20
1724.470316134764
 30
0.0
 11
-162.92711636697
 21
1724.470316134764
 31
0.0
  0
LINE
  5
624
  8
回02-寸法
  6
CONTINUOUS
 62
     5
 10
-156.3266138544077
 20
1724.470316134764
 30
0.0
 11
-154.3266138544077
 21
1724.470316134764
 31
0.0
  0
INSERT
  5
625
  8
回02-寸法
  6
CONTINUOUS
 62
     5
  2
_OPEN
 10
-158.3266138544077
 20
1724.470316134764
 30
0.0
 41
2.0
 42
2.0
 43
2.0
 50
180.0
  0
INSERT
  5
626
  8
回02-寸法
  6
CONTINUOUS
 62
     5
  2
_OPEN
 10
-162.92711636697
 20
1724.470316134764
 30
0.0
 41
2.0
 42
2.0
 43
2.0
  0
TEXT
  5
627
  8
回02-寸法
  6
CONTINUOUS
 62
     5
 10
-176.6631367290499
 20
1724.970316134764
 30
0.0
 40
4.0
  1
4.6
  0
POINT
  5
628
  8
DEFPOINTS
  6
CONTINUOUS
 62
     0
 10
-158.3266138544077
 20
1731.126467941208
 30
0.0
  0
POINT
  5
629
  8
DEFPOINTS
  6
CONTINUOUS
 62
     0
 10
-162.92711636697
 20
1731.892746204979
 30
0.0
  0
POINT
  5
62A
  8
DEFPOINTS
  6
CONTINUOUS
 62
     0
 10
-162.92711636697
 20
1724.470316134764
 30
0.0
  0
ENDBLK
  5
62C
  8
0
  6
CONTINUOUS
 62
     5
  0
BLOCK
  8
0
  2
*D7373
 70
     1
 10
0.0
 20
0.0
 30
0.0
  3
*D7373
  1

  0
LINE
  5
62E
  8
回02-寸法
 62
     5
 10
-237.8266573651745
 20
1742.928592285675
 30
0.0
 11
-249.7697024133458
 21
1742.928592285675
 31
0.0
  0
LINE
  5
62F
  8
回02-寸法
 62
     5
 10
-237.8266573651745
 20
1736.678592285675
 30
0.0
 11
-249.7697024133458
 21
1736.678592285675
 31
0.0
  0
LINE
  5
630
  8
回02-寸法
 62
     5
 10
-248.7697024133459
 20
1744.928592285675
 30
0.0
 11
-248.7697024133459
 21
1765.39611150433
 31
0.0
  0
LINE
  5
631
  8
回02-寸法
 62
     5
 10
-248.7697024133459
 20
1742.928592285675
 30
0.0
 11
-248.7697024133459
 21
1736.678592285675
 31
0.0
  0
LINE
  5
632
  8
回02-寸法
 62
     5
 10
-248.7697024133459
 20
1734.678592285675
 30
0.0
 11
-248.7697024133459
 21
1732.678592285675
 31
0.0
  0
INSERT
  5
633
  8
回02-寸法
  6
CONTINUOUS
 62
     5
  2
_OPEN
 10
-248.7697024133459
 20
1742.928592285675
 30
0.0
 41
2.0
 42
2.0
 43
2.0
 50
270.0
  0
INSERT
  5
634
  8
回02-寸法
  6
CONTINUOUS
 62
     5
  2
_OPEN
 10
-248.7697024133459
 20
1736.678592285675
 30
0.0
 41
2.0
 42
2.0
 43
2.0
 50
90.0
  0
INSERT
  5
635
  8
回02-寸法
  6
CONTINUOUS
 62
     5
 66
     1
  2
*X109109
 10
0.0
 20
0.0
 30
0.0
  0
SEQEND
  5
77F
  8
0
  6
CONTINUOUS
 62
     5
  0
POINT
  5
636
  8
DEFPOINTS
  6
CONTINUOUS
 62
     0
 10
-237.8266573651745
 20
1742.928592285675
 30
0.0
  0
POINT
  5
637
  8
DEFPOINTS
  6
CONTINUOUS
 62
     0
 10
-237.8266573651745
 20
1736.678592285675
 30
0.0
  0
POINT
  5
638
  8
DEFPOINTS
  6
CONTINUOUS
 62
     0
 10
-248.7697024133459
 20
1736.678592285675
 30
0.0
  0
ENDBLK
  5
63A
  8
0
  6
CONTINUOUS
 62
     5
  0
BLOCK
  8
0
  2
*D7474
 70
     1
 10
0.0
 20
0.0
 30
0.0
  3
*D7474
  1

  0
LINE
  5
63C
  8
回02-寸法
  6
CONTINUOUS
 62
     5
 10
-158.3266573651763
 20
1728.932524473808
 30
0.0
 11
-158.3266573651763
 21
1715.807286197778
 31
0.0
  0
LINE
  5
63D
  8
回02-寸法
  6
CONTINUOUS
 62
     5
 10
-167.822544974435
 20
1736.585402829466
 30
0.0
 11
-167.822544974435
 21
1715.807286197778
 31
0.0
  0
LINE
  5
63E
  8
回02-寸法
  6
CONTINUOUS
 62
     5
 10
-169.822544974435
 20
1716.807286197778
 30
0.0
 11
-179.3296517556217
 21
1716.807286197778
 31
0.0
  0
LINE
  5
63F
  8
回02-寸法
  6
CONTINUOUS
 62
     5
 10
-158.3266573651763
 20
1716.807286197778
 30
0.0
 11
-167.822544974435
 21
1716.807286197778
 31
0.0
  0
LINE
  5
640
  8
回02-寸法
  6
CONTINUOUS
 62
     5
 10
-156.3266573651763
 20
1716.807286197778
 30
0.0
 11
-154.3266573651763
 21
1716.807286197778
 31
0.0
  0
INSERT
  5
641
  8
回02-寸法
  6
CONTINUOUS
 62
     5
  2
_OPEN
 10
-158.3266573651763
 20
1716.807286197778
 30
0.0
 41
2.0
 42
2.0
 43
2.0
 50
180.0
  0
INSERT
  5
642
  8
回02-寸法
  6
CONTINUOUS
 62
     5
  2
_OPEN
 10
-167.822544974435
 20
1716.807286197778
 30
0.0
 41
2.0
 42
2.0
 43
2.0
  0
TEXT
  5
643
  8
回02-寸法
  6
CONTINUOUS
 62
     5
 10
-179.4440932297296
 20
1717.307286197778
 30
0.0
 40
4.0
  1
9.5
  0
POINT
  5
644
  8
DEFPOINTS
  6
CONTINUOUS
 62
     0
 10
-158.3266573651763
 20
1728.932524473808
 30
0.0
  0
POINT
  5
645
  8
DEFPOINTS
  6
CONTINUOUS
 62
     0
 10
-167.822544974435
 20
1736.585402829466
 30
0.0
  0
POINT
  5
646
  8
DEFPOINTS
  6
CONTINUOUS
 62
     0
 10
-167.822544974435
 20
1716.807286197778
 30
0.0
  0
ENDBLK
  5
648
  8
0
  6
CONTINUOUS
 62
     5
  0
BLOCK
  8
0
  2
*D7575
 70
     1
 10
0.0
 20
0.0
 30
0.0
  3
*D7575
  1

  0
LINE
  5
64A
  8
回02-寸法
  6
CONTINUOUS
 62
     5
 10
-158.3266138544077
 20
1748.480716829866
 30
0.0
 11
-158.3266138544077
 21
1770.708973140655
 31
0.0
  0
LINE
  5
64B
  8
回02-寸法
  6
CONTINUOUS
 62
     5
 10
-238.3266573651754
 20
1742.428592285675
 30
0.0
 11
-238.3266573651754
 21
1770.708973140655
 31
0.0
  0
LINE
  5
64C
  8
回02-寸法
  6
CONTINUOUS
 62
     5
 10
-159.8266138544077
 20
1769.708973140655
 30
0.0
 11
-236.8266573651754
 21
1769.708973140655
 31
0.0
  0
INSERT
  5
64D
  8
回02-寸法
  6
CONTINUOUS
 62
     5
  2
_OPEN
 10
-158.3266138544077
 20
1769.708973140655
 30
0.0
 41
1.5
 42
1.5
 43
1.5
  0
INSERT
  5
64E
  8
回02-寸法
  6
CONTINUOUS
 62
     5
  2
_OPEN
 10
-238.3266573651754
 20
1769.708973140655
 30
0.0
 41
1.5
 42
1.5
 43
1.5
 50
180.0
  0
INSERT
  5
64F
  8
回02-寸法
  6
CONTINUOUS
 62
     5
 66
     1
  2
*X110110
 10
0.0
 20
0.0
 30
0.0
  0
SEQEND
  5
785
  8
0
  6
CONTINUOUS
 62
     5
  0
POINT
  5
650
  8
DEFPOINTS
  6
CONTINUOUS
 62
     0
 10
-158.3266138544077
 20
1748.480716829866
 30
0.0
  0
POINT
  5
651
  8
DEFPOINTS
  6
CONTINUOUS
 62
     0
 10
-238.3266573651754
 20
1742.428592285675
 30
0.0
  0
POINT
  5
652
  8
DEFPOINTS
  6
CONTINUOUS
 62
     0
 10
-238.3266573651754
 20
1769.708973140655
 30
0.0
  0
ENDBLK
  5
654
  8
0
  6
CONTINUOUS
 62
     5
  0
BLOCK
  8
0
  2
*D7676
 70
     1
 10
0.0
 20
0.0
 30
0.0
  3
*D7676
  1

  0
LINE
  5
656
  8
回02-寸法
  6
CONTINUOUS
 62
     5
 10
-162.5185437627724
 20
1747.802389251404
 30
0.0
 11
-186.8883016902109
 21
1747.802389251404
 31
0.0
  0
LINE
  5
657
  8
回02-寸法
  6
CONTINUOUS
 62
     5
 10
-162.5143701770666
 20
1731.803592285675
 30
0.0
 11
-186.8883016902109
 21
1731.803592285675
 31
0.0
  0
LINE
  5
658
  8
回02-寸法
  6
CONTINUOUS
 62
     5
 10
-185.8883016902109
 20
1729.803592285675
 30
0.0
 11
-185.8883016902109
 21
1720.191057414943
 31
0.0
  0
LINE
  5
659
  8
回02-寸法
  6
CONTINUOUS
 62
     5
 10
-185.8883016902109
 20
1747.802389251404
 30
0.0
 11
-185.8883016902109
 21
1731.803592285675
 31
0.0
  0
LINE
  5
65A
  8
回02-寸法
  6
CONTINUOUS
 62
     5
 10
-185.8883016902109
 20
1749.802389251404
 30
0.0
 11
-185.8883016902109
 21
1751.802389251404
 31
0.0
  0
INSERT
  5
65B
  8
回02-寸法
  6
CONTINUOUS
 62
     5
  2
_OPEN
 10
-185.8883016902109
 20
1747.802389251404
 30
0.0
 41
2.0
 42
2.0
 43
2.0
 50
270.0
  0
INSERT
  5
65C
  8
回02-寸法
  6
CONTINUOUS
 62
     5
  2
_OPEN
 10
-185.8883016902109
 20
1731.803592285675
 30
0.0
 41
2.0
 42
2.0
 43
2.0
 50
90.0
  0
TEXT
  5
65D
  8
回02-寸法
  6
CONTINUOUS
 62
     5
 10
-186.3883016902109
 20
1720.091057414944
 30
0.0
 40
4.0
  1
16
 50
90.0
  0
POINT
  5
65E
  8
DEFPOINTS
  6
CONTINUOUS
 62
     0
 10
-162.5185437627724
 20
1747.802389251404
 30
0.0
  0
POINT
  5
65F
  8
DEFPOINTS
  6
CONTINUOUS
 62
     0
 10
-162.5143701770666
 20
1731.803592285675
 30
0.0
  0
POINT
  5
660
  8
DEFPOINTS
  6
CONTINUOUS
 62
     0
 10
-185.8883016902109
 20
1731.803592285675
 30
0.0
  0
ENDBLK
  5
662
  8
0
  6
CONTINUOUS
 62
     5
  0
BLOCK
  8
0
  2
*X7777
 70
     1
 10
0.0
 20
0.0
 30
0.0
  3
*X7777
  1

  0
SOLID
  5
667
  8
回02-寸法
 62
     5
 10
-225.6412863860877
 20
1820.68146375314
 30
0.0
 11
-225.0315432409379
 21
1819.288368890274
 31
0.0
 12
-226.0601418472793
 22
1820.408406794558
 32
0.0
 13
-226.0601418472793
 23
1820.408406794558
 33
0.0
  0
LINE
  5
668
  8
回02-寸法
 62
     5
 10
-225.8507141166835
 20
1820.544935273849
 30
0.0
 11
-228.9685492147401
 21
1825.327535448912
 31
0.0
  0
LINE
  5
669
  8
回02-寸法
 62
     5
 10
-228.9685492147401
 20
1825.327535448912
 30
0.0
 11
-230.9685492147401
 21
1825.327535448912
 31
0.0
  0
ENDBLK
  5
66B
  8
0
  6
CONTINUOUS
 62
     5
  0
BLOCK
  8
0
  2
*X7878
 70
     1
 10
0.0
 20
0.0
 30
0.0
  3
*X7878
  1

  0
SOLID
  5
67A
  8
回03-記事
  6
CONTINUOUS
 62
     5
 10
-237.4090937403083
 20
1602.211935337104
 30
0.0
 11
-235.9065380242782
 21
1600.850525247772
 31
0.0
 12
-237.7694129197659
 22
1601.651030235184
 32
0.0
 13
-237.7694129197659
 23
1601.651030235184
 33
0.0
  0
LINE
  5
67B
  8
回03-記事
  6
CONTINUOUS
 62
     5
 10
-237.5892533300371
 20
1601.931482786144
 30
0.0
 11
-244.3711024225258
 21
1606.2880669781
 31
0.0
  0
LINE
  5
67C
  8
回03-記事
  6
CONTINUOUS
 62
     5
 10
-244.3711024225258
 20
1606.2880669781
 30
0.0
 11
-278.4811024225259
 21
1606.2880669781
 31
0.0
  0
ENDBLK
  5
67E
  8
0
  6
CONTINUOUS
 62
     5
  0
BLOCK
  8
0
  2
*X7979
 70
     1
 10
0.0
 20
0.0
 30
0.0
  3
*X7979
  1

  0
SOLID
  5
681
  8
回03-記事
  6
CONTINUOUS
 62
     5
 10
-234.3340979922891
 20
1744.406624974906
 30
0.0
 11
-235.712652533286
 21
1742.919783191592
 31
0.0
 12
-234.890833410715
 22
1744.773353918834
 32
0.0
 13
-234.890833410715
 23
1744.773353918834
 33
0.0
  0
LINE
  5
682
  8
回03-記事
  6
CONTINUOUS
 62
     5
 10
-234.6124657015021
 20
1744.58998944687
 30
0.0
 11
-231.8524794007972
 21
1748.779956324082
 31
0.0
  0
LINE
  5
683
  8
回03-記事
  6
CONTINUOUS
 62
     5
 10
-231.8524794007972
 20
1748.779956324082
 30
0.0
 11
-229.3524794007971
 21
1748.779956324082
 31
0.0
  0
ENDBLK
  5
685
  8
0
  6
CONTINUOUS
 62
     5
  0
BLOCK
  8
0
  2
*X8080
 70
     1
 10
0.0
 20
0.0
 30
0.0
  3
*X8080
  1

  0
SOLID
  5
688
  8
回03-記事
  6
CONTINUOUS
 62
     5
 10
-160.7585842369434
 20
1732.511165631422
 30
0.0
 11
-159.7683526151377
 21
1734.28050235638
 31
0.0
 12
-160.1312192655079
 22
1732.285649252724
 32
0.0
 13
-160.1312192655079
 23
1732.285649252724
 33
0.0
  0
LINE
  5
689
  8
回03-記事
  6
CONTINUOUS
 62
     5
 10
-160.4449017512256
 20
1732.398407442073
 30
0.0
 11
-169.659703714311
 21
1706.763710734973
 31
0.0
  0
LINE
  5
68A
  8
回03-記事
  6
CONTINUOUS
 62
     5
 10
-169.659703714311
 20
1706.763710734973
 30
0.0
 11
-215.359703714311
 21
1706.763710734973
 31
0.0
  0
ENDBLK
  5
68C
  8
0
  6
CONTINUOUS
 62
     5
  0
BLOCK
  8
0
  2
*X8181
 70
     1
 10
0.0
 20
0.0
 30
0.0
  3
*X8181
  1

  0
SOLID
  5
68F
  8
回02-寸法
  6
CONTINUOUS
 62
     5
 10
-159.1083548199508
 20
1750.440681010597
 30
0.0
 11
-158.2135392362215
 21
1748.621226097106
 31
0.0
 12
-159.650079895476
 22
1750.052121636766
 32
0.0
 13
-159.650079895476
 23
1750.052121636766
 33
0.0
  0
LINE
  5
690
  8
回02-寸法
  6
CONTINUOUS
 62
     5
 10
-159.3792173577134
 20
1750.246401323682
 30
0.0
 11
-162.0658500551417
 21
1753.992074183338
 31
0.0
  0
LINE
  5
691
  8
回02-寸法
  6
CONTINUOUS
 62
     5
 10
-162.0658500551417
 20
1753.992074183338
 30
0.0
 11
-164.5658500551417
 21
1753.992074183338
 31
0.0
  0
ENDBLK
  5
693
  8
0
  6
CONTINUOUS
 62
     5
  0
BLOCK
  8
0
  2
*X8282
 70
     1
 10
0.0
 20
0.0
 30
0.0
  3
*X8282
  1

  0
SOLID
  5
696
  8
回02-寸法
  6
CONTINUOUS
 62
     5
 10
-168.2947854560671
 20
1744.983892501795
 30
0.0
 11
-167.856136544704
 21
1743.004322284886
 31
0.0
 12
-168.9130974771529
 22
1744.734624194492
 32
0.0
 13
-168.9130974771529
 23
1744.734624194492
 33
0.0
  0
LINE
  5
697
  8
回02-寸法
  6
CONTINUOUS
 62
     5
 10
-168.60394146661
 20
1744.859258348142
 30
0.0
 11
-170.2574397304251
 21
1748.960773957678
 31
0.0
  0
LINE
  5
698
  8
回02-寸法
  6
CONTINUOUS
 62
     5
 10
-170.2574397304251
 20
1748.960773957678
 30
0.0
 11
-172.7574397304252
 21
1748.960773957678
 31
0.0
  0
ENDBLK
  5
69A
  8
0
  6
CONTINUOUS
 62
     5
  0
BLOCK
  8
0
  2
*X8383
 70
     1
 10
0.0
 20
0.0
 30
0.0
  3
*X8383
  1

  0
TEXT
  5
6A7
  8
回02-寸法
  6
CONTINUOUS
 62
     5
 10
14.6477272436292
 20
1724.51706856985
 30
0.0
 40
3.0
  1
φ0.05
  0
POLYLINE
  5
6A8
  8
回02-寸法
  6
BYBLOCK
 62
     5
 66
     1
 10
0.0
 20
0.0
 30
0.0
  0
VERTEX
  5
A11
  8
回02-寸法
  6
BYBLOCK
 62
     5
 10
12.14545305239743
 20
1721.146617800417
 30
0.0
  0
VERTEX
  5
A13
  8
回02-寸法
  6
BYBLOCK
 62
     5
 10
15.15772724362919
 20
1723.917068569849
 30
0.0
  0
SEQEND
  5
A12
  8
0
  6
CONTINUOUS
 62
     5
  0
SOLID
  5
6AC
  8
回02-寸法
  6
CONTINUOUS
 62
     5
 10
12.37110144049821
 20
1720.90127331595
 30
0.0
 11
10.6733861455923
 21
1719.792727471813
 31
0.0
 12
11.91980466429666
 22
1721.391962284885
 32
0.0
 13
11.91980466429666
 23
1721.391962284885
 33
0.0
  0
POLYLINE
  5
6AD
  8
回02-寸法
  6
BYBLOCK
 62
     5
 66
     1
 10
0.0
 20
0.0
 30
0.0
  0
VERTEX
  5
A14
  8
回02-寸法
  6
BYBLOCK
 62
     5
 10
15.15772724362919
 20
1723.917068569849
 30
0.0
  0
VERTEX
  5
A16
  8
回02-寸法
  6
BYBLOCK
 62
     5
 10
24.9977272436292
 20
1723.917068569849
 30
0.0
  0
SEQEND
  5
A15
  8
0
  6
CONTINUOUS
 62
     5
  0
ENDBLK
  5
6B2
  8
0
  6
CONTINUOUS
 62
     5
  0
BLOCK
  8
0
  2
*X8484
 70
     1
 10
0.0
 20
0.0
 30
0.0
  3
*X8484
  1

  0
LINE
  5
6D2
  8
回03-記事
  6
CONTINUOUS
 62
     7
 10
-162.4266138544071
 20
1736.472435458212
 30
0.0
 11
-160.3454570269439
 21
1738.553592285675
 31
0.0
  0
LINE
  5
6D3
  8
回03-記事
  6
CONTINUOUS
 62
     7
 10
-162.4266138544071
 20
1734.227371427945
 30
0.0
 11
-158.1003929966767
 21
1738.553592285675
 31
0.0
  0
LINE
  5
6D4
  8
回03-記事
  6
CONTINUOUS
 62
     7
 10
-161.8553289664095
 20
1732.553592285675
 30
0.0
 11
-155.8553289664095
 21
1738.553592285675
 31
0.0
  0
LINE
  5
6D5
  8
回03-記事
  6
CONTINUOUS
 62
     7
 10
-159.6102649361423
 20
1732.553592285675
 30
0.0
 11
-154.226613854407
 21
1737.93724336741
 31
0.0
  0
LINE
  5
6D6
  8
回03-記事
  6
CONTINUOUS
 62
     7
 10
-157.365200905875
 20
1732.553592285675
 30
0.0
 11
-154.2266138544072
 21
1735.692179337143
 31
0.0
  0
LINE
  5
6D7
  8
回03-記事
  6
CONTINUOUS
 62
     7
 10
-155.1201368756078
 20
1732.553592285675
 30
0.0
 11
-154.2266138544075
 21
1733.447115306875
 31
0.0
  0
ENDBLK
  5
6D9
  8
0
  6
CONTINUOUS
 62
     5
  0
BLOCK
  8
0
  2
*X8585
 70
     1
 10
0.0
 20
0.0
 30
0.0
  3
*X8585
  1

  0
TEXT
  5
6EB
  8
回02-寸法
  6
CONTINUOUS
 62
     5
 10
-5650.051523183797
 20
1106.732238640177
 30
0.0
 40
4.0
  1
80
  0
TEXT
  5
6EC
  8
回02-寸法
  6
CONTINUOUS
 62
     5
 10
-5644.451523183796
 20
1106.732238640177
 30
0.0
 40
2.799999999999998
  1
±1
  0
ENDBLK
  5
6EE
  8
0
  6
CONTINUOUS
 62
     5
  0
BLOCK
  8
0
  2
*X8686
 70
     1
 10
0.0
 20
0.0
 30
0.0
  3
*X8686
  1

  0
TEXT
  5
6F1
  8
回02-寸法
 62
     5
 10
-5696.424983688138
 20
1085.518757857883
 30
0.0
 40
4.0
  1
6.25
 50
90.0
  0
TEXT
  5
6F2
  8
回02-寸法
 62
     5
 10
-5696.424983688138
 20
1095.118757857884
 30
0.0
 40
2.799999999999998
  1
±0.2
 50
90.0
  0
ENDBLK
  5
6F4
  8
0
  6
CONTINUOUS
 62
     5
  0
BLOCK
  8
0
  2
*X8787
 70
     1
 10
0.0
 20
0.0
 30
0.0
  3
*X8787
  1

  0
TEXT
  5
6F7
  8
回02-寸法
  6
CONTINUOUS
 62
     5
 10
-5493.65591087723
 20
1192.337045740724
 30
0.0
 40
4.0
  1
246.5 
  0
TEXT
  5
6F8
  8
回02-寸法
  6
CONTINUOUS
 62
     5
 10
-5478.455910877232
 20
1192.337045740724
 30
0.0
 40
3.0
  1
(ACTIVE AREA)
  0
ENDBLK
  5
6FA
  8
0
  6
CONTINUOUS
 62
     5
  0
BLOCK
  8
0
  2
*X8888
 70
     1
 10
0.0
 20
0.0
 30
0.0
  3
*X8888
  1

  0
TEXT
  5
6FD
  8
回02-寸法
  6
CONTINUOUS
 62
     5
 10
-5494.355910877231
 20
1199.783673997415
 30
0.0
 40
4.0
  1
250.5 
  0
TEXT
  5
6FE
  8
回02-寸法
  6
CONTINUOUS
 62
     5
 10
-5479.55591087723
 20
1199.783673997415
 30
0.0
 40
3.0
  1
(VIEWING AREA)
  0
ENDBLK
  5
700
  8
0
  6
CONTINUOUS
 62
     5
  0
BLOCK
  8
0
  2
*X8989
 70
     1
 10
0.0
 20
0.0
 30
0.0
  3
*X8989
  1

  0
TEXT
  5
703
  8
回02-寸法
  6
CONTINUOUS
 62
     5
 10
-5480.156501428411
 20
1212.814872309395
 30
0.0
 40
4.0
  1
263
  0
TEXT
  5
704
  8
回02-寸法
  6
CONTINUOUS
 62
     5
 10
-5471.756501428412
 20
1212.814872309395
 30
0.0
 40
2.799999999999998
  1
±0.3
  0
ENDBLK
  5
706
  8
0
  6
CONTINUOUS
 62
     5
  0
BLOCK
  8
0
  2
*X9090
 70
     1
 10
0.0
 20
0.0
 30
0.0
  3
*X9090
  1

  0
TEXT
  5
709
  8
回02-寸法
  6
CONTINUOUS
 62
     5
 10
-5318.808109916865
 20
1057.741583522517
 30
0.0
 40
4.0
  1
185 
 50
90.0
  0
TEXT
  5
70A
  8
回02-寸法
  6
CONTINUOUS
 62
     5
 10
-5318.808109916865
 20
1067.741583522517
 30
0.0
 40
3.0
  1
(ACTIVE AREA)
 50
90.0
  0
ENDBLK
  5
70C
  8
0
  6
CONTINUOUS
 62
     5
  0
BLOCK
  8
0
  2
*X9191
 70
     1
 10
0.0
 20
0.0
 30
0.0
  3
*X9191
  1

  0
TEXT
  5
70F
  8
回02-寸法
  6
CONTINUOUS
 62
     5
 10
-5310.456883456748
 20
1056.834362785463
 30
0.0
 40
4.0
  1
189 
 50
90.0
  0
TEXT
  5
710
  8
回02-寸法
  6
CONTINUOUS
 62
     5
 10
-5310.456883456748
 20
1066.848804259571
 30
0.0
 40
3.0
  1
(VIEWING AREA)
 50
90.0
  0
ENDBLK
  5
712
  8
0
  6
CONTINUOUS
 62
     5
  0
BLOCK
  8
0
  2
*X9292
 70
     1
 10
0.0
 20
0.0
 30
0.0
  3
*X9292
  1

  0
TEXT
  5
715
  8
回02-寸法
  6
CONTINUOUS
 62
     5
 10
-5296.194184927186
 20
1069.065992971334
 30
0.0
 40
4.0
  1
201
 50
90.0
  0
TEXT
  5
716
  8
回02-寸法
  6
CONTINUOUS
 62
     5
 10
-5296.194184927186
 20
1076.665992971335
 30
0.0
 40
2.799999999999998
  1
±0.3
 50
90.0
  0
ENDBLK
  5
718
  8
0
  6
CONTINUOUS
 62
     5
  0
BLOCK
  8
0
  2
*X9393
 70
     1
 10
0.0
 20
0.0
 30
0.0
  3
*X9393
  1

  0
TEXT
  5
71B
  8
回02-寸法
  6
CONTINUOUS
 62
     5
 10
-5693.487627205406
 20
910.7558008485623
 30
0.0
 40
4.0
  1
0.3
 50
90.0
  0
TEXT
  5
71C
  8
回02-寸法
  6
CONTINUOUS
 62
     5
 10
-5694.087627205405
 20
917.5558008485623
 30
0.0
 40
2.799999999999998
  1
±0.05
 50
90.0
  0
ENDBLK
  5
71E
  8
0
  6
CONTINUOUS
 62
     5
  0
BLOCK
  8
0
  2
*X9494
 70
     1
 10
0.0
 20
0.0
 30
0.0
  3
*X9494
  1

  0
TEXT
  5
721
  8
回02-寸法
  6
CONTINUOUS
 62
     5
 10
-5710.578611167719
 20
1139.822066571351
 30
0.0
 40
4.0
  1
6.25
 50
90.0
  0
TEXT
  5
722
  8
回02-寸法
  6
CONTINUOUS
 62
     5
 10
-5710.578611167719
 20
1149.422066571352
 30
0.0
 40
2.666799999999998
  1
±0.2
 50
90.0
  0
ENDBLK
  5
724
  8
0
  6
CONTINUOUS
 62
     5
  0
BLOCK
  8
0
  2
*X9595
 70
     1
 10
0.0
 20
0.0
 30
0.0
  3
*X9595
  1

  0
TEXT
  5
727
  8
回02-寸法
  6
CONTINUOUS
 62
     5
 10
-5692.818423949502
 20
1120.571681154113
 30
0.0
 40
4.0
  1
1.25
 50
90.0
  0
TEXT
  5
728
  8
回02-寸法
  6
CONTINUOUS
 62
     5
 10
-5692.818423949502
 20
1129.371681154113
 30
0.0
 40
3.333319999999999
  1
±0.2
 50
90.0
  0
ENDBLK
  5
72A
  8
0
  6
CONTINUOUS
 62
     5
  0
BLOCK
  8
0
  2
*X9696
 70
     1
 10
0.0
 20
0.0
 30
0.0
  3
*X9696
  1

  0
TEXT
  5
72D
  8
回02-寸法
  6
CONTINUOUS
 62
     5
 10
-5701.285484443289
 20
1119.651146377496
 30
0.0
 40
4.0
  1
3.75
 50
90.0
  0
TEXT
  5
72E
  8
回02-寸法
  6
CONTINUOUS
 62
     5
 10
-5701.285484443289
 20
1129.251146377497
 30
0.0
 40
2.666679999999999
  1
±0.1
 50
90.0
  0
ENDBLK
  5
730
  8
0
  6
CONTINUOUS
 62
     5
  0
BLOCK
  8
0
  2
*X9797
 70
     1
 10
0.0
 20
0.0
 30
0.0
  3
*X9797
  1

  0
TEXT
  5
733
  8
回02-寸法
  6
CONTINUOUS
 62
     5
 10
-5683.448068845455
 20
1119.598511417497
 30
0.0
 40
4.0
  1
4-0.7
 50
90.0
  0
TEXT
  5
734
  8
回02-寸法
  6
CONTINUOUS
 62
     5
 10
-5683.448068845455
 20
1132.398511417497
 30
0.0
 40
3.0
  1
±0.1
 50
90.0
  0
ENDBLK
  5
736
  8
0
  6
CONTINUOUS
 62
     5
  0
BLOCK
  8
0
  2
*X9898
 70
     1
 10
0.0
 20
0.0
 30
0.0
  3
*X9898
  1

  0
TEXT
  5
739
  8
回02-寸法
  6
CONTINUOUS
 62
     5
 10
-236.2931812714505
 20
1783.075245917976
 30
0.0
 40
4.0
  1
4-0.7
 50
90.0
  0
TEXT
  5
73A
  8
回02-寸法
  6
CONTINUOUS
 62
     5
 10
-236.2931812714505
 20
1795.875245917976
 30
0.0
 40
3.0
  1
±0.1
 50
90.0
  0
ENDBLK
  5
73C
  8
0
  6
CONTINUOUS
 62
     5
  0
BLOCK
  8
0
  2
*X9999
 70
     1
 10
0.0
 20
0.0
 30
0.0
  3
*X9999
  1

  0
TEXT
  5
73F
  8
回02-寸法
  6
CONTINUOUS
 62
     5
 10
-254.1305968692841
 20
1783.127880877976
 30
0.0
 40
4.0
  1
3.75
 50
90.0
  0
TEXT
  5
740
  8
回02-寸法
  6
CONTINUOUS
 62
     5
 10
-254.1305968692841
 20
1792.727880877976
 30
0.0
 40
2.666679999999999
  1
±0.1
 50
90.0
  0
ENDBLK
  5
742
  8
0
  6
CONTINUOUS
 62
     5
  0
BLOCK
  8
0
  2
*X100100
 70
     1
 10
0.0
 20
0.0
 30
0.0
  3
*X100100
  1

  0
TEXT
  5
745
  8
回02-寸法
  6
CONTINUOUS
 62
     5
 10
-245.6631426747099
 20
1784.048415654592
 30
0.0
 40
4.0
  1
1.25
 50
90.0
  0
TEXT
  5
746
  8
回02-寸法
  6
CONTINUOUS
 62
     5
 10
-245.6631426747099
 20
1792.848415654592
 30
0.0
 40
3.333319999999999
  1
±0.2
 50
90.0
  0
ENDBLK
  5
748
  8
0
  6
CONTINUOUS
 62
     5
  0
BLOCK
  8
0
  2
*X101101
 70
     1
 10
0.0
 20
0.0
 30
0.0
  3
*X101101
  1

  0
TEXT
  5
74B
  8
回02-寸法
  6
CONTINUOUS
 62
     5
 10
-263.4233298929266
 20
1803.298801071828
 30
0.0
 40
4.0
  1
6.25
 50
90.0
  0
TEXT
  5
74C
  8
回02-寸法
  6
CONTINUOUS
 62
     5
 10
-263.4233298929266
 20
1812.898801071828
 30
0.0
 40
2.666799999999998
  1
±0.2
 50
90.0
  0
ENDBLK
  5
74E
  8
0
  6
CONTINUOUS
 62
     5
  0
BLOCK
  8
0
  2
*X102102
 70
     1
 10
0.0
 20
0.0
 30
0.0
  3
*X102102
  1

  0
TEXT
  5
751
  8
回02-寸法
  6
CONTINUOUS
 62
     5
 10
-246.3327396314006
 20
1574.232535349041
 30
0.0
 40
4.0
  1
0.3
 50
90.0
  0
TEXT
  5
752
  8
回02-寸法
  6
CONTINUOUS
 62
     5
 10
-246.9327396314006
 20
1581.032535349041
 30
0.0
 40
2.799999999999998
  1
±0.05
 50
90.0
  0
ENDBLK
  5
754
  8
0
  6
CONTINUOUS
 62
     5
  0
BLOCK
  8
0
  2
*X103103
 70
     1
 10
0.0
 20
0.0
 30
0.0
  3
*X103103
  1

  0
TEXT
  5
757
  8
回02-寸法
  6
CONTINUOUS
 62
     5
 10
150.9610963476061
 20
1732.542727471814
 30
0.0
 40
4.0
  1
201
 50
90.0
  0
TEXT
  5
758
  8
回02-寸法
  6
CONTINUOUS
 62
     5
 10
150.9610963476061
 20
1740.142727471813
 30
0.0
 40
2.799999999999998
  1
±0.3
 50
90.0
  0
ENDBLK
  5
75A
  8
0
  6
CONTINUOUS
 62
     5
  0
BLOCK
  8
0
  2
*X104104
 70
     1
 10
0.0
 20
0.0
 30
0.0
  3
*X104104
  1

  0
TEXT
  5
75D
  8
回02-寸法
  6
CONTINUOUS
 62
     5
 10
136.6980041172551
 20
1720.31109728594
 30
0.0
 40
4.0
  1
189 
 50
90.0
  0
TEXT
  5
75E
  8
回02-寸法
  6
CONTINUOUS
 62
     5
 10
136.6980041172551
 20
1730.325538760048
 30
0.0
 40
3.0
  1
(VIEWING AREA)
 50
90.0
  0
ENDBLK
  5
760
  8
0
  6
CONTINUOUS
 62
     5
  0
BLOCK
  8
0
  2
*X105105
 70
     1
 10
0.0
 20
0.0
 30
0.0
  3
*X105105
  1

  0
TEXT
  5
763
  8
回02-寸法
  6
CONTINUOUS
 62
     5
 10
128.3467776571383
 20
1721.218318022994
 30
0.0
 40
4.0
  1
185 
 50
90.0
  0
TEXT
  5
764
  8
回02-寸法
  6
CONTINUOUS
 62
     5
 10
128.3467776571383
 20
1731.218318022994
 30
0.0
 40
3.0
  1
(ACTIVE AREA)
 50
90.0
  0
ENDBLK
  5
766
  8
0
  6
CONTINUOUS
 62
     5
  0
BLOCK
  8
0
  2
*X106106
 70
     1
 10
0.0
 20
0.0
 30
0.0
  3
*X106106
  1

  0
TEXT
  5
769
  8
回02-寸法
  6
CONTINUOUS
 62
     5
 10
-33.00161385440733
 20
1876.291213109087
 30
0.0
 40
4.0
  1
263
  0
TEXT
  5
76A
  8
回02-寸法
  6
CONTINUOUS
 62
     5
 10
-24.60161385440733
 20
1876.291213109087
 30
0.0
 40
2.799999999999998
  1
±0.3
  0
ENDBLK
  5
76C
  8
0
  6
CONTINUOUS
 62
     5
  0
BLOCK
  8
0
  2
*X107107
 70
     1
 10
0.0
 20
0.0
 30
0.0
  3
*X107107
  1

  0
TEXT
  5
76F
  8
回02-寸法
  6
CONTINUOUS
 62
     5
 10
-47.20102330322659
 20
1863.260014797106
 30
0.0
 40
4.0
  1
250.5 
  0
TEXT
  5
770
  8
回02-寸法
  6
CONTINUOUS
 62
     5
 10
-32.40102330322659
 20
1863.260014797106
 30
0.0
 40
3.0
  1
(VIEWING AREA)
  0
ENDBLK
  5
772
  8
0
  6
CONTINUOUS
 62
     5
  0
BLOCK
  8
0
  2
*X108108
 70
     1
 10
0.0
 20
0.0
 30
0.0
  3
*X108108
  1

  0
TEXT
  5
775
  8
回02-寸法
  6
CONTINUOUS
 62
     5
 10
-46.50102330322659
 20
1855.813386540415
 30
0.0
 40
4.0
  1
246.5 
  0
TEXT
  5
776
  8
回02-寸法
  6
CONTINUOUS
 62
     5
 10
-31.30102330322659
 20
1855.813386540415
 30
0.0
 40
3.0
  1
(ACTIVE AREA)
  0
ENDBLK
  5
778
  8
0
  6
CONTINUOUS
 62
     5
  0
BLOCK
  8
0
  2
*X109109
 70
     1
 10
0.0
 20
0.0
 30
0.0
  3
*X109109
  1

  0
TEXT
  5
77B
  8
回02-寸法
  6
CONTINUOUS
 62
     5
 10
-249.2697024133458
 20
1748.995492358362
 30
0.0
 40
4.0
  1
6.25
 50
90.0
  0
TEXT
  5
77C
  8
回02-寸法
  6
CONTINUOUS
 62
     5
 10
-249.2697024133458
 20
1758.595492358362
 30
0.0
 40
2.799999999999998
  1
±0.2
 50
90.0
  0
ENDBLK
  5
77E
  8
0
  6
CONTINUOUS
 62
     5
  0
BLOCK
  8
0
  2
*X110110
 70
     1
 10
0.0
 20
0.0
 30
0.0
  3
*X110110
  1

  0
TEXT
  5
781
  8
回02-寸法
  6
CONTINUOUS
 62
     5
 10
-202.8966356097915
 20
1770.208973140655
 30
0.0
 40
4.0
  1
80
  0
TEXT
  5
782
  8
回02-寸法
  6
CONTINUOUS
 62
     5
 10
-197.2966356097915
 20
1770.208973140655
 30
0.0
 40
2.799999999999998
  1
±1
  0
ENDBLK
  5
784
  8
0
  6
CONTINUOUS
 62
     5
  0
ENDSEC
  0
SECTION
  2
ENTITIES
  0
TEXT
  5
61
  8
回03-記事
  6
CONTINUOUS
 62
     5
 10
-101.6675072545995
 20
1526.773417547069
 30
0.0
 40
5.599999999999998
  1
without affecting product specification.
  0
TEXT
  5
63
  8
回03-記事
  6
CONTINUOUS
 62
     5
 10
-101.6675072545995
 20
1536.596407546968
 30
0.0
 40
5.599999999999998
  1
Edges and corners of ITO glass may be chamfered 
  0
TEXT
  5
64
  8
回03-記事
  6
CONTINUOUS
 62
     5
 10
-101.6675072545995
 20
1546.419397546868
 30
0.0
 40
5.599999999999998
  1
Unit: mm
  0
TEXT
  5
65
  8
回03-記事
  6
CONTINUOUS
 62
     5
 10
-101.6675072545995
 20
1556.242387546768
 30
0.0
 40
5.599999999999998
  1
EXCEPT WHERE INDICATED
  0
TEXT
  5
66
  8
回03-記事
  6
CONTINUOUS
 62
     5
 10
-101.6675072545995
 20
1566.065377546668
 30
0.0
 40
5.599999999999998
  1
TOLERANCE=±0.5mm
  0
DIMENSION
  5
67
  8
回02-寸法
  6
CONTINUOUS
 62
     7
  2
*D3939
 10
-235.7931812714505
 20
1807.373245917977
 30
0.0
 11
-235.7931812714505
 21
1792.850245917976
 31
0.0
 70
   160
  1
4-0.7{\H0.75x;±0.1}
  3
STANDARD
 13
-225.4099857540277
 23
1805.525245917977
 33
0.0
 14
-225.4099857540277
 24
1807.373245917977
 34
0.0
 50
90.0
1001
ACAD
1000
DSTYLE
1002
{
1070
    41
1040
1.5
1070
    47
1040
0.3
1070
    48
1040
0.3
1070
   140
1040
4.0
1070
   141
1040
1.5
1070
   146
1040
0.7
1070
   271
1070
     1
1070
   272
1070
     1
1070
   283
1070
     0
1070
   288
1070
     0
1070
   341
1005
0
1070
   371
1070
    13
1070
   372
1070
    13
1002
}
  0
TEXT
  5
7C
  8
回02-寸法
 62
     5
 10
-245.81854921474
 20
1825.827535448912
 30
0.0
 40
3.959999999999998
  1
2-R0.5
1001
ACAD
1000
MTEXTBEGIN
1070
    73
1070
     1
1070
    44
1040
1.0
1070
    74
1070
     0
1000
MTEXTEND
  0
INSERT
  5
7D
  8
回02-寸法
 62
     1
 66
     1
  2
*X7777
 10
0.0
 20
0.0
 30
0.0
  0
SEQEND
  5
66C
  8
0
  6
CONTINUOUS
 62
     5
  0
TEXT
  5
7E
  8
回03-記事
  6
CONTINUOUS
 62
     5
 10
-238.7207686263828
 20
1835.842404073616
 30
0.0
 40
6.599999999999998
  1
SECTION A
  0
LINE
  5
7F
  8
回03-記事
  6
CONTINUOUS
 62
     7
 10
-229.2374790210033
 20
1806.449245917977
 30
0.0
 11
-207.4423756610204
 21
1806.449245917977
 31
0.0
  0
LINE
  5
80
  8
回03-記事
  6
CONTINUOUS
 62
     7
 10
-229.2373641525774
 20
1809.749245917976
 30
0.0
 11
-207.4423756610204
 21
1809.749245917976
 31
0.0
  0
LINE
  5
81
  8
回03-記事
  6
CONTINUOUS
 62
     7
 10
-229.2374790210033
 20
1816.349245917976
 30
0.0
 11
-207.4423756610204
 21
1816.349245917976
 31
0.0
  0
DIMENSION
  5
82
  8
回02-寸法
  6
CONTINUOUS
 62
     5
  2
*D4040
 10
-253.6305968692841
 20
1816.349245917976
 30
0.0
 11
-253.6305968692841
 21
1790.961227877976
 31
0.0
 70
   160
  1
3.75{\H0.66667x;±0.1}
  3
STANDARD
 13
-229.2373641525774
 23
1806.449245917977
 33
0.0
 14
-229.2374790210033
 24
1816.349245917976
 34
0.0
 50
90.0
1001
ACAD
1000
DSTYLE
1002
{
1070
    41
1040
1.5
1070
    47
1040
0.3
1070
    48
1040
0.3
1070
   140
1040
4.0
1070
   141
1040
1.5
1070
   146
1040
0.7
1070
   271
1070
     1
1070
   272
1070
     1
1070
   283
1070
     0
1070
   288
1070
     0
1070
   341
1005
0
1070
   371
1070
    13
1070
   372
1070
    13
1002
}
  0
DIMENSION
  5
93
  8
回02-寸法
  6
CONTINUOUS
 62
     5
  2
*D4141
 10
-245.1631426747099
 20
1806.449245917977
 30
0.0
 11
-245.1631426747099
 21
1792.498769192385
 31
0.0
 70
   160
  1
1.25{\H0.83333x;±0.2}
  3
STANDARD
 13
-229.2373641525774
 23
1809.749245917976
 33
0.0
 14
-229.2373641525774
 24
1806.449245917977
 34
0.0
 50
90.0
1001
ACAD
1000
DSTYLE
1002
{
1070
    41
1040
1.5
1070
    47
1040
0.3
1070
    48
1040
0.3
1070
   140
1040
4.0
1070
   141
1040
1.5
1070
   146
1040
0.7
1070
   271
1070
     1
1070
   272
1070
     1
1070
   283
1070
     0
1070
   288
1070
     0
1070
   341
1005
0
1070
   371
1070
    13
1070
   372
1070
    13
1002
}
  0
POLYLINE
  5
A4
  8
回03-記事
  6
CONTINUOUS
 62
     8
 66
     1
 10
0.0
 20
0.0
 30
0.0
 40
1.847999999999999
 41
1.847999999999999
  0
VERTEX
  5
9CF
  8
回03-記事
  6
CONTINUOUS
 62
     8
 10
-225.4101006224546
 20
1813.049245917977
 30
0.0
  0
VERTEX
  5
9D1
  8
回03-記事
  6
CONTINUOUS
 62
     8
 10
-212.2099857540279
 20
1813.049245917977
 30
0.0
  0
SEQEND
  5
9D0
  8
0
  6
CONTINUOUS
 62
     5
  0
POLYLINE
  5
A5
  8
回03-記事
  6
CONTINUOUS
 62
     8
 66
     1
 10
0.0
 20
0.0
 30
0.0
 40
1.847999999999999
 41
1.847999999999999
  0
VERTEX
  5
9D2
  8
回03-記事
  6
CONTINUOUS
 62
     8
 10
-225.4101006224546
 20
1816.349245917976
 30
0.0
  0
VERTEX
  5
9D4
  8
回03-記事
  6
CONTINUOUS
 62
     8
 10
-212.2099857540279
 20
1816.349245917976
 30
0.0
  0
SEQEND
  5
9D3
  8
0
  6
CONTINUOUS
 62
     5
  0
POLYLINE
  5
A6
  8
回03-記事
  6
CONTINUOUS
 62
     8
 66
     1
 10
0.0
 20
0.0
 30
0.0
 40
1.847999999999999
 41
1.847999999999999
  0
VERTEX
  5
9D5
  8
回03-記事
  6
CONTINUOUS
 62
     8
 10
-225.4101006224546
 20
1806.449245917977
 30
0.0
  0
VERTEX
  5
9D7
  8
回03-記事
  6
CONTINUOUS
 62
     8
 10
-212.2099857540279
 20
1806.449245917977
 30
0.0
  0
SEQEND
  5
9D6
  8
0
  6
CONTINUOUS
 62
     5
  0
POLYLINE
  5
A7
  8
回03-記事
  6
CONTINUOUS
 62
     8
 66
     1
 10
0.0
 20
0.0
 30
0.0
 40
1.847999999999999
 41
1.847999999999999
  0
VERTEX
  5
9D8
  8
回03-記事
  6
CONTINUOUS
 62
     8
 10
-225.4101006224546
 20
1809.749245917976
 30
0.0
  0
VERTEX
  5
9DA
  8
回03-記事
  6
CONTINUOUS
 62
     8
 10
-212.2099857540279
 20
1809.749245917976
 30
0.0
  0
SEQEND
  5
9D9
  8
0
  6
CONTINUOUS
 62
     5
  0
LINE
  5
A8
  8
回03-記事
  6
CONTINUOUS
 62
     8
 10
-224.089985754028
 20
1803.149245917983
 30
0.0
 11
-192.739110718383
 21
1803.149245917983
 31
0.0
  0
LINE
  5
A9
  8
回03-記事
  6
CONTINUOUS
 62
     8
 10
-225.4099857540277
 20
1818.329245917983
 30
0.0
 11
-225.4099857540277
 21
1804.469245917984
 31
0.0
  0
ARC
  5
AA
  8
回03-記事
  6
CONTINUOUS
 62
     8
 10
-224.089985754028
 20
1804.469245917984
 30
0.0
 40
1.32
 50
180.0
 51
270.0
  0
ARC
  5
AB
  8
回03-記事
  6
CONTINUOUS
 62
     8
 10
-224.089985754028
 20
1818.329245917983
 30
0.0
 40
1.32
 50
90.0
 51
180.0
  0
LINE
  5
AC
  8
回03-記事
  6
CONTINUOUS
 62
     8
 10
-224.089985754028
 20
1819.649245917982
 30
0.0
 11
-192.739110718383
 21
1819.649245917982
 31
0.0
  0
DIMENSION
  5
AD
  8
回02-寸法
  6
CONTINUOUS
 62
     5
  2
*D4242
 10
-262.9233298929266
 20
1803.149245917984
 30
0.0
 11
-265.4233298929266
 21
1811.399245917983
 31
0.0
 70
    32
  1
6.25{\H0.6667x;±0.2}
  3
STANDARD
 13
-224.089985754028
 23
1819.649245917982
 33
0.0
 14
-224.089985754028
 24
1803.149245917984
 34
0.0
 50
90.0
1001
ACAD
1000
DSTYLE
1002
{
1070
    41
1040
1.5
1070
    47
1040
0.3
1070
    48
1040
0.3
1070
   140
1040
4.0
1070
   141
1040
1.5
1070
   146
1040
0.7
1070
   271
1070
     1
1070
   272
1070
     1
1070
   283
1070
     0
1070
   288
1070
     0
1070
   341
1005
0
1070
   371
1070
    13
1070
   372
1070
    13
1002
}
  0
LINE
  5
BC
  8
回04-図面枠
  6
CONTINUOUS
 62
     7
 10
252.857906042701
 20
1519.968088650531
 30
0.0
 11
252.857906042701
 21
1533.16808865053
 31
0.0
  0
LINE
  5
BE
  8
回04-図面枠
  6
CENTER2
 62
     7
 10
259.7448845749886
 20
1521.827934894065
 30
0.0
 11
259.7448845749886
 21
1531.068015082206
 31
0.0
  0
LINE
  5
C0
  8
回04-図面枠
  6
CONTINUOUS
 62
     7
 10
266.0366555329046
 20
1524.497126345825
 30
0.0
 11
272.8621183332025
 21
1522.759693539137
 31
0.0
  0
LINE
  5
C1
  8
回04-図面枠
  6
CONTINUOUS
 62
     7
 10
266.0366555329046
 20
1528.398823630445
 30
0.0
 11
272.8621183332025
 21
1530.136256437135
 31
0.0
  0
LINE
  5
C2
  8
回04-図面枠
  6
CONTINUOUS
 62
     7
 10
272.8621183332025
 20
1530.136256437135
 30
0.0
 11
272.8621183332025
 21
1522.759693539137
 31
0.0
  0
LINE
  5
C3
  8
回04-図面枠
  6
CONTINUOUS
 62
     7
 10
266.0366555329046
 20
1528.398823630445
 30
0.0
 11
266.0366555329046
 21
1524.497126345825
 31
0.0
  0
LINE
  5
C4
  8
回04-図面枠
  6
CENTER2
 62
     7
 10
255.508998882885
 20
1526.447974988136
 30
0.0
 11
273.4670477196841
 21
1526.447974988136
 31
0.0
  0
CIRCLE
  5
C5
  8
回04-図面枠
  6
CONTINUOUS
 62
     7
 10
259.7448845749886
 20
1526.447974988136
 30
0.0
 40
1.950848642310722
  0
CIRCLE
  5
C6
  8
回04-図面枠
  6
CONTINUOUS
 62
     7
 10
259.7448845749886
 20
1526.447974988136
 30
0.0
 40
3.688281448998441
  0
TEXT
  5
C7
  8
回03-記事
  6
CONTINUOUS
 62
     7
 10
207.9879045775951
 20
1576.645463673219
 30
0.0
 40
4.451266068479998
  1
PROTECTION TAPE
  0
TEXT
  5
C8
  8
回03-記事
  6
CONTINUOUS
 62
     7
 10
201.037720784675
 20
1576.621947168514
 30
0.0
 40
4.629316711219201
  1
6
  0
LINE
  5
C9
  8
回03-記事
  6
CONTINUOUS
 62
     7
 10
198.6725777841329
 20
1575.292738225625
 30
0.0
 11
267.6348652840634
 21
1575.292738225625
 31
0.0
  0
TEXT
  5
CA
  8
回03-記事
  6
CONTINUOUS
 62
     7
 10
207.422850872912
 20
1591.883809091932
 30
0.0
 40
4.629316711219201
  1
STIFFENER
  0
TEXT
  5
CB
  8
回03-記事
  6
CONTINUOUS
 62
     7
 10
207.422850872912
 20
1584.168281239901
 30
0.0
 40
4.629316711219201
  1
REINFORCEMENT FILM
  0
TEXT
  5
CC
  8
回03-記事
  6
CONTINUOUS
 62
     7
 10
225.6416037670497
 20
1623.052910007967
 30
0.0
 40
4.629316711219201
  1
ITEM
  0
LINE
  5
CD
  8
回03-記事
  6
CONTINUOUS
 62
     7
 10
267.6348652840634
 20
1575.292738225625
 30
0.0
 11
267.6348652840634
 21
1629.301433189849
 31
0.0
  0
TEXT
  5
CE
  8
回03-記事
  6
CONTINUOUS
 62
     7
 10
201.037720784675
 20
1599.768530724607
 30
0.0
 40
4.629316711219201
  1
3
  0
TEXT
  5
CF
  8
回03-記事
  6
CONTINUOUS
 62
     7
 10
201.037720784675
 20
1592.053002872576
 30
0.0
 40
4.629316711219201
  1
4
  0
TEXT
  5
D0
  8
回03-記事
  6
CONTINUOUS
 62
     7
 10
201.037720784675
 20
1607.484058576644
 30
0.0
 40
4.629316711219201
  1
2
  0
TEXT
  5
D1
  8
回03-記事
  6
CONTINUOUS
 62
     7
 10
201.037720784675
 20
1584.337475020546
 30
0.0
 40
4.629316711219201
  1
5
  0
LINE
  5
D2
  8
回03-記事
  6
CONTINUOUS
 62
     7
 10
206.7002823907915
 20
1629.301433189849
 30
0.0
 11
206.7002823907915
 21
1575.292738225625
 31
0.0
  0
LINE
  5
D3
  8
回03-記事
  6
CONTINUOUS
 62
     7
 10
198.6725777841329
 20
1629.301433189849
 30
0.0
 11
198.6725777841329
 21
1575.292738225625
 31
0.0
  0
TEXT
  5
D4
  8
回03-記事
  6
CONTINUOUS
 62
     7
 10
201.037720784675
 20
1615.199586428673
 30
0.0
 40
4.629316711219201
  1
1
  0
LINE
  5
D5
  8
回03-記事
  6
CONTINUOUS
 62
     7
 10
198.6725777841329
 20
1583.008266077657
 30
0.0
 11
267.6348652840634
 21
1583.008266077657
 31
0.0
  0
LINE
  5
D6
  8
回03-記事
  6
CONTINUOUS
 62
     7
 10
198.6725777841329
 20
1629.301433189849
 30
0.0
 11
267.6348652840634
 21
1629.301433189849
 31
0.0
  0
LINE
  5
D7
  8
回03-記事
  6
CONTINUOUS
 62
     7
 10
198.6725777841329
 20
1613.870377485787
 30
0.0
 11
267.6348652840634
 21
1613.870377485781
 31
0.0
  0
LINE
  5
D8
  8
回03-記事
  6
CONTINUOUS
 62
     7
 10
198.6725777841329
 20
1621.585905337818
 30
0.0
 11
267.6348652840634
 21
1621.585905337818
 31
0.0
  0
LINE
  5
D9
  8
回03-記事
  6
CONTINUOUS
 62
     7
 10
198.6725777841329
 20
1590.72379392969
 30
0.0
 11
267.6348652840634
 21
1590.72379392969
 31
0.0
  0
LINE
  5
DA
  8
回03-記事
  6
CONTINUOUS
 62
     7
 10
198.6725777841329
 20
1598.439321781722
 30
0.0
 11
267.6348652840634
 21
1598.439321781722
 31
0.0
  0
LINE
  5
DB
  8
回03-記事
  6
CONTINUOUS
 62
     7
 10
198.6725777841329
 20
1606.154849633754
 30
0.0
 11
267.6348652840634
 21
1606.154849633754
 31
0.0
  0
TEXT
  5
DC
  8
回03-記事
  6
CONTINUOUS
 62
     7
 10
207.422850872912
 20
1615.100279146275
 30
0.0
 40
4.629316711219201
  1
ITO FILM
  0
TEXT
  5
DD
  8
回03-記事
  6
CONTINUOUS
 62
     7
 10
207.422850872912
 20
1607.384751294242
 30
0.0
 40
4.629316711219201
  1
ITO GLASS
  0
TEXT
  5
DE
  8
回03-記事
  6
CONTINUOUS
 62
     7
 10
207.422850872912
 20
1599.669223442208
 30
0.0
 40
4.629316711219201
  1
TAIL
  0
TEXT
  5
DF
  8
回04-図面枠
 62
     7
 10
199.5762135986813
 20
1539.447736842457
 30
0.0
 40
6.599999999999998
  1
Sep/08/2023
 72
     1
 11
225.3162135986813
 21
1539.447736842457
 31
0.0
  0
TEXT
  5
E0
  8
回04-図面枠
  6
CONTINUOUS
 62
     7
 10
218.6511773375887
 20
1553.887793571078
 30
0.0
 40
3.959999999999998
  1
DATE
  0
TEXT
  5
E1
  8
回04-図面枠
 62
     7
 10
188.4244330537364
 20
1523.317862995624
 30
0.0
 40
6.599999999999998
  1
DMC Co., Ltd.
 72
     1
 11
214.6594330537364
 21
1523.317862995624
 31
0.0
  0
TEXT
  5
E2
  8
回04-図面枠
 62
     7
 10
104.8662135986817
 20
1543.057373148237
 30
0.0
 40
6.599999999999998
  1
LST-121B080A
 72
     1
 11
132.9162135986817
 21
1543.057373148237
 31
0.0
  0
TEXT
  5
E3
  8
回04-図面枠
 62
     7
 10
120.4422135986817
 20
1554.21846250409
 30
0.0
 40
3.959999999999998
  1
PART　No.
 72
     1
 11
132.9162135986817
 21
1554.21846250409
 31
0.0
  0
LINE
  5
E4
  8
回04-図面枠
 62
     7
 10
93.97621359868116
 20
1526.56808865053
 30
0.0
 11
171.8562135986813
 21
1526.56808865053
 31
0.0
  0
TEXT
  5
E5
  8
回04-図面枠
 62
     7
 10
102.0282135986817
 20
1528.08612921596
 30
0.0
 40
3.959999999999998
  1
STANDARD TOUCHSCREEN
 72
     1
 11
132.9162135986817
 21
1528.08612921596
 31
0.0
  0
TEXT
  5
E6
  8
回04-図面枠
 62
     7
 10
110.9382135986817
 20
1521.48612921596
 30
0.0
 40
3.959999999999998
  1
CIRCUIT　DRAWING
 72
     1
 11
132.9162135986817
 21
1521.48612921596
 31
0.0
  0
LINE
  5
E7
  8
回04-図面枠
 62
     7
 10
175.8162135986813
 20
1559.56808865053
 30
0.0
 11
175.8162135986813
 21
1519.968088650531
 31
0.0
  0
TEXT
  5
E8
  8
回04-図面枠
 62
     7
 10
126.5802135986817
 20
1534.14966664077
 30
0.0
 40
3.959999999999998
  1
TYPE
 72
     1
 11
132.9162135986817
 21
1534.14966664077
 31
0.0
  0
LINE
  5
E9
  8
回04-図面枠
 62
     7
 10
90.01621359868115
 20
1559.56808865053
 30
0.0
 11
90.01621359868115
 21
1519.968088650531
 31
0.0
  0
LINE
  5
EA
  8
回04-図面枠
 62
     7
 10
90.01621359868115
 20
1539.768088650531
 30
0.0
 11
175.8162135986813
 21
1539.768088650531
 31
0.0
  0
LINE
  5
EB
  8
回04-図面枠
 62
     7
 10
90.01621359868115
 20
1533.16808865053
 30
0.0
 11
274.8162135986813
 21
1533.16808865053
 31
0.0
  0
LINE
  5
EC
  8
回04-図面枠
 62
     7
 10
90.01621359868115
 20
1559.56808865053
 30
0.0
 11
274.8162135986813
 21
1559.56808865053
 31
0.0
  0
LINE
  5
ED
  8
回04-図面枠
 62
     7
 10
90.01621359868115
 20
1552.968088650531
 30
0.0
 11
274.8162135986813
 21
1552.968088650531
 31
0.0
  0
TEXT
  5
EE
  8
回03-記事
  6
CONTINUOUS
 62
     5
 10
-279.0811024225259
 20
1607.7880669781
 30
0.0
 40
4.0
  1
Trace Expose
1001
ACAD
1000
MTEXTBEGIN
1070
    73
1070
     1
1070
    44
1040
1.0
1070
    74
1070
     0
1000
MTEXTEND
  0
INSERT
  5
EF
  8
回03-記事
  6
CONTINUOUS
 62
     5
 66
     1
  2
*X7878
 10
0.0
 20
0.0
 30
0.0
  0
SEQEND
  5
67F
  8
0
  6
CONTINUOUS
 62
     5
  0
TEXT
  5
F1
  8
回03-記事
  6
CONTINUOUS
 62
     5
 10
-229.8024794007972
 20
1749.279956324081
 30
0.0
 40
3.0
  1
A
1001
ACAD
1000
MTEXTBEGIN
1070
    73
1070
     1
1070
    44
1040
1.0
1070
    74
1070
     0
1000
MTEXTEND
  0
INSERT
  5
F2
  8
回03-記事
  6
CONTINUOUS
 62
     5
 66
     1
  2
*X7979
 10
0.0
 20
0.0
 30
0.0
  0
SEQEND
  5
686
  8
0
  6
CONTINUOUS
 62
     5
  0
CIRCLE
  5
F3
  8
回03-記事
  6
CONTINUOUS
 62
     5
 10
-236.5191898618905
 20
1739.549968181407
 30
0.0
 40
7.742816109002717
  0
TEXT
  5
F4
  8
回03-記事
  6
CONTINUOUS
 62
     5
 10
-215.959703714311
 20
1707.263710734973
 30
0.0
 40
4.0
  1
PROTECTION TAPE
1001
ACAD
1000
MTEXTBEGIN
1070
    73
1070
     1
1070
    44
1040
1.0
1070
    74
1070
     0
1000
MTEXTEND
  0
INSERT
  5
F5
  8
回03-記事
  6
CONTINUOUS
 62
     5
 66
     1
  2
*X8080
 10
0.0
 20
0.0
 30
0.0
  0
SEQEND
  5
68D
  8
0
  6
CONTINUOUS
 62
     5
  0
TEXT
  5
F6
  8
回02-寸法
  6
CONTINUOUS
 62
     5
 10
-175.5667345493825
 20
1754.492074183339
 30
0.0
 40
4.0
  1
2-R2
1001
ACAD
1000
MTEXTBEGIN
1070
    73
1070
     1
1070
    44
1040
1.0
1070
    74
1070
     0
1000
MTEXTEND
  0
INSERT
  5
F7
  8
回02-寸法
  6
CONTINUOUS
 62
     5
 66
     1
  2
*X8181
 10
0.0
 20
0.0
 30
0.0
  0
SEQEND
  5
694
  8
0
  6
CONTINUOUS
 62
     5
  0
TEXT
  5
F9
  8
回02-寸法
  6
CONTINUOUS
 62
     5
 10
-183.3574397304252
 20
1749.460773957678
 30
0.0
 40
4.0
  1
4-R1
1001
ACAD
1000
MTEXTBEGIN
1070
    73
1070
     1
1070
    44
1040
1.0
1070
    74
1070
     0
1000
MTEXTEND
  0
INSERT
  5
FA
  8
回02-寸法
  6
CONTINUOUS
 62
     5
 66
     1
  2
*X8282
 10
0.0
 20
0.0
 30
0.0
  0
SEQEND
  5
69B
  8
0
  6
CONTINUOUS
 62
     5
  0
TEXT
  5
FB
  8
回02-寸法
  6
CONTINUOUS
 62
     5
 10
151.7208999279281
 20
1843.186503239779
 30
0.0
 40
4.0
  1
(Insulation Area)
 50
90.0
  0
TEXT
  5
FC
  8
回02-寸法
  6
CONTINUOUS
 62
     5
 10
106.4259506739763
 20
1876.90657356419
 30
0.0
 40
4.0
  1
(Insulation Area)
  0
TEXT
  5
FD
  8
回03-記事
  6
CONTINUOUS
 62
     7
 10
182.608717109767
 20
1787.768613501343
 30
0.0
 40
8.0
  1
Pin Assignment
  0
LINE
  5
FE
  8
回03-記事
  6
CONTINUOUS
 62
     7
 10
236.2124862901128
 20
1826.046370770244
 30
0.0
 11
236.2124862901128
 21
1865.046370770244
 31
0.0
  0
LINE
  5
FF
  8
回03-記事
  6
CONTINUOUS
 62
     7
 10
257.6624862901126
 20
1804.596370770244
 30
0.0
 11
257.6624862901126
 21
1886.496370770244
 31
0.0
  0
TEXT
  5
100
  8
回03-記事
  6
CONTINUOUS
 62
     7
 10
172.9307753579069
 20
1861.984471551423
 30
0.0
 40
6.240000000000001
  1
3
  0
TEXT
  5
101
  8
回03-記事
  6
CONTINUOUS
 62
     7
 10
172.5742056478511
 20
1883.635872635283
 30
0.0
 40
6.240000000000001
  1
4
  0
LINE
  5
102
  8
回03-記事
  6
CONTINUOUS
 62
     7
 10
226.5404862901132
 20
1828.074370770244
 30
0.0
 11
229.3484862901132
 21
1822.458370770243
 31
0.0
  0
LINE
  5
103
  8
回03-記事
  6
CONTINUOUS
 62
     7
 10
229.3484862901132
 20
1822.458370770243
 30
0.0
 11
231.1424862901131
 21
1826.046370770244
 31
0.0
  0
LINE
  5
104
  8
回03-記事
  6
CONTINUOUS
 62
     7
 10
220.9244862901123
 20
1828.074370770244
 30
0.0
 11
223.7324862901132
 21
1822.458370770243
 31
0.0
  0
LINE
  5
105
  8
回03-記事
  6
CONTINUOUS
 62
     7
 10
218.1164862901133
 20
1822.458370770243
 30
0.0
 11
220.9244862901123
 21
1828.074370770244
 31
0.0
  0
LINE
  5
106
  8
回03-記事
  6
CONTINUOUS
 62
     7
 10
223.7324862901132
 20
1822.458370770243
 30
0.0
 11
226.5404862901132
 21
1828.074370770244
 31
0.0
  0
LINE
  5
107
  8
回03-記事
  6
CONTINUOUS
 62
     7
 10
209.6924862901123
 20
1828.074370770244
 30
0.0
 11
212.5004862901131
 21
1822.458370770243
 31
0.0
  0
LINE
  5
108
  8
回03-記事
  6
CONTINUOUS
 62
     7
 10
209.2244862901125
 20
1822.692370770244
 30
0.0
 11
214.8404862901134
 21
1825.500370770244
 31
0.0
  0
LINE
  5
109
  8
回03-記事
  6
CONTINUOUS
 62
     7
 10
209.2244862901125
 20
1822.692370770244
 30
0.0
 11
214.8404862901134
 21
1819.884370770244
 31
0.0
  0
LINE
  5
10A
  8
回03-記事
  6
CONTINUOUS
 62
     7
 10
209.2244862901125
 20
1817.076370770244
 30
0.0
 11
214.8404862901134
 21
1819.884370770244
 31
0.0
  0
LINE
  5
10B
  8
回03-記事
  6
CONTINUOUS
 62
     7
 10
209.2244862901125
 20
1811.460370770244
 30
0.0
 11
214.8404862901134
 21
1814.268370770244
 31
0.0
  0
LINE
  5
10C
  8
回03-記事
  6
CONTINUOUS
 62
     7
 10
209.2244862901125
 20
1817.076370770244
 30
0.0
 11
214.8404862901134
 21
1814.268370770244
 31
0.0
  0
LINE
  5
10D
  8
回03-記事
  6
CONTINUOUS
 62
     7
 10
209.2244862901125
 20
1828.308370770244
 30
0.0
 11
214.8404862901134
 21
1831.116370770244
 31
0.0
  0
LINE
  5
10E
  8
回03-記事
  6
CONTINUOUS
 62
     7
 10
209.2244862901125
 20
1833.924370770244
 30
0.0
 11
214.8404862901134
 21
1836.732370770243
 31
0.0
  0
LINE
  5
10F
  8
回03-記事
  6
CONTINUOUS
 62
     7
 10
209.2244862901125
 20
1833.924370770244
 30
0.0
 11
214.8404862901134
 21
1831.116370770244
 31
0.0
  0
LINE
  5
110
  8
回03-記事
  6
CONTINUOUS
 62
     7
 10
209.2244862901125
 20
1828.308370770244
 30
0.0
 11
214.8404862901134
 21
1825.500370770244
 31
0.0
  0
LINE
  5
111
  8
回03-記事
  6
CONTINUOUS
 62
     7
 10
204.0764862901124
 20
1828.074370770244
 30
0.0
 11
206.8844862901124
 21
1822.458370770243
 31
0.0
  0
LINE
  5
112
  8
回03-記事
  6
CONTINUOUS
 62
     7
 10
201.2684862901133
 20
1822.458370770243
 30
0.0
 11
204.0764862901124
 21
1828.074370770244
 31
0.0
  0
LINE
  5
113
  8
回03-記事
  6
CONTINUOUS
 62
     7
 10
196.6664862901134
 20
1824.486370770244
 30
0.0
 11
198.4604862901124
 21
1828.074370770244
 31
0.0
  0
LINE
  5
114
  8
回03-記事
  6
CONTINUOUS
 62
     7
 10
198.4604862901124
 20
1828.074370770244
 30
0.0
 11
201.2684862901133
 21
1822.458370770243
 31
0.0
  0
LINE
  5
115
  8
回03-記事
  6
CONTINUOUS
 62
     7
 10
206.8844862901124
 20
1822.458370770243
 30
0.0
 11
209.6924862901123
 21
1828.074370770244
 31
0.0
  0
LINE
  5
116
  8
回03-記事
  6
CONTINUOUS
 62
     7
 10
212.0324862901125
 20
1838.136370770243
 30
0.0
 11
212.0324862901125
 21
1842.816370770244
 31
0.0
  0
LINE
  5
117
  8
回03-記事
  6
CONTINUOUS
 62
     7
 10
212.5004862901131
 20
1822.458370770243
 30
0.0
 11
215.3084862901132
 21
1828.074370770244
 31
0.0
  0
LINE
  5
118
  8
回03-記事
  6
CONTINUOUS
 62
     7
 10
212.0324862901125
 20
1838.136370770243
 30
0.0
 11
214.8404862901134
 21
1836.732370770243
 31
0.0
  0
TEXT
  5
119
  8
回03-記事
  6
CONTINUOUS
 62
     7
 10
213.5647461882418
 20
1843.844824716723
 30
0.0
 40
5.459999999999999
  1
YU
  0
LINE
  5
11A
  8
回03-記事
  6
CONTINUOUS
 62
     7
 10
215.3084862901132
 20
1828.074370770244
 30
0.0
 11
218.1164862901133
 21
1822.458370770243
 31
0.0
  0
LINE
  5
11B
  8
回03-記事
  6
CONTINUOUS
 62
     7
 10
212.0324862901125
 20
1804.596370770244
 30
0.0
 11
212.0324862901125
 21
1810.056370770244
 31
0.0
  0
LINE
  5
11C
  8
回03-記事
  6
CONTINUOUS
 62
     7
 10
209.2244862901125
 20
1811.460370770244
 30
0.0
 11
212.0324862901125
 21
1810.056370770244
 31
0.0
  0
TEXT
  5
11D
  8
回03-記事
  6
CONTINUOUS
 62
     7
 10
197.6893581247732
 20
1806.820448628903
 30
0.0
 40
5.459999999999999
  1
YD
  0
TEXT
  5
11E
  8
回03-記事
  6
CONTINUOUS
 62
     7
 10
185.8595531150549
 20
1826.773530100489
 30
0.0
 40
5.459999999999999
  1
XL
  0
TEXT
  5
11F
  8
回03-記事
  6
CONTINUOUS
 62
     7
 10
173.1727616014968
 20
1821.394170490056
 30
0.0
 40
6.240000000000001
  1
1
  0
TEXT
  5
120
  8
回03-記事
  6
CONTINUOUS
 62
     7
 10
172.6942703067743
 20
1840.443425988973
 30
0.0
 40
6.240000000000001
  1
2
  0
LINE
  5
121
  8
回03-記事
  6
CONTINUOUS
 62
     7
 10
179.2724862901122
 20
1842.816370770244
 30
0.0
 11
212.0324862901125
 21
1842.816370770244
 31
0.0
  0
LINE
  5
122
  8
回03-記事
  6
CONTINUOUS
 62
     7
 10
179.2724862901122
 20
1824.486370770244
 30
0.0
 11
196.6664862901134
 21
1824.486370770244
 31
0.0
  0
LINE
  5
123
  8
回03-記事
  6
CONTINUOUS
 62
     7
 10
212.0324862901125
 20
1804.596370770244
 30
0.0
 11
257.6624862901126
 21
1804.596370770244
 31
0.0
  0
LINE
  5
124
  8
回03-記事
  6
CONTINUOUS
 62
     7
 10
179.2724862901122
 20
1886.496370770244
 30
0.0
 11
257.6624862901126
 21
1886.496370770244
 31
0.0
  0
LINE
  5
125
  8
回03-記事
  6
CONTINUOUS
 62
     7
 10
179.2724862901122
 20
1865.046370770244
 30
0.0
 11
236.2124862901128
 21
1865.046370770244
 31
0.0
  0
LINE
  5
126
  8
回03-記事
  6
CONTINUOUS
 62
     7
 10
231.1424862901131
 20
1826.046370770244
 30
0.0
 11
236.2124862901128
 21
1826.046370770244
 31
0.0
  0
TEXT
  5
127
  8
回03-記事
  6
CONTINUOUS
 62
     7
 10
231.4391044684144
 20
1818.083165692962
 30
0.0
 40
5.459999999999999
  1
XR
  0
ARC
  5
128
  8
回01-TP外形
  6
CONTINUOUS
 62
     7
 10
-140.426613854408
 20
1597.850525247771
 30
0.0
 40
0.5
 50
0.0
 51
180.0
  0
ARC
  5
12A
  8
回01-TP外形
  6
CONTINUOUS
 62
     7
 10
-148.426613854408
 20
1597.850525247771
 30
0.0
 40
0.5
 50
0.0
 51
180.0
  0
ARC
  5
12B
  8
回01-TP外形
  6
CONTINUOUS
 62
     7
 10
-144.426613854408
 20
1597.850525247771
 30
0.0
 40
0.5
 50
0.0
 51
180.0
  0
ARC
  5
12C
  8
回01-TP外形
  6
CONTINUOUS
 62
     7
 10
-124.426613854408
 20
1597.850525247771
 30
0.0
 40
0.5
 50
0.0
 51
180.0
  0
ARC
  5
12D
  8
回01-TP外形
  6
CONTINUOUS
 62
     7
 10
-128.426613854408
 20
1597.850525247771
 30
0.0
 40
0.5
 50
0.0
 51
180.0
  0
ARC
  5
12E
  8
回01-TP外形
  6
CONTINUOUS
 62
     7
 10
-116.426613854408
 20
1597.850525247771
 30
0.0
 40
0.5
 50
0.0
 51
180.0
  0
ARC
  5
12F
  8
回01-TP外形
  6
CONTINUOUS
 62
     7
 10
-120.426613854408
 20
1597.850525247771
 30
0.0
 40
0.5
 50
0.0
 51
180.0
  0
ARC
  5
130
  8
回01-TP外形
  6
CONTINUOUS
 62
     7
 10
-136.426613854408
 20
1597.850525247771
 30
0.0
 40
0.5
 50
0.0
 51
180.0
  0
ARC
  5
131
  8
回01-TP外形
  6
CONTINUOUS
 62
     7
 10
-132.426613854408
 20
1597.850525247771
 30
0.0
 40
0.5
 50
0.0
 51
180.0
  0
LINE
  5
132
  8
回01-TP外形
  6
CONTINUOUS
 62
     7
 10
-238.3266573651754
 20
1593.850525247771
 30
0.0
 11
-238.3266573651754
 21
1600.850525247772
 31
0.0
  0
LINE
  5
133
  8
回03-記事
  6
CONTINUOUS
 62
     7
 10
-171.8143990130356
 20
1601.850525247771
 30
0.0
 11
-168.2056192653717
 21
1608.372270887005
 31
0.0
  0
LINE
  5
134
  8
回03-記事
  6
CONTINUOUS
 62
     7
 10
-166.8019638986097
 20
1597.273961423551
 30
0.0
 11
-168.2056192653717
 21
1608.372270887005
 31
0.0
  0
LINE
  5
135
  8
回03-記事
  6
CONTINUOUS
 62
     7
 10
-234.2356856308879
 20
1595.167184442929
 30
0.0
 11
-229.2761215871442
 21
1582.666305958481
 31
0.0
  0
LINE
  5
136
  8
回01-TP外形
  6
CONTINUOUS
 62
     7
 10
-167.3066138544081
 20
1597.850525247771
 30
0.0
 11
-167.3066138544081
 21
1596.350525247771
 31
0.0
  0
POLYLINE
  5
137
  8
回01-TP外形
  6
CONTINUOUS
 62
     7
 66
     1
 10
0.0
 20
0.0
 30
0.0
 70
     1
  0
VERTEX
  5
9DB
  8
回01-TP外形
  6
CONTINUOUS
 62
     7
 10
-233.3266138544077
 20
1600.850525247772
 30
0.0
  0
VERTEX
  5
9DD
  8
回01-TP外形
  6
CONTINUOUS
 62
     7
 10
-158.3266138544077
 20
1600.850525247772
 30
0.0
  0
VERTEX
  5
9DE
  8
回01-TP外形
  6
CONTINUOUS
 62
     7
 10
-158.3266138544077
 20
1602.350525247771
 30
0.0
  0
VERTEX
  5
9DF
  8
回01-TP外形
  6
CONTINUOUS
 62
     7
 10
-233.3266138544077
 20
1602.350525247771
 30
0.0
  0
SEQEND
  5
9DC
  8
0
  6
CONTINUOUS
 62
     5
  0
LINE
  5
138
  8
回01-TP外形
  6
CONTINUOUS
 62
     7
 10
-151.0766138544077
 20
1600.850525247772
 30
0.0
 11
-151.0766138544077
 21
1597.850525247771
 31
0.0
  0
DIMENSION
  5
139
  8
回02-寸法
  6
CONTINUOUS
 62
     7
  2
*D4343
 10
-157.8266138544077
 20
1609.44562630593
 30
0.0
 11
-148.9281886575573
 21
1612.145626305931
 31
0.0
 70
    32
  1
(<>)
  3
STANDARD
 13
-158.3266138544077
 23
1597.850525247771
 33
0.0
 14
-157.8266138544077
 24
1604.850525247772
 34
0.0
1001
ACAD
1000
DSTYLE
1002
{
1070
    47
1040
0.3
1070
    48
1040
0.3
1070
   140
1040
4.0
1070
   146
1040
0.7
1070
   283
1070
     0
1070
   288
1070
     0
1070
   341
1005
0
1070
   371
1070
    13
1070
   372
1070
    13
1002
}
  0
DIMENSION
  5
14A
  8
回02-寸法
  6
CONTINUOUS
 62
     7
  2
*D4444
 10
104.6733861455914
 20
1613.028896329399
 30
0.0
 11
113.5718113424418
 21
1615.728896329399
 31
0.0
 70
    32
  1
(<>)
  3
STANDARD
 13
104.1733861455914
 23
1604.850525247772
 33
0.0
 14
104.6733861455914
 24
1597.850525247771
 34
0.0
1001
ACAD
1000
DSTYLE
1002
{
1070
    47
1040
0.3
1070
    48
1040
0.3
1070
   140
1040
4.0
1070
   146
1040
0.7
1070
   283
1070
     0
1070
   288
1070
     0
1070
   341
1005
0
1070
   371
1070
    13
1070
   372
1070
    13
1002
}
  0
LINE
  5
15B
  8
回01-TP外形
  6
CONTINUOUS
 62
     7
 10
104.1733861455914
 20
1597.850525247771
 30
0.0
 11
104.1733861455914
 21
1604.850525247772
 31
0.0
  0
LINE
  5
15C
  8
回03-記事
  6
CONTINUOUS
 62
     7
 10
-157.6006594632445
 20
1590.427907463725
 30
0.0
 11
-154.5961222698543
 21
1584.567182379522
 31
0.0
  0
TEXT
  5
15D
  8
回03-記事
  6
CONTINUOUS
 62
     7
 10
-154.6260144540783
 20
1578.783180368485
 30
0.0
 40
5.0
  1
6
  0
LINE
  5
15E
  8
回01-TP外形
  6
CONTINUOUS
 62
     7
 10
-159.8266138544077
 20
1590.350525247771
 30
0.0
 11
-159.8266138544077
 21
1594.850525247772
 31
0.0
  0
LINE
  5
15F
  8
回01-TP外形
  6
CONTINUOUS
 62
     7
 10
-154.8266138544077
 20
1590.350525247771
 30
0.0
 11
-159.8266138544077
 21
1590.350525247771
 31
0.0
  0
LINE
  5
160
  8
回01-TP外形
  6
CONTINUOUS
 62
     7
 10
-154.8266138544077
 20
1591.850525247771
 30
0.0
 11
-154.8266138544077
 21
1590.350525247771
 31
0.0
  0
LINE
  5
161
  8
回01-TP外形
  6
CONTINUOUS
 62
     7
 10
-162.5180968588083
 20
1594.850525247772
 30
0.0
 11
-159.8266138544077
 21
1594.850525247772
 31
0.0
  0
LINE
  5
162
  8
回01-TP外形
  6
CONTINUOUS
 62
     7
 10
-162.5180968588083
 20
1596.350525247771
 30
0.0
 11
-162.5180968588083
 21
1594.850525247772
 31
0.0
  0
ARC
  5
163
  8
回01-TP外形
  6
CONTINUOUS
 62
     7
 10
99.57338614559194
 20
1597.850525247771
 30
0.0
 40
0.5
 50
0.0
 51
180.0
  0
LINE
  5
164
  8
回01-TP外形
  6
CONTINUOUS
 62
     7
 10
100.4233861455923
 20
1597.850525247771
 30
0.0
 11
100.4233861455923
 21
1600.850525247772
 31
0.0
  0
ARC
  5
165
  8
回01-TP外形
  6
CONTINUOUS
 62
     7
 10
95.57338614559194
 20
1597.850525247771
 30
0.0
 40
0.5
 50
0.0
 51
180.0
  0
LINE
  5
166
  8
回01-TP外形
  6
CONTINUOUS
 62
     7
 10
104.6733861455914
 20
1591.850525247771
 30
0.0
 11
104.6733861455914
 21
1597.850525247771
 31
0.0
  0
DIMENSION
  5
167
  8
回02-寸法
  6
CONTINUOUS
 62
     7
  2
*D4545
 10
113.0331121805848
 20
1591.85052524777
 30
0.0
 11
113.0331121805848
 21
1578.979619735959
 31
0.0
 70
   160
  1
2.1±0.2
  3
STANDARD
 13
104.1733861455914
 23
1604.850525247772
 33
0.0
 14
104.6733861455914
 24
1591.85052524777
 34
0.0
 50
90.0
1001
ACAD
1000
DSTYLE
1002
{
1070
   372
1070
    13
1070
   371
1070
    13
1070
   140
1040
4.0
1002
}
1001
ACADSTRINGINFO
1000
MIFCodePage
1070
     1
  0
ARC
  5
178
  8
回01-TP外形
  6
CONTINUOUS
 62
     7
 10
91.57338614559192
 20
1597.850525247771
 30
0.0
 40
0.5
 50
0.0
 51
180.0
  0
ARC
  5
179
  8
回01-TP外形
  6
CONTINUOUS
 62
     7
 10
79.57338614559194
 20
1597.850525247771
 30
0.0
 40
0.5
 50
0.0
 51
180.0
  0
ARC
  5
17A
  8
回01-TP外形
  6
CONTINUOUS
 62
     7
 10
75.57338614559194
 20
1597.850525247771
 30
0.0
 40
0.5
 50
0.0
 51
180.0
  0
ARC
  5
17B
  8
回01-TP外形
  6
CONTINUOUS
 62
     7
 10
83.57338614559195
 20
1597.850525247771
 30
0.0
 40
0.5
 50
0.0
 51
180.0
  0
ARC
  5
17C
  8
回01-TP外形
  6
CONTINUOUS
 62
     7
 10
87.57338614559193
 20
1597.850525247771
 30
0.0
 40
0.5
 50
0.0
 51
180.0
  0
ARC
  5
17D
  8
回01-TP外形
  6
CONTINUOUS
 62
     7
 10
59.57338614559194
 20
1597.850525247771
 30
0.0
 40
0.5
 50
0.0
 51
180.0
  0
ARC
  5
17E
  8
回01-TP外形
  6
CONTINUOUS
 62
     7
 10
71.57338614559193
 20
1597.850525247771
 30
0.0
 40
0.5
 50
0.0
 51
180.0
  0
ARC
  5
17F
  8
回01-TP外形
  6
CONTINUOUS
 62
     7
 10
63.57338614559194
 20
1597.850525247771
 30
0.0
 40
0.5
 50
0.0
 51
180.0
  0
ARC
  5
180
  8
回01-TP外形
  6
CONTINUOUS
 62
     7
 10
67.57338614559194
 20
1597.850525247771
 30
0.0
 40
0.5
 50
0.0
 51
180.0
  0
ARC
  5
181
  8
回01-TP外形
  6
CONTINUOUS
 62
     7
 10
43.57338614559194
 20
1597.850525247771
 30
0.0
 40
0.5
 50
0.0
 51
180.0
  0
ARC
  5
182
  8
回01-TP外形
  6
CONTINUOUS
 62
     7
 10
39.57338614559194
 20
1597.850525247771
 30
0.0
 40
0.5
 50
0.0
 51
180.0
  0
ARC
  5
183
  8
回01-TP外形
  6
CONTINUOUS
 62
     7
 10
51.57338614559193
 20
1597.850525247771
 30
0.0
 40
0.5
 50
0.0
 51
180.0
  0
ARC
  5
184
  8
回01-TP外形
  6
CONTINUOUS
 62
     7
 10
47.57338614559194
 20
1597.850525247771
 30
0.0
 40
0.5
 50
0.0
 51
180.0
  0
ARC
  5
185
  8
回01-TP外形
  6
CONTINUOUS
 62
     7
 10
55.57338614559194
 20
1597.850525247771
 30
0.0
 40
0.5
 50
0.0
 51
180.0
  0
ARC
  5
186
  8
回01-TP外形
  6
CONTINUOUS
 62
     7
 10
23.57338614559194
 20
1597.850525247771
 30
0.0
 40
0.5
 50
0.0
 51
180.0
  0
ARC
  5
187
  8
回01-TP外形
  6
CONTINUOUS
 62
     7
 10
27.57338614559194
 20
1597.850525247771
 30
0.0
 40
0.5
 50
0.0
 51
180.0
  0
ARC
  5
188
  8
回01-TP外形
  6
CONTINUOUS
 62
     7
 10
31.57338614559194
 20
1597.850525247771
 30
0.0
 40
0.5
 50
0.0
 51
180.0
  0
ARC
  5
189
  8
回01-TP外形
  6
CONTINUOUS
 62
     7
 10
35.57338614559194
 20
1597.850525247771
 30
0.0
 40
0.5
 50
0.0
 51
180.0
  0
ARC
  5
18A
  8
回01-TP外形
  6
CONTINUOUS
 62
     7
 10
3.573386145591939
 20
1597.850525247771
 30
0.0
 40
0.5
 50
0.0
 51
180.0
  0
ARC
  5
18B
  8
回01-TP外形
  6
CONTINUOUS
 62
     7
 10
7.573386145591938
 20
1597.850525247771
 30
0.0
 40
0.5
 50
0.0
 51
180.0
  0
ARC
  5
18C
  8
回01-TP外形
  6
CONTINUOUS
 62
     7
 10
11.57338614559193
 20
1597.850525247771
 30
0.0
 40
0.5
 50
0.0
 51
180.0
  0
ARC
  5
18D
  8
回01-TP外形
  6
CONTINUOUS
 62
     7
 10
15.57338614559194
 20
1597.850525247771
 30
0.0
 40
0.5
 50
0.0
 51
180.0
  0
ARC
  5
18E
  8
回01-TP外形
  6
CONTINUOUS
 62
     7
 10
19.57338614559194
 20
1597.850525247771
 30
0.0
 40
0.5
 50
0.0
 51
180.0
  0
ARC
  5
18F
  8
回01-TP外形
  6
CONTINUOUS
 62
     7
 10
-4.426613854408059
 20
1597.850525247771
 30
0.0
 40
0.5
 50
0.0
 51
180.0
  0
ARC
  5
190
  8
回01-TP外形
  6
CONTINUOUS
 62
     7
 10
-12.42661385440806
 20
1597.850525247771
 30
0.0
 40
0.5
 50
0.0
 51
180.0
  0
ARC
  5
191
  8
回01-TP外形
  6
CONTINUOUS
 62
     7
 10
-8.426613854408058
 20
1597.850525247771
 30
0.0
 40
0.5
 50
0.0
 51
180.0
  0
ARC
  5
192
  8
回01-TP外形
  6
CONTINUOUS
 62
     7
 10
-0.4266138544080606
 20
1597.850525247771
 30
0.0
 40
0.5
 50
0.0
 51
180.0
  0
LINE
  5
193
  8
回03-記事
  6
CONTINUOUS
 62
     7
 10
-26.95301874313827
 20
1593.714652826592
 30
0.0
 11
-20.96483353786698
 21
1586.828783187819
 31
0.0
  0
ARC
  5
194
  8
回01-TP外形
  6
CONTINUOUS
 62
     7
 10
-24.42661385440806
 20
1597.850525247771
 30
0.0
 40
0.5
 50
0.0
 51
180.0
  0
ARC
  5
195
  8
回01-TP外形
  6
CONTINUOUS
 62
     7
 10
-32.42661385440806
 20
1597.850525247771
 30
0.0
 40
0.5
 50
0.0
 51
180.0
  0
ARC
  5
196
  8
回01-TP外形
  6
CONTINUOUS
 62
     7
 10
-28.42661385440806
 20
1597.850525247771
 30
0.0
 40
0.5
 50
0.0
 51
180.0
  0
TEXT
  5
197
  8
回03-記事
  6
CONTINUOUS
 62
     7
 10
-20.27823331872514
 20
1582.487124826262
 30
0.0
 40
5.0
  1
2
  0
ARC
  5
198
  8
回01-TP外形
  6
CONTINUOUS
 62
     7
 10
-20.42661385440806
 20
1597.850525247771
 30
0.0
 40
0.5
 50
0.0
 51
180.0
  0
ARC
  5
199
  8
回01-TP外形
  6
CONTINUOUS
 62
     7
 10
-16.42661385440806
 20
1597.850525247771
 30
0.0
 40
0.5
 50
0.0
 51
180.0
  0
ARC
  5
19A
  8
回01-TP外形
  6
CONTINUOUS
 62
     7
 10
-44.42661385440806
 20
1597.850525247771
 30
0.0
 40
0.5
 50
0.0
 51
180.0
  0
ARC
  5
19B
  8
回01-TP外形
  6
CONTINUOUS
 62
     7
 10
-48.42661385440806
 20
1597.850525247771
 30
0.0
 40
0.5
 50
0.0
 51
180.0
  0
ARC
  5
19C
  8
回01-TP外形
  6
CONTINUOUS
 62
     7
 10
-40.42661385440806
 20
1597.850525247771
 30
0.0
 40
0.5
 50
0.0
 51
180.0
  0
ARC
  5
19D
  8
回01-TP外形
  6
CONTINUOUS
 62
     7
 10
-36.42661385440806
 20
1597.850525247771
 30
0.0
 40
0.5
 50
0.0
 51
180.0
  0
ARC
  5
19E
  8
回01-TP外形
  6
CONTINUOUS
 62
     7
 10
-68.42661385440806
 20
1597.850525247771
 30
0.0
 40
0.5
 50
0.0
 51
180.0
  0
ARC
  5
19F
  8
回01-TP外形
  6
CONTINUOUS
 62
     7
 10
-64.42661385440806
 20
1597.850525247771
 30
0.0
 40
0.5
 50
0.0
 51
180.0
  0
ARC
  5
1A0
  8
回01-TP外形
  6
CONTINUOUS
 62
     7
 10
-52.42661385440806
 20
1597.850525247771
 30
0.0
 40
0.5
 50
0.0
 51
180.0
  0
ARC
  5
1A1
  8
回01-TP外形
  6
CONTINUOUS
 62
     7
 10
-60.42661385440806
 20
1597.850525247771
 30
0.0
 40
0.5
 50
0.0
 51
180.0
  0
ARC
  5
1A2
  8
回01-TP外形
  6
CONTINUOUS
 62
     7
 10
-56.42661385440806
 20
1597.850525247771
 30
0.0
 40
0.5
 50
0.0
 51
180.0
  0
ARC
  5
1A3
  8
回01-TP外形
  6
CONTINUOUS
 62
     7
 10
-84.42661385440805
 20
1597.850525247771
 30
0.0
 40
0.5
 50
0.0
 51
180.0
  0
TEXT
  5
1A4
  8
回03-記事
  6
CONTINUOUS
 62
     7
 10
-85.20344960163219
 20
1610.181371341655
 30
0.0
 40
5.0
  1
1
  0
ARC
  5
1A5
  8
回01-TP外形
  6
CONTINUOUS
 62
     7
 10
-72.42661385440806
 20
1597.850525247771
 30
0.0
 40
0.5
 50
0.0
 51
180.0
  0
ARC
  5
1A6
  8
回01-TP外形
  6
CONTINUOUS
 62
     7
 10
-80.42661385440807
 20
1597.850525247771
 30
0.0
 40
0.5
 50
0.0
 51
180.0
  0
ARC
  5
1A7
  8
回01-TP外形
  6
CONTINUOUS
 62
     7
 10
-76.42661385440806
 20
1597.850525247771
 30
0.0
 40
0.5
 50
0.0
 51
180.0
  0
LINE
  5
1A8
  8
回03-記事
  6
CONTINUOUS
 62
     7
 10
-76.00823240296448
 20
1603.165252806078
 30
0.0
 11
-81.31851062833721
 21
1609.03517446536
 31
0.0
  0
ARC
  5
1A9
  8
回01-TP外形
  6
CONTINUOUS
 62
     7
 10
-100.426613854408
 20
1597.850525247771
 30
0.0
 40
0.5
 50
0.0
 51
180.0
  0
ARC
  5
1AA
  8
回01-TP外形
  6
CONTINUOUS
 62
     7
 10
-104.426613854408
 20
1597.850525247771
 30
0.0
 40
0.5
 50
0.0
 51
180.0
  0
ARC
  5
1AB
  8
回01-TP外形
  6
CONTINUOUS
 62
     7
 10
-92.42661385440806
 20
1597.850525247771
 30
0.0
 40
0.5
 50
0.0
 51
180.0
  0
ARC
  5
1AC
  8
回01-TP外形
  6
CONTINUOUS
 62
     7
 10
-96.42661385440806
 20
1597.850525247771
 30
0.0
 40
0.5
 50
0.0
 51
180.0
  0
ARC
  5
1AD
  8
回01-TP外形
  6
CONTINUOUS
 62
     7
 10
-88.42661385440806
 20
1597.850525247771
 30
0.0
 40
0.5
 50
0.0
 51
180.0
  0
LINE
  5
1AE
  8
回01-TP外形
  6
CONTINUOUS
 62
     7
 10
-157.8266138544077
 20
1600.850525247772
 30
0.0
 11
-157.8266138544077
 21
1604.850525247772
 31
0.0
  0
LINE
  5
1AF
  8
回01-TP外形
  6
CONTINUOUS
 62
     7
 10
-158.3266138544077
 20
1591.850525247771
 30
0.0
 11
-158.3266138544077
 21
1597.850525247771
 31
0.0
  0
ARC
  5
1B0
  8
回01-TP外形
  6
CONTINUOUS
 62
     7
 10
-112.426613854408
 20
1597.850525247771
 30
0.0
 40
0.5
 50
0.0
 51
180.0
  0
LINE
  5
1B1
  8
回01-TP外形
  6
CONTINUOUS
 62
     7
 10
-154.8266138544077
 20
1597.850525247771
 30
0.0
 11
-154.8266138544077
 21
1600.850525247772
 31
0.0
  0
ARC
  5
1B2
  8
回01-TP外形
  6
CONTINUOUS
 62
     7
 10
-108.426613854408
 20
1597.850525247771
 30
0.0
 40
0.5
 50
0.0
 51
180.0
  0
LINE
  5
1B3
  8
回03-記事
  6
CONTINUOUS
 62
     7
 10
-175.3811279308111
 20
1599.188579778415
 30
0.0
 11
-172.3765907374209
 21
1593.327854694212
 31
0.0
  0
TEXT
  5
1B4
  8
回03-記事
  6
CONTINUOUS
 62
     7
 10
-172.4064829216449
 20
1587.543852683175
 30
0.0
 40
5.0
  1
3
  0
TEXT
  5
1B5
  8
回03-記事
  6
CONTINUOUS
 62
     7
 10
-169.0026775056849
 20
1608.73606750282
 30
0.0
 40
5.0
  1
5
  0
LINE
  5
1B6
  8
回01-TP外形
  6
CONTINUOUS
 62
     7
 10
-228.3266138544077
 20
1593.850525247771
 30
0.0
 11
-228.3266138544077
 21
1597.850525247771
 31
0.0
  0
TEXT
  5
1B7
  8
回03-記事
  6
CONTINUOUS
 62
     7
 10
-229.9146549657653
 20
1580.481726642881
 30
0.0
 40
5.0
  1
4
  0
DIMENSION
  5
1B8
  8
回02-寸法
  6
CONTINUOUS
 62
     7
  2
*D4646
 10
-245.8327396314007
 20
1593.850525247771
 30
0.0
 11
-245.8327396314007
 21
1582.060960545892
 31
0.0
 70
   160
  1
0.3{\H0.7x;±0.05}
  3
STANDARD
 13
-238.3266573651754
 23
1600.850525247772
 33
0.0
 14
-238.3266138544077
 24
1593.850525247771
 34
0.0
 50
90.0
1001
ACAD
1000
DSTYLE
1002
{
1070
   372
1070
    13
1070
   371
1070
    13
1070
   140
1040
4.0
1002
}
1001
ACADSTRINGINFO
1000
MIFCodePage
1070
     1
  0
DIMENSION
  5
1C9
  8
回02-寸法
  6
CONTINUOUS
 62
     7
  2
*D4747
 10
-228.3266138544077
 20
1587.756460426503
 30
0.0
 11
-220.4281886575572
 21
1587.756460426503
 31
0.0
 70
   160
  1
(<>)
  3
STANDARD
 13
-238.3266138544077
 23
1597.850525247771
 33
0.0
 14
-228.3266138544077
 24
1597.850525247771
 34
0.0
1001
ACAD
1000
DSTYLE
1002
{
1070
   372
1070
    13
1070
   371
1070
    13
1070
   140
1040
4.0
1002
}
  0
LINE
  5
1DA
  8
回01-TP外形
  6
CONTINUOUS
 62
     7
 10
-238.3266138544077
 20
1593.850525247771
 30
0.0
 11
-228.3266138544077
 21
1593.850525247771
 31
0.0
  0
DIMENSION
  5
1DB
  8
回02-寸法
  6
CONTINUOUS
 62
     7
  2
*D4848
 10
-233.3266138544077
 20
1606.454188771795
 30
0.0
 11
-227.9437711419332
 21
1606.454188771795
 31
0.0
 70
   160
  3
STANDARD
 13
-238.3266138544077
 23
1600.850525247772
 33
0.0
 14
-233.3266138544077
 24
1600.850525247772
 34
0.0
1001
ACAD
1000
DSTYLE
1002
{
1070
   140
1040
4.0
1070
   371
1070
    13
1070
   372
1070
    13
1002
}
  0
LINE
  5
1EC
  8
回01-TP外形
  6
CONTINUOUS
 62
     7
 10
-167.3066138544081
 20
1596.350525247771
 30
0.0
 11
-158.3266138544077
 21
1596.350525247771
 31
0.0
  0
LINE
  5
1ED
  8
回01-TP外形
  6
CONTINUOUS
 62
     7
 10
-238.3266138544077
 20
1597.850525247771
 30
0.0
 11
104.6733861455914
 21
1597.850525247771
 31
0.0
  0
LINE
  5
1EE
  8
回01-TP外形
  6
CONTINUOUS
 62
     7
 10
-238.3266138544077
 20
1600.850525247772
 30
0.0
 11
104.1733861455914
 21
1600.850525247772
 31
0.0
  0
LINE
  5
1EF
  8
回01-TP外形
  6
CONTINUOUS
 62
     7
 10
-158.3266138544077
 20
1591.850525247771
 30
0.0
 11
104.6733861455923
 21
1591.850525247771
 31
0.0
  0
LINE
  5
1F0
  8
回01-TP外形
  6
CONTINUOUS
 62
     7
 10
-157.8266138544077
 20
1604.850525247772
 30
0.0
 11
104.1733861455914
 21
1604.850525247772
 31
0.0
  0
DIMENSION
  5
1F1
  8
回02-寸法
  6
CONTINUOUS
 62
     7
  2
*D4949
 10
-248.7697024275567
 20
1639.292727471813
 30
0.0
 11
-251.4707490203991
 21
1687.985659878744
 31
0.0
 70
    32
  3
STANDARD
 13
-237.8266573557776
 23
1736.678592285675
 33
0.0
 14
-158.3266138544077
 24
1639.292727471813
 34
0.0
 50
90.0
1001
ACAD
1000
DSTYLE
1002
{
1070
     3
1000
(<>)
1070
    41
1040
1.5
1070
    47
1040
0.3
1070
    48
1040
0.3
1070
   140
1040
4.0
1070
   141
1040
1.5
1070
   146
1040
0.7
1070
   283
1070
     0
1070
   288
1070
     0
1070
   341
1005
0
1070
   371
1070
    13
1070
   372
1070
    13
1002
}
  0
DIMENSION
  5
200
  8
回02-寸法
  6
CONTINUOUS
 62
     7
  2
*D5050
 10
-158.3266138544077
 20
1869.635201589738
 30
0.0
 11
-186.2308264528329
 21
1872.335201589739
 31
0.0
 70
    32
  1
<>(Insulation Area)
  3
STANDARD
 13
-151.0766138544077
 23
1835.092727471813
 33
0.0
 14
-158.3266138544077
 24
1840.292727471813
 34
0.0
1001
ACAD
1000
DSTYLE
1002
{
1070
    41
1040
1.5
1070
    47
1040
0.3
1070
    48
1040
0.3
1070
   140
1040
4.0
1070
   141
1040
1.5
1070
   146
1040
0.7
1070
   283
1070
     0
1070
   288
1070
     0
1070
   341
1005
0
1070
   371
1070
    13
1070
   372
1070
    13
1002
}
1001
ACADSTRINGINFO
1000
MIFCodePage
1070
     1
  0
DIMENSION
  5
211
  8
回02-寸法
  6
CONTINUOUS
 62
     7
  2
*D5151
 10
104.6733861455923
 20
1869.635201589738
 30
0.0
 11
114.1718113424427
 21
1872.335201589739
 31
0.0
 70
    32
  1
(<>)
  3
STANDARD
 13
100.4233861455923
 23
1835.092727471813
 33
0.0
 14
104.6733861455923
 24
1840.292727471813
 34
0.0
1001
ACAD
1000
DSTYLE
1002
{
1070
    41
1040
1.5
1070
    47
1040
0.3
1070
    48
1040
0.3
1070
   140
1040
4.0
1070
   141
1040
1.5
1070
   146
1040
0.7
1070
   283
1070
     0
1070
   288
1070
     0
1070
   341
1005
0
1070
   371
1070
    13
1070
   372
1070
    13
1002
}
1001
ACADSTRINGINFO
1000
MIFCodePage
1070
     1
  0
DIMENSION
  5
222
  8
回02-寸法
  6
CONTINUOUS
 62
     7
  2
*D5252
 10
104.6733861455923
 20
1862.610014797106
 30
0.0
 11
114.1718113424427
 21
1865.310014797106
 31
0.0
 70
    32
  1
(<>)
  3
STANDARD
 13
99.9233861455923
 23
1834.292727471813
 33
0.0
 14
104.6733861455923
 24
1840.292727471813
 34
0.0
1001
ACAD
1000
DSTYLE
1002
{
1070
    41
1040
1.5
1070
    47
1040
0.3
1070
    48
1040
0.3
1070
   140
1040
4.0
1070
   141
1040
1.5
1070
   146
1040
0.7
1070
   283
1070
     0
1070
   288
1070
     0
1070
   341
1005
0
1070
   371
1070
    13
1070
   372
1070
    13
1002
}
  0
DIMENSION
  5
233
  8
回02-寸法
  6
CONTINUOUS
 62
     7
  2
*D5353
 10
104.6733861455923
 20
1855.163386540415
 30
0.0
 11
113.9718113424427
 21
1855.163386540415
 31
0.0
 70
   160
  1
(<>)
  3
STANDARD
 13
97.92338614559231
 23
1832.292727471813
 33
0.0
 14
104.6733861455923
 24
1840.292727471813
 34
0.0
1001
ACAD
1000
DSTYLE
1002
{
1070
    41
1040
1.5
1070
    47
1040
0.3
1070
    48
1040
0.3
1070
   140
1040
4.0
1070
   141
1040
1.5
1070
   146
1040
0.7
1070
   283
1070
     0
1070
   288
1070
     0
1070
   341
1005
0
1070
   371
1070
    13
1070
   372
1070
    13
1002
}
  0
DIMENSION
  5
244
  8
回02-寸法
  6
CONTINUOUS
 62
     7
  2
*D5454
 10
145.337067799679
 20
1639.292727471813
 30
0.0
 11
142.637067799679
 21
1612.788514873388
 31
0.0
 70
    32
  1
<>(Insulation Area)
  3
STANDARD
 13
100.4233861455923
 23
1644.492727471813
 33
0.0
 14
104.6733861455923
 24
1639.292727471813
 34
0.0
 50
90.0
1001
ACADSTRINGINFO
1000
MIFCodePage
1070
     1
1001
ACAD
1000
DSTYLE
1002
{
1070
    41
1040
1.5
1070
    47
1040
0.3
1070
    48
1040
0.3
1070
   140
1040
4.0
1070
   141
1040
1.5
1070
   146
1040
0.7
1070
   283
1070
     0
1070
   288
1070
     0
1070
   341
1005
0
1070
   371
1070
    13
1070
   372
1070
    13
1002
}
  0
DIMENSION
  5
255
  8
回02-寸法
  6
CONTINUOUS
 62
     7
  2
*D5555
 10
128.9967776571529
 20
1840.292727471813
 30
0.0
 11
128.9967776571529
 21
1849.841152668673
 31
0.0
 70
   160
  1
(<>)
  3
STANDARD
 13
97.92338614559231
 23
1832.292727471813
 33
0.0
 14
104.6733861455923
 24
1840.292727471813
 34
0.0
 50
90.0
1001
ACAD
1000
DSTYLE
1002
{
1070
    41
1040
1.5
1070
    47
1040
0.3
1070
    48
1040
0.3
1070
   140
1040
4.0
1070
   141
1040
1.5
1070
   146
1040
0.7
1070
   283
1070
     0
1070
   288
1070
     0
1070
   341
1005
0
1070
   371
1070
    13
1070
   372
1070
    13
1002
}
  0
DIMENSION
  5
266
  8
回02-寸法
  6
CONTINUOUS
 62
     7
  2
*D5656
 10
137.3480041172643
 20
1840.292727471813
 30
0.0
 11
137.3480041172643
 21
1846.191152668665
 31
0.0
 70
   160
  1
(<>)
  3
STANDARD
 13
99.9233861455923
 23
1834.292727471813
 33
0.0
 14
104.6733861455923
 24
1840.292727471813
 34
0.0
 50
90.0
1001
ACAD
1000
DSTYLE
1002
{
1070
    41
1040
1.5
1070
    47
1040
0.3
1070
    48
1040
0.3
1070
   140
1040
4.0
1070
   141
1040
1.5
1070
   146
1040
0.7
1070
   283
1070
     0
1070
   288
1070
     0
1070
   341
1005
0
1070
   371
1070
    13
1070
   372
1070
    13
1002
}
  0
DIMENSION
  5
277
  8
回02-寸法
  6
CONTINUOUS
 62
     7
  2
*D5757
 10
145.337067799679
 20
1840.292727471813
 30
0.0
 11
142.637067799679
 21
1848.191152668664
 31
0.0
 70
    32
  1
(<>)
  3
STANDARD
 13
100.4233861455923
 23
1835.092727471813
 33
0.0
 14
104.6733861455923
 24
1840.292727471813
 34
0.0
 50
90.0
1001
ACADSTRINGINFO
1000
MIFCodePage
1070
     1
1001
ACAD
1000
DSTYLE
1002
{
1070
    41
1040
1.5
1070
    47
1040
0.3
1070
    48
1040
0.3
1070
   140
1040
4.0
1070
   141
1040
1.5
1070
   146
1040
0.7
1070
   283
1070
     0
1070
   288
1070
     0
1070
   341
1005
0
1070
   371
1070
    13
1070
   372
1070
    13
1002
}
  0
DIMENSION
  5
288
  8
回02-寸法
  6
CONTINUOUS
 62
     7
  2
*D5858
 10
145.3370677996845
 20
1644.492727471813
 30
0.0
 11
142.8370677996845
 21
1739.792727471813
 31
0.0
 70
    32
  3
STANDARD
 13
100.4233861455923
 23
1835.092727471813
 33
0.0
 14
100.4233861455923
 24
1644.492727471813
 34
0.0
 50
90.0
1001
ACAD
1000
DSTYLE
1002
{
1070
    41
1040
1.5
1070
    47
1040
0.3
1070
    48
1040
0.3
1070
   140
1040
4.0
1070
   141
1040
1.5
1070
   146
1040
0.7
1070
   283
1070
     0
1070
   288
1070
     0
1070
   341
1005
0
1070
   371
1070
    13
1070
   372
1070
    13
1002
}
  0
DIMENSION
  5
297
  8
回02-寸法
  6
CONTINUOUS
 62
     7
  2
*D5959
 10
-151.0766138544077
 20
1869.635201589738
 30
0.0
 11
-25.3266138544077
 21
1872.135201589738
 31
0.0
 70
    32
  3
STANDARD
 13
100.4233861455923
 23
1835.092727471813
 33
0.0
 14
-151.0766138544077
 24
1835.092727471813
 34
0.0
1001
ACAD
1000
DSTYLE
1002
{
1070
    41
1040
1.5
1070
    47
1040
0.3
1070
    48
1040
0.3
1070
   140
1040
4.0
1070
   141
1040
1.5
1070
   146
1040
0.7
1070
   283
1070
     0
1070
   288
1070
     0
1070
   341
1005
0
1070
   371
1070
    13
1070
   372
1070
    13
1002
}
  0
DIMENSION
  5
2A6
  8
回02-寸法
  6
CONTINUOUS
 62
     7
  2
*D6060
 10
137.3480041172652
 20
1639.292727471813
 30
0.0
 11
137.3480041172652
 21
1630.69751993592
 31
0.0
 70
   160
  3
STANDARD
 13
99.9233861455923
 23
1645.292727471813
 33
0.0
 14
104.6733861455923
 24
1639.292727471813
 34
0.0
 50
90.0
1001
ACAD
1000
DSTYLE
1002
{
1070
    41
1040
1.5
1070
    47
1040
0.3
1070
    48
1040
0.3
1070
   140
1040
4.0
1070
   141
1040
1.5
1070
   146
1040
0.7
1070
   283
1070
     0
1070
   288
1070
     0
1070
   341
1005
0
1070
   371
1070
    13
1070
   372
1070
    13
1002
}
  0
DIMENSION
  5
2B7
  8
回02-寸法
  6
CONTINUOUS
 62
     7
  2
*D6161
 10
128.9967776571529
 20
1639.292727471813
 30
0.0
 11
128.9967776571529
 21
1630.2125652552
 31
0.0
 70
   160
  3
STANDARD
 13
97.92338614559231
 23
1647.292727471813
 33
0.0
 14
104.6733861455923
 24
1639.292727471813
 34
0.0
 50
90.0
1001
ACAD
1000
DSTYLE
1002
{
1070
    41
1040
1.5
1070
    47
1040
0.3
1070
    48
1040
0.3
1070
   140
1040
4.0
1070
   141
1040
1.5
1070
   146
1040
0.7
1070
   283
1070
     0
1070
   288
1070
     0
1070
   341
1005
0
1070
   371
1070
    13
1070
   372
1070
    13
1002
}
  0
DIMENSION
  5
2C8
  8
回02-寸法
  6
CONTINUOUS
 62
     7
  2
*D6262
 10
-158.3266138544077
 20
1862.610014797106
 30
0.0
 11
-173.1177357649449
 21
1862.610014797106
 31
0.0
 70
   160
  3
STANDARD
 13
-150.5766138544077
 23
1834.292727471813
 33
0.0
 14
-158.3266138544077
 24
1840.292727471813
 34
0.0
1001
ACAD
1000
DSTYLE
1002
{
1070
    41
1040
1.5
1070
    47
1040
0.3
1070
    48
1040
0.3
1070
   140
1040
4.0
1070
   141
1040
1.5
1070
   146
1040
0.7
1070
   283
1070
     0
1070
   288
1070
     0
1070
   341
1005
0
1070
   371
1070
    13
1070
   372
1070
    13
1002
}
  0
DIMENSION
  5
2D9
  8
回02-寸法
  6
CONTINUOUS
 62
     7
  2
*D6363
 10
-158.3266138544077
 20
1855.163386540415
 30
0.0
 11
-171.2586059463046
 21
1855.163386540415
 31
0.0
 70
   160
  3
STANDARD
 13
-148.5766138544077
 23
1832.292727471813
 33
0.0
 14
-158.3266138544077
 24
1840.292727471813
 34
0.0
1001
ACAD
1000
DSTYLE
1002
{
1070
    41
1040
1.5
1070
    47
1040
0.3
1070
    48
1040
0.3
1070
   140
1040
4.0
1070
   141
1040
1.5
1070
   146
1040
0.7
1070
   283
1070
     0
1070
   288
1070
     0
1070
   341
1005
0
1070
   371
1070
    13
1070
   372
1070
    13
1002
}
  0
DIMENSION
  5
2EA
  8
回02-寸法
  6
CONTINUOUS
 62
     7
  2
*D6464
 10
151.4610963476061
 20
1840.292727471813
 30
0.0
 11
151.4610963476061
 21
1739.792727471813
 31
0.0
 70
   160
  3
STANDARD
 13
104.6733861455923
 23
1639.292727471813
 33
0.0
 14
104.6733861455923
 24
1840.292727471813
 34
0.0
 50
90.0
1001
ACAD
1000
DSTYLE
1002
{
1070
    41
1040
1.5
1070
    47
1040
0.3
1070
    48
1040
0.3
1070
    71
1070
     1
1070
   140
1040
4.0
1070
   141
1040
1.5
1070
   146
1040
0.7
1070
   283
1070
     0
1070
   288
1070
     0
1070
   341
1005
0
1070
   371
1070
    13
1070
   372
1070
    13
1002
}
  0
DIMENSION
  5
2F9
  8
回02-寸法
  6
CONTINUOUS
 62
     7
  2
*D6565
 10
137.3480041172552
 20
1645.292727471813
 30
0.0
 11
134.7730041172551
 21
1739.792727471813
 31
0.0
 70
    32
  1
<> {\H0.75x;(VIEWING AREA)}
  3
STANDARD
 13
99.9233861455923
 23
1834.292727471813
 33
0.0
 14
99.9233861455923
 24
1645.292727471813
 34
0.0
 50
90.0
1001
ACAD
1000
DSTYLE
1002
{
1070
    41
1040
1.5
1070
    47
1040
0.3
1070
    48
1040
0.3
1070
   140
1040
4.0
1070
   141
1040
1.5
1070
   146
1040
0.7
1070
   283
1070
     0
1070
   288
1070
     0
1070
   341
1005
0
1070
   371
1070
    13
1070
   372
1070
    13
1002
}
  0
DIMENSION
  5
308
  8
回02-寸法
  6
CONTINUOUS
 62
     7
  2
*D6666
 10
128.9967776571384
 20
1832.292727471813
 30
0.0
 11
126.4217776571383
 21
1739.792727471813
 31
0.0
 70
    32
  1
<> {\H0.75x;(ACTIVE AREA)}
  3
STANDARD
 13
97.92338614559231
 23
1647.292727471813
 33
0.0
 14
97.92338614559231
 24
1832.292727471813
 34
0.0
 50
90.0
1001
ACAD
1000
DSTYLE
1002
{
1070
    41
1040
1.5
1070
    47
1040
0.3
1070
    48
1040
0.3
1070
   140
1040
4.0
1070
   141
1040
1.5
1070
   146
1040
0.7
1070
   283
1070
     0
1070
   288
1070
     0
1070
   341
1005
0
1070
   371
1070
    13
1070
   372
1070
    13
1002
}
  0
DIMENSION
  5
317
  8
回02-寸法
  6
CONTINUOUS
 62
     7
  2
*D6767
 10
104.6733861455923
 20
1875.791213109086
 30
0.0
 11
-25.35161385440733
 21
1875.791213109086
 31
0.0
 70
   160
  3
STANDARD
 13
-158.3266138544077
 23
1840.292727471813
 33
0.0
 14
104.6733861455923
 24
1840.292727471813
 34
0.0
1001
ACAD
1000
DSTYLE
1002
{
1070
    41
1040
1.5
1070
    47
1040
0.3
1070
    48
1040
0.3
1070
    71
1070
     1
1070
   140
1040
4.0
1070
   141
1040
1.5
1070
   146
1040
0.7
1070
   283
1070
     0
1070
   288
1070
     0
1070
   341
1005
0
1070
   371
1070
    13
1070
   372
1070
    13
1002
}
  0
DIMENSION
  5
326
  8
回02-寸法
  6
CONTINUOUS
 62
     7
  2
*D6868
 10
99.9233861455923
 20
1862.610014797106
 30
0.0
 11
-25.3266138544077
 21
1865.185014797106
 31
0.0
 70
    32
  1
<> {\H0.75x;(VIEWING AREA)}
  3
STANDARD
 13
-150.5766138544077
 23
1834.292727471813
 33
0.0
 14
99.9233861455923
 24
1834.292727471813
 34
0.0
1001
ACAD
1000
DSTYLE
1002
{
1070
    41
1040
1.5
1070
    47
1040
0.3
1070
    48
1040
0.3
1070
   140
1040
4.0
1070
   141
1040
1.5
1070
   146
1040
0.7
1070
   283
1070
     0
1070
   288
1070
     0
1070
   341
1005
0
1070
   371
1070
    13
1070
   372
1070
    13
1002
}
  0
DIMENSION
  5
335
  8
回02-寸法
  6
CONTINUOUS
 62
     7
  2
*D6969
 10
97.92338614559231
 20
1855.163386540415
 30
0.0
 11
-25.3266138544077
 21
1857.738386540415
 31
0.0
 70
    32
  1
<> {\H0.75x;(ACTIVE AREA)}
  3
STANDARD
 13
-148.5766138544077
 23
1832.292727471813
 33
0.0
 14
97.92338614559231
 24
1832.292727471813
 34
0.0
1001
ACAD
1000
DSTYLE
1002
{
1070
    41
1040
1.5
1070
    47
1040
0.3
1070
    48
1040
0.3
1070
   140
1040
4.0
1070
   141
1040
1.5
1070
   146
1040
0.7
1070
   283
1070
     0
1070
   288
1070
     0
1070
   341
1005
0
1070
   371
1070
    13
1070
   372
1070
    13
1002
}
  0
POLYLINE
  5
344
  8
回01-TP外形
  6
PHANTOM2
 62
     7
 66
     1
 10
0.0
 20
0.0
 30
0.0
 70
     1
  0
VERTEX
  5
9E0
  8
回01-TP外形
  6
PHANTOM2
 62
     7
 10
-151.0766138544077
 20
1644.492727471813
 30
0.0
  0
VERTEX
  5
9E2
  8
回01-TP外形
  6
PHANTOM2
 62
     7
 10
100.4233861455923
 20
1644.492727471813
 30
0.0
  0
VERTEX
  5
9E3
  8
回01-TP外形
  6
PHANTOM2
 62
     7
 10
100.4233861455923
 20
1835.092727471813
 30
0.0
  0
VERTEX
  5
9E4
  8
回01-TP外形
  6
PHANTOM2
 62
     7
 10
-151.0766138544077
 20
1835.092727471813
 30
0.0
  0
SEQEND
  5
9E1
  8
0
  6
CONTINUOUS
 62
     5
  0
TEXT
  5
346
  8
回04-図面枠
 62
     7
 10
238.5455989043339
 20
1905.340511776582
 30
0.0
 40
4.0
  1
H
  0
LINE
  5
347
  8
回04-図面枠
 62
     7
 10
204.8162135986813
 20
1909.968088650531
 30
0.0
 11
204.8162135986813
 21
1904.96808865053
 31
0.0
  0
LINE
  5
348
  8
回04-図面枠
 62
     7
 10
134.8162135986813
 20
1909.968088650531
 30
0.0
 11
134.8162135986813
 21
1904.96808865053
 31
0.0
  0
TEXT
  5
349
  8
回04-図面枠
 62
     7
 10
98.54559890433392
 20
1905.340511776582
 30
0.0
 40
4.0
  1
F
  0
LINE
  5
34A
  8
回04-図面枠
 62
     7
 10
64.81621359868132
 20
1909.968088650531
 30
0.0
 11
64.81621359868132
 21
1904.96808865053
 31
0.0
  0
TEXT
  5
34B
  8
回04-図面枠
 62
     7
 10
28.54559890433393
 20
1905.340511776582
 30
0.0
 40
4.0
  1
E
  0
TEXT
  5
34C
  8
回04-図面枠
 62
     7
 10
168.5455989043339
 20
1905.340511776582
 30
0.0
 40
4.0
  1
G
  0
LINE
  5
34D
  8
回04-図面枠
 62
     7
 10
-5.183786401318683
 20
1909.968088650531
 30
0.0
 11
-5.183786401318683
 21
1904.96808865053
 31
0.0
  0
TEXT
  5
34E
  8
回04-図面枠
 62
     7
 10
-41.45440109566607
 20
1905.340511776582
 30
0.0
 40
4.0
  1
D
  0
LINE
  5
34F
  8
回04-図面枠
 62
     7
 10
-75.18378640131868
 20
1909.968088650531
 30
0.0
 11
-75.18378640131868
 21
1904.96808865053
 31
0.0
  0
TEXT
  5
350
  8
回04-図面枠
 62
     7
 10
-111.454401095666
 20
1905.340511776582
 30
0.0
 40
4.0
  1
C
  0
LINE
  5
351
  8
回04-図面枠
 62
     7
 10
-145.1837864013187
 20
1909.968088650531
 30
0.0
 11
-145.1837864013187
 21
1904.96808865053
 31
0.0
  0
TEXT
  5
352
  8
回04-図面枠
 62
     7
 10
-181.4544010956661
 20
1905.340511776582
 30
0.0
 40
4.0
  1
B
  0
LINE
  5
353
  8
回04-図面枠
 62
     7
 10
-215.1837864013187
 20
1909.968088650531
 30
0.0
 11
-215.1837864013187
 21
1904.96808865053
 31
0.0
  0
TEXT
  5
354
  8
回04-図面枠
 62
     7
 10
-251.4544010956661
 20
1905.340511776582
 30
0.0
 40
4.0
  1
A
  0
LINE
  5
355
  8
回04-図面枠
 62
     7
 10
279.8162135986813
 20
1909.968088650531
 30
0.0
 11
-290.1837864013187
 21
1909.968088650531
 31
0.0
  0
LINE
  5
356
  8
回04-図面枠
 62
     7
 10
-285.1837864013187
 20
1904.96808865053
 30
0.0
 11
274.8162135986813
 21
1904.96808865053
 31
0.0
  0
TEXT
  5
357
  8
回04-図面枠
 62
     7
 10
276.2206346023404
 20
1864.25677594639
 30
0.0
 40
4.0
  1
1
  0
LINE
  5
358
  8
回04-図面枠
 62
     7
 10
279.8162135986813
 20
1827.96808865053
 30
0.0
 11
274.8162135986813
 21
1827.96808865053
 31
0.0
  0
TEXT
  5
359
  8
回04-図面枠
 62
     7
 10
275.9191358990392
 20
1787.25677594639
 30
0.0
 40
4.0
  1
2
  0
LINE
  5
35A
  8
回04-図面枠
 62
     7
 10
279.8162135986813
 20
1750.96808865053
 30
0.0
 11
274.8162135986813
 21
1750.96808865053
 31
0.0
  0
TEXT
  5
35B
  8
回04-図面枠
 62
     7
 10
275.9136550548383
 20
1710.25677594639
 30
0.0
 40
4.0
  1
3
  0
LINE
  5
35C
  8
回04-図面枠
 62
     7
 10
279.8162135986813
 20
1673.96808865053
 30
0.0
 11
274.8162135986813
 21
1673.96808865053
 31
0.0
  0
TEXT
  5
35D
  8
回04-図面枠
 62
     7
 10
275.8405629347572
 20
1633.25677594639
 30
0.0
 40
4.0
  1
4
  0
TEXT
  5
35E
  8
回04-図面枠
 62
     7
 10
-288.7793653976596
 20
1864.25677594639
 30
0.0
 40
4.0
  1
1
  0
LINE
  5
35F
  8
回04-図面枠
 62
     7
 10
-285.1837864013187
 20
1827.96808865053
 30
0.0
 11
-290.1837864013187
 21
1827.96808865053
 31
0.0
  0
TEXT
  5
360
  8
回04-図面枠
 62
     7
 10
-289.0808641009607
 20
1787.25677594639
 30
0.0
 40
4.0
  1
2
  0
LINE
  5
361
  8
回04-図面枠
 62
     7
 10
-285.1837864013187
 20
1750.96808865053
 30
0.0
 11
-290.1837864013187
 21
1750.96808865053
 31
0.0
  0
TEXT
  5
362
  8
回04-図面枠
 62
     7
 10
-289.0863449451617
 20
1710.25677594639
 30
0.0
 40
4.0
  1
3
  0
LINE
  5
363
  8
回04-図面枠
 62
     7
 10
-285.1837864013187
 20
1673.96808865053
 30
0.0
 11
-290.1837864013187
 21
1673.96808865053
 31
0.0
  0
TEXT
  5
364
  8
回04-図面枠
 62
     7
 10
-289.1594370652429
 20
1633.25677594639
 30
0.0
 40
4.0
  1
4
  0
LINE
  5
365
  8
回04-図面枠
 62
     7
 10
279.8162135986813
 20
1596.968088650531
 30
0.0
 11
274.8162135986813
 21
1596.968088650531
 31
0.0
  0
TEXT
  5
366
  8
回04-図面枠
 62
     7
 10
275.8405629347572
 20
1556.25677594639
 30
0.0
 40
4.0
  1
5
  0
TEXT
  5
367
  8
回04-図面枠
 62
     7
 10
238.5455989043339
 20
1515.340511776582
 30
0.0
 40
4.0
  1
H
  0
LINE
  5
368
  8
回04-図面枠
 62
     7
 10
204.8162135986813
 20
1519.968088650531
 30
0.0
 11
204.8162135986813
 21
1514.968088650531
 31
0.0
  0
LINE
  5
369
  8
回04-図面枠
 62
     7
 10
134.8162135986813
 20
1519.968088650531
 30
0.0
 11
134.8162135986813
 21
1514.968088650531
 31
0.0
  0
TEXT
  5
36A
  8
回04-図面枠
 62
     7
 10
98.54559890433392
 20
1515.340511776582
 30
0.0
 40
4.0
  1
F
  0
LINE
  5
36B
  8
回04-図面枠
 62
     7
 10
64.81621359868132
 20
1519.968088650531
 30
0.0
 11
64.81621359868132
 21
1514.968088650531
 31
0.0
  0
TEXT
  5
36C
  8
回04-図面枠
 62
     7
 10
28.54559890433393
 20
1515.340511776582
 30
0.0
 40
4.0
  1
E
  0
TEXT
  5
36D
  8
回04-図面枠
 62
     7
 10
168.5455989043339
 20
1515.340511776582
 30
0.0
 40
4.0
  1
G
  0
LINE
  5
36E
  8
回04-図面枠
 62
     7
 10
-5.183786401318683
 20
1519.968088650531
 30
0.0
 11
-5.183786401318683
 21
1514.968088650531
 31
0.0
  0
TEXT
  5
36F
  8
回04-図面枠
 62
     7
 10
-41.45440109566607
 20
1515.340511776582
 30
0.0
 40
4.0
  1
D
  0
LINE
  5
370
  8
回04-図面枠
 62
     7
 10
-75.18378640131868
 20
1519.968088650531
 30
0.0
 11
-75.18378640131868
 21
1514.968088650531
 31
0.0
  0
TEXT
  5
371
  8
回04-図面枠
 62
     7
 10
-111.454401095666
 20
1515.340511776582
 30
0.0
 40
4.0
  1
C
  0
LINE
  5
372
  8
回04-図面枠
 62
     7
 10
-145.1837864013187
 20
1519.968088650531
 30
0.0
 11
-145.1837864013187
 21
1514.968088650531
 31
0.0
  0
LINE
  5
373
  8
回04-図面枠
 62
     7
 10
-285.1837864013187
 20
1596.968088650531
 30
0.0
 11
-290.1837864013187
 21
1596.968088650531
 31
0.0
  0
TEXT
  5
374
  8
回04-図面枠
 62
     7
 10
-289.1594370652429
 20
1556.25677594639
 30
0.0
 40
4.0
  1
5
  0
TEXT
  5
375
  8
回04-図面枠
 62
     7
 10
-181.4544010956661
 20
1515.340511776582
 30
0.0
 40
4.0
  1
B
  0
LINE
  5
376
  8
回04-図面枠
 62
     7
 10
-215.1837864013187
 20
1519.968088650531
 30
0.0
 11
-215.1837864013187
 21
1514.968088650531
 31
0.0
  0
TEXT
  5
377
  8
回04-図面枠
 62
     7
 10
-251.4544010956661
 20
1515.340511776582
 30
0.0
 40
4.0
  1
A
  0
LINE
  5
378
  8
回04-図面枠
 62
     7
 10
-285.1837864013187
 20
1519.968088650531
 30
0.0
 11
274.8162135986813
 21
1519.968088650531
 31
0.0
  0
LINE
  5
379
  8
回04-図面枠
 62
     7
 10
279.8162135986813
 20
1514.968088650531
 30
0.0
 11
-290.1837864013187
 21
1514.968088650531
 31
0.0
  0
LINE
  5
37A
  8
回04-図面枠
 62
     7
 10
279.8162135986813
 20
1514.968088650531
 30
0.0
 11
279.8162135986813
 21
1909.968088650531
 31
0.0
  0
LINE
  5
37B
  8
回04-図面枠
 62
     7
 10
274.8162135986813
 20
1904.96808865053
 30
0.0
 11
274.8162135986813
 21
1519.968088650531
 31
0.0
  0
LINE
  5
37C
  8
回04-図面枠
 62
     7
 10
-290.1837864013187
 20
1514.968088650531
 30
0.0
 11
-290.1837864013187
 21
1909.968088650531
 31
0.0
  0
LINE
  5
37D
  8
回04-図面枠
 62
     7
 10
-285.1837864013187
 20
1904.96808865053
 30
0.0
 11
-285.1837864013187
 21
1519.968088650531
 31
0.0
  0
TEXT
  5
37E
  8
回03-記事
  6
CONTINUOUS
 62
     7
 10
85.81585158769668
 20
1741.975052116805
 30
0.0
 40
5.0
  1
XR
  0
TEXT
  5
37F
  8
回03-記事
  6
CONTINUOUS
 62
     7
 10
-24.54236044701429
 20
1825.646780833462
 30
0.0
 40
5.0
  1
YU
  0
TEXT
  5
380
  8
回03-記事
  6
CONTINUOUS
 62
     7
 10
-22.3322352553223
 20
1648.849175373028
 30
0.0
 40
5.0
  1
YD
  0
TEXT
  5
381
  8
回03-記事
  6
CONTINUOUS
 62
     7
 10
-143.7123874387707
 20
1742.720061606672
 30
0.0
 40
5.0
  1
XL
  0
INSERT
  5
382
  8
0
  6
CONTINUOUS
 62
     5
 66
     1
  2
*X8383
 10
0.0
 20
0.0
 30
0.0
1001
ACADSTRINGINFO
1000
MIFCodePage
1070
     1
1001
ACAD_MLEADERVER
1070
     2
  0
SEQEND
  5
6B3
  8
0
  6
CONTINUOUS
 62
     5
  0
DIMENSION
  5
384
  8
回02-寸法
  6
CONTINUOUS
 62
     7
  2
*D7070
 10
6.673386145592303
 20
1695.61750399116
 30
0.0
 11
4.673386145592302
 21
1698.11750399116
 31
0.0
 70
    32
  3
STANDARD
 13
2.673386145592303
 23
1703.792727471813
 33
0.0
 14
6.673386145592303
 24
1703.792727471813
 34
0.0
1001
ACAD
1000
DSTYLE
1002
{
1070
    41
1040
1.5
1070
    47
1040
0.3
1070
    48
1040
0.3
1070
   140
1040
4.0
1070
   141
1040
1.5
1070
   146
1040
0.7
1070
   271
1070
     1
1070
   272
1070
     1
1070
   283
1070
     0
1070
   288
1070
     0
1070
   341
1005
0
1070
   371
1070
    13
1070
   372
1070
    13
1002
}
  0
DIMENSION
  5
395
  8
回02-寸法
  6
CONTINUOUS
 62
     7
  2
*D7171
 10
20.80002176136895
 20
1711.792727471813
 30
0.0
 11
18.30002176136895
 21
1713.792727471813
 31
0.0
 70
    32
  3
STANDARD
 13
10.6733861455923
 23
1715.792727471813
 33
0.0
 14
10.6733861455923
 24
1711.792727471813
 34
0.0
 50
90.0
1001
ACAD
1000
DSTYLE
1002
{
1070
    41
1040
1.5
1070
    47
1040
0.3
1070
    48
1040
0.3
1070
   140
1040
4.0
1070
   141
1040
1.5
1070
   146
1040
0.7
1070
   271
1070
     1
1070
   272
1070
     1
1070
   283
1070
     0
1070
   288
1070
     0
1070
   341
1005
0
1070
   371
1070
    13
1070
   372
1070
    13
1002
}
  0
CIRCLE
  5
3A6
  8
回03-記事
  6
CONTINUOUS
 62
     7
 10
10.6733861455923
 20
1739.792727471813
 30
0.0
 40
0.025
  0
CIRCLE
  5
3A7
  8
回03-記事
  6
CONTINUOUS
 62
     7
 10
10.6733861455923
 20
1735.792727471813
 30
0.0
 40
0.025
  0
CIRCLE
  5
3A8
  8
回03-記事
  6
CONTINUOUS
 62
     7
 10
10.6733861455923
 20
1731.792727471813
 30
0.0
 40
0.025
  0
CIRCLE
  5
3A9
  8
回03-記事
  6
CONTINUOUS
 62
     7
 10
10.6733861455923
 20
1727.792727471813
 30
0.0
 40
0.025
  0
CIRCLE
  5
3AA
  8
回03-記事
  6
CONTINUOUS
 62
     7
 10
10.6733861455923
 20
1723.792727471813
 30
0.0
 40
0.025
  0
CIRCLE
  5
3AB
  8
回03-記事
  6
CONTINUOUS
 62
     7
 10
10.6733861455923
 20
1719.792727471813
 30
0.0
 40
0.025
  0
CIRCLE
  5
3AC
  8
回03-記事
  6
CONTINUOUS
 62
     7
 10
10.6733861455923
 20
1715.792727471813
 30
0.0
 40
0.025
  0
CIRCLE
  5
3AD
  8
回03-記事
  6
CONTINUOUS
 62
     7
 10
10.6733861455923
 20
1711.792727471813
 30
0.0
 40
0.025
  0
CIRCLE
  5
3AE
  8
回03-記事
  6
CONTINUOUS
 62
     7
 10
10.6733861455923
 20
1707.792727471813
 30
0.0
 40
0.025
  0
CIRCLE
  5
3AF
  8
回03-記事
  6
CONTINUOUS
 62
     7
 10
10.6733861455923
 20
1703.792727471813
 30
0.0
 40
0.025
  0
CIRCLE
  5
3B0
  8
回03-記事
  6
CONTINUOUS
 62
     7
 10
6.673386145592303
 20
1739.792727471813
 30
0.0
 40
0.025
  0
CIRCLE
  5
3B1
  8
回03-記事
  6
CONTINUOUS
 62
     7
 10
6.673386145592303
 20
1735.792727471813
 30
0.0
 40
0.025
  0
CIRCLE
  5
3B2
  8
回03-記事
  6
CONTINUOUS
 62
     7
 10
6.673386145592303
 20
1731.792727471813
 30
0.0
 40
0.025
  0
CIRCLE
  5
3B3
  8
回03-記事
  6
CONTINUOUS
 62
     7
 10
6.673386145592303
 20
1727.792727471813
 30
0.0
 40
0.025
  0
CIRCLE
  5
3B4
  8
回03-記事
  6
CONTINUOUS
 62
     7
 10
6.673386145592303
 20
1723.792727471813
 30
0.0
 40
0.025
  0
CIRCLE
  5
3B5
  8
回03-記事
  6
CONTINUOUS
 62
     7
 10
6.673386145592303
 20
1719.792727471813
 30
0.0
 40
0.025
  0
CIRCLE
  5
3B6
  8
回03-記事
  6
CONTINUOUS
 62
     7
 10
6.673386145592303
 20
1715.792727471813
 30
0.0
 40
0.025
  0
CIRCLE
  5
3B7
  8
回03-記事
  6
CONTINUOUS
 62
     7
 10
6.673386145592303
 20
1711.792727471813
 30
0.0
 40
0.025
  0
CIRCLE
  5
3B8
  8
回03-記事
  6
CONTINUOUS
 62
     7
 10
6.673386145592303
 20
1707.792727471813
 30
0.0
 40
0.025
  0
CIRCLE
  5
3B9
  8
回03-記事
  6
CONTINUOUS
 62
     7
 10
6.673386145592303
 20
1703.792727471813
 30
0.0
 40
0.025
  0
CIRCLE
  5
3BA
  8
回03-記事
  6
CONTINUOUS
 62
     7
 10
2.673386145592303
 20
1739.792727471813
 30
0.0
 40
0.025
  0
CIRCLE
  5
3BB
  8
回03-記事
  6
CONTINUOUS
 62
     7
 10
2.673386145592303
 20
1735.792727471813
 30
0.0
 40
0.025
  0
CIRCLE
  5
3BC
  8
回03-記事
  6
CONTINUOUS
 62
     7
 10
2.673386145592303
 20
1731.792727471813
 30
0.0
 40
0.025
  0
CIRCLE
  5
3BD
  8
回03-記事
  6
CONTINUOUS
 62
     7
 10
2.673386145592303
 20
1727.792727471813
 30
0.0
 40
0.025
  0
CIRCLE
  5
3BE
  8
回03-記事
  6
CONTINUOUS
 62
     7
 10
2.673386145592303
 20
1723.792727471813
 30
0.0
 40
0.025
  0
CIRCLE
  5
3BF
  8
回03-記事
  6
CONTINUOUS
 62
     7
 10
2.673386145592303
 20
1719.792727471813
 30
0.0
 40
0.025
  0
CIRCLE
  5
3C0
  8
回03-記事
  6
CONTINUOUS
 62
     7
 10
2.673386145592303
 20
1715.792727471813
 30
0.0
 40
0.025
  0
CIRCLE
  5
3C1
  8
回03-記事
  6
CONTINUOUS
 62
     7
 10
2.673386145592303
 20
1711.792727471813
 30
0.0
 40
0.025
  0
CIRCLE
  5
3C2
  8
回03-記事
  6
CONTINUOUS
 62
     7
 10
2.673386145592303
 20
1707.792727471813
 30
0.0
 40
0.025
  0
CIRCLE
  5
3C3
  8
回03-記事
  6
CONTINUOUS
 62
     7
 10
2.673386145592303
 20
1703.792727471813
 30
0.0
 40
0.025
  0
CIRCLE
  5
3C4
  8
回03-記事
  6
CONTINUOUS
 62
     7
 10
-1.326613854407695
 20
1739.792727471813
 30
0.0
 40
0.025
  0
CIRCLE
  5
3C5
  8
回03-記事
  6
CONTINUOUS
 62
     7
 10
-1.326613854407695
 20
1735.792727471813
 30
0.0
 40
0.025
  0
CIRCLE
  5
3C6
  8
回03-記事
  6
CONTINUOUS
 62
     7
 10
-1.326613854407695
 20
1731.792727471813
 30
0.0
 40
0.025
  0
CIRCLE
  5
3C7
  8
回03-記事
  6
CONTINUOUS
 62
     7
 10
-1.326613854407695
 20
1727.792727471813
 30
0.0
 40
0.025
  0
CIRCLE
  5
3C8
  8
回03-記事
  6
CONTINUOUS
 62
     7
 10
-1.326613854407695
 20
1723.792727471813
 30
0.0
 40
0.025
  0
CIRCLE
  5
3C9
  8
回03-記事
  6
CONTINUOUS
 62
     7
 10
-1.326613854407695
 20
1719.792727471813
 30
0.0
 40
0.025
  0
CIRCLE
  5
3CA
  8
回03-記事
  6
CONTINUOUS
 62
     7
 10
-1.326613854407695
 20
1715.792727471813
 30
0.0
 40
0.025
  0
CIRCLE
  5
3CB
  8
回03-記事
  6
CONTINUOUS
 62
     7
 10
-1.326613854407695
 20
1711.792727471813
 30
0.0
 40
0.025
  0
CIRCLE
  5
3CC
  8
回03-記事
  6
CONTINUOUS
 62
     7
 10
-1.326613854407695
 20
1707.792727471813
 30
0.0
 40
0.025
  0
CIRCLE
  5
3CD
  8
回03-記事
  6
CONTINUOUS
 62
     7
 10
-1.326613854407695
 20
1703.792727471813
 30
0.0
 40
0.025
  0
CIRCLE
  5
3CE
  8
回03-記事
  6
CONTINUOUS
 62
     7
 10
-5.326613854407695
 20
1739.792727471813
 30
0.0
 40
0.025
  0
CIRCLE
  5
3CF
  8
回03-記事
  6
CONTINUOUS
 62
     7
 10
-5.326613854407695
 20
1735.792727471813
 30
0.0
 40
0.025
  0
CIRCLE
  5
3D0
  8
回03-記事
  6
CONTINUOUS
 62
     7
 10
-5.326613854407695
 20
1731.792727471813
 30
0.0
 40
0.025
  0
CIRCLE
  5
3D1
  8
回03-記事
  6
CONTINUOUS
 62
     7
 10
-5.326613854407695
 20
1727.792727471813
 30
0.0
 40
0.025
  0
CIRCLE
  5
3D2
  8
回03-記事
  6
CONTINUOUS
 62
     7
 10
-5.326613854407695
 20
1723.792727471813
 30
0.0
 40
0.025
  0
CIRCLE
  5
3D3
  8
回03-記事
  6
CONTINUOUS
 62
     7
 10
-5.326613854407695
 20
1719.792727471813
 30
0.0
 40
0.025
  0
CIRCLE
  5
3D4
  8
回03-記事
  6
CONTINUOUS
 62
     7
 10
-5.326613854407695
 20
1715.792727471813
 30
0.0
 40
0.025
  0
CIRCLE
  5
3D5
  8
回03-記事
  6
CONTINUOUS
 62
     7
 10
-5.326613854407695
 20
1711.792727471813
 30
0.0
 40
0.025
  0
CIRCLE
  5
3D6
  8
回03-記事
  6
CONTINUOUS
 62
     7
 10
-5.326613854407695
 20
1707.792727471813
 30
0.0
 40
0.025
  0
CIRCLE
  5
3D7
  8
回03-記事
  6
CONTINUOUS
 62
     7
 10
-5.326613854407695
 20
1703.792727471813
 30
0.0
 40
0.025
  0
CIRCLE
  5
3D8
  8
回03-記事
  6
CONTINUOUS
 62
     7
 10
-9.326613854407694
 20
1739.792727471813
 30
0.0
 40
0.025
  0
CIRCLE
  5
3D9
  8
回03-記事
  6
CONTINUOUS
 62
     7
 10
-9.326613854407694
 20
1735.792727471813
 30
0.0
 40
0.025
  0
CIRCLE
  5
3DA
  8
回03-記事
  6
CONTINUOUS
 62
     7
 10
-9.326613854407694
 20
1731.792727471813
 30
0.0
 40
0.025
  0
CIRCLE
  5
3DB
  8
回03-記事
  6
CONTINUOUS
 62
     7
 10
-9.326613854407694
 20
1727.792727471813
 30
0.0
 40
0.025
  0
CIRCLE
  5
3DC
  8
回03-記事
  6
CONTINUOUS
 62
     7
 10
-9.326613854407694
 20
1723.792727471813
 30
0.0
 40
0.025
  0
CIRCLE
  5
3DD
  8
回03-記事
  6
CONTINUOUS
 62
     7
 10
-9.326613854407694
 20
1719.792727471813
 30
0.0
 40
0.025
  0
CIRCLE
  5
3DE
  8
回03-記事
  6
CONTINUOUS
 62
     7
 10
-9.326613854407694
 20
1715.792727471813
 30
0.0
 40
0.025
  0
CIRCLE
  5
3DF
  8
回03-記事
  6
CONTINUOUS
 62
     7
 10
-9.326613854407694
 20
1711.792727471813
 30
0.0
 40
0.025
  0
CIRCLE
  5
3E0
  8
回03-記事
  6
CONTINUOUS
 62
     7
 10
-9.326613854407694
 20
1707.792727471813
 30
0.0
 40
0.025
  0
CIRCLE
  5
3E1
  8
回03-記事
  6
CONTINUOUS
 62
     7
 10
-9.326613854407694
 20
1703.792727471813
 30
0.0
 40
0.025
  0
CIRCLE
  5
3E2
  8
回03-記事
  6
CONTINUOUS
 62
     7
 10
-13.3266138544077
 20
1739.792727471813
 30
0.0
 40
0.025
  0
CIRCLE
  5
3E3
  8
回03-記事
  6
CONTINUOUS
 62
     7
 10
-13.3266138544077
 20
1735.792727471813
 30
0.0
 40
0.025
  0
CIRCLE
  5
3E4
  8
回03-記事
  6
CONTINUOUS
 62
     7
 10
-13.3266138544077
 20
1731.792727471813
 30
0.0
 40
0.025
  0
CIRCLE
  5
3E5
  8
回03-記事
  6
CONTINUOUS
 62
     7
 10
-13.3266138544077
 20
1727.792727471813
 30
0.0
 40
0.025
  0
CIRCLE
  5
3E6
  8
回03-記事
  6
CONTINUOUS
 62
     7
 10
-13.3266138544077
 20
1723.792727471813
 30
0.0
 40
0.025
  0
CIRCLE
  5
3E7
  8
回03-記事
  6
CONTINUOUS
 62
     7
 10
-13.3266138544077
 20
1719.792727471813
 30
0.0
 40
0.025
  0
CIRCLE
  5
3E8
  8
回03-記事
  6
CONTINUOUS
 62
     7
 10
-13.3266138544077
 20
1715.792727471813
 30
0.0
 40
0.025
  0
CIRCLE
  5
3E9
  8
回03-記事
  6
CONTINUOUS
 62
     7
 10
-13.3266138544077
 20
1711.792727471813
 30
0.0
 40
0.025
  0
CIRCLE
  5
3EA
  8
回03-記事
  6
CONTINUOUS
 62
     7
 10
-13.3266138544077
 20
1707.792727471813
 30
0.0
 40
0.025
  0
CIRCLE
  5
3EB
  8
回03-記事
  6
CONTINUOUS
 62
     7
 10
-13.3266138544077
 20
1703.792727471813
 30
0.0
 40
0.025
  0
CIRCLE
  5
3EC
  8
回03-記事
  6
CONTINUOUS
 62
     7
 10
-17.3266138544077
 20
1739.792727471813
 30
0.0
 40
0.025
  0
CIRCLE
  5
3ED
  8
回03-記事
  6
CONTINUOUS
 62
     7
 10
-17.3266138544077
 20
1735.792727471813
 30
0.0
 40
0.025
  0
CIRCLE
  5
3EE
  8
回03-記事
  6
CONTINUOUS
 62
     7
 10
-17.3266138544077
 20
1731.792727471813
 30
0.0
 40
0.025
  0
CIRCLE
  5
3EF
  8
回03-記事
  6
CONTINUOUS
 62
     7
 10
-17.3266138544077
 20
1727.792727471813
 30
0.0
 40
0.025
  0
CIRCLE
  5
3F0
  8
回03-記事
  6
CONTINUOUS
 62
     7
 10
-17.3266138544077
 20
1723.792727471813
 30
0.0
 40
0.025
  0
CIRCLE
  5
3F1
  8
回03-記事
  6
CONTINUOUS
 62
     7
 10
-17.3266138544077
 20
1719.792727471813
 30
0.0
 40
0.025
  0
CIRCLE
  5
3F2
  8
回03-記事
  6
CONTINUOUS
 62
     7
 10
-17.3266138544077
 20
1715.792727471813
 30
0.0
 40
0.025
  0
CIRCLE
  5
3F3
  8
回03-記事
  6
CONTINUOUS
 62
     7
 10
-17.3266138544077
 20
1711.792727471813
 30
0.0
 40
0.025
  0
CIRCLE
  5
3F4
  8
回03-記事
  6
CONTINUOUS
 62
     7
 10
-17.3266138544077
 20
1707.792727471813
 30
0.0
 40
0.025
  0
CIRCLE
  5
3F5
  8
回03-記事
  6
CONTINUOUS
 62
     7
 10
-17.3266138544077
 20
1703.792727471813
 30
0.0
 40
0.025
  0
CIRCLE
  5
3F6
  8
回03-記事
  6
CONTINUOUS
 62
     7
 10
-21.3266138544077
 20
1739.792727471813
 30
0.0
 40
0.025
  0
CIRCLE
  5
3F7
  8
回03-記事
  6
CONTINUOUS
 62
     7
 10
-21.3266138544077
 20
1735.792727471813
 30
0.0
 40
0.025
  0
CIRCLE
  5
3F8
  8
回03-記事
  6
CONTINUOUS
 62
     7
 10
-21.3266138544077
 20
1731.792727471813
 30
0.0
 40
0.025
  0
CIRCLE
  5
3F9
  8
回03-記事
  6
CONTINUOUS
 62
     7
 10
-21.3266138544077
 20
1727.792727471813
 30
0.0
 40
0.025
  0
CIRCLE
  5
3FA
  8
回03-記事
  6
CONTINUOUS
 62
     7
 10
-21.3266138544077
 20
1723.792727471813
 30
0.0
 40
0.025
  0
CIRCLE
  5
3FB
  8
回03-記事
  6
CONTINUOUS
 62
     7
 10
-21.3266138544077
 20
1719.792727471813
 30
0.0
 40
0.025
  0
CIRCLE
  5
3FC
  8
回03-記事
  6
CONTINUOUS
 62
     7
 10
-21.3266138544077
 20
1715.792727471813
 30
0.0
 40
0.025
  0
CIRCLE
  5
3FD
  8
回03-記事
  6
CONTINUOUS
 62
     7
 10
-21.3266138544077
 20
1711.792727471813
 30
0.0
 40
0.025
  0
CIRCLE
  5
3FE
  8
回03-記事
  6
CONTINUOUS
 62
     7
 10
-21.3266138544077
 20
1707.792727471813
 30
0.0
 40
0.025
  0
CIRCLE
  5
3FF
  8
回03-記事
  6
CONTINUOUS
 62
     7
 10
-21.3266138544077
 20
1703.792727471813
 30
0.0
 40
0.025
  0
CIRCLE
  5
400
  8
回03-記事
  6
CONTINUOUS
 62
     7
 10
-25.3266138544077
 20
1739.792727471813
 30
0.0
 40
0.025
  0
CIRCLE
  5
401
  8
回03-記事
  6
CONTINUOUS
 62
     7
 10
-25.3266138544077
 20
1735.792727471813
 30
0.0
 40
0.025
  0
CIRCLE
  5
402
  8
回03-記事
  6
CONTINUOUS
 62
     7
 10
-25.3266138544077
 20
1731.792727471813
 30
0.0
 40
0.025
  0
CIRCLE
  5
403
  8
回03-記事
  6
CONTINUOUS
 62
     7
 10
-25.3266138544077
 20
1727.792727471813
 30
0.0
 40
0.025
  0
CIRCLE
  5
404
  8
回03-記事
  6
CONTINUOUS
 62
     7
 10
-25.3266138544077
 20
1723.792727471813
 30
0.0
 40
0.025
  0
CIRCLE
  5
405
  8
回03-記事
  6
CONTINUOUS
 62
     7
 10
-25.3266138544077
 20
1719.792727471813
 30
0.0
 40
0.025
  0
CIRCLE
  5
406
  8
回03-記事
  6
CONTINUOUS
 62
     7
 10
-25.3266138544077
 20
1715.792727471813
 30
0.0
 40
0.025
  0
CIRCLE
  5
407
  8
回03-記事
  6
CONTINUOUS
 62
     7
 10
-25.3266138544077
 20
1711.792727471813
 30
0.0
 40
0.025
  0
CIRCLE
  5
408
  8
回03-記事
  6
CONTINUOUS
 62
     7
 10
-25.3266138544077
 20
1707.792727471813
 30
0.0
 40
0.025
  0
CIRCLE
  5
409
  8
回03-記事
  6
CONTINUOUS
 62
     7
 10
-25.3266138544077
 20
1703.792727471813
 30
0.0
 40
0.025
  0
LINE
  5
40A
  8
回01-TP外形
  6
CENTER2
 62
     7
 10
-25.3266138544077
 20
1835.292727471813
 30
0.0
 11
-25.3266138544077
 21
1644.292727471813
 31
0.0
  0
LINE
  5
40B
  8
回01-TP外形
  6
CENTER2
 62
     7
 10
-159.5266138544075
 20
1739.792727471813
 30
0.0
 11
105.6733861455923
 21
1739.792727471813
 31
0.0
  0
POLYLINE
  5
40C
  8
回01-TP外形
  6
CONTINUOUS
 62
     7
 66
     1
 10
0.0
 20
0.0
 30
0.0
 70
     1
  0
VERTEX
  5
9E5
  8
回01-TP外形
  6
CONTINUOUS
 62
     7
 10
-158.3266138544077
 20
1840.292727471813
 30
0.0
  0
VERTEX
  5
9E7
  8
回01-TP外形
  6
CONTINUOUS
 62
     7
 10
104.6733861455923
 20
1840.292727471813
 30
0.0
  0
VERTEX
  5
9E8
  8
回01-TP外形
  6
CONTINUOUS
 62
     7
 10
104.6733861455923
 20
1639.292727471813
 30
0.0
  0
VERTEX
  5
9E9
  8
回01-TP外形
  6
CONTINUOUS
 62
     7
 10
-158.3266138544077
 20
1639.292727471813
 30
0.0
  0
SEQEND
  5
9E6
  8
0
  6
CONTINUOUS
 62
     5
  0
DIMENSION
  5
40D
  8
回02-寸法
  6
CONTINUOUS
 62
     7
  2
*D7272
 10
-162.92711636697
 20
1724.470316134764
 30
0.0
 11
-173.0614666721822
 21
1724.470316134764
 31
0.0
 70
   160
  3
KOUSA
 13
-158.3266138544077
 23
1731.126467941208
 33
0.0
 14
-162.92711636697
 24
1731.892746204979
 34
0.0
1001
ACAD
1000
DSTYLE
1002
{
1070
    71
1070
     0
1070
   288
1070
     0
1070
   341
1005
0
1002
}
  0
DIMENSION
  5
41E
  8
回02-寸法
 62
     7
  2
*D7373
 10
-248.7697024133459
 20
1736.678592285675
 30
0.0
 11
-248.7697024133459
 21
1757.245801931346
 31
0.0
 70
   160
  1
<>
  3
KOUSA
 13
-237.8266573651745
 23
1742.928592285675
 33
0.0
 14
-237.8266573651745
 24
1736.678592285675
 34
0.0
 50
90.0
1001
ACAD
1000
DSTYLE
1002
{
1070
    47
1040
0.2
1070
   147
1040
0.5
1070
    48
1040
0.2
1070
    72
1070
     0
1070
    71
1070
     1
1070
   288
1070
     0
1070
   341
1005
0
1002
}
  0
DIMENSION
  5
42F
  8
回02-寸法
  6
CONTINUOUS
 62
     7
  2
*D7474
 10
-167.822544974435
 20
1716.807286197778
 30
0.0
 11
-176.0296517556217
 21
1716.807286197778
 31
0.0
 70
   160
  3
KOUSA
 13
-158.3266573651763
 23
1728.932524473808
 33
0.0
 14
-167.822544974435
 24
1736.585402829466
 34
0.0
1001
ACAD
1000
DSTYLE
1002
{
1070
    71
1070
     0
1070
   288
1070
     0
1070
   341
1005
0
1002
}
  0
TEXT
  5
440
  8
回03-記事
  6
CONTINUOUS
 62
     7
 10
-238.8207363576094
 20
1737.140992107498
 30
0.0
 40
3.0
  1
1
 50
90.0
  0
TEXT
  5
441
  8
回03-記事
  6
CONTINUOUS
 62
     7
 10
-238.8436293133981
 20
1740.593101477696
 30
0.0
 40
3.0
  1
4
 50
90.0
  0
DIMENSION
  5
442
  8
回02-寸法
  6
CONTINUOUS
 62
     7
  2
*D7575
 10
-238.3266573651754
 20
1769.708973140655
 30
0.0
 11
-198.3266356097915
 21
1772.208973140655
 31
0.0
 70
    32
  3
STANDARD
 13
-158.3266138544077
 23
1748.480716829866
 33
0.0
 14
-238.3266573651754
 24
1742.428592285675
 34
0.0
1001
ACAD
1000
DSTYLE
1002
{
1070
   147
1040
0.5
1070
    72
1070
     0
1070
    71
1070
     1
1070
    41
1040
1.5
1070
    47
1040
1.0
1070
    48
1040
1.0
1070
   140
1040
4.0
1070
   141
1040
1.5
1070
   146
1040
0.7
1070
   283
1070
     0
1070
   288
1070
     0
1070
   341
1005
0
1070
   371
1070
    13
1070
   372
1070
    13
1002
}
  0
DIMENSION
  5
451
  8
回02-寸法
  6
CONTINUOUS
 62
     7
  2
*D7676
 10
-185.8883016902109
 20
1731.803592285675
 30
0.0
 11
-185.8883016902109
 21
1722.492727471812
 31
0.0
 70
   160
  3
RUISIN
 13
-162.5185437627724
 23
1747.802389251404
 33
0.0
 14
-162.5143701770666
 24
1731.803592285675
 34
0.0
 50
90.0
1001
ACAD
1000
DSTYLE
1002
{
1070
    47
1040
0.1
1070
    48
1040
0.1
1070
   140
1040
4.0
1070
   146
1040
0.7
1070
   283
1070
     0
1070
   341
1005
0
1070
   371
1070
     9
1070
   372
1070
     9
1002
}
  0
POLYLINE
  5
462
  8
回01-TP外形
  6
BYBLOCK
 62
     7
 66
     1
 10
0.0
 20
0.0
 30
0.0
  0
VERTEX
  5
9EA
  8
回01-TP外形
  6
BYBLOCK
 62
     7
 10
-157.8266138544077
 20
1749.803592285675
 30
0.0
  0
VERTEX
  5
9EC
  8
回01-TP外形
  6
BYBLOCK
 62
     7
 10
-154.8266138544077
 20
1749.803592285675
 30
0.0
  0
VERTEX
  5
9ED
  8
回01-TP外形
  6
BYBLOCK
 62
     7
 10
-154.8266138544077
 20
1740.303592285675
 30
0.0
  0
VERTEX
  5
9EE
  8
回01-TP外形
  6
BYBLOCK
 62
     7
 10
-160.3266138544077
 20
1740.303592285675
 30
0.0
 42
1.021970931653833
  0
VERTEX
  5
9EF
  8
回01-TP外形
  6
BYBLOCK
 62
     7
 10
-160.3048893574014
 20
1739.304064462396
 30
0.0
  0
VERTEX
  5
9F0
  8
回01-TP外形
  6
BYBLOCK
 62
     7
 10
-154.8266138544077
 20
1739.303592285675
 30
0.0
  0
VERTEX
  5
9F1
  8
回01-TP外形
  6
BYBLOCK
 62
     7
 10
-154.8266138544077
 20
1729.803592285675
 30
0.0
  0
VERTEX
  5
9F2
  8
回01-TP外形
  6
BYBLOCK
 62
     7
 10
-157.8266138544077
 20
1729.803592285675
 30
0.0
 42
0.4142135623730951
  0
VERTEX
  5
9F3
  8
回01-TP外形
  6
BYBLOCK
 62
     7
 10
-159.8266138544077
 20
1731.803592285675
 30
0.0
  0
VERTEX
  5
9F4
  8
回01-TP外形
  6
BYBLOCK
 62
     7
 10
-162.5143701770675
 20
1731.803592285675
 30
0.0
 42
-0.1982610926034393
  0
VERTEX
  5
9F5
  8
回01-TP外形
  6
BYBLOCK
 62
     7
 10
-163.2197025455853
 20
1732.094715533397
 30
0.0
  0
VERTEX
  5
9F6
  8
回01-TP外形
  6
BYBLOCK
 62
     7
 10
-167.5299827857634
 20
1736.383444372374
 30
0.0
 42
0.1982460661155559
  0
VERTEX
  5
9F7
  8
回01-TP外形
  6
BYBLOCK
 62
     7
 10
-168.2352573214202
 20
1736.674567618424
 30
0.0
  0
VERTEX
  5
9F8
  8
回01-TP外形
  6
BYBLOCK
 62
     7
 10
-237.8266573651754
 20
1736.678592285676
 30
0.0
 42
-0.4142135623730951
  0
VERTEX
  5
9F9
  8
回01-TP外形
  6
BYBLOCK
 62
     7
 10
-238.3266573651754
 20
1737.178592285675
 30
0.0
  0
VERTEX
  5
9FA
  8
回01-TP外形
  6
BYBLOCK
 62
     7
 10
-238.3266573651754
 20
1742.428592285675
 30
0.0
 42
-0.4142135623730951
  0
VERTEX
  5
9FB
  8
回01-TP外形
  6
BYBLOCK
 62
     7
 10
-237.8266573651754
 20
1742.928592285675
 30
0.0
  0
VERTEX
  5
9FC
  8
回01-TP外形
  6
BYBLOCK
 62
     7
 10
-168.2378764231853
 20
1742.928592285675
 30
0.0
 42
0.1983816813358623
  0
VERTEX
  5
9FD
  8
回01-TP外形
  6
BYBLOCK
 62
     7
 10
-167.5322151400942
 20
1743.220042955321
 30
0.0
  0
VERTEX
  5
9FE
  8
回01-TP外形
  6
BYBLOCK
 62
     7
 10
-163.2237581418985
 20
1747.510938681619
 30
0.0
 42
-0.1982655609048175
  0
VERTEX
  5
9FF
  8
回01-TP外形
  6
BYBLOCK
 62
     7
 10
-162.5185437627733
 20
1747.802389251404
 30
0.0
  0
VERTEX
  5
A00
  8
回01-TP外形
  6
BYBLOCK
 62
     7
 10
-159.8257200464759
 20
1747.803592685121
 30
0.0
 42
0.4140826732844626
  0
VERTEX
  5
A01
  8
回01-TP外形
  6
BYBLOCK
 62
     7
 10
-157.8266138544077
 20
1749.803592485399
 30
0.0
  0
SEQEND
  5
9EB
  8
0
  6
CONTINUOUS
 62
     5
  0
INSERT
  5
463
  8
回03-記事
  6
CONTINUOUS
 62
     7
 66
     1
  2
*X8484
 10
0.0
 20
0.0
 30
0.0
1001
ACAD
1000
HATCH
1002
{
1070
    19
1000
ANSI31
1040
0.5
1040
6.283185307179585
1000
ASC_BOUNDS
1070
     1
1070
     2
1070
     1
1005
464
1000
ASC_SEEDPOINT
1011
90.87819318748188
1021
1522.803924204505
1031
0.0
1000
R14_HATCH_DATA
1000
463
1011
1.0
1021
0.0
1031
0.0
1011
0.0
1021
1.0
1031
0.0
1011
0.0
1021
0.0
1031
1.0
1040
0.0
1010
0.0
1020
0.0
1030
1.0
1000
ANSI31
1070
     0
1070
     1
1071
        1
1071
        1
1071
        4
1070
     1
1040
-154.2266138544073
1040
1738.553592285675
1040
-162.4266138544071
1040
1738.553592285675
1070
     1
1040
-162.4266138544071
1040
1738.553592285675
1040
-162.4266138544071
1040
1732.553592285675
1070
     1
1040
-162.4266138544071
1040
1732.553592285675
1040
-154.2266138544073
1040
1732.553592285675
1070
     1
1040
-154.2266138544073
1040
1732.553592285675
1040
-154.2266138544073
1040
1738.553592285675
1071
        1
1005
464
1070
     0
1070
     1
1040
6.283185307179585
1040
0.5
1070
     0
1070
     1
1040
0.7853981633974481
1040
90.87819318748188
1040
1522.803924204505
1040
-1.122532015133643
1040
1.122532015133643
1070
     0
1071
        1
1040
90.87819318748188
1040
1522.803924204505
1040
0.0
1002
}
  0
SEQEND
  5
6DA
  8
0
  6
CONTINUOUS
 62
     5
  0
POLYLINE
  5
464
  8
回03-記事
  6
CONTINUOUS
 62
     7
 66
     1
 10
0.0
 20
0.0
 30
0.0
 70
     1
1001
ACAD
1000
ASC_BOUNDS
1002
{
1070
    19
1005
463
1002
}
  0
VERTEX
  5
A02
  8
回03-記事
  6
CONTINUOUS
 62
     7
 10
-154.2266138544073
 20
1738.553592285675
 30
0.0
  0
VERTEX
  5
A04
  8
回03-記事
  6
CONTINUOUS
 62
     7
 10
-162.4266138544071
 20
1738.553592285675
 30
0.0
  0
VERTEX
  5
A05
  8
回03-記事
  6
CONTINUOUS
 62
     7
 10
-162.4266138544071
 20
1732.553592285675
 30
0.0
  0
VERTEX
  5
A06
  8
回03-記事
  6
CONTINUOUS
 62
     7
 10
-154.2266138544073
 20
1732.553592285675
 30
0.0
  0
SEQEND
  5
A03
  8
0
  6
CONTINUOUS
 62
     5
  0
POLYLINE
  5
465
  8
回01-TP外形
  6
CONTINUOUS
 62
     7
 66
     1
 10
0.0
 20
0.0
 30
0.0
 70
     1
  0
VERTEX
  5
A07
  8
回01-TP外形
  6
CONTINUOUS
 62
     7
 10
-150.5766138544077
 20
1645.292727471813
 30
0.0
  0
VERTEX
  5
A09
  8
回01-TP外形
  6
CONTINUOUS
 62
     7
 10
99.9233861455923
 20
1645.292727471813
 30
0.0
  0
VERTEX
  5
A0A
  8
回01-TP外形
  6
CONTINUOUS
 62
     7
 10
99.9233861455923
 20
1834.292727471813
 30
0.0
  0
VERTEX
  5
A0B
  8
回01-TP外形
  6
CONTINUOUS
 62
     7
 10
-150.5766138544077
 20
1834.292727471813
 30
0.0
  0
SEQEND
  5
A08
  8
0
  6
CONTINUOUS
 62
     5
  0
POLYLINE
  5
466
  8
回01-TP外形
  6
CONTINUOUS
 62
     7
 66
     1
 10
0.0
 20
0.0
 30
0.0
 70
     1
  0
VERTEX
  5
A0C
  8
回01-TP外形
  6
CONTINUOUS
 62
     7
 10
-148.5766138544077
 20
1647.292727471813
 30
0.0
  0
VERTEX
  5
A0E
  8
回01-TP外形
  6
CONTINUOUS
 62
     7
 10
97.92338614559231
 20
1647.292727471813
 30
0.0
  0
VERTEX
  5
A0F
  8
回01-TP外形
  6
CONTINUOUS
 62
     7
 10
97.92338614559231
 20
1832.292727471813
 30
0.0
  0
VERTEX
  5
A10
  8
回01-TP外形
  6
CONTINUOUS
 62
     7
 10
-148.5766138544077
 20
1832.292727471813
 30
0.0
  0
SEQEND
  5
A0D
  8
0
  6
CONTINUOUS
 62
     5
  0
ENDSEC
  0
EOF
