  0
SECTION
  2
HEADER
  9
$ACADVER
  1
AC1009
  9
$INSBASE
 10
0.0
 20
0.0
 30
0.0
  9
$EXTMIN
 10
1788.227318547082
 20
379.2666912015326
 30
0.0
  9
$EXTMAX
 10
2598.227318547082
 20
929.2666912015326
 30
0.0
  9
$LIMMIN
 10
0.0
 20
0.0
  9
$LIMMAX
 10
880.0
 20
620.0
  9
$ORTHOMODE
 70
     0
  9
$REGENMODE
 70
     1
  9
$FILLMODE
 70
     1
  9
$QTEXTMODE
 70
     0
  9
$MIRRTEXT
 70
     1
  9
$DRAGMODE
 70
     2
  9
$LTSCALE
 40
2.087542087542087
  9
$OSMODE
 70
   431
  9
$ATTMODE
 70
     1
  9
$TEXTSIZE
 40
4.0
  9
$TRACEWID
 40
1.0
  9
$TEXTSTYLE
  7
STANDARD
  9
$CLAYER
  8
回01-TP外形
  9
$CELTYPE
  6
CONTINUOUS
  9
$CECOLOR
 62
     7
  9
$DIMSCALE
 40
1.0
  9
$DIMASZ
 40
2.0
  9
$DIMEXO
 40
0.0
  9
$DIMDLI
 40
0.0
  9
$DIMRND
 40
0.0
  9
$DIMDLE
 40
0.0
  9
$DIMEXE
 40
1.0
  9
$DIMTP
 40
0.1
  9
$DIMTM
 40
0.1
  9
$DIMTXT
 40
6.0
  9
$DIMCEN
 40
2.0
  9
$DIMTSZ
 40
0.0
  9
$DIMTOL
 70
     0
  9
$DIMLIM
 70
     0
  9
$DIMTIH
 70
     0
  9
$DIMTOH
 70
     0
  9
$DIMSE1
 70
     0
  9
$DIMSE2
 70
     0
  9
$DIMTAD
 70
     3
  9
$DIMZIN
 70
     8
  9
$DIMBLK
  1

  9
$DIMASO
 70
     1
  9
$DIMSHO
 70
     1
  9
$DIMPOST
  1

  9
$DIMAPOST
  1

  9
$DIMALT
 70
     0
  9
$DIMALTD
 70
     2
  9
$DIMALTF
 40
25.4
  9
$DIMLFAC
 40
1.0
  9
$DIMTOFL
 70
     1
  9
$DIMTVP
 40
0.0
  9
$DIMTIX
 70
     0
  9
$DIMSOXD
 70
     0
  9
$DIMSAH
 70
     1
  9
$DIMBLK1
  1
OPEN
  9
$DIMBLK2
  1
OPEN
  9
$DIMSTYLE
  2
KOUSA
  9
$DIMCLRD
 70
     5
  9
$DIMCLRE
 70
     5
  9
$DIMCLRT
 70
     5
  9
$DIMTFAC
 40
0.7
  9
$DIMGAP
 40
0.5
  9
$LUNITS
 70
     2
  9
$LUPREC
 70
     4
  9
$SKETCHINC
 40
1.0
  9
$FILLETRAD
 40
1.0
  9
$AUNITS
 70
     0
  9
$AUPREC
 70
     0
  9
$MENU
  1
.
  9
$ELEVATION
 40
0.0
  9
$PELEVATION
 40
0.0
  9
$THICKNESS
 40
0.0
  9
$LIMCHECK
 70
     0
  9
$BLIPMODE
 70
     0
  9
$CHAMFERA
 40
3.2
  9
$CHAMFERB
 40
3.2
  9
$SKPOLY
 70
     0
  9
$TDCREATE
 40
2450431.727493866
  9
$TDUPDATE
 40
2460196.573520440
  9
$TDINDWG
 40
6.043289687
  9
$TDUSRTIMER
 40
6.043289687
  9
$USRTIMER
 70
     1
  9
$ANGBASE
 50
0.0
  9
$ANGDIR
 70
     0
  9
$PDMODE
 70
    34
  9
$PDSIZE
 40
0.0
  9
$PLINEWID
 40
0.2
  9
$COORDS
 70
     2
  9
$SPLFRAME
 70
     0
  9
$SPLINETYPE
 70
     6
  9
$SPLINESEGS
 70
     8
  9
$ATTDIA
 70
     1
  9
$ATTREQ
 70
     1
  9
$HANDLING
 70
     1
  9
$HANDSEED
  5
762
  9
$SURFTAB1
 70
     6
  9
$SURFTAB2
 70
     6
  9
$SURFTYPE
 70
     6
  9
$SURFU
 70
     6
  9
$SURFV
 70
     6
  9
$UCSNAME
  2

  9
$UCSORG
 10
0.0
 20
0.0
 30
0.0
  9
$UCSXDIR
 10
1.0
 20
0.0
 30
0.0
  9
$UCSYDIR
 10
0.0
 20
1.0
 30
0.0
  9
$PUCSNAME
  2

  9
$PUCSORG
 10
0.0
 20
0.0
 30
0.0
  9
$PUCSXDIR
 10
1.0
 20
0.0
 30
0.0
  9
$PUCSYDIR
 10
0.0
 20
1.0
 30
0.0
  9
$USERI1
 70
     0
  9
$USERI2
 70
     0
  9
$USERI3
 70
     0
  9
$USERI4
 70
     0
  9
$USERI5
 70
     0
  9
$USERR1
 40
0.0
  9
$USERR2
 40
0.0
  9
$USERR3
 40
0.0
  9
$USERR4
 40
0.0
  9
$USERR5
 40
0.0
  9
$WORLDVIEW
 70
     1
  9
$SHADEDGE
 70
     3
  9
$SHADEDIF
 70
    70
  9
$TILEMODE
 70
     1
  9
$MAXACTVP
 70
    16
  9
$PLIMCHECK
 70
     0
  9
$PEXTMIN
 10
1.000000000000000E+20
 20
1.000000000000000E+20
 30
1.000000000000000E+20
  9
$PEXTMAX
 10
-1.000000000000000E+20
 20
-1.000000000000000E+20
 30
-1.000000000000000E+20
  9
$PLIMMIN
 10
0.0
 20
0.0
  9
$PLIMMAX
 10
420.0
 20
297.0
  9
$UNITMODE
 70
     0
  9
$VISRETAIN
 70
     0
  9
$PLINEGEN
 70
     0
  9
$PSLTSCALE
 70
     1
  0
ENDSEC
  0
SECTION
  2
TABLES
  0
TABLE
  2
VPORT
 70
     1
  0
VPORT
  2
*ACTIVE
 70
     0
 10
0.0
 20
0.0
 11
1.0
 21
1.0
 12
2104.928989699449
 22
662.5909486641607
 13
0.0
 23
0.0
 14
0.25
 24
0.25
 15
1.0
 25
1.0
 16
0.0
 26
0.0
 36
1.0
 17
0.0
 27
0.0
 37
0.0
 40
792.5405769022124
 41
2.260387811634349
 42
50.0
 43
0.0
 44
0.0
 50
0.0
 51
0.0
 71
     0
 72
   100
 73
     1
 74
     0
 75
     0
 76
     0
 77
     0
 78
     0
  0
ENDTAB
  0
TABLE
  2
LTYPE
 70
     3
  0
LTYPE
  2
CONTINUOUS
 70
     0
  3
Solid line
 72
    65
 73
     0
 40
0.0
  0
LTYPE
  2
CENTER2
 70
     0
  3
___ _ ___ _ ___ _ ___ _ ___ _ ___ _ ___ _ ___ _
 72
    65
 73
     4
 40
1.125
 49
0.75
 49
-0.125
 49
0.125
 49
-0.125
  0
LTYPE
  2
PHANTOM2
 70
     0
  3
Phantom (.5x) ___ _ _ ___ _ _ ___ _ _ ___ _ _
 72
    65
 73
     6
 40
1.25
 49
0.625
 49
-0.125
 49
0.125
 49
-0.125
 49
0.125
 49
-0.125
  0
ENDTAB
  0
TABLE
  2
LAYER
 70
     6
  0
LAYER
  2
0
 70
     0
 62
     7
  6
CONTINUOUS
  0
LAYER
  2
DEFPOINTS
 70
     0
 62
     7
  6
CONTINUOUS
  0
LAYER
  2
回04-図面枠
 70
     0
 62
     7
  6
CONTINUOUS
  0
LAYER
  2
回01-TP外形
 70
     0
 62
     7
  6
CONTINUOUS
  0
LAYER
  2
回02-寸法
 70
     0
 62
     7
  6
CONTINUOUS
  0
LAYER
  2
回03-記事
 70
     0
 62
     7
  6
CONTINUOUS
  0
ENDTAB
  0
TABLE
  2
STYLE
 70
     1
  0
STYLE
  2
STANDARD
 70
     0
 40
6.0
 41
1.0
 50
0.0
 71
     0
 42
4.0
  3
isocp.shx
  4
bigfont.shx
  0
ENDTAB
  0
TABLE
  2
VIEW
 70
     0
  0
ENDTAB
  0
TABLE
  2
UCS
 70
     0
  0
ENDTAB
  0
TABLE
  2
APPID
 70
     3
  0
APPID
  2
ACAD
 70
     0
  0
APPID
  2
ACAD_NAV_VCDISPLAY
 70
     0
  0
APPID
  2
ACAECLAYERSTANDARD
 70
     0
  0
ENDTAB
  0
TABLE
  2
DIMSTYLE
 70
     4
  0
DIMSTYLE
  2
STANDARD
 70
     0
  3

  4

  5

  6
OPEN
  7
OPEN
 40
1.0
 41
2.0
 42
0.0
 43
0.0
 44
1.0
 45
0.0
 46
0.0
 47
0.0
 48
0.0
140
3.0
141
2.0
142
0.0
143
25.4
144
1.0
145
0.0
146
1.0
147
0.5
 71
     0
 72
     0
 73
     0
 74
     0
 75
     0
 76
     0
 77
     3
 78
     8
170
     0
171
     2
172
     1
173
     1
174
     0
175
     0
176
     5
177
     5
178
     5
  0
DIMSTYLE
  2
RUISIN
 70
     0
  3

  4

  5

  6
OPEN
  7
OPEN
 40
1.0
 41
2.0
 42
0.0
 43
0.0
 44
1.0
 45
0.0
 46
0.0
 47
0.0
 48
0.0
140
3.0
141
2.0
142
0.0
143
25.4
144
1.0
145
0.0
146
1.0
147
0.5
 71
     0
 72
     0
 73
     0
 74
     0
 75
     0
 76
     0
 77
     3
 78
     8
170
     0
171
     2
172
     1
173
     1
174
     0
175
     0
176
     5
177
     5
178
     5
  0
DIMSTYLE
  2
KOUSA
 70
     0
  3

  4

  5

  6
OPEN
  7
OPEN
 40
1.0
 41
2.0
 42
0.0
 43
0.0
 44
1.0
 45
0.0
 46
0.0
 47
0.1
 48
0.1
140
3.0
141
2.0
142
0.0
143
25.4
144
1.0
145
0.0
146
0.7
147
0.5
 71
     1
 72
     0
 73
     0
 74
     0
 75
     0
 76
     0
 77
     3
 78
     8
170
     0
171
     2
172
     1
173
     1
174
     0
175
     0
176
     5
177
     5
178
     5
  0
DIMSTYLE
  2
DMC
 70
     0
  3

  4

  5
OPEN
  6

  7

 40
1.0
 41
2.0
 42
0.0
 43
0.0
 44
1.0
 45
0.0
 46
0.0
 47
0.0
 48
0.0
140
3.0
141
2.0
142
0.0
143
0.03937007874016
144
1.0
145
0.0
146
0.7
147
0.5
 71
     0
 72
     0
 73
     0
 74
     0
 75
     0
 76
     0
 77
     3
 78
     8
170
     0
171
     3
172
     1
173
     0
174
     0
175
     0
176
     5
177
     5
178
     5
  0
ENDTAB
  0
ENDSEC
  0
SECTION
  2
BLOCKS
  0
BLOCK
  8
0
  2
$MODEL_SPACE
 70
     0
 10
0.0
 20
0.0
 30
0.0
  3
$MODEL_SPACE
  1

  0
ENDBLK
  8
0
  5
21
  0
BLOCK
 67
     1
  8
0
  2
$PAPER_SPACE
 70
     0
 10
0.0
 20
0.0
 30
0.0
  3
$PAPER_SPACE
  1

  0
ENDBLK
  5
26
 67
     1
  8
0
  0
BLOCK
  8
0
  2
_OPEN
 70
     0
 10
0.0
 20
0.0
 30
0.0
  3
_OPEN
  1

  0
LINE
  5
14
  8
0
  6
BYBLOCK
 62
     0
 10
-1.0
 20
0.1666666666666666
 30
0.0
 11
0.0
 21
0.0
 31
0.0
  0
LINE
  5
16
  8
0
  6
BYBLOCK
 62
     0
 10
0.0
 20
0.0
 30
0.0
 11
-1.0
 21
-0.1666666666666666
 31
0.0
  0
LINE
  5
17
  8
0
  6
BYBLOCK
 62
     0
 10
0.0
 20
0.0
 30
0.0
 11
-1.0
 21
0.0
 31
0.0
  0
ENDBLK
  5
18
  8
0
  0
BLOCK
  8
0
  2
*D1
 70
     1
 10
0.0
 20
0.0
 30
0.0
  3
*D1
  1

  0
LINE
  5
436
  8
回02-寸法
  6
CONTINUOUS
 62
     5
 10
2213.967245632978
 20
661.5395391930294
 30
0.0
 11
2225.356789290673
 21
661.5395391930294
 31
0.0
  0
LINE
  5
437
  8
回02-寸法
  6
CONTINUOUS
 62
     5
 10
2213.967245632978
 20
665.5395391930294
 30
0.0
 11
2225.356789290673
 21
665.5395391930294
 31
0.0
  0
LINE
  5
438
  8
回02-寸法
  6
CONTINUOUS
 62
     5
 10
2224.356789290673
 20
659.5395391930294
 30
0.0
 11
2224.356789290673
 21
657.5395391930294
 31
0.0
  0
LINE
  5
439
  8
回02-寸法
  6
CONTINUOUS
 62
     5
 10
2224.356789290673
 20
667.5395391930294
 30
0.0
 11
2224.356789290673
 21
673.5395391930294
 31
0.0
  0
LINE
  5
43A
  8
回02-寸法
  6
CONTINUOUS
 62
     5
 10
2224.356789290673
 20
661.5395391930294
 30
0.0
 11
2224.356789290673
 21
665.5395391930294
 31
0.0
  0
INSERT
  5
43B
  8
回02-寸法
  6
CONTINUOUS
 62
     5
 66
     1
  2
_OPEN
 10
2224.356789290673
 20
661.5395391930294
 30
0.0
 41
2.0
 42
2.0
 43
2.0
 50
90.0
  0
SEQEND
  5
43C
  8
回01-TP外形
  6
CONTINUOUS
 62
     7
  0
INSERT
  5
43D
  8
回02-寸法
  6
CONTINUOUS
 62
     5
 66
     1
  2
_OPEN
 10
2224.356789290673
 20
665.5395391930294
 30
0.0
 41
2.0
 42
2.0
 43
2.0
 50
270.0
  0
SEQEND
  5
43E
  8
回01-TP外形
  6
CONTINUOUS
 62
     7
  0
TEXT
  5
43F
  8
回02-寸法
  6
CONTINUOUS
 62
     5
 10
2223.856789290673
 20
669.1395391930286
 30
0.0
 40
6.0
  1
4
 50
90.0
1001
ACAD
1000
MTEXTBEGIN
1070
    73
1070
     1
1070
    44
1040
1.0
1070
    74
1070
     0
1000
MTEXTEND
  0
POINT
  5
440
  8
DEFPOINTS
  6
CONTINUOUS
 62
     0
 10
2213.967245632978
 20
661.5395391930294
 30
0.0
  0
POINT
  5
441
  8
DEFPOINTS
  6
CONTINUOUS
 62
     0
 10
2213.967245632978
 20
665.5395391930294
 30
0.0
  0
POINT
  5
442
  8
DEFPOINTS
  6
CONTINUOUS
 62
     0
 10
2224.356789290673
 20
665.5395391930294
 30
0.0
  0
ENDBLK
  5
443
  8
0
 62
     3
  0
BLOCK
  8
0
  2
*D2
 70
     1
 10
0.0
 20
0.0
 30
0.0
  3
*D2
  1

  0
LINE
  5
425
  8
回02-寸法
  6
CONTINUOUS
 62
     5
 10
2213.967245632977
 20
661.5395391930292
 30
0.0
 11
2213.967245632977
 21
652.5452544226981
 31
0.0
  0
LINE
  5
426
  8
回02-寸法
  6
CONTINUOUS
 62
     5
 10
2209.967245632977
 20
661.5395391930292
 30
0.0
 11
2209.967245632977
 21
652.5452544226981
 31
0.0
  0
LINE
  5
427
  8
回02-寸法
  6
CONTINUOUS
 62
     5
 10
2215.967245632977
 20
653.5452544226981
 30
0.0
 11
2217.967245632977
 21
653.5452544226981
 31
0.0
  0
LINE
  5
428
  8
回02-寸法
  6
CONTINUOUS
 62
     5
 10
2207.967245632977
 20
653.5452544226981
 30
0.0
 11
2201.967245632977
 21
653.5452544226981
 31
0.0
  0
LINE
  5
429
  8
回02-寸法
  6
CONTINUOUS
 62
     5
 10
2213.967245632977
 20
653.5452544226981
 30
0.0
 11
2209.967245632977
 21
653.5452544226981
 31
0.0
  0
INSERT
  5
42A
  8
回02-寸法
  6
CONTINUOUS
 62
     5
 66
     1
  2
_OPEN
 10
2213.967245632977
 20
653.5452544226981
 30
0.0
 41
2.0
 42
2.0
 43
2.0
 50
180.0
  0
SEQEND
  5
42B
  8
回01-TP外形
  6
CONTINUOUS
 62
     7
  0
INSERT
  5
42C
  8
回02-寸法
  6
CONTINUOUS
 62
     5
 66
     1
  2
_OPEN
 10
2209.967245632977
 20
653.5452544226981
 30
0.0
 41
2.0
 42
2.0
 43
2.0
  0
SEQEND
  5
42D
  8
回01-TP外形
  6
CONTINUOUS
 62
     7
  0
TEXT
  5
42E
  8
回02-寸法
  6
CONTINUOUS
 62
     5
 10
2201.567245632977
 20
654.045254422698
 30
0.0
 40
6.0
  1
4
1001
ACAD
1000
MTEXTBEGIN
1070
    73
1070
     1
1070
    44
1040
1.0
1070
    74
1070
     0
1000
MTEXTEND
  0
POINT
  5
42F
  8
DEFPOINTS
  6
CONTINUOUS
 62
     0
 10
2213.967245632977
 20
661.5395391930292
 30
0.0
  0
POINT
  5
430
  8
DEFPOINTS
  6
CONTINUOUS
 62
     0
 10
2209.967245632977
 20
661.5395391930292
 30
0.0
  0
POINT
  5
431
  8
DEFPOINTS
  6
CONTINUOUS
 62
     0
 10
2209.967245632977
 20
653.5452544226981
 30
0.0
  0
ENDBLK
  5
432
  8
0
 62
     3
  0
BLOCK
  8
0
  2
*D3
 70
     1
 10
0.0
 20
0.0
 30
0.0
  3
*D3
  1

  0
LINE
  5
3B1
  8
回02-寸法
  6
CONTINUOUS
 62
     5
 10
2013.467245632977
 20
571.5395391930292
 30
0.0
 11
1922.024157074038
 21
571.5395391930292
 31
0.0
  0
LINE
  5
3B2
  8
回02-寸法
  6
CONTINUOUS
 62
     5
 10
1933.967202122209
 20
694.4145391930292
 30
0.0
 11
1922.024157074038
 21
694.4145391930292
 31
0.0
  0
LINE
  5
3B3
  8
回02-寸法
  6
CONTINUOUS
 62
     5
 10
1923.024157074038
 20
573.5395391930292
 30
0.0
 11
1923.024157074038
 21
692.4145391930291
 31
0.0
  0
INSERT
  5
3B4
  8
回02-寸法
  6
CONTINUOUS
 62
     5
 66
     1
  2
_OPEN
 10
1923.024157074038
 20
571.5395391930292
 30
0.0
 41
2.0
 42
2.0
 43
2.0
 50
270.0
  0
SEQEND
  5
3B5
  8
回01-TP外形
  6
CONTINUOUS
 62
     7
  0
INSERT
  5
3B6
  8
回02-寸法
  6
CONTINUOUS
 62
     5
 66
     1
  2
_OPEN
 10
1923.024157074038
 20
694.4145391930292
 30
0.0
 41
2.0
 42
2.0
 43
2.0
 50
90.0
  0
SEQEND
  5
3B7
  8
回01-TP外形
  6
CONTINUOUS
 62
     7
  0
TEXT
  5
3B8
  8
回02-寸法
  6
CONTINUOUS
 62
     5
 10
1922.224157074038
 20
619.7770391930293
 30
0.0
 40
6.0
  1
(122.88)
 50
90.0
1001
ACAD
1000
MTEXTBEGIN
1070
    73
1070
     1
1070
    44
1040
1.0
1070
    74
1070
     0
1000
MTEXTEND
  0
POINT
  5
3B9
  8
DEFPOINTS
  6
CONTINUOUS
 62
     0
 10
2013.467245632977
 20
571.5395391930292
 30
0.0
  0
POINT
  5
3BA
  8
DEFPOINTS
  6
CONTINUOUS
 62
     0
 10
1933.967202122209
 20
694.4145391930292
 30
0.0
  0
POINT
  5
3BB
  8
DEFPOINTS
  6
CONTINUOUS
 62
     0
 10
1923.024157074038
 20
694.4145391930292
 30
0.0
  0
ENDBLK
  5
3BC
  8
0
 62
     7
  0
BLOCK
  8
0
  2
*D4
 70
     1
 10
0.0
 20
0.0
 30
0.0
  3
*D4
  1

  0
LINE
  5
3A0
  8
回02-寸法
  6
CONTINUOUS
 62
     5
 10
2009.279489310318
 20
689.5395391930294
 30
0.0
 11
1987.306381341465
 21
689.5395391930294
 31
0.0
  0
LINE
  5
3A1
  8
回02-寸法
  6
CONTINUOUS
 62
     5
 10
2009.275315724612
 20
705.5383361587575
 30
0.0
 11
1987.306381341465
 21
705.5383361587575
 31
0.0
  0
LINE
  5
3A2
  8
回02-寸法
  6
CONTINUOUS
 62
     5
 10
1988.306381341465
 20
707.5383361587576
 30
0.0
 11
1988.306381341465
 21
709.5383361587575
 31
0.0
  0
LINE
  5
3A3
  8
回02-寸法
  6
CONTINUOUS
 62
     5
 10
1988.306381341465
 20
687.5395391930294
 30
0.0
 11
1988.306381341465
 21
678.8419013977538
 31
0.0
  0
LINE
  5
3A4
  8
回02-寸法
  6
CONTINUOUS
 62
     5
 10
1988.306381341465
 20
705.5383361587575
 30
0.0
 11
1988.306381341465
 21
689.5395391930294
 31
0.0
  0
INSERT
  5
3A5
  8
回02-寸法
  6
CONTINUOUS
 62
     5
 66
     1
  2
_OPEN
 10
1988.306381341465
 20
705.5383361587575
 30
0.0
 41
2.0
 42
2.0
 43
2.0
 50
270.0
  0
SEQEND
  5
3A6
  8
回01-TP外形
  6
CONTINUOUS
 62
     7
  0
INSERT
  5
3A7
  8
回02-寸法
  6
CONTINUOUS
 62
     5
 66
     1
  2
_OPEN
 10
1988.306381341465
 20
689.5395391930294
 30
0.0
 41
2.0
 42
2.0
 43
2.0
 50
90.0
  0
SEQEND
  5
3A8
  8
回01-TP外形
  6
CONTINUOUS
 62
     7
  0
TEXT
  5
3A9
  8
回02-寸法
  6
CONTINUOUS
 62
     5
 10
1987.806381341465
 20
678.5882152100891
 30
0.0
 40
6.0
  1
16
 50
90.0
1001
ACAD
1000
MTEXTBEGIN
1070
    73
1070
     1
1070
    44
1040
1.0
1070
    74
1070
     0
1000
MTEXTEND
  0
POINT
  5
3AA
  8
DEFPOINTS
  6
CONTINUOUS
 62
     0
 10
2009.279489310318
 20
689.5395391930294
 30
0.0
  0
POINT
  5
3AB
  8
DEFPOINTS
  6
CONTINUOUS
 62
     0
 10
2009.275315724612
 20
705.5383361587575
 30
0.0
  0
POINT
  5
3AC
  8
DEFPOINTS
  6
CONTINUOUS
 62
     0
 10
1988.306381341465
 20
705.5383361587575
 30
0.0
  0
ENDBLK
  5
3AD
  8
0
 62
     7
  0
BLOCK
  8
0
  2
*D5
 70
     1
 10
0.0
 20
0.0
 30
0.0
  3
*D5
  1

  0
LINE
  5
38F
  8
回02-寸法
  6
CONTINUOUS
 62
     5
 10
2013.467202122209
 20
686.6684713811633
 30
0.0
 11
2013.467202122209
 21
665.003305256422
 31
0.0
  0
LINE
  5
390
  8
回02-寸法
  6
CONTINUOUS
 62
     5
 10
2003.971314512949
 20
694.3213497368207
 30
0.0
 11
2003.971314512949
 21
665.003305256422
 31
0.0
  0
LINE
  5
391
  8
回02-寸法
  6
CONTINUOUS
 62
     5
 10
2015.467202122208
 20
666.0033052564219
 30
0.0
 11
2017.467202122208
 21
666.0033052564219
 31
0.0
  0
LINE
  5
392
  8
回02-寸法
  6
CONTINUOUS
 62
     5
 10
2001.97131451295
 20
666.0033052564219
 30
0.0
 11
1990.074258238102
 21
666.0033052564219
 31
0.0
  0
LINE
  5
393
  8
回02-寸法
  6
CONTINUOUS
 62
     5
 10
2013.467202122209
 20
666.0033052564219
 30
0.0
 11
2003.971314512949
 21
666.0033052564219
 31
0.0
  0
INSERT
  5
394
  8
回02-寸法
  6
CONTINUOUS
 62
     5
 66
     1
  2
_OPEN
 10
2013.467202122209
 20
666.0033052564219
 30
0.0
 41
2.0
 42
2.0
 43
2.0
 50
180.0
  0
SEQEND
  5
395
  8
回01-TP外形
  6
CONTINUOUS
 62
     7
  0
INSERT
  5
396
  8
回02-寸法
  6
CONTINUOUS
 62
     5
 66
     1
  2
_OPEN
 10
2003.971314512949
 20
666.0033052564219
 30
0.0
 41
2.0
 42
2.0
 43
2.0
  0
SEQEND
  5
397
  8
回01-TP外形
  6
CONTINUOUS
 62
     7
  0
TEXT
  5
398
  8
回02-寸法
  6
CONTINUOUS
 62
     5
 10
1989.901124164363
 20
666.5033052564219
 30
0.0
 40
6.0
  1
9.5
1001
ACAD
1000
MTEXTBEGIN
1070
    73
1070
     1
1070
    44
1040
1.0
1070
    74
1070
     0
1000
MTEXTEND
  0
POINT
  5
399
  8
DEFPOINTS
  6
CONTINUOUS
 62
     0
 10
2013.467202122209
 20
686.6684713811633
 30
0.0
  0
POINT
  5
39A
  8
DEFPOINTS
  6
CONTINUOUS
 62
     0
 10
2003.971314512949
 20
694.3213497368207
 30
0.0
  0
POINT
  5
39B
  8
DEFPOINTS
  6
CONTINUOUS
 62
     0
 10
2003.971314512949
 20
666.0033052564219
 30
0.0
  0
ENDBLK
  5
39C
  8
0
 62
     7
  0
BLOCK
  8
0
  2
*D6
 70
     1
 10
0.0
 20
0.0
 30
0.0
  3
*D6
  1

  0
LINE
  5
37E
  8
回02-寸法
 62
     5
 10
1933.96720212221
 20
700.6645391930294
 30
0.0
 11
1922.024157074039
 21
700.6645391930294
 31
0.0
  0
LINE
  5
37F
  8
回02-寸法
 62
     5
 10
1933.96720212221
 20
694.4145391930294
 30
0.0
 11
1922.024157074039
 21
694.4145391930294
 31
0.0
  0
LINE
  5
380
  8
回02-寸法
 62
     5
 10
1923.024157074038
 20
692.4145391930294
 30
0.0
 11
1923.024157074038
 21
690.4145391930294
 31
0.0
  0
LINE
  5
381
  8
回02-寸法
 62
     5
 10
1923.024157074038
 20
702.6645391930294
 30
0.0
 11
1923.024157074038
 21
729.2258423426357
 31
0.0
  0
LINE
  5
382
  8
回02-寸法
 62
     5
 10
1923.024157074038
 20
694.4145391930294
 30
0.0
 11
1923.024157074038
 21
700.6645391930294
 31
0.0
  0
INSERT
  5
383
  8
回02-寸法
 62
     5
 66
     1
  2
_OPEN
 10
1923.024157074038
 20
694.4145391930294
 30
0.0
 41
2.0
 42
2.0
 43
2.0
 50
90.0
  0
SEQEND
  5
384
  8
回01-TP外形
  6
CONTINUOUS
 62
     7
  0
INSERT
  5
385
  8
回02-寸法
 62
     5
 66
     1
  2
_OPEN
 10
1923.024157074038
 20
700.6645391930294
 30
0.0
 41
2.0
 42
2.0
 43
2.0
 50
270.0
  0
SEQEND
  5
386
  8
回01-TP外形
  6
CONTINUOUS
 62
     7
  0
INSERT
  5
387
  8
回02-寸法
 62
     5
 66
     1
  2
*X85
 10
0.0
 20
0.0
 30
0.0
  0
SEQEND
  5
6D0
  8
回01-TP外形
  6
CONTINUOUS
 62
     7
  0
POINT
  5
388
  8
DEFPOINTS
 62
     0
 10
1933.96720212221
 20
700.6645391930294
 30
0.0
  0
POINT
  5
389
  8
DEFPOINTS
 62
     0
 10
1933.96720212221
 20
694.4145391930294
 30
0.0
  0
POINT
  5
38A
  8
DEFPOINTS
 62
     0
 10
1923.024157074038
 20
694.4145391930294
 30
0.0
  0
ENDBLK
  5
38B
  8
0
 62
     7
  0
BLOCK
  8
0
  2
*D7
 70
     1
 10
0.0
 20
0.0
 30
0.0
  3
*D7
  1

  0
LINE
  5
36F
  8
回02-寸法
  6
CONTINUOUS
 62
     5
 10
2025.653245632977
 20
811.8375391930293
 30
0.0
 11
2025.653245632977
 21
839.5395391930291
 31
0.0
  0
LINE
  5
370
  8
回02-寸法
  6
CONTINUOUS
 62
     5
 10
2330.281245632977
 20
811.8375391930293
 30
0.0
 11
2330.281245632977
 21
839.5395391930291
 31
0.0
  0
LINE
  5
371
  8
回02-寸法
  6
CONTINUOUS
 62
     5
 10
2027.653245632976
 20
838.5395391930291
 30
0.0
 11
2328.281245632977
 21
838.5395391930291
 31
0.0
  0
INSERT
  5
372
  8
回02-寸法
  6
CONTINUOUS
 62
     5
 66
     1
  2
_OPEN
 10
2025.653245632977
 20
838.5395391930291
 30
0.0
 41
2.0
 42
2.0
 43
2.0
 50
180.0
  0
SEQEND
  5
373
  8
回01-TP外形
  6
CONTINUOUS
 62
     7
  0
INSERT
  5
374
  8
回02-寸法
  6
CONTINUOUS
 62
     5
 66
     1
  2
_OPEN
 10
2330.281245632977
 20
838.5395391930291
 30
0.0
 41
2.0
 42
2.0
 43
2.0
  0
SEQEND
  5
375
  8
回01-TP外形
  6
CONTINUOUS
 62
     7
  0
TEXT
  5
376
  8
回02-寸法
  6
CONTINUOUS
 62
     5
 10
2137.468426735339
 20
839.3395391930292
 30
0.0
 40
6.0
  1
304.63 (ACTIVE AREA)
1001
ACAD
1000
MTEXTBEGIN
1070
    73
1070
     1
1070
    44
1040
1.0
1070
    74
1070
     0
1000
MTEXTEND
  0
POINT
  5
377
  8
DEFPOINTS
  6
CONTINUOUS
 62
     0
 10
2025.653245632977
 20
811.8375391930293
 30
0.0
  0
POINT
  5
378
  8
DEFPOINTS
  6
CONTINUOUS
 62
     0
 10
2330.281245632977
 20
811.8375391930293
 30
0.0
  0
POINT
  5
379
  8
DEFPOINTS
  6
CONTINUOUS
 62
     0
 10
2330.281245632977
 20
838.5395391930291
 30
0.0
  0
ENDBLK
  5
37A
  8
0
 62
     7
  0
BLOCK
  8
0
  2
*D8
 70
     1
 10
0.0
 20
0.0
 30
0.0
  3
*D8
  1

  0
LINE
  5
360
  8
回02-寸法
  6
CONTINUOUS
 62
     5
 10
2023.653245632976
 20
813.8375391930292
 30
0.0
 11
2023.653245632976
 21
849.5395391930292
 31
0.0
  0
LINE
  5
361
  8
回02-寸法
  6
CONTINUOUS
 62
     5
 10
2332.281245632977
 20
813.8375391930292
 30
0.0
 11
2332.281245632977
 21
849.5395391930292
 31
0.0
  0
LINE
  5
362
  8
回02-寸法
  6
CONTINUOUS
 62
     5
 10
2025.653245632977
 20
848.5395391930293
 30
0.0
 11
2330.281245632977
 21
848.5395391930293
 31
0.0
  0
INSERT
  5
363
  8
回02-寸法
  6
CONTINUOUS
 62
     5
 66
     1
  2
_OPEN
 10
2023.653245632976
 20
848.5395391930293
 30
0.0
 41
2.0
 42
2.0
 43
2.0
 50
180.0
  0
SEQEND
  5
364
  8
回01-TP外形
  6
CONTINUOUS
 62
     7
  0
INSERT
  5
365
  8
回02-寸法
  6
CONTINUOUS
 62
     5
 66
     1
  2
_OPEN
 10
2332.281245632977
 20
848.5395391930293
 30
0.0
 41
2.0
 42
2.0
 43
2.0
  0
SEQEND
  5
366
  8
回01-TP外形
  6
CONTINUOUS
 62
     7
  0
TEXT
  5
367
  8
回02-寸法
  6
CONTINUOUS
 62
     5
 10
2135.968426735339
 20
849.3395391930292
 30
0.0
 40
6.0
  1
308.63 (VIEWING AREA)
1001
ACAD
1000
MTEXTBEGIN
1070
    73
1070
     1
1070
    44
1040
1.0
1070
    74
1070
     0
1000
MTEXTEND
  0
POINT
  5
368
  8
DEFPOINTS
  6
CONTINUOUS
 62
     0
 10
2023.653245632976
 20
813.8375391930292
 30
0.0
  0
POINT
  5
369
  8
DEFPOINTS
  6
CONTINUOUS
 62
     0
 10
2332.281245632977
 20
813.8375391930292
 30
0.0
  0
POINT
  5
36A
  8
DEFPOINTS
  6
CONTINUOUS
 62
     0
 10
2332.281245632977
 20
848.5395391930293
 30
0.0
  0
ENDBLK
  5
36B
  8
0
 62
     7
  0
BLOCK
  8
0
  2
*D9
 70
     1
 10
0.0
 20
0.0
 30
0.0
  3
*D9
  1

  0
LINE
  5
351
  8
回02-寸法
  6
CONTINUOUS
 62
     5
 10
2013.467245632977
 20
823.5395391930293
 30
0.0
 11
2013.467245632977
 21
869.5395391930292
 31
0.0
  0
LINE
  5
352
  8
回02-寸法
  6
CONTINUOUS
 62
     5
 10
2341.467245632977
 20
823.5445696353353
 30
0.0
 11
2341.467245632977
 21
869.5395391930292
 31
0.0
  0
LINE
  5
353
  8
回02-寸法
  6
CONTINUOUS
 62
     5
 10
2015.467245632977
 20
868.5395391930292
 30
0.0
 11
2339.467245632977
 21
868.5395391930292
 31
0.0
  0
INSERT
  5
354
  8
回02-寸法
  6
CONTINUOUS
 62
     5
 66
     1
  2
_OPEN
 10
2013.467245632977
 20
868.5395391930292
 30
0.0
 41
2.0
 42
2.0
 43
2.0
 50
180.0
  0
SEQEND
  5
355
  8
回01-TP外形
  6
CONTINUOUS
 62
     7
  0
INSERT
  5
356
  8
回02-寸法
  6
CONTINUOUS
 62
     5
 66
     1
  2
_OPEN
 10
2341.467245632977
 20
868.5395391930292
 30
0.0
 41
2.0
 42
2.0
 43
2.0
  0
SEQEND
  5
357
  8
回01-TP外形
  6
CONTINUOUS
 62
     7
  0
INSERT
  5
358
  8
回02-寸法
  6
CONTINUOUS
 62
     5
 66
     1
  2
*X86
 10
0.0
 20
0.0
 30
0.0
  0
SEQEND
  5
6D6
  8
回01-TP外形
  6
CONTINUOUS
 62
     7
  0
POINT
  5
359
  8
DEFPOINTS
  6
CONTINUOUS
 62
     0
 10
2013.467245632977
 20
823.5395391930293
 30
0.0
  0
POINT
  5
35A
  8
DEFPOINTS
  6
CONTINUOUS
 62
     0
 10
2341.467245632977
 20
823.5445696353353
 30
0.0
  0
POINT
  5
35B
  8
DEFPOINTS
  6
CONTINUOUS
 62
     0
 10
2341.467245632977
 20
868.5395391930292
 30
0.0
  0
ENDBLK
  5
35C
  8
0
 62
     7
  0
BLOCK
  8
0
  2
*D10
 70
     1
 10
0.0
 20
0.0
 30
0.0
  3
*D10
  1

  0
LINE
  5
342
  8
回02-寸法
  6
CONTINUOUS
 62
     5
 10
2330.281245632978
 20
583.2415391930294
 30
0.0
 11
2377.467245632977
 21
583.2415391930294
 31
0.0
  0
LINE
  5
343
  8
回02-寸法
  6
CONTINUOUS
 62
     5
 10
2330.281245632978
 20
811.8375391930296
 30
0.0
 11
2377.467245632977
 21
811.8375391930296
 31
0.0
  0
LINE
  5
344
  8
回02-寸法
  6
CONTINUOUS
 62
     5
 10
2376.467245632977
 20
585.2415391930294
 30
0.0
 11
2376.467245632977
 21
809.8375391930296
 31
0.0
  0
INSERT
  5
345
  8
回02-寸法
  6
CONTINUOUS
 62
     5
 66
     1
  2
_OPEN
 10
2376.467245632977
 20
583.2415391930294
 30
0.0
 41
2.0
 42
2.0
 43
2.0
 50
270.0
  0
SEQEND
  5
346
  8
回01-TP外形
  6
CONTINUOUS
 62
     7
  0
INSERT
  5
347
  8
回02-寸法
  6
CONTINUOUS
 62
     5
 66
     1
  2
_OPEN
 10
2376.467245632977
 20
811.8375391930296
 30
0.0
 41
2.0
 42
2.0
 43
2.0
 50
90.0
  0
SEQEND
  5
348
  8
回01-TP外形
  6
CONTINUOUS
 62
     7
  0
TEXT
  5
349
  8
回02-寸法
  6
CONTINUOUS
 62
     5
 10
2375.667245632977
 20
659.4407202953911
 30
0.0
 40
6.0
  1
228.6 (ACTIVE AREA)
 50
90.0
1001
ACAD
1000
MTEXTBEGIN
1070
    73
1070
     1
1070
    44
1040
1.0
1070
    74
1070
     0
1000
MTEXTEND
  0
POINT
  5
34A
  8
DEFPOINTS
  6
CONTINUOUS
 62
     0
 10
2330.281245632978
 20
583.2415391930294
 30
0.0
  0
POINT
  5
34B
  8
DEFPOINTS
  6
CONTINUOUS
 62
     0
 10
2330.281245632978
 20
811.8375391930296
 30
0.0
  0
POINT
  5
34C
  8
DEFPOINTS
  6
CONTINUOUS
 62
     0
 10
2376.467245632977
 20
811.8375391930296
 30
0.0
  0
ENDBLK
  5
34D
  8
0
 62
     7
  0
BLOCK
  8
0
  2
*D11
 70
     1
 10
0.0
 20
0.0
 30
0.0
  3
*D11
  1

  0
LINE
  5
333
  8
回02-寸法
  6
CONTINUOUS
 62
     5
 10
2332.281245632978
 20
813.8375391930296
 30
0.0
 11
2387.467245632977
 21
813.8375391930296
 31
0.0
  0
LINE
  5
334
  8
回02-寸法
  6
CONTINUOUS
 62
     5
 10
2332.281245632978
 20
581.2415391930294
 30
0.0
 11
2387.467245632977
 21
581.2415391930294
 31
0.0
  0
LINE
  5
335
  8
回02-寸法
  6
CONTINUOUS
 62
     5
 10
2386.467245632977
 20
811.8375391930296
 30
0.0
 11
2386.467245632977
 21
583.2415391930294
 31
0.0
  0
INSERT
  5
336
  8
回02-寸法
  6
CONTINUOUS
 62
     5
 66
     1
  2
_OPEN
 10
2386.467245632977
 20
813.8375391930296
 30
0.0
 41
2.0
 42
2.0
 43
2.0
 50
90.0
  0
SEQEND
  5
337
  8
回01-TP外形
  6
CONTINUOUS
 62
     7
  0
INSERT
  5
338
  8
回02-寸法
  6
CONTINUOUS
 62
     5
 66
     1
  2
_OPEN
 10
2386.467245632977
 20
581.2415391930294
 30
0.0
 41
2.0
 42
2.0
 43
2.0
 50
270.0
  0
SEQEND
  5
339
  8
回01-TP外形
  6
CONTINUOUS
 62
     7
  0
TEXT
  5
33A
  8
回02-寸法
  6
CONTINUOUS
 62
     5
 10
2385.667245632976
 20
657.6407202953914
 30
0.0
 40
6.0
  1
232.6 (VIEWING AREA)
 50
90.0
1001
ACAD
1000
MTEXTBEGIN
1070
    73
1070
     1
1070
    44
1040
1.0
1070
    74
1070
     0
1000
MTEXTEND
  0
POINT
  5
33B
  8
DEFPOINTS
  6
CONTINUOUS
 62
     0
 10
2332.281245632978
 20
813.8375391930296
 30
0.0
  0
POINT
  5
33C
  8
DEFPOINTS
  6
CONTINUOUS
 62
     0
 10
2332.281245632978
 20
581.2415391930294
 30
0.0
  0
POINT
  5
33D
  8
DEFPOINTS
  6
CONTINUOUS
 62
     0
 10
2386.467245632977
 20
581.2415391930294
 30
0.0
  0
ENDBLK
  5
33E
  8
0
 62
     7
  0
BLOCK
  8
0
  2
*D12
 70
     1
 10
0.0
 20
0.0
 30
0.0
  3
*D12
  1

  0
LINE
  5
324
  8
回02-寸法
  6
CONTINUOUS
 62
     5
 10
2341.467245632977
 20
571.5395391930292
 30
0.0
 11
2407.467245632977
 21
571.5395391930292
 31
0.0
  0
LINE
  5
325
  8
回02-寸法
  6
CONTINUOUS
 62
     5
 10
2341.467245632977
 20
823.5445696353353
 30
0.0
 11
2407.467245632977
 21
823.5445696353353
 31
0.0
  0
LINE
  5
326
  8
回02-寸法
  6
CONTINUOUS
 62
     5
 10
2406.467245632977
 20
573.5395391930292
 30
0.0
 11
2406.467245632977
 21
821.5445696353354
 31
0.0
  0
INSERT
  5
327
  8
回02-寸法
  6
CONTINUOUS
 62
     5
 66
     1
  2
_OPEN
 10
2406.467245632977
 20
571.5395391930292
 30
0.0
 41
2.0
 42
2.0
 43
2.0
 50
270.0
  0
SEQEND
  5
328
  8
回01-TP外形
  6
CONTINUOUS
 62
     7
  0
INSERT
  5
329
  8
回02-寸法
  6
CONTINUOUS
 62
     5
 66
     1
  2
_OPEN
 10
2406.467245632977
 20
823.5445696353353
 30
0.0
 41
2.0
 42
2.0
 43
2.0
 50
90.0
  0
SEQEND
  5
32A
  8
回01-TP外形
  6
CONTINUOUS
 62
     7
  0
INSERT
  5
32B
  8
回02-寸法
  6
CONTINUOUS
 62
     5
 66
     1
  2
*X87
 10
0.0
 20
0.0
 30
0.0
  0
SEQEND
  5
6DC
  8
回01-TP外形
  6
CONTINUOUS
 62
     7
  0
POINT
  5
32C
  8
DEFPOINTS
  6
CONTINUOUS
 62
     0
 10
2341.467245632977
 20
571.5395391930292
 30
0.0
  0
POINT
  5
32D
  8
DEFPOINTS
  6
CONTINUOUS
 62
     0
 10
2341.467245632977
 20
823.5445696353353
 30
0.0
  0
POINT
  5
32E
  8
DEFPOINTS
  6
CONTINUOUS
 62
     0
 10
2406.467245632977
 20
823.5445696353353
 30
0.0
  0
ENDBLK
  5
32F
  8
0
 62
     7
  0
BLOCK
  8
0
  2
*D13
 70
     1
 10
0.0
 20
0.0
 30
0.0
  3
*D13
  1

  0
LINE
  5
313
  8
回02-寸法
  6
CONTINUOUS
 62
     5
 10
2013.467245632977
 20
688.8624148485619
 30
0.0
 11
2013.467245632977
 21
675.7309521029985
 31
0.0
  0
LINE
  5
314
  8
回02-寸法
  6
CONTINUOUS
 62
     5
 10
2008.866743120414
 20
689.6286931123329
 30
0.0
 11
2008.866743120414
 21
675.7309521029985
 31
0.0
  0
LINE
  5
315
  8
回02-寸法
  6
CONTINUOUS
 62
     5
 10
2015.467245632977
 20
676.7309521029986
 30
0.0
 11
2017.467245632977
 21
676.7309521029986
 31
0.0
  0
LINE
  5
316
  8
回02-寸法
  6
CONTINUOUS
 62
     5
 10
2006.866743120414
 20
676.7309521029986
 30
0.0
 11
1993.583573917564
 21
676.7309521029986
 31
0.0
  0
LINE
  5
317
  8
回02-寸法
  6
CONTINUOUS
 62
     5
 10
2013.467245632977
 20
676.7309521029986
 30
0.0
 11
2008.866743120414
 21
676.7309521029986
 31
0.0
  0
INSERT
  5
318
  8
回02-寸法
  6
CONTINUOUS
 62
     5
 66
     1
  2
_OPEN
 10
2013.467245632977
 20
676.7309521029986
 30
0.0
 41
2.0
 42
2.0
 43
2.0
 50
180.0
  0
SEQEND
  5
319
  8
回01-TP外形
  6
CONTINUOUS
 62
     7
  0
INSERT
  5
31A
  8
回02-寸法
  6
CONTINUOUS
 62
     5
 66
     1
  2
_OPEN
 10
2008.866743120414
 20
676.7309521029986
 30
0.0
 41
2.0
 42
2.0
 43
2.0
  0
SEQEND
  5
31B
  8
回01-TP外形
  6
CONTINUOUS
 62
     7
  0
TEXT
  5
31C
  8
回02-寸法
  6
CONTINUOUS
 62
     5
 10
1993.3298877299
 20
677.2309521029986
 30
0.0
 40
6.0
  1
4.6
1001
ACAD
1000
MTEXTBEGIN
1070
    73
1070
     1
1070
    44
1040
1.0
1070
    74
1070
     0
1000
MTEXTEND
  0
POINT
  5
31D
  8
DEFPOINTS
  6
CONTINUOUS
 62
     0
 10
2013.467245632977
 20
688.8624148485619
 30
0.0
  0
POINT
  5
31E
  8
DEFPOINTS
  6
CONTINUOUS
 62
     0
 10
2008.866743120414
 20
689.6286931123329
 30
0.0
  0
POINT
  5
31F
  8
DEFPOINTS
  6
CONTINUOUS
 62
     0
 10
2008.866743120414
 20
676.7309521029986
 30
0.0
  0
ENDBLK
  5
320
  8
0
 62
     7
  0
BLOCK
  8
0
  2
*D14
 70
     1
 10
0.0
 20
0.0
 30
0.0
  3
*D14
  1

  0
LINE
  5
304
  8
回02-寸法
  6
CONTINUOUS
 62
     5
 10
2023.153245632977
 20
814.6375391930291
 30
0.0
 11
2023.153245632977
 21
859.5395391930292
 31
0.0
  0
LINE
  5
305
  8
回02-寸法
  6
CONTINUOUS
 62
     5
 10
2332.781245632977
 20
814.6375391930291
 30
0.0
 11
2332.781245632977
 21
859.5395391930292
 31
0.0
  0
LINE
  5
306
  8
回02-寸法
  6
CONTINUOUS
 62
     5
 10
2025.153245632977
 20
858.5395391930292
 30
0.0
 11
2330.781245632977
 21
858.5395391930292
 31
0.0
  0
INSERT
  5
307
  8
回02-寸法
  6
CONTINUOUS
 62
     5
 66
     1
  2
_OPEN
 10
2023.153245632977
 20
858.5395391930292
 30
0.0
 41
2.0
 42
2.0
 43
2.0
 50
180.0
  0
SEQEND
  5
308
  8
回01-TP外形
  6
CONTINUOUS
 62
     7
  0
INSERT
  5
309
  8
回02-寸法
  6
CONTINUOUS
 62
     5
 66
     1
  2
_OPEN
 10
2332.781245632977
 20
858.5395391930292
 30
0.0
 41
2.0
 42
2.0
 43
2.0
  0
SEQEND
  5
30A
  8
回01-TP外形
  6
CONTINUOUS
 62
     7
  0
TEXT
  5
30B
  8
回02-寸法
  6
CONTINUOUS
 62
     5
 10
2166.556414527396
 20
859.0395391930291
 30
0.0
 40
6.0
  1
309.63
1001
ACAD
1000
MTEXTBEGIN
1070
    73
1070
     1
1070
    44
1040
1.0
1070
    74
1070
     0
1000
MTEXTEND
  0
POINT
  5
30C
  8
DEFPOINTS
  6
CONTINUOUS
 62
     0
 10
2023.153245632977
 20
814.6375391930291
 30
0.0
  0
POINT
  5
30D
  8
DEFPOINTS
  6
CONTINUOUS
 62
     0
 10
2332.781245632977
 20
814.6375391930291
 30
0.0
  0
POINT
  5
30E
  8
DEFPOINTS
  6
CONTINUOUS
 62
     0
 10
2332.781245632977
 20
858.5395391930292
 30
0.0
  0
ENDBLK
  5
30F
  8
0
 62
     7
  0
BLOCK
  8
0
  2
*D15
 70
     1
 10
0.0
 20
0.0
 30
0.0
  3
*D15
  1

  0
LINE
  5
2F3
  8
回02-寸法
  6
CONTINUOUS
 62
     5
 10
2332.781245632977
 20
814.6375391930291
 30
0.0
 11
2332.781245632977
 21
859.5395391930292
 31
0.0
  0
LINE
  5
2F4
  8
回02-寸法
  6
CONTINUOUS
 62
     5
 10
2341.467245632977
 20
823.5445696353353
 30
0.0
 11
2341.467245632977
 21
859.5395391930292
 31
0.0
  0
LINE
  5
2F5
  8
回02-寸法
  6
CONTINUOUS
 62
     5
 10
2330.781245632977
 20
858.5395391930292
 30
0.0
 11
2328.781245632977
 21
858.5395391930292
 31
0.0
  0
LINE
  5
2F6
  8
回02-寸法
  6
CONTINUOUS
 62
     5
 10
2343.467245632977
 20
858.5395391930292
 30
0.0
 11
2363.883487206494
 21
858.5395391930292
 31
0.0
  0
LINE
  5
2F7
  8
回02-寸法
  6
CONTINUOUS
 62
     5
 10
2332.781245632977
 20
858.5395391930292
 30
0.0
 11
2341.467245632977
 21
858.5395391930292
 31
0.0
  0
INSERT
  5
2F8
  8
回02-寸法
  6
CONTINUOUS
 62
     5
 66
     1
  2
_OPEN
 10
2332.781245632977
 20
858.5395391930292
 30
0.0
 41
2.0
 42
2.0
 43
2.0
  0
SEQEND
  5
2F9
  8
回01-TP外形
  6
CONTINUOUS
 62
     7
  0
INSERT
  5
2FA
  8
回02-寸法
  6
CONTINUOUS
 62
     5
 66
     1
  2
_OPEN
 10
2341.467245632977
 20
858.5395391930292
 30
0.0
 41
2.0
 42
2.0
 43
2.0
 50
180.0
  0
SEQEND
  5
2FB
  8
回01-TP外形
  6
CONTINUOUS
 62
     7
  0
TEXT
  5
2FC
  8
回02-寸法
  6
CONTINUOUS
 62
     5
 10
2345.064535314155
 20
859.3394193808245
 30
0.0
 40
6.0
  1
(8.69)
1001
ACAD
1000
MTEXTBEGIN
1070
    73
1070
     1
1070
    44
1040
1.0
1070
    74
1070
     0
1000
MTEXTEND
  0
POINT
  5
2FD
  8
DEFPOINTS
  6
CONTINUOUS
 62
     0
 10
2332.781245632977
 20
814.6375391930291
 30
0.0
  0
POINT
  5
2FE
  8
DEFPOINTS
  6
CONTINUOUS
 62
     0
 10
2341.467245632977
 20
823.5445696353353
 30
0.0
  0
POINT
  5
2FF
  8
DEFPOINTS
  6
CONTINUOUS
 62
     0
 10
2341.467245632977
 20
858.5395391930292
 30
0.0
  0
ENDBLK
  5
300
  8
0
 62
     7
  0
BLOCK
  8
0
  2
*D16
 70
     1
 10
0.0
 20
0.0
 30
0.0
  3
*D16
  1

  0
LINE
  5
2E2
  8
回02-寸法
  6
CONTINUOUS
 62
     5
 10
2023.153245632977
 20
814.6375391930291
 30
0.0
 11
2023.153245632977
 21
859.5395391930292
 31
0.0
  0
LINE
  5
2E3
  8
回02-寸法
  6
CONTINUOUS
 62
     5
 10
2013.467245632977
 20
823.5395391930293
 30
0.0
 11
2013.467245632977
 21
859.5395391930292
 31
0.0
  0
LINE
  5
2E4
  8
回02-寸法
  6
CONTINUOUS
 62
     5
 10
2011.467245632977
 20
858.5395391930292
 30
0.0
 11
1935.232945626539
 21
858.5395391930292
 31
0.0
  0
LINE
  5
2E5
  8
回02-寸法
  6
CONTINUOUS
 62
     5
 10
2023.153245632977
 20
858.5395391930292
 30
0.0
 11
2013.467245632977
 21
858.5395391930292
 31
0.0
  0
LINE
  5
2E6
  8
回02-寸法
  6
CONTINUOUS
 62
     5
 10
2025.153245632977
 20
858.5395391930292
 30
0.0
 11
2027.153245632977
 21
858.5395391930292
 31
0.0
  0
INSERT
  5
2E7
  8
回02-寸法
  6
CONTINUOUS
 62
     5
 66
     1
  2
_OPEN
 10
2023.153245632977
 20
858.5395391930292
 30
0.0
 41
2.0
 42
2.0
 43
2.0
 50
180.0
  0
SEQEND
  5
2E8
  8
回01-TP外形
  6
CONTINUOUS
 62
     7
  0
INSERT
  5
2E9
  8
回02-寸法
  6
CONTINUOUS
 62
     5
 66
     1
  2
_OPEN
 10
2013.467245632977
 20
858.5395391930292
 30
0.0
 41
2.0
 42
2.0
 43
2.0
  0
SEQEND
  5
2EA
  8
回01-TP外形
  6
CONTINUOUS
 62
     7
  0
TEXT
  5
2EB
  8
回02-寸法
  6
CONTINUOUS
 62
     5
 10
1934.811283415377
 20
859.3395391930291
 30
0.0
 40
6.0
  1
9.69(Insulation Area)
1001
ACAD
1000
MTEXTBEGIN
1070
    73
1070
     1
1070
    44
1040
1.0
1070
    74
1070
     0
1000
MTEXTEND
  0
POINT
  5
2EC
  8
DEFPOINTS
  6
CONTINUOUS
 62
     0
 10
2023.153245632977
 20
814.6375391930291
 30
0.0
  0
POINT
  5
2ED
  8
DEFPOINTS
  6
CONTINUOUS
 62
     0
 10
2013.467245632977
 20
823.5395391930293
 30
0.0
  0
POINT
  5
2EE
  8
DEFPOINTS
  6
CONTINUOUS
 62
     0
 10
2013.467245632977
 20
858.5395391930292
 30
0.0
  0
ENDBLK
  5
2EF
  8
0
 62
     7
  0
BLOCK
  8
0
  2
*D17
 70
     1
 10
0.0
 20
0.0
 30
0.0
  3
*D17
  1

  0
LINE
  5
2D3
  8
回02-寸法
  6
CONTINUOUS
 62
     5
 10
2332.781245632978
 20
814.6375391930297
 30
0.0
 11
2397.467245632977
 21
814.6375391930297
 31
0.0
  0
LINE
  5
2D4
  8
回02-寸法
  6
CONTINUOUS
 62
     5
 10
2332.781245632978
 20
580.4415391930294
 30
0.0
 11
2397.467245632977
 21
580.4415391930294
 31
0.0
  0
LINE
  5
2D5
  8
回02-寸法
  6
CONTINUOUS
 62
     5
 10
2396.467245632977
 20
812.6375391930295
 30
0.0
 11
2396.467245632977
 21
582.4415391930294
 31
0.0
  0
INSERT
  5
2D6
  8
回02-寸法
  6
CONTINUOUS
 62
     5
 66
     1
  2
_OPEN
 10
2396.467245632977
 20
814.6375391930297
 30
0.0
 41
2.0
 42
2.0
 43
2.0
 50
90.0
  0
SEQEND
  5
2D7
  8
回01-TP外形
  6
CONTINUOUS
 62
     7
  0
INSERT
  5
2D8
  8
回02-寸法
  6
CONTINUOUS
 62
     5
 66
     1
  2
_OPEN
 10
2396.467245632977
 20
580.4415391930294
 30
0.0
 41
2.0
 42
2.0
 43
2.0
 50
270.0
  0
SEQEND
  5
2D9
  8
回01-TP外形
  6
CONTINUOUS
 62
     7
  0
TEXT
  5
2DA
  8
回02-寸法
  6
CONTINUOUS
 62
     5
 10
2395.966655081796
 20
687.938875822348
 30
0.0
 40
6.0
  1
234.2
 50
90.0
1001
ACAD
1000
MTEXTBEGIN
1070
    73
1070
     1
1070
    44
1040
1.0
1070
    74
1070
     0
1000
MTEXTEND
  0
POINT
  5
2DB
  8
DEFPOINTS
  6
CONTINUOUS
 62
     0
 10
2332.781245632978
 20
814.6375391930297
 30
0.0
  0
POINT
  5
2DC
  8
DEFPOINTS
  6
CONTINUOUS
 62
     0
 10
2332.781245632978
 20
580.4415391930294
 30
0.0
  0
POINT
  5
2DD
  8
DEFPOINTS
  6
CONTINUOUS
 62
     0
 10
2396.467245632977
 20
580.4415391930294
 30
0.0
  0
ENDBLK
  5
2DE
  8
0
 62
     7
  0
BLOCK
  8
0
  2
*D18
 70
     1
 10
0.0
 20
0.0
 30
0.0
  3
*D18
  1

  0
LINE
  5
2C2
  8
回02-寸法
  6
CONTINUOUS
 62
     5
 10
2332.781245632977
 20
814.6375391930291
 30
0.0
 11
2397.467245632982
 21
814.6375391930291
 31
0.0
  0
LINE
  5
2C3
  8
回02-寸法
  6
CONTINUOUS
 62
     5
 10
2341.467245632977
 20
823.5445696353353
 30
0.0
 11
2397.467245632982
 21
823.5445696353353
 31
0.0
  0
LINE
  5
2C4
  8
回02-寸法
  6
CONTINUOUS
 62
     5
 10
2396.467245632982
 20
825.5445696353353
 30
0.0
 11
2396.467245632982
 21
844.7615074370487
 31
0.0
  0
LINE
  5
2C5
  8
回02-寸法
  6
CONTINUOUS
 62
     5
 10
2396.467245632982
 20
814.6375391930291
 30
0.0
 11
2396.467245632982
 21
823.5445696353353
 31
0.0
  0
LINE
  5
2C6
  8
回02-寸法
  6
CONTINUOUS
 62
     5
 10
2396.467245632982
 20
812.6375391930292
 30
0.0
 11
2396.467245632982
 21
810.6375391930292
 31
0.0
  0
INSERT
  5
2C7
  8
回02-寸法
  6
CONTINUOUS
 62
     5
 66
     1
  2
_OPEN
 10
2396.467245632982
 20
814.6375391930291
 30
0.0
 41
2.0
 42
2.0
 43
2.0
 50
90.0
  0
SEQEND
  5
2C8
  8
回01-TP外形
  6
CONTINUOUS
 62
     7
  0
INSERT
  5
2C9
  8
回02-寸法
  6
CONTINUOUS
 62
     5
 66
     1
  2
_OPEN
 10
2396.467245632982
 20
823.5445696353353
 30
0.0
 41
2.0
 42
2.0
 43
2.0
 50
270.0
  0
SEQEND
  5
2CA
  8
回01-TP外形
  6
CONTINUOUS
 62
     7
  0
TEXT
  5
2CB
  8
回02-寸法
  6
CONTINUOUS
 62
     5
 10
2395.667245632981
 20
827.142207430611
 30
0.0
 40
6.0
  1
(8.91)
 50
90.0
1001
ACAD
1000
MTEXTBEGIN
1070
    73
1070
     1
1070
    44
1040
1.0
1070
    74
1070
     0
1000
MTEXTEND
  0
POINT
  5
2CC
  8
DEFPOINTS
  6
CONTINUOUS
 62
     0
 10
2332.781245632977
 20
814.6375391930291
 30
0.0
  0
POINT
  5
2CD
  8
DEFPOINTS
  6
CONTINUOUS
 62
     0
 10
2341.467245632977
 20
823.5445696353353
 30
0.0
  0
POINT
  5
2CE
  8
DEFPOINTS
  6
CONTINUOUS
 62
     0
 10
2396.467245632982
 20
823.5445696353353
 30
0.0
  0
ENDBLK
  5
2CF
  8
0
 62
     7
  0
BLOCK
  8
0
  2
*D19
 70
     1
 10
0.0
 20
0.0
 30
0.0
  3
*D19
  1

  0
LINE
  5
2B1
  8
回02-寸法
  6
CONTINUOUS
 62
     5
 10
2332.781245632977
 20
580.4415391930292
 30
0.0
 11
2397.467245632982
 21
580.4415391930292
 31
0.0
  0
LINE
  5
2B2
  8
回02-寸法
  6
CONTINUOUS
 62
     5
 10
2341.467245632977
 20
571.5395391930292
 30
0.0
 11
2397.467245632982
 21
571.5395391930292
 31
0.0
  0
LINE
  5
2B3
  8
回02-寸法
  6
CONTINUOUS
 62
     5
 10
2396.467245632982
 20
569.5395391930292
 30
0.0
 11
2396.467245632982
 21
507.4593359070645
 31
0.0
  0
LINE
  5
2B4
  8
回02-寸法
  6
CONTINUOUS
 62
     5
 10
2396.467245632982
 20
580.4415391930292
 30
0.0
 11
2396.467245632982
 21
571.5395391930292
 31
0.0
  0
LINE
  5
2B5
  8
回02-寸法
  6
CONTINUOUS
 62
     5
 10
2396.467245632982
 20
582.4415391930292
 30
0.0
 11
2396.467245632982
 21
584.4415391930292
 31
0.0
  0
INSERT
  5
2B6
  8
回02-寸法
  6
CONTINUOUS
 62
     5
 66
     1
  2
_OPEN
 10
2396.467245632982
 20
580.4415391930292
 30
0.0
 41
2.0
 42
2.0
 43
2.0
 50
270.0
  0
SEQEND
  5
2B7
  8
回01-TP外形
  6
CONTINUOUS
 62
     7
  0
INSERT
  5
2B8
  8
回02-寸法
  6
CONTINUOUS
 62
     5
 66
     1
  2
_OPEN
 10
2396.467245632982
 20
571.5395391930292
 30
0.0
 41
2.0
 42
2.0
 43
2.0
 50
90.0
  0
SEQEND
  5
2B9
  8
回01-TP外形
  6
CONTINUOUS
 62
     7
  0
INSERT
  5
2BA
  8
回02-寸法
  6
CONTINUOUS
 62
     5
 66
     1
  2
*X88
 10
0.0
 20
0.0
 30
0.0
  0
SEQEND
  5
6E2
  8
回01-TP外形
  6
CONTINUOUS
 62
     7
  0
POINT
  5
2BB
  8
DEFPOINTS
  6
CONTINUOUS
 62
     0
 10
2332.781245632977
 20
580.4415391930292
 30
0.0
  0
POINT
  5
2BC
  8
DEFPOINTS
  6
CONTINUOUS
 62
     0
 10
2341.467245632977
 20
571.5395391930292
 30
0.0
  0
POINT
  5
2BD
  8
DEFPOINTS
  6
CONTINUOUS
 62
     0
 10
2396.467245632982
 20
571.5395391930292
 30
0.0
  0
ENDBLK
  5
2BE
  8
0
 62
     7
  0
BLOCK
  8
0
  2
*D20
 70
     1
 10
0.0
 20
0.0
 30
0.0
  3
*D20
  1

  0
LINE
  5
2A0
  8
回02-寸法
  6
CONTINUOUS
 62
     5
 10
2025.653245632977
 20
811.8375391930293
 30
0.0
 11
2025.653245632977
 21
839.5395391930291
 31
0.0
  0
LINE
  5
2A1
  8
回02-寸法
  6
CONTINUOUS
 62
     5
 10
2013.467245632977
 20
823.5395391930293
 30
0.0
 11
2013.467245632977
 21
839.5395391930291
 31
0.0
  0
LINE
  5
2A2
  8
回02-寸法
  6
CONTINUOUS
 62
     5
 10
2011.467245632977
 20
838.5395391930291
 30
0.0
 11
1993.84163409039
 21
838.5395391930291
 31
0.0
  0
LINE
  5
2A3
  8
回02-寸法
  6
CONTINUOUS
 62
     5
 10
2025.653245632977
 20
838.5395391930291
 30
0.0
 11
2013.467245632977
 21
838.5395391930291
 31
0.0
  0
LINE
  5
2A4
  8
回02-寸法
  6
CONTINUOUS
 62
     5
 10
2027.653245632976
 20
838.5395391930291
 30
0.0
 11
2029.653245632976
 21
838.5395391930291
 31
0.0
  0
INSERT
  5
2A5
  8
回02-寸法
  6
CONTINUOUS
 62
     5
 66
     1
  2
_OPEN
 10
2025.653245632977
 20
838.5395391930291
 30
0.0
 41
2.0
 42
2.0
 43
2.0
 50
180.0
  0
SEQEND
  5
2A6
  8
回01-TP外形
  6
CONTINUOUS
 62
     7
  0
INSERT
  5
2A7
  8
回02-寸法
  6
CONTINUOUS
 62
     5
 66
     1
  2
_OPEN
 10
2013.467245632977
 20
838.5395391930291
 30
0.0
 41
2.0
 42
2.0
 43
2.0
  0
SEQEND
  5
2A8
  8
回01-TP外形
  6
CONTINUOUS
 62
     7
  0
TEXT
  5
2A9
  8
回02-寸法
  6
CONTINUOUS
 62
     5
 10
1993.44163409039
 20
839.0395391930292
 30
0.0
 40
6.0
  1
12.19
1001
ACAD
1000
MTEXTBEGIN
1070
    73
1070
     1
1070
    44
1040
1.0
1070
    74
1070
     0
1000
MTEXTEND
  0
POINT
  5
2AA
  8
DEFPOINTS
  6
CONTINUOUS
 62
     0
 10
2025.653245632977
 20
811.8375391930293
 30
0.0
  0
POINT
  5
2AB
  8
DEFPOINTS
  6
CONTINUOUS
 62
     0
 10
2013.467245632977
 20
823.5395391930293
 30
0.0
  0
POINT
  5
2AC
  8
DEFPOINTS
  6
CONTINUOUS
 62
     0
 10
2013.467245632977
 20
838.5395391930291
 30
0.0
  0
ENDBLK
  5
2AD
  8
0
 62
     7
  0
BLOCK
  8
0
  2
*D21
 70
     1
 10
0.0
 20
0.0
 30
0.0
  3
*D21
  1

  0
LINE
  5
28F
  8
回02-寸法
  6
CONTINUOUS
 62
     5
 10
2023.653245632976
 20
813.8375391930292
 30
0.0
 11
2023.653245632976
 21
849.5395391930292
 31
0.0
  0
LINE
  5
290
  8
回02-寸法
  6
CONTINUOUS
 62
     5
 10
2013.467245632977
 20
823.5395391930293
 30
0.0
 11
2013.467245632977
 21
849.5395391930292
 31
0.0
  0
LINE
  5
291
  8
回02-寸法
  6
CONTINUOUS
 62
     5
 10
2011.467245632977
 20
848.5395391930293
 30
0.0
 11
1993.84163409039
 21
848.5395391930293
 31
0.0
  0
LINE
  5
292
  8
回02-寸法
  6
CONTINUOUS
 62
     5
 10
2023.653245632976
 20
848.5395391930293
 30
0.0
 11
2013.467245632977
 21
848.5395391930293
 31
0.0
  0
LINE
  5
293
  8
回02-寸法
  6
CONTINUOUS
 62
     5
 10
2025.653245632977
 20
848.5395391930293
 30
0.0
 11
2027.653245632976
 21
848.5395391930293
 31
0.0
  0
INSERT
  5
294
  8
回02-寸法
  6
CONTINUOUS
 62
     5
 66
     1
  2
_OPEN
 10
2023.653245632976
 20
848.5395391930293
 30
0.0
 41
2.0
 42
2.0
 43
2.0
 50
180.0
  0
SEQEND
  5
295
  8
回01-TP外形
  6
CONTINUOUS
 62
     7
  0
INSERT
  5
296
  8
回02-寸法
  6
CONTINUOUS
 62
     5
 66
     1
  2
_OPEN
 10
2013.467245632977
 20
848.5395391930293
 30
0.0
 41
2.0
 42
2.0
 43
2.0
  0
SEQEND
  5
297
  8
回01-TP外形
  6
CONTINUOUS
 62
     7
  0
TEXT
  5
298
  8
回02-寸法
  6
CONTINUOUS
 62
     5
 10
1993.44163409039
 20
849.0395391930292
 30
0.0
 40
6.0
  1
10.19
1001
ACAD
1000
MTEXTBEGIN
1070
    73
1070
     1
1070
    44
1040
1.0
1070
    74
1070
     0
1000
MTEXTEND
  0
POINT
  5
299
  8
DEFPOINTS
  6
CONTINUOUS
 62
     0
 10
2023.653245632976
 20
813.8375391930292
 30
0.0
  0
POINT
  5
29A
  8
DEFPOINTS
  6
CONTINUOUS
 62
     0
 10
2013.467245632977
 20
823.5395391930293
 30
0.0
  0
POINT
  5
29B
  8
DEFPOINTS
  6
CONTINUOUS
 62
     0
 10
2013.467245632977
 20
848.5395391930293
 30
0.0
  0
ENDBLK
  5
29C
  8
0
 62
     7
  0
BLOCK
  8
0
  2
*D22
 70
     1
 10
0.0
 20
0.0
 30
0.0
  3
*D22
  1

  0
LINE
  5
27E
  8
回02-寸法
  6
CONTINUOUS
 62
     5
 10
2330.281245632977
 20
811.8375391930293
 30
0.0
 11
2330.281245632977
 21
839.5395391930291
 31
0.0
  0
LINE
  5
27F
  8
回02-寸法
  6
CONTINUOUS
 62
     5
 10
2341.467245632977
 20
823.5445696353353
 30
0.0
 11
2341.467245632977
 21
839.5395391930291
 31
0.0
  0
LINE
  5
280
  8
回02-寸法
  6
CONTINUOUS
 62
     5
 10
2343.467245632977
 20
838.5395391930291
 30
0.0
 11
2364.48418343469
 21
838.5395391930291
 31
0.0
  0
LINE
  5
281
  8
回02-寸法
  6
CONTINUOUS
 62
     5
 10
2330.281245632977
 20
838.5395391930291
 30
0.0
 11
2341.467245632977
 21
838.5395391930291
 31
0.0
  0
LINE
  5
282
  8
回02-寸法
  6
CONTINUOUS
 62
     5
 10
2328.281245632977
 20
838.5395391930291
 30
0.0
 11
2326.281245632976
 21
838.5395391930291
 31
0.0
  0
INSERT
  5
283
  8
回02-寸法
  6
CONTINUOUS
 62
     5
 66
     1
  2
_OPEN
 10
2330.281245632977
 20
838.5395391930291
 30
0.0
 41
2.0
 42
2.0
 43
2.0
  0
SEQEND
  5
284
  8
回01-TP外形
  6
CONTINUOUS
 62
     7
  0
INSERT
  5
285
  8
回02-寸法
  6
CONTINUOUS
 62
     5
 66
     1
  2
_OPEN
 10
2341.467245632977
 20
838.5395391930291
 30
0.0
 41
2.0
 42
2.0
 43
2.0
 50
180.0
  0
SEQEND
  5
286
  8
回01-TP外形
  6
CONTINUOUS
 62
     7
  0
TEXT
  5
287
  8
回02-寸法
  6
CONTINUOUS
 62
     5
 10
2345.064883428253
 20
839.3395391930292
 30
0.0
 40
6.0
  1
(11.19)
1001
ACAD
1000
MTEXTBEGIN
1070
    73
1070
     1
1070
    44
1040
1.0
1070
    74
1070
     0
1000
MTEXTEND
  0
POINT
  5
288
  8
DEFPOINTS
  6
CONTINUOUS
 62
     0
 10
2330.281245632977
 20
811.8375391930293
 30
0.0
  0
POINT
  5
289
  8
DEFPOINTS
  6
CONTINUOUS
 62
     0
 10
2341.467245632977
 20
823.5445696353353
 30
0.0
  0
POINT
  5
28A
  8
DEFPOINTS
  6
CONTINUOUS
 62
     0
 10
2341.467245632977
 20
838.5395391930291
 30
0.0
  0
ENDBLK
  5
28B
  8
0
 62
     7
  0
BLOCK
  8
0
  2
*D23
 70
     1
 10
0.0
 20
0.0
 30
0.0
  3
*D23
  1

  0
LINE
  5
26D
  8
回02-寸法
  6
CONTINUOUS
 62
     5
 10
2332.281245632977
 20
813.8375391930292
 30
0.0
 11
2332.281245632977
 21
849.5395391930292
 31
0.0
  0
LINE
  5
26E
  8
回02-寸法
  6
CONTINUOUS
 62
     5
 10
2341.467245632977
 20
823.5445696353353
 30
0.0
 11
2341.467245632977
 21
849.5395391930292
 31
0.0
  0
LINE
  5
26F
  8
回02-寸法
  6
CONTINUOUS
 62
     5
 10
2343.467245632977
 20
848.5395391930293
 30
0.0
 11
2362.705845645852
 21
848.5395391930293
 31
0.0
  0
LINE
  5
270
  8
回02-寸法
  6
CONTINUOUS
 62
     5
 10
2332.281245632977
 20
848.5395391930293
 30
0.0
 11
2341.467245632977
 21
848.5395391930293
 31
0.0
  0
LINE
  5
271
  8
回02-寸法
  6
CONTINUOUS
 62
     5
 10
2330.281245632977
 20
848.5395391930293
 30
0.0
 11
2328.281245632977
 21
848.5395391930293
 31
0.0
  0
INSERT
  5
272
  8
回02-寸法
  6
CONTINUOUS
 62
     5
 66
     1
  2
_OPEN
 10
2332.281245632977
 20
848.5395391930293
 30
0.0
 41
2.0
 42
2.0
 43
2.0
  0
SEQEND
  5
273
  8
回01-TP外形
  6
CONTINUOUS
 62
     7
  0
INSERT
  5
274
  8
回02-寸法
  6
CONTINUOUS
 62
     5
 66
     1
  2
_OPEN
 10
2341.467245632977
 20
848.5395391930293
 30
0.0
 41
2.0
 42
2.0
 43
2.0
 50
180.0
  0
SEQEND
  5
275
  8
回01-TP外形
  6
CONTINUOUS
 62
     7
  0
TEXT
  5
276
  8
回02-寸法
  6
CONTINUOUS
 62
     5
 10
2345.064883428253
 20
849.3395391930292
 30
0.0
 40
6.0
  1
(9.19)
1001
ACAD
1000
MTEXTBEGIN
1070
    73
1070
     1
1070
    44
1040
1.0
1070
    74
1070
     0
1000
MTEXTEND
  0
POINT
  5
277
  8
DEFPOINTS
  6
CONTINUOUS
 62
     0
 10
2332.281245632977
 20
813.8375391930292
 30
0.0
  0
POINT
  5
278
  8
DEFPOINTS
  6
CONTINUOUS
 62
     0
 10
2341.467245632977
 20
823.5445696353353
 30
0.0
  0
POINT
  5
279
  8
DEFPOINTS
  6
CONTINUOUS
 62
     0
 10
2341.467245632977
 20
848.5395391930293
 30
0.0
  0
ENDBLK
  5
27A
  8
0
 62
     7
  0
BLOCK
  8
0
  2
*D24
 70
     1
 10
0.0
 20
0.0
 30
0.0
  3
*D24
  1

  0
LINE
  5
25C
  8
回02-寸法
  6
CONTINUOUS
 62
     5
 10
2330.281245632977
 20
811.8375391930293
 30
0.0
 11
2377.467245632977
 21
811.8375391930293
 31
0.0
  0
LINE
  5
25D
  8
回02-寸法
  6
CONTINUOUS
 62
     5
 10
2341.467245632977
 20
823.5445696353353
 30
0.0
 11
2377.467245632977
 21
823.5445696353353
 31
0.0
  0
LINE
  5
25E
  8
回02-寸法
  6
CONTINUOUS
 62
     5
 10
2376.467245632977
 20
825.5445696353353
 30
0.0
 11
2376.467245632977
 21
846.5398452258868
 31
0.0
  0
LINE
  5
25F
  8
回02-寸法
  6
CONTINUOUS
 62
     5
 10
2376.467245632977
 20
811.8375391930293
 30
0.0
 11
2376.467245632977
 21
823.5445696353353
 31
0.0
  0
LINE
  5
260
  8
回02-寸法
  6
CONTINUOUS
 62
     5
 10
2376.467245632977
 20
809.8375391930291
 30
0.0
 11
2376.467245632977
 21
807.8375391930292
 31
0.0
  0
INSERT
  5
261
  8
回02-寸法
  6
CONTINUOUS
 62
     5
 66
     1
  2
_OPEN
 10
2376.467245632977
 20
811.8375391930293
 30
0.0
 41
2.0
 42
2.0
 43
2.0
 50
90.0
  0
SEQEND
  5
262
  8
回01-TP外形
  6
CONTINUOUS
 62
     7
  0
INSERT
  5
263
  8
回02-寸法
  6
CONTINUOUS
 62
     5
 66
     1
  2
_OPEN
 10
2376.467245632977
 20
823.5445696353353
 30
0.0
 41
2.0
 42
2.0
 43
2.0
 50
270.0
  0
SEQEND
  5
264
  8
回01-TP外形
  6
CONTINUOUS
 62
     7
  0
TEXT
  5
265
  8
回02-寸法
  6
CONTINUOUS
 62
     5
 10
2375.667245632977
 20
827.142207430611
 30
0.0
 40
6.0
  1
(11.71)
 50
90.0
1001
ACAD
1000
MTEXTBEGIN
1070
    73
1070
     1
1070
    44
1040
1.0
1070
    74
1070
     0
1000
MTEXTEND
  0
POINT
  5
266
  8
DEFPOINTS
  6
CONTINUOUS
 62
     0
 10
2330.281245632977
 20
811.8375391930293
 30
0.0
  0
POINT
  5
267
  8
DEFPOINTS
  6
CONTINUOUS
 62
     0
 10
2341.467245632977
 20
823.5445696353353
 30
0.0
  0
POINT
  5
268
  8
DEFPOINTS
  6
CONTINUOUS
 62
     0
 10
2376.467245632977
 20
823.5445696353353
 30
0.0
  0
ENDBLK
  5
269
  8
0
 62
     7
  0
BLOCK
  8
0
  2
*D25
 70
     1
 10
0.0
 20
0.0
 30
0.0
  3
*D25
  1

  0
LINE
  5
24B
  8
回02-寸法
  6
CONTINUOUS
 62
     5
 10
2332.281245632977
 20
813.8375391930292
 30
0.0
 11
2387.467245632977
 21
813.8375391930292
 31
0.0
  0
LINE
  5
24C
  8
回02-寸法
  6
CONTINUOUS
 62
     5
 10
2341.467245632977
 20
823.5445696353353
 30
0.0
 11
2387.467245632977
 21
823.5445696353353
 31
0.0
  0
LINE
  5
24D
  8
回02-寸法
  6
CONTINUOUS
 62
     5
 10
2386.467245632977
 20
825.5445696353353
 30
0.0
 11
2386.467245632977
 21
844.7615074370487
 31
0.0
  0
LINE
  5
24E
  8
回02-寸法
  6
CONTINUOUS
 62
     5
 10
2386.467245632977
 20
813.8375391930292
 30
0.0
 11
2386.467245632977
 21
823.5445696353353
 31
0.0
  0
LINE
  5
24F
  8
回02-寸法
  6
CONTINUOUS
 62
     5
 10
2386.467245632977
 20
811.8375391930293
 30
0.0
 11
2386.467245632977
 21
809.8375391930291
 31
0.0
  0
INSERT
  5
250
  8
回02-寸法
  6
CONTINUOUS
 62
     5
 66
     1
  2
_OPEN
 10
2386.467245632977
 20
813.8375391930292
 30
0.0
 41
2.0
 42
2.0
 43
2.0
 50
90.0
  0
SEQEND
  5
251
  8
回01-TP外形
  6
CONTINUOUS
 62
     7
  0
INSERT
  5
252
  8
回02-寸法
  6
CONTINUOUS
 62
     5
 66
     1
  2
_OPEN
 10
2386.467245632977
 20
823.5445696353353
 30
0.0
 41
2.0
 42
2.0
 43
2.0
 50
270.0
  0
SEQEND
  5
253
  8
回01-TP外形
  6
CONTINUOUS
 62
     7
  0
TEXT
  5
254
  8
回02-寸法
  6
CONTINUOUS
 62
     5
 10
2385.667245632977
 20
827.142207430611
 30
0.0
 40
6.0
  1
(9.71)
 50
90.0
1001
ACAD
1000
MTEXTBEGIN
1070
    73
1070
     1
1070
    44
1040
1.0
1070
    74
1070
     0
1000
MTEXTEND
  0
POINT
  5
255
  8
DEFPOINTS
  6
CONTINUOUS
 62
     0
 10
2332.281245632977
 20
813.8375391930292
 30
0.0
  0
POINT
  5
256
  8
DEFPOINTS
  6
CONTINUOUS
 62
     0
 10
2341.467245632977
 20
823.5445696353353
 30
0.0
  0
POINT
  5
257
  8
DEFPOINTS
  6
CONTINUOUS
 62
     0
 10
2386.467245632977
 20
823.5445696353353
 30
0.0
  0
ENDBLK
  5
258
  8
0
 62
     7
  0
BLOCK
  8
0
  2
*D26
 70
     1
 10
0.0
 20
0.0
 30
0.0
  3
*D26
  1

  0
LINE
  5
23A
  8
回02-寸法
  6
CONTINUOUS
 62
     5
 10
2330.281245632977
 20
583.2415391930291
 30
0.0
 11
2377.467245632977
 21
583.2415391930291
 31
0.0
  0
LINE
  5
23B
  8
回02-寸法
  6
CONTINUOUS
 62
     5
 10
2341.467245632977
 20
571.5395391930292
 30
0.0
 11
2377.467245632977
 21
571.5395391930292
 31
0.0
  0
LINE
  5
23C
  8
回02-寸法
  6
CONTINUOUS
 62
     5
 10
2376.467245632977
 20
569.5395391930292
 30
0.0
 11
2376.467245632977
 21
556.3395391930287
 31
0.0
  0
LINE
  5
23D
  8
回02-寸法
  6
CONTINUOUS
 62
     5
 10
2376.467245632977
 20
583.2415391930291
 30
0.0
 11
2376.467245632977
 21
571.5395391930292
 31
0.0
  0
LINE
  5
23E
  8
回02-寸法
  6
CONTINUOUS
 62
     5
 10
2376.467245632977
 20
585.2415391930292
 30
0.0
 11
2376.467245632977
 21
587.2415391930291
 31
0.0
  0
INSERT
  5
23F
  8
回02-寸法
  6
CONTINUOUS
 62
     5
 66
     1
  2
_OPEN
 10
2376.467245632977
 20
583.2415391930291
 30
0.0
 41
2.0
 42
2.0
 43
2.0
 50
270.0
  0
SEQEND
  5
240
  8
回01-TP外形
  6
CONTINUOUS
 62
     7
  0
INSERT
  5
241
  8
回02-寸法
  6
CONTINUOUS
 62
     5
 66
     1
  2
_OPEN
 10
2376.467245632977
 20
571.5395391930292
 30
0.0
 41
2.0
 42
2.0
 43
2.0
 50
90.0
  0
SEQEND
  5
242
  8
回01-TP外形
  6
CONTINUOUS
 62
     7
  0
TEXT
  5
243
  8
回02-寸法
  6
CONTINUOUS
 62
     5
 10
2375.967245632978
 20
555.9395391930286
 30
0.0
 40
6.0
  1
11.7
 50
90.0
1001
ACAD
1000
MTEXTBEGIN
1070
    73
1070
     1
1070
    44
1040
1.0
1070
    74
1070
     0
1000
MTEXTEND
  0
POINT
  5
244
  8
DEFPOINTS
  6
CONTINUOUS
 62
     0
 10
2330.281245632977
 20
583.2415391930291
 30
0.0
  0
POINT
  5
245
  8
DEFPOINTS
  6
CONTINUOUS
 62
     0
 10
2341.467245632977
 20
571.5395391930292
 30
0.0
  0
POINT
  5
246
  8
DEFPOINTS
  6
CONTINUOUS
 62
     0
 10
2376.467245632977
 20
571.5395391930292
 30
0.0
  0
ENDBLK
  5
247
  8
0
 62
     7
  0
BLOCK
  8
0
  2
*D27
 70
     1
 10
0.0
 20
0.0
 30
0.0
  3
*D27
  1

  0
LINE
  5
228
  8
回02-寸法
  6
CONTINUOUS
 62
     5
 10
2332.281245632977
 20
581.2415391930292
 30
0.0
 11
2387.467245632977
 21
581.2415391930292
 31
0.0
  0
LINE
  5
22A
  8
回02-寸法
  6
CONTINUOUS
 62
     5
 10
2341.467245632977
 20
571.5395391930292
 30
0.0
 11
2387.467245632977
 21
571.5395391930292
 31
0.0
  0
LINE
  5
22B
  8
回02-寸法
  6
CONTINUOUS
 62
     5
 10
2386.467245632977
 20
569.5395391930292
 30
0.0
 11
2386.467245632977
 21
558.0152751243169
 31
0.0
  0
LINE
  5
22C
  8
回02-寸法
  6
CONTINUOUS
 62
     5
 10
2386.467245632977
 20
581.2415391930292
 30
0.0
 11
2386.467245632977
 21
571.5395391930292
 31
0.0
  0
LINE
  5
22D
  8
回02-寸法
  6
CONTINUOUS
 62
     5
 10
2386.467245632977
 20
583.2415391930291
 30
0.0
 11
2386.467245632977
 21
585.2415391930292
 31
0.0
  0
INSERT
  5
22E
  8
回02-寸法
  6
CONTINUOUS
 62
     5
 66
     1
  2
_OPEN
 10
2386.467245632977
 20
581.2415391930292
 30
0.0
 41
2.0
 42
2.0
 43
2.0
 50
270.0
  0
SEQEND
  5
22F
  8
回01-TP外形
  6
CONTINUOUS
 62
     7
  0
INSERT
  5
230
  8
回02-寸法
  6
CONTINUOUS
 62
     5
 66
     1
  2
_OPEN
 10
2386.467245632977
 20
571.5395391930292
 30
0.0
 41
2.0
 42
2.0
 43
2.0
 50
90.0
  0
SEQEND
  5
231
  8
回01-TP外形
  6
CONTINUOUS
 62
     7
  0
TEXT
  5
232
  8
回02-寸法
  6
CONTINUOUS
 62
     5
 10
2385.967245632977
 20
557.5936129131551
 30
0.0
 40
6.0
  1
9.7
 50
90.0
1001
ACAD
1000
MTEXTBEGIN
1070
    73
1070
     1
1070
    44
1040
1.0
1070
    74
1070
     0
1000
MTEXTEND
  0
POINT
  5
233
  8
DEFPOINTS
  6
CONTINUOUS
 62
     0
 10
2332.281245632977
 20
581.2415391930292
 30
0.0
  0
POINT
  5
234
  8
DEFPOINTS
  6
CONTINUOUS
 62
     0
 10
2341.467245632977
 20
571.5395391930292
 30
0.0
  0
POINT
  5
235
  8
DEFPOINTS
  6
CONTINUOUS
 62
     0
 10
2386.467245632977
 20
571.5395391930292
 30
0.0
  0
ENDBLK
  5
236
  8
0
 62
     7
  0
BLOCK
  8
0
  2
*D28
 70
     1
 10
0.0
 20
0.0
 30
0.0
  3
*D28
  1

1001
ACAD
1000
RTTcAl
1070
-32652
1071
-1038915788
1000
$$NoName$$
  0
LINE
  5
20F
  8
回02-寸法
  6
CONTINUOUS
 62
     5
 10
1933.467245632978
 20
497.6907420703825
 30
0.0
 11
1922.158116050802
 21
497.6907420703825
 31
0.0
  0
LINE
  5
210
  8
回02-寸法
  6
CONTINUOUS
 62
     5
 10
1933.467245632978
 20
492.4506283026259
 30
0.0
 11
1922.158116050802
 21
492.4506283026259
 31
0.0
  0
LINE
  5
211
  8
回02-寸法
  6
CONTINUOUS
 62
     5
 10
1923.158116050802
 20
499.6907420703824
 30
0.0
 11
1923.158116050802
 21
501.6907420703825
 31
0.0
  0
LINE
  5
212
  8
回02-寸法
  6
CONTINUOUS
 62
     5
 10
1923.158116050802
 20
490.4506283026258
 30
0.0
 11
1923.158116050802
 21
464.6845077901091
 31
0.0
  0
LINE
  5
213
  8
回02-寸法
  6
CONTINUOUS
 62
     5
 10
1923.158116050802
 20
497.6907420703825
 30
0.0
 11
1923.158116050802
 21
492.4506283026259
 31
0.0
  0
INSERT
  5
214
  8
回02-寸法
  6
CONTINUOUS
 62
     5
 66
     1
  2
_OPEN
 10
1923.158116050802
 20
497.6907420703825
 30
0.0
 41
2.0
 42
2.0
 43
2.0
 50
270.0
  0
SEQEND
  5
215
  8
回01-TP外形
  6
CONTINUOUS
 62
     7
  0
INSERT
  5
216
  8
回02-寸法
  6
CONTINUOUS
 62
     5
 66
     1
  2
_OPEN
 10
1923.158116050802
 20
492.4506283026259
 30
0.0
 41
2.0
 42
2.0
 43
2.0
 50
90.0
  0
SEQEND
  5
217
  8
回01-TP外形
  6
CONTINUOUS
 62
     7
  0
INSERT
  5
218
  8
回02-寸法
  6
CONTINUOUS
 62
     5
 66
     1
  2
*X89
 10
0.0
 20
0.0
 30
0.0
  0
SEQEND
  5
6E8
  8
回01-TP外形
  6
CONTINUOUS
 62
     7
  0
POINT
  5
219
  8
DEFPOINTS
  6
CONTINUOUS
 62
     0
 10
1933.467245632978
 20
497.6907420703825
 30
0.0
  0
POINT
  5
21A
  8
DEFPOINTS
  6
CONTINUOUS
 62
     0
 10
1933.467245632978
 20
492.4506283026259
 30
0.0
  0
POINT
  5
21B
  8
DEFPOINTS
  6
CONTINUOUS
 62
     0
 10
1923.158116050802
 20
492.4506283026259
 30
0.0
  0
ENDBLK
  5
21C
  8
0
 62
   116
1001
ACAD
1000
RTTcAl
1070
-32652
1071
-1038915788
1000
$$NoName$$
  0
BLOCK
  8
0
  2
*D29
 70
     1
 10
0.0
 20
0.0
 30
0.0
  3
*D29
  1

1001
ACAD
1000
RTTcAl
1070
-32652
1071
-1038915788
1000
$$NoName$$
  0
LINE
  5
1FD
  8
回02-寸法
  6
CONTINUOUS
 62
     5
 10
1933.467245632976
 20
492.4506283026256
 30
0.0
 11
1933.467245632976
 21
474.7573804742495
 31
0.0
  0
LINE
  5
1FE
  8
回02-寸法
  6
CONTINUOUS
 62
     5
 10
1943.467245632977
 20
492.4506283026256
 30
0.0
 11
1943.467245632977
 21
474.7573804742495
 31
0.0
  0
LINE
  5
1FF
  8
回02-寸法
  6
CONTINUOUS
 62
     5
 10
1931.467245632976
 20
475.7573804742495
 30
0.0
 11
1929.467245632977
 21
475.7573804742495
 31
0.0
  0
LINE
  5
200
  8
回02-寸法
  6
CONTINUOUS
 62
     5
 10
1945.467245632977
 20
475.7573804742495
 30
0.0
 11
1959.51212752274
 21
475.7573804742495
 31
0.0
  0
LINE
  5
201
  8
回02-寸法
  6
CONTINUOUS
 62
     5
 10
1933.467245632976
 20
475.7573804742495
 30
0.0
 11
1943.467245632977
 21
475.7573804742495
 31
0.0
  0
INSERT
  5
202
  8
回02-寸法
  6
CONTINUOUS
 62
     5
 66
     1
  2
_OPEN
 10
1933.467245632976
 20
475.7573804742495
 30
0.0
 41
2.0
 42
2.0
 43
2.0
  0
SEQEND
  5
203
  8
回01-TP外形
  6
CONTINUOUS
 62
     7
  0
INSERT
  5
204
  8
回02-寸法
  6
CONTINUOUS
 62
     5
 66
     1
  2
_OPEN
 10
1943.467245632977
 20
475.7573804742495
 30
0.0
 41
2.0
 42
2.0
 43
2.0
 50
180.0
  0
SEQEND
  5
205
  8
回01-TP外形
  6
CONTINUOUS
 62
     7
  0
TEXT
  5
206
  8
回02-寸法
  6
CONTINUOUS
 62
     5
 10
1947.914489727465
 20
476.5573804742495
 30
0.0
 40
6.0
  1
(10)
1001
ACAD
1000
MTEXTBEGIN
1070
    73
1070
     1
1070
    44
1040
1.0
1070
    74
1070
     0
1000
MTEXTEND
  0
POINT
  5
207
  8
DEFPOINTS
  6
CONTINUOUS
 62
     0
 10
1933.467245632976
 20
492.4506283026256
 30
0.0
  0
POINT
  5
208
  8
DEFPOINTS
  6
CONTINUOUS
 62
     0
 10
1943.467245632977
 20
492.4506283026256
 30
0.0
  0
POINT
  5
209
  8
DEFPOINTS
  6
CONTINUOUS
 62
     0
 10
1943.467245632977
 20
475.7573804742495
 30
0.0
  0
ENDBLK
  5
20A
  8
0
 62
   116
1001
ACAD
1000
RTTcAl
1070
-32652
1071
-1038915788
1000
$$NoName$$
  0
BLOCK
  8
0
  2
*D30
 70
     1
 10
0.0
 20
0.0
 30
0.0
  3
*D30
  1

1001
ACAD
1000
RTTcAl
1070
-32652
1071
-1038915788
1000
$$NoName$$
  0
LINE
  5
1E8
  8
回02-寸法
  6
CONTINUOUS
 62
     5
 10
1933.467245632976
 20
497.6907420703822
 30
0.0
 11
1933.467245632976
 21
503.6647077566824
 31
0.0
  0
LINE
  5
1E9
  8
回02-寸法
  6
CONTINUOUS
 62
     5
 10
1938.467245632977
 20
498.6907420703827
 30
0.0
 11
1938.467245632977
 21
503.6647077566824
 31
0.0
  0
LINE
  5
1EA
  8
回02-寸法
  6
CONTINUOUS
 62
     5
 10
1931.467245632976
 20
502.6647077566824
 30
0.0
 11
1929.467245632977
 21
502.6647077566824
 31
0.0
  0
LINE
  5
1EB
  8
回02-寸法
  6
CONTINUOUS
 62
     5
 10
1940.467245632977
 20
502.6647077566824
 30
0.0
 11
1946.1157737704
 21
502.6647077566824
 31
0.0
  0
LINE
  5
1EC
  8
回02-寸法
  6
CONTINUOUS
 62
     5
 10
1933.467245632976
 20
502.6647077566824
 30
0.0
 11
1938.467245632977
 21
502.6647077566824
 31
0.0
  0
INSERT
  5
1ED
  8
回02-寸法
  6
CONTINUOUS
 62
     5
 66
     1
  2
_OPEN
 10
1933.467245632976
 20
502.6647077566824
 30
0.0
 41
2.0
 42
2.0
 43
2.0
  0
SEQEND
  5
1EE
  8
回01-TP外形
  6
CONTINUOUS
 62
     7
  0
INSERT
  5
1EF
  8
回02-寸法
  6
CONTINUOUS
 62
     5
 66
     1
  2
_OPEN
 10
1938.467245632977
 20
502.6647077566824
 30
0.0
 41
2.0
 42
2.0
 43
2.0
 50
180.0
  0
SEQEND
  5
1F0
  8
回01-TP外形
  6
CONTINUOUS
 62
     7
  0
TEXT
  5
1F1
  8
回02-寸法
  6
CONTINUOUS
 62
     5
 10
1942.191509701688
 20
503.1647077566824
 30
0.0
 40
6.0
  1
5
1001
ACAD
1000
MTEXTBEGIN
1070
    73
1070
     1
1070
    44
1040
1.0
1070
    74
1070
     0
1000
MTEXTEND
  0
POINT
  5
1F2
  8
DEFPOINTS
  6
CONTINUOUS
 62
     0
 10
1933.467245632976
 20
497.6907420703822
 30
0.0
  0
POINT
  5
1F3
  8
DEFPOINTS
  6
CONTINUOUS
 62
     0
 10
1938.467245632977
 20
498.6907420703827
 30
0.0
  0
POINT
  5
1F4
  8
DEFPOINTS
  6
CONTINUOUS
 62
     0
 10
1938.467245632977
 20
502.6647077566824
 30
0.0
  0
ENDBLK
  5
1F5
  8
0
 62
   116
1001
ACAD
1000
RTTcAl
1070
-32652
1071
-1038915788
1000
$$NoName$$
  0
BLOCK
  8
0
  2
*D31
 70
     1
 10
0.0
 20
0.0
 30
0.0
  3
*D31
  1

1001
ACAD
1000
RTTcAl
1070
-32652
1071
-1038915788
1000
$$NoName$$
  0
LINE
  5
1AF
  8
回02-寸法
  6
CONTINUOUS
 62
     5
 10
2340.967245632977
 20
500.5235218264598
 30
0.0
 11
2355.34363322047
 21
500.5235218264598
 31
0.0
  0
LINE
  5
1B0
  8
回02-寸法
  6
CONTINUOUS
 62
     5
 10
2341.467245632978
 20
491.4506283026258
 30
0.0
 11
2355.34363322047
 21
491.4506283026258
 31
0.0
  0
LINE
  5
1B1
  8
回02-寸法
  6
CONTINUOUS
 62
     5
 10
2354.34363322047
 20
502.5235218264598
 30
0.0
 11
2354.34363322047
 21
504.5235218264598
 31
0.0
  0
LINE
  5
1B2
  8
回02-寸法
  6
CONTINUOUS
 62
     5
 10
2354.34363322047
 20
489.4506283026259
 30
0.0
 11
2354.34363322047
 21
467.8030003498699
 31
0.0
  0
LINE
  5
1B3
  8
回02-寸法
  6
CONTINUOUS
 62
     5
 10
2354.34363322047
 20
500.5235218264598
 30
0.0
 11
2354.34363322047
 21
491.4506283026258
 31
0.0
  0
INSERT
  5
1B4
  8
回02-寸法
  6
CONTINUOUS
 62
     5
 66
     1
  2
_OPEN
 10
2354.34363322047
 20
500.5235218264598
 30
0.0
 41
2.0
 42
2.0
 43
2.0
 50
270.0
  0
SEQEND
  5
1B5
  8
回01-TP外形
  6
CONTINUOUS
 62
     7
  0
INSERT
  5
1B6
  8
回02-寸法
  6
CONTINUOUS
 62
     5
 66
     1
  2
_OPEN
 10
2354.34363322047
 20
491.4506283026258
 30
0.0
 41
2.0
 42
2.0
 43
2.0
 50
90.0
  0
SEQEND
  5
1B7
  8
回01-TP外形
  6
CONTINUOUS
 62
     7
  0
INSERT
  5
1B8
  8
回02-寸法
  6
CONTINUOUS
 62
     5
 66
     1
  2
*X90
 10
0.0
 20
0.0
 30
0.0
  0
SEQEND
  5
6EE
  8
回01-TP外形
  6
CONTINUOUS
 62
     7
  0
POINT
  5
1B9
  8
DEFPOINTS
  6
CONTINUOUS
 62
     0
 10
2340.967245632977
 20
500.5235218264598
 30
0.0
  0
POINT
  5
1BA
  8
DEFPOINTS
  6
CONTINUOUS
 62
     0
 10
2341.467245632978
 20
491.4506283026258
 30
0.0
  0
POINT
  5
1BB
  8
DEFPOINTS
  6
CONTINUOUS
 62
     0
 10
2354.34363322047
 20
491.4506283026258
 30
0.0
  0
ENDBLK
  5
1BC
  8
0
 62
   116
1001
ACAD
1000
RTTcAl
1070
-32652
1071
-1038915788
1000
$$NoName$$
  0
BLOCK
  8
0
  2
*D32
 70
     1
 10
0.0
 20
0.0
 30
0.0
  3
*D32
  1

1001
ACAD
1000
RTTcAl
1070
-32652
1071
-1038915788
1000
$$NoName$$
  0
LINE
  5
192
  8
回02-寸法
  6
CONTINUOUS
 62
     5
 10
2341.467245632977
 20
497.6907420703818
 30
0.0
 11
2341.467245632977
 21
509.0155129331476
 31
0.0
  0
LINE
  5
193
  8
回02-寸法
  6
CONTINUOUS
 62
     5
 10
2340.967245632977
 20
500.5235218264596
 30
0.0
 11
2340.967245632977
 21
509.0155129331476
 31
0.0
  0
LINE
  5
194
  8
回02-寸法
  6
CONTINUOUS
 62
     5
 10
2343.467245632977
 20
508.0155129331476
 30
0.0
 11
2345.467245632977
 21
508.0155129331476
 31
0.0
  0
LINE
  5
195
  8
回02-寸法
  6
CONTINUOUS
 62
     5
 10
2338.967245632977
 20
508.0155129331476
 30
0.0
 11
2322.771970042426
 21
508.0155129331476
 31
0.0
  0
LINE
  5
196
  8
回02-寸法
  6
CONTINUOUS
 62
     5
 10
2341.467245632977
 20
508.0155129331476
 30
0.0
 11
2340.967245632977
 21
508.0155129331476
 31
0.0
  0
INSERT
  5
197
  8
回02-寸法
  6
CONTINUOUS
 62
     5
 66
     1
  2
_OPEN
 10
2341.467245632977
 20
508.0155129331476
 30
0.0
 41
2.0
 42
2.0
 43
2.0
 50
180.0
  0
SEQEND
  5
198
  8
回01-TP外形
  6
CONTINUOUS
 62
     7
  0
INSERT
  5
199
  8
回02-寸法
  6
CONTINUOUS
 62
     5
 66
     1
  2
_OPEN
 10
2340.967245632977
 20
508.0155129331476
 30
0.0
 41
2.0
 42
2.0
 43
2.0
  0
SEQEND
  5
19A
  8
回01-TP外形
  6
CONTINUOUS
 62
     7
  0
TEXT
  5
19B
  8
回02-寸法
  6
CONTINUOUS
 62
     5
 10
2322.369607837701
 20
508.8155129331476
 30
0.0
 40
6.0
  1
(0.5)
1001
ACAD
1000
MTEXTBEGIN
1070
    73
1070
     1
1070
    44
1040
1.0
1070
    74
1070
     0
1000
MTEXTEND
  0
POINT
  5
19C
  8
DEFPOINTS
  6
CONTINUOUS
 62
     0
 10
2341.467245632977
 20
497.6907420703818
 30
0.0
  0
POINT
  5
19D
  8
DEFPOINTS
  6
CONTINUOUS
 62
     0
 10
2340.967245632977
 20
500.5235218264596
 30
0.0
  0
POINT
  5
19E
  8
DEFPOINTS
  6
CONTINUOUS
 62
     0
 10
2340.967245632977
 20
508.0155129331476
 30
0.0
  0
ENDBLK
  5
19F
  8
0
 62
   116
1001
ACAD
1000
RTTcAl
1070
-32652
1071
-1038915788
1000
$$NoName$$
  0
BLOCK
  8
0
  2
*D33
 70
     1
 10
0.0
 20
0.0
 30
0.0
  3
*D33
  1

1001
ACAD
1000
RTTcAl
1070
-32652
1071
-1038915788
1000
$$NoName$$
  0
LINE
  5
181
  8
回02-寸法
  6
CONTINUOUS
 62
     5
 10
2013.467245632977
 20
495.4506283026256
 30
0.0
 11
2013.467245632977
 21
510.1108547987966
 31
0.0
  0
LINE
  5
182
  8
回02-寸法
  6
CONTINUOUS
 62
     5
 10
2013.967245632976
 20
500.5235218264596
 30
0.0
 11
2013.967245632976
 21
510.1108547987966
 31
0.0
  0
LINE
  5
183
  8
回02-寸法
  6
CONTINUOUS
 62
     5
 10
2011.467245632977
 20
509.1108547987967
 30
0.0
 11
2009.467245632977
 21
509.1108547987967
 31
0.0
  0
LINE
  5
184
  8
回02-寸法
  6
CONTINUOUS
 62
     5
 10
2015.967245632976
 20
509.1108547987967
 30
0.0
 11
2032.162521223527
 21
509.1108547987967
 31
0.0
  0
LINE
  5
185
  8
回02-寸法
  6
CONTINUOUS
 62
     5
 10
2013.467245632977
 20
509.1108547987967
 30
0.0
 11
2013.967245632976
 21
509.1108547987967
 31
0.0
  0
INSERT
  5
186
  8
回02-寸法
  6
CONTINUOUS
 62
     5
 66
     1
  2
_OPEN
 10
2013.467245632977
 20
509.1108547987967
 30
0.0
 41
2.0
 42
2.0
 43
2.0
  0
SEQEND
  5
187
  8
回01-TP外形
  6
CONTINUOUS
 62
     7
  0
INSERT
  5
188
  8
回02-寸法
  6
CONTINUOUS
 62
     5
 66
     1
  2
_OPEN
 10
2013.967245632976
 20
509.1108547987967
 30
0.0
 41
2.0
 42
2.0
 43
2.0
 50
180.0
  0
SEQEND
  5
189
  8
回01-TP外形
  6
CONTINUOUS
 62
     7
  0
TEXT
  5
18A
  8
回02-寸法
  6
CONTINUOUS
 62
     5
 10
2017.564883428252
 20
509.9108547987966
 30
0.0
 40
6.0
  1
(0.5)
1001
ACAD
1000
MTEXTBEGIN
1070
    73
1070
     1
1070
    44
1040
1.0
1070
    74
1070
     0
1000
MTEXTEND
  0
POINT
  5
18B
  8
DEFPOINTS
  6
CONTINUOUS
 62
     0
 10
2013.467245632977
 20
495.4506283026256
 30
0.0
  0
POINT
  5
18C
  8
DEFPOINTS
  6
CONTINUOUS
 62
     0
 10
2013.967245632976
 20
500.5235218264596
 30
0.0
  0
POINT
  5
18D
  8
DEFPOINTS
  6
CONTINUOUS
 62
     0
 10
2013.967245632976
 20
509.1108547987967
 30
0.0
  0
ENDBLK
  5
18E
  8
0
 62
   116
1001
ACAD
1000
RTTcAl
1070
-32652
1071
-1038915788
1000
$$NoName$$
  0
BLOCK
  8
0
  2
*D34
 70
     1
 10
0.0
 20
0.0
 30
0.0
  3
*D34
  1

  0
LINE
  5
129
  8
回02-寸法
  6
CONTINUOUS
 62
     5
 10
2013.467245632977
 20
706.2166637372206
 30
0.0
 11
2013.467245632977
 21
739.194567525283
 31
0.0
  0
LINE
  5
12A
  8
回02-寸法
  6
CONTINUOUS
 62
     5
 10
1933.467202122209
 20
700.1645391930297
 30
0.0
 11
1933.467202122209
 21
739.194567525283
 31
0.0
  0
LINE
  5
12B
  8
回02-寸法
  6
CONTINUOUS
 62
     5
 10
2011.467245632977
 20
738.1945675252829
 30
0.0
 11
1935.467202122209
 21
738.1945675252829
 31
0.0
  0
INSERT
  5
12C
  8
回02-寸法
  6
CONTINUOUS
 62
     5
 66
     1
  2
_OPEN
 10
2013.467245632977
 20
738.1945675252829
 30
0.0
 41
2.0
 42
2.0
 43
2.0
  0
SEQEND
  5
12D
  8
回01-TP外形
  6
CONTINUOUS
 62
     7
  0
INSERT
  5
12E
  8
回02-寸法
  6
CONTINUOUS
 62
     5
 66
     1
  2
_OPEN
 10
1933.467202122209
 20
738.1945675252829
 30
0.0
 41
2.0
 42
2.0
 43
2.0
 50
180.0
  0
SEQEND
  5
12F
  8
回01-TP外形
  6
CONTINUOUS
 62
     7
  0
INSERT
  5
130
  8
回02-寸法
  6
CONTINUOUS
 62
     5
 66
     1
  2
*X91
 10
0.0
 20
0.0
 30
0.0
  0
SEQEND
  5
6F4
  8
回01-TP外形
  6
CONTINUOUS
 62
     7
  0
POINT
  5
131
  8
DEFPOINTS
  6
CONTINUOUS
 62
     0
 10
2013.467245632977
 20
706.2166637372206
 30
0.0
  0
POINT
  5
132
  8
DEFPOINTS
  6
CONTINUOUS
 62
     0
 10
1933.467202122209
 20
700.1645391930297
 30
0.0
  0
POINT
  5
133
  8
DEFPOINTS
  6
CONTINUOUS
 62
     0
 10
1933.467202122209
 20
738.1945675252829
 30
0.0
  0
ENDBLK
  5
134
  8
0
 62
     7
  0
BLOCK
  8
0
  2
*D35
 70
     1
 10
0.0
 20
0.0
 30
0.0
  3
*D35
  1

  0
LINE
  5
BB
  8
回02-寸法
  6
CONTINUOUS
 62
     5
 10
1881.923242063515
 20
786.7982739062197
 30
0.0
 11
1842.089897924618
 21
786.7982739062197
 31
0.0
  0
LINE
  5
BC
  8
回02-寸法
  6
CONTINUOUS
 62
     5
 10
1881.923242063515
 20
770.298273906221
 30
0.0
 11
1842.089897924618
 21
770.298273906221
 31
0.0
  0
LINE
  5
BD
  8
回02-寸法
  6
CONTINUOUS
 62
     5
 10
1843.089897924618
 20
788.2982739062197
 30
0.0
 11
1843.089897924618
 21
789.7982739062197
 31
0.0
  0
LINE
  5
BE
  8
回02-寸法
  6
CONTINUOUS
 62
     5
 10
1843.089897924618
 20
768.7982739062211
 30
0.0
 11
1843.089897924618
 21
743.1985205558272
 31
0.0
  0
LINE
  5
BF
  8
回02-寸法
  6
CONTINUOUS
 62
     5
 10
1843.089897924618
 20
786.7982739062197
 30
0.0
 11
1843.089897924618
 21
770.298273906221
 31
0.0
  0
INSERT
  5
C0
  8
回02-寸法
  6
CONTINUOUS
 62
     5
 66
     1
  2
_OPEN
 10
1843.089897924618
 20
786.7982739062197
 30
0.0
 41
1.5
 42
1.5
 43
1.5
 50
270.0
  0
SEQEND
  5
C1
  8
回01-TP外形
  6
CONTINUOUS
 62
     7
  0
INSERT
  5
C2
  8
回02-寸法
  6
CONTINUOUS
 62
     5
 66
     1
  2
_OPEN
 10
1843.089897924618
 20
770.298273906221
 30
0.0
 41
1.5
 42
1.5
 43
1.5
 50
90.0
  0
SEQEND
  5
C3
  8
回01-TP外形
  6
CONTINUOUS
 62
     7
  0
INSERT
  5
C4
  8
回02-寸法
  6
CONTINUOUS
 62
     5
 66
     1
  2
*X92
 10
0.0
 20
0.0
 30
0.0
  0
SEQEND
  5
6FA
  8
回01-TP外形
  6
CONTINUOUS
 62
     7
  0
POINT
  5
C5
  8
DEFPOINTS
  6
CONTINUOUS
 62
     0
 10
1881.923242063515
 20
786.7982739062197
 30
0.0
  0
POINT
  5
C6
  8
DEFPOINTS
  6
CONTINUOUS
 62
     0
 10
1881.923242063515
 20
770.298273906221
 30
0.0
  0
POINT
  5
C7
  8
DEFPOINTS
  6
CONTINUOUS
 62
     0
 10
1843.089897924618
 20
770.298273906221
 30
0.0
  0
ENDBLK
  5
C8
  8
0
 62
     5
  0
BLOCK
  8
0
  2
*D36
 70
     1
 10
0.0
 20
0.0
 30
0.0
  3
*D36
  1

  0
LINE
  5
A1
  8
回02-寸法
  6
CONTINUOUS
 62
     5
 10
1876.775863664965
 20
776.8982739062137
 30
0.0
 11
1859.850085142832
 21
776.8982739062137
 31
0.0
  0
LINE
  5
A2
  8
回02-寸法
  6
CONTINUOUS
 62
     5
 10
1876.775863664965
 20
773.598273906214
 30
0.0
 11
1859.850085142832
 21
773.598273906214
 31
0.0
  0
LINE
  5
A3
  8
回02-寸法
  6
CONTINUOUS
 62
     5
 10
1860.850085142832
 20
778.3982739062137
 30
0.0
 11
1860.850085142832
 21
779.8982739062137
 31
0.0
  0
LINE
  5
A4
  8
回02-寸法
  6
CONTINUOUS
 62
     5
 10
1860.850085142832
 20
772.0982739062139
 30
0.0
 11
1860.850085142832
 21
745.7480248318041
 31
0.0
  0
LINE
  5
A5
  8
回02-寸法
  6
CONTINUOUS
 62
     5
 10
1860.850085142832
 20
776.8982739062137
 30
0.0
 11
1860.850085142832
 21
773.598273906214
 31
0.0
  0
INSERT
  5
A6
  8
回02-寸法
  6
CONTINUOUS
 62
     5
 66
     1
  2
_OPEN
 10
1860.850085142832
 20
776.8982739062137
 30
0.0
 41
1.5
 42
1.5
 43
1.5
 50
270.0
  0
SEQEND
  5
A7
  8
回01-TP外形
  6
CONTINUOUS
 62
     7
  0
INSERT
  5
A8
  8
回02-寸法
  6
CONTINUOUS
 62
     5
 66
     1
  2
_OPEN
 10
1860.850085142832
 20
773.598273906214
 30
0.0
 41
1.5
 42
1.5
 43
1.5
 50
90.0
  0
SEQEND
  5
A9
  8
回01-TP外形
  6
CONTINUOUS
 62
     7
  0
INSERT
  5
AA
  8
回02-寸法
  6
CONTINUOUS
 62
     5
 66
     1
  2
*X93
 10
0.0
 20
0.0
 30
0.0
  0
SEQEND
  5
700
  8
回01-TP外形
  6
CONTINUOUS
 62
     7
  0
POINT
  5
AB
  8
DEFPOINTS
  6
CONTINUOUS
 62
     0
 10
1876.775863664965
 20
776.8982739062137
 30
0.0
  0
POINT
  5
AC
  8
DEFPOINTS
  6
CONTINUOUS
 62
     0
 10
1876.775863664965
 20
773.598273906214
 30
0.0
  0
POINT
  5
AD
  8
DEFPOINTS
  6
CONTINUOUS
 62
     0
 10
1860.850085142832
 20
773.598273906214
 30
0.0
  0
ENDBLK
  5
AE
  8
0
 62
     5
  0
BLOCK
  8
0
  2
*D37
 70
     1
 10
0.0
 20
0.0
 30
0.0
  3
*D37
  1

  0
LINE
  5
90
  8
回02-寸法
  6
CONTINUOUS
 62
     5
 10
1876.775863664965
 20
773.598273906214
 30
0.0
 11
1851.382630948258
 21
773.598273906214
 31
0.0
  0
LINE
  5
91
  8
回02-寸法
  6
CONTINUOUS
 62
     5
 10
1876.775748796539
 20
783.4982739062136
 30
0.0
 11
1851.382630948258
 21
783.4982739062136
 31
0.0
  0
LINE
  5
92
  8
回02-寸法
  6
CONTINUOUS
 62
     5
 10
1852.382630948258
 20
784.9982739062136
 30
0.0
 11
1852.382630948258
 21
786.4982739062136
 31
0.0
  0
LINE
  5
93
  8
回02-寸法
  6
CONTINUOUS
 62
     5
 10
1852.382630948258
 20
772.0982739062139
 30
0.0
 11
1852.382630948258
 21
746.7602353662138
 31
0.0
  0
LINE
  5
94
  8
回02-寸法
  6
CONTINUOUS
 62
     5
 10
1852.382630948258
 20
783.4982739062136
 30
0.0
 11
1852.382630948258
 21
773.598273906214
 31
0.0
  0
INSERT
  5
95
  8
回02-寸法
  6
CONTINUOUS
 62
     5
 66
     1
  2
_OPEN
 10
1852.382630948258
 20
783.4982739062136
 30
0.0
 41
1.5
 42
1.5
 43
1.5
 50
270.0
  0
SEQEND
  5
96
  8
回01-TP外形
  6
CONTINUOUS
 62
     7
  0
INSERT
  5
97
  8
回02-寸法
  6
CONTINUOUS
 62
     5
 66
     1
  2
_OPEN
 10
1852.382630948258
 20
773.598273906214
 30
0.0
 41
1.5
 42
1.5
 43
1.5
 50
90.0
  0
SEQEND
  5
98
  8
回01-TP外形
  6
CONTINUOUS
 62
     7
  0
INSERT
  5
99
  8
回02-寸法
  6
CONTINUOUS
 62
     5
 66
     1
  2
*X94
 10
0.0
 20
0.0
 30
0.0
  0
SEQEND
  5
706
  8
回01-TP外形
  6
CONTINUOUS
 62
     7
  0
POINT
  5
9A
  8
DEFPOINTS
  6
CONTINUOUS
 62
     0
 10
1876.775863664965
 20
773.598273906214
 30
0.0
  0
POINT
  5
9B
  8
DEFPOINTS
  6
CONTINUOUS
 62
     0
 10
1876.775748796539
 20
783.4982739062136
 30
0.0
  0
POINT
  5
9C
  8
DEFPOINTS
  6
CONTINUOUS
 62
     0
 10
1852.382630948258
 20
783.4982739062136
 30
0.0
  0
ENDBLK
  5
9D
  8
0
 62
     5
  0
BLOCK
  8
0
  2
*D38
 70
     1
 10
0.0
 20
0.0
 30
0.0
  3
*D38
  1

  0
LINE
  5
78
  8
回02-寸法
  6
CONTINUOUS
 62
     5
 10
1880.603242063515
 20
772.674273906214
 30
0.0
 11
1869.220046546091
 21
772.674273906214
 31
0.0
  0
LINE
  5
79
  8
回02-寸法
  6
CONTINUOUS
 62
     5
 10
1880.603242063515
 20
774.5222739062139
 30
0.0
 11
1869.220046546091
 21
774.5222739062139
 31
0.0
  0
LINE
  5
7A
  8
回02-寸法
  6
CONTINUOUS
 62
     5
 10
1870.220046546091
 20
776.022273906214
 30
0.0
 11
1870.220046546091
 21
777.5222739062139
 31
0.0
  0
LINE
  5
7B
  8
回02-寸法
  6
CONTINUOUS
 62
     5
 10
1870.220046546091
 20
771.174273906214
 30
0.0
 11
1870.220046546091
 21
741.1492739062135
 31
0.0
  0
LINE
  5
7C
  8
回02-寸法
  6
CONTINUOUS
 62
     5
 10
1870.220046546091
 20
774.5222739062139
 30
0.0
 11
1870.220046546091
 21
772.674273906214
 31
0.0
  0
INSERT
  5
7D
  8
回02-寸法
  6
CONTINUOUS
 62
     5
 66
     1
  2
_OPEN
 10
1870.220046546091
 20
774.5222739062139
 30
0.0
 41
1.5
 42
1.5
 43
1.5
 50
270.0
  0
SEQEND
  5
7E
  8
回01-TP外形
  6
CONTINUOUS
 62
     7
  0
INSERT
  5
7F
  8
回02-寸法
  6
CONTINUOUS
 62
     5
 66
     1
  2
_OPEN
 10
1870.220046546091
 20
772.674273906214
 30
0.0
 41
1.5
 42
1.5
 43
1.5
 50
90.0
  0
SEQEND
  5
80
  8
回01-TP外形
  6
CONTINUOUS
 62
     7
  0
INSERT
  5
81
  8
回02-寸法
  6
CONTINUOUS
 62
     5
 66
     1
  2
*X95
 10
0.0
 20
0.0
 30
0.0
  0
SEQEND
  5
70C
  8
回01-TP外形
  6
CONTINUOUS
 62
     7
  0
POINT
  5
82
  8
DEFPOINTS
  6
CONTINUOUS
 62
     0
 10
1880.603242063515
 20
772.674273906214
 30
0.0
  0
POINT
  5
84
  8
DEFPOINTS
  6
CONTINUOUS
 62
     0
 10
1880.603242063515
 20
774.5222739062139
 30
0.0
  0
POINT
  5
85
  8
DEFPOINTS
  6
CONTINUOUS
 62
     0
 10
1870.220046546091
 20
774.5222739062139
 30
0.0
  0
ENDBLK
  5
86
  8
0
 62
     5
  0
BLOCK
  8
回01-TP外形
  2
*D39
 70
     1
 10
0.0
 20
0.0
 30
0.0
  3
*D39
  1

  0
LINE
  5
467
  8
回02-寸法
  6
CONTINUOUS
 62
     5
 10
1738.603242063514
 20
639.6742739062135
 30
0.0
 11
1727.220046546091
 21
639.6742739062135
 31
0.0
  0
LINE
  5
468
  8
回02-寸法
  6
CONTINUOUS
 62
     5
 10
1738.603242063514
 20
641.5222739062135
 30
0.0
 11
1727.220046546091
 21
641.5222739062135
 31
0.0
  0
LINE
  5
469
  8
回02-寸法
  6
CONTINUOUS
 62
     5
 10
1728.220046546091
 20
638.1742739062135
 30
0.0
 11
1728.220046546091
 21
608.1492739062127
 31
0.0
  0
LINE
  5
46A
  8
回02-寸法
  6
CONTINUOUS
 62
     5
 10
1728.220046546091
 20
639.6742739062135
 30
0.0
 11
1728.220046546091
 21
641.5222739062135
 31
0.0
  0
LINE
  5
46B
  8
回02-寸法
  6
CONTINUOUS
 62
     5
 10
1728.220046546091
 20
643.0222739062135
 30
0.0
 11
1728.220046546091
 21
644.5222739062135
 31
0.0
  0
INSERT
  5
46C
  8
回02-寸法
  6
CONTINUOUS
 62
     5
  2
_OPEN
 10
1728.220046546091
 20
639.6742739062135
 30
0.0
 41
1.5
 42
1.5
 43
1.5
 50
90.0
  0
INSERT
  5
46D
  8
回02-寸法
  6
CONTINUOUS
 62
     5
  2
_OPEN
 10
1728.220046546091
 20
641.5222739062135
 30
0.0
 41
1.5
 42
1.5
 43
1.5
 50
270.0
  0
INSERT
  5
46E
  8
回02-寸法
  6
CONTINUOUS
 62
     5
 66
     1
  2
*X96
 10
0.0
 20
0.0
 30
0.0
  0
SEQEND
  5
712
  8
回01-TP外形
  6
CONTINUOUS
 62
     7
  0
POINT
  5
46F
  8
DEFPOINTS
  6
CONTINUOUS
 62
     0
 10
1738.603242063514
 20
639.6742739062135
 30
0.0
  0
POINT
  5
470
  8
DEFPOINTS
  6
CONTINUOUS
 62
     0
 10
1738.603242063514
 20
641.5222739062135
 30
0.0
  0
POINT
  5
471
  8
DEFPOINTS
  6
CONTINUOUS
 62
     0
 10
1728.220046546091
 20
641.5222739062135
 30
0.0
  0
ENDBLK
  5
473
  8
回01-TP外形
  6
CONTINUOUS
 62
     7
  0
BLOCK
  8
回01-TP外形
  2
*D40
 70
     1
 10
0.0
 20
0.0
 30
0.0
  3
*D40
  1

  0
LINE
  5
475
  8
回02-寸法
  6
CONTINUOUS
 62
     5
 10
1734.775863664965
 20
640.5982739062135
 30
0.0
 11
1709.382630948258
 21
640.5982739062135
 31
0.0
  0
LINE
  5
477
  8
回02-寸法
  6
CONTINUOUS
 62
     5
 10
1734.775748796539
 20
650.4982739062131
 30
0.0
 11
1709.382630948258
 21
650.4982739062131
 31
0.0
  0
LINE
  5
478
  8
回02-寸法
  6
CONTINUOUS
 62
     5
 10
1710.382630948258
 20
639.0982739062135
 30
0.0
 11
1710.382630948258
 21
613.760235366213
 31
0.0
  0
LINE
  5
479
  8
回02-寸法
  6
CONTINUOUS
 62
     5
 10
1710.382630948258
 20
640.5982739062135
 30
0.0
 11
1710.382630948258
 21
650.4982739062131
 31
0.0
  0
LINE
  5
47A
  8
回02-寸法
  6
CONTINUOUS
 62
     5
 10
1710.382630948258
 20
651.9982739062132
 30
0.0
 11
1710.382630948258
 21
653.4982739062131
 31
0.0
  0
INSERT
  5
47B
  8
回02-寸法
  6
CONTINUOUS
 62
     5
  2
_OPEN
 10
1710.382630948258
 20
640.5982739062135
 30
0.0
 41
1.5
 42
1.5
 43
1.5
 50
90.0
  0
INSERT
  5
47C
  8
回02-寸法
  6
CONTINUOUS
 62
     5
  2
_OPEN
 10
1710.382630948258
 20
650.4982739062131
 30
0.0
 41
1.5
 42
1.5
 43
1.5
 50
270.0
  0
INSERT
  5
47D
  8
回02-寸法
  6
CONTINUOUS
 62
     5
 66
     1
  2
*X97
 10
0.0
 20
0.0
 30
0.0
  0
SEQEND
  5
718
  8
回01-TP外形
  6
CONTINUOUS
 62
     7
  0
POINT
  5
47E
  8
DEFPOINTS
  6
CONTINUOUS
 62
     0
 10
1734.775863664965
 20
640.5982739062135
 30
0.0
  0
POINT
  5
47F
  8
DEFPOINTS
  6
CONTINUOUS
 62
     0
 10
1734.775748796539
 20
650.4982739062131
 30
0.0
  0
POINT
  5
480
  8
DEFPOINTS
  6
CONTINUOUS
 62
     0
 10
1710.382630948258
 20
650.4982739062131
 30
0.0
  0
ENDBLK
  5
482
  8
回01-TP外形
  6
CONTINUOUS
 62
     7
  0
BLOCK
  8
回01-TP外形
  2
*D41
 70
     1
 10
0.0
 20
0.0
 30
0.0
  3
*D41
  1

  0
LINE
  5
484
  8
回02-寸法
  6
CONTINUOUS
 62
     5
 10
1734.775863664965
 20
643.8982739062132
 30
0.0
 11
1717.850085142832
 21
643.8982739062132
 31
0.0
  0
LINE
  5
485
  8
回02-寸法
  6
CONTINUOUS
 62
     5
 10
1734.775863664965
 20
640.5982739062135
 30
0.0
 11
1717.850085142832
 21
640.5982739062135
 31
0.0
  0
LINE
  5
486
  8
回02-寸法
  6
CONTINUOUS
 62
     5
 10
1718.850085142832
 20
639.0982739062135
 30
0.0
 11
1718.850085142832
 21
612.8976190623188
 31
0.0
  0
LINE
  5
487
  8
回02-寸法
  6
CONTINUOUS
 62
     5
 10
1718.850085142832
 20
643.8982739062132
 30
0.0
 11
1718.850085142832
 21
640.5982739062135
 31
0.0
  0
LINE
  5
488
  8
回02-寸法
  6
CONTINUOUS
 62
     5
 10
1718.850085142832
 20
645.3982739062133
 30
0.0
 11
1718.850085142832
 21
646.8982739062132
 31
0.0
  0
INSERT
  5
489
  8
回02-寸法
  6
CONTINUOUS
 62
     5
  2
_OPEN
 10
1718.850085142832
 20
643.8982739062132
 30
0.0
 41
1.5
 42
1.5
 43
1.5
 50
270.0
  0
INSERT
  5
48A
  8
回02-寸法
  6
CONTINUOUS
 62
     5
  2
_OPEN
 10
1718.850085142832
 20
640.5982739062135
 30
0.0
 41
1.5
 42
1.5
 43
1.5
 50
90.0
  0
INSERT
  5
48B
  8
回02-寸法
  6
CONTINUOUS
 62
     5
 66
     1
  2
*X98
 10
0.0
 20
0.0
 30
0.0
  0
SEQEND
  5
71E
  8
回01-TP外形
  6
CONTINUOUS
 62
     7
  0
POINT
  5
48C
  8
DEFPOINTS
  6
CONTINUOUS
 62
     0
 10
1734.775863664965
 20
643.8982739062132
 30
0.0
  0
POINT
  5
48D
  8
DEFPOINTS
  6
CONTINUOUS
 62
     0
 10
1734.775863664965
 20
640.5982739062135
 30
0.0
  0
POINT
  5
48E
  8
DEFPOINTS
  6
CONTINUOUS
 62
     0
 10
1718.850085142832
 20
640.5982739062135
 30
0.0
  0
ENDBLK
  5
490
  8
回01-TP外形
  6
CONTINUOUS
 62
     7
  0
BLOCK
  8
回01-TP外形
  2
*D42
 70
     1
 10
0.0
 20
0.0
 30
0.0
  3
*D42
  1

  0
LINE
  5
492
  8
回02-寸法
  6
CONTINUOUS
 62
     5
 10
1739.923242063514
 20
653.7982739062193
 30
0.0
 11
1700.089897924618
 21
653.7982739062193
 31
0.0
  0
LINE
  5
493
  8
回02-寸法
  6
CONTINUOUS
 62
     5
 10
1739.923242063514
 20
637.2982739062206
 30
0.0
 11
1700.089897924618
 21
637.2982739062206
 31
0.0
  0
LINE
  5
494
  8
回02-寸法
  6
CONTINUOUS
 62
     5
 10
1701.089897924618
 20
635.7982739062206
 30
0.0
 11
1701.089897924618
 21
610.7969393677551
 31
0.0
  0
LINE
  5
495
  8
回02-寸法
  6
CONTINUOUS
 62
     5
 10
1701.089897924618
 20
653.7982739062193
 30
0.0
 11
1701.089897924618
 21
637.2982739062206
 31
0.0
  0
LINE
  5
496
  8
回02-寸法
  6
CONTINUOUS
 62
     5
 10
1701.089897924618
 20
655.2982739062192
 30
0.0
 11
1701.089897924618
 21
656.7982739062192
 31
0.0
  0
INSERT
  5
497
  8
回02-寸法
  6
CONTINUOUS
 62
     5
  2
_OPEN
 10
1701.089897924618
 20
653.7982739062193
 30
0.0
 41
1.5
 42
1.5
 43
1.5
 50
270.0
  0
INSERT
  5
498
  8
回02-寸法
  6
CONTINUOUS
 62
     5
  2
_OPEN
 10
1701.089897924618
 20
637.2982739062206
 30
0.0
 41
1.5
 42
1.5
 43
1.5
 50
90.0
  0
INSERT
  5
499
  8
回02-寸法
  6
CONTINUOUS
 62
     5
 66
     1
  2
*X99
 10
0.0
 20
0.0
 30
0.0
  0
SEQEND
  5
724
  8
回01-TP外形
  6
CONTINUOUS
 62
     7
  0
POINT
  5
49A
  8
DEFPOINTS
  6
CONTINUOUS
 62
     0
 10
1739.923242063514
 20
653.7982739062193
 30
0.0
  0
POINT
  5
49B
  8
DEFPOINTS
  6
CONTINUOUS
 62
     0
 10
1739.923242063514
 20
637.2982739062206
 30
0.0
  0
POINT
  5
49C
  8
DEFPOINTS
  6
CONTINUOUS
 62
     0
 10
1701.089897924618
 20
637.2982739062206
 30
0.0
  0
ENDBLK
  5
49E
  8
回01-TP外形
  6
CONTINUOUS
 62
     7
  0
BLOCK
  8
回01-TP外形
  2
*D43
 70
     1
 10
0.0
 20
0.0
 30
0.0
  3
*D43
  1

  0
LINE
  5
4A0
  8
回02-寸法
  6
CONTINUOUS
 62
     5
 10
1871.467245632977
 20
573.2166637372206
 30
0.0
 11
1871.467245632977
 21
606.194567525283
 31
0.0
  0
LINE
  5
4A1
  8
回02-寸法
  6
CONTINUOUS
 62
     5
 10
1791.467202122209
 20
567.1645391930296
 30
0.0
 11
1791.467202122209
 21
606.194567525283
 31
0.0
  0
LINE
  5
4A2
  8
回02-寸法
  6
CONTINUOUS
 62
     5
 10
1869.467245632977
 20
605.194567525283
 30
0.0
 11
1793.467202122209
 21
605.194567525283
 31
0.0
  0
INSERT
  5
4A3
  8
回02-寸法
  6
CONTINUOUS
 62
     5
  2
_OPEN
 10
1871.467245632977
 20
605.194567525283
 30
0.0
 41
2.0
 42
2.0
 43
2.0
  0
INSERT
  5
4A4
  8
回02-寸法
  6
CONTINUOUS
 62
     5
  2
_OPEN
 10
1791.467202122209
 20
605.194567525283
 30
0.0
 41
2.0
 42
2.0
 43
2.0
 50
180.0
  0
INSERT
  5
4A5
  8
回02-寸法
  6
CONTINUOUS
 62
     5
 66
     1
  2
*X100
 10
0.0
 20
0.0
 30
0.0
  0
SEQEND
  5
72A
  8
回01-TP外形
  6
CONTINUOUS
 62
     7
  0
POINT
  5
4A6
  8
DEFPOINTS
  6
CONTINUOUS
 62
     0
 10
1871.467245632977
 20
573.2166637372206
 30
0.0
  0
POINT
  5
4A7
  8
DEFPOINTS
  6
CONTINUOUS
 62
     0
 10
1791.467202122209
 20
567.1645391930296
 30
0.0
  0
POINT
  5
4A8
  8
DEFPOINTS
  6
CONTINUOUS
 62
     0
 10
1791.467202122209
 20
605.194567525283
 30
0.0
  0
ENDBLK
  5
4AA
  8
回01-TP外形
  6
CONTINUOUS
 62
     7
  0
BLOCK
  8
回01-TP外形
  2
*D44
 70
     1
 10
0.0
 20
0.0
 30
0.0
  3
*D44
  1

  0
LINE
  5
4AC
  8
回02-寸法
  6
CONTINUOUS
 62
     5
 10
1871.467245632977
 20
362.4506283026257
 30
0.0
 11
1871.467245632977
 21
377.1108547987967
 31
0.0
  0
LINE
  5
4AD
  8
回02-寸法
  6
CONTINUOUS
 62
     5
 10
1871.967245632976
 20
367.5235218264596
 30
0.0
 11
1871.967245632976
 21
377.1108547987967
 31
0.0
  0
LINE
  5
4AE
  8
回02-寸法
  6
CONTINUOUS
 62
     5
 10
1873.967245632976
 20
376.1108547987967
 30
0.0
 11
1890.162521223527
 21
376.1108547987967
 31
0.0
  0
LINE
  5
4AF
  8
回02-寸法
  6
CONTINUOUS
 62
     5
 10
1871.467245632977
 20
376.1108547987967
 30
0.0
 11
1871.967245632976
 21
376.1108547987967
 31
0.0
  0
LINE
  5
4B0
  8
回02-寸法
  6
CONTINUOUS
 62
     5
 10
1869.467245632977
 20
376.1108547987967
 30
0.0
 11
1867.467245632977
 21
376.1108547987967
 31
0.0
  0
INSERT
  5
4B1
  8
回02-寸法
  6
CONTINUOUS
 62
     5
  2
_OPEN
 10
1871.467245632977
 20
376.1108547987967
 30
0.0
 41
2.0
 42
2.0
 43
2.0
  0
INSERT
  5
4B2
  8
回02-寸法
  6
CONTINUOUS
 62
     5
  2
_OPEN
 10
1871.967245632976
 20
376.1108547987967
 30
0.0
 41
2.0
 42
2.0
 43
2.0
 50
180.0
  0
TEXT
  5
4B3
  8
回02-寸法
  6
CONTINUOUS
 62
     5
 10
1875.564883428252
 20
376.9108547987967
 30
0.0
 40
6.0
  1
(0.5)
  0
POINT
  5
4B4
  8
DEFPOINTS
  6
CONTINUOUS
 62
     0
 10
1871.467245632977
 20
362.4506283026257
 30
0.0
  0
POINT
  5
4B5
  8
DEFPOINTS
  6
CONTINUOUS
 62
     0
 10
1871.967245632976
 20
367.5235218264596
 30
0.0
  0
POINT
  5
4B6
  8
DEFPOINTS
  6
CONTINUOUS
 62
     0
 10
1871.967245632976
 20
376.1108547987967
 30
0.0
  0
ENDBLK
  5
4B8
  8
回01-TP外形
  6
CONTINUOUS
 62
     7
  0
BLOCK
  8
回01-TP外形
  2
*D45
 70
     1
 10
0.0
 20
0.0
 30
0.0
  3
*D45
  1

  0
LINE
  5
4BA
  8
回02-寸法
  6
CONTINUOUS
 62
     5
 10
2199.467245632977
 20
364.6907420703818
 30
0.0
 11
2199.467245632977
 21
376.0155129331476
 31
0.0
  0
LINE
  5
4BB
  8
回02-寸法
  6
CONTINUOUS
 62
     5
 10
2198.967245632977
 20
367.5235218264596
 30
0.0
 11
2198.967245632977
 21
376.0155129331476
 31
0.0
  0
LINE
  5
4BC
  8
回02-寸法
  6
CONTINUOUS
 62
     5
 10
2196.967245632977
 20
375.0155129331476
 30
0.0
 11
2180.771970042425
 21
375.0155129331476
 31
0.0
  0
LINE
  5
4BD
  8
回02-寸法
  6
CONTINUOUS
 62
     5
 10
2199.467245632977
 20
375.0155129331476
 30
0.0
 11
2198.967245632977
 21
375.0155129331476
 31
0.0
  0
LINE
  5
4BE
  8
回02-寸法
  6
CONTINUOUS
 62
     5
 10
2201.467245632977
 20
375.0155129331476
 30
0.0
 11
2203.467245632977
 21
375.0155129331476
 31
0.0
  0
INSERT
  5
4BF
  8
回02-寸法
  6
CONTINUOUS
 62
     5
  2
_OPEN
 10
2199.467245632977
 20
375.0155129331476
 30
0.0
 41
2.0
 42
2.0
 43
2.0
 50
180.0
  0
INSERT
  5
4C0
  8
回02-寸法
  6
CONTINUOUS
 62
     5
  2
_OPEN
 10
2198.967245632977
 20
375.0155129331476
 30
0.0
 41
2.0
 42
2.0
 43
2.0
  0
TEXT
  5
4C1
  8
回02-寸法
  6
CONTINUOUS
 62
     5
 10
2180.369607837701
 20
375.8155129331476
 30
0.0
 40
6.0
  1
(0.5)
  0
POINT
  5
4C2
  8
DEFPOINTS
  6
CONTINUOUS
 62
     0
 10
2199.467245632977
 20
364.6907420703818
 30
0.0
  0
POINT
  5
4C3
  8
DEFPOINTS
  6
CONTINUOUS
 62
     0
 10
2198.967245632977
 20
367.5235218264596
 30
0.0
  0
POINT
  5
4C4
  8
DEFPOINTS
  6
CONTINUOUS
 62
     0
 10
2198.967245632977
 20
375.0155129331476
 30
0.0
  0
ENDBLK
  5
4C6
  8
回01-TP外形
  6
CONTINUOUS
 62
     7
  0
BLOCK
  8
回01-TP外形
  2
*D46
 70
     1
 10
0.0
 20
0.0
 30
0.0
  3
*D46
  1

  0
LINE
  5
4C8
  8
回02-寸法
  6
CONTINUOUS
 62
     5
 10
2198.967245632977
 20
367.5235218264596
 30
0.0
 11
2213.34363322047
 21
367.5235218264596
 31
0.0
  0
LINE
  5
4C9
  8
回02-寸法
  6
CONTINUOUS
 62
     5
 10
2199.467245632977
 20
358.4506283026257
 30
0.0
 11
2213.34363322047
 21
358.4506283026257
 31
0.0
  0
LINE
  5
4CA
  8
回02-寸法
  6
CONTINUOUS
 62
     5
 10
2212.34363322047
 20
356.4506283026257
 30
0.0
 11
2212.34363322047
 21
335.2246332466046
 31
0.0
  0
LINE
  5
4CB
  8
回02-寸法
  6
CONTINUOUS
 62
     5
 10
2212.34363322047
 20
367.5235218264596
 30
0.0
 11
2212.34363322047
 21
358.4506283026257
 31
0.0
  0
LINE
  5
4CC
  8
回02-寸法
  6
CONTINUOUS
 62
     5
 10
2212.34363322047
 20
369.5235218264596
 30
0.0
 11
2212.34363322047
 21
371.5235218264596
 31
0.0
  0
INSERT
  5
4CD
  8
回02-寸法
  6
CONTINUOUS
 62
     5
  2
_OPEN
 10
2212.34363322047
 20
367.5235218264596
 30
0.0
 41
2.0
 42
2.0
 43
2.0
 50
270.0
  0
INSERT
  5
4CE
  8
回02-寸法
  6
CONTINUOUS
 62
     5
  2
_OPEN
 10
2212.34363322047
 20
358.4506283026257
 30
0.0
 41
2.0
 42
2.0
 43
2.0
 50
90.0
  0
INSERT
  5
4CF
  8
回02-寸法
  6
CONTINUOUS
 62
     5
 66
     1
  2
*X101
 10
0.0
 20
0.0
 30
0.0
  0
SEQEND
  5
730
  8
回01-TP外形
  6
CONTINUOUS
 62
     7
  0
POINT
  5
4D0
  8
DEFPOINTS
  6
CONTINUOUS
 62
     0
 10
2198.967245632977
 20
367.5235218264596
 30
0.0
  0
POINT
  5
4D1
  8
DEFPOINTS
  6
CONTINUOUS
 62
     0
 10
2199.467245632977
 20
358.4506283026257
 30
0.0
  0
POINT
  5
4D2
  8
DEFPOINTS
  6
CONTINUOUS
 62
     0
 10
2212.34363322047
 20
358.4506283026257
 30
0.0
  0
ENDBLK
  5
4D4
  8
回01-TP外形
  6
CONTINUOUS
 62
     7
  0
BLOCK
  8
回01-TP外形
  2
*D47
 70
     1
 10
0.0
 20
0.0
 30
0.0
  3
*D47
  1

  0
LINE
  5
4D6
  8
回02-寸法
  6
CONTINUOUS
 62
     5
 10
1791.467245632977
 20
364.6907420703823
 30
0.0
 11
1791.467245632977
 21
370.6647077566824
 31
0.0
  0
LINE
  5
4D7
  8
回02-寸法
  6
CONTINUOUS
 62
     5
 10
1796.467245632977
 20
365.6907420703827
 30
0.0
 11
1796.467245632977
 21
370.6647077566824
 31
0.0
  0
LINE
  5
4D8
  8
回02-寸法
  6
CONTINUOUS
 62
     5
 10
1798.467245632977
 20
369.6647077566824
 30
0.0
 11
1803.991509701688
 21
369.6647077566824
 31
0.0
  0
LINE
  5
4D9
  8
回02-寸法
  6
CONTINUOUS
 62
     5
 10
1791.467245632977
 20
369.6647077566824
 30
0.0
 11
1796.467245632977
 21
369.6647077566824
 31
0.0
  0
LINE
  5
4DA
  8
回02-寸法
  6
CONTINUOUS
 62
     5
 10
1789.467245632977
 20
369.6647077566824
 30
0.0
 11
1787.467245632977
 21
369.6647077566824
 31
0.0
  0
INSERT
  5
4DB
  8
回02-寸法
  6
CONTINUOUS
 62
     5
  2
_OPEN
 10
1791.467245632977
 20
369.6647077566824
 30
0.0
 41
2.0
 42
2.0
 43
2.0
  0
INSERT
  5
4DC
  8
回02-寸法
  6
CONTINUOUS
 62
     5
  2
_OPEN
 10
1796.467245632977
 20
369.6647077566824
 30
0.0
 41
2.0
 42
2.0
 43
2.0
 50
180.0
  0
TEXT
  5
4DD
  8
回02-寸法
  6
CONTINUOUS
 62
     5
 10
1800.191509701688
 20
370.1647077566824
 30
0.0
 40
6.0
  1
5
  0
POINT
  5
4DE
  8
DEFPOINTS
  6
CONTINUOUS
 62
     0
 10
1791.467245632977
 20
364.6907420703823
 30
0.0
  0
POINT
  5
4DF
  8
DEFPOINTS
  6
CONTINUOUS
 62
     0
 10
1796.467245632977
 20
365.6907420703827
 30
0.0
  0
POINT
  5
4E0
  8
DEFPOINTS
  6
CONTINUOUS
 62
     0
 10
1796.467245632977
 20
369.6647077566824
 30
0.0
  0
ENDBLK
  5
4E2
  8
回01-TP外形
  6
CONTINUOUS
 62
     7
  0
BLOCK
  8
回01-TP外形
  2
*D48
 70
     1
 10
0.0
 20
0.0
 30
0.0
  3
*D48
  1

  0
LINE
  5
4E4
  8
回02-寸法
  6
CONTINUOUS
 62
     5
 10
1791.467245632977
 20
359.4506283026257
 30
0.0
 11
1791.467245632977
 21
341.7573804742496
 31
0.0
  0
LINE
  5
4E5
  8
回02-寸法
  6
CONTINUOUS
 62
     5
 10
1801.467245632977
 20
359.4506283026257
 30
0.0
 11
1801.467245632977
 21
341.7573804742496
 31
0.0
  0
LINE
  5
4E6
  8
回02-寸法
  6
CONTINUOUS
 62
     5
 10
1803.467245632977
 20
342.7573804742495
 30
0.0
 11
1817.512127522741
 21
342.7573804742495
 31
0.0
  0
LINE
  5
4E7
  8
回02-寸法
  6
CONTINUOUS
 62
     5
 10
1791.467245632977
 20
342.7573804742495
 30
0.0
 11
1801.467245632977
 21
342.7573804742495
 31
0.0
  0
LINE
  5
4E8
  8
回02-寸法
  6
CONTINUOUS
 62
     5
 10
1789.467245632977
 20
342.7573804742495
 30
0.0
 11
1787.467245632977
 21
342.7573804742495
 31
0.0
  0
INSERT
  5
4E9
  8
回02-寸法
  6
CONTINUOUS
 62
     5
  2
_OPEN
 10
1791.467245632977
 20
342.7573804742495
 30
0.0
 41
2.0
 42
2.0
 43
2.0
  0
INSERT
  5
4EA
  8
回02-寸法
  6
CONTINUOUS
 62
     5
  2
_OPEN
 10
1801.467245632977
 20
342.7573804742495
 30
0.0
 41
2.0
 42
2.0
 43
2.0
 50
180.0
  0
TEXT
  5
4EB
  8
回02-寸法
  6
CONTINUOUS
 62
     5
 10
1805.914489727465
 20
343.5573804742495
 30
0.0
 40
6.0
  1
(10)
  0
POINT
  5
4EC
  8
DEFPOINTS
  6
CONTINUOUS
 62
     0
 10
1791.467245632977
 20
359.4506283026257
 30
0.0
  0
POINT
  5
4ED
  8
DEFPOINTS
  6
CONTINUOUS
 62
     0
 10
1801.467245632977
 20
359.4506283026257
 30
0.0
  0
POINT
  5
4EE
  8
DEFPOINTS
  6
CONTINUOUS
 62
     0
 10
1801.467245632977
 20
342.7573804742495
 30
0.0
  0
ENDBLK
  5
4F0
  8
回01-TP外形
  6
CONTINUOUS
 62
     7
  0
BLOCK
  8
回01-TP外形
  2
*D49
 70
     1
 10
0.0
 20
0.0
 30
0.0
  3
*D49
  1

  0
LINE
  5
4F2
  8
回02-寸法
  6
CONTINUOUS
 62
     5
 10
1791.467245632977
 20
364.6907420703823
 30
0.0
 11
1780.158116050802
 21
364.6907420703823
 31
0.0
  0
LINE
  5
4F3
  8
回02-寸法
  6
CONTINUOUS
 62
     5
 10
1791.467245632977
 20
359.4506283026257
 30
0.0
 11
1780.158116050802
 21
359.4506283026257
 31
0.0
  0
LINE
  5
4F4
  8
回02-寸法
  6
CONTINUOUS
 62
     5
 10
1781.158116050801
 20
357.4506283026257
 30
0.0
 11
1781.158116050801
 21
331.7777058416425
 31
0.0
  0
LINE
  5
4F5
  8
回02-寸法
  6
CONTINUOUS
 62
     5
 10
1781.158116050801
 20
364.6907420703823
 30
0.0
 11
1781.158116050801
 21
359.4506283026257
 31
0.0
  0
LINE
  5
4F6
  8
回02-寸法
  6
CONTINUOUS
 62
     5
 10
1781.158116050801
 20
366.6907420703823
 30
0.0
 11
1781.158116050801
 21
368.6907420703823
 31
0.0
  0
INSERT
  5
4F7
  8
回02-寸法
  6
CONTINUOUS
 62
     5
  2
_OPEN
 10
1781.158116050801
 20
364.6907420703823
 30
0.0
 41
2.0
 42
2.0
 43
2.0
 50
270.0
  0
INSERT
  5
4F8
  8
回02-寸法
  6
CONTINUOUS
 62
     5
  2
_OPEN
 10
1781.158116050801
 20
359.4506283026257
 30
0.0
 41
2.0
 42
2.0
 43
2.0
 50
90.0
  0
INSERT
  5
4F9
  8
回02-寸法
  6
CONTINUOUS
 62
     5
 66
     1
  2
*X102
 10
0.0
 20
0.0
 30
0.0
  0
SEQEND
  5
736
  8
回01-TP外形
  6
CONTINUOUS
 62
     7
  0
POINT
  5
4FA
  8
DEFPOINTS
  6
CONTINUOUS
 62
     0
 10
1791.467245632977
 20
364.6907420703823
 30
0.0
  0
POINT
  5
4FB
  8
DEFPOINTS
  6
CONTINUOUS
 62
     0
 10
1791.467245632977
 20
359.4506283026257
 30
0.0
  0
POINT
  5
4FC
  8
DEFPOINTS
  6
CONTINUOUS
 62
     0
 10
1781.158116050801
 20
359.4506283026257
 30
0.0
  0
ENDBLK
  5
4FE
  8
回01-TP外形
  6
CONTINUOUS
 62
     7
  0
BLOCK
  8
回01-TP外形
  2
*D50
 70
     1
 10
0.0
 20
0.0
 30
0.0
  3
*D50
  1

  0
LINE
  5
500
  8
回02-寸法
  6
CONTINUOUS
 62
     5
 10
2190.281245632977
 20
448.2415391930292
 30
0.0
 11
2245.467245632977
 21
448.2415391930292
 31
0.0
  0
LINE
  5
501
  8
回02-寸法
  6
CONTINUOUS
 62
     5
 10
2199.467245632977
 20
438.5395391930292
 30
0.0
 11
2245.467245632977
 21
438.5395391930292
 31
0.0
  0
LINE
  5
502
  8
回02-寸法
  6
CONTINUOUS
 62
     5
 10
2244.467245632977
 20
436.5395391930292
 30
0.0
 11
2244.467245632977
 21
425.0152751243168
 31
0.0
  0
LINE
  5
503
  8
回02-寸法
  6
CONTINUOUS
 62
     5
 10
2244.467245632977
 20
448.2415391930292
 30
0.0
 11
2244.467245632977
 21
438.5395391930292
 31
0.0
  0
LINE
  5
504
  8
回02-寸法
  6
CONTINUOUS
 62
     5
 10
2244.467245632977
 20
450.2415391930291
 30
0.0
 11
2244.467245632977
 21
452.2415391930292
 31
0.0
  0
INSERT
  5
505
  8
回02-寸法
  6
CONTINUOUS
 62
     5
  2
_OPEN
 10
2244.467245632977
 20
448.2415391930292
 30
0.0
 41
2.0
 42
2.0
 43
2.0
 50
270.0
  0
INSERT
  5
506
  8
回02-寸法
  6
CONTINUOUS
 62
     5
  2
_OPEN
 10
2244.467245632977
 20
438.5395391930292
 30
0.0
 41
2.0
 42
2.0
 43
2.0
 50
90.0
  0
TEXT
  5
507
  8
回02-寸法
  6
CONTINUOUS
 62
     5
 10
2243.967245632977
 20
424.5936129131551
 30
0.0
 40
6.0
  1
9.7
 50
90.0
  0
POINT
  5
508
  8
DEFPOINTS
  6
CONTINUOUS
 62
     0
 10
2190.281245632977
 20
448.2415391930292
 30
0.0
  0
POINT
  5
509
  8
DEFPOINTS
  6
CONTINUOUS
 62
     0
 10
2199.467245632977
 20
438.5395391930292
 30
0.0
  0
POINT
  5
50A
  8
DEFPOINTS
  6
CONTINUOUS
 62
     0
 10
2244.467245632977
 20
438.5395391930292
 30
0.0
  0
ENDBLK
  5
50C
  8
回01-TP外形
  6
CONTINUOUS
 62
     7
  0
BLOCK
  8
回01-TP外形
  2
*D51
 70
     1
 10
0.0
 20
0.0
 30
0.0
  3
*D51
  1

  0
LINE
  5
50E
  8
回02-寸法
  6
CONTINUOUS
 62
     5
 10
2188.281245632976
 20
450.2415391930291
 30
0.0
 11
2235.467245632977
 21
450.2415391930291
 31
0.0
  0
LINE
  5
50F
  8
回02-寸法
  6
CONTINUOUS
 62
     5
 10
2199.467245632977
 20
438.5395391930292
 30
0.0
 11
2235.467245632977
 21
438.5395391930292
 31
0.0
  0
LINE
  5
510
  8
回02-寸法
  6
CONTINUOUS
 62
     5
 10
2234.467245632977
 20
436.5395391930292
 30
0.0
 11
2234.467245632977
 21
423.3395391930287
 31
0.0
  0
LINE
  5
511
  8
回02-寸法
  6
CONTINUOUS
 62
     5
 10
2234.467245632977
 20
450.2415391930291
 30
0.0
 11
2234.467245632977
 21
438.5395391930292
 31
0.0
  0
LINE
  5
512
  8
回02-寸法
  6
CONTINUOUS
 62
     5
 10
2234.467245632977
 20
452.2415391930292
 30
0.0
 11
2234.467245632977
 21
454.2415391930291
 31
0.0
  0
INSERT
  5
513
  8
回02-寸法
  6
CONTINUOUS
 62
     5
  2
_OPEN
 10
2234.467245632977
 20
450.2415391930291
 30
0.0
 41
2.0
 42
2.0
 43
2.0
 50
270.0
  0
INSERT
  5
514
  8
回02-寸法
  6
CONTINUOUS
 62
     5
  2
_OPEN
 10
2234.467245632977
 20
438.5395391930292
 30
0.0
 41
2.0
 42
2.0
 43
2.0
 50
90.0
  0
TEXT
  5
515
  8
回02-寸法
  6
CONTINUOUS
 62
     5
 10
2233.967245632977
 20
422.9395391930286
 30
0.0
 40
6.0
  1
11.7
 50
90.0
  0
POINT
  5
516
  8
DEFPOINTS
  6
CONTINUOUS
 62
     0
 10
2188.281245632976
 20
450.2415391930291
 30
0.0
  0
POINT
  5
517
  8
DEFPOINTS
  6
CONTINUOUS
 62
     0
 10
2199.467245632977
 20
438.5395391930292
 30
0.0
  0
POINT
  5
518
  8
DEFPOINTS
  6
CONTINUOUS
 62
     0
 10
2234.467245632977
 20
438.5395391930292
 30
0.0
  0
ENDBLK
  5
51A
  8
回01-TP外形
  6
CONTINUOUS
 62
     7
  0
BLOCK
  8
回01-TP外形
  2
*D52
 70
     1
 10
0.0
 20
0.0
 30
0.0
  3
*D52
  1

  0
LINE
  5
51C
  8
回02-寸法
  6
CONTINUOUS
 62
     5
 10
2190.281245632977
 20
680.8375391930292
 30
0.0
 11
2245.467245632977
 21
680.8375391930292
 31
0.0
  0
LINE
  5
51D
  8
回02-寸法
  6
CONTINUOUS
 62
     5
 10
2199.467245632977
 20
690.5445696353353
 30
0.0
 11
2245.467245632977
 21
690.5445696353353
 31
0.0
  0
LINE
  5
51E
  8
回02-寸法
  6
CONTINUOUS
 62
     5
 10
2244.467245632977
 20
692.5445696353354
 30
0.0
 11
2244.467245632977
 21
711.7615074370487
 31
0.0
  0
LINE
  5
51F
  8
回02-寸法
  6
CONTINUOUS
 62
     5
 10
2244.467245632977
 20
680.8375391930292
 30
0.0
 11
2244.467245632977
 21
690.5445696353353
 31
0.0
  0
LINE
  5
520
  8
回02-寸法
  6
CONTINUOUS
 62
     5
 10
2244.467245632977
 20
678.8375391930292
 30
0.0
 11
2244.467245632977
 21
676.8375391930292
 31
0.0
  0
INSERT
  5
521
  8
回02-寸法
  6
CONTINUOUS
 62
     5
  2
_OPEN
 10
2244.467245632977
 20
680.8375391930292
 30
0.0
 41
2.0
 42
2.0
 43
2.0
 50
90.0
  0
INSERT
  5
522
  8
回02-寸法
  6
CONTINUOUS
 62
     5
  2
_OPEN
 10
2244.467245632977
 20
690.5445696353353
 30
0.0
 41
2.0
 42
2.0
 43
2.0
 50
270.0
  0
TEXT
  5
523
  8
回02-寸法
  6
CONTINUOUS
 62
     5
 10
2243.667245632977
 20
694.142207430611
 30
0.0
 40
6.0
  1
(9.71)
 50
90.0
  0
POINT
  5
524
  8
DEFPOINTS
  6
CONTINUOUS
 62
     0
 10
2190.281245632977
 20
680.8375391930292
 30
0.0
  0
POINT
  5
525
  8
DEFPOINTS
  6
CONTINUOUS
 62
     0
 10
2199.467245632977
 20
690.5445696353353
 30
0.0
  0
POINT
  5
526
  8
DEFPOINTS
  6
CONTINUOUS
 62
     0
 10
2244.467245632977
 20
690.5445696353353
 30
0.0
  0
ENDBLK
  5
528
  8
回01-TP外形
  6
CONTINUOUS
 62
     7
  0
BLOCK
  8
回01-TP外形
  2
*D53
 70
     1
 10
0.0
 20
0.0
 30
0.0
  3
*D53
  1

  0
LINE
  5
52A
  8
回02-寸法
  6
CONTINUOUS
 62
     5
 10
2188.281245632976
 20
678.8375391930292
 30
0.0
 11
2235.467245632977
 21
678.8375391930292
 31
0.0
  0
LINE
  5
52B
  8
回02-寸法
  6
CONTINUOUS
 62
     5
 10
2199.467245632977
 20
690.5445696353353
 30
0.0
 11
2235.467245632977
 21
690.5445696353353
 31
0.0
  0
LINE
  5
52C
  8
回02-寸法
  6
CONTINUOUS
 62
     5
 10
2234.467245632977
 20
692.5445696353354
 30
0.0
 11
2234.467245632977
 21
713.5398452258868
 31
0.0
  0
LINE
  5
52D
  8
回02-寸法
  6
CONTINUOUS
 62
     5
 10
2234.467245632977
 20
678.8375391930292
 30
0.0
 11
2234.467245632977
 21
690.5445696353353
 31
0.0
  0
LINE
  5
52E
  8
回02-寸法
  6
CONTINUOUS
 62
     5
 10
2234.467245632977
 20
676.8375391930292
 30
0.0
 11
2234.467245632977
 21
674.8375391930292
 31
0.0
  0
INSERT
  5
52F
  8
回02-寸法
  6
CONTINUOUS
 62
     5
  2
_OPEN
 10
2234.467245632977
 20
678.8375391930292
 30
0.0
 41
2.0
 42
2.0
 43
2.0
 50
90.0
  0
INSERT
  5
530
  8
回02-寸法
  6
CONTINUOUS
 62
     5
  2
_OPEN
 10
2234.467245632977
 20
690.5445696353353
 30
0.0
 41
2.0
 42
2.0
 43
2.0
 50
270.0
  0
TEXT
  5
531
  8
回02-寸法
  6
CONTINUOUS
 62
     5
 10
2233.667245632977
 20
694.142207430611
 30
0.0
 40
6.0
  1
(11.71)
 50
90.0
  0
POINT
  5
532
  8
DEFPOINTS
  6
CONTINUOUS
 62
     0
 10
2188.281245632976
 20
678.8375391930292
 30
0.0
  0
POINT
  5
533
  8
DEFPOINTS
  6
CONTINUOUS
 62
     0
 10
2199.467245632977
 20
690.5445696353353
 30
0.0
  0
POINT
  5
534
  8
DEFPOINTS
  6
CONTINUOUS
 62
     0
 10
2234.467245632977
 20
690.5445696353353
 30
0.0
  0
ENDBLK
  5
536
  8
回01-TP外形
  6
CONTINUOUS
 62
     7
  0
BLOCK
  8
回01-TP外形
  2
*D54
 70
     1
 10
0.0
 20
0.0
 30
0.0
  3
*D54
  1

  0
LINE
  5
538
  8
回02-寸法
  6
CONTINUOUS
 62
     5
 10
2190.281245632977
 20
680.8375391930292
 30
0.0
 11
2190.281245632977
 21
716.5395391930291
 31
0.0
  0
LINE
  5
539
  8
回02-寸法
  6
CONTINUOUS
 62
     5
 10
2199.467245632977
 20
690.5445696353353
 30
0.0
 11
2199.467245632977
 21
716.5395391930291
 31
0.0
  0
LINE
  5
53A
  8
回02-寸法
  6
CONTINUOUS
 62
     5
 10
2201.467245632977
 20
715.5395391930292
 30
0.0
 11
2220.705845645852
 21
715.5395391930292
 31
0.0
  0
LINE
  5
53B
  8
回02-寸法
  6
CONTINUOUS
 62
     5
 10
2190.281245632977
 20
715.5395391930292
 30
0.0
 11
2199.467245632977
 21
715.5395391930292
 31
0.0
  0
LINE
  5
53C
  8
回02-寸法
  6
CONTINUOUS
 62
     5
 10
2188.281245632976
 20
715.5395391930292
 30
0.0
 11
2186.281245632977
 21
715.5395391930292
 31
0.0
  0
INSERT
  5
53D
  8
回02-寸法
  6
CONTINUOUS
 62
     5
  2
_OPEN
 10
2190.281245632977
 20
715.5395391930292
 30
0.0
 41
2.0
 42
2.0
 43
2.0
  0
INSERT
  5
53E
  8
回02-寸法
  6
CONTINUOUS
 62
     5
  2
_OPEN
 10
2199.467245632977
 20
715.5395391930292
 30
0.0
 41
2.0
 42
2.0
 43
2.0
 50
180.0
  0
TEXT
  5
53F
  8
回02-寸法
  6
CONTINUOUS
 62
     5
 10
2203.064883428252
 20
716.3395391930293
 30
0.0
 40
6.0
  1
(9.19)
  0
POINT
  5
540
  8
DEFPOINTS
  6
CONTINUOUS
 62
     0
 10
2190.281245632977
 20
680.8375391930292
 30
0.0
  0
POINT
  5
541
  8
DEFPOINTS
  6
CONTINUOUS
 62
     0
 10
2199.467245632977
 20
690.5445696353353
 30
0.0
  0
POINT
  5
542
  8
DEFPOINTS
  6
CONTINUOUS
 62
     0
 10
2199.467245632977
 20
715.5395391930292
 30
0.0
  0
ENDBLK
  5
544
  8
回01-TP外形
  6
CONTINUOUS
 62
     7
  0
BLOCK
  8
回01-TP外形
  2
*D55
 70
     1
 10
0.0
 20
0.0
 30
0.0
  3
*D55
  1

  0
LINE
  5
546
  8
回02-寸法
  6
CONTINUOUS
 62
     5
 10
2188.281245632976
 20
678.8375391930292
 30
0.0
 11
2188.281245632976
 21
706.5395391930292
 31
0.0
  0
LINE
  5
547
  8
回02-寸法
  6
CONTINUOUS
 62
     5
 10
2199.467245632977
 20
690.5445696353353
 30
0.0
 11
2199.467245632977
 21
706.5395391930292
 31
0.0
  0
LINE
  5
548
  8
回02-寸法
  6
CONTINUOUS
 62
     5
 10
2201.467245632977
 20
705.5395391930292
 30
0.0
 11
2222.484183434689
 21
705.5395391930292
 31
0.0
  0
LINE
  5
549
  8
回02-寸法
  6
CONTINUOUS
 62
     5
 10
2188.281245632976
 20
705.5395391930292
 30
0.0
 11
2199.467245632977
 21
705.5395391930292
 31
0.0
  0
LINE
  5
54A
  8
回02-寸法
  6
CONTINUOUS
 62
     5
 10
2186.281245632977
 20
705.5395391930292
 30
0.0
 11
2184.281245632977
 21
705.5395391930292
 31
0.0
  0
INSERT
  5
54B
  8
回02-寸法
  6
CONTINUOUS
 62
     5
  2
_OPEN
 10
2188.281245632976
 20
705.5395391930292
 30
0.0
 41
2.0
 42
2.0
 43
2.0
  0
INSERT
  5
54C
  8
回02-寸法
  6
CONTINUOUS
 62
     5
  2
_OPEN
 10
2199.467245632977
 20
705.5395391930292
 30
0.0
 41
2.0
 42
2.0
 43
2.0
 50
180.0
  0
TEXT
  5
54D
  8
回02-寸法
  6
CONTINUOUS
 62
     5
 10
2203.064883428252
 20
706.3395391930292
 30
0.0
 40
6.0
  1
(11.19)
  0
POINT
  5
54E
  8
DEFPOINTS
  6
CONTINUOUS
 62
     0
 10
2188.281245632976
 20
678.8375391930292
 30
0.0
  0
POINT
  5
54F
  8
DEFPOINTS
  6
CONTINUOUS
 62
     0
 10
2199.467245632977
 20
690.5445696353353
 30
0.0
  0
POINT
  5
550
  8
DEFPOINTS
  6
CONTINUOUS
 62
     0
 10
2199.467245632977
 20
705.5395391930292
 30
0.0
  0
ENDBLK
  5
552
  8
回01-TP外形
  6
CONTINUOUS
 62
     7
  0
BLOCK
  8
回01-TP外形
  2
*D56
 70
     1
 10
0.0
 20
0.0
 30
0.0
  3
*D56
  1

  0
LINE
  5
554
  8
回02-寸法
  6
CONTINUOUS
 62
     5
 10
1881.653245632976
 20
680.8375391930292
 30
0.0
 11
1881.653245632976
 21
716.5395391930291
 31
0.0
  0
LINE
  5
555
  8
回02-寸法
  6
CONTINUOUS
 62
     5
 10
1871.467245632977
 20
690.5395391930292
 30
0.0
 11
1871.467245632977
 21
716.5395391930291
 31
0.0
  0
LINE
  5
556
  8
回02-寸法
  6
CONTINUOUS
 62
     5
 10
1869.467245632977
 20
715.5395391930292
 30
0.0
 11
1851.841634090391
 21
715.5395391930292
 31
0.0
  0
LINE
  5
557
  8
回02-寸法
  6
CONTINUOUS
 62
     5
 10
1881.653245632976
 20
715.5395391930292
 30
0.0
 11
1871.467245632977
 21
715.5395391930292
 31
0.0
  0
LINE
  5
558
  8
回02-寸法
  6
CONTINUOUS
 62
     5
 10
1883.653245632976
 20
715.5395391930292
 30
0.0
 11
1885.653245632976
 21
715.5395391930292
 31
0.0
  0
INSERT
  5
559
  8
回02-寸法
  6
CONTINUOUS
 62
     5
  2
_OPEN
 10
1881.653245632976
 20
715.5395391930292
 30
0.0
 41
2.0
 42
2.0
 43
2.0
 50
180.0
  0
INSERT
  5
55A
  8
回02-寸法
  6
CONTINUOUS
 62
     5
  2
_OPEN
 10
1871.467245632977
 20
715.5395391930292
 30
0.0
 41
2.0
 42
2.0
 43
2.0
  0
TEXT
  5
55B
  8
回02-寸法
  6
CONTINUOUS
 62
     5
 10
1851.441634090391
 20
716.0395391930292
 30
0.0
 40
6.0
  1
10.19
  0
POINT
  5
55C
  8
DEFPOINTS
  6
CONTINUOUS
 62
     0
 10
1881.653245632976
 20
680.8375391930292
 30
0.0
  0
POINT
  5
55D
  8
DEFPOINTS
  6
CONTINUOUS
 62
     0
 10
1871.467245632977
 20
690.5395391930292
 30
0.0
  0
POINT
  5
55E
  8
DEFPOINTS
  6
CONTINUOUS
 62
     0
 10
1871.467245632977
 20
715.5395391930292
 30
0.0
  0
ENDBLK
  5
560
  8
回01-TP外形
  6
CONTINUOUS
 62
     7
  0
BLOCK
  8
回01-TP外形
  2
*D57
 70
     1
 10
0.0
 20
0.0
 30
0.0
  3
*D57
  1

  0
LINE
  5
562
  8
回02-寸法
  6
CONTINUOUS
 62
     5
 10
1883.653245632976
 20
678.8375391930292
 30
0.0
 11
1883.653245632976
 21
706.5395391930292
 31
0.0
  0
LINE
  5
563
  8
回02-寸法
  6
CONTINUOUS
 62
     5
 10
1871.467245632977
 20
690.5395391930292
 30
0.0
 11
1871.467245632977
 21
706.5395391930292
 31
0.0
  0
LINE
  5
564
  8
回02-寸法
  6
CONTINUOUS
 62
     5
 10
1869.467245632977
 20
705.5395391930292
 30
0.0
 11
1851.841634090391
 21
705.5395391930292
 31
0.0
  0
LINE
  5
565
  8
回02-寸法
  6
CONTINUOUS
 62
     5
 10
1883.653245632976
 20
705.5395391930292
 30
0.0
 11
1871.467245632977
 21
705.5395391930292
 31
0.0
  0
LINE
  5
566
  8
回02-寸法
  6
CONTINUOUS
 62
     5
 10
1885.653245632976
 20
705.5395391930292
 30
0.0
 11
1887.653245632976
 21
705.5395391930292
 31
0.0
  0
INSERT
  5
567
  8
回02-寸法
  6
CONTINUOUS
 62
     5
  2
_OPEN
 10
1883.653245632976
 20
705.5395391930292
 30
0.0
 41
2.0
 42
2.0
 43
2.0
 50
180.0
  0
INSERT
  5
568
  8
回02-寸法
  6
CONTINUOUS
 62
     5
  2
_OPEN
 10
1871.467245632977
 20
705.5395391930292
 30
0.0
 41
2.0
 42
2.0
 43
2.0
  0
TEXT
  5
569
  8
回02-寸法
  6
CONTINUOUS
 62
     5
 10
1851.441634090391
 20
706.0395391930292
 30
0.0
 40
6.0
  1
12.19
  0
POINT
  5
56A
  8
DEFPOINTS
  6
CONTINUOUS
 62
     0
 10
1883.653245632976
 20
678.8375391930292
 30
0.0
  0
POINT
  5
56B
  8
DEFPOINTS
  6
CONTINUOUS
 62
     0
 10
1871.467245632977
 20
690.5395391930292
 30
0.0
  0
POINT
  5
56C
  8
DEFPOINTS
  6
CONTINUOUS
 62
     0
 10
1871.467245632977
 20
705.5395391930292
 30
0.0
  0
ENDBLK
  5
56E
  8
回01-TP外形
  6
CONTINUOUS
 62
     7
  0
BLOCK
  8
回01-TP外形
  2
*D58
 70
     1
 10
0.0
 20
0.0
 30
0.0
  3
*D58
  1

  0
LINE
  5
570
  8
回02-寸法
  6
CONTINUOUS
 62
     5
 10
2190.781245632976
 20
447.4415391930292
 30
0.0
 11
2255.467245632982
 21
447.4415391930292
 31
0.0
  0
LINE
  5
571
  8
回02-寸法
  6
CONTINUOUS
 62
     5
 10
2199.467245632977
 20
438.5395391930292
 30
0.0
 11
2255.467245632982
 21
438.5395391930292
 31
0.0
  0
LINE
  5
572
  8
回02-寸法
  6
CONTINUOUS
 62
     5
 10
2254.467245632982
 20
436.5395391930292
 30
0.0
 11
2254.467245632982
 21
374.4593359070645
 31
0.0
  0
LINE
  5
573
  8
回02-寸法
  6
CONTINUOUS
 62
     5
 10
2254.467245632982
 20
447.4415391930292
 30
0.0
 11
2254.467245632982
 21
438.5395391930292
 31
0.0
  0
LINE
  5
574
  8
回02-寸法
  6
CONTINUOUS
 62
     5
 10
2254.467245632982
 20
449.4415391930292
 30
0.0
 11
2254.467245632982
 21
451.4415391930292
 31
0.0
  0
INSERT
  5
575
  8
回02-寸法
  6
CONTINUOUS
 62
     5
  2
_OPEN
 10
2254.467245632982
 20
447.4415391930292
 30
0.0
 41
2.0
 42
2.0
 43
2.0
 50
270.0
  0
INSERT
  5
576
  8
回02-寸法
  6
CONTINUOUS
 62
     5
  2
_OPEN
 10
2254.467245632982
 20
438.5395391930292
 30
0.0
 41
2.0
 42
2.0
 43
2.0
 50
90.0
  0
INSERT
  5
577
  8
回02-寸法
  6
CONTINUOUS
 62
     5
 66
     1
  2
*X103
 10
0.0
 20
0.0
 30
0.0
  0
SEQEND
  5
73C
  8
回01-TP外形
  6
CONTINUOUS
 62
     7
  0
POINT
  5
578
  8
DEFPOINTS
  6
CONTINUOUS
 62
     0
 10
2190.781245632976
 20
447.4415391930292
 30
0.0
  0
POINT
  5
579
  8
DEFPOINTS
  6
CONTINUOUS
 62
     0
 10
2199.467245632977
 20
438.5395391930292
 30
0.0
  0
POINT
  5
57A
  8
DEFPOINTS
  6
CONTINUOUS
 62
     0
 10
2254.467245632982
 20
438.5395391930292
 30
0.0
  0
ENDBLK
  5
57C
  8
回01-TP外形
  6
CONTINUOUS
 62
     7
  0
BLOCK
  8
回01-TP外形
  2
*D59
 70
     1
 10
0.0
 20
0.0
 30
0.0
  3
*D59
  1

  0
LINE
  5
57E
  8
回02-寸法
  6
CONTINUOUS
 62
     5
 10
2190.781245632976
 20
681.6375391930291
 30
0.0
 11
2255.467245632982
 21
681.6375391930291
 31
0.0
  0
LINE
  5
57F
  8
回02-寸法
  6
CONTINUOUS
 62
     5
 10
2199.467245632977
 20
690.5445696353353
 30
0.0
 11
2255.467245632982
 21
690.5445696353353
 31
0.0
  0
LINE
  5
580
  8
回02-寸法
  6
CONTINUOUS
 62
     5
 10
2254.467245632982
 20
692.5445696353354
 30
0.0
 11
2254.467245632982
 21
711.7615074370487
 31
0.0
  0
LINE
  5
581
  8
回02-寸法
  6
CONTINUOUS
 62
     5
 10
2254.467245632982
 20
681.6375391930291
 30
0.0
 11
2254.467245632982
 21
690.5445696353353
 31
0.0
  0
LINE
  5
582
  8
回02-寸法
  6
CONTINUOUS
 62
     5
 10
2254.467245632982
 20
679.6375391930292
 30
0.0
 11
2254.467245632982
 21
677.6375391930291
 31
0.0
  0
INSERT
  5
583
  8
回02-寸法
  6
CONTINUOUS
 62
     5
  2
_OPEN
 10
2254.467245632982
 20
681.6375391930291
 30
0.0
 41
2.0
 42
2.0
 43
2.0
 50
90.0
  0
INSERT
  5
584
  8
回02-寸法
  6
CONTINUOUS
 62
     5
  2
_OPEN
 10
2254.467245632982
 20
690.5445696353353
 30
0.0
 41
2.0
 42
2.0
 43
2.0
 50
270.0
  0
TEXT
  5
585
  8
回02-寸法
  6
CONTINUOUS
 62
     5
 10
2253.667245632982
 20
694.142207430611
 30
0.0
 40
6.0
  1
(8.91)
 50
90.0
  0
POINT
  5
586
  8
DEFPOINTS
  6
CONTINUOUS
 62
     0
 10
2190.781245632976
 20
681.6375391930291
 30
0.0
  0
POINT
  5
587
  8
DEFPOINTS
  6
CONTINUOUS
 62
     0
 10
2199.467245632977
 20
690.5445696353353
 30
0.0
  0
POINT
  5
588
  8
DEFPOINTS
  6
CONTINUOUS
 62
     0
 10
2254.467245632982
 20
690.5445696353353
 30
0.0
  0
ENDBLK
  5
58A
  8
回01-TP外形
  6
CONTINUOUS
 62
     7
  0
BLOCK
  8
回01-TP外形
  2
*D60
 70
     1
 10
0.0
 20
0.0
 30
0.0
  3
*D60
  1

  0
LINE
  5
58C
  8
回02-寸法
  6
CONTINUOUS
 62
     5
 10
2190.781245632976
 20
681.6375391930291
 30
0.0
 11
2255.467245632977
 21
681.6375391930291
 31
0.0
  0
LINE
  5
58D
  8
回02-寸法
  6
CONTINUOUS
 62
     5
 10
2190.781245632976
 20
447.4415391930292
 30
0.0
 11
2255.467245632977
 21
447.4415391930292
 31
0.0
  0
LINE
  5
58E
  8
回02-寸法
  6
CONTINUOUS
 62
     5
 10
2254.467245632977
 20
679.6375391930292
 30
0.0
 11
2254.467245632977
 21
449.4415391930292
 31
0.0
  0
INSERT
  5
58F
  8
回02-寸法
  6
CONTINUOUS
 62
     5
  2
_OPEN
 10
2254.467245632977
 20
681.6375391930291
 30
0.0
 41
2.0
 42
2.0
 43
2.0
 50
90.0
  0
INSERT
  5
590
  8
回02-寸法
  6
CONTINUOUS
 62
     5
  2
_OPEN
 10
2254.467245632977
 20
447.4415391930292
 30
0.0
 41
2.0
 42
2.0
 43
2.0
 50
270.0
  0
TEXT
  5
591
  8
回02-寸法
  6
CONTINUOUS
 62
     5
 10
2253.967245632977
 20
554.938875822348
 30
0.0
 40
6.0
  1
234.2
 50
90.0
  0
POINT
  5
592
  8
DEFPOINTS
  6
CONTINUOUS
 62
     0
 10
2190.781245632976
 20
681.6375391930291
 30
0.0
  0
POINT
  5
593
  8
DEFPOINTS
  6
CONTINUOUS
 62
     0
 10
2190.781245632976
 20
447.4415391930292
 30
0.0
  0
POINT
  5
594
  8
DEFPOINTS
  6
CONTINUOUS
 62
     0
 10
2254.467245632977
 20
447.4415391930292
 30
0.0
  0
ENDBLK
  5
596
  8
回01-TP外形
  6
CONTINUOUS
 62
     7
  0
BLOCK
  8
回01-TP外形
  2
*D61
 70
     1
 10
0.0
 20
0.0
 30
0.0
  3
*D61
  1

  0
LINE
  5
598
  8
回02-寸法
  6
CONTINUOUS
 62
     5
 10
1881.153245632976
 20
681.6375391930291
 30
0.0
 11
1881.153245632976
 21
726.5395391930292
 31
0.0
  0
LINE
  5
599
  8
回02-寸法
  6
CONTINUOUS
 62
     5
 10
1871.467245632977
 20
690.5395391930292
 30
0.0
 11
1871.467245632977
 21
726.5395391930292
 31
0.0
  0
LINE
  5
59A
  8
回02-寸法
  6
CONTINUOUS
 62
     5
 10
1869.467245632977
 20
725.5395391930292
 30
0.0
 11
1793.232945626539
 21
725.5395391930292
 31
0.0
  0
LINE
  5
59B
  8
回02-寸法
  6
CONTINUOUS
 62
     5
 10
1881.153245632976
 20
725.5395391930292
 30
0.0
 11
1871.467245632977
 21
725.5395391930292
 31
0.0
  0
LINE
  5
59C
  8
回02-寸法
  6
CONTINUOUS
 62
     5
 10
1883.153245632976
 20
725.5395391930292
 30
0.0
 11
1885.153245632976
 21
725.5395391930292
 31
0.0
  0
INSERT
  5
59D
  8
回02-寸法
  6
CONTINUOUS
 62
     5
  2
_OPEN
 10
1881.153245632976
 20
725.5395391930292
 30
0.0
 41
2.0
 42
2.0
 43
2.0
 50
180.0
  0
INSERT
  5
59E
  8
回02-寸法
  6
CONTINUOUS
 62
     5
  2
_OPEN
 10
1871.467245632977
 20
725.5395391930292
 30
0.0
 41
2.0
 42
2.0
 43
2.0
  0
TEXT
  5
59F
  8
回02-寸法
  6
CONTINUOUS
 62
     5
 10
1792.811283415377
 20
726.3395391930291
 30
0.0
 40
6.0
  1
9.69(Insulation Area)
  0
POINT
  5
5A0
  8
DEFPOINTS
  6
CONTINUOUS
 62
     0
 10
1881.153245632976
 20
681.6375391930291
 30
0.0
  0
POINT
  5
5A1
  8
DEFPOINTS
  6
CONTINUOUS
 62
     0
 10
1871.467245632977
 20
690.5395391930292
 30
0.0
  0
POINT
  5
5A2
  8
DEFPOINTS
  6
CONTINUOUS
 62
     0
 10
1871.467245632977
 20
725.5395391930292
 30
0.0
  0
ENDBLK
  5
5A4
  8
回01-TP外形
  6
CONTINUOUS
 62
     7
  0
BLOCK
  8
回01-TP外形
  2
*D62
 70
     1
 10
0.0
 20
0.0
 30
0.0
  3
*D62
  1

  0
LINE
  5
5A6
  8
回02-寸法
  6
CONTINUOUS
 62
     5
 10
2190.781245632976
 20
681.6375391930291
 30
0.0
 11
2190.781245632976
 21
726.5395391930292
 31
0.0
  0
LINE
  5
5A7
  8
回02-寸法
  6
CONTINUOUS
 62
     5
 10
2199.467245632977
 20
690.5445696353353
 30
0.0
 11
2199.467245632977
 21
726.5395391930292
 31
0.0
  0
LINE
  5
5A8
  8
回02-寸法
  6
CONTINUOUS
 62
     5
 10
2201.467245632977
 20
725.5395391930292
 30
0.0
 11
2221.88418343469
 21
725.5395391930292
 31
0.0
  0
LINE
  5
5A9
  8
回02-寸法
  6
CONTINUOUS
 62
     5
 10
2190.781245632976
 20
725.5395391930292
 30
0.0
 11
2199.467245632977
 21
725.5395391930292
 31
0.0
  0
LINE
  5
5AA
  8
回02-寸法
  6
CONTINUOUS
 62
     5
 10
2188.781245632977
 20
725.5395391930292
 30
0.0
 11
2186.781245632976
 21
725.5395391930292
 31
0.0
  0
INSERT
  5
5AB
  8
回02-寸法
  6
CONTINUOUS
 62
     5
  2
_OPEN
 10
2190.781245632976
 20
725.5395391930292
 30
0.0
 41
2.0
 42
2.0
 43
2.0
  0
INSERT
  5
5AC
  8
回02-寸法
  6
CONTINUOUS
 62
     5
  2
_OPEN
 10
2199.467245632977
 20
725.5395391930292
 30
0.0
 41
2.0
 42
2.0
 43
2.0
 50
180.0
  0
TEXT
  5
5AD
  8
回02-寸法
  6
CONTINUOUS
 62
     5
 10
2203.064883428252
 20
726.3395391930292
 30
0.0
 40
6.0
  1
(8.69)
  0
POINT
  5
5AE
  8
DEFPOINTS
  6
CONTINUOUS
 62
     0
 10
2190.781245632976
 20
681.6375391930291
 30
0.0
  0
POINT
  5
5AF
  8
DEFPOINTS
  6
CONTINUOUS
 62
     0
 10
2199.467245632977
 20
690.5445696353353
 30
0.0
  0
POINT
  5
5B0
  8
DEFPOINTS
  6
CONTINUOUS
 62
     0
 10
2199.467245632977
 20
725.5395391930292
 30
0.0
  0
ENDBLK
  5
5B2
  8
回01-TP外形
  6
CONTINUOUS
 62
     7
  0
BLOCK
  8
回01-TP外形
  2
*D63
 70
     1
 10
0.0
 20
0.0
 30
0.0
  3
*D63
  1

  0
LINE
  5
5B4
  8
回02-寸法
  6
CONTINUOUS
 62
     5
 10
1881.153245632976
 20
681.6375391930291
 30
0.0
 11
1881.153245632976
 21
726.5395391930292
 31
0.0
  0
LINE
  5
5B5
  8
回02-寸法
  6
CONTINUOUS
 62
     5
 10
2190.781245632976
 20
681.6375391930291
 30
0.0
 11
2190.781245632976
 21
726.5395391930292
 31
0.0
  0
LINE
  5
5B6
  8
回02-寸法
  6
CONTINUOUS
 62
     5
 10
1883.153245632976
 20
725.5395391930292
 30
0.0
 11
2188.781245632977
 21
725.5395391930292
 31
0.0
  0
INSERT
  5
5B7
  8
回02-寸法
  6
CONTINUOUS
 62
     5
  2
_OPEN
 10
1881.153245632976
 20
725.5395391930292
 30
0.0
 41
2.0
 42
2.0
 43
2.0
 50
180.0
  0
INSERT
  5
5B8
  8
回02-寸法
  6
CONTINUOUS
 62
     5
  2
_OPEN
 10
2190.781245632976
 20
725.5395391930292
 30
0.0
 41
2.0
 42
2.0
 43
2.0
  0
TEXT
  5
5B9
  8
回02-寸法
  6
CONTINUOUS
 62
     5
 10
2024.556414527395
 20
726.0395391930292
 30
0.0
 40
6.0
  1
309.63
  0
POINT
  5
5BA
  8
DEFPOINTS
  6
CONTINUOUS
 62
     0
 10
1881.153245632976
 20
681.6375391930291
 30
0.0
  0
POINT
  5
5BB
  8
DEFPOINTS
  6
CONTINUOUS
 62
     0
 10
2190.781245632976
 20
681.6375391930291
 30
0.0
  0
POINT
  5
5BC
  8
DEFPOINTS
  6
CONTINUOUS
 62
     0
 10
2190.781245632976
 20
725.5395391930292
 30
0.0
  0
ENDBLK
  5
5BE
  8
回01-TP外形
  6
CONTINUOUS
 62
     7
  0
BLOCK
  8
回01-TP外形
  2
*D64
 70
     1
 10
0.0
 20
0.0
 30
0.0
  3
*D64
  1

  0
LINE
  5
5C0
  8
回02-寸法
  6
CONTINUOUS
 62
     5
 10
1871.467245632977
 20
555.8624148485619
 30
0.0
 11
1871.467245632977
 21
542.7309521029985
 31
0.0
  0
LINE
  5
5C1
  8
回02-寸法
  6
CONTINUOUS
 62
     5
 10
1866.866743120414
 20
556.6286931123329
 30
0.0
 11
1866.866743120414
 21
542.7309521029985
 31
0.0
  0
LINE
  5
5C2
  8
回02-寸法
  6
CONTINUOUS
 62
     5
 10
1864.866743120414
 20
543.7309521029986
 30
0.0
 11
1851.7298877299
 21
543.7309521029986
 31
0.0
  0
LINE
  5
5C3
  8
回02-寸法
  6
CONTINUOUS
 62
     5
 10
1871.467245632977
 20
543.7309521029986
 30
0.0
 11
1866.866743120414
 21
543.7309521029986
 31
0.0
  0
LINE
  5
5C4
  8
回02-寸法
  6
CONTINUOUS
 62
     5
 10
1873.467245632977
 20
543.7309521029986
 30
0.0
 11
1875.467245632977
 21
543.7309521029986
 31
0.0
  0
INSERT
  5
5C5
  8
回02-寸法
  6
CONTINUOUS
 62
     5
  2
_OPEN
 10
1871.467245632977
 20
543.7309521029986
 30
0.0
 41
2.0
 42
2.0
 43
2.0
 50
180.0
  0
INSERT
  5
5C6
  8
回02-寸法
  6
CONTINUOUS
 62
     5
  2
_OPEN
 10
1866.866743120414
 20
543.7309521029986
 30
0.0
 41
2.0
 42
2.0
 43
2.0
  0
TEXT
  5
5C7
  8
回02-寸法
  6
CONTINUOUS
 62
     5
 10
1851.3298877299
 20
544.2309521029986
 30
0.0
 40
6.0
  1
4.6
  0
POINT
  5
5C8
  8
DEFPOINTS
  6
CONTINUOUS
 62
     0
 10
1871.467245632977
 20
555.8624148485619
 30
0.0
  0
POINT
  5
5C9
  8
DEFPOINTS
  6
CONTINUOUS
 62
     0
 10
1866.866743120414
 20
556.6286931123329
 30
0.0
  0
POINT
  5
5CA
  8
DEFPOINTS
  6
CONTINUOUS
 62
     0
 10
1866.866743120414
 20
543.7309521029986
 30
0.0
  0
ENDBLK
  5
5CC
  8
回01-TP外形
  6
CONTINUOUS
 62
     7
  0
BLOCK
  8
回01-TP外形
  2
*D65
 70
     1
 10
0.0
 20
0.0
 30
0.0
  3
*D65
  1

  0
LINE
  5
5CE
  8
回02-寸法
  6
CONTINUOUS
 62
     5
 10
2199.467245632977
 20
438.5395391930292
 30
0.0
 11
2265.467245632977
 21
438.5395391930292
 31
0.0
  0
LINE
  5
5CF
  8
回02-寸法
  6
CONTINUOUS
 62
     5
 10
2199.467245632977
 20
690.5445696353353
 30
0.0
 11
2265.467245632977
 21
690.5445696353353
 31
0.0
  0
LINE
  5
5D0
  8
回02-寸法
  6
CONTINUOUS
 62
     5
 10
2264.467245632977
 20
440.5395391930292
 30
0.0
 11
2264.467245632977
 21
688.5445696353354
 31
0.0
  0
INSERT
  5
5D1
  8
回02-寸法
  6
CONTINUOUS
 62
     5
  2
_OPEN
 10
2264.467245632977
 20
438.5395391930292
 30
0.0
 41
2.0
 42
2.0
 43
2.0
 50
270.0
  0
INSERT
  5
5D2
  8
回02-寸法
  6
CONTINUOUS
 62
     5
  2
_OPEN
 10
2264.467245632977
 20
690.5445696353353
 30
0.0
 41
2.0
 42
2.0
 43
2.0
 50
90.0
  0
INSERT
  5
5D3
  8
回02-寸法
  6
CONTINUOUS
 62
     5
 66
     1
  2
*X104
 10
0.0
 20
0.0
 30
0.0
  0
SEQEND
  5
742
  8
回01-TP外形
  6
CONTINUOUS
 62
     7
  0
POINT
  5
5D4
  8
DEFPOINTS
  6
CONTINUOUS
 62
     0
 10
2199.467245632977
 20
438.5395391930292
 30
0.0
  0
POINT
  5
5D5
  8
DEFPOINTS
  6
CONTINUOUS
 62
     0
 10
2199.467245632977
 20
690.5445696353353
 30
0.0
  0
POINT
  5
5D6
  8
DEFPOINTS
  6
CONTINUOUS
 62
     0
 10
2264.467245632977
 20
690.5445696353353
 30
0.0
  0
ENDBLK
  5
5D8
  8
回01-TP外形
  6
CONTINUOUS
 62
     7
  0
BLOCK
  8
回01-TP外形
  2
*D66
 70
     1
 10
0.0
 20
0.0
 30
0.0
  3
*D66
  1

  0
LINE
  5
5DA
  8
回02-寸法
  6
CONTINUOUS
 62
     5
 10
2190.281245632977
 20
680.8375391930292
 30
0.0
 11
2245.467245632977
 21
680.8375391930292
 31
0.0
  0
LINE
  5
5DB
  8
回02-寸法
  6
CONTINUOUS
 62
     5
 10
2190.281245632977
 20
448.2415391930292
 30
0.0
 11
2245.467245632977
 21
448.2415391930292
 31
0.0
  0
LINE
  5
5DC
  8
回02-寸法
  6
CONTINUOUS
 62
     5
 10
2244.467245632977
 20
678.8375391930292
 30
0.0
 11
2244.467245632977
 21
450.2415391930291
 31
0.0
  0
INSERT
  5
5DD
  8
回02-寸法
  6
CONTINUOUS
 62
     5
  2
_OPEN
 10
2244.467245632977
 20
680.8375391930292
 30
0.0
 41
2.0
 42
2.0
 43
2.0
 50
90.0
  0
INSERT
  5
5DE
  8
回02-寸法
  6
CONTINUOUS
 62
     5
  2
_OPEN
 10
2244.467245632977
 20
448.2415391930292
 30
0.0
 41
2.0
 42
2.0
 43
2.0
 50
270.0
  0
TEXT
  5
5DF
  8
回02-寸法
  6
CONTINUOUS
 62
     5
 10
2243.667245632977
 20
524.6407202953914
 30
0.0
 40
6.0
  1
232.6 (VIEWING AREA)
 50
90.0
  0
POINT
  5
5E0
  8
DEFPOINTS
  6
CONTINUOUS
 62
     0
 10
2190.281245632977
 20
680.8375391930292
 30
0.0
  0
POINT
  5
5E1
  8
DEFPOINTS
  6
CONTINUOUS
 62
     0
 10
2190.281245632977
 20
448.2415391930292
 30
0.0
  0
POINT
  5
5E2
  8
DEFPOINTS
  6
CONTINUOUS
 62
     0
 10
2244.467245632977
 20
448.2415391930292
 30
0.0
  0
ENDBLK
  5
5E4
  8
回01-TP外形
  6
CONTINUOUS
 62
     7
  0
BLOCK
  8
回01-TP外形
  2
*D67
 70
     1
 10
0.0
 20
0.0
 30
0.0
  3
*D67
  1

  0
LINE
  5
5E6
  8
回02-寸法
  6
CONTINUOUS
 62
     5
 10
2188.281245632976
 20
450.2415391930291
 30
0.0
 11
2235.467245632977
 21
450.2415391930291
 31
0.0
  0
LINE
  5
5E7
  8
回02-寸法
  6
CONTINUOUS
 62
     5
 10
2188.281245632976
 20
678.8375391930292
 30
0.0
 11
2235.467245632977
 21
678.8375391930292
 31
0.0
  0
LINE
  5
5E8
  8
回02-寸法
  6
CONTINUOUS
 62
     5
 10
2234.467245632977
 20
452.2415391930292
 30
0.0
 11
2234.467245632977
 21
676.8375391930292
 31
0.0
  0
INSERT
  5
5E9
  8
回02-寸法
  6
CONTINUOUS
 62
     5
  2
_OPEN
 10
2234.467245632977
 20
450.2415391930291
 30
0.0
 41
2.0
 42
2.0
 43
2.0
 50
270.0
  0
INSERT
  5
5EA
  8
回02-寸法
  6
CONTINUOUS
 62
     5
  2
_OPEN
 10
2234.467245632977
 20
678.8375391930292
 30
0.0
 41
2.0
 42
2.0
 43
2.0
 50
90.0
  0
TEXT
  5
5EB
  8
回02-寸法
  6
CONTINUOUS
 62
     5
 10
2233.667245632977
 20
526.4407202953911
 30
0.0
 40
6.0
  1
228.6 (ACTIVE AREA)
 50
90.0
  0
POINT
  5
5EC
  8
DEFPOINTS
  6
CONTINUOUS
 62
     0
 10
2188.281245632976
 20
450.2415391930291
 30
0.0
  0
POINT
  5
5ED
  8
DEFPOINTS
  6
CONTINUOUS
 62
     0
 10
2188.281245632976
 20
678.8375391930292
 30
0.0
  0
POINT
  5
5EE
  8
DEFPOINTS
  6
CONTINUOUS
 62
     0
 10
2234.467245632977
 20
678.8375391930292
 30
0.0
  0
ENDBLK
  5
5F0
  8
回01-TP外形
  6
CONTINUOUS
 62
     7
  0
BLOCK
  8
回01-TP外形
  2
*D68
 70
     1
 10
0.0
 20
0.0
 30
0.0
  3
*D68
  1

  0
LINE
  5
5F2
  8
回02-寸法
  6
CONTINUOUS
 62
     5
 10
1871.467245632977
 20
690.5395391930292
 30
0.0
 11
1871.467245632977
 21
736.5395391930292
 31
0.0
  0
LINE
  5
5F3
  8
回02-寸法
  6
CONTINUOUS
 62
     5
 10
2199.467245632977
 20
690.5445696353353
 30
0.0
 11
2199.467245632977
 21
736.5395391930292
 31
0.0
  0
LINE
  5
5F4
  8
回02-寸法
  6
CONTINUOUS
 62
     5
 10
1873.467245632977
 20
735.5395391930292
 30
0.0
 11
2197.467245632977
 21
735.5395391930292
 31
0.0
  0
INSERT
  5
5F5
  8
回02-寸法
  6
CONTINUOUS
 62
     5
  2
_OPEN
 10
1871.467245632977
 20
735.5395391930292
 30
0.0
 41
2.0
 42
2.0
 43
2.0
 50
180.0
  0
INSERT
  5
5F6
  8
回02-寸法
  6
CONTINUOUS
 62
     5
  2
_OPEN
 10
2199.467245632977
 20
735.5395391930292
 30
0.0
 41
2.0
 42
2.0
 43
2.0
  0
INSERT
  5
5F7
  8
回02-寸法
  6
CONTINUOUS
 62
     5
 66
     1
  2
*X105
 10
0.0
 20
0.0
 30
0.0
  0
SEQEND
  5
748
  8
回01-TP外形
  6
CONTINUOUS
 62
     7
  0
POINT
  5
5F8
  8
DEFPOINTS
  6
CONTINUOUS
 62
     0
 10
1871.467245632977
 20
690.5395391930292
 30
0.0
  0
POINT
  5
5F9
  8
DEFPOINTS
  6
CONTINUOUS
 62
     0
 10
2199.467245632977
 20
690.5445696353353
 30
0.0
  0
POINT
  5
5FA
  8
DEFPOINTS
  6
CONTINUOUS
 62
     0
 10
2199.467245632977
 20
735.5395391930292
 30
0.0
  0
ENDBLK
  5
5FC
  8
回01-TP外形
  6
CONTINUOUS
 62
     7
  0
BLOCK
  8
回01-TP外形
  2
*D69
 70
     1
 10
0.0
 20
0.0
 30
0.0
  3
*D69
  1

  0
LINE
  5
5FE
  8
回02-寸法
  6
CONTINUOUS
 62
     5
 10
1881.653245632976
 20
680.8375391930292
 30
0.0
 11
1881.653245632976
 21
716.5395391930291
 31
0.0
  0
LINE
  5
5FF
  8
回02-寸法
  6
CONTINUOUS
 62
     5
 10
2190.281245632977
 20
680.8375391930292
 30
0.0
 11
2190.281245632977
 21
716.5395391930291
 31
0.0
  0
LINE
  5
600
  8
回02-寸法
  6
CONTINUOUS
 62
     5
 10
1883.653245632976
 20
715.5395391930292
 30
0.0
 11
2188.281245632976
 21
715.5395391930292
 31
0.0
  0
INSERT
  5
601
  8
回02-寸法
  6
CONTINUOUS
 62
     5
  2
_OPEN
 10
1881.653245632976
 20
715.5395391930292
 30
0.0
 41
2.0
 42
2.0
 43
2.0
 50
180.0
  0
INSERT
  5
602
  8
回02-寸法
  6
CONTINUOUS
 62
     5
  2
_OPEN
 10
2190.281245632977
 20
715.5395391930292
 30
0.0
 41
2.0
 42
2.0
 43
2.0
  0
TEXT
  5
603
  8
回02-寸法
  6
CONTINUOUS
 62
     5
 10
1993.968426735339
 20
716.3395391930292
 30
0.0
 40
6.0
  1
308.63 (VIEWING AREA)
  0
POINT
  5
604
  8
DEFPOINTS
  6
CONTINUOUS
 62
     0
 10
1881.653245632976
 20
680.8375391930292
 30
0.0
  0
POINT
  5
605
  8
DEFPOINTS
  6
CONTINUOUS
 62
     0
 10
2190.281245632977
 20
680.8375391930292
 30
0.0
  0
POINT
  5
606
  8
DEFPOINTS
  6
CONTINUOUS
 62
     0
 10
2190.281245632977
 20
715.5395391930292
 30
0.0
  0
ENDBLK
  5
608
  8
回01-TP外形
  6
CONTINUOUS
 62
     7
  0
BLOCK
  8
回01-TP外形
  2
*D70
 70
     1
 10
0.0
 20
0.0
 30
0.0
  3
*D70
  1

  0
LINE
  5
60A
  8
回02-寸法
  6
CONTINUOUS
 62
     5
 10
1883.653245632976
 20
678.8375391930292
 30
0.0
 11
1883.653245632976
 21
706.5395391930292
 31
0.0
  0
LINE
  5
60B
  8
回02-寸法
  6
CONTINUOUS
 62
     5
 10
2188.281245632976
 20
678.8375391930292
 30
0.0
 11
2188.281245632976
 21
706.5395391930292
 31
0.0
  0
LINE
  5
60C
  8
回02-寸法
  6
CONTINUOUS
 62
     5
 10
1885.653245632976
 20
705.5395391930292
 30
0.0
 11
2186.281245632977
 21
705.5395391930292
 31
0.0
  0
INSERT
  5
60D
  8
回02-寸法
  6
CONTINUOUS
 62
     5
  2
_OPEN
 10
1883.653245632976
 20
705.5395391930292
 30
0.0
 41
2.0
 42
2.0
 43
2.0
 50
180.0
  0
INSERT
  5
60E
  8
回02-寸法
  6
CONTINUOUS
 62
     5
  2
_OPEN
 10
2188.281245632976
 20
705.5395391930292
 30
0.0
 41
2.0
 42
2.0
 43
2.0
  0
TEXT
  5
60F
  8
回02-寸法
  6
CONTINUOUS
 62
     5
 10
1995.468426735339
 20
706.3395391930291
 30
0.0
 40
6.0
  1
304.63 (ACTIVE AREA)
  0
POINT
  5
610
  8
DEFPOINTS
  6
CONTINUOUS
 62
     0
 10
1883.653245632976
 20
678.8375391930292
 30
0.0
  0
POINT
  5
611
  8
DEFPOINTS
  6
CONTINUOUS
 62
     0
 10
2188.281245632976
 20
678.8375391930292
 30
0.0
  0
POINT
  5
612
  8
DEFPOINTS
  6
CONTINUOUS
 62
     0
 10
2188.281245632976
 20
705.5395391930292
 30
0.0
  0
ENDBLK
  5
614
  8
回01-TP外形
  6
CONTINUOUS
 62
     7
  0
BLOCK
  8
回01-TP外形
  2
*D71
 70
     1
 10
0.0
 20
0.0
 30
0.0
  3
*D71
  1

  0
LINE
  5
616
  8
回02-寸法
 62
     5
 10
1791.967202122209
 20
567.6645391930292
 30
0.0
 11
1780.024157074038
 21
567.6645391930292
 31
0.0
  0
LINE
  5
617
  8
回02-寸法
 62
     5
 10
1791.967202122209
 20
561.4145391930292
 30
0.0
 11
1780.024157074038
 21
561.4145391930292
 31
0.0
  0
LINE
  5
618
  8
回02-寸法
 62
     5
 10
1781.024157074038
 20
569.6645391930291
 30
0.0
 11
1781.024157074038
 21
595.9206551273084
 31
0.0
  0
LINE
  5
619
  8
回02-寸法
 62
     5
 10
1781.024157074038
 20
567.6645391930292
 30
0.0
 11
1781.024157074038
 21
561.4145391930292
 31
0.0
  0
LINE
  5
61A
  8
回02-寸法
 62
     5
 10
1781.024157074038
 20
559.4145391930291
 30
0.0
 11
1781.024157074038
 21
557.4145391930292
 31
0.0
  0
INSERT
  5
61B
  8
回02-寸法
  6
CONTINUOUS
 62
     5
  2
_OPEN
 10
1781.024157074038
 20
567.6645391930292
 30
0.0
 41
2.0
 42
2.0
 43
2.0
 50
270.0
  0
INSERT
  5
61C
  8
回02-寸法
  6
CONTINUOUS
 62
     5
  2
_OPEN
 10
1781.024157074038
 20
561.4145391930292
 30
0.0
 41
2.0
 42
2.0
 43
2.0
 50
90.0
  0
INSERT
  5
61D
  8
回02-寸法
  6
CONTINUOUS
 62
     5
 66
     1
  2
*X106
 10
0.0
 20
0.0
 30
0.0
  0
SEQEND
  5
74E
  8
回01-TP外形
  6
CONTINUOUS
 62
     7
  0
POINT
  5
61E
  8
DEFPOINTS
  6
CONTINUOUS
 62
     0
 10
1791.967202122209
 20
567.6645391930292
 30
0.0
  0
POINT
  5
61F
  8
DEFPOINTS
  6
CONTINUOUS
 62
     0
 10
1791.967202122209
 20
561.4145391930292
 30
0.0
  0
POINT
  5
620
  8
DEFPOINTS
  6
CONTINUOUS
 62
     0
 10
1781.024157074038
 20
561.4145391930292
 30
0.0
  0
ENDBLK
  5
622
  8
回01-TP外形
  6
CONTINUOUS
 62
     7
  0
BLOCK
  8
回01-TP外形
  2
*D72
 70
     1
 10
0.0
 20
0.0
 30
0.0
  3
*D72
  1

  0
LINE
  5
624
  8
回02-寸法
  6
CONTINUOUS
 62
     5
 10
1871.467202122208
 20
553.6684713811633
 30
0.0
 11
1871.467202122208
 21
532.003305256422
 31
0.0
  0
LINE
  5
625
  8
回02-寸法
  6
CONTINUOUS
 62
     5
 10
1861.971314512949
 20
561.3213497368207
 30
0.0
 11
1861.971314512949
 21
532.003305256422
 31
0.0
  0
LINE
  5
626
  8
回02-寸法
  6
CONTINUOUS
 62
     5
 10
1859.971314512949
 20
533.0033052564219
 30
0.0
 11
1848.322786375526
 21
533.0033052564219
 31
0.0
  0
LINE
  5
627
  8
回02-寸法
  6
CONTINUOUS
 62
     5
 10
1871.467202122208
 20
533.0033052564219
 30
0.0
 11
1861.971314512949
 21
533.0033052564219
 31
0.0
  0
LINE
  5
628
  8
回02-寸法
  6
CONTINUOUS
 62
     5
 10
1873.467202122208
 20
533.0033052564219
 30
0.0
 11
1875.467202122208
 21
533.0033052564219
 31
0.0
  0
INSERT
  5
629
  8
回02-寸法
  6
CONTINUOUS
 62
     5
  2
_OPEN
 10
1871.467202122208
 20
533.0033052564219
 30
0.0
 41
2.0
 42
2.0
 43
2.0
 50
180.0
  0
INSERT
  5
62A
  8
回02-寸法
  6
CONTINUOUS
 62
     5
  2
_OPEN
 10
1861.971314512949
 20
533.0033052564219
 30
0.0
 41
2.0
 42
2.0
 43
2.0
  0
TEXT
  5
62B
  8
回02-寸法
  6
CONTINUOUS
 62
     5
 10
1847.901124164364
 20
533.5033052564219
 30
0.0
 40
6.0
  1
9.5
  0
POINT
  5
62C
  8
DEFPOINTS
  6
CONTINUOUS
 62
     0
 10
1871.467202122208
 20
553.6684713811633
 30
0.0
  0
POINT
  5
62D
  8
DEFPOINTS
  6
CONTINUOUS
 62
     0
 10
1861.971314512949
 20
561.3213497368207
 30
0.0
  0
POINT
  5
62E
  8
DEFPOINTS
  6
CONTINUOUS
 62
     0
 10
1861.971314512949
 20
533.0033052564219
 30
0.0
  0
ENDBLK
  5
630
  8
回01-TP外形
  6
CONTINUOUS
 62
     7
  0
BLOCK
  8
回01-TP外形
  2
*D73
 70
     1
 10
0.0
 20
0.0
 30
0.0
  3
*D73
  1

  0
LINE
  5
632
  8
回02-寸法
  6
CONTINUOUS
 62
     5
 10
1867.279489310317
 20
556.5395391930292
 30
0.0
 11
1845.306381341465
 21
556.5395391930292
 31
0.0
  0
LINE
  5
633
  8
回02-寸法
  6
CONTINUOUS
 62
     5
 10
1867.275315724611
 20
572.5383361587573
 30
0.0
 11
1845.306381341465
 21
572.5383361587573
 31
0.0
  0
LINE
  5
634
  8
回02-寸法
  6
CONTINUOUS
 62
     5
 10
1846.306381341465
 20
554.5395391930291
 30
0.0
 11
1846.306381341465
 21
545.9882152100893
 31
0.0
  0
LINE
  5
635
  8
回02-寸法
  6
CONTINUOUS
 62
     5
 10
1846.306381341465
 20
556.5395391930292
 30
0.0
 11
1846.306381341465
 21
572.5383361587573
 31
0.0
  0
LINE
  5
636
  8
回02-寸法
  6
CONTINUOUS
 62
     5
 10
1846.306381341465
 20
574.5383361587573
 30
0.0
 11
1846.306381341465
 21
576.5383361587574
 31
0.0
  0
INSERT
  5
637
  8
回02-寸法
  6
CONTINUOUS
 62
     5
  2
_OPEN
 10
1846.306381341465
 20
556.5395391930292
 30
0.0
 41
2.0
 42
2.0
 43
2.0
 50
90.0
  0
INSERT
  5
638
  8
回02-寸法
  6
CONTINUOUS
 62
     5
  2
_OPEN
 10
1846.306381341465
 20
572.5383361587573
 30
0.0
 41
2.0
 42
2.0
 43
2.0
 50
270.0
  0
TEXT
  5
639
  8
回02-寸法
  6
CONTINUOUS
 62
     5
 10
1845.806381341465
 20
545.5882152100891
 30
0.0
 40
6.0
  1
16
 50
90.0
  0
POINT
  5
63A
  8
DEFPOINTS
  6
CONTINUOUS
 62
     0
 10
1867.279489310317
 20
556.5395391930292
 30
0.0
  0
POINT
  5
63B
  8
DEFPOINTS
  6
CONTINUOUS
 62
     0
 10
1867.275315724611
 20
572.5383361587573
 30
0.0
  0
POINT
  5
63C
  8
DEFPOINTS
  6
CONTINUOUS
 62
     0
 10
1846.306381341465
 20
572.5383361587573
 30
0.0
  0
ENDBLK
  5
63E
  8
回01-TP外形
  6
CONTINUOUS
 62
     7
  0
BLOCK
  8
回01-TP外形
  2
*D74
 70
     1
 10
0.0
 20
0.0
 30
0.0
  3
*D74
  1

  0
LINE
  5
640
  8
回02-寸法
  6
CONTINUOUS
 62
     5
 10
1871.467245632977
 20
438.5395391930292
 30
0.0
 11
1780.024157074038
 21
438.5395391930292
 31
0.0
  0
LINE
  5
641
  8
回02-寸法
  6
CONTINUOUS
 62
     5
 10
1791.967202122209
 20
561.4145391930292
 30
0.0
 11
1780.024157074038
 21
561.4145391930292
 31
0.0
  0
LINE
  5
642
  8
回02-寸法
  6
CONTINUOUS
 62
     5
 10
1781.024157074038
 20
440.5395391930292
 30
0.0
 11
1781.024157074038
 21
559.4145391930291
 31
0.0
  0
INSERT
  5
643
  8
回02-寸法
  6
CONTINUOUS
 62
     5
  2
_OPEN
 10
1781.024157074038
 20
438.5395391930292
 30
0.0
 41
2.0
 42
2.0
 43
2.0
 50
270.0
  0
INSERT
  5
644
  8
回02-寸法
  6
CONTINUOUS
 62
     5
  2
_OPEN
 10
1781.024157074038
 20
561.4145391930292
 30
0.0
 41
2.0
 42
2.0
 43
2.0
 50
90.0
  0
TEXT
  5
645
  8
回02-寸法
  6
CONTINUOUS
 62
     5
 10
1780.224157074038
 20
486.7770391930293
 30
0.0
 40
6.0
  1
(122.88)
 50
90.0
  0
POINT
  5
646
  8
DEFPOINTS
  6
CONTINUOUS
 62
     0
 10
1871.467245632977
 20
438.5395391930292
 30
0.0
  0
POINT
  5
647
  8
DEFPOINTS
  6
CONTINUOUS
 62
     0
 10
1791.967202122209
 20
561.4145391930292
 30
0.0
  0
POINT
  5
648
  8
DEFPOINTS
  6
CONTINUOUS
 62
     0
 10
1781.024157074038
 20
561.4145391930292
 30
0.0
  0
ENDBLK
  5
64A
  8
回01-TP外形
  6
CONTINUOUS
 62
     7
  0
BLOCK
  8
回01-TP外形
  2
*D75
 70
     1
 10
0.0
 20
0.0
 30
0.0
  3
*D75
  1

  0
LINE
  5
64C
  8
回02-寸法
  6
CONTINUOUS
 62
     5
 10
2071.967245632977
 20
528.5395391930292
 30
0.0
 11
2071.967245632977
 21
519.5452544226981
 31
0.0
  0
LINE
  5
64D
  8
回02-寸法
  6
CONTINUOUS
 62
     5
 10
2067.967245632977
 20
528.5395391930292
 30
0.0
 11
2067.967245632977
 21
519.5452544226981
 31
0.0
  0
LINE
  5
64E
  8
回02-寸法
  6
CONTINUOUS
 62
     5
 10
2065.967245632977
 20
520.5452544226981
 30
0.0
 11
2059.967245632977
 21
520.5452544226981
 31
0.0
  0
LINE
  5
64F
  8
回02-寸法
  6
CONTINUOUS
 62
     5
 10
2071.967245632977
 20
520.5452544226981
 30
0.0
 11
2067.967245632977
 21
520.5452544226981
 31
0.0
  0
LINE
  5
650
  8
回02-寸法
  6
CONTINUOUS
 62
     5
 10
2073.967245632977
 20
520.5452544226981
 30
0.0
 11
2075.967245632977
 21
520.5452544226981
 31
0.0
  0
INSERT
  5
651
  8
回02-寸法
  6
CONTINUOUS
 62
     5
  2
_OPEN
 10
2071.967245632977
 20
520.5452544226981
 30
0.0
 41
2.0
 42
2.0
 43
2.0
 50
180.0
  0
INSERT
  5
652
  8
回02-寸法
  6
CONTINUOUS
 62
     5
  2
_OPEN
 10
2067.967245632977
 20
520.5452544226981
 30
0.0
 41
2.0
 42
2.0
 43
2.0
  0
TEXT
  5
653
  8
回02-寸法
  6
CONTINUOUS
 62
     5
 10
2059.567245632976
 20
521.045254422698
 30
0.0
 40
6.0
  1
4
  0
POINT
  5
654
  8
DEFPOINTS
  6
CONTINUOUS
 62
     0
 10
2071.967245632977
 20
528.5395391930292
 30
0.0
  0
POINT
  5
655
  8
DEFPOINTS
  6
CONTINUOUS
 62
     0
 10
2067.967245632977
 20
528.5395391930292
 30
0.0
  0
POINT
  5
656
  8
DEFPOINTS
  6
CONTINUOUS
 62
     0
 10
2067.967245632977
 20
520.5452544226981
 30
0.0
  0
ENDBLK
  5
658
  8
回01-TP外形
  6
CONTINUOUS
 62
     7
  0
BLOCK
  8
回01-TP外形
  2
*D76
 70
     1
 10
0.0
 20
0.0
 30
0.0
  3
*D76
  1

  0
LINE
  5
65A
  8
回02-寸法
  6
CONTINUOUS
 62
     5
 10
2071.967245632977
 20
528.5395391930292
 30
0.0
 11
2083.356789290673
 21
528.5395391930292
 31
0.0
  0
LINE
  5
65B
  8
回02-寸法
  6
CONTINUOUS
 62
     5
 10
2071.967245632977
 20
532.5395391930292
 30
0.0
 11
2083.356789290673
 21
532.5395391930292
 31
0.0
  0
LINE
  5
65C
  8
回02-寸法
  6
CONTINUOUS
 62
     5
 10
2082.356789290673
 20
534.5395391930292
 30
0.0
 11
2082.356789290673
 21
540.5395391930292
 31
0.0
  0
LINE
  5
65D
  8
回02-寸法
  6
CONTINUOUS
 62
     5
 10
2082.356789290673
 20
528.5395391930292
 30
0.0
 11
2082.356789290673
 21
532.5395391930292
 31
0.0
  0
LINE
  5
65E
  8
回02-寸法
  6
CONTINUOUS
 62
     5
 10
2082.356789290673
 20
526.5395391930292
 30
0.0
 11
2082.356789290673
 21
524.5395391930292
 31
0.0
  0
INSERT
  5
65F
  8
回02-寸法
  6
CONTINUOUS
 62
     5
  2
_OPEN
 10
2082.356789290673
 20
528.5395391930292
 30
0.0
 41
2.0
 42
2.0
 43
2.0
 50
90.0
  0
INSERT
  5
660
  8
回02-寸法
  6
CONTINUOUS
 62
     5
  2
_OPEN
 10
2082.356789290673
 20
532.5395391930292
 30
0.0
 41
2.0
 42
2.0
 43
2.0
 50
270.0
  0
TEXT
  5
661
  8
回02-寸法
  6
CONTINUOUS
 62
     5
 10
2081.856789290673
 20
536.1395391930291
 30
0.0
 40
6.0
  1
4
 50
90.0
  0
POINT
  5
662
  8
DEFPOINTS
  6
CONTINUOUS
 62
     0
 10
2071.967245632977
 20
528.5395391930292
 30
0.0
  0
POINT
  5
663
  8
DEFPOINTS
  6
CONTINUOUS
 62
     0
 10
2071.967245632977
 20
532.5395391930292
 30
0.0
  0
POINT
  5
664
  8
DEFPOINTS
  6
CONTINUOUS
 62
     0
 10
2082.356789290673
 20
532.5395391930292
 30
0.0
  0
ENDBLK
  5
666
  8
回01-TP外形
  6
CONTINUOUS
 62
     7
  0
BLOCK
  8
回01-TP外形
  2
*X77
 70
     1
 10
0.0
 20
0.0
 30
0.0
  3
*X77
  1

  0
INSERT
  5
671
  8
回03-記事
  6
CONTINUOUS
 62
     5
  2
_OPEN
 10
1793.887364973874
 20
364.6907420703823
 30
0.0
 41
2.0
 42
2.0
 43
2.0
 50
327.2837633123714
  0
LINE
  5
672
  8
回03-記事
  6
CONTINUOUS
 62
     5
 10
1792.204649668115
 20
365.771699608755
 30
0.0
 11
1785.422800575626
 21
370.1282838007113
 31
0.0
  0
LINE
  5
673
  8
回03-記事
  6
CONTINUOUS
 62
     5
 10
1785.422800575626
 20
370.1282838007113
 30
0.0
 11
1751.312800575626
 21
370.1282838007113
 31
0.0
  0
ENDBLK
  5
675
  8
回01-TP外形
  6
CONTINUOUS
 62
     7
  0
BLOCK
  8
回01-TP外形
  2
*X78
 70
     1
 10
0.0
 20
0.0
 30
0.0
  3
*X78
  1

  0
INSERT
  5
678
  8
回03-記事
  6
CONTINUOUS
 62
     5
  2
_OPEN
 10
1794.081206954098
 20
567.6557300989466
 30
0.0
 41
2.0
 42
2.0
 43
2.0
 50
236.6265780747896
  0
LINE
  5
679
  8
回03-記事
  6
CONTINUOUS
 62
     5
 10
1795.181393785882
 20
569.3259363542245
 30
0.0
 11
1797.941380086587
 21
573.5159032314355
 31
0.0
  0
LINE
  5
67A
  8
回03-記事
  6
CONTINUOUS
 62
     5
 10
1797.941380086587
 20
573.5159032314355
 30
0.0
 11
1800.441380086587
 21
573.5159032314355
 31
0.0
  0
ENDBLK
  5
67C
  8
回01-TP外形
  6
CONTINUOUS
 62
     7
  0
BLOCK
  8
回01-TP外形
  2
*X79
 70
     1
 10
0.0
 20
0.0
 30
0.0
  3
*X79
  1

  0
INSERT
  5
67F
  8
回03-記事
  6
CONTINUOUS
 62
     5
  2
_OPEN
 10
1870.025506872246
 20
559.0164492637341
 30
0.0
 41
2.0
 42
2.0
 43
2.0
 50
76.23386948954887
  0
LINE
  5
680
  8
回03-記事
  6
CONTINUOUS
 62
     5
 10
1869.549588181569
 20
557.0738990327583
 30
0.0
 11
1860.179612987833
 21
518.8286108493321
 31
0.0
  0
LINE
  5
681
  8
回03-記事
  6
CONTINUOUS
 62
     5
 10
1860.179612987833
 20
518.8286108493321
 30
0.0
 11
1814.479612987833
 21
518.8286108493321
 31
0.0
  0
ENDBLK
  5
683
  8
回01-TP外形
  6
CONTINUOUS
 62
     7
  0
BLOCK
  8
回01-TP外形
  2
*X80
 70
     1
 10
0.0
 20
0.0
 30
0.0
  3
*X80
  1

  0
SOLID
  5
686
  8
回02-寸法
  6
CONTINUOUS
 62
     5
 10
1870.992222962124
 20
575.297598908672
 30
0.0
 11
1871.580320251163
 21
573.35717300446
 31
0.0
 12
1870.39468468449
 22
575.0019767660535
 32
0.0
 13
1870.39468468449
 23
575.0019767660535
 33
0.0
  0
LINE
  5
687
  8
回02-寸法
  6
CONTINUOUS
 62
     5
 10
1870.693453823307
 20
575.1497878373627
 30
0.0
 11
1867.087287918941
 21
582.4388973210843
 31
0.0
  0
LINE
  5
688
  8
回02-寸法
  6
CONTINUOUS
 62
     5
 10
1867.087287918941
 20
582.4388973210843
 30
0.0
 11
1864.587287918941
 21
582.4388973210843
 31
0.0
  0
ENDBLK
  5
68A
  8
回01-TP外形
  6
CONTINUOUS
 62
     7
  0
BLOCK
  8
回01-TP外形
  2
*X81
 70
     1
 10
0.0
 20
0.0
 30
0.0
  3
*X81
  1

  0
SOLID
  5
68D
  8
回02-寸法
  6
CONTINUOUS
 62
     5
 10
1861.36518217814
 20
569.6853419888343
 30
0.0
 11
1861.937722942681
 21
567.7402691922402
 31
0.0
 12
1860.765295907057
 22
569.3945140221406
 32
0.0
 13
1860.765295907057
 23
569.3945140221406
 33
0.0
  0
LINE
  5
68E
  8
回02-寸法
  6
CONTINUOUS
 62
     5
 10
1861.065239042599
 20
569.5399280054874
 30
0.0
 11
1856.81605701198
 21
578.3046489244407
 31
0.0
  0
LINE
  5
68F
  8
回02-寸法
  6
CONTINUOUS
 62
     5
 10
1856.81605701198
 20
578.3046489244407
 30
0.0
 11
1854.31605701198
 21
578.3046489244407
 31
0.0
  0
ENDBLK
  5
691
  8
回01-TP外形
  6
CONTINUOUS
 62
     7
  0
BLOCK
  8
回01-TP外形
  2
*X82
 70
     1
 10
0.0
 20
0.0
 30
0.0
  3
*X82
  1

  0
SOLID
  5
694
  8
回02-寸法
 62
     5
 10
1738.371941431454
 20
654.8304917413767
 30
0.0
 11
1738.981684576604
 21
653.437396878511
 31
0.0
 12
1737.953085970262
 22
654.5574347827948
 32
0.0
 13
1737.953085970262
 23
654.5574347827948
 33
0.0
  0
LINE
  5
695
  8
回02-寸法
 62
     5
 10
1738.162513700858
 20
654.6939632620857
 30
0.0
 11
1735.044678602802
 21
659.476563437149
 31
0.0
  0
LINE
  5
696
  8
回02-寸法
 62
     5
 10
1735.044678602802
 20
659.476563437149
 30
0.0
 11
1733.044678602802
 21
659.476563437149
 31
0.0
  0
ENDBLK
  5
698
  8
回01-TP外形
  6
CONTINUOUS
 62
     7
  0
BLOCK
  8
回01-TP外形
  2
*X83
 70
     1
 10
0.0
 20
0.0
 30
0.0
  3
*X83
  1

  0
LINE
  5
6A7
  8
回03-記事
  6
CONTINUOUS
 62
     7
 10
1867.367245632977
 20
561.2083823655653
 30
0.0
 11
1869.448402460441
 21
563.2895391930292
 31
0.0
  0
LINE
  5
6A8
  8
回03-記事
  6
CONTINUOUS
 62
     7
 10
1867.367245632977
 20
558.9633183352982
 30
0.0
 11
1871.693466490708
 21
563.2895391930289
 31
0.0
  0
LINE
  5
6A9
  8
回03-記事
  6
CONTINUOUS
 62
     7
 10
1867.938530520975
 20
557.2895391930293
 30
0.0
 11
1873.938530520975
 21
563.2895391930291
 31
0.0
  0
LINE
  5
6AA
  8
回03-記事
  6
CONTINUOUS
 62
     7
 10
1870.183594551242
 20
557.289539193029
 30
0.0
 11
1875.567245632976
 21
562.6731902747634
 31
0.0
  0
LINE
  5
6AB
  8
回03-記事
  6
CONTINUOUS
 62
     7
 10
1872.42865858151
 20
557.2895391930293
 30
0.0
 11
1875.567245632976
 21
560.4281262444962
 31
0.0
  0
LINE
  5
6AC
  8
回03-記事
  6
CONTINUOUS
 62
     7
 10
1874.673722611777
 20
557.289539193029
 30
0.0
 11
1875.567245632977
 21
558.1830622142292
 31
0.0
  0
ENDBLK
  5
6AE
  8
回01-TP外形
  6
CONTINUOUS
 62
     7
  0
BLOCK
  8
回01-TP外形
  2
*X84
 70
     1
 10
0.0
 20
0.0
 30
0.0
  3
*X84
  1

  0
SOLID
  5
6BB
  8
回02-寸法
  6
CONTINUOUS
 62
     5
 10
2073.216395608106
 20
542.1366413972558
 30
0.0
 11
2071.967245632977
 21
540.5395391930292
 31
0.0
 12
2072.630894894566
 22
542.4554412700423
 32
0.0
 13
2072.630894894566
 23
542.4554412700423
 33
0.0
  0
LINE
  5
6BC
  8
回02-寸法
  6
CONTINUOUS
 62
     5
 10
2072.923645251336
 20
542.2960413336491
 30
0.0
 11
2076.481250117783
 21
548.8298588336115
 31
0.0
  0
LINE
  5
6BD
  8
回02-寸法
  6
CONTINUOUS
 62
     5
 10
2076.481250117783
 20
548.8298588336115
 30
0.0
 11
2098.481250117782
 21
548.8298588336115
 31
0.0
  0
ENDBLK
  5
6BF
  8
回01-TP外形
  6
CONTINUOUS
 62
     7
  0
BLOCK
  8
回01-TP外形
  2
*X85
 70
     1
 10
0.0
 20
0.0
 30
0.0
  3
*X85
  1

  0
TEXT
  5
6CC
  8
回02-寸法
 62
     5
 10
1922.523566522857
 20
704.5697264083553
 30
0.0
 40
6.0
  1
6.25
 50
90.0
  0
TEXT
  5
6CD
  8
回02-寸法
 62
     5
 10
1922.523566522857
 20
718.9697264083554
 30
0.0
 40
4.2
  1
±0.2
 50
90.0
  0
ENDBLK
  5
6CF
  8
回01-TP外形
  6
CONTINUOUS
 62
     7
  0
BLOCK
  8
回01-TP外形
  2
*X86
 70
     1
 10
0.0
 20
0.0
 30
0.0
  3
*X86
  1

  0
TEXT
  5
6D2
  8
回02-寸法
  6
CONTINUOUS
 62
     5
 10
2166.492245632977
 20
869.0395391930293
 30
0.0
 40
6.0
  1
328
  0
TEXT
  5
6D3
  8
回02-寸法
  6
CONTINUOUS
 62
     5
 10
2179.092245632977
 20
869.0395391930293
 30
0.0
 40
4.2
  1
±0.3
  0
ENDBLK
  5
6D5
  8
回01-TP外形
  6
CONTINUOUS
 62
     7
  0
BLOCK
  8
回01-TP外形
  2
*X87
 70
     1
 10
0.0
 20
0.0
 30
0.0
  3
*X87
  1

  0
TEXT
  5
6D8
  8
回02-寸法
  6
CONTINUOUS
 62
     5
 10
2405.967245632977
 20
681.5645391930293
 30
0.0
 40
6.0
  1
252.01
 50
90.0
  0
TEXT
  5
6D9
  8
回02-寸法
  6
CONTINUOUS
 62
     5
 10
2405.967245632977
 20
703.1645391930291
 30
0.0
 40
4.2
  1
±0.3
 50
90.0
  0
ENDBLK
  5
6DB
  8
回01-TP外形
  6
CONTINUOUS
 62
     7
  0
BLOCK
  8
回01-TP外形
  2
*X88
 70
     1
 10
0.0
 20
0.0
 30
0.0
  3
*X88
  1

  0
TEXT
  5
6DE
  8
回02-寸法
  6
CONTINUOUS
 62
     5
 10
2395.717255632982
 20
507.0593359070644
 30
0.0
 40
6.0
  1
8.9
 50
90.0
  0
TEXT
  5
6DF
  8
回02-寸法
  6
CONTINUOUS
 62
     5
 10
2395.717255632982
 20
517.2809981182263
 30
0.0
 40
4.9998
  1
(Insulation Area)
 50
90.0
  0
ENDBLK
  5
6E1
  8
回01-TP外形
  6
CONTINUOUS
 62
     7
  0
BLOCK
  8
回01-TP外形
  2
*X89
 70
     1
 10
0.0
 20
0.0
 30
0.0
  3
*X89
  1

  0
TEXT
  5
6E4
  8
回02-寸法
  6
CONTINUOUS
 62
     5
 10
1922.658116050802
 20
464.3824302510913
 30
0.0
 40
6.0
  1
0.3
 50
90.0
  0
TEXT
  5
6E5
  8
回02-寸法
  6
CONTINUOUS
 62
     5
 10
1922.658116050802
 20
474.5824302510913
 30
0.0
 40
4.5
  1
±0.05
 50
90.0
  0
ENDBLK
  5
6E7
  8
回01-TP外形
  6
CONTINUOUS
 62
     7
  0
BLOCK
  8
回01-TP外形
  2
*X90
 70
     1
 10
0.0
 20
0.0
 30
0.0
  3
*X90
  1

  0
TEXT
  5
6EA
  8
回02-寸法
  6
CONTINUOUS
 62
     5
 10
2353.843042669288
 20
467.6138167982364
 30
0.0
 40
6.0
  1
2.1
 50
90.0
  0
TEXT
  5
6EB
  8
回02-寸法
  6
CONTINUOUS
 62
     5
 10
2353.843042669288
 20
476.6138167982364
 30
0.0
 40
4.5
  1
±0.2
 50
90.0
  0
ENDBLK
  5
6ED
  8
回01-TP外形
  6
CONTINUOUS
 62
     7
  0
BLOCK
  8
回01-TP外形
  2
*X91
 70
     1
 10
0.0
 20
0.0
 30
0.0
  3
*X91
  1

  0
TEXT
  5
6F0
  8
回02-寸法
  6
CONTINUOUS
 62
     5
 10
1964.713748581882
 20
738.694567525283
 30
0.0
 40
6.0
  1
80
  0
TEXT
  5
6F1
  8
回02-寸法
  6
CONTINUOUS
 62
     5
 10
1973.113748581882
 20
738.694567525283
 30
0.0
 40
4.2
  1
±1
  0
ENDBLK
  5
6F3
  8
回01-TP外形
  6
CONTINUOUS
 62
     7
  0
BLOCK
  8
回01-TP外形
  2
*X92
 70
     1
 10
0.0
 20
0.0
 30
0.0
  3
*X92
  1

  0
TEXT
  5
6F6
  8
回02-寸法
  6
CONTINUOUS
 62
     5
 10
1842.589307373436
 20
743.0977299617907
 30
0.0
 40
6.0
  1
6.25
 50
90.0
  0
TEXT
  5
6F7
  8
回02-寸法
  6
CONTINUOUS
 62
     5
 10
1842.589307373436
 20
757.4977299617907
 30
0.0
 40
4.000199999999999
  1
±0.2
 50
90.0
  0
ENDBLK
  5
6F9
  8
回01-TP外形
  6
CONTINUOUS
 62
     7
  0
BLOCK
  8
回01-TP外形
  2
*X93
 70
     1
 10
0.0
 20
0.0
 30
0.0
  3
*X93
  1

  0
TEXT
  5
6FC
  8
回02-寸法
  6
CONTINUOUS
 62
     5
 10
1860.349494591651
 20
745.4976190623187
 30
0.0
 40
6.0
  1
1.25
 50
90.0
  0
TEXT
  5
6FD
  8
回02-寸法
  6
CONTINUOUS
 62
     5
 10
1860.349494591651
 20
758.6976190623188
 30
0.0
 40
4.999979999999999
  1
±0.2
 50
90.0
  0
ENDBLK
  5
6FF
  8
回01-TP外形
  6
CONTINUOUS
 62
     7
  0
BLOCK
  8
回01-TP外形
  2
*X94
 70
     1
 10
0.0
 20
0.0
 30
0.0
  3
*X94
  1

  0
TEXT
  5
702
  8
回02-寸法
  6
CONTINUOUS
 62
     5
 10
1851.882630948258
 20
746.3602353662129
 30
0.0
 40
6.0
  1
3.75
 50
90.0
  0
TEXT
  5
703
  8
回02-寸法
  6
CONTINUOUS
 62
     5
 10
1851.882630948258
 20
760.760235366213
 30
0.0
 40
4.00002
  1
±0.1
 50
90.0
  0
ENDBLK
  5
705
  8
回01-TP外形
  6
CONTINUOUS
 62
     7
  0
BLOCK
  8
回01-TP外形
  2
*X95
 70
     1
 10
0.0
 20
0.0
 30
0.0
  3
*X95
  1

  0
TEXT
  5
708
  8
回02-寸法
  6
CONTINUOUS
 62
     5
 10
1869.720046546092
 20
740.7492739062127
 30
0.0
 40
6.0
  1
4-0.7
 50
90.0
  0
TEXT
  5
709
  8
回02-寸法
  6
CONTINUOUS
 62
     5
 10
1869.720046546092
 20
759.9492739062127
 30
0.0
 40
4.5
  1
±0.1
 50
90.0
  0
ENDBLK
  5
70B
  8
回01-TP外形
  6
CONTINUOUS
 62
     7
  0
BLOCK
  8
回01-TP外形
  2
*X96
 70
     1
 10
0.0
 20
0.0
 30
0.0
  3
*X96
  1

  0
TEXT
  5
70E
  8
回02-寸法
  6
CONTINUOUS
 62
     5
 10
1727.720046546091
 20
607.7492739062127
 30
0.0
 40
6.0
  1
4-0.7
 50
90.0
  0
TEXT
  5
70F
  8
回02-寸法
  6
CONTINUOUS
 62
     5
 10
1727.720046546091
 20
626.9492739062127
 30
0.0
 40
4.5
  1
±0.1
 50
90.0
  0
ENDBLK
  5
711
  8
回01-TP外形
  6
CONTINUOUS
 62
     7
  0
BLOCK
  8
回01-TP外形
  2
*X97
 70
     1
 10
0.0
 20
0.0
 30
0.0
  3
*X97
  1

  0
TEXT
  5
714
  8
回02-寸法
  6
CONTINUOUS
 62
     5
 10
1709.882630948257
 20
613.3602353662129
 30
0.0
 40
6.0
  1
3.75
 50
90.0
  0
TEXT
  5
715
  8
回02-寸法
  6
CONTINUOUS
 62
     5
 10
1709.882630948257
 20
627.760235366213
 30
0.0
 40
4.00002
  1
±0.1
 50
90.0
  0
ENDBLK
  5
717
  8
回01-TP外形
  6
CONTINUOUS
 62
     7
  0
BLOCK
  8
回01-TP外形
  2
*X98
 70
     1
 10
0.0
 20
0.0
 30
0.0
  3
*X98
  1

  0
TEXT
  5
71A
  8
回02-寸法
  6
CONTINUOUS
 62
     5
 10
1718.350085142832
 20
612.4976190623187
 30
0.0
 40
6.0
  1
1.25
 50
90.0
  0
TEXT
  5
71B
  8
回02-寸法
  6
CONTINUOUS
 62
     5
 10
1718.350085142832
 20
625.6976190623188
 30
0.0
 40
4.999979999999999
  1
±0.2
 50
90.0
  0
ENDBLK
  5
71D
  8
回01-TP外形
  6
CONTINUOUS
 62
     7
  0
BLOCK
  8
回01-TP外形
  2
*X99
 70
     1
 10
0.0
 20
0.0
 30
0.0
  3
*X99
  1

  0
TEXT
  5
720
  8
回02-寸法
  6
CONTINUOUS
 62
     5
 10
1700.589897924618
 20
610.3969393677551
 30
0.0
 40
6.0
  1
6.25
 50
90.0
  0
TEXT
  5
721
  8
回02-寸法
  6
CONTINUOUS
 62
     5
 10
1700.589897924618
 20
624.7969393677551
 30
0.0
 40
4.000199999999999
  1
±0.2
 50
90.0
  0
ENDBLK
  5
723
  8
回01-TP外形
  6
CONTINUOUS
 62
     7
  0
BLOCK
  8
回01-TP外形
  2
*X100
 70
     1
 10
0.0
 20
0.0
 30
0.0
  3
*X100
  1

  0
TEXT
  5
726
  8
回02-寸法
  6
CONTINUOUS
 62
     5
 10
1822.713748581881
 20
605.694567525283
 30
0.0
 40
6.0
  1
80
  0
TEXT
  5
727
  8
回02-寸法
  6
CONTINUOUS
 62
     5
 10
1831.113748581882
 20
605.694567525283
 30
0.0
 40
4.2
  1
±1
  0
ENDBLK
  5
729
  8
回01-TP外形
  6
CONTINUOUS
 62
     7
  0
BLOCK
  8
回01-TP外形
  2
*X101
 70
     1
 10
0.0
 20
0.0
 30
0.0
  3
*X101
  1

  0
TEXT
  5
72C
  8
回02-寸法
  6
CONTINUOUS
 62
     5
 10
2211.84363322047
 20
334.8246332466047
 30
0.0
 40
6.0
  1
2.1
 50
90.0
  0
TEXT
  5
72D
  8
回02-寸法
  6
CONTINUOUS
 62
     5
 10
2211.84363322047
 20
343.8246332466047
 30
0.0
 40
4.5
  1
±0.2
 50
90.0
  0
ENDBLK
  5
72F
  8
回01-TP外形
  6
CONTINUOUS
 62
     7
  0
BLOCK
  8
回01-TP外形
  2
*X102
 70
     1
 10
0.0
 20
0.0
 30
0.0
  3
*X102
  1

  0
TEXT
  5
732
  8
回02-寸法
  6
CONTINUOUS
 62
     5
 10
1780.658116050801
 20
331.3824302510913
 30
0.0
 40
6.0
  1
0.3
 50
90.0
  0
TEXT
  5
733
  8
回02-寸法
  6
CONTINUOUS
 62
     5
 10
1780.658116050801
 20
341.5824302510914
 30
0.0
 40
4.5
  1
±0.05
 50
90.0
  0
ENDBLK
  5
735
  8
回01-TP外形
  6
CONTINUOUS
 62
     7
  0
BLOCK
  8
回01-TP外形
  2
*X103
 70
     1
 10
0.0
 20
0.0
 30
0.0
  3
*X103
  1

  0
TEXT
  5
738
  8
回02-寸法
  6
CONTINUOUS
 62
     5
 10
2253.717255632981
 20
374.0593359070644
 30
0.0
 40
6.0
  1
8.9
 50
90.0
  0
TEXT
  5
739
  8
回02-寸法
  6
CONTINUOUS
 62
     5
 10
2253.717255632981
 20
384.2809981182263
 30
0.0
 40
4.9998
  1
(Insulation Area)
 50
90.0
  0
ENDBLK
  5
73B
  8
回01-TP外形
  6
CONTINUOUS
 62
     7
  0
BLOCK
  8
回01-TP外形
  2
*X104
 70
     1
 10
0.0
 20
0.0
 30
0.0
  3
*X104
  1

  0
TEXT
  5
73E
  8
回02-寸法
  6
CONTINUOUS
 62
     5
 10
2263.967245632977
 20
548.5645391930293
 30
0.0
 40
6.0
  1
252.01
 50
90.0
  0
TEXT
  5
73F
  8
回02-寸法
  6
CONTINUOUS
 62
     5
 10
2263.967245632977
 20
570.1645391930291
 30
0.0
 40
4.2
  1
±0.3
 50
90.0
  0
ENDBLK
  5
741
  8
回01-TP外形
  6
CONTINUOUS
 62
     7
  0
BLOCK
  8
回01-TP外形
  2
*X105
 70
     1
 10
0.0
 20
0.0
 30
0.0
  3
*X105
  1

  0
TEXT
  5
744
  8
回02-寸法
  6
CONTINUOUS
 62
     5
 10
2024.492245632977
 20
736.0395391930292
 30
0.0
 40
6.0
  1
328
  0
TEXT
  5
745
  8
回02-寸法
  6
CONTINUOUS
 62
     5
 10
2037.092245632976
 20
736.0395391930292
 30
0.0
 40
4.2
  1
±0.3
  0
ENDBLK
  5
747
  8
回01-TP外形
  6
CONTINUOUS
 62
     7
  0
BLOCK
  8
回01-TP外形
  2
*X106
 70
     1
 10
0.0
 20
0.0
 30
0.0
  3
*X106
  1

  0
TEXT
  5
74A
  8
回02-寸法
  6
CONTINUOUS
 62
     5
 10
1780.524157074038
 20
571.5697264083553
 30
0.0
 40
6.0
  1
6.25
 50
90.0
  0
TEXT
  5
74B
  8
回02-寸法
  6
CONTINUOUS
 62
     5
 10
1780.524157074038
 20
585.9697264083554
 30
0.0
 40
4.2
  1
±0.2
 50
90.0
  0
ENDBLK
  5
74D
  8
回01-TP外形
  6
CONTINUOUS
 62
     7
  0
ENDSEC
  0
SECTION
  2
ENTITIES
  0
TEXT
  5
5D
  8
回03-記事
  6
CONTINUOUS
 62
     5
 10
1918.077600049346
 20
267.4563272768399
 30
0.0
 40
8.0
  1
without affecting product specification.
  0
TEXT
  5
5F
  8
回03-記事
  6
CONTINUOUS
 62
     5
 10
1918.077600049346
 20
276.9649502144957
 30
0.0
 40
8.0
  1
Edges and corners of ITO glass may be chamfered 
  0
TEXT
  5
60
  8
回03-記事
  6
CONTINUOUS
 62
     5
 10
1918.077600049346
 20
291.0694075720186
 30
0.0
 40
8.0
  1
Unit: mm
  0
TEXT
  5
61
  8
回03-記事
  6
CONTINUOUS
 62
     5
 10
1918.077600049346
 20
304.8361686882491
 30
0.0
 40
8.0
  1
EXCEPT WHERE INDICATED
  0
TEXT
  5
62
  8
回03-記事
  6
CONTINUOUS
 62
     5
 10
1918.077600049346
 20
318.6152433472381
 30
0.0
 40
8.0
  1
TOLERANCE=±0.5mm
  0
POLYLINE
  5
63
  8
回01-TP外形
  6
CONTINUOUS
 62
     7
 66
     1
 10
0.0
 20
0.0
 30
0.0
 70
     1
  0
VERTEX
  5
66B
  8
回01-TP外形
  6
CONTINUOUS
 62
     7
 10
1871.467245632977
 20
438.5395391930292
 30
0.0
  0
VERTEX
  5
66D
  8
回01-TP外形
  6
CONTINUOUS
 62
     7
 10
2199.467245632977
 20
438.5395391930292
 30
0.0
  0
VERTEX
  5
66E
  8
回01-TP外形
  6
CONTINUOUS
 62
     7
 10
2199.467245632977
 20
690.5395391930292
 30
0.0
  0
VERTEX
  5
66F
  8
回01-TP外形
  6
CONTINUOUS
 62
     7
 10
1871.467245632977
 20
690.5395391930292
 30
0.0
  0
SEQEND
  5
66C
  8
回01-TP外形
  6
CONTINUOUS
 62
     7
  0
TEXT
  5
64
  8
回02-寸法
  6
CONTINUOUS
 62
     5
 10
2262.93028887056
 20
694.2728884229509
 30
0.0
 40
6.0
  1
(Insulation Area)
 50
90.0
 41
0.9
  0
TEXT
  5
66
  8
回02-寸法
  6
CONTINUOUS
 62
     5
 10
2201.261588081747
 20
732.9668951439478
 30
0.0
 40
6.0
  1
(Insulation Area)
 41
0.9
  0
TEXT
  5
67
  8
回03-記事
  6
CONTINUOUS
 62
     5
 10
1750.712800575626
 20
371.6282838007113
 30
0.0
 40
4.0
  1
Trace Expose
1001
ACAD
1000
MTEXTBEGIN
1070
    73
1070
     1
1070
    44
1040
1.0
1070
    74
1070
     0
1000
MTEXTEND
  0
INSERT
  5
68
  8
回03-記事
  6
CONTINUOUS
 62
     5
 66
     1
  2
*X77
 10
0.0
 20
0.0
 30
0.0
  0
SEQEND
  5
676
  8
回01-TP外形
  6
CONTINUOUS
 62
     7
  0
TEXT
  5
6A
  8
回03-記事
  6
CONTINUOUS
 62
     5
 10
1799.991380086587
 20
574.0159032314354
 30
0.0
 40
3.0
  1
A
1001
ACAD
1000
MTEXTBEGIN
1070
    73
1070
     1
1070
    44
1040
1.0
1070
    74
1070
     0
1000
MTEXTEND
  0
INSERT
  5
6B
  8
回03-記事
  6
CONTINUOUS
 62
     5
 66
     1
  2
*X78
 10
0.0
 20
0.0
 30
0.0
  0
SEQEND
  5
67D
  8
回01-TP外形
  6
CONTINUOUS
 62
     7
  0
CIRCLE
  5
6C
  8
回03-記事
  6
CONTINUOUS
 62
     5
 10
1793.274669625494
 20
564.2859150887611
 30
0.0
 40
7.742816109002717
  0
TEXT
  5
6D
  8
回03-記事
  6
CONTINUOUS
 62
     5
 10
1813.879612987833
 20
519.3286108493321
 30
0.0
 40
4.0
  1
PROTECTION TAPE
1001
ACAD
1000
MTEXTBEGIN
1070
    73
1070
     1
1070
    44
1040
1.0
1070
    74
1070
     0
1000
MTEXTEND
  0
INSERT
  5
6E
  8
回03-記事
  6
CONTINUOUS
 62
     5
 66
     1
  2
*X79
 10
0.0
 20
0.0
 30
0.0
  0
SEQEND
  5
684
  8
回01-TP外形
  6
CONTINUOUS
 62
     7
  0
TEXT
  5
6F
  8
回02-寸法
  6
CONTINUOUS
 62
     5
 10
1854.227124938002
 20
583.2288084922677
 30
0.0
 40
4.0
  1
2-R2
1001
ACAD
1000
MTEXTBEGIN
1070
    73
1070
     1
1070
    44
1040
1.0
1070
    74
1070
     0
1000
MTEXTEND
  0
INSERT
  5
70
  8
回02-寸法
  6
CONTINUOUS
 62
     5
 66
     1
  2
*X80
 10
0.0
 20
0.0
 30
0.0
  0
SEQEND
  5
68B
  8
回01-TP外形
  6
CONTINUOUS
 62
     7
  0
TEXT
  5
71
  8
回02-寸法
  6
CONTINUOUS
 62
     5
 10
1845.642670846856
 20
578.9224087813381
 30
0.0
 40
4.0
  1
4-R1
1001
ACAD
1000
MTEXTBEGIN
1070
    73
1070
     1
1070
    44
1040
1.0
1070
    74
1070
     0
1000
MTEXTEND
  0
INSERT
  5
72
  8
回02-寸法
  6
CONTINUOUS
 62
     5
 66
     1
  2
*X81
 10
0.0
 20
0.0
 30
0.0
  0
SEQEND
  5
692
  8
回01-TP外形
  6
CONTINUOUS
 62
     7
  0
DIMENSION
  5
74
  8
回02-寸法
  6
CONTINUOUS
 62
     7
  2
*D39
 10
1728.220046546091
 20
641.5222739062135
 30
0.0
 11
1728.220046546091
 21
622.4117739062128
 31
0.0
 70
   160
  1
4-0.7{\H0.75x;±0.1}
  3
STANDARD
 13
1738.603242063514
 23
639.6742739062135
 33
0.0
 14
1738.603242063514
 24
641.5222739062135
 34
0.0
 50
90.0
1001
ACAD
1000
DSTYLE
1002
{
1070
    41
1040
1.5
1070
    47
1040
0.3
1070
    48
1040
0.3
1070
   140
1040
4.0
1070
   141
1040
1.5
1070
   146
1040
0.7
1070
   271
1070
     1
1070
   272
1070
     1
1070
   283
1070
     0
1070
   288
1070
     0
1070
   341
1005
0
1070
   371
1070
    13
1070
   372
1070
    13
1002
}
  0
TEXT
  5
87
  8
回02-寸法
 62
     5
 10
1710.544678602802
 20
659.976563437149
 30
0.0
 40
6.0
  1
2-R0.5
1001
ACAD
1000
MTEXTBEGIN
1070
    73
1070
     1
1070
    44
1040
1.0
1070
    74
1070
     0
1000
MTEXTEND
  0
INSERT
  5
88
  8
回02-寸法
 62
     1
 66
     1
  2
*X82
 10
0.0
 20
0.0
 30
0.0
  0
SEQEND
  5
699
  8
回01-TP外形
  6
CONTINUOUS
 62
     7
  0
TEXT
  5
89
  8
回03-記事
  6
CONTINUOUS
 62
     5
 10
1725.292459191159
 20
669.9914320618525
 30
0.0
 40
8.0
  1
SECTION A
  0
LINE
  5
8A
  8
回03-記事
  6
CONTINUOUS
 62
     7
 10
1734.775748796539
 20
640.5982739062135
 30
0.0
 11
1756.570852156522
 21
640.5982739062135
 31
0.0
  0
LINE
  5
8B
  8
回03-記事
  6
CONTINUOUS
 62
     7
 10
1734.775863664965
 20
643.8982739062132
 30
0.0
 11
1756.570852156522
 21
643.8982739062132
 31
0.0
  0
LINE
  5
8C
  8
回03-記事
  6
CONTINUOUS
 62
     7
 10
1734.775748796539
 20
650.4982739062131
 30
0.0
 11
1756.570852156522
 21
650.4982739062131
 31
0.0
  0
DIMENSION
  5
8D
  8
回02-寸法
  6
CONTINUOUS
 62
     5
  2
*D40
 10
1710.382630948258
 20
650.4982739062131
 30
0.0
 11
1710.382630948258
 21
625.110255866213
 31
0.0
 70
   160
  1
3.75{\H0.66667x;±0.1}
  3
STANDARD
 13
1734.775863664965
 23
640.5982739062135
 33
0.0
 14
1734.775748796539
 24
650.4982739062131
 34
0.0
 50
90.0
1001
ACAD
1000
DSTYLE
1002
{
1070
    41
1040
1.5
1070
    47
1040
0.3
1070
    48
1040
0.3
1070
   140
1040
4.0
1070
   141
1040
1.5
1070
   146
1040
0.7
1070
   271
1070
     1
1070
   272
1070
     1
1070
   283
1070
     0
1070
   288
1070
     0
1070
   341
1005
0
1070
   371
1070
    13
1070
   372
1070
    13
1002
}
  0
DIMENSION
  5
9E
  8
回02-寸法
  6
CONTINUOUS
 62
     5
  2
*D41
 10
1718.850085142832
 20
640.5982739062135
 30
0.0
 11
1718.850085142832
 21
625.1731493690081
 31
0.0
 70
   160
  1
1.25{\H0.83333x;±0.2}
  3
STANDARD
 13
1734.775863664965
 23
643.8982739062132
 33
0.0
 14
1734.775863664965
 24
640.5982739062135
 34
0.0
 50
90.0
1001
ACAD
1000
DSTYLE
1002
{
1070
    41
1040
1.5
1070
    47
1040
0.3
1070
    48
1040
0.3
1070
   140
1040
4.0
1070
   141
1040
1.5
1070
   146
1040
0.7
1070
   271
1070
     1
1070
   272
1070
     1
1070
   283
1070
     0
1070
   288
1070
     0
1070
   341
1005
0
1070
   371
1070
    13
1070
   372
1070
    13
1002
}
  0
POLYLINE
  5
AF
  8
回03-記事
  6
CONTINUOUS
 62
     8
 66
     1
 10
0.0
 20
0.0
 30
0.0
 40
1.847999999999999
 41
1.847999999999999
  0
VERTEX
  5
69A
  8
回03-記事
  6
CONTINUOUS
 62
     8
 10
1738.603127195087
 20
647.1982739062134
 30
0.0
  0
VERTEX
  5
69C
  8
回03-記事
  6
CONTINUOUS
 62
     8
 10
1751.803242063514
 20
647.1982739062134
 30
0.0
  0
SEQEND
  5
69B
  8
回01-TP外形
  6
CONTINUOUS
 62
     7
  0
POLYLINE
  5
B0
  8
回03-記事
  6
CONTINUOUS
 62
     8
 66
     1
 10
0.0
 20
0.0
 30
0.0
 40
1.847999999999999
 41
1.847999999999999
  0
VERTEX
  5
69D
  8
回03-記事
  6
CONTINUOUS
 62
     8
 10
1738.603127195087
 20
650.4982739062131
 30
0.0
  0
VERTEX
  5
69F
  8
回03-記事
  6
CONTINUOUS
 62
     8
 10
1751.803242063514
 20
650.4982739062131
 30
0.0
  0
SEQEND
  5
69E
  8
回01-TP外形
  6
CONTINUOUS
 62
     7
  0
POLYLINE
  5
B1
  8
回03-記事
  6
CONTINUOUS
 62
     8
 66
     1
 10
0.0
 20
0.0
 30
0.0
 40
1.847999999999999
 41
1.847999999999999
  0
VERTEX
  5
6A0
  8
回03-記事
  6
CONTINUOUS
 62
     8
 10
1738.603127195087
 20
640.5982739062135
 30
0.0
  0
VERTEX
  5
6A2
  8
回03-記事
  6
CONTINUOUS
 62
     8
 10
1751.803242063514
 20
640.5982739062135
 30
0.0
  0
SEQEND
  5
6A1
  8
回01-TP外形
  6
CONTINUOUS
 62
     7
  0
POLYLINE
  5
B2
  8
回03-記事
  6
CONTINUOUS
 62
     8
 66
     1
 10
0.0
 20
0.0
 30
0.0
 40
1.847999999999999
 41
1.847999999999999
  0
VERTEX
  5
6A3
  8
回03-記事
  6
CONTINUOUS
 62
     8
 10
1738.603127195087
 20
643.8982739062132
 30
0.0
  0
VERTEX
  5
6A5
  8
回03-記事
  6
CONTINUOUS
 62
     8
 10
1751.803242063514
 20
643.8982739062132
 30
0.0
  0
SEQEND
  5
6A4
  8
回01-TP外形
  6
CONTINUOUS
 62
     7
  0
LINE
  5
B3
  8
回03-記事
  6
CONTINUOUS
 62
     8
 10
1739.923242063514
 20
637.2982739062197
 30
0.0
 11
1771.274117099159
 21
637.2982739062197
 31
0.0
  0
LINE
  5
B4
  8
回03-記事
  6
CONTINUOUS
 62
     8
 10
1738.603242063514
 20
652.4782739062199
 30
0.0
 11
1738.603242063514
 21
638.6182739062207
 31
0.0
  0
ARC
  5
B5
  8
回03-記事
  6
CONTINUOUS
 62
     8
 10
1739.923242063514
 20
638.6182739062207
 30
0.0
 40
1.32
 50
180.0
 51
270.0
  0
ARC
  5
B6
  8
回03-記事
  6
CONTINUOUS
 62
     8
 10
1739.923242063514
 20
652.4782739062199
 30
0.0
 40
1.32
 50
90.0
 51
180.0
  0
LINE
  5
B7
  8
回03-記事
  6
CONTINUOUS
 62
     8
 10
1739.923242063514
 20
653.7982739062193
 30
0.0
 11
1771.274117099159
 21
653.7982739062193
 31
0.0
  0
DIMENSION
  5
B8
  8
回02-寸法
  6
CONTINUOUS
 62
     5
  2
*D42
 10
1701.089897924618
 20
637.2982739062206
 30
0.0
 11
1697.589897924618
 21
622.5476066369878
 31
0.0
 70
    32
  1
6.25{\H0.6667x;±0.2}
  3
STANDARD
 13
1739.923242063514
 23
653.7982739062193
 33
0.0
 14
1739.923242063514
 24
637.2982739062206
 34
0.0
 50
90.0
1001
ACAD
1000
DSTYLE
1002
{
1070
    41
1040
1.5
1070
    47
1040
0.3
1070
    48
1040
0.3
1070
   140
1040
4.0
1070
   141
1040
1.5
1070
   146
1040
0.7
1070
   271
1070
     1
1070
   272
1070
     1
1070
   283
1070
     0
1070
   288
1070
     0
1070
   341
1005
0
1070
   371
1070
    13
1070
   372
1070
    13
1002
}
  0
TEXT
  5
C9
  8
回03-記事
  6
CONTINUOUS
 62
     7
 10
2319.84776324577
 20
623.7313443547762
 30
0.0
 40
9.599999999999999
  1
Pin Assignment
  0
LINE
  5
CA
  8
回03-記事
  6
CONTINUOUS
 62
     7
 10
2384.172286262185
 20
669.6646530774581
 30
0.0
 11
2384.172286262185
 21
716.464653077458
 31
0.0
  0
LINE
  5
CB
  8
回03-記事
  6
CONTINUOUS
 62
     7
 10
2409.912286262185
 20
643.9246530774583
 30
0.0
 11
2409.912286262185
 21
742.2046530774577
 31
0.0
  0
TEXT
  5
CC
  8
回03-記事
  6
CONTINUOUS
 62
     7
 10
2308.234233143538
 20
712.7903740148722
 30
0.0
 40
7.488000000000001
  1
3
  0
TEXT
  5
CD
  8
回03-記事
  6
CONTINUOUS
 62
     7
 10
2307.806349491471
 20
738.7720553155043
 30
0.0
 40
7.488000000000001
  1
4
  0
LINE
  5
CE
  8
回03-記事
  6
CONTINUOUS
 62
     7
 10
2372.565886262186
 20
672.0982530774577
 30
0.0
 11
2375.935486262186
 21
665.3590530774572
 31
0.0
  0
LINE
  5
CF
  8
回03-記事
  6
CONTINUOUS
 62
     7
 10
2375.935486262186
 20
665.3590530774572
 30
0.0
 11
2378.088286262186
 21
669.6646530774581
 31
0.0
  0
LINE
  5
D0
  8
回03-記事
  6
CONTINUOUS
 62
     7
 10
2365.826686262185
 20
672.0982530774577
 30
0.0
 11
2369.196286262186
 21
665.3590530774572
 31
0.0
  0
LINE
  5
D1
  8
回03-記事
  6
CONTINUOUS
 62
     7
 10
2362.457086262186
 20
665.3590530774572
 30
0.0
 11
2365.826686262185
 21
672.0982530774577
 31
0.0
  0
LINE
  5
D2
  8
回03-記事
  6
CONTINUOUS
 62
     7
 10
2369.196286262186
 20
665.3590530774572
 30
0.0
 11
2372.565886262186
 21
672.0982530774577
 31
0.0
  0
LINE
  5
D3
  8
回03-記事
  6
CONTINUOUS
 62
     7
 10
2352.348286262184
 20
672.0982530774577
 30
0.0
 11
2355.717886262186
 21
665.3590530774572
 31
0.0
  0
LINE
  5
D4
  8
回03-記事
  6
CONTINUOUS
 62
     7
 10
2351.786686262185
 20
665.6398530774577
 30
0.0
 11
2358.525886262186
 21
669.0094530774581
 31
0.0
  0
LINE
  5
D5
  8
回03-記事
  6
CONTINUOUS
 62
     7
 10
2351.786686262185
 20
665.6398530774577
 30
0.0
 11
2358.525886262186
 21
662.2702530774589
 31
0.0
  0
LINE
  5
D6
  8
回03-記事
  6
CONTINUOUS
 62
     7
 10
2351.786686262185
 20
658.9006530774577
 30
0.0
 11
2358.525886262186
 21
662.2702530774589
 31
0.0
  0
LINE
  5
D7
  8
回03-記事
  6
CONTINUOUS
 62
     7
 10
2351.786686262185
 20
652.1614530774577
 30
0.0
 11
2358.525886262186
 21
655.5310530774582
 31
0.0
  0
LINE
  5
D8
  8
回03-記事
  6
CONTINUOUS
 62
     7
 10
2351.786686262185
 20
658.9006530774577
 30
0.0
 11
2358.525886262186
 21
655.5310530774582
 31
0.0
  0
LINE
  5
D9
  8
回03-記事
  6
CONTINUOUS
 62
     7
 10
2351.786686262185
 20
672.3790530774577
 30
0.0
 11
2358.525886262186
 21
675.7486530774577
 31
0.0
  0
LINE
  5
DA
  8
回03-記事
  6
CONTINUOUS
 62
     7
 10
2351.786686262185
 20
679.1182530774577
 30
0.0
 11
2358.525886262186
 21
682.4878530774571
 31
0.0
  0
LINE
  5
DB
  8
回03-記事
  6
CONTINUOUS
 62
     7
 10
2351.786686262185
 20
679.1182530774577
 30
0.0
 11
2358.525886262186
 21
675.7486530774577
 31
0.0
  0
LINE
  5
DC
  8
回03-記事
  6
CONTINUOUS
 62
     7
 10
2351.786686262185
 20
672.3790530774577
 30
0.0
 11
2358.525886262186
 21
669.0094530774581
 31
0.0
  0
LINE
  5
DD
  8
回03-記事
  6
CONTINUOUS
 62
     7
 10
2345.609086262185
 20
672.0982530774577
 30
0.0
 11
2348.978686262185
 21
665.3590530774572
 31
0.0
  0
LINE
  5
DE
  8
回03-記事
  6
CONTINUOUS
 62
     7
 10
2342.239486262186
 20
665.3590530774572
 30
0.0
 11
2345.609086262185
 21
672.0982530774577
 31
0.0
  0
LINE
  5
DF
  8
回03-記事
  6
CONTINUOUS
 62
     7
 10
2336.717086262186
 20
667.7926530774575
 30
0.0
 11
2338.869886262185
 21
672.0982530774577
 31
0.0
  0
LINE
  5
E0
  8
回03-記事
  6
CONTINUOUS
 62
     7
 10
2338.869886262185
 20
672.0982530774577
 30
0.0
 11
2342.239486262186
 21
665.3590530774572
 31
0.0
  0
LINE
  5
E1
  8
回03-記事
  6
CONTINUOUS
 62
     7
 10
2348.978686262185
 20
665.3590530774572
 30
0.0
 11
2352.348286262184
 21
672.0982530774577
 31
0.0
  0
LINE
  5
E2
  8
回03-記事
  6
CONTINUOUS
 62
     7
 10
2355.156286262185
 20
684.1726530774572
 30
0.0
 11
2355.156286262185
 21
689.7886530774574
 31
0.0
  0
LINE
  5
E3
  8
回03-記事
  6
CONTINUOUS
 62
     7
 10
2355.717886262186
 20
665.3590530774572
 30
0.0
 11
2359.087486262186
 21
672.0982530774577
 31
0.0
  0
LINE
  5
E4
  8
回03-記事
  6
CONTINUOUS
 62
     7
 10
2355.156286262185
 20
684.1726530774572
 30
0.0
 11
2358.525886262186
 21
682.4878530774571
 31
0.0
  0
TEXT
  5
E5
  8
回03-記事
  6
CONTINUOUS
 62
     7
 10
2356.99499813994
 20
691.0227978132329
 30
0.0
 40
6.551999999999999
  1
YU
  0
LINE
  5
E6
  8
回03-記事
  6
CONTINUOUS
 62
     7
 10
2359.087486262186
 20
672.0982530774577
 30
0.0
 11
2362.457086262186
 21
665.3590530774572
 31
0.0
  0
LINE
  5
E7
  8
回03-記事
  6
CONTINUOUS
 62
     7
 10
2355.156286262185
 20
643.9246530774583
 30
0.0
 11
2355.156286262185
 21
650.4766530774577
 31
0.0
  0
LINE
  5
E8
  8
回03-記事
  6
CONTINUOUS
 62
     7
 10
2351.786686262185
 20
652.1614530774577
 30
0.0
 11
2355.156286262185
 21
650.4766530774577
 31
0.0
  0
TEXT
  5
E9
  8
回03-記事
  6
CONTINUOUS
 62
     7
 10
2337.944532463778
 20
646.5935465078482
 30
0.0
 40
6.551999999999999
  1
YD
  0
TEXT
  5
EA
  8
回03-記事
  6
CONTINUOUS
 62
     7
 10
2323.748766452116
 20
670.5372442737519
 30
0.0
 40
6.551999999999999
  1
XL
  0
TEXT
  5
EB
  8
回03-記事
  6
CONTINUOUS
 62
     7
 10
2308.524616635846
 20
664.0820127412323
 30
0.0
 40
7.488000000000001
  1
1
  0
TEXT
  5
EC
  8
回03-記事
  6
CONTINUOUS
 62
     7
 10
2307.950427082179
 20
686.9411193399326
 30
0.0
 40
7.488000000000001
  1
2
  0
LINE
  5
ED
  8
回03-記事
  6
CONTINUOUS
 62
     7
 10
2315.844286262185
 20
689.7886530774574
 30
0.0
 11
2355.156286262185
 21
689.7886530774574
 31
0.0
  0
LINE
  5
EE
  8
回03-記事
  6
CONTINUOUS
 62
     7
 10
2315.844286262185
 20
667.7926530774575
 30
0.0
 11
2336.717086262186
 21
667.7926530774575
 31
0.0
  0
LINE
  5
EF
  8
回03-記事
  6
CONTINUOUS
 62
     7
 10
2355.156286262185
 20
643.9246530774583
 30
0.0
 11
2409.912286262185
 21
643.9246530774583
 31
0.0
  0
LINE
  5
F0
  8
回03-記事
  6
CONTINUOUS
 62
     7
 10
2315.844286262185
 20
742.2046530774577
 30
0.0
 11
2409.912286262185
 21
742.2046530774577
 31
0.0
  0
LINE
  5
F1
  8
回03-記事
  6
CONTINUOUS
 62
     7
 10
2315.844286262185
 20
716.464653077458
 30
0.0
 11
2384.172286262185
 21
716.464653077458
 31
0.0
  0
LINE
  5
F2
  8
回03-記事
  6
CONTINUOUS
 62
     7
 10
2378.088286262186
 20
669.6646530774581
 30
0.0
 11
2384.172286262185
 21
669.6646530774581
 31
0.0
  0
TEXT
  5
F3
  8
回03-記事
  6
CONTINUOUS
 62
     7
 10
2378.444228076148
 20
660.108806984719
 30
0.0
 40
6.551999999999999
  1
XR
  0
LINE
  5
F4
  8
回04-図面枠
  6
CONTINUOUS
 62
     7
 10
2418.289857213112
 20
251.2666912015326
 30
0.0
 11
2418.289857213112
 21
271.0666912015323
 31
0.0
  0
LINE
  5
F6
  8
回04-図面枠
  6
CENTER2
 62
     7
 10
2428.620325011543
 20
254.0564605668348
 30
0.0
 11
2428.620325011543
 21
267.9165808490461
 31
0.0
  0
LINE
  5
F8
  8
回04-図面枠
  6
CONTINUOUS
 62
     7
 10
2438.057981448417
 20
258.0602477444742
 30
0.0
 11
2448.296175648864
 21
255.4540985344421
 31
0.0
  0
LINE
  5
F9
  8
回04-図面枠
  6
CONTINUOUS
 62
     7
 10
2438.057981448417
 20
263.9127936714059
 30
0.0
 11
2448.296175648864
 21
266.5189428814394
 31
0.0
  0
LINE
  5
FA
  8
回04-図面枠
  6
CONTINUOUS
 62
     7
 10
2448.296175648864
 20
266.5189428814394
 30
0.0
 11
2448.296175648864
 21
255.4540985344421
 31
0.0
  0
LINE
  5
FB
  8
回04-図面枠
  6
CONTINUOUS
 62
     7
 10
2438.057981448417
 20
263.9127936714059
 30
0.0
 11
2438.057981448417
 21
258.0602477444742
 31
0.0
  0
LINE
  5
FC
  8
回04-図面枠
  6
CENTER2
 62
     7
 10
2422.266496473388
 20
260.9865207079408
 30
0.0
 11
2449.203569728587
 21
260.9865207079408
 31
0.0
  0
CIRCLE
  5
FD
  8
回04-図面枠
  6
CONTINUOUS
 62
     7
 10
2428.620325011543
 20
260.9865207079408
 30
0.0
 40
2.926272963466085
  0
CIRCLE
  5
FE
  8
回04-図面枠
  6
CONTINUOUS
 62
     7
 10
2428.620325011543
 20
260.9865207079408
 30
0.0
 40
5.532422173497662
  0
TEXT
  5
FF
  8
回03-記事
  6
CONTINUOUS
 62
     7
 10
2350.984855015453
 20
336.2827537355653
 30
0.0
 40
6.676899102719998
  1
PROTECTION TAPE
  0
TEXT
  5
100
  8
回03-記事
  6
CONTINUOUS
 62
     7
 10
2340.559579326073
 20
336.2474789785076
 30
0.0
 40
6.943975066828802
  1
6
  0
LINE
  5
101
  8
回03-記事
  6
CONTINUOUS
 62
     7
 10
2337.01186482526
 20
334.2536655641745
 30
0.0
 11
2440.455296075155
 21
334.2536655641745
 31
0.0
  0
TEXT
  5
102
  8
回03-記事
  6
CONTINUOUS
 62
     7
 10
2350.137274458429
 20
359.1402718636347
 30
0.0
 40
6.943975066828802
  1
STIFFENER
  0
TEXT
  5
103
  8
回03-記事
  6
CONTINUOUS
 62
     7
 10
2350.137274458429
 20
347.5669800855878
 30
0.0
 40
6.943975066828802
  1
REINFORCEMENT FILM
  0
TEXT
  5
104
  8
回03-記事
  6
CONTINUOUS
 62
     7
 10
2377.465403799635
 20
405.8939232376879
 30
0.0
 40
6.943975066828802
  1
ITEM
  0
LINE
  5
105
  8
回03-記事
  6
CONTINUOUS
 62
     7
 10
2440.455296075155
 20
334.2536655641745
 30
0.0
 11
2440.455296075155
 21
415.2667080105106
 31
0.0
  0
TEXT
  5
106
  8
回03-記事
  6
CONTINUOUS
 62
     7
 10
2340.559579326073
 20
370.9673543126478
 30
0.0
 40
6.943975066828802
  1
3
  0
TEXT
  5
107
  8
回03-記事
  6
CONTINUOUS
 62
     7
 10
2340.559579326073
 20
359.3940625346028
 30
0.0
 40
6.943975066828802
  1
4
  0
TEXT
  5
108
  8
回03-記事
  6
CONTINUOUS
 62
     7
 10
2340.559579326073
 20
382.5406460907022
 30
0.0
 40
6.943975066828802
  1
2
  0
TEXT
  5
109
  8
回03-記事
  6
CONTINUOUS
 62
     7
 10
2340.559579326073
 20
347.8207707565559
 30
0.0
 40
6.943975066828802
  1
5
  0
LINE
  5
10A
  8
回03-記事
  6
CONTINUOUS
 62
     7
 10
2349.053421735248
 20
415.2667080105106
 30
0.0
 11
2349.053421735248
 21
334.2536655641745
 31
0.0
  0
LINE
  5
10B
  8
回03-記事
  6
CONTINUOUS
 62
     7
 10
2337.01186482526
 20
415.2667080105106
 30
0.0
 11
2337.01186482526
 21
334.2536655641745
 31
0.0
  0
TEXT
  5
10C
  8
回03-記事
  6
CONTINUOUS
 62
     7
 10
2340.559579326073
 20
394.1139378687465
 30
0.0
 40
6.943975066828802
  1
1
  0
LINE
  5
10D
  8
回03-記事
  6
CONTINUOUS
 62
     7
 10
2337.01186482526
 20
345.8269573422228
 30
0.0
 11
2440.455296075155
 21
345.8269573422228
 31
0.0
  0
LINE
  5
10E
  8
回03-記事
  6
CONTINUOUS
 62
     7
 10
2337.01186482526
 20
415.2667080105106
 30
0.0
 11
2440.455296075155
 21
415.2667080105106
 31
0.0
  0
LINE
  5
10F
  8
回03-記事
  6
CONTINUOUS
 62
     7
 10
2337.01186482526
 20
392.1201244544175
 30
0.0
 11
2440.455296075155
 21
392.12012445441
 31
0.0
  0
LINE
  5
110
  8
回03-記事
  6
CONTINUOUS
 62
     7
 10
2337.01186482526
 20
403.6934162324643
 30
0.0
 11
2440.455296075155
 21
403.6934162324643
 31
0.0
  0
LINE
  5
111
  8
回03-記事
  6
CONTINUOUS
 62
     7
 10
2337.01186482526
 20
357.4002491202725
 30
0.0
 11
2440.455296075155
 21
357.4002491202725
 31
0.0
  0
LINE
  5
112
  8
回03-記事
  6
CONTINUOUS
 62
     7
 10
2337.01186482526
 20
368.9735408983194
 30
0.0
 11
2440.455296075155
 21
368.9735408983194
 31
0.0
  0
LINE
  5
113
  8
回03-記事
  6
CONTINUOUS
 62
     7
 10
2337.01186482526
 20
380.5468326763678
 30
0.0
 11
2440.455296075155
 21
380.5468326763678
 31
0.0
  0
TEXT
  5
114
  8
回03-記事
  6
CONTINUOUS
 62
     7
 10
2350.137274458429
 20
393.96497694515
 30
0.0
 40
6.943975066828802
  1
ITO FILM
  0
TEXT
  5
115
  8
回03-記事
  6
CONTINUOUS
 62
     7
 10
2350.137274458429
 20
382.3916851671004
 30
0.0
 40
6.943975066828802
  1
ITO GLASS
  0
TEXT
  5
116
  8
回03-記事
  6
CONTINUOUS
 62
     7
 10
2350.137274458429
 20
370.8183933890486
 30
0.0
 40
6.943975066828802
  1
TAIL
  0
TEXT
  5
117
  8
回04-図面枠
 62
     7
 10
2338.367318547082
 20
280.4861634894218
 30
0.0
 40
9.899999999999998
  1
Sep/08/2023
 72
     1
 11
2376.977318547082
 21
280.4861634894218
 31
0.0
  0
TEXT
  5
118
  8
回04-図面枠
  6
CONTINUOUS
 62
     7
 10
2366.979764155443
 20
302.1462485823535
 30
0.0
 40
5.939999999999999
  1
DATE
  0
TEXT
  5
119
  8
回04-図面枠
 62
     7
 10
2321.639647729665
 20
256.2913527191735
 30
0.0
 40
9.899999999999998
  1
DMC Co., Ltd.
 72
     1
 11
2360.992147729665
 21
256.2913527191735
 31
0.0
  0
TEXT
  5
11A
  8
回04-図面枠
 62
     7
 10
2195.312318547083
 20
285.9006179480918
 30
0.0
 40
9.899999999999998
  1
LST-150B080A
 72
     1
 11
2238.377318547083
 21
285.9006179480918
 31
0.0
  0
TEXT
  5
11B
  8
回04-図面枠
 62
     7
 10
2219.666318547083
 20
302.6422519818715
 30
0.0
 40
5.939999999999999
  1
PART　No.
 72
     1
 11
2238.377318547083
 21
302.6422519818715
 31
0.0
  0
LINE
  5
11C
  8
回04-図面枠
 62
     7
 10
2179.967318547082
 20
261.1666912015325
 30
0.0
 11
2296.787318547082
 21
261.1666912015325
 31
0.0
  0
TEXT
  5
11D
  8
回04-図面枠
 62
     7
 10
2192.162949255744
 20
263.4437520496769
 30
0.0
 40
5.939999999999999
  1
STANDARD TOUCHSCREEN
 72
     1
 11
2238.377318547083
 21
263.4437520496769
 31
0.0
  0
TEXT
  5
11E
  8
回04-図面枠
 62
     7
 10
2205.548717653611
 20
253.543752049677
 30
0.0
 40
5.939999999999999
  1
CIRCUIT　DRAWING
 72
     1
 11
2238.377318547083
 21
253.543752049677
 31
0.0
  0
LINE
  5
11F
  8
回04-図面枠
 62
     7
 10
2302.727318547082
 20
310.6666912015325
 30
0.0
 11
2302.727318547082
 21
251.2666912015326
 31
0.0
  0
TEXT
  5
120
  8
回04-図面枠
 62
     7
 10
2228.873318547083
 20
272.5390581868918
 30
0.0
 40
5.939999999999999
  1
TYPE
 72
     1
 11
2238.377318547083
 21
272.5390581868918
 31
0.0
  0
LINE
  5
121
  8
回04-図面枠
 62
     7
 10
2174.027318547082
 20
310.6666912015325
 30
0.0
 11
2174.027318547082
 21
251.2666912015326
 31
0.0
  0
LINE
  5
122
  8
回04-図面枠
 62
     7
 10
2174.027318547082
 20
280.9666912015329
 30
0.0
 11
2302.727318547082
 21
280.9666912015329
 31
0.0
  0
LINE
  5
123
  8
回04-図面枠
 62
     7
 10
2174.027318547082
 20
271.0666912015323
 30
0.0
 11
2451.227318547082
 21
271.0666912015323
 31
0.0
  0
LINE
  5
124
  8
回04-図面枠
 62
     7
 10
2174.027318547082
 20
310.6666912015325
 30
0.0
 11
2451.227318547082
 21
310.6666912015325
 31
0.0
  0
LINE
  5
125
  8
回04-図面枠
 62
     7
 10
2174.027318547082
 20
300.7666912015326
 30
0.0
 11
2451.227318547082
 21
300.7666912015326
 31
0.0
  0
DIMENSION
  5
126
  8
回02-寸法
  6
CONTINUOUS
 62
     7
  2
*D43
 10
1791.467202122209
 20
605.194567525283
 30
0.0
 11
1829.568748581882
 21
605.194567525283
 31
0.0
 70
   160
  3
KOUSA
 13
1871.467245632977
 23
573.2166637372206
 33
0.0
 14
1791.467202122209
 24
567.1645391930296
 34
0.0
1001
ACAD
1000
DSTYLE
1002
{
1070
    47
1040
1.0
1070
   147
1040
0.5
1070
    48
1040
1.0
1070
    72
1070
     0
1070
    71
1070
     1
1070
   140
1040
6.0
1070
   288
1070
     0
1070
   341
1005
0
1002
}
  0
INSERT
  5
135
  8
回03-記事
  6
CONTINUOUS
 62
     7
 66
     1
  2
*X83
 10
0.0
 20
0.0
 30
0.0
1001
ACAD
1000
HATCH
1002
{
1070
    19
1000
ANSI31
1040
0.5
1040
6.283185307179586
1000
ASC_BOUNDS
1070
     1
1070
     2
1070
     1
1005
136
1000
ASC_SEEDPOINT
1011
2120.672052674867
1021
347.539871111859
1031
0.0
1000
R14_HATCH_DATA
1000
135
1011
1.0
1021
0.0
1031
0.0
1011
0.0
1021
1.0
1031
0.0
1011
0.0
1021
0.0
1031
1.0
1040
0.0
1010
0.0
1020
0.0
1030
1.0
1000
ANSI31
1070
     0
1070
     1
1071
        1
1071
        1
1071
        4
1070
     1
1040
1875.567245632977
1040
563.2895391930291
1040
1867.367245632977
1040
563.2895391930291
1070
     1
1040
1867.367245632977
1040
563.2895391930291
1040
1867.367245632977
1040
557.289539193029
1070
     1
1040
1867.367245632977
1040
557.289539193029
1040
1875.567245632977
1040
557.289539193029
1070
     1
1040
1875.567245632977
1040
557.289539193029
1040
1875.567245632977
1040
563.2895391930291
1071
        1
1005
136
1070
     0
1070
     1
1040
6.283185307179586
1040
0.5
1070
     0
1070
     1
1040
0.7853981633974481
1040
2120.672052674867
1040
347.539871111859
1040
-1.122532015133643
1040
1.122532015133644
1070
     0
1071
        1
1040
2120.672052674867
1040
347.539871111859
1040
0.0
1002
}
  0
SEQEND
  5
6AF
  8
回01-TP外形
  6
CONTINUOUS
 62
     7
  0
POLYLINE
  5
136
  8
回03-記事
  6
CONTINUOUS
 62
     7
 66
     1
 10
0.0
 20
0.0
 30
0.0
 70
     1
1001
ACAD
1000
ASC_BOUNDS
1002
{
1070
    19
1005
135
1002
}
  0
VERTEX
  5
6B0
  8
回03-記事
  6
CONTINUOUS
 62
     7
 10
1875.567245632977
 20
563.2895391930291
 30
0.0
  0
VERTEX
  5
6B2
  8
回03-記事
  6
CONTINUOUS
 62
     7
 10
1867.367245632977
 20
563.2895391930291
 30
0.0
  0
VERTEX
  5
6B3
  8
回03-記事
  6
CONTINUOUS
 62
     7
 10
1867.367245632977
 20
557.289539193029
 30
0.0
  0
VERTEX
  5
6B4
  8
回03-記事
  6
CONTINUOUS
 62
     7
 10
1875.567245632977
 20
557.289539193029
 30
0.0
  0
SEQEND
  5
6B1
  8
回01-TP外形
  6
CONTINUOUS
 62
     7
  0
TEXT
  5
137
  8
回04-図面枠
 62
     7
 10
2452.631739550741
 20
744.0553784973919
 30
0.0
 40
4.0
  1
1
  0
TEXT
  5
138
  8
回04-図面枠
 62
     7
 10
2409.956703852735
 20
791.6391143275838
 30
0.0
 40
4.0
  1
J
  0
LINE
  5
139
  8
回04-図面枠
 62
     7
 10
2371.227318547082
 20
796.2666912015325
 30
0.0
 11
2371.227318547082
 21
791.2666912015326
 31
0.0
  0
TEXT
  5
13A
  8
回04-図面枠
 62
     7
 10
2329.956703852735
 20
791.6391143275838
 30
0.0
 40
4.0
  1
I
  0
LINE
  5
13B
  8
回04-図面枠
 62
     7
 10
2291.227318547083
 20
796.2666912015325
 30
0.0
 11
2291.227318547083
 21
791.2666912015326
 31
0.0
  0
LINE
  5
13C
  8
回04-図面枠
 62
     7
 10
2456.227318547082
 20
701.2666912015325
 30
0.0
 11
2451.227318547082
 21
701.2666912015325
 31
0.0
  0
TEXT
  5
13D
  8
回04-図面枠
 62
     7
 10
2452.33024084744
 20
654.0553784973918
 30
0.0
 40
4.0
  1
2
  0
LINE
  5
13E
  8
回04-図面枠
 62
     7
 10
2456.227318547082
 20
611.2666912015326
 30
0.0
 11
2451.227318547082
 21
611.2666912015326
 31
0.0
  0
TEXT
  5
13F
  8
回04-図面枠
 62
     7
 10
2452.324760003239
 20
564.0553784973918
 30
0.0
 40
4.0
  1
3
  0
LINE
  5
140
  8
回04-図面枠
 62
     7
 10
2456.227318547082
 20
521.2666912015325
 30
0.0
 11
2451.227318547082
 21
521.2666912015325
 31
0.0
  0
TEXT
  5
141
  8
回04-図面枠
 62
     7
 10
2452.251667883158
 20
474.0553784973918
 30
0.0
 40
4.0
  1
4
  0
LINE
  5
142
  8
回04-図面枠
 62
     7
 10
2456.227318547082
 20
431.2666912015325
 30
0.0
 11
2451.227318547082
 21
431.2666912015325
 31
0.0
  0
TEXT
  5
143
  8
回04-図面枠
 62
     7
 10
2452.251667883158
 20
384.0553784973918
 30
0.0
 40
4.0
  1
5
  0
LINE
  5
144
  8
回04-図面枠
 62
     7
 10
2456.227318547082
 20
341.2666912015326
 30
0.0
 11
2451.227318547082
 21
341.2666912015326
 31
0.0
  0
TEXT
  5
145
  8
回04-図面枠
 62
     7
 10
2452.251667883158
 20
294.0553784973919
 30
0.0
 40
4.0
  1
6
  0
TEXT
  5
146
  8
回04-図面枠
 62
     7
 10
2409.956703852735
 20
246.6391143275838
 30
0.0
 40
4.0
  1
J
  0
LINE
  5
147
  8
回04-図面枠
 62
     7
 10
2371.227318547082
 20
251.2666912015326
 30
0.0
 11
2371.227318547082
 21
246.2666912015326
 31
0.0
  0
TEXT
  5
148
  8
回04-図面枠
 62
     7
 10
2329.956703852735
 20
246.6391143275838
 30
0.0
 40
4.0
  1
I
  0
LINE
  5
149
  8
回04-図面枠
 62
     7
 10
2291.227318547083
 20
251.2666912015326
 30
0.0
 11
2291.227318547083
 21
246.2666912015326
 31
0.0
  0
LINE
  5
14A
  8
回04-図面枠
 62
     7
 10
2451.227318547082
 20
791.2666912015326
 30
0.0
 11
2451.227318547082
 21
251.2666912015326
 31
0.0
  0
LINE
  5
14B
  8
回04-図面枠
 62
     7
 10
2456.227318547082
 20
246.2666912015326
 30
0.0
 11
2456.227318547082
 21
796.2666912015325
 31
0.0
  0
TEXT
  5
14C
  8
回04-図面枠
 62
     7
 10
2249.956703852735
 20
791.6391143275838
 30
0.0
 40
4.0
  1
H
  0
LINE
  5
14D
  8
回04-図面枠
 62
     7
 10
2211.227318547082
 20
796.2666912015325
 30
0.0
 11
2211.227318547082
 21
791.2666912015326
 31
0.0
  0
TEXT
  5
14E
  8
回04-図面枠
 62
     7
 10
2169.956703852735
 20
791.6391143275838
 30
0.0
 40
4.0
  1
G
  0
LINE
  5
14F
  8
回04-図面枠
 62
     7
 10
2131.227318547082
 20
796.2666912015325
 30
0.0
 11
2131.227318547082
 21
791.2666912015326
 31
0.0
  0
TEXT
  5
150
  8
回04-図面枠
 62
     7
 10
2089.956703852735
 20
791.6391143275838
 30
0.0
 40
4.0
  1
F
  0
LINE
  5
151
  8
回04-図面枠
 62
     7
 10
2051.227318547082
 20
796.2666912015325
 30
0.0
 11
2051.227318547082
 21
791.2666912015326
 31
0.0
  0
TEXT
  5
152
  8
回04-図面枠
 62
     7
 10
2009.956703852735
 20
791.6391143275838
 30
0.0
 40
4.0
  1
E
  0
LINE
  5
153
  8
回04-図面枠
 62
     7
 10
1971.227318547082
 20
796.2666912015325
 30
0.0
 11
1971.227318547082
 21
791.2666912015326
 31
0.0
  0
TEXT
  5
154
  8
回04-図面枠
 62
     7
 10
1929.956703852735
 20
791.6391143275838
 30
0.0
 40
4.0
  1
D
  0
LINE
  5
155
  8
回04-図面枠
 62
     7
 10
1891.227318547082
 20
796.2666912015325
 30
0.0
 11
1891.227318547082
 21
791.2666912015326
 31
0.0
  0
TEXT
  5
156
  8
回04-図面枠
 62
     7
 10
1849.956703852735
 20
791.6391143275838
 30
0.0
 40
4.0
  1
C
  0
LINE
  5
157
  8
回04-図面枠
 62
     7
 10
1811.227318547082
 20
796.2666912015325
 30
0.0
 11
1811.227318547082
 21
791.2666912015326
 31
0.0
  0
TEXT
  5
158
  8
回04-図面枠
 62
     7
 10
1769.956703852735
 20
791.6391143275838
 30
0.0
 40
4.0
  1
B
  0
LINE
  5
159
  8
回04-図面枠
 62
     7
 10
1731.227318547082
 20
796.2666912015325
 30
0.0
 11
1731.227318547082
 21
791.2666912015326
 31
0.0
  0
TEXT
  5
15A
  8
回04-図面枠
 62
     7
 10
1689.956703852734
 20
791.6391143275838
 30
0.0
 40
4.0
  1
A
  0
TEXT
  5
15B
  8
回04-図面枠
 62
     7
 10
1647.631739550741
 20
744.0553784973919
 30
0.0
 40
4.0
  1
1
  0
LINE
  5
15C
  8
回04-図面枠
 62
     7
 10
1651.227318547082
 20
701.2666912015325
 30
0.0
 11
1646.227318547082
 21
701.2666912015325
 31
0.0
  0
TEXT
  5
15D
  8
回04-図面枠
 62
     7
 10
1647.330240847439
 20
654.0553784973918
 30
0.0
 40
4.0
  1
2
  0
LINE
  5
15E
  8
回04-図面枠
 62
     7
 10
1651.227318547082
 20
611.2666912015326
 30
0.0
 11
1646.227318547082
 21
611.2666912015326
 31
0.0
  0
TEXT
  5
15F
  8
回04-図面枠
 62
     7
 10
1647.324760003239
 20
564.0553784973918
 30
0.0
 40
4.0
  1
3
  0
LINE
  5
160
  8
回04-図面枠
 62
     7
 10
1651.227318547082
 20
521.2666912015325
 30
0.0
 11
1646.227318547082
 21
521.2666912015325
 31
0.0
  0
TEXT
  5
161
  8
回04-図面枠
 62
     7
 10
1647.251667883158
 20
474.0553784973918
 30
0.0
 40
4.0
  1
4
  0
LINE
  5
162
  8
回04-図面枠
 62
     7
 10
1651.227318547082
 20
431.2666912015325
 30
0.0
 11
1646.227318547082
 21
431.2666912015325
 31
0.0
  0
TEXT
  5
163
  8
回04-図面枠
 62
     7
 10
1647.251667883158
 20
384.0553784973918
 30
0.0
 40
4.0
  1
5
  0
TEXT
  5
164
  8
回04-図面枠
 62
     7
 10
2249.956703852735
 20
246.6391143275838
 30
0.0
 40
4.0
  1
H
  0
LINE
  5
165
  8
回04-図面枠
 62
     7
 10
2211.227318547082
 20
251.2666912015326
 30
0.0
 11
2211.227318547082
 21
246.2666912015326
 31
0.0
  0
TEXT
  5
166
  8
回04-図面枠
 62
     7
 10
2169.956703852735
 20
246.6391143275838
 30
0.0
 40
4.0
  1
G
  0
LINE
  5
167
  8
回04-図面枠
 62
     7
 10
2131.227318547082
 20
251.2666912015326
 30
0.0
 11
2131.227318547082
 21
246.2666912015326
 31
0.0
  0
TEXT
  5
168
  8
回04-図面枠
 62
     7
 10
2089.956703852735
 20
246.6391143275838
 30
0.0
 40
4.0
  1
F
  0
LINE
  5
169
  8
回04-図面枠
 62
     7
 10
2051.227318547082
 20
251.2666912015326
 30
0.0
 11
2051.227318547082
 21
246.2666912015326
 31
0.0
  0
TEXT
  5
16A
  8
回04-図面枠
 62
     7
 10
2009.956703852735
 20
246.6391143275838
 30
0.0
 40
4.0
  1
E
  0
LINE
  5
16B
  8
回04-図面枠
 62
     7
 10
1971.227318547082
 20
251.2666912015326
 30
0.0
 11
1971.227318547082
 21
246.2666912015326
 31
0.0
  0
LINE
  5
16C
  8
回04-図面枠
 62
     7
 10
1651.227318547082
 20
341.2666912015326
 30
0.0
 11
1646.227318547082
 21
341.2666912015326
 31
0.0
  0
TEXT
  5
16D
  8
回04-図面枠
 62
     7
 10
1647.251667883158
 20
294.0553784973919
 30
0.0
 40
4.0
  1
6
  0
TEXT
  5
16E
  8
回04-図面枠
 62
     7
 10
1929.956703852735
 20
246.6391143275838
 30
0.0
 40
4.0
  1
D
  0
LINE
  5
16F
  8
回04-図面枠
 62
     7
 10
1891.227318547082
 20
251.2666912015326
 30
0.0
 11
1891.227318547082
 21
246.2666912015326
 31
0.0
  0
TEXT
  5
170
  8
回04-図面枠
 62
     7
 10
1849.956703852735
 20
246.6391143275838
 30
0.0
 40
4.0
  1
C
  0
LINE
  5
171
  8
回04-図面枠
 62
     7
 10
1811.227318547082
 20
251.2666912015326
 30
0.0
 11
1811.227318547082
 21
246.2666912015326
 31
0.0
  0
TEXT
  5
172
  8
回04-図面枠
 62
     7
 10
1769.956703852735
 20
246.6391143275838
 30
0.0
 40
4.0
  1
B
  0
LINE
  5
173
  8
回04-図面枠
 62
     7
 10
1731.227318547082
 20
251.2666912015326
 30
0.0
 11
1731.227318547082
 21
246.2666912015326
 31
0.0
  0
TEXT
  5
174
  8
回04-図面枠
 62
     7
 10
1689.956703852734
 20
246.6391143275838
 30
0.0
 40
4.0
  1
A
  0
LINE
  5
175
  8
回04-図面枠
 62
     7
 10
1651.227318547082
 20
791.2666912015326
 30
0.0
 11
1651.227318547082
 21
251.2666912015326
 31
0.0
  0
LINE
  5
176
  8
回04-図面枠
 62
     7
 10
1646.227318547082
 20
246.2666912015326
 30
0.0
 11
1646.227318547082
 21
796.2666912015325
 31
0.0
  0
LINE
  5
177
  8
回04-図面枠
 62
     7
 10
1651.227318547082
 20
251.2666912015326
 30
0.0
 11
2451.227318547082
 21
251.2666912015326
 31
0.0
  0
LINE
  5
178
  8
回04-図面枠
 62
     7
 10
2456.227318547082
 20
246.2666912015326
 30
0.0
 11
1646.227318547082
 21
246.2666912015326
 31
0.0
  0
LINE
  5
179
  8
回04-図面枠
 62
     7
 10
1651.227318547082
 20
791.2666912015326
 30
0.0
 11
2451.227318547082
 21
791.2666912015326
 31
0.0
  0
LINE
  5
17A
  8
回04-図面枠
 62
     7
 10
2456.227318547082
 20
796.2666912015325
 30
0.0
 11
1646.227318547082
 21
796.2666912015325
 31
0.0
  0
LINE
  5
17B
  8
回03-記事
  6
CONTINUOUS
 62
     7
 10
1864.165308172933
 20
361.9314451652747
 30
0.0
 11
1863.88048861518
 21
349.9841002845571
 31
0.0
  0
LINE
  5
17C
  8
回01-TP外形
  6
CONTINUOUS
 62
     7
 10
1861.720984829132
 20
361.4506283026251
 30
0.0
 11
1871.467245632977
 21
361.4506283026251
 31
0.0
  0
LINE
  5
17D
  8
回01-TP外形
  6
CONTINUOUS
 62
     7
 10
1861.720984829132
 20
362.4506283026257
 30
0.0
 11
1861.720984829132
 21
361.4506283026251
 31
0.0
  0
DIMENSION
  5
17E
  8
回02-寸法
  6
CONTINUOUS
 62
     7
  2
*D44
 10
1871.967245632976
 20
376.1108547987967
 30
0.0
 11
1883.064883428252
 21
379.9108547987967
 31
0.0
 70
    32
  1
(<>)
  3
KOUSA
 13
1871.467245632977
 23
362.4506283026257
 33
0.0
 14
1871.967245632976
 24
367.5235218264596
 34
0.0
1001
ACAD
1000
DSTYLE
1002
{
1070
    71
1070
     0
1070
   140
1040
6.0
1070
   288
1070
     0
1070
   341
1005
0
1002
}
  0
DIMENSION
  5
18F
  8
回02-寸法
  6
CONTINUOUS
 62
     7
  2
*D45
 10
2198.967245632977
 20
375.0155129331476
 30
0.0
 11
2187.869607837701
 21
378.8155129331477
 31
0.0
 70
    32
  1
(<>)
  3
KOUSA
 13
2199.467245632977
 23
364.6907420703818
 33
0.0
 14
2198.967245632977
 24
367.5235218264596
 34
0.0
1001
ACAD
1000
DSTYLE
1002
{
1070
    71
1070
     0
1070
   140
1040
6.0
1070
   288
1070
     0
1070
   341
1005
0
1002
}
  0
LINE
  5
1A0
  8
回01-TP外形
  6
CONTINUOUS
 62
     7
 10
2198.967245632977
 20
364.6907420703818
 30
0.0
 11
2198.967245632977
 21
367.5235218264596
 31
0.0
  0
LINE
  5
1A1
  8
回03-記事
  6
CONTINUOUS
 62
     7
 10
1872.377874775237
 20
357.0466278675748
 30
0.0
 11
1884.12791389103
 21
349.2222736425773
 31
0.0
  0
TEXT
  5
1A2
  8
回03-記事
  6
CONTINUOUS
 62
     7
 10
1885.333045579823
 20
345.6104235648444
 30
0.0
 40
7.0
  1
6
  0
LINE
  5
1A3
  8
回01-TP外形
  6
CONTINUOUS
 62
     7
 10
1874.967245632977
 20
357.0466278675748
 30
0.0
 11
1874.967245632977
 21
358.4506283026257
 31
0.0
  0
LINE
  5
1A4
  8
回01-TP外形
  6
CONTINUOUS
 62
     7
 10
1869.943283894227
 20
357.0466278675748
 30
0.0
 11
1874.967245632977
 21
357.0466278675748
 31
0.0
  0
LINE
  5
1A5
  8
回01-TP外形
  6
CONTINUOUS
 62
     7
 10
1869.943283894227
 20
360.0141422082099
 30
0.0
 11
1869.943283894227
 21
357.0466278675748
 31
0.0
  0
LINE
  5
1A6
  8
回01-TP外形
  6
CONTINUOUS
 62
     7
 10
1867.275762628576
 20
360.0141422082099
 30
0.0
 11
1869.943283894227
 21
360.0141422082099
 31
0.0
  0
LINE
  5
1A7
  8
回01-TP外形
  6
CONTINUOUS
 62
     7
 10
1867.275762628576
 20
361.4506283026251
 30
0.0
 11
1867.275762628576
 21
360.0141422082099
 31
0.0
  0
ARC
  5
1A8
  8
回01-TP外形
  6
CONTINUOUS
 62
     7
 10
2176.467245632977
 20
362.4506283026257
 30
0.0
 40
1.0
 50
0.0
 51
180.0
  0
ARC
  5
1A9
  8
回01-TP外形
  6
CONTINUOUS
 62
     7
 10
2186.467245632977
 20
362.4506283026257
 30
0.0
 40
1.0
 50
0.0
 51
180.0
  0
LINE
  5
1AA
  8
回01-TP外形
  6
CONTINUOUS
 62
     7
 10
2199.467245632977
 20
358.4506283026257
 30
0.0
 11
2199.467245632977
 21
364.6907420703818
 31
0.0
  0
LINE
  5
1AB
  8
回01-TP外形
  6
CONTINUOUS
 62
     7
 10
2189.467245632977
 20
364.6907420703818
 30
0.0
 11
2189.467245632977
 21
362.4506283026257
 31
0.0
  0
DIMENSION
  5
1AC
  8
回02-寸法
  6
CONTINUOUS
 62
     7
  2
*D46
 10
2212.34363322047
 20
358.4506283026257
 30
0.0
 11
2208.84363322047
 21
344.8376307746152
 31
0.0
 70
    32
  1
2.1{\H0.75x;±0.2}
  3
KOUSA
 13
2198.967245632977
 23
367.5235218264596
 33
0.0
 14
2199.467245632977
 24
358.4506283026257
 34
0.0
 50
90.0
1001
ACAD
1000
DSTYLE
1002
{
1070
    71
1070
     0
1070
   140
1040
6.0
1070
   288
1070
     0
1070
   341
1005
0
1002
}
  0
ARC
  5
1BD
  8
回01-TP外形
  6
CONTINUOUS
 62
     7
 10
2156.467245632977
 20
362.4506283026257
 30
0.0
 40
1.0
 50
0.0
 51
180.0
  0
ARC
  5
1BE
  8
回01-TP外形
  6
CONTINUOUS
 62
     7
 10
2166.467245632977
 20
362.4506283026257
 30
0.0
 40
1.0
 50
0.0
 51
180.0
  0
ARC
  5
1BF
  8
回01-TP外形
  6
CONTINUOUS
 62
     7
 10
2126.467245632977
 20
362.4506283026257
 30
0.0
 40
1.0
 50
0.0
 51
180.0
  0
ARC
  5
1C0
  8
回01-TP外形
  6
CONTINUOUS
 62
     7
 10
2136.467245632977
 20
362.4506283026257
 30
0.0
 40
1.0
 50
0.0
 51
180.0
  0
ARC
  5
1C1
  8
回01-TP外形
  6
CONTINUOUS
 62
     7
 10
2146.467245632977
 20
362.4506283026257
 30
0.0
 40
1.0
 50
0.0
 51
180.0
  0
ARC
  5
1C2
  8
回01-TP外形
  6
CONTINUOUS
 62
     7
 10
2106.467245632977
 20
362.4506283026257
 30
0.0
 40
1.0
 50
0.0
 51
180.0
  0
ARC
  5
1C3
  8
回01-TP外形
  6
CONTINUOUS
 62
     7
 10
2116.467245632977
 20
362.4506283026257
 30
0.0
 40
1.0
 50
0.0
 51
180.0
  0
ARC
  5
1C4
  8
回01-TP外形
  6
CONTINUOUS
 62
     7
 10
2076.467245632977
 20
362.4506283026257
 30
0.0
 40
1.0
 50
0.0
 51
180.0
  0
ARC
  5
1C5
  8
回01-TP外形
  6
CONTINUOUS
 62
     7
 10
2086.467245632977
 20
362.4506283026257
 30
0.0
 40
1.0
 50
0.0
 51
180.0
  0
ARC
  5
1C6
  8
回01-TP外形
  6
CONTINUOUS
 62
     7
 10
2096.467245632977
 20
362.4506283026257
 30
0.0
 40
1.0
 50
0.0
 51
180.0
  0
ARC
  5
1C7
  8
回01-TP外形
  6
CONTINUOUS
 62
     7
 10
2056.467245632977
 20
362.4506283026257
 30
0.0
 40
1.0
 50
0.0
 51
180.0
  0
ARC
  5
1C8
  8
回01-TP外形
  6
CONTINUOUS
 62
     7
 10
2066.467245632977
 20
362.4506283026257
 30
0.0
 40
1.0
 50
0.0
 51
180.0
  0
ARC
  5
1C9
  8
回01-TP外形
  6
CONTINUOUS
 62
     7
 10
2026.467245632977
 20
362.4506283026257
 30
0.0
 40
1.0
 50
0.0
 51
180.0
  0
ARC
  5
1CA
  8
回01-TP外形
  6
CONTINUOUS
 62
     7
 10
2036.467245632977
 20
362.4506283026257
 30
0.0
 40
1.0
 50
0.0
 51
180.0
  0
ARC
  5
1CB
  8
回01-TP外形
  6
CONTINUOUS
 62
     7
 10
2046.467245632977
 20
362.4506283026257
 30
0.0
 40
1.0
 50
0.0
 51
180.0
  0
ARC
  5
1CC
  8
回01-TP外形
  6
CONTINUOUS
 62
     7
 10
2006.467245632977
 20
362.4506283026257
 30
0.0
 40
1.0
 50
0.0
 51
180.0
  0
ARC
  5
1CD
  8
回01-TP外形
  6
CONTINUOUS
 62
     7
 10
2016.467245632977
 20
362.4506283026257
 30
0.0
 40
1.0
 50
0.0
 51
180.0
  0
ARC
  5
1CE
  8
回01-TP外形
  6
CONTINUOUS
 62
     7
 10
1986.467245632977
 20
362.4506283026257
 30
0.0
 40
1.0
 50
0.0
 51
180.0
  0
ARC
  5
1CF
  8
回01-TP外形
  6
CONTINUOUS
 62
     7
 10
1996.467245632977
 20
362.4506283026257
 30
0.0
 40
1.0
 50
0.0
 51
180.0
  0
TEXT
  5
1D0
  8
回03-記事
  6
CONTINUOUS
 62
     7
 10
2003.622096459936
 20
377.7563417014625
 30
0.0
 40
7.0
  1
1
  0
ARC
  5
1D1
  8
回01-TP外形
  6
CONTINUOUS
 62
     7
 10
1956.467245632977
 20
362.4506283026257
 30
0.0
 40
1.0
 50
0.0
 51
180.0
  0
ARC
  5
1D2
  8
回01-TP外形
  6
CONTINUOUS
 62
     7
 10
1966.467245632976
 20
362.4506283026257
 30
0.0
 40
1.0
 50
0.0
 51
180.0
  0
ARC
  5
1D3
  8
回01-TP外形
  6
CONTINUOUS
 62
     7
 10
1936.467245632977
 20
362.4506283026257
 30
0.0
 40
1.0
 50
0.0
 51
180.0
  0
ARC
  5
1D4
  8
回01-TP外形
  6
CONTINUOUS
 62
     7
 10
1946.467245632977
 20
362.4506283026257
 30
0.0
 40
1.0
 50
0.0
 51
180.0
  0
ARC
  5
1D5
  8
回01-TP外形
  6
CONTINUOUS
 62
     7
 10
1976.467245632977
 20
362.4506283026257
 30
0.0
 40
1.0
 50
0.0
 51
180.0
  0
LINE
  5
1D6
  8
回03-記事
  6
CONTINUOUS
 62
     7
 10
1986.34131122939
 20
359.5221608278269
 30
0.0
 11
1998.091350345182
 21
351.9974761910443
 31
0.0
  0
ARC
  5
1D7
  8
回01-TP外形
  6
CONTINUOUS
 62
     7
 10
1906.467245632977
 20
362.4506283026257
 30
0.0
 40
1.0
 50
0.0
 51
180.0
  0
ARC
  5
1D8
  8
回01-TP外形
  6
CONTINUOUS
 62
     7
 10
1916.467245632977
 20
362.4506283026257
 30
0.0
 40
1.0
 50
0.0
 51
180.0
  0
ARC
  5
1D9
  8
回01-TP外形
  6
CONTINUOUS
 62
     7
 10
1886.467245632976
 20
362.4506283026257
 30
0.0
 40
1.0
 50
0.0
 51
180.0
  0
ARC
  5
1DA
  8
回01-TP外形
  6
CONTINUOUS
 62
     7
 10
1896.467245632977
 20
362.4506283026257
 30
0.0
 40
1.0
 50
0.0
 51
180.0
  0
LINE
  5
1DB
  8
回01-TP外形
  6
CONTINUOUS
 62
     7
 10
1882.467245632977
 20
364.6907420703822
 30
0.0
 11
1882.467245632977
 21
362.4506283026257
 31
0.0
  0
LINE
  5
1DC
  8
回01-TP外形
  6
CONTINUOUS
 62
     7
 10
1871.967245632976
 20
364.6907420703822
 30
0.0
 11
1871.967245632976
 21
367.5235218264596
 31
0.0
  0
TEXT
  5
1DD
  8
回03-記事
  6
CONTINUOUS
 62
     7
 10
1863.696569884812
 20
342.2692491027693
 30
0.0
 40
7.0
  1
5
  0
LINE
  5
1DE
  8
回01-TP外形
  6
CONTINUOUS
 62
     7
 10
1871.467245632977
 20
358.4506283026257
 30
0.0
 11
1871.467245632977
 21
362.4506283026257
 31
0.0
  0
LINE
  5
1DF
  8
回03-記事
  6
CONTINUOUS
 62
     7
 10
1828.473341694455
 20
363.506169824969
 30
0.0
 11
1827.26609418605
 21
371.3428816954086
 31
0.0
  0
TEXT
  5
1E0
  8
回03-記事
  6
CONTINUOUS
 62
     7
 10
1825.025102261365
 20
372.7853720688465
 30
0.0
 40
7.0
  1
3
  0
LINE
  5
1E1
  8
回03-記事
  6
CONTINUOUS
 62
     7
 10
1993.077189032937
 20
368.1247449515021
 30
0.0
 11
2003.622096459936
 21
378.6593055173934
 31
0.0
  0
TEXT
  5
1E2
  8
回03-記事
  6
CONTINUOUS
 62
     7
 10
1999.296482033976
 20
348.3856261133113
 30
0.0
 40
7.0
  1
2
  0
ARC
  5
1E3
  8
回01-TP外形
  6
CONTINUOUS
 62
     7
 10
1926.467245632977
 20
362.4506283026257
 30
0.0
 40
1.0
 50
0.0
 51
180.0
  0
LINE
  5
1E4
  8
回01-TP外形
  6
CONTINUOUS
 62
     7
 10
1796.467245632977
 20
364.6907420703823
 30
0.0
 11
1796.467245632977
 21
365.6907420703823
 31
0.0
  0
DIMENSION
  5
1E5
  8
回02-寸法
  6
CONTINUOUS
 62
     7
  2
*D47
 10
1796.467245632977
 20
369.6647077566824
 30
0.0
 11
1802.291509701689
 21
369.6647077566824
 31
0.0
 70
   160
  3
KOUSA
 13
1791.467245632977
 23
364.6907420703823
 33
0.0
 14
1796.467245632977
 24
365.6907420703827
 34
0.0
1001
ACAD
1000
DSTYLE
1002
{
1070
    71
1070
     0
1070
   140
1040
6.0
1070
   288
1070
     0
1070
   341
1005
0
1002
}
  0
TEXT
  5
1F6
  8
回03-記事
  6
CONTINUOUS
 62
     7
 10
1809.066953091301
 20
352.1084919603453
 30
0.0
 40
7.0
  1
4
  0
LINE
  5
1F7
  8
回01-TP外形
  6
CONTINUOUS
 62
     7
 10
1801.467245632977
 20
359.4506283026257
 30
0.0
 11
1801.467245632977
 21
362.4506283026257
 31
0.0
  0
LINE
  5
1F8
  8
回01-TP外形
  6
CONTINUOUS
 62
     7
 10
1801.467245632977
 20
359.4506283026257
 30
0.0
 11
1791.467245632977
 21
359.4506283026257
 31
0.0
  0
LINE
  5
1F9
  8
回03-記事
  6
CONTINUOUS
 62
     7
 10
1807.72472185022
 20
356.4685996307529
 30
0.0
 11
1798.496898168574
 21
360.4933122678247
 31
0.0
  0
DIMENSION
  5
1FA
  8
回02-寸法
  6
CONTINUOUS
 62
     7
  2
*D48
 10
1801.467245632977
 20
342.7573804742495
 30
0.0
 11
1811.914489727465
 21
342.7573804742495
 31
0.0
 70
   160
  1
(<>)
  3
KOUSA
 13
1791.467245632977
 23
359.4506283026257
 33
0.0
 14
1801.467245632977
 24
359.4506283026257
 34
0.0
1001
ACAD
1000
DSTYLE
1002
{
1070
    71
1070
     0
1070
   140
1040
6.0
1070
   288
1070
     0
1070
   341
1005
0
1002
}
  0
LINE
  5
20B
  8
回01-TP外形
  6
CONTINUOUS
 62
     7
 10
1791.467245632977
 20
359.4506283026257
 30
0.0
 11
1791.467245632977
 21
364.6907420703823
 31
0.0
  0
DIMENSION
  5
20C
  8
回02-寸法
  6
CONTINUOUS
 62
     7
  2
*D49
 10
1781.158116050801
 20
359.4506283026257
 30
0.0
 11
1781.158116050801
 21
343.5675680463668
 31
0.0
 70
   160
  1
0.3{\H0.75x;±0.05}
  3
KOUSA
 13
1791.467245632977
 23
364.6907420703823
 33
0.0
 14
1791.467245632977
 24
359.4506283026257
 34
0.0
 50
90.0
1001
ACAD
1000
DSTYLE
1002
{
1070
    71
1070
     0
1070
   140
1040
6.0
1070
   288
1070
     0
1070
   341
1005
0
1002
}
  0
LINE
  5
21D
  8
回03-記事
  6
CONTINUOUS
 62
     7
 10
1857.691910258697
 20
365.3895388038708
 30
0.0
 11
1863.88048861518
 21
349.9841002845571
 31
0.0
  0
LINE
  5
21E
  8
回01-TP外形
  6
CONTINUOUS
 62
     7
 10
1871.967245632976
 20
365.6907420703827
 30
0.0
 11
1796.467245632977
 21
365.6907420703827
 31
0.0
  0
LINE
  5
21F
  8
回01-TP外形
  6
CONTINUOUS
 62
     7
 10
2199.467245632977
 20
364.6907420703818
 30
0.0
 11
1791.467245632977
 21
364.6907420703818
 31
0.0
  0
LINE
  5
220
  8
回01-TP外形
  6
CONTINUOUS
 62
     7
 10
2199.467245632977
 20
362.4506283026257
 30
0.0
 11
1791.467245632977
 21
362.4506283026257
 31
0.0
  0
LINE
  5
221
  8
回01-TP外形
  6
CONTINUOUS
 62
     7
 10
2198.967245632977
 20
367.5235218264596
 30
0.0
 11
1871.967245632976
 21
367.5235218264596
 31
0.0
  0
LINE
  5
222
  8
回01-TP外形
  6
CONTINUOUS
 62
     7
 10
2199.467245632977
 20
358.4506283026257
 30
0.0
 11
1871.467245632977
 21
358.4506283026257
 31
0.0
  0
POLYLINE
  5
223
  8
回01-TP外形
  6
PHANTOM2
 62
     7
 66
     1
 10
0.0
 20
0.0
 30
0.0
 70
     1
  0
VERTEX
  5
6B5
  8
回01-TP外形
  6
PHANTOM2
 62
     7
 10
1881.153245632976
 20
681.6375391930291
 30
0.0
  0
VERTEX
  5
6B7
  8
回01-TP外形
  6
PHANTOM2
 62
     7
 10
2190.781245632976
 20
681.6375391930291
 30
0.0
  0
VERTEX
  5
6B8
  8
回01-TP外形
  6
PHANTOM2
 62
     7
 10
2190.781245632976
 20
447.4415391930292
 30
0.0
  0
VERTEX
  5
6B9
  8
回01-TP外形
  6
PHANTOM2
 62
     7
 10
1881.153245632976
 20
447.4415391930292
 30
0.0
  0
SEQEND
  5
6B6
  8
回01-TP外形
  6
CONTINUOUS
 62
     7
  0
DIMENSION
  5
225
  8
回02-寸法
  6
CONTINUOUS
 62
     7
  2
*D50
 10
2244.467245632977
 20
438.5395391930292
 30
0.0
 11
2244.467245632977
 21
429.7152751243166
 31
0.0
 70
   160
  3
KOUSA
 13
2190.281245632977
 23
448.2415391930292
 33
0.0
 14
2199.467245632977
 24
438.5395391930292
 34
0.0
 50
90.0
1001
ACAD
1000
DSTYLE
1002
{
1070
    71
1070
     0
1070
   140
1040
6.0
1070
   288
1070
     0
1070
   341
1005
0
1002
}
  0
DIMENSION
  5
237
  8
回02-寸法
  6
CONTINUOUS
 62
     7
  2
*D51
 10
2234.467245632977
 20
438.5395391930292
 30
0.0
 11
2234.467245632977
 21
428.9395391930286
 31
0.0
 70
   160
  3
KOUSA
 13
2188.281245632976
 23
450.2415391930291
 33
0.0
 14
2199.467245632977
 24
438.5395391930292
 34
0.0
 50
90.0
1001
ACAD
1000
DSTYLE
1002
{
1070
    71
1070
     0
1070
   140
1040
6.0
1070
   288
1070
     0
1070
   341
1005
0
1002
}
  0
DIMENSION
  5
248
  8
回02-寸法
  6
CONTINUOUS
 62
     7
  2
*D52
 10
2244.467245632977
 20
690.5445696353353
 30
0.0
 11
2244.467245632977
 21
703.1530385361921
 31
0.0
 70
   160
  1
(<>)
  3
KOUSA
 13
2190.281245632977
 23
680.8375391930292
 33
0.0
 14
2199.467245632977
 24
690.5445696353353
 34
0.0
 50
90.0
1001
ACAD
1000
DSTYLE
1002
{
1070
    71
1070
     0
1070
   140
1040
6.0
1070
   288
1070
     0
1070
   341
1005
0
1002
}
  0
DIMENSION
  5
259
  8
回02-寸法
  6
CONTINUOUS
 62
     7
  2
*D53
 10
2234.467245632977
 20
690.5445696353353
 30
0.0
 11
2234.467245632977
 21
704.0422074306111
 31
0.0
 70
   160
  1
(<>)
  3
KOUSA
 13
2188.281245632976
 23
678.8375391930292
 33
0.0
 14
2199.467245632977
 24
690.5445696353353
 34
0.0
 50
90.0
1001
ACAD
1000
DSTYLE
1002
{
1070
    71
1070
     0
1070
   140
1040
6.0
1070
   288
1070
     0
1070
   341
1005
0
1002
}
  0
DIMENSION
  5
26A
  8
回02-寸法
  6
CONTINUOUS
 62
     7
  2
*D54
 10
2199.467245632977
 20
715.5395391930292
 30
0.0
 11
2212.086545639415
 21
715.5395391930292
 31
0.0
 70
   160
  1
(<>)
  3
KOUSA
 13
2190.281245632977
 23
680.8375391930292
 33
0.0
 14
2199.467245632977
 24
690.5445696353353
 34
0.0
1001
ACAD
1000
DSTYLE
1002
{
1070
    71
1070
     0
1070
   140
1040
6.0
1070
   288
1070
     0
1070
   341
1005
0
1002
}
  0
DIMENSION
  5
27B
  8
回02-寸法
  6
CONTINUOUS
 62
     7
  2
*D55
 10
2199.467245632977
 20
705.5395391930292
 30
0.0
 11
2212.975714533833
 21
705.5395391930292
 31
0.0
 70
   160
  1
(<>)
  3
KOUSA
 13
2188.281245632976
 23
678.8375391930292
 33
0.0
 14
2199.467245632977
 24
690.5445696353353
 34
0.0
1001
ACAD
1000
DSTYLE
1002
{
1070
    71
1070
     0
1070
   140
1040
6.0
1070
   288
1070
     0
1070
   341
1005
0
1002
}
  0
DIMENSION
  5
28C
  8
回02-寸法
  6
CONTINUOUS
 62
     7
  2
*D56
 10
1871.467245632977
 20
715.5395391930292
 30
0.0
 11
1859.552465195972
 21
715.5395391930292
 31
0.0
 70
   160
  3
KOUSA
 13
1881.653245632976
 23
680.8375391930292
 33
0.0
 14
1871.467245632977
 24
690.5395391930292
 34
0.0
1001
ACAD
1000
DSTYLE
1002
{
1070
    71
1070
     0
1070
   140
1040
6.0
1070
   288
1070
     0
1070
   341
1005
0
1002
}
  0
DIMENSION
  5
29D
  8
回02-寸法
  6
CONTINUOUS
 62
     7
  2
*D57
 10
1871.467245632977
 20
705.5395391930292
 30
0.0
 11
1859.552465195972
 21
705.5395391930292
 31
0.0
 70
   160
  3
KOUSA
 13
1883.653245632976
 23
678.8375391930292
 33
0.0
 14
1871.467245632977
 24
690.5395391930292
 34
0.0
1001
ACAD
1000
DSTYLE
1002
{
1070
    71
1070
     0
1070
   140
1040
6.0
1070
   288
1070
     0
1070
   341
1005
0
1002
}
  0
DIMENSION
  5
2AE
  8
回02-寸法
  6
CONTINUOUS
 62
     7
  2
*D58
 10
2254.467245632982
 20
438.5395391930292
 30
0.0
 11
2250.842250632982
 21
404.4994375500468
 31
0.0
 70
    32
  1
<>{\H0.8333x;(Insulation Area)}
  3
KOUSA
 13
2190.781245632976
 23
447.4415391930292
 33
0.0
 14
2199.467245632977
 24
438.5395391930292
 34
0.0
 50
90.0
1001
ACAD
1000
DSTYLE
1002
{
1070
    71
1070
     0
1070
   140
1040
6.0
1070
   288
1070
     0
1070
   341
1005
0
1002
}
  0
DIMENSION
  5
2BF
  8
回02-寸法
  6
CONTINUOUS
 62
     7
  2
*D59
 10
2254.467245632982
 20
690.5445696353353
 30
0.0
 11
2250.665675743718
 21
703.1530385361921
 31
0.0
 70
    32
  1
(<>)
  3
KOUSA
 13
2190.781245632976
 23
681.6375391930291
 33
0.0
 14
2199.467245632977
 24
690.5445696353353
 34
0.0
 50
90.0
1001
ACAD
1000
DSTYLE
1002
{
1070
    71
1070
     0
1070
   140
1040
6.0
1070
   288
1070
     0
1070
   341
1005
0
1002
}
  0
DIMENSION
  5
2D0
  8
回02-寸法
  6
CONTINUOUS
 62
     7
  2
*D60
 10
2254.467245632977
 20
447.4415391930292
 30
0.0
 11
2254.467245632977
 21
564.5395391930288
 31
0.0
 70
   160
  3
KOUSA
 13
2190.781245632976
 23
681.6375391930291
 33
0.0
 14
2190.781245632976
 24
447.4415391930292
 34
0.0
 50
90.0
1001
ACAD
1000
DSTYLE
1002
{
1070
    71
1070
     0
1070
   140
1040
6.0
1070
   288
1070
     0
1070
   341
1005
0
1002
}
  0
DIMENSION
  5
2DF
  8
回02-寸法
  6
CONTINUOUS
 62
     7
  2
*D61
 10
1871.467245632977
 20
725.5395391930292
 30
0.0
 11
1830.350095629758
 21
729.3395391930292
 31
0.0
 70
    32
  1
<>(Insulation Area)
  3
KOUSA
 13
1881.153245632976
 23
681.6375391930291
 33
0.0
 14
1871.467245632977
 24
690.5395391930292
 34
0.0
1001
ACAD
1000
DSTYLE
1002
{
1070
    71
1070
     0
1070
   140
1040
6.0
1070
   288
1070
     0
1070
   341
1005
0
1002
}
  0
DIMENSION
  5
2F0
  8
回02-寸法
  6
CONTINUOUS
 62
     7
  2
*D62
 10
2199.467245632977
 20
725.5395391930292
 30
0.0
 11
2212.675714533833
 21
729.3411090822929
 31
0.0
 70
    32
  1
(<>)
  3
KOUSA
 13
2190.781245632976
 23
681.6375391930291
 33
0.0
 14
2199.467245632977
 24
690.5445696353353
 34
0.0
1001
ACAD
1000
DSTYLE
1002
{
1070
    71
1070
     0
1070
   140
1040
6.0
1070
   288
1070
     0
1070
   341
1005
0
1002
}
  0
DIMENSION
  5
301
  8
回02-寸法
  6
CONTINUOUS
 62
     7
  2
*D63
 10
2190.781245632976
 20
725.5395391930292
 30
0.0
 11
2035.967245632977
 21
725.5395391930292
 31
0.0
 70
   160
  3
KOUSA
 13
1881.153245632976
 23
681.6375391930291
 33
0.0
 14
2190.781245632976
 24
681.6375391930291
 34
0.0
1001
ACAD
1000
DSTYLE
1002
{
1070
    71
1070
     0
1070
   140
1040
6.0
1070
   288
1070
     0
1070
   341
1005
0
1002
}
  0
DIMENSION
  5
310
  8
回02-寸法
  6
CONTINUOUS
 62
     7
  2
*D64
 10
1866.866743120414
 20
543.7309521029986
 30
0.0
 11
1856.732392815202
 21
543.7309521029986
 31
0.0
 70
   160
  3
KOUSA
 13
1871.467245632977
 23
555.8624148485619
 33
0.0
 14
1866.866743120414
 24
556.6286931123329
 34
0.0
1001
ACAD
1000
DSTYLE
1002
{
1070
    71
1070
     0
1070
   140
1040
6.0
1070
   288
1070
     0
1070
   341
1005
0
1002
}
  0
DIMENSION
  5
321
  8
回02-寸法
  6
CONTINUOUS
 62
     7
  2
*D65
 10
2264.467245632977
 20
690.5445696353353
 30
0.0
 11
2264.467245632977
 21
564.5395391930292
 31
0.0
 70
   160
  3
KOUSA
 13
2199.467245632977
 23
438.5395391930292
 33
0.0
 14
2199.467245632977
 24
690.5445696353353
 34
0.0
 50
90.0
1001
ACAD
1000
DSTYLE
1002
{
1070
    47
1040
0.3
1070
    48
1040
0.3
1070
   140
1040
6.0
1070
   288
1070
     0
1070
   341
1005
0
1002
}
  0
DIMENSION
  5
330
  8
回02-寸法
  6
CONTINUOUS
 62
     7
  2
*D66
 10
2244.467245632977
 20
448.2415391930292
 30
0.0
 11
2244.467245632977
 21
564.5395391930292
 31
0.0
 70
   160
  1
<> (VIEWING AREA)
  3
KOUSA
 13
2190.281245632977
 23
680.8375391930292
 33
0.0
 14
2190.281245632977
 24
448.2415391930292
 34
0.0
 50
90.0
1001
ACAD
1000
DSTYLE
1002
{
1070
    71
1070
     0
1070
   140
1040
6.0
1070
   288
1070
     0
1070
   341
1005
0
1002
}
  0
DIMENSION
  5
33F
  8
回02-寸法
  6
CONTINUOUS
 62
     7
  2
*D67
 10
2234.467245632977
 20
678.8375391930292
 30
0.0
 11
2234.467245632977
 21
564.5395391930292
 31
0.0
 70
   160
  1
<> (ACTIVE AREA)
  3
KOUSA
 13
2188.281245632976
 23
450.2415391930291
 33
0.0
 14
2188.281245632976
 24
678.8375391930292
 34
0.0
 50
90.0
1001
ACAD
1000
DSTYLE
1002
{
1070
    71
1070
     0
1070
   140
1040
6.0
1070
   288
1070
     0
1070
   341
1005
0
1002
}
  0
DIMENSION
  5
34E
  8
回02-寸法
  6
CONTINUOUS
 62
     7
  2
*D68
 10
2199.467245632977
 20
735.5395391930292
 30
0.0
 11
2035.967245632977
 21
735.5395391930292
 31
0.0
 70
   160
  3
KOUSA
 13
1871.467245632977
 23
690.5395391930292
 33
0.0
 14
2199.467245632977
 24
690.5445696353353
 34
0.0
1001
ACAD
1000
DSTYLE
1002
{
1070
    47
1040
0.3
1070
    48
1040
0.3
1070
   140
1040
6.0
1070
   288
1070
     0
1070
   341
1005
0
1002
}
  0
DIMENSION
  5
35D
  8
回02-寸法
  6
CONTINUOUS
 62
     7
  2
*D69
 10
2190.281245632977
 20
715.5395391930292
 30
0.0
 11
2035.967245632977
 21
715.5395391930292
 31
0.0
 70
   160
  1
<> (VIEWING AREA)
  3
KOUSA
 13
1881.653245632976
 23
680.8375391930292
 33
0.0
 14
2190.281245632977
 24
680.8375391930292
 34
0.0
1001
ACAD
1000
DSTYLE
1002
{
1070
    71
1070
     0
1070
   140
1040
6.0
1070
   288
1070
     0
1070
   341
1005
0
1002
}
  0
DIMENSION
  5
36C
  8
回02-寸法
  6
CONTINUOUS
 62
     7
  2
*D70
 10
2188.281245632976
 20
705.5395391930292
 30
0.0
 11
2035.967245632977
 21
705.5395391930292
 31
0.0
 70
   160
  1
<> (ACTIVE AREA)
  3
KOUSA
 13
1883.653245632976
 23
678.8375391930292
 33
0.0
 14
2188.281245632976
 24
678.8375391930292
 34
0.0
1001
ACAD
1000
DSTYLE
1002
{
1070
    71
1070
     0
1070
   140
1040
6.0
1070
   288
1070
     0
1070
   341
1005
0
1002
}
  0
DIMENSION
  5
37B
  8
回02-寸法
 62
     7
  2
*D71
 10
1781.024157074038
 20
561.4145391930292
 30
0.0
 11
1781.024157074038
 21
583.9451907678319
 31
0.0
 70
   160
  1
<>
  3
KOUSA
 13
1791.967202122209
 23
567.6645391930292
 33
0.0
 14
1791.967202122209
 24
561.4145391930292
 34
0.0
 50
90.0
1001
ACAD
1000
DSTYLE
1002
{
1070
    47
1040
0.2
1070
   147
1040
0.5
1070
    48
1040
0.2
1070
    72
1070
     0
1070
    71
1070
     1
1070
   140
1040
6.0
1070
   288
1070
     0
1070
   341
1005
0
1002
}
  0
DIMENSION
  5
38C
  8
回02-寸法
  6
CONTINUOUS
 62
     7
  2
*D72
 10
1861.971314512949
 20
533.0033052564219
 30
0.0
 11
1853.022786375525
 21
533.0033052564219
 31
0.0
 70
   160
  3
KOUSA
 13
1871.467202122208
 23
553.6684713811633
 33
0.0
 14
1861.971314512949
 24
561.3213497368207
 34
0.0
1001
ACAD
1000
DSTYLE
1002
{
1070
    71
1070
     0
1070
   140
1040
6.0
1070
   288
1070
     0
1070
   341
1005
0
1002
}
  0
DIMENSION
  5
39D
  8
回02-寸法
  6
CONTINUOUS
 62
     7
  2
*D73
 10
1846.306381341465
 20
572.5383361587573
 30
0.0
 11
1846.306381341465
 21
549.1907202953909
 31
0.0
 70
   160
  3
KOUSA
 13
1867.279489310317
 23
556.5395391930292
 33
0.0
 14
1867.275315724611
 24
572.5383361587573
 34
0.0
 50
90.0
1001
ACAD
1000
DSTYLE
1002
{
1070
    71
1070
     0
1070
   140
1040
6.0
1070
   288
1070
     0
1070
   341
1005
0
1002
}
  0
DIMENSION
  5
3AE
  8
回02-寸法
  6
CONTINUOUS
 62
     7
  2
*D74
 10
1781.024157074038
 20
561.4145391930292
 30
0.0
 11
1781.024157074038
 21
499.9770391930292
 31
0.0
 70
   160
  1
(<>)
  3
KOUSA
 13
1871.467245632977
 23
438.5395391930292
 33
0.0
 14
1791.967202122209
 24
561.4145391930292
 34
0.0
 50
90.0
1001
ACAD
1000
DSTYLE
1002
{
1070
    71
1070
     0
1070
   140
1040
6.0
1070
   288
1070
     0
1070
   341
1005
0
1002
}
  0
TEXT
  5
3BD
  8
回02-寸法
  6
CONTINUOUS
 62
     5
 10
2077.781250117783
 20
549.3298588336115
 30
0.0
 40
6.0
  1
φ0.05
1001
ACAD
1000
MTEXTBEGIN
1070
    73
1070
     1
1070
    44
1040
1.0
1070
    74
1070
     0
1000
MTEXTEND
  0
CIRCLE
  5
3BE
  8
回03-記事
  6
CONTINUOUS
 62
     7
 10
2063.967245632977
 20
528.5395391930292
 30
0.0
 40
0.025
  0
CIRCLE
  5
3BF
  8
回03-記事
  6
CONTINUOUS
 62
     7
 10
2059.967245632977
 20
528.5395391930292
 30
0.0
 40
0.025
  0
CIRCLE
  5
3C0
  8
回03-記事
  6
CONTINUOUS
 62
     7
 10
2055.967245632977
 20
528.5395391930292
 30
0.0
 40
0.025
  0
CIRCLE
  5
3C1
  8
回03-記事
  6
CONTINUOUS
 62
     7
 10
2051.967245632977
 20
528.5395391930292
 30
0.0
 40
0.025
  0
CIRCLE
  5
3C2
  8
回03-記事
  6
CONTINUOUS
 62
     7
 10
2063.967245632977
 20
532.5395391930292
 30
0.0
 40
0.025
  0
CIRCLE
  5
3C3
  8
回03-記事
  6
CONTINUOUS
 62
     7
 10
2063.967245632977
 20
536.5395391930292
 30
0.0
 40
0.025
  0
CIRCLE
  5
3C4
  8
回03-記事
  6
CONTINUOUS
 62
     7
 10
2063.967245632977
 20
540.5395391930292
 30
0.0
 40
0.025
  0
CIRCLE
  5
3C5
  8
回03-記事
  6
CONTINUOUS
 62
     7
 10
2063.967245632977
 20
544.5395391930292
 30
0.0
 40
0.025
  0
CIRCLE
  5
3C6
  8
回03-記事
  6
CONTINUOUS
 62
     7
 10
2063.967245632977
 20
548.5395391930292
 30
0.0
 40
0.025
  0
CIRCLE
  5
3C7
  8
回03-記事
  6
CONTINUOUS
 62
     7
 10
2063.967245632977
 20
552.5395391930292
 30
0.0
 40
0.025
  0
CIRCLE
  5
3C8
  8
回03-記事
  6
CONTINUOUS
 62
     7
 10
2059.967245632977
 20
532.5395391930292
 30
0.0
 40
0.025
  0
CIRCLE
  5
3C9
  8
回03-記事
  6
CONTINUOUS
 62
     7
 10
2059.967245632977
 20
536.5395391930292
 30
0.0
 40
0.025
  0
CIRCLE
  5
3CA
  8
回03-記事
  6
CONTINUOUS
 62
     7
 10
2059.967245632977
 20
540.5395391930292
 30
0.0
 40
0.025
  0
CIRCLE
  5
3CB
  8
回03-記事
  6
CONTINUOUS
 62
     7
 10
2059.967245632977
 20
544.5395391930292
 30
0.0
 40
0.025
  0
CIRCLE
  5
3CC
  8
回03-記事
  6
CONTINUOUS
 62
     7
 10
2059.967245632977
 20
548.5395391930292
 30
0.0
 40
0.025
  0
CIRCLE
  5
3CD
  8
回03-記事
  6
CONTINUOUS
 62
     7
 10
2059.967245632977
 20
552.5395391930292
 30
0.0
 40
0.025
  0
CIRCLE
  5
3CE
  8
回03-記事
  6
CONTINUOUS
 62
     7
 10
2055.967245632977
 20
532.5395391930292
 30
0.0
 40
0.025
  0
CIRCLE
  5
3CF
  8
回03-記事
  6
CONTINUOUS
 62
     7
 10
2055.967245632977
 20
536.5395391930292
 30
0.0
 40
0.025
  0
CIRCLE
  5
3D0
  8
回03-記事
  6
CONTINUOUS
 62
     7
 10
2055.967245632977
 20
540.5395391930292
 30
0.0
 40
0.025
  0
CIRCLE
  5
3D1
  8
回03-記事
  6
CONTINUOUS
 62
     7
 10
2055.967245632977
 20
544.5395391930292
 30
0.0
 40
0.025
  0
CIRCLE
  5
3D2
  8
回03-記事
  6
CONTINUOUS
 62
     7
 10
2055.967245632977
 20
548.5395391930292
 30
0.0
 40
0.025
  0
CIRCLE
  5
3D3
  8
回03-記事
  6
CONTINUOUS
 62
     7
 10
2055.967245632977
 20
552.5395391930292
 30
0.0
 40
0.025
  0
CIRCLE
  5
3D4
  8
回03-記事
  6
CONTINUOUS
 62
     7
 10
2051.967245632977
 20
532.5395391930292
 30
0.0
 40
0.025
  0
CIRCLE
  5
3D5
  8
回03-記事
  6
CONTINUOUS
 62
     7
 10
2051.967245632977
 20
536.5395391930292
 30
0.0
 40
0.025
  0
CIRCLE
  5
3D6
  8
回03-記事
  6
CONTINUOUS
 62
     7
 10
2051.967245632977
 20
540.5395391930292
 30
0.0
 40
0.025
  0
CIRCLE
  5
3D7
  8
回03-記事
  6
CONTINUOUS
 62
     7
 10
2051.967245632977
 20
544.5395391930292
 30
0.0
 40
0.025
  0
CIRCLE
  5
3D8
  8
回03-記事
  6
CONTINUOUS
 62
     7
 10
2051.967245632977
 20
548.5395391930292
 30
0.0
 40
0.025
  0
CIRCLE
  5
3D9
  8
回03-記事
  6
CONTINUOUS
 62
     7
 10
2051.967245632977
 20
552.5395391930292
 30
0.0
 40
0.025
  0
CIRCLE
  5
3DA
  8
回03-記事
  6
CONTINUOUS
 62
     7
 10
2071.967245632977
 20
528.5395391930292
 30
0.0
 40
0.025
  0
CIRCLE
  5
3DB
  8
回03-記事
  6
CONTINUOUS
 62
     7
 10
2067.967245632977
 20
528.5395391930292
 30
0.0
 40
0.025
  0
CIRCLE
  5
3DC
  8
回03-記事
  6
CONTINUOUS
 62
     7
 10
2071.967245632977
 20
532.5395391930292
 30
0.0
 40
0.025
  0
CIRCLE
  5
3DD
  8
回03-記事
  6
CONTINUOUS
 62
     7
 10
2071.967245632977
 20
536.5395391930292
 30
0.0
 40
0.025
  0
CIRCLE
  5
3DE
  8
回03-記事
  6
CONTINUOUS
 62
     7
 10
2071.967245632977
 20
540.5395391930292
 30
0.0
 40
0.025
  0
CIRCLE
  5
3DF
  8
回03-記事
  6
CONTINUOUS
 62
     7
 10
2071.967245632977
 20
544.5395391930292
 30
0.0
 40
0.025
  0
CIRCLE
  5
3E0
  8
回03-記事
  6
CONTINUOUS
 62
     7
 10
2071.967245632977
 20
548.5395391930292
 30
0.0
 40
0.025
  0
CIRCLE
  5
3E1
  8
回03-記事
  6
CONTINUOUS
 62
     7
 10
2071.967245632977
 20
552.5395391930292
 30
0.0
 40
0.025
  0
CIRCLE
  5
3E2
  8
回03-記事
  6
CONTINUOUS
 62
     7
 10
2067.967245632977
 20
532.5395391930292
 30
0.0
 40
0.025
  0
CIRCLE
  5
3E3
  8
回03-記事
  6
CONTINUOUS
 62
     7
 10
2067.967245632977
 20
536.5395391930292
 30
0.0
 40
0.025
  0
CIRCLE
  5
3E4
  8
回03-記事
  6
CONTINUOUS
 62
     7
 10
2067.967245632977
 20
540.5395391930292
 30
0.0
 40
0.025
  0
CIRCLE
  5
3E5
  8
回03-記事
  6
CONTINUOUS
 62
     7
 10
2067.967245632977
 20
544.5395391930292
 30
0.0
 40
0.025
  0
CIRCLE
  5
3E6
  8
回03-記事
  6
CONTINUOUS
 62
     7
 10
2067.967245632977
 20
548.5395391930292
 30
0.0
 40
0.025
  0
CIRCLE
  5
3E7
  8
回03-記事
  6
CONTINUOUS
 62
     7
 10
2067.967245632977
 20
552.5395391930292
 30
0.0
 40
0.025
  0
CIRCLE
  5
3E8
  8
回03-記事
  6
CONTINUOUS
 62
     7
 10
2063.967245632977
 20
556.5395391930292
 30
0.0
 40
0.025
  0
CIRCLE
  5
3E9
  8
回03-記事
  6
CONTINUOUS
 62
     7
 10
2063.967245632977
 20
560.5395391930292
 30
0.0
 40
0.025
  0
CIRCLE
  5
3EA
  8
回03-記事
  6
CONTINUOUS
 62
     7
 10
2063.967245632977
 20
564.5395391930292
 30
0.0
 40
0.025
  0
CIRCLE
  5
3EB
  8
回03-記事
  6
CONTINUOUS
 62
     7
 10
2059.967245632977
 20
556.5395391930292
 30
0.0
 40
0.025
  0
CIRCLE
  5
3EC
  8
回03-記事
  6
CONTINUOUS
 62
     7
 10
2059.967245632977
 20
560.5395391930292
 30
0.0
 40
0.025
  0
CIRCLE
  5
3ED
  8
回03-記事
  6
CONTINUOUS
 62
     7
 10
2059.967245632977
 20
564.5395391930292
 30
0.0
 40
0.025
  0
CIRCLE
  5
3EE
  8
回03-記事
  6
CONTINUOUS
 62
     7
 10
2055.967245632977
 20
556.5395391930292
 30
0.0
 40
0.025
  0
CIRCLE
  5
3EF
  8
回03-記事
  6
CONTINUOUS
 62
     7
 10
2055.967245632977
 20
560.5395391930292
 30
0.0
 40
0.025
  0
CIRCLE
  5
3F0
  8
回03-記事
  6
CONTINUOUS
 62
     7
 10
2055.967245632977
 20
564.5395391930292
 30
0.0
 40
0.025
  0
CIRCLE
  5
3F1
  8
回03-記事
  6
CONTINUOUS
 62
     7
 10
2051.967245632977
 20
556.5395391930292
 30
0.0
 40
0.025
  0
CIRCLE
  5
3F2
  8
回03-記事
  6
CONTINUOUS
 62
     7
 10
2051.967245632977
 20
560.5395391930292
 30
0.0
 40
0.025
  0
CIRCLE
  5
3F3
  8
回03-記事
  6
CONTINUOUS
 62
     7
 10
2051.967245632977
 20
564.5395391930292
 30
0.0
 40
0.025
  0
CIRCLE
  5
3F4
  8
回03-記事
  6
CONTINUOUS
 62
     7
 10
2071.967245632977
 20
556.5395391930292
 30
0.0
 40
0.025
  0
CIRCLE
  5
3F5
  8
回03-記事
  6
CONTINUOUS
 62
     7
 10
2071.967245632977
 20
560.5395391930292
 30
0.0
 40
0.025
  0
CIRCLE
  5
3F6
  8
回03-記事
  6
CONTINUOUS
 62
     7
 10
2071.967245632977
 20
564.5395391930292
 30
0.0
 40
0.025
  0
CIRCLE
  5
3F7
  8
回03-記事
  6
CONTINUOUS
 62
     7
 10
2067.967245632977
 20
556.5395391930292
 30
0.0
 40
0.025
  0
CIRCLE
  5
3F8
  8
回03-記事
  6
CONTINUOUS
 62
     7
 10
2067.967245632977
 20
560.5395391930292
 30
0.0
 40
0.025
  0
CIRCLE
  5
3F9
  8
回03-記事
  6
CONTINUOUS
 62
     7
 10
2067.967245632977
 20
564.5395391930292
 30
0.0
 40
0.025
  0
CIRCLE
  5
3FA
  8
回03-記事
  6
CONTINUOUS
 62
     7
 10
2043.967245632977
 20
528.5395391930292
 30
0.0
 40
0.025
  0
CIRCLE
  5
3FB
  8
回03-記事
  6
CONTINUOUS
 62
     7
 10
2039.967245632977
 20
528.5395391930292
 30
0.0
 40
0.025
  0
CIRCLE
  5
3FC
  8
回03-記事
  6
CONTINUOUS
 62
     7
 10
2035.967245632977
 20
528.5395391930292
 30
0.0
 40
0.025
  0
CIRCLE
  5
3FD
  8
回03-記事
  6
CONTINUOUS
 62
     7
 10
2047.967245632977
 20
528.5395391930292
 30
0.0
 40
0.025
  0
CIRCLE
  5
3FE
  8
回03-記事
  6
CONTINUOUS
 62
     7
 10
2043.967245632977
 20
532.5395391930292
 30
0.0
 40
0.025
  0
CIRCLE
  5
3FF
  8
回03-記事
  6
CONTINUOUS
 62
     7
 10
2043.967245632977
 20
536.5395391930292
 30
0.0
 40
0.025
  0
CIRCLE
  5
400
  8
回03-記事
  6
CONTINUOUS
 62
     7
 10
2043.967245632977
 20
540.5395391930292
 30
0.0
 40
0.025
  0
CIRCLE
  5
401
  8
回03-記事
  6
CONTINUOUS
 62
     7
 10
2043.967245632977
 20
544.5395391930292
 30
0.0
 40
0.025
  0
CIRCLE
  5
402
  8
回03-記事
  6
CONTINUOUS
 62
     7
 10
2043.967245632977
 20
548.5395391930292
 30
0.0
 40
0.025
  0
CIRCLE
  5
403
  8
回03-記事
  6
CONTINUOUS
 62
     7
 10
2043.967245632977
 20
552.5395391930292
 30
0.0
 40
0.025
  0
CIRCLE
  5
404
  8
回03-記事
  6
CONTINUOUS
 62
     7
 10
2039.967245632977
 20
532.5395391930292
 30
0.0
 40
0.025
  0
CIRCLE
  5
405
  8
回03-記事
  6
CONTINUOUS
 62
     7
 10
2039.967245632977
 20
536.5395391930292
 30
0.0
 40
0.025
  0
CIRCLE
  5
406
  8
回03-記事
  6
CONTINUOUS
 62
     7
 10
2039.967245632977
 20
540.5395391930292
 30
0.0
 40
0.025
  0
CIRCLE
  5
407
  8
回03-記事
  6
CONTINUOUS
 62
     7
 10
2039.967245632977
 20
544.5395391930292
 30
0.0
 40
0.025
  0
CIRCLE
  5
408
  8
回03-記事
  6
CONTINUOUS
 62
     7
 10
2039.967245632977
 20
548.5395391930292
 30
0.0
 40
0.025
  0
CIRCLE
  5
409
  8
回03-記事
  6
CONTINUOUS
 62
     7
 10
2039.967245632977
 20
552.5395391930292
 30
0.0
 40
0.025
  0
CIRCLE
  5
40A
  8
回03-記事
  6
CONTINUOUS
 62
     7
 10
2035.967245632977
 20
532.5395391930292
 30
0.0
 40
0.025
  0
CIRCLE
  5
40B
  8
回03-記事
  6
CONTINUOUS
 62
     7
 10
2035.967245632977
 20
536.5395391930292
 30
0.0
 40
0.025
  0
CIRCLE
  5
40C
  8
回03-記事
  6
CONTINUOUS
 62
     7
 10
2035.967245632977
 20
540.5395391930292
 30
0.0
 40
0.025
  0
CIRCLE
  5
40D
  8
回03-記事
  6
CONTINUOUS
 62
     7
 10
2035.967245632977
 20
544.5395391930292
 30
0.0
 40
0.025
  0
CIRCLE
  5
40E
  8
回03-記事
  6
CONTINUOUS
 62
     7
 10
2035.967245632977
 20
548.5395391930292
 30
0.0
 40
0.025
  0
CIRCLE
  5
40F
  8
回03-記事
  6
CONTINUOUS
 62
     7
 10
2035.967245632977
 20
552.5395391930292
 30
0.0
 40
0.025
  0
CIRCLE
  5
410
  8
回03-記事
  6
CONTINUOUS
 62
     7
 10
2047.967245632977
 20
532.5395391930292
 30
0.0
 40
0.025
  0
CIRCLE
  5
411
  8
回03-記事
  6
CONTINUOUS
 62
     7
 10
2047.967245632977
 20
536.5395391930292
 30
0.0
 40
0.025
  0
CIRCLE
  5
412
  8
回03-記事
  6
CONTINUOUS
 62
     7
 10
2047.967245632977
 20
540.5395391930292
 30
0.0
 40
0.025
  0
CIRCLE
  5
413
  8
回03-記事
  6
CONTINUOUS
 62
     7
 10
2047.967245632977
 20
544.5395391930292
 30
0.0
 40
0.025
  0
CIRCLE
  5
414
  8
回03-記事
  6
CONTINUOUS
 62
     7
 10
2047.967245632977
 20
548.5395391930292
 30
0.0
 40
0.025
  0
CIRCLE
  5
415
  8
回03-記事
  6
CONTINUOUS
 62
     7
 10
2047.967245632977
 20
552.5395391930292
 30
0.0
 40
0.025
  0
CIRCLE
  5
416
  8
回03-記事
  6
CONTINUOUS
 62
     7
 10
2043.967245632977
 20
556.5395391930292
 30
0.0
 40
0.025
  0
CIRCLE
  5
417
  8
回03-記事
  6
CONTINUOUS
 62
     7
 10
2043.967245632977
 20
560.5395391930292
 30
0.0
 40
0.025
  0
CIRCLE
  5
418
  8
回03-記事
  6
CONTINUOUS
 62
     7
 10
2043.967245632977
 20
564.5395391930292
 30
0.0
 40
0.025
  0
CIRCLE
  5
419
  8
回03-記事
  6
CONTINUOUS
 62
     7
 10
2039.967245632977
 20
556.5395391930292
 30
0.0
 40
0.025
  0
CIRCLE
  5
41A
  8
回03-記事
  6
CONTINUOUS
 62
     7
 10
2039.967245632977
 20
560.5395391930292
 30
0.0
 40
0.025
  0
CIRCLE
  5
41B
  8
回03-記事
  6
CONTINUOUS
 62
     7
 10
2039.967245632977
 20
564.5395391930292
 30
0.0
 40
0.025
  0
CIRCLE
  5
41C
  8
回03-記事
  6
CONTINUOUS
 62
     7
 10
2035.967245632977
 20
556.5395391930292
 30
0.0
 40
0.025
  0
CIRCLE
  5
41D
  8
回03-記事
  6
CONTINUOUS
 62
     7
 10
2035.967245632977
 20
560.5395391930292
 30
0.0
 40
0.025
  0
CIRCLE
  5
41E
  8
回03-記事
  6
CONTINUOUS
 62
     7
 10
2035.967245632977
 20
564.5395391930292
 30
0.0
 40
0.025
  0
CIRCLE
  5
41F
  8
回03-記事
  6
CONTINUOUS
 62
     7
 10
2047.967245632977
 20
556.5395391930292
 30
0.0
 40
0.025
  0
CIRCLE
  5
420
  8
回03-記事
  6
CONTINUOUS
 62
     7
 10
2047.967245632977
 20
560.5395391930292
 30
0.0
 40
0.025
  0
CIRCLE
  5
421
  8
回03-記事
  6
CONTINUOUS
 62
     7
 10
2047.967245632977
 20
564.5395391930292
 30
0.0
 40
0.025
  0
DIMENSION
  5
422
  8
回02-寸法
  6
CONTINUOUS
 62
     7
  2
*D75
 10
2067.967245632977
 20
520.5452544226981
 30
0.0
 11
2061.967245632977
 21
520.5452544226981
 31
0.0
 70
   160
  3
KOUSA
 13
2071.967245632977
 23
528.5395391930292
 33
0.0
 14
2067.967245632977
 24
528.5395391930292
 34
0.0
1001
ACAD
1000
DSTYLE
1002
{
1070
    71
1070
     0
1070
   140
1040
6.0
1070
   288
1070
     0
1070
   341
1005
0
1002
}
  0
DIMENSION
  5
433
  8
回02-寸法
  6
CONTINUOUS
 62
     7
  2
*D76
 10
2082.356789290673
 20
532.5395391930292
 30
0.0
 11
2082.356789290673
 21
538.5395391930292
 31
0.0
 70
   160
  3
KOUSA
 13
2071.967245632977
 23
528.5395391930292
 33
0.0
 14
2071.967245632977
 24
532.5395391930292
 34
0.0
 50
90.0
1001
ACAD
1000
DSTYLE
1002
{
1070
    71
1070
     0
1070
   140
1040
6.0
1070
   288
1070
     0
1070
   341
1005
0
1002
}
  0
INSERT
  5
444
  8
回02-寸法
  6
CONTINUOUS
 62
     5
 66
     1
  2
*X84
 10
0.0
 20
0.0
 30
0.0
  0
SEQEND
  5
6C0
  8
回01-TP外形
  6
CONTINUOUS
 62
     7
  0
LINE
  5
445
  8
回01-TP外形
  6
CENTER2
 62
     7
 10
2035.967245632977
 20
687.2603858971237
 30
0.0
 11
2035.967245632977
 21
441.5160151071809
 31
0.0
  0
TEXT
  5
446
  8
回03-記事
  6
CONTINUOUS
 62
     7
 10
2172.532964634168
 20
566.8469932590828
 30
0.0
 40
7.0
  1
XR
  0
TEXT
  5
447
  8
回03-記事
  6
CONTINUOUS
 62
     7
 10
1885.989303599125
 20
567.4940329394425
 30
0.0
 40
7.0
  1
XL
  0
TEXT
  5
448
  8
回03-記事
  6
CONTINUOUS
 62
     7
 10
2020.722854211285
 20
452.1220583684384
 30
0.0
 40
7.0
  1
YD
  0
TEXT
  5
449
  8
回03-記事
  6
CONTINUOUS
 62
     7
 10
2021.058175376811
 20
670.299725475957
 30
0.0
 40
7.0
  1
YU
  0
TEXT
  5
44A
  8
回03-記事
  6
CONTINUOUS
 62
     7
 10
1790.973123129775
 20
561.8769390148522
 30
0.0
 40
3.0
  1
1
 50
90.0
  0
TEXT
  5
44B
  8
回03-記事
  6
CONTINUOUS
 62
     7
 10
1790.950230173986
 20
565.3290483850501
 30
0.0
 40
3.0
  1
4
 50
90.0
  0
POLYLINE
  5
44C
  8
回01-TP外形
  6
CONTINUOUS
 62
     7
 66
     1
 10
0.0
 20
0.0
 30
0.0
 70
     1
  0
VERTEX
  5
6C1
  8
回01-TP外形
  6
CONTINUOUS
 62
     7
 10
1881.653245632976
 20
448.2415391930292
 30
0.0
  0
VERTEX
  5
6C3
  8
回01-TP外形
  6
CONTINUOUS
 62
     7
 10
2190.281245632977
 20
448.2415391930292
 30
0.0
  0
VERTEX
  5
6C4
  8
回01-TP外形
  6
CONTINUOUS
 62
     7
 10
2190.281245632977
 20
680.8375391930292
 30
0.0
  0
VERTEX
  5
6C5
  8
回01-TP外形
  6
CONTINUOUS
 62
     7
 10
1881.653245632976
 20
680.8375391930292
 30
0.0
  0
SEQEND
  5
6C2
  8
回01-TP外形
  6
CONTINUOUS
 62
     7
  0
POLYLINE
  5
44D
  8
回01-TP外形
  6
CONTINUOUS
 62
     7
 66
     1
 10
0.0
 20
0.0
 30
0.0
 70
     1
  0
VERTEX
  5
6C6
  8
回01-TP外形
  6
CONTINUOUS
 62
     7
 10
1883.653245632976
 20
450.2415391930291
 30
0.0
  0
VERTEX
  5
6C8
  8
回01-TP外形
  6
CONTINUOUS
 62
     7
 10
2188.281245632976
 20
450.2415391930291
 30
0.0
  0
VERTEX
  5
6C9
  8
回01-TP外形
  6
CONTINUOUS
 62
     7
 10
2188.281245632976
 20
678.8375391930292
 30
0.0
  0
VERTEX
  5
6CA
  8
回01-TP外形
  6
CONTINUOUS
 62
     7
 10
1883.653245632976
 20
678.8375391930292
 30
0.0
  0
SEQEND
  5
6C7
  8
回01-TP外形
  6
CONTINUOUS
 62
     7
  0
LINE
  5
44E
  8
回01-TP外形
  6
BYBLOCK
 62
     7
 10
1871.967245632976
 20
554.5395391930291
 30
0.0
 11
1871.967245632976
 21
554.5395391930291
 31
0.0
  0
ARC
  5
44F
  8
回01-TP外形
  6
BYBLOCK
 62
     7
 10
1861.558544333103
 20
560.4105145274497
 30
0.0
 40
1.0
 50
45.14359814422254
 51
89.99668642115283
  0
ARC
  5
450
  8
回01-TP外形
  6
BYBLOCK
 62
     7
 10
1861.555983064199
 20
568.6645391930296
 30
0.0
 40
1.0
 50
270.0
 51
314.882992895381
  0
ARC
  5
451
  8
回01-TP外形
  6
BYBLOCK
 62
     7
 10
1867.275762628576
 20
571.5383362586194
 30
0.0
 40
1.0
 50
90.02560571194576
 51
134.882992895381
  0
ARC
  5
452
  8
回01-TP外形
  6
BYBLOCK
 62
     7
 10
1867.279489310317
 20
557.5395391930296
 30
0.0
 40
1.0
 50
225.1435981442226
 51
270.0
  0
ARC
  5
453
  8
回01-TP外形
  6
BYBLOCK
 62
     7
 10
1869.967245632977
 20
554.5395391930297
 30
0.0
 40
2.0
 50
0.0
 51
90.0
  0
ARC
  5
454
  8
回01-TP外形
  6
BYBLOCK
 62
     7
 10
1869.967245632977
 20
574.5395393927529
 30
0.0
 40
2.0
 50
270.0256057119457
 51
0.0
  0
ARC
  5
455
  8
回01-TP外形
  6
BYBLOCK
 62
     7
 10
1869.467245632977
 20
564.5395391930296
 30
0.0
 40
0.5
 50
90.0
 51
272.4902279154731
  0
LINE
  5
456
  8
回01-TP外形
  6
BYBLOCK
 62
     7
 10
1874.967245632977
 20
564.0395391930292
 30
0.0
 11
1869.467245632977
 21
564.0395391930292
 31
0.0
  0
LINE
  5
457
  8
回01-TP外形
  6
BYBLOCK
 62
     7
 10
1869.467245632977
 20
565.0395391930292
 30
0.0
 11
1874.967245632977
 21
565.0395391930292
 31
0.0
  0
LINE
  5
458
  8
回01-TP外形
  6
BYBLOCK
 62
     7
 10
1874.967245632977
 20
564.0395391930292
 30
0.0
 11
1874.967245632977
 21
554.5395391930291
 31
0.0
  0
LINE
  5
459
  8
回01-TP外形
  6
BYBLOCK
 62
     7
 10
1862.263876701621
 20
561.119391279728
 30
0.0
 11
1866.574156941799
 21
556.8306624407505
 31
0.0
  0
LINE
  5
45A
  8
回01-TP外形
  6
BYBLOCK
 62
     7
 10
1862.26164434729
 20
567.9559898626748
 30
0.0
 11
1866.570101345485
 21
572.2468855889737
 31
0.0
  0
LINE
  5
45B
  8
回01-TP外形
  6
BYBLOCK
 62
     7
 10
1874.967245632977
 20
574.5395391930292
 30
0.0
 11
1874.967245632977
 21
565.0395391930292
 31
0.0
  0
LINE
  5
45C
  8
回01-TP外形
  6
BYBLOCK
 62
     7
 10
1871.967245632976
 20
554.5395391930291
 30
0.0
 11
1874.967245632977
 21
554.5395391930291
 31
0.0
  0
LINE
  5
45D
  8
回01-TP外形
  6
BYBLOCK
 62
     7
 10
1874.967245632977
 20
574.5395391930292
 30
0.0
 11
1871.967245632976
 21
574.5395391930292
 31
0.0
  0
LINE
  5
45E
  8
回01-TP外形
  6
BYBLOCK
 62
     7
 10
1867.279489310317
 20
556.5395391930292
 30
0.0
 11
1869.967245632977
 21
556.5395391930292
 31
0.0
  0
LINE
  5
45F
  8
回01-TP外形
  6
BYBLOCK
 62
     7
 10
1867.275315724611
 20
572.5383361587573
 30
0.0
 11
1869.968139440908
 21
572.5395395924756
 31
0.0
  0
LINE
  5
460
  8
回01-TP外形
  6
BYBLOCK
 62
     7
 10
1791.467202122209
 20
567.1645391930292
 30
0.0
 11
1791.467202122209
 21
561.9145391930292
 31
0.0
  0
ARC
  5
461
  8
回01-TP外形
  6
BYBLOCK
 62
     7
 10
1791.967202122209
 20
561.9145391930296
 30
0.0
 40
0.5
 50
180.0
 51
270.0
  0
ARC
  5
462
  8
回01-TP外形
  6
BYBLOCK
 62
     7
 10
1791.967202122209
 20
567.1645391930296
 30
0.0
 40
0.5
 50
90.0
 51
180.0
  0
LINE
  5
463
  8
回01-TP外形
  6
BYBLOCK
 62
     7
 10
1791.967202122209
 20
561.4145391930296
 30
0.0
 11
1861.558602165965
 21
561.4105145257772
 31
0.0
  0
LINE
  5
464
  8
回01-TP外形
  6
BYBLOCK
 62
     7
 10
1791.967202122209
 20
567.6645391930296
 30
0.0
 11
1861.555983064199
 21
567.6645391930296
 31
0.0
  0
LINE
  5
465
  8
回01-TP外形
  6
CENTER2
 62
     7
 10
2192.781245632977
 20
564.5395391930292
 30
0.0
 11
1879.153245632976
 21
564.5395391930292
 31
0.0
  0
ENDSEC
  0
EOF
