  0
SECTION
  2
HEADER
  9
$ACADVER
  1
AC1009
  9
$INSBASE
 10
0.0
 20
0.0
 30
0.0
  9
$EXTMIN
 10
2430.914469751242
 20
1035.300227082088
 30
0.0
  9
$EXTMAX
 10
3240.914469751242
 20
1585.300227082088
 30
0.0
  9
$LIMMIN
 10
0.0
 20
0.0
  9
$LIMMAX
 10
880.0
 20
620.0
  9
$ORTHOMODE
 70
     0
  9
$REGENMODE
 70
     1
  9
$FILLMODE
 70
     1
  9
$QTEXTMODE
 70
     0
  9
$MIRRTEXT
 70
     1
  9
$DRAGMODE
 70
     2
  9
$LTSCALE
 40
2.087542087542086
  9
$OSMODE
 70
    37
  9
$ATTMODE
 70
     1
  9
$TEXTSIZE
 40
4.0
  9
$TRACEWID
 40
1.0
  9
$TEXTSTYLE
  7
STANDARD
  9
$CLAYER
  8
0
  9
$CELTYPE
  6
CONTINUOUS
  9
$CECOLOR
 62
     5
  9
$DIMSCALE
 40
1.0
  9
$DIMASZ
 40
3.0
  9
$DIMEXO
 40
0.0
  9
$DIMDLI
 40
0.0
  9
$DIMRND
 40
0.0
  9
$DIMDLE
 40
0.0
  9
$DIMEXE
 40
1.0
  9
$DIMTP
 40
0.3
  9
$DIMTM
 40
0.3
  9
$DIMTXT
 40
6.0
  9
$DIMCEN
 40
1.5
  9
$DIMTSZ
 40
0.0
  9
$DIMTOL
 70
     0
  9
$DIMLIM
 70
     0
  9
$DIMTIH
 70
     0
  9
$DIMTOH
 70
     0
  9
$DIMSE1
 70
     0
  9
$DIMSE2
 70
     0
  9
$DIMTAD
 70
     3
  9
$DIMZIN
 70
     8
  9
$DIMBLK
  1

  9
$DIMASO
 70
     1
  9
$DIMSHO
 70
     1
  9
$DIMPOST
  1

  9
$DIMAPOST
  1

  9
$DIMALT
 70
     0
  9
$DIMALTD
 70
     2
  9
$DIMALTF
 40
25.4
  9
$DIMLFAC
 40
1.0
  9
$DIMTOFL
 70
     1
  9
$DIMTVP
 40
0.0
  9
$DIMTIX
 70
     0
  9
$DIMSOXD
 70
     0
  9
$DIMSAH
 70
     1
  9
$DIMBLK1
  1
OPEN
  9
$DIMBLK2
  1
OPEN
  9
$DIMSTYLE
  2
STANDARD
  9
$DIMCLRD
 70
     5
  9
$DIMCLRE
 70
     5
  9
$DIMCLRT
 70
     5
  9
$DIMTFAC
 40
0.7
  9
$DIMGAP
 40
0.5
  9
$LUNITS
 70
     2
  9
$LUPREC
 70
     4
  9
$SKETCHINC
 40
1.0
  9
$FILLETRAD
 40
0.5
  9
$AUNITS
 70
     0
  9
$AUPREC
 70
     0
  9
$MENU
  1
.
  9
$ELEVATION
 40
0.0
  9
$PELEVATION
 40
0.0
  9
$THICKNESS
 40
0.0
  9
$LIMCHECK
 70
     0
  9
$BLIPMODE
 70
     0
  9
$CHAMFERA
 40
1.7
  9
$CHAMFERB
 40
1.7
  9
$SKPOLY
 70
     0
  9
$TDCREATE
 40
2450431.727493866
  9
$TDUPDATE
 40
2460207.360399792
  9
$TDINDWG
 40
6.425431319
  9
$TDUSRTIMER
 40
6.425428229
  9
$USRTIMER
 70
     1
  9
$ANGBASE
 50
0.0
  9
$ANGDIR
 70
     0
  9
$PDMODE
 70
    34
  9
$PDSIZE
 40
0.0
  9
$PLINEWID
 40
2.0
  9
$COORDS
 70
     0
  9
$SPLFRAME
 70
     0
  9
$SPLINETYPE
 70
     6
  9
$SPLINESEGS
 70
     8
  9
$ATTDIA
 70
     1
  9
$ATTREQ
 70
     1
  9
$HANDLING
 70
     1
  9
$HANDSEED
  5
A75
  9
$SURFTAB1
 70
     6
  9
$SURFTAB2
 70
     6
  9
$SURFTYPE
 70
     6
  9
$SURFU
 70
     6
  9
$SURFV
 70
     6
  9
$UCSNAME
  2

  9
$UCSORG
 10
0.0
 20
0.0
 30
0.0
  9
$UCSXDIR
 10
1.0
 20
0.0
 30
0.0
  9
$UCSYDIR
 10
0.0
 20
1.0
 30
0.0
  9
$PUCSNAME
  2

  9
$PUCSORG
 10
0.0
 20
0.0
 30
0.0
  9
$PUCSXDIR
 10
1.0
 20
0.0
 30
0.0
  9
$PUCSYDIR
 10
0.0
 20
1.0
 30
0.0
  9
$USERI1
 70
     0
  9
$USERI2
 70
     0
  9
$USERI3
 70
     0
  9
$USERI4
 70
     0
  9
$USERI5
 70
     0
  9
$USERR1
 40
0.0
  9
$USERR2
 40
0.0
  9
$USERR3
 40
0.0
  9
$USERR4
 40
0.0
  9
$USERR5
 40
0.0
  9
$WORLDVIEW
 70
     1
  9
$SHADEDGE
 70
     3
  9
$SHADEDIF
 70
    70
  9
$TILEMODE
 70
     1
  9
$MAXACTVP
 70
    16
  9
$PLIMCHECK
 70
     0
  9
$PEXTMIN
 10
1.000000000000000E+20
 20
1.000000000000000E+20
 30
1.000000000000000E+20
  9
$PEXTMAX
 10
-1.000000000000000E+20
 20
-1.000000000000000E+20
 30
-1.000000000000000E+20
  9
$PLIMMIN
 10
0.0
 20
0.0
  9
$PLIMMAX
 10
420.0
 20
297.0
  9
$UNITMODE
 70
     0
  9
$VISRETAIN
 70
     0
  9
$PLINEGEN
 70
     0
  9
$PSLTSCALE
 70
     1
  0
ENDSEC
  0
SECTION
  2
TABLES
  0
TABLE
  2
VPORT
 70
     1
  0
VPORT
  2
*ACTIVE
 70
     0
 10
0.0
 20
0.0
 11
1.0
 21
1.0
 12
2820.24380154419
 22
1298.700135640388
 13
0.0
 23
0.0
 14
1.0
 24
1.0
 15
5.0
 25
5.0
 16
0.0
 26
0.0
 36
1.0
 17
0.0
 27
0.0
 37
0.0
 40
878.8545742138813
 41
2.16030534351145
 42
50.0
 43
0.0
 44
0.0
 50
0.0
 51
0.0
 71
     0
 72
   100
 73
     1
 74
     0
 75
     0
 76
     0
 77
     0
 78
     0
  0
ENDTAB
  0
TABLE
  2
LTYPE
 70
     3
  0
LTYPE
  2
CONTINUOUS
 70
     0
  3
Solid line
 72
    65
 73
     0
 40
0.0
  0
LTYPE
  2
CENTER2
 70
     0
  3
___ _ ___ _ ___ _ ___ _ ___ _ ___ _ ___ _ ___ _
 72
    65
 73
     4
 40
1.125
 49
0.75
 49
-0.125
 49
0.125
 49
-0.125
  0
LTYPE
  2
PHANTOM2
 70
     0
  3
Phantom (.5x) ___ _ _ ___ _ _ ___ _ _ ___ _ _
 72
    65
 73
     6
 40
1.25
 49
0.625
 49
-0.125
 49
0.125
 49
-0.125
 49
0.125
 49
-0.125
  0
ENDTAB
  0
TABLE
  2
LAYER
 70
     6
  0
LAYER
  2
0
 70
     0
 62
     7
  6
CONTINUOUS
  0
LAYER
  2
DEFPOINTS
 70
     0
 62
     7
  6
CONTINUOUS
  0
LAYER
  2
回04-図面枠
 70
     0
 62
     7
  6
CONTINUOUS
  0
LAYER
  2
回01-TP外形
 70
     0
 62
     7
  6
CONTINUOUS
  0
LAYER
  2
回02-寸法
 70
     0
 62
     7
  6
CONTINUOUS
  0
LAYER
  2
回03-記事
 70
     0
 62
     7
  6
CONTINUOUS
  0
ENDTAB
  0
TABLE
  2
STYLE
 70
     2
  0
STYLE
  2
STANDARD
 70
     0
 40
6.0
 41
1.0
 50
0.0
 71
     0
 42
4.0
  3
isocp.shx
  4
bigfont.shx
  0
STYLE
  2
ANNOTATIVE
 70
     0
 40
0.0
 41
1.0
 50
0.0
 71
     0
 42
0.2
  3
txt.shx
  4

  0
ENDTAB
  0
TABLE
  2
VIEW
 70
     0
  0
ENDTAB
  0
TABLE
  2
UCS
 70
     0
  0
ENDTAB
  0
TABLE
  2
APPID
 70
     7
  0
APPID
  2
ACAD
 70
     0
  0
APPID
  2
ACADANNOTATIVE
 70
     0
  0
APPID
  2
ACAD_PSEXT
 70
     0
  0
APPID
  2
ACAECLAYERSTANDARD
 70
     0
  0
APPID
  2
ACADSTRINGINFO
 70
     0
  0
APPID
  2
ACAD_MLEADERVER
 70
     0
  0
APPID
  2
ACAD_NAV_VCDISPLAY
 70
     0
  0
ENDTAB
  0
TABLE
  2
DIMSTYLE
 70
     4
  0
DIMSTYLE
  2
STANDARD
 70
     0
  3

  4

  5

  6
OPEN
  7
OPEN
 40
1.0
 41
2.0
 42
0.0
 43
0.0
 44
1.0
 45
0.0
 46
0.0
 47
0.0
 48
0.0
140
3.0
141
2.0
142
0.0
143
25.4
144
1.0
145
0.0
146
1.0
147
0.5
 71
     0
 72
     0
 73
     0
 74
     0
 75
     0
 76
     0
 77
     3
 78
     8
170
     0
171
     2
172
     1
173
     1
174
     0
175
     0
176
     5
177
     5
178
     5
  0
DIMSTYLE
  2
RUISIN
 70
     0
  3

  4

  5

  6
OPEN
  7
OPEN
 40
1.0
 41
2.0
 42
0.0
 43
0.0
 44
1.0
 45
0.0
 46
0.0
 47
0.0
 48
0.0
140
3.0
141
2.0
142
0.0
143
25.4
144
1.0
145
0.0
146
1.0
147
0.5
 71
     0
 72
     0
 73
     0
 74
     0
 75
     0
 76
     0
 77
     3
 78
     8
170
     0
171
     2
172
     1
173
     1
174
     0
175
     0
176
     5
177
     5
178
     5
  0
DIMSTYLE
  2
KOUSA
 70
     0
  3

  4

  5

  6
OPEN
  7
OPEN
 40
1.0
 41
2.0
 42
0.0
 43
0.0
 44
1.0
 45
0.0
 46
0.0
 47
0.1
 48
0.1
140
3.0
141
2.0
142
0.0
143
25.4
144
1.0
145
0.0
146
0.7
147
0.5
 71
     1
 72
     0
 73
     0
 74
     0
 75
     0
 76
     0
 77
     3
 78
     8
170
     0
171
     2
172
     1
173
     1
174
     0
175
     0
176
     5
177
     5
178
     5
  0
DIMSTYLE
  2
DMC
 70
     0
  3

  4

  5
OPEN
  6

  7

 40
1.0
 41
2.0
 42
0.0
 43
0.0
 44
1.0
 45
0.0
 46
0.0
 47
0.0
 48
0.0
140
3.0
141
2.0
142
0.0
143
0.03937007874016
144
1.0
145
0.0
146
0.7
147
0.5
 71
     0
 72
     0
 73
     0
 74
     0
 75
     0
 76
     0
 77
     3
 78
     8
170
     0
171
     3
172
     1
173
     0
174
     0
175
     0
176
     5
177
     5
178
     5
  0
ENDTAB
  0
ENDSEC
  0
SECTION
  2
BLOCKS
  0
BLOCK
  8
0
  2
$MODEL_SPACE
 70
     0
 10
0.0
 20
0.0
 30
0.0
  3
$MODEL_SPACE
  1

  0
ENDBLK
  8
0
  5
1F
  0
BLOCK
 67
     1
  8
0
  2
$PAPER_SPACE
 70
     0
 10
0.0
 20
0.0
 30
0.0
  3
$PAPER_SPACE
  1

  0
ENDBLK
  5
26
 67
     1
  8
0
  0
BLOCK
  8
0
  2
_OPEN
 70
     0
 10
0.0
 20
0.0
 30
0.0
  3
_OPEN
  1

  0
LINE
  5
826
  8
0
  6
BYBLOCK
 62
     0
 10
-1.0
 20
0.166667
 30
0.0
 11
0.0
 21
0.0
 31
0.0
  0
LINE
  5
827
  8
0
  6
BYBLOCK
 62
     0
 10
-1.0
 20
-0.166667
 30
0.0
 11
0.0
 21
0.0
 31
0.0
  0
LINE
  5
828
  8
0
  6
BYBLOCK
 62
     0
 10
0.0
 20
0.0
 30
0.0
 11
-1.0
 21
0.0
 31
0.0
  0
LINE
  5
12
  8
0
  6
BYBLOCK
 62
     0
 10
-1.0
 20
0.1666666666666666
 30
0.0
 11
0.0
 21
0.0
 31
0.0
  0
LINE
  5
14
  8
0
  6
BYBLOCK
 62
     0
 10
0.0
 20
0.0
 30
0.0
 11
-1.0
 21
-0.1666666666666666
 31
0.0
  0
LINE
  5
15
  8
0
  6
BYBLOCK
 62
     0
 10
0.0
 20
0.0
 30
0.0
 11
-1.0
 21
0.0
 31
0.0
  0
ENDBLK
  5
16
  8
0
  0
BLOCK
  8
0
  2
*D11
 70
     1
 10
0.0
 20
0.0
 30
0.0
  3
*D11
  1

  0
LINE
  5
47F
  8
回02-寸法
  6
CONTINUOUS
 62
     5
 10
826.9844469363206
 20
-1567.059395353669
 30
0.0
 11
826.9844469363206
 21
-1532.977383912444
 31
0.0
  0
LINE
  5
480
  8
回02-寸法
  6
CONTINUOUS
 62
     5
 10
816.7244469363208
 20
-1558.977383912443
 30
0.0
 11
816.7244469363208
 21
-1532.977383912444
 31
0.0
  0
LINE
  5
481
  8
回02-寸法
  6
CONTINUOUS
 62
     5
 10
829.9844469363208
 20
-1533.977383912444
 30
0.0
 11
832.9844469363207
 21
-1533.977383912444
 31
0.0
  0
LINE
  5
482
  8
回02-寸法
  6
CONTINUOUS
 62
     5
 10
813.7244469363206
 20
-1533.977383912444
 30
0.0
 11
793.8268091410452
 21
-1533.977383912444
 31
0.0
  0
LINE
  5
483
  8
回02-寸法
  6
CONTINUOUS
 62
     5
 10
826.9844469363206
 20
-1533.977383912444
 30
0.0
 11
816.7244469363208
 21
-1533.977383912444
 31
0.0
  0
INSERT
  5
484
  8
回02-寸法
  6
CONTINUOUS
 62
     5
 66
     1
  2
_OPEN
 10
826.9844469363206
 20
-1533.977383912444
 30
0.0
 41
3.0
 42
3.0
 43
3.0
 50
180.0
  0
SEQEND
  5
485
  8
0
  6
CONTINUOUS
 62
     5
  0
INSERT
  5
486
  8
回02-寸法
  6
CONTINUOUS
 62
     5
 66
     1
  2
_OPEN
 10
816.7244469363208
 20
-1533.977383912444
 30
0.0
 41
3.0
 42
3.0
 43
3.0
  0
SEQEND
  5
487
  8
0
  6
CONTINUOUS
 62
     5
  0
TEXT
  5
488
  8
回02-寸法
  6
CONTINUOUS
 62
     5
 10
793.5731229533812
 20
-1533.476793361262
 30
0.0
 40
6.0
  1
10.26
1001
ACAD
1000
MTEXTBEGIN
1070
    73
1070
     1
1070
    44
1040
1.0
1070
    74
1070
     0
1000
MTEXTEND
  0
POINT
  5
489
  8
DEFPOINTS
  6
CONTINUOUS
 62
     0
 10
826.9844469363206
 20
-1567.059395353669
 30
0.0
  0
POINT
  5
48A
  8
DEFPOINTS
  6
CONTINUOUS
 62
     0
 10
816.7244469363208
 20
-1558.977383912443
 30
0.0
  0
POINT
  5
48B
  8
DEFPOINTS
  6
CONTINUOUS
 62
     0
 10
816.7244469363208
 20
-1533.977383912444
 30
0.0
  0
ENDBLK
  5
48C
  8
0
 62
     4
  0
BLOCK
  8
0
  2
*D22
 70
     1
 10
0.0
 20
0.0
 30
0.0
  3
*D22
  1

  0
LINE
  5
46E
  8
回02-寸法
  6
CONTINUOUS
 62
     5
 10
824.9844469363207
 20
-1565.059395353669
 30
0.0
 11
824.9844469363207
 21
-1522.977383912444
 31
0.0
  0
LINE
  5
46F
  8
回02-寸法
  6
CONTINUOUS
 62
     5
 10
816.7244469363208
 20
-1558.977383912443
 30
0.0
 11
816.7244469363208
 21
-1522.977383912444
 31
0.0
  0
LINE
  5
470
  8
回02-寸法
  6
CONTINUOUS
 62
     5
 10
827.9844469363208
 20
-1523.977383912443
 30
0.0
 11
830.9844469363207
 21
-1523.977383912443
 31
0.0
  0
LINE
  5
471
  8
回02-寸法
  6
CONTINUOUS
 62
     5
 10
813.7244469363206
 20
-1523.977383912443
 30
0.0
 11
796.8268091410452
 21
-1523.977383912443
 31
0.0
  0
LINE
  5
472
  8
回02-寸法
  6
CONTINUOUS
 62
     5
 10
824.9844469363207
 20
-1523.977383912443
 30
0.0
 11
816.7244469363208
 21
-1523.977383912443
 31
0.0
  0
INSERT
  5
473
  8
回02-寸法
  6
CONTINUOUS
 62
     5
 66
     1
  2
_OPEN
 10
824.9844469363207
 20
-1523.977383912443
 30
0.0
 41
3.0
 42
3.0
 43
3.0
 50
180.0
  0
SEQEND
  5
474
  8
0
  6
CONTINUOUS
 62
     5
  0
INSERT
  5
475
  8
回02-寸法
  6
CONTINUOUS
 62
     5
 66
     1
  2
_OPEN
 10
816.7244469363208
 20
-1523.977383912443
 30
0.0
 41
3.0
 42
3.0
 43
3.0
  0
SEQEND
  5
476
  8
0
  6
CONTINUOUS
 62
     5
  0
TEXT
  5
477
  8
回02-寸法
  6
CONTINUOUS
 62
     5
 10
796.5731229533814
 20
-1523.476793361262
 30
0.0
 40
6.0
  1
8.26
1001
ACAD
1000
MTEXTBEGIN
1070
    73
1070
     1
1070
    44
1040
1.0
1070
    74
1070
     0
1000
MTEXTEND
  0
POINT
  5
478
  8
DEFPOINTS
  6
CONTINUOUS
 62
     0
 10
824.9844469363207
 20
-1565.059395353669
 30
0.0
  0
POINT
  5
479
  8
DEFPOINTS
  6
CONTINUOUS
 62
     0
 10
816.7244469363208
 20
-1558.977383912443
 30
0.0
  0
POINT
  5
47A
  8
DEFPOINTS
  6
CONTINUOUS
 62
     0
 10
816.7244469363208
 20
-1523.977383912443
 30
0.0
  0
ENDBLK
  5
47B
  8
0
 62
     4
  0
BLOCK
  8
0
  2
*D33
 70
     1
 10
0.0
 20
0.0
 30
0.0
  3
*D33
  1

  0
LINE
  5
45D
  8
回02-寸法
  6
CONTINUOUS
 62
     5
 10
824.4844469363215
 20
-1564.259395353669
 30
0.0
 11
824.4844469363215
 21
-1512.977383912444
 31
0.0
  0
LINE
  5
45E
  8
回02-寸法
  6
CONTINUOUS
 62
     5
 10
816.7244469363208
 20
-1558.977383912443
 30
0.0
 11
816.7244469363208
 21
-1512.977383912444
 31
0.0
  0
LINE
  5
45F
  8
回02-寸法
  6
CONTINUOUS
 62
     5
 10
827.4844469363214
 20
-1513.977383912443
 30
0.0
 11
830.4844469363215
 21
-1513.977383912443
 31
0.0
  0
LINE
  5
460
  8
回02-寸法
  6
CONTINUOUS
 62
     5
 10
813.7244469363206
 20
-1513.977383912443
 30
0.0
 11
736.5118091410452
 21
-1513.977383912443
 31
0.0
  0
LINE
  5
461
  8
回02-寸法
  6
CONTINUOUS
 62
     5
 10
824.4844469363215
 20
-1513.977383912443
 30
0.0
 11
816.7244469363208
 21
-1513.977383912443
 31
0.0
  0
INSERT
  5
462
  8
回02-寸法
  6
CONTINUOUS
 62
     5
 66
     1
  2
_OPEN
 10
824.4844469363215
 20
-1513.977383912443
 30
0.0
 41
3.0
 42
3.0
 43
3.0
 50
180.0
  0
SEQEND
  5
463
  8
0
  6
CONTINUOUS
 62
     5
  0
INSERT
  5
464
  8
回02-寸法
  6
CONTINUOUS
 62
     5
 66
     1
  2
_OPEN
 10
816.7244469363208
 20
-1513.977383912443
 30
0.0
 41
3.0
 42
3.0
 43
3.0
  0
SEQEND
  5
465
  8
0
  6
CONTINUOUS
 62
     5
  0
TEXT
  5
466
  8
回02-寸法
  6
CONTINUOUS
 62
     5
 10
736.1118091410452
 20
-1513.169883912444
 30
0.0
 40
6.0
  1
7.76(Insulation Area)
1001
ACAD
1000
MTEXTBEGIN
1070
    73
1070
     1
1070
    44
1040
1.0
1070
    74
1070
     0
1000
MTEXTEND
  0
POINT
  5
467
  8
DEFPOINTS
  6
CONTINUOUS
 62
     0
 10
824.4844469363215
 20
-1564.259395353669
 30
0.0
  0
POINT
  5
468
  8
DEFPOINTS
  6
CONTINUOUS
 62
     0
 10
816.7244469363208
 20
-1558.977383912443
 30
0.0
  0
POINT
  5
469
  8
DEFPOINTS
  6
CONTINUOUS
 62
     0
 10
816.7244469363208
 20
-1513.977383912443
 30
0.0
  0
ENDBLK
  5
46A
  8
0
 62
     4
  0
BLOCK
  8
0
  2
*D44
 70
     1
 10
0.0
 20
0.0
 30
0.0
  3
*D44
  1

  0
LINE
  5
449
  8
回02-寸法
  6
CONTINUOUS
 62
     5
 10
812.532517027957
 20
-1656.067733773795
 30
0.0
 11
788.1627591005187
 21
-1656.067733773795
 31
0.0
  0
LINE
  5
44A
  8
回02-寸法
  6
CONTINUOUS
 62
     5
 10
812.5366906136626
 20
-1672.066530739524
 30
0.0
 11
788.1627591005187
 21
-1672.066530739524
 31
0.0
  0
LINE
  5
44B
  8
回02-寸法
  6
CONTINUOUS
 62
     5
 10
789.1627591005187
 20
-1653.067733773795
 30
0.0
 11
789.1627591005187
 21
-1650.067733773795
 31
0.0
  0
LINE
  5
44C
  8
回02-寸法
  6
CONTINUOUS
 62
     5
 10
789.1627591005187
 20
-1675.066530739524
 30
0.0
 11
789.1627591005187
 21
-1684.764168534799
 31
0.0
  0
LINE
  5
44D
  8
回02-寸法
  6
CONTINUOUS
 62
     5
 10
789.1627591005187
 20
-1656.067733773795
 30
0.0
 11
789.1627591005187
 21
-1672.066530739524
 31
0.0
  0
INSERT
  5
44E
  8
回02-寸法
  6
CONTINUOUS
 62
     5
 66
     1
  2
_OPEN
 10
789.1627591005187
 20
-1656.067733773795
 30
0.0
 41
3.0
 42
3.0
 43
3.0
 50
270.0
  0
SEQEND
  5
44F
  8
0
  6
CONTINUOUS
 62
     5
  0
INSERT
  5
450
  8
回02-寸法
  6
CONTINUOUS
 62
     5
 66
     1
  2
_OPEN
 10
789.1627591005187
 20
-1672.066530739524
 30
0.0
 41
3.0
 42
3.0
 43
3.0
 50
90.0
  0
SEQEND
  5
451
  8
0
  6
CONTINUOUS
 62
     5
  0
TEXT
  5
452
  8
回02-寸法
  6
CONTINUOUS
 62
     5
 10
788.662759100518
 20
-1685.017854722463
 30
0.0
 40
6.0
  1
16
 50
90.0
1001
ACAD
1000
MTEXTBEGIN
1070
    73
1070
     1
1070
    44
1040
1.0
1070
    74
1070
     0
1000
MTEXTEND
  0
POINT
  5
453
  8
DEFPOINTS
  6
CONTINUOUS
 62
     0
 10
812.532517027957
 20
-1656.067733773795
 30
0.0
  0
POINT
  5
454
  8
DEFPOINTS
  6
CONTINUOUS
 62
     0
 10
812.5366906136626
 20
-1672.066530739524
 30
0.0
  0
POINT
  5
455
  8
DEFPOINTS
  6
CONTINUOUS
 62
     0
 10
789.1627591005187
 20
-1672.066530739524
 30
0.0
  0
ENDBLK
  5
456
  8
0
 62
     4
  0
BLOCK
  8
0
  2
*D55
 70
     1
 10
0.0
 20
0.0
 30
0.0
  3
*D55
  1

  0
LINE
  5
43A
  8
回02-寸法
  6
CONTINUOUS
 62
     5
 10
816.7244469363208
 20
-1655.389406195332
 30
0.0
 11
816.7244469363208
 21
-1633.161149884542
 31
0.0
  0
LINE
  5
43B
  8
回02-寸法
  6
CONTINUOUS
 62
     5
 10
736.7244034255535
 20
-1661.441530739523
 30
0.0
 11
736.7244034255535
 21
-1633.161149884542
 31
0.0
  0
LINE
  5
43C
  8
回02-寸法
  6
CONTINUOUS
 62
     5
 10
813.7244469363206
 20
-1634.161149884542
 30
0.0
 11
739.7244034255535
 21
-1634.161149884542
 31
0.0
  0
INSERT
  5
43D
  8
回02-寸法
  6
CONTINUOUS
 62
     5
 66
     1
  2
_OPEN
 10
816.7244469363208
 20
-1634.161149884542
 30
0.0
 41
3.0
 42
3.0
 43
3.0
  0
SEQEND
  5
43E
  8
0
  6
CONTINUOUS
 62
     5
  0
INSERT
  5
43F
  8
回02-寸法
  6
CONTINUOUS
 62
     5
 66
     1
  2
_OPEN
 10
736.7244034255535
 20
-1634.161149884542
 30
0.0
 41
3.0
 42
3.0
 43
3.0
 50
180.0
  0
SEQEND
  5
440
  8
0
  6
CONTINUOUS
 62
     5
  0
INSERT
  5
441
  8
回02-寸法
  6
CONTINUOUS
 62
     5
 66
     1
  2
*X8585
 10
0.0
 20
0.0
 30
0.0
  0
SEQEND
  5
720
  8
0
  6
CONTINUOUS
 62
     5
  0
POINT
  5
442
  8
DEFPOINTS
  6
CONTINUOUS
 62
     0
 10
816.7244469363208
 20
-1655.389406195332
 30
0.0
  0
POINT
  5
443
  8
DEFPOINTS
  6
CONTINUOUS
 62
     0
 10
736.7244034255535
 20
-1661.441530739523
 30
0.0
  0
POINT
  5
444
  8
DEFPOINTS
  6
CONTINUOUS
 62
     0
 10
736.7244034255535
 20
-1634.161149884542
 30
0.0
  0
ENDBLK
  5
445
  8
0
 62
     4
  0
BLOCK
  8
0
  2
*D66
 70
     1
 10
0.0
 20
0.0
 30
0.0
  3
*D66
  1

  0
LINE
  5
429
  8
回02-寸法
  6
CONTINUOUS
 62
     5
 10
816.7244034255528
 20
-1674.937598551389
 30
0.0
 11
816.7244034255528
 21
-1700.420051388651
 31
0.0
  0
LINE
  5
42A
  8
回02-寸法
  6
CONTINUOUS
 62
     5
 10
807.2285158162939
 20
-1667.284720195732
 30
0.0
 11
807.2285158162939
 21
-1700.420051388651
 31
0.0
  0
LINE
  5
42B
  8
回02-寸法
  6
CONTINUOUS
 62
     5
 10
819.7244034255529
 20
-1699.420051388652
 30
0.0
 11
822.7244034255528
 21
-1699.420051388652
 31
0.0
  0
LINE
  5
42C
  8
回02-寸法
  6
CONTINUOUS
 62
     5
 10
804.2285158162938
 20
-1699.420051388652
 30
0.0
 11
791.3314595414462
 21
-1699.420051388652
 31
0.0
  0
LINE
  5
42D
  8
回02-寸法
  6
CONTINUOUS
 62
     5
 10
816.7244034255528
 20
-1699.420051388652
 30
0.0
 11
807.2285158162939
 21
-1699.420051388652
 31
0.0
  0
INSERT
  5
42E
  8
回02-寸法
  6
CONTINUOUS
 62
     5
 66
     1
  2
_OPEN
 10
816.7244034255528
 20
-1699.420051388652
 30
0.0
 41
3.0
 42
3.0
 43
3.0
 50
180.0
  0
SEQEND
  5
42F
  8
0
  6
CONTINUOUS
 62
     5
  0
INSERT
  5
430
  8
回02-寸法
  6
CONTINUOUS
 62
     5
 66
     1
  2
_OPEN
 10
807.2285158162939
 20
-1699.420051388652
 30
0.0
 41
3.0
 42
3.0
 43
3.0
  0
SEQEND
  5
431
  8
0
  6
CONTINUOUS
 62
     5
  0
TEXT
  5
432
  8
回02-寸法
  6
CONTINUOUS
 62
     5
 10
791.1583254677083
 20
-1698.920051388651
 30
0.0
 40
6.0
  1
9.5
1001
ACAD
1000
MTEXTBEGIN
1070
    73
1070
     1
1070
    44
1040
1.0
1070
    74
1070
     0
1000
MTEXTEND
  0
POINT
  5
433
  8
DEFPOINTS
  6
CONTINUOUS
 62
     0
 10
816.7244034255528
 20
-1674.937598551389
 30
0.0
  0
POINT
  5
434
  8
DEFPOINTS
  6
CONTINUOUS
 62
     0
 10
807.2285158162939
 20
-1667.284720195732
 30
0.0
  0
POINT
  5
435
  8
DEFPOINTS
  6
CONTINUOUS
 62
     0
 10
807.2285158162939
 20
-1699.420051388652
 30
0.0
  0
ENDBLK
  5
436
  8
0
 62
     4
  0
BLOCK
  8
0
  2
*D77
 70
     1
 10
0.0
 20
0.0
 30
0.0
  3
*D77
  1

  0
LINE
  5
418
  8
回02-寸法
 62
     5
 10
737.2244034255547
 20
-1660.941530739524
 30
0.0
 11
725.2813583773837
 21
-1660.941530739524
 31
0.0
  0
LINE
  5
419
  8
回02-寸法
 62
     5
 10
737.2244034255547
 20
-1667.191530739524
 30
0.0
 11
725.2813583773837
 21
-1667.191530739524
 31
0.0
  0
LINE
  5
41A
  8
回02-寸法
 62
     5
 10
726.2813583773837
 20
-1670.191530739524
 30
0.0
 11
726.2813583773837
 21
-1673.191530739523
 31
0.0
  0
LINE
  5
41B
  8
回02-寸法
 62
     5
 10
726.2813583773837
 20
-1657.941530739523
 30
0.0
 11
726.2813583773837
 21
-1630.380227589918
 31
0.0
  0
LINE
  5
41C
  8
回02-寸法
 62
     5
 10
726.2813583773837
 20
-1667.191530739524
 30
0.0
 11
726.2813583773837
 21
-1660.941530739524
 31
0.0
  0
INSERT
  5
41D
  8
回02-寸法
 62
     5
 66
     1
  2
_OPEN
 10
726.2813583773837
 20
-1667.191530739524
 30
0.0
 41
3.0
 42
3.0
 43
3.0
 50
90.0
  0
SEQEND
  5
41E
  8
0
  6
CONTINUOUS
 62
     5
  0
INSERT
  5
41F
  8
回02-寸法
 62
     5
 66
     1
  2
_OPEN
 10
726.2813583773837
 20
-1660.941530739524
 30
0.0
 41
3.0
 42
3.0
 43
3.0
 50
270.0
  0
SEQEND
  5
420
  8
0
  6
CONTINUOUS
 62
     5
  0
INSERT
  5
421
  8
回02-寸法
 62
     5
 66
     1
  2
*X8686
 10
0.0
 20
0.0
 30
0.0
  0
SEQEND
  5
726
  8
0
  6
CONTINUOUS
 62
     5
  0
POINT
  5
422
  8
DEFPOINTS
 62
     0
 10
737.2244034255547
 20
-1660.941530739524
 30
0.0
  0
POINT
  5
423
  8
DEFPOINTS
 62
     0
 10
737.2244034255547
 20
-1667.191530739524
 30
0.0
  0
POINT
  5
424
  8
DEFPOINTS
 62
     0
 10
726.2813583773837
 20
-1667.191530739524
 30
0.0
  0
ENDBLK
  5
425
  8
0
 62
     4
  0
BLOCK
  8
0
  2
*D88
 70
     1
 10
0.0
 20
0.0
 30
0.0
  3
*D88
  1

  0
LINE
  5
407
  8
回02-寸法
  6
CONTINUOUS
 62
     5
 10
816.7244469363211
 20
-1672.74365508399
 30
0.0
 11
816.7244469363211
 21
-1688.038698676762
 31
0.0
  0
LINE
  5
408
  8
回02-寸法
  6
CONTINUOUS
 62
     5
 10
812.1239444237588
 20
-1671.977376820219
 30
0.0
 11
812.1239444237588
 21
-1688.038698676762
 31
0.0
  0
LINE
  5
409
  8
回02-寸法
  6
CONTINUOUS
 62
     5
 10
819.7244469363212
 20
-1687.038698676763
 30
0.0
 11
822.7244469363212
 21
-1687.038698676763
 31
0.0
  0
LINE
  5
40A
  8
回02-寸法
  6
CONTINUOUS
 62
     5
 10
809.123944423759
 20
-1687.038698676763
 30
0.0
 11
795.8263066284834
 21
-1687.038698676763
 31
0.0
  0
LINE
  5
40B
  8
回02-寸法
  6
CONTINUOUS
 62
     5
 10
816.7244469363211
 20
-1687.038698676763
 30
0.0
 11
812.1239444237588
 21
-1687.038698676763
 31
0.0
  0
INSERT
  5
40C
  8
回02-寸法
  6
CONTINUOUS
 62
     5
 66
     1
  2
_OPEN
 10
816.7244469363211
 20
-1687.038698676763
 30
0.0
 41
3.0
 42
3.0
 43
3.0
 50
180.0
  0
SEQEND
  5
40D
  8
0
  6
CONTINUOUS
 62
     5
  0
INSERT
  5
40E
  8
回02-寸法
  6
CONTINUOUS
 62
     5
 66
     1
  2
_OPEN
 10
812.1239444237588
 20
-1687.038698676763
 30
0.0
 41
3.0
 42
3.0
 43
3.0
  0
SEQEND
  5
40F
  8
0
  6
CONTINUOUS
 62
     5
  0
TEXT
  5
410
  8
回02-寸法
  6
CONTINUOUS
 62
     5
 10
795.5726204408196
 20
-1686.538698676762
 30
0.0
 40
6.0
  1
4.6
1001
ACAD
1000
MTEXTBEGIN
1070
    73
1070
     1
1070
    44
1040
1.0
1070
    74
1070
     0
1000
MTEXTEND
  0
POINT
  5
411
  8
DEFPOINTS
  6
CONTINUOUS
 62
     0
 10
816.7244469363211
 20
-1672.74365508399
 30
0.0
  0
POINT
  5
412
  8
DEFPOINTS
  6
CONTINUOUS
 62
     0
 10
812.1239444237588
 20
-1671.977376820219
 30
0.0
  0
POINT
  5
413
  8
DEFPOINTS
  6
CONTINUOUS
 62
     0
 10
812.1239444237588
 20
-1687.038698676763
 30
0.0
  0
ENDBLK
  5
414
  8
0
 62
     4
  0
BLOCK
  8
0
  2
*D99
 70
     1
 10
0.0
 20
0.0
 30
0.0
  3
*D99
  1

  0
LINE
  5
38D
  8
回02-寸法
  6
CONTINUOUS
 62
     5
 10
1035.350446936322
 20
-1688.07739535367
 30
0.0
 11
1046.477082552109
 21
-1688.07739535367
 31
0.0
  0
LINE
  5
38E
  8
回02-寸法
  6
CONTINUOUS
 62
     5
 10
1035.350446936322
 20
-1692.07739535367
 30
0.0
 11
1046.477082552109
 21
-1692.07739535367
 31
0.0
  0
LINE
  5
38F
  8
回02-寸法
  6
CONTINUOUS
 62
     5
 10
1045.477082552109
 20
-1685.07739535367
 30
0.0
 11
1045.477082552109
 21
-1682.07739535367
 31
0.0
  0
LINE
  5
390
  8
回02-寸法
  6
CONTINUOUS
 62
     5
 10
1045.477082552109
 20
-1695.07739535367
 30
0.0
 11
1045.477082552109
 21
-1702.07739535367
 31
0.0
  0
LINE
  5
391
  8
回02-寸法
  6
CONTINUOUS
 62
     5
 10
1045.477082552109
 20
-1688.07739535367
 30
0.0
 11
1045.477082552109
 21
-1692.07739535367
 31
0.0
  0
INSERT
  5
392
  8
回02-寸法
  6
CONTINUOUS
 62
     5
 66
     1
  2
_OPEN
 10
1045.477082552109
 20
-1688.07739535367
 30
0.0
 41
3.0
 42
3.0
 43
3.0
 50
270.0
  0
SEQEND
  5
393
  8
0
  6
CONTINUOUS
 62
     5
  0
INSERT
  5
394
  8
回02-寸法
  6
CONTINUOUS
 62
     5
 66
     1
  2
_OPEN
 10
1045.477082552109
 20
-1692.07739535367
 30
0.0
 41
3.0
 42
3.0
 43
3.0
 50
90.0
  0
SEQEND
  5
395
  8
0
  6
CONTINUOUS
 62
     5
  0
TEXT
  5
396
  8
回02-寸法
  6
CONTINUOUS
 62
     5
 10
1044.977082552108
 20
-1702.47739535367
 30
0.0
 40
6.0
  1
4
 50
90.0
1001
ACAD
1000
MTEXTBEGIN
1070
    73
1070
     1
1070
    44
1040
1.0
1070
    74
1070
     0
1000
MTEXTEND
  0
POINT
  5
397
  8
DEFPOINTS
  6
CONTINUOUS
 62
     0
 10
1035.350446936322
 20
-1688.07739535367
 30
0.0
  0
POINT
  5
398
  8
DEFPOINTS
  6
CONTINUOUS
 62
     0
 10
1035.350446936322
 20
-1692.07739535367
 30
0.0
  0
POINT
  5
399
  8
DEFPOINTS
  6
CONTINUOUS
 62
     0
 10
1045.477082552109
 20
-1692.07739535367
 30
0.0
  0
ENDBLK
  5
39A
  8
0
 62
     7
  0
BLOCK
  8
0
  2
*D1010
 70
     1
 10
0.0
 20
0.0
 30
0.0
  3
*D1010
  1

  0
LINE
  5
37C
  8
回02-寸法
  6
CONTINUOUS
 62
     5
 10
1027.350446936321
 20
-1700.07739535367
 30
0.0
 11
1027.350446936321
 21
-1709.252618834323
 31
0.0
  0
LINE
  5
37D
  8
回02-寸法
  6
CONTINUOUS
 62
     5
 10
1031.350446936321
 20
-1700.07739535367
 30
0.0
 11
1031.350446936321
 21
-1709.252618834323
 31
0.0
  0
LINE
  5
37E
  8
回02-寸法
  6
CONTINUOUS
 62
     5
 10
1024.350446936321
 20
-1708.252618834323
 30
0.0
 11
1021.350446936321
 21
-1708.252618834323
 31
0.0
  0
LINE
  5
37F
  8
回02-寸法
  6
CONTINUOUS
 62
     5
 10
1034.350446936321
 20
-1708.252618834323
 30
0.0
 11
1041.350446936321
 21
-1708.252618834323
 31
0.0
  0
LINE
  5
380
  8
回02-寸法
  6
CONTINUOUS
 62
     5
 10
1027.350446936321
 20
-1708.252618834323
 30
0.0
 11
1031.350446936321
 21
-1708.252618834323
 31
0.0
  0
INSERT
  5
381
  8
回02-寸法
  6
CONTINUOUS
 62
     5
 66
     1
  2
_OPEN
 10
1027.350446936321
 20
-1708.252618834323
 30
0.0
 41
3.0
 42
3.0
 43
3.0
  0
SEQEND
  5
382
  8
0
  6
CONTINUOUS
 62
     5
  0
INSERT
  5
383
  8
回02-寸法
  6
CONTINUOUS
 62
     5
 66
     1
  2
_OPEN
 10
1031.350446936321
 20
-1708.252618834323
 30
0.0
 41
3.0
 42
3.0
 43
3.0
 50
180.0
  0
SEQEND
  5
384
  8
0
  6
CONTINUOUS
 62
     5
  0
TEXT
  5
385
  8
回02-寸法
  6
CONTINUOUS
 62
     5
 10
1036.950446936321
 20
-1707.752618834323
 30
0.0
 40
6.0
  1
4
1001
ACAD
1000
MTEXTBEGIN
1070
    73
1070
     1
1070
    44
1040
1.0
1070
    74
1070
     0
1000
MTEXTEND
  0
POINT
  5
386
  8
DEFPOINTS
  6
CONTINUOUS
 62
     0
 10
1027.350446936321
 20
-1700.07739535367
 30
0.0
  0
POINT
  5
387
  8
DEFPOINTS
  6
CONTINUOUS
 62
     0
 10
1031.350446936321
 20
-1700.07739535367
 30
0.0
  0
POINT
  5
388
  8
DEFPOINTS
  6
CONTINUOUS
 62
     0
 10
1031.350446936321
 20
-1708.252618834323
 30
0.0
  0
ENDBLK
  5
389
  8
0
 62
     7
  0
BLOCK
  8
0
  2
*D1111
 70
     1
 10
0.0
 20
0.0
 30
0.0
  3
*D1111
  1

  0
LINE
  5
369
  8
回02-寸法
  6
CONTINUOUS
 62
     5
 10
826.9844469363215
 20
-1567.059395353669
 30
0.0
 11
826.9844469363215
 21
-1532.977383912444
 31
0.0
  0
LINE
  5
36A
  8
回02-寸法
  6
CONTINUOUS
 62
     5
 10
1171.716446936321
 20
-1567.059395353669
 30
0.0
 11
1171.716446936321
 21
-1532.977383912444
 31
0.0
  0
LINE
  5
36B
  8
回02-寸法
  6
CONTINUOUS
 62
     5
 10
829.9844469363215
 20
-1533.977383912444
 30
0.0
 11
1168.716446936321
 21
-1533.977383912444
 31
0.0
  0
INSERT
  5
36C
  8
回02-寸法
  6
CONTINUOUS
 62
     5
 66
     1
  2
_OPEN
 10
826.9844469363215
 20
-1533.977383912444
 30
0.0
 41
3.0
 42
3.0
 43
3.0
 50
180.0
  0
SEQEND
  5
36D
  8
0
  6
CONTINUOUS
 62
     5
  0
INSERT
  5
36E
  8
回02-寸法
  6
CONTINUOUS
 62
     5
 66
     1
  2
_OPEN
 10
1171.716446936321
 20
-1533.977383912444
 30
0.0
 41
3.0
 42
3.0
 43
3.0
  0
SEQEND
  5
36F
  8
0
  6
CONTINUOUS
 62
     5
  0
INSERT
  5
370
  8
回02-寸法
  6
CONTINUOUS
 62
     5
 66
     1
  2
*X8787
 10
0.0
 20
0.0
 30
0.0
  0
SEQEND
  5
72C
  8
0
  6
CONTINUOUS
 62
     5
  0
POINT
  5
371
  8
DEFPOINTS
  6
CONTINUOUS
 62
     0
 10
826.9844469363215
 20
-1567.059395353669
 30
0.0
  0
POINT
  5
372
  8
DEFPOINTS
  6
CONTINUOUS
 62
     0
 10
1171.716446936321
 20
-1567.059395353669
 30
0.0
  0
POINT
  5
373
  8
DEFPOINTS
  6
CONTINUOUS
 62
     0
 10
1171.716446936321
 20
-1533.977383912444
 30
0.0
  0
ENDBLK
  5
374
  8
0
 62
     7
  0
BLOCK
  8
0
  2
*D1212
 70
     1
 10
0.0
 20
0.0
 30
0.0
  3
*D1212
  1

  0
LINE
  5
35A
  8
回02-寸法
  6
CONTINUOUS
 62
     5
 10
824.9844469363216
 20
-1565.059395353669
 30
0.0
 11
824.9844469363216
 21
-1522.977383912444
 31
0.0
  0
LINE
  5
35B
  8
回02-寸法
  6
CONTINUOUS
 62
     5
 10
1173.716446936321
 20
-1565.059395353669
 30
0.0
 11
1173.716446936321
 21
-1522.977383912444
 31
0.0
  0
LINE
  5
35C
  8
回02-寸法
  6
CONTINUOUS
 62
     5
 10
827.9844469363215
 20
-1523.977383912443
 30
0.0
 11
1170.716446936321
 21
-1523.977383912443
 31
0.0
  0
INSERT
  5
35D
  8
回02-寸法
  6
CONTINUOUS
 62
     5
 66
     1
  2
_OPEN
 10
824.9844469363216
 20
-1523.977383912443
 30
0.0
 41
3.0
 42
3.0
 43
3.0
 50
180.0
  0
SEQEND
  5
35E
  8
0
  6
CONTINUOUS
 62
     5
  0
INSERT
  5
35F
  8
回02-寸法
  6
CONTINUOUS
 62
     5
 66
     1
  2
_OPEN
 10
1173.716446936321
 20
-1523.977383912443
 30
0.0
 41
3.0
 42
3.0
 43
3.0
  0
SEQEND
  5
360
  8
0
  6
CONTINUOUS
 62
     5
  0
INSERT
  5
361
  8
回02-寸法
  6
CONTINUOUS
 62
     5
 66
     1
  2
*X8888
 10
0.0
 20
0.0
 30
0.0
  0
SEQEND
  5
732
  8
0
  6
CONTINUOUS
 62
     5
  0
POINT
  5
362
  8
DEFPOINTS
  6
CONTINUOUS
 62
     0
 10
824.9844469363216
 20
-1565.059395353669
 30
0.0
  0
POINT
  5
363
  8
DEFPOINTS
  6
CONTINUOUS
 62
     0
 10
1173.716446936321
 20
-1565.059395353669
 30
0.0
  0
POINT
  5
364
  8
DEFPOINTS
  6
CONTINUOUS
 62
     0
 10
1173.716446936321
 20
-1523.977383912443
 30
0.0
  0
ENDBLK
  5
365
  8
0
 62
     7
  0
BLOCK
  8
0
  2
*D1313
 70
     1
 10
0.0
 20
0.0
 30
0.0
  3
*D1313
  1

  0
LINE
  5
34B
  8
回02-寸法
  6
CONTINUOUS
 62
     5
 10
816.7244469363208
 20
-1558.977383912442
 30
0.0
 11
816.7244469363208
 21
-1502.977383912443
 31
0.0
  0
LINE
  5
34C
  8
回02-寸法
  6
CONTINUOUS
 62
     5
 10
1178.224446936321
 20
-1558.977383912442
 30
0.0
 11
1178.224446936321
 21
-1502.977383912443
 31
0.0
  0
LINE
  5
34D
  8
回02-寸法
  6
CONTINUOUS
 62
     5
 10
819.7244469363207
 20
-1503.977383912443
 30
0.0
 11
1175.224446936321
 21
-1503.977383912443
 31
0.0
  0
INSERT
  5
34E
  8
回02-寸法
  6
CONTINUOUS
 62
     5
 66
     1
  2
_OPEN
 10
816.7244469363208
 20
-1503.977383912443
 30
0.0
 41
3.0
 42
3.0
 43
3.0
 50
180.0
  0
SEQEND
  5
34F
  8
0
  6
CONTINUOUS
 62
     5
  0
INSERT
  5
350
  8
回02-寸法
  6
CONTINUOUS
 62
     5
 66
     1
  2
_OPEN
 10
1178.224446936321
 20
-1503.977383912443
 30
0.0
 41
3.0
 42
3.0
 43
3.0
  0
SEQEND
  5
351
  8
0
  6
CONTINUOUS
 62
     5
  0
INSERT
  5
352
  8
回02-寸法
  6
CONTINUOUS
 62
     5
 66
     1
  2
*X8989
 10
0.0
 20
0.0
 30
0.0
  0
SEQEND
  5
738
  8
0
  6
CONTINUOUS
 62
     5
  0
POINT
  5
353
  8
DEFPOINTS
  6
CONTINUOUS
 62
     0
 10
816.7244469363208
 20
-1558.977383912442
 30
0.0
  0
POINT
  5
354
  8
DEFPOINTS
  6
CONTINUOUS
 62
     0
 10
1178.224446936321
 20
-1558.977383912442
 30
0.0
  0
POINT
  5
355
  8
DEFPOINTS
  6
CONTINUOUS
 62
     0
 10
1178.224446936321
 20
-1503.977383912443
 30
0.0
  0
ENDBLK
  5
356
  8
0
 62
     7
  0
BLOCK
  8
0
  2
*D1414
 70
     1
 10
0.0
 20
0.0
 30
0.0
  3
*D1414
  1

  0
LINE
  5
33C
  8
回02-寸法
  6
CONTINUOUS
 62
     5
 10
1171.716446936322
 20
-1761.09539535367
 30
0.0
 11
1204.224446936322
 21
-1761.09539535367
 31
0.0
  0
LINE
  5
33D
  8
回02-寸法
  6
CONTINUOUS
 62
     5
 10
1171.716446936322
 20
-1567.05939535367
 30
0.0
 11
1204.224446936322
 21
-1567.05939535367
 31
0.0
  0
LINE
  5
33E
  8
回02-寸法
  6
CONTINUOUS
 62
     5
 10
1203.224446936322
 20
-1758.09539535367
 30
0.0
 11
1203.224446936322
 21
-1570.05939535367
 31
0.0
  0
INSERT
  5
33F
  8
回02-寸法
  6
CONTINUOUS
 62
     5
 66
     1
  2
_OPEN
 10
1203.224446936322
 20
-1761.09539535367
 30
0.0
 41
3.0
 42
3.0
 43
3.0
 50
270.0
  0
SEQEND
  5
340
  8
0
  6
CONTINUOUS
 62
     5
  0
INSERT
  5
341
  8
回02-寸法
  6
CONTINUOUS
 62
     5
 66
     1
  2
_OPEN
 10
1203.224446936322
 20
-1567.05939535367
 30
0.0
 41
3.0
 42
3.0
 43
3.0
 50
90.0
  0
SEQEND
  5
342
  8
0
  6
CONTINUOUS
 62
     5
  0
INSERT
  5
343
  8
回02-寸法
  6
CONTINUOUS
 62
     5
 66
     1
  2
*X9090
 10
0.0
 20
0.0
 30
0.0
  0
SEQEND
  5
73E
  8
0
  6
CONTINUOUS
 62
     5
  0
POINT
  5
344
  8
DEFPOINTS
  6
CONTINUOUS
 62
     0
 10
1171.716446936322
 20
-1761.09539535367
 30
0.0
  0
POINT
  5
345
  8
DEFPOINTS
  6
CONTINUOUS
 62
     0
 10
1171.716446936322
 20
-1567.05939535367
 30
0.0
  0
POINT
  5
346
  8
DEFPOINTS
  6
CONTINUOUS
 62
     0
 10
1203.224446936322
 20
-1567.05939535367
 30
0.0
  0
ENDBLK
  5
347
  8
0
 62
     7
  0
BLOCK
  8
0
  2
*D1515
 70
     1
 10
0.0
 20
0.0
 30
0.0
  3
*D1515
  1

  0
LINE
  5
32D
  8
回02-寸法
  6
CONTINUOUS
 62
     5
 10
1173.716446936322
 20
-1565.059395353671
 30
0.0
 11
1214.224446936322
 21
-1565.059395353671
 31
0.0
  0
LINE
  5
32E
  8
回02-寸法
  6
CONTINUOUS
 62
     5
 10
1173.716446936322
 20
-1763.09539535367
 30
0.0
 11
1214.224446936322
 21
-1763.09539535367
 31
0.0
  0
LINE
  5
32F
  8
回02-寸法
  6
CONTINUOUS
 62
     5
 10
1213.224446936322
 20
-1568.059395353671
 30
0.0
 11
1213.224446936322
 21
-1760.09539535367
 31
0.0
  0
INSERT
  5
330
  8
回02-寸法
  6
CONTINUOUS
 62
     5
 66
     1
  2
_OPEN
 10
1213.224446936322
 20
-1565.059395353671
 30
0.0
 41
3.0
 42
3.0
 43
3.0
 50
90.0
  0
SEQEND
  5
331
  8
0
  6
CONTINUOUS
 62
     5
  0
INSERT
  5
332
  8
回02-寸法
  6
CONTINUOUS
 62
     5
 66
     1
  2
_OPEN
 10
1213.224446936322
 20
-1763.09539535367
 30
0.0
 41
3.0
 42
3.0
 43
3.0
 50
270.0
  0
SEQEND
  5
333
  8
0
  6
CONTINUOUS
 62
     5
  0
INSERT
  5
334
  8
回02-寸法
  6
CONTINUOUS
 62
     5
 66
     1
  2
*X9191
 10
0.0
 20
0.0
 30
0.0
  0
SEQEND
  5
744
  8
0
  6
CONTINUOUS
 62
     5
  0
POINT
  5
335
  8
DEFPOINTS
  6
CONTINUOUS
 62
     0
 10
1173.716446936322
 20
-1565.059395353671
 30
0.0
  0
POINT
  5
336
  8
DEFPOINTS
  6
CONTINUOUS
 62
     0
 10
1173.716446936322
 20
-1763.09539535367
 30
0.0
  0
POINT
  5
337
  8
DEFPOINTS
  6
CONTINUOUS
 62
     0
 10
1213.224446936322
 20
-1763.09539535367
 30
0.0
  0
ENDBLK
  5
338
  8
0
 62
     7
  0
BLOCK
  8
0
  2
*D1616
 70
     1
 10
0.0
 20
0.0
 30
0.0
  3
*D1616
  1

  0
LINE
  5
31E
  8
回02-寸法
  6
CONTINUOUS
 62
     5
 10
1178.224446936322
 20
-1769.177395353668
 30
0.0
 11
1234.224446936322
 21
-1769.177395353668
 31
0.0
  0
LINE
  5
31F
  8
回02-寸法
  6
CONTINUOUS
 62
     5
 10
1178.224446936322
 20
-1558.977383912444
 30
0.0
 11
1234.224446936322
 21
-1558.977383912444
 31
0.0
  0
LINE
  5
320
  8
回02-寸法
  6
CONTINUOUS
 62
     5
 10
1233.224446936322
 20
-1766.177395353668
 30
0.0
 11
1233.224446936322
 21
-1561.977383912444
 31
0.0
  0
INSERT
  5
321
  8
回02-寸法
  6
CONTINUOUS
 62
     5
 66
     1
  2
_OPEN
 10
1233.224446936322
 20
-1769.177395353668
 30
0.0
 41
3.0
 42
3.0
 43
3.0
 50
270.0
  0
SEQEND
  5
322
  8
0
  6
CONTINUOUS
 62
     5
  0
INSERT
  5
323
  8
回02-寸法
  6
CONTINUOUS
 62
     5
 66
     1
  2
_OPEN
 10
1233.224446936322
 20
-1558.977383912444
 30
0.0
 41
3.0
 42
3.0
 43
3.0
 50
90.0
  0
SEQEND
  5
324
  8
0
  6
CONTINUOUS
 62
     5
  0
INSERT
  5
325
  8
回02-寸法
  6
CONTINUOUS
 62
     5
 66
     1
  2
*X9292
 10
0.0
 20
0.0
 30
0.0
  0
SEQEND
  5
74A
  8
0
  6
CONTINUOUS
 62
     5
  0
POINT
  5
326
  8
DEFPOINTS
  6
CONTINUOUS
 62
     0
 10
1178.224446936322
 20
-1769.177395353668
 30
0.0
  0
POINT
  5
327
  8
DEFPOINTS
  6
CONTINUOUS
 62
     0
 10
1178.224446936322
 20
-1558.977383912444
 30
0.0
  0
POINT
  5
328
  8
DEFPOINTS
  6
CONTINUOUS
 62
     0
 10
1233.224446936322
 20
-1558.977383912444
 30
0.0
  0
ENDBLK
  5
329
  8
0
 62
     7
  0
BLOCK
  8
0
  2
*D1717
 70
     1
 10
0.0
 20
0.0
 30
0.0
  3
*D1717
  1

  0
LINE
  5
30D
  8
回02-寸法
  6
CONTINUOUS
 62
     5
 10
1171.716446936322
 20
-1761.09539535367
 30
0.0
 11
1204.224446936321
 21
-1761.09539535367
 31
0.0
  0
LINE
  5
30E
  8
回02-寸法
  6
CONTINUOUS
 62
     5
 10
1178.224446936322
 20
-1769.177395353668
 30
0.0
 11
1204.224446936321
 21
-1769.177395353668
 31
0.0
  0
LINE
  5
30F
  8
回02-寸法
  6
CONTINUOUS
 62
     5
 10
1203.224446936321
 20
-1758.09539535367
 30
0.0
 11
1203.224446936321
 21
-1755.09539535367
 31
0.0
  0
LINE
  5
310
  8
回02-寸法
  6
CONTINUOUS
 62
     5
 10
1203.224446936321
 20
-1772.177395353669
 30
0.0
 11
1203.224446936321
 21
-1788.777395353668
 31
0.0
  0
LINE
  5
311
  8
回02-寸法
  6
CONTINUOUS
 62
     5
 10
1203.224446936321
 20
-1761.09539535367
 30
0.0
 11
1203.224446936321
 21
-1769.177395353668
 31
0.0
  0
INSERT
  5
312
  8
回02-寸法
  6
CONTINUOUS
 62
     5
 66
     1
  2
_OPEN
 10
1203.224446936321
 20
-1761.09539535367
 30
0.0
 41
3.0
 42
3.0
 43
3.0
 50
270.0
  0
SEQEND
  5
313
  8
0
  6
CONTINUOUS
 62
     5
  0
INSERT
  5
314
  8
回02-寸法
  6
CONTINUOUS
 62
     5
 66
     1
  2
_OPEN
 10
1203.224446936321
 20
-1769.177395353668
 30
0.0
 41
3.0
 42
3.0
 43
3.0
 50
90.0
  0
SEQEND
  5
315
  8
0
  6
CONTINUOUS
 62
     5
  0
TEXT
  5
316
  8
回02-寸法
  6
CONTINUOUS
 62
     5
 10
1202.72444693632
 20
-1789.177395353668
 30
0.0
 40
6.0
  1
8.08
 50
90.0
1001
ACAD
1000
MTEXTBEGIN
1070
    73
1070
     1
1070
    44
1040
1.0
1070
    74
1070
     0
1000
MTEXTEND
  0
POINT
  5
317
  8
DEFPOINTS
  6
CONTINUOUS
 62
     0
 10
1171.716446936322
 20
-1761.09539535367
 30
0.0
  0
POINT
  5
318
  8
DEFPOINTS
  6
CONTINUOUS
 62
     0
 10
1178.224446936322
 20
-1769.177395353668
 30
0.0
  0
POINT
  5
319
  8
DEFPOINTS
  6
CONTINUOUS
 62
     0
 10
1203.224446936321
 20
-1769.177395353668
 30
0.0
  0
ENDBLK
  5
31A
  8
0
 62
     7
  0
BLOCK
  8
0
  2
*D1818
 70
     1
 10
0.0
 20
0.0
 30
0.0
  3
*D1818
  1

  0
LINE
  5
2FC
  8
回02-寸法
  6
CONTINUOUS
 62
     5
 10
1173.716446936322
 20
-1763.09539535367
 30
0.0
 11
1214.224446936323
 21
-1763.09539535367
 31
0.0
  0
LINE
  5
2FD
  8
回02-寸法
  6
CONTINUOUS
 62
     5
 10
1178.224446936322
 20
-1769.177395353668
 30
0.0
 11
1214.224446936323
 21
-1769.177395353668
 31
0.0
  0
LINE
  5
2FE
  8
回02-寸法
  6
CONTINUOUS
 62
     5
 10
1213.224446936324
 20
-1760.09539535367
 30
0.0
 11
1213.224446936324
 21
-1757.09539535367
 31
0.0
  0
LINE
  5
2FF
  8
回02-寸法
  6
CONTINUOUS
 62
     5
 10
1213.224446936324
 20
-1772.177395353669
 30
0.0
 11
1213.224446936324
 21
-1789.136450471779
 31
0.0
  0
LINE
  5
300
  8
回02-寸法
  6
CONTINUOUS
 62
     5
 10
1213.224446936324
 20
-1763.09539535367
 30
0.0
 11
1213.224446936324
 21
-1769.177395353668
 31
0.0
  0
INSERT
  5
301
  8
回02-寸法
  6
CONTINUOUS
 62
     5
 66
     1
  2
_OPEN
 10
1213.224446936324
 20
-1763.09539535367
 30
0.0
 41
3.0
 42
3.0
 43
3.0
 50
270.0
  0
SEQEND
  5
302
  8
0
  6
CONTINUOUS
 62
     5
  0
INSERT
  5
303
  8
回02-寸法
  6
CONTINUOUS
 62
     5
 66
     1
  2
_OPEN
 10
1213.224446936324
 20
-1769.177395353668
 30
0.0
 41
3.0
 42
3.0
 43
3.0
 50
90.0
  0
SEQEND
  5
304
  8
0
  6
CONTINUOUS
 62
     5
  0
TEXT
  5
305
  8
回02-寸法
  6
CONTINUOUS
 62
     5
 10
1212.724446936323
 20
-1789.356922912723
 30
0.0
 40
6.0
  1
6.08
 50
90.0
1001
ACAD
1000
MTEXTBEGIN
1070
    73
1070
     1
1070
    44
1040
1.0
1070
    74
1070
     0
1000
MTEXTEND
  0
POINT
  5
306
  8
DEFPOINTS
  6
CONTINUOUS
 62
     0
 10
1173.716446936322
 20
-1763.09539535367
 30
0.0
  0
POINT
  5
307
  8
DEFPOINTS
  6
CONTINUOUS
 62
     0
 10
1178.224446936322
 20
-1769.177395353668
 30
0.0
  0
POINT
  5
308
  8
DEFPOINTS
  6
CONTINUOUS
 62
     0
 10
1213.224446936324
 20
-1769.177395353668
 30
0.0
  0
ENDBLK
  5
309
  8
0
 62
     7
  0
BLOCK
  8
0
  2
*D1919
 70
     1
 10
0.0
 20
0.0
 30
0.0
  3
*D1919
  1

  0
LINE
  5
2ED
  8
回02-寸法
  6
CONTINUOUS
 62
     5
 10
1174.216446936321
 20
-1564.259395353669
 30
0.0
 11
1174.216446936321
 21
-1512.977383912444
 31
0.0
  0
LINE
  5
2EE
  8
回02-寸法
  6
CONTINUOUS
 62
     5
 10
824.4844469363215
 20
-1564.259395353669
 30
0.0
 11
824.4844469363215
 21
-1512.977383912444
 31
0.0
  0
LINE
  5
2EF
  8
回02-寸法
  6
CONTINUOUS
 62
     5
 10
1171.216446936321
 20
-1513.977383912443
 30
0.0
 11
827.4844469363214
 21
-1513.977383912443
 31
0.0
  0
INSERT
  5
2F0
  8
回02-寸法
  6
CONTINUOUS
 62
     5
 66
     1
  2
_OPEN
 10
1174.216446936321
 20
-1513.977383912443
 30
0.0
 41
3.0
 42
3.0
 43
3.0
  0
SEQEND
  5
2F1
  8
0
  6
CONTINUOUS
 62
     5
  0
INSERT
  5
2F2
  8
回02-寸法
  6
CONTINUOUS
 62
     5
 66
     1
  2
_OPEN
 10
824.4844469363215
 20
-1513.977383912443
 30
0.0
 41
3.0
 42
3.0
 43
3.0
 50
180.0
  0
SEQEND
  5
2F3
  8
0
  6
CONTINUOUS
 62
     5
  0
TEXT
  5
2F4
  8
回02-寸法
  6
CONTINUOUS
 62
     5
 10
987.6396158307407
 20
-1513.477383912444
 30
0.0
 40
6.0
  1
349.73
1001
ACAD
1000
MTEXTBEGIN
1070
    73
1070
     1
1070
    44
1040
1.0
1070
    74
1070
     0
1000
MTEXTEND
  0
POINT
  5
2F5
  8
DEFPOINTS
  6
CONTINUOUS
 62
     0
 10
1174.216446936321
 20
-1564.259395353669
 30
0.0
  0
POINT
  5
2F6
  8
DEFPOINTS
  6
CONTINUOUS
 62
     0
 10
824.4844469363215
 20
-1564.259395353669
 30
0.0
  0
POINT
  5
2F7
  8
DEFPOINTS
  6
CONTINUOUS
 62
     0
 10
824.4844469363215
 20
-1513.977383912443
 30
0.0
  0
ENDBLK
  5
2F8
  8
0
 62
     7
  0
BLOCK
  8
0
  2
*D2020
 70
     1
 10
0.0
 20
0.0
 30
0.0
  3
*D2020
  1

  0
LINE
  5
2DE
  8
回02-寸法
  6
CONTINUOUS
 62
     5
 10
1174.216446936322
 20
-1564.259395353671
 30
0.0
 11
1224.224446936322
 21
-1564.259395353671
 31
0.0
  0
LINE
  5
2DF
  8
回02-寸法
  6
CONTINUOUS
 62
     5
 10
1174.216446936322
 20
-1763.89539535367
 30
0.0
 11
1224.224446936322
 21
-1763.89539535367
 31
0.0
  0
LINE
  5
2E0
  8
回02-寸法
  6
CONTINUOUS
 62
     5
 10
1223.224446936322
 20
-1567.259395353671
 30
0.0
 11
1223.224446936322
 21
-1760.895395353671
 31
0.0
  0
INSERT
  5
2E1
  8
回02-寸法
  6
CONTINUOUS
 62
     5
 66
     1
  2
_OPEN
 10
1223.224446936322
 20
-1564.259395353671
 30
0.0
 41
3.0
 42
3.0
 43
3.0
 50
90.0
  0
SEQEND
  5
2E2
  8
0
  6
CONTINUOUS
 62
     5
  0
INSERT
  5
2E3
  8
回02-寸法
  6
CONTINUOUS
 62
     5
 66
     1
  2
_OPEN
 10
1223.224446936322
 20
-1763.89539535367
 30
0.0
 41
3.0
 42
3.0
 43
3.0
 50
270.0
  0
SEQEND
  5
2E4
  8
0
  6
CONTINUOUS
 62
     5
  0
TEXT
  5
2E5
  8
回02-寸法
  6
CONTINUOUS
 62
     5
 10
1222.724446936321
 20
-1675.199057564831
 30
0.0
 40
6.0
  1
199.64
 50
90.0
1001
ACAD
1000
MTEXTBEGIN
1070
    73
1070
     1
1070
    44
1040
1.0
1070
    74
1070
     0
1000
MTEXTEND
  0
POINT
  5
2E6
  8
DEFPOINTS
  6
CONTINUOUS
 62
     0
 10
1174.216446936322
 20
-1564.259395353671
 30
0.0
  0
POINT
  5
2E7
  8
DEFPOINTS
  6
CONTINUOUS
 62
     0
 10
1174.216446936322
 20
-1763.89539535367
 30
0.0
  0
POINT
  5
2E8
  8
DEFPOINTS
  6
CONTINUOUS
 62
     0
 10
1223.224446936322
 20
-1763.89539535367
 30
0.0
  0
ENDBLK
  5
2E9
  8
0
 62
     7
  0
BLOCK
  8
0
  2
*D2121
 70
     1
 10
0.0
 20
0.0
 30
0.0
  3
*D2121
  1

  0
LINE
  5
2CD
  8
回02-寸法
  6
CONTINUOUS
 62
     5
 10
1174.216446936322
 20
-1564.25939535367
 30
0.0
 11
1224.224446936324
 21
-1564.25939535367
 31
0.0
  0
LINE
  5
2CE
  8
回02-寸法
  6
CONTINUOUS
 62
     5
 10
1178.224446936322
 20
-1558.977383912443
 30
0.0
 11
1224.224446936324
 21
-1558.977383912443
 31
0.0
  0
LINE
  5
2CF
  8
回02-寸法
  6
CONTINUOUS
 62
     5
 10
1223.224446936324
 20
-1567.25939535367
 30
0.0
 11
1223.224446936324
 21
-1570.25939535367
 31
0.0
  0
LINE
  5
2D0
  8
回02-寸法
  6
CONTINUOUS
 62
     5
 10
1223.224446936324
 20
-1555.977383912444
 30
0.0
 11
1223.224446936324
 21
-1534.582108321892
 31
0.0
  0
LINE
  5
2D1
  8
回02-寸法
  6
CONTINUOUS
 62
     5
 10
1223.224446936324
 20
-1564.25939535367
 30
0.0
 11
1223.224446936324
 21
-1558.977383912443
 31
0.0
  0
INSERT
  5
2D2
  8
回02-寸法
  6
CONTINUOUS
 62
     5
 66
     1
  2
_OPEN
 10
1223.224446936324
 20
-1564.25939535367
 30
0.0
 41
3.0
 42
3.0
 43
3.0
 50
90.0
  0
SEQEND
  5
2D3
  8
0
  6
CONTINUOUS
 62
     5
  0
INSERT
  5
2D4
  8
回02-寸法
  6
CONTINUOUS
 62
     5
 66
     1
  2
_OPEN
 10
1223.224446936324
 20
-1558.977383912443
 30
0.0
 41
3.0
 42
3.0
 43
3.0
 50
270.0
  0
SEQEND
  5
2D5
  8
0
  6
CONTINUOUS
 62
     5
  0
TEXT
  5
2D6
  8
回02-寸法
  6
CONTINUOUS
 62
     5
 10
1222.424446936324
 20
-1553.379746117167
 30
0.0
 40
6.0
  1
(5.28)
 50
90.0
1001
ACAD
1000
MTEXTBEGIN
1070
    73
1070
     1
1070
    44
1040
1.0
1070
    74
1070
     0
1000
MTEXTEND
  0
POINT
  5
2D7
  8
DEFPOINTS
  6
CONTINUOUS
 62
     0
 10
1174.216446936322
 20
-1564.25939535367
 30
0.0
  0
POINT
  5
2D8
  8
DEFPOINTS
  6
CONTINUOUS
 62
     0
 10
1178.224446936322
 20
-1558.977383912443
 30
0.0
  0
POINT
  5
2D9
  8
DEFPOINTS
  6
CONTINUOUS
 62
     0
 10
1223.224446936324
 20
-1558.977383912443
 30
0.0
  0
ENDBLK
  5
2DA
  8
0
 62
     7
  0
BLOCK
  8
0
  2
*D2222
 70
     1
 10
0.0
 20
0.0
 30
0.0
  3
*D2222
  1

  0
LINE
  5
2BC
  8
回02-寸法
  6
CONTINUOUS
 62
     5
 10
1173.716446936322
 20
-1565.05939535367
 30
0.0
 11
1214.224446936323
 21
-1565.05939535367
 31
0.0
  0
LINE
  5
2BD
  8
回02-寸法
  6
CONTINUOUS
 62
     5
 10
1178.224446936322
 20
-1558.977383912443
 30
0.0
 11
1214.224446936323
 21
-1558.977383912443
 31
0.0
  0
LINE
  5
2BE
  8
回02-寸法
  6
CONTINUOUS
 62
     5
 10
1213.224446936324
 20
-1568.05939535367
 30
0.0
 11
1213.224446936324
 21
-1571.05939535367
 31
0.0
  0
LINE
  5
2BF
  8
回02-寸法
  6
CONTINUOUS
 62
     5
 10
1213.224446936324
 20
-1555.977383912444
 30
0.0
 11
1213.224446936324
 21
-1534.582108321892
 31
0.0
  0
LINE
  5
2C0
  8
回02-寸法
  6
CONTINUOUS
 62
     5
 10
1213.224446936324
 20
-1565.05939535367
 30
0.0
 11
1213.224446936324
 21
-1558.977383912443
 31
0.0
  0
INSERT
  5
2C1
  8
回02-寸法
  6
CONTINUOUS
 62
     5
 66
     1
  2
_OPEN
 10
1213.224446936324
 20
-1565.05939535367
 30
0.0
 41
3.0
 42
3.0
 43
3.0
 50
90.0
  0
SEQEND
  5
2C2
  8
0
  6
CONTINUOUS
 62
     5
  0
INSERT
  5
2C3
  8
回02-寸法
  6
CONTINUOUS
 62
     5
 66
     1
  2
_OPEN
 10
1213.224446936324
 20
-1558.977383912443
 30
0.0
 41
3.0
 42
3.0
 43
3.0
 50
270.0
  0
SEQEND
  5
2C4
  8
0
  6
CONTINUOUS
 62
     5
  0
TEXT
  5
2C5
  8
回02-寸法
  6
CONTINUOUS
 62
     5
 10
1212.424446936323
 20
-1553.379746117167
 30
0.0
 40
6.0
  1
(6.08)
 50
90.0
1001
ACAD
1000
MTEXTBEGIN
1070
    73
1070
     1
1070
    44
1040
1.0
1070
    74
1070
     0
1000
MTEXTEND
  0
POINT
  5
2C6
  8
DEFPOINTS
  6
CONTINUOUS
 62
     0
 10
1173.716446936322
 20
-1565.05939535367
 30
0.0
  0
POINT
  5
2C7
  8
DEFPOINTS
  6
CONTINUOUS
 62
     0
 10
1178.224446936322
 20
-1558.977383912443
 30
0.0
  0
POINT
  5
2C8
  8
DEFPOINTS
  6
CONTINUOUS
 62
     0
 10
1213.224446936324
 20
-1558.977383912443
 30
0.0
  0
ENDBLK
  5
2C9
  8
0
 62
     7
  0
BLOCK
  8
0
  2
*D2323
 70
     1
 10
0.0
 20
0.0
 30
0.0
  3
*D2323
  1

  0
LINE
  5
2AB
  8
回02-寸法
  6
CONTINUOUS
 62
     5
 10
1171.716446936322
 20
-1567.05939535367
 30
0.0
 11
1204.224446936321
 21
-1567.05939535367
 31
0.0
  0
LINE
  5
2AC
  8
回02-寸法
  6
CONTINUOUS
 62
     5
 10
1178.224446936322
 20
-1558.977383912443
 30
0.0
 11
1204.224446936321
 21
-1558.977383912443
 31
0.0
  0
LINE
  5
2AD
  8
回02-寸法
  6
CONTINUOUS
 62
     5
 10
1203.224446936321
 20
-1570.05939535367
 30
0.0
 11
1203.224446936321
 21
-1573.05939535367
 31
0.0
  0
LINE
  5
2AE
  8
回02-寸法
  6
CONTINUOUS
 62
     5
 10
1203.224446936321
 20
-1555.977383912444
 30
0.0
 11
1203.224446936321
 21
-1534.582108321892
 31
0.0
  0
LINE
  5
2AF
  8
回02-寸法
  6
CONTINUOUS
 62
     5
 10
1203.224446936321
 20
-1567.05939535367
 30
0.0
 11
1203.224446936321
 21
-1558.977383912443
 31
0.0
  0
INSERT
  5
2B0
  8
回02-寸法
  6
CONTINUOUS
 62
     5
 66
     1
  2
_OPEN
 10
1203.224446936321
 20
-1567.05939535367
 30
0.0
 41
3.0
 42
3.0
 43
3.0
 50
90.0
  0
SEQEND
  5
2B1
  8
0
  6
CONTINUOUS
 62
     5
  0
INSERT
  5
2B2
  8
回02-寸法
  6
CONTINUOUS
 62
     5
 66
     1
  2
_OPEN
 10
1203.224446936321
 20
-1558.977383912443
 30
0.0
 41
3.0
 42
3.0
 43
3.0
 50
270.0
  0
SEQEND
  5
2B3
  8
0
  6
CONTINUOUS
 62
     5
  0
TEXT
  5
2B4
  8
回02-寸法
  6
CONTINUOUS
 62
     5
 10
1202.424446936321
 20
-1553.379746117168
 30
0.0
 40
6.0
  1
(8.08)
 50
90.0
1001
ACAD
1000
MTEXTBEGIN
1070
    73
1070
     1
1070
    44
1040
1.0
1070
    74
1070
     0
1000
MTEXTEND
  0
POINT
  5
2B5
  8
DEFPOINTS
  6
CONTINUOUS
 62
     0
 10
1171.716446936322
 20
-1567.05939535367
 30
0.0
  0
POINT
  5
2B6
  8
DEFPOINTS
  6
CONTINUOUS
 62
     0
 10
1178.224446936322
 20
-1558.977383912443
 30
0.0
  0
POINT
  5
2B7
  8
DEFPOINTS
  6
CONTINUOUS
 62
     0
 10
1203.224446936321
 20
-1558.977383912443
 30
0.0
  0
ENDBLK
  5
2B8
  8
0
 62
     7
  0
BLOCK
  8
0
  2
*D2424
 70
     1
 10
0.0
 20
0.0
 30
0.0
  3
*D2424
  1

  0
LINE
  5
29A
  8
回02-寸法
  6
CONTINUOUS
 62
     5
 10
1174.216446936322
 20
-1763.89539535367
 30
0.0
 11
1224.224446936324
 21
-1763.89539535367
 31
0.0
  0
LINE
  5
29B
  8
回02-寸法
  6
CONTINUOUS
 62
     5
 10
1178.224446936322
 20
-1769.177395353668
 30
0.0
 11
1224.224446936324
 21
-1769.177395353668
 31
0.0
  0
LINE
  5
29C
  8
回02-寸法
  6
CONTINUOUS
 62
     5
 10
1223.224446936324
 20
-1760.895395353671
 30
0.0
 11
1223.224446936324
 21
-1757.895395353671
 31
0.0
  0
LINE
  5
29D
  8
回02-寸法
  6
CONTINUOUS
 62
     5
 10
1223.224446936324
 20
-1772.177395353669
 30
0.0
 11
1223.224446936324
 21
-1849.390033148944
 31
0.0
  0
LINE
  5
29E
  8
回02-寸法
  6
CONTINUOUS
 62
     5
 10
1223.224446936324
 20
-1763.89539535367
 30
0.0
 11
1223.224446936324
 21
-1769.177395353668
 31
0.0
  0
INSERT
  5
29F
  8
回02-寸法
  6
CONTINUOUS
 62
     5
 66
     1
  2
_OPEN
 10
1223.224446936324
 20
-1763.89539535367
 30
0.0
 41
3.0
 42
3.0
 43
3.0
 50
270.0
  0
SEQEND
  5
2A0
  8
0
  6
CONTINUOUS
 62
     5
  0
INSERT
  5
2A1
  8
回02-寸法
  6
CONTINUOUS
 62
     5
 66
     1
  2
_OPEN
 10
1223.224446936324
 20
-1769.177395353668
 30
0.0
 41
3.0
 42
3.0
 43
3.0
 50
90.0
  0
SEQEND
  5
2A2
  8
0
  6
CONTINUOUS
 62
     5
  0
TEXT
  5
2A3
  8
回02-寸法
  6
CONTINUOUS
 62
     5
 10
1222.416946936324
 20
-1849.790033148944
 30
0.0
 40
6.0
  1
5.28(Insulation Area)
 50
90.0
1001
ACAD
1000
MTEXTBEGIN
1070
    73
1070
     1
1070
    44
1040
1.0
1070
    74
1070
     0
1000
MTEXTEND
  0
POINT
  5
2A4
  8
DEFPOINTS
  6
CONTINUOUS
 62
     0
 10
1174.216446936322
 20
-1763.89539535367
 30
0.0
  0
POINT
  5
2A5
  8
DEFPOINTS
  6
CONTINUOUS
 62
     0
 10
1178.224446936322
 20
-1769.177395353668
 30
0.0
  0
POINT
  5
2A6
  8
DEFPOINTS
  6
CONTINUOUS
 62
     0
 10
1223.224446936324
 20
-1769.177395353668
 30
0.0
  0
ENDBLK
  5
2A7
  8
0
 62
     7
  0
BLOCK
  8
0
  2
*D2525
 70
     1
 10
0.0
 20
0.0
 30
0.0
  3
*D2525
  1

  0
LINE
  5
289
  8
回02-寸法
  6
CONTINUOUS
 62
     5
 10
1171.716446936321
 20
-1567.059395353669
 30
0.0
 11
1171.716446936321
 21
-1532.977383912444
 31
0.0
  0
LINE
  5
28A
  8
回02-寸法
  6
CONTINUOUS
 62
     5
 10
1178.224446936321
 20
-1558.977383912442
 30
0.0
 11
1178.224446936321
 21
-1532.977383912444
 31
0.0
  0
LINE
  5
28B
  8
回02-寸法
  6
CONTINUOUS
 62
     5
 10
1168.716446936321
 20
-1533.977383912444
 30
0.0
 11
1165.716446936321
 21
-1533.977383912444
 31
0.0
  0
LINE
  5
28C
  8
回02-寸法
  6
CONTINUOUS
 62
     5
 10
1181.224446936322
 20
-1533.977383912444
 30
0.0
 11
1201.419722526873
 21
-1533.977383912444
 31
0.0
  0
LINE
  5
28D
  8
回02-寸法
  6
CONTINUOUS
 62
     5
 10
1171.716446936321
 20
-1533.977383912444
 30
0.0
 11
1178.224446936321
 21
-1533.977383912444
 31
0.0
  0
INSERT
  5
28E
  8
回02-寸法
  6
CONTINUOUS
 62
     5
 66
     1
  2
_OPEN
 10
1171.716446936321
 20
-1533.977383912444
 30
0.0
 41
3.0
 42
3.0
 43
3.0
  0
SEQEND
  5
28F
  8
0
  6
CONTINUOUS
 62
     5
  0
INSERT
  5
290
  8
回02-寸法
  6
CONTINUOUS
 62
     5
 66
     1
  2
_OPEN
 10
1178.224446936321
 20
-1533.977383912444
 30
0.0
 41
3.0
 42
3.0
 43
3.0
 50
180.0
  0
SEQEND
  5
291
  8
0
  6
CONTINUOUS
 62
     5
  0
TEXT
  5
292
  8
回02-寸法
  6
CONTINUOUS
 62
     5
 10
1183.822084731597
 20
-1533.177383912444
 30
0.0
 40
6.0
  1
(6.51)
1001
ACAD
1000
MTEXTBEGIN
1070
    73
1070
     1
1070
    44
1040
1.0
1070
    74
1070
     0
1000
MTEXTEND
  0
POINT
  5
293
  8
DEFPOINTS
  6
CONTINUOUS
 62
     0
 10
1171.716446936321
 20
-1567.059395353669
 30
0.0
  0
POINT
  5
294
  8
DEFPOINTS
  6
CONTINUOUS
 62
     0
 10
1178.224446936321
 20
-1558.977383912442
 30
0.0
  0
POINT
  5
295
  8
DEFPOINTS
  6
CONTINUOUS
 62
     0
 10
1178.224446936321
 20
-1533.977383912444
 30
0.0
  0
ENDBLK
  5
296
  8
0
 62
     7
  0
BLOCK
  8
0
  2
*D2626
 70
     1
 10
0.0
 20
0.0
 30
0.0
  3
*D2626
  1

  0
LINE
  5
278
  8
回02-寸法
  6
CONTINUOUS
 62
     5
 10
1173.716446936321
 20
-1565.059395353669
 30
0.0
 11
1173.716446936321
 21
-1522.977383912444
 31
0.0
  0
LINE
  5
279
  8
回02-寸法
  6
CONTINUOUS
 62
     5
 10
1178.224446936321
 20
-1558.977383912442
 30
0.0
 11
1178.224446936321
 21
-1522.977383912444
 31
0.0
  0
LINE
  5
27A
  8
回02-寸法
  6
CONTINUOUS
 62
     5
 10
1170.716446936321
 20
-1523.977383912443
 30
0.0
 11
1167.716446936321
 21
-1523.977383912443
 31
0.0
  0
LINE
  5
27B
  8
回02-寸法
  6
CONTINUOUS
 62
     5
 10
1181.224446936322
 20
-1523.977383912443
 30
0.0
 11
1202.019722526873
 21
-1523.977383912443
 31
0.0
  0
LINE
  5
27C
  8
回02-寸法
  6
CONTINUOUS
 62
     5
 10
1173.716446936321
 20
-1523.977383912443
 30
0.0
 11
1178.224446936321
 21
-1523.977383912443
 31
0.0
  0
INSERT
  5
27D
  8
回02-寸法
  6
CONTINUOUS
 62
     5
 66
     1
  2
_OPEN
 10
1173.716446936321
 20
-1523.977383912443
 30
0.0
 41
3.0
 42
3.0
 43
3.0
  0
SEQEND
  5
27E
  8
0
  6
CONTINUOUS
 62
     5
  0
INSERT
  5
27F
  8
回02-寸法
  6
CONTINUOUS
 62
     5
 66
     1
  2
_OPEN
 10
1178.224446936321
 20
-1523.977383912443
 30
0.0
 41
3.0
 42
3.0
 43
3.0
 50
180.0
  0
SEQEND
  5
280
  8
0
  6
CONTINUOUS
 62
     5
  0
TEXT
  5
281
  8
回02-寸法
  6
CONTINUOUS
 62
     5
 10
1183.822084731597
 20
-1523.177383912444
 30
0.0
 40
6.0
  1
(4.51)
1001
ACAD
1000
MTEXTBEGIN
1070
    73
1070
     1
1070
    44
1040
1.0
1070
    74
1070
     0
1000
MTEXTEND
  0
POINT
  5
282
  8
DEFPOINTS
  6
CONTINUOUS
 62
     0
 10
1173.716446936321
 20
-1565.059395353669
 30
0.0
  0
POINT
  5
283
  8
DEFPOINTS
  6
CONTINUOUS
 62
     0
 10
1178.224446936321
 20
-1558.977383912442
 30
0.0
  0
POINT
  5
284
  8
DEFPOINTS
  6
CONTINUOUS
 62
     0
 10
1178.224446936321
 20
-1523.977383912443
 30
0.0
  0
ENDBLK
  5
285
  8
0
 62
     7
  0
BLOCK
  8
0
  2
*D2727
 70
     1
 10
0.0
 20
0.0
 30
0.0
  3
*D2727
  1

  0
LINE
  5
267
  8
回02-寸法
  6
CONTINUOUS
 62
     5
 10
1174.216446936321
 20
-1564.259395353669
 30
0.0
 11
1174.216446936321
 21
-1512.977383912444
 31
0.0
  0
LINE
  5
268
  8
回02-寸法
  6
CONTINUOUS
 62
     5
 10
1178.224446936321
 20
-1558.977383912442
 30
0.0
 11
1178.224446936321
 21
-1512.977383912444
 31
0.0
  0
LINE
  5
269
  8
回02-寸法
  6
CONTINUOUS
 62
     5
 10
1171.216446936321
 20
-1513.977383912443
 30
0.0
 11
1168.216446936321
 21
-1513.977383912443
 31
0.0
  0
LINE
  5
26A
  8
回02-寸法
  6
CONTINUOUS
 62
     5
 10
1181.224446936322
 20
-1513.977383912443
 30
0.0
 11
1202.019722526873
 21
-1513.977383912443
 31
0.0
  0
LINE
  5
26B
  8
回02-寸法
  6
CONTINUOUS
 62
     5
 10
1174.216446936321
 20
-1513.977383912443
 30
0.0
 11
1178.224446936321
 21
-1513.977383912443
 31
0.0
  0
INSERT
  5
26C
  8
回02-寸法
  6
CONTINUOUS
 62
     5
 66
     1
  2
_OPEN
 10
1174.216446936321
 20
-1513.977383912443
 30
0.0
 41
3.0
 42
3.0
 43
3.0
  0
SEQEND
  5
26D
  8
0
  6
CONTINUOUS
 62
     5
  0
INSERT
  5
26E
  8
回02-寸法
  6
CONTINUOUS
 62
     5
 66
     1
  2
_OPEN
 10
1178.224446936321
 20
-1513.977383912443
 30
0.0
 41
3.0
 42
3.0
 43
3.0
 50
180.0
  0
SEQEND
  5
26F
  8
0
  6
CONTINUOUS
 62
     5
  0
TEXT
  5
270
  8
回02-寸法
  6
CONTINUOUS
 62
     5
 10
1183.822084731597
 20
-1513.177383912444
 30
0.0
 40
6.0
  1
(4.01)
1001
ACAD
1000
MTEXTBEGIN
1070
    73
1070
     1
1070
    44
1040
1.0
1070
    74
1070
     0
1000
MTEXTEND
  0
POINT
  5
271
  8
DEFPOINTS
  6
CONTINUOUS
 62
     0
 10
1174.216446936321
 20
-1564.259395353669
 30
0.0
  0
POINT
  5
272
  8
DEFPOINTS
  6
CONTINUOUS
 62
     0
 10
1178.224446936321
 20
-1558.977383912442
 30
0.0
  0
POINT
  5
273
  8
DEFPOINTS
  6
CONTINUOUS
 62
     0
 10
1178.224446936321
 20
-1513.977383912443
 30
0.0
  0
ENDBLK
  5
274
  8
0
 62
     7
  0
BLOCK
  8
0
  2
*D2828
 70
     1
 10
0.0
 20
0.0
 30
0.0
  3
*D2828
  1

  0
LINE
  5
256
  8
回02-寸法
  6
CONTINUOUS
 62
     5
 10
737.2244034258121
 20
-1667.191530539808
 30
0.0
 11
725.2813583773805
 21
-1667.191530539808
 31
0.0
  0
LINE
  5
257
  8
回02-寸法
  6
CONTINUOUS
 62
     5
 10
816.7244469363211
 20
-1769.17739535367
 30
0.0
 11
725.2813583773805
 21
-1769.17739535367
 31
0.0
  0
LINE
  5
258
  8
回02-寸法
  6
CONTINUOUS
 62
     5
 10
726.2813583773805
 20
-1670.191530539808
 30
0.0
 11
726.2813583773805
 21
-1766.17739535367
 31
0.0
  0
INSERT
  5
259
  8
回02-寸法
  6
CONTINUOUS
 62
     5
 66
     1
  2
_OPEN
 10
726.2813583773805
 20
-1667.191530539808
 30
0.0
 41
3.0
 42
3.0
 43
3.0
 50
90.0
  0
SEQEND
  5
25A
  8
0
  6
CONTINUOUS
 62
     5
  0
INSERT
  5
25B
  8
回02-寸法
  6
CONTINUOUS
 62
     5
 66
     1
  2
_OPEN
 10
726.2813583773805
 20
-1769.17739535367
 30
0.0
 41
3.0
 42
3.0
 43
3.0
 50
270.0
  0
SEQEND
  5
25C
  8
0
  6
CONTINUOUS
 62
     5
  0
TEXT
  5
25D
  8
回02-寸法
  6
CONTINUOUS
 62
     5
 10
725.4815980017893
 20
-1730.806125157901
 30
0.0
 40
6.0
  1
(101.99)
 50
90.0
1001
ACAD
1000
MTEXTBEGIN
1070
    73
1070
     1
1070
    44
1040
1.0
1070
    74
1070
     0
1000
MTEXTEND
  0
POINT
  5
25E
  8
DEFPOINTS
  6
CONTINUOUS
 62
     0
 10
737.2244034258121
 20
-1667.191530539808
 30
0.0
  0
POINT
  5
25F
  8
DEFPOINTS
  6
CONTINUOUS
 62
     0
 10
816.7244469363211
 20
-1769.17739535367
 30
0.0
  0
POINT
  5
260
  8
DEFPOINTS
  6
CONTINUOUS
 62
     0
 10
726.2813583773805
 20
-1769.17739535367
 30
0.0
  0
ENDBLK
  5
261
  8
0
 62
     7
  0
BLOCK
  8
0
  2
*D2929
 70
     1
 10
0.0
 20
0.0
 30
0.0
  3
*D2929
  1

  0
LINE
  5
18D
  8
回02-寸法
  6
CONTINUOUS
 62
     5
 10
1177.724446936321
 20
-1813.880346433664
 30
0.0
 11
1187.604172971315
 21
-1813.880346433664
 31
0.0
  0
LINE
  5
18E
  8
回02-寸法
  6
CONTINUOUS
 62
     5
 10
1178.224446936322
 20
-1826.880346433665
 30
0.0
 11
1187.604172971315
 21
-1826.880346433665
 31
0.0
  0
LINE
  5
18F
  8
回02-寸法
  6
CONTINUOUS
 62
     5
 10
1186.604172971315
 20
-1810.880346433664
 30
0.0
 11
1186.604172971315
 21
-1807.880346433664
 31
0.0
  0
LINE
  5
190
  8
回02-寸法
  6
CONTINUOUS
 62
     5
 10
1186.604172971315
 20
-1829.880346433666
 30
0.0
 11
1186.604172971315
 21
-1850.795430095083
 31
0.0
  0
LINE
  5
191
  8
回02-寸法
  6
CONTINUOUS
 62
     5
 10
1186.604172971315
 20
-1813.880346433664
 30
0.0
 11
1186.604172971315
 21
-1826.880346433665
 31
0.0
  0
INSERT
  5
192
  8
回02-寸法
  6
CONTINUOUS
 62
     5
 66
     1
  2
_OPEN
 10
1186.604172971315
 20
-1813.880346433664
 30
0.0
 41
3.0
 42
3.0
 43
3.0
 50
270.0
  0
SEQEND
  5
193
  8
0
  6
CONTINUOUS
 62
     5
  0
INSERT
  5
194
  8
回02-寸法
  6
CONTINUOUS
 62
     5
 66
     1
  2
_OPEN
 10
1186.604172971315
 20
-1826.880346433665
 30
0.0
 41
3.0
 42
3.0
 43
3.0
 50
90.0
  0
SEQEND
  5
195
  8
0
  6
CONTINUOUS
 62
     5
  0
INSERT
  5
196
  8
回02-寸法
  6
CONTINUOUS
 62
     5
 66
     1
  2
*X9393
 10
0.0
 20
0.0
 30
0.0
  0
SEQEND
  5
750
  8
0
  6
CONTINUOUS
 62
     5
  0
POINT
  5
197
  8
DEFPOINTS
  6
CONTINUOUS
 62
     0
 10
1177.724446936321
 20
-1813.880346433664
 30
0.0
  0
POINT
  5
198
  8
DEFPOINTS
  6
CONTINUOUS
 62
     0
 10
1178.224446936322
 20
-1826.880346433665
 30
0.0
  0
POINT
  5
199
  8
DEFPOINTS
  6
CONTINUOUS
 62
     0
 10
1186.604172971315
 20
-1826.880346433665
 30
0.0
  0
ENDBLK
  5
19A
  8
0
 62
     7
  0
BLOCK
  8
0
  2
*D3030
 70
     1
 10
0.0
 20
0.0
 30
0.0
  3
*D3030
  1

  0
LINE
  5
173
  8
回02-寸法
  6
CONTINUOUS
 62
     5
 10
1177.724446936321
 20
-1813.880346433663
 30
0.0
 11
1177.724446936321
 21
-1804.701975352036
 31
0.0
  0
LINE
  5
174
  8
回02-寸法
  6
CONTINUOUS
 62
     5
 10
1178.224446936321
 20
-1820.880346433663
 30
0.0
 11
1178.224446936321
 21
-1804.701975352036
 31
0.0
  0
LINE
  5
175
  8
回02-寸法
  6
CONTINUOUS
 62
     5
 10
1174.724446936321
 20
-1805.701975352036
 30
0.0
 11
1171.724446936321
 21
-1805.701975352036
 31
0.0
  0
LINE
  5
176
  8
回02-寸法
  6
CONTINUOUS
 62
     5
 10
1181.224446936322
 20
-1805.701975352036
 30
0.0
 11
1198.419722526872
 21
-1805.701975352036
 31
0.0
  0
LINE
  5
177
  8
回02-寸法
  6
CONTINUOUS
 62
     5
 10
1177.724446936321
 20
-1805.701975352036
 30
0.0
 11
1178.224446936321
 21
-1805.701975352036
 31
0.0
  0
INSERT
  5
178
  8
回02-寸法
  6
CONTINUOUS
 62
     5
 66
     1
  2
_OPEN
 10
1177.724446936321
 20
-1805.701975352036
 30
0.0
 41
3.0
 42
3.0
 43
3.0
  0
SEQEND
  5
179
  8
0
  6
CONTINUOUS
 62
     5
  0
INSERT
  5
17A
  8
回02-寸法
  6
CONTINUOUS
 62
     5
 66
     1
  2
_OPEN
 10
1178.224446936321
 20
-1805.701975352036
 30
0.0
 41
3.0
 42
3.0
 43
3.0
 50
180.0
  0
SEQEND
  5
17B
  8
0
  6
CONTINUOUS
 62
     5
  0
TEXT
  5
17C
  8
回02-寸法
  6
CONTINUOUS
 62
     5
 10
1183.822084731597
 20
-1804.901975352036
 30
0.0
 40
6.0
  1
(0.5)
1001
ACAD
1000
MTEXTBEGIN
1070
    73
1070
     1
1070
    44
1040
1.0
1070
    74
1070
     0
1000
MTEXTEND
  0
POINT
  5
17D
  8
DEFPOINTS
  6
CONTINUOUS
 62
     0
 10
1177.724446936321
 20
-1813.880346433663
 30
0.0
  0
POINT
  5
17E
  8
DEFPOINTS
  6
CONTINUOUS
 62
     0
 10
1178.224446936321
 20
-1820.880346433663
 30
0.0
  0
POINT
  5
17F
  8
DEFPOINTS
  6
CONTINUOUS
 62
     0
 10
1178.224446936321
 20
-1805.701975352036
 30
0.0
  0
ENDBLK
  5
180
  8
0
 62
     7
  0
BLOCK
  8
0
  2
*D3131
 70
     1
 10
0.0
 20
0.0
 30
0.0
  3
*D3131
  1

  0
LINE
  5
162
  8
回02-寸法
  6
CONTINUOUS
 62
     5
 10
816.7244469363208
 20
-1820.880346433663
 30
0.0
 11
816.7244469363208
 21
-1808.285245375504
 31
0.0
  0
LINE
  5
163
  8
回02-寸法
  6
CONTINUOUS
 62
     5
 10
817.2244469363207
 20
-1813.880346433663
 30
0.0
 11
817.2244469363207
 21
-1808.285245375504
 31
0.0
  0
LINE
  5
164
  8
回02-寸法
  6
CONTINUOUS
 62
     5
 10
813.7244469363206
 20
-1809.285245375504
 30
0.0
 11
810.7244469363207
 21
-1809.285245375504
 31
0.0
  0
LINE
  5
165
  8
回02-寸法
  6
CONTINUOUS
 62
     5
 10
820.2244469363208
 20
-1809.285245375504
 30
0.0
 11
837.4197225268721
 21
-1809.285245375504
 31
0.0
  0
LINE
  5
166
  8
回02-寸法
  6
CONTINUOUS
 62
     5
 10
816.7244469363208
 20
-1809.285245375504
 30
0.0
 11
817.2244469363207
 21
-1809.285245375504
 31
0.0
  0
INSERT
  5
167
  8
回02-寸法
  6
CONTINUOUS
 62
     5
 66
     1
  2
_OPEN
 10
816.7244469363208
 20
-1809.285245375504
 30
0.0
 41
3.0
 42
3.0
 43
3.0
  0
SEQEND
  5
168
  8
0
  6
CONTINUOUS
 62
     5
  0
INSERT
  5
169
  8
回02-寸法
  6
CONTINUOUS
 62
     5
 66
     1
  2
_OPEN
 10
817.2244469363207
 20
-1809.285245375504
 30
0.0
 41
3.0
 42
3.0
 43
3.0
 50
180.0
  0
SEQEND
  5
16A
  8
0
  6
CONTINUOUS
 62
     5
  0
TEXT
  5
16B
  8
回02-寸法
  6
CONTINUOUS
 62
     5
 10
822.8220847315961
 20
-1808.485245375504
 30
0.0
 40
6.0
  1
(0.5)
1001
ACAD
1000
MTEXTBEGIN
1070
    73
1070
     1
1070
    44
1040
1.0
1070
    74
1070
     0
1000
MTEXTEND
  0
POINT
  5
16C
  8
DEFPOINTS
  6
CONTINUOUS
 62
     0
 10
816.7244469363208
 20
-1820.880346433663
 30
0.0
  0
POINT
  5
16D
  8
DEFPOINTS
  6
CONTINUOUS
 62
     0
 10
817.2244469363207
 20
-1813.880346433663
 30
0.0
  0
POINT
  5
16E
  8
DEFPOINTS
  6
CONTINUOUS
 62
     0
 10
817.2244469363207
 20
-1809.285245375504
 30
0.0
  0
ENDBLK
  5
16F
  8
0
 62
     7
  0
BLOCK
  8
0
  2
*D3232
 70
     1
 10
0.0
 20
0.0
 30
0.0
  3
*D3232
  1

  0
LINE
  5
1FD
  8
回02-寸法
  6
CONTINUOUS
 62
     5
 10
736.7244034255535
 20
-1824.880346433662
 30
0.0
 11
736.7244034255535
 21
-1837.929904214586
 31
0.0
  0
LINE
  5
1FE
  8
回02-寸法
  6
CONTINUOUS
 62
     5
 10
746.7244469363207
 20
-1824.880346433663
 30
0.0
 11
746.7244469363207
 21
-1837.929904214586
 31
0.0
  0
LINE
  5
1FF
  8
回02-寸法
  6
CONTINUOUS
 62
     5
 10
733.7244034255535
 20
-1836.929904214586
 30
0.0
 11
730.7244034255535
 21
-1836.929904214586
 31
0.0
  0
LINE
  5
200
  8
回02-寸法
  6
CONTINUOUS
 62
     5
 10
749.7244469363208
 20
-1836.929904214586
 30
0.0
 11
763.9197225268721
 21
-1836.929904214586
 31
0.0
  0
LINE
  5
201
  8
回02-寸法
  6
CONTINUOUS
 62
     5
 10
736.7244034255535
 20
-1836.929904214586
 30
0.0
 11
746.7244469363207
 21
-1836.929904214586
 31
0.0
  0
INSERT
  5
202
  8
回02-寸法
  6
CONTINUOUS
 62
     5
 66
     1
  2
_OPEN
 10
736.7244034255535
 20
-1836.929904214586
 30
0.0
 41
3.0
 42
3.0
 43
3.0
  0
SEQEND
  5
203
  8
0
  6
CONTINUOUS
 62
     5
  0
INSERT
  5
204
  8
回02-寸法
  6
CONTINUOUS
 62
     5
 66
     1
  2
_OPEN
 10
746.7244469363207
 20
-1836.929904214586
 30
0.0
 41
3.0
 42
3.0
 43
3.0
 50
180.0
  0
SEQEND
  5
205
  8
0
  6
CONTINUOUS
 62
     5
  0
TEXT
  5
206
  8
回02-寸法
  6
CONTINUOUS
 62
     5
 10
752.3220847315964
 20
-1836.129904214586
 30
0.0
 40
6.0
  1
(10)
1001
ACAD
1000
MTEXTBEGIN
1070
    73
1070
     1
1070
    44
1040
1.0
1070
    74
1070
     0
1000
MTEXTEND
  0
POINT
  5
207
  8
DEFPOINTS
  6
CONTINUOUS
 62
     0
 10
736.7244034255535
 20
-1824.880346433662
 30
0.0
  0
POINT
  5
208
  8
DEFPOINTS
  6
CONTINUOUS
 62
     0
 10
746.7244469363207
 20
-1824.880346433663
 30
0.0
  0
POINT
  5
209
  8
DEFPOINTS
  6
CONTINUOUS
 62
     0
 10
746.7244469363207
 20
-1836.929904214586
 30
0.0
  0
ENDBLK
  5
20A
  8
0
 62
     7
  0
BLOCK
  8
0
  2
*D3333
 70
     1
 10
0.0
 20
0.0
 30
0.0
  3
*D3333
  1

  0
LINE
  5
1EB
  8
回02-寸法
  6
CONTINUOUS
 62
     5
 10
736.7244469363207
 20
-1817.880346433662
 30
0.0
 11
736.7244469363207
 21
-1809.59916254404
 31
0.0
  0
LINE
  5
1EC
  8
回02-寸法
  6
CONTINUOUS
 62
     5
 10
741.7244469363208
 20
-1817.880346433662
 30
0.0
 11
741.7244469363208
 21
-1809.59916254404
 31
0.0
  0
LINE
  5
1ED
  8
回02-寸法
  6
CONTINUOUS
 62
     5
 10
733.7244469363207
 20
-1810.599162544041
 30
0.0
 11
730.7244469363207
 21
-1810.599162544041
 31
0.0
  0
LINE
  5
1EE
  8
回02-寸法
  6
CONTINUOUS
 62
     5
 10
744.7244469363207
 20
-1810.599162544041
 30
0.0
 11
751.4315537175074
 21
-1810.599162544041
 31
0.0
  0
LINE
  5
1EF
  8
回02-寸法
  6
CONTINUOUS
 62
     5
 10
736.7244469363207
 20
-1810.599162544041
 30
0.0
 11
741.7244469363208
 21
-1810.599162544041
 31
0.0
  0
INSERT
  5
1F0
  8
回02-寸法
  6
CONTINUOUS
 62
     5
 66
     1
  2
_OPEN
 10
736.7244469363207
 20
-1810.599162544041
 30
0.0
 41
3.0
 42
3.0
 43
3.0
  0
SEQEND
  5
1F1
  8
0
  6
CONTINUOUS
 62
     5
  0
INSERT
  5
1F2
  8
回02-寸法
  6
CONTINUOUS
 62
     5
 66
     1
  2
_OPEN
 10
741.7244469363208
 20
-1810.599162544041
 30
0.0
 41
3.0
 42
3.0
 43
3.0
 50
180.0
  0
SEQEND
  5
1F3
  8
0
  6
CONTINUOUS
 62
     5
  0
TEXT
  5
1F4
  8
回02-寸法
  6
CONTINUOUS
 62
     5
 10
747.5072896487954
 20
-1810.099162544041
 30
0.0
 40
6.0
  1
5
1001
ACAD
1000
MTEXTBEGIN
1070
    73
1070
     1
1070
    44
1040
1.0
1070
    74
1070
     0
1000
MTEXTEND
  0
POINT
  5
1F5
  8
DEFPOINTS
  6
CONTINUOUS
 62
     0
 10
736.7244469363207
 20
-1817.880346433662
 30
0.0
  0
POINT
  5
1F6
  8
DEFPOINTS
  6
CONTINUOUS
 62
     0
 10
741.7244469363208
 20
-1817.880346433662
 30
0.0
  0
POINT
  5
1F7
  8
DEFPOINTS
  6
CONTINUOUS
 62
     0
 10
741.7244469363208
 20
-1810.599162544041
 30
0.0
  0
ENDBLK
  5
1F8
  8
0
 62
     7
  0
BLOCK
  8
0
  2
*D3434
 70
     1
 10
0.0
 20
0.0
 30
0.0
  3
*D3434
  1

  0
LINE
  5
1DA
  8
回02-寸法
  6
CONTINUOUS
 62
     5
 10
736.7244469363209
 20
-1817.880346433664
 30
0.0
 11
728.2183211593291
 21
-1817.880346433664
 31
0.0
  0
LINE
  5
1DB
  8
回02-寸法
  6
CONTINUOUS
 62
     5
 10
736.7244034255539
 20
-1824.880346433663
 30
0.0
 11
728.2183211593291
 21
-1824.880346433663
 31
0.0
  0
LINE
  5
1DC
  8
回02-寸法
  6
CONTINUOUS
 62
     5
 10
729.218321159329
 20
-1814.880346433664
 30
0.0
 11
729.218321159329
 21
-1811.880346433664
 31
0.0
  0
LINE
  5
1DD
  8
回02-寸法
  6
CONTINUOUS
 62
     5
 10
729.218321159329
 20
-1827.880346433663
 30
0.0
 11
729.218321159329
 21
-1853.749040539308
 31
0.0
  0
LINE
  5
1DE
  8
回02-寸法
  6
CONTINUOUS
 62
     5
 10
729.218321159329
 20
-1817.880346433664
 30
0.0
 11
729.218321159329
 21
-1824.880346433663
 31
0.0
  0
INSERT
  5
1DF
  8
回02-寸法
  6
CONTINUOUS
 62
     5
 66
     1
  2
_OPEN
 10
729.218321159329
 20
-1817.880346433664
 30
0.0
 41
3.0
 42
3.0
 43
3.0
 50
270.0
  0
SEQEND
  5
1E0
  8
0
  6
CONTINUOUS
 62
     5
  0
INSERT
  5
1E1
  8
回02-寸法
  6
CONTINUOUS
 62
     5
 66
     1
  2
_OPEN
 10
729.218321159329
 20
-1824.880346433663
 30
0.0
 41
3.0
 42
3.0
 43
3.0
 50
90.0
  0
SEQEND
  5
1E2
  8
0
  6
CONTINUOUS
 62
     5
  0
INSERT
  5
1E3
  8
回02-寸法
  6
CONTINUOUS
 62
     5
 66
     1
  2
*X9494
 10
0.0
 20
0.0
 30
0.0
  0
SEQEND
  5
756
  8
0
  6
CONTINUOUS
 62
     5
  0
POINT
  5
1E4
  8
DEFPOINTS
  6
CONTINUOUS
 62
     0
 10
736.7244469363209
 20
-1817.880346433664
 30
0.0
  0
POINT
  5
1E5
  8
DEFPOINTS
  6
CONTINUOUS
 62
     0
 10
736.7244034255539
 20
-1824.880346433663
 30
0.0
  0
POINT
  5
1E6
  8
DEFPOINTS
  6
CONTINUOUS
 62
     0
 10
729.218321159329
 20
-1824.880346433663
 30
0.0
  0
ENDBLK
  5
1E7
  8
0
 62
     7
  0
BLOCK
  8
0
  2
*D3535
 70
     1
 10
0.0
 20
0.0
 30
0.0
  3
*D3535
  1

  0
LINE
  5
B0
  8
回02-寸法
  6
CONTINUOUS
 62
     5
 10
694.8096418526095
 20
-1558.502162737162
 30
0.0
 11
654.9762977137151
 21
-1558.502162737162
 31
0.0
  0
LINE
  5
B1
  8
回02-寸法
  6
CONTINUOUS
 62
     5
 10
694.8096418526095
 20
-1575.002162737161
 30
0.0
 11
654.9762977137151
 21
-1575.002162737161
 31
0.0
  0
LINE
  5
B2
  8
回02-寸法
  6
CONTINUOUS
 62
     5
 10
655.9762977137153
 20
-1555.502162737162
 30
0.0
 11
655.9762977137153
 21
-1552.502162737162
 31
0.0
  0
LINE
  5
B3
  8
回02-寸法
  6
CONTINUOUS
 62
     5
 10
655.9762977137153
 20
-1578.002162737161
 30
0.0
 11
655.9762977137153
 21
-1605.101916087555
 31
0.0
  0
LINE
  5
B4
  8
回02-寸法
  6
CONTINUOUS
 62
     5
 10
655.9762977137153
 20
-1558.502162737162
 30
0.0
 11
655.9762977137153
 21
-1575.002162737161
 31
0.0
  0
INSERT
  5
B5
  8
回02-寸法
  6
CONTINUOUS
 62
     5
 66
     1
  2
_OPEN
 10
655.9762977137153
 20
-1558.502162737162
 30
0.0
 41
3.0
 42
3.0
 43
3.0
 50
270.0
  0
SEQEND
  5
B6
  8
0
  6
CONTINUOUS
 62
     5
  0
INSERT
  5
B7
  8
回02-寸法
  6
CONTINUOUS
 62
     5
 66
     1
  2
_OPEN
 10
655.9762977137153
 20
-1575.002162737161
 30
0.0
 41
3.0
 42
3.0
 43
3.0
 50
90.0
  0
SEQEND
  5
B8
  8
0
  6
CONTINUOUS
 62
     5
  0
INSERT
  5
B9
  8
回02-寸法
  6
CONTINUOUS
 62
     5
 66
     1
  2
*X9595
 10
0.0
 20
0.0
 30
0.0
  0
SEQEND
  5
75C
  8
0
  6
CONTINUOUS
 62
     5
  0
POINT
  5
BA
  8
DEFPOINTS
  6
CONTINUOUS
 62
     0
 10
694.8096418526095
 20
-1558.502162737162
 30
0.0
  0
POINT
  5
BB
  8
DEFPOINTS
  6
CONTINUOUS
 62
     0
 10
694.8096418526095
 20
-1575.002162737161
 30
0.0
  0
POINT
  5
BC
  8
DEFPOINTS
  6
CONTINUOUS
 62
     0
 10
655.9762977137153
 20
-1575.002162737161
 30
0.0
  0
ENDBLK
  5
BD
  8
0
 62
     5
  0
BLOCK
  8
0
  2
*D3636
 70
     1
 10
0.0
 20
0.0
 30
0.0
  3
*D3636
  1

  0
LINE
  5
96
  8
回02-寸法
  6
CONTINUOUS
 62
     5
 10
689.6622634540602
 20
-1568.402162737168
 30
0.0
 11
672.7364849319278
 21
-1568.402162737168
 31
0.0
  0
LINE
  5
97
  8
回02-寸法
  6
CONTINUOUS
 62
     5
 10
689.6622634540602
 20
-1571.702162737168
 30
0.0
 11
672.7364849319278
 21
-1571.702162737168
 31
0.0
  0
LINE
  5
98
  8
回02-寸法
  6
CONTINUOUS
 62
     5
 10
673.736484931928
 20
-1565.402162737168
 30
0.0
 11
673.736484931928
 21
-1562.402162737168
 31
0.0
  0
LINE
  5
99
  8
回02-寸法
  6
CONTINUOUS
 62
     5
 10
673.736484931928
 20
-1574.702162737168
 30
0.0
 11
673.736484931928
 21
-1602.552411811577
 31
0.0
  0
LINE
  5
9A
  8
回02-寸法
  6
CONTINUOUS
 62
     5
 10
673.736484931928
 20
-1568.402162737168
 30
0.0
 11
673.736484931928
 21
-1571.702162737168
 31
0.0
  0
INSERT
  5
9B
  8
回02-寸法
  6
CONTINUOUS
 62
     5
 66
     1
  2
_OPEN
 10
673.736484931928
 20
-1568.402162737168
 30
0.0
 41
3.0
 42
3.0
 43
3.0
 50
270.0
  0
SEQEND
  5
9C
  8
0
  6
CONTINUOUS
 62
     5
  0
INSERT
  5
9D
  8
回02-寸法
  6
CONTINUOUS
 62
     5
 66
     1
  2
_OPEN
 10
673.736484931928
 20
-1571.702162737168
 30
0.0
 41
3.0
 42
3.0
 43
3.0
 50
90.0
  0
SEQEND
  5
9E
  8
0
  6
CONTINUOUS
 62
     5
  0
INSERT
  5
9F
  8
回02-寸法
  6
CONTINUOUS
 62
     5
 66
     1
  2
*X9696
 10
0.0
 20
0.0
 30
0.0
  0
SEQEND
  5
762
  8
0
  6
CONTINUOUS
 62
     5
  0
POINT
  5
A0
  8
DEFPOINTS
  6
CONTINUOUS
 62
     0
 10
689.6622634540602
 20
-1568.402162737168
 30
0.0
  0
POINT
  5
A1
  8
DEFPOINTS
  6
CONTINUOUS
 62
     0
 10
689.6622634540602
 20
-1571.702162737168
 30
0.0
  0
POINT
  5
A2
  8
DEFPOINTS
  6
CONTINUOUS
 62
     0
 10
673.736484931928
 20
-1571.702162737168
 30
0.0
  0
ENDBLK
  5
A3
  8
0
 62
     5
  0
BLOCK
  8
0
  2
*D3737
 70
     1
 10
0.0
 20
0.0
 30
0.0
  3
*D3737
  1

  0
LINE
  5
85
  8
回02-寸法
  6
CONTINUOUS
 62
     5
 10
689.6622634540602
 20
-1571.702162737168
 30
0.0
 11
664.2690307373538
 21
-1571.702162737168
 31
0.0
  0
LINE
  5
86
  8
回02-寸法
  6
CONTINUOUS
 62
     5
 10
689.6621485856343
 20
-1561.802162737168
 30
0.0
 11
664.2690307373538
 21
-1561.802162737168
 31
0.0
  0
LINE
  5
87
  8
回02-寸法
  6
CONTINUOUS
 62
     5
 10
665.2690307373537
 20
-1558.802162737168
 30
0.0
 11
665.2690307373537
 21
-1555.802162737168
 31
0.0
  0
LINE
  5
88
  8
回02-寸法
  6
CONTINUOUS
 62
     5
 10
665.2690307373537
 20
-1574.702162737168
 30
0.0
 11
665.2690307373537
 21
-1600.402203737168
 31
0.0
  0
LINE
  5
89
  8
回02-寸法
  6
CONTINUOUS
 62
     5
 10
665.2690307373537
 20
-1561.802162737168
 30
0.0
 11
665.2690307373537
 21
-1571.702162737168
 31
0.0
  0
INSERT
  5
8A
  8
回02-寸法
  6
CONTINUOUS
 62
     5
 66
     1
  2
_OPEN
 10
665.2690307373537
 20
-1561.802162737168
 30
0.0
 41
3.0
 42
3.0
 43
3.0
 50
270.0
  0
SEQEND
  5
8B
  8
0
  6
CONTINUOUS
 62
     5
  0
INSERT
  5
8C
  8
回02-寸法
  6
CONTINUOUS
 62
     5
 66
     1
  2
_OPEN
 10
665.2690307373537
 20
-1571.702162737168
 30
0.0
 41
3.0
 42
3.0
 43
3.0
 50
90.0
  0
SEQEND
  5
8D
  8
0
  6
CONTINUOUS
 62
     5
  0
INSERT
  5
8E
  8
回02-寸法
  6
CONTINUOUS
 62
     5
 66
     1
  2
*X9797
 10
0.0
 20
0.0
 30
0.0
  0
SEQEND
  5
768
  8
0
  6
CONTINUOUS
 62
     5
  0
POINT
  5
8F
  8
DEFPOINTS
  6
CONTINUOUS
 62
     0
 10
689.6622634540602
 20
-1571.702162737168
 30
0.0
  0
POINT
  5
90
  8
DEFPOINTS
  6
CONTINUOUS
 62
     0
 10
689.6621485856343
 20
-1561.802162737168
 30
0.0
  0
POINT
  5
91
  8
DEFPOINTS
  6
CONTINUOUS
 62
     0
 10
665.2690307373537
 20
-1561.802162737168
 30
0.0
  0
ENDBLK
  5
92
  8
0
 62
     5
  0
BLOCK
  8
0
  2
*D3838
 70
     1
 10
0.0
 20
0.0
 30
0.0
  3
*D3838
  1

  0
LINE
  5
6D
  8
回02-寸法
  6
CONTINUOUS
 62
     5
 10
693.4896418526096
 20
-1572.626162737168
 30
0.0
 11
682.1064463351872
 21
-1572.626162737168
 31
0.0
  0
LINE
  5
6E
  8
回02-寸法
  6
CONTINUOUS
 62
     5
 10
693.4896418526096
 20
-1570.778162737168
 30
0.0
 11
682.1064463351872
 21
-1570.778162737168
 31
0.0
  0
LINE
  5
6F
  8
回02-寸法
  6
CONTINUOUS
 62
     5
 10
683.1064463351872
 20
-1567.778162737168
 30
0.0
 11
683.1064463351872
 21
-1564.778162737168
 31
0.0
  0
LINE
  5
70
  8
回02-寸法
  6
CONTINUOUS
 62
     5
 10
683.1064463351872
 20
-1575.626162737168
 30
0.0
 11
683.1064463351872
 21
-1607.151162737168
 31
0.0
  0
LINE
  5
71
  8
回02-寸法
  6
CONTINUOUS
 62
     5
 10
683.1064463351872
 20
-1570.778162737168
 30
0.0
 11
683.1064463351872
 21
-1572.626162737168
 31
0.0
  0
INSERT
  5
72
  8
回02-寸法
  6
CONTINUOUS
 62
     5
 66
     1
  2
_OPEN
 10
683.1064463351872
 20
-1570.778162737168
 30
0.0
 41
3.0
 42
3.0
 43
3.0
 50
270.0
  0
SEQEND
  5
73
  8
0
  6
CONTINUOUS
 62
     5
  0
INSERT
  5
74
  8
回02-寸法
  6
CONTINUOUS
 62
     5
 66
     1
  2
_OPEN
 10
683.1064463351872
 20
-1572.626162737168
 30
0.0
 41
3.0
 42
3.0
 43
3.0
 50
90.0
  0
SEQEND
  5
75
  8
0
  6
CONTINUOUS
 62
     5
  0
INSERT
  5
76
  8
回02-寸法
  6
CONTINUOUS
 62
     5
 66
     1
  2
*X9898
 10
0.0
 20
0.0
 30
0.0
  0
SEQEND
  5
76E
  8
0
  6
CONTINUOUS
 62
     5
  0
POINT
  5
77
  8
DEFPOINTS
  6
CONTINUOUS
 62
     0
 10
693.4896418526096
 20
-1572.626162737168
 30
0.0
  0
POINT
  5
79
  8
DEFPOINTS
  6
CONTINUOUS
 62
     0
 10
693.4896418526096
 20
-1570.778162737168
 30
0.0
  0
POINT
  5
7A
  8
DEFPOINTS
  6
CONTINUOUS
 62
     0
 10
683.1064463351872
 20
-1570.778162737168
 30
0.0
  0
ENDBLK
  5
7B
  8
0
 62
     5
  0
BLOCK
  8
0
  2
*D3939
 70
     1
 10
0.0
 20
0.0
 30
0.0
  3
*D3939
  1

  0
LINE
  5
48E
  8
回02-寸法
  6
CONTINUOUS
 62
     5
 10
2501.574583824398
 20
1412.887101020072
 30
0.0
 11
2490.191388306976
 21
1412.887101020072
 31
0.0
  0
LINE
  5
490
  8
回02-寸法
  6
CONTINUOUS
 62
     5
 10
2501.574583824398
 20
1414.735101020072
 30
0.0
 11
2490.191388306976
 21
1414.735101020072
 31
0.0
  0
LINE
  5
491
  8
回02-寸法
  6
CONTINUOUS
 62
     5
 10
2491.191388306976
 20
1409.887101020072
 30
0.0
 11
2491.191388306976
 21
1378.362101020072
 31
0.0
  0
LINE
  5
492
  8
回02-寸法
  6
CONTINUOUS
 62
     5
 10
2491.191388306976
 20
1412.887101020072
 30
0.0
 11
2491.191388306976
 21
1414.735101020072
 31
0.0
  0
LINE
  5
493
  8
回02-寸法
  6
CONTINUOUS
 62
     5
 10
2491.191388306976
 20
1417.735101020072
 30
0.0
 11
2491.191388306976
 21
1420.735101020072
 31
0.0
  0
INSERT
  5
494
  8
回02-寸法
  6
CONTINUOUS
 62
     5
  2
_OPEN
 10
2491.191388306976
 20
1412.887101020072
 30
0.0
 41
3.0
 42
3.0
 43
3.0
 50
90.0
  0
INSERT
  5
495
  8
回02-寸法
  6
CONTINUOUS
 62
     5
  2
_OPEN
 10
2491.191388306976
 20
1414.735101020072
 30
0.0
 41
3.0
 42
3.0
 43
3.0
 50
270.0
  0
INSERT
  5
496
  8
回02-寸法
  6
CONTINUOUS
 62
     5
 66
     1
  2
*X9999
 10
0.0
 20
0.0
 30
0.0
  0
SEQEND
  5
774
  8
0
  6
CONTINUOUS
 62
     5
  0
POINT
  5
497
  8
DEFPOINTS
  6
CONTINUOUS
 62
     0
 10
2501.574583824398
 20
1412.887101020072
 30
0.0
  0
POINT
  5
498
  8
DEFPOINTS
  6
CONTINUOUS
 62
     0
 10
2501.574583824398
 20
1414.735101020072
 30
0.0
  0
POINT
  5
499
  8
DEFPOINTS
  6
CONTINUOUS
 62
     0
 10
2491.191388306976
 20
1414.735101020072
 30
0.0
  0
ENDBLK
  5
49B
  8
0
  6
CONTINUOUS
 62
     5
  0
BLOCK
  8
0
  2
*D4040
 70
     1
 10
0.0
 20
0.0
 30
0.0
  3
*D4040
  1

  0
LINE
  5
49D
  8
回02-寸法
  6
CONTINUOUS
 62
     5
 10
2497.747205425849
 20
1413.811101020072
 30
0.0
 11
2472.353972709142
 21
1413.811101020072
 31
0.0
  0
LINE
  5
49F
  8
回02-寸法
  6
CONTINUOUS
 62
     5
 10
2497.747090557423
 20
1423.711101020072
 30
0.0
 11
2472.353972709142
 21
1423.711101020072
 31
0.0
  0
LINE
  5
4A0
  8
回02-寸法
  6
CONTINUOUS
 62
     5
 10
2473.353972709142
 20
1410.811101020073
 30
0.0
 11
2473.353972709142
 21
1385.111060020071
 31
0.0
  0
LINE
  5
4A1
  8
回02-寸法
  6
CONTINUOUS
 62
     5
 10
2473.353972709142
 20
1413.811101020072
 30
0.0
 11
2473.353972709142
 21
1423.711101020072
 31
0.0
  0
LINE
  5
4A2
  8
回02-寸法
  6
CONTINUOUS
 62
     5
 10
2473.353972709142
 20
1426.711101020072
 30
0.0
 11
2473.353972709142
 21
1429.711101020072
 31
0.0
  0
INSERT
  5
4A3
  8
回02-寸法
  6
CONTINUOUS
 62
     5
  2
_OPEN
 10
2473.353972709142
 20
1413.811101020072
 30
0.0
 41
3.0
 42
3.0
 43
3.0
 50
90.0
  0
INSERT
  5
4A4
  8
回02-寸法
  6
CONTINUOUS
 62
     5
  2
_OPEN
 10
2473.353972709142
 20
1423.711101020072
 30
0.0
 41
3.0
 42
3.0
 43
3.0
 50
270.0
  0
INSERT
  5
4A5
  8
回02-寸法
  6
CONTINUOUS
 62
     5
 66
     1
  2
*X100100
 10
0.0
 20
0.0
 30
0.0
  0
SEQEND
  5
77A
  8
0
  6
CONTINUOUS
 62
     5
  0
POINT
  5
4A6
  8
DEFPOINTS
  6
CONTINUOUS
 62
     0
 10
2497.747205425849
 20
1413.811101020072
 30
0.0
  0
POINT
  5
4A7
  8
DEFPOINTS
  6
CONTINUOUS
 62
     0
 10
2497.747090557423
 20
1423.711101020072
 30
0.0
  0
POINT
  5
4A8
  8
DEFPOINTS
  6
CONTINUOUS
 62
     0
 10
2473.353972709142
 20
1423.711101020072
 30
0.0
  0
ENDBLK
  5
4AA
  8
0
  6
CONTINUOUS
 62
     5
  0
BLOCK
  8
0
  2
*D4141
 70
     1
 10
0.0
 20
0.0
 30
0.0
  3
*D4141
  1

  0
LINE
  5
4AC
  8
回02-寸法
  6
CONTINUOUS
 62
     5
 10
2497.747205425849
 20
1417.111101020072
 30
0.0
 11
2480.821426903716
 21
1417.111101020072
 31
0.0
  0
LINE
  5
4AD
  8
回02-寸法
  6
CONTINUOUS
 62
     5
 10
2497.747205425849
 20
1413.811101020072
 30
0.0
 11
2480.821426903716
 21
1413.811101020072
 31
0.0
  0
LINE
  5
4AE
  8
回02-寸法
  6
CONTINUOUS
 62
     5
 10
2481.821426903716
 20
1410.811101020073
 30
0.0
 11
2481.821426903716
 21
1383.110446176178
 31
0.0
  0
LINE
  5
4AF
  8
回02-寸法
  6
CONTINUOUS
 62
     5
 10
2481.821426903716
 20
1417.111101020072
 30
0.0
 11
2481.821426903716
 21
1413.811101020072
 31
0.0
  0
LINE
  5
4B0
  8
回02-寸法
  6
CONTINUOUS
 62
     5
 10
2481.821426903716
 20
1420.111101020072
 30
0.0
 11
2481.821426903716
 21
1423.111101020072
 31
0.0
  0
INSERT
  5
4B1
  8
回02-寸法
  6
CONTINUOUS
 62
     5
  2
_OPEN
 10
2481.821426903716
 20
1417.111101020072
 30
0.0
 41
3.0
 42
3.0
 43
3.0
 50
270.0
  0
INSERT
  5
4B2
  8
回02-寸法
  6
CONTINUOUS
 62
     5
  2
_OPEN
 10
2481.821426903716
 20
1413.811101020072
 30
0.0
 41
3.0
 42
3.0
 43
3.0
 50
90.0
  0
INSERT
  5
4B3
  8
回02-寸法
  6
CONTINUOUS
 62
     5
 66
     1
  2
*X101101
 10
0.0
 20
0.0
 30
0.0
  0
SEQEND
  5
780
  8
0
  6
CONTINUOUS
 62
     5
  0
POINT
  5
4B4
  8
DEFPOINTS
  6
CONTINUOUS
 62
     0
 10
2497.747205425849
 20
1417.111101020072
 30
0.0
  0
POINT
  5
4B5
  8
DEFPOINTS
  6
CONTINUOUS
 62
     0
 10
2497.747205425849
 20
1413.811101020072
 30
0.0
  0
POINT
  5
4B6
  8
DEFPOINTS
  6
CONTINUOUS
 62
     0
 10
2481.821426903716
 20
1413.811101020072
 30
0.0
  0
ENDBLK
  5
4B8
  8
0
  6
CONTINUOUS
 62
     5
  0
BLOCK
  8
0
  2
*D4242
 70
     1
 10
0.0
 20
0.0
 30
0.0
  3
*D4242
  1

  0
LINE
  5
4BA
  8
回02-寸法
  6
CONTINUOUS
 62
     5
 10
2502.894583824398
 20
1427.011101020078
 30
0.0
 11
2463.061239685504
 21
1427.011101020078
 31
0.0
  0
LINE
  5
4BB
  8
回02-寸法
  6
CONTINUOUS
 62
     5
 10
2502.894583824398
 20
1410.51110102008
 30
0.0
 11
2463.061239685504
 21
1410.51110102008
 31
0.0
  0
LINE
  5
4BC
  8
回02-寸法
  6
CONTINUOUS
 62
     5
 10
2464.061239685504
 20
1407.511101020079
 30
0.0
 11
2464.061239685504
 21
1381.009766481614
 31
0.0
  0
LINE
  5
4BD
  8
回02-寸法
  6
CONTINUOUS
 62
     5
 10
2464.061239685504
 20
1427.011101020078
 30
0.0
 11
2464.061239685504
 21
1410.51110102008
 31
0.0
  0
LINE
  5
4BE
  8
回02-寸法
  6
CONTINUOUS
 62
     5
 10
2464.061239685504
 20
1430.011101020078
 30
0.0
 11
2464.061239685504
 21
1433.011101020078
 31
0.0
  0
INSERT
  5
4BF
  8
回02-寸法
  6
CONTINUOUS
 62
     5
  2
_OPEN
 10
2464.061239685504
 20
1427.011101020078
 30
0.0
 41
3.0
 42
3.0
 43
3.0
 50
270.0
  0
INSERT
  5
4C0
  8
回02-寸法
  6
CONTINUOUS
 62
     5
  2
_OPEN
 10
2464.061239685504
 20
1410.51110102008
 30
0.0
 41
3.0
 42
3.0
 43
3.0
 50
90.0
  0
INSERT
  5
4C1
  8
回02-寸法
  6
CONTINUOUS
 62
     5
 66
     1
  2
*X102102
 10
0.0
 20
0.0
 30
0.0
  0
SEQEND
  5
786
  8
0
  6
CONTINUOUS
 62
     5
  0
POINT
  5
4C2
  8
DEFPOINTS
  6
CONTINUOUS
 62
     0
 10
2502.894583824398
 20
1427.011101020078
 30
0.0
  0
POINT
  5
4C3
  8
DEFPOINTS
  6
CONTINUOUS
 62
     0
 10
2502.894583824398
 20
1410.51110102008
 30
0.0
  0
POINT
  5
4C4
  8
DEFPOINTS
  6
CONTINUOUS
 62
     0
 10
2464.061239685504
 20
1410.51110102008
 30
0.0
  0
ENDBLK
  5
4C6
  8
0
  6
CONTINUOUS
 62
     5
  0
BLOCK
  8
0
  2
*D4343
 70
     1
 10
0.0
 20
0.0
 30
0.0
  3
*D4343
  1

  0
LINE
  5
4C8
  8
回02-寸法
  6
CONTINUOUS
 62
     5
 10
2624.80938890811
 20
1164.632917323577
 30
0.0
 11
2624.80938890811
 21
1177.228018381735
 31
0.0
  0
LINE
  5
4C9
  8
回02-寸法
  6
CONTINUOUS
 62
     5
 10
2625.30938890811
 20
1171.632917323576
 30
0.0
 11
2625.30938890811
 21
1177.228018381735
 31
0.0
  0
LINE
  5
4CA
  8
回02-寸法
  6
CONTINUOUS
 62
     5
 10
2628.30938890811
 20
1176.228018381735
 30
0.0
 11
2645.504664498661
 21
1176.228018381735
 31
0.0
  0
LINE
  5
4CB
  8
回02-寸法
  6
CONTINUOUS
 62
     5
 10
2624.80938890811
 20
1176.228018381735
 30
0.0
 11
2625.30938890811
 21
1176.228018381735
 31
0.0
  0
LINE
  5
4CC
  8
回02-寸法
  6
CONTINUOUS
 62
     5
 10
2621.80938890811
 20
1176.228018381735
 30
0.0
 11
2618.80938890811
 21
1176.228018381735
 31
0.0
  0
INSERT
  5
4CD
  8
回02-寸法
  6
CONTINUOUS
 62
     5
  2
_OPEN
 10
2624.80938890811
 20
1176.228018381735
 30
0.0
 41
3.0
 42
3.0
 43
3.0
  0
INSERT
  5
4CE
  8
回02-寸法
  6
CONTINUOUS
 62
     5
  2
_OPEN
 10
2625.30938890811
 20
1176.228018381735
 30
0.0
 41
3.0
 42
3.0
 43
3.0
 50
180.0
  0
TEXT
  5
4CF
  8
回02-寸法
  6
CONTINUOUS
 62
     5
 10
2630.907026703385
 20
1177.028018381735
 30
0.0
 40
6.0
  1
(0.5)
  0
POINT
  5
4D0
  8
DEFPOINTS
  6
CONTINUOUS
 62
     0
 10
2624.80938890811
 20
1164.632917323577
 30
0.0
  0
POINT
  5
4D1
  8
DEFPOINTS
  6
CONTINUOUS
 62
     0
 10
2625.30938890811
 20
1171.632917323576
 30
0.0
  0
POINT
  5
4D2
  8
DEFPOINTS
  6
CONTINUOUS
 62
     0
 10
2625.30938890811
 20
1176.228018381735
 30
0.0
  0
ENDBLK
  5
4D4
  8
0
  6
CONTINUOUS
 62
     5
  0
BLOCK
  8
0
  2
*D4444
 70
     1
 10
0.0
 20
0.0
 30
0.0
  3
*D4444
  1

  0
LINE
  5
4D6
  8
回02-寸法
  6
CONTINUOUS
 62
     5
 10
2985.809388908111
 20
1171.632917323576
 30
0.0
 11
2985.809388908111
 21
1180.811288405203
 31
0.0
  0
LINE
  5
4D7
  8
回02-寸法
  6
CONTINUOUS
 62
     5
 10
2986.309388908111
 20
1164.632917323577
 30
0.0
 11
2986.309388908111
 21
1180.811288405203
 31
0.0
  0
LINE
  5
4D8
  8
回02-寸法
  6
CONTINUOUS
 62
     5
 10
2989.309388908111
 20
1179.811288405204
 30
0.0
 11
3006.504664498662
 21
1179.811288405204
 31
0.0
  0
LINE
  5
4D9
  8
回02-寸法
  6
CONTINUOUS
 62
     5
 10
2985.809388908111
 20
1179.811288405204
 30
0.0
 11
2986.309388908111
 21
1179.811288405204
 31
0.0
  0
LINE
  5
4DA
  8
回02-寸法
  6
CONTINUOUS
 62
     5
 10
2982.809388908111
 20
1179.811288405204
 30
0.0
 11
2979.80938890811
 21
1179.811288405204
 31
0.0
  0
INSERT
  5
4DB
  8
回02-寸法
  6
CONTINUOUS
 62
     5
  2
_OPEN
 10
2985.809388908111
 20
1179.811288405204
 30
0.0
 41
3.0
 42
3.0
 43
3.0
  0
INSERT
  5
4DC
  8
回02-寸法
  6
CONTINUOUS
 62
     5
  2
_OPEN
 10
2986.309388908111
 20
1179.811288405204
 30
0.0
 41
3.0
 42
3.0
 43
3.0
 50
180.0
  0
TEXT
  5
4DD
  8
回02-寸法
  6
CONTINUOUS
 62
     5
 10
2991.907026703387
 20
1180.611288405204
 30
0.0
 40
6.0
  1
(0.5)
  0
POINT
  5
4DE
  8
DEFPOINTS
  6
CONTINUOUS
 62
     0
 10
2985.809388908111
 20
1171.632917323576
 30
0.0
  0
POINT
  5
4DF
  8
DEFPOINTS
  6
CONTINUOUS
 62
     0
 10
2986.309388908111
 20
1164.632917323577
 30
0.0
  0
POINT
  5
4E0
  8
DEFPOINTS
  6
CONTINUOUS
 62
     0
 10
2986.309388908111
 20
1179.811288405204
 30
0.0
  0
ENDBLK
  5
4E2
  8
0
  6
CONTINUOUS
 62
     5
  0
BLOCK
  8
0
  2
*D4545
 70
     1
 10
0.0
 20
0.0
 30
0.0
  3
*D4545
  1

  0
LINE
  5
4E4
  8
回02-寸法
  6
CONTINUOUS
 62
     5
 10
2985.809388908111
 20
1171.632917323576
 30
0.0
 11
2995.689114943104
 21
1171.632917323576
 31
0.0
  0
LINE
  5
4E5
  8
回02-寸法
  6
CONTINUOUS
 62
     5
 10
2986.309388908111
 20
1158.632917323575
 30
0.0
 11
2995.689114943104
 21
1158.632917323575
 31
0.0
  0
LINE
  5
4E6
  8
回02-寸法
  6
CONTINUOUS
 62
     5
 10
2994.689114943105
 20
1155.632917323575
 30
0.0
 11
2994.689114943105
 21
1134.90621088619
 31
0.0
  0
LINE
  5
4E7
  8
回02-寸法
  6
CONTINUOUS
 62
     5
 10
2994.689114943105
 20
1171.632917323576
 30
0.0
 11
2994.689114943105
 21
1158.632917323575
 31
0.0
  0
LINE
  5
4E8
  8
回02-寸法
  6
CONTINUOUS
 62
     5
 10
2994.689114943105
 20
1174.632917323576
 30
0.0
 11
2994.689114943105
 21
1177.632917323576
 31
0.0
  0
INSERT
  5
4E9
  8
回02-寸法
  6
CONTINUOUS
 62
     5
  2
_OPEN
 10
2994.689114943105
 20
1171.632917323576
 30
0.0
 41
3.0
 42
3.0
 43
3.0
 50
270.0
  0
INSERT
  5
4EA
  8
回02-寸法
  6
CONTINUOUS
 62
     5
  2
_OPEN
 10
2994.689114943105
 20
1158.632917323575
 30
0.0
 41
3.0
 42
3.0
 43
3.0
 50
90.0
  0
INSERT
  5
4EB
  8
回02-寸法
  6
CONTINUOUS
 62
     5
 66
     1
  2
*X103103
 10
0.0
 20
0.0
 30
0.0
  0
SEQEND
  5
78C
  8
0
  6
CONTINUOUS
 62
     5
  0
POINT
  5
4EC
  8
DEFPOINTS
  6
CONTINUOUS
 62
     0
 10
2985.809388908111
 20
1171.632917323576
 30
0.0
  0
POINT
  5
4ED
  8
DEFPOINTS
  6
CONTINUOUS
 62
     0
 10
2986.309388908111
 20
1158.632917323575
 30
0.0
  0
POINT
  5
4EE
  8
DEFPOINTS
  6
CONTINUOUS
 62
     0
 10
2994.689114943105
 20
1158.632917323575
 30
0.0
  0
ENDBLK
  5
4F0
  8
0
  6
CONTINUOUS
 62
     5
  0
BLOCK
  8
0
  2
*D4646
 70
     1
 10
0.0
 20
0.0
 30
0.0
  3
*D4646
  1

  0
LINE
  5
4F2
  8
回02-寸法
  6
CONTINUOUS
 62
     5
 10
2544.80938890811
 20
1167.632917323577
 30
0.0
 11
2536.303263131117
 21
1167.632917323577
 31
0.0
  0
LINE
  5
4F3
  8
回02-寸法
  6
CONTINUOUS
 62
     5
 10
2544.809345397343
 20
1160.632917323577
 30
0.0
 11
2536.303263131117
 21
1160.632917323577
 31
0.0
  0
LINE
  5
4F4
  8
回02-寸法
  6
CONTINUOUS
 62
     5
 10
2537.303263131117
 20
1157.632917323577
 30
0.0
 11
2537.303263131117
 21
1131.85120806603
 31
0.0
  0
LINE
  5
4F5
  8
回02-寸法
  6
CONTINUOUS
 62
     5
 10
2537.303263131117
 20
1167.632917323577
 30
0.0
 11
2537.303263131117
 21
1160.632917323577
 31
0.0
  0
LINE
  5
4F6
  8
回02-寸法
  6
CONTINUOUS
 62
     5
 10
2537.303263131117
 20
1170.632917323576
 30
0.0
 11
2537.303263131117
 21
1173.632917323577
 31
0.0
  0
INSERT
  5
4F7
  8
回02-寸法
  6
CONTINUOUS
 62
     5
  2
_OPEN
 10
2537.303263131117
 20
1167.632917323577
 30
0.0
 41
3.0
 42
3.0
 43
3.0
 50
270.0
  0
INSERT
  5
4F8
  8
回02-寸法
  6
CONTINUOUS
 62
     5
  2
_OPEN
 10
2537.303263131117
 20
1160.632917323577
 30
0.0
 41
3.0
 42
3.0
 43
3.0
 50
90.0
  0
INSERT
  5
4F9
  8
回02-寸法
  6
CONTINUOUS
 62
     5
 66
     1
  2
*X104104
 10
0.0
 20
0.0
 30
0.0
  0
SEQEND
  5
792
  8
0
  6
CONTINUOUS
 62
     5
  0
POINT
  5
4FA
  8
DEFPOINTS
  6
CONTINUOUS
 62
     0
 10
2544.80938890811
 20
1167.632917323577
 30
0.0
  0
POINT
  5
4FB
  8
DEFPOINTS
  6
CONTINUOUS
 62
     0
 10
2544.809345397343
 20
1160.632917323577
 30
0.0
  0
POINT
  5
4FC
  8
DEFPOINTS
  6
CONTINUOUS
 62
     0
 10
2537.303263131117
 20
1160.632917323577
 30
0.0
  0
ENDBLK
  5
4FE
  8
0
  6
CONTINUOUS
 62
     5
  0
BLOCK
  8
0
  2
*D4747
 70
     1
 10
0.0
 20
0.0
 30
0.0
  3
*D4747
  1

  0
LINE
  5
500
  8
回02-寸法
  6
CONTINUOUS
 62
     5
 10
2544.80938890811
 20
1167.632917323577
 30
0.0
 11
2544.80938890811
 21
1175.914101213199
 31
0.0
  0
LINE
  5
501
  8
回02-寸法
  6
CONTINUOUS
 62
     5
 10
2549.80938890811
 20
1167.632917323577
 30
0.0
 11
2549.80938890811
 21
1175.914101213199
 31
0.0
  0
LINE
  5
502
  8
回02-寸法
  6
CONTINUOUS
 62
     5
 10
2552.80938890811
 20
1174.914101213199
 30
0.0
 11
2559.392231620585
 21
1174.914101213199
 31
0.0
  0
LINE
  5
503
  8
回02-寸法
  6
CONTINUOUS
 62
     5
 10
2544.80938890811
 20
1174.914101213199
 30
0.0
 11
2549.80938890811
 21
1174.914101213199
 31
0.0
  0
LINE
  5
504
  8
回02-寸法
  6
CONTINUOUS
 62
     5
 10
2541.80938890811
 20
1174.914101213199
 30
0.0
 11
2538.80938890811
 21
1174.914101213199
 31
0.0
  0
INSERT
  5
505
  8
回02-寸法
  6
CONTINUOUS
 62
     5
  2
_OPEN
 10
2544.80938890811
 20
1174.914101213199
 30
0.0
 41
3.0
 42
3.0
 43
3.0
  0
INSERT
  5
506
  8
回02-寸法
  6
CONTINUOUS
 62
     5
  2
_OPEN
 10
2549.80938890811
 20
1174.914101213199
 30
0.0
 41
3.0
 42
3.0
 43
3.0
 50
180.0
  0
TEXT
  5
507
  8
回02-寸法
  6
CONTINUOUS
 62
     5
 10
2555.592231620585
 20
1175.414101213199
 30
0.0
 40
6.0
  1
5
  0
POINT
  5
508
  8
DEFPOINTS
  6
CONTINUOUS
 62
     0
 10
2544.80938890811
 20
1167.632917323577
 30
0.0
  0
POINT
  5
509
  8
DEFPOINTS
  6
CONTINUOUS
 62
     0
 10
2549.80938890811
 20
1167.632917323577
 30
0.0
  0
POINT
  5
50A
  8
DEFPOINTS
  6
CONTINUOUS
 62
     0
 10
2549.80938890811
 20
1174.914101213199
 30
0.0
  0
ENDBLK
  5
50C
  8
0
  6
CONTINUOUS
 62
     5
  0
BLOCK
  8
0
  2
*D4848
 70
     1
 10
0.0
 20
0.0
 30
0.0
  3
*D4848
  1

  0
LINE
  5
50E
  8
回02-寸法
  6
CONTINUOUS
 62
     5
 10
2544.809345397343
 20
1160.632917323577
 30
0.0
 11
2544.809345397343
 21
1147.583359542653
 31
0.0
  0
LINE
  5
50F
  8
回02-寸法
  6
CONTINUOUS
 62
     5
 10
2554.80938890811
 20
1160.632917323576
 30
0.0
 11
2554.80938890811
 21
1147.583359542653
 31
0.0
  0
LINE
  5
510
  8
回02-寸法
  6
CONTINUOUS
 62
     5
 10
2557.80938890811
 20
1148.583359542653
 30
0.0
 11
2572.004664498661
 21
1148.583359542653
 31
0.0
  0
LINE
  5
511
  8
回02-寸法
  6
CONTINUOUS
 62
     5
 10
2544.809345397343
 20
1148.583359542653
 30
0.0
 11
2554.80938890811
 21
1148.583359542653
 31
0.0
  0
LINE
  5
512
  8
回02-寸法
  6
CONTINUOUS
 62
     5
 10
2541.809345397343
 20
1148.583359542653
 30
0.0
 11
2538.809345397343
 21
1148.583359542653
 31
0.0
  0
INSERT
  5
513
  8
回02-寸法
  6
CONTINUOUS
 62
     5
  2
_OPEN
 10
2544.809345397343
 20
1148.583359542653
 30
0.0
 41
3.0
 42
3.0
 43
3.0
  0
INSERT
  5
514
  8
回02-寸法
  6
CONTINUOUS
 62
     5
  2
_OPEN
 10
2554.80938890811
 20
1148.583359542653
 30
0.0
 41
3.0
 42
3.0
 43
3.0
 50
180.0
  0
TEXT
  5
515
  8
回02-寸法
  6
CONTINUOUS
 62
     5
 10
2560.407026703386
 20
1149.383359542653
 30
0.0
 40
6.0
  1
(10)
  0
POINT
  5
516
  8
DEFPOINTS
  6
CONTINUOUS
 62
     0
 10
2544.809345397343
 20
1160.632917323577
 30
0.0
  0
POINT
  5
517
  8
DEFPOINTS
  6
CONTINUOUS
 62
     0
 10
2554.80938890811
 20
1160.632917323576
 30
0.0
  0
POINT
  5
518
  8
DEFPOINTS
  6
CONTINUOUS
 62
     0
 10
2554.80938890811
 20
1148.583359542653
 30
0.0
  0
ENDBLK
  5
51A
  8
0
  6
CONTINUOUS
 62
     5
  0
BLOCK
  8
0
  2
*D4949
 70
     1
 10
0.0
 20
0.0
 30
0.0
  3
*D4949
  1

  0
LINE
  5
51C
  8
回02-寸法
  6
CONTINUOUS
 62
     5
 10
2545.309345397602
 20
1318.321733217432
 30
0.0
 11
2533.366300349169
 21
1318.321733217432
 31
0.0
  0
LINE
  5
51D
  8
回02-寸法
  6
CONTINUOUS
 62
     5
 10
2624.80938890811
 20
1216.33586840357
 30
0.0
 11
2533.366300349169
 21
1216.33586840357
 31
0.0
  0
LINE
  5
51E
  8
回02-寸法
  6
CONTINUOUS
 62
     5
 10
2534.366300349169
 20
1315.321733217432
 30
0.0
 11
2534.366300349169
 21
1219.33586840357
 31
0.0
  0
INSERT
  5
51F
  8
回02-寸法
  6
CONTINUOUS
 62
     5
  2
_OPEN
 10
2534.366300349169
 20
1318.321733217432
 30
0.0
 41
3.0
 42
3.0
 43
3.0
 50
90.0
  0
INSERT
  5
520
  8
回02-寸法
  6
CONTINUOUS
 62
     5
  2
_OPEN
 10
2534.366300349169
 20
1216.33586840357
 30
0.0
 41
3.0
 42
3.0
 43
3.0
 50
270.0
  0
TEXT
  5
521
  8
回02-寸法
  6
CONTINUOUS
 62
     5
 10
2533.566300349169
 20
1254.707138599339
 30
0.0
 40
6.0
  1
(101.99)
 50
90.0
  0
POINT
  5
522
  8
DEFPOINTS
  6
CONTINUOUS
 62
     0
 10
2545.309345397602
 20
1318.321733217432
 30
0.0
  0
POINT
  5
523
  8
DEFPOINTS
  6
CONTINUOUS
 62
     0
 10
2624.80938890811
 20
1216.33586840357
 30
0.0
  0
POINT
  5
524
  8
DEFPOINTS
  6
CONTINUOUS
 62
     0
 10
2534.366300349169
 20
1216.33586840357
 30
0.0
  0
ENDBLK
  5
526
  8
0
  6
CONTINUOUS
 62
     5
  0
BLOCK
  8
0
  2
*D5050
 70
     1
 10
0.0
 20
0.0
 30
0.0
  3
*D5050
  1

  0
LINE
  5
528
  8
回02-寸法
  6
CONTINUOUS
 62
     5
 10
2982.301388908111
 20
1421.25386840357
 30
0.0
 11
2982.301388908111
 21
1472.535879844796
 31
0.0
  0
LINE
  5
529
  8
回02-寸法
  6
CONTINUOUS
 62
     5
 10
2986.309388908111
 20
1426.535879844797
 30
0.0
 11
2986.309388908111
 21
1472.535879844796
 31
0.0
  0
LINE
  5
52A
  8
回02-寸法
  6
CONTINUOUS
 62
     5
 10
2989.309388908111
 20
1471.535879844796
 30
0.0
 11
3010.104664498661
 21
1471.535879844796
 31
0.0
  0
LINE
  5
52B
  8
回02-寸法
  6
CONTINUOUS
 62
     5
 10
2982.301388908111
 20
1471.535879844796
 30
0.0
 11
2986.309388908111
 21
1471.535879844796
 31
0.0
  0
LINE
  5
52C
  8
回02-寸法
  6
CONTINUOUS
 62
     5
 10
2979.30138890811
 20
1471.535879844796
 30
0.0
 11
2976.30138890811
 21
1471.535879844796
 31
0.0
  0
INSERT
  5
52D
  8
回02-寸法
  6
CONTINUOUS
 62
     5
  2
_OPEN
 10
2982.301388908111
 20
1471.535879844796
 30
0.0
 41
3.0
 42
3.0
 43
3.0
  0
INSERT
  5
52E
  8
回02-寸法
  6
CONTINUOUS
 62
     5
  2
_OPEN
 10
2986.309388908111
 20
1471.535879844796
 30
0.0
 41
3.0
 42
3.0
 43
3.0
 50
180.0
  0
TEXT
  5
52F
  8
回02-寸法
  6
CONTINUOUS
 62
     5
 10
2991.907026703387
 20
1472.335879844796
 30
0.0
 40
6.0
  1
(4.01)
  0
POINT
  5
530
  8
DEFPOINTS
  6
CONTINUOUS
 62
     0
 10
2982.301388908111
 20
1421.25386840357
 30
0.0
  0
POINT
  5
531
  8
DEFPOINTS
  6
CONTINUOUS
 62
     0
 10
2986.309388908111
 20
1426.535879844797
 30
0.0
  0
POINT
  5
532
  8
DEFPOINTS
  6
CONTINUOUS
 62
     0
 10
2986.309388908111
 20
1471.535879844796
 30
0.0
  0
ENDBLK
  5
534
  8
0
  6
CONTINUOUS
 62
     5
  0
BLOCK
  8
0
  2
*D5151
 70
     1
 10
0.0
 20
0.0
 30
0.0
  3
*D5151
  1

  0
LINE
  5
536
  8
回02-寸法
  6
CONTINUOUS
 62
     5
 10
2981.80138890811
 20
1420.45386840357
 30
0.0
 11
2981.80138890811
 21
1462.535879844796
 31
0.0
  0
LINE
  5
537
  8
回02-寸法
  6
CONTINUOUS
 62
     5
 10
2986.309388908111
 20
1426.535879844797
 30
0.0
 11
2986.309388908111
 21
1462.535879844796
 31
0.0
  0
LINE
  5
538
  8
回02-寸法
  6
CONTINUOUS
 62
     5
 10
2989.309388908111
 20
1461.535879844796
 30
0.0
 11
3010.104664498661
 21
1461.535879844796
 31
0.0
  0
LINE
  5
539
  8
回02-寸法
  6
CONTINUOUS
 62
     5
 10
2981.80138890811
 20
1461.535879844796
 30
0.0
 11
2986.309388908111
 21
1461.535879844796
 31
0.0
  0
LINE
  5
53A
  8
回02-寸法
  6
CONTINUOUS
 62
     5
 10
2978.80138890811
 20
1461.535879844796
 30
0.0
 11
2975.80138890811
 21
1461.535879844796
 31
0.0
  0
INSERT
  5
53B
  8
回02-寸法
  6
CONTINUOUS
 62
     5
  2
_OPEN
 10
2981.80138890811
 20
1461.535879844796
 30
0.0
 41
3.0
 42
3.0
 43
3.0
  0
INSERT
  5
53C
  8
回02-寸法
  6
CONTINUOUS
 62
     5
  2
_OPEN
 10
2986.309388908111
 20
1461.535879844796
 30
0.0
 41
3.0
 42
3.0
 43
3.0
 50
180.0
  0
TEXT
  5
53D
  8
回02-寸法
  6
CONTINUOUS
 62
     5
 10
2991.907026703387
 20
1462.335879844796
 30
0.0
 40
6.0
  1
(4.51)
  0
POINT
  5
53E
  8
DEFPOINTS
  6
CONTINUOUS
 62
     0
 10
2981.80138890811
 20
1420.45386840357
 30
0.0
  0
POINT
  5
53F
  8
DEFPOINTS
  6
CONTINUOUS
 62
     0
 10
2986.309388908111
 20
1426.535879844797
 30
0.0
  0
POINT
  5
540
  8
DEFPOINTS
  6
CONTINUOUS
 62
     0
 10
2986.309388908111
 20
1461.535879844796
 30
0.0
  0
ENDBLK
  5
542
  8
0
  6
CONTINUOUS
 62
     5
  0
BLOCK
  8
0
  2
*D5252
 70
     1
 10
0.0
 20
0.0
 30
0.0
  3
*D5252
  1

  0
LINE
  5
544
  8
回02-寸法
  6
CONTINUOUS
 62
     5
 10
2979.801388908111
 20
1418.45386840357
 30
0.0
 11
2979.801388908111
 21
1452.535879844796
 31
0.0
  0
LINE
  5
545
  8
回02-寸法
  6
CONTINUOUS
 62
     5
 10
2986.309388908111
 20
1426.535879844797
 30
0.0
 11
2986.309388908111
 21
1452.535879844796
 31
0.0
  0
LINE
  5
546
  8
回02-寸法
  6
CONTINUOUS
 62
     5
 10
2989.309388908111
 20
1451.535879844796
 30
0.0
 11
3009.504664498662
 21
1451.535879844796
 31
0.0
  0
LINE
  5
547
  8
回02-寸法
  6
CONTINUOUS
 62
     5
 10
2979.801388908111
 20
1451.535879844796
 30
0.0
 11
2986.309388908111
 21
1451.535879844796
 31
0.0
  0
LINE
  5
548
  8
回02-寸法
  6
CONTINUOUS
 62
     5
 10
2976.801388908111
 20
1451.535879844796
 30
0.0
 11
2973.80138890811
 21
1451.535879844796
 31
0.0
  0
INSERT
  5
549
  8
回02-寸法
  6
CONTINUOUS
 62
     5
  2
_OPEN
 10
2979.801388908111
 20
1451.535879844796
 30
0.0
 41
3.0
 42
3.0
 43
3.0
  0
INSERT
  5
54A
  8
回02-寸法
  6
CONTINUOUS
 62
     5
  2
_OPEN
 10
2986.309388908111
 20
1451.535879844796
 30
0.0
 41
3.0
 42
3.0
 43
3.0
 50
180.0
  0
TEXT
  5
54B
  8
回02-寸法
  6
CONTINUOUS
 62
     5
 10
2991.907026703387
 20
1452.335879844796
 30
0.0
 40
6.0
  1
(6.51)
  0
POINT
  5
54C
  8
DEFPOINTS
  6
CONTINUOUS
 62
     0
 10
2979.801388908111
 20
1418.45386840357
 30
0.0
  0
POINT
  5
54D
  8
DEFPOINTS
  6
CONTINUOUS
 62
     0
 10
2986.309388908111
 20
1426.535879844797
 30
0.0
  0
POINT
  5
54E
  8
DEFPOINTS
  6
CONTINUOUS
 62
     0
 10
2986.309388908111
 20
1451.535879844796
 30
0.0
  0
ENDBLK
  5
550
  8
0
  6
CONTINUOUS
 62
     5
  0
BLOCK
  8
0
  2
*D5353
 70
     1
 10
0.0
 20
0.0
 30
0.0
  3
*D5353
  1

  0
LINE
  5
552
  8
回02-寸法
  6
CONTINUOUS
 62
     5
 10
2982.301388908111
 20
1221.61786840357
 30
0.0
 11
3032.309388908113
 21
1221.61786840357
 31
0.0
  0
LINE
  5
553
  8
回02-寸法
  6
CONTINUOUS
 62
     5
 10
2986.309388908111
 20
1216.335868403572
 30
0.0
 11
3032.309388908113
 21
1216.335868403572
 31
0.0
  0
LINE
  5
554
  8
回02-寸法
  6
CONTINUOUS
 62
     5
 10
3031.309388908113
 20
1213.335868403572
 30
0.0
 11
3031.309388908113
 21
1136.123230608296
 31
0.0
  0
LINE
  5
555
  8
回02-寸法
  6
CONTINUOUS
 62
     5
 10
3031.309388908113
 20
1221.61786840357
 30
0.0
 11
3031.309388908113
 21
1216.335868403572
 31
0.0
  0
LINE
  5
556
  8
回02-寸法
  6
CONTINUOUS
 62
     5
 10
3031.309388908113
 20
1224.61786840357
 30
0.0
 11
3031.309388908113
 21
1227.61786840357
 31
0.0
  0
INSERT
  5
557
  8
回02-寸法
  6
CONTINUOUS
 62
     5
  2
_OPEN
 10
3031.309388908113
 20
1221.61786840357
 30
0.0
 41
3.0
 42
3.0
 43
3.0
 50
270.0
  0
INSERT
  5
558
  8
回02-寸法
  6
CONTINUOUS
 62
     5
  2
_OPEN
 10
3031.309388908113
 20
1216.335868403572
 30
0.0
 41
3.0
 42
3.0
 43
3.0
 50
90.0
  0
TEXT
  5
559
  8
回02-寸法
  6
CONTINUOUS
 62
     5
 10
3030.509388908114
 20
1135.723230608296
 30
0.0
 40
6.0
  1
5.28(Insulation Area)
 50
90.0
  0
POINT
  5
55A
  8
DEFPOINTS
  6
CONTINUOUS
 62
     0
 10
2982.301388908111
 20
1221.61786840357
 30
0.0
  0
POINT
  5
55B
  8
DEFPOINTS
  6
CONTINUOUS
 62
     0
 10
2986.309388908111
 20
1216.335868403572
 30
0.0
  0
POINT
  5
55C
  8
DEFPOINTS
  6
CONTINUOUS
 62
     0
 10
3031.309388908113
 20
1216.335868403572
 30
0.0
  0
ENDBLK
  5
55E
  8
0
  6
CONTINUOUS
 62
     5
  0
BLOCK
  8
0
  2
*D5454
 70
     1
 10
0.0
 20
0.0
 30
0.0
  3
*D5454
  1

  0
LINE
  5
560
  8
回02-寸法
  6
CONTINUOUS
 62
     5
 10
2979.801388908111
 20
1418.45386840357
 30
0.0
 11
3012.309388908109
 21
1418.45386840357
 31
0.0
  0
LINE
  5
561
  8
回02-寸法
  6
CONTINUOUS
 62
     5
 10
2986.309388908111
 20
1426.535879844797
 30
0.0
 11
3012.309388908109
 21
1426.535879844797
 31
0.0
  0
LINE
  5
562
  8
回02-寸法
  6
CONTINUOUS
 62
     5
 10
3011.309388908109
 20
1429.535879844797
 30
0.0
 11
3011.309388908109
 21
1450.931155435348
 31
0.0
  0
LINE
  5
563
  8
回02-寸法
  6
CONTINUOUS
 62
     5
 10
3011.309388908109
 20
1418.45386840357
 30
0.0
 11
3011.309388908109
 21
1426.535879844797
 31
0.0
  0
LINE
  5
564
  8
回02-寸法
  6
CONTINUOUS
 62
     5
 10
3011.309388908109
 20
1415.45386840357
 30
0.0
 11
3011.309388908109
 21
1412.45386840357
 31
0.0
  0
INSERT
  5
565
  8
回02-寸法
  6
CONTINUOUS
 62
     5
  2
_OPEN
 10
3011.309388908109
 20
1418.45386840357
 30
0.0
 41
3.0
 42
3.0
 43
3.0
 50
90.0
  0
INSERT
  5
566
  8
回02-寸法
  6
CONTINUOUS
 62
     5
  2
_OPEN
 10
3011.309388908109
 20
1426.535879844797
 30
0.0
 41
3.0
 42
3.0
 43
3.0
 50
270.0
  0
TEXT
  5
567
  8
回02-寸法
  6
CONTINUOUS
 62
     5
 10
3010.509388908109
 20
1432.133517640072
 30
0.0
 40
6.0
  1
(8.08)
 50
90.0
  0
POINT
  5
568
  8
DEFPOINTS
  6
CONTINUOUS
 62
     0
 10
2979.801388908111
 20
1418.45386840357
 30
0.0
  0
POINT
  5
569
  8
DEFPOINTS
  6
CONTINUOUS
 62
     0
 10
2986.309388908111
 20
1426.535879844797
 30
0.0
  0
POINT
  5
56A
  8
DEFPOINTS
  6
CONTINUOUS
 62
     0
 10
3011.309388908109
 20
1426.535879844797
 30
0.0
  0
ENDBLK
  5
56C
  8
0
  6
CONTINUOUS
 62
     5
  0
BLOCK
  8
0
  2
*D5555
 70
     1
 10
0.0
 20
0.0
 30
0.0
  3
*D5555
  1

  0
LINE
  5
56E
  8
回02-寸法
  6
CONTINUOUS
 62
     5
 10
2981.80138890811
 20
1420.45386840357
 30
0.0
 11
3022.309388908113
 21
1420.45386840357
 31
0.0
  0
LINE
  5
56F
  8
回02-寸法
  6
CONTINUOUS
 62
     5
 10
2986.309388908111
 20
1426.535879844797
 30
0.0
 11
3022.309388908113
 21
1426.535879844797
 31
0.0
  0
LINE
  5
570
  8
回02-寸法
  6
CONTINUOUS
 62
     5
 10
3021.309388908113
 20
1429.535879844797
 30
0.0
 11
3021.309388908113
 21
1450.931155435348
 31
0.0
  0
LINE
  5
571
  8
回02-寸法
  6
CONTINUOUS
 62
     5
 10
3021.309388908113
 20
1420.45386840357
 30
0.0
 11
3021.309388908113
 21
1426.535879844797
 31
0.0
  0
LINE
  5
572
  8
回02-寸法
  6
CONTINUOUS
 62
     5
 10
3021.309388908113
 20
1417.45386840357
 30
0.0
 11
3021.309388908113
 21
1414.45386840357
 31
0.0
  0
INSERT
  5
573
  8
回02-寸法
  6
CONTINUOUS
 62
     5
  2
_OPEN
 10
3021.309388908113
 20
1420.45386840357
 30
0.0
 41
3.0
 42
3.0
 43
3.0
 50
90.0
  0
INSERT
  5
574
  8
回02-寸法
  6
CONTINUOUS
 62
     5
  2
_OPEN
 10
3021.309388908113
 20
1426.535879844797
 30
0.0
 41
3.0
 42
3.0
 43
3.0
 50
270.0
  0
TEXT
  5
575
  8
回02-寸法
  6
CONTINUOUS
 62
     5
 10
3020.509388908112
 20
1432.133517640072
 30
0.0
 40
6.0
  1
(6.08)
 50
90.0
  0
POINT
  5
576
  8
DEFPOINTS
  6
CONTINUOUS
 62
     0
 10
2981.80138890811
 20
1420.45386840357
 30
0.0
  0
POINT
  5
577
  8
DEFPOINTS
  6
CONTINUOUS
 62
     0
 10
2986.309388908111
 20
1426.535879844797
 30
0.0
  0
POINT
  5
578
  8
DEFPOINTS
  6
CONTINUOUS
 62
     0
 10
3021.309388908113
 20
1426.535879844797
 30
0.0
  0
ENDBLK
  5
57A
  8
0
  6
CONTINUOUS
 62
     5
  0
BLOCK
  8
0
  2
*D5656
 70
     1
 10
0.0
 20
0.0
 30
0.0
  3
*D5656
  1

  0
LINE
  5
57C
  8
回02-寸法
  6
CONTINUOUS
 62
     5
 10
2982.301388908111
 20
1421.25386840357
 30
0.0
 11
3032.309388908113
 21
1421.25386840357
 31
0.0
  0
LINE
  5
57D
  8
回02-寸法
  6
CONTINUOUS
 62
     5
 10
2986.309388908111
 20
1426.535879844797
 30
0.0
 11
3032.309388908113
 21
1426.535879844797
 31
0.0
  0
LINE
  5
57E
  8
回02-寸法
  6
CONTINUOUS
 62
     5
 10
3031.309388908113
 20
1429.535879844797
 30
0.0
 11
3031.309388908113
 21
1450.931155435348
 31
0.0
  0
LINE
  5
57F
  8
回02-寸法
  6
CONTINUOUS
 62
     5
 10
3031.309388908113
 20
1421.25386840357
 30
0.0
 11
3031.309388908113
 21
1426.535879844797
 31
0.0
  0
LINE
  5
580
  8
回02-寸法
  6
CONTINUOUS
 62
     5
 10
3031.309388908113
 20
1418.25386840357
 30
0.0
 11
3031.309388908113
 21
1415.25386840357
 31
0.0
  0
INSERT
  5
581
  8
回02-寸法
  6
CONTINUOUS
 62
     5
  2
_OPEN
 10
3031.309388908113
 20
1421.25386840357
 30
0.0
 41
3.0
 42
3.0
 43
3.0
 50
90.0
  0
INSERT
  5
582
  8
回02-寸法
  6
CONTINUOUS
 62
     5
  2
_OPEN
 10
3031.309388908113
 20
1426.535879844797
 30
0.0
 41
3.0
 42
3.0
 43
3.0
 50
270.0
  0
TEXT
  5
583
  8
回02-寸法
  6
CONTINUOUS
 62
     5
 10
3030.509388908114
 20
1432.133517640072
 30
0.0
 40
6.0
  1
(5.28)
 50
90.0
  0
POINT
  5
584
  8
DEFPOINTS
  6
CONTINUOUS
 62
     0
 10
2982.301388908111
 20
1421.25386840357
 30
0.0
  0
POINT
  5
585
  8
DEFPOINTS
  6
CONTINUOUS
 62
     0
 10
2986.309388908111
 20
1426.535879844797
 30
0.0
  0
POINT
  5
586
  8
DEFPOINTS
  6
CONTINUOUS
 62
     0
 10
3031.309388908113
 20
1426.535879844797
 30
0.0
  0
ENDBLK
  5
588
  8
0
  6
CONTINUOUS
 62
     5
  0
BLOCK
  8
0
  2
*D5757
 70
     1
 10
0.0
 20
0.0
 30
0.0
  3
*D5757
  1

  0
LINE
  5
58A
  8
回02-寸法
  6
CONTINUOUS
 62
     5
 10
2982.301388908111
 20
1421.253868403569
 30
0.0
 11
3032.309388908111
 21
1421.253868403569
 31
0.0
  0
LINE
  5
58B
  8
回02-寸法
  6
CONTINUOUS
 62
     5
 10
2982.301388908111
 20
1221.61786840357
 30
0.0
 11
3032.309388908111
 21
1221.61786840357
 31
0.0
  0
LINE
  5
58C
  8
回02-寸法
  6
CONTINUOUS
 62
     5
 10
3031.309388908111
 20
1418.253868403569
 30
0.0
 11
3031.309388908111
 21
1224.61786840357
 31
0.0
  0
INSERT
  5
58D
  8
回02-寸法
  6
CONTINUOUS
 62
     5
  2
_OPEN
 10
3031.309388908111
 20
1421.253868403569
 30
0.0
 41
3.0
 42
3.0
 43
3.0
 50
90.0
  0
INSERT
  5
58E
  8
回02-寸法
  6
CONTINUOUS
 62
     5
  2
_OPEN
 10
3031.309388908111
 20
1221.61786840357
 30
0.0
 41
3.0
 42
3.0
 43
3.0
 50
270.0
  0
TEXT
  5
58F
  8
回02-寸法
  6
CONTINUOUS
 62
     5
 10
3030.809388908111
 20
1310.314206192408
 30
0.0
 40
6.0
  1
199.64
 50
90.0
  0
POINT
  5
590
  8
DEFPOINTS
  6
CONTINUOUS
 62
     0
 10
2982.301388908111
 20
1421.253868403569
 30
0.0
  0
POINT
  5
591
  8
DEFPOINTS
  6
CONTINUOUS
 62
     0
 10
2982.301388908111
 20
1221.61786840357
 30
0.0
  0
POINT
  5
592
  8
DEFPOINTS
  6
CONTINUOUS
 62
     0
 10
3031.309388908111
 20
1221.61786840357
 30
0.0
  0
ENDBLK
  5
594
  8
0
  6
CONTINUOUS
 62
     5
  0
BLOCK
  8
0
  2
*D5858
 70
     1
 10
0.0
 20
0.0
 30
0.0
  3
*D5858
  1

  0
LINE
  5
596
  8
回02-寸法
  6
CONTINUOUS
 62
     5
 10
2982.301388908111
 20
1421.25386840357
 30
0.0
 11
2982.301388908111
 21
1472.535879844796
 31
0.0
  0
LINE
  5
597
  8
回02-寸法
  6
CONTINUOUS
 62
     5
 10
2632.569388908111
 20
1421.25386840357
 30
0.0
 11
2632.569388908111
 21
1472.535879844796
 31
0.0
  0
LINE
  5
598
  8
回02-寸法
  6
CONTINUOUS
 62
     5
 10
2979.30138890811
 20
1471.535879844796
 30
0.0
 11
2635.56938890811
 21
1471.535879844796
 31
0.0
  0
INSERT
  5
599
  8
回02-寸法
  6
CONTINUOUS
 62
     5
  2
_OPEN
 10
2982.301388908111
 20
1471.535879844796
 30
0.0
 41
3.0
 42
3.0
 43
3.0
  0
INSERT
  5
59A
  8
回02-寸法
  6
CONTINUOUS
 62
     5
  2
_OPEN
 10
2632.569388908111
 20
1471.535879844796
 30
0.0
 41
3.0
 42
3.0
 43
3.0
 50
180.0
  0
TEXT
  5
59B
  8
回02-寸法
  6
CONTINUOUS
 62
     5
 10
2795.724557802529
 20
1472.035879844796
 30
0.0
 40
6.0
  1
349.73
  0
POINT
  5
59C
  8
DEFPOINTS
  6
CONTINUOUS
 62
     0
 10
2982.301388908111
 20
1421.25386840357
 30
0.0
  0
POINT
  5
59D
  8
DEFPOINTS
  6
CONTINUOUS
 62
     0
 10
2632.569388908111
 20
1421.25386840357
 30
0.0
  0
POINT
  5
59E
  8
DEFPOINTS
  6
CONTINUOUS
 62
     0
 10
2632.569388908111
 20
1471.535879844796
 30
0.0
  0
ENDBLK
  5
5A0
  8
0
  6
CONTINUOUS
 62
     5
  0
BLOCK
  8
0
  2
*D5959
 70
     1
 10
0.0
 20
0.0
 30
0.0
  3
*D5959
  1

  0
LINE
  5
5A2
  8
回02-寸法
  6
CONTINUOUS
 62
     5
 10
2981.80138890811
 20
1222.41786840357
 30
0.0
 11
3022.309388908113
 21
1222.41786840357
 31
0.0
  0
LINE
  5
5A3
  8
回02-寸法
  6
CONTINUOUS
 62
     5
 10
2986.309388908111
 20
1216.335868403572
 30
0.0
 11
3022.309388908113
 21
1216.335868403572
 31
0.0
  0
LINE
  5
5A4
  8
回02-寸法
  6
CONTINUOUS
 62
     5
 10
3021.309388908113
 20
1213.335868403572
 30
0.0
 11
3021.309388908113
 21
1196.735868403571
 31
0.0
  0
LINE
  5
5A5
  8
回02-寸法
  6
CONTINUOUS
 62
     5
 10
3021.309388908113
 20
1222.41786840357
 30
0.0
 11
3021.309388908113
 21
1216.335868403572
 31
0.0
  0
LINE
  5
5A6
  8
回02-寸法
  6
CONTINUOUS
 62
     5
 10
3021.309388908113
 20
1225.41786840357
 30
0.0
 11
3021.309388908113
 21
1228.41786840357
 31
0.0
  0
INSERT
  5
5A7
  8
回02-寸法
  6
CONTINUOUS
 62
     5
  2
_OPEN
 10
3021.309388908113
 20
1222.41786840357
 30
0.0
 41
3.0
 42
3.0
 43
3.0
 50
270.0
  0
INSERT
  5
5A8
  8
回02-寸法
  6
CONTINUOUS
 62
     5
  2
_OPEN
 10
3021.309388908113
 20
1216.335868403572
 30
0.0
 41
3.0
 42
3.0
 43
3.0
 50
90.0
  0
TEXT
  5
5A9
  8
回02-寸法
  6
CONTINUOUS
 62
     5
 10
3020.809388908113
 20
1196.335868403571
 30
0.0
 40
6.0
  1
6.08
 50
90.0
  0
POINT
  5
5AA
  8
DEFPOINTS
  6
CONTINUOUS
 62
     0
 10
2981.80138890811
 20
1222.41786840357
 30
0.0
  0
POINT
  5
5AB
  8
DEFPOINTS
  6
CONTINUOUS
 62
     0
 10
2986.309388908111
 20
1216.335868403572
 30
0.0
  0
POINT
  5
5AC
  8
DEFPOINTS
  6
CONTINUOUS
 62
     0
 10
3021.309388908113
 20
1216.335868403572
 30
0.0
  0
ENDBLK
  5
5AE
  8
0
  6
CONTINUOUS
 62
     5
  0
BLOCK
  8
0
  2
*D6060
 70
     1
 10
0.0
 20
0.0
 30
0.0
  3
*D6060
  1

  0
LINE
  5
5B0
  8
回02-寸法
  6
CONTINUOUS
 62
     5
 10
2979.801388908111
 20
1224.41786840357
 30
0.0
 11
3012.309388908109
 21
1224.41786840357
 31
0.0
  0
LINE
  5
5B1
  8
回02-寸法
  6
CONTINUOUS
 62
     5
 10
2986.309388908111
 20
1216.335868403572
 30
0.0
 11
3012.309388908109
 21
1216.335868403572
 31
0.0
  0
LINE
  5
5B2
  8
回02-寸法
  6
CONTINUOUS
 62
     5
 10
3011.309388908109
 20
1213.335868403572
 30
0.0
 11
3011.309388908109
 21
1196.735868403571
 31
0.0
  0
LINE
  5
5B3
  8
回02-寸法
  6
CONTINUOUS
 62
     5
 10
3011.309388908109
 20
1224.41786840357
 30
0.0
 11
3011.309388908109
 21
1216.335868403572
 31
0.0
  0
LINE
  5
5B4
  8
回02-寸法
  6
CONTINUOUS
 62
     5
 10
3011.309388908109
 20
1227.41786840357
 30
0.0
 11
3011.309388908109
 21
1230.41786840357
 31
0.0
  0
INSERT
  5
5B5
  8
回02-寸法
  6
CONTINUOUS
 62
     5
  2
_OPEN
 10
3011.309388908109
 20
1224.41786840357
 30
0.0
 41
3.0
 42
3.0
 43
3.0
 50
270.0
  0
INSERT
  5
5B6
  8
回02-寸法
  6
CONTINUOUS
 62
     5
  2
_OPEN
 10
3011.309388908109
 20
1216.335868403572
 30
0.0
 41
3.0
 42
3.0
 43
3.0
 50
90.0
  0
TEXT
  5
5B7
  8
回02-寸法
  6
CONTINUOUS
 62
     5
 10
3010.809388908111
 20
1196.335868403571
 30
0.0
 40
6.0
  1
8.08
 50
90.0
  0
POINT
  5
5B8
  8
DEFPOINTS
  6
CONTINUOUS
 62
     0
 10
2979.801388908111
 20
1224.41786840357
 30
0.0
  0
POINT
  5
5B9
  8
DEFPOINTS
  6
CONTINUOUS
 62
     0
 10
2986.309388908111
 20
1216.335868403572
 30
0.0
  0
POINT
  5
5BA
  8
DEFPOINTS
  6
CONTINUOUS
 62
     0
 10
3011.309388908109
 20
1216.335868403572
 30
0.0
  0
ENDBLK
  5
5BC
  8
0
  6
CONTINUOUS
 62
     5
  0
BLOCK
  8
0
  2
*D6161
 70
     1
 10
0.0
 20
0.0
 30
0.0
  3
*D6161
  1

  0
LINE
  5
5BE
  8
回02-寸法
  6
CONTINUOUS
 62
     5
 10
2986.309388908111
 20
1216.335868403572
 30
0.0
 11
3042.30938890811
 21
1216.335868403572
 31
0.0
  0
LINE
  5
5BF
  8
回02-寸法
  6
CONTINUOUS
 62
     5
 10
2986.309388908111
 20
1426.535879844796
 30
0.0
 11
3042.30938890811
 21
1426.535879844796
 31
0.0
  0
LINE
  5
5C0
  8
回02-寸法
  6
CONTINUOUS
 62
     5
 10
3041.309388908111
 20
1219.335868403572
 30
0.0
 11
3041.309388908111
 21
1423.535879844796
 31
0.0
  0
INSERT
  5
5C1
  8
回02-寸法
  6
CONTINUOUS
 62
     5
  2
_OPEN
 10
3041.309388908111
 20
1216.335868403572
 30
0.0
 41
3.0
 42
3.0
 43
3.0
 50
270.0
  0
INSERT
  5
5C2
  8
回02-寸法
  6
CONTINUOUS
 62
     5
  2
_OPEN
 10
3041.309388908111
 20
1426.535879844796
 30
0.0
 41
3.0
 42
3.0
 43
3.0
 50
90.0
  0
INSERT
  5
5C3
  8
回02-寸法
  6
CONTINUOUS
 62
     5
 66
     1
  2
*X105105
 10
0.0
 20
0.0
 30
0.0
  0
SEQEND
  5
798
  8
0
  6
CONTINUOUS
 62
     5
  0
POINT
  5
5C4
  8
DEFPOINTS
  6
CONTINUOUS
 62
     0
 10
2986.309388908111
 20
1216.335868403572
 30
0.0
  0
POINT
  5
5C5
  8
DEFPOINTS
  6
CONTINUOUS
 62
     0
 10
2986.309388908111
 20
1426.535879844796
 30
0.0
  0
POINT
  5
5C6
  8
DEFPOINTS
  6
CONTINUOUS
 62
     0
 10
3041.309388908111
 20
1426.535879844796
 30
0.0
  0
ENDBLK
  5
5C8
  8
0
  6
CONTINUOUS
 62
     5
  0
BLOCK
  8
0
  2
*D6262
 70
     1
 10
0.0
 20
0.0
 30
0.0
  3
*D6262
  1

  0
LINE
  5
5CA
  8
回02-寸法
  6
CONTINUOUS
 62
     5
 10
2981.80138890811
 20
1420.453868403569
 30
0.0
 11
3022.309388908111
 21
1420.453868403569
 31
0.0
  0
LINE
  5
5CB
  8
回02-寸法
  6
CONTINUOUS
 62
     5
 10
2981.80138890811
 20
1222.41786840357
 30
0.0
 11
3022.309388908111
 21
1222.41786840357
 31
0.0
  0
LINE
  5
5CC
  8
回02-寸法
  6
CONTINUOUS
 62
     5
 10
3021.309388908111
 20
1417.453868403569
 30
0.0
 11
3021.309388908111
 21
1225.41786840357
 31
0.0
  0
INSERT
  5
5CD
  8
回02-寸法
  6
CONTINUOUS
 62
     5
  2
_OPEN
 10
3021.309388908111
 20
1420.453868403569
 30
0.0
 41
3.0
 42
3.0
 43
3.0
 50
90.0
  0
INSERT
  5
5CE
  8
回02-寸法
  6
CONTINUOUS
 62
     5
  2
_OPEN
 10
3021.309388908111
 20
1222.41786840357
 30
0.0
 41
3.0
 42
3.0
 43
3.0
 50
270.0
  0
INSERT
  5
5CF
  8
回02-寸法
  6
CONTINUOUS
 62
     5
 66
     1
  2
*X106106
 10
0.0
 20
0.0
 30
0.0
  0
SEQEND
  5
79E
  8
0
  6
CONTINUOUS
 62
     5
  0
POINT
  5
5D0
  8
DEFPOINTS
  6
CONTINUOUS
 62
     0
 10
2981.80138890811
 20
1420.453868403569
 30
0.0
  0
POINT
  5
5D1
  8
DEFPOINTS
  6
CONTINUOUS
 62
     0
 10
2981.80138890811
 20
1222.41786840357
 30
0.0
  0
POINT
  5
5D2
  8
DEFPOINTS
  6
CONTINUOUS
 62
     0
 10
3021.309388908111
 20
1222.41786840357
 30
0.0
  0
ENDBLK
  5
5D4
  8
0
  6
CONTINUOUS
 62
     5
  0
BLOCK
  8
0
  2
*D6363
 70
     1
 10
0.0
 20
0.0
 30
0.0
  3
*D6363
  1

  0
LINE
  5
5D6
  8
回02-寸法
  6
CONTINUOUS
 62
     5
 10
2979.801388908111
 20
1224.41786840357
 30
0.0
 11
3012.309388908111
 21
1224.41786840357
 31
0.0
  0
LINE
  5
5D7
  8
回02-寸法
  6
CONTINUOUS
 62
     5
 10
2979.801388908111
 20
1418.45386840357
 30
0.0
 11
3012.309388908111
 21
1418.45386840357
 31
0.0
  0
LINE
  5
5D8
  8
回02-寸法
  6
CONTINUOUS
 62
     5
 10
3011.309388908111
 20
1227.41786840357
 30
0.0
 11
3011.309388908111
 21
1415.45386840357
 31
0.0
  0
INSERT
  5
5D9
  8
回02-寸法
  6
CONTINUOUS
 62
     5
  2
_OPEN
 10
3011.309388908111
 20
1224.41786840357
 30
0.0
 41
3.0
 42
3.0
 43
3.0
 50
270.0
  0
INSERT
  5
5DA
  8
回02-寸法
  6
CONTINUOUS
 62
     5
  2
_OPEN
 10
3011.309388908111
 20
1418.45386840357
 30
0.0
 41
3.0
 42
3.0
 43
3.0
 50
90.0
  0
INSERT
  5
5DB
  8
回02-寸法
  6
CONTINUOUS
 62
     5
 66
     1
  2
*X107107
 10
0.0
 20
0.0
 30
0.0
  0
SEQEND
  5
7A4
  8
0
  6
CONTINUOUS
 62
     5
  0
POINT
  5
5DC
  8
DEFPOINTS
  6
CONTINUOUS
 62
     0
 10
2979.801388908111
 20
1224.41786840357
 30
0.0
  0
POINT
  5
5DD
  8
DEFPOINTS
  6
CONTINUOUS
 62
     0
 10
2979.801388908111
 20
1418.45386840357
 30
0.0
  0
POINT
  5
5DE
  8
DEFPOINTS
  6
CONTINUOUS
 62
     0
 10
3011.309388908111
 20
1418.45386840357
 30
0.0
  0
ENDBLK
  5
5E0
  8
0
  6
CONTINUOUS
 62
     5
  0
BLOCK
  8
0
  2
*D6464
 70
     1
 10
0.0
 20
0.0
 30
0.0
  3
*D6464
  1

  0
LINE
  5
5E2
  8
回02-寸法
  6
CONTINUOUS
 62
     5
 10
2624.80938890811
 20
1426.535879844798
 30
0.0
 11
2624.80938890811
 21
1482.535879844796
 31
0.0
  0
LINE
  5
5E3
  8
回02-寸法
  6
CONTINUOUS
 62
     5
 10
2986.309388908111
 20
1426.535879844797
 30
0.0
 11
2986.309388908111
 21
1482.535879844796
 31
0.0
  0
LINE
  5
5E4
  8
回02-寸法
  6
CONTINUOUS
 62
     5
 10
2627.80938890811
 20
1481.535879844796
 30
0.0
 11
2983.309388908111
 21
1481.535879844796
 31
0.0
  0
INSERT
  5
5E5
  8
回02-寸法
  6
CONTINUOUS
 62
     5
  2
_OPEN
 10
2624.80938890811
 20
1481.535879844796
 30
0.0
 41
3.0
 42
3.0
 43
3.0
 50
180.0
  0
INSERT
  5
5E6
  8
回02-寸法
  6
CONTINUOUS
 62
     5
  2
_OPEN
 10
2986.309388908111
 20
1481.535879844796
 30
0.0
 41
3.0
 42
3.0
 43
3.0
  0
INSERT
  5
5E7
  8
回02-寸法
  6
CONTINUOUS
 62
     5
 66
     1
  2
*X108108
 10
0.0
 20
0.0
 30
0.0
  0
SEQEND
  5
7AA
  8
0
  6
CONTINUOUS
 62
     5
  0
POINT
  5
5E8
  8
DEFPOINTS
  6
CONTINUOUS
 62
     0
 10
2624.80938890811
 20
1426.535879844798
 30
0.0
  0
POINT
  5
5E9
  8
DEFPOINTS
  6
CONTINUOUS
 62
     0
 10
2986.309388908111
 20
1426.535879844797
 30
0.0
  0
POINT
  5
5EA
  8
DEFPOINTS
  6
CONTINUOUS
 62
     0
 10
2986.309388908111
 20
1481.535879844796
 30
0.0
  0
ENDBLK
  5
5EC
  8
0
  6
CONTINUOUS
 62
     5
  0
BLOCK
  8
0
  2
*D6565
 70
     1
 10
0.0
 20
0.0
 30
0.0
  3
*D6565
  1

  0
LINE
  5
5EE
  8
回02-寸法
  6
CONTINUOUS
 62
     5
 10
2633.06938890811
 20
1420.45386840357
 30
0.0
 11
2633.06938890811
 21
1462.535879844796
 31
0.0
  0
LINE
  5
5EF
  8
回02-寸法
  6
CONTINUOUS
 62
     5
 10
2981.80138890811
 20
1420.45386840357
 30
0.0
 11
2981.80138890811
 21
1462.535879844796
 31
0.0
  0
LINE
  5
5F0
  8
回02-寸法
  6
CONTINUOUS
 62
     5
 10
2636.069388908111
 20
1461.535879844796
 30
0.0
 11
2978.80138890811
 21
1461.535879844796
 31
0.0
  0
INSERT
  5
5F1
  8
回02-寸法
  6
CONTINUOUS
 62
     5
  2
_OPEN
 10
2633.06938890811
 20
1461.535879844796
 30
0.0
 41
3.0
 42
3.0
 43
3.0
 50
180.0
  0
INSERT
  5
5F2
  8
回02-寸法
  6
CONTINUOUS
 62
     5
  2
_OPEN
 10
2981.80138890811
 20
1461.535879844796
 30
0.0
 41
3.0
 42
3.0
 43
3.0
  0
INSERT
  5
5F3
  8
回02-寸法
  6
CONTINUOUS
 62
     5
 66
     1
  2
*X109109
 10
0.0
 20
0.0
 30
0.0
  0
SEQEND
  5
7B0
  8
0
  6
CONTINUOUS
 62
     5
  0
POINT
  5
5F4
  8
DEFPOINTS
  6
CONTINUOUS
 62
     0
 10
2633.06938890811
 20
1420.45386840357
 30
0.0
  0
POINT
  5
5F5
  8
DEFPOINTS
  6
CONTINUOUS
 62
     0
 10
2981.80138890811
 20
1420.45386840357
 30
0.0
  0
POINT
  5
5F6
  8
DEFPOINTS
  6
CONTINUOUS
 62
     0
 10
2981.80138890811
 20
1461.535879844796
 30
0.0
  0
ENDBLK
  5
5F8
  8
0
  6
CONTINUOUS
 62
     5
  0
BLOCK
  8
0
  2
*D6666
 70
     1
 10
0.0
 20
0.0
 30
0.0
  3
*D6666
  1

  0
LINE
  5
5FA
  8
回02-寸法
  6
CONTINUOUS
 62
     5
 10
2635.069388908111
 20
1418.45386840357
 30
0.0
 11
2635.069388908111
 21
1452.535879844796
 31
0.0
  0
LINE
  5
5FB
  8
回02-寸法
  6
CONTINUOUS
 62
     5
 10
2979.801388908111
 20
1418.45386840357
 30
0.0
 11
2979.801388908111
 21
1452.535879844796
 31
0.0
  0
LINE
  5
5FC
  8
回02-寸法
  6
CONTINUOUS
 62
     5
 10
2638.069388908111
 20
1451.535879844796
 30
0.0
 11
2976.801388908111
 21
1451.535879844796
 31
0.0
  0
INSERT
  5
5FD
  8
回02-寸法
  6
CONTINUOUS
 62
     5
  2
_OPEN
 10
2635.069388908111
 20
1451.535879844796
 30
0.0
 41
3.0
 42
3.0
 43
3.0
 50
180.0
  0
INSERT
  5
5FE
  8
回02-寸法
  6
CONTINUOUS
 62
     5
  2
_OPEN
 10
2979.801388908111
 20
1451.535879844796
 30
0.0
 41
3.0
 42
3.0
 43
3.0
  0
INSERT
  5
5FF
  8
回02-寸法
  6
CONTINUOUS
 62
     5
 66
     1
  2
*X110110
 10
0.0
 20
0.0
 30
0.0
  0
SEQEND
  5
7B6
  8
0
  6
CONTINUOUS
 62
     5
  0
POINT
  5
600
  8
DEFPOINTS
  6
CONTINUOUS
 62
     0
 10
2635.069388908111
 20
1418.45386840357
 30
0.0
  0
POINT
  5
601
  8
DEFPOINTS
  6
CONTINUOUS
 62
     0
 10
2979.801388908111
 20
1418.45386840357
 30
0.0
  0
POINT
  5
602
  8
DEFPOINTS
  6
CONTINUOUS
 62
     0
 10
2979.801388908111
 20
1451.535879844796
 30
0.0
  0
ENDBLK
  5
604
  8
0
  6
CONTINUOUS
 62
     5
  0
BLOCK
  8
0
  2
*D6767
 70
     1
 10
0.0
 20
0.0
 30
0.0
  3
*D6767
  1

  0
LINE
  5
606
  8
回02-寸法
  6
CONTINUOUS
 62
     5
 10
2835.435388908111
 20
1285.43586840357
 30
0.0
 11
2835.435388908111
 21
1276.260644922917
 31
0.0
  0
LINE
  5
607
  8
回02-寸法
  6
CONTINUOUS
 62
     5
 10
2839.43538890811
 20
1285.43586840357
 30
0.0
 11
2839.43538890811
 21
1276.260644922917
 31
0.0
  0
LINE
  5
608
  8
回02-寸法
  6
CONTINUOUS
 62
     5
 10
2842.435388908111
 20
1277.260644922917
 30
0.0
 11
2849.435388908111
 21
1277.260644922917
 31
0.0
  0
LINE
  5
609
  8
回02-寸法
  6
CONTINUOUS
 62
     5
 10
2835.435388908111
 20
1277.260644922917
 30
0.0
 11
2839.43538890811
 21
1277.260644922917
 31
0.0
  0
LINE
  5
60A
  8
回02-寸法
  6
CONTINUOUS
 62
     5
 10
2832.43538890811
 20
1277.260644922917
 30
0.0
 11
2829.435388908111
 21
1277.260644922917
 31
0.0
  0
INSERT
  5
60B
  8
回02-寸法
  6
CONTINUOUS
 62
     5
  2
_OPEN
 10
2835.435388908111
 20
1277.260644922917
 30
0.0
 41
3.0
 42
3.0
 43
3.0
  0
INSERT
  5
60C
  8
回02-寸法
  6
CONTINUOUS
 62
     5
  2
_OPEN
 10
2839.43538890811
 20
1277.260644922917
 30
0.0
 41
3.0
 42
3.0
 43
3.0
 50
180.0
  0
TEXT
  5
60D
  8
回02-寸法
  6
CONTINUOUS
 62
     5
 10
2845.03538890811
 20
1277.760644922917
 30
0.0
 40
6.0
  1
4
  0
POINT
  5
60E
  8
DEFPOINTS
  6
CONTINUOUS
 62
     0
 10
2835.435388908111
 20
1285.43586840357
 30
0.0
  0
POINT
  5
60F
  8
DEFPOINTS
  6
CONTINUOUS
 62
     0
 10
2839.43538890811
 20
1285.43586840357
 30
0.0
  0
POINT
  5
610
  8
DEFPOINTS
  6
CONTINUOUS
 62
     0
 10
2839.43538890811
 20
1277.260644922917
 30
0.0
  0
ENDBLK
  5
612
  8
0
  6
CONTINUOUS
 62
     5
  0
BLOCK
  8
0
  2
*D6868
 70
     1
 10
0.0
 20
0.0
 30
0.0
  3
*D6868
  1

  0
LINE
  5
614
  8
回02-寸法
  6
CONTINUOUS
 62
     5
 10
2843.43538890811
 20
1297.43586840357
 30
0.0
 11
2854.562024523898
 21
1297.43586840357
 31
0.0
  0
LINE
  5
615
  8
回02-寸法
  6
CONTINUOUS
 62
     5
 10
2843.43538890811
 20
1293.43586840357
 30
0.0
 11
2854.562024523898
 21
1293.43586840357
 31
0.0
  0
LINE
  5
616
  8
回02-寸法
  6
CONTINUOUS
 62
     5
 10
2853.562024523898
 20
1290.43586840357
 30
0.0
 11
2853.562024523898
 21
1283.43586840357
 31
0.0
  0
LINE
  5
617
  8
回02-寸法
  6
CONTINUOUS
 62
     5
 10
2853.562024523898
 20
1297.43586840357
 30
0.0
 11
2853.562024523898
 21
1293.43586840357
 31
0.0
  0
LINE
  5
618
  8
回02-寸法
  6
CONTINUOUS
 62
     5
 10
2853.562024523898
 20
1300.43586840357
 30
0.0
 11
2853.562024523898
 21
1303.43586840357
 31
0.0
  0
INSERT
  5
619
  8
回02-寸法
  6
CONTINUOUS
 62
     5
  2
_OPEN
 10
2853.562024523898
 20
1297.43586840357
 30
0.0
 41
3.0
 42
3.0
 43
3.0
 50
270.0
  0
INSERT
  5
61A
  8
回02-寸法
  6
CONTINUOUS
 62
     5
  2
_OPEN
 10
2853.562024523898
 20
1293.43586840357
 30
0.0
 41
3.0
 42
3.0
 43
3.0
 50
90.0
  0
TEXT
  5
61B
  8
回02-寸法
  6
CONTINUOUS
 62
     5
 10
2853.062024523898
 20
1283.03586840357
 30
0.0
 40
6.0
  1
4
 50
90.0
  0
POINT
  5
61C
  8
DEFPOINTS
  6
CONTINUOUS
 62
     0
 10
2843.43538890811
 20
1297.43586840357
 30
0.0
  0
POINT
  5
61D
  8
DEFPOINTS
  6
CONTINUOUS
 62
     0
 10
2843.43538890811
 20
1293.43586840357
 30
0.0
  0
POINT
  5
61E
  8
DEFPOINTS
  6
CONTINUOUS
 62
     0
 10
2853.562024523898
 20
1293.43586840357
 30
0.0
  0
ENDBLK
  5
620
  8
0
  6
CONTINUOUS
 62
     5
  0
BLOCK
  8
0
  2
*D6969
 70
     1
 10
0.0
 20
0.0
 30
0.0
  3
*D6969
  1

  0
LINE
  5
622
  8
回02-寸法
  6
CONTINUOUS
 62
     5
 10
2624.80938890811
 20
1312.769608673249
 30
0.0
 11
2624.80938890811
 21
1297.474565080477
 31
0.0
  0
LINE
  5
623
  8
回02-寸法
  6
CONTINUOUS
 62
     5
 10
2620.208886395548
 20
1313.53588693702
 30
0.0
 11
2620.208886395548
 21
1297.474565080477
 31
0.0
  0
LINE
  5
624
  8
回02-寸法
  6
CONTINUOUS
 62
     5
 10
2617.208886395549
 20
1298.474565080477
 30
0.0
 11
2604.057562412608
 21
1298.474565080477
 31
0.0
  0
LINE
  5
625
  8
回02-寸法
  6
CONTINUOUS
 62
     5
 10
2624.80938890811
 20
1298.474565080477
 30
0.0
 11
2620.208886395548
 21
1298.474565080477
 31
0.0
  0
LINE
  5
626
  8
回02-寸法
  6
CONTINUOUS
 62
     5
 10
2627.80938890811
 20
1298.474565080477
 30
0.0
 11
2630.80938890811
 21
1298.474565080477
 31
0.0
  0
INSERT
  5
627
  8
回02-寸法
  6
CONTINUOUS
 62
     5
  2
_OPEN
 10
2624.80938890811
 20
1298.474565080477
 30
0.0
 41
3.0
 42
3.0
 43
3.0
 50
180.0
  0
INSERT
  5
628
  8
回02-寸法
  6
CONTINUOUS
 62
     5
  2
_OPEN
 10
2620.208886395548
 20
1298.474565080477
 30
0.0
 41
3.0
 42
3.0
 43
3.0
  0
TEXT
  5
629
  8
回02-寸法
  6
CONTINUOUS
 62
     5
 10
2603.657562412608
 20
1298.974565080477
 30
0.0
 40
6.0
  1
4.6
  0
POINT
  5
62A
  8
DEFPOINTS
  6
CONTINUOUS
 62
     0
 10
2624.80938890811
 20
1312.769608673249
 30
0.0
  0
POINT
  5
62B
  8
DEFPOINTS
  6
CONTINUOUS
 62
     0
 10
2620.208886395548
 20
1313.53588693702
 30
0.0
  0
POINT
  5
62C
  8
DEFPOINTS
  6
CONTINUOUS
 62
     0
 10
2620.208886395548
 20
1298.474565080477
 30
0.0
  0
ENDBLK
  5
62E
  8
0
  6
CONTINUOUS
 62
     5
  0
BLOCK
  8
0
  2
*D7070
 70
     1
 10
0.0
 20
0.0
 30
0.0
  3
*D7070
  1

  0
LINE
  5
630
  8
回02-寸法
 62
     5
 10
2545.309345397344
 20
1324.571733017717
 30
0.0
 11
2533.366300349172
 21
1324.571733017717
 31
0.0
  0
LINE
  5
631
  8
回02-寸法
 62
     5
 10
2545.309345397344
 20
1318.321733017717
 30
0.0
 11
2533.366300349172
 21
1318.321733017717
 31
0.0
  0
LINE
  5
632
  8
回02-寸法
 62
     5
 10
2534.366300349172
 20
1327.571733017717
 30
0.0
 11
2534.366300349172
 21
1354.827848951996
 31
0.0
  0
LINE
  5
633
  8
回02-寸法
 62
     5
 10
2534.366300349172
 20
1324.571733017717
 30
0.0
 11
2534.366300349172
 21
1318.321733017717
 31
0.0
  0
LINE
  5
634
  8
回02-寸法
 62
     5
 10
2534.366300349172
 20
1315.321733017716
 30
0.0
 11
2534.366300349172
 21
1312.321733017717
 31
0.0
  0
INSERT
  5
635
  8
回02-寸法
  6
CONTINUOUS
 62
     5
  2
_OPEN
 10
2534.366300349172
 20
1324.571733017717
 30
0.0
 41
3.0
 42
3.0
 43
3.0
 50
270.0
  0
INSERT
  5
636
  8
回02-寸法
  6
CONTINUOUS
 62
     5
  2
_OPEN
 10
2534.366300349172
 20
1318.321733017717
 30
0.0
 41
3.0
 42
3.0
 43
3.0
 50
90.0
  0
INSERT
  5
637
  8
回02-寸法
  6
CONTINUOUS
 62
     5
 66
     1
  2
*X111111
 10
0.0
 20
0.0
 30
0.0
  0
SEQEND
  5
7BC
  8
0
  6
CONTINUOUS
 62
     5
  0
POINT
  5
638
  8
DEFPOINTS
  6
CONTINUOUS
 62
     0
 10
2545.309345397344
 20
1324.571733017717
 30
0.0
  0
POINT
  5
639
  8
DEFPOINTS
  6
CONTINUOUS
 62
     0
 10
2545.309345397344
 20
1318.321733017717
 30
0.0
  0
POINT
  5
63A
  8
DEFPOINTS
  6
CONTINUOUS
 62
     0
 10
2534.366300349172
 20
1318.321733017717
 30
0.0
  0
ENDBLK
  5
63C
  8
0
  6
CONTINUOUS
 62
     5
  0
BLOCK
  8
0
  2
*D7171
 70
     1
 10
0.0
 20
0.0
 30
0.0
  3
*D7171
  1

  0
LINE
  5
63E
  8
回02-寸法
  6
CONTINUOUS
 62
     5
 10
2624.809345397342
 20
1310.575665205851
 30
0.0
 11
2624.809345397342
 21
1285.093212368588
 31
0.0
  0
LINE
  5
63F
  8
回02-寸法
  6
CONTINUOUS
 62
     5
 10
2615.313457788083
 20
1318.228543561508
 30
0.0
 11
2615.313457788083
 21
1285.093212368588
 31
0.0
  0
LINE
  5
640
  8
回02-寸法
  6
CONTINUOUS
 62
     5
 10
2612.313457788083
 20
1286.093212368588
 30
0.0
 11
2599.664929650659
 21
1286.093212368588
 31
0.0
  0
LINE
  5
641
  8
回02-寸法
  6
CONTINUOUS
 62
     5
 10
2624.809345397342
 20
1286.093212368588
 30
0.0
 11
2615.313457788083
 21
1286.093212368588
 31
0.0
  0
LINE
  5
642
  8
回02-寸法
  6
CONTINUOUS
 62
     5
 10
2627.809345397342
 20
1286.093212368588
 30
0.0
 11
2630.809345397342
 21
1286.093212368588
 31
0.0
  0
INSERT
  5
643
  8
回02-寸法
  6
CONTINUOUS
 62
     5
  2
_OPEN
 10
2624.809345397342
 20
1286.093212368588
 30
0.0
 41
3.0
 42
3.0
 43
3.0
 50
180.0
  0
INSERT
  5
644
  8
回02-寸法
  6
CONTINUOUS
 62
     5
  2
_OPEN
 10
2615.313457788083
 20
1286.093212368588
 30
0.0
 41
3.0
 42
3.0
 43
3.0
  0
TEXT
  5
645
  8
回02-寸法
  6
CONTINUOUS
 62
     5
 10
2599.243267439498
 20
1286.593212368588
 30
0.0
 40
6.0
  1
9.5
  0
POINT
  5
646
  8
DEFPOINTS
  6
CONTINUOUS
 62
     0
 10
2624.809345397342
 20
1310.575665205851
 30
0.0
  0
POINT
  5
647
  8
DEFPOINTS
  6
CONTINUOUS
 62
     0
 10
2615.313457788083
 20
1318.228543561508
 30
0.0
  0
POINT
  5
648
  8
DEFPOINTS
  6
CONTINUOUS
 62
     0
 10
2615.313457788083
 20
1286.093212368588
 30
0.0
  0
ENDBLK
  5
64A
  8
0
  6
CONTINUOUS
 62
     5
  0
BLOCK
  8
0
  2
*D7272
 70
     1
 10
0.0
 20
0.0
 30
0.0
  3
*D7272
  1

  0
LINE
  5
64C
  8
回02-寸法
  6
CONTINUOUS
 62
     5
 10
2624.80938890811
 20
1330.123857561908
 30
0.0
 11
2624.80938890811
 21
1352.352113872697
 31
0.0
  0
LINE
  5
64D
  8
回02-寸法
  6
CONTINUOUS
 62
     5
 10
2544.809345397343
 20
1324.071733017716
 30
0.0
 11
2544.809345397343
 21
1352.352113872697
 31
0.0
  0
LINE
  5
64E
  8
回02-寸法
  6
CONTINUOUS
 62
     5
 10
2621.80938890811
 20
1351.352113872697
 30
0.0
 11
2547.809345397344
 21
1351.352113872697
 31
0.0
  0
INSERT
  5
64F
  8
回02-寸法
  6
CONTINUOUS
 62
     5
  2
_OPEN
 10
2624.80938890811
 20
1351.352113872697
 30
0.0
 41
3.0
 42
3.0
 43
3.0
  0
INSERT
  5
650
  8
回02-寸法
  6
CONTINUOUS
 62
     5
  2
_OPEN
 10
2544.809345397343
 20
1351.352113872697
 30
0.0
 41
3.0
 42
3.0
 43
3.0
 50
180.0
  0
INSERT
  5
651
  8
回02-寸法
  6
CONTINUOUS
 62
     5
 66
     1
  2
*X112112
 10
0.0
 20
0.0
 30
0.0
  0
SEQEND
  5
7C2
  8
0
  6
CONTINUOUS
 62
     5
  0
POINT
  5
652
  8
DEFPOINTS
  6
CONTINUOUS
 62
     0
 10
2624.80938890811
 20
1330.123857561908
 30
0.0
  0
POINT
  5
653
  8
DEFPOINTS
  6
CONTINUOUS
 62
     0
 10
2544.809345397343
 20
1324.071733017716
 30
0.0
  0
POINT
  5
654
  8
DEFPOINTS
  6
CONTINUOUS
 62
     0
 10
2544.809345397343
 20
1351.352113872697
 30
0.0
  0
ENDBLK
  5
656
  8
0
  6
CONTINUOUS
 62
     5
  0
BLOCK
  8
0
  2
*D7373
 70
     1
 10
0.0
 20
0.0
 30
0.0
  3
*D7373
  1

  0
LINE
  5
658
  8
回02-寸法
  6
CONTINUOUS
 62
     5
 10
2620.617458999746
 20
1329.445529983445
 30
0.0
 11
2596.247701072308
 21
1329.445529983445
 31
0.0
  0
LINE
  5
659
  8
回02-寸法
  6
CONTINUOUS
 62
     5
 10
2620.621632585451
 20
1313.446733017717
 30
0.0
 11
2596.247701072308
 21
1313.446733017717
 31
0.0
  0
LINE
  5
65A
  8
回02-寸法
  6
CONTINUOUS
 62
     5
 10
2597.247701072308
 20
1310.446733017716
 30
0.0
 11
2597.247701072308
 21
1300.895409034776
 31
0.0
  0
LINE
  5
65B
  8
回02-寸法
  6
CONTINUOUS
 62
     5
 10
2597.247701072308
 20
1329.445529983445
 30
0.0
 11
2597.247701072308
 21
1313.446733017717
 31
0.0
  0
LINE
  5
65C
  8
回02-寸法
  6
CONTINUOUS
 62
     5
 10
2597.247701072308
 20
1332.445529983445
 30
0.0
 11
2597.247701072308
 21
1335.445529983445
 31
0.0
  0
INSERT
  5
65D
  8
回02-寸法
  6
CONTINUOUS
 62
     5
  2
_OPEN
 10
2597.247701072308
 20
1329.445529983445
 30
0.0
 41
3.0
 42
3.0
 43
3.0
 50
270.0
  0
INSERT
  5
65E
  8
回02-寸法
  6
CONTINUOUS
 62
     5
  2
_OPEN
 10
2597.247701072308
 20
1313.446733017717
 30
0.0
 41
3.0
 42
3.0
 43
3.0
 50
90.0
  0
TEXT
  5
65F
  8
回02-寸法
  6
CONTINUOUS
 62
     5
 10
2596.747701072307
 20
1300.495409034776
 30
0.0
 40
6.0
  1
16
 50
90.0
  0
POINT
  5
660
  8
DEFPOINTS
  6
CONTINUOUS
 62
     0
 10
2620.617458999746
 20
1329.445529983445
 30
0.0
  0
POINT
  5
661
  8
DEFPOINTS
  6
CONTINUOUS
 62
     0
 10
2620.621632585451
 20
1313.446733017717
 30
0.0
  0
POINT
  5
662
  8
DEFPOINTS
  6
CONTINUOUS
 62
     0
 10
2597.247701072308
 20
1313.446733017717
 30
0.0
  0
ENDBLK
  5
664
  8
0
  6
CONTINUOUS
 62
     5
  0
BLOCK
  8
0
  2
*D7474
 70
     1
 10
0.0
 20
0.0
 30
0.0
  3
*D7474
  1

  0
LINE
  5
666
  8
回02-寸法
  6
CONTINUOUS
 62
     5
 10
2632.569388908111
 20
1421.25386840357
 30
0.0
 11
2632.569388908111
 21
1472.535879844796
 31
0.0
  0
LINE
  5
667
  8
回02-寸法
  6
CONTINUOUS
 62
     5
 10
2624.80938890811
 20
1426.535879844796
 30
0.0
 11
2624.80938890811
 21
1472.535879844796
 31
0.0
  0
LINE
  5
668
  8
回02-寸法
  6
CONTINUOUS
 62
     5
 10
2621.80938890811
 20
1471.535879844796
 30
0.0
 11
2544.596751112834
 21
1471.535879844796
 31
0.0
  0
LINE
  5
669
  8
回02-寸法
  6
CONTINUOUS
 62
     5
 10
2632.569388908111
 20
1471.535879844796
 30
0.0
 11
2624.80938890811
 21
1471.535879844796
 31
0.0
  0
LINE
  5
66A
  8
回02-寸法
  6
CONTINUOUS
 62
     5
 10
2635.56938890811
 20
1471.535879844796
 30
0.0
 11
2638.56938890811
 21
1471.535879844796
 31
0.0
  0
INSERT
  5
66B
  8
回02-寸法
  6
CONTINUOUS
 62
     5
  2
_OPEN
 10
2632.569388908111
 20
1471.535879844796
 30
0.0
 41
3.0
 42
3.0
 43
3.0
 50
180.0
  0
INSERT
  5
66C
  8
回02-寸法
  6
CONTINUOUS
 62
     5
  2
_OPEN
 10
2624.80938890811
 20
1471.535879844796
 30
0.0
 41
3.0
 42
3.0
 43
3.0
  0
TEXT
  5
66D
  8
回02-寸法
  6
CONTINUOUS
 62
     5
 10
2544.196751112834
 20
1472.335879844796
 30
0.0
 40
6.0
  1
7.76(Insulation Area)
  0
POINT
  5
66E
  8
DEFPOINTS
  6
CONTINUOUS
 62
     0
 10
2632.569388908111
 20
1421.25386840357
 30
0.0
  0
POINT
  5
66F
  8
DEFPOINTS
  6
CONTINUOUS
 62
     0
 10
2624.80938890811
 20
1426.535879844796
 30
0.0
  0
POINT
  5
670
  8
DEFPOINTS
  6
CONTINUOUS
 62
     0
 10
2624.80938890811
 20
1471.535879844796
 30
0.0
  0
ENDBLK
  5
672
  8
0
  6
CONTINUOUS
 62
     5
  0
BLOCK
  8
0
  2
*D7575
 70
     1
 10
0.0
 20
0.0
 30
0.0
  3
*D7575
  1

  0
LINE
  5
674
  8
回02-寸法
  6
CONTINUOUS
 62
     5
 10
2633.06938890811
 20
1420.45386840357
 30
0.0
 11
2633.06938890811
 21
1462.535879844796
 31
0.0
  0
LINE
  5
675
  8
回02-寸法
  6
CONTINUOUS
 62
     5
 10
2624.80938890811
 20
1426.535879844796
 30
0.0
 11
2624.80938890811
 21
1462.535879844796
 31
0.0
  0
LINE
  5
676
  8
回02-寸法
  6
CONTINUOUS
 62
     5
 10
2621.80938890811
 20
1461.535879844796
 30
0.0
 11
2605.058064925171
 21
1461.535879844796
 31
0.0
  0
LINE
  5
677
  8
回02-寸法
  6
CONTINUOUS
 62
     5
 10
2633.06938890811
 20
1461.535879844796
 30
0.0
 11
2624.80938890811
 21
1461.535879844796
 31
0.0
  0
LINE
  5
678
  8
回02-寸法
  6
CONTINUOUS
 62
     5
 10
2636.06938890811
 20
1461.535879844796
 30
0.0
 11
2639.06938890811
 21
1461.535879844796
 31
0.0
  0
INSERT
  5
679
  8
回02-寸法
  6
CONTINUOUS
 62
     5
  2
_OPEN
 10
2633.06938890811
 20
1461.535879844796
 30
0.0
 41
3.0
 42
3.0
 43
3.0
 50
180.0
  0
INSERT
  5
67A
  8
回02-寸法
  6
CONTINUOUS
 62
     5
  2
_OPEN
 10
2624.80938890811
 20
1461.535879844796
 30
0.0
 41
3.0
 42
3.0
 43
3.0
  0
TEXT
  5
67B
  8
回02-寸法
  6
CONTINUOUS
 62
     5
 10
2604.65806492517
 20
1462.035879844796
 30
0.0
 40
6.0
  1
8.26
  0
POINT
  5
67C
  8
DEFPOINTS
  6
CONTINUOUS
 62
     0
 10
2633.06938890811
 20
1420.45386840357
 30
0.0
  0
POINT
  5
67D
  8
DEFPOINTS
  6
CONTINUOUS
 62
     0
 10
2624.80938890811
 20
1426.535879844796
 30
0.0
  0
POINT
  5
67E
  8
DEFPOINTS
  6
CONTINUOUS
 62
     0
 10
2624.80938890811
 20
1461.535879844796
 30
0.0
  0
ENDBLK
  5
680
  8
0
  6
CONTINUOUS
 62
     5
  0
BLOCK
  8
0
  2
*D7676
 70
     1
 10
0.0
 20
0.0
 30
0.0
  3
*D7676
  1

  0
LINE
  5
682
  8
回02-寸法
  6
CONTINUOUS
 62
     5
 10
2635.06938890811
 20
1418.45386840357
 30
0.0
 11
2635.06938890811
 21
1452.535879844796
 31
0.0
  0
LINE
  5
683
  8
回02-寸法
  6
CONTINUOUS
 62
     5
 10
2624.80938890811
 20
1426.535879844796
 30
0.0
 11
2624.80938890811
 21
1452.535879844796
 31
0.0
  0
LINE
  5
684
  8
回02-寸法
  6
CONTINUOUS
 62
     5
 10
2621.80938890811
 20
1451.535879844796
 30
0.0
 11
2602.05806492517
 21
1451.535879844796
 31
0.0
  0
LINE
  5
685
  8
回02-寸法
  6
CONTINUOUS
 62
     5
 10
2635.06938890811
 20
1451.535879844796
 30
0.0
 11
2624.80938890811
 21
1451.535879844796
 31
0.0
  0
LINE
  5
686
  8
回02-寸法
  6
CONTINUOUS
 62
     5
 10
2638.069388908109
 20
1451.535879844796
 30
0.0
 11
2641.06938890811
 21
1451.535879844796
 31
0.0
  0
INSERT
  5
687
  8
回02-寸法
  6
CONTINUOUS
 62
     5
  2
_OPEN
 10
2635.06938890811
 20
1451.535879844796
 30
0.0
 41
3.0
 42
3.0
 43
3.0
 50
180.0
  0
INSERT
  5
688
  8
回02-寸法
  6
CONTINUOUS
 62
     5
  2
_OPEN
 10
2624.80938890811
 20
1451.535879844796
 30
0.0
 41
3.0
 42
3.0
 43
3.0
  0
TEXT
  5
689
  8
回02-寸法
  6
CONTINUOUS
 62
     5
 10
2601.65806492517
 20
1452.035879844796
 30
0.0
 40
6.0
  1
10.26
  0
POINT
  5
68A
  8
DEFPOINTS
  6
CONTINUOUS
 62
     0
 10
2635.06938890811
 20
1418.45386840357
 30
0.0
  0
POINT
  5
68B
  8
DEFPOINTS
  6
CONTINUOUS
 62
     0
 10
2624.80938890811
 20
1426.535879844796
 30
0.0
  0
POINT
  5
68C
  8
DEFPOINTS
  6
CONTINUOUS
 62
     0
 10
2624.80938890811
 20
1451.535879844796
 30
0.0
  0
ENDBLK
  5
68E
  8
0
  6
CONTINUOUS
 62
     5
  0
BLOCK
  8
0
  2
*X7777
 70
     1
 10
0.0
 20
0.0
 30
0.0
  3
*X7777
  1

  0
SOLID
  5
693
  8
回02-寸法
 62
     5
 10
2501.343283192338
 20
1428.043318855235
 30
0.0
 11
2501.953026337488
 21
1426.65022399237
 31
0.0
 12
2500.924427731147
 22
1427.770261896654
 32
0.0
 13
2500.924427731147
 23
1427.770261896654
 33
0.0
  0
LINE
  5
694
  8
回02-寸法
 62
     5
 10
2501.133855461743
 20
1427.906790375945
 30
0.0
 11
2498.016020363686
 21
1432.689390551008
 31
0.0
  0
LINE
  5
695
  8
回02-寸法
 62
     5
 10
2498.016020363686
 20
1432.689390551008
 30
0.0
 11
2496.016020363686
 21
1432.689390551008
 31
0.0
  0
ENDBLK
  5
697
  8
0
  6
CONTINUOUS
 62
     5
  0
BLOCK
  8
0
  2
*X7878
 70
     1
 10
0.0
 20
0.0
 30
0.0
  3
*X7878
  1

  0
INSERT
  5
6A6
  8
回03-記事
  6
CONTINUOUS
 62
     5
  2
_OPEN
 10
2547.22946473824
 20
1167.632917323577
 30
0.0
 41
2.0
 42
2.0
 43
2.0
 50
327.4063162370372
  0
LINE
  5
6A7
  8
回03-記事
  6
CONTINUOUS
 62
     5
 10
2545.544441167216
 20
1168.710273144601
 30
0.0
 11
2535.369556080523
 21
1175.215803313376
 31
0.0
  0
LINE
  5
6A8
  8
回03-記事
  6
CONTINUOUS
 62
     5
 10
2535.369556080523
 20
1175.215803313376
 30
0.0
 11
2485.454556080523
 21
1175.215803313376
 31
0.0
  0
ENDBLK
  5
6AA
  8
0
  6
CONTINUOUS
 62
     5
  0
BLOCK
  8
0
  2
*X7979
 70
     1
 10
0.0
 20
0.0
 30
0.0
  3
*X7979
  1

  0
INSERT
  5
6AD
  8
回03-記事
  6
CONTINUOUS
 62
     5
  2
_OPEN
 10
2547.423350229232
 20
1324.562924123349
 30
0.0
 41
2.0
 42
2.0
 43
2.0
 50
236.6265780747896
  0
LINE
  5
6AE
  8
回03-記事
  6
CONTINUOUS
 62
     5
 10
2548.523537061016
 20
1326.233130378627
 30
0.0
 11
2551.283523361721
 21
1330.423097255838
 31
0.0
  0
LINE
  5
6AF
  8
回03-記事
  6
CONTINUOUS
 62
     5
 10
2551.283523361721
 20
1330.423097255838
 30
0.0
 11
2553.783523361721
 21
1330.423097255838
 31
0.0
  0
ENDBLK
  5
6B1
  8
0
  6
CONTINUOUS
 62
     5
  0
BLOCK
  8
0
  2
*X8080
 70
     1
 10
0.0
 20
0.0
 30
0.0
  3
*X8080
  1

  0
INSERT
  5
6B4
  8
回03-記事
  6
CONTINUOUS
 62
     5
  2
_OPEN
 10
2623.367650147381
 20
1315.923643288136
 30
0.0
 41
2.0
 42
2.0
 43
2.0
 50
76.23386948954887
  0
LINE
  5
6B5
  8
回03-記事
  6
CONTINUOUS
 62
     5
 10
2622.891731456704
 20
1313.981093057161
 30
0.0
 11
2613.521756262967
 21
1275.735804873735
 31
0.0
  0
LINE
  5
6B6
  8
回03-記事
  6
CONTINUOUS
 62
     5
 10
2613.521756262967
 20
1275.735804873735
 30
0.0
 11
2567.821756262967
 21
1275.735804873735
 31
0.0
  0
ENDBLK
  5
6B8
  8
0
  6
CONTINUOUS
 62
     5
  0
BLOCK
  8
0
  2
*X8181
 70
     1
 10
0.0
 20
0.0
 30
0.0
  3
*X8181
  1

  0
SOLID
  5
6BB
  8
回02-寸法
  6
CONTINUOUS
 62
     5
 10
2624.379127442589
 20
1332.217799139598
 30
0.0
 11
2624.922463526297
 21
1330.264367028862
 31
0.0
 12
2623.7749514112
 22
1331.935991106464
 32
0.0
 13
2623.7749514112
 23
1331.935991106464
 33
0.0
  0
LINE
  5
6BC
  8
回02-寸法
  6
CONTINUOUS
 62
     5
 10
2624.077039426894
 20
1332.076895123031
 30
0.0
 11
2619.72068181983
 21
1341.416610606217
 31
0.0
  0
LINE
  5
6BD
  8
回02-寸法
  6
CONTINUOUS
 62
     5
 10
2619.72068181983
 20
1341.416610606217
 30
0.0
 11
2617.22068181983
 21
1341.416610606217
 31
0.0
  0
ENDBLK
  5
6BF
  8
0
  6
CONTINUOUS
 62
     5
  0
BLOCK
  8
0
  2
*X8282
 70
     1
 10
0.0
 20
0.0
 30
0.0
  3
*X8282
  1

  0
SOLID
  5
6C2
  8
回02-寸法
  6
CONTINUOUS
 62
     5
 10
2614.707325453274
 20
1326.592536013237
 30
0.0
 11
2615.279866217814
 21
1324.647463216643
 31
0.0
 12
2614.107439182192
 22
1326.301708046543
 32
0.0
 13
2614.107439182192
 23
1326.301708046543
 33
0.0
  0
LINE
  5
6C3
  8
回02-寸法
  6
CONTINUOUS
 62
     5
 10
2614.407382317733
 20
1326.44712202989
 30
0.0
 11
2610.158200287114
 21
1335.211842948843
 31
0.0
  0
LINE
  5
6C4
  8
回02-寸法
  6
CONTINUOUS
 62
     5
 10
2610.158200287114
 20
1335.211842948843
 30
0.0
 11
2607.658200287114
 21
1335.211842948843
 31
0.0
  0
ENDBLK
  5
6C6
  8
0
  6
CONTINUOUS
 62
     5
  0
BLOCK
  8
0
  2
*X8383
 70
     1
 10
0.0
 20
0.0
 30
0.0
  3
*X8383
  1

  0
TEXT
  5
6D8
  8
回02-寸法
  6
CONTINUOUS
 62
     5
 10
2846.809730006148
 20
1306.760209501607
 30
0.0
 40
6.0
  1
φ0.05
  0
POLYLINE
  5
6D9
  8
回02-寸法
  6
BYBLOCK
 62
     5
 66
     1
 10
0.0
 20
0.0
 30
0.0
  0
VERTEX
  5
A5B
  8
回02-寸法
  6
BYBLOCK
 62
     5
 10
2844.907455814916
 20
1302.789758732175
 30
0.0
  0
VERTEX
  5
A5D
  8
回02-寸法
  6
BYBLOCK
 62
     5
 10
2847.919730006148
 20
1305.560209501607
 30
0.0
  0
SEQEND
  5
A5C
  8
0
  6
CONTINUOUS
 62
     5
  0
SOLID
  5
6DD
  8
回02-寸法
  6
CONTINUOUS
 62
     5
 10
2845.133104203016
 20
1302.544414247707
 30
0.0
 11
2843.43538890811
 21
1301.43586840357
 31
0.0
 12
2844.681807426816
 22
1303.035103216642
 32
0.0
 13
2844.681807426816
 23
1303.035103216642
 33
0.0
  0
POLYLINE
  5
6DE
  8
回02-寸法
  6
BYBLOCK
 62
     5
 66
     1
 10
0.0
 20
0.0
 30
0.0
  0
VERTEX
  5
A5E
  8
回02-寸法
  6
BYBLOCK
 62
     5
 10
2847.919730006148
 20
1305.560209501607
 30
0.0
  0
VERTEX
  5
A60
  8
回02-寸法
  6
BYBLOCK
 62
     5
 10
2867.509730006148
 20
1305.560209501607
 30
0.0
  0
SEQEND
  5
A5F
  8
0
  6
CONTINUOUS
 62
     5
  0
ENDBLK
  5
6E3
  8
0
  6
CONTINUOUS
 62
     5
  0
BLOCK
  8
0
  2
*X8484
 70
     1
 10
0.0
 20
0.0
 30
0.0
  3
*X8484
  1

  0
LINE
  5
6EB
  8
回03-記事
  6
CONTINUOUS
 62
     7
 10
2620.709388908111
 20
1318.115576389978
 30
0.0
 11
2622.790545735573
 21
1320.19673321744
 31
0.0
  0
LINE
  5
6EC
  8
回03-記事
  6
CONTINUOUS
 62
     7
 10
2620.709388908111
 20
1315.87051235971
 30
0.0
 11
2625.03560976584
 21
1320.19673321744
 31
0.0
  0
LINE
  5
6ED
  8
回03-記事
  6
CONTINUOUS
 62
     7
 10
2621.280673796108
 20
1314.19673321744
 30
0.0
 11
2627.280673796108
 21
1320.19673321744
 31
0.0
  0
LINE
  5
6EE
  8
回03-記事
  6
CONTINUOUS
 62
     7
 10
2623.525737826375
 20
1314.19673321744
 30
0.0
 11
2628.909388908111
 21
1319.580384299176
 31
0.0
  0
LINE
  5
6EF
  8
回03-記事
  6
CONTINUOUS
 62
     7
 10
2625.770801856643
 20
1314.19673321744
 30
0.0
 11
2628.909388908111
 21
1317.335320268908
 31
0.0
  0
LINE
  5
6F0
  8
回03-記事
  6
CONTINUOUS
 62
     7
 10
2628.015865886911
 20
1314.19673321744
 30
0.0
 11
2628.909388908111
 21
1315.090256238641
 31
0.0
  0
ENDBLK
  5
6F2
  8
0
  6
CONTINUOUS
 62
     5
  0
BLOCK
  8
0
  2
*X8585
 70
     1
 10
0.0
 20
0.0
 30
0.0
  3
*X8585
  1

  0
TEXT
  5
71C
  8
回02-寸法
  6
CONTINUOUS
 62
     5
 10
769.8694251809372
 20
-1633.661149884543
 30
0.0
 40
6.0
  1
80
  0
TEXT
  5
71D
  8
回02-寸法
  6
CONTINUOUS
 62
     5
 10
778.2694251809372
 20
-1633.661149884543
 30
0.0
 40
4.2
  1
±1
  0
ENDBLK
  5
71F
  8
0
  6
CONTINUOUS
 62
     5
  0
BLOCK
  8
0
  2
*X8686
 70
     1
 10
0.0
 20
0.0
 30
0.0
  3
*X8686
  1

  0
TEXT
  5
722
  8
回02-寸法
 62
     5
 10
725.7807678262021
 20
-1655.036343524197
 30
0.0
 40
6.0
  1
6.25
 50
90.0
  0
TEXT
  5
723
  8
回02-寸法
 62
     5
 10
725.7807678262021
 20
-1640.636343524197
 30
0.0
 40
4.2
  1
±0.2
 50
90.0
  0
ENDBLK
  5
725
  8
0
  6
CONTINUOUS
 62
     5
  0
BLOCK
  8
0
  2
*X8787
 70
     1
 10
0.0
 20
0.0
 30
0.0
  3
*X8787
  1

  0
TEXT
  5
728
  8
回02-寸法
  6
CONTINUOUS
 62
     5
 10
965.1888327630933
 20
-1533.252383912444
 30
0.0
 40
6.0
  1
344.73 
  0
TEXT
  5
729
  8
回02-寸法
  6
CONTINUOUS
 62
     5
 10
992.7888327630933
 20
-1533.252383912444
 30
0.0
 40
4.5
  1
(ACTIVE AREA)
  0
ENDBLK
  5
72B
  8
0
  6
CONTINUOUS
 62
     5
  0
BLOCK
  8
0
  2
*X8888
 70
     1
 10
0.0
 20
0.0
 30
0.0
  3
*X8888
  1

  0
TEXT
  5
72E
  8
回02-寸法
  6
CONTINUOUS
 62
     5
 10
964.1388327630933
 20
-1523.252383912444
 30
0.0
 40
6.0
  1
348.73 
  0
TEXT
  5
72F
  8
回02-寸法
  6
CONTINUOUS
 62
     5
 10
991.1388327630932
 20
-1523.252383912444
 30
0.0
 40
4.5
  1
(VIEWING AREA)
  0
ENDBLK
  5
731
  8
0
  6
CONTINUOUS
 62
     5
  0
BLOCK
  8
0
  2
*X8989
 70
     1
 10
0.0
 20
0.0
 30
0.0
  3
*X8989
  1

  0
TEXT
  5
734
  8
回02-寸法
  6
CONTINUOUS
 62
     5
 10
985.4754469363214
 20
-1503.477383912444
 30
0.0
 40
6.0
  1
361.5
  0
TEXT
  5
735
  8
回02-寸法
  6
CONTINUOUS
 62
     5
 10
1002.875446936321
 20
-1503.477383912444
 30
0.0
 40
4.2
  1
±0.3
  0
ENDBLK
  5
737
  8
0
  6
CONTINUOUS
 62
     5
  0
BLOCK
  8
0
  2
*X9090
 70
     1
 10
0.0
 20
0.0
 30
0.0
  3
*X9090
  1

  0
TEXT
  5
73A
  8
回02-寸法
  6
CONTINUOUS
 62
     5
 10
1202.499446936321
 20
-1697.649840632479
 30
0.0
 40
6.0
  1
194.04 
 50
90.0
  0
TEXT
  5
73B
  8
回02-寸法
  6
CONTINUOUS
 62
     5
 10
1202.499446936321
 20
-1671.228178421317
 30
0.0
 40
4.5
  1
(ACTIVE AREA)
 50
90.0
  0
ENDBLK
  5
73D
  8
0
  6
CONTINUOUS
 62
     5
  0
BLOCK
  8
0
  2
*X9191
 70
     1
 10
0.0
 20
0.0
 30
0.0
  3
*X9191
  1

  0
TEXT
  5
740
  8
回02-寸法
  6
CONTINUOUS
 62
     5
 10
1212.499446936321
 20
-1698.699840632479
 30
0.0
 40
6.0
  1
198.04 
 50
90.0
  0
TEXT
  5
741
  8
回02-寸法
  6
CONTINUOUS
 62
     5
 10
1212.499446936321
 20
-1672.878178421317
 30
0.0
 40
4.5
  1
(VIEWING AREA)
 50
90.0
  0
ENDBLK
  5
743
  8
0
  6
CONTINUOUS
 62
     5
  0
BLOCK
  8
0
  2
*X9292
 70
     1
 10
0.0
 20
0.0
 30
0.0
  3
*X9292
  1

  0
TEXT
  5
746
  8
回02-寸法
  6
CONTINUOUS
 62
     5
 10
1232.72385638514
 20
-1677.952389633056
 30
0.0
 40
6.0
  1
210.2
 50
90.0
  0
TEXT
  5
747
  8
回02-寸法
  6
CONTINUOUS
 62
     5
 10
1232.72385638514
 20
-1660.552389633056
 30
0.0
 40
4.2
  1
±0.3
 50
90.0
  0
ENDBLK
  5
749
  8
0
  6
CONTINUOUS
 62
     5
  0
BLOCK
  8
0
  2
*X9393
 70
     1
 10
0.0
 20
0.0
 30
0.0
  3
*X9393
  1

  0
TEXT
  5
74C
  8
回02-寸法
  6
CONTINUOUS
 62
     5
 10
1186.103582420133
 20
-1851.007052871049
 30
0.0
 40
6.0
  1
2.1
 50
90.0
  0
TEXT
  5
74D
  8
回02-寸法
  6
CONTINUOUS
 62
     5
 10
1186.103582420133
 20
-1842.007052871049
 30
0.0
 40
3.75
  1
±0.2
 50
90.0
  0
ENDBLK
  5
74F
  8
0
  6
CONTINUOUS
 62
     5
  0
BLOCK
  8
0
  2
*X9494
 70
     1
 10
0.0
 20
0.0
 30
0.0
  3
*X9494
  1

  0
TEXT
  5
752
  8
回02-寸法
  6
CONTINUOUS
 62
     5
 10
728.7183211593283
 20
-1854.057331281761
 30
0.0
 40
6.0
  1
0.3
 50
90.0
  0
TEXT
  5
753
  8
回02-寸法
  6
CONTINUOUS
 62
     5
 10
728.7183211593283
 20
-1843.857331281761
 30
0.0
 40
4.199999999999998
  1
±0.05
 50
90.0
  0
ENDBLK
  5
755
  8
0
  6
CONTINUOUS
 62
     5
  0
BLOCK
  8
0
  2
*X9595
 70
     1
 10
0.0
 20
0.0
 30
0.0
  3
*X9595
  1

  0
TEXT
  5
758
  8
回02-寸法
  6
CONTINUOUS
 62
     5
 10
655.4757071625337
 20
-1605.20270668159
 30
0.0
 40
6.0
  1
6.25
 50
90.0
  0
TEXT
  5
759
  8
回02-寸法
  6
CONTINUOUS
 62
     5
 10
655.4757071625337
 20
-1590.80270668159
 30
0.0
 40
4.000199999999998
  1
±0.2
 50
90.0
  0
ENDBLK
  5
75B
  8
0
  6
CONTINUOUS
 62
     5
  0
BLOCK
  8
0
  2
*X9696
 70
     1
 10
0.0
 20
0.0
 30
0.0
  3
*X9696
  1

  0
TEXT
  5
75E
  8
回02-寸法
  6
CONTINUOUS
 62
     5
 10
673.2358943807462
 20
-1602.802817581062
 30
0.0
 40
6.0
  1
1.25
 50
90.0
  0
TEXT
  5
75F
  8
回02-寸法
  6
CONTINUOUS
 62
     5
 10
673.2358943807462
 20
-1589.602817581061
 30
0.0
 40
4.999979999999998
  1
±0.2
 50
90.0
  0
ENDBLK
  5
761
  8
0
  6
CONTINUOUS
 62
     5
  0
BLOCK
  8
0
  2
*X9797
 70
     1
 10
0.0
 20
0.0
 30
0.0
  3
*X9797
  1

  0
TEXT
  5
764
  8
回02-寸法
  6
CONTINUOUS
 62
     5
 10
664.769030737353
 20
-1600.802203737168
 30
0.0
 40
6.0
  1
3.75
 50
90.0
  0
TEXT
  5
765
  8
回02-寸法
  6
CONTINUOUS
 62
     5
 10
664.769030737353
 20
-1586.402203737168
 30
0.0
 40
4.00002
  1
±0.1
 50
90.0
  0
ENDBLK
  5
767
  8
0
  6
CONTINUOUS
 62
     5
  0
BLOCK
  8
0
  2
*X9898
 70
     1
 10
0.0
 20
0.0
 30
0.0
  3
*X9898
  1

  0
TEXT
  5
76A
  8
回02-寸法
  6
CONTINUOUS
 62
     5
 10
682.6064463351867
 20
-1607.551162737168
 30
0.0
 40
6.0
  1
4-0.7
 50
90.0
  0
TEXT
  5
76B
  8
回02-寸法
  6
CONTINUOUS
 62
     5
 10
682.6064463351867
 20
-1588.351162737168
 30
0.0
 40
4.5
  1
±0.1
 50
90.0
  0
ENDBLK
  5
76D
  8
0
  6
CONTINUOUS
 62
     5
  0
BLOCK
  8
0
  2
*X9999
 70
     1
 10
0.0
 20
0.0
 30
0.0
  3
*X9999
  1

  0
TEXT
  5
770
  8
回02-寸法
  6
CONTINUOUS
 62
     5
 10
2490.691388306976
 20
1377.962101020072
 30
0.0
 40
6.0
  1
4-0.7
 50
90.0
  0
TEXT
  5
771
  8
回02-寸法
  6
CONTINUOUS
 62
     5
 10
2490.691388306976
 20
1397.162101020072
 30
0.0
 40
4.5
  1
±0.1
 50
90.0
  0
ENDBLK
  5
773
  8
0
  6
CONTINUOUS
 62
     5
  0
BLOCK
  8
0
  2
*X100100
 70
     1
 10
0.0
 20
0.0
 30
0.0
  3
*X100100
  1

  0
TEXT
  5
776
  8
回02-寸法
  6
CONTINUOUS
 62
     5
 10
2472.853972709142
 20
1384.711060020072
 30
0.0
 40
6.0
  1
3.75
 50
90.0
  0
TEXT
  5
777
  8
回02-寸法
  6
CONTINUOUS
 62
     5
 10
2472.853972709142
 20
1399.111060020072
 30
0.0
 40
4.00002
  1
±0.1
 50
90.0
  0
ENDBLK
  5
779
  8
0
  6
CONTINUOUS
 62
     5
  0
BLOCK
  8
0
  2
*X101101
 70
     1
 10
0.0
 20
0.0
 30
0.0
  3
*X101101
  1

  0
TEXT
  5
77C
  8
回02-寸法
  6
CONTINUOUS
 62
     5
 10
2481.321426903716
 20
1382.710446176178
 30
0.0
 40
6.0
  1
1.25
 50
90.0
  0
TEXT
  5
77D
  8
回02-寸法
  6
CONTINUOUS
 62
     5
 10
2481.321426903716
 20
1395.910446176177
 30
0.0
 40
4.999979999999998
  1
±0.2
 50
90.0
  0
ENDBLK
  5
77F
  8
0
  6
CONTINUOUS
 62
     5
  0
BLOCK
  8
0
  2
*X102102
 70
     1
 10
0.0
 20
0.0
 30
0.0
  3
*X102102
  1

  0
TEXT
  5
782
  8
回02-寸法
  6
CONTINUOUS
 62
     5
 10
2463.561239685504
 20
1380.609766481613
 30
0.0
 40
6.0
  1
6.25
 50
90.0
  0
TEXT
  5
783
  8
回02-寸法
  6
CONTINUOUS
 62
     5
 10
2463.561239685504
 20
1395.009766481614
 30
0.0
 40
4.000199999999998
  1
±0.2
 50
90.0
  0
ENDBLK
  5
785
  8
0
  6
CONTINUOUS
 62
     5
  0
BLOCK
  8
0
  2
*X103103
 70
     1
 10
0.0
 20
0.0
 30
0.0
  3
*X103103
  1

  0
TEXT
  5
788
  8
回02-寸法
  6
CONTINUOUS
 62
     5
 10
2994.189114943103
 20
1134.50621088619
 30
0.0
 40
6.0
  1
2.1
 50
90.0
  0
TEXT
  5
789
  8
回02-寸法
  6
CONTINUOUS
 62
     5
 10
2994.189114943103
 20
1143.50621088619
 30
0.0
 40
3.75
  1
±0.2
 50
90.0
  0
ENDBLK
  5
78B
  8
0
  6
CONTINUOUS
 62
     5
  0
BLOCK
  8
0
  2
*X104104
 70
     1
 10
0.0
 20
0.0
 30
0.0
  3
*X104104
  1

  0
TEXT
  5
78E
  8
回02-寸法
  6
CONTINUOUS
 62
     5
 10
2536.803263131117
 20
1131.455932475478
 30
0.0
 40
6.0
  1
0.3
 50
90.0
  0
TEXT
  5
78F
  8
回02-寸法
  6
CONTINUOUS
 62
     5
 10
2536.803263131117
 20
1141.655932475478
 30
0.0
 40
4.199999999999998
  1
±0.05
 50
90.0
  0
ENDBLK
  5
791
  8
0
  6
CONTINUOUS
 62
     5
  0
BLOCK
  8
0
  2
*X105105
 70
     1
 10
0.0
 20
0.0
 30
0.0
  3
*X105105
  1

  0
TEXT
  5
794
  8
回02-寸法
  6
CONTINUOUS
 62
     5
 10
3040.80938890811
 20
1307.560874124183
 30
0.0
 40
6.0
  1
210.2
 50
90.0
  0
TEXT
  5
795
  8
回02-寸法
  6
CONTINUOUS
 62
     5
 10
3040.80938890811
 20
1324.960874124183
 30
0.0
 40
4.2
  1
±0.3
 50
90.0
  0
ENDBLK
  5
797
  8
0
  6
CONTINUOUS
 62
     5
  0
BLOCK
  8
0
  2
*X106106
 70
     1
 10
0.0
 20
0.0
 30
0.0
  3
*X106106
  1

  0
TEXT
  5
79A
  8
回02-寸法
  6
CONTINUOUS
 62
     5
 10
3020.58438890811
 20
1286.813423124761
 30
0.0
 40
6.0
  1
198.04 
 50
90.0
  0
TEXT
  5
79B
  8
回02-寸法
  6
CONTINUOUS
 62
     5
 10
3020.58438890811
 20
1312.635085335922
 30
0.0
 40
4.5
  1
(VIEWING AREA)
 50
90.0
  0
ENDBLK
  5
79D
  8
0
  6
CONTINUOUS
 62
     5
  0
BLOCK
  8
0
  2
*X107107
 70
     1
 10
0.0
 20
0.0
 30
0.0
  3
*X107107
  1

  0
TEXT
  5
7A0
  8
回02-寸法
  6
CONTINUOUS
 62
     5
 10
3010.584388908111
 20
1287.86342312476
 30
0.0
 40
6.0
  1
194.04 
 50
90.0
  0
TEXT
  5
7A1
  8
回02-寸法
  6
CONTINUOUS
 62
     5
 10
3010.584388908111
 20
1314.285085335922
 30
0.0
 40
4.5
  1
(ACTIVE AREA)
 50
90.0
  0
ENDBLK
  5
7A3
  8
0
  6
CONTINUOUS
 62
     5
  0
BLOCK
  8
0
  2
*X108108
 70
     1
 10
0.0
 20
0.0
 30
0.0
  3
*X108108
  1

  0
TEXT
  5
7A6
  8
回02-寸法
  6
CONTINUOUS
 62
     5
 10
2793.56038890811
 20
1482.035879844796
 30
0.0
 40
6.0
  1
361.5
  0
TEXT
  5
7A7
  8
回02-寸法
  6
CONTINUOUS
 62
     5
 10
2810.960388908111
 20
1482.035879844796
 30
0.0
 40
4.2
  1
±0.3
  0
ENDBLK
  5
7A9
  8
0
  6
CONTINUOUS
 62
     5
  0
BLOCK
  8
0
  2
*X109109
 70
     1
 10
0.0
 20
0.0
 30
0.0
  3
*X109109
  1

  0
TEXT
  5
7AC
  8
回02-寸法
  6
CONTINUOUS
 62
     5
 10
2772.223774734883
 20
1462.260879844796
 30
0.0
 40
6.0
  1
348.73 
  0
TEXT
  5
7AD
  8
回02-寸法
  6
CONTINUOUS
 62
     5
 10
2799.223774734882
 20
1462.260879844796
 30
0.0
 40
4.5
  1
(VIEWING AREA)
  0
ENDBLK
  5
7AF
  8
0
  6
CONTINUOUS
 62
     5
  0
BLOCK
  8
0
  2
*X110110
 70
     1
 10
0.0
 20
0.0
 30
0.0
  3
*X110110
  1

  0
TEXT
  5
7B2
  8
回02-寸法
  6
CONTINUOUS
 62
     5
 10
2773.273774734883
 20
1452.260879844796
 30
0.0
 40
6.0
  1
344.73 
  0
TEXT
  5
7B3
  8
回02-寸法
  6
CONTINUOUS
 62
     5
 10
2800.873774734883
 20
1452.260879844796
 30
0.0
 40
4.5
  1
(ACTIVE AREA)
  0
ENDBLK
  5
7B5
  8
0
  6
CONTINUOUS
 62
     5
  0
BLOCK
  8
0
  2
*X111111
 70
     1
 10
0.0
 20
0.0
 30
0.0
  3
*X111111
  1

  0
TEXT
  5
7B8
  8
回02-寸法
  6
CONTINUOUS
 62
     5
 10
2533.866300349172
 20
1330.476920233042
 30
0.0
 40
6.0
  1
6.25
 50
90.0
  0
TEXT
  5
7B9
  8
回02-寸法
  6
CONTINUOUS
 62
     5
 10
2533.866300349172
 20
1344.876920233043
 30
0.0
 40
4.2
  1
±0.2
 50
90.0
  0
ENDBLK
  5
7BB
  8
0
  6
CONTINUOUS
 62
     5
  0
BLOCK
  8
0
  2
*X112112
 70
     1
 10
0.0
 20
0.0
 30
0.0
  3
*X112112
  1

  0
TEXT
  5
7BE
  8
回02-寸法
  6
CONTINUOUS
 62
     5
 10
2577.954367152726
 20
1351.852113872697
 30
0.0
 40
6.0
  1
80
  0
TEXT
  5
7BF
  8
回02-寸法
  6
CONTINUOUS
 62
     5
 10
2586.354367152726
 20
1351.852113872697
 30
0.0
 40
4.2
  1
±1
  0
ENDBLK
  5
7C1
  8
0
  6
CONTINUOUS
 62
     5
  0
ENDSEC
  0
SECTION
  2
ENTITIES
  0
TEXT
  5
62
  8
回03-記事
  6
CONTINUOUS
 62
     5
 10
2674.701558775653
 20
1062.938986141515
 30
0.0
 40
8.0
  1
without affecting product specification.
  0
TEXT
  5
64
  8
回03-記事
  6
CONTINUOUS
 62
     5
 10
2674.701558775653
 20
1076.971828998515
 30
0.0
 40
8.0
  1
Edges and corners of ITO glass may be chamfered 
  0
TEXT
  5
65
  8
回03-記事
  6
CONTINUOUS
 62
     5
 10
2674.701558775653
 20
1091.004671855515
 30
0.0
 40
8.0
  1
Unit: mm
  0
TEXT
  5
66
  8
回03-記事
  6
CONTINUOUS
 62
     5
 10
2674.701558775653
 20
1105.037514712514
 30
0.0
 40
8.0
  1
EXCEPT WHERE INDICATED
  0
TEXT
  5
67
  8
回03-記事
  6
CONTINUOUS
 62
     5
 10
2674.701558775653
 20
1119.070357569514
 30
0.0
 40
8.0
  1
TOLERANCE=±0.5mm
  0
DIMENSION
  5
68
  8
回02-寸法
  6
CONTINUOUS
 62
     7
  2
*D3939
 10
2491.191388306976
 20
1414.735101020072
 30
0.0
 11
2491.191388306976
 21
1392.624601020072
 31
0.0
 70
   160
  1
4-0.7{\H0.75x;±0.1}
  3
STANDARD
 13
2501.574583824398
 23
1412.887101020072
 33
0.0
 14
2501.574583824398
 24
1414.735101020072
 34
0.0
 50
90.0
1001
ACAD
1000
DSTYLE
1002
{
1070
    41
1040
3.0
1070
    47
1040
0.3
1070
    48
1040
0.3
1070
   140
1040
6.0
1070
   141
1040
1.5
1070
   146
1040
0.7
1070
   271
1070
     1
1070
   272
1070
     1
1070
   283
1070
     0
1070
   288
1070
     0
1070
   341
1005
0
1070
   371
1070
    13
1070
   372
1070
    13
1002
}
  0
TEXT
  5
7C
  8
回02-寸法
 62
     5
 10
2473.516020363686
 20
1433.189390551008
 30
0.0
 40
6.0
  1
2-R0.5
1001
ACAD
1000
MTEXTBEGIN
1070
    73
1070
     1
1070
    44
1040
1.0
1070
    74
1070
     0
1000
MTEXTEND
  0
INSERT
  5
7D
  8
回02-寸法
 62
     1
 66
     1
  2
*X7777
 10
0.0
 20
0.0
 30
0.0
  0
SEQEND
  5
698
  8
0
  6
CONTINUOUS
 62
     5
  0
TEXT
  5
7E
  8
回03-記事
  6
CONTINUOUS
 62
     5
 10
2488.263800952044
 20
1443.204259175711
 30
0.0
 40
8.0
  1
SECTION A
  0
LINE
  5
7F
  8
回03-記事
  6
CONTINUOUS
 62
     7
 10
2497.747090557423
 20
1413.811101020072
 30
0.0
 11
2519.542193917406
 21
1413.811101020072
 31
0.0
  0
LINE
  5
80
  8
回03-記事
  6
CONTINUOUS
 62
     7
 10
2497.747205425849
 20
1417.111101020072
 30
0.0
 11
2519.542193917406
 21
1417.111101020072
 31
0.0
  0
LINE
  5
81
  8
回03-記事
  6
CONTINUOUS
 62
     7
 10
2497.747090557423
 20
1423.711101020072
 30
0.0
 11
2519.542193917406
 21
1423.711101020072
 31
0.0
  0
DIMENSION
  5
82
  8
回02-寸法
  6
CONTINUOUS
 62
     5
  2
*D4040
 10
2473.353972709142
 20
1423.711101020072
 30
0.0
 11
2473.353972709142
 21
1396.461080520072
 31
0.0
 70
   160
  1
3.75{\H0.66667x;±0.1}
  3
STANDARD
 13
2497.747205425849
 23
1413.811101020072
 33
0.0
 14
2497.747090557423
 24
1423.711101020072
 34
0.0
 50
90.0
1001
ACAD
1000
DSTYLE
1002
{
1070
    41
1040
3.0
1070
    47
1040
0.3
1070
    48
1040
0.3
1070
   140
1040
6.0
1070
   141
1040
1.5
1070
   146
1040
0.7
1070
   271
1070
     1
1070
   272
1070
     1
1070
   283
1070
     0
1070
   288
1070
     0
1070
   341
1005
0
1070
   371
1070
    13
1070
   372
1070
    13
1002
}
  0
DIMENSION
  5
93
  8
回02-寸法
  6
CONTINUOUS
 62
     5
  2
*D4141
 10
2481.821426903716
 20
1413.811101020072
 30
0.0
 11
2481.821426903716
 21
1395.385976482867
 31
0.0
 70
   160
  1
1.25{\H0.83333x;±0.2}
  3
STANDARD
 13
2497.747205425849
 23
1417.111101020072
 33
0.0
 14
2497.747205425849
 24
1413.811101020072
 34
0.0
 50
90.0
1001
ACAD
1000
DSTYLE
1002
{
1070
    41
1040
3.0
1070
    47
1040
0.3
1070
    48
1040
0.3
1070
   140
1040
6.0
1070
   141
1040
1.5
1070
   146
1040
0.7
1070
   271
1070
     1
1070
   272
1070
     1
1070
   283
1070
     0
1070
   288
1070
     0
1070
   341
1005
0
1070
   371
1070
    13
1070
   372
1070
    13
1002
}
  0
POLYLINE
  5
A4
  8
回03-記事
  6
CONTINUOUS
 62
     8
 66
     1
 10
0.0
 20
0.0
 30
0.0
 40
1.847999999999999
 41
1.847999999999999
  0
VERTEX
  5
A14
  8
回03-記事
  6
CONTINUOUS
 62
     8
 10
2501.574468955972
 20
1420.411101020072
 30
0.0
  0
VERTEX
  5
A16
  8
回03-記事
  6
CONTINUOUS
 62
     8
 10
2514.774583824398
 20
1420.411101020072
 30
0.0
  0
SEQEND
  5
A15
  8
0
  6
CONTINUOUS
 62
     5
  0
POLYLINE
  5
A5
  8
回03-記事
  6
CONTINUOUS
 62
     8
 66
     1
 10
0.0
 20
0.0
 30
0.0
 40
1.847999999999999
 41
1.847999999999999
  0
VERTEX
  5
A17
  8
回03-記事
  6
CONTINUOUS
 62
     8
 10
2501.574468955972
 20
1423.711101020072
 30
0.0
  0
VERTEX
  5
A19
  8
回03-記事
  6
CONTINUOUS
 62
     8
 10
2514.774583824398
 20
1423.711101020072
 30
0.0
  0
SEQEND
  5
A18
  8
0
  6
CONTINUOUS
 62
     5
  0
POLYLINE
  5
A6
  8
回03-記事
  6
CONTINUOUS
 62
     8
 66
     1
 10
0.0
 20
0.0
 30
0.0
 40
1.847999999999999
 41
1.847999999999999
  0
VERTEX
  5
A1A
  8
回03-記事
  6
CONTINUOUS
 62
     8
 10
2501.574468955972
 20
1413.811101020072
 30
0.0
  0
VERTEX
  5
A1C
  8
回03-記事
  6
CONTINUOUS
 62
     8
 10
2514.774583824398
 20
1413.811101020072
 30
0.0
  0
SEQEND
  5
A1B
  8
0
  6
CONTINUOUS
 62
     5
  0
POLYLINE
  5
A7
  8
回03-記事
  6
CONTINUOUS
 62
     8
 66
     1
 10
0.0
 20
0.0
 30
0.0
 40
1.847999999999999
 41
1.847999999999999
  0
VERTEX
  5
A1D
  8
回03-記事
  6
CONTINUOUS
 62
     8
 10
2501.574468955972
 20
1417.111101020072
 30
0.0
  0
VERTEX
  5
A1F
  8
回03-記事
  6
CONTINUOUS
 62
     8
 10
2514.774583824398
 20
1417.111101020072
 30
0.0
  0
SEQEND
  5
A1E
  8
0
  6
CONTINUOUS
 62
     5
  0
LINE
  5
A8
  8
回03-記事
  6
CONTINUOUS
 62
     8
 10
2502.894583824398
 20
1410.511101020079
 30
0.0
 11
2534.245458860044
 21
1410.511101020079
 31
0.0
  0
LINE
  5
A9
  8
回03-記事
  6
CONTINUOUS
 62
     8
 10
2501.574583824398
 20
1425.691101020079
 30
0.0
 11
2501.574583824398
 21
1411.83110102008
 31
0.0
  0
ARC
  5
AA
  8
回03-記事
  6
CONTINUOUS
 62
     8
 10
2502.894583824398
 20
1411.83110102008
 30
0.0
 40
1.32
 50
180.0
 51
270.0
  0
ARC
  5
AB
  8
回03-記事
  6
CONTINUOUS
 62
     8
 10
2502.894583824398
 20
1425.691101020079
 30
0.0
 40
1.32
 50
90.0
 51
180.0
  0
LINE
  5
AC
  8
回03-記事
  6
CONTINUOUS
 62
     8
 10
2502.894583824398
 20
1427.011101020078
 30
0.0
 11
2534.245458860044
 21
1427.011101020078
 31
0.0
  0
DIMENSION
  5
AD
  8
回02-寸法
  6
CONTINUOUS
 62
     5
  2
*D4242
 10
2464.061239685504
 20
1410.51110102008
 30
0.0
 11
2460.561239685504
 21
1392.760433750847
 31
0.0
 70
    32
  1
6.25{\H0.6667x;±0.2}
  3
STANDARD
 13
2502.894583824398
 23
1427.011101020078
 33
0.0
 14
2502.894583824398
 24
1410.51110102008
 34
0.0
 50
90.0
1001
ACAD
1000
DSTYLE
1002
{
1070
    41
1040
3.0
1070
    47
1040
0.3
1070
    48
1040
0.3
1070
   140
1040
6.0
1070
   141
1040
1.5
1070
   146
1040
0.7
1070
   271
1070
     1
1070
   272
1070
     1
1070
   283
1070
     0
1070
   288
1070
     0
1070
   341
1005
0
1070
   371
1070
    13
1070
   372
1070
    13
1002
}
  0
TEXT
  5
BE
  8
回03-記事
  6
CONTINUOUS
 62
     7
 10
3112.392512693896
 20
1419.835972361775
 30
0.0
 40
9.599999999999999
  1
Pin Assignment
  0
LINE
  5
BF
  8
回03-記事
  6
CONTINUOUS
 62
     7
 10
3176.71703571031
 20
1465.769281084457
 30
0.0
 11
3176.71703571031
 21
1512.569281084457
 31
0.0
  0
LINE
  5
C0
  8
回03-記事
  6
CONTINUOUS
 62
     7
 10
3202.45703571031
 20
1440.029281084457
 30
0.0
 11
3202.45703571031
 21
1538.309281084456
 31
0.0
  0
TEXT
  5
C1
  8
回03-記事
  6
CONTINUOUS
 62
     7
 10
3100.778982591664
 20
1508.895002021871
 30
0.0
 40
7.488000000000001
  1
3
  0
TEXT
  5
C2
  8
回03-記事
  6
CONTINUOUS
 62
     7
 10
3100.351098939596
 20
1534.876683322503
 30
0.0
 40
7.488000000000001
  1
4
  0
LINE
  5
C3
  8
回03-記事
  6
CONTINUOUS
 62
     7
 10
3165.110635710311
 20
1468.202881084456
 30
0.0
 11
3168.480235710311
 21
1461.463681084456
 31
0.0
  0
LINE
  5
C4
  8
回03-記事
  6
CONTINUOUS
 62
     7
 10
3168.480235710311
 20
1461.463681084456
 30
0.0
 11
3170.633035710312
 21
1465.769281084457
 31
0.0
  0
LINE
  5
C5
  8
回03-記事
  6
CONTINUOUS
 62
     7
 10
3158.371435710309
 20
1468.202881084456
 30
0.0
 11
3161.741035710312
 21
1461.463681084456
 31
0.0
  0
LINE
  5
C6
  8
回03-記事
  6
CONTINUOUS
 62
     7
 10
3155.001835710312
 20
1461.463681084456
 30
0.0
 11
3158.371435710309
 21
1468.202881084456
 31
0.0
  0
LINE
  5
C7
  8
回03-記事
  6
CONTINUOUS
 62
     7
 10
3161.741035710312
 20
1461.463681084456
 30
0.0
 11
3165.110635710311
 21
1468.202881084456
 31
0.0
  0
LINE
  5
C8
  8
回03-記事
  6
CONTINUOUS
 62
     7
 10
3144.893035710309
 20
1468.202881084456
 30
0.0
 11
3148.262635710312
 21
1461.463681084456
 31
0.0
  0
LINE
  5
C9
  8
回03-記事
  6
CONTINUOUS
 62
     7
 10
3144.33143571031
 20
1461.744481084456
 30
0.0
 11
3151.070635710312
 21
1465.114081084457
 31
0.0
  0
LINE
  5
CA
  8
回03-記事
  6
CONTINUOUS
 62
     7
 10
3144.33143571031
 20
1461.744481084456
 30
0.0
 11
3151.070635710312
 21
1458.374881084457
 31
0.0
  0
LINE
  5
CB
  8
回03-記事
  6
CONTINUOUS
 62
     7
 10
3144.33143571031
 20
1455.005281084456
 30
0.0
 11
3151.070635710312
 21
1458.374881084457
 31
0.0
  0
LINE
  5
CC
  8
回03-記事
  6
CONTINUOUS
 62
     7
 10
3144.33143571031
 20
1448.266081084456
 30
0.0
 11
3151.070635710312
 21
1451.635681084457
 31
0.0
  0
LINE
  5
CD
  8
回03-記事
  6
CONTINUOUS
 62
     7
 10
3144.33143571031
 20
1455.005281084456
 30
0.0
 11
3151.070635710312
 21
1451.635681084457
 31
0.0
  0
LINE
  5
CE
  8
回03-記事
  6
CONTINUOUS
 62
     7
 10
3144.33143571031
 20
1468.483681084456
 30
0.0
 11
3151.070635710312
 21
1471.853281084456
 31
0.0
  0
LINE
  5
CF
  8
回03-記事
  6
CONTINUOUS
 62
     7
 10
3144.33143571031
 20
1475.222881084456
 30
0.0
 11
3151.070635710312
 21
1478.592481084456
 31
0.0
  0
LINE
  5
D0
  8
回03-記事
  6
CONTINUOUS
 62
     7
 10
3144.33143571031
 20
1475.222881084456
 30
0.0
 11
3151.070635710312
 21
1471.853281084456
 31
0.0
  0
LINE
  5
D1
  8
回03-記事
  6
CONTINUOUS
 62
     7
 10
3144.33143571031
 20
1468.483681084456
 30
0.0
 11
3151.070635710312
 21
1465.114081084457
 31
0.0
  0
LINE
  5
D2
  8
回03-記事
  6
CONTINUOUS
 62
     7
 10
3138.15383571031
 20
1468.202881084456
 30
0.0
 11
3141.52343571031
 21
1461.463681084456
 31
0.0
  0
LINE
  5
D3
  8
回03-記事
  6
CONTINUOUS
 62
     7
 10
3134.784235710311
 20
1461.463681084456
 30
0.0
 11
3138.15383571031
 21
1468.202881084456
 31
0.0
  0
LINE
  5
D4
  8
回03-記事
  6
CONTINUOUS
 62
     7
 10
3129.261835710311
 20
1463.897281084456
 30
0.0
 11
3131.41463571031
 21
1468.202881084456
 31
0.0
  0
LINE
  5
D5
  8
回03-記事
  6
CONTINUOUS
 62
     7
 10
3131.41463571031
 20
1468.202881084456
 30
0.0
 11
3134.784235710311
 21
1461.463681084456
 31
0.0
  0
LINE
  5
D6
  8
回03-記事
  6
CONTINUOUS
 62
     7
 10
3141.52343571031
 20
1461.463681084456
 30
0.0
 11
3144.893035710309
 21
1468.202881084456
 31
0.0
  0
LINE
  5
D7
  8
回03-記事
  6
CONTINUOUS
 62
     7
 10
3147.70103571031
 20
1480.277281084456
 30
0.0
 11
3147.70103571031
 21
1485.893281084456
 31
0.0
  0
LINE
  5
D8
  8
回03-記事
  6
CONTINUOUS
 62
     7
 10
3148.262635710312
 20
1461.463681084456
 30
0.0
 11
3151.632235710311
 21
1468.202881084456
 31
0.0
  0
LINE
  5
D9
  8
回03-記事
  6
CONTINUOUS
 62
     7
 10
3147.70103571031
 20
1480.277281084456
 30
0.0
 11
3151.070635710312
 21
1478.592481084456
 31
0.0
  0
TEXT
  5
DA
  8
回03-記事
  6
CONTINUOUS
 62
     7
 10
3149.539747588065
 20
1487.127425820231
 30
0.0
 40
6.551999999999998
  1
YU
  0
LINE
  5
DB
  8
回03-記事
  6
CONTINUOUS
 62
     7
 10
3151.632235710311
 20
1468.202881084456
 30
0.0
 11
3155.001835710312
 21
1461.463681084456
 31
0.0
  0
LINE
  5
DC
  8
回03-記事
  6
CONTINUOUS
 62
     7
 10
3147.70103571031
 20
1440.029281084457
 30
0.0
 11
3147.70103571031
 21
1446.581281084456
 31
0.0
  0
LINE
  5
DD
  8
回03-記事
  6
CONTINUOUS
 62
     7
 10
3144.33143571031
 20
1448.266081084456
 30
0.0
 11
3147.70103571031
 21
1446.581281084456
 31
0.0
  0
TEXT
  5
DE
  8
回03-記事
  6
CONTINUOUS
 62
     7
 10
3130.489281911903
 20
1442.698174514847
 30
0.0
 40
6.551999999999998
  1
YD
  0
TEXT
  5
DF
  8
回03-記事
  6
CONTINUOUS
 62
     7
 10
3116.293515900241
 20
1466.64187228075
 30
0.0
 40
6.551999999999998
  1
XL
  0
TEXT
  5
E0
  8
回03-記事
  6
CONTINUOUS
 62
     7
 10
3101.069366083971
 20
1460.186640748231
 30
0.0
 40
7.488000000000001
  1
1
  0
TEXT
  5
E1
  8
回03-記事
  6
CONTINUOUS
 62
     7
 10
3100.495176530304
 20
1483.045747346931
 30
0.0
 40
7.488000000000001
  1
2
  0
LINE
  5
E2
  8
回03-記事
  6
CONTINUOUS
 62
     7
 10
3108.38903571031
 20
1485.893281084456
 30
0.0
 11
3147.70103571031
 21
1485.893281084456
 31
0.0
  0
LINE
  5
E3
  8
回03-記事
  6
CONTINUOUS
 62
     7
 10
3108.38903571031
 20
1463.897281084456
 30
0.0
 11
3129.261835710311
 21
1463.897281084456
 31
0.0
  0
LINE
  5
E4
  8
回03-記事
  6
CONTINUOUS
 62
     7
 10
3147.70103571031
 20
1440.029281084457
 30
0.0
 11
3202.45703571031
 21
1440.029281084457
 31
0.0
  0
LINE
  5
E5
  8
回03-記事
  6
CONTINUOUS
 62
     7
 10
3108.38903571031
 20
1538.309281084456
 30
0.0
 11
3202.45703571031
 21
1538.309281084456
 31
0.0
  0
LINE
  5
E6
  8
回03-記事
  6
CONTINUOUS
 62
     7
 10
3108.38903571031
 20
1512.569281084457
 30
0.0
 11
3176.71703571031
 21
1512.569281084457
 31
0.0
  0
LINE
  5
E7
  8
回03-記事
  6
CONTINUOUS
 62
     7
 10
3170.633035710312
 20
1465.769281084457
 30
0.0
 11
3176.71703571031
 21
1465.769281084457
 31
0.0
  0
TEXT
  5
E8
  8
回03-記事
  6
CONTINUOUS
 62
     7
 10
3170.988977524273
 20
1456.213434991718
 30
0.0
 40
6.551999999999998
  1
XR
  0
TEXT
  5
E9
  8
回02-寸法
  6
CONTINUOUS
 62
     5
 10
3039.789680927333
 20
1430.108255816676
 30
0.0
 40
6.0
  1
(Insulation Area)
 50
90.0
 41
0.8
  0
TEXT
  5
EA
  8
回02-寸法
  6
CONTINUOUS
 62
     5
 10
2990.791228497528
 20
1481.472510896681
 30
0.0
 40
6.0
  1
(Insulation Area)
 41
0.8
  0
TEXT
  5
EB
  8
回03-記事
  6
CONTINUOUS
 62
     5
 10
2484.554556080523
 20
1177.215803313376
 30
0.0
 40
6.0
  1
Trace Expose
1001
ACAD
1000
MTEXTBEGIN
1070
    73
1070
     1
1070
    44
1040
1.0
1070
    74
1070
     0
1000
MTEXTEND
  0
INSERT
  5
EC
  8
回03-記事
  6
CONTINUOUS
 62
     5
 66
     1
  2
*X7878
 10
0.0
 20
0.0
 30
0.0
  0
SEQEND
  5
6AB
  8
0
  6
CONTINUOUS
 62
     5
  0
TEXT
  5
EE
  8
回03-記事
  6
CONTINUOUS
 62
     5
 10
2553.033523361721
 20
1330.923097255838
 30
0.0
 40
5.0
  1
A
1001
ACAD
1000
MTEXTBEGIN
1070
    73
1070
     1
1070
    44
1040
1.0
1070
    74
1070
     0
1000
MTEXTEND
  0
INSERT
  5
EF
  8
回03-記事
  6
CONTINUOUS
 62
     5
 66
     1
  2
*X7979
 10
0.0
 20
0.0
 30
0.0
  0
SEQEND
  5
6B2
  8
0
  6
CONTINUOUS
 62
     5
  0
CIRCLE
  5
F0
  8
回03-記事
  6
CONTINUOUS
 62
     5
 10
2546.616812900629
 20
1321.193109113164
 30
0.0
 40
7.742816109002717
  0
TEXT
  5
F1
  8
回03-記事
  6
CONTINUOUS
 62
     5
 10
2567.221756262967
 20
1276.235804873735
 30
0.0
 40
4.0
  1
PROTECTION TAPE
1001
ACAD
1000
MTEXTBEGIN
1070
    73
1070
     1
1070
    44
1040
1.0
1070
    74
1070
     0
1000
MTEXTEND
  0
INSERT
  5
F2
  8
回03-記事
  6
CONTINUOUS
 62
     5
 66
     1
  2
*X8080
 10
0.0
 20
0.0
 30
0.0
  0
SEQEND
  5
6B9
  8
0
  6
CONTINUOUS
 62
     5
  0
TEXT
  5
F3
  8
回02-寸法
  6
CONTINUOUS
 62
     5
 10
2606.05611608548
 20
1342.531924208636
 30
0.0
 40
5.0
  1
2-R2
1001
ACAD
1000
MTEXTBEGIN
1070
    73
1070
     1
1070
    44
1040
1.0
1070
    74
1070
     0
1000
MTEXTEND
  0
INSERT
  5
F4
  8
回02-寸法
  6
CONTINUOUS
 62
     5
 66
     1
  2
*X8181
 10
0.0
 20
0.0
 30
0.0
  0
SEQEND
  5
6C0
  8
0
  6
CONTINUOUS
 62
     5
  0
TEXT
  5
F6
  8
回02-寸法
  6
CONTINUOUS
 62
     5
 10
2596.33481412199
 20
1335.829602805741
 30
0.0
 40
5.0
  1
4-R1
1001
ACAD
1000
MTEXTBEGIN
1070
    73
1070
     1
1070
    44
1040
1.0
1070
    74
1070
     0
1000
MTEXTEND
  0
INSERT
  5
F7
  8
回02-寸法
  6
CONTINUOUS
 62
     5
 66
     1
  2
*X8282
 10
0.0
 20
0.0
 30
0.0
  0
SEQEND
  5
6C7
  8
0
  6
CONTINUOUS
 62
     5
  0
LINE
  5
F9
  8
回04-図面枠
  6
CONTINUOUS
 62
     7
 10
3202.977008417272
 20
1040.300227082088
 30
0.0
 11
3202.977008417272
 21
1060.100227082088
 31
0.0
  0
LINE
  5
FB
  8
回04-図面枠
  6
CENTER2
 62
     7
 10
3213.307476215703
 20
1043.08999644739
 30
0.0
 11
3213.307476215703
 21
1056.950116729601
 31
0.0
  0
LINE
  5
FD
  8
回04-図面枠
  6
CONTINUOUS
 62
     7
 10
3222.745132652578
 20
1047.09378362503
 30
0.0
 11
3232.983326853025
 21
1044.487634414998
 31
0.0
  0
LINE
  5
FE
  8
回04-図面枠
  6
CONTINUOUS
 62
     7
 10
3222.745132652578
 20
1052.946329551961
 30
0.0
 11
3232.983326853025
 21
1055.552478761995
 31
0.0
  0
LINE
  5
FF
  8
回04-図面枠
  6
CONTINUOUS
 62
     7
 10
3232.983326853025
 20
1055.552478761995
 30
0.0
 11
3232.983326853025
 21
1044.487634414998
 31
0.0
  0
LINE
  5
100
  8
回04-図面枠
  6
CONTINUOUS
 62
     7
 10
3222.745132652578
 20
1052.946329551961
 30
0.0
 11
3222.745132652578
 21
1047.09378362503
 31
0.0
  0
LINE
  5
101
  8
回04-図面枠
  6
CENTER2
 62
     7
 10
3206.953647677547
 20
1050.020056588496
 30
0.0
 11
3233.890720932747
 21
1050.020056588496
 31
0.0
  0
CIRCLE
  5
102
  8
回04-図面枠
  6
CONTINUOUS
 62
     7
 10
3213.307476215703
 20
1050.020056588496
 30
0.0
 40
2.926272963466085
  0
CIRCLE
  5
103
  8
回04-図面枠
  6
CONTINUOUS
 62
     7
 10
3213.307476215703
 20
1050.020056588496
 30
0.0
 40
5.532422173497662
  0
TEXT
  5
104
  8
回03-記事
  6
CONTINUOUS
 62
     7
 10
3135.672006219613
 20
1125.316289616121
 30
0.0
 40
6.676899102719997
  1
PROTECTION TAPE
  0
TEXT
  5
105
  8
回03-記事
  6
CONTINUOUS
 62
     7
 10
3125.246730530232
 20
1125.281014859063
 30
0.0
 40
6.943975066828802
  1
6
  0
LINE
  5
106
  8
回03-記事
  6
CONTINUOUS
 62
     7
 10
3121.699016029421
 20
1123.28720144473
 30
0.0
 11
3225.142447279316
 21
1123.28720144473
 31
0.0
  0
TEXT
  5
107
  8
回03-記事
  6
CONTINUOUS
 62
     7
 10
3134.824425662588
 20
1148.17380774419
 30
0.0
 40
6.943975066828802
  1
STIFFENER
  0
TEXT
  5
108
  8
回03-記事
  6
CONTINUOUS
 62
     7
 10
3134.824425662588
 20
1136.600515966143
 30
0.0
 40
6.943975066828802
  1
REINFORCEMENT FILM
  0
TEXT
  5
109
  8
回03-記事
  6
CONTINUOUS
 62
     7
 10
3162.152555003795
 20
1194.927459118243
 30
0.0
 40
6.943975066828802
  1
ITEM
  0
LINE
  5
10A
  8
回03-記事
  6
CONTINUOUS
 62
     7
 10
3225.142447279316
 20
1123.28720144473
 30
0.0
 11
3225.142447279316
 21
1204.300243891066
 31
0.0
  0
TEXT
  5
10B
  8
回03-記事
  6
CONTINUOUS
 62
     7
 10
3125.246730530232
 20
1160.000890193203
 30
0.0
 40
6.943975066828802
  1
3
  0
TEXT
  5
10C
  8
回03-記事
  6
CONTINUOUS
 62
     7
 10
3125.246730530232
 20
1148.427598415158
 30
0.0
 40
6.943975066828802
  1
4
  0
TEXT
  5
10D
  8
回03-記事
  6
CONTINUOUS
 62
     7
 10
3125.246730530232
 20
1171.574181971258
 30
0.0
 40
6.943975066828802
  1
2
  0
TEXT
  5
10E
  8
回03-記事
  6
CONTINUOUS
 62
     7
 10
3125.246730530232
 20
1136.854306637111
 30
0.0
 40
6.943975066828802
  1
5
  0
LINE
  5
10F
  8
回03-記事
  6
CONTINUOUS
 62
     7
 10
3133.740572939407
 20
1204.300243891066
 30
0.0
 11
3133.740572939407
 21
1123.28720144473
 31
0.0
  0
LINE
  5
110
  8
回03-記事
  6
CONTINUOUS
 62
     7
 10
3121.699016029421
 20
1204.300243891066
 30
0.0
 11
3121.699016029421
 21
1123.28720144473
 31
0.0
  0
TEXT
  5
111
  8
回03-記事
  6
CONTINUOUS
 62
     7
 10
3125.246730530232
 20
1183.147473749302
 30
0.0
 40
6.943975066828802
  1
1
  0
LINE
  5
112
  8
回03-記事
  6
CONTINUOUS
 62
     7
 10
3121.699016029421
 20
1134.860493222778
 30
0.0
 11
3225.142447279316
 21
1134.860493222778
 31
0.0
  0
LINE
  5
113
  8
回03-記事
  6
CONTINUOUS
 62
     7
 10
3121.699016029421
 20
1204.300243891066
 30
0.0
 11
3225.142447279316
 21
1204.300243891066
 31
0.0
  0
LINE
  5
114
  8
回03-記事
  6
CONTINUOUS
 62
     7
 10
3121.699016029421
 20
1181.153660334973
 30
0.0
 11
3225.142447279316
 21
1181.153660334965
 31
0.0
  0
LINE
  5
115
  8
回03-記事
  6
CONTINUOUS
 62
     7
 10
3121.699016029421
 20
1192.72695211302
 30
0.0
 11
3225.142447279316
 21
1192.72695211302
 31
0.0
  0
LINE
  5
116
  8
回03-記事
  6
CONTINUOUS
 62
     7
 10
3121.699016029421
 20
1146.433785000828
 30
0.0
 11
3225.142447279316
 21
1146.433785000828
 31
0.0
  0
LINE
  5
117
  8
回03-記事
  6
CONTINUOUS
 62
     7
 10
3121.699016029421
 20
1158.007076778875
 30
0.0
 11
3225.142447279316
 21
1158.007076778875
 31
0.0
  0
LINE
  5
118
  8
回03-記事
  6
CONTINUOUS
 62
     7
 10
3121.699016029421
 20
1169.580368556923
 30
0.0
 11
3225.142447279316
 21
1169.580368556923
 31
0.0
  0
TEXT
  5
119
  8
回03-記事
  6
CONTINUOUS
 62
     7
 10
3134.824425662588
 20
1182.998512825705
 30
0.0
 40
6.943975066828802
  1
ITO FILM
  0
TEXT
  5
11A
  8
回03-記事
  6
CONTINUOUS
 62
     7
 10
3134.824425662588
 20
1171.425221047656
 30
0.0
 40
6.943975066828802
  1
ITO GLASS
  0
TEXT
  5
11B
  8
回03-記事
  6
CONTINUOUS
 62
     7
 10
3134.824425662588
 20
1159.851929269604
 30
0.0
 40
6.943975066828802
  1
TAIL
  0
TEXT
  5
11C
  8
回04-図面枠
 62
     7
 10
3123.054469751242
 20
1069.519699369977
 30
0.0
 40
9.899999999999996
  1
Sep/08/2023
 72
     1
 11
3161.664469751242
 21
1069.519699369977
 31
0.0
  0
TEXT
  5
11D
  8
回04-図面枠
  6
CONTINUOUS
 62
     7
 10
3151.666915359603
 20
1091.179784462909
 30
0.0
 40
5.939999999999998
  1
DATE
  0
TEXT
  5
11E
  8
回04-図面枠
 62
     7
 10
3106.326798933825
 20
1045.324888599729
 30
0.0
 40
9.899999999999996
  1
DMC Co., Ltd.
 72
     1
 11
3145.679298933825
 21
1045.324888599729
 31
0.0
  0
TEXT
  5
11F
  8
回04-図面枠
 62
     7
 10
2974.554469751243
 20
1074.934153828647
 30
0.0
 40
9.899999999999996
  1
LST-156WB080A
 72
     1
 11
3023.064469751242
 21
1074.934153828647
 31
0.0
  0
TEXT
  5
120
  8
回04-図面枠
 62
     7
 10
3004.353469751242
 20
1091.675787862427
 30
0.0
 40
5.939999999999998
  1
PART　No.
 72
     1
 11
3023.064469751242
 21
1091.675787862427
 31
0.0
  0
LINE
  5
121
  8
回04-図面枠
 62
     7
 10
2964.654469751242
 20
1050.200227082088
 30
0.0
 11
3081.474469751242
 21
1050.200227082088
 31
0.0
  0
TEXT
  5
122
  8
回04-図面枠
 62
     7
 10
2976.732469751242
 20
1052.477287930232
 30
0.0
 40
5.939999999999998
  1
STANDARD TOUCHSCREEN
 72
     1
 11
3023.064469751242
 21
1052.477287930232
 31
0.0
  0
TEXT
  5
123
  8
回04-図面枠
 62
     7
 10
2990.097469751242
 20
1042.577287930233
 30
0.0
 40
5.939999999999998
  1
CIRCUIT　DRAWING
 72
     1
 11
3023.064469751242
 21
1042.577287930233
 31
0.0
  0
LINE
  5
124
  8
回04-図面枠
 62
     7
 10
3087.414469751242
 20
1099.700227082088
 30
0.0
 11
3087.414469751242
 21
1040.300227082088
 31
0.0
  0
TEXT
  5
125
  8
回04-図面枠
 62
     7
 10
3013.560469751242
 20
1061.572594067447
 30
0.0
 40
5.939999999999998
  1
TYPE
 72
     1
 11
3023.064469751242
 21
1061.572594067447
 31
0.0
  0
LINE
  5
126
  8
回04-図面枠
 62
     7
 10
2958.714469751242
 20
1099.700227082088
 30
0.0
 11
2958.714469751242
 21
1040.300227082088
 31
0.0
  0
LINE
  5
127
  8
回04-図面枠
 62
     7
 10
2958.714469751242
 20
1070.000227082088
 30
0.0
 11
3087.414469751242
 21
1070.000227082088
 31
0.0
  0
LINE
  5
128
  8
回04-図面枠
 62
     7
 10
2958.714469751242
 20
1060.100227082088
 30
0.0
 11
3235.914469751242
 21
1060.100227082088
 31
0.0
  0
LINE
  5
129
  8
回04-図面枠
 62
     7
 10
2958.714469751242
 20
1099.700227082088
 30
0.0
 11
3235.914469751242
 21
1099.700227082088
 31
0.0
  0
LINE
  5
12A
  8
回04-図面枠
 62
     7
 10
2958.714469751242
 20
1089.800227082088
 30
0.0
 11
3235.914469751242
 21
1089.800227082088
 31
0.0
  0
TEXT
  5
12B
  8
回03-記事
  6
CONTINUOUS
 62
     7
 10
2962.47421280832
 20
1326.562073091984
 30
0.0
 40
8.0
  1
XR
  0
TEXT
  5
12C
  8
回03-記事
  6
CONTINUOUS
 62
     7
 10
2791.590296948613
 20
1405.32371946242
 30
0.0
 40
8.0
  1
YU
  0
TEXT
  5
12D
  8
回03-記事
  6
CONTINUOUS
 62
     7
 10
2791.120670626788
 20
1230.956679398425
 30
0.0
 40
8.0
  1
YD
  0
TEXT
  5
12E
  8
回03-記事
  6
CONTINUOUS
 62
     7
 10
2644.731267908683
 20
1327.307082581851
 30
0.0
 40
8.0
  1
XL
  0
ARC
  5
12F
  8
回01-TP外形
  6
CONTINUOUS
 62
     7
 10
2634.109388908111
 20
1164.632917323577
 30
0.0
 40
0.5
 50
0.0
 51
180.0
  0
ARC
  5
131
  8
回01-TP外形
  6
CONTINUOUS
 62
     7
 10
2638.109388908111
 20
1164.632917323577
 30
0.0
 40
0.5
 50
0.0
 51
180.0
  0
ARC
  5
132
  8
回01-TP外形
  6
CONTINUOUS
 62
     7
 10
2642.109388908111
 20
1164.632917323577
 30
0.0
 40
0.5
 50
0.0
 51
180.0
  0
ARC
  5
133
  8
回01-TP外形
  6
CONTINUOUS
 62
     7
 10
2646.10938890811
 20
1164.632917323577
 30
0.0
 40
0.5
 50
0.0
 51
180.0
  0
ARC
  5
134
  8
回01-TP外形
  6
CONTINUOUS
 62
     7
 10
2686.109388908111
 20
1164.632917323577
 30
0.0
 40
0.5
 50
0.0
 51
180.0
  0
ARC
  5
135
  8
回01-TP外形
  6
CONTINUOUS
 62
     7
 10
2670.109388908111
 20
1164.632917323577
 30
0.0
 40
0.5
 50
0.0
 51
180.0
  0
ARC
  5
136
  8
回01-TP外形
  6
CONTINUOUS
 62
     7
 10
2682.109388908111
 20
1164.632917323577
 30
0.0
 40
0.5
 50
0.0
 51
180.0
  0
ARC
  5
137
  8
回01-TP外形
  6
CONTINUOUS
 62
     7
 10
2674.109388908111
 20
1164.632917323577
 30
0.0
 40
0.5
 50
0.0
 51
180.0
  0
ARC
  5
138
  8
回01-TP外形
  6
CONTINUOUS
 62
     7
 10
2678.10938890811
 20
1164.632917323577
 30
0.0
 40
0.5
 50
0.0
 51
180.0
  0
ARC
  5
139
  8
回01-TP外形
  6
CONTINUOUS
 62
     7
 10
2654.109388908111
 20
1164.632917323577
 30
0.0
 40
0.5
 50
0.0
 51
180.0
  0
ARC
  5
13A
  8
回01-TP外形
  6
CONTINUOUS
 62
     7
 10
2650.109388908111
 20
1164.632917323577
 30
0.0
 40
0.5
 50
0.0
 51
180.0
  0
ARC
  5
13B
  8
回01-TP外形
  6
CONTINUOUS
 62
     7
 10
2662.10938890811
 20
1164.632917323577
 30
0.0
 40
0.5
 50
0.0
 51
180.0
  0
ARC
  5
13C
  8
回01-TP外形
  6
CONTINUOUS
 62
     7
 10
2658.109388908111
 20
1164.632917323577
 30
0.0
 40
0.5
 50
0.0
 51
180.0
  0
ARC
  5
13D
  8
回01-TP外形
  6
CONTINUOUS
 62
     7
 10
2666.109388908111
 20
1164.632917323577
 30
0.0
 40
0.5
 50
0.0
 51
180.0
  0
ARC
  5
13E
  8
回01-TP外形
  6
CONTINUOUS
 62
     7
 10
2726.10938890811
 20
1164.632917323577
 30
0.0
 40
0.5
 50
0.0
 51
180.0
  0
ARC
  5
13F
  8
回01-TP外形
  6
CONTINUOUS
 62
     7
 10
2710.10938890811
 20
1164.632917323577
 30
0.0
 40
0.5
 50
0.0
 51
180.0
  0
ARC
  5
140
  8
回01-TP外形
  6
CONTINUOUS
 62
     7
 10
2722.109388908111
 20
1164.632917323577
 30
0.0
 40
0.5
 50
0.0
 51
180.0
  0
ARC
  5
141
  8
回01-TP外形
  6
CONTINUOUS
 62
     7
 10
2714.109388908111
 20
1164.632917323577
 30
0.0
 40
0.5
 50
0.0
 51
180.0
  0
ARC
  5
142
  8
回01-TP外形
  6
CONTINUOUS
 62
     7
 10
2718.109388908111
 20
1164.632917323577
 30
0.0
 40
0.5
 50
0.0
 51
180.0
  0
ARC
  5
143
  8
回01-TP外形
  6
CONTINUOUS
 62
     7
 10
2694.10938890811
 20
1164.632917323577
 30
0.0
 40
0.5
 50
0.0
 51
180.0
  0
ARC
  5
144
  8
回01-TP外形
  6
CONTINUOUS
 62
     7
 10
2690.109388908111
 20
1164.632917323577
 30
0.0
 40
0.5
 50
0.0
 51
180.0
  0
ARC
  5
145
  8
回01-TP外形
  6
CONTINUOUS
 62
     7
 10
2702.109388908111
 20
1164.632917323577
 30
0.0
 40
0.5
 50
0.0
 51
180.0
  0
ARC
  5
146
  8
回01-TP外形
  6
CONTINUOUS
 62
     7
 10
2698.109388908111
 20
1164.632917323577
 30
0.0
 40
0.5
 50
0.0
 51
180.0
  0
ARC
  5
147
  8
回01-TP外形
  6
CONTINUOUS
 62
     7
 10
2706.109388908111
 20
1164.632917323577
 30
0.0
 40
0.5
 50
0.0
 51
180.0
  0
ARC
  5
148
  8
回01-TP外形
  6
CONTINUOUS
 62
     7
 10
2766.109388908111
 20
1164.632917323577
 30
0.0
 40
0.5
 50
0.0
 51
180.0
  0
ARC
  5
149
  8
回01-TP外形
  6
CONTINUOUS
 62
     7
 10
2750.109388908111
 20
1164.632917323577
 30
0.0
 40
0.5
 50
0.0
 51
180.0
  0
ARC
  5
14A
  8
回01-TP外形
  6
CONTINUOUS
 62
     7
 10
2762.10938890811
 20
1164.632917323577
 30
0.0
 40
0.5
 50
0.0
 51
180.0
  0
ARC
  5
14B
  8
回01-TP外形
  6
CONTINUOUS
 62
     7
 10
2754.109388908111
 20
1164.632917323577
 30
0.0
 40
0.5
 50
0.0
 51
180.0
  0
ARC
  5
14C
  8
回01-TP外形
  6
CONTINUOUS
 62
     7
 10
2758.10938890811
 20
1164.632917323577
 30
0.0
 40
0.5
 50
0.0
 51
180.0
  0
ARC
  5
14D
  8
回01-TP外形
  6
CONTINUOUS
 62
     7
 10
2734.109388908111
 20
1164.632917323577
 30
0.0
 40
0.5
 50
0.0
 51
180.0
  0
ARC
  5
14E
  8
回01-TP外形
  6
CONTINUOUS
 62
     7
 10
2730.10938890811
 20
1164.632917323577
 30
0.0
 40
0.5
 50
0.0
 51
180.0
  0
ARC
  5
14F
  8
回01-TP外形
  6
CONTINUOUS
 62
     7
 10
2742.10938890811
 20
1164.632917323577
 30
0.0
 40
0.5
 50
0.0
 51
180.0
  0
ARC
  5
150
  8
回01-TP外形
  6
CONTINUOUS
 62
     7
 10
2738.109388908111
 20
1164.632917323577
 30
0.0
 40
0.5
 50
0.0
 51
180.0
  0
ARC
  5
151
  8
回01-TP外形
  6
CONTINUOUS
 62
     7
 10
2746.10938890811
 20
1164.632917323577
 30
0.0
 40
0.5
 50
0.0
 51
180.0
  0
POLYLINE
  5
152
  8
回01-TP外形
  6
CONTINUOUS
 62
     7
 66
     1
 10
0.0
 20
0.0
 30
0.0
 70
     1
  0
VERTEX
  5
A20
  8
回01-TP外形
  6
CONTINUOUS
 62
     7
 10
2615.82938890811
 20
1164.632917323577
 30
0.0
  0
VERTEX
  5
A22
  8
回01-TP外形
  6
CONTINUOUS
 62
     7
 10
2624.80938890811
 20
1164.632917323577
 30
0.0
  0
VERTEX
  5
A23
  8
回01-TP外形
  6
CONTINUOUS
 62
     7
 10
2624.80938890811
 20
1163.132917323577
 30
0.0
  0
VERTEX
  5
A24
  8
回01-TP外形
  6
CONTINUOUS
 62
     7
 10
2615.82938890811
 20
1163.132917323577
 30
0.0
  0
SEQEND
  5
A21
  8
0
  6
CONTINUOUS
 62
     5
  0
ARC
  5
153
  8
回01-TP外形
  6
CONTINUOUS
 62
     7
 10
2978.10938890811
 20
1164.632917323577
 30
0.0
 40
0.5
 50
0.0
 51
180.0
  0
ARC
  5
154
  8
回01-TP外形
  6
CONTINUOUS
 62
     7
 10
2974.109388908111
 20
1164.632917323577
 30
0.0
 40
0.5
 50
0.0
 51
180.0
  0
ARC
  5
155
  8
回01-TP外形
  6
CONTINUOUS
 62
     7
 10
2970.10938890811
 20
1164.632917323577
 30
0.0
 40
0.5
 50
0.0
 51
180.0
  0
ARC
  5
156
  8
回01-TP外形
  6
CONTINUOUS
 62
     7
 10
2962.10938890811
 20
1164.632917323577
 30
0.0
 40
0.5
 50
0.0
 51
180.0
  0
ARC
  5
157
  8
回01-TP外形
  6
CONTINUOUS
 62
     7
 10
2966.10938890811
 20
1164.632917323577
 30
0.0
 40
0.5
 50
0.0
 51
180.0
  0
LINE
  5
158
  8
回01-TP外形
  6
CONTINUOUS
 62
     7
 10
2985.809388908111
 20
1164.632917323577
 30
0.0
 11
2985.809388908111
 21
1171.632917323576
 31
0.0
  0
LINE
  5
159
  8
回01-TP外形
  6
CONTINUOUS
 62
     7
 10
2544.809345397343
 20
1160.632917323577
 30
0.0
 11
2544.809345397343
 21
1167.632917323577
 31
0.0
  0
LINE
  5
15A
  8
回03-記事
  6
CONTINUOUS
 62
     7
 10
2617.063065657915
 20
1168.632917323576
 30
0.0
 11
2614.930383497146
 21
1171.518720182795
 31
0.0
  0
LINE
  5
15B
  8
回03-記事
  6
CONTINUOUS
 62
     7
 10
2616.985650208036
 20
1164.056353499356
 30
0.0
 11
2614.930383497146
 21
1171.518720182795
 31
0.0
  0
LINE
  5
15C
  8
回03-記事
  6
CONTINUOUS
 62
     7
 10
2553.851183144014
 20
1162.581478120351
 30
0.0
 11
2560.195908006381
 21
1160.426950360701
 31
0.0
  0
POLYLINE
  5
15D
  8
回01-TP外形
  6
CONTINUOUS
 62
     7
 66
     1
 10
0.0
 20
0.0
 30
0.0
 70
     1
  0
VERTEX
  5
A25
  8
回01-TP外形
  6
CONTINUOUS
 62
     7
 10
2549.80938890811
 20
1167.632917323577
 30
0.0
  0
VERTEX
  5
A27
  8
回01-TP外形
  6
CONTINUOUS
 62
     7
 10
2625.30938890811
 20
1167.632917323577
 30
0.0
  0
VERTEX
  5
A28
  8
回01-TP外形
  6
CONTINUOUS
 62
     7
 10
2625.30938890811
 20
1169.132917323577
 30
0.0
  0
VERTEX
  5
A29
  8
回01-TP外形
  6
CONTINUOUS
 62
     7
 10
2549.80938890811
 20
1169.132917323577
 30
0.0
  0
SEQEND
  5
A26
  8
0
  6
CONTINUOUS
 62
     5
  0
LINE
  5
15E
  8
回01-TP外形
  6
CONTINUOUS
 62
     7
 10
2632.56938890811
 20
1167.632917323577
 30
0.0
 11
2632.56938890811
 21
1164.632917323577
 31
0.0
  0
DIMENSION
  5
15F
  8
回02-寸法
  6
CONTINUOUS
 62
     7
  2
*D4343
 10
2625.30938890811
 20
1176.228018381735
 30
0.0
 11
2638.407026703385
 21
1180.028018381735
 31
0.0
 70
    32
  1
(<>)
  3
STANDARD
 13
2624.80938890811
 23
1164.632917323577
 33
0.0
 14
2625.30938890811
 24
1171.632917323576
 34
0.0
1001
ACAD
1000
DSTYLE
1002
{
1070
    41
1040
3.0
1070
    47
1040
0.3
1070
    48
1040
0.3
1070
   140
1040
6.0
1070
   141
1040
1.5
1070
   146
1040
0.7
1070
   271
1070
     1
1070
   272
1070
     1
1070
   283
1070
     0
1070
   288
1070
     0
1070
   341
1005
0
1070
   371
1070
    13
1070
   372
1070
    13
1002
}
  0
DIMENSION
  5
170
  8
回02-寸法
  6
CONTINUOUS
 62
     7
  2
*D4444
 10
2986.309388908111
 20
1179.811288405204
 30
0.0
 11
2999.407026703386
 21
1183.611288405204
 31
0.0
 70
    32
  1
(<>)
  3
STANDARD
 13
2985.809388908111
 23
1171.632917323576
 33
0.0
 14
2986.309388908111
 24
1164.632917323577
 34
0.0
1001
ACAD
1000
DSTYLE
1002
{
1070
    41
1040
3.0
1070
    47
1040
0.3
1070
    48
1040
0.3
1070
   140
1040
6.0
1070
   141
1040
1.5
1070
   146
1040
0.7
1070
   271
1070
     1
1070
   272
1070
     1
1070
   283
1070
     0
1070
   288
1070
     0
1070
   341
1005
0
1070
   371
1070
    13
1070
   372
1070
    13
1002
}
  0
LINE
  5
181
  8
回03-記事
  6
CONTINUOUS
 62
     7
 10
2625.535343299274
 20
1157.21029953953
 30
0.0
 11
2628.539880492664
 21
1151.349574455327
 31
0.0
  0
TEXT
  5
182
  8
回03-記事
  6
CONTINUOUS
 62
     7
 10
2628.50998830844
 20
1145.56557244429
 30
0.0
 40
5.0
  1
6
  0
LINE
  5
183
  8
回01-TP外形
  6
CONTINUOUS
 62
     7
 10
2623.30938890811
 20
1157.132917323576
 30
0.0
 11
2623.30938890811
 21
1161.632917323577
 31
0.0
  0
LINE
  5
184
  8
回01-TP外形
  6
CONTINUOUS
 62
     7
 10
2628.30938890811
 20
1157.132917323576
 30
0.0
 11
2623.30938890811
 21
1157.132917323576
 31
0.0
  0
LINE
  5
185
  8
回01-TP外形
  6
CONTINUOUS
 62
     7
 10
2628.30938890811
 20
1158.632917323576
 30
0.0
 11
2628.30938890811
 21
1157.132917323576
 31
0.0
  0
LINE
  5
186
  8
回01-TP外形
  6
CONTINUOUS
 62
     7
 10
2620.617905903709
 20
1161.632917323577
 30
0.0
 11
2623.30938890811
 21
1161.632917323577
 31
0.0
  0
LINE
  5
187
  8
回01-TP外形
  6
CONTINUOUS
 62
     7
 10
2620.617905903709
 20
1163.132917323577
 30
0.0
 11
2620.617905903709
 21
1161.632917323577
 31
0.0
  0
LINE
  5
188
  8
回01-TP外形
  6
CONTINUOUS
 62
     7
 10
2982.301388908111
 20
1164.632917323577
 30
0.0
 11
2982.301388908111
 21
1167.632917323577
 31
0.0
  0
LINE
  5
189
  8
回01-TP外形
  6
CONTINUOUS
 62
     7
 10
2986.309388908111
 20
1158.632917323576
 30
0.0
 11
2986.309388908111
 21
1164.632917323577
 31
0.0
  0
DIMENSION
  5
18A
  8
回02-寸法
  6
CONTINUOUS
 62
     7
  2
*D4545
 10
2994.689114943105
 20
1158.632917323575
 30
0.0
 11
2994.689114943105
 21
1143.675375492866
 31
0.0
 70
   160
  1
2.1{\H0.625x;±0.2}
  3
STANDARD
 13
2985.809388908111
 23
1171.632917323576
 33
0.0
 14
2986.309388908111
 24
1158.632917323575
 34
0.0
 50
90.0
1001
ACADSTRINGINFO
1000
MIFCodePage
1070
     1
1001
ACAD
1000
DSTYLE
1002
{
1070
    41
1040
3.0
1070
    47
1040
0.3
1070
    48
1040
0.3
1070
   140
1040
6.0
1070
   141
1040
1.5
1070
   146
1040
0.7
1070
   271
1070
     1
1070
   272
1070
     1
1070
   283
1070
     0
1070
   288
1070
     0
1070
   341
1005
0
1070
   371
1070
    13
1070
   372
1070
    13
1002
}
  0
ARC
  5
19B
  8
回01-TP外形
  6
CONTINUOUS
 62
     7
 10
2954.10938890811
 20
1164.632917323577
 30
0.0
 40
0.5
 50
0.0
 51
180.0
  0
ARC
  5
19C
  8
回01-TP外形
  6
CONTINUOUS
 62
     7
 10
2950.10938890811
 20
1164.632917323577
 30
0.0
 40
0.5
 50
0.0
 51
180.0
  0
ARC
  5
19D
  8
回01-TP外形
  6
CONTINUOUS
 62
     7
 10
2958.109388908111
 20
1164.632917323577
 30
0.0
 40
0.5
 50
0.0
 51
180.0
  0
ARC
  5
19E
  8
回01-TP外形
  6
CONTINUOUS
 62
     7
 10
2934.10938890811
 20
1164.632917323577
 30
0.0
 40
0.5
 50
0.0
 51
180.0
  0
ARC
  5
19F
  8
回01-TP外形
  6
CONTINUOUS
 62
     7
 10
2946.10938890811
 20
1164.632917323577
 30
0.0
 40
0.5
 50
0.0
 51
180.0
  0
ARC
  5
1A0
  8
回01-TP外形
  6
CONTINUOUS
 62
     7
 10
2938.10938890811
 20
1164.632917323577
 30
0.0
 40
0.5
 50
0.0
 51
180.0
  0
ARC
  5
1A1
  8
回01-TP外形
  6
CONTINUOUS
 62
     7
 10
2942.109388908111
 20
1164.632917323577
 30
0.0
 40
0.5
 50
0.0
 51
180.0
  0
ARC
  5
1A2
  8
回01-TP外形
  6
CONTINUOUS
 62
     7
 10
2918.10938890811
 20
1164.632917323577
 30
0.0
 40
0.5
 50
0.0
 51
180.0
  0
ARC
  5
1A3
  8
回01-TP外形
  6
CONTINUOUS
 62
     7
 10
2914.109388908111
 20
1164.632917323577
 30
0.0
 40
0.5
 50
0.0
 51
180.0
  0
ARC
  5
1A4
  8
回01-TP外形
  6
CONTINUOUS
 62
     7
 10
2926.10938890811
 20
1164.632917323577
 30
0.0
 40
0.5
 50
0.0
 51
180.0
  0
ARC
  5
1A5
  8
回01-TP外形
  6
CONTINUOUS
 62
     7
 10
2922.10938890811
 20
1164.632917323577
 30
0.0
 40
0.5
 50
0.0
 51
180.0
  0
ARC
  5
1A6
  8
回01-TP外形
  6
CONTINUOUS
 62
     7
 10
2930.10938890811
 20
1164.632917323577
 30
0.0
 40
0.5
 50
0.0
 51
180.0
  0
ARC
  5
1A7
  8
回01-TP外形
  6
CONTINUOUS
 62
     7
 10
2898.109388908111
 20
1164.632917323577
 30
0.0
 40
0.5
 50
0.0
 51
180.0
  0
ARC
  5
1A8
  8
回01-TP外形
  6
CONTINUOUS
 62
     7
 10
2902.10938890811
 20
1164.632917323577
 30
0.0
 40
0.5
 50
0.0
 51
180.0
  0
ARC
  5
1A9
  8
回01-TP外形
  6
CONTINUOUS
 62
     7
 10
2906.10938890811
 20
1164.632917323577
 30
0.0
 40
0.5
 50
0.0
 51
180.0
  0
ARC
  5
1AA
  8
回01-TP外形
  6
CONTINUOUS
 62
     7
 10
2910.10938890811
 20
1164.632917323577
 30
0.0
 40
0.5
 50
0.0
 51
180.0
  0
ARC
  5
1AB
  8
回01-TP外形
  6
CONTINUOUS
 62
     7
 10
2878.10938890811
 20
1164.632917323577
 30
0.0
 40
0.5
 50
0.0
 51
180.0
  0
ARC
  5
1AC
  8
回01-TP外形
  6
CONTINUOUS
 62
     7
 10
2882.109388908111
 20
1164.632917323577
 30
0.0
 40
0.5
 50
0.0
 51
180.0
  0
ARC
  5
1AD
  8
回01-TP外形
  6
CONTINUOUS
 62
     7
 10
2886.10938890811
 20
1164.632917323577
 30
0.0
 40
0.5
 50
0.0
 51
180.0
  0
ARC
  5
1AE
  8
回01-TP外形
  6
CONTINUOUS
 62
     7
 10
2890.10938890811
 20
1164.632917323577
 30
0.0
 40
0.5
 50
0.0
 51
180.0
  0
ARC
  5
1AF
  8
回01-TP外形
  6
CONTINUOUS
 62
     7
 10
2894.10938890811
 20
1164.632917323577
 30
0.0
 40
0.5
 50
0.0
 51
180.0
  0
ARC
  5
1B0
  8
回01-TP外形
  6
CONTINUOUS
 62
     7
 10
2870.10938890811
 20
1164.632917323577
 30
0.0
 40
0.5
 50
0.0
 51
180.0
  0
ARC
  5
1B1
  8
回01-TP外形
  6
CONTINUOUS
 62
     7
 10
2862.10938890811
 20
1164.632917323577
 30
0.0
 40
0.5
 50
0.0
 51
180.0
  0
ARC
  5
1B2
  8
回01-TP外形
  6
CONTINUOUS
 62
     7
 10
2866.109388908111
 20
1164.632917323577
 30
0.0
 40
0.5
 50
0.0
 51
180.0
  0
ARC
  5
1B3
  8
回01-TP外形
  6
CONTINUOUS
 62
     7
 10
2874.10938890811
 20
1164.632917323577
 30
0.0
 40
0.5
 50
0.0
 51
180.0
  0
LINE
  5
1B4
  8
回03-記事
  6
CONTINUOUS
 62
     7
 10
2847.58298401938
 20
1160.497044902397
 30
0.0
 11
2853.571169224652
 21
1153.611175263624
 31
0.0
  0
ARC
  5
1B5
  8
回01-TP外形
  6
CONTINUOUS
 62
     7
 10
2850.109388908111
 20
1164.632917323577
 30
0.0
 40
0.5
 50
0.0
 51
180.0
  0
ARC
  5
1B6
  8
回01-TP外形
  6
CONTINUOUS
 62
     7
 10
2842.10938890811
 20
1164.632917323577
 30
0.0
 40
0.5
 50
0.0
 51
180.0
  0
ARC
  5
1B7
  8
回01-TP外形
  6
CONTINUOUS
 62
     7
 10
2846.10938890811
 20
1164.632917323577
 30
0.0
 40
0.5
 50
0.0
 51
180.0
  0
TEXT
  5
1B8
  8
回03-記事
  6
CONTINUOUS
 62
     7
 10
2854.257769443794
 20
1149.269516902067
 30
0.0
 40
5.0
  1
2
  0
ARC
  5
1B9
  8
回01-TP外形
  6
CONTINUOUS
 62
     7
 10
2854.10938890811
 20
1164.632917323577
 30
0.0
 40
0.5
 50
0.0
 51
180.0
  0
ARC
  5
1BA
  8
回01-TP外形
  6
CONTINUOUS
 62
     7
 10
2858.10938890811
 20
1164.632917323577
 30
0.0
 40
0.5
 50
0.0
 51
180.0
  0
ARC
  5
1BB
  8
回01-TP外形
  6
CONTINUOUS
 62
     7
 10
2830.10938890811
 20
1164.632917323577
 30
0.0
 40
0.5
 50
0.0
 51
180.0
  0
ARC
  5
1BC
  8
回01-TP外形
  6
CONTINUOUS
 62
     7
 10
2826.10938890811
 20
1164.632917323577
 30
0.0
 40
0.5
 50
0.0
 51
180.0
  0
ARC
  5
1BD
  8
回01-TP外形
  6
CONTINUOUS
 62
     7
 10
2834.109388908111
 20
1164.632917323577
 30
0.0
 40
0.5
 50
0.0
 51
180.0
  0
ARC
  5
1BE
  8
回01-TP外形
  6
CONTINUOUS
 62
     7
 10
2838.10938890811
 20
1164.632917323577
 30
0.0
 40
0.5
 50
0.0
 51
180.0
  0
ARC
  5
1BF
  8
回01-TP外形
  6
CONTINUOUS
 62
     7
 10
2806.10938890811
 20
1164.632917323577
 30
0.0
 40
0.5
 50
0.0
 51
180.0
  0
ARC
  5
1C0
  8
回01-TP外形
  6
CONTINUOUS
 62
     7
 10
2810.10938890811
 20
1164.632917323577
 30
0.0
 40
0.5
 50
0.0
 51
180.0
  0
ARC
  5
1C1
  8
回01-TP外形
  6
CONTINUOUS
 62
     7
 10
2822.10938890811
 20
1164.632917323577
 30
0.0
 40
0.5
 50
0.0
 51
180.0
  0
ARC
  5
1C2
  8
回01-TP外形
  6
CONTINUOUS
 62
     7
 10
2814.109388908111
 20
1164.632917323577
 30
0.0
 40
0.5
 50
0.0
 51
180.0
  0
ARC
  5
1C3
  8
回01-TP外形
  6
CONTINUOUS
 62
     7
 10
2818.109388908111
 20
1164.632917323577
 30
0.0
 40
0.5
 50
0.0
 51
180.0
  0
ARC
  5
1C4
  8
回01-TP外形
  6
CONTINUOUS
 62
     7
 10
2790.10938890811
 20
1164.632917323577
 30
0.0
 40
0.5
 50
0.0
 51
180.0
  0
TEXT
  5
1C5
  8
回03-記事
  6
CONTINUOUS
 62
     7
 10
2789.332553160886
 20
1176.963763417459
 30
0.0
 40
5.0
  1
1
  0
ARC
  5
1C6
  8
回01-TP外形
  6
CONTINUOUS
 62
     7
 10
2802.109388908111
 20
1164.632917323577
 30
0.0
 40
0.5
 50
0.0
 51
180.0
  0
ARC
  5
1C7
  8
回01-TP外形
  6
CONTINUOUS
 62
     7
 10
2794.10938890811
 20
1164.632917323577
 30
0.0
 40
0.5
 50
0.0
 51
180.0
  0
ARC
  5
1C8
  8
回01-TP外形
  6
CONTINUOUS
 62
     7
 10
2798.109388908111
 20
1164.632917323577
 30
0.0
 40
0.5
 50
0.0
 51
180.0
  0
LINE
  5
1C9
  8
回03-記事
  6
CONTINUOUS
 62
     7
 10
2798.527770359554
 20
1169.947644881883
 30
0.0
 11
2793.217492134181
 21
1175.817566541165
 31
0.0
  0
ARC
  5
1CA
  8
回01-TP外形
  6
CONTINUOUS
 62
     7
 10
2774.10938890811
 20
1164.632917323577
 30
0.0
 40
0.5
 50
0.0
 51
180.0
  0
ARC
  5
1CB
  8
回01-TP外形
  6
CONTINUOUS
 62
     7
 10
2770.109388908111
 20
1164.632917323577
 30
0.0
 40
0.5
 50
0.0
 51
180.0
  0
ARC
  5
1CC
  8
回01-TP外形
  6
CONTINUOUS
 62
     7
 10
2782.109388908111
 20
1164.632917323577
 30
0.0
 40
0.5
 50
0.0
 51
180.0
  0
ARC
  5
1CD
  8
回01-TP外形
  6
CONTINUOUS
 62
     7
 10
2778.10938890811
 20
1164.632917323577
 30
0.0
 40
0.5
 50
0.0
 51
180.0
  0
ARC
  5
1CE
  8
回01-TP外形
  6
CONTINUOUS
 62
     7
 10
2786.109388908111
 20
1164.632917323577
 30
0.0
 40
0.5
 50
0.0
 51
180.0
  0
LINE
  5
1CF
  8
回01-TP外形
  6
CONTINUOUS
 62
     7
 10
2625.30938890811
 20
1167.632917323577
 30
0.0
 11
2625.30938890811
 21
1171.632917323576
 31
0.0
  0
LINE
  5
1D0
  8
回01-TP外形
  6
CONTINUOUS
 62
     7
 10
2624.80938890811
 20
1158.632917323576
 30
0.0
 11
2624.80938890811
 21
1164.632917323577
 31
0.0
  0
LINE
  5
1D1
  8
回01-TP外形
  6
CONTINUOUS
 62
     7
 10
2632.56938890811
 20
1164.632917323577
 30
0.0
 11
2632.56938890811
 21
1167.632917323577
 31
0.0
  0
LINE
  5
1D2
  8
回03-記事
  6
CONTINUOUS
 62
     7
 10
2607.754874831707
 20
1165.97097185422
 30
0.0
 11
2610.759412025097
 21
1160.110246770017
 31
0.0
  0
TEXT
  5
1D3
  8
回03-記事
  6
CONTINUOUS
 62
     7
 10
2610.729519840873
 20
1154.32624475898
 30
0.0
 40
5.0
  1
3
  0
TEXT
  5
1D4
  8
回03-記事
  6
CONTINUOUS
 62
     7
 10
2612.834912873025
 20
1172.069072903021
 30
0.0
 40
5.0
  1
5
  0
LINE
  5
1D5
  8
回01-TP外形
  6
CONTINUOUS
 62
     7
 10
2554.80938890811
 20
1160.632917323576
 30
0.0
 11
2554.80938890811
 21
1164.632917323577
 31
0.0
  0
TEXT
  5
1D6
  8
回03-記事
  6
CONTINUOUS
 62
     7
 10
2559.55737462776
 20
1158.242371045101
 30
0.0
 40
5.0
  1
4
  0
DIMENSION
  5
1D7
  8
回02-寸法
  6
CONTINUOUS
 62
     7
  2
*D4646
 10
2537.303263131117
 20
1160.632917323577
 30
0.0
 11
2537.303263131117
 21
1143.198570270754
 31
0.0
 70
   160
  1
0.3{\H0.7x;±0.05}
  3
STANDARD
 13
2544.80938890811
 23
1167.632917323577
 33
0.0
 14
2544.809345397343
 24
1160.632917323577
 34
0.0
 50
90.0
1001
ACADSTRINGINFO
1000
MIFCodePage
1070
     1
1001
ACAD
1000
DSTYLE
1002
{
1070
    41
1040
3.0
1070
    47
1040
0.3
1070
    48
1040
0.3
1070
   140
1040
6.0
1070
   141
1040
1.5
1070
   146
1040
0.7
1070
   271
1070
     1
1070
   272
1070
     1
1070
   283
1070
     0
1070
   288
1070
     0
1070
   341
1005
0
1070
   371
1070
    13
1070
   372
1070
    13
1002
}
  0
DIMENSION
  5
1E8
  8
回02-寸法
  6
CONTINUOUS
 62
     7
  2
*D4747
 10
2549.80938890811
 20
1174.914101213199
 30
0.0
 11
2557.692231620585
 21
1174.914101213199
 31
0.0
 70
   160
  3
STANDARD
 13
2544.80938890811
 23
1167.632917323577
 33
0.0
 14
2549.80938890811
 24
1167.632917323577
 34
0.0
1001
ACAD
1000
DSTYLE
1002
{
1070
    41
1040
3.0
1070
    47
1040
0.3
1070
    48
1040
0.3
1070
   140
1040
6.0
1070
   141
1040
1.5
1070
   146
1040
0.7
1070
   271
1070
     1
1070
   272
1070
     1
1070
   283
1070
     0
1070
   288
1070
     0
1070
   341
1005
0
1070
   371
1070
    13
1070
   372
1070
    13
1002
}
  0
LINE
  5
1F9
  8
回01-TP外形
  6
CONTINUOUS
 62
     7
 10
2544.80938890811
 20
1160.632917323576
 30
0.0
 11
2554.80938890811
 21
1160.632917323576
 31
0.0
  0
DIMENSION
  5
1FA
  8
回02-寸法
  6
CONTINUOUS
 62
     7
  2
*D4848
 10
2554.80938890811
 20
1148.583359542653
 30
0.0
 11
2566.407026703386
 21
1148.583359542653
 31
0.0
 70
   160
  1
(<>)
  3
STANDARD
 13
2544.809345397343
 23
1160.632917323577
 33
0.0
 14
2554.80938890811
 24
1160.632917323576
 34
0.0
1001
ACAD
1000
DSTYLE
1002
{
1070
    41
1040
3.0
1070
    47
1040
0.3
1070
    48
1040
0.3
1070
   140
1040
6.0
1070
   141
1040
1.5
1070
   146
1040
0.7
1070
   271
1070
     1
1070
   272
1070
     1
1070
   283
1070
     0
1070
   288
1070
     0
1070
   341
1005
0
1070
   371
1070
    13
1070
   372
1070
    13
1002
}
  0
LINE
  5
20B
  8
回01-TP外形
  6
CONTINUOUS
 62
     7
 10
2544.809345397343
 20
1164.632917323577
 30
0.0
 11
2986.309388908111
 21
1164.632917323577
 31
0.0
  0
LINE
  5
20C
  8
回01-TP外形
  6
CONTINUOUS
 62
     7
 10
2544.80938890811
 20
1167.632917323577
 30
0.0
 11
2985.809388908111
 21
1167.632917323577
 31
0.0
  0
LINE
  5
20D
  8
回01-TP外形
  6
CONTINUOUS
 62
     7
 10
2624.80938890811
 20
1158.632917323576
 30
0.0
 11
2986.309388908111
 21
1158.632917323576
 31
0.0
  0
LINE
  5
20E
  8
回01-TP外形
  6
CONTINUOUS
 62
     7
 10
2625.30938890811
 20
1171.632917323576
 30
0.0
 11
2985.809388908111
 21
1171.632917323576
 31
0.0
  0
TEXT
  5
20F
  8
回04-図面枠
 62
     7
 10
3194.643855056896
 20
1580.672650208139
 30
0.0
 40
4.0
  1
J
  0
LINE
  5
210
  8
回04-図面枠
 62
     7
 10
3155.914469751242
 20
1585.300227082088
 30
0.0
 11
3155.914469751242
 21
1580.300227082088
 31
0.0
  0
TEXT
  5
211
  8
回04-図面枠
 62
     7
 10
3114.643855056896
 20
1580.672650208139
 30
0.0
 40
4.0
  1
I
  0
LINE
  5
212
  8
回04-図面枠
 62
     7
 10
3075.914469751242
 20
1585.300227082088
 30
0.0
 11
3075.914469751242
 21
1580.300227082088
 31
0.0
  0
TEXT
  5
213
  8
回04-図面枠
 62
     7
 10
3237.318890754901
 20
1533.088914377947
 30
0.0
 40
4.0
  1
1
  0
LINE
  5
214
  8
回04-図面枠
 62
     7
 10
3240.914469751242
 20
1490.300227082088
 30
0.0
 11
3235.914469751242
 21
1490.300227082088
 31
0.0
  0
TEXT
  5
215
  8
回04-図面枠
 62
     7
 10
3237.017392051599
 20
1443.088914377947
 30
0.0
 40
4.0
  1
2
  0
LINE
  5
216
  8
回04-図面枠
 62
     7
 10
3240.914469751242
 20
1400.300227082088
 30
0.0
 11
3235.914469751242
 21
1400.300227082088
 31
0.0
  0
TEXT
  5
217
  8
回04-図面枠
 62
     7
 10
3237.0119112074
 20
1353.088914377947
 30
0.0
 40
4.0
  1
3
  0
LINE
  5
218
  8
回04-図面枠
 62
     7
 10
3240.914469751242
 20
1310.300227082088
 30
0.0
 11
3235.914469751242
 21
1310.300227082088
 31
0.0
  0
TEXT
  5
219
  8
回04-図面枠
 62
     7
 10
3236.938819087318
 20
1263.088914377947
 30
0.0
 40
4.0
  1
4
  0
LINE
  5
21A
  8
回04-図面枠
 62
     7
 10
3240.914469751242
 20
1220.300227082088
 30
0.0
 11
3235.914469751242
 21
1220.300227082088
 31
0.0
  0
TEXT
  5
21B
  8
回04-図面枠
 62
     7
 10
3236.938819087318
 20
1173.088914377947
 30
0.0
 40
4.0
  1
5
  0
LINE
  5
21C
  8
回04-図面枠
 62
     7
 10
3240.914469751242
 20
1130.300227082088
 30
0.0
 11
3235.914469751242
 21
1130.300227082088
 31
0.0
  0
TEXT
  5
21D
  8
回04-図面枠
 62
     7
 10
3236.938819087318
 20
1083.088914377947
 30
0.0
 40
4.0
  1
6
  0
TEXT
  5
21E
  8
回04-図面枠
 62
     7
 10
3194.643855056896
 20
1035.672650208139
 30
0.0
 40
4.0
  1
J
  0
LINE
  5
21F
  8
回04-図面枠
 62
     7
 10
3155.914469751242
 20
1040.300227082088
 30
0.0
 11
3155.914469751242
 21
1035.300227082088
 31
0.0
  0
TEXT
  5
220
  8
回04-図面枠
 62
     7
 10
3114.643855056896
 20
1035.672650208139
 30
0.0
 40
4.0
  1
I
  0
LINE
  5
221
  8
回04-図面枠
 62
     7
 10
3075.914469751242
 20
1040.300227082088
 30
0.0
 11
3075.914469751242
 21
1035.300227082088
 31
0.0
  0
LINE
  5
222
  8
回04-図面枠
 62
     7
 10
3235.914469751242
 20
1580.300227082088
 30
0.0
 11
3235.914469751242
 21
1040.300227082088
 31
0.0
  0
LINE
  5
223
  8
回04-図面枠
 62
     7
 10
3240.914469751242
 20
1035.300227082088
 30
0.0
 11
3240.914469751242
 21
1585.300227082088
 31
0.0
  0
TEXT
  5
224
  8
回04-図面枠
 62
     7
 10
3034.643855056895
 20
1580.672650208139
 30
0.0
 40
4.0
  1
H
  0
LINE
  5
225
  8
回04-図面枠
 62
     7
 10
2995.914469751242
 20
1585.300227082088
 30
0.0
 11
2995.914469751242
 21
1580.300227082088
 31
0.0
  0
TEXT
  5
226
  8
回04-図面枠
 62
     7
 10
2954.643855056895
 20
1580.672650208139
 30
0.0
 40
4.0
  1
G
  0
LINE
  5
227
  8
回04-図面枠
 62
     7
 10
2915.914469751242
 20
1585.300227082088
 30
0.0
 11
2915.914469751242
 21
1580.300227082088
 31
0.0
  0
TEXT
  5
228
  8
回04-図面枠
 62
     7
 10
2874.643855056895
 20
1580.672650208139
 30
0.0
 40
4.0
  1
F
  0
LINE
  5
229
  8
回04-図面枠
 62
     7
 10
2835.914469751242
 20
1585.300227082088
 30
0.0
 11
2835.914469751242
 21
1580.300227082088
 31
0.0
  0
TEXT
  5
22A
  8
回04-図面枠
 62
     7
 10
2794.643855056895
 20
1580.672650208139
 30
0.0
 40
4.0
  1
E
  0
LINE
  5
22B
  8
回04-図面枠
 62
     7
 10
2755.914469751242
 20
1585.300227082088
 30
0.0
 11
2755.914469751242
 21
1580.300227082088
 31
0.0
  0
TEXT
  5
22C
  8
回04-図面枠
 62
     7
 10
2714.643855056895
 20
1580.672650208139
 30
0.0
 40
4.0
  1
D
  0
LINE
  5
22D
  8
回04-図面枠
 62
     7
 10
2675.914469751242
 20
1585.300227082088
 30
0.0
 11
2675.914469751242
 21
1580.300227082088
 31
0.0
  0
TEXT
  5
22E
  8
回04-図面枠
 62
     7
 10
2634.643855056895
 20
1580.672650208139
 30
0.0
 40
4.0
  1
C
  0
LINE
  5
22F
  8
回04-図面枠
 62
     7
 10
2595.914469751242
 20
1585.300227082088
 30
0.0
 11
2595.914469751242
 21
1580.300227082088
 31
0.0
  0
TEXT
  5
230
  8
回04-図面枠
 62
     7
 10
2554.643855056895
 20
1580.672650208139
 30
0.0
 40
4.0
  1
B
  0
LINE
  5
231
  8
回04-図面枠
 62
     7
 10
2515.914469751242
 20
1585.300227082088
 30
0.0
 11
2515.914469751242
 21
1580.300227082088
 31
0.0
  0
TEXT
  5
232
  8
回04-図面枠
 62
     7
 10
2474.643855056895
 20
1580.672650208139
 30
0.0
 40
4.0
  1
A
  0
TEXT
  5
233
  8
回04-図面枠
 62
     7
 10
2432.318890754901
 20
1533.088914377947
 30
0.0
 40
4.0
  1
1
  0
LINE
  5
234
  8
回04-図面枠
 62
     7
 10
2435.914469751242
 20
1490.300227082088
 30
0.0
 11
2430.914469751242
 21
1490.300227082088
 31
0.0
  0
TEXT
  5
235
  8
回04-図面枠
 62
     7
 10
2432.017392051599
 20
1443.088914377947
 30
0.0
 40
4.0
  1
2
  0
LINE
  5
236
  8
回04-図面枠
 62
     7
 10
2435.914469751242
 20
1400.300227082088
 30
0.0
 11
2430.914469751242
 21
1400.300227082088
 31
0.0
  0
TEXT
  5
237
  8
回04-図面枠
 62
     7
 10
2432.011911207399
 20
1353.088914377947
 30
0.0
 40
4.0
  1
3
  0
LINE
  5
238
  8
回04-図面枠
 62
     7
 10
2435.914469751242
 20
1310.300227082088
 30
0.0
 11
2430.914469751242
 21
1310.300227082088
 31
0.0
  0
TEXT
  5
239
  8
回04-図面枠
 62
     7
 10
2431.938819087319
 20
1263.088914377947
 30
0.0
 40
4.0
  1
4
  0
LINE
  5
23A
  8
回04-図面枠
 62
     7
 10
2435.914469751242
 20
1220.300227082088
 30
0.0
 11
2430.914469751242
 21
1220.300227082088
 31
0.0
  0
TEXT
  5
23B
  8
回04-図面枠
 62
     7
 10
2431.938819087319
 20
1173.088914377947
 30
0.0
 40
4.0
  1
5
  0
TEXT
  5
23C
  8
回04-図面枠
 62
     7
 10
3034.643855056895
 20
1035.672650208139
 30
0.0
 40
4.0
  1
H
  0
LINE
  5
23D
  8
回04-図面枠
 62
     7
 10
2995.914469751242
 20
1040.300227082088
 30
0.0
 11
2995.914469751242
 21
1035.300227082088
 31
0.0
  0
TEXT
  5
23E
  8
回04-図面枠
 62
     7
 10
2954.643855056895
 20
1035.672650208139
 30
0.0
 40
4.0
  1
G
  0
LINE
  5
23F
  8
回04-図面枠
 62
     7
 10
2915.914469751242
 20
1040.300227082088
 30
0.0
 11
2915.914469751242
 21
1035.300227082088
 31
0.0
  0
TEXT
  5
240
  8
回04-図面枠
 62
     7
 10
2874.643855056895
 20
1035.672650208139
 30
0.0
 40
4.0
  1
F
  0
LINE
  5
241
  8
回04-図面枠
 62
     7
 10
2835.914469751242
 20
1040.300227082088
 30
0.0
 11
2835.914469751242
 21
1035.300227082088
 31
0.0
  0
TEXT
  5
242
  8
回04-図面枠
 62
     7
 10
2794.643855056895
 20
1035.672650208139
 30
0.0
 40
4.0
  1
E
  0
LINE
  5
243
  8
回04-図面枠
 62
     7
 10
2755.914469751242
 20
1040.300227082088
 30
0.0
 11
2755.914469751242
 21
1035.300227082088
 31
0.0
  0
TEXT
  5
244
  8
回04-図面枠
 62
     7
 10
2714.643855056895
 20
1035.672650208139
 30
0.0
 40
4.0
  1
D
  0
LINE
  5
245
  8
回04-図面枠
 62
     7
 10
2675.914469751242
 20
1040.300227082088
 30
0.0
 11
2675.914469751242
 21
1035.300227082088
 31
0.0
  0
TEXT
  5
246
  8
回04-図面枠
 62
     7
 10
2634.643855056895
 20
1035.672650208139
 30
0.0
 40
4.0
  1
C
  0
LINE
  5
247
  8
回04-図面枠
 62
     7
 10
2595.914469751242
 20
1040.300227082088
 30
0.0
 11
2595.914469751242
 21
1035.300227082088
 31
0.0
  0
LINE
  5
248
  8
回04-図面枠
 62
     7
 10
2435.914469751242
 20
1130.300227082088
 30
0.0
 11
2430.914469751242
 21
1130.300227082088
 31
0.0
  0
TEXT
  5
249
  8
回04-図面枠
 62
     7
 10
2431.938819087319
 20
1083.088914377947
 30
0.0
 40
4.0
  1
6
  0
TEXT
  5
24A
  8
回04-図面枠
 62
     7
 10
2554.643855056895
 20
1035.672650208139
 30
0.0
 40
4.0
  1
B
  0
LINE
  5
24B
  8
回04-図面枠
 62
     7
 10
2515.914469751242
 20
1040.300227082088
 30
0.0
 11
2515.914469751242
 21
1035.300227082088
 31
0.0
  0
TEXT
  5
24C
  8
回04-図面枠
 62
     7
 10
2474.643855056895
 20
1035.672650208139
 30
0.0
 40
4.0
  1
A
  0
LINE
  5
24D
  8
回04-図面枠
 62
     7
 10
2435.914469751242
 20
1580.300227082088
 30
0.0
 11
2435.914469751242
 21
1040.300227082088
 31
0.0
  0
LINE
  5
24E
  8
回04-図面枠
 62
     7
 10
2430.914469751242
 20
1035.300227082088
 30
0.0
 11
2430.914469751242
 21
1585.300227082088
 31
0.0
  0
LINE
  5
24F
  8
回04-図面枠
 62
     7
 10
2435.914469751242
 20
1040.300227082088
 30
0.0
 11
3235.914469751242
 21
1040.300227082088
 31
0.0
  0
LINE
  5
250
  8
回04-図面枠
 62
     7
 10
3240.914469751242
 20
1035.300227082088
 30
0.0
 11
2430.914469751242
 21
1035.300227082088
 31
0.0
  0
LINE
  5
251
  8
回04-図面枠
 62
     7
 10
2435.914469751242
 20
1580.300227082088
 30
0.0
 11
3235.914469751242
 21
1580.300227082088
 31
0.0
  0
LINE
  5
252
  8
回04-図面枠
 62
     7
 10
3240.914469751242
 20
1585.300227082088
 30
0.0
 11
2430.914469751242
 21
1585.300227082088
 31
0.0
  0
DIMENSION
  5
253
  8
回02-寸法
  6
CONTINUOUS
 62
     7
  2
*D4949
 10
2534.366300349169
 20
1216.33586840357
 30
0.0
 11
2530.563160570642
 21
1267.328800810501
 31
0.0
 70
    32
  1
(<>)
  3
STANDARD
 13
2545.309345397602
 23
1318.321733217432
 33
0.0
 14
2624.80938890811
 24
1216.33586840357
 34
0.0
 50
90.0
1001
ACAD
1000
DSTYLE
1002
{
1070
    41
1040
3.0
1070
    47
1040
0.3
1070
    48
1040
0.3
1070
   140
1040
6.0
1070
   141
1040
1.5
1070
   146
1040
0.7
1070
   271
1070
     2
1070
   272
1070
     1
1070
   283
1070
     0
1070
   288
1070
     0
1070
   341
1005
0
1070
   371
1070
    13
1070
   372
1070
    13
1002
}
  0
POLYLINE
  5
262
  8
回01-TP外形
  6
PHANTOM2
 62
     7
 66
     1
 10
0.0
 20
0.0
 30
0.0
 70
     1
  0
VERTEX
  5
A2A
  8
回01-TP外形
  6
PHANTOM2
 62
     7
 10
2632.569388908111
 20
1221.61786840357
 30
0.0
  0
VERTEX
  5
A2C
  8
回01-TP外形
  6
PHANTOM2
 62
     7
 10
2982.301388908111
 20
1221.61786840357
 30
0.0
  0
VERTEX
  5
A2D
  8
回01-TP外形
  6
PHANTOM2
 62
     7
 10
2982.301388908111
 20
1421.25386840357
 30
0.0
  0
VERTEX
  5
A2E
  8
回01-TP外形
  6
PHANTOM2
 62
     7
 10
2632.569388908111
 20
1421.25386840357
 30
0.0
  0
SEQEND
  5
A2B
  8
0
  6
CONTINUOUS
 62
     5
  0
DIMENSION
  5
264
  8
回02-寸法
  6
CONTINUOUS
 62
     7
  2
*D5050
 10
2986.309388908111
 20
1471.535879844796
 30
0.0
 11
3001.207026703387
 21
1475.335879844796
 31
0.0
 70
    32
  1
(<>)
  3
STANDARD
 13
2982.301388908111
 23
1421.25386840357
 33
0.0
 14
2986.309388908111
 24
1426.535879844797
 34
0.0
1001
ACADSTRINGINFO
1000
MIFCodePage
1070
     1
1001
ACAD
1000
DSTYLE
1002
{
1070
    41
1040
3.0
1070
    47
1040
0.3
1070
    48
1040
0.3
1070
   140
1040
6.0
1070
   141
1040
1.5
1070
   146
1040
0.7
1070
   271
1070
     2
1070
   272
1070
     1
1070
   283
1070
     0
1070
   288
1070
     0
1070
   341
1005
0
1070
   371
1070
    13
1070
   372
1070
    13
1002
}
  0
DIMENSION
  5
275
  8
回02-寸法
  6
CONTINUOUS
 62
     7
  2
*D5151
 10
2986.309388908111
 20
1461.535879844796
 30
0.0
 11
3001.207026703387
 21
1465.335879844796
 31
0.0
 70
    32
  1
(<>)
  3
STANDARD
 13
2981.80138890811
 23
1420.45386840357
 33
0.0
 14
2986.309388908111
 24
1426.535879844797
 34
0.0
1001
ACAD
1000
DSTYLE
1002
{
1070
    41
1040
3.0
1070
    47
1040
0.3
1070
    48
1040
0.3
1070
   140
1040
6.0
1070
   141
1040
1.5
1070
   146
1040
0.7
1070
   271
1070
     2
1070
   272
1070
     1
1070
   283
1070
     0
1070
   288
1070
     0
1070
   341
1005
0
1070
   371
1070
    13
1070
   372
1070
    13
1002
}
  0
DIMENSION
  5
286
  8
回02-寸法
  6
CONTINUOUS
 62
     7
  2
*D5252
 10
2986.309388908111
 20
1451.535879844796
 30
0.0
 11
3000.907026703386
 21
1451.535879844796
 31
0.0
 70
   160
  1
(<>)
  3
STANDARD
 13
2979.801388908111
 23
1418.45386840357
 33
0.0
 14
2986.309388908111
 24
1426.535879844797
 34
0.0
1001
ACAD
1000
DSTYLE
1002
{
1070
    41
1040
3.0
1070
    47
1040
0.3
1070
    48
1040
0.3
1070
   140
1040
6.0
1070
   141
1040
1.5
1070
   146
1040
0.7
1070
   271
1070
     2
1070
   272
1070
     1
1070
   283
1070
     0
1070
   288
1070
     0
1070
   341
1005
0
1070
   371
1070
    13
1070
   372
1070
    13
1002
}
  0
DIMENSION
  5
297
  8
回02-寸法
  6
CONTINUOUS
 62
     7
  2
*D5353
 10
3031.309388908113
 20
1216.335868403572
 30
0.0
 11
3027.509388908114
 21
1173.229549505934
 31
0.0
 70
    32
  1
<>(Insulation Area)
  3
STANDARD
 13
2982.301388908111
 23
1221.61786840357
 33
0.0
 14
2986.309388908111
 24
1216.335868403572
 34
0.0
 50
90.0
1001
ACADSTRINGINFO
1000
MIFCodePage
1070
     1
1001
ACAD
1000
DSTYLE
1002
{
1070
    41
1040
3.0
1070
    47
1040
0.3
1070
    48
1040
0.3
1070
   140
1040
6.0
1070
   141
1040
1.5
1070
   146
1040
0.7
1070
   271
1070
     2
1070
   272
1070
     1
1070
   283
1070
     0
1070
   288
1070
     0
1070
   341
1005
0
1070
   371
1070
    13
1070
   372
1070
    13
1002
}
  0
DIMENSION
  5
2A8
  8
回02-寸法
  6
CONTINUOUS
 62
     7
  2
*D5454
 10
3011.309388908109
 20
1426.535879844797
 30
0.0
 11
3011.309388908109
 21
1441.733517640072
 31
0.0
 70
   160
  1
(<>)
  3
STANDARD
 13
2979.801388908111
 23
1418.45386840357
 33
0.0
 14
2986.309388908111
 24
1426.535879844797
 34
0.0
 50
90.0
1001
ACAD
1000
DSTYLE
1002
{
1070
    41
1040
3.0
1070
    47
1040
0.3
1070
    48
1040
0.3
1070
   140
1040
6.0
1070
   141
1040
1.5
1070
   146
1040
0.7
1070
   271
1070
     2
1070
   272
1070
     1
1070
   283
1070
     0
1070
   288
1070
     0
1070
   341
1005
0
1070
   371
1070
    13
1070
   372
1070
    13
1002
}
  0
DIMENSION
  5
2B9
  8
回02-寸法
  6
CONTINUOUS
 62
     7
  2
*D5555
 10
3021.309388908113
 20
1426.535879844797
 30
0.0
 11
3017.509388908113
 21
1441.733517640072
 31
0.0
 70
    32
  1
(<>)
  3
STANDARD
 13
2981.80138890811
 23
1420.45386840357
 33
0.0
 14
2986.309388908111
 24
1426.535879844797
 34
0.0
 50
90.0
1001
ACAD
1000
DSTYLE
1002
{
1070
    41
1040
3.0
1070
    47
1040
0.3
1070
    48
1040
0.3
1070
   140
1040
6.0
1070
   141
1040
1.5
1070
   146
1040
0.7
1070
   271
1070
     2
1070
   272
1070
     1
1070
   283
1070
     0
1070
   288
1070
     0
1070
   341
1005
0
1070
   371
1070
    13
1070
   372
1070
    13
1002
}
  0
DIMENSION
  5
2CA
  8
回02-寸法
  6
CONTINUOUS
 62
     7
  2
*D5656
 10
3031.309388908113
 20
1426.535879844797
 30
0.0
 11
3027.509388908114
 21
1441.733517640072
 31
0.0
 70
    32
  1
(<>)
  3
STANDARD
 13
2982.301388908111
 23
1421.25386840357
 33
0.0
 14
2986.309388908111
 24
1426.535879844797
 34
0.0
 50
90.0
1001
ACADSTRINGINFO
1000
MIFCodePage
1070
     1
1001
ACAD
1000
DSTYLE
1002
{
1070
    41
1040
3.0
1070
    47
1040
0.3
1070
    48
1040
0.3
1070
   140
1040
6.0
1070
   141
1040
1.5
1070
   146
1040
0.7
1070
   271
1070
     2
1070
   272
1070
     1
1070
   283
1070
     0
1070
   288
1070
     0
1070
   341
1005
0
1070
   371
1070
    13
1070
   372
1070
    13
1002
}
  0
DIMENSION
  5
2DB
  8
回02-寸法
  6
CONTINUOUS
 62
     7
  2
*D5757
 10
3031.309388908111
 20
1221.61786840357
 30
0.0
 11
3031.309388908111
 21
1321.43586840357
 31
0.0
 70
   160
  3
STANDARD
 13
2982.301388908111
 23
1421.253868403569
 33
0.0
 14
2982.301388908111
 24
1221.61786840357
 34
0.0
 50
90.0
1001
ACAD
1000
DSTYLE
1002
{
1070
    41
1040
3.0
1070
    47
1040
0.3
1070
    48
1040
0.3
1070
   140
1040
6.0
1070
   141
1040
1.5
1070
   146
1040
0.7
1070
   271
1070
     2
1070
   272
1070
     1
1070
   283
1070
     0
1070
   288
1070
     0
1070
   341
1005
0
1070
   371
1070
    13
1070
   372
1070
    13
1002
}
  0
DIMENSION
  5
2EA
  8
回02-寸法
  6
CONTINUOUS
 62
     7
  2
*D5858
 10
2632.569388908111
 20
1471.535879844796
 30
0.0
 11
2807.43538890811
 21
1471.535879844796
 31
0.0
 70
   160
  3
STANDARD
 13
2982.301388908111
 23
1421.25386840357
 33
0.0
 14
2632.569388908111
 24
1421.25386840357
 34
0.0
1001
ACAD
1000
DSTYLE
1002
{
1070
    41
1040
3.0
1070
    47
1040
0.3
1070
    48
1040
0.3
1070
   140
1040
6.0
1070
   141
1040
1.5
1070
   146
1040
0.7
1070
   271
1070
     2
1070
   272
1070
     1
1070
   283
1070
     0
1070
   288
1070
     0
1070
   341
1005
0
1070
   371
1070
    13
1070
   372
1070
    13
1002
}
  0
DIMENSION
  5
2F9
  8
回02-寸法
  6
CONTINUOUS
 62
     7
  2
*D5959
 10
3021.309388908113
 20
1216.335868403572
 30
0.0
 11
3017.809388908113
 21
1203.535868403572
 31
0.0
 70
    32
  3
STANDARD
 13
2981.80138890811
 23
1222.41786840357
 33
0.0
 14
2986.309388908111
 24
1216.335868403572
 34
0.0
 50
90.0
1001
ACAD
1000
DSTYLE
1002
{
1070
    41
1040
3.0
1070
    47
1040
0.3
1070
    48
1040
0.3
1070
   140
1040
6.0
1070
   141
1040
1.5
1070
   146
1040
0.7
1070
   271
1070
     2
1070
   272
1070
     1
1070
   283
1070
     0
1070
   288
1070
     0
1070
   341
1005
0
1070
   371
1070
    13
1070
   372
1070
    13
1002
}
  0
DIMENSION
  5
30A
  8
回02-寸法
  6
CONTINUOUS
 62
     7
  2
*D6060
 10
3011.309388908109
 20
1216.335868403572
 30
0.0
 11
3011.309388908109
 21
1203.535868403571
 31
0.0
 70
   160
  3
STANDARD
 13
2979.801388908111
 23
1224.41786840357
 33
0.0
 14
2986.309388908111
 24
1216.335868403572
 34
0.0
 50
90.0
1001
ACAD
1000
DSTYLE
1002
{
1070
    41
1040
3.0
1070
    47
1040
0.3
1070
    48
1040
0.3
1070
   140
1040
6.0
1070
   141
1040
1.5
1070
   146
1040
0.7
1070
   271
1070
     2
1070
   272
1070
     1
1070
   283
1070
     0
1070
   288
1070
     0
1070
   341
1005
0
1070
   371
1070
    13
1070
   372
1070
    13
1002
}
  0
DIMENSION
  5
31B
  8
回02-寸法
  6
CONTINUOUS
 62
     7
  2
*D6161
 10
3041.309388908111
 20
1426.535879844796
 30
0.0
 11
3041.309388908111
 21
1321.435874124183
 31
0.0
 70
   160
  3
STANDARD
 13
2986.309388908111
 23
1216.335868403572
 33
0.0
 14
2986.309388908111
 24
1426.535879844796
 34
0.0
 50
90.0
1001
ACAD
1000
DSTYLE
1002
{
1070
   147
1040
0.5
1070
    72
1070
     0
1070
    71
1070
     1
1070
    41
1040
3.0
1070
    47
1040
0.3
1070
    48
1040
0.3
1070
   140
1040
6.0
1070
   141
1040
1.5
1070
   146
1040
0.7
1070
   271
1070
     2
1070
   272
1070
     1
1070
   283
1070
     0
1070
   288
1070
     0
1070
   341
1005
0
1070
   371
1070
    13
1070
   372
1070
    13
1002
}
  0
DIMENSION
  5
32A
  8
回02-寸法
  6
CONTINUOUS
 62
     7
  2
*D6262
 10
3021.309388908111
 20
1222.41786840357
 30
0.0
 11
3021.309388908111
 21
1321.43586840357
 31
0.0
 70
   160
  1
<> {\H0.75x;(VIEWING AREA)}
  3
STANDARD
 13
2981.80138890811
 23
1420.453868403569
 33
0.0
 14
2981.80138890811
 24
1222.41786840357
 34
0.0
 50
90.0
1001
ACAD
1000
DSTYLE
1002
{
1070
    41
1040
3.0
1070
    47
1040
0.3
1070
    48
1040
0.3
1070
   140
1040
6.0
1070
   141
1040
1.5
1070
   146
1040
0.7
1070
   271
1070
     2
1070
   272
1070
     1
1070
   283
1070
     0
1070
   288
1070
     0
1070
   341
1005
0
1070
   371
1070
    13
1070
   372
1070
    13
1002
}
  0
DIMENSION
  5
339
  8
回02-寸法
  6
CONTINUOUS
 62
     7
  2
*D6363
 10
3011.309388908111
 20
1418.45386840357
 30
0.0
 11
3011.309388908111
 21
1321.43586840357
 31
0.0
 70
   160
  1
<> {\H0.75x;(ACTIVE AREA)}
  3
STANDARD
 13
2979.801388908111
 23
1224.41786840357
 33
0.0
 14
2979.801388908111
 24
1418.45386840357
 34
0.0
 50
90.0
1001
ACAD
1000
DSTYLE
1002
{
1070
    41
1040
3.0
1070
    47
1040
0.3
1070
    48
1040
0.3
1070
   140
1040
6.0
1070
   141
1040
1.5
1070
   146
1040
0.7
1070
   271
1070
     2
1070
   272
1070
     1
1070
   283
1070
     0
1070
   288
1070
     0
1070
   341
1005
0
1070
   371
1070
    13
1070
   372
1070
    13
1002
}
  0
DIMENSION
  5
348
  8
回02-寸法
  6
CONTINUOUS
 62
     7
  2
*D6464
 10
2986.309388908111
 20
1481.535879844796
 30
0.0
 11
2807.43538890811
 21
1481.535879844796
 31
0.0
 70
   160
  3
STANDARD
 13
2624.80938890811
 23
1426.535879844798
 33
0.0
 14
2986.309388908111
 24
1426.535879844797
 34
0.0
1001
ACAD
1000
DSTYLE
1002
{
1070
   147
1040
0.5
1070
    72
1070
     0
1070
    71
1070
     1
1070
    41
1040
3.0
1070
    47
1040
0.3
1070
    48
1040
0.3
1070
   140
1040
6.0
1070
   141
1040
1.5
1070
   146
1040
0.7
1070
   271
1070
     2
1070
   272
1070
     1
1070
   283
1070
     0
1070
   288
1070
     0
1070
   341
1005
0
1070
   371
1070
    13
1070
   372
1070
    13
1002
}
  0
DIMENSION
  5
357
  8
回02-寸法
  6
CONTINUOUS
 62
     7
  2
*D6565
 10
2981.80138890811
 20
1461.535879844796
 30
0.0
 11
2807.43538890811
 21
1461.535879844796
 31
0.0
 70
   160
  1
<> {\H0.75x;(VIEWING AREA)}
  3
STANDARD
 13
2633.06938890811
 23
1420.45386840357
 33
0.0
 14
2981.80138890811
 24
1420.45386840357
 34
0.0
1001
ACAD
1000
DSTYLE
1002
{
1070
    41
1040
3.0
1070
    47
1040
0.3
1070
    48
1040
0.3
1070
   140
1040
6.0
1070
   141
1040
1.5
1070
   146
1040
0.7
1070
   271
1070
     2
1070
   272
1070
     1
1070
   283
1070
     0
1070
   288
1070
     0
1070
   341
1005
0
1070
   371
1070
    13
1070
   372
1070
    13
1002
}
  0
DIMENSION
  5
366
  8
回02-寸法
  6
CONTINUOUS
 62
     7
  2
*D6666
 10
2979.801388908111
 20
1451.535879844796
 30
0.0
 11
2807.43538890811
 21
1451.535879844796
 31
0.0
 70
   160
  1
<> {\H0.75x;(ACTIVE AREA)}
  3
STANDARD
 13
2635.069388908111
 23
1418.45386840357
 33
0.0
 14
2979.801388908111
 24
1418.45386840357
 34
0.0
1001
ACAD
1000
DSTYLE
1002
{
1070
    41
1040
3.0
1070
    47
1040
0.3
1070
    48
1040
0.3
1070
   140
1040
6.0
1070
   141
1040
1.5
1070
   146
1040
0.7
1070
   271
1070
     2
1070
   272
1070
     1
1070
   283
1070
     0
1070
   288
1070
     0
1070
   341
1005
0
1070
   371
1070
    13
1070
   372
1070
    13
1002
}
  0
LINE
  5
375
  8
回01-TP外形
  6
CENTER2
 62
     7
 10
2807.43538890811
 20
1422.45386840357
 30
0.0
 11
2807.43538890811
 21
1220.41786840357
 31
0.0
  0
LINE
  5
376
  8
回01-TP外形
  6
CENTER2
 62
     7
 10
2622.80938890811
 20
1321.435874124183
 30
0.0
 11
2988.309388908111
 21
1321.43586840357
 31
0.0
  0
INSERT
  5
377
  8
0
  6
CONTINUOUS
 62
     5
 66
     1
  2
*X8383
 10
0.0
 20
0.0
 30
0.0
1001
ACADSTRINGINFO
1000
MIFCodePage
1070
     1
1001
ACAD_MLEADERVER
1070
     2
  0
SEQEND
  5
6E4
  8
0
  6
CONTINUOUS
 62
     5
  0
DIMENSION
  5
379
  8
回02-寸法
  6
CONTINUOUS
 62
     7
  2
*D6767
 10
2839.43538890811
 20
1277.260644922917
 30
0.0
 11
2847.43538890811
 21
1280.760644922917
 31
0.0
 70
    32
  3
STANDARD
 13
2835.435388908111
 23
1285.43586840357
 33
0.0
 14
2839.43538890811
 24
1285.43586840357
 34
0.0
1001
ACAD
1000
DSTYLE
1002
{
1070
    41
1040
3.0
1070
    47
1040
0.3
1070
    48
1040
0.3
1070
   140
1040
6.0
1070
   141
1040
1.5
1070
   146
1040
0.7
1070
   271
1070
     1
1070
   272
1070
     1
1070
   283
1070
     0
1070
   288
1070
     0
1070
   341
1005
0
1070
   371
1070
    13
1070
   372
1070
    13
1002
}
  0
DIMENSION
  5
38A
  8
回02-寸法
  6
CONTINUOUS
 62
     7
  2
*D6868
 10
2853.562024523898
 20
1293.43586840357
 30
0.0
 11
2850.062024523898
 21
1285.43586840357
 31
0.0
 70
    32
  3
STANDARD
 13
2843.43538890811
 23
1297.43586840357
 33
0.0
 14
2843.43538890811
 24
1293.43586840357
 34
0.0
 50
90.0
1001
ACAD
1000
DSTYLE
1002
{
1070
    41
1040
3.0
1070
    47
1040
0.3
1070
    48
1040
0.3
1070
   140
1040
6.0
1070
   141
1040
1.5
1070
   146
1040
0.7
1070
   271
1070
     1
1070
   272
1070
     1
1070
   283
1070
     0
1070
   288
1070
     0
1070
   341
1005
0
1070
   371
1070
    13
1070
   372
1070
    13
1002
}
  0
CIRCLE
  5
39B
  8
回03-記事
  6
CONTINUOUS
 62
     7
 10
2843.43538890811
 20
1321.43586840357
 30
0.0
 40
0.025
  0
CIRCLE
  5
39C
  8
回03-記事
  6
CONTINUOUS
 62
     7
 10
2843.43538890811
 20
1317.43586840357
 30
0.0
 40
0.025
  0
CIRCLE
  5
39D
  8
回03-記事
  6
CONTINUOUS
 62
     7
 10
2843.43538890811
 20
1313.43586840357
 30
0.0
 40
0.025
  0
CIRCLE
  5
39E
  8
回03-記事
  6
CONTINUOUS
 62
     7
 10
2843.43538890811
 20
1309.43586840357
 30
0.0
 40
0.025
  0
CIRCLE
  5
39F
  8
回03-記事
  6
CONTINUOUS
 62
     7
 10
2843.43538890811
 20
1305.43586840357
 30
0.0
 40
0.025
  0
CIRCLE
  5
3A0
  8
回03-記事
  6
CONTINUOUS
 62
     7
 10
2843.43538890811
 20
1301.43586840357
 30
0.0
 40
0.025
  0
CIRCLE
  5
3A1
  8
回03-記事
  6
CONTINUOUS
 62
     7
 10
2843.43538890811
 20
1297.43586840357
 30
0.0
 40
0.025
  0
CIRCLE
  5
3A2
  8
回03-記事
  6
CONTINUOUS
 62
     7
 10
2843.43538890811
 20
1293.43586840357
 30
0.0
 40
0.025
  0
CIRCLE
  5
3A3
  8
回03-記事
  6
CONTINUOUS
 62
     7
 10
2843.43538890811
 20
1289.43586840357
 30
0.0
 40
0.025
  0
CIRCLE
  5
3A4
  8
回03-記事
  6
CONTINUOUS
 62
     7
 10
2843.43538890811
 20
1285.43586840357
 30
0.0
 40
0.025
  0
CIRCLE
  5
3A5
  8
回03-記事
  6
CONTINUOUS
 62
     7
 10
2839.43538890811
 20
1321.43586840357
 30
0.0
 40
0.025
  0
CIRCLE
  5
3A6
  8
回03-記事
  6
CONTINUOUS
 62
     7
 10
2839.43538890811
 20
1317.43586840357
 30
0.0
 40
0.025
  0
CIRCLE
  5
3A7
  8
回03-記事
  6
CONTINUOUS
 62
     7
 10
2839.43538890811
 20
1313.43586840357
 30
0.0
 40
0.025
  0
CIRCLE
  5
3A8
  8
回03-記事
  6
CONTINUOUS
 62
     7
 10
2839.43538890811
 20
1309.43586840357
 30
0.0
 40
0.025
  0
CIRCLE
  5
3A9
  8
回03-記事
  6
CONTINUOUS
 62
     7
 10
2839.43538890811
 20
1305.43586840357
 30
0.0
 40
0.025
  0
CIRCLE
  5
3AA
  8
回03-記事
  6
CONTINUOUS
 62
     7
 10
2839.43538890811
 20
1301.43586840357
 30
0.0
 40
0.025
  0
CIRCLE
  5
3AB
  8
回03-記事
  6
CONTINUOUS
 62
     7
 10
2839.43538890811
 20
1297.43586840357
 30
0.0
 40
0.025
  0
CIRCLE
  5
3AC
  8
回03-記事
  6
CONTINUOUS
 62
     7
 10
2839.43538890811
 20
1293.43586840357
 30
0.0
 40
0.025
  0
CIRCLE
  5
3AD
  8
回03-記事
  6
CONTINUOUS
 62
     7
 10
2839.43538890811
 20
1289.43586840357
 30
0.0
 40
0.025
  0
CIRCLE
  5
3AE
  8
回03-記事
  6
CONTINUOUS
 62
     7
 10
2839.43538890811
 20
1285.43586840357
 30
0.0
 40
0.025
  0
CIRCLE
  5
3AF
  8
回03-記事
  6
CONTINUOUS
 62
     7
 10
2835.435388908111
 20
1321.43586840357
 30
0.0
 40
0.025
  0
CIRCLE
  5
3B0
  8
回03-記事
  6
CONTINUOUS
 62
     7
 10
2835.435388908111
 20
1317.43586840357
 30
0.0
 40
0.025
  0
CIRCLE
  5
3B1
  8
回03-記事
  6
CONTINUOUS
 62
     7
 10
2835.435388908111
 20
1313.43586840357
 30
0.0
 40
0.025
  0
CIRCLE
  5
3B2
  8
回03-記事
  6
CONTINUOUS
 62
     7
 10
2835.435388908111
 20
1309.43586840357
 30
0.0
 40
0.025
  0
CIRCLE
  5
3B3
  8
回03-記事
  6
CONTINUOUS
 62
     7
 10
2835.435388908111
 20
1305.43586840357
 30
0.0
 40
0.025
  0
CIRCLE
  5
3B4
  8
回03-記事
  6
CONTINUOUS
 62
     7
 10
2835.435388908111
 20
1301.43586840357
 30
0.0
 40
0.025
  0
CIRCLE
  5
3B5
  8
回03-記事
  6
CONTINUOUS
 62
     7
 10
2835.435388908111
 20
1297.43586840357
 30
0.0
 40
0.025
  0
CIRCLE
  5
3B6
  8
回03-記事
  6
CONTINUOUS
 62
     7
 10
2835.435388908111
 20
1293.43586840357
 30
0.0
 40
0.025
  0
CIRCLE
  5
3B7
  8
回03-記事
  6
CONTINUOUS
 62
     7
 10
2835.435388908111
 20
1289.43586840357
 30
0.0
 40
0.025
  0
CIRCLE
  5
3B8
  8
回03-記事
  6
CONTINUOUS
 62
     7
 10
2835.435388908111
 20
1285.43586840357
 30
0.0
 40
0.025
  0
CIRCLE
  5
3B9
  8
回03-記事
  6
CONTINUOUS
 62
     7
 10
2831.43538890811
 20
1321.43586840357
 30
0.0
 40
0.025
  0
CIRCLE
  5
3BA
  8
回03-記事
  6
CONTINUOUS
 62
     7
 10
2831.43538890811
 20
1317.43586840357
 30
0.0
 40
0.025
  0
CIRCLE
  5
3BB
  8
回03-記事
  6
CONTINUOUS
 62
     7
 10
2831.43538890811
 20
1313.43586840357
 30
0.0
 40
0.025
  0
CIRCLE
  5
3BC
  8
回03-記事
  6
CONTINUOUS
 62
     7
 10
2831.43538890811
 20
1309.43586840357
 30
0.0
 40
0.025
  0
CIRCLE
  5
3BD
  8
回03-記事
  6
CONTINUOUS
 62
     7
 10
2831.43538890811
 20
1305.43586840357
 30
0.0
 40
0.025
  0
CIRCLE
  5
3BE
  8
回03-記事
  6
CONTINUOUS
 62
     7
 10
2831.43538890811
 20
1301.43586840357
 30
0.0
 40
0.025
  0
CIRCLE
  5
3BF
  8
回03-記事
  6
CONTINUOUS
 62
     7
 10
2831.43538890811
 20
1297.43586840357
 30
0.0
 40
0.025
  0
CIRCLE
  5
3C0
  8
回03-記事
  6
CONTINUOUS
 62
     7
 10
2831.43538890811
 20
1293.43586840357
 30
0.0
 40
0.025
  0
CIRCLE
  5
3C1
  8
回03-記事
  6
CONTINUOUS
 62
     7
 10
2831.43538890811
 20
1289.43586840357
 30
0.0
 40
0.025
  0
CIRCLE
  5
3C2
  8
回03-記事
  6
CONTINUOUS
 62
     7
 10
2831.43538890811
 20
1285.43586840357
 30
0.0
 40
0.025
  0
CIRCLE
  5
3C3
  8
回03-記事
  6
CONTINUOUS
 62
     7
 10
2827.43538890811
 20
1321.43586840357
 30
0.0
 40
0.025
  0
CIRCLE
  5
3C4
  8
回03-記事
  6
CONTINUOUS
 62
     7
 10
2827.43538890811
 20
1317.43586840357
 30
0.0
 40
0.025
  0
CIRCLE
  5
3C5
  8
回03-記事
  6
CONTINUOUS
 62
     7
 10
2827.43538890811
 20
1313.43586840357
 30
0.0
 40
0.025
  0
CIRCLE
  5
3C6
  8
回03-記事
  6
CONTINUOUS
 62
     7
 10
2827.43538890811
 20
1309.43586840357
 30
0.0
 40
0.025
  0
CIRCLE
  5
3C7
  8
回03-記事
  6
CONTINUOUS
 62
     7
 10
2827.43538890811
 20
1305.43586840357
 30
0.0
 40
0.025
  0
CIRCLE
  5
3C8
  8
回03-記事
  6
CONTINUOUS
 62
     7
 10
2827.43538890811
 20
1301.43586840357
 30
0.0
 40
0.025
  0
CIRCLE
  5
3C9
  8
回03-記事
  6
CONTINUOUS
 62
     7
 10
2827.43538890811
 20
1297.43586840357
 30
0.0
 40
0.025
  0
CIRCLE
  5
3CA
  8
回03-記事
  6
CONTINUOUS
 62
     7
 10
2827.43538890811
 20
1293.43586840357
 30
0.0
 40
0.025
  0
CIRCLE
  5
3CB
  8
回03-記事
  6
CONTINUOUS
 62
     7
 10
2827.43538890811
 20
1289.43586840357
 30
0.0
 40
0.025
  0
CIRCLE
  5
3CC
  8
回03-記事
  6
CONTINUOUS
 62
     7
 10
2827.43538890811
 20
1285.43586840357
 30
0.0
 40
0.025
  0
CIRCLE
  5
3CD
  8
回03-記事
  6
CONTINUOUS
 62
     7
 10
2823.43538890811
 20
1321.43586840357
 30
0.0
 40
0.025
  0
CIRCLE
  5
3CE
  8
回03-記事
  6
CONTINUOUS
 62
     7
 10
2823.43538890811
 20
1317.43586840357
 30
0.0
 40
0.025
  0
CIRCLE
  5
3CF
  8
回03-記事
  6
CONTINUOUS
 62
     7
 10
2823.43538890811
 20
1313.43586840357
 30
0.0
 40
0.025
  0
CIRCLE
  5
3D0
  8
回03-記事
  6
CONTINUOUS
 62
     7
 10
2823.43538890811
 20
1309.43586840357
 30
0.0
 40
0.025
  0
CIRCLE
  5
3D1
  8
回03-記事
  6
CONTINUOUS
 62
     7
 10
2823.43538890811
 20
1305.43586840357
 30
0.0
 40
0.025
  0
CIRCLE
  5
3D2
  8
回03-記事
  6
CONTINUOUS
 62
     7
 10
2823.43538890811
 20
1301.43586840357
 30
0.0
 40
0.025
  0
CIRCLE
  5
3D3
  8
回03-記事
  6
CONTINUOUS
 62
     7
 10
2823.43538890811
 20
1297.43586840357
 30
0.0
 40
0.025
  0
CIRCLE
  5
3D4
  8
回03-記事
  6
CONTINUOUS
 62
     7
 10
2823.43538890811
 20
1293.43586840357
 30
0.0
 40
0.025
  0
CIRCLE
  5
3D5
  8
回03-記事
  6
CONTINUOUS
 62
     7
 10
2823.43538890811
 20
1289.43586840357
 30
0.0
 40
0.025
  0
CIRCLE
  5
3D6
  8
回03-記事
  6
CONTINUOUS
 62
     7
 10
2823.43538890811
 20
1285.43586840357
 30
0.0
 40
0.025
  0
CIRCLE
  5
3D7
  8
回03-記事
  6
CONTINUOUS
 62
     7
 10
2819.435388908111
 20
1321.43586840357
 30
0.0
 40
0.025
  0
CIRCLE
  5
3D8
  8
回03-記事
  6
CONTINUOUS
 62
     7
 10
2819.435388908111
 20
1317.43586840357
 30
0.0
 40
0.025
  0
CIRCLE
  5
3D9
  8
回03-記事
  6
CONTINUOUS
 62
     7
 10
2819.435388908111
 20
1313.43586840357
 30
0.0
 40
0.025
  0
CIRCLE
  5
3DA
  8
回03-記事
  6
CONTINUOUS
 62
     7
 10
2819.435388908111
 20
1309.43586840357
 30
0.0
 40
0.025
  0
CIRCLE
  5
3DB
  8
回03-記事
  6
CONTINUOUS
 62
     7
 10
2819.435388908111
 20
1305.43586840357
 30
0.0
 40
0.025
  0
CIRCLE
  5
3DC
  8
回03-記事
  6
CONTINUOUS
 62
     7
 10
2819.435388908111
 20
1301.43586840357
 30
0.0
 40
0.025
  0
CIRCLE
  5
3DD
  8
回03-記事
  6
CONTINUOUS
 62
     7
 10
2819.435388908111
 20
1297.43586840357
 30
0.0
 40
0.025
  0
CIRCLE
  5
3DE
  8
回03-記事
  6
CONTINUOUS
 62
     7
 10
2819.435388908111
 20
1293.43586840357
 30
0.0
 40
0.025
  0
CIRCLE
  5
3DF
  8
回03-記事
  6
CONTINUOUS
 62
     7
 10
2819.435388908111
 20
1289.43586840357
 30
0.0
 40
0.025
  0
CIRCLE
  5
3E0
  8
回03-記事
  6
CONTINUOUS
 62
     7
 10
2819.435388908111
 20
1285.43586840357
 30
0.0
 40
0.025
  0
CIRCLE
  5
3E1
  8
回03-記事
  6
CONTINUOUS
 62
     7
 10
2815.43538890811
 20
1321.43586840357
 30
0.0
 40
0.025
  0
CIRCLE
  5
3E2
  8
回03-記事
  6
CONTINUOUS
 62
     7
 10
2815.43538890811
 20
1317.43586840357
 30
0.0
 40
0.025
  0
CIRCLE
  5
3E3
  8
回03-記事
  6
CONTINUOUS
 62
     7
 10
2815.43538890811
 20
1313.43586840357
 30
0.0
 40
0.025
  0
CIRCLE
  5
3E4
  8
回03-記事
  6
CONTINUOUS
 62
     7
 10
2815.43538890811
 20
1309.43586840357
 30
0.0
 40
0.025
  0
CIRCLE
  5
3E5
  8
回03-記事
  6
CONTINUOUS
 62
     7
 10
2815.43538890811
 20
1305.43586840357
 30
0.0
 40
0.025
  0
CIRCLE
  5
3E6
  8
回03-記事
  6
CONTINUOUS
 62
     7
 10
2815.43538890811
 20
1301.43586840357
 30
0.0
 40
0.025
  0
CIRCLE
  5
3E7
  8
回03-記事
  6
CONTINUOUS
 62
     7
 10
2815.43538890811
 20
1297.43586840357
 30
0.0
 40
0.025
  0
CIRCLE
  5
3E8
  8
回03-記事
  6
CONTINUOUS
 62
     7
 10
2815.43538890811
 20
1293.43586840357
 30
0.0
 40
0.025
  0
CIRCLE
  5
3E9
  8
回03-記事
  6
CONTINUOUS
 62
     7
 10
2815.43538890811
 20
1289.43586840357
 30
0.0
 40
0.025
  0
CIRCLE
  5
3EA
  8
回03-記事
  6
CONTINUOUS
 62
     7
 10
2815.43538890811
 20
1285.43586840357
 30
0.0
 40
0.025
  0
CIRCLE
  5
3EB
  8
回03-記事
  6
CONTINUOUS
 62
     7
 10
2811.43538890811
 20
1321.43586840357
 30
0.0
 40
0.025
  0
CIRCLE
  5
3EC
  8
回03-記事
  6
CONTINUOUS
 62
     7
 10
2811.43538890811
 20
1317.43586840357
 30
0.0
 40
0.025
  0
CIRCLE
  5
3ED
  8
回03-記事
  6
CONTINUOUS
 62
     7
 10
2811.43538890811
 20
1313.43586840357
 30
0.0
 40
0.025
  0
CIRCLE
  5
3EE
  8
回03-記事
  6
CONTINUOUS
 62
     7
 10
2811.43538890811
 20
1309.43586840357
 30
0.0
 40
0.025
  0
CIRCLE
  5
3EF
  8
回03-記事
  6
CONTINUOUS
 62
     7
 10
2811.43538890811
 20
1305.43586840357
 30
0.0
 40
0.025
  0
CIRCLE
  5
3F0
  8
回03-記事
  6
CONTINUOUS
 62
     7
 10
2811.43538890811
 20
1301.43586840357
 30
0.0
 40
0.025
  0
CIRCLE
  5
3F1
  8
回03-記事
  6
CONTINUOUS
 62
     7
 10
2811.43538890811
 20
1297.43586840357
 30
0.0
 40
0.025
  0
CIRCLE
  5
3F2
  8
回03-記事
  6
CONTINUOUS
 62
     7
 10
2811.43538890811
 20
1293.43586840357
 30
0.0
 40
0.025
  0
CIRCLE
  5
3F3
  8
回03-記事
  6
CONTINUOUS
 62
     7
 10
2811.43538890811
 20
1289.43586840357
 30
0.0
 40
0.025
  0
CIRCLE
  5
3F4
  8
回03-記事
  6
CONTINUOUS
 62
     7
 10
2811.43538890811
 20
1285.43586840357
 30
0.0
 40
0.025
  0
CIRCLE
  5
3F5
  8
回03-記事
  6
CONTINUOUS
 62
     7
 10
2807.43538890811
 20
1321.43586840357
 30
0.0
 40
0.025
  0
CIRCLE
  5
3F6
  8
回03-記事
  6
CONTINUOUS
 62
     7
 10
2807.43538890811
 20
1317.43586840357
 30
0.0
 40
0.025
  0
CIRCLE
  5
3F7
  8
回03-記事
  6
CONTINUOUS
 62
     7
 10
2807.43538890811
 20
1313.43586840357
 30
0.0
 40
0.025
  0
CIRCLE
  5
3F8
  8
回03-記事
  6
CONTINUOUS
 62
     7
 10
2807.43538890811
 20
1309.43586840357
 30
0.0
 40
0.025
  0
CIRCLE
  5
3F9
  8
回03-記事
  6
CONTINUOUS
 62
     7
 10
2807.43538890811
 20
1305.43586840357
 30
0.0
 40
0.025
  0
CIRCLE
  5
3FA
  8
回03-記事
  6
CONTINUOUS
 62
     7
 10
2807.43538890811
 20
1301.43586840357
 30
0.0
 40
0.025
  0
CIRCLE
  5
3FB
  8
回03-記事
  6
CONTINUOUS
 62
     7
 10
2807.43538890811
 20
1297.43586840357
 30
0.0
 40
0.025
  0
CIRCLE
  5
3FC
  8
回03-記事
  6
CONTINUOUS
 62
     7
 10
2807.43538890811
 20
1293.43586840357
 30
0.0
 40
0.025
  0
CIRCLE
  5
3FD
  8
回03-記事
  6
CONTINUOUS
 62
     7
 10
2807.43538890811
 20
1289.43586840357
 30
0.0
 40
0.025
  0
CIRCLE
  5
3FE
  8
回03-記事
  6
CONTINUOUS
 62
     7
 10
2807.43538890811
 20
1285.43586840357
 30
0.0
 40
0.025
  0
POLYLINE
  5
3FF
  8
回01-TP外形
  6
CONTINUOUS
 62
     7
 66
     1
 10
0.0
 20
0.0
 30
0.0
 70
     1
  0
VERTEX
  5
A2F
  8
回01-TP外形
  6
CONTINUOUS
 62
     7
 10
2624.80938890811
 20
1216.33586840357
 30
0.0
  0
VERTEX
  5
A31
  8
回01-TP外形
  6
CONTINUOUS
 62
     7
 10
2986.309388908111
 20
1216.33586840357
 30
0.0
  0
VERTEX
  5
A32
  8
回01-TP外形
  6
CONTINUOUS
 62
     7
 10
2986.309388908111
 20
1426.535879844796
 30
0.0
  0
VERTEX
  5
A33
  8
回01-TP外形
  6
CONTINUOUS
 62
     7
 10
2624.80938890811
 20
1426.535879844796
 30
0.0
  0
SEQEND
  5
A30
  8
0
  6
CONTINUOUS
 62
     5
  0
TEXT
  5
400
  8
回03-記事
  6
CONTINUOUS
 62
     7
 10
2544.315266404908
 20
1318.784133039263
 30
0.0
 40
3.0
  1
1
 50
90.0
  0
TEXT
  5
401
  8
回03-記事
  6
CONTINUOUS
 62
     7
 10
2544.29237344912
 20
1322.236242409461
 30
0.0
 40
3.0
  1
4
 50
90.0
  0
INSERT
  5
402
  8
回03-記事
  6
CONTINUOUS
 62
     7
 66
     1
  2
*X8484
 10
0.0
 20
0.0
 30
0.0
1001
ACAD
1000
HATCH
1002
{
1070
    19
1000
ANSI31
1040
0.5
1040
6.283185307179585
1000
ASC_BOUNDS
1070
     1
1070
     2
1070
     1
1005
403
1000
ASC_SEEDPOINT
1011
2874.01419595
1021
1104.44706513627
1031
0.0
1000
R14_HATCH_DATA
1000
402
1011
1.0
1021
0.0
1031
0.0
1011
0.0
1021
1.0
1031
0.0
1011
0.0
1021
0.0
1031
1.0
1040
0.0
1010
0.0
1020
0.0
1030
1.0
1000
ANSI31
1070
     0
1070
     1
1071
        1
1071
        1
1071
        4
1070
     1
1040
2628.909388908111
1040
1320.19673321744
1040
2620.709388908111
1040
1320.19673321744
1070
     1
1040
2620.709388908111
1040
1320.19673321744
1040
2620.709388908111
1040
1314.19673321744
1070
     1
1040
2620.709388908111
1040
1314.19673321744
1040
2628.909388908111
1040
1314.19673321744
1070
     1
1040
2628.909388908111
1040
1314.19673321744
1040
2628.909388908111
1040
1320.19673321744
1071
        1
1005
403
1070
     0
1070
     1
1040
6.283185307179585
1040
0.5
1070
     0
1070
     1
1040
0.7853981633974481
1040
2874.01419595
1040
1104.44706513627
1040
-1.122532015133643
1040
1.122532015133643
1070
     0
1071
        1
1040
2874.01419595
1040
1104.44706513627
1040
0.0
1002
}
  0
SEQEND
  5
6F3
  8
0
  6
CONTINUOUS
 62
     5
  0
POLYLINE
  5
403
  8
回03-記事
  6
CONTINUOUS
 62
     7
 66
     1
 10
0.0
 20
0.0
 30
0.0
 70
     1
1001
ACAD
1000
ASC_BOUNDS
1002
{
1070
    19
1005
402
1002
}
  0
VERTEX
  5
A34
  8
回03-記事
  6
CONTINUOUS
 62
     7
 10
2628.909388908111
 20
1320.19673321744
 30
0.0
  0
VERTEX
  5
A36
  8
回03-記事
  6
CONTINUOUS
 62
     7
 10
2620.709388908111
 20
1320.19673321744
 30
0.0
  0
VERTEX
  5
A37
  8
回03-記事
  6
CONTINUOUS
 62
     7
 10
2620.709388908111
 20
1314.19673321744
 30
0.0
  0
VERTEX
  5
A38
  8
回03-記事
  6
CONTINUOUS
 62
     7
 10
2628.909388908111
 20
1314.19673321744
 30
0.0
  0
SEQEND
  5
A35
  8
0
  6
CONTINUOUS
 62
     5
  0
DIMENSION
  5
404
  8
回02-寸法
  6
CONTINUOUS
 62
     7
  2
*D6969
 10
2620.208886395548
 20
1298.474565080477
 30
0.0
 11
2609.06006749791
 21
1298.474565080477
 31
0.0
 70
   160
  3
STANDARD
 13
2624.80938890811
 23
1312.769608673249
 33
0.0
 14
2620.208886395548
 24
1313.53588693702
 34
0.0
1001
ACAD
1000
DSTYLE
1002
{
1070
    41
1040
3.0
1070
    47
1040
0.3
1070
    48
1040
0.3
1070
   140
1040
6.0
1070
   141
1040
1.5
1070
   146
1040
0.7
1070
   271
1070
     1
1070
   272
1070
     1
1070
   283
1070
     0
1070
   288
1070
     0
1070
   341
1005
0
1070
   371
1070
    13
1070
   372
1070
    13
1002
}
  0
DIMENSION
  5
415
  8
回02-寸法
 62
     7
  2
*D7070
 10
2534.366300349172
 20
1318.321733017717
 30
0.0
 11
2534.366300349172
 21
1342.852384592519
 31
0.0
 70
   160
  1
<>
  3
STANDARD
 13
2545.309345397344
 23
1324.571733017717
 33
0.0
 14
2545.309345397344
 24
1318.321733017717
 34
0.0
 50
90.0
1001
ACAD
1000
DSTYLE
1002
{
1070
   147
1040
0.5
1070
    72
1070
     0
1070
    71
1070
     1
1070
    41
1040
3.0
1070
    47
1040
0.2
1070
    48
1040
0.2
1070
   140
1040
6.0
1070
   141
1040
1.5
1070
   146
1040
0.7
1070
   271
1070
     2
1070
   272
1070
     1
1070
   283
1070
     0
1070
   288
1070
     0
1070
   341
1005
0
1070
   371
1070
    13
1070
   372
1070
    13
1002
}
  0
DIMENSION
  5
426
  8
回02-寸法
  6
CONTINUOUS
 62
     7
  2
*D7171
 10
2615.313457788083
 20
1286.093212368588
 30
0.0
 11
2604.364929650659
 21
1286.093212368588
 31
0.0
 70
   160
  3
STANDARD
 13
2624.809345397342
 23
1310.575665205851
 33
0.0
 14
2615.313457788083
 24
1318.228543561508
 34
0.0
1001
ACAD
1000
DSTYLE
1002
{
1070
    41
1040
3.0
1070
    47
1040
0.3
1070
    48
1040
0.3
1070
   140
1040
6.0
1070
   141
1040
1.5
1070
   146
1040
0.7
1070
   271
1070
     1
1070
   272
1070
     1
1070
   283
1070
     0
1070
   288
1070
     0
1070
   341
1005
0
1070
   371
1070
    13
1070
   372
1070
    13
1002
}
  0
DIMENSION
  5
437
  8
回02-寸法
  6
CONTINUOUS
 62
     7
  2
*D7272
 10
2544.809345397343
 20
1351.352113872697
 30
0.0
 11
2584.809367152726
 21
1354.852113872697
 31
0.0
 70
    32
  3
STANDARD
 13
2624.80938890811
 23
1330.123857561908
 33
0.0
 14
2544.809345397343
 24
1324.071733017716
 34
0.0
1001
ACAD
1000
DSTYLE
1002
{
1070
   147
1040
0.5
1070
    72
1070
     0
1070
    71
1070
     1
1070
    41
1040
3.0
1070
    47
1040
1.0
1070
    48
1040
1.0
1070
   140
1040
6.0
1070
   141
1040
1.5
1070
   146
1040
0.7
1070
   271
1070
     1
1070
   272
1070
     1
1070
   283
1070
     0
1070
   288
1070
     0
1070
   341
1005
0
1070
   371
1070
    13
1070
   372
1070
    13
1002
}
  0
DIMENSION
  5
446
  8
回02-寸法
  6
CONTINUOUS
 62
     7
  2
*D7373
 10
2597.247701072308
 20
1313.446733017717
 30
0.0
 11
2597.247701072308
 21
1304.097914120078
 31
0.0
 70
   160
  3
STANDARD
 13
2620.617458999746
 23
1329.445529983445
 33
0.0
 14
2620.621632585451
 24
1313.446733017717
 34
0.0
 50
90.0
1001
ACAD
1000
DSTYLE
1002
{
1070
    41
1040
3.0
1070
    47
1040
0.3
1070
    48
1040
0.3
1070
   140
1040
6.0
1070
   141
1040
1.5
1070
   146
1040
0.7
1070
   271
1070
     1
1070
   272
1070
     1
1070
   283
1070
     0
1070
   288
1070
     0
1070
   341
1005
0
1070
   371
1070
    13
1070
   372
1070
    13
1002
}
  0
POLYLINE
  5
457
  8
回01-TP外形
  6
BYBLOCK
 62
     7
 66
     1
 10
0.0
 20
0.0
 30
0.0
  0
VERTEX
  5
A39
  8
回01-TP外形
  6
BYBLOCK
 62
     7
 10
2625.309388908111
 20
1331.446733217432
 30
0.0
  0
VERTEX
  5
A3B
  8
回01-TP外形
  6
BYBLOCK
 62
     7
 10
2628.309388908111
 20
1331.446733217432
 30
0.0
  0
VERTEX
  5
A3C
  8
回01-TP外形
  6
BYBLOCK
 62
     7
 10
2628.309388908111
 20
1321.946733217432
 30
0.0
  0
VERTEX
  5
A3D
  8
回01-TP外形
  6
BYBLOCK
 62
     7
 10
2622.809388908111
 20
1321.946733217432
 30
0.0
 42
1.021970931653833
  0
VERTEX
  5
A3E
  8
回01-TP外形
  6
BYBLOCK
 62
     7
 10
2622.831113405117
 20
1320.947205394153
 30
0.0
  0
VERTEX
  5
A3F
  8
回01-TP外形
  6
BYBLOCK
 62
     7
 10
2628.309388908111
 20
1320.946733217432
 30
0.0
  0
VERTEX
  5
A40
  8
回01-TP外形
  6
BYBLOCK
 62
     7
 10
2628.309388908111
 20
1311.446733217431
 30
0.0
  0
VERTEX
  5
A41
  8
回01-TP外形
  6
BYBLOCK
 62
     7
 10
2625.309388908111
 20
1311.446733217431
 30
0.0
 42
0.4142135623730951
  0
VERTEX
  5
A42
  8
回01-TP外形
  6
BYBLOCK
 62
     7
 10
2623.309388908111
 20
1313.446733217432
 30
0.0
  0
VERTEX
  5
A43
  8
回01-TP外形
  6
BYBLOCK
 62
     7
 10
2620.621632585451
 20
1313.446733217432
 30
0.0
 42
-0.1982610926034393
  0
VERTEX
  5
A44
  8
回01-TP外形
  6
BYBLOCK
 62
     7
 10
2619.916300216933
 20
1313.737856465153
 30
0.0
  0
VERTEX
  5
A45
  8
回01-TP外形
  6
BYBLOCK
 62
     7
 10
2615.606019976755
 20
1318.02658530413
 30
0.0
 42
0.1982460661155559
  0
VERTEX
  5
A46
  8
回01-TP外形
  6
BYBLOCK
 62
     7
 10
2614.900745441098
 20
1318.31770855018
 30
0.0
  0
VERTEX
  5
A47
  8
回01-TP外形
  6
BYBLOCK
 62
     7
 10
2545.309345397344
 20
1318.321733217432
 30
0.0
 42
-0.4142135623730951
  0
VERTEX
  5
A48
  8
回01-TP外形
  6
BYBLOCK
 62
     7
 10
2544.809345397343
 20
1318.821733217432
 30
0.0
  0
VERTEX
  5
A49
  8
回01-TP外形
  6
BYBLOCK
 62
     7
 10
2544.809345397343
 20
1324.071733217432
 30
0.0
 42
-0.4142135623730951
  0
VERTEX
  5
A4A
  8
回01-TP外形
  6
BYBLOCK
 62
     7
 10
2545.309345397344
 20
1324.571733217432
 30
0.0
  0
VERTEX
  5
A4B
  8
回01-TP外形
  6
BYBLOCK
 62
     7
 10
2614.898126339333
 20
1324.571733217432
 30
0.0
 42
0.1983816813358623
  0
VERTEX
  5
A4C
  8
回01-TP外形
  6
BYBLOCK
 62
     7
 10
2615.603787622424
 20
1324.863183887077
 30
0.0
  0
VERTEX
  5
A4D
  8
回01-TP外形
  6
BYBLOCK
 62
     7
 10
2619.91224462062
 20
1329.154079613376
 30
0.0
 42
-0.1982655609048175
  0
VERTEX
  5
A4E
  8
回01-TP外形
  6
BYBLOCK
 62
     7
 10
2620.617458999745
 20
1329.44553018316
 30
0.0
  0
VERTEX
  5
A4F
  8
回01-TP外形
  6
BYBLOCK
 62
     7
 10
2623.310282716043
 20
1329.446733616878
 30
0.0
 42
0.4140826732844626
  0
VERTEX
  5
A50
  8
回01-TP外形
  6
BYBLOCK
 62
     7
 10
2625.309388908111
 20
1331.446733417155
 30
0.0
  0
SEQEND
  5
A3A
  8
0
  6
CONTINUOUS
 62
     5
  0
POLYLINE
  5
458
  8
回01-TP外形
  6
CONTINUOUS
 62
     7
 66
     1
 10
0.0
 20
0.0
 30
0.0
 70
     1
  0
VERTEX
  5
A51
  8
回01-TP外形
  6
CONTINUOUS
 62
     7
 10
2633.06938890811
 20
1222.41786840357
 30
0.0
  0
VERTEX
  5
A53
  8
回01-TP外形
  6
CONTINUOUS
 62
     7
 10
2981.80138890811
 20
1222.41786840357
 30
0.0
  0
VERTEX
  5
A54
  8
回01-TP外形
  6
CONTINUOUS
 62
     7
 10
2981.80138890811
 20
1420.45386840357
 30
0.0
  0
VERTEX
  5
A55
  8
回01-TP外形
  6
CONTINUOUS
 62
     7
 10
2633.06938890811
 20
1420.45386840357
 30
0.0
  0
SEQEND
  5
A52
  8
0
  6
CONTINUOUS
 62
     5
  0
POLYLINE
  5
459
  8
回01-TP外形
  6
CONTINUOUS
 62
     7
 66
     1
 10
0.0
 20
0.0
 30
0.0
 70
     1
  0
VERTEX
  5
A56
  8
回01-TP外形
  6
CONTINUOUS
 62
     7
 10
2635.069388908111
 20
1224.41786840357
 30
0.0
  0
VERTEX
  5
A58
  8
回01-TP外形
  6
CONTINUOUS
 62
     7
 10
2979.801388908111
 20
1224.41786840357
 30
0.0
  0
VERTEX
  5
A59
  8
回01-TP外形
  6
CONTINUOUS
 62
     7
 10
2979.801388908111
 20
1418.45386840357
 30
0.0
  0
VERTEX
  5
A5A
  8
回01-TP外形
  6
CONTINUOUS
 62
     7
 10
2635.069388908111
 20
1418.45386840357
 30
0.0
  0
SEQEND
  5
A57
  8
0
  6
CONTINUOUS
 62
     5
  0
DIMENSION
  5
45A
  8
回02-寸法
  6
CONTINUOUS
 62
     7
  2
*D7474
 10
2624.80938890811
 20
1471.535879844796
 30
0.0
 11
2581.703070010472
 21
1475.335879844796
 31
0.0
 70
    32
  1
<>(Insulation Area)
  3
STANDARD
 13
2632.569388908111
 23
1421.25386840357
 33
0.0
 14
2624.80938890811
 24
1426.535879844796
 34
0.0
1001
ACADSTRINGINFO
1000
MIFCodePage
1070
     1
1001
ACAD
1000
DSTYLE
1002
{
1070
    41
1040
3.0
1070
    47
1040
0.3
1070
    48
1040
0.3
1070
   140
1040
6.0
1070
   141
1040
1.5
1070
   146
1040
0.7
1070
   271
1070
     2
1070
   272
1070
     1
1070
   283
1070
     0
1070
   288
1070
     0
1070
   341
1005
0
1070
   371
1070
    13
1070
   372
1070
    13
1002
}
  0
DIMENSION
  5
46B
  8
回02-寸法
  6
CONTINUOUS
 62
     7
  2
*D7575
 10
2624.80938890811
 20
1461.535879844796
 30
0.0
 11
2611.860570010473
 21
1461.535879844796
 31
0.0
 70
   160
  3
STANDARD
 13
2633.06938890811
 23
1420.45386840357
 33
0.0
 14
2624.80938890811
 24
1426.535879844796
 34
0.0
1001
ACAD
1000
DSTYLE
1002
{
1070
    41
1040
3.0
1070
    47
1040
0.3
1070
    48
1040
0.3
1070
   140
1040
6.0
1070
   141
1040
1.5
1070
   146
1040
0.7
1070
   271
1070
     2
1070
   272
1070
     1
1070
   283
1070
     0
1070
   288
1070
     0
1070
   341
1005
0
1070
   371
1070
    13
1070
   372
1070
    13
1002
}
  0
DIMENSION
  5
47C
  8
回02-寸法
  6
CONTINUOUS
 62
     7
  2
*D7676
 10
2624.80938890811
 20
1451.535879844796
 30
0.0
 11
2610.360570010473
 21
1451.535879844796
 31
0.0
 70
   160
  3
STANDARD
 13
2635.06938890811
 23
1418.45386840357
 33
0.0
 14
2624.80938890811
 24
1426.535879844796
 34
0.0
1001
ACAD
1000
DSTYLE
1002
{
1070
    41
1040
3.0
1070
    47
1040
0.3
1070
    48
1040
0.3
1070
   140
1040
6.0
1070
   141
1040
1.5
1070
   146
1040
0.7
1070
   271
1070
     2
1070
   272
1070
     1
1070
   283
1070
     0
1070
   288
1070
     0
1070
   341
1005
0
1070
   371
1070
    13
1070
   372
1070
    13
1002
}
  0
ENDSEC
  0
EOF
