  0
SECTION
  2
HEADER
  9
$ACADVER
  1
AC1009
  9
$INSBASE
 10
0.0
 20
0.0
 30
0.0
  9
$EXTMIN
 10
51.88970468887146
 20
43.31492698528655
 30
0.0
  9
$EXTMAX
 10
999.5897046888712
 20
686.8149269852864
 30
0.0
  9
$LIMMIN
 10
0.0
 20
0.0
  9
$LIMMAX
 10
880.0
 20
620.0
  9
$ORTHOMODE
 70
     0
  9
$REGENMODE
 70
     1
  9
$FILLMODE
 70
     1
  9
$QTEXTMODE
 70
     0
  9
$MIRRTEXT
 70
     1
  9
$DRAGMODE
 70
     2
  9
$LTSCALE
 40
2.087542087542086
  9
$OSMODE
 70
    37
  9
$ATTMODE
 70
     1
  9
$TEXTSIZE
 40
8.0
  9
$TRACEWID
 40
1.0
  9
$TEXTSTYLE
  7
STANDARD
  9
$CLAYER
  8
回04-下接
  9
$CELTYPE
  6
CONTINUOUS
  9
$CECOLOR
 62
     7
  9
$DIMSCALE
 40
1.0
  9
$DIMASZ
 40
1.5
  9
$DIMEXO
 40
0.0
  9
$DIMDLI
 40
0.0
  9
$DIMRND
 40
0.0
  9
$DIMDLE
 40
0.0
  9
$DIMEXE
 40
1.0
  9
$DIMTP
 40
0.3
  9
$DIMTM
 40
0.3
  9
$DIMTXT
 40
8.0
  9
$DIMCEN
 40
1.5
  9
$DIMTSZ
 40
0.0
  9
$DIMTOL
 70
     0
  9
$DIMLIM
 70
     0
  9
$DIMTIH
 70
     0
  9
$DIMTOH
 70
     0
  9
$DIMSE1
 70
     0
  9
$DIMSE2
 70
     0
  9
$DIMTAD
 70
     3
  9
$DIMZIN
 70
     8
  9
$DIMBLK
  1

  9
$DIMASO
 70
     1
  9
$DIMSHO
 70
     1
  9
$DIMPOST
  1

  9
$DIMAPOST
  1

  9
$DIMALT
 70
     0
  9
$DIMALTD
 70
     2
  9
$DIMALTF
 40
25.4
  9
$DIMLFAC
 40
1.0
  9
$DIMTOFL
 70
     1
  9
$DIMTVP
 40
0.0
  9
$DIMTIX
 70
     0
  9
$DIMSOXD
 70
     0
  9
$DIMSAH
 70
     1
  9
$DIMBLK1
  1
OPEN
  9
$DIMBLK2
  1
OPEN
  9
$DIMSTYLE
  2
STANDARD
  9
$DIMCLRD
 70
     5
  9
$DIMCLRE
 70
     5
  9
$DIMCLRT
 70
     5
  9
$DIMTFAC
 40
0.7
  9
$DIMGAP
 40
0.5
  9
$LUNITS
 70
     2
  9
$LUPREC
 70
     4
  9
$SKETCHINC
 40
1.0
  9
$FILLETRAD
 40
0.5
  9
$AUNITS
 70
     0
  9
$AUPREC
 70
     0
  9
$MENU
  1
.
  9
$ELEVATION
 40
0.0
  9
$PELEVATION
 40
0.0
  9
$THICKNESS
 40
0.0
  9
$LIMCHECK
 70
     0
  9
$BLIPMODE
 70
     0
  9
$CHAMFERA
 40
1.199999999999999
  9
$CHAMFERB
 40
1.199999999999999
  9
$SKPOLY
 70
     0
  9
$TDCREATE
 40
2450431.727493866
  9
$TDUPDATE
 40
2460207.381849525
  9
$TDINDWG
 40
7.082372604
  9
$TDUSRTIMER
 40
7.082369444
  9
$USRTIMER
 70
     1
  9
$ANGBASE
 50
0.0
  9
$ANGDIR
 70
     0
  9
$PDMODE
 70
    34
  9
$PDSIZE
 40
0.0
  9
$PLINEWID
 40
2.0
  9
$COORDS
 70
     0
  9
$SPLFRAME
 70
     0
  9
$SPLINETYPE
 70
     6
  9
$SPLINESEGS
 70
     8
  9
$ATTDIA
 70
     1
  9
$ATTREQ
 70
     1
  9
$HANDLING
 70
     1
  9
$HANDSEED
  5
A65
  9
$SURFTAB1
 70
     6
  9
$SURFTAB2
 70
     6
  9
$SURFTYPE
 70
     6
  9
$SURFU
 70
     6
  9
$SURFV
 70
     6
  9
$UCSNAME
  2

  9
$UCSORG
 10
0.0
 20
0.0
 30
0.0
  9
$UCSXDIR
 10
1.0
 20
0.0
 30
0.0
  9
$UCSYDIR
 10
0.0
 20
1.0
 30
0.0
  9
$PUCSNAME
  2

  9
$PUCSORG
 10
0.0
 20
0.0
 30
0.0
  9
$PUCSXDIR
 10
1.0
 20
0.0
 30
0.0
  9
$PUCSYDIR
 10
0.0
 20
1.0
 30
0.0
  9
$USERI1
 70
     0
  9
$USERI2
 70
     0
  9
$USERI3
 70
     0
  9
$USERI4
 70
     0
  9
$USERI5
 70
     0
  9
$USERR1
 40
0.0
  9
$USERR2
 40
0.0
  9
$USERR3
 40
0.0
  9
$USERR4
 40
0.0
  9
$USERR5
 40
0.0
  9
$WORLDVIEW
 70
     1
  9
$SHADEDGE
 70
     3
  9
$SHADEDIF
 70
    70
  9
$TILEMODE
 70
     1
  9
$MAXACTVP
 70
    16
  9
$PLIMCHECK
 70
     0
  9
$PEXTMIN
 10
1.000000000000000E+20
 20
1.000000000000000E+20
 30
1.000000000000000E+20
  9
$PEXTMAX
 10
-1.000000000000000E+20
 20
-1.000000000000000E+20
 30
-1.000000000000000E+20
  9
$PLIMMIN
 10
0.0
 20
0.0
  9
$PLIMMAX
 10
420.0
 20
297.0
  9
$UNITMODE
 70
     0
  9
$VISRETAIN
 70
     0
  9
$PLINEGEN
 70
     0
  9
$PSLTSCALE
 70
     1
  0
ENDSEC
  0
SECTION
  2
TABLES
  0
TABLE
  2
VPORT
 70
     1
  0
VPORT
  2
*ACTIVE
 70
     0
 10
0.0
 20
0.0
 11
1.0
 21
1.0
 12
584.1583327231571
 22
387.9017432198142
 13
0.0
 23
0.0
 14
1.0
 24
1.0
 15
5.0
 25
5.0
 16
0.0
 26
0.0
 36
1.0
 17
0.0
 27
0.0
 37
0.0
 40
862.5606167029737
 41
2.16030534351145
 42
50.0
 43
0.0
 44
0.0
 50
0.0
 51
0.0
 71
     0
 72
   100
 73
     1
 74
     3
 75
     0
 76
     0
 77
     0
 78
     0
  0
ENDTAB
  0
TABLE
  2
LTYPE
 70
     3
  0
LTYPE
  2
CONTINUOUS
 70
     0
  3
Solid line
 72
    65
 73
     0
 40
0.0
  0
LTYPE
  2
CENTER2
 70
     0
  3
___ _ ___ _ ___ _ ___ _ ___ _ ___ _ ___ _ ___ _
 72
    65
 73
     4
 40
1.125
 49
0.75
 49
-0.125
 49
0.125
 49
-0.125
  0
LTYPE
  2
PHANTOM2
 70
     0
  3
Phantom (.5x) ___ _ _ ___ _ _ ___ _ _ ___ _ _
 72
    65
 73
     6
 40
1.25
 49
0.625
 49
-0.125
 49
0.125
 49
-0.125
 49
0.125
 49
-0.125
  0
ENDTAB
  0
TABLE
  2
LAYER
 70
     9
  0
LAYER
  2
0
 70
     0
 62
     7
  6
CONTINUOUS
  0
LAYER
  2
DEFPOINTS
 70
     0
 62
     7
  6
CONTINUOUS
  0
LAYER
  2
回08-記事
 70
     0
 62
     7
  6
CONTINUOUS
  0
LAYER
  2
回07-寸法
 70
     0
 62
     7
  6
CONTINUOUS
  0
LAYER
  2
回04-下接
 70
     0
 62
     7
  6
CONTINUOUS
  0
LAYER
  2
回05-ﾃｰﾙ
 70
     0
 62
     7
  6
CONTINUOUS
  0
LAYER
  2
回04-図面枠
 70
     0
 62
     7
  6
CONTINUOUS
  0
LAYER
  2
回03-記事
 70
     0
 62
     7
  6
CONTINUOUS
  0
LAYER
  2
回90-枠1
 70
     0
 62
     7
  6
CONTINUOUS
  0
ENDTAB
  0
TABLE
  2
STYLE
 70
     2
  0
STYLE
  2
STANDARD
 70
     0
 40
8.0
 41
1.0
 50
0.0
 71
     0
 42
8.0
  3
isocp.shx
  4
bigfont.shx
  0
STYLE
  2
ANNOTATIVE
 70
     0
 40
0.0
 41
1.0
 50
0.0
 71
     0
 42
0.2
  3
txt.shx
  4

  0
ENDTAB
  0
TABLE
  2
VIEW
 70
     0
  0
ENDTAB
  0
TABLE
  2
UCS
 70
     0
  0
ENDTAB
  0
TABLE
  2
APPID
 70
     7
  0
APPID
  2
ACAD
 70
     0
  0
APPID
  2
ACADANNOTATIVE
 70
     0
  0
APPID
  2
ACAD_PSEXT
 70
     0
  0
APPID
  2
ACAECLAYERSTANDARD
 70
     0
  0
APPID
  2
ACADSTRINGINFO
 70
     0
  0
APPID
  2
ACAD_MLEADERVER
 70
     0
  0
APPID
  2
ACAD_NAV_VCDISPLAY
 70
     0
  0
ENDTAB
  0
TABLE
  2
DIMSTYLE
 70
     2
  0
DIMSTYLE
  2
STANDARD
 70
     0
  3

  4

  5

  6
OPEN
  7
OPEN
 40
1.0
 41
2.0
 42
0.0
 43
0.0
 44
1.0
 45
0.0
 46
0.0
 47
0.0
 48
0.0
140
3.0
141
2.0
142
0.0
143
25.4
144
1.0
145
0.0
146
1.0
147
0.5
 71
     0
 72
     0
 73
     0
 74
     0
 75
     0
 76
     0
 77
     3
 78
     8
170
     0
171
     2
172
     1
173
     1
174
     0
175
     0
176
     5
177
     5
178
     5
  0
DIMSTYLE
  2
DMC
 70
     0
  3

  4

  5
OPEN
  6

  7

 40
1.0
 41
2.0
 42
0.0
 43
0.0
 44
1.0
 45
0.0
 46
0.0
 47
0.0
 48
0.0
140
3.0
141
2.0
142
0.0
143
0.03937007874016
144
1.0
145
0.0
146
0.7
147
0.5
 71
     0
 72
     0
 73
     0
 74
     0
 75
     0
 76
     0
 77
     3
 78
     8
170
     0
171
     3
172
     1
173
     0
174
     0
175
     0
176
     5
177
     5
178
     5
  0
ENDTAB
  0
ENDSEC
  0
SECTION
  2
BLOCKS
  0
BLOCK
  8
0
  2
$MODEL_SPACE
 70
     0
 10
0.0
 20
0.0
 30
0.0
  3
$MODEL_SPACE
  1

  0
ENDBLK
  8
0
  5
23
  0
BLOCK
 67
     1
  8
0
  2
$PAPER_SPACE
 70
     0
 10
0.0
 20
0.0
 30
0.0
  3
$PAPER_SPACE
  1

  0
ENDBLK
  5
29
 67
     1
  8
0
  0
BLOCK
  8
0
  2
_OPEN
 70
     0
 10
0.0
 20
0.0
 30
0.0
  3
_OPEN
  1

  0
LINE
  5
820
  8
0
  6
BYBLOCK
 62
     0
 10
-1.0
 20
0.166667
 30
0.0
 11
0.0
 21
0.0
 31
0.0
  0
LINE
  5
821
  8
0
  6
BYBLOCK
 62
     0
 10
-1.0
 20
-0.166667
 30
0.0
 11
0.0
 21
0.0
 31
0.0
  0
LINE
  5
822
  8
0
  6
BYBLOCK
 62
     0
 10
0.0
 20
0.0
 30
0.0
 11
-1.0
 21
0.0
 31
0.0
  0
LINE
  5
16
  8
0
  6
BYBLOCK
 62
     0
 10
-1.0
 20
0.1666666666666666
 30
0.0
 11
0.0
 21
0.0
 31
0.0
  0
LINE
  5
18
  8
0
  6
BYBLOCK
 62
     0
 10
0.0
 20
0.0
 30
0.0
 11
-1.0
 21
-0.1666666666666666
 31
0.0
  0
LINE
  5
19
  8
0
  6
BYBLOCK
 62
     0
 10
0.0
 20
0.0
 30
0.0
 11
-1.0
 21
0.0
 31
0.0
  0
ENDBLK
  5
1A
  8
0
  0
BLOCK
  8
0
  2
*D11
 70
     1
 10
0.0
 20
0.0
 30
0.0
  3
*D11
  1

  0
LINE
  5
208
  8
回07-寸法
  6
CONTINUOUS
 62
     5
 10
-1133.190160499672
 20
-2776.044582278913
 30
0.0
 11
-1118.677800931332
 21
-2776.044582278913
 31
0.0
  0
LINE
  5
209
  8
回07-寸法
  6
CONTINUOUS
 62
     5
 10
-1132.690160499672
 20
-2789.044582278911
 30
0.0
 11
-1118.677800931332
 21
-2789.044582278911
 31
0.0
  0
LINE
  5
20A
  8
回07-寸法
  6
CONTINUOUS
 62
     5
 10
-1119.677800931332
 20
-2794.044582278911
 30
0.0
 11
-1119.677800931332
 21
-2822.346857528757
 31
0.0
  0
LINE
  5
20B
  8
回07-寸法
  6
CONTINUOUS
 62
     5
 10
-1119.677800931332
 20
-2776.044582278913
 30
0.0
 11
-1119.677800931332
 21
-2789.044582278911
 31
0.0
  0
LINE
  5
20C
  8
回07-寸法
  6
CONTINUOUS
 62
     5
 10
-1119.677800931332
 20
-2771.044582278913
 30
0.0
 11
-1119.677800931332
 21
-2766.044582278913
 31
0.0
  0
INSERT
  5
20D
  8
回07-寸法
  6
CONTINUOUS
 62
     5
 66
     1
  2
_OPEN
 10
-1119.677800931332
 20
-2776.044582278913
 30
0.0
 41
5.0
 42
5.0
 43
5.0
 50
270.0
  0
SEQEND
  5
20E
  8
回04-下接
  6
CONTINUOUS
 62
     7
  0
INSERT
  5
20F
  8
回07-寸法
  6
CONTINUOUS
 62
     5
 66
     1
  2
_OPEN
 10
-1119.677800931332
 20
-2789.044582278911
 30
0.0
 41
5.0
 42
5.0
 43
5.0
 50
90.0
  0
SEQEND
  5
210
  8
回04-下接
  6
CONTINUOUS
 62
     7
  0
INSERT
  5
211
  8
回07-寸法
  6
CONTINUOUS
 62
     5
 66
     1
  2
*X8383
 10
0.0
 20
0.0
 30
0.0
  0
SEQEND
  5
725
  8
回04-下接
  6
CONTINUOUS
 62
     7
  0
POINT
  5
212
  8
DEFPOINTS
  6
CONTINUOUS
 62
     0
 10
-1133.190160499672
 20
-2776.044582278913
 30
0.0
  0
POINT
  5
213
  8
DEFPOINTS
  6
CONTINUOUS
 62
     0
 10
-1132.690160499672
 20
-2789.044582278911
 30
0.0
  0
POINT
  5
214
  8
DEFPOINTS
  6
CONTINUOUS
 62
     0
 10
-1119.677800931332
 20
-2789.044582278911
 30
0.0
  0
ENDBLK
  5
215
  8
0
 62
     7
  0
BLOCK
  8
0
  2
*D22
 70
     1
 10
0.0
 20
0.0
 30
0.0
  3
*D22
  1

  0
LINE
  5
1EE
  8
回07-寸法
  6
CONTINUOUS
 62
     5
 10
-1133.190160499672
 20
-2776.044582278911
 30
0.0
 11
-1133.190160499672
 21
-2763.181091907985
 31
0.0
  0
LINE
  5
1EF
  8
回07-寸法
  6
CONTINUOUS
 62
     5
 10
-1132.690160499672
 20
-2783.044582278912
 30
0.0
 11
-1132.690160499672
 21
-2763.181091907985
 31
0.0
  0
LINE
  5
1F0
  8
回07-寸法
  6
CONTINUOUS
 62
     5
 10
-1127.690160499672
 20
-2764.181091907984
 30
0.0
 11
-1104.09645971227
 21
-2764.181091907984
 31
0.0
  0
LINE
  5
1F1
  8
回07-寸法
  6
CONTINUOUS
 62
     5
 10
-1133.190160499672
 20
-2764.181091907984
 30
0.0
 11
-1132.690160499672
 21
-2764.181091907984
 31
0.0
  0
LINE
  5
1F2
  8
回07-寸法
  6
CONTINUOUS
 62
     5
 10
-1138.190160499672
 20
-2764.181091907984
 30
0.0
 11
-1143.190160499672
 21
-2764.181091907984
 31
0.0
  0
INSERT
  5
1F3
  8
回07-寸法
  6
CONTINUOUS
 62
     5
 66
     1
  2
_OPEN
 10
-1133.190160499672
 20
-2764.181091907984
 30
0.0
 41
5.0
 42
5.0
 43
5.0
  0
SEQEND
  5
1F4
  8
回04-下接
  6
CONTINUOUS
 62
     7
  0
INSERT
  5
1F5
  8
回07-寸法
  6
CONTINUOUS
 62
     5
 66
     1
  2
_OPEN
 10
-1132.690160499672
 20
-2764.181091907984
 30
0.0
 41
5.0
 42
5.0
 43
5.0
 50
180.0
  0
SEQEND
  5
1F6
  8
回04-下接
  6
CONTINUOUS
 62
     7
  0
TEXT
  5
1F7
  8
回07-寸法
  6
CONTINUOUS
 62
     5
 10
-1123.393310105971
 20
-2763.281091907984
 30
0.0
 40
8.0
  1
(0.5)
1001
ACAD
1000
MTEXTBEGIN
1070
    73
1070
     1
1070
    44
1040
1.0
1070
    74
1070
     0
1000
MTEXTEND
  0
POINT
  5
1F8
  8
DEFPOINTS
  6
CONTINUOUS
 62
     0
 10
-1133.190160499672
 20
-2776.044582278911
 30
0.0
  0
POINT
  5
1F9
  8
DEFPOINTS
  6
CONTINUOUS
 62
     0
 10
-1132.690160499672
 20
-2783.044582278912
 30
0.0
  0
POINT
  5
1FA
  8
DEFPOINTS
  6
CONTINUOUS
 62
     0
 10
-1132.690160499672
 20
-2764.181091907984
 30
0.0
  0
ENDBLK
  5
1FB
  8
0
 62
     7
  0
BLOCK
  8
0
  2
*D33
 70
     1
 10
0.0
 20
0.0
 30
0.0
  3
*D33
  1

  0
LINE
  5
1DC
  8
回07-寸法
  6
CONTINUOUS
 62
     5
 10
-1533.290160499672
 20
-2783.044582278912
 30
0.0
 11
-1533.290160499672
 21
-2764.313405635949
 31
0.0
  0
LINE
  5
1DE
  8
回07-寸法
  6
CONTINUOUS
 62
     5
 10
-1532.790160499672
 20
-2776.044582278911
 30
0.0
 11
-1532.790160499672
 21
-2764.313405635949
 31
0.0
  0
LINE
  5
1DF
  8
回07-寸法
  6
CONTINUOUS
 62
     5
 10
-1527.790160499672
 20
-2765.313405635949
 30
0.0
 11
-1504.19645971227
 21
-2765.313405635949
 31
0.0
  0
LINE
  5
1E0
  8
回07-寸法
  6
CONTINUOUS
 62
     5
 10
-1533.290160499672
 20
-2765.313405635949
 30
0.0
 11
-1532.790160499672
 21
-2765.313405635949
 31
0.0
  0
LINE
  5
1E1
  8
回07-寸法
  6
CONTINUOUS
 62
     5
 10
-1538.290160499672
 20
-2765.313405635949
 30
0.0
 11
-1543.290160499672
 21
-2765.313405635949
 31
0.0
  0
INSERT
  5
1E2
  8
回07-寸法
  6
CONTINUOUS
 62
     5
 66
     1
  2
_OPEN
 10
-1533.290160499672
 20
-2765.313405635949
 30
0.0
 41
5.0
 42
5.0
 43
5.0
  0
SEQEND
  5
1E3
  8
回04-下接
  6
CONTINUOUS
 62
     7
  0
INSERT
  5
1E4
  8
回07-寸法
  6
CONTINUOUS
 62
     5
 66
     1
  2
_OPEN
 10
-1532.790160499672
 20
-2765.313405635949
 30
0.0
 41
5.0
 42
5.0
 43
5.0
 50
180.0
  0
SEQEND
  5
1E5
  8
回04-下接
  6
CONTINUOUS
 62
     7
  0
TEXT
  5
1E6
  8
回07-寸法
  6
CONTINUOUS
 62
     5
 10
-1523.493310105971
 20
-2764.413405635949
 30
0.0
 40
8.0
  1
(0.5)
1001
ACAD
1000
MTEXTBEGIN
1070
    73
1070
     1
1070
    44
1040
1.0
1070
    74
1070
     0
1000
MTEXTEND
  0
POINT
  5
1E7
  8
DEFPOINTS
  6
CONTINUOUS
 62
     0
 10
-1533.290160499672
 20
-2783.044582278912
 30
0.0
  0
POINT
  5
1E8
  8
DEFPOINTS
  6
CONTINUOUS
 62
     0
 10
-1532.790160499672
 20
-2776.044582278911
 30
0.0
  0
POINT
  5
1E9
  8
DEFPOINTS
  6
CONTINUOUS
 62
     0
 10
-1532.790160499672
 20
-2765.313405635949
 30
0.0
  0
ENDBLK
  5
1EA
  8
0
 62
     7
  0
BLOCK
  8
0
  2
*D44
 70
     1
 10
0.0
 20
0.0
 30
0.0
  3
*D44
  1

  0
LINE
  5
194
  8
回07-寸法
  6
CONTINUOUS
 62
     5
 10
-1144.580160499672
 20
-2727.992668368154
 30
0.0
 11
-1085.580160499672
 21
-2727.992668368154
 31
0.0
  0
LINE
  5
195
  8
回07-寸法
  6
CONTINUOUS
 62
     5
 10
-1132.690160499672
 20
-2740.414668368154
 30
0.0
 11
-1085.580160499672
 21
-2740.414668368154
 31
0.0
  0
LINE
  5
196
  8
回07-寸法
  6
CONTINUOUS
 62
     5
 10
-1086.580160499672
 20
-2745.414668368153
 30
0.0
 11
-1086.580160499672
 21
-2767.414668368157
 31
0.0
  0
LINE
  5
197
  8
回07-寸法
  6
CONTINUOUS
 62
     5
 10
-1086.580160499672
 20
-2727.992668368154
 30
0.0
 11
-1086.580160499672
 21
-2740.414668368154
 31
0.0
  0
LINE
  5
198
  8
回07-寸法
  6
CONTINUOUS
 62
     5
 10
-1086.580160499672
 20
-2722.992668368154
 30
0.0
 11
-1086.580160499672
 21
-2717.992668368154
 31
0.0
  0
INSERT
  5
199
  8
回07-寸法
  6
CONTINUOUS
 62
     5
 66
     1
  2
_OPEN
 10
-1086.580160499672
 20
-2727.992668368154
 30
0.0
 41
5.0
 42
5.0
 43
5.0
 50
270.0
  0
SEQEND
  5
19A
  8
回04-下接
  6
CONTINUOUS
 62
     7
  0
INSERT
  5
19B
  8
回07-寸法
  6
CONTINUOUS
 62
     5
 66
     1
  2
_OPEN
 10
-1086.580160499672
 20
-2740.414668368154
 30
0.0
 41
5.0
 42
5.0
 43
5.0
 50
90.0
  0
SEQEND
  5
19C
  8
回04-下接
  6
CONTINUOUS
 62
     7
  0
TEXT
  5
19D
  8
回07-寸法
  6
CONTINUOUS
 62
     5
 10
-1087.080160499672
 20
-2768.114668368157
 30
0.0
 40
8.0
  1
12.4
 50
90.0
1001
ACAD
1000
MTEXTBEGIN
1070
    73
1070
     1
1070
    44
1040
1.0
1070
    74
1070
     0
1000
MTEXTEND
  0
POINT
  5
19E
  8
DEFPOINTS
  6
CONTINUOUS
 62
     0
 10
-1144.580160499672
 20
-2727.992668368154
 30
0.0
  0
POINT
  5
19F
  8
DEFPOINTS
  6
CONTINUOUS
 62
     0
 10
-1132.690160499672
 20
-2740.414668368154
 30
0.0
  0
POINT
  5
1A0
  8
DEFPOINTS
  6
CONTINUOUS
 62
     0
 10
-1086.580160499672
 20
-2740.414668368154
 30
0.0
  0
ENDBLK
  5
1A1
  8
0
 62
     7
  0
BLOCK
  8
0
  2
*D55
 70
     1
 10
0.0
 20
0.0
 30
0.0
  3
*D55
  1

  0
LINE
  5
183
  8
回07-寸法
  6
CONTINUOUS
 62
     5
 10
-1142.580160499672
 20
-2729.992668368154
 30
0.0
 11
-1070.58016049967
 21
-2729.992668368154
 31
0.0
  0
LINE
  5
184
  8
回07-寸法
  6
CONTINUOUS
 62
     5
 10
-1132.690160499672
 20
-2740.414668368154
 30
0.0
 11
-1070.58016049967
 21
-2740.414668368154
 31
0.0
  0
LINE
  5
185
  8
回07-寸法
  6
CONTINUOUS
 62
     5
 10
-1071.58016049967
 20
-2745.414668368153
 30
0.0
 11
-1071.58016049967
 21
-2767.414668368157
 31
0.0
  0
LINE
  5
186
  8
回07-寸法
  6
CONTINUOUS
 62
     5
 10
-1071.58016049967
 20
-2729.992668368154
 30
0.0
 11
-1071.58016049967
 21
-2740.414668368154
 31
0.0
  0
LINE
  5
187
  8
回07-寸法
  6
CONTINUOUS
 62
     5
 10
-1071.58016049967
 20
-2724.992668368154
 30
0.0
 11
-1071.58016049967
 21
-2719.992668368154
 31
0.0
  0
INSERT
  5
188
  8
回07-寸法
  6
CONTINUOUS
 62
     5
 66
     1
  2
_OPEN
 10
-1071.58016049967
 20
-2729.992668368154
 30
0.0
 41
5.0
 42
5.0
 43
5.0
 50
270.0
  0
SEQEND
  5
189
  8
回04-下接
  6
CONTINUOUS
 62
     7
  0
INSERT
  5
18A
  8
回07-寸法
  6
CONTINUOUS
 62
     5
 66
     1
  2
_OPEN
 10
-1071.58016049967
 20
-2740.414668368154
 30
0.0
 41
5.0
 42
5.0
 43
5.0
 50
90.0
  0
SEQEND
  5
18B
  8
回04-下接
  6
CONTINUOUS
 62
     7
  0
TEXT
  5
18C
  8
回07-寸法
  6
CONTINUOUS
 62
     5
 10
-1072.08016049967
 20
-2768.114668368157
 30
0.0
 40
8.0
  1
10.4
 50
90.0
1001
ACAD
1000
MTEXTBEGIN
1070
    73
1070
     1
1070
    44
1040
1.0
1070
    74
1070
     0
1000
MTEXTEND
  0
POINT
  5
18D
  8
DEFPOINTS
  6
CONTINUOUS
 62
     0
 10
-1142.580160499672
 20
-2729.992668368154
 30
0.0
  0
POINT
  5
18E
  8
DEFPOINTS
  6
CONTINUOUS
 62
     0
 10
-1132.690160499672
 20
-2740.414668368154
 30
0.0
  0
POINT
  5
18F
  8
DEFPOINTS
  6
CONTINUOUS
 62
     0
 10
-1071.58016049967
 20
-2740.414668368154
 30
0.0
  0
ENDBLK
  5
190
  8
0
 62
     7
  0
BLOCK
  8
0
  2
*D66
 70
     1
 10
0.0
 20
0.0
 30
0.0
  3
*D66
  1

  0
LINE
  5
171
  8
回07-寸法
  6
CONTINUOUS
 62
     5
 10
-1142.080160499672
 20
-2730.792668368154
 30
0.0
 11
-1055.580160499672
 21
-2730.792668368154
 31
0.0
  0
LINE
  5
173
  8
回07-寸法
  6
CONTINUOUS
 62
     5
 10
-1132.690160499672
 20
-2740.414668368154
 30
0.0
 11
-1055.580160499672
 21
-2740.414668368154
 31
0.0
  0
LINE
  5
174
  8
回07-寸法
  6
CONTINUOUS
 62
     5
 10
-1056.580160499672
 20
-2745.414668368153
 30
0.0
 11
-1056.580160499672
 21
-2827.29299158838
 31
0.0
  0
LINE
  5
175
  8
回07-寸法
  6
CONTINUOUS
 62
     5
 10
-1056.580160499672
 20
-2730.792668368154
 30
0.0
 11
-1056.580160499672
 21
-2740.414668368154
 31
0.0
  0
LINE
  5
176
  8
回07-寸法
  6
CONTINUOUS
 62
     5
 10
-1056.580160499672
 20
-2725.792668368154
 30
0.0
 11
-1056.580160499672
 21
-2720.792668368154
 31
0.0
  0
INSERT
  5
177
  8
回07-寸法
  6
CONTINUOUS
 62
     5
 66
     1
  2
_OPEN
 10
-1056.580160499672
 20
-2730.792668368154
 30
0.0
 41
5.0
 42
5.0
 43
5.0
 50
270.0
  0
SEQEND
  5
178
  8
回04-下接
  6
CONTINUOUS
 62
     7
  0
INSERT
  5
179
  8
回07-寸法
  6
CONTINUOUS
 62
     5
 66
     1
  2
_OPEN
 10
-1056.580160499672
 20
-2740.414668368154
 30
0.0
 41
5.0
 42
5.0
 43
5.0
 50
90.0
  0
SEQEND
  5
17A
  8
回04-下接
  6
CONTINUOUS
 62
     7
  0
INSERT
  5
17B
  8
回07-寸法
  6
CONTINUOUS
 62
     5
 66
     1
  2
*X8484
 10
0.0
 20
0.0
 30
0.0
  0
SEQEND
  5
72B
  8
回04-下接
  6
CONTINUOUS
 62
     7
  0
POINT
  5
17C
  8
DEFPOINTS
  6
CONTINUOUS
 62
     0
 10
-1142.080160499672
 20
-2730.792668368154
 30
0.0
  0
POINT
  5
17D
  8
DEFPOINTS
  6
CONTINUOUS
 62
     0
 10
-1132.690160499672
 20
-2740.414668368154
 30
0.0
  0
POINT
  5
17E
  8
DEFPOINTS
  6
CONTINUOUS
 62
     0
 10
-1056.580160499672
 20
-2740.414668368154
 30
0.0
  0
ENDBLK
  5
17F
  8
0
 62
     7
  0
BLOCK
  8
0
  2
*D77
 70
     1
 10
0.0
 20
0.0
 30
0.0
  3
*D77
  1

  0
LINE
  5
28C
  8
回07-寸法
  6
CONTINUOUS
 62
     5
 10
-1611.783194530441
 20
-2580.339717501481
 30
0.0
 11
-1623.726239578863
 21
-2580.339717501481
 31
0.0
  0
LINE
  5
28D
  8
回07-寸法
  6
CONTINUOUS
 62
     5
 10
-1532.290160499672
 20
-2740.414668368154
 30
0.0
 11
-1623.726239578863
 21
-2740.414668368154
 31
0.0
  0
LINE
  5
28E
  8
回07-寸法
  6
CONTINUOUS
 62
     5
 10
-1622.726239578863
 20
-2585.339717501482
 30
0.0
 11
-1622.726239578863
 21
-2735.414668368154
 31
0.0
  0
INSERT
  5
28F
  8
回07-寸法
  6
CONTINUOUS
 62
     5
 66
     1
  2
_OPEN
 10
-1622.726239578863
 20
-2580.339717501481
 30
0.0
 41
5.0
 42
5.0
 43
5.0
 50
90.0
  0
SEQEND
  5
290
  8
回04-下接
  6
CONTINUOUS
 62
     7
  0
INSERT
  5
291
  8
回07-寸法
  6
CONTINUOUS
 62
     5
 66
     1
  2
_OPEN
 10
-1622.726239578863
 20
-2740.414668368154
 30
0.0
 41
5.0
 42
5.0
 43
5.0
 50
270.0
  0
SEQEND
  5
292
  8
回04-下接
  6
CONTINUOUS
 62
     7
  0
TEXT
  5
293
  8
回07-寸法
  6
CONTINUOUS
 62
     5
 10
-1623.626239578863
 20
-2674.377192934818
 30
0.0
 40
8.0
  1
(160.1)
 50
90.0
1001
ACAD
1000
MTEXTBEGIN
1070
    73
1070
     1
1070
    44
1040
1.0
1070
    74
1070
     0
1000
MTEXTEND
  0
POINT
  5
294
  8
DEFPOINTS
  6
CONTINUOUS
 62
     0
 10
-1611.783194530441
 20
-2580.339717501481
 30
0.0
  0
POINT
  5
295
  8
DEFPOINTS
  6
CONTINUOUS
 62
     0
 10
-1532.290160499672
 20
-2740.414668368154
 30
0.0
  0
POINT
  5
296
  8
DEFPOINTS
  6
CONTINUOUS
 62
     0
 10
-1622.726239578863
 20
-2740.414668368154
 30
0.0
  0
ENDBLK
  5
297
  8
0
 62
     7
  0
BLOCK
  8
0
  2
*D88
 70
     1
 10
0.0
 20
0.0
 30
0.0
  3
*D88
  1

  0
LINE
  5
277
  8
回07-寸法
  6
CONTINUOUS
 62
     5
 10
-1613.290160499827
 20
-2787.044582278912
 30
0.0
 11
-1613.290160499827
 21
-2807.70023340729
 31
0.0
  0
LINE
  5
278
  8
回07-寸法
  6
CONTINUOUS
 62
     5
 10
-1603.29011698906
 20
-2787.044582278913
 30
0.0
 11
-1603.29011698906
 21
-2807.70023340729
 31
0.0
  0
LINE
  5
279
  8
回07-寸法
  6
CONTINUOUS
 62
     5
 10
-1598.29011698906
 20
-2806.700233407291
 30
0.0
 11
-1578.696416201658
 21
-2806.700233407291
 31
0.0
  0
LINE
  5
27A
  8
回07-寸法
  6
CONTINUOUS
 62
     5
 10
-1613.290160499827
 20
-2806.700233407291
 30
0.0
 11
-1603.29011698906
 21
-2806.700233407291
 31
0.0
  0
LINE
  5
27B
  8
回07-寸法
  6
CONTINUOUS
 62
     5
 10
-1618.290160499827
 20
-2806.700233407291
 30
0.0
 11
-1623.290160499827
 21
-2806.700233407291
 31
0.0
  0
INSERT
  5
27C
  8
回07-寸法
  6
CONTINUOUS
 62
     5
 66
     1
  2
_OPEN
 10
-1613.290160499827
 20
-2806.700233407291
 30
0.0
 41
5.0
 42
5.0
 43
5.0
  0
SEQEND
  5
27D
  8
回04-下接
  6
CONTINUOUS
 62
     7
  0
INSERT
  5
27E
  8
回07-寸法
  6
CONTINUOUS
 62
     5
 66
     1
  2
_OPEN
 10
-1603.29011698906
 20
-2806.700233407291
 30
0.0
 41
5.0
 42
5.0
 43
5.0
 50
180.0
  0
SEQEND
  5
27F
  8
回04-下接
  6
CONTINUOUS
 62
     7
  0
TEXT
  5
280
  8
回07-寸法
  6
CONTINUOUS
 62
     5
 10
-1593.993266595359
 20
-2805.80023340729
 30
0.0
 40
8.0
  1
(10)
1001
ACAD
1000
MTEXTBEGIN
1070
    73
1070
     1
1070
    44
1040
1.0
1070
    74
1070
     0
1000
MTEXTEND
  0
POINT
  5
281
  8
DEFPOINTS
  6
CONTINUOUS
 62
     0
 10
-1613.290160499827
 20
-2787.044582278912
 30
0.0
  0
POINT
  5
282
  8
DEFPOINTS
  6
CONTINUOUS
 62
     0
 10
-1603.29011698906
 20
-2787.044582278913
 30
0.0
  0
POINT
  5
283
  8
DEFPOINTS
  6
CONTINUOUS
 62
     0
 10
-1603.29011698906
 20
-2806.700233407291
 30
0.0
  0
ENDBLK
  5
284
  8
0
 62
     7
  0
BLOCK
  8
0
  2
*D99
 70
     1
 10
0.0
 20
0.0
 30
0.0
  3
*D99
  1

  0
LINE
  5
265
  8
回07-寸法
  6
CONTINUOUS
 62
     5
 10
-1613.290160499827
 20
-2780.044582278913
 30
0.0
 11
-1613.290160499827
 21
-2771.76339838929
 31
0.0
  0
LINE
  5
266
  8
回07-寸法
  6
CONTINUOUS
 62
     5
 10
-1608.290160499827
 20
-2780.044582278913
 30
0.0
 11
-1608.290160499827
 21
-2771.76339838929
 31
0.0
  0
LINE
  5
267
  8
回07-寸法
  6
CONTINUOUS
 62
     5
 10
-1603.290160499827
 20
-2772.76339838929
 30
0.0
 11
-1593.924475074878
 21
-2772.76339838929
 31
0.0
  0
LINE
  5
268
  8
回07-寸法
  6
CONTINUOUS
 62
     5
 10
-1613.290160499827
 20
-2772.76339838929
 30
0.0
 11
-1608.290160499827
 21
-2772.76339838929
 31
0.0
  0
LINE
  5
269
  8
回07-寸法
  6
CONTINUOUS
 62
     5
 10
-1618.290160499827
 20
-2772.76339838929
 30
0.0
 11
-1623.290160499827
 21
-2772.76339838929
 31
0.0
  0
INSERT
  5
26A
  8
回07-寸法
  6
CONTINUOUS
 62
     5
 66
     1
  2
_OPEN
 10
-1613.290160499827
 20
-2772.76339838929
 30
0.0
 41
5.0
 42
5.0
 43
5.0
  0
SEQEND
  5
26B
  8
回04-下接
  6
CONTINUOUS
 62
     7
  0
INSERT
  5
26C
  8
回07-寸法
  6
CONTINUOUS
 62
     5
 66
     1
  2
_OPEN
 10
-1608.290160499827
 20
-2772.76339838929
 30
0.0
 41
5.0
 42
5.0
 43
5.0
 50
180.0
  0
SEQEND
  5
26D
  8
回04-下接
  6
CONTINUOUS
 62
     7
  0
TEXT
  5
26E
  8
回07-寸法
  6
CONTINUOUS
 62
     5
 10
-1598.824475074878
 20
-2772.26339838929
 30
0.0
 40
8.0
  1
5
1001
ACAD
1000
MTEXTBEGIN
1070
    73
1070
     1
1070
    44
1040
1.0
1070
    74
1070
     0
1000
MTEXTEND
  0
POINT
  5
26F
  8
DEFPOINTS
  6
CONTINUOUS
 62
     0
 10
-1613.290160499827
 20
-2780.044582278913
 30
0.0
  0
POINT
  5
270
  8
DEFPOINTS
  6
CONTINUOUS
 62
     0
 10
-1608.290160499827
 20
-2780.044582278913
 30
0.0
  0
POINT
  5
271
  8
DEFPOINTS
  6
CONTINUOUS
 62
     0
 10
-1608.290160499827
 20
-2772.76339838929
 30
0.0
  0
ENDBLK
  5
272
  8
0
 62
     7
  0
BLOCK
  8
0
  2
*D1010
 70
     1
 10
0.0
 20
0.0
 30
0.0
  3
*D1010
  1

  0
LINE
  5
254
  8
回07-寸法
  6
CONTINUOUS
 62
     5
 10
-1613.29011698906
 20
-2780.044582278913
 30
0.0
 11
-1621.796242766053
 21
-2780.044582278913
 31
0.0
  0
LINE
  5
255
  8
回07-寸法
  6
CONTINUOUS
 62
     5
 10
-1613.29011698906
 20
-2787.044582278913
 30
0.0
 11
-1621.796242766053
 21
-2787.044582278913
 31
0.0
  0
LINE
  5
256
  8
回07-寸法
  6
CONTINUOUS
 62
     5
 10
-1620.796242766053
 20
-2792.044582278913
 30
0.0
 11
-1620.796242766053
 21
-2827.086861288977
 31
0.0
  0
LINE
  5
257
  8
回07-寸法
  6
CONTINUOUS
 62
     5
 10
-1620.796242766053
 20
-2780.044582278913
 30
0.0
 11
-1620.796242766053
 21
-2787.044582278913
 31
0.0
  0
LINE
  5
258
  8
回07-寸法
  6
CONTINUOUS
 62
     5
 10
-1620.796242766053
 20
-2775.044582278912
 30
0.0
 11
-1620.796242766053
 21
-2770.044582278913
 31
0.0
  0
INSERT
  5
259
  8
回07-寸法
  6
CONTINUOUS
 62
     5
 66
     1
  2
_OPEN
 10
-1620.796242766053
 20
-2780.044582278913
 30
0.0
 41
5.0
 42
5.0
 43
5.0
 50
270.0
  0
SEQEND
  5
25A
  8
回04-下接
  6
CONTINUOUS
 62
     7
  0
INSERT
  5
25B
  8
回07-寸法
  6
CONTINUOUS
 62
     5
 66
     1
  2
_OPEN
 10
-1620.796242766053
 20
-2787.044582278913
 30
0.0
 41
5.0
 42
5.0
 43
5.0
 50
90.0
  0
SEQEND
  5
25C
  8
回04-下接
  6
CONTINUOUS
 62
     7
  0
INSERT
  5
25D
  8
回07-寸法
  6
CONTINUOUS
 62
     5
 66
     1
  2
*X8585
 10
0.0
 20
0.0
 30
0.0
  0
SEQEND
  5
731
  8
回04-下接
  6
CONTINUOUS
 62
     7
  0
POINT
  5
25E
  8
DEFPOINTS
  6
CONTINUOUS
 62
     0
 10
-1613.29011698906
 20
-2780.044582278913
 30
0.0
  0
POINT
  5
25F
  8
DEFPOINTS
  6
CONTINUOUS
 62
     0
 10
-1613.29011698906
 20
-2787.044582278913
 30
0.0
  0
POINT
  5
260
  8
DEFPOINTS
  6
CONTINUOUS
 62
     0
 10
-1620.796242766053
 20
-2787.044582278913
 30
0.0
  0
ENDBLK
  5
261
  8
0
 62
     7
  0
BLOCK
  8
0
  2
*D1111
 70
     1
 10
0.0
 20
0.0
 30
0.0
  3
*D1111
  1

  0
LINE
  5
48D
  8
回07-寸法
  6
CONTINUOUS
 62
     5
 10
-1533.290160499672
 20
-2414.014668368154
 30
0.0
 11
-1533.290160499672
 21
-2351.720132317744
 31
0.0
  0
LINE
  5
48E
  8
回07-寸法
  6
CONTINUOUS
 62
     5
 10
-1132.690160499672
 20
-2414.014668368154
 30
0.0
 11
-1132.690160499672
 21
-2351.720132317744
 31
0.0
  0
LINE
  5
48F
  8
回07-寸法
  6
CONTINUOUS
 62
     5
 10
-1528.290160499672
 20
-2352.720132317744
 30
0.0
 11
-1137.690160499672
 21
-2352.720132317744
 31
0.0
  0
INSERT
  5
490
  8
回07-寸法
  6
CONTINUOUS
 62
     5
 66
     1
  2
_OPEN
 10
-1533.290160499672
 20
-2352.720132317744
 30
0.0
 41
5.0
 42
5.0
 43
5.0
 50
180.0
  0
SEQEND
  5
491
  8
回04-下接
  6
CONTINUOUS
 62
     7
  0
INSERT
  5
492
  8
回07-寸法
  6
CONTINUOUS
 62
     5
 66
     1
  2
_OPEN
 10
-1132.690160499672
 20
-2352.720132317744
 30
0.0
 41
5.0
 42
5.0
 43
5.0
  0
SEQEND
  5
493
  8
回04-下接
  6
CONTINUOUS
 62
     7
  0
INSERT
  5
494
  8
回07-寸法
  6
CONTINUOUS
 62
     5
 66
     1
  2
*X8686
 10
0.0
 20
0.0
 30
0.0
  0
SEQEND
  5
737
  8
回04-下接
  6
CONTINUOUS
 62
     7
  0
POINT
  5
495
  8
DEFPOINTS
  6
CONTINUOUS
 62
     0
 10
-1533.290160499672
 20
-2414.014668368154
 30
0.0
  0
POINT
  5
496
  8
DEFPOINTS
  6
CONTINUOUS
 62
     0
 10
-1132.690160499672
 20
-2414.014668368154
 30
0.0
  0
POINT
  5
497
  8
DEFPOINTS
  6
CONTINUOUS
 62
     0
 10
-1132.690160499672
 20
-2352.720132317744
 30
0.0
  0
ENDBLK
  5
498
  8
0
 62
     7
  0
BLOCK
  8
0
  2
*D1212
 70
     1
 10
0.0
 20
0.0
 30
0.0
  3
*D1212
  1

  0
LINE
  5
47E
  8
回07-寸法
  6
CONTINUOUS
 62
     5
 10
-1132.69016049967
 20
-2414.014668368159
 30
0.0
 11
-1032.061434991304
 21
-2414.014668368159
 31
0.0
  0
LINE
  5
47F
  8
回07-寸法
  6
CONTINUOUS
 62
     5
 10
-1132.690160499671
 20
-2740.414668368153
 30
0.0
 11
-1032.061434991304
 21
-2740.414668368153
 31
0.0
  0
LINE
  5
480
  8
回07-寸法
  6
CONTINUOUS
 62
     5
 10
-1033.061434991304
 20
-2419.014668368159
 30
0.0
 11
-1033.061434991304
 21
-2735.414668368152
 31
0.0
  0
INSERT
  5
481
  8
回07-寸法
  6
CONTINUOUS
 62
     5
 66
     1
  2
_OPEN
 10
-1033.061434991304
 20
-2414.014668368159
 30
0.0
 41
5.0
 42
5.0
 43
5.0
 50
90.0
  0
SEQEND
  5
482
  8
回04-下接
  6
CONTINUOUS
 62
     7
  0
INSERT
  5
483
  8
回07-寸法
  6
CONTINUOUS
 62
     5
 66
     1
  2
_OPEN
 10
-1033.061434991304
 20
-2740.414668368153
 30
0.0
 41
5.0
 42
5.0
 43
5.0
 50
270.0
  0
SEQEND
  5
484
  8
回04-下接
  6
CONTINUOUS
 62
     7
  0
INSERT
  5
485
  8
回07-寸法
  6
CONTINUOUS
 62
     5
 66
     1
  2
*X8787
 10
0.0
 20
0.0
 30
0.0
  0
SEQEND
  5
73D
  8
回04-下接
  6
CONTINUOUS
 62
     7
  0
POINT
  5
486
  8
DEFPOINTS
  6
CONTINUOUS
 62
     0
 10
-1132.69016049967
 20
-2414.014668368159
 30
0.0
  0
POINT
  5
487
  8
DEFPOINTS
  6
CONTINUOUS
 62
     0
 10
-1132.690160499671
 20
-2740.414668368153
 30
0.0
  0
POINT
  5
488
  8
DEFPOINTS
  6
CONTINUOUS
 62
     0
 10
-1033.061434991304
 20
-2740.414668368153
 30
0.0
  0
ENDBLK
  5
489
  8
0
 62
     7
  0
BLOCK
  8
0
  2
*D1313
 70
     1
 10
0.0
 20
0.0
 30
0.0
  3
*D1313
  1

  0
LINE
  5
464
  8
回07-寸法
  6
CONTINUOUS
 62
     5
 10
-1536.482090408036
 20
-2569.215822267203
 30
0.0
 11
-1575.919914847333
 21
-2569.215822267203
 31
0.0
  0
LINE
  5
465
  8
回07-寸法
  6
CONTINUOUS
 62
     5
 10
-1536.477916822331
 20
-2585.214619232932
 30
0.0
 11
-1575.919914847333
 21
-2585.214619232932
 31
0.0
  0
LINE
  5
466
  8
回07-寸法
  6
CONTINUOUS
 62
     5
 10
-1574.919914847333
 20
-2590.214619232932
 30
0.0
 11
-1574.919914847333
 21
-2603.616384543519
 31
0.0
  0
LINE
  5
467
  8
回07-寸法
  6
CONTINUOUS
 62
     5
 10
-1574.919914847333
 20
-2569.215822267203
 30
0.0
 11
-1574.919914847333
 21
-2585.214619232932
 31
0.0
  0
LINE
  5
468
  8
回07-寸法
  6
CONTINUOUS
 62
     5
 10
-1574.919914847333
 20
-2564.215822267204
 30
0.0
 11
-1574.919914847333
 21
-2559.215822267205
 31
0.0
  0
INSERT
  5
469
  8
回07-寸法
  6
CONTINUOUS
 62
     5
 66
     1
  2
_OPEN
 10
-1574.919914847333
 20
-2569.215822267203
 30
0.0
 41
5.0
 42
5.0
 43
5.0
 50
270.0
  0
SEQEND
  5
46A
  8
回04-下接
  6
CONTINUOUS
 62
     7
  0
INSERT
  5
46B
  8
回07-寸法
  6
CONTINUOUS
 62
     5
 66
     1
  2
_OPEN
 10
-1574.919914847333
 20
-2585.214619232932
 30
0.0
 41
5.0
 42
5.0
 43
5.0
 50
90.0
  0
SEQEND
  5
46C
  8
回04-下接
  6
CONTINUOUS
 62
     7
  0
TEXT
  5
46D
  8
回07-寸法
  6
CONTINUOUS
 62
     5
 10
-1575.419914847334
 20
-2604.316384543519
 30
0.0
 40
8.0
  1
16
 50
90.0
1001
ACAD
1000
MTEXTBEGIN
1070
    73
1070
     1
1070
    44
1040
1.0
1070
    74
1070
     0
1000
MTEXTEND
  0
POINT
  5
46E
  8
DEFPOINTS
  6
CONTINUOUS
 62
     0
 10
-1536.482090408036
 20
-2569.215822267203
 30
0.0
  0
POINT
  5
46F
  8
DEFPOINTS
  6
CONTINUOUS
 62
     0
 10
-1536.477916822331
 20
-2585.214619232932
 30
0.0
  0
POINT
  5
470
  8
DEFPOINTS
  6
CONTINUOUS
 62
     0
 10
-1574.919914847333
 20
-2585.214619232932
 30
0.0
  0
ENDBLK
  5
471
  8
0
 62
     7
  0
BLOCK
  8
0
  2
*D1414
 70
     1
 10
0.0
 20
0.0
 30
0.0
  3
*D1414
  1

  0
LINE
  5
455
  8
回07-寸法
  6
CONTINUOUS
 62
     5
 10
-1533.290160499672
 20
-2569.151171075445
 30
0.0
 11
-1533.290160499672
 21
-2546.309238377952
 31
0.0
  0
LINE
  5
456
  8
回07-寸法
  6
CONTINUOUS
 62
     5
 10
-1613.290160497258
 20
-2574.589619232932
 30
0.0
 11
-1613.290160497258
 21
-2546.309238377952
 31
0.0
  0
LINE
  5
457
  8
回07-寸法
  6
CONTINUOUS
 62
     5
 10
-1538.290160499672
 20
-2547.309238377952
 30
0.0
 11
-1608.290160497258
 21
-2547.309238377952
 31
0.0
  0
INSERT
  5
458
  8
回07-寸法
  6
CONTINUOUS
 62
     5
 66
     1
  2
_OPEN
 10
-1533.290160499672
 20
-2547.309238377952
 30
0.0
 41
5.0
 42
5.0
 43
5.0
  0
SEQEND
  5
459
  8
回04-下接
  6
CONTINUOUS
 62
     7
  0
INSERT
  5
45A
  8
回07-寸法
  6
CONTINUOUS
 62
     5
 66
     1
  2
_OPEN
 10
-1613.290160497258
 20
-2547.309238377952
 30
0.0
 41
5.0
 42
5.0
 43
5.0
 50
180.0
  0
SEQEND
  5
45B
  8
回04-下接
  6
CONTINUOUS
 62
     7
  0
INSERT
  5
45C
  8
回07-寸法
  6
CONTINUOUS
 62
     5
 66
     1
  2
*X8888
 10
0.0
 20
0.0
 30
0.0
  0
SEQEND
  5
743
  8
回04-下接
  6
CONTINUOUS
 62
     7
  0
POINT
  5
45D
  8
DEFPOINTS
  6
CONTINUOUS
 62
     0
 10
-1533.290160499672
 20
-2569.151171075445
 30
0.0
  0
POINT
  5
45E
  8
DEFPOINTS
  6
CONTINUOUS
 62
     0
 10
-1613.290160497258
 20
-2574.589619232932
 30
0.0
  0
POINT
  5
45F
  8
DEFPOINTS
  6
CONTINUOUS
 62
     0
 10
-1613.290160497258
 20
-2547.309238377952
 30
0.0
  0
ENDBLK
  5
460
  8
0
 62
     7
  0
BLOCK
  8
0
  2
*D1515
 70
     1
 10
0.0
 20
0.0
 30
0.0
  3
*D1515
  1

  0
LINE
  5
444
  8
回07-寸法
  6
CONTINUOUS
 62
     5
 10
-1533.290160499673
 20
-2585.278165261424
 30
0.0
 11
-1533.290160499673
 21
-2610.465934351445
 31
0.0
  0
LINE
  5
445
  8
回07-寸法
  6
CONTINUOUS
 62
     5
 10
-1541.817266168947
 20
-2580.419345707318
 30
0.0
 11
-1541.817266168947
 21
-2610.465934351445
 31
0.0
  0
LINE
  5
446
  8
回07-寸法
  6
CONTINUOUS
 62
     5
 10
-1546.817266168947
 20
-2609.465934351445
 30
0.0
 11
-1564.182951593896
 21
-2609.465934351445
 31
0.0
  0
LINE
  5
447
  8
回07-寸法
  6
CONTINUOUS
 62
     5
 10
-1533.290160499673
 20
-2609.465934351445
 30
0.0
 11
-1541.817266168947
 21
-2609.465934351445
 31
0.0
  0
LINE
  5
448
  8
回07-寸法
  6
CONTINUOUS
 62
     5
 10
-1528.290160499673
 20
-2609.465934351445
 30
0.0
 11
-1523.290160499673
 21
-2609.465934351445
 31
0.0
  0
INSERT
  5
449
  8
回07-寸法
  6
CONTINUOUS
 62
     5
 66
     1
  2
_OPEN
 10
-1533.290160499673
 20
-2609.465934351445
 30
0.0
 41
5.0
 42
5.0
 43
5.0
 50
180.0
  0
SEQEND
  5
44A
  8
回04-下接
  6
CONTINUOUS
 62
     7
  0
INSERT
  5
44B
  8
回07-寸法
  6
CONTINUOUS
 62
     5
 66
     1
  2
_OPEN
 10
-1541.817266168947
 20
-2609.465934351445
 30
0.0
 41
5.0
 42
5.0
 43
5.0
  0
SEQEND
  5
44C
  8
回04-下接
  6
CONTINUOUS
 62
     7
  0
TEXT
  5
44D
  8
回07-寸法
  6
CONTINUOUS
 62
     5
 10
-1564.882951593896
 20
-2608.965934351445
 30
0.0
 40
8.0
  1
8.5
1001
ACAD
1000
MTEXTBEGIN
1070
    73
1070
     1
1070
    44
1040
1.0
1070
    74
1070
     0
1000
MTEXTEND
  0
POINT
  5
44E
  8
DEFPOINTS
  6
CONTINUOUS
 62
     0
 10
-1533.290160499673
 20
-2585.278165261424
 30
0.0
  0
POINT
  5
44F
  8
DEFPOINTS
  6
CONTINUOUS
 62
     0
 10
-1541.817266168947
 20
-2580.419345707318
 30
0.0
  0
POINT
  5
450
  8
DEFPOINTS
  6
CONTINUOUS
 62
     0
 10
-1541.817266168947
 20
-2609.465934351445
 30
0.0
  0
ENDBLK
  5
451
  8
0
 62
     7
  0
BLOCK
  8
0
  2
*D1616
 70
     1
 10
0.0
 20
0.0
 30
0.0
  3
*D1616
  1

  0
LINE
  5
433
  8
回07-寸法
 62
     5
 10
-1612.790160499672
 20
-2574.089668368154
 30
0.0
 11
-1623.726239578865
 21
-2574.089668368154
 31
0.0
  0
LINE
  5
434
  8
回07-寸法
 62
     5
 10
-1612.790160498769
 20
-2580.339668368154
 30
0.0
 11
-1623.726239578865
 21
-2580.339668368154
 31
0.0
  0
LINE
  5
435
  8
回07-寸法
 62
     5
 10
-1622.726239578865
 20
-2569.089668368154
 30
0.0
 11
-1622.726239578865
 21
-2532.081464653892
 31
0.0
  0
LINE
  5
436
  8
回07-寸法
 62
     5
 10
-1622.726239578865
 20
-2574.089668368154
 30
0.0
 11
-1622.726239578865
 21
-2580.339668368154
 31
0.0
  0
LINE
  5
437
  8
回07-寸法
 62
     5
 10
-1622.726239578865
 20
-2585.339668368153
 30
0.0
 11
-1622.726239578865
 21
-2590.339668368154
 31
0.0
  0
INSERT
  5
438
  8
回07-寸法
  6
CONTINUOUS
 62
     5
 66
     1
  2
_OPEN
 10
-1622.726239578865
 20
-2574.089668368154
 30
0.0
 41
5.0
 42
5.0
 43
5.0
 50
270.0
  0
SEQEND
  5
439
  8
回04-下接
  6
CONTINUOUS
 62
     7
  0
INSERT
  5
43A
  8
回07-寸法
  6
CONTINUOUS
 62
     5
 66
     1
  2
_OPEN
 10
-1622.726239578865
 20
-2580.339668368154
 30
0.0
 41
5.0
 42
5.0
 43
5.0
 50
90.0
  0
SEQEND
  5
43B
  8
回04-下接
  6
CONTINUOUS
 62
     7
  0
INSERT
  5
43C
  8
回07-寸法
  6
CONTINUOUS
 62
     5
 66
     1
  2
*X8989
 10
0.0
 20
0.0
 30
0.0
  0
SEQEND
  5
749
  8
回04-下接
  6
CONTINUOUS
 62
     7
  0
POINT
  5
43D
  8
DEFPOINTS
  6
CONTINUOUS
 62
     0
 10
-1612.790160499672
 20
-2574.089668368154
 30
0.0
  0
POINT
  5
43E
  8
DEFPOINTS
  6
CONTINUOUS
 62
     0
 10
-1612.790160498769
 20
-2580.339668368154
 30
0.0
  0
POINT
  5
43F
  8
DEFPOINTS
  6
CONTINUOUS
 62
     0
 10
-1622.726239578865
 20
-2580.339668368154
 30
0.0
  0
ENDBLK
  5
440
  8
0
 62
     7
  0
BLOCK
  8
0
  2
*D1717
 70
     1
 10
0.0
 20
0.0
 30
0.0
  3
*D1717
  1

  0
LINE
  5
420
  8
回07-寸法
  6
CONTINUOUS
 62
     5
 10
-1533.290160499672
 20
-2585.27816546114
 30
0.0
 11
-1533.290160499672
 21
-2599.594112483258
 31
0.0
  0
LINE
  5
422
  8
回07-寸法
  6
CONTINUOUS
 62
     5
 10
-1536.859398702411
 20
-2585.139026727308
 30
0.0
 11
-1536.859398702411
 21
-2599.594112483258
 31
0.0
  0
LINE
  5
423
  8
回07-寸法
  6
CONTINUOUS
 62
     5
 10
-1541.859398702411
 20
-2598.594112483258
 30
0.0
 11
-1559.261164012997
 21
-2598.594112483258
 31
0.0
  0
LINE
  5
424
  8
回07-寸法
  6
CONTINUOUS
 62
     5
 10
-1533.290160499672
 20
-2598.594112483258
 30
0.0
 11
-1536.859398702411
 21
-2598.594112483258
 31
0.0
  0
LINE
  5
425
  8
回07-寸法
  6
CONTINUOUS
 62
     5
 10
-1528.290160499672
 20
-2598.594112483258
 30
0.0
 11
-1523.290160499672
 21
-2598.594112483258
 31
0.0
  0
INSERT
  5
426
  8
回07-寸法
  6
CONTINUOUS
 62
     5
 66
     1
  2
_OPEN
 10
-1533.290160499672
 20
-2598.594112483258
 30
0.0
 41
5.0
 42
5.0
 43
5.0
 50
180.0
  0
SEQEND
  5
427
  8
回04-下接
  6
CONTINUOUS
 62
     7
  0
INSERT
  5
428
  8
回07-寸法
  6
CONTINUOUS
 62
     5
 66
     1
  2
_OPEN
 10
-1536.859398702411
 20
-2598.594112483258
 30
0.0
 41
5.0
 42
5.0
 43
5.0
  0
SEQEND
  5
429
  8
回04-下接
  6
CONTINUOUS
 62
     7
  0
TEXT
  5
42A
  8
回07-寸法
  6
CONTINUOUS
 62
     5
 10
-1559.961164012998
 20
-2598.094112483258
 30
0.0
 40
8.0
  1
3.6
1001
ACAD
1000
MTEXTBEGIN
1070
    73
1070
     1
1070
    44
1040
1.0
1070
    74
1070
     0
1000
MTEXTEND
  0
POINT
  5
42B
  8
DEFPOINTS
  6
CONTINUOUS
 62
     0
 10
-1533.290160499672
 20
-2585.27816546114
 30
0.0
  0
POINT
  5
42C
  8
DEFPOINTS
  6
CONTINUOUS
 62
     0
 10
-1536.859398702411
 20
-2585.139026727308
 30
0.0
  0
POINT
  5
42D
  8
DEFPOINTS
  6
CONTINUOUS
 62
     0
 10
-1536.859398702411
 20
-2598.594112483258
 30
0.0
  0
ENDBLK
  5
42E
  8
0
 62
     7
  0
BLOCK
  8
0
  2
*D1818
 70
     1
 10
0.0
 20
0.0
 30
0.0
  3
*D1818
  1

  0
LINE
  5
3A5
  8
回07-寸法
  6
CONTINUOUS
 62
     5
 10
-1296.990160499672
 20
-2601.214668368155
 30
0.0
 11
-1281.95630220687
 21
-2601.214668368155
 31
0.0
  0
LINE
  5
3A6
  8
回07-寸法
  6
CONTINUOUS
 62
     5
 10
-1296.990160499672
 20
-2605.214668368155
 30
0.0
 11
-1281.95630220687
 21
-2605.214668368155
 31
0.0
  0
LINE
  5
3A7
  8
回07-寸法
  6
CONTINUOUS
 62
     5
 10
-1282.95630220687
 20
-2608.214668368154
 30
0.0
 11
-1282.95630220687
 21
-2616.214668368155
 31
0.0
  0
LINE
  5
3A8
  8
回07-寸法
  6
CONTINUOUS
 62
     5
 10
-1282.95630220687
 20
-2601.214668368155
 30
0.0
 11
-1282.95630220687
 21
-2605.214668368155
 31
0.0
  0
LINE
  5
3A9
  8
回07-寸法
  6
CONTINUOUS
 62
     5
 10
-1282.95630220687
 20
-2598.214668368155
 30
0.0
 11
-1282.95630220687
 21
-2595.214668368154
 31
0.0
  0
INSERT
  5
3AA
  8
回07-寸法
  6
CONTINUOUS
 62
     5
 66
     1
  2
_OPEN
 10
-1282.95630220687
 20
-2601.214668368155
 30
0.0
 41
3.0
 42
3.0
 43
3.0
 50
270.0
  0
SEQEND
  5
3AB
  8
回04-下接
  6
CONTINUOUS
 62
     7
  0
INSERT
  5
3AC
  8
回07-寸法
  6
CONTINUOUS
 62
     5
 66
     1
  2
_OPEN
 10
-1282.95630220687
 20
-2605.214668368155
 30
0.0
 41
3.0
 42
3.0
 43
3.0
 50
90.0
  0
SEQEND
  5
3AD
  8
回04-下接
  6
CONTINUOUS
 62
     7
  0
TEXT
  5
3AE
  8
回07-寸法
  6
CONTINUOUS
 62
     5
 10
-1283.45630220687
 20
-2616.914668368155
 30
0.0
 40
8.0
  1
4
 50
90.0
1001
ACAD
1000
MTEXTBEGIN
1070
    73
1070
     1
1070
    44
1040
1.0
1070
    74
1070
     0
1000
MTEXTEND
  0
POINT
  5
3AF
  8
DEFPOINTS
  6
CONTINUOUS
 62
     0
 10
-1296.990160499672
 20
-2601.214668368155
 30
0.0
  0
POINT
  5
3B0
  8
DEFPOINTS
  6
CONTINUOUS
 62
     0
 10
-1296.990160499672
 20
-2605.214668368155
 30
0.0
  0
POINT
  5
3B1
  8
DEFPOINTS
  6
CONTINUOUS
 62
     0
 10
-1282.95630220687
 20
-2605.214668368155
 30
0.0
  0
ENDBLK
  5
3B2
  8
0
 62
     7
  0
BLOCK
  8
0
  2
*D1919
 70
     1
 10
0.0
 20
0.0
 30
0.0
  3
*D1919
  1

  0
LINE
  5
394
  8
回07-寸法
  6
CONTINUOUS
 62
     5
 10
-1304.990160499672
 20
-2613.214668368155
 30
0.0
 11
-1304.990160499672
 21
-2629.53951499231
 31
0.0
  0
LINE
  5
395
  8
回07-寸法
  6
CONTINUOUS
 62
     5
 10
-1300.990160499672
 20
-2613.214668368155
 30
0.0
 11
-1300.990160499672
 21
-2629.53951499231
 31
0.0
  0
LINE
  5
396
  8
回07-寸法
  6
CONTINUOUS
 62
     5
 10
-1297.990160499672
 20
-2628.53951499231
 30
0.0
 11
-1289.990160499672
 21
-2628.53951499231
 31
0.0
  0
LINE
  5
397
  8
回07-寸法
  6
CONTINUOUS
 62
     5
 10
-1304.990160499672
 20
-2628.53951499231
 30
0.0
 11
-1300.990160499672
 21
-2628.53951499231
 31
0.0
  0
LINE
  5
398
  8
回07-寸法
  6
CONTINUOUS
 62
     5
 10
-1307.990160499672
 20
-2628.53951499231
 30
0.0
 11
-1310.990160499672
 21
-2628.53951499231
 31
0.0
  0
INSERT
  5
399
  8
回07-寸法
  6
CONTINUOUS
 62
     5
 66
     1
  2
_OPEN
 10
-1304.990160499672
 20
-2628.53951499231
 30
0.0
 41
3.0
 42
3.0
 43
3.0
  0
SEQEND
  5
39A
  8
回04-下接
  6
CONTINUOUS
 62
     7
  0
INSERT
  5
39B
  8
回07-寸法
  6
CONTINUOUS
 62
     5
 66
     1
  2
_OPEN
 10
-1300.990160499672
 20
-2628.53951499231
 30
0.0
 41
3.0
 42
3.0
 43
3.0
 50
180.0
  0
SEQEND
  5
39C
  8
回04-下接
  6
CONTINUOUS
 62
     7
  0
TEXT
  5
39D
  8
回07-寸法
  6
CONTINUOUS
 62
     5
 10
-1295.690160499672
 20
-2628.03951499231
 30
0.0
 40
8.0
  1
4
1001
ACAD
1000
MTEXTBEGIN
1070
    73
1070
     1
1070
    44
1040
1.0
1070
    74
1070
     0
1000
MTEXTEND
  0
POINT
  5
39E
  8
DEFPOINTS
  6
CONTINUOUS
 62
     0
 10
-1304.990160499672
 20
-2613.214668368155
 30
0.0
  0
POINT
  5
39F
  8
DEFPOINTS
  6
CONTINUOUS
 62
     0
 10
-1300.990160499672
 20
-2613.214668368155
 30
0.0
  0
POINT
  5
3A0
  8
DEFPOINTS
  6
CONTINUOUS
 62
     0
 10
-1300.990160499672
 20
-2628.53951499231
 30
0.0
  0
ENDBLK
  5
3A1
  8
0
 62
     7
  0
BLOCK
  8
0
  2
*D2020
 70
     1
 10
0.0
 20
0.0
 30
0.0
  3
*D2020
  1

  0
LINE
  5
37F
  8
回07-寸法
  6
CONTINUOUS
 62
     5
 10
-1521.400160499672
 20
-2426.436668368154
 30
0.0
 11
-1521.400160499672
 21
-2395.886668368154
 31
0.0
  0
LINE
  5
380
  8
回07-寸法
  6
CONTINUOUS
 62
     5
 10
-1144.580160499672
 20
-2426.436668368154
 30
0.0
 11
-1144.580160499672
 21
-2395.886668368154
 31
0.0
  0
LINE
  5
381
  8
回07-寸法
  6
CONTINUOUS
 62
     5
 10
-1516.400160499672
 20
-2396.886668368154
 30
0.0
 11
-1149.580160499672
 21
-2396.886668368154
 31
0.0
  0
INSERT
  5
382
  8
回07-寸法
  6
CONTINUOUS
 62
     5
 66
     1
  2
_OPEN
 10
-1521.400160499672
 20
-2396.886668368154
 30
0.0
 41
5.0
 42
5.0
 43
5.0
 50
180.0
  0
SEQEND
  5
383
  8
回04-下接
  6
CONTINUOUS
 62
     7
  0
INSERT
  5
384
  8
回07-寸法
  6
CONTINUOUS
 62
     5
 66
     1
  2
_OPEN
 10
-1144.580160499672
 20
-2396.886668368154
 30
0.0
 41
5.0
 42
5.0
 43
5.0
  0
SEQEND
  5
385
  8
回04-下接
  6
CONTINUOUS
 62
     7
  0
INSERT
  5
386
  8
回07-寸法
  6
CONTINUOUS
 62
     5
 66
     1
  2
*X9090
 10
0.0
 20
0.0
 30
0.0
  0
SEQEND
  5
74F
  8
回04-下接
  6
CONTINUOUS
 62
     7
  0
POINT
  5
387
  8
DEFPOINTS
  6
CONTINUOUS
 62
     0
 10
-1521.400160499672
 20
-2426.436668368154
 30
0.0
  0
POINT
  5
388
  8
DEFPOINTS
  6
CONTINUOUS
 62
     0
 10
-1144.580160499672
 20
-2426.436668368154
 30
0.0
  0
POINT
  5
389
  8
DEFPOINTS
  6
CONTINUOUS
 62
     0
 10
-1144.580160499672
 20
-2396.886668368154
 30
0.0
  0
ENDBLK
  5
38A
  8
0
 62
     7
  0
BLOCK
  8
0
  2
*D2121
 70
     1
 10
0.0
 20
0.0
 30
0.0
  3
*D2121
  1

  0
LINE
  5
370
  8
回07-寸法
  6
CONTINUOUS
 62
     5
 10
-1523.400160499672
 20
-2424.436668368154
 30
0.0
 11
-1523.400160499672
 21
-2380.886668368154
 31
0.0
  0
LINE
  5
371
  8
回07-寸法
  6
CONTINUOUS
 62
     5
 10
-1142.580160499672
 20
-2424.436668368154
 30
0.0
 11
-1142.580160499672
 21
-2380.886668368154
 31
0.0
  0
LINE
  5
372
  8
回07-寸法
  6
CONTINUOUS
 62
     5
 10
-1518.400160499672
 20
-2381.886668368154
 30
0.0
 11
-1147.580160499672
 21
-2381.886668368154
 31
0.0
  0
INSERT
  5
373
  8
回07-寸法
  6
CONTINUOUS
 62
     5
 66
     1
  2
_OPEN
 10
-1523.400160499672
 20
-2381.886668368154
 30
0.0
 41
5.0
 42
5.0
 43
5.0
 50
180.0
  0
SEQEND
  5
374
  8
回04-下接
  6
CONTINUOUS
 62
     7
  0
INSERT
  5
375
  8
回07-寸法
  6
CONTINUOUS
 62
     5
 66
     1
  2
_OPEN
 10
-1142.580160499672
 20
-2381.886668368154
 30
0.0
 41
5.0
 42
5.0
 43
5.0
  0
SEQEND
  5
376
  8
回04-下接
  6
CONTINUOUS
 62
     7
  0
INSERT
  5
377
  8
回07-寸法
  6
CONTINUOUS
 62
     5
 66
     1
  2
*X9191
 10
0.0
 20
0.0
 30
0.0
  0
SEQEND
  5
755
  8
回04-下接
  6
CONTINUOUS
 62
     7
  0
POINT
  5
378
  8
DEFPOINTS
  6
CONTINUOUS
 62
     0
 10
-1523.400160499672
 20
-2424.436668368154
 30
0.0
  0
POINT
  5
379
  8
DEFPOINTS
  6
CONTINUOUS
 62
     0
 10
-1142.580160499672
 20
-2424.436668368154
 30
0.0
  0
POINT
  5
37A
  8
DEFPOINTS
  6
CONTINUOUS
 62
     0
 10
-1142.580160499672
 20
-2381.886668368154
 30
0.0
  0
ENDBLK
  5
37B
  8
0
 62
     7
  0
BLOCK
  8
0
  2
*D2222
 70
     1
 10
0.0
 20
0.0
 30
0.0
  3
*D2222
  1

  0
LINE
  5
361
  8
回07-寸法
  6
CONTINUOUS
 62
     5
 10
-1144.580160499672
 20
-2727.992668368154
 30
0.0
 11
-1085.580160499672
 21
-2727.992668368154
 31
0.0
  0
LINE
  5
362
  8
回07-寸法
  6
CONTINUOUS
 62
     5
 10
-1144.580160499672
 20
-2426.436668368154
 30
0.0
 11
-1085.580160499672
 21
-2426.436668368154
 31
0.0
  0
LINE
  5
363
  8
回07-寸法
  6
CONTINUOUS
 62
     5
 10
-1086.580160499672
 20
-2722.992668368154
 30
0.0
 11
-1086.580160499672
 21
-2431.436668368154
 31
0.0
  0
INSERT
  5
364
  8
回07-寸法
  6
CONTINUOUS
 62
     5
 66
     1
  2
_OPEN
 10
-1086.580160499672
 20
-2727.992668368154
 30
0.0
 41
5.0
 42
5.0
 43
5.0
 50
270.0
  0
SEQEND
  5
365
  8
回04-下接
  6
CONTINUOUS
 62
     7
  0
INSERT
  5
366
  8
回07-寸法
  6
CONTINUOUS
 62
     5
 66
     1
  2
_OPEN
 10
-1086.580160499672
 20
-2426.436668368154
 30
0.0
 41
5.0
 42
5.0
 43
5.0
 50
90.0
  0
SEQEND
  5
367
  8
回04-下接
  6
CONTINUOUS
 62
     7
  0
INSERT
  5
368
  8
回07-寸法
  6
CONTINUOUS
 62
     5
 66
     1
  2
*X9292
 10
0.0
 20
0.0
 30
0.0
  0
SEQEND
  5
75B
  8
回04-下接
  6
CONTINUOUS
 62
     7
  0
POINT
  5
369
  8
DEFPOINTS
  6
CONTINUOUS
 62
     0
 10
-1144.580160499672
 20
-2727.992668368154
 30
0.0
  0
POINT
  5
36A
  8
DEFPOINTS
  6
CONTINUOUS
 62
     0
 10
-1144.580160499672
 20
-2426.436668368154
 30
0.0
  0
POINT
  5
36B
  8
DEFPOINTS
  6
CONTINUOUS
 62
     0
 10
-1086.580160499672
 20
-2426.436668368154
 30
0.0
  0
ENDBLK
  5
36C
  8
0
 62
     7
  0
BLOCK
  8
0
  2
*D2323
 70
     1
 10
0.0
 20
0.0
 30
0.0
  3
*D2323
  1

  0
LINE
  5
352
  8
回07-寸法
  6
CONTINUOUS
 62
     5
 10
-1142.580160499672
 20
-2424.436668368155
 30
0.0
 11
-1070.58016049967
 21
-2424.436668368155
 31
0.0
  0
LINE
  5
353
  8
回07-寸法
  6
CONTINUOUS
 62
     5
 10
-1142.580160499672
 20
-2729.992668368154
 30
0.0
 11
-1070.58016049967
 21
-2729.992668368154
 31
0.0
  0
LINE
  5
354
  8
回07-寸法
  6
CONTINUOUS
 62
     5
 10
-1071.58016049967
 20
-2429.436668368154
 30
0.0
 11
-1071.58016049967
 21
-2724.992668368154
 31
0.0
  0
INSERT
  5
355
  8
回07-寸法
  6
CONTINUOUS
 62
     5
 66
     1
  2
_OPEN
 10
-1071.58016049967
 20
-2424.436668368155
 30
0.0
 41
5.0
 42
5.0
 43
5.0
 50
90.0
  0
SEQEND
  5
356
  8
回04-下接
  6
CONTINUOUS
 62
     7
  0
INSERT
  5
357
  8
回07-寸法
  6
CONTINUOUS
 62
     5
 66
     1
  2
_OPEN
 10
-1071.58016049967
 20
-2729.992668368154
 30
0.0
 41
5.0
 42
5.0
 43
5.0
 50
270.0
  0
SEQEND
  5
358
  8
回04-下接
  6
CONTINUOUS
 62
     7
  0
INSERT
  5
359
  8
回07-寸法
  6
CONTINUOUS
 62
     5
 66
     1
  2
*X9393
 10
0.0
 20
0.0
 30
0.0
  0
SEQEND
  5
761
  8
回04-下接
  6
CONTINUOUS
 62
     7
  0
POINT
  5
35A
  8
DEFPOINTS
  6
CONTINUOUS
 62
     0
 10
-1142.580160499672
 20
-2424.436668368155
 30
0.0
  0
POINT
  5
35B
  8
DEFPOINTS
  6
CONTINUOUS
 62
     0
 10
-1142.580160499672
 20
-2729.992668368154
 30
0.0
  0
POINT
  5
35C
  8
DEFPOINTS
  6
CONTINUOUS
 62
     0
 10
-1071.58016049967
 20
-2729.992668368154
 30
0.0
  0
ENDBLK
  5
35D
  8
0
 62
     7
  0
BLOCK
  8
0
  2
*D2424
 70
     1
 10
0.0
 20
0.0
 30
0.0
  3
*D2424
  1

  0
LINE
  5
341
  8
回07-寸法
  6
CONTINUOUS
 62
     5
 10
-1142.580160499672
 20
-2424.436668368154
 30
0.0
 11
-1070.580160499666
 21
-2424.436668368154
 31
0.0
  0
LINE
  5
342
  8
回07-寸法
  6
CONTINUOUS
 62
     5
 10
-1132.690160499672
 20
-2414.014668368159
 30
0.0
 11
-1070.580160499666
 21
-2414.014668368159
 31
0.0
  0
LINE
  5
343
  8
回07-寸法
  6
CONTINUOUS
 62
     5
 10
-1071.580160499666
 20
-2409.014668368159
 30
0.0
 11
-1071.580160499666
 21
-2380.620967580757
 31
0.0
  0
LINE
  5
344
  8
回07-寸法
  6
CONTINUOUS
 62
     5
 10
-1071.580160499666
 20
-2424.436668368154
 30
0.0
 11
-1071.580160499666
 21
-2414.014668368159
 31
0.0
  0
LINE
  5
345
  8
回07-寸法
  6
CONTINUOUS
 62
     5
 10
-1071.580160499666
 20
-2429.436668368154
 30
0.0
 11
-1071.580160499666
 21
-2434.436668368154
 31
0.0
  0
INSERT
  5
346
  8
回07-寸法
  6
CONTINUOUS
 62
     5
 66
     1
  2
_OPEN
 10
-1071.580160499666
 20
-2424.436668368154
 30
0.0
 41
5.0
 42
5.0
 43
5.0
 50
90.0
  0
SEQEND
  5
347
  8
回04-下接
  6
CONTINUOUS
 62
     7
  0
INSERT
  5
348
  8
回07-寸法
  6
CONTINUOUS
 62
     5
 66
     1
  2
_OPEN
 10
-1071.580160499666
 20
-2414.014668368159
 30
0.0
 41
5.0
 42
5.0
 43
5.0
 50
270.0
  0
SEQEND
  5
349
  8
回04-下接
  6
CONTINUOUS
 62
     7
  0
TEXT
  5
34A
  8
回07-寸法
  6
CONTINUOUS
 62
     5
 10
-1072.480160499666
 20
-2404.717817974458
 30
0.0
 40
8.0
  1
(10.4)
 50
90.0
1001
ACAD
1000
MTEXTBEGIN
1070
    73
1070
     1
1070
    44
1040
1.0
1070
    74
1070
     0
1000
MTEXTEND
  0
POINT
  5
34B
  8
DEFPOINTS
  6
CONTINUOUS
 62
     0
 10
-1142.580160499672
 20
-2424.436668368154
 30
0.0
  0
POINT
  5
34C
  8
DEFPOINTS
  6
CONTINUOUS
 62
     0
 10
-1132.690160499672
 20
-2414.014668368159
 30
0.0
  0
POINT
  5
34D
  8
DEFPOINTS
  6
CONTINUOUS
 62
     0
 10
-1071.580160499666
 20
-2414.014668368159
 30
0.0
  0
ENDBLK
  5
34E
  8
0
 62
     7
  0
BLOCK
  8
0
  2
*D2525
 70
     1
 10
0.0
 20
0.0
 30
0.0
  3
*D2525
  1

  0
LINE
  5
330
  8
回07-寸法
  6
CONTINUOUS
 62
     5
 10
-1144.580160499672
 20
-2426.436668368154
 30
0.0
 11
-1085.580160499672
 21
-2426.436668368154
 31
0.0
  0
LINE
  5
331
  8
回07-寸法
  6
CONTINUOUS
 62
     5
 10
-1132.690160499672
 20
-2414.014668368159
 30
0.0
 11
-1085.580160499672
 21
-2414.014668368159
 31
0.0
  0
LINE
  5
332
  8
回07-寸法
  6
CONTINUOUS
 62
     5
 10
-1086.580160499672
 20
-2409.014668368159
 30
0.0
 11
-1086.580160499672
 21
-2380.620967580753
 31
0.0
  0
LINE
  5
333
  8
回07-寸法
  6
CONTINUOUS
 62
     5
 10
-1086.580160499672
 20
-2426.436668368154
 30
0.0
 11
-1086.580160499672
 21
-2414.014668368159
 31
0.0
  0
LINE
  5
334
  8
回07-寸法
  6
CONTINUOUS
 62
     5
 10
-1086.580160499672
 20
-2431.436668368154
 30
0.0
 11
-1086.580160499672
 21
-2436.436668368154
 31
0.0
  0
INSERT
  5
335
  8
回07-寸法
  6
CONTINUOUS
 62
     5
 66
     1
  2
_OPEN
 10
-1086.580160499672
 20
-2426.436668368154
 30
0.0
 41
5.0
 42
5.0
 43
5.0
 50
90.0
  0
SEQEND
  5
336
  8
回04-下接
  6
CONTINUOUS
 62
     7
  0
INSERT
  5
337
  8
回07-寸法
  6
CONTINUOUS
 62
     5
 66
     1
  2
_OPEN
 10
-1086.580160499672
 20
-2414.014668368159
 30
0.0
 41
5.0
 42
5.0
 43
5.0
 50
270.0
  0
SEQEND
  5
338
  8
回04-下接
  6
CONTINUOUS
 62
     7
  0
TEXT
  5
339
  8
回07-寸法
  6
CONTINUOUS
 62
     5
 10
-1087.480160499672
 20
-2404.717817974454
 30
0.0
 40
8.0
  1
(12.4)
 50
90.0
1001
ACAD
1000
MTEXTBEGIN
1070
    73
1070
     1
1070
    44
1040
1.0
1070
    74
1070
     0
1000
MTEXTEND
  0
POINT
  5
33A
  8
DEFPOINTS
  6
CONTINUOUS
 62
     0
 10
-1144.580160499672
 20
-2426.436668368154
 30
0.0
  0
POINT
  5
33B
  8
DEFPOINTS
  6
CONTINUOUS
 62
     0
 10
-1132.690160499672
 20
-2414.014668368159
 30
0.0
  0
POINT
  5
33C
  8
DEFPOINTS
  6
CONTINUOUS
 62
     0
 10
-1086.580160499672
 20
-2414.014668368159
 30
0.0
  0
ENDBLK
  5
33D
  8
0
 62
     7
  0
BLOCK
  8
0
  2
*D2626
 70
     1
 10
0.0
 20
0.0
 30
0.0
  3
*D2626
  1

  0
LINE
  5
31F
  8
回07-寸法
  6
CONTINUOUS
 62
     5
 10
-1144.580160499672
 20
-2426.436668368154
 30
0.0
 11
-1144.580160499672
 21
-2395.886668368154
 31
0.0
  0
LINE
  5
320
  8
回07-寸法
  6
CONTINUOUS
 62
     5
 10
-1132.690160499672
 20
-2414.014668368155
 30
0.0
 11
-1132.690160499672
 21
-2395.886668368154
 31
0.0
  0
LINE
  5
321
  8
回07-寸法
  6
CONTINUOUS
 62
     5
 10
-1127.690160499672
 20
-2396.886668368154
 30
0.0
 11
-1101.667576764054
 21
-2396.886668368154
 31
0.0
  0
LINE
  5
322
  8
回07-寸法
  6
CONTINUOUS
 62
     5
 10
-1144.580160499672
 20
-2396.886668368154
 30
0.0
 11
-1132.690160499672
 21
-2396.886668368154
 31
0.0
  0
LINE
  5
323
  8
回07-寸法
  6
CONTINUOUS
 62
     5
 10
-1149.580160499672
 20
-2396.886668368154
 30
0.0
 11
-1154.580160499672
 21
-2396.886668368154
 31
0.0
  0
INSERT
  5
324
  8
回07-寸法
  6
CONTINUOUS
 62
     5
 66
     1
  2
_OPEN
 10
-1144.580160499672
 20
-2396.886668368154
 30
0.0
 41
5.0
 42
5.0
 43
5.0
  0
SEQEND
  5
325
  8
回04-下接
  6
CONTINUOUS
 62
     7
  0
INSERT
  5
326
  8
回07-寸法
  6
CONTINUOUS
 62
     5
 66
     1
  2
_OPEN
 10
-1132.690160499672
 20
-2396.886668368154
 30
0.0
 41
5.0
 42
5.0
 43
5.0
 50
180.0
  0
SEQEND
  5
327
  8
回04-下接
  6
CONTINUOUS
 62
     7
  0
TEXT
  5
328
  8
回07-寸法
  6
CONTINUOUS
 62
     5
 10
-1123.393310105971
 20
-2395.986668368154
 30
0.0
 40
8.0
  1
(11.9)
1001
ACAD
1000
MTEXTBEGIN
1070
    73
1070
     1
1070
    44
1040
1.0
1070
    74
1070
     0
1000
MTEXTEND
  0
POINT
  5
329
  8
DEFPOINTS
  6
CONTINUOUS
 62
     0
 10
-1144.580160499672
 20
-2426.436668368154
 30
0.0
  0
POINT
  5
32A
  8
DEFPOINTS
  6
CONTINUOUS
 62
     0
 10
-1132.690160499672
 20
-2414.014668368155
 30
0.0
  0
POINT
  5
32B
  8
DEFPOINTS
  6
CONTINUOUS
 62
     0
 10
-1132.690160499672
 20
-2396.886668368154
 30
0.0
  0
ENDBLK
  5
32C
  8
0
 62
     7
  0
BLOCK
  8
0
  2
*D2727
 70
     1
 10
0.0
 20
0.0
 30
0.0
  3
*D2727
  1

  0
LINE
  5
30E
  8
回07-寸法
  6
CONTINUOUS
 62
     5
 10
-1142.580160499672
 20
-2424.436668368154
 30
0.0
 11
-1142.580160499672
 21
-2380.886668368154
 31
0.0
  0
LINE
  5
30F
  8
回07-寸法
  6
CONTINUOUS
 62
     5
 10
-1132.690160499672
 20
-2414.014668368155
 30
0.0
 11
-1132.690160499672
 21
-2380.886668368154
 31
0.0
  0
LINE
  5
310
  8
回07-寸法
  6
CONTINUOUS
 62
     5
 10
-1127.690160499672
 20
-2381.886668368154
 30
0.0
 11
-1104.038693815838
 21
-2381.886668368154
 31
0.0
  0
LINE
  5
311
  8
回07-寸法
  6
CONTINUOUS
 62
     5
 10
-1142.580160499672
 20
-2381.886668368154
 30
0.0
 11
-1132.690160499672
 21
-2381.886668368154
 31
0.0
  0
LINE
  5
312
  8
回07-寸法
  6
CONTINUOUS
 62
     5
 10
-1147.580160499672
 20
-2381.886668368154
 30
0.0
 11
-1152.580160499672
 21
-2381.886668368154
 31
0.0
  0
INSERT
  5
313
  8
回07-寸法
  6
CONTINUOUS
 62
     5
 66
     1
  2
_OPEN
 10
-1142.580160499672
 20
-2381.886668368154
 30
0.0
 41
5.0
 42
5.0
 43
5.0
  0
SEQEND
  5
314
  8
回04-下接
  6
CONTINUOUS
 62
     7
  0
INSERT
  5
315
  8
回07-寸法
  6
CONTINUOUS
 62
     5
 66
     1
  2
_OPEN
 10
-1132.690160499672
 20
-2381.886668368154
 30
0.0
 41
5.0
 42
5.0
 43
5.0
 50
180.0
  0
SEQEND
  5
316
  8
回04-下接
  6
CONTINUOUS
 62
     7
  0
TEXT
  5
317
  8
回07-寸法
  6
CONTINUOUS
 62
     5
 10
-1123.393310105971
 20
-2380.986668368155
 30
0.0
 40
8.0
  1
(9.9)
1001
ACAD
1000
MTEXTBEGIN
1070
    73
1070
     1
1070
    44
1040
1.0
1070
    74
1070
     0
1000
MTEXTEND
  0
POINT
  5
318
  8
DEFPOINTS
  6
CONTINUOUS
 62
     0
 10
-1142.580160499672
 20
-2424.436668368154
 30
0.0
  0
POINT
  5
319
  8
DEFPOINTS
  6
CONTINUOUS
 62
     0
 10
-1132.690160499672
 20
-2414.014668368155
 30
0.0
  0
POINT
  5
31A
  8
DEFPOINTS
  6
CONTINUOUS
 62
     0
 10
-1132.690160499672
 20
-2381.886668368154
 30
0.0
  0
ENDBLK
  5
31B
  8
0
 62
     7
  0
BLOCK
  8
0
  2
*D2828
 70
     1
 10
0.0
 20
0.0
 30
0.0
  3
*D2828
  1

  0
LINE
  5
2FF
  8
回07-寸法
  6
CONTINUOUS
 62
     5
 10
-1142.080160499672
 20
-2423.636668368152
 30
0.0
 11
-1142.080160499672
 21
-2365.886668368154
 31
0.0
  0
LINE
  5
300
  8
回07-寸法
  6
CONTINUOUS
 62
     5
 10
-1523.900160499672
 20
-2423.636668368152
 30
0.0
 11
-1523.900160499672
 21
-2365.886668368154
 31
0.0
  0
LINE
  5
301
  8
回07-寸法
  6
CONTINUOUS
 62
     5
 10
-1147.080160499672
 20
-2366.886668368154
 30
0.0
 11
-1518.900160499672
 21
-2366.886668368154
 31
0.0
  0
INSERT
  5
302
  8
回07-寸法
  6
CONTINUOUS
 62
     5
 66
     1
  2
_OPEN
 10
-1142.080160499672
 20
-2366.886668368154
 30
0.0
 41
5.0
 42
5.0
 43
5.0
  0
SEQEND
  5
303
  8
回04-下接
  6
CONTINUOUS
 62
     7
  0
INSERT
  5
304
  8
回07-寸法
  6
CONTINUOUS
 62
     5
 66
     1
  2
_OPEN
 10
-1523.900160499672
 20
-2366.886668368154
 30
0.0
 41
5.0
 42
5.0
 43
5.0
 50
180.0
  0
SEQEND
  5
305
  8
回04-下接
  6
CONTINUOUS
 62
     7
  0
TEXT
  5
306
  8
回07-寸法
  6
CONTINUOUS
 62
     5
 10
-1344.590160499672
 20
-2366.386668368154
 30
0.0
 40
8.0
  1
381.8
1001
ACAD
1000
MTEXTBEGIN
1070
    73
1070
     1
1070
    44
1040
1.0
1070
    74
1070
     0
1000
MTEXTEND
  0
POINT
  5
307
  8
DEFPOINTS
  6
CONTINUOUS
 62
     0
 10
-1142.080160499672
 20
-2423.636668368152
 30
0.0
  0
POINT
  5
308
  8
DEFPOINTS
  6
CONTINUOUS
 62
     0
 10
-1523.900160499672
 20
-2423.636668368152
 30
0.0
  0
POINT
  5
309
  8
DEFPOINTS
  6
CONTINUOUS
 62
     0
 10
-1523.900160499672
 20
-2366.886668368154
 30
0.0
  0
ENDBLK
  5
30A
  8
0
 62
     7
  0
BLOCK
  8
0
  2
*D2929
 70
     1
 10
0.0
 20
0.0
 30
0.0
  3
*D2929
  1

  0
LINE
  5
2F0
  8
回07-寸法
  6
CONTINUOUS
 62
     5
 10
-1142.080160499672
 20
-2423.636668368153
 30
0.0
 11
-1055.580160499671
 21
-2423.636668368153
 31
0.0
  0
LINE
  5
2F1
  8
回07-寸法
  6
CONTINUOUS
 62
     5
 10
-1142.080160499672
 20
-2730.792668368154
 30
0.0
 11
-1055.580160499671
 21
-2730.792668368154
 31
0.0
  0
LINE
  5
2F2
  8
回07-寸法
  6
CONTINUOUS
 62
     5
 10
-1056.580160499671
 20
-2428.636668368153
 30
0.0
 11
-1056.580160499671
 21
-2725.792668368154
 31
0.0
  0
INSERT
  5
2F3
  8
回07-寸法
  6
CONTINUOUS
 62
     5
 66
     1
  2
_OPEN
 10
-1056.580160499671
 20
-2423.636668368153
 30
0.0
 41
5.0
 42
5.0
 43
5.0
 50
90.0
  0
SEQEND
  5
2F4
  8
回04-下接
  6
CONTINUOUS
 62
     7
  0
INSERT
  5
2F5
  8
回07-寸法
  6
CONTINUOUS
 62
     5
 66
     1
  2
_OPEN
 10
-1056.580160499671
 20
-2730.792668368154
 30
0.0
 41
5.0
 42
5.0
 43
5.0
 50
270.0
  0
SEQEND
  5
2F6
  8
回04-下接
  6
CONTINUOUS
 62
     7
  0
TEXT
  5
2F7
  8
回07-寸法
  6
CONTINUOUS
 62
     5
 10
-1057.080160499671
 20
-2589.615552862395
 30
0.0
 40
8.0
  1
307.2
 50
90.0
1001
ACAD
1000
MTEXTBEGIN
1070
    73
1070
     1
1070
    44
1040
1.0
1070
    74
1070
     0
1000
MTEXTEND
  0
POINT
  5
2F8
  8
DEFPOINTS
  6
CONTINUOUS
 62
     0
 10
-1142.080160499672
 20
-2423.636668368153
 30
0.0
  0
POINT
  5
2F9
  8
DEFPOINTS
  6
CONTINUOUS
 62
     0
 10
-1142.080160499672
 20
-2730.792668368154
 30
0.0
  0
POINT
  5
2FA
  8
DEFPOINTS
  6
CONTINUOUS
 62
     0
 10
-1056.580160499671
 20
-2730.792668368154
 30
0.0
  0
ENDBLK
  5
2FB
  8
0
 62
     7
  0
BLOCK
  8
0
  2
*D3030
 70
     1
 10
0.0
 20
0.0
 30
0.0
  3
*D3030
  1

  0
LINE
  5
2DF
  8
回07-寸法
  6
CONTINUOUS
 62
     5
 10
-1142.080160499672
 20
-2423.636668368152
 30
0.0
 11
-1055.580160499666
 21
-2423.636668368152
 31
0.0
  0
LINE
  5
2E0
  8
回07-寸法
  6
CONTINUOUS
 62
     5
 10
-1132.690160499672
 20
-2414.014668368157
 30
0.0
 11
-1055.580160499666
 21
-2414.014668368157
 31
0.0
  0
LINE
  5
2E1
  8
回07-寸法
  6
CONTINUOUS
 62
     5
 10
-1056.580160499666
 20
-2409.014668368157
 30
0.0
 11
-1056.580160499666
 21
-2335.428403530177
 31
0.0
  0
LINE
  5
2E2
  8
回07-寸法
  6
CONTINUOUS
 62
     5
 10
-1056.580160499666
 20
-2423.636668368152
 30
0.0
 11
-1056.580160499666
 21
-2414.014668368157
 31
0.0
  0
LINE
  5
2E3
  8
回07-寸法
  6
CONTINUOUS
 62
     5
 10
-1056.580160499666
 20
-2428.636668368152
 30
0.0
 11
-1056.580160499666
 21
-2433.636668368152
 31
0.0
  0
INSERT
  5
2E4
  8
回07-寸法
  6
CONTINUOUS
 62
     5
 66
     1
  2
_OPEN
 10
-1056.580160499666
 20
-2423.636668368152
 30
0.0
 41
5.0
 42
5.0
 43
5.0
 50
90.0
  0
SEQEND
  5
2E5
  8
回04-下接
  6
CONTINUOUS
 62
     7
  0
INSERT
  5
2E6
  8
回07-寸法
  6
CONTINUOUS
 62
     5
 66
     1
  2
_OPEN
 10
-1056.580160499666
 20
-2414.014668368157
 30
0.0
 41
5.0
 42
5.0
 43
5.0
 50
270.0
  0
SEQEND
  5
2E7
  8
回04-下接
  6
CONTINUOUS
 62
     7
  0
INSERT
  5
2E8
  8
回07-寸法
  6
CONTINUOUS
 62
     5
 66
     1
  2
*X9494
 10
0.0
 20
0.0
 30
0.0
  0
SEQEND
  5
767
  8
回04-下接
  6
CONTINUOUS
 62
     7
  0
POINT
  5
2E9
  8
DEFPOINTS
  6
CONTINUOUS
 62
     0
 10
-1142.080160499672
 20
-2423.636668368152
 30
0.0
  0
POINT
  5
2EA
  8
DEFPOINTS
  6
CONTINUOUS
 62
     0
 10
-1132.690160499672
 20
-2414.014668368157
 30
0.0
  0
POINT
  5
2EB
  8
DEFPOINTS
  6
CONTINUOUS
 62
     0
 10
-1056.580160499666
 20
-2414.014668368157
 30
0.0
  0
ENDBLK
  5
2EC
  8
0
 62
     7
  0
BLOCK
  8
0
  2
*D3131
 70
     1
 10
0.0
 20
0.0
 30
0.0
  3
*D3131
  1

  0
LINE
  5
2CE
  8
回07-寸法
  6
CONTINUOUS
 62
     5
 10
-1142.080160499672
 20
-2423.636668368152
 30
0.0
 11
-1142.080160499672
 21
-2365.886668368154
 31
0.0
  0
LINE
  5
2CF
  8
回07-寸法
  6
CONTINUOUS
 62
     5
 10
-1132.690160499672
 20
-2414.014668368154
 30
0.0
 11
-1132.690160499672
 21
-2365.886668368154
 31
0.0
  0
LINE
  5
2D0
  8
回07-寸法
  6
CONTINUOUS
 62
     5
 10
-1127.690160499672
 20
-2366.886668368154
 30
0.0
 11
-1103.267576764054
 21
-2366.886668368154
 31
0.0
  0
LINE
  5
2D1
  8
回07-寸法
  6
CONTINUOUS
 62
     5
 10
-1142.080160499672
 20
-2366.886668368154
 30
0.0
 11
-1132.690160499672
 21
-2366.886668368154
 31
0.0
  0
LINE
  5
2D2
  8
回07-寸法
  6
CONTINUOUS
 62
     5
 10
-1147.080160499672
 20
-2366.886668368154
 30
0.0
 11
-1152.080160499672
 21
-2366.886668368154
 31
0.0
  0
INSERT
  5
2D3
  8
回07-寸法
  6
CONTINUOUS
 62
     5
 66
     1
  2
_OPEN
 10
-1142.080160499672
 20
-2366.886668368154
 30
0.0
 41
5.0
 42
5.0
 43
5.0
  0
SEQEND
  5
2D4
  8
回04-下接
  6
CONTINUOUS
 62
     7
  0
INSERT
  5
2D5
  8
回07-寸法
  6
CONTINUOUS
 62
     5
 66
     1
  2
_OPEN
 10
-1132.690160499672
 20
-2366.886668368154
 30
0.0
 41
5.0
 42
5.0
 43
5.0
 50
180.0
  0
SEQEND
  5
2D6
  8
回04-下接
  6
CONTINUOUS
 62
     7
  0
TEXT
  5
2D7
  8
回07-寸法
  6
CONTINUOUS
 62
     5
 10
-1123.393310105971
 20
-2365.986668368154
 30
0.0
 40
8.0
  1
(9.4)
1001
ACAD
1000
MTEXTBEGIN
1070
    73
1070
     1
1070
    44
1040
1.0
1070
    74
1070
     0
1000
MTEXTEND
  0
POINT
  5
2D8
  8
DEFPOINTS
  6
CONTINUOUS
 62
     0
 10
-1142.080160499672
 20
-2423.636668368152
 30
0.0
  0
POINT
  5
2D9
  8
DEFPOINTS
  6
CONTINUOUS
 62
     0
 10
-1132.690160499672
 20
-2414.014668368154
 30
0.0
  0
POINT
  5
2DA
  8
DEFPOINTS
  6
CONTINUOUS
 62
     0
 10
-1132.690160499672
 20
-2366.886668368154
 30
0.0
  0
ENDBLK
  5
2DB
  8
0
 62
     7
  0
BLOCK
  8
0
  2
*D3232
 70
     1
 10
0.0
 20
0.0
 30
0.0
  3
*D3232
  1

  0
LINE
  5
2BD
  8
回07-寸法
  6
CONTINUOUS
 62
     5
 10
-1521.400160499672
 20
-2426.436668368154
 30
0.0
 11
-1521.400160499672
 21
-2395.886668368154
 31
0.0
  0
LINE
  5
2BE
  8
回07-寸法
  6
CONTINUOUS
 62
     5
 10
-1533.290160499672
 20
-2414.014668368154
 30
0.0
 11
-1533.290160499672
 21
-2395.886668368154
 31
0.0
  0
LINE
  5
2BF
  8
回07-寸法
  6
CONTINUOUS
 62
     5
 10
-1538.290160499672
 20
-2396.886668368154
 30
0.0
 11
-1558.190975889787
 21
-2396.886668368154
 31
0.0
  0
LINE
  5
2C0
  8
回07-寸法
  6
CONTINUOUS
 62
     5
 10
-1521.400160499672
 20
-2396.886668368154
 30
0.0
 11
-1533.290160499672
 21
-2396.886668368154
 31
0.0
  0
LINE
  5
2C1
  8
回07-寸法
  6
CONTINUOUS
 62
     5
 10
-1516.400160499672
 20
-2396.886668368154
 30
0.0
 11
-1511.400160499672
 21
-2396.886668368154
 31
0.0
  0
INSERT
  5
2C2
  8
回07-寸法
  6
CONTINUOUS
 62
     5
 66
     1
  2
_OPEN
 10
-1521.400160499672
 20
-2396.886668368154
 30
0.0
 41
5.0
 42
5.0
 43
5.0
 50
180.0
  0
SEQEND
  5
2C3
  8
回04-下接
  6
CONTINUOUS
 62
     7
  0
INSERT
  5
2C4
  8
回07-寸法
  6
CONTINUOUS
 62
     5
 66
     1
  2
_OPEN
 10
-1533.290160499672
 20
-2396.886668368154
 30
0.0
 41
5.0
 42
5.0
 43
5.0
  0
SEQEND
  5
2C5
  8
回04-下接
  6
CONTINUOUS
 62
     7
  0
TEXT
  5
2C6
  8
回07-寸法
  6
CONTINUOUS
 62
     5
 10
-1558.890975889787
 20
-2396.386668368154
 30
0.0
 40
8.0
  1
11.9
1001
ACAD
1000
MTEXTBEGIN
1070
    73
1070
     1
1070
    44
1040
1.0
1070
    74
1070
     0
1000
MTEXTEND
  0
POINT
  5
2C7
  8
DEFPOINTS
  6
CONTINUOUS
 62
     0
 10
-1521.400160499672
 20
-2426.436668368154
 30
0.0
  0
POINT
  5
2C8
  8
DEFPOINTS
  6
CONTINUOUS
 62
     0
 10
-1533.290160499672
 20
-2414.014668368154
 30
0.0
  0
POINT
  5
2C9
  8
DEFPOINTS
  6
CONTINUOUS
 62
     0
 10
-1533.290160499672
 20
-2396.886668368154
 30
0.0
  0
ENDBLK
  5
2CA
  8
0
 62
     7
  0
BLOCK
  8
0
  2
*D3333
 70
     1
 10
0.0
 20
0.0
 30
0.0
  3
*D3333
  1

  0
LINE
  5
2AC
  8
回07-寸法
  6
CONTINUOUS
 62
     5
 10
-1523.400160499672
 20
-2424.436668368154
 30
0.0
 11
-1523.400160499672
 21
-2380.886668368154
 31
0.0
  0
LINE
  5
2AD
  8
回07-寸法
  6
CONTINUOUS
 62
     5
 10
-1533.290160499672
 20
-2414.014668368154
 30
0.0
 11
-1533.290160499672
 21
-2380.886668368154
 31
0.0
  0
LINE
  5
2AE
  8
回07-寸法
  6
CONTINUOUS
 62
     5
 10
-1538.290160499672
 20
-2381.886668368154
 30
0.0
 11
-1555.956661314737
 21
-2381.886668368154
 31
0.0
  0
LINE
  5
2AF
  8
回07-寸法
  6
CONTINUOUS
 62
     5
 10
-1523.400160499672
 20
-2381.886668368154
 30
0.0
 11
-1533.290160499672
 21
-2381.886668368154
 31
0.0
  0
LINE
  5
2B0
  8
回07-寸法
  6
CONTINUOUS
 62
     5
 10
-1518.400160499672
 20
-2381.886668368154
 30
0.0
 11
-1513.400160499672
 21
-2381.886668368154
 31
0.0
  0
INSERT
  5
2B1
  8
回07-寸法
  6
CONTINUOUS
 62
     5
 66
     1
  2
_OPEN
 10
-1523.400160499672
 20
-2381.886668368154
 30
0.0
 41
5.0
 42
5.0
 43
5.0
 50
180.0
  0
SEQEND
  5
2B2
  8
回04-下接
  6
CONTINUOUS
 62
     7
  0
INSERT
  5
2B3
  8
回07-寸法
  6
CONTINUOUS
 62
     5
 66
     1
  2
_OPEN
 10
-1533.290160499672
 20
-2381.886668368154
 30
0.0
 41
5.0
 42
5.0
 43
5.0
  0
SEQEND
  5
2B4
  8
回04-下接
  6
CONTINUOUS
 62
     7
  0
TEXT
  5
2B5
  8
回07-寸法
  6
CONTINUOUS
 62
     5
 10
-1556.685544262952
 20
-2381.386668368154
 30
0.0
 40
8.0
  1
9.9
1001
ACAD
1000
MTEXTBEGIN
1070
    73
1070
     1
1070
    44
1040
1.0
1070
    74
1070
     0
1000
MTEXTEND
  0
POINT
  5
2B6
  8
DEFPOINTS
  6
CONTINUOUS
 62
     0
 10
-1523.400160499672
 20
-2424.436668368154
 30
0.0
  0
POINT
  5
2B7
  8
DEFPOINTS
  6
CONTINUOUS
 62
     0
 10
-1533.290160499672
 20
-2414.014668368154
 30
0.0
  0
POINT
  5
2B8
  8
DEFPOINTS
  6
CONTINUOUS
 62
     0
 10
-1533.290160499672
 20
-2381.886668368154
 30
0.0
  0
ENDBLK
  5
2B9
  8
0
 62
     7
  0
BLOCK
  8
0
  2
*D3434
 70
     1
 10
0.0
 20
0.0
 30
0.0
  3
*D3434
  1

  0
LINE
  5
29B
  8
回07-寸法
  6
CONTINUOUS
 62
     5
 10
-1523.900160499671
 20
-2423.636668368154
 30
0.0
 11
-1523.900160499671
 21
-2365.886668368154
 31
0.0
  0
LINE
  5
29C
  8
回07-寸法
  6
CONTINUOUS
 62
     5
 10
-1533.290160499672
 20
-2414.014668368154
 30
0.0
 11
-1533.290160499672
 21
-2365.886668368154
 31
0.0
  0
LINE
  5
29D
  8
回07-寸法
  6
CONTINUOUS
 62
     5
 10
-1538.290160499672
 20
-2366.886668368154
 30
0.0
 11
-1611.050691995735
 21
-2366.886668368154
 31
0.0
  0
LINE
  5
29E
  8
回07-寸法
  6
CONTINUOUS
 62
     5
 10
-1523.900160499671
 20
-2366.886668368154
 30
0.0
 11
-1533.290160499672
 21
-2366.886668368154
 31
0.0
  0
LINE
  5
29F
  8
回07-寸法
  6
CONTINUOUS
 62
     5
 10
-1518.900160499671
 20
-2366.886668368154
 30
0.0
 11
-1513.900160499671
 21
-2366.886668368154
 31
0.0
  0
INSERT
  5
2A0
  8
回07-寸法
  6
CONTINUOUS
 62
     5
 66
     1
  2
_OPEN
 10
-1523.900160499671
 20
-2366.886668368154
 30
0.0
 41
5.0
 42
5.0
 43
5.0
 50
180.0
  0
SEQEND
  5
2A1
  8
回04-下接
  6
CONTINUOUS
 62
     7
  0
INSERT
  5
2A2
  8
回07-寸法
  6
CONTINUOUS
 62
     5
 66
     1
  2
_OPEN
 10
-1533.290160499672
 20
-2366.886668368154
 30
0.0
 41
5.0
 42
5.0
 43
5.0
  0
SEQEND
  5
2A3
  8
回04-下接
  6
CONTINUOUS
 62
     7
  0
INSERT
  5
2A4
  8
回07-寸法
  6
CONTINUOUS
 62
     5
 66
     1
  2
*X9595
 10
0.0
 20
0.0
 30
0.0
  0
SEQEND
  5
76D
  8
回04-下接
  6
CONTINUOUS
 62
     7
  0
POINT
  5
2A5
  8
DEFPOINTS
  6
CONTINUOUS
 62
     0
 10
-1523.900160499671
 20
-2423.636668368154
 30
0.0
  0
POINT
  5
2A6
  8
DEFPOINTS
  6
CONTINUOUS
 62
     0
 10
-1533.290160499672
 20
-2414.014668368154
 30
0.0
  0
POINT
  5
2A7
  8
DEFPOINTS
  6
CONTINUOUS
 62
     0
 10
-1533.290160499672
 20
-2366.886668368154
 30
0.0
  0
ENDBLK
  5
2A8
  8
0
 62
     7
  0
BLOCK
  8
0
  2
*D3535
 70
     1
 10
0.0
 20
0.0
 30
0.0
  3
*D3535
  1

  0
LINE
  5
A8
  8
0
  6
CONTINUOUS
 62
     5
 10
-1624.108776583781
 20
-2473.264841793664
 30
0.0
 11
-1630.789413352442
 21
-2473.264841793664
 31
0.0
  0
LINE
  5
A9
  8
0
  6
CONTINUOUS
 62
     5
 10
-1624.108776583781
 20
-2471.416841793665
 30
0.0
 11
-1630.789413352442
 21
-2471.416841793665
 31
0.0
  0
LINE
  5
AA
  8
0
  6
CONTINUOUS
 62
     5
 10
-1629.789413352442
 20
-2476.264841793665
 30
0.0
 11
-1629.789413352442
 21
-2512.697177116542
 31
0.0
  0
LINE
  5
AB
  8
0
  6
CONTINUOUS
 62
     5
 10
-1629.789413352442
 20
-2473.264841793664
 30
0.0
 11
-1629.789413352442
 21
-2471.416841793665
 31
0.0
  0
LINE
  5
AC
  8
0
  6
CONTINUOUS
 62
     5
 10
-1629.789413352442
 20
-2468.416841793664
 30
0.0
 11
-1629.789413352442
 21
-2465.416841793665
 31
0.0
  0
INSERT
  5
AD
  8
0
  6
CONTINUOUS
 62
     5
 66
     1
  2
_OPEN
 10
-1629.789413352442
 20
-2473.264841793664
 30
0.0
 41
3.0
 42
3.0
 43
3.0
 50
90.0
  0
SEQEND
  5
AE
  8
回04-下接
  6
CONTINUOUS
 62
     7
  0
INSERT
  5
AF
  8
0
  6
CONTINUOUS
 62
     5
 66
     1
  2
_OPEN
 10
-1629.789413352442
 20
-2471.416841793665
 30
0.0
 41
3.0
 42
3.0
 43
3.0
 50
270.0
  0
SEQEND
  5
B0
  8
回04-下接
  6
CONTINUOUS
 62
     7
  0
TEXT
  5
B1
  8
0
  6
CONTINUOUS
 62
     5
 10
-1630.289413352442
 20
-2512.947177116541
 30
0.0
 40
5.0
  1
4-0.7±0.1
 50
90.0
1001
ACAD
1000
MTEXTBEGIN
1070
    73
1070
     1
1070
    44
1040
1.0
1070
    74
1070
     0
1000
MTEXTEND
  0
POINT
  5
B2
  8
DEFPOINTS
  6
CONTINUOUS
 62
     0
 10
-1624.108776583781
 20
-2473.264841793664
 30
0.0
  0
POINT
  5
B3
  8
DEFPOINTS
  6
CONTINUOUS
 62
     0
 10
-1624.108776583781
 20
-2471.416841793665
 30
0.0
  0
POINT
  5
B4
  8
DEFPOINTS
  6
CONTINUOUS
 62
     0
 10
-1629.789413352442
 20
-2471.416841793665
 30
0.0
  0
ENDBLK
  5
B5
  8
0
 62
     7
  0
BLOCK
  8
0
  2
*D3636
 70
     1
 10
0.0
 20
0.0
 30
0.0
  3
*D3636
  1

  0
LINE
  5
97
  8
0
  6
CONTINUOUS
 62
     5
 10
-1631.343074333334
 20
-2472.340841793664
 30
0.0
 11
-1639.508818977152
 21
-2472.340841793664
 31
0.0
  0
LINE
  5
98
  8
0
  6
CONTINUOUS
 62
     5
 10
-1631.342959464908
 20
-2469.040841793666
 30
0.0
 11
-1639.508818977152
 21
-2469.040841793666
 31
0.0
  0
LINE
  5
99
  8
0
  6
CONTINUOUS
 62
     5
 10
-1638.508818977152
 20
-2475.340841793665
 30
0.0
 11
-1638.508818977152
 21
-2503.005658233352
 31
0.0
  0
LINE
  5
9A
  8
0
  6
CONTINUOUS
 62
     5
 10
-1638.508818977152
 20
-2472.340841793664
 30
0.0
 11
-1638.508818977152
 21
-2469.040841793666
 31
0.0
  0
LINE
  5
9B
  8
0
  6
CONTINUOUS
 62
     5
 10
-1638.508818977152
 20
-2466.040841793665
 30
0.0
 11
-1638.508818977152
 21
-2463.040841793665
 31
0.0
  0
INSERT
  5
9C
  8
0
  6
CONTINUOUS
 62
     5
 66
     1
  2
_OPEN
 10
-1638.508818977152
 20
-2472.340841793664
 30
0.0
 41
3.0
 42
3.0
 43
3.0
 50
90.0
  0
SEQEND
  5
9D
  8
回04-下接
  6
CONTINUOUS
 62
     7
  0
INSERT
  5
9E
  8
0
  6
CONTINUOUS
 62
     5
 66
     1
  2
_OPEN
 10
-1638.508818977152
 20
-2469.040841793666
 30
0.0
 41
3.0
 42
3.0
 43
3.0
 50
270.0
  0
SEQEND
  5
9F
  8
回04-下接
  6
CONTINUOUS
 62
     7
  0
TEXT
  5
A0
  8
0
  6
CONTINUOUS
 62
     5
 10
-1639.008818977152
 20
-2503.255658233352
 30
0.0
 40
5.0
  1
1.25±0.2
 50
90.0
1001
ACAD
1000
MTEXTBEGIN
1070
    73
1070
     1
1070
    44
1040
1.0
1070
    74
1070
     0
1000
MTEXTEND
  0
POINT
  5
A1
  8
DEFPOINTS
  6
CONTINUOUS
 62
     0
 10
-1631.343074333334
 20
-2472.340841793664
 30
0.0
  0
POINT
  5
A2
  8
DEFPOINTS
  6
CONTINUOUS
 62
     0
 10
-1631.342959464908
 20
-2469.040841793666
 30
0.0
  0
POINT
  5
A3
  8
DEFPOINTS
  6
CONTINUOUS
 62
     0
 10
-1638.508818977152
 20
-2469.040841793666
 30
0.0
  0
ENDBLK
  5
A4
  8
0
 62
     7
  0
BLOCK
  8
0
  2
*D3737
 70
     1
 10
0.0
 20
0.0
 30
0.0
  3
*D3737
  1

  0
LINE
  5
86
  8
0
  6
CONTINUOUS
 62
     5
 10
-1631.343074333334
 20
-2472.340841793664
 30
0.0
 11
-1647.217467278863
 21
-2472.340841793664
 31
0.0
  0
LINE
  5
87
  8
0
  6
CONTINUOUS
 62
     5
 10
-1631.343074333334
 20
-2462.440841793665
 30
0.0
 11
-1647.217467278863
 21
-2462.440841793665
 31
0.0
  0
LINE
  5
88
  8
0
  6
CONTINUOUS
 62
     5
 10
-1646.217467278864
 20
-2475.340841793665
 30
0.0
 11
-1646.217467278864
 21
-2503.103472419228
 31
0.0
  0
LINE
  5
89
  8
0
  6
CONTINUOUS
 62
     5
 10
-1646.217467278864
 20
-2472.340841793664
 30
0.0
 11
-1646.217467278864
 21
-2462.440841793665
 31
0.0
  0
LINE
  5
8A
  8
0
  6
CONTINUOUS
 62
     5
 10
-1646.217467278864
 20
-2459.440841793665
 30
0.0
 11
-1646.217467278864
 21
-2456.440841793665
 31
0.0
  0
INSERT
  5
8B
  8
0
  6
CONTINUOUS
 62
     5
 66
     1
  2
_OPEN
 10
-1646.217467278864
 20
-2472.340841793664
 30
0.0
 41
3.0
 42
3.0
 43
3.0
 50
90.0
  0
SEQEND
  5
8C
  8
回04-下接
  6
CONTINUOUS
 62
     7
  0
INSERT
  5
8D
  8
0
  6
CONTINUOUS
 62
     5
 66
     1
  2
_OPEN
 10
-1646.217467278864
 20
-2462.440841793665
 30
0.0
 41
3.0
 42
3.0
 43
3.0
 50
270.0
  0
SEQEND
  5
8E
  8
回04-下接
  6
CONTINUOUS
 62
     7
  0
TEXT
  5
8F
  8
0
  6
CONTINUOUS
 62
     5
 10
-1646.717467278863
 20
-2503.353472419228
 30
0.0
 40
5.0
  1
3.75±0.1
 50
90.0
1001
ACAD
1000
MTEXTBEGIN
1070
    73
1070
     1
1070
    44
1040
1.0
1070
    74
1070
     0
1000
MTEXTEND
  0
POINT
  5
90
  8
DEFPOINTS
  6
CONTINUOUS
 62
     0
 10
-1631.343074333334
 20
-2472.340841793664
 30
0.0
  0
POINT
  5
91
  8
DEFPOINTS
  6
CONTINUOUS
 62
     0
 10
-1631.343074333334
 20
-2462.440841793665
 30
0.0
  0
POINT
  5
92
  8
DEFPOINTS
  6
CONTINUOUS
 62
     0
 10
-1646.217467278864
 20
-2462.440841793665
 30
0.0
  0
ENDBLK
  5
93
  8
0
 62
     7
  0
BLOCK
  8
0
  2
*D3838
 70
     1
 10
0.0
 20
0.0
 30
0.0
  3
*D3838
  1

  0
LINE
  5
73
  8
0
  6
CONTINUOUS
 62
     5
 10
-1626.195581066358
 20
-2475.640841793659
 30
0.0
 11
-1656.691355538601
 21
-2475.640841793659
 31
0.0
  0
LINE
  5
75
  8
0
  6
CONTINUOUS
 62
     5
 10
-1626.195581066358
 20
-2459.140841793658
 30
0.0
 11
-1656.691355538601
 21
-2459.140841793658
 31
0.0
  0
LINE
  5
76
  8
0
  6
CONTINUOUS
 62
     5
 10
-1655.691355538601
 20
-2478.640841793658
 30
0.0
 11
-1655.691355538601
 21
-2505.441148539568
 31
0.0
  0
LINE
  5
77
  8
0
  6
CONTINUOUS
 62
     5
 10
-1655.691355538601
 20
-2475.640841793659
 30
0.0
 11
-1655.691355538601
 21
-2459.140841793658
 31
0.0
  0
LINE
  5
78
  8
0
  6
CONTINUOUS
 62
     5
 10
-1655.691355538601
 20
-2456.140841793658
 30
0.0
 11
-1655.691355538601
 21
-2453.140841793658
 31
0.0
  0
INSERT
  5
79
  8
0
  6
CONTINUOUS
 62
     5
 66
     1
  2
_OPEN
 10
-1655.691355538601
 20
-2475.640841793659
 30
0.0
 41
3.0
 42
3.0
 43
3.0
 50
90.0
  0
SEQEND
  5
7A
  8
回04-下接
  6
CONTINUOUS
 62
     7
  0
INSERT
  5
7B
  8
0
  6
CONTINUOUS
 62
     5
 66
     1
  2
_OPEN
 10
-1655.691355538601
 20
-2459.140841793658
 30
0.0
 41
3.0
 42
3.0
 43
3.0
 50
270.0
  0
SEQEND
  5
7C
  8
回04-下接
  6
CONTINUOUS
 62
     7
  0
TEXT
  5
7D
  8
0
  6
CONTINUOUS
 62
     5
 10
-1656.191355538601
 20
-2505.691148539568
 30
0.0
 40
5.0
  1
6.25±0.2
 50
90.0
1001
ACAD
1000
MTEXTBEGIN
1070
    73
1070
     1
1070
    44
1040
1.0
1070
    74
1070
     0
1000
MTEXTEND
  0
POINT
  5
7E
  8
DEFPOINTS
  6
CONTINUOUS
 62
     0
 10
-1626.195581066358
 20
-2475.640841793659
 30
0.0
  0
POINT
  5
80
  8
DEFPOINTS
  6
CONTINUOUS
 62
     0
 10
-1626.195581066358
 20
-2459.140841793658
 30
0.0
  0
POINT
  5
81
  8
DEFPOINTS
  6
CONTINUOUS
 62
     0
 10
-1655.691355538601
 20
-2459.140841793658
 30
0.0
  0
ENDBLK
  5
82
  8
0
 62
     7
  0
BLOCK
  8
回04-下接
  2
*D3939
 70
     1
 10
0.0
 20
0.0
 30
0.0
  3
*D3939
  1

  0
LINE
  5
49A
  8
0
  6
CONTINUOUS
 62
     5
 10
181.8893609054303
 20
509.8724219635815
 30
0.0
 11
151.3935864331874
 21
509.8724219635815
 31
0.0
  0
LINE
  5
49B
  8
0
  6
CONTINUOUS
 62
     5
 10
181.8893609054303
 20
526.3724219635817
 30
0.0
 11
151.3935864331874
 21
526.3724219635817
 31
0.0
  0
LINE
  5
49C
  8
0
  6
CONTINUOUS
 62
     5
 10
152.3935864331875
 20
506.8724219635813
 30
0.0
 11
152.3935864331875
 21
480.0721152176719
 31
0.0
  0
LINE
  5
49D
  8
0
  6
CONTINUOUS
 62
     5
 10
152.3935864331875
 20
509.8724219635815
 30
0.0
 11
152.3935864331875
 21
526.3724219635817
 31
0.0
  0
LINE
  5
49E
  8
0
  6
CONTINUOUS
 62
     5
 10
152.3935864331875
 20
529.3724219635818
 30
0.0
 11
152.3935864331875
 21
532.3724219635818
 31
0.0
  0
INSERT
  5
49F
  8
0
  6
CONTINUOUS
 62
     5
  2
_OPEN
 10
152.3935864331875
 20
509.8724219635815
 30
0.0
 41
3.0
 42
3.0
 43
3.0
 50
90.0
  0
INSERT
  5
4A0
  8
0
  6
CONTINUOUS
 62
     5
  2
_OPEN
 10
152.3935864331875
 20
526.3724219635817
 30
0.0
 41
3.0
 42
3.0
 43
3.0
 50
270.0
  0
TEXT
  5
4A1
  8
0
  6
CONTINUOUS
 62
     5
 10
151.8935864331874
 20
479.8221152176719
 30
0.0
 40
5.0
  1
6.25±0.2
 50
90.0
  0
POINT
  5
4A2
  8
DEFPOINTS
  6
CONTINUOUS
 62
     0
 10
181.8893609054303
 20
509.8724219635815
 30
0.0
  0
POINT
  5
4A3
  8
DEFPOINTS
  6
CONTINUOUS
 62
     0
 10
181.8893609054303
 20
526.3724219635817
 30
0.0
  0
POINT
  5
4A4
  8
DEFPOINTS
  6
CONTINUOUS
 62
     0
 10
152.3935864331875
 20
526.3724219635817
 30
0.0
  0
ENDBLK
  5
4A6
  8
回04-下接
  6
CONTINUOUS
 62
     7
  0
BLOCK
  8
回04-下接
  2
*D4040
 70
     1
 10
0.0
 20
0.0
 30
0.0
  3
*D4040
  1

  0
LINE
  5
4A8
  8
0
  6
CONTINUOUS
 62
     5
 10
176.741867638455
 20
513.1724219635753
 30
0.0
 11
160.867474692925
 21
513.1724219635753
 31
0.0
  0
LINE
  5
4A9
  8
0
  6
CONTINUOUS
 62
     5
 10
176.741867638455
 20
523.0724219635749
 30
0.0
 11
160.867474692925
 21
523.0724219635749
 31
0.0
  0
LINE
  5
4AA
  8
0
  6
CONTINUOUS
 62
     5
 10
161.867474692925
 20
510.1724219635753
 30
0.0
 11
161.867474692925
 21
482.4097913380119
 31
0.0
  0
LINE
  5
4AB
  8
0
  6
CONTINUOUS
 62
     5
 10
161.867474692925
 20
513.1724219635753
 30
0.0
 11
161.867474692925
 21
523.0724219635749
 31
0.0
  0
LINE
  5
4AC
  8
0
  6
CONTINUOUS
 62
     5
 10
161.867474692925
 20
526.0724219635749
 30
0.0
 11
161.867474692925
 21
529.0724219635749
 31
0.0
  0
INSERT
  5
4AD
  8
0
  6
CONTINUOUS
 62
     5
  2
_OPEN
 10
161.867474692925
 20
513.1724219635753
 30
0.0
 41
3.0
 42
3.0
 43
3.0
 50
90.0
  0
INSERT
  5
4AE
  8
0
  6
CONTINUOUS
 62
     5
  2
_OPEN
 10
161.867474692925
 20
523.0724219635749
 30
0.0
 41
3.0
 42
3.0
 43
3.0
 50
270.0
  0
TEXT
  5
4AF
  8
0
  6
CONTINUOUS
 62
     5
 10
161.367474692925
 20
482.1597913380118
 30
0.0
 40
5.0
  1
3.75±0.1
 50
90.0
  0
POINT
  5
4B0
  8
DEFPOINTS
  6
CONTINUOUS
 62
     0
 10
176.741867638455
 20
513.1724219635753
 30
0.0
  0
POINT
  5
4B1
  8
DEFPOINTS
  6
CONTINUOUS
 62
     0
 10
176.741867638455
 20
523.0724219635749
 30
0.0
  0
POINT
  5
4B2
  8
DEFPOINTS
  6
CONTINUOUS
 62
     0
 10
161.867474692925
 20
523.0724219635749
 30
0.0
  0
ENDBLK
  5
4B4
  8
回04-下接
  6
CONTINUOUS
 62
     7
  0
BLOCK
  8
回04-下接
  2
*D4141
 70
     1
 10
0.0
 20
0.0
 30
0.0
  3
*D4141
  1

  0
LINE
  5
4B6
  8
0
  6
CONTINUOUS
 62
     5
 10
176.741867638455
 20
513.1724219635753
 30
0.0
 11
168.5761229946365
 21
513.1724219635753
 31
0.0
  0
LINE
  5
4B7
  8
0
  6
CONTINUOUS
 62
     5
 10
176.7419825068809
 20
516.4724219635745
 30
0.0
 11
168.5761229946365
 21
516.4724219635745
 31
0.0
  0
LINE
  5
4B8
  8
0
  6
CONTINUOUS
 62
     5
 10
169.5761229946365
 20
510.1724219635753
 30
0.0
 11
169.5761229946365
 21
482.5076055238877
 31
0.0
  0
LINE
  5
4B9
  8
0
  6
CONTINUOUS
 62
     5
 10
169.5761229946365
 20
513.1724219635753
 30
0.0
 11
169.5761229946365
 21
516.4724219635745
 31
0.0
  0
LINE
  5
4BA
  8
0
  6
CONTINUOUS
 62
     5
 10
169.5761229946365
 20
519.4724219635745
 30
0.0
 11
169.5761229946365
 21
522.4724219635745
 31
0.0
  0
INSERT
  5
4BB
  8
0
  6
CONTINUOUS
 62
     5
  2
_OPEN
 10
169.5761229946365
 20
513.1724219635753
 30
0.0
 41
3.0
 42
3.0
 43
3.0
 50
90.0
  0
INSERT
  5
4BC
  8
0
  6
CONTINUOUS
 62
     5
  2
_OPEN
 10
169.5761229946365
 20
516.4724219635745
 30
0.0
 41
3.0
 42
3.0
 43
3.0
 50
270.0
  0
TEXT
  5
4BD
  8
0
  6
CONTINUOUS
 62
     5
 10
169.0761229946365
 20
482.2576055238878
 30
0.0
 40
5.0
  1
1.25±0.2
 50
90.0
  0
POINT
  5
4BE
  8
DEFPOINTS
  6
CONTINUOUS
 62
     0
 10
176.741867638455
 20
513.1724219635753
 30
0.0
  0
POINT
  5
4BF
  8
DEFPOINTS
  6
CONTINUOUS
 62
     0
 10
176.7419825068809
 20
516.4724219635745
 30
0.0
  0
POINT
  5
4C0
  8
DEFPOINTS
  6
CONTINUOUS
 62
     0
 10
169.5761229946365
 20
516.4724219635745
 30
0.0
  0
ENDBLK
  5
4C2
  8
回04-下接
  6
CONTINUOUS
 62
     7
  0
BLOCK
  8
回04-下接
  2
*D4242
 70
     1
 10
0.0
 20
0.0
 30
0.0
  3
*D4242
  1

  0
LINE
  5
4C4
  8
0
  6
CONTINUOUS
 62
     5
 10
183.9761653880073
 20
512.2484219635753
 30
0.0
 11
177.2955286193464
 21
512.2484219635753
 31
0.0
  0
LINE
  5
4C5
  8
0
  6
CONTINUOUS
 62
     5
 10
183.9761653880073
 20
514.0964219635752
 30
0.0
 11
177.2955286193464
 21
514.0964219635752
 31
0.0
  0
LINE
  5
4C6
  8
0
  6
CONTINUOUS
 62
     5
 10
178.2955286193464
 20
509.2484219635752
 30
0.0
 11
178.2955286193464
 21
472.8160866406986
 31
0.0
  0
LINE
  5
4C7
  8
0
  6
CONTINUOUS
 62
     5
 10
178.2955286193464
 20
512.2484219635753
 30
0.0
 11
178.2955286193464
 21
514.0964219635752
 31
0.0
  0
LINE
  5
4C8
  8
0
  6
CONTINUOUS
 62
     5
 10
178.2955286193464
 20
517.0964219635752
 30
0.0
 11
178.2955286193464
 21
520.0964219635753
 31
0.0
  0
INSERT
  5
4C9
  8
0
  6
CONTINUOUS
 62
     5
  2
_OPEN
 10
178.2955286193464
 20
512.2484219635753
 30
0.0
 41
3.0
 42
3.0
 43
3.0
 50
90.0
  0
INSERT
  5
4CA
  8
0
  6
CONTINUOUS
 62
     5
  2
_OPEN
 10
178.2955286193464
 20
514.0964219635752
 30
0.0
 41
3.0
 42
3.0
 43
3.0
 50
270.0
  0
TEXT
  5
4CB
  8
0
  6
CONTINUOUS
 62
     5
 10
177.7955286193464
 20
472.5660866406987
 30
0.0
 40
5.0
  1
4-0.7±0.1
 50
90.0
  0
POINT
  5
4CC
  8
DEFPOINTS
  6
CONTINUOUS
 62
     0
 10
183.9761653880073
 20
512.2484219635753
 30
0.0
  0
POINT
  5
4CD
  8
DEFPOINTS
  6
CONTINUOUS
 62
     0
 10
183.9761653880073
 20
514.0964219635752
 30
0.0
  0
POINT
  5
4CE
  8
DEFPOINTS
  6
CONTINUOUS
 62
     0
 10
178.2955286193464
 20
514.0964219635752
 30
0.0
  0
ENDBLK
  5
4D0
  8
回04-下接
  6
CONTINUOUS
 62
     7
  0
BLOCK
  8
回04-下接
  2
*D4343
 70
     1
 10
0.0
 20
0.0
 30
0.0
  3
*D4343
  1

  0
LINE
  5
4D2
  8
回07-寸法
  6
CONTINUOUS
 62
     5
 10
666.0047814721165
 20
254.7205953890857
 30
0.0
 11
752.5047814721168
 21
254.7205953890857
 31
0.0
  0
LINE
  5
4D3
  8
回07-寸法
  6
CONTINUOUS
 62
     5
 10
675.3947814721164
 20
245.0985953890863
 30
0.0
 11
752.5047814721168
 21
245.0985953890863
 31
0.0
  0
LINE
  5
4D4
  8
回07-寸法
  6
CONTINUOUS
 62
     5
 10
751.5047814721168
 20
240.0985953890863
 30
0.0
 11
751.5047814721168
 21
158.2202721688594
 31
0.0
  0
LINE
  5
4D5
  8
回07-寸法
  6
CONTINUOUS
 62
     5
 10
751.5047814721168
 20
254.7205953890857
 30
0.0
 11
751.5047814721168
 21
245.0985953890863
 31
0.0
  0
LINE
  5
4D6
  8
回07-寸法
  6
CONTINUOUS
 62
     5
 10
751.5047814721168
 20
259.7205953890857
 30
0.0
 11
751.5047814721168
 21
264.7205953890857
 31
0.0
  0
INSERT
  5
4D7
  8
回07-寸法
  6
CONTINUOUS
 62
     5
  2
_OPEN
 10
751.5047814721168
 20
254.7205953890857
 30
0.0
 41
5.0
 42
5.0
 43
5.0
 50
270.0
  0
INSERT
  5
4D8
  8
回07-寸法
  6
CONTINUOUS
 62
     5
  2
_OPEN
 10
751.5047814721168
 20
245.0985953890863
 30
0.0
 41
5.0
 42
5.0
 43
5.0
 50
90.0
  0
INSERT
  5
4D9
  8
回07-寸法
  6
CONTINUOUS
 62
     5
 66
     1
  2
*X9696
 10
0.0
 20
0.0
 30
0.0
  0
SEQEND
  5
773
  8
回04-下接
  6
CONTINUOUS
 62
     7
  0
POINT
  5
4DA
  8
DEFPOINTS
  6
CONTINUOUS
 62
     0
 10
666.0047814721165
 20
254.7205953890857
 30
0.0
  0
POINT
  5
4DB
  8
DEFPOINTS
  6
CONTINUOUS
 62
     0
 10
675.3947814721164
 20
245.0985953890863
 30
0.0
  0
POINT
  5
4DC
  8
DEFPOINTS
  6
CONTINUOUS
 62
     0
 10
751.5047814721168
 20
245.0985953890863
 30
0.0
  0
ENDBLK
  5
4DE
  8
回04-下接
  6
CONTINUOUS
 62
     7
  0
BLOCK
  8
回04-下接
  2
*D4444
 70
     1
 10
0.0
 20
0.0
 30
0.0
  3
*D4444
  1

  0
LINE
  5
4E0
  8
回07-寸法
  6
CONTINUOUS
 62
     5
 10
665.5047814721164
 20
255.5205953890859
 30
0.0
 11
737.5047814721186
 21
255.5205953890859
 31
0.0
  0
LINE
  5
4E1
  8
回07-寸法
  6
CONTINUOUS
 62
     5
 10
675.3947814721164
 20
245.0985953890863
 30
0.0
 11
737.5047814721186
 21
245.0985953890863
 31
0.0
  0
LINE
  5
4E2
  8
回07-寸法
  6
CONTINUOUS
 62
     5
 10
736.5047814721187
 20
240.0985953890863
 30
0.0
 11
736.5047814721187
 21
218.0985953890831
 31
0.0
  0
LINE
  5
4E3
  8
回07-寸法
  6
CONTINUOUS
 62
     5
 10
736.5047814721187
 20
255.5205953890859
 30
0.0
 11
736.5047814721187
 21
245.0985953890863
 31
0.0
  0
LINE
  5
4E4
  8
回07-寸法
  6
CONTINUOUS
 62
     5
 10
736.5047814721187
 20
260.5205953890859
 30
0.0
 11
736.5047814721187
 21
265.520595389086
 31
0.0
  0
INSERT
  5
4E5
  8
回07-寸法
  6
CONTINUOUS
 62
     5
  2
_OPEN
 10
736.5047814721187
 20
255.5205953890859
 30
0.0
 41
5.0
 42
5.0
 43
5.0
 50
270.0
  0
INSERT
  5
4E6
  8
回07-寸法
  6
CONTINUOUS
 62
     5
  2
_OPEN
 10
736.5047814721187
 20
245.0985953890863
 30
0.0
 41
5.0
 42
5.0
 43
5.0
 50
90.0
  0
TEXT
  5
4E7
  8
回07-寸法
  6
CONTINUOUS
 62
     5
 10
736.0047814721187
 20
217.3985953890831
 30
0.0
 40
8.0
  1
10.4
 50
90.0
  0
POINT
  5
4E8
  8
DEFPOINTS
  6
CONTINUOUS
 62
     0
 10
665.5047814721164
 20
255.5205953890859
 30
0.0
  0
POINT
  5
4E9
  8
DEFPOINTS
  6
CONTINUOUS
 62
     0
 10
675.3947814721164
 20
245.0985953890863
 30
0.0
  0
POINT
  5
4EA
  8
DEFPOINTS
  6
CONTINUOUS
 62
     0
 10
736.5047814721187
 20
245.0985953890863
 30
0.0
  0
ENDBLK
  5
4EC
  8
回04-下接
  6
CONTINUOUS
 62
     7
  0
BLOCK
  8
回04-下接
  2
*D4545
 70
     1
 10
0.0
 20
0.0
 30
0.0
  3
*D4545
  1

  0
LINE
  5
4EE
  8
回07-寸法
  6
CONTINUOUS
 62
     5
 10
663.5047814721165
 20
257.520595389086
 30
0.0
 11
722.5047814721168
 21
257.520595389086
 31
0.0
  0
LINE
  5
4EF
  8
回07-寸法
  6
CONTINUOUS
 62
     5
 10
675.3947814721164
 20
245.0985953890863
 30
0.0
 11
722.5047814721168
 21
245.0985953890863
 31
0.0
  0
LINE
  5
4F0
  8
回07-寸法
  6
CONTINUOUS
 62
     5
 10
721.5047814721168
 20
240.0985953890863
 30
0.0
 11
721.5047814721168
 21
218.0985953890831
 31
0.0
  0
LINE
  5
4F1
  8
回07-寸法
  6
CONTINUOUS
 62
     5
 10
721.5047814721168
 20
257.520595389086
 30
0.0
 11
721.5047814721168
 21
245.0985953890863
 31
0.0
  0
LINE
  5
4F2
  8
回07-寸法
  6
CONTINUOUS
 62
     5
 10
721.5047814721168
 20
262.5205953890859
 30
0.0
 11
721.5047814721168
 21
267.5205953890859
 31
0.0
  0
INSERT
  5
4F3
  8
回07-寸法
  6
CONTINUOUS
 62
     5
  2
_OPEN
 10
721.5047814721168
 20
257.520595389086
 30
0.0
 41
5.0
 42
5.0
 43
5.0
 50
270.0
  0
INSERT
  5
4F4
  8
回07-寸法
  6
CONTINUOUS
 62
     5
  2
_OPEN
 10
721.5047814721168
 20
245.0985953890863
 30
0.0
 41
5.0
 42
5.0
 43
5.0
 50
90.0
  0
TEXT
  5
4F5
  8
回07-寸法
  6
CONTINUOUS
 62
     5
 10
721.0047814721169
 20
217.3985953890831
 30
0.0
 40
8.0
  1
12.4
 50
90.0
  0
POINT
  5
4F6
  8
DEFPOINTS
  6
CONTINUOUS
 62
     0
 10
663.5047814721165
 20
257.520595389086
 30
0.0
  0
POINT
  5
4F7
  8
DEFPOINTS
  6
CONTINUOUS
 62
     0
 10
675.3947814721164
 20
245.0985953890863
 30
0.0
  0
POINT
  5
4F8
  8
DEFPOINTS
  6
CONTINUOUS
 62
     0
 10
721.5047814721168
 20
245.0985953890863
 30
0.0
  0
ENDBLK
  5
4FA
  8
回04-下接
  6
CONTINUOUS
 62
     7
  0
BLOCK
  8
回04-下接
  2
*D4646
 70
     1
 10
0.0
 20
0.0
 30
0.0
  3
*D4646
  1

  0
LINE
  5
4FC
  8
回07-寸法
  6
CONTINUOUS
 62
     5
 10
274.7947814721165
 20
202.468681478329
 30
0.0
 11
274.7947814721165
 21
221.1998581212911
 31
0.0
  0
LINE
  5
4FD
  8
回07-寸法
  6
CONTINUOUS
 62
     5
 10
275.2947814721165
 20
209.468681478329
 30
0.0
 11
275.2947814721165
 21
221.1998581212911
 31
0.0
  0
LINE
  5
4FE
  8
回07-寸法
  6
CONTINUOUS
 62
     5
 10
280.2947814721165
 20
220.1998581212911
 30
0.0
 11
303.888482259518
 21
220.1998581212911
 31
0.0
  0
LINE
  5
4FF
  8
回07-寸法
  6
CONTINUOUS
 62
     5
 10
274.7947814721165
 20
220.1998581212911
 30
0.0
 11
275.2947814721165
 21
220.1998581212911
 31
0.0
  0
LINE
  5
500
  8
回07-寸法
  6
CONTINUOUS
 62
     5
 10
269.7947814721165
 20
220.1998581212911
 30
0.0
 11
264.7947814721165
 21
220.1998581212911
 31
0.0
  0
INSERT
  5
501
  8
回07-寸法
  6
CONTINUOUS
 62
     5
  2
_OPEN
 10
274.7947814721165
 20
220.1998581212911
 30
0.0
 41
5.0
 42
5.0
 43
5.0
  0
INSERT
  5
502
  8
回07-寸法
  6
CONTINUOUS
 62
     5
  2
_OPEN
 10
275.2947814721165
 20
220.1998581212911
 30
0.0
 41
5.0
 42
5.0
 43
5.0
 50
180.0
  0
TEXT
  5
503
  8
回07-寸法
  6
CONTINUOUS
 62
     5
 10
284.5916318658172
 20
221.0998581212911
 30
0.0
 40
8.0
  1
(0.5)
  0
POINT
  5
504
  8
DEFPOINTS
  6
CONTINUOUS
 62
     0
 10
274.7947814721165
 20
202.468681478329
 30
0.0
  0
POINT
  5
505
  8
DEFPOINTS
  6
CONTINUOUS
 62
     0
 10
275.2947814721165
 20
209.468681478329
 30
0.0
  0
POINT
  5
506
  8
DEFPOINTS
  6
CONTINUOUS
 62
     0
 10
275.2947814721165
 20
220.1998581212911
 30
0.0
  0
ENDBLK
  5
508
  8
回04-下接
  6
CONTINUOUS
 62
     7
  0
BLOCK
  8
回04-下接
  2
*D4747
 70
     1
 10
0.0
 20
0.0
 30
0.0
  3
*D4747
  1

  0
LINE
  5
50A
  8
回07-寸法
  6
CONTINUOUS
 62
     5
 10
674.8947814721169
 20
209.468681478329
 30
0.0
 11
674.8947814721169
 21
222.3321718492552
 31
0.0
  0
LINE
  5
50B
  8
回07-寸法
  6
CONTINUOUS
 62
     5
 10
675.3947814721167
 20
202.468681478329
 30
0.0
 11
675.3947814721167
 21
222.3321718492552
 31
0.0
  0
LINE
  5
50C
  8
回07-寸法
  6
CONTINUOUS
 62
     5
 10
680.3947814721167
 20
221.3321718492553
 30
0.0
 11
703.9884822595182
 21
221.3321718492553
 31
0.0
  0
LINE
  5
50D
  8
回07-寸法
  6
CONTINUOUS
 62
     5
 10
674.8947814721169
 20
221.3321718492553
 30
0.0
 11
675.3947814721167
 21
221.3321718492553
 31
0.0
  0
LINE
  5
50E
  8
回07-寸法
  6
CONTINUOUS
 62
     5
 10
669.8947814721167
 20
221.3321718492553
 30
0.0
 11
664.8947814721167
 21
221.3321718492553
 31
0.0
  0
INSERT
  5
50F
  8
回07-寸法
  6
CONTINUOUS
 62
     5
  2
_OPEN
 10
674.8947814721169
 20
221.3321718492553
 30
0.0
 41
5.0
 42
5.0
 43
5.0
  0
INSERT
  5
510
  8
回07-寸法
  6
CONTINUOUS
 62
     5
  2
_OPEN
 10
675.3947814721167
 20
221.3321718492553
 30
0.0
 41
5.0
 42
5.0
 43
5.0
 50
180.0
  0
TEXT
  5
511
  8
回07-寸法
  6
CONTINUOUS
 62
     5
 10
684.6916318658176
 20
222.2321718492552
 30
0.0
 40
8.0
  1
(0.5)
  0
POINT
  5
512
  8
DEFPOINTS
  6
CONTINUOUS
 62
     0
 10
674.8947814721169
 20
209.468681478329
 30
0.0
  0
POINT
  5
513
  8
DEFPOINTS
  6
CONTINUOUS
 62
     0
 10
675.3947814721167
 20
202.468681478329
 30
0.0
  0
POINT
  5
514
  8
DEFPOINTS
  6
CONTINUOUS
 62
     0
 10
675.3947814721167
 20
221.3321718492553
 30
0.0
  0
ENDBLK
  5
516
  8
回04-下接
  6
CONTINUOUS
 62
     7
  0
BLOCK
  8
回04-下接
  2
*D4848
 70
     1
 10
0.0
 20
0.0
 30
0.0
  3
*D4848
  1

  0
LINE
  5
518
  8
回07-寸法
  6
CONTINUOUS
 62
     5
 10
674.8947814721169
 20
209.4686814783272
 30
0.0
 11
689.4071410404567
 21
209.4686814783272
 31
0.0
  0
LINE
  5
519
  8
回07-寸法
  6
CONTINUOUS
 62
     5
 10
675.3947814721167
 20
196.468681478329
 30
0.0
 11
689.4071410404567
 21
196.468681478329
 31
0.0
  0
LINE
  5
51A
  8
回07-寸法
  6
CONTINUOUS
 62
     5
 10
688.4071410404567
 20
191.468681478329
 30
0.0
 11
688.4071410404567
 21
163.1664062284827
 31
0.0
  0
LINE
  5
51B
  8
回07-寸法
  6
CONTINUOUS
 62
     5
 10
688.4071410404567
 20
209.4686814783272
 30
0.0
 11
688.4071410404567
 21
196.468681478329
 31
0.0
  0
LINE
  5
51C
  8
回07-寸法
  6
CONTINUOUS
 62
     5
 10
688.4071410404567
 20
214.4686814783272
 30
0.0
 11
688.4071410404567
 21
219.4686814783272
 31
0.0
  0
INSERT
  5
51D
  8
回07-寸法
  6
CONTINUOUS
 62
     5
  2
_OPEN
 10
688.4071410404567
 20
209.4686814783272
 30
0.0
 41
5.0
 42
5.0
 43
5.0
 50
270.0
  0
INSERT
  5
51E
  8
回07-寸法
  6
CONTINUOUS
 62
     5
  2
_OPEN
 10
688.4071410404567
 20
196.468681478329
 30
0.0
 41
5.0
 42
5.0
 43
5.0
 50
90.0
  0
INSERT
  5
51F
  8
回07-寸法
  6
CONTINUOUS
 62
     5
 66
     1
  2
*X9797
 10
0.0
 20
0.0
 30
0.0
  0
SEQEND
  5
779
  8
回04-下接
  6
CONTINUOUS
 62
     7
  0
POINT
  5
520
  8
DEFPOINTS
  6
CONTINUOUS
 62
     0
 10
674.8947814721169
 20
209.4686814783272
 30
0.0
  0
POINT
  5
521
  8
DEFPOINTS
  6
CONTINUOUS
 62
     0
 10
675.3947814721167
 20
196.468681478329
 30
0.0
  0
POINT
  5
522
  8
DEFPOINTS
  6
CONTINUOUS
 62
     0
 10
688.4071410404567
 20
196.468681478329
 30
0.0
  0
ENDBLK
  5
524
  8
回04-下接
  6
CONTINUOUS
 62
     7
  0
BLOCK
  8
回04-下接
  2
*D4949
 70
     1
 10
0.0
 20
0.0
 30
0.0
  3
*D4949
  1

  0
LINE
  5
526
  8
回07-寸法
  6
CONTINUOUS
 62
     5
 10
194.7948249827286
 20
205.4686814783272
 30
0.0
 11
186.2886992057356
 21
205.4686814783272
 31
0.0
  0
LINE
  5
527
  8
回07-寸法
  6
CONTINUOUS
 62
     5
 10
194.7948249827286
 20
198.4686814783271
 30
0.0
 11
186.2886992057356
 21
198.4686814783271
 31
0.0
  0
LINE
  5
528
  8
回07-寸法
  6
CONTINUOUS
 62
     5
 10
187.2886992057356
 20
193.4686814783271
 30
0.0
 11
187.2886992057356
 21
158.4264024682635
 31
0.0
  0
LINE
  5
529
  8
回07-寸法
  6
CONTINUOUS
 62
     5
 10
187.2886992057356
 20
205.4686814783272
 30
0.0
 11
187.2886992057356
 21
198.4686814783271
 31
0.0
  0
LINE
  5
52A
  8
回07-寸法
  6
CONTINUOUS
 62
     5
 10
187.2886992057356
 20
210.4686814783272
 30
0.0
 11
187.2886992057356
 21
215.4686814783272
 31
0.0
  0
INSERT
  5
52B
  8
回07-寸法
  6
CONTINUOUS
 62
     5
  2
_OPEN
 10
187.2886992057356
 20
205.4686814783272
 30
0.0
 41
5.0
 42
5.0
 43
5.0
 50
270.0
  0
INSERT
  5
52C
  8
回07-寸法
  6
CONTINUOUS
 62
     5
  2
_OPEN
 10
187.2886992057356
 20
198.4686814783271
 30
0.0
 41
5.0
 42
5.0
 43
5.0
 50
90.0
  0
INSERT
  5
52D
  8
回07-寸法
  6
CONTINUOUS
 62
     5
 66
     1
  2
*X9898
 10
0.0
 20
0.0
 30
0.0
  0
SEQEND
  5
77F
  8
回04-下接
  6
CONTINUOUS
 62
     7
  0
POINT
  5
52E
  8
DEFPOINTS
  6
CONTINUOUS
 62
     0
 10
194.7948249827286
 20
205.4686814783272
 30
0.0
  0
POINT
  5
52F
  8
DEFPOINTS
  6
CONTINUOUS
 62
     0
 10
194.7948249827286
 20
198.4686814783271
 30
0.0
  0
POINT
  5
530
  8
DEFPOINTS
  6
CONTINUOUS
 62
     0
 10
187.2886992057356
 20
198.4686814783271
 30
0.0
  0
ENDBLK
  5
532
  8
回04-下接
  6
CONTINUOUS
 62
     7
  0
BLOCK
  8
回04-下接
  2
*D5050
 70
     1
 10
0.0
 20
0.0
 30
0.0
  3
*D5050
  1

  0
LINE
  5
534
  8
回07-寸法
  6
CONTINUOUS
 62
     5
 10
194.7947814719614
 20
205.4686814783272
 30
0.0
 11
194.7947814719614
 21
213.7498653679495
 31
0.0
  0
LINE
  5
535
  8
回07-寸法
  6
CONTINUOUS
 62
     5
 10
199.7947814719614
 20
205.4686814783272
 30
0.0
 11
199.7947814719614
 21
213.7498653679495
 31
0.0
  0
LINE
  5
536
  8
回07-寸法
  6
CONTINUOUS
 62
     5
 10
204.7947814719614
 20
212.7498653679495
 30
0.0
 11
214.1604668969106
 21
212.7498653679495
 31
0.0
  0
LINE
  5
537
  8
回07-寸法
  6
CONTINUOUS
 62
     5
 10
194.7947814719614
 20
212.7498653679495
 30
0.0
 11
199.7947814719614
 21
212.7498653679495
 31
0.0
  0
LINE
  5
538
  8
回07-寸法
  6
CONTINUOUS
 62
     5
 10
189.7947814719614
 20
212.7498653679495
 30
0.0
 11
184.7947814719614
 21
212.7498653679495
 31
0.0
  0
INSERT
  5
539
  8
回07-寸法
  6
CONTINUOUS
 62
     5
  2
_OPEN
 10
194.7947814719614
 20
212.7498653679495
 30
0.0
 41
5.0
 42
5.0
 43
5.0
  0
INSERT
  5
53A
  8
回07-寸法
  6
CONTINUOUS
 62
     5
  2
_OPEN
 10
199.7947814719614
 20
212.7498653679495
 30
0.0
 41
5.0
 42
5.0
 43
5.0
 50
180.0
  0
TEXT
  5
53B
  8
回07-寸法
  6
CONTINUOUS
 62
     5
 10
209.2604668969106
 20
213.2498653679495
 30
0.0
 40
8.0
  1
5
  0
POINT
  5
53C
  8
DEFPOINTS
  6
CONTINUOUS
 62
     0
 10
194.7947814719614
 20
205.4686814783272
 30
0.0
  0
POINT
  5
53D
  8
DEFPOINTS
  6
CONTINUOUS
 62
     0
 10
199.7947814719614
 20
205.4686814783272
 30
0.0
  0
POINT
  5
53E
  8
DEFPOINTS
  6
CONTINUOUS
 62
     0
 10
199.7947814719614
 20
212.7498653679495
 30
0.0
  0
ENDBLK
  5
540
  8
回04-下接
  6
CONTINUOUS
 62
     7
  0
BLOCK
  8
回04-下接
  2
*D5151
 70
     1
 10
0.0
 20
0.0
 30
0.0
  3
*D5151
  1

  0
LINE
  5
542
  8
回07-寸法
  6
CONTINUOUS
 62
     5
 10
194.7947814719614
 20
198.4686814783281
 30
0.0
 11
194.7947814719614
 21
177.8130303499492
 31
0.0
  0
LINE
  5
543
  8
回07-寸法
  6
CONTINUOUS
 62
     5
 10
204.7948249827286
 20
198.4686814783271
 30
0.0
 11
204.7948249827286
 21
177.8130303499492
 31
0.0
  0
LINE
  5
544
  8
回07-寸法
  6
CONTINUOUS
 62
     5
 10
209.7948249827287
 20
178.8130303499492
 30
0.0
 11
229.3885257701303
 21
178.8130303499492
 31
0.0
  0
LINE
  5
545
  8
回07-寸法
  6
CONTINUOUS
 62
     5
 10
194.7947814719614
 20
178.8130303499492
 30
0.0
 11
204.7948249827286
 21
178.8130303499492
 31
0.0
  0
LINE
  5
546
  8
回07-寸法
  6
CONTINUOUS
 62
     5
 10
189.7947814719614
 20
178.8130303499492
 30
0.0
 11
184.7947814719614
 21
178.8130303499492
 31
0.0
  0
INSERT
  5
547
  8
回07-寸法
  6
CONTINUOUS
 62
     5
  2
_OPEN
 10
194.7947814719614
 20
178.8130303499492
 30
0.0
 41
5.0
 42
5.0
 43
5.0
  0
INSERT
  5
548
  8
回07-寸法
  6
CONTINUOUS
 62
     5
  2
_OPEN
 10
204.7948249827286
 20
178.8130303499492
 30
0.0
 41
5.0
 42
5.0
 43
5.0
 50
180.0
  0
TEXT
  5
549
  8
回07-寸法
  6
CONTINUOUS
 62
     5
 10
214.0916753764295
 20
179.7130303499493
 30
0.0
 40
8.0
  1
(10)
  0
POINT
  5
54A
  8
DEFPOINTS
  6
CONTINUOUS
 62
     0
 10
194.7947814719614
 20
198.4686814783281
 30
0.0
  0
POINT
  5
54B
  8
DEFPOINTS
  6
CONTINUOUS
 62
     0
 10
204.7948249827286
 20
198.4686814783271
 30
0.0
  0
POINT
  5
54C
  8
DEFPOINTS
  6
CONTINUOUS
 62
     0
 10
204.7948249827286
 20
178.8130303499492
 30
0.0
  0
ENDBLK
  5
54E
  8
回04-下接
  6
CONTINUOUS
 62
     7
  0
BLOCK
  8
回04-下接
  2
*D5252
 70
     1
 10
0.0
 20
0.0
 30
0.0
  3
*D5252
  1

  0
LINE
  5
550
  8
回07-寸法
  6
CONTINUOUS
 62
     5
 10
196.3017474413473
 20
405.173546255759
 30
0.0
 11
184.3587023929253
 21
405.173546255759
 31
0.0
  0
LINE
  5
551
  8
回07-寸法
  6
CONTINUOUS
 62
     5
 10
275.7947814721165
 20
245.0985953890858
 30
0.0
 11
184.3587023929253
 21
245.0985953890858
 31
0.0
  0
LINE
  5
552
  8
回07-寸法
  6
CONTINUOUS
 62
     5
 10
185.3587023929253
 20
400.1735462557588
 30
0.0
 11
185.3587023929253
 21
250.0985953890859
 31
0.0
  0
INSERT
  5
553
  8
回07-寸法
  6
CONTINUOUS
 62
     5
  2
_OPEN
 10
185.3587023929253
 20
405.173546255759
 30
0.0
 41
5.0
 42
5.0
 43
5.0
 50
90.0
  0
INSERT
  5
554
  8
回07-寸法
  6
CONTINUOUS
 62
     5
  2
_OPEN
 10
185.3587023929253
 20
245.0985953890858
 30
0.0
 41
5.0
 42
5.0
 43
5.0
 50
270.0
  0
TEXT
  5
555
  8
回07-寸法
  6
CONTINUOUS
 62
     5
 10
184.4587023929252
 20
311.1360708224224
 30
0.0
 40
8.0
  1
(160.1)
 50
90.0
  0
POINT
  5
556
  8
DEFPOINTS
  6
CONTINUOUS
 62
     0
 10
196.3017474413473
 20
405.173546255759
 30
0.0
  0
POINT
  5
557
  8
DEFPOINTS
  6
CONTINUOUS
 62
     0
 10
275.7947814721165
 20
245.0985953890858
 30
0.0
  0
POINT
  5
558
  8
DEFPOINTS
  6
CONTINUOUS
 62
     0
 10
185.3587023929253
 20
245.0985953890858
 30
0.0
  0
ENDBLK
  5
55A
  8
回04-下接
  6
CONTINUOUS
 62
     7
  0
BLOCK
  8
回04-下接
  2
*D5353
 70
     1
 10
0.0
 20
0.0
 30
0.0
  3
*D5353
  1

  0
LINE
  5
55C
  8
回07-寸法
  6
CONTINUOUS
 62
     5
 10
284.1847814721177
 20
561.8765953890861
 30
0.0
 11
284.1847814721177
 21
619.6265953890856
 31
0.0
  0
LINE
  5
55D
  8
回07-寸法
  6
CONTINUOUS
 62
     5
 10
274.7947814721165
 20
571.4985953890864
 30
0.0
 11
274.7947814721165
 21
619.6265953890856
 31
0.0
  0
LINE
  5
55E
  8
回07-寸法
  6
CONTINUOUS
 62
     5
 10
269.7947814721165
 20
618.6265953890856
 30
0.0
 11
197.0342499760535
 21
618.6265953890856
 31
0.0
  0
LINE
  5
55F
  8
回07-寸法
  6
CONTINUOUS
 62
     5
 10
284.1847814721177
 20
618.6265953890856
 30
0.0
 11
274.7947814721165
 21
618.6265953890856
 31
0.0
  0
LINE
  5
560
  8
回07-寸法
  6
CONTINUOUS
 62
     5
 10
289.1847814721177
 20
618.6265953890856
 30
0.0
 11
294.1847814721177
 21
618.6265953890856
 31
0.0
  0
INSERT
  5
561
  8
回07-寸法
  6
CONTINUOUS
 62
     5
  2
_OPEN
 10
284.1847814721177
 20
618.6265953890856
 30
0.0
 41
5.0
 42
5.0
 43
5.0
 50
180.0
  0
INSERT
  5
562
  8
回07-寸法
  6
CONTINUOUS
 62
     5
  2
_OPEN
 10
274.7947814721165
 20
618.6265953890856
 30
0.0
 41
5.0
 42
5.0
 43
5.0
  0
INSERT
  5
563
  8
回07-寸法
  6
CONTINUOUS
 62
     5
 66
     1
  2
*X9999
 10
0.0
 20
0.0
 30
0.0
  0
SEQEND
  5
785
  8
回04-下接
  6
CONTINUOUS
 62
     7
  0
POINT
  5
564
  8
DEFPOINTS
  6
CONTINUOUS
 62
     0
 10
284.1847814721177
 20
561.8765953890861
 30
0.0
  0
POINT
  5
565
  8
DEFPOINTS
  6
CONTINUOUS
 62
     0
 10
274.7947814721165
 20
571.4985953890864
 30
0.0
  0
POINT
  5
566
  8
DEFPOINTS
  6
CONTINUOUS
 62
     0
 10
274.7947814721165
 20
618.6265953890856
 30
0.0
  0
ENDBLK
  5
568
  8
回04-下接
  6
CONTINUOUS
 62
     7
  0
BLOCK
  8
回04-下接
  2
*D5454
 70
     1
 10
0.0
 20
0.0
 30
0.0
  3
*D5454
  1

  0
LINE
  5
56A
  8
回07-寸法
  6
CONTINUOUS
 62
     5
 10
284.6847814721168
 20
561.0765953890858
 30
0.0
 11
284.6847814721168
 21
604.6265953890856
 31
0.0
  0
LINE
  5
56B
  8
回07-寸法
  6
CONTINUOUS
 62
     5
 10
274.7947814721165
 20
571.4985953890864
 30
0.0
 11
274.7947814721165
 21
604.6265953890856
 31
0.0
  0
LINE
  5
56C
  8
回07-寸法
  6
CONTINUOUS
 62
     5
 10
269.7947814721165
 20
603.6265953890856
 30
0.0
 11
252.1282806570521
 21
603.6265953890856
 31
0.0
  0
LINE
  5
56D
  8
回07-寸法
  6
CONTINUOUS
 62
     5
 10
284.6847814721168
 20
603.6265953890856
 30
0.0
 11
274.7947814721165
 21
603.6265953890856
 31
0.0
  0
LINE
  5
56E
  8
回07-寸法
  6
CONTINUOUS
 62
     5
 10
289.6847814721168
 20
603.6265953890856
 30
0.0
 11
294.6847814721168
 21
603.6265953890856
 31
0.0
  0
INSERT
  5
56F
  8
回07-寸法
  6
CONTINUOUS
 62
     5
  2
_OPEN
 10
284.6847814721168
 20
603.6265953890856
 30
0.0
 41
5.0
 42
5.0
 43
5.0
 50
180.0
  0
INSERT
  5
570
  8
回07-寸法
  6
CONTINUOUS
 62
     5
  2
_OPEN
 10
274.7947814721165
 20
603.6265953890856
 30
0.0
 41
5.0
 42
5.0
 43
5.0
  0
TEXT
  5
571
  8
回07-寸法
  6
CONTINUOUS
 62
     5
 10
251.3993977088362
 20
604.1265953890857
 30
0.0
 40
8.0
  1
9.9
  0
POINT
  5
572
  8
DEFPOINTS
  6
CONTINUOUS
 62
     0
 10
284.6847814721168
 20
561.0765953890858
 30
0.0
  0
POINT
  5
573
  8
DEFPOINTS
  6
CONTINUOUS
 62
     0
 10
274.7947814721165
 20
571.4985953890864
 30
0.0
  0
POINT
  5
574
  8
DEFPOINTS
  6
CONTINUOUS
 62
     0
 10
274.7947814721165
 20
603.6265953890856
 30
0.0
  0
ENDBLK
  5
576
  8
回04-下接
  6
CONTINUOUS
 62
     7
  0
BLOCK
  8
回04-下接
  2
*D5555
 70
     1
 10
0.0
 20
0.0
 30
0.0
  3
*D5555
  1

  0
LINE
  5
578
  8
回07-寸法
  6
CONTINUOUS
 62
     5
 10
286.6847814721168
 20
559.0765953890858
 30
0.0
 11
286.6847814721168
 21
589.6265953890856
 31
0.0
  0
LINE
  5
579
  8
回07-寸法
  6
CONTINUOUS
 62
     5
 10
274.7947814721165
 20
571.4985953890864
 30
0.0
 11
274.7947814721165
 21
589.6265953890856
 31
0.0
  0
LINE
  5
57A
  8
回07-寸法
  6
CONTINUOUS
 62
     5
 10
269.7947814721165
 20
588.6265953890856
 30
0.0
 11
249.8939660820013
 21
588.6265953890856
 31
0.0
  0
LINE
  5
57B
  8
回07-寸法
  6
CONTINUOUS
 62
     5
 10
286.6847814721168
 20
588.6265953890856
 30
0.0
 11
274.7947814721165
 21
588.6265953890856
 31
0.0
  0
LINE
  5
57C
  8
回07-寸法
  6
CONTINUOUS
 62
     5
 10
291.6847814721168
 20
588.6265953890856
 30
0.0
 11
296.6847814721168
 21
588.6265953890856
 31
0.0
  0
INSERT
  5
57D
  8
回07-寸法
  6
CONTINUOUS
 62
     5
  2
_OPEN
 10
286.6847814721168
 20
588.6265953890856
 30
0.0
 41
5.0
 42
5.0
 43
5.0
 50
180.0
  0
INSERT
  5
57E
  8
回07-寸法
  6
CONTINUOUS
 62
     5
  2
_OPEN
 10
274.7947814721165
 20
588.6265953890856
 30
0.0
 41
5.0
 42
5.0
 43
5.0
  0
TEXT
  5
57F
  8
回07-寸法
  6
CONTINUOUS
 62
     5
 10
249.1939660820013
 20
589.1265953890856
 30
0.0
 40
8.0
  1
11.9
  0
POINT
  5
580
  8
DEFPOINTS
  6
CONTINUOUS
 62
     0
 10
286.6847814721168
 20
559.0765953890858
 30
0.0
  0
POINT
  5
581
  8
DEFPOINTS
  6
CONTINUOUS
 62
     0
 10
274.7947814721165
 20
571.4985953890864
 30
0.0
  0
POINT
  5
582
  8
DEFPOINTS
  6
CONTINUOUS
 62
     0
 10
274.7947814721165
 20
588.6265953890856
 30
0.0
  0
ENDBLK
  5
584
  8
回04-下接
  6
CONTINUOUS
 62
     7
  0
BLOCK
  8
回04-下接
  2
*D5656
 70
     1
 10
0.0
 20
0.0
 30
0.0
  3
*D5656
  1

  0
LINE
  5
586
  8
回07-寸法
  6
CONTINUOUS
 62
     5
 10
666.0047814721165
 20
561.8765953890873
 30
0.0
 11
666.0047814721165
 21
619.6265953890856
 31
0.0
  0
LINE
  5
587
  8
回07-寸法
  6
CONTINUOUS
 62
     5
 10
675.3947814721167
 20
571.4985953890864
 30
0.0
 11
675.3947814721167
 21
619.6265953890856
 31
0.0
  0
LINE
  5
588
  8
回07-寸法
  6
CONTINUOUS
 62
     5
 10
680.3947814721167
 20
618.6265953890856
 30
0.0
 11
704.8173652077344
 21
618.6265953890856
 31
0.0
  0
LINE
  5
589
  8
回07-寸法
  6
CONTINUOUS
 62
     5
 10
666.0047814721165
 20
618.6265953890856
 30
0.0
 11
675.3947814721167
 21
618.6265953890856
 31
0.0
  0
LINE
  5
58A
  8
回07-寸法
  6
CONTINUOUS
 62
     5
 10
661.0047814721164
 20
618.6265953890856
 30
0.0
 11
656.0047814721165
 21
618.6265953890856
 31
0.0
  0
INSERT
  5
58B
  8
回07-寸法
  6
CONTINUOUS
 62
     5
  2
_OPEN
 10
666.0047814721165
 20
618.6265953890856
 30
0.0
 41
5.0
 42
5.0
 43
5.0
  0
INSERT
  5
58C
  8
回07-寸法
  6
CONTINUOUS
 62
     5
  2
_OPEN
 10
675.3947814721167
 20
618.6265953890856
 30
0.0
 41
5.0
 42
5.0
 43
5.0
 50
180.0
  0
TEXT
  5
58D
  8
回07-寸法
  6
CONTINUOUS
 62
     5
 10
684.6916318658176
 20
619.5265953890856
 30
0.0
 40
8.0
  1
(9.4)
  0
POINT
  5
58E
  8
DEFPOINTS
  6
CONTINUOUS
 62
     0
 10
666.0047814721165
 20
561.8765953890873
 30
0.0
  0
POINT
  5
58F
  8
DEFPOINTS
  6
CONTINUOUS
 62
     0
 10
675.3947814721167
 20
571.4985953890864
 30
0.0
  0
POINT
  5
590
  8
DEFPOINTS
  6
CONTINUOUS
 62
     0
 10
675.3947814721167
 20
618.6265953890856
 30
0.0
  0
ENDBLK
  5
592
  8
回04-下接
  6
CONTINUOUS
 62
     7
  0
BLOCK
  8
回04-下接
  2
*D5757
 70
     1
 10
0.0
 20
0.0
 30
0.0
  3
*D5757
  1

  0
LINE
  5
594
  8
回07-寸法
  6
CONTINUOUS
 62
     5
 10
666.0047814721165
 20
561.8765953890873
 30
0.0
 11
752.5047814721228
 21
561.8765953890873
 31
0.0
  0
LINE
  5
595
  8
回07-寸法
  6
CONTINUOUS
 62
     5
 10
675.3947814721167
 20
571.4985953890828
 30
0.0
 11
752.5047814721228
 21
571.4985953890828
 31
0.0
  0
LINE
  5
596
  8
回07-寸法
  6
CONTINUOUS
 62
     5
 10
751.5047814721228
 20
576.4985953890827
 30
0.0
 11
751.5047814721228
 21
650.0848602270622
 31
0.0
  0
LINE
  5
597
  8
回07-寸法
  6
CONTINUOUS
 62
     5
 10
751.5047814721228
 20
561.8765953890873
 30
0.0
 11
751.5047814721228
 21
571.4985953890828
 31
0.0
  0
LINE
  5
598
  8
回07-寸法
  6
CONTINUOUS
 62
     5
 10
751.5047814721228
 20
556.8765953890873
 30
0.0
 11
751.5047814721228
 21
551.8765953890873
 31
0.0
  0
INSERT
  5
599
  8
回07-寸法
  6
CONTINUOUS
 62
     5
  2
_OPEN
 10
751.5047814721228
 20
561.8765953890873
 30
0.0
 41
5.0
 42
5.0
 43
5.0
 50
90.0
  0
INSERT
  5
59A
  8
回07-寸法
  6
CONTINUOUS
 62
     5
  2
_OPEN
 10
751.5047814721228
 20
571.4985953890828
 30
0.0
 41
5.0
 42
5.0
 43
5.0
 50
270.0
  0
INSERT
  5
59B
  8
回07-寸法
  6
CONTINUOUS
 62
     5
 66
     1
  2
*X100100
 10
0.0
 20
0.0
 30
0.0
  0
SEQEND
  5
78B
  8
回04-下接
  6
CONTINUOUS
 62
     7
  0
POINT
  5
59C
  8
DEFPOINTS
  6
CONTINUOUS
 62
     0
 10
666.0047814721165
 20
561.8765953890873
 30
0.0
  0
POINT
  5
59D
  8
DEFPOINTS
  6
CONTINUOUS
 62
     0
 10
675.3947814721167
 20
571.4985953890828
 30
0.0
  0
POINT
  5
59E
  8
DEFPOINTS
  6
CONTINUOUS
 62
     0
 10
751.5047814721228
 20
571.4985953890828
 30
0.0
  0
ENDBLK
  5
5A0
  8
回04-下接
  6
CONTINUOUS
 62
     7
  0
BLOCK
  8
回04-下接
  2
*D5858
 70
     1
 10
0.0
 20
0.0
 30
0.0
  3
*D5858
  1

  0
LINE
  5
5A2
  8
回07-寸法
  6
CONTINUOUS
 62
     5
 10
666.0047814721165
 20
561.8765953890865
 30
0.0
 11
752.5047814721173
 21
561.8765953890865
 31
0.0
  0
LINE
  5
5A3
  8
回07-寸法
  6
CONTINUOUS
 62
     5
 10
666.0047814721165
 20
254.7205953890862
 30
0.0
 11
752.5047814721173
 21
254.7205953890862
 31
0.0
  0
LINE
  5
5A4
  8
回07-寸法
  6
CONTINUOUS
 62
     5
 10
751.5047814721173
 20
556.8765953890865
 30
0.0
 11
751.5047814721173
 21
259.7205953890862
 31
0.0
  0
INSERT
  5
5A5
  8
回07-寸法
  6
CONTINUOUS
 62
     5
  2
_OPEN
 10
751.5047814721173
 20
561.8765953890865
 30
0.0
 41
5.0
 42
5.0
 43
5.0
 50
90.0
  0
INSERT
  5
5A6
  8
回07-寸法
  6
CONTINUOUS
 62
     5
  2
_OPEN
 10
751.5047814721173
 20
254.7205953890862
 30
0.0
 41
5.0
 42
5.0
 43
5.0
 50
270.0
  0
TEXT
  5
5A7
  8
回07-寸法
  6
CONTINUOUS
 62
     5
 10
751.0047814721173
 20
395.8977108948449
 30
0.0
 40
8.0
  1
307.2
 50
90.0
  0
POINT
  5
5A8
  8
DEFPOINTS
  6
CONTINUOUS
 62
     0
 10
666.0047814721165
 20
561.8765953890865
 30
0.0
  0
POINT
  5
5A9
  8
DEFPOINTS
  6
CONTINUOUS
 62
     0
 10
666.0047814721165
 20
254.7205953890862
 30
0.0
  0
POINT
  5
5AA
  8
DEFPOINTS
  6
CONTINUOUS
 62
     0
 10
751.5047814721173
 20
254.7205953890862
 30
0.0
  0
ENDBLK
  5
5AC
  8
回04-下接
  6
CONTINUOUS
 62
     7
  0
BLOCK
  8
回04-下接
  2
*D5959
 70
     1
 10
0.0
 20
0.0
 30
0.0
  3
*D5959
  1

  0
LINE
  5
5AE
  8
回07-寸法
  6
CONTINUOUS
 62
     5
 10
666.0047814721165
 20
561.8765953890873
 30
0.0
 11
666.0047814721165
 21
619.6265953890856
 31
0.0
  0
LINE
  5
5AF
  8
回07-寸法
  6
CONTINUOUS
 62
     5
 10
284.1847814721168
 20
561.8765953890873
 30
0.0
 11
284.1847814721168
 21
619.6265953890856
 31
0.0
  0
LINE
  5
5B0
  8
回07-寸法
  6
CONTINUOUS
 62
     5
 10
661.0047814721164
 20
618.6265953890856
 30
0.0
 11
289.1847814721168
 21
618.6265953890856
 31
0.0
  0
INSERT
  5
5B1
  8
回07-寸法
  6
CONTINUOUS
 62
     5
  2
_OPEN
 10
666.0047814721165
 20
618.6265953890856
 30
0.0
 41
5.0
 42
5.0
 43
5.0
  0
INSERT
  5
5B2
  8
回07-寸法
  6
CONTINUOUS
 62
     5
  2
_OPEN
 10
284.1847814721168
 20
618.6265953890856
 30
0.0
 41
5.0
 42
5.0
 43
5.0
 50
180.0
  0
TEXT
  5
5B3
  8
回07-寸法
  6
CONTINUOUS
 62
     5
 10
463.4947814721167
 20
619.1265953890856
 30
0.0
 40
8.0
  1
381.8
  0
POINT
  5
5B4
  8
DEFPOINTS
  6
CONTINUOUS
 62
     0
 10
666.0047814721165
 20
561.8765953890873
 30
0.0
  0
POINT
  5
5B5
  8
DEFPOINTS
  6
CONTINUOUS
 62
     0
 10
284.1847814721168
 20
561.8765953890873
 30
0.0
  0
POINT
  5
5B6
  8
DEFPOINTS
  6
CONTINUOUS
 62
     0
 10
284.1847814721168
 20
618.6265953890856
 30
0.0
  0
ENDBLK
  5
5B8
  8
回04-下接
  6
CONTINUOUS
 62
     7
  0
BLOCK
  8
回04-下接
  2
*D6060
 70
     1
 10
0.0
 20
0.0
 30
0.0
  3
*D6060
  1

  0
LINE
  5
5BA
  8
回07-寸法
  6
CONTINUOUS
 62
     5
 10
665.5047814721164
 20
561.0765953890858
 30
0.0
 11
665.5047814721164
 21
604.6265953890856
 31
0.0
  0
LINE
  5
5BB
  8
回07-寸法
  6
CONTINUOUS
 62
     5
 10
675.3947814721167
 20
571.4985953890844
 30
0.0
 11
675.3947814721167
 21
604.6265953890856
 31
0.0
  0
LINE
  5
5BC
  8
回07-寸法
  6
CONTINUOUS
 62
     5
 10
680.3947814721167
 20
603.6265953890856
 30
0.0
 11
704.0462481559501
 21
603.6265953890856
 31
0.0
  0
LINE
  5
5BD
  8
回07-寸法
  6
CONTINUOUS
 62
     5
 10
665.5047814721164
 20
603.6265953890856
 30
0.0
 11
675.3947814721167
 21
603.6265953890856
 31
0.0
  0
LINE
  5
5BE
  8
回07-寸法
  6
CONTINUOUS
 62
     5
 10
660.5047814721165
 20
603.6265953890856
 30
0.0
 11
655.5047814721165
 21
603.6265953890856
 31
0.0
  0
INSERT
  5
5BF
  8
回07-寸法
  6
CONTINUOUS
 62
     5
  2
_OPEN
 10
665.5047814721164
 20
603.6265953890856
 30
0.0
 41
5.0
 42
5.0
 43
5.0
  0
INSERT
  5
5C0
  8
回07-寸法
  6
CONTINUOUS
 62
     5
  2
_OPEN
 10
675.3947814721167
 20
603.6265953890856
 30
0.0
 41
5.0
 42
5.0
 43
5.0
 50
180.0
  0
TEXT
  5
5C1
  8
回07-寸法
  6
CONTINUOUS
 62
     5
 10
684.6916318658177
 20
604.5265953890857
 30
0.0
 40
8.0
  1
(9.9)
  0
POINT
  5
5C2
  8
DEFPOINTS
  6
CONTINUOUS
 62
     0
 10
665.5047814721164
 20
561.0765953890858
 30
0.0
  0
POINT
  5
5C3
  8
DEFPOINTS
  6
CONTINUOUS
 62
     0
 10
675.3947814721167
 20
571.4985953890844
 30
0.0
  0
POINT
  5
5C4
  8
DEFPOINTS
  6
CONTINUOUS
 62
     0
 10
675.3947814721167
 20
603.6265953890856
 30
0.0
  0
ENDBLK
  5
5C6
  8
回04-下接
  6
CONTINUOUS
 62
     7
  0
BLOCK
  8
回04-下接
  2
*D6161
 70
     1
 10
0.0
 20
0.0
 30
0.0
  3
*D6161
  1

  0
LINE
  5
5C8
  8
回07-寸法
  6
CONTINUOUS
 62
     5
 10
663.5047814721165
 20
559.0765953890858
 30
0.0
 11
663.5047814721165
 21
589.6265953890856
 31
0.0
  0
LINE
  5
5C9
  8
回07-寸法
  6
CONTINUOUS
 62
     5
 10
675.3947814721167
 20
571.4985953890844
 30
0.0
 11
675.3947814721167
 21
589.6265953890856
 31
0.0
  0
LINE
  5
5CA
  8
回07-寸法
  6
CONTINUOUS
 62
     5
 10
680.3947814721167
 20
588.6265953890856
 30
0.0
 11
706.4173652077341
 21
588.6265953890856
 31
0.0
  0
LINE
  5
5CB
  8
回07-寸法
  6
CONTINUOUS
 62
     5
 10
663.5047814721165
 20
588.6265953890856
 30
0.0
 11
675.3947814721167
 21
588.6265953890856
 31
0.0
  0
LINE
  5
5CC
  8
回07-寸法
  6
CONTINUOUS
 62
     5
 10
658.5047814721165
 20
588.6265953890856
 30
0.0
 11
653.5047814721165
 21
588.6265953890856
 31
0.0
  0
INSERT
  5
5CD
  8
回07-寸法
  6
CONTINUOUS
 62
     5
  2
_OPEN
 10
663.5047814721165
 20
588.6265953890856
 30
0.0
 41
5.0
 42
5.0
 43
5.0
  0
INSERT
  5
5CE
  8
回07-寸法
  6
CONTINUOUS
 62
     5
  2
_OPEN
 10
675.3947814721167
 20
588.6265953890856
 30
0.0
 41
5.0
 42
5.0
 43
5.0
 50
180.0
  0
TEXT
  5
5CF
  8
回07-寸法
  6
CONTINUOUS
 62
     5
 10
684.6916318658176
 20
589.5265953890857
 30
0.0
 40
8.0
  1
(11.9)
  0
POINT
  5
5D0
  8
DEFPOINTS
  6
CONTINUOUS
 62
     0
 10
663.5047814721165
 20
559.0765953890858
 30
0.0
  0
POINT
  5
5D1
  8
DEFPOINTS
  6
CONTINUOUS
 62
     0
 10
675.3947814721167
 20
571.4985953890844
 30
0.0
  0
POINT
  5
5D2
  8
DEFPOINTS
  6
CONTINUOUS
 62
     0
 10
675.3947814721167
 20
588.6265953890856
 30
0.0
  0
ENDBLK
  5
5D4
  8
回04-下接
  6
CONTINUOUS
 62
     7
  0
BLOCK
  8
回04-下接
  2
*D6262
 70
     1
 10
0.0
 20
0.0
 30
0.0
  3
*D6262
  1

  0
LINE
  5
5D6
  8
回07-寸法
  6
CONTINUOUS
 62
     5
 10
663.5047814721165
 20
559.0765953890858
 30
0.0
 11
722.5047814721165
 21
559.0765953890858
 31
0.0
  0
LINE
  5
5D7
  8
回07-寸法
  6
CONTINUOUS
 62
     5
 10
675.3947814721167
 20
571.4985953890808
 30
0.0
 11
722.5047814721165
 21
571.4985953890808
 31
0.0
  0
LINE
  5
5D8
  8
回07-寸法
  6
CONTINUOUS
 62
     5
 10
721.5047814721165
 20
576.4985953890808
 30
0.0
 11
721.5047814721165
 21
604.8922961764863
 31
0.0
  0
LINE
  5
5D9
  8
回07-寸法
  6
CONTINUOUS
 62
     5
 10
721.5047814721165
 20
559.0765953890858
 30
0.0
 11
721.5047814721165
 21
571.4985953890808
 31
0.0
  0
LINE
  5
5DA
  8
回07-寸法
  6
CONTINUOUS
 62
     5
 10
721.5047814721165
 20
554.0765953890858
 30
0.0
 11
721.5047814721165
 21
549.0765953890858
 31
0.0
  0
INSERT
  5
5DB
  8
回07-寸法
  6
CONTINUOUS
 62
     5
  2
_OPEN
 10
721.5047814721165
 20
559.0765953890858
 30
0.0
 41
5.0
 42
5.0
 43
5.0
 50
90.0
  0
INSERT
  5
5DC
  8
回07-寸法
  6
CONTINUOUS
 62
     5
  2
_OPEN
 10
721.5047814721165
 20
571.4985953890808
 30
0.0
 41
5.0
 42
5.0
 43
5.0
 50
270.0
  0
TEXT
  5
5DD
  8
回07-寸法
  6
CONTINUOUS
 62
     5
 10
720.6047814721164
 20
580.7954457827857
 30
0.0
 40
8.0
  1
(12.4)
 50
90.0
  0
POINT
  5
5DE
  8
DEFPOINTS
  6
CONTINUOUS
 62
     0
 10
663.5047814721165
 20
559.0765953890858
 30
0.0
  0
POINT
  5
5DF
  8
DEFPOINTS
  6
CONTINUOUS
 62
     0
 10
675.3947814721167
 20
571.4985953890808
 30
0.0
  0
POINT
  5
5E0
  8
DEFPOINTS
  6
CONTINUOUS
 62
     0
 10
721.5047814721165
 20
571.4985953890808
 30
0.0
  0
ENDBLK
  5
5E2
  8
回04-下接
  6
CONTINUOUS
 62
     7
  0
BLOCK
  8
回04-下接
  2
*D6363
 70
     1
 10
0.0
 20
0.0
 30
0.0
  3
*D6363
  1

  0
LINE
  5
5E4
  8
回07-寸法
  6
CONTINUOUS
 62
     5
 10
665.5047814721164
 20
561.0765953890858
 30
0.0
 11
737.5047814721227
 21
561.0765953890858
 31
0.0
  0
LINE
  5
5E5
  8
回07-寸法
  6
CONTINUOUS
 62
     5
 10
675.3947814721167
 20
571.4985953890808
 30
0.0
 11
737.5047814721227
 21
571.4985953890808
 31
0.0
  0
LINE
  5
5E6
  8
回07-寸法
  6
CONTINUOUS
 62
     5
 10
736.5047814721227
 20
576.4985953890808
 30
0.0
 11
736.5047814721227
 21
604.8922961764824
 31
0.0
  0
LINE
  5
5E7
  8
回07-寸法
  6
CONTINUOUS
 62
     5
 10
736.5047814721227
 20
561.0765953890858
 30
0.0
 11
736.5047814721227
 21
571.4985953890808
 31
0.0
  0
LINE
  5
5E8
  8
回07-寸法
  6
CONTINUOUS
 62
     5
 10
736.5047814721227
 20
556.0765953890857
 30
0.0
 11
736.5047814721227
 21
551.0765953890857
 31
0.0
  0
INSERT
  5
5E9
  8
回07-寸法
  6
CONTINUOUS
 62
     5
  2
_OPEN
 10
736.5047814721227
 20
561.0765953890858
 30
0.0
 41
5.0
 42
5.0
 43
5.0
 50
90.0
  0
INSERT
  5
5EA
  8
回07-寸法
  6
CONTINUOUS
 62
     5
  2
_OPEN
 10
736.5047814721227
 20
571.4985953890808
 30
0.0
 41
5.0
 42
5.0
 43
5.0
 50
270.0
  0
TEXT
  5
5EB
  8
回07-寸法
  6
CONTINUOUS
 62
     5
 10
735.6047814721229
 20
580.7954457827817
 30
0.0
 40
8.0
  1
(10.4)
 50
90.0
  0
POINT
  5
5EC
  8
DEFPOINTS
  6
CONTINUOUS
 62
     0
 10
665.5047814721164
 20
561.0765953890858
 30
0.0
  0
POINT
  5
5ED
  8
DEFPOINTS
  6
CONTINUOUS
 62
     0
 10
675.3947814721167
 20
571.4985953890808
 30
0.0
  0
POINT
  5
5EE
  8
DEFPOINTS
  6
CONTINUOUS
 62
     0
 10
736.5047814721227
 20
571.4985953890808
 30
0.0
  0
ENDBLK
  5
5F0
  8
回04-下接
  6
CONTINUOUS
 62
     7
  0
BLOCK
  8
回04-下接
  2
*D6464
 70
     1
 10
0.0
 20
0.0
 30
0.0
  3
*D6464
  1

  0
LINE
  5
5F2
  8
回07-寸法
  6
CONTINUOUS
 62
     5
 10
665.5047814721164
 20
561.076595389085
 30
0.0
 11
737.5047814721182
 21
561.076595389085
 31
0.0
  0
LINE
  5
5F3
  8
回07-寸法
  6
CONTINUOUS
 62
     5
 10
665.5047814721164
 20
255.5205953890859
 30
0.0
 11
737.5047814721182
 21
255.5205953890859
 31
0.0
  0
LINE
  5
5F4
  8
回07-寸法
  6
CONTINUOUS
 62
     5
 10
736.5047814721182
 20
556.0765953890848
 30
0.0
 11
736.5047814721182
 21
260.5205953890859
 31
0.0
  0
INSERT
  5
5F5
  8
回07-寸法
  6
CONTINUOUS
 62
     5
  2
_OPEN
 10
736.5047814721182
 20
561.076595389085
 30
0.0
 41
5.0
 42
5.0
 43
5.0
 50
90.0
  0
INSERT
  5
5F6
  8
回07-寸法
  6
CONTINUOUS
 62
     5
  2
_OPEN
 10
736.5047814721182
 20
255.5205953890859
 30
0.0
 41
5.0
 42
5.0
 43
5.0
 50
270.0
  0
INSERT
  5
5F7
  8
回07-寸法
  6
CONTINUOUS
 62
     5
 66
     1
  2
*X101101
 10
0.0
 20
0.0
 30
0.0
  0
SEQEND
  5
791
  8
回04-下接
  6
CONTINUOUS
 62
     7
  0
POINT
  5
5F8
  8
DEFPOINTS
  6
CONTINUOUS
 62
     0
 10
665.5047814721164
 20
561.076595389085
 30
0.0
  0
POINT
  5
5F9
  8
DEFPOINTS
  6
CONTINUOUS
 62
     0
 10
665.5047814721164
 20
255.5205953890859
 30
0.0
  0
POINT
  5
5FA
  8
DEFPOINTS
  6
CONTINUOUS
 62
     0
 10
736.5047814721182
 20
255.5205953890859
 30
0.0
  0
ENDBLK
  5
5FC
  8
回04-下接
  6
CONTINUOUS
 62
     7
  0
BLOCK
  8
回04-下接
  2
*D6565
 70
     1
 10
0.0
 20
0.0
 30
0.0
  3
*D6565
  1

  0
LINE
  5
5FE
  8
回07-寸法
  6
CONTINUOUS
 62
     5
 10
663.5047814721165
 20
257.520595389086
 30
0.0
 11
722.5047814721165
 21
257.520595389086
 31
0.0
  0
LINE
  5
5FF
  8
回07-寸法
  6
CONTINUOUS
 62
     5
 10
663.5047814721165
 20
559.0765953890858
 30
0.0
 11
722.5047814721165
 21
559.0765953890858
 31
0.0
  0
LINE
  5
600
  8
回07-寸法
  6
CONTINUOUS
 62
     5
 10
721.5047814721165
 20
262.5205953890859
 30
0.0
 11
721.5047814721165
 21
554.0765953890858
 31
0.0
  0
INSERT
  5
601
  8
回07-寸法
  6
CONTINUOUS
 62
     5
  2
_OPEN
 10
721.5047814721165
 20
257.520595389086
 30
0.0
 41
5.0
 42
5.0
 43
5.0
 50
270.0
  0
INSERT
  5
602
  8
回07-寸法
  6
CONTINUOUS
 62
     5
  2
_OPEN
 10
721.5047814721165
 20
559.0765953890858
 30
0.0
 41
5.0
 42
5.0
 43
5.0
 50
90.0
  0
INSERT
  5
603
  8
回07-寸法
  6
CONTINUOUS
 62
     5
 66
     1
  2
*X102102
 10
0.0
 20
0.0
 30
0.0
  0
SEQEND
  5
797
  8
回04-下接
  6
CONTINUOUS
 62
     7
  0
POINT
  5
604
  8
DEFPOINTS
  6
CONTINUOUS
 62
     0
 10
663.5047814721165
 20
257.520595389086
 30
0.0
  0
POINT
  5
605
  8
DEFPOINTS
  6
CONTINUOUS
 62
     0
 10
663.5047814721165
 20
559.0765953890858
 30
0.0
  0
POINT
  5
606
  8
DEFPOINTS
  6
CONTINUOUS
 62
     0
 10
721.5047814721165
 20
559.0765953890858
 30
0.0
  0
ENDBLK
  5
608
  8
回04-下接
  6
CONTINUOUS
 62
     7
  0
BLOCK
  8
回04-下接
  2
*D6666
 70
     1
 10
0.0
 20
0.0
 30
0.0
  3
*D6666
  1

  0
LINE
  5
60A
  8
回07-寸法
  6
CONTINUOUS
 62
     5
 10
284.6847814721168
 20
561.0765953890858
 30
0.0
 11
284.6847814721168
 21
604.6265953890856
 31
0.0
  0
LINE
  5
60B
  8
回07-寸法
  6
CONTINUOUS
 62
     5
 10
665.5047814721164
 20
561.0765953890858
 30
0.0
 11
665.5047814721164
 21
604.6265953890856
 31
0.0
  0
LINE
  5
60C
  8
回07-寸法
  6
CONTINUOUS
 62
     5
 10
289.6847814721168
 20
603.6265953890856
 30
0.0
 11
660.5047814721165
 21
603.6265953890856
 31
0.0
  0
INSERT
  5
60D
  8
回07-寸法
  6
CONTINUOUS
 62
     5
  2
_OPEN
 10
284.6847814721168
 20
603.6265953890856
 30
0.0
 41
5.0
 42
5.0
 43
5.0
 50
180.0
  0
INSERT
  5
60E
  8
回07-寸法
  6
CONTINUOUS
 62
     5
  2
_OPEN
 10
665.5047814721164
 20
603.6265953890856
 30
0.0
 41
5.0
 42
5.0
 43
5.0
  0
INSERT
  5
60F
  8
回07-寸法
  6
CONTINUOUS
 62
     5
 66
     1
  2
*X103103
 10
0.0
 20
0.0
 30
0.0
  0
SEQEND
  5
79D
  8
回04-下接
  6
CONTINUOUS
 62
     7
  0
POINT
  5
610
  8
DEFPOINTS
  6
CONTINUOUS
 62
     0
 10
284.6847814721168
 20
561.0765953890858
 30
0.0
  0
POINT
  5
611
  8
DEFPOINTS
  6
CONTINUOUS
 62
     0
 10
665.5047814721164
 20
561.0765953890858
 30
0.0
  0
POINT
  5
612
  8
DEFPOINTS
  6
CONTINUOUS
 62
     0
 10
665.5047814721164
 20
603.6265953890856
 30
0.0
  0
ENDBLK
  5
614
  8
回04-下接
  6
CONTINUOUS
 62
     7
  0
BLOCK
  8
回04-下接
  2
*D6767
 70
     1
 10
0.0
 20
0.0
 30
0.0
  3
*D6767
  1

  0
LINE
  5
616
  8
回07-寸法
  6
CONTINUOUS
 62
     5
 10
286.6847814721168
 20
559.0765953890858
 30
0.0
 11
286.6847814721168
 21
589.6265953890856
 31
0.0
  0
LINE
  5
617
  8
回07-寸法
  6
CONTINUOUS
 62
     5
 10
663.5047814721165
 20
559.0765953890858
 30
0.0
 11
663.5047814721165
 21
589.6265953890856
 31
0.0
  0
LINE
  5
618
  8
回07-寸法
  6
CONTINUOUS
 62
     5
 10
291.6847814721168
 20
588.6265953890856
 30
0.0
 11
658.5047814721165
 21
588.6265953890856
 31
0.0
  0
INSERT
  5
619
  8
回07-寸法
  6
CONTINUOUS
 62
     5
  2
_OPEN
 10
286.6847814721168
 20
588.6265953890856
 30
0.0
 41
5.0
 42
5.0
 43
5.0
 50
180.0
  0
INSERT
  5
61A
  8
回07-寸法
  6
CONTINUOUS
 62
     5
  2
_OPEN
 10
663.5047814721165
 20
588.6265953890856
 30
0.0
 41
5.0
 42
5.0
 43
5.0
  0
INSERT
  5
61B
  8
回07-寸法
  6
CONTINUOUS
 62
     5
 66
     1
  2
*X104104
 10
0.0
 20
0.0
 30
0.0
  0
SEQEND
  5
7A3
  8
回04-下接
  6
CONTINUOUS
 62
     7
  0
POINT
  5
61C
  8
DEFPOINTS
  6
CONTINUOUS
 62
     0
 10
286.6847814721168
 20
559.0765953890858
 30
0.0
  0
POINT
  5
61D
  8
DEFPOINTS
  6
CONTINUOUS
 62
     0
 10
663.5047814721165
 20
559.0765953890858
 30
0.0
  0
POINT
  5
61E
  8
DEFPOINTS
  6
CONTINUOUS
 62
     0
 10
663.5047814721165
 20
588.6265953890856
 30
0.0
  0
ENDBLK
  5
620
  8
回04-下接
  6
CONTINUOUS
 62
     7
  0
BLOCK
  8
回04-下接
  2
*D6868
 70
     1
 10
0.0
 20
0.0
 30
0.0
  3
*D6868
  1

  0
LINE
  5
622
  8
回07-寸法
  6
CONTINUOUS
 62
     5
 10
503.0947814721166
 20
372.2985953890852
 30
0.0
 11
503.0947814721166
 21
355.9737487649295
 31
0.0
  0
LINE
  5
623
  8
回07-寸法
  6
CONTINUOUS
 62
     5
 10
507.0947814721166
 20
372.2985953890852
 30
0.0
 11
507.0947814721166
 21
355.9737487649295
 31
0.0
  0
LINE
  5
624
  8
回07-寸法
  6
CONTINUOUS
 62
     5
 10
510.0947814721165
 20
356.9737487649295
 30
0.0
 11
518.0947814721166
 21
356.9737487649295
 31
0.0
  0
LINE
  5
625
  8
回07-寸法
  6
CONTINUOUS
 62
     5
 10
503.0947814721166
 20
356.9737487649295
 30
0.0
 11
507.0947814721166
 21
356.9737487649295
 31
0.0
  0
LINE
  5
626
  8
回07-寸法
  6
CONTINUOUS
 62
     5
 10
500.0947814721167
 20
356.9737487649295
 30
0.0
 11
497.0947814721165
 21
356.9737487649295
 31
0.0
  0
INSERT
  5
627
  8
回07-寸法
  6
CONTINUOUS
 62
     5
  2
_OPEN
 10
503.0947814721166
 20
356.9737487649295
 30
0.0
 41
3.0
 42
3.0
 43
3.0
  0
INSERT
  5
628
  8
回07-寸法
  6
CONTINUOUS
 62
     5
  2
_OPEN
 10
507.0947814721166
 20
356.9737487649295
 30
0.0
 41
3.0
 42
3.0
 43
3.0
 50
180.0
  0
TEXT
  5
629
  8
回07-寸法
  6
CONTINUOUS
 62
     5
 10
512.3947814721166
 20
357.4737487649295
 30
0.0
 40
8.0
  1
4
  0
POINT
  5
62A
  8
DEFPOINTS
  6
CONTINUOUS
 62
     0
 10
503.0947814721166
 20
372.2985953890852
 30
0.0
  0
POINT
  5
62B
  8
DEFPOINTS
  6
CONTINUOUS
 62
     0
 10
507.0947814721166
 20
372.2985953890852
 30
0.0
  0
POINT
  5
62C
  8
DEFPOINTS
  6
CONTINUOUS
 62
     0
 10
507.0947814721166
 20
356.9737487649295
 30
0.0
  0
ENDBLK
  5
62E
  8
回04-下接
  6
CONTINUOUS
 62
     7
  0
BLOCK
  8
回04-下接
  2
*D6969
 70
     1
 10
0.0
 20
0.0
 30
0.0
  3
*D6969
  1

  0
LINE
  5
630
  8
回07-寸法
  6
CONTINUOUS
 62
     5
 10
511.0947814721166
 20
384.2985953890852
 30
0.0
 11
526.1286397649183
 21
384.2985953890852
 31
0.0
  0
LINE
  5
631
  8
回07-寸法
  6
CONTINUOUS
 62
     5
 10
511.0947814721166
 20
380.2985953890852
 30
0.0
 11
526.1286397649183
 21
380.2985953890852
 31
0.0
  0
LINE
  5
632
  8
回07-寸法
  6
CONTINUOUS
 62
     5
 10
525.1286397649185
 20
377.2985953890852
 30
0.0
 11
525.1286397649185
 21
369.2985953890852
 31
0.0
  0
LINE
  5
633
  8
回07-寸法
  6
CONTINUOUS
 62
     5
 10
525.1286397649185
 20
384.2985953890852
 30
0.0
 11
525.1286397649185
 21
380.2985953890852
 31
0.0
  0
LINE
  5
634
  8
回07-寸法
  6
CONTINUOUS
 62
     5
 10
525.1286397649185
 20
387.2985953890852
 30
0.0
 11
525.1286397649185
 21
390.2985953890852
 31
0.0
  0
INSERT
  5
635
  8
回07-寸法
  6
CONTINUOUS
 62
     5
  2
_OPEN
 10
525.1286397649185
 20
384.2985953890852
 30
0.0
 41
3.0
 42
3.0
 43
3.0
 50
270.0
  0
INSERT
  5
636
  8
回07-寸法
  6
CONTINUOUS
 62
     5
  2
_OPEN
 10
525.1286397649185
 20
380.2985953890852
 30
0.0
 41
3.0
 42
3.0
 43
3.0
 50
90.0
  0
TEXT
  5
637
  8
回07-寸法
  6
CONTINUOUS
 62
     5
 10
524.6286397649185
 20
368.5985953890852
 30
0.0
 40
8.0
  1
4
 50
90.0
  0
POINT
  5
638
  8
DEFPOINTS
  6
CONTINUOUS
 62
     0
 10
511.0947814721166
 20
384.2985953890852
 30
0.0
  0
POINT
  5
639
  8
DEFPOINTS
  6
CONTINUOUS
 62
     0
 10
511.0947814721166
 20
380.2985953890852
 30
0.0
  0
POINT
  5
63A
  8
DEFPOINTS
  6
CONTINUOUS
 62
     0
 10
525.1286397649185
 20
380.2985953890852
 30
0.0
  0
ENDBLK
  5
63C
  8
回04-下接
  6
CONTINUOUS
 62
     7
  0
BLOCK
  8
回04-下接
  2
*D7070
 70
     1
 10
0.0
 20
0.0
 30
0.0
  3
*D7070
  1

  0
LINE
  5
63E
  8
回07-寸法
  6
CONTINUOUS
 62
     5
 10
274.7947814721165
 20
400.2350982961001
 30
0.0
 11
274.7947814721165
 21
385.9191512739817
 31
0.0
  0
LINE
  5
63F
  8
回07-寸法
  6
CONTINUOUS
 62
     5
 10
271.2255432693774
 20
400.3742370299313
 30
0.0
 11
271.2255432693774
 21
385.9191512739817
 31
0.0
  0
LINE
  5
640
  8
回07-寸法
  6
CONTINUOUS
 62
     5
 10
266.2255432693773
 20
386.9191512739817
 30
0.0
 11
248.8237779587912
 21
386.9191512739817
 31
0.0
  0
LINE
  5
641
  8
回07-寸法
  6
CONTINUOUS
 62
     5
 10
274.7947814721165
 20
386.9191512739817
 30
0.0
 11
271.2255432693774
 21
386.9191512739817
 31
0.0
  0
LINE
  5
642
  8
回07-寸法
  6
CONTINUOUS
 62
     5
 10
279.7947814721165
 20
386.9191512739817
 30
0.0
 11
284.7947814721165
 21
386.9191512739817
 31
0.0
  0
INSERT
  5
643
  8
回07-寸法
  6
CONTINUOUS
 62
     5
  2
_OPEN
 10
274.7947814721165
 20
386.9191512739817
 30
0.0
 41
5.0
 42
5.0
 43
5.0
 50
180.0
  0
INSERT
  5
644
  8
回07-寸法
  6
CONTINUOUS
 62
     5
  2
_OPEN
 10
271.2255432693774
 20
386.9191512739817
 30
0.0
 41
5.0
 42
5.0
 43
5.0
  0
TEXT
  5
645
  8
回07-寸法
  6
CONTINUOUS
 62
     5
 10
248.1237779587913
 20
387.4191512739817
 30
0.0
 40
8.0
  1
3.6
  0
POINT
  5
646
  8
DEFPOINTS
  6
CONTINUOUS
 62
     0
 10
274.7947814721165
 20
400.2350982961001
 30
0.0
  0
POINT
  5
647
  8
DEFPOINTS
  6
CONTINUOUS
 62
     0
 10
271.2255432693774
 20
400.3742370299313
 30
0.0
  0
POINT
  5
648
  8
DEFPOINTS
  6
CONTINUOUS
 62
     0
 10
271.2255432693774
 20
386.9191512739817
 30
0.0
  0
ENDBLK
  5
64A
  8
回04-下接
  6
CONTINUOUS
 62
     7
  0
BLOCK
  8
回04-下接
  2
*D7171
 70
     1
 10
0.0
 20
0.0
 30
0.0
  3
*D7171
  1

  0
LINE
  5
64C
  8
回07-寸法
 62
     5
 10
195.2947814721167
 20
411.4235953890861
 30
0.0
 11
184.3587023929235
 21
411.4235953890861
 31
0.0
  0
LINE
  5
64D
  8
回07-寸法
 62
     5
 10
195.29478147302
 20
405.1735953890861
 30
0.0
 11
184.3587023929235
 21
405.1735953890861
 31
0.0
  0
LINE
  5
64E
  8
回07-寸法
 62
     5
 10
185.3587023929235
 20
416.4235953890861
 30
0.0
 11
185.3587023929235
 21
453.431799103347
 31
0.0
  0
LINE
  5
64F
  8
回07-寸法
 62
     5
 10
185.3587023929235
 20
411.4235953890861
 30
0.0
 11
185.3587023929235
 21
405.1735953890861
 31
0.0
  0
LINE
  5
650
  8
回07-寸法
 62
     5
 10
185.3587023929235
 20
400.1735953890861
 30
0.0
 11
185.3587023929235
 21
395.1735953890861
 31
0.0
  0
INSERT
  5
651
  8
回07-寸法
  6
CONTINUOUS
 62
     5
  2
_OPEN
 10
185.3587023929235
 20
411.4235953890861
 30
0.0
 41
5.0
 42
5.0
 43
5.0
 50
270.0
  0
INSERT
  5
652
  8
回07-寸法
  6
CONTINUOUS
 62
     5
  2
_OPEN
 10
185.3587023929235
 20
405.1735953890861
 30
0.0
 41
5.0
 42
5.0
 43
5.0
 50
90.0
  0
INSERT
  5
653
  8
回07-寸法
  6
CONTINUOUS
 62
     5
 66
     1
  2
*X105105
 10
0.0
 20
0.0
 30
0.0
  0
SEQEND
  5
7A9
  8
回04-下接
  6
CONTINUOUS
 62
     7
  0
POINT
  5
654
  8
DEFPOINTS
  6
CONTINUOUS
 62
     0
 10
195.2947814721167
 20
411.4235953890861
 30
0.0
  0
POINT
  5
655
  8
DEFPOINTS
  6
CONTINUOUS
 62
     0
 10
195.29478147302
 20
405.1735953890861
 30
0.0
  0
POINT
  5
656
  8
DEFPOINTS
  6
CONTINUOUS
 62
     0
 10
185.3587023929235
 20
405.1735953890861
 30
0.0
  0
ENDBLK
  5
658
  8
回04-下接
  6
CONTINUOUS
 62
     7
  0
BLOCK
  8
回04-下接
  2
*D7272
 70
     1
 10
0.0
 20
0.0
 30
0.0
  3
*D7272
  1

  0
LINE
  5
65A
  8
回07-寸法
  6
CONTINUOUS
 62
     5
 10
274.794781472116
 20
400.2350984958161
 30
0.0
 11
274.794781472116
 21
375.0473294057947
 31
0.0
  0
LINE
  5
65B
  8
回07-寸法
  6
CONTINUOUS
 62
     5
 10
266.2676758028419
 20
405.0939180499217
 30
0.0
 11
266.2676758028419
 21
375.0473294057947
 31
0.0
  0
LINE
  5
65C
  8
回07-寸法
  6
CONTINUOUS
 62
     5
 10
261.267675802842
 20
376.0473294057947
 30
0.0
 11
243.9019903778927
 21
376.0473294057947
 31
0.0
  0
LINE
  5
65D
  8
回07-寸法
  6
CONTINUOUS
 62
     5
 10
274.794781472116
 20
376.0473294057947
 30
0.0
 11
266.2676758028419
 21
376.0473294057947
 31
0.0
  0
LINE
  5
65E
  8
回07-寸法
  6
CONTINUOUS
 62
     5
 10
279.794781472116
 20
376.0473294057947
 30
0.0
 11
284.794781472116
 21
376.0473294057947
 31
0.0
  0
INSERT
  5
65F
  8
回07-寸法
  6
CONTINUOUS
 62
     5
  2
_OPEN
 10
274.794781472116
 20
376.0473294057947
 30
0.0
 41
5.0
 42
5.0
 43
5.0
 50
180.0
  0
INSERT
  5
660
  8
回07-寸法
  6
CONTINUOUS
 62
     5
  2
_OPEN
 10
266.2676758028419
 20
376.0473294057947
 30
0.0
 41
5.0
 42
5.0
 43
5.0
  0
TEXT
  5
661
  8
回07-寸法
  6
CONTINUOUS
 62
     5
 10
243.2019903778928
 20
376.5473294057947
 30
0.0
 40
8.0
  1
8.5
  0
POINT
  5
662
  8
DEFPOINTS
  6
CONTINUOUS
 62
     0
 10
274.794781472116
 20
400.2350984958161
 30
0.0
  0
POINT
  5
663
  8
DEFPOINTS
  6
CONTINUOUS
 62
     0
 10
266.2676758028419
 20
405.0939180499217
 30
0.0
  0
POINT
  5
664
  8
DEFPOINTS
  6
CONTINUOUS
 62
     0
 10
266.2676758028419
 20
376.0473294057947
 30
0.0
  0
ENDBLK
  5
666
  8
回04-下接
  6
CONTINUOUS
 62
     7
  0
BLOCK
  8
回04-下接
  2
*D7373
 70
     1
 10
0.0
 20
0.0
 30
0.0
  3
*D7373
  1

  0
LINE
  5
668
  8
回07-寸法
  6
CONTINUOUS
 62
     5
 10
274.7947814721165
 20
416.3620926817948
 30
0.0
 11
274.7947814721165
 21
439.2040253792875
 31
0.0
  0
LINE
  5
669
  8
回07-寸法
  6
CONTINUOUS
 62
     5
 10
194.794781474531
 20
410.9236445243077
 30
0.0
 11
194.794781474531
 21
439.2040253792875
 31
0.0
  0
LINE
  5
66A
  8
回07-寸法
  6
CONTINUOUS
 62
     5
 10
269.7947814721165
 20
438.2040253792872
 30
0.0
 11
199.7947814745309
 21
438.2040253792872
 31
0.0
  0
INSERT
  5
66B
  8
回07-寸法
  6
CONTINUOUS
 62
     5
  2
_OPEN
 10
274.7947814721165
 20
438.2040253792872
 30
0.0
 41
5.0
 42
5.0
 43
5.0
  0
INSERT
  5
66C
  8
回07-寸法
  6
CONTINUOUS
 62
     5
  2
_OPEN
 10
194.794781474531
 20
438.2040253792872
 30
0.0
 41
5.0
 42
5.0
 43
5.0
 50
180.0
  0
INSERT
  5
66D
  8
回07-寸法
  6
CONTINUOUS
 62
     5
 66
     1
  2
*X106106
 10
0.0
 20
0.0
 30
0.0
  0
SEQEND
  5
7AF
  8
回04-下接
  6
CONTINUOUS
 62
     7
  0
POINT
  5
66E
  8
DEFPOINTS
  6
CONTINUOUS
 62
     0
 10
274.7947814721165
 20
416.3620926817948
 30
0.0
  0
POINT
  5
66F
  8
DEFPOINTS
  6
CONTINUOUS
 62
     0
 10
194.794781474531
 20
410.9236445243077
 30
0.0
  0
POINT
  5
670
  8
DEFPOINTS
  6
CONTINUOUS
 62
     0
 10
194.794781474531
 20
438.2040253792872
 30
0.0
  0
ENDBLK
  5
672
  8
回04-下接
  6
CONTINUOUS
 62
     7
  0
BLOCK
  8
回04-下接
  2
*D7474
 70
     1
 10
0.0
 20
0.0
 30
0.0
  3
*D7474
  1

  0
LINE
  5
674
  8
回07-寸法
  6
CONTINUOUS
 62
     5
 10
271.6028515637522
 20
416.2974414900364
 30
0.0
 11
232.1650271244553
 21
416.2974414900364
 31
0.0
  0
LINE
  5
675
  8
回07-寸法
  6
CONTINUOUS
 62
     5
 10
271.607025149458
 20
400.2986445243077
 30
0.0
 11
232.1650271244553
 21
400.2986445243077
 31
0.0
  0
LINE
  5
676
  8
回07-寸法
  6
CONTINUOUS
 62
     5
 10
233.1650271244553
 20
395.2986445243078
 30
0.0
 11
233.1650271244553
 21
381.8968792137207
 31
0.0
  0
LINE
  5
677
  8
回07-寸法
  6
CONTINUOUS
 62
     5
 10
233.1650271244553
 20
416.2974414900364
 30
0.0
 11
233.1650271244553
 21
400.2986445243077
 31
0.0
  0
LINE
  5
678
  8
回07-寸法
  6
CONTINUOUS
 62
     5
 10
233.1650271244553
 20
421.2974414900362
 30
0.0
 11
233.1650271244553
 21
426.2974414900362
 31
0.0
  0
INSERT
  5
679
  8
回07-寸法
  6
CONTINUOUS
 62
     5
  2
_OPEN
 10
233.1650271244553
 20
416.2974414900364
 30
0.0
 41
5.0
 42
5.0
 43
5.0
 50
270.0
  0
INSERT
  5
67A
  8
回07-寸法
  6
CONTINUOUS
 62
     5
  2
_OPEN
 10
233.1650271244553
 20
400.2986445243077
 30
0.0
 41
5.0
 42
5.0
 43
5.0
 50
90.0
  0
TEXT
  5
67B
  8
回07-寸法
  6
CONTINUOUS
 62
     5
 10
232.6650271244552
 20
381.1968792137207
 30
0.0
 40
8.0
  1
16
 50
90.0
  0
POINT
  5
67C
  8
DEFPOINTS
  6
CONTINUOUS
 62
     0
 10
271.6028515637522
 20
416.2974414900364
 30
0.0
  0
POINT
  5
67D
  8
DEFPOINTS
  6
CONTINUOUS
 62
     0
 10
271.607025149458
 20
400.2986445243077
 30
0.0
  0
POINT
  5
67E
  8
DEFPOINTS
  6
CONTINUOUS
 62
     0
 10
233.1650271244553
 20
400.2986445243077
 30
0.0
  0
ENDBLK
  5
680
  8
回04-下接
  6
CONTINUOUS
 62
     7
  0
BLOCK
  8
回04-下接
  2
*D7575
 70
     1
 10
0.0
 20
0.0
 30
0.0
  3
*D7575
  1

  0
LINE
  5
682
  8
回07-寸法
  6
CONTINUOUS
 62
     5
 10
675.3947814721182
 20
571.4985953890808
 30
0.0
 11
776.0235069804847
 21
571.4985953890808
 31
0.0
  0
LINE
  5
683
  8
回07-寸法
  6
CONTINUOUS
 62
     5
 10
675.3947814721172
 20
245.0985953890872
 30
0.0
 11
776.0235069804847
 21
245.0985953890872
 31
0.0
  0
LINE
  5
684
  8
回07-寸法
  6
CONTINUOUS
 62
     5
 10
775.0235069804847
 20
566.4985953890808
 30
0.0
 11
775.0235069804847
 21
250.0985953890872
 31
0.0
  0
INSERT
  5
685
  8
回07-寸法
  6
CONTINUOUS
 62
     5
  2
_OPEN
 10
775.0235069804847
 20
571.4985953890808
 30
0.0
 41
5.0
 42
5.0
 43
5.0
 50
90.0
  0
INSERT
  5
686
  8
回07-寸法
  6
CONTINUOUS
 62
     5
  2
_OPEN
 10
775.0235069804847
 20
245.0985953890872
 30
0.0
 41
5.0
 42
5.0
 43
5.0
 50
270.0
  0
INSERT
  5
687
  8
回07-寸法
  6
CONTINUOUS
 62
     5
 66
     1
  2
*X107107
 10
0.0
 20
0.0
 30
0.0
  0
SEQEND
  5
7B5
  8
回04-下接
  6
CONTINUOUS
 62
     7
  0
POINT
  5
688
  8
DEFPOINTS
  6
CONTINUOUS
 62
     0
 10
675.3947814721182
 20
571.4985953890808
 30
0.0
  0
POINT
  5
689
  8
DEFPOINTS
  6
CONTINUOUS
 62
     0
 10
675.3947814721172
 20
245.0985953890872
 30
0.0
  0
POINT
  5
68A
  8
DEFPOINTS
  6
CONTINUOUS
 62
     0
 10
775.0235069804847
 20
245.0985953890872
 30
0.0
  0
ENDBLK
  5
68C
  8
回04-下接
  6
CONTINUOUS
 62
     7
  0
BLOCK
  8
回04-下接
  2
*D7676
 70
     1
 10
0.0
 20
0.0
 30
0.0
  3
*D7676
  1

  0
LINE
  5
68E
  8
回07-寸法
  6
CONTINUOUS
 62
     5
 10
274.7947814721165
 20
571.4985953890864
 30
0.0
 11
274.7947814721165
 21
633.7931314394953
 31
0.0
  0
LINE
  5
68F
  8
回07-寸法
  6
CONTINUOUS
 62
     5
 10
675.3947814721167
 20
571.4985953890864
 30
0.0
 11
675.3947814721167
 21
633.7931314394953
 31
0.0
  0
LINE
  5
690
  8
回07-寸法
  6
CONTINUOUS
 62
     5
 10
279.7947814721165
 20
632.7931314394954
 30
0.0
 11
670.3947814721167
 21
632.7931314394954
 31
0.0
  0
INSERT
  5
691
  8
回07-寸法
  6
CONTINUOUS
 62
     5
  2
_OPEN
 10
274.7947814721165
 20
632.7931314394954
 30
0.0
 41
5.0
 42
5.0
 43
5.0
 50
180.0
  0
INSERT
  5
692
  8
回07-寸法
  6
CONTINUOUS
 62
     5
  2
_OPEN
 10
675.3947814721167
 20
632.7931314394954
 30
0.0
 41
5.0
 42
5.0
 43
5.0
  0
INSERT
  5
693
  8
回07-寸法
  6
CONTINUOUS
 62
     5
 66
     1
  2
*X108108
 10
0.0
 20
0.0
 30
0.0
  0
SEQEND
  5
7BB
  8
回04-下接
  6
CONTINUOUS
 62
     7
  0
POINT
  5
694
  8
DEFPOINTS
  6
CONTINUOUS
 62
     0
 10
274.7947814721165
 20
571.4985953890864
 30
0.0
  0
POINT
  5
695
  8
DEFPOINTS
  6
CONTINUOUS
 62
     0
 10
675.3947814721167
 20
571.4985953890864
 30
0.0
  0
POINT
  5
696
  8
DEFPOINTS
  6
CONTINUOUS
 62
     0
 10
675.3947814721167
 20
632.7931314394954
 30
0.0
  0
ENDBLK
  5
698
  8
回04-下接
  6
CONTINUOUS
 62
     7
  0
BLOCK
  8
回04-下接
  2
*X7777
 70
     1
 10
0.0
 20
0.0
 30
0.0
  3
*X7777
  1

  0
INSERT
  5
6A3
  8
回03-記事
  6
CONTINUOUS
 62
     5
  2
_OPEN
 10
197.2149008128585
 20
205.4686814783309
 30
0.0
 41
2.0
 42
2.0
 43
2.0
 50
335.7278179402576
  0
LINE
  5
6A4
  8
回03-記事
  6
CONTINUOUS
 62
     5
 10
195.3916948819449
 20
206.2908250992886
 30
0.0
 11
177.804005836339
 21
214.221693527842
 31
0.0
  0
LINE
  5
6A5
  8
回03-記事
  6
CONTINUOUS
 62
     5
 10
177.804005836339
 20
214.221693527842
 30
0.0
 11
127.889005836339
 21
214.221693527842
 31
0.0
  0
ENDBLK
  5
6A7
  8
回04-下接
  6
CONTINUOUS
 62
     7
  0
BLOCK
  8
回04-下接
  2
*X7878
 70
     1
 10
0.0
 20
0.0
 30
0.0
  3
*X7878
  1

  0
TEXT
  5
6AA
  8
0
  6
CONTINUOUS
 62
     5
 10
152.6915760262533
 20
534.1402068427587
 30
0.0
 40
5.0
  1
2-R0.5
  0
LINE
  5
6AB
  8
0
  6
BYBLOCK
 62
     5
 10
173.8015760262533
 20
533.1402068427587
 30
0.0
 11
173.4415760262533
 21
533.1402068427587
 31
0.0
  0
POLYLINE
  5
6AC
  8
0
  6
BYBLOCK
 62
     5
 66
     1
 10
0.0
 20
0.0
 30
0.0
  0
VERTEX
  5
A43
  8
0
  6
BYBLOCK
 62
     5
 10
179.5417663918908
 20
527.400016477121
 30
0.0
  0
VERTEX
  5
A45
  8
0
  6
BYBLOCK
 62
     5
 10
173.8015760262533
 20
533.1402068427587
 30
0.0
  0
SEQEND
  5
A44
  8
回04-下接
  6
CONTINUOUS
 62
     7
  0
SOLID
  5
6B0
  8
0
  6
CONTINUOUS
 62
     5
 10
179.7774686522864
 20
527.6357187375167
 30
0.0
 11
180.955979954264
 21
525.9858029147482
 31
0.0
 12
179.3060641314953
 22
527.1643142167256
 32
0.0
 13
179.3060641314953
 23
527.1643142167256
 33
0.0
  0
POLYLINE
  5
6B1
  8
0
  6
BYBLOCK
 62
     5
 66
     1
 10
0.0
 20
0.0
 30
0.0
  0
VERTEX
  5
A46
  8
0
  6
BYBLOCK
 62
     5
 10
153.4415760262533
 20
533.1402068427587
 30
0.0
  0
VERTEX
  5
A48
  8
0
  6
BYBLOCK
 62
     5
 10
173.4415760262533
 20
533.1402068427587
 30
0.0
  0
SEQEND
  5
A47
  8
回04-下接
  6
CONTINUOUS
 62
     7
  0
ENDBLK
  5
6B6
  8
回04-下接
  6
CONTINUOUS
 62
     7
  0
BLOCK
  8
回04-下接
  2
*X7979
 70
     1
 10
0.0
 20
0.0
 30
0.0
  3
*X7979
  1

  0
TEXT
  5
6E7
  8
回07-寸法
  6
CONTINUOUS
 62
     5
 10
514.0691225701536
 20
394.0229364871222
 30
0.0
 40
8.0
  1
φ0.05
  0
POLYLINE
  5
6E8
  8
回07-寸法
  6
BYBLOCK
 62
     5
 66
     1
 10
0.0
 20
0.0
 30
0.0
  0
VERTEX
  5
A49
  8
回07-寸法
  6
BYBLOCK
 62
     5
 10
513.3028818323244
 20
390.3294308819921
 30
0.0
  0
VERTEX
  5
A4B
  8
回07-寸法
  6
BYBLOCK
 62
     5
 10
515.5791225701534
 20
392.4229364871221
 30
0.0
  0
SEQEND
  5
A4A
  8
回04-下接
  6
CONTINUOUS
 62
     7
  0
INSERT
  5
6EC
  8
回07-寸法
  6
CONTINUOUS
 62
     5
  2
_OPEN
 10
511.0947814721166
 20
388.2985953890852
 30
0.0
 41
3.0
 42
3.0
 43
3.0
 50
222.6053861523273
  0
POLYLINE
  5
6ED
  8
回07-寸法
  6
BYBLOCK
 62
     5
 66
     1
 10
0.0
 20
0.0
 30
0.0
  0
VERTEX
  5
A4C
  8
回07-寸法
  6
BYBLOCK
 62
     5
 10
515.5791225701534
 20
392.4229364871221
 30
0.0
  0
VERTEX
  5
A4E
  8
回07-寸法
  6
BYBLOCK
 62
     5
 10
541.6691225701534
 20
392.4229364871221
 30
0.0
  0
SEQEND
  5
A4D
  8
回04-下接
  6
CONTINUOUS
 62
     7
  0
ENDBLK
  5
6F2
  8
回04-下接
  6
CONTINUOUS
 62
     7
  0
BLOCK
  8
回04-下接
  2
*X8080
 70
     1
 10
0.0
 20
0.0
 30
0.0
  3
*X8080
  1

  0
INSERT
  5
704
  8
回07-寸法
  6
CONTINUOUS
 62
     5
  2
_OPEN
 10
275.7093110080168
 20
416.8847474055118
 30
0.0
 41
3.0
 42
3.0
 43
3.0
 50
305.5950974280356
  0
LINE
  5
705
  8
回07-寸法
  6
CONTINUOUS
 62
     5
 10
273.963150825332
 20
419.3241991095646
 30
0.0
 11
270.7424830331083
 21
423.8235936163436
 31
0.0
  0
LINE
  5
706
  8
回07-寸法
  6
CONTINUOUS
 62
     5
 10
270.7424830331083
 20
423.8235936163436
 30
0.0
 11
267.2424830331083
 21
423.8235936163436
 31
0.0
  0
ENDBLK
  5
708
  8
回04-下接
  6
CONTINUOUS
 62
     7
  0
BLOCK
  8
回04-下接
  2
*X8181
 70
     1
 10
0.0
 20
0.0
 30
0.0
  3
*X8181
  1

  0
INSERT
  5
70B
  8
回07-寸法
  6
CONTINUOUS
 62
     5
  2
_OPEN
 10
266.2652587818202
 20
411.4993747232338
 30
0.0
 41
3.0
 42
3.0
 43
3.0
 50
281.6302288675069
  0
LINE
  5
70C
  8
回07-寸法
  6
CONTINUOUS
 62
     5
 10
265.6604746504917
 20
414.4377818009705
 30
0.0
 11
264.8639555960995
 21
418.3077530944245
 31
0.0
  0
LINE
  5
70D
  8
回07-寸法
  6
CONTINUOUS
 62
     5
 10
264.8639555960995
 20
418.3077530944245
 30
0.0
 11
261.3639555960995
 21
418.3077530944245
 31
0.0
  0
ENDBLK
  5
70F
  8
回04-下接
  6
CONTINUOUS
 62
     7
  0
BLOCK
  8
回04-下接
  2
*X8282
 70
     1
 10
0.0
 20
0.0
 30
0.0
  3
*X8282
  1

  0
LINE
  5
712
  8
回08-記事
  6
CONTINUOUS
 62
     7
 10
271.6948249828842
 20
404.9674385616308
 30
0.0
 11
273.7759818103475
 21
407.0485953890941
 31
0.0
  0
LINE
  5
713
  8
回08-記事
  6
CONTINUOUS
 62
     7
 10
271.6948249828843
 20
402.7223745313638
 30
0.0
 11
276.0210458406147
 21
407.0485953890941
 31
0.0
  0
LINE
  5
714
  8
回08-記事
  6
CONTINUOUS
 62
     7
 10
272.2661098708822
 20
401.0485953890943
 30
0.0
 11
278.2661098708821
 21
407.0485953890941
 31
0.0
  0
LINE
  5
715
  8
回08-記事
  6
CONTINUOUS
 62
     7
 10
274.5111739011493
 20
401.0485953890941
 30
0.0
 11
279.8948249828841
 21
406.432246470829
 31
0.0
  0
LINE
  5
716
  8
回08-記事
  6
CONTINUOUS
 62
     7
 10
276.7562379314165
 20
401.0485953890941
 30
0.0
 11
279.894824982884
 21
404.1871824405617
 31
0.0
  0
LINE
  5
717
  8
回08-記事
  6
CONTINUOUS
 62
     7
 10
279.0013019616838
 20
401.0485953890941
 30
0.0
 11
279.8948249828841
 21
401.9421184102944
 31
0.0
  0
ENDBLK
  5
719
  8
回04-下接
  6
CONTINUOUS
 62
     7
  0
BLOCK
  8
回04-下接
  2
*X8383
 70
     1
 10
0.0
 20
0.0
 30
0.0
  3
*X8383
  1

  0
TEXT
  5
721
  8
回07-寸法
  6
CONTINUOUS
 62
     5
 10
-1120.177800931332
 20
-2823.046857528757
 30
0.0
 40
8.0
  1
2.1
 50
90.0
  0
TEXT
  5
722
  8
回07-寸法
  6
CONTINUOUS
 62
     5
 10
-1120.177800931332
 20
-2811.046857528757
 30
0.0
 40
5.0
  1
±0.2
 50
90.0
  0
ENDBLK
  5
724
  8
回04-下接
  6
CONTINUOUS
 62
     7
  0
BLOCK
  8
回04-下接
  2
*X8484
 70
     1
 10
0.0
 20
0.0
 30
0.0
  3
*X8484
  1

  0
TEXT
  5
727
  8
回07-寸法
  6
CONTINUOUS
 62
     5
 10
-1057.380160499672
 20
-2828.021874536596
 30
0.0
 40
8.0
  1
9.6 
 50
90.0
  0
TEXT
  5
728
  8
回07-寸法
  6
CONTINUOUS
 62
     5
 10
-1057.380160499672
 20
-2809.592991588381
 30
0.0
 40
6.0
  1
(Insulation area)
 50
90.0
  0
ENDBLK
  5
72A
  8
回04-下接
  6
CONTINUOUS
 62
     7
  0
BLOCK
  8
回04-下接
  2
*X8585
 70
     1
 10
0.0
 20
0.0
 30
0.0
  3
*X8585
  1

  0
TEXT
  5
72D
  8
回07-寸法
  6
CONTINUOUS
 62
     5
 10
-1621.296242766053
 20
-2827.780562076379
 30
0.0
 40
8.0
  1
0.3
 50
90.0
  0
TEXT
  5
72E
  8
回07-寸法
  6
CONTINUOUS
 62
     5
 10
-1621.296242766053
 20
-2814.180562076378
 30
0.0
 40
5.599999999999998
  1
±0.05
 50
90.0
  0
ENDBLK
  5
730
  8
回04-下接
  6
CONTINUOUS
 62
     7
  0
BLOCK
  8
回04-下接
  2
*X8686
 70
     1
 10
0.0
 20
0.0
 30
0.0
  3
*X8686
  1

  0
TEXT
  5
733
  8
回07-寸法
  6
CONTINUOUS
 62
     5
 10
-1352.690160499672
 20
-2352.220132317744
 30
0.0
 40
8.0
  1
400.6
  0
TEXT
  5
734
  8
回07-寸法
  6
CONTINUOUS
 62
     5
 10
-1327.090160499672
 20
-2352.220132317744
 30
0.0
 40
5.599999999999998
  1
±0.3
  0
ENDBLK
  5
736
  8
回04-下接
  6
CONTINUOUS
 62
     7
  0
BLOCK
  8
回04-下接
  2
*X8787
 70
     1
 10
0.0
 20
0.0
 30
0.0
  3
*X8787
  1

  0
TEXT
  5
739
  8
回07-寸法
  6
CONTINUOUS
 62
     5
 10
-1033.561434991304
 20
-2596.914668368156
 30
0.0
 40
8.0
  1
326.4
 50
90.0
  0
TEXT
  5
73A
  8
回07-寸法
  6
CONTINUOUS
 62
     5
 10
-1033.561434991304
 20
-2571.314668368156
 30
0.0
 40
5.599999999999998
  1
±0.3
 50
90.0
  0
ENDBLK
  5
73C
  8
回04-下接
  6
CONTINUOUS
 62
     7
  0
BLOCK
  8
回04-下接
  2
*X8888
 70
     1
 10
0.0
 20
0.0
 30
0.0
  3
*X8888
  1

  0
TEXT
  5
73F
  8
回07-寸法
  6
CONTINUOUS
 62
     5
 10
-1582.430160498465
 20
-2546.809238377952
 30
0.0
 40
8.0
  1
80
  0
TEXT
  5
740
  8
回07-寸法
  6
CONTINUOUS
 62
     5
 10
-1571.230160498465
 20
-2546.809238377952
 30
0.0
 40
5.599999999999998
  1
±1
  0
ENDBLK
  5
742
  8
回04-下接
  6
CONTINUOUS
 62
     7
  0
BLOCK
  8
回04-下接
  2
*X8989
 70
     1
 10
0.0
 20
0.0
 30
0.0
  3
*X8989
  1

  0
TEXT
  5
745
  8
回07-寸法
  6
CONTINUOUS
 62
     5
 10
-1623.226239578866
 20
-2564.382702945831
 30
0.0
 40
8.0
  1
6.25
 50
90.0
  0
TEXT
  5
746
  8
回07-寸法
  6
CONTINUOUS
 62
     5
 10
-1623.226239578866
 20
-2545.18270294583
 30
0.0
 40
5.599999999999998
  1
±0.2
 50
90.0
  0
ENDBLK
  5
748
  8
回04-下接
  6
CONTINUOUS
 62
     7
  0
BLOCK
  8
回04-下接
  2
*X9090
 70
     1
 10
0.0
 20
0.0
 30
0.0
  3
*X9090
  1

  0
TEXT
  5
74B
  8
回07-寸法
  6
CONTINUOUS
 62
     5
 10
-1374.93897939731
 20
-2396.086668368154
 30
0.0
 40
8.0
  1
376.8 
  0
TEXT
  5
74C
  8
回07-寸法
  6
CONTINUOUS
 62
     5
 10
-1345.33897939731
 20
-2396.086668368154
 30
0.0
 40
6.0
  1
(ACTIVE AREA)
  0
ENDBLK
  5
74E
  8
回04-下接
  6
CONTINUOUS
 62
     7
  0
BLOCK
  8
回04-下接
  2
*X9191
 70
     1
 10
0.0
 20
0.0
 30
0.0
  3
*X9191
  1

  0
TEXT
  5
751
  8
回07-寸法
  6
CONTINUOUS
 62
     5
 10
-1376.73897939731
 20
-2381.086668368154
 30
0.0
 40
8.0
  1
380.8 
  0
TEXT
  5
752
  8
回07-寸法
  6
CONTINUOUS
 62
     5
 10
-1347.13897939731
 20
-2381.086668368154
 30
0.0
 40
6.0
  1
(VIEWING AREA)
  0
ENDBLK
  5
754
  8
回04-下接
  6
CONTINUOUS
 62
     7
  0
BLOCK
  8
回04-下接
  2
*X9292
 70
     1
 10
0.0
 20
0.0
 30
0.0
  3
*X9292
  1

  0
TEXT
  5
757
  8
回07-寸法
  6
CONTINUOUS
 62
     5
 10
-1087.380160499672
 20
-2618.363487265786
 30
0.0
 40
8.0
  1
301.6 
 50
90.0
  0
TEXT
  5
758
  8
回07-寸法
  6
CONTINUOUS
 62
     5
 10
-1087.380160499672
 20
-2590.363487265787
 30
0.0
 40
6.0
  1
(ACTIVE AREA)
 50
90.0
  0
ENDBLK
  5
75A
  8
回04-下接
  6
CONTINUOUS
 62
     7
  0
BLOCK
  8
回04-下接
  2
*X9393
 70
     1
 10
0.0
 20
0.0
 30
0.0
  3
*X9393
  1

  0
TEXT
  5
75D
  8
回07-寸法
  6
CONTINUOUS
 62
     5
 10
-1072.38016049967
 20
-2620.963487265793
 30
0.0
 40
8.0
  1
305.6 
 50
90.0
  0
TEXT
  5
75E
  8
回07-寸法
  6
CONTINUOUS
 62
     5
 10
-1072.38016049967
 20
-2591.363487265793
 30
0.0
 40
6.0
  1
(VIEWING AREA)
 50
90.0
  0
ENDBLK
  5
760
  8
回04-下接
  6
CONTINUOUS
 62
     7
  0
BLOCK
  8
回04-下接
  2
*X9494
 70
     1
 10
0.0
 20
0.0
 30
0.0
  3
*X9494
  1

  0
TEXT
  5
763
  8
回07-寸法
  6
CONTINUOUS
 62
     5
 10
-1057.480160499666
 20
-2404.717817974456
 30
0.0
 40
8.0
  1
(9.6)
 50
90.0
  0
TEXT
  5
764
  8
回07-寸法
  6
CONTINUOUS
 62
     5
 10
-1057.480160499666
 20
-2384.68893502624
 30
0.0
 40
5.0
  1
(Insulation area)
 50
90.0
  0
ENDBLK
  5
766
  8
回04-下接
  6
CONTINUOUS
 62
     7
  0
BLOCK
  8
回04-下接
  2
*X9595
 70
     1
 10
0.0
 20
0.0
 30
0.0
  3
*X9595
  1

  0
TEXT
  5
769
  8
回07-寸法
  6
CONTINUOUS
 62
     5
 10
-1611.779574943951
 20
-2366.136668368154
 30
0.0
 40
8.0
  1
9.4 
  0
TEXT
  5
76A
  8
回07-寸法
  6
CONTINUOUS
 62
     5
 10
-1592.550691995735
 20
-2366.136668368154
 30
0.0
 40
5.0
  1
(Insulation area)
  0
ENDBLK
  5
76C
  8
回04-下接
  6
CONTINUOUS
 62
     7
  0
BLOCK
  8
回04-下接
  2
*X9696
 70
     1
 10
0.0
 20
0.0
 30
0.0
  3
*X9696
  1

  0
TEXT
  5
76F
  8
回07-寸法
  6
CONTINUOUS
 62
     5
 10
750.704781472117
 20
157.4913892206435
 30
0.0
 40
8.0
  1
9.6 
 50
90.0
  0
TEXT
  5
770
  8
回07-寸法
  6
CONTINUOUS
 62
     5
 10
750.704781472117
 20
175.9202721688595
 30
0.0
 40
6.0
  1
(Insulation area)
 50
90.0
  0
ENDBLK
  5
772
  8
回04-下接
  6
CONTINUOUS
 62
     7
  0
BLOCK
  8
回04-下接
  2
*X9797
 70
     1
 10
0.0
 20
0.0
 30
0.0
  3
*X9797
  1

  0
TEXT
  5
775
  8
回07-寸法
  6
CONTINUOUS
 62
     5
 10
687.9071410404567
 20
162.4664062284827
 30
0.0
 40
8.0
  1
2.1
 50
90.0
  0
TEXT
  5
776
  8
回07-寸法
  6
CONTINUOUS
 62
     5
 10
687.9071410404567
 20
174.4664062284827
 30
0.0
 40
5.0
  1
±0.2
 50
90.0
  0
ENDBLK
  5
778
  8
回04-下接
  6
CONTINUOUS
 62
     7
  0
BLOCK
  8
回04-下接
  2
*X9898
 70
     1
 10
0.0
 20
0.0
 30
0.0
  3
*X9898
  1

  0
TEXT
  5
77B
  8
回07-寸法
  6
CONTINUOUS
 62
     5
 10
186.7886992057355
 20
157.7327016808619
 30
0.0
 40
8.0
  1
0.3
 50
90.0
  0
TEXT
  5
77C
  8
回07-寸法
  6
CONTINUOUS
 62
     5
 10
186.7886992057355
 20
171.3327016808619
 30
0.0
 40
5.599999999999998
  1
±0.05
 50
90.0
  0
ENDBLK
  5
77E
  8
回04-下接
  6
CONTINUOUS
 62
     7
  0
BLOCK
  8
回04-下接
  2
*X9999
 70
     1
 10
0.0
 20
0.0
 30
0.0
  3
*X9999
  1

  0
TEXT
  5
781
  8
回07-寸法
  6
CONTINUOUS
 62
     5
 10
196.3053670278377
 20
619.3765953890856
 30
0.0
 40
8.0
  1
9.4 
  0
TEXT
  5
782
  8
回07-寸法
  6
CONTINUOUS
 62
     5
 10
215.5342499760535
 20
619.3765953890856
 30
0.0
 40
5.0
  1
(Insulation area)
  0
ENDBLK
  5
784
  8
回04-下接
  6
CONTINUOUS
 62
     7
  0
BLOCK
  8
回04-下接
  2
*X100100
 70
     1
 10
0.0
 20
0.0
 30
0.0
  3
*X100100
  1

  0
TEXT
  5
787
  8
回07-寸法
  6
CONTINUOUS
 62
     5
 10
750.6047814721227
 20
580.7954457827835
 30
0.0
 40
8.0
  1
(9.6)
 50
90.0
  0
TEXT
  5
788
  8
回07-寸法
  6
CONTINUOUS
 62
     5
 10
750.6047814721227
 20
600.8243287309992
 30
0.0
 40
5.0
  1
(Insulation area)
 50
90.0
  0
ENDBLK
  5
78A
  8
回04-下接
  6
CONTINUOUS
 62
     7
  0
BLOCK
  8
回04-下接
  2
*X101101
 70
     1
 10
0.0
 20
0.0
 30
0.0
  3
*X101101
  1

  0
TEXT
  5
78D
  8
回07-寸法
  6
CONTINUOUS
 62
     5
 10
735.7047814721182
 20
364.5497764914468
 30
0.0
 40
8.0
  1
305.6 
 50
90.0
  0
TEXT
  5
78E
  8
回07-寸法
  6
CONTINUOUS
 62
     5
 10
735.7047814721182
 20
394.1497764914469
 30
0.0
 40
6.0
  1
(VIEWING AREA)
 50
90.0
  0
ENDBLK
  5
790
  8
回04-下接
  6
CONTINUOUS
 62
     7
  0
BLOCK
  8
回04-下接
  2
*X102102
 70
     1
 10
0.0
 20
0.0
 30
0.0
  3
*X102102
  1

  0
TEXT
  5
793
  8
回07-寸法
  6
CONTINUOUS
 62
     5
 10
720.7047814721163
 20
367.1497764914533
 30
0.0
 40
8.0
  1
301.6 
 50
90.0
  0
TEXT
  5
794
  8
回07-寸法
  6
CONTINUOUS
 62
     5
 10
720.7047814721163
 20
395.1497764914533
 30
0.0
 40
6.0
  1
(ACTIVE AREA)
 50
90.0
  0
ENDBLK
  5
796
  8
回04-下接
  6
CONTINUOUS
 62
     7
  0
BLOCK
  8
回04-下接
  2
*X103103
 70
     1
 10
0.0
 20
0.0
 30
0.0
  3
*X103103
  1

  0
TEXT
  5
799
  8
回07-寸法
  6
CONTINUOUS
 62
     5
 10
431.3459625744789
 20
604.4265953890856
 30
0.0
 40
8.0
  1
380.8 
  0
TEXT
  5
79A
  8
回07-寸法
  6
CONTINUOUS
 62
     5
 10
460.9459625744789
 20
604.4265953890856
 30
0.0
 40
6.0
  1
(VIEWING AREA)
  0
ENDBLK
  5
79C
  8
回04-下接
  6
CONTINUOUS
 62
     7
  0
BLOCK
  8
回04-下接
  2
*X104104
 70
     1
 10
0.0
 20
0.0
 30
0.0
  3
*X104104
  1

  0
TEXT
  5
79F
  8
回07-寸法
  6
CONTINUOUS
 62
     5
 10
433.1459625744789
 20
589.4265953890855
 30
0.0
 40
8.0
  1
376.8 
  0
TEXT
  5
7A0
  8
回07-寸法
  6
CONTINUOUS
 62
     5
 10
462.7459625744789
 20
589.4265953890855
 30
0.0
 40
6.0
  1
(ACTIVE AREA)
  0
ENDBLK
  5
7A2
  8
回04-下接
  6
CONTINUOUS
 62
     7
  0
BLOCK
  8
回04-下接
  2
*X105105
 70
     1
 10
0.0
 20
0.0
 30
0.0
  3
*X105105
  1

  0
TEXT
  5
7A5
  8
回07-寸法
  6
CONTINUOUS
 62
     5
 10
184.8587023929235
 20
421.1305608114101
 30
0.0
 40
8.0
  1
6.25
 50
90.0
  0
TEXT
  5
7A6
  8
回07-寸法
  6
CONTINUOUS
 62
     5
 10
184.8587023929235
 20
440.3305608114101
 30
0.0
 40
5.599999999999998
  1
±0.2
 50
90.0
  0
ENDBLK
  5
7A8
  8
回04-下接
  6
CONTINUOUS
 62
     7
  0
BLOCK
  8
回04-下接
  2
*X106106
 70
     1
 10
0.0
 20
0.0
 30
0.0
  3
*X106106
  1

  0
TEXT
  5
7AB
  8
回07-寸法
  6
CONTINUOUS
 62
     5
 10
225.6547814733238
 20
438.7040253792873
 30
0.0
 40
8.0
  1
80
  0
TEXT
  5
7AC
  8
回07-寸法
  6
CONTINUOUS
 62
     5
 10
236.8547814733237
 20
438.7040253792873
 30
0.0
 40
5.599999999999998
  1
±1
  0
ENDBLK
  5
7AE
  8
回04-下接
  6
CONTINUOUS
 62
     7
  0
BLOCK
  8
回04-下接
  2
*X107107
 70
     1
 10
0.0
 20
0.0
 30
0.0
  3
*X107107
  1

  0
TEXT
  5
7B1
  8
回07-寸法
  6
CONTINUOUS
 62
     5
 10
774.5235069804849
 20
388.5985953890843
 30
0.0
 40
8.0
  1
326.4
 50
90.0
  0
TEXT
  5
7B2
  8
回07-寸法
  6
CONTINUOUS
 62
     5
 10
774.5235069804849
 20
414.1985953890841
 30
0.0
 40
5.599999999999998
  1
±0.3
 50
90.0
  0
ENDBLK
  5
7B4
  8
回04-下接
  6
CONTINUOUS
 62
     7
  0
BLOCK
  8
回04-下接
  2
*X108108
 70
     1
 10
0.0
 20
0.0
 30
0.0
  3
*X108108
  1

  0
TEXT
  5
7B7
  8
回07-寸法
  6
CONTINUOUS
 62
     5
 10
455.3947814721166
 20
633.2931314394953
 30
0.0
 40
8.0
  1
400.6
  0
TEXT
  5
7B8
  8
回07-寸法
  6
CONTINUOUS
 62
     5
 10
480.9947814721167
 20
633.2931314394953
 30
0.0
 40
5.599999999999998
  1
±0.3
  0
ENDBLK
  5
7BA
  8
回04-下接
  6
CONTINUOUS
 62
     7
  0
ENDSEC
  0
SECTION
  2
ENTITIES
  0
TEXT
  5
64
  8
回03-記事
  6
CONTINUOUS
 62
     5
 10
324.4520766143732
 20
74.78969425609284
 30
0.0
 40
8.0
  1
without affecting product specification.
  0
TEXT
  5
66
  8
回03-記事
  6
CONTINUOUS
 62
     5
 10
324.4520766143732
 20
84.29831719374851
 30
0.0
 40
8.0
  1
Edges and corners of ITO glass may be chamfered 
  0
TEXT
  5
67
  8
回03-記事
  6
CONTINUOUS
 62
     5
 10
324.4520766143732
 20
98.40277455127123
 30
0.0
 40
8.0
  1
Unit: mm
  0
TEXT
  5
68
  8
回03-記事
  6
CONTINUOUS
 62
     5
 10
324.4520766143732
 20
112.1695356675018
 30
0.0
 40
8.0
  1
EXCEPT WHERE INDICATED
  0
TEXT
  5
69
  8
回03-記事
  6
CONTINUOUS
 62
     5
 10
324.4520766143732
 20
125.9486103264908
 30
0.0
 40
8.0
  1
TOLERANCE=±0.5mm
  0
POLYLINE
  5
6A
  8
回04-下接
  6
CONTINUOUS
 62
     7
 66
     1
 10
0.0
 20
0.0
 30
0.0
 70
     1
  0
VERTEX
  5
9FC
  8
回04-下接
  6
CONTINUOUS
 62
     7
 10
274.7947814721165
 20
245.0985953890863
 30
0.0
  0
VERTEX
  5
9FE
  8
回04-下接
  6
CONTINUOUS
 62
     7
 10
675.3947814721164
 20
245.0985953890863
 30
0.0
  0
VERTEX
  5
9FF
  8
回04-下接
  6
CONTINUOUS
 62
     7
 10
675.3947814721164
 20
571.4985953890864
 30
0.0
  0
VERTEX
  5
A00
  8
回04-下接
  6
CONTINUOUS
 62
     7
 10
274.7947814721165
 20
571.4985953890864
 30
0.0
  0
SEQEND
  5
9FD
  8
回04-下接
  6
CONTINUOUS
 62
     7
  0
TEXT
  5
6B
  8
回03-記事
  6
CONTINUOUS
 62
     5
 10
126.989005836339
 20
216.221693527842
 30
0.0
 40
6.0
  1
Trace Expose
1001
ACAD
1000
MTEXTBEGIN
1070
    73
1070
     1
1070
    44
1040
1.0
1070
    74
1070
     0
1000
MTEXTEND
  0
INSERT
  5
6C
  8
回03-記事
  6
CONTINUOUS
 62
     5
 66
     1
  2
*X7777
 10
0.0
 20
0.0
 30
0.0
  0
SEQEND
  5
6A8
  8
回04-下接
  6
CONTINUOUS
 62
     7
  0
INSERT
  5
6E
  8
回04-下接
  6
CONTINUOUS
 62
     7
 66
     1
  2
*X7878
 10
0.0
 20
0.0
 30
0.0
1001
ACAD_MLEADERVER
1070
     2
  0
SEQEND
  5
6B7
  8
回04-下接
  6
CONTINUOUS
 62
     7
  0
DIMENSION
  5
70
  8
0
  6
CONTINUOUS
 62
     1
  2
*D3939
 10
152.3935864331875
 20
526.3724219635817
 30
0.0
 11
152.3935864331875
 21
491.8226680265725
 31
0.0
 70
   160
  1
{\H0.625x;6.25±0.2}
  3
DMC
 13
181.8893609054303
 23
509.8724219635815
 33
0.0
 14
181.8893609054303
 24
526.3724219635817
 34
0.0
 50
90.0
1001
ACAD
1000
DSTYLE
1002
{
1070
    41
1040
3.0
1070
    47
1040
0.2
1070
    48
1040
0.2
1070
   140
1040
8.0
1070
   141
1040
1.5
1070
   271
1070
     3
1070
   272
1070
     3
1070
   371
1070
    13
1070
   372
1070
    13
1002
}
  0
DIMENSION
  5
83
  8
0
  6
CONTINUOUS
 62
     1
  2
*D4040
 10
161.867474692925
 20
523.0724219635749
 30
0.0
 11
161.867474692925
 21
493.6597913380118
 31
0.0
 70
   160
  1
{\H0.625x;3.75±0.1}
  3
DMC
 13
176.741867638455
 23
513.1724219635753
 33
0.0
 14
176.741867638455
 24
523.0724219635749
 34
0.0
 50
90.0
1001
ACAD
1000
DSTYLE
1002
{
1070
    41
1040
3.0
1070
    47
1040
0.2
1070
    48
1040
0.2
1070
   140
1040
8.0
1070
   141
1040
1.5
1070
   271
1070
     3
1070
   272
1070
     3
1070
   371
1070
    13
1070
   372
1070
    13
1002
}
  0
DIMENSION
  5
94
  8
0
  6
CONTINUOUS
 62
     1
  2
*D4141
 10
169.5761229946365
 20
516.4724219635745
 30
0.0
 11
169.5761229946365
 21
493.7581583327881
 31
0.0
 70
   160
  1
{\H0.625x;1.25±0.2}
  3
DMC
 13
176.741867638455
 23
513.1724219635753
 33
0.0
 14
176.7419825068809
 24
516.4724219635745
 34
0.0
 50
90.0
1001
ACAD
1000
DSTYLE
1002
{
1070
    41
1040
3.0
1070
    47
1040
0.2
1070
    48
1040
0.2
1070
   140
1040
8.0
1070
   141
1040
1.5
1070
   271
1070
     3
1070
   272
1070
     3
1070
   371
1070
    13
1070
   372
1070
    13
1002
}
  0
DIMENSION
  5
A5
  8
0
  6
CONTINUOUS
 62
     1
  2
*D4242
 10
178.2955286193464
 20
514.0964219635752
 30
0.0
 11
178.2955286193464
 21
486.0660866406987
 31
0.0
 70
   160
  1
{\H0.625x;4-0.7±0.1}
  3
DMC
 13
183.9761653880073
 23
512.2484219635753
 33
0.0
 14
183.9761653880073
 24
514.0964219635752
 34
0.0
 50
90.0
1001
ACAD
1000
DSTYLE
1002
{
1070
    41
1040
3.0
1070
    47
1040
0.2
1070
    48
1040
0.2
1070
   140
1040
8.0
1070
   141
1040
1.5
1070
   271
1070
     3
1070
   272
1070
     3
1070
   371
1070
    13
1070
   372
1070
    13
1002
}
  0
TEXT
  5
B6
  8
回03-記事
  6
CONTINUOUS
 62
     5
 10
167.2585780330755
 20
542.5655801192141
 30
0.0
 40
8.0
  1
SECTION A
  0
LINE
  5
B7
  8
回03-記事
  6
CONTINUOUS
 62
     7
 10
176.741867638455
 20
513.1724219635753
 30
0.0
 11
198.5369709984379
 21
513.1724219635753
 31
0.0
  0
LINE
  5
B8
  8
回03-記事
  6
CONTINUOUS
 62
     7
 10
176.7419825068809
 20
516.4724219635745
 30
0.0
 11
198.5369709984379
 21
516.4724219635745
 31
0.0
  0
LINE
  5
B9
  8
回03-記事
  6
CONTINUOUS
 62
     7
 10
176.741867638455
 20
523.0724219635749
 30
0.0
 11
198.5369709984379
 21
523.0724219635749
 31
0.0
  0
POLYLINE
  5
BA
  8
回03-記事
  6
CONTINUOUS
 62
     8
 66
     1
 10
0.0
 20
0.0
 30
0.0
 40
1.847999999999999
 41
1.847999999999999
  0
VERTEX
  5
A01
  8
回03-記事
  6
CONTINUOUS
 62
     8
 10
180.5692460370036
 20
519.7724219635746
 30
0.0
  0
VERTEX
  5
A03
  8
回03-記事
  6
CONTINUOUS
 62
     8
 10
193.7693609054304
 20
519.7724219635746
 30
0.0
  0
SEQEND
  5
A02
  8
回04-下接
  6
CONTINUOUS
 62
     7
  0
POLYLINE
  5
BB
  8
回03-記事
  6
CONTINUOUS
 62
     8
 66
     1
 10
0.0
 20
0.0
 30
0.0
 40
1.847999999999999
 41
1.847999999999999
  0
VERTEX
  5
A04
  8
回03-記事
  6
CONTINUOUS
 62
     8
 10
180.5692460370036
 20
523.0724219635749
 30
0.0
  0
VERTEX
  5
A06
  8
回03-記事
  6
CONTINUOUS
 62
     8
 10
193.7693609054304
 20
523.0724219635749
 30
0.0
  0
SEQEND
  5
A05
  8
回04-下接
  6
CONTINUOUS
 62
     7
  0
POLYLINE
  5
BC
  8
回03-記事
  6
CONTINUOUS
 62
     8
 66
     1
 10
0.0
 20
0.0
 30
0.0
 40
1.847999999999999
 41
1.847999999999999
  0
VERTEX
  5
A07
  8
回03-記事
  6
CONTINUOUS
 62
     8
 10
180.5692460370036
 20
513.1724219635753
 30
0.0
  0
VERTEX
  5
A09
  8
回03-記事
  6
CONTINUOUS
 62
     8
 10
193.7693609054304
 20
513.1724219635753
 30
0.0
  0
SEQEND
  5
A08
  8
回04-下接
  6
CONTINUOUS
 62
     7
  0
POLYLINE
  5
BD
  8
回03-記事
  6
CONTINUOUS
 62
     8
 66
     1
 10
0.0
 20
0.0
 30
0.0
 40
1.847999999999999
 41
1.847999999999999
  0
VERTEX
  5
A0A
  8
回03-記事
  6
CONTINUOUS
 62
     8
 10
180.5692460370036
 20
516.4724219635745
 30
0.0
  0
VERTEX
  5
A0C
  8
回03-記事
  6
CONTINUOUS
 62
     8
 10
193.7693609054304
 20
516.4724219635745
 30
0.0
  0
SEQEND
  5
A0B
  8
回04-下接
  6
CONTINUOUS
 62
     7
  0
LINE
  5
BE
  8
回03-記事
  6
CONTINUOUS
 62
     8
 10
181.8893609054303
 20
509.8724219635815
 30
0.0
 11
213.2402359410753
 21
509.8724219635815
 31
0.0
  0
LINE
  5
BF
  8
回03-記事
  6
CONTINUOUS
 62
     8
 10
180.5693609054306
 20
525.0524219635816
 30
0.0
 11
180.5693609054306
 21
511.1924219635819
 31
0.0
  0
ARC
  5
C0
  8
回03-記事
  6
CONTINUOUS
 62
     8
 10
181.8893609054303
 20
511.1924219635819
 30
0.0
 40
1.32
 50
180.0
 51
270.0
  0
ARC
  5
C1
  8
回03-記事
  6
CONTINUOUS
 62
     8
 10
181.8893609054303
 20
525.0524219635816
 30
0.0
 40
1.32
 50
90.0
 51
180.0
  0
LINE
  5
C2
  8
回03-記事
  6
CONTINUOUS
 62
     8
 10
181.8893609054303
 20
526.3724219635804
 30
0.0
 11
213.2402359410753
 21
526.3724219635804
 31
0.0
  0
LINE
  5
C3
  8
回04-図面枠
  6
CONTINUOUS
 62
     7
 10
944.3335126879157
 20
49.1649269852869
 30
0.0
 11
944.3335126879157
 21
78.86492698528673
 31
0.0
  0
LINE
  5
C6
  8
回04-図面枠
  6
CENTER2
 62
     7
 10
959.8292143855625
 20
53.3495810332397
 30
0.0
 11
959.8292143855625
 21
74.1397614565567
 31
0.0
  0
LINE
  5
C8
  8
回04-図面枠
  6
CONTINUOUS
 62
     7
 10
973.9856990408734
 20
59.35526179969929
 30
0.0
 11
989.3429903415436
 21
55.4460379846514
 31
0.0
  0
LINE
  5
C9
  8
回04-図面枠
  6
CONTINUOUS
 62
     7
 10
973.9856990408734
 20
68.1340806900971
 30
0.0
 11
989.3429903415436
 21
72.04330450514681
 31
0.0
  0
LINE
  5
CA
  8
回04-図面枠
  6
CONTINUOUS
 62
     7
 10
989.3429903415436
 20
72.04330450514681
 30
0.0
 11
989.3429903415436
 21
55.4460379846514
 31
0.0
  0
LINE
  5
CB
  8
回04-図面枠
  6
CONTINUOUS
 62
     7
 10
973.9856990408734
 20
68.1340806900971
 30
0.0
 11
973.9856990408734
 21
59.35526179969929
 31
0.0
  0
LINE
  5
CC
  8
回04-図面枠
  6
CENTER2
 62
     7
 10
950.2984715783297
 20
63.7446712448991
 30
0.0
 11
990.7040814611272
 21
63.7446712448991
 31
0.0
  0
CIRCLE
  5
CD
  8
回04-図面枠
  6
CONTINUOUS
 62
     7
 10
959.8292143855625
 20
63.7446712448991
 30
0.0
 40
4.389409445199127
  0
CIRCLE
  5
CE
  8
回04-図面枠
  6
CONTINUOUS
 62
     7
 10
959.8292143855625
 20
63.7446712448991
 30
0.0
 40
8.298633260246493
  0
TEXT
  5
CF
  8
回04-図面枠
 62
     7
 10
824.4497046888708
 20
92.99413541712057
 30
0.0
 40
14.85
  1
Sep/08/2023
 72
     1
 11
882.3647046888707
 21
92.99413541712057
 31
0.0
  0
TEXT
  5
D0
  8
回04-図面枠
  6
CONTINUOUS
 62
     7
 10
867.3683731014126
 20
125.4842630565181
 30
0.0
 40
8.91
  1
DATE
  0
TEXT
  5
D1
  8
回04-図面枠
 62
     7
 10
799.358198462745
 20
56.70191926174812
 30
0.0
 40
14.85
  1
DMC Co., Ltd.
 72
     1
 11
858.3869484627449
 21
56.70191926174812
 31
0.0
  0
TEXT
  5
D2
  8
回04-図面枠
 62
     7
 10
609.8403977025584
 20
101.1158171051256
 30
0.0
 40
14.85
  1
LST-190B080A
 72
     1
 11
674.4647046888712
 21
101.1158171051256
 31
0.0
  0
TEXT
  5
D3
  8
回04-図面枠
 62
     7
 10
646.3982046888713
 20
126.2282681557953
 30
0.0
 40
8.91
  1
PART　No.
 72
     1
 11
674.4647046888712
 21
126.2282681557953
 31
0.0
  0
LINE
  5
D4
  8
回04-図面枠
 62
     7
 10
586.8497046888704
 20
64.01492698528636
 30
0.0
 11
762.0797046888712
 21
64.01492698528636
 31
0.0
  0
TEXT
  5
D5
  8
回04-図面枠
 62
     7
 10
604.9667046888712
 20
67.43051825750352
 30
0.0
 40
8.91
  1
STANDARD TOUCHSCREEN
 72
     1
 11
674.4647046888712
 21
67.43051825750352
 31
0.0
  0
TEXT
  5
D6
  8
回04-図面枠
 62
     7
 10
625.0142046888712
 20
52.58051825750317
 30
0.0
 40
8.91
  1
CIRCUIT　DRAWING
 72
     1
 11
674.4647046888712
 21
52.58051825750317
 31
0.0
  0
LINE
  5
D7
  8
回04-図面枠
 62
     7
 10
770.9897046888707
 20
138.2649269852862
 30
0.0
 11
770.9897046888707
 21
49.1649269852869
 31
0.0
  0
TEXT
  5
D8
  8
回04-図面枠
 62
     7
 10
660.2087046888713
 20
81.07347746332562
 30
0.0
 40
8.91
  1
TYPE
 72
     1
 11
674.4647046888712
 21
81.07347746332562
 31
0.0
  0
LINE
  5
D9
  8
回04-図面枠
 62
     7
 10
577.9397046888707
 20
138.2649269852862
 30
0.0
 11
577.9397046888707
 21
49.1649269852869
 31
0.0
  0
LINE
  5
DA
  8
回04-図面枠
 62
     7
 10
577.9397046888707
 20
93.7149269852871
 30
0.0
 11
770.9897046888707
 21
93.7149269852871
 31
0.0
  0
LINE
  5
DB
  8
回04-図面枠
 62
     7
 10
577.9397046888707
 20
78.86492698528673
 30
0.0
 11
993.7397046888706
 21
78.86492698528673
 31
0.0
  0
LINE
  5
DC
  8
回04-図面枠
 62
     7
 10
577.9397046888707
 20
138.2649269852862
 30
0.0
 11
993.7397046888706
 21
138.2649269852862
 31
0.0
  0
LINE
  5
DD
  8
回04-図面枠
 62
     7
 10
577.9397046888707
 20
123.4149269852869
 30
0.0
 11
993.7397046888706
 21
123.4149269852869
 31
0.0
  0
TEXT
  5
DE
  8
回90-枠1
 10
995.3828772631522
 20
625.7276911214421
 30
0.0
 40
4.679999999999999
  1
1
  0
TEXT
  5
E0
  8
回90-枠1
 10
945.4530854964842
 20
681.4006620427663
 30
0.0
 40
4.679999999999999
  1
J
  0
LINE
  5
E1
  8
回90-枠1
 10
999.5897046888712
 20
575.6649269852869
 30
0.0
 11
993.7397046888706
 21
575.6649269852869
 31
0.0
  0
TEXT
  5
E2
  8
回90-枠1
 10
995.0301237802896
 20
520.4276911214418
 30
0.0
 40
4.679999999999999
  1
2
  0
LINE
  5
E3
  8
回90-枠1
 10
999.5897046888712
 20
470.3649269852867
 30
0.0
 11
993.7397046888706
 21
470.3649269852867
 31
0.0
  0
TEXT
  5
E4
  8
回90-枠1
 10
995.0237111925742
 20
415.1276911214416
 30
0.0
 40
4.679999999999999
  1
3
  0
LINE
  5
E5
  8
回90-枠1
 10
999.5897046888712
 20
365.0649269852865
 30
0.0
 11
993.7397046888706
 21
365.0649269852865
 31
0.0
  0
TEXT
  5
E6
  8
回90-枠1
 10
994.9381934120792
 20
309.8276911214421
 30
0.0
 40
4.679999999999999
  1
4
  0
LINE
  5
E7
  8
回90-枠1
 10
900.1397046888714
 20
686.8149269852864
 30
0.0
 11
900.1397046888714
 21
680.9649269852866
 31
0.0
  0
TEXT
  5
E8
  8
回90-枠1
 10
851.8530854964847
 20
681.4006620427663
 30
0.0
 40
4.679999999999999
  1
I
  0
LINE
  5
E9
  8
回90-枠1
 10
806.539704688871
 20
686.8149269852864
 30
0.0
 11
806.539704688871
 21
680.9649269852866
 31
0.0
  0
TEXT
  5
EA
  8
回90-枠1
 10
758.2530854964852
 20
681.4006620427663
 30
0.0
 40
4.679999999999999
  1
H
  0
LINE
  5
EB
  8
回90-枠1
 10
712.9397046888716
 20
686.8149269852864
 30
0.0
 11
712.9397046888716
 21
680.9649269852866
 31
0.0
  0
TEXT
  5
EC
  8
回90-枠1
 10
664.6530854964849
 20
681.4006620427663
 30
0.0
 40
4.679999999999999
  1
G
  0
LINE
  5
ED
  8
回90-枠1
 10
999.5897046888712
 20
259.7649269852864
 30
0.0
 11
993.7397046888706
 21
259.7649269852864
 31
0.0
  0
TEXT
  5
EE
  8
回90-枠1
 10
994.9381934120792
 20
204.5276911214419
 30
0.0
 40
4.679999999999999
  1
5
  0
LINE
  5
EF
  8
回90-枠1
 10
999.5897046888712
 20
154.4649269852866
 30
0.0
 11
993.7397046888706
 21
154.4649269852866
 31
0.0
  0
TEXT
  5
F0
  8
回90-枠1
 10
994.9381934120792
 20
99.22769112144216
 30
0.0
 40
4.679999999999999
  1
6
  0
TEXT
  5
F1
  8
回90-枠1
 10
945.4530854964842
 20
43.75066204276662
 30
0.0
 40
4.679999999999999
  1
J
  0
LINE
  5
F2
  8
回90-枠1
 10
900.1397046888714
 20
49.16492698528646
 30
0.0
 11
900.1397046888714
 21
43.31492698528655
 31
0.0
  0
TEXT
  5
F3
  8
回90-枠1
 10
851.8530854964847
 20
43.75066204276662
 30
0.0
 40
4.679999999999999
  1
I
  0
LINE
  5
F4
  8
回90-枠1
 10
806.539704688871
 20
49.16492698528646
 30
0.0
 11
806.539704688871
 21
43.31492698528655
 31
0.0
  0
TEXT
  5
F5
  8
回90-枠1
 10
758.2530854964852
 20
43.75066204276662
 30
0.0
 40
4.679999999999999
  1
H
  0
LINE
  5
F6
  8
回90-枠1
 10
712.9397046888716
 20
49.16492698528646
 30
0.0
 11
712.9397046888716
 21
43.31492698528655
 31
0.0
  0
TEXT
  5
F7
  8
回90-枠1
 10
664.6530854964849
 20
43.75066204276662
 30
0.0
 40
4.679999999999999
  1
G
  0
LINE
  5
F8
  8
回90-枠1
 10
993.7397046888706
 20
680.9649269852866
 30
0.0
 11
993.7397046888706
 21
49.16492698528646
 31
0.0
  0
LINE
  5
F9
  8
回90-枠1
 10
999.5897046888712
 20
43.31492698528655
 30
0.0
 11
999.5897046888712
 21
686.8149269852864
 31
0.0
  0
LINE
  5
FA
  8
回90-枠1
 10
619.3397046888712
 20
686.8149269852864
 30
0.0
 11
619.3397046888712
 21
680.9649269852866
 31
0.0
  0
TEXT
  5
FB
  8
回90-枠1
 10
571.0530854964845
 20
681.4006620427663
 30
0.0
 40
4.679999999999999
  1
F
  0
LINE
  5
FC
  8
回90-枠1
 10
525.7397046888708
 20
686.8149269852864
 30
0.0
 11
525.7397046888708
 21
680.9649269852866
 31
0.0
  0
TEXT
  5
FD
  8
回90-枠1
 10
477.4530854964849
 20
681.4006620427663
 30
0.0
 40
4.679999999999999
  1
E
  0
LINE
  5
FE
  8
回90-枠1
 10
432.1397046888714
 20
686.8149269852864
 30
0.0
 11
432.1397046888714
 21
680.9649269852866
 31
0.0
  0
TEXT
  5
FF
  8
回90-枠1
 10
383.8530854964846
 20
681.4006620427663
 30
0.0
 40
4.679999999999999
  1
D
  0
LINE
  5
100
  8
回90-枠1
 10
338.5397046888711
 20
686.8149269852864
 30
0.0
 11
338.5397046888711
 21
680.9649269852866
 31
0.0
  0
TEXT
  5
101
  8
回90-枠1
 10
290.2530854964843
 20
681.4006620427663
 30
0.0
 40
4.679999999999999
  1
C
  0
LINE
  5
102
  8
回90-枠1
 10
244.9397046888716
 20
686.8149269852864
 30
0.0
 11
244.9397046888716
 21
680.9649269852866
 31
0.0
  0
TEXT
  5
103
  8
回90-枠1
 10
196.6530854964849
 20
681.4006620427663
 30
0.0
 40
4.679999999999999
  1
B
  0
LINE
  5
104
  8
回90-枠1
 10
151.3397046888712
 20
686.8149269852864
 30
0.0
 11
151.3397046888712
 21
680.9649269852866
 31
0.0
  0
TEXT
  5
105
  8
回90-枠1
 10
103.0530854964845
 20
681.4006620427663
 30
0.0
 40
4.679999999999999
  1
A
  0
TEXT
  5
106
  8
回90-枠1
 10
53.53287726315285
 20
625.7276911214421
 30
0.0
 40
4.679999999999999
  1
1
  0
LINE
  5
107
  8
回90-枠1
 10
57.73970468887092
 20
575.6649269852869
 30
0.0
 11
51.88970468887146
 21
575.6649269852869
 31
0.0
  0
TEXT
  5
108
  8
回90-枠1
 10
53.18012378028925
 20
520.4276911214418
 30
0.0
 40
4.679999999999999
  1
2
  0
LINE
  5
109
  8
回90-枠1
 10
57.73970468887092
 20
470.3649269852867
 30
0.0
 11
51.88970468887146
 21
470.3649269852867
 31
0.0
  0
TEXT
  5
10A
  8
回90-枠1
 10
53.17371119257495
 20
415.1276911214416
 30
0.0
 40
4.679999999999999
  1
3
  0
LINE
  5
10B
  8
回90-枠1
 10
57.73970468887092
 20
365.0649269852865
 30
0.0
 11
51.88970468887146
 21
365.0649269852865
 31
0.0
  0
TEXT
  5
10C
  8
回90-枠1
 10
53.08819341207982
 20
309.8276911214421
 30
0.0
 40
4.679999999999999
  1
4
  0
LINE
  5
10D
  8
回90-枠1
 10
619.3397046888712
 20
49.16492698528646
 30
0.0
 11
619.3397046888712
 21
43.31492698528655
 31
0.0
  0
TEXT
  5
10E
  8
回90-枠1
 10
571.0530854964845
 20
43.75066204276662
 30
0.0
 40
4.679999999999999
  1
F
  0
LINE
  5
10F
  8
回90-枠1
 10
525.7397046888708
 20
49.16492698528646
 30
0.0
 11
525.7397046888708
 21
43.31492698528655
 31
0.0
  0
TEXT
  5
110
  8
回90-枠1
 10
477.4530854964849
 20
43.75066204276662
 30
0.0
 40
4.679999999999999
  1
E
  0
LINE
  5
111
  8
回90-枠1
 10
432.1397046888714
 20
49.16492698528646
 30
0.0
 11
432.1397046888714
 21
43.31492698528655
 31
0.0
  0
TEXT
  5
112
  8
回90-枠1
 10
383.8530854964846
 20
43.75066204276662
 30
0.0
 40
4.679999999999999
  1
D
  0
LINE
  5
113
  8
回90-枠1
 10
338.5397046888711
 20
49.16492698528646
 30
0.0
 11
338.5397046888711
 21
43.31492698528655
 31
0.0
  0
TEXT
  5
114
  8
回90-枠1
 10
290.2530854964843
 20
43.75066204276662
 30
0.0
 40
4.679999999999999
  1
C
  0
LINE
  5
115
  8
回90-枠1
 10
244.9397046888716
 20
49.16492698528646
 30
0.0
 11
244.9397046888716
 21
43.31492698528655
 31
0.0
  0
TEXT
  5
116
  8
回90-枠1
 10
196.6530854964849
 20
43.75066204276662
 30
0.0
 40
4.679999999999999
  1
B
  0
LINE
  5
117
  8
回90-枠1
 10
57.73970468887092
 20
259.7649269852864
 30
0.0
 11
51.88970468887146
 21
259.7649269852864
 31
0.0
  0
TEXT
  5
118
  8
回90-枠1
 10
53.08819341207982
 20
204.5276911214419
 30
0.0
 40
4.679999999999999
  1
5
  0
LINE
  5
119
  8
回90-枠1
 10
57.73970468887092
 20
154.4649269852866
 30
0.0
 11
51.88970468887146
 21
154.4649269852866
 31
0.0
  0
LINE
  5
11A
  8
回90-枠1
 10
151.3397046888712
 20
49.16492698528646
 30
0.0
 11
151.3397046888712
 21
43.31492698528655
 31
0.0
  0
TEXT
  5
11B
  8
回90-枠1
 10
103.0530854964845
 20
43.75066204276662
 30
0.0
 40
4.679999999999999
  1
A
  0
TEXT
  5
11C
  8
回90-枠1
 10
53.08819341207982
 20
99.22769112144216
 30
0.0
 40
4.679999999999999
  1
6
  0
LINE
  5
11D
  8
回90-枠1
 10
57.73970468887092
 20
680.9649269852866
 30
0.0
 11
57.73970468887092
 21
49.16492698528646
 31
0.0
  0
LINE
  5
11E
  8
回90-枠1
 10
51.88970468887146
 20
43.31492698528655
 30
0.0
 11
51.88970468887146
 21
686.8149269852864
 31
0.0
  0
LINE
  5
11F
  8
回90-枠1
 10
57.73970468887092
 20
49.16492698528646
 30
0.0
 11
993.7397046888706
 21
49.16492698528646
 31
0.0
  0
LINE
  5
120
  8
回90-枠1
 10
999.5897046888712
 20
43.31492698528655
 30
0.0
 11
51.88970468887146
 21
43.31492698528655
 31
0.0
  0
LINE
  5
121
  8
回90-枠1
 10
57.73970468887092
 20
680.9649269852866
 30
0.0
 11
993.7397046888706
 21
680.9649269852866
 31
0.0
  0
LINE
  5
122
  8
回90-枠1
 10
999.5897046888712
 20
686.8149269852864
 30
0.0
 11
51.88970468887146
 21
686.8149269852864
 31
0.0
  0
TEXT
  5
123
  8
回03-記事
  6
CONTINUOUS
 62
     7
 10
856.0061107201486
 20
514.7997382831825
 30
0.0
 40
9.599999999999999
  1
Pin Assignment
  0
LINE
  5
124
  8
回03-記事
  6
CONTINUOUS
 62
     7
 10
920.330633736563
 20
560.7330470058641
 30
0.0
 11
920.330633736563
 21
607.5330470058641
 31
0.0
  0
LINE
  5
125
  8
回03-記事
  6
CONTINUOUS
 62
     7
 10
946.0706337365628
 20
534.9930470058644
 30
0.0
 11
946.0706337365628
 21
633.2730470058641
 31
0.0
  0
TEXT
  5
126
  8
回03-記事
  6
CONTINUOUS
 62
     7
 10
844.3925806179162
 20
603.8587679432785
 30
0.0
 40
7.488000000000001
  1
3
  0
TEXT
  5
127
  8
回03-記事
  6
CONTINUOUS
 62
     7
 10
843.9646969658497
 20
629.8404492439104
 30
0.0
 40
7.488000000000001
  1
4
  0
LINE
  5
128
  8
回03-記事
  6
CONTINUOUS
 62
     7
 10
908.7242337365642
 20
563.166647005864
 30
0.0
 11
912.0938337365641
 21
556.4274470058635
 31
0.0
  0
LINE
  5
129
  8
回03-記事
  6
CONTINUOUS
 62
     7
 10
912.0938337365641
 20
556.4274470058635
 30
0.0
 11
914.246633736564
 21
560.7330470058641
 31
0.0
  0
LINE
  5
12A
  8
回03-記事
  6
CONTINUOUS
 62
     7
 10
901.9850337365623
 20
563.166647005864
 30
0.0
 11
905.354633736564
 21
556.4274470058635
 31
0.0
  0
LINE
  5
12B
  8
回03-記事
  6
CONTINUOUS
 62
     7
 10
898.6154337365642
 20
556.4274470058635
 30
0.0
 11
901.9850337365623
 21
563.166647005864
 31
0.0
  0
LINE
  5
12C
  8
回03-記事
  6
CONTINUOUS
 62
     7
 10
905.354633736564
 20
556.4274470058635
 30
0.0
 11
908.7242337365642
 21
563.166647005864
 31
0.0
  0
LINE
  5
12D
  8
回03-記事
  6
CONTINUOUS
 62
     7
 10
888.5066337365625
 20
563.166647005864
 30
0.0
 11
891.8762337365642
 21
556.4274470058635
 31
0.0
  0
LINE
  5
12E
  8
回03-記事
  6
CONTINUOUS
 62
     7
 10
887.9450337365634
 20
556.708247005864
 30
0.0
 11
894.6842337365641
 21
560.0778470058644
 31
0.0
  0
LINE
  5
12F
  8
回03-記事
  6
CONTINUOUS
 62
     7
 10
887.9450337365634
 20
556.708247005864
 30
0.0
 11
894.6842337365641
 21
553.3386470058649
 31
0.0
  0
LINE
  5
130
  8
回03-記事
  6
CONTINUOUS
 62
     7
 10
887.9450337365634
 20
549.969047005864
 30
0.0
 11
894.6842337365641
 21
553.3386470058649
 31
0.0
  0
LINE
  5
131
  8
回03-記事
  6
CONTINUOUS
 62
     7
 10
887.9450337365634
 20
543.229847005864
 30
0.0
 11
894.6842337365641
 21
546.5994470058643
 31
0.0
  0
LINE
  5
132
  8
回03-記事
  6
CONTINUOUS
 62
     7
 10
887.9450337365634
 20
549.969047005864
 30
0.0
 11
894.6842337365641
 21
546.5994470058643
 31
0.0
  0
LINE
  5
133
  8
回03-記事
  6
CONTINUOUS
 62
     7
 10
887.9450337365634
 20
563.4474470058639
 30
0.0
 11
894.6842337365641
 21
566.8170470058639
 31
0.0
  0
LINE
  5
134
  8
回03-記事
  6
CONTINUOUS
 62
     7
 10
887.9450337365634
 20
570.1866470058639
 30
0.0
 11
894.6842337365641
 21
573.5562470058635
 31
0.0
  0
LINE
  5
135
  8
回03-記事
  6
CONTINUOUS
 62
     7
 10
887.9450337365634
 20
570.1866470058639
 30
0.0
 11
894.6842337365641
 21
566.8170470058639
 31
0.0
  0
LINE
  5
136
  8
回03-記事
  6
CONTINUOUS
 62
     7
 10
887.9450337365634
 20
563.4474470058639
 30
0.0
 11
894.6842337365641
 21
560.0778470058644
 31
0.0
  0
LINE
  5
137
  8
回03-記事
  6
CONTINUOUS
 62
     7
 10
881.7674337365625
 20
563.166647005864
 30
0.0
 11
885.1370337365622
 21
556.4274470058635
 31
0.0
  0
LINE
  5
138
  8
回03-記事
  6
CONTINUOUS
 62
     7
 10
878.3978337365642
 20
556.4274470058635
 30
0.0
 11
881.7674337365625
 21
563.166647005864
 31
0.0
  0
LINE
  5
139
  8
回03-記事
  6
CONTINUOUS
 62
     7
 10
872.8754337365645
 20
558.8610470058638
 30
0.0
 11
875.0282337365629
 21
563.166647005864
 31
0.0
  0
LINE
  5
13A
  8
回03-記事
  6
CONTINUOUS
 62
     7
 10
875.0282337365629
 20
563.166647005864
 30
0.0
 11
878.3978337365642
 21
556.4274470058635
 31
0.0
  0
LINE
  5
13B
  8
回03-記事
  6
CONTINUOUS
 62
     7
 10
885.1370337365622
 20
556.4274470058635
 30
0.0
 11
888.5066337365625
 21
563.166647005864
 31
0.0
  0
LINE
  5
13C
  8
回03-記事
  6
CONTINUOUS
 62
     7
 10
891.3146337365631
 20
575.2410470058634
 30
0.0
 11
891.3146337365631
 21
580.8570470058639
 31
0.0
  0
LINE
  5
13D
  8
回03-記事
  6
CONTINUOUS
 62
     7
 10
891.8762337365642
 20
556.4274470058635
 30
0.0
 11
895.2458337365641
 21
563.166647005864
 31
0.0
  0
LINE
  5
13E
  8
回03-記事
  6
CONTINUOUS
 62
     7
 10
891.3146337365631
 20
575.2410470058634
 30
0.0
 11
894.6842337365641
 21
573.5562470058635
 31
0.0
  0
TEXT
  5
13F
  8
回03-記事
  6
CONTINUOUS
 62
     7
 10
893.1533456143187
 20
582.0911917416392
 30
0.0
 40
6.551999999999998
  1
YU
  0
LINE
  5
140
  8
回03-記事
  6
CONTINUOUS
 62
     7
 10
895.2458337365641
 20
563.166647005864
 30
0.0
 11
898.6154337365642
 21
556.4274470058635
 31
0.0
  0
LINE
  5
141
  8
回03-記事
  6
CONTINUOUS
 62
     7
 10
891.3146337365631
 20
534.9930470058644
 30
0.0
 11
891.3146337365631
 21
541.545047005864
 31
0.0
  0
LINE
  5
142
  8
回03-記事
  6
CONTINUOUS
 62
     7
 10
887.9450337365634
 20
543.229847005864
 30
0.0
 11
891.3146337365631
 21
541.545047005864
 31
0.0
  0
TEXT
  5
143
  8
回03-記事
  6
CONTINUOUS
 62
     7
 10
874.1028799381561
 20
537.6619404362545
 30
0.0
 40
6.551999999999998
  1
YD
  0
TEXT
  5
144
  8
回03-記事
  6
CONTINUOUS
 62
     7
 10
859.9071139264943
 20
561.6056382021579
 30
0.0
 40
6.551999999999998
  1
XL
  0
TEXT
  5
145
  8
回03-記事
  6
CONTINUOUS
 62
     7
 10
844.6829641102242
 20
555.1504066696388
 30
0.0
 40
7.488000000000001
  1
1
  0
TEXT
  5
146
  8
回03-記事
  6
CONTINUOUS
 62
     7
 10
844.1087745565573
 20
578.0095132683391
 30
0.0
 40
7.488000000000001
  1
2
  0
LINE
  5
147
  8
回03-記事
  6
CONTINUOUS
 62
     7
 10
852.002633736563
 20
580.8570470058639
 30
0.0
 11
891.3146337365631
 21
580.8570470058639
 31
0.0
  0
LINE
  5
148
  8
回03-記事
  6
CONTINUOUS
 62
     7
 10
852.002633736563
 20
558.8610470058638
 30
0.0
 11
872.8754337365645
 21
558.8610470058638
 31
0.0
  0
LINE
  5
149
  8
回03-記事
  6
CONTINUOUS
 62
     7
 10
891.3146337365631
 20
534.9930470058644
 30
0.0
 11
946.0706337365628
 21
534.9930470058644
 31
0.0
  0
LINE
  5
14A
  8
回03-記事
  6
CONTINUOUS
 62
     7
 10
852.002633736563
 20
633.2730470058641
 30
0.0
 11
946.0706337365628
 21
633.2730470058641
 31
0.0
  0
LINE
  5
14B
  8
回03-記事
  6
CONTINUOUS
 62
     7
 10
852.002633736563
 20
607.5330470058641
 30
0.0
 11
920.330633736563
 21
607.5330470058641
 31
0.0
  0
LINE
  5
14C
  8
回03-記事
  6
CONTINUOUS
 62
     7
 10
914.246633736564
 20
560.7330470058641
 30
0.0
 11
920.330633736563
 21
560.7330470058641
 31
0.0
  0
TEXT
  5
14D
  8
回03-記事
  6
CONTINUOUS
 62
     7
 10
914.6025755505252
 20
551.1772009131255
 30
0.0
 40
6.551999999999998
  1
XR
  0
TEXT
  5
14E
  8
回03-記事
  6
CONTINUOUS
 62
     7
 10
864.5094720925735
 20
156.3569890232938
 30
0.0
 40
8.012278923263997
  1
PROTECTION TAPE
  0
TEXT
  5
14F
  8
回03-記事
  6
CONTINUOUS
 62
     7
 10
851.9991412653171
 20
156.3146593148244
 30
0.0
 40
8.332770080194562
  1
6
  0
LINE
  5
150
  8
回03-記事
  6
CONTINUOUS
 62
     7
 10
847.7418838643412
 20
153.9220832176247
 30
0.0
 11
971.8740013642163
 21
153.9220832176247
 31
0.0
  0
TEXT
  5
151
  8
回03-記事
  6
CONTINUOUS
 62
     7
 10
863.4923754241437
 20
183.786010776977
 30
0.0
 40
8.332770080194562
  1
STIFFENER
  0
TEXT
  5
152
  8
回03-記事
  6
CONTINUOUS
 62
     7
 10
863.4923754241437
 20
169.8980606433206
 30
0.0
 40
8.332770080194562
  1
REINFORCEMENT FILM
  0
TEXT
  5
153
  8
回03-記事
  6
CONTINUOUS
 62
     7
 10
896.2861306335922
 20
239.8903924258407
 30
0.0
 40
8.332770080194562
  1
ITEM
  0
LINE
  5
154
  8
回03-記事
  6
CONTINUOUS
 62
     7
 10
971.8740013642163
 20
153.9220832176247
 30
0.0
 11
971.8740013642163
 21
251.1377341532279
 31
0.0
  0
TEXT
  5
155
  8
回03-記事
  6
CONTINUOUS
 62
     7
 10
851.9991412653171
 20
197.9785097157928
 30
0.0
 40
8.332770080194562
  1
3
  0
TEXT
  5
156
  8
回03-記事
  6
CONTINUOUS
 62
     7
 10
851.9991412653171
 20
184.0905595821386
 30
0.0
 40
8.332770080194562
  1
4
  0
TEXT
  5
157
  8
回03-記事
  6
CONTINUOUS
 62
     7
 10
851.9991412653171
 20
211.8664598494579
 30
0.0
 40
8.332770080194562
  1
2
  0
TEXT
  5
158
  8
回03-記事
  6
CONTINUOUS
 62
     7
 10
851.9991412653171
 20
170.2026094484821
 30
0.0
 40
8.332770080194562
  1
5
  0
LINE
  5
159
  8
回03-記事
  6
CONTINUOUS
 62
     7
 10
862.1917521563263
 20
251.1377341532279
 30
0.0
 11
862.1917521563263
 21
153.9220832176247
 31
0.0
  0
LINE
  5
15A
  8
回03-記事
  6
CONTINUOUS
 62
     7
 10
847.7418838643412
 20
251.1377341532279
 30
0.0
 11
847.7418838643412
 21
153.9220832176247
 31
0.0
  0
TEXT
  5
15B
  8
回03-記事
  6
CONTINUOUS
 62
     7
 10
851.9991412653171
 20
225.7544099831112
 30
0.0
 40
8.332770080194562
  1
1
  0
LINE
  5
15C
  8
回03-記事
  6
CONTINUOUS
 62
     7
 10
847.7418838643412
 20
167.8100333512825
 30
0.0
 11
971.8740013642163
 21
167.8100333512825
 31
0.0
  0
LINE
  5
15D
  8
回03-記事
  6
CONTINUOUS
 62
     7
 10
847.7418838643412
 20
251.1377341532279
 30
0.0
 11
971.8740013642163
 21
251.1377341532279
 31
0.0
  0
LINE
  5
15E
  8
回03-記事
  6
CONTINUOUS
 62
     7
 10
847.7418838643412
 20
223.3618338859165
 30
0.0
 11
971.8740013642163
 21
223.3618338859074
 31
0.0
  0
LINE
  5
15F
  8
回03-記事
  6
CONTINUOUS
 62
     7
 10
847.7418838643412
 20
237.2497840195724
 30
0.0
 11
971.8740013642163
 21
237.2497840195724
 31
0.0
  0
LINE
  5
160
  8
回03-記事
  6
CONTINUOUS
 62
     7
 10
847.7418838643412
 20
181.6979834849421
 30
0.0
 11
971.8740013642163
 21
181.6979834849421
 31
0.0
  0
LINE
  5
161
  8
回03-記事
  6
CONTINUOUS
 62
     7
 10
847.7418838643412
 20
195.5859336185985
 30
0.0
 11
971.8740013642163
 21
195.5859336185985
 31
0.0
  0
LINE
  5
162
  8
回03-記事
  6
CONTINUOUS
 62
     7
 10
847.7418838643412
 20
209.4738837522568
 30
0.0
 11
971.8740013642163
 21
209.4738837522568
 31
0.0
  0
TEXT
  5
163
  8
回03-記事
  6
CONTINUOUS
 62
     7
 10
863.4923754241437
 20
225.5756568747952
 30
0.0
 40
8.332770080194562
  1
ITO FILM
  0
TEXT
  5
164
  8
回03-記事
  6
CONTINUOUS
 62
     7
 10
863.4923754241437
 20
211.6877067411356
 30
0.0
 40
8.332770080194562
  1
ITO GLASS
  0
TEXT
  5
165
  8
回03-記事
  6
CONTINUOUS
 62
     7
 10
863.4923754241437
 20
197.7997566074737
 30
0.0
 40
8.332770080194562
  1
TAIL
  0
TEXT
  5
166
  8
回07-寸法
  6
CONTINUOUS
 62
     5
 10
684.8727313058242
 20
631.2291074034273
 30
0.0
 40
5.0
  1
(Insulation area)
  0
POLYLINE
  5
16A
  8
回05-ﾃｰﾙ
  6
BYBLOCK
 62
     7
 66
     1
 10
0.0
 20
0.0
 30
0.0
  0
VERTEX
  5
A0D
  8
回05-ﾃｰﾙ
  6
BYBLOCK
 62
     7
 10
276.294824982884
 20
418.2985955888092
 30
0.0
 42
-0.4140826732844959
  0
VERTEX
  5
A0F
  8
回05-ﾃｰﾙ
  6
BYBLOCK
 62
     7
 10
274.295718790816
 20
416.2985957885321
 30
0.0
  0
VERTEX
  5
A10
  8
回05-ﾃｰﾙ
  6
BYBLOCK
 62
     7
 10
271.6028950745185
 20
416.2973923548141
 30
0.0
 42
0.198265560904783
  0
VERTEX
  5
A11
  8
回05-ﾃｰﾙ
  6
BYBLOCK
 62
     7
 10
270.8976806953933
 20
416.0059417850302
 30
0.0
  0
VERTEX
  5
A12
  8
回05-ﾃｰﾙ
  6
BYBLOCK
 62
     7
 10
266.5892236971977
 20
411.7150460587313
 30
0.0
 42
-0.1983816813359115
  0
VERTEX
  5
A13
  8
回05-ﾃｰﾙ
  6
BYBLOCK
 62
     7
 10
265.8835624141066
 20
411.4235953890855
 30
0.0
  0
VERTEX
  5
A14
  8
回05-ﾃｰﾙ
  6
BYBLOCK
 62
     7
 10
195.2947814721165
 20
411.4235953890855
 30
0.0
 42
0.4142135623729618
  0
VERTEX
  5
A15
  8
回05-ﾃｰﾙ
  6
BYBLOCK
 62
     7
 10
194.7947814721165
 20
410.9235953890856
 30
0.0
  0
VERTEX
  5
A16
  8
回05-ﾃｰﾙ
  6
BYBLOCK
 62
     7
 10
194.7947814721165
 20
405.6735953890861
 30
0.0
 42
0.4142135623730951
  0
VERTEX
  5
A17
  8
回05-ﾃｰﾙ
  6
BYBLOCK
 62
     7
 10
195.2947814721165
 20
405.1735953890861
 30
0.0
  0
VERTEX
  5
A18
  8
回05-ﾃｰﾙ
  6
BYBLOCK
 62
     7
 10
265.8861815158716
 20
405.1695707218341
 30
0.0
 42
-0.1982460661154922
  0
VERTEX
  5
A19
  8
回05-ﾃｰﾙ
  6
BYBLOCK
 62
     7
 10
266.5914560515284
 20
404.8784474757843
 30
0.0
  0
VERTEX
  5
A1A
  8
回05-ﾃｰﾙ
  6
BYBLOCK
 62
     7
 10
270.9017362917066
 20
400.5897186368073
 30
0.0
 42
0.198261092603393
  0
VERTEX
  5
A1B
  8
回05-ﾃｰﾙ
  6
BYBLOCK
 62
     7
 10
271.6070686602243
 20
400.2985953890855
 30
0.0
  0
VERTEX
  5
A1C
  8
回05-ﾃｰﾙ
  6
BYBLOCK
 62
     7
 10
274.2948249828842
 20
400.2985953890855
 30
0.0
 42
-0.4142135623730617
  0
VERTEX
  5
A1D
  8
回05-ﾃｰﾙ
  6
BYBLOCK
 62
     7
 10
276.2948249828842
 20
398.2985953890857
 30
0.0
  0
VERTEX
  5
A1E
  8
回05-ﾃｰﾙ
  6
BYBLOCK
 62
     7
 10
279.2948249828842
 20
398.2985953890857
 30
0.0
  0
VERTEX
  5
A1F
  8
回05-ﾃｰﾙ
  6
BYBLOCK
 62
     7
 10
279.2948249828842
 20
407.7985953890856
 30
0.0
  0
VERTEX
  5
A20
  8
回05-ﾃｰﾙ
  6
BYBLOCK
 62
     7
 10
273.8165494798904
 20
407.7990675658075
 30
0.0
 42
-1.021970931653827
  0
VERTEX
  5
A21
  8
回05-ﾃｰﾙ
  6
BYBLOCK
 62
     7
 10
273.7948249828842
 20
408.7985953890855
 30
0.0
  0
VERTEX
  5
A22
  8
回05-ﾃｰﾙ
  6
BYBLOCK
 62
     7
 10
279.2948249828842
 20
408.7985953890855
 30
0.0
  0
VERTEX
  5
A23
  8
回05-ﾃｰﾙ
  6
BYBLOCK
 62
     7
 10
279.2948249828842
 20
418.2985953890856
 30
0.0
  0
VERTEX
  5
A24
  8
回05-ﾃｰﾙ
  6
BYBLOCK
 62
     7
 10
276.2948249828842
 20
418.2985953890856
 30
0.0
  0
SEQEND
  5
A0E
  8
回04-下接
  6
CONTINUOUS
 62
     7
  0
DIMENSION
  5
16E
  8
回07-寸法
  6
CONTINUOUS
 62
     5
  2
*D4343
 10
751.5047814721168
 20
245.0985953890863
 30
0.0
 11
751.5047814721168
 21
196.5765910664972
 31
0.0
 70
   160
  1
<> {\H0.75x;(Insulation area)}
  3
STANDARD
 13
666.0047814721165
 23
254.7205953890857
 33
0.0
 14
675.3947814721164
 24
245.0985953890863
 34
0.0
 50
90.0
1001
ACADSTRINGINFO
1000
MIFCodePage
1070
     1
1001
ACAD
1000
DSTYLE
1002
{
1070
    41
1040
5.0
1070
    47
1040
0.3
1070
    48
1040
0.3
1070
   140
1040
8.0
1070
   141
1040
1.5
1070
   146
1040
0.7
1070
   271
1070
     1
1070
   272
1070
     1
1070
   283
1070
     0
1070
   288
1070
     0
1070
   341
1005
0
1070
   371
1070
    13
1070
   372
1070
    13
1002
}
  0
DIMENSION
  5
180
  8
回07-寸法
  6
CONTINUOUS
 62
     1
  2
*D4444
 10
736.5047814721187
 20
245.0985953890863
 30
0.0
 11
736.5047814721187
 21
226.5985953890831
 31
0.0
 70
   160
  3
STANDARD
 13
665.5047814721164
 23
255.5205953890859
 33
0.0
 14
675.3947814721164
 24
245.0985953890863
 34
0.0
 50
90.0
1001
ACAD
1000
DSTYLE
1002
{
1070
    41
1040
5.0
1070
    47
1040
0.3
1070
    48
1040
0.3
1070
   140
1040
8.0
1070
   141
1040
1.5
1070
   146
1040
0.7
1070
   271
1070
     1
1070
   272
1070
     1
1070
   283
1070
     0
1070
   288
1070
     0
1070
   341
1005
0
1070
   371
1070
    13
1070
   372
1070
    13
1002
}
  0
DIMENSION
  5
191
  8
回07-寸法
  6
CONTINUOUS
 62
     1
  2
*D4545
 10
721.5047814721168
 20
245.0985953890863
 30
0.0
 11
721.5047814721168
 21
226.5985953890831
 31
0.0
 70
   160
  3
STANDARD
 13
663.5047814721165
 23
257.520595389086
 33
0.0
 14
675.3947814721164
 24
245.0985953890863
 34
0.0
 50
90.0
1001
ACAD
1000
DSTYLE
1002
{
1070
    41
1040
5.0
1070
    47
1040
0.3
1070
    48
1040
0.3
1070
   140
1040
8.0
1070
   141
1040
1.5
1070
   146
1040
0.7
1070
   271
1070
     1
1070
   272
1070
     1
1070
   283
1070
     0
1070
   288
1070
     0
1070
   341
1005
0
1070
   371
1070
    13
1070
   372
1070
    13
1002
}
  0
ARC
  5
1A2
  8
回08-記事
  6
CONTINUOUS
 62
     7
 10
299.3667193085948
 20
202.468681478329
 30
0.0
 40
0.5
 50
0.0
 51
180.0
  0
ARC
  5
1A6
  8
回08-記事
  6
CONTINUOUS
 62
     7
 10
303.3847379613499
 20
202.468681478329
 30
0.0
 40
0.5
 50
0.0
 51
180.0
  0
ARC
  5
1A7
  8
回08-記事
  6
CONTINUOUS
 62
     7
 10
307.3847379613499
 20
202.468681478329
 30
0.0
 40
0.5
 50
0.0
 51
180.0
  0
ARC
  5
1A8
  8
回08-記事
  6
CONTINUOUS
 62
     7
 10
311.3847379613499
 20
202.468681478329
 30
0.0
 40
0.5
 50
0.0
 51
180.0
  0
ARC
  5
1A9
  8
回08-記事
  6
CONTINUOUS
 62
     7
 10
315.3847379613499
 20
202.468681478329
 30
0.0
 40
0.5
 50
0.0
 51
180.0
  0
ARC
  5
1AA
  8
回08-記事
  6
CONTINUOUS
 62
     7
 10
319.3847379613499
 20
202.468681478329
 30
0.0
 40
0.5
 50
0.0
 51
180.0
  0
ARC
  5
1AB
  8
回08-記事
  6
CONTINUOUS
 62
     7
 10
323.3847379613499
 20
202.468681478329
 30
0.0
 40
0.5
 50
0.0
 51
180.0
  0
ARC
  5
1AC
  8
回08-記事
  6
CONTINUOUS
 62
     7
 10
327.3847379613499
 20
202.468681478329
 30
0.0
 40
0.5
 50
0.0
 51
180.0
  0
ARC
  5
1AD
  8
回08-記事
  6
CONTINUOUS
 62
     7
 10
331.3847379613499
 20
202.468681478329
 30
0.0
 40
0.5
 50
0.0
 51
180.0
  0
ARC
  5
1AE
  8
回08-記事
  6
CONTINUOUS
 62
     7
 10
371.3847379613499
 20
202.468681478329
 30
0.0
 40
0.5
 50
0.0
 51
180.0
  0
ARC
  5
1AF
  8
回08-記事
  6
CONTINUOUS
 62
     7
 10
355.3847379613499
 20
202.468681478329
 30
0.0
 40
0.5
 50
0.0
 51
180.0
  0
ARC
  5
1B0
  8
回08-記事
  6
CONTINUOUS
 62
     7
 10
367.3847379613499
 20
202.468681478329
 30
0.0
 40
0.5
 50
0.0
 51
180.0
  0
ARC
  5
1B1
  8
回08-記事
  6
CONTINUOUS
 62
     7
 10
359.3847379613499
 20
202.468681478329
 30
0.0
 40
0.5
 50
0.0
 51
180.0
  0
ARC
  5
1B2
  8
回08-記事
  6
CONTINUOUS
 62
     7
 10
363.3847379613499
 20
202.468681478329
 30
0.0
 40
0.5
 50
0.0
 51
180.0
  0
ARC
  5
1B3
  8
回08-記事
  6
CONTINUOUS
 62
     7
 10
339.3847379613498
 20
202.468681478329
 30
0.0
 40
0.5
 50
0.0
 51
180.0
  0
ARC
  5
1B4
  8
回08-記事
  6
CONTINUOUS
 62
     7
 10
335.3847379613498
 20
202.468681478329
 30
0.0
 40
0.5
 50
0.0
 51
180.0
  0
ARC
  5
1B5
  8
回08-記事
  6
CONTINUOUS
 62
     7
 10
347.3847379613498
 20
202.468681478329
 30
0.0
 40
0.5
 50
0.0
 51
180.0
  0
ARC
  5
1B6
  8
回08-記事
  6
CONTINUOUS
 62
     7
 10
343.3847379613498
 20
202.468681478329
 30
0.0
 40
0.5
 50
0.0
 51
180.0
  0
ARC
  5
1B7
  8
回08-記事
  6
CONTINUOUS
 62
     7
 10
351.3847379613499
 20
202.468681478329
 30
0.0
 40
0.5
 50
0.0
 51
180.0
  0
ARC
  5
1B8
  8
回08-記事
  6
CONTINUOUS
 62
     7
 10
411.3847379613497
 20
202.468681478329
 30
0.0
 40
0.5
 50
0.0
 51
180.0
  0
ARC
  5
1B9
  8
回08-記事
  6
CONTINUOUS
 62
     7
 10
395.3847379613499
 20
202.468681478329
 30
0.0
 40
0.5
 50
0.0
 51
180.0
  0
ARC
  5
1BA
  8
回08-記事
  6
CONTINUOUS
 62
     7
 10
407.3847379613497
 20
202.468681478329
 30
0.0
 40
0.5
 50
0.0
 51
180.0
  0
ARC
  5
1BB
  8
回08-記事
  6
CONTINUOUS
 62
     7
 10
399.3847379613498
 20
202.468681478329
 30
0.0
 40
0.5
 50
0.0
 51
180.0
  0
ARC
  5
1BC
  8
回08-記事
  6
CONTINUOUS
 62
     7
 10
403.3847379613497
 20
202.468681478329
 30
0.0
 40
0.5
 50
0.0
 51
180.0
  0
ARC
  5
1BD
  8
回08-記事
  6
CONTINUOUS
 62
     7
 10
379.3847379613499
 20
202.468681478329
 30
0.0
 40
0.5
 50
0.0
 51
180.0
  0
ARC
  5
1BE
  8
回08-記事
  6
CONTINUOUS
 62
     7
 10
375.3847379613499
 20
202.468681478329
 30
0.0
 40
0.5
 50
0.0
 51
180.0
  0
ARC
  5
1BF
  8
回08-記事
  6
CONTINUOUS
 62
     7
 10
387.3847379613498
 20
202.468681478329
 30
0.0
 40
0.5
 50
0.0
 51
180.0
  0
ARC
  5
1C0
  8
回08-記事
  6
CONTINUOUS
 62
     7
 10
383.3847379613498
 20
202.468681478329
 30
0.0
 40
0.5
 50
0.0
 51
180.0
  0
ARC
  5
1C1
  8
回08-記事
  6
CONTINUOUS
 62
     7
 10
391.3847379613498
 20
202.468681478329
 30
0.0
 40
0.5
 50
0.0
 51
180.0
  0
ARC
  5
1C2
  8
回08-記事
  6
CONTINUOUS
 62
     7
 10
451.3847379613499
 20
202.468681478329
 30
0.0
 40
0.5
 50
0.0
 51
180.0
  0
ARC
  5
1C3
  8
回08-記事
  6
CONTINUOUS
 62
     7
 10
435.3847379613497
 20
202.468681478329
 30
0.0
 40
0.5
 50
0.0
 51
180.0
  0
ARC
  5
1C4
  8
回08-記事
  6
CONTINUOUS
 62
     7
 10
447.3847379613498
 20
202.468681478329
 30
0.0
 40
0.5
 50
0.0
 51
180.0
  0
ARC
  5
1C5
  8
回08-記事
  6
CONTINUOUS
 62
     7
 10
439.3847379613498
 20
202.468681478329
 30
0.0
 40
0.5
 50
0.0
 51
180.0
  0
ARC
  5
1C6
  8
回08-記事
  6
CONTINUOUS
 62
     7
 10
443.3847379613498
 20
202.468681478329
 30
0.0
 40
0.5
 50
0.0
 51
180.0
  0
ARC
  5
1C7
  8
回08-記事
  6
CONTINUOUS
 62
     7
 10
419.3847379613497
 20
202.468681478329
 30
0.0
 40
0.5
 50
0.0
 51
180.0
  0
ARC
  5
1C8
  8
回08-記事
  6
CONTINUOUS
 62
     7
 10
415.3847379613497
 20
202.468681478329
 30
0.0
 40
0.5
 50
0.0
 51
180.0
  0
ARC
  5
1C9
  8
回08-記事
  6
CONTINUOUS
 62
     7
 10
427.3847379613497
 20
202.468681478329
 30
0.0
 40
0.5
 50
0.0
 51
180.0
  0
ARC
  5
1CA
  8
回08-記事
  6
CONTINUOUS
 62
     7
 10
423.3847379613497
 20
202.468681478329
 30
0.0
 40
0.5
 50
0.0
 51
180.0
  0
ARC
  5
1CB
  8
回08-記事
  6
CONTINUOUS
 62
     7
 10
431.3847379613497
 20
202.468681478329
 30
0.0
 40
0.5
 50
0.0
 51
180.0
  0
POLYLINE
  5
1CC
  8
回08-記事
  6
CONTINUOUS
 62
     7
 66
     1
 10
0.0
 20
0.0
 30
0.0
 70
     1
  0
VERTEX
  5
A25
  8
回08-記事
  6
CONTINUOUS
 62
     7
 10
265.8147814721165
 20
202.468681478329
 30
0.0
  0
VERTEX
  5
A27
  8
回08-記事
  6
CONTINUOUS
 62
     7
 10
274.7947814721165
 20
202.468681478329
 30
0.0
  0
VERTEX
  5
A28
  8
回08-記事
  6
CONTINUOUS
 62
     7
 10
274.7947814721165
 20
200.968681478329
 30
0.0
  0
VERTEX
  5
A29
  8
回08-記事
  6
CONTINUOUS
 62
     7
 10
265.8147814721165
 20
200.968681478329
 30
0.0
  0
SEQEND
  5
A26
  8
回04-下接
  6
CONTINUOUS
 62
     7
  0
ARC
  5
1CD
  8
回08-記事
  6
CONTINUOUS
 62
     7
 10
663.3847379613499
 20
202.468681478329
 30
0.0
 40
0.5
 50
0.0
 51
180.0
  0
ARC
  5
1CE
  8
回08-記事
  6
CONTINUOUS
 62
     7
 10
659.3847379613499
 20
202.468681478329
 30
0.0
 40
0.5
 50
0.0
 51
180.0
  0
ARC
  5
1CF
  8
回08-記事
  6
CONTINUOUS
 62
     7
 10
655.3847379613499
 20
202.468681478329
 30
0.0
 40
0.5
 50
0.0
 51
180.0
  0
ARC
  5
1D0
  8
回08-記事
  6
CONTINUOUS
 62
     7
 10
647.3847379613497
 20
202.468681478329
 30
0.0
 40
0.5
 50
0.0
 51
180.0
  0
ARC
  5
1D1
  8
回08-記事
  6
CONTINUOUS
 62
     7
 10
651.3847379613499
 20
202.468681478329
 30
0.0
 40
0.5
 50
0.0
 51
180.0
  0
LINE
  5
1D2
  8
回08-記事
  6
CONTINUOUS
 62
     7
 10
674.8947814721171
 20
202.468681478329
 30
0.0
 11
674.8947814721171
 21
209.468681478329
 31
0.0
  0
LINE
  5
1D3
  8
回08-記事
  6
CONTINUOUS
 62
     7
 10
194.7947814719614
 20
198.4686814783281
 30
0.0
 11
194.7947814719614
 21
205.4686814783281
 31
0.0
  0
LINE
  5
1D4
  8
回08-記事
  6
CONTINUOUS
 62
     7
 10
267.0484582219206
 20
206.468681478329
 30
0.0
 11
264.9157760611529
 21
209.3544843375466
 31
0.0
  0
LINE
  5
1D5
  8
回08-記事
  6
CONTINUOUS
 62
     7
 10
266.9710427720429
 20
201.892117654108
 30
0.0
 11
264.9157760611529
 21
209.3544843375466
 31
0.0
  0
LINE
  5
1D6
  8
回08-記事
  6
CONTINUOUS
 62
     7
 10
202.8366192186322
 20
200.4172422751017
 30
0.0
 11
209.1813440810001
 21
195.0010608611346
 31
0.0
  0
POLYLINE
  5
1D7
  8
回08-記事
  6
CONTINUOUS
 62
     7
 66
     1
 10
0.0
 20
0.0
 30
0.0
 70
     1
  0
VERTEX
  5
A2A
  8
回08-記事
  6
CONTINUOUS
 62
     7
 10
199.7947814721165
 20
205.468681478329
 30
0.0
  0
VERTEX
  5
A2C
  8
回08-記事
  6
CONTINUOUS
 62
     7
 10
275.2947814721165
 20
205.468681478329
 30
0.0
  0
VERTEX
  5
A2D
  8
回08-記事
  6
CONTINUOUS
 62
     7
 10
275.2947814721165
 20
206.968681478329
 30
0.0
  0
VERTEX
  5
A2E
  8
回08-記事
  6
CONTINUOUS
 62
     7
 10
199.7947814721165
 20
206.968681478329
 30
0.0
  0
SEQEND
  5
A2B
  8
回04-下接
  6
CONTINUOUS
 62
     7
  0
LINE
  5
1D8
  8
回08-記事
  6
CONTINUOUS
 62
     7
 10
284.1847814721168
 20
205.468681478329
 30
0.0
 11
284.1847814721168
 21
202.468681478329
 31
0.0
  0
DIMENSION
  5
1D9
  8
回07-寸法
  6
CONTINUOUS
 62
     7
  2
*D4646
 10
275.2947814721165
 20
220.1998581212911
 30
0.0
 11
294.5916318658173
 21
225.0998581212911
 31
0.0
 70
    32
  1
(<>)
  3
STANDARD
 13
274.7947814721165
 23
202.468681478329
 33
0.0
 14
275.2947814721165
 24
209.468681478329
 34
0.0
1001
ACAD
1000
DSTYLE
1002
{
1070
    41
1040
5.0
1070
    47
1040
0.3
1070
    48
1040
0.3
1070
   140
1040
8.0
1070
   141
1040
1.5
1070
   146
1040
0.7
1070
   271
1070
     1
1070
   272
1070
     1
1070
   283
1070
     0
1070
   288
1070
     0
1070
   341
1005
0
1070
   371
1070
    13
1070
   372
1070
    13
1002
}
  0
DIMENSION
  5
1EB
  8
回07-寸法
  6
CONTINUOUS
 62
     7
  2
*D4747
 10
675.3947814721167
 20
221.3321718492553
 30
0.0
 11
694.6916318658176
 21
226.2321718492553
 31
0.0
 70
    32
  1
(<>)
  3
STANDARD
 13
674.8947814721169
 23
209.468681478329
 33
0.0
 14
675.3947814721167
 24
202.468681478329
 34
0.0
1001
ACAD
1000
DSTYLE
1002
{
1070
    41
1040
5.0
1070
    47
1040
0.3
1070
    48
1040
0.3
1070
   140
1040
8.0
1070
   141
1040
1.5
1070
   146
1040
0.7
1070
   271
1070
     1
1070
   272
1070
     1
1070
   283
1070
     0
1070
   288
1070
     0
1070
   341
1005
0
1070
   371
1070
    13
1070
   372
1070
    13
1002
}
  0
LINE
  5
1FC
  8
回08-記事
  6
CONTINUOUS
 62
     7
 10
275.5207358632797
 20
195.0460636942825
 30
0.0
 11
278.5252730566699
 21
189.1853386100791
 31
0.0
  0
TEXT
  5
1FD
  8
回08-記事
  6
CONTINUOUS
 62
     7
 10
278.4953808724458
 20
183.4013365990422
 30
0.0
 40
8.0
  1
6
  0
LINE
  5
1FE
  8
回08-記事
  6
CONTINUOUS
 62
     7
 10
273.2947814721165
 20
194.968681478329
 30
0.0
 11
273.2947814721165
 21
199.468681478329
 31
0.0
  0
LINE
  5
1FF
  8
回08-記事
  6
CONTINUOUS
 62
     7
 10
278.2947814721165
 20
194.968681478329
 30
0.0
 11
273.2947814721165
 21
194.968681478329
 31
0.0
  0
LINE
  5
200
  8
回08-記事
  6
CONTINUOUS
 62
     7
 10
278.2947814721165
 20
196.468681478329
 30
0.0
 11
278.2947814721165
 21
194.968681478329
 31
0.0
  0
LINE
  5
201
  8
回08-記事
  6
CONTINUOUS
 62
     7
 10
270.6032984677158
 20
199.468681478329
 30
0.0
 11
273.2947814721165
 21
199.468681478329
 31
0.0
  0
LINE
  5
202
  8
回08-記事
  6
CONTINUOUS
 62
     7
 10
270.6032984677158
 20
200.968681478329
 30
0.0
 11
270.6032984677158
 21
199.468681478329
 31
0.0
  0
LINE
  5
203
  8
回08-記事
  6
CONTINUOUS
 62
     7
 10
666.0047814721165
 20
202.468681478329
 30
0.0
 11
666.0047814721165
 21
205.468681478329
 31
0.0
  0
LINE
  5
204
  8
回08-記事
  6
CONTINUOUS
 62
     7
 10
675.3947814721167
 20
196.4686814783281
 30
0.0
 11
675.3947814721167
 21
202.468681478329
 31
0.0
  0
DIMENSION
  5
205
  8
回07-寸法
  6
CONTINUOUS
 62
     5
  2
*D4848
 10
688.4071410404567
 20
196.468681478329
 30
0.0
 11
688.4071410404567
 21
174.6919590373832
 31
0.0
 70
   160
  1
2.1{\H0.625x;±0.2}
  3
STANDARD
 13
674.8947814721169
 23
209.4686814783272
 33
0.0
 14
675.3947814721167
 24
196.468681478329
 34
0.0
 50
90.0
1001
ACADSTRINGINFO
1000
MIFCodePage
1070
     1
1001
ACAD
1000
DSTYLE
1002
{
1070
    41
1040
5.0
1070
    47
1040
0.3
1070
    48
1040
0.3
1070
   140
1040
8.0
1070
   141
1040
1.5
1070
   146
1040
0.7
1070
   271
1070
     1
1070
   272
1070
     1
1070
   283
1070
     0
1070
   288
1070
     0
1070
   341
1005
0
1070
   371
1070
    13
1070
   372
1070
    13
1002
}
  0
ARC
  5
216
  8
回08-記事
  6
CONTINUOUS
 62
     7
 10
639.3847379613497
 20
202.468681478329
 30
0.0
 40
0.5
 50
0.0
 51
180.0
  0
ARC
  5
217
  8
回08-記事
  6
CONTINUOUS
 62
     7
 10
635.3847379613497
 20
202.468681478329
 30
0.0
 40
0.5
 50
0.0
 51
180.0
  0
ARC
  5
218
  8
回08-記事
  6
CONTINUOUS
 62
     7
 10
643.3847379613497
 20
202.468681478329
 30
0.0
 40
0.5
 50
0.0
 51
180.0
  0
ARC
  5
219
  8
回08-記事
  6
CONTINUOUS
 62
     7
 10
619.3847379613497
 20
202.468681478329
 30
0.0
 40
0.5
 50
0.0
 51
180.0
  0
ARC
  5
21A
  8
回08-記事
  6
CONTINUOUS
 62
     7
 10
631.3847379613497
 20
202.468681478329
 30
0.0
 40
0.5
 50
0.0
 51
180.0
  0
ARC
  5
21B
  8
回08-記事
  6
CONTINUOUS
 62
     7
 10
623.3847379613497
 20
202.468681478329
 30
0.0
 40
0.5
 50
0.0
 51
180.0
  0
ARC
  5
21C
  8
回08-記事
  6
CONTINUOUS
 62
     7
 10
627.3847379613497
 20
202.468681478329
 30
0.0
 40
0.5
 50
0.0
 51
180.0
  0
ARC
  5
21D
  8
回08-記事
  6
CONTINUOUS
 62
     7
 10
603.3847379613497
 20
202.468681478329
 30
0.0
 40
0.5
 50
0.0
 51
180.0
  0
ARC
  5
21E
  8
回08-記事
  6
CONTINUOUS
 62
     7
 10
599.3847379613497
 20
202.468681478329
 30
0.0
 40
0.5
 50
0.0
 51
180.0
  0
ARC
  5
21F
  8
回08-記事
  6
CONTINUOUS
 62
     7
 10
611.3847379613497
 20
202.468681478329
 30
0.0
 40
0.5
 50
0.0
 51
180.0
  0
ARC
  5
220
  8
回08-記事
  6
CONTINUOUS
 62
     7
 10
607.3847379613497
 20
202.468681478329
 30
0.0
 40
0.5
 50
0.0
 51
180.0
  0
ARC
  5
221
  8
回08-記事
  6
CONTINUOUS
 62
     7
 10
615.3847379613497
 20
202.468681478329
 30
0.0
 40
0.5
 50
0.0
 51
180.0
  0
ARC
  5
222
  8
回08-記事
  6
CONTINUOUS
 62
     7
 10
583.3847379613497
 20
202.468681478329
 30
0.0
 40
0.5
 50
0.0
 51
180.0
  0
ARC
  5
223
  8
回08-記事
  6
CONTINUOUS
 62
     7
 10
587.3847379613497
 20
202.468681478329
 30
0.0
 40
0.5
 50
0.0
 51
180.0
  0
ARC
  5
224
  8
回08-記事
  6
CONTINUOUS
 62
     7
 10
591.3847379613497
 20
202.468681478329
 30
0.0
 40
0.5
 50
0.0
 51
180.0
  0
ARC
  5
225
  8
回08-記事
  6
CONTINUOUS
 62
     7
 10
595.3847379613497
 20
202.468681478329
 30
0.0
 40
0.5
 50
0.0
 51
180.0
  0
ARC
  5
226
  8
回08-記事
  6
CONTINUOUS
 62
     7
 10
563.3847379613497
 20
202.468681478329
 30
0.0
 40
0.5
 50
0.0
 51
180.0
  0
ARC
  5
227
  8
回08-記事
  6
CONTINUOUS
 62
     7
 10
567.3847379613497
 20
202.468681478329
 30
0.0
 40
0.5
 50
0.0
 51
180.0
  0
ARC
  5
228
  8
回08-記事
  6
CONTINUOUS
 62
     7
 10
571.3847379613497
 20
202.468681478329
 30
0.0
 40
0.5
 50
0.0
 51
180.0
  0
ARC
  5
229
  8
回08-記事
  6
CONTINUOUS
 62
     7
 10
575.3847379613497
 20
202.468681478329
 30
0.0
 40
0.5
 50
0.0
 51
180.0
  0
ARC
  5
22A
  8
回08-記事
  6
CONTINUOUS
 62
     7
 10
579.3847379613497
 20
202.468681478329
 30
0.0
 40
0.5
 50
0.0
 51
180.0
  0
ARC
  5
22B
  8
回08-記事
  6
CONTINUOUS
 62
     7
 10
555.3847379613499
 20
202.468681478329
 30
0.0
 40
0.5
 50
0.0
 51
180.0
  0
ARC
  5
22C
  8
回08-記事
  6
CONTINUOUS
 62
     7
 10
547.3847379613497
 20
202.468681478329
 30
0.0
 40
0.5
 50
0.0
 51
180.0
  0
ARC
  5
22D
  8
回08-記事
  6
CONTINUOUS
 62
     7
 10
551.3847379613499
 20
202.468681478329
 30
0.0
 40
0.5
 50
0.0
 51
180.0
  0
ARC
  5
22E
  8
回08-記事
  6
CONTINUOUS
 62
     7
 10
559.3847379613499
 20
202.468681478329
 30
0.0
 40
0.5
 50
0.0
 51
180.0
  0
LINE
  5
22F
  8
回08-記事
  6
CONTINUOUS
 62
     7
 10
532.8583330726196
 20
198.3328090571485
 30
0.0
 11
538.8465182778908
 21
191.446939418376
 31
0.0
  0
ARC
  5
230
  8
回08-記事
  6
CONTINUOUS
 62
     7
 10
535.3847379613497
 20
202.468681478329
 30
0.0
 40
0.5
 50
0.0
 51
180.0
  0
ARC
  5
231
  8
回08-記事
  6
CONTINUOUS
 62
     7
 10
527.3847379613497
 20
202.468681478329
 30
0.0
 40
0.5
 50
0.0
 51
180.0
  0
ARC
  5
232
  8
回08-記事
  6
CONTINUOUS
 62
     7
 10
531.3847379613497
 20
202.468681478329
 30
0.0
 40
0.5
 50
0.0
 51
180.0
  0
TEXT
  5
233
  8
回08-記事
  6
CONTINUOUS
 62
     7
 10
539.5331184970326
 20
187.1052810568198
 30
0.0
 40
8.0
  1
2
  0
ARC
  5
234
  8
回08-記事
  6
CONTINUOUS
 62
     7
 10
539.3847379613497
 20
202.468681478329
 30
0.0
 40
0.5
 50
0.0
 51
180.0
  0
ARC
  5
235
  8
回08-記事
  6
CONTINUOUS
 62
     7
 10
543.3847379613497
 20
202.468681478329
 30
0.0
 40
0.5
 50
0.0
 51
180.0
  0
ARC
  5
236
  8
回08-記事
  6
CONTINUOUS
 62
     7
 10
515.3847379613497
 20
202.468681478329
 30
0.0
 40
0.5
 50
0.0
 51
180.0
  0
ARC
  5
237
  8
回08-記事
  6
CONTINUOUS
 62
     7
 10
511.3847379613497
 20
202.468681478329
 30
0.0
 40
0.5
 50
0.0
 51
180.0
  0
ARC
  5
238
  8
回08-記事
  6
CONTINUOUS
 62
     7
 10
519.3847379613497
 20
202.468681478329
 30
0.0
 40
0.5
 50
0.0
 51
180.0
  0
ARC
  5
239
  8
回08-記事
  6
CONTINUOUS
 62
     7
 10
523.3847379613497
 20
202.468681478329
 30
0.0
 40
0.5
 50
0.0
 51
180.0
  0
ARC
  5
23A
  8
回08-記事
  6
CONTINUOUS
 62
     7
 10
491.3847379613498
 20
202.468681478329
 30
0.0
 40
0.5
 50
0.0
 51
180.0
  0
ARC
  5
23B
  8
回08-記事
  6
CONTINUOUS
 62
     7
 10
495.3847379613498
 20
202.468681478329
 30
0.0
 40
0.5
 50
0.0
 51
180.0
  0
ARC
  5
23C
  8
回08-記事
  6
CONTINUOUS
 62
     7
 10
507.3847379613497
 20
202.468681478329
 30
0.0
 40
0.5
 50
0.0
 51
180.0
  0
ARC
  5
23D
  8
回08-記事
  6
CONTINUOUS
 62
     7
 10
499.3847379613497
 20
202.468681478329
 30
0.0
 40
0.5
 50
0.0
 51
180.0
  0
ARC
  5
23E
  8
回08-記事
  6
CONTINUOUS
 62
     7
 10
503.3847379613497
 20
202.468681478329
 30
0.0
 40
0.5
 50
0.0
 51
180.0
  0
ARC
  5
23F
  8
回08-記事
  6
CONTINUOUS
 62
     7
 10
475.3847379613498
 20
202.468681478329
 30
0.0
 40
0.5
 50
0.0
 51
180.0
  0
TEXT
  5
240
  8
回08-記事
  6
CONTINUOUS
 62
     7
 10
474.6079022141256
 20
214.7995275722114
 30
0.0
 40
8.0
  1
1
  0
ARC
  5
241
  8
回08-記事
  6
CONTINUOUS
 62
     7
 10
487.3847379613498
 20
202.468681478329
 30
0.0
 40
0.5
 50
0.0
 51
180.0
  0
ARC
  5
242
  8
回08-記事
  6
CONTINUOUS
 62
     7
 10
479.3847379613498
 20
202.468681478329
 30
0.0
 40
0.5
 50
0.0
 51
180.0
  0
ARC
  5
243
  8
回08-記事
  6
CONTINUOUS
 62
     7
 10
483.3847379613498
 20
202.468681478329
 30
0.0
 40
0.5
 50
0.0
 51
180.0
  0
LINE
  5
244
  8
回08-記事
  6
CONTINUOUS
 62
     7
 10
483.8031194127934
 20
207.783409036635
 30
0.0
 11
478.4928411874206
 21
213.6533306959172
 31
0.0
  0
ARC
  5
245
  8
回08-記事
  6
CONTINUOUS
 62
     7
 10
459.3847379613499
 20
202.468681478329
 30
0.0
 40
0.5
 50
0.0
 51
180.0
  0
ARC
  5
246
  8
回08-記事
  6
CONTINUOUS
 62
     7
 10
455.3847379613499
 20
202.468681478329
 30
0.0
 40
0.5
 50
0.0
 51
180.0
  0
ARC
  5
247
  8
回08-記事
  6
CONTINUOUS
 62
     7
 10
467.3847379613498
 20
202.468681478329
 30
0.0
 40
0.5
 50
0.0
 51
180.0
  0
ARC
  5
248
  8
回08-記事
  6
CONTINUOUS
 62
     7
 10
463.3847379613498
 20
202.468681478329
 30
0.0
 40
0.5
 50
0.0
 51
180.0
  0
ARC
  5
249
  8
回08-記事
  6
CONTINUOUS
 62
     7
 10
471.3847379613498
 20
202.468681478329
 30
0.0
 40
0.5
 50
0.0
 51
180.0
  0
LINE
  5
24A
  8
回08-記事
  6
CONTINUOUS
 62
     7
 10
275.2947814721165
 20
205.468681478329
 30
0.0
 11
275.2947814721165
 21
209.468681478329
 31
0.0
  0
LINE
  5
24B
  8
回08-記事
  6
CONTINUOUS
 62
     7
 10
274.7947814721165
 20
196.4686814783281
 30
0.0
 11
274.7947814721165
 21
202.468681478329
 31
0.0
  0
LINE
  5
24C
  8
回08-記事
  6
CONTINUOUS
 62
     7
 10
257.7402673957131
 20
203.8067360089726
 30
0.0
 11
260.7448045891033
 21
197.9460109247693
 31
0.0
  0
TEXT
  5
24D
  8
回08-記事
  6
CONTINUOUS
 62
     7
 10
260.7149124048792
 20
192.1620089137323
 30
0.0
 40
8.0
  1
3
  0
TEXT
  5
24E
  8
回08-記事
  6
CONTINUOUS
 62
     7
 10
264.5102619262657
 20
209.9048370577739
 30
0.0
 40
8.0
  1
5
  0
LINE
  5
24F
  8
回08-記事
  6
CONTINUOUS
 62
     7
 10
204.7948249827286
 20
198.4686814783271
 30
0.0
 11
204.7948249827286
 21
202.4686814783272
 31
0.0
  0
TEXT
  5
250
  8
回08-記事
  6
CONTINUOUS
 62
     7
 10
208.542810702379
 20
191.3267693685002
 30
0.0
 40
8.0
  1
4
  0
DIMENSION
  5
251
  8
回07-寸法
  6
CONTINUOUS
 62
     5
  2
*D4949
 10
187.2886992057356
 20
198.4686814783271
 30
0.0
 11
187.2886992057356
 21
173.3895520745627
 31
0.0
 70
   160
  1
0.3{\H0.7x;±0.05}
  3
STANDARD
 13
194.7948249827286
 23
205.4686814783272
 33
0.0
 14
194.7948249827286
 24
198.4686814783271
 34
0.0
 50
90.0
1001
ACADSTRINGINFO
1000
MIFCodePage
1070
     1
1001
ACAD
1000
DSTYLE
1002
{
1070
    41
1040
5.0
1070
    47
1040
0.3
1070
    48
1040
0.3
1070
   140
1040
8.0
1070
   141
1040
1.5
1070
   146
1040
0.7
1070
   271
1070
     1
1070
   272
1070
     1
1070
   283
1070
     0
1070
   288
1070
     0
1070
   341
1005
0
1070
   371
1070
    13
1070
   372
1070
    13
1002
}
  0
DIMENSION
  5
262
  8
回07-寸法
  6
CONTINUOUS
 62
     5
  2
*D5050
 10
199.7947814719614
 20
212.7498653679495
 30
0.0
 11
212.0604668969106
 21
212.7498653679495
 31
0.0
 70
   160
  3
STANDARD
 13
194.7947814719614
 23
205.4686814783272
 33
0.0
 14
199.7947814719614
 24
205.4686814783272
 34
0.0
1001
ACAD
1000
DSTYLE
1002
{
1070
    41
1040
5.0
1070
    47
1040
0.3
1070
    48
1040
0.3
1070
   140
1040
8.0
1070
   141
1040
1.5
1070
   146
1040
0.7
1070
   271
1070
     1
1070
   272
1070
     1
1070
   283
1070
     0
1070
   288
1070
     0
1070
   341
1005
0
1070
   371
1070
    13
1070
   372
1070
    13
1002
}
  0
LINE
  5
273
  8
回08-記事
  6
CONTINUOUS
 62
     7
 10
194.7948249827286
 20
198.4686814783271
 30
0.0
 11
204.7948249827286
 21
198.4686814783271
 31
0.0
  0
DIMENSION
  5
274
  8
回07-寸法
  6
CONTINUOUS
 62
     5
  2
*D5151
 10
204.7948249827286
 20
178.8130303499492
 30
0.0
 11
222.0916753764295
 21
178.8130303499492
 31
0.0
 70
   160
  1
(<>)
  3
STANDARD
 13
194.7947814719614
 23
198.4686814783281
 33
0.0
 14
204.7948249827286
 24
198.4686814783271
 34
0.0
1001
ACAD
1000
DSTYLE
1002
{
1070
    41
1040
5.0
1070
    47
1040
0.3
1070
    48
1040
0.3
1070
   140
1040
8.0
1070
   141
1040
1.5
1070
   146
1040
0.7
1070
   271
1070
     1
1070
   272
1070
     1
1070
   283
1070
     0
1070
   288
1070
     0
1070
   341
1005
0
1070
   371
1070
    13
1070
   372
1070
    13
1002
}
  0
LINE
  5
285
  8
回08-記事
  6
CONTINUOUS
 62
     7
 10
194.7947814719593
 20
202.468681478329
 30
0.0
 11
675.3947814721172
 21
202.468681478329
 31
0.0
  0
LINE
  5
286
  8
回08-記事
  6
CONTINUOUS
 62
     7
 10
194.7947814719614
 20
205.4686814783281
 30
0.0
 11
674.8947814721169
 21
205.4686814783281
 31
0.0
  0
LINE
  5
287
  8
回08-記事
  6
CONTINUOUS
 62
     7
 10
274.7947814721165
 20
196.4686814783281
 30
0.0
 11
675.3947814721167
 21
196.4686814783281
 31
0.0
  0
LINE
  5
288
  8
回08-記事
  6
CONTINUOUS
 62
     7
 10
275.2947814721165
 20
209.468681478329
 30
0.0
 11
674.8947814721169
 21
209.4686814783272
 31
0.0
  0
DIMENSION
  5
289
  8
回07-寸法
  6
CONTINUOUS
 62
     5
  2
*D5252
 10
185.3587023929253
 20
245.0985953890858
 30
0.0
 11
180.4587023929253
 21
325.1360708224224
 31
0.0
 70
    32
  1
(<>)
  3
STANDARD
 13
196.3017474413473
 23
405.173546255759
 33
0.0
 14
275.7947814721165
 24
245.0985953890858
 34
0.0
 50
90.0
1001
ACAD
1000
DSTYLE
1002
{
1070
    41
1040
5.0
1070
    47
1040
0.3
1070
    48
1040
0.3
1070
   140
1040
8.0
1070
   141
1040
1.5
1070
   146
1040
0.7
1070
   271
1070
     1
1070
   272
1070
     1
1070
   283
1070
     0
1070
   288
1070
     0
1070
   341
1005
0
1070
   371
1070
    13
1070
   372
1070
    13
1002
}
  0
DIMENSION
  5
298
  8
回07-寸法
  6
CONTINUOUS
 62
     5
  2
*D5353
 10
274.7947814721165
 20
618.6265953890856
 30
0.0
 11
230.914515724085
 21
623.2515953890856
 31
0.0
 70
    32
  1
<> {\H0.625x;(Insulation area)}
  3
STANDARD
 13
284.1847814721177
 23
561.8765953890861
 33
0.0
 14
274.7947814721165
 24
571.4985953890864
 34
0.0
1001
ACADSTRINGINFO
1000
MIFCodePage
1070
     1
1001
ACAD
1000
DSTYLE
1002
{
1070
    41
1040
5.0
1070
    47
1040
0.3
1070
    48
1040
0.3
1070
   140
1040
8.0
1070
   141
1040
1.5
1070
   146
1040
0.7
1070
   271
1070
     1
1070
   272
1070
     1
1070
   283
1070
     0
1070
   288
1070
     0
1070
   341
1005
0
1070
   371
1070
    13
1070
   372
1070
    13
1002
}
  0
DIMENSION
  5
2A9
  8
回07-寸法
  6
CONTINUOUS
 62
     1
  2
*D5454
 10
274.7947814721165
 20
603.6265953890856
 30
0.0
 11
258.24272213116
 21
603.6265953890856
 31
0.0
 70
   160
  3
STANDARD
 13
284.6847814721168
 23
561.0765953890858
 33
0.0
 14
274.7947814721165
 24
571.4985953890864
 34
0.0
1001
ACAD
1000
DSTYLE
1002
{
1070
    41
1040
5.0
1070
    47
1040
0.3
1070
    48
1040
0.3
1070
   140
1040
8.0
1070
   141
1040
1.5
1070
   146
1040
0.7
1070
   271
1070
     1
1070
   272
1070
     1
1070
   283
1070
     0
1070
   288
1070
     0
1070
   341
1005
0
1070
   371
1070
    13
1070
   372
1070
    13
1002
}
  0
DIMENSION
  5
2BA
  8
回07-寸法
  6
CONTINUOUS
 62
     1
  2
*D5555
 10
274.7947814721165
 20
588.6265953890856
 30
0.0
 11
257.2084075561093
 21
588.6265953890856
 31
0.0
 70
   160
  3
STANDARD
 13
286.6847814721168
 23
559.0765953890858
 33
0.0
 14
274.7947814721165
 24
571.4985953890864
 34
0.0
1001
ACAD
1000
DSTYLE
1002
{
1070
    41
1040
5.0
1070
    47
1040
0.3
1070
    48
1040
0.3
1070
   140
1040
8.0
1070
   141
1040
1.5
1070
   146
1040
0.7
1070
   271
1070
     1
1070
   272
1070
     1
1070
   283
1070
     0
1070
   288
1070
     0
1070
   341
1005
0
1070
   371
1070
    13
1070
   372
1070
    13
1002
}
  0
DIMENSION
  5
2CB
  8
回07-寸法
  6
CONTINUOUS
 62
     5
  2
*D5656
 10
675.3947814721167
 20
618.6265953890856
 30
0.0
 11
695.1060733399257
 21
623.5265953890856
 31
0.0
 70
    32
  1
(<>)
  3
STANDARD
 13
666.0047814721165
 23
561.8765953890873
 33
0.0
 14
675.3947814721167
 24
571.4985953890864
 34
0.0
1001
ACADSTRINGINFO
1000
MIFCodePage
1070
     1
1001
ACAD
1000
DSTYLE
1002
{
1070
    41
1040
5.0
1070
    47
1040
0.3
1070
    48
1040
0.3
1070
   140
1040
8.0
1070
   141
1040
1.5
1070
   146
1040
0.7
1070
   271
1070
     1
1070
   272
1070
     1
1070
   283
1070
     0
1070
   288
1070
     0
1070
   341
1005
0
1070
   371
1070
    13
1070
   372
1070
    13
1002
}
  0
DIMENSION
  5
2DC
  8
回07-寸法
  6
CONTINUOUS
 62
     5
  2
*D5757
 10
751.5047814721228
 20
571.4985953890828
 30
0.0
 11
746.6047814721227
 21
615.7917278080725
 31
0.0
 70
    32
  1
(<>){\H0.625x;(Insulation area)}
  3
STANDARD
 13
666.0047814721165
 23
561.8765953890873
 33
0.0
 14
675.3947814721167
 24
571.4985953890828
 34
0.0
 50
90.0
1001
ACADSTRINGINFO
1000
MIFCodePage
1070
     1
1001
ACAD
1000
DSTYLE
1002
{
1070
    41
1040
5.0
1070
    47
1040
0.3
1070
    48
1040
0.3
1070
   140
1040
8.0
1070
   141
1040
1.5
1070
   146
1040
0.7
1070
   271
1070
     1
1070
   272
1070
     1
1070
   283
1070
     0
1070
   288
1070
     0
1070
   341
1005
0
1070
   371
1070
    13
1070
   372
1070
    13
1002
}
  0
DIMENSION
  5
2ED
  8
回07-寸法
  6
CONTINUOUS
 62
     5
  2
*D5858
 10
751.5047814721173
 20
254.7205953890862
 30
0.0
 11
751.5047814721173
 21
408.2985953890855
 31
0.0
 70
   160
  3
STANDARD
 13
666.0047814721165
 23
561.8765953890865
 33
0.0
 14
666.0047814721165
 24
254.7205953890862
 34
0.0
 50
90.0
1001
ACAD
1000
DSTYLE
1002
{
1070
    41
1040
5.0
1070
    47
1040
0.3
1070
    48
1040
0.3
1070
   140
1040
8.0
1070
   141
1040
1.5
1070
   146
1040
0.7
1070
   271
1070
     1
1070
   272
1070
     1
1070
   283
1070
     0
1070
   288
1070
     0
1070
   341
1005
0
1070
   371
1070
    13
1070
   372
1070
    13
1002
}
  0
DIMENSION
  5
2FC
  8
回07-寸法
  6
CONTINUOUS
 62
     5
  2
*D5959
 10
284.1847814721168
 20
618.6265953890856
 30
0.0
 11
475.0947814721167
 21
618.6265953890856
 31
0.0
 70
   160
  3
STANDARD
 13
666.0047814721165
 23
561.8765953890873
 33
0.0
 14
284.1847814721168
 24
561.8765953890873
 34
0.0
1001
ACAD
1000
DSTYLE
1002
{
1070
    41
1040
5.0
1070
    47
1040
0.3
1070
    48
1040
0.3
1070
   140
1040
8.0
1070
   141
1040
1.5
1070
   146
1040
0.7
1070
   271
1070
     1
1070
   272
1070
     1
1070
   283
1070
     0
1070
   288
1070
     0
1070
   341
1005
0
1070
   371
1070
    13
1070
   372
1070
    13
1002
}
  0
DIMENSION
  5
30B
  8
回07-寸法
  6
CONTINUOUS
 62
     5
  2
*D6060
 10
675.3947814721167
 20
603.6265953890856
 30
0.0
 11
694.7205148140335
 21
603.6265953890856
 31
0.0
 70
   160
  1
(<>)
  3
STANDARD
 13
665.5047814721164
 23
561.0765953890858
 33
0.0
 14
675.3947814721167
 24
571.4985953890844
 34
0.0
1001
ACAD
1000
DSTYLE
1002
{
1070
    41
1040
5.0
1070
    47
1040
0.3
1070
    48
1040
0.3
1070
   140
1040
8.0
1070
   141
1040
1.5
1070
   146
1040
0.7
1070
   271
1070
     1
1070
   272
1070
     1
1070
   283
1070
     0
1070
   288
1070
     0
1070
   341
1005
0
1070
   371
1070
    13
1070
   372
1070
    13
1002
}
  0
DIMENSION
  5
31C
  8
回07-寸法
  6
CONTINUOUS
 62
     5
  2
*D6161
 10
675.3947814721167
 20
588.6265953890856
 30
0.0
 11
695.9060733399256
 21
588.6265953890856
 31
0.0
 70
   160
  1
(<>)
  3
STANDARD
 13
663.5047814721165
 23
559.0765953890858
 33
0.0
 14
675.3947814721167
 24
571.4985953890844
 34
0.0
1001
ACAD
1000
DSTYLE
1002
{
1070
    41
1040
5.0
1070
    47
1040
0.3
1070
    48
1040
0.3
1070
   140
1040
8.0
1070
   141
1040
1.5
1070
   146
1040
0.7
1070
   271
1070
     1
1070
   272
1070
     1
1070
   283
1070
     0
1070
   288
1070
     0
1070
   341
1005
0
1070
   371
1070
    13
1070
   372
1070
    13
1002
}
  0
DIMENSION
  5
32D
  8
回07-寸法
  6
CONTINUOUS
 62
     5
  2
*D6262
 10
721.5047814721165
 20
571.4985953890808
 30
0.0
 11
721.5047814721165
 21
593.1954457827854
 31
0.0
 70
   160
  1
(<>)
  3
STANDARD
 13
663.5047814721165
 23
559.0765953890858
 33
0.0
 14
675.3947814721167
 24
571.4985953890808
 34
0.0
 50
90.0
1001
ACAD
1000
DSTYLE
1002
{
1070
    41
1040
5.0
1070
    47
1040
0.3
1070
    48
1040
0.3
1070
   140
1040
8.0
1070
   141
1040
1.5
1070
   146
1040
0.7
1070
   271
1070
     1
1070
   272
1070
     1
1070
   283
1070
     0
1070
   288
1070
     0
1070
   341
1005
0
1070
   371
1070
    13
1070
   372
1070
    13
1002
}
  0
DIMENSION
  5
33E
  8
回07-寸法
  6
CONTINUOUS
 62
     5
  2
*D6363
 10
736.5047814721227
 20
571.4985953890808
 30
0.0
 11
731.6047814721228
 21
593.1954457827815
 31
0.0
 70
    32
  1
(<>)
  3
STANDARD
 13
665.5047814721164
 23
561.0765953890858
 33
0.0
 14
675.3947814721167
 24
571.4985953890808
 34
0.0
 50
90.0
1001
ACAD
1000
DSTYLE
1002
{
1070
    41
1040
5.0
1070
    47
1040
0.3
1070
    48
1040
0.3
1070
   140
1040
8.0
1070
   141
1040
1.5
1070
   146
1040
0.7
1070
   271
1070
     1
1070
   272
1070
     1
1070
   283
1070
     0
1070
   288
1070
     0
1070
   341
1005
0
1070
   371
1070
    13
1070
   372
1070
    13
1002
}
  0
DIMENSION
  5
34F
  8
回07-寸法
  6
CONTINUOUS
 62
     1
  2
*D6464
 10
736.5047814721182
 20
255.5205953890859
 30
0.0
 11
736.5047814721182
 21
408.2985953890847
 31
0.0
 70
   160
  1
<> {\H0.75x;(VIEWING AREA)}
  3
STANDARD
 13
665.5047814721164
 23
561.076595389085
 33
0.0
 14
665.5047814721164
 24
255.5205953890859
 34
0.0
 50
90.0
1001
ACAD
1000
DSTYLE
1002
{
1070
    41
1040
5.0
1070
    47
1040
0.3
1070
    48
1040
0.3
1070
   140
1040
8.0
1070
   141
1040
1.5
1070
   146
1040
0.7
1070
   271
1070
     1
1070
   272
1070
     1
1070
   283
1070
     0
1070
   288
1070
     0
1070
   341
1005
0
1070
   371
1070
    13
1070
   372
1070
    13
1002
}
  0
DIMENSION
  5
35E
  8
回07-寸法
  6
CONTINUOUS
 62
     1
  2
*D6565
 10
721.5047814721165
 20
559.0765953890858
 30
0.0
 11
721.5047814721165
 21
408.2985953890911
 31
0.0
 70
   160
  1
<> {\H0.75x;(ACTIVE AREA)}
  3
STANDARD
 13
663.5047814721165
 23
257.520595389086
 33
0.0
 14
663.5047814721165
 24
559.0765953890858
 34
0.0
 50
90.0
1001
ACAD
1000
DSTYLE
1002
{
1070
    41
1040
5.0
1070
    47
1040
0.3
1070
    48
1040
0.3
1070
   140
1040
8.0
1070
   141
1040
1.5
1070
   146
1040
0.7
1070
   271
1070
     1
1070
   272
1070
     1
1070
   283
1070
     0
1070
   288
1070
     0
1070
   341
1005
0
1070
   371
1070
    13
1070
   372
1070
    13
1002
}
  0
DIMENSION
  5
36D
  8
回07-寸法
  6
CONTINUOUS
 62
     1
  2
*D6666
 10
665.5047814721164
 20
603.6265953890856
 30
0.0
 11
475.0947814721167
 21
603.6265953890856
 31
0.0
 70
   160
  1
<> {\H0.75x;(VIEWING AREA)}
  3
STANDARD
 13
284.6847814721168
 23
561.0765953890858
 33
0.0
 14
665.5047814721164
 24
561.0765953890858
 34
0.0
1001
ACAD
1000
DSTYLE
1002
{
1070
    41
1040
5.0
1070
    47
1040
0.3
1070
    48
1040
0.3
1070
   140
1040
8.0
1070
   141
1040
1.5
1070
   146
1040
0.7
1070
   271
1070
     1
1070
   272
1070
     1
1070
   283
1070
     0
1070
   288
1070
     0
1070
   341
1005
0
1070
   371
1070
    13
1070
   372
1070
    13
1002
}
  0
DIMENSION
  5
37C
  8
回07-寸法
  6
CONTINUOUS
 62
     1
  2
*D6767
 10
663.5047814721165
 20
588.6265953890856
 30
0.0
 11
475.0947814721167
 21
588.6265953890856
 31
0.0
 70
   160
  1
<> {\H0.75x;(ACTIVE AREA)}
  3
STANDARD
 13
286.6847814721168
 23
559.0765953890858
 33
0.0
 14
663.5047814721165
 24
559.0765953890858
 34
0.0
1001
ACAD
1000
DSTYLE
1002
{
1070
    41
1040
5.0
1070
    47
1040
0.3
1070
    48
1040
0.3
1070
   140
1040
8.0
1070
   141
1040
1.5
1070
   146
1040
0.7
1070
   271
1070
     1
1070
   272
1070
     1
1070
   283
1070
     0
1070
   288
1070
     0
1070
   341
1005
0
1070
   371
1070
    13
1070
   372
1070
    13
1002
}
  0
TEXT
  5
38B
  8
回08-記事
  6
CONTINUOUS
 62
     7
 10
458.1855420606816
 20
546.3132380546672
 30
0.0
 40
8.0
  1
YU
  0
TEXT
  5
38C
  8
回08-記事
  6
CONTINUOUS
 62
     7
 10
459.1530576094564
 20
262.9326750652694
 30
0.0
 40
8.0
  1
YD
  0
TEXT
  5
38D
  8
回08-記事
  6
CONTINUOUS
 62
     7
 10
289.715903324247
 20
412.2737078177182
 30
0.0
 40
8.0
  1
XL
  0
TEXT
  5
38E
  8
回08-記事
  6
CONTINUOUS
 62
     7
 10
645.6584962430015
 20
412.1820535629217
 30
0.0
 40
8.0
  1
XR
  0
LINE
  5
38F
  8
回08-記事
  6
CENTER2
 62
     7
 10
475.0947814721167
 20
562.0765953890853
 30
0.0
 11
475.0947814721167
 21
254.5205953890854
 31
0.0
  0
INSERT
  5
390
  8
回04-下接
  6
CONTINUOUS
 62
     7
 66
     1
  2
*X7979
 10
0.0
 20
0.0
 30
0.0
1001
ACADSTRINGINFO
1000
MIFCodePage
1070
     1
1001
ACAD_MLEADERVER
1070
     2
  0
SEQEND
  5
6F3
  8
回04-下接
  6
CONTINUOUS
 62
     7
  0
DIMENSION
  5
391
  8
回07-寸法
  6
CONTINUOUS
 62
     7
  2
*D6868
 10
507.0947814721166
 20
356.9737487649295
 30
0.0
 11
515.5947814721166
 21
361.4737487649295
 31
0.0
 70
    32
  3
STANDARD
 13
503.0947814721166
 23
372.2985953890852
 33
0.0
 14
507.0947814721166
 24
372.2985953890852
 34
0.0
1001
ACAD
1000
DSTYLE
1002
{
1070
    41
1040
3.0
1070
    47
1040
0.3
1070
    48
1040
0.3
1070
   140
1040
8.0
1070
   141
1040
1.5
1070
   146
1040
0.7
1070
   271
1070
     1
1070
   272
1070
     1
1070
   283
1070
     0
1070
   288
1070
     0
1070
   341
1005
0
1070
   371
1070
    13
1070
   372
1070
    13
1002
}
  0
DIMENSION
  5
3A2
  8
回07-寸法
  6
CONTINUOUS
 62
     7
  2
*D6969
 10
525.1286397649185
 20
380.2985953890852
 30
0.0
 11
520.6286397649185
 21
371.7985953890852
 31
0.0
 70
    32
  3
STANDARD
 13
511.0947814721166
 23
384.2985953890852
 33
0.0
 14
511.0947814721166
 24
380.2985953890852
 34
0.0
 50
90.0
1001
ACAD
1000
DSTYLE
1002
{
1070
    41
1040
3.0
1070
    47
1040
0.3
1070
    48
1040
0.3
1070
   140
1040
8.0
1070
   141
1040
1.5
1070
   146
1040
0.7
1070
   271
1070
     1
1070
   272
1070
     1
1070
   283
1070
     0
1070
   288
1070
     0
1070
   341
1005
0
1070
   371
1070
    13
1070
   372
1070
    13
1002
}
  0
CIRCLE
  5
3B3
  8
回08-記事
  6
CONTINUOUS
 62
     7
 10
511.0947814721166
 20
408.2985953890851
 30
0.0
 40
0.025
  0
CIRCLE
  5
3B4
  8
回08-記事
  6
CONTINUOUS
 62
     7
 10
511.0947814721166
 20
404.2985953890851
 30
0.0
 40
0.025
  0
CIRCLE
  5
3B5
  8
回08-記事
  6
CONTINUOUS
 62
     7
 10
511.0947814721166
 20
400.2985953890851
 30
0.0
 40
0.025
  0
CIRCLE
  5
3B6
  8
回08-記事
  6
CONTINUOUS
 62
     7
 10
511.0947814721166
 20
396.2985953890852
 30
0.0
 40
0.025
  0
CIRCLE
  5
3B7
  8
回08-記事
  6
CONTINUOUS
 62
     7
 10
511.0947814721166
 20
392.2985953890852
 30
0.0
 40
0.025
  0
CIRCLE
  5
3B8
  8
回08-記事
  6
CONTINUOUS
 62
     7
 10
511.0947814721166
 20
388.2985953890852
 30
0.0
 40
0.025
  0
CIRCLE
  5
3B9
  8
回08-記事
  6
CONTINUOUS
 62
     7
 10
511.0947814721166
 20
384.2985953890852
 30
0.0
 40
0.025
  0
CIRCLE
  5
3BA
  8
回08-記事
  6
CONTINUOUS
 62
     7
 10
511.0947814721166
 20
380.2985953890852
 30
0.0
 40
0.025
  0
CIRCLE
  5
3BB
  8
回08-記事
  6
CONTINUOUS
 62
     7
 10
511.0947814721166
 20
376.2985953890852
 30
0.0
 40
0.025
  0
CIRCLE
  5
3BC
  8
回08-記事
  6
CONTINUOUS
 62
     7
 10
511.0947814721166
 20
372.2985953890852
 30
0.0
 40
0.025
  0
CIRCLE
  5
3BD
  8
回08-記事
  6
CONTINUOUS
 62
     7
 10
507.0947814721166
 20
408.2985953890851
 30
0.0
 40
0.025
  0
CIRCLE
  5
3BE
  8
回08-記事
  6
CONTINUOUS
 62
     7
 10
507.0947814721166
 20
404.2985953890851
 30
0.0
 40
0.025
  0
CIRCLE
  5
3BF
  8
回08-記事
  6
CONTINUOUS
 62
     7
 10
507.0947814721166
 20
400.2985953890851
 30
0.0
 40
0.025
  0
CIRCLE
  5
3C0
  8
回08-記事
  6
CONTINUOUS
 62
     7
 10
507.0947814721166
 20
396.2985953890852
 30
0.0
 40
0.025
  0
CIRCLE
  5
3C1
  8
回08-記事
  6
CONTINUOUS
 62
     7
 10
507.0947814721166
 20
392.2985953890852
 30
0.0
 40
0.025
  0
CIRCLE
  5
3C2
  8
回08-記事
  6
CONTINUOUS
 62
     7
 10
507.0947814721166
 20
388.2985953890852
 30
0.0
 40
0.025
  0
CIRCLE
  5
3C3
  8
回08-記事
  6
CONTINUOUS
 62
     7
 10
507.0947814721166
 20
384.2985953890852
 30
0.0
 40
0.025
  0
CIRCLE
  5
3C4
  8
回08-記事
  6
CONTINUOUS
 62
     7
 10
507.0947814721166
 20
380.2985953890852
 30
0.0
 40
0.025
  0
CIRCLE
  5
3C5
  8
回08-記事
  6
CONTINUOUS
 62
     7
 10
507.0947814721166
 20
376.2985953890852
 30
0.0
 40
0.025
  0
CIRCLE
  5
3C6
  8
回08-記事
  6
CONTINUOUS
 62
     7
 10
507.0947814721166
 20
372.2985953890852
 30
0.0
 40
0.025
  0
CIRCLE
  5
3C7
  8
回08-記事
  6
CONTINUOUS
 62
     7
 10
503.0947814721166
 20
408.2985953890851
 30
0.0
 40
0.025
  0
CIRCLE
  5
3C8
  8
回08-記事
  6
CONTINUOUS
 62
     7
 10
503.0947814721166
 20
404.2985953890851
 30
0.0
 40
0.025
  0
CIRCLE
  5
3C9
  8
回08-記事
  6
CONTINUOUS
 62
     7
 10
503.0947814721166
 20
400.2985953890851
 30
0.0
 40
0.025
  0
CIRCLE
  5
3CA
  8
回08-記事
  6
CONTINUOUS
 62
     7
 10
503.0947814721166
 20
396.2985953890852
 30
0.0
 40
0.025
  0
CIRCLE
  5
3CB
  8
回08-記事
  6
CONTINUOUS
 62
     7
 10
503.0947814721166
 20
392.2985953890852
 30
0.0
 40
0.025
  0
CIRCLE
  5
3CC
  8
回08-記事
  6
CONTINUOUS
 62
     7
 10
503.0947814721166
 20
388.2985953890852
 30
0.0
 40
0.025
  0
CIRCLE
  5
3CD
  8
回08-記事
  6
CONTINUOUS
 62
     7
 10
503.0947814721166
 20
384.2985953890852
 30
0.0
 40
0.025
  0
CIRCLE
  5
3CE
  8
回08-記事
  6
CONTINUOUS
 62
     7
 10
503.0947814721166
 20
380.2985953890852
 30
0.0
 40
0.025
  0
CIRCLE
  5
3CF
  8
回08-記事
  6
CONTINUOUS
 62
     7
 10
503.0947814721166
 20
376.2985953890852
 30
0.0
 40
0.025
  0
CIRCLE
  5
3D0
  8
回08-記事
  6
CONTINUOUS
 62
     7
 10
503.0947814721166
 20
372.2985953890852
 30
0.0
 40
0.025
  0
CIRCLE
  5
3D1
  8
回08-記事
  6
CONTINUOUS
 62
     7
 10
499.0947814721166
 20
408.2985953890851
 30
0.0
 40
0.025
  0
CIRCLE
  5
3D2
  8
回08-記事
  6
CONTINUOUS
 62
     7
 10
499.0947814721166
 20
404.2985953890851
 30
0.0
 40
0.025
  0
CIRCLE
  5
3D3
  8
回08-記事
  6
CONTINUOUS
 62
     7
 10
499.0947814721166
 20
400.2985953890851
 30
0.0
 40
0.025
  0
CIRCLE
  5
3D4
  8
回08-記事
  6
CONTINUOUS
 62
     7
 10
499.0947814721166
 20
396.2985953890852
 30
0.0
 40
0.025
  0
CIRCLE
  5
3D5
  8
回08-記事
  6
CONTINUOUS
 62
     7
 10
499.0947814721166
 20
392.2985953890852
 30
0.0
 40
0.025
  0
CIRCLE
  5
3D6
  8
回08-記事
  6
CONTINUOUS
 62
     7
 10
499.0947814721166
 20
388.2985953890852
 30
0.0
 40
0.025
  0
CIRCLE
  5
3D7
  8
回08-記事
  6
CONTINUOUS
 62
     7
 10
499.0947814721166
 20
384.2985953890852
 30
0.0
 40
0.025
  0
CIRCLE
  5
3D8
  8
回08-記事
  6
CONTINUOUS
 62
     7
 10
499.0947814721166
 20
380.2985953890852
 30
0.0
 40
0.025
  0
CIRCLE
  5
3D9
  8
回08-記事
  6
CONTINUOUS
 62
     7
 10
499.0947814721166
 20
376.2985953890852
 30
0.0
 40
0.025
  0
CIRCLE
  5
3DA
  8
回08-記事
  6
CONTINUOUS
 62
     7
 10
499.0947814721166
 20
372.2985953890852
 30
0.0
 40
0.025
  0
CIRCLE
  5
3DB
  8
回08-記事
  6
CONTINUOUS
 62
     7
 10
495.0947814721167
 20
408.2985953890851
 30
0.0
 40
0.025
  0
CIRCLE
  5
3DC
  8
回08-記事
  6
CONTINUOUS
 62
     7
 10
495.0947814721167
 20
404.2985953890851
 30
0.0
 40
0.025
  0
CIRCLE
  5
3DD
  8
回08-記事
  6
CONTINUOUS
 62
     7
 10
495.0947814721167
 20
400.2985953890851
 30
0.0
 40
0.025
  0
CIRCLE
  5
3DE
  8
回08-記事
  6
CONTINUOUS
 62
     7
 10
495.0947814721167
 20
396.2985953890852
 30
0.0
 40
0.025
  0
CIRCLE
  5
3DF
  8
回08-記事
  6
CONTINUOUS
 62
     7
 10
495.0947814721167
 20
392.2985953890852
 30
0.0
 40
0.025
  0
CIRCLE
  5
3E0
  8
回08-記事
  6
CONTINUOUS
 62
     7
 10
495.0947814721167
 20
388.2985953890852
 30
0.0
 40
0.025
  0
CIRCLE
  5
3E1
  8
回08-記事
  6
CONTINUOUS
 62
     7
 10
495.0947814721167
 20
384.2985953890852
 30
0.0
 40
0.025
  0
CIRCLE
  5
3E2
  8
回08-記事
  6
CONTINUOUS
 62
     7
 10
495.0947814721167
 20
380.2985953890852
 30
0.0
 40
0.025
  0
CIRCLE
  5
3E3
  8
回08-記事
  6
CONTINUOUS
 62
     7
 10
495.0947814721167
 20
376.2985953890852
 30
0.0
 40
0.025
  0
CIRCLE
  5
3E4
  8
回08-記事
  6
CONTINUOUS
 62
     7
 10
495.0947814721167
 20
372.2985953890852
 30
0.0
 40
0.025
  0
CIRCLE
  5
3E5
  8
回08-記事
  6
CONTINUOUS
 62
     7
 10
491.0947814721167
 20
408.2985953890851
 30
0.0
 40
0.025
  0
CIRCLE
  5
3E6
  8
回08-記事
  6
CONTINUOUS
 62
     7
 10
491.0947814721167
 20
404.2985953890851
 30
0.0
 40
0.025
  0
CIRCLE
  5
3E7
  8
回08-記事
  6
CONTINUOUS
 62
     7
 10
491.0947814721167
 20
400.2985953890851
 30
0.0
 40
0.025
  0
CIRCLE
  5
3E8
  8
回08-記事
  6
CONTINUOUS
 62
     7
 10
491.0947814721167
 20
396.2985953890852
 30
0.0
 40
0.025
  0
CIRCLE
  5
3E9
  8
回08-記事
  6
CONTINUOUS
 62
     7
 10
491.0947814721167
 20
392.2985953890852
 30
0.0
 40
0.025
  0
CIRCLE
  5
3EA
  8
回08-記事
  6
CONTINUOUS
 62
     7
 10
491.0947814721167
 20
388.2985953890852
 30
0.0
 40
0.025
  0
CIRCLE
  5
3EB
  8
回08-記事
  6
CONTINUOUS
 62
     7
 10
491.0947814721167
 20
384.2985953890852
 30
0.0
 40
0.025
  0
CIRCLE
  5
3EC
  8
回08-記事
  6
CONTINUOUS
 62
     7
 10
491.0947814721167
 20
380.2985953890852
 30
0.0
 40
0.025
  0
CIRCLE
  5
3ED
  8
回08-記事
  6
CONTINUOUS
 62
     7
 10
491.0947814721167
 20
376.2985953890852
 30
0.0
 40
0.025
  0
CIRCLE
  5
3EE
  8
回08-記事
  6
CONTINUOUS
 62
     7
 10
491.0947814721167
 20
372.2985953890852
 30
0.0
 40
0.025
  0
CIRCLE
  5
3EF
  8
回08-記事
  6
CONTINUOUS
 62
     7
 10
487.0947814721167
 20
408.2985953890851
 30
0.0
 40
0.025
  0
CIRCLE
  5
3F0
  8
回08-記事
  6
CONTINUOUS
 62
     7
 10
487.0947814721167
 20
404.2985953890851
 30
0.0
 40
0.025
  0
CIRCLE
  5
3F1
  8
回08-記事
  6
CONTINUOUS
 62
     7
 10
487.0947814721167
 20
400.2985953890851
 30
0.0
 40
0.025
  0
CIRCLE
  5
3F2
  8
回08-記事
  6
CONTINUOUS
 62
     7
 10
487.0947814721167
 20
396.2985953890852
 30
0.0
 40
0.025
  0
CIRCLE
  5
3F3
  8
回08-記事
  6
CONTINUOUS
 62
     7
 10
487.0947814721167
 20
392.2985953890852
 30
0.0
 40
0.025
  0
CIRCLE
  5
3F4
  8
回08-記事
  6
CONTINUOUS
 62
     7
 10
487.0947814721167
 20
388.2985953890852
 30
0.0
 40
0.025
  0
CIRCLE
  5
3F5
  8
回08-記事
  6
CONTINUOUS
 62
     7
 10
487.0947814721167
 20
384.2985953890852
 30
0.0
 40
0.025
  0
CIRCLE
  5
3F6
  8
回08-記事
  6
CONTINUOUS
 62
     7
 10
487.0947814721167
 20
380.2985953890852
 30
0.0
 40
0.025
  0
CIRCLE
  5
3F7
  8
回08-記事
  6
CONTINUOUS
 62
     7
 10
487.0947814721167
 20
376.2985953890852
 30
0.0
 40
0.025
  0
CIRCLE
  5
3F8
  8
回08-記事
  6
CONTINUOUS
 62
     7
 10
487.0947814721167
 20
372.2985953890852
 30
0.0
 40
0.025
  0
CIRCLE
  5
3F9
  8
回08-記事
  6
CONTINUOUS
 62
     7
 10
483.0947814721167
 20
408.2985953890851
 30
0.0
 40
0.025
  0
CIRCLE
  5
3FA
  8
回08-記事
  6
CONTINUOUS
 62
     7
 10
483.0947814721167
 20
404.2985953890851
 30
0.0
 40
0.025
  0
CIRCLE
  5
3FB
  8
回08-記事
  6
CONTINUOUS
 62
     7
 10
483.0947814721167
 20
400.2985953890851
 30
0.0
 40
0.025
  0
CIRCLE
  5
3FC
  8
回08-記事
  6
CONTINUOUS
 62
     7
 10
483.0947814721167
 20
396.2985953890852
 30
0.0
 40
0.025
  0
CIRCLE
  5
3FD
  8
回08-記事
  6
CONTINUOUS
 62
     7
 10
483.0947814721167
 20
392.2985953890852
 30
0.0
 40
0.025
  0
CIRCLE
  5
3FE
  8
回08-記事
  6
CONTINUOUS
 62
     7
 10
483.0947814721167
 20
388.2985953890852
 30
0.0
 40
0.025
  0
CIRCLE
  5
3FF
  8
回08-記事
  6
CONTINUOUS
 62
     7
 10
483.0947814721167
 20
384.2985953890852
 30
0.0
 40
0.025
  0
CIRCLE
  5
400
  8
回08-記事
  6
CONTINUOUS
 62
     7
 10
483.0947814721167
 20
380.2985953890852
 30
0.0
 40
0.025
  0
CIRCLE
  5
401
  8
回08-記事
  6
CONTINUOUS
 62
     7
 10
483.0947814721167
 20
376.2985953890852
 30
0.0
 40
0.025
  0
CIRCLE
  5
402
  8
回08-記事
  6
CONTINUOUS
 62
     7
 10
483.0947814721167
 20
372.2985953890852
 30
0.0
 40
0.025
  0
CIRCLE
  5
403
  8
回08-記事
  6
CONTINUOUS
 62
     7
 10
479.0947814721167
 20
408.2985953890851
 30
0.0
 40
0.025
  0
CIRCLE
  5
404
  8
回08-記事
  6
CONTINUOUS
 62
     7
 10
479.0947814721167
 20
404.2985953890851
 30
0.0
 40
0.025
  0
CIRCLE
  5
405
  8
回08-記事
  6
CONTINUOUS
 62
     7
 10
479.0947814721167
 20
400.2985953890851
 30
0.0
 40
0.025
  0
CIRCLE
  5
406
  8
回08-記事
  6
CONTINUOUS
 62
     7
 10
479.0947814721167
 20
396.2985953890852
 30
0.0
 40
0.025
  0
CIRCLE
  5
407
  8
回08-記事
  6
CONTINUOUS
 62
     7
 10
479.0947814721167
 20
392.2985953890852
 30
0.0
 40
0.025
  0
CIRCLE
  5
408
  8
回08-記事
  6
CONTINUOUS
 62
     7
 10
479.0947814721167
 20
388.2985953890852
 30
0.0
 40
0.025
  0
CIRCLE
  5
409
  8
回08-記事
  6
CONTINUOUS
 62
     7
 10
479.0947814721167
 20
384.2985953890852
 30
0.0
 40
0.025
  0
CIRCLE
  5
40A
  8
回08-記事
  6
CONTINUOUS
 62
     7
 10
479.0947814721167
 20
380.2985953890852
 30
0.0
 40
0.025
  0
CIRCLE
  5
40B
  8
回08-記事
  6
CONTINUOUS
 62
     7
 10
479.0947814721167
 20
376.2985953890852
 30
0.0
 40
0.025
  0
CIRCLE
  5
40C
  8
回08-記事
  6
CONTINUOUS
 62
     7
 10
479.0947814721167
 20
372.2985953890852
 30
0.0
 40
0.025
  0
CIRCLE
  5
40D
  8
回08-記事
  6
CONTINUOUS
 62
     7
 10
475.0947814721167
 20
408.2985953890851
 30
0.0
 40
0.025
  0
CIRCLE
  5
40E
  8
回08-記事
  6
CONTINUOUS
 62
     7
 10
475.0947814721167
 20
404.2985953890851
 30
0.0
 40
0.025
  0
CIRCLE
  5
40F
  8
回08-記事
  6
CONTINUOUS
 62
     7
 10
475.0947814721167
 20
400.2985953890851
 30
0.0
 40
0.025
  0
CIRCLE
  5
410
  8
回08-記事
  6
CONTINUOUS
 62
     7
 10
475.0947814721167
 20
396.2985953890852
 30
0.0
 40
0.025
  0
CIRCLE
  5
411
  8
回08-記事
  6
CONTINUOUS
 62
     7
 10
475.0947814721167
 20
392.2985953890852
 30
0.0
 40
0.025
  0
CIRCLE
  5
412
  8
回08-記事
  6
CONTINUOUS
 62
     7
 10
475.0947814721167
 20
388.2985953890852
 30
0.0
 40
0.025
  0
CIRCLE
  5
413
  8
回08-記事
  6
CONTINUOUS
 62
     7
 10
475.0947814721167
 20
384.2985953890852
 30
0.0
 40
0.025
  0
CIRCLE
  5
414
  8
回08-記事
  6
CONTINUOUS
 62
     7
 10
475.0947814721167
 20
380.2985953890852
 30
0.0
 40
0.025
  0
CIRCLE
  5
415
  8
回08-記事
  6
CONTINUOUS
 62
     7
 10
475.0947814721167
 20
376.2985953890852
 30
0.0
 40
0.025
  0
CIRCLE
  5
416
  8
回08-記事
  6
CONTINUOUS
 62
     7
 10
475.0947814721167
 20
372.2985953890852
 30
0.0
 40
0.025
  0
POLYLINE
  5
417
  8
回08-記事
  6
PHANTOM2
 62
     7
 66
     1
 10
0.0
 20
0.0
 30
0.0
 70
     1
  0
VERTEX
  5
A2F
  8
回08-記事
  6
PHANTOM2
 62
     7
 10
284.1847814721168
 20
254.7205953890857
 30
0.0
  0
VERTEX
  5
A31
  8
回08-記事
  6
PHANTOM2
 62
     7
 10
666.0047814721165
 20
254.7205953890857
 30
0.0
  0
VERTEX
  5
A32
  8
回08-記事
  6
PHANTOM2
 62
     7
 10
666.0047814721165
 20
561.8765953890861
 30
0.0
  0
VERTEX
  5
A33
  8
回08-記事
  6
PHANTOM2
 62
     7
 10
284.1847814721168
 20
561.8765953890861
 30
0.0
  0
SEQEND
  5
A30
  8
回04-下接
  6
CONTINUOUS
 62
     7
  0
LINE
  5
419
  8
回08-記事
  6
CENTER2
 62
     7
 10
282.9948249828831
 20
408.2985953890855
 30
0.0
 11
665.8148249828832
 21
408.2985953890855
 31
0.0
  0
POLYLINE
  5
41A
  8
回08-記事
  6
CONTINUOUS
 62
     7
 66
     1
 10
0.0
 20
0.0
 30
0.0
 70
     1
  0
VERTEX
  5
A34
  8
回08-記事
  6
CONTINUOUS
 62
     7
 10
284.6847814721168
 20
255.5205953890859
 30
0.0
  0
VERTEX
  5
A36
  8
回08-記事
  6
CONTINUOUS
 62
     7
 10
665.504781472117
 20
255.5205953890859
 30
0.0
  0
VERTEX
  5
A37
  8
回08-記事
  6
CONTINUOUS
 62
     7
 10
665.504781472117
 20
561.0765953890858
 30
0.0
  0
VERTEX
  5
A38
  8
回08-記事
  6
CONTINUOUS
 62
     7
 10
284.6847814721168
 20
561.0765953890858
 30
0.0
  0
SEQEND
  5
A35
  8
回04-下接
  6
CONTINUOUS
 62
     7
  0
POLYLINE
  5
41B
  8
回08-記事
  6
CONTINUOUS
 62
     7
 66
     1
 10
0.0
 20
0.0
 30
0.0
 70
     1
  0
VERTEX
  5
A39
  8
回08-記事
  6
CONTINUOUS
 62
     7
 10
286.6847814721168
 20
257.520595389086
 30
0.0
  0
VERTEX
  5
A3B
  8
回08-記事
  6
CONTINUOUS
 62
     7
 10
663.5047814721168
 20
257.520595389086
 30
0.0
  0
VERTEX
  5
A3C
  8
回08-記事
  6
CONTINUOUS
 62
     7
 10
663.5047814721168
 20
559.0765953890858
 30
0.0
  0
VERTEX
  5
A3D
  8
回08-記事
  6
CONTINUOUS
 62
     7
 10
286.6847814721168
 20
559.0765953890858
 30
0.0
  0
SEQEND
  5
A3A
  8
回04-下接
  6
CONTINUOUS
 62
     7
  0
INSERT
  5
41C
  8
回07-寸法
  6
CONTINUOUS
 62
     7
 66
     1
  2
*X8080
 10
0.0
 20
0.0
 30
0.0
  0
SEQEND
  5
709
  8
回04-下接
  6
CONTINUOUS
 62
     7
  0
DIMENSION
  5
41D
  8
回07-寸法
  6
CONTINUOUS
 62
     3
  2
*D7070
 10
271.2255432693774
 20
386.9191512739817
 30
0.0
 11
254.9271180725268
 21
386.9191512739817
 31
0.0
 70
   160
  3
STANDARD
 13
274.7947814721165
 23
400.2350982961001
 33
0.0
 14
271.2255432693774
 24
400.3742370299313
 34
0.0
1001
ACAD
1000
DSTYLE
1002
{
1070
    41
1040
5.0
1070
    47
1040
0.3
1070
    48
1040
0.3
1070
   140
1040
8.0
1070
   141
1040
1.5
1070
   146
1040
0.7
1070
   271
1070
     1
1070
   272
1070
     1
1070
   283
1070
     0
1070
   288
1070
     0
1070
   341
1005
0
1070
   371
1070
    13
1070
   372
1070
    13
1002
}
  0
TEXT
  5
42F
  8
回07-寸法
  6
CONTINUOUS
 62
     5
 10
253.0542185300217
 20
424.2548150419243
 30
0.0
 40
6.0
  1
2-R2
1001
ACAD
1000
MTEXTBEGIN
1070
    73
1070
     1
1070
    44
1040
1.0
1070
    74
1070
     0
1000
MTEXTEND
  0
DIMENSION
  5
430
  8
回07-寸法
 62
     5
  2
*D7171
 10
185.3587023929235
 20
405.1735953890861
 30
0.0
 11
185.3587023929235
 21
437.6311799573787
 31
0.0
 70
   160
  1
<>
  3
STANDARD
 13
195.2947814721167
 23
411.4235953890861
 33
0.0
 14
195.29478147302
 24
405.1735953890861
 34
0.0
 50
90.0
1001
ACAD
1000
DSTYLE
1002
{
1070
    41
1040
5.0
1070
    47
1040
0.2
1070
    48
1040
0.2
1070
    71
1070
     1
1070
   140
1040
8.0
1070
   141
1040
1.5
1070
   146
1040
0.7
1070
   272
1070
     1
1070
   283
1070
     0
1070
   288
1070
     0
1070
   341
1005
0
1070
   371
1070
    13
1070
   372
1070
    13
1002
}
  0
DIMENSION
  5
441
  8
回07-寸法
  6
CONTINUOUS
 62
     5
  2
*D7272
 10
266.2676758028419
 20
376.0473294057947
 30
0.0
 11
250.0019903778928
 21
376.0473294057947
 31
0.0
 70
   160
  3
STANDARD
 13
274.794781472116
 23
400.2350984958161
 33
0.0
 14
266.2676758028419
 24
405.0939180499217
 34
0.0
1001
ACAD
1000
DSTYLE
1002
{
1070
    41
1040
5.0
1070
    47
1040
0.3
1070
    48
1040
0.3
1070
   140
1040
8.0
1070
   141
1040
1.5
1070
   146
1040
0.7
1070
   271
1070
     1
1070
   272
1070
     1
1070
   283
1070
     0
1070
   288
1070
     0
1070
   341
1005
0
1070
   371
1070
    13
1070
   372
1070
    13
1002
}
  0
DIMENSION
  5
452
  8
回07-寸法
  6
CONTINUOUS
 62
     5
  2
*D7373
 10
194.794781474531
 20
438.2040253792872
 30
0.0
 11
234.7947814733237
 21
442.7040253792873
 31
0.0
 70
    32
  3
STANDARD
 13
274.7947814721165
 23
416.3620926817948
 33
0.0
 14
194.794781474531
 24
410.9236445243077
 34
0.0
1001
ACAD
1000
DSTYLE
1002
{
1070
   147
1040
0.5
1070
    72
1070
     0
1070
    71
1070
     1
1070
    41
1040
5.0
1070
    47
1040
1.0
1070
    48
1040
1.0
1070
   140
1040
8.0
1070
   141
1040
1.5
1070
   146
1040
0.7
1070
   271
1070
     1
1070
   272
1070
     1
1070
   283
1070
     0
1070
   288
1070
     0
1070
   341
1005
0
1070
   371
1070
    13
1070
   372
1070
    13
1002
}
  0
DIMENSION
  5
461
  8
回07-寸法
  6
CONTINUOUS
 62
     7
  2
*D7474
 10
233.1650271244553
 20
400.2986445243077
 30
0.0
 11
233.1650271244553
 21
386.0002193274563
 31
0.0
 70
   160
  3
STANDARD
 13
271.6028515637522
 23
416.2974414900364
 33
0.0
 14
271.607025149458
 24
400.2986445243077
 34
0.0
 50
90.0
1001
ACAD
1000
DSTYLE
1002
{
1070
    41
1040
5.0
1070
    47
1040
0.3
1070
    48
1040
0.3
1070
   140
1040
8.0
1070
   141
1040
1.5
1070
   146
1040
0.7
1070
   271
1070
     1
1070
   272
1070
     1
1070
   283
1070
     0
1070
   288
1070
     0
1070
   341
1005
0
1070
   371
1070
    13
1070
   372
1070
    13
1002
}
  0
TEXT
  5
472
  8
回07-寸法
  6
CONTINUOUS
 62
     5
 10
246.0167690033728
 20
418.508639803299
 30
0.0
 40
6.0
  1
4-R1
1001
ACAD
1000
MTEXTBEGIN
1070
    73
1070
     1
1070
    44
1040
1.0
1070
    74
1070
     0
1000
MTEXTEND
  0
INSERT
  5
473
  8
回07-寸法
  6
CONTINUOUS
 62
     7
 66
     1
  2
*X8181
 10
0.0
 20
0.0
 30
0.0
  0
SEQEND
  5
710
  8
回04-下接
  6
CONTINUOUS
 62
     7
  0
TEXT
  5
474
  8
回08-記事
  6
CONTINUOUS
 62
     7
 10
194.3006589689153
 20
405.636044545854
 30
0.0
 40
3.0
  1
1
 50
90.0
  0
TEXT
  5
475
  8
回08-記事
  6
CONTINUOUS
 62
     7
 10
194.2777660131264
 20
409.0881539160518
 30
0.0
 40
3.0
  1
4
 50
90.0
  0
TEXT
  5
476
  8
回08-記事
  6
CONTINUOUS
 62
     7
 10
289.715903324247
 20
412.2737078177188
 30
0.0
 40
8.0
  1
XL
  0
TEXT
  5
477
  8
回08-記事
  6
CONTINUOUS
 62
     7
 10
194.300702479682
 20
405.6359952109174
 30
0.0
 40
3.0
  1
1
 50
90.0
  0
TEXT
  5
478
  8
回08-記事
  6
CONTINUOUS
 62
     7
 10
194.2778095238932
 20
409.088104581115
 30
0.0
 40
3.0
  1
4
 50
90.0
  0
INSERT
  5
479
  8
回08-記事
  6
CONTINUOUS
 62
     7
 66
     1
  2
*X8282
 10
0.0
 20
0.0
 30
0.0
1001
ACAD
1000
HATCH
1002
{
1070
    19
1000
ANSI31
1040
0.5
1040
6.283185307179585
1000
ASC_BOUNDS
1070
     1
1070
     2
1070
     1
1005
47A
1000
ASC_SEEDPOINT
1011
524.9996320247731
1021
191.2989273079242
1031
0.0
1000
R14_HATCH_DATA
1000
479
1011
1.0
1021
0.0
1031
0.0
1011
0.0
1021
1.0
1031
0.0
1011
0.0
1021
0.0
1031
1.0
1040
0.0
1010
0.0
1020
0.0
1030
1.0
1000
ANSI31
1070
     0
1070
     1
1071
        1
1071
        1
1071
        4
1070
     1
1040
271.6948249828842
1040
407.0485953890941
1040
271.6948249828842
1040
401.0485953890943
1070
     1
1040
271.6948249828842
1040
401.0485953890943
1040
279.8948249828841
1040
401.0485953890943
1070
     1
1040
279.8948249828841
1040
401.0485953890943
1040
279.8948249828841
1040
407.0485953890941
1070
     1
1040
279.8948249828841
1040
407.0485953890941
1040
271.6948249828842
1040
407.0485953890941
1071
        1
1005
47A
1070
     0
1070
     1
1040
6.283185307179585
1040
0.5
1070
     0
1070
     1
1040
0.7853981633974481
1040
524.9996320247731
1040
191.2989273079242
1040
-1.122532015133643
1040
1.122532015133643
1070
     0
1071
        1
1040
524.9996320247731
1040
191.2989273079242
1040
0.0
1002
}
  0
SEQEND
  5
71A
  8
回04-下接
  6
CONTINUOUS
 62
     7
  0
POLYLINE
  5
47A
  8
回08-記事
  6
CONTINUOUS
 62
     7
 66
     1
 10
0.0
 20
0.0
 30
0.0
 70
     1
1001
ACAD
1000
ASC_BOUNDS
1002
{
1070
    19
1005
479
1002
}
  0
VERTEX
  5
A3E
  8
回08-記事
  6
CONTINUOUS
 62
     7
 10
279.8948249828841
 20
407.0485953890941
 30
0.0
  0
VERTEX
  5
A40
  8
回08-記事
  6
CONTINUOUS
 62
     7
 10
271.6948249828842
 20
407.0485953890941
 30
0.0
  0
VERTEX
  5
A41
  8
回08-記事
  6
CONTINUOUS
 62
     7
 10
271.6948249828842
 20
401.0485953890943
 30
0.0
  0
VERTEX
  5
A42
  8
回08-記事
  6
CONTINUOUS
 62
     7
 10
279.8948249828841
 20
401.0485953890943
 30
0.0
  0
SEQEND
  5
A3F
  8
回04-下接
  6
CONTINUOUS
 62
     7
  0
DIMENSION
  5
47B
  8
回07-寸法
  6
CONTINUOUS
 62
     7
  2
*D7575
 10
775.0235069804847
 20
245.0985953890872
 30
0.0
 11
775.0235069804847
 21
408.2985953890843
 31
0.0
 70
   160
  3
STANDARD
 13
675.3947814721182
 23
571.4985953890808
 33
0.0
 14
675.3947814721172
 24
245.0985953890872
 34
0.0
 50
90.0
1001
ACAD
1000
DSTYLE
1002
{
1070
   147
1040
0.5
1070
    72
1070
     0
1070
    71
1070
     1
1070
    41
1040
5.0
1070
    47
1040
0.3
1070
    48
1040
0.3
1070
   140
1040
8.0
1070
   141
1040
1.5
1070
   146
1040
0.7
1070
   271
1070
     1
1070
   272
1070
     1
1070
   283
1070
     0
1070
   288
1070
     0
1070
   341
1005
0
1070
   371
1070
    13
1070
   372
1070
    13
1002
}
  0
DIMENSION
  5
48A
  8
回07-寸法
  6
CONTINUOUS
 62
     7
  2
*D7676
 10
675.3947814721167
 20
632.7931314394954
 30
0.0
 11
475.0947814721167
 21
632.7931314394954
 31
0.0
 70
   160
  3
STANDARD
 13
274.7947814721165
 23
571.4985953890864
 33
0.0
 14
675.3947814721167
 24
571.4985953890864
 34
0.0
1001
ACAD
1000
DSTYLE
1002
{
1070
   147
1040
0.5
1070
    72
1070
     0
1070
    71
1070
     1
1070
    41
1040
5.0
1070
    47
1040
0.3
1070
    48
1040
0.3
1070
   140
1040
8.0
1070
   141
1040
1.5
1070
   146
1040
0.7
1070
   271
1070
     1
1070
   272
1070
     1
1070
   283
1070
     0
1070
   288
1070
     0
1070
   341
1005
0
1070
   371
1070
    13
1070
   372
1070
    13
1002
}
  0
ENDSEC
  0
EOF
