  0
SECTION
  2
HEADER
  9
$ACADVER
  1
AC1009
  9
$INSBASE
 10
0.0
 20
0.0
 30
0.0
  9
$EXTMIN
 10
152.7036055959024
 20
-596.7288427944374
 30
0.0
  9
$EXTMAX
 10
546.7036055959024
 20
-314.7288427944375
 30
0.0
  9
$LIMMIN
 10
0.0
 20
0.0
  9
$LIMMAX
 10
3000.0
 20
2500.0
  9
$ORTHOMODE
 70
     0
  9
$REGENMODE
 70
     1
  9
$FILLMODE
 70
     1
  9
$QTEXTMODE
 70
     0
  9
$MIRRTEXT
 70
     1
  9
$DRAGMODE
 70
     2
  9
$LTSCALE
 40
1.0
  9
$OSMODE
 70
    37
  9
$ATTMODE
 70
     1
  9
$TEXTSIZE
 40
3.0
  9
$TRACEWID
 40
1.0
  9
$TEXTSTYLE
  7
STANDARD
  9
$CLAYER
  8
回07-寸法
  9
$CELTYPE
  6
BYLAYER
  9
$CECOLOR
 62
     5
  9
$DIMSCALE
 40
1.0
  9
$DIMASZ
 40
2.0
  9
$DIMEXO
 40
0.0
  9
$DIMDLI
 40
0.0
  9
$DIMRND
 40
0.0
  9
$DIMDLE
 40
0.0
  9
$DIMEXE
 40
1.0
  9
$DIMTP
 40
0.0
  9
$DIMTM
 40
0.0
  9
$DIMTXT
 40
3.0
  9
$DIMCEN
 40
2.0
  9
$DIMTSZ
 40
0.0
  9
$DIMTOL
 70
     0
  9
$DIMLIM
 70
     0
  9
$DIMTIH
 70
     0
  9
$DIMTOH
 70
     0
  9
$DIMSE1
 70
     0
  9
$DIMSE2
 70
     0
  9
$DIMTAD
 70
     3
  9
$DIMZIN
 70
     8
  9
$DIMBLK
  1
OPEN
  9
$DIMASO
 70
     1
  9
$DIMSHO
 70
     1
  9
$DIMPOST
  1

  9
$DIMAPOST
  1

  9
$DIMALT
 70
     1
  9
$DIMALTD
 70
     3
  9
$DIMALTF
 40
0.03937007874016
  9
$DIMLFAC
 40
1.0
  9
$DIMTOFL
 70
     1
  9
$DIMTVP
 40
0.0
  9
$DIMTIX
 70
     0
  9
$DIMSOXD
 70
     0
  9
$DIMSAH
 70
     0
  9
$DIMBLK1
  1

  9
$DIMBLK2
  1

  9
$DIMSTYLE
  2
DMC
  9
$DIMCLRD
 70
     5
  9
$DIMCLRE
 70
     5
  9
$DIMCLRT
 70
     5
  9
$DIMTFAC
 40
0.7
  9
$DIMGAP
 40
0.5
  9
$LUNITS
 70
     2
  9
$LUPREC
 70
     4
  9
$SKETCHINC
 40
1.0
  9
$FILLETRAD
 40
1.0
  9
$AUNITS
 70
     0
  9
$AUPREC
 70
     0
  9
$MENU
  1
.
  9
$ELEVATION
 40
0.0
  9
$PELEVATION
 40
0.0
  9
$THICKNESS
 40
0.0
  9
$LIMCHECK
 70
     0
  9
$BLIPMODE
 70
     0
  9
$CHAMFERA
 40
10.0
  9
$CHAMFERB
 40
10.0
  9
$SKPOLY
 70
     0
  9
$TDCREATE
 40
2451810.404221065
  9
$TDUPDATE
 40
2460221.410807975
  9
$TDINDWG
 40
2.957831944
  9
$TDUSRTIMER
 40
2.957829676
  9
$USRTIMER
 70
     1
  9
$ANGBASE
 50
0.0
  9
$ANGDIR
 70
     0
  9
$PDMODE
 70
     0
  9
$PDSIZE
 40
0.0
  9
$PLINEWID
 40
1.0
  9
$COORDS
 70
     0
  9
$SPLFRAME
 70
     0
  9
$SPLINETYPE
 70
     6
  9
$SPLINESEGS
 70
     8
  9
$ATTDIA
 70
     1
  9
$ATTREQ
 70
     1
  9
$HANDLING
 70
     1
  9
$HANDSEED
  5
817
  9
$SURFTAB1
 70
     6
  9
$SURFTAB2
 70
     6
  9
$SURFTYPE
 70
     6
  9
$SURFU
 70
     6
  9
$SURFV
 70
     6
  9
$UCSNAME
  2

  9
$UCSORG
 10
0.0
 20
0.0
 30
0.0
  9
$UCSXDIR
 10
1.0
 20
0.0
 30
0.0
  9
$UCSYDIR
 10
0.0
 20
1.0
 30
0.0
  9
$PUCSNAME
  2

  9
$PUCSORG
 10
0.0
 20
0.0
 30
0.0
  9
$PUCSXDIR
 10
1.0
 20
0.0
 30
0.0
  9
$PUCSYDIR
 10
0.0
 20
1.0
 30
0.0
  9
$USERI1
 70
     0
  9
$USERI2
 70
     0
  9
$USERI3
 70
     0
  9
$USERI4
 70
     0
  9
$USERI5
 70
     0
  9
$USERR1
 40
0.0
  9
$USERR2
 40
0.0
  9
$USERR3
 40
0.0
  9
$USERR4
 40
0.0
  9
$USERR5
 40
0.0
  9
$WORLDVIEW
 70
     1
  9
$SHADEDGE
 70
     3
  9
$SHADEDIF
 70
    70
  9
$TILEMODE
 70
     1
  9
$MAXACTVP
 70
    64
  9
$PLIMCHECK
 70
     0
  9
$PEXTMIN
 10
1.000000000000000E+20
 20
1.000000000000000E+20
 30
1.000000000000000E+20
  9
$PEXTMAX
 10
-1.000000000000000E+20
 20
-1.000000000000000E+20
 30
-1.000000000000000E+20
  9
$PLIMMIN
 10
0.0
 20
0.0
  9
$PLIMMAX
 10
420.0
 20
297.0
  9
$UNITMODE
 70
     0
  9
$VISRETAIN
 70
     1
  9
$PLINEGEN
 70
     0
  9
$PSLTSCALE
 70
     1
  0
ENDSEC
  0
SECTION
  2
TABLES
  0
TABLE
  2
VPORT
 70
     1
  0
VPORT
  2
*ACTIVE
 70
     0
 10
0.0
 20
0.0
 11
1.0
 21
1.0
 12
304.7043208327806
 22
-471.8674671130031
 13
0.0
 23
0.0
 14
10.0
 24
10.0
 15
10.0
 25
10.0
 16
0.0
 26
0.0
 36
1.0
 17
0.0
 27
0.0
 37
0.0
 40
602.5027504312074
 41
1.002570694087403
 42
50.0
 43
0.0
 44
0.0
 50
0.0
 51
0.0
 71
     0
 72
   500
 73
     1
 74
     1
 75
     0
 76
     0
 77
     0
 78
     0
  0
ENDTAB
  0
TABLE
  2
LTYPE
 70
     4
  0
LTYPE
  2
CONTINUOUS
 70
     0
  3
Solid line
 72
    65
 73
     0
 40
0.0
  0
LTYPE
  2
CENTER2
 70
     0
  3
Center (.5x) ___ _ ___ _ ___ _ ___ _ ___ _ ___
 72
    65
 73
     4
 40
28.575
 49
19.05
 49
-3.174999999999998
 49
3.174999999999998
 49
-3.174999999999998
  0
LTYPE
  2
DASHED2
 70
     0
  3
Dashed (.5x) _ _ _ _ _ _ _ _ _ _ _ _ _ _ _ _ _
 72
    65
 73
     2
 40
9.524999999999996
 49
6.349999999999997
 49
-3.174999999999998
  0
LTYPE
  2
PHANTOM2
 70
     0
  3
Phantom (.5x) ___ _ _ ___ _ _ ___ _ _ ___ _ _
 72
    65
 73
     6
 40
31.75
 49
15.875
 49
-3.174999999999998
 49
3.174999999999998
 49
-3.174999999999998
 49
3.174999999999998
 49
-3.174999999999998
  0
ENDTAB
  0
TABLE
  2
LAYER
 70
     9
  0
LAYER
  2
0
 70
     0
 62
     7
  6
CONTINUOUS
  0
LAYER
  2
DEFPOINTS
 70
     0
 62
     7
  6
CONTINUOUS
  0
LAYER
  2
回04-下接
 70
     0
 62
     7
  6
CONTINUOUS
  0
LAYER
  2
回08-記事
 70
     0
 62
     7
  6
CONTINUOUS
  0
LAYER
  2
回07-寸法
 70
     0
 62
     7
  6
CONTINUOUS
  0
LAYER
  2
回91-枠英3
 70
     0
 62
     7
  6
CONTINUOUS
  0
LAYER
  2
回90-枠3
 70
     0
 62
     7
  6
CONTINUOUS
  0
LAYER
  2
回05-ﾃｰﾙ
 70
     0
 62
     7
  6
CONTINUOUS
  0
LAYER
  2
回03-記事
 70
     0
 62
     7
  6
CONTINUOUS
  0
ENDTAB
  0
TABLE
  2
STYLE
 70
     2
  0
STYLE
  2
STANDARD
 70
     0
 40
3.0
 41
1.0
 50
0.0
 71
     0
 42
3.0
  3
isocp.shx
  4
bigfont.shx
  0
STYLE
  2
ANNOTATIVE
 70
     0
 40
0.0
 41
1.0
 50
0.0
 71
     0
 42
0.2
  3
txt.shx
  4

  0
ENDTAB
  0
TABLE
  2
VIEW
 70
     0
  0
ENDTAB
  0
TABLE
  2
UCS
 70
     0
  0
ENDTAB
  0
TABLE
  2
APPID
 70
     5
  0
APPID
  2
ACAD
 70
     0
  0
APPID
  2
ACADANNOTATIVE
 70
     0
  0
APPID
  2
ACAD_NAV_VCDISPLAY
 70
     0
  0
APPID
  2
PLOTTRANSPARENCY
 70
     0
  0
APPID
  2
ACAD_PSEXT
 70
     0
  0
ENDTAB
  0
TABLE
  2
DIMSTYLE
 70
     2
  0
DIMSTYLE
  2
DMC
 70
     0
  3

  4

  5
OPEN
  6

  7

 40
1.0
 41
2.0
 42
0.0
 43
0.0
 44
1.0
 45
0.0
 46
0.0
 47
0.0
 48
0.0
140
3.0
141
2.0
142
0.0
143
0.03937007874016
144
1.0
145
0.0
146
0.7
147
0.5
 71
     0
 72
     0
 73
     0
 74
     0
 75
     0
 76
     0
 77
     3
 78
     8
170
     0
171
     3
172
     1
173
     0
174
     0
175
     0
176
     5
177
     5
178
     5
  0
DIMSTYLE
  2
STANDARD
 70
     0
  3

  4

  5

  6

  7

 40
1.0
 41
0.18
 42
0.0625
 43
0.38
 44
0.18
 45
0.0
 46
0.0
 47
0.0
 48
0.0
140
0.18
141
0.09
142
0.0
143
25.4
144
1.0
145
0.0
146
1.0
147
0.09
 71
     0
 72
     0
 73
     1
 74
     1
 75
     0
 76
     0
 77
     0
 78
     0
170
     0
171
     2
172
     0
173
     0
174
     0
175
     0
176
     0
177
     0
178
     0
  0
ENDTAB
  0
ENDSEC
  0
SECTION
  2
BLOCKS
  0
BLOCK
  8
0
  2
$MODEL_SPACE
 70
     0
 10
0.0
 20
0.0
 30
0.0
  3
$MODEL_SPACE
  1

  0
ENDBLK
  8
0
  5
20
  0
BLOCK
 67
     1
  8
0
  2
$PAPER_SPACE
 70
     0
 10
0.0
 20
0.0
 30
0.0
  3
$PAPER_SPACE
  1

  0
ENDBLK
  5
25
 67
     1
  8
0
  0
BLOCK
  8
0
  2
_OPEN
 70
     0
 10
0.0
 20
0.0
 30
0.0
  3
_OPEN
  1

  0
LINE
  5
695
  8
0
  6
BYBLOCK
 62
     0
 10
-1.0
 20
0.166667
 30
0.0
 11
0.0
 21
0.0
 31
0.0
  0
LINE
  5
696
  8
0
  6
BYBLOCK
 62
     0
 10
-1.0
 20
-0.166667
 30
0.0
 11
0.0
 21
0.0
 31
0.0
  0
LINE
  5
697
  8
0
  6
BYBLOCK
 62
     0
 10
0.0
 20
0.0
 30
0.0
 11
-1.0
 21
0.0
 31
0.0
  0
LINE
  5
4BB
  8
0
  6
BYBLOCK
 62
     0
 10
-1.0
 20
0.166667
 30
0.0
 11
0.0
 21
0.0
 31
0.0
  0
LINE
  5
4BC
  8
0
  6
BYBLOCK
 62
     0
 10
-1.0
 20
-0.166667
 30
0.0
 11
0.0
 21
0.0
 31
0.0
  0
LINE
  5
4BD
  8
0
  6
BYBLOCK
 62
     0
 10
0.0
 20
0.0
 30
0.0
 11
-1.0
 21
0.0
 31
0.0
  0
LINE
  5
14
  8
0
  6
CONTINUOUS
 62
     0
 10
-1.0
 20
0.1666666666666666
 30
0.0
 11
0.0
 21
0.0
 31
0.0
  0
LINE
  5
15
  8
0
  6
CONTINUOUS
 62
     0
 10
-1.0
 20
-0.1666666666666666
 30
0.0
 11
0.0
 21
0.0
 31
0.0
  0
LINE
  5
16
  8
0
  6
CONTINUOUS
 62
     0
 10
0.0
 20
0.0
 30
0.0
 11
-1.0
 21
0.0
 31
0.0
  0
ENDBLK
  5
17
  8
0
  0
BLOCK
  8
0
  2
*D111
 70
     1
 10
0.0
 20
0.0
 30
0.0
  3
*D111
  1

  0
LINE
  5
2F7
  8
回07-寸法
  6
CONTINUOUS
 62
     5
 10
402.9595260025441
 20
-453.2082052311972
 30
0.0
 11
421.3533857116923
 21
-453.2082052311972
 31
0.0
  0
LINE
  5
2F8
  8
回07-寸法
  6
CONTINUOUS
 62
     5
 10
402.6595260025441
 20
-420.8182052311973
 30
0.0
 11
421.3533857116923
 21
-420.8182052311973
 31
0.0
  0
LINE
  5
2F9
  8
回07-寸法
  6
CONTINUOUS
 62
     5
 10
420.3533857116926
 20
-451.2082052311972
 30
0.0
 11
420.3533857116926
 21
-422.8182052311971
 31
0.0
  0
INSERT
  5
2FA
  8
回07-寸法
  6
CONTINUOUS
 62
     5
  2
_OPEN
 10
420.3533857116926
 20
-453.2082052311972
 30
0.0
 41
2.0
 42
2.0
 43
2.0
 50
270.0
  0
INSERT
  5
2FB
  8
回07-寸法
  6
CONTINUOUS
 62
     5
  2
_OPEN
 10
420.3533857116926
 20
-420.8182052311973
 30
0.0
 41
2.0
 42
2.0
 43
2.0
 50
90.0
  0
INSERT
  5
2FC
  8
回07-寸法
  6
CONTINUOUS
 62
     5
 66
     1
  2
*X474747
 10
0.0
 20
0.0
 30
0.0
  0
SEQEND
  5
3EC
  8
回07-寸法
 62
     5
  0
POINT
  5
2FD
  8
DEFPOINTS
  6
CONTINUOUS
 62
     0
 10
402.9595260025441
 20
-453.2082052311972
 30
0.0
  0
POINT
  5
2FE
  8
DEFPOINTS
  6
CONTINUOUS
 62
     0
 10
402.6595260025441
 20
-420.8182052311973
 30
0.0
  0
POINT
  5
2FF
  8
DEFPOINTS
  6
CONTINUOUS
 62
     0
 10
420.3533857116926
 20
-420.8182052311973
 30
0.0
  0
ENDBLK
  5
300
  8
0
 62
     7
  0
BLOCK
  8
0
  2
*D222
 70
     1
 10
0.0
 20
0.0
 30
0.0
  3
*D222
  1

  0
LINE
  5
2E8
  8
回07-寸法
  6
CONTINUOUS
 62
     5
 10
399.7595260025441
 20
-450.0082052311973
 30
0.0
 11
426.1566648959781
 21
-450.0082052311973
 31
0.0
  0
LINE
  5
2E9
  8
回07-寸法
  6
CONTINUOUS
 62
     5
 10
402.9595260025441
 20
-453.2082052311972
 30
0.0
 11
426.1566648959781
 21
-453.2082052311972
 31
0.0
  0
LINE
  5
2EA
  8
回07-寸法
  6
CONTINUOUS
 62
     5
 10
425.1566648959781
 20
-448.0082052311971
 30
0.0
 11
425.1566648959781
 21
-446.0082052311973
 31
0.0
  0
LINE
  5
2EB
  8
回07-寸法
  6
CONTINUOUS
 62
     5
 10
425.1566648959781
 20
-455.2082052311972
 30
0.0
 11
425.1566648959781
 21
-475.3082052311973
 31
0.0
  0
LINE
  5
2EC
  8
回07-寸法
  6
CONTINUOUS
 62
     5
 10
425.1566648959781
 20
-450.0082052311973
 30
0.0
 11
425.1566648959781
 21
-453.2082052311972
 31
0.0
  0
INSERT
  5
2ED
  8
回07-寸法
  6
CONTINUOUS
 62
     5
  2
_OPEN
 10
425.1566648959781
 20
-450.0082052311973
 30
0.0
 41
2.0
 42
2.0
 43
2.0
 50
270.0
  0
INSERT
  5
2EE
  8
回07-寸法
  6
CONTINUOUS
 62
     5
  2
_OPEN
 10
425.1566648959781
 20
-453.2082052311972
 30
0.0
 41
2.0
 42
2.0
 43
2.0
 50
90.0
  0
TEXT
  5
2EF
  8
回07-寸法
  6
CONTINUOUS
 62
     5
 10
424.5066648959777
 20
-475.2582052311971
 30
0.0
 40
3.0
  1
3.2 [0.126]
 50
90.0
1001
ACAD
1000
MTEXTBEGIN
1070
    73
1070
     1
1070
    44
1040
1.0
1070
    74
1070
     0
1000
MTEXTEND
  0
POINT
  5
2F0
  8
DEFPOINTS
  6
CONTINUOUS
 62
     0
 10
399.7595260025441
 20
-450.0082052311973
 30
0.0
  0
POINT
  5
2F1
  8
DEFPOINTS
  6
CONTINUOUS
 62
     0
 10
402.9595260025441
 20
-453.2082052311972
 30
0.0
  0
POINT
  5
2F2
  8
DEFPOINTS
  6
CONTINUOUS
 62
     0
 10
425.1566648959781
 20
-453.2082052311972
 30
0.0
  0
ENDBLK
  5
2F3
  8
0
 62
     7
  0
BLOCK
  8
0
  2
*D333
 70
     1
 10
0.0
 20
0.0
 30
0.0
  3
*D333
  1

  0
LINE
  5
2D9
  8
回07-寸法
  6
CONTINUOUS
 62
     5
 10
400.1595260025442
 20
-450.4082052311972
 30
0.0
 11
431.5586720524882
 21
-450.4082052311972
 31
0.0
  0
LINE
  5
2DA
  8
回07-寸法
  6
CONTINUOUS
 62
     5
 10
402.9595260025441
 20
-453.2082052311972
 30
0.0
 11
431.5586720524882
 21
-453.2082052311972
 31
0.0
  0
LINE
  5
2DB
  8
回07-寸法
  6
CONTINUOUS
 62
     5
 10
430.5586720524882
 20
-448.4082052311974
 30
0.0
 11
430.5586720524882
 21
-446.4082052311971
 31
0.0
  0
LINE
  5
2DC
  8
回07-寸法
  6
CONTINUOUS
 62
     5
 10
430.5586720524882
 20
-455.2082052311972
 30
0.0
 11
430.5586720524882
 21
-474.7843863335595
 31
0.0
  0
LINE
  5
2DD
  8
回07-寸法
  6
CONTINUOUS
 62
     5
 10
430.5586720524882
 20
-450.4082052311972
 30
0.0
 11
430.5586720524882
 21
-453.2082052311972
 31
0.0
  0
INSERT
  5
2DE
  8
回07-寸法
  6
CONTINUOUS
 62
     5
  2
_OPEN
 10
430.5586720524882
 20
-450.4082052311972
 30
0.0
 41
2.0
 42
2.0
 43
2.0
 50
270.0
  0
INSERT
  5
2DF
  8
回07-寸法
  6
CONTINUOUS
 62
     5
  2
_OPEN
 10
430.5586720524882
 20
-453.2082052311972
 30
0.0
 41
2.0
 42
2.0
 43
2.0
 50
90.0
  0
TEXT
  5
2E0
  8
回07-寸法
  6
CONTINUOUS
 62
     5
 10
429.9086720524877
 20
-474.6962957823781
 30
0.0
 40
3.0
  1
2.8 [0.110]
 50
90.0
1001
ACAD
1000
MTEXTBEGIN
1070
    73
1070
     1
1070
    44
1040
1.0
1070
    74
1070
     0
1000
MTEXTEND
  0
POINT
  5
2E1
  8
DEFPOINTS
  6
CONTINUOUS
 62
     0
 10
400.1595260025442
 20
-450.4082052311972
 30
0.0
  0
POINT
  5
2E2
  8
DEFPOINTS
  6
CONTINUOUS
 62
     0
 10
402.9595260025441
 20
-453.2082052311972
 30
0.0
  0
POINT
  5
2E3
  8
DEFPOINTS
  6
CONTINUOUS
 62
     0
 10
430.5586720524882
 20
-453.2082052311972
 30
0.0
  0
ENDBLK
  5
2E4
  8
0
 62
     7
  0
BLOCK
  8
0
  2
*D444
 70
     1
 10
0.0
 20
0.0
 30
0.0
  3
*D444
  1

  0
LINE
  5
2CC
  8
回07-寸法
  6
CONTINUOUS
 62
     5
 10
399.7595260025441
 20
-450.0082052311973
 30
0.0
 11
426.1566648959781
 21
-450.0082052311973
 31
0.0
  0
LINE
  5
2CD
  8
回07-寸法
  6
CONTINUOUS
 62
     5
 10
399.7595260025441
 20
-391.6282052311973
 30
0.0
 11
426.1566648959781
 21
-391.6282052311973
 31
0.0
  0
LINE
  5
2CE
  8
回07-寸法
  6
CONTINUOUS
 62
     5
 10
425.1566648959781
 20
-448.0082052311971
 30
0.0
 11
425.1566648959781
 21
-393.6282052311973
 31
0.0
  0
INSERT
  5
2CF
  8
回07-寸法
  6
CONTINUOUS
 62
     5
  2
_OPEN
 10
425.1566648959781
 20
-450.0082052311973
 30
0.0
 41
2.0
 42
2.0
 43
2.0
 50
270.0
  0
INSERT
  5
2D0
  8
回07-寸法
  6
CONTINUOUS
 62
     5
  2
_OPEN
 10
425.1566648959781
 20
-391.6282052311973
 30
0.0
 41
2.0
 42
2.0
 43
2.0
 50
90.0
  0
INSERT
  5
2D1
  8
回07-寸法
  6
CONTINUOUS
 62
     5
 66
     1
  2
*X484848
 10
0.0
 20
0.0
 30
0.0
  0
SEQEND
  5
3F2
  8
回07-寸法
 62
     5
  0
POINT
  5
2D2
  8
DEFPOINTS
  6
CONTINUOUS
 62
     0
 10
399.7595260025441
 20
-450.0082052311973
 30
0.0
  0
POINT
  5
2D3
  8
DEFPOINTS
  6
CONTINUOUS
 62
     0
 10
399.7595260025441
 20
-391.6282052311973
 30
0.0
  0
POINT
  5
2D4
  8
DEFPOINTS
  6
CONTINUOUS
 62
     0
 10
425.1566648959781
 20
-391.6282052311973
 30
0.0
  0
ENDBLK
  5
2D5
  8
0
 62
     7
  0
BLOCK
  8
0
  2
*D555
 70
     1
 10
0.0
 20
0.0
 30
0.0
  3
*D555
  1

  0
LINE
  5
2BF
  8
回07-寸法
  6
CONTINUOUS
 62
     5
 10
400.1595260025442
 20
-450.4082052311972
 30
0.0
 11
431.5586720524882
 21
-450.4082052311972
 31
0.0
  0
LINE
  5
2C0
  8
回07-寸法
  6
CONTINUOUS
 62
     5
 10
400.1595260025442
 20
-391.2282052311973
 30
0.0
 11
431.5586720524882
 21
-391.2282052311973
 31
0.0
  0
LINE
  5
2C1
  8
回07-寸法
  6
CONTINUOUS
 62
     5
 10
430.5586720524882
 20
-448.4082052311974
 30
0.0
 11
430.5586720524882
 21
-393.2282052311973
 31
0.0
  0
INSERT
  5
2C2
  8
回07-寸法
  6
CONTINUOUS
 62
     5
  2
_OPEN
 10
430.5586720524882
 20
-450.4082052311972
 30
0.0
 41
2.0
 42
2.0
 43
2.0
 50
270.0
  0
INSERT
  5
2C3
  8
回07-寸法
  6
CONTINUOUS
 62
     5
  2
_OPEN
 10
430.5586720524882
 20
-391.2282052311973
 30
0.0
 41
2.0
 42
2.0
 43
2.0
 50
90.0
  0
INSERT
  5
2C4
  8
回07-寸法
  6
CONTINUOUS
 62
     5
 66
     1
  2
*X494949
 10
0.0
 20
0.0
 30
0.0
  0
SEQEND
  5
3F8
  8
回07-寸法
 62
     5
  0
POINT
  5
2C5
  8
DEFPOINTS
  6
CONTINUOUS
 62
     0
 10
400.1595260025442
 20
-450.4082052311972
 30
0.0
  0
POINT
  5
2C6
  8
DEFPOINTS
  6
CONTINUOUS
 62
     0
 10
400.1595260025442
 20
-391.2282052311973
 30
0.0
  0
POINT
  5
2C7
  8
DEFPOINTS
  6
CONTINUOUS
 62
     0
 10
430.5586720524882
 20
-391.2282052311973
 30
0.0
  0
ENDBLK
  5
2C8
  8
0
 62
     7
  0
BLOCK
  8
0
  2
*D666
 70
     1
 10
0.0
 20
0.0
 30
0.0
  3
*D666
  1

  0
LINE
  5
2B2
  8
回07-寸法
  6
CONTINUOUS
 62
     5
 10
402.9595260025441
 20
-453.2082052311972
 30
0.0
 11
447.0084535669848
 21
-453.2082052311972
 31
0.0
  0
LINE
  5
2B3
  8
回07-寸法
  6
CONTINUOUS
 62
     5
 10
402.9595260025441
 20
-388.2082052311973
 30
0.0
 11
447.0084535669848
 21
-388.2082052311973
 31
0.0
  0
LINE
  5
2B4
  8
回07-寸法
  6
CONTINUOUS
 62
     5
 10
446.0084535669849
 20
-451.2082052311972
 30
0.0
 11
446.0084535669849
 21
-390.2082052311973
 31
0.0
  0
INSERT
  5
2B5
  8
回07-寸法
  6
CONTINUOUS
 62
     5
  2
_OPEN
 10
446.0084535669849
 20
-453.2082052311972
 30
0.0
 41
2.0
 42
2.0
 43
2.0
 50
270.0
  0
INSERT
  5
2B6
  8
回07-寸法
  6
CONTINUOUS
 62
     5
  2
_OPEN
 10
446.0084535669849
 20
-388.2082052311973
 30
0.0
 41
2.0
 42
2.0
 43
2.0
 50
90.0
  0
INSERT
  5
2B7
  8
回07-寸法
  6
CONTINUOUS
 62
     5
 66
     1
  2
*X505050
 10
0.0
 20
0.0
 30
0.0
  0
SEQEND
  5
401
  8
回07-寸法
 62
     5
  0
POINT
  5
2B8
  8
DEFPOINTS
  6
CONTINUOUS
 62
     0
 10
402.9595260025441
 20
-453.2082052311972
 30
0.0
  0
POINT
  5
2B9
  8
DEFPOINTS
  6
CONTINUOUS
 62
     0
 10
402.9595260025441
 20
-388.2082052311973
 30
0.0
  0
POINT
  5
2BA
  8
DEFPOINTS
  6
CONTINUOUS
 62
     0
 10
446.0084535669849
 20
-388.2082052311973
 30
0.0
  0
ENDBLK
  5
2BB
  8
0
 62
     7
  0
BLOCK
  8
0
  2
*D777
 70
     1
 10
0.0
 20
0.0
 30
0.0
  3
*D777
  1

  0
LINE
  5
2A5
  8
回07-寸法
  6
CONTINUOUS
 62
     5
 10
399.7595260025438
 20
-391.628205231197
 30
0.0
 11
399.7595260025438
 21
-374.7331915105233
 31
0.0
  0
LINE
  5
2A6
  8
回07-寸法
  6
CONTINUOUS
 62
     5
 10
322.179526002544
 20
-391.628205231197
 30
0.0
 11
322.179526002544
 21
-374.7331915105233
 31
0.0
  0
LINE
  5
2A7
  8
回07-寸法
  6
CONTINUOUS
 62
     5
 10
397.7595260025438
 20
-375.7331915105233
 30
0.0
 11
324.179526002544
 21
-375.7331915105233
 31
0.0
  0
INSERT
  5
2A8
  8
回07-寸法
  6
CONTINUOUS
 62
     5
  2
_OPEN
 10
399.7595260025438
 20
-375.7331915105233
 30
0.0
 41
2.0
 42
2.0
 43
2.0
  0
INSERT
  5
2A9
  8
回07-寸法
  6
CONTINUOUS
 62
     5
  2
_OPEN
 10
322.179526002544
 20
-375.7331915105233
 30
0.0
 41
2.0
 42
2.0
 43
2.0
 50
180.0
  0
INSERT
  5
2AA
  8
回07-寸法
  6
CONTINUOUS
 62
     5
 66
     1
  2
*X515151
 10
0.0
 20
0.0
 30
0.0
  0
SEQEND
  5
407
  8
回07-寸法
 62
     5
  0
POINT
  5
2AB
  8
DEFPOINTS
  6
CONTINUOUS
 62
     0
 10
399.7595260025438
 20
-391.628205231197
 30
0.0
  0
POINT
  5
2AC
  8
DEFPOINTS
  6
CONTINUOUS
 62
     0
 10
322.179526002544
 20
-391.628205231197
 30
0.0
  0
POINT
  5
2AD
  8
DEFPOINTS
  6
CONTINUOUS
 62
     0
 10
322.179526002544
 20
-375.7331915105233
 30
0.0
  0
ENDBLK
  5
2AE
  8
0
 62
     7
  0
BLOCK
  8
0
  2
*D888
 70
     1
 10
0.0
 20
0.0
 30
0.0
  3
*D888
  1

  0
LINE
  5
298
  8
回07-寸法
  6
CONTINUOUS
 62
     5
 10
400.159526002544
 20
-391.2282052311971
 30
0.0
 11
400.159526002544
 21
-368.9272038972049
 31
0.0
  0
LINE
  5
299
  8
回07-寸法
  6
CONTINUOUS
 62
     5
 10
321.7795260025439
 20
-391.2282052311971
 30
0.0
 11
321.7795260025439
 21
-368.9272038972049
 31
0.0
  0
LINE
  5
29A
  8
回07-寸法
  6
CONTINUOUS
 62
     5
 10
398.159526002544
 20
-369.9272038972049
 30
0.0
 11
323.7795260025439
 21
-369.9272038972049
 31
0.0
  0
INSERT
  5
29B
  8
回07-寸法
  6
CONTINUOUS
 62
     5
  2
_OPEN
 10
400.159526002544
 20
-369.9272038972049
 30
0.0
 41
2.0
 42
2.0
 43
2.0
  0
INSERT
  5
29C
  8
回07-寸法
  6
CONTINUOUS
 62
     5
  2
_OPEN
 10
321.7795260025439
 20
-369.9272038972049
 30
0.0
 41
2.0
 42
2.0
 43
2.0
 50
180.0
  0
INSERT
  5
29D
  8
回07-寸法
  6
CONTINUOUS
 62
     5
 66
     1
  2
*X525252
 10
0.0
 20
0.0
 30
0.0
  0
SEQEND
  5
40D
  8
回07-寸法
 62
     5
  0
POINT
  5
29E
  8
DEFPOINTS
  6
CONTINUOUS
 62
     0
 10
400.159526002544
 20
-391.2282052311971
 30
0.0
  0
POINT
  5
29F
  8
DEFPOINTS
  6
CONTINUOUS
 62
     0
 10
321.7795260025439
 20
-391.2282052311971
 30
0.0
  0
POINT
  5
2A0
  8
DEFPOINTS
  6
CONTINUOUS
 62
     0
 10
321.7795260025439
 20
-369.9272038972049
 30
0.0
  0
ENDBLK
  5
2A1
  8
0
 62
     7
  0
BLOCK
  8
0
  2
*D999
 70
     1
 10
0.0
 20
0.0
 30
0.0
  3
*D999
  1

  0
LINE
  5
28B
  8
回07-寸法
  6
CONTINUOUS
 62
     5
 10
402.9595260025438
 20
-388.2082052311972
 30
0.0
 11
402.9595260025438
 21
-351.807348234996
 31
0.0
  0
LINE
  5
28C
  8
回07-寸法
  6
CONTINUOUS
 62
     5
 10
315.959526002544
 20
-388.2082052311972
 30
0.0
 11
315.959526002544
 21
-351.807348234996
 31
0.0
  0
LINE
  5
28D
  8
回07-寸法
  6
CONTINUOUS
 62
     5
 10
400.9595260025439
 20
-352.807348234996
 30
0.0
 11
317.959526002544
 21
-352.807348234996
 31
0.0
  0
INSERT
  5
28E
  8
回07-寸法
  6
CONTINUOUS
 62
     5
  2
_OPEN
 10
402.9595260025438
 20
-352.807348234996
 30
0.0
 41
2.0
 42
2.0
 43
2.0
  0
INSERT
  5
28F
  8
回07-寸法
  6
CONTINUOUS
 62
     5
  2
_OPEN
 10
315.959526002544
 20
-352.807348234996
 30
0.0
 41
2.0
 42
2.0
 43
2.0
 50
180.0
  0
INSERT
  5
290
  8
回07-寸法
  6
CONTINUOUS
 62
     5
 66
     1
  2
*X535353
 10
0.0
 20
0.0
 30
0.0
  0
SEQEND
  5
416
  8
回07-寸法
 62
     5
  0
POINT
  5
291
  8
DEFPOINTS
  6
CONTINUOUS
 62
     0
 10
402.9595260025438
 20
-388.2082052311972
 30
0.0
  0
POINT
  5
292
  8
DEFPOINTS
  6
CONTINUOUS
 62
     0
 10
315.959526002544
 20
-388.2082052311972
 30
0.0
  0
POINT
  5
293
  8
DEFPOINTS
  6
CONTINUOUS
 62
     0
 10
315.959526002544
 20
-352.807348234996
 30
0.0
  0
ENDBLK
  5
294
  8
0
 62
     7
  0
BLOCK
  8
0
  2
*D101010
 70
     1
 10
0.0
 20
0.0
 30
0.0
  3
*D101010
  1

  0
LINE
  5
27C
  8
回07-寸法
  6
CONTINUOUS
 62
     5
 10
312.1737395649176
 20
-432.7082052311971
 30
0.0
 11
276.9490693404186
 21
-432.7082052311971
 31
0.0
  0
LINE
  5
27D
  8
回07-寸法
  6
CONTINUOUS
 62
     5
 10
312.1737395649176
 20
-448.7082052311975
 30
0.0
 11
276.9490693404186
 21
-448.7082052311975
 31
0.0
  0
LINE
  5
27E
  8
回07-寸法
  6
CONTINUOUS
 62
     5
 10
277.9490693404186
 20
-450.7082052311973
 30
0.0
 11
277.9490693404186
 21
-452.7082052311975
 31
0.0
  0
LINE
  5
27F
  8
回07-寸法
  6
CONTINUOUS
 62
     5
 10
277.9490693404186
 20
-430.7082052311971
 30
0.0
 11
277.9490693404186
 21
-411.5082052311969
 31
0.0
  0
LINE
  5
280
  8
回07-寸法
  6
CONTINUOUS
 62
     5
 10
277.9490693404186
 20
-448.7082052311975
 30
0.0
 11
277.9490693404186
 21
-432.7082052311971
 31
0.0
  0
INSERT
  5
281
  8
回07-寸法
  6
CONTINUOUS
 62
     5
  2
_OPEN
 10
277.9490693404186
 20
-448.7082052311975
 30
0.0
 41
2.0
 42
2.0
 43
2.0
 50
90.0
  0
INSERT
  5
282
  8
回07-寸法
  6
CONTINUOUS
 62
     5
  2
_OPEN
 10
277.9490693404186
 20
-432.7082052311971
 30
0.0
 41
2.0
 42
2.0
 43
2.0
 50
270.0
  0
TEXT
  5
283
  8
回07-寸法
  6
CONTINUOUS
 62
     5
 10
277.2990693404184
 20
-428.6582052311969
 30
0.0
 40
3.0
  1
16 [0.630]
 50
90.0
1001
ACAD
1000
MTEXTBEGIN
1070
    73
1070
     1
1070
    44
1040
1.0
1070
    74
1070
     0
1000
MTEXTEND
  0
POINT
  5
284
  8
DEFPOINTS
  6
CONTINUOUS
 62
     0
 10
312.1737395649176
 20
-432.7082052311971
 30
0.0
  0
POINT
  5
285
  8
DEFPOINTS
  6
CONTINUOUS
 62
     0
 10
312.1737395649176
 20
-448.7082052311975
 30
0.0
  0
POINT
  5
286
  8
DEFPOINTS
  6
CONTINUOUS
 62
     0
 10
277.9490693404186
 20
-448.7082052311975
 30
0.0
  0
ENDBLK
  5
287
  8
0
 62
     7
  0
BLOCK
  8
0
  2
*D111111
 70
     1
 10
0.0
 20
0.0
 30
0.0
  3
*D111111
  1

  0
LINE
  5
26D
  8
回07-寸法
  6
CONTINUOUS
 62
     5
 10
315.959526002544
 20
-431.7617706064821
 30
0.0
 11
315.959526002544
 21
-415.8927242436979
 31
0.0
  0
LINE
  5
26E
  8
回07-寸法
  6
CONTINUOUS
 62
     5
 10
305.848263433766
 20
-437.5832052311972
 30
0.0
 11
305.848263433766
 21
-415.8927242436979
 31
0.0
  0
LINE
  5
26F
  8
回07-寸法
  6
CONTINUOUS
 62
     5
 10
317.959526002544
 20
-416.8927242436978
 30
0.0
 11
319.959526002544
 21
-416.8927242436978
 31
0.0
  0
LINE
  5
270
  8
回07-寸法
  6
CONTINUOUS
 62
     5
 10
303.848263433766
 20
-416.8927242436978
 30
0.0
 11
281.7308899036687
 21
-416.8927242436978
 31
0.0
  0
LINE
  5
271
  8
回07-寸法
  6
CONTINUOUS
 62
     5
 10
315.959526002544
 20
-416.8927242436978
 30
0.0
 11
305.848263433766
 21
-416.8927242436978
 31
0.0
  0
INSERT
  5
272
  8
回07-寸法
  6
CONTINUOUS
 62
     5
  2
_OPEN
 10
315.959526002544
 20
-416.8927242436978
 30
0.0
 41
2.0
 42
2.0
 43
2.0
 50
180.0
  0
INSERT
  5
273
  8
回07-寸法
  6
CONTINUOUS
 62
     5
  2
_OPEN
 10
305.848263433766
 20
-416.8927242436978
 30
0.0
 41
2.0
 42
2.0
 43
2.0
  0
TEXT
  5
274
  8
回07-寸法
  6
CONTINUOUS
 62
     5
 10
281.8321908324437
 20
-416.2427242436979
 30
0.0
 40
3.0
  1
9.4 [0.370]
1001
ACAD
1000
MTEXTBEGIN
1070
    73
1070
     1
1070
    44
1040
1.0
1070
    74
1070
     0
1000
MTEXTEND
  0
POINT
  5
275
  8
DEFPOINTS
  6
CONTINUOUS
 62
     0
 10
315.959526002544
 20
-431.7617706064821
 30
0.0
  0
POINT
  5
276
  8
DEFPOINTS
  6
CONTINUOUS
 62
     0
 10
305.848263433766
 20
-437.5832052311972
 30
0.0
  0
POINT
  5
277
  8
DEFPOINTS
  6
CONTINUOUS
 62
     0
 10
305.848263433766
 20
-416.8927242436978
 30
0.0
  0
ENDBLK
  5
278
  8
0
 62
     7
  0
BLOCK
  8
0
  2
*D121212
 70
     1
 10
0.0
 20
0.0
 30
0.0
  3
*D121212
  1

  0
LINE
  5
25E
  8
回07-寸法
  6
CONTINUOUS
 62
     5
 10
266.4595260025442
 20
-443.8332052311974
 30
0.0
 11
257.6380485788742
 21
-443.8332052311974
 31
0.0
  0
LINE
  5
25F
  8
回07-寸法
  6
CONTINUOUS
 62
     5
 10
266.4595260025444
 20
-437.5832052311974
 30
0.0
 11
257.6380485788742
 21
-437.5832052311974
 31
0.0
  0
LINE
  5
260
  8
回07-寸法
  6
CONTINUOUS
 62
     5
 10
258.6380485788741
 20
-445.8332052311972
 30
0.0
 11
258.6380485788741
 21
-447.8332052311974
 31
0.0
  0
LINE
  5
261
  8
回07-寸法
  6
CONTINUOUS
 62
     5
 10
258.6380485788741
 20
-435.5832052311972
 30
0.0
 11
258.6380485788741
 21
-412.3036776721423
 31
0.0
  0
LINE
  5
262
  8
回07-寸法
  6
CONTINUOUS
 62
     5
 10
258.6380485788741
 20
-443.8332052311974
 30
0.0
 11
258.6380485788741
 21
-437.5832052311974
 31
0.0
  0
INSERT
  5
263
  8
回07-寸法
  6
CONTINUOUS
 62
     5
  2
_OPEN
 10
258.6380485788741
 20
-443.8332052311974
 30
0.0
 41
2.0
 42
2.0
 43
2.0
 50
90.0
  0
INSERT
  5
264
  8
回07-寸法
  6
CONTINUOUS
 62
     5
  2
_OPEN
 10
258.6380485788741
 20
-437.5832052311974
 30
0.0
 41
2.0
 42
2.0
 43
2.0
 50
270.0
  0
TEXT
  5
265
  8
回07-寸法
  6
CONTINUOUS
 62
     5
 10
257.988048578874
 20
-433.4434414516697
 30
0.0
 40
3.0
  1
6.25 [0.246]
 50
90.0
1001
ACAD
1000
MTEXTBEGIN
1070
    73
1070
     1
1070
    44
1040
1.0
1070
    74
1070
     0
1000
MTEXTEND
  0
POINT
  5
266
  8
DEFPOINTS
  6
CONTINUOUS
 62
     0
 10
266.4595260025442
 20
-443.8332052311974
 30
0.0
  0
POINT
  5
267
  8
DEFPOINTS
  6
CONTINUOUS
 62
     0
 10
266.4595260025444
 20
-437.5832052311974
 30
0.0
  0
POINT
  5
268
  8
DEFPOINTS
  6
CONTINUOUS
 62
     0
 10
258.6380485788741
 20
-437.5832052311974
 30
0.0
  0
ENDBLK
  5
269
  8
0
 62
     7
  0
BLOCK
  8
0
  2
*D131313
 70
     1
 10
0.0
 20
0.0
 30
0.0
  3
*D131313
  1

  0
LINE
  5
22E
  8
回07-寸法
  6
CONTINUOUS
 62
     5
 10
402.6595260025441
 20
-489.5580582826537
 30
0.0
 11
413.2905930508798
 21
-489.5580582826537
 31
0.0
  0
LINE
  5
22F
  8
回07-寸法
  6
CONTINUOUS
 62
     5
 10
402.9595260025441
 20
-494.0580582826537
 30
0.0
 11
413.2905930508798
 21
-494.0580582826537
 31
0.0
  0
LINE
  5
230
  8
回07-寸法
  6
CONTINUOUS
 62
     5
 10
412.2905930508798
 20
-487.558058282654
 30
0.0
 11
412.2905930508798
 21
-485.5580582826537
 31
0.0
  0
LINE
  5
231
  8
回07-寸法
  6
CONTINUOUS
 62
     5
 10
412.2905930508798
 20
-496.058058282654
 30
0.0
 11
412.2905930508798
 21
-529.1687682741367
 31
0.0
  0
LINE
  5
232
  8
回07-寸法
  6
CONTINUOUS
 62
     5
 10
412.2905930508798
 20
-489.5580582826537
 30
0.0
 11
412.2905930508798
 21
-494.0580582826537
 31
0.0
  0
INSERT
  5
233
  8
回07-寸法
  6
CONTINUOUS
 62
     5
  2
_OPEN
 10
412.2905930508798
 20
-489.5580582826537
 30
0.0
 41
2.0
 42
2.0
 43
2.0
 50
270.0
  0
INSERT
  5
234
  8
回07-寸法
  6
CONTINUOUS
 62
     5
  2
_OPEN
 10
412.2905930508798
 20
-494.0580582826537
 30
0.0
 41
2.0
 42
2.0
 43
2.0
 50
90.0
  0
INSERT
  5
235
  8
回07-寸法
  6
CONTINUOUS
 62
     5
 66
     1
  2
*X545454
 10
0.0
 20
0.0
 30
0.0
  0
SEQEND
  5
41F
  8
回07-寸法
 62
     5
  0
POINT
  5
236
  8
DEFPOINTS
  6
CONTINUOUS
 62
     0
 10
402.6595260025441
 20
-489.5580582826537
 30
0.0
  0
POINT
  5
237
  8
DEFPOINTS
  6
CONTINUOUS
 62
     0
 10
402.9595260025441
 20
-494.0580582826537
 30
0.0
  0
POINT
  5
238
  8
DEFPOINTS
  6
CONTINUOUS
 62
     0
 10
412.2905930508798
 20
-494.0580582826537
 30
0.0
  0
ENDBLK
  5
239
  8
0
 62
     7
  0
BLOCK
  8
0
  2
*D141414
 70
     1
 10
0.0
 20
0.0
 30
0.0
  3
*D141414
  1

  0
LINE
  5
21F
  8
回07-寸法
  6
CONTINUOUS
 62
     5
 10
265.9595260025444
 20
-493.258058282654
 30
0.0
 11
257.6990109492651
 21
-493.258058282654
 31
0.0
  0
LINE
  5
220
  8
回07-寸法
  6
CONTINUOUS
 62
     5
 10
265.9595260025444
 20
-491.0580582826538
 30
0.0
 11
257.6990109492651
 21
-491.0580582826538
 31
0.0
  0
LINE
  5
221
  8
回07-寸法
  6
CONTINUOUS
 62
     5
 10
258.6990109492651
 20
-489.0580582826538
 30
0.0
 11
258.6990109492651
 21
-487.058058282654
 31
0.0
  0
LINE
  5
222
  8
回07-寸法
  6
CONTINUOUS
 62
     5
 10
258.6990109492651
 20
-495.258058282654
 30
0.0
 11
258.6990109492651
 21
-526.6007304873783
 31
0.0
  0
LINE
  5
223
  8
回07-寸法
  6
CONTINUOUS
 62
     5
 10
258.6990109492651
 20
-491.0580582826538
 30
0.0
 11
258.6990109492651
 21
-493.258058282654
 31
0.0
  0
INSERT
  5
224
  8
回07-寸法
  6
CONTINUOUS
 62
     5
  2
_OPEN
 10
258.6990109492651
 20
-491.0580582826538
 30
0.0
 41
2.0
 42
2.0
 43
2.0
 50
270.0
  0
INSERT
  5
225
  8
回07-寸法
  6
CONTINUOUS
 62
     5
  2
_OPEN
 10
258.6990109492651
 20
-493.258058282654
 30
0.0
 41
2.0
 42
2.0
 43
2.0
 50
90.0
  0
INSERT
  5
226
  8
回07-寸法
  6
CONTINUOUS
 62
     5
 66
     1
  2
*X555555
 10
0.0
 20
0.0
 30
0.0
  0
SEQEND
  5
428
  8
回07-寸法
 62
     5
  0
POINT
  5
227
  8
DEFPOINTS
  6
CONTINUOUS
 62
     0
 10
265.9595260025444
 20
-493.258058282654
 30
0.0
  0
POINT
  5
228
  8
DEFPOINTS
  6
CONTINUOUS
 62
     0
 10
265.9595260025444
 20
-491.0580582826538
 30
0.0
  0
POINT
  5
229
  8
DEFPOINTS
  6
CONTINUOUS
 62
     0
 10
258.6990109492651
 20
-491.0580582826538
 30
0.0
  0
ENDBLK
  5
22A
  8
0
 62
     7
  0
BLOCK
  8
0
  2
*D151515
 70
     1
 10
0.0
 20
0.0
 30
0.0
  3
*D151515
  1

  0
LINE
  5
210
  8
回07-寸法
  6
CONTINUOUS
 62
     5
 10
275.9595260025442
 20
-493.2580582826536
 30
0.0
 11
275.9595260025442
 21
-517.0484092828701
 31
0.0
  0
LINE
  5
211
  8
回07-寸法
  6
CONTINUOUS
 62
     5
 10
265.9595260025442
 20
-493.2580582826536
 30
0.0
 11
265.9595260025442
 21
-517.0484092828701
 31
0.0
  0
LINE
  5
212
  8
回07-寸法
  6
CONTINUOUS
 62
     5
 10
263.9595260025442
 20
-516.0484092828701
 30
0.0
 11
261.9595260025442
 21
-516.0484092828701
 31
0.0
  0
LINE
  5
213
  8
回07-寸法
  6
CONTINUOUS
 62
     5
 10
277.9595260025442
 20
-516.0484092828701
 30
0.0
 11
299.8676467893026
 21
-516.0484092828701
 31
0.0
  0
LINE
  5
214
  8
回07-寸法
  6
CONTINUOUS
 62
     5
 10
265.9595260025442
 20
-516.0484092828701
 30
0.0
 11
275.9595260025442
 21
-516.0484092828701
 31
0.0
  0
INSERT
  5
215
  8
回07-寸法
  6
CONTINUOUS
 62
     5
  2
_OPEN
 10
265.9595260025442
 20
-516.0484092828701
 30
0.0
 41
2.0
 42
2.0
 43
2.0
  0
INSERT
  5
216
  8
回07-寸法
  6
CONTINUOUS
 62
     5
  2
_OPEN
 10
275.9595260025442
 20
-516.0484092828701
 30
0.0
 41
2.0
 42
2.0
 43
2.0
 50
180.0
  0
TEXT
  5
217
  8
回07-寸法
  6
CONTINUOUS
 62
     5
 10
280.0081708431329
 20
-515.3984691889724
 30
0.0
 40
3.0
  1
(10 [0.394])
1001
ACAD
1000
MTEXTBEGIN
1070
    73
1070
     1
1070
    44
1040
1.0
1070
    74
1070
     0
1000
MTEXTEND
  0
POINT
  5
218
  8
DEFPOINTS
  6
CONTINUOUS
 62
     0
 10
275.9595260025442
 20
-493.2580582826536
 30
0.0
  0
POINT
  5
219
  8
DEFPOINTS
  6
CONTINUOUS
 62
     0
 10
265.9595260025442
 20
-493.2580582826536
 30
0.0
  0
POINT
  5
21A
  8
DEFPOINTS
  6
CONTINUOUS
 62
     0
 10
265.9595260025442
 20
-516.0484092828701
 30
0.0
  0
ENDBLK
  5
21B
  8
0
 62
     7
  0
BLOCK
  8
0
  2
*D161616
 70
     1
 10
0.0
 20
0.0
 30
0.0
  3
*D161616
  1

  0
LINE
  5
201
  8
回07-寸法
  6
CONTINUOUS
 62
     5
 10
265.9595260025442
 20
-491.0580582826536
 30
0.0
 11
265.9595260025442
 21
-483.7246744066873
 31
0.0
  0
LINE
  5
202
  8
回07-寸法
  6
CONTINUOUS
 62
     5
 10
270.9595260025442
 20
-490.4580582826536
 30
0.0
 11
270.9595260025442
 21
-483.7246744066873
 31
0.0
  0
LINE
  5
203
  8
回07-寸法
  6
CONTINUOUS
 62
     5
 10
263.9595260025442
 20
-484.7246744066874
 30
0.0
 11
261.9595260025442
 21
-484.7246744066874
 31
0.0
  0
LINE
  5
204
  8
回07-寸法
  6
CONTINUOUS
 62
     5
 10
272.9595260025442
 20
-484.7246744066874
 30
0.0
 11
290.070008994027
 21
-484.7246744066874
 31
0.0
  0
LINE
  5
205
  8
回07-寸法
  6
CONTINUOUS
 62
     5
 10
265.9595260025442
 20
-484.7246744066874
 30
0.0
 11
270.9595260025442
 21
-484.7246744066874
 31
0.0
  0
INSERT
  5
206
  8
回07-寸法
  6
CONTINUOUS
 62
     5
  2
_OPEN
 10
265.9595260025442
 20
-484.7246744066874
 30
0.0
 41
2.0
 42
2.0
 43
2.0
  0
INSERT
  5
207
  8
回07-寸法
  6
CONTINUOUS
 62
     5
  2
_OPEN
 10
270.9595260025442
 20
-484.7246744066874
 30
0.0
 41
2.0
 42
2.0
 43
2.0
 50
180.0
  0
TEXT
  5
208
  8
回07-寸法
  6
CONTINUOUS
 62
     5
 10
275.0093519454952
 20
-484.0747343127898
 30
0.0
 40
3.0
  1
5 [0.197]
1001
ACAD
1000
MTEXTBEGIN
1070
    73
1070
     1
1070
    44
1040
1.0
1070
    74
1070
     0
1000
MTEXTEND
  0
POINT
  5
209
  8
DEFPOINTS
  6
CONTINUOUS
 62
     0
 10
265.9595260025442
 20
-491.0580582826536
 30
0.0
  0
POINT
  5
20A
  8
DEFPOINTS
  6
CONTINUOUS
 62
     0
 10
270.9595260025442
 20
-490.4580582826536
 30
0.0
  0
POINT
  5
20B
  8
DEFPOINTS
  6
CONTINUOUS
 62
     0
 10
270.9595260025442
 20
-484.7246744066874
 30
0.0
  0
ENDBLK
  5
20C
  8
0
 62
     7
  0
BLOCK
  8
0
  2
*D171717
 70
     1
 10
0.0
 20
0.0
 30
0.0
  3
*D171717
  1

  0
LINE
  5
1E4
  8
回07-寸法
  6
CONTINUOUS
 62
     5
 10
402.9595260025441
 20
-450.4082052311972
 30
0.0
 11
414.8574106159998
 21
-450.4082052311972
 31
0.0
  0
LINE
  5
1E5
  8
回07-寸法
  6
CONTINUOUS
 62
     5
 10
402.9595260025441
 20
-448.4082052311974
 30
0.0
 11
414.8574106159998
 21
-448.4082052311974
 31
0.0
  0
LINE
  5
1E6
  8
回07-寸法
  6
CONTINUOUS
 62
     5
 10
413.8574106159998
 20
-452.4082052311974
 30
0.0
 11
413.8574106159998
 21
-454.4082052311972
 31
0.0
  0
LINE
  5
1E7
  8
回07-寸法
  6
CONTINUOUS
 62
     5
 10
413.8574106159998
 20
-446.4082052311971
 30
0.0
 11
413.8574106159998
 21
-426.3000844444388
 31
0.0
  0
LINE
  5
1E8
  8
回07-寸法
  6
CONTINUOUS
 62
     5
 10
413.8574106159998
 20
-450.4082052311972
 30
0.0
 11
413.8574106159998
 21
-448.4082052311974
 31
0.0
  0
INSERT
  5
1E9
  8
回07-寸法
  6
CONTINUOUS
 62
     5
  2
_OPEN
 10
413.8574106159998
 20
-450.4082052311972
 30
0.0
 41
2.0
 42
2.0
 43
2.0
 50
90.0
  0
INSERT
  5
1EA
  8
回07-寸法
  6
CONTINUOUS
 62
     5
  2
_OPEN
 10
413.8574106159998
 20
-448.4082052311974
 30
0.0
 41
2.0
 42
2.0
 43
2.0
 50
270.0
  0
TEXT
  5
1EB
  8
回07-寸法
  6
CONTINUOUS
 62
     5
 10
413.2074705221019
 20
-444.3595603906087
 30
0.0
 40
3.0
  1
(2 [0.079])
 50
90.0
1001
ACAD
1000
MTEXTBEGIN
1070
    73
1070
     1
1070
    44
1040
1.0
1070
    74
1070
     0
1000
MTEXTEND
  0
POINT
  5
1EC
  8
DEFPOINTS
  6
CONTINUOUS
 62
     0
 10
402.9595260025441
 20
-450.4082052311972
 30
0.0
  0
POINT
  5
1ED
  8
DEFPOINTS
  6
CONTINUOUS
 62
     0
 10
402.9595260025441
 20
-448.4082052311974
 30
0.0
  0
POINT
  5
1EE
  8
DEFPOINTS
  6
CONTINUOUS
 62
     0
 10
413.8574106159998
 20
-448.4082052311974
 30
0.0
  0
ENDBLK
  5
1EF
  8
0
 62
     7
  0
BLOCK
  8
0
  2
*D181818
 70
     1
 10
0.0
 20
0.0
 30
0.0
  3
*D181818
  1

  0
LINE
  5
1C6
  8
回07-寸法
  6
CONTINUOUS
 62
     5
 10
226.2120999763426
 20
-376.3508093874536
 30
0.0
 11
220.0222794742332
 21
-376.3508093874536
 31
0.0
  0
LINE
  5
1C7
  8
回07-寸法
  6
CONTINUOUS
 62
     5
 10
226.2120999763427
 20
-374.2508093874536
 30
0.0
 11
220.0222794742332
 21
-374.2508093874536
 31
0.0
  0
LINE
  5
1C8
  8
回07-寸法
  6
CONTINUOUS
 62
     5
 10
221.0222794742332
 20
-378.3508093874536
 30
0.0
 11
221.0222794742332
 21
-380.3508093874537
 31
0.0
  0
LINE
  5
1C9
  8
回07-寸法
  6
CONTINUOUS
 62
     5
 10
221.0222794742332
 20
-372.2508093874536
 30
0.0
 11
221.0222794742332
 21
-332.5907703874536
 31
0.0
  0
LINE
  5
1CA
  8
回07-寸法
  6
CONTINUOUS
 62
     5
 10
221.0222794742332
 20
-376.3508093874536
 30
0.0
 11
221.0222794742332
 21
-374.2508093874536
 31
0.0
  0
INSERT
  5
1CB
  8
回07-寸法
  6
CONTINUOUS
 62
     5
  2
_OPEN
 10
221.0222794742332
 20
-376.3508093874536
 30
0.0
 41
2.0
 42
2.0
 43
2.0
 50
90.0
  0
INSERT
  5
1CC
  8
回07-寸法
  6
CONTINUOUS
 62
     5
  2
_OPEN
 10
221.0222794742332
 20
-374.2508093874536
 30
0.0
 41
2.0
 42
2.0
 43
2.0
 50
270.0
  0
INSERT
  5
1CD
  8
回07-寸法
  6
CONTINUOUS
 62
     5
 66
     1
  2
*X565656
 10
0.0
 20
0.0
 30
0.0
  0
SEQEND
  5
431
  8
回07-寸法
 62
     5
  0
POINT
  5
1CE
  8
DEFPOINTS
  6
CONTINUOUS
 62
     0
 10
226.2120999763426
 20
-376.3508093874536
 30
0.0
  0
POINT
  5
1CF
  8
DEFPOINTS
  6
CONTINUOUS
 62
     0
 10
226.2120999763427
 20
-374.2508093874536
 30
0.0
  0
POINT
  5
1D0
  8
DEFPOINTS
  6
CONTINUOUS
 62
     0
 10
221.0222794742332
 20
-374.2508093874536
 30
0.0
  0
ENDBLK
  5
1D1
  8
0
 62
     7
  0
BLOCK
  8
0
  2
*D191919
 70
     1
 10
0.0
 20
0.0
 30
0.0
  3
*D191919
  1

  0
LINE
  5
1B7
  8
回07-寸法
  6
CONTINUOUS
 62
     5
 10
226.2120999763426
 20
-375.3008093874536
 30
0.0
 11
205.202177753008
 21
-375.3008093874536
 31
0.0
  0
LINE
  5
1B8
  8
回07-寸法
  6
CONTINUOUS
 62
     5
 10
226.2120999763424
 20
-386.5508093874537
 30
0.0
 11
205.202177753008
 21
-386.5508093874537
 31
0.0
  0
LINE
  5
1B9
  8
回07-寸法
  6
CONTINUOUS
 62
     5
 10
206.202177753008
 20
-388.5508093874537
 30
0.0
 11
206.202177753008
 21
-390.5508093874537
 31
0.0
  0
LINE
  5
1BA
  8
回07-寸法
  6
CONTINUOUS
 62
     5
 10
206.202177753008
 20
-373.3008093874536
 30
0.0
 11
206.202177753008
 21
-340.3107708874536
 31
0.0
  0
LINE
  5
1BB
  8
回07-寸法
  6
CONTINUOUS
 62
     5
 10
206.202177753008
 20
-386.5508093874537
 30
0.0
 11
206.202177753008
 21
-375.3008093874536
 31
0.0
  0
INSERT
  5
1BC
  8
回07-寸法
  6
CONTINUOUS
 62
     5
  2
_OPEN
 10
206.202177753008
 20
-386.5508093874537
 30
0.0
 41
2.0
 42
2.0
 43
2.0
 50
90.0
  0
INSERT
  5
1BD
  8
回07-寸法
  6
CONTINUOUS
 62
     5
  2
_OPEN
 10
206.202177753008
 20
-375.3008093874536
 30
0.0
 41
2.0
 42
2.0
 43
2.0
 50
270.0
  0
INSERT
  5
1BE
  8
回07-寸法
  6
CONTINUOUS
 62
     5
 66
     1
  2
*X575757
 10
0.0
 20
0.0
 30
0.0
  0
SEQEND
  5
43A
  8
回07-寸法
 62
     5
  0
POINT
  5
1BF
  8
DEFPOINTS
  6
CONTINUOUS
 62
     0
 10
226.2120999763426
 20
-375.3008093874536
 30
0.0
  0
POINT
  5
1C0
  8
DEFPOINTS
  6
CONTINUOUS
 62
     0
 10
226.2120999763424
 20
-386.5508093874537
 30
0.0
  0
POINT
  5
1C1
  8
DEFPOINTS
  6
CONTINUOUS
 62
     0
 10
206.202177753008
 20
-386.5508093874537
 30
0.0
  0
ENDBLK
  5
1C2
  8
0
 62
     7
  0
BLOCK
  8
0
  2
*D202020
 70
     1
 10
0.0
 20
0.0
 30
0.0
  3
*D202020
  1

  0
LINE
  5
1A8
  8
回07-寸法
  6
CONTINUOUS
 62
     5
 10
226.2120999763426
 20
-379.0508093874536
 30
0.0
 11
213.7217393938133
 21
-379.0508093874536
 31
0.0
  0
LINE
  5
1A9
  8
回07-寸法
  6
CONTINUOUS
 62
     5
 10
226.2120999763426
 20
-375.3008093874536
 30
0.0
 11
213.7217393938133
 21
-375.3008093874536
 31
0.0
  0
LINE
  5
1AA
  8
回07-寸法
  6
CONTINUOUS
 62
     5
 10
214.7217393938133
 20
-381.0508093874536
 30
0.0
 11
214.7217393938133
 21
-383.0508093874536
 31
0.0
  0
LINE
  5
1AB
  8
回07-寸法
  6
CONTINUOUS
 62
     5
 10
214.7217393938133
 20
-373.3008093874536
 30
0.0
 11
214.7217393938133
 21
-340.2202883959708
 31
0.0
  0
LINE
  5
1AC
  8
回07-寸法
  6
CONTINUOUS
 62
     5
 10
214.7217393938133
 20
-379.0508093874536
 30
0.0
 11
214.7217393938133
 21
-375.3008093874536
 31
0.0
  0
INSERT
  5
1AD
  8
回07-寸法
  6
CONTINUOUS
 62
     5
  2
_OPEN
 10
214.7217393938133
 20
-379.0508093874536
 30
0.0
 41
2.0
 42
2.0
 43
2.0
 50
90.0
  0
INSERT
  5
1AE
  8
回07-寸法
  6
CONTINUOUS
 62
     5
  2
_OPEN
 10
214.7217393938133
 20
-375.3008093874536
 30
0.0
 41
2.0
 42
2.0
 43
2.0
 50
270.0
  0
INSERT
  5
1AF
  8
回07-寸法
  6
CONTINUOUS
 62
     5
 66
     1
  2
*X585858
 10
0.0
 20
0.0
 30
0.0
  0
SEQEND
  5
443
  8
回07-寸法
 62
     5
  0
POINT
  5
1B0
  8
DEFPOINTS
  6
CONTINUOUS
 62
     0
 10
226.2120999763426
 20
-379.0508093874536
 30
0.0
  0
POINT
  5
1B1
  8
DEFPOINTS
  6
CONTINUOUS
 62
     0
 10
226.2120999763426
 20
-375.3008093874536
 30
0.0
  0
POINT
  5
1B2
  8
DEFPOINTS
  6
CONTINUOUS
 62
     0
 10
214.7217393938133
 20
-375.3008093874536
 30
0.0
  0
ENDBLK
  5
1B3
  8
0
 62
     7
  0
BLOCK
  8
0
  2
*D212121
 70
     1
 10
0.0
 20
0.0
 30
0.0
  3
*D212121
  1

  0
LINE
  5
199
  8
回07-寸法
  6
CONTINUOUS
 62
     5
 10
227.7120999763426
 20
-371.5508093874536
 30
0.0
 11
198.341971577131
 21
-371.5508093874536
 31
0.0
  0
LINE
  5
19A
  8
回07-寸法
  6
CONTINUOUS
 62
     5
 10
227.7120999763424
 20
-390.3008093874537
 30
0.0
 11
198.341971577131
 21
-390.3008093874537
 31
0.0
  0
LINE
  5
19B
  8
回07-寸法
  6
CONTINUOUS
 62
     5
 10
199.341971577131
 20
-392.3008093874537
 30
0.0
 11
199.341971577131
 21
-394.3008093874537
 31
0.0
  0
LINE
  5
19C
  8
回07-寸法
  6
CONTINUOUS
 62
     5
 10
199.341971577131
 20
-369.5508093874536
 30
0.0
 11
199.341971577131
 21
-336.1512438283985
 31
0.0
  0
LINE
  5
19D
  8
回07-寸法
  6
CONTINUOUS
 62
     5
 10
199.341971577131
 20
-390.3008093874537
 30
0.0
 11
199.341971577131
 21
-371.5508093874536
 31
0.0
  0
INSERT
  5
19E
  8
回07-寸法
  6
CONTINUOUS
 62
     5
  2
_OPEN
 10
199.341971577131
 20
-390.3008093874537
 30
0.0
 41
2.0
 42
2.0
 43
2.0
 50
90.0
  0
INSERT
  5
19F
  8
回07-寸法
  6
CONTINUOUS
 62
     5
  2
_OPEN
 10
199.341971577131
 20
-371.5508093874536
 30
0.0
 41
2.0
 42
2.0
 43
2.0
 50
270.0
  0
INSERT
  5
1A0
  8
回07-寸法
  6
CONTINUOUS
 62
     5
 66
     1
  2
*X595959
 10
0.0
 20
0.0
 30
0.0
  0
SEQEND
  5
44C
  8
回07-寸法
 62
     5
  0
POINT
  5
1A1
  8
DEFPOINTS
  6
CONTINUOUS
 62
     0
 10
227.7120999763426
 20
-371.5508093874536
 30
0.0
  0
POINT
  5
1A2
  8
DEFPOINTS
  6
CONTINUOUS
 62
     0
 10
227.7120999763424
 20
-390.3008093874537
 30
0.0
  0
POINT
  5
1A3
  8
DEFPOINTS
  6
CONTINUOUS
 62
     0
 10
199.341971577131
 20
-390.3008093874537
 30
0.0
  0
ENDBLK
  5
1A4
  8
0
 62
     7
  0
BLOCK
  8
0
  2
*D222222
 70
     1
 10
0.0
 20
0.0
 30
0.0
  3
*D222222
  1

  0
LINE
  5
150
  8
回07-寸法
  6
CONTINUOUS
 62
     5
 10
402.9595260025441
 20
-450.4082052311972
 30
0.0
 11
411.4512181125411
 21
-450.4082052311972
 31
0.0
  0
LINE
  5
151
  8
回07-寸法
  6
CONTINUOUS
 62
     5
 10
402.9595260025441
 20
-453.2082052311972
 30
0.0
 11
411.4512181125411
 21
-453.2082052311972
 31
0.0
  0
LINE
  5
152
  8
回07-寸法
  6
CONTINUOUS
 62
     5
 10
410.4512181125413
 20
-448.4082052311974
 30
0.0
 11
410.4512181125413
 21
-446.4082052311971
 31
0.0
  0
LINE
  5
153
  8
回07-寸法
  6
CONTINUOUS
 62
     5
 10
410.4512181125413
 20
-455.2082052311972
 30
0.0
 11
410.4512181125413
 21
-477.1058430264727
 31
0.0
  0
LINE
  5
154
  8
回07-寸法
  6
CONTINUOUS
 62
     5
 10
410.4512181125413
 20
-450.4082052311972
 30
0.0
 11
410.4512181125413
 21
-453.2082052311972
 31
0.0
  0
INSERT
  5
155
  8
回07-寸法
  6
CONTINUOUS
 62
     5
  2
_OPEN
 10
410.4512181125413
 20
-450.4082052311972
 30
0.0
 41
2.0
 42
2.0
 43
2.0
 50
270.0
  0
INSERT
  5
156
  8
回07-寸法
  6
CONTINUOUS
 62
     5
  2
_OPEN
 10
410.4512181125413
 20
-453.2082052311972
 30
0.0
 41
2.0
 42
2.0
 43
2.0
 50
90.0
  0
TEXT
  5
157
  8
回07-寸法
  6
CONTINUOUS
 62
     5
 10
409.801218112541
 20
-477.0570241288352
 30
0.0
 40
3.0
  1
(2.8 [0.110])
 50
90.0
1001
ACAD
1000
MTEXTBEGIN
1070
    73
1070
     1
1070
    44
1040
1.0
1070
    74
1070
     0
1000
MTEXTEND
  0
POINT
  5
158
  8
DEFPOINTS
  6
CONTINUOUS
 62
     0
 10
402.9595260025441
 20
-450.4082052311972
 30
0.0
  0
POINT
  5
159
  8
DEFPOINTS
  6
CONTINUOUS
 62
     0
 10
402.9595260025441
 20
-453.2082052311972
 30
0.0
  0
POINT
  5
15A
  8
DEFPOINTS
  6
CONTINUOUS
 62
     0
 10
410.4512181125413
 20
-453.2082052311972
 30
0.0
  0
ENDBLK
  5
15B
  8
0
 62
     7
  0
BLOCK
  8
0
  2
*D232323
 70
     1
 10
0.0
 20
0.0
 30
0.0
  3
*D232323
  1

  0
LINE
  5
143
  8
回07-寸法
  6
CONTINUOUS
 62
     5
 10
315.959526002544
 20
-388.2082052311972
 30
0.0
 11
315.959526002544
 21
-380.6566734812584
 31
0.0
  0
LINE
  5
144
  8
回07-寸法
  6
CONTINUOUS
 62
     5
 10
360.969526002544
 20
-388.2082052311972
 30
0.0
 11
360.969526002544
 21
-380.6566734812584
 31
0.0
  0
LINE
  5
145
  8
回07-寸法
  6
CONTINUOUS
 62
     5
 10
317.959526002544
 20
-381.6566734812584
 30
0.0
 11
358.969526002544
 21
-381.6566734812584
 31
0.0
  0
INSERT
  5
146
  8
回07-寸法
  6
CONTINUOUS
 62
     5
  2
_OPEN
 10
315.959526002544
 20
-381.6566734812584
 30
0.0
 41
2.0
 42
2.0
 43
2.0
 50
180.0
  0
INSERT
  5
147
  8
回07-寸法
  6
CONTINUOUS
 62
     5
  2
_OPEN
 10
360.969526002544
 20
-381.6566734812584
 30
0.0
 41
2.0
 42
2.0
 43
2.0
  0
INSERT
  5
148
  8
回07-寸法
  6
CONTINUOUS
 62
     5
 66
     1
  2
*X606060
 10
0.0
 20
0.0
 30
0.0
  0
SEQEND
  5
452
  8
回07-寸法
 62
     5
  0
POINT
  5
149
  8
DEFPOINTS
  6
CONTINUOUS
 62
     0
 10
315.959526002544
 20
-388.2082052311972
 30
0.0
  0
POINT
  5
14A
  8
DEFPOINTS
  6
CONTINUOUS
 62
     0
 10
360.969526002544
 20
-388.2082052311972
 30
0.0
  0
POINT
  5
14B
  8
DEFPOINTS
  6
CONTINUOUS
 62
     0
 10
360.969526002544
 20
-381.6566734812584
 30
0.0
  0
ENDBLK
  5
14C
  8
0
 62
     7
  0
BLOCK
  8
0
  2
*D242424
 70
     1
 10
0.0
 20
0.0
 30
0.0
  3
*D242424
  1

  0
LINE
  5
134
  8
回07-寸法
  6
CONTINUOUS
 62
     5
 10
322.179526002544
 20
-391.628205231197
 30
0.0
 11
322.179526002544
 21
-374.7331915105233
 31
0.0
  0
LINE
  5
135
  8
回07-寸法
  6
CONTINUOUS
 62
     5
 10
315.959526002544
 20
-388.2082052311972
 30
0.0
 11
315.959526002544
 21
-374.7331915105233
 31
0.0
  0
LINE
  5
136
  8
回07-寸法
  6
CONTINUOUS
 62
     5
 10
324.179526002544
 20
-375.7331915105233
 30
0.0
 11
326.179526002544
 21
-375.7331915105233
 31
0.0
  0
LINE
  5
137
  8
回07-寸法
  6
CONTINUOUS
 62
     5
 10
313.959526002544
 20
-375.7331915105233
 30
0.0
 11
290.6799984434888
 21
-375.7331915105233
 31
0.0
  0
LINE
  5
138
  8
回07-寸法
  6
CONTINUOUS
 62
     5
 10
322.179526002544
 20
-375.7331915105233
 30
0.0
 11
315.959526002544
 21
-375.7331915105233
 31
0.0
  0
INSERT
  5
139
  8
回07-寸法
  6
CONTINUOUS
 62
     5
  2
_OPEN
 10
322.179526002544
 20
-375.7331915105233
 30
0.0
 41
2.0
 42
2.0
 43
2.0
 50
180.0
  0
INSERT
  5
13A
  8
回07-寸法
  6
CONTINUOUS
 62
     5
  2
_OPEN
 10
315.959526002544
 20
-375.7331915105233
 30
0.0
 41
2.0
 42
2.0
 43
2.0
  0
TEXT
  5
13B
  8
回07-寸法
  6
CONTINUOUS
 62
     5
 10
290.8197622230164
 20
-375.0831915105233
 30
0.0
 40
3.0
  1
6.22 [0.245]
1001
ACAD
1000
MTEXTBEGIN
1070
    73
1070
     1
1070
    44
1040
1.0
1070
    74
1070
     0
1000
MTEXTEND
  0
POINT
  5
13C
  8
DEFPOINTS
  6
CONTINUOUS
 62
     0
 10
322.179526002544
 20
-391.628205231197
 30
0.0
  0
POINT
  5
13D
  8
DEFPOINTS
  6
CONTINUOUS
 62
     0
 10
315.959526002544
 20
-388.2082052311972
 30
0.0
  0
POINT
  5
13E
  8
DEFPOINTS
  6
CONTINUOUS
 62
     0
 10
315.959526002544
 20
-375.7331915105233
 30
0.0
  0
ENDBLK
  5
13F
  8
0
 62
     7
  0
BLOCK
  8
0
  2
*D252525
 70
     1
 10
0.0
 20
0.0
 30
0.0
  3
*D252525
  1

  0
LINE
  5
125
  8
回07-寸法
  6
CONTINUOUS
 62
     5
 10
321.7795260025439
 20
-391.2282052311971
 30
0.0
 11
321.7795260025439
 21
-368.9272038972049
 31
0.0
  0
LINE
  5
126
  8
回07-寸法
  6
CONTINUOUS
 62
     5
 10
315.959526002544
 20
-388.2082052311972
 30
0.0
 11
315.959526002544
 21
-368.9272038972049
 31
0.0
  0
LINE
  5
127
  8
回07-寸法
  6
CONTINUOUS
 62
     5
 10
323.7795260025439
 20
-369.9272038972049
 30
0.0
 11
325.7795260025439
 21
-369.9272038972049
 31
0.0
  0
LINE
  5
128
  8
回07-寸法
  6
CONTINUOUS
 62
     5
 10
313.959526002544
 20
-369.9272038972049
 30
0.0
 11
291.1490430110612
 21
-369.9272038972049
 31
0.0
  0
LINE
  5
129
  8
回07-寸法
  6
CONTINUOUS
 62
     5
 10
321.7795260025439
 20
-369.9272038972049
 30
0.0
 11
315.959526002544
 21
-369.9272038972049
 31
0.0
  0
INSERT
  5
12A
  8
回07-寸法
  6
CONTINUOUS
 62
     5
  2
_OPEN
 10
321.7795260025439
 20
-369.9272038972049
 30
0.0
 41
2.0
 42
2.0
 43
2.0
 50
180.0
  0
INSERT
  5
12B
  8
回07-寸法
  6
CONTINUOUS
 62
     5
  2
_OPEN
 10
315.959526002544
 20
-369.9272038972049
 30
0.0
 41
2.0
 42
2.0
 43
2.0
  0
TEXT
  5
12C
  8
回07-寸法
  6
CONTINUOUS
 62
     5
 10
291.1988689540121
 20
-369.2772638033073
 30
0.0
 40
3.0
  1
5.82 [0.229]
1001
ACAD
1000
MTEXTBEGIN
1070
    73
1070
     1
1070
    44
1040
1.0
1070
    74
1070
     0
1000
MTEXTEND
  0
POINT
  5
12D
  8
DEFPOINTS
  6
CONTINUOUS
 62
     0
 10
321.7795260025439
 20
-391.2282052311971
 30
0.0
  0
POINT
  5
12E
  8
DEFPOINTS
  6
CONTINUOUS
 62
     0
 10
315.959526002544
 20
-388.2082052311972
 30
0.0
  0
POINT
  5
12F
  8
DEFPOINTS
  6
CONTINUOUS
 62
     0
 10
315.959526002544
 20
-369.9272038972049
 30
0.0
  0
ENDBLK
  5
130
  8
0
 62
     7
  0
BLOCK
  8
0
  2
*D262626
 70
     1
 10
0.0
 20
0.0
 30
0.0
  3
*D262626
  1

  0
LINE
  5
111
  8
回07-寸法
  6
CONTINUOUS
 62
     5
 10
262.5849193884607
 20
-440.7070662125811
 30
0.0
 11
248.417701410027
 21
-440.7070662125811
 31
0.0
  0
LINE
  5
112
  8
回07-寸法
  6
CONTINUOUS
 62
     5
 10
315.9595260025441
 20
-453.2082052311972
 30
0.0
 11
248.4177014100271
 21
-453.2082052311972
 31
0.0
  0
LINE
  5
113
  8
回07-寸法
  6
CONTINUOUS
 62
     5
 10
249.417701410027
 20
-455.2082052311972
 30
0.0
 11
249.417701410027
 21
-457.2082052311972
 31
0.0
  0
LINE
  5
114
  8
回07-寸法
  6
CONTINUOUS
 62
     5
 10
249.417701410027
 20
-438.707066212581
 30
0.0
 11
249.417701410027
 21
-416.1965832210983
 31
0.0
  0
LINE
  5
115
  8
回07-寸法
  6
CONTINUOUS
 62
     5
 10
249.417701410027
 20
-453.2082052311972
 30
0.0
 11
249.417701410027
 21
-440.7070662125811
 31
0.0
  0
INSERT
  5
116
  8
回07-寸法
  6
CONTINUOUS
 62
     5
  2
_OPEN
 10
249.417701410027
 20
-453.2082052311972
 30
0.0
 41
2.0
 42
2.0
 43
2.0
 50
90.0
  0
INSERT
  5
117
  8
回07-寸法
  6
CONTINUOUS
 62
     5
  2
_OPEN
 10
249.417701410027
 20
-440.7070662125811
 30
0.0
 41
2.0
 42
2.0
 43
2.0
 50
270.0
  0
TEXT
  5
118
  8
回07-寸法
  6
CONTINUOUS
 62
     5
 10
248.7677613161292
 20
-436.6572402696299
 30
0.0
 40
3.0
  1
12.5 [0.492]
 50
90.0
1001
ACAD
1000
MTEXTBEGIN
1070
    73
1070
     1
1070
    44
1040
1.0
1070
    74
1070
     0
1000
MTEXTEND
  0
POINT
  5
119
  8
DEFPOINTS
  6
CONTINUOUS
 62
     0
 10
262.5849193884607
 20
-440.7070662125811
 30
0.0
  0
POINT
  5
11A
  8
DEFPOINTS
  6
CONTINUOUS
 62
     0
 10
315.9595260025441
 20
-453.2082052311972
 30
0.0
  0
POINT
  5
11B
  8
DEFPOINTS
  6
CONTINUOUS
 62
     0
 10
249.417701410027
 20
-453.2082052311972
 30
0.0
  0
ENDBLK
  5
11C
  8
0
 62
     7
  0
BLOCK
  8
0
  2
*D272727
 70
     1
 10
0.0
 20
0.0
 30
0.0
  3
*D272727
  1

  0
LINE
  5
D3
  8
回07-寸法
 62
     5
 10
400.6595260025441
 20
-390.4282052311974
 30
0.0
 11
440.8266873502832
 21
-390.4282052311974
 31
0.0
  0
LINE
  5
D4
  8
回07-寸法
 62
     5
 10
400.6595260025441
 20
-451.2082052311972
 30
0.0
 11
440.8266873502832
 21
-451.2082052311972
 31
0.0
  0
LINE
  5
D5
  8
回07-寸法
 62
     5
 10
439.8266873502832
 20
-392.4282052311974
 30
0.0
 11
439.8266873502832
 21
-449.2082052311972
 31
0.0
  0
INSERT
  5
D6
  8
回07-寸法
 62
     5
  2
_OPEN
 10
439.8266873502832
 20
-390.4282052311974
 30
0.0
 41
2.0
 42
2.0
 43
2.0
 50
90.0
  0
INSERT
  5
D7
  8
回07-寸法
 62
     5
  2
_OPEN
 10
439.8266873502832
 20
-451.2082052311972
 30
0.0
 41
2.0
 42
2.0
 43
2.0
 50
270.0
  0
TEXT
  5
D8
  8
回07-寸法
 62
     5
 10
439.1767472563853
 20
-432.2236207839877
 30
0.0
 40
3.0
  1
60.78 [2.393]
 50
90.0
1001
ACAD
1000
MTEXTBEGIN
1070
    73
1070
     1
1070
    44
1040
1.0
1070
    74
1070
     0
1000
MTEXTEND
  0
POINT
  5
D9
  8
DEFPOINTS
 62
     0
 10
400.6595260025441
 20
-390.4282052311974
 30
0.0
  0
POINT
  5
DA
  8
DEFPOINTS
 62
     0
 10
400.6595260025441
 20
-451.2082052311972
 30
0.0
  0
POINT
  5
DB
  8
DEFPOINTS
 62
     0
 10
439.8266873502832
 20
-451.2082052311972
 30
0.0
  0
ENDBLK
  5
DC
  8
0
 62
     2
  0
BLOCK
  8
0
  2
*D282828
 70
     1
 10
0.0
 20
0.0
 30
0.0
  3
*D282828
  1

  0
LINE
  5
BF
  8
回07-寸法
 62
     5
 10
321.279526002544
 20
-390.7282052311972
 30
0.0
 11
321.279526002544
 21
-358.2862588846846
 31
0.0
  0
LINE
  5
C0
  8
回07-寸法
 62
     5
 10
315.959526002544
 20
-388.2082052311972
 30
0.0
 11
315.959526002544
 21
-358.2862588846846
 31
0.0
  0
LINE
  5
C1
  8
回07-寸法
 62
     5
 10
323.279526002544
 20
-359.2862588846846
 30
0.0
 11
325.279526002544
 21
-359.2862588846846
 31
0.0
  0
LINE
  5
C2
  8
回07-寸法
 62
     5
 10
313.959526002544
 20
-359.2862588846846
 30
0.0
 11
291.1490430110611
 21
-359.2862588846846
 31
0.0
  0
LINE
  5
C3
  8
回07-寸法
 62
     5
 10
321.279526002544
 20
-359.2862588846846
 30
0.0
 11
315.959526002544
 21
-359.2862588846846
 31
0.0
  0
INSERT
  5
C4
  8
回07-寸法
 62
     5
  2
_OPEN
 10
321.279526002544
 20
-359.2862588846846
 30
0.0
 41
2.0
 42
2.0
 43
2.0
 50
180.0
  0
INSERT
  5
C5
  8
回07-寸法
 62
     5
  2
_OPEN
 10
315.959526002544
 20
-359.2862588846846
 30
0.0
 41
2.0
 42
2.0
 43
2.0
  0
TEXT
  5
C6
  8
回07-寸法
 62
     5
 10
291.1988689540121
 20
-358.636318790787
 30
0.0
 40
3.0
  1
5.32 [0.209]
1001
ACAD
1000
MTEXTBEGIN
1070
    73
1070
     1
1070
    44
1040
1.0
1070
    74
1070
     0
1000
MTEXTEND
  0
POINT
  5
C7
  8
DEFPOINTS
 62
     0
 10
321.279526002544
 20
-390.7282052311972
 30
0.0
  0
POINT
  5
C8
  8
DEFPOINTS
 62
     0
 10
315.959526002544
 20
-388.2082052311972
 30
0.0
  0
POINT
  5
C9
  8
DEFPOINTS
 62
     0
 10
315.959526002544
 20
-359.2862588846846
 30
0.0
  0
ENDBLK
  5
CA
  8
0
 62
     5
  0
BLOCK
  8
0
  2
*D292929
 70
     1
 10
0.0
 20
0.0
 30
0.0
  3
*D292929
  1

  0
LINE
  5
B2
  8
回07-寸法
 62
     5
 10
321.279526002544
 20
-390.7282052311972
 30
0.0
 11
321.279526002544
 21
-358.2862588846846
 31
0.0
  0
LINE
  5
B3
  8
回07-寸法
 62
     5
 10
400.6595260025439
 20
-390.7282052311972
 30
0.0
 11
400.6595260025439
 21
-358.2862588846846
 31
0.0
  0
LINE
  5
B4
  8
回07-寸法
 62
     5
 10
323.279526002544
 20
-359.2862588846846
 30
0.0
 11
398.6595260025439
 21
-359.2862588846846
 31
0.0
  0
INSERT
  5
B5
  8
回07-寸法
 62
     5
  2
_OPEN
 10
321.279526002544
 20
-359.2862588846846
 30
0.0
 41
2.0
 42
2.0
 43
2.0
 50
180.0
  0
INSERT
  5
B6
  8
回07-寸法
 62
     5
  2
_OPEN
 10
400.6595260025439
 20
-359.2862588846846
 30
0.0
 41
2.0
 42
2.0
 43
2.0
  0
TEXT
  5
B7
  8
回07-寸法
 62
     5
 10
349.8641104497535
 20
-358.6362588846846
 30
0.0
 40
3.0
  1
79.38 [3.125]
1001
ACAD
1000
MTEXTBEGIN
1070
    73
1070
     1
1070
    44
1040
1.0
1070
    74
1070
     0
1000
MTEXTEND
  0
POINT
  5
B8
  8
DEFPOINTS
 62
     0
 10
321.279526002544
 20
-390.7282052311972
 30
0.0
  0
POINT
  5
B9
  8
DEFPOINTS
 62
     0
 10
400.6595260025439
 20
-390.7282052311972
 30
0.0
  0
POINT
  5
BA
  8
DEFPOINTS
 62
     0
 10
400.6595260025439
 20
-359.2862588846846
 30
0.0
  0
ENDBLK
  5
BB
  8
0
 62
     5
  0
BLOCK
  8
0
  2
*D303030
 70
     1
 10
0.0
 20
0.0
 30
0.0
  3
*D303030
  1

  0
LINE
  5
A3
  8
回07-寸法
 62
     5
 10
400.6595260025439
 20
-390.4282052311971
 30
0.0
 11
400.6595260025439
 21
-358.2862588846846
 31
0.0
  0
LINE
  5
A4
  8
回07-寸法
 62
     5
 10
402.9595260025438
 20
-388.2082052311972
 30
0.0
 11
402.9595260025438
 21
-358.2862588846846
 31
0.0
  0
LINE
  5
A5
  8
回07-寸法
 62
     5
 10
398.6595260025439
 20
-359.2862588846846
 30
0.0
 11
396.659526002544
 21
-359.2862588846846
 31
0.0
  0
LINE
  5
A6
  8
回07-寸法
 62
     5
 10
404.9595260025439
 20
-359.2862588846846
 30
0.0
 11
425.146190096389
 21
-359.2862588846846
 31
0.0
  0
LINE
  5
A7
  8
回07-寸法
 62
     5
 10
400.6595260025439
 20
-359.2862588846846
 30
0.0
 11
402.9595260025438
 21
-359.2862588846846
 31
0.0
  0
INSERT
  5
A8
  8
回07-寸法
 62
     5
  2
_OPEN
 10
400.6595260025439
 20
-359.2862588846846
 30
0.0
 41
2.0
 42
2.0
 43
2.0
  0
INSERT
  5
A9
  8
回07-寸法
 62
     5
  2
_OPEN
 10
402.9595260025438
 20
-359.2862588846846
 30
0.0
 41
2.0
 42
2.0
 43
2.0
 50
180.0
  0
TEXT
  5
AA
  8
回07-寸法
 62
     5
 10
407.047442496676
 20
-358.6363187907869
 30
0.0
 40
3.0
  1
2.3 [0.091]
1001
ACAD
1000
MTEXTBEGIN
1070
    73
1070
     1
1070
    44
1040
1.0
1070
    74
1070
     0
1000
MTEXTEND
  0
POINT
  5
AB
  8
DEFPOINTS
 62
     0
 10
400.6595260025439
 20
-390.4282052311971
 30
0.0
  0
POINT
  5
AC
  8
DEFPOINTS
 62
     0
 10
402.9595260025438
 20
-388.2082052311972
 30
0.0
  0
POINT
  5
AD
  8
DEFPOINTS
 62
     0
 10
402.9595260025438
 20
-359.2862588846846
 30
0.0
  0
ENDBLK
  5
AE
  8
0
 62
     5
  0
BLOCK
  8
0
  2
*D313131
 70
     1
 10
0.0
 20
0.0
 30
0.0
  3
*D313131
  1

  0
LINE
  5
94
  8
回07-寸法
 62
     5
 10
400.6595260025441
 20
-451.2082052311972
 30
0.0
 11
440.8266873502832
 21
-451.2082052311972
 31
0.0
  0
LINE
  5
95
  8
回07-寸法
 62
     5
 10
402.9595260025441
 20
-453.2082052311972
 30
0.0
 11
440.8266873502832
 21
-453.2082052311972
 31
0.0
  0
LINE
  5
96
  8
回07-寸法
 62
     5
 10
439.8266873502832
 20
-449.2082052311972
 30
0.0
 11
439.8266873502832
 21
-447.2082052311971
 31
0.0
  0
LINE
  5
97
  8
回07-寸法
 62
     5
 10
439.8266873502832
 20
-455.2082052311972
 30
0.0
 11
439.8266873502832
 21
-472.9948693250423
 31
0.0
  0
LINE
  5
98
  8
回07-寸法
 62
     5
 10
439.8266873502832
 20
-451.2082052311972
 30
0.0
 11
439.8266873502832
 21
-453.2082052311972
 31
0.0
  0
INSERT
  5
99
  8
回07-寸法
 62
     5
  2
_OPEN
 10
439.8266873502832
 20
-451.2082052311972
 30
0.0
 41
2.0
 42
2.0
 43
2.0
 50
270.0
  0
INSERT
  5
9A
  8
回07-寸法
 62
     5
  2
_OPEN
 10
439.8266873502832
 20
-453.2082052311972
 30
0.0
 41
2.0
 42
2.0
 43
2.0
 50
90.0
  0
TEXT
  5
9B
  8
回07-寸法
 62
     5
 10
439.1767472563853
 20
-472.9069528309103
 30
0.0
 40
3.0
  1
2 [0.079]
 50
90.0
1001
ACAD
1000
MTEXTBEGIN
1070
    73
1070
     1
1070
    44
1040
1.0
1070
    74
1070
     0
1000
MTEXTEND
  0
POINT
  5
9C
  8
DEFPOINTS
 62
     0
 10
400.6595260025441
 20
-451.2082052311972
 30
0.0
  0
POINT
  5
9D
  8
DEFPOINTS
 62
     0
 10
402.9595260025441
 20
-453.2082052311972
 30
0.0
  0
POINT
  5
9E
  8
DEFPOINTS
 62
     0
 10
439.8266873502832
 20
-453.2082052311972
 30
0.0
  0
ENDBLK
  5
9F
  8
0
 62
     5
  0
BLOCK
  8
0
  2
*D323232
 70
     1
 10
0.0
 20
0.0
 30
0.0
  3
*D323232
  1

  0
LINE
  5
85
  8
回07-寸法
 62
     5
 10
400.6595260025441
 20
-390.4282052311974
 30
0.0
 11
440.8266873502832
 21
-390.4282052311974
 31
0.0
  0
LINE
  5
86
  8
回07-寸法
 62
     5
 10
402.9595260025441
 20
-388.2082052311973
 30
0.0
 11
440.8266873502832
 21
-388.2082052311973
 31
0.0
  0
LINE
  5
87
  8
回07-寸法
 62
     5
 10
439.8266873502832
 20
-392.4282052311974
 30
0.0
 11
439.8266873502832
 21
-394.4282052311974
 31
0.0
  0
LINE
  5
88
  8
回07-寸法
 62
     5
 10
439.8266873502832
 20
-386.2082052311973
 30
0.0
 11
439.8266873502832
 21
-363.3320241288351
 31
0.0
  0
LINE
  5
89
  8
回07-寸法
 62
     5
 10
439.8266873502832
 20
-390.4282052311974
 30
0.0
 11
439.8266873502832
 21
-388.2082052311973
 31
0.0
  0
INSERT
  5
8A
  8
回07-寸法
 62
     5
  2
_OPEN
 10
439.8266873502832
 20
-390.4282052311974
 30
0.0
 41
2.0
 42
2.0
 43
2.0
 50
90.0
  0
INSERT
  5
8B
  8
回07-寸法
 62
     5
  2
_OPEN
 10
439.8266873502832
 20
-388.2082052311973
 30
0.0
 41
2.0
 42
2.0
 43
2.0
 50
270.0
  0
TEXT
  5
8C
  8
回07-寸法
 62
     5
 10
439.1766873502829
 20
-384.1201146800163
 30
0.0
 40
3.0
  1
2.22 [0.087]
 50
90.0
1001
ACAD
1000
MTEXTBEGIN
1070
    73
1070
     1
1070
    44
1040
1.0
1070
    74
1070
     0
1000
MTEXTEND
  0
POINT
  5
8D
  8
DEFPOINTS
 62
     0
 10
400.6595260025441
 20
-390.4282052311974
 30
0.0
  0
POINT
  5
8E
  8
DEFPOINTS
 62
     0
 10
402.9595260025441
 20
-388.2082052311973
 30
0.0
  0
POINT
  5
8F
  8
DEFPOINTS
 62
     0
 10
439.8266873502832
 20
-388.2082052311973
 30
0.0
  0
ENDBLK
  5
90
  8
0
 62
     5
  0
BLOCK
  8
0
  2
*D333333
 70
     1
 10
0.0
 20
0.0
 30
0.0
  3
*D333333
  1

  0
LINE
  5
78
  8
回07-寸法
 62
     5
 10
265.959526002544
 20
-438.0820662125808
 30
0.0
 11
265.959526002544
 21
-405.2596967951758
 31
0.0
  0
LINE
  5
79
  8
回07-寸法
 62
     5
 10
315.959526002544
 20
-431.7617704067593
 30
0.0
 11
315.959526002544
 21
-405.2596967951758
 31
0.0
  0
LINE
  5
7A
  8
回07-寸法
 62
     5
 10
267.959526002544
 20
-406.2596967951757
 30
0.0
 11
313.959526002544
 21
-406.2596967951757
 31
0.0
  0
INSERT
  5
7B
  8
回07-寸法
 62
     5
  2
_OPEN
 10
265.959526002544
 20
-406.2596967951757
 30
0.0
 41
2.0
 42
2.0
 43
2.0
 50
180.0
  0
INSERT
  5
7C
  8
回07-寸法
 62
     5
  2
_OPEN
 10
315.959526002544
 20
-406.2596967951757
 30
0.0
 41
2.0
 42
2.0
 43
2.0
  0
INSERT
  5
7D
  8
回07-寸法
 62
     5
 66
     1
  2
*X616161
 10
0.0
 20
0.0
 30
0.0
  0
SEQEND
  5
45B
  8
回07-寸法
 62
     5
  0
POINT
  5
7E
  8
DEFPOINTS
 62
     0
 10
265.959526002544
 20
-438.0820662125808
 30
0.0
  0
POINT
  5
7F
  8
DEFPOINTS
 62
     0
 10
315.959526002544
 20
-431.7617704067593
 30
0.0
  0
POINT
  5
80
  8
DEFPOINTS
 62
     0
 10
315.959526002544
 20
-406.2596967951757
 30
0.0
  0
ENDBLK
  5
81
  8
0
 62
     5
  0
BLOCK
  8
0
  2
*D343434
 70
     1
 10
0.0
 20
0.0
 30
0.0
  3
*D343434
  1

  0
LINE
  5
68
  8
回07-寸法
 62
     5
 10
315.959526002544
 20
-431.7617704067593
 30
0.0
 11
315.959526002544
 21
-420.8350578473488
 31
0.0
  0
LINE
  5
69
  8
回07-寸法
 62
     5
 10
311.1860965992681
 20
-432.785223688143
 30
0.0
 11
311.1860965992681
 21
-420.8350578473488
 31
0.0
  0
LINE
  5
6A
  8
回07-寸法
 62
     5
 10
317.959526002544
 20
-421.8350578473488
 30
0.0
 11
319.959526002544
 21
-421.8350578473488
 31
0.0
  0
LINE
  5
6B
  8
回07-寸法
 62
     5
 10
309.1860965992681
 20
-421.8350578473488
 30
0.0
 11
281.5443984408322
 21
-421.8350578473488
 31
0.0
  0
LINE
  5
6C
  8
回07-寸法
 62
     5
 10
315.959526002544
 20
-421.8350578473488
 30
0.0
 11
311.1860965992681
 21
-421.8350578473488
 31
0.0
  0
INSERT
  5
6D
  8
回07-寸法
 62
     5
  2
_OPEN
 10
315.959526002544
 20
-421.8350578473488
 30
0.0
 41
2.0
 42
2.0
 43
2.0
 50
180.0
  0
INSERT
  5
6E
  8
回07-寸法
 62
     5
  2
_OPEN
 10
311.1860965992681
 20
-421.8350578473488
 30
0.0
 41
2.0
 42
2.0
 43
2.0
  0
TEXT
  5
6F
  8
回07-寸法
 62
     5
 10
281.5942243837832
 20
-421.185057847349
 30
0.0
 40
3.0
  1
4.39 [0.173]
1001
ACAD
1000
MTEXTBEGIN
1070
    73
1070
     1
1070
    44
1040
1.0
1070
    74
1070
     0
1000
MTEXTEND
  0
POINT
  5
70
  8
DEFPOINTS
 62
     0
 10
315.959526002544
 20
-431.7617704067593
 30
0.0
  0
POINT
  5
72
  8
DEFPOINTS
 62
     0
 10
311.1860965992681
 20
-432.785223688143
 30
0.0
  0
POINT
  5
73
  8
DEFPOINTS
 62
     0
 10
311.1860965992681
 20
-421.8350578473488
 30
0.0
  0
ENDBLK
  5
74
  8
0
 62
     5
  0
BLOCK
  8
回07-寸法
  2
*X353535
 70
     1
 10
0.0
 20
0.0
 30
0.0
  3
*X353535
  1

  0
INSERT
  5
344
  8
回07-寸法
 62
     5
  2
_OPEN
 10
319.059526002544
 20
-448.1108880436125
 30
0.0
 41
2.0
 42
2.0
 43
2.0
 50
106.1737019622159
  0
LINE
  5
345
  8
回07-寸法
  6
CONTINUOUS
 62
     5
 10
319.6166266305779
 20
-450.0317313194277
 30
0.0
 11
324.0018096526255
 21
-465.1515299648642
 31
0.0
  0
LINE
  5
346
  8
回07-寸法
  6
CONTINUOUS
 62
     5
 10
324.0018096526255
 20
-465.1515299648642
 30
0.0
 11
326.5018096526255
 21
-465.1515299648642
 31
0.0
  0
ENDBLK
  5
348
  8
回07-寸法
 62
     5
  0
BLOCK
  8
回07-寸法
  2
*X363636
 70
     1
 10
0.0
 20
0.0
 30
0.0
  3
*X363636
  1

  0
INSERT
  5
350
  8
回08-記事
 62
     5
  2
_OPEN
 10
303.1846204668914
 20
-439.8307496592648
 30
0.0
 41
2.0
 42
2.0
 43
2.0
 50
288.1471692197109
  0
LINE
  5
351
  8
回08-記事
  6
CONTINUOUS
 62
     5
 10
302.5617027786482
 20
-437.9302303739973
 30
0.0
 11
300.3433101827231
 21
-431.1619237575312
 31
0.0
  0
LINE
  5
352
  8
回08-記事
  6
CONTINUOUS
 62
     5
 10
300.3433101827231
 20
-431.1619237575312
 30
0.0
 11
279.8997451149055
 21
-431.1619237575312
 31
0.0
  0
ENDBLK
  5
354
  8
回07-寸法
 62
     5
  0
BLOCK
  8
回07-寸法
  2
*X373737
 70
     1
 10
0.0
 20
0.0
 30
0.0
  3
*X373737
  1

  0
INSERT
  5
357
  8
回08-記事
 62
     5
  2
_OPEN
 10
268.2037595614256
 20
-490.9890042812985
 30
0.0
 41
1.999999999999999
 42
1.999999999999999
 43
2.0
 50
323.9840203996248
  0
LINE
  5
358
  8
回08-記事
  6
CONTINUOUS
 62
     5
 10
266.586053498263
 20
-489.8129825581968
 30
0.0
 11
259.8698978095281
 21
-484.9305473831423
 31
0.0
  0
LINE
  5
359
  8
回08-記事
  6
CONTINUOUS
 62
     5
 10
259.8698978095281
 20
-484.9305473831423
 30
0.0
 11
230.6698978095281
 21
-484.9305473831423
 31
0.0
  0
ENDBLK
  5
35B
  8
回07-寸法
 62
     5
  0
BLOCK
  8
回07-寸法
  2
*X383838
 70
     1
 10
0.0
 20
0.0
 30
0.0
  3
*X383838
  1

  0
INSERT
  5
35E
  8
回07-寸法
 62
     5
  2
_OPEN
 10
226.3515990592996
 20
-389.4755876261212
 30
0.0
 41
2.0
 42
2.0
 43
2.0
 50
73.07748397881564
  0
LINE
  5
35F
  8
回07-寸法
  6
CONTINUOUS
 62
     5
 10
225.7694427022916
 20
-391.3889861669367
 30
0.0
 11
222.790982294483
 21
-401.1784211350049
 31
0.0
  0
LINE
  5
360
  8
回07-寸法
  6
CONTINUOUS
 62
     5
 10
222.790982294483
 20
-401.1784211350049
 30
0.0
 11
195.390982294483
 21
-401.1784211350049
 31
0.0
  0
ENDBLK
  5
362
  8
回07-寸法
 62
     5
  0
BLOCK
  8
回07-寸法
  2
*X393939
 70
     1
 10
0.0
 20
0.0
 30
0.0
  3
*X393939
  1

  0
LINE
  5
365
  8
回08-記事
  6
DASHED2
 62
     8
 10
279.6489386333469
 20
-442.5455731459618
 30
0.0
 11
283.4851675294954
 21
-438.7093442498134
 31
0.0
  0
LINE
  5
366
  8
回08-記事
  6
DASHED2
 62
     8
 10
283.9752955900301
 20
-442.7093442498134
 30
0.0
 11
287.9752955900301
 21
-438.7093442498134
 31
0.0
  0
LINE
  5
367
  8
回08-記事
  6
DASHED2
 62
     8
 10
288.4654236505647
 20
-442.7093442498134
 30
0.0
 11
292.4654236505647
 21
-438.7093442498134
 31
0.0
  0
LINE
  5
368
  8
回08-記事
  6
DASHED2
 62
     8
 10
292.9555517110994
 20
-442.7093442498134
 30
0.0
 11
296.9555517110993
 21
-438.7093442498134
 31
0.0
  0
LINE
  5
369
  8
回08-記事
  6
DASHED2
 62
     8
 10
297.445679771634
 20
-442.7093442498134
 30
0.0
 11
301.4456797716339
 21
-438.7093442498134
 31
0.0
  0
LINE
  5
36A
  8
回08-記事
  6
DASHED2
 62
     8
 10
301.9358078321686
 20
-442.7093442498134
 30
0.0
 11
305.1696046621407
 21
-439.4755474198412
 31
0.0
  0
ENDBLK
  5
36C
  8
回07-寸法
 62
     5
  0
BLOCK
  8
回07-寸法
  2
*X404040
 70
     1
 10
0.0
 20
0.0
 30
0.0
  3
*X404040
  1

  0
INSERT
  5
378
  8
回07-寸法
 62
     5
  2
_OPEN
 10
286.3479851452823
 20
-492.5845957165464
 30
0.0
 41
2.0
 42
2.0
 43
2.0
 50
96.34092838277517
  0
LINE
  5
379
  8
回07-寸法
  6
CONTINUOUS
 62
     5
 10
286.5688737536208
 20
-494.5723603461509
 30
0.0
 11
287.7315037343824
 21
-505.0348046091681
 31
0.0
  0
LINE
  5
37A
  8
回07-寸法
  6
CONTINUOUS
 62
     5
 10
287.7315037343824
 20
-505.0348046091681
 30
0.0
 11
309.4315037343824
 21
-505.0348046091681
 31
0.0
  0
ENDBLK
  5
37C
  8
回07-寸法
 62
     5
  0
BLOCK
  8
回07-寸法
  2
*X414141
 70
     1
 10
0.0
 20
0.0
 30
0.0
  3
*X414141
  1

  0
INSERT
  5
37F
  8
回07-寸法
 62
     5
  2
_OPEN
 10
315.6477744908243
 20
-449.3055862619306
 30
0.0
 41
1.999999999999999
 42
1.999999999999999
 43
2.0
 50
75.43708377182515
  0
LINE
  5
380
  8
回07-寸法
  6
CONTINUOUS
 62
     5
 10
315.1448885482401
 20
-451.2413304931635
 30
0.0
 11
310.9823641884932
 21
-467.2640144348538
 31
0.0
  0
LINE
  5
381
  8
回07-寸法
  6
CONTINUOUS
 62
     5
 10
310.9823641884932
 20
-467.2640144348538
 30
0.0
 11
286.5715330829122
 21
-467.2640144348538
 31
0.0
  0
ENDBLK
  5
383
  8
回07-寸法
 62
     5
  0
BLOCK
  8
回07-寸法
  2
*X424242
 70
     1
 10
0.0
 20
0.0
 30
0.0
  3
*X424242
  1

  0
INSERT
  5
386
  8
回07-寸法
 62
     5
  2
_OPEN
 10
311.1902442890377
 20
-448.632563590352
 30
0.0
 41
2.0
 42
2.0
 43
2.0
 50
56.44115820988819
  0
LINE
  5
387
  8
回07-寸法
  6
CONTINUOUS
 62
     5
 10
310.0846581277541
 20
-450.2992006954167
 30
0.0
 11
303.7504842394874
 21
-459.8477728481846
 31
0.0
  0
LINE
  5
388
  8
回07-寸法
  6
CONTINUOUS
 62
     5
 10
303.7504842394874
 20
-459.8477728481846
 30
0.0
 11
279.6396531339064
 21
-459.8477728481846
 31
0.0
  0
ENDBLK
  5
38A
  8
回07-寸法
 62
     5
  0
BLOCK
  8
回07-寸法
  2
*X434343
 70
     1
 10
0.0
 20
0.0
 30
0.0
  3
*X434343
  1

  0
INSERT
  5
38D
  8
回07-寸法
 62
     5
  2
_OPEN
 10
269.1213454076936
 20
-436.9581486852614
 30
0.0
 41
2.0
 42
2.0
 43
2.0
 50
226.5329473607057
  0
LINE
  5
38E
  8
回07-寸法
  6
CONTINUOUS
 62
     5
 10
270.4972200930616
 20
-435.5066085204146
 30
0.0
 11
272.3271745990426
 21
-433.5760166623607
 31
0.0
  0
LINE
  5
38F
  8
回07-寸法
  6
CONTINUOUS
 62
     5
 10
272.3271745990426
 20
-433.5760166623607
 30
0.0
 11
276.6271745990426
 21
-433.5760166623607
 31
0.0
  0
ENDBLK
  5
391
  8
回07-寸法
 62
     5
  0
BLOCK
  8
回07-寸法
  2
*X444444
 70
     1
 10
0.0
 20
0.0
 30
0.0
  3
*X444444
  1

  0
LINE
  5
394
  8
回07-寸法
  6
CONTINUOUS
 62
     5
 10
402.288094648733
 20
-440.6737843621849
 30
0.0
 11
400.2266705733017
 21
-439.4169655711237
 31
0.0
  0
LINE
  5
395
  8
回07-寸法
  6
CONTINUOUS
 62
     5
 10
400.2266705733017
 20
-439.4169655711237
 30
0.0
 11
387.5266705733018
 21
-439.4169655711237
 31
0.0
  0
ENDBLK
  5
397
  8
回07-寸法
 62
     5
  0
BLOCK
  8
回07-寸法
  2
*X454545
 70
     1
 10
0.0
 20
0.0
 30
0.0
  3
*X454545
  1

  0
INSERT
  5
39A
  8
回07-寸法
 62
     5
  2
_OPEN
 10
401.671635430296
 20
-449.7983393457821
 30
0.0
 41
2.0
 42
2.0
 43
2.0
 50
78.32142600090191
  0
LINE
  5
39B
  8
回07-寸法
  6
CONTINUOUS
 62
     5
 10
401.2667932370098
 20
-451.7569364964322
 30
0.0
 11
399.9441062371834
 21
-458.1560002106956
 31
0.0
  0
LINE
  5
39C
  8
回07-寸法
  6
CONTINUOUS
 62
     5
 10
399.9441062371834
 20
-458.1560002106956
 30
0.0
 11
380.9441062371834
 21
-458.1560002106956
 31
0.0
  0
ENDBLK
  5
39E
  8
回07-寸法
 62
     5
  0
BLOCK
  8
回07-寸法
  2
*X464646
 70
     1
 10
0.0
 20
0.0
 30
0.0
  3
*X464646
  1

  0
LINE
  5
3DA
  8
回08-記事
  6
CONTINUOUS
 62
     8
 10
316.0933402255706
 20
-433.3082052311968
 30
0.0
 11
319.0595260025439
 21
-436.27439100817
 31
0.0
  0
LINE
  5
3DB
  8
回08-記事
  6
CONTINUOUS
 62
     8
 10
311.9780429981438
 20
-433.6830360643046
 30
0.0
 11
319.0595260025439
 21
-440.7645190687047
 31
0.0
  0
LINE
  5
3DC
  8
回08-記事
  6
CONTINUOUS
 62
     8
 10
311.9780429981437
 20
-438.1731641248391
 30
0.0
 11
319.0595260025439
 21
-445.2546471292391
 31
0.0
  0
LINE
  5
3DD
  8
回08-記事
  6
CONTINUOUS
 62
     8
 10
311.9780429981438
 20
-442.6632921853737
 30
0.0
 11
317.4256388563827
 21
-448.1108880436125
 31
0.0
  0
LINE
  5
3DE
  8
回08-記事
  6
CONTINUOUS
 62
     8
 10
311.9780429981438
 20
-447.1534202459081
 30
0.0
 11
312.9355107958482
 21
-448.1108880436125
 31
0.0
  0
ENDBLK
  5
3E0
  8
回07-寸法
 62
     5
  0
BLOCK
  8
回07-寸法
  2
*X474747
 70
     1
 10
0.0
 20
0.0
 30
0.0
  3
*X474747
  1

  0
TEXT
  5
3E8
  8
回07-寸法
  6
CONTINUOUS
 62
     5
 10
419.7033857116921
 20
-442.914042673753
 30
0.0
 40
3.0
  1
32.39 [1.275]
 50
90.0
  0
TEXT
  5
3E9
  8
回07-寸法
  6
CONTINUOUS
 62
     5
 10
419.7033857116921
 20
-420.703211568172
 30
0.0
 40
1.400099999999999
  1
(ACTIVE AREA CENTER)
 50
90.0
  0
ENDBLK
  5
3EB
  8
回07-寸法
 62
     5
  0
BLOCK
  8
回07-寸法
  2
*X484848
 70
     1
 10
0.0
 20
0.0
 30
0.0
  3
*X484848
  1

  0
TEXT
  5
3EE
  8
回07-寸法
  6
CONTINUOUS
 62
     5
 10
424.5067248020801
 20
-441.4540872213404
 30
0.0
 40
3.0
  1
58.38 [2.298]
 50
90.0
  0
TEXT
  5
3EF
  8
回07-寸法
  6
CONTINUOUS
 62
     5
 10
424.5067248020801
 20
-418.6432561157593
 30
0.0
 40
2.000099999999999
  1
(ACTIVE AREA)
 50
90.0
  0
ENDBLK
  5
3F1
  8
回07-寸法
 62
     5
  0
BLOCK
  8
回07-寸法
  2
*X494949
 70
     1
 10
0.0
 20
0.0
 30
0.0
  3
*X494949
  1

  0
TEXT
  5
3F4
  8
回07-寸法
  6
CONTINUOUS
 62
     5
 10
429.9086720524877
 20
-441.1541882102413
 30
0.0
 40
3.0
  1
59.18 [2.330]
 50
90.0
  0
TEXT
  5
3F5
  8
回07-寸法
  6
CONTINUOUS
 62
     5
 10
429.9086720524877
 20
-418.9433571046603
 30
0.0
 40
2.000099999999999
  1
(VIEWING AERA)
 50
90.0
  0
ENDBLK
  5
3F7
  8
回07-寸法
 62
     5
  0
BLOCK
  8
回07-寸法
  2
*X505050
 70
     1
 10
0.0
 20
0.0
 30
0.0
  3
*X505050
  1

  0
TEXT
  5
3FA
  8
回07-寸法
  6
CONTINUOUS
 62
     5
 10
445.3584535669848
 20
-435.379127177939
 30
0.0
 40
3.0
  1
65
 50
90.0
  0
TEXT
  5
3FB
  8
回07-寸法
  6
CONTINUOUS
 62
     5
 10
445.3584535669848
 20
-431.179127177939
 30
0.0
 40
2.1
  1
±0.3
 50
90.0
  0
TEXT
  5
3FC
  8
回07-寸法
  6
CONTINUOUS
 62
     5
 10
445.3584535669848
 20
-426.1391271779388
 30
0.0
 40
3.0
  1
 [2.559
 50
90.0
  0
TEXT
  5
3FD
  8
回07-寸法
  6
CONTINUOUS
 62
     5
 10
445.3584535669848
 20
-413.828296072358
 30
0.0
 40
2.1
  1
±0.012
 50
90.0
  0
TEXT
  5
3FE
  8
回07-寸法
  6
CONTINUOUS
 62
     5
 10
445.3584535669848
 20
-406.268296072358
 30
0.0
 40
3.0
  1
]
 50
90.0
  0
ENDBLK
  5
400
  8
回07-寸法
 62
     5
  0
BLOCK
  8
回07-寸法
  2
*X515151
 70
     1
 10
0.0
 20
0.0
 30
0.0
  3
*X515151
  1

  0
TEXT
  5
403
  8
回07-寸法
  6
CONTINUOUS
 62
     5
 10
340.3444772230164
 20
-375.0831915105233
 30
0.0
 40
3.0
  1
77.58 [3.054]
  0
TEXT
  5
404
  8
回07-寸法
  6
CONTINUOUS
 62
     5
 10
363.4444772230164
 20
-375.0831915105233
 30
0.0
 40
2.000099999999999
  1
(ACTIVE AERA)
  0
ENDBLK
  5
406
  8
回07-寸法
 62
     5
  0
BLOCK
  8
回07-寸法
  2
*X525252
 70
     1
 10
0.0
 20
0.0
 30
0.0
  3
*X525252
  1

  0
TEXT
  5
409
  8
回07-寸法
  6
CONTINUOUS
 62
     5
 10
339.8944472230164
 20
-369.2772038972049
 30
0.0
 40
3.0
  1
78.38 [3.086]
  0
TEXT
  5
40A
  8
回07-寸法
  6
CONTINUOUS
 62
     5
 10
362.6944472230164
 20
-369.2772038972049
 30
0.0
 40
2.000099999999999
  1
(VIEWING AREA)
  0
ENDBLK
  5
40C
  8
回07-寸法
 62
     5
  0
BLOCK
  8
回07-寸法
  2
*X535353
 70
     1
 10
0.0
 20
0.0
 30
0.0
  3
*X535353
  1

  0
TEXT
  5
40F
  8
回07-寸法
  6
CONTINUOUS
 62
     5
 10
344.1595260025439
 20
-352.157348234996
 30
0.0
 40
3.0
  1
87
  0
TEXT
  5
410
  8
回07-寸法
  6
CONTINUOUS
 62
     5
 10
348.3595260025439
 20
-352.157348234996
 30
0.0
 40
2.1
  1
±0.3
  0
TEXT
  5
411
  8
回07-寸法
  6
CONTINUOUS
 62
     5
 10
353.3995260025439
 20
-352.157348234996
 30
0.0
 40
3.0
  1
 [3.425
  0
TEXT
  5
412
  8
回07-寸法
  6
CONTINUOUS
 62
     5
 10
365.999526002544
 20
-352.157348234996
 30
0.0
 40
2.1
  1
±0.012
  0
TEXT
  5
413
  8
回07-寸法
  6
CONTINUOUS
 62
     5
 10
373.559526002544
 20
-352.157348234996
 30
0.0
 40
3.0
  1
]
  0
ENDBLK
  5
415
  8
回07-寸法
 62
     5
  0
BLOCK
  8
回07-寸法
  2
*X545454
 70
     1
 10
0.0
 20
0.0
 30
0.0
  3
*X545454
  1

  0
TEXT
  5
418
  8
回07-寸法
  6
CONTINUOUS
 62
     5
 10
411.6405930508795
 20
-529.1189423311857
 30
0.0
 40
3.0
  1
1.0
 50
90.0
  0
TEXT
  5
419
  8
回07-寸法
  6
CONTINUOUS
 62
     5
 10
411.6405930508795
 20
-524.6189423311857
 30
0.0
 40
2.000099999999999
  1
±0.2
 50
90.0
  0
TEXT
  5
41A
  8
回07-寸法
  6
CONTINUOUS
 62
     5
 10
411.6405930508795
 20
-519.8187023311858
 30
0.0
 40
3.0
  1
[0.039
 50
90.0
  0
TEXT
  5
41B
  8
回07-寸法
  6
CONTINUOUS
 62
     5
 10
411.6405930508795
 20
-509.3078712256049
 30
0.0
 40
2.499989999999999
  1
±0.008
 50
90.0
  0
TEXT
  5
41C
  8
回07-寸法
  6
CONTINUOUS
 62
     5
 10
411.6405930508795
 20
-499.8079092256046
 30
0.0
 40
3.0
  1
]
 50
90.0
  0
ENDBLK
  5
41E
  8
回07-寸法
 62
     5
  0
BLOCK
  8
回07-寸法
  2
*X555555
 70
     1
 10
0.0
 20
0.0
 30
0.0
  3
*X555555
  1

  0
TEXT
  5
421
  8
回07-寸法
  6
CONTINUOUS
 62
     5
 10
258.0490109492649
 20
-526.5483682826539
 30
0.0
 40
3.0
  1
0.3
 50
90.0
  0
TEXT
  5
422
  8
回07-寸法
  6
CONTINUOUS
 62
     5
 10
258.0490109492649
 20
-521.4483682826538
 30
0.0
 40
2.000099999999999
  1
±0.05
 50
90.0
  0
TEXT
  5
423
  8
回07-寸法
  6
CONTINUOUS
 62
     5
 10
258.0490109492649
 20
-515.2480582826539
 30
0.0
 40
3.0
  1
[0.012
 50
90.0
  0
TEXT
  5
424
  8
回07-寸法
  6
CONTINUOUS
 62
     5
 10
258.0490109492649
 20
-505.3480582826538
 30
0.0
 40
1.799999999999999
  1
±0.002
 50
90.0
  0
TEXT
  5
425
  8
回07-寸法
  6
CONTINUOUS
 62
     5
 10
258.0490109492649
 20
-498.5080582826538
 30
0.0
 40
3.0
  1
]
 50
90.0
  0
ENDBLK
  5
427
  8
回07-寸法
 62
     5
  0
BLOCK
  8
回07-寸法
  2
*X565656
 70
     1
 10
0.0
 20
0.0
 30
0.0
  3
*X565656
  1

  0
TEXT
  5
42A
  8
回07-寸法
  6
CONTINUOUS
 62
     5
 10
220.3722794742331
 20
-370.2008093874535
 30
0.0
 40
3.0
  1
4-0.7
 50
90.0
  0
TEXT
  5
42B
  8
回07-寸法
  6
CONTINUOUS
 62
     5
 10
220.3722794742331
 20
-360.6008093874535
 30
0.0
 40
1.799999999999999
  1
±0.1
 50
90.0
  0
TEXT
  5
42C
  8
回07-寸法
  6
CONTINUOUS
 62
     5
 10
220.3722794742331
 20
-356.6408093874536
 30
0.0
 40
3.0
  1
[4-0.028
 50
90.0
  0
TEXT
  5
42D
  8
回07-寸法
  6
CONTINUOUS
 62
     5
 10
220.3722794742331
 20
-341.6408093874535
 30
0.0
 40
2.00001
  1
±0.004
 50
90.0
  0
TEXT
  5
42E
  8
回07-寸法
  6
CONTINUOUS
 62
     5
 10
220.3722794742331
 20
-333.8407703874535
 30
0.0
 40
3.0
  1
]
 50
90.0
  0
ENDBLK
  5
430
  8
回07-寸法
 62
     5
  0
BLOCK
  8
回07-寸法
  2
*X575757
 70
     1
 10
0.0
 20
0.0
 30
0.0
  3
*X575757
  1

  0
TEXT
  5
433
  8
回07-寸法
  6
CONTINUOUS
 62
     5
 10
205.5521777530078
 20
-370.7208098874537
 30
0.0
 40
3.0
  1
3.75
 50
90.0
  0
TEXT
  5
434
  8
回07-寸法
  6
CONTINUOUS
 62
     5
 10
205.5521777530078
 20
-363.5208098874536
 30
0.0
 40
1.799999999999999
  1
±0.1
 50
90.0
  0
TEXT
  5
435
  8
回07-寸法
  6
CONTINUOUS
 62
     5
 10
205.5521777530078
 20
-359.5608098874536
 30
0.0
 40
3.0
  1
[0.148
 50
90.0
  0
TEXT
  5
436
  8
回07-寸法
  6
CONTINUOUS
 62
     5
 10
205.5521777530078
 20
-349.3608098874536
 30
0.0
 40
2.00001
  1
±0.004
 50
90.0
  0
TEXT
  5
437
  8
回07-寸法
  6
CONTINUOUS
 62
     5
 10
205.5521777530078
 20
-341.5607708874536
 30
0.0
 40
3.0
  1
]
 50
90.0
  0
ENDBLK
  5
439
  8
回07-寸法
 62
     5
  0
BLOCK
  8
回07-寸法
  2
*X585858
 70
     1
 10
0.0
 20
0.0
 30
0.0
  3
*X585858
  1

  0
TEXT
  5
43C
  8
回07-寸法
  6
CONTINUOUS
 62
     5
 10
214.0717393938131
 20
-370.8009834445026
 30
0.0
 40
3.0
  1
1.25
 50
90.0
  0
TEXT
  5
43D
  8
回07-寸法
  6
CONTINUOUS
 62
     5
 10
214.0717393938131
 20
-364.2009834445027
 30
0.0
 40
1.799999999999999
  1
±0.2
 50
90.0
  0
TEXT
  5
43E
  8
回07-寸法
  6
CONTINUOUS
 62
     5
 10
214.0717393938131
 20
-359.8809834445027
 30
0.0
 40
3.0
  1
[0.049
 50
90.0
  0
TEXT
  5
43F
  8
回07-寸法
  6
CONTINUOUS
 62
     5
 10
214.0717393938131
 20
-349.0701523389217
 30
0.0
 40
2.00001
  1
±0.008
 50
90.0
  0
TEXT
  5
440
  8
回07-寸法
  6
CONTINUOUS
 62
     5
 10
214.0717393938131
 20
-341.4701143389217
 30
0.0
 40
3.0
  1
]
 50
90.0
  0
ENDBLK
  5
442
  8
回07-寸法
 62
     5
  0
BLOCK
  8
回07-寸法
  2
*X595959
 70
     1
 10
0.0
 20
0.0
 30
0.0
  3
*X595959
  1

  0
TEXT
  5
445
  8
回07-寸法
  6
CONTINUOUS
 62
     5
 10
198.6919715771308
 20
-367.411045607926
 30
0.0
 40
3.0
  1
6.25
 50
90.0
  0
TEXT
  5
446
  8
回07-寸法
  6
CONTINUOUS
 62
     5
 10
198.6919715771308
 20
-360.2110456079261
 30
0.0
 40
1.799999999999999
  1
±0.2
 50
90.0
  0
TEXT
  5
447
  8
回07-寸法
  6
CONTINUOUS
 62
     5
 10
198.6919715771308
 20
-355.891045607926
 30
0.0
 40
3.0
  1
[0.246
 50
90.0
  0
TEXT
  5
448
  8
回07-寸法
  6
CONTINUOUS
 62
     5
 10
198.6919715771308
 20
-345.091045607926
 30
0.0
 40
2.00001
  1
±0.008
 50
90.0
  0
TEXT
  5
449
  8
回07-寸法
  6
CONTINUOUS
 62
     5
 10
198.6919715771308
 20
-337.491007607926
 30
0.0
 40
3.0
  1
]
 50
90.0
  0
ENDBLK
  5
44B
  8
回07-寸法
 62
     5
  0
BLOCK
  8
回07-寸法
  2
*X606060
 70
     1
 10
0.0
 20
0.0
 30
0.0
  3
*X606060
  1

  0
TEXT
  5
44E
  8
回07-寸法
  6
CONTINUOUS
 62
     5
 10
325.6714519612772
 20
-381.0066734812584
 30
0.0
 40
3.0
  1
45.01 [1.772]
  0
TEXT
  5
44F
  8
回07-寸法
  6
CONTINUOUS
 62
     5
 10
347.5714519612771
 20
-381.0066734812584
 30
0.0
 40
1.799999999999999
  1
(ACTIVE AREA CENTER)
  0
ENDBLK
  5
451
  8
回07-寸法
 62
     5
  0
BLOCK
  8
回07-寸法
  2
*X616161
 70
     1
 10
0.0
 20
0.0
 30
0.0
  3
*X616161
  1

  0
TEXT
  5
454
  8
回07-寸法
 62
     5
 10
277.1449040100097
 20
-405.6096967951758
 30
0.0
 40
3.0
  1
50
  0
TEXT
  5
455
  8
回07-寸法
 62
     5
 10
281.3449040100096
 20
-405.6096967951758
 30
0.0
 40
2.1
  1
±1
  0
TEXT
  5
456
  8
回07-寸法
 62
     5
 10
283.8649040100096
 20
-405.6096967951758
 30
0.0
 40
3.0
  1
 [1.969
  0
TEXT
  5
457
  8
回07-寸法
 62
     5
 10
295.5865662211715
 20
-405.6096967951758
 30
0.0
 40
2.1
  1
±0.039
  0
TEXT
  5
458
  8
回07-寸法
 62
     5
 10
303.5741479950782
 20
-405.6096967951758
 30
0.0
 40
3.0
  1
]
  0
ENDBLK
  5
45A
  8
回07-寸法
 62
     5
  0
ENDSEC
  0
SECTION
  2
ENTITIES
  0
TEXT
  5
5D
  8
回03-記事
  6
CONTINUOUS
 62
     5
 10
280.1801859250311
 20
-580.4149039488051
 30
0.0
 40
4.799999999999998
  1
without affecting product specification.
  0
TEXT
  5
5F
  8
回03-記事
  6
CONTINUOUS
 62
     5
 10
280.1801859250311
 20
-571.9951982346052
 30
0.0
 40
4.799999999999998
  1
Edges and corners of ITO glass may be chamfered 
  0
TEXT
  5
60
  8
回03-記事
  6
CONTINUOUS
 62
     5
 10
280.1801859250311
 20
-563.5754925204053
 30
0.0
 40
4.799999999999998
  1
Unit: mm
  0
TEXT
  5
61
  8
回03-記事
  6
CONTINUOUS
 62
     5
 10
280.1801859250311
 20
-555.1557868062054
 30
0.0
 40
4.799999999999998
  1
EXCEPT WHERE INDICATED
  0
TEXT
  5
62
  8
回03-記事
  6
CONTINUOUS
 62
     5
 10
280.1801859250311
 20
-546.736081092006
 30
0.0
 40
4.799999999999998
  1
TOLERANCE=±0.5mm
  0
TEXT
  5
63
  8
回07-寸法
  6
CONTINUOUS
 62
     5
 10
324.8674232552211
 20
-464.2618882457989
 30
0.0
 40
3.0
  1
PROTECTION TAPE
1001
ACAD
1000
MTEXTBEGIN
1070
    73
1070
     1
1070
    44
1040
1.0
1070
    74
1070
     0
1000
MTEXTEND
  0
INSERT
  5
64
  8
回07-寸法
  6
CONTINUOUS
 62
     1
 66
     1
  2
*X353535
 10
0.0
 20
0.0
 30
0.0
  0
SEQEND
  5
349
  8
回07-寸法
 62
     5
  0
DIMENSION
  5
65
  8
回07-寸法
 62
     5
  2
*D343434
 10
311.1860965992681
 20
-421.8350578473488
 30
0.0
 11
291.7996399365736
 21
-421.8350578473488
 31
0.0
 70
   128
  1
4.39 [0.173]
  3
DMC
 13
315.959526002544
 23
-431.7617704067593
 33
0.0
 14
311.1860965992681
 24
-432.785223688143
 34
0.0
1001
ACAD
1000
DSTYLE
1002
{
1070
   143
1040
0.03937007874016
1070
   170
1070
     1
1002
}
  0
DIMENSION
  5
75
  8
回07-寸法
 62
     5
  2
*D333333
 10
315.959526002544
 20
-406.2596967951757
 30
0.0
 11
290.959526002544
 21
-404.109696795176
 31
0.0
 70
     0
  3
DMC
 13
265.959526002544
 23
-438.0820662125808
 33
0.0
 14
315.959526002544
 24
-431.7617704067593
 34
0.0
1001
ACAD
1000
DSTYLE
1002
{
1070
    47
1040
1.0
1070
   147
1040
0.5
1070
    48
1040
1.0
1070
    72
1070
     0
1070
    71
1070
     1
1070
   143
1040
0.03937007874016
1070
   170
1070
     1
1002
}
  0
DIMENSION
  5
82
  8
回07-寸法
 62
     5
  2
*D323232
 10
439.8266873502832
 20
-388.2082052311973
 30
0.0
 11
437.676687350283
 21
-373.7701146800162
 31
0.0
 70
     0
  3
DMC
 13
400.6595260025439
 23
-390.4282052311971
 33
0.0
 14
402.9595260025438
 24
-388.2082052311972
 34
0.0
 50
90.0
1001
ACAD
1000
DSTYLE
1002
{
1070
   143
1040
0.03937007874016
1070
   170
1070
     1
1002
}
  0
DIMENSION
  5
91
  8
回07-寸法
 62
     5
  2
*D313131
 10
439.8266873502832
 20
-453.2082052311972
 30
0.0
 11
437.6759623117534
 21
-465.1015372781198
 31
0.0
 70
     0
  3
DMC
 13
400.6595260025439
 23
-451.2082052311972
 33
0.0
 14
402.9595260025438
 24
-453.2082052311969
 34
0.0
 50
90.0
1001
ACAD
1000
DSTYLE
1002
{
1070
   143
1040
0.03937007874016
1070
   170
1070
     1
1002
}
  0
DIMENSION
  5
A0
  8
回07-寸法
 62
     5
  2
*D303030
 10
402.9595260025438
 20
-359.2862588846846
 30
0.0
 11
416.0528580494665
 21
-357.1355338461551
 31
0.0
 70
     0
  3
DMC
 13
400.6595260025439
 23
-390.4282052311971
 33
0.0
 14
402.9595260025438
 24
-388.2082052311972
 34
0.0
1001
ACAD
1000
DSTYLE
1002
{
1070
   143
1040
0.03937007874016
1070
   170
1070
     1
1002
}
  0
DIMENSION
  5
AF
  8
回07-寸法
 62
     5
  2
*D292929
 10
400.6595260025439
 20
-359.2862588846846
 30
0.0
 11
360.969526002544
 21
-357.1362588846846
 31
0.0
 70
     0
  3
DMC
 13
321.279526002544
 23
-390.7282052311972
 33
0.0
 14
400.6595260025439
 24
-390.7282052311972
 34
0.0
1001
ACAD
1000
DSTYLE
1002
{
1070
   143
1040
0.03937007874016
1070
   170
1070
     1
1002
}
  0
DIMENSION
  5
BC
  8
回07-寸法
 62
     5
  2
*D282828
 10
315.959526002544
 20
-359.2862588846846
 30
0.0
 11
301.5542845068026
 21
-357.1355338461551
 31
0.0
 70
     0
  3
DMC
 13
321.279526002544
 23
-390.7282052311972
 33
0.0
 14
315.959526002544
 24
-388.2082052311972
 34
0.0
1001
ACAD
1000
DSTYLE
1002
{
1070
   143
1040
0.03937007874016
1070
   170
1070
     1
1002
}
  0
POLYLINE
  5
CB
  8
回08-記事
  6
DASHED2
 66
     1
 10
0.0
 20
0.0
 30
0.0
 70
     1
  0
VERTEX
  5
7B5
  8
回08-記事
  6
DASHED2
 10
321.279526002544
 20
-390.4282052311971
 30
0.0
  0
VERTEX
  5
7B7
  8
回08-記事
  6
DASHED2
 10
400.6595260025439
 20
-390.4282052311971
 30
0.0
  0
VERTEX
  5
7B8
  8
回08-記事
  6
DASHED2
 10
400.6595260025439
 20
-451.2082052311972
 30
0.0
  0
VERTEX
  5
7B9
  8
回08-記事
  6
DASHED2
 10
321.279526002544
 20
-451.2082052311972
 30
0.0
  0
SEQEND
  5
7B6
  8
回07-寸法
 62
     5
  0
DIMENSION
  5
D0
  8
回07-寸法
 62
     2
  2
*D272727
 10
439.8266873502832
 20
-451.2082052311972
 30
0.0
 11
437.6759623117534
 21
-420.8182052311973
 31
0.0
 70
     0
  3
DMC
 13
400.6595260025439
 23
-390.4282052311971
 33
0.0
 14
400.6595260025439
 24
-451.2082052311972
 34
0.0
 50
90.0
1001
ACAD
1000
DSTYLE
1002
{
1070
   143
1040
0.03937007874016
1070
   170
1070
     1
1002
}
  0
TEXT
  5
DD
  8
回07-寸法
  6
CONTINUOUS
 62
     7
 10
443.0793957447591
 20
-480.8729633895231
 30
0.0
 40
2.0
  1
(INSULATION AREA)
 50
90.0
  0
TEXT
  5
DE
  8
回07-寸法
  6
CONTINUOUS
 62
     7
 10
443.4328648636482
 20
-383.7212698288941
 30
0.0
 40
2.0
  1
(INSULATION AREA)
 50
90.0
  0
TEXT
  5
DF
  8
回07-寸法
  6
CONTINUOUS
 62
     7
 10
406.6958333146098
 20
-363.1775312208028
 30
0.0
 40
2.0
  1
(INSULATION AREA)
  0
TEXT
  5
E0
  8
回07-寸法
  6
CONTINUOUS
 62
     7
 10
287.8936352321423
 20
-363.135149311168
 30
0.0
 40
2.0
  1
(INSULATION AREA)
  0
TEXT
  5
E1
  8
回08-記事
  6
CONTINUOUS
 62
     5
 10
467.5346373092573
 20
-378.6958509040644
 30
0.0
 40
3.839999999999998
  1
4
  0
TEXT
  5
E2
  8
回08-記事
  6
CONTINUOUS
 62
     5
 10
467.4558205054948
 20
-390.1930790603715
 30
0.0
 40
3.839999999999998
  1
3
  0
LINE
  5
E3
  8
回08-記事
  6
CONTINUOUS
 62
     5
 10
470.5626373493952
 20
-389.2058243311345
 30
0.0
 11
506.6586373493954
 21
-389.2058243311345
 31
0.0
  0
LINE
  5
E4
  8
回08-記事
  6
CONTINUOUS
 62
     5
 10
490.5306373493953
 20
-407.6378243311343
 30
0.0
 11
493.6026373493954
 21
-406.1018243311345
 31
0.0
  0
LINE
  5
E5
  8
回08-記事
  6
CONTINUOUS
 62
     5
 10
490.5306373493953
 20
-407.6378243311343
 30
0.0
 11
493.6026373493954
 21
-409.1738243311342
 31
0.0
  0
LINE
  5
E6
  8
回08-記事
  6
CONTINUOUS
 62
     5
 10
490.5306373493953
 20
-404.5658243311343
 30
0.0
 11
493.6026373493954
 21
-406.1018243311345
 31
0.0
  0
LINE
  5
E7
  8
回08-記事
  6
CONTINUOUS
 62
     5
 10
492.0666373493952
 20
-403.7978243311345
 30
0.0
 11
492.0666373493952
 21
-400.7258243311345
 31
0.0
  0
LINE
  5
E8
  8
回08-記事
  6
CONTINUOUS
 62
     5
 10
490.5306373493953
 20
-404.5658243311343
 30
0.0
 11
492.0666373493952
 21
-403.7978243311345
 31
0.0
  0
TEXT
  5
E9
  8
回08-記事
  6
CONTINUOUS
 62
     5
 10
492.7518957172151
 20
-403.911531049924
 30
0.0
 40
3.839999999999998
  1
YU
  0
LINE
  5
EA
  8
回08-記事
  6
CONTINUOUS
 62
     5
 10
504.3546373493954
 20
-412.2458243311345
 30
0.0
 11
506.6586373493954
 21
-412.2458243311345
 31
0.0
  0
LINE
  5
EB
  8
回08-記事
  6
CONTINUOUS
 62
     5
 10
503.5866373493952
 20
-413.7818243311341
 30
0.0
 11
504.3546373493954
 21
-412.2458243311345
 31
0.0
  0
LINE
  5
EC
  8
回08-記事
  6
CONTINUOUS
 62
     5
 10
502.0506373493955
 20
-410.7098243311343
 30
0.0
 11
503.5866373493952
 21
-413.7818243311341
 31
0.0
  0
TEXT
  5
ED
  8
回08-記事
  6
CONTINUOUS
 62
     5
 10
504.7317564656693
 20
-416.8200996228915
 30
0.0
 40
3.839999999999998
  1
XR
  0
LINE
  5
EE
  8
回08-記事
  6
CONTINUOUS
 62
     5
 10
490.5306373493953
 20
-419.9258243311343
 30
0.0
 11
493.6026373493954
 21
-418.3898243311345
 31
0.0
  0
LINE
  5
EF
  8
回08-記事
  6
CONTINUOUS
 62
     5
 10
490.5306373493953
 20
-419.9258243311343
 30
0.0
 11
492.0666373493952
 21
-420.6938243311343
 31
0.0
  0
LINE
  5
F0
  8
回08-記事
  6
CONTINUOUS
 62
     5
 10
490.5306373493953
 20
-413.7818243311341
 30
0.0
 11
493.6026373493954
 21
-412.2458243311345
 31
0.0
  0
LINE
  5
F1
  8
回08-記事
  6
CONTINUOUS
 62
     5
 10
491.2986373493954
 20
-413.7818243311341
 30
0.0
 11
492.8346373493954
 21
-410.7098243311343
 31
0.0
  0
LINE
  5
F2
  8
回08-記事
  6
CONTINUOUS
 62
     5
 10
490.5306373493953
 20
-413.7818243311341
 30
0.0
 11
493.6026373493954
 21
-415.3178243311343
 31
0.0
  0
LINE
  5
F3
  8
回08-記事
  6
CONTINUOUS
 62
     5
 10
490.5306373493953
 20
-416.8538243311345
 30
0.0
 11
493.6026373493954
 21
-418.3898243311345
 31
0.0
  0
LINE
  5
F4
  8
回08-記事
  6
CONTINUOUS
 62
     5
 10
490.5306373493953
 20
-416.8538243311345
 30
0.0
 11
493.6026373493954
 21
-415.3178243311343
 31
0.0
  0
LINE
  5
F5
  8
回08-記事
  6
CONTINUOUS
 62
     5
 10
490.5306373493953
 20
-410.7098243311343
 30
0.0
 11
493.6026373493954
 21
-412.2458243311345
 31
0.0
  0
LINE
  5
F6
  8
回08-記事
  6
CONTINUOUS
 62
     5
 10
489.7626373493955
 20
-410.7098243311343
 30
0.0
 11
491.2986373493954
 21
-413.7818243311341
 31
0.0
  0
LINE
  5
F7
  8
回08-記事
  6
CONTINUOUS
 62
     5
 10
498.9786373493955
 20
-410.7098243311343
 30
0.0
 11
500.5146373493952
 21
-413.7818243311341
 31
0.0
  0
LINE
  5
F8
  8
回08-記事
  6
CONTINUOUS
 62
     5
 10
495.9066373493953
 20
-410.7098243311343
 30
0.0
 11
497.4426373493954
 21
-413.7818243311341
 31
0.0
  0
LINE
  5
F9
  8
回08-記事
  6
CONTINUOUS
 62
     5
 10
494.3706373493951
 20
-413.7818243311341
 30
0.0
 11
495.9066373493953
 21
-410.7098243311343
 31
0.0
  0
LINE
  5
FA
  8
回08-記事
  6
CONTINUOUS
 62
     5
 10
492.8346373493954
 20
-410.7098243311343
 30
0.0
 11
494.3706373493951
 21
-413.7818243311341
 31
0.0
  0
LINE
  5
FB
  8
回08-記事
  6
CONTINUOUS
 62
     5
 10
497.4426373493954
 20
-413.7818243311341
 30
0.0
 11
498.9786373493955
 21
-410.7098243311343
 31
0.0
  0
LINE
  5
FC
  8
回08-記事
  6
CONTINUOUS
 62
     5
 10
500.5146373493952
 20
-413.7818243311341
 30
0.0
 11
502.0506373493955
 21
-410.7098243311343
 31
0.0
  0
LINE
  5
FD
  8
回08-記事
  6
CONTINUOUS
 62
     5
 10
490.5306373493953
 20
-410.7098243311343
 30
0.0
 11
493.6026373493954
 21
-409.1738243311342
 31
0.0
  0
TEXT
  5
FE
  8
回08-記事
  6
CONTINUOUS
 62
     5
 10
477.8696992234783
 20
-417.5440328989853
 30
0.0
 40
3.839999999999998
  1
XL
  0
LINE
  5
FF
  8
回08-記事
  6
CONTINUOUS
 62
     5
 10
485.1546373493953
 20
-413.7818243311341
 30
0.0
 11
486.6906373493955
 21
-410.7098243311343
 31
0.0
  0
LINE
  5
100
  8
回08-記事
  6
CONTINUOUS
 62
     5
 10
483.6186373493951
 20
-410.7098243311343
 30
0.0
 11
485.1546373493953
 21
-413.7818243311341
 31
0.0
  0
LINE
  5
101
  8
回08-記事
  6
CONTINUOUS
 62
     5
 10
486.6906373493955
 20
-410.7098243311343
 30
0.0
 11
488.2266373493954
 21
-413.7818243311341
 31
0.0
  0
LINE
  5
102
  8
回08-記事
  6
CONTINUOUS
 62
     5
 10
482.8506373493953
 20
-412.2458243311345
 30
0.0
 11
483.6186373493951
 21
-410.7098243311343
 31
0.0
  0
LINE
  5
103
  8
回08-記事
  6
CONTINUOUS
 62
     5
 10
470.5626373493952
 20
-412.2458243311345
 30
0.0
 11
482.8506373493953
 21
-412.2458243311345
 31
0.0
  0
TEXT
  5
104
  8
回08-記事
  6
CONTINUOUS
 62
     5
 10
467.7710958711968
 20
-413.1875353729856
 30
0.0
 40
3.839999999999998
  1
1
  0
LINE
  5
105
  8
回08-記事
  6
CONTINUOUS
 62
     5
 10
470.5626373493952
 20
-400.7258243311345
 30
0.0
 11
492.0666373493952
 21
-400.7258243311345
 31
0.0
  0
LINE
  5
106
  8
回08-記事
  6
CONTINUOUS
 62
     5
 10
488.2266373493954
 20
-413.7818243311341
 30
0.0
 11
489.7626373493955
 21
-410.7098243311343
 31
0.0
  0
TEXT
  5
107
  8
回08-記事
  6
CONTINUOUS
 62
     5
 10
467.6134568299037
 20
-401.8478036691567
 30
0.0
 40
3.839999999999998
  1
2
  0
LINE
  5
108
  8
回08-記事
  6
CONTINUOUS
 62
     5
 10
506.6586373493954
 20
-412.2458243311345
 30
0.0
 11
506.6586373493954
 21
-389.2058243311345
 31
0.0
  0
LINE
  5
109
  8
回08-記事
  6
CONTINUOUS
 62
     5
 10
469.7946373493953
 20
-377.6858243311343
 30
0.0
 11
515.1066373493953
 21
-377.6858243311343
 31
0.0
  0
LINE
  5
10A
  8
回08-記事
  6
CONTINUOUS
 62
     5
 10
492.0666373493952
 20
-423.7658243311343
 30
0.0
 11
515.1066373493953
 21
-423.7658243311343
 31
0.0
  0
LINE
  5
10B
  8
回08-記事
  6
CONTINUOUS
 62
     5
 10
492.0666373493952
 20
-423.7658243311343
 30
0.0
 11
492.0666373493952
 21
-420.6938243311343
 31
0.0
  0
TEXT
  5
10C
  8
回08-記事
  6
CONTINUOUS
 62
     5
 10
484.8805238350782
 20
-425.257680274557
 30
0.0
 40
3.839999999999998
  1
YD
  0
LINE
  5
10D
  8
回08-記事
  6
CONTINUOUS
 62
     5
 10
515.1066373493953
 20
-423.7658243311343
 30
0.0
 11
515.1066373493953
 21
-377.6858243311343
 31
0.0
  0
DIMENSION
  5
10E
  8
回07-寸法
  6
CONTINUOUS
 62
     5
  2
*D262626
 10
249.417701410027
 20
-453.2082052311972
 30
0.0
 11
249.4177014100269
 21
-426.4518247168394
 31
0.0
 70
   128
  3
DMC
 13
262.5849193884605
 23
-440.7070662125808
 33
0.0
 14
315.959526002544
 24
-453.2082052311969
 34
0.0
 50
90.0
1001
ACAD
1000
DSTYLE
1002
{
1070
   143
1040
0.03937007874016
1070
   170
1070
     1
1002
}
  0
LINE
  5
11D
  8
回07-寸法
  6
CENTER2
 62
     5
 10
308.6924567128213
 20
-440.7070662125808
 30
0.0
 11
262.5849193884605
 21
-440.7070662125808
 31
0.0
  0
LINE
  5
11F
  8
回08-記事
 62
     5
 10
226.2120999763425
 20
-375.3008093874535
 30
0.0
 11
245.727835635013
 21
-375.3008093874535
 31
0.0
  0
LINE
  5
120
  8
回08-記事
 62
     5
 10
226.2120999763424
 20
-379.0508093874535
 30
0.0
 11
245.727835635013
 21
-379.0508093874535
 31
0.0
  0
LINE
  5
121
  8
回08-記事
 62
     5
 10
226.2120999763423
 20
-386.5508093874534
 30
0.0
 11
245.727835635013
 21
-386.5508093874534
 31
0.0
  0
DIMENSION
  5
122
  8
回07-寸法
  6
CONTINUOUS
 62
     5
  2
*D252525
 10
315.959526002544
 20
-369.9272038972049
 30
0.0
 11
301.5542845068026
 21
-369.9272038972049
 31
0.0
 70
   128
  3
DMC
 13
321.7795260025439
 23
-391.2282052311971
 33
0.0
 14
315.959526002544
 24
-388.2082052311972
 34
0.0
1001
ACAD
1000
DSTYLE
1002
{
1070
   143
1040
0.03937007874016
1070
   170
1070
     1
1002
}
  0
DIMENSION
  5
131
  8
回07-寸法
  6
CONTINUOUS
 62
     5
  2
*D242424
 10
315.959526002544
 20
-375.7331915105233
 30
0.0
 11
301.3197622230164
 21
-375.7331915105233
 31
0.0
 70
   128
  3
DMC
 13
322.179526002544
 23
-391.628205231197
 33
0.0
 14
315.959526002544
 24
-388.2082052311972
 34
0.0
1001
ACAD
1000
DSTYLE
1002
{
1070
   143
1040
0.03937007874016
1070
   170
1070
     1
1002
}
  0
DIMENSION
  5
140
  8
回07-寸法
  6
CONTINUOUS
 62
     5
  2
*D232323
 10
360.969526002544
 20
-381.6566734812584
 30
0.0
 11
349.4010976305685
 21
-381.6566734812584
 31
0.0
 70
   128
  1
<>{\H0.6x;(ACTIVE AREA CENTER)}
  3
DMC
 13
315.959526002544
 23
-388.2082052311972
 33
0.0
 14
360.969526002544
 24
-388.2082052311972
 34
0.0
1001
ACAD
1000
DSTYLE
1002
{
1070
   143
1040
0.03937007874016
1070
   170
1070
     1
1002
}
  0
DIMENSION
  5
14D
  8
回07-寸法
  6
CONTINUOUS
 62
     7
  2
*D222222
 10
410.4512181125413
 20
-453.2082052311972
 30
0.0
 11
408.3012181125408
 21
-467.1570241288351
 31
0.0
 70
     0
  1
(<>)
  3
DMC
 13
402.9595260025438
 23
-450.4082052311971
 33
0.0
 14
402.9595260025438
 24
-453.2082052311969
 34
0.0
 50
90.0
1001
ACAD
1000
DSTYLE
1002
{
1070
   143
1040
0.03937007874016
1070
   170
1070
     1
1002
}
  0
INSERT
  5
15C
  8
回08-記事
  6
CONTINUOUS
 62
     7
 66
     1
  2
*X363636
 10
0.0
 20
0.0
 30
0.0
  0
SEQEND
  5
355
  8
回07-寸法
 62
     5
  0
TEXT
  5
15D
  8
回07-寸法
  6
CONTINUOUS
 62
     5
 10
280.3157557862687
 20
-430.5859938271786
 30
0.0
 40
3.0
  1
LOT LABEL
1001
ACAD
1000
MTEXTBEGIN
1070
    73
1070
     1
1070
    44
1040
1.0
1070
    74
1070
     0
1000
MTEXTEND
  0
TEXT
  5
15E
  8
回08-記事
  6
CONTINUOUS
 62
     5
 10
323.8942794285194
 20
-425.3098561061944
 30
0.0
 40
3.0
  1
XL
  0
TEXT
  5
15F
  8
回90-枠3
 10
507.486112341997
 20
-578.6024724140713
 30
0.0
 40
4.0
  1
Sep/25/2023
  0
TEXT
  5
163
  8
回90-枠3
 10
517.4115785734051
 20
-572.5574473192921
 30
0.0
 40
2.5
  1
DATE
  0
LINE
  5
164
  8
回90-枠3
  6
CONTINUOUS
 62
     7
 10
502.5684210315406
 20
-568.8510872721457
 30
0.0
 11
502.5684210315406
 21
-591.7837354280792
 31
0.0
  0
TEXT
  5
165
  8
回90-枠3
 10
507.2898334948168
 20
-588.9766204975662
 30
0.0
 40
4.0
  1
DMC Co., Ltd.
  0
TEXT
  5
166
  8
回90-枠3
 10
465.6233625943754
 20
-572.622915433516
 30
0.0
 40
2.5
  1
PART No.
  0
TEXT
  5
167
  8
回90-枠3
 10
465.8853099070578
 20
-583.6056804020587
 30
0.0
 40
2.5
  1
TYPE
  0
TEXT
  5
168
  8
回90-枠3
 10
451.6998923599867
 20
-587.611247866256
 30
0.0
 40
2.5
  1
STANDARD TOUCHSCREEN
  0
LINE
  5
169
  8
回90-枠3
 10
438.2987964008521
 20
-568.8510872721457
 30
0.0
 11
438.2987964008521
 21
-591.717010291828
 31
0.0
  0
TEXT
  5
16A
  8
回90-枠3
 10
453.5722263176096
 20
-590.9953792878552
 30
0.0
 40
2.5
  1
DIMENSIONAL DRAWING
  0
LINE
  5
16B
  8
回90-枠3
 10
449.6003520061147
 20
-587.9532172242202
 30
0.0
 11
495.9296225534867
 21
-587.9532172242202
 31
0.0
  0
LINE
  5
16C
  8
回90-枠3
 10
438.2987964008521
 20
-573.1120668526286
 30
0.0
 11
541.5569144381595
 21
-573.1120668526286
 31
0.0
  0
LINE
  5
16D
  8
回90-枠3
 10
438.3124028581855
 20
-584.1151575285532
 30
0.0
 11
502.5684210315406
 21
-584.1151575285532
 31
0.0
  0
LINE
  5
16E
  8
回90-枠3
 10
438.2987964008521
 20
-568.8510872721457
 30
0.0
 11
541.716920945227
 21
-568.8510872721457
 31
0.0
  0
LINE
  5
16F
  8
回90-枠3
 10
438.2978679877013
 20
-580.3941691144262
 30
0.0
 11
541.6051204114991
 21
-580.3941691144262
 31
0.0
  0
TEXT
  5
170
  8
回90-枠3
 10
446.2530209335427
 20
-579.6568544254592
 30
0.0
 40
5.0
  1
AST-038A050A
  0
TEXT
  5
171
  8
回08-記事
  6
CONTINUOUS
 62
     5
 10
230.2198978095281
 20
-484.4305473831423
 30
0.0
 40
3.0
  1
TRACE EXPOSE
1001
ACAD
1000
MTEXTBEGIN
1070
    73
1070
     1
1070
    44
1040
1.0
1070
    74
1070
     0
1000
MTEXTEND
  0
INSERT
  5
172
  8
回08-記事
  6
CONTINUOUS
 62
    40
 66
     1
  2
*X373737
 10
0.0
 20
0.0
 30
0.0
  0
SEQEND
  5
35C
  8
回07-寸法
 62
     5
  0
TEXT
  5
173
  8
回07-寸法
  6
CONTINUOUS
 62
     5
 10
194.940982294483
 20
-400.5284211350049
 30
0.0
 40
3.0
  1
2-R0.5[R0.020]
1001
ACAD
1000
MTEXTBEGIN
1070
    73
1070
     1
1070
    44
1040
1.0
1070
    74
1070
     0
1000
MTEXTEND
  0
INSERT
  5
174
  8
回07-寸法
  6
CONTINUOUS
 62
     7
 66
     1
  2
*X383838
 10
0.0
 20
0.0
 30
0.0
  0
SEQEND
  5
363
  8
回07-寸法
 62
     5
  0
LINE
  5
175
  8
回08-記事
  6
CONTINUOUS
 62
     7
 10
265.9595260025442
 20
-491.0580582826536
 30
0.0
 11
265.9595260025442
 21
-492.0580582826536
 31
0.0
  0
INSERT
  5
176
  8
回08-記事
  6
DASHED2
 62
     8
 66
     1
  2
*X393939
 10
0.0
 20
0.0
 30
0.0
1001
ACAD
1000
HATCH
1002
{
1070
    19
1000
ANSI31
1040
1.0
1040
0.0
1000
ASC_BOUNDS
1070
     1
1070
     2
1070
     1
1005
177
1000
ASC_SEEDPOINT
1011
455.8920840879499
1021
-414.4766536890001
1031
0.0
1000
R14_HATCH_DATA
1000
176
1011
1.0
1021
0.0
1031
0.0
1011
0.0
1021
1.0
1031
0.0
1011
0.0
1021
0.0
1031
1.0
1040
0.0
1010
0.0
1020
0.0
1030
1.0
1000
ANSI31
1070
     0
1070
     1
1071
        1
1071
        1
1071
        8
1070
     1
1040
305.1973191884782
1040
-439.7093442498134
1040
305.1973191884782
1040
-441.7093442498134
1070
     2
1040
304.1973191884782
1040
-441.7093442498134
1040
1.0
1040
6.283185307179584
1040
7.853981633974482
1070
     0
1070
     1
1040
304.1973191884782
1040
-442.7093442498134
1040
280.1973191884782
1040
-442.7093442498134
1070
     2
1040
280.1973191884782
1040
-441.7093442498134
1040
1.0
1040
1.570796326794896
1040
3.141592653589792
1070
     0
1070
     1
1040
279.1973191884782
1040
-441.7093442498134
1040
279.1973191884782
1040
-439.7093442498134
1070
     2
1040
280.1973191884782
1040
-439.7093442498134
1040
1.0
1040
3.141592653589792
1040
4.712388980384688
1070
     0
1070
     1
1040
280.1973191884782
1040
-438.7093442498134
1040
304.1973191884782
1040
-438.7093442498134
1070
     2
1040
304.1973191884782
1040
-439.7093442498134
1040
1.0
1040
4.712388980384688
1040
6.283185307179584
1070
     0
1071
        1
1005
177
1070
     0
1070
     1
1040
0.0
1040
1.0
1070
     0
1070
     1
1040
0.7853981633974483
1040
455.8920840879499
1040
-414.4766536890001
1040
-2.245064030267287
1040
2.245064030267287
1070
     0
1071
        1
1040
455.8920840879499
1040
-414.4766536890001
1040
0.0
1002
}
  0
SEQEND
  5
36D
  8
回07-寸法
 62
     5
  0
POLYLINE
  5
177
  8
回08-記事
  6
DASHED2
 62
     8
 66
     1
 10
0.0
 20
0.0
 30
0.0
 70
     1
1001
ACAD
1000
ASC_BOUNDS
1002
{
1070
    19
1005
176
1002
}
  0
VERTEX
  5
7BA
  8
回08-記事
  6
DASHED2
 62
     8
 10
305.1973191884782
 20
-439.7093442498134
 30
0.0
  0
VERTEX
  5
7BC
  8
回08-記事
  6
DASHED2
 62
     8
 10
305.1973191884782
 20
-441.7093442498134
 30
0.0
 42
-0.4142135623730951
  0
VERTEX
  5
7BD
  8
回08-記事
  6
DASHED2
 62
     8
 10
304.1973191884782
 20
-442.7093442498134
 30
0.0
  0
VERTEX
  5
7BE
  8
回08-記事
  6
DASHED2
 62
     8
 10
280.1973191884782
 20
-442.7093442498134
 30
0.0
 42
-0.4142135623730951
  0
VERTEX
  5
7BF
  8
回08-記事
  6
DASHED2
 62
     8
 10
279.1973191884782
 20
-441.7093442498134
 30
0.0
  0
VERTEX
  5
7C0
  8
回08-記事
  6
DASHED2
 62
     8
 10
279.1973191884782
 20
-439.7093442498134
 30
0.0
 42
-0.4142135623730951
  0
VERTEX
  5
7C1
  8
回08-記事
  6
DASHED2
 62
     8
 10
280.1973191884782
 20
-438.7093442498134
 30
0.0
  0
VERTEX
  5
7C2
  8
回08-記事
  6
DASHED2
 62
     8
 10
304.1973191884782
 20
-438.7093442498134
 30
0.0
 42
-0.4142135623730951
  0
SEQEND
  5
7BB
  8
回07-寸法
 62
     5
  0
ARC
  5
178
  8
回05-ﾃｰﾙ
  6
BYBLOCK
 62
     7
 10
305.8508247026706
 20
-444.8372298967771
 30
0.0
 40
1.0
 50
45.14359814423188
 51
89.99668642114958
  0
ARC
  5
17C
  8
回05-ﾃｰﾙ
  6
BYBLOCK
 62
     7
 10
305.848263433766
 20
-436.5832052311971
 30
0.0
 40
1.0
 50
270.0
 51
314.8829928953899
  0
ARC
  5
17D
  8
回05-ﾃｰﾙ
  6
BYBLOCK
 62
     7
 10
311.5680429981437
 20
-433.7094081656072
 30
0.0
 40
1.0
 50
90.02560571193596
 51
134.8829928953898
  0
ARC
  5
17E
  8
回05-ﾃｰﾙ
  6
BYBLOCK
 62
     7
 10
311.5717696798841
 20
-447.7082052311971
 30
0.0
 40
1.0
 50
225.1435981442319
 51
270.0000000000033
  0
ARC
  5
17F
  8
回05-ﾃｰﾙ
  6
BYBLOCK
 62
     7
 10
314.2595260025438
 20
-450.7082052311971
 30
0.0
 40
2.0
 50
31.78833061704299
 51
90.00000000000325
  0
ARC
  5
180
  8
回05-ﾃｰﾙ
  6
BYBLOCK
 62
     7
 10
314.259526002544
 20
-430.7082050314742
 30
0.0
 40
2.0
 50
270.0256057119359
 51
328.2116693829447
  0
LINE
  5
181
  8
回05-ﾃｰﾙ
  6
BYBLOCK
 62
     7
 10
306.5561570711882
 20
-444.1283531444983
 30
0.0
 11
310.8664373113665
 21
-448.4170819834761
 31
0.0
  0
LINE
  5
182
  8
回05-ﾃｰﾙ
  6
BYBLOCK
 62
     7
 10
306.5539247168573
 20
-437.2917545615518
 30
0.0
 11
310.8623817150524
 21
-433.0008588352526
 31
0.0
  0
LINE
  5
183
  8
回05-ﾃｰﾙ
  6
BYBLOCK
 62
     7
 10
311.5717696798841
 20
-448.7082052311974
 30
0.0
 11
314.2595260025437
 21
-448.7082052311974
 31
0.0
  0
LINE
  5
184
  8
回05-ﾃｰﾙ
  6
BYBLOCK
 62
     7
 10
311.5675960941779
 20
-432.7094082654689
 30
0.0
 11
314.2604198104755
 21
-432.7082048317508
 31
0.0
  0
LINE
  5
185
  8
回05-ﾃｰﾙ
  6
BYBLOCK
 62
     7
 10
265.959526002544
 20
-438.0820662125808
 30
0.0
 11
265.959526002544
 21
-443.3320662125807
 31
0.0
  0
ARC
  5
186
  8
回05-ﾃｰﾙ
  6
BYBLOCK
 62
     7
 10
266.459526002544
 20
-443.3320662125807
 30
0.0
 40
0.5
 50
180.0
 51
270.0
  0
ARC
  5
187
  8
回05-ﾃｰﾙ
  6
BYBLOCK
 62
     7
 10
266.459526002544
 20
-438.0820662125808
 30
0.0
 40
0.5
 50
90.0
 51
180.0
  0
LINE
  5
188
  8
回05-ﾃｰﾙ
  6
BYBLOCK
 62
     7
 10
266.459526002544
 20
-443.8320662125808
 30
0.0
 11
305.8508825355316
 21
-443.8372298984496
 31
0.0
  0
LINE
  5
189
  8
回05-ﾃｰﾙ
  6
BYBLOCK
 62
     7
 10
266.4257958787238
 20
-437.5832052311972
 30
0.0
 11
305.848263433766
 21
-437.5832052311972
 31
0.0
  0
TEXT
  5
18A
  8
回07-寸法
  6
CONTINUOUS
 62
     5
 10
289.7815037343823
 20
-504.5348046091681
 30
0.0
 40
3.0
  1
LOT LABEL
1001
ACAD
1000
MTEXTBEGIN
1070
    73
1070
     1
1070
    44
1040
1.0
1070
    74
1070
     0
1000
MTEXTEND
  0
INSERT
  5
18B
  8
回07-寸法
  6
CONTINUOUS
 62
    20
 66
     1
  2
*X404040
 10
0.0
 20
0.0
 30
0.0
  0
SEQEND
  5
37D
  8
回07-寸法
 62
     5
  0
TEXT
  5
18C
  8
回07-寸法
  6
CONTINUOUS
 62
     5
 10
286.1215330829123
 20
-466.6140144348537
 30
0.0
 40
3.0
  1
2-R2[R0.079]
1001
ACAD
1000
MTEXTBEGIN
1070
    73
1070
     1
1070
    44
1040
1.0
1070
    74
1070
     0
1000
MTEXTEND
  0
INSERT
  5
18D
  8
回07-寸法
  6
CONTINUOUS
 62
    20
 66
     1
  2
*X414141
 10
0.0
 20
0.0
 30
0.0
  0
SEQEND
  5
384
  8
回07-寸法
 62
     5
  0
TEXT
  5
18E
  8
回07-寸法
  6
CONTINUOUS
 62
     5
 10
279.1896531339065
 20
-459.1977728481847
 30
0.0
 40
3.0
  1
4-R1[R0.039]
1001
ACAD
1000
MTEXTBEGIN
1070
    73
1070
     1
1070
    44
1040
1.0
1070
    74
1070
     0
1000
MTEXTEND
  0
INSERT
  5
18F
  8
回07-寸法
  6
CONTINUOUS
 62
    20
 66
     1
  2
*X424242
 10
0.0
 20
0.0
 30
0.0
  0
SEQEND
  5
38B
  8
回07-寸法
 62
     5
  0
TEXT
  5
190
  8
回07-寸法
  6
CONTINUOUS
 62
     5
 10
274.3771745990426
 20
-433.0760166623607
 30
0.0
 40
3.0
  1
A
1001
ACAD
1000
MTEXTBEGIN
1070
    73
1070
     1
1070
    44
1040
1.0
1070
    74
1070
     0
1000
MTEXTEND
  0
INSERT
  5
191
  8
回07-寸法
  6
CONTINUOUS
 62
    20
 66
     1
  2
*X434343
 10
0.0
 20
0.0
 30
0.0
  0
SEQEND
  5
392
  8
回07-寸法
 62
     5
  0
TEXT
  5
192
  8
回07-寸法
  6
CONTINUOUS
 62
     5
 10
387.2266705733019
 20
-438.9169655711238
 30
0.0
 40
2.0
  1
PART No
1001
ACAD
1000
MTEXTBEGIN
1070
    73
1070
     1
1070
    44
1040
1.0
1070
    74
1070
     0
1000
MTEXTEND
  0
INSERT
  5
193
  8
回07-寸法
  6
CONTINUOUS
 62
    20
 66
     1
  2
*X444444
 10
0.0
 20
0.0
 30
0.0
  0
SEQEND
  5
398
  8
回07-寸法
 62
     5
  0
TEXT
  5
194
  8
回07-寸法
  6
CONTINUOUS
 62
     5
 10
380.4941062371834
 20
-457.6560002106957
 30
0.0
 40
3.0
  1
AIR VENT
1001
ACAD
1000
MTEXTBEGIN
1070
    73
1070
     1
1070
    44
1040
1.0
1070
    74
1070
     0
1000
MTEXTEND
  0
INSERT
  5
195
  8
回07-寸法
  6
CONTINUOUS
 62
    20
 66
     1
  2
*X454545
 10
0.0
 20
0.0
 30
0.0
  0
SEQEND
  5
39F
  8
回07-寸法
 62
     5
  0
DIMENSION
  5
196
  8
回07-寸法
  6
CONTINUOUS
 62
     5
  2
*D212121
 10
199.341971577131
 20
-390.3008093874537
 30
0.0
 11
199.3419715771308
 21
-351.8510266079261
 31
0.0
 70
   128
  1
6.25{\H0.6x;±0.2}[0.246{\H0.66667x;±0.008}]
  3
DMC
 13
227.7120999763425
 23
-371.5508093874535
 33
0.0
 14
227.7120999763423
 24
-390.3008093874534
 34
0.0
 50
270.0
1001
ACAD
1000
DSTYLE
1002
{
1070
   143
1040
0.03937007874016
1070
   170
1070
     1
1002
}
  0
DIMENSION
  5
1A5
  8
回07-寸法
  6
CONTINUOUS
 62
     5
  2
*D202020
 10
214.7217393938133
 20
-375.3008093874536
 30
0.0
 11
214.7217393938131
 21
-355.5355488917121
 31
0.0
 70
   128
  1
1.25{\H0.6x;±0.2}[0.049{\H0.66667x;±0.008}]
  3
DMC
 13
226.2120999763424
 23
-379.0508093874535
 33
0.0
 14
226.2120999763425
 24
-375.3008093874535
 34
0.0
 50
270.0
1001
ACAD
1000
DSTYLE
1002
{
1070
   143
1040
0.03937007874016
1070
   170
1070
     1
1002
}
  0
DIMENSION
  5
1B4
  8
回07-寸法
  6
CONTINUOUS
 62
     5
  2
*D191919
 10
206.202177753008
 20
-386.5508093874537
 30
0.0
 11
206.2021777530079
 21
-355.5407903874536
 31
0.0
 70
   128
  1
3.75{\H0.6x;±0.1}[0.148{\H0.66667x;±0.004}]
  3
DMC
 13
226.2120999763425
 23
-375.3008093874535
 33
0.0
 14
226.2120999763423
 24
-386.5508093874534
 34
0.0
 50
270.0
1001
ACAD
1000
DSTYLE
1002
{
1070
   143
1040
0.03937007874016
1070
   170
1070
     1
1002
}
  0
DIMENSION
  5
1C3
  8
回07-寸法
  6
CONTINUOUS
 62
     5
  2
*D181818
 10
221.0222794742332
 20
-374.2508093874536
 30
0.0
 11
221.0222794742331
 21
-351.4207898874535
 31
0.0
 70
   128
  1
4-0.7{\H0.6x;±0.1}[4-0.028{\H0.66667x;±0.004}]
  3
DMC
 13
226.2120999763425
 23
-376.3508093874535
 33
0.0
 14
226.2120999763425
 24
-374.2508093874534
 34
0.0
 50
270.0
1001
ACAD
1000
DSTYLE
1002
{
1070
   143
1040
0.03937007874016
1070
   170
1070
     1
1002
}
  0
LINE
  5
1D2
  8
回08-記事
  6
CONTINUOUS
 62
     7
 10
241.2120999763426
 20
-371.5508093874535
 30
0.0
 11
241.2120999763426
 21
-390.3008093874534
 31
0.0
  0
ARC
  5
1D3
  8
回05-ﾃｰﾙ
  6
CONTINUOUS
 62
     7
 10
227.7120999763422
 20
-388.8008093874534
 30
0.0
 40
1.5
 50
179.9999999999992
 51
270.0
  0
ARC
  5
1D4
  8
回05-ﾃｰﾙ
  6
CONTINUOUS
 62
     7
 10
227.7120999763425
 20
-373.0508093874536
 30
0.0
 40
1.5
 50
89.99999999999998
 51
179.9999999999992
  0
LINE
  5
1D5
  8
回05-ﾃｰﾙ
  6
CONTINUOUS
 62
     7
 10
260.9094474791998
 20
-390.3008093874534
 30
0.0
 11
227.7120999763423
 21
-390.3008093874534
 31
0.0
  0
LINE
  5
1D6
  8
回05-ﾃｰﾙ
  6
CONTINUOUS
 62
     7
 10
260.7811612090998
 20
-371.5508093874535
 30
0.0
 11
227.7120999763425
 21
-371.5508093874535
 31
0.0
  0
LINE
  5
1D7
  8
回05-ﾃｰﾙ
  6
CONTINUOUS
 62
     7
 10
226.2120999763425
 20
-373.0508093874535
 30
0.0
 11
226.2120999763425
 21
-388.8008093874534
 31
0.0
  0
POLYLINE
  5
1D8
  8
回05-ﾃｰﾙ
  6
CONTINUOUS
 62
     8
 66
     1
 10
0.0
 20
0.0
 30
0.0
 40
2.099999999999999
 41
2.099999999999999
  0
VERTEX
  5
7C3
  8
回05-ﾃｰﾙ
  6
CONTINUOUS
 62
     8
 10
226.2120999763424
 20
-379.0508093874535
 30
0.0
  0
VERTEX
  5
7C5
  8
回05-ﾃｰﾙ
  6
CONTINUOUS
 62
     8
 10
241.2120999763424
 20
-379.0508093874535
 30
0.0
  0
SEQEND
  5
7C4
  8
回07-寸法
 62
     5
  0
POLYLINE
  5
1D9
  8
回05-ﾃｰﾙ
  6
CONTINUOUS
 62
     8
 66
     1
 10
0.0
 20
0.0
 30
0.0
 40
2.099999999999999
 41
2.099999999999999
  0
VERTEX
  5
7C6
  8
回05-ﾃｰﾙ
  6
CONTINUOUS
 62
     8
 10
226.2120999763423
 20
-386.5508093874534
 30
0.0
  0
VERTEX
  5
7C8
  8
回05-ﾃｰﾙ
  6
CONTINUOUS
 62
     8
 10
241.2120999763423
 20
-386.5508093874534
 30
0.0
  0
SEQEND
  5
7C7
  8
回07-寸法
 62
     5
  0
POLYLINE
  5
1DA
  8
回05-ﾃｰﾙ
  6
CONTINUOUS
 62
     8
 66
     1
 10
0.0
 20
0.0
 30
0.0
  0
VERTEX
  5
7C9
  8
回05-ﾃｰﾙ
  6
CONTINUOUS
 62
     8
 10
241.2120999763424
 20
-382.8008093874534
 30
0.0
 40
2.099999999999999
 41
2.099999999999999
  0
VERTEX
  5
7CB
  8
回05-ﾃｰﾙ
  6
CONTINUOUS
 62
     8
 10
226.2120999763423
 20
-382.8008093874534
 30
0.0
  0
SEQEND
  5
7CA
  8
回07-寸法
 62
     5
  0
POLYLINE
  5
1DB
  8
回05-ﾃｰﾙ
  6
CONTINUOUS
 62
     8
 66
     1
 10
0.0
 20
0.0
 30
0.0
  0
VERTEX
  5
7CC
  8
回05-ﾃｰﾙ
  6
CONTINUOUS
 62
     8
 10
241.2120999763425
 20
-375.3008093874535
 30
0.0
 40
2.099999999999999
 41
2.099999999999999
  0
VERTEX
  5
7CE
  8
回05-ﾃｰﾙ
  6
CONTINUOUS
 62
     8
 10
226.2120999763425
 20
-375.3008093874535
 30
0.0
  0
SEQEND
  5
7CD
  8
回07-寸法
 62
     5
  0
TEXT
  5
1DC
  8
回08-記事
  6
CONTINUOUS
 62
     5
 10
361.7220090437814
 20
-447.9662049237004
 30
0.0
 40
3.0
  1
YD
  0
TEXT
  5
1DD
  8
回08-記事
  6
CONTINUOUS
 62
     5
 10
360.9588089790169
 20
-396.6051021026353
 30
0.0
 40
3.0
  1
YU
  0
TEXT
  5
1DE
  8
回08-記事
  6
CONTINUOUS
 62
     5
 10
392.6068449852505
 20
-425.3098561061944
 30
0.0
 40
3.0
  1
XR
  0
CIRCLE
  5
1DF
  8
回07-寸法
  6
DASHED2
 62
     5
 10
265.9544011584528
 20
-441.0957212007402
 30
0.0
 40
5.319929988336808
  0
TEXT
  5
1E0
  8
回07-寸法
  6
CONTINUOUS
 62
     5
 10
387.6151341077937
 20
-441.4806642444331
 30
0.0
 40
1.679999999999999
  1
AST-038A
  0
DIMENSION
  5
1E1
  8
回07-寸法
  6
CONTINUOUS
 62
     5
  2
*D171717
 10
413.8574106159998
 20
-448.4082052311974
 30
0.0
 11
413.8574106159995
 21
-435.3541448378181
 31
0.0
 70
   128
  1
(<>)
  3
DMC
 13
402.9595260025438
 23
-450.4082052311971
 33
0.0
 14
402.9595260025438
 24
-448.4082052311971
 34
0.0
 50
270.0
1001
ACAD
1000
DSTYLE
1002
{
1070
   143
1040
0.03937007874016
1070
   170
1070
     1
1002
}
  0
LINE
  5
1F0
  8
回08-記事
  6
CONTINUOUS
 62
     7
 10
400.159526002544
 20
-448.4082052311971
 30
0.0
 11
402.9595260025438
 21
-448.4082052311971
 31
0.0
  0
LINE
  5
1F1
  8
回08-記事
  6
CONTINUOUS
 62
     7
 10
400.159526002544
 20
-450.4082052311971
 30
0.0
 11
402.9595260025438
 21
-450.4082052311971
 31
0.0
  0
LINE
  5
1F2
  8
回08-記事
  6
CONTINUOUS
 62
     5
 10
275.0892724580808
 20
-492.7946514661366
 30
0.0
 11
282.4695092730783
 21
-507.3106994876406
 31
0.0
  0
LINE
  5
1F3
  8
回08-記事
  6
CONTINUOUS
 62
     5
 10
303.6595374288627
 20
-495.7727565038333
 30
0.0
 11
306.5269085019608
 21
-491.4366169798909
 31
0.0
  0
LINE
  5
1F4
  8
回08-記事
  6
CONTINUOUS
 62
     5
 10
309.0667144862937
 20
-486.5485184828526
 30
0.0
 11
307.7944537435978
 21
-490.3154150866988
 31
0.0
  0
LINE
  5
1F5
  8
回08-記事
  6
CONTINUOUS
 62
     5
 10
311.9043131176959
 20
-508.2342041904649
 30
0.0
 11
313.9866678865965
 21
-492.3700542518315
 31
0.0
  0
LINE
  5
1F6
  8
回08-記事
  6
CONTINUOUS
 62
     5
 10
359.2168458333322
 20
-498.6370043903725
 30
0.0
 11
357.2736124423009
 21
-493.2710484308982
 31
0.0
  0
LINE
  5
1F7
  8
回08-記事
  6
CONTINUOUS
 62
     5
 10
370.2544131829736
 20
-483.9389528439817
 30
0.0
 11
367.1452407506072
 21
-489.8492813783587
 31
0.0
  0
TEXT
  5
1F8
  8
回08-記事
  6
CONTINUOUS
 62
     5
 10
310.9969287284366
 20
-512.0120001855425
 30
0.0
 40
3.0
  1
PROTECTION TAPE
  0
TEXT
  5
1F9
  8
回08-記事
  6
CONTINUOUS
 62
     5
 10
358.6139765321878
 20
-502.4252840599253
 30
0.0
 40
3.0
  1
ITO GLASS
  0
TEXT
  5
1FA
  8
回08-記事
  6
CONTINUOUS
 62
     5
 10
370.4529511995257
 20
-483.0894691278006
 30
0.0
 40
3.0
  1
ITO FILM (ANTI-GLARE)
  0
TEXT
  5
1FB
  8
回08-記事
  6
CONTINUOUS
 62
     5
 10
282.7470832569072
 20
-508.8825628074028
 30
0.0
 40
3.0
  1
STIFFENER
  0
TEXT
  5
1FC
  8
回08-記事
  6
CONTINUOUS
 62
     5
 10
308.196593822523
 20
-485.5048791315294
 30
0.0
 40
3.0
  1
REINFORCEMENT FILM
  0
TEXT
  5
1FD
  8
回08-記事
  6
CONTINUOUS
 62
     5
 10
301.189254667017
 20
-498.9082022297418
 30
0.0
 40
3.0
  1
TAIL
  0
DIMENSION
  5
1FE
  8
回07-寸法
  6
CONTINUOUS
 62
     5
  2
*D161616
 10
270.9595260025442
 20
-484.7246744066874
 30
0.0
 11
282.5147674982856
 21
-484.7246744066874
 31
0.0
 70
   128
  3
DMC
 13
265.9595260025442
 23
-491.0580582826536
 33
0.0
 14
270.9595260025442
 24
-490.4580582826536
 34
0.0
1001
ACAD
1000
DSTYLE
1002
{
1070
   143
1040
0.03937007874016
1070
   170
1070
     1
1002
}
  0
DIMENSION
  5
20D
  8
回07-寸法
  6
CONTINUOUS
 62
     5
  2
*D151515
 10
265.9595260025442
 20
-516.0484092828701
 30
0.0
 11
289.9135863959234
 21
-516.0484092828701
 31
0.0
 70
   128
  1
(<>)
  3
DMC
 13
275.9595260025442
 23
-493.2580582826536
 33
0.0
 14
265.9595260025442
 24
-493.2580582826536
 34
0.0
1001
ACAD
1000
DSTYLE
1002
{
1070
   143
1040
0.03937007874016
1070
   170
1070
     1
1002
}
  0
DIMENSION
  5
21C
  8
回07-寸法
  6
CONTINUOUS
 62
     5
  2
*D141414
 10
258.6990109492651
 20
-491.0580582826538
 30
0.0
 11
258.6990109492649
 21
-511.9293943850161
 31
0.0
 70
   128
  1
0.3{\H0.6667x;±0.05}[0.012{\H0.6x;±0.002}]
  3
DMC
 13
265.9595260025442
 23
-493.2580582826536
 33
0.0
 14
265.9595260025442
 24
-491.0580582826536
 34
0.0
 50
270.0
1001
ACAD
1000
DSTYLE
1002
{
1070
   143
1040
0.03937007874016
1070
   170
1070
     1
1002
}
  0
DIMENSION
  5
22B
  8
回07-寸法
  6
CONTINUOUS
 62
     5
  2
*D131313
 10
412.2905930508798
 20
-494.0580582826537
 30
0.0
 11
412.2905930508795
 21
-513.8634257783951
 31
0.0
 70
   128
  1
1.0{\H0.6667x;±0.2}[0.039{\H0.83333x;±0.008}]
  3
DMC
 13
402.6595260025437
 23
-489.5580582826536
 33
0.0
 14
402.9595260025438
 24
-494.0580582826536
 34
0.0
 50
270.0
1001
ACAD
1000
DSTYLE
1002
{
1070
   372
1070
    13
1070
   371
1070
    13
1002
}
  0
LINE
  5
23A
  8
回08-記事
  6
CONTINUOUS
 62
     7
 10
311.9780429981438
 20
-492.3580582826536
 30
0.0
 11
311.9780429981438
 21
-492.0580582826536
 31
0.0
  0
LINE
  5
23B
  8
回08-記事
  6
CONTINUOUS
 62
     7
 10
315.659526002544
 20
-492.3580582826536
 30
0.0
 11
311.9780429981438
 21
-492.3580582826536
 31
0.0
  0
LINE
  5
23C
  8
回08-記事
  6
CONTINUOUS
 62
     7
 10
315.659526002544
 20
-494.3580582826536
 30
0.0
 11
315.659526002544
 21
-492.3580582826536
 31
0.0
  0
LINE
  5
23D
  8
回08-記事
  6
CONTINUOUS
 62
     7
 10
319.059526002544
 20
-494.3580582826536
 30
0.0
 11
315.659526002544
 21
-494.3580582826536
 31
0.0
  0
LINE
  5
23E
  8
回08-記事
  6
CONTINUOUS
 62
     7
 10
319.059526002544
 20
-494.0580582826536
 30
0.0
 11
319.059526002544
 21
-494.3580582826536
 31
0.0
  0
POLYLINE
  5
23F
  8
回08-記事
  6
CONTINUOUS
 62
     7
 66
     1
 10
0.0
 20
0.0
 30
0.0
 70
     1
  0
VERTEX
  5
7CF
  8
回08-記事
  6
CONTINUOUS
 62
     7
 10
305.1973191884782
 20
-492.0580582826538
 30
0.0
  0
VERTEX
  5
7D1
  8
回08-記事
  6
CONTINUOUS
 62
     7
 10
305.1973191884782
 20
-492.5580582826538
 30
0.0
  0
VERTEX
  5
7D2
  8
回08-記事
  6
CONTINUOUS
 62
     7
 10
279.1973191884782
 20
-492.5580582826538
 30
0.0
  0
VERTEX
  5
7D3
  8
回08-記事
  6
CONTINUOUS
 62
     7
 10
279.1973191884782
 20
-492.0580582826538
 30
0.0
  0
SEQEND
  5
7D0
  8
回07-寸法
 62
     5
  0
ARC
  5
240
  8
回08-記事
  6
CONTINUOUS
 62
     7
 10
321.9191191788896
 20
-492.0580582826538
 30
0.0
 40
0.2
 50
0.0
 51
180.0
  0
ARC
  5
241
  8
回08-記事
  6
CONTINUOUS
 62
     7
 10
325.9191191788896
 20
-492.0580582826538
 30
0.0
 40
0.2
 50
0.0
 51
180.0
  0
ARC
  5
242
  8
回08-記事
  6
CONTINUOUS
 62
     7
 10
329.9191191788896
 20
-492.0580582826538
 30
0.0
 40
0.2
 50
0.0
 51
180.0
  0
ARC
  5
243
  8
回08-記事
  6
CONTINUOUS
 62
     7
 10
333.9191191788895
 20
-492.0580582826538
 30
0.0
 40
0.2
 50
0.0
 51
180.0
  0
ARC
  5
244
  8
回08-記事
  6
CONTINUOUS
 62
     7
 10
337.9191191788895
 20
-492.0580582826538
 30
0.0
 40
0.2
 50
0.0
 51
180.0
  0
ARC
  5
245
  8
回08-記事
  6
CONTINUOUS
 62
     7
 10
341.9191191788895
 20
-492.0580582826538
 30
0.0
 40
0.2
 50
0.0
 51
180.0
  0
ARC
  5
246
  8
回08-記事
  6
CONTINUOUS
 62
     7
 10
345.9191191788896
 20
-492.0580582826538
 30
0.0
 40
0.2
 50
0.0
 51
180.0
  0
ARC
  5
247
  8
回08-記事
  6
CONTINUOUS
 62
     7
 10
349.9191191788896
 20
-492.0580582826538
 30
0.0
 40
0.2
 50
0.0
 51
180.0
  0
ARC
  5
248
  8
回08-記事
  6
CONTINUOUS
 62
     7
 10
353.9191191788896
 20
-492.0580582826538
 30
0.0
 40
0.2
 50
0.0
 51
180.0
  0
ARC
  5
249
  8
回08-記事
  6
CONTINUOUS
 62
     7
 10
357.9191191788896
 20
-492.0580582826538
 30
0.0
 40
0.2
 50
0.0
 51
180.0
  0
ARC
  5
24A
  8
回08-記事
  6
CONTINUOUS
 62
     7
 10
361.9191191788896
 20
-492.0580582826538
 30
0.0
 40
0.2
 50
0.0
 51
180.0
  0
ARC
  5
24B
  8
回08-記事
  6
CONTINUOUS
 62
     7
 10
365.9191191788896
 20
-492.0580582826538
 30
0.0
 40
0.2
 50
0.0
 51
180.0
  0
ARC
  5
24C
  8
回08-記事
  6
CONTINUOUS
 62
     7
 10
369.9191191788896
 20
-492.0580582826538
 30
0.0
 40
0.2
 50
0.0
 51
180.0
  0
ARC
  5
24D
  8
回08-記事
  6
CONTINUOUS
 62
     7
 10
373.9191191788896
 20
-492.0580582826538
 30
0.0
 40
0.2
 50
0.0
 51
180.0
  0
ARC
  5
24E
  8
回08-記事
  6
CONTINUOUS
 62
     7
 10
377.9191191788896
 20
-492.0580582826538
 30
0.0
 40
0.2
 50
0.0
 51
180.0
  0
ARC
  5
24F
  8
回08-記事
  6
CONTINUOUS
 62
     7
 10
381.9191191788896
 20
-492.0580582826538
 30
0.0
 40
0.2
 50
0.0
 51
180.0
  0
ARC
  5
250
  8
回08-記事
  6
CONTINUOUS
 62
     7
 10
385.9191191788895
 20
-492.0580582826538
 30
0.0
 40
0.2
 50
0.0
 51
180.0
  0
ARC
  5
251
  8
回08-記事
  6
CONTINUOUS
 62
     7
 10
389.9191191788895
 20
-492.0580582826538
 30
0.0
 40
0.2
 50
0.0
 51
180.0
  0
ARC
  5
252
  8
回08-記事
  6
CONTINUOUS
 62
     7
 10
393.9191191788895
 20
-492.0580582826538
 30
0.0
 40
0.2
 50
0.0
 51
180.0
  0
ARC
  5
253
  8
回08-記事
  6
CONTINUOUS
 62
     7
 10
397.9191191788896
 20
-492.0580582826538
 30
0.0
 40
0.2
 50
0.0
 51
180.0
  0
LINE
  5
254
  8
回08-記事
  6
CONTINUOUS
 62
     7
 10
400.159526002544
 20
-491.0580582826536
 30
0.0
 11
400.159526002544
 21
-492.0580582826536
 31
0.0
  0
POLYLINE
  5
255
  8
回08-記事
  6
CONTINUOUS
 62
     7
 66
     1
 10
0.0
 20
0.0
 30
0.0
 70
     1
  0
VERTEX
  5
7D4
  8
回08-記事
  6
CONTINUOUS
 62
     7
 10
316.2595260025439
 20
-491.0580582826536
 30
0.0
  0
VERTEX
  5
7D6
  8
回08-記事
  6
CONTINUOUS
 62
     7
 10
316.2595260025439
 20
-490.4580582826536
 30
0.0
  0
VERTEX
  5
7D7
  8
回08-記事
  6
CONTINUOUS
 62
     7
 10
270.9595260025442
 20
-490.4580582826536
 30
0.0
  0
VERTEX
  5
7D8
  8
回08-記事
  6
CONTINUOUS
 62
     7
 10
270.9595260025442
 20
-491.0580582826536
 30
0.0
  0
SEQEND
  5
7D5
  8
回07-寸法
 62
     5
  0
POLYLINE
  5
256
  8
回08-記事
  6
CONTINUOUS
 62
     7
 66
     1
 10
0.0
 20
0.0
 30
0.0
 70
     1
  0
VERTEX
  5
7D9
  8
回08-記事
  6
CONTINUOUS
 62
     7
 10
265.9595260025442
 20
-493.2580582826536
 30
0.0
  0
VERTEX
  5
7DB
  8
回08-記事
  6
CONTINUOUS
 62
     7
 10
265.9595260025442
 20
-492.0580582826536
 30
0.0
  0
VERTEX
  5
7DC
  8
回08-記事
  6
CONTINUOUS
 62
     7
 10
275.9595260025442
 20
-492.0580582826536
 30
0.0
  0
VERTEX
  5
7DD
  8
回08-記事
  6
CONTINUOUS
 62
     7
 10
275.9595260025442
 20
-493.2580582826536
 30
0.0
  0
SEQEND
  5
7DA
  8
回07-寸法
 62
     5
  0
POLYLINE
  5
257
  8
回08-記事
  6
CONTINUOUS
 62
     7
 66
     1
 10
0.0
 20
0.0
 30
0.0
 70
     1
  0
VERTEX
  5
7DE
  8
回08-記事
  6
CONTINUOUS
 62
     7
 10
319.059526002544
 20
-491.0580582826536
 30
0.0
  0
VERTEX
  5
7E0
  8
回08-記事
  6
CONTINUOUS
 62
     7
 10
319.059526002544
 20
-492.0580582826536
 30
0.0
  0
VERTEX
  5
7E1
  8
回08-記事
  6
CONTINUOUS
 62
     7
 10
265.9595260025442
 20
-492.0580582826536
 30
0.0
  0
VERTEX
  5
7E2
  8
回08-記事
  6
CONTINUOUS
 62
     7
 10
265.9595260025442
 20
-491.0580582826536
 30
0.0
  0
SEQEND
  5
7DF
  8
回07-寸法
 62
     5
  0
LINE
  5
258
  8
回08-記事
  6
CONTINUOUS
 62
     7
 10
402.6595260025437
 20
-491.0580582826536
 30
0.0
 11
402.6595260025437
 21
-492.0580582826536
 31
0.0
  0
POLYLINE
  5
259
  8
回08-記事
  6
CONTINUOUS
 62
     7
 66
     1
 10
0.0
 20
0.0
 30
0.0
 70
     1
  0
VERTEX
  5
7E3
  8
回08-記事
  6
CONTINUOUS
 62
     7
 10
402.6595260025437
 20
-489.5580582826536
 30
0.0
  0
VERTEX
  5
7E5
  8
回08-記事
  6
CONTINUOUS
 62
     7
 10
402.6595260025437
 20
-491.0580582826536
 30
0.0
  0
VERTEX
  5
7E6
  8
回08-記事
  6
CONTINUOUS
 62
     7
 10
316.2595260025439
 20
-491.0580582826536
 30
0.0
  0
VERTEX
  5
7E7
  8
回08-記事
  6
CONTINUOUS
 62
     7
 10
316.2595260025439
 20
-489.5580582826536
 30
0.0
  0
SEQEND
  5
7E4
  8
回07-寸法
 62
     5
  0
POLYLINE
  5
25A
  8
回08-記事
  6
CONTINUOUS
 62
     7
 66
     1
 10
0.0
 20
0.0
 30
0.0
 70
     1
  0
VERTEX
  5
7E8
  8
回08-記事
  6
CONTINUOUS
 62
     7
 10
402.9595260025438
 20
-492.0580582826536
 30
0.0
  0
VERTEX
  5
7EA
  8
回08-記事
  6
CONTINUOUS
 62
     7
 10
402.9595260025438
 20
-494.0580582826536
 30
0.0
  0
VERTEX
  5
7EB
  8
回08-記事
  6
CONTINUOUS
 62
     7
 10
315.959526002544
 20
-494.0580582826536
 30
0.0
  0
VERTEX
  5
7EC
  8
回08-記事
  6
CONTINUOUS
 62
     7
 10
315.959526002544
 20
-492.0580582826536
 30
0.0
  0
SEQEND
  5
7E9
  8
回07-寸法
 62
     5
  0
DIMENSION
  5
25B
  8
回07-寸法
  6
CONTINUOUS
 62
     5
  2
*D121212
 10
258.6380485788741
 20
-437.5832052311974
 30
0.0
 11
256.488048578874
 21
-422.9434414516695
 31
0.0
 70
     0
  3
DMC
 13
266.4595260025441
 23
-443.8332052311971
 33
0.0
 14
266.4595260025442
 24
-437.5832052311971
 34
0.0
 50
270.0
1001
ACAD
1000
DSTYLE
1002
{
1070
    47
1040
0.2
1070
   147
1040
0.5
1070
    48
1040
0.2
1070
    72
1070
     0
1070
    71
1070
     0
1070
   143
1040
0.03937007874016
1070
   170
1070
     1
1002
}
  0
DIMENSION
  5
26A
  8
回07-寸法
  6
CONTINUOUS
 62
     5
  2
*D111111
 10
305.848263433766
 20
-416.8927242436978
 30
0.0
 11
291.2930219380245
 21
-416.8927242436978
 31
0.0
 70
   128
  1
9.4 [0.370]
  3
DMC
 13
315.959526002544
 23
-431.7617706064821
 33
0.0
 14
305.848263433766
 24
-437.5832052311972
 34
0.0
1001
ACAD
1000
DSTYLE
1002
{
1070
   143
1040
0.03937007874016
1070
   170
1070
     1
1002
}
  0
DIMENSION
  5
279
  8
回07-寸法
  6
CONTINUOUS
 62
     5
  2
*D101010
 10
277.9490693404186
 20
-448.7082052311975
 30
0.0
 11
277.9490693404184
 21
-420.1082052311969
 31
0.0
 70
   128
  3
DMC
 13
312.1737395649175
 23
-432.7082052311966
 33
0.0
 14
312.1737395649175
 24
-448.7082052311972
 34
0.0
 50
270.0
1001
ACAD
1000
DSTYLE
1002
{
1070
   143
1040
0.03937007874016
1070
   170
1070
     1
1002
}
  0
DIMENSION
  5
288
  8
回07-寸法
  6
CONTINUOUS
 62
     5
  2
*D999
 10
315.959526002544
 20
-352.807348234996
 30
0.0
 11
359.4595260025439
 21
-350.657348234996
 31
0.0
 70
     0
  3
DMC
 13
402.9595260025438
 23
-388.2082052311972
 33
0.0
 14
315.959526002544
 24
-388.2082052311972
 34
0.0
1001
ACAD
1000
DSTYLE
1002
{
1070
    47
1040
0.3
1070
   147
1040
0.5
1070
    48
1040
0.3
1070
    72
1070
     0
1070
    71
1070
     1
1070
   143
1040
0.03937007874016
1070
   170
1070
     1
1002
}
  0
DIMENSION
  5
295
  8
回07-寸法
  6
CONTINUOUS
 62
     5
  2
*D888
 10
321.7795260025439
 20
-369.9272038972049
 30
0.0
 11
360.969526002544
 21
-367.7772038972049
 31
0.0
 70
     0
  1
<>{\H0.6667x;(VIEWING AREA)}
  3
DMC
 13
400.159526002544
 23
-391.2282052311971
 33
0.0
 14
321.7795260025439
 24
-391.2282052311971
 34
0.0
1001
ACAD
1000
DSTYLE
1002
{
1070
   143
1040
0.03937007874016
1070
   170
1070
     1
1002
}
  0
DIMENSION
  5
2A2
  8
回07-寸法
  6
CONTINUOUS
 62
     5
  2
*D777
 10
322.179526002544
 20
-375.7331915105233
 30
0.0
 11
360.969526002544
 21
-373.5831915105233
 31
0.0
 70
     0
  1
<>{\H0.6667x;(ACTIVE AERA)}
  3
DMC
 13
399.7595260025438
 23
-391.628205231197
 33
0.0
 14
322.179526002544
 24
-391.628205231197
 34
0.0
1001
ACAD
1000
DSTYLE
1002
{
1070
   143
1040
0.03937007874016
1070
   170
1070
     1
1002
}
  0
DIMENSION
  5
2AF
  8
回07-寸法
  6
CONTINUOUS
 62
     5
  2
*D666
 10
446.0084535669849
 20
-388.2082052311973
 30
0.0
 11
446.0084535669848
 21
-420.2237116251485
 31
0.0
 70
   128
  3
DMC
 13
402.9595260025438
 23
-453.2082052311969
 33
0.0
 14
402.9595260025438
 24
-388.2082052311972
 34
0.0
 50
270.0
1001
ACAD
1000
DSTYLE
1002
{
1070
    47
1040
0.3
1070
    48
1040
0.3
1070
    71
1070
     1
1070
   143
1040
0.03937007874016
1070
   170
1070
     1
1002
}
  0
DIMENSION
  5
2BC
  8
回07-寸法
  6
CONTINUOUS
 62
     5
  2
*D555
 10
430.5586720524882
 20
-391.2282052311973
 30
0.0
 11
430.5586720524877
 21
-420.3736938779234
 31
0.0
 70
   128
  1
<>{\H0.6667x;(VIEWING AERA)}
  3
DMC
 13
400.159526002544
 23
-450.4082052311971
 33
0.0
 14
400.159526002544
 24
-391.2282052311971
 34
0.0
 50
270.0
1001
ACAD
1000
DSTYLE
1002
{
1070
   143
1040
0.03937007874016
1070
   170
1070
     1
1002
}
  0
DIMENSION
  5
2C9
  8
回07-寸法
  6
CONTINUOUS
 62
     5
  2
*D444
 10
425.1566648959781
 20
-391.6282052311973
 30
0.0
 11
425.1566648959776
 21
-420.9736228890222
 31
0.0
 70
   128
  1
<>{\H0.6667x;(ACTIVE AREA)}
  3
DMC
 13
399.7595260025438
 23
-450.0082052311968
 33
0.0
 14
399.7595260025438
 24
-391.628205231197
 34
0.0
 50
270.0
1001
ACAD
1000
DSTYLE
1002
{
1070
   143
1040
0.03937007874016
1070
   170
1070
     1
1002
}
  0
DIMENSION
  5
2D6
  8
回07-寸法
  6
CONTINUOUS
 62
     5
  2
*D333
 10
430.5586720524882
 20
-453.2082052311972
 30
0.0
 11
428.4086720524879
 21
-465.9962957823784
 31
0.0
 70
     0
  3
DMC
 13
400.159526002544
 23
-450.4082052311971
 33
0.0
 14
402.9595260025438
 24
-453.2082052311969
 34
0.0
 50
270.0
1001
ACAD
1000
DSTYLE
1002
{
1070
   143
1040
0.03937007874016
1070
   170
1070
     1
1002
}
  0
DIMENSION
  5
2E5
  8
回07-寸法
  6
CONTINUOUS
 62
     5
  2
*D222
 10
425.1566648959781
 20
-453.2082052311972
 30
0.0
 11
423.0066648959778
 21
-466.2582052311972
 31
0.0
 70
     0
  3
DMC
 13
399.7595260025438
 23
-450.0082052311968
 33
0.0
 14
402.9595260025438
 24
-453.2082052311969
 34
0.0
 50
270.0
1001
ACAD
1000
DSTYLE
1002
{
1070
   143
1040
0.03937007874016
1070
   170
1070
     1
1002
}
  0
DIMENSION
  5
2F4
  8
回07-寸法
  6
CONTINUOUS
 62
     5
  2
*D111
 10
420.3533857116926
 20
-420.8182052311973
 30
0.0
 11
420.3533857116922
 21
-421.8182052311988
 31
0.0
 70
   128
  1
<>{\H0.4667x;(ACTIVE AREA CENTER)}
  3
DMC
 13
402.9595260025438
 23
-453.2082052311969
 33
0.0
 14
402.6595260025437
 24
-420.8182052311971
 34
0.0
 50
270.0
1001
ACAD
1000
DSTYLE
1002
{
1070
   143
1040
0.03937007874016
1070
   170
1070
     1
1002
}
  0
TEXT
  5
301
  8
回04-下接
  6
CONTINUOUS
 62
     7
 10
401.3141807561045
 20
-440.6737843621849
 30
0.0
 40
1.151999999999999
  1
AST-038A
 50
270.0
  0
TEXT
  5
305
  8
回08-記事
  6
CONTINUOUS
 62
     7
 10
265.7091521743105
 20
-443.2831504382682
 30
0.0
 40
2.5
  1
1
 50
90.0
  0
TEXT
  5
306
  8
回08-記事
  6
CONTINUOUS
 62
     7
 10
265.6495329746054
 20
-439.7685207032274
 30
0.0
 40
2.5
  1
4
 50
90.0
  0
POLYLINE
  5
307
  8
回08-記事
  6
PHANTOM2
 62
     7
 66
     1
 10
0.0
 20
0.0
 30
0.0
 70
     1
  0
VERTEX
  5
7ED
  8
回08-記事
  6
PHANTOM2
 62
     7
 10
399.7595260025438
 20
-391.628205231197
 30
0.0
  0
VERTEX
  5
7EF
  8
回08-記事
  6
PHANTOM2
 62
     7
 10
399.7595260025438
 20
-450.0082052311968
 30
0.0
  0
VERTEX
  5
7F0
  8
回08-記事
  6
PHANTOM2
 62
     7
 10
322.179526002544
 20
-450.0082052311968
 30
0.0
  0
VERTEX
  5
7F1
  8
回08-記事
  6
PHANTOM2
 62
     7
 10
322.179526002544
 20
-391.628205231197
 30
0.0
  0
SEQEND
  5
7EE
  8
回07-寸法
 62
     5
  0
POLYLINE
  5
309
  8
回08-記事
 62
     7
 66
     1
 10
0.0
 20
0.0
 30
0.0
 70
     1
  0
VERTEX
  5
7F2
  8
回08-記事
 62
     7
 10
400.159526002544
 20
-391.2282052311971
 30
0.0
  0
VERTEX
  5
7F4
  8
回08-記事
 62
     7
 10
400.159526002544
 20
-450.4082052311971
 30
0.0
  0
VERTEX
  5
7F5
  8
回08-記事
 62
     7
 10
321.7795260025439
 20
-450.4082052311971
 30
0.0
  0
VERTEX
  5
7F6
  8
回08-記事
 62
     7
 10
321.7795260025439
 20
-391.2282052311971
 30
0.0
  0
SEQEND
  5
7F3
  8
回07-寸法
 62
     5
  0
LINE
  5
30A
  8
回07-寸法
  6
CENTER2
 62
     5
 10
360.969526002544
 20
-388.2082052311972
 30
0.0
 11
360.969526002544
 21
-453.2082052311969
 31
0.0
  0
LINE
  5
30B
  8
回07-寸法
  6
CENTER2
 62
     5
 10
402.9595260025438
 20
-420.8182052311971
 30
0.0
 11
315.959526002544
 21
-420.8182052311971
 31
0.0
  0
POLYLINE
  5
30C
  8
回04-下接
  6
CONTINUOUS
 62
     7
 66
     1
 10
0.0
 20
0.0
 30
0.0
 70
     1
  0
VERTEX
  5
7F7
  8
回04-下接
  6
CONTINUOUS
 62
     7
 10
402.9595260025438
 20
-388.2082052311972
 30
0.0
  0
VERTEX
  5
7F9
  8
回04-下接
  6
CONTINUOUS
 62
     7
 10
402.9595260025438
 20
-453.2082052311969
 30
0.0
  0
VERTEX
  5
7FA
  8
回04-下接
  6
CONTINUOUS
 62
     7
 10
315.959526002544
 20
-453.2082052311969
 30
0.0
  0
VERTEX
  5
7FB
  8
回04-下接
  6
CONTINUOUS
 62
     7
 10
315.959526002544
 20
-388.2082052311972
 30
0.0
  0
SEQEND
  5
7F8
  8
回07-寸法
 62
     5
  0
INSERT
  5
30D
  8
回08-記事
  6
CONTINUOUS
 62
     8
 66
     1
  2
*X464646
 10
0.0
 20
0.0
 30
0.0
1001
ACAD
1000
HATCH
1002
{
1070
    19
1000
ANSI31
1040
1.0
1040
-1.570796326794896
1000
ASC_BOUNDS
1070
     1
1070
     2
1070
     1
1005
30E
1000
ASC_SEEDPOINT
1011
368.0846026366844
1021
-539.1810043687256
1031
0.0
1000
R14_HATCH_DATA
1000
30D
1011
1.0
1021
0.0
1031
0.0
1011
0.0
1021
1.0
1031
0.0
1011
0.0
1021
0.0
1031
1.0
1040
0.0
1010
0.0
1020
0.0
1030
1.0
1000
ANSI31
1070
     0
1070
     1
1071
        1
1071
        1
1071
        4
1070
     1
1040
319.059526002544
1040
-448.1108880436125
1040
311.9780429981438
1040
-448.1108880436125
1070
     1
1040
311.9780429981438
1040
-448.1108880436125
1040
311.9780429981438
1040
-433.3082052311968
1070
     1
1040
311.9780429981438
1040
-433.3082052311968
1040
319.059526002544
1040
-433.3082052311968
1070
     1
1040
319.059526002544
1040
-433.3082052311968
1040
319.059526002544
1040
-448.1108880436125
1071
        1
1005
30E
1070
     0
1070
     1
1040
-1.570796326794896
1040
1.0
1070
     0
1070
     1
1040
5.497787143782136
1040
368.0846026366844
1040
-539.1810043687256
1040
2.245064030267287
1040
2.245064030267287
1070
     0
1071
        1
1040
368.0846026366844
1040
-539.1810043687256
1040
0.0
1002
}
  0
SEQEND
  5
3E1
  8
回07-寸法
 62
     5
  0
POLYLINE
  5
30E
  8
回08-記事
  6
DASHED2
 62
     8
 66
     1
 10
0.0
 20
0.0
 30
0.0
 70
     1
1001
ACAD
1000
ASC_BOUNDS
1002
{
1070
    19
1005
30D
1002
}
  0
VERTEX
  5
7FC
  8
回08-記事
  6
DASHED2
 62
     8
 10
319.059526002544
 20
-448.1108880436125
 30
0.0
  0
VERTEX
  5
7FE
  8
回08-記事
  6
DASHED2
 62
     8
 10
311.9780429981438
 20
-448.1108880436125
 30
0.0
  0
VERTEX
  5
7FF
  8
回08-記事
  6
DASHED2
 62
     8
 10
311.9780429981438
 20
-433.3082052311968
 30
0.0
  0
VERTEX
  5
800
  8
回08-記事
  6
DASHED2
 62
     8
 10
319.059526002544
 20
-433.3082052311968
 30
0.0
  0
SEQEND
  5
7FD
  8
回07-寸法
 62
     5
  0
TEXT
  5
30F
  8
回07-寸法
  6
CONTINUOUS
 62
     7
 10
236.0988102214169
 20
-397.3842500994575
 30
0.0
 40
6.0
  1
SECTION A
  0
TEXT
  5
310
  8
回08-記事
  6
CONTINUOUS
 62
     5
 10
467.7855880257303
 20
-435.3706959861921
 30
0.0
 40
4.961249999999997
  1
PIN ASSIGNMENT
  0
TEXT
  5
311
  8
回91-枠英3
 10
543.1080265995616
 20
-355.9401554985782
 30
0.0
 40
4.0
  1
1
  0
TEXT
  5
315
  8
回91-枠英3
 10
508.4329909015547
 20
-319.3564196683862
 30
0.0
 40
4.0
  1
F
  0
LINE
  5
316
  8
回91-枠英3
 10
477.7036055959023
 20
-314.7288427944375
 30
0.0
 11
477.7036055959023
 21
-319.7288427944375
 31
0.0
  0
LINE
  5
317
  8
回91-枠英3
 10
413.7036055959024
 20
-314.7288427944375
 30
0.0
 11
413.7036055959024
 21
-319.7288427944375
 31
0.0
  0
TEXT
  5
318
  8
回91-枠英3
 10
380.4329909015548
 20
-319.3564196683862
 30
0.0
 40
4.0
  1
D
  0
TEXT
  5
319
  8
回91-枠英3
 10
444.4329909015547
 20
-319.3564196683862
 30
0.0
 40
4.0
  1
E
  0
LINE
  5
31A
  8
回91-枠英3
 10
349.7036055959025
 20
-314.7288427944375
 30
0.0
 11
349.7036055959025
 21
-319.7288427944375
 31
0.0
  0
TEXT
  5
31B
  8
回91-枠英3
 10
316.4329909015549
 20
-319.3564196683862
 30
0.0
 40
4.0
  1
C
  0
LINE
  5
31C
  8
回91-枠英3
 10
285.7036055959024
 20
-314.7288427944375
 30
0.0
 11
285.7036055959024
 21
-319.7288427944375
 31
0.0
  0
TEXT
  5
31D
  8
回91-枠英3
 10
252.4329909015548
 20
-319.3564196683862
 30
0.0
 40
4.0
  1
B
  0
LINE
  5
31E
  8
回91-枠英3
 10
221.7036055959024
 20
-314.7288427944375
 30
0.0
 11
221.7036055959024
 21
-319.7288427944375
 31
0.0
  0
TEXT
  5
31F
  8
回91-枠英3
 10
188.4329909015548
 20
-319.3564196683862
 30
0.0
 40
4.0
  1
A
  0
TEXT
  5
320
  8
回91-枠英3
 10
154.1080265995617
 20
-355.9401554985782
 30
0.0
 40
4.0
  1
1
  0
LINE
  5
321
  8
回91-枠英3
 10
157.7036055959024
 20
-319.7288427944375
 30
0.0
 11
541.7036055959024
 21
-319.7288427944375
 31
0.0
  0
LINE
  5
322
  8
回91-枠英3
 10
546.7036055959024
 20
-314.7288427944375
 30
0.0
 11
152.7036055959024
 21
-314.7288427944375
 31
0.0
  0
TEXT
  5
323
  8
回91-枠英3
 10
542.8065278962598
 20
-423.9401554985779
 30
0.0
 40
4.0
  1
2
  0
LINE
  5
324
  8
回91-枠英3
 10
546.7036055959024
 20
-387.7288427944375
 30
0.0
 11
541.7036055959024
 21
-387.7288427944375
 31
0.0
  0
TEXT
  5
325
  8
回91-枠英3
 10
542.801047052059
 20
-491.9401554985781
 30
0.0
 40
4.0
  1
3
  0
LINE
  5
326
  8
回91-枠英3
 10
546.7036055959024
 20
-455.7288427944373
 30
0.0
 11
541.7036055959024
 21
-455.7288427944373
 31
0.0
  0
TEXT
  5
327
  8
回91-枠英3
 10
542.727954931978
 20
-559.9401554985782
 30
0.0
 40
4.0
  1
4
  0
LINE
  5
328
  8
回91-枠英3
 10
546.7036055959024
 20
-523.7288427944373
 30
0.0
 11
541.7036055959024
 21
-523.7288427944373
 31
0.0
  0
TEXT
  5
329
  8
回91-枠英3
 10
508.4329909015547
 20
-596.3564196683862
 30
0.0
 40
4.0
  1
F
  0
LINE
  5
32A
  8
回91-枠英3
 10
477.7036055959023
 20
-591.7288427944375
 30
0.0
 11
477.7036055959023
 21
-596.7288427944374
 31
0.0
  0
LINE
  5
32B
  8
回91-枠英3
 10
413.7036055959024
 20
-591.7288427944375
 30
0.0
 11
413.7036055959024
 21
-596.7288427944374
 31
0.0
  0
TEXT
  5
32C
  8
回91-枠英3
 10
380.4329909015548
 20
-596.3564196683862
 30
0.0
 40
4.0
  1
D
  0
TEXT
  5
32D
  8
回91-枠英3
 10
444.4329909015547
 20
-596.3564196683862
 30
0.0
 40
4.0
  1
E
  0
LINE
  5
32E
  8
回91-枠英3
 10
349.7036055959025
 20
-591.7288427944375
 30
0.0
 11
349.7036055959025
 21
-596.7288427944374
 31
0.0
  0
TEXT
  5
32F
  8
回91-枠英3
 10
316.4329909015549
 20
-596.3564196683862
 30
0.0
 40
4.0
  1
C
  0
LINE
  5
330
  8
回91-枠英3
 10
285.7036055959024
 20
-591.7288427944375
 30
0.0
 11
285.7036055959024
 21
-596.7288427944374
 31
0.0
  0
TEXT
  5
331
  8
回91-枠英3
 10
252.4329909015548
 20
-596.3564196683862
 30
0.0
 40
4.0
  1
B
  0
LINE
  5
332
  8
回91-枠英3
 10
157.7036055959024
 20
-387.7288427944375
 30
0.0
 11
152.7036055959024
 21
-387.7288427944375
 31
0.0
  0
TEXT
  5
333
  8
回91-枠英3
 10
153.8065278962599
 20
-423.9401554985779
 30
0.0
 40
4.0
  1
2
  0
LINE
  5
334
  8
回91-枠英3
 10
157.7036055959024
 20
-455.7288427944373
 30
0.0
 11
152.7036055959024
 21
-455.7288427944373
 31
0.0
  0
TEXT
  5
335
  8
回91-枠英3
 10
153.8010470520591
 20
-491.9401554985781
 30
0.0
 40
4.0
  1
3
  0
LINE
  5
336
  8
回91-枠英3
 10
221.7036055959024
 20
-591.7288427944375
 30
0.0
 11
221.7036055959024
 21
-596.7288427944374
 31
0.0
  0
TEXT
  5
337
  8
回91-枠英3
 10
188.4329909015548
 20
-596.3564196683862
 30
0.0
 40
4.0
  1
A
  0
LINE
  5
338
  8
回91-枠英3
 10
157.7036055959024
 20
-523.7288427944373
 30
0.0
 11
152.7036055959024
 21
-523.7288427944373
 31
0.0
  0
TEXT
  5
339
  8
回91-枠英3
 10
153.727954931978
 20
-559.9401554985782
 30
0.0
 40
4.0
  1
4
  0
LINE
  5
33A
  8
回91-枠英3
 10
546.7036055959024
 20
-596.7288427944374
 30
0.0
 11
152.7036055959024
 21
-596.7288427944374
 31
0.0
  0
LINE
  5
33B
  8
回91-枠英3
 10
157.7036055959024
 20
-591.7288427944375
 30
0.0
 11
541.7036055959024
 21
-591.7288427944375
 31
0.0
  0
LINE
  5
33C
  8
回91-枠英3
 10
152.7036055959024
 20
-596.7288427944374
 30
0.0
 11
152.7036055959024
 21
-314.7288427944375
 31
0.0
  0
LINE
  5
33D
  8
回91-枠英3
 10
546.7036055959024
 20
-596.7288427944374
 30
0.0
 11
546.7036055959024
 21
-314.7288427944375
 31
0.0
  0
LINE
  5
33E
  8
回91-枠英3
 10
157.7036055959024
 20
-319.7288427944375
 30
0.0
 11
157.7036055959024
 21
-591.7288427944375
 31
0.0
  0
LINE
  5
33F
  8
回91-枠英3
 10
541.7036055959024
 20
-319.7288427944375
 30
0.0
 11
541.7036055959024
 21
-591.7288427944375
 31
0.0
  0
ENDSEC
  0
EOF
