  0
SECTION
  2
HEADER
  9
$ACADVER
  1
AC1009
  9
$INSBASE
 10
0.0
 20
0.0
 30
0.0
  9
$EXTMIN
 10
-283.3426783809244
 20
-184.2783036508423
 30
0.0
  9
$EXTMAX
 10
110.6573216190756
 20
97.22169634915758
 30
0.0
  9
$LIMMIN
 10
0.0
 20
0.0
  9
$LIMMAX
 10
3000.0
 20
2500.0
  9
$ORTHOMODE
 70
     0
  9
$REGENMODE
 70
     1
  9
$FILLMODE
 70
     1
  9
$QTEXTMODE
 70
     0
  9
$MIRRTEXT
 70
     1
  9
$DRAGMODE
 70
     2
  9
$LTSCALE
 40
1.0
  9
$OSMODE
 70
    37
  9
$ATTMODE
 70
     1
  9
$TEXTSIZE
 40
3.0
  9
$TRACEWID
 40
1.0
  9
$TEXTSTYLE
  7
STANDARD
  9
$CLAYER
  8
0
  9
$CELTYPE
  6
CONTINUOUS
  9
$CECOLOR
 62
     1
  9
$DIMSCALE
 40
1.0
  9
$DIMASZ
 40
2.0
  9
$DIMEXO
 40
0.0
  9
$DIMDLI
 40
0.0
  9
$DIMRND
 40
0.0
  9
$DIMDLE
 40
0.0
  9
$DIMEXE
 40
1.0
  9
$DIMTP
 40
0.0
  9
$DIMTM
 40
0.0
  9
$DIMTXT
 40
3.0
  9
$DIMCEN
 40
2.0
  9
$DIMTSZ
 40
0.0
  9
$DIMTOL
 70
     0
  9
$DIMLIM
 70
     0
  9
$DIMTIH
 70
     0
  9
$DIMTOH
 70
     0
  9
$DIMSE1
 70
     0
  9
$DIMSE2
 70
     0
  9
$DIMTAD
 70
     3
  9
$DIMZIN
 70
     8
  9
$DIMBLK
  1
OPEN
  9
$DIMASO
 70
     1
  9
$DIMSHO
 70
     1
  9
$DIMPOST
  1

  9
$DIMAPOST
  1

  9
$DIMALT
 70
     1
  9
$DIMALTD
 70
     3
  9
$DIMALTF
 40
0.03937007874016
  9
$DIMLFAC
 40
1.0
  9
$DIMTOFL
 70
     1
  9
$DIMTVP
 40
0.0
  9
$DIMTIX
 70
     0
  9
$DIMSOXD
 70
     0
  9
$DIMSAH
 70
     0
  9
$DIMBLK1
  1

  9
$DIMBLK2
  1

  9
$DIMSTYLE
  2
DMC
  9
$DIMCLRD
 70
     5
  9
$DIMCLRE
 70
     5
  9
$DIMCLRT
 70
     5
  9
$DIMTFAC
 40
0.7
  9
$DIMGAP
 40
0.5
  9
$LUNITS
 70
     2
  9
$LUPREC
 70
     4
  9
$SKETCHINC
 40
1.0
  9
$FILLETRAD
 40
1.0
  9
$AUNITS
 70
     0
  9
$AUPREC
 70
     0
  9
$MENU
  1
.
  9
$ELEVATION
 40
0.0
  9
$PELEVATION
 40
0.0
  9
$THICKNESS
 40
0.0
  9
$LIMCHECK
 70
     0
  9
$BLIPMODE
 70
     0
  9
$CHAMFERA
 40
10.0
  9
$CHAMFERB
 40
10.0
  9
$SKPOLY
 70
     0
  9
$TDCREATE
 40
2451810.404221065
  9
$TDUPDATE
 40
2460221.411488276
  9
$TDINDWG
 40
1.251263530
  9
$TDUSRTIMER
 40
1.251262245
  9
$USRTIMER
 70
     1
  9
$ANGBASE
 50
0.0
  9
$ANGDIR
 70
     0
  9
$PDMODE
 70
     0
  9
$PDSIZE
 40
0.0
  9
$PLINEWID
 40
0.5
  9
$COORDS
 70
     0
  9
$SPLFRAME
 70
     0
  9
$SPLINETYPE
 70
     6
  9
$SPLINESEGS
 70
     8
  9
$ATTDIA
 70
     1
  9
$ATTREQ
 70
     1
  9
$HANDLING
 70
     1
  9
$HANDSEED
  5
5E7
  9
$SURFTAB1
 70
     6
  9
$SURFTAB2
 70
     6
  9
$SURFTYPE
 70
     6
  9
$SURFU
 70
     6
  9
$SURFV
 70
     6
  9
$UCSNAME
  2

  9
$UCSORG
 10
0.0
 20
0.0
 30
0.0
  9
$UCSXDIR
 10
1.0
 20
0.0
 30
0.0
  9
$UCSYDIR
 10
0.0
 20
1.0
 30
0.0
  9
$PUCSNAME
  2

  9
$PUCSORG
 10
0.0
 20
0.0
 30
0.0
  9
$PUCSXDIR
 10
1.0
 20
0.0
 30
0.0
  9
$PUCSYDIR
 10
0.0
 20
1.0
 30
0.0
  9
$USERI1
 70
     0
  9
$USERI2
 70
     0
  9
$USERI3
 70
     0
  9
$USERI4
 70
     0
  9
$USERI5
 70
     0
  9
$USERR1
 40
0.0
  9
$USERR2
 40
0.0
  9
$USERR3
 40
0.0
  9
$USERR4
 40
0.0
  9
$USERR5
 40
0.0
  9
$WORLDVIEW
 70
     1
  9
$SHADEDGE
 70
     3
  9
$SHADEDIF
 70
    70
  9
$TILEMODE
 70
     1
  9
$MAXACTVP
 70
    64
  9
$PLIMCHECK
 70
     0
  9
$PEXTMIN
 10
1.000000000000000E+20
 20
1.000000000000000E+20
 30
1.000000000000000E+20
  9
$PEXTMAX
 10
-1.000000000000000E+20
 20
-1.000000000000000E+20
 30
-1.000000000000000E+20
  9
$PLIMMIN
 10
0.0
 20
0.0
  9
$PLIMMAX
 10
420.0
 20
297.0
  9
$UNITMODE
 70
     0
  9
$VISRETAIN
 70
     1
  9
$PLINEGEN
 70
     0
  9
$PSLTSCALE
 70
     1
  0
ENDSEC
  0
SECTION
  2
TABLES
  0
TABLE
  2
VPORT
 70
     1
  0
VPORT
  2
*ACTIVE
 70
     0
 10
0.0
 20
0.0
 11
1.0
 21
1.0
 12
-75.65508415204232
 22
-58.83003865465804
 13
0.0
 23
0.0
 14
10.0
 24
10.0
 15
10.0
 25
10.0
 16
0.0
 26
0.0
 36
1.0
 17
0.0
 27
0.0
 37
0.0
 40
667.6552684298918
 41
1.002570694087403
 42
50.0
 43
0.0
 44
0.0
 50
0.0
 51
0.0
 71
     0
 72
   500
 73
     1
 74
     1
 75
     0
 76
     0
 77
     0
 78
     0
  0
ENDTAB
  0
TABLE
  2
LTYPE
 70
     4
  0
LTYPE
  2
CONTINUOUS
 70
     0
  3
Solid line
 72
    65
 73
     0
 40
0.0
  0
LTYPE
  2
CENTER2
 70
     0
  3
Center (.5x) ___ _ ___ _ ___ _ ___ _ ___ _ ___
 72
    65
 73
     4
 40
28.575
 49
19.05
 49
-3.174999999999998
 49
3.174999999999998
 49
-3.174999999999998
  0
LTYPE
  2
DASHED2
 70
     0
  3
Dashed (.5x) _ _ _ _ _ _ _ _ _ _ _ _ _ _ _ _ _
 72
    65
 73
     2
 40
9.524999999999996
 49
6.349999999999998
 49
-3.174999999999998
  0
LTYPE
  2
PHANTOM2
 70
     0
  3
Phantom (.5x) ___ _ _ ___ _ _ ___ _ _ ___ _ _
 72
    65
 73
     6
 40
31.75
 49
15.875
 49
-3.174999999999998
 49
3.174999999999998
 49
-3.174999999999998
 49
3.174999999999998
 49
-3.174999999999998
  0
ENDTAB
  0
TABLE
  2
LAYER
 70
     8
  0
LAYER
  2
0
 70
     0
 62
     7
  6
CONTINUOUS
  0
LAYER
  2
DEFPOINTS
 70
     0
 62
     7
  6
CONTINUOUS
  0
LAYER
  2
回04-下接
 70
     0
 62
     7
  6
CONTINUOUS
  0
LAYER
  2
回08-記事
 70
     0
 62
     7
  6
CONTINUOUS
  0
LAYER
  2
回07-寸法
 70
     0
 62
     7
  6
CONTINUOUS
  0
LAYER
  2
回90-枠3
 70
     0
 62
     7
  6
CONTINUOUS
  0
LAYER
  2
回05-ﾃｰﾙ
 70
     0
 62
     7
  6
CONTINUOUS
  0
LAYER
  2
回03-記事
 70
     0
 62
     7
  6
CONTINUOUS
  0
ENDTAB
  0
TABLE
  2
STYLE
 70
     2
  0
STYLE
  2
STANDARD
 70
     0
 40
3.0
 41
1.0
 50
0.0
 71
     0
 42
3.0
  3
isocp.shx
  4
bigfont.shx
  0
STYLE
  2
ANNOTATIVE
 70
     0
 40
0.0
 41
1.0
 50
0.0
 71
     0
 42
0.2
  3
txt.shx
  4

  0
ENDTAB
  0
TABLE
  2
VIEW
 70
     0
  0
ENDTAB
  0
TABLE
  2
UCS
 70
     0
  0
ENDTAB
  0
TABLE
  2
APPID
 70
     6
  0
APPID
  2
ACAD
 70
     0
  0
APPID
  2
ACADANNOTATIVE
 70
     0
  0
APPID
  2
ACAD_PSEXT
 70
     0
  0
APPID
  2
ACAD_NAV_VCDISPLAY
 70
     0
  0
APPID
  2
ACAD_DSTYLE_DIMJAG
 70
     0
  0
APPID
  2
ACAD_DSTYLE_DIMTALN
 70
     0
  0
ENDTAB
  0
TABLE
  2
DIMSTYLE
 70
     2
  0
DIMSTYLE
  2
DMC
 70
     0
  3

  4

  5
OPEN
  6

  7

 40
1.0
 41
2.0
 42
0.0
 43
0.0
 44
1.0
 45
0.0
 46
0.0
 47
0.0
 48
0.0
140
3.0
141
2.0
142
0.0
143
0.03937007874016
144
1.0
145
0.0
146
0.7
147
0.5
 71
     0
 72
     0
 73
     0
 74
     0
 75
     0
 76
     0
 77
     3
 78
     8
170
     1
171
     3
172
     1
173
     0
174
     0
175
     0
176
     5
177
     5
178
     5
  0
DIMSTYLE
  2
ｺﾋﾟｰ_-_STANDARD
 70
     0
  3

  4

  5

  6
OPEN
  7
OPEN
 40
0.0
 41
2.0
 42
0.0
 43
0.0
 44
1.0
 45
0.0
 46
0.0
 47
0.1
 48
0.1
140
3.0
141
2.0
142
0.0
143
0.0394
144
1.0
145
0.0
146
0.7
147
0.5
 71
     0
 72
     0
 73
     0
 74
     0
 75
     0
 76
     0
 77
     3
 78
     8
170
     0
171
     4
172
     1
173
     1
174
     0
175
     0
176
     5
177
     5
178
     5
  0
ENDTAB
  0
ENDSEC
  0
SECTION
  2
BLOCKS
  0
BLOCK
  8
0
  2
$MODEL_SPACE
 70
     0
 10
0.0
 20
0.0
 30
0.0
  3
$MODEL_SPACE
  1

  0
ENDBLK
  8
0
  5
1F
  0
BLOCK
 67
     1
  8
0
  2
$PAPER_SPACE
 70
     0
 10
0.0
 20
0.0
 30
0.0
  3
$PAPER_SPACE
  1

  0
ENDBLK
  5
25
 67
     1
  8
0
  0
BLOCK
  8
0
  2
_OPEN
 70
     0
 10
0.0
 20
0.0
 30
0.0
  3
_OPEN
  1

  0
LINE
  5
487
  8
0
  6
BYBLOCK
 62
     0
 10
-1.0
 20
0.166667
 30
0.0
 11
0.0
 21
0.0
 31
0.0
  0
LINE
  5
488
  8
0
  6
BYBLOCK
 62
     0
 10
-1.0
 20
-0.166667
 30
0.0
 11
0.0
 21
0.0
 31
0.0
  0
LINE
  5
489
  8
0
  6
BYBLOCK
 62
     0
 10
0.0
 20
0.0
 30
0.0
 11
-1.0
 21
0.0
 31
0.0
  0
LINE
  5
11
  8
0
  6
CONTINUOUS
 62
     0
 10
-1.0
 20
0.1666666666666666
 30
0.0
 11
0.0
 21
0.0
 31
0.0
  0
LINE
  5
12
  8
0
  6
CONTINUOUS
 62
     0
 10
-1.0
 20
-0.1666666666666666
 30
0.0
 11
0.0
 21
0.0
 31
0.0
  0
LINE
  5
13
  8
0
  6
CONTINUOUS
 62
     0
 10
0.0
 20
0.0
 30
0.0
 11
-1.0
 21
0.0
 31
0.0
  0
ENDBLK
  5
14
  8
0
  0
BLOCK
  8
0
  2
*D11
 70
     1
 10
0.0
 20
0.0
 30
0.0
  3
*D11
  1

  0
LINE
  5
296
  8
回07-寸法
  6
CONTINUOUS
 62
     5
 10
-215.6245675733477
 20
-93.18643274566502
 30
0.0
 11
-215.6245675733477
 21
-130.126702900931
 31
0.0
  0
LINE
  5
297
  8
回07-寸法
  6
CONTINUOUS
 62
     5
 10
-224.4245675733477
 20
-97.78643274566505
 30
0.0
 11
-224.4245675733477
 21
-130.126702900931
 31
0.0
  0
LINE
  5
298
  8
回07-寸法
  6
CONTINUOUS
 62
     5
 10
-213.6245675733477
 20
-129.126702900931
 30
0.0
 11
-211.6245675733477
 21
-129.126702900931
 31
0.0
  0
LINE
  5
299
  8
回07-寸法
  6
CONTINUOUS
 62
     5
 10
-226.4245675733477
 20
-129.126702900931
 30
0.0
 11
-247.4245675733477
 21
-129.126702900931
 31
0.0
  0
LINE
  5
29A
  8
回07-寸法
  6
CONTINUOUS
 62
     5
 10
-215.6245675733477
 20
-129.126702900931
 30
0.0
 11
-224.4245675733477
 21
-129.126702900931
 31
0.0
  0
INSERT
  5
29B
  8
回07-寸法
  6
CONTINUOUS
 62
     5
  2
_OPEN
 10
-215.6245675733477
 20
-129.126702900931
 30
0.0
 41
2.0
 42
2.0
 43
2.0
 50
180.0
  0
INSERT
  5
29C
  8
回07-寸法
  6
CONTINUOUS
 62
     5
  2
_OPEN
 10
-224.4245675733477
 20
-129.126702900931
 30
0.0
 41
2.0
 42
2.0
 43
2.0
  0
TEXT
  5
29D
  8
回07-寸法
  6
CONTINUOUS
 62
     5
 10
-247.3745675733478
 20
-128.476702900931
 30
0.0
 40
3.0
  1
8.8 [0.346]
1001
ACAD
1000
MTEXTBEGIN
1070
    73
1070
     1
1070
    44
1040
1.0
1070
    74
1070
     0
1000
MTEXTEND
  0
POINT
  5
29E
  8
DEFPOINTS
  6
CONTINUOUS
 62
     0
 10
-215.6245675733477
 20
-93.18643274566502
 30
0.0
  0
POINT
  5
29F
  8
DEFPOINTS
  6
CONTINUOUS
 62
     0
 10
-224.4245675733477
 20
-97.78643274566505
 30
0.0
  0
POINT
  5
2A0
  8
DEFPOINTS
  6
CONTINUOUS
 62
     0
 10
-224.4245675733477
 20
-129.126702900931
 30
0.0
  0
ENDBLK
  5
2A1
  8
0
 62
    30
  0
BLOCK
  8
0
  2
*D22
 70
     1
 10
0.0
 20
0.0
 30
0.0
  3
*D22
  1

  0
LINE
  5
289
  8
回07-寸法
  6
CONTINUOUS
 62
     5
 10
-215.6245675733477
 20
-93.18643274566502
 30
0.0
 11
-215.6245675733477
 21
-130.126702900931
 31
0.0
  0
LINE
  5
28A
  8
回07-寸法
  6
CONTINUOUS
 62
     5
 10
-117.6245675733477
 20
-93.18643274566502
 30
0.0
 11
-117.6245675733477
 21
-130.126702900931
 31
0.0
  0
LINE
  5
28B
  8
回07-寸法
  6
CONTINUOUS
 62
     5
 10
-213.6245675733477
 20
-129.126702900931
 30
0.0
 11
-119.6245675733477
 21
-129.126702900931
 31
0.0
  0
INSERT
  5
28C
  8
回07-寸法
  6
CONTINUOUS
 62
     5
  2
_OPEN
 10
-215.6245675733477
 20
-129.126702900931
 30
0.0
 41
2.0
 42
2.0
 43
2.0
 50
180.0
  0
INSERT
  5
28D
  8
回07-寸法
  6
CONTINUOUS
 62
     5
  2
_OPEN
 10
-117.6245675733477
 20
-129.126702900931
 30
0.0
 41
2.0
 42
2.0
 43
2.0
  0
TEXT
  5
28E
  8
回07-寸法
  6
CONTINUOUS
 62
     5
 10
-188.5348081277476
 20
-128.476702900931
 30
0.0
 40
3.0
  1
98 [3.858] (Active Area)
1001
ACAD
1000
MTEXTBEGIN
1070
    73
1070
     1
1070
    44
1040
1.0
1070
    74
1070
     0
1000
MTEXTEND
  0
POINT
  5
28F
  8
DEFPOINTS
  6
CONTINUOUS
 62
     0
 10
-215.6245675733477
 20
-93.18643274566502
 30
0.0
  0
POINT
  5
290
  8
DEFPOINTS
  6
CONTINUOUS
 62
     0
 10
-117.6245675733477
 20
-93.18643274566502
 30
0.0
  0
POINT
  5
291
  8
DEFPOINTS
  6
CONTINUOUS
 62
     0
 10
-117.6245675733477
 20
-129.126702900931
 30
0.0
  0
ENDBLK
  5
292
  8
0
 62
    30
  0
BLOCK
  8
0
  2
*D33
 70
     1
 10
0.0
 20
0.0
 30
0.0
  3
*D33
  1

  0
LINE
  5
27A
  8
回07-寸法
  6
CONTINUOUS
 62
     5
 10
-216.6245675733478
 20
-94.18643274566505
 30
0.0
 11
-216.6245675733478
 21
-138.3547067607749
 31
0.0
  0
LINE
  5
27B
  8
回07-寸法
  6
CONTINUOUS
 62
     5
 10
-224.4245675733477
 20
-97.78643274566505
 30
0.0
 11
-224.4245675733477
 21
-138.3547067607749
 31
0.0
  0
LINE
  5
27C
  8
回07-寸法
  6
CONTINUOUS
 62
     5
 10
-214.6245675733478
 20
-137.3547067607749
 30
0.0
 11
-212.6245675733478
 21
-137.3547067607749
 31
0.0
  0
LINE
  5
27D
  8
回07-寸法
  6
CONTINUOUS
 62
     5
 10
-226.4245675733477
 20
-137.3547067607749
 30
0.0
 11
-247.1245675733477
 21
-137.3547067607749
 31
0.0
  0
LINE
  5
27E
  8
回07-寸法
  6
CONTINUOUS
 62
     5
 10
-216.6245675733478
 20
-137.3547067607749
 30
0.0
 11
-224.4245675733477
 21
-137.3547067607749
 31
0.0
  0
INSERT
  5
27F
  8
回07-寸法
  6
CONTINUOUS
 62
     5
  2
_OPEN
 10
-216.6245675733478
 20
-137.3547067607749
 30
0.0
 41
2.0
 42
2.0
 43
2.0
 50
180.0
  0
INSERT
  5
280
  8
回07-寸法
  6
CONTINUOUS
 62
     5
  2
_OPEN
 10
-224.4245675733477
 20
-137.3547067607749
 30
0.0
 41
2.0
 42
2.0
 43
2.0
  0
TEXT
  5
281
  8
回07-寸法
  6
CONTINUOUS
 62
     5
 10
-247.0745675733478
 20
-136.7047067607749
 30
0.0
 40
3.0
  1
7.8 [0.307]
1001
ACAD
1000
MTEXTBEGIN
1070
    73
1070
     1
1070
    44
1040
1.0
1070
    74
1070
     0
1000
MTEXTEND
  0
POINT
  5
282
  8
DEFPOINTS
  6
CONTINUOUS
 62
     0
 10
-216.6245675733478
 20
-94.18643274566505
 30
0.0
  0
POINT
  5
283
  8
DEFPOINTS
  6
CONTINUOUS
 62
     0
 10
-224.4245675733477
 20
-97.78643274566505
 30
0.0
  0
POINT
  5
284
  8
DEFPOINTS
  6
CONTINUOUS
 62
     0
 10
-224.4245675733477
 20
-137.3547067607749
 30
0.0
  0
ENDBLK
  5
285
  8
0
 62
    30
  0
BLOCK
  8
0
  2
*D44
 70
     1
 10
0.0
 20
0.0
 30
0.0
  3
*D44
  1

  0
LINE
  5
26D
  8
回07-寸法
  6
CONTINUOUS
 62
     5
 10
-216.6245675733478
 20
-94.18643274566505
 30
0.0
 11
-216.6245675733478
 21
-138.3547067607749
 31
0.0
  0
LINE
  5
26E
  8
回07-寸法
  6
CONTINUOUS
 62
     5
 10
-116.6245675733477
 20
-94.18643274566505
 30
0.0
 11
-116.6245675733477
 21
-138.3547067607749
 31
0.0
  0
LINE
  5
26F
  8
回07-寸法
  6
CONTINUOUS
 62
     5
 10
-214.6245675733478
 20
-137.3547067607749
 30
0.0
 11
-118.6245675733477
 21
-137.3547067607749
 31
0.0
  0
INSERT
  5
270
  8
回07-寸法
  6
CONTINUOUS
 62
     5
  2
_OPEN
 10
-216.6245675733478
 20
-137.3547067607749
 30
0.0
 41
2.0
 42
2.0
 43
2.0
 50
180.0
  0
INSERT
  5
271
  8
回07-寸法
  6
CONTINUOUS
 62
     5
  2
_OPEN
 10
-116.6245675733477
 20
-137.3547067607749
 30
0.0
 41
2.0
 42
2.0
 43
2.0
  0
TEXT
  5
272
  8
回07-寸法
  6
CONTINUOUS
 62
     5
 10
-191.3770383418773
 20
-136.0511261753452
 30
0.0
 40
3.0
  1
100 [3.937] (Viewing Area)
1001
ACAD
1000
MTEXTBEGIN
1070
    73
1070
     1
1070
    44
1040
1.0
1070
    74
1070
     0
1000
MTEXTEND
  0
POINT
  5
273
  8
DEFPOINTS
  6
CONTINUOUS
 62
     0
 10
-216.6245675733478
 20
-94.18643274566505
 30
0.0
  0
POINT
  5
274
  8
DEFPOINTS
  6
CONTINUOUS
 62
     0
 10
-116.6245675733477
 20
-94.18643274566505
 30
0.0
  0
POINT
  5
275
  8
DEFPOINTS
  6
CONTINUOUS
 62
     0
 10
-116.6245675733477
 20
-137.3547067607749
 30
0.0
  0
ENDBLK
  5
276
  8
0
 62
    30
  0
BLOCK
  8
0
  2
*D55
 70
     1
 10
0.0
 20
0.0
 30
0.0
  3
*D55
  1

  0
LINE
  5
260
  8
回07-寸法
  6
CONTINUOUS
 62
     5
 10
-224.4245675733477
 20
-97.78643274566505
 30
0.0
 11
-224.4245675733477
 21
-154.6931715776887
 31
0.0
  0
LINE
  5
261
  8
回07-寸法
  6
CONTINUOUS
 62
     5
 10
-113.2245675733478
 20
-97.78643274566505
 30
0.0
 11
-113.2245675733478
 21
-154.6931715776887
 31
0.0
  0
LINE
  5
262
  8
回07-寸法
  6
CONTINUOUS
 62
     5
 10
-222.4245675733477
 20
-153.6931715776887
 30
0.0
 11
-115.2245675733478
 21
-153.6931715776887
 31
0.0
  0
INSERT
  5
263
  8
回07-寸法
  6
CONTINUOUS
 62
     5
  2
_OPEN
 10
-224.4245675733477
 20
-153.6931715776887
 30
0.0
 41
2.0
 42
2.0
 43
2.0
 50
180.0
  0
INSERT
  5
264
  8
回07-寸法
  6
CONTINUOUS
 62
     5
  2
_OPEN
 10
-113.2245675733478
 20
-153.6931715776887
 30
0.0
 41
2.0
 42
2.0
 43
2.0
  0
INSERT
  5
265
  8
回07-寸法
  6
CONTINUOUS
 62
     5
 66
     1
  2
*X4646
 10
0.0
 20
0.0
 30
0.0
  0
SEQEND
  5
3ED
  8
0
  6
CONTINUOUS
 62
     1
  0
POINT
  5
266
  8
DEFPOINTS
  6
CONTINUOUS
 62
     0
 10
-224.4245675733477
 20
-97.78643274566505
 30
0.0
  0
POINT
  5
267
  8
DEFPOINTS
  6
CONTINUOUS
 62
     0
 10
-113.2245675733478
 20
-97.78643274566505
 30
0.0
  0
POINT
  5
268
  8
DEFPOINTS
  6
CONTINUOUS
 62
     0
 10
-113.2245675733478
 20
-153.6931715776887
 30
0.0
  0
ENDBLK
  5
269
  8
0
 62
    30
  0
BLOCK
  8
0
  2
*D66
 70
     1
 10
0.0
 20
0.0
 30
0.0
  3
*D66
  1

  0
LINE
  5
251
  8
回07-寸法
  6
CONTINUOUS
 62
     5
 10
-117.6245675733478
 20
-93.18643274566506
 30
0.0
 11
-94.62894117227056
 21
-93.18643274566506
 31
0.0
  0
LINE
  5
252
  8
回07-寸法
  6
CONTINUOUS
 62
     5
 10
-113.2245675733478
 20
-97.78643274566507
 30
0.0
 11
-94.62894117227056
 21
-97.78643274566507
 31
0.0
  0
LINE
  5
253
  8
回07-寸法
  6
CONTINUOUS
 62
     5
 10
-95.62894117227056
 20
-91.18643274566506
 30
0.0
 11
-95.62894117227056
 21
-89.18643274566505
 31
0.0
  0
LINE
  5
254
  8
回07-寸法
  6
CONTINUOUS
 62
     5
 10
-95.62894117227054
 20
-99.78643274566508
 30
0.0
 11
-95.62894117227054
 21
-119.586432745665
 31
0.0
  0
LINE
  5
255
  8
回07-寸法
  6
CONTINUOUS
 62
     5
 10
-95.62894117227056
 20
-93.18643274566506
 30
0.0
 11
-95.62894117227056
 21
-97.78643274566507
 31
0.0
  0
INSERT
  5
256
  8
回07-寸法
  6
CONTINUOUS
 62
     5
  2
_OPEN
 10
-95.62894117227056
 20
-93.18643274566506
 30
0.0
 41
2.0
 42
2.0
 43
2.0
 50
270.0
  0
INSERT
  5
257
  8
回07-寸法
  6
CONTINUOUS
 62
     5
  2
_OPEN
 10
-95.62894117227054
 20
-97.78643274566507
 30
0.0
 41
2.0
 42
2.0
 43
2.0
 50
90.0
  0
TEXT
  5
258
  8
回07-寸法
  6
CONTINUOUS
 62
     5
 10
-96.27894117227057
 20
-119.536432745665
 30
0.0
 40
3.0
  1
4.6 [0.181]
 50
90.0
1001
ACAD
1000
MTEXTBEGIN
1070
    73
1070
     1
1070
    44
1040
1.0
1070
    74
1070
     0
1000
MTEXTEND
  0
POINT
  5
259
  8
DEFPOINTS
  6
CONTINUOUS
 62
     0
 10
-117.6245675733478
 20
-93.18643274566506
 30
0.0
  0
POINT
  5
25A
  8
DEFPOINTS
  6
CONTINUOUS
 62
     0
 10
-113.2245675733478
 20
-97.78643274566507
 30
0.0
  0
POINT
  5
25B
  8
DEFPOINTS
  6
CONTINUOUS
 62
     0
 10
-95.62894117227054
 20
-97.78643274566507
 30
0.0
  0
ENDBLK
  5
25C
  8
0
 62
    30
  0
BLOCK
  8
0
  2
*D77
 70
     1
 10
0.0
 20
0.0
 30
0.0
  3
*D77
  1

  0
LINE
  5
242
  8
回07-寸法
  6
CONTINUOUS
 62
     5
 10
-116.6245675733478
 20
-94.18643274566505
 30
0.0
 11
-87.8928826503821
 21
-94.18643274566505
 31
0.0
  0
LINE
  5
243
  8
回07-寸法
  6
CONTINUOUS
 62
     5
 10
-113.2245675733478
 20
-97.78643274566507
 30
0.0
 11
-87.89288265038207
 21
-97.78643274566507
 31
0.0
  0
LINE
  5
244
  8
回07-寸法
  6
CONTINUOUS
 62
     5
 10
-88.89288265038208
 20
-92.18643274566506
 30
0.0
 11
-88.89288265038208
 21
-90.18643274566505
 31
0.0
  0
LINE
  5
245
  8
回07-寸法
  6
CONTINUOUS
 62
     5
 10
-88.89288265038208
 20
-99.78643274566508
 30
0.0
 11
-88.89288265038208
 21
-120.186432745665
 31
0.0
  0
LINE
  5
246
  8
回07-寸法
  6
CONTINUOUS
 62
     5
 10
-88.89288265038208
 20
-94.18643274566505
 30
0.0
 11
-88.89288265038208
 21
-97.78643274566507
 31
0.0
  0
INSERT
  5
247
  8
回07-寸法
  6
CONTINUOUS
 62
     5
  2
_OPEN
 10
-88.89288265038208
 20
-94.18643274566505
 30
0.0
 41
2.0
 42
2.0
 43
2.0
 50
270.0
  0
INSERT
  5
248
  8
回07-寸法
  6
CONTINUOUS
 62
     5
  2
_OPEN
 10
-88.89288265038208
 20
-97.78643274566507
 30
0.0
 41
2.0
 42
2.0
 43
2.0
 50
90.0
  0
TEXT
  5
249
  8
回07-寸法
  6
CONTINUOUS
 62
     5
 10
-89.54288265038211
 20
-120.136432745665
 30
0.0
 40
3.0
  1
3.6 [0.142]
 50
90.0
1001
ACAD
1000
MTEXTBEGIN
1070
    73
1070
     1
1070
    44
1040
1.0
1070
    74
1070
     0
1000
MTEXTEND
  0
POINT
  5
24A
  8
DEFPOINTS
  6
CONTINUOUS
 62
     0
 10
-116.6245675733478
 20
-94.18643274566505
 30
0.0
  0
POINT
  5
24B
  8
DEFPOINTS
  6
CONTINUOUS
 62
     0
 10
-113.2245675733478
 20
-97.78643274566507
 30
0.0
  0
POINT
  5
24C
  8
DEFPOINTS
  6
CONTINUOUS
 62
     0
 10
-88.89288265038208
 20
-97.78643274566507
 30
0.0
  0
ENDBLK
  5
24D
  8
0
 62
    30
  0
BLOCK
  8
0
  2
*D88
 70
     1
 10
0.0
 20
0.0
 30
0.0
  3
*D88
  1

  0
LINE
  5
235
  8
回07-寸法
  6
CONTINUOUS
 62
     5
 10
-117.6245675733478
 20
-93.18643274566506
 30
0.0
 11
-94.62894117227049
 21
-93.18643274566506
 31
0.0
  0
LINE
  5
236
  8
回07-寸法
  6
CONTINUOUS
 62
     5
 10
-117.6245675733478
 20
-19.18643274566504
 30
0.0
 11
-94.62894117227049
 21
-19.18643274566504
 31
0.0
  0
LINE
  5
237
  8
回07-寸法
  6
CONTINUOUS
 62
     5
 10
-95.62894117227051
 20
-91.18643274566506
 30
0.0
 11
-95.62894117227051
 21
-21.18643274566503
 31
0.0
  0
INSERT
  5
238
  8
回07-寸法
  6
CONTINUOUS
 62
     5
  2
_OPEN
 10
-95.62894117227051
 20
-93.18643274566506
 30
0.0
 41
2.0
 42
2.0
 43
2.0
 50
270.0
  0
INSERT
  5
239
  8
回07-寸法
  6
CONTINUOUS
 62
     5
  2
_OPEN
 10
-95.62894117227051
 20
-19.18643274566503
 30
0.0
 41
2.0
 42
2.0
 43
2.0
 50
90.0
  0
TEXT
  5
23A
  8
回07-寸法
  6
CONTINUOUS
 62
     5
 10
-96.27888126616822
 20
-78.11147538440723
 30
0.0
 40
3.0
  1
74 [2.913] (Active Area)
 50
90.0
1001
ACAD
1000
MTEXTBEGIN
1070
    73
1070
     1
1070
    44
1040
1.0
1070
    74
1070
     0
1000
MTEXTEND
  0
POINT
  5
23B
  8
DEFPOINTS
  6
CONTINUOUS
 62
     0
 10
-117.6245675733478
 20
-93.18643274566506
 30
0.0
  0
POINT
  5
23C
  8
DEFPOINTS
  6
CONTINUOUS
 62
     0
 10
-117.6245675733478
 20
-19.18643274566504
 30
0.0
  0
POINT
  5
23D
  8
DEFPOINTS
  6
CONTINUOUS
 62
     0
 10
-95.62894117227051
 20
-19.18643274566503
 30
0.0
  0
ENDBLK
  5
23E
  8
0
 62
    30
  0
BLOCK
  8
0
  2
*D99
 70
     1
 10
0.0
 20
0.0
 30
0.0
  3
*D99
  1

  0
LINE
  5
228
  8
回07-寸法
  6
CONTINUOUS
 62
     5
 10
-116.6245675733478
 20
-18.18643274566504
 30
0.0
 11
-87.89288265038205
 21
-18.18643274566504
 31
0.0
  0
LINE
  5
229
  8
回07-寸法
  6
CONTINUOUS
 62
     5
 10
-116.6245675733478
 20
-94.18643274566505
 30
0.0
 11
-87.89288265038202
 21
-94.18643274566505
 31
0.0
  0
LINE
  5
22A
  8
回07-寸法
  6
CONTINUOUS
 62
     5
 10
-88.89288265038205
 20
-20.18643274566503
 30
0.0
 11
-88.89288265038205
 21
-92.18643274566506
 31
0.0
  0
INSERT
  5
22B
  8
回07-寸法
  6
CONTINUOUS
 62
     5
  2
_OPEN
 10
-88.89288265038205
 20
-18.18643274566503
 30
0.0
 41
2.0
 42
2.0
 43
2.0
 50
90.0
  0
INSERT
  5
22C
  8
回07-寸法
  6
CONTINUOUS
 62
     5
  2
_OPEN
 10
-88.89288265038201
 20
-94.18643274566505
 30
0.0
 41
2.0
 42
2.0
 43
2.0
 50
270.0
  0
TEXT
  5
22D
  8
回07-寸法
  6
CONTINUOUS
 62
     5
 10
-90.19567829117979
 20
-77.31974251143556
 30
0.0
 40
3.0
  1
76 [2.992] (Viewing Area)
 50
90.0
1001
ACAD
1000
MTEXTBEGIN
1070
    73
1070
     1
1070
    44
1040
1.0
1070
    74
1070
     0
1000
MTEXTEND
  0
POINT
  5
22E
  8
DEFPOINTS
  6
CONTINUOUS
 62
     0
 10
-116.6245675733478
 20
-18.18643274566504
 30
0.0
  0
POINT
  5
22F
  8
DEFPOINTS
  6
CONTINUOUS
 62
     0
 10
-116.6245675733478
 20
-94.18643274566505
 30
0.0
  0
POINT
  5
230
  8
DEFPOINTS
  6
CONTINUOUS
 62
     0
 10
-88.89288265038201
 20
-94.18643274566505
 30
0.0
  0
ENDBLK
  5
231
  8
0
 62
    30
  0
BLOCK
  8
0
  2
*D1010
 70
     1
 10
0.0
 20
0.0
 30
0.0
  3
*D1010
  1

  0
LINE
  5
21B
  8
回07-寸法
  6
CONTINUOUS
 62
     5
 10
-113.2245675733478
 20
-9.786432745665026
 30
0.0
 11
-72.02495766028234
 21
-9.786432745665026
 31
0.0
  0
LINE
  5
21C
  8
回07-寸法
  6
CONTINUOUS
 62
     5
 10
-113.2245675733478
 20
-97.78643274566507
 30
0.0
 11
-72.02495766028231
 21
-97.78643274566507
 31
0.0
  0
LINE
  5
21D
  8
回07-寸法
  6
CONTINUOUS
 62
     5
 10
-73.02495766028234
 20
-11.78643274566502
 30
0.0
 11
-73.02495766028234
 21
-95.78643274566505
 31
0.0
  0
INSERT
  5
21E
  8
回07-寸法
  6
CONTINUOUS
 62
     5
  2
_OPEN
 10
-73.02495766028234
 20
-9.786432745665019
 30
0.0
 41
2.0
 42
2.0
 43
2.0
 50
90.0
  0
INSERT
  5
21F
  8
回07-寸法
  6
CONTINUOUS
 62
     5
  2
_OPEN
 10
-73.02495766028231
 20
-97.78643274566507
 30
0.0
 41
2.0
 42
2.0
 43
2.0
 50
270.0
  0
INSERT
  5
220
  8
回07-寸法
  6
CONTINUOUS
 62
     5
 66
     1
  2
*X4747
 10
0.0
 20
0.0
 30
0.0
  0
SEQEND
  5
3F6
  8
0
  6
CONTINUOUS
 62
     1
  0
POINT
  5
221
  8
DEFPOINTS
  6
CONTINUOUS
 62
     0
 10
-113.2245675733478
 20
-9.786432745665026
 30
0.0
  0
POINT
  5
222
  8
DEFPOINTS
  6
CONTINUOUS
 62
     0
 10
-113.2245675733478
 20
-97.78643274566507
 30
0.0
  0
POINT
  5
223
  8
DEFPOINTS
  6
CONTINUOUS
 62
     0
 10
-73.02495766028231
 20
-97.78643274566507
 30
0.0
  0
ENDBLK
  5
224
  8
0
 62
    30
  0
BLOCK
  8
0
  2
*D1111
 70
     1
 10
0.0
 20
0.0
 30
0.0
  3
*D1111
  1

  0
LINE
  5
20E
  8
回07-寸法
  6
CONTINUOUS
 62
     5
 10
-145.1028943481033
 20
-9.786432745665026
 30
0.0
 11
-182.4092007521296
 21
-9.786432745665026
 31
0.0
  0
LINE
  5
20F
  8
回07-寸法
  6
CONTINUOUS
 62
     5
 10
-134.6995675733478
 20
60.21356725433512
 30
0.0
 11
-182.4092007521296
 21
60.21356725433512
 31
0.0
  0
LINE
  5
210
  8
回07-寸法
  6
CONTINUOUS
 62
     5
 10
-181.4092007521296
 20
-7.786432745665034
 30
0.0
 11
-181.4092007521296
 21
58.2135672543351
 31
0.0
  0
INSERT
  5
211
  8
回07-寸法
  6
CONTINUOUS
 62
     5
  2
_OPEN
 10
-181.4092007521296
 20
-9.786432745665036
 30
0.0
 41
2.0
 42
2.0
 43
2.0
 50
270.0
  0
INSERT
  5
212
  8
回07-寸法
  6
CONTINUOUS
 62
     5
  2
_OPEN
 10
-181.4092007521296
 20
60.21356725433509
 30
0.0
 41
2.0
 42
2.0
 43
2.0
 50
90.0
  0
INSERT
  5
213
  8
回07-寸法
  6
CONTINUOUS
 62
     5
 66
     1
  2
*X4848
 10
0.0
 20
0.0
 30
0.0
  0
SEQEND
  5
3FF
  8
0
  6
CONTINUOUS
 62
     1
  0
POINT
  5
214
  8
DEFPOINTS
  6
CONTINUOUS
 62
     0
 10
-145.1028943481033
 20
-9.786432745665026
 30
0.0
  0
POINT
  5
215
  8
DEFPOINTS
  6
CONTINUOUS
 62
     0
 10
-134.6995675733478
 20
60.21356725433512
 30
0.0
  0
POINT
  5
216
  8
DEFPOINTS
  6
CONTINUOUS
 62
     0
 10
-181.4092007521296
 20
60.21356725433509
 30
0.0
  0
ENDBLK
  5
217
  8
0
 62
    30
  0
BLOCK
  8
0
  2
*D1212
 70
     1
 10
0.0
 20
0.0
 30
0.0
  3
*D1212
  1

  0
LINE
  5
1FF
  8
回07-寸法
  6
CONTINUOUS
 62
     5
 10
-135.9501574685304
 20
59.71356725433508
 30
0.0
 11
-135.9501574685304
 21
69.18821447500068
 31
0.0
  0
LINE
  5
200
  8
回07-寸法
  6
CONTINUOUS
 62
     5
 10
-129.6995675733478
 20
59.71356725433508
 30
0.0
 11
-129.6995675733478
 21
69.18821447500068
 31
0.0
  0
LINE
  5
201
  8
回07-寸法
  6
CONTINUOUS
 62
     5
 10
-137.9501574685304
 20
68.18821447500067
 30
0.0
 11
-139.9501574685304
 21
68.18821447500067
 31
0.0
  0
LINE
  5
202
  8
回07-寸法
  6
CONTINUOUS
 62
     5
 10
-127.6995675733478
 20
68.18821447500067
 30
0.0
 11
-97.91004001429268
 21
68.18821447500067
 31
0.0
  0
LINE
  5
203
  8
回07-寸法
  6
CONTINUOUS
 62
     5
 10
-135.9501574685304
 20
68.18821447500067
 30
0.0
 11
-129.6995675733478
 21
68.18821447500067
 31
0.0
  0
INSERT
  5
204
  8
回07-寸法
  6
CONTINUOUS
 62
     5
  2
_OPEN
 10
-135.9501574685304
 20
68.18821447500067
 30
0.0
 41
2.0
 42
2.0
 43
2.0
  0
INSERT
  5
205
  8
回07-寸法
  6
CONTINUOUS
 62
     5
  2
_OPEN
 10
-129.6995675733478
 20
68.18821447500067
 30
0.0
 41
2.0
 42
2.0
 43
2.0
 50
180.0
  0
TEXT
  5
206
  8
回07-寸法
  6
CONTINUOUS
 62
     5
 10
-119.0498037938202
 20
68.83821447500068
 30
0.0
 40
3.0
  1
6.25 [0.246]
1001
ACAD
1000
MTEXTBEGIN
1070
    73
1070
     1
1070
    44
1040
1.0
1070
    74
1070
     0
1000
MTEXTEND
  0
POINT
  5
207
  8
DEFPOINTS
  6
CONTINUOUS
 62
     0
 10
-135.9501574685304
 20
59.71356725433508
 30
0.0
  0
POINT
  5
208
  8
DEFPOINTS
  6
CONTINUOUS
 62
     0
 10
-129.6995675733478
 20
59.71356725433508
 30
0.0
  0
POINT
  5
209
  8
DEFPOINTS
  6
CONTINUOUS
 62
     0
 10
-129.6995675733478
 20
68.18821447500067
 30
0.0
  0
ENDBLK
  5
20A
  8
0
 62
    30
  0
BLOCK
  8
0
  2
*D1313
 70
     1
 10
0.0
 20
0.0
 30
0.0
  3
*D1313
  1

  0
LINE
  5
1F0
  8
回07-寸法
  6
CONTINUOUS
 62
     5
 10
-140.8245675733479
 20
-6.742554584334924
 30
0.0
 11
-140.8245675733479
 21
28.53422666581059
 31
0.0
  0
LINE
  5
1F1
  8
回07-寸法
  6
CONTINUOUS
 62
     5
 10
-124.8251688907605
 20
-6.740914695447712
 30
0.0
 11
-124.8251688907605
 21
28.53422666581059
 31
0.0
  0
LINE
  5
1F2
  8
回07-寸法
  6
CONTINUOUS
 62
     5
 10
-142.8245675733479
 20
27.53422666581059
 30
0.0
 11
-144.8245675733479
 21
27.53422666581059
 31
0.0
  0
LINE
  5
1F3
  8
回07-寸法
  6
CONTINUOUS
 62
     5
 10
-122.8251688907605
 20
27.53422666581059
 30
0.0
 11
-103.6251688907605
 21
27.53422666581059
 31
0.0
  0
LINE
  5
1F4
  8
回07-寸法
  6
CONTINUOUS
 62
     5
 10
-140.8245675733479
 20
27.53422666581059
 30
0.0
 11
-124.8251688907605
 21
27.53422666581059
 31
0.0
  0
INSERT
  5
1F5
  8
回07-寸法
  6
CONTINUOUS
 62
     5
  2
_OPEN
 10
-140.8245675733479
 20
27.53422666581059
 30
0.0
 41
2.0
 42
2.0
 43
2.0
  0
INSERT
  5
1F6
  8
回07-寸法
  6
CONTINUOUS
 62
     5
  2
_OPEN
 10
-124.8251688907605
 20
27.53422666581059
 30
0.0
 41
2.0
 42
2.0
 43
2.0
 50
180.0
  0
TEXT
  5
1F7
  8
回07-寸法
  6
CONTINUOUS
 62
     5
 10
-120.7751688907605
 20
28.18422666581059
 30
0.0
 40
3.0
  1
16 [0.630]
1001
ACAD
1000
MTEXTBEGIN
1070
    73
1070
     1
1070
    44
1040
1.0
1070
    74
1070
     0
1000
MTEXTEND
  0
POINT
  5
1F8
  8
DEFPOINTS
  6
CONTINUOUS
 62
     0
 10
-140.8245675733479
 20
-6.742554584334924
 30
0.0
  0
POINT
  5
1F9
  8
DEFPOINTS
  6
CONTINUOUS
 62
     0
 10
-124.8251688907605
 20
-6.740914695447712
 30
0.0
  0
POINT
  5
1FA
  8
DEFPOINTS
  6
CONTINUOUS
 62
     0
 10
-124.8251688907605
 20
27.53422666581059
 30
0.0
  0
ENDBLK
  5
1FB
  8
0
 62
    30
  0
BLOCK
  8
0
  2
*D1414
 70
     1
 10
0.0
 20
0.0
 30
0.0
  3
*D1414
  1

  0
LINE
  5
1DE
  8
回07-寸法
  6
CONTINUOUS
 62
     5
 10
-113.2245675733478
 20
-94.18643274566505
 30
0.0
 11
-104.8092503195553
 21
-94.18643274566505
 31
0.0
  0
LINE
  5
1DF
  8
回07-寸法
  6
CONTINUOUS
 62
     5
 10
-113.2245675733478
 20
-97.78643274566507
 30
0.0
 11
-104.8092503195553
 21
-97.78643274566507
 31
0.0
  0
LINE
  5
1E0
  8
回07-寸法
  6
CONTINUOUS
 62
     5
 10
-105.8092503195553
 20
-92.18643274566506
 30
0.0
 11
-105.8092503195553
 21
-90.18643274566505
 31
0.0
  0
LINE
  5
1E1
  8
回07-寸法
  6
CONTINUOUS
 62
     5
 10
-105.8092503195553
 20
-99.78643274566508
 30
0.0
 11
-105.8092503195553
 21
-122.5840705409406
 31
0.0
  0
LINE
  5
1E2
  8
回07-寸法
  6
CONTINUOUS
 62
     5
 10
-105.8092503195553
 20
-94.18643274566505
 30
0.0
 11
-105.8092503195553
 21
-97.78643274566507
 31
0.0
  0
INSERT
  5
1E3
  8
回07-寸法
  6
CONTINUOUS
 62
     5
  2
_OPEN
 10
-105.8092503195553
 20
-94.18643274566505
 30
0.0
 41
2.0
 42
2.0
 43
2.0
 50
270.0
  0
INSERT
  5
1E4
  8
回07-寸法
  6
CONTINUOUS
 62
     5
  2
_OPEN
 10
-105.8092503195553
 20
-97.78643274566507
 30
0.0
 41
2.0
 42
2.0
 43
2.0
 50
90.0
  0
TEXT
  5
1E5
  8
回07-寸法
  6
CONTINUOUS
 62
     5
 10
-106.4592503195553
 20
-122.5352516433028
 30
0.0
 40
3.0
  1
(3.6 [0.142])
 50
90.0
1001
ACAD
1000
MTEXTBEGIN
1070
    73
1070
     1
1070
    44
1040
1.0
1070
    74
1070
     0
1000
MTEXTEND
  0
POINT
  5
1E6
  8
DEFPOINTS
  6
CONTINUOUS
 62
     0
 10
-113.2245675733478
 20
-94.18643274566505
 30
0.0
  0
POINT
  5
1E7
  8
DEFPOINTS
  6
CONTINUOUS
 62
     0
 10
-113.2245675733478
 20
-97.78643274566507
 30
0.0
  0
POINT
  5
1E8
  8
DEFPOINTS
  6
CONTINUOUS
 62
     0
 10
-105.8092503195553
 20
-97.78643274566507
 30
0.0
  0
ENDBLK
  5
1E9
  8
0
 62
    30
  0
BLOCK
  8
0
  2
*D1515
 70
     1
 10
0.0
 20
0.0
 30
0.0
  3
*D1515
  1

  0
LINE
  5
1CF
  8
回07-寸法
  6
CONTINUOUS
 62
     5
 10
-113.2245675733478
 20
-94.18643274566505
 30
0.0
 11
-107.0946705000811
 21
-94.18643274566505
 31
0.0
  0
LINE
  5
1D0
  8
回07-寸法
  6
CONTINUOUS
 62
     5
 10
-113.2245675733478
 20
-92.18643274566506
 30
0.0
 11
-107.0946705000811
 21
-92.18643274566506
 31
0.0
  0
LINE
  5
1D1
  8
回07-寸法
  6
CONTINUOUS
 62
     5
 10
-108.094670500081
 20
-96.18643274566508
 30
0.0
 11
-108.094670500081
 21
-98.18643274566507
 31
0.0
  0
LINE
  5
1D2
  8
回07-寸法
  6
CONTINUOUS
 62
     5
 10
-108.0946705000811
 20
-90.18643274566505
 30
0.0
 11
-108.0946705000811
 21
-70.07831195890665
 31
0.0
  0
LINE
  5
1D3
  8
回07-寸法
  6
CONTINUOUS
 62
     5
 10
-108.0946705000811
 20
-94.18643274566505
 30
0.0
 11
-108.0946705000811
 21
-92.18643274566506
 31
0.0
  0
INSERT
  5
1D4
  8
回07-寸法
  6
CONTINUOUS
 62
     5
  2
_OPEN
 10
-108.0946705000811
 20
-94.18643274566505
 30
0.0
 41
2.0
 42
2.0
 43
2.0
 50
90.0
  0
INSERT
  5
1D5
  8
回07-寸法
  6
CONTINUOUS
 62
     5
  2
_OPEN
 10
-108.0946705000811
 20
-92.18643274566506
 30
0.0
 41
2.0
 42
2.0
 43
2.0
 50
270.0
  0
TEXT
  5
1D6
  8
回07-寸法
  6
CONTINUOUS
 62
     5
 10
-108.7446105939787
 20
-88.13778790507628
 30
0.0
 40
3.0
  1
(2 [0.079])
 50
90.0
1001
ACAD
1000
MTEXTBEGIN
1070
    73
1070
     1
1070
    44
1040
1.0
1070
    74
1070
     0
1000
MTEXTEND
  0
POINT
  5
1D7
  8
DEFPOINTS
  6
CONTINUOUS
 62
     0
 10
-113.2245675733478
 20
-94.18643274566505
 30
0.0
  0
POINT
  5
1D8
  8
DEFPOINTS
  6
CONTINUOUS
 62
     0
 10
-113.2245675733478
 20
-92.18643274566506
 30
0.0
  0
POINT
  5
1D9
  8
DEFPOINTS
  6
CONTINUOUS
 62
     0
 10
-108.0946705000811
 20
-92.18643274566506
 30
0.0
  0
ENDBLK
  5
1DA
  8
0
 62
    30
  0
BLOCK
  8
0
  2
*D1616
 70
     1
 10
0.0
 20
0.0
 30
0.0
  3
*D1616
  1

  0
LINE
  5
1A0
  8
回08-記事
  6
CONTINUOUS
 62
     5
 10
-52.96783403656172
 20
-97.48643274566502
 30
0.0
 11
-52.96783403656172
 21
-107.123019062895
 31
0.0
  0
LINE
  5
1A1
  8
回08-記事
  6
CONTINUOUS
 62
     5
 10
-47.96783403656172
 20
-97.78643274566507
 30
0.0
 11
-47.96783403656172
 21
-107.123019062895
 31
0.0
  0
LINE
  5
1A2
  8
回08-記事
  6
CONTINUOUS
 62
     5
 10
-54.96783403656173
 20
-106.123019062895
 30
0.0
 11
-56.96783403656173
 21
-106.123019062895
 31
0.0
  0
LINE
  5
1A3
  8
回08-記事
  6
CONTINUOUS
 62
     5
 10
-45.96783403656171
 20
-106.123019062895
 30
0.0
 11
-14.96755603656172
 21
-106.123019062895
 31
0.0
  0
LINE
  5
1A4
  8
回08-記事
  6
CONTINUOUS
 62
     5
 10
-52.96783403656172
 20
-106.123019062895
 30
0.0
 11
-47.96783403656172
 21
-106.123019062895
 31
0.0
  0
INSERT
  5
1A5
  8
回08-記事
  6
CONTINUOUS
 62
     5
  2
_OPEN
 10
-52.96783403656172
 20
-106.123019062895
 30
0.0
 41
2.0
 42
2.0
 43
2.0
  0
INSERT
  5
1A6
  8
回08-記事
  6
CONTINUOUS
 62
     5
  2
_OPEN
 10
-47.96783403656172
 20
-106.123019062895
 30
0.0
 41
2.0
 42
2.0
 43
2.0
 50
180.0
  0
INSERT
  5
1A7
  8
回08-記事
  6
CONTINUOUS
 62
     5
 66
     1
  2
*X4949
 10
0.0
 20
0.0
 30
0.0
  0
SEQEND
  5
408
  8
0
  6
CONTINUOUS
 62
     1
  0
POINT
  5
1A8
  8
DEFPOINTS
  6
CONTINUOUS
 62
     0
 10
-52.96783403656172
 20
-97.48643274566502
 30
0.0
  0
POINT
  5
1A9
  8
DEFPOINTS
  6
CONTINUOUS
 62
     0
 10
-47.96783403656172
 20
-97.78643274566507
 30
0.0
  0
POINT
  5
1AA
  8
DEFPOINTS
  6
CONTINUOUS
 62
     0
 10
-47.96783403656172
 20
-106.123019062895
 30
0.0
  0
ENDBLK
  5
1AB
  8
0
 62
    30
  0
BLOCK
  8
0
  2
*D1717
 70
     1
 10
0.0
 20
0.0
 30
0.0
  3
*D1717
  1

  0
LINE
  5
191
  8
回08-記事
  6
CONTINUOUS
 62
     5
 10
-49.26783403656182
 20
60.21356725433512
 30
0.0
 11
-36.78153654015754
 21
60.21356725433512
 31
0.0
  0
LINE
  5
192
  8
回08-記事
  6
CONTINUOUS
 62
     5
 10
-49.26783403656182
 20
50.21356725433512
 30
0.0
 11
-36.78153654015754
 21
50.21356725433512
 31
0.0
  0
LINE
  5
193
  8
回08-記事
  6
CONTINUOUS
 62
     5
 10
-37.78153654015753
 20
62.21356725433512
 30
0.0
 11
-37.78153654015753
 21
64.2135672543351
 31
0.0
  0
LINE
  5
194
  8
回08-記事
  6
CONTINUOUS
 62
     5
 10
-37.78153654015753
 20
48.21356725433513
 30
0.0
 11
-37.78153654015753
 21
22.25059631819551
 31
0.0
  0
LINE
  5
195
  8
回08-記事
  6
CONTINUOUS
 62
     5
 10
-37.78153654015753
 20
60.21356725433514
 30
0.0
 11
-37.78153654015753
 21
50.21356725433514
 31
0.0
  0
INSERT
  5
196
  8
回08-記事
  6
CONTINUOUS
 62
     5
  2
_OPEN
 10
-37.78153654015753
 20
60.21356725433514
 30
0.0
 41
2.0
 42
2.0
 43
2.0
 50
270.0
  0
INSERT
  5
197
  8
回08-記事
  6
CONTINUOUS
 62
     5
  2
_OPEN
 10
-37.78153654015753
 20
50.21356725433514
 30
0.0
 41
2.0
 42
2.0
 43
2.0
 50
90.0
  0
TEXT
  5
198
  8
回08-記事
  6
CONTINUOUS
 62
     5
 10
-38.43147663405519
 20
22.29924115878423
 30
0.0
 40
3.0
  1
(10 [0.394])
 50
90.0
1001
ACAD
1000
MTEXTBEGIN
1070
    73
1070
     1
1070
    44
1040
1.0
1070
    74
1070
     0
1000
MTEXTEND
  0
POINT
  5
199
  8
DEFPOINTS
  6
CONTINUOUS
 62
     0
 10
-49.26783403656182
 20
60.21356725433512
 30
0.0
  0
POINT
  5
19A
  8
DEFPOINTS
  6
CONTINUOUS
 62
     0
 10
-49.26783403656182
 20
50.21356725433512
 30
0.0
  0
POINT
  5
19B
  8
DEFPOINTS
  6
CONTINUOUS
 62
     0
 10
-37.78153654015753
 20
50.21356725433514
 30
0.0
  0
ENDBLK
  5
19C
  8
0
 62
    30
  0
BLOCK
  8
0
  2
*D1818
 70
     1
 10
0.0
 20
0.0
 30
0.0
  3
*D1818
  1

  0
LINE
  5
182
  8
回08-記事
  6
CONTINUOUS
 62
     5
 10
-51.96783403656181
 20
55.21356725433512
 30
0.0
 11
-56.81363027184953
 21
55.21356725433512
 31
0.0
  0
LINE
  5
183
  8
回08-記事
  6
CONTINUOUS
 62
     5
 10
-51.46783403656181
 20
60.21356725433512
 30
0.0
 11
-56.81363027184953
 21
60.21356725433512
 31
0.0
  0
LINE
  5
184
  8
回08-記事
  6
CONTINUOUS
 62
     5
 10
-55.81363027184952
 20
62.21356725433512
 30
0.0
 11
-55.81363027184952
 21
64.2135672543351
 31
0.0
  0
LINE
  5
185
  8
回08-記事
  6
CONTINUOUS
 62
     5
 10
-55.81363027184952
 20
53.21356725433512
 30
0.0
 11
-55.81363027184952
 21
30.8494152158333
 31
0.0
  0
LINE
  5
186
  8
回08-記事
  6
CONTINUOUS
 62
     5
 10
-55.81363027184952
 20
60.21356725433512
 30
0.0
 11
-55.81363027184952
 21
55.21356725433512
 31
0.0
  0
INSERT
  5
187
  8
回08-記事
  6
CONTINUOUS
 62
     5
  2
_OPEN
 10
-55.81363027184952
 20
60.21356725433512
 30
0.0
 41
2.0
 42
2.0
 43
2.0
 50
270.0
  0
INSERT
  5
188
  8
回08-記事
  6
CONTINUOUS
 62
     5
  2
_OPEN
 10
-55.81363027184952
 20
55.21356725433512
 30
0.0
 41
2.0
 42
2.0
 43
2.0
 50
90.0
  0
TEXT
  5
189
  8
回08-記事
  6
CONTINUOUS
 62
     5
 10
-56.46357036574717
 20
30.89924115878425
 30
0.0
 40
3.0
  1
5 [0.197]
 50
90.0
1001
ACAD
1000
MTEXTBEGIN
1070
    73
1070
     1
1070
    44
1040
1.0
1070
    74
1070
     0
1000
MTEXTEND
  0
POINT
  5
18A
  8
DEFPOINTS
  6
CONTINUOUS
 62
     0
 10
-51.96783403656181
 20
55.21356725433512
 30
0.0
  0
POINT
  5
18B
  8
DEFPOINTS
  6
CONTINUOUS
 62
     0
 10
-51.46783403656181
 20
60.21356725433512
 30
0.0
  0
POINT
  5
18C
  8
DEFPOINTS
  6
CONTINUOUS
 62
     0
 10
-55.81363027184952
 20
60.21356725433512
 30
0.0
  0
ENDBLK
  5
18D
  8
0
 62
    30
  0
BLOCK
  8
0
  2
*D1919
 70
     1
 10
0.0
 20
0.0
 30
0.0
  3
*D1919
  1

  0
LINE
  5
173
  8
回08-記事
  6
CONTINUOUS
 62
     5
 10
-51.46783403656178
 20
60.21356725433509
 30
0.0
 11
-51.46783403656178
 21
68.33794027374188
 31
0.0
  0
LINE
  5
174
  8
回08-記事
  6
CONTINUOUS
 62
     5
 10
-49.26783403656179
 20
60.21356725433509
 30
0.0
 11
-49.26783403656179
 21
68.33794027374188
 31
0.0
  0
LINE
  5
175
  8
回08-記事
  6
CONTINUOUS
 62
     5
 10
-53.46783403656178
 20
67.33794027374186
 30
0.0
 11
-55.46783403656178
 21
67.33794027374186
 31
0.0
  0
LINE
  5
176
  8
回08-記事
  6
CONTINUOUS
 62
     5
 10
-47.26783403656178
 20
67.33794027374186
 30
0.0
 11
-15.16478183183739
 21
67.33794027374186
 31
0.0
  0
LINE
  5
177
  8
回08-記事
  6
CONTINUOUS
 62
     5
 10
-51.46783403656178
 20
67.33794027374186
 30
0.0
 11
-49.26783403656179
 21
67.33794027374186
 31
0.0
  0
INSERT
  5
178
  8
回08-記事
  6
CONTINUOUS
 62
     5
  2
_OPEN
 10
-51.46783403656178
 20
67.33794027374186
 30
0.0
 41
2.0
 42
2.0
 43
2.0
  0
INSERT
  5
179
  8
回08-記事
  6
CONTINUOUS
 62
     5
  2
_OPEN
 10
-49.26783403656179
 20
67.33794027374186
 30
0.0
 41
2.0
 42
2.0
 43
2.0
 50
180.0
  0
INSERT
  5
17A
  8
回08-記事
  6
CONTINUOUS
 62
     5
 66
     1
  2
*X5050
 10
0.0
 20
0.0
 30
0.0
  0
SEQEND
  5
411
  8
0
  6
CONTINUOUS
 62
     1
  0
POINT
  5
17B
  8
DEFPOINTS
  6
CONTINUOUS
 62
     0
 10
-51.46783403656178
 20
60.21356725433509
 30
0.0
  0
POINT
  5
17C
  8
DEFPOINTS
  6
CONTINUOUS
 62
     0
 10
-49.26783403656179
 20
60.21356725433509
 30
0.0
  0
POINT
  5
17D
  8
DEFPOINTS
  6
CONTINUOUS
 62
     0
 10
-49.26783403656179
 20
67.33794027374186
 30
0.0
  0
ENDBLK
  5
17E
  8
0
 62
    30
  0
BLOCK
  8
0
  2
*D2020
 70
     1
 10
0.0
 20
0.0
 30
0.0
  3
*D2020
  1

  0
LINE
  5
13A
  8
回07-寸法
  6
CONTINUOUS
 62
     5
 10
-129.4025384488577
 20
-0.3864327456650189
 30
0.0
 11
-113.4254111107125
 21
-0.3864327456650189
 31
0.0
  0
LINE
  5
13B
  8
回07-寸法
  6
CONTINUOUS
 62
     5
 10
-123.8781327489099
 20
-9.786432745665026
 30
0.0
 11
-113.4254111107125
 21
-9.786432745665026
 31
0.0
  0
LINE
  5
13C
  8
回07-寸法
  6
CONTINUOUS
 62
     5
 10
-114.4254111107125
 20
-11.78643274566502
 30
0.0
 11
-114.4254111107125
 21
-13.78643274566503
 31
0.0
  0
LINE
  5
13D
  8
回07-寸法
  6
CONTINUOUS
 62
     5
 10
-114.4254111107125
 20
1.613567254334984
 30
0.0
 11
-114.4254111107125
 21
22.73783132304691
 31
0.0
  0
LINE
  5
13E
  8
回07-寸法
  6
CONTINUOUS
 62
     5
 10
-114.4254111107125
 20
-9.786432745665026
 30
0.0
 11
-114.4254111107125
 21
-0.3864327456650165
 31
0.0
  0
INSERT
  5
13F
  8
回07-寸法
  6
CONTINUOUS
 62
     5
  2
_OPEN
 10
-114.4254111107125
 20
-9.786432745665026
 30
0.0
 41
2.0
 42
2.0
 43
2.0
 50
90.0
  0
INSERT
  5
140
  8
回07-寸法
  6
CONTINUOUS
 62
     5
  2
_OPEN
 10
-114.4254111107125
 20
-0.3864327456650165
 30
0.0
 41
2.0
 42
2.0
 43
2.0
 50
270.0
  0
TEXT
  5
141
  8
回07-寸法
  6
CONTINUOUS
 62
     5
 10
-115.0754111107125
 20
3.71486818311004
 30
0.0
 40
3.0
  1
9.4 [0.370]
 50
90.0
1001
ACAD
1000
MTEXTBEGIN
1070
    73
1070
     1
1070
    44
1040
1.0
1070
    74
1070
     0
1000
MTEXTEND
  0
POINT
  5
142
  8
DEFPOINTS
  6
CONTINUOUS
 62
     0
 10
-129.4025384488577
 20
-0.3864327456650189
 30
0.0
  0
POINT
  5
143
  8
DEFPOINTS
  6
CONTINUOUS
 62
     0
 10
-123.8781327489099
 20
-9.786432745665026
 30
0.0
  0
POINT
  5
144
  8
DEFPOINTS
  6
CONTINUOUS
 62
     0
 10
-114.4254111107125
 20
-9.786432745665026
 30
0.0
  0
ENDBLK
  5
145
  8
0
 62
    30
  0
BLOCK
  8
0
  2
*D2121
 70
     1
 10
0.0
 20
0.0
 30
0.0
  3
*D2121
  1

  0
LINE
  5
121
  8
回07-寸法
  6
CONTINUOUS
 62
     5
 10
-224.4245675733477
 20
-97.78643274566505
 30
0.0
 11
-224.4245675733477
 21
-105.6021866770074
 31
0.0
  0
LINE
  5
122
  8
回07-寸法
  6
CONTINUOUS
 62
     5
 10
-166.6245675733477
 20
-98.65079839154169
 30
0.0
 11
-166.6245675733477
 21
-105.6021866770074
 31
0.0
  0
LINE
  5
123
  8
回07-寸法
  6
CONTINUOUS
 62
     5
 10
-222.4245675733477
 20
-104.6021866770074
 30
0.0
 11
-168.6245675733477
 21
-104.6021866770074
 31
0.0
  0
INSERT
  5
124
  8
回07-寸法
  6
CONTINUOUS
 62
     5
  2
_OPEN
 10
-224.4245675733477
 20
-104.6021866770074
 30
0.0
 41
2.0
 42
2.0
 43
2.0
 50
180.0
  0
INSERT
  5
125
  8
回07-寸法
  6
CONTINUOUS
 62
     5
  2
_OPEN
 10
-166.6245675733477
 20
-104.6021866770074
 30
0.0
 41
2.0
 42
2.0
 43
2.0
  0
INSERT
  5
126
  8
回07-寸法
  6
CONTINUOUS
 62
     5
 66
     1
  2
*X5151
 10
0.0
 20
0.0
 30
0.0
  0
SEQEND
  5
417
  8
0
  6
CONTINUOUS
 62
     1
  0
POINT
  5
127
  8
DEFPOINTS
  6
CONTINUOUS
 62
     0
 10
-224.4245675733477
 20
-97.78643274566505
 30
0.0
  0
POINT
  5
128
  8
DEFPOINTS
  6
CONTINUOUS
 62
     0
 10
-166.6245675733477
 20
-98.65079839154169
 30
0.0
  0
POINT
  5
129
  8
DEFPOINTS
  6
CONTINUOUS
 62
     0
 10
-166.6245675733477
 20
-104.6021866770074
 30
0.0
  0
ENDBLK
  5
12A
  8
0
 62
     1
  0
BLOCK
  8
0
  2
*D2222
 70
     1
 10
0.0
 20
0.0
 30
0.0
  3
*D2222
  1

  0
LINE
  5
114
  8
回07-寸法
  6
CONTINUOUS
 62
     5
 10
-113.2245675733478
 20
-97.78643274566507
 30
0.0
 11
-101.2089834763824
 21
-97.78643274566507
 31
0.0
  0
LINE
  5
115
  8
回07-寸法
  6
CONTINUOUS
 62
     5
 10
-111.6321135294625
 20
-56.18643274566506
 30
0.0
 11
-101.2089834763824
 21
-56.18643274566506
 31
0.0
  0
LINE
  5
116
  8
回07-寸法
  6
CONTINUOUS
 62
     5
 10
-102.2089834763824
 20
-95.78643274566507
 30
0.0
 11
-102.2089834763824
 21
-58.18643274566507
 31
0.0
  0
INSERT
  5
117
  8
回07-寸法
  6
CONTINUOUS
 62
     5
  2
_OPEN
 10
-102.2089834763824
 20
-97.78643274566507
 30
0.0
 41
2.0
 42
2.0
 43
2.0
 50
270.0
  0
INSERT
  5
118
  8
回07-寸法
  6
CONTINUOUS
 62
     5
  2
_OPEN
 10
-102.2089834763824
 20
-56.18643274566506
 30
0.0
 41
2.0
 42
2.0
 43
2.0
 50
90.0
  0
INSERT
  5
119
  8
回07-寸法
  6
CONTINUOUS
 62
     5
 66
     1
  2
*X5252
 10
0.0
 20
0.0
 30
0.0
  0
SEQEND
  5
41D
  8
0
  6
CONTINUOUS
 62
     1
  0
POINT
  5
11A
  8
DEFPOINTS
  6
CONTINUOUS
 62
     0
 10
-113.2245675733478
 20
-97.78643274566507
 30
0.0
  0
POINT
  5
11B
  8
DEFPOINTS
  6
CONTINUOUS
 62
     0
 10
-111.6321135294625
 20
-56.18643274566506
 30
0.0
  0
POINT
  5
11C
  8
DEFPOINTS
  6
CONTINUOUS
 62
     0
 10
-102.2089834763824
 20
-56.18643274566506
 30
0.0
  0
ENDBLK
  5
11D
  8
0
 62
     1
  0
BLOCK
  8
0
  2
*D2323
 70
     1
 10
0.0
 20
0.0
 30
0.0
  3
*D2323
  1

  0
LINE
  5
FE
  8
回07-寸法
  6
CONTINUOUS
 62
     5
 10
-224.4245675733477
 20
-9.786432745665022
 30
0.0
 11
-224.4245675733477
 21
69.18821447500068
 31
0.0
  0
LINE
  5
FF
  8
回07-寸法
  6
CONTINUOUS
 62
     5
 10
-135.9501574685304
 20
59.71356725433508
 30
0.0
 11
-135.9501574685304
 21
69.18821447500068
 31
0.0
  0
LINE
  5
100
  8
回07-寸法
  6
CONTINUOUS
 62
     5
 10
-222.4245675733477
 20
68.18821447500067
 30
0.0
 11
-137.9501574685304
 21
68.18821447500067
 31
0.0
  0
INSERT
  5
101
  8
回07-寸法
  6
CONTINUOUS
 62
     5
  2
_OPEN
 10
-224.4245675733477
 20
68.18821447500067
 30
0.0
 41
2.0
 42
2.0
 43
2.0
 50
180.0
  0
INSERT
  5
102
  8
回07-寸法
  6
CONTINUOUS
 62
     5
  2
_OPEN
 10
-135.9501574685304
 20
68.18821447500067
 30
0.0
 41
2.0
 42
2.0
 43
2.0
  0
TEXT
  5
103
  8
回07-寸法
  6
CONTINUOUS
 62
     5
 10
-193.0873625209391
 20
68.83821447500068
 30
0.0
 40
3.0
  1
(88.47 [3.483])
1001
ACAD
1000
MTEXTBEGIN
1070
    73
1070
     1
1070
    44
1040
1.0
1070
    74
1070
     0
1000
MTEXTEND
  0
POINT
  5
104
  8
DEFPOINTS
  6
CONTINUOUS
 62
     0
 10
-224.4245675733477
 20
-9.786432745665022
 30
0.0
  0
POINT
  5
105
  8
DEFPOINTS
  6
CONTINUOUS
 62
     0
 10
-135.9501574685304
 20
59.71356725433508
 30
0.0
  0
POINT
  5
106
  8
DEFPOINTS
  6
CONTINUOUS
 62
     0
 10
-135.9501574685304
 20
68.18821447500067
 30
0.0
  0
ENDBLK
  5
107
  8
0
 62
     8
  0
BLOCK
  8
0
  2
*D2424
 70
     1
 10
0.0
 20
0.0
 30
0.0
  3
*D2424
  1

  0
LINE
  5
E6
  8
回07-寸法
  6
CONTINUOUS
 62
     5
 10
-216.9245675733478
 20
-94.98643274566502
 30
0.0
 11
-216.9245675733478
 21
-146.5827106206187
 31
0.0
  0
LINE
  5
E7
  8
回07-寸法
  6
CONTINUOUS
 62
     5
 10
-116.3245675733477
 20
-94.98643274566507
 30
0.0
 11
-116.3245675733477
 21
-146.5827106206187
 31
0.0
  0
LINE
  5
E8
  8
回07-寸法
  6
CONTINUOUS
 62
     5
 10
-214.9245675733478
 20
-145.5827106206187
 30
0.0
 11
-118.3245675733477
 21
-145.5827106206187
 31
0.0
  0
INSERT
  5
E9
  8
回07-寸法
  6
CONTINUOUS
 62
     5
  2
_OPEN
 10
-216.9245675733478
 20
-145.5827106206187
 30
0.0
 41
2.0
 42
2.0
 43
2.0
 50
180.0
  0
INSERT
  5
EA
  8
回07-寸法
  6
CONTINUOUS
 62
     5
  2
_OPEN
 10
-116.3245675733477
 20
-145.5827106206187
 30
0.0
 41
2.0
 42
2.0
 43
2.0
  0
TEXT
  5
EB
  8
回07-寸法
  6
CONTINUOUS
 62
     5
 10
-177.4299831261382
 20
-144.932770526721
 30
0.0
 40
3.0
  1
100.6 [3.961]
1001
ACAD
1000
MTEXTBEGIN
1070
    73
1070
     1
1070
    44
1040
1.0
1070
    74
1070
     0
1000
MTEXTEND
  0
POINT
  5
EC
  8
DEFPOINTS
  6
CONTINUOUS
 62
     0
 10
-216.9245675733478
 20
-94.98643274566502
 30
0.0
  0
POINT
  5
ED
  8
DEFPOINTS
  6
CONTINUOUS
 62
     0
 10
-116.3245675733477
 20
-94.98643274566507
 30
0.0
  0
POINT
  5
EE
  8
DEFPOINTS
  6
CONTINUOUS
 62
     0
 10
-116.3245675733477
 20
-145.5827106206187
 30
0.0
  0
ENDBLK
  5
EF
  8
0
 62
     7
  0
BLOCK
  8
0
  2
*D2525
 70
     1
 10
0.0
 20
0.0
 30
0.0
  3
*D2525
  1

  0
LINE
  5
D7
  8
回07-寸法
  6
CONTINUOUS
 62
     5
 10
-224.4245675733477
 20
-97.78643274566505
 30
0.0
 11
-224.4245675733477
 21
-146.5827106206187
 31
0.0
  0
LINE
  5
D8
  8
回07-寸法
  6
CONTINUOUS
 62
     5
 10
-216.9245675733478
 20
-94.98643274566502
 30
0.0
 11
-216.9245675733478
 21
-146.5827106206187
 31
0.0
  0
LINE
  5
D9
  8
回07-寸法
  6
CONTINUOUS
 62
     5
 10
-214.9245675733478
 20
-145.5827106206187
 30
0.0
 11
-212.9245675733478
 21
-145.5827106206187
 31
0.0
  0
LINE
  5
DA
  8
回07-寸法
  6
CONTINUOUS
 62
     5
 10
-226.4245675733477
 20
-145.5827106206187
 30
0.0
 11
-247.1350505648306
 21
-145.5827106206187
 31
0.0
  0
LINE
  5
DB
  8
回07-寸法
  6
CONTINUOUS
 62
     5
 10
-216.9245675733478
 20
-145.5827106206187
 30
0.0
 11
-224.4245675733477
 21
-145.5827106206187
 31
0.0
  0
INSERT
  5
DC
  8
回07-寸法
  6
CONTINUOUS
 62
     5
  2
_OPEN
 10
-216.9245675733478
 20
-145.5827106206187
 30
0.0
 41
2.0
 42
2.0
 43
2.0
 50
180.0
  0
INSERT
  5
DD
  8
回07-寸法
  6
CONTINUOUS
 62
     5
  2
_OPEN
 10
-224.4245675733477
 20
-145.5827106206187
 30
0.0
 41
2.0
 42
2.0
 43
2.0
  0
TEXT
  5
DE
  8
回07-寸法
  6
CONTINUOUS
 62
     5
 10
-247.0852246218796
 20
-144.932770526721
 30
0.0
 40
3.0
  1
7.5 [0.295]
1001
ACAD
1000
MTEXTBEGIN
1070
    73
1070
     1
1070
    44
1040
1.0
1070
    74
1070
     0
1000
MTEXTEND
  0
POINT
  5
DF
  8
DEFPOINTS
  6
CONTINUOUS
 62
     0
 10
-224.4245675733477
 20
-97.78643274566505
 30
0.0
  0
POINT
  5
E0
  8
DEFPOINTS
  6
CONTINUOUS
 62
     0
 10
-216.9245675733478
 20
-94.98643274566502
 30
0.0
  0
POINT
  5
E1
  8
DEFPOINTS
  6
CONTINUOUS
 62
     0
 10
-216.9245675733478
 20
-145.5827106206187
 30
0.0
  0
ENDBLK
  5
E2
  8
0
 62
     7
  0
BLOCK
  8
0
  2
*D2626
 70
     1
 10
0.0
 20
0.0
 30
0.0
  3
*D2626
  1

  0
LINE
  5
C8
  8
回07-寸法
  6
CONTINUOUS
 62
     5
 10
-116.3245675733477
 20
-94.98643274566507
 30
0.0
 11
-116.3245675733477
 21
-146.5827106206187
 31
0.0
  0
LINE
  5
C9
  8
回07-寸法
  6
CONTINUOUS
 62
     5
 10
-113.2245675733478
 20
-97.78643274566505
 30
0.0
 11
-113.2245675733478
 21
-146.5827106206187
 31
0.0
  0
LINE
  5
CA
  8
回07-寸法
  6
CONTINUOUS
 62
     5
 10
-118.3245675733477
 20
-145.5827106206187
 30
0.0
 11
-120.3245675733477
 21
-145.5827106206187
 31
0.0
  0
LINE
  5
CB
  8
回07-寸法
  6
CONTINUOUS
 62
     5
 10
-111.2245675733477
 20
-145.5827106206187
 30
0.0
 11
-89.32692977807219
 21
-145.5827106206187
 31
0.0
  0
LINE
  5
CC
  8
回07-寸法
  6
CONTINUOUS
 62
     5
 10
-116.3245675733477
 20
-145.5827106206187
 30
0.0
 11
-113.2245675733478
 21
-145.5827106206187
 31
0.0
  0
INSERT
  5
CD
  8
回07-寸法
  6
CONTINUOUS
 62
     5
  2
_OPEN
 10
-116.3245675733477
 20
-145.5827106206187
 30
0.0
 41
2.0
 42
2.0
 43
2.0
  0
INSERT
  5
CE
  8
回07-寸法
  6
CONTINUOUS
 62
     5
  2
_OPEN
 10
-113.2245675733478
 20
-145.5827106206187
 30
0.0
 41
2.0
 42
2.0
 43
2.0
 50
180.0
  0
TEXT
  5
CF
  8
回07-寸法
  6
CONTINUOUS
 62
     5
 10
-109.1757486757099
 20
-144.9327106206187
 30
0.0
 40
3.0
  1
(3.1 [0.122])
1001
ACAD
1000
MTEXTBEGIN
1070
    73
1070
     1
1070
    44
1040
1.0
1070
    74
1070
     0
1000
MTEXTEND
  0
POINT
  5
D0
  8
DEFPOINTS
  6
CONTINUOUS
 62
     0
 10
-116.3245675733477
 20
-94.98643274566507
 30
0.0
  0
POINT
  5
D1
  8
DEFPOINTS
  6
CONTINUOUS
 62
     0
 10
-113.2245675733478
 20
-97.78643274566505
 30
0.0
  0
POINT
  5
D2
  8
DEFPOINTS
  6
CONTINUOUS
 62
     0
 10
-113.2245675733478
 20
-145.5827106206187
 30
0.0
  0
ENDBLK
  5
D3
  8
0
 62
     7
  0
BLOCK
  8
0
  2
*D2727
 70
     1
 10
0.0
 20
0.0
 30
0.0
  3
*D2727
  1

  0
LINE
  5
B9
  8
回07-寸法
  6
CONTINUOUS
 62
     5
 10
-113.2245675733478
 20
-9.786432745665026
 30
0.0
 11
-81.66202935676349
 21
-9.786432745665026
 31
0.0
  0
LINE
  5
BA
  8
回07-寸法
  6
CONTINUOUS
 62
     5
 10
-116.3245675733478
 20
-17.38643274566505
 30
0.0
 11
-81.66202935676349
 21
-17.38643274566505
 31
0.0
  0
LINE
  5
BB
  8
回07-寸法
  6
CONTINUOUS
 62
     5
 10
-82.66202935676348
 20
-19.38643274566505
 30
0.0
 11
-82.66202935676348
 21
-21.38643274566505
 31
0.0
  0
LINE
  5
BC
  8
回07-寸法
  6
CONTINUOUS
 62
     5
 10
-82.66202935676348
 20
-7.786432745665021
 30
0.0
 11
-82.66202935676348
 21
15.33217103257621
 31
0.0
  0
LINE
  5
BD
  8
回07-寸法
  6
CONTINUOUS
 62
     5
 10
-82.66202935676348
 20
-17.38643274566505
 30
0.0
 11
-82.66202935676348
 21
-9.786432745665022
 31
0.0
  0
INSERT
  5
BE
  8
回07-寸法
  6
CONTINUOUS
 62
     5
  2
_OPEN
 10
-82.66202935676348
 20
-17.38643274566505
 30
0.0
 41
2.0
 42
2.0
 43
2.0
 50
90.0
  0
INSERT
  5
BF
  8
回07-寸法
  6
CONTINUOUS
 62
     5
  2
_OPEN
 10
-82.66202935676348
 20
-9.786432745665022
 30
0.0
 41
2.0
 42
2.0
 43
2.0
 50
270.0
  0
TEXT
  5
C0
  8
回07-寸法
  6
CONTINUOUS
 62
     5
 10
-83.31190954455882
 20
-5.737961962125312
 30
0.0
 40
3.0
  1
(7.6 [0.299])
 50
90.0
1001
ACAD
1000
MTEXTBEGIN
1070
    73
1070
     1
1070
    44
1040
1.0
1070
    74
1070
     0
1000
MTEXTEND
  0
POINT
  5
C1
  8
DEFPOINTS
  6
CONTINUOUS
 62
     0
 10
-113.2245675733478
 20
-9.786432745665026
 30
0.0
  0
POINT
  5
C2
  8
DEFPOINTS
  6
CONTINUOUS
 62
     0
 10
-116.3245675733478
 20
-17.38643274566505
 30
0.0
  0
POINT
  5
C3
  8
DEFPOINTS
  6
CONTINUOUS
 62
     0
 10
-82.66202935676348
 20
-17.38643274566505
 30
0.0
  0
ENDBLK
  5
C4
  8
0
 62
     7
  0
BLOCK
  8
0
  2
*D2828
 70
     1
 10
0.0
 20
0.0
 30
0.0
  3
*D2828
  1

  0
LINE
  5
AC
  8
回07-寸法
  6
CONTINUOUS
 62
     5
 10
-116.3245675733478
 20
-17.38643274566505
 30
0.0
 11
-81.6620293567635
 21
-17.38643274566505
 31
0.0
  0
LINE
  5
AD
  8
回07-寸法
  6
CONTINUOUS
 62
     5
 10
-116.3245675733478
 20
-94.98643274566507
 30
0.0
 11
-81.6620293567635
 21
-94.98643274566507
 31
0.0
  0
LINE
  5
AE
  8
回07-寸法
  6
CONTINUOUS
 62
     5
 10
-82.66202935676352
 20
-19.38643274566505
 30
0.0
 11
-82.66202935676352
 21
-92.98643274566506
 31
0.0
  0
INSERT
  5
AF
  8
回07-寸法
  6
CONTINUOUS
 62
     5
  2
_OPEN
 10
-82.66202935676352
 20
-17.38643274566505
 30
0.0
 41
2.0
 42
2.0
 43
2.0
 50
90.0
  0
INSERT
  5
B0
  8
回07-寸法
  6
CONTINUOUS
 62
     5
  2
_OPEN
 10
-82.66202935676352
 20
-94.98643274566507
 30
0.0
 41
2.0
 42
2.0
 43
2.0
 50
270.0
  0
TEXT
  5
B1
  8
回07-寸法
  6
CONTINUOUS
 62
     5
 10
-83.31202935676353
 20
-66.53643274566504
 30
0.0
 40
3.0
  1
77.6 [3.055]
 50
90.0
1001
ACAD
1000
MTEXTBEGIN
1070
    73
1070
     1
1070
    44
1040
1.0
1070
    74
1070
     0
1000
MTEXTEND
  0
POINT
  5
B2
  8
DEFPOINTS
  6
CONTINUOUS
 62
     0
 10
-116.3245675733478
 20
-17.38643274566505
 30
0.0
  0
POINT
  5
B3
  8
DEFPOINTS
  6
CONTINUOUS
 62
     0
 10
-116.3245675733478
 20
-94.98643274566507
 30
0.0
  0
POINT
  5
B4
  8
DEFPOINTS
  6
CONTINUOUS
 62
     0
 10
-82.66202935676352
 20
-94.98643274566507
 30
0.0
  0
ENDBLK
  5
B5
  8
0
 62
     7
  0
BLOCK
  8
0
  2
*D2929
 70
     1
 10
0.0
 20
0.0
 30
0.0
  3
*D2929
  1

  0
LINE
  5
9D
  8
回07-寸法
  6
CONTINUOUS
 62
     5
 10
-116.3245675733478
 20
-94.98643274566507
 30
0.0
 11
-81.66202935676354
 21
-94.98643274566507
 31
0.0
  0
LINE
  5
9E
  8
回07-寸法
  6
CONTINUOUS
 62
     5
 10
-113.2245675733478
 20
-97.78643274566507
 30
0.0
 11
-81.6620293567635
 21
-97.78643274566507
 31
0.0
  0
LINE
  5
9F
  8
回07-寸法
  6
CONTINUOUS
 62
     5
 10
-82.66202935676354
 20
-92.98643274566506
 30
0.0
 11
-82.66202935676354
 21
-90.98643274566507
 31
0.0
  0
LINE
  5
A0
  8
回07-寸法
  6
CONTINUOUS
 62
     5
 10
-82.66202935676352
 20
-99.78643274566508
 30
0.0
 11
-82.66202935676352
 21
-119.3626138480272
 31
0.0
  0
LINE
  5
A1
  8
回07-寸法
  6
CONTINUOUS
 62
     5
 10
-82.66202935676354
 20
-94.98643274566507
 30
0.0
 11
-82.66202935676354
 21
-97.78643274566507
 31
0.0
  0
INSERT
  5
A2
  8
回07-寸法
  6
CONTINUOUS
 62
     5
  2
_OPEN
 10
-82.66202935676354
 20
-94.98643274566507
 30
0.0
 41
2.0
 42
2.0
 43
2.0
 50
270.0
  0
INSERT
  5
A3
  8
回07-寸法
  6
CONTINUOUS
 62
     5
  2
_OPEN
 10
-82.66202935676352
 20
-97.78643274566507
 30
0.0
 41
2.0
 42
2.0
 43
2.0
 50
90.0
  0
TEXT
  5
A4
  8
回07-寸法
  6
CONTINUOUS
 62
     5
 10
-83.31202935676355
 20
-119.2745232968461
 30
0.0
 40
3.0
  1
2.8 [0.110]
 50
90.0
1001
ACAD
1000
MTEXTBEGIN
1070
    73
1070
     1
1070
    44
1040
1.0
1070
    74
1070
     0
1000
MTEXTEND
  0
POINT
  5
A5
  8
DEFPOINTS
  6
CONTINUOUS
 62
     0
 10
-116.3245675733478
 20
-94.98643274566507
 30
0.0
  0
POINT
  5
A6
  8
DEFPOINTS
  6
CONTINUOUS
 62
     0
 10
-113.2245675733478
 20
-97.78643274566507
 30
0.0
  0
POINT
  5
A7
  8
DEFPOINTS
  6
CONTINUOUS
 62
     0
 10
-82.66202935676352
 20
-97.78643274566507
 30
0.0
  0
ENDBLK
  5
A8
  8
0
 62
     7
  0
BLOCK
  8
0
  2
*D3030
 70
     1
 10
0.0
 20
0.0
 30
0.0
  3
*D3030
  1

  0
LINE
  5
7C
  8
回07-寸法
  6
CONTINUOUS
 62
     5
 10
42.94371280250106
 20
4.05493758083702
 30
0.0
 11
42.94371280250106
 21
21.69279887031917
 31
0.0
  0
LINE
  5
7D
  8
回07-寸法
  6
CONTINUOUS
 62
     5
 10
50.44371280250107
 20
4.061418930942123
 30
0.0
 11
50.44371280250107
 21
21.69279887031917
 31
0.0
  0
LINE
  5
7E
  8
回07-寸法
  6
CONTINUOUS
 62
     5
 10
40.94371280250107
 20
20.69279887031917
 30
0.0
 11
38.94371280250107
 21
20.69279887031917
 31
0.0
  0
LINE
  5
7F
  8
回07-寸法
  6
CONTINUOUS
 62
     5
 10
52.44371280250106
 20
20.69279887031917
 30
0.0
 11
92.02861708167059
 21
20.69279887031917
 31
0.0
  0
LINE
  5
80
  8
回07-寸法
  6
CONTINUOUS
 62
     5
 10
42.94371280250106
 20
20.69279887031917
 30
0.0
 11
50.44371280250107
 21
20.69279887031917
 31
0.0
  0
INSERT
  5
81
  8
回07-寸法
  6
CONTINUOUS
 62
     5
  2
_OPEN
 10
42.94371280250106
 20
20.69279887031917
 30
0.0
 41
2.0
 42
2.0
 43
2.0
  0
INSERT
  5
82
  8
回07-寸法
  6
CONTINUOUS
 62
     5
  2
_OPEN
 10
50.44371280250107
 20
20.69279887031917
 30
0.0
 41
2.0
 42
2.0
 43
2.0
 50
180.0
  0
INSERT
  5
83
  8
回07-寸法
  6
CONTINUOUS
 62
     5
 66
     1
  2
*X5353
 10
0.0
 20
0.0
 30
0.0
  0
SEQEND
  5
426
  8
0
  6
CONTINUOUS
 62
     1
  0
POINT
  5
84
  8
DEFPOINTS
  6
CONTINUOUS
 62
     0
 10
42.94371280250106
 20
4.05493758083702
 30
0.0
  0
POINT
  5
85
  8
DEFPOINTS
  6
CONTINUOUS
 62
     0
 10
50.44371280250107
 20
4.061418930942123
 30
0.0
  0
POINT
  5
86
  8
DEFPOINTS
  6
CONTINUOUS
 62
     0
 10
50.44371280250107
 20
20.69279887031917
 30
0.0
  0
ENDBLK
  5
87
  8
0
 62
     7
  0
BLOCK
  8
0
  2
*D3131
 70
     1
 10
0.0
 20
0.0
 30
0.0
  3
*D3131
  1

  0
LINE
  5
6B
  8
回07-寸法
  6
CONTINUOUS
 62
     5
 10
-123.8781327489099
 20
-9.786432745665036
 30
0.0
 11
-118.2552235037554
 21
-9.786432745665036
 31
0.0
  0
LINE
  5
6C
  8
回07-寸法
  6
CONTINUOUS
 62
     5
 10
-124.8257706076195
 20
-5.394502837298944
 30
0.0
 11
-118.2552235037554
 21
-5.394502837298944
 31
0.0
  0
LINE
  5
6D
  8
回07-寸法
  6
CONTINUOUS
 62
     5
 10
-119.2552235037554
 20
-11.78643274566503
 30
0.0
 11
-119.2552235037554
 21
-13.78643274566504
 31
0.0
  0
LINE
  5
6E
  8
回07-寸法
  6
CONTINUOUS
 62
     5
 10
-119.2552235037554
 20
-3.394502837298944
 30
0.0
 11
-119.2552235037554
 21
23.30647374095653
 31
0.0
  0
LINE
  5
6F
  8
回07-寸法
  6
CONTINUOUS
 62
     5
 10
-119.2552235037554
 20
-9.786432745665036
 30
0.0
 11
-119.2552235037554
 21
-5.394502837298943
 31
0.0
  0
INSERT
  5
70
  8
回07-寸法
  6
CONTINUOUS
 62
     5
  2
_OPEN
 10
-119.2552235037554
 20
-9.786432745665036
 30
0.0
 41
2.0
 42
2.0
 43
2.0
 50
90.0
  0
INSERT
  5
71
  8
回07-寸法
  6
CONTINUOUS
 62
     5
  2
_OPEN
 10
-119.2552235037554
 20
-5.394502837298943
 30
0.0
 41
2.0
 42
2.0
 43
2.0
 50
270.0
  0
TEXT
  5
72
  8
回07-寸法
  6
CONTINUOUS
 62
     5
 10
-119.9052235037554
 20
2.845816692424676
 30
0.0
 40
3.0
  1
4.39 [0.173]
 50
90.0
1001
ACAD
1000
MTEXTBEGIN
1070
    73
1070
     1
1070
    44
1040
1.0
1070
    74
1070
     0
1000
MTEXTEND
  0
POINT
  5
73
  8
DEFPOINTS
  6
CONTINUOUS
 62
     0
 10
-123.8781327489099
 20
-9.786432745665036
 30
0.0
  0
POINT
  5
75
  8
DEFPOINTS
  6
CONTINUOUS
 62
     0
 10
-124.8257706076195
 20
-5.394502837298944
 30
0.0
  0
POINT
  5
76
  8
DEFPOINTS
  6
CONTINUOUS
 62
     0
 10
-119.2552235037554
 20
-5.394502837298943
 30
0.0
  0
ENDBLK
  5
77
  8
0
 62
     5
  0
BLOCK
  8
0
  2
*X3232
 70
     1
 10
0.0
 20
0.0
 30
0.0
  3
*X3232
  1

  0
INSERT
  5
323
  8
回07-寸法
  6
CONTINUOUS
 62
     5
  2
_OPEN
 10
-136.5132204228796
 20
-5.394949741264722
 30
0.0
 41
2.0
 42
2.0
 43
2.0
 50
300.7381501308036
  0
LINE
  5
324
  8
回07-寸法
  6
CONTINUOUS
 62
     5
 10
-137.5354510896157
 20
-3.675925464535526
 30
0.0
 11
-143.9551488051811
 21
7.119696875338262
 31
0.0
  0
LINE
  5
325
  8
回07-寸法
  6
CONTINUOUS
 62
     5
 10
-143.9551488051811
 20
7.119696875338262
 30
0.0
 11
-168.0659799107621
 21
7.119696875338262
 31
0.0
  0
ENDBLK
  5
327
  8
0
  6
CONTINUOUS
 62
     1
  0
BLOCK
  8
0
  2
*X3333
 70
     1
 10
0.0
 20
0.0
 30
0.0
  3
*X3333
  1

  0
INSERT
  5
32F
  8
回07-寸法
  6
CONTINUOUS
 62
     5
  2
_OPEN
 10
-50.44186791899488
 20
24.99992033632941
 30
0.0
 41
2.0
 42
2.0
 43
2.0
 50
117.4584673426119
  0
LINE
  5
330
  8
回07-寸法
  6
CONTINUOUS
 62
     5
 10
-49.51965689073634
 20
23.22522970995017
 30
0.0
 11
-43.81606429321849
 21
12.24931204106781
 31
0.0
  0
LINE
  5
331
  8
回07-寸法
  6
CONTINUOUS
 62
     5
 10
-43.81606429321849
 20
12.24931204106781
 30
0.0
 11
-22.1160642932185
 21
12.24931204106781
 31
0.0
  0
ENDBLK
  5
333
  8
0
  6
CONTINUOUS
 62
     1
  0
BLOCK
  8
0
  2
*X3434
 70
     1
 10
0.0
 20
0.0
 30
0.0
  3
*X3434
  1

  0
LINE
  5
33B
  8
回07-寸法
  6
CONTINUOUS
 62
     8
 10
-135.3245675733477
 20
34.90173035630331
 30
0.0
 11
-133.4525738505682
 21
36.77372407908285
 31
0.0
  0
LINE
  5
33C
  8
回07-寸法
  6
CONTINUOUS
 62
     8
 10
-135.3245675733477
 20
32.25007992685379
 30
0.0
 11
-130.8969592878735
 21
36.67768821232804
 31
0.0
  0
LINE
  5
33D
  8
回07-寸法
  6
CONTINUOUS
 62
     8
 10
-135.3245675733477
 20
29.59842949740421
 30
0.0
 11
-130.3245675733477
 21
34.59842949740421
 31
0.0
  0
LINE
  5
33E
  8
回07-寸法
  6
CONTINUOUS
 62
     8
 10
-135.3245675733477
 20
26.94677906795468
 30
0.0
 11
-130.3245675733477
 21
31.94677906795468
 31
0.0
  0
LINE
  5
33F
  8
回07-寸法
  6
CONTINUOUS
 62
     8
 10
-135.3245675733478
 20
24.29512863850511
 30
0.0
 11
-130.3245675733477
 21
29.29512863850512
 31
0.0
  0
LINE
  5
340
  8
回07-寸法
  6
CONTINUOUS
 62
     8
 10
-135.3245675733478
 20
21.64347820905556
 30
0.0
 11
-130.3245675733478
 21
26.64347820905556
 31
0.0
  0
LINE
  5
341
  8
回07-寸法
  6
CONTINUOUS
 62
     8
 10
-135.3245675733477
 20
18.99182777960605
 30
0.0
 11
-130.3245675733477
 21
23.99182777960605
 31
0.0
  0
LINE
  5
342
  8
回07-寸法
  6
CONTINUOUS
 62
     8
 10
-135.3245675733477
 20
16.34017735015651
 30
0.0
 11
-130.3245675733477
 21
21.34017735015651
 31
0.0
  0
LINE
  5
343
  8
回07-寸法
  6
CONTINUOUS
 62
     8
 10
-135.3245675733477
 20
13.68852692070695
 30
0.0
 11
-130.3245675733477
 21
18.68852692070695
 31
0.0
  0
LINE
  5
344
  8
回07-寸法
  6
CONTINUOUS
 62
     8
 10
-135.1509010766199
 20
11.21054298798521
 30
0.0
 11
-130.3245675733477
 21
16.0368764912574
 31
0.0
  0
LINE
  5
345
  8
回07-寸法
  6
CONTINUOUS
 62
     8
 10
-132.9360695560727
 20
10.77372407908287
 30
0.0
 11
-130.3245675733477
 21
13.38522606180786
 31
0.0
  0
ENDBLK
  5
347
  8
0
  6
CONTINUOUS
 62
     1
  0
BLOCK
  8
0
  2
*X3535
 70
     1
 10
0.0
 20
0.0
 30
0.0
  3
*X3535
  1

  0
INSERT
  5
353
  8
回07-寸法
  6
CONTINUOUS
 62
     5
  2
_OPEN
 10
-134.8308231371274
 20
33.7678387395797
 30
0.0
 41
2.0
 42
2.0
 43
2.0
 50
323.7090954730748
  0
LINE
  5
354
  8
回07-寸法
  6
CONTINUOUS
 62
     5
 10
-136.4428676407055
 20
34.9516092065552
 30
0.0
 11
-144.5939040813189
 21
40.93714880687139
 31
0.0
  0
LINE
  5
355
  8
回07-寸法
  6
CONTINUOUS
 62
     5
 10
-144.5939040813189
 20
40.93714880687139
 30
0.0
 11
-163.0939040813189
 21
40.93714880687139
 31
0.0
  0
ENDBLK
  5
357
  8
0
  6
CONTINUOUS
 62
     1
  0
BLOCK
  8
0
  2
*X3636
 70
     1
 10
0.0
 20
0.0
 30
0.0
  3
*X3636
  1

  0
INSERT
  5
35A
  8
回07-寸法
  6
CONTINUOUS
 62
     5
  2
_OPEN
 10
40.48598403861797
 20
3.770816890648346
 30
0.0
 41
2.0
 42
2.0
 43
2.0
 50
321.0234007661874
  0
LINE
  5
35B
  8
回07-寸法
  6
CONTINUOUS
 62
     5
 10
38.93117819075823
 20
5.028822763234464
 30
0.0
 11
35.82772844770506
 21
7.539848823119065
 31
0.0
  0
LINE
  5
35C
  8
回07-寸法
  6
CONTINUOUS
 62
     5
 10
35.82772844770506
 20
7.539848823119065
 30
0.0
 11
8.427728447705053
 21
7.539848823119065
 31
0.0
  0
ENDBLK
  5
35E
  8
0
  6
CONTINUOUS
 62
     1
  0
BLOCK
  8
0
  2
*X3737
 70
     1
 10
0.0
 20
0.0
 30
0.0
  3
*X3737
  1

  0
INSERT
  5
361
  8
回07-寸法
  6
CONTINUOUS
 62
     5
  2
_OPEN
 10
-223.2211091987519
 20
-86.89167590743455
 30
0.0
 41
2.0
 42
2.0
 43
2.0
 50
284.8073638560612
  0
LINE
  5
362
  8
回07-寸法
  6
CONTINUOUS
 62
     5
 10
-223.7322492295204
 20
-84.95809480777879
 30
0.0
 11
-225.2441928823691
 21
-79.23859428950163
 31
0.0
  0
LINE
  5
363
  8
回07-寸法
  6
CONTINUOUS
 62
     5
 10
-225.2441928823691
 20
-79.23859428950163
 30
0.0
 11
-243.9441928823691
 21
-79.23859428950163
 31
0.0
  0
ENDBLK
  5
365
  8
0
  6
CONTINUOUS
 62
     1
  0
BLOCK
  8
0
  2
*X3838
 70
     1
 10
0.0
 20
0.0
 30
0.0
  3
*X3838
  1

  0
INSERT
  5
368
  8
回07-寸法
  6
CONTINUOUS
 62
     5
  2
_OPEN
 10
-141.5795783709786
 20
-9.472811960541319
 30
0.0
 41
2.0
 42
2.0
 43
2.0
 50
293.6057946484587
  0
LINE
  5
369
  8
回07-寸法
  6
CONTINUOUS
 62
     5
 10
-142.3804617859595
 20
-7.640167489944634
 30
0.0
 11
-143.4463607641278
 21
-5.201093547326536
 31
0.0
  0
LINE
  5
36A
  8
回07-寸法
  6
CONTINUOUS
 62
     5
 10
-143.4463607641278
 20
-5.201093547326536
 30
0.0
 11
-167.8571918697087
 21
-5.201093547326536
 31
0.0
  0
ENDBLK
  5
36C
  8
0
  6
CONTINUOUS
 62
     1
  0
BLOCK
  8
0
  2
*X3939
 70
     1
 10
0.0
 20
0.0
 30
0.0
  3
*X3939
  1

  0
INSERT
  5
36F
  8
回07-寸法
  6
CONTINUOUS
 62
     5
  2
_OPEN
 10
-140.7655190557984
 20
-4.997678308168815
 30
0.0
 41
1.999999999999999
 42
1.999999999999999
 43
2.0
 50
301.5880793444008
  0
LINE
  5
370
  8
回07-寸法
  6
CONTINUOUS
 62
     5
 10
-141.8131364334944
 20
-3.294006441303161
 30
0.0
 11
-143.9551488051811
 21
0.189408681255145
 31
0.0
  0
LINE
  5
371
  8
回07-寸法
  6
CONTINUOUS
 62
     5
 10
-143.9551488051811
 20
0.189408681255145
 30
0.0
 11
-168.0659799107621
 21
0.189408681255145
 31
0.0
  0
ENDBLK
  5
373
  8
0
  6
CONTINUOUS
 62
     1
  0
BLOCK
  8
0
  2
*X4040
 70
     1
 10
0.0
 20
0.0
 30
0.0
  3
*X4040
  1

  0
INSERT
  5
376
  8
回07-寸法
  6
CONTINUOUS
 62
     5
  2
_OPEN
 10
-136.9491797747109
 20
56.19085851832415
 30
0.0
 41
2.0
 42
2.0
 43
2.0
 50
58.3995312422875
  0
LINE
  5
377
  8
回07-寸法
  6
CONTINUOUS
 62
     5
 10
-137.9971655231947
 20
54.48741322393547
 30
0.0
 11
-139.4573228560566
 21
52.11400486286811
 31
0.0
  0
LINE
  5
378
  8
回07-寸法
  6
CONTINUOUS
 62
     5
 10
-139.4573228560566
 20
52.11400486286811
 30
0.0
 11
-143.7573228560566
 21
52.11400486286811
 31
0.0
  0
ENDBLK
  5
37A
  8
0
  6
CONTINUOUS
 62
     1
  0
BLOCK
  8
0
  2
*X4141
 70
     1
 10
0.0
 20
0.0
 30
0.0
  3
*X4141
  1

  0
LINE
  5
37D
  8
回08-記事
  6
CONTINUOUS
 62
     8
 10
-127.3254682797424
 20
-5.394949741264721
 30
0.0
 11
-125.4218847609322
 21
-7.298533260074901
 31
0.0
  0
LINE
  5
37E
  8
回08-記事
  6
CONTINUOUS
 62
     8
 10
-129.5705323100097
 20
-5.394949741264735
 30
0.0
 11
-125.4218847609323
 21
-9.543597290342161
 31
0.0
  0
LINE
  5
37F
  8
回08-記事
  6
CONTINUOUS
 62
     8
 10
-131.815596340277
 20
-5.39494974126471
 30
0.0
 11
-125.4218847609323
 21
-11.78866132060944
 31
0.0
  0
LINE
  5
380
  8
回08-記事
  6
CONTINUOUS
 62
     8
 10
-134.0606603705443
 20
-5.394949741264728
 30
0.0
 11
-126.3691773661441
 21
-13.08643274566491
 31
0.0
  0
LINE
  5
381
  8
回08-記事
  6
CONTINUOUS
 62
     8
 10
-136.3057244008115
 20
-5.394949741264731
 30
0.0
 11
-128.6142413964114
 21
-13.08643274566493
 31
0.0
  0
LINE
  5
382
  8
回08-記事
  6
CONTINUOUS
 62
     8
 10
-138.5507884310788
 20
-5.394949741264723
 30
0.0
 11
-130.8593054266786
 21
-13.08643274566492
 31
0.0
  0
LINE
  5
383
  8
回08-記事
  6
CONTINUOUS
 62
     8
 10
-140.2245675733481
 20
-5.966234629262795
 30
0.0
 11
-133.1043694569459
 21
-13.08643274566491
 31
0.0
  0
LINE
  5
384
  8
回08-記事
  6
CONTINUOUS
 62
     8
 10
-140.2245675733481
 20
-8.211298659530065
 30
0.0
 11
-135.3494334872132
 21
-13.08643274566491
 31
0.0
  0
LINE
  5
385
  8
回08-記事
  6
CONTINUOUS
 62
     8
 10
-140.224567573348
 20
-10.45636268979738
 30
0.0
 11
-137.5944975174805
 21
-13.08643274566492
 31
0.0
  0
LINE
  5
386
  8
回08-記事
  6
CONTINUOUS
 62
     8
 10
-140.2245675733481
 20
-12.70142672006465
 30
0.0
 11
-139.8395615477478
 21
-13.08643274566492
 31
0.0
  0
ENDBLK
  5
388
  8
0
  6
CONTINUOUS
 62
     1
  0
BLOCK
  8
0
  2
*X4242
 70
     1
 10
0.0
 20
0.0
 30
0.0
  3
*X4242
  1

  0
INSERT
  5
3B8
  8
回07-寸法
  6
CONTINUOUS
 62
     5
  2
_OPEN
 10
-115.2398440243419
 20
-93.88965325716707
 30
0.0
 41
1.999999999999999
 42
1.999999999999999
 43
2.0
 50
64.23634302676685
  0
LINE
  5
3B9
  8
回07-寸法
  6
CONTINUOUS
 62
     5
 10
-116.1091638937948
 20
-95.69084257663748
 30
0.0
 11
-119.5236047150406
 21
-102.7654011543236
 31
0.0
  0
LINE
  5
3BA
  8
回07-寸法
  6
CONTINUOUS
 62
     5
 10
-119.5236047150406
 20
-102.7654011543236
 30
0.0
 11
-138.5236047150406
 21
-102.7654011543236
 31
0.0
  0
ENDBLK
  5
3BC
  8
0
  6
CONTINUOUS
 62
     1
  0
BLOCK
  8
0
  2
*X4343
 70
     1
 10
0.0
 20
0.0
 30
0.0
  3
*X4343
  1

  0
TEXT
  5
3BF
  8
回08-記事
  6
CONTINUOUS
 62
     5
 10
59.16763070436393
 20
15.5605472871556
 30
0.0
 40
3.0
  1
1.25
  0
TEXT
  5
3C0
  8
回08-記事
  6
CONTINUOUS
 62
     5
 10
65.76763070436392
 20
15.5605472871556
 30
0.0
 40
2.000099999999999
  1
±0.2
  0
TEXT
  5
3C1
  8
回08-記事
  6
CONTINUOUS
 62
     5
 10
70.56787070436391
 20
15.5605472871556
 30
0.0
 40
3.0
  1
[0.049
  0
TEXT
  5
3C2
  8
回08-記事
  6
CONTINUOUS
 62
     5
 10
81.37870180994488
 20
15.5605472871556
 30
0.0
 40
2.00001
  1
±0.008
  0
TEXT
  5
3C3
  8
回08-記事
  6
CONTINUOUS
 62
     5
 10
88.97873980994488
 20
15.5605472871556
 30
0.0
 40
3.0
  1
]
  0
ENDBLK
  5
3C5
  8
0
  6
CONTINUOUS
 62
     1
  0
BLOCK
  8
0
  2
*X4444
 70
     1
 10
0.0
 20
0.0
 30
0.0
  3
*X4444
  1

  0
TEXT
  5
3C8
  8
回08-記事
  6
CONTINUOUS
 62
     5
 10
61.32550840918542
 20
8.623464737438437
 30
0.0
 40
3.0
  1
4-0.7
  0
TEXT
  5
3C9
  8
回08-記事
  6
CONTINUOUS
 62
     5
 10
70.92550840918541
 20
8.623464737438437
 30
0.0
 40
2.000099999999999
  1
±0.1
  0
TEXT
  5
3CA
  8
回08-記事
  6
CONTINUOUS
 62
     5
 10
75.32572840918541
 20
8.623464737438437
 30
0.0
 40
3.0
  1
[4-0.028
  0
TEXT
  5
3CB
  8
回08-記事
  6
CONTINUOUS
 62
     5
 10
90.32572840918541
 20
8.623464737438437
 30
0.0
 40
2.00001
  1
±0.004
  0
TEXT
  5
3CC
  8
回08-記事
  6
CONTINUOUS
 62
     5
 10
98.12576740918544
 20
8.623464737438437
 30
0.0
 40
3.0
  1
]
  0
ENDBLK
  5
3CE
  8
0
  6
CONTINUOUS
 62
     1
  0
BLOCK
  8
0
  2
*X4545
 70
     1
 10
0.0
 20
0.0
 30
0.0
  3
*X4545
  1

  0
TEXT
  5
3D1
  8
回08-記事
  6
CONTINUOUS
 62
     5
 10
56.00940319490904
 20
27.32010118697026
 30
0.0
 40
3.0
  1
6.25
  0
TEXT
  5
3D2
  8
回08-記事
  6
CONTINUOUS
 62
     5
 10
63.20940319490905
 20
27.32010118697026
 30
0.0
 40
2.00001
  1
±0.2
  0
TEXT
  5
3D3
  8
回08-記事
  6
CONTINUOUS
 62
     5
 10
68.00942719490905
 20
27.32010118697026
 30
0.0
 40
3.0
  1
[0.246
  0
TEXT
  5
3D4
  8
回08-記事
  6
CONTINUOUS
 62
     5
 10
78.80942719490905
 20
27.32010118697026
 30
0.0
 40
2.00001
  1
±0.008
  0
TEXT
  5
3D5
  8
回08-記事
  6
CONTINUOUS
 62
     5
 10
86.40946519490903
 20
27.32010118697026
 30
0.0
 40
3.0
  1
]
  0
ENDBLK
  5
3D7
  8
0
  6
CONTINUOUS
 62
     1
  0
BLOCK
  8
0
  2
*X4646
 70
     1
 10
0.0
 20
0.0
 30
0.0
  3
*X4646
  1

  0
TEXT
  5
3E6
  8
回07-寸法
  6
CONTINUOUS
 62
     5
 10
-185.6776575193364
 20
-153.0431715776887
 30
0.0
 40
3.0
  1
111.2
  0
TEXT
  5
3E7
  8
回07-寸法
  6
CONTINUOUS
 62
     5
 10
-178.1776575193364
 20
-153.0431715776887
 30
0.0
 40
2.1
  1
±0.3
  0
TEXT
  5
3E8
  8
回07-寸法
  6
CONTINUOUS
 62
     5
 10
-173.1376575193364
 20
-153.0431715776887
 30
0.0
 40
3.0
  1
 [4.378
  0
TEXT
  5
3E9
  8
回07-寸法
  6
CONTINUOUS
 62
     5
 10
-160.5376575193364
 20
-153.0431715776887
 30
0.0
 40
2.1
  1
±0.012
  0
TEXT
  5
3EA
  8
回07-寸法
  6
CONTINUOUS
 62
     5
 10
-152.9776575193364
 20
-153.0431715776887
 30
0.0
 40
3.0
  1
]
  0
ENDBLK
  5
3EC
  8
0
  6
CONTINUOUS
 62
     1
  0
BLOCK
  8
0
  2
*X4747
 70
     1
 10
0.0
 20
0.0
 30
0.0
  3
*X4747
  1

  0
TEXT
  5
3EF
  8
回07-寸法
  6
CONTINUOUS
 62
     5
 10
-73.67495766028233
 20
-68.7820843428605
 30
0.0
 40
3.0
  1
88
 50
90.0
  0
TEXT
  5
3F0
  8
回07-寸法
  6
CONTINUOUS
 62
     5
 10
-73.67495766028233
 20
-64.58208434286048
 30
0.0
 40
2.1
  1
±0.3
 50
90.0
  0
TEXT
  5
3F1
  8
回07-寸法
  6
CONTINUOUS
 62
     5
 10
-73.67495766028233
 20
-59.54208434286049
 30
0.0
 40
3.0
  1
 [3.465
 50
90.0
  0
TEXT
  5
3F2
  8
回07-寸法
  6
CONTINUOUS
 62
     5
 10
-73.67495766028233
 20
-46.94208434286049
 30
0.0
 40
2.1
  1
±0.012
 50
90.0
  0
TEXT
  5
3F3
  8
回07-寸法
  6
CONTINUOUS
 62
     5
 10
-73.67495766028233
 20
-39.3820843428605
 30
0.0
 40
3.0
  1
]
 50
90.0
  0
ENDBLK
  5
3F5
  8
0
  6
CONTINUOUS
 62
     1
  0
BLOCK
  8
0
  2
*X4848
 70
     1
 10
0.0
 20
0.0
 30
0.0
  3
*X4848
  1

  0
TEXT
  5
3F8
  8
回07-寸法
  6
CONTINUOUS
 62
     5
 10
-182.0592007521296
 20
10.6511697924758
 30
0.0
 40
3.0
  1
70
 50
90.0
  0
TEXT
  5
3F9
  8
回07-寸法
  6
CONTINUOUS
 62
     5
 10
-182.0592007521296
 20
14.85116979247578
 30
0.0
 40
2.1
  1
±1
 50
90.0
  0
TEXT
  5
3FA
  8
回07-寸法
  6
CONTINUOUS
 62
     5
 10
-182.0592007521296
 20
17.3711697924758
 30
0.0
 40
3.0
  1
 [2.756
 50
90.0
  0
TEXT
  5
3FB
  8
回07-寸法
  6
CONTINUOUS
 62
     5
 10
-182.0592007521296
 20
29.67116979247581
 30
0.0
 40
2.1
  1
±0.039
 50
90.0
  0
TEXT
  5
3FC
  8
回07-寸法
  6
CONTINUOUS
 62
     5
 10
-182.0592007521296
 20
37.65875156638248
 30
0.0
 40
3.0
  1
]
 50
90.0
  0
ENDBLK
  5
3FE
  8
0
  6
CONTINUOUS
 62
     1
  0
BLOCK
  8
0
  2
*X4949
 70
     1
 10
0.0
 20
0.0
 30
0.0
  3
*X4949
  1

  0
TEXT
  5
401
  8
回08-記事
  6
CONTINUOUS
 62
     5
 10
-43.91783403656171
 20
-105.4730190628951
 30
0.0
 40
3.0
  1
1.4
  0
TEXT
  5
402
  8
回08-記事
  6
CONTINUOUS
 62
     5
 10
-39.11783403656173
 20
-105.4730190628951
 30
0.0
 40
2.000099999999999
  1
±0.2
  0
TEXT
  5
403
  8
回08-記事
  6
CONTINUOUS
 62
     5
 10
-34.31759403656173
 20
-105.4730190628951
 30
0.0
 40
3.0
  1
[0.055
  0
TEXT
  5
404
  8
回08-記事
  6
CONTINUOUS
 62
     5
 10
-23.81759403656174
 20
-105.4730190628951
 30
0.0
 40
2.00001
  1
±0.008
  0
TEXT
  5
405
  8
回08-記事
  6
CONTINUOUS
 62
     5
 10
-16.21755603656173
 20
-105.4730190628951
 30
0.0
 40
3.0
  1
]
  0
ENDBLK
  5
407
  8
0
  6
CONTINUOUS
 62
     1
  0
BLOCK
  8
0
  2
*X5050
 70
     1
 10
0.0
 20
0.0
 30
0.0
  3
*X5050
  1

  0
TEXT
  5
40A
  8
回08-記事
  6
CONTINUOUS
 62
     5
 10
-45.21547183183738
 20
67.9879402737419
 30
0.0
 40
3.0
  1
0.3
  0
TEXT
  5
40B
  8
回08-記事
  6
CONTINUOUS
 62
     5
 10
-40.11547183183738
 20
67.9879402737419
 30
0.0
 40
2.000099999999999
  1
±0.05
  0
TEXT
  5
40C
  8
回08-記事
  6
CONTINUOUS
 62
     5
 10
-33.91516183183738
 20
67.9879402737419
 30
0.0
 40
3.0
  1
[0.012
  0
TEXT
  5
40D
  8
回08-記事
  6
CONTINUOUS
 62
     5
 10
-24.01516183183738
 20
67.9879402737419
 30
0.0
 40
2.000099999999999
  1
±0.002
  0
TEXT
  5
40E
  8
回08-記事
  6
CONTINUOUS
 62
     5
 10
-16.41478183183738
 20
67.9879402737419
 30
0.0
 40
3.0
  1
]
  0
ENDBLK
  5
410
  8
0
  6
CONTINUOUS
 62
     1
  0
BLOCK
  8
0
  2
*X5151
 70
     1
 10
0.0
 20
0.0
 30
0.0
  3
*X5151
  1

  0
TEXT
  5
413
  8
回07-寸法
  6
CONTINUOUS
 62
     5
 10
-211.8405326278733
 20
-103.9521866770074
 30
0.0
 40
3.0
  1
57.8 [2.276] 
  0
TEXT
  5
414
  8
回07-寸法
  6
CONTINUOUS
 62
     5
 10
-189.3405326278733
 20
-103.9521866770074
 30
0.0
 40
2.499899999999999
  1
(ACTIVE AREA CENTER)
  0
ENDBLK
  5
416
  8
0
  6
CONTINUOUS
 62
     1
  0
BLOCK
  8
0
  2
*X5252
 70
     1
 10
0.0
 20
0.0
 30
0.0
  3
*X5252
  1

  0
TEXT
  5
419
  8
回07-寸法
  6
CONTINUOUS
 62
     5
 10
-102.8589834763824
 20
-88.14325859596022
 30
0.0
 40
3.0
  1
41.6 [1.638] 
 50
90.0
  0
TEXT
  5
41A
  8
回07-寸法
  6
CONTINUOUS
 62
     5
 10
-102.8589834763824
 20
-66.54325859596025
 30
0.0
 40
2.000099999999999
  1
(ACTIVE AREA CENTER)
 50
90.0
  0
ENDBLK
  5
41C
  8
0
  6
CONTINUOUS
 62
     1
  0
BLOCK
  8
0
  2
*X5353
 70
     1
 10
0.0
 20
0.0
 30
0.0
  3
*X5353
  1

  0
TEXT
  5
41F
  8
回07-寸法
  6
CONTINUOUS
 62
     5
 10
61.17855608167061
 20
21.34279887031917
 30
0.0
 40
3.0
  1
3.75
  0
TEXT
  5
420
  8
回07-寸法
  6
CONTINUOUS
 62
     5
 10
68.3785560816706
 20
21.34279887031917
 30
0.0
 40
2.00001
  1
±0.1
  0
TEXT
  5
421
  8
回07-寸法
  6
CONTINUOUS
 62
     5
 10
72.77857808167063
 20
21.34279887031917
 30
0.0
 40
3.0
  1
[0.148
  0
TEXT
  5
422
  8
回07-寸法
  6
CONTINUOUS
 62
     5
 10
82.97857808167064
 20
21.34279887031917
 30
0.0
 40
2.00001
  1
±0.004
  0
TEXT
  5
423
  8
回07-寸法
  6
CONTINUOUS
 62
     5
 10
90.77861708167059
 20
21.34279887031917
 30
0.0
 40
3.0
  1
]
  0
ENDBLK
  5
425
  8
0
  6
CONTINUOUS
 62
     1
  0
ENDSEC
  0
SECTION
  2
ENTITIES
  0
TEXT
  5
5C
  8
回03-記事
  6
CONTINUOUS
 62
     5
 10
-58.64134097315346
 20
-152.0718644895032
 30
0.0
 40
4.320000000000001
  1
without affecting product specification.
  0
TEXT
  5
5E
  8
回03-記事
  6
CONTINUOUS
 62
     5
 10
-58.64134097315346
 20
-144.4941293467233
 30
0.0
 40
4.320000000000001
  1
Edges and corners of ITO glass may be chamfered 
  0
TEXT
  5
5F
  8
回03-記事
  6
CONTINUOUS
 62
     5
 10
-58.64134097315346
 20
-136.9163942039435
 30
0.0
 40
4.320000000000001
  1
Unit: mm
  0
TEXT
  5
60
  8
回03-記事
  6
CONTINUOUS
 62
     5
 10
-58.64134097315346
 20
-129.3386590611637
 30
0.0
 40
4.320000000000001
  1
EXCEPT WHERE INDICATED
  0
TEXT
  5
61
  8
回03-記事
  6
CONTINUOUS
 62
     5
 10
-58.64134097315346
 20
-121.760923918384
 30
0.0
 40
4.320000000000001
  1
TOLERANCE=±0.5mm
  0
TEXT
  5
62
  8
回07-寸法
  6
CONTINUOUS
 62
     5
 10
-176.5431240336398
 20
7.381721646879496
 30
0.0
 40
3.0
  1
PROTECTION TAPE
1001
ACAD
1000
MTEXTBEGIN
1070
    73
1070
     1
1070
    44
1040
1.0
1070
    74
1070
     0
1000
MTEXTEND
  0
INSERT
  5
66
  8
回07-寸法
  6
CONTINUOUS
 62
     3
 66
     1
  2
*X3232
 10
0.0
 20
0.0
 30
0.0
  0
SEQEND
  5
328
  8
0
  6
CONTINUOUS
 62
     1
  0
TEXT
  5
67
  8
回07-寸法
  6
CONTINUOUS
 62
     5
 10
-168.5159799107621
 20
0.8394086812551449
 30
0.0
 40
3.0
  1
4-R1[R0.039]
1001
ACAD
1000
MTEXTBEGIN
1070
    73
1070
     1
1070
    44
1040
1.0
1070
    74
1070
     0
1000
MTEXTEND
  0
DIMENSION
  5
68
  8
回07-寸法
  6
CONTINUOUS
 62
     5
  2
*D3131
 10
-119.2552235037554
 20
-5.394502837298943
 30
0.0
 11
-119.2552235037554
 21
13.05123224521514
 31
0.0
 70
   128
  3
DMC
 13
-123.8781327489099
 23
-9.786432745665033
 33
0.0
 14
-124.8257706076195
 24
-5.394502837298943
 34
0.0
 50
90.0
  0
LINE
  5
78
  8
回07-寸法
  6
CONTINUOUS
 62
     5
 10
47.94371280250111
 20
16.28721746567731
 30
0.0
 11
47.94371280250111
 21
2.402854699809437
 31
0.0
  0
DIMENSION
  5
79
  8
回07-寸法
  6
CONTINUOUS
 62
     7
  2
*D3030
 10
50.44371280250107
 20
20.69279887031917
 30
0.0
 11
76.57858658167061
 21
20.69279887031917
 31
0.0
 70
   128
  1
3.75{\H0.66667x;±0.1}[0.148{\H0.66667x;±0.004}]
  3
DMC
 13
42.94371280250106
 23
4.05493758083702
 33
0.0
 14
50.44371280250107
 24
4.061418930942123
 34
0.0
  0
TEXT
  5
88
  8
回90-枠3
 10
72.42775103087797
 20
-165.7666329038433
 30
0.0
 40
4.0
  1
Sep/25/2023
  0
TEXT
  5
8C
  8
回90-枠3
 10
81.35197924725389
 20
-160.1187406783064
 30
0.0
 40
2.5
  1
DATE
  0
LINE
  5
8D
  8
回90-枠3
  6
CONTINUOUS
 62
     7
 10
66.50882170538944
 20
-156.4123806311601
 30
0.0
 11
66.50882170538944
 21
-179.3450287870936
 31
0.0
  0
TEXT
  5
8E
  8
回90-枠3
 10
71.23023416866543
 20
-176.5379138565808
 30
0.0
 40
4.0
  1
DMC Co., Ltd.
  0
TEXT
  5
8F
  8
回90-枠3
 10
29.56376326822419
 20
-160.1842087925303
 30
0.0
 40
2.5
  1
PART No.
  0
TEXT
  5
90
  8
回90-枠3
 10
29.82571058090662
 20
-171.1669737610731
 30
0.0
 40
2.5
  1
TYPE
  0
TEXT
  5
91
  8
回90-枠3
 10
15.6402930338354
 20
-175.1725412252703
 30
0.0
 40
2.5
  1
STANDARD TOUCHSCREEN
  0
LINE
  5
92
  8
回90-枠3
 10
2.239197074700995
 20
-156.4123806311601
 30
0.0
 11
2.239197074700995
 21
-179.2783036508423
 31
0.0
  0
TEXT
  5
93
  8
回90-枠3
 10
17.51262699145854
 20
-178.5566726468696
 30
0.0
 40
2.5
  1
DIMENSIONAL DRAWING
  0
LINE
  5
94
  8
回90-枠3
 10
13.54075267996359
 20
-175.5145105832345
 30
0.0
 11
59.87002322733542
 21
-175.5145105832345
 31
0.0
  0
LINE
  5
95
  8
回90-枠3
 10
2.239197074700995
 20
-160.673360211643
 30
0.0
 11
105.4973151120082
 21
-160.673360211643
 31
0.0
  0
LINE
  5
96
  8
回90-枠3
 10
2.252803532034249
 20
-171.6764508875676
 30
0.0
 11
66.50882170538944
 21
-171.6764508875676
 31
0.0
  0
LINE
  5
97
  8
回90-枠3
 10
2.239197074700995
 20
-156.4123806311601
 30
0.0
 11
105.6573216190757
 21
-156.4123806311601
 31
0.0
  0
LINE
  5
98
  8
回90-枠3
 10
2.238268661550136
 20
-167.9554624734407
 30
0.0
 11
105.5455210853479
 21
-167.9554624734407
 31
0.0
  0
TEXT
  5
99
  8
回90-枠3
 10
10.19342160739143
 20
-167.2181477844735
 30
0.0
 40
5.0
  1
AST-047A070A
  0
DIMENSION
  5
9A
  8
回07-寸法
  6
CONTINUOUS
 62
     7
  2
*D2929
 10
-82.66202935676352
 20
-97.78643274566507
 30
0.0
 11
-84.81202935676355
 21
-110.5745232968461
 31
0.0
 70
     0
  3
DMC
 13
-116.3245675733477
 23
-94.98643274566507
 33
0.0
 14
-113.2245675733478
 24
-97.78643274566505
 34
0.0
 50
90.0
  0
DIMENSION
  5
A9
  8
回07-寸法
  6
CONTINUOUS
 62
     7
  2
*D2828
 10
-82.66202935676352
 20
-94.98643274566507
 30
0.0
 11
-84.81202935676352
 21
-56.18643274566504
 31
0.0
 70
     0
  3
DMC
 13
-116.3245675733477
 23
-17.38643274566505
 33
0.0
 14
-116.3245675733477
 24
-94.98643274566507
 34
0.0
 50
90.0
  0
DIMENSION
  5
B6
  8
回07-寸法
  6
CONTINUOUS
 62
     7
  2
*D2727
 10
-82.66202935676348
 20
-17.38643274566505
 30
0.0
 11
-82.66202935676345
 21
4.772869143455615
 31
0.0
 70
   128
  1
(<>)
  3
DMC
 13
-113.2245675733478
 23
-9.786432745665022
 33
0.0
 14
-116.3245675733477
 24
-17.38643274566505
 34
0.0
 50
90.0
  0
DIMENSION
  5
C5
  8
回07-寸法
  6
CONTINUOUS
 62
     7
  2
*D2626
 10
-113.2245675733478
 20
-145.5827106206187
 30
0.0
 11
-99.27574867570999
 21
-143.4327106206187
 31
0.0
 70
     0
  1
(<>)
  3
DMC
 13
-116.3245675733477
 23
-94.98643274566507
 33
0.0
 14
-113.2245675733478
 24
-97.78643274566505
 34
0.0
  0
DIMENSION
  5
D4
  8
回07-寸法
  6
CONTINUOUS
 62
     7
  2
*D2525
 10
-216.9245675733478
 20
-145.5827106206187
 30
0.0
 11
-237.7798090690891
 21
-145.5827106206187
 31
0.0
 70
   128
  3
DMC
 13
-224.4245675733477
 23
-97.78643274566505
 33
0.0
 14
-216.9245675733478
 24
-94.98643274566502
 34
0.0
  0
DIMENSION
  5
E3
  8
回07-寸法
  6
CONTINUOUS
 62
     7
  2
*D2424
 10
-116.3245675733477
 20
-145.5827106206187
 30
0.0
 11
-166.6245675733478
 21
-145.5827106206187
 31
0.0
 70
   128
  3
DMC
 13
-216.9245675733478
 23
-94.98643274566502
 33
0.0
 14
-116.3245675733477
 24
-94.98643274566507
 34
0.0
  0
TEXT
  5
F0
  8
回07-寸法
  6
CONTINUOUS
 62
     7
 10
-76.95242445445501
 20
-137.1954188294999
 30
0.0
 40
3.0
  1
(INSULATION AREA)
 50
90.0
  0
TEXT
  5
F1
  8
回07-寸法
  6
CONTINUOUS
 62
     7
 10
-78.91550245584506
 20
-5.423820993608615
 30
0.0
 40
3.0
  1
(INSULATION AREA)
 50
90.0
  0
TEXT
  5
F2
  8
回07-寸法
  6
CONTINUOUS
 62
     7
 10
-108.0258589410093
 20
-149.7065828472999
 30
0.0
 40
2.5
  1
(INSULATION AREA)
  0
TEXT
  5
F3
  8
回07-寸法
  6
CONTINUOUS
 62
     7
 10
-257.4128715358938
 20
-149.4534619108889
 30
0.0
 40
2.5
  1
(INSULATION AREA)
  0
POLYLINE
  5
F4
  8
回08-記事
  6
DASHED2
 62
     7
 66
     1
 10
0.0
 20
0.0
 30
0.0
 70
     1
  0
VERTEX
  5
587
  8
回08-記事
  6
DASHED2
 62
     7
 10
-116.3245675733477
 20
-17.38643274566505
 30
0.0
  0
VERTEX
  5
589
  8
回08-記事
  6
DASHED2
 62
     7
 10
-116.3245675733477
 20
-94.98643274566507
 30
0.0
  0
VERTEX
  5
58A
  8
回08-記事
  6
DASHED2
 62
     7
 10
-216.9245675733478
 20
-94.98643274566507
 30
0.0
  0
VERTEX
  5
58B
  8
回08-記事
  6
DASHED2
 62
     7
 10
-216.9245675733478
 20
-17.38643274566505
 30
0.0
  0
SEQEND
  5
588
  8
0
  6
CONTINUOUS
 62
     1
  0
LINE
  5
F9
  8
回08-記事
  6
CONTINUOUS
 62
     7
 10
-49.96783403656174
 20
-0.3401719418201097
 30
0.0
 11
-50.46783403656172
 21
-0.3401719418201097
 31
0.0
  0
LINE
  5
FA
  8
回08-記事
  6
CONTINUOUS
 62
     7
 10
-49.96783403656174
 20
-0.3401719418201097
 30
0.0
 11
-49.96783403656174
 21
-9.786432745665022
 31
0.0
  0
DIMENSION
  5
FB
  8
回07-寸法
  6
CONTINUOUS
 62
     8
  2
*D2323
 10
-135.9501574685304
 20
68.18821447500067
 30
0.0
 11
-180.1873625209391
 21
70.33821447500068
 31
0.0
 70
     0
  1
(<>)
  3
DMC
 13
-224.4245675733477
 23
-9.786432745665022
 33
0.0
 14
-135.9501574685304
 24
59.71356725433508
 34
0.0
  0
TEXT
  5
108
  8
回07-寸法
  6
CONTINUOUS
 62
     5
 10
-41.76606429321849
 20
13.05264654152529
 30
0.0
 40
3.0
  1
LOT LABEL
1001
ACAD
1000
MTEXTBEGIN
1070
    73
1070
     1
1070
    44
1040
1.0
1070
    74
1070
     0
1000
MTEXTEND
  0
INSERT
  5
109
  8
回07-寸法
  6
CONTINUOUS
 62
     7
 66
     1
  2
*X3333
 10
0.0
 20
0.0
 30
0.0
  0
SEQEND
  5
334
  8
0
  6
CONTINUOUS
 62
     1
  0
POLYLINE
  5
10B
  8
回08-記事
  6
CONTINUOUS
 62
     7
 66
     1
 10
0.0
 20
0.0
 30
0.0
 70
     1
  0
VERTEX
  5
58C
  8
回08-記事
  6
CONTINUOUS
 62
     7
 10
-50.46783403656178
 20
10.77372407908285
 30
0.0
  0
VERTEX
  5
58E
  8
回08-記事
  6
CONTINUOUS
 62
     7
 10
-49.86783403656186
 20
10.77372407908285
 30
0.0
  0
VERTEX
  5
58F
  8
回08-記事
  6
CONTINUOUS
 62
     7
 10
-49.86783403656186
 20
36.77372407908285
 30
0.0
  0
VERTEX
  5
590
  8
回08-記事
  6
CONTINUOUS
 62
     7
 10
-50.46783403656178
 20
36.77372407908285
 30
0.0
  0
SEQEND
  5
58D
  8
0
  6
CONTINUOUS
 62
     1
  0
INSERT
  5
10C
  8
回07-寸法
  6
CONTINUOUS
 62
     8
 66
     1
  2
*X3434
 10
0.0
 20
0.0
 30
0.0
1001
ACAD
1000
HATCH
1002
{
1070
    19
1000
ANSI31
1040
15.0
1040
0.0
1000
ASC_BOUNDS
1070
     1
1070
     2
1070
     1
1005
10D
1000
ASC_SEEDPOINT
1011
-152.7753681077178
1021
-165.5129498100858
1031
0.0
1000
R14_HATCH_DATA
1000
10C
1011
1.0
1021
0.0
1031
0.0
1011
0.0
1021
1.0
1031
0.0
1011
0.0
1021
0.0
1031
1.0
1040
0.0
1010
0.0
1020
0.0
1030
1.0
1000
ANSI31
1070
     0
1070
     1
1071
        1
1071
        1
1071
        8
1070
     1
1040
-134.3245675733477
1040
36.77372407908285
1040
-131.3245675733477
1040
36.77372407908285
1070
     2
1040
-131.3245675733477
1040
35.77372407908285
1040
1.0
1040
4.712388980384688
1040
6.283185307179585
1070
     0
1070
     1
1040
-130.3245675733477
1040
35.77372407908285
1040
-130.3245675733477
1040
11.77372407908285
1070
     2
1040
-131.3245675733477
1040
11.77372407908285
1040
1.0
1040
6.283185307179585
1040
7.853981633974482
1070
     0
1070
     1
1040
-131.3245675733477
1040
10.77372407908285
1040
-134.3245675733477
1040
10.77372407908285
1070
     2
1040
-134.3245675733477
1040
11.77372407908285
1040
1.0
1040
1.570796326794896
1040
3.141592653589792
1070
     0
1070
     1
1040
-135.3245675733477
1040
11.77372407908285
1040
-135.3245675733477
1040
35.77372407908285
1070
     2
1040
-134.3245675733477
1040
35.77372407908285
1040
1.0
1040
3.141592653589792
1040
4.712388980384688
1070
     0
1071
        1
1005
10D
1070
     0
1070
     1
1040
0.0
1040
15.0
1070
     0
1070
     1
1040
0.7853981633974483
1040
-152.7753681077178
1040
-165.5129498100858
1040
-1.325825214724775
1040
1.325825214724775
1070
     0
1071
        1
1040
-152.7753681077178
1040
-165.5129498100858
1040
0.0
1002
}
  0
SEQEND
  5
348
  8
0
  6
CONTINUOUS
 62
     1
  0
POLYLINE
  5
10D
  8
回07-寸法
  6
CONTINUOUS
 62
     8
 66
     1
 10
0.0
 20
0.0
 30
0.0
 70
     1
1001
ACAD
1000
ASC_BOUNDS
1002
{
1070
    19
1005
10C
1002
}
  0
VERTEX
  5
591
  8
回07-寸法
  6
CONTINUOUS
 62
     8
 10
-134.3245675733477
 20
36.77372407908285
 30
0.0
  0
VERTEX
  5
593
  8
回07-寸法
  6
CONTINUOUS
 62
     8
 10
-131.3245675733477
 20
36.77372407908285
 30
0.0
 42
-0.4142135623730951
  0
VERTEX
  5
594
  8
回07-寸法
  6
CONTINUOUS
 62
     8
 10
-130.3245675733477
 20
35.77372407908285
 30
0.0
  0
VERTEX
  5
595
  8
回07-寸法
  6
CONTINUOUS
 62
     8
 10
-130.3245675733477
 20
11.77372407908285
 30
0.0
 42
-0.4142135623730951
  0
VERTEX
  5
596
  8
回07-寸法
  6
CONTINUOUS
 62
     8
 10
-131.3245675733477
 20
10.77372407908285
 30
0.0
  0
VERTEX
  5
597
  8
回07-寸法
  6
CONTINUOUS
 62
     8
 10
-134.3245675733477
 20
10.77372407908285
 30
0.0
 42
-0.4142135623730951
  0
VERTEX
  5
598
  8
回07-寸法
  6
CONTINUOUS
 62
     8
 10
-135.3245675733477
 20
11.77372407908285
 30
0.0
  0
VERTEX
  5
599
  8
回07-寸法
  6
CONTINUOUS
 62
     8
 10
-135.3245675733477
 20
35.77372407908285
 30
0.0
 42
-0.4142135623730946
  0
SEQEND
  5
592
  8
0
  6
CONTINUOUS
 62
     1
  0
TEXT
  5
10E
  8
回07-寸法
  6
CONTINUOUS
 62
     5
 10
-163.4689040813189
 20
41.43714880687139
 30
0.0
 40
2.5
  1
LOT LABEL
1001
ACAD
1000
MTEXTBEGIN
1070
    73
1070
     1
1070
    44
1040
1.0
1070
    74
1070
     0
1000
MTEXTEND
  0
INSERT
  5
10F
  8
回07-寸法
  6
CONTINUOUS
 62
     7
 66
     1
  2
*X3535
 10
0.0
 20
0.0
 30
0.0
  0
SEQEND
  5
358
  8
0
  6
CONTINUOUS
 62
     1
  0
LINE
  5
110
  8
回08-記事
  6
CONTINUOUS
 62
     7
 10
69.88402446472429
 20
83.10600568305011
 30
0.0
 11
69.88402446472429
 21
58.53600568304996
 31
0.0
  0
DIMENSION
  5
111
  8
回07-寸法
  6
CONTINUOUS
 62
     1
  2
*D2222
 10
-102.2089834763824
 20
-56.18643274566506
 30
0.0
 11
-102.2089834763824
 21
-63.16795481643271
 31
0.0
 70
   128
  1
<> {\H0.6667x;(ACTIVE AREA CENTER)}
  3
DMC
 13
-113.2245675733478
 23
-97.78643274566505
 33
0.0
 14
-111.6321135294624
 24
-56.18643274566504
 34
0.0
 50
90.0
  0
DIMENSION
  5
11E
  8
回07-寸法
  6
CONTINUOUS
 62
     1
  2
*D2121
 10
-166.6245675733477
 20
-104.6021866770074
 30
0.0
 11
-182.9292222341726
 21
-104.6021866770074
 31
0.0
 70
   128
  1
<> {\H0.8333x;(ACTIVE AREA CENTER)}
  3
DMC
 13
-224.4245675733477
 23
-97.78643274566505
 33
0.0
 14
-166.6245675733477
 24
-98.65079839154169
 34
0.0
  0
LINE
  5
12B
  8
回07-寸法
  6
CENTER2
 62
     5
 10
-111.6321135294624
 20
-56.18643274566504
 30
0.0
 11
-225.3184669132247
 21
-56.18643274566504
 31
0.0
  0
LINE
  5
12D
  8
回07-寸法
  6
CENTER2
 62
     5
 10
-166.6245675733477
 20
-8.836172086885651
 30
0.0
 11
-166.6245675733477
 21
-98.65079839154169
 31
0.0
  0
LINE
  5
12E
  8
回08-記事
  6
CONTINUOUS
 62
     5
 10
36.44249831241922
 20
25.82534705369156
 30
0.0
 11
32.44249831241922
 21
25.82534705369156
 31
0.0
  0
TEXT
  5
12F
  8
回07-寸法
  6
CONTINUOUS
 62
     5
 10
7.977728447705054
 20
8.189848823119065
 30
0.0
 40
3.0
  1
2-R0.5[R0.020]
1001
ACAD
1000
MTEXTBEGIN
1070
    73
1070
     1
1070
    44
1040
1.0
1070
    74
1070
     0
1000
MTEXTEND
  0
INSERT
  5
130
  8
回07-寸法
  6
CONTINUOUS
 62
     5
 66
     1
  2
*X3636
 10
0.0
 20
0.0
 30
0.0
  0
SEQEND
  5
35F
  8
0
  6
CONTINUOUS
 62
     1
  0
TEXT
  5
131
  8
回07-寸法
  6
CONTINUOUS
 62
     5
 10
-245.0765488128541
 20
-83.77855834297566
 30
0.0
 40
3.0
  1
AST-047A.
  0
TEXT
  5
132
  8
回07-寸法
  6
CONTINUOUS
 62
     5
 10
-244.3941928823691
 20
-78.73859428950163
 30
0.0
 40
3.0
  1
PART No.
1001
ACAD
1000
MTEXTBEGIN
1070
    73
1070
     1
1070
    44
1040
1.0
1070
    74
1070
     0
1000
MTEXTEND
  0
INSERT
  5
133
  8
回07-寸法
  6
CONTINUOUS
 62
     3
 66
     1
  2
*X3737
 10
0.0
 20
0.0
 30
0.0
  0
SEQEND
  5
366
  8
0
  6
CONTINUOUS
 62
     1
  0
TEXT
  5
134
  8
回07-寸法
  6
CONTINUOUS
 62
     5
 10
-168.3071918697087
 20
-4.551093547326535
 30
0.0
 40
3.0
  1
2-R2[R0.079]
1001
ACAD
1000
MTEXTBEGIN
1070
    73
1070
     1
1070
    44
1040
1.0
1070
    74
1070
     0
1000
MTEXTEND
  0
INSERT
  5
135
  8
回07-寸法
  6
CONTINUOUS
 62
     3
 66
     1
  2
*X3838
 10
0.0
 20
0.0
 30
0.0
  0
SEQEND
  5
36D
  8
0
  6
CONTINUOUS
 62
     1
  0
INSERT
  5
136
  8
回07-寸法
  6
CONTINUOUS
 62
     3
 66
     1
  2
*X3939
 10
0.0
 20
0.0
 30
0.0
  0
SEQEND
  5
374
  8
0
  6
CONTINUOUS
 62
     1
  0
DIMENSION
  5
137
  8
回07-寸法
  6
CONTINUOUS
 62
     3
  2
*D2020
 10
-114.4254111107125
 20
-9.786432745665026
 30
0.0
 11
-114.4254111107125
 21
13.17569928869098
 31
0.0
 70
   128
  3
DMC
 13
-129.4025384488576
 23
-0.3864327456650187
 33
0.0
 14
-123.8781327489099
 24
-9.786432745665022
 34
0.0
 50
90.0
  0
TEXT
  5
146
  8
回07-寸法
  6
CONTINUOUS
 62
     5
 10
-144.2073228560566
 20
52.6140048628681
 30
0.0
 40
3.0
  1
A
1001
ACAD
1000
MTEXTBEGIN
1070
    73
1070
     1
1070
    44
1040
1.0
1070
    74
1070
     0
1000
MTEXTEND
  0
INSERT
  5
147
  8
回07-寸法
  6
CONTINUOUS
 62
     3
 66
     1
  2
*X4040
 10
0.0
 20
0.0
 30
0.0
  0
SEQEND
  5
37B
  8
0
  6
CONTINUOUS
 62
     1
  0
LINE
  5
148
  8
回08-記事
  6
CONTINUOUS
 62
     7
 10
-116.6245675733477
 20
-92.18643274566506
 30
0.0
 11
-113.2245675733478
 21
-92.18643274566506
 31
0.0
  0
LINE
  5
149
  8
回08-記事
  6
CONTINUOUS
 62
     7
 10
-116.6245675733477
 20
-94.18643274566505
 30
0.0
 11
-113.2245675733478
 21
-94.18643274566505
 31
0.0
  0
LINE
  5
14A
  8
回07-寸法
  6
CENTER2
 62
     5
 10
-132.8245675733477
 20
60.66113103081534
 30
0.0
 11
-132.8245675733477
 21
-9.786432745665022
 31
0.0
  0
INSERT
  5
14B
  8
回08-記事
  6
CONTINUOUS
 62
     8
 66
     1
  2
*X4141
 10
0.0
 20
0.0
 30
0.0
1001
ACAD
1000
HATCH
1002
{
1070
    19
1000
ANSI31
1040
0.5
1040
-1.570796326794896
1000
ASC_BOUNDS
1070
     1
1070
     2
1070
     1
1005
14C
1000
ASC_SEEDPOINT
1011
-349.974235654518
1021
-258.6997567831543
1031
0.0
1000
R14_HATCH_DATA
1000
14B
1011
1.0
1021
0.0
1031
0.0
1011
0.0
1021
1.0
1031
0.0
1011
0.0
1021
0.0
1031
1.0
1040
0.0
1010
0.0
1020
0.0
1030
1.0
1000
ANSI31
1070
     0
1070
     1
1071
        1
1071
        1
1071
        4
1070
     1
1040
-125.4218847609323
1040
-13.08643274566492
1040
-125.4218847609323
1040
-5.394949741264723
1070
     1
1040
-125.4218847609323
1040
-5.394949741264723
1040
-140.2245675733481
1040
-5.394949741264723
1070
     1
1040
-140.2245675733481
1040
-5.394949741264723
1040
-140.2245675733481
1040
-13.08643274566492
1070
     1
1040
-140.2245675733481
1040
-13.08643274566492
1040
-125.4218847609323
1040
-13.08643274566492
1071
        1
1005
14C
1070
     0
1070
     1
1040
-1.570796326794896
1040
0.5
1070
     0
1070
     1
1040
5.497787143782136
1040
-349.974235654518
1040
-258.6997567831543
1040
1.122532015133643
1040
1.122532015133643
1070
     0
1071
        1
1040
-349.974235654518
1040
-258.6997567831543
1040
0.0
1002
}
  0
SEQEND
  5
389
  8
0
  6
CONTINUOUS
 62
     1
  0
POLYLINE
  5
14C
  8
回08-記事
  6
CONTINUOUS
 62
     8
 66
     1
 10
0.0
 20
0.0
 30
0.0
 70
     1
1001
ACAD
1000
ASC_BOUNDS
1002
{
1070
    19
1005
14B
1002
}
  0
VERTEX
  5
59A
  8
回08-記事
  6
CONTINUOUS
 62
     8
 10
-125.4218847609323
 20
-13.08643274566492
 30
0.0
  0
VERTEX
  5
59C
  8
回08-記事
  6
CONTINUOUS
 62
     8
 10
-125.4218847609323
 20
-5.394949741264723
 30
0.0
  0
VERTEX
  5
59D
  8
回08-記事
  6
CONTINUOUS
 62
     8
 10
-140.2245675733481
 20
-5.394949741264723
 30
0.0
  0
VERTEX
  5
59E
  8
回08-記事
  6
CONTINUOUS
 62
     8
 10
-140.2245675733481
 20
-13.08643274566492
 30
0.0
  0
SEQEND
  5
59B
  8
0
  6
CONTINUOUS
 62
     1
  0
TEXT
  5
14D
  8
回08-記事
  6
CONTINUOUS
 62
     7
 10
-124.4672764687589
 20
-53.9003055549109
 30
0.0
 40
3.0
  1
XR
  0
TEXT
  5
14E
  8
回08-記事
  6
CONTINUOUS
 62
     7
 10
-214.3791536782769
 20
-55.06151662247771
 30
0.0
 40
3.0
  1
XL
  0
TEXT
  5
14F
  8
回08-記事
  6
CONTINUOUS
 62
     7
 10
-172.4086189800216
 20
-92.39651305481935
 30
0.0
 40
3.0
  1
YD
  0
TEXT
  5
150
  8
回08-記事
  6
CONTINUOUS
 62
     7
 10
-172.4086189800216
 20
-23.46032035030976
 30
0.0
 40
3.0
  1
YU
  0
TEXT
  5
151
  8
回04-下接
  6
CONTINUOUS
 62
     7
 10
-223.7555369239327
 20
-84.60319196053305
 30
0.0
 40
1.439999999999999
  1
AST-047A.
 50
270.0
  0
TEXT
  5
155
  8
回08-記事
  6
CONTINUOUS
 62
     7
 10
-135.4871677515252
 20
60.2909907786714
 30
0.0
 40
1.679999999999999
  1
1
  0
TEXT
  5
156
  8
回08-記事
  6
CONTINUOUS
 62
     7
 10
-131.6265083002477
 20
60.31388373446025
 30
0.0
 40
1.679999999999999
  1
4
  0
LINE
  5
157
  8
回05-ﾃｰﾙ
  6
BYBLOCK
 62
     8
 10
-142.8245675733478
 20
-10.08643274566492
 30
0.0
 11
-142.8245675733478
 21
-10.08643274566492
 31
0.0
  0
ARC
  5
15B
  8
回05-ﾃｰﾙ
  6
BYBLOCK
 62
     7
 10
-136.9535922389278
 20
0.3222685542084207
 30
0.0
 40
1.0
 50
315.143598144232
 51
359.9966864211496
  0
ARC
  5
15C
  8
回05-ﾃｰﾙ
  6
BYBLOCK
 62
     7
 10
-128.6995675733477
 20
0.3248298231130491
 30
0.0
 40
1.0
 50
180.0
 51
224.8829928953902
  0
ARC
  5
15D
  8
回05-ﾃｰﾙ
  6
BYBLOCK
 62
     7
 10
-125.8257705077578
 20
-5.394949741264696
 30
0.0
 40
1.0
 50
0.0256057119359739
 51
44.8829928953902
  0
ARC
  5
15E
  8
回05-ﾃｰﾙ
  6
BYBLOCK
 62
     7
 10
-139.824567573348
 20
-5.398676423005126
 30
0.0
 40
1.0
 50
135.1435981442318
 51
180.0000000000032
  0
ARC
  5
15F
  8
回05-ﾃｰﾙ
  6
BYBLOCK
 62
     7
 10
-142.8245675733476
 20
-8.086432745664778
 30
0.0
 40
2.0
 50
301.7883306170383
 51
0.0000000000032569
  0
ARC
  5
160
  8
回05-ﾃｰﾙ
  6
BYBLOCK
 62
     7
 10
-122.8245673736246
 20
-8.086432745665007
 30
0.0
 40
2.0
 50
180.0256057119359
 51
238.2116693829497
  0
LINE
  5
161
  8
回05-ﾃｰﾙ
  6
BYBLOCK
 62
     7
 10
-136.2447154866488
 20
-0.383063814309196
 30
0.0
 11
-140.5334443256268
 21
-4.693344054487566
 31
0.0
  0
LINE
  5
162
  8
回05-ﾃｰﾙ
  6
BYBLOCK
 62
     7
 10
-129.4081169037023
 20
-0.3808314599783102
 30
0.0
 11
-125.1172211774034
 21
-4.689288458173393
 31
0.0
  0
LINE
  5
163
  8
回05-ﾃｰﾙ
  6
BYBLOCK
 62
     7
 10
-140.824567573348
 20
-5.398676423005156
 30
0.0
 11
-140.824567573348
 21
-8.086432745664692
 31
0.0
  0
LINE
  5
164
  8
回05-ﾃｰﾙ
  6
BYBLOCK
 62
     7
 10
-124.8257706076195
 20
-5.394502837298943
 30
0.0
 11
-124.8245671739015
 21
-8.087326553596481
 31
0.0
  0
LINE
  5
165
  8
回05-ﾃｰﾙ
  6
BYBLOCK
 62
     7
 10
-130.1995675733477
 20
60.21356725433509
 30
0.0
 11
-135.4495675733477
 21
60.21356725433509
 31
0.0
  0
ARC
  5
166
  8
回05-ﾃｰﾙ
  6
BYBLOCK
 62
     7
 10
-135.4495675733477
 20
59.71356725433508
 30
0.0
 40
0.5
 50
90.0
 51
180.0
  0
ARC
  5
167
  8
回05-ﾃｰﾙ
  6
BYBLOCK
 62
     7
 10
-130.1995675733477
 20
59.71356725433508
 30
0.0
 40
0.5
 50
0.0
 51
90.0
  0
LINE
  5
168
  8
回05-ﾃｰﾙ
  6
BYBLOCK
 62
     7
 10
-135.9501574685304
 20
59.71356725433508
 30
0.0
 11
-135.9535922406001
 21
0.3222107213474032
 31
0.0
  0
LINE
  5
169
  8
回05-ﾃｰﾙ
  6
BYBLOCK
 62
     7
 10
-129.6995675733478
 20
59.71356725433508
 30
0.0
 11
-129.6995675733478
 21
0.3248298231130207
 31
0.0
  0
POLYLINE
  5
16A
  8
回08-記事
 62
     7
 66
     1
 10
0.0
 20
0.0
 30
0.0
 70
     1
  0
VERTEX
  5
59F
  8
回08-記事
 62
     7
 10
-216.6245675733478
 20
-18.18643274566503
 30
0.0
  0
VERTEX
  5
5A1
  8
回08-記事
 62
     7
 10
-116.6245675733477
 20
-18.18643274566503
 30
0.0
  0
VERTEX
  5
5A2
  8
回08-記事
 62
     7
 10
-116.6245675733477
 20
-94.18643274566505
 30
0.0
  0
VERTEX
  5
5A3
  8
回08-記事
 62
     7
 10
-216.6245675733478
 20
-94.18643274566505
 30
0.0
  0
SEQEND
  5
5A0
  8
0
  6
CONTINUOUS
 62
     1
  0
POLYLINE
  5
16B
  8
回08-記事
  6
PHANTOM2
 62
     7
 66
     1
 10
0.0
 20
0.0
 30
0.0
 70
     1
  0
VERTEX
  5
5A4
  8
回08-記事
  6
PHANTOM2
 62
     7
 10
-215.6245675733477
 20
-19.18643274566503
 30
0.0
  0
VERTEX
  5
5A6
  8
回08-記事
  6
PHANTOM2
 62
     7
 10
-117.6245675733477
 20
-19.18643274566503
 30
0.0
  0
VERTEX
  5
5A7
  8
回08-記事
  6
PHANTOM2
 62
     7
 10
-117.6245675733477
 20
-93.18643274566502
 30
0.0
  0
VERTEX
  5
5A8
  8
回08-記事
  6
PHANTOM2
 62
     7
 10
-215.6245675733477
 20
-93.18643274566502
 30
0.0
  0
SEQEND
  5
5A5
  8
0
  6
CONTINUOUS
 62
     1
  0
POLYLINE
  5
16D
  8
回04-下接
  6
CONTINUOUS
 62
     7
 66
     1
 10
0.0
 20
0.0
 30
0.0
 70
     1
  0
VERTEX
  5
5A9
  8
回04-下接
  6
CONTINUOUS
 62
     7
 10
-224.4245675733477
 20
-97.78643274566505
 30
0.0
  0
VERTEX
  5
5AB
  8
回04-下接
  6
CONTINUOUS
 62
     7
 10
-224.4245675733477
 20
-9.786432745665022
 30
0.0
  0
VERTEX
  5
5AC
  8
回04-下接
  6
CONTINUOUS
 62
     7
 10
-113.2245675733478
 20
-9.786432745665022
 30
0.0
  0
VERTEX
  5
5AD
  8
回04-下接
  6
CONTINUOUS
 62
     7
 10
-113.2245675733478
 20
-97.78643274566505
 30
0.0
  0
SEQEND
  5
5AA
  8
0
  6
CONTINUOUS
 62
     1
  0
LINE
  5
16E
  8
回08-記事
  6
CONTINUOUS
 62
     7
 10
-49.77428626155784
 20
51.54691904067568
 30
0.0
 11
-46.19092958451807
 21
47.52281488128438
 31
0.0
  0
TEXT
  5
16F
  8
回08-記事
  6
CONTINUOUS
 62
     7
 10
-45.51845857431453
 20
44.85446684354104
 30
0.0
 40
3.0
  1
5
  0
DIMENSION
  5
170
  8
回08-記事
  6
CONTINUOUS
 62
     7
  2
*D1919
 10
-49.26783403656179
 20
67.33794027374186
 30
0.0
 11
-30.21630793419959
 21
69.48794027374188
 31
0.0
 70
     0
  1
0.3{\H0.6667x;±0.05}[0.012{\H0.6667x;±0.002}]
  3
DMC
 13
-51.46783403656178
 23
60.21356725433509
 33
0.0
 14
-49.26783403656179
 24
60.21356725433509
 34
0.0
 50
180.0
  0
DIMENSION
  5
17F
  8
回08-記事
  6
CONTINUOUS
 62
     7
  2
*D1818
 10
-55.81363027184952
 20
60.21356725433512
 30
0.0
 11
-55.81363027184949
 21
38.40465671157472
 31
0.0
 70
   128
  3
DMC
 13
-51.96783403656178
 23
55.21356725433509
 33
0.0
 14
-51.46783403656178
 24
60.21356725433509
 34
0.0
 50
270.0
1001
ACAD
1000
DSTYLE
1002
{
1070
    47
1040
1.0
1070
   147
1040
0.5
1070
    48
1040
1.0
1070
    72
1070
     0
1070
    71
1070
     0
1002
}
  0
DIMENSION
  5
18E
  8
回08-記事
  6
CONTINUOUS
 62
     7
  2
*D1717
 10
-37.78153654015753
 20
50.21356725433514
 30
0.0
 11
-37.7815365401575
 21
32.20465671157472
 31
0.0
 70
   128
  1
(<>)
  3
DMC
 13
-49.26783403656179
 23
60.21356725433509
 33
0.0
 14
-49.26783403656179
 24
50.21356725433509
 34
0.0
 50
270.0
1001
ACAD
1000
DSTYLE
1002
{
1070
   147
1040
0.5
1070
    72
1070
     0
1070
    47
1040
1.0
1070
    48
1040
1.0
1070
    71
1070
     0
1002
}
  0
DIMENSION
  5
19D
  8
回08-記事
  6
CONTINUOUS
 62
     7
  2
*D1616
 10
-47.96783403656172
 20
-106.123019062895
 30
0.0
 11
-29.46769503656172
 21
-103.9730190628951
 31
0.0
 70
     0
  1
1.4{\H0.6667x;±0.2}[0.055{\H0.66667x;±0.008}]
  3
DMC
 13
-52.96783403656172
 23
-97.48643274566502
 33
0.0
 14
-47.96783403656172
 24
-97.78643274566507
 34
0.0
 50
180.0
  0
ARC
  5
1AC
  8
回08-記事
  6
CONTINUOUS
 62
     7
 10
-50.46783403656178
 20
-20.63724300656347
 30
0.0
 40
0.2
 50
90.0
 51
270.0
  0
ARC
  5
1AD
  8
回08-記事
  6
CONTINUOUS
 62
     7
 10
-50.46783403656178
 20
-24.63724300656347
 30
0.0
 40
0.2
 50
90.0
 51
270.0
  0
ARC
  5
1AE
  8
回08-記事
  6
CONTINUOUS
 62
     7
 10
-50.46783403656178
 20
-28.63724300656347
 30
0.0
 40
0.2
 50
90.0
 51
270.0
  0
ARC
  5
1AF
  8
回08-記事
  6
CONTINUOUS
 62
     7
 10
-50.46783403656178
 20
-32.63724300656347
 30
0.0
 40
0.2
 50
90.0
 51
270.0
  0
ARC
  5
1B0
  8
回08-記事
  6
CONTINUOUS
 62
     7
 10
-50.46783403656178
 20
-36.63724300656347
 30
0.0
 40
0.2
 50
90.0
 51
270.0
  0
ARC
  5
1B1
  8
回08-記事
  6
CONTINUOUS
 62
     7
 10
-50.46783403656178
 20
-40.63724300656346
 30
0.0
 40
0.2
 50
90.0
 51
270.0
  0
ARC
  5
1B2
  8
回08-記事
  6
CONTINUOUS
 62
     7
 10
-50.46783403656178
 20
-44.63724300656346
 30
0.0
 40
0.2
 50
90.0
 51
270.0
  0
ARC
  5
1B3
  8
回08-記事
  6
CONTINUOUS
 62
     7
 10
-50.46783403656178
 20
-48.63724300656347
 30
0.0
 40
0.2
 50
90.0
 51
270.0
  0
ARC
  5
1B4
  8
回08-記事
  6
CONTINUOUS
 62
     7
 10
-50.46783403656178
 20
-52.63724300656346
 30
0.0
 40
0.2
 50
90.0
 51
270.0
  0
ARC
  5
1B5
  8
回08-記事
  6
CONTINUOUS
 62
     7
 10
-50.46783403656178
 20
-56.63724300656348
 30
0.0
 40
0.2
 50
90.0
 51
270.0
  0
ARC
  5
1B6
  8
回08-記事
  6
CONTINUOUS
 62
     7
 10
-50.46783403656178
 20
-60.63724300656346
 30
0.0
 40
0.2
 50
90.0
 51
270.0
  0
ARC
  5
1B7
  8
回08-記事
  6
CONTINUOUS
 62
     7
 10
-50.46783403656178
 20
-64.63724300656346
 30
0.0
 40
0.2
 50
90.0
 51
270.0
  0
ARC
  5
1B8
  8
回08-記事
  6
CONTINUOUS
 62
     7
 10
-50.46783403656178
 20
-68.63724300656347
 30
0.0
 40
0.2
 50
90.0
 51
270.0
  0
ARC
  5
1B9
  8
回08-記事
  6
CONTINUOUS
 62
     7
 10
-50.46783403656178
 20
-72.63724300656345
 30
0.0
 40
0.2
 50
90.0
 51
270.0
  0
ARC
  5
1BA
  8
回08-記事
  6
CONTINUOUS
 62
     7
 10
-50.46783403656178
 20
-76.63724300656344
 30
0.0
 40
0.2
 50
90.0
 51
270.0
  0
ARC
  5
1BB
  8
回08-記事
  6
CONTINUOUS
 62
     7
 10
-50.46783403656178
 20
-80.63724300656344
 30
0.0
 40
0.2
 50
90.0
 51
270.0
  0
ARC
  5
1BC
  8
回08-記事
  6
CONTINUOUS
 62
     7
 10
-50.46783403656178
 20
-84.63724300656343
 30
0.0
 40
0.2
 50
90.0
 51
270.0
  0
ARC
  5
1BD
  8
回08-記事
  6
CONTINUOUS
 62
     7
 10
-50.46783403656178
 20
-88.63724300656343
 30
0.0
 40
0.2
 50
90.0
 51
270.0
  0
ARC
  5
1BE
  8
回08-記事
  6
CONTINUOUS
 62
     7
 10
-50.46783403656178
 20
-92.63724300656344
 30
0.0
 40
0.2
 50
90.0
 51
270.0
  0
LINE
  5
1BF
  8
回08-記事
  6
CONTINUOUS
 62
     7
 10
-47.46783403656173
 20
-13.08643274566492
 30
0.0
 11
-47.96783403656172
 21
-13.08643274566492
 31
0.0
  0
LINE
  5
1C0
  8
回08-記事
  6
CONTINUOUS
 62
     7
 10
-47.46783403656173
 20
-9.286432745665022
 30
0.0
 11
-47.46783403656173
 21
-13.08643274566492
 31
0.0
  0
LINE
  5
1C1
  8
回08-記事
  6
CONTINUOUS
 62
     7
 10
-49.46783403656173
 20
-9.286432745665022
 30
0.0
 11
-47.46783403656173
 21
-9.286432745665022
 31
0.0
  0
LINE
  5
1C2
  8
回08-記事
  6
CONTINUOUS
 62
     7
 10
-49.46783403656173
 20
-5.398676423005156
 30
0.0
 11
-49.46783403656173
 21
-9.286432745665022
 31
0.0
  0
LINE
  5
1C3
  8
回08-記事
  6
CONTINUOUS
 62
     7
 10
-49.96783403656173
 20
-5.398676423005156
 30
0.0
 11
-49.46783403656173
 21
-5.398676423005156
 31
0.0
  0
POLYLINE
  5
1C4
  8
回08-記事
  6
CONTINUOUS
 62
     7
 66
     1
 10
0.0
 20
0.0
 30
0.0
 70
     1
  0
VERTEX
  5
5AE
  8
回08-記事
  6
CONTINUOUS
 62
     7
 10
-51.46783403656178
 20
55.21356725433509
 30
0.0
  0
VERTEX
  5
5B0
  8
回08-記事
  6
CONTINUOUS
 62
     7
 10
-51.46783403656178
 20
-10.08643274566503
 30
0.0
  0
VERTEX
  5
5B1
  8
回08-記事
  6
CONTINUOUS
 62
     7
 10
-51.96783403656173
 20
-10.08643274566503
 30
0.0
  0
VERTEX
  5
5B2
  8
回08-記事
  6
CONTINUOUS
 62
     7
 10
-51.96783403656173
 20
55.21356725433509
 30
0.0
  0
SEQEND
  5
5AF
  8
0
  6
CONTINUOUS
 62
     1
  0
POLYLINE
  5
1C5
  8
回08-記事
  6
CONTINUOUS
 62
     7
 66
     1
 10
0.0
 20
0.0
 30
0.0
 70
     1
  0
VERTEX
  5
5B3
  8
回08-記事
  6
CONTINUOUS
 62
     7
 10
-50.46783403656178
 20
60.21356725433509
 30
0.0
  0
VERTEX
  5
5B5
  8
回08-記事
  6
CONTINUOUS
 62
     7
 10
-50.46783403656178
 20
50.21356725433509
 30
0.0
  0
VERTEX
  5
5B6
  8
回08-記事
  6
CONTINUOUS
 62
     7
 10
-49.26783403656179
 20
50.21356725433509
 30
0.0
  0
VERTEX
  5
5B7
  8
回08-記事
  6
CONTINUOUS
 62
     7
 10
-49.26783403656179
 20
60.21356725433509
 30
0.0
  0
SEQEND
  5
5B4
  8
0
  6
CONTINUOUS
 62
     1
  0
LINE
  5
1C6
  8
回08-記事
  6
CONTINUOUS
 62
     7
 10
-51.46783403656172
 20
-17.58643274566503
 30
0.0
 11
-50.46783403656172
 21
-17.58643274566503
 31
0.0
  0
LINE
  5
1C7
  8
回08-記事
  6
CONTINUOUS
 62
     7
 10
-51.46783403656172
 20
-97.48643274566502
 30
0.0
 11
-50.46783403656172
 21
-97.48643274566502
 31
0.0
  0
LINE
  5
1C8
  8
回08-記事
  6
CONTINUOUS
 62
     7
 10
-51.46783403656172
 20
-94.38643274566507
 30
0.0
 11
-50.46783403656172
 21
-94.38643274566507
 31
0.0
  0
POLYLINE
  5
1C9
  8
回08-記事
  6
CONTINUOUS
 62
     7
 66
     1
 10
0.0
 20
0.0
 30
0.0
 70
     1
  0
VERTEX
  5
5B8
  8
回08-記事
  6
CONTINUOUS
 62
     7
 10
-50.46783403656178
 20
60.21356725433509
 30
0.0
  0
VERTEX
  5
5BA
  8
回08-記事
  6
CONTINUOUS
 62
     7
 10
-50.46783403656178
 20
-13.08643274566492
 30
0.0
  0
VERTEX
  5
5BB
  8
回08-記事
  6
CONTINUOUS
 62
     7
 10
-51.46783403656172
 20
-13.08643274566492
 30
0.0
  0
VERTEX
  5
5BC
  8
回08-記事
  6
CONTINUOUS
 62
     7
 10
-51.46783403656172
 20
60.21356725433509
 30
0.0
  0
SEQEND
  5
5B9
  8
0
  6
CONTINUOUS
 62
     1
  0
POLYLINE
  5
1CA
  8
回08-記事
  6
CONTINUOUS
 62
     7
 66
     1
 10
0.0
 20
0.0
 30
0.0
 70
     1
  0
VERTEX
  5
5BD
  8
回08-記事
  6
CONTINUOUS
 62
     7
 10
-47.96783403656172
 20
-9.786432745665022
 30
0.0
  0
VERTEX
  5
5BF
  8
回08-記事
  6
CONTINUOUS
 62
     7
 10
-47.96783403656172
 20
-97.78643274566507
 30
0.0
  0
VERTEX
  5
5C0
  8
回08-記事
  6
CONTINUOUS
 62
     7
 10
-50.46783403656172
 20
-97.78643274566507
 30
0.0
  0
VERTEX
  5
5C1
  8
回08-記事
  6
CONTINUOUS
 62
     7
 10
-50.46783403656172
 20
-9.786432745665022
 30
0.0
  0
SEQEND
  5
5BE
  8
0
  6
CONTINUOUS
 62
     1
  0
POLYLINE
  5
1CB
  8
回08-記事
  6
CONTINUOUS
 62
     7
 66
     1
 10
0.0
 20
0.0
 30
0.0
 70
     1
  0
VERTEX
  5
5C2
  8
回08-記事
  6
CONTINUOUS
 62
     7
 10
-52.96783403656172
 20
-10.08643274566503
 30
0.0
  0
VERTEX
  5
5C4
  8
回08-記事
  6
CONTINUOUS
 62
     7
 10
-52.96783403656172
 20
-97.48643274566502
 30
0.0
  0
VERTEX
  5
5C5
  8
回08-記事
  6
CONTINUOUS
 62
     7
 10
-51.46783403656172
 20
-97.48643274566502
 30
0.0
  0
VERTEX
  5
5C6
  8
回08-記事
  6
CONTINUOUS
 62
     7
 10
-51.46783403656172
 20
-10.08643274566503
 30
0.0
  0
SEQEND
  5
5C3
  8
0
  6
CONTINUOUS
 62
     1
  0
DIMENSION
  5
1CC
  8
回07-寸法
  6
CONTINUOUS
 62
     7
  2
*D1515
 10
-108.0946705000811
 20
-92.18643274566506
 30
0.0
 11
-108.094670500081
 21
-79.13237235228582
 31
0.0
 70
   128
  1
(<>)
  3
DMC
 13
-113.2245675733478
 23
-94.18643274566505
 33
0.0
 14
-113.2245675733478
 24
-92.18643274566506
 34
0.0
 50
90.0
  0
DIMENSION
  5
1DB
  8
回07-寸法
  6
CONTINUOUS
 62
     7
  2
*D1414
 10
-105.8092503195553
 20
-97.78643274566507
 30
0.0
 11
-105.8092503195553
 21
-112.1852516433028
 31
0.0
 70
   128
  1
(<>)
  3
DMC
 13
-113.2245675733478
 23
-94.18643274566505
 33
0.0
 14
-113.2245675733478
 24
-97.78643274566505
 34
0.0
 50
90.0
  0
TEXT
  5
1EA
  8
回07-寸法
  6
CONTINUOUS
 62
     5
 10
-138.9736047150406
 20
-102.2654011543236
 30
0.0
 40
3.0
  1
AIR VENT
1001
ACAD
1000
MTEXTBEGIN
1070
    73
1070
     1
1070
    44
1040
1.0
1070
    74
1070
     0
1000
MTEXTEND
  0
INSERT
  5
1EB
  8
回07-寸法
  6
CONTINUOUS
 62
     7
 66
     1
  2
*X4242
 10
0.0
 20
0.0
 30
0.0
  0
SEQEND
  5
3BD
  8
0
  6
CONTINUOUS
 62
     1
  0
CIRCLE
  5
1EC
  8
回07-寸法
  6
DASHED2
 62
     5
 10
-132.587656189668
 20
60.29643710078993
 30
0.0
 40
5.926841827396128
  0
DIMENSION
  5
1ED
  8
回07-寸法
  6
CONTINUOUS
 62
    30
  2
*D1313
 10
-124.8251688907605
 20
27.53422666581059
 30
0.0
 11
-112.2251688907605
 21
27.53422666581059
 31
0.0
 70
   128
  3
DMC
 13
-140.8245675733479
 23
-6.742554584334924
 33
0.0
 14
-124.8251688907605
 24
-6.740914695447712
 34
0.0
  0
DIMENSION
  5
1FC
  8
回07-寸法
  6
CONTINUOUS
 62
    30
  2
*D1212
 10
-129.6995675733478
 20
68.18821447500067
 30
0.0
 11
-108.5498037938202
 21
68.18821447500067
 31
0.0
 70
   128
  3
DMC
 13
-135.9501574685304
 23
59.71356725433508
 33
0.0
 14
-129.6995675733478
 24
59.71356725433508
 34
0.0
1001
ACAD
1000
DSTYLE
1002
{
1070
    47
1040
0.2
1070
   147
1040
0.5
1070
    48
1040
0.2
1070
    72
1070
     0
1070
    71
1070
     0
1002
}
  0
DIMENSION
  5
20B
  8
回07-寸法
  6
CONTINUOUS
 62
    30
  2
*D1111
 10
-181.4092007521296
 20
60.21356725433509
 30
0.0
 11
-181.4092007521296
 21
24.75496067942913
 31
0.0
 70
   128
  3
DMC
 13
-145.1028943481031
 23
-9.786432745665022
 33
0.0
 14
-134.6995675733478
 24
60.21356725433509
 34
0.0
 50
270.0
1001
ACAD
1000
DSTYLE
1002
{
1070
    47
1040
1.0
1070
    48
1040
1.0
1070
    71
1070
     1
1002
}
  0
DIMENSION
  5
218
  8
回07-寸法
  6
CONTINUOUS
 62
    30
  2
*D1010
 10
-73.02495766028231
 20
-97.78643274566507
 30
0.0
 11
-73.02495766028233
 21
-53.4820843428605
 31
0.0
 70
   128
  3
DMC
 13
-113.2245675733478
 23
-9.786432745665022
 33
0.0
 14
-113.2245675733478
 24
-97.78643274566505
 34
0.0
 50
90.0
1001
ACAD
1000
DSTYLE
1002
{
1070
    47
1040
0.3
1070
   147
1040
0.5
1070
    48
1040
0.3
1070
    72
1070
     0
1070
    71
1070
     1
1002
}
  0
DIMENSION
  5
225
  8
回07-寸法
  6
CONTINUOUS
 62
    30
  2
*D99
 10
-88.89288265038201
 20
-94.18643274566505
 30
0.0
 11
-88.89288265038201
 21
-54.35950195703572
 31
0.0
 70
   128
  1
<> (Viewing Area)
  3
DMC
 13
-116.6245675733477
 23
-18.18643274566503
 33
0.0
 14
-116.6245675733477
 24
-94.18643274566505
 34
0.0
 50
90.0
  0
DIMENSION
  5
232
  8
回07-寸法
  6
CONTINUOUS
 62
    30
  2
*D88
 10
-95.62894117227051
 20
-19.18643274566503
 30
0.0
 11
-95.62894117227051
 21
-56.35665038279785
 31
0.0
 70
   128
  1
<> (Active Area)
  3
DMC
 13
-117.6245675733477
 23
-93.18643274566502
 33
0.0
 14
-117.6245675733477
 24
-19.18643274566503
 34
0.0
 50
90.0
  0
DIMENSION
  5
23F
  8
回07-寸法
  6
CONTINUOUS
 62
    30
  2
*D77
 10
-88.89288265038208
 20
-97.78643274566507
 30
0.0
 11
-91.0428826503821
 21
-110.986432745665
 31
0.0
 70
     0
  3
DMC
 13
-116.6245675733477
 23
-94.18643274566505
 33
0.0
 14
-113.2245675733478
 24
-97.78643274566505
 34
0.0
 50
90.0
  0
DIMENSION
  5
24E
  8
回07-寸法
  6
CONTINUOUS
 62
    30
  2
*D66
 10
-95.62894117227054
 20
-97.78643274566507
 30
0.0
 11
-97.77894117227056
 21
-110.686432745665
 31
0.0
 70
     0
  3
DMC
 13
-117.6245675733477
 23
-93.18643274566502
 33
0.0
 14
-113.2245675733478
 24
-97.78643274566505
 34
0.0
 50
90.0
  0
DIMENSION
  5
25D
  8
回07-寸法
  6
CONTINUOUS
 62
    30
  2
*D55
 10
-113.2245675733478
 20
-153.6931715776887
 30
0.0
 11
-168.7276575193364
 21
-153.6931715776887
 31
0.0
 70
   128
  3
DMC
 13
-224.4245675733477
 23
-97.78643274566505
 33
0.0
 14
-113.2245675733478
 24
-97.78643274566505
 34
0.0
1001
ACAD
1000
DSTYLE
1002
{
1070
    47
1040
0.3
1070
    48
1040
0.3
1070
    71
1070
     1
1002
}
  0
DIMENSION
  5
26A
  8
回07-寸法
  6
CONTINUOUS
 62
    30
  2
*D44
 10
-116.6245675733477
 20
-137.3547067607749
 30
0.0
 11
-167.6722133402679
 21
-137.3547067607749
 31
0.0
 70
   128
  1
<> (Viewing Area)
  3
DMC
 13
-216.6245675733478
 23
-94.18643274566505
 33
0.0
 14
-116.6245675733477
 24
-94.18643274566505
 34
0.0
  0
DIMENSION
  5
277
  8
回07-寸法
  6
CONTINUOUS
 62
    30
  2
*D33
 10
-224.4245675733477
 20
-137.3547067607749
 30
0.0
 11
-237.7745675733478
 21
-135.2047067607749
 31
0.0
 70
     0
  3
DMC
 13
-216.6245675733478
 23
-94.18643274566505
 33
0.0
 14
-224.4245675733477
 24
-97.78643274566505
 34
0.0
  0
DIMENSION
  5
286
  8
回07-寸法
  6
CONTINUOUS
 62
    30
  2
*D22
 10
-117.6245675733477
 20
-129.126702900931
 30
0.0
 11
-166.6245675733477
 21
-129.126702900931
 31
0.0
 70
   128
  1
<> (Active Area)
  3
DMC
 13
-215.6245675733477
 23
-93.18643274566502
 33
0.0
 14
-117.6245675733477
 24
-93.18643274566502
 34
0.0
  0
DIMENSION
  5
293
  8
回07-寸法
  6
CONTINUOUS
 62
    30
  2
*D11
 10
-224.4245675733477
 20
-129.126702900931
 30
0.0
 11
-237.9245675733478
 21
-126.976702900931
 31
0.0
 70
     0
  3
DMC
 13
-215.6245675733477
 23
-93.18643274566502
 33
0.0
 14
-224.4245675733477
 24
-97.78643274566505
 34
0.0
  0
INSERT
  5
2A2
  8
回08-記事
  6
CONTINUOUS
 62
     5
 66
     1
  2
*X4343
 10
0.0
 20
0.0
 30
0.0
  0
SEQEND
  5
3C6
  8
0
  6
CONTINUOUS
 62
     1
  0
INSERT
  5
2A3
  8
回08-記事
  6
CONTINUOUS
 62
     5
  2
_OPEN
 10
50.44371280250095
 20
14.17748491251436
 30
0.0
 41
4.0
 42
4.0
 43
4.0
 50
180.0
  0
INSERT
  5
2A4
  8
回08-記事
  6
CONTINUOUS
 62
     5
  2
_OPEN
 10
47.94371280250095
 20
14.17748491251436
 30
0.0
 41
4.0
 42
4.0
 43
4.0
  0
LINE
  5
2A5
  8
回08-記事
  6
CONTINUOUS
 62
     5
 10
47.94371280250088
 20
14.17748491251439
 30
0.0
 11
50.44371280250089
 21
14.17748491251439
 31
0.0
  0
LINE
  5
2A6
  8
回08-記事
  6
CONTINUOUS
 62
     5
 10
54.4437128025009
 20
14.17748491251439
 30
0.0
 11
96.51070212778131
 21
14.17748491251439
 31
0.0
  0
LINE
  5
2A7
  8
回08-記事
  6
CONTINUOUS
 62
     5
 10
43.9437128025009
 20
14.17748491251439
 30
0.0
 11
39.9437128025009
 21
14.17748491251439
 31
0.0
  0
LINE
  5
2A8
  8
回08-記事
  6
CONTINUOUS
 62
     5
 10
52.94371280250107
 20
3.061418930942123
 30
0.0
 11
52.94371280250107
 21
10.59956704191626
 31
0.0
  0
LINE
  5
2A9
  8
回08-記事
  6
CONTINUOUS
 62
     5
 10
50.44371280250107
 20
4.05493758083702
 30
0.0
 11
50.44371280250107
 21
10.59956704191626
 31
0.0
  0
INSERT
  5
2AA
  8
回08-記事
  6
CONTINUOUS
 62
     5
 66
     1
  2
*X4444
 10
0.0
 20
0.0
 30
0.0
  0
SEQEND
  5
3CF
  8
0
  6
CONTINUOUS
 62
     1
  0
INSERT
  5
2AB
  8
回08-記事
  6
CONTINUOUS
 62
     5
  2
_OPEN
 10
51.14371280250093
 20
7.694056160612802
 30
0.0
 41
4.0
 42
4.0
 43
4.0
 50
180.0
  0
INSERT
  5
2AC
  8
回08-記事
  6
CONTINUOUS
 62
     5
  2
_OPEN
 10
49.74371280250096
 20
7.694056160612802
 30
0.0
 41
4.0
 42
4.0
 43
4.0
  0
LINE
  5
2AD
  8
回08-記事
  6
CONTINUOUS
 62
     5
 10
49.74371280250096
 20
7.694056160612831
 30
0.0
 11
51.14371280250093
 21
7.694056160612831
 31
0.0
  0
LINE
  5
2AE
  8
回08-記事
  6
CONTINUOUS
 62
     5
 10
55.14371280250093
 20
7.694056160612831
 30
0.0
 11
99.01070212778131
 21
7.694056160612831
 31
0.0
  0
LINE
  5
2AF
  8
回08-記事
  6
CONTINUOUS
 62
     5
 10
45.74371280250097
 20
7.694056160612831
 30
0.0
 11
41.74371280250096
 21
7.694056160612831
 31
0.0
  0
LINE
  5
2B0
  8
回08-記事
  6
CONTINUOUS
 62
     5
 10
51.14371280250111
 20
-4.765044700628948
 30
0.0
 11
51.14371280250111
 21
8.527278820572632
 31
0.0
  0
LINE
  5
2B1
  8
回08-記事
  6
CONTINUOUS
 62
     5
 10
49.74371280250114
 20
-4.765044700628948
 30
0.0
 11
49.74371280250114
 21
8.527278820572632
 31
0.0
  0
INSERT
  5
2B2
  8
回08-記事
  6
CONTINUOUS
 62
     5
 66
     1
  2
*X4545
 10
0.0
 20
0.0
 30
0.0
  0
SEQEND
  5
3D8
  8
0
  6
CONTINUOUS
 62
     1
  0
INSERT
  5
2B3
  8
回08-記事
  6
CONTINUOUS
 62
     5
  2
_OPEN
 10
52.94371280250111
 20
25.82534705369156
 30
0.0
 41
4.0
 42
4.0
 43
4.0
 50
180.0
  0
INSERT
  5
2B4
  8
回08-記事
  6
CONTINUOUS
 62
     5
  2
_OPEN
 10
40.44249831241922
 20
25.82534705369156
 30
0.0
 41
4.0
 42
4.0
 43
4.0
  0
LINE
  5
2B5
  8
回08-記事
  6
CONTINUOUS
 62
     5
 10
40.44249831241915
 20
25.82534705369159
 30
0.0
 11
52.94371280250107
 21
25.82534705369159
 31
0.0
  0
LINE
  5
2B6
  8
回08-記事
  6
CONTINUOUS
 62
     5
 10
56.94371280250106
 20
25.82534705369159
 30
0.0
 11
88.97437310694568
 21
25.82534705369159
 31
0.0
  0
LINE
  5
2B7
  8
回08-記事
  6
CONTINUOUS
 62
     5
 10
40.44249831241915
 20
3.061418930942123
 30
0.0
 11
40.44249831241915
 21
29.57238505784518
 31
0.0
  0
LINE
  5
2B8
  8
回08-記事
  6
CONTINUOUS
 62
     5
 10
52.94371280250107
 20
3.061418930942123
 30
0.0
 11
52.94371280250107
 21
29.57238505784518
 31
0.0
  0
TEXT
  5
2B9
  8
回08-記事
  6
CONTINUOUS
 62
     5
 10
31.744563487694
 20
-48.1148528159996
 30
0.0
 40
3.9
  1
SECTION A
  0
LINE
  5
2BA
  8
回08-記事
  6
CENTER2
 62
     5
 10
42.94371280250106
 20
4.994966180686049
 30
0.0
 11
42.94371280250106
 21
-26.09043012674897
 31
0.0
  0
LINE
  5
2BB
  8
回08-記事
  6
CENTER2
 62
     5
 10
45.44371280250106
 20
4.994966180686049
 30
0.0
 11
45.44371280250106
 21
-26.09043012674897
 31
0.0
  0
LINE
  5
2BC
  8
回08-記事
  6
CENTER2
 62
     5
 10
47.94371280250106
 20
4.994966180686049
 30
0.0
 11
47.94371280250106
 21
-26.09043012674897
 31
0.0
  0
LINE
  5
2BD
  8
回08-記事
  6
CENTER2
 62
     5
 10
50.44371280250107
 20
4.994966180686049
 30
0.0
 11
50.44371280250107
 21
-26.09043012674897
 31
0.0
  0
LINE
  5
2BE
  8
回08-記事
  6
PHANTOM2
 62
     8
 10
40.44139948805934
 20
-15.93858106905787
 30
0.0
 11
52.94371280250107
 21
-15.93858106905787
 31
0.0
  0
LINE
  5
2BF
  8
回08-記事
  6
CONTINUOUS
 62
     7
 10
40.44197781666979
 20
-5.938581069057875
 30
0.0
 11
52.94371280250107
 21
-5.938581069057875
 31
0.0
  0
TEXT
  5
2C0
  8
回08-記事
  6
CONTINUOUS
 62
     7
 10
36.08522902384436
 20
-0.8030293584926653
 30
0.0
 40
3.359999999999998
  1
1
  0
TEXT
  5
2C1
  8
回08-記事
  6
CONTINUOUS
 62
     7
 10
54.87650660276257
 20
-0.4010122179773818
 30
0.0
 40
3.359999999999998
  1
4
  0
POLYLINE
  5
2C2
  8
回08-記事
  6
CONTINUOUS
 62
     8
 66
     1
 10
0.0
 20
0.0
 30
0.0
 40
1.399999999999999
 41
1.399999999999999
  0
VERTEX
  5
5C7
  8
回08-記事
  6
CONTINUOUS
 62
     8
 10
45.44371280250106
 20
4.05493758083702
 30
0.0
  0
VERTEX
  5
5C9
  8
回08-記事
  6
CONTINUOUS
 62
     8
 10
45.44371280250106
 20
-35.93858106905783
 30
0.0
  0
SEQEND
  5
5C8
  8
0
  6
CONTINUOUS
 62
     1
  0
POLYLINE
  5
2C3
  8
回08-記事
  6
CONTINUOUS
 62
     8
 66
     1
 10
0.0
 20
0.0
 30
0.0
 40
1.399999999999999
 41
1.399999999999999
  0
VERTEX
  5
5CA
  8
回08-記事
  6
CONTINUOUS
 62
     8
 10
42.94371280250106
 20
4.05493758083702
 30
0.0
  0
VERTEX
  5
5CC
  8
回08-記事
  6
CONTINUOUS
 62
     8
 10
42.94371280250106
 20
-35.93858106905783
 30
0.0
  0
SEQEND
  5
5CB
  8
0
  6
CONTINUOUS
 62
     1
  0
POLYLINE
  5
2C4
  8
回08-記事
  6
CONTINUOUS
 62
     8
 66
     1
 10
0.0
 20
0.0
 30
0.0
 40
1.399999999999999
 41
1.399999999999999
  0
VERTEX
  5
5CD
  8
回08-記事
  6
CONTINUOUS
 62
     8
 10
50.44371280250107
 20
-35.93858106905783
 30
0.0
  0
VERTEX
  5
5CF
  8
回08-記事
  6
CONTINUOUS
 62
     8
 10
50.44371280250107
 20
4.05493758083702
 30
0.0
  0
SEQEND
  5
5CE
  8
0
  6
CONTINUOUS
 62
     1
  0
LINE
  5
2C5
  8
回08-記事
  6
BYBLOCK
 62
     8
 10
51.94371280250118
 20
4.061418930942123
 30
0.0
 11
41.44371280250117
 21
4.061418930942123
 31
0.0
  0
ARC
  5
2C6
  8
回08-記事
  6
BYBLOCK
 62
     8
 10
41.44371280250124
 20
3.061418930942096
 30
0.0
 40
1.0
 50
90.0
 51
180.0
  0
ARC
  5
2C7
  8
回08-記事
  6
BYBLOCK
 62
     8
 10
51.94371280250123
 20
3.061418930942096
 30
0.0
 40
1.0
 50
0.0
 51
90.0
  0
LINE
  5
2C8
  8
回08-記事
  6
BYBLOCK
 62
     8
 10
40.44249831241915
 20
3.061418930942123
 30
0.0
 11
40.44024283083841
 21
-35.93858106905783
 31
0.0
  0
LINE
  5
2C9
  8
回08-記事
  6
BYBLOCK
 62
     8
 10
52.94371280250107
 20
3.061418930942123
 30
0.0
 11
52.94371280250107
 21
-35.93858106905783
 31
0.0
  0
POLYLINE
  5
2CA
  8
回08-記事
  6
CONTINUOUS
 62
     8
 66
     1
 10
0.0
 20
0.0
 30
0.0
 40
1.399999999999999
 41
1.399999999999999
  0
VERTEX
  5
5D0
  8
回08-記事
  6
CONTINUOUS
 62
     8
 10
47.94371280250106
 20
4.05493758083702
 30
0.0
  0
VERTEX
  5
5D2
  8
回08-記事
  6
CONTINUOUS
 62
     8
 10
47.94371280250106
 20
-35.93858106905783
 30
0.0
  0
SEQEND
  5
5D1
  8
0
  6
CONTINUOUS
 62
     1
  0
LINE
  5
2CB
  8
回08-記事
  6
CONTINUOUS
 62
     7
 10
81.53753533002078
 20
83.10600568305011
 30
0.0
 11
81.53753533002078
 21
38.02388551237044
 31
0.0
  0
LINE
  5
2CC
  8
回08-記事
  6
CONTINUOUS
 62
     7
 10
39.35627657730986
 20
83.10600568305011
 30
0.0
 11
39.35627657730986
 21
58.53600568304996
 31
0.0
  0
TEXT
  5
2CD
  8
回08-記事
  6
CONTINUOUS
 62
     7
 10
80.03341519933668
 20
83.48268792506518
 30
0.0
 40
4.679999999999999
  1
4
  0
TEXT
  5
2CE
  8
回08-記事
  6
CONTINUOUS
 62
     7
 10
71.24682772843681
 20
57.5804188935777
 30
0.0
 40
4.094999999999998
  1
XR
  0
LINE
  5
2CF
  8
回08-記事
  6
CONTINUOUS
 62
     7
 10
81.53753533002065
 20
38.02388551237044
 30
0.0
 11
56.72152446472431
 21
38.02388551237044
 31
0.0
  0
LINE
  5
2D0
  8
回08-記事
  6
CONTINUOUS
 62
     7
 10
56.72152446472431
 20
44.20350568305008
 30
0.0
 11
56.72152446472431
 21
38.02388551237044
 31
0.0
  0
LINE
  5
2D1
  8
回08-記事
  6
CONTINUOUS
 62
     7
 10
58.24252446472451
 20
51.86700568305008
 30
0.0
 11
54.03052446472424
 21
49.76100568304996
 31
0.0
  0
LINE
  5
2D2
  8
回08-記事
  6
CONTINUOUS
 62
     7
 10
54.03052446472424
 20
53.97300568304967
 30
0.0
 11
58.24252446472451
 21
51.86700568305008
 31
0.0
  0
LINE
  5
2D3
  8
回08-記事
  6
CONTINUOUS
 62
     7
 10
54.03052446472424
 20
49.76100568304996
 30
0.0
 11
58.24252446472451
 21
47.65500568304982
 31
0.0
  0
LINE
  5
2D4
  8
回08-記事
  6
CONTINUOUS
 62
     7
 10
58.24252446472451
 20
47.65500568304982
 30
0.0
 11
54.03052446472424
 21
45.54900568304971
 31
0.0
  0
LINE
  5
2D5
  8
回08-記事
  6
CONTINUOUS
 62
     7
 10
54.03052446472424
 20
45.54900568304971
 30
0.0
 11
56.72152446472431
 21
44.20350568305008
 31
0.0
  0
LINE
  5
2D6
  8
回08-記事
  6
CONTINUOUS
 62
     7
 10
54.03052446472424
 20
62.39700568304993
 30
0.0
 11
58.24252446472451
 21
60.29100568305006
 31
0.0
  0
LINE
  5
2D7
  8
回08-記事
  6
CONTINUOUS
 62
     7
 10
54.03052446472424
 20
66.60900568304993
 30
0.0
 11
58.24252446472451
 21
64.50300568305005
 31
0.0
  0
LINE
  5
2D8
  8
回08-記事
  6
CONTINUOUS
 62
     7
 10
58.24252446472451
 20
64.50300568305005
 30
0.0
 11
54.03052446472424
 21
62.39700568304993
 31
0.0
  0
LINE
  5
2D9
  8
回08-記事
  6
CONTINUOUS
 62
     7
 10
58.41802446472422
 20
60.64200568305006
 30
0.0
 11
56.31202446472439
 21
56.43000568304984
 31
0.0
  0
LINE
  5
2DA
  8
回08-記事
  6
CONTINUOUS
 62
     7
 10
63.21502446472443
 20
60.64200568305006
 30
0.0
 11
61.10902446472431
 21
56.43000568304984
 31
0.0
  0
LINE
  5
2DB
  8
回08-記事
  6
CONTINUOUS
 62
     7
 10
63.21502446472443
 20
60.64200568305006
 30
0.0
 11
65.32102446472428
 21
56.43000568304984
 31
0.0
  0
LINE
  5
2DC
  8
回08-記事
  6
CONTINUOUS
 62
     7
 10
58.41802446472422
 20
60.64200568305006
 30
0.0
 11
60.52402446472439
 21
56.43000568304984
 31
0.0
  0
LINE
  5
2DD
  8
回08-記事
  6
CONTINUOUS
 62
     7
 10
49.99402446472395
 20
60.64200568305006
 30
0.0
 11
52.10002446472463
 21
56.43000568304984
 31
0.0
  0
LINE
  5
2DE
  8
回08-記事
  6
CONTINUOUS
 62
     7
 10
54.20602446472424
 20
60.64200568305006
 30
0.0
 11
52.10002446472463
 21
56.43000568304984
 31
0.0
  0
LINE
  5
2DF
  8
回08-記事
  6
CONTINUOUS
 62
     7
 10
54.20602446472424
 20
60.64200568305006
 30
0.0
 11
56.31202446472439
 21
56.43000568304984
 31
0.0
  0
LINE
  5
2E0
  8
回08-記事
  6
CONTINUOUS
 62
     7
 10
66.37402446472434
 20
58.53600568304996
 30
0.0
 11
65.32102446472428
 21
56.43000568304984
 31
0.0
  0
LINE
  5
2E1
  8
回08-記事
  6
CONTINUOUS
 62
     7
 10
58.24252446472451
 20
60.29100568305006
 30
0.0
 11
54.03052446472424
 21
58.18500568304965
 31
0.0
  0
LINE
  5
2E2
  8
回08-記事
  6
CONTINUOUS
 62
     7
 10
54.03052446472424
 20
58.18500568304965
 30
0.0
 11
58.24252446472451
 21
56.07900568304978
 31
0.0
  0
LINE
  5
2E3
  8
回08-記事
  6
CONTINUOUS
 62
     7
 10
66.37402446472434
 20
58.53600568304996
 30
0.0
 11
69.88402446472429
 21
58.53600568304996
 31
0.0
  0
TEXT
  5
2E4
  8
回08-記事
  6
CONTINUOUS
 62
     7
 10
31.57106449295384
 20
57.66446485219126
 30
0.0
 40
4.094999999999998
  1
XL
  0
LINE
  5
2E5
  8
回08-記事
  6
CONTINUOUS
 62
     7
 10
55.55152446472442
 20
70.06050568304965
 30
0.0
 11
58.24252446472451
 21
68.71500568305004
 31
0.0
  0
LINE
  5
2E6
  8
回08-記事
  6
CONTINUOUS
 62
     7
 10
58.24252446472451
 20
68.71500568305004
 30
0.0
 11
54.03052446472424
 21
66.60900568304993
 31
0.0
  0
LINE
  5
2E7
  8
回08-記事
  6
CONTINUOUS
 62
     7
 10
45.78202446472425
 20
60.64200568305006
 30
0.0
 11
47.88802446472442
 21
56.43000568304984
 31
0.0
  0
LINE
  5
2E8
  8
回08-記事
  6
CONTINUOUS
 62
     7
 10
45.78202446472425
 20
60.64200568305006
 30
0.0
 11
44.7290244647242
 21
58.53600568304996
 31
0.0
  0
LINE
  5
2E9
  8
回08-記事
  6
CONTINUOUS
 62
     7
 10
39.35627657730986
 20
58.53600568304996
 30
0.0
 11
44.7290244647242
 21
58.53600568304996
 31
0.0
  0
TEXT
  5
2EA
  8
回08-記事
  6
CONTINUOUS
 62
     7
 10
58.23724617203573
 20
40.24648359993242
 30
0.0
 40
4.094999999999998
  1
YD
  0
LINE
  5
2EB
  8
回08-記事
  6
CONTINUOUS
 62
     7
 10
49.99402446472395
 20
60.64200568305006
 30
0.0
 11
47.88802446472442
 21
56.43000568304984
 31
0.0
  0
TEXT
  5
2EC
  8
回08-記事
  6
CONTINUOUS
 62
     7
 10
37.00786114329146
 20
83.63499646510531
 30
0.0
 40
4.679999999999999
  1
1
  0
TEXT
  5
2ED
  8
回08-記事
  6
CONTINUOUS
 62
     7
 10
53.7762579747109
 20
83.67581051371962
 30
0.0
 40
4.679999999999999
  1
2
  0
TEXT
  5
2EE
  8
回08-記事
  6
CONTINUOUS
 62
     7
 10
67.95160583304215
 20
83.57768427034768
 30
0.0
 40
4.679999999999999
  1
3
  0
LINE
  5
2EF
  8
回08-記事
  6
CONTINUOUS
 62
     7
 10
55.55152446472442
 20
83.10600568305011
 30
0.0
 11
55.55152446472442
 21
70.06050568304965
 31
0.0
  0
TEXT
  5
2F0
  8
回08-記事
  6
CONTINUOUS
 62
     7
 10
6.384850067958722
 20
40.44818471441248
 30
0.0
 40
4.0
  1
PIN ASSIGNMENT
  0
TEXT
  5
2F1
  8
回08-記事
  6
CONTINUOUS
 62
     7
 10
57.95995175997342
 20
70.93611719213874
 30
0.0
 40
4.094999999999998
  1
YU
  0
LINE
  5
2F2
  8
回08-記事
  6
CONTINUOUS
 62
     7
 10
58.24252446472451
 20
56.07900568304978
 30
0.0
 11
54.03052446472424
 21
53.97300568304967
 31
0.0
  0
TEXT
  5
2F3
  8
回90-枠3
 10
72.38670692472806
 20
92.59411947520879
 30
0.0
 40
4.0
  1
F
  0
LINE
  5
2F4
  8
回90-枠3
 10
41.65732161907566
 20
97.22169634915758
 30
0.0
 11
41.65732161907566
 21
92.22169634915758
 31
0.0
  0
TEXT
  5
2F5
  8
回90-枠3
 10
107.061742622735
 20
56.01038364501687
 30
0.0
 40
4.0
  1
1
  0
LINE
  5
2F6
  8
回90-枠3
 10
110.6573216190756
 20
24.22169634915757
 30
0.0
 11
105.6573216190757
 21
24.22169634915757
 31
0.0
  0
TEXT
  5
2F7
  8
回90-枠3
 10
106.7602439194331
 20
-11.98961635498313
 30
0.0
 40
4.0
  1
2
  0
LINE
  5
2F8
  8
回90-枠3
 10
110.6573216190756
 20
-43.77830365084236
 30
0.0
 11
105.6573216190757
 21
-43.77830365084236
 31
0.0
  0
TEXT
  5
2F9
  8
回90-枠3
 10
8.386706924728057
 20
92.59411947520879
 30
0.0
 40
4.0
  1
E
  0
LINE
  5
2FA
  8
回90-枠3
 10
-22.34267838092433
 20
97.22169634915758
 30
0.0
 11
-22.34267838092433
 21
92.22169634915758
 31
0.0
  0
TEXT
  5
2FB
  8
回90-枠3
 10
-55.61329307527194
 20
92.59411947520879
 30
0.0
 40
4.0
  1
D
  0
LINE
  5
2FC
  8
回90-枠3
 10
-86.34267838092432
 20
97.22169634915758
 30
0.0
 11
-86.34267838092432
 21
92.22169634915758
 31
0.0
  0
TEXT
  5
2FD
  8
回90-枠3
 10
-119.6132930752719
 20
92.59411947520879
 30
0.0
 40
4.0
  1
C
  0
LINE
  5
2FE
  8
回90-枠3
 10
-150.3426783809243
 20
97.22169634915758
 30
0.0
 11
-150.3426783809243
 21
92.22169634915758
 31
0.0
  0
TEXT
  5
2FF
  8
回90-枠3
 10
-183.6132930752719
 20
92.59411947520879
 30
0.0
 40
4.0
  1
B
  0
LINE
  5
300
  8
回90-枠3
 10
-214.3426783809243
 20
97.22169634915758
 30
0.0
 11
-214.3426783809243
 21
92.22169634915758
 31
0.0
  0
TEXT
  5
301
  8
回90-枠3
 10
-247.613293075272
 20
92.59411947520879
 30
0.0
 40
4.0
  1
A
  0
TEXT
  5
302
  8
回90-枠3
 10
-281.938257377265
 20
56.01038364501687
 30
0.0
 40
4.0
  1
1
  0
LINE
  5
303
  8
回90-枠3
 10
-278.3426783809243
 20
24.22169634915757
 30
0.0
 11
-283.3426783809244
 21
24.22169634915757
 31
0.0
  0
TEXT
  5
304
  8
回90-枠3
 10
-282.2397560805669
 20
-11.98961635498313
 30
0.0
 40
4.0
  1
2
  0
LINE
  5
305
  8
回90-枠3
 10
-278.3426783809243
 20
-43.77830365084236
 30
0.0
 11
-283.3426783809244
 21
-43.77830365084236
 31
0.0
  0
LINE
  5
306
  8
回90-枠3
 10
-278.3426783809243
 20
92.22169634915758
 30
0.0
 11
105.6573216190757
 21
92.22169634915758
 31
0.0
  0
LINE
  5
307
  8
回90-枠3
 10
110.6573216190756
 20
97.22169634915758
 30
0.0
 11
-283.3426783809244
 21
97.22169634915758
 31
0.0
  0
TEXT
  5
308
  8
回90-枠3
 10
106.7547630752324
 20
-79.98961635498305
 30
0.0
 40
4.0
  1
3
  0
LINE
  5
309
  8
回90-枠3
 10
110.6573216190756
 20
-111.2783036508423
 30
0.0
 11
105.6573216190757
 21
-111.2783036508423
 31
0.0
  0
TEXT
  5
30A
  8
回90-枠3
 10
106.6816709551513
 20
-147.489616354983
 30
0.0
 40
4.0
  1
4
  0
TEXT
  5
30B
  8
回90-枠3
 10
72.38670692472806
 20
-183.9058805247911
 30
0.0
 40
4.0
  1
F
  0
LINE
  5
30C
  8
回90-枠3
 10
41.65732161907566
 20
-179.2783036508423
 30
0.0
 11
41.65732161907566
 21
-184.2783036508423
 31
0.0
  0
TEXT
  5
30D
  8
回90-枠3
 10
8.386706924728057
 20
-183.9058805247911
 30
0.0
 40
4.0
  1
E
  0
LINE
  5
30E
  8
回90-枠3
 10
-22.34267838092433
 20
-179.2783036508423
 30
0.0
 11
-22.34267838092433
 21
-184.2783036508423
 31
0.0
  0
TEXT
  5
30F
  8
回90-枠3
 10
-55.61329307527194
 20
-183.9058805247911
 30
0.0
 40
4.0
  1
D
  0
LINE
  5
310
  8
回90-枠3
 10
-86.34267838092432
 20
-179.2783036508423
 30
0.0
 11
-86.34267838092432
 21
-184.2783036508423
 31
0.0
  0
TEXT
  5
311
  8
回90-枠3
 10
-119.6132930752719
 20
-183.9058805247911
 30
0.0
 40
4.0
  1
C
  0
LINE
  5
312
  8
回90-枠3
 10
-150.3426783809243
 20
-179.2783036508423
 30
0.0
 11
-150.3426783809243
 21
-184.2783036508423
 31
0.0
  0
TEXT
  5
313
  8
回90-枠3
 10
-282.2452369247676
 20
-79.98961635498305
 30
0.0
 40
4.0
  1
3
  0
LINE
  5
314
  8
回90-枠3
 10
-278.3426783809243
 20
-111.2783036508423
 30
0.0
 11
-283.3426783809244
 21
-111.2783036508423
 31
0.0
  0
TEXT
  5
315
  8
回90-枠3
 10
-183.6132930752719
 20
-183.9058805247911
 30
0.0
 40
4.0
  1
B
  0
LINE
  5
316
  8
回90-枠3
 10
-214.3426783809243
 20
-179.2783036508423
 30
0.0
 11
-214.3426783809243
 21
-184.2783036508423
 31
0.0
  0
TEXT
  5
317
  8
回90-枠3
 10
-282.3183290448487
 20
-147.489616354983
 30
0.0
 40
4.0
  1
4
  0
TEXT
  5
318
  8
回90-枠3
 10
-247.613293075272
 20
-183.9058805247911
 30
0.0
 40
4.0
  1
A
  0
LINE
  5
319
  8
回90-枠3
 10
110.6573216190756
 20
-184.2783036508423
 30
0.0
 11
-283.3426783809244
 21
-184.2783036508423
 31
0.0
  0
LINE
  5
31A
  8
回90-枠3
 10
-278.3426783809243
 20
-179.2783036508423
 30
0.0
 11
105.6573216190757
 21
-179.2783036508423
 31
0.0
  0
LINE
  5
31B
  8
回90-枠3
 10
-283.3426783809244
 20
-184.2783036508423
 30
0.0
 11
-283.3426783809244
 21
97.22169634915758
 31
0.0
  0
LINE
  5
31C
  8
回90-枠3
 10
110.6573216190756
 20
-184.2783036508423
 30
0.0
 11
110.6573216190756
 21
97.22169634915758
 31
0.0
  0
LINE
  5
31D
  8
回90-枠3
 10
-278.3426783809243
 20
92.22169634915758
 30
0.0
 11
-278.3426783809243
 21
-179.2783036508423
 31
0.0
  0
LINE
  5
31E
  8
回90-枠3
 10
105.6573216190757
 20
92.22169634915758
 30
0.0
 11
105.6573216190757
 21
-179.2783036508423
 31
0.0
  0
ENDSEC
  0
EOF
