  0
SECTION
  2
HEADER
  9
$ACADVER
  1
AC1009
  9
$INSBASE
 10
0.0
 20
0.0
 30
0.0
  9
$EXTMIN
 10
456.3136270568414
 20
-225.1290635575342
 30
0.0
  9
$EXTMAX
 10
850.3136270568415
 20
56.87093644246579
 30
0.0
  9
$LIMMIN
 10
0.0
 20
0.0
  9
$LIMMAX
 10
3000.0
 20
2500.0
  9
$ORTHOMODE
 70
     0
  9
$REGENMODE
 70
     1
  9
$FILLMODE
 70
     1
  9
$QTEXTMODE
 70
     0
  9
$MIRRTEXT
 70
     1
  9
$DRAGMODE
 70
     2
  9
$LTSCALE
 40
1.0
  9
$OSMODE
 70
    37
  9
$ATTMODE
 70
     1
  9
$TEXTSIZE
 40
3.0
  9
$TRACEWID
 40
1.0
  9
$TEXTSTYLE
  7
STANDARD
  9
$CLAYER
  8
回08-記事
  9
$CELTYPE
  6
CONTINUOUS
  9
$CECOLOR
 62
     7
  9
$DIMSCALE
 40
1.0
  9
$DIMASZ
 40
2.0
  9
$DIMEXO
 40
0.0
  9
$DIMDLI
 40
0.0
  9
$DIMRND
 40
0.0
  9
$DIMDLE
 40
0.0
  9
$DIMEXE
 40
1.0
  9
$DIMTP
 40
0.0
  9
$DIMTM
 40
0.0
  9
$DIMTXT
 40
3.0
  9
$DIMCEN
 40
2.0
  9
$DIMTSZ
 40
0.0
  9
$DIMTOL
 70
     0
  9
$DIMLIM
 70
     0
  9
$DIMTIH
 70
     0
  9
$DIMTOH
 70
     0
  9
$DIMSE1
 70
     0
  9
$DIMSE2
 70
     0
  9
$DIMTAD
 70
     3
  9
$DIMZIN
 70
     8
  9
$DIMBLK
  1
OPEN
  9
$DIMASO
 70
     1
  9
$DIMSHO
 70
     1
  9
$DIMPOST
  1

  9
$DIMAPOST
  1

  9
$DIMALT
 70
     1
  9
$DIMALTD
 70
     3
  9
$DIMALTF
 40
0.03937007874016
  9
$DIMLFAC
 40
1.0
  9
$DIMTOFL
 70
     1
  9
$DIMTVP
 40
0.0
  9
$DIMTIX
 70
     0
  9
$DIMSOXD
 70
     0
  9
$DIMSAH
 70
     0
  9
$DIMBLK1
  1

  9
$DIMBLK2
  1

  9
$DIMSTYLE
  2
DMC
  9
$DIMCLRD
 70
     5
  9
$DIMCLRE
 70
     5
  9
$DIMCLRT
 70
     5
  9
$DIMTFAC
 40
0.7
  9
$DIMGAP
 40
0.5
  9
$LUNITS
 70
     2
  9
$LUPREC
 70
     4
  9
$SKETCHINC
 40
1.0
  9
$FILLETRAD
 40
1.0
  9
$AUNITS
 70
     0
  9
$AUPREC
 70
     0
  9
$MENU
  1
.
  9
$ELEVATION
 40
0.0
  9
$PELEVATION
 40
0.0
  9
$THICKNESS
 40
0.0
  9
$LIMCHECK
 70
     0
  9
$BLIPMODE
 70
     0
  9
$CHAMFERA
 40
1.0
  9
$CHAMFERB
 40
1.0
  9
$SKPOLY
 70
     0
  9
$TDCREATE
 40
2451810.404221065
  9
$TDUPDATE
 40
2460221.411870602
  9
$TDINDWG
 40
1.349430463
  9
$TDUSRTIMER
 40
1.349429398
  9
$USRTIMER
 70
     1
  9
$ANGBASE
 50
0.0
  9
$ANGDIR
 70
     0
  9
$PDMODE
 70
     0
  9
$PDSIZE
 40
0.0
  9
$PLINEWID
 40
0.2
  9
$COORDS
 70
     0
  9
$SPLFRAME
 70
     0
  9
$SPLINETYPE
 70
     6
  9
$SPLINESEGS
 70
     8
  9
$ATTDIA
 70
     1
  9
$ATTREQ
 70
     1
  9
$HANDLING
 70
     1
  9
$HANDSEED
  5
618
  9
$SURFTAB1
 70
     6
  9
$SURFTAB2
 70
     6
  9
$SURFTYPE
 70
     6
  9
$SURFU
 70
     6
  9
$SURFV
 70
     6
  9
$UCSNAME
  2

  9
$UCSORG
 10
0.0
 20
0.0
 30
0.0
  9
$UCSXDIR
 10
1.0
 20
0.0
 30
0.0
  9
$UCSYDIR
 10
0.0
 20
1.0
 30
0.0
  9
$PUCSNAME
  2

  9
$PUCSORG
 10
0.0
 20
0.0
 30
0.0
  9
$PUCSXDIR
 10
1.0
 20
0.0
 30
0.0
  9
$PUCSYDIR
 10
0.0
 20
1.0
 30
0.0
  9
$USERI1
 70
     0
  9
$USERI2
 70
     0
  9
$USERI3
 70
     0
  9
$USERI4
 70
     0
  9
$USERI5
 70
     0
  9
$USERR1
 40
0.0
  9
$USERR2
 40
0.0
  9
$USERR3
 40
0.0
  9
$USERR4
 40
0.0
  9
$USERR5
 40
0.0
  9
$WORLDVIEW
 70
     1
  9
$SHADEDGE
 70
     3
  9
$SHADEDIF
 70
    70
  9
$TILEMODE
 70
     1
  9
$MAXACTVP
 70
    64
  9
$PLIMCHECK
 70
     0
  9
$PEXTMIN
 10
1.000000000000000E+20
 20
1.000000000000000E+20
 30
1.000000000000000E+20
  9
$PEXTMAX
 10
-1.000000000000000E+20
 20
-1.000000000000000E+20
 30
-1.000000000000000E+20
  9
$PLIMMIN
 10
0.0
 20
0.0
  9
$PLIMMAX
 10
420.0
 20
297.0
  9
$UNITMODE
 70
     0
  9
$VISRETAIN
 70
     1
  9
$PLINEGEN
 70
     0
  9
$PSLTSCALE
 70
     1
  0
ENDSEC
  0
SECTION
  2
TABLES
  0
TABLE
  2
VPORT
 70
     1
  0
VPORT
  2
*ACTIVE
 70
     0
 10
0.0
 20
0.0
 11
1.0
 21
1.0
 12
632.1576203786605
 22
-103.7008297476444
 13
0.0
 23
0.0
 14
10.0
 24
10.0
 15
10.0
 25
10.0
 16
0.0
 26
0.0
 36
1.0
 17
0.0
 27
0.0
 37
0.0
 40
455.9619241774271
 41
1.002570694087403
 42
50.0
 43
0.0
 44
0.0
 50
0.0
 51
0.0
 71
     0
 72
   500
 73
     1
 74
     1
 75
     0
 76
     0
 77
     0
 78
     0
  0
ENDTAB
  0
TABLE
  2
LTYPE
 70
     4
  0
LTYPE
  2
CONTINUOUS
 70
     0
  3
Solid line
 72
    65
 73
     0
 40
0.0
  0
LTYPE
  2
DASHED2
 70
     0
  3
Dashed (.5x) _ _ _ _ _ _ _ _ _ _ _ _ _ _ _ _ _
 72
    65
 73
     2
 40
9.524999999999996
 49
6.349999999999998
 49
-3.174999999999998
  0
LTYPE
  2
PHANTOM2
 70
     0
  3
Phantom (.5x) ___ _ _ ___ _ _ ___ _ _ ___ _ _
 72
    65
 73
     6
 40
31.75
 49
15.875
 49
-3.174999999999998
 49
3.174999999999998
 49
-3.174999999999998
 49
3.174999999999998
 49
-3.174999999999998
  0
LTYPE
  2
CENTER2
 70
     0
  3
Center (.5x) ___ _ ___ _ ___ _ ___ _ ___ _ ___
 72
    65
 73
     4
 40
28.575
 49
19.05
 49
-3.174999999999998
 49
3.174999999999998
 49
-3.174999999999998
  0
ENDTAB
  0
TABLE
  2
LAYER
 70
     9
  0
LAYER
  2
0
 70
     0
 62
     7
  6
CONTINUOUS
  0
LAYER
  2
DEFPOINTS
 70
     0
 62
     7
  6
CONTINUOUS
  0
LAYER
  2
回04-下接
 70
     0
 62
     7
  6
CONTINUOUS
  0
LAYER
  2
回05-ﾃｰﾙ
 70
     0
 62
     7
  6
CONTINUOUS
  0
LAYER
  2
回07-寸法
 70
     0
 62
     7
  6
CONTINUOUS
  0
LAYER
  2
回08-記事
 70
     0
 62
     7
  6
CONTINUOUS
  0
LAYER
  2
回91-枠英3
 70
     0
 62
     7
  6
CONTINUOUS
  0
LAYER
  2
回90-枠3
 70
     0
 62
     7
  6
CONTINUOUS
  0
LAYER
  2
回03-記事
 70
     0
 62
     7
  6
CONTINUOUS
  0
ENDTAB
  0
TABLE
  2
STYLE
 70
     2
  0
STYLE
  2
STANDARD
 70
     0
 40
3.0
 41
1.0
 50
0.0
 71
     0
 42
3.0
  3
isocp.shx
  4
bigfont.shx
  0
STYLE
  2
ANNOTATIVE
 70
     0
 40
0.0
 41
1.0
 50
0.0
 71
     0
 42
0.2
  3
txt.shx
  4

  0
ENDTAB
  0
TABLE
  2
VIEW
 70
     0
  0
ENDTAB
  0
TABLE
  2
UCS
 70
     0
  0
ENDTAB
  0
TABLE
  2
APPID
 70
     5
  0
APPID
  2
ACAD
 70
     0
  0
APPID
  2
ACADANNOTATIVE
 70
     0
  0
APPID
  2
ACAD_DSTYLE_DIMJAG
 70
     0
  0
APPID
  2
ACAD_DSTYLE_DIMTALN
 70
     0
  0
APPID
  2
ACAD_NAV_VCDISPLAY
 70
     0
  0
ENDTAB
  0
TABLE
  2
DIMSTYLE
 70
     1
  0
DIMSTYLE
  2
DMC
 70
     0
  3

  4

  5
OPEN
  6

  7

 40
1.0
 41
2.0
 42
0.0
 43
0.0
 44
1.0
 45
0.0
 46
0.0
 47
0.0
 48
0.0
140
3.0
141
2.0
142
0.0
143
0.03937007874016
144
1.0
145
0.0
146
0.7
147
0.5
 71
     0
 72
     0
 73
     0
 74
     0
 75
     0
 76
     0
 77
     3
 78
     8
170
     1
171
     3
172
     1
173
     0
174
     0
175
     0
176
     5
177
     5
178
     5
  0
ENDTAB
  0
ENDSEC
  0
SECTION
  2
BLOCKS
  0
BLOCK
  8
0
  2
$MODEL_SPACE
 70
     0
 10
0.0
 20
0.0
 30
0.0
  3
$MODEL_SPACE
  1

  0
ENDBLK
  8
0
  5
22
  0
BLOCK
 67
     1
  8
0
  2
$PAPER_SPACE
 70
     0
 10
0.0
 20
0.0
 30
0.0
  3
$PAPER_SPACE
  1

  0
ENDBLK
  5
27
 67
     1
  8
0
  0
BLOCK
  8
0
  2
_OPEN
 70
     0
 10
0.0
 20
0.0
 30
0.0
  3
_OPEN
  1

  0
LINE
  5
4AF
  8
0
  6
BYBLOCK
 62
     0
 10
-1.0
 20
0.166667
 30
0.0
 11
0.0
 21
0.0
 31
0.0
  0
LINE
  5
4B0
  8
0
  6
BYBLOCK
 62
     0
 10
-1.0
 20
-0.166667
 30
0.0
 11
0.0
 21
0.0
 31
0.0
  0
LINE
  5
4B1
  8
0
  6
BYBLOCK
 62
     0
 10
0.0
 20
0.0
 30
0.0
 11
-1.0
 21
0.0
 31
0.0
  0
LINE
  5
14
  8
0
  6
CONTINUOUS
 62
     0
 10
-1.0
 20
0.1666666666666666
 30
0.0
 11
0.0
 21
0.0
 31
0.0
  0
LINE
  5
15
  8
0
  6
CONTINUOUS
 62
     0
 10
-1.0
 20
-0.1666666666666666
 30
0.0
 11
0.0
 21
0.0
 31
0.0
  0
LINE
  5
16
  8
0
  6
CONTINUOUS
 62
     0
 10
0.0
 20
0.0
 30
0.0
 11
-1.0
 21
0.0
 31
0.0
  0
ENDBLK
  5
17
  8
0
  0
BLOCK
  8
0
  2
*D11
 70
     1
 10
0.0
 20
0.0
 30
0.0
  3
*D11
  1

  0
LINE
  5
2D9
  8
回07-寸法
  6
CONTINUOUS
 62
     5
 10
578.3211204613604
 20
-39.44262319203563
 30
0.0
 11
578.3211204613604
 21
-17.12362070778499
 31
0.0
  0
LINE
  5
2DA
  8
回07-寸法
  6
CONTINUOUS
 62
     5
 10
695.5211204613606
 20
-39.44262319203563
 30
0.0
 11
695.5211204613606
 21
-17.12362070778499
 31
0.0
  0
LINE
  5
2DB
  8
回07-寸法
  6
CONTINUOUS
 62
     5
 10
580.3211204613606
 20
-18.12362070778499
 30
0.0
 11
693.5211204613606
 21
-18.12362070778499
 31
0.0
  0
INSERT
  5
2DC
  8
回07-寸法
  6
CONTINUOUS
 62
     5
  2
_OPEN
 10
578.3211204613604
 20
-18.12362070778499
 30
0.0
 41
2.0
 42
2.0
 43
2.0
 50
180.0
  0
INSERT
  5
2DD
  8
回07-寸法
  6
CONTINUOUS
 62
     5
  2
_OPEN
 10
695.5211204613606
 20
-18.12362070778499
 30
0.0
 41
2.0
 42
2.0
 43
2.0
  0
TEXT
  5
2DE
  8
回07-寸法
  6
CONTINUOUS
 62
     5
 10
612.6217110125416
 20
-17.47362070778499
 30
0.0
 40
3.0
  1
117.2 [4.614](ACTIVE AREA)
1001
ACAD
1000
MTEXTBEGIN
1070
    73
1070
     1
1070
    44
1040
1.0
1070
    74
1070
     0
1000
MTEXTEND
  0
POINT
  5
2DF
  8
DEFPOINTS
  6
CONTINUOUS
 62
     0
 10
578.3211204613604
 20
-39.44262319203563
 30
0.0
  0
POINT
  5
2E0
  8
DEFPOINTS
  6
CONTINUOUS
 62
     0
 10
695.5211204613606
 20
-39.44262319203563
 30
0.0
  0
POINT
  5
2E1
  8
DEFPOINTS
  6
CONTINUOUS
 62
     0
 10
695.5211204613606
 20
-18.12362070778499
 30
0.0
  0
ENDBLK
  5
2E2
  8
0
 62
     7
  0
BLOCK
  8
0
  2
*D22
 70
     1
 10
0.0
 20
0.0
 30
0.0
  3
*D22
  1

  0
LINE
  5
2CC
  8
回07-寸法
  6
CONTINUOUS
 62
     5
 10
577.3211204613605
 20
-38.44262319203564
 30
0.0
 11
577.3211204613605
 21
-10.8429535125947
 31
0.0
  0
LINE
  5
2CD
  8
回07-寸法
  6
CONTINUOUS
 62
     5
 10
696.5211204613606
 20
-38.44262319203564
 30
0.0
 11
696.5211204613606
 21
-10.8429535125947
 31
0.0
  0
LINE
  5
2CE
  8
回07-寸法
  6
CONTINUOUS
 62
     5
 10
579.3211204613604
 20
-11.8429535125947
 30
0.0
 11
694.5211204613606
 21
-11.8429535125947
 31
0.0
  0
INSERT
  5
2CF
  8
回07-寸法
  6
CONTINUOUS
 62
     5
  2
_OPEN
 10
577.3211204613605
 20
-11.8429535125947
 30
0.0
 41
2.0
 42
2.0
 43
2.0
 50
180.0
  0
INSERT
  5
2D0
  8
回07-寸法
  6
CONTINUOUS
 62
     5
  2
_OPEN
 10
696.5211204613606
 20
-11.8429535125947
 30
0.0
 41
2.0
 42
2.0
 43
2.0
  0
TEXT
  5
2D1
  8
回07-寸法
  6
CONTINUOUS
 62
     5
 10
611.5608799069607
 20
-11.19301341869701
 30
0.0
 40
3.0
  1
119.2 [4.693](VIEWING AREA)
1001
ACAD
1000
MTEXTBEGIN
1070
    73
1070
     1
1070
    44
1040
1.0
1070
    74
1070
     0
1000
MTEXTEND
  0
POINT
  5
2D2
  8
DEFPOINTS
  6
CONTINUOUS
 62
     0
 10
577.3211204613605
 20
-38.44262319203564
 30
0.0
  0
POINT
  5
2D3
  8
DEFPOINTS
  6
CONTINUOUS
 62
     0
 10
696.5211204613606
 20
-38.44262319203564
 30
0.0
  0
POINT
  5
2D4
  8
DEFPOINTS
  6
CONTINUOUS
 62
     0
 10
696.5211204613606
 20
-11.8429535125947
 30
0.0
  0
ENDBLK
  5
2D5
  8
0
 62
     7
  0
BLOCK
  8
0
  2
*D33
 70
     1
 10
0.0
 20
0.0
 30
0.0
  3
*D33
  1

  0
LINE
  5
2BF
  8
回07-寸法
  6
CONTINUOUS
 62
     5
 10
568.4211204613606
 20
-29.44262319203563
 30
0.0
 11
568.4211204613606
 21
5.502594021460254
 31
0.0
  0
LINE
  5
2C0
  8
回07-寸法
  6
CONTINUOUS
 62
     5
 10
699.8211204613604
 20
-29.44262319203563
 30
0.0
 11
699.8211204613604
 21
5.502594021460254
 31
0.0
  0
LINE
  5
2C1
  8
回07-寸法
  6
CONTINUOUS
 62
     5
 10
570.4211204613605
 20
4.502594021460254
 30
0.0
 11
697.8211204613606
 21
4.502594021460254
 31
0.0
  0
INSERT
  5
2C2
  8
回07-寸法
  6
CONTINUOUS
 62
     5
  2
_OPEN
 10
568.4211204613606
 20
4.502594021460254
 30
0.0
 41
2.0
 42
2.0
 43
2.0
 50
180.0
  0
INSERT
  5
2C3
  8
回07-寸法
  6
CONTINUOUS
 62
     5
  2
_OPEN
 10
699.8211204613604
 20
4.502594021460254
 30
0.0
 41
2.0
 42
2.0
 43
2.0
  0
INSERT
  5
2C4
  8
回07-寸法
  6
CONTINUOUS
 62
     5
 66
     1
  2
*X4545
 10
0.0
 20
0.0
 30
0.0
  0
SEQEND
  5
40D
  8
回08-記事
  6
CONTINUOUS
 62
     7
  0
POINT
  5
2C5
  8
DEFPOINTS
  6
CONTINUOUS
 62
     0
 10
568.4211204613606
 20
-29.44262319203563
 30
0.0
  0
POINT
  5
2C6
  8
DEFPOINTS
  6
CONTINUOUS
 62
     0
 10
699.8211204613604
 20
-29.44262319203563
 30
0.0
  0
POINT
  5
2C7
  8
DEFPOINTS
  6
CONTINUOUS
 62
     0
 10
699.8211204613604
 20
4.502594021460254
 30
0.0
  0
ENDBLK
  5
2C8
  8
0
 62
     7
  0
BLOCK
  8
0
  2
*D44
 70
     1
 10
0.0
 20
0.0
 30
0.0
  3
*D44
  1

  0
LINE
  5
2B2
  8
回07-寸法
  6
CONTINUOUS
 62
     5
 10
695.5211204613607
 20
-127.8426231920358
 30
0.0
 11
728.9924053698833
 21
-127.8426231920358
 31
0.0
  0
LINE
  5
2B3
  8
回07-寸法
  6
CONTINUOUS
 62
     5
 10
695.5211204613607
 20
-39.44262319203564
 30
0.0
 11
728.9924053698833
 21
-39.44262319203564
 31
0.0
  0
LINE
  5
2B4
  8
回07-寸法
  6
CONTINUOUS
 62
     5
 10
727.9924053698833
 20
-125.8426231920358
 30
0.0
 11
727.9924053698833
 21
-41.44262319203563
 31
0.0
  0
INSERT
  5
2B5
  8
回07-寸法
  6
CONTINUOUS
 62
     5
  2
_OPEN
 10
727.9924053698833
 20
-127.8426231920358
 30
0.0
 41
2.0
 42
2.0
 43
2.0
 50
270.0
  0
INSERT
  5
2B6
  8
回07-寸法
  6
CONTINUOUS
 62
     5
  2
_OPEN
 10
727.9924053698833
 20
-39.44262319203563
 30
0.0
 41
2.0
 42
2.0
 43
2.0
 50
90.0
  0
TEXT
  5
2B7
  8
回07-寸法
  6
CONTINUOUS
 62
     5
 10
727.3424053698833
 20
-108.3246172384165
 30
0.0
 40
3.0
  1
88.4 [3.480](ACTIVE AREA)
 50
90.0
1001
ACAD
1000
MTEXTBEGIN
1070
    73
1070
     1
1070
    44
1040
1.0
1070
    74
1070
     0
1000
MTEXTEND
  0
POINT
  5
2B8
  8
DEFPOINTS
  6
CONTINUOUS
 62
     0
 10
695.5211204613607
 20
-127.8426231920358
 30
0.0
  0
POINT
  5
2B9
  8
DEFPOINTS
  6
CONTINUOUS
 62
     0
 10
695.5211204613607
 20
-39.44262319203564
 30
0.0
  0
POINT
  5
2BA
  8
DEFPOINTS
  6
CONTINUOUS
 62
     0
 10
727.9924053698833
 20
-39.44262319203563
 30
0.0
  0
ENDBLK
  5
2BB
  8
0
 62
     7
  0
BLOCK
  8
0
  2
*D55
 70
     1
 10
0.0
 20
0.0
 30
0.0
  3
*D55
  1

  0
LINE
  5
2A5
  8
回07-寸法
  6
CONTINUOUS
 62
     5
 10
696.5211204613607
 20
-38.44262319203564
 30
0.0
 11
736.2229912124112
 21
-38.44262319203564
 31
0.0
  0
LINE
  5
2A6
  8
回07-寸法
  6
CONTINUOUS
 62
     5
 10
696.5211204613607
 20
-128.8426231920357
 30
0.0
 11
736.2229912124112
 21
-128.8426231920357
 31
0.0
  0
LINE
  5
2A7
  8
回07-寸法
  6
CONTINUOUS
 62
     5
 10
735.2229912124112
 20
-40.44262319203563
 30
0.0
 11
735.2229912124112
 21
-126.8426231920357
 31
0.0
  0
INSERT
  5
2A8
  8
回07-寸法
  6
CONTINUOUS
 62
     5
  2
_OPEN
 10
735.2229912124112
 20
-38.44262319203564
 30
0.0
 41
2.0
 42
2.0
 43
2.0
 50
90.0
  0
INSERT
  5
2A9
  8
回07-寸法
  6
CONTINUOUS
 62
     5
  2
_OPEN
 10
735.2229912124112
 20
-128.8426231920357
 30
0.0
 41
2.0
 42
2.0
 43
2.0
 50
270.0
  0
TEXT
  5
2AA
  8
回07-寸法
  6
CONTINUOUS
 62
     5
 10
734.5730511185131
 20
-108.757972932119
 30
0.0
 40
3.0
  1
90.4 [3.559](VIEWING AREA)
 50
90.0
1001
ACAD
1000
MTEXTBEGIN
1070
    73
1070
     1
1070
    44
1040
1.0
1070
    74
1070
     0
1000
MTEXTEND
  0
POINT
  5
2AB
  8
DEFPOINTS
  6
CONTINUOUS
 62
     0
 10
696.5211204613607
 20
-38.44262319203564
 30
0.0
  0
POINT
  5
2AC
  8
DEFPOINTS
  6
CONTINUOUS
 62
     0
 10
696.5211204613607
 20
-128.8426231920357
 30
0.0
  0
POINT
  5
2AD
  8
DEFPOINTS
  6
CONTINUOUS
 62
     0
 10
735.2229912124112
 20
-128.8426231920357
 30
0.0
  0
ENDBLK
  5
2AE
  8
0
 62
     7
  0
BLOCK
  8
0
  2
*D66
 70
     1
 10
0.0
 20
0.0
 30
0.0
  3
*D66
  1

  0
LINE
  5
298
  8
回07-寸法
  6
CONTINUOUS
 62
     5
 10
568.4211204613606
 20
-29.44262319203563
 30
0.0
 11
568.4211204613606
 21
-23.33094151496198
 31
0.0
  0
LINE
  5
299
  8
回07-寸法
  6
CONTINUOUS
 62
     5
 10
636.9211204613606
 20
-28.44262319203563
 30
0.0
 11
636.9211204613606
 21
-23.33094151496198
 31
0.0
  0
LINE
  5
29A
  8
回07-寸法
  6
CONTINUOUS
 62
     5
 10
570.4211204613605
 20
-24.33094151496198
 30
0.0
 11
634.9211204613606
 21
-24.33094151496198
 31
0.0
  0
INSERT
  5
29B
  8
回07-寸法
  6
CONTINUOUS
 62
     5
  2
_OPEN
 10
568.4211204613606
 20
-24.33094151496198
 30
0.0
 41
2.0
 42
2.0
 43
2.0
 50
180.0
  0
INSERT
  5
29C
  8
回07-寸法
  6
CONTINUOUS
 62
     5
  2
_OPEN
 10
636.9211204613606
 20
-24.33094151496198
 30
0.0
 41
2.0
 42
2.0
 43
2.0
  0
INSERT
  5
29D
  8
回07-寸法
  6
CONTINUOUS
 62
     5
 66
     1
  2
*X4646
 10
0.0
 20
0.0
 30
0.0
  0
SEQEND
  5
413
  8
回08-記事
  6
CONTINUOUS
 62
     7
  0
POINT
  5
29E
  8
DEFPOINTS
  6
CONTINUOUS
 62
     0
 10
568.4211204613606
 20
-29.44262319203563
 30
0.0
  0
POINT
  5
29F
  8
DEFPOINTS
  6
CONTINUOUS
 62
     0
 10
636.9211204613606
 20
-28.44262319203563
 30
0.0
  0
POINT
  5
2A0
  8
DEFPOINTS
  6
CONTINUOUS
 62
     0
 10
636.9211204613606
 20
-24.33094151496198
 30
0.0
  0
ENDBLK
  5
2A1
  8
0
 62
     7
  0
BLOCK
  8
0
  2
*D77
 70
     1
 10
0.0
 20
0.0
 30
0.0
  3
*D77
  1

  0
LINE
  5
28B
  8
回07-寸法
  6
CONTINUOUS
 62
     5
 10
699.8211204613608
 20
-132.4426231920357
 30
0.0
 11
720.6670477777487
 21
-132.4426231920357
 31
0.0
  0
LINE
  5
28C
  8
回07-寸法
  6
CONTINUOUS
 62
     5
 10
705.7211204613608
 20
-83.6426231920357
 30
0.0
 11
720.6670477777487
 21
-83.6426231920357
 31
0.0
  0
LINE
  5
28D
  8
回07-寸法
  6
CONTINUOUS
 62
     5
 10
719.6670477777487
 20
-130.4426231920356
 30
0.0
 11
719.6670477777487
 21
-85.64262319203569
 31
0.0
  0
INSERT
  5
28E
  8
回07-寸法
  6
CONTINUOUS
 62
     5
  2
_OPEN
 10
719.6670477777487
 20
-132.4426231920356
 30
0.0
 41
2.0
 42
2.0
 43
2.0
 50
270.0
  0
INSERT
  5
28F
  8
回07-寸法
  6
CONTINUOUS
 62
     5
  2
_OPEN
 10
719.6670477777487
 20
-83.6426231920357
 30
0.0
 41
2.0
 42
2.0
 43
2.0
 50
90.0
  0
INSERT
  5
290
  8
回07-寸法
  6
CONTINUOUS
 62
     5
 66
     1
  2
*X4747
 10
0.0
 20
0.0
 30
0.0
  0
SEQEND
  5
419
  8
回08-記事
  6
CONTINUOUS
 62
     7
  0
POINT
  5
291
  8
DEFPOINTS
  6
CONTINUOUS
 62
     0
 10
699.8211204613608
 20
-132.4426231920357
 30
0.0
  0
POINT
  5
292
  8
DEFPOINTS
  6
CONTINUOUS
 62
     0
 10
705.7211204613608
 20
-83.6426231920357
 30
0.0
  0
POINT
  5
293
  8
DEFPOINTS
  6
CONTINUOUS
 62
     0
 10
719.6670477777487
 20
-83.6426231920357
 30
0.0
  0
ENDBLK
  5
294
  8
0
 62
     7
  0
BLOCK
  8
0
  2
*D88
 70
     1
 10
0.0
 20
0.0
 30
0.0
  3
*D88
  1

  0
LINE
  5
27E
  8
回07-寸法
  6
CONTINUOUS
 62
     5
 10
699.8211204613608
 20
-132.4426231920357
 30
0.0
 11
754.1757195744832
 21
-132.4426231920357
 31
0.0
  0
LINE
  5
27F
  8
回07-寸法
  6
CONTINUOUS
 62
     5
 10
699.8211204613608
 20
-29.44262319203564
 30
0.0
 11
754.1757195744832
 21
-29.44262319203564
 31
0.0
  0
LINE
  5
280
  8
回07-寸法
  6
CONTINUOUS
 62
     5
 10
753.1757195744831
 20
-130.4426231920356
 30
0.0
 11
753.1757195744831
 21
-31.44262319203563
 31
0.0
  0
INSERT
  5
281
  8
回07-寸法
  6
CONTINUOUS
 62
     5
  2
_OPEN
 10
753.1757195744831
 20
-132.4426231920356
 30
0.0
 41
2.0
 42
2.0
 43
2.0
 50
270.0
  0
INSERT
  5
282
  8
回07-寸法
  6
CONTINUOUS
 62
     5
  2
_OPEN
 10
753.1757195744831
 20
-29.44262319203563
 30
0.0
 41
2.0
 42
2.0
 43
2.0
 50
90.0
  0
INSERT
  5
283
  8
回07-寸法
  6
CONTINUOUS
 62
     5
 66
     1
  2
*X4848
 10
0.0
 20
0.0
 30
0.0
  0
SEQEND
  5
422
  8
回08-記事
  6
CONTINUOUS
 62
     7
  0
POINT
  5
284
  8
DEFPOINTS
  6
CONTINUOUS
 62
     0
 10
699.8211204613608
 20
-132.4426231920357
 30
0.0
  0
POINT
  5
285
  8
DEFPOINTS
  6
CONTINUOUS
 62
     0
 10
699.8211204613608
 20
-29.44262319203564
 30
0.0
  0
POINT
  5
286
  8
DEFPOINTS
  6
CONTINUOUS
 62
     0
 10
753.1757195744831
 20
-29.44262319203563
 30
0.0
  0
ENDBLK
  5
287
  8
0
 62
     7
  0
BLOCK
  8
0
  2
*D99
 70
     1
 10
0.0
 20
0.0
 30
0.0
  3
*D99
  1

  0
LINE
  5
26F
  8
回07-寸法
  6
CONTINUOUS
 62
     5
 10
695.5211204613607
 20
-127.8426231920358
 30
0.0
 11
728.9924053698833
 21
-127.8426231920358
 31
0.0
  0
LINE
  5
270
  8
回07-寸法
  6
CONTINUOUS
 62
     5
 10
699.8211204613608
 20
-132.4426231920357
 30
0.0
 11
728.9924053698833
 21
-132.4426231920357
 31
0.0
  0
LINE
  5
271
  8
回07-寸法
  6
CONTINUOUS
 62
     5
 10
727.9924053698833
 20
-125.8426231920358
 30
0.0
 11
727.9924053698833
 21
-123.8426231920358
 31
0.0
  0
LINE
  5
272
  8
回07-寸法
  6
CONTINUOUS
 62
     5
 10
727.9924053698833
 20
-134.4426231920356
 30
0.0
 11
727.9924053698833
 21
-154.2426231920356
 31
0.0
  0
LINE
  5
273
  8
回07-寸法
  6
CONTINUOUS
 62
     5
 10
727.9924053698833
 20
-127.8426231920358
 30
0.0
 11
727.9924053698833
 21
-132.4426231920356
 31
0.0
  0
INSERT
  5
274
  8
回07-寸法
  6
CONTINUOUS
 62
     5
  2
_OPEN
 10
727.9924053698833
 20
-127.8426231920358
 30
0.0
 41
2.0
 42
2.0
 43
2.0
 50
270.0
  0
INSERT
  5
275
  8
回07-寸法
  6
CONTINUOUS
 62
     5
  2
_OPEN
 10
727.9924053698833
 20
-132.4426231920356
 30
0.0
 41
2.0
 42
2.0
 43
2.0
 50
90.0
  0
TEXT
  5
276
  8
回07-寸法
  6
CONTINUOUS
 62
     5
 10
727.3424053698833
 20
-154.1926231920358
 30
0.0
 40
3.0
  1
4.6 [0.181]
 50
90.0
1001
ACAD
1000
MTEXTBEGIN
1070
    73
1070
     1
1070
    44
1040
1.0
1070
    74
1070
     0
1000
MTEXTEND
  0
POINT
  5
277
  8
DEFPOINTS
  6
CONTINUOUS
 62
     0
 10
695.5211204613607
 20
-127.8426231920358
 30
0.0
  0
POINT
  5
278
  8
DEFPOINTS
  6
CONTINUOUS
 62
     0
 10
699.8211204613608
 20
-132.4426231920357
 30
0.0
  0
POINT
  5
279
  8
DEFPOINTS
  6
CONTINUOUS
 62
     0
 10
727.9924053698833
 20
-132.4426231920356
 30
0.0
  0
ENDBLK
  5
27A
  8
0
 62
     7
  0
BLOCK
  8
0
  2
*D1010
 70
     1
 10
0.0
 20
0.0
 30
0.0
  3
*D1010
  1

  0
LINE
  5
260
  8
回07-寸法
  6
CONTINUOUS
 62
     5
 10
696.5211204613607
 20
-128.8426231920357
 30
0.0
 11
736.2229912124116
 21
-128.8426231920357
 31
0.0
  0
LINE
  5
261
  8
回07-寸法
  6
CONTINUOUS
 62
     5
 10
699.8211204613608
 20
-132.4426231920357
 30
0.0
 11
736.2229912124116
 21
-132.4426231920357
 31
0.0
  0
LINE
  5
262
  8
回07-寸法
  6
CONTINUOUS
 62
     5
 10
735.2229912124117
 20
-126.8426231920357
 30
0.0
 11
735.2229912124117
 21
-124.8426231920357
 31
0.0
  0
LINE
  5
263
  8
回07-寸法
  6
CONTINUOUS
 62
     5
 10
735.2229912124117
 20
-134.4426231920356
 30
0.0
 11
735.2229912124117
 21
-154.8426231920356
 31
0.0
  0
LINE
  5
264
  8
回07-寸法
  6
CONTINUOUS
 62
     5
 10
735.2229912124117
 20
-128.8426231920357
 30
0.0
 11
735.2229912124117
 21
-132.4426231920356
 31
0.0
  0
INSERT
  5
265
  8
回07-寸法
  6
CONTINUOUS
 62
     5
  2
_OPEN
 10
735.2229912124117
 20
-128.8426231920357
 30
0.0
 41
2.0
 42
2.0
 43
2.0
 50
270.0
  0
INSERT
  5
266
  8
回07-寸法
  6
CONTINUOUS
 62
     5
  2
_OPEN
 10
735.2229912124117
 20
-132.4426231920356
 30
0.0
 41
2.0
 42
2.0
 43
2.0
 50
90.0
  0
TEXT
  5
267
  8
回07-寸法
  6
CONTINUOUS
 62
     5
 10
734.5729912124117
 20
-154.792623192036
 30
0.0
 40
3.0
  1
3.6 [0.142]
 50
90.0
1001
ACAD
1000
MTEXTBEGIN
1070
    73
1070
     1
1070
    44
1040
1.0
1070
    74
1070
     0
1000
MTEXTEND
  0
POINT
  5
268
  8
DEFPOINTS
  6
CONTINUOUS
 62
     0
 10
696.5211204613607
 20
-128.8426231920357
 30
0.0
  0
POINT
  5
269
  8
DEFPOINTS
  6
CONTINUOUS
 62
     0
 10
699.8211204613608
 20
-132.4426231920357
 30
0.0
  0
POINT
  5
26A
  8
DEFPOINTS
  6
CONTINUOUS
 62
     0
 10
735.2229912124117
 20
-132.4426231920356
 30
0.0
  0
ENDBLK
  5
26B
  8
0
 62
     7
  0
BLOCK
  8
0
  2
*D1111
 70
     1
 10
0.0
 20
0.0
 30
0.0
  3
*D1111
  1

  0
LINE
  5
251
  8
回07-寸法
  6
CONTINUOUS
 62
     5
 10
578.3211204613604
 20
-39.44262319203563
 30
0.0
 11
578.3211204613604
 21
-17.12362070778499
 31
0.0
  0
LINE
  5
252
  8
回07-寸法
  6
CONTINUOUS
 62
     5
 10
568.4211204613606
 20
-29.44262319203563
 30
0.0
 11
568.4211204613606
 21
-17.12362070778499
 31
0.0
  0
LINE
  5
253
  8
回07-寸法
  6
CONTINUOUS
 62
     5
 10
580.3211204613606
 20
-18.12362070778499
 30
0.0
 11
582.3211204613604
 21
-18.12362070778499
 31
0.0
  0
LINE
  5
254
  8
回07-寸法
  6
CONTINUOUS
 62
     5
 10
566.4211204613605
 20
-18.12362070778499
 30
0.0
 11
545.5758904096828
 21
-18.12362070778499
 31
0.0
  0
LINE
  5
255
  8
回07-寸法
  6
CONTINUOUS
 62
     5
 10
578.3211204613604
 20
-18.12362070778499
 30
0.0
 11
568.4211204613606
 21
-18.12362070778499
 31
0.0
  0
INSERT
  5
256
  8
回07-寸法
  6
CONTINUOUS
 62
     5
  2
_OPEN
 10
578.3211204613604
 20
-18.12362070778499
 30
0.0
 41
2.0
 42
2.0
 43
2.0
 50
180.0
  0
INSERT
  5
257
  8
回07-寸法
  6
CONTINUOUS
 62
     5
  2
_OPEN
 10
568.4211204613606
 20
-18.12362070778499
 30
0.0
 41
2.0
 42
2.0
 43
2.0
  0
TEXT
  5
258
  8
回07-寸法
  6
CONTINUOUS
 62
     5
 10
545.6768432243599
 20
-17.47368061388731
 30
0.0
 40
3.0
  1
9.9 [0.390]
1001
ACAD
1000
MTEXTBEGIN
1070
    73
1070
     1
1070
    44
1040
1.0
1070
    74
1070
     0
1000
MTEXTEND
  0
POINT
  5
259
  8
DEFPOINTS
  6
CONTINUOUS
 62
     0
 10
578.3211204613604
 20
-39.44262319203563
 30
0.0
  0
POINT
  5
25A
  8
DEFPOINTS
  6
CONTINUOUS
 62
     0
 10
568.4211204613606
 20
-29.44262319203563
 30
0.0
  0
POINT
  5
25B
  8
DEFPOINTS
  6
CONTINUOUS
 62
     0
 10
568.4211204613606
 20
-18.12362070778499
 30
0.0
  0
ENDBLK
  5
25C
  8
0
 62
     7
  0
BLOCK
  8
0
  2
*D1212
 70
     1
 10
0.0
 20
0.0
 30
0.0
  3
*D1212
  1

  0
LINE
  5
242
  8
回07-寸法
  6
CONTINUOUS
 62
     5
 10
577.3211204613605
 20
-38.44262319203564
 30
0.0
 11
577.3211204613605
 21
-10.8429535125947
 31
0.0
  0
LINE
  5
243
  8
回07-寸法
  6
CONTINUOUS
 62
     5
 10
568.4211204613606
 20
-29.44262319203563
 30
0.0
 11
568.4211204613606
 21
-10.8429535125947
 31
0.0
  0
LINE
  5
244
  8
回07-寸法
  6
CONTINUOUS
 62
     5
 10
579.3211204613604
 20
-11.8429535125947
 30
0.0
 11
581.3211204613605
 21
-11.8429535125947
 31
0.0
  0
LINE
  5
245
  8
回07-寸法
  6
CONTINUOUS
 62
     5
 10
566.4211204613605
 20
-11.8429535125947
 30
0.0
 11
545.7106374698777
 21
-11.8429535125947
 31
0.0
  0
LINE
  5
246
  8
回07-寸法
  6
CONTINUOUS
 62
     5
 10
577.3211204613605
 20
-11.8429535125947
 30
0.0
 11
568.4211204613606
 21
-11.8429535125947
 31
0.0
  0
INSERT
  5
247
  8
回07-寸法
  6
CONTINUOUS
 62
     5
  2
_OPEN
 10
577.3211204613605
 20
-11.8429535125947
 30
0.0
 41
2.0
 42
2.0
 43
2.0
 50
180.0
  0
INSERT
  5
248
  8
回07-寸法
  6
CONTINUOUS
 62
     5
  2
_OPEN
 10
568.4211204613606
 20
-11.8429535125947
 30
0.0
 41
2.0
 42
2.0
 43
2.0
  0
TEXT
  5
249
  8
回07-寸法
  6
CONTINUOUS
 62
     5
 10
545.7604634128285
 20
-11.1929535125947
 30
0.0
 40
3.0
  1
8.9 [0.350]
1001
ACAD
1000
MTEXTBEGIN
1070
    73
1070
     1
1070
    44
1040
1.0
1070
    74
1070
     0
1000
MTEXTEND
  0
POINT
  5
24A
  8
DEFPOINTS
  6
CONTINUOUS
 62
     0
 10
577.3211204613605
 20
-38.44262319203564
 30
0.0
  0
POINT
  5
24B
  8
DEFPOINTS
  6
CONTINUOUS
 62
     0
 10
568.4211204613606
 20
-29.44262319203563
 30
0.0
  0
POINT
  5
24C
  8
DEFPOINTS
  6
CONTINUOUS
 62
     0
 10
568.4211204613606
 20
-11.8429535125947
 30
0.0
  0
ENDBLK
  5
24D
  8
0
 62
     7
  0
BLOCK
  8
0
  2
*D1313
 70
     1
 10
0.0
 20
0.0
 30
0.0
  3
*D1313
  1

  0
LINE
  5
235
  8
回07-寸法
  6
CONTINUOUS
 62
     5
 10
568.4211204613608
 20
-132.4426231920357
 30
0.0
 11
489.7076830201201
 21
-132.4426231920357
 31
0.0
  0
LINE
  5
236
  8
回07-寸法
  6
CONTINUOUS
 62
     5
 10
498.9211204613607
 20
-112.4441629052469
 30
0.0
 11
489.7076830201199
 21
-112.4441629052469
 31
0.0
  0
LINE
  5
237
  8
回07-寸法
  6
CONTINUOUS
 62
     5
 10
490.7076830201202
 20
-130.4426231920357
 30
0.0
 11
490.7076830201202
 21
-114.4441629052469
 31
0.0
  0
INSERT
  5
238
  8
回07-寸法
  6
CONTINUOUS
 62
     5
  2
_OPEN
 10
490.7076830201202
 20
-132.4426231920357
 30
0.0
 41
2.0
 42
2.0
 43
2.0
 50
270.0
  0
INSERT
  5
239
  8
回07-寸法
  6
CONTINUOUS
 62
     5
  2
_OPEN
 10
490.70768302012
 20
-112.4441629052469
 30
0.0
 41
2.0
 42
2.0
 43
2.0
 50
90.0
  0
TEXT
  5
23A
  8
回07-寸法
  6
CONTINUOUS
 62
     5
 10
490.0576830201198
 20
-131.2933930486414
 30
0.0
 40
3.0
  1
20 [0.787]
 50
90.0
1001
ACAD
1000
MTEXTBEGIN
1070
    73
1070
     1
1070
    44
1040
1.0
1070
    74
1070
     0
1000
MTEXTEND
  0
POINT
  5
23B
  8
DEFPOINTS
  6
CONTINUOUS
 62
     0
 10
568.4211204613608
 20
-132.4426231920357
 30
0.0
  0
POINT
  5
23C
  8
DEFPOINTS
  6
CONTINUOUS
 62
     0
 10
498.9211204613607
 20
-112.4441629052469
 30
0.0
  0
POINT
  5
23D
  8
DEFPOINTS
  6
CONTINUOUS
 62
     0
 10
490.70768302012
 20
-112.4441629052469
 30
0.0
  0
ENDBLK
  5
23E
  8
0
 62
     7
  0
BLOCK
  8
0
  2
*D1414
 70
     1
 10
0.0
 20
0.0
 30
0.0
  3
*D1414
  1

  0
LINE
  5
226
  8
回07-寸法
  6
CONTINUOUS
 62
     5
 10
498.9211204613607
 20
-112.4441629052469
 30
0.0
 11
489.7076830201199
 21
-112.4441629052469
 31
0.0
  0
LINE
  5
227
  8
回07-寸法
  6
CONTINUOUS
 62
     5
 10
498.9211204613607
 20
-106.1941629052469
 30
0.0
 11
489.7076830201199
 21
-106.1941629052469
 31
0.0
  0
LINE
  5
228
  8
回07-寸法
  6
CONTINUOUS
 62
     5
 10
490.70768302012
 20
-114.4441629052469
 30
0.0
 11
490.70768302012
 21
-116.4441629052469
 31
0.0
  0
LINE
  5
229
  8
回07-寸法
  6
CONTINUOUS
 62
     5
 10
490.70768302012
 20
-104.1941629052469
 30
0.0
 11
490.70768302012
 21
-80.91463534619185
 31
0.0
  0
LINE
  5
22A
  8
回07-寸法
  6
CONTINUOUS
 62
     5
 10
490.70768302012
 20
-112.4441629052469
 30
0.0
 11
490.70768302012
 21
-106.1941629052469
 31
0.0
  0
INSERT
  5
22B
  8
回07-寸法
  6
CONTINUOUS
 62
     5
  2
_OPEN
 10
490.70768302012
 20
-112.4441629052469
 30
0.0
 41
2.0
 42
2.0
 43
2.0
 50
90.0
  0
INSERT
  5
22C
  8
回07-寸法
  6
CONTINUOUS
 62
     5
  2
_OPEN
 10
490.70768302012
 20
-106.1941629052469
 30
0.0
 41
2.0
 42
2.0
 43
2.0
 50
270.0
  0
TEXT
  5
22D
  8
回07-寸法
  6
CONTINUOUS
 62
     5
 10
490.0576830201198
 20
-102.0543991257195
 30
0.0
 40
3.0
  1
6.25 [0.246]
 50
90.0
1001
ACAD
1000
MTEXTBEGIN
1070
    73
1070
     1
1070
    44
1040
1.0
1070
    74
1070
     0
1000
MTEXTEND
  0
POINT
  5
22E
  8
DEFPOINTS
  6
CONTINUOUS
 62
     0
 10
498.9211204613607
 20
-112.4441629052469
 30
0.0
  0
POINT
  5
22F
  8
DEFPOINTS
  6
CONTINUOUS
 62
     0
 10
498.9211204613607
 20
-106.1941629052469
 30
0.0
  0
POINT
  5
230
  8
DEFPOINTS
  6
CONTINUOUS
 62
     0
 10
490.70768302012
 20
-106.1941629052469
 30
0.0
  0
ENDBLK
  5
231
  8
0
 62
     7
  0
BLOCK
  8
0
  2
*D1515
 70
     1
 10
0.0
 20
0.0
 30
0.0
  3
*D1515
  1

  0
LINE
  5
219
  8
回07-寸法
  6
CONTINUOUS
 62
     5
 10
498.4211204613606
 20
-106.6941629052469
 30
0.0
 11
498.4211204613606
 21
-73.44131419079122
 31
0.0
  0
LINE
  5
21A
  8
回07-寸法
  6
CONTINUOUS
 62
     5
 10
568.4211204613606
 20
-100.2727282805324
 30
0.0
 11
568.4211204613606
 21
-73.44131419079122
 31
0.0
  0
LINE
  5
21B
  8
回07-寸法
  6
CONTINUOUS
 62
     5
 10
500.4211204613604
 20
-74.44131419079122
 30
0.0
 11
566.4211204613605
 21
-74.44131419079122
 31
0.0
  0
INSERT
  5
21C
  8
回07-寸法
  6
CONTINUOUS
 62
     5
  2
_OPEN
 10
498.4211204613606
 20
-74.44131419079122
 30
0.0
 41
2.0
 42
2.0
 43
2.0
 50
180.0
  0
INSERT
  5
21D
  8
回07-寸法
  6
CONTINUOUS
 62
     5
  2
_OPEN
 10
568.4211204613606
 20
-74.44131419079122
 30
0.0
 41
2.0
 42
2.0
 43
2.0
  0
INSERT
  5
21E
  8
回07-寸法
  6
CONTINUOUS
 62
     5
 66
     1
  2
*X4949
 10
0.0
 20
0.0
 30
0.0
  0
SEQEND
  5
42B
  8
回08-記事
  6
CONTINUOUS
 62
     7
  0
POINT
  5
21F
  8
DEFPOINTS
  6
CONTINUOUS
 62
     0
 10
498.4211204613606
 20
-106.6941629052469
 30
0.0
  0
POINT
  5
220
  8
DEFPOINTS
  6
CONTINUOUS
 62
     0
 10
568.4211204613606
 20
-100.2727282805324
 30
0.0
  0
POINT
  5
221
  8
DEFPOINTS
  6
CONTINUOUS
 62
     0
 10
568.4211204613606
 20
-74.44131419079122
 30
0.0
  0
ENDBLK
  5
222
  8
0
 62
     7
  0
BLOCK
  8
0
  2
*D1616
 70
     1
 10
0.0
 20
0.0
 30
0.0
  3
*D1616
  1

  0
LINE
  5
20A
  8
回07-寸法
  6
CONTINUOUS
 62
     5
 10
564.0291905529948
 20
-101.3203659395186
 30
0.0
 11
513.426575481447
 21
-101.3203659395186
 31
0.0
  0
LINE
  5
20B
  8
回07-寸法
  6
CONTINUOUS
 62
     5
 10
564.033364138701
 20
-117.3191629052472
 30
0.0
 11
513.426575481447
 21
-117.3191629052472
 31
0.0
  0
LINE
  5
20C
  8
回07-寸法
  6
CONTINUOUS
 62
     5
 10
514.426575481447
 20
-119.3191629052472
 30
0.0
 11
514.426575481447
 21
-121.3191629052472
 31
0.0
  0
LINE
  5
20D
  8
回07-寸法
  6
CONTINUOUS
 62
     5
 10
514.426575481447
 20
-99.32036593951858
 30
0.0
 11
514.426575481447
 21
-80.12036593951846
 31
0.0
  0
LINE
  5
20E
  8
回07-寸法
  6
CONTINUOUS
 62
     5
 10
514.426575481447
 20
-117.3191629052472
 30
0.0
 11
514.426575481447
 21
-101.3203659395186
 31
0.0
  0
INSERT
  5
20F
  8
回07-寸法
  6
CONTINUOUS
 62
     5
  2
_OPEN
 10
514.426575481447
 20
-117.3191629052472
 30
0.0
 41
2.0
 42
2.0
 43
2.0
 50
90.0
  0
INSERT
  5
210
  8
回07-寸法
  6
CONTINUOUS
 62
     5
  2
_OPEN
 10
514.426575481447
 20
-101.3203659395186
 30
0.0
 41
2.0
 42
2.0
 43
2.0
 50
270.0
  0
TEXT
  5
211
  8
回07-寸法
  6
CONTINUOUS
 62
     5
 10
513.7765754814467
 20
-97.27036593951865
 30
0.0
 40
3.0
  1
16 [0.630]
 50
90.0
1001
ACAD
1000
MTEXTBEGIN
1070
    73
1070
     1
1070
    44
1040
1.0
1070
    74
1070
     0
1000
MTEXTEND
  0
POINT
  5
212
  8
DEFPOINTS
  6
CONTINUOUS
 62
     0
 10
564.0291905529948
 20
-101.3203659395186
 30
0.0
  0
POINT
  5
213
  8
DEFPOINTS
  6
CONTINUOUS
 62
     0
 10
564.033364138701
 20
-117.3191629052472
 30
0.0
  0
POINT
  5
214
  8
DEFPOINTS
  6
CONTINUOUS
 62
     0
 10
514.426575481447
 20
-117.3191629052472
 30
0.0
  0
ENDBLK
  5
215
  8
0
 62
     7
  0
BLOCK
  8
0
  2
*D1717
 70
     1
 10
0.0
 20
0.0
 30
0.0
  3
*D1717
  1

  0
LINE
  5
1FB
  8
回07-寸法
  6
CONTINUOUS
 62
     5
 10
559.0177515300045
 20
-112.739310818548
 30
0.0
 11
559.0177515300045
 21
-127.9709710413352
 31
0.0
  0
LINE
  5
1FC
  8
回07-寸法
  6
CONTINUOUS
 62
     5
 10
568.4211204613606
 20
-119.9358371103901
 30
0.0
 11
568.4211204613606
 21
-127.9709710413352
 31
0.0
  0
LINE
  5
1FD
  8
回07-寸法
  6
CONTINUOUS
 62
     5
 10
570.4211204613605
 20
-126.9709710413352
 30
0.0
 11
572.4211204613606
 21
-126.9709710413352
 31
0.0
  0
LINE
  5
1FE
  8
回07-寸法
  6
CONTINUOUS
 62
     5
 10
557.0177515300046
 20
-126.9709710413352
 30
0.0
 11
535.8934874612928
 21
-126.9709710413352
 31
0.0
  0
LINE
  5
1FF
  8
回07-寸法
  6
CONTINUOUS
 62
     5
 10
568.4211204613606
 20
-126.9709710413352
 30
0.0
 11
559.0177515300045
 21
-126.9709710413352
 31
0.0
  0
INSERT
  5
200
  8
回07-寸法
  6
CONTINUOUS
 62
     5
  2
_OPEN
 10
568.4211204613606
 20
-126.9709710413352
 30
0.0
 41
2.0
 42
2.0
 43
2.0
 50
180.0
  0
INSERT
  5
201
  8
回07-寸法
  6
CONTINUOUS
 62
     5
  2
_OPEN
 10
559.0177515300045
 20
-126.9709710413352
 30
0.0
 41
2.0
 42
2.0
 43
2.0
  0
TEXT
  5
202
  8
回07-寸法
  6
CONTINUOUS
 62
     5
 10
535.9947883900678
 20
-126.3209710413352
 30
0.0
 40
3.0
  1
9.4 [0.370]
1001
ACAD
1000
MTEXTBEGIN
1070
    73
1070
     1
1070
    44
1040
1.0
1070
    74
1070
     0
1000
MTEXTEND
  0
POINT
  5
203
  8
DEFPOINTS
  6
CONTINUOUS
 62
     0
 10
559.0177515300045
 20
-112.739310818548
 30
0.0
  0
POINT
  5
204
  8
DEFPOINTS
  6
CONTINUOUS
 62
     0
 10
568.4211204613606
 20
-119.9358371103901
 30
0.0
  0
POINT
  5
205
  8
DEFPOINTS
  6
CONTINUOUS
 62
     0
 10
568.4211204613606
 20
-126.9709710413352
 30
0.0
  0
ENDBLK
  5
206
  8
0
 62
     7
  0
BLOCK
  8
0
  2
*D1818
 70
     1
 10
0.0
 20
0.0
 30
0.0
  3
*D1818
  1

  0
LINE
  5
1E0
  8
回08-記事
  6
CONTINUOUS
 62
     5
 10
498.4211204613608
 20
-158.7741025129986
 30
0.0
 11
490.9933852871724
 21
-158.7741025129986
 31
0.0
  0
LINE
  5
1E1
  8
回08-記事
  6
CONTINUOUS
 62
     5
 10
498.4211204613608
 20
-161.6741025129985
 30
0.0
 11
490.9933852871724
 21
-161.6741025129985
 31
0.0
  0
LINE
  5
1E2
  8
回08-記事
  6
CONTINUOUS
 62
     5
 10
491.9933852871723
 20
-156.7741025129986
 30
0.0
 11
491.9933852871723
 21
-154.7741025129986
 31
0.0
  0
LINE
  5
1E3
  8
回08-記事
  6
CONTINUOUS
 62
     5
 10
491.9933852871723
 20
-163.6741025129985
 30
0.0
 11
491.9933852871723
 21
-195.777154717723
 31
0.0
  0
LINE
  5
1E4
  8
回08-記事
  6
CONTINUOUS
 62
     5
 10
491.9933852871723
 20
-158.7741025129986
 30
0.0
 11
491.9933852871723
 21
-161.6741025129985
 31
0.0
  0
INSERT
  5
1E5
  8
回08-記事
  6
CONTINUOUS
 62
     5
  2
_OPEN
 10
491.9933852871723
 20
-158.7741025129986
 30
0.0
 41
2.0
 42
2.0
 43
2.0
 50
270.0
  0
INSERT
  5
1E6
  8
回08-記事
  6
CONTINUOUS
 62
     5
  2
_OPEN
 10
491.9933852871723
 20
-161.6741025129985
 30
0.0
 41
2.0
 42
2.0
 43
2.0
 50
90.0
  0
INSERT
  5
1E7
  8
回08-記事
  6
CONTINUOUS
 62
     5
 66
     1
  2
*X5050
 10
0.0
 20
0.0
 30
0.0
  0
SEQEND
  5
434
  8
回08-記事
  6
CONTINUOUS
 62
     7
  0
POINT
  5
1E8
  8
DEFPOINTS
  6
CONTINUOUS
 62
     0
 10
498.4211204613608
 20
-158.7741025129986
 30
0.0
  0
POINT
  5
1E9
  8
DEFPOINTS
  6
CONTINUOUS
 62
     0
 10
498.4211204613608
 20
-161.6741025129985
 30
0.0
  0
POINT
  5
1EA
  8
DEFPOINTS
  6
CONTINUOUS
 62
     0
 10
491.9933852871723
 20
-161.6741025129985
 30
0.0
  0
ENDBLK
  5
1EB
  8
0
 62
     7
  0
BLOCK
  8
0
  2
*D1919
 70
     1
 10
0.0
 20
0.0
 30
0.0
  3
*D1919
  1

  0
LINE
  5
1D1
  8
回08-記事
  6
CONTINUOUS
 62
     5
 10
498.4211204613606
 20
-161.6741025129985
 30
0.0
 11
498.4211204613606
 21
-178.9371837489425
 31
0.0
  0
LINE
  5
1D2
  8
回08-記事
  6
CONTINUOUS
 62
     5
 10
508.4211204613604
 20
-161.6741025129985
 30
0.0
 11
508.4211204613604
 21
-178.9371837489425
 31
0.0
  0
LINE
  5
1D3
  8
回08-記事
  6
CONTINUOUS
 62
     5
 10
496.4211204613604
 20
-177.9371837489425
 30
0.0
 11
494.4211204613606
 21
-177.9371837489425
 31
0.0
  0
LINE
  5
1D4
  8
回08-記事
  6
CONTINUOUS
 62
     5
 10
510.4211204613606
 20
-177.9371837489425
 30
0.0
 11
532.3292412481189
 21
-177.9371837489425
 31
0.0
  0
LINE
  5
1D5
  8
回08-記事
  6
CONTINUOUS
 62
     5
 10
498.4211204613606
 20
-177.9371837489425
 30
0.0
 11
508.4211204613604
 21
-177.9371837489425
 31
0.0
  0
INSERT
  5
1D6
  8
回08-記事
  6
CONTINUOUS
 62
     5
  2
_OPEN
 10
498.4211204613606
 20
-177.9371837489425
 30
0.0
 41
2.0
 42
2.0
 43
2.0
  0
INSERT
  5
1D7
  8
回08-記事
  6
CONTINUOUS
 62
     5
  2
_OPEN
 10
508.4211204613604
 20
-177.9371837489425
 30
0.0
 41
2.0
 42
2.0
 43
2.0
 50
180.0
  0
TEXT
  5
1D8
  8
回08-記事
  6
CONTINUOUS
 62
     5
 10
512.4697653019493
 20
-177.2872436550448
 30
0.0
 40
3.0
  1
(10 [0.394])
1001
ACAD
1000
MTEXTBEGIN
1070
    73
1070
     1
1070
    44
1040
1.0
1070
    74
1070
     0
1000
MTEXTEND
  0
POINT
  5
1D9
  8
DEFPOINTS
  6
CONTINUOUS
 62
     0
 10
498.4211204613606
 20
-161.6741025129985
 30
0.0
  0
POINT
  5
1DA
  8
DEFPOINTS
  6
CONTINUOUS
 62
     0
 10
508.4211204613604
 20
-161.6741025129985
 30
0.0
  0
POINT
  5
1DB
  8
DEFPOINTS
  6
CONTINUOUS
 62
     0
 10
508.4211204613604
 20
-177.9371837489425
 30
0.0
  0
ENDBLK
  5
1DC
  8
0
 62
     7
  0
BLOCK
  8
0
  2
*D2020
 70
     1
 10
0.0
 20
0.0
 30
0.0
  3
*D2020
  1

  0
LINE
  5
1C2
  8
回08-記事
  6
CONTINUOUS
 62
     5
 10
498.4211204613606
 20
-158.7741025129985
 30
0.0
 11
498.4211204613606
 21
-149.3880328263453
 31
0.0
  0
LINE
  5
1C3
  8
回08-記事
  6
CONTINUOUS
 62
     5
 10
503.4211204613606
 20
-158.2741025129985
 30
0.0
 11
503.4211204613606
 21
-149.3880328263453
 31
0.0
  0
LINE
  5
1C4
  8
回08-記事
  6
CONTINUOUS
 62
     5
 10
505.4211204613606
 20
-150.3880328263453
 30
0.0
 11
507.4211204613606
 21
-150.3880328263453
 31
0.0
  0
LINE
  5
1C5
  8
回08-記事
  6
CONTINUOUS
 62
     5
 10
496.4211204613604
 20
-150.3880328263453
 30
0.0
 11
479.3106374698776
 21
-150.3880328263453
 31
0.0
  0
LINE
  5
1C6
  8
回08-記事
  6
CONTINUOUS
 62
     5
 10
503.4211204613606
 20
-150.3880328263453
 30
0.0
 11
498.4211204613606
 21
-150.3880328263453
 31
0.0
  0
INSERT
  5
1C7
  8
回08-記事
  6
CONTINUOUS
 62
     5
  2
_OPEN
 10
503.4211204613606
 20
-150.3880328263453
 30
0.0
 41
2.0
 42
2.0
 43
2.0
 50
180.0
  0
INSERT
  5
1C8
  8
回08-記事
  6
CONTINUOUS
 62
     5
  2
_OPEN
 10
498.4211204613606
 20
-150.3880328263453
 30
0.0
 41
2.0
 42
2.0
 43
2.0
  0
TEXT
  5
1C9
  8
回08-記事
  6
CONTINUOUS
 62
     5
 10
479.3604634128286
 20
-149.7380927324476
 30
0.0
 40
3.0
  1
5 [0.197]
1001
ACAD
1000
MTEXTBEGIN
1070
    73
1070
     1
1070
    44
1040
1.0
1070
    74
1070
     0
1000
MTEXTEND
  0
POINT
  5
1CA
  8
DEFPOINTS
  6
CONTINUOUS
 62
     0
 10
498.4211204613606
 20
-158.7741025129985
 30
0.0
  0
POINT
  5
1CB
  8
DEFPOINTS
  6
CONTINUOUS
 62
     0
 10
503.4211204613606
 20
-158.2741025129985
 30
0.0
  0
POINT
  5
1CC
  8
DEFPOINTS
  6
CONTINUOUS
 62
     0
 10
503.4211204613606
 20
-150.3880328263453
 30
0.0
  0
ENDBLK
  5
1CD
  8
0
 62
     7
  0
BLOCK
  8
0
  2
*D2121
 70
     1
 10
0.0
 20
0.0
 30
0.0
  3
*D2121
  1

  0
LINE
  5
1B3
  8
回08-記事
  6
CONTINUOUS
 62
     5
 10
699.5211204613609
 20
-156.4741025129986
 30
0.0
 11
703.7041191465577
 21
-156.4741025129986
 31
0.0
  0
LINE
  5
1B4
  8
回08-記事
  6
CONTINUOUS
 62
     5
 10
699.8211204613608
 20
-163.2741025129986
 30
0.0
 11
703.7041191465577
 21
-163.2741025129986
 31
0.0
  0
LINE
  5
1B5
  8
回08-記事
  6
CONTINUOUS
 62
     5
 10
702.7041191465574
 20
-154.4741025129986
 30
0.0
 11
702.7041191465574
 21
-152.4741025129986
 31
0.0
  0
LINE
  5
1B6
  8
回08-記事
  6
CONTINUOUS
 62
     5
 10
702.7041191465574
 20
-165.2741025129986
 30
0.0
 11
702.7041191465574
 21
-196.2743805129986
 31
0.0
  0
LINE
  5
1B7
  8
回08-記事
  6
CONTINUOUS
 62
     5
 10
702.7041191465574
 20
-156.4741025129986
 30
0.0
 11
702.7041191465574
 21
-163.2741025129986
 31
0.0
  0
INSERT
  5
1B8
  8
回08-記事
  6
CONTINUOUS
 62
     5
  2
_OPEN
 10
702.7041191465574
 20
-156.4741025129986
 30
0.0
 41
2.0
 42
2.0
 43
2.0
 50
270.0
  0
INSERT
  5
1B9
  8
回08-記事
  6
CONTINUOUS
 62
     5
  2
_OPEN
 10
702.7041191465574
 20
-163.2741025129986
 30
0.0
 41
2.0
 42
2.0
 43
2.0
 50
90.0
  0
INSERT
  5
1BA
  8
回08-記事
  6
CONTINUOUS
 62
     5
 66
     1
  2
*X5151
 10
0.0
 20
0.0
 30
0.0
  0
SEQEND
  5
43D
  8
回08-記事
  6
CONTINUOUS
 62
     7
  0
POINT
  5
1BB
  8
DEFPOINTS
  6
CONTINUOUS
 62
     0
 10
699.5211204613609
 20
-156.4741025129986
 30
0.0
  0
POINT
  5
1BC
  8
DEFPOINTS
  6
CONTINUOUS
 62
     0
 10
699.8211204613608
 20
-163.2741025129986
 30
0.0
  0
POINT
  5
1BD
  8
DEFPOINTS
  6
CONTINUOUS
 62
     0
 10
702.7041191465574
 20
-163.2741025129986
 30
0.0
  0
ENDBLK
  5
1BE
  8
0
 62
     7
  0
BLOCK
  8
0
  2
*D2222
 70
     1
 10
0.0
 20
0.0
 30
0.0
  3
*D2222
  1

  0
LINE
  5
174
  8
回07-寸法
  6
CONTINUOUS
 62
     5
 10
699.5211204613607
 20
-128.5426231920357
 30
0.0
 11
709.6693023115351
 21
-128.5426231920357
 31
0.0
  0
LINE
  5
175
  8
回07-寸法
  6
CONTINUOUS
 62
     5
 10
699.8211204613608
 20
-132.4426231920357
 30
0.0
 11
709.6693023115351
 21
-132.4426231920357
 31
0.0
  0
LINE
  5
176
  8
回07-寸法
  6
CONTINUOUS
 62
     5
 10
708.6693023115351
 20
-126.5426231920357
 30
0.0
 11
708.6693023115351
 21
-124.5426231920357
 31
0.0
  0
LINE
  5
177
  8
回07-寸法
  6
CONTINUOUS
 62
     5
 10
708.6693023115351
 20
-134.4426231920356
 30
0.0
 11
708.6693023115351
 21
-157.2507439787941
 31
0.0
  0
LINE
  5
178
  8
回07-寸法
  6
CONTINUOUS
 62
     5
 10
708.6693023115351
 20
-128.5426231920357
 30
0.0
 11
708.6693023115351
 21
-132.4426231920356
 31
0.0
  0
INSERT
  5
179
  8
回07-寸法
  6
CONTINUOUS
 62
     5
  2
_OPEN
 10
708.6693023115351
 20
-128.5426231920357
 30
0.0
 41
2.0
 42
2.0
 43
2.0
 50
270.0
  0
INSERT
  5
17A
  8
回07-寸法
  6
CONTINUOUS
 62
     5
  2
_OPEN
 10
708.6693023115351
 20
-132.4426231920356
 30
0.0
 41
2.0
 42
2.0
 43
2.0
 50
90.0
  0
TEXT
  5
17B
  8
回07-寸法
  6
CONTINUOUS
 62
     5
 10
708.0185772730053
 20
-157.2020991382054
 30
0.0
 40
3.0
  1
(3.9 [0.154])
 50
90.0
1001
ACAD
1000
MTEXTBEGIN
1070
    73
1070
     1
1070
    44
1040
1.0
1070
    74
1070
     0
1000
MTEXTEND
  0
POINT
  5
17C
  8
DEFPOINTS
  6
CONTINUOUS
 62
     0
 10
699.5211204613607
 20
-128.5426231920357
 30
0.0
  0
POINT
  5
17D
  8
DEFPOINTS
  6
CONTINUOUS
 62
     0
 10
699.8211204613608
 20
-132.4426231920357
 30
0.0
  0
POINT
  5
17E
  8
DEFPOINTS
  6
CONTINUOUS
 62
     0
 10
708.6693023115351
 20
-132.4426231920356
 30
0.0
  0
ENDBLK
  5
17F
  8
0
 62
     7
  0
BLOCK
  8
0
  2
*D2323
 70
     1
 10
0.0
 20
0.0
 30
0.0
  3
*D2323
  1

  0
LINE
  5
165
  8
回07-寸法
  6
CONTINUOUS
 62
     5
 10
699.5211204613607
 20
-128.5426231920357
 30
0.0
 11
707.0505906841937
 21
-128.5426231920357
 31
0.0
  0
LINE
  5
166
  8
回07-寸法
  6
CONTINUOUS
 62
     5
 10
699.5211204613607
 20
-126.5426231920357
 30
0.0
 11
707.0505906841937
 21
-126.5426231920357
 31
0.0
  0
LINE
  5
167
  8
回07-寸法
  6
CONTINUOUS
 62
     5
 10
706.0505906841937
 20
-130.5426231920357
 30
0.0
 11
706.0505906841937
 21
-132.5426231920356
 31
0.0
  0
LINE
  5
168
  8
回07-寸法
  6
CONTINUOUS
 62
     5
 10
706.0505906841937
 20
-124.5426231920357
 30
0.0
 11
706.0505906841937
 21
-104.4345024052771
 31
0.0
  0
LINE
  5
169
  8
回07-寸法
  6
CONTINUOUS
 62
     5
 10
706.0505906841937
 20
-128.5426231920357
 30
0.0
 11
706.0505906841937
 21
-126.5426231920357
 31
0.0
  0
INSERT
  5
16A
  8
回07-寸法
  6
CONTINUOUS
 62
     5
  2
_OPEN
 10
706.0505906841937
 20
-128.5426231920357
 30
0.0
 41
2.0
 42
2.0
 43
2.0
 50
90.0
  0
INSERT
  5
16B
  8
回07-寸法
  6
CONTINUOUS
 62
     5
  2
_OPEN
 10
706.0505906841937
 20
-126.5426231920357
 30
0.0
 41
2.0
 42
2.0
 43
2.0
 50
270.0
  0
TEXT
  5
16C
  8
回07-寸法
  6
CONTINUOUS
 62
     5
 10
705.4006505902957
 20
-122.4939783514469
 30
0.0
 40
3.0
  1
(2 [0.079])
 50
90.0
1001
ACAD
1000
MTEXTBEGIN
1070
    73
1070
     1
1070
    44
1040
1.0
1070
    74
1070
     0
1000
MTEXTEND
  0
POINT
  5
16D
  8
DEFPOINTS
  6
CONTINUOUS
 62
     0
 10
699.5211204613607
 20
-128.5426231920357
 30
0.0
  0
POINT
  5
16E
  8
DEFPOINTS
  6
CONTINUOUS
 62
     0
 10
699.5211204613607
 20
-126.5426231920357
 30
0.0
  0
POINT
  5
16F
  8
DEFPOINTS
  6
CONTINUOUS
 62
     0
 10
706.0505906841937
 20
-126.5426231920357
 30
0.0
  0
ENDBLK
  5
170
  8
0
 62
     7
  0
BLOCK
  8
0
  2
*D2424
 70
     1
 10
0.0
 20
0.0
 30
0.0
  3
*D2424
  1

  0
LINE
  5
12E
  8
回07-寸法
  6
CONTINUOUS
 62
     5
 10
568.4211204613606
 20
-119.9358371103901
 30
0.0
 11
568.4211204613606
 21
-122.8933475483352
 31
0.0
  0
LINE
  5
12F
  8
回07-寸法
  6
CONTINUOUS
 62
     5
 10
564.0333641387006
 20
-117.3191629052471
 30
0.0
 11
564.0333641387006
 21
-122.8933475483352
 31
0.0
  0
LINE
  5
130
  8
回07-寸法
  6
CONTINUOUS
 62
     5
 10
570.4211204613605
 20
-121.8933475483352
 30
0.0
 11
572.4211204613606
 21
-121.8933475483352
 31
0.0
  0
LINE
  5
131
  8
回07-寸法
  6
CONTINUOUS
 62
     5
 10
562.0333641387007
 20
-121.8933475483352
 30
0.0
 11
534.7712109846395
 21
-121.8933475483352
 31
0.0
  0
LINE
  5
132
  8
回07-寸法
  6
CONTINUOUS
 62
     5
 10
568.4211204613606
 20
-121.8933475483352
 30
0.0
 11
564.0333641387006
 21
-121.8933475483352
 31
0.0
  0
INSERT
  5
133
  8
回07-寸法
  6
CONTINUOUS
 62
     5
  2
_OPEN
 10
568.4211204613606
 20
-121.8933475483352
 30
0.0
 41
2.0
 42
2.0
 43
2.0
 50
180.0
  0
INSERT
  5
134
  8
回07-寸法
  6
CONTINUOUS
 62
     5
  2
_OPEN
 10
564.0333641387006
 20
-121.8933475483352
 30
0.0
 41
2.0
 42
2.0
 43
2.0
  0
TEXT
  5
135
  8
回07-寸法
  6
CONTINUOUS
 62
     5
 10
534.8210369275903
 20
-121.2433475483352
 30
0.0
 40
3.0
  1
4.39 [0.173]
1001
ACAD
1000
MTEXTBEGIN
1070
    73
1070
     1
1070
    44
1040
1.0
1070
    74
1070
     0
1000
MTEXTEND
  0
POINT
  5
136
  8
DEFPOINTS
  6
CONTINUOUS
 62
     0
 10
568.4211204613606
 20
-119.9358371103901
 30
0.0
  0
POINT
  5
137
  8
DEFPOINTS
  6
CONTINUOUS
 62
     0
 10
564.0333641387006
 20
-117.3191629052471
 30
0.0
  0
POINT
  5
138
  8
DEFPOINTS
  6
CONTINUOUS
 62
     0
 10
564.0333641387006
 20
-121.8933475483352
 30
0.0
  0
ENDBLK
  5
139
  8
0
 62
     7
  0
BLOCK
  8
0
  2
*D2525
 70
     1
 10
0.0
 20
0.0
 30
0.0
  3
*D2525
  1

  0
LINE
  5
A2
  8
回07-寸法
  6
CONTINUOUS
 62
     5
 10
502.9171515994413
 20
-33.14158373388024
 30
0.0
 11
494.5508222493414
 21
-33.14158373388024
 31
0.0
  0
LINE
  5
A3
  8
回07-寸法
  6
CONTINUOUS
 62
     5
 10
502.9236329495463
 20
-35.64158373388025
 30
0.0
 11
494.5508222493414
 21
-35.64158373388025
 31
0.0
  0
LINE
  5
A4
  8
回07-寸法
  6
CONTINUOUS
 62
     5
 10
495.5508222493413
 20
-37.64158373388025
 30
0.0
 11
495.5508222493413
 21
-39.64158373388025
 31
0.0
  0
LINE
  5
A5
  8
回07-寸法
  6
CONTINUOUS
 62
     5
 10
495.5508222493413
 20
-31.14158373388024
 30
0.0
 11
495.5508222493413
 21
1.969239831268975
 31
0.0
  0
LINE
  5
A6
  8
回07-寸法
  6
CONTINUOUS
 62
     5
 10
495.5508222493413
 20
-35.64158373388025
 30
0.0
 11
495.5508222493413
 21
-33.14158373388025
 31
0.0
  0
INSERT
  5
A7
  8
回07-寸法
  6
CONTINUOUS
 62
     5
  2
_OPEN
 10
495.5508222493413
 20
-35.64158373388025
 30
0.0
 41
2.0
 42
2.0
 43
2.0
 50
90.0
  0
INSERT
  5
A8
  8
回07-寸法
  6
CONTINUOUS
 62
     5
  2
_OPEN
 10
495.5508222493413
 20
-33.14158373388025
 30
0.0
 41
2.0
 42
2.0
 43
2.0
 50
270.0
  0
INSERT
  5
A9
  8
回07-寸法
  6
CONTINUOUS
 62
     5
 66
     1
  2
*X5252
 10
0.0
 20
0.0
 30
0.0
  0
SEQEND
  5
446
  8
回08-記事
  6
CONTINUOUS
 62
     7
  0
POINT
  5
AA
  8
DEFPOINTS
  6
CONTINUOUS
 62
     0
 10
502.9171515994413
 20
-33.14158373388024
 30
0.0
  0
POINT
  5
AB
  8
DEFPOINTS
  6
CONTINUOUS
 62
     0
 10
502.9236329495463
 20
-35.64158373388025
 30
0.0
  0
POINT
  5
AC
  8
DEFPOINTS
  6
CONTINUOUS
 62
     0
 10
495.5508222493413
 20
-35.64158373388025
 30
0.0
  0
ENDBLK
  5
AD
  8
0
 62
     7
  0
BLOCK
  8
0
  2
*D2626
 70
     1
 10
0.0
 20
0.0
 30
0.0
  3
*D2626
  1

  0
LINE
  5
92
  8
回07-寸法
  6
CONTINUOUS
 62
     5
 10
502.9236329495463
 20
-33.14158373388024
 30
0.0
 11
487.4533170897653
 21
-33.14158373388024
 31
0.0
  0
LINE
  5
93
  8
回07-寸法
  6
CONTINUOUS
 62
     5
 10
502.9236329495463
 20
-40.64158373388024
 30
0.0
 11
487.4533170897653
 21
-40.64158373388024
 31
0.0
  0
LINE
  5
94
  8
回07-寸法
  6
CONTINUOUS
 62
     5
 10
488.4533170897653
 20
-42.64158373388024
 30
0.0
 11
488.4533170897653
 21
-44.64158373388024
 31
0.0
  0
LINE
  5
95
  8
回07-寸法
  6
CONTINUOUS
 62
     5
 10
488.4533170897653
 20
-31.14158373388024
 30
0.0
 11
488.4533170897653
 21
1.75847726611989
 31
0.0
  0
LINE
  5
96
  8
回07-寸法
  6
CONTINUOUS
 62
     5
 10
488.4533170897653
 20
-40.64158373388024
 30
0.0
 11
488.4533170897653
 21
-33.14158373388025
 31
0.0
  0
INSERT
  5
97
  8
回07-寸法
  6
CONTINUOUS
 62
     5
  2
_OPEN
 10
488.4533170897653
 20
-40.64158373388024
 30
0.0
 41
2.0
 42
2.0
 43
2.0
 50
90.0
  0
INSERT
  5
98
  8
回07-寸法
  6
CONTINUOUS
 62
     5
  2
_OPEN
 10
488.4533170897653
 20
-33.14158373388025
 30
0.0
 41
2.0
 42
2.0
 43
2.0
 50
270.0
  0
INSERT
  5
99
  8
回07-寸法
  6
CONTINUOUS
 62
     5
 66
     1
  2
*X5353
 10
0.0
 20
0.0
 30
0.0
  0
SEQEND
  5
44F
  8
回08-記事
  6
CONTINUOUS
 62
     7
  0
POINT
  5
9A
  8
DEFPOINTS
  6
CONTINUOUS
 62
     0
 10
502.9236329495463
 20
-33.14158373388024
 30
0.0
  0
POINT
  5
9C
  8
DEFPOINTS
  6
CONTINUOUS
 62
     0
 10
502.9236329495463
 20
-40.64158373388024
 30
0.0
  0
POINT
  5
9D
  8
DEFPOINTS
  6
CONTINUOUS
 62
     0
 10
488.4533170897653
 20
-40.64158373388024
 30
0.0
  0
ENDBLK
  5
9E
  8
0
 62
     7
  0
BLOCK
  8
0
  2
*D2727
 70
     1
 10
0.0
 20
0.0
 30
0.0
  3
*D2727
  1

  0
LINE
  5
F2
  8
回07-寸法
  6
CONTINUOUS
 62
     5
 10
576.4211204613606
 20
-36.29262319203558
 30
0.0
 11
576.4211204613606
 21
-0.0310061779714488
 31
0.0
  0
LINE
  5
F3
  8
回07-寸法
  6
CONTINUOUS
 62
     5
 10
568.4211204613606
 20
-29.44262319203563
 30
0.0
 11
568.4211204613606
 21
-0.0310061779714488
 31
0.0
  0
LINE
  5
F4
  8
回07-寸法
  6
CONTINUOUS
 62
     5
 10
578.4211204613606
 20
-1.031006177971448
 30
0.0
 11
580.4211204613606
 21
-1.031006177971448
 31
0.0
  0
LINE
  5
F5
  8
回07-寸法
  6
CONTINUOUS
 62
     5
 10
566.4211204613605
 20
-1.031006177971448
 30
0.0
 11
549.3211204613604
 21
-1.031006177971448
 31
0.0
  0
LINE
  5
F6
  8
回07-寸法
  6
CONTINUOUS
 62
     5
 10
576.4211204613606
 20
-1.031006177971448
 30
0.0
 11
568.4211204613606
 21
-1.031006177971448
 31
0.0
  0
INSERT
  5
F7
  8
回07-寸法
  6
CONTINUOUS
 62
     5
  2
_OPEN
 10
576.4211204613606
 20
-1.031006177971448
 30
0.0
 41
2.0
 42
2.0
 43
2.0
 50
180.0
  0
INSERT
  5
F8
  8
回07-寸法
  6
CONTINUOUS
 62
     5
  2
_OPEN
 10
568.4211204613606
 20
-1.031006177971448
 30
0.0
 41
2.0
 42
2.0
 43
2.0
  0
TEXT
  5
F9
  8
回07-寸法
  6
CONTINUOUS
 62
     5
 10
549.3711204613606
 20
-0.3810061779714484
 30
0.0
 40
3.0
  1
8 [0.315]
1001
ACAD
1000
MTEXTBEGIN
1070
    73
1070
     1
1070
    44
1040
1.0
1070
    74
1070
     0
1000
MTEXTEND
  0
POINT
  5
FA
  8
DEFPOINTS
  6
CONTINUOUS
 62
     0
 10
576.4211204613606
 20
-36.29262319203558
 30
0.0
  0
POINT
  5
FB
  8
DEFPOINTS
  6
CONTINUOUS
 62
     0
 10
568.4211204613606
 20
-29.44262319203563
 30
0.0
  0
POINT
  5
FC
  8
DEFPOINTS
  6
CONTINUOUS
 62
     0
 10
568.4211204613606
 20
-1.031006177971448
 30
0.0
  0
ENDBLK
  5
FD
  8
0
 62
     7
  0
BLOCK
  8
0
  2
*D2828
 70
     1
 10
0.0
 20
0.0
 30
0.0
  3
*D2828
  1

  0
LINE
  5
E5
  8
回07-寸法
  6
CONTINUOUS
 62
     5
 10
576.4211204613606
 20
-36.29262319203558
 30
0.0
 11
576.4211204613606
 21
-0.0310061779714488
 31
0.0
  0
LINE
  5
E6
  8
回07-寸法
  6
CONTINUOUS
 62
     5
 10
697.5211204613606
 20
-36.29262319203558
 30
0.0
 11
697.5211204613606
 21
-0.0310061779714488
 31
0.0
  0
LINE
  5
E7
  8
回07-寸法
  6
CONTINUOUS
 62
     5
 10
578.4211204613606
 20
-1.031006177971448
 30
0.0
 11
695.5211204613606
 21
-1.031006177971448
 31
0.0
  0
INSERT
  5
E8
  8
回07-寸法
  6
CONTINUOUS
 62
     5
  2
_OPEN
 10
576.4211204613606
 20
-1.031006177971448
 30
0.0
 41
2.0
 42
2.0
 43
2.0
 50
180.0
  0
INSERT
  5
E9
  8
回07-寸法
  6
CONTINUOUS
 62
     5
  2
_OPEN
 10
697.5211204613606
 20
-1.031006177971448
 30
0.0
 41
2.0
 42
2.0
 43
2.0
  0
TEXT
  5
EA
  8
回07-寸法
  6
CONTINUOUS
 62
     5
 10
626.3211204613606
 20
-0.3810061779714484
 30
0.0
 40
3.0
  1
121.1 [4.768]
1001
ACAD
1000
MTEXTBEGIN
1070
    73
1070
     1
1070
    44
1040
1.0
1070
    74
1070
     0
1000
MTEXTEND
  0
POINT
  5
EB
  8
DEFPOINTS
  6
CONTINUOUS
 62
     0
 10
576.4211204613606
 20
-36.29262319203558
 30
0.0
  0
POINT
  5
EC
  8
DEFPOINTS
  6
CONTINUOUS
 62
     0
 10
697.5211204613606
 20
-36.29262319203558
 30
0.0
  0
POINT
  5
ED
  8
DEFPOINTS
  6
CONTINUOUS
 62
     0
 10
697.5211204613606
 20
-1.031006177971448
 30
0.0
  0
ENDBLK
  5
EE
  8
0
 62
     7
  0
BLOCK
  8
0
  2
*D2929
 70
     1
 10
0.0
 20
0.0
 30
0.0
  3
*D2929
  1

  0
LINE
  5
D6
  8
回07-寸法
  6
CONTINUOUS
 62
     5
 10
697.5211204613607
 20
-130.9926231920357
 30
0.0
 11
743.9894788825293
 21
-130.9926231920357
 31
0.0
  0
LINE
  5
D7
  8
回07-寸法
  6
CONTINUOUS
 62
     5
 10
699.8211204613608
 20
-132.4426231920357
 30
0.0
 11
743.9894788825293
 21
-132.4426231920357
 31
0.0
  0
LINE
  5
D8
  8
回07-寸法
  6
CONTINUOUS
 62
     5
 10
742.9894788825293
 20
-128.9926231920356
 30
0.0
 11
742.9894788825293
 21
-126.9926231920356
 31
0.0
  0
LINE
  5
D9
  8
回07-寸法
  6
CONTINUOUS
 62
     5
 10
742.9894788825293
 20
-134.4426231920356
 30
0.0
 11
742.9894788825293
 21
-156.9426231920356
 31
0.0
  0
LINE
  5
DA
  8
回07-寸法
  6
CONTINUOUS
 62
     5
 10
742.9894788825293
 20
-130.9926231920356
 30
0.0
 11
742.9894788825293
 21
-132.4426231920356
 31
0.0
  0
INSERT
  5
DB
  8
回07-寸法
  6
CONTINUOUS
 62
     5
  2
_OPEN
 10
742.9894788825293
 20
-130.9926231920356
 30
0.0
 41
2.0
 42
2.0
 43
2.0
 50
270.0
  0
INSERT
  5
DC
  8
回07-寸法
  6
CONTINUOUS
 62
     5
  2
_OPEN
 10
742.9894788825293
 20
-132.4426231920356
 30
0.0
 41
2.0
 42
2.0
 43
2.0
 50
90.0
  0
TEXT
  5
DD
  8
回07-寸法
  6
CONTINUOUS
 62
     5
 10
742.3394788825294
 20
-156.8926231920359
 30
0.0
 40
3.0
  1
1.45 [0.057]
 50
90.0
1001
ACAD
1000
MTEXTBEGIN
1070
    73
1070
     1
1070
    44
1040
1.0
1070
    74
1070
     0
1000
MTEXTEND
  0
POINT
  5
DE
  8
DEFPOINTS
  6
CONTINUOUS
 62
     0
 10
697.5211204613607
 20
-130.9926231920357
 30
0.0
  0
POINT
  5
DF
  8
DEFPOINTS
  6
CONTINUOUS
 62
     0
 10
699.8211204613608
 20
-132.4426231920357
 30
0.0
  0
POINT
  5
E0
  8
DEFPOINTS
  6
CONTINUOUS
 62
     0
 10
742.9894788825293
 20
-132.4426231920356
 30
0.0
  0
ENDBLK
  5
E1
  8
0
 62
     7
  0
BLOCK
  8
0
  2
*D3030
 70
     1
 10
0.0
 20
0.0
 30
0.0
  3
*D3030
  1

  0
LINE
  5
C9
  8
回07-寸法
  6
CONTINUOUS
 62
     5
 10
697.5211204613607
 20
-130.9926231920357
 30
0.0
 11
743.9894788825293
 21
-130.9926231920357
 31
0.0
  0
LINE
  5
CA
  8
回07-寸法
  6
CONTINUOUS
 62
     5
 10
697.5211204613607
 20
-36.29262319203559
 30
0.0
 11
743.9894788825293
 21
-36.29262319203559
 31
0.0
  0
LINE
  5
CB
  8
回07-寸法
  6
CONTINUOUS
 62
     5
 10
742.9894788825293
 20
-128.9926231920356
 30
0.0
 11
742.9894788825293
 21
-38.29262319203559
 31
0.0
  0
INSERT
  5
CC
  8
回07-寸法
  6
CONTINUOUS
 62
     5
  2
_OPEN
 10
742.9894788825293
 20
-130.9926231920356
 30
0.0
 41
2.0
 42
2.0
 43
2.0
 50
270.0
  0
INSERT
  5
CD
  8
回07-寸法
  6
CONTINUOUS
 62
     5
  2
_OPEN
 10
742.9894788825293
 20
-36.29262319203558
 30
0.0
 41
2.0
 42
2.0
 43
2.0
 50
90.0
  0
TEXT
  5
CE
  8
回07-寸法
  6
CONTINUOUS
 62
     5
 10
742.3394788825294
 20
-94.1534542976167
 30
0.0
 40
3.0
  1
94.7 [3.728]
 50
90.0
1001
ACAD
1000
MTEXTBEGIN
1070
    73
1070
     1
1070
    44
1040
1.0
1070
    74
1070
     0
1000
MTEXTEND
  0
POINT
  5
CF
  8
DEFPOINTS
  6
CONTINUOUS
 62
     0
 10
697.5211204613607
 20
-130.9926231920357
 30
0.0
  0
POINT
  5
D0
  8
DEFPOINTS
  6
CONTINUOUS
 62
     0
 10
697.5211204613607
 20
-36.29262319203559
 30
0.0
  0
POINT
  5
D1
  8
DEFPOINTS
  6
CONTINUOUS
 62
     0
 10
742.9894788825293
 20
-36.29262319203558
 30
0.0
  0
ENDBLK
  5
D2
  8
0
 62
     7
  0
BLOCK
  8
回08-記事
  2
ZW$B96B
 70
     0
 10
0.0
 20
0.0
 30
0.0
  3
ZW$B96B
  1

  0
TEXT
  5
64
  8
回03-記事
  6
CONTINUOUS
 62
     5
 10
-0.7200000000000273
 20
34.87882285679928
 30
0.0
 40
4.799999999999999
  1
TOLERANCE=±0.5mm
  0
TEXT
  5
66
  8
回03-記事
  6
CONTINUOUS
 62
     5
 10
-0.7200000000000273
 20
26.45911714259955
 30
0.0
 40
4.799999999999999
  1
EXCEPT WHERE INDICATED
  0
TEXT
  5
67
  8
回03-記事
  6
CONTINUOUS
 62
     5
 10
-0.7200000000000273
 20
18.03941142839983
 30
0.0
 40
4.799999999999999
  1
Unit: mm
  0
TEXT
  5
68
  8
回03-記事
  6
CONTINUOUS
 62
     5
 10
-0.7200000000000273
 20
9.619705714199993
 30
0.0
 40
4.799999999999999
  1
Edges and corners of ITO glass may be chamfered 
  0
TEXT
  5
69
  8
回03-記事
  6
CONTINUOUS
 62
     5
 10
-0.7200000000000273
 20
1.200000000000044
 30
0.0
 40
4.799999999999999
  1
without affecting product specification.
  0
ENDBLK
  5
6A
  8
回08-記事
  6
CONTINUOUS
 62
     7
  0
BLOCK
  8
回08-記事
  2
*X3232
 70
     1
 10
0.0
 20
0.0
 30
0.0
  3
*X3232
  1

  0
INSERT
  5
351
  8
回07-寸法
  6
CONTINUOUS
 62
     5
  2
_OPEN
 10
566.7211204613604
 20
-116.8203657397941
 30
0.0
 41
2.0
 42
2.0
 43
2.0
 50
71.2089005276825
  0
LINE
  5
352
  8
回07-寸法
  6
CONTINUOUS
 62
     5
 10
566.0768831903188
 20
-118.7137643609516
 30
0.0
 11
559.4603499487194
 21
-138.1596043947476
 31
0.0
  0
LINE
  5
353
  8
回07-寸法
  6
CONTINUOUS
 62
     5
 10
559.4603499487194
 20
-138.1596043947476
 30
0.0
 11
524.5603499487193
 21
-138.1596043947476
 31
0.0
  0
ENDBLK
  5
355
  8
回08-記事
  6
CONTINUOUS
 62
     7
  0
BLOCK
  8
回08-記事
  2
*X3333
 70
     1
 10
0.0
 20
0.0
 30
0.0
  3
*X3333
  1

  0
INSERT
  5
358
  8
回07-寸法
  6
CONTINUOUS
 62
     5
  2
_OPEN
 10
542.7792547268848
 20
-107.7463028565043
 30
0.0
 41
2.0
 42
2.0
 43
2.0
 50
295.8614789023538
  0
LINE
  5
359
  8
回07-寸法
  6
CONTINUOUS
 62
     5
 10
541.9068609288444
 20
-105.9466003641071
 30
0.0
 11
538.4490880679272
 21
-98.8133969301584
 31
0.0
  0
LINE
  5
35A
  8
回07-寸法
  6
CONTINUOUS
 62
     5
 10
538.4490880679272
 20
-98.8133969301584
 30
0.0
 11
516.7490880679271
 21
-98.8133969301584
 31
0.0
  0
ENDBLK
  5
35C
  8
回08-記事
  6
CONTINUOUS
 62
     7
  0
BLOCK
  8
回08-記事
  2
*X3434
 70
     1
 10
0.0
 20
0.0
 30
0.0
  3
*X3434
  1

  0
INSERT
  5
364
  8
回07-寸法
  6
CONTINUOUS
 62
     5
  2
_OPEN
 10
503.2077536397348
 20
-43.09931249776332
 30
0.0
 41
1.999999999999999
 42
1.999999999999999
 43
2.0
 50
20.87638819542632
  0
LINE
  5
365
  8
回07-寸法
  6
CONTINUOUS
 62
     5
 10
501.3390508236347
 20
-43.81201845753881
 30
0.0
 11
497.3459015630698
 21
-45.33496863011737
 31
0.0
  0
LINE
  5
366
  8
回07-寸法
  6
CONTINUOUS
 62
     5
 10
497.3459015630698
 20
-45.33496863011737
 30
0.0
 11
497.3459015630698
 21
-72.73496863011738
 31
0.0
  0
ENDBLK
  5
368
  8
回08-記事
  6
CONTINUOUS
 62
     7
  0
BLOCK
  8
回08-記事
  2
*X3535
 70
     1
 10
0.0
 20
0.0
 30
0.0
  3
*X3535
  1

  0
TEXT
  5
36B
  8
回08-記事
  6
CONTINUOUS
 62
     5
 10
500.0159771599086
 20
-25.80991762719572
 30
0.0
 40
3.0
  1
4-0.7
 50
90.0
  0
TEXT
  5
36C
  8
回08-記事
  6
CONTINUOUS
 62
     5
 10
500.0159771599086
 20
-16.20991762719569
 30
0.0
 40
2.000099999999999
  1
±0.1
 50
90.0
  0
TEXT
  5
36D
  8
回08-記事
  6
CONTINUOUS
 62
     5
 10
500.0159771599086
 20
-11.8096976271957
 30
0.0
 40
3.0
  1
[4-0.028
 50
90.0
  0
TEXT
  5
36E
  8
回08-記事
  6
CONTINUOUS
 62
     5
 10
500.0159771599086
 20
3.190302372804296
 30
0.0
 40
2.00001
  1
±0.004
 50
90.0
  0
TEXT
  5
36F
  8
回08-記事
  6
CONTINUOUS
 62
     5
 10
500.0159771599086
 20
10.99034137280432
 30
0.0
 40
3.0
  1
]
 50
90.0
  0
ENDBLK
  5
371
  8
回08-記事
  6
CONTINUOUS
 62
     7
  0
BLOCK
  8
回08-記事
  2
*X3636
 70
     1
 10
0.0
 20
0.0
 30
0.0
  3
*X3636
  1

  0
TEXT
  5
374
  8
回08-記事
  6
CONTINUOUS
 62
     5
 10
479.6584693434128
 20
-23.19993852606728
 30
0.0
 40
3.0
  1
6.25
 50
89.99999999999998
  0
TEXT
  5
375
  8
回08-記事
  6
CONTINUOUS
 62
     5
 10
479.6584693434128
 20
-15.99993852606728
 30
0.0
 40
2.00001
  1
±0.2
 50
89.99999999999998
  0
TEXT
  5
376
  8
回08-記事
  6
CONTINUOUS
 62
     5
 10
479.6584693434128
 20
-11.19991452606728
 30
0.0
 40
3.0
  1
[0.246
 50
89.99999999999998
  0
TEXT
  5
377
  8
回08-記事
  6
CONTINUOUS
 62
     5
 10
479.6584693434128
 20
-0.3999145260672776
 30
0.0
 40
2.00001
  1
±0.008
 50
89.99999999999998
  0
TEXT
  5
378
  8
回08-記事
  6
CONTINUOUS
 62
     5
 10
479.6584693434128
 20
7.200123473932706
 30
0.0
 40
3.0
  1
]
 50
89.99999999999998
  0
ENDBLK
  5
37A
  8
回08-記事
  6
CONTINUOUS
 62
     7
  0
BLOCK
  8
回08-記事
  2
*X3737
 70
     1
 10
0.0
 20
0.0
 30
0.0
  3
*X3737
  1

  0
LINE
  5
393
  8
回08-記事
  6
CONTINUOUS
 62
     7
 10
518.0177123501722
 20
-110.9614970175544
 30
0.0
 11
521.8539412463211
 21
-107.1252681214055
 31
0.0
  0
LINE
  5
394
  8
回08-記事
  6
CONTINUOUS
 62
     7
 10
522.3440693068554
 20
-111.1252681214057
 30
0.0
 11
526.3440693068556
 21
-107.1252681214056
 31
0.0
  0
LINE
  5
395
  8
回08-記事
  6
CONTINUOUS
 62
     7
 10
526.8341973673901
 20
-111.1252681214056
 30
0.0
 11
530.8341973673901
 21
-107.1252681214056
 31
0.0
  0
LINE
  5
396
  8
回08-記事
  6
CONTINUOUS
 62
     7
 10
531.3243254279247
 20
-111.1252681214055
 30
0.0
 11
535.3243254279247
 21
-107.1252681214056
 31
0.0
  0
LINE
  5
397
  8
回08-記事
  6
CONTINUOUS
 62
     7
 10
535.8144534884591
 20
-111.1252681214056
 30
0.0
 11
539.8144534884592
 21
-107.1252681214056
 31
0.0
  0
LINE
  5
398
  8
回08-記事
  6
CONTINUOUS
 62
     7
 10
540.3045815489938
 20
-111.1252681214056
 30
0.0
 11
543.5383783789658
 21
-107.8914712914336
 31
0.0
  0
ENDBLK
  5
39A
  8
回08-記事
  6
CONTINUOUS
 62
     7
  0
BLOCK
  8
回08-記事
  2
*X3838
 70
     1
 10
0.0
 20
0.0
 30
0.0
  3
*X3838
  1

  0
LINE
  5
3A6
  8
回08-記事
  6
CONTINUOUS
 62
     8
 10
564.0296374569602
 20
-112.2003577910651
 30
0.0
 11
565.9108323427783
 21
-110.319162905247
 31
0.0
  0
LINE
  5
3A7
  8
回08-記事
  6
CONTINUOUS
 62
     8
 10
564.0296374569602
 20
-114.8944346273859
 30
0.0
 11
568.6049091790993
 21
-110.3191629052471
 31
0.0
  0
LINE
  5
3A8
  8
回08-記事
  6
CONTINUOUS
 62
     8
 10
564.7977831808726
 20
-116.8203657397942
 30
0.0
 11
571.2989860154197
 21
-110.3191629052471
 31
0.0
  0
LINE
  5
3A9
  8
回08-記事
  6
CONTINUOUS
 62
     8
 10
567.4918600171936
 20
-116.8203657397942
 30
0.0
 11
571.7211204613604
 21
-112.5911052956273
 31
0.0
  0
LINE
  5
3AA
  8
回08-記事
  6
CONTINUOUS
 62
     8
 10
570.1859368535142
 20
-116.8203657397943
 30
0.0
 11
571.7211204613604
 21
-115.2851821319481
 31
0.0
  0
ENDBLK
  5
3AC
  8
回08-記事
  6
CONTINUOUS
 62
     7
  0
BLOCK
  8
回08-記事
  2
*X3939
 70
     1
 10
0.0
 20
0.0
 30
0.0
  3
*X3939
  1

  0
INSERT
  5
3DC
  8
回07-寸法
  6
CONTINUOUS
 62
     5
  2
_OPEN
 10
563.2598808339037
 20
-101.3067076482671
 30
0.0
 41
2.0
 42
2.0
 43
2.0
 50
302.0498610676091
  0
LINE
  5
3DD
  8
回07-寸法
  6
CONTINUOUS
 62
     5
 10
562.1985666965323
 20
-99.61153441174658
 30
0.0
 11
560.0243651772765
 21
-96.13881309723275
 31
0.0
  0
LINE
  5
3DE
  8
回07-寸法
  6
CONTINUOUS
 62
     5
 10
560.0243651772765
 20
-96.13881309723275
 30
0.0
 11
535.9135340716956
 21
-96.13881309723275
 31
0.0
  0
ENDBLK
  5
3E0
  8
回08-記事
  6
CONTINUOUS
 62
     7
  0
BLOCK
  8
回08-記事
  2
*X4040
 70
     1
 10
0.0
 20
0.0
 30
0.0
  3
*X4040
  1

  0
INSERT
  5
3E3
  8
回07-寸法
  6
CONTINUOUS
 62
     5
  2
_OPEN
 10
567.9075214450533
 20
-100.6874253975111
 30
0.0
 41
2.0
 42
2.0
 43
2.0
 50
295.8614789023538
  0
LINE
  5
3E4
  8
回07-寸法
  6
CONTINUOUS
 62
     5
 10
567.035127647013
 20
-98.88772290511388
 30
0.0
 11
563.5773547860956
 21
-91.75451947116517
 31
0.0
  0
LINE
  5
3E5
  8
回07-寸法
  6
CONTINUOUS
 62
     5
 10
563.5773547860956
 20
-91.75451947116517
 30
0.0
 11
539.1665236805147
 21
-91.75451947116517
 31
0.0
  0
ENDBLK
  5
3E7
  8
回08-記事
  6
CONTINUOUS
 62
     7
  0
BLOCK
  8
回08-記事
  2
*X4141
 70
     1
 10
0.0
 20
0.0
 30
0.0
  3
*X4141
  1

  0
INSERT
  5
3EA
  8
回08-記事
  6
CONTINUOUS
 62
     5
  2
_OPEN
 10
527.3984995344289
 20
-160.7852564869597
 30
0.0
 41
2.0
 42
2.0
 43
2.0
 50
103.8314507105638
  0
LINE
  5
3EB
  8
回08-記事
  6
CONTINUOUS
 62
     5
 10
527.8766325247097
 20
-162.7272628833459
 30
0.0
 11
530.0511446589775
 21
-171.559358889285
 31
0.0
  0
LINE
  5
3EC
  8
回08-記事
  6
CONTINUOUS
 62
     5
 10
530.0511446589775
 20
-171.559358889285
 30
0.0
 11
551.7511446589775
 21
-171.559358889285
 31
0.0
  0
ENDBLK
  5
3EE
  8
回08-記事
  6
CONTINUOUS
 62
     7
  0
BLOCK
  8
回08-記事
  2
*X4242
 70
     1
 10
0.0
 20
0.0
 30
0.0
  3
*X4242
  1

  0
INSERT
  5
3F1
  8
回08-記事
  6
CONTINUOUS
 62
     5
  2
_OPEN
 10
500.6431491792936
 20
-158.4400763132651
 30
0.0
 41
2.0
 42
2.0
 43
2.0
 50
214.6901052090443
  0
LINE
  5
3F2
  8
回08-記事
  6
CONTINUOUS
 62
     5
 10
502.2876338622028
 20
-157.3018012464746
 30
0.0
 11
508.1723094545772
 21
-153.2285620290072
 31
0.0
  0
LINE
  5
3F3
  8
回08-記事
  6
CONTINUOUS
 62
     5
 10
508.1723094545772
 20
-153.2285620290072
 30
0.0
 11
537.3723094545773
 21
-153.2285620290072
 31
0.0
  0
ENDBLK
  5
3F5
  8
回08-記事
  6
CONTINUOUS
 62
     7
  0
BLOCK
  8
回08-記事
  2
*X4343
 70
     1
 10
0.0
 20
0.0
 30
0.0
  3
*X4343
  1

  0
INSERT
  5
3F8
  8
回08-記事
  6
CONTINUOUS
 62
     5
  2
_OPEN
 10
684.089796655764
 20
-30.16521479255266
 30
0.0
 41
1.999999999999999
 42
1.999999999999999
 43
2.0
 50
287.0956994962885
  0
LINE
  5
3F9
  8
回08-記事
  6
CONTINUOUS
 62
     5
 10
683.501859486683
 20
-28.25358462821307
 30
0.0
 11
681.8131894206487
 21
-22.76301045530613
 31
0.0
  0
LINE
  5
3FA
  8
回08-記事
  6
CONTINUOUS
 62
     5
 10
681.8131894206487
 20
-22.76301045530613
 30
0.0
 11
663.1131894206487
 21
-22.76301045530613
 31
0.0
  0
ENDBLK
  5
3FC
  8
回08-記事
  6
CONTINUOUS
 62
     7
  0
BLOCK
  8
回08-記事
  2
*X4444
 70
     1
 10
0.0
 20
0.0
 30
0.0
  3
*X4444
  1

  0
INSERT
  5
3FF
  8
回08-記事
  6
CONTINUOUS
 62
     5
  2
_OPEN
 10
698.0022160174524
 20
-128.4146480751387
 30
0.0
 41
2.0
 42
2.0
 43
2.0
 50
78.81604176113462
  0
LINE
  5
400
  8
回08-記事
  6
CONTINUOUS
 62
     5
 10
697.6142966289203
 20
-130.3766670730082
 30
0.0
 11
696.0521231015848
 21
-138.2778296062824
 31
0.0
  0
LINE
  5
401
  8
回08-記事
  6
CONTINUOUS
 62
     5
 10
696.0521231015848
 20
-138.2778296062824
 30
0.0
 11
677.0521231015848
 21
-138.2778296062824
 31
0.0
  0
ENDBLK
  5
403
  8
回08-記事
  6
CONTINUOUS
 62
     7
  0
BLOCK
  8
回08-記事
  2
*X4545
 70
     1
 10
0.0
 20
0.0
 30
0.0
  3
*X4545
  1

  0
TEXT
  5
406
  8
回07-寸法
  6
CONTINUOUS
 62
     5
 10
616.6115160101533
 20
5.152594021460254
 30
0.0
 40
3.0
  1
131.4
  0
TEXT
  5
407
  8
回07-寸法
  6
CONTINUOUS
 62
     5
 10
625.0115160101533
 20
5.152594021460254
 30
0.0
 40
2.1
  1
±0.3
  0
TEXT
  5
408
  8
回07-寸法
  6
CONTINUOUS
 62
     5
 10
630.0515160101531
 20
5.152594021460254
 30
0.0
 40
3.0
  1
 [5.173
  0
TEXT
  5
409
  8
回07-寸法
  6
CONTINUOUS
 62
     5
 10
641.7515160101531
 20
5.152594021460254
 30
0.0
 40
2.1
  1
±0.012
  0
TEXT
  5
40A
  8
回07-寸法
  6
CONTINUOUS
 62
     5
 10
649.3115160101531
 20
5.152594021460254
 30
0.0
 40
3.0
  1
]
  0
ENDBLK
  5
40C
  8
回08-記事
  6
CONTINUOUS
 62
     7
  0
BLOCK
  8
回08-記事
  2
*X4646
 70
     1
 10
0.0
 20
0.0
 30
0.0
  3
*X4646
  1

  0
TEXT
  5
40F
  8
回07-寸法
  6
CONTINUOUS
 62
     5
 10
581.2706223332159
 20
-23.68100142106429
 30
0.0
 40
3.0
  1
68.5 [2.697] 
  0
TEXT
  5
410
  8
回07-寸法
  6
CONTINUOUS
 62
     5
 10
603.7814534387968
 20
-23.68100142106429
 30
0.0
 40
2.499899999999999
  1
(ACTIVE AREA CENTER)
  0
ENDBLK
  5
412
  8
回08-記事
  6
CONTINUOUS
 62
     7
  0
BLOCK
  8
回08-記事
  2
*X4747
 70
     1
 10
0.0
 20
0.0
 30
0.0
  3
*X4747
  1

  0
TEXT
  5
415
  8
回07-寸法
  6
CONTINUOUS
 62
     5
 10
719.017107683851
 20
-126.1469324208159
 30
0.0
 40
3.0
  1
48.8 [1.921]
 50
90.0
  0
TEXT
  5
416
  8
回07-寸法
  6
CONTINUOUS
 62
     5
 10
719.017107683851
 20
-106.3361013152349
 30
0.0
 40
2.499899999999999
  1
(ACTIVE AREA CENTER)
 50
90.0
  0
ENDBLK
  5
418
  8
回08-記事
  6
CONTINUOUS
 62
     7
  0
BLOCK
  8
回08-記事
  2
*X4848
 70
     1
 10
0.0
 20
0.0
 30
0.0
  3
*X4848
  1

  0
TEXT
  5
41B
  8
回07-寸法
  6
CONTINUOUS
 62
     5
 10
752.5257195744832
 20
-98.51969553699962
 30
0.0
 40
3.0
  1
103
 50
90.0
  0
TEXT
  5
41C
  8
回07-寸法
  6
CONTINUOUS
 62
     5
 10
752.5257195744832
 20
-92.81969553699957
 30
0.0
 40
2.1
  1
±0.3
 50
90.0
  0
TEXT
  5
41D
  8
回07-寸法
  6
CONTINUOUS
 62
     5
 10
752.5257195744832
 20
-87.77969553699961
 30
0.0
 40
3.0
  1
 [4.055
 50
90.0
  0
TEXT
  5
41E
  8
回07-寸法
  6
CONTINUOUS
 62
     5
 10
752.5257195744832
 20
-75.1796955369996
 30
0.0
 40
2.1
  1
±0.012
 50
90.0
  0
TEXT
  5
41F
  8
回07-寸法
  6
CONTINUOUS
 62
     5
 10
752.5257195744832
 20
-67.61969553699964
 30
0.0
 40
3.0
  1
]
 50
90.0
  0
ENDBLK
  5
421
  8
回08-記事
  6
CONTINUOUS
 62
     7
  0
BLOCK
  8
回08-記事
  2
*X4949
 70
     1
 10
0.0
 20
0.0
 30
0.0
  3
*X4949
  1

  0
TEXT
  5
424
  8
回07-寸法
  6
CONTINUOUS
 62
     5
 10
522.2204422371833
 20
-73.79131419079121
 30
0.0
 40
3.0
  1
70
  0
TEXT
  5
425
  8
回07-寸法
  6
CONTINUOUS
 62
     5
 10
526.4204422371833
 20
-73.79131419079121
 30
0.0
 40
2.1
  1
±1
  0
TEXT
  5
426
  8
回07-寸法
  6
CONTINUOUS
 62
     5
 10
528.9404422371833
 20
-73.79131419079121
 30
0.0
 40
3.0
  1
 [2.756
  0
TEXT
  5
427
  8
回07-寸法
  6
CONTINUOUS
 62
     5
 10
541.2404422371833
 20
-73.79131419079121
 30
0.0
 40
2.1
  1
±0.039
  0
TEXT
  5
428
  8
回07-寸法
  6
CONTINUOUS
 62
     5
 10
549.2280240110898
 20
-73.79131419079121
 30
0.0
 40
3.0
  1
]
  0
ENDBLK
  5
42A
  8
回08-記事
  6
CONTINUOUS
 62
     7
  0
BLOCK
  8
回08-記事
  2
*X5050
 70
     1
 10
0.0
 20
0.0
 30
0.0
  3
*X5050
  1

  0
TEXT
  5
42D
  8
回08-記事
  6
CONTINUOUS
 62
     5
 10
491.3433852871722
 20
-195.7247925129986
 30
0.0
 40
3.0
  1
0.3
 50
90.0
  0
TEXT
  5
42E
  8
回08-記事
  6
CONTINUOUS
 62
     5
 10
491.3433852871722
 20
-190.6247925129985
 30
0.0
 40
2.000099999999999
  1
±0.05
 50
90.0
  0
TEXT
  5
42F
  8
回08-記事
  6
CONTINUOUS
 62
     5
 10
491.3433852871722
 20
-184.4244825129985
 30
0.0
 40
3.0
  1
[0.012
 50
90.0
  0
TEXT
  5
430
  8
回08-記事
  6
CONTINUOUS
 62
     5
 10
491.3433852871722
 20
-174.5244825129986
 30
0.0
 40
2.000099999999999
  1
±0.002
 50
90.0
  0
TEXT
  5
431
  8
回08-記事
  6
CONTINUOUS
 62
     5
 10
491.3433852871722
 20
-166.9241025129986
 30
0.0
 40
3.0
  1
]
 50
90.0
  0
ENDBLK
  5
433
  8
回08-記事
  6
CONTINUOUS
 62
     7
  0
BLOCK
  8
回08-記事
  2
*X5151
 70
     1
 10
0.0
 20
0.0
 30
0.0
  3
*X5151
  1

  0
TEXT
  5
436
  8
回08-記事
  6
CONTINUOUS
 62
     5
 10
702.0541191465573
 20
-196.2243805129988
 30
0.0
 40
3.0
  1
1.4
 50
90.0
  0
TEXT
  5
437
  8
回08-記事
  6
CONTINUOUS
 62
     5
 10
702.0541191465573
 20
-191.4243805129988
 30
0.0
 40
2.000099999999999
  1
±0.2
 50
90.0
  0
TEXT
  5
438
  8
回08-記事
  6
CONTINUOUS
 62
     5
 10
702.0541191465573
 20
-186.6241405129988
 30
0.0
 40
3.0
  1
[0.055
 50
90.0
  0
TEXT
  5
439
  8
回08-記事
  6
CONTINUOUS
 62
     5
 10
702.0541191465573
 20
-176.1241405129988
 30
0.0
 40
2.00001
  1
±0.008
 50
90.0
  0
TEXT
  5
43A
  8
回08-記事
  6
CONTINUOUS
 62
     5
 10
702.0541191465573
 20
-168.5241025129987
 30
0.0
 40
3.0
  1
]
 50
90.0
  0
ENDBLK
  5
43C
  8
回08-記事
  6
CONTINUOUS
 62
     7
  0
BLOCK
  8
回08-記事
  2
*X5252
 70
     1
 10
0.0
 20
0.0
 30
0.0
  3
*X5252
  1

  0
TEXT
  5
43F
  8
回07-寸法
  6
CONTINUOUS
 62
     5
 10
494.9008217496911
 20
-29.09175779150905
 30
0.0
 40
3.0
  1
1.25
 50
90.0
  0
TEXT
  5
440
  8
回07-寸法
  6
CONTINUOUS
 62
     5
 10
494.9008217496911
 20
-22.49175779150903
 30
0.0
 40
2.000099999999999
  1
±0.2
 50
90.0
  0
TEXT
  5
441
  8
回07-寸法
  6
CONTINUOUS
 62
     5
 10
494.9008217496911
 20
-17.69151779150905
 30
0.0
 40
3.000009992999998
  1
[0.049
 50
90.0
  0
TEXT
  5
442
  8
回07-寸法
  6
CONTINUOUS
 62
     5
 10
494.9008217496911
 20
-6.880650675049706
 30
0.0
 40
2.000016662033309
  1
±0.008
 50
90.0
  0
TEXT
  5
443
  8
回07-寸法
  6
CONTINUOUS
 62
     5
 10
494.9008217496911
 20
0.7194126406768647
 30
0.0
 40
3.000004992883343
  1
]
 50
90.0
  0
ENDBLK
  5
445
  8
回08-記事
  6
CONTINUOUS
 62
     7
  0
BLOCK
  8
回08-記事
  2
*X5353
 70
     1
 10
0.0
 20
0.0
 30
0.0
  3
*X5353
  1

  0
TEXT
  5
448
  8
回07-寸法
  6
CONTINUOUS
 62
     5
 10
487.8033170897651
 20
-29.09158373388027
 30
0.0
 40
3.0
  1
3.75
 50
90.0
  0
TEXT
  5
449
  8
回07-寸法
  6
CONTINUOUS
 62
     5
 10
487.8033170897651
 20
-21.89158373388028
 30
0.0
 40
2.00001
  1
±0.1
 50
90.0
  0
TEXT
  5
44A
  8
回07-寸法
  6
CONTINUOUS
 62
     5
 10
487.8033170897651
 20
-17.4915617338803
 30
0.0
 40
3.0
  1
[0.148
 50
90.0
  0
TEXT
  5
44B
  8
回07-寸法
  6
CONTINUOUS
 62
     5
 10
487.8033170897651
 20
-7.291561733880313
 30
0.0
 40
2.00001
  1
±0.004
 50
90.0
  0
TEXT
  5
44C
  8
回07-寸法
  6
CONTINUOUS
 62
     5
 10
487.8033170897651
 20
0.5084772661197122
 30
0.0
 40
3.0
  1
]
 50
90.0
  0
ENDBLK
  5
44E
  8
回08-記事
  6
CONTINUOUS
 62
     7
  0
ENDSEC
  0
SECTION
  2
ENTITIES
  0
INSERT
  5
5E
  8
回08-記事
  6
CONTINUOUS
 62
     7
  2
ZW$B96B
 10
580.50541498498
 20
-214.1826495958641
 30
0.0
 41
0.9
 42
0.9
 43
0.9
  0
TEXT
  5
6B
  8
回08-記事
  6
CONTINUOUS
 62
     7
 10
789.5544582288851
 20
-191.4946191909539
 30
0.0
 40
3.0
  1
PROTECTION TAPE
  0
TEXT
  5
6C
  8
回08-記事
  6
CONTINUOUS
 62
     7
 10
784.449795126472
 20
-191.2962947875478
 30
0.0
 40
3.0
  1
6
  0
TEXT
  5
6D
  8
回08-記事
  6
CONTINUOUS
 62
     7
 10
789.5544582288851
 20
-186.4946191909539
 30
0.0
 40
3.0
  1
STIFFENER
  0
TEXT
  5
6E
  8
回08-記事
  6
CONTINUOUS
 62
     7
 10
784.449795126472
 20
-186.2962947875478
 30
0.0
 40
3.0
  1
5
  0
TEXT
  5
6F
  8
回08-記事
  6
CONTINUOUS
 62
     7
 10
789.5544582288851
 20
-181.4946191909539
 30
0.0
 40
3.0
  1
REINFORCEMENT FILM
  0
TEXT
  5
70
  8
回08-記事
  6
CONTINUOUS
 62
     7
 10
784.449795126472
 20
-181.2962947875478
 30
0.0
 40
3.0
  1
4
  0
TEXT
  5
71
  8
回08-記事
  6
CONTINUOUS
 62
     7
 10
789.5544582288851
 20
-176.4946191909539
 30
0.0
 40
3.0
  1
TAIL
  0
TEXT
  5
72
  8
回08-記事
  6
CONTINUOUS
 62
     7
 10
784.449795126472
 20
-176.2962947875478
 30
0.0
 40
3.0
  1
3
  0
TEXT
  5
73
  8
回08-記事
  6
CONTINUOUS
 62
     7
 10
789.5544582288851
 20
-171.4946191909539
 30
0.0
 40
3.0
  1
ITO GLASS
  0
TEXT
  5
74
  8
回08-記事
  6
CONTINUOUS
 62
     7
 10
784.449795126472
 20
-171.2962947875478
 30
0.0
 40
3.0
  1
2
  0
LINE
  5
75
  8
回08-記事
  6
CONTINUOUS
 62
     7
 10
782.8377719619975
 20
-192.2900376020773
 30
0.0
 11
834.8838192665747
 21
-192.2900376020773
 31
0.0
  0
LINE
  5
76
  8
回08-記事
  6
CONTINUOUS
 62
     7
 10
782.8377719619975
 20
-187.2900376020773
 30
0.0
 11
834.8838192665747
 21
-187.2900376020773
 31
0.0
  0
LINE
  5
77
  8
回08-記事
  6
CONTINUOUS
 62
     7
 10
782.8377719619975
 20
-182.2900376020773
 30
0.0
 11
834.8838192665747
 21
-182.2900376020773
 31
0.0
  0
LINE
  5
78
  8
回08-記事
  6
CONTINUOUS
 62
     7
 10
782.8377719619975
 20
-177.2900376020773
 30
0.0
 11
834.8838192665747
 21
-177.2900376020773
 31
0.0
  0
LINE
  5
79
  8
回08-記事
  6
CONTINUOUS
 62
     7
 10
782.8377719619975
 20
-172.2900376020773
 30
0.0
 11
834.8838192665747
 21
-172.2900376020773
 31
0.0
  0
TEXT
  5
7A
  8
回08-記事
  6
CONTINUOUS
 62
     7
 10
789.5544582288851
 20
-166.4946191909539
 30
0.0
 40
3.0
  1
ITO FILM (ANTI GLARE)
  0
TEXT
  5
7B
  8
回08-記事
  6
CONTINUOUS
 62
     7
 10
784.449795126472
 20
-166.2962947875478
 30
0.0
 40
3.0
  1
1
  0
LINE
  5
7C
  8
回08-記事
  6
CONTINUOUS
 62
     7
 10
782.8377719619975
 20
-167.2900376020773
 30
0.0
 11
834.8838192665747
 21
-167.2900376020773
 31
0.0
  0
LINE
  5
7D
  8
回08-記事
  6
CONTINUOUS
 62
     7
 10
787.8377719619975
 20
-162.2900376020773
 30
0.0
 11
787.8377719619975
 21
-192.2900376020773
 31
0.0
  0
POLYLINE
  5
7E
  8
回08-記事
  6
CONTINUOUS
 62
     7
 66
     1
 10
0.0
 20
0.0
 30
0.0
  0
VERTEX
  5
5AE
  8
回08-記事
  6
CONTINUOUS
 62
     7
 10
834.8838192665747
 20
-192.2900376020773
 30
0.0
  0
VERTEX
  5
5B0
  8
回08-記事
  6
CONTINUOUS
 62
     7
 10
834.8838192665747
 20
-162.2900376020773
 30
0.0
  0
VERTEX
  5
5B1
  8
回08-記事
  6
CONTINUOUS
 62
     7
 10
782.8377719619975
 20
-162.2900376020773
 30
0.0
  0
VERTEX
  5
5B2
  8
回08-記事
  6
CONTINUOUS
 62
     7
 10
782.8377719619975
 20
-192.2900376020773
 30
0.0
  0
SEQEND
  5
5AF
  8
回08-記事
  6
CONTINUOUS
 62
     7
  0
TEXT
  5
7F
  8
回08-記事
  6
CONTINUOUS
 62
     7
 10
635.9945933258416
 20
-154.1647825531149
 30
0.0
 40
3.0
  1
1
  0
TEXT
  5
80
  8
回08-記事
  6
CONTINUOUS
 62
     7
 10
637.0992644090032
 20
-170.6500574375943
 30
0.0
 40
3.0
  1
2
  0
TEXT
  5
81
  8
回08-記事
  6
CONTINUOUS
 62
     7
 10
564.7308269507397
 20
-171.4738089010629
 30
0.0
 40
3.0
  1
6
  0
TEXT
  5
82
  8
回08-記事
  6
CONTINUOUS
 62
     7
 10
554.5882898884565
 20
-154.7147653795962
 30
0.0
 40
3.0
  1
4
  0
TEXT
  5
83
  8
回08-記事
  6
CONTINUOUS
 62
     7
 10
517.7735247801441
 20
-166.6330216622209
 30
0.0
 40
3.0
  1
3
  0
TEXT
  5
84
  8
回08-記事
  6
CONTINUOUS
 62
     7
 10
509.6804482616798
 20
-167.3262485407745
 30
0.0
 40
3.0
  1
5
  0
LINE
  5
85
  8
回08-記事
  6
CONTINUOUS
 62
     7
 10
503.3267303645319
 20
-161.0257258682818
 30
0.0
 11
509.5417104545346
 21
-165.9860091228058
 31
0.0
  0
LINE
  5
86
  8
回08-記事
  6
CONTINUOUS
 62
     7
 10
512.2287795942569
 20
-159.5574416131899
 30
0.0
 11
517.5156493971524
 21
-164.1559051395218
 31
0.0
  0
LINE
  5
87
  8
回08-記事
  6
CONTINUOUS
 62
     7
 10
568.0392164040859
 20
-163.1053970707601
 30
0.0
 11
566.4321676047457
 21
-168.1046888923083
 31
0.0
  0
LINE
  5
88
  8
回08-記事
  6
CONTINUOUS
 62
     7
 10
555.9294284724447
 20
-155.2623073701625
 30
0.0
 11
560.0764958875147
 21
-160.6408626435807
 31
0.0
  0
LINE
  5
89
  8
回08-記事
  6
CONTINUOUS
 62
     7
 10
554.5433382088552
 20
-158.4857920151371
 30
0.0
 11
555.9294284724447
 21
-155.2623073701625
 31
0.0
  0
LINE
  5
8A
  8
回08-記事
  6
CONTINUOUS
 62
     7
 10
633.1534625708227
 20
-161.8571406132055
 30
0.0
 11
637.0420583805865
 21
-168.5923861258158
 31
0.0
  0
LINE
  5
8B
  8
回08-記事
  6
CONTINUOUS
 62
     7
 10
632.3932248202017
 20
-157.291987423147
 30
0.0
 11
635.9292246408986
 21
-153.4886155847152
 31
0.0
  0
DIMENSION
  5
8C
  8
回07-寸法
  6
CONTINUOUS
 62
     7
  2
*D2626
 10
488.4533170897653
 20
-40.64158373388024
 30
0.0
 11
488.4533170897651
 21
-13.69155323388025
 31
0.0
 70
   128
  1
3.75{\H0.66667x;±0.1}[0.148{\H0.66667x;±0.004}]
  3
DMC
 13
502.9236329495462
 23
-33.14158373388023
 33
0.0
 14
502.9236329495462
 24
-40.64158373388021
 34
0.0
 50
90.0
1001
ACAD
1000
DSTYLE
1002
{
1070
   371
1070
     9
1070
   372
1070
     9
1002
}
  0
DIMENSION
  5
9F
  8
回07-寸法
  6
CONTINUOUS
 62
     7
  2
*D2525
 10
495.5508222493413
 20
-35.64158373388025
 30
0.0
 11
495.5508222493413
 21
-13.58617195130571
 31
0.0
 70
   128
  1
1.25{\H0.6667x;±0.2\H1.49993x;[0.049\H0.66667x;±0.008\H1.49999x;]}
  3
DMC
 13
502.9171515994411
 23
-33.14158373388023
 33
0.0
 14
502.9236329495462
 24
-35.64158373388023
 34
0.0
 50
90.0
1001
ACAD
1000
DSTYLE
1002
{
1070
   371
1070
     9
1070
   372
1070
     9
1002
}
  0
TEXT
  5
AE
  8
回07-寸法
  6
CONTINUOUS
 62
     5
 10
524.1103499487194
 20
-137.6596043947476
 30
0.0
 40
3.0
  1
PROTECTION TAPE
1001
ACAD
1000
MTEXTBEGIN
1070
    73
1070
     1
1070
    44
1040
1.0
1070
    74
1070
     0
1000
MTEXTEND
  0
INSERT
  5
AF
  8
回07-寸法
  6
CONTINUOUS
 62
     3
 66
     1
  2
*X3232
 10
0.0
 20
0.0
 30
0.0
  0
SEQEND
  5
356
  8
回08-記事
  6
CONTINUOUS
 62
     7
  0
TEXT
  5
B0
  8
回07-寸法
  6
CONTINUOUS
 62
     5
 10
516.299088067927
 20
-98.31339693015841
 30
0.0
 40
3.0
  1
LOT LABEL
1001
ACAD
1000
MTEXTBEGIN
1070
    73
1070
     1
1070
    44
1040
1.0
1070
    74
1070
     0
1000
MTEXTEND
  0
INSERT
  5
B1
  8
回07-寸法
  6
CONTINUOUS
 62
     3
 66
     1
  2
*X3333
 10
0.0
 20
0.0
 30
0.0
  0
SEQEND
  5
35D
  8
回08-記事
  6
CONTINUOUS
 62
     7
  0
TEXT
  5
B2
  8
回90-枠3
 10
811.7384850149663
 20
-206.6173928105352
 30
0.0
 40
4.0
  1
Sep/25/2023
  0
TEXT
  5
B6
  8
回90-枠3
 10
821.0082846850196
 20
-200.9695005849983
 30
0.0
 40
2.5
  1
DATE
  0
LINE
  5
B7
  8
回90-枠3
  6
CONTINUOUS
 62
     7
 10
806.1651271431554
 20
-197.263140537852
 30
0.0
 11
806.1651271431554
 21
-220.1957886937855
 31
0.0
  0
TEXT
  5
B8
  8
回90-枠3
 10
810.8865396064313
 20
-217.3886737632727
 30
0.0
 40
4.0
  1
DMC Co., Ltd.
  0
TEXT
  5
B9
  8
回90-枠3
 10
769.2200687059901
 20
-201.0349686992222
 30
0.0
 40
2.5
  1
PART No.
  0
TEXT
  5
BA
  8
回90-枠3
 10
769.4820160186725
 20
-212.017733667765
 30
0.0
 40
2.5
  1
TYPE
  0
TEXT
  5
BB
  8
回90-枠3
 10
755.2965984716012
 20
-216.0233011319622
 30
0.0
 40
2.5
  1
STANDARD TOUCHSCREEN
  0
LINE
  5
BC
  8
回90-枠3
 10
741.8955025124667
 20
-197.263140537852
 30
0.0
 11
741.8955025124667
 21
-220.1290635575342
 31
0.0
  0
TEXT
  5
BD
  8
回90-枠3
 10
757.1689324292243
 20
-219.4074325535614
 30
0.0
 40
2.5
  1
DIMENSIONAL DRAWING
  0
LINE
  5
BE
  8
回90-枠3
 10
753.1970581177295
 20
-216.3652704899264
 30
0.0
 11
799.5263286651013
 21
-216.3652704899264
 31
0.0
  0
LINE
  5
BF
  8
回90-枠3
 10
741.8955025124667
 20
-201.524120118335
 30
0.0
 11
845.1536205497744
 21
-201.524120118335
 31
0.0
  0
LINE
  5
C0
  8
回90-枠3
 10
741.9091089698
 20
-212.5272107942594
 30
0.0
 11
806.1651271431554
 21
-212.5272107942594
 31
0.0
  0
LINE
  5
C1
  8
回90-枠3
 10
741.8955025124667
 20
-197.263140537852
 30
0.0
 11
845.3136270568416
 21
-197.263140537852
 31
0.0
  0
LINE
  5
C2
  8
回90-枠3
 10
741.8945740993159
 20
-208.8062223801326
 30
0.0
 11
845.2018265231139
 21
-208.8062223801326
 31
0.0
  0
TEXT
  5
C3
  8
回90-枠3
 10
749.8497270451573
 20
-208.0689076911653
 30
0.0
 40
5.0
  1
AST-057A070A
  0
TEXT
  5
C4
  8
回07-寸法
  6
CONTINUOUS
 62
     7
 10
747.4545040277207
 20
-171.6651343907132
 30
0.0
 40
3.0
  1
(INSULATION AREA)
 50
90.0
  0
TEXT
  5
C5
  8
回07-寸法
  6
CONTINUOUS
 62
     7
 10
532.2626638959299
 20
-5.441500290118312
 30
0.0
 40
3.0
  1
(INSULATION AREA)
  0
DIMENSION
  5
C6
  8
回07-寸法
  6
CONTINUOUS
 62
     7
  2
*D3030
 10
742.9894788825293
 20
-36.29262319203558
 30
0.0
 11
740.8394788825294
 21
-83.6426231920358
 31
0.0
 70
     0
  3
DMC
 13
697.5211204613606
 23
-130.9926231920356
 33
0.0
 14
697.5211204613606
 24
-36.29262319203558
 34
0.0
 50
90.0
1001
ACAD
1000
DSTYLE
1002
{
1070
   371
1070
     9
1070
   372
1070
     9
1002
}
  0
DIMENSION
  5
D3
  8
回07-寸法
  6
CONTINUOUS
 62
     7
  2
*D2929
 10
742.9894788825293
 20
-132.4426231920356
 30
0.0
 11
740.8394788825294
 21
-146.6926231920358
 31
0.0
 70
     0
  3
DMC
 13
697.5211204613606
 23
-130.9926231920356
 33
0.0
 14
699.8211204613604
 24
-132.4426231920356
 34
0.0
 50
90.0
1001
ACAD
1000
DSTYLE
1002
{
1070
   371
1070
     9
1070
   372
1070
     9
1002
}
  0
DIMENSION
  5
E2
  8
回07-寸法
  6
CONTINUOUS
 62
     7
  2
*D2828
 10
697.5211204613606
 20
-1.031006177971448
 30
0.0
 11
636.9711204613606
 21
1.11899382202855
 31
0.0
 70
     0
  3
DMC
 13
576.4211204613606
 23
-36.29262319203558
 33
0.0
 14
697.5211204613606
 24
-36.29262319203558
 34
0.0
1001
ACAD
1000
DSTYLE
1002
{
1070
   371
1070
     9
1070
   372
1070
     9
1002
}
  0
DIMENSION
  5
EF
  8
回07-寸法
  6
CONTINUOUS
 62
     7
  2
*D2727
 10
568.4211204613606
 20
-1.031006177971448
 30
0.0
 11
556.8711204613606
 21
1.11899382202855
 31
0.0
 70
     0
  3
DMC
 13
576.4211204613606
 23
-36.29262319203558
 33
0.0
 14
568.4211204613606
 24
-29.44262319203563
 34
0.0
1001
ACAD
1000
DSTYLE
1002
{
1070
   371
1070
     9
1070
   372
1070
     9
1002
}
  0
POLYLINE
  5
FE
  8
回08-記事
  6
DASHED2
 62
     7
 66
     1
 10
0.0
 20
0.0
 30
0.0
 70
     1
  0
VERTEX
  5
5B3
  8
回08-記事
  6
DASHED2
 62
     7
 10
697.5211204613606
 20
-36.29262319203558
 30
0.0
  0
VERTEX
  5
5B5
  8
回08-記事
  6
DASHED2
 62
     7
 10
697.5211204613606
 20
-130.9926231920356
 30
0.0
  0
VERTEX
  5
5B6
  8
回08-記事
  6
DASHED2
 62
     7
 10
576.4211204613606
 20
-130.9926231920356
 30
0.0
  0
VERTEX
  5
5B7
  8
回08-記事
  6
DASHED2
 62
     7
 10
576.4211204613606
 20
-36.29262319203558
 30
0.0
  0
SEQEND
  5
5B4
  8
回08-記事
  6
CONTINUOUS
 62
     7
  0
TEXT
  5
100
  8
回08-記事
  6
CONTINUOUS
 62
     5
 10
500.6908253045519
 20
-118.1101151165928
 30
0.0
 40
3.0
  1
A
  0
CIRCLE
  5
101
  8
回07-寸法
  6
DASHED2
 62
     5
 10
498.3844324583409
 20
-109.1439404040338
 30
0.0
 40
5.073216170137859
  0
LINE
  5
102
  8
回08-記事
  6
CONTINUOUS
 62
     5
 10
481.1532234766915
 20
-47.14279822396206
 30
0.0
 11
481.1532234766915
 21
-51.14279822396206
 31
0.0
  0
TEXT
  5
103
  8
回07-寸法
  6
CONTINUOUS
 62
     5
 10
496.6959015630698
 20
-73.18496863011734
 30
0.0
 40
3.0
  1
2-R0.5[R0.020]
 50
90.0
1001
ACAD
1000
MTEXTBEGIN
1070
    73
1070
     1
1070
    44
1040
1.0
1070
    74
1070
     0
1000
MTEXTEND
  0
INSERT
  5
104
  8
回07-寸法
  6
CONTINUOUS
 62
     5
 66
     1
  2
*X3434
 10
0.0
 20
0.0
 30
0.0
  0
SEQEND
  5
369
  8
回08-記事
  6
CONTINUOUS
 62
     7
  0
LINE
  5
105
  8
回08-記事
  6
CONTINUOUS
 62
     5
 10
503.9171515994411
 20
-30.64158373388023
 30
0.0
 11
496.3790034884668
 21
-30.64158373388023
 31
0.0
  0
INSERT
  5
106
  8
回08-記事
  6
CONTINUOUS
 62
     5
 66
     1
  2
*X3535
 10
0.0
 20
0.0
 30
0.0
  0
SEQEND
  5
372
  8
回08-記事
  6
CONTINUOUS
 62
     7
  0
INSERT
  5
107
  8
回08-記事
  6
CONTINUOUS
 62
     5
  2
_OPEN
 10
500.9453857367343
 20
-32.44158373388018
 30
0.0
 41
4.0
 42
4.0
 43
4.0
 50
270.0
  0
INSERT
  5
108
  8
回08-記事
  6
CONTINUOUS
 62
     5
  2
_OPEN
 10
500.9453857367343
 20
-33.84158373388017
 30
0.0
 41
4.0
 42
4.0
 43
4.0
 50
90.0
  0
LINE
  5
109
  8
回08-記事
  6
CONTINUOUS
 62
     5
 10
500.9453857367343
 20
-33.84158373388017
 30
0.0
 11
500.9453857367343
 21
-32.44158373388018
 31
0.0
  0
LINE
  5
10A
  8
回08-記事
  6
CONTINUOUS
 62
     5
 10
500.9453857367343
 20
-28.44158373388019
 30
0.0
 11
500.9453857367343
 21
12.20827759308429
 31
0.0
  0
LINE
  5
10B
  8
回08-記事
  6
CONTINUOUS
 62
     5
 10
503.9171515994411
 20
-32.44158373388018
 30
0.0
 11
500.6248280782394
 21
-32.44158373388018
 31
0.0
  0
LINE
  5
10C
  8
回08-記事
  6
CONTINUOUS
 62
     5
 10
503.9171515994411
 20
-33.84158373388017
 30
0.0
 11
500.6248280782394
 21
-33.84158373388017
 31
0.0
  0
INSERT
  5
10D
  8
回08-記事
  6
CONTINUOUS
 62
     5
 66
     1
  2
*X3636
 10
0.0
 20
0.0
 30
0.0
  0
SEQEND
  5
37B
  8
回08-記事
  6
CONTINUOUS
 62
     7
  0
INSERT
  5
10E
  8
回08-記事
  6
CONTINUOUS
 62
     5
  2
_OPEN
 10
481.1532234766915
 20
-30.64158373388017
 30
0.0
 41
4.0
 42
4.0
 43
4.0
 50
270.0
  0
INSERT
  5
10F
  8
回08-記事
  6
CONTINUOUS
 62
     5
  2
_OPEN
 10
481.1532234766915
 20
-43.14279822396207
 30
0.0
 41
4.0
 42
4.0
 43
4.0
 50
90.0
  0
LINE
  5
110
  8
回08-記事
  6
CONTINUOUS
 62
     5
 10
481.1532234766915
 20
-43.14279822396214
 30
0.0
 11
481.1532234766915
 21
-30.64158373388023
 31
0.0
  0
LINE
  5
111
  8
回08-記事
  6
CONTINUOUS
 62
     5
 10
481.1532234766915
 20
-26.64158373388023
 30
0.0
 11
481.1532234766915
 21
6.488587944049411
 31
0.0
  0
LINE
  5
112
  8
回08-記事
  6
CONTINUOUS
 62
     5
 10
503.9171515994411
 20
-43.14279822396214
 30
0.0
 11
477.4061854725379
 21
-43.14279822396214
 31
0.0
  0
LINE
  5
113
  8
回08-記事
  6
CONTINUOUS
 62
     5
 10
503.9171515994411
 20
-30.64158373388023
 30
0.0
 11
477.4061854725379
 21
-30.64158373388023
 31
0.0
  0
TEXT
  5
114
  8
回08-記事
  6
CONTINUOUS
 62
     5
 10
515.3135691293921
 20
-20.11438630861881
 30
0.0
 40
3.9
  1
SECTION A
  0
LINE
  5
115
  8
回08-記事
  6
CENTER2
 62
     5
 10
501.9836043496971
 20
-40.64158373388021
 30
0.0
 11
533.0690006571321
 21
-40.64158373388021
 31
0.0
  0
LINE
  5
117
  8
回08-記事
  6
CENTER2
 62
     5
 10
501.9836043496971
 20
-38.14158373388023
 30
0.0
 11
533.0690006571321
 21
-38.14158373388023
 31
0.0
  0
LINE
  5
118
  8
回08-記事
  6
CENTER2
 62
     5
 10
501.9836043496971
 20
-35.64158373388023
 30
0.0
 11
533.0690006571321
 21
-35.64158373388023
 31
0.0
  0
LINE
  5
119
  8
回08-記事
  6
CENTER2
 62
     5
 10
501.9836043496971
 20
-33.14158373388023
 30
0.0
 11
533.0690006571321
 21
-33.14158373388023
 31
0.0
  0
LINE
  5
11A
  8
回08-記事
  6
PHANTOM2
 62
     8
 10
522.9171515994411
 20
-43.14389704832196
 30
0.0
 11
522.9171515994411
 21
-30.64158373388023
 31
0.0
  0
LINE
  5
11C
  8
回08-記事
  6
CONTINUOUS
 62
     7
 10
512.9171515994411
 20
-43.14331871971147
 30
0.0
 11
512.9171515994411
 21
-30.64158373388023
 31
0.0
  0
TEXT
  5
11D
  8
回08-記事
  6
CONTINUOUS
 62
     7
 10
507.7815998888758
 20
-47.50006751253692
 30
0.0
 40
3.359999999999998
  1
1
 50
90.0
  0
TEXT
  5
11E
  8
回08-記事
  6
CONTINUOUS
 62
     7
 10
507.3795827483605
 20
-28.70878993361873
 30
0.0
 40
3.359999999999998
  1
4
 50
90.0
  0
POLYLINE
  5
11F
  8
回08-記事
  6
CONTINUOUS
 62
     8
 66
     1
 10
0.0
 20
0.0
 30
0.0
 40
1.399999999999999
 41
1.399999999999999
  0
VERTEX
  5
5B8
  8
回08-記事
  6
CONTINUOUS
 62
     8
 10
502.9236329495462
 20
-38.14158373388023
 30
0.0
  0
VERTEX
  5
5BA
  8
回08-記事
  6
CONTINUOUS
 62
     8
 10
542.917151599441
 20
-38.14158373388023
 30
0.0
  0
SEQEND
  5
5B9
  8
回08-記事
  6
CONTINUOUS
 62
     7
  0
POLYLINE
  5
120
  8
回08-記事
  6
CONTINUOUS
 62
     8
 66
     1
 10
0.0
 20
0.0
 30
0.0
 40
1.399999999999999
 41
1.399999999999999
  0
VERTEX
  5
5BB
  8
回08-記事
  6
CONTINUOUS
 62
     8
 10
502.9236329495462
 20
-40.64158373388021
 30
0.0
  0
VERTEX
  5
5BD
  8
回08-記事
  6
CONTINUOUS
 62
     8
 10
542.917151599441
 20
-40.64158373388021
 30
0.0
  0
SEQEND
  5
5BC
  8
回08-記事
  6
CONTINUOUS
 62
     7
  0
POLYLINE
  5
121
  8
回08-記事
  6
CONTINUOUS
 62
     8
 66
     1
 10
0.0
 20
0.0
 30
0.0
 40
1.399999999999999
 41
1.399999999999999
  0
VERTEX
  5
5BE
  8
回08-記事
  6
CONTINUOUS
 62
     8
 10
542.917151599441
 20
-33.14158373388023
 30
0.0
  0
VERTEX
  5
5C0
  8
回08-記事
  6
CONTINUOUS
 62
     8
 10
502.9236329495462
 20
-33.14158373388023
 30
0.0
  0
SEQEND
  5
5BF
  8
回08-記事
  6
CONTINUOUS
 62
     7
  0
LINE
  5
122
  8
回08-記事
  6
BYBLOCK
 62
     8
 10
502.9171515994411
 20
-31.64158373388011
 30
0.0
 11
502.9171515994411
 21
-42.14158373388011
 31
0.0
  0
ARC
  5
123
  8
回08-記事
  6
BYBLOCK
 62
     8
 10
503.9171515994411
 20
-42.14158373388005
 30
0.0
 40
1.0
 50
180.0
 51
270.0
  0
ARC
  5
124
  8
回08-記事
  6
BYBLOCK
 62
     8
 10
503.9171515994411
 20
-31.64158373388005
 30
0.0
 40
1.0
 50
90.0
 51
180.0
  0
LINE
  5
125
  8
回08-記事
  6
BYBLOCK
 62
     8
 10
503.9171515994411
 20
-43.14279822396214
 30
0.0
 11
542.917151599441
 21
-43.14505370554288
 31
0.0
  0
LINE
  5
126
  8
回08-記事
  6
BYBLOCK
 62
     8
 10
503.9171515994411
 20
-30.64158373388023
 30
0.0
 11
542.917151599441
 21
-30.64158373388023
 31
0.0
  0
POLYLINE
  5
127
  8
回08-記事
  6
CONTINUOUS
 62
     8
 66
     1
 10
0.0
 20
0.0
 30
0.0
 40
1.399999999999999
 41
1.399999999999999
  0
VERTEX
  5
5C1
  8
回08-記事
  6
CONTINUOUS
 62
     8
 10
502.9236329495462
 20
-35.64158373388023
 30
0.0
  0
VERTEX
  5
5C3
  8
回08-記事
  6
CONTINUOUS
 62
     8
 10
542.917151599441
 20
-35.64158373388023
 30
0.0
  0
SEQEND
  5
5C2
  8
回08-記事
  6
CONTINUOUS
 62
     7
  0
POLYLINE
  5
128
  8
回08-記事
  6
CONTINUOUS
 62
     7
 66
     1
 10
0.0
 20
0.0
 30
0.0
 70
     1
  0
VERTEX
  5
5C4
  8
回08-記事
  6
CONTINUOUS
 62
     7
 10
558.9748596575158
 20
-160.8741025129985
 30
0.0
  0
VERTEX
  5
5C6
  8
回08-記事
  6
CONTINUOUS
 62
     7
 10
568.4211204613606
 20
-160.8741025129985
 30
0.0
  0
VERTEX
  5
5C7
  8
回08-記事
  6
CONTINUOUS
 62
     7
 10
568.4211204613606
 20
-160.2741025129985
 30
0.0
  0
VERTEX
  5
5C8
  8
回08-記事
  6
CONTINUOUS
 62
     7
 10
558.9748596575158
 20
-160.2741025129985
 30
0.0
  0
SEQEND
  5
5C5
  8
回08-記事
  6
CONTINUOUS
 62
     7
  0
LINE
  5
129
  8
回08-記事
  6
CONTINUOUS
 62
     7
 10
564.1103340237338
 20
-161.4741025129985
 30
0.0
 11
567.8211204613606
 21
-161.4741025129985
 31
0.0
  0
LINE
  5
12A
  8
回08-記事
  6
CONTINUOUS
 62
     7
 10
564.1103340237338
 20
-160.8741025129985
 30
0.0
 11
564.1103340237338
 21
-161.4741025129985
 31
0.0
  0
DIMENSION
  5
12B
  8
回07-寸法
  6
CONTINUOUS
 62
     7
  2
*D2424
 10
564.0333641387006
 20
-121.8933475483352
 30
0.0
 11
545.0264524803808
 21
-121.8933475483352
 31
0.0
 70
   128
  3
DMC
 13
568.4211204613606
 23
-119.9358371103901
 33
0.0
 14
564.0333641387006
 24
-117.3191629052471
 34
0.0
1001
ACAD
1000
DSTYLE
1002
{
1070
   371
1070
     9
1070
   372
1070
     9
1002
}
  0
LINE
  5
13A
  8
回05-ﾃｰﾙ
  6
BYBLOCK
 62
     8
 10
568.7211204613604
 20
-119.319162905247
 30
0.0
 11
568.7211204613604
 21
-119.319162905247
 31
0.0
  0
ARC
  5
13E
  8
回05-ﾃｰﾙ
  6
BYBLOCK
 62
     7
 10
558.3124191614872
 20
-113.4481875708269
 30
0.0
 40
1.0
 50
45.14359814423293
 51
89.99668642114958
  0
ARC
  5
13F
  8
回05-ﾃｰﾙ
  6
BYBLOCK
 62
     7
 10
558.3098578925826
 20
-105.1941629052469
 30
0.0
 40
1.0
 50
270.0
 51
314.8829928953903
  0
ARC
  5
140
  8
回05-ﾃｰﾙ
  6
BYBLOCK
 62
     7
 10
564.0296374569602
 20
-102.320365839657
 30
0.0
 40
1.0
 50
90.02560571193598
 51
134.8829928953902
  0
ARC
  5
141
  8
回05-ﾃｰﾙ
  6
BYBLOCK
 62
     7
 10
564.0333641387006
 20
-116.3191629052471
 30
0.0
 40
1.0
 50
225.1435981442329
 51
270.0000000000033
  0
ARC
  5
142
  8
回05-ﾃｰﾙ
  6
BYBLOCK
 62
     7
 10
566.7211204613604
 20
-119.3191629052469
 30
0.0
 40
2.0
 50
31.78833061704299
 51
90.00000000000325
  0
ARC
  5
143
  8
回05-ﾃｰﾙ
  6
BYBLOCK
 62
     7
 10
566.7211204613606
 20
-99.31916270552379
 30
0.0
 40
2.0
 50
270.0256057119359
 51
328.2116693829445
  0
LINE
  5
144
  8
回05-ﾃｰﾙ
  6
BYBLOCK
 62
     7
 10
559.0177515300048
 20
-112.739310818548
 30
0.0
 11
563.3280317701832
 21
-117.0280396575259
 31
0.0
  0
LINE
  5
145
  8
回05-ﾃｰﾙ
  6
BYBLOCK
 62
     7
 10
559.0155191756739
 20
-105.9027122356015
 30
0.0
 11
563.323976173869
 21
-101.6118165093025
 31
0.0
  0
LINE
  5
146
  8
回05-ﾃｰﾙ
  6
BYBLOCK
 62
     7
 10
564.0333641387006
 20
-117.3191629052471
 30
0.0
 11
566.7211204613602
 21
-117.3191629052471
 31
0.0
  0
LINE
  5
147
  8
回05-ﾃｰﾙ
  6
BYBLOCK
 62
     7
 10
564.0291905529945
 20
-101.3203659395186
 30
0.0
 11
566.722014269292
 21
-101.3191625058007
 31
0.0
  0
LINE
  5
148
  8
回05-ﾃｰﾙ
  6
BYBLOCK
 62
     7
 10
498.4211204613606
 20
-106.6941629052469
 30
0.0
 11
498.4211204613606
 21
-111.9441629052469
 31
0.0
  0
ARC
  5
149
  8
回05-ﾃｰﾙ
  6
BYBLOCK
 62
     7
 10
498.9211204613606
 20
-111.9441629052469
 30
0.0
 40
0.5
 50
180.0
 51
270.0
  0
ARC
  5
14A
  8
回05-ﾃｰﾙ
  6
BYBLOCK
 62
     7
 10
498.9211204613606
 20
-106.6941629052469
 30
0.0
 40
0.5
 50
90.0
 51
180.0
  0
LINE
  5
14B
  8
回05-ﾃｰﾙ
  6
BYBLOCK
 62
     7
 10
498.9211204613606
 20
-112.4447528004297
 30
0.0
 11
558.3124769943482
 21
-112.4481875724992
 31
0.0
  0
LINE
  5
14C
  8
回05-ﾃｰﾙ
  6
BYBLOCK
 62
     7
 10
498.9211204613606
 20
-106.194162905247
 30
0.0
 11
558.3098578925826
 21
-106.194162905247
 31
0.0
  0
POLYLINE
  5
14D
  8
回08-記事
  6
CONTINUOUS
 62
     7
 66
     1
 10
0.0
 20
0.0
 30
0.0
 70
     1
  0
VERTEX
  5
5C9
  8
回08-記事
  6
CONTINUOUS
 62
     7
 10
517.8339073519622
 20
-160.2741025129985
 30
0.0
  0
VERTEX
  5
5CB
  8
回08-記事
  6
CONTINUOUS
 62
     7
 10
543.5660929053033
 20
-160.2741025129985
 30
0.0
  0
VERTEX
  5
5CC
  8
回08-記事
  6
CONTINUOUS
 62
     7
 10
543.5660929053033
 20
-160.9976391747101
 30
0.0
  0
VERTEX
  5
5CD
  8
回08-記事
  6
CONTINUOUS
 62
     7
 10
517.8339073519622
 20
-160.9976391747101
 30
0.0
  0
SEQEND
  5
5CA
  8
回08-記事
  6
CONTINUOUS
 62
     7
  0
INSERT
  5
14E
  8
回08-記事
  6
CONTINUOUS
 62
     7
 66
     1
  2
*X3737
 10
0.0
 20
0.0
 30
0.0
1001
ACAD
1000
HATCH
1002
{
1070
    19
1000
ANSI31
1040
1.0
1040
0.0
1000
ASC_BOUNDS
1070
     1
1070
     2
1070
     1
1005
14F
1000
ASC_SEEDPOINT
1011
694.2608578047751
1021
-82.89257756059237
1031
0.0
1000
R14_HATCH_DATA
1000
14E
1011
1.0
1021
0.0
1031
0.0
1011
0.0
1021
1.0
1031
0.0
1011
0.0
1021
0.0
1031
1.0
1040
0.0
1010
0.0
1020
0.0
1030
1.0
1000
ANSI31
1070
     0
1070
     1
1071
        1
1071
        1
1071
        8
1070
     1
1040
543.5660929053033
1040
-108.1252681214056
1040
543.5660929053033
1040
-110.1252681214056
1070
     2
1040
542.5660929053033
1040
-110.1252681214056
1040
1.0
1040
6.283185307179585
1040
7.853981633974482
1070
     0
1070
     1
1040
542.5660929053033
1040
-111.1252681214056
1040
518.5660929053033
1040
-111.1252681214056
1070
     2
1040
518.5660929053033
1040
-110.1252681214056
1040
1.0
1040
1.570796326794896
1040
3.141592653589792
1070
     0
1070
     1
1040
517.5660929053033
1040
-110.1252681214056
1040
517.5660929053033
1040
-108.1252681214056
1070
     2
1040
518.5660929053033
1040
-108.1252681214056
1040
1.0
1040
3.141592653589792
1040
4.712388980384688
1070
     0
1070
     1
1040
518.5660929053033
1040
-107.1252681214056
1040
542.5660929053033
1040
-107.1252681214056
1070
     2
1040
542.5660929053033
1040
-108.1252681214056
1040
1.0
1040
4.712388980384688
1040
6.283185307179585
1070
     0
1071
        1
1005
14F
1070
     0
1070
     1
1040
0.0
1040
1.0
1070
     0
1070
     1
1040
0.7853981633974483
1040
694.2608578047751
1040
-82.89257756059237
1040
-2.245064030267287
1040
2.245064030267287
1070
     0
1071
        1
1040
694.2608578047751
1040
-82.89257756059237
1040
0.0
1002
}
  0
SEQEND
  5
39B
  8
回08-記事
  6
CONTINUOUS
 62
     7
  0
POLYLINE
  5
14F
  8
回08-記事
  6
PHANTOM2
 62
     8
 66
     1
 10
0.0
 20
0.0
 30
0.0
 70
     1
1001
ACAD
1000
ASC_BOUNDS
1002
{
1070
    19
1005
14E
1002
}
  0
VERTEX
  5
5CE
  8
回08-記事
  6
PHANTOM2
 62
     8
 10
543.5660929053033
 20
-108.1252681214056
 30
0.0
  0
VERTEX
  5
5D0
  8
回08-記事
  6
PHANTOM2
 62
     8
 10
543.5660929053033
 20
-110.1252681214056
 30
0.0
 42
-0.4142135623730951
  0
VERTEX
  5
5D1
  8
回08-記事
  6
PHANTOM2
 62
     8
 10
542.5660929053033
 20
-111.1252681214056
 30
0.0
  0
VERTEX
  5
5D2
  8
回08-記事
  6
PHANTOM2
 62
     8
 10
518.5660929053033
 20
-111.1252681214056
 30
0.0
 42
-0.4142135623730951
  0
VERTEX
  5
5D3
  8
回08-記事
  6
PHANTOM2
 62
     8
 10
517.5660929053033
 20
-110.1252681214056
 30
0.0
  0
VERTEX
  5
5D4
  8
回08-記事
  6
PHANTOM2
 62
     8
 10
517.5660929053033
 20
-108.1252681214056
 30
0.0
 42
-0.4142135623730951
  0
VERTEX
  5
5D5
  8
回08-記事
  6
PHANTOM2
 62
     8
 10
518.5660929053033
 20
-107.1252681214056
 30
0.0
  0
VERTEX
  5
5D6
  8
回08-記事
  6
PHANTOM2
 62
     8
 10
542.5660929053033
 20
-107.1252681214056
 30
0.0
 42
-0.4142135623730951
  0
SEQEND
  5
5CF
  8
回08-記事
  6
CONTINUOUS
 62
     7
  0
TEXT
  5
150
  8
回08-記事
  6
CONTINUOUS
 62
     7
 10
680.9489331825996
 20
-32.16113906109786
 30
0.0
 40
1.728
  1
AST-057A
  0
INSERT
  5
151
  8
回08-記事
  6
CONTINUOUS
 62
     8
 66
     1
  2
*X3838
 10
0.0
 20
0.0
 30
0.0
1001
ACAD
1000
HATCH
1002
{
1070
    19
1000
ANSI31
1040
0.6
1040
0.0
1000
ASC_BOUNDS
1070
     1
1070
     2
1070
     1
1005
152
1000
ASC_SEEDPOINT
1011
1338.455928016541
1021
-275.3128062711043
1031
0.0
1000
R14_HATCH_DATA
1000
151
1011
1.0
1021
0.0
1031
0.0
1011
0.0
1021
1.0
1031
0.0
1011
0.0
1021
0.0
1031
1.0
1040
0.0
1010
0.0
1020
0.0
1030
1.0
1000
ANSI31
1070
     0
1070
     1
1071
        1
1071
        1
1071
        4
1070
     1
1040
564.0296374569602
1040
-116.8203657397941
1040
571.7211204613604
1040
-116.8203657397941
1070
     1
1040
571.7211204613604
1040
-116.8203657397941
1040
571.7211204613604
1040
-110.319162905247
1070
     1
1040
571.7211204613604
1040
-110.319162905247
1040
564.0296374569602
1040
-110.319162905247
1070
     1
1040
564.0296374569602
1040
-110.319162905247
1040
564.0296374569602
1040
-116.8203657397941
1071
        1
1005
152
1070
     0
1070
     1
1040
0.0
1040
0.6
1070
     0
1070
     1
1040
0.7853981633974483
1040
1338.455928016541
1040
-275.3128062711043
1040
-1.347038418160372
1040
1.347038418160372
1070
     0
1071
        1
1040
1338.455928016541
1040
-275.3128062711043
1040
0.0
1002
}
  0
SEQEND
  5
3AD
  8
回08-記事
  6
CONTINUOUS
 62
     7
  0
POLYLINE
  5
152
  8
回08-記事
  6
CONTINUOUS
 62
     8
 66
     1
 10
0.0
 20
0.0
 30
0.0
 70
     1
1001
ACAD
1000
ASC_BOUNDS
1002
{
1070
    19
1005
151
1002
}
  0
VERTEX
  5
5D7
  8
回08-記事
  6
CONTINUOUS
 62
     8
 10
564.0296374569602
 20
-116.8203657397941
 30
0.0
  0
VERTEX
  5
5D9
  8
回08-記事
  6
CONTINUOUS
 62
     8
 10
571.7211204613604
 20
-116.8203657397941
 30
0.0
  0
VERTEX
  5
5DA
  8
回08-記事
  6
CONTINUOUS
 62
     8
 10
571.7211204613604
 20
-110.319162905247
 30
0.0
  0
VERTEX
  5
5DB
  8
回08-記事
  6
CONTINUOUS
 62
     8
 10
564.0296374569602
 20
-110.319162905247
 30
0.0
  0
SEQEND
  5
5D8
  8
回08-記事
  6
CONTINUOUS
 62
     7
  0
LINE
  5
153
  8
回08-記事
  6
CONTINUOUS
 62
     7
 10
571.7211204613604
 20
-163.8741025129985
 30
0.0
 11
571.7211204613604
 21
-163.2741025129985
 31
0.0
  0
LINE
  5
154
  8
回08-記事
  6
CONTINUOUS
 62
     7
 10
567.8211204613606
 20
-163.8741025129985
 30
0.0
 11
571.7211204613604
 21
-163.8741025129985
 31
0.0
  0
LINE
  5
155
  8
回08-記事
  6
CONTINUOUS
 62
     7
 10
567.8211204613606
 20
-161.4741025129985
 30
0.0
 11
567.8211204613606
 21
-163.8741025129985
 31
0.0
  0
POLYLINE
  5
156
  8
回08-記事
  6
PHANTOM2
 62
     7
 66
     1
 10
0.0
 20
0.0
 30
0.0
 70
     1
  0
VERTEX
  5
5DC
  8
回08-記事
  6
PHANTOM2
 62
     7
 10
578.3211204613604
 20
-39.44262319203563
 30
0.0
  0
VERTEX
  5
5DE
  8
回08-記事
  6
PHANTOM2
 62
     7
 10
695.5211204613606
 20
-39.44262319203563
 30
0.0
  0
VERTEX
  5
5DF
  8
回08-記事
  6
PHANTOM2
 62
     7
 10
695.5211204613606
 20
-127.8426231920357
 30
0.0
  0
VERTEX
  5
5E0
  8
回08-記事
  6
PHANTOM2
 62
     7
 10
578.3211204613604
 20
-127.8426231920357
 30
0.0
  0
SEQEND
  5
5DD
  8
回08-記事
  6
CONTINUOUS
 62
     7
  0
POLYLINE
  5
157
  8
回08-記事
 62
     7
 66
     1
 10
0.0
 20
0.0
 30
0.0
 70
     1
  0
VERTEX
  5
5E1
  8
回08-記事
 62
     7
 10
577.3211204613605
 20
-38.44262319203564
 30
0.0
  0
VERTEX
  5
5E3
  8
回08-記事
 62
     7
 10
696.5211204613606
 20
-38.44262319203564
 30
0.0
  0
VERTEX
  5
5E4
  8
回08-記事
 62
     7
 10
696.5211204613606
 20
-128.8426231920357
 30
0.0
  0
VERTEX
  5
5E5
  8
回08-記事
 62
     7
 10
577.3211204613605
 20
-128.8426231920357
 30
0.0
  0
SEQEND
  5
5E2
  8
回08-記事
  6
CONTINUOUS
 62
     7
  0
LINE
  5
158
  8
回08-記事
  6
CONTINUOUS
 62
     7
 10
696.6211204613606
 20
-126.5426231920356
 30
0.0
 11
699.5211204613605
 21
-126.5426231920356
 31
0.0
  0
LINE
  5
159
  8
回08-記事
  6
CONTINUOUS
 62
     7
 10
696.6211204613606
 20
-128.5426231920356
 30
0.0
 11
699.5211204613605
 21
-128.5426231920356
 31
0.0
  0
POLYLINE
  5
15A
  8
回04-下接
  6
CONTINUOUS
 62
     7
 66
     1
 10
0.0
 20
0.0
 30
0.0
 70
     1
  0
VERTEX
  5
5E6
  8
回04-下接
  6
CONTINUOUS
 62
     7
 10
568.4211204613606
 20
-29.44262319203563
 30
0.0
  0
VERTEX
  5
5E8
  8
回04-下接
  6
CONTINUOUS
 62
     7
 10
699.8211204613604
 20
-29.44262319203563
 30
0.0
  0
VERTEX
  5
5E9
  8
回04-下接
  6
CONTINUOUS
 62
     7
 10
699.8211204613604
 20
-132.4426231920356
 30
0.0
  0
VERTEX
  5
5EA
  8
回04-下接
  6
CONTINUOUS
 62
     7
 10
568.4211204613606
 20
-132.4426231920356
 30
0.0
  0
SEQEND
  5
5E7
  8
回08-記事
  6
CONTINUOUS
 62
     7
  0
TEXT
  5
15E
  8
回08-記事
  6
CONTINUOUS
 62
     7
 10
686.5107455879247
 20
-82.29248057469296
 30
0.0
 40
3.0
  1
XR
  0
TEXT
  5
15F
  8
回08-記事
  6
CONTINUOUS
 62
     7
 10
582.1458298044866
 20
-82.04654457889956
 30
0.0
 40
3.0
  1
XL
  0
TEXT
  5
160
  8
回08-記事
  6
CONTINUOUS
 62
     7
 10
639.0050177107371
 20
-124.8394965021589
 30
0.0
 40
3.0
  1
YD
  0
TEXT
  5
161
  8
回08-記事
  6
CONTINUOUS
 62
     7
 10
638.0204435750278
 20
-44.66419722812543
 30
0.0
 40
3.0
  1
YU
  0
DIMENSION
  5
162
  8
回07-寸法
  6
CONTINUOUS
 62
     7
  2
*D2323
 10
706.0505906841937
 20
-126.5426231920357
 30
0.0
 11
706.0505906841935
 21
-113.4885627986565
 31
0.0
 70
   128
  1
(<>)
  3
DMC
 13
699.5211204613605
 23
-128.5426231920356
 33
0.0
 14
699.5211204613605
 24
-126.5426231920356
 34
0.0
 50
90.0
1001
ACAD
1000
DSTYLE
1002
{
1070
   371
1070
    13
1070
   372
1070
    13
1002
}
  0
DIMENSION
  5
171
  8
回07-寸法
  6
CONTINUOUS
 62
     7
  2
*D2222
 10
708.6693023115351
 20
-132.4426231920356
 30
0.0
 11
708.669302311535
 21
-146.846683585415
 31
0.0
 70
   128
  1
(<>)
  3
DMC
 13
699.5211204613605
 23
-128.5426231920356
 33
0.0
 14
699.8211204613604
 24
-132.4426231920356
 34
0.0
 50
90.0
1001
ACAD
1000
DSTYLE
1002
{
1070
   371
1070
    13
1070
   372
1070
    13
1002
}
  0
ARC
  5
180
  8
回08-記事
  6
CONTINUOUS
 62
     7
 10
581.8123338687703
 20
-160.2741025129985
 30
0.0
 40
0.3
 50
0.0
 51
180.0
  0
ARC
  5
181
  8
回08-記事
  6
CONTINUOUS
 62
     7
 10
584.1569251140192
 20
-160.2741025129985
 30
0.0
 40
0.3
 50
0.0
 51
180.0
  0
ARC
  5
182
  8
回08-記事
  6
CONTINUOUS
 62
     7
 10
586.6569251140194
 20
-160.2741025129985
 30
0.0
 40
0.3
 50
0.0
 51
180.0
  0
ARC
  5
183
  8
回08-記事
  6
CONTINUOUS
 62
     7
 10
589.1569251140192
 20
-160.2741025129985
 30
0.0
 40
0.3
 50
0.0
 51
180.0
  0
ARC
  5
184
  8
回08-記事
  6
CONTINUOUS
 62
     7
 10
591.6569251140193
 20
-160.2741025129985
 30
0.0
 40
0.3
 50
0.0
 51
180.0
  0
ARC
  5
185
  8
回08-記事
  6
CONTINUOUS
 62
     7
 10
594.1569251140192
 20
-160.2741025129985
 30
0.0
 40
0.3
 50
0.0
 51
180.0
  0
ARC
  5
186
  8
回08-記事
  6
CONTINUOUS
 62
     7
 10
596.6569251140192
 20
-160.2741025129985
 30
0.0
 40
0.3
 50
0.0
 51
180.0
  0
ARC
  5
187
  8
回08-記事
  6
CONTINUOUS
 62
     7
 10
599.1569251140194
 20
-160.2741025129985
 30
0.0
 40
0.3
 50
0.0
 51
180.0
  0
ARC
  5
188
  8
回08-記事
  6
CONTINUOUS
 62
     7
 10
601.6569251140192
 20
-160.2741025129985
 30
0.0
 40
0.3
 50
0.0
 51
180.0
  0
ARC
  5
189
  8
回08-記事
  6
CONTINUOUS
 62
     7
 10
604.1569251140193
 20
-160.2741025129985
 30
0.0
 40
0.3
 50
0.0
 51
180.0
  0
ARC
  5
18A
  8
回08-記事
  6
CONTINUOUS
 62
     7
 10
606.6569251140194
 20
-160.2741025129985
 30
0.0
 40
0.3
 50
0.0
 51
180.0
  0
ARC
  5
18B
  8
回08-記事
  6
CONTINUOUS
 62
     7
 10
609.1569251140192
 20
-160.2741025129985
 30
0.0
 40
0.3
 50
0.0
 51
180.0
  0
ARC
  5
18C
  8
回08-記事
  6
CONTINUOUS
 62
     7
 10
611.6569251140194
 20
-160.2741025129985
 30
0.0
 40
0.3
 50
0.0
 51
180.0
  0
ARC
  5
18D
  8
回08-記事
  6
CONTINUOUS
 62
     7
 10
614.1569251140192
 20
-160.2741025129985
 30
0.0
 40
0.3
 50
0.0
 51
180.0
  0
ARC
  5
18E
  8
回08-記事
  6
CONTINUOUS
 62
     7
 10
616.6569251140193
 20
-160.2741025129985
 30
0.0
 40
0.3
 50
0.0
 51
180.0
  0
ARC
  5
18F
  8
回08-記事
  6
CONTINUOUS
 62
     7
 10
619.1569251140194
 20
-160.2741025129985
 30
0.0
 40
0.3
 50
0.0
 51
180.0
  0
ARC
  5
190
  8
回08-記事
  6
CONTINUOUS
 62
     7
 10
621.6569251140192
 20
-160.2741025129985
 30
0.0
 40
0.3
 50
0.0
 51
180.0
  0
ARC
  5
191
  8
回08-記事
  6
CONTINUOUS
 62
     7
 10
624.1569251140194
 20
-160.2741025129985
 30
0.0
 40
0.3
 50
0.0
 51
180.0
  0
ARC
  5
192
  8
回08-記事
  6
CONTINUOUS
 62
     7
 10
626.6569251140192
 20
-160.2741025129985
 30
0.0
 40
0.3
 50
0.0
 51
180.0
  0
ARC
  5
193
  8
回08-記事
  6
CONTINUOUS
 62
     7
 10
629.1569251140193
 20
-160.2741025129985
 30
0.0
 40
0.3
 50
0.0
 51
180.0
  0
ARC
  5
194
  8
回08-記事
  6
CONTINUOUS
 62
     7
 10
631.6569251140194
 20
-160.2741025129985
 30
0.0
 40
0.3
 50
0.0
 51
180.0
  0
ARC
  5
195
  8
回08-記事
  6
CONTINUOUS
 62
     7
 10
634.1569251140192
 20
-160.2741025129985
 30
0.0
 40
0.3
 50
0.0
 51
180.0
  0
ARC
  5
196
  8
回08-記事
  6
CONTINUOUS
 62
     7
 10
636.6569251140194
 20
-160.2741025129985
 30
0.0
 40
0.3
 50
0.0
 51
180.0
  0
ARC
  5
197
  8
回08-記事
  6
CONTINUOUS
 62
     7
 10
639.1569251140192
 20
-160.2741025129985
 30
0.0
 40
0.3
 50
0.0
 51
180.0
  0
ARC
  5
198
  8
回08-記事
  6
CONTINUOUS
 62
     7
 10
641.6569251140193
 20
-160.2741025129985
 30
0.0
 40
0.3
 50
0.0
 51
180.0
  0
ARC
  5
199
  8
回08-記事
  6
CONTINUOUS
 62
     7
 10
644.1569251140194
 20
-160.2741025129985
 30
0.0
 40
0.3
 50
0.0
 51
180.0
  0
ARC
  5
19A
  8
回08-記事
  6
CONTINUOUS
 62
     7
 10
646.6569251140192
 20
-160.2741025129985
 30
0.0
 40
0.3
 50
0.0
 51
180.0
  0
ARC
  5
19B
  8
回08-記事
  6
CONTINUOUS
 62
     7
 10
649.1569251140194
 20
-160.2741025129985
 30
0.0
 40
0.3
 50
0.0
 51
180.0
  0
ARC
  5
19C
  8
回08-記事
  6
CONTINUOUS
 62
     7
 10
651.6569251140192
 20
-160.2741025129985
 30
0.0
 40
0.3
 50
0.0
 51
180.0
  0
ARC
  5
19D
  8
回08-記事
  6
CONTINUOUS
 62
     7
 10
654.1569251140193
 20
-160.2741025129985
 30
0.0
 40
0.3
 50
0.0
 51
180.0
  0
ARC
  5
19E
  8
回08-記事
  6
CONTINUOUS
 62
     7
 10
656.6569251140194
 20
-160.2741025129985
 30
0.0
 40
0.3
 50
0.0
 51
180.0
  0
ARC
  5
19F
  8
回08-記事
  6
CONTINUOUS
 62
     7
 10
659.1569251140192
 20
-160.2741025129985
 30
0.0
 40
0.3
 50
0.0
 51
180.0
  0
ARC
  5
1A0
  8
回08-記事
  6
CONTINUOUS
 62
     7
 10
661.6569251140194
 20
-160.2741025129985
 30
0.0
 40
0.3
 50
0.0
 51
180.0
  0
ARC
  5
1A1
  8
回08-記事
  6
CONTINUOUS
 62
     7
 10
664.1569251140192
 20
-160.2741025129985
 30
0.0
 40
0.3
 50
0.0
 51
180.0
  0
ARC
  5
1A2
  8
回08-記事
  6
CONTINUOUS
 62
     7
 10
666.6569251140193
 20
-160.2741025129985
 30
0.0
 40
0.3
 50
0.0
 51
180.0
  0
ARC
  5
1A3
  8
回08-記事
  6
CONTINUOUS
 62
     7
 10
669.1569251140194
 20
-160.2741025129985
 30
0.0
 40
0.3
 50
0.0
 51
180.0
  0
ARC
  5
1A4
  8
回08-記事
  6
CONTINUOUS
 62
     7
 10
671.6569251140192
 20
-160.2741025129985
 30
0.0
 40
0.3
 50
0.0
 51
180.0
  0
ARC
  5
1A5
  8
回08-記事
  6
CONTINUOUS
 62
     7
 10
674.1569251140194
 20
-160.2741025129985
 30
0.0
 40
0.3
 50
0.0
 51
180.0
  0
ARC
  5
1A6
  8
回08-記事
  6
CONTINUOUS
 62
     7
 10
676.6569251140192
 20
-160.2741025129985
 30
0.0
 40
0.3
 50
0.0
 51
180.0
  0
ARC
  5
1A7
  8
回08-記事
  6
CONTINUOUS
 62
     7
 10
679.1569251140193
 20
-160.2741025129985
 30
0.0
 40
0.3
 50
0.0
 51
180.0
  0
ARC
  5
1A8
  8
回08-記事
  6
CONTINUOUS
 62
     7
 10
681.6569251140194
 20
-160.2741025129985
 30
0.0
 40
0.3
 50
0.0
 51
180.0
  0
ARC
  5
1A9
  8
回08-記事
  6
CONTINUOUS
 62
     7
 10
684.1569251140192
 20
-160.2741025129985
 30
0.0
 40
0.3
 50
0.0
 51
180.0
  0
ARC
  5
1AA
  8
回08-記事
  6
CONTINUOUS
 62
     7
 10
686.6569251140194
 20
-160.2741025129985
 30
0.0
 40
0.3
 50
0.0
 51
180.0
  0
ARC
  5
1AB
  8
回08-記事
  6
CONTINUOUS
 62
     7
 10
689.1569251140193
 20
-160.2741025129985
 30
0.0
 40
0.3
 50
0.0
 51
180.0
  0
ARC
  5
1AC
  8
回08-記事
  6
CONTINUOUS
 62
     7
 10
691.6569251140193
 20
-160.2741025129985
 30
0.0
 40
0.3
 50
0.0
 51
180.0
  0
ARC
  5
1AD
  8
回08-記事
  6
CONTINUOUS
 62
     7
 10
694.1569251140194
 20
-160.2741025129985
 30
0.0
 40
0.3
 50
0.0
 51
180.0
  0
LINE
  5
1AE
  8
回08-記事
  6
CONTINUOUS
 62
     7
 10
690.7211204613604
 20
-158.7741025129985
 30
0.0
 11
690.7211204613604
 21
-160.2741025129985
 31
0.0
  0
LINE
  5
1AF
  8
回08-記事
  6
CONTINUOUS
 62
     7
 10
580.7211204613604
 20
-158.7741025129985
 30
0.0
 11
580.7211204613604
 21
-160.2741025129985
 31
0.0
  0
DIMENSION
  5
1B0
  8
回08-記事
  6
CONTINUOUS
 62
     7
  2
*D2121
 10
702.7041191465574
 20
-163.2741025129986
 30
0.0
 11
702.7041191465573
 21
-181.7742415129987
 31
0.0
 70
   128
  1
1.4{\H0.6667x;±0.2}[0.055{\H0.66667x;±0.008}]
  3
DMC
 13
699.5211204613606
 23
-156.4741025129985
 33
0.0
 14
699.8211204613604
 24
-163.2741025129985
 34
0.0
 50
90.0
1001
ACAD
1000
DSTYLE
1002
{
1070
   371
1070
    13
1070
   372
1070
    13
1002
}
  0
DIMENSION
  5
1BF
  8
回08-記事
  6
CONTINUOUS
 62
     7
  2
*D2020
 10
503.4211204613606
 20
-150.3880328263453
 30
0.0
 11
486.8658789656191
 21
-150.3880328263453
 31
0.0
 70
   128
  3
DMC
 13
498.4211204613606
 23
-158.7741025129985
 33
0.0
 14
503.4211204613606
 24
-158.2741025129985
 34
0.0
1001
ACAD
1000
DSTYLE
1002
{
1070
   372
1070
    13
1070
   371
1070
    13
1002
}
  0
DIMENSION
  5
1CE
  8
回08-記事
  6
CONTINUOUS
 62
     7
  2
*D1919
 10
508.4211204613604
 20
-177.9371837489425
 30
0.0
 11
522.3751808547397
 21
-175.786458710413
 31
0.0
 70
     0
  1
(<>)
  3
DMC
 13
498.4211204613606
 23
-161.6741025129985
 33
0.0
 14
508.4211204613604
 24
-161.6741025129985
 34
0.0
1001
ACAD
1000
DSTYLE
1002
{
1070
   371
1070
    13
1070
   372
1070
    13
1002
}
  0
DIMENSION
  5
1DD
  8
回08-記事
  6
CONTINUOUS
 62
     7
  2
*D1818
 10
491.9933852871723
 20
-161.6741025129985
 30
0.0
 11
489.8433852871723
 21
-180.7256286153609
 31
0.0
 70
     0
  1
0.3{\H0.6667x;±0.05}[0.012{\H0.6667x;±0.002}]
  3
DMC
 13
498.4211204613606
 23
-158.7741025129985
 33
0.0
 14
498.4211204613606
 24
-161.6741025129985
 34
0.0
 50
90.0
1001
ACAD
1000
DSTYLE
1002
{
1070
   372
1070
    13
1070
   371
1070
    13
1002
}
  0
POLYLINE
  5
1EC
  8
回08-記事
  6
CONTINUOUS
 62
     7
 66
     1
 10
0.0
 20
0.0
 30
0.0
 70
     1
  0
VERTEX
  5
5EB
  8
回08-記事
  6
CONTINUOUS
 62
     7
 10
568.7211204613604
 20
-158.2741025129985
 30
0.0
  0
VERTEX
  5
5ED
  8
回08-記事
  6
CONTINUOUS
 62
     7
 10
503.4211204613606
 20
-158.2741025129985
 30
0.0
  0
VERTEX
  5
5EE
  8
回08-記事
  6
CONTINUOUS
 62
     7
 10
503.4211204613606
 20
-158.7741025129985
 30
0.0
  0
VERTEX
  5
5EF
  8
回08-記事
  6
CONTINUOUS
 62
     7
 10
568.7211204613604
 20
-158.7741025129985
 30
0.0
  0
SEQEND
  5
5EC
  8
回08-記事
  6
CONTINUOUS
 62
     7
  0
POLYLINE
  5
1ED
  8
回08-記事
  6
CONTINUOUS
 62
     7
 66
     1
 10
0.0
 20
0.0
 30
0.0
 70
     1
  0
VERTEX
  5
5F0
  8
回08-記事
  6
CONTINUOUS
 62
     7
 10
508.4211204613604
 20
-161.6741025129985
 30
0.0
  0
VERTEX
  5
5F2
  8
回08-記事
  6
CONTINUOUS
 62
     7
 10
498.4211204613606
 20
-161.6741025129985
 30
0.0
  0
VERTEX
  5
5F3
  8
回08-記事
  6
CONTINUOUS
 62
     7
 10
498.4211204613606
 20
-160.2741025129985
 30
0.0
  0
VERTEX
  5
5F4
  8
回08-記事
  6
CONTINUOUS
 62
     7
 10
508.4211204613604
 20
-160.2741025129985
 30
0.0
  0
SEQEND
  5
5F1
  8
回08-記事
  6
CONTINUOUS
 62
     7
  0
POLYLINE
  5
1EE
  8
回08-記事
  6
CONTINUOUS
 62
     7
 66
     1
 10
0.0
 20
0.0
 30
0.0
 70
     1
  0
VERTEX
  5
5F5
  8
回08-記事
  6
CONTINUOUS
 62
     7
 10
498.4211204613606
 20
-160.2741025129985
 30
0.0
  0
VERTEX
  5
5F7
  8
回08-記事
  6
CONTINUOUS
 62
     7
 10
576.7211204613606
 20
-160.2741025129985
 30
0.0
  0
VERTEX
  5
5F8
  8
回08-記事
  6
CONTINUOUS
 62
     7
 10
576.7211204613606
 20
-158.7741025129985
 30
0.0
  0
VERTEX
  5
5F9
  8
回08-記事
  6
CONTINUOUS
 62
     7
 10
498.4211204613606
 20
-158.7741025129985
 30
0.0
  0
SEQEND
  5
5F6
  8
回08-記事
  6
CONTINUOUS
 62
     7
  0
LINE
  5
1EF
  8
回08-記事
  6
CONTINUOUS
 62
     7
 10
699.5211204613606
 20
-158.7741025129985
 30
0.0
 11
699.5211204613606
 21
-160.2741025129985
 31
0.0
  0
POLYLINE
  5
1F0
  8
回08-記事
  6
CONTINUOUS
 62
     7
 66
     1
 10
0.0
 20
0.0
 30
0.0
 70
     1
  0
VERTEX
  5
5FA
  8
回08-記事
  6
CONTINUOUS
 62
     7
 10
568.7211204613606
 20
-156.4741025129985
 30
0.0
  0
VERTEX
  5
5FC
  8
回08-記事
  6
CONTINUOUS
 62
     7
 10
699.5211204613606
 20
-156.4741025129985
 30
0.0
  0
VERTEX
  5
5FD
  8
回08-記事
  6
CONTINUOUS
 62
     7
 10
699.5211204613606
 20
-158.7741025129985
 30
0.0
  0
VERTEX
  5
5FE
  8
回08-記事
  6
CONTINUOUS
 62
     7
 10
568.7211204613604
 20
-158.7741025129985
 30
0.0
  0
SEQEND
  5
5FB
  8
回08-記事
  6
CONTINUOUS
 62
     7
  0
POLYLINE
  5
1F1
  8
回08-記事
  6
CONTINUOUS
 62
     7
 66
     1
 10
0.0
 20
0.0
 30
0.0
 70
     1
  0
VERTEX
  5
5FF
  8
回08-記事
  6
CONTINUOUS
 62
     7
 10
568.4211204613606
 20
-163.2741025129985
 30
0.0
  0
VERTEX
  5
601
  8
回08-記事
  6
CONTINUOUS
 62
     7
 10
699.8211204613604
 20
-163.2741025129985
 30
0.0
  0
VERTEX
  5
602
  8
回08-記事
  6
CONTINUOUS
 62
     7
 10
699.8211204613604
 20
-160.2741025129985
 30
0.0
  0
VERTEX
  5
603
  8
回08-記事
  6
CONTINUOUS
 62
     7
 10
568.4211204613606
 20
-160.2741025129985
 30
0.0
  0
SEQEND
  5
600
  8
回08-記事
  6
CONTINUOUS
 62
     7
  0
TEXT
  5
1F2
  8
回08-記事
  6
CONTINUOUS
 62
     7
 10
496.9452167971551
 20
-107.799819740317
 30
0.0
 40
1.079999999999998
  1
4
  0
TEXT
  5
1F3
  8
回08-記事
  6
CONTINUOUS
 62
     7
 10
497.0531253969159
 20
-111.7867765842136
 30
0.0
 40
1.079999999999998
  1
1
  0
TEXT
  5
1F4
  8
回07-寸法
  6
CONTINUOUS
 62
     5
 10
535.4635340716956
 20
-95.48881309723274
 30
0.0
 40
3.0
  1
4-R1[R0.039]
1001
ACAD
1000
MTEXTBEGIN
1070
    73
1070
     1
1070
    44
1040
1.0
1070
    74
1070
     0
1000
MTEXTEND
  0
INSERT
  5
1F5
  8
回07-寸法
  6
CONTINUOUS
 62
     3
 66
     1
  2
*X3939
 10
0.0
 20
0.0
 30
0.0
  0
SEQEND
  5
3E1
  8
回08-記事
  6
CONTINUOUS
 62
     7
  0
TEXT
  5
1F6
  8
回07-寸法
  6
CONTINUOUS
 62
     5
 10
538.7165236805145
 20
-91.10451947116516
 30
0.0
 40
3.0
  1
2-R2[R0.079]
1001
ACAD
1000
MTEXTBEGIN
1070
    73
1070
     1
1070
    44
1040
1.0
1070
    74
1070
     0
1000
MTEXTEND
  0
INSERT
  5
1F7
  8
回07-寸法
  6
CONTINUOUS
 62
     3
 66
     1
  2
*X4040
 10
0.0
 20
0.0
 30
0.0
  0
SEQEND
  5
3E8
  8
回08-記事
  6
CONTINUOUS
 62
     7
  0
DIMENSION
  5
1F8
  8
回07-寸法
  6
CONTINUOUS
 62
     3
  2
*D1717
 10
568.4211204613606
 20
-126.9709710413352
 30
0.0
 11
545.4556194956486
 21
-126.9709710413352
 31
0.0
 70
   128
  3
DMC
 13
559.0177515300045
 23
-112.739310818548
 33
0.0
 14
568.4211204613606
 24
-119.9358371103901
 34
0.0
1001
ACAD
1000
DSTYLE
1002
{
1070
   371
1070
    13
1070
   372
1070
    13
1002
}
  0
DIMENSION
  5
207
  8
回07-寸法
  6
CONTINUOUS
 62
     3
  2
*D1616
 10
514.426575481447
 20
-117.3191629052472
 30
0.0
 11
514.4265754814468
 21
-88.72036593951859
 31
0.0
 70
   128
  3
DMC
 13
564.0291905529945
 23
-101.3203659395185
 33
0.0
 14
564.0333641387006
 24
-117.3191629052471
 34
0.0
 50
90.0
1001
ACAD
1000
DSTYLE
1002
{
1070
   371
1070
    13
1070
   372
1070
    13
1002
}
  0
DIMENSION
  5
216
  8
回07-寸法
  6
CONTINUOUS
 62
     3
  2
*D1515
 10
568.4211204613606
 20
-74.44131419079122
 30
0.0
 11
536.3242331241366
 21
-74.44131419079122
 31
0.0
 70
   128
  3
DMC
 13
498.4211204613606
 23
-106.6941629052469
 33
0.0
 14
568.4211204613606
 24
-100.2727282805324
 34
0.0
1001
ACAD
1000
DSTYLE
1002
{
1070
    47
1040
1.0
1070
    48
1040
1.0
1070
    71
1070
     1
1070
   371
1070
    13
1070
   372
1070
    13
1002
}
  0
DIMENSION
  5
223
  8
回07-寸法
  6
CONTINUOUS
 62
     3
  2
*D1414
 10
490.70768302012
 20
-106.1941629052469
 30
0.0
 11
488.5576830201198
 21
-91.55439912571951
 31
0.0
 70
     0
  3
DMC
 13
498.9211204613606
 23
-112.4441629052469
 33
0.0
 14
498.9211204613606
 24
-106.1941629052469
 34
0.0
 50
90.0
1001
ACAD
1000
DSTYLE
1002
{
1070
   372
1070
    13
1070
   371
1070
    13
1070
    47
1040
0.2
1070
   147
1040
0.5
1070
    48
1040
0.2
1070
    72
1070
     0
1070
    71
1070
     0
1002
}
  0
DIMENSION
  5
232
  8
回07-寸法
  6
CONTINUOUS
 62
     3
  2
*D1313
 10
490.70768302012
 20
-112.4441629052469
 30
0.0
 11
488.5576830201198
 21
-122.4433930486414
 31
0.0
 70
     0
  3
DMC
 13
568.4211204613606
 23
-132.4426231920356
 33
0.0
 14
498.9211204613606
 24
-112.4441629052469
 34
0.0
 50
90.0
1001
ACAD
1000
DSTYLE
1002
{
1070
   372
1070
    13
1070
   371
1070
    13
1002
}
  0
DIMENSION
  5
23F
  8
回07-寸法
  6
CONTINUOUS
 62
     3
  2
*D1212
 10
568.4211204613606
 20
-11.8429535125947
 30
0.0
 11
555.0658789656191
 21
-9.692953512594703
 31
0.0
 70
     0
  3
DMC
 13
577.3211204613605
 23
-38.44262319203564
 33
0.0
 14
568.4211204613606
 24
-29.44262319203563
 34
0.0
1001
ACAD
1000
DSTYLE
1002
{
1070
   372
1070
    13
1070
   371
1070
    13
1002
}
  0
DIMENSION
  5
24E
  8
回07-寸法
  6
CONTINUOUS
 62
     3
  2
*D1111
 10
568.4211204613606
 20
-18.12362070778499
 30
0.0
 11
554.9985054355216
 21
-15.97289566925546
 31
0.0
 70
     0
  3
DMC
 13
578.3211204613604
 23
-39.44262319203563
 33
0.0
 14
568.4211204613606
 24
-29.44262319203563
 34
0.0
1001
ACAD
1000
DSTYLE
1002
{
1070
   372
1070
    13
1070
   371
1070
    13
1002
}
  0
DIMENSION
  5
25D
  8
回07-寸法
  6
CONTINUOUS
 62
     3
  2
*D1010
 10
735.2229912124117
 20
-132.4426231920356
 30
0.0
 11
733.0729912124114
 21
-145.6426231920358
 31
0.0
 70
     0
  3
DMC
 13
696.5211204613606
 23
-128.8426231920357
 33
0.0
 14
699.8211204613604
 24
-132.4426231920356
 34
0.0
 50
90.0
1001
ACAD
1000
DSTYLE
1002
{
1070
   372
1070
    13
1070
   371
1070
    13
1002
}
  0
DIMENSION
  5
26C
  8
回07-寸法
  6
CONTINUOUS
 62
     3
  2
*D99
 10
727.9924053698833
 20
-132.4426231920356
 30
0.0
 11
727.9924053698831
 21
-145.3426231920358
 31
0.0
 70
   128
  3
DMC
 13
695.5211204613606
 23
-127.8426231920357
 33
0.0
 14
699.8211204613604
 24
-132.4426231920356
 34
0.0
 50
90.0
1001
ACAD
1000
DSTYLE
1002
{
1070
   372
1070
    13
1070
   371
1070
    13
1002
}
  0
DIMENSION
  5
27B
  8
回07-寸法
  6
CONTINUOUS
 62
     3
  2
*D88
 10
753.1757195744831
 20
-29.44262319203563
 30
0.0
 11
753.1757195744831
 21
-82.46969553699955
 31
0.0
 70
   128
  3
DMC
 13
699.8211204613604
 23
-132.4426231920356
 33
0.0
 14
699.8211204613604
 24
-29.44262319203563
 34
0.0
 50
90.0
1001
ACAD
1000
DSTYLE
1002
{
1070
   372
1070
    13
1070
   371
1070
    13
1070
    47
1040
0.3
1070
   147
1040
0.5
1070
    48
1040
0.3
1070
    72
1070
     0
1070
    71
1070
     1
1002
}
  0
DIMENSION
  5
288
  8
回07-寸法
  6
CONTINUOUS
 62
     3
  2
*D77
 10
719.6670477777487
 20
-83.6426231920357
 30
0.0
 11
719.6670477777487
 21
-98.58020647432468
 31
0.0
 70
   128
  1
<>{\H0.8333x;(ACTIVE AREA CENTER)}
  3
DMC
 13
699.8211204613604
 23
-132.4426231920356
 33
0.0
 14
705.7211204613604
 24
-83.64262319203566
 34
0.0
 50
90.0
1001
ACAD
1000
DSTYLE
1002
{
1070
   371
1070
    13
1070
   372
1070
    13
1002
}
  0
DIMENSION
  5
295
  8
回07-寸法
  6
CONTINUOUS
 62
     3
  2
*D66
 10
636.9211204613606
 20
-24.33094151496198
 30
0.0
 11
610.1873482797071
 21
-24.33094151496198
 31
0.0
 70
   128
  1
<> {\H0.8333x;(ACTIVE AREA CENTER)}
  3
DMC
 13
568.4211204613606
 23
-29.44262319203563
 33
0.0
 14
636.9211204613606
 24
-28.44262319203563
 34
0.0
1001
ACAD
1000
DSTYLE
1002
{
1070
   371
1070
    13
1070
   372
1070
    13
1002
}
  0
DIMENSION
  5
2A2
  8
回07-寸法
  6
CONTINUOUS
 62
     3
  2
*D55
 10
735.2229912124112
 20
-128.8426231920357
 30
0.0
 11
735.2229912124109
 21
-83.84231682492872
 31
0.0
 70
   128
  1
<>(VIEWING AREA)
  3
DMC
 13
696.5211204613606
 23
-38.44262319203564
 33
0.0
 14
696.5211204613606
 24
-128.8426231920357
 34
0.0
 50
90.0
1001
ACAD
1000
DSTYLE
1002
{
1070
   372
1070
    13
1070
   371
1070
    13
1002
}
  0
DIMENSION
  5
2AF
  8
回07-寸法
  6
CONTINUOUS
 62
     3
  2
*D44
 10
727.9924053698833
 20
-39.44262319203563
 30
0.0
 11
727.9924053698831
 21
-84.1752077895976
 31
0.0
 70
   128
  1
<>(ACTIVE AREA)
  3
DMC
 13
695.5211204613606
 23
-127.8426231920357
 33
0.0
 14
695.5211204613606
 24
-39.44262319203563
 34
0.0
 50
90.0
1001
ACAD
1000
DSTYLE
1002
{
1070
   372
1070
    13
1070
   371
1070
    13
1002
}
  0
DIMENSION
  5
2BC
  8
回07-寸法
  6
CONTINUOUS
 62
     3
  2
*D33
 10
699.8211204613604
 20
4.502594021460254
 30
0.0
 11
633.5615160101532
 21
4.502594021460254
 31
0.0
 70
   128
  3
DMC
 13
568.4211204613606
 23
-29.44262319203563
 33
0.0
 14
699.8211204613604
 24
-29.44262319203563
 34
0.0
1001
ACAD
1000
DSTYLE
1002
{
1070
   372
1070
    13
1070
   371
1070
    13
1070
    47
1040
0.3
1070
   147
1040
0.5
1070
    48
1040
0.3
1070
    72
1070
     0
1070
    71
1070
     1
1002
}
  0
DIMENSION
  5
2C9
  8
回07-寸法
  6
CONTINUOUS
 62
     3
  2
*D22
 10
696.5211204613606
 20
-11.8429535125947
 30
0.0
 11
636.9211204613606
 21
-9.692228474065167
 31
0.0
 70
     0
  1
<>(VIEWING AREA)
  3
DMC
 13
577.3211204613605
 23
-38.44262319203564
 33
0.0
 14
696.5211204613606
 24
-38.44262319203564
 34
0.0
1001
ACAD
1000
DSTYLE
1002
{
1070
   372
1070
    13
1070
   371
1070
    13
1002
}
  0
DIMENSION
  5
2D6
  8
回07-寸法
  6
CONTINUOUS
 62
     3
  2
*D11
 10
695.5211204613606
 20
-18.12362070778499
 30
0.0
 11
636.9211204613606
 21
-15.97362070778499
 31
0.0
 70
     0
  1
<>(ACTIVE AREA)
  3
DMC
 13
578.3211204613604
 23
-39.44262319203563
 33
0.0
 14
695.5211204613606
 24
-39.44262319203563
 34
0.0
1001
ACAD
1000
DSTYLE
1002
{
1070
   372
1070
    13
1070
   371
1070
    13
1002
}
  0
LINE
  5
2E3
  8
回07-寸法
  6
CENTER2
 62
     5
 10
564.9211204613606
 20
-83.64262319203566
 30
0.0
 11
705.7211204613604
 21
-83.64262319203566
 31
0.0
  0
LINE
  5
2E4
  8
回07-寸法
  6
CENTER2
 62
     5
 10
636.9211204613606
 20
-28.44262319203563
 30
0.0
 11
636.9211204613606
 21
-132.4426231920356
 31
0.0
  0
TEXT
  5
2E5
  8
回08-記事
  6
CONTINUOUS
 62
     5
 10
532.1011446589773
 20
-171.059358889285
 30
0.0
 40
3.0
  1
LOT LABEL
1001
ACAD
1000
MTEXTBEGIN
1070
    73
1070
     1
1070
    44
1040
1.0
1070
    74
1070
     0
1000
MTEXTEND
  0
INSERT
  5
2E6
  8
回08-記事
  6
CONTINUOUS
 62
     7
 66
     1
  2
*X4141
 10
0.0
 20
0.0
 30
0.0
  0
SEQEND
  5
3EF
  8
回08-記事
  6
CONTINUOUS
 62
     7
  0
TEXT
  5
2E7
  8
回08-記事
  6
CONTINUOUS
 62
     5
 10
510.2223094545771
 20
-152.7285620290071
 30
0.0
 40
3.0
  1
TRACE EXPOSE
1001
ACAD
1000
MTEXTBEGIN
1070
    73
1070
     1
1070
    44
1040
1.0
1070
    74
1070
     0
1000
MTEXTEND
  0
INSERT
  5
2E8
  8
回08-記事
  6
CONTINUOUS
 62
     8
 66
     1
  2
*X4242
 10
0.0
 20
0.0
 30
0.0
  0
SEQEND
  5
3F6
  8
回08-記事
  6
CONTINUOUS
 62
     7
  0
TEXT
  5
2E9
  8
回08-記事
  6
CONTINUOUS
 62
     5
 10
662.0809204262038
 20
-26.72475092852642
 30
0.0
 40
3.0
  1
AST-057A
  0
TEXT
  5
2EA
  8
回08-記事
  6
CONTINUOUS
 62
     5
 10
662.6631894206487
 20
-22.26301045530613
 30
0.0
 40
3.0
  1
PART No.
1001
ACAD
1000
MTEXTBEGIN
1070
    73
1070
     1
1070
    44
1040
1.0
1070
    74
1070
     0
1000
MTEXTEND
  0
INSERT
  5
2EB
  8
回08-記事
  6
CONTINUOUS
 62
     7
 66
     1
  2
*X4343
 10
0.0
 20
0.0
 30
0.0
  0
SEQEND
  5
3FD
  8
回08-記事
  6
CONTINUOUS
 62
     7
  0
TEXT
  5
2EC
  8
回08-記事
  6
CONTINUOUS
 62
     5
 10
676.6021231015847
 20
-137.7778296062824
 30
0.0
 40
3.0
  1
AIR VENT
1001
ACAD
1000
MTEXTBEGIN
1070
    73
1070
     1
1070
    44
1040
1.0
1070
    74
1070
     0
1000
MTEXTEND
  0
INSERT
  5
2ED
  8
回08-記事
  6
CONTINUOUS
 62
     7
 66
     1
  2
*X4444
 10
0.0
 20
0.0
 30
0.0
  0
SEQEND
  5
404
  8
回08-記事
  6
CONTINUOUS
 62
     7
  0
TEXT
  5
2EE
  8
回08-記事
  6
CONTINUOUS
 62
     7
 10
782.8836278797853
 20
-7.43830929582873
 30
0.0
 40
3.9
  1
4
  0
LINE
  5
2EF
  8
回08-記事
  6
CONTINUOUS
 62
     7
 10
787.0700532811979
 20
-5.650497961477639
 30
0.0
 11
836.0638032811984
 21
-5.650497961477639
 31
0.0
  0
TEXT
  5
2F0
  8
回08-記事
  6
CONTINUOUS
 62
     7
 10
819.6741896426367
 20
-48.4087511347791
 30
0.0
 40
3.412499999999998
  1
XR
  0
LINE
  5
2F1
  8
回08-記事
  6
CONTINUOUS
 62
     7
 10
822.6575532811983
 20
-43.43174796147787
 30
0.0
 11
822.6575532811983
 21
-19.05674796147787
 31
0.0
  0
LINE
  5
2F2
  8
回08-記事
  6
CONTINUOUS
 62
     7
 10
819.4888032811981
 20
-43.43174796147787
 30
0.0
 11
822.6575532811983
 21
-43.43174796147787
 31
0.0
  0
LINE
  5
2F3
  8
回08-記事
  6
CONTINUOUS
 62
     7
 10
813.102553281198
 20
-42.1642479614777
 30
0.0
 11
814.8575532811983
 21
-45.67424796147792
 31
0.0
  0
LINE
  5
2F4
  8
回08-記事
  6
CONTINUOUS
 62
     7
 10
811.3475532811984
 20
-45.67424796147792
 30
0.0
 11
813.102553281198
 21
-42.1642479614777
 31
0.0
  0
LINE
  5
2F5
  8
回08-記事
  6
CONTINUOUS
 62
     7
 10
814.8575532811983
 20
-45.67424796147792
 30
0.0
 11
816.6125532811983
 21
-42.1642479614777
 31
0.0
  0
LINE
  5
2F6
  8
回08-記事
  6
CONTINUOUS
 62
     7
 10
816.6125532811983
 20
-42.1642479614777
 30
0.0
 11
818.3675532811983
 21
-45.67424796147792
 31
0.0
  0
LINE
  5
2F7
  8
回08-記事
  6
CONTINUOUS
 62
     7
 10
818.3675532811983
 20
-45.67424796147792
 30
0.0
 11
819.4888032811981
 21
-43.43174796147787
 31
0.0
  0
LINE
  5
2F8
  8
回08-記事
  6
CONTINUOUS
 62
     7
 10
804.327553281198
 20
-45.67424796147792
 30
0.0
 11
806.082553281198
 21
-42.1642479614777
 31
0.0
  0
LINE
  5
2F9
  8
回08-記事
  6
CONTINUOUS
 62
     7
 10
800.8175532811982
 20
-45.67424796147792
 30
0.0
 11
802.5725532811977
 21
-42.1642479614777
 31
0.0
  0
LINE
  5
2FA
  8
回08-記事
  6
CONTINUOUS
 62
     7
 10
802.5725532811977
 20
-42.1642479614777
 30
0.0
 11
804.327553281198
 21
-45.67424796147792
 31
0.0
  0
LINE
  5
2FB
  8
回08-記事
  6
CONTINUOUS
 62
     7
 10
805.7900532811981
 20
-42.01799796147793
 30
0.0
 11
809.3000532811982
 21
-43.77299796147781
 31
0.0
  0
LINE
  5
2FC
  8
回08-記事
  6
CONTINUOUS
 62
     7
 10
805.7900532811981
 20
-38.02049796147776
 30
0.0
 11
809.3000532811982
 21
-39.77549796147787
 31
0.0
  0
LINE
  5
2FD
  8
回08-記事
  6
CONTINUOUS
 62
     7
 10
805.7900532811981
 20
-38.02049796147776
 30
0.0
 11
809.3000532811982
 21
-36.26549796147788
 31
0.0
  0
LINE
  5
2FE
  8
回08-記事
  6
CONTINUOUS
 62
     7
 10
805.7900532811981
 20
-42.01799796147793
 30
0.0
 11
809.3000532811982
 21
-40.26299796147781
 31
0.0
  0
LINE
  5
2FF
  8
回08-記事
  6
CONTINUOUS
 62
     7
 10
805.7900532811981
 20
-49.03799796147814
 30
0.0
 11
809.3000532811982
 21
-47.28299796147758
 31
0.0
  0
LINE
  5
300
  8
回08-記事
  6
CONTINUOUS
 62
     7
 10
805.7900532811981
 20
-45.52799796147791
 30
0.0
 11
809.3000532811982
 21
-47.28299796147758
 31
0.0
  0
LINE
  5
301
  8
回08-記事
  6
CONTINUOUS
 62
     7
 10
805.7900532811981
 20
-45.52799796147791
 30
0.0
 11
809.3000532811982
 21
-43.77299796147781
 31
0.0
  0
LINE
  5
302
  8
回08-記事
  6
CONTINUOUS
 62
     7
 10
807.5450532811981
 20
-35.38799796147781
 30
0.0
 11
809.3000532811982
 21
-36.26549796147788
 31
0.0
  0
LINE
  5
303
  8
回08-記事
  6
CONTINUOUS
 62
     7
 10
806.082553281198
 20
-42.1642479614777
 30
0.0
 11
807.8375532811984
 21
-45.67424796147792
 31
0.0
  0
LINE
  5
304
  8
回08-記事
  6
CONTINUOUS
 62
     7
 10
807.8375532811984
 20
-45.67424796147792
 30
0.0
 11
809.5925532811984
 21
-42.1642479614777
 31
0.0
  0
LINE
  5
305
  8
回08-記事
  6
CONTINUOUS
 62
     7
 10
807.5450532811981
 20
-35.38799796147781
 30
0.0
 11
807.5450532811981
 21
-32.46299796147787
 31
0.0
  0
TEXT
  5
306
  8
回08-記事
  6
CONTINUOUS
 62
     7
 10
791.1869700467872
 20
-42.97727338007461
 30
0.0
 40
3.412499999999998
  1
XL
  0
LINE
  5
307
  8
回08-記事
  6
CONTINUOUS
 62
     7
 10
797.9413032811984
 20
-44.40674796147777
 30
0.0
 11
799.0625532811981
 21
-42.1642479614777
 31
0.0
  0
LINE
  5
308
  8
回08-記事
  6
CONTINUOUS
 62
     7
 10
799.0625532811981
 20
-42.1642479614777
 30
0.0
 11
800.8175532811982
 21
-45.67424796147792
 31
0.0
  0
LINE
  5
309
  8
回08-記事
  6
CONTINUOUS
 62
     7
 10
805.7900532811981
 20
-52.54799796147789
 30
0.0
 11
809.3000532811982
 21
-50.79299796147779
 31
0.0
  0
LINE
  5
30A
  8
回08-記事
  6
CONTINUOUS
 62
     7
 10
805.7900532811981
 20
-52.54799796147789
 30
0.0
 11
807.5450532811981
 21
-53.42549796147796
 31
0.0
  0
LINE
  5
30B
  8
回08-記事
  6
CONTINUOUS
 62
     7
 10
807.5450532811981
 20
-56.83799796147787
 30
0.0
 11
807.5450532811981
 21
-53.42549796147796
 31
0.0
  0
TEXT
  5
30C
  8
回08-記事
  6
CONTINUOUS
 62
     7
 10
798.5805981778606
 20
-55.44794929981617
 30
0.0
 40
3.412499999999998
  1
YD
  0
LINE
  5
30D
  8
回08-記事
  6
CONTINUOUS
 62
     7
 10
805.7900532811981
 20
-49.03799796147814
 30
0.0
 11
809.3000532811982
 21
-50.79299796147779
 31
0.0
  0
TEXT
  5
30E
  8
回08-記事
  6
CONTINUOUS
 62
     7
 10
783.2577253508133
 20
-46.33937313659521
 30
0.0
 40
3.9
  1
1
  0
TEXT
  5
30F
  8
回08-記事
  6
CONTINUOUS
 62
     7
 10
782.958668291612
 20
-33.94608844977212
 30
0.0
 40
3.9
  1
2
  0
TEXT
  5
310
  8
回08-記事
  6
CONTINUOUS
 62
     7
 10
783.1064839485692
 20
-20.97043497324103
 30
0.0
 40
3.9
  1
3
  0
LINE
  5
311
  8
回08-記事
  6
CONTINUOUS
 62
     7
 10
787.0700532811979
 20
-32.46299796147787
 30
0.0
 11
807.5450532811981
 21
-32.46299796147787
 31
0.0
  0
LINE
  5
312
  8
回08-記事
  6
CONTINUOUS
 62
     7
 10
787.0700532811979
 20
-44.40674796147777
 30
0.0
 11
797.9413032811984
 21
-44.40674796147777
 31
0.0
  0
LINE
  5
313
  8
回08-記事
  6
CONTINUOUS
 62
     7
 10
807.5450532811981
 20
-56.83799796147787
 30
0.0
 11
836.0638032811984
 21
-56.83799796147787
 31
0.0
  0
TEXT
  5
314
  8
回08-記事
  6
CONTINUOUS
 62
     7
 10
808.5027157175286
 20
-31.82021424492814
 30
0.0
 40
3.412499999999998
  1
YU
  0
LINE
  5
315
  8
回08-記事
  6
CONTINUOUS
 62
     7
 10
809.5925532811984
 20
-42.1642479614777
 30
0.0
 11
811.3475532811984
 21
-45.67424796147792
 31
0.0
  0
LINE
  5
316
  8
回08-記事
  6
CONTINUOUS
 62
     7
 10
787.0700532811979
 20
-19.05674796147787
 30
0.0
 11
822.6575532811983
 21
-19.05674796147787
 31
0.0
  0
LINE
  5
317
  8
回08-記事
  6
CONTINUOUS
 62
     7
 10
836.0638032811984
 20
-56.83799796147787
 30
0.0
 11
836.0638032811984
 21
-5.650497961477639
 31
0.0
  0
TEXT
  5
318
  8
回08-記事
  6
CONTINUOUS
 62
     7
 10
787.289667231067
 20
-70.47801704658701
 30
0.0
 40
4.341093749999998
  1
PIN ASSIGNMENT
  0
TEXT
  5
319
  8
回91-枠英3
 10
846.7180480605009
 20
15.65962373832508
 30
0.0
 40
4.0
  1
1
  0
TEXT
  5
31D
  8
回91-枠英3
 10
812.043012362494
 20
52.243359568517
 30
0.0
 40
4.0
  1
F
  0
LINE
  5
31E
  8
回91-枠英3
 10
781.3136270568414
 20
56.87093644246579
 30
0.0
 11
781.3136270568414
 21
51.87093644246579
 31
0.0
  0
LINE
  5
31F
  8
回91-枠英3
 10
717.3136270568416
 20
56.87093644246579
 30
0.0
 11
717.3136270568416
 21
51.87093644246579
 31
0.0
  0
TEXT
  5
320
  8
回91-枠英3
 10
684.043012362494
 20
52.243359568517
 30
0.0
 40
4.0
  1
D
  0
TEXT
  5
321
  8
回91-枠英3
 10
748.0430123624938
 20
52.243359568517
 30
0.0
 40
4.0
  1
E
  0
LINE
  5
322
  8
回91-枠英3
 10
653.3136270568417
 20
56.87093644246579
 30
0.0
 11
653.3136270568417
 21
51.87093644246579
 31
0.0
  0
TEXT
  5
323
  8
回91-枠英3
 10
620.043012362494
 20
52.243359568517
 30
0.0
 40
4.0
  1
C
  0
LINE
  5
324
  8
回91-枠英3
 10
589.3136270568414
 20
56.87093644246579
 30
0.0
 11
589.3136270568414
 21
51.87093644246579
 31
0.0
  0
TEXT
  5
325
  8
回91-枠英3
 10
556.0430123624938
 20
52.243359568517
 30
0.0
 40
4.0
  1
B
  0
LINE
  5
326
  8
回91-枠英3
 10
525.3136270568415
 20
56.87093644246579
 30
0.0
 11
525.3136270568415
 21
51.87093644246579
 31
0.0
  0
TEXT
  5
327
  8
回91-枠英3
 10
492.0430123624938
 20
52.243359568517
 30
0.0
 40
4.0
  1
A
  0
TEXT
  5
328
  8
回91-枠英3
 10
457.7180480605007
 20
15.65962373832508
 30
0.0
 40
4.0
  1
1
  0
LINE
  5
329
  8
回91-枠英3
 10
461.3136270568414
 20
51.87093644246579
 30
0.0
 11
845.3136270568416
 21
51.87093644246579
 31
0.0
  0
LINE
  5
32A
  8
回91-枠英3
 10
850.3136270568415
 20
56.87093644246579
 30
0.0
 11
456.3136270568414
 21
56.87093644246579
 31
0.0
  0
TEXT
  5
32B
  8
回91-枠英3
 10
846.4165493571991
 20
-52.34037626167491
 30
0.0
 40
4.0
  1
2
  0
LINE
  5
32C
  8
回91-枠英3
 10
850.3136270568415
 20
-16.12906355753421
 30
0.0
 11
845.3136270568416
 21
-16.12906355753421
 31
0.0
  0
TEXT
  5
32D
  8
回91-枠英3
 10
846.4110685129982
 20
-120.3403762616749
 30
0.0
 40
4.0
  1
3
  0
LINE
  5
32E
  8
回91-枠英3
 10
850.3136270568415
 20
-84.12906355753419
 30
0.0
 11
845.3136270568416
 21
-84.12906355753419
 31
0.0
  0
TEXT
  5
32F
  8
回91-枠英3
 10
846.3379763929172
 20
-188.3403762616749
 30
0.0
 40
4.0
  1
4
  0
LINE
  5
330
  8
回91-枠英3
 10
850.3136270568415
 20
-152.1290635575342
 30
0.0
 11
845.3136270568416
 21
-152.1290635575342
 31
0.0
  0
TEXT
  5
331
  8
回91-枠英3
 10
812.043012362494
 20
-224.756640431483
 30
0.0
 40
4.0
  1
F
  0
LINE
  5
332
  8
回91-枠英3
 10
781.3136270568414
 20
-220.1290635575342
 30
0.0
 11
781.3136270568414
 21
-225.1290635575342
 31
0.0
  0
LINE
  5
333
  8
回91-枠英3
 10
717.3136270568416
 20
-220.1290635575342
 30
0.0
 11
717.3136270568416
 21
-225.1290635575342
 31
0.0
  0
TEXT
  5
334
  8
回91-枠英3
 10
684.043012362494
 20
-224.756640431483
 30
0.0
 40
4.0
  1
D
  0
TEXT
  5
335
  8
回91-枠英3
 10
748.0430123624938
 20
-224.756640431483
 30
0.0
 40
4.0
  1
E
  0
LINE
  5
336
  8
回91-枠英3
 10
653.3136270568417
 20
-220.1290635575342
 30
0.0
 11
653.3136270568417
 21
-225.1290635575342
 31
0.0
  0
TEXT
  5
337
  8
回91-枠英3
 10
620.043012362494
 20
-224.756640431483
 30
0.0
 40
4.0
  1
C
  0
LINE
  5
338
  8
回91-枠英3
 10
589.3136270568414
 20
-220.1290635575342
 30
0.0
 11
589.3136270568414
 21
-225.1290635575342
 31
0.0
  0
TEXT
  5
339
  8
回91-枠英3
 10
556.0430123624938
 20
-224.756640431483
 30
0.0
 40
4.0
  1
B
  0
LINE
  5
33A
  8
回91-枠英3
 10
461.3136270568414
 20
-16.12906355753421
 30
0.0
 11
456.3136270568414
 21
-16.12906355753421
 31
0.0
  0
TEXT
  5
33B
  8
回91-枠英3
 10
457.416549357199
 20
-52.34037626167491
 30
0.0
 40
4.0
  1
2
  0
LINE
  5
33C
  8
回91-枠英3
 10
461.3136270568414
 20
-84.12906355753419
 30
0.0
 11
456.3136270568414
 21
-84.12906355753419
 31
0.0
  0
TEXT
  5
33D
  8
回91-枠英3
 10
457.4110685129983
 20
-120.3403762616749
 30
0.0
 40
4.0
  1
3
  0
LINE
  5
33E
  8
回91-枠英3
 10
525.3136270568415
 20
-220.1290635575342
 30
0.0
 11
525.3136270568415
 21
-225.1290635575342
 31
0.0
  0
TEXT
  5
33F
  8
回91-枠英3
 10
492.0430123624938
 20
-224.756640431483
 30
0.0
 40
4.0
  1
A
  0
LINE
  5
340
  8
回91-枠英3
 10
461.3136270568414
 20
-152.1290635575342
 30
0.0
 11
456.3136270568414
 21
-152.1290635575342
 31
0.0
  0
TEXT
  5
341
  8
回91-枠英3
 10
457.337976392917
 20
-188.3403762616749
 30
0.0
 40
4.0
  1
4
  0
LINE
  5
342
  8
回91-枠英3
 10
850.3136270568415
 20
-225.1290635575342
 30
0.0
 11
456.3136270568414
 21
-225.1290635575342
 31
0.0
  0
LINE
  5
343
  8
回91-枠英3
 10
461.3136270568414
 20
-220.1290635575342
 30
0.0
 11
845.3136270568416
 21
-220.1290635575342
 31
0.0
  0
LINE
  5
344
  8
回91-枠英3
 10
456.3136270568414
 20
-225.1290635575342
 30
0.0
 11
456.3136270568414
 21
56.87093644246579
 31
0.0
  0
LINE
  5
345
  8
回91-枠英3
 10
850.3136270568415
 20
-225.1290635575342
 30
0.0
 11
850.3136270568415
 21
56.87093644246579
 31
0.0
  0
LINE
  5
346
  8
回91-枠英3
 10
461.3136270568414
 20
51.87093644246579
 30
0.0
 11
461.3136270568414
 21
-220.1290635575342
 31
0.0
  0
LINE
  5
347
  8
回91-枠英3
 10
845.3136270568416
 20
51.87093644246579
 30
0.0
 11
845.3136270568416
 21
-220.1290635575342
 31
0.0
  0
ENDSEC
  0
EOF
