  0
SECTION
  2
HEADER
  9
$ACADVER
  1
AC1009
  9
$INSBASE
 10
0.0
 20
0.0
 30
0.0
  9
$EXTMIN
 10
-283.3426783809244
 20
-184.2783036508423
 30
0.0
  9
$EXTMAX
 10
120.6573216190756
 20
97.22169634915758
 30
0.0
  9
$LIMMIN
 10
0.0
 20
0.0
  9
$LIMMAX
 10
3000.0
 20
2500.0
  9
$ORTHOMODE
 70
     0
  9
$REGENMODE
 70
     1
  9
$FILLMODE
 70
     1
  9
$QTEXTMODE
 70
     0
  9
$MIRRTEXT
 70
     1
  9
$DRAGMODE
 70
     2
  9
$LTSCALE
 40
1.0
  9
$OSMODE
 70
    37
  9
$ATTMODE
 70
     1
  9
$TEXTSIZE
 40
3.0
  9
$TRACEWID
 40
1.0
  9
$TEXTSTYLE
  7
STANDARD
  9
$CLAYER
  8
回07-寸法
  9
$CELTYPE
  6
CONTINUOUS
  9
$CECOLOR
 62
     6
  9
$DIMSCALE
 40
1.0
  9
$DIMASZ
 40
2.0
  9
$DIMEXO
 40
0.0
  9
$DIMDLI
 40
0.0
  9
$DIMRND
 40
0.0
  9
$DIMDLE
 40
0.0
  9
$DIMEXE
 40
1.0
  9
$DIMTP
 40
0.0
  9
$DIMTM
 40
0.0
  9
$DIMTXT
 40
3.0
  9
$DIMCEN
 40
2.0
  9
$DIMTSZ
 40
0.0
  9
$DIMTOL
 70
     0
  9
$DIMLIM
 70
     0
  9
$DIMTIH
 70
     0
  9
$DIMTOH
 70
     0
  9
$DIMSE1
 70
     0
  9
$DIMSE2
 70
     0
  9
$DIMTAD
 70
     3
  9
$DIMZIN
 70
     8
  9
$DIMBLK
  1
OPEN
  9
$DIMASO
 70
     1
  9
$DIMSHO
 70
     1
  9
$DIMPOST
  1

  9
$DIMAPOST
  1

  9
$DIMALT
 70
     1
  9
$DIMALTD
 70
     3
  9
$DIMALTF
 40
0.03937007874016
  9
$DIMLFAC
 40
1.0
  9
$DIMTOFL
 70
     1
  9
$DIMTVP
 40
0.0
  9
$DIMTIX
 70
     0
  9
$DIMSOXD
 70
     0
  9
$DIMSAH
 70
     0
  9
$DIMBLK1
  1

  9
$DIMBLK2
  1

  9
$DIMSTYLE
  2
DMC
  9
$DIMCLRD
 70
     5
  9
$DIMCLRE
 70
     5
  9
$DIMCLRT
 70
     5
  9
$DIMTFAC
 40
0.7
  9
$DIMGAP
 40
0.5
  9
$LUNITS
 70
     2
  9
$LUPREC
 70
     4
  9
$SKETCHINC
 40
1.0
  9
$FILLETRAD
 40
1.0
  9
$AUNITS
 70
     0
  9
$AUPREC
 70
     0
  9
$MENU
  1
.
  9
$ELEVATION
 40
0.0
  9
$PELEVATION
 40
0.0
  9
$THICKNESS
 40
0.0
  9
$LIMCHECK
 70
     0
  9
$BLIPMODE
 70
     0
  9
$CHAMFERA
 40
10.0
  9
$CHAMFERB
 40
10.0
  9
$SKPOLY
 70
     0
  9
$TDCREATE
 40
2451810.404221065
  9
$TDUPDATE
 40
2460221.412152118
  9
$TDINDWG
 40
0.844846343
  9
$TDUSRTIMER
 40
0.844843715
  9
$USRTIMER
 70
     1
  9
$ANGBASE
 50
0.0
  9
$ANGDIR
 70
     0
  9
$PDMODE
 70
     0
  9
$PDSIZE
 40
0.0
  9
$PLINEWID
 40
0.7
  9
$COORDS
 70
     0
  9
$SPLFRAME
 70
     0
  9
$SPLINETYPE
 70
     6
  9
$SPLINESEGS
 70
     8
  9
$ATTDIA
 70
     1
  9
$ATTREQ
 70
     1
  9
$HANDLING
 70
     1
  9
$HANDSEED
  5
7A3
  9
$SURFTAB1
 70
     6
  9
$SURFTAB2
 70
     6
  9
$SURFTYPE
 70
     6
  9
$SURFU
 70
     6
  9
$SURFV
 70
     6
  9
$UCSNAME
  2

  9
$UCSORG
 10
0.0
 20
0.0
 30
0.0
  9
$UCSXDIR
 10
1.0
 20
0.0
 30
0.0
  9
$UCSYDIR
 10
0.0
 20
1.0
 30
0.0
  9
$PUCSNAME
  2

  9
$PUCSORG
 10
0.0
 20
0.0
 30
0.0
  9
$PUCSXDIR
 10
1.0
 20
0.0
 30
0.0
  9
$PUCSYDIR
 10
0.0
 20
1.0
 30
0.0
  9
$USERI1
 70
     0
  9
$USERI2
 70
     0
  9
$USERI3
 70
     0
  9
$USERI4
 70
     0
  9
$USERI5
 70
     0
  9
$USERR1
 40
0.0
  9
$USERR2
 40
0.0
  9
$USERR3
 40
0.0
  9
$USERR4
 40
0.0
  9
$USERR5
 40
0.0
  9
$WORLDVIEW
 70
     1
  9
$SHADEDGE
 70
     3
  9
$SHADEDIF
 70
    70
  9
$TILEMODE
 70
     1
  9
$MAXACTVP
 70
    64
  9
$PLIMCHECK
 70
     0
  9
$PEXTMIN
 10
1.000000000000000E+20
 20
1.000000000000000E+20
 30
1.000000000000000E+20
  9
$PEXTMAX
 10
-1.000000000000000E+20
 20
-1.000000000000000E+20
 30
-1.000000000000000E+20
  9
$PLIMMIN
 10
0.0
 20
0.0
  9
$PLIMMAX
 10
420.0
 20
297.0
  9
$UNITMODE
 70
     0
  9
$VISRETAIN
 70
     1
  9
$PLINEGEN
 70
     0
  9
$PSLTSCALE
 70
     1
  0
ENDSEC
  0
SECTION
  2
TABLES
  0
TABLE
  2
VPORT
 70
     1
  0
VPORT
  2
*ACTIVE
 70
     0
 10
0.0
 20
0.0
 11
1.0
 21
1.0
 12
-104.799429678527
 22
-46.38610788579781
 13
0.0
 23
0.0
 14
10.0
 24
10.0
 15
10.0
 25
10.0
 16
0.0
 26
0.0
 36
1.0
 17
0.0
 27
0.0
 37
0.0
 40
599.4647391598768
 41
1.002570694087403
 42
50.0
 43
0.0
 44
0.0
 50
0.0
 51
0.0
 71
     0
 72
   500
 73
     1
 74
     1
 75
     0
 76
     0
 77
     0
 78
     0
  0
ENDTAB
  0
TABLE
  2
LTYPE
 70
     4
  0
LTYPE
  2
CONTINUOUS
 70
     0
  3
Solid line
 72
    65
 73
     0
 40
0.0
  0
LTYPE
  2
CENTER2
 70
     0
  3
Center (.5x) ___ _ ___ _ ___ _ ___ _ ___ _ ___
 72
    65
 73
     4
 40
28.575
 49
19.05
 49
-3.174999999999998
 49
3.174999999999998
 49
-3.174999999999998
  0
LTYPE
  2
DASHED2
 70
     0
  3
Dashed (.5x) _ _ _ _ _ _ _ _ _ _ _ _ _ _ _ _ _
 72
    65
 73
     2
 40
9.524999999999996
 49
6.349999999999997
 49
-3.174999999999998
  0
LTYPE
  2
PHANTOM2
 70
     0
  3
Phantom (.5x) ___ _ _ ___ _ _ ___ _ _ ___ _ _
 72
    65
 73
     6
 40
31.75
 49
15.875
 49
-3.174999999999998
 49
3.174999999999998
 49
-3.174999999999998
 49
3.174999999999998
 49
-3.174999999999998
  0
ENDTAB
  0
TABLE
  2
LAYER
 70
     9
  0
LAYER
  2
0
 70
     0
 62
     7
  6
CONTINUOUS
  0
LAYER
  2
DEFPOINTS
 70
     0
 62
     7
  6
CONTINUOUS
  0
LAYER
  2
回04-下接
 70
     0
 62
     7
  6
CONTINUOUS
  0
LAYER
  2
回06-TH
 70
     0
 62
     7
  6
CONTINUOUS
  0
LAYER
  2
回08-記事
 70
     0
 62
     7
  6
CONTINUOUS
  0
LAYER
  2
回07-寸法
 70
     0
 62
     7
  6
CONTINUOUS
  0
LAYER
  2
回90-枠3
 70
     0
 62
     7
  6
CONTINUOUS
  0
LAYER
  2
回05-ﾃｰﾙ
 70
     0
 62
     7
  6
CONTINUOUS
  0
LAYER
  2
回03-記事
 70
     0
 62
     7
  6
CONTINUOUS
  0
ENDTAB
  0
TABLE
  2
STYLE
 70
     2
  0
STYLE
  2
STANDARD
 70
     0
 40
3.0
 41
1.0
 50
0.0
 71
     0
 42
3.0
  3
isocp.shx
  4
bigfont.shx
  0
STYLE
  2
ANNOTATIVE
 70
     0
 40
0.0
 41
1.0
 50
0.0
 71
     0
 42
0.2
  3
txt.shx
  4

  0
ENDTAB
  0
TABLE
  2
VIEW
 70
     0
  0
ENDTAB
  0
TABLE
  2
UCS
 70
     0
  0
ENDTAB
  0
TABLE
  2
APPID
 70
     5
  0
APPID
  2
ACAD
 70
     0
  0
APPID
  2
ACADANNOTATIVE
 70
     0
  0
APPID
  2
ACAD_NAV_VCDISPLAY
 70
     0
  0
APPID
  2
ACAD_DSTYLE_DIMJAG
 70
     0
  0
APPID
  2
ACAD_DSTYLE_DIMTALN
 70
     0
  0
ENDTAB
  0
TABLE
  2
DIMSTYLE
 70
     2
  0
DIMSTYLE
  2
DMC
 70
     0
  3

  4

  5
OPEN
  6

  7

 40
1.0
 41
2.0
 42
0.0
 43
0.0
 44
1.0
 45
0.0
 46
0.0
 47
0.0
 48
0.0
140
3.0
141
2.0
142
0.0
143
0.03937007874016
144
1.0
145
0.0
146
0.7
147
0.5
 71
     0
 72
     0
 73
     0
 74
     0
 75
     0
 76
     0
 77
     3
 78
     8
170
     1
171
     3
172
     1
173
     0
174
     0
175
     0
176
     5
177
     5
178
     5
  0
DIMSTYLE
  2
ｺﾋﾟｰ_-_STANDARD
 70
     0
  3

  4

  5

  6
OPEN
  7
OPEN
 40
0.0
 41
2.0
 42
0.0
 43
0.0
 44
1.0
 45
0.0
 46
0.0
 47
0.1
 48
0.1
140
3.0
141
2.0
142
0.0
143
0.0394
144
1.0
145
0.0
146
0.7
147
0.5
 71
     0
 72
     0
 73
     0
 74
     0
 75
     0
 76
     0
 77
     3
 78
     8
170
     0
171
     4
172
     1
173
     1
174
     0
175
     0
176
     5
177
     5
178
     5
  0
ENDTAB
  0
ENDSEC
  0
SECTION
  2
BLOCKS
  0
BLOCK
  8
0
  2
$MODEL_SPACE
 70
     0
 10
0.0
 20
0.0
 30
0.0
  3
$MODEL_SPACE
  1

  0
ENDBLK
  8
0
  5
22
  0
BLOCK
 67
     1
  8
0
  2
$PAPER_SPACE
 70
     0
 10
0.0
 20
0.0
 30
0.0
  3
$PAPER_SPACE
  1

  0
ENDBLK
  5
27
 67
     1
  8
0
  0
BLOCK
  8
0
  2
_OPEN
 70
     0
 10
0.0
 20
0.0
 30
0.0
  3
_OPEN
  1

  0
LINE
  5
641
  8
0
  6
BYBLOCK
 62
     0
 10
-1.0
 20
0.166667
 30
0.0
 11
0.0
 21
0.0
 31
0.0
  0
LINE
  5
642
  8
0
  6
BYBLOCK
 62
     0
 10
-1.0
 20
-0.166667
 30
0.0
 11
0.0
 21
0.0
 31
0.0
  0
LINE
  5
643
  8
0
  6
BYBLOCK
 62
     0
 10
0.0
 20
0.0
 30
0.0
 11
-1.0
 21
0.0
 31
0.0
  0
LINE
  5
48B
  8
0
  6
BYBLOCK
 62
     0
 10
-1.0
 20
0.166667
 30
0.0
 11
0.0
 21
0.0
 31
0.0
  0
LINE
  5
48C
  8
0
  6
BYBLOCK
 62
     0
 10
-1.0
 20
-0.166667
 30
0.0
 11
0.0
 21
0.0
 31
0.0
  0
LINE
  5
48D
  8
0
  6
BYBLOCK
 62
     0
 10
0.0
 20
0.0
 30
0.0
 11
-1.0
 21
0.0
 31
0.0
  0
LINE
  5
14
  8
0
  6
CONTINUOUS
 62
     0
 10
-1.0
 20
0.1666666666666666
 30
0.0
 11
0.0
 21
0.0
 31
0.0
  0
LINE
  5
15
  8
0
  6
CONTINUOUS
 62
     0
 10
-1.0
 20
-0.1666666666666666
 30
0.0
 11
0.0
 21
0.0
 31
0.0
  0
LINE
  5
16
  8
0
  6
CONTINUOUS
 62
     0
 10
0.0
 20
0.0
 30
0.0
 11
-1.0
 21
0.0
 31
0.0
  0
ENDBLK
  5
17
  8
0
  0
BLOCK
  8
0
  2
*D111
 70
     1
 10
0.0
 20
0.0
 30
0.0
  3
*D111
  1

  0
LINE
  5
2D0
  8
回08-記事
  6
CONTINUOUS
 62
     5
 10
-18.42461643492106
 20
-87.09989293549226
 30
0.0
 11
-18.42461643492106
 21
-96.73647925272227
 31
0.0
  0
LINE
  5
2D1
  8
回08-記事
  6
CONTINUOUS
 62
     5
 10
-13.42461643492106
 20
-87.3998929354922
 30
0.0
 11
-13.42461643492106
 21
-96.73647925272227
 31
0.0
  0
LINE
  5
2D2
  8
回08-記事
  6
CONTINUOUS
 62
     5
 10
-20.42461643492107
 20
-95.73647925272226
 30
0.0
 11
-22.42461643492106
 21
-95.73647925272226
 31
0.0
  0
LINE
  5
2D3
  8
回08-記事
  6
CONTINUOUS
 62
     5
 10
-11.42461643492106
 20
-95.73647925272226
 30
0.0
 11
19.57566156507894
 21
-95.73647925272226
 31
0.0
  0
LINE
  5
2D4
  8
回08-記事
  6
CONTINUOUS
 62
     5
 10
-18.42461643492106
 20
-95.73647925272226
 30
0.0
 11
-13.42461643492106
 21
-95.73647925272226
 31
0.0
  0
INSERT
  5
2D5
  8
回08-記事
  6
CONTINUOUS
 62
     5
  2
_OPEN
 10
-18.42461643492106
 20
-95.73647925272226
 30
0.0
 41
2.0
 42
2.0
 43
2.0
  0
INSERT
  5
2D6
  8
回08-記事
  6
CONTINUOUS
 62
     5
  2
_OPEN
 10
-13.42461643492106
 20
-95.73647925272226
 30
0.0
 41
2.0
 42
2.0
 43
2.0
 50
180.0
  0
INSERT
  5
2D7
  8
回08-記事
  6
CONTINUOUS
 62
     5
 66
     1
  2
*X464646
 10
0.0
 20
0.0
 30
0.0
  0
SEQEND
  5
3ED
  8
回07-寸法
  6
CONTINUOUS
 62
     6
  0
POINT
  5
2D8
  8
DEFPOINTS
  6
CONTINUOUS
 62
     0
 10
-18.42461643492106
 20
-87.09989293549226
 30
0.0
  0
POINT
  5
2D9
  8
DEFPOINTS
  6
CONTINUOUS
 62
     0
 10
-13.42461643492106
 20
-87.3998929354922
 30
0.0
  0
POINT
  5
2DA
  8
DEFPOINTS
  6
CONTINUOUS
 62
     0
 10
-13.42461643492106
 20
-95.73647925272226
 30
0.0
  0
ENDBLK
  5
2DB
  8
0
 62
    30
  0
BLOCK
  8
0
  2
*D222
 70
     1
 10
0.0
 20
0.0
 30
0.0
  3
*D222
  1

  0
LINE
  5
2C1
  8
回08-記事
  6
CONTINUOUS
 62
     5
 10
-14.72461643492114
 20
54.00010706450807
 30
0.0
 11
-2.032321260989672
 21
54.00010706450807
 31
0.0
  0
LINE
  5
2C2
  8
回08-記事
  6
CONTINUOUS
 62
     5
 10
-14.72461643492114
 20
44.000107064508
 30
0.0
 11
-2.032321260989668
 21
44.000107064508
 31
0.0
  0
LINE
  5
2C3
  8
回08-記事
  6
CONTINUOUS
 62
     5
 10
-3.032321260989672
 20
56.00010706450806
 30
0.0
 11
-3.032321260989672
 21
58.00010706450805
 31
0.0
  0
LINE
  5
2C4
  8
回08-記事
  6
CONTINUOUS
 62
     5
 10
-3.032321260989669
 20
42.00010706450799
 30
0.0
 11
-3.032321260989669
 21
20.09198627774961
 31
0.0
  0
LINE
  5
2C5
  8
回08-記事
  6
CONTINUOUS
 62
     5
 10
-3.032321260989671
 20
54.00010706450807
 30
0.0
 11
-3.032321260989671
 21
44.000107064508
 31
0.0
  0
INSERT
  5
2C6
  8
回08-記事
  6
CONTINUOUS
 62
     5
  2
_OPEN
 10
-3.032321260989671
 20
54.00010706450807
 30
0.0
 41
2.0
 42
2.0
 43
2.0
 50
270.0
  0
INSERT
  5
2C7
  8
回08-記事
  6
CONTINUOUS
 62
     5
  2
_OPEN
 10
-3.032321260989669
 20
44.000107064508
 30
0.0
 41
2.0
 42
2.0
 43
2.0
 50
90.0
  0
TEXT
  5
2C8
  8
回08-記事
  6
CONTINUOUS
 62
     5
 10
-3.682261354887341
 20
20.14063111833833
 30
0.0
 40
3.0
  1
(10 [0.394])
 50
90.0
1001
ACAD
1000
MTEXTBEGIN
1070
    73
1070
     1
1070
    44
1040
1.0
1070
    74
1070
     0
1000
MTEXTEND
  0
POINT
  5
2C9
  8
DEFPOINTS
  6
CONTINUOUS
 62
     0
 10
-14.72461643492114
 20
54.00010706450807
 30
0.0
  0
POINT
  5
2CA
  8
DEFPOINTS
  6
CONTINUOUS
 62
     0
 10
-14.72461643492114
 20
44.000107064508
 30
0.0
  0
POINT
  5
2CB
  8
DEFPOINTS
  6
CONTINUOUS
 62
     0
 10
-3.032321260989669
 20
44.000107064508
 30
0.0
  0
ENDBLK
  5
2CC
  8
0
 62
    30
  0
BLOCK
  8
0
  2
*D333
 70
     1
 10
0.0
 20
0.0
 30
0.0
  3
*D333
  1

  0
LINE
  5
2B2
  8
回08-記事
  6
CONTINUOUS
 62
     5
 10
-17.42461643492107
 20
49.00010706450807
 30
0.0
 11
-22.27041267020879
 21
49.00010706450807
 31
0.0
  0
LINE
  5
2B3
  8
回08-記事
  6
CONTINUOUS
 62
     5
 10
-16.92461643492107
 20
54.00010706450807
 30
0.0
 11
-22.27041267020879
 21
54.00010706450807
 31
0.0
  0
LINE
  5
2B4
  8
回08-記事
  6
CONTINUOUS
 62
     5
 10
-21.27041267020879
 20
56.00010706450806
 30
0.0
 11
-21.27041267020879
 21
58.00010706450805
 31
0.0
  0
LINE
  5
2B5
  8
回08-記事
  6
CONTINUOUS
 62
     5
 10
-21.27041267020879
 20
47.00010706450805
 30
0.0
 11
-21.27041267020879
 21
29.88962407302523
 31
0.0
  0
LINE
  5
2B6
  8
回08-記事
  6
CONTINUOUS
 62
     5
 10
-21.27041267020879
 20
54.00010706450807
 30
0.0
 11
-21.27041267020879
 21
49.00010706450807
 31
0.0
  0
INSERT
  5
2B7
  8
回08-記事
  6
CONTINUOUS
 62
     5
  2
_OPEN
 10
-21.27041267020879
 20
54.00010706450807
 30
0.0
 41
2.0
 42
2.0
 43
2.0
 50
270.0
  0
INSERT
  5
2B8
  8
回08-記事
  6
CONTINUOUS
 62
     5
  2
_OPEN
 10
-21.27041267020879
 20
49.00010706450807
 30
0.0
 41
2.0
 42
2.0
 43
2.0
 50
90.0
  0
TEXT
  5
2B9
  8
回08-記事
  6
CONTINUOUS
 62
     5
 10
-21.92035276410646
 20
29.93945001597617
 30
0.0
 40
3.0
  1
5 [0.197]
 50
90.0
1001
ACAD
1000
MTEXTBEGIN
1070
    73
1070
     1
1070
    44
1040
1.0
1070
    74
1070
     0
1000
MTEXTEND
  0
POINT
  5
2BA
  8
DEFPOINTS
  6
CONTINUOUS
 62
     0
 10
-17.42461643492107
 20
49.00010706450807
 30
0.0
  0
POINT
  5
2BB
  8
DEFPOINTS
  6
CONTINUOUS
 62
     0
 10
-16.92461643492107
 20
54.00010706450807
 30
0.0
  0
POINT
  5
2BC
  8
DEFPOINTS
  6
CONTINUOUS
 62
     0
 10
-21.27041267020879
 20
54.00010706450807
 30
0.0
  0
ENDBLK
  5
2BD
  8
0
 62
    30
  0
BLOCK
  8
0
  2
*D444
 70
     1
 10
0.0
 20
0.0
 30
0.0
  3
*D444
  1

  0
LINE
  5
2A3
  8
回08-記事
  6
CONTINUOUS
 62
     5
 10
-16.92461643492106
 20
54.00010706450803
 30
0.0
 11
-16.92461643492106
 21
62.12448008391483
 31
0.0
  0
LINE
  5
2A4
  8
回08-記事
  6
CONTINUOUS
 62
     5
 10
-14.72461643492113
 20
54.00010706450803
 30
0.0
 11
-14.72461643492113
 21
62.12448008391483
 31
0.0
  0
LINE
  5
2A5
  8
回08-記事
  6
CONTINUOUS
 62
     5
 10
-18.92461643492106
 20
61.12448008391481
 30
0.0
 11
-20.92461643492106
 21
61.12448008391481
 31
0.0
  0
LINE
  5
2A6
  8
回08-記事
  6
CONTINUOUS
 62
     5
 10
-12.72461643492113
 20
61.12448008391481
 30
0.0
 11
19.37809376980328
 21
61.12448008391481
 31
0.0
  0
LINE
  5
2A7
  8
回08-記事
  6
CONTINUOUS
 62
     5
 10
-16.92461643492106
 20
61.12448008391481
 30
0.0
 11
-14.72461643492113
 21
61.12448008391481
 31
0.0
  0
INSERT
  5
2A8
  8
回08-記事
  6
CONTINUOUS
 62
     5
  2
_OPEN
 10
-16.92461643492106
 20
61.12448008391481
 30
0.0
 41
2.0
 42
2.0
 43
2.0
  0
INSERT
  5
2A9
  8
回08-記事
  6
CONTINUOUS
 62
     5
  2
_OPEN
 10
-14.72461643492113
 20
61.12448008391481
 30
0.0
 41
2.0
 42
2.0
 43
2.0
 50
180.0
  0
INSERT
  5
2AA
  8
回08-記事
  6
CONTINUOUS
 62
     5
 66
     1
  2
*X474747
 10
0.0
 20
0.0
 30
0.0
  0
SEQEND
  5
3F6
  8
回07-寸法
  6
CONTINUOUS
 62
     6
  0
POINT
  5
2AB
  8
DEFPOINTS
  6
CONTINUOUS
 62
     0
 10
-16.92461643492106
 20
54.00010706450803
 30
0.0
  0
POINT
  5
2AC
  8
DEFPOINTS
  6
CONTINUOUS
 62
     0
 10
-14.72461643492113
 20
54.00010706450803
 30
0.0
  0
POINT
  5
2AD
  8
DEFPOINTS
  6
CONTINUOUS
 62
     0
 10
-14.72461643492113
 20
61.12448008391481
 30
0.0
  0
ENDBLK
  5
2AE
  8
0
 62
    30
  0
BLOCK
  8
0
  2
*D555
 70
     1
 10
0.0
 20
0.0
 30
0.0
  3
*D555
  1

  0
LINE
  5
262
  8
回07-寸法
  6
CONTINUOUS
 62
     5
 10
-82.760256723499
 20
-83.7998929354922
 30
0.0
 11
-76.01122681457448
 21
-83.7998929354922
 31
0.0
  0
LINE
  5
263
  8
回07-寸法
  6
CONTINUOUS
 62
     5
 10
-82.760256723499
 20
-87.3998929354922
 30
0.0
 11
-76.01122681457448
 21
-87.3998929354922
 31
0.0
  0
LINE
  5
264
  8
回07-寸法
  6
CONTINUOUS
 62
     5
 10
-77.01122681457448
 20
-81.79989293549219
 30
0.0
 11
-77.01122681457448
 21
-79.7998929354922
 31
0.0
  0
LINE
  5
265
  8
回07-寸法
  6
CONTINUOUS
 62
     5
 10
-77.01122681457448
 20
-89.39989293549221
 30
0.0
 11
-77.01122681457448
 21
-112.1975307307678
 31
0.0
  0
LINE
  5
266
  8
回07-寸法
  6
CONTINUOUS
 62
     5
 10
-77.01122681457448
 20
-83.7998929354922
 30
0.0
 11
-77.01122681457448
 21
-87.3998929354922
 31
0.0
  0
INSERT
  5
267
  8
回07-寸法
  6
CONTINUOUS
 62
     5
  2
_OPEN
 10
-77.01122681457448
 20
-83.7998929354922
 30
0.0
 41
2.0
 42
2.0
 43
2.0
 50
270.0
  0
INSERT
  5
268
  8
回07-寸法
  6
CONTINUOUS
 62
     5
  2
_OPEN
 10
-77.01122681457448
 20
-87.3998929354922
 30
0.0
 41
2.0
 42
2.0
 43
2.0
 50
90.0
  0
TEXT
  5
269
  8
回07-寸法
  6
CONTINUOUS
 62
     5
 10
-77.66122681457447
 20
-112.1487118331299
 30
0.0
 40
3.0
  1
(3.6 [0.142])
 50
90.0
1001
ACAD
1000
MTEXTBEGIN
1070
    73
1070
     1
1070
    44
1040
1.0
1070
    74
1070
     0
1000
MTEXTEND
  0
POINT
  5
26A
  8
DEFPOINTS
  6
CONTINUOUS
 62
     0
 10
-82.760256723499
 20
-83.7998929354922
 30
0.0
  0
POINT
  5
26B
  8
DEFPOINTS
  6
CONTINUOUS
 62
     0
 10
-82.760256723499
 20
-87.3998929354922
 30
0.0
  0
POINT
  5
26C
  8
DEFPOINTS
  6
CONTINUOUS
 62
     0
 10
-77.01122681457448
 20
-87.3998929354922
 30
0.0
  0
ENDBLK
  5
26D
  8
0
 62
    30
  0
BLOCK
  8
0
  2
*D666
 70
     1
 10
0.0
 20
0.0
 30
0.0
  3
*D666
  1

  0
LINE
  5
253
  8
回07-寸法
  6
CONTINUOUS
 62
     5
 10
-82.760256723499
 20
-83.7998929354922
 30
0.0
 11
-70.15138655976262
 21
-83.7998929354922
 31
0.0
  0
LINE
  5
254
  8
回07-寸法
  6
CONTINUOUS
 62
     5
 10
-82.760256723499
 20
-81.79989293549219
 30
0.0
 11
-70.15138655976262
 21
-81.79989293549219
 31
0.0
  0
LINE
  5
255
  8
回07-寸法
  6
CONTINUOUS
 62
     5
 10
-71.15138655976261
 20
-85.79989293549219
 30
0.0
 11
-71.15138655976261
 21
-87.7998929354922
 31
0.0
  0
LINE
  5
256
  8
回07-寸法
  6
CONTINUOUS
 62
     5
 10
-71.15138655976261
 20
-79.7998929354922
 30
0.0
 11
-71.15138655976261
 21
-59.69177214873379
 31
0.0
  0
LINE
  5
257
  8
回07-寸法
  6
CONTINUOUS
 62
     5
 10
-71.15138655976261
 20
-83.7998929354922
 30
0.0
 11
-71.15138655976261
 21
-81.79989293549219
 31
0.0
  0
INSERT
  5
258
  8
回07-寸法
  6
CONTINUOUS
 62
     5
  2
_OPEN
 10
-71.15138655976261
 20
-83.7998929354922
 30
0.0
 41
2.0
 42
2.0
 43
2.0
 50
90.0
  0
INSERT
  5
259
  8
回07-寸法
  6
CONTINUOUS
 62
     5
  2
_OPEN
 10
-71.15138655976261
 20
-81.79989293549219
 30
0.0
 41
2.0
 42
2.0
 43
2.0
 50
270.0
  0
TEXT
  5
25A
  8
回07-寸法
  6
CONTINUOUS
 62
     5
 10
-71.80132665366031
 20
-77.75124809490344
 30
0.0
 40
3.0
  1
(2 [0.079])
 50
90.0
1001
ACAD
1000
MTEXTBEGIN
1070
    73
1070
     1
1070
    44
1040
1.0
1070
    74
1070
     0
1000
MTEXTEND
  0
POINT
  5
25B
  8
DEFPOINTS
  6
CONTINUOUS
 62
     0
 10
-82.760256723499
 20
-83.7998929354922
 30
0.0
  0
POINT
  5
25C
  8
DEFPOINTS
  6
CONTINUOUS
 62
     0
 10
-82.760256723499
 20
-81.79989293549219
 30
0.0
  0
POINT
  5
25D
  8
DEFPOINTS
  6
CONTINUOUS
 62
     0
 10
-71.15138655976261
 20
-81.79989293549219
 30
0.0
  0
ENDBLK
  5
25E
  8
0
 62
    30
  0
BLOCK
  8
0
  2
*D777
 70
     1
 10
0.0
 20
0.0
 30
0.0
  3
*D777
  1

  0
LINE
  5
246
  8
回07-寸法
  6
CONTINUOUS
 62
     5
 10
-87.16025672349896
 20
-82.79989293549219
 30
0.0
 11
-87.16025672349896
 21
-103.1269980827927
 31
0.0
  0
LINE
  5
247
  8
回07-寸法
  6
CONTINUOUS
 62
     5
 10
-236.960256723499
 20
-82.79989293549219
 30
0.0
 11
-236.960256723499
 21
-103.1269980827927
 31
0.0
  0
LINE
  5
248
  8
回07-寸法
  6
CONTINUOUS
 62
     5
 10
-89.16025672349894
 20
-102.1269980827927
 30
0.0
 11
-234.960256723499
 21
-102.1269980827927
 31
0.0
  0
INSERT
  5
249
  8
回07-寸法
  6
CONTINUOUS
 62
     5
  2
_OPEN
 10
-87.16025672349896
 20
-102.1269980827927
 30
0.0
 41
2.0
 42
2.0
 43
2.0
  0
INSERT
  5
24A
  8
回07-寸法
  6
CONTINUOUS
 62
     5
  2
_OPEN
 10
-236.960256723499
 20
-102.1269980827927
 30
0.0
 41
2.0
 42
2.0
 43
2.0
 50
180.0
  0
TEXT
  5
24B
  8
回07-寸法
  6
CONTINUOUS
 62
     5
 10
-187.7204972778987
 20
-101.477057988895
 30
0.0
 40
3.0
  1
149.8 [5.898] (ACTIVE AREA)
1001
ACAD
1000
MTEXTBEGIN
1070
    73
1070
     1
1070
    44
1040
1.0
1070
    74
1070
     0
1000
MTEXTEND
  0
POINT
  5
24C
  8
DEFPOINTS
  6
CONTINUOUS
 62
     0
 10
-87.16025672349896
 20
-82.79989293549219
 30
0.0
  0
POINT
  5
24D
  8
DEFPOINTS
  6
CONTINUOUS
 62
     0
 10
-236.960256723499
 20
-82.79989293549219
 30
0.0
  0
POINT
  5
24E
  8
DEFPOINTS
  6
CONTINUOUS
 62
     0
 10
-236.960256723499
 20
-102.1269980827927
 30
0.0
  0
ENDBLK
  5
24F
  8
0
 62
    30
  0
BLOCK
  8
0
  2
*D888
 70
     1
 10
0.0
 20
0.0
 30
0.0
  3
*D888
  1

  0
LINE
  5
239
  8
回07-寸法
  6
CONTINUOUS
 62
     5
 10
-86.16025672349897
 20
-83.7998929354922
 30
0.0
 11
-86.16025672349897
 21
-110.3216932016523
 31
0.0
  0
LINE
  5
23A
  8
回07-寸法
  6
CONTINUOUS
 62
     5
 10
-237.9602567234989
 20
-83.7998929354922
 30
0.0
 11
-237.9602567234989
 21
-110.3216932016523
 31
0.0
  0
LINE
  5
23B
  8
回07-寸法
  6
CONTINUOUS
 62
     5
 10
-88.16025672349892
 20
-109.3216932016523
 30
0.0
 11
-235.960256723499
 21
-109.3216932016523
 31
0.0
  0
INSERT
  5
23C
  8
回07-寸法
  6
CONTINUOUS
 62
     5
  2
_OPEN
 10
-86.16025672349897
 20
-109.3216932016523
 30
0.0
 41
2.0
 42
2.0
 43
2.0
  0
INSERT
  5
23D
  8
回07-寸法
  6
CONTINUOUS
 62
     5
  2
_OPEN
 10
-237.9602567234989
 20
-109.3216932016523
 30
0.0
 41
2.0
 42
2.0
 43
2.0
 50
180.0
  0
TEXT
  5
23E
  8
回07-寸法
  6
CONTINUOUS
 62
     5
 10
-188.1650817251083
 20
-108.6717531077546
 30
0.0
 40
3.0
  1
151.8 [5.976] (VIEWING AREA)
1001
ACAD
1000
MTEXTBEGIN
1070
    73
1070
     1
1070
    44
1040
1.0
1070
    74
1070
     0
1000
MTEXTEND
  0
POINT
  5
23F
  8
DEFPOINTS
  6
CONTINUOUS
 62
     0
 10
-86.16025672349897
 20
-83.7998929354922
 30
0.0
  0
POINT
  5
240
  8
DEFPOINTS
  6
CONTINUOUS
 62
     0
 10
-237.9602567234989
 20
-83.7998929354922
 30
0.0
  0
POINT
  5
241
  8
DEFPOINTS
  6
CONTINUOUS
 62
     0
 10
-237.9602567234989
 20
-109.3216932016523
 30
0.0
  0
ENDBLK
  5
242
  8
0
 62
    30
  0
BLOCK
  8
0
  2
*D999
 70
     1
 10
0.0
 20
0.0
 30
0.0
  3
*D999
  1

  0
LINE
  5
22C
  8
回07-寸法
  6
CONTINUOUS
 62
     5
 10
-82.76025672349897
 20
-87.3998929354922
 30
0.0
 11
-82.76025672349897
 21
-121.8215349889409
 31
0.0
  0
LINE
  5
22D
  8
回07-寸法
  6
CONTINUOUS
 62
     5
 10
-245.760256723499
 20
-87.3998929354922
 30
0.0
 11
-245.760256723499
 21
-121.8215349889409
 31
0.0
  0
LINE
  5
22E
  8
回07-寸法
  6
CONTINUOUS
 62
     5
 10
-84.76025672349896
 20
-120.8215349889409
 30
0.0
 11
-243.760256723499
 21
-120.8215349889409
 31
0.0
  0
INSERT
  5
22F
  8
回07-寸法
  6
CONTINUOUS
 62
     5
  2
_OPEN
 10
-82.76025672349897
 20
-120.8215349889409
 30
0.0
 41
2.0
 42
2.0
 43
2.0
  0
INSERT
  5
230
  8
回07-寸法
  6
CONTINUOUS
 62
     5
  2
_OPEN
 10
-245.760256723499
 20
-120.8215349889409
 30
0.0
 41
2.0
 42
2.0
 43
2.0
 50
180.0
  0
INSERT
  5
231
  8
回07-寸法
  6
CONTINUOUS
 62
     5
 66
     1
  2
*X484848
 10
0.0
 20
0.0
 30
0.0
  0
SEQEND
  5
3FF
  8
回07-寸法
  6
CONTINUOUS
 62
     6
  0
POINT
  5
232
  8
DEFPOINTS
  6
CONTINUOUS
 62
     0
 10
-82.76025672349897
 20
-87.3998929354922
 30
0.0
  0
POINT
  5
233
  8
DEFPOINTS
  6
CONTINUOUS
 62
     0
 10
-245.760256723499
 20
-87.3998929354922
 30
0.0
  0
POINT
  5
234
  8
DEFPOINTS
  6
CONTINUOUS
 62
     0
 10
-245.760256723499
 20
-120.8215349889409
 30
0.0
  0
ENDBLK
  5
235
  8
0
 62
    30
  0
BLOCK
  8
0
  2
*D101010
 70
     1
 10
0.0
 20
0.0
 30
0.0
  3
*D101010
  1

  0
LINE
  5
21D
  8
回07-寸法
  6
CONTINUOUS
 62
     5
 10
-236.960256723499
 20
-82.79989293549219
 30
0.0
 11
-236.960256723499
 21
-103.1269980827927
 31
0.0
  0
LINE
  5
21E
  8
回07-寸法
  6
CONTINUOUS
 62
     5
 10
-245.760256723499
 20
-87.3998929354922
 30
0.0
 11
-245.760256723499
 21
-103.1269980827927
 31
0.0
  0
LINE
  5
21F
  8
回07-寸法
  6
CONTINUOUS
 62
     5
 10
-234.960256723499
 20
-102.1269980827927
 30
0.0
 11
-232.960256723499
 21
-102.1269980827927
 31
0.0
  0
LINE
  5
220
  8
回07-寸法
  6
CONTINUOUS
 62
     5
 10
-247.760256723499
 20
-102.1269980827927
 30
0.0
 11
-268.760256723499
 21
-102.1269980827927
 31
0.0
  0
LINE
  5
221
  8
回07-寸法
  6
CONTINUOUS
 62
     5
 10
-236.960256723499
 20
-102.1269980827927
 30
0.0
 11
-245.760256723499
 21
-102.1269980827927
 31
0.0
  0
INSERT
  5
222
  8
回07-寸法
  6
CONTINUOUS
 62
     5
  2
_OPEN
 10
-236.960256723499
 20
-102.1269980827927
 30
0.0
 41
2.0
 42
2.0
 43
2.0
 50
180.0
  0
INSERT
  5
223
  8
回07-寸法
  6
CONTINUOUS
 62
     5
  2
_OPEN
 10
-245.760256723499
 20
-102.1269980827927
 30
0.0
 41
2.0
 42
2.0
 43
2.0
  0
TEXT
  5
224
  8
回07-寸法
  6
CONTINUOUS
 62
     5
 10
-268.7102567234989
 20
-101.4769980827927
 30
0.0
 40
3.0
  1
8.8 [0.346]
1001
ACAD
1000
MTEXTBEGIN
1070
    73
1070
     1
1070
    44
1040
1.0
1070
    74
1070
     0
1000
MTEXTEND
  0
POINT
  5
225
  8
DEFPOINTS
  6
CONTINUOUS
 62
     0
 10
-236.960256723499
 20
-82.79989293549219
 30
0.0
  0
POINT
  5
226
  8
DEFPOINTS
  6
CONTINUOUS
 62
     0
 10
-245.760256723499
 20
-87.3998929354922
 30
0.0
  0
POINT
  5
227
  8
DEFPOINTS
  6
CONTINUOUS
 62
     0
 10
-245.760256723499
 20
-102.1269980827927
 30
0.0
  0
ENDBLK
  5
228
  8
0
 62
    30
  0
BLOCK
  8
0
  2
*D111111
 70
     1
 10
0.0
 20
0.0
 30
0.0
  3
*D111111
  1

  0
LINE
  5
20E
  8
回07-寸法
  6
CONTINUOUS
 62
     5
 10
-237.9602567234989
 20
-83.7998929354922
 30
0.0
 11
-237.9602567234989
 21
-110.3216932016523
 31
0.0
  0
LINE
  5
20F
  8
回07-寸法
  6
CONTINUOUS
 62
     5
 10
-245.760256723499
 20
-87.3998929354922
 30
0.0
 11
-245.760256723499
 21
-110.3216932016523
 31
0.0
  0
LINE
  5
210
  8
回07-寸法
  6
CONTINUOUS
 62
     5
 10
-235.960256723499
 20
-109.3216932016523
 30
0.0
 11
-233.960256723499
 21
-109.3216932016523
 31
0.0
  0
LINE
  5
211
  8
回07-寸法
  6
CONTINUOUS
 62
     5
 10
-247.760256723499
 20
-109.3216932016523
 30
0.0
 11
-268.460256723499
 21
-109.3216932016523
 31
0.0
  0
LINE
  5
212
  8
回07-寸法
  6
CONTINUOUS
 62
     5
 10
-237.9602567234989
 20
-109.3216932016523
 30
0.0
 11
-245.760256723499
 21
-109.3216932016523
 31
0.0
  0
INSERT
  5
213
  8
回07-寸法
  6
CONTINUOUS
 62
     5
  2
_OPEN
 10
-237.9602567234989
 20
-109.3216932016523
 30
0.0
 41
2.0
 42
2.0
 43
2.0
 50
180.0
  0
INSERT
  5
214
  8
回07-寸法
  6
CONTINUOUS
 62
     5
  2
_OPEN
 10
-245.760256723499
 20
-109.3216932016523
 30
0.0
 41
2.0
 42
2.0
 43
2.0
  0
TEXT
  5
215
  8
回07-寸法
  6
CONTINUOUS
 62
     5
 10
-268.410256723499
 20
-108.6716932016523
 30
0.0
 40
3.0
  1
7.8 [0.307]
1001
ACAD
1000
MTEXTBEGIN
1070
    73
1070
     1
1070
    44
1040
1.0
1070
    74
1070
     0
1000
MTEXTEND
  0
POINT
  5
216
  8
DEFPOINTS
  6
CONTINUOUS
 62
     0
 10
-237.9602567234989
 20
-83.7998929354922
 30
0.0
  0
POINT
  5
217
  8
DEFPOINTS
  6
CONTINUOUS
 62
     0
 10
-245.760256723499
 20
-87.3998929354922
 30
0.0
  0
POINT
  5
218
  8
DEFPOINTS
  6
CONTINUOUS
 62
     0
 10
-245.760256723499
 20
-109.3216932016523
 30
0.0
  0
ENDBLK
  5
219
  8
0
 62
    30
  0
BLOCK
  8
0
  2
*D121212
 70
     1
 10
0.0
 20
0.0
 30
0.0
  3
*D121212
  1

  0
LINE
  5
1FF
  8
回07-寸法
  6
CONTINUOUS
 62
     5
 10
-87.16025672349898
 20
-82.79989293549219
 30
0.0
 11
-55.06541365933122
 21
-82.79989293549219
 31
0.0
  0
LINE
  5
200
  8
回07-寸法
  6
CONTINUOUS
 62
     5
 10
-82.760256723499
 20
-87.3998929354922
 30
0.0
 11
-55.06541365933122
 21
-87.3998929354922
 31
0.0
  0
LINE
  5
201
  8
回07-寸法
  6
CONTINUOUS
 62
     5
 10
-56.06541365933122
 20
-80.79989293549219
 30
0.0
 11
-56.06541365933122
 21
-78.79989293549219
 31
0.0
  0
LINE
  5
202
  8
回07-寸法
  6
CONTINUOUS
 62
     5
 10
-56.06541365933122
 20
-89.39989293549221
 30
0.0
 11
-56.06541365933122
 21
-109.1998929354922
 31
0.0
  0
LINE
  5
203
  8
回07-寸法
  6
CONTINUOUS
 62
     5
 10
-56.06541365933122
 20
-82.79989293549219
 30
0.0
 11
-56.06541365933122
 21
-87.3998929354922
 31
0.0
  0
INSERT
  5
204
  8
回07-寸法
  6
CONTINUOUS
 62
     5
  2
_OPEN
 10
-56.06541365933122
 20
-82.79989293549219
 30
0.0
 41
2.0
 42
2.0
 43
2.0
 50
270.0
  0
INSERT
  5
205
  8
回07-寸法
  6
CONTINUOUS
 62
     5
  2
_OPEN
 10
-56.06541365933122
 20
-87.3998929354922
 30
0.0
 41
2.0
 42
2.0
 43
2.0
 50
90.0
  0
TEXT
  5
206
  8
回07-寸法
  6
CONTINUOUS
 62
     5
 10
-56.71541365933125
 20
-109.1498929354921
 30
0.0
 40
3.0
  1
4.6 [0.181]
 50
90.0
1001
ACAD
1000
MTEXTBEGIN
1070
    73
1070
     1
1070
    44
1040
1.0
1070
    74
1070
     0
1000
MTEXTEND
  0
POINT
  5
207
  8
DEFPOINTS
  6
CONTINUOUS
 62
     0
 10
-87.16025672349898
 20
-82.79989293549219
 30
0.0
  0
POINT
  5
208
  8
DEFPOINTS
  6
CONTINUOUS
 62
     0
 10
-82.760256723499
 20
-87.3998929354922
 30
0.0
  0
POINT
  5
209
  8
DEFPOINTS
  6
CONTINUOUS
 62
     0
 10
-56.06541365933122
 20
-87.3998929354922
 30
0.0
  0
ENDBLK
  5
20A
  8
0
 62
    30
  0
BLOCK
  8
0
  2
*D131313
 70
     1
 10
0.0
 20
0.0
 30
0.0
  3
*D131313
  1

  0
LINE
  5
1F0
  8
回07-寸法
  6
CONTINUOUS
 62
     5
 10
-86.16025672349897
 20
-83.7998929354922
 30
0.0
 11
-48.48049962460055
 21
-83.7998929354922
 31
0.0
  0
LINE
  5
1F1
  8
回07-寸法
  6
CONTINUOUS
 62
     5
 10
-82.760256723499
 20
-87.3998929354922
 30
0.0
 11
-48.48049962460055
 21
-87.3998929354922
 31
0.0
  0
LINE
  5
1F2
  8
回07-寸法
  6
CONTINUOUS
 62
     5
 10
-49.48049962460054
 20
-81.79989293549219
 30
0.0
 11
-49.48049962460054
 21
-79.7998929354922
 31
0.0
  0
LINE
  5
1F3
  8
回07-寸法
  6
CONTINUOUS
 62
     5
 10
-49.48049962460054
 20
-89.39989293549221
 30
0.0
 11
-49.48049962460054
 21
-109.7998929354922
 31
0.0
  0
LINE
  5
1F4
  8
回07-寸法
  6
CONTINUOUS
 62
     5
 10
-49.48049962460054
 20
-83.7998929354922
 30
0.0
 11
-49.48049962460054
 21
-87.3998929354922
 31
0.0
  0
INSERT
  5
1F5
  8
回07-寸法
  6
CONTINUOUS
 62
     5
  2
_OPEN
 10
-49.48049962460054
 20
-83.7998929354922
 30
0.0
 41
2.0
 42
2.0
 43
2.0
 50
270.0
  0
INSERT
  5
1F6
  8
回07-寸法
  6
CONTINUOUS
 62
     5
  2
_OPEN
 10
-49.48049962460054
 20
-87.3998929354922
 30
0.0
 41
2.0
 42
2.0
 43
2.0
 50
90.0
  0
TEXT
  5
1F7
  8
回07-寸法
  6
CONTINUOUS
 62
     5
 10
-50.13049962460057
 20
-109.7498929354921
 30
0.0
 40
3.0
  1
3.6 [0.142]
 50
90.0
1001
ACAD
1000
MTEXTBEGIN
1070
    73
1070
     1
1070
    44
1040
1.0
1070
    74
1070
     0
1000
MTEXTEND
  0
POINT
  5
1F8
  8
DEFPOINTS
  6
CONTINUOUS
 62
     0
 10
-86.16025672349897
 20
-83.7998929354922
 30
0.0
  0
POINT
  5
1F9
  8
DEFPOINTS
  6
CONTINUOUS
 62
     0
 10
-82.760256723499
 20
-87.3998929354922
 30
0.0
  0
POINT
  5
1FA
  8
DEFPOINTS
  6
CONTINUOUS
 62
     0
 10
-49.48049962460054
 20
-87.3998929354922
 30
0.0
  0
ENDBLK
  5
1FB
  8
0
 62
    30
  0
BLOCK
  8
0
  2
*D141414
 70
     1
 10
0.0
 20
0.0
 30
0.0
  3
*D141414
  1

  0
LINE
  5
1E3
  8
回07-寸法
  6
CONTINUOUS
 62
     5
 10
-87.16025672349898
 20
-82.79989293549219
 30
0.0
 11
-55.06541365933127
 21
-82.79989293549219
 31
0.0
  0
LINE
  5
1E4
  8
回07-寸法
  6
CONTINUOUS
 62
     5
 10
-87.16025672349898
 20
-25.39989293549219
 30
0.0
 11
-55.06541365933129
 21
-25.39989293549219
 31
0.0
  0
LINE
  5
1E5
  8
回07-寸法
  6
CONTINUOUS
 62
     5
 10
-56.06541365933129
 20
-80.79989293549219
 30
0.0
 11
-56.06541365933129
 21
-27.39989293549219
 31
0.0
  0
TEXT
  5
1E6
  8
回07-寸法
  6
CONTINUOUS
 62
     5
 10
-57.03908062933738
 20
-81.21192274308587
 30
0.0
 40
3.0
  1
57.4 [2.260] (ACTIVE AREA)
 50
90.0
1001
ACAD
1000
MTEXTBEGIN
1070
    73
1070
     1
1070
    44
1040
1.0
1070
    74
1070
     0
1000
MTEXTEND
  0
INSERT
  5
1E7
  8
回07-寸法
  6
CONTINUOUS
 62
     5
  2
_OPEN
 10
-56.06541365933129
 20
-82.79989293549219
 30
0.0
 41
2.0
 42
2.0
 43
2.0
 50
270.0
  0
INSERT
  5
1E8
  8
回07-寸法
  6
CONTINUOUS
 62
     5
  2
_OPEN
 10
-56.06541365933129
 20
-25.39989293549219
 30
0.0
 41
2.0
 42
2.0
 43
2.0
 50
90.0
  0
POINT
  5
1E9
  8
DEFPOINTS
  6
CONTINUOUS
 62
     0
 10
-87.16025672349898
 20
-82.79989293549219
 30
0.0
  0
POINT
  5
1EA
  8
DEFPOINTS
  6
CONTINUOUS
 62
     0
 10
-87.16025672349898
 20
-25.39989293549219
 30
0.0
  0
POINT
  5
1EB
  8
DEFPOINTS
  6
CONTINUOUS
 62
     0
 10
-56.06541365933129
 20
-25.39989293549219
 30
0.0
  0
ENDBLK
  5
1EC
  8
0
 62
    30
  0
BLOCK
  8
0
  2
*D151515
 70
     1
 10
0.0
 20
0.0
 30
0.0
  3
*D151515
  1

  0
LINE
  5
1D6
  8
回07-寸法
  6
CONTINUOUS
 62
     5
 10
-86.16025672349897
 20
-83.7998929354922
 30
0.0
 11
-48.48049962460055
 21
-83.7998929354922
 31
0.0
  0
LINE
  5
1D7
  8
回07-寸法
  6
CONTINUOUS
 62
     5
 10
-86.16025672349897
 20
-24.39989293549219
 30
0.0
 11
-48.48049962460056
 21
-24.39989293549219
 31
0.0
  0
LINE
  5
1D8
  8
回07-寸法
  6
CONTINUOUS
 62
     5
 10
-49.48049962460054
 20
-81.79989293549219
 30
0.0
 11
-49.48049962460054
 21
-26.39989293549219
 31
0.0
  0
TEXT
  5
1D9
  8
回07-寸法
  6
CONTINUOUS
 62
     5
 10
-50.78604099659798
 20
-81.20382723947811
 30
0.0
 40
3.0
  1
59.4 [2.339] (VIEWING AREA)
 50
90.0
1001
ACAD
1000
MTEXTBEGIN
1070
    73
1070
     1
1070
    44
1040
1.0
1070
    74
1070
     0
1000
MTEXTEND
  0
INSERT
  5
1DA
  8
回07-寸法
  6
CONTINUOUS
 62
     5
  2
_OPEN
 10
-49.48049962460054
 20
-83.7998929354922
 30
0.0
 41
2.0
 42
2.0
 43
2.0
 50
270.0
  0
INSERT
  5
1DB
  8
回07-寸法
  6
CONTINUOUS
 62
     5
  2
_OPEN
 10
-49.48049962460056
 20
-24.39989293549219
 30
0.0
 41
2.0
 42
2.0
 43
2.0
 50
90.0
  0
POINT
  5
1DC
  8
DEFPOINTS
  6
CONTINUOUS
 62
     0
 10
-86.16025672349897
 20
-83.7998929354922
 30
0.0
  0
POINT
  5
1DD
  8
DEFPOINTS
  6
CONTINUOUS
 62
     0
 10
-86.16025672349897
 20
-24.39989293549219
 30
0.0
  0
POINT
  5
1DE
  8
DEFPOINTS
  6
CONTINUOUS
 62
     0
 10
-49.48049962460056
 20
-24.39989293549219
 30
0.0
  0
ENDBLK
  5
1DF
  8
0
 62
    30
  0
BLOCK
  8
0
  2
*D161616
 70
     1
 10
0.0
 20
0.0
 30
0.0
  3
*D161616
  1

  0
LINE
  5
1C9
  8
回07-寸法
  6
CONTINUOUS
 62
     5
 10
-82.760256723499
 20
-15.99989293549217
 30
0.0
 11
-37.52101193308455
 21
-15.99989293549217
 31
0.0
  0
LINE
  5
1CA
  8
回07-寸法
  6
CONTINUOUS
 62
     5
 10
-82.760256723499
 20
-87.3998929354922
 30
0.0
 11
-37.52101193308452
 21
-87.3998929354922
 31
0.0
  0
LINE
  5
1CB
  8
回07-寸法
  6
CONTINUOUS
 62
     5
 10
-38.52101193308454
 20
-17.99989293549217
 30
0.0
 11
-38.52101193308454
 21
-85.3998929354922
 31
0.0
  0
INSERT
  5
1CC
  8
回07-寸法
  6
CONTINUOUS
 62
     5
  2
_OPEN
 10
-38.52101193308455
 20
-15.99989293549217
 30
0.0
 41
2.0
 42
2.0
 43
2.0
 50
90.0
  0
INSERT
  5
1CD
  8
回07-寸法
  6
CONTINUOUS
 62
     5
  2
_OPEN
 10
-38.52101193308453
 20
-87.3998929354922
 30
0.0
 41
2.0
 42
2.0
 43
2.0
 50
270.0
  0
INSERT
  5
1CE
  8
回07-寸法
  6
CONTINUOUS
 62
     5
 66
     1
  2
*X494949
 10
0.0
 20
0.0
 30
0.0
  0
SEQEND
  5
408
  8
回07-寸法
  6
CONTINUOUS
 62
     6
  0
POINT
  5
1CF
  8
DEFPOINTS
  6
CONTINUOUS
 62
     0
 10
-82.760256723499
 20
-15.99989293549217
 30
0.0
  0
POINT
  5
1D0
  8
DEFPOINTS
  6
CONTINUOUS
 62
     0
 10
-82.760256723499
 20
-87.3998929354922
 30
0.0
  0
POINT
  5
1D1
  8
DEFPOINTS
  6
CONTINUOUS
 62
     0
 10
-38.52101193308453
 20
-87.3998929354922
 30
0.0
  0
ENDBLK
  5
1D2
  8
0
 62
    30
  0
BLOCK
  8
0
  2
*D171717
 70
     1
 10
0.0
 20
0.0
 30
0.0
  3
*D171717
  1

  0
LINE
  5
1BC
  8
回07-寸法
  6
CONTINUOUS
 62
     5
 10
-116.4385834982544
 20
-15.99989293549223
 30
0.0
 11
-153.548207974502
 21
-15.99989293549223
 31
0.0
  0
LINE
  5
1BD
  8
回07-寸法
  6
CONTINUOUS
 62
     5
 10
-106.035256723499
 20
54.00010706450794
 30
0.0
 11
-153.548207974502
 21
54.00010706450794
 31
0.0
  0
LINE
  5
1BE
  8
回07-寸法
  6
CONTINUOUS
 62
     5
 10
-152.548207974502
 20
-13.99989293549224
 30
0.0
 11
-152.548207974502
 21
52.00010706450793
 31
0.0
  0
INSERT
  5
1BF
  8
回07-寸法
  6
CONTINUOUS
 62
     5
  2
_OPEN
 10
-152.548207974502
 20
-15.99989293549224
 30
0.0
 41
2.0
 42
2.0
 43
2.0
 50
270.0
  0
INSERT
  5
1C0
  8
回07-寸法
  6
CONTINUOUS
 62
     5
  2
_OPEN
 10
-152.548207974502
 20
54.00010706450792
 30
0.0
 41
2.0
 42
2.0
 43
2.0
 50
90.0
  0
INSERT
  5
1C1
  8
回07-寸法
  6
CONTINUOUS
 62
     5
 66
     1
  2
*X505050
 10
0.0
 20
0.0
 30
0.0
  0
SEQEND
  5
411
  8
回07-寸法
  6
CONTINUOUS
 62
     6
  0
POINT
  5
1C2
  8
DEFPOINTS
  6
CONTINUOUS
 62
     0
 10
-116.4385834982544
 20
-15.99989293549223
 30
0.0
  0
POINT
  5
1C3
  8
DEFPOINTS
  6
CONTINUOUS
 62
     0
 10
-106.035256723499
 20
54.00010706450794
 30
0.0
  0
POINT
  5
1C4
  8
DEFPOINTS
  6
CONTINUOUS
 62
     0
 10
-152.548207974502
 20
54.00010706450792
 30
0.0
  0
ENDBLK
  5
1C5
  8
0
 62
    30
  0
BLOCK
  8
0
  2
*D181818
 70
     1
 10
0.0
 20
0.0
 30
0.0
  3
*D181818
  1

  0
LINE
  5
1AD
  8
回07-寸法
  6
CONTINUOUS
 62
     5
 10
-107.2858466186815
 20
53.50010706450792
 30
0.0
 11
-107.2858466186815
 21
62.14593560315528
 31
0.0
  0
LINE
  5
1AE
  8
回07-寸法
  6
CONTINUOUS
 62
     5
 10
-101.0352567234989
 20
53.50010706450792
 30
0.0
 11
-101.0352567234989
 21
62.14593560315528
 31
0.0
  0
LINE
  5
1AF
  8
回07-寸法
  6
CONTINUOUS
 62
     5
 10
-99.03525672349896
 20
61.1459356031553
 30
0.0
 11
-97.03525672349897
 21
61.1459356031553
 31
0.0
  0
LINE
  5
1B0
  8
回07-寸法
  6
CONTINUOUS
 62
     5
 10
-109.2858466186815
 20
61.1459356031553
 30
0.0
 11
-139.0753741777366
 21
61.1459356031553
 31
0.0
  0
LINE
  5
1B1
  8
回07-寸法
  6
CONTINUOUS
 62
     5
 10
-101.0352567234989
 20
61.1459356031553
 30
0.0
 11
-107.2858466186815
 21
61.1459356031553
 31
0.0
  0
INSERT
  5
1B2
  8
回07-寸法
  6
CONTINUOUS
 62
     5
  2
_OPEN
 10
-101.0352567234989
 20
61.1459356031553
 30
0.0
 41
2.0
 42
2.0
 43
2.0
 50
180.0
  0
INSERT
  5
1B3
  8
回07-寸法
  6
CONTINUOUS
 62
     5
  2
_OPEN
 10
-107.2858466186815
 20
61.1459356031553
 30
0.0
 41
2.0
 42
2.0
 43
2.0
  0
TEXT
  5
1B4
  8
回07-寸法
  6
CONTINUOUS
 62
     5
 10
-138.9356103982091
 20
61.79593560315527
 30
0.0
 40
3.0
  1
6.25 [0.246]
1001
ACAD
1000
MTEXTBEGIN
1070
    73
1070
     1
1070
    44
1040
1.0
1070
    74
1070
     0
1000
MTEXTEND
  0
POINT
  5
1B5
  8
DEFPOINTS
  6
CONTINUOUS
 62
     0
 10
-107.2858466186815
 20
53.50010706450792
 30
0.0
  0
POINT
  5
1B6
  8
DEFPOINTS
  6
CONTINUOUS
 62
     0
 10
-101.0352567234989
 20
53.50010706450792
 30
0.0
  0
POINT
  5
1B7
  8
DEFPOINTS
  6
CONTINUOUS
 62
     0
 10
-101.0352567234989
 20
61.1459356031553
 30
0.0
  0
ENDBLK
  5
1B8
  8
0
 62
    30
  0
BLOCK
  8
0
  2
*D191919
 70
     1
 10
0.0
 20
0.0
 30
0.0
  3
*D191919
  1

  0
LINE
  5
19E
  8
回07-寸法
  6
CONTINUOUS
 62
     5
 10
-112.1602567234991
 20
-12.95601477416213
 30
0.0
 11
-112.1602567234991
 21
33.58785491852279
 31
0.0
  0
LINE
  5
19F
  8
回07-寸法
  6
CONTINUOUS
 62
     5
 10
-96.16085804091163
 20
-12.95437488527491
 30
0.0
 11
-96.16085804091163
 21
33.58785491852279
 31
0.0
  0
LINE
  5
1A0
  8
回07-寸法
  6
CONTINUOUS
 62
     5
 10
-94.16085804091164
 20
32.58785491852279
 30
0.0
 11
-92.16085804091163
 21
32.58785491852279
 31
0.0
  0
LINE
  5
1A1
  8
回07-寸法
  6
CONTINUOUS
 62
     5
 10
-114.1602567234991
 20
32.58785491852279
 30
0.0
 11
-133.360256723499
 21
32.58785491852279
 31
0.0
  0
LINE
  5
1A2
  8
回07-寸法
  6
CONTINUOUS
 62
     5
 10
-96.16085804091163
 20
32.58785491852279
 30
0.0
 11
-112.1602567234991
 21
32.58785491852279
 31
0.0
  0
INSERT
  5
1A3
  8
回07-寸法
  6
CONTINUOUS
 62
     5
  2
_OPEN
 10
-96.16085804091163
 20
32.58785491852279
 30
0.0
 41
2.0
 42
2.0
 43
2.0
 50
180.0
  0
INSERT
  5
1A4
  8
回07-寸法
  6
CONTINUOUS
 62
     5
  2
_OPEN
 10
-112.1602567234991
 20
32.58785491852279
 30
0.0
 41
2.0
 42
2.0
 43
2.0
  0
TEXT
  5
1A5
  8
回07-寸法
  6
CONTINUOUS
 62
     5
 10
-133.310256723499
 20
33.23785491852279
 30
0.0
 40
3.0
  1
16 [0.630]
1001
ACAD
1000
MTEXTBEGIN
1070
    73
1070
     1
1070
    44
1040
1.0
1070
    74
1070
     0
1000
MTEXTEND
  0
POINT
  5
1A6
  8
DEFPOINTS
  6
CONTINUOUS
 62
     0
 10
-112.1602567234991
 20
-12.95601477416213
 30
0.0
  0
POINT
  5
1A7
  8
DEFPOINTS
  6
CONTINUOUS
 62
     0
 10
-96.16085804091163
 20
-12.95437488527491
 30
0.0
  0
POINT
  5
1A8
  8
DEFPOINTS
  6
CONTINUOUS
 62
     0
 10
-96.16085804091163
 20
32.58785491852279
 30
0.0
  0
ENDBLK
  5
1A9
  8
0
 62
    30
  0
BLOCK
  8
0
  2
*D202020
 70
     1
 10
0.0
 20
0.0
 30
0.0
  3
*D202020
  1

  0
LINE
  5
18D
  8
回07-寸法
  6
CONTINUOUS
 62
     5
 10
-101.0352567234991
 20
-5.888630366714155
 30
0.0
 11
-83.36804629492554
 21
-5.888630366714155
 31
0.0
  0
LINE
  5
18E
  8
回07-寸法
  6
CONTINUOUS
 62
     5
 10
-95.21382189906104
 20
-15.99989293549223
 30
0.0
 11
-83.36804629492554
 21
-15.99989293549223
 31
0.0
  0
LINE
  5
18F
  8
回07-寸法
  6
CONTINUOUS
 62
     5
 10
-84.36804629492554
 20
-17.99989293549223
 30
0.0
 11
-84.36804629492554
 21
-19.99989293549223
 31
0.0
  0
LINE
  5
190
  8
回07-寸法
  6
CONTINUOUS
 62
     5
 10
-84.36804629492554
 20
-3.888630366714151
 30
0.0
 11
-84.36804629492554
 21
18.22874316338322
 31
0.0
  0
LINE
  5
191
  8
回07-寸法
  6
CONTINUOUS
 62
     5
 10
-84.36804629492554
 20
-15.99989293549223
 30
0.0
 11
-84.36804629492554
 21
-5.888630366714152
 31
0.0
  0
INSERT
  5
192
  8
回07-寸法
  6
CONTINUOUS
 62
     5
  2
_OPEN
 10
-84.36804629492554
 20
-15.99989293549223
 30
0.0
 41
2.0
 42
2.0
 43
2.0
 50
90.0
  0
INSERT
  5
193
  8
回07-寸法
  6
CONTINUOUS
 62
     5
  2
_OPEN
 10
-84.36804629492554
 20
-5.888630366714152
 30
0.0
 41
2.0
 42
2.0
 43
2.0
 50
270.0
  0
TEXT
  5
194
  8
回07-寸法
  6
CONTINUOUS
 62
     5
 10
-85.01804629492552
 20
-0.7942199765536772
 30
0.0
 40
3.0
  1
9.4 [0.370]
 50
90.0
1001
ACAD
1000
MTEXTBEGIN
1070
    73
1070
     1
1070
    44
1040
1.0
1070
    74
1070
     0
1000
MTEXTEND
  0
POINT
  5
195
  8
DEFPOINTS
  6
CONTINUOUS
 62
     0
 10
-101.0352567234991
 20
-5.888630366714155
 30
0.0
  0
POINT
  5
196
  8
DEFPOINTS
  6
CONTINUOUS
 62
     0
 10
-95.21382189906104
 20
-15.99989293549223
 30
0.0
  0
POINT
  5
197
  8
DEFPOINTS
  6
CONTINUOUS
 62
     0
 10
-84.36804629492554
 20
-15.99989293549223
 30
0.0
  0
ENDBLK
  5
198
  8
0
 62
    30
  0
BLOCK
  8
0
  2
*D212121
 70
     1
 10
0.0
 20
0.0
 30
0.0
  3
*D212121
  1

  0
LINE
  5
15A
  8
回07-寸法
  6
CONTINUOUS
 62
     5
 10
-245.760256723499
 20
-87.3998929354922
 30
0.0
 11
-245.760256723499
 21
-96.42148736958509
 31
0.0
  0
LINE
  5
15B
  8
回07-寸法
  6
CONTINUOUS
 62
     5
 10
-162.0602567234989
 20
-87.3998929354922
 30
0.0
 11
-162.0602567234989
 21
-96.42148736958509
 31
0.0
  0
LINE
  5
15C
  8
回07-寸法
  6
CONTINUOUS
 62
     5
 10
-243.760256723499
 20
-95.42148736958507
 30
0.0
 11
-164.0602567234989
 21
-95.42148736958507
 31
0.0
  0
INSERT
  5
15D
  8
回07-寸法
  6
CONTINUOUS
 62
     5
  2
_OPEN
 10
-245.760256723499
 20
-95.42148736958507
 30
0.0
 41
2.0
 42
2.0
 43
2.0
 50
180.0
  0
INSERT
  5
15E
  8
回07-寸法
  6
CONTINUOUS
 62
     5
  2
_OPEN
 10
-162.0602567234989
 20
-95.42148736958507
 30
0.0
 41
2.0
 42
2.0
 43
2.0
  0
TEXT
  5
15F
  8
回07-寸法
  6
CONTINUOUS
 62
     5
 10
-236.3150817251083
 20
-94.77154727568736
 30
0.0
 40
3.0
  1
83.7 [3.295] (ACTIVE AREA CENTER)
1001
ACAD
1000
MTEXTBEGIN
1070
    73
1070
     1
1070
    44
1040
1.0
1070
    74
1070
     0
1000
MTEXTEND
  0
POINT
  5
160
  8
DEFPOINTS
  6
CONTINUOUS
 62
     0
 10
-245.760256723499
 20
-87.3998929354922
 30
0.0
  0
POINT
  5
161
  8
DEFPOINTS
  6
CONTINUOUS
 62
     0
 10
-162.0602567234989
 20
-87.3998929354922
 30
0.0
  0
POINT
  5
162
  8
DEFPOINTS
  6
CONTINUOUS
 62
     0
 10
-162.0602567234989
 20
-95.42148736958507
 30
0.0
  0
ENDBLK
  5
163
  8
0
 62
     7
  0
BLOCK
  8
0
  2
*D222222
 70
     1
 10
0.0
 20
0.0
 30
0.0
  3
*D222222
  1

  0
LINE
  5
14D
  8
回07-寸法
  6
CONTINUOUS
 62
     5
 10
-82.760256723499
 20
-87.3998929354922
 30
0.0
 11
-63.26672275391917
 21
-87.3998929354922
 31
0.0
  0
LINE
  5
14E
  8
回07-寸法
  6
CONTINUOUS
 62
     5
 10
-82.760256723499
 20
-54.09989293549219
 30
0.0
 11
-63.26672275391918
 21
-54.09989293549219
 31
0.0
  0
LINE
  5
14F
  8
回07-寸法
  6
CONTINUOUS
 62
     5
 10
-64.26672275391918
 20
-85.3998929354922
 30
0.0
 11
-64.26672275391918
 21
-56.0998929354922
 31
0.0
  0
INSERT
  5
150
  8
回07-寸法
  6
CONTINUOUS
 62
     5
 66
     1
  2
*X515151
 10
0.0
 20
0.0
 30
0.0
  0
SEQEND
  5
417
  8
回07-寸法
  6
CONTINUOUS
 62
     6
  0
INSERT
  5
151
  8
回07-寸法
  6
CONTINUOUS
 62
     5
  2
_OPEN
 10
-64.26672275391918
 20
-87.3998929354922
 30
0.0
 41
2.0
 42
2.0
 43
2.0
 50
270.0
  0
INSERT
  5
152
  8
回07-寸法
  6
CONTINUOUS
 62
     5
  2
_OPEN
 10
-64.26672275391918
 20
-54.09989293549219
 30
0.0
 41
2.0
 42
2.0
 43
2.0
 50
90.0
  0
POINT
  5
153
  8
DEFPOINTS
  6
CONTINUOUS
 62
     0
 10
-82.760256723499
 20
-87.3998929354922
 30
0.0
  0
POINT
  5
154
  8
DEFPOINTS
  6
CONTINUOUS
 62
     0
 10
-82.760256723499
 20
-54.09989293549219
 30
0.0
  0
POINT
  5
155
  8
DEFPOINTS
  6
CONTINUOUS
 62
     0
 10
-64.26672275391918
 20
-54.09989293549219
 30
0.0
  0
ENDBLK
  5
156
  8
0
 62
     7
  0
BLOCK
  8
0
  2
*D232323
 70
     1
 10
0.0
 20
0.0
 30
0.0
  3
*D232323
  1

  0
LINE
  5
10C
  8
回06-TH
  6
CONTINUOUS
 62
     5
 10
-104.1602567234989
 20
54.00010706450792
 30
0.0
 11
-104.1602567234989
 21
67.9902630226361
 31
0.0
  0
LINE
  5
10D
  8
回06-TH
  6
CONTINUOUS
 62
     5
 10
-82.76025672349897
 20
-15.99989293549217
 30
0.0
 11
-82.76025672349897
 21
67.9902630226361
 31
0.0
  0
LINE
  5
10E
  8
回06-TH
  6
CONTINUOUS
 62
     5
 10
-102.1602567234989
 20
66.9902630226361
 30
0.0
 11
-84.76025672349896
 21
66.9902630226361
 31
0.0
  0
INSERT
  5
10F
  8
回06-TH
  6
CONTINUOUS
 62
     5
  2
_OPEN
 10
-104.1602567234989
 20
66.9902630226361
 30
0.0
 41
2.0
 42
2.0
 43
2.0
 50
180.0
  0
INSERT
  5
110
  8
回06-TH
  6
CONTINUOUS
 62
     5
  2
_OPEN
 10
-82.76025672349897
 20
66.9902630226361
 30
0.0
 41
2.0
 42
2.0
 43
2.0
  0
TEXT
  5
111
  8
回06-TH
  6
CONTINUOUS
 62
     5
 10
-103.8102567234989
 20
67.6402630226361
 30
0.0
 40
3.0
  1
21.4 [0.843]
1001
ACAD
1000
MTEXTBEGIN
1070
    73
1070
     1
1070
    44
1040
1.0
1070
    74
1070
     0
1000
MTEXTEND
  0
POINT
  5
112
  8
DEFPOINTS
  6
CONTINUOUS
 62
     0
 10
-104.1602567234989
 20
54.00010706450792
 30
0.0
  0
POINT
  5
113
  8
DEFPOINTS
  6
CONTINUOUS
 62
     0
 10
-82.76025672349897
 20
-15.99989293549217
 30
0.0
  0
POINT
  5
114
  8
DEFPOINTS
  6
CONTINUOUS
 62
     0
 10
-82.76025672349897
 20
66.9902630226361
 30
0.0
  0
ENDBLK
  5
115
  8
0
 62
     7
  0
BLOCK
  8
0
  2
*D242424
 70
     1
 10
0.0
 20
0.0
 30
0.0
  3
*D242424
  1

  0
LINE
  5
EB
  8
回06-TH
  6
CONTINUOUS
 62
     5
 10
-216.8725504835827
 20
41.25818576110169
 30
0.0
 11
-216.8725504835827
 21
46.39389553287935
 31
0.0
  0
LINE
  5
EC
  8
回06-TH
  6
CONTINUOUS
 62
     5
 10
-215.4165504835827
 20
41.25818576110169
 30
0.0
 11
-215.4165504835827
 21
46.39389553287935
 31
0.0
  0
LINE
  5
ED
  8
回06-TH
  6
CONTINUOUS
 62
     5
 10
-218.8725504835827
 20
45.39389553287935
 30
0.0
 11
-220.8725504835827
 21
45.39389553287935
 31
0.0
  0
LINE
  5
EE
  8
回06-TH
  6
CONTINUOUS
 62
     5
 10
-213.4165504835827
 20
45.39389553287935
 30
0.0
 11
-173.7565114835827
 21
45.39389553287935
 31
0.0
  0
LINE
  5
EF
  8
回06-TH
  6
CONTINUOUS
 62
     5
 10
-216.8725504835827
 20
45.39389553287935
 30
0.0
 11
-215.4165504835827
 21
45.39389553287935
 31
0.0
  0
INSERT
  5
F0
  8
回06-TH
  6
CONTINUOUS
 62
     5
  2
_OPEN
 10
-216.8725504835827
 20
45.39389553287935
 30
0.0
 41
2.0
 42
2.0
 43
2.0
  0
INSERT
  5
F1
  8
回06-TH
  6
CONTINUOUS
 62
     5
  2
_OPEN
 10
-215.4165504835827
 20
45.39389553287935
 30
0.0
 41
2.0
 42
2.0
 43
2.0
 50
180.0
  0
INSERT
  5
F2
  8
回06-TH
  6
CONTINUOUS
 62
     5
 66
     1
  2
*X525252
 10
0.0
 20
0.0
 30
0.0
  0
SEQEND
  5
420
  8
回07-寸法
  6
CONTINUOUS
 62
     6
  0
POINT
  5
F3
  8
DEFPOINTS
  6
CONTINUOUS
 62
     0
 10
-216.8725504835827
 20
41.25818576110169
 30
0.0
  0
POINT
  5
F4
  8
DEFPOINTS
  6
CONTINUOUS
 62
     0
 10
-215.4165504835827
 20
41.25818576110169
 30
0.0
  0
POINT
  5
F5
  8
DEFPOINTS
  6
CONTINUOUS
 62
     0
 10
-215.4165504835827
 20
45.39389553287935
 30
0.0
  0
ENDBLK
  5
F6
  8
0
 62
     7
  0
BLOCK
  8
0
  2
*D252525
 70
     1
 10
0.0
 20
0.0
 30
0.0
  3
*D252525
  1

  0
LINE
  5
DC
  8
回06-TH
  6
CONTINUOUS
 62
     5
 10
-218.7445504835828
 20
42.22907490083536
 30
0.0
 11
-218.7445504835828
 21
51.80988726678504
 31
0.0
  0
LINE
  5
DD
  8
回06-TH
  6
CONTINUOUS
 62
     5
 10
-216.1445504835828
 20
41.25144515699235
 30
0.0
 11
-216.1445504835828
 21
51.80988726678504
 31
0.0
  0
LINE
  5
DE
  8
回06-TH
  6
CONTINUOUS
 62
     5
 10
-220.7445504835828
 20
50.80988726678504
 30
0.0
 11
-222.7445504835827
 21
50.80988726678504
 31
0.0
  0
LINE
  5
DF
  8
回06-TH
  6
CONTINUOUS
 62
     5
 10
-214.1445504835828
 20
50.80988726678504
 30
0.0
 11
-181.5140294921
 21
50.80988726678504
 31
0.0
  0
LINE
  5
E0
  8
回06-TH
  6
CONTINUOUS
 62
     5
 10
-218.7445504835828
 20
50.80988726678504
 30
0.0
 11
-216.1445504835828
 21
50.80988726678504
 31
0.0
  0
INSERT
  5
E1
  8
回06-TH
  6
CONTINUOUS
 62
     5
  2
_OPEN
 10
-218.7445504835828
 20
50.80988726678504
 30
0.0
 41
2.0
 42
2.0
 43
2.0
  0
INSERT
  5
E2
  8
回06-TH
  6
CONTINUOUS
 62
     5
  2
_OPEN
 10
-216.1445504835828
 20
50.80988726678504
 30
0.0
 41
2.0
 42
2.0
 43
2.0
 50
180.0
  0
INSERT
  5
E3
  8
回06-TH
  6
CONTINUOUS
 62
     5
 66
     1
  2
*X535353
 10
0.0
 20
0.0
 30
0.0
  0
SEQEND
  5
429
  8
回07-寸法
  6
CONTINUOUS
 62
     6
  0
POINT
  5
E4
  8
DEFPOINTS
  6
CONTINUOUS
 62
     0
 10
-218.7445504835828
 20
42.22907490083536
 30
0.0
  0
POINT
  5
E5
  8
DEFPOINTS
  6
CONTINUOUS
 62
     0
 10
-216.1445504835828
 20
41.25144515699235
 30
0.0
  0
POINT
  5
E6
  8
DEFPOINTS
  6
CONTINUOUS
 62
     0
 10
-216.1445504835828
 20
50.80988726678504
 30
0.0
  0
ENDBLK
  5
E7
  8
0
 62
     7
  0
BLOCK
  8
0
  2
*D262626
 70
     1
 10
0.0
 20
0.0
 30
0.0
  3
*D262626
  1

  0
LINE
  5
C4
  8
回07-寸法
  6
CONTINUOUS
 62
     5
 10
-238.2602567234989
 20
-84.59989293549218
 30
0.0
 11
-238.2602567234989
 21
-116.2586435118727
 31
0.0
  0
LINE
  5
C5
  8
回07-寸法
  6
CONTINUOUS
 62
     5
 10
-245.760256723499
 20
-87.3998929354922
 30
0.0
 11
-245.760256723499
 21
-116.2586435118727
 31
0.0
  0
LINE
  5
C6
  8
回07-寸法
  6
CONTINUOUS
 62
     5
 10
-236.260256723499
 20
-115.2586435118727
 30
0.0
 11
-234.260256723499
 21
-115.2586435118727
 31
0.0
  0
LINE
  5
C7
  8
回07-寸法
  6
CONTINUOUS
 62
     5
 10
-247.760256723499
 20
-115.2586435118727
 30
0.0
 11
-268.4707397149817
 21
-115.2586435118727
 31
0.0
  0
LINE
  5
C8
  8
回07-寸法
  6
CONTINUOUS
 62
     5
 10
-238.2602567234989
 20
-115.2586435118727
 30
0.0
 11
-245.760256723499
 21
-115.2586435118727
 31
0.0
  0
INSERT
  5
C9
  8
回07-寸法
  6
CONTINUOUS
 62
     5
  2
_OPEN
 10
-238.2602567234989
 20
-115.2586435118727
 30
0.0
 41
2.0
 42
2.0
 43
2.0
 50
180.0
  0
INSERT
  5
CA
  8
回07-寸法
  6
CONTINUOUS
 62
     5
  2
_OPEN
 10
-245.760256723499
 20
-115.2586435118727
 30
0.0
 41
2.0
 42
2.0
 43
2.0
  0
TEXT
  5
CB
  8
回07-寸法
  6
CONTINUOUS
 62
     5
 10
-268.4209137720308
 20
-114.608703417975
 30
0.0
 40
3.0
  1
7.5 [0.295]
1001
ACAD
1000
MTEXTBEGIN
1070
    73
1070
     1
1070
    44
1040
1.0
1070
    74
1070
     0
1000
MTEXTEND
  0
POINT
  5
CC
  8
DEFPOINTS
  6
CONTINUOUS
 62
     0
 10
-238.2602567234989
 20
-84.59989293549218
 30
0.0
  0
POINT
  5
CD
  8
DEFPOINTS
  6
CONTINUOUS
 62
     0
 10
-245.760256723499
 20
-87.3998929354922
 30
0.0
  0
POINT
  5
CE
  8
DEFPOINTS
  6
CONTINUOUS
 62
     0
 10
-245.760256723499
 20
-115.2586435118727
 30
0.0
  0
ENDBLK
  5
CF
  8
0
 62
     6
  0
BLOCK
  8
0
  2
*D272727
 70
     1
 10
0.0
 20
0.0
 30
0.0
  3
*D272727
  1

  0
LINE
  5
B1
  8
回07-寸法
  6
CONTINUOUS
 62
     5
 10
-85.86025672349895
 20
-84.59989293549218
 30
0.0
 11
-85.86025672349895
 21
-116.2586435118727
 31
0.0
  0
LINE
  5
B2
  8
回07-寸法
  6
CONTINUOUS
 62
     5
 10
-82.76025672349897
 20
-87.3998929354922
 30
0.0
 11
-82.76025672349897
 21
-116.2586435118727
 31
0.0
  0
LINE
  5
B3
  8
回07-寸法
  6
CONTINUOUS
 62
     5
 10
-87.86025672349898
 20
-115.2586435118727
 30
0.0
 11
-89.86025672349894
 21
-115.2586435118727
 31
0.0
  0
LINE
  5
B4
  8
回07-寸法
  6
CONTINUOUS
 62
     5
 10
-80.76025672349897
 20
-115.2586435118727
 30
0.0
 11
-57.03689606029911
 21
-115.2586435118727
 31
0.0
  0
LINE
  5
B5
  8
回07-寸法
  6
CONTINUOUS
 62
     5
 10
-85.86025672349895
 20
-115.2586435118727
 30
0.0
 11
-82.76025672349897
 21
-115.2586435118727
 31
0.0
  0
INSERT
  5
B6
  8
回07-寸法
  6
CONTINUOUS
 62
     5
  2
_OPEN
 10
-85.86025672349895
 20
-115.2586435118727
 30
0.0
 41
2.0
 42
2.0
 43
2.0
  0
INSERT
  5
B7
  8
回07-寸法
  6
CONTINUOUS
 62
     5
  2
_OPEN
 10
-82.76025672349897
 20
-115.2586435118727
 30
0.0
 41
2.0
 42
2.0
 43
2.0
 50
180.0
  0
TEXT
  5
B8
  8
回07-寸法
  6
CONTINUOUS
 62
     5
 10
-74.48689606029913
 20
-114.6086435118727
 30
0.0
 40
3.0
  1
3.1 [0.122]
1001
ACAD
1000
MTEXTBEGIN
1070
    73
1070
     1
1070
    44
1040
1.0
1070
    74
1070
     0
1000
MTEXTEND
  0
POINT
  5
B9
  8
DEFPOINTS
  6
CONTINUOUS
 62
     0
 10
-85.86025672349895
 20
-84.59989293549218
 30
0.0
  0
POINT
  5
BA
  8
DEFPOINTS
  6
CONTINUOUS
 62
     0
 10
-82.76025672349897
 20
-87.3998929354922
 30
0.0
  0
POINT
  5
BB
  8
DEFPOINTS
  6
CONTINUOUS
 62
     0
 10
-82.76025672349897
 20
-115.2586435118727
 30
0.0
  0
ENDBLK
  5
BC
  8
0
 62
     6
  0
BLOCK
  8
0
  2
*D282828
 70
     1
 10
0.0
 20
0.0
 30
0.0
  3
*D282828
  1

  0
LINE
  5
A4
  8
回07-寸法
  6
CONTINUOUS
 62
     5
 10
-238.2602567234989
 20
-84.59989293549218
 30
0.0
 11
-238.2602567234989
 21
-116.2586435118727
 31
0.0
  0
LINE
  5
A5
  8
回07-寸法
  6
CONTINUOUS
 62
     5
 10
-85.86025672349895
 20
-84.59989293549218
 30
0.0
 11
-85.86025672349895
 21
-116.2586435118727
 31
0.0
  0
LINE
  5
A6
  8
回07-寸法
  6
CONTINUOUS
 62
     5
 10
-236.260256723499
 20
-115.2586435118727
 30
0.0
 11
-87.86025672349898
 21
-115.2586435118727
 31
0.0
  0
INSERT
  5
A7
  8
回07-寸法
  6
CONTINUOUS
 62
     5
  2
_OPEN
 10
-238.2602567234989
 20
-115.2586435118727
 30
0.0
 41
2.0
 42
2.0
 43
2.0
 50
180.0
  0
INSERT
  5
A8
  8
回07-寸法
  6
CONTINUOUS
 62
     5
  2
_OPEN
 10
-85.86025672349895
 20
-115.2586435118727
 30
0.0
 41
2.0
 42
2.0
 43
2.0
  0
TEXT
  5
A9
  8
回07-寸法
  6
CONTINUOUS
 62
     5
 10
-173.310256723499
 20
-114.6086435118727
 30
0.0
 40
3.0
  1
152.4 [6.000]
1001
ACAD
1000
MTEXTBEGIN
1070
    73
1070
     1
1070
    44
1040
1.0
1070
    74
1070
     0
1000
MTEXTEND
  0
POINT
  5
AA
  8
DEFPOINTS
  6
CONTINUOUS
 62
     0
 10
-238.2602567234989
 20
-84.59989293549218
 30
0.0
  0
POINT
  5
AB
  8
DEFPOINTS
  6
CONTINUOUS
 62
     0
 10
-85.86025672349895
 20
-84.59989293549218
 30
0.0
  0
POINT
  5
AC
  8
DEFPOINTS
  6
CONTINUOUS
 62
     0
 10
-85.86025672349895
 20
-115.2586435118727
 30
0.0
  0
ENDBLK
  5
AD
  8
0
 62
     6
  0
BLOCK
  8
0
  2
*D292929
 70
     1
 10
0.0
 20
0.0
 30
0.0
  3
*D292929
  1

  0
LINE
  5
95
  8
回07-寸法
  6
CONTINUOUS
 62
     5
 10
-82.760256723499
 20
-15.99989293549217
 30
0.0
 11
-43.4919295563614
 21
-15.99989293549217
 31
0.0
  0
LINE
  5
96
  8
回07-寸法
  6
CONTINUOUS
 62
     5
 10
-85.86025672349895
 20
-23.59989293549217
 30
0.0
 11
-43.4919295563614
 21
-23.59989293549217
 31
0.0
  0
LINE
  5
97
  8
回07-寸法
  6
CONTINUOUS
 62
     5
 10
-44.4919295563614
 20
-25.59989293549217
 30
0.0
 11
-44.4919295563614
 21
-27.59989293549217
 31
0.0
  0
LINE
  5
98
  8
回07-寸法
  6
CONTINUOUS
 62
     5
 10
-44.4919295563614
 20
-13.99989293549217
 30
0.0
 11
-44.4919295563614
 21
6.721073047473471
 31
0.0
  0
LINE
  5
99
  8
回07-寸法
  6
CONTINUOUS
 62
     5
 10
-44.4919295563614
 20
-23.59989293549217
 30
0.0
 11
-44.4919295563614
 21
-15.99989293549217
 31
0.0
  0
INSERT
  5
9A
  8
回07-寸法
  6
CONTINUOUS
 62
     5
  2
_OPEN
 10
-44.4919295563614
 20
-23.59989293549217
 30
0.0
 41
2.0
 42
2.0
 43
2.0
 50
90.0
  0
INSERT
  5
9B
  8
回07-寸法
  6
CONTINUOUS
 62
     5
  2
_OPEN
 10
-44.4919295563614
 20
-15.99989293549217
 30
0.0
 41
2.0
 42
2.0
 43
2.0
 50
270.0
  0
TEXT
  5
9C
  8
回07-寸法
  6
CONTINUOUS
 62
     5
 10
-45.14180974415677
 20
-11.95024104959028
 30
0.0
 40
3.0
  1
7.6 [0.299]
 50
90.0
1001
ACAD
1000
MTEXTBEGIN
1070
    73
1070
     1
1070
    44
1040
1.0
1070
    74
1070
     0
1000
MTEXTEND
  0
POINT
  5
9D
  8
DEFPOINTS
  6
CONTINUOUS
 62
     0
 10
-82.760256723499
 20
-15.99989293549217
 30
0.0
  0
POINT
  5
9E
  8
DEFPOINTS
  6
CONTINUOUS
 62
     0
 10
-85.86025672349895
 20
-23.59989293549217
 30
0.0
  0
POINT
  5
9F
  8
DEFPOINTS
  6
CONTINUOUS
 62
     0
 10
-44.4919295563614
 20
-23.59989293549217
 30
0.0
  0
ENDBLK
  5
A0
  8
0
 62
     6
  0
BLOCK
  8
0
  2
*D303030
 70
     1
 10
0.0
 20
0.0
 30
0.0
  3
*D303030
  1

  0
LINE
  5
88
  8
回07-寸法
  6
CONTINUOUS
 62
     5
 10
-85.86025672349895
 20
-23.59989293549217
 30
0.0
 11
-43.4919295563614
 21
-23.59989293549217
 31
0.0
  0
LINE
  5
89
  8
回07-寸法
  6
CONTINUOUS
 62
     5
 10
-85.86025672349901
 20
-84.59989293549218
 30
0.0
 11
-43.49192955636139
 21
-84.59989293549218
 31
0.0
  0
LINE
  5
8A
  8
回07-寸法
  6
CONTINUOUS
 62
     5
 10
-44.4919295563614
 20
-25.59989293549217
 30
0.0
 11
-44.4919295563614
 21
-82.59989293549219
 31
0.0
  0
INSERT
  5
8B
  8
回07-寸法
  6
CONTINUOUS
 62
     5
  2
_OPEN
 10
-44.4919295563614
 20
-23.59989293549217
 30
0.0
 41
2.0
 42
2.0
 43
2.0
 50
90.0
  0
INSERT
  5
8C
  8
回07-寸法
  6
CONTINUOUS
 62
     5
  2
_OPEN
 10
-44.49192955636139
 20
-84.59989293549218
 30
0.0
 41
2.0
 42
2.0
 43
2.0
 50
270.0
  0
TEXT
  5
8D
  8
回07-寸法
  6
CONTINUOUS
 62
     5
 10
-45.14192955636139
 20
-62.79989293549215
 30
0.0
 40
3.0
  1
61 [2.402]
 50
90.0
1001
ACAD
1000
MTEXTBEGIN
1070
    73
1070
     1
1070
    44
1040
1.0
1070
    74
1070
     0
1000
MTEXTEND
  0
POINT
  5
8E
  8
DEFPOINTS
  6
CONTINUOUS
 62
     0
 10
-85.86025672349895
 20
-23.59989293549217
 30
0.0
  0
POINT
  5
8F
  8
DEFPOINTS
  6
CONTINUOUS
 62
     0
 10
-85.86025672349901
 20
-84.59989293549218
 30
0.0
  0
POINT
  5
90
  8
DEFPOINTS
  6
CONTINUOUS
 62
     0
 10
-44.49192955636139
 20
-84.59989293549218
 30
0.0
  0
ENDBLK
  5
91
  8
0
 62
     6
  0
BLOCK
  8
0
  2
*D313131
 70
     1
 10
0.0
 20
0.0
 30
0.0
  3
*D313131
  1

  0
LINE
  5
79
  8
回07-寸法
  6
CONTINUOUS
 62
     5
 10
-85.86025672349895
 20
-84.59989293549218
 30
0.0
 11
-43.49192955636139
 21
-84.59989293549218
 31
0.0
  0
LINE
  5
7A
  8
回07-寸法
  6
CONTINUOUS
 62
     5
 10
-82.760256723499
 20
-87.3998929354922
 30
0.0
 11
-43.49192955636139
 21
-87.3998929354922
 31
0.0
  0
LINE
  5
7B
  8
回07-寸法
  6
CONTINUOUS
 62
     5
 10
-44.49192955636139
 20
-82.59989293549219
 30
0.0
 11
-44.49192955636139
 21
-80.5998929354922
 31
0.0
  0
LINE
  5
7C
  8
回07-寸法
  6
CONTINUOUS
 62
     5
 10
-44.49192955636139
 20
-89.39989293549221
 30
0.0
 11
-44.49192955636139
 21
-108.9760740378544
 31
0.0
  0
LINE
  5
7D
  8
回07-寸法
  6
CONTINUOUS
 62
     5
 10
-44.49192955636139
 20
-84.59989293549218
 30
0.0
 11
-44.49192955636139
 21
-87.3998929354922
 31
0.0
  0
INSERT
  5
7E
  8
回07-寸法
  6
CONTINUOUS
 62
     5
  2
_OPEN
 10
-44.49192955636139
 20
-84.59989293549218
 30
0.0
 41
2.0
 42
2.0
 43
2.0
 50
270.0
  0
INSERT
  5
7F
  8
回07-寸法
  6
CONTINUOUS
 62
     5
  2
_OPEN
 10
-44.49192955636139
 20
-87.3998929354922
 30
0.0
 41
2.0
 42
2.0
 43
2.0
 50
90.0
  0
TEXT
  5
80
  8
回07-寸法
  6
CONTINUOUS
 62
     5
 10
-45.14192955636139
 20
-108.8879834866733
 30
0.0
 40
3.0
  1
2.8 [0.110]
 50
90.0
1001
ACAD
1000
MTEXTBEGIN
1070
    73
1070
     1
1070
    44
1040
1.0
1070
    74
1070
     0
1000
MTEXTEND
  0
POINT
  5
81
  8
DEFPOINTS
  6
CONTINUOUS
 62
     0
 10
-85.86025672349895
 20
-84.59989293549218
 30
0.0
  0
POINT
  5
82
  8
DEFPOINTS
  6
CONTINUOUS
 62
     0
 10
-82.760256723499
 20
-87.3998929354922
 30
0.0
  0
POINT
  5
83
  8
DEFPOINTS
  6
CONTINUOUS
 62
     0
 10
-44.49192955636139
 20
-87.3998929354922
 30
0.0
  0
ENDBLK
  5
84
  8
0
 62
     6
  0
BLOCK
  8
0
  2
*D323232
 70
     1
 10
0.0
 20
0.0
 30
0.0
  3
*D323232
  1

  0
LINE
  5
69
  8
回07-寸法
  6
CONTINUOUS
 62
     5
 10
-95.21382189906113
 20
-15.99989293549224
 30
0.0
 11
-88.01439968856675
 21
-15.99989293549224
 31
0.0
  0
LINE
  5
6A
  8
回07-寸法
  6
CONTINUOUS
 62
     5
 10
-96.23727518044486
 20
-11.22646353221625
 30
0.0
 11
-88.01439968856675
 21
-11.22646353221625
 31
0.0
  0
LINE
  5
6B
  8
回07-寸法
  6
CONTINUOUS
 62
     5
 10
-89.01439968856676
 20
-17.99989293549224
 30
0.0
 11
-89.01439968856676
 21
-19.99989293549224
 31
0.0
  0
LINE
  5
6C
  8
回07-寸法
  6
CONTINUOUS
 62
     5
 10
-89.01439968856676
 20
-9.226463532216246
 30
0.0
 11
-89.01439968856676
 21
17.07992301130727
 31
0.0
  0
LINE
  5
6D
  8
回07-寸法
  6
CONTINUOUS
 62
     5
 10
-89.01439968856676
 20
-15.99989293549224
 30
0.0
 11
-89.01439968856676
 21
-11.22646353221624
 31
0.0
  0
INSERT
  5
6E
  8
回07-寸法
  6
CONTINUOUS
 62
     5
  2
_OPEN
 10
-89.01439968856676
 20
-15.99989293549224
 30
0.0
 41
2.0
 42
2.0
 43
2.0
 50
90.0
  0
INSERT
  5
6F
  8
回07-寸法
  6
CONTINUOUS
 62
     5
  2
_OPEN
 10
-89.01439968856676
 20
-11.22646353221624
 30
0.0
 41
2.0
 42
2.0
 43
2.0
 50
270.0
  0
TEXT
  5
70
  8
回07-寸法
  6
CONTINUOUS
 62
     5
 10
-89.66439968856676
 20
-3.380734037224596
 30
0.0
 40
3.0
  1
4.39 [0.173]
 50
90.0
1001
ACAD
1000
MTEXTBEGIN
1070
    73
1070
     1
1070
    44
1040
1.0
1070
    74
1070
     0
1000
MTEXTEND
  0
POINT
  5
71
  8
DEFPOINTS
  6
CONTINUOUS
 62
     0
 10
-95.21382189906113
 20
-15.99989293549224
 30
0.0
  0
POINT
  5
73
  8
DEFPOINTS
  6
CONTINUOUS
 62
     0
 10
-96.23727518044486
 20
-11.22646353221625
 30
0.0
  0
POINT
  5
74
  8
DEFPOINTS
  6
CONTINUOUS
 62
     0
 10
-89.01439968856676
 20
-11.22646353221624
 30
0.0
  0
ENDBLK
  5
75
  8
0
 62
     6
  0
BLOCK
  8
回07-寸法
  2
*X333333
 70
     1
 10
0.0
 20
0.0
 30
0.0
  3
*X333333
  1

  0
INSERT
  5
32C
  8
回07-寸法
  6
CONTINUOUS
 62
     5
  2
_OPEN
 10
-105.1154386753616
 20
-12.56493328916221
 30
0.0
 41
1.999999999999999
 42
1.999999999999999
 43
2.0
 50
295.5025019210495
  0
LINE
  5
32D
  8
回07-寸法
  6
CONTINUOUS
 62
     5
 10
-105.9765396941071
 20
-10.75980032023295
 30
0.0
 11
-111.5376378658484
 21
0.8979743597767535
 31
0.0
  0
LINE
  5
32E
  8
回07-寸法
  6
CONTINUOUS
 62
     5
 10
-111.5376378658484
 20
0.8979743597767535
 30
0.0
 11
-146.4376378658483
 21
0.8979743597767535
 31
0.0
  0
ENDBLK
  5
330
  8
回07-寸法
  6
CONTINUOUS
 62
     6
  0
BLOCK
  8
回07-寸法
  2
*X343434
 70
     1
 10
0.0
 20
0.0
 30
0.0
  3
*X343434
  1

  0
TEXT
  5
338
  8
回08-記事
  6
CONTINUOUS
 62
     5
 10
-234.7264584611732
 20
68.22389077488286
 30
0.0
 40
2.799999999999998
  1
6.25
  0
TEXT
  5
339
  8
回08-記事
  6
CONTINUOUS
 62
     5
 10
-228.0064584611732
 20
68.22389077488286
 30
0.0
 40
2.000011999999999
  1
±0.2
  0
TEXT
  5
33A
  8
回08-記事
  6
CONTINUOUS
 62
     5
 10
-223.2064296611731
 20
68.22389077488286
 30
0.0
 40
2.799999999999998
  1
[0.246
  0
TEXT
  5
33B
  8
回08-記事
  6
CONTINUOUS
 62
     5
 10
-213.1264296611732
 20
68.22389077488286
 30
0.0
 40
2.000011999999999
  1
±0.008
  0
TEXT
  5
33C
  8
回08-記事
  6
CONTINUOUS
 62
     5
 10
-205.5263840611732
 20
68.22389077488286
 30
0.0
 40
2.799999999999998
  1
]
  0
ENDBLK
  5
33E
  8
回07-寸法
  6
CONTINUOUS
 62
     6
  0
BLOCK
  8
回07-寸法
  2
*X353535
 70
     1
 10
0.0
 20
0.0
 30
0.0
  3
*X353535
  1

  0
INSERT
  5
341
  8
回07-寸法
  6
CONTINUOUS
 62
     5
  2
_OPEN
 10
-15.89865031735417
 20
18.78646014650223
 30
0.0
 41
2.0
 42
2.0
 43
2.0
 50
164.2721772223338
  0
LINE
  5
342
  8
回07-寸法
  6
CONTINUOUS
 62
     5
 10
-13.97352985815359
 20
18.24432435394896
 30
0.0
 11
6.830493695087623
 21
12.38567496739733
 31
0.0
  0
LINE
  5
343
  8
回07-寸法
  6
CONTINUOUS
 62
     5
 10
6.830493695087623
 20
12.38567496739733
 30
0.0
 11
6.830493695087628
 21
40.48567496739734
 31
0.0
  0
ENDBLK
  5
345
  8
回07-寸法
  6
CONTINUOUS
 62
     6
  0
BLOCK
  8
回07-寸法
  2
*X363636
 70
     1
 10
0.0
 20
0.0
 30
0.0
  3
*X363636
  1

  0
LINE
  5
34D
  8
回07-寸法
  6
CONTINUOUS
 62
     8
 10
-106.6602567234989
 20
28.68827016647616
 30
0.0
 11
-104.7882630007193
 21
30.56026388925568
 31
0.0
  0
LINE
  5
34E
  8
回07-寸法
  6
CONTINUOUS
 62
     8
 10
-106.6602567234989
 20
26.03661973702661
 30
0.0
 11
-102.2326484380246
 21
30.46422802250086
 31
0.0
  0
LINE
  5
34F
  8
回07-寸法
  6
CONTINUOUS
 62
     8
 10
-106.6602567234989
 20
23.38496930757705
 30
0.0
 11
-101.6602567234989
 21
28.38496930757705
 31
0.0
  0
LINE
  5
350
  8
回07-寸法
  6
CONTINUOUS
 62
     8
 10
-106.6602567234989
 20
20.7333188781275
 30
0.0
 11
-101.6602567234989
 21
25.73331887812751
 31
0.0
  0
LINE
  5
351
  8
回07-寸法
  6
CONTINUOUS
 62
     8
 10
-106.6602567234989
 20
18.08166844867796
 30
0.0
 11
-101.6602567234989
 21
23.08166844867795
 31
0.0
  0
LINE
  5
352
  8
回07-寸法
  6
CONTINUOUS
 62
     8
 10
-106.6602567234989
 20
15.43001801922841
 30
0.0
 11
-101.6602567234989
 21
20.43001801922839
 31
0.0
  0
LINE
  5
353
  8
回07-寸法
  6
CONTINUOUS
 62
     8
 10
-106.6602567234989
 20
12.77836758977885
 30
0.0
 11
-101.6602567234989
 21
17.77836758977885
 31
0.0
  0
LINE
  5
354
  8
回07-寸法
  6
CONTINUOUS
 62
     8
 10
-106.6602567234989
 20
10.12671716032929
 30
0.0
 11
-101.6602567234989
 21
15.12671716032931
 31
0.0
  0
LINE
  5
355
  8
回07-寸法
  6
CONTINUOUS
 62
     8
 10
-106.6602567234988
 20
7.475066730879817
 30
0.0
 11
-101.6602567234988
 21
12.47506673087982
 31
0.0
  0
LINE
  5
356
  8
回07-寸法
  6
CONTINUOUS
 62
     8
 10
-106.4865902267711
 20
4.997082798158031
 30
0.0
 11
-101.6602567234989
 21
9.823416301430242
 31
0.0
  0
LINE
  5
357
  8
回07-寸法
  6
CONTINUOUS
 62
     8
 10
-104.2717587062239
 20
4.560263889255693
 30
0.0
 11
-101.6602567234988
 21
7.171765871980722
 31
0.0
  0
ENDBLK
  5
359
  8
回07-寸法
  6
CONTINUOUS
 62
     6
  0
BLOCK
  8
回07-寸法
  2
*X373737
 70
     1
 10
0.0
 20
0.0
 30
0.0
  3
*X373737
  1

  0
INSERT
  5
365
  8
回07-寸法
  6
CONTINUOUS
 62
     5
  2
_OPEN
 10
-106.1665122872785
 20
15.53870722472095
 30
0.0
 41
2.0
 42
2.0
 43
2.0
 50
38.1873931537182
  0
LINE
  5
366
  8
回07-寸法
  6
CONTINUOUS
 62
     5
 10
-107.7384981735864
 20
14.30223628966071
 30
0.0
 11
-113.5478772448623
 21
9.732775180025212
 31
0.0
  0
LINE
  5
367
  8
回07-寸法
  6
CONTINUOUS
 62
     5
 10
-113.5478772448623
 20
9.732775180025212
 30
0.0
 11
-135.2478772448623
 21
9.732775180025212
 31
0.0
  0
ENDBLK
  5
369
  8
回07-寸法
  6
CONTINUOUS
 62
     6
  0
BLOCK
  8
回07-寸法
  2
*X383838
 70
     1
 10
0.0
 20
0.0
 30
0.0
  3
*X383838
  1

  0
LINE
  5
36C
  8
回08-記事
  6
CONTINUOUS
 62
     8
 10
-98.66115742989357
 20
-11.60840993109192
 30
0.0
 11
-96.75757391108341
 21
-13.51199344990207
 31
0.0
  0
LINE
  5
36D
  8
回08-記事
  6
CONTINUOUS
 62
     8
 10
-100.9062214601608
 20
-11.60840993109192
 30
0.0
 11
-96.75757391108342
 21
-15.75705748016935
 31
0.0
  0
LINE
  5
36E
  8
回08-記事
  6
CONTINUOUS
 62
     8
 10
-103.1512854904281
 20
-11.60840993109193
 30
0.0
 11
-96.75757391108342
 21
-18.00212151043664
 31
0.0
  0
LINE
  5
36F
  8
回08-記事
  6
CONTINUOUS
 62
     8
 10
-105.3963495206954
 20
-11.60840993109193
 30
0.0
 11
-97.70486651629525
 21
-19.29989293549212
 31
0.0
  0
LINE
  5
370
  8
回08-記事
  6
CONTINUOUS
 62
     8
 10
-107.6414135509627
 20
-11.60840993109193
 30
0.0
 11
-99.94993054656251
 21
-19.29989293549212
 31
0.0
  0
LINE
  5
371
  8
回08-記事
  6
CONTINUOUS
 62
     8
 10
-109.88647758123
 20
-11.60840993109193
 30
0.0
 11
-102.1949945768298
 21
-19.29989293549213
 31
0.0
  0
LINE
  5
372
  8
回08-記事
  6
CONTINUOUS
 62
     8
 10
-111.5602567234992
 20
-12.17969481908997
 30
0.0
 11
-104.440058607097
 21
-19.29989293549213
 31
0.0
  0
LINE
  5
373
  8
回08-記事
  6
CONTINUOUS
 62
     8
 10
-111.5602567234992
 20
-14.42475884935725
 30
0.0
 11
-106.6851226373644
 21
-19.29989293549212
 31
0.0
  0
LINE
  5
374
  8
回08-記事
  6
CONTINUOUS
 62
     8
 10
-111.5602567234992
 20
-16.66982287962455
 30
0.0
 11
-108.9301866676316
 21
-19.29989293549212
 31
0.0
  0
LINE
  5
375
  8
回08-記事
  6
CONTINUOUS
 62
     8
 10
-111.5602567234992
 20
-18.91488690989183
 30
0.0
 11
-111.1752506978989
 21
-19.29989293549213
 31
0.0
  0
ENDBLK
  5
377
  8
回07-寸法
  6
CONTINUOUS
 62
     6
  0
BLOCK
  8
回07-寸法
  2
*X393939
 70
     1
 10
0.0
 20
0.0
 30
0.0
  3
*X393939
  1

  0
INSERT
  5
37F
  8
回07-寸法
  6
CONTINUOUS
 62
     5
  2
_OPEN
 10
-84.51037024102811
 20
-81.57657311780736
 30
0.0
 41
1.999999999999999
 42
1.999999999999999
 43
2.0
 50
318.1220162450407
  0
LINE
  5
380
  8
回07-寸法
  6
CONTINUOUS
 62
     5
 10
-85.99950646086417
 20
-80.24148011776118
 30
0.0
 11
-93.17557838382176
 21
-73.80773465878417
 31
0.0
  0
LINE
  5
381
  8
回07-寸法
  6
CONTINUOUS
 62
     5
 10
-93.17557838382176
 20
-73.80773465878417
 30
0.0
 11
-106.6755783838217
 21
-73.80773465878417
 31
0.0
  0
ENDBLK
  5
383
  8
回07-寸法
  6
CONTINUOUS
 62
     6
  0
BLOCK
  8
回07-寸法
  2
*X404040
 70
     1
 10
0.0
 20
0.0
 30
0.0
  3
*X404040
  1

  0
INSERT
  5
386
  8
回07-寸法
  6
CONTINUOUS
 62
     5
  2
_OPEN
 10
-226.5005883980212
 20
40.95595963919613
 30
0.0
 41
2.0
 42
2.0
 43
2.0
 50
291.6279944718507
  0
LINE
  5
387
  8
回07-寸法
  6
CONTINUOUS
 62
     5
 10
-227.237745985071
 20
42.81515266087382
 30
0.0
 11
-228.9256707756694
 21
47.07228579892769
 31
0.0
  0
LINE
  5
388
  8
回07-寸法
  6
CONTINUOUS
 62
     5
 10
-228.9256707756694
 20
47.07228579892769
 30
0.0
 11
-257.3216707756694
 21
47.07228579892769
 31
0.0
  0
ENDBLK
  5
38A
  8
回07-寸法
  6
CONTINUOUS
 62
     6
  0
BLOCK
  8
回07-寸法
  2
*X414141
 70
     1
 10
0.0
 20
0.0
 30
0.0
  3
*X414141
  1

  0
TEXT
  5
38D
  8
回08-記事
  6
CONTINUOUS
 62
     5
 10
-211.3552590903077
 20
57.95560332775502
 30
0.0
 40
2.7
  1
3.75
  0
TEXT
  5
38E
  8
回08-記事
  6
CONTINUOUS
 62
     5
 10
-204.8752590903077
 20
57.95560332775502
 30
0.0
 40
1.800089999999999
  1
±0.1
  0
TEXT
  5
38F
  8
回08-記事
  6
CONTINUOUS
 62
     5
 10
-200.9150610903077
 20
57.95560332775502
 30
0.0
 40
2.999993992199998
  1
[0.148
  0
TEXT
  5
390
  8
回08-記事
  6
CONTINUOUS
 62
     5
 10
-190.7150815168277
 20
57.95560332775502
 30
0.0
 40
2.000005994779971
  1
±0.004
  0
TEXT
  5
391
  8
回08-記事
  6
CONTINUOUS
 62
     5
 10
-182.9150581371855
 20
57.95560332775502
 30
0.0
 40
3.00000899216996
  1
]
  0
ENDBLK
  5
393
  8
回07-寸法
  6
CONTINUOUS
 62
     6
  0
BLOCK
  8
回07-寸法
  2
*X424242
 70
     1
 10
0.0
 20
0.0
 30
0.0
  3
*X424242
  1

  0
INSERT
  5
396
  8
回07-寸法
  6
CONTINUOUS
 62
     5
  2
_OPEN
 10
-112.388764866228
 20
-15.37021361424831
 30
0.0
 41
2.0
 42
2.0
 43
2.0
 50
311.1613752645372
  0
LINE
  5
397
  8
回07-寸法
  6
CONTINUOUS
 62
     5
 10
-113.7051290380719
 20
-13.86449605537955
 30
0.0
 11
-115.1796807179144
 21
-12.17783638832998
 31
0.0
  0
LINE
  5
398
  8
回07-寸法
  6
CONTINUOUS
 62
     5
 10
-115.1796807179144
 20
-12.17783638832998
 30
0.0
 11
-139.5905118234953
 21
-12.17783638832998
 31
0.0
  0
ENDBLK
  5
39A
  8
回07-寸法
  6
CONTINUOUS
 62
     6
  0
BLOCK
  8
回07-寸法
  2
*X434343
 70
     1
 10
0.0
 20
0.0
 30
0.0
  3
*X434343
  1

  0
INSERT
  5
39D
  8
回07-寸法
  6
CONTINUOUS
 62
     5
  2
_OPEN
 10
-112.1012082059496
 20
-11.21113849799602
 30
0.0
 41
2.0
 42
2.0
 43
2.0
 50
301.5880793444007
  0
LINE
  5
39E
  8
回07-寸法
  6
CONTINUOUS
 62
     5
 10
-113.1488255836455
 20
-9.507466631130363
 30
0.0
 11
-115.2908379553322
 21
-6.024051508572057
 31
0.0
  0
LINE
  5
39F
  8
回07-寸法
  6
CONTINUOUS
 62
     5
 10
-115.2908379553322
 20
-6.024051508572057
 30
0.0
 11
-139.4016690609132
 21
-6.024051508572057
 31
0.0
  0
ENDBLK
  5
3A1
  8
回07-寸法
  6
CONTINUOUS
 62
     6
  0
BLOCK
  8
回07-寸法
  2
*X444444
 70
     1
 10
0.0
 20
0.0
 30
0.0
  3
*X444444
  1

  0
INSERT
  5
3A4
  8
回07-寸法
  6
CONTINUOUS
 62
     5
  2
_OPEN
 10
-108.2848689248621
 20
49.97739832849697
 30
0.0
 41
1.999999999999999
 42
1.999999999999999
 43
2.0
 50
58.39953124228768
  0
LINE
  5
3A5
  8
回07-寸法
  6
CONTINUOUS
 62
     5
 10
-109.3328546733458
 20
48.27395303410829
 30
0.0
 11
-110.7930120062078
 21
45.90054467304089
 31
0.0
  0
LINE
  5
3A6
  8
回07-寸法
  6
CONTINUOUS
 62
     5
 10
-110.7930120062078
 20
45.90054467304089
 30
0.0
 11
-115.0930120062078
 21
45.90054467304089
 31
0.0
  0
ENDBLK
  5
3A8
  8
回07-寸法
  6
CONTINUOUS
 62
     6
  0
BLOCK
  8
回07-寸法
  2
*X454545
 70
     1
 10
0.0
 20
0.0
 30
0.0
  3
*X454545
  1

  0
INSERT
  5
3AB
  8
回07-寸法
  6
CONTINUOUS
 62
     5
  2
_OPEN
 10
-244.3813171206748
 20
-72.43262557548131
 30
0.0
 41
2.0
 42
2.0
 43
2.0
 50
286.9937435213584
  0
LINE
  5
3AC
  8
回07-寸法
  6
CONTINUOUS
 62
     5
 10
-244.9658516770357
 20
-70.51995222322801
 30
0.0
 11
-246.7191345171277
 21
-64.78298196079572
 31
0.0
  0
LINE
  5
3AD
  8
回07-寸法
  6
CONTINUOUS
 62
     5
 10
-246.7191345171277
 20
-64.78298196079572
 30
0.0
 11
-265.4191345171277
 21
-64.78298196079572
 31
0.0
  0
ENDBLK
  5
3AF
  8
回07-寸法
  6
CONTINUOUS
 62
     6
  0
BLOCK
  8
回07-寸法
  2
*X464646
 70
     1
 10
0.0
 20
0.0
 30
0.0
  3
*X464646
  1

  0
TEXT
  5
3E6
  8
回08-記事
  6
CONTINUOUS
 62
     5
 10
-9.37461643492106
 20
-95.08647925272226
 30
0.0
 40
3.0
  1
1.4
  0
TEXT
  5
3E7
  8
回08-記事
  6
CONTINUOUS
 62
     5
 10
-4.574616434921058
 20
-95.08647925272226
 30
0.0
 40
2.000099999999999
  1
±0.2
  0
TEXT
  5
3E8
  8
回08-記事
  6
CONTINUOUS
 62
     5
 10
0.225623565078938
 20
-95.08647925272226
 30
0.0
 40
3.0
  1
[0.055
  0
TEXT
  5
3E9
  8
回08-記事
  6
CONTINUOUS
 62
     5
 10
10.72562356507893
 20
-95.08647925272226
 30
0.0
 40
2.00001
  1
±0.008
  0
TEXT
  5
3EA
  8
回08-記事
  6
CONTINUOUS
 62
     5
 10
18.32566156507894
 20
-95.08647925272226
 30
0.0
 40
3.0
  1
]
  0
ENDBLK
  5
3EC
  8
回07-寸法
  6
CONTINUOUS
 62
     6
  0
BLOCK
  8
回07-寸法
  2
*X474747
 70
     1
 10
0.0
 20
0.0
 30
0.0
  3
*X474747
  1

  0
TEXT
  5
3EF
  8
回08-記事
  6
CONTINUOUS
 62
     5
 10
-10.67225423019672
 20
61.77448008391483
 30
0.0
 40
3.0
  1
0.3
  0
TEXT
  5
3F0
  8
回08-記事
  6
CONTINUOUS
 62
     5
 10
-5.572254230196721
 20
61.77448008391483
 30
0.0
 40
2.000099999999999
  1
±0.05
  0
TEXT
  5
3F1
  8
回08-記事
  6
CONTINUOUS
 62
     5
 10
0.628055769803277
 20
61.77448008391483
 30
0.0
 40
3.0
  1
[0.012
  0
TEXT
  5
3F2
  8
回08-記事
  6
CONTINUOUS
 62
     5
 10
10.52805576980327
 20
61.77448008391483
 30
0.0
 40
2.00001
  1
±0.002
  0
TEXT
  5
3F3
  8
回08-記事
  6
CONTINUOUS
 62
     5
 10
18.12809376980328
 20
61.77448008391483
 30
0.0
 40
3.0
  1
]
  0
ENDBLK
  5
3F5
  8
回07-寸法
  6
CONTINUOUS
 62
     6
  0
BLOCK
  8
回07-寸法
  2
*X484848
 70
     1
 10
0.0
 20
0.0
 30
0.0
  3
*X484848
  1

  0
TEXT
  5
3F8
  8
回07-寸法
  6
CONTINUOUS
 62
     5
 10
-180.010256723499
 20
-120.1715349889409
 30
0.0
 40
3.0
  1
163
  0
TEXT
  5
3F9
  8
回07-寸法
  6
CONTINUOUS
 62
     5
 10
-174.310256723499
 20
-120.1715349889409
 30
0.0
 40
2.1
  1
±0.3
  0
TEXT
  5
3FA
  8
回07-寸法
  6
CONTINUOUS
 62
     5
 10
-169.270256723499
 20
-120.1715349889409
 30
0.0
 40
3.0
  1
 [6.417
  0
TEXT
  5
3FB
  8
回07-寸法
  6
CONTINUOUS
 62
     5
 10
-157.270256723499
 20
-120.1715349889409
 30
0.0
 40
2.1
  1
±0.012
  0
TEXT
  5
3FC
  8
回07-寸法
  6
CONTINUOUS
 62
     5
 10
-149.710256723499
 20
-120.1715349889409
 30
0.0
 40
3.0
  1
]
  0
ENDBLK
  5
3FE
  8
回07-寸法
  6
CONTINUOUS
 62
     6
  0
BLOCK
  8
回07-寸法
  2
*X494949
 70
     1
 10
0.0
 20
0.0
 30
0.0
  3
*X494949
  1

  0
TEXT
  5
401
  8
回07-寸法
  6
CONTINUOUS
 62
     5
 10
-39.17101193308454
 20
-67.02728554992622
 30
0.0
 40
3.0
  1
71.4
 50
90.0
  0
TEXT
  5
402
  8
回07-寸法
  6
CONTINUOUS
 62
     5
 10
-39.17101193308454
 20
-60.12728554992621
 30
0.0
 40
2.1
  1
±0.3
 50
90.0
  0
TEXT
  5
403
  8
回07-寸法
  6
CONTINUOUS
 62
     5
 10
-39.17101193308454
 20
-55.08728554992622
 30
0.0
 40
3.0
  1
 [2.811
 50
90.0
  0
TEXT
  5
404
  8
回07-寸法
  6
CONTINUOUS
 62
     5
 10
-39.17101193308454
 20
-43.98728554992621
 30
0.0
 40
2.1
  1
±0.012
 50
90.0
  0
TEXT
  5
405
  8
回07-寸法
  6
CONTINUOUS
 62
     5
 10
-39.17101193308454
 20
-36.42728554992626
 30
0.0
 40
3.0
  1
]
 50
90.0
  0
ENDBLK
  5
407
  8
回07-寸法
  6
CONTINUOUS
 62
     6
  0
BLOCK
  8
回07-寸法
  2
*X505050
 70
     1
 10
0.0
 20
0.0
 30
0.0
  3
*X505050
  1

  0
TEXT
  5
40A
  8
回07-寸法
  6
CONTINUOUS
 62
     5
 10
-153.198207974502
 20
4.896316177554523
 30
0.0
 40
3.0
  1
70
 50
90.0
  0
TEXT
  5
40B
  8
回07-寸法
  6
CONTINUOUS
 62
     5
 10
-153.198207974502
 20
9.096316177554511
 30
0.0
 40
2.1
  1
±1
 50
90.0
  0
TEXT
  5
40C
  8
回07-寸法
  6
CONTINUOUS
 62
     5
 10
-153.198207974502
 20
11.61631617755452
 30
0.0
 40
3.0
  1
 [2.756
 50
90.0
  0
TEXT
  5
40D
  8
回07-寸法
  6
CONTINUOUS
 62
     5
 10
-153.198207974502
 20
23.91631617755454
 30
0.0
 40
2.1
  1
±0.039
 50
90.0
  0
TEXT
  5
40E
  8
回07-寸法
  6
CONTINUOUS
 62
     5
 10
-153.198207974502
 20
31.90389795146121
 30
0.0
 40
3.0
  1
]
 50
90.0
  0
ENDBLK
  5
410
  8
回07-寸法
  6
CONTINUOUS
 62
     6
  0
BLOCK
  8
回07-寸法
  2
*X515151
 70
     1
 10
0.0
 20
0.0
 30
0.0
  3
*X515151
  1

  0
TEXT
  5
413
  8
回07-寸法
  6
CONTINUOUS
 62
     5
 10
-65.95096452224336
 20
-82.36780706343969
 30
0.0
 40
3.0
  1
33.3 [1.311]
 50
90.0
  0
TEXT
  5
414
  8
回07-寸法
  6
CONTINUOUS
 62
     5
 10
-65.95096452224336
 20
-63.4678070634397
 30
0.0
 40
2.000099999999999
  1
(ACTIVE AREA CENTER)
 50
90.0
  0
ENDBLK
  5
416
  8
回07-寸法
  6
CONTINUOUS
 62
     6
  0
BLOCK
  8
回07-寸法
  2
*X525252
 70
     1
 10
0.0
 20
0.0
 30
0.0
  3
*X525252
  1

  0
TEXT
  5
419
  8
回06-TH
  6
CONTINUOUS
 62
     5
 10
-211.3665504835827
 20
46.04389553287935
 30
0.0
 40
3.0
  1
4-0.7
  0
TEXT
  5
41A
  8
回06-TH
  6
CONTINUOUS
 62
     5
 10
-201.7665504835827
 20
46.04389553287935
 30
0.0
 40
1.799999999999999
  1
±0.1
  0
TEXT
  5
41B
  8
回06-TH
  6
CONTINUOUS
 62
     5
 10
-197.8065504835827
 20
46.04389553287935
 30
0.0
 40
3.0
  1
[4-0.028
  0
TEXT
  5
41C
  8
回06-TH
  6
CONTINUOUS
 62
     5
 10
-182.8065504835827
 20
46.04389553287935
 30
0.0
 40
2.00001
  1
±0.004
  0
TEXT
  5
41D
  8
回06-TH
  6
CONTINUOUS
 62
     5
 10
-175.0065114835827
 20
46.04389553287935
 30
0.0
 40
3.0
  1
]
  0
ENDBLK
  5
41F
  8
回07-寸法
  6
CONTINUOUS
 62
     6
  0
BLOCK
  8
回07-寸法
  2
*X535353
 70
     1
 10
0.0
 20
0.0
 30
0.0
  3
*X535353
  1

  0
TEXT
  5
422
  8
回06-TH
  6
CONTINUOUS
 62
     5
 10
-212.0947245406318
 20
51.45988726678504
 30
0.0
 40
3.0
  1
1.25
  0
TEXT
  5
423
  8
回06-TH
  6
CONTINUOUS
 62
     5
 10
-205.4947245406318
 20
51.45988726678504
 30
0.0
 40
1.799999999999999
  1
±0.2
  0
TEXT
  5
424
  8
回06-TH
  6
CONTINUOUS
 62
     5
 10
-201.1747245406318
 20
51.45988726678504
 30
0.0
 40
3.0
  1
[0.049
  0
TEXT
  5
425
  8
回06-TH
  6
CONTINUOUS
 62
     5
 10
-190.3638934350509
 20
51.45988726678504
 30
0.0
 40
2.00001
  1
±0.008
  0
TEXT
  5
426
  8
回06-TH
  6
CONTINUOUS
 62
     5
 10
-182.7638554350509
 20
51.45988726678504
 30
0.0
 40
3.0
  1
]
  0
ENDBLK
  5
428
  8
回07-寸法
  6
CONTINUOUS
 62
     6
  0
ENDSEC
  0
SECTION
  2
ENTITIES
  0
TEXT
  5
5E
  8
回03-記事
  6
CONTINUOUS
 62
     5
 10
-209.5763583255918
 20
-172.7439199130102
 30
0.0
 40
4.799999999999998
  1
without affecting product specification.
  0
TEXT
  5
60
  8
回03-記事
  6
CONTINUOUS
 62
     5
 10
-209.5763583255918
 20
-164.3242141988102
 30
0.0
 40
4.799999999999998
  1
Edges and corners of ITO glass may be chamfered 
  0
TEXT
  5
61
  8
回03-記事
  6
CONTINUOUS
 62
     5
 10
-209.5763583255918
 20
-155.9045084846104
 30
0.0
 40
4.799999999999998
  1
Unit: mm
  0
TEXT
  5
62
  8
回03-記事
  6
CONTINUOUS
 62
     5
 10
-209.5763583255918
 20
-147.4848027704107
 30
0.0
 40
4.799999999999998
  1
EXCEPT WHERE INDICATED
  0
TEXT
  5
63
  8
回03-記事
  6
CONTINUOUS
 62
     5
 10
-209.5763583255918
 20
-139.0650970562109
 30
0.0
 40
4.799999999999998
  1
TOLERANCE=±0.5mm
  0
TEXT
  5
64
  8
回07-寸法
  6
CONTINUOUS
 62
     5
 10
-146.8876378658483
 20
1.397974359776751
 30
0.0
 40
3.0
  1
PROTECTION TAPE
1001
ACAD
1000
MTEXTBEGIN
1070
    73
1070
     1
1070
    44
1040
1.0
1070
    74
1070
     0
1000
MTEXTEND
  0
INSERT
  5
65
  8
回07-寸法
  6
CONTINUOUS
 62
     3
 66
     1
  2
*X333333
 10
0.0
 20
0.0
 30
0.0
  0
SEQEND
  5
331
  8
回07-寸法
  6
CONTINUOUS
 62
     6
  0
DIMENSION
  5
66
  8
回07-寸法
  6
CONTINUOUS
 62
     6
  2
*D323232
 10
-89.01439968856676
 20
-11.22646353221624
 30
0.0
 11
-89.01439968856676
 21
6.824681515565885
 31
0.0
 70
   128
  1
4.39 [0.173]
  3
DMC
 13
-95.21382189906107
 23
-15.99989293549223
 33
0.0
 14
-96.2372751804448
 24
-11.22646353221624
 34
0.0
 50
90.0
  0
DIMENSION
  5
76
  8
回07-寸法
  6
CONTINUOUS
 62
     6
  2
*D313131
 10
-44.49192955636139
 20
-87.3998929354922
 30
0.0
 11
-46.64192955636141
 21
-100.1879834866733
 31
0.0
 70
     0
  3
DMC
 13
-85.86025672349895
 23
-84.59989293549218
 33
0.0
 14
-82.76025672349897
 24
-87.3998929354922
 34
0.0
 50
90.0
  0
DIMENSION
  5
85
  8
回07-寸法
  6
CONTINUOUS
 62
     6
  2
*D303030
 10
-44.49192955636139
 20
-84.59989293549218
 30
0.0
 11
-46.64192955636139
 21
-54.09989293549215
 31
0.0
 70
     0
  3
DMC
 13
-85.86025672349895
 23
-23.59989293549217
 33
0.0
 14
-85.86025672349895
 24
-84.59989293549218
 34
0.0
 50
90.0
  0
DIMENSION
  5
92
  8
回07-寸法
  6
CONTINUOUS
 62
     6
  2
*D292929
 10
-44.4919295563614
 20
-23.59989293549217
 30
0.0
 11
-44.4919295563614
 21
-2.639409944009336
 31
0.0
 70
   128
  3
DMC
 13
-82.76025672349897
 23
-15.99989293549217
 33
0.0
 14
-85.86025672349895
 24
-23.59989293549217
 34
0.0
 50
90.0
  0
DIMENSION
  5
A1
  8
回07-寸法
  6
CONTINUOUS
 62
     6
  2
*D282828
 10
-85.86025672349895
 20
-115.2586435118727
 30
0.0
 11
-162.0602567234989
 21
-113.1086435118727
 31
0.0
 70
     0
  3
DMC
 13
-238.2602567234989
 23
-84.59989293549218
 33
0.0
 14
-85.86025672349895
 24
-84.59989293549218
 34
0.0
  0
DIMENSION
  5
AE
  8
回07-寸法
  6
CONTINUOUS
 62
     6
  2
*D272727
 10
-82.76025672349897
 20
-115.2586435118727
 30
0.0
 11
-65.78689606029911
 21
-115.2586435118727
 31
0.0
 70
   128
  3
DMC
 13
-85.86025672349895
 23
-84.59989293549218
 33
0.0
 14
-82.76025672349897
 24
-87.3998929354922
 34
0.0
  0
TEXT
  5
BD
  8
回07-寸法
  6
CONTINUOUS
 62
     7
 10
-39.89936186472585
 20
-121.0745109063421
 30
0.0
 40
2.5
  1
(INSULATION AREA)
 50
90.0
  0
TEXT
  5
BE
  8
回07-寸法
  6
CONTINUOUS
 62
     7
 10
-40.73323494759359
 20
-14.32407519232788
 30
0.0
 40
2.5
  1
(INSULATION AREA)
 50
90.0
  0
TEXT
  5
BF
  8
回07-寸法
  6
CONTINUOUS
 62
     7
 10
-78.88189827063979
 20
-119.0364040907667
 30
0.0
 40
2.5
  1
(INSULATION AREA)
  0
TEXT
  5
C0
  8
回07-寸法
  6
CONTINUOUS
 62
     7
 10
-276.5638730174099
 20
-118.9940221811318
 30
0.0
 40
2.5
  1
(INSULATION AREA)
  0
DIMENSION
  5
C1
  8
回07-寸法
  6
CONTINUOUS
 62
     6
  2
*D262626
 10
-245.760256723499
 20
-115.2586435118727
 30
0.0
 11
-259.1154982192403
 21
-113.1079184733432
 31
0.0
 70
     0
  3
DMC
 13
-238.2602567234989
 23
-84.59989293549218
 33
0.0
 14
-245.760256723499
 24
-87.3998929354922
 34
0.0
  0
POLYLINE
  5
D0
  8
回08-記事
  6
DASHED2
 62
     7
 66
     1
 10
0.0
 20
0.0
 30
0.0
 70
     1
  0
VERTEX
  5
741
  8
回08-記事
  6
DASHED2
 62
     7
 10
-238.2602567234989
 20
-23.59989293549217
 30
0.0
  0
VERTEX
  5
743
  8
回08-記事
  6
DASHED2
 62
     7
 10
-85.86025672349895
 20
-23.59989293549217
 30
0.0
  0
VERTEX
  5
744
  8
回08-記事
  6
DASHED2
 62
     7
 10
-85.86025672349895
 20
-84.59989293549218
 30
0.0
  0
VERTEX
  5
745
  8
回08-記事
  6
DASHED2
 62
     7
 10
-238.2602567234989
 20
-84.59989293549218
 30
0.0
  0
SEQEND
  5
742
  8
回07-寸法
  6
CONTINUOUS
 62
     6
  0
INSERT
  5
D5
  8
回08-記事
  6
CONTINUOUS
 62
     5
 66
     1
  2
*X343434
 10
0.0
 20
0.0
 30
0.0
  0
SEQEND
  5
33F
  8
回07-寸法
  6
CONTINUOUS
 62
     6
  0
DIMENSION
  5
D6
  8
回06-TH
  6
CONTINUOUS
 62
     5
  2
*D252525
 10
-216.1445504835828
 20
50.80988726678504
 30
0.0
 11
-196.8292899878413
 21
52.95988726678504
 31
0.0
 70
     0
  1
1.25{\H0.6x;±0.2}[0.049{\H0.66667x;±0.008}]
  3
DMC
 13
-218.7445504835828
 23
42.22907490083536
 33
0.0
 14
-216.1445504835828
 24
41.25144515699235
 34
0.0
1001
ACAD
1000
DSTYLE
1002
{
1070
   140
1040
2.5
1002
}
  0
DIMENSION
  5
E8
  8
回06-TH
  6
CONTINUOUS
 62
     5
  2
*D242424
 10
-215.4165504835827
 20
45.39389553287935
 30
0.0
 11
-192.5865309835827
 21
47.54389553287935
 31
0.0
 70
     0
  1
4-0.7{\H0.6x;±0.1}[4-0.028{\H0.66667x;±0.004}]
  3
DMC
 13
-216.8725504835827
 23
41.25818576110169
 33
0.0
 14
-215.4165504835827
 24
41.25818576110169
 34
0.0
1001
ACAD
1000
DSTYLE
1002
{
1070
   140
1040
2.5
1002
}
  0
TEXT
  5
F7
  8
回90-枠3
 10
85.22936045511853
 20
-165.6136457711496
 30
0.0
 40
3.0
  1
Sep/25/2023
  0
TEXT
  5
FB
  8
回90-枠3
 10
91.36529459657845
 20
-160.106908175697
 30
0.0
 40
2.5
  1
DATE
  0
LINE
  5
FC
  8
回90-枠3
  6
CONTINUOUS
 62
     7
 10
76.52213705471401
 20
-156.4005481285507
 30
0.0
 11
76.52213705471401
 21
-179.3331962844842
 31
0.0
  0
TEXT
  5
FD
  8
回90-枠3
 10
81.24354951799
 20
-176.5260813539714
 30
0.0
 40
4.0
  1
DMC Co., Ltd.
  0
TEXT
  5
FE
  8
回90-枠3
 10
39.57707861754875
 20
-160.1723762899209
 30
0.0
 40
2.5
  1
PART No.
  0
TEXT
  5
FF
  8
回90-枠3
 10
39.83902593023117
 20
-171.1551412584637
 30
0.0
 40
2.5
  1
TYPE
  0
TEXT
  5
100
  8
回90-枠3
 10
25.65360838315996
 20
-175.1607087226609
 30
0.0
 40
2.5
  1
STANDARD TOUCHSCREEN
  0
LINE
  5
101
  8
回90-枠3
 10
12.25251242402555
 20
-156.4005481285507
 30
0.0
 11
12.25251242402555
 21
-179.2664711482329
 31
0.0
  0
TEXT
  5
102
  8
回90-枠3
 10
27.52594234078311
 20
-178.5448401442601
 30
0.0
 40
2.5
  1
DIMENSIONAL DRAWING
  0
LINE
  5
103
  8
回90-枠3
 10
23.55406802928815
 20
-175.5026780806251
 30
0.0
 11
69.88333857665998
 21
-175.5026780806251
 31
0.0
  0
LINE
  5
104
  8
回90-枠3
 10
12.25251242402555
 20
-160.6615277090336
 30
0.0
 11
115.5106304613327
 21
-160.6615277090336
 31
0.0
  0
LINE
  5
105
  8
回90-枠3
 10
12.2661188813588
 20
-171.6646183849581
 30
0.0
 11
76.52213705471401
 21
-171.6646183849581
 31
0.0
  0
LINE
  5
106
  8
回90-枠3
 10
12.25251242402555
 20
-156.4005481285507
 30
0.0
 11
115.6706369684002
 21
-156.4005481285507
 31
0.0
  0
LINE
  5
107
  8
回90-枠3
 10
12.25158401087469
 20
-167.9436299708313
 30
0.0
 11
115.5588364346724
 21
-167.9436299708313
 31
0.0
  0
TEXT
  5
108
  8
回90-枠3
 10
22.2337517411579
 20
-167.2063152818641
 30
0.0
 40
5.0
  1
AST-062A070A
  0
DIMENSION
  5
109
  8
回06-TH
  6
CONTINUOUS
 62
     5
  2
*D232323
 10
-82.76025672349897
 20
66.9902630226361
 30
0.0
 11
-93.46025672349894
 21
69.14026302263611
 31
0.0
 70
     0
  3
DMC
 13
-104.1602567234989
 23
54.00010706450792
 33
0.0
 14
-82.76025672349897
 24
-15.99989293549217
 34
0.0
  0
CIRCLE
  5
116
  8
回07-寸法
  6
DASHED2
 62
     5
 10
-103.9233453398191
 20
54.08297691096277
 30
0.0
 40
5.926841827396128
  0
TEXT
  5
117
  8
回07-寸法
  6
CONTINUOUS
 62
     5
 10
6.330493695087623
 20
14.28567496739733
 30
0.0
 40
4.0
  1
LOT LABEL
 50
90.0
1001
ACAD
1000
MTEXTBEGIN
1070
    73
1070
     1
1070
    44
1040
1.0
1070
    74
1070
     0
1000
MTEXTEND
  0
INSERT
  5
118
  8
回07-寸法
  6
CONTINUOUS
 62
     7
 66
     1
  2
*X353535
 10
0.0
 20
0.0
 30
0.0
  0
SEQEND
  5
346
  8
回07-寸法
  6
CONTINUOUS
 62
     6
  0
POLYLINE
  5
11A
  8
回08-記事
  6
CONTINUOUS
 62
     7
 66
     1
 10
0.0
 20
0.0
 30
0.0
 70
     1
  0
VERTEX
  5
746
  8
回08-記事
  6
CONTINUOUS
 62
     7
 10
-15.92461643492106
 20
4.560263889255677
 30
0.0
  0
VERTEX
  5
748
  8
回08-記事
  6
CONTINUOUS
 62
     7
 10
-15.32461643492115
 20
4.560263889255677
 30
0.0
  0
VERTEX
  5
749
  8
回08-記事
  6
CONTINUOUS
 62
     7
 10
-15.32461643492115
 20
30.56026388925568
 30
0.0
  0
VERTEX
  5
74A
  8
回08-記事
  6
CONTINUOUS
 62
     7
 10
-15.92461643492106
 20
30.56026388925568
 30
0.0
  0
SEQEND
  5
747
  8
回07-寸法
  6
CONTINUOUS
 62
     6
  0
INSERT
  5
11B
  8
回07-寸法
  6
CONTINUOUS
 62
     8
 66
     1
  2
*X363636
 10
0.0
 20
0.0
 30
0.0
1001
ACAD
1000
HATCH
1002
{
1070
    19
1000
ANSI31
1040
15.0
1040
0.0
1000
ASC_BOUNDS
1070
     1
1070
     2
1070
     1
1005
11C
1000
ASC_SEEDPOINT
1011
-124.1110572578689
1021
-171.726409999913
1031
0.0
1000
R14_HATCH_DATA
1000
11B
1011
1.0
1021
0.0
1031
0.0
1011
0.0
1021
1.0
1031
0.0
1011
0.0
1021
0.0
1031
1.0
1040
0.0
1010
0.0
1020
0.0
1030
1.0
1000
ANSI31
1070
     0
1070
     1
1071
        1
1071
        1
1071
        8
1070
     1
1040
-105.6602567234989
1040
30.56026388925568
1040
-102.6602567234989
1040
30.56026388925568
1070
     2
1040
-102.6602567234989
1040
29.56026388925568
1040
1.0
1040
4.712388980384688
1040
6.283185307179584
1070
     0
1070
     1
1040
-101.6602567234989
1040
29.56026388925568
1040
-101.6602567234989
1040
5.560263889255677
1070
     2
1040
-102.6602567234989
1040
5.560263889255677
1040
1.0
1040
6.283185307179584
1040
7.853981633974482
1070
     0
1070
     1
1040
-102.6602567234989
1040
4.560263889255677
1040
-105.6602567234989
1040
4.560263889255677
1070
     2
1040
-105.6602567234989
1040
5.560263889255677
1040
1.0
1040
1.570796326794896
1040
3.141592653589792
1070
     0
1070
     1
1040
-106.6602567234989
1040
5.560263889255677
1040
-106.6602567234989
1040
29.56026388925568
1070
     2
1040
-105.6602567234989
1040
29.56026388925568
1040
1.0
1040
3.141592653589792
1040
4.712388980384688
1070
     0
1071
        1
1005
11C
1070
     0
1070
     1
1040
0.0
1040
15.0
1070
     0
1070
     1
1040
0.7853981633974483
1040
-124.1110572578689
1040
-171.726409999913
1040
-1.325825214724774
1040
1.325825214724774
1070
     0
1071
        1
1040
-124.1110572578689
1040
-171.726409999913
1040
0.0
1002
}
  0
SEQEND
  5
35A
  8
回07-寸法
  6
CONTINUOUS
 62
     6
  0
POLYLINE
  5
11C
  8
回07-寸法
  6
DASHED2
 62
     8
 66
     1
 10
0.0
 20
0.0
 30
0.0
 70
     1
1001
ACAD
1000
ASC_BOUNDS
1002
{
1070
    19
1005
11B
1002
}
  0
VERTEX
  5
74B
  8
回07-寸法
  6
DASHED2
 62
     8
 10
-105.6602567234989
 20
30.56026388925568
 30
0.0
  0
VERTEX
  5
74D
  8
回07-寸法
  6
DASHED2
 62
     8
 10
-102.6602567234989
 20
30.56026388925568
 30
0.0
 42
-0.4142135623730951
  0
VERTEX
  5
74E
  8
回07-寸法
  6
DASHED2
 62
     8
 10
-101.6602567234989
 20
29.56026388925568
 30
0.0
  0
VERTEX
  5
74F
  8
回07-寸法
  6
DASHED2
 62
     8
 10
-101.6602567234989
 20
5.560263889255677
 30
0.0
 42
-0.4142135623730951
  0
VERTEX
  5
750
  8
回07-寸法
  6
DASHED2
 62
     8
 10
-102.6602567234989
 20
4.560263889255677
 30
0.0
  0
VERTEX
  5
751
  8
回07-寸法
  6
DASHED2
 62
     8
 10
-105.6602567234989
 20
4.560263889255677
 30
0.0
 42
-0.4142135623730951
  0
VERTEX
  5
752
  8
回07-寸法
  6
DASHED2
 62
     8
 10
-106.6602567234989
 20
5.560263889255677
 30
0.0
  0
VERTEX
  5
753
  8
回07-寸法
  6
DASHED2
 62
     8
 10
-106.6602567234989
 20
29.56026388925568
 30
0.0
 42
-0.4142135623730946
  0
SEQEND
  5
74C
  8
回07-寸法
  6
CONTINUOUS
 62
     6
  0
TEXT
  5
11D
  8
回07-寸法
  6
CONTINUOUS
 62
     5
 10
-135.6978772448623
 20
10.23277518002521
 30
0.0
 40
3.0
  1
LOT LABEL
1001
ACAD
1000
MTEXTBEGIN
1070
    73
1070
     1
1070
    44
1040
1.0
1070
    74
1070
     0
1000
MTEXTEND
  0
INSERT
  5
11E
  8
回07-寸法
  6
CONTINUOUS
 62
     7
 66
     1
  2
*X373737
 10
0.0
 20
0.0
 30
0.0
  0
SEQEND
  5
36A
  8
回07-寸法
  6
CONTINUOUS
 62
     6
  0
LINE
  5
11F
  8
回08-記事
  6
CONTINUOUS
 62
     5
 10
79.9654439852507
 20
11.15301367054991
 30
0.0
 11
79.9654439852507
 21
-13.41698632945025
 31
0.0
  0
LINE
  5
120
  8
回08-記事
  6
CONTINUOUS
 62
     5
 10
91.61895485054719
 20
11.15301367054991
 30
0.0
 11
91.61895485054719
 21
-33.92910650012976
 31
0.0
  0
LINE
  5
121
  8
回08-記事
  6
CONTINUOUS
 62
     5
 10
49.43769609783629
 20
11.15301367054991
 30
0.0
 11
49.43769609783629
 21
-13.41698632945025
 31
0.0
  0
TEXT
  5
122
  8
回08-記事
  6
CONTINUOUS
 62
     5
 10
90.11483471986307
 20
11.52969591256499
 30
0.0
 40
4.679999999999998
  1
4
  0
TEXT
  5
123
  8
回08-記事
  6
CONTINUOUS
 62
     5
 10
81.32824724896323
 20
-14.3725731189225
 30
0.0
 40
4.094999999999997
  1
XR
  0
LINE
  5
124
  8
回08-記事
  6
CONTINUOUS
 62
     5
 10
91.61895485054706
 20
-33.92910650012976
 30
0.0
 11
66.80294398525075
 21
-33.92910650012976
 31
0.0
  0
LINE
  5
125
  8
回08-記事
  6
CONTINUOUS
 62
     5
 10
66.80294398525075
 20
-27.74948632945012
 30
0.0
 11
66.80294398525075
 21
-33.92910650012976
 31
0.0
  0
LINE
  5
126
  8
回08-記事
  6
CONTINUOUS
 62
     5
 10
68.32394398525093
 20
-20.08598632945012
 30
0.0
 11
64.11194398525065
 21
-22.19198632945023
 31
0.0
  0
LINE
  5
127
  8
回08-記事
  6
CONTINUOUS
 62
     5
 10
64.11194398525065
 20
-17.97998632945052
 30
0.0
 11
68.32394398525093
 21
-20.08598632945012
 31
0.0
  0
LINE
  5
128
  8
回08-記事
  6
CONTINUOUS
 62
     5
 10
64.11194398525065
 20
-22.19198632945023
 30
0.0
 11
68.32394398525093
 21
-24.2979863294504
 31
0.0
  0
LINE
  5
129
  8
回08-記事
  6
CONTINUOUS
 62
     5
 10
68.32394398525093
 20
-24.2979863294504
 30
0.0
 11
64.11194398525065
 21
-26.4039863294505
 31
0.0
  0
LINE
  5
12A
  8
回08-記事
  6
CONTINUOUS
 62
     5
 10
64.11194398525065
 20
-26.4039863294505
 30
0.0
 11
66.80294398525075
 21
-27.74948632945012
 31
0.0
  0
LINE
  5
12B
  8
回08-記事
  6
CONTINUOUS
 62
     5
 10
64.11194398525065
 20
-9.555986329450263
 30
0.0
 11
68.32394398525093
 21
-11.66198632945014
 31
0.0
  0
LINE
  5
12C
  8
回08-記事
  6
CONTINUOUS
 62
     5
 10
64.11194398525065
 20
-5.343986329450273
 30
0.0
 11
68.32394398525093
 21
-7.449986329450155
 31
0.0
  0
LINE
  5
12D
  8
回08-記事
  6
CONTINUOUS
 62
     5
 10
68.32394398525093
 20
-7.449986329450155
 30
0.0
 11
64.11194398525065
 21
-9.555986329450263
 31
0.0
  0
LINE
  5
12E
  8
回08-記事
  6
CONTINUOUS
 62
     5
 10
68.49944398525065
 20
-11.31098632945014
 30
0.0
 11
66.39344398525081
 21
-15.52298632945036
 31
0.0
  0
LINE
  5
12F
  8
回08-記事
  6
CONTINUOUS
 62
     5
 10
73.29644398525084
 20
-11.31098632945014
 30
0.0
 11
71.19044398525073
 21
-15.52298632945036
 31
0.0
  0
LINE
  5
130
  8
回08-記事
  6
CONTINUOUS
 62
     5
 10
73.29644398525084
 20
-11.31098632945014
 30
0.0
 11
75.40244398525072
 21
-15.52298632945036
 31
0.0
  0
LINE
  5
131
  8
回08-記事
  6
CONTINUOUS
 62
     5
 10
68.49944398525065
 20
-11.31098632945014
 30
0.0
 11
70.60544398525081
 21
-15.52298632945036
 31
0.0
  0
LINE
  5
132
  8
回08-記事
  6
CONTINUOUS
 62
     5
 10
60.07544398525038
 20
-11.31098632945014
 30
0.0
 11
62.18144398525106
 21
-15.52298632945036
 31
0.0
  0
LINE
  5
133
  8
回08-記事
  6
CONTINUOUS
 62
     5
 10
64.28744398525066
 20
-11.31098632945014
 30
0.0
 11
62.18144398525106
 21
-15.52298632945036
 31
0.0
  0
LINE
  5
134
  8
回08-記事
  6
CONTINUOUS
 62
     5
 10
64.28744398525066
 20
-11.31098632945014
 30
0.0
 11
66.39344398525081
 21
-15.52298632945036
 31
0.0
  0
LINE
  5
135
  8
回08-記事
  6
CONTINUOUS
 62
     5
 10
76.45544398525078
 20
-13.41698632945025
 30
0.0
 11
75.40244398525072
 21
-15.52298632945036
 31
0.0
  0
LINE
  5
136
  8
回08-記事
  6
CONTINUOUS
 62
     5
 10
68.32394398525093
 20
-11.66198632945014
 30
0.0
 11
64.11194398525065
 21
-13.76798632945053
 31
0.0
  0
LINE
  5
137
  8
回08-記事
  6
CONTINUOUS
 62
     5
 10
64.11194398525065
 20
-13.76798632945053
 30
0.0
 11
68.32394398525093
 21
-15.87398632945042
 31
0.0
  0
LINE
  5
138
  8
回08-記事
  6
CONTINUOUS
 62
     5
 10
76.45544398525078
 20
-13.41698632945025
 30
0.0
 11
79.9654439852507
 21
-13.41698632945025
 31
0.0
  0
TEXT
  5
139
  8
回08-記事
  6
CONTINUOUS
 62
     5
 10
41.65248401348025
 20
-14.28852716030894
 30
0.0
 40
4.094999999999997
  1
XL
  0
LINE
  5
13A
  8
回08-記事
  6
CONTINUOUS
 62
     5
 10
65.63294398525084
 20
-1.892486329450548
 30
0.0
 11
68.32394398525093
 21
-3.237986329450166
 31
0.0
  0
LINE
  5
13B
  8
回08-記事
  6
CONTINUOUS
 62
     5
 10
68.32394398525093
 20
-3.237986329450166
 30
0.0
 11
64.11194398525065
 21
-5.343986329450273
 31
0.0
  0
LINE
  5
13C
  8
回08-記事
  6
CONTINUOUS
 62
     5
 10
55.86344398525068
 20
-11.31098632945014
 30
0.0
 11
57.96944398525084
 21
-15.52298632945036
 31
0.0
  0
LINE
  5
13D
  8
回08-記事
  6
CONTINUOUS
 62
     5
 10
55.86344398525068
 20
-11.31098632945014
 30
0.0
 11
54.81044398525064
 21
-13.41698632945025
 31
0.0
  0
LINE
  5
13E
  8
回08-記事
  6
CONTINUOUS
 62
     5
 10
49.43769609783629
 20
-13.41698632945025
 30
0.0
 11
54.81044398525064
 21
-13.41698632945025
 31
0.0
  0
TEXT
  5
13F
  8
回08-記事
  6
CONTINUOUS
 62
     5
 10
68.31866569256215
 20
-31.70650841256779
 30
0.0
 40
4.094999999999997
  1
YD
  0
LINE
  5
140
  8
回08-記事
  6
CONTINUOUS
 62
     5
 10
60.07544398525038
 20
-11.31098632945014
 30
0.0
 11
57.96944398525084
 21
-15.52298632945036
 31
0.0
  0
TEXT
  5
141
  8
回08-記事
  6
CONTINUOUS
 62
     5
 10
47.08928066381786
 20
11.6820044526051
 30
0.0
 40
4.679999999999998
  1
1
  0
TEXT
  5
142
  8
回08-記事
  6
CONTINUOUS
 62
     5
 10
63.85767749523734
 20
11.72281850121942
 30
0.0
 40
4.679999999999998
  1
2
  0
TEXT
  5
143
  8
回08-記事
  6
CONTINUOUS
 62
     5
 10
78.03302535356856
 20
11.62469225784747
 30
0.0
 40
4.679999999999998
  1
3
  0
LINE
  5
144
  8
回08-記事
  6
CONTINUOUS
 62
     5
 10
65.63294398525084
 20
11.15301367054991
 30
0.0
 11
65.63294398525084
 21
-1.892486329450548
 31
0.0
  0
TEXT
  5
145
  8
回08-記事
  6
CONTINUOUS
 62
     5
 10
28.84441587818026
 20
-47.77178518036818
 30
0.0
 40
6.0
  1
PIN ASSIGNMENT
  0
TEXT
  5
146
  8
回08-記事
  6
CONTINUOUS
 62
     5
 10
68.04137128049984
 20
-1.016874820361464
 30
0.0
 40
4.094999999999997
  1
YU
  0
LINE
  5
147
  8
回08-記事
  6
CONTINUOUS
 62
     5
 10
68.32394398525093
 20
-15.87398632945042
 30
0.0
 11
64.11194398525065
 21
-17.97998632945052
 31
0.0
  0
INSERT
  5
148
  8
回08-記事
  6
CONTINUOUS
 62
     8
 66
     1
  2
*X383838
 10
0.0
 20
0.0
 30
0.0
1001
ACAD
1000
HATCH
1002
{
1070
    19
1000
ANSI31
1040
0.5
1040
-1.570796326794896
1000
ASC_BOUNDS
1070
     1
1070
     2
1070
     1
1005
149
1000
ASC_SEEDPOINT
1011
-321.3099248046692
1021
-264.9132169729814
1031
0.0
1000
R14_HATCH_DATA
1000
148
1011
1.0
1021
0.0
1031
0.0
1011
0.0
1021
1.0
1031
0.0
1011
0.0
1021
0.0
1031
1.0
1040
0.0
1010
0.0
1020
0.0
1030
1.0
1000
ANSI31
1070
     0
1070
     1
1071
        1
1071
        1
1071
        4
1070
     1
1040
-96.75757391108342
1040
-19.29989293549212
1040
-96.75757391108342
1040
-11.60840993109192
1070
     1
1040
-96.75757391108342
1040
-11.60840993109192
1040
-111.5602567234992
1040
-11.60840993109192
1070
     1
1040
-111.5602567234992
1040
-11.60840993109192
1040
-111.5602567234992
1040
-19.29989293549212
1070
     1
1040
-111.5602567234992
1040
-19.29989293549212
1040
-96.75757391108342
1040
-19.29989293549212
1071
        1
1005
149
1070
     0
1070
     1
1040
-1.570796326794896
1040
0.5
1070
     0
1070
     1
1040
5.497787143782136
1040
-321.3099248046692
1040
-264.9132169729814
1040
1.122532015133643
1040
1.122532015133643
1070
     0
1071
        1
1040
-321.3099248046692
1040
-264.9132169729814
1040
0.0
1002
}
  0
SEQEND
  5
378
  8
回07-寸法
  6
CONTINUOUS
 62
     6
  0
POLYLINE
  5
149
  8
回08-記事
  6
DASHED2
 62
     8
 66
     1
 10
0.0
 20
0.0
 30
0.0
 70
     1
1001
ACAD
1000
ASC_BOUNDS
1002
{
1070
    19
1005
148
1002
}
  0
VERTEX
  5
754
  8
回08-記事
  6
DASHED2
 62
     8
 10
-96.75757391108342
 20
-19.29989293549212
 30
0.0
  0
VERTEX
  5
756
  8
回08-記事
  6
DASHED2
 62
     8
 10
-96.75757391108342
 20
-11.60840993109192
 30
0.0
  0
VERTEX
  5
757
  8
回08-記事
  6
DASHED2
 62
     8
 10
-111.5602567234992
 20
-11.60840993109192
 30
0.0
  0
VERTEX
  5
758
  8
回08-記事
  6
DASHED2
 62
     8
 10
-111.5602567234992
 20
-19.29989293549212
 30
0.0
  0
SEQEND
  5
755
  8
回07-寸法
  6
CONTINUOUS
 62
     6
  0
DIMENSION
  5
14A
  8
回07-寸法
  6
CONTINUOUS
 62
     5
  2
*D222222
 10
-64.26672275391918
 20
-54.09989293549219
 30
0.0
 11
-67.45096452224335
 21
-58.74250328391214
 31
0.0
 70
   128
  1
<>{\H0.6667x;(ACTIVE AREA CENTER)}
  3
DMC
 13
-82.76025672349897
 23
-87.3998929354922
 33
0.0
 14
-82.76025672349897
 24
-54.09989293549218
 34
0.0
 50
90.0
1001
ACAD
1000
DSTYLE
1002
{
1070
   279
1070
     2
1002
}
  0
DIMENSION
  5
157
  8
回07-寸法
  6
CONTINUOUS
 62
     5
  2
*D212121
 10
-162.0602567234989
 20
-95.42148736958507
 30
0.0
 11
-203.9102567234989
 21
-95.42148736958507
 31
0.0
 70
   128
  1
<> (ACTIVE AREA CENTER)
  3
DMC
 13
-245.760256723499
 23
-87.3998929354922
 33
0.0
 14
-162.0602567234989
 24
-87.3998929354922
 34
0.0
  0
LINE
  5
164
  8
回07-寸法
  6
CENTER2
 62
     5
 10
-82.76025672349897
 20
-54.09989293549218
 30
0.0
 11
-245.760256723499
 21
-54.09989293549218
 31
0.0
  0
LINE
  5
166
  8
回07-寸法
  6
CENTER2
 62
     5
 10
-162.0602567234989
 20
-15.99989293549217
 30
0.0
 11
-162.0602567234989
 21
-87.3998929354922
 31
0.0
  0
TEXT
  5
167
  8
回07-寸法
  6
CONTINUOUS
 62
     5
 10
-106.9755783838217
 20
-73.30773465878417
 30
0.0
 40
2.0
  1
AIR VENT
1001
ACAD
1000
MTEXTBEGIN
1070
    73
1070
     1
1070
    44
1040
1.0
1070
    74
1070
     0
1000
MTEXTEND
  0
INSERT
  5
168
  8
回07-寸法
  6
CONTINUOUS
 62
     5
 66
     1
  2
*X393939
 10
0.0
 20
0.0
 30
0.0
  0
SEQEND
  5
384
  8
回07-寸法
  6
CONTINUOUS
 62
     6
  0
LINE
  5
169
  8
回08-記事
  6
CONTINUOUS
 62
     5
 10
-230.7058135532679
 20
65.34139383677382
 30
0.0
 11
-232.7858135532679
 21
65.34139383677382
 31
0.0
  0
TEXT
  5
16A
  8
回07-寸法
  6
CONTINUOUS
 62
     5
 10
-257.7896707756694
 20
47.72828579892768
 30
0.0
 40
3.12
  1
2-R0.5[R0.020]
1001
ACAD
1000
MTEXTBEGIN
1070
    73
1070
     1
1070
    44
1040
1.0
1070
    74
1070
     0
1000
MTEXTEND
  0
INSERT
  5
16B
  8
回07-寸法
  6
CONTINUOUS
 62
     5
 66
     1
  2
*X404040
 10
0.0
 20
0.0
 30
0.0
  0
SEQEND
  5
38B
  8
回07-寸法
  6
CONTINUOUS
 62
     6
  0
LINE
  5
16C
  8
回08-記事
  6
CONTINUOUS
 62
     5
 10
-213.5445504835828
 20
40.21818576110168
 30
0.0
 11
-213.5445504835828
 21
48.05785979651479
 31
0.0
  0
LINE
  5
16D
  8
回08-記事
  6
CONTINUOUS
 62
     5
 10
-216.1445504835827
 20
41.25144515699235
 30
0.0
 11
-216.1445504835827
 21
48.05785979651479
 31
0.0
  0
INSERT
  5
16E
  8
回08-記事
  6
CONTINUOUS
 62
     5
 66
     1
  2
*X414141
 10
0.0
 20
0.0
 30
0.0
  0
SEQEND
  5
394
  8
回07-寸法
  6
CONTINUOUS
 62
     6
  0
INSERT
  5
16F
  8
回08-記事
  6
CONTINUOUS
 62
     5
  2
_OPEN
 10
-216.1445504835827
 20
56.40433234537851
 30
0.0
 41
4.16
 42
4.16
 43
4.16
 50
180.0
  0
INSERT
  5
170
  8
回08-記事
  6
CONTINUOUS
 62
     5
  2
_OPEN
 10
-223.9445504835827
 20
56.40433234537851
 30
0.0
 41
4.16
 42
4.16
 43
4.16
  0
LINE
  5
171
  8
回08-記事
  6
CONTINUOUS
 62
     5
 10
-223.9445504835828
 20
56.40433234537853
 30
0.0
 11
-216.1445504835827
 21
56.40433234537853
 31
0.0
  0
LINE
  5
172
  8
回08-記事
  6
CONTINUOUS
 62
     5
 10
-211.9845504835828
 20
56.40433234537853
 30
0.0
 11
-180.6951765686199
 21
56.40433234537853
 31
0.0
  0
LINE
  5
173
  8
回08-記事
  6
CONTINUOUS
 62
     5
 10
-228.1045504835828
 20
56.40433234537853
 30
0.0
 11
-232.2645504835827
 21
56.40433234537853
 31
0.0
  0
LINE
  5
174
  8
回08-記事
  6
CONTINUOUS
 62
     5
 10
-223.9445504835828
 20
41.25144515699235
 30
0.0
 11
-223.9445504835828
 21
57.40684537810571
 31
0.0
  0
LINE
  5
175
  8
回08-記事
  6
CONTINUOUS
 62
     5
 10
-216.1445504835827
 20
41.25818576110169
 30
0.0
 11
-216.1445504835827
 21
57.40684537810571
 31
0.0
  0
INSERT
  5
176
  8
回08-記事
  6
CONTINUOUS
 62
     5
  2
_OPEN
 10
-213.5445504835827
 20
65.34139383677382
 30
0.0
 41
4.16
 42
4.16
 43
4.16
 50
180.0
  0
INSERT
  5
177
  8
回08-記事
  6
CONTINUOUS
 62
     5
  2
_OPEN
 10
-226.5458135532679
 20
65.34139383677382
 30
0.0
 41
4.16
 42
4.16
 43
4.16
  0
LINE
  5
178
  8
回08-記事
  6
CONTINUOUS
 62
     5
 10
-226.5458135532679
 20
65.34139383677384
 30
0.0
 11
-213.5445504835828
 21
65.34139383677384
 31
0.0
  0
LINE
  5
179
  8
回08-記事
  6
CONTINUOUS
 62
     5
 10
-209.3845504835828
 20
65.34139383677384
 30
0.0
 11
-207.3650267775622
 21
65.34139383677384
 31
0.0
  0
LINE
  5
17A
  8
回08-記事
  6
CONTINUOUS
 62
     5
 10
-226.5458135532679
 20
41.66690858911438
 30
0.0
 11
-226.5458135532679
 21
67.38187051939758
 31
0.0
  0
LINE
  5
17B
  8
回08-記事
  6
CONTINUOUS
 62
     5
 10
-213.5445504835828
 20
41.66690858911438
 30
0.0
 11
-213.5445504835828
 21
67.38187051939758
 31
0.0
  0
TEXT
  5
17C
  8
回08-記事
  6
CONTINUOUS
 62
     5
 10
-213.4752232845267
 20
13.30171471893334
 30
0.0
 40
3.9
  1
SECTION A
  0
LINE
  5
17D
  8
回08-記事
 62
     5
 10
-223.9445504835828
 20
42.22907490083536
 30
0.0
 11
-223.9445504835828
 21
26.99655394281352
 31
0.0
  0
LINE
  5
17E
  8
回08-記事
 62
     5
 10
-218.7445504835828
 20
42.22907490083536
 30
0.0
 11
-218.7445504835828
 21
26.99655394281352
 31
0.0
  0
LINE
  5
17F
  8
回08-記事
 62
     5
 10
-216.1445504835827
 20
42.22907490083536
 30
0.0
 11
-216.1445504835827
 21
26.99655394281352
 31
0.0
  0
LINE
  5
180
  8
回08-記事
  6
CONTINUOUS
 62
     7
 10
-226.5463548688472
 20
30.85818576110169
 30
0.0
 11
-213.5445504835828
 21
30.85818576110169
 31
0.0
  0
LINE
  5
181
  8
回08-記事
  6
BYBLOCK
 62
     7
 10
-214.5845504835826
 20
41.25818576110169
 30
0.0
 11
-225.5045504835826
 21
41.25818576110169
 31
0.0
  0
ARC
  5
182
  8
回08-記事
  6
BYBLOCK
 62
     7
 10
-225.5045504835826
 20
40.21818576110166
 30
0.0
 40
1.04
 50
90.0
 51
180.0
  0
ARC
  5
183
  8
回08-記事
  6
BYBLOCK
 62
     7
 10
-214.5845504835826
 20
40.21818576110166
 30
0.0
 40
1.04
 50
0.0
 51
90.0
  0
LINE
  5
184
  8
回08-記事
  6
BYBLOCK
 62
     7
 10
-226.5458135532679
 20
40.21818576110168
 30
0.0
 11
-226.5469563306022
 21
20.45818576110169
 31
0.0
  0
LINE
  5
185
  8
回08-記事
  6
BYBLOCK
 62
     7
 10
-213.5445504835828
 20
40.21818576110168
 30
0.0
 11
-213.5445504835828
 21
20.45818576110169
 31
0.0
  0
TEXT
  5
186
  8
回07-寸法
  6
CONTINUOUS
 62
     5
 10
-140.0405118234953
 20
-11.52783638832998
 30
0.0
 40
3.0
  1
2-R2[R0.079]
1001
ACAD
1000
MTEXTBEGIN
1070
    73
1070
     1
1070
    44
1040
1.0
1070
    74
1070
     0
1000
MTEXTEND
  0
INSERT
  5
187
  8
回07-寸法
  6
CONTINUOUS
 62
     3
 66
     1
  2
*X424242
 10
0.0
 20
0.0
 30
0.0
  0
SEQEND
  5
39B
  8
回07-寸法
  6
CONTINUOUS
 62
     6
  0
TEXT
  5
188
  8
回07-寸法
  6
CONTINUOUS
 62
     5
 10
-139.8516690609132
 20
-5.374051508572056
 30
0.0
 40
3.0
  1
4-R1[R0.039]
1001
ACAD
1000
MTEXTBEGIN
1070
    73
1070
     1
1070
    44
1040
1.0
1070
    74
1070
     0
1000
MTEXTEND
  0
INSERT
  5
189
  8
回07-寸法
  6
CONTINUOUS
 62
     3
 66
     1
  2
*X434343
 10
0.0
 20
0.0
 30
0.0
  0
SEQEND
  5
3A2
  8
回07-寸法
  6
CONTINUOUS
 62
     6
  0
DIMENSION
  5
18A
  8
回07-寸法
  6
CONTINUOUS
 62
     5
  2
*D202020
 10
-84.36804629492554
 20
-15.99989293549223
 30
0.0
 11
-84.36804629492554
 21
8.666611129027275
 31
0.0
 70
   128
  1
9.4 [0.370]
  3
DMC
 13
-101.0352567234991
 23
-5.888630366714152
 33
0.0
 14
-95.21382189906104
 24
-15.99989293549223
 34
0.0
 50
90.0
  0
TEXT
  5
199
  8
回07-寸法
  6
CONTINUOUS
 62
     5
 10
-115.5430120062078
 20
46.40054467304089
 30
0.0
 40
3.0
  1
A
1001
ACAD
1000
MTEXTBEGIN
1070
    73
1070
     1
1070
    44
1040
1.0
1070
    74
1070
     0
1000
MTEXTEND
  0
INSERT
  5
19A
  8
回07-寸法
  6
CONTINUOUS
 62
     3
 66
     1
  2
*X444444
 10
0.0
 20
0.0
 30
0.0
  0
SEQEND
  5
3A9
  8
回07-寸法
  6
CONTINUOUS
 62
     6
  0
DIMENSION
  5
19B
  8
回07-寸法
  6
CONTINUOUS
 62
     5
  2
*D191919
 10
-96.16085804091163
 20
32.58785491852279
 30
0.0
 11
-124.7602567234991
 21
32.58785491852279
 31
0.0
 70
   128
  3
DMC
 13
-112.1602567234991
 23
-12.95601477416213
 33
0.0
 14
-96.16085804091163
 24
-12.95437488527491
 34
0.0
  0
DIMENSION
  5
1AA
  8
回07-寸法
  6
CONTINUOUS
 62
     5
  2
*D181818
 10
-101.0352567234989
 20
61.1459356031553
 30
0.0
 11
-128.4356103982091
 21
61.1459356031553
 31
0.0
 70
   128
  3
DMC
 13
-107.2858466186815
 23
53.50010706450792
 33
0.0
 14
-101.0352567234989
 24
53.50010706450792
 34
0.0
1001
ACAD
1000
DSTYLE
1002
{
1070
    47
1040
0.2
1070
   147
1040
0.5
1070
    48
1040
0.2
1070
    72
1070
     0
1070
    71
1070
     0
1002
}
  0
DIMENSION
  5
1B9
  8
回07-寸法
  6
CONTINUOUS
 62
     5
  2
*D171717
 10
-152.548207974502
 20
54.00010706450792
 30
0.0
 11
-152.548207974502
 21
19.00010706450785
 31
0.0
 70
   128
  3
DMC
 13
-116.4385834982544
 23
-15.99989293549223
 33
0.0
 14
-106.0352567234989
 24
54.00010706450792
 34
0.0
 50
270.0
1001
ACAD
1000
DSTYLE
1002
{
1070
    47
1040
1.0
1070
    48
1040
1.0
1070
    71
1070
     1
1002
}
  0
DIMENSION
  5
1C6
  8
回07-寸法
  6
CONTINUOUS
 62
     5
  2
*D161616
 10
-38.52101193308453
 20
-87.3998929354922
 30
0.0
 11
-38.52101193308454
 21
-51.12728554992621
 31
0.0
 70
   128
  3
DMC
 13
-82.76025672349897
 23
-15.99989293549217
 33
0.0
 14
-82.76025672349897
 24
-87.3998929354922
 34
0.0
 50
90.0
1001
ACAD
1000
DSTYLE
1002
{
1070
    47
1040
0.3
1070
    48
1040
0.3
1070
   147
1040
0.5
1070
    72
1070
     0
1070
    71
1070
     1
1002
}
  0
DIMENSION
  5
1D3
  8
回07-寸法
  6
CONTINUOUS
 62
     5
  2
*D151515
 10
-49.48049962460056
 20
-24.39989293549219
 30
0.0
 11
-52.28682594122982
 21
-55.39358668507827
 31
0.0
 70
   128
  1
<> (VIEWING AREA)
  3
DMC
 13
-86.16025672349897
 23
-83.7998929354922
 33
0.0
 14
-86.16025672349897
 24
-24.39989293549218
 34
0.0
 50
90.0
1001
ACAD
1000
DSTYLE
1002
{
1070
   279
1070
     2
1002
}
  0
DIMENSION
  5
1E0
  8
回07-寸法
  6
CONTINUOUS
 62
     5
  2
*D141414
 10
-56.06541365933129
 20
-25.39989293549219
 30
0.0
 11
-58.53908062933736
 21
-56.31251329426698
 31
0.0
 70
   128
  1
<> (ACTIVE AREA)
  3
DMC
 13
-87.16025672349896
 23
-82.79989293549219
 33
0.0
 14
-87.16025672349896
 24
-25.39989293549218
 34
0.0
 50
90.0
1001
ACAD
1000
DSTYLE
1002
{
1070
   279
1070
     2
1002
}
  0
DIMENSION
  5
1ED
  8
回07-寸法
  6
CONTINUOUS
 62
     5
  2
*D131313
 10
-49.48049962460054
 20
-87.3998929354922
 30
0.0
 11
-51.63049962460056
 21
-100.5998929354922
 31
0.0
 70
     0
  3
DMC
 13
-86.16025672349897
 23
-83.7998929354922
 33
0.0
 14
-82.76025672349897
 24
-87.3998929354922
 34
0.0
 50
90.0
  0
DIMENSION
  5
1FC
  8
回07-寸法
  6
CONTINUOUS
 62
     5
  2
*D121212
 10
-56.06541365933122
 20
-87.3998929354922
 30
0.0
 11
-58.21541365933121
 21
-100.2998929354921
 31
0.0
 70
     0
  3
DMC
 13
-87.16025672349896
 23
-82.79989293549219
 33
0.0
 14
-82.76025672349897
 24
-87.3998929354922
 34
0.0
 50
90.0
  0
DIMENSION
  5
20B
  8
回07-寸法
  6
CONTINUOUS
 62
     5
  2
*D111111
 10
-245.760256723499
 20
-109.3216932016523
 30
0.0
 11
-259.110256723499
 21
-107.1716932016523
 31
0.0
 70
     0
  3
DMC
 13
-237.9602567234989
 23
-83.7998929354922
 33
0.0
 14
-245.760256723499
 24
-87.3998929354922
 34
0.0
  0
DIMENSION
  5
21A
  8
回07-寸法
  6
CONTINUOUS
 62
     5
  2
*D101010
 10
-245.760256723499
 20
-102.1269980827927
 30
0.0
 11
-259.260256723499
 21
-99.97699808279271
 31
0.0
 70
     0
  3
DMC
 13
-236.960256723499
 23
-82.79989293549219
 33
0.0
 14
-245.760256723499
 24
-87.3998929354922
 34
0.0
  0
DIMENSION
  5
229
  8
回07-寸法
  6
CONTINUOUS
 62
     5
  2
*D999
 10
-245.760256723499
 20
-120.8215349889409
 30
0.0
 11
-164.2602567234989
 21
-120.8215349889409
 31
0.0
 70
   128
  3
DMC
 13
-82.76025672349897
 23
-87.3998929354922
 33
0.0
 14
-245.760256723499
 24
-87.3998929354922
 34
0.0
1001
ACAD
1000
DSTYLE
1002
{
1070
    47
1040
0.3
1070
    48
1040
0.3
1070
   147
1040
0.5
1070
    72
1070
     0
1070
    71
1070
     1
1002
}
  0
DIMENSION
  5
236
  8
回07-寸法
  6
CONTINUOUS
 62
     5
  2
*D888
 10
-237.9602567234989
 20
-109.3216932016523
 30
0.0
 11
-162.0602567234989
 21
-107.1709681631228
 31
0.0
 70
     0
  1
<> (VIEWING AREA)
  3
DMC
 13
-86.16025672349897
 23
-83.7998929354922
 33
0.0
 14
-237.9602567234989
 24
-83.7998929354922
 34
0.0
  0
DIMENSION
  5
243
  8
回07-寸法
  6
CONTINUOUS
 62
     5
  2
*D777
 10
-236.960256723499
 20
-102.1269980827927
 30
0.0
 11
-162.0602567234989
 21
-102.1269980827927
 31
0.0
 70
   128
  1
<> (ACTIVE AREA)
  3
DMC
 13
-87.16025672349896
 23
-82.79989293549219
 33
0.0
 14
-236.960256723499
 24
-82.79989293549219
 34
0.0
  0
DIMENSION
  5
250
  8
回07-寸法
  6
CONTINUOUS
 62
     5
  2
*D666
 10
-71.15138655976261
 20
-81.79989293549219
 30
0.0
 11
-71.15138655976261
 21
-68.74583254211298
 31
0.0
 70
   128
  1
(<>)
  3
DMC
 13
-82.76025672349897
 23
-83.7998929354922
 33
0.0
 14
-82.76025672349897
 24
-81.79989293549217
 34
0.0
 50
90.0
  0
DIMENSION
  5
25F
  8
回07-寸法
  6
CONTINUOUS
 62
     5
  2
*D555
 10
-77.01122681457448
 20
-87.3998929354922
 30
0.0
 11
-77.01122681457448
 21
-101.7987118331299
 31
0.0
 70
   128
  1
(<>)
  3
DMC
 13
-82.76025672349897
 23
-83.7998929354922
 33
0.0
 14
-82.76025672349897
 24
-87.3998929354922
 34
0.0
 50
90.0
  0
LINE
  5
26E
  8
回07-寸法
  6
CENTER2
 62
     5
 10
-104.1602567234989
 20
54.44767084098817
 30
0.0
 11
-104.1602567234989
 21
-2.925161808222581
 31
0.0
  0
TEXT
  5
26F
  8
回08-記事
  6
CONTINUOUS
 62
     7
 10
-106.8009296359919
 20
54.16079976354854
 30
0.0
 40
3.0
  1
1
  0
TEXT
  5
270
  8
回08-記事
  6
CONTINUOUS
 62
     7
 10
-103.2207151128686
 20
54.12664745443805
 30
0.0
 40
3.0
  1
4
  0
ARC
  5
271
  8
回05-ﾃｰﾙ
  6
BYBLOCK
 62
     7
 10
-108.2892813890789
 20
-5.89119163561878
 30
0.0
 40
1.0
 50
315.1435981442316
 51
359.9966864211496
  0
ARC
  5
275
  8
回05-ﾃｰﾙ
  6
BYBLOCK
 62
     7
 10
-100.0352567234989
 20
-5.888630366714152
 30
0.0
 40
1.0
 50
180.0
 51
224.88299289539
  0
ARC
  5
276
  8
回05-ﾃｰﾙ
  6
BYBLOCK
 62
     7
 10
-97.16145965790907
 20
-11.6084099310919
 30
0.0
 40
1.0
 50
0.025605711935974
 51
44.88299289539006
  0
ARC
  5
277
  8
回05-ﾃｰﾙ
  6
BYBLOCK
 62
     7
 10
-111.1602567234991
 20
-11.61213661283233
 30
0.0
 40
1.0
 50
135.1435981442316
 51
180.0000000000032
  0
ARC
  5
278
  8
回05-ﾃｰﾙ
  6
BYBLOCK
 62
     7
 10
-114.1602567234989
 20
-14.29989293549198
 30
0.0
 40
2.0
 50
301.7883306170419
 51
0.0000000000032569
  0
ARC
  5
279
  8
回05-ﾃｰﾙ
  6
BYBLOCK
 62
     7
 10
-94.16025652377584
 20
-14.29989293549221
 30
0.0
 40
2.0
 50
180.0256057119359
 51
238.2116693829456
  0
LINE
  5
27A
  8
回05-ﾃｰﾙ
  6
BYBLOCK
 62
     7
 10
-107.5804046368
 20
-6.596524004136369
 30
0.0
 11
-111.869133475778
 21
-10.90680424431474
 31
0.0
  0
LINE
  5
27B
  8
回05-ﾃｰﾙ
  6
BYBLOCK
 62
     7
 10
-100.7438060538535
 20
-6.594291649805484
 30
0.0
 11
-96.45291032755459
 21
-10.90274864800057
 31
0.0
  0
LINE
  5
27C
  8
回05-ﾃｰﾙ
  6
BYBLOCK
 62
     7
 10
-112.1602567234992
 20
-11.61213661283233
 30
0.0
 11
-112.1602567234992
 21
-14.29989293549187
 31
0.0
  0
LINE
  5
27D
  8
回05-ﾃｰﾙ
  6
BYBLOCK
 62
     7
 10
-96.16145975777069
 20
-11.60796302712612
 30
0.0
 11
-96.16025632405277
 21
-14.30078674342366
 31
0.0
  0
LINE
  5
27E
  8
回05-ﾃｰﾙ
  6
BYBLOCK
 62
     7
 10
-101.5352567234989
 20
54.00010706450792
 30
0.0
 11
-106.7852567234989
 21
54.00010706450792
 31
0.0
  0
ARC
  5
27F
  8
回05-ﾃｰﾙ
  6
BYBLOCK
 62
     7
 10
-106.7852567234989
 20
53.50010706450792
 30
0.0
 40
0.5
 50
90.0
 51
180.0
  0
ARC
  5
280
  8
回05-ﾃｰﾙ
  6
BYBLOCK
 62
     7
 10
-101.5352567234989
 20
53.50010706450792
 30
0.0
 40
0.5
 50
0.0
 51
90.0
  0
LINE
  5
281
  8
回05-ﾃｰﾙ
  6
BYBLOCK
 62
     7
 10
-107.2858466186815
 20
53.50010706450792
 30
0.0
 11
-107.2892813907513
 21
-5.891249468479768
 31
0.0
  0
LINE
  5
282
  8
回05-ﾃｰﾙ
  6
BYBLOCK
 62
     7
 10
-101.0352567234989
 20
53.50010706450792
 30
0.0
 11
-101.0352567234989
 21
-5.888630366714152
 31
0.0
  0
LINE
  5
283
  8
回08-記事
  6
CONTINUOUS
 62
     7
 10
-86.16025672349897
 20
-81.79989293549217
 30
0.0
 11
-82.76025672349897
 21
-81.79989293549217
 31
0.0
  0
LINE
  5
284
  8
回08-記事
  6
CONTINUOUS
 62
     7
 10
-86.16025672349897
 20
-83.7998929354922
 30
0.0
 11
-82.76025672349897
 21
-83.7998929354922
 31
0.0
  0
TEXT
  5
285
  8
回08-記事
  6
CONTINUOUS
 62
     5
 10
-92.96402322743551
 20
-52.03367289735647
 30
0.0
 40
3.0
  1
XR
  0
TEXT
  5
286
  8
回08-記事
  6
CONTINUOUS
 62
     5
 10
-235.6426142396226
 20
-53.19488396492328
 30
0.0
 40
3.0
  1
XL
  0
TEXT
  5
287
  8
回08-記事
  6
CONTINUOUS
 62
     5
 10
-168.6437285659367
 20
-80.61284072640182
 30
0.0
 40
3.0
  1
YL
  0
TEXT
  5
288
  8
回08-記事
  6
CONTINUOUS
 62
     5
 10
-168.6437285659367
 20
-29.97599094142334
 30
0.0
 40
3.0
  1
YU
  0
TEXT
  5
289
  8
回07-寸法
  6
CONTINUOUS
 62
     5
 10
-266.1101011053147
 20
-68.96401986416957
 30
0.0
 40
3.0
  1
AST-062A.
  0
TEXT
  5
28A
  8
回07-寸法
  6
CONTINUOUS
 62
     5
 10
-265.8691345171277
 20
-64.28298196079572
 30
0.0
 40
3.0
  1
PART No.
1001
ACAD
1000
MTEXTBEGIN
1070
    73
1070
     1
1070
    44
1040
1.0
1070
    74
1070
     0
1000
MTEXTEND
  0
INSERT
  5
28B
  8
回07-寸法
  6
CONTINUOUS
 62
     7
 66
     1
  2
*X454545
 10
0.0
 20
0.0
 30
0.0
  0
SEQEND
  5
3B0
  8
回07-寸法
  6
CONTINUOUS
 62
     6
  0
TEXT
  5
28C
  8
回04-下接
  6
CONTINUOUS
 62
     7
 10
-244.8480940006165
 20
-72.13465598269994
 30
0.0
 40
1.439999999999999
  1
AST-062A.
 50
270.0
  0
POLYLINE
  5
290
  8
回08-記事
  6
CONTINUOUS
 62
     7
 66
     1
 10
0.0
 20
0.0
 30
0.0
 70
     1
  0
VERTEX
  5
759
  8
回08-記事
  6
CONTINUOUS
 62
     7
 10
-237.9602567234989
 20
-24.39989293549218
 30
0.0
  0
VERTEX
  5
75B
  8
回08-記事
  6
CONTINUOUS
 62
     7
 10
-86.16025672349897
 20
-24.39989293549218
 30
0.0
  0
VERTEX
  5
75C
  8
回08-記事
  6
CONTINUOUS
 62
     7
 10
-86.16025672349897
 20
-83.7998929354922
 30
0.0
  0
VERTEX
  5
75D
  8
回08-記事
  6
CONTINUOUS
 62
     7
 10
-237.9602567234989
 20
-83.7998929354922
 30
0.0
  0
SEQEND
  5
75A
  8
回07-寸法
  6
CONTINUOUS
 62
     6
  0
POLYLINE
  5
291
  8
回08-記事
  6
PHANTOM2
 62
     7
 66
     1
 10
0.0
 20
0.0
 30
0.0
 70
     1
  0
VERTEX
  5
75E
  8
回08-記事
  6
PHANTOM2
 62
     7
 10
-236.960256723499
 20
-82.79989293549219
 30
0.0
  0
VERTEX
  5
760
  8
回08-記事
  6
PHANTOM2
 62
     7
 10
-87.16025672349896
 20
-82.79989293549219
 30
0.0
  0
VERTEX
  5
761
  8
回08-記事
  6
PHANTOM2
 62
     7
 10
-87.16025672349896
 20
-25.39989293549218
 30
0.0
  0
VERTEX
  5
762
  8
回08-記事
  6
PHANTOM2
 62
     7
 10
-236.960256723499
 20
-25.39989293549218
 30
0.0
  0
SEQEND
  5
75F
  8
回07-寸法
  6
CONTINUOUS
 62
     6
  0
POLYLINE
  5
293
  8
回04-下接
  6
CONTINUOUS
 62
     7
 66
     1
 10
0.0
 20
0.0
 30
0.0
 70
     1
  0
VERTEX
  5
763
  8
回04-下接
  6
CONTINUOUS
 62
     7
 10
-245.760256723499
 20
-15.99989293549217
 30
0.0
  0
VERTEX
  5
765
  8
回04-下接
  6
CONTINUOUS
 62
     7
 10
-82.76025672349897
 20
-15.99989293549217
 30
0.0
  0
VERTEX
  5
766
  8
回04-下接
  6
CONTINUOUS
 62
     7
 10
-82.76025672349897
 20
-87.3998929354922
 30
0.0
  0
VERTEX
  5
767
  8
回04-下接
  6
CONTINUOUS
 62
     7
 10
-245.760256723499
 20
-87.3998929354922
 30
0.0
  0
SEQEND
  5
764
  8
回07-寸法
  6
CONTINUOUS
 62
     6
  0
LINE
  5
294
  8
回08-記事
  6
CONTINUOUS
 62
     5
 10
-15.23106865991713
 20
45.33345885084858
 30
0.0
 11
-12.72148802533665
 21
40.23557864899799
 31
0.0
  0
LINE
  5
295
  8
回08-記事
  6
CONTINUOUS
 62
     5
 10
-12.79705612749149
 20
-0.4441998425685654
 30
0.0
 11
-16.29321527498087
 21
0.48856404874104
 31
0.0
  0
LINE
  5
296
  8
回08-記事
  6
CONTINUOUS
 62
     5
 10
-20.87706753509474
 20
14.21563204486605
 30
0.0
 11
-17.38091092072318
 21
15.77024395457087
 31
0.0
  0
LINE
  5
297
  8
回08-記事
  6
CONTINUOUS
 62
     5
 10
-5.795366562569142
 20
-9.760278483947331
 30
0.0
 11
-14.17757011056164
 21
-15.64596477945784
 31
0.0
  0
LINE
  5
298
  8
回08-記事
  6
CONTINUOUS
 62
     5
 10
-9.737487509893979
 20
-48.83022271834168
 30
0.0
 11
-14.29444818665661
 21
-46.01181408324007
 31
0.0
  0
LINE
  5
299
  8
回08-記事
  6
CONTINUOUS
 62
     5
 10
-21.50273001123287
 20
-60.26965844571575
 30
0.0
 11
-17.94001571481976
 21
-58.86045006002309
 31
0.0
  0
TEXT
  5
29A
  8
回08-記事
  6
CONTINUOUS
 62
     5
 10
-1.812924674675739
 20
-29.65282205305721
 30
0.0
 40
3.0
  1
PROTECTION TAPE
 50
90.0
  0
TEXT
  5
29B
  8
回08-記事
  6
CONTINUOUS
 62
     5
 10
-5.320669347479451
 20
-52.14316402201911
 30
0.0
 40
3.0
  1
ITO GLASS
 50
90.0
  0
TEXT
  5
29C
  8
回08-記事
  6
CONTINUOUS
 62
     5
 10
-22.65225550315609
 20
-73.75805502173534
 30
0.0
 40
3.0
  1
ITO FILM (ANTI-GLARE)
 50
90.0
  0
TEXT
  5
29D
  8
回08-記事
  6
CONTINUOUS
 62
     5
 10
-9.063822718833307
 20
23.31264851578362
 30
0.0
 40
3.0
  1
STIFFENER
 50
90.0
  0
TEXT
  5
29E
  8
回08-記事
  6
CONTINUOUS
 62
     5
 10
-21.94220118497833
 20
-15.28342674308874
 30
0.0
 40
3.0
  1
REINFORCEMENT FILM
 50
90.0
  0
TEXT
  5
29F
  8
回08-記事
  6
CONTINUOUS
 62
     5
 10
-9.039631046778595
 20
-2.49316986369706
 30
0.0
 40
3.0
  1
TAIL
 50
90.0
  0
DIMENSION
  5
2A0
  8
回08-記事
  6
CONTINUOUS
 62
     5
  2
*D444
 10
-14.72461643492113
 20
61.12448008391481
 30
0.0
 11
4.326738667441071
 21
63.27448008391481
 31
0.0
 70
     0
  1
0.3{\H0.6667x;±0.05}[0.012{\H0.66667x;±0.002}]
  3
DMC
 13
-16.92461643492106
 23
54.00010706450803
 33
0.0
 14
-14.72461643492113
 24
54.00010706450803
 34
0.0
 50
180.0
  0
DIMENSION
  5
2AF
  8
回08-記事
  6
CONTINUOUS
 62
     5
  2
*D333
 10
-21.27041267020879
 20
54.00010706450807
 30
0.0
 11
-21.27041267020877
 21
37.44486556876664
 31
0.0
 70
   128
  1
<>
  3
DMC
 13
-17.42461643492106
 23
49.00010706450803
 33
0.0
 14
-16.92461643492106
 24
54.00010706450803
 34
0.0
 50
270.0
1001
ACAD
1000
DSTYLE
1002
{
1070
    47
1040
1.0
1070
   147
1040
0.5
1070
    48
1040
1.0
1070
    72
1070
     0
1070
    71
1070
     0
1002
}
  0
DIMENSION
  5
2BE
  8
回08-記事
  6
CONTINUOUS
 62
     5
  2
*D222
 10
-3.032321260989669
 20
44.000107064508
 30
0.0
 11
-3.032321260989656
 21
30.04604667112881
 31
0.0
 70
   128
  1
(<>)
  3
DMC
 13
-14.72461643492113
 23
54.00010706450803
 33
0.0
 14
-14.72461643492113
 24
44.000107064508
 34
0.0
 50
270.0
1001
ACAD
1000
DSTYLE
1002
{
1070
    47
1040
1.0
1070
    48
1040
1.0
1002
}
  0
DIMENSION
  5
2CD
  8
回08-記事
  6
CONTINUOUS
 62
     5
  2
*D111
 10
-13.42461643492106
 20
-95.73647925272226
 30
0.0
 11
5.075522565078936
 21
-93.58647925272228
 31
0.0
 70
     0
  1
1.4{\H0.6667x;±0.2}[0.055{\H0.66667x;±0.008}]
  3
DMC
 13
-18.42461643492106
 23
-87.09989293549226
 33
0.0
 14
-13.42461643492106
 24
-87.3998929354922
 34
0.0
 50
180.0
  0
ARC
  5
2DC
  8
回08-記事
  6
CONTINUOUS
 62
     7
 10
-15.92461643492106
 20
-26.85070319639058
 30
0.0
 40
0.2
 50
90.0
 51
270.0
  0
ARC
  5
2DD
  8
回08-記事
  6
CONTINUOUS
 62
     7
 10
-15.92461643492106
 20
-30.85070319639058
 30
0.0
 40
0.2
 50
90.0
 51
270.0
  0
ARC
  5
2DE
  8
回08-記事
  6
CONTINUOUS
 62
     7
 10
-15.92461643492106
 20
-34.85070319639059
 30
0.0
 40
0.2
 50
90.0
 51
270.0
  0
ARC
  5
2DF
  8
回08-記事
  6
CONTINUOUS
 62
     7
 10
-15.92461643492106
 20
-38.8507031963906
 30
0.0
 40
0.2
 50
90.0
 51
270.0
  0
ARC
  5
2E0
  8
回08-記事
  6
CONTINUOUS
 62
     7
 10
-15.92461643492106
 20
-42.85070319639056
 30
0.0
 40
0.2
 50
90.0
 51
270.0
  0
ARC
  5
2E1
  8
回08-記事
  6
CONTINUOUS
 62
     7
 10
-15.92461643492106
 20
-46.85070319639058
 30
0.0
 40
0.2
 50
90.0
 51
270.0
  0
ARC
  5
2E2
  8
回08-記事
  6
CONTINUOUS
 62
     7
 10
-15.92461643492106
 20
-50.85070319639058
 30
0.0
 40
0.2
 50
90.0
 51
270.0
  0
ARC
  5
2E3
  8
回08-記事
  6
CONTINUOUS
 62
     7
 10
-15.92461643492106
 20
-54.85070319639058
 30
0.0
 40
0.2
 50
90.0
 51
270.0
  0
ARC
  5
2E4
  8
回08-記事
  6
CONTINUOUS
 62
     7
 10
-15.92461643492106
 20
-58.85070319639059
 30
0.0
 40
0.2
 50
90.0
 51
270.0
  0
ARC
  5
2E5
  8
回08-記事
  6
CONTINUOUS
 62
     7
 10
-15.92461643492106
 20
-62.85070319639058
 30
0.0
 40
0.2
 50
90.0
 51
270.0
  0
ARC
  5
2E6
  8
回08-記事
  6
CONTINUOUS
 62
     7
 10
-15.92461643492106
 20
-66.85070319639058
 30
0.0
 40
0.2
 50
90.0
 51
270.0
  0
ARC
  5
2E7
  8
回08-記事
  6
CONTINUOUS
 62
     7
 10
-15.92461643492106
 20
-70.85070319639058
 30
0.0
 40
0.2
 50
90.0
 51
270.0
  0
ARC
  5
2E8
  8
回08-記事
  6
CONTINUOUS
 62
     7
 10
-15.92461643492106
 20
-74.85070319639058
 30
0.0
 40
0.2
 50
90.0
 51
270.0
  0
ARC
  5
2E9
  8
回08-記事
  6
CONTINUOUS
 62
     7
 10
-15.92461643492106
 20
-78.85070319639059
 30
0.0
 40
0.2
 50
90.0
 51
270.0
  0
ARC
  5
2EA
  8
回08-記事
  6
CONTINUOUS
 62
     7
 10
-15.92461643492106
 20
-82.85070319639059
 30
0.0
 40
0.2
 50
90.0
 51
270.0
  0
LINE
  5
2EB
  8
回08-記事
  6
CONTINUOUS
 62
     7
 10
-12.92461643492106
 20
-19.29989293549212
 30
0.0
 11
-13.42461643492106
 21
-19.29989293549212
 31
0.0
  0
LINE
  5
2EC
  8
回08-記事
  6
CONTINUOUS
 62
     7
 10
-12.92461643492106
 20
-15.49989293549211
 30
0.0
 11
-12.92461643492106
 21
-19.29989293549212
 31
0.0
  0
LINE
  5
2ED
  8
回08-記事
  6
CONTINUOUS
 62
     7
 10
-15.42461643492106
 20
-15.49989293549211
 30
0.0
 11
-12.92461643492106
 21
-15.49989293549211
 31
0.0
  0
LINE
  5
2EE
  8
回08-記事
  6
CONTINUOUS
 62
     7
 10
-15.42461643492106
 20
-11.61213661283224
 30
0.0
 11
-15.42461643492106
 21
-15.49989293549211
 31
0.0
  0
LINE
  5
2EF
  8
回08-記事
  6
CONTINUOUS
 62
     7
 10
-15.92461643492106
 20
-11.61213661283224
 30
0.0
 11
-15.42461643492106
 21
-11.61213661283224
 31
0.0
  0
POLYLINE
  5
2F0
  8
回08-記事
  6
CONTINUOUS
 62
     7
 66
     1
 10
0.0
 20
0.0
 30
0.0
 70
     1
  0
VERTEX
  5
768
  8
回08-記事
  6
CONTINUOUS
 62
     7
 10
-16.92461643492106
 20
49.00010706450803
 30
0.0
  0
VERTEX
  5
76A
  8
回08-記事
  6
CONTINUOUS
 62
     7
 10
-16.92461643492106
 20
-16.29989293549212
 30
0.0
  0
VERTEX
  5
76B
  8
回08-記事
  6
CONTINUOUS
 62
     7
 10
-17.42461643492106
 20
-16.29989293549212
 30
0.0
  0
VERTEX
  5
76C
  8
回08-記事
  6
CONTINUOUS
 62
     7
 10
-17.42461643492106
 20
49.00010706450803
 30
0.0
  0
SEQEND
  5
769
  8
回07-寸法
  6
CONTINUOUS
 62
     6
  0
POLYLINE
  5
2F1
  8
回08-記事
  6
CONTINUOUS
 62
     7
 66
     1
 10
0.0
 20
0.0
 30
0.0
 70
     1
  0
VERTEX
  5
76D
  8
回08-記事
  6
CONTINUOUS
 62
     7
 10
-15.92461643492106
 20
54.00010706450803
 30
0.0
  0
VERTEX
  5
76F
  8
回08-記事
  6
CONTINUOUS
 62
     7
 10
-15.92461643492106
 20
44.000107064508
 30
0.0
  0
VERTEX
  5
770
  8
回08-記事
  6
CONTINUOUS
 62
     7
 10
-14.72461643492113
 20
44.000107064508
 30
0.0
  0
VERTEX
  5
771
  8
回08-記事
  6
CONTINUOUS
 62
     7
 10
-14.72461643492113
 20
54.00010706450803
 30
0.0
  0
SEQEND
  5
76E
  8
回07-寸法
  6
CONTINUOUS
 62
     6
  0
LINE
  5
2F2
  8
回08-記事
  6
CONTINUOUS
 62
     7
 10
-16.92461643492106
 20
-23.79989293549213
 30
0.0
 11
-15.92461643492106
 21
-23.79989293549213
 31
0.0
  0
LINE
  5
2F3
  8
回08-記事
  6
CONTINUOUS
 62
     7
 10
-16.92461643492106
 20
-87.09989293549226
 30
0.0
 11
-15.92461643492106
 21
-87.09989293549226
 31
0.0
  0
LINE
  5
2F4
  8
回08-記事
  6
CONTINUOUS
 62
     7
 10
-16.92461643492106
 20
-83.99989293549223
 30
0.0
 11
-15.92461643492106
 21
-83.99989293549223
 31
0.0
  0
POLYLINE
  5
2F5
  8
回08-記事
  6
CONTINUOUS
 62
     7
 66
     1
 10
0.0
 20
0.0
 30
0.0
 70
     1
  0
VERTEX
  5
772
  8
回08-記事
  6
CONTINUOUS
 62
     7
 10
-15.92461643492106
 20
54.00010706450803
 30
0.0
  0
VERTEX
  5
774
  8
回08-記事
  6
CONTINUOUS
 62
     7
 10
-15.92461643492106
 20
-19.29989293549212
 30
0.0
  0
VERTEX
  5
775
  8
回08-記事
  6
CONTINUOUS
 62
     7
 10
-16.92461643492106
 20
-19.29989293549212
 30
0.0
  0
VERTEX
  5
776
  8
回08-記事
  6
CONTINUOUS
 62
     7
 10
-16.92461643492106
 20
54.00010706450803
 30
0.0
  0
SEQEND
  5
773
  8
回07-寸法
  6
CONTINUOUS
 62
     6
  0
POLYLINE
  5
2F6
  8
回08-記事
  6
CONTINUOUS
 62
     7
 66
     1
 10
0.0
 20
0.0
 30
0.0
 70
     1
  0
VERTEX
  5
777
  8
回08-記事
  6
CONTINUOUS
 62
     7
 10
-13.42461643492106
 20
-15.99989293549217
 30
0.0
  0
VERTEX
  5
779
  8
回08-記事
  6
CONTINUOUS
 62
     7
 10
-13.42461643492106
 20
-87.3998929354922
 30
0.0
  0
VERTEX
  5
77A
  8
回08-記事
  6
CONTINUOUS
 62
     7
 10
-15.92461643492106
 20
-87.3998929354922
 30
0.0
  0
VERTEX
  5
77B
  8
回08-記事
  6
CONTINUOUS
 62
     7
 10
-15.92461643492106
 20
-15.99989293549217
 30
0.0
  0
SEQEND
  5
778
  8
回07-寸法
  6
CONTINUOUS
 62
     6
  0
POLYLINE
  5
2F7
  8
回08-記事
  6
CONTINUOUS
 62
     7
 66
     1
 10
0.0
 20
0.0
 30
0.0
 70
     1
  0
VERTEX
  5
77C
  8
回08-記事
  6
CONTINUOUS
 62
     7
 10
-18.42461643492106
 20
-16.29989293549212
 30
0.0
  0
VERTEX
  5
77E
  8
回08-記事
  6
CONTINUOUS
 62
     7
 10
-18.42461643492106
 20
-87.09989293549226
 30
0.0
  0
VERTEX
  5
77F
  8
回08-記事
  6
CONTINUOUS
 62
     7
 10
-16.92461643492106
 20
-87.09989293549226
 30
0.0
  0
VERTEX
  5
780
  8
回08-記事
  6
CONTINUOUS
 62
     7
 10
-16.92461643492106
 20
-16.29989293549212
 30
0.0
  0
SEQEND
  5
77D
  8
回07-寸法
  6
CONTINUOUS
 62
     6
  0
TEXT
  5
2F8
  8
回90-枠3
 10
82.38670692472807
 20
92.59411947520879
 30
0.0
 40
4.0
  1
F
  0
LINE
  5
2F9
  8
回90-枠3
 10
51.65732161907566
 20
97.22169634915758
 30
0.0
 11
51.65732161907566
 21
92.22169634915758
 31
0.0
  0
TEXT
  5
2FA
  8
回90-枠3
 10
117.061742622735
 20
56.01038364501687
 30
0.0
 40
4.0
  1
1
  0
LINE
  5
2FB
  8
回90-枠3
 10
120.6573216190756
 20
24.22169634915757
 30
0.0
 11
115.6573216190756
 21
24.22169634915757
 31
0.0
  0
TEXT
  5
2FC
  8
回90-枠3
 10
116.7602439194331
 20
-11.98961635498313
 30
0.0
 40
4.0
  1
2
  0
LINE
  5
2FD
  8
回90-枠3
 10
120.6573216190756
 20
-43.77830365084236
 30
0.0
 11
115.6573216190756
 21
-43.77830365084236
 31
0.0
  0
TEXT
  5
2FE
  8
回90-枠3
 10
18.38670692472806
 20
92.59411947520879
 30
0.0
 40
4.0
  1
E
  0
LINE
  5
2FF
  8
回90-枠3
 10
-12.34267838092433
 20
97.22169634915758
 30
0.0
 11
-12.34267838092433
 21
92.22169634915758
 31
0.0
  0
TEXT
  5
300
  8
回90-枠3
 10
-45.61329307527194
 20
92.59411947520879
 30
0.0
 40
4.0
  1
D
  0
LINE
  5
301
  8
回90-枠3
 10
-76.34267838092433
 20
97.22169634915758
 30
0.0
 11
-76.34267838092433
 21
92.22169634915758
 31
0.0
  0
TEXT
  5
302
  8
回90-枠3
 10
-109.6132930752719
 20
92.59411947520879
 30
0.0
 40
4.0
  1
C
  0
LINE
  5
303
  8
回90-枠3
 10
-140.3426783809243
 20
97.22169634915758
 30
0.0
 11
-140.3426783809243
 21
92.22169634915758
 31
0.0
  0
TEXT
  5
304
  8
回90-枠3
 10
-173.6132930752719
 20
92.59411947520879
 30
0.0
 40
4.0
  1
B
  0
LINE
  5
305
  8
回90-枠3
 10
-204.3426783809243
 20
97.22169634915758
 30
0.0
 11
-204.3426783809243
 21
92.22169634915758
 31
0.0
  0
TEXT
  5
306
  8
回90-枠3
 10
-237.6132930752719
 20
92.59411947520879
 30
0.0
 40
4.0
  1
A
  0
TEXT
  5
307
  8
回90-枠3
 10
-281.938257377265
 20
56.01038364501687
 30
0.0
 40
4.0
  1
1
  0
LINE
  5
308
  8
回90-枠3
 10
-278.3426783809243
 20
24.22169634915757
 30
0.0
 11
-283.3426783809244
 21
24.22169634915757
 31
0.0
  0
TEXT
  5
309
  8
回90-枠3
 10
-282.2397560805669
 20
-11.98961635498313
 30
0.0
 40
4.0
  1
2
  0
LINE
  5
30A
  8
回90-枠3
 10
-278.3426783809243
 20
-43.77830365084236
 30
0.0
 11
-283.3426783809244
 21
-43.77830365084236
 31
0.0
  0
LINE
  5
30B
  8
回90-枠3
 10
-278.3426783809243
 20
92.22169634915758
 30
0.0
 11
115.6573216190756
 21
92.22169634915758
 31
0.0
  0
LINE
  5
30C
  8
回90-枠3
 10
120.6573216190756
 20
97.22169634915758
 30
0.0
 11
-283.3426783809244
 21
97.22169634915758
 31
0.0
  0
TEXT
  5
30D
  8
回90-枠3
 10
116.7547630752324
 20
-79.98961635498304
 30
0.0
 40
4.0
  1
3
  0
LINE
  5
30E
  8
回90-枠3
 10
120.6573216190756
 20
-111.2783036508423
 30
0.0
 11
115.6573216190756
 21
-111.2783036508423
 31
0.0
  0
TEXT
  5
30F
  8
回90-枠3
 10
116.6816709551512
 20
-147.489616354983
 30
0.0
 40
4.0
  1
4
  0
TEXT
  5
310
  8
回90-枠3
 10
82.38670692472807
 20
-183.9058805247911
 30
0.0
 40
4.0
  1
F
  0
LINE
  5
311
  8
回90-枠3
 10
51.65732161907566
 20
-179.2783036508423
 30
0.0
 11
51.65732161907566
 21
-184.2783036508423
 31
0.0
  0
TEXT
  5
312
  8
回90-枠3
 10
18.38670692472806
 20
-183.9058805247911
 30
0.0
 40
4.0
  1
E
  0
LINE
  5
313
  8
回90-枠3
 10
-12.34267838092433
 20
-179.2783036508423
 30
0.0
 11
-12.34267838092433
 21
-184.2783036508423
 31
0.0
  0
TEXT
  5
314
  8
回90-枠3
 10
-45.61329307527194
 20
-183.9058805247911
 30
0.0
 40
4.0
  1
D
  0
LINE
  5
315
  8
回90-枠3
 10
-76.34267838092433
 20
-179.2783036508423
 30
0.0
 11
-76.34267838092433
 21
-184.2783036508423
 31
0.0
  0
TEXT
  5
316
  8
回90-枠3
 10
-109.6132930752719
 20
-183.9058805247911
 30
0.0
 40
4.0
  1
C
  0
LINE
  5
317
  8
回90-枠3
 10
-140.3426783809243
 20
-179.2783036508423
 30
0.0
 11
-140.3426783809243
 21
-184.2783036508423
 31
0.0
  0
TEXT
  5
318
  8
回90-枠3
 10
-282.2452369247676
 20
-79.98961635498304
 30
0.0
 40
4.0
  1
3
  0
LINE
  5
319
  8
回90-枠3
 10
-278.3426783809243
 20
-111.2783036508423
 30
0.0
 11
-283.3426783809244
 21
-111.2783036508423
 31
0.0
  0
TEXT
  5
31A
  8
回90-枠3
 10
-173.6132930752719
 20
-183.9058805247911
 30
0.0
 40
4.0
  1
B
  0
LINE
  5
31B
  8
回90-枠3
 10
-204.3426783809243
 20
-179.2783036508423
 30
0.0
 11
-204.3426783809243
 21
-184.2783036508423
 31
0.0
  0
TEXT
  5
31C
  8
回90-枠3
 10
-282.3183290448487
 20
-147.489616354983
 30
0.0
 40
4.0
  1
4
  0
TEXT
  5
31D
  8
回90-枠3
 10
-237.6132930752719
 20
-183.9058805247911
 30
0.0
 40
4.0
  1
A
  0
LINE
  5
31E
  8
回90-枠3
 10
120.6573216190756
 20
-184.2783036508423
 30
0.0
 11
-283.3426783809244
 21
-184.2783036508423
 31
0.0
  0
LINE
  5
31F
  8
回90-枠3
 10
-278.3426783809243
 20
-179.2783036508423
 30
0.0
 11
115.6573216190756
 21
-179.2783036508423
 31
0.0
  0
LINE
  5
320
  8
回90-枠3
 10
-283.3426783809244
 20
-184.2783036508423
 30
0.0
 11
-283.3426783809244
 21
97.22169634915758
 31
0.0
  0
LINE
  5
321
  8
回90-枠3
 10
120.6573216190756
 20
-184.2783036508423
 30
0.0
 11
120.6573216190756
 21
97.22169634915758
 31
0.0
  0
LINE
  5
322
  8
回90-枠3
 10
-278.3426783809243
 20
92.22169634915758
 30
0.0
 11
-278.3426783809243
 21
-179.2783036508423
 31
0.0
  0
LINE
  5
323
  8
回90-枠3
 10
115.6573216190756
 20
92.22169634915758
 30
0.0
 11
115.6573216190756
 21
-179.2783036508423
 31
0.0
  0
POLYLINE
  5
324
  8
回08-記事
  6
CONTINUOUS
 62
     8
 66
     1
 10
0.0
 20
0.0
 30
0.0
 40
1.455999999999999
 41
1.455999999999999
  0
VERTEX
  5
781
  8
回08-記事
  6
CONTINUOUS
 62
     8
 10
-221.3445504835828
 20
41.25144515699235
 30
0.0
  0
VERTEX
  5
783
  8
回08-記事
  6
CONTINUOUS
 62
     8
 10
-221.3445504835828
 20
30.85818576110169
 30
0.0
  0
SEQEND
  5
782
  8
回07-寸法
  6
CONTINUOUS
 62
     6
  0
POLYLINE
  5
325
  8
回08-記事
  6
CONTINUOUS
 62
     8
 66
     1
 10
0.0
 20
0.0
 30
0.0
 40
1.455999999999999
 41
1.455999999999999
  0
VERTEX
  5
784
  8
回08-記事
  6
CONTINUOUS
 62
     8
 10
-223.9445504835828
 20
41.25144515699235
 30
0.0
  0
VERTEX
  5
786
  8
回08-記事
  6
CONTINUOUS
 62
     8
 10
-223.9445504835828
 20
30.85818576110169
 30
0.0
  0
SEQEND
  5
785
  8
回07-寸法
  6
CONTINUOUS
 62
     6
  0
POLYLINE
  5
326
  8
回08-記事
  6
CONTINUOUS
 62
     8
 66
     1
 10
0.0
 20
0.0
 30
0.0
 40
1.455999999999999
 41
1.455999999999999
  0
VERTEX
  5
787
  8
回08-記事
  6
CONTINUOUS
 62
     8
 10
-216.1445504835828
 20
30.85818576110169
 30
0.0
  0
VERTEX
  5
789
  8
回08-記事
  6
CONTINUOUS
 62
     8
 10
-216.1445504835828
 20
41.25144515699235
 30
0.0
  0
SEQEND
  5
788
  8
回07-寸法
  6
CONTINUOUS
 62
     6
  0
POLYLINE
  5
327
  8
回08-記事
  6
CONTINUOUS
 62
     8
 66
     1
 10
0.0
 20
0.0
 30
0.0
 40
1.455999999999999
 41
1.455999999999999
  0
VERTEX
  5
78A
  8
回08-記事
  6
CONTINUOUS
 62
     8
 10
-218.7445504835828
 20
41.25144515699235
 30
0.0
  0
VERTEX
  5
78C
  8
回08-記事
  6
CONTINUOUS
 62
     8
 10
-218.7445504835828
 20
30.85818576110169
 30
0.0
  0
SEQEND
  5
78B
  8
回07-寸法
  6
CONTINUOUS
 62
     6
  0
ENDSEC
  0
EOF
