  0
SECTION
  2
HEADER
  9
$ACADVER
  1
AC1009
  9
$INSBASE
 10
0.0
 20
0.0
 30
0.0
  9
$EXTMIN
 10
334.2896056894115
 20
-182.1368149110741
 30
0.0
  9
$EXTMAX
 10
904.2896056894116
 20
212.8631850889258
 30
0.0
  9
$LIMMIN
 10
0.0
 20
0.0
  9
$LIMMAX
 10
3000.0
 20
2500.0
  9
$ORTHOMODE
 70
     0
  9
$REGENMODE
 70
     1
  9
$FILLMODE
 70
     1
  9
$QTEXTMODE
 70
     0
  9
$MIRRTEXT
 70
     1
  9
$DRAGMODE
 70
     2
  9
$LTSCALE
 40
1.0
  9
$OSMODE
 70
    37
  9
$ATTMODE
 70
     1
  9
$TEXTSIZE
 40
3.0
  9
$TRACEWID
 40
1.0
  9
$TEXTSTYLE
  7
STANDARD
  9
$CLAYER
  8
回07-寸法
  9
$CELTYPE
  6
CONTINUOUS
  9
$CECOLOR
 62
     7
  9
$DIMSCALE
 40
1.0
  9
$DIMASZ
 40
2.0
  9
$DIMEXO
 40
0.0
  9
$DIMDLI
 40
0.0
  9
$DIMRND
 40
0.0
  9
$DIMDLE
 40
0.0
  9
$DIMEXE
 40
1.0
  9
$DIMTP
 40
0.0
  9
$DIMTM
 40
0.0
  9
$DIMTXT
 40
4.0
  9
$DIMCEN
 40
2.0
  9
$DIMTSZ
 40
0.0
  9
$DIMTOL
 70
     0
  9
$DIMLIM
 70
     0
  9
$DIMTIH
 70
     0
  9
$DIMTOH
 70
     0
  9
$DIMSE1
 70
     0
  9
$DIMSE2
 70
     0
  9
$DIMTAD
 70
     3
  9
$DIMZIN
 70
     8
  9
$DIMBLK
  1
OPEN
  9
$DIMASO
 70
     1
  9
$DIMSHO
 70
     1
  9
$DIMPOST
  1

  9
$DIMAPOST
  1

  9
$DIMALT
 70
     1
  9
$DIMALTD
 70
     3
  9
$DIMALTF
 40
0.03937007874016
  9
$DIMLFAC
 40
1.0
  9
$DIMTOFL
 70
     1
  9
$DIMTVP
 40
0.0
  9
$DIMTIX
 70
     0
  9
$DIMSOXD
 70
     0
  9
$DIMSAH
 70
     0
  9
$DIMBLK1
  1

  9
$DIMBLK2
  1

  9
$DIMSTYLE
  2
DMC
  9
$DIMCLRD
 70
     5
  9
$DIMCLRE
 70
     5
  9
$DIMCLRT
 70
     5
  9
$DIMTFAC
 40
0.7
  9
$DIMGAP
 40
0.5
  9
$LUNITS
 70
     2
  9
$LUPREC
 70
     4
  9
$SKETCHINC
 40
1.0
  9
$FILLETRAD
 40
1.0
  9
$AUNITS
 70
     0
  9
$AUPREC
 70
     0
  9
$MENU
  1
.
  9
$ELEVATION
 40
0.0
  9
$PELEVATION
 40
0.0
  9
$THICKNESS
 40
0.0
  9
$LIMCHECK
 70
     0
  9
$BLIPMODE
 70
     0
  9
$CHAMFERA
 40
10.0
  9
$CHAMFERB
 40
10.0
  9
$SKPOLY
 70
     0
  9
$TDCREATE
 40
2451810.404221065
  9
$TDUPDATE
 40
2460221.412448762
  9
$TDINDWG
 40
1.037490220
  9
$TDUSRTIMER
 40
1.037488704
  9
$USRTIMER
 70
     1
  9
$ANGBASE
 50
0.0
  9
$ANGDIR
 70
     0
  9
$PDMODE
 70
     0
  9
$PDSIZE
 40
0.0
  9
$PLINEWID
 40
0.3
  9
$COORDS
 70
     0
  9
$SPLFRAME
 70
     0
  9
$SPLINETYPE
 70
     6
  9
$SPLINESEGS
 70
     8
  9
$ATTDIA
 70
     1
  9
$ATTREQ
 70
     1
  9
$HANDLING
 70
     1
  9
$HANDSEED
  5
641
  9
$SURFTAB1
 70
     6
  9
$SURFTAB2
 70
     6
  9
$SURFTYPE
 70
     6
  9
$SURFU
 70
     6
  9
$SURFV
 70
     6
  9
$UCSNAME
  2

  9
$UCSORG
 10
0.0
 20
0.0
 30
0.0
  9
$UCSXDIR
 10
1.0
 20
0.0
 30
0.0
  9
$UCSYDIR
 10
0.0
 20
1.0
 30
0.0
  9
$PUCSNAME
  2

  9
$PUCSORG
 10
0.0
 20
0.0
 30
0.0
  9
$PUCSXDIR
 10
1.0
 20
0.0
 30
0.0
  9
$PUCSYDIR
 10
0.0
 20
1.0
 30
0.0
  9
$USERI1
 70
     0
  9
$USERI2
 70
     0
  9
$USERI3
 70
     0
  9
$USERI4
 70
     0
  9
$USERI5
 70
     0
  9
$USERR1
 40
0.0
  9
$USERR2
 40
0.0
  9
$USERR3
 40
0.0
  9
$USERR4
 40
0.0
  9
$USERR5
 40
0.0
  9
$WORLDVIEW
 70
     1
  9
$SHADEDGE
 70
     3
  9
$SHADEDIF
 70
    70
  9
$TILEMODE
 70
     1
  9
$MAXACTVP
 70
    64
  9
$PLIMCHECK
 70
     0
  9
$PEXTMIN
 10
1.000000000000000E+20
 20
1.000000000000000E+20
 30
1.000000000000000E+20
  9
$PEXTMAX
 10
-1.000000000000000E+20
 20
-1.000000000000000E+20
 30
-1.000000000000000E+20
  9
$PLIMMIN
 10
0.0
 20
0.0
  9
$PLIMMAX
 10
420.0
 20
297.0
  9
$UNITMODE
 70
     0
  9
$VISRETAIN
 70
     1
  9
$PLINEGEN
 70
     0
  9
$PSLTSCALE
 70
     1
  0
ENDSEC
  0
SECTION
  2
TABLES
  0
TABLE
  2
VPORT
 70
     1
  0
VPORT
  2
*ACTIVE
 70
     0
 10
0.0
 20
0.0
 11
1.0
 21
1.0
 12
613.6658879894612
 22
-36.59202424397273
 13
0.0
 23
0.0
 14
10.0
 24
10.0
 15
10.0
 25
10.0
 16
0.0
 26
0.0
 36
1.0
 17
0.0
 27
0.0
 37
0.0
 40
621.1008682947806
 41
1.002570694087403
 42
50.0
 43
0.0
 44
0.0
 50
0.0
 51
0.0
 71
     0
 72
   500
 73
     1
 74
     1
 75
     0
 76
     0
 77
     0
 78
     0
  0
ENDTAB
  0
TABLE
  2
LTYPE
 70
     4
  0
LTYPE
  2
CONTINUOUS
 70
     0
  3
Solid line
 72
    65
 73
     0
 40
0.0
  0
LTYPE
  2
CENTER2
 70
     0
  3
Center (.5x) ___ _ ___ _ ___ _ ___ _ ___ _ ___
 72
    65
 73
     4
 40
28.575
 49
19.05
 49
-3.174999999999998
 49
3.174999999999998
 49
-3.174999999999998
  0
LTYPE
  2
PHANTOM2
 70
     0
  3
Phantom (.5x) ___ _ _ ___ _ _ ___ _ _ ___ _ _
 72
    65
 73
     6
 40
31.75
 49
15.875
 49
-3.174999999999998
 49
3.174999999999998
 49
-3.174999999999998
 49
3.174999999999998
 49
-3.174999999999998
  0
LTYPE
  2
DASHED2
 70
     0
  3
Dashed (.5x) _ _ _ _ _ _ _ _ _ _ _ _ _ _ _ _ _
 72
    65
 73
     2
 40
9.524999999999996
 49
6.349999999999998
 49
-3.174999999999998
  0
ENDTAB
  0
TABLE
  2
LAYER
 70
     8
  0
LAYER
  2
0
 70
     0
 62
     7
  6
CONTINUOUS
  0
LAYER
  2
DEFPOINTS
 70
     0
 62
     7
  6
CONTINUOUS
  0
LAYER
  2
回04-下接
 70
     0
 62
     7
  6
CONTINUOUS
  0
LAYER
  2
回07-寸法
 70
     0
 62
     7
  6
CONTINUOUS
  0
LAYER
  2
回08-記事
 70
     0
 62
     7
  6
CONTINUOUS
  0
LAYER
  2
回91-枠英2
 70
     0
 62
     7
  6
CONTINUOUS
  0
LAYER
  2
回07-ﾃｰﾙ
 70
     0
 62
     7
  6
CONTINUOUS
  0
LAYER
  2
回03-記事
 70
     0
 62
     7
  6
CONTINUOUS
  0
ENDTAB
  0
TABLE
  2
STYLE
 70
     2
  0
STYLE
  2
STANDARD
 70
     0
 40
4.0
 41
1.0
 50
0.0
 71
     0
 42
3.0
  3
isocp.shx
  4
bigfont.shx
  0
STYLE
  2
ANNOTATIVE
 70
     0
 40
0.0
 41
1.0
 50
0.0
 71
     0
 42
0.2
  3
txt.shx
  4

  0
ENDTAB
  0
TABLE
  2
VIEW
 70
     0
  0
ENDTAB
  0
TABLE
  2
UCS
 70
     0
  0
ENDTAB
  0
TABLE
  2
APPID
 70
     3
  0
APPID
  2
ACAD
 70
     0
  0
APPID
  2
ACADANNOTATIVE
 70
     0
  0
APPID
  2
ACAD_NAV_VCDISPLAY
 70
     0
  0
ENDTAB
  0
TABLE
  2
DIMSTYLE
 70
     1
  0
DIMSTYLE
  2
DMC
 70
     0
  3

  4

  5
OPEN
  6

  7

 40
1.0
 41
2.0
 42
0.0
 43
0.0
 44
1.0
 45
0.0
 46
0.0
 47
0.0
 48
0.0
140
3.0
141
2.0
142
0.0
143
0.03937007874016
144
1.0
145
0.0
146
0.7
147
0.5
 71
     0
 72
     0
 73
     0
 74
     0
 75
     0
 76
     0
 77
     3
 78
     8
170
     0
171
     3
172
     1
173
     0
174
     0
175
     0
176
     5
177
     5
178
     5
  0
ENDTAB
  0
ENDSEC
  0
SECTION
  2
BLOCKS
  0
BLOCK
  8
0
  2
$MODEL_SPACE
 70
     0
 10
0.0
 20
0.0
 30
0.0
  3
$MODEL_SPACE
  1

  0
ENDBLK
  8
0
  5
20
  0
BLOCK
 67
     1
  8
0
  2
$PAPER_SPACE
 70
     0
 10
0.0
 20
0.0
 30
0.0
  3
$PAPER_SPACE
  1

  0
ENDBLK
  5
25
 67
     1
  8
0
  0
BLOCK
  8
0
  2
_OPEN
 70
     0
 10
0.0
 20
0.0
 30
0.0
  3
_OPEN
  1

  0
LINE
  5
4E2
  8
0
  6
BYBLOCK
 62
     0
 10
-1.0
 20
0.166667
 30
0.0
 11
0.0
 21
0.0
 31
0.0
  0
LINE
  5
4E3
  8
0
  6
BYBLOCK
 62
     0
 10
-1.0
 20
-0.166667
 30
0.0
 11
0.0
 21
0.0
 31
0.0
  0
LINE
  5
4E4
  8
0
  6
BYBLOCK
 62
     0
 10
0.0
 20
0.0
 30
0.0
 11
-1.0
 21
0.0
 31
0.0
  0
LINE
  5
14
  8
0
  6
CONTINUOUS
 62
     0
 10
-1.0
 20
0.1666666666666666
 30
0.0
 11
0.0
 21
0.0
 31
0.0
  0
LINE
  5
15
  8
0
  6
CONTINUOUS
 62
     0
 10
-1.0
 20
-0.1666666666666666
 30
0.0
 11
0.0
 21
0.0
 31
0.0
  0
LINE
  5
16
  8
0
  6
CONTINUOUS
 62
     0
 10
0.0
 20
0.0
 30
0.0
 11
-1.0
 21
0.0
 31
0.0
  0
ENDBLK
  5
17
  8
0
  0
BLOCK
  8
0
  2
*D11
 70
     1
 10
0.0
 20
0.0
 30
0.0
  3
*D11
  1

  0
LINE
  5
30C
  8
回07-寸法
  6
CONTINUOUS
 62
     5
 10
701.0144344399008
 20
-18.15562881768412
 30
0.0
 11
710.8128957221248
 21
-18.15562881768412
 31
0.0
  0
LINE
  5
30D
  8
回07-寸法
  6
CONTINUOUS
 62
     5
 10
701.0144344399008
 20
-16.15562881768411
 30
0.0
 11
710.8128957221248
 21
-16.15562881768411
 31
0.0
  0
LINE
  5
30E
  8
回07-寸法
  6
CONTINUOUS
 62
     5
 10
709.8128957221248
 20
-20.15562881768413
 30
0.0
 11
709.8128957221248
 21
-22.15562881768413
 31
0.0
  0
LINE
  5
30F
  8
回07-寸法
  6
CONTINUOUS
 62
     5
 10
709.8128957221248
 20
-14.15562881768412
 30
0.0
 11
709.8128957221248
 21
14.50655236245351
 31
0.0
  0
LINE
  5
310
  8
回07-寸法
  6
CONTINUOUS
 62
     5
 10
709.8128957221248
 20
-18.15562881768412
 30
0.0
 11
709.8128957221248
 21
-16.15562881768411
 31
0.0
  0
INSERT
  5
311
  8
回07-寸法
  6
CONTINUOUS
 62
     5
 66
     1
  2
_OPEN
 10
709.8128957221248
 20
-18.15562881768412
 30
0.0
 41
2.0
 42
2.0
 43
2.0
 50
90.0
  0
SEQEND
  5
312
  8
回07-寸法
  6
CONTINUOUS
 62
     7
  0
INSERT
  5
313
  8
回07-寸法
  6
CONTINUOUS
 62
     5
 66
     1
  2
_OPEN
 10
709.8128957221248
 20
-16.15562881768411
 30
0.0
 41
2.0
 42
2.0
 43
2.0
 50
270.0
  0
SEQEND
  5
314
  8
回07-寸法
  6
CONTINUOUS
 62
     7
  0
TEXT
  5
315
  8
回07-寸法
  6
CONTINUOUS
 62
     5
 10
709.1129755969277
 20
-9.406082232439528
 30
0.0
 40
4.0
  1
(2 [0.079])
 50
90.0
1001
ACAD
1000
MTEXTBEGIN
1070
    73
1070
     1
1070
    44
1040
1.0
1070
    74
1070
     0
1000
MTEXTEND
  0
POINT
  5
316
  8
DEFPOINTS
  6
CONTINUOUS
 62
     0
 10
701.0144344399008
 20
-18.15562881768412
 30
0.0
  0
POINT
  5
317
  8
DEFPOINTS
  6
CONTINUOUS
 62
     0
 10
701.0144344399008
 20
-16.15562881768411
 30
0.0
  0
POINT
  5
318
  8
DEFPOINTS
  6
CONTINUOUS
 62
     0
 10
709.8128957221248
 20
-16.15562881768411
 30
0.0
  0
ENDBLK
  5
319
  8
0
 62
     1
  0
BLOCK
  8
0
  2
*D22
 70
     1
 10
0.0
 20
0.0
 30
0.0
  3
*D22
  1

  0
LINE
  5
2FD
  8
回07-寸法
  6
CONTINUOUS
 62
     5
 10
701.0144344399008
 20
-24.15562881768436
 30
0.0
 11
763.2296195284907
 21
-24.15562881768436
 31
0.0
  0
LINE
  5
2FE
  8
回07-寸法
  6
CONTINUOUS
 62
     5
 10
701.0144344399008
 20
92.8443711823157
 30
0.0
 11
763.2296195284907
 21
92.8443711823157
 31
0.0
  0
LINE
  5
2FF
  8
回07-寸法
  6
CONTINUOUS
 62
     5
 10
762.2296195284907
 20
-22.15562881768434
 30
0.0
 11
762.2296195284907
 21
90.84437118231569
 31
0.0
  0
INSERT
  5
300
  8
回07-寸法
  6
CONTINUOUS
 62
     5
 66
     1
  2
_OPEN
 10
762.2296195284907
 20
-24.15562881768435
 30
0.0
 41
2.0
 42
2.0
 43
2.0
 50
270.0
  0
SEQEND
  5
301
  8
回07-寸法
  6
CONTINUOUS
 62
     7
  0
INSERT
  5
302
  8
回07-寸法
  6
CONTINUOUS
 62
     5
 66
     1
  2
_OPEN
 10
762.2296195284907
 20
92.8443711823157
 30
0.0
 41
2.0
 42
2.0
 43
2.0
 50
90.0
  0
SEQEND
  5
303
  8
回07-寸法
  6
CONTINUOUS
 62
     7
  0
INSERT
  5
304
  8
回07-寸法
  6
CONTINUOUS
 62
     5
 66
     1
  2
*X4747
 10
0.0
 20
0.0
 30
0.0
  0
SEQEND
  5
419
  8
回07-寸法
  6
CONTINUOUS
 62
     7
  0
POINT
  5
305
  8
DEFPOINTS
  6
CONTINUOUS
 62
     0
 10
701.0144344399008
 20
-24.15562881768436
 30
0.0
  0
POINT
  5
306
  8
DEFPOINTS
  6
CONTINUOUS
 62
     0
 10
701.0144344399008
 20
92.8443711823157
 30
0.0
  0
POINT
  5
307
  8
DEFPOINTS
  6
CONTINUOUS
 62
     0
 10
762.2296195284907
 20
92.8443711823157
 30
0.0
  0
ENDBLK
  5
308
  8
0
 62
     1
  0
BLOCK
  8
0
  2
*D33
 70
     1
 10
0.0
 20
0.0
 30
0.0
  3
*D33
  1

  0
LINE
  5
2EE
  8
回07-寸法
  6
CONTINUOUS
 62
     5
 10
694.5144344399007
 20
86.3443711823157
 30
0.0
 11
746.5500501408306
 21
86.3443711823157
 31
0.0
  0
LINE
  5
2EF
  8
回07-寸法
  6
CONTINUOUS
 62
     5
 10
694.5144344399007
 20
-17.65562881768424
 30
0.0
 11
746.5500501408306
 21
-17.65562881768424
 31
0.0
  0
LINE
  5
2F0
  8
回07-寸法
  6
CONTINUOUS
 62
     5
 10
745.5500501408306
 20
84.34437118231569
 30
0.0
 11
745.5500501408306
 21
-15.65562881768423
 31
0.0
  0
INSERT
  5
2F1
  8
回07-寸法
  6
CONTINUOUS
 62
     5
 66
     1
  2
_OPEN
 10
745.5500501408306
 20
86.34437118231572
 30
0.0
 41
2.0
 42
2.0
 43
2.0
 50
90.0
  0
SEQEND
  5
2F2
  8
回07-寸法
  6
CONTINUOUS
 62
     7
  0
INSERT
  5
2F3
  8
回07-寸法
  6
CONTINUOUS
 62
     5
 66
     1
  2
_OPEN
 10
745.5500501408306
 20
-17.65562881768422
 30
0.0
 41
2.0
 42
2.0
 43
2.0
 50
270.0
  0
SEQEND
  5
2F4
  8
回07-寸法
  6
CONTINUOUS
 62
     7
  0
INSERT
  5
2F5
  8
回07-寸法
  6
CONTINUOUS
 62
     5
 66
     1
  2
*X4848
 10
0.0
 20
0.0
 30
0.0
  0
SEQEND
  5
41F
  8
回07-寸法
  6
CONTINUOUS
 62
     7
  0
POINT
  5
2F6
  8
DEFPOINTS
  6
CONTINUOUS
 62
     0
 10
694.5144344399007
 20
86.3443711823157
 30
0.0
  0
POINT
  5
2F7
  8
DEFPOINTS
  6
CONTINUOUS
 62
     0
 10
694.5144344399007
 20
-17.65562881768424
 30
0.0
  0
POINT
  5
2F8
  8
DEFPOINTS
  6
CONTINUOUS
 62
     0
 10
745.5500501408306
 20
-17.65562881768422
 30
0.0
  0
ENDBLK
  5
2F9
  8
0
 62
     1
  0
BLOCK
  8
0
  2
*D44
 70
     1
 10
0.0
 20
0.0
 30
0.0
  3
*D44
  1

  0
LINE
  5
2DF
  8
回07-寸法
  6
CONTINUOUS
 62
     5
 10
691.5144344399006
 20
84.3443711823158
 30
0.0
 11
737.5419313806633
 21
84.3443711823158
 31
0.0
  0
LINE
  5
2E0
  8
回07-寸法
  6
CONTINUOUS
 62
     5
 10
691.5144344399006
 20
-15.65562881768423
 30
0.0
 11
737.5419313806633
 21
-15.65562881768423
 31
0.0
  0
LINE
  5
2E1
  8
回07-寸法
  6
CONTINUOUS
 62
     5
 10
736.5419313806633
 20
82.3443711823158
 30
0.0
 11
736.5419313806633
 21
-13.65562881768423
 31
0.0
  0
INSERT
  5
2E2
  8
回07-寸法
  6
CONTINUOUS
 62
     5
 66
     1
  2
_OPEN
 10
736.5419313806633
 20
84.34437118231581
 30
0.0
 41
2.0
 42
2.0
 43
2.0
 50
90.0
  0
SEQEND
  5
2E3
  8
回07-寸法
  6
CONTINUOUS
 62
     7
  0
INSERT
  5
2E4
  8
回07-寸法
  6
CONTINUOUS
 62
     5
 66
     1
  2
_OPEN
 10
736.5419313806633
 20
-15.65562881768423
 30
0.0
 41
2.0
 42
2.0
 43
2.0
 50
270.0
  0
SEQEND
  5
2E5
  8
回07-寸法
  6
CONTINUOUS
 62
     7
  0
INSERT
  5
2E6
  8
回07-寸法
  6
CONTINUOUS
 62
     5
 66
     1
  2
*X4949
 10
0.0
 20
0.0
 30
0.0
  0
SEQEND
  5
425
  8
回07-寸法
  6
CONTINUOUS
 62
     7
  0
POINT
  5
2E7
  8
DEFPOINTS
  6
CONTINUOUS
 62
     0
 10
691.5144344399006
 20
84.3443711823158
 30
0.0
  0
POINT
  5
2E8
  8
DEFPOINTS
  6
CONTINUOUS
 62
     0
 10
691.5144344399006
 20
-15.65562881768423
 30
0.0
  0
POINT
  5
2E9
  8
DEFPOINTS
  6
CONTINUOUS
 62
     0
 10
736.5419313806633
 20
-15.65562881768423
 30
0.0
  0
ENDBLK
  5
2EA
  8
0
 62
     1
  0
BLOCK
  8
0
  2
*D55
 70
     1
 10
0.0
 20
0.0
 30
0.0
  3
*D55
  1

  0
LINE
  5
2C9
  8
回07-寸法
  6
CONTINUOUS
 62
     5
 10
466.0126700170607
 20
-70.92234888348112
 30
0.0
 11
466.0126700170607
 21
-62.39220612963433
 31
0.0
  0
LINE
  5
2CA
  8
回07-寸法
  6
CONTINUOUS
 62
     5
 10
471.0126700170607
 20
-69.92234888348114
 30
0.0
 11
471.0126700170607
 21
-62.39220612963433
 31
0.0
  0
LINE
  5
2CB
  8
回07-寸法
  6
CONTINUOUS
 62
     5
 10
464.0126700170608
 20
-63.39220612963433
 30
0.0
 11
462.0126700170607
 21
-63.39220612963433
 31
0.0
  0
LINE
  5
2CC
  8
回07-寸法
  6
CONTINUOUS
 62
     5
 10
473.0126700170607
 20
-63.39220612963433
 30
0.0
 11
497.1783945042851
 21
-63.39220612963433
 31
0.0
  0
LINE
  5
2CD
  8
回07-寸法
  6
CONTINUOUS
 62
     5
 10
466.0126700170607
 20
-63.39220612963433
 30
0.0
 11
471.0126700170607
 21
-63.39220612963433
 31
0.0
  0
INSERT
  5
2CE
  8
回07-寸法
  6
CONTINUOUS
 62
     5
 66
     1
  2
_OPEN
 10
466.0126700170607
 20
-63.39220612963433
 30
0.0
 41
2.0
 42
2.0
 43
2.0
  0
SEQEND
  5
2CF
  8
回07-寸法
  6
CONTINUOUS
 62
     7
  0
INSERT
  5
2D0
  8
回07-寸法
  6
CONTINUOUS
 62
     5
 66
     1
  2
_OPEN
 10
471.0126700170607
 20
-63.39220612963433
 30
0.0
 41
2.0
 42
2.0
 43
2.0
 50
180.0
  0
SEQEND
  5
2D1
  8
回07-寸法
  6
CONTINUOUS
 62
     7
  0
TEXT
  5
2D2
  8
回07-寸法
  6
CONTINUOUS
 62
     5
 10
477.2641851062425
 20
-62.69228600443742
 30
0.0
 40
4.0
  1
5 [0.197]
1001
ACAD
1000
MTEXTBEGIN
1070
    73
1070
     1
1070
    44
1040
1.0
1070
    74
1070
     0
1000
MTEXTEND
  0
POINT
  5
2D3
  8
DEFPOINTS
  6
CONTINUOUS
 62
     0
 10
466.0126700170607
 20
-70.92234888348112
 30
0.0
  0
POINT
  5
2D4
  8
DEFPOINTS
  6
CONTINUOUS
 62
     0
 10
471.0126700170607
 20
-69.92234888348114
 30
0.0
  0
POINT
  5
2D5
  8
DEFPOINTS
  6
CONTINUOUS
 62
     0
 10
471.0126700170607
 20
-63.39220612963433
 30
0.0
  0
ENDBLK
  5
2D6
  8
0
 62
     1
  0
BLOCK
  8
0
  2
*D66
 70
     1
 10
0.0
 20
0.0
 30
0.0
  3
*D66
  1

  0
LINE
  5
2B6
  8
回07-寸法
  6
CONTINUOUS
 62
     5
 10
466.0126700170607
 20
-75.92234888348112
 30
0.0
 11
466.0126700170607
 21
-91.55144354827507
 31
0.0
  0
LINE
  5
2B7
  8
回07-寸法
  6
CONTINUOUS
 62
     5
 10
476.0126700170608
 20
-75.92234888348112
 30
0.0
 11
476.0126700170608
 21
-91.55144354827507
 31
0.0
  0
LINE
  5
2B8
  8
回07-寸法
  6
CONTINUOUS
 62
     5
 10
464.0126700170608
 20
-90.55144354827508
 30
0.0
 11
462.0126700170607
 21
-90.55144354827508
 31
0.0
  0
LINE
  5
2B9
  8
回07-寸法
  6
CONTINUOUS
 62
     5
 10
478.0126700170607
 20
-90.55144354827508
 30
0.0
 11
506.2234977327387
 21
-90.55144354827508
 31
0.0
  0
LINE
  5
2BA
  8
回07-寸法
  6
CONTINUOUS
 62
     5
 10
466.0126700170607
 20
-90.55144354827508
 30
0.0
 11
476.0126700170608
 21
-90.55144354827508
 31
0.0
  0
INSERT
  5
2BB
  8
回07-寸法
  6
CONTINUOUS
 62
     5
 66
     1
  2
_OPEN
 10
466.0126700170607
 20
-90.55144354827508
 30
0.0
 41
2.0
 42
2.0
 43
2.0
  0
SEQEND
  5
2BC
  8
回07-寸法
  6
CONTINUOUS
 62
     7
  0
INSERT
  5
2BD
  8
回07-寸法
  6
CONTINUOUS
 62
     5
 66
     1
  2
_OPEN
 10
476.0126700170608
 20
-90.55144354827508
 30
0.0
 41
2.0
 42
2.0
 43
2.0
 50
180.0
  0
SEQEND
  5
2BE
  8
回07-寸法
  6
CONTINUOUS
 62
     7
  0
TEXT
  5
2BF
  8
回07-寸法
  6
CONTINUOUS
 62
     5
 10
479.9108631378457
 20
-89.85152342307818
 30
0.0
 40
4.0
  1
(10 [0.394])
1001
ACAD
1000
MTEXTBEGIN
1070
    73
1070
     1
1070
    44
1040
1.0
1070
    74
1070
     0
1000
MTEXTEND
  0
POINT
  5
2C0
  8
DEFPOINTS
  6
CONTINUOUS
 62
     0
 10
466.0126700170607
 20
-75.92234888348112
 30
0.0
  0
POINT
  5
2C1
  8
DEFPOINTS
  6
CONTINUOUS
 62
     0
 10
476.0126700170608
 20
-75.92234888348112
 30
0.0
  0
POINT
  5
2C2
  8
DEFPOINTS
  6
CONTINUOUS
 62
     0
 10
476.0126700170608
 20
-90.55144354827508
 30
0.0
  0
ENDBLK
  5
2C3
  8
0
 62
     1
  0
BLOCK
  8
0
  2
*D77
 70
     1
 10
0.0
 20
0.0
 30
0.0
  3
*D77
  1

  0
LINE
  5
28B
  8
回07-寸法
  6
CONTINUOUS
 62
     5
 10
701.0144344399008
 20
-18.15562881768412
 30
0.0
 11
715.7148291582034
 21
-18.15562881768412
 31
0.0
  0
LINE
  5
28C
  8
回07-寸法
  6
CONTINUOUS
 62
     5
 10
701.0144344399008
 20
-24.15562881768413
 30
0.0
 11
715.7148291582034
 21
-24.15562881768413
 31
0.0
  0
LINE
  5
28D
  8
回07-寸法
  6
CONTINUOUS
 62
     5
 10
714.7148291582034
 20
-16.15562881768411
 30
0.0
 11
714.7148291582034
 21
-14.15562881768412
 31
0.0
  0
LINE
  5
28E
  8
回07-寸法
  6
CONTINUOUS
 62
     5
 10
714.7148291582034
 20
-26.15562881768414
 30
0.0
 11
714.7148291582034
 21
-54.80208551059753
 31
0.0
  0
LINE
  5
28F
  8
回07-寸法
  6
CONTINUOUS
 62
     5
 10
714.7148291582034
 20
-18.15562881768412
 30
0.0
 11
714.7148291582034
 21
-24.15562881768413
 31
0.0
  0
INSERT
  5
290
  8
回07-寸法
  6
CONTINUOUS
 62
     5
 66
     1
  2
_OPEN
 10
714.7148291582034
 20
-18.15562881768412
 30
0.0
 41
2.0
 42
2.0
 43
2.0
 50
270.0
  0
SEQEND
  5
291
  8
回07-寸法
  6
CONTINUOUS
 62
     7
  0
INSERT
  5
292
  8
回07-寸法
  6
CONTINUOUS
 62
     5
 66
     1
  2
_OPEN
 10
714.7148291582034
 20
-24.15562881768413
 30
0.0
 41
2.0
 42
2.0
 43
2.0
 50
90.0
  0
SEQEND
  5
293
  8
回07-寸法
  6
CONTINUOUS
 62
     7
  0
TEXT
  5
294
  8
回07-寸法
  6
CONTINUOUS
 62
     5
 10
714.0148291582034
 20
-54.90366031374731
 30
0.0
 40
4.0
  1
(6 [0.236])
 50
90.0
1001
ACAD
1000
MTEXTBEGIN
1070
    73
1070
     1
1070
    44
1040
1.0
1070
    74
1070
     0
1000
MTEXTEND
  0
POINT
  5
295
  8
DEFPOINTS
  6
CONTINUOUS
 62
     0
 10
701.0144344399008
 20
-18.15562881768412
 30
0.0
  0
POINT
  5
296
  8
DEFPOINTS
  6
CONTINUOUS
 62
     0
 10
701.0144344399008
 20
-24.15562881768413
 30
0.0
  0
POINT
  5
297
  8
DEFPOINTS
  6
CONTINUOUS
 62
     0
 10
714.7148291582034
 20
-24.15562881768413
 30
0.0
  0
ENDBLK
  5
298
  8
0
 62
     1
  0
BLOCK
  8
0
  2
*D88
 70
     1
 10
0.0
 20
0.0
 30
0.0
  3
*D88
  1

  0
LINE
  5
263
  8
回07-寸法
  6
CONTINUOUS
 62
     5
 10
558.5144344399004
 20
84.34437118231576
 30
0.0
 11
558.5144344399004
 21
114.1672515595724
 31
0.0
  0
LINE
  5
264
  8
回07-寸法
  6
CONTINUOUS
 62
     5
 10
691.5144344399005
 20
84.34437118231565
 30
0.0
 11
691.5144344399005
 21
114.1672515595724
 31
0.0
  0
LINE
  5
265
  8
回07-寸法
  6
CONTINUOUS
 62
     5
 10
560.5144344399003
 20
113.1672515595724
 30
0.0
 11
689.5144344399003
 21
113.1672515595724
 31
0.0
  0
INSERT
  5
266
  8
回07-寸法
  6
CONTINUOUS
 62
     5
 66
     1
  2
_OPEN
 10
558.5144344399004
 20
113.1672515595724
 30
0.0
 41
2.0
 42
2.0
 43
2.0
 50
180.0
  0
SEQEND
  5
267
  8
回07-寸法
  6
CONTINUOUS
 62
     7
  0
INSERT
  5
268
  8
回07-寸法
  6
CONTINUOUS
 62
     5
 66
     1
  2
_OPEN
 10
691.5144344399005
 20
113.1672515595724
 30
0.0
 41
2.0
 42
2.0
 43
2.0
  0
SEQEND
  5
269
  8
回07-寸法
  6
CONTINUOUS
 62
     7
  0
INSERT
  5
26A
  8
回07-寸法
  6
CONTINUOUS
 62
     5
 66
     1
  2
*X5050
 10
0.0
 20
0.0
 30
0.0
  0
SEQEND
  5
42B
  8
回07-寸法
  6
CONTINUOUS
 62
     7
  0
POINT
  5
26B
  8
DEFPOINTS
  6
CONTINUOUS
 62
     0
 10
558.5144344399004
 20
84.34437118231576
 30
0.0
  0
POINT
  5
26C
  8
DEFPOINTS
  6
CONTINUOUS
 62
     0
 10
691.5144344399005
 20
84.34437118231565
 30
0.0
  0
POINT
  5
26D
  8
DEFPOINTS
  6
CONTINUOUS
 62
     0
 10
691.5144344399005
 20
113.1672515595724
 30
0.0
  0
ENDBLK
  5
26E
  8
0
 62
     1
  0
BLOCK
  8
0
  2
*D99
 70
     1
 10
0.0
 20
0.0
 30
0.0
  3
*D99
  1

  0
LINE
  5
254
  8
回07-寸法
  6
CONTINUOUS
 62
     5
 10
546.0144344399004
 20
92.84437118231588
 30
0.0
 11
546.0144344399004
 21
142.0497640576882
 31
0.0
  0
LINE
  5
255
  8
回07-寸法
  6
CONTINUOUS
 62
     5
 10
701.0144344399003
 20
92.84437118231563
 30
0.0
 11
701.0144344399003
 21
142.0497640576882
 31
0.0
  0
LINE
  5
256
  8
回07-寸法
  6
CONTINUOUS
 62
     5
 10
548.0144344399003
 20
141.0497640576882
 30
0.0
 11
699.0144344399005
 21
141.0497640576882
 31
0.0
  0
INSERT
  5
257
  8
回07-寸法
  6
CONTINUOUS
 62
     5
 66
     1
  2
_OPEN
 10
546.0144344399004
 20
141.0497640576882
 30
0.0
 41
2.0
 42
2.0
 43
2.0
 50
180.0
  0
SEQEND
  5
258
  8
回07-寸法
  6
CONTINUOUS
 62
     7
  0
INSERT
  5
259
  8
回07-寸法
  6
CONTINUOUS
 62
     5
 66
     1
  2
_OPEN
 10
701.0144344399003
 20
141.0497640576882
 30
0.0
 41
2.0
 42
2.0
 43
2.0
  0
SEQEND
  5
25A
  8
回07-寸法
  6
CONTINUOUS
 62
     7
  0
INSERT
  5
25B
  8
回07-寸法
  6
CONTINUOUS
 62
     5
 66
     1
  2
*X5151
 10
0.0
 20
0.0
 30
0.0
  0
SEQEND
  5
434
  8
回07-寸法
  6
CONTINUOUS
 62
     7
  0
POINT
  5
25C
  8
DEFPOINTS
  6
CONTINUOUS
 62
     0
 10
546.0144344399004
 20
92.84437118231588
 30
0.0
  0
POINT
  5
25D
  8
DEFPOINTS
  6
CONTINUOUS
 62
     0
 10
701.0144344399003
 20
92.84437118231563
 30
0.0
  0
POINT
  5
25E
  8
DEFPOINTS
  6
CONTINUOUS
 62
     0
 10
701.0144344399003
 20
141.0497640576882
 30
0.0
  0
ENDBLK
  5
25F
  8
0
 62
     1
  0
BLOCK
  8
0
  2
*D1010
 70
     1
 10
0.0
 20
0.0
 30
0.0
  3
*D1010
  1

  0
LINE
  5
245
  8
回07-寸法
  6
CONTINUOUS
 62
     5
 10
555.5144344399003
 20
86.34437118231588
 30
0.0
 11
555.5144344399003
 21
121.7778870161046
 31
0.0
  0
LINE
  5
246
  8
回07-寸法
  6
CONTINUOUS
 62
     5
 10
694.5144344399003
 20
86.34437118231565
 30
0.0
 11
694.5144344399003
 21
121.7778870161046
 31
0.0
  0
LINE
  5
247
  8
回07-寸法
  6
CONTINUOUS
 62
     5
 10
557.5144344399005
 20
120.7778870161046
 30
0.0
 11
692.5144344399003
 21
120.7778870161046
 31
0.0
  0
INSERT
  5
248
  8
回07-寸法
  6
CONTINUOUS
 62
     5
 66
     1
  2
_OPEN
 10
555.5144344399003
 20
120.7778870161046
 30
0.0
 41
2.0
 42
2.0
 43
2.0
 50
180.0
  0
SEQEND
  5
249
  8
回07-寸法
  6
CONTINUOUS
 62
     7
  0
INSERT
  5
24A
  8
回07-寸法
  6
CONTINUOUS
 62
     5
 66
     1
  2
_OPEN
 10
694.5144344399003
 20
120.7778870161046
 30
0.0
 41
2.0
 42
2.0
 43
2.0
  0
SEQEND
  5
24B
  8
回07-寸法
  6
CONTINUOUS
 62
     7
  0
INSERT
  5
24C
  8
回07-寸法
  6
CONTINUOUS
 62
     5
 66
     1
  2
*X5252
 10
0.0
 20
0.0
 30
0.0
  0
SEQEND
  5
43A
  8
回07-寸法
  6
CONTINUOUS
 62
     7
  0
POINT
  5
24D
  8
DEFPOINTS
  6
CONTINUOUS
 62
     0
 10
555.5144344399003
 20
86.34437118231588
 30
0.0
  0
POINT
  5
24E
  8
DEFPOINTS
  6
CONTINUOUS
 62
     0
 10
694.5144344399003
 20
86.34437118231565
 30
0.0
  0
POINT
  5
24F
  8
DEFPOINTS
  6
CONTINUOUS
 62
     0
 10
694.5144344399003
 20
120.7778870161046
 30
0.0
  0
ENDBLK
  5
250
  8
0
 62
     1
  0
BLOCK
  8
0
  2
*D1111
 70
     1
 10
0.0
 20
0.0
 30
0.0
  3
*D1111
  1

  0
LINE
  5
233
  8
回07-寸法
  6
CONTINUOUS
 62
     5
 10
546.0144344399005
 20
92.84437118231592
 30
0.0
 11
458.0395232418598
 21
92.84437118231592
 31
0.0
  0
LINE
  5
234
  8
回07-寸法
  6
CONTINUOUS
 62
     5
 10
466.5144786414171
 20
66.71937118231625
 30
0.0
 11
458.0395232418598
 21
66.71937118231625
 31
0.0
  0
LINE
  5
235
  8
回07-寸法
  6
CONTINUOUS
 62
     5
 10
459.0395232418598
 20
64.71937118231625
 30
0.0
 11
459.0395232418598
 21
62.71937118231624
 31
0.0
  0
LINE
  5
236
  8
回07-寸法
  6
CONTINUOUS
 62
     5
 10
459.0395232418598
 20
94.84437118231587
 30
0.0
 11
459.0395232418598
 21
131.4551988979938
 31
0.0
  0
LINE
  5
237
  8
回07-寸法
  6
CONTINUOUS
 62
     5
 10
459.0395232418598
 20
66.71937118231625
 30
0.0
 11
459.0395232418598
 21
92.84437118231588
 31
0.0
  0
INSERT
  5
238
  8
回07-寸法
  6
CONTINUOUS
 62
     5
 66
     1
  2
_OPEN
 10
459.0395232418598
 20
66.71937118231625
 30
0.0
 41
2.0
 42
2.0
 43
2.0
 50
90.0
  0
SEQEND
  5
239
  8
回07-寸法
  6
CONTINUOUS
 62
     7
  0
INSERT
  5
23A
  8
回07-寸法
  6
CONTINUOUS
 62
     5
 66
     1
  2
_OPEN
 10
459.0395232418598
 20
92.84437118231588
 30
0.0
 41
2.0
 42
2.0
 43
2.0
 50
270.0
  0
SEQEND
  5
23B
  8
回07-寸法
  6
CONTINUOUS
 62
     7
  0
TEXT
  5
23C
  8
回07-寸法
  6
CONTINUOUS
 62
     5
 10
458.3396031166627
 20
96.74256430310066
 30
0.0
 40
4.0
  1
(26.125 [1.029])
 50
90.0
1001
ACAD
1000
MTEXTBEGIN
1070
    73
1070
     1
1070
    44
1040
1.0
1070
    74
1070
     0
1000
MTEXTEND
  0
POINT
  5
23D
  8
DEFPOINTS
  6
CONTINUOUS
 62
     0
 10
546.0144344399005
 20
92.84437118231592
 30
0.0
  0
POINT
  5
23E
  8
DEFPOINTS
  6
CONTINUOUS
 62
     0
 10
466.5144786414171
 20
66.71937118231625
 30
0.0
  0
POINT
  5
23F
  8
DEFPOINTS
  6
CONTINUOUS
 62
     0
 10
459.0395232418598
 20
66.71937118231625
 30
0.0
  0
ENDBLK
  5
240
  8
0
 62
     1
  0
BLOCK
  8
0
  2
*D1212
 70
     1
 10
0.0
 20
0.0
 30
0.0
  3
*D1212
  1

  0
LINE
  5
224
  8
回07-寸法
  6
CONTINUOUS
 62
     5
 10
466.014478641417
 20
60.96937118231622
 30
0.0
 11
466.014478641417
 21
17.36647939830618
 31
0.0
  0
LINE
  5
225
  8
回07-寸法
  6
CONTINUOUS
 62
     5
 10
546.0144344399004
 20
54.91734628758432
 30
0.0
 11
546.0144344399004
 21
17.36647939830618
 31
0.0
  0
LINE
  5
226
  8
回07-寸法
  6
CONTINUOUS
 62
     5
 10
468.0144786414168
 20
18.36647939830618
 30
0.0
 11
544.0144344399003
 21
18.36647939830618
 31
0.0
  0
INSERT
  5
227
  8
回07-寸法
  6
CONTINUOUS
 62
     5
 66
     1
  2
_OPEN
 10
466.014478641417
 20
18.36647939830618
 30
0.0
 41
2.0
 42
2.0
 43
2.0
 50
180.0
  0
SEQEND
  5
228
  8
回07-寸法
  6
CONTINUOUS
 62
     7
  0
INSERT
  5
229
  8
回07-寸法
  6
CONTINUOUS
 62
     5
 66
     1
  2
_OPEN
 10
546.0144344399004
 20
18.36647939830618
 30
0.0
 41
2.0
 42
2.0
 43
2.0
  0
SEQEND
  5
22A
  8
回07-寸法
  6
CONTINUOUS
 62
     7
  0
INSERT
  5
22B
  8
回07-寸法
  6
CONTINUOUS
 62
     5
 66
     1
  2
*X5353
 10
0.0
 20
0.0
 30
0.0
  0
SEQEND
  5
443
  8
回07-寸法
  6
CONTINUOUS
 62
     7
  0
POINT
  5
22C
  8
DEFPOINTS
  6
CONTINUOUS
 62
     0
 10
466.014478641417
 20
60.96937118231622
 30
0.0
  0
POINT
  5
22D
  8
DEFPOINTS
  6
CONTINUOUS
 62
     0
 10
546.0144344399004
 20
54.91734628758432
 30
0.0
  0
POINT
  5
22E
  8
DEFPOINTS
  6
CONTINUOUS
 62
     0
 10
546.0144344399004
 20
18.36647939830618
 30
0.0
  0
ENDBLK
  5
22F
  8
0
 62
     1
  0
BLOCK
  8
0
  2
*D1313
 70
     1
 10
0.0
 20
0.0
 30
0.0
  3
*D1313
  1

  0
LINE
  5
214
  8
回07-寸法
  6
CONTINUOUS
 62
     5
 10
701.0144344399008
 20
-24.15562881768436
 30
0.0
 11
727.498015271347
 21
-24.15562881768436
 31
0.0
  0
LINE
  5
215
  8
回07-寸法
  6
CONTINUOUS
 62
     5
 10
704.0144344399006
 20
34.34437118231578
 30
0.0
 11
727.498015271347
 21
34.34437118231578
 31
0.0
  0
LINE
  5
216
  8
回07-寸法
  6
CONTINUOUS
 62
     5
 10
726.498015271347
 20
-22.15562881768435
 30
0.0
 11
726.498015271347
 21
32.34437118231579
 31
0.0
  0
INSERT
  5
217
  8
回07-寸法
  6
CONTINUOUS
 62
     5
 66
     1
  2
_OPEN
 10
726.498015271347
 20
-24.15562881768436
 30
0.0
 41
2.0
 42
2.0
 43
2.0
 50
270.0
  0
SEQEND
  5
218
  8
回07-寸法
  6
CONTINUOUS
 62
     7
  0
INSERT
  5
219
  8
回07-寸法
  6
CONTINUOUS
 62
     5
 66
     1
  2
_OPEN
 10
726.498015271347
 20
34.34437118231579
 30
0.0
 41
2.0
 42
2.0
 43
2.0
 50
90.0
  0
SEQEND
  5
21A
  8
回07-寸法
  6
CONTINUOUS
 62
     7
  0
INSERT
  5
21B
  8
回07-寸法
  6
CONTINUOUS
 62
     5
 66
     1
  2
*X5454
 10
0.0
 20
0.0
 30
0.0
  0
SEQEND
  5
44A
  8
回07-寸法
  6
CONTINUOUS
 62
     7
  0
POINT
  5
21C
  8
DEFPOINTS
  6
CONTINUOUS
 62
     0
 10
701.0144344399008
 20
-24.15562881768436
 30
0.0
  0
POINT
  5
21D
  8
DEFPOINTS
  6
CONTINUOUS
 62
     0
 10
704.0144344399006
 20
34.34437118231578
 30
0.0
  0
POINT
  5
21E
  8
DEFPOINTS
  6
CONTINUOUS
 62
     0
 10
726.498015271347
 20
34.34437118231579
 30
0.0
  0
ENDBLK
  5
21F
  8
0
 62
     1
  0
BLOCK
  8
0
  2
*D1414
 70
     1
 10
0.0
 20
0.0
 30
0.0
  3
*D1414
  1

  0
LINE
  5
204
  8
回07-寸法
  6
CONTINUOUS
 62
     5
 10
546.0144344399004
 20
92.84437118231588
 30
0.0
 11
546.0144344399004
 21
106.5576897703513
 31
0.0
  0
LINE
  5
205
  8
回07-寸法
  6
CONTINUOUS
 62
     5
 10
625.0144344399005
 20
90.84437118231576
 30
0.0
 11
625.0144344399005
 21
106.5576897703513
 31
0.0
  0
LINE
  5
206
  8
回07-寸法
  6
CONTINUOUS
 62
     5
 10
548.0144344399003
 20
105.5576897703513
 30
0.0
 11
623.0144344399003
 21
105.5576897703513
 31
0.0
  0
INSERT
  5
207
  8
回07-寸法
  6
CONTINUOUS
 62
     5
 66
     1
  2
_OPEN
 10
546.0144344399004
 20
105.5576897703513
 30
0.0
 41
2.0
 42
2.0
 43
2.0
 50
180.0
  0
SEQEND
  5
208
  8
回07-寸法
  6
CONTINUOUS
 62
     7
  0
INSERT
  5
209
  8
回07-寸法
  6
CONTINUOUS
 62
     5
 66
     1
  2
_OPEN
 10
625.0144344399005
 20
105.5576897703513
 30
0.0
 41
2.0
 42
2.0
 43
2.0
  0
SEQEND
  5
20A
  8
回07-寸法
  6
CONTINUOUS
 62
     7
  0
INSERT
  5
20B
  8
回07-寸法
  6
CONTINUOUS
 62
     5
 66
     1
  2
*X5555
 10
0.0
 20
0.0
 30
0.0
  0
SEQEND
  5
450
  8
回07-寸法
  6
CONTINUOUS
 62
     7
  0
POINT
  5
20C
  8
DEFPOINTS
  6
CONTINUOUS
 62
     0
 10
546.0144344399004
 20
92.84437118231588
 30
0.0
  0
POINT
  5
20D
  8
DEFPOINTS
  6
CONTINUOUS
 62
     0
 10
625.0144344399005
 20
90.84437118231576
 30
0.0
  0
POINT
  5
20E
  8
DEFPOINTS
  6
CONTINUOUS
 62
     0
 10
625.0144344399005
 20
105.5576897703513
 30
0.0
  0
ENDBLK
  5
20F
  8
0
 62
     1
  0
BLOCK
  8
0
  2
*D1515
 70
     1
 10
0.0
 20
0.0
 30
0.0
  3
*D1515
  1

  0
LINE
  5
1CB
  8
回07-寸法
  6
CONTINUOUS
 62
     5
 10
466.5144786414171
 20
66.71937118231625
 30
0.0
 11
458.03952324186
 21
66.71937118231625
 31
0.0
  0
LINE
  5
1CC
  8
回07-寸法
  6
CONTINUOUS
 62
     5
 10
466.5144786414171
 20
60.46937118231625
 30
0.0
 11
458.03952324186
 21
60.46937118231625
 31
0.0
  0
LINE
  5
1CD
  8
回07-寸法
  6
CONTINUOUS
 62
     5
 10
459.0395232418599
 20
68.71937118231625
 30
0.0
 11
459.0395232418599
 21
70.71937118231625
 31
0.0
  0
LINE
  5
1CE
  8
回07-寸法
  6
CONTINUOUS
 62
     5
 10
459.0395232418599
 20
58.46937118231624
 30
0.0
 11
459.0395232418599
 21
28.43000110357608
 31
0.0
  0
LINE
  5
1CF
  8
回07-寸法
  6
CONTINUOUS
 62
     5
 10
459.0395232418599
 20
66.71937118231625
 30
0.0
 11
459.0395232418599
 21
60.46937118231625
 31
0.0
  0
INSERT
  5
1D0
  8
回07-寸法
  6
CONTINUOUS
 62
     5
  2
_OPEN
 10
459.0395232418599
 20
66.71937118231625
 30
0.0
 41
2.0
 42
2.0
 43
2.0
 50
270.0
  0
INSERT
  5
1D1
  8
回07-寸法
  6
CONTINUOUS
 62
     5
  2
_OPEN
 10
459.0395232418599
 20
60.46937118231625
 30
0.0
 41
2.0
 42
2.0
 43
2.0
 50
90.0
  0
TEXT
  5
1D2
  8
回07-寸法
  6
CONTINUOUS
 62
     5
 10
458.3395232418599
 20
28.44968614294601
 30
0.0
 40
4.0
  1
6.25 [0.246]
 50
90.0
1001
ACAD
1000
MTEXTBEGIN
1070
    73
1070
     1
1070
    44
1040
1.0
1070
    74
1070
     0
1000
MTEXTEND
  0
POINT
  5
1D3
  8
DEFPOINTS
  6
CONTINUOUS
 62
     0
 10
466.5144786414171
 20
66.71937118231625
 30
0.0
  0
POINT
  5
1D4
  8
DEFPOINTS
  6
CONTINUOUS
 62
     0
 10
466.5144786414171
 20
60.46937118231625
 30
0.0
  0
POINT
  5
1D5
  8
DEFPOINTS
  6
CONTINUOUS
 62
     0
 10
459.0395232418599
 20
60.46937118231625
 30
0.0
  0
ENDBLK
  5
1D6
  8
0
 62
     1
  0
BLOCK
  8
0
  2
*D1616
 70
     1
 10
0.0
 20
0.0
 30
0.0
  3
*D1616
  1

  0
LINE
  5
1B9
  8
回07-寸法
  6
CONTINUOUS
 62
     5
 10
541.8225922438188
 20
71.59316814804443
 30
0.0
 11
477.8396350242939
 21
71.59316814804443
 31
0.0
  0
LINE
  5
1BA
  8
回07-寸法
  6
CONTINUOUS
 62
     5
 10
541.8267658295254
 20
55.5943711823158
 30
0.0
 11
477.8396350242939
 21
55.5943711823158
 31
0.0
  0
LINE
  5
1BB
  8
回07-寸法
  6
CONTINUOUS
 62
     5
 10
478.8396350242939
 20
73.59316814804443
 30
0.0
 11
478.8396350242939
 21
75.59316814804443
 31
0.0
  0
LINE
  5
1BC
  8
回07-寸法
  6
CONTINUOUS
 62
     5
 10
478.8396350242939
 20
53.59437118231578
 30
0.0
 11
478.8396350242939
 21
19.35243921638447
 31
0.0
  0
LINE
  5
1BD
  8
回07-寸法
  6
CONTINUOUS
 62
     5
 10
478.8396350242939
 20
71.59316814804443
 30
0.0
 11
478.8396350242939
 21
55.59437118231579
 31
0.0
  0
INSERT
  5
1BE
  8
回07-寸法
  6
CONTINUOUS
 62
     5
  2
_OPEN
 10
478.8396350242939
 20
71.59316814804443
 30
0.0
 41
2.0
 42
2.0
 43
2.0
 50
270.0
  0
INSERT
  5
1BF
  8
回07-寸法
  6
CONTINUOUS
 62
     5
  2
_OPEN
 10
478.8396350242939
 20
55.59437118231579
 30
0.0
 41
2.0
 42
2.0
 43
2.0
 50
90.0
  0
TEXT
  5
1C0
  8
回07-寸法
  6
CONTINUOUS
 62
     5
 10
478.1396350242936
 20
19.25174298818808
 30
0.0
 40
4.0
  1
15.999 [0.630]
 50
90.0
1001
ACAD
1000
MTEXTBEGIN
1070
    73
1070
     1
1070
    44
1040
1.0
1070
    74
1070
     0
1000
MTEXTEND
  0
POINT
  5
1C1
  8
DEFPOINTS
  6
CONTINUOUS
 62
     0
 10
541.8225922438188
 20
71.59316814804443
 30
0.0
  0
POINT
  5
1C2
  8
DEFPOINTS
  6
CONTINUOUS
 62
     0
 10
541.8267658295254
 20
55.5943711823158
 30
0.0
  0
POINT
  5
1C3
  8
DEFPOINTS
  6
CONTINUOUS
 62
     0
 10
478.8396350242939
 20
55.59437118231579
 30
0.0
  0
ENDBLK
  5
1C4
  8
0
 62
     1
  0
BLOCK
  8
0
  2
*D1717
 70
     1
 10
0.0
 20
0.0
 30
0.0
  3
*D1717
  1

  0
LINE
  5
1A8
  8
回07-寸法
  6
CONTINUOUS
 62
     5
 10
546.0144786414161
 20
52.72330337044983
 30
0.0
 11
546.0144786414161
 21
39.66963535938205
 31
0.0
  0
LINE
  5
1A9
  8
回07-寸法
  6
CONTINUOUS
 62
     5
 10
536.6144786414159
 20
60.32631530454628
 30
0.0
 11
536.6144786414159
 21
39.66963535938205
 31
0.0
  0
LINE
  5
1AA
  8
回07-寸法
  6
CONTINUOUS
 62
     5
 10
548.0144786414159
 20
40.66963535938206
 30
0.0
 11
550.0144786414161
 21
40.66963535938206
 31
0.0
  0
LINE
  5
1AB
  8
回07-寸法
  6
CONTINUOUS
 62
     5
 10
534.6144786414161
 20
40.66963535938206
 30
0.0
 11
504.4280825383482
 21
40.66963535938206
 31
0.0
  0
LINE
  5
1AC
  8
回07-寸法
  6
CONTINUOUS
 62
     5
 10
546.0144786414161
 20
40.66963535938206
 30
0.0
 11
536.6144786414159
 21
40.66963535938206
 31
0.0
  0
INSERT
  5
1AD
  8
回07-寸法
  6
CONTINUOUS
 62
     5
 66
     1
  2
_OPEN
 10
546.0144786414161
 20
40.66963535938206
 30
0.0
 41
2.0
 42
2.0
 43
2.0
 50
180.0
  0
SEQEND
  5
1AE
  8
回07-寸法
  6
CONTINUOUS
 62
     7
  0
INSERT
  5
1AF
  8
回07-寸法
  6
CONTINUOUS
 62
     5
 66
     1
  2
_OPEN
 10
536.6144786414159
 20
40.66963535938206
 30
0.0
 41
2.0
 42
2.0
 43
2.0
  0
SEQEND
  5
1B0
  8
回07-寸法
  6
CONTINUOUS
 62
     7
  0
TEXT
  5
1B1
  8
回07-寸法
  6
CONTINUOUS
 62
     5
 10
504.3964837767147
 20
41.36963535938206
 30
0.0
 40
4.0
  1
9.4 [0.370]
1001
ACAD
1000
MTEXTBEGIN
1070
    73
1070
     1
1070
    44
1040
1.0
1070
    74
1070
     0
1000
MTEXTEND
  0
POINT
  5
1B2
  8
DEFPOINTS
  6
CONTINUOUS
 62
     0
 10
546.0144786414161
 20
52.72330337044983
 30
0.0
  0
POINT
  5
1B3
  8
DEFPOINTS
  6
CONTINUOUS
 62
     0
 10
536.6144786414159
 20
60.32631530454628
 30
0.0
  0
POINT
  5
1B4
  8
DEFPOINTS
  6
CONTINUOUS
 62
     0
 10
536.6144786414159
 20
40.66963535938206
 30
0.0
  0
ENDBLK
  5
1B5
  8
0
 62
     1
  0
BLOCK
  8
0
  2
*D1818
 70
     1
 10
0.0
 20
0.0
 30
0.0
  3
*D1818
  1

  0
LINE
  5
197
  8
回07-寸法
  6
CONTINUOUS
 62
     5
 10
546.0144786414161
 20
52.72330337044983
 30
0.0
 11
546.0144786414161
 21
46.38654470967367
 31
0.0
  0
LINE
  5
198
  8
回07-寸法
  6
CONTINUOUS
 62
     5
 10
541.6267658295248
 20
55.59437118231577
 30
0.0
 11
541.6267658295248
 21
46.38654470967367
 31
0.0
  0
LINE
  5
199
  8
回07-寸法
  6
CONTINUOUS
 62
     5
 10
548.0144786414159
 20
47.38654470967367
 30
0.0
 11
550.0144786414161
 21
47.38654470967367
 31
0.0
  0
LINE
  5
19A
  8
回07-寸法
  6
CONTINUOUS
 62
     5
 10
539.6267658295248
 20
47.38654470967367
 30
0.0
 11
504.2267658295248
 21
47.38654470967367
 31
0.0
  0
LINE
  5
19B
  8
回07-寸法
  6
CONTINUOUS
 62
     5
 10
546.0144786414161
 20
47.38654470967367
 30
0.0
 11
541.6267658295248
 21
47.38654470967367
 31
0.0
  0
INSERT
  5
19C
  8
回07-寸法
  6
CONTINUOUS
 62
     5
 66
     1
  2
_OPEN
 10
546.0144786414161
 20
47.38654470967367
 30
0.0
 41
2.0
 42
2.0
 43
2.0
 50
180.0
  0
SEQEND
  5
19D
  8
回07-寸法
  6
CONTINUOUS
 62
     7
  0
INSERT
  5
19E
  8
回07-寸法
  6
CONTINUOUS
 62
     5
 66
     1
  2
_OPEN
 10
541.6267658295248
 20
47.38654470967367
 30
0.0
 41
2.0
 42
2.0
 43
2.0
  0
SEQEND
  5
19F
  8
回07-寸法
  6
CONTINUOUS
 62
     7
  0
TEXT
  5
1A0
  8
回07-寸法
  6
CONTINUOUS
 62
     5
 10
504.1267658295248
 20
48.08654470967367
 30
0.0
 40
4.0
  1
4.388 [0.173]
1001
ACAD
1000
MTEXTBEGIN
1070
    73
1070
     1
1070
    44
1040
1.0
1070
    74
1070
     0
1000
MTEXTEND
  0
POINT
  5
1A1
  8
DEFPOINTS
  6
CONTINUOUS
 62
     0
 10
546.0144786414161
 20
52.72330337044983
 30
0.0
  0
POINT
  5
1A2
  8
DEFPOINTS
  6
CONTINUOUS
 62
     0
 10
541.6267658295248
 20
55.59437118231577
 30
0.0
  0
POINT
  5
1A3
  8
DEFPOINTS
  6
CONTINUOUS
 62
     0
 10
541.6267658295248
 20
47.38654470967367
 30
0.0
  0
ENDBLK
  5
1A4
  8
0
 62
     1
  0
BLOCK
  8
0
  2
*D1919
 70
     1
 10
0.0
 20
0.0
 30
0.0
  3
*D1919
  1

  0
LINE
  5
174
  8
回07-寸法
  6
CONTINUOUS
 62
     5
 10
554.5144344399004
 20
87.64437118231588
 30
0.0
 11
554.5144344399004
 21
133.6960609301172
 31
0.0
  0
LINE
  5
175
  8
回07-寸法
  6
CONTINUOUS
 62
     5
 10
546.0144344399004
 20
92.84437118231588
 30
0.0
 11
546.0144344399004
 21
133.6960609301172
 31
0.0
  0
LINE
  5
176
  8
回07-寸法
  6
CONTINUOUS
 62
     5
 10
556.5144344399003
 20
132.6960609301172
 30
0.0
 11
558.5144344399004
 21
132.6960609301172
 31
0.0
  0
LINE
  5
177
  8
回07-寸法
  6
CONTINUOUS
 62
     5
 10
544.0144344399003
 20
132.6960609301172
 30
0.0
 11
517.4144344399003
 21
132.6960609301172
 31
0.0
  0
LINE
  5
178
  8
回07-寸法
  6
CONTINUOUS
 62
     5
 10
554.5144344399004
 20
132.6960609301172
 30
0.0
 11
546.0144344399004
 21
132.6960609301172
 31
0.0
  0
INSERT
  5
179
  8
回07-寸法
  6
CONTINUOUS
 62
     5
  2
_OPEN
 10
554.5144344399004
 20
132.6960609301172
 30
0.0
 41
2.0
 42
2.0
 43
2.0
 50
180.0
  0
INSERT
  5
17A
  8
回07-寸法
  6
CONTINUOUS
 62
     5
  2
_OPEN
 10
546.0144344399004
 20
132.6960609301172
 30
0.0
 41
2.0
 42
2.0
 43
2.0
  0
TEXT
  5
17B
  8
回07-寸法
  6
CONTINUOUS
 62
     5
 10
517.3144344399005
 20
133.3960609301172
 30
0.0
 40
4.0
  1
8.5 [0.335]
1001
ACAD
1000
MTEXTBEGIN
1070
    73
1070
     1
1070
    44
1040
1.0
1070
    74
1070
     0
1000
MTEXTEND
  0
POINT
  5
17C
  8
DEFPOINTS
  6
CONTINUOUS
 62
     0
 10
554.5144344399004
 20
87.64437118231588
 30
0.0
  0
POINT
  5
17D
  8
DEFPOINTS
  6
CONTINUOUS
 62
     0
 10
546.0144344399004
 20
92.84437118231588
 30
0.0
  0
POINT
  5
17E
  8
DEFPOINTS
  6
CONTINUOUS
 62
     0
 10
546.0144344399004
 20
132.6960609301172
 30
0.0
  0
ENDBLK
  5
17F
  8
0
 62
     7
  0
BLOCK
  8
0
  2
*D2020
 70
     1
 10
0.0
 20
0.0
 30
0.0
  3
*D2020
  1

  0
LINE
  5
167
  8
回07-寸法
  6
CONTINUOUS
 62
     5
 10
554.5144344399004
 20
87.64437118231588
 30
0.0
 11
554.5144344399004
 21
133.6960609301172
 31
0.0
  0
LINE
  5
168
  8
回07-寸法
  6
CONTINUOUS
 62
     5
 10
695.5144344399005
 20
87.64437118231588
 30
0.0
 11
695.5144344399005
 21
133.6960609301172
 31
0.0
  0
LINE
  5
169
  8
回07-寸法
  6
CONTINUOUS
 62
     5
 10
556.5144344399003
 20
132.6960609301172
 30
0.0
 11
693.5144344399003
 21
132.6960609301172
 31
0.0
  0
INSERT
  5
16A
  8
回07-寸法
  6
CONTINUOUS
 62
     5
  2
_OPEN
 10
554.5144344399004
 20
132.6960609301172
 30
0.0
 41
2.0
 42
2.0
 43
2.0
 50
180.0
  0
INSERT
  5
16B
  8
回07-寸法
  6
CONTINUOUS
 62
     5
  2
_OPEN
 10
695.5144344399005
 20
132.6960609301172
 30
0.0
 41
2.0
 42
2.0
 43
2.0
  0
TEXT
  5
16C
  8
回07-寸法
  6
CONTINUOUS
 62
     5
 10
612.8144344399003
 20
133.3960609301172
 30
0.0
 40
4.0
  1
141 [5.551]
1001
ACAD
1000
MTEXTBEGIN
1070
    73
1070
     1
1070
    44
1040
1.0
1070
    74
1070
     0
1000
MTEXTEND
  0
POINT
  5
16D
  8
DEFPOINTS
  6
CONTINUOUS
 62
     0
 10
554.5144344399004
 20
87.64437118231588
 30
0.0
  0
POINT
  5
16E
  8
DEFPOINTS
  6
CONTINUOUS
 62
     0
 10
695.5144344399005
 20
87.64437118231588
 30
0.0
  0
POINT
  5
16F
  8
DEFPOINTS
  6
CONTINUOUS
 62
     0
 10
695.5144344399005
 20
132.6960609301172
 30
0.0
  0
ENDBLK
  5
170
  8
0
 62
     7
  0
BLOCK
  8
0
  2
*D2121
 70
     1
 10
0.0
 20
0.0
 30
0.0
  3
*D2121
  1

  0
LINE
  5
158
  8
回07-寸法
  6
CONTINUOUS
 62
     5
 10
695.5144344399005
 20
87.64437118231588
 30
0.0
 11
695.5144344399005
 21
133.6960609301172
 31
0.0
  0
LINE
  5
159
  8
回07-寸法
  6
CONTINUOUS
 62
     5
 10
701.0144344399003
 20
92.84437118231588
 30
0.0
 11
701.0144344399003
 21
133.6960609301172
 31
0.0
  0
LINE
  5
15A
  8
回07-寸法
  6
CONTINUOUS
 62
     5
 10
693.5144344399003
 20
132.6960609301172
 30
0.0
 11
691.5144344399005
 21
132.6960609301172
 31
0.0
  0
LINE
  5
15B
  8
回07-寸法
  6
CONTINUOUS
 62
     5
 10
703.0144344399005
 20
132.6960609301172
 30
0.0
 11
728.8144344399003
 21
132.6960609301172
 31
0.0
  0
LINE
  5
15C
  8
回07-寸法
  6
CONTINUOUS
 62
     5
 10
695.5144344399005
 20
132.6960609301172
 30
0.0
 11
701.0144344399003
 21
132.6960609301172
 31
0.0
  0
INSERT
  5
15D
  8
回07-寸法
  6
CONTINUOUS
 62
     5
  2
_OPEN
 10
695.5144344399005
 20
132.6960609301172
 30
0.0
 41
2.0
 42
2.0
 43
2.0
  0
INSERT
  5
15E
  8
回07-寸法
  6
CONTINUOUS
 62
     5
  2
_OPEN
 10
701.0144344399003
 20
132.6960609301172
 30
0.0
 41
2.0
 42
2.0
 43
2.0
 50
180.0
  0
TEXT
  5
15F
  8
回07-寸法
  6
CONTINUOUS
 62
     5
 10
704.9144344399003
 20
133.3960609301172
 30
0.0
 40
4.0
  1
5.5 [0.217]
1001
ACAD
1000
MTEXTBEGIN
1070
    73
1070
     1
1070
    44
1040
1.0
1070
    74
1070
     0
1000
MTEXTEND
  0
POINT
  5
160
  8
DEFPOINTS
  6
CONTINUOUS
 62
     0
 10
695.5144344399005
 20
87.64437118231588
 30
0.0
  0
POINT
  5
161
  8
DEFPOINTS
  6
CONTINUOUS
 62
     0
 10
701.0144344399003
 20
92.84437118231588
 30
0.0
  0
POINT
  5
162
  8
DEFPOINTS
  6
CONTINUOUS
 62
     0
 10
701.0144344399003
 20
132.6960609301172
 30
0.0
  0
ENDBLK
  5
163
  8
0
 62
     7
  0
BLOCK
  8
0
  2
*D2222
 70
     1
 10
0.0
 20
0.0
 30
0.0
  3
*D2222
  1

  0
LINE
  5
149
  8
回07-寸法
  6
CONTINUOUS
 62
     5
 10
701.0144344399008
 20
92.8443711823157
 30
0.0
 11
754.7809724099506
 21
92.8443711823157
 31
0.0
  0
LINE
  5
14A
  8
回07-寸法
  6
CONTINUOUS
 62
     5
 10
695.5144344399006
 20
87.6443711823159
 30
0.0
 11
754.7809724099506
 21
87.6443711823159
 31
0.0
  0
LINE
  5
14B
  8
回07-寸法
  6
CONTINUOUS
 62
     5
 10
753.7809724099506
 20
85.64437118231593
 30
0.0
 11
753.7809724099506
 21
83.64437118231592
 31
0.0
  0
LINE
  5
14C
  8
回07-寸法
  6
CONTINUOUS
 62
     5
 10
753.7809724099506
 20
94.84437118231571
 30
0.0
 11
753.7809724099506
 21
124.3943711823157
 31
0.0
  0
LINE
  5
14D
  8
回07-寸法
  6
CONTINUOUS
 62
     5
 10
753.7809724099506
 20
87.64437118231592
 30
0.0
 11
753.7809724099506
 21
92.8443711823157
 31
0.0
  0
INSERT
  5
14E
  8
回07-寸法
  6
CONTINUOUS
 62
     5
  2
_OPEN
 10
753.7809724099506
 20
87.64437118231592
 30
0.0
 41
2.0
 42
2.0
 43
2.0
 50
90.0
  0
INSERT
  5
14F
  8
回07-寸法
  6
CONTINUOUS
 62
     5
  2
_OPEN
 10
753.7809724099506
 20
92.8443711823157
 30
0.0
 41
2.0
 42
2.0
 43
2.0
 50
270.0
  0
TEXT
  5
150
  8
回07-寸法
  6
CONTINUOUS
 62
     5
 10
753.0809724099505
 20
99.69437118231553
 30
0.0
 40
4.0
  1
5.2 [0.205]
 50
90.0
1001
ACAD
1000
MTEXTBEGIN
1070
    73
1070
     1
1070
    44
1040
1.0
1070
    74
1070
     0
1000
MTEXTEND
  0
POINT
  5
151
  8
DEFPOINTS
  6
CONTINUOUS
 62
     0
 10
701.0144344399008
 20
92.8443711823157
 30
0.0
  0
POINT
  5
152
  8
DEFPOINTS
  6
CONTINUOUS
 62
     0
 10
695.5144344399006
 20
87.6443711823159
 30
0.0
  0
POINT
  5
153
  8
DEFPOINTS
  6
CONTINUOUS
 62
     0
 10
753.7809724099506
 20
87.64437118231592
 30
0.0
  0
ENDBLK
  5
154
  8
0
 62
     7
  0
BLOCK
  8
0
  2
*D2323
 70
     1
 10
0.0
 20
0.0
 30
0.0
  3
*D2323
  1

  0
LINE
  5
13C
  8
回07-寸法
  6
CONTINUOUS
 62
     5
 10
695.5144344399006
 20
87.6443711823159
 30
0.0
 11
754.7809724099511
 21
87.6443711823159
 31
0.0
  0
LINE
  5
13D
  8
回07-寸法
  6
CONTINUOUS
 62
     5
 10
695.5144344399006
 20
-18.95562881768404
 30
0.0
 11
754.7809724099511
 21
-18.95562881768404
 31
0.0
  0
LINE
  5
13E
  8
回07-寸法
  6
CONTINUOUS
 62
     5
 10
753.7809724099511
 20
85.64437118231593
 30
0.0
 11
753.7809724099511
 21
-16.95562881768402
 31
0.0
  0
INSERT
  5
13F
  8
回07-寸法
  6
CONTINUOUS
 62
     5
  2
_OPEN
 10
753.7809724099511
 20
87.64437118231592
 30
0.0
 41
2.0
 42
2.0
 43
2.0
 50
90.0
  0
INSERT
  5
140
  8
回07-寸法
  6
CONTINUOUS
 62
     5
  2
_OPEN
 10
753.7809724099511
 20
-18.95562881768402
 30
0.0
 41
2.0
 42
2.0
 43
2.0
 50
270.0
  0
TEXT
  5
141
  8
回07-寸法
  6
CONTINUOUS
 62
     5
 10
753.0810522847541
 20
19.7371504452617
 30
0.0
 40
4.0
  1
106.6 [4.197]
 50
90.0
1001
ACAD
1000
MTEXTBEGIN
1070
    73
1070
     1
1070
    44
1040
1.0
1070
    74
1070
     0
1000
MTEXTEND
  0
POINT
  5
142
  8
DEFPOINTS
  6
CONTINUOUS
 62
     0
 10
695.5144344399006
 20
87.6443711823159
 30
0.0
  0
POINT
  5
143
  8
DEFPOINTS
  6
CONTINUOUS
 62
     0
 10
695.5144344399006
 20
-18.95562881768404
 30
0.0
  0
POINT
  5
144
  8
DEFPOINTS
  6
CONTINUOUS
 62
     0
 10
753.7809724099511
 20
-18.95562881768402
 30
0.0
  0
ENDBLK
  5
145
  8
0
 62
     7
  0
BLOCK
  8
0
  2
*D2424
 70
     1
 10
0.0
 20
0.0
 30
0.0
  3
*D2424
  1

  0
LINE
  5
12D
  8
回07-寸法
  6
CONTINUOUS
 62
     5
 10
695.5144344399006
 20
-18.95562881768404
 30
0.0
 11
754.7809724099511
 21
-18.95562881768404
 31
0.0
  0
LINE
  5
12E
  8
回07-寸法
  6
CONTINUOUS
 62
     5
 10
701.0144344399008
 20
-24.15562881768436
 30
0.0
 11
754.7809724099511
 21
-24.15562881768436
 31
0.0
  0
LINE
  5
12F
  8
回07-寸法
  6
CONTINUOUS
 62
     5
 10
753.7809724099511
 20
-16.95562881768402
 30
0.0
 11
753.7809724099511
 21
-14.95562881768402
 31
0.0
  0
LINE
  5
130
  8
回07-寸法
  6
CONTINUOUS
 62
     5
 10
753.7809724099511
 20
-26.15562881768435
 30
0.0
 11
753.7809724099511
 21
-52.75562881768435
 31
0.0
  0
LINE
  5
131
  8
回07-寸法
  6
CONTINUOUS
 62
     5
 10
753.7809724099511
 20
-18.95562881768402
 30
0.0
 11
753.7809724099511
 21
-24.15562881768436
 31
0.0
  0
INSERT
  5
132
  8
回07-寸法
  6
CONTINUOUS
 62
     5
  2
_OPEN
 10
753.7809724099511
 20
-18.95562881768402
 30
0.0
 41
2.0
 42
2.0
 43
2.0
 50
270.0
  0
INSERT
  5
133
  8
回07-寸法
  6
CONTINUOUS
 62
     5
  2
_OPEN
 10
753.7809724099511
 20
-24.15562881768436
 30
0.0
 41
2.0
 42
2.0
 43
2.0
 50
90.0
  0
TEXT
  5
134
  8
回07-寸法
  6
CONTINUOUS
 62
     5
 10
753.0809724099508
 20
-52.85562881768453
 30
0.0
 40
4.0
  1
5.2 [0.205]
 50
90.0
1001
ACAD
1000
MTEXTBEGIN
1070
    73
1070
     1
1070
    44
1040
1.0
1070
    74
1070
     0
1000
MTEXTEND
  0
POINT
  5
135
  8
DEFPOINTS
  6
CONTINUOUS
 62
     0
 10
695.5144344399006
 20
-18.95562881768404
 30
0.0
  0
POINT
  5
136
  8
DEFPOINTS
  6
CONTINUOUS
 62
     0
 10
701.0144344399008
 20
-24.15562881768436
 30
0.0
  0
POINT
  5
137
  8
DEFPOINTS
  6
CONTINUOUS
 62
     0
 10
753.7809724099511
 20
-24.15562881768436
 30
0.0
  0
ENDBLK
  5
138
  8
0
 62
     7
  0
BLOCK
  8
0
  2
*D2525
 70
     1
 10
0.0
 20
0.0
 30
0.0
  3
*D2525
  1

  0
LINE
  5
106
  8
回08-記事
  6
CONTINUOUS
 62
     5
 10
395.6895699557415
 20
49.67792257860375
 30
0.0
 11
365.2703698505141
 21
49.67792257860375
 31
0.0
  0
LINE
  5
107
  8
回08-記事
  6
CONTINUOUS
 62
     5
 10
395.6895699557415
 20
37.17792257860465
 30
0.0
 11
365.2703698505141
 21
37.17792257860465
 31
0.0
  0
LINE
  5
108
  8
回08-記事
  6
CONTINUOUS
 62
     5
 10
366.270369850514
 20
51.67792257860376
 30
0.0
 11
366.270369850514
 21
53.67792257860376
 31
0.0
  0
LINE
  5
109
  8
回08-記事
  6
CONTINUOUS
 62
     5
 10
366.270369850514
 20
35.17792257860465
 30
0.0
 11
366.270369850514
 21
-8.995607500135516
 31
0.0
  0
LINE
  5
10A
  8
回08-記事
  6
CONTINUOUS
 62
     5
 10
366.270369850514
 20
49.67792257860375
 30
0.0
 11
366.270369850514
 21
37.17792257860465
 31
0.0
  0
INSERT
  5
10B
  8
回08-記事
  6
CONTINUOUS
 62
     5
 66
     1
  2
_OPEN
 10
366.270369850514
 20
49.67792257860375
 30
0.0
 41
2.0
 42
2.0
 43
2.0
 50
270.0
  0
SEQEND
  5
10C
  8
回07-寸法
  6
CONTINUOUS
 62
     7
  0
INSERT
  5
10D
  8
回08-記事
  6
CONTINUOUS
 62
     5
 66
     1
  2
_OPEN
 10
366.270369850514
 20
37.17792257860465
 30
0.0
 41
2.0
 42
2.0
 43
2.0
 50
90.0
  0
SEQEND
  5
10E
  8
回07-寸法
  6
CONTINUOUS
 62
     7
  0
INSERT
  5
10F
  8
回08-記事
  6
CONTINUOUS
 62
     5
 66
     1
  2
*X5656
 10
0.0
 20
0.0
 30
0.0
  0
SEQEND
  5
459
  8
回07-寸法
  6
CONTINUOUS
 62
     7
  0
POINT
  5
110
  8
DEFPOINTS
  6
CONTINUOUS
 62
     0
 10
395.6895699557415
 20
49.67792257860375
 30
0.0
  0
POINT
  5
111
  8
DEFPOINTS
  6
CONTINUOUS
 62
     0
 10
395.6895699557415
 20
37.17792257860465
 30
0.0
  0
POINT
  5
112
  8
DEFPOINTS
  6
CONTINUOUS
 62
     0
 10
366.270369850514
 20
37.17792257860465
 30
0.0
  0
ENDBLK
  5
113
  8
0
 62
     7
  0
BLOCK
  8
0
  2
*D2626
 70
     1
 10
0.0
 20
0.0
 30
0.0
  3
*D2626
  1

  0
LINE
  5
EC
  8
回08-記事
  6
CONTINUOUS
 62
     5
 10
391.7900408659314
 20
42.17792257859907
 30
0.0
 11
378.7250571370364
 21
42.17792257859907
 31
0.0
  0
LINE
  5
ED
  8
回08-記事
  6
CONTINUOUS
 62
     5
 10
391.7900408659314
 20
39.67792257859907
 30
0.0
 11
378.7250571370364
 21
39.67792257859907
 31
0.0
  0
LINE
  5
EE
  8
回08-記事
  6
CONTINUOUS
 62
     5
 10
379.7250571370363
 20
44.17792257859908
 30
0.0
 11
379.7250571370363
 21
46.17792257859908
 31
0.0
  0
LINE
  5
EF
  8
回08-記事
  6
CONTINUOUS
 62
     5
 10
379.7250571370363
 20
37.67792257859908
 30
0.0
 11
379.7250571370363
 21
-7.536054743378032
 31
0.0
  0
LINE
  5
F0
  8
回08-記事
  6
CONTINUOUS
 62
     5
 10
379.7250571370363
 20
42.17792257859907
 30
0.0
 11
379.7250571370363
 21
39.67792257859907
 31
0.0
  0
INSERT
  5
F1
  8
回08-記事
  6
CONTINUOUS
 62
     5
 66
     1
  2
_OPEN
 10
379.7250571370363
 20
42.17792257859907
 30
0.0
 41
2.0
 42
2.0
 43
2.0
 50
270.0
  0
SEQEND
  5
F2
  8
回07-寸法
  6
CONTINUOUS
 62
     7
  0
INSERT
  5
F3
  8
回08-記事
  6
CONTINUOUS
 62
     5
 66
     1
  2
_OPEN
 10
379.7250571370363
 20
39.67792257859907
 30
0.0
 41
2.0
 42
2.0
 43
2.0
 50
90.0
  0
SEQEND
  5
F4
  8
回07-寸法
  6
CONTINUOUS
 62
     7
  0
INSERT
  5
F5
  8
回08-記事
  6
CONTINUOUS
 62
     5
 66
     1
  2
*X5757
 10
0.0
 20
0.0
 30
0.0
  0
SEQEND
  5
462
  8
回07-寸法
  6
CONTINUOUS
 62
     7
  0
POINT
  5
F6
  8
DEFPOINTS
  6
CONTINUOUS
 62
     0
 10
391.7900408659314
 20
42.17792257859907
 30
0.0
  0
POINT
  5
F7
  8
DEFPOINTS
  6
CONTINUOUS
 62
     0
 10
391.7900408659314
 20
39.67792257859907
 30
0.0
  0
POINT
  5
F8
  8
DEFPOINTS
  6
CONTINUOUS
 62
     0
 10
379.7250571370363
 20
39.67792257859907
 30
0.0
  0
ENDBLK
  5
F9
  8
0
 62
     7
  0
BLOCK
  8
0
  2
*D2727
 70
     1
 10
0.0
 20
0.0
 30
0.0
  3
*D2727
  1

  0
LINE
  5
DB
  8
回08-記事
  6
CONTINUOUS
 62
     5
 10
394.6894829342062
 20
40.37792257859911
 30
0.0
 11
385.4896947298898
 21
40.37792257859911
 31
0.0
  0
LINE
  5
DC
  8
回08-記事
  6
CONTINUOUS
 62
     5
 10
394.6894829342062
 20
38.97792257859915
 30
0.0
 11
385.4896947298898
 21
38.97792257859915
 31
0.0
  0
LINE
  5
DD
  8
回08-記事
  6
CONTINUOUS
 62
     5
 10
386.4896947298898
 20
42.37792257859911
 30
0.0
 11
386.4896947298898
 21
44.37792257859912
 31
0.0
  0
LINE
  5
DE
  8
回08-記事
  6
CONTINUOUS
 62
     5
 10
386.4896947298898
 20
36.97792257859915
 30
0.0
 11
386.4896947298898
 21
-17.52207742140087
 31
0.0
  0
LINE
  5
DF
  8
回08-記事
  6
CONTINUOUS
 62
     5
 10
386.4896947298898
 20
40.37792257859911
 30
0.0
 11
386.4896947298898
 21
38.97792257859915
 31
0.0
  0
INSERT
  5
E0
  8
回08-記事
  6
CONTINUOUS
 62
     5
 66
     1
  2
_OPEN
 10
386.4896947298898
 20
40.37792257859911
 30
0.0
 41
2.0
 42
2.0
 43
2.0
 50
270.0
  0
SEQEND
  5
E1
  8
回07-寸法
  6
CONTINUOUS
 62
     7
  0
INSERT
  5
E2
  8
回08-記事
  6
CONTINUOUS
 62
     5
 66
     1
  2
_OPEN
 10
386.4896947298898
 20
38.97792257859915
 30
0.0
 41
2.0
 42
2.0
 43
2.0
 50
90.0
  0
SEQEND
  5
E3
  8
回07-寸法
  6
CONTINUOUS
 62
     7
  0
INSERT
  5
E4
  8
回08-記事
  6
CONTINUOUS
 62
     5
 66
     1
  2
*X5858
 10
0.0
 20
0.0
 30
0.0
  0
SEQEND
  5
46B
  8
回07-寸法
  6
CONTINUOUS
 62
     7
  0
POINT
  5
E5
  8
DEFPOINTS
  6
CONTINUOUS
 62
     0
 10
394.6894829342062
 20
40.37792257859911
 30
0.0
  0
POINT
  5
E6
  8
DEFPOINTS
  6
CONTINUOUS
 62
     0
 10
394.6894829342062
 20
38.97792257859915
 30
0.0
  0
POINT
  5
E7
  8
DEFPOINTS
  6
CONTINUOUS
 62
     0
 10
386.4896947298898
 20
38.97792257859915
 30
0.0
  0
ENDBLK
  5
E8
  8
0
 62
     7
  0
BLOCK
  8
0
  2
*D2828
 70
     1
 10
0.0
 20
0.0
 30
0.0
  3
*D2828
  1

  0
LINE
  5
CA
  8
回08-記事
  6
CONTINUOUS
 62
     5
 10
391.7900408659314
 20
39.67792257859907
 30
0.0
 11
372.3103191108503
 21
39.67792257859907
 31
0.0
  0
LINE
  5
CB
  8
回08-記事
  6
CONTINUOUS
 62
     5
 10
391.789953844396
 20
47.17792257859907
 30
0.0
 11
372.3103191108503
 21
47.17792257859907
 31
0.0
  0
LINE
  5
CC
  8
回08-記事
  6
CONTINUOUS
 62
     5
 10
373.3103191108503
 20
49.17792257859908
 30
0.0
 11
373.3103191108503
 21
51.17792257859909
 31
0.0
  0
LINE
  5
CD
  8
回08-記事
  6
CONTINUOUS
 62
     5
 10
373.3103191108503
 20
37.67792257859908
 30
0.0
 11
373.3103191108503
 21
-7.222077421400936
 31
0.0
  0
LINE
  5
CE
  8
回08-記事
  6
CONTINUOUS
 62
     5
 10
373.3103191108503
 20
47.17792257859907
 30
0.0
 11
373.3103191108503
 21
39.67792257859907
 31
0.0
  0
INSERT
  5
CF
  8
回08-記事
  6
CONTINUOUS
 62
     5
 66
     1
  2
_OPEN
 10
373.3103191108503
 20
47.17792257859907
 30
0.0
 41
2.0
 42
2.0
 43
2.0
 50
270.0
  0
SEQEND
  5
D0
  8
回07-寸法
  6
CONTINUOUS
 62
     7
  0
INSERT
  5
D1
  8
回08-記事
  6
CONTINUOUS
 62
     5
 66
     1
  2
_OPEN
 10
373.3103191108503
 20
39.67792257859907
 30
0.0
 41
2.0
 42
2.0
 43
2.0
 50
90.0
  0
SEQEND
  5
D2
  8
回07-寸法
  6
CONTINUOUS
 62
     7
  0
INSERT
  5
D3
  8
回08-記事
  6
CONTINUOUS
 62
     5
 66
     1
  2
*X5959
 10
0.0
 20
0.0
 30
0.0
  0
SEQEND
  5
474
  8
回07-寸法
  6
CONTINUOUS
 62
     7
  0
POINT
  5
D4
  8
DEFPOINTS
  6
CONTINUOUS
 62
     0
 10
391.7900408659314
 20
39.67792257859907
 30
0.0
  0
POINT
  5
D5
  8
DEFPOINTS
  6
CONTINUOUS
 62
     0
 10
391.789953844396
 20
47.17792257859907
 30
0.0
  0
POINT
  5
D6
  8
DEFPOINTS
  6
CONTINUOUS
 62
     0
 10
373.3103191108503
 20
47.17792257859907
 30
0.0
  0
ENDBLK
  5
D7
  8
0
 62
     7
  0
BLOCK
  8
0
  2
*D2929
 70
     1
 10
0.0
 20
0.0
 30
0.0
  3
*D2929
  1

  0
LINE
  5
B3
  8
回07-寸法
  6
CONTINUOUS
 62
     5
 10
700.5144344399006
 20
-66.92234888348116
 30
0.0
 11
711.7493043367398
 21
-66.92234888348116
 31
0.0
  0
LINE
  5
B4
  8
回07-寸法
  6
CONTINUOUS
 62
     5
 10
701.012670017061
 20
-78.92234888348117
 30
0.0
 11
711.7493043367398
 21
-78.92234888348117
 31
0.0
  0
LINE
  5
B5
  8
回07-寸法
  6
CONTINUOUS
 62
     5
 10
710.7493043367398
 20
-64.92234888348116
 30
0.0
 11
710.7493043367398
 21
-62.92234888348115
 31
0.0
  0
LINE
  5
B6
  8
回07-寸法
  6
CONTINUOUS
 62
     5
 10
710.7493043367398
 20
-80.92234888348116
 30
0.0
 11
710.7493043367398
 21
-123.6565088834812
 31
0.0
  0
LINE
  5
B7
  8
回07-寸法
  6
CONTINUOUS
 62
     5
 10
710.7493043367398
 20
-66.92234888348116
 30
0.0
 11
710.7493043367398
 21
-78.92234888348117
 31
0.0
  0
INSERT
  5
B8
  8
回07-寸法
  6
CONTINUOUS
 62
     5
  2
_OPEN
 10
710.7493043367398
 20
-66.92234888348116
 30
0.0
 41
2.0
 42
2.0
 43
2.0
 50
270.0
  0
INSERT
  5
B9
  8
回07-寸法
  6
CONTINUOUS
 62
     5
  2
_OPEN
 10
710.7493043367398
 20
-78.92234888348117
 30
0.0
 41
2.0
 42
2.0
 43
2.0
 50
90.0
  0
INSERT
  5
BA
  8
回07-寸法
  6
CONTINUOUS
 62
     5
 66
     1
  2
*X6060
 10
0.0
 20
0.0
 30
0.0
  0
SEQEND
  5
47D
  8
回07-寸法
  6
CONTINUOUS
 62
     7
  0
POINT
  5
BB
  8
DEFPOINTS
  6
CONTINUOUS
 62
     0
 10
700.5144344399006
 20
-66.92234888348116
 30
0.0
  0
POINT
  5
BC
  8
DEFPOINTS
  6
CONTINUOUS
 62
     0
 10
701.012670017061
 20
-78.92234888348117
 30
0.0
  0
POINT
  5
BD
  8
DEFPOINTS
  6
CONTINUOUS
 62
     0
 10
710.7493043367398
 20
-78.92234888348117
 30
0.0
  0
ENDBLK
  5
BE
  8
0
 62
     7
  0
BLOCK
  8
0
  2
*D3030
 70
     1
 10
0.0
 20
0.0
 30
0.0
  3
*D3030
  1

  0
LINE
  5
A4
  8
回07-寸法
  6
CONTINUOUS
 62
     5
 10
466.012670017061
 20
-70.92234888348116
 30
0.0
 11
452.9876889464499
 21
-70.92234888348116
 31
0.0
  0
LINE
  5
A5
  8
回07-寸法
  6
CONTINUOUS
 62
     5
 10
466.012670017061
 20
-75.92234888348116
 30
0.0
 11
452.9876889464499
 21
-75.92234888348116
 31
0.0
  0
LINE
  5
A6
  8
回07-寸法
  6
CONTINUOUS
 62
     5
 10
453.9876889464498
 20
-68.92234888348117
 30
0.0
 11
453.9876889464498
 21
-66.92234888348116
 31
0.0
  0
LINE
  5
A7
  8
回07-寸法
  6
CONTINUOUS
 62
     5
 10
453.9876889464498
 20
-77.92234888348116
 30
0.0
 11
453.9876889464498
 21
-122.1264184897804
 31
0.0
  0
LINE
  5
A8
  8
回07-寸法
  6
CONTINUOUS
 62
     5
 10
453.9876889464498
 20
-70.92234888348116
 30
0.0
 11
453.9876889464498
 21
-75.92234888348116
 31
0.0
  0
INSERT
  5
A9
  8
回07-寸法
  6
CONTINUOUS
 62
     5
  2
_OPEN
 10
453.9876889464498
 20
-70.92234888348116
 30
0.0
 41
2.0
 42
2.0
 43
2.0
 50
270.0
  0
INSERT
  5
AA
  8
回07-寸法
  6
CONTINUOUS
 62
     5
  2
_OPEN
 10
453.9876889464498
 20
-75.92234888348116
 30
0.0
 41
2.0
 42
2.0
 43
2.0
 50
90.0
  0
INSERT
  5
AB
  8
回07-寸法
  6
CONTINUOUS
 62
     5
 66
     1
  2
*X6161
 10
0.0
 20
0.0
 30
0.0
  0
SEQEND
  5
486
  8
回07-寸法
  6
CONTINUOUS
 62
     7
  0
POINT
  5
AC
  8
DEFPOINTS
  6
CONTINUOUS
 62
     0
 10
466.012670017061
 20
-70.92234888348116
 30
0.0
  0
POINT
  5
AD
  8
DEFPOINTS
  6
CONTINUOUS
 62
     0
 10
466.012670017061
 20
-75.92234888348116
 30
0.0
  0
POINT
  5
AE
  8
DEFPOINTS
  6
CONTINUOUS
 62
     0
 10
453.9876889464498
 20
-75.92234888348116
 30
0.0
  0
ENDBLK
  5
AF
  8
0
 62
     7
  0
BLOCK
  8
0
  2
*D3131
 70
     1
 10
0.0
 20
0.0
 30
0.0
  3
*D3131
  1

  0
LINE
  5
95
  8
回07-寸法
  6
CONTINUOUS
 62
     5
 10
555.5144344399003
 20
86.34437118231565
 30
0.0
 11
555.5144344399003
 21
121.7778870161046
 31
0.0
  0
LINE
  5
96
  8
回07-寸法
  6
CONTINUOUS
 62
     5
 10
546.0144344399004
 20
92.84437118231588
 30
0.0
 11
546.0144344399004
 21
121.7778870161046
 31
0.0
  0
LINE
  5
97
  8
回07-寸法
  6
CONTINUOUS
 62
     5
 10
557.5144344399005
 20
120.7778870161046
 30
0.0
 11
559.5144344399003
 21
120.7778870161046
 31
0.0
  0
LINE
  5
98
  8
回07-寸法
  6
CONTINUOUS
 62
     5
 10
544.0144344399003
 20
120.7778870161046
 30
0.0
 11
516.8487490149511
 21
120.7778870161046
 31
0.0
  0
LINE
  5
99
  8
回07-寸法
  6
CONTINUOUS
 62
     5
 10
555.5144344399003
 20
120.7778870161046
 30
0.0
 11
546.0144344399004
 21
120.7778870161046
 31
0.0
  0
INSERT
  5
9A
  8
回07-寸法
  6
CONTINUOUS
 62
     5
  2
_OPEN
 10
555.5144344399003
 20
120.7778870161046
 30
0.0
 41
2.0
 42
2.0
 43
2.0
 50
180.0
  0
INSERT
  5
9B
  8
回07-寸法
  6
CONTINUOUS
 62
     5
  2
_OPEN
 10
546.0144344399004
 20
120.7778870161046
 30
0.0
 41
2.0
 42
2.0
 43
2.0
  0
TEXT
  5
9C
  8
回07-寸法
  6
CONTINUOUS
 62
     5
 10
516.8171502533177
 20
121.4778870161046
 30
0.0
 40
4.0
  1
9.5 [0.374]
1001
ACAD
1000
MTEXTBEGIN
1070
    73
1070
     1
1070
    44
1040
1.0
1070
    74
1070
     0
1000
MTEXTEND
  0
POINT
  5
9D
  8
DEFPOINTS
  6
CONTINUOUS
 62
     0
 10
555.5144344399003
 20
86.34437118231565
 30
0.0
  0
POINT
  5
9E
  8
DEFPOINTS
  6
CONTINUOUS
 62
     0
 10
546.0144344399004
 20
92.84437118231588
 30
0.0
  0
POINT
  5
9F
  8
DEFPOINTS
  6
CONTINUOUS
 62
     0
 10
546.0144344399004
 20
120.7778870161046
 30
0.0
  0
ENDBLK
  5
A0
  8
0
 62
     7
  0
BLOCK
  8
0
  2
*D3232
 70
     1
 10
0.0
 20
0.0
 30
0.0
  3
*D3232
  1

  0
LINE
  5
86
  8
回07-寸法
  6
CONTINUOUS
 62
     5
 10
558.5144344399004
 20
84.34437118231565
 30
0.0
 11
558.5144344399004
 21
114.1672515595724
 31
0.0
  0
LINE
  5
87
  8
回07-寸法
  6
CONTINUOUS
 62
     5
 10
546.0144344399004
 20
92.84437118231588
 30
0.0
 11
546.0144344399004
 21
114.1672515595724
 31
0.0
  0
LINE
  5
88
  8
回07-寸法
  6
CONTINUOUS
 62
     5
 10
560.5144344399003
 20
113.1672515595724
 30
0.0
 11
562.5144344399005
 21
113.1672515595724
 31
0.0
  0
LINE
  5
89
  8
回07-寸法
  6
CONTINUOUS
 62
     5
 10
544.0144344399003
 20
113.1672515595724
 30
0.0
 11
515.0004571179232
 21
113.1672515595724
 31
0.0
  0
LINE
  5
8A
  8
回07-寸法
  6
CONTINUOUS
 62
     5
 10
558.5144344399004
 20
113.1672515595724
 30
0.0
 11
546.0144344399004
 21
113.1672515595724
 31
0.0
  0
INSERT
  5
8B
  8
回07-寸法
  6
CONTINUOUS
 62
     5
  2
_OPEN
 10
558.5144344399004
 20
113.1672515595724
 30
0.0
 41
2.0
 42
2.0
 43
2.0
 50
180.0
  0
INSERT
  5
8C
  8
回07-寸法
  6
CONTINUOUS
 62
     5
  2
_OPEN
 10
546.0144344399004
 20
113.1672515595724
 30
0.0
 41
2.0
 42
2.0
 43
2.0
  0
TEXT
  5
8D
  8
回07-寸法
  6
CONTINUOUS
 62
     5
 10
514.9002250418578
 20
113.8671716847693
 30
0.0
 40
4.0
  1
12.5 [0.492]
1001
ACAD
1000
MTEXTBEGIN
1070
    73
1070
     1
1070
    44
1040
1.0
1070
    74
1070
     0
1000
MTEXTEND
  0
POINT
  5
8E
  8
DEFPOINTS
  6
CONTINUOUS
 62
     0
 10
558.5144344399004
 20
84.34437118231565
 30
0.0
  0
POINT
  5
8F
  8
DEFPOINTS
  6
CONTINUOUS
 62
     0
 10
546.0144344399004
 20
92.84437118231588
 30
0.0
  0
POINT
  5
90
  8
DEFPOINTS
  6
CONTINUOUS
 62
     0
 10
546.0144344399004
 20
113.1672515595724
 30
0.0
  0
ENDBLK
  5
91
  8
0
 62
     7
  0
BLOCK
  8
0
  2
*D3333
 70
     1
 10
0.0
 20
0.0
 30
0.0
  3
*D3333
  1

  0
LINE
  5
77
  8
回07-寸法
  6
CONTINUOUS
 62
     5
 10
691.5144344399006
 20
-15.65562881768423
 30
0.0
 11
737.5419313806637
 21
-15.65562881768423
 31
0.0
  0
LINE
  5
78
  8
回07-寸法
  6
CONTINUOUS
 62
     5
 10
701.0144344399008
 20
-24.15562881768436
 30
0.0
 11
737.5419313806637
 21
-24.15562881768436
 31
0.0
  0
LINE
  5
79
  8
回07-寸法
  6
CONTINUOUS
 62
     5
 10
736.5419313806637
 20
-13.65562881768423
 30
0.0
 11
736.5419313806637
 21
-11.65562881768423
 31
0.0
  0
LINE
  5
7A
  8
回07-寸法
  6
CONTINUOUS
 62
     5
 10
736.5419313806637
 20
-26.15562881768436
 30
0.0
 11
736.5419313806637
 21
-52.75562881768435
 31
0.0
  0
LINE
  5
7B
  8
回07-寸法
  6
CONTINUOUS
 62
     5
 10
736.5419313806637
 20
-15.65562881768423
 30
0.0
 11
736.5419313806637
 21
-24.15562881768436
 31
0.0
  0
INSERT
  5
7C
  8
回07-寸法
  6
CONTINUOUS
 62
     5
  2
_OPEN
 10
736.5419313806637
 20
-15.65562881768423
 30
0.0
 41
2.0
 42
2.0
 43
2.0
 50
270.0
  0
INSERT
  5
7D
  8
回07-寸法
  6
CONTINUOUS
 62
     5
  2
_OPEN
 10
736.5419313806637
 20
-24.15562881768436
 30
0.0
 41
2.0
 42
2.0
 43
2.0
 50
90.0
  0
TEXT
  5
7E
  8
回07-寸法
  6
CONTINUOUS
 62
     5
 10
735.8419313806636
 20
-52.85562881768453
 30
0.0
 40
4.0
  1
8.5 [0.335]
 50
90.0
1001
ACAD
1000
MTEXTBEGIN
1070
    73
1070
     1
1070
    44
1040
1.0
1070
    74
1070
     0
1000
MTEXTEND
  0
POINT
  5
7F
  8
DEFPOINTS
  6
CONTINUOUS
 62
     0
 10
691.5144344399006
 20
-15.65562881768423
 30
0.0
  0
POINT
  5
80
  8
DEFPOINTS
  6
CONTINUOUS
 62
     0
 10
701.0144344399008
 20
-24.15562881768436
 30
0.0
  0
POINT
  5
81
  8
DEFPOINTS
  6
CONTINUOUS
 62
     0
 10
736.5419313806637
 20
-24.15562881768436
 30
0.0
  0
ENDBLK
  5
82
  8
0
 62
     7
  0
BLOCK
  8
0
  2
*D3434
 70
     1
 10
0.0
 20
0.0
 30
0.0
  3
*D3434
  1

  0
LINE
  5
67
  8
回07-寸法
  6
CONTINUOUS
 62
     5
 10
694.5144344399007
 20
-17.65562881768424
 30
0.0
 11
746.550050140831
 21
-17.65562881768424
 31
0.0
  0
LINE
  5
68
  8
回07-寸法
  6
CONTINUOUS
 62
     5
 10
701.0144344399008
 20
-24.15562881768436
 30
0.0
 11
746.550050140831
 21
-24.15562881768436
 31
0.0
  0
LINE
  5
69
  8
回07-寸法
  6
CONTINUOUS
 62
     5
 10
745.550050140831
 20
-15.65562881768423
 30
0.0
 11
745.550050140831
 21
-13.65562881768423
 31
0.0
  0
LINE
  5
6A
  8
回07-寸法
  6
CONTINUOUS
 62
     5
 10
745.550050140831
 20
-26.15562881768435
 30
0.0
 11
745.550050140831
 21
-52.99499889642452
 31
0.0
  0
LINE
  5
6B
  8
回07-寸法
  6
CONTINUOUS
 62
     5
 10
745.550050140831
 20
-17.65562881768422
 30
0.0
 11
745.550050140831
 21
-24.15562881768436
 31
0.0
  0
INSERT
  5
6C
  8
回07-寸法
  6
CONTINUOUS
 62
     5
  2
_OPEN
 10
745.550050140831
 20
-17.65562881768422
 30
0.0
 41
2.0
 42
2.0
 43
2.0
 50
270.0
  0
INSERT
  5
6D
  8
回07-寸法
  6
CONTINUOUS
 62
     5
  2
_OPEN
 10
745.550050140831
 20
-24.15562881768436
 30
0.0
 41
2.0
 42
2.0
 43
2.0
 50
90.0
  0
TEXT
  5
6E
  8
回07-寸法
  6
CONTINUOUS
 62
     5
 10
744.8500501408306
 20
-52.97531385705464
 30
0.0
 40
4.0
  1
6.5 [0.256]
 50
90.0
1001
ACAD
1000
MTEXTBEGIN
1070
    73
1070
     1
1070
    44
1040
1.0
1070
    74
1070
     0
1000
MTEXTEND
  0
POINT
  5
6F
  8
DEFPOINTS
  6
CONTINUOUS
 62
     0
 10
694.5144344399007
 20
-17.65562881768424
 30
0.0
  0
POINT
  5
71
  8
DEFPOINTS
  6
CONTINUOUS
 62
     0
 10
701.0144344399008
 20
-24.15562881768436
 30
0.0
  0
POINT
  5
72
  8
DEFPOINTS
  6
CONTINUOUS
 62
     0
 10
745.550050140831
 20
-24.15562881768436
 30
0.0
  0
ENDBLK
  5
73
  8
0
 62
     7
  0
BLOCK
  8
回07-寸法
  2
*X3535
 70
     1
 10
0.0
 20
0.0
 30
0.0
  3
*X3535
  1

  0
INSERT
  5
384
  8
回07-寸法
  6
CONTINUOUS
 62
     5
  2
_OPEN
 10
394.9162025852152
 20
49.31188070829852
 30
0.0
 41
2.0
 42
2.0
 43
2.0
 50
305.499207267569
  0
LINE
  5
385
  8
回07-寸法
  6
CONTINUOUS
 62
     5
 10
393.7548192017688
 20
50.94012781382478
 30
0.0
 11
390.2456821420092
 21
55.85990051066938
 31
0.0
  0
LINE
  5
386
  8
回07-寸法
  6
CONTINUOUS
 62
     5
 10
390.2456821420092
 20
55.85990051066938
 30
0.0
 11
362.8456821420092
 21
55.85990051066938
 31
0.0
  0
ENDBLK
  5
388
  8
回07-寸法
  6
CONTINUOUS
 62
     7
  0
BLOCK
  8
回07-寸法
  2
*X3636
 70
     1
 10
0.0
 20
0.0
 30
0.0
  3
*X3636
  1

  0
INSERT
  5
39C
  8
回08-記事
  6
CONTINUOUS
 62
     5
  2
_OPEN
 10
468.3675837297736
 20
-70.80384081623967
 30
0.0
 41
2.0
 42
2.0
 43
2.0
 50
315.3577688584649
  0
LINE
  5
39D
  8
回08-記事
  6
CONTINUOUS
 62
     5
 10
466.94456709989
 20
-69.39848546221904
 30
0.0
 11
461.0330421004318
 21
-63.56032929879162
 31
0.0
  0
LINE
  5
39E
  8
回08-記事
  6
CONTINUOUS
 62
     5
 10
461.0330421004318
 20
-63.56032929879162
 30
0.0
 11
431.8330421004318
 21
-63.56032929879162
 31
0.0
  0
ENDBLK
  5
3A0
  8
回07-寸法
  6
CONTINUOUS
 62
     7
  0
BLOCK
  8
回07-寸法
  2
*X3737
 70
     1
 10
0.0
 20
0.0
 30
0.0
  3
*X3737
  1

  0
INSERT
  5
3A3
  8
回08-記事
  6
CONTINUOUS
 62
     5
  2
_OPEN
 10
507.1909865488597
 20
64.56684745562191
 30
0.0
 41
2.0
 42
2.0
 43
2.0
 50
290.7474840590964
  0
LINE
  5
3A4
  8
回08-記事
  6
CONTINUOUS
 62
     5
 10
506.4824865998381
 20
66.437148988059
 30
0.0
 11
504.0589121264129
 21
72.8349124005795
 31
0.0
  0
LINE
  5
3A5
  8
回08-記事
  6
CONTINUOUS
 62
     5
 10
504.0589121264129
 20
72.8349124005795
 30
0.0
 11
482.3589121264128
 21
72.8349124005795
 31
0.0
  0
ENDBLK
  5
3A7
  8
回07-寸法
  6
CONTINUOUS
 62
     7
  0
BLOCK
  8
回07-寸法
  2
*X3838
 70
     1
 10
0.0
 20
0.0
 30
0.0
  3
*X3838
  1

  0
INSERT
  5
3AA
  8
回07-寸法
  6
CONTINUOUS
 62
     5
  2
_OPEN
 10
543.4588870265197
 20
61.31121974403734
 30
0.0
 41
2.0
 42
2.0
 43
2.0
 50
289.6570430949797
  0
LINE
  5
3AB
  8
回07-寸法
  6
CONTINUOUS
 62
     5
 10
542.7861084142031
 20
63.19466577161801
 30
0.0
 11
538.1377275707457
 21
76.20782385068676
 31
0.0
  0
LINE
  5
3AC
  8
回07-寸法
  6
CONTINUOUS
 62
     5
 10
538.1377275707457
 20
76.20782385068676
 30
0.0
 11
503.2377275707457
 21
76.20782385068676
 31
0.0
  0
ENDBLK
  5
3AE
  8
回07-寸法
  6
CONTINUOUS
 62
     7
  0
BLOCK
  8
回07-寸法
  2
*X3939
 70
     1
 10
0.0
 20
0.0
 30
0.0
  3
*X3939
  1

  0
INSERT
  5
3B1
  8
回07-寸法
  6
CONTINUOUS
 62
     5
  2
_OPEN
 10
541.6149708562335
 20
71.5931681480444
 30
0.0
 41
2.0
 42
2.0
 43
2.0
 50
286.3746125913481
  0
LINE
  5
3B2
  8
回07-寸法
  6
CONTINUOUS
 62
     5
 10
541.0511381302348
 20
73.51204611630942
 30
0.0
 11
538.9493078418443
 21
80.66515314159008
 31
0.0
  0
LINE
  5
3B3
  8
回07-寸法
  6
CONTINUOUS
 62
     5
 10
538.9493078418443
 20
80.66515314159008
 30
0.0
 11
514.8384767362633
 21
80.66515314159008
 31
0.0
  0
ENDBLK
  5
3B5
  8
回07-寸法
  6
CONTINUOUS
 62
     7
  0
BLOCK
  8
回07-寸法
  2
*X4040
 70
     1
 10
0.0
 20
0.0
 30
0.0
  3
*X4040
  1

  0
INSERT
  5
3B8
  8
回07-寸法
  6
CONTINUOUS
 62
     5
  2
_OPEN
 10
545.6798505116246
 20
72.46657096421532
 30
0.0
 41
1.999999999999999
 42
1.999999999999999
 43
2.0
 50
286.3536283068457
  0
LINE
  5
3B9
  8
回07-寸法
  6
CONTINUOUS
 62
     5
 10
545.1167206026099
 20
74.38565530461648
 30
0.0
 11
542.092798018839
 21
84.69084844779766
 31
0.0
  0
LINE
  5
3BA
  8
回07-寸法
  6
CONTINUOUS
 62
     5
 10
542.092798018839
 20
84.69084844779766
 30
0.0
 11
517.6819669132582
 21
84.69084844779766
 31
0.0
  0
ENDBLK
  5
3BC
  8
回07-寸法
  6
CONTINUOUS
 62
     7
  0
BLOCK
  8
回07-寸法
  2
*X4141
 70
     1
 10
0.0
 20
0.0
 30
0.0
  3
*X4141
  1

  0
INSERT
  5
3C9
  8
回08-記事
  6
CONTINUOUS
 62
     5
  2
_OPEN
 10
468.8343720348548
 20
57.93094301841474
 30
0.0
 41
2.0
 42
2.0
 43
2.0
 50
104.3969594743261
  0
LINE
  5
3CA
  8
回08-記事
  6
CONTINUOUS
 62
     5
 10
469.3316490085226
 20
55.99375030434114
 30
0.0
 11
470.3692013692561
 21
51.95186021066084
 31
0.0
  0
LINE
  5
3CB
  8
回08-記事
  6
CONTINUOUS
 62
     5
 10
470.3692013692561
 20
51.95186021066084
 30
0.0
 11
475.2692013692563
 21
51.95186021066084
 31
0.0
  0
ENDBLK
  5
3CD
  8
回07-寸法
  6
CONTINUOUS
 62
     7
  0
BLOCK
  8
回07-寸法
  2
*X4242
 70
     1
 10
0.0
 20
0.0
 30
0.0
  3
*X4242
  1

  0
LINE
  5
3D5
  8
回08-記事
  6
CONTINUOUS
 62
     8
 10
494.4067836076558
 20
61.09437118231582
 30
0.0
 11
492.5347898848762
 21
62.96636490509555
 31
0.0
  0
LINE
  5
3D6
  8
回08-記事
  6
CONTINUOUS
 62
     8
 10
497.0584340371054
 20
61.09437118231582
 30
0.0
 11
492.630825751631
 21
65.52197946779021
 31
0.0
  0
LINE
  5
3D7
  8
回08-記事
  6
CONTINUOUS
 62
     8
 10
499.710084466555
 20
61.09437118231582
 30
0.0
 11
494.710084466555
 21
66.09437118231581
 31
0.0
  0
LINE
  5
3D8
  8
回08-記事
  6
CONTINUOUS
 62
     8
 10
502.3617348960044
 20
61.09437118231582
 30
0.0
 11
497.3617348960044
 21
66.09437118231581
 31
0.0
  0
LINE
  5
3D9
  8
回08-記事
  6
CONTINUOUS
 62
     8
 10
505.0133853254542
 20
61.09437118231575
 30
0.0
 11
500.0133853254541
 21
66.09437118231577
 31
0.0
  0
LINE
  5
3DA
  8
回08-記事
  6
CONTINUOUS
 62
     8
 10
507.6650357549037
 20
61.09437118231575
 30
0.0
 11
502.6650357549037
 21
66.09437118231571
 31
0.0
  0
LINE
  5
3DB
  8
回08-記事
  6
CONTINUOUS
 62
     8
 10
510.3166861843531
 20
61.09437118231575
 30
0.0
 11
505.3166861843533
 21
66.09437118231571
 31
0.0
  0
LINE
  5
3DC
  8
回08-記事
  6
CONTINUOUS
 62
     8
 10
512.9683366138029
 20
61.09437118231571
 30
0.0
 11
507.9683366138028
 21
66.09437118231571
 31
0.0
  0
LINE
  5
3DD
  8
回08-記事
  6
CONTINUOUS
 62
     8
 10
515.6199870432524
 20
61.09437118231571
 30
0.0
 11
510.6199870432523
 21
66.09437118231578
 31
0.0
  0
LINE
  5
3DE
  8
回08-記事
  6
CONTINUOUS
 62
     8
 10
518.097970975974
 20
61.26803767904369
 30
0.0
 11
513.2716374727017
 21
66.09437118231578
 31
0.0
  0
LINE
  5
3DF
  8
回08-記事
  6
CONTINUOUS
 62
     8
 10
518.534789884876
 20
63.48286919959104
 30
0.0
 11
515.9232879021515
 21
66.09437118231574
 31
0.0
  0
ENDBLK
  5
3E1
  8
回07-寸法
  6
CONTINUOUS
 62
     7
  0
BLOCK
  8
回07-寸法
  2
*X4343
 70
     1
 10
0.0
 20
0.0
 30
0.0
  3
*X4343
  1

  0
LINE
  5
3ED
  8
回08-記事
  6
CONTINUOUS
 62
     8
 10
541.8230391477845
 20
62.35827838511915
 30
0.0
 11
542.0591319449811
 21
62.59437118231577
 31
0.0
  0
LINE
  5
3EE
  8
回08-記事
  6
CONTINUOUS
 62
     8
 10
541.8230391477845
 20
60.11321435485189
 30
0.0
 11
544.3041959752483
 21
62.59437118231579
 31
0.0
  0
LINE
  5
3EF
  8
回08-記事
  6
CONTINUOUS
 62
     8
 10
541.8230391477845
 20
57.86815032458457
 30
0.0
 11
546.5492600055156
 21
62.59437118231577
 31
0.0
  0
LINE
  5
3F0
  8
回08-記事
  6
CONTINUOUS
 62
     8
 10
542.3943240357828
 20
56.19437118231564
 30
0.0
 11
548.7943240357829
 21
62.5943711823158
 31
0.0
  0
LINE
  5
3F1
  8
回08-記事
  6
CONTINUOUS
 62
     8
 10
544.63938806605
 20
56.19437118231572
 30
0.0
 11
549.5145221521847
 21
61.0695052684503
 31
0.0
  0
LINE
  5
3F2
  8
回08-記事
  6
CONTINUOUS
 62
     8
 10
546.8844520963171
 20
56.1943711823157
 30
0.0
 11
549.5145221521847
 21
58.82444123818307
 31
0.0
  0
LINE
  5
3F3
  8
回08-記事
  6
CONTINUOUS
 62
     8
 10
549.1295161265846
 20
56.19437118231568
 30
0.0
 11
549.5145221521847
 21
56.57937720791576
 31
0.0
  0
ENDBLK
  5
3F5
  8
回07-寸法
  6
CONTINUOUS
 62
     7
  0
BLOCK
  8
回07-寸法
  2
*X4444
 70
     1
 10
0.0
 20
0.0
 30
0.0
  3
*X4444
  1

  0
INSERT
  5
3FD
  8
回08-記事
  6
CONTINUOUS
 62
     5
  2
_OPEN
 10
509.4431725452864
 20
-73.59571478878248
 30
0.0
 41
2.0
 42
2.0
 43
2.0
 50
113.3684146913848
  0
LINE
  5
3FE
  8
回08-記事
  6
CONTINUOUS
 62
     5
 10
510.2364563490795
 20
-75.43166163077964
 30
0.0
 11
513.0852603249723
 21
-82.02482871423669
 31
0.0
  0
LINE
  5
3FF
  8
回08-記事
  6
CONTINUOUS
 62
     5
 10
513.0852603249723
 20
-82.02482871423669
 30
0.0
 11
534.7852603249723
 21
-82.02482871423669
 31
0.0
  0
ENDBLK
  5
401
  8
回07-寸法
  6
CONTINUOUS
 62
     7
  0
BLOCK
  8
回07-寸法
  2
*X4545
 70
     1
 10
0.0
 20
0.0
 30
0.0
  3
*X4545
  1

  0
INSERT
  5
404
  8
回07-寸法
  6
CONTINUOUS
 62
     5
  2
_OPEN
 10
698.5239625215154
 20
-17.97651701110587
 30
0.0
 41
2.0
 42
2.0
 43
2.0
 50
88.27659557390312
  0
LINE
  5
405
  8
回07-寸法
  6
CONTINUOUS
 62
     5
 10
698.4638134293085
 20
-19.97561232816974
 30
0.0
 11
697.5924284612164
 21
-48.93667466777856
 31
0.0
  0
LINE
  5
406
  8
回07-寸法
  6
CONTINUOUS
 62
     5
 10
697.5924284612164
 20
-48.93667466777856
 30
0.0
 11
673.0924284612163
 21
-48.93667466777856
 31
0.0
  0
ENDBLK
  5
408
  8
回07-寸法
  6
CONTINUOUS
 62
     7
  0
BLOCK
  8
回07-寸法
  2
*X4646
 70
     1
 10
0.0
 20
0.0
 30
0.0
  3
*X4646
  1

  0
INSERT
  5
40B
  8
回08-記事
  6
CONTINUOUS
 62
     5
  2
_OPEN
 10
692.1458210263509
 20
-23.36541210310767
 30
0.0
 41
2.0
 42
2.0
 43
2.0
 50
75.15346161851955
  0
LINE
  5
40C
  8
回08-記事
  6
CONTINUOUS
 62
     5
 10
691.6333590784821
 20
-25.29864327189911
 30
0.0
 11
690.1767369906638
 21
-30.79366047860637
 31
0.0
  0
LINE
  5
40D
  8
回08-記事
  6
CONTINUOUS
 62
     5
 10
690.1767369906638
 20
-30.79366047860637
 30
0.0
 11
667.2767369906637
 21
-30.79366047860637
 31
0.0
  0
ENDBLK
  5
40F
  8
回07-寸法
  6
CONTINUOUS
 62
     7
  0
BLOCK
  8
回07-寸法
  2
*X4747
 70
     1
 10
0.0
 20
0.0
 30
0.0
  3
*X4747
  1

  0
TEXT
  5
412
  8
回07-寸法
  6
CONTINUOUS
 62
     5
 10
761.5296195284908
 20
13.01316291332932
 30
0.0
 40
4.0
  1
117
 50
90.0
  0
TEXT
  5
413
  8
回07-寸法
  6
CONTINUOUS
 62
     5
 10
761.5296195284908
 20
19.81316291332928
 30
0.0
 40
2.799999999999998
  1
±0.3
 50
90.0
  0
TEXT
  5
414
  8
回07-寸法
  6
CONTINUOUS
 62
     5
 10
761.5296195284908
 20
26.53316291332931
 30
0.0
 40
4.0
  1
 [4.606
 50
90.0
  0
TEXT
  5
415
  8
回07-寸法
  6
CONTINUOUS
 62
     5
 10
761.5296195284908
 20
43.33316291332926
 30
0.0
 40
2.799999999999998
  1
±0.012
 50
90.0
  0
TEXT
  5
416
  8
回07-寸法
  6
CONTINUOUS
 62
     5
 10
761.5296195284908
 20
53.4131629133293
 30
0.0
 40
4.0
  1
]
 50
90.0
  0
ENDBLK
  5
418
  8
回07-寸法
  6
CONTINUOUS
 62
     7
  0
BLOCK
  8
回07-寸法
  2
*X4848
 70
     1
 10
0.0
 20
0.0
 30
0.0
  3
*X4848
  1

  0
TEXT
  5
41B
  8
回07-寸法
  6
CONTINUOUS
 62
     5
 10
744.8501300156335
 20
5.262740996442856
 30
0.0
 40
4.0
  1
104 [4.094] 
 50
90.0
  0
TEXT
  5
41C
  8
回07-寸法
  6
CONTINUOUS
 62
     5
 10
744.8501300156335
 20
34.47718247055082
 30
0.0
 40
3.0
  1
(VIEWING AREA)
 50
90.0
  0
ENDBLK
  5
41E
  8
回07-寸法
  6
CONTINUOUS
 62
     7
  0
BLOCK
  8
回07-寸法
  2
*X4949
 70
     1
 10
0.0
 20
0.0
 30
0.0
  3
*X4949
  1

  0
TEXT
  5
421
  8
回07-寸法
  6
CONTINUOUS
 62
     5
 10
735.8420112554663
 20
6.762740996442857
 30
0.0
 40
4.0
  1
100 [3.937] 
 50
90.0
  0
TEXT
  5
422
  8
回07-寸法
  6
CONTINUOUS
 62
     5
 10
735.8420112554663
 20
34.77718247055077
 30
0.0
 40
3.0
  1
(ACTIVE AREA)
 50
90.0
  0
ENDBLK
  5
424
  8
回07-寸法
  6
CONTINUOUS
 62
     7
  0
BLOCK
  8
回07-寸法
  2
*X5050
 70
     1
 10
0.0
 20
0.0
 30
0.0
  3
*X5050
  1

  0
TEXT
  5
427
  8
回07-寸法
  6
CONTINUOUS
 62
     5
 10
597.4400249910814
 20
113.8672515595724
 30
0.0
 40
4.0
  1
133 [5.236] 
  0
TEXT
  5
428
  8
回07-寸法
  6
CONTINUOUS
 62
     5
 10
625.4400249910816
 20
113.8672515595724
 30
0.0
 40
3.0
  1
(ACTIVE AREA)
  0
ENDBLK
  5
42A
  8
回07-寸法
  6
CONTINUOUS
 62
     7
  0
BLOCK
  8
回07-寸法
  2
*X5151
 70
     1
 10
0.0
 20
0.0
 30
0.0
  3
*X5151
  1

  0
TEXT
  5
42D
  8
回07-寸法
  6
CONTINUOUS
 62
     5
 10
605.5651542156812
 20
141.7497640576882
 30
0.0
 40
4.0
  1
155
  0
TEXT
  5
42E
  8
回07-寸法
  6
CONTINUOUS
 62
     5
 10
613.1651542156812
 20
141.7497640576882
 30
0.0
 40
2.799999999999998
  1
±0.3
  0
TEXT
  5
42F
  8
回07-寸法
  6
CONTINUOUS
 62
     5
 10
619.8851542156813
 20
141.7497640576882
 30
0.0
 40
4.0
  1
 [6.102
  0
TEXT
  5
430
  8
回07-寸法
  6
CONTINUOUS
 62
     5
 10
635.4851542156811
 20
141.7497640576882
 30
0.0
 40
2.799999999999998
  1
±0.012
  0
TEXT
  5
431
  8
回07-寸法
  6
CONTINUOUS
 62
     5
 10
645.5651542156812
 20
141.7497640576882
 30
0.0
 40
4.0
  1
]
  0
ENDBLK
  5
433
  8
回07-寸法
  6
CONTINUOUS
 62
     7
  0
BLOCK
  8
回07-寸法
  2
*X5252
 70
     1
 10
0.0
 20
0.0
 30
0.0
  3
*X5252
  1

  0
TEXT
  5
436
  8
回07-寸法
  6
CONTINUOUS
 62
     5
 10
596.3328042540275
 20
121.4778870161046
 30
0.0
 40
4.0
  1
139 [5.472] 
  0
TEXT
  5
437
  8
回07-寸法
  6
CONTINUOUS
 62
     5
 10
624.7472457281353
 20
121.4778870161046
 30
0.0
 40
3.0
  1
(VIEWING AREA)
  0
ENDBLK
  5
439
  8
回07-寸法
  6
CONTINUOUS
 62
     7
  0
BLOCK
  8
回07-寸法
  2
*X5353
 70
     1
 10
0.0
 20
0.0
 30
0.0
  3
*X5353
  1

  0
TEXT
  5
43C
  8
回07-寸法
  6
CONTINUOUS
 62
     5
 10
487.6094020247208
 20
19.06647939830618
 30
0.0
 40
4.0
  1
80
  0
TEXT
  5
43D
  8
回07-寸法
  6
CONTINUOUS
 62
     5
 10
493.2094020247208
 20
19.06647939830618
 30
0.0
 40
2.799999999999998
  1
±1
  0
TEXT
  5
43E
  8
回07-寸法
  6
CONTINUOUS
 62
     5
 10
496.5694020247208
 20
19.06647939830618
 30
0.0
 40
4.0
  1
 [3.150
  0
TEXT
  5
43F
  8
回07-寸法
  6
CONTINUOUS
 62
     5
 10
512.1694020247208
 20
19.06647939830618
 30
0.0
 40
2.799999999999998
  1
±0.039
  0
TEXT
  5
440
  8
回07-寸法
  6
CONTINUOUS
 62
     5
 10
522.8195110565965
 20
19.06647939830618
 30
0.0
 40
4.0
  1
]
  0
ENDBLK
  5
442
  8
回07-寸法
  6
CONTINUOUS
 62
     7
  0
BLOCK
  8
回07-寸法
  2
*X5454
 70
     1
 10
0.0
 20
0.0
 30
0.0
  3
*X5454
  1

  0
TEXT
  5
445
  8
回07-寸法
  6
CONTINUOUS
 62
     5
 10
725.7980152713469
 20
-8.899504848950185
 30
0.0
 40
4.0
  1
58.5 [2.303]
 50
90.0
  0
TEXT
  5
446
  8
回07-寸法
  6
CONTINUOUS
 62
     5
 10
725.7980152713469
 20
18.70049515104983
 30
0.0
 40
3.0
  1
 
 50
90.0
  0
TEXT
  5
447
  8
回07-寸法
  6
CONTINUOUS
 62
     5
 10
725.7980152713469
 20
20.50049515104979
 30
0.0
 40
2.625
  1
(ACTIVE AREA CENTER)
 50
90.0
  0
ENDBLK
  5
449
  8
回07-寸法
  6
CONTINUOUS
 62
     7
  0
BLOCK
  8
回07-寸法
  2
*X5555
 70
     1
 10
0.0
 20
0.0
 30
0.0
  3
*X5555
  1

  0
TEXT
  5
44C
  8
回07-寸法
  6
CONTINUOUS
 62
     5
 10
563.0040362410449
 20
106.2576897703513
 30
0.0
 40
4.0
  1
79 [3.110] 
  0
TEXT
  5
44D
  8
回07-寸法
  6
CONTINUOUS
 62
     5
 10
587.4184777151527
 20
106.2576897703513
 30
0.0
 40
2.666799999999998
  1
(ACTIVE AREA CENTER)
  0
ENDBLK
  5
44F
  8
回07-寸法
  6
CONTINUOUS
 62
     7
  0
BLOCK
  8
回07-寸法
  2
*X5656
 70
     1
 10
0.0
 20
0.0
 30
0.0
  3
*X5656
  1

  0
TEXT
  5
452
  8
回08-記事
  6
CONTINUOUS
 62
     5
 10
365.570369850514
 20
-8.975922460765557
 30
0.0
 40
4.0
  1
6.25
 50
90.0
  0
TEXT
  5
453
  8
回08-記事
  6
CONTINUOUS
 62
     5
 10
365.570369850514
 20
0.6240775392344631
 30
0.0
 40
2.666799999999998
  1
±0.2
 50
90.0
  0
TEXT
  5
454
  8
回08-記事
  6
CONTINUOUS
 62
     5
 10
365.570369850514
 20
7.024397539234485
 30
0.0
 40
4.0
  1
[0.246
 50
90.0
  0
TEXT
  5
455
  8
回08-記事
  6
CONTINUOUS
 62
     5
 10
365.570369850514
 20
21.42439753923446
 30
0.0
 40
2.666799999999998
  1
±0.008
 50
90.0
  0
TEXT
  5
456
  8
回08-記事
  6
CONTINUOUS
 62
     5
 10
365.570369850514
 20
31.55823753923448
 30
0.0
 40
4.0
  1
]
 50
90.0
  0
ENDBLK
  5
458
  8
回07-寸法
  6
CONTINUOUS
 62
     7
  0
BLOCK
  8
回07-寸法
  2
*X5757
 70
     1
 10
0.0
 20
0.0
 30
0.0
  3
*X5757
  1

  0
TEXT
  5
45B
  8
回08-記事
  6
CONTINUOUS
 62
     5
 10
379.0250571370364
 20
-7.636286819443568
 30
0.0
 40
4.0
  1
1.25
 50
90.0
  0
TEXT
  5
45C
  8
回08-記事
  6
CONTINUOUS
 62
     5
 10
379.0250571370364
 20
1.163713180556442
 30
0.0
 40
3.0
  1
±0.2
 50
90.0
  0
TEXT
  5
45D
  8
回08-記事
  6
CONTINUOUS
 62
     5
 10
379.0250571370364
 20
8.363713180556429
 30
0.0
 40
4.0
  1
[0.049
 50
90.0
  0
TEXT
  5
45E
  8
回08-記事
  6
CONTINUOUS
 62
     5
 10
379.0250571370364
 20
22.77815465466438
 30
0.0
 40
3.0
  1
±0.008
 50
90.0
  0
TEXT
  5
45F
  8
回08-記事
  6
CONTINUOUS
 62
     5
 10
379.0250571370364
 20
34.17815465466436
 30
0.0
 40
4.0
  1
]
 50
90.0
  0
ENDBLK
  5
461
  8
回07-寸法
  6
CONTINUOUS
 62
     7
  0
BLOCK
  8
回07-寸法
  2
*X5858
 70
     1
 10
0.0
 20
0.0
 30
0.0
  3
*X5858
  1

  0
TEXT
  5
464
  8
回08-記事
  6
CONTINUOUS
 62
     5
 10
385.7896947298897
 20
-17.622077421401
 30
0.0
 40
4.0
  1
4-0.7
 50
90.0
  0
TEXT
  5
465
  8
回08-記事
  6
CONTINUOUS
 62
     5
 10
385.7896947298897
 20
-4.82207742140099
 30
0.0
 40
3.0
  1
±0.1
 50
90.0
  0
TEXT
  5
466
  8
回08-記事
  6
CONTINUOUS
 62
     5
 10
385.7896947298897
 20
1.777922578599031
 30
0.0
 40
4.0
  1
[4-0.028
 50
90.0
  0
TEXT
  5
467
  8
回08-記事
  6
CONTINUOUS
 62
     5
 10
385.7896947298897
 20
21.77792257859903
 30
0.0
 40
3.0
  1
±0.004
 50
90.0
  0
TEXT
  5
468
  8
回08-記事
  6
CONTINUOUS
 62
     5
 10
385.7896947298897
 20
33.47792257859902
 30
0.0
 40
4.0
  1
]
 50
90.0
  0
ENDBLK
  5
46A
  8
回07-寸法
  6
CONTINUOUS
 62
     7
  0
BLOCK
  8
回07-寸法
  2
*X5959
 70
     1
 10
0.0
 20
0.0
 30
0.0
  3
*X5959
  1

  0
TEXT
  5
46D
  8
回08-記事
  6
CONTINUOUS
 62
     5
 10
372.6103191108502
 20
-7.322077421401047
 30
0.0
 40
4.0
  1
3.75
 50
90.0
  0
TEXT
  5
46E
  8
回08-記事
  6
CONTINUOUS
 62
     5
 10
372.6103191108502
 20
2.277922578598975
 30
0.0
 40
3.0
  1
±0.1
 50
90.0
  0
TEXT
  5
46F
  8
回08-記事
  6
CONTINUOUS
 62
     5
 10
372.6103191108502
 20
8.877922578598997
 30
0.0
 40
4.0
  1
[0.148
 50
90.0
  0
TEXT
  5
470
  8
回08-記事
  6
CONTINUOUS
 62
     5
 10
372.6103191108502
 20
22.47792257859902
 30
0.0
 40
3.0
  1
±0.004
 50
90.0
  0
TEXT
  5
471
  8
回08-記事
  6
CONTINUOUS
 62
     5
 10
372.6103191108502
 20
34.17792257859901
 30
0.0
 40
4.0
  1
]
 50
90.0
  0
ENDBLK
  5
473
  8
回07-寸法
  6
CONTINUOUS
 62
     7
  0
BLOCK
  8
回07-寸法
  2
*X6060
 70
     1
 10
0.0
 20
0.0
 30
0.0
  3
*X6060
  1

  0
TEXT
  5
476
  8
回07-寸法
  6
CONTINUOUS
 62
     5
 10
710.0493043367398
 20
-123.7565088834814
 30
0.0
 40
4.0
  1
1.4
 50
90.0
  0
TEXT
  5
477
  8
回07-寸法
  6
CONTINUOUS
 62
     5
 10
710.0493043367398
 20
-117.3565088834814
 30
0.0
 40
2.666799999999998
  1
±0.2
 50
90.0
  0
TEXT
  5
478
  8
回07-寸法
  6
CONTINUOUS
 62
     5
 10
710.0493043367398
 20
-110.9561888834814
 30
0.0
 40
4.0
  1
 [0.055
 50
90.0
  0
TEXT
  5
479
  8
回07-寸法
  6
CONTINUOUS
 62
     5
 10
710.0493043367398
 20
-94.55618888348144
 30
0.0
 40
2.666799999999998
  1
±0.008
 50
90.0
  0
TEXT
  5
47A
  8
回07-寸法
  6
CONTINUOUS
 62
     5
 10
710.0493043367398
 20
-84.42234888348151
 30
0.0
 40
4.0
  1
]
 50
90.0
  0
ENDBLK
  5
47C
  8
回07-寸法
  6
CONTINUOUS
 62
     7
  0
BLOCK
  8
回07-寸法
  2
*X6161
 70
     1
 10
0.0
 20
0.0
 30
0.0
  3
*X6161
  1

  0
TEXT
  5
47F
  8
回07-寸法
  6
CONTINUOUS
 62
     5
 10
453.2876889464498
 20
-122.2232688834812
 30
0.0
 40
4.0
  1
0.3
 50
90.0
  0
TEXT
  5
480
  8
回07-寸法
  6
CONTINUOUS
 62
     5
 10
453.2876889464498
 20
-115.4232688834812
 30
0.0
 40
2.666799999999998
  1
±0.05
 50
90.0
  0
TEXT
  5
481
  8
回07-寸法
  6
CONTINUOUS
 62
     5
 10
453.2876889464498
 20
-107.1561888834812
 30
0.0
 40
4.0
  1
 [0.012
 50
90.0
  0
TEXT
  5
482
  8
回07-寸法
  6
CONTINUOUS
 62
     5
 10
453.2876889464498
 20
-91.5561888834812
 30
0.0
 40
2.666799999999998
  1
±0.002
 50
90.0
  0
TEXT
  5
483
  8
回07-寸法
  6
CONTINUOUS
 62
     5
 10
453.2876889464498
 20
-81.42234888348117
 30
0.0
 40
4.0
  1
]
 50
90.0
  0
ENDBLK
  5
485
  8
回07-寸法
  6
CONTINUOUS
 62
     7
  0
ENDSEC
  0
SECTION
  2
ENTITIES
  0
TEXT
  5
5C
  8
回03-記事
  6
CONTINUOUS
 62
     5
 10
531.8609302577217
 20
-169.6813433190654
 30
0.0
 40
6.719999999999999
  1
without affecting product specification.
  0
TEXT
  5
5E
  8
回03-記事
  6
CONTINUOUS
 62
     5
 10
531.8609302577217
 20
-157.8937553191855
 30
0.0
 40
6.719999999999999
  1
Edges and corners of ITO glass may be chamfered 
  0
TEXT
  5
5F
  8
回03-記事
  6
CONTINUOUS
 62
     5
 10
531.8609302577217
 20
-146.1061673193056
 30
0.0
 40
6.719999999999999
  1
Unit: mm
  0
TEXT
  5
60
  8
回03-記事
  6
CONTINUOUS
 62
     5
 10
531.8609302577217
 20
-134.3185793194261
 30
0.0
 40
6.719999999999999
  1
EXCEPT WHERE INDICATED
  0
TEXT
  5
61
  8
回03-記事
  6
CONTINUOUS
 62
     5
 10
531.8609302577217
 20
-122.5309913195465
 30
0.0
 40
6.719999999999999
  1
TOLERANCE=±0.5mm
  0
TEXT
  5
62
  8
回07-寸法
  6
CONTINUOUS
 62
     5
 10
362.3956821420092
 20
56.50990051066937
 30
0.0
 40
3.0
  1
2-R0.5[R0.020]
1001
ACAD
1000
MTEXTBEGIN
1070
    73
1070
     1
1070
    44
1040
1.0
1070
    74
1070
     0
1000
MTEXTEND
  0
INSERT
  5
63
  8
回07-寸法
  6
CONTINUOUS
 62
     1
 66
     1
  2
*X3535
 10
0.0
 20
0.0
 30
0.0
  0
SEQEND
  5
389
  8
回07-寸法
  6
CONTINUOUS
 62
     7
  0
DIMENSION
  5
64
  8
回07-寸法
  6
CONTINUOUS
 62
     7
  2
*D3434
 10
745.550050140831
 20
-24.15562881768436
 30
0.0
 11
742.8500501408307
 21
-40.57531385705464
 31
0.0
 70
     0
  3
DMC
 13
694.5144344399003
 23
-17.65562881768423
 33
0.0
 14
701.0144344399003
 24
-24.15562881768435
 34
0.0
 50
90.0
1001
ACAD
1000
DSTYLE
1002
{
1070
   140
1040
4.0
1070
   170
1070
     1
1070
   271
1070
     3
1070
   272
1070
     3
1070
   371
1070
     9
1070
   372
1070
     9
1002
}
  0
DIMENSION
  5
74
  8
回07-寸法
  6
CONTINUOUS
 62
     7
  2
*D3333
 10
736.5419313806637
 20
-24.15562881768436
 30
0.0
 11
733.8419313806634
 21
-40.45562881768455
 31
0.0
 70
     0
  3
DMC
 13
691.5144344399005
 23
-15.65562881768423
 33
0.0
 14
701.0144344399003
 24
-24.15562881768435
 34
0.0
 50
90.0
1001
ACAD
1000
DSTYLE
1002
{
1070
   140
1040
4.0
1070
   170
1070
     1
1070
   271
1070
     3
1070
   272
1070
     3
1070
   371
1070
     9
1070
   372
1070
     9
1002
}
  0
DIMENSION
  5
83
  8
回07-寸法
  6
CONTINUOUS
 62
     7
  2
*D3232
 10
546.0144344399004
 20
113.1672515595724
 30
0.0
 11
528.5074457789119
 21
115.8682182776117
 31
0.0
 70
     0
  3
DMC
 13
558.5144344399004
 23
84.34437118231565
 33
0.0
 14
546.0144344399004
 24
92.84437118231588
 34
0.0
1001
ACAD
1000
DSTYLE
1002
{
1070
   140
1040
4.0
1070
   170
1070
     1
1070
   271
1070
     3
1070
   272
1070
     3
1070
   371
1070
     9
1070
   372
1070
     9
1002
}
  0
DIMENSION
  5
92
  8
回07-寸法
  6
CONTINUOUS
 62
     7
  2
*D3131
 10
546.0144344399004
 20
120.7778870161046
 30
0.0
 11
529.4315917274258
 21
123.4778870161046
 31
0.0
 70
     0
  3
DMC
 13
555.5144344399003
 23
86.34437118231565
 33
0.0
 14
546.0144344399004
 24
92.84437118231588
 34
0.0
1001
ACAD
1000
DSTYLE
1002
{
1070
   140
1040
4.0
1070
   170
1070
     1
1070
   271
1070
     3
1070
   272
1070
     3
1070
   371
1070
     9
1070
   372
1070
     9
1002
}
  0
DIMENSION
  5
A1
  8
回07-寸法
  6
CONTINUOUS
 62
     7
  2
*D3030
 10
453.9876889464498
 20
-75.92234888348116
 30
0.0
 11
451.2876889464496
 21
-101.0243836866309
 31
0.0
 70
     0
  1
0.3{\H0.6667x;±0.05} [0.012{\H0.6667x;±0.002}]
  3
DMC
 13
466.0126700170607
 23
-70.92234888348112
 33
0.0
 14
466.0126700170607
 24
-75.92234888348112
 34
0.0
 50
90.0
1001
ACAD
1000
DSTYLE
1002
{
1070
   140
1040
4.0
1070
   170
1070
     1
1070
   271
1070
     3
1070
   272
1070
     3
1070
   371
1070
     9
1070
   372
1070
     9
1002
}
  0
DIMENSION
  5
B0
  8
回07-寸法
  6
CONTINUOUS
 62
     7
  2
*D2929
 10
710.7493043367398
 20
-78.92234888348117
 30
0.0
 11
708.0493043367398
 21
-103.2894288834813
 31
0.0
 70
     0
  1
1.4{\H0.6667x;±0.2} [0.055{\H0.6667x;±0.008}]
  3
DMC
 13
700.5144344399004
 23
-66.92234888348114
 33
0.0
 14
701.0126700170607
 24
-78.92234888348112
 34
0.0
 50
90.0
1001
ACAD
1000
DSTYLE
1002
{
1070
   140
1040
4.0
1070
   170
1070
     1
1070
   271
1070
     3
1070
   272
1070
     3
1070
   371
1070
     9
1070
   372
1070
     9
1002
}
  0
TEXT
  5
BF
  8
回08-記事
  6
CONTINUOUS
 62
     5
 10
373.794800977742
 20
64.8669265096205
 30
0.0
 40
5.0
  1
SECTION A
  0
LINE
  5
C3
  8
回08-記事
  6
CONTINUOUS
 62
     8
 10
404.6895699557413
 20
49.67792257860361
 30
0.0
 11
404.6895699557413
 21
37.17792257860419
 31
0.0
  0
LINE
  5
C4
  8
回08-記事
  6
CONTINUOUS
 62
    20
 10
391.7899538443958
 20
39.67792257859907
 30
0.0
 11
408.301395783777
 21
39.67792257859907
 31
0.0
  0
LINE
  5
C5
  8
回08-記事
  6
CONTINUOUS
 62
    20
 10
391.7900408659311
 20
42.17792257859906
 30
0.0
 11
408.301395783777
 21
42.17792257859906
 31
0.0
  0
LINE
  5
C6
  8
回08-記事
  6
CONTINUOUS
 62
    20
 10
391.7899538443958
 20
47.17792257859906
 30
0.0
 11
408.301395783777
 21
47.17792257859906
 31
0.0
  0
DIMENSION
  5
C7
  8
回08-記事
  6
CONTINUOUS
 62
     5
  2
*D2828
 10
373.3103191108503
 20
47.17792257859907
 30
0.0
 11
373.3103191108502
 21
14.22792257859896
 31
0.0
 70
   128
  1
3.75{\H0.75x;±0.1}[0.148{\H0.75x;±0.004}]
  3
DMC
 13
391.7900408659311
 23
39.67792257859907
 33
0.0
 14
391.7899538443958
 24
47.17792257859906
 34
0.0
 50
90.0
1001
ACAD
1000
DSTYLE
1002
{
1070
   140
1040
4.0
1070
   170
1070
     1
1070
   271
1070
     3
1070
   272
1070
     3
1070
   371
1070
     9
1070
   372
1070
     9
1002
}
  0
DIMENSION
  5
D8
  8
回08-記事
  6
CONTINUOUS
 62
     5
  2
*D2727
 10
386.4896947298898
 20
38.97792257859915
 30
0.0
 11
383.7896947298897
 21
8.727922578599027
 31
0.0
 70
     0
  1
4-0.7{\H0.75x;±0.1}[4-0.028{\H0.75x;±0.004}]
  3
DMC
 13
394.6894829342058
 23
40.37792257859911
 33
0.0
 14
394.6894829342058
 24
38.97792257859914
 34
0.0
 50
90.0
1001
ACAD
1000
DSTYLE
1002
{
1070
   140
1040
4.0
1070
   170
1070
     1
1070
   271
1070
     3
1070
   272
1070
     3
1070
   371
1070
     9
1070
   372
1070
     9
1002
}
  0
DIMENSION
  5
E9
  8
回08-記事
  6
CONTINUOUS
 62
     5
  2
*D2626
 10
379.7250571370363
 20
39.67792257859907
 30
0.0
 11
377.0250571370364
 21
14.07093391761041
 31
0.0
 70
     0
  1
1.25{\H0.75x;±0.2}[0.049{\H0.75x;±0.008}]
  3
DMC
 13
391.7900408659311
 23
42.17792257859906
 33
0.0
 14
391.7900408659311
 24
39.67792257859907
 34
0.0
 50
90.0
1001
ACAD
1000
DSTYLE
1002
{
1070
   140
1040
4.0
1070
   170
1070
     1
1070
   271
1070
     3
1070
   272
1070
     3
1070
   371
1070
     9
1070
   372
1070
     9
1002
}
  0
POLYLINE
  5
FA
  8
回08-記事
  6
CONTINUOUS
 62
     8
 66
     1
 10
0.0
 20
0.0
 30
0.0
 40
1.399999999999999
 41
1.399999999999999
  0
VERTEX
  5
601
  8
回08-記事
  6
CONTINUOUS
 62
     8
 10
394.6894829342058
 20
44.67792257859906
 30
0.0
  0
VERTEX
  5
603
  8
回08-記事
  6
CONTINUOUS
 62
     8
 10
404.6895699557413
 20
44.67792257859906
 30
0.0
  0
SEQEND
  5
602
  8
回07-寸法
  6
CONTINUOUS
 62
     7
  0
POLYLINE
  5
FB
  8
回08-記事
  6
CONTINUOUS
 62
     8
 66
     1
 10
0.0
 20
0.0
 30
0.0
 40
1.399999999999999
 41
1.399999999999999
  0
VERTEX
  5
604
  8
回08-記事
  6
CONTINUOUS
 62
     8
 10
394.6894829342058
 20
47.17792257859906
 30
0.0
  0
VERTEX
  5
606
  8
回08-記事
  6
CONTINUOUS
 62
     8
 10
404.6895699557413
 20
47.17792257859906
 30
0.0
  0
SEQEND
  5
605
  8
回07-寸法
  6
CONTINUOUS
 62
     7
  0
POLYLINE
  5
FC
  8
回08-記事
  6
CONTINUOUS
 62
     8
 66
     1
 10
0.0
 20
0.0
 30
0.0
 40
1.399999999999999
 41
1.399999999999999
  0
VERTEX
  5
607
  8
回08-記事
  6
CONTINUOUS
 62
     8
 10
394.6894829342058
 20
39.67792257859907
 30
0.0
  0
VERTEX
  5
609
  8
回08-記事
  6
CONTINUOUS
 62
     8
 10
404.6895699557413
 20
39.67792257859907
 30
0.0
  0
SEQEND
  5
608
  8
回07-寸法
  6
CONTINUOUS
 62
     7
  0
POLYLINE
  5
FD
  8
回08-記事
  6
CONTINUOUS
 62
     8
 66
     1
 10
0.0
 20
0.0
 30
0.0
 40
1.399999999999999
 41
1.399999999999999
  0
VERTEX
  5
60A
  8
回08-記事
  6
CONTINUOUS
 62
     8
 10
394.6894829342058
 20
42.17792257859906
 30
0.0
  0
VERTEX
  5
60C
  8
回08-記事
  6
CONTINUOUS
 62
     8
 10
404.6895699557413
 20
42.17792257859906
 30
0.0
  0
SEQEND
  5
60B
  8
回07-寸法
  6
CONTINUOUS
 62
     7
  0
LINE
  5
FE
  8
回08-記事
  6
CONTINUOUS
 62
     8
 10
395.6895699557414
 20
37.17792257860419
 30
0.0
 11
419.4402328615328
 21
37.17792257860419
 31
0.0
  0
LINE
  5
FF
  8
回08-記事
  6
CONTINUOUS
 62
     8
 10
394.6895699557414
 20
48.67792257860418
 30
0.0
 11
394.6895699557414
 21
38.17792257860464
 31
0.0
  0
ARC
  5
100
  8
回08-記事
  6
CONTINUOUS
 62
     8
 10
395.6895699557414
 20
38.17792257860464
 30
0.0
 40
1.0
 50
180.0
 51
270.0
  0
ARC
  5
101
  8
回08-記事
  6
CONTINUOUS
 62
     8
 10
395.6895699557414
 20
48.67792257860418
 30
0.0
 40
1.0
 50
90.0
 51
180.0
  0
LINE
  5
102
  8
回08-記事
  6
CONTINUOUS
 62
     8
 10
395.6895699557414
 20
49.67792257860373
 30
0.0
 11
419.4402328615328
 21
49.67792257860373
 31
0.0
  0
DIMENSION
  5
103
  8
回08-記事
  6
CONTINUOUS
 62
     5
  2
*D2525
 10
366.270369850514
 20
37.17792257860465
 30
0.0
 11
363.570369850514
 21
12.09115753923446
 31
0.0
 70
     0
  1
6.25{\H0.6667x;±0.2}[0.246{\H0.6667x;±0.008}]
  3
DMC
 13
395.6895699557414
 23
49.67792257860373
 33
0.0
 14
395.6895699557414
 24
37.17792257860465
 34
0.0
 50
90.0
1001
ACAD
1000
DSTYLE
1002
{
1070
   140
1040
4.0
1070
   170
1070
     1
1070
   271
1070
     3
1070
   272
1070
     3
1070
   371
1070
     9
1070
   372
1070
     9
1002
}
  0
TEXT
  5
114
  8
回91-枠英2
 10
865.5230572334213
 20
-163.6251441640752
 30
0.0
 40
4.0
  1
Sep/25/2023
  0
TEXT
  5
118
  8
回91-枠英2
 10
874.9842633175896
 20
-157.9772519385383
 30
0.0
 40
2.5
  1
DATE
  0
LINE
  5
119
  8
回91-枠英2
  6
CONTINUOUS
 62
     7
 10
860.1411057757252
 20
-154.270891891392
 30
0.0
 11
860.1411057757252
 21
-177.2035400473255
 31
0.0
  0
TEXT
  5
11A
  8
回91-枠英2
 10
864.8625182390013
 20
-174.3964251168126
 30
0.0
 40
4.0
  1
DMC Co., Ltd.
  0
TEXT
  5
11B
  8
回91-枠英2
 10
823.1960473385598
 20
-158.0427200527622
 30
0.0
 40
2.5
  1
PART No.
  0
TEXT
  5
11C
  8
回91-枠英2
 10
823.4579946512424
 20
-169.025485021305
 30
0.0
 40
2.5
  1
TYPE
  0
TEXT
  5
11D
  8
回91-枠英2
 10
809.272577104171
 20
-173.0310524855021
 30
0.0
 40
2.5
  1
STANDARD TOUCHSCREEN
  0
LINE
  5
11E
  8
回91-枠英2
 10
795.8714811450367
 20
-154.270891891392
 30
0.0
 11
795.8714811450367
 21
-177.1368149110742
 31
0.0
  0
TEXT
  5
11F
  8
回91-枠英2
 10
811.1449110617941
 20
-176.4151839071014
 30
0.0
 40
2.5
  1
DIMENSIONAL DRAWING
  0
LINE
  5
120
  8
回91-枠英2
 10
807.1730367502992
 20
-173.3730218434663
 30
0.0
 11
853.5023072976709
 21
-173.3730218434663
 31
0.0
  0
LINE
  5
121
  8
回91-枠英2
 10
795.8714811450367
 20
-158.5318714718748
 30
0.0
 11
899.129599182344
 21
-158.5318714718748
 31
0.0
  0
LINE
  5
122
  8
回91-枠英2
 10
795.88508760237
 20
-169.5349621477994
 30
0.0
 11
860.1411057757252
 21
-169.5349621477994
 31
0.0
  0
LINE
  5
123
  8
回91-枠英2
 10
795.8714811450367
 20
-154.270891891392
 30
0.0
 11
899.2896056894114
 21
-154.270891891392
 31
0.0
  0
LINE
  5
124
  8
回91-枠英2
 10
795.8705527318858
 20
-165.8139737336725
 30
0.0
 11
899.1778051556837
 21
-165.8139737336725
 31
0.0
  0
TEXT
  5
125
  8
回91-枠英2
 10
803.8257056777272
 20
-165.0766590447053
 30
0.0
 40
5.0
  1
AST-065B080A
  0
TEXT
  5
126
  8
回07-寸法
  6
CONTINUOUS
 62
     7
 10
758.2901232583981
 20
-63.67368652547384
 30
0.0
 40
3.0
  1
(INSULATION AREA)
 50
90.0
  0
TEXT
  5
127
  8
回07-寸法
  6
CONTINUOUS
 62
     7
 10
757.9286843196249
 20
96.74244468903907
 30
0.0
 40
3.0
  1
(INSULATION AREA)
 50
90.0
  0
TEXT
  5
128
  8
回07-寸法
  6
CONTINUOUS
 62
     7
 10
701.7762747545211
 20
127.895156588007
 30
0.0
 40
3.0
  1
(INSULATION AREA)
  0
TEXT
  5
129
  8
回07-寸法
  6
CONTINUOUS
 62
     7
 10
510.2826701677521
 20
128.0458495962848
 30
0.0
 40
3.0
  1
(INSULATION AREA)
  0
DIMENSION
  5
12A
  8
回07-寸法
  6
CONTINUOUS
 62
     7
  2
*D2424
 10
753.7809724099511
 20
-24.15562881768436
 30
0.0
 11
751.0809724099508
 21
-40.45562881768455
 31
0.0
 70
     0
  3
DMC
 13
695.5144344399005
 23
-18.95562881768403
 33
0.0
 14
701.0144344399003
 24
-24.15562881768435
 34
0.0
 50
90.0
1001
ACAD
1000
DSTYLE
1002
{
1070
   140
1040
4.0
1070
   170
1070
     1
1070
   271
1070
     3
1070
   272
1070
     3
1070
   371
1070
     9
1070
   372
1070
     9
1002
}
  0
DIMENSION
  5
139
  8
回07-寸法
  6
CONTINUOUS
 62
     7
  2
*D2323
 10
753.7809724099511
 20
-18.95562881768402
 30
0.0
 11
751.0800056919116
 21
34.34437118231573
 31
0.0
 70
     0
  1
<>
  3
DMC
 13
695.5144344399005
 23
87.64437118231588
 33
0.0
 14
695.5144344399005
 24
-18.95562881768403
 34
0.0
 50
90.0
1001
ACAD
1000
DSTYLE
1002
{
1070
   140
1040
4.0
1070
   170
1070
     1
1070
   271
1070
     3
1070
   272
1070
     3
1070
   371
1070
     9
1070
   372
1070
     9
1002
}
  0
DIMENSION
  5
146
  8
回07-寸法
  6
CONTINUOUS
 62
     7
  2
*D2222
 10
753.7809724099506
 20
87.64437118231592
 30
0.0
 11
753.7809724099505
 21
112.0943711823154
 31
0.0
 70
   128
  3
DMC
 13
701.0144344399003
 23
92.84437118231563
 33
0.0
 14
695.5144344399005
 24
87.64437118231588
 34
0.0
 50
90.0
1001
ACAD
1000
DSTYLE
1002
{
1070
   140
1040
4.0
1070
   170
1070
     1
1070
   271
1070
     3
1070
   272
1070
     3
1070
   371
1070
     9
1070
   372
1070
     9
1002
}
  0
DIMENSION
  5
155
  8
回07-寸法
  6
CONTINUOUS
 62
     7
  2
*D2121
 10
701.0144344399003
 20
132.6960609301172
 30
0.0
 11
716.9144344399003
 21
135.3960609301172
 31
0.0
 70
     0
  3
DMC
 13
695.5144344399005
 23
87.64437118231588
 33
0.0
 14
701.0144344399003
 24
92.84437118231588
 34
0.0
1001
ACAD
1000
DSTYLE
1002
{
1070
   140
1040
4.0
1070
   170
1070
     1
1070
   271
1070
     3
1070
   272
1070
     3
1070
   371
1070
     9
1070
   372
1070
     9
1002
}
  0
DIMENSION
  5
164
  8
回07-寸法
  6
CONTINUOUS
 62
     7
  2
*D2020
 10
695.5144344399005
 20
132.6960609301172
 30
0.0
 11
625.0144344399005
 21
135.3960609301172
 31
0.0
 70
     0
  3
DMC
 13
554.5144344399004
 23
87.64437118231588
 33
0.0
 14
695.5144344399005
 24
87.64437118231588
 34
0.0
1001
ACAD
1000
DSTYLE
1002
{
1070
   140
1040
4.0
1070
   170
1070
     1
1070
   271
1070
     3
1070
   272
1070
     3
1070
   371
1070
     9
1070
   372
1070
     9
1002
}
  0
DIMENSION
  5
171
  8
回07-寸法
  6
CONTINUOUS
 62
     7
  2
*D1919
 10
546.0144344399004
 20
132.6960609301172
 30
0.0
 11
529.7144344399005
 21
135.3960609301172
 31
0.0
 70
     0
  3
DMC
 13
554.5144344399004
 23
87.64437118231588
 33
0.0
 14
546.0144344399004
 24
92.84437118231588
 34
0.0
1001
ACAD
1000
DSTYLE
1002
{
1070
   140
1040
4.0
1070
   170
1070
     1
1070
   271
1070
     3
1070
   272
1070
     3
1070
   371
1070
     9
1070
   372
1070
     9
1002
}
  0
POLYLINE
  5
180
  8
回08-記事
  6
DASHED2
 62
     7
 66
     1
 10
0.0
 20
0.0
 30
0.0
 70
     1
  0
VERTEX
  5
60D
  8
回08-記事
  6
DASHED2
 62
     7
 10
695.5144344399005
 20
87.64437118231588
 30
0.0
  0
VERTEX
  5
60F
  8
回08-記事
  6
DASHED2
 62
     7
 10
695.5144344399005
 20
-18.95562881768403
 30
0.0
  0
VERTEX
  5
610
  8
回08-記事
  6
DASHED2
 62
     7
 10
554.5144344399004
 20
-18.95562881768403
 30
0.0
  0
VERTEX
  5
611
  8
回08-記事
  6
DASHED2
 62
     7
 10
554.5144344399004
 20
87.64437118231588
 30
0.0
  0
SEQEND
  5
60E
  8
回07-寸法
  6
CONTINUOUS
 62
     7
  0
LINE
  5
182
  8
回08-記事
  6
CONTINUOUS
 62
     7
 10
536.7682613483403
 20
-73.92234888348112
 30
0.0
 11
536.7682613483403
 21
-72.92234888348112
 31
0.0
  0
LINE
  5
183
  8
回08-記事
  6
CONTINUOUS
 62
     7
 10
536.7682613483403
 20
-73.92234888348112
 30
0.0
 11
546.0126700170608
 21
-73.92234888348112
 31
0.0
  0
LINE
  5
184
  8
回08-記事
  6
CONTINUOUS
 62
     7
 10
544.8126700170607
 20
-75.12234888348114
 30
0.0
 11
544.8126700170607
 21
-80.12234888348114
 31
0.0
  0
LINE
  5
185
  8
回08-記事
  6
CONTINUOUS
 62
     7
 10
549.2145221521849
 20
-80.12234888348114
 30
0.0
 11
544.8126700170607
 21
-80.12234888348114
 31
0.0
  0
LINE
  5
186
  8
回08-記事
  6
CONTINUOUS
 62
     7
 10
549.2145221521849
 20
-78.92234888348112
 30
0.0
 11
549.2145221521849
 21
-80.12234888348114
 31
0.0
  0
LINE
  5
187
  8
回08-記事
  6
CONTINUOUS
 62
     7
 10
541.8267658295252
 20
-75.12234888348114
 30
0.0
 11
544.8126700170607
 21
-75.12234888348114
 31
0.0
  0
LINE
  5
188
  8
回08-記事
  6
CONTINUOUS
 62
     7
 10
541.8267658295252
 20
-73.92234888348112
 30
0.0
 11
541.8267658295252
 21
-75.12234888348114
 31
0.0
  0
LINE
  5
189
  8
回08-記事
  6
CONTINUOUS
 62
     7
 10
546.0126700170608
 20
-78.92234888348112
 30
0.0
 11
546.0126700170608
 21
-72.92234888348112
 31
0.0
  0
TEXT
  5
18A
  8
回08-記事
  6
CONTINUOUS
 62
     5
 10
431.3830421004318
 20
-63.06032929879163
 30
0.0
 40
3.0
  1
TRACE EXPOSE
1001
ACAD
1000
MTEXTBEGIN
1070
    73
1070
     1
1070
    44
1040
1.0
1070
    74
1070
     0
1000
MTEXTEND
  0
INSERT
  5
18B
  8
回08-記事
  6
CONTINUOUS
 62
    30
 66
     1
  2
*X3636
 10
0.0
 20
0.0
 30
0.0
  0
SEQEND
  5
3A1
  8
回07-寸法
  6
CONTINUOUS
 62
     7
  0
TEXT
  5
18C
  8
回08-記事
  6
CONTINUOUS
 62
     5
 10
481.9089121264128
 20
73.33491240057949
 30
0.0
 40
3.0
  1
LOT LABEL
1001
ACAD
1000
MTEXTBEGIN
1070
    73
1070
     1
1070
    44
1040
1.0
1070
    74
1070
     0
1000
MTEXTEND
  0
INSERT
  5
18D
  8
回08-記事
  6
CONTINUOUS
 62
     3
 66
     1
  2
*X3737
 10
0.0
 20
0.0
 30
0.0
  0
SEQEND
  5
3A8
  8
回07-寸法
  6
CONTINUOUS
 62
     7
  0
TEXT
  5
18E
  8
回07-寸法
  6
CONTINUOUS
 62
     5
 10
502.7877275707457
 20
76.70782385068676
 30
0.0
 40
3.0
  1
PROTECTION TAPE
1001
ACAD
1000
MTEXTBEGIN
1070
    73
1070
     1
1070
    44
1040
1.0
1070
    74
1070
     0
1000
MTEXTEND
  0
INSERT
  5
18F
  8
回07-寸法
  6
CONTINUOUS
 62
     1
 66
     1
  2
*X3838
 10
0.0
 20
0.0
 30
0.0
  0
SEQEND
  5
3AF
  8
回07-寸法
  6
CONTINUOUS
 62
     7
  0
TEXT
  5
190
  8
回07-寸法
  6
CONTINUOUS
 62
     5
 10
514.3884767362633
 20
81.31515314159008
 30
0.0
 40
3.0
  1
4-R1[R0.039]
1001
ACAD
1000
MTEXTBEGIN
1070
    73
1070
     1
1070
    44
1040
1.0
1070
    74
1070
     0
1000
MTEXTEND
  0
INSERT
  5
191
  8
回07-寸法
  6
CONTINUOUS
 62
     1
 66
     1
  2
*X3939
 10
0.0
 20
0.0
 30
0.0
  0
SEQEND
  5
3B6
  8
回07-寸法
  6
CONTINUOUS
 62
     7
  0
TEXT
  5
192
  8
回07-寸法
  6
CONTINUOUS
 62
     5
 10
517.2319669132581
 20
85.34084844779767
 30
0.0
 40
3.0
  1
2-R2[R0.079]
1001
ACAD
1000
MTEXTBEGIN
1070
    73
1070
     1
1070
    44
1040
1.0
1070
    74
1070
     0
1000
MTEXTEND
  0
INSERT
  5
193
  8
回07-寸法
  6
CONTINUOUS
 62
     1
 66
     1
  2
*X4040
 10
0.0
 20
0.0
 30
0.0
  0
SEQEND
  5
3BD
  8
回07-寸法
  6
CONTINUOUS
 62
     7
  0
DIMENSION
  5
194
  8
回07-寸法
  6
CONTINUOUS
 62
     3
  2
*D1818
 10
541.6267658295248
 20
47.38654470967367
 30
0.0
 11
519.1267658295248
 21
47.38654470967367
 31
0.0
 70
   128
  3
DMC
 13
546.0144786414161
 23
52.72330337044983
 33
0.0
 14
541.6267658295248
 24
55.59437118231577
 34
0.0
1001
ACAD
1000
DSTYLE
1002
{
1070
   140
1040
4.0
1070
   170
1070
     1
1070
   271
1070
     3
1070
   272
1070
     3
1070
   371
1070
     9
1070
   372
1070
     9
1002
}
  0
DIMENSION
  5
1A5
  8
回07-寸法
  6
CONTINUOUS
 62
     5
  2
*D1717
 10
536.6144786414159
 20
40.66963535938206
 30
0.0
 11
517.0109252508226
 21
40.66963535938206
 31
0.0
 70
   128
  3
DMC
 13
546.0144786414161
 23
52.72330337044983
 33
0.0
 14
536.6144786414159
 24
60.32631530454628
 34
0.0
1001
ACAD
1000
DSTYLE
1002
{
1070
   140
1040
4.0
1070
   170
1070
     1
1070
   271
1070
     3
1070
   272
1070
     3
1070
   371
1070
     9
1070
   372
1070
     9
1002
}
  0
DIMENSION
  5
1B6
  8
回07-寸法
  6
CONTINUOUS
 62
     1
  2
*D1616
 10
478.8396350242939
 20
55.59437118231579
 30
0.0
 11
478.8396350242938
 21
35.47340519934998
 31
0.0
 70
   128
  3
DMC
 13
541.8225922438185
 23
71.5931681480444
 33
0.0
 14
541.8267658295252
 24
55.59437118231577
 34
0.0
 50
90.0
1001
ACAD
1000
DSTYLE
1002
{
1070
   140
1040
4.0
1070
   170
1070
     1
1070
   271
1070
     3
1070
   272
1070
     3
1070
   371
1070
     9
1070
   372
1070
     9
1002
}
  0
POLYLINE
  5
1C5
  8
回08-記事
  6
PHANTOM2
 62
     7
 66
     1
 10
0.0
 20
0.0
 30
0.0
 70
     1
  0
VERTEX
  5
612
  8
回08-記事
  6
PHANTOM2
 62
     7
 10
558.5144344399004
 20
-15.65562881768423
 30
0.0
  0
VERTEX
  5
614
  8
回08-記事
  6
PHANTOM2
 62
     7
 10
691.5144344399005
 20
-15.65562881768423
 30
0.0
  0
VERTEX
  5
615
  8
回08-記事
  6
PHANTOM2
 62
     7
 10
691.5144344399005
 20
84.34437118231565
 30
0.0
  0
VERTEX
  5
616
  8
回08-記事
  6
PHANTOM2
 62
     7
 10
558.5144344399004
 20
84.34437118231565
 30
0.0
  0
SEQEND
  5
613
  8
回07-寸法
  6
CONTINUOUS
 62
     7
  0
POLYLINE
  5
1C7
  8
回08-記事
  6
CONTINUOUS
 62
     7
 66
     1
 10
0.0
 20
0.0
 30
0.0
 70
     1
  0
VERTEX
  5
617
  8
回08-記事
  6
CONTINUOUS
 62
     7
 10
694.5144344399003
 20
86.34437118231565
 30
0.0
  0
VERTEX
  5
619
  8
回08-記事
  6
CONTINUOUS
 62
     7
 10
555.5144344399003
 20
86.34437118231565
 30
0.0
  0
VERTEX
  5
61A
  8
回08-記事
  6
CONTINUOUS
 62
     7
 10
555.5144344399003
 20
-17.65562881768423
 30
0.0
  0
VERTEX
  5
61B
  8
回08-記事
  6
CONTINUOUS
 62
     7
 10
694.5144344399003
 20
-17.65562881768423
 30
0.0
  0
SEQEND
  5
618
  8
回07-寸法
  6
CONTINUOUS
 62
     7
  0
DIMENSION
  5
1C8
  8
回07-寸法
  6
CONTINUOUS
 62
    30
  2
*D1515
 10
459.0395232418599
 20
60.46937118231625
 30
0.0
 11
456.3395232418598
 21
42.44968614294601
 31
0.0
 70
     0
  3
DMC
 13
466.5144786414169
 23
66.71937118231622
 33
0.0
 14
466.5144786414169
 24
60.46937118231621
 34
0.0
 50
90.0
1001
ACAD
1000
DSTYLE
1002
{
1070
   140
1040
4.0
1070
   170
1070
     1
1070
   271
1070
     3
1070
   272
1070
     3
1070
   371
1070
     9
1070
   372
1070
     9
1002
}
  0
TEXT
  5
1D7
  8
回08-記事
  6
CONTINUOUS
 62
     5
 10
472.2692013692562
 20
52.45186021066084
 30
0.0
 40
4.0
  1
A
1001
ACAD
1000
MTEXTBEGIN
1070
    73
1070
     1
1070
    44
1040
1.0
1070
    74
1070
     0
1000
MTEXTEND
  0
INSERT
  5
1D8
  8
回08-記事
  6
CONTINUOUS
 62
     5
 66
     1
  2
*X4141
 10
0.0
 20
0.0
 30
0.0
  0
SEQEND
  5
3CE
  8
回07-寸法
  6
CONTINUOUS
 62
     7
  0
CIRCLE
  5
1D9
  8
回08-記事
  6
DASHED2
 62
     5
 10
468.0186454420163
 20
63.63824723993993
 30
0.0
 40
5.437234911312004
  0
POLYLINE
  5
1DA
  8
回04-下接
  6
CONTINUOUS
 62
     7
 66
     1
 10
0.0
 20
0.0
 30
0.0
 70
     1
  0
VERTEX
  5
61C
  8
回04-下接
  6
CONTINUOUS
 62
     7
 10
701.0144344399003
 20
-24.15562881768435
 30
0.0
  0
VERTEX
  5
61E
  8
回04-下接
  6
CONTINUOUS
 62
     7
 10
546.0144344399004
 20
-24.15562881768435
 30
0.0
  0
VERTEX
  5
61F
  8
回04-下接
  6
CONTINUOUS
 62
     7
 10
546.0144344399004
 20
92.84437118231588
 30
0.0
  0
VERTEX
  5
620
  8
回04-下接
  6
CONTINUOUS
 62
     7
 10
701.0144344399003
 20
92.84437118231588
 30
0.0
  0
SEQEND
  5
61D
  8
回07-寸法
  6
CONTINUOUS
 62
     7
  0
INSERT
  5
1DE
  8
回08-記事
  6
CONTINUOUS
 62
     8
 66
     1
  2
*X4242
 10
0.0
 20
0.0
 30
0.0
1001
ACAD
1000
HATCH
1002
{
1070
    19
1000
ANSI31
1040
15.0
1040
1.570796326794896
1000
ASC_BOUNDS
1070
     1
1070
     2
1070
     1
1005
1DF
1000
ASC_SEEDPOINT
1011
694.8214637740451
1021
43.64357064794571
1031
0.0
1000
R14_HATCH_DATA
1000
1DE
1011
1.0
1021
0.0
1031
0.0
1011
0.0
1021
1.0
1031
0.0
1011
0.0
1021
0.0
1031
1.0
1040
0.0
1010
0.0
1020
0.0
1030
1.0
1000
ANSI31
1070
     0
1070
     1
1071
        1
1071
        1
1071
        8
1070
     1
1040
492.5347898848762
1040
62.09437118231576
1040
492.5347898848762
1040
65.09437118231577
1070
     2
1040
493.534789884876
1040
65.09437118231577
1040
1.0
1040
3.141592653589792
1040
4.712388980384688
1070
     0
1070
     1
1040
493.534789884876
1040
66.09437118231577
1040
517.5347898848762
1040
66.09437118231577
1070
     2
1040
517.5347898848762
1040
65.09437118231577
1040
1.0
1040
4.712388980384688
1040
6.283185307179585
1070
     0
1070
     1
1040
518.534789884876
1040
65.09437118231577
1040
518.534789884876
1040
62.09437118231576
1070
     2
1040
517.5347898848762
1040
62.09437118231576
1040
1.0
1040
6.283185307179585
1040
7.853981633974482
1070
     0
1070
     1
1040
517.5347898848762
1040
61.09437118231577
1040
493.534789884876
1040
61.09437118231577
1070
     2
1040
493.534789884876
1040
62.09437118231576
1040
1.0
1040
1.570796326794896
1040
3.141592653589792
1070
     0
1071
        1
1005
1DF
1070
     0
1070
     1
1040
1.570796326794896
1040
15.0
1070
     0
1070
     1
1040
2.356194490192344
1040
694.8214637740451
1040
43.64357064794571
1040
-1.325825214724775
1040
-1.325825214724775
1070
     0
1071
        1
1040
694.8214637740451
1040
43.64357064794571
1040
0.0
1002
}
  0
SEQEND
  5
3E2
  8
回07-寸法
  6
CONTINUOUS
 62
     7
  0
POLYLINE
  5
1DF
  8
回08-記事
  6
CONTINUOUS
 62
     8
 66
     1
 10
0.0
 20
0.0
 30
0.0
 70
     1
1001
ACAD
1000
ASC_BOUNDS
1002
{
1070
    19
1005
1DE
1002
}
  0
VERTEX
  5
621
  8
回08-記事
  6
CONTINUOUS
 62
     8
 10
492.5347898848762
 20
62.09437118231576
 30
0.0
  0
VERTEX
  5
623
  8
回08-記事
  6
CONTINUOUS
 62
     8
 10
492.5347898848762
 20
65.09437118231577
 30
0.0
 42
-0.4142135623730951
  0
VERTEX
  5
624
  8
回08-記事
  6
CONTINUOUS
 62
     8
 10
493.534789884876
 20
66.09437118231577
 30
0.0
  0
VERTEX
  5
625
  8
回08-記事
  6
CONTINUOUS
 62
     8
 10
517.5347898848762
 20
66.09437118231577
 30
0.0
 42
-0.4142135623730951
  0
VERTEX
  5
626
  8
回08-記事
  6
CONTINUOUS
 62
     8
 10
518.534789884876
 20
65.09437118231577
 30
0.0
  0
VERTEX
  5
627
  8
回08-記事
  6
CONTINUOUS
 62
     8
 10
518.534789884876
 20
62.09437118231576
 30
0.0
 42
-0.4142135623730951
  0
VERTEX
  5
628
  8
回08-記事
  6
CONTINUOUS
 62
     8
 10
517.5347898848762
 20
61.09437118231577
 30
0.0
  0
VERTEX
  5
629
  8
回08-記事
  6
CONTINUOUS
 62
     8
 10
493.534789884876
 20
61.09437118231577
 30
0.0
 42
-0.4142135623730946
  0
SEQEND
  5
622
  8
回07-寸法
  6
CONTINUOUS
 62
     7
  0
LINE
  5
1E0
  8
回07-寸法
  6
CENTER2
 62
     1
 10
464.514478641417
 20
63.59437118231577
 30
0.0
 11
544.0140864795921
 21
63.59437118231577
 31
0.0
  0
INSERT
  5
1E2
  8
回08-記事
  6
CONTINUOUS
 62
     8
 66
     1
  2
*X4343
 10
0.0
 20
0.0
 30
0.0
1001
ACAD
1000
HATCH
1002
{
1070
    19
1000
ANSI31
1040
0.5
1040
-0.0000000000000002
1000
ASC_BOUNDS
1070
     1
1070
     2
1070
     1
1005
1E3
1000
ASC_SEEDPOINT
1011
795.127846189674
1021
-153.5552968988544
1031
0.0
1000
R14_HATCH_DATA
1000
1E2
1011
1.0
1021
0.0
1031
0.0
1011
0.0
1021
1.0
1031
0.0
1011
0.0
1021
0.0
1031
1.0
1040
0.0
1010
0.0
1020
0.0
1030
1.0
1000
ANSI31
1070
     0
1070
     1
1071
        1
1071
        1
1071
        4
1070
     1
1040
549.5145221521847
1040
62.59437118231577
1040
541.8230391477845
1040
62.59437118231577
1070
     1
1040
541.8230391477845
1040
62.59437118231577
1040
541.8230391477845
1040
56.19437118231568
1070
     1
1040
541.8230391477845
1040
56.19437118231568
1040
549.5145221521847
1040
56.19437118231568
1070
     1
1040
549.5145221521847
1040
56.19437118231568
1040
549.5145221521847
1040
62.59437118231577
1071
        1
1005
1E3
1070
     0
1070
     1
1040
-0.0000000000000002
1040
0.5
1070
     0
1070
     1
1040
0.7853981633974481
1040
795.127846189674
1040
-153.5552968988544
1040
-1.122532015133643
1040
1.122532015133643
1070
     0
1071
        1
1040
795.127846189674
1040
-153.5552968988544
1040
0.0
1002
}
  0
SEQEND
  5
3F6
  8
回07-寸法
  6
CONTINUOUS
 62
     7
  0
POLYLINE
  5
1E3
  8
回08-記事
  6
CONTINUOUS
 62
     8
 66
     1
 10
0.0
 20
0.0
 30
0.0
 70
     1
1001
ACAD
1000
ASC_BOUNDS
1002
{
1070
    19
1005
1E2
1002
}
  0
VERTEX
  5
62A
  8
回08-記事
  6
CONTINUOUS
 62
     8
 10
549.5145221521847
 20
62.59437118231577
 30
0.0
  0
VERTEX
  5
62C
  8
回08-記事
  6
CONTINUOUS
 62
     8
 10
541.8230391477845
 20
62.59437118231577
 30
0.0
  0
VERTEX
  5
62D
  8
回08-記事
  6
CONTINUOUS
 62
     8
 10
541.8230391477845
 20
56.19437118231568
 30
0.0
  0
VERTEX
  5
62E
  8
回08-記事
  6
CONTINUOUS
 62
     8
 10
549.5145221521847
 20
56.19437118231568
 30
0.0
  0
SEQEND
  5
62B
  8
回07-寸法
  6
CONTINUOUS
 62
     7
  0
TEXT
  5
1E4
  8
回08-記事
  6
CONTINUOUS
 62
     7
 10
465.6369739717363
 20
60.93177100413882
 30
0.0
 40
2.0
  1
1
 50
90.0
  0
TEXT
  5
1E5
  8
回08-記事
  6
CONTINUOUS
 62
     7
 10
465.6140810159477
 20
64.7924304554164
 30
0.0
 40
2.0
  1
4
 50
90.0
  0
LINE
  5
1E6
  8
回07-ﾃｰﾙ
  6
BYBLOCK
 62
     8
 10
546.5145221521845
 20
53.59437118231577
 30
0.0
 11
546.5145221521845
 21
53.59437118231577
 31
0.0
  0
ARC
  5
1EA
  8
回07-ﾃｰﾙ
  6
BYBLOCK
 62
     7
 10
536.1058208523111
 20
59.46534651673633
 30
0.0
 40
1.0
 50
45.14359814423346
 51
89.99668642115281
  0
ARC
  5
1EB
  8
回07-ﾃｰﾙ
  6
BYBLOCK
 62
     7
 10
536.1032595834069
 20
67.71937118231623
 30
0.0
 40
1.0
 50
270.0
 51
314.8829928953901
  0
ARC
  5
1EC
  8
回07-ﾃｰﾙ
  6
BYBLOCK
 62
     7
 10
541.8230391477845
 20
70.59316824790599
 30
0.0
 40
1.0
 50
90.02560571194575
 51
134.8829928953902
  0
ARC
  5
1ED
  8
回07-ﾃｰﾙ
  6
BYBLOCK
 62
     7
 10
541.8267658295246
 20
56.59437118231622
 30
0.0
 40
1.0
 50
225.1435981442334
 51
270.0
  0
ARC
  5
1EE
  8
回07-ﾃｰﾙ
  6
BYBLOCK
 62
     7
 10
544.5145221521847
 20
53.59437118231621
 30
0.0
 40
2.0
 50
41.41342092042722
 51
90.0
  0
ARC
  5
1EF
  8
回07-ﾃｰﾙ
  6
BYBLOCK
 62
     7
 10
544.5145221521847
 20
73.59437138203944
 30
0.0
 40
2.0
 50
270.0256057119457
 51
318.5865790795729
  0
LINE
  5
1F0
  8
回07-ﾃｰﾙ
  6
BYBLOCK
 62
     7
 10
536.8111532208287
 20
60.17422326901456
 30
0.0
 11
541.1214334610075
 21
55.88549443003707
 31
0.0
  0
LINE
  5
1F1
  8
回07-ﾃｰﾙ
  6
BYBLOCK
 62
     7
 10
536.808920866498
 20
67.01082185196142
 30
0.0
 11
541.1173778646932
 21
71.30171757826032
 31
0.0
  0
LINE
  5
1F2
  8
回07-ﾃｰﾙ
  6
BYBLOCK
 62
     7
 10
541.8267658295252
 20
55.59437118231577
 30
0.0
 11
544.5145221521847
 21
55.59437118231577
 31
0.0
  0
LINE
  5
1F3
  8
回07-ﾃｰﾙ
  6
BYBLOCK
 62
     7
 10
541.8225922438189
 20
71.59316814804395
 30
0.0
 11
544.5154159601163
 21
71.59437158176221
 31
0.0
  0
LINE
  5
1F4
  8
回07-ﾃｰﾙ
  6
BYBLOCK
 62
     7
 10
466.014478641417
 20
66.21937118231577
 30
0.0
 11
466.014478641417
 21
60.96937118231577
 31
0.0
  0
ARC
  5
1F5
  8
回07-ﾃｰﾙ
  6
BYBLOCK
 62
     7
 10
466.5144786414169
 20
60.96937118231622
 30
0.0
 40
0.5
 50
180.0
 51
270.0
  0
ARC
  5
1F6
  8
回07-ﾃｰﾙ
  6
BYBLOCK
 62
     7
 10
466.5144786414169
 20
66.21937118231622
 30
0.0
 40
0.5
 50
90.0
 51
180.0
  0
LINE
  5
1F7
  8
回07-ﾃｰﾙ
  6
BYBLOCK
 62
     7
 10
466.5144786414169
 20
60.46937118231621
 30
0.0
 11
536.1058786851724
 21
60.46534651506377
 31
0.0
  0
LINE
  5
1F8
  8
回07-ﾃｰﾙ
  6
BYBLOCK
 62
     7
 10
466.5144786414169
 20
66.71937118231622
 30
0.0
 11
536.1032595834069
 21
66.71937118231622
 31
0.0
  0
TEXT
  5
1F9
  8
回08-記事
  6
CONTINUOUS
 62
     5
 10
515.1352603249721
 20
-81.5248287142367
 30
0.0
 40
3.0
  1
LOT LABEL
1001
ACAD
1000
MTEXTBEGIN
1070
    73
1070
     1
1070
    44
1040
1.0
1070
    74
1070
     0
1000
MTEXTEND
  0
INSERT
  5
1FA
  8
回08-記事
  6
CONTINUOUS
 62
    30
 66
     1
  2
*X4444
 10
0.0
 20
0.0
 30
0.0
  0
SEQEND
  5
402
  8
回07-寸法
  6
CONTINUOUS
 62
     7
  0
TEXT
  5
1FB
  8
回07-寸法
  6
CONTINUOUS
 62
     5
 10
672.4924284612163
 20
-48.43667466777856
 30
0.0
 40
4.0
  1
AIR VENT
1001
ACAD
1000
MTEXTBEGIN
1070
    73
1070
     1
1070
    44
1040
1.0
1070
    74
1070
     0
1000
MTEXTEND
  0
INSERT
  5
1FC
  8
回07-寸法
  6
CONTINUOUS
 62
     5
 66
     1
  2
*X4545
 10
0.0
 20
0.0
 30
0.0
  0
SEQEND
  5
409
  8
回07-寸法
  6
CONTINUOUS
 62
     7
  0
TEXT
  5
1FD
  8
回08-記事
  6
CONTINUOUS
 62
     5
 10
667.8850582555704
 20
-36.31030061585668
 30
0.0
 40
4.0
  1
AST-065B
  0
TEXT
  5
1FE
  8
回08-記事
  6
CONTINUOUS
 62
     5
 10
666.6767369906637
 20
-30.29366047860638
 30
0.0
 40
4.0
  1
PART No
1001
ACAD
1000
MTEXTBEGIN
1070
    73
1070
     1
1070
    44
1040
1.0
1070
    74
1070
     0
1000
MTEXTEND
  0
INSERT
  5
1FF
  8
回08-記事
  6
CONTINUOUS
 62
     7
 66
     1
  2
*X4646
 10
0.0
 20
0.0
 30
0.0
  0
SEQEND
  5
410
  8
回07-寸法
  6
CONTINUOUS
 62
     7
  0
TEXT
  5
200
  8
回08-記事
  6
CONTINUOUS
 62
     7
 10
625.7694264408232
 20
77.55439976482344
 30
0.0
 40
5.0
  1
YU
  0
DIMENSION
  5
201
  8
回07-寸法
  6
CONTINUOUS
 62
     7
  2
*D1414
 10
625.0144344399005
 20
105.5576897703513
 30
0.0
 11
594.1116620174689
 21
105.5576897703513
 31
0.0
 70
   128
  1
<> {\H0.6667x;(ACTIVE AREA CENTER)}
  3
DMC
 13
546.0144344399004
 23
92.84437118231588
 33
0.0
 14
625.0144344399005
 24
90.84437118231576
 34
0.0
1001
ACAD
1000
DSTYLE
1002
{
1070
   140
1040
4.0
1070
   170
1070
     1
1070
   271
1070
     3
1070
   272
1070
     3
1070
   371
1070
     9
1070
   372
1070
     9
1002
}
  0
TEXT
  5
210
  8
回08-記事
  6
CONTINUOUS
 62
     7
 10
681.9381192971514
 20
36.1704018836696
 30
0.0
 40
5.0
  1
XR
  0
DIMENSION
  5
211
  8
回07-寸法
  6
CONTINUOUS
 62
     7
  2
*D1313
 10
726.498015271347
 20
34.34437118231579
 30
0.0
 11
726.4980152713468
 21
24.40935341876639
 31
0.0
 70
   128
  1
<>{\H0.75x; \H0.875x;(ACTIVE AREA CENTER)}
  3
DMC
 13
701.0144344399003
 23
-24.15562881768435
 33
0.0
 14
704.0144344399005
 24
34.34437118231577
 34
0.0
 50
90.0
1001
ACAD
1000
DSTYLE
1002
{
1070
   140
1040
4.0
1070
   170
1070
     1
1070
   271
1070
     3
1070
   272
1070
     3
1070
   371
1070
     9
1070
   372
1070
     9
1002
}
  0
TEXT
  5
220
  8
回08-記事
  6
CONTINUOUS
 62
     7
 10
560.2200384051014
 20
36.29491715087434
 30
0.0
 40
5.0
  1
XL
  0
DIMENSION
  5
221
  8
回07-寸法
  6
CONTINUOUS
 62
     5
  2
*D1212
 10
546.0144344399004
 20
18.36647939830618
 30
0.0
 11
506.0144565406587
 21
21.06647939830618
 31
0.0
 70
     0
  3
DMC
 13
466.014478641417
 23
60.96937118231622
 33
0.0
 14
546.0144344399004
 24
54.91734628758432
 34
0.0
1001
ACAD
1000
DSTYLE
1002
{
1070
    47
1040
1.0
1070
   147
1040
0.5
1070
    48
1040
1.0
1070
    72
1070
     0
1070
    71
1070
     1
1070
   140
1040
4.0
1070
   170
1070
     1
1070
   271
1070
     3
1070
   272
1070
     3
1070
   371
1070
     9
1070
   372
1070
     9
1002
}
  0
DIMENSION
  5
230
  8
回07-寸法
  6
CONTINUOUS
 62
     5
  2
*D1111
 10
459.0395232418598
 20
66.71937118231625
 30
0.0
 11
459.0395232418597
 21
114.1497850401547
 31
0.0
 70
   128
  1
(<>)
  3
DMC
 13
546.0144344399004
 23
92.84437118231588
 33
0.0
 14
466.5144786414169
 24
66.71937118231622
 34
0.0
 50
90.0
1001
ACAD
1000
DSTYLE
1002
{
1070
   140
1040
4.0
1070
   170
1070
     1
1070
   271
1070
     3
1070
   272
1070
     3
1070
   371
1070
     9
1070
   372
1070
     9
1002
}
  0
LINE
  5
241
  8
回07-寸法
  6
CENTER2
 62
     1
 10
704.0144344399005
 20
34.34437118231577
 30
0.0
 11
543.0144344399003
 21
34.34437118231577
 31
0.0
  0
DIMENSION
  5
242
  8
回07-寸法
  6
CONTINUOUS
 62
     5
  2
*D1010
 10
694.5144344399003
 20
120.7778870161046
 30
0.0
 11
625.0144344399005
 21
120.7778870161046
 31
0.0
 70
   128
  1
<> {\H0.75x;(VIEWING AREA)}
  3
DMC
 13
555.5144344399003
 23
86.34437118231588
 33
0.0
 14
694.5144344399003
 24
86.34437118231565
 34
0.0
1001
ACAD
1000
DSTYLE
1002
{
1070
   140
1040
4.0
1070
   170
1070
     1
1070
   271
1070
     3
1070
   272
1070
     3
1070
   371
1070
     9
1070
   372
1070
     9
1002
}
  0
DIMENSION
  5
251
  8
回07-寸法
  6
CONTINUOUS
 62
     7
  2
*D99
 10
701.0144344399003
 20
141.0497640576882
 30
0.0
 11
626.3651542156812
 21
141.0497640576882
 31
0.0
 70
   128
  3
DMC
 13
546.0144344399004
 23
92.84437118231588
 33
0.0
 14
701.0144344399003
 24
92.84437118231563
 34
0.0
1001
ACAD
1000
DSTYLE
1002
{
1070
    47
1040
0.3
1070
   147
1040
0.5
1070
    48
1040
0.3
1070
    72
1070
     0
1070
    71
1070
     1
1070
   140
1040
4.0
1070
   170
1070
     1
1070
   271
1070
     3
1070
   272
1070
     3
1070
   371
1070
     9
1070
   372
1070
     9
1002
}
  0
DIMENSION
  5
260
  8
回07-寸法
  6
CONTINUOUS
 62
     7
  2
*D88
 10
691.5144344399005
 20
113.1672515595724
 30
0.0
 11
625.0144344399005
 21
113.1672515595724
 31
0.0
 70
   128
  1
<> {\H0.75x;(ACTIVE AREA)}
  3
DMC
 13
558.5144344399004
 23
84.34437118231576
 33
0.0
 14
691.5144344399005
 24
84.34437118231565
 34
0.0
1001
ACAD
1000
DSTYLE
1002
{
1070
   140
1040
4.0
1070
   170
1070
     1
1070
   271
1070
     3
1070
   272
1070
     3
1070
   371
1070
     9
1070
   372
1070
     9
1002
}
  0
TEXT
  5
26F
  8
回08-記事
  6
CONTINUOUS
 62
     7
 10
688.5798159260827
 20
-23.44177589274844
 30
0.0
 40
1.399999999999999
  1
AST-065B
  0
LINE
  5
270
  8
回08-記事
  6
CONTINUOUS
 62
     7
 10
694.5144344399003
 20
-18.15562881768412
 30
0.0
 11
701.0144344399003
 21
-18.15562881768412
 31
0.0
  0
LINE
  5
271
  8
回08-記事
  6
CONTINUOUS
 62
     7
 10
694.5144344399003
 20
-16.15562881768411
 30
0.0
 11
701.0144344399003
 21
-16.15562881768411
 31
0.0
  0
TEXT
  5
272
  8
回08-記事
  6
CONTINUOUS
 62
     7
 10
626.6899083716585
 20
-13.69363454599406
 30
0.0
 40
5.0
  1
YD
  0
LINE
  5
273
  8
回08-記事
  6
CONTINUOUS
 62
     7
 10
701.0126700170607
 20
-78.92234888348112
 30
0.0
 11
701.0126700170607
 21
-72.92234888348112
 31
0.0
  0
ARC
  5
274
  8
回08-記事
  6
CONTINUOUS
 62
     7
 10
684.5126700170608
 20
-72.83196710905007
 30
0.0
 40
0.5
 50
0.0
 51
180.0
  0
LINE
  5
275
  8
回08-記事
  6
CONTINUOUS
 62
     7
 10
697.0126700170607
 20
-72.92234888348112
 30
0.0
 11
697.0126700170607
 21
-70.92234888348112
 31
0.0
  0
ARC
  5
276
  8
回08-記事
  6
CONTINUOUS
 62
     7
 10
688.5126700170607
 20
-72.83196710905007
 30
0.0
 40
0.5
 50
0.0
 51
180.0
  0
ARC
  5
277
  8
回08-記事
  6
CONTINUOUS
 62
     7
 10
692.5126700170607
 20
-72.83196710905007
 30
0.0
 40
0.5
 50
0.0
 51
180.0
  0
ARC
  5
278
  8
回08-記事
  6
CONTINUOUS
 62
     7
 10
676.5126700170608
 20
-72.83196710905007
 30
0.0
 40
0.5
 50
0.0
 51
180.0
  0
ARC
  5
279
  8
回08-記事
  6
CONTINUOUS
 62
     7
 10
664.5126700170608
 20
-72.83196710905007
 30
0.0
 40
0.5
 50
0.0
 51
180.0
  0
ARC
  5
27A
  8
回08-記事
  6
CONTINUOUS
 62
     7
 10
672.5126700170608
 20
-72.83196710905007
 30
0.0
 40
0.5
 50
0.0
 51
180.0
  0
ARC
  5
27B
  8
回08-記事
  6
CONTINUOUS
 62
     7
 10
668.5126700170608
 20
-72.83196710905007
 30
0.0
 40
0.5
 50
0.0
 51
180.0
  0
ARC
  5
27C
  8
回08-記事
  6
CONTINUOUS
 62
     7
 10
680.5126700170608
 20
-72.83196710905007
 30
0.0
 40
0.5
 50
0.0
 51
180.0
  0
LINE
  5
27D
  8
回08-記事
  6
CONTINUOUS
 62
     7
 10
700.5144344399004
 20
-66.92234888348114
 30
0.0
 11
700.5144344399004
 21
-72.92234888348112
 31
0.0
  0
ARC
  5
27E
  8
回08-記事
  6
CONTINUOUS
 62
     7
 10
652.5126700170608
 20
-72.83196710905007
 30
0.0
 40
0.5
 50
0.0
 51
180.0
  0
ARC
  5
27F
  8
回08-記事
  6
CONTINUOUS
 62
     7
 10
656.5126700170608
 20
-72.83196710905007
 30
0.0
 40
0.5
 50
0.0
 51
180.0
  0
ARC
  5
280
  8
回08-記事
  6
CONTINUOUS
 62
     7
 10
660.5126700170607
 20
-72.83196710905007
 30
0.0
 40
0.5
 50
0.0
 51
180.0
  0
ARC
  5
281
  8
回08-記事
  6
CONTINUOUS
 62
     7
 10
644.5126700170608
 20
-72.83196710905007
 30
0.0
 40
0.5
 50
0.0
 51
180.0
  0
ARC
  5
282
  8
回08-記事
  6
CONTINUOUS
 62
     7
 10
648.5126700170608
 20
-72.83196710905007
 30
0.0
 40
0.5
 50
0.0
 51
180.0
  0
ARC
  5
283
  8
回08-記事
  6
CONTINUOUS
 62
     7
 10
628.5126700170608
 20
-72.83196710905007
 30
0.0
 40
0.5
 50
0.0
 51
180.0
  0
ARC
  5
284
  8
回08-記事
  6
CONTINUOUS
 62
     7
 10
624.5126700170608
 20
-72.83196710905007
 30
0.0
 40
0.5
 50
0.0
 51
180.0
  0
ARC
  5
285
  8
回08-記事
  6
CONTINUOUS
 62
     7
 10
632.5126700170608
 20
-72.83196710905007
 30
0.0
 40
0.5
 50
0.0
 51
180.0
  0
ARC
  5
286
  8
回08-記事
  6
CONTINUOUS
 62
     7
 10
636.5126700170608
 20
-72.83196710905007
 30
0.0
 40
0.5
 50
0.0
 51
180.0
  0
ARC
  5
287
  8
回08-記事
  6
CONTINUOUS
 62
     7
 10
640.5126700170608
 20
-72.83196710905007
 30
0.0
 40
0.5
 50
0.0
 51
180.0
  0
DIMENSION
  5
288
  8
回07-寸法
  6
CONTINUOUS
 62
     5
  2
*D77
 10
714.7148291582034
 20
-24.15562881768413
 30
0.0
 11
714.7148291582034
 21
-42.90366031374732
 31
0.0
 70
   128
  1
(<>)
  3
DMC
 13
701.0144344399003
 23
-18.15562881768412
 33
0.0
 14
701.0144344399003
 24
-24.15562881768412
 34
0.0
 50
90.0
1001
ACAD
1000
DSTYLE
1002
{
1070
   140
1040
4.0
1070
   170
1070
     1
1070
   271
1070
     3
1070
   272
1070
     3
1070
   371
1070
     9
1070
   372
1070
     9
1002
}
  0
ARC
  5
299
  8
回08-記事
  6
CONTINUOUS
 62
     7
 10
604.5126700170608
 20
-72.83196710905007
 30
0.0
 40
0.5
 50
0.0
 51
180.0
  0
ARC
  5
29A
  8
回08-記事
  6
CONTINUOUS
 62
     7
 10
608.5126700170608
 20
-72.83196710905007
 30
0.0
 40
0.5
 50
0.0
 51
180.0
  0
ARC
  5
29B
  8
回08-記事
  6
CONTINUOUS
 62
     7
 10
620.5126700170608
 20
-72.83196710905007
 30
0.0
 40
0.5
 50
0.0
 51
180.0
  0
ARC
  5
29C
  8
回08-記事
  6
CONTINUOUS
 62
     7
 10
612.5126700170608
 20
-72.83196710905007
 30
0.0
 40
0.5
 50
0.0
 51
180.0
  0
ARC
  5
29D
  8
回08-記事
  6
CONTINUOUS
 62
     7
 10
616.5126700170608
 20
-72.83196710905007
 30
0.0
 40
0.5
 50
0.0
 51
180.0
  0
ARC
  5
29E
  8
回08-記事
  6
CONTINUOUS
 62
     7
 10
588.5126700170608
 20
-72.83196710905007
 30
0.0
 40
0.5
 50
0.0
 51
180.0
  0
ARC
  5
29F
  8
回08-記事
  6
CONTINUOUS
 62
     7
 10
584.5126700170608
 20
-72.83196710905007
 30
0.0
 40
0.5
 50
0.0
 51
180.0
  0
ARC
  5
2A0
  8
回08-記事
  6
CONTINUOUS
 62
     7
 10
596.5126700170608
 20
-72.83196710905007
 30
0.0
 40
0.5
 50
0.0
 51
180.0
  0
ARC
  5
2A1
  8
回08-記事
  6
CONTINUOUS
 62
     7
 10
600.5126700170608
 20
-72.83196710905007
 30
0.0
 40
0.5
 50
0.0
 51
180.0
  0
ARC
  5
2A2
  8
回08-記事
  6
CONTINUOUS
 62
     7
 10
592.5126700170608
 20
-72.83196710905007
 30
0.0
 40
0.5
 50
0.0
 51
180.0
  0
ARC
  5
2A3
  8
回08-記事
  6
CONTINUOUS
 62
     7
 10
576.5126700170608
 20
-72.83196710905007
 30
0.0
 40
0.5
 50
0.0
 51
180.0
  0
ARC
  5
2A4
  8
回08-記事
  6
CONTINUOUS
 62
     7
 10
572.5126700170608
 20
-72.83196710905007
 30
0.0
 40
0.5
 50
0.0
 51
180.0
  0
ARC
  5
2A5
  8
回08-記事
  6
CONTINUOUS
 62
     7
 10
580.5126700170608
 20
-72.83196710905007
 30
0.0
 40
0.5
 50
0.0
 51
180.0
  0
ARC
  5
2A6
  8
回08-記事
  6
CONTINUOUS
 62
     7
 10
564.5126700170608
 20
-72.83196710905007
 30
0.0
 40
0.5
 50
0.0
 51
180.0
  0
ARC
  5
2A7
  8
回08-記事
  6
CONTINUOUS
 62
     7
 10
568.5126700170608
 20
-72.83196710905007
 30
0.0
 40
0.5
 50
0.0
 51
180.0
  0
LINE
  5
2A8
  8
回08-記事
  6
CONTINUOUS
 62
     7
 10
550.0126700170608
 20
-72.92234888348112
 30
0.0
 11
550.0126700170608
 21
-70.92234888348112
 31
0.0
  0
ARC
  5
2A9
  8
回08-記事
  6
CONTINUOUS
 62
     7
 10
552.5126700170608
 20
-72.83196710905007
 30
0.0
 40
0.5
 50
0.0
 51
180.0
  0
ARC
  5
2AA
  8
回08-記事
  6
CONTINUOUS
 62
     7
 10
560.5126700170607
 20
-72.83196710905007
 30
0.0
 40
0.5
 50
0.0
 51
180.0
  0
ARC
  5
2AB
  8
回08-記事
  6
CONTINUOUS
 62
     7
 10
556.5126700170607
 20
-72.83196710905007
 30
0.0
 40
0.5
 50
0.0
 51
180.0
  0
LINE
  5
2AC
  8
回08-記事
  6
CONTINUOUS
 62
     7
 10
546.5126700170611
 20
-70.92234888348112
 30
0.0
 11
546.5126700170611
 21
-66.92234888348114
 31
0.0
  0
LINE
  5
2AD
  8
回08-記事
  6
CONTINUOUS
 62
     7
 10
525.7273405165499
 20
-73.92234888348112
 30
0.0
 11
525.7273405165499
 21
-72.92234888348112
 31
0.0
  0
LINE
  5
2AE
  8
回08-記事
  6
CONTINUOUS
 62
     7
 10
499.7273405165499
 20
-73.92234888348112
 30
0.0
 11
499.7273405165499
 21
-72.92234888348112
 31
0.0
  0
LINE
  5
2AF
  8
回08-記事
  6
CONTINUOUS
 62
     7
 10
499.7273405165499
 20
-73.92234888348112
 30
0.0
 11
525.7273405165499
 21
-73.92234888348112
 31
0.0
  0
LINE
  5
2B0
  8
回08-記事
  6
CONTINUOUS
 62
     7
 10
476.0126700170611
 20
-75.92234888348112
 30
0.0
 11
476.0126700170611
 21
-72.92234888348112
 31
0.0
  0
LINE
  5
2B1
  8
回08-記事
  6
CONTINUOUS
 62
     7
 10
466.0126700170607
 20
-75.92234888348112
 30
0.0
 11
466.0126700170607
 21
-70.92234888348112
 31
0.0
  0
LINE
  5
2B2
  8
回08-記事
  6
CONTINUOUS
 62
     7
 10
466.0126700170607
 20
-75.92234888348112
 30
0.0
 11
476.0126700170608
 21
-75.92234888348112
 31
0.0
  0
DIMENSION
  5
2B3
  8
回07-寸法
  6
CONTINUOUS
 62
     7
  2
*D66
 10
476.0126700170608
 20
-90.55144354827508
 30
0.0
 11
493.1180838748996
 21
-87.85047683023568
 31
0.0
 70
     0
  1
(<>)
  3
DMC
 13
466.0126700170607
 23
-75.92234888348112
 33
0.0
 14
476.0126700170608
 24
-75.92234888348112
 34
0.0
1001
ACAD
1000
DSTYLE
1002
{
1070
   140
1040
4.0
1070
   170
1070
     1
1070
   271
1070
     3
1070
   272
1070
     3
1070
   371
1070
     9
1070
   372
1070
     9
1002
}
  0
LINE
  5
2C4
  8
回08-記事
  6
CONTINUOUS
 62
     7
 10
471.0126700170607
 20
-70.92234888348112
 30
0.0
 11
471.0126700170607
 21
-69.92234888348114
 31
0.0
  0
LINE
  5
2C5
  8
回08-記事
  6
CONTINUOUS
 62
     7
 10
471.0126700170607
 20
-69.92234888348114
 30
0.0
 11
546.5126700170611
 21
-69.92234888348114
 31
0.0
  0
DIMENSION
  5
2C6
  8
回07-寸法
  6
CONTINUOUS
 62
     7
  2
*D55
 10
471.0126700170607
 20
-63.39220612963433
 30
0.0
 11
487.2714058432965
 21
-63.39220612963433
 31
0.0
 70
   128
  1
<>
  3
DMC
 13
466.0126700170607
 23
-70.92234888348112
 33
0.0
 14
471.0126700170607
 24
-69.92234888348114
 34
0.0
1001
ACAD
1000
DSTYLE
1002
{
1070
   140
1040
4.0
1070
   170
1070
     1
1070
   271
1070
     3
1070
   272
1070
     3
1070
   371
1070
     9
1070
   372
1070
     9
1002
}
  0
LINE
  5
2D7
  8
回08-記事
  6
CONTINUOUS
 62
     7
 10
466.0126700170607
 20
-70.92234888348112
 30
0.0
 11
700.5144344399004
 21
-70.92234888348112
 31
0.0
  0
LINE
  5
2D8
  8
回08-記事
  6
CONTINUOUS
 62
     7
 10
466.0126700170607
 20
-72.92234888348112
 30
0.0
 11
701.0126700170607
 21
-72.92234888348112
 31
0.0
  0
LINE
  5
2D9
  8
回08-記事
  6
CONTINUOUS
 62
     7
 10
546.5126700170608
 20
-66.92234888348114
 30
0.0
 11
700.5144344399004
 21
-66.92234888348114
 31
0.0
  0
LINE
  5
2DA
  8
回08-記事
  6
CONTINUOUS
 62
     7
 10
546.0126700170608
 20
-78.92234888348112
 30
0.0
 11
701.0126700170607
 21
-78.92234888348112
 31
0.0
  0
LINE
  5
2DB
  8
回07-寸法
  6
CENTER2
 62
     1
 10
625.0144344399005
 20
-22.15562881768423
 30
0.0
 11
625.0144344399005
 21
90.84437118231576
 31
0.0
  0
DIMENSION
  5
2DC
  8
回07-寸法
  6
CONTINUOUS
 62
     7
  2
*D44
 10
736.5419313806633
 20
-15.65562881768423
 30
0.0
 11
736.5419313806633
 21
34.34437118231576
 31
0.0
 70
   128
  1
<> {\H0.75x;(ACTIVE AREA)}
  3
DMC
 13
691.5144344399005
 23
84.34437118231576
 33
0.0
 14
691.5144344399005
 24
-15.65562881768423
 34
0.0
 50
90.0
1001
ACAD
1000
DSTYLE
1002
{
1070
   140
1040
4.0
1070
   170
1070
     1
1070
   271
1070
     3
1070
   272
1070
     3
1070
   371
1070
     9
1070
   372
1070
     9
1002
}
  0
DIMENSION
  5
2EB
  8
回07-寸法
  6
CONTINUOUS
 62
     7
  2
*D33
 10
745.5500501408306
 20
-17.65562881768422
 30
0.0
 11
745.5500501408305
 21
34.3443711823157
 31
0.0
 70
   128
  1
<> {\H0.75x;(VIEWING AREA)}
  3
DMC
 13
694.5144344399003
 23
86.34437118231565
 33
0.0
 14
694.5144344399003
 24
-17.65562881768423
 34
0.0
 50
90.0
1001
ACAD
1000
DSTYLE
1002
{
1070
   140
1040
4.0
1070
   170
1070
     1
1070
   271
1070
     3
1070
   272
1070
     3
1070
   371
1070
     9
1070
   372
1070
     9
1002
}
  0
DIMENSION
  5
2FA
  8
回07-寸法
  6
CONTINUOUS
 62
     7
  2
*D22
 10
762.2296195284907
 20
92.8443711823157
 30
0.0
 11
762.2296195284907
 21
34.01316291332936
 31
0.0
 70
   128
  3
DMC
 13
701.0144344399003
 23
-24.15562881768435
 33
0.0
 14
701.0144344399003
 24
92.84437118231563
 34
0.0
 50
90.0
1001
ACAD
1000
DSTYLE
1002
{
1070
    47
1040
0.3
1070
   147
1040
0.5
1070
    48
1040
0.3
1070
    72
1070
     0
1070
    71
1070
     1
1070
   140
1040
4.0
1070
   170
1070
     1
1070
   271
1070
     3
1070
   272
1070
     3
1070
   371
1070
     9
1070
   372
1070
     9
1002
}
  0
DIMENSION
  5
309
  8
回07-寸法
  6
CONTINUOUS
 62
     5
  2
*D11
 10
709.8128957221248
 20
-16.15562881768411
 30
0.0
 11
709.8128957221248
 21
2.601138504614363
 31
0.0
 70
   128
  1
(<>)
  3
DMC
 13
701.0144344399003
 23
-18.15562881768412
 33
0.0
 14
701.0144344399003
 24
-16.15562881768411
 34
0.0
 50
90.0
1001
ACAD
1000
DSTYLE
1002
{
1070
   140
1040
4.0
1070
   170
1070
     1
1070
   271
1070
     3
1070
   272
1070
     3
1070
   371
1070
     9
1070
   372
1070
     9
1002
}
  0
TEXT
  5
31A
  8
回08-記事
  6
CONTINUOUS
 62
     7
 10
797.9653638451082
 20
87.31957581724307
 30
0.0
 40
4.799999999999999
  1
4
  0
TEXT
  5
31B
  8
回08-記事
  6
CONTINUOUS
 62
     7
 10
798.46807317475
 20
73.35476643741779
 30
0.0
 40
4.799999999999999
  1
3
  0
LINE
  5
31C
  8
回08-記事
  6
CONTINUOUS
 62
     7
 10
803.1160552802028
 20
75.48443554237862
 30
0.0
 11
848.2360552802026
 21
75.48443554237862
 31
0.0
  0
LINE
  5
31D
  8
回08-記事
  6
CONTINUOUS
 62
     7
 10
828.0760552802025
 20
52.44443554237867
 30
0.0
 11
831.9160552802024
 21
54.3644355423785
 31
0.0
  0
LINE
  5
31E
  8
回08-記事
  6
CONTINUOUS
 62
     7
 10
828.0760552802025
 20
52.44443554237867
 30
0.0
 11
831.9160552802024
 21
50.5244355423786
 31
0.0
  0
LINE
  5
31F
  8
回08-記事
  6
CONTINUOUS
 62
     7
 10
828.0760552802025
 20
56.28443554237859
 30
0.0
 11
831.9160552802024
 21
54.3644355423785
 31
0.0
  0
LINE
  5
320
  8
回08-記事
  6
CONTINUOUS
 62
     7
 10
829.9960552802026
 20
57.24443554237861
 30
0.0
 11
829.9960552802026
 21
61.08443554237855
 31
0.0
  0
LINE
  5
321
  8
回08-記事
  6
CONTINUOUS
 62
     7
 10
828.0760552802025
 20
56.28443554237859
 30
0.0
 11
829.9960552802026
 21
57.24443554237861
 31
0.0
  0
TEXT
  5
322
  8
回08-記事
  6
CONTINUOUS
 62
     7
 10
830.8526282399773
 20
57.10230214389165
 30
0.0
 40
4.799999999999999
  1
YU
  0
LINE
  5
323
  8
回08-記事
  6
CONTINUOUS
 62
     7
 10
845.3560552802024
 20
46.68443554237845
 30
0.0
 11
848.2360552802026
 21
46.68443554237845
 31
0.0
  0
LINE
  5
324
  8
回08-記事
  6
CONTINUOUS
 62
     7
 10
844.3960552802025
 20
44.76443554237859
 30
0.0
 11
845.3560552802024
 21
46.68443554237845
 31
0.0
  0
LINE
  5
325
  8
回08-記事
  6
CONTINUOUS
 62
     7
 10
842.4760552802027
 20
48.60443554237853
 30
0.0
 11
844.3960552802025
 21
44.76443554237859
 31
0.0
  0
TEXT
  5
326
  8
回08-記事
  6
CONTINUOUS
 62
     7
 10
845.827454175545
 20
40.96659142768229
 30
0.0
 40
4.799999999999999
  1
XR
  0
LINE
  5
327
  8
回08-記事
  6
CONTINUOUS
 62
     7
 10
828.0760552802025
 20
37.08443554237855
 30
0.0
 11
831.9160552802024
 21
39.00443554237862
 31
0.0
  0
LINE
  5
328
  8
回08-記事
  6
CONTINUOUS
 62
     7
 10
828.0760552802025
 20
37.08443554237855
 30
0.0
 11
829.9960552802026
 21
36.12443554237851
 31
0.0
  0
LINE
  5
329
  8
回08-記事
  6
CONTINUOUS
 62
     7
 10
828.0760552802025
 20
44.76443554237859
 30
0.0
 11
831.9160552802024
 21
46.68443554237845
 31
0.0
  0
LINE
  5
32A
  8
回08-記事
  6
CONTINUOUS
 62
     7
 10
829.0360552802026
 20
44.76443554237859
 30
0.0
 11
830.9560552802027
 21
48.60443554237853
 31
0.0
  0
LINE
  5
32B
  8
回08-記事
  6
CONTINUOUS
 62
     7
 10
828.0760552802025
 20
44.76443554237859
 30
0.0
 11
831.9160552802024
 21
42.84443554237853
 31
0.0
  0
LINE
  5
32C
  8
回08-記事
  6
CONTINUOUS
 62
     7
 10
828.0760552802025
 20
40.92443554237869
 30
0.0
 11
831.9160552802024
 21
39.00443554237862
 31
0.0
  0
LINE
  5
32D
  8
回08-記事
  6
CONTINUOUS
 62
     7
 10
828.0760552802025
 20
40.92443554237869
 30
0.0
 11
831.9160552802024
 21
42.84443554237853
 31
0.0
  0
LINE
  5
32E
  8
回08-記事
  6
CONTINUOUS
 62
     7
 10
828.0760552802025
 20
48.60443554237853
 30
0.0
 11
831.9160552802024
 21
46.68443554237845
 31
0.0
  0
LINE
  5
32F
  8
回08-記事
  6
CONTINUOUS
 62
     7
 10
827.1160552802026
 20
48.60443554237853
 30
0.0
 11
829.0360552802026
 21
44.76443554237859
 31
0.0
  0
LINE
  5
330
  8
回08-記事
  6
CONTINUOUS
 62
     7
 10
838.6360552802026
 20
48.60443554237853
 30
0.0
 11
840.5560552802025
 21
44.76443554237859
 31
0.0
  0
LINE
  5
331
  8
回08-記事
  6
CONTINUOUS
 62
     7
 10
834.7960552802026
 20
48.60443554237853
 30
0.0
 11
836.7160552802026
 21
44.76443554237859
 31
0.0
  0
LINE
  5
332
  8
回08-記事
  6
CONTINUOUS
 62
     7
 10
832.8760552802025
 20
44.76443554237859
 30
0.0
 11
834.7960552802026
 21
48.60443554237853
 31
0.0
  0
LINE
  5
333
  8
回08-記事
  6
CONTINUOUS
 62
     7
 10
830.9560552802027
 20
48.60443554237853
 30
0.0
 11
832.8760552802025
 21
44.76443554237859
 31
0.0
  0
LINE
  5
334
  8
回08-記事
  6
CONTINUOUS
 62
     7
 10
836.7160552802026
 20
44.76443554237859
 30
0.0
 11
838.6360552802026
 21
48.60443554237853
 31
0.0
  0
LINE
  5
335
  8
回08-記事
  6
CONTINUOUS
 62
     7
 10
840.5560552802025
 20
44.76443554237859
 30
0.0
 11
842.4760552802027
 21
48.60443554237853
 31
0.0
  0
LINE
  5
336
  8
回08-記事
  6
CONTINUOUS
 62
     7
 10
828.0760552802025
 20
48.60443554237853
 30
0.0
 11
831.9160552802024
 21
50.5244355423786
 31
0.0
  0
TEXT
  5
337
  8
回08-記事
  6
CONTINUOUS
 62
     7
 10
812.2498826228062
 20
40.06167483256515
 30
0.0
 40
4.799999999999999
  1
XL
  0
LINE
  5
338
  8
回08-記事
  6
CONTINUOUS
 62
     7
 10
821.3560552802023
 20
44.76443554237859
 30
0.0
 11
823.2760552802027
 21
48.60443554237853
 31
0.0
  0
LINE
  5
339
  8
回08-記事
  6
CONTINUOUS
 62
     7
 10
819.4360552802027
 20
48.60443554237853
 30
0.0
 11
821.3560552802023
 21
44.76443554237859
 31
0.0
  0
LINE
  5
33A
  8
回08-記事
  6
CONTINUOUS
 62
     7
 10
823.2760552802027
 20
48.60443554237853
 30
0.0
 11
825.1960552802026
 21
44.76443554237859
 31
0.0
  0
LINE
  5
33B
  8
回08-記事
  6
CONTINUOUS
 62
     7
 10
818.4760552802028
 20
46.68443554237845
 30
0.0
 11
819.4360552802027
 21
48.60443554237853
 31
0.0
  0
LINE
  5
33C
  8
回08-記事
  6
CONTINUOUS
 62
     7
 10
803.1160552802028
 20
46.68443554237845
 30
0.0
 11
818.4760552802028
 21
46.68443554237845
 31
0.0
  0
TEXT
  5
33D
  8
回08-記事
  6
CONTINUOUS
 62
     7
 10
798.8621673818777
 20
44.61169850355442
 30
0.0
 40
4.799999999999999
  1
1
  0
LINE
  5
33E
  8
回08-記事
  6
CONTINUOUS
 62
     7
 10
803.1160552802028
 20
61.08443554237855
 30
0.0
 11
829.9960552802026
 21
61.08443554237855
 31
0.0
  0
LINE
  5
33F
  8
回08-記事
  6
CONTINUOUS
 62
     7
 10
825.1960552802026
 20
44.76443554237859
 30
0.0
 11
827.1160552802026
 21
48.60443554237853
 31
0.0
  0
TEXT
  5
340
  8
回08-記事
  6
CONTINUOUS
 62
     7
 10
798.6651185802614
 20
59.08489424090774
 30
0.0
 40
4.799999999999999
  1
2
  0
LINE
  5
341
  8
回08-記事
  6
CONTINUOUS
 62
     7
 10
848.2360552802026
 20
46.68443554237845
 30
0.0
 11
848.2360552802026
 21
75.48443554237862
 31
0.0
  0
LINE
  5
342
  8
回08-記事
  6
CONTINUOUS
 62
     7
 10
803.1160552802028
 20
89.88443554237873
 30
0.0
 11
858.7960552802028
 21
89.88443554237873
 31
0.0
  0
LINE
  5
343
  8
回08-記事
  6
CONTINUOUS
 62
     7
 10
829.9960552802026
 20
32.28443554237859
 30
0.0
 11
858.7960552802028
 21
32.28443554237859
 31
0.0
  0
LINE
  5
344
  8
回08-記事
  6
CONTINUOUS
 62
     7
 10
829.9960552802026
 20
32.28443554237859
 30
0.0
 11
829.9960552802026
 21
36.12443554237851
 31
0.0
  0
TEXT
  5
345
  8
回08-記事
  6
CONTINUOUS
 62
     7
 10
821.0134133873062
 20
30.41961561310043
 30
0.0
 40
4.799999999999999
  1
YD
  0
LINE
  5
346
  8
回08-記事
  6
CONTINUOUS
 62
     7
 10
858.7960552802028
 20
32.28443554237859
 30
0.0
 11
858.7960552802028
 21
89.88443554237873
 31
0.0
  0
TEXT
  5
347
  8
回08-記事
  6
CONTINUOUS
 62
     7
 10
805.2485625469754
 20
99.83130549640149
 30
0.0
 40
4.961249999999998
  1
PIN ASSIGNMENT
  0
TEXT
  5
348
  8
回91-枠英2
 10
863.0189909950637
 20
208.235608214977
 30
0.0
 40
4.0
  1
H
  0
LINE
  5
349
  8
回91-枠英2
 10
829.2896056894115
 20
212.8631850889258
 30
0.0
 11
829.2896056894115
 21
207.8631850889258
 31
0.0
  0
LINE
  5
34A
  8
回91-枠英2
 10
904.2896056894116
 20
130.8631850889258
 30
0.0
 11
899.2896056894114
 21
130.8631850889258
 31
0.0
  0
TEXT
  5
34B
  8
回91-枠英2
 10
900.3925279897687
 20
90.15187238478509
 30
0.0
 40
4.0
  1
2
  0
LINE
  5
34C
  8
回91-枠英2
 10
904.2896056894116
 20
53.8631850889258
 30
0.0
 11
899.2896056894114
 21
53.8631850889258
 31
0.0
  0
TEXT
  5
34D
  8
回91-枠英2
 10
900.6940266930707
 20
167.1518723847851
 30
0.0
 40
4.0
  1
1
  0
TEXT
  5
34E
  8
回91-枠英2
 10
900.3870471455682
 20
13.15187238478509
 30
0.0
 40
4.0
  1
3
  0
LINE
  5
34F
  8
回91-枠英2
 10
904.2896056894116
 20
-23.1368149110742
 30
0.0
 11
899.2896056894114
 21
-23.1368149110742
 31
0.0
  0
TEXT
  5
350
  8
回91-枠英2
 10
900.313955025487
 20
-63.84812761521491
 30
0.0
 40
4.0
  1
4
  0
LINE
  5
351
  8
回91-枠英2
 10
904.2896056894116
 20
-100.1368149110742
 30
0.0
 11
899.2896056894114
 21
-100.1368149110742
 31
0.0
  0
TEXT
  5
352
  8
回91-枠英2
 10
900.313955025487
 20
-140.8481276152149
 30
0.0
 40
4.0
  1
5
  0
TEXT
  5
353
  8
回91-枠英2
 10
863.0189909950637
 20
-181.764391785023
 30
0.0
 40
4.0
  1
H
  0
LINE
  5
354
  8
回91-枠英2
 10
829.2896056894115
 20
-177.1368149110742
 30
0.0
 11
829.2896056894115
 21
-182.1368149110741
 31
0.0
  0
LINE
  5
355
  8
回91-枠英2
 10
904.2896056894116
 20
-182.1368149110741
 30
0.0
 11
904.2896056894116
 21
212.8631850889258
 31
0.0
  0
LINE
  5
356
  8
回91-枠英2
 10
899.2896056894114
 20
207.8631850889258
 30
0.0
 11
899.2896056894114
 21
-177.1368149110742
 31
0.0
  0
TEXT
  5
357
  8
回91-枠英2
 10
793.0189909950637
 20
208.235608214977
 30
0.0
 40
4.0
  1
G
  0
LINE
  5
358
  8
回91-枠英2
 10
759.2896056894113
 20
212.8631850889258
 30
0.0
 11
759.2896056894113
 21
207.8631850889258
 31
0.0
  0
TEXT
  5
359
  8
回91-枠英2
 10
723.0189909950637
 20
208.235608214977
 30
0.0
 40
4.0
  1
F
  0
LINE
  5
35A
  8
回91-枠英2
 10
689.2896056894113
 20
212.8631850889258
 30
0.0
 11
689.2896056894113
 21
207.8631850889258
 31
0.0
  0
TEXT
  5
35B
  8
回91-枠英2
 10
653.0189909950637
 20
208.235608214977
 30
0.0
 40
4.0
  1
E
  0
LINE
  5
35C
  8
回91-枠英2
 10
619.2896056894113
 20
212.8631850889258
 30
0.0
 11
619.2896056894113
 21
207.8631850889258
 31
0.0
  0
TEXT
  5
35D
  8
回91-枠英2
 10
583.0189909950639
 20
208.235608214977
 30
0.0
 40
4.0
  1
D
  0
LINE
  5
35E
  8
回91-枠英2
 10
549.2896056894115
 20
212.8631850889258
 30
0.0
 11
549.2896056894115
 21
207.8631850889258
 31
0.0
  0
TEXT
  5
35F
  8
回91-枠英2
 10
513.0189909950637
 20
208.235608214977
 30
0.0
 40
4.0
  1
C
  0
LINE
  5
360
  8
回91-枠英2
 10
479.2896056894115
 20
212.8631850889258
 30
0.0
 11
479.2896056894115
 21
207.8631850889258
 31
0.0
  0
TEXT
  5
361
  8
回91-枠英2
 10
443.0189909950637
 20
208.235608214977
 30
0.0
 40
4.0
  1
B
  0
LINE
  5
362
  8
回91-枠英2
 10
409.2896056894113
 20
212.8631850889258
 30
0.0
 11
409.2896056894113
 21
207.8631850889258
 31
0.0
  0
TEXT
  5
363
  8
回91-枠英2
 10
373.0189909950639
 20
208.235608214977
 30
0.0
 40
4.0
  1
A
  0
LINE
  5
364
  8
回91-枠英2
 10
339.2896056894115
 20
130.8631850889258
 30
0.0
 11
334.2896056894115
 21
130.8631850889258
 31
0.0
  0
TEXT
  5
365
  8
回91-枠英2
 10
335.392527989769
 20
90.15187238478509
 30
0.0
 40
4.0
  1
2
  0
LINE
  5
366
  8
回91-枠英2
 10
339.2896056894115
 20
53.8631850889258
 30
0.0
 11
334.2896056894115
 21
53.8631850889258
 31
0.0
  0
TEXT
  5
367
  8
回91-枠英2
 10
335.6940266930708
 20
167.1518723847851
 30
0.0
 40
4.0
  1
1
  0
TEXT
  5
368
  8
回91-枠英2
 10
793.0189909950637
 20
-181.764391785023
 30
0.0
 40
4.0
  1
G
  0
LINE
  5
369
  8
回91-枠英2
 10
759.2896056894113
 20
-177.1368149110742
 30
0.0
 11
759.2896056894113
 21
-182.1368149110741
 31
0.0
  0
TEXT
  5
36A
  8
回91-枠英2
 10
723.0189909950637
 20
-181.764391785023
 30
0.0
 40
4.0
  1
F
  0
LINE
  5
36B
  8
回91-枠英2
 10
689.2896056894113
 20
-177.1368149110742
 30
0.0
 11
689.2896056894113
 21
-182.1368149110741
 31
0.0
  0
TEXT
  5
36C
  8
回91-枠英2
 10
653.0189909950637
 20
-181.764391785023
 30
0.0
 40
4.0
  1
E
  0
LINE
  5
36D
  8
回91-枠英2
 10
619.2896056894113
 20
-177.1368149110742
 30
0.0
 11
619.2896056894113
 21
-182.1368149110741
 31
0.0
  0
TEXT
  5
36E
  8
回91-枠英2
 10
583.0189909950639
 20
-181.764391785023
 30
0.0
 40
4.0
  1
D
  0
LINE
  5
36F
  8
回91-枠英2
 10
549.2896056894115
 20
-177.1368149110742
 30
0.0
 11
549.2896056894115
 21
-182.1368149110741
 31
0.0
  0
TEXT
  5
370
  8
回91-枠英2
 10
513.0189909950637
 20
-181.764391785023
 30
0.0
 40
4.0
  1
C
  0
LINE
  5
371
  8
回91-枠英2
 10
479.2896056894115
 20
-177.1368149110742
 30
0.0
 11
479.2896056894115
 21
-182.1368149110741
 31
0.0
  0
TEXT
  5
372
  8
回91-枠英2
 10
443.0189909950637
 20
-181.764391785023
 30
0.0
 40
4.0
  1
B
  0
TEXT
  5
373
  8
回91-枠英2
 10
335.3870471455682
 20
13.15187238478509
 30
0.0
 40
4.0
  1
3
  0
LINE
  5
374
  8
回91-枠英2
 10
339.2896056894115
 20
-23.1368149110742
 30
0.0
 11
334.2896056894115
 21
-23.1368149110742
 31
0.0
  0
TEXT
  5
375
  8
回91-枠英2
 10
335.3139550254871
 20
-63.84812761521491
 30
0.0
 40
4.0
  1
4
  0
LINE
  5
376
  8
回91-枠英2
 10
409.2896056894113
 20
-177.1368149110742
 30
0.0
 11
409.2896056894113
 21
-182.1368149110741
 31
0.0
  0
TEXT
  5
377
  8
回91-枠英2
 10
373.0189909950639
 20
-181.764391785023
 30
0.0
 40
4.0
  1
A
  0
LINE
  5
378
  8
回91-枠英2
 10
339.2896056894115
 20
-100.1368149110742
 30
0.0
 11
334.2896056894115
 21
-100.1368149110742
 31
0.0
  0
TEXT
  5
379
  8
回91-枠英2
 10
335.3139550254871
 20
-140.8481276152149
 30
0.0
 40
4.0
  1
5
  0
LINE
  5
37A
  8
回91-枠英2
 10
334.2896056894115
 20
-182.1368149110741
 30
0.0
 11
334.2896056894115
 21
212.8631850889258
 31
0.0
  0
LINE
  5
37B
  8
回91-枠英2
 10
339.2896056894115
 20
207.8631850889258
 30
0.0
 11
339.2896056894115
 21
-177.1368149110742
 31
0.0
  0
LINE
  5
37C
  8
回91-枠英2
 10
339.2896056894115
 20
-177.1368149110742
 30
0.0
 11
899.2896056894114
 21
-177.1368149110742
 31
0.0
  0
LINE
  5
37D
  8
回91-枠英2
 10
904.2896056894116
 20
-182.1368149110741
 30
0.0
 11
334.2896056894115
 21
-182.1368149110741
 31
0.0
  0
LINE
  5
37E
  8
回91-枠英2
 10
904.2896056894116
 20
212.8631850889258
 30
0.0
 11
334.2896056894115
 21
212.8631850889258
 31
0.0
  0
LINE
  5
37F
  8
回91-枠英2
 10
339.2896056894115
 20
207.8631850889258
 30
0.0
 11
899.2896056894114
 21
207.8631850889258
 31
0.0
  0
ENDSEC
  0
EOF
