  0
SECTION
  2
HEADER
  9
$ACADVER
  1
AC1009
  9
$INSBASE
 10
0.0
 20
0.0
 30
0.0
  9
$EXTMIN
 10
-7.564989036740597
 20
2.641488739768206
 30
0.0
  9
$EXTMAX
 10
505.4350109632593
 20
358.1414887397682
 30
0.0
  9
$LIMMIN
 10
0.0
 20
0.0
  9
$LIMMAX
 10
3000.0
 20
2500.0
  9
$ORTHOMODE
 70
     0
  9
$REGENMODE
 70
     1
  9
$FILLMODE
 70
     1
  9
$QTEXTMODE
 70
     0
  9
$MIRRTEXT
 70
     1
  9
$DRAGMODE
 70
     2
  9
$LTSCALE
 40
10.0
  9
$OSMODE
 70
    37
  9
$ATTMODE
 70
     1
  9
$TEXTSIZE
 40
3.0
  9
$TRACEWID
 40
1.0
  9
$TEXTSTYLE
  7
STANDARD
  9
$CLAYER
  8
回07-寸法
  9
$CELTYPE
  6
CONTINUOUS
  9
$CECOLOR
 62
     7
  9
$DIMSCALE
 40
1.0
  9
$DIMASZ
 40
2.0
  9
$DIMEXO
 40
0.0
  9
$DIMDLI
 40
0.0
  9
$DIMRND
 40
0.0
  9
$DIMDLE
 40
0.0
  9
$DIMEXE
 40
1.0
  9
$DIMTP
 40
0.2
  9
$DIMTM
 40
0.2
  9
$DIMTXT
 40
3.0
  9
$DIMCEN
 40
2.0
  9
$DIMTSZ
 40
0.0
  9
$DIMTOL
 70
     0
  9
$DIMLIM
 70
     0
  9
$DIMTIH
 70
     0
  9
$DIMTOH
 70
     0
  9
$DIMSE1
 70
     0
  9
$DIMSE2
 70
     0
  9
$DIMTAD
 70
     3
  9
$DIMZIN
 70
     8
  9
$DIMBLK
  1
OPEN
  9
$DIMASO
 70
     1
  9
$DIMSHO
 70
     1
  9
$DIMPOST
  1

  9
$DIMAPOST
  1

  9
$DIMALT
 70
     1
  9
$DIMALTD
 70
     3
  9
$DIMALTF
 40
0.03937007874016
  9
$DIMLFAC
 40
1.0
  9
$DIMTOFL
 70
     1
  9
$DIMTVP
 40
0.0
  9
$DIMTIX
 70
     0
  9
$DIMSOXD
 70
     0
  9
$DIMSAH
 70
     0
  9
$DIMBLK1
  1

  9
$DIMBLK2
  1

  9
$DIMSTYLE
  2
DMC
  9
$DIMCLRD
 70
     5
  9
$DIMCLRE
 70
     5
  9
$DIMCLRT
 70
     5
  9
$DIMTFAC
 40
0.7
  9
$DIMGAP
 40
0.5
  9
$LUNITS
 70
     2
  9
$LUPREC
 70
     4
  9
$SKETCHINC
 40
1.0
  9
$FILLETRAD
 40
1.0
  9
$AUNITS
 70
     0
  9
$AUPREC
 70
     0
  9
$MENU
  1
.
  9
$ELEVATION
 40
0.0
  9
$PELEVATION
 40
0.0
  9
$THICKNESS
 40
0.0
  9
$LIMCHECK
 70
     0
  9
$BLIPMODE
 70
     0
  9
$CHAMFERA
 40
10.0
  9
$CHAMFERB
 40
10.0
  9
$SKPOLY
 70
     0
  9
$TDCREATE
 40
2451810.404221065
  9
$TDUPDATE
 40
2460221.412689780
  9
$TDINDWG
 40
1.945949815
  9
$TDUSRTIMER
 40
1.945948137
  9
$USRTIMER
 70
     1
  9
$ANGBASE
 50
0.0
  9
$ANGDIR
 70
     0
  9
$PDMODE
 70
     0
  9
$PDSIZE
 40
0.0
  9
$PLINEWID
 40
1.0
  9
$COORDS
 70
     0
  9
$SPLFRAME
 70
     0
  9
$SPLINETYPE
 70
     6
  9
$SPLINESEGS
 70
     8
  9
$ATTDIA
 70
     1
  9
$ATTREQ
 70
     1
  9
$HANDLING
 70
     1
  9
$HANDSEED
  5
9DC
  9
$SURFTAB1
 70
     6
  9
$SURFTAB2
 70
     6
  9
$SURFTYPE
 70
     6
  9
$SURFU
 70
     6
  9
$SURFV
 70
     6
  9
$UCSNAME
  2

  9
$UCSORG
 10
0.0
 20
0.0
 30
0.0
  9
$UCSXDIR
 10
1.0
 20
0.0
 30
0.0
  9
$UCSYDIR
 10
0.0
 20
1.0
 30
0.0
  9
$PUCSNAME
  2

  9
$PUCSORG
 10
0.0
 20
0.0
 30
0.0
  9
$PUCSXDIR
 10
1.0
 20
0.0
 30
0.0
  9
$PUCSYDIR
 10
0.0
 20
1.0
 30
0.0
  9
$USERI1
 70
     0
  9
$USERI2
 70
     0
  9
$USERI3
 70
     0
  9
$USERI4
 70
     0
  9
$USERI5
 70
     0
  9
$USERR1
 40
0.0
  9
$USERR2
 40
0.0
  9
$USERR3
 40
0.0
  9
$USERR4
 40
0.0
  9
$USERR5
 40
0.0
  9
$WORLDVIEW
 70
     1
  9
$SHADEDGE
 70
     3
  9
$SHADEDIF
 70
    70
  9
$TILEMODE
 70
     1
  9
$MAXACTVP
 70
    64
  9
$PLIMCHECK
 70
     0
  9
$PEXTMIN
 10
29.06606628894805
 20
20.36233246326446
 30
0.0
  9
$PEXTMAX
 10
261.5945966005325
 20
183.2609921693802
 30
0.0
  9
$PLIMMIN
 10
-3.17498779296875
 20
-3.174999952316283
  9
$PLIMMAX
 10
293.8356628417969
 20
206.7983276844024
  9
$UNITMODE
 70
     0
  9
$VISRETAIN
 70
     1
  9
$PLINEGEN
 70
     0
  9
$PSLTSCALE
 70
     1
  0
ENDSEC
  0
SECTION
  2
TABLES
  0
TABLE
  2
VPORT
 70
     1
  0
VPORT
  2
*ACTIVE
 70
     0
 10
0.0
 20
0.0
 11
1.0
 21
1.0
 12
254.7226183584529
 22
108.5778524731483
 13
0.0
 23
0.0
 14
10.0
 24
10.0
 15
10.0
 25
10.0
 16
0.0
 26
0.0
 36
1.0
 17
0.0
 27
0.0
 37
0.0
 40
575.7125601131669
 41
1.002570694087403
 42
50.0
 43
0.0
 44
0.0
 50
0.0
 51
0.0
 71
     0
 72
   500
 73
     1
 74
     1
 75
     0
 76
     0
 77
     0
 78
     0
  0
ENDTAB
  0
TABLE
  2
LTYPE
 70
     4
  0
LTYPE
  2
CONTINUOUS
 70
     0
  3
Solid line
 72
    65
 73
     0
 40
0.0
  0
LTYPE
  2
CENTER2
 70
     0
  3
Center (.5x) ___ _ ___ _ ___ _ ___ _ ___ _ ___
 72
    65
 73
     4
 40
28.575
 49
19.05
 49
-3.174999999999998
 49
3.174999999999998
 49
-3.174999999999998
  0
LTYPE
  2
PHANTOM2
 70
     0
  3
Phantom (.5x) ___ _ _ ___ _ _ ___ _ _ ___ _ _
 72
    65
 73
     6
 40
31.75
 49
15.875
 49
-3.174999999999998
 49
3.174999999999998
 49
-3.174999999999998
 49
3.174999999999998
 49
-3.174999999999998
  0
LTYPE
  2
DASHED2
 70
     0
  3
Dashed (.5x) _ _ _ _ _ _ _ _ _ _ _ _ _ _ _ _ _
 72
    65
 73
     2
 40
9.524999999999996
 49
6.349999999999998
 49
-3.174999999999998
  0
ENDTAB
  0
TABLE
  2
LAYER
 70
     9
  0
LAYER
  2
0
 70
     0
 62
     7
  6
CONTINUOUS
  0
LAYER
  2
DEFPOINTS
 70
     0
 62
     7
  6
CONTINUOUS
  0
LAYER
  2
回04-下接
 70
     0
 62
     7
  6
CONTINUOUS
  0
LAYER
  2
回07-寸法
 70
     0
 62
     7
  6
CONTINUOUS
  0
LAYER
  2
回05-ﾃｰﾙ
 70
     0
 62
     7
  6
CONTINUOUS
  0
LAYER
  2
回91-枠英2
 70
     0
 62
     7
  6
CONTINUOUS
  0
LAYER
  2
回08-記事
 70
     0
 62
     7
  6
CONTINUOUS
  0
LAYER
  2
版01-FER
 70
     0
 62
     7
  6
CONTINUOUS
  0
LAYER
  2
回03-記事
 70
     0
 62
     7
  6
CONTINUOUS
  0
ENDTAB
  0
TABLE
  2
STYLE
 70
     2
  0
STYLE
  2
STANDARD
 70
     0
 40
3.0
 41
1.0
 50
0.0
 71
     0
 42
3.0
  3
isocp.shx
  4
bigfont.shx
  0
STYLE
  2
ANNOTATIVE
 70
     0
 40
0.0
 41
1.0
 50
0.0
 71
     0
 42
0.2
  3
txt.shx
  4

  0
ENDTAB
  0
TABLE
  2
VIEW
 70
     0
  0
ENDTAB
  0
TABLE
  2
UCS
 70
     0
  0
ENDTAB
  0
TABLE
  2
APPID
 70
     4
  0
APPID
  2
ACAD
 70
     0
  0
APPID
  2
ACADANNOTATIVE
 70
     0
  0
APPID
  2
ACAD_PSEXT
 70
     0
  0
APPID
  2
ACAD_NAV_VCDISPLAY
 70
     0
  0
ENDTAB
  0
TABLE
  2
DIMSTYLE
 70
     1
  0
DIMSTYLE
  2
DMC
 70
     0
  3

  4

  5
OPEN
  6

  7

 40
1.0
 41
2.0
 42
0.0
 43
0.0
 44
1.0
 45
0.0
 46
0.0
 47
0.0
 48
0.0
140
3.0
141
2.0
142
0.0
143
0.03937007874016
144
1.0
145
0.0
146
0.7
147
0.5
 71
     0
 72
     0
 73
     0
 74
     0
 75
     0
 76
     0
 77
     3
 78
     8
170
     0
171
     3
172
     1
173
     0
174
     0
175
     0
176
     5
177
     5
178
     5
  0
ENDTAB
  0
ENDSEC
  0
SECTION
  2
BLOCKS
  0
BLOCK
  8
0
  2
$MODEL_SPACE
 70
     0
 10
0.0
 20
0.0
 30
0.0
  3
$MODEL_SPACE
  1

  0
ENDBLK
  8
0
  5
22
  0
BLOCK
 67
     1
  8
0
  2
$PAPER_SPACE
 70
     0
 10
0.0
 20
0.0
 30
0.0
  3
$PAPER_SPACE
  1

  0
ENDBLK
  5
28
 67
     1
  8
0
  0
BLOCK
  8
0
  2
_OPEN
 70
     0
 10
0.0
 20
0.0
 30
0.0
  3
_OPEN
  1

  0
LINE
  5
7AD
  8
0
  6
BYBLOCK
 62
     0
 10
-1.0
 20
0.166667
 30
0.0
 11
0.0
 21
0.0
 31
0.0
  0
LINE
  5
7AE
  8
0
  6
BYBLOCK
 62
     0
 10
-1.0
 20
-0.166667
 30
0.0
 11
0.0
 21
0.0
 31
0.0
  0
LINE
  5
7AF
  8
0
  6
BYBLOCK
 62
     0
 10
0.0
 20
0.0
 30
0.0
 11
-1.0
 21
0.0
 31
0.0
  0
LINE
  5
16
  8
0
  6
CONTINUOUS
 62
     0
 10
-1.0
 20
0.1666666666666666
 30
0.0
 11
0.0
 21
0.0
 31
0.0
  0
LINE
  5
17
  8
0
  6
CONTINUOUS
 62
     0
 10
-1.0
 20
-0.1666666666666666
 30
0.0
 11
0.0
 21
0.0
 31
0.0
  0
LINE
  5
18
  8
0
  6
CONTINUOUS
 62
     0
 10
0.0
 20
0.0
 30
0.0
 11
-1.0
 21
0.0
 31
0.0
  0
ENDBLK
  5
19
  8
0
  0
BLOCK
  8
0
  2
*D11
 70
     1
 10
0.0
 20
0.0
 30
0.0
  3
*D11
  1

  0
LINE
  5
38A
  8
回07-寸法
  6
CONTINUOUS
 62
     5
 10
325.2382109613137
 20
177.0618397579696
 30
0.0
 11
335.0747972785439
 21
177.0618397579696
 31
0.0
  0
LINE
  5
38B
  8
回07-寸法
  6
CONTINUOUS
 62
     5
 10
325.7382109613137
 20
172.0618397579696
 30
0.0
 11
335.0747972785439
 21
172.0618397579696
 31
0.0
  0
LINE
  5
38C
  8
回07-寸法
  6
CONTINUOUS
 62
     5
 10
334.0747972785439
 20
179.0618397579696
 30
0.0
 11
334.0747972785439
 21
181.0618397579697
 31
0.0
  0
LINE
  5
38D
  8
回07-寸法
  6
CONTINUOUS
 62
     5
 10
334.0747972785439
 20
170.0618397579695
 30
0.0
 11
334.0747972785439
 21
137.0611197579695
 31
0.0
  0
LINE
  5
38E
  8
回07-寸法
  6
CONTINUOUS
 62
     5
 10
334.0747972785439
 20
177.0618397579696
 30
0.0
 11
334.0747972785439
 21
172.0618397579696
 31
0.0
  0
INSERT
  5
38F
  8
回07-寸法
  6
CONTINUOUS
 62
     5
 66
     1
  2
_OPEN
 10
334.0747972785439
 20
177.0618397579696
 30
0.0
 41
2.0
 42
2.0
 43
2.0
 50
270.0
  0
SEQEND
  5
390
  8
回07-寸法
  6
CONTINUOUS
 62
     7
  0
INSERT
  5
391
  8
回07-寸法
  6
CONTINUOUS
 62
     5
 66
     1
  2
_OPEN
 10
334.0747972785439
 20
172.0618397579696
 30
0.0
 41
2.0
 42
2.0
 43
2.0
 50
90.0
  0
SEQEND
  5
392
  8
回07-寸法
  6
CONTINUOUS
 62
     7
  0
INSERT
  5
393
  8
回07-寸法
  6
CONTINUOUS
 62
     5
 66
     1
  2
*X8383
 10
0.0
 20
0.0
 30
0.0
  0
SEQEND
  5
6B5
  8
回07-寸法
  6
CONTINUOUS
 62
     7
  0
POINT
  5
394
  8
DEFPOINTS
  6
CONTINUOUS
 62
     0
 10
325.2382109613137
 20
177.0618397579696
 30
0.0
  0
POINT
  5
395
  8
DEFPOINTS
  6
CONTINUOUS
 62
     0
 10
325.7382109613137
 20
172.0618397579696
 30
0.0
  0
POINT
  5
396
  8
DEFPOINTS
  6
CONTINUOUS
 62
     0
 10
334.0747972785439
 20
172.0618397579696
 30
0.0
  0
ENDBLK
  5
397
  8
0
 62
     7
  0
BLOCK
  8
0
  2
*D22
 70
     1
 10
0.0
 20
0.0
 30
0.0
  3
*D22
  1

  0
LINE
  5
379
  8
回07-寸法
  6
CONTINUOUS
 62
     5
 10
80.73821096131359
 20
175.5618397579695
 30
0.0
 11
71.19199922057855
 21
175.5618397579695
 31
0.0
  0
LINE
  5
37A
  8
回07-寸法
  6
CONTINUOUS
 62
     5
 10
80.73821096131359
 20
172.5618397579696
 30
0.0
 11
71.19199922057855
 21
172.5618397579696
 31
0.0
  0
LINE
  5
37B
  8
回07-寸法
  6
CONTINUOUS
 62
     5
 10
72.19199922057852
 20
177.5618397579695
 30
0.0
 11
72.19199922057852
 21
179.5618397579695
 31
0.0
  0
LINE
  5
37C
  8
回07-寸法
  6
CONTINUOUS
 62
     5
 10
72.19199922057852
 20
170.5618397579696
 30
0.0
 11
72.19199922057852
 21
136.4586875532453
 31
0.0
  0
LINE
  5
37D
  8
回07-寸法
  6
CONTINUOUS
 62
     5
 10
72.19199922057852
 20
175.5618397579695
 30
0.0
 11
72.19199922057852
 21
172.5618397579696
 31
0.0
  0
INSERT
  5
37E
  8
回07-寸法
  6
CONTINUOUS
 62
     5
 66
     1
  2
_OPEN
 10
72.19199922057852
 20
175.5618397579695
 30
0.0
 41
2.0
 42
2.0
 43
2.0
 50
270.0
  0
SEQEND
  5
37F
  8
回07-寸法
  6
CONTINUOUS
 62
     7
  0
INSERT
  5
380
  8
回07-寸法
  6
CONTINUOUS
 62
     5
 66
     1
  2
_OPEN
 10
72.19199922057852
 20
172.5618397579696
 30
0.0
 41
2.0
 42
2.0
 43
2.0
 50
90.0
  0
SEQEND
  5
381
  8
回07-寸法
  6
CONTINUOUS
 62
     7
  0
INSERT
  5
382
  8
回07-寸法
  6
CONTINUOUS
 62
     5
 66
     1
  2
*X8484
 10
0.0
 20
0.0
 30
0.0
  0
SEQEND
  5
6BE
  8
回07-寸法
  6
CONTINUOUS
 62
     7
  0
POINT
  5
383
  8
DEFPOINTS
  6
CONTINUOUS
 62
     0
 10
80.73821096131359
 20
175.5618397579695
 30
0.0
  0
POINT
  5
384
  8
DEFPOINTS
  6
CONTINUOUS
 62
     0
 10
80.73821096131359
 20
172.5618397579696
 30
0.0
  0
POINT
  5
385
  8
DEFPOINTS
  6
CONTINUOUS
 62
     0
 10
72.19199922057852
 20
172.5618397579696
 30
0.0
  0
ENDBLK
  5
386
  8
0
 62
     7
  0
BLOCK
  8
0
  2
*D33
 70
     1
 10
0.0
 20
0.0
 30
0.0
  3
*D33
  1

  0
LINE
  5
34F
  8
回07-寸法
  6
CONTINUOUS
 62
     5
 10
325.7382109613137
 20
174.5618397579695
 30
0.0
 11
325.7382109613137
 21
182.3156608193993
 31
0.0
  0
LINE
  5
350
  8
回07-寸法
  6
CONTINUOUS
 62
     5
 10
325.2382109613137
 20
177.0618397579696
 30
0.0
 11
325.2382109613137
 21
182.3156608193993
 31
0.0
  0
LINE
  5
351
  8
回07-寸法
  6
CONTINUOUS
 62
     5
 10
327.7382109613137
 20
181.3156608193993
 30
0.0
 11
329.7382109613137
 21
181.3156608193993
 31
0.0
  0
LINE
  5
352
  8
回07-寸法
  6
CONTINUOUS
 62
     5
 10
323.2382109613137
 20
181.3156608193993
 30
0.0
 11
300.140573166038
 21
181.3156608193993
 31
0.0
  0
LINE
  5
353
  8
回07-寸法
  6
CONTINUOUS
 62
     5
 10
325.7382109613137
 20
181.3156608193993
 30
0.0
 11
325.2382109613137
 21
181.3156608193993
 31
0.0
  0
INSERT
  5
354
  8
回07-寸法
  6
CONTINUOUS
 62
     5
 66
     1
  2
_OPEN
 10
325.7382109613137
 20
181.3156608193993
 30
0.0
 41
2.0
 42
2.0
 43
2.0
 50
180.0
  0
SEQEND
  5
355
  8
回07-寸法
  6
CONTINUOUS
 62
     7
  0
INSERT
  5
356
  8
回07-寸法
  6
CONTINUOUS
 62
     5
 66
     1
  2
_OPEN
 10
325.2382109613137
 20
181.3156608193993
 30
0.0
 41
2.0
 42
2.0
 43
2.0
  0
SEQEND
  5
357
  8
回07-寸法
  6
CONTINUOUS
 62
     7
  0
TEXT
  5
358
  8
回07-寸法
  6
CONTINUOUS
 62
     5
 10
300.1893920636758
 20
181.9656608193993
 30
0.0
 40
3.0
  1
(0.5 [0.020])
1001
ACAD
1000
MTEXTBEGIN
1070
    73
1070
     1
1070
    44
1040
1.0
1070
    74
1070
     0
1000
MTEXTEND
  0
POINT
  5
359
  8
DEFPOINTS
  6
CONTINUOUS
 62
     0
 10
325.7382109613137
 20
174.5618397579695
 30
0.0
  0
POINT
  5
35A
  8
DEFPOINTS
  6
CONTINUOUS
 62
     0
 10
325.2382109613137
 20
177.0618397579696
 30
0.0
  0
POINT
  5
35B
  8
DEFPOINTS
  6
CONTINUOUS
 62
     0
 10
325.2382109613137
 20
181.3156608193993
 30
0.0
  0
ENDBLK
  5
35C
  8
0
 62
     7
  0
BLOCK
  8
0
  2
*D44
 70
     1
 10
0.0
 20
0.0
 30
0.0
  3
*D44
  1

  0
LINE
  5
340
  8
回07-寸法
  6
CONTINUOUS
 62
     5
 10
160.7382109613136
 20
327.9471143531762
 30
0.0
 11
160.7382109613136
 21
362.7359449469619
 31
0.0
  0
LINE
  5
341
  8
回07-寸法
  6
CONTINUOUS
 62
     5
 10
325.7382109613137
 20
327.9471143531762
 30
0.0
 11
325.7382109613137
 21
362.7359449469619
 31
0.0
  0
LINE
  5
342
  8
回07-寸法
  6
CONTINUOUS
 62
     5
 10
162.7382109613136
 20
361.7359449469619
 30
0.0
 11
323.7382109613136
 21
361.7359449469619
 31
0.0
  0
INSERT
  5
343
  8
回07-寸法
  6
CONTINUOUS
 62
     5
 66
     1
  2
_OPEN
 10
160.7382109613136
 20
361.7359449469619
 30
0.0
 41
2.0
 42
2.0
 43
2.0
 50
180.0
  0
SEQEND
  5
344
  8
回07-寸法
  6
CONTINUOUS
 62
     7
  0
INSERT
  5
345
  8
回07-寸法
  6
CONTINUOUS
 62
     5
 66
     1
  2
_OPEN
 10
325.7382109613137
 20
361.7359449469619
 30
0.0
 41
2.0
 42
2.0
 43
2.0
  0
SEQEND
  5
346
  8
回07-寸法
  6
CONTINUOUS
 62
     7
  0
INSERT
  5
347
  8
回07-寸法
  6
CONTINUOUS
 62
     5
 66
     1
  2
*X8585
 10
0.0
 20
0.0
 30
0.0
  0
SEQEND
  5
6C7
  8
回07-寸法
  6
CONTINUOUS
 62
     7
  0
POINT
  5
348
  8
DEFPOINTS
  6
CONTINUOUS
 62
     0
 10
160.7382109613136
 20
327.9471143531762
 30
0.0
  0
POINT
  5
349
  8
DEFPOINTS
  6
CONTINUOUS
 62
     0
 10
325.7382109613137
 20
327.9471143531762
 30
0.0
  0
POINT
  5
34A
  8
DEFPOINTS
  6
CONTINUOUS
 62
     0
 10
325.7382109613137
 20
361.7359449469619
 30
0.0
  0
ENDBLK
  5
34B
  8
0
 62
     7
  0
BLOCK
  8
0
  2
*D55
 70
     1
 10
0.0
 20
0.0
 30
0.0
  3
*D55
  1

  0
LINE
  5
331
  8
回07-寸法
  6
CONTINUOUS
 62
     5
 10
166.4382109613138
 20
322.2371143531762
 30
0.0
 11
166.4382109613138
 21
344.6109792401073
 31
0.0
  0
LINE
  5
332
  8
回07-寸法
  6
CONTINUOUS
 62
     5
 10
321.3382109613137
 20
322.2371143531762
 30
0.0
 11
321.3382109613137
 21
344.6109792401073
 31
0.0
  0
LINE
  5
333
  8
回07-寸法
  6
CONTINUOUS
 62
     5
 10
168.4382109613139
 20
343.6109792401073
 30
0.0
 11
319.3382109613137
 21
343.6109792401073
 31
0.0
  0
INSERT
  5
334
  8
回07-寸法
  6
CONTINUOUS
 62
     5
 66
     1
  2
_OPEN
 10
166.4382109613138
 20
343.6109792401073
 30
0.0
 41
2.0
 42
2.0
 43
2.0
 50
180.0
  0
SEQEND
  5
335
  8
回07-寸法
  6
CONTINUOUS
 62
     7
  0
INSERT
  5
336
  8
回07-寸法
  6
CONTINUOUS
 62
     5
 66
     1
  2
_OPEN
 10
321.3382109613137
 20
343.6109792401073
 30
0.0
 41
2.0
 42
2.0
 43
2.0
  0
SEQEND
  5
337
  8
回07-寸法
  6
CONTINUOUS
 62
     7
  0
TEXT
  5
338
  8
回07-寸法
  6
CONTINUOUS
 62
     5
 10
218.227970406914
 20
344.2609193340051
 30
0.0
 40
3.0
  1
154.9 [6.098](VIEWING AREA)
1001
ACAD
1000
MTEXTBEGIN
1070
    73
1070
     1
1070
    44
1040
1.0
1070
    74
1070
     0
1000
MTEXTEND
  0
POINT
  5
339
  8
DEFPOINTS
  6
CONTINUOUS
 62
     0
 10
166.4382109613138
 20
322.2371143531762
 30
0.0
  0
POINT
  5
33A
  8
DEFPOINTS
  6
CONTINUOUS
 62
     0
 10
321.3382109613137
 20
322.2371143531762
 30
0.0
  0
POINT
  5
33B
  8
DEFPOINTS
  6
CONTINUOUS
 62
     0
 10
321.3382109613137
 20
343.6109792401073
 30
0.0
  0
ENDBLK
  5
33C
  8
0
 62
     7
  0
BLOCK
  8
0
  2
*D66
 70
     1
 10
0.0
 20
0.0
 30
0.0
  3
*D66
  1

  0
LINE
  5
322
  8
回07-寸法
  6
CONTINUOUS
 62
     5
 10
167.8382109613137
 20
320.9871143531762
 30
0.0
 11
167.8382109613137
 21
338.1399206144692
 31
0.0
  0
LINE
  5
323
  8
回07-寸法
  6
CONTINUOUS
 62
     5
 10
320.2382109613136
 20
320.9871143531762
 30
0.0
 11
320.2382109613136
 21
338.1399206144692
 31
0.0
  0
LINE
  5
324
  8
回07-寸法
  6
CONTINUOUS
 62
     5
 10
169.8382109613137
 20
337.1399206144691
 30
0.0
 11
318.2382109613137
 21
337.1399206144691
 31
0.0
  0
INSERT
  5
325
  8
回07-寸法
  6
CONTINUOUS
 62
     5
 66
     1
  2
_OPEN
 10
167.8382109613137
 20
337.1399206144691
 30
0.0
 41
2.0
 42
2.0
 43
2.0
 50
180.0
  0
SEQEND
  5
326
  8
回07-寸法
  6
CONTINUOUS
 62
     7
  0
INSERT
  5
327
  8
回07-寸法
  6
CONTINUOUS
 62
     5
 66
     1
  2
_OPEN
 10
320.2382109613136
 20
337.1399206144691
 30
0.0
 41
2.0
 42
2.0
 43
2.0
  0
SEQEND
  5
328
  8
回07-寸法
  6
CONTINUOUS
 62
     7
  0
TEXT
  5
329
  8
回07-寸法
  6
CONTINUOUS
 62
     5
 10
219.2888015124948
 20
337.789920614469
 30
0.0
 40
3.0
  1
152.4 [6.000](ACTIVE AREA)
1001
ACAD
1000
MTEXTBEGIN
1070
    73
1070
     1
1070
    44
1040
1.0
1070
    74
1070
     0
1000
MTEXTEND
  0
POINT
  5
32A
  8
DEFPOINTS
  6
CONTINUOUS
 62
     0
 10
167.8382109613137
 20
320.9871143531762
 30
0.0
  0
POINT
  5
32B
  8
DEFPOINTS
  6
CONTINUOUS
 62
     0
 10
320.2382109613136
 20
320.9871143531762
 30
0.0
  0
POINT
  5
32C
  8
DEFPOINTS
  6
CONTINUOUS
 62
     0
 10
320.2382109613136
 20
337.1399206144691
 30
0.0
  0
ENDBLK
  5
32D
  8
0
 62
     7
  0
BLOCK
  8
0
  2
*D77
 70
     1
 10
0.0
 20
0.0
 30
0.0
  3
*D77
  1

  0
LINE
  5
313
  8
回07-寸法
  6
CONTINUOUS
 62
     5
 10
325.7382109613137
 20
327.9471143531762
 30
0.0
 11
386.1905016615379
 21
327.9471143531762
 31
0.0
  0
LINE
  5
314
  8
回07-寸法
  6
CONTINUOUS
 62
     5
 10
325.7382109613137
 20
223.9471143531762
 30
0.0
 11
386.1905016615379
 21
223.9471143531762
 31
0.0
  0
LINE
  5
315
  8
回07-寸法
  6
CONTINUOUS
 62
     5
 10
385.1905016615378
 20
325.9471143531761
 30
0.0
 11
385.1905016615378
 21
225.9471143531762
 31
0.0
  0
INSERT
  5
316
  8
回07-寸法
  6
CONTINUOUS
 62
     5
 66
     1
  2
_OPEN
 10
385.1905016615378
 20
327.9471143531761
 30
0.0
 41
2.0
 42
2.0
 43
2.0
 50
90.0
  0
SEQEND
  5
317
  8
回07-寸法
  6
CONTINUOUS
 62
     7
  0
INSERT
  5
318
  8
回07-寸法
  6
CONTINUOUS
 62
     5
 66
     1
  2
_OPEN
 10
385.1905016615378
 20
223.9471143531762
 30
0.0
 41
2.0
 42
2.0
 43
2.0
 50
270.0
  0
SEQEND
  5
319
  8
回07-寸法
  6
CONTINUOUS
 62
     7
  0
INSERT
  5
31A
  8
回07-寸法
  6
CONTINUOUS
 62
     5
 66
     1
  2
*X8686
 10
0.0
 20
0.0
 30
0.0
  0
SEQEND
  5
6D0
  8
回07-寸法
  6
CONTINUOUS
 62
     7
  0
POINT
  5
31B
  8
DEFPOINTS
  6
CONTINUOUS
 62
     0
 10
325.7382109613137
 20
327.9471143531762
 30
0.0
  0
POINT
  5
31C
  8
DEFPOINTS
  6
CONTINUOUS
 62
     0
 10
325.7382109613137
 20
223.9471143531762
 30
0.0
  0
POINT
  5
31D
  8
DEFPOINTS
  6
CONTINUOUS
 62
     0
 10
385.1905016615378
 20
223.9471143531762
 30
0.0
  0
ENDBLK
  5
31E
  8
0
 62
     7
  0
BLOCK
  8
0
  2
*D88
 70
     1
 10
0.0
 20
0.0
 30
0.0
  3
*D88
  1

  0
LINE
  5
304
  8
回07-寸法
  6
CONTINUOUS
 62
     5
 10
321.3382109613137
 20
322.2371143531762
 30
0.0
 11
371.6001700575616
 21
322.2371143531762
 31
0.0
  0
LINE
  5
305
  8
回07-寸法
  6
CONTINUOUS
 62
     5
 10
321.3382109613137
 20
228.2971143531762
 30
0.0
 11
371.6001700575616
 21
228.2971143531762
 31
0.0
  0
LINE
  5
306
  8
回07-寸法
  6
CONTINUOUS
 62
     5
 10
370.6001700575616
 20
320.2371143531762
 30
0.0
 11
370.6001700575616
 21
230.2971143531762
 31
0.0
  0
INSERT
  5
307
  8
回07-寸法
  6
CONTINUOUS
 62
     5
 66
     1
  2
_OPEN
 10
370.6001700575616
 20
322.2371143531762
 30
0.0
 41
2.0
 42
2.0
 43
2.0
 50
90.0
  0
SEQEND
  5
308
  8
回07-寸法
  6
CONTINUOUS
 62
     7
  0
INSERT
  5
309
  8
回07-寸法
  6
CONTINUOUS
 62
     5
 66
     1
  2
_OPEN
 10
370.6001700575616
 20
228.2971143531762
 30
0.0
 41
2.0
 42
2.0
 43
2.0
 50
270.0
  0
SEQEND
  5
30A
  8
回07-寸法
  6
CONTINUOUS
 62
     7
  0
TEXT
  5
30B
  8
回07-寸法
  6
CONTINUOUS
 62
     5
 10
369.950229963664
 20
249.2960426931955
 30
0.0
 40
3.0
  1
93.94 [3.698](VIEWING AREA)
 50
90.0
1001
ACAD
1000
MTEXTBEGIN
1070
    73
1070
     1
1070
    44
1040
1.0
1070
    74
1070
     0
1000
MTEXTEND
  0
POINT
  5
30C
  8
DEFPOINTS
  6
CONTINUOUS
 62
     0
 10
321.3382109613137
 20
322.2371143531762
 30
0.0
  0
POINT
  5
30D
  8
DEFPOINTS
  6
CONTINUOUS
 62
     0
 10
321.3382109613137
 20
228.2971143531762
 30
0.0
  0
POINT
  5
30E
  8
DEFPOINTS
  6
CONTINUOUS
 62
     0
 10
370.6001700575616
 20
228.2971143531762
 30
0.0
  0
ENDBLK
  5
30F
  8
0
 62
     7
  0
BLOCK
  8
0
  2
*D99
 70
     1
 10
0.0
 20
0.0
 30
0.0
  3
*D99
  1

  0
LINE
  5
2F5
  8
回07-寸法
  6
CONTINUOUS
 62
     5
 10
320.2382109613136
 20
229.5471143531762
 30
0.0
 11
363.884411619091
 21
229.5471143531762
 31
0.0
  0
LINE
  5
2F6
  8
回07-寸法
  6
CONTINUOUS
 62
     5
 10
320.2382109613136
 20
320.9871143531762
 30
0.0
 11
363.884411619091
 21
320.9871143531762
 31
0.0
  0
LINE
  5
2F7
  8
回07-寸法
  6
CONTINUOUS
 62
     5
 10
362.8844116190911
 20
231.5471143531762
 30
0.0
 11
362.8844116190911
 21
318.9871143531762
 31
0.0
  0
INSERT
  5
2F8
  8
回07-寸法
  6
CONTINUOUS
 62
     5
 66
     1
  2
_OPEN
 10
362.8844116190911
 20
229.5471143531762
 30
0.0
 41
2.0
 42
2.0
 43
2.0
 50
270.0
  0
SEQEND
  5
2F9
  8
回07-寸法
  6
CONTINUOUS
 62
     7
  0
INSERT
  5
2FA
  8
回07-寸法
  6
CONTINUOUS
 62
     5
 66
     1
  2
_OPEN
 10
362.8844116190911
 20
320.9871143531762
 30
0.0
 41
2.0
 42
2.0
 43
2.0
 50
90.0
  0
SEQEND
  5
2FB
  8
回07-寸法
  6
CONTINUOUS
 62
     7
  0
TEXT
  5
2FC
  8
回07-寸法
  6
CONTINUOUS
 62
     5
 10
362.234411619091
 20
250.3568737987764
 30
0.0
 40
3.0
  1
91.44 [3.600](ACTIVE AREA)
 50
90.0
1001
ACAD
1000
MTEXTBEGIN
1070
    73
1070
     1
1070
    44
1040
1.0
1070
    74
1070
     0
1000
MTEXTEND
  0
POINT
  5
2FD
  8
DEFPOINTS
  6
CONTINUOUS
 62
     0
 10
320.2382109613136
 20
229.5471143531762
 30
0.0
  0
POINT
  5
2FE
  8
DEFPOINTS
  6
CONTINUOUS
 62
     0
 10
320.2382109613136
 20
320.9871143531762
 30
0.0
  0
POINT
  5
2FF
  8
DEFPOINTS
  6
CONTINUOUS
 62
     0
 10
362.8844116190911
 20
320.9871143531762
 30
0.0
  0
ENDBLK
  5
300
  8
0
 62
     7
  0
BLOCK
  8
0
  2
*D1010
 70
     1
 10
0.0
 20
0.0
 30
0.0
  3
*D1010
  1

  0
LINE
  5
2E6
  8
回07-寸法
  6
CONTINUOUS
 62
     5
 10
80.73821096131359
 20
295.9471143531762
 30
0.0
 11
80.73821096131359
 21
261.5202141396713
 31
0.0
  0
LINE
  5
2E7
  8
回07-寸法
  6
CONTINUOUS
 62
     5
 10
160.7382109613136
 20
282.9219010316695
 30
0.0
 11
160.7382109613136
 21
261.5202141396713
 31
0.0
  0
LINE
  5
2E8
  8
回07-寸法
  6
CONTINUOUS
 62
     5
 10
82.7382109613136
 20
262.5202141396713
 30
0.0
 11
158.7382109613136
 21
262.5202141396713
 31
0.0
  0
INSERT
  5
2E9
  8
回07-寸法
  6
CONTINUOUS
 62
     5
 66
     1
  2
_OPEN
 10
80.73821096131359
 20
262.5202141396713
 30
0.0
 41
2.0
 42
2.0
 43
2.0
 50
180.0
  0
SEQEND
  5
2EA
  8
回07-寸法
  6
CONTINUOUS
 62
     7
  0
INSERT
  5
2EB
  8
回07-寸法
  6
CONTINUOUS
 62
     5
 66
     1
  2
_OPEN
 10
160.7382109613136
 20
262.5202141396713
 30
0.0
 41
2.0
 42
2.0
 43
2.0
  0
SEQEND
  5
2EC
  8
回07-寸法
  6
CONTINUOUS
 62
     7
  0
INSERT
  5
2ED
  8
回07-寸法
  6
CONTINUOUS
 62
     5
 66
     1
  2
*X8787
 10
0.0
 20
0.0
 30
0.0
  0
SEQEND
  5
6D9
  8
回07-寸法
  6
CONTINUOUS
 62
     7
  0
POINT
  5
2EE
  8
DEFPOINTS
  6
CONTINUOUS
 62
     0
 10
80.73821096131359
 20
295.9471143531762
 30
0.0
  0
POINT
  5
2EF
  8
DEFPOINTS
  6
CONTINUOUS
 62
     0
 10
160.7382109613136
 20
282.9219010316695
 30
0.0
  0
POINT
  5
2F0
  8
DEFPOINTS
  6
CONTINUOUS
 62
     0
 10
160.7382109613136
 20
262.5202141396713
 30
0.0
  0
ENDBLK
  5
2F1
  8
0
 62
     7
  0
BLOCK
  8
0
  2
*D1111
 70
     1
 10
0.0
 20
0.0
 30
0.0
  3
*D1111
  1

  0
LINE
  5
2D5
  8
回07-寸法
  6
CONTINUOUS
 62
     5
 10
81.23821096131363
 20
301.0721143531772
 30
0.0
 11
71.02853281192214
 21
301.0721143531772
 31
0.0
  0
LINE
  5
2D6
  8
回07-寸法
  6
CONTINUOUS
 62
     5
 10
81.23821096131363
 20
294.8221143531776
 30
0.0
 11
71.02853281192214
 21
294.8221143531776
 31
0.0
  0
LINE
  5
2D7
  8
回07-寸法
  6
CONTINUOUS
 62
     5
 10
72.02853281192211
 20
303.0721143531772
 30
0.0
 11
72.02853281192211
 21
305.0721143531772
 31
0.0
  0
LINE
  5
2D8
  8
回07-寸法
  6
CONTINUOUS
 62
     5
 10
72.02853281192211
 20
292.8221143531776
 30
0.0
 11
72.02853281192211
 21
269.5425867941225
 31
0.0
  0
LINE
  5
2D9
  8
回07-寸法
  6
CONTINUOUS
 62
     5
 10
72.02853281192211
 20
301.0721143531772
 30
0.0
 11
72.02853281192211
 21
294.8221143531776
 31
0.0
  0
INSERT
  5
2DA
  8
回07-寸法
  6
CONTINUOUS
 62
     5
 66
     1
  2
_OPEN
 10
72.02853281192211
 20
301.0721143531772
 30
0.0
 41
2.0
 42
2.0
 43
2.0
 50
270.0
  0
SEQEND
  5
2DB
  8
回07-寸法
  6
CONTINUOUS
 62
     7
  0
INSERT
  5
2DC
  8
回07-寸法
  6
CONTINUOUS
 62
     5
 66
     1
  2
_OPEN
 10
72.02853281192211
 20
294.8221143531776
 30
0.0
 41
2.0
 42
2.0
 43
2.0
 50
90.0
  0
SEQEND
  5
2DD
  8
回07-寸法
  6
CONTINUOUS
 62
     7
  0
TEXT
  5
2DE
  8
回07-寸法
  6
CONTINUOUS
 62
     5
 10
71.37853281192218
 20
269.6823505736501
 30
0.0
 40
3.0
  1
6.25 [0.246]
 50
90.0
1001
ACAD
1000
MTEXTBEGIN
1070
    73
1070
     1
1070
    44
1040
1.0
1070
    74
1070
     0
1000
MTEXTEND
  0
POINT
  5
2DF
  8
DEFPOINTS
  6
CONTINUOUS
 62
     0
 10
81.23821096131363
 20
301.0721143531772
 30
0.0
  0
POINT
  5
2E0
  8
DEFPOINTS
  6
CONTINUOUS
 62
     0
 10
81.23821096131363
 20
294.8221143531776
 30
0.0
  0
POINT
  5
2E1
  8
DEFPOINTS
  6
CONTINUOUS
 62
     0
 10
72.02853281192211
 20
294.8221143531776
 30
0.0
  0
ENDBLK
  5
2E2
  8
0
 62
     7
  0
BLOCK
  8
0
  2
*D1212
 70
     1
 10
0.0
 20
0.0
 30
0.0
  3
*D1212
  1

  0
LINE
  5
2C4
  8
回07-寸法
  6
CONTINUOUS
 62
     5
 10
156.9219630575335
 20
289.9471143531762
 30
0.0
 11
128.1678500820626
 21
289.9471143531762
 31
0.0
  0
LINE
  5
2C5
  8
回07-寸法
  6
CONTINUOUS
 62
     5
 10
156.9219630575335
 20
305.947114353176
 30
0.0
 11
128.1678500820626
 21
305.947114353176
 31
0.0
  0
LINE
  5
2C6
  8
回07-寸法
  6
CONTINUOUS
 62
     5
 10
129.1678500820626
 20
287.9471143531762
 30
0.0
 11
129.1678500820626
 21
285.9471143531762
 31
0.0
  0
LINE
  5
2C7
  8
回07-寸法
  6
CONTINUOUS
 62
     5
 10
129.1678500820626
 20
307.947114353176
 30
0.0
 11
129.1678500820626
 21
327.5549937947738
 31
0.0
  0
LINE
  5
2C8
  8
回07-寸法
  6
CONTINUOUS
 62
     5
 10
129.1678500820626
 20
289.9471143531762
 30
0.0
 11
129.1678500820626
 21
305.947114353176
 31
0.0
  0
INSERT
  5
2C9
  8
回07-寸法
  6
CONTINUOUS
 62
     5
 66
     1
  2
_OPEN
 10
129.1678500820626
 20
289.9471143531762
 30
0.0
 41
2.0
 42
2.0
 43
2.0
 50
90.0
  0
SEQEND
  5
2CA
  8
回07-寸法
  6
CONTINUOUS
 62
     7
  0
INSERT
  5
2CB
  8
回07-寸法
  6
CONTINUOUS
 62
     5
 66
     1
  2
_OPEN
 10
129.1678500820626
 20
305.947114353176
 30
0.0
 41
2.0
 42
2.0
 43
2.0
 50
270.0
  0
SEQEND
  5
2CC
  8
回07-寸法
  6
CONTINUOUS
 62
     7
  0
TEXT
  5
2CD
  8
回07-寸法
  6
CONTINUOUS
 62
     5
 10
128.5178500820626
 20
310.4049937947741
 30
0.0
 40
3.0
  1
16 [0.630]
 50
90.0
1001
ACAD
1000
MTEXTBEGIN
1070
    73
1070
     1
1070
    44
1040
1.0
1070
    74
1070
     0
1000
MTEXTEND
  0
POINT
  5
2CE
  8
DEFPOINTS
  6
CONTINUOUS
 62
     0
 10
156.9219630575335
 20
289.9471143531762
 30
0.0
  0
POINT
  5
2CF
  8
DEFPOINTS
  6
CONTINUOUS
 62
     0
 10
156.9219630575335
 20
305.947114353176
 30
0.0
  0
POINT
  5
2D0
  8
DEFPOINTS
  6
CONTINUOUS
 62
     0
 10
129.1678500820626
 20
305.947114353176
 30
0.0
  0
ENDBLK
  5
2D1
  8
0
 62
     7
  0
BLOCK
  8
0
  2
*D1313
 70
     1
 10
0.0
 20
0.0
 30
0.0
  3
*D1313
  1

  0
LINE
  5
2B3
  8
回07-寸法
  6
CONTINUOUS
 62
     5
 10
160.7382109613136
 20
289.2699900087085
 30
0.0
 11
160.7382109613136
 21
273.3800839704173
 31
0.0
  0
LINE
  5
2B4
  8
回07-寸法
  6
CONTINUOUS
 62
     5
 10
156.5482109613135
 20
289.9471143531762
 30
0.0
 11
156.5482109613135
 21
273.3800839704173
 31
0.0
  0
LINE
  5
2B5
  8
回07-寸法
  6
CONTINUOUS
 62
     5
 10
162.7382109613136
 20
274.3800839704173
 30
0.0
 11
164.7382109613136
 21
274.3800839704173
 31
0.0
  0
LINE
  5
2B6
  8
回07-寸法
  6
CONTINUOUS
 62
     5
 10
154.5482109613135
 20
274.3800839704173
 30
0.0
 11
128.6510053201967
 21
274.3800839704173
 31
0.0
  0
LINE
  5
2B7
  8
回07-寸法
  6
CONTINUOUS
 62
     5
 10
160.7382109613136
 20
274.3800839704173
 30
0.0
 11
156.5482109613135
 21
274.3800839704173
 31
0.0
  0
INSERT
  5
2B8
  8
回07-寸法
  6
CONTINUOUS
 62
     5
 66
     1
  2
_OPEN
 10
160.7382109613136
 20
274.3800839704173
 30
0.0
 41
2.0
 42
2.0
 43
2.0
 50
180.0
  0
SEQEND
  5
2B9
  8
回07-寸法
  6
CONTINUOUS
 62
     7
  0
INSERT
  5
2BA
  8
回07-寸法
  6
CONTINUOUS
 62
     5
 66
     1
  2
_OPEN
 10
156.5482109613135
 20
274.3800839704173
 30
0.0
 41
2.0
 42
2.0
 43
2.0
  0
SEQEND
  5
2BB
  8
回07-寸法
  6
CONTINUOUS
 62
     7
  0
TEXT
  5
2BC
  8
回07-寸法
  6
CONTINUOUS
 62
     5
 10
128.7008312631477
 20
275.0300839704173
 30
0.0
 40
3.0
  1
4.39 [0.173]
1001
ACAD
1000
MTEXTBEGIN
1070
    73
1070
     1
1070
    44
1040
1.0
1070
    74
1070
     0
1000
MTEXTEND
  0
POINT
  5
2BD
  8
DEFPOINTS
  6
CONTINUOUS
 62
     0
 10
160.7382109613136
 20
289.2699900087085
 30
0.0
  0
POINT
  5
2BE
  8
DEFPOINTS
  6
CONTINUOUS
 62
     0
 10
156.5482109613135
 20
289.9471143531762
 30
0.0
  0
POINT
  5
2BF
  8
DEFPOINTS
  6
CONTINUOUS
 62
     0
 10
156.5482109613135
 20
274.3800839704173
 30
0.0
  0
ENDBLK
  5
2C0
  8
0
 62
     7
  0
BLOCK
  8
0
  2
*D1414
 70
     1
 10
0.0
 20
0.0
 30
0.0
  3
*D1414
  1

  0
LINE
  5
2A2
  8
回07-寸法
  6
CONTINUOUS
 62
     5
 10
160.7382109613136
 20
289.2699900087085
 30
0.0
 11
160.7382109613136
 21
267.8352240247591
 31
0.0
  0
LINE
  5
2A3
  8
回07-寸法
  6
CONTINUOUS
 62
     5
 10
150.2185402135203
 20
294.8221143531774
 30
0.0
 11
150.2185402135203
 21
267.8352240247591
 31
0.0
  0
LINE
  5
2A4
  8
回07-寸法
  6
CONTINUOUS
 62
     5
 10
162.7382109613136
 20
268.8352240247592
 30
0.0
 11
164.7382109613136
 21
268.8352240247592
 31
0.0
  0
LINE
  5
2A5
  8
回07-寸法
  6
CONTINUOUS
 62
     5
 10
148.2185402135203
 20
268.8352240247592
 30
0.0
 11
125.5064081791642
 21
268.8352240247592
 31
0.0
  0
LINE
  5
2A6
  8
回07-寸法
  6
CONTINUOUS
 62
     5
 10
160.7382109613136
 20
268.8352240247592
 30
0.0
 11
150.2185402135203
 21
268.8352240247592
 31
0.0
  0
INSERT
  5
2A7
  8
回07-寸法
  6
CONTINUOUS
 62
     5
 66
     1
  2
_OPEN
 10
160.7382109613136
 20
268.8352240247592
 30
0.0
 41
2.0
 42
2.0
 43
2.0
 50
180.0
  0
SEQEND
  5
2A8
  8
回07-寸法
  6
CONTINUOUS
 62
     7
  0
INSERT
  5
2A9
  8
回07-寸法
  6
CONTINUOUS
 62
     5
 66
     1
  2
_OPEN
 10
150.2185402135203
 20
268.8352240247592
 30
0.0
 41
2.0
 42
2.0
 43
2.0
  0
SEQEND
  5
2AA
  8
回07-寸法
  6
CONTINUOUS
 62
     7
  0
TEXT
  5
2AB
  8
回07-寸法
  6
CONTINUOUS
 62
     5
 10
125.6077091079393
 20
269.4852240247591
 30
0.0
 40
3.0
  1
9.4 [0.370]
1001
ACAD
1000
MTEXTBEGIN
1070
    73
1070
     1
1070
    44
1040
1.0
1070
    74
1070
     0
1000
MTEXTEND
  0
POINT
  5
2AC
  8
DEFPOINTS
  6
CONTINUOUS
 62
     0
 10
160.7382109613136
 20
289.2699900087085
 30
0.0
  0
POINT
  5
2AD
  8
DEFPOINTS
  6
CONTINUOUS
 62
     0
 10
150.2185402135203
 20
294.8221143531774
 30
0.0
  0
POINT
  5
2AE
  8
DEFPOINTS
  6
CONTINUOUS
 62
     0
 10
150.2185402135203
 20
268.8352240247592
 30
0.0
  0
ENDBLK
  5
2AF
  8
0
 62
     7
  0
BLOCK
  8
0
  2
*D1515
 70
     1
 10
0.0
 20
0.0
 30
0.0
  3
*D1515
  1

  0
LINE
  5
293
  8
回07-寸法
  6
CONTINUOUS
 62
     5
 10
77.8534977212962
 20
297.9471143531762
 30
0.0
 11
66.44436079961815
 21
297.9471143531762
 31
0.0
  0
LINE
  5
294
  8
回07-寸法
  6
CONTINUOUS
 62
     5
 10
160.7382109613136
 20
327.9471143531762
 30
0.0
 11
66.44436079961815
 21
327.9471143531762
 31
0.0
  0
LINE
  5
295
  8
回07-寸法
  6
CONTINUOUS
 62
     5
 10
67.44436079961815
 20
299.9471143531762
 30
0.0
 11
67.44436079961815
 21
325.9471143531762
 31
0.0
  0
INSERT
  5
296
  8
回07-寸法
  6
CONTINUOUS
 62
     5
 66
     1
  2
_OPEN
 10
67.44436079961815
 20
297.9471143531762
 30
0.0
 41
2.0
 42
2.0
 43
2.0
 50
270.0
  0
SEQEND
  5
297
  8
回07-寸法
  6
CONTINUOUS
 62
     7
  0
INSERT
  5
298
  8
回07-寸法
  6
CONTINUOUS
 62
     5
 66
     1
  2
_OPEN
 10
67.44436079961815
 20
327.9471143531762
 30
0.0
 41
2.0
 42
2.0
 43
2.0
 50
90.0
  0
SEQEND
  5
299
  8
回07-寸法
  6
CONTINUOUS
 62
     7
  0
TEXT
  5
29A
  8
回07-寸法
  6
CONTINUOUS
 62
     5
 10
66.79436079961806
 20
303.7971143531762
 30
0.0
 40
3.0
  1
(30 [1.181])
 50
90.0
1001
ACAD
1000
MTEXTBEGIN
1070
    73
1070
     1
1070
    44
1040
1.0
1070
    74
1070
     0
1000
MTEXTEND
  0
POINT
  5
29B
  8
DEFPOINTS
  6
CONTINUOUS
 62
     0
 10
77.8534977212962
 20
297.9471143531762
 30
0.0
  0
POINT
  5
29C
  8
DEFPOINTS
  6
CONTINUOUS
 62
     0
 10
160.7382109613136
 20
327.9471143531762
 30
0.0
  0
POINT
  5
29D
  8
DEFPOINTS
  6
CONTINUOUS
 62
     0
 10
67.44436079961815
 20
327.9471143531762
 30
0.0
  0
ENDBLK
  5
29E
  8
0
 62
     7
  0
BLOCK
  8
0
  2
*D1616
 70
     1
 10
0.0
 20
0.0
 30
0.0
  3
*D1616
  1

  0
LINE
  5
282
  8
回07-寸法
  6
CONTINUOUS
 62
     5
 10
321.3382109613137
 20
322.2371143531762
 30
0.0
 11
321.3382109613137
 21
344.6109792401073
 31
0.0
  0
LINE
  5
283
  8
回07-寸法
  6
CONTINUOUS
 62
     5
 10
325.7382109613137
 20
327.9471143531762
 30
0.0
 11
325.7382109613137
 21
344.6109792401073
 31
0.0
  0
LINE
  5
284
  8
回07-寸法
  6
CONTINUOUS
 62
     5
 10
319.3382109613137
 20
343.6109792401073
 30
0.0
 11
317.3382109613137
 21
343.6109792401073
 31
0.0
  0
LINE
  5
285
  8
回07-寸法
  6
CONTINUOUS
 62
     5
 10
327.7382109613137
 20
343.6109792401073
 30
0.0
 11
348.4382109613136
 21
343.6109792401073
 31
0.0
  0
LINE
  5
286
  8
回07-寸法
  6
CONTINUOUS
 62
     5
 10
321.3382109613137
 20
343.6109792401073
 30
0.0
 11
325.7382109613137
 21
343.6109792401073
 31
0.0
  0
INSERT
  5
287
  8
回07-寸法
  6
CONTINUOUS
 62
     5
 66
     1
  2
_OPEN
 10
321.3382109613137
 20
343.6109792401073
 30
0.0
 41
2.0
 42
2.0
 43
2.0
  0
SEQEND
  5
288
  8
回07-寸法
  6
CONTINUOUS
 62
     7
  0
INSERT
  5
289
  8
回07-寸法
  6
CONTINUOUS
 62
     5
 66
     1
  2
_OPEN
 10
325.7382109613137
 20
343.6109792401073
 30
0.0
 41
2.0
 42
2.0
 43
2.0
 50
180.0
  0
SEQEND
  5
28A
  8
回07-寸法
  6
CONTINUOUS
 62
     7
  0
TEXT
  5
28B
  8
回07-寸法
  6
CONTINUOUS
 62
     5
 10
329.7882109613136
 20
344.2609792401074
 30
0.0
 40
3.0
  1
4.4 [0.173]
1001
ACAD
1000
MTEXTBEGIN
1070
    73
1070
     1
1070
    44
1040
1.0
1070
    74
1070
     0
1000
MTEXTEND
  0
POINT
  5
28C
  8
DEFPOINTS
  6
CONTINUOUS
 62
     0
 10
321.3382109613137
 20
322.2371143531762
 30
0.0
  0
POINT
  5
28D
  8
DEFPOINTS
  6
CONTINUOUS
 62
     0
 10
325.7382109613137
 20
327.9471143531762
 30
0.0
  0
POINT
  5
28E
  8
DEFPOINTS
  6
CONTINUOUS
 62
     0
 10
325.7382109613137
 20
343.6109792401073
 30
0.0
  0
ENDBLK
  5
28F
  8
0
 62
     7
  0
BLOCK
  8
0
  2
*D1717
 70
     1
 10
0.0
 20
0.0
 30
0.0
  3
*D1717
  1

  0
LINE
  5
271
  8
回07-寸法
  6
CONTINUOUS
 62
     5
 10
320.2382109613136
 20
320.9871143531762
 30
0.0
 11
320.2382109613136
 21
338.1399206144692
 31
0.0
  0
LINE
  5
272
  8
回07-寸法
  6
CONTINUOUS
 62
     5
 10
325.7382109613137
 20
327.9471143531762
 30
0.0
 11
325.7382109613137
 21
338.1399206144692
 31
0.0
  0
LINE
  5
273
  8
回07-寸法
  6
CONTINUOUS
 62
     5
 10
318.2382109613137
 20
337.1399206144691
 30
0.0
 11
316.2382109613137
 21
337.1399206144691
 31
0.0
  0
LINE
  5
274
  8
回07-寸法
  6
CONTINUOUS
 62
     5
 10
327.7382109613137
 20
337.1399206144691
 30
0.0
 11
347.8382109613136
 21
337.1399206144691
 31
0.0
  0
LINE
  5
275
  8
回07-寸法
  6
CONTINUOUS
 62
     5
 10
320.2382109613136
 20
337.1399206144691
 30
0.0
 11
325.7382109613137
 21
337.1399206144691
 31
0.0
  0
INSERT
  5
276
  8
回07-寸法
  6
CONTINUOUS
 62
     5
 66
     1
  2
_OPEN
 10
320.2382109613136
 20
337.1399206144691
 30
0.0
 41
2.0
 42
2.0
 43
2.0
  0
SEQEND
  5
277
  8
回07-寸法
  6
CONTINUOUS
 62
     7
  0
INSERT
  5
278
  8
回07-寸法
  6
CONTINUOUS
 62
     5
 66
     1
  2
_OPEN
 10
325.7382109613137
 20
337.1399206144691
 30
0.0
 41
2.0
 42
2.0
 43
2.0
 50
180.0
  0
SEQEND
  5
279
  8
回07-寸法
  6
CONTINUOUS
 62
     7
  0
TEXT
  5
27A
  8
回07-寸法
  6
CONTINUOUS
 62
     5
 10
329.7882109613136
 20
337.789920614469
 30
0.0
 40
3.0
  1
5.5 [0.217]
1001
ACAD
1000
MTEXTBEGIN
1070
    73
1070
     1
1070
    44
1040
1.0
1070
    74
1070
     0
1000
MTEXTEND
  0
POINT
  5
27B
  8
DEFPOINTS
  6
CONTINUOUS
 62
     0
 10
320.2382109613136
 20
320.9871143531762
 30
0.0
  0
POINT
  5
27C
  8
DEFPOINTS
  6
CONTINUOUS
 62
     0
 10
325.7382109613137
 20
327.9471143531762
 30
0.0
  0
POINT
  5
27D
  8
DEFPOINTS
  6
CONTINUOUS
 62
     0
 10
325.7382109613137
 20
337.1399206144691
 30
0.0
  0
ENDBLK
  5
27E
  8
0
 62
     7
  0
BLOCK
  8
0
  2
*D1818
 70
     1
 10
0.0
 20
0.0
 30
0.0
  3
*D1818
  1

  0
LINE
  5
260
  8
回07-寸法
  6
CONTINUOUS
 62
     5
 10
321.3382109613137
 20
228.2971143531762
 30
0.0
 11
371.6001700575616
 21
228.2971143531762
 31
0.0
  0
LINE
  5
261
  8
回07-寸法
  6
CONTINUOUS
 62
     5
 10
325.7382109613137
 20
223.9471143531762
 30
0.0
 11
371.6001700575616
 21
223.9471143531762
 31
0.0
  0
LINE
  5
262
  8
回07-寸法
  6
CONTINUOUS
 62
     5
 10
370.6001700575616
 20
230.2971143531762
 30
0.0
 11
370.6001700575616
 21
232.2971143531762
 31
0.0
  0
LINE
  5
263
  8
回07-寸法
  6
CONTINUOUS
 62
     5
 10
370.6001700575616
 20
221.9471143531762
 30
0.0
 11
370.6001700575616
 21
200.0471143531762
 31
0.0
  0
LINE
  5
264
  8
回07-寸法
  6
CONTINUOUS
 62
     5
 10
370.6001700575616
 20
228.2971143531762
 30
0.0
 11
370.6001700575616
 21
223.9471143531762
 31
0.0
  0
INSERT
  5
265
  8
回07-寸法
  6
CONTINUOUS
 62
     5
 66
     1
  2
_OPEN
 10
370.6001700575616
 20
228.2971143531762
 30
0.0
 41
2.0
 42
2.0
 43
2.0
 50
270.0
  0
SEQEND
  5
266
  8
回07-寸法
  6
CONTINUOUS
 62
     7
  0
INSERT
  5
267
  8
回07-寸法
  6
CONTINUOUS
 62
     5
 66
     1
  2
_OPEN
 10
370.6001700575616
 20
223.9471143531762
 30
0.0
 41
2.0
 42
2.0
 43
2.0
 50
90.0
  0
SEQEND
  5
268
  8
回07-寸法
  6
CONTINUOUS
 62
     7
  0
TEXT
  5
269
  8
回07-寸法
  6
CONTINUOUS
 62
     5
 10
369.9501700575615
 20
200.0971143531763
 30
0.0
 40
3.0
  1
4.35 [0.171]
 50
90.0
1001
ACAD
1000
MTEXTBEGIN
1070
    73
1070
     1
1070
    44
1040
1.0
1070
    74
1070
     0
1000
MTEXTEND
  0
POINT
  5
26A
  8
DEFPOINTS
  6
CONTINUOUS
 62
     0
 10
321.3382109613137
 20
228.2971143531762
 30
0.0
  0
POINT
  5
26B
  8
DEFPOINTS
  6
CONTINUOUS
 62
     0
 10
325.7382109613137
 20
223.9471143531762
 30
0.0
  0
POINT
  5
26C
  8
DEFPOINTS
  6
CONTINUOUS
 62
     0
 10
370.6001700575616
 20
223.9471143531762
 30
0.0
  0
ENDBLK
  5
26D
  8
0
 62
     7
  0
BLOCK
  8
0
  2
*D1919
 70
     1
 10
0.0
 20
0.0
 30
0.0
  3
*D1919
  1

  0
LINE
  5
24F
  8
回07-寸法
  6
CONTINUOUS
 62
     5
 10
320.2382109613136
 20
229.5471143531762
 30
0.0
 11
363.8844116190913
 21
229.5471143531762
 31
0.0
  0
LINE
  5
250
  8
回07-寸法
  6
CONTINUOUS
 62
     5
 10
325.7382109613137
 20
223.9471143531762
 30
0.0
 11
363.8844116190913
 21
223.9471143531762
 31
0.0
  0
LINE
  5
251
  8
回07-寸法
  6
CONTINUOUS
 62
     5
 10
362.8844116190913
 20
231.5471143531762
 30
0.0
 11
362.8844116190913
 21
233.5471143531762
 31
0.0
  0
LINE
  5
252
  8
回07-寸法
  6
CONTINUOUS
 62
     5
 10
362.8844116190913
 20
221.9471143531762
 30
0.0
 11
362.8844116190913
 21
201.2471143531762
 31
0.0
  0
LINE
  5
253
  8
回07-寸法
  6
CONTINUOUS
 62
     5
 10
362.8844116190913
 20
229.5471143531762
 30
0.0
 11
362.8844116190913
 21
223.9471143531762
 31
0.0
  0
INSERT
  5
254
  8
回07-寸法
  6
CONTINUOUS
 62
     5
 66
     1
  2
_OPEN
 10
362.8844116190913
 20
229.5471143531762
 30
0.0
 41
2.0
 42
2.0
 43
2.0
 50
270.0
  0
SEQEND
  5
255
  8
回07-寸法
  6
CONTINUOUS
 62
     7
  0
INSERT
  5
256
  8
回07-寸法
  6
CONTINUOUS
 62
     5
 66
     1
  2
_OPEN
 10
362.8844116190913
 20
223.9471143531762
 30
0.0
 41
2.0
 42
2.0
 43
2.0
 50
90.0
  0
SEQEND
  5
257
  8
回07-寸法
  6
CONTINUOUS
 62
     7
  0
TEXT
  5
258
  8
回07-寸法
  6
CONTINUOUS
 62
     5
 10
362.2344116190912
 20
201.2971143531762
 30
0.0
 40
3.0
  1
5.6 [0.220]
 50
90.0
1001
ACAD
1000
MTEXTBEGIN
1070
    73
1070
     1
1070
    44
1040
1.0
1070
    74
1070
     0
1000
MTEXTEND
  0
POINT
  5
259
  8
DEFPOINTS
  6
CONTINUOUS
 62
     0
 10
320.2382109613136
 20
229.5471143531762
 30
0.0
  0
POINT
  5
25A
  8
DEFPOINTS
  6
CONTINUOUS
 62
     0
 10
325.7382109613137
 20
223.9471143531762
 30
0.0
  0
POINT
  5
25B
  8
DEFPOINTS
  6
CONTINUOUS
 62
     0
 10
362.8844116190913
 20
223.9471143531762
 30
0.0
  0
ENDBLK
  5
25C
  8
0
 62
     7
  0
BLOCK
  8
0
  2
*D2020
 70
     1
 10
0.0
 20
0.0
 30
0.0
  3
*D2020
  1

  0
LINE
  5
229
  8
回07-寸法
  6
CONTINUOUS
 62
     5
 10
80.73821096131359
 20
175.5618397579695
 30
0.0
 11
80.73821096131359
 21
182.3208875064614
 31
0.0
  0
LINE
  5
22A
  8
回07-寸法
  6
CONTINUOUS
 62
     5
 10
85.73821096131359
 20
176.5618397579696
 30
0.0
 11
85.73821096131359
 21
182.3208875064614
 31
0.0
  0
LINE
  5
22B
  8
回07-寸法
  6
CONTINUOUS
 62
     5
 10
78.7382109613136
 20
181.3208875064614
 30
0.0
 11
76.73821096131359
 21
181.3208875064614
 31
0.0
  0
LINE
  5
22C
  8
回07-寸法
  6
CONTINUOUS
 62
     5
 10
87.7382109613136
 20
181.3208875064614
 30
0.0
 11
104.8486939527964
 21
181.3208875064614
 31
0.0
  0
LINE
  5
22D
  8
回07-寸法
  6
CONTINUOUS
 62
     5
 10
80.73821096131359
 20
181.3208875064614
 30
0.0
 11
85.73821096131359
 21
181.3208875064614
 31
0.0
  0
INSERT
  5
22E
  8
回07-寸法
  6
CONTINUOUS
 62
     5
 66
     1
  2
_OPEN
 10
80.73821096131359
 20
181.3208875064614
 30
0.0
 41
2.0
 42
2.0
 43
2.0
  0
SEQEND
  5
22F
  8
回07-寸法
  6
CONTINUOUS
 62
     7
  0
INSERT
  5
230
  8
回07-寸法
  6
CONTINUOUS
 62
     5
 66
     1
  2
_OPEN
 10
85.73821096131359
 20
181.3208875064614
 30
0.0
 41
2.0
 42
2.0
 43
2.0
 50
180.0
  0
SEQEND
  5
231
  8
回07-寸法
  6
CONTINUOUS
 62
     7
  0
TEXT
  5
232
  8
回07-寸法
  6
CONTINUOUS
 62
     5
 10
89.78803690426451
 20
181.9708276003592
 30
0.0
 40
3.0
  1
5 [0.197]
1001
ACAD
1000
MTEXTBEGIN
1070
    73
1070
     1
1070
    44
1040
1.0
1070
    74
1070
     0
1000
MTEXTEND
  0
POINT
  5
233
  8
DEFPOINTS
  6
CONTINUOUS
 62
     0
 10
80.73821096131359
 20
175.5618397579695
 30
0.0
  0
POINT
  5
234
  8
DEFPOINTS
  6
CONTINUOUS
 62
     0
 10
85.73821096131359
 20
176.5618397579696
 30
0.0
  0
POINT
  5
235
  8
DEFPOINTS
  6
CONTINUOUS
 62
     0
 10
85.73821096131359
 20
181.3208875064614
 30
0.0
  0
ENDBLK
  5
236
  8
0
 62
     7
  0
BLOCK
  8
0
  2
*D2121
 70
     1
 10
0.0
 20
0.0
 30
0.0
  3
*D2121
  1

  0
LINE
  5
218
  8
回07-寸法
  6
CONTINUOUS
 62
     5
 10
80.73821096131359
 20
172.5618397579696
 30
0.0
 11
80.73821096131359
 21
157.9478421827653
 31
0.0
  0
LINE
  5
219
  8
回07-寸法
  6
CONTINUOUS
 62
     5
 10
90.73821096131359
 20
172.5618397579696
 30
0.0
 11
90.73821096131359
 21
157.9478421827653
 31
0.0
  0
LINE
  5
21A
  8
回07-寸法
  6
CONTINUOUS
 62
     5
 10
78.7382109613136
 20
158.9478421827653
 30
0.0
 11
76.73821096131359
 21
158.9478421827653
 31
0.0
  0
LINE
  5
21B
  8
回07-寸法
  6
CONTINUOUS
 62
     5
 10
92.7382109613136
 20
158.9478421827653
 30
0.0
 11
114.646331748072
 21
158.9478421827653
 31
0.0
  0
LINE
  5
21C
  8
回07-寸法
  6
CONTINUOUS
 62
     5
 10
80.73821096131359
 20
158.9478421827653
 30
0.0
 11
90.73821096131359
 21
158.9478421827653
 31
0.0
  0
INSERT
  5
21D
  8
回07-寸法
  6
CONTINUOUS
 62
     5
 66
     1
  2
_OPEN
 10
80.73821096131359
 20
158.9478421827653
 30
0.0
 41
2.0
 42
2.0
 43
2.0
  0
SEQEND
  5
21E
  8
回07-寸法
  6
CONTINUOUS
 62
     7
  0
INSERT
  5
21F
  8
回07-寸法
  6
CONTINUOUS
 62
     5
 66
     1
  2
_OPEN
 10
90.73821096131359
 20
158.9478421827653
 30
0.0
 41
2.0
 42
2.0
 43
2.0
 50
180.0
  0
SEQEND
  5
220
  8
回07-寸法
  6
CONTINUOUS
 62
     7
  0
TEXT
  5
221
  8
回07-寸法
  6
CONTINUOUS
 62
     5
 10
94.78685580190235
 20
159.597782276663
 30
0.0
 40
3.0
  1
(10 [0.394])
1001
ACAD
1000
MTEXTBEGIN
1070
    73
1070
     1
1070
    44
1040
1.0
1070
    74
1070
     0
1000
MTEXTEND
  0
POINT
  5
222
  8
DEFPOINTS
  6
CONTINUOUS
 62
     0
 10
80.73821096131359
 20
172.5618397579696
 30
0.0
  0
POINT
  5
223
  8
DEFPOINTS
  6
CONTINUOUS
 62
     0
 10
90.73821096131359
 20
172.5618397579696
 30
0.0
  0
POINT
  5
224
  8
DEFPOINTS
  6
CONTINUOUS
 62
     0
 10
90.73821096131359
 20
158.9478421827653
 30
0.0
  0
ENDBLK
  5
225
  8
0
 62
     7
  0
BLOCK
  8
0
  2
*D2222
 70
     1
 10
0.0
 20
0.0
 30
0.0
  3
*D2222
  1

  0
LINE
  5
207
  8
回07-寸法
  6
CONTINUOUS
 62
     5
 10
160.7382109613136
 20
174.5618397579695
 30
0.0
 11
160.7382109613136
 21
181.7818817532429
 31
0.0
  0
LINE
  5
208
  8
回07-寸法
  6
CONTINUOUS
 62
     5
 10
161.2382109613136
 20
177.0618397579696
 30
0.0
 11
161.2382109613136
 21
181.7818817532429
 31
0.0
  0
LINE
  5
209
  8
回07-寸法
  6
CONTINUOUS
 62
     5
 10
158.7382109613136
 20
180.7818817532429
 30
0.0
 11
156.7382109613136
 21
180.7818817532429
 31
0.0
  0
LINE
  5
20A
  8
回07-寸法
  6
CONTINUOUS
 62
     5
 10
163.2382109613136
 20
180.7818817532429
 30
0.0
 11
186.3358487565892
 21
180.7818817532429
 31
0.0
  0
LINE
  5
20B
  8
回07-寸法
  6
CONTINUOUS
 62
     5
 10
160.7382109613136
 20
180.7818817532429
 30
0.0
 11
161.2382109613136
 21
180.7818817532429
 31
0.0
  0
INSERT
  5
20C
  8
回07-寸法
  6
CONTINUOUS
 62
     5
 66
     1
  2
_OPEN
 10
160.7382109613136
 20
180.7818817532429
 30
0.0
 41
2.0
 42
2.0
 43
2.0
  0
SEQEND
  5
20D
  8
回07-寸法
  6
CONTINUOUS
 62
     7
  0
INSERT
  5
20E
  8
回07-寸法
  6
CONTINUOUS
 62
     5
 66
     1
  2
_OPEN
 10
161.2382109613136
 20
180.7818817532429
 30
0.0
 41
2.0
 42
2.0
 43
2.0
 50
180.0
  0
SEQEND
  5
20F
  8
回07-寸法
  6
CONTINUOUS
 62
     7
  0
TEXT
  5
210
  8
回07-寸法
  6
CONTINUOUS
 62
     5
 10
165.2870298589514
 20
181.4318817532429
 30
0.0
 40
3.0
  1
(0.5 [0.020])
1001
ACAD
1000
MTEXTBEGIN
1070
    73
1070
     1
1070
    44
1040
1.0
1070
    74
1070
     0
1000
MTEXTEND
  0
POINT
  5
211
  8
DEFPOINTS
  6
CONTINUOUS
 62
     0
 10
160.7382109613136
 20
174.5618397579695
 30
0.0
  0
POINT
  5
212
  8
DEFPOINTS
  6
CONTINUOUS
 62
     0
 10
161.2382109613136
 20
177.0618397579696
 30
0.0
  0
POINT
  5
213
  8
DEFPOINTS
  6
CONTINUOUS
 62
     0
 10
161.2382109613136
 20
180.7818817532429
 30
0.0
  0
ENDBLK
  5
214
  8
0
 62
     7
  0
BLOCK
  8
0
  2
*D2323
 70
     1
 10
0.0
 20
0.0
 30
0.0
  3
*D2323
  1

  0
LINE
  5
1F6
  8
回08-記事
  6
CONTINUOUS
 62
     5
 10
71.58551376207474
 20
387.980142019539
 30
0.0
 11
41.16631365684725
 21
387.980142019539
 31
0.0
  0
LINE
  5
1F7
  8
回08-記事
  6
CONTINUOUS
 62
     5
 10
71.58551376207474
 20
375.4801420195398
 30
0.0
 11
41.16631365684725
 21
375.4801420195398
 31
0.0
  0
LINE
  5
1F8
  8
回08-記事
  6
CONTINUOUS
 62
     5
 10
42.16631365684725
 20
389.980142019539
 30
0.0
 11
42.16631365684725
 21
391.980142019539
 31
0.0
  0
LINE
  5
1F9
  8
回08-記事
  6
CONTINUOUS
 62
     5
 10
42.16631365684725
 20
373.4801420195398
 30
0.0
 11
42.16631365684725
 21
339.5999944604846
 31
0.0
  0
LINE
  5
1FA
  8
回08-記事
  6
CONTINUOUS
 62
     5
 10
42.16631365684725
 20
387.980142019539
 30
0.0
 11
42.16631365684725
 21
375.4801420195398
 31
0.0
  0
INSERT
  5
1FB
  8
回08-記事
  6
CONTINUOUS
 62
     5
 66
     1
  2
_OPEN
 10
42.16631365684725
 20
387.980142019539
 30
0.0
 41
2.0
 42
2.0
 43
2.0
 50
270.0
  0
SEQEND
  5
1FC
  8
回07-寸法
  6
CONTINUOUS
 62
     7
  0
INSERT
  5
1FD
  8
回08-記事
  6
CONTINUOUS
 62
     5
 66
     1
  2
_OPEN
 10
42.16631365684725
 20
375.4801420195398
 30
0.0
 41
2.0
 42
2.0
 43
2.0
 50
90.0
  0
SEQEND
  5
1FE
  8
回07-寸法
  6
CONTINUOUS
 62
     7
  0
INSERT
  5
1FF
  8
回08-記事
  6
CONTINUOUS
 62
     5
 66
     1
  2
*X8888
 10
0.0
 20
0.0
 30
0.0
  0
SEQEND
  5
6E2
  8
回07-寸法
  6
CONTINUOUS
 62
     7
  0
POINT
  5
200
  8
DEFPOINTS
  6
CONTINUOUS
 62
     0
 10
71.58551376207474
 20
387.980142019539
 30
0.0
  0
POINT
  5
201
  8
DEFPOINTS
  6
CONTINUOUS
 62
     0
 10
71.58551376207474
 20
375.4801420195398
 30
0.0
  0
POINT
  5
202
  8
DEFPOINTS
  6
CONTINUOUS
 62
     0
 10
42.16631365684725
 20
375.4801420195398
 30
0.0
  0
ENDBLK
  5
203
  8
0
 62
     7
  0
BLOCK
  8
0
  2
*D2424
 70
     1
 10
0.0
 20
0.0
 30
0.0
  3
*D2424
  1

  0
LINE
  5
1DC
  8
回08-記事
  6
CONTINUOUS
 62
     5
 10
67.6859846722646
 20
380.4801420195342
 30
0.0
 11
54.62100094336946
 21
380.4801420195342
 31
0.0
  0
LINE
  5
1DD
  8
回08-記事
  6
CONTINUOUS
 62
     5
 10
67.6859846722646
 20
377.9801420195342
 30
0.0
 11
54.62100094336946
 21
377.9801420195342
 31
0.0
  0
LINE
  5
1DE
  8
回08-記事
  6
CONTINUOUS
 62
     5
 10
55.62100094336947
 20
382.4801420195342
 30
0.0
 11
55.62100094336947
 21
384.4801420195342
 31
0.0
  0
LINE
  5
1DF
  8
回08-記事
  6
CONTINUOUS
 62
     5
 10
55.62100094336947
 20
375.9801420195342
 30
0.0
 11
55.62100094336947
 21
342.8695970280514
 31
0.0
  0
LINE
  5
1E0
  8
回08-記事
  6
CONTINUOUS
 62
     5
 10
55.62100094336947
 20
380.4801420195342
 30
0.0
 11
55.62100094336947
 21
377.9801420195342
 31
0.0
  0
INSERT
  5
1E1
  8
回08-記事
  6
CONTINUOUS
 62
     5
 66
     1
  2
_OPEN
 10
55.62100094336947
 20
380.4801420195342
 30
0.0
 41
2.0
 42
2.0
 43
2.0
 50
270.0
  0
SEQEND
  5
1E2
  8
回07-寸法
  6
CONTINUOUS
 62
     7
  0
INSERT
  5
1E3
  8
回08-記事
  6
CONTINUOUS
 62
     5
 66
     1
  2
_OPEN
 10
55.62100094336947
 20
377.9801420195342
 30
0.0
 41
2.0
 42
2.0
 43
2.0
 50
90.0
  0
SEQEND
  5
1E4
  8
回07-寸法
  6
CONTINUOUS
 62
     7
  0
INSERT
  5
1E5
  8
回08-記事
  6
CONTINUOUS
 62
     5
 66
     1
  2
*X8989
 10
0.0
 20
0.0
 30
0.0
  0
SEQEND
  5
6EB
  8
回07-寸法
  6
CONTINUOUS
 62
     7
  0
POINT
  5
1E6
  8
DEFPOINTS
  6
CONTINUOUS
 62
     0
 10
67.6859846722646
 20
380.4801420195342
 30
0.0
  0
POINT
  5
1E7
  8
DEFPOINTS
  6
CONTINUOUS
 62
     0
 10
67.6859846722646
 20
377.9801420195342
 30
0.0
  0
POINT
  5
1E8
  8
DEFPOINTS
  6
CONTINUOUS
 62
     0
 10
55.62100094336947
 20
377.9801420195342
 30
0.0
  0
ENDBLK
  5
1E9
  8
0
 62
     7
  0
BLOCK
  8
0
  2
*D2525
 70
     1
 10
0.0
 20
0.0
 30
0.0
  3
*D2525
  1

  0
LINE
  5
1CB
  8
回08-記事
  6
CONTINUOUS
 62
     5
 10
70.58542674053936
 20
378.6801420195342
 30
0.0
 11
61.38563853622205
 21
378.6801420195342
 31
0.0
  0
LINE
  5
1CC
  8
回08-記事
  6
CONTINUOUS
 62
     5
 10
70.58542674053936
 20
377.2801420195343
 30
0.0
 11
61.38563853622205
 21
377.2801420195343
 31
0.0
  0
LINE
  5
1CD
  8
回08-記事
  6
CONTINUOUS
 62
     5
 10
62.38563853622205
 20
380.6801420195342
 30
0.0
 11
62.38563853622205
 21
382.6801420195342
 31
0.0
  0
LINE
  5
1CE
  8
回08-記事
  6
CONTINUOUS
 62
     5
 10
62.38563853622205
 20
375.2801420195343
 30
0.0
 11
62.38563853622205
 21
334.0801250195343
 31
0.0
  0
LINE
  5
1CF
  8
回08-記事
  6
CONTINUOUS
 62
     5
 10
62.38563853622205
 20
378.6801420195342
 30
0.0
 11
62.38563853622205
 21
377.2801420195343
 31
0.0
  0
INSERT
  5
1D0
  8
回08-記事
  6
CONTINUOUS
 62
     5
 66
     1
  2
_OPEN
 10
62.38563853622205
 20
378.6801420195342
 30
0.0
 41
2.0
 42
2.0
 43
2.0
 50
270.0
  0
SEQEND
  5
1D1
  8
回07-寸法
  6
CONTINUOUS
 62
     7
  0
INSERT
  5
1D2
  8
回08-記事
  6
CONTINUOUS
 62
     5
 66
     1
  2
_OPEN
 10
62.38563853622205
 20
377.2801420195343
 30
0.0
 41
2.0
 42
2.0
 43
2.0
 50
90.0
  0
SEQEND
  5
1D3
  8
回07-寸法
  6
CONTINUOUS
 62
     7
  0
INSERT
  5
1D4
  8
回08-記事
  6
CONTINUOUS
 62
     5
 66
     1
  2
*X9090
 10
0.0
 20
0.0
 30
0.0
  0
SEQEND
  5
6F4
  8
回07-寸法
  6
CONTINUOUS
 62
     7
  0
POINT
  5
1D5
  8
DEFPOINTS
  6
CONTINUOUS
 62
     0
 10
70.58542674053936
 20
378.6801420195342
 30
0.0
  0
POINT
  5
1D6
  8
DEFPOINTS
  6
CONTINUOUS
 62
     0
 10
70.58542674053936
 20
377.2801420195343
 30
0.0
  0
POINT
  5
1D7
  8
DEFPOINTS
  6
CONTINUOUS
 62
     0
 10
62.38563853622205
 20
377.2801420195343
 30
0.0
  0
ENDBLK
  5
1D8
  8
0
 62
     7
  0
BLOCK
  8
0
  2
*D2626
 70
     1
 10
0.0
 20
0.0
 30
0.0
  3
*D2626
  1

  0
LINE
  5
1BA
  8
回08-記事
  6
CONTINUOUS
 62
     5
 10
67.6859846722646
 20
377.9801420195342
 30
0.0
 11
48.20626291718363
 21
377.9801420195342
 31
0.0
  0
LINE
  5
1BB
  8
回08-記事
  6
CONTINUOUS
 62
     5
 10
67.68589765072923
 20
385.4801420195343
 30
0.0
 11
48.20626291718363
 21
385.4801420195343
 31
0.0
  0
LINE
  5
1BC
  8
回08-記事
  6
CONTINUOUS
 62
     5
 10
49.20626291718363
 20
387.4801420195343
 30
0.0
 11
49.20626291718363
 21
389.4801420195343
 31
0.0
  0
LINE
  5
1BD
  8
回08-記事
  6
CONTINUOUS
 62
     5
 10
49.20626291718363
 20
375.9801420195342
 30
0.0
 11
49.20626291718363
 21
343.0800810195342
 31
0.0
  0
LINE
  5
1BE
  8
回08-記事
  6
CONTINUOUS
 62
     5
 10
49.20626291718363
 20
385.4801420195343
 30
0.0
 11
49.20626291718363
 21
377.9801420195342
 31
0.0
  0
INSERT
  5
1BF
  8
回08-記事
  6
CONTINUOUS
 62
     5
 66
     1
  2
_OPEN
 10
49.20626291718363
 20
385.4801420195343
 30
0.0
 41
2.0
 42
2.0
 43
2.0
 50
270.0
  0
SEQEND
  5
1C0
  8
回07-寸法
  6
CONTINUOUS
 62
     7
  0
INSERT
  5
1C1
  8
回08-記事
  6
CONTINUOUS
 62
     5
 66
     1
  2
_OPEN
 10
49.20626291718363
 20
377.9801420195342
 30
0.0
 41
2.0
 42
2.0
 43
2.0
 50
90.0
  0
SEQEND
  5
1C2
  8
回07-寸法
  6
CONTINUOUS
 62
     7
  0
INSERT
  5
1C3
  8
回08-記事
  6
CONTINUOUS
 62
     5
 66
     1
  2
*X9191
 10
0.0
 20
0.0
 30
0.0
  0
SEQEND
  5
6FD
  8
回07-寸法
  6
CONTINUOUS
 62
     7
  0
POINT
  5
1C4
  8
DEFPOINTS
  6
CONTINUOUS
 62
     0
 10
67.6859846722646
 20
377.9801420195342
 30
0.0
  0
POINT
  5
1C5
  8
DEFPOINTS
  6
CONTINUOUS
 62
     0
 10
67.68589765072923
 20
385.4801420195343
 30
0.0
  0
POINT
  5
1C6
  8
DEFPOINTS
  6
CONTINUOUS
 62
     0
 10
49.20626291718363
 20
385.4801420195343
 30
0.0
  0
ENDBLK
  5
1C7
  8
0
 62
     7
  0
BLOCK
  8
0
  2
*D2727
 70
     1
 10
0.0
 20
0.0
 30
0.0
  3
*D2727
  1

  0
LINE
  5
1A1
  8
回07-寸法
  6
CONTINUOUS
 62
     5
 10
325.7382109613137
 20
227.4971143531762
 30
0.0
 11
355.1160847172387
 21
227.4971143531762
 31
0.0
  0
LINE
  5
1A2
  8
回07-寸法
  6
CONTINUOUS
 62
     5
 10
325.7382109613137
 20
223.9471143531762
 30
0.0
 11
355.1160847172387
 21
223.9471143531762
 31
0.0
  0
LINE
  5
1A3
  8
回07-寸法
  6
CONTINUOUS
 62
     5
 10
354.1160847172386
 20
229.4971143531762
 30
0.0
 11
354.1160847172386
 21
231.4971143531762
 31
0.0
  0
LINE
  5
1A4
  8
回07-寸法
  6
CONTINUOUS
 62
     5
 10
354.1160847172386
 20
221.9471143531762
 30
0.0
 11
354.1160847172386
 21
199.4471143531761
 31
0.0
  0
LINE
  5
1A5
  8
回07-寸法
  6
CONTINUOUS
 62
     5
 10
354.1160847172386
 20
227.4971143531762
 30
0.0
 11
354.1160847172386
 21
223.9471143531762
 31
0.0
  0
INSERT
  5
1A6
  8
回07-寸法
  6
CONTINUOUS
 62
     5
 66
     1
  2
_OPEN
 10
354.1160847172386
 20
227.4971143531762
 30
0.0
 41
2.0
 42
2.0
 43
2.0
 50
270.0
  0
SEQEND
  5
1A7
  8
回07-寸法
  6
CONTINUOUS
 62
     7
  0
INSERT
  5
1A8
  8
回07-寸法
  6
CONTINUOUS
 62
     5
 66
     1
  2
_OPEN
 10
354.1160847172386
 20
223.9471143531762
 30
0.0
 41
2.0
 42
2.0
 43
2.0
 50
90.0
  0
SEQEND
  5
1A9
  8
回07-寸法
  6
CONTINUOUS
 62
     7
  0
TEXT
  5
1AA
  8
回07-寸法
  6
CONTINUOUS
 62
     5
 10
353.4660847172387
 20
199.4971143531762
 30
0.0
 40
3.0
  1
3.55 [0.140]
 50
90.0
1001
ACAD
1000
MTEXTBEGIN
1070
    73
1070
     1
1070
    44
1040
1.0
1070
    74
1070
     0
1000
MTEXTEND
  0
POINT
  5
1AB
  8
DEFPOINTS
  6
CONTINUOUS
 62
     0
 10
325.7382109613137
 20
227.4971143531762
 30
0.0
  0
POINT
  5
1AC
  8
DEFPOINTS
  6
CONTINUOUS
 62
     0
 10
325.7382109613137
 20
223.9471143531762
 30
0.0
  0
POINT
  5
1AD
  8
DEFPOINTS
  6
CONTINUOUS
 62
     0
 10
354.1160847172386
 20
223.9471143531762
 30
0.0
  0
ENDBLK
  5
1AE
  8
0
 62
     7
  0
BLOCK
  8
0
  2
*D2828
 70
     1
 10
0.0
 20
0.0
 30
0.0
  3
*D2828
  1

  0
LINE
  5
190
  8
回07-寸法
  6
CONTINUOUS
 62
     5
 10
325.7382109613137
 20
227.4971143531762
 30
0.0
 11
355.1160847172387
 21
227.4971143531762
 31
0.0
  0
LINE
  5
191
  8
回07-寸法
  6
CONTINUOUS
 62
     5
 10
325.7382109613137
 20
229.4971143531762
 30
0.0
 11
355.1160847172387
 21
229.4971143531762
 31
0.0
  0
LINE
  5
192
  8
回07-寸法
  6
CONTINUOUS
 62
     5
 10
354.1160847172386
 20
225.4971143531762
 30
0.0
 11
354.1160847172386
 21
223.4971143531762
 31
0.0
  0
LINE
  5
193
  8
回07-寸法
  6
CONTINUOUS
 62
     5
 10
354.1160847172386
 20
231.4971143531762
 30
0.0
 11
354.1160847172386
 21
251.6052351399346
 31
0.0
  0
LINE
  5
194
  8
回07-寸法
  6
CONTINUOUS
 62
     5
 10
354.1160847172386
 20
227.4971143531762
 30
0.0
 11
354.1160847172386
 21
229.4971143531762
 31
0.0
  0
INSERT
  5
195
  8
回07-寸法
  6
CONTINUOUS
 62
     5
 66
     1
  2
_OPEN
 10
354.1160847172386
 20
227.4971143531762
 30
0.0
 41
2.0
 42
2.0
 43
2.0
 50
90.0
  0
SEQEND
  5
196
  8
回07-寸法
  6
CONTINUOUS
 62
     7
  0
INSERT
  5
197
  8
回07-寸法
  6
CONTINUOUS
 62
     5
 66
     1
  2
_OPEN
 10
354.1160847172386
 20
229.4971143531762
 30
0.0
 41
2.0
 42
2.0
 43
2.0
 50
270.0
  0
SEQEND
  5
198
  8
回07-寸法
  6
CONTINUOUS
 62
     7
  0
TEXT
  5
199
  8
回07-寸法
  6
CONTINUOUS
 62
     5
 10
353.466144623341
 20
233.5457591937649
 30
0.0
 40
3.0
  1
(2 [0.079])
 50
90.0
1001
ACAD
1000
MTEXTBEGIN
1070
    73
1070
     1
1070
    44
1040
1.0
1070
    74
1070
     0
1000
MTEXTEND
  0
POINT
  5
19A
  8
DEFPOINTS
  6
CONTINUOUS
 62
     0
 10
325.7382109613137
 20
227.4971143531762
 30
0.0
  0
POINT
  5
19B
  8
DEFPOINTS
  6
CONTINUOUS
 62
     0
 10
325.7382109613137
 20
229.4971143531762
 30
0.0
  0
POINT
  5
19C
  8
DEFPOINTS
  6
CONTINUOUS
 62
     0
 10
354.1160847172386
 20
229.4971143531762
 30
0.0
  0
ENDBLK
  5
19D
  8
0
 62
     7
  0
BLOCK
  8
0
  2
*D2929
 70
     1
 10
0.0
 20
0.0
 30
0.0
  3
*D2929
  1

  0
LINE
  5
137
  8
回07-寸法
  6
CONTINUOUS
 62
     5
 10
321.8382109613136
 20
323.0371143531762
 30
0.0
 11
321.8382109613136
 21
355.016058969769
 31
0.0
  0
LINE
  5
138
  8
回07-寸法
  6
CONTINUOUS
 62
     5
 10
165.9382109613136
 20
323.0371143531762
 30
0.0
 11
165.9382109613136
 21
355.016058969769
 31
0.0
  0
LINE
  5
139
  8
回07-寸法
  6
CONTINUOUS
 62
     5
 10
319.8382109613136
 20
354.0160589697689
 30
0.0
 11
167.9382109613136
 21
354.0160589697689
 31
0.0
  0
INSERT
  5
13A
  8
回07-寸法
  6
CONTINUOUS
 62
     5
 66
     1
  2
_OPEN
 10
321.8382109613136
 20
354.0160589697689
 30
0.0
 41
2.0
 42
2.0
 43
2.0
  0
SEQEND
  5
13B
  8
回07-寸法
  6
CONTINUOUS
 62
     7
  0
INSERT
  5
13C
  8
回07-寸法
  6
CONTINUOUS
 62
     5
 66
     1
  2
_OPEN
 10
165.9382109613136
 20
354.0160589697689
 30
0.0
 41
2.0
 42
2.0
 43
2.0
 50
180.0
  0
SEQEND
  5
13D
  8
回07-寸法
  6
CONTINUOUS
 62
     7
  0
TEXT
  5
13E
  8
回07-寸法
  6
CONTINUOUS
 62
     5
 10
233.0827954085232
 20
354.6660589697689
 30
0.0
 40
3.0
  1
155.9 [6.138]
1001
ACAD
1000
MTEXTBEGIN
1070
    73
1070
     1
1070
    44
1040
1.0
1070
    74
1070
     0
1000
MTEXTEND
  0
POINT
  5
13F
  8
DEFPOINTS
  6
CONTINUOUS
 62
     0
 10
321.8382109613136
 20
323.0371143531762
 30
0.0
  0
POINT
  5
140
  8
DEFPOINTS
  6
CONTINUOUS
 62
     0
 10
165.9382109613136
 20
323.0371143531762
 30
0.0
  0
POINT
  5
141
  8
DEFPOINTS
  6
CONTINUOUS
 62
     0
 10
165.9382109613136
 20
354.0160589697689
 30
0.0
  0
ENDBLK
  5
142
  8
0
 62
     7
  0
BLOCK
  8
0
  2
*D3030
 70
     1
 10
0.0
 20
0.0
 30
0.0
  3
*D3030
  1

  0
LINE
  5
126
  8
回07-寸法
  6
CONTINUOUS
 62
     5
 10
165.9382109613136
 20
323.0371143531762
 30
0.0
 11
165.9382109613136
 21
355.016058969769
 31
0.0
  0
LINE
  5
127
  8
回07-寸法
  6
CONTINUOUS
 62
     5
 10
160.7382109613136
 20
327.9471143531762
 30
0.0
 11
160.7382109613136
 21
355.016058969769
 31
0.0
  0
LINE
  5
128
  8
回07-寸法
  6
CONTINUOUS
 62
     5
 10
167.9382109613136
 20
354.0160589697689
 30
0.0
 11
169.9382109613136
 21
354.0160589697689
 31
0.0
  0
LINE
  5
129
  8
回07-寸法
  6
CONTINUOUS
 62
     5
 10
158.7382109613136
 20
354.0160589697689
 30
0.0
 11
138.0382109613136
 21
354.0160589697689
 31
0.0
  0
LINE
  5
12A
  8
回07-寸法
  6
CONTINUOUS
 62
     5
 10
165.9382109613136
 20
354.0160589697689
 30
0.0
 11
160.7382109613136
 21
354.0160589697689
 31
0.0
  0
INSERT
  5
12B
  8
回07-寸法
  6
CONTINUOUS
 62
     5
 66
     1
  2
_OPEN
 10
165.9382109613136
 20
354.0160589697689
 30
0.0
 41
2.0
 42
2.0
 43
2.0
 50
180.0
  0
SEQEND
  5
12C
  8
回07-寸法
  6
CONTINUOUS
 62
     7
  0
INSERT
  5
12D
  8
回07-寸法
  6
CONTINUOUS
 62
     5
 66
     1
  2
_OPEN
 10
160.7382109613136
 20
354.0160589697689
 30
0.0
 41
2.0
 42
2.0
 43
2.0
  0
SEQEND
  5
12E
  8
回07-寸法
  6
CONTINUOUS
 62
     7
  0
TEXT
  5
12F
  8
回07-寸法
  6
CONTINUOUS
 62
     5
 10
138.0882109613136
 20
354.6660589697689
 30
0.0
 40
3.0
  1
5.2 [0.205]
1001
ACAD
1000
MTEXTBEGIN
1070
    73
1070
     1
1070
    44
1040
1.0
1070
    74
1070
     0
1000
MTEXTEND
  0
POINT
  5
130
  8
DEFPOINTS
  6
CONTINUOUS
 62
     0
 10
165.9382109613136
 20
323.0371143531762
 30
0.0
  0
POINT
  5
131
  8
DEFPOINTS
  6
CONTINUOUS
 62
     0
 10
160.7382109613136
 20
327.9471143531762
 30
0.0
  0
POINT
  5
132
  8
DEFPOINTS
  6
CONTINUOUS
 62
     0
 10
160.7382109613136
 20
354.0160589697689
 30
0.0
  0
ENDBLK
  5
133
  8
0
 62
     7
  0
BLOCK
  8
0
  2
*D3131
 70
     1
 10
0.0
 20
0.0
 30
0.0
  3
*D3131
  1

  0
LINE
  5
115
  8
回07-寸法
  6
CONTINUOUS
 62
     5
 10
321.8382109613136
 20
323.0371143531762
 30
0.0
 11
321.8382109613136
 21
355.016058969769
 31
0.0
  0
LINE
  5
116
  8
回07-寸法
  6
CONTINUOUS
 62
     5
 10
325.7382109613137
 20
327.9471143531762
 30
0.0
 11
325.7382109613137
 21
355.016058969769
 31
0.0
  0
LINE
  5
117
  8
回07-寸法
  6
CONTINUOUS
 62
     5
 10
319.8382109613136
 20
354.0160589697689
 30
0.0
 11
317.8382109613136
 21
354.0160589697689
 31
0.0
  0
LINE
  5
118
  8
回07-寸法
  6
CONTINUOUS
 62
     5
 10
327.7382109613137
 20
354.0160589697689
 30
0.0
 11
348.1486939527964
 21
354.0160589697689
 31
0.0
  0
LINE
  5
119
  8
回07-寸法
  6
CONTINUOUS
 62
     5
 10
321.8382109613136
 20
354.0160589697689
 30
0.0
 11
325.7382109613137
 21
354.0160589697689
 31
0.0
  0
INSERT
  5
11A
  8
回07-寸法
  6
CONTINUOUS
 62
     5
 66
     1
  2
_OPEN
 10
321.8382109613136
 20
354.0160589697689
 30
0.0
 41
2.0
 42
2.0
 43
2.0
  0
SEQEND
  5
11B
  8
回07-寸法
  6
CONTINUOUS
 62
     7
  0
INSERT
  5
11C
  8
回07-寸法
  6
CONTINUOUS
 62
     5
 66
     1
  2
_OPEN
 10
325.7382109613137
 20
354.0160589697689
 30
0.0
 41
2.0
 42
2.0
 43
2.0
 50
180.0
  0
SEQEND
  5
11D
  8
回07-寸法
  6
CONTINUOUS
 62
     7
  0
TEXT
  5
11E
  8
回07-寸法
  6
CONTINUOUS
 62
     5
 10
329.7880369042645
 20
354.6660589697689
 30
0.0
 40
3.0
  1
3.9 [0.154]
1001
ACAD
1000
MTEXTBEGIN
1070
    73
1070
     1
1070
    44
1040
1.0
1070
    74
1070
     0
1000
MTEXTEND
  0
POINT
  5
11F
  8
DEFPOINTS
  6
CONTINUOUS
 62
     0
 10
321.8382109613136
 20
323.0371143531762
 30
0.0
  0
POINT
  5
120
  8
DEFPOINTS
  6
CONTINUOUS
 62
     0
 10
325.7382109613137
 20
327.9471143531762
 30
0.0
  0
POINT
  5
121
  8
DEFPOINTS
  6
CONTINUOUS
 62
     0
 10
325.7382109613137
 20
354.0160589697689
 30
0.0
  0
ENDBLK
  5
122
  8
0
 62
     7
  0
BLOCK
  8
0
  2
*D3232
 70
     1
 10
0.0
 20
0.0
 30
0.0
  3
*D3232
  1

  0
LINE
  5
106
  8
回07-寸法
  6
CONTINUOUS
 62
     5
 10
321.8382109613136
 20
227.4971143531762
 30
0.0
 11
378.4662708941751
 21
227.4971143531762
 31
0.0
  0
LINE
  5
107
  8
回07-寸法
  6
CONTINUOUS
 62
     5
 10
321.8382109613136
 20
323.0371143531762
 30
0.0
 11
378.4662708941751
 21
323.0371143531762
 31
0.0
  0
LINE
  5
108
  8
回07-寸法
  6
CONTINUOUS
 62
     5
 10
377.4662708941751
 20
229.4971143531762
 30
0.0
 11
377.4662708941751
 21
321.0371143531762
 31
0.0
  0
INSERT
  5
109
  8
回07-寸法
  6
CONTINUOUS
 62
     5
 66
     1
  2
_OPEN
 10
377.4662708941751
 20
227.4971143531762
 30
0.0
 41
2.0
 42
2.0
 43
2.0
 50
270.0
  0
SEQEND
  5
10A
  8
回07-寸法
  6
CONTINUOUS
 62
     7
  0
INSERT
  5
10B
  8
回07-寸法
  6
CONTINUOUS
 62
     5
 66
     1
  2
_OPEN
 10
377.4662708941751
 20
323.0371143531762
 30
0.0
 41
2.0
 42
2.0
 43
2.0
 50
90.0
  0
SEQEND
  5
10C
  8
回07-寸法
  6
CONTINUOUS
 62
     7
  0
TEXT
  5
10D
  8
回07-寸法
  6
CONTINUOUS
 62
     5
 10
376.816270894175
 20
264.0062832475953
 30
0.0
 40
3.0
  1
95.54 [3.761]
 50
90.0
1001
ACAD
1000
MTEXTBEGIN
1070
    73
1070
     1
1070
    44
1040
1.0
1070
    74
1070
     0
1000
MTEXTEND
  0
POINT
  5
10E
  8
DEFPOINTS
  6
CONTINUOUS
 62
     0
 10
321.8382109613136
 20
227.4971143531762
 30
0.0
  0
POINT
  5
10F
  8
DEFPOINTS
  6
CONTINUOUS
 62
     0
 10
321.8382109613136
 20
323.0371143531762
 30
0.0
  0
POINT
  5
110
  8
DEFPOINTS
  6
CONTINUOUS
 62
     0
 10
377.4662708941751
 20
323.0371143531762
 30
0.0
  0
ENDBLK
  5
111
  8
0
 62
     7
  0
BLOCK
  8
0
  2
*D3333
 70
     1
 10
0.0
 20
0.0
 30
0.0
  3
*D3333
  1

  0
LINE
  5
F5
  8
回07-寸法
  6
CONTINUOUS
 62
     5
 10
321.8382109613136
 20
323.0371143531762
 30
0.0
 11
378.4662708941751
 21
323.0371143531762
 31
0.0
  0
LINE
  5
F6
  8
回07-寸法
  6
CONTINUOUS
 62
     5
 10
325.7382109613137
 20
327.9471143531762
 30
0.0
 11
378.4662708941751
 21
327.9471143531762
 31
0.0
  0
LINE
  5
F7
  8
回07-寸法
  6
CONTINUOUS
 62
     5
 10
377.4662708941751
 20
321.0371143531762
 30
0.0
 11
377.4662708941751
 21
319.0371143531762
 31
0.0
  0
LINE
  5
F8
  8
回07-寸法
  6
CONTINUOUS
 62
     5
 10
377.4662708941751
 20
329.9471143531762
 30
0.0
 11
377.4662708941751
 21
351.8680803361418
 31
0.0
  0
LINE
  5
F9
  8
回07-寸法
  6
CONTINUOUS
 62
     5
 10
377.4662708941751
 20
323.0371143531762
 30
0.0
 11
377.4662708941751
 21
327.9471143531762
 31
0.0
  0
INSERT
  5
FA
  8
回07-寸法
  6
CONTINUOUS
 62
     5
 66
     1
  2
_OPEN
 10
377.4662708941751
 20
323.0371143531762
 30
0.0
 41
2.0
 42
2.0
 43
2.0
 50
90.0
  0
SEQEND
  5
FB
  8
回07-寸法
  6
CONTINUOUS
 62
     7
  0
INSERT
  5
FC
  8
回07-寸法
  6
CONTINUOUS
 62
     5
 66
     1
  2
_OPEN
 10
377.4662708941751
 20
327.9471143531762
 30
0.0
 41
2.0
 42
2.0
 43
2.0
 50
270.0
  0
SEQEND
  5
FD
  8
回07-寸法
  6
CONTINUOUS
 62
     7
  0
TEXT
  5
FE
  8
回07-寸法
  6
CONTINUOUS
 62
     5
 10
376.8163308002774
 20
331.9967662390781
 30
0.0
 40
3.0
  1
4.91 [0.193]
 50
90.0
1001
ACAD
1000
MTEXTBEGIN
1070
    73
1070
     1
1070
    44
1040
1.0
1070
    74
1070
     0
1000
MTEXTEND
  0
POINT
  5
FF
  8
DEFPOINTS
  6
CONTINUOUS
 62
     0
 10
321.8382109613136
 20
323.0371143531762
 30
0.0
  0
POINT
  5
100
  8
DEFPOINTS
  6
CONTINUOUS
 62
     0
 10
325.7382109613137
 20
327.9471143531762
 30
0.0
  0
POINT
  5
101
  8
DEFPOINTS
  6
CONTINUOUS
 62
     0
 10
377.4662708941751
 20
327.9471143531762
 30
0.0
  0
ENDBLK
  5
102
  8
0
 62
     7
  0
BLOCK
  8
0
  2
*D3434
 70
     1
 10
0.0
 20
0.0
 30
0.0
  3
*D3434
  1

  0
LINE
  5
E3
  8
回07-寸法
  6
CONTINUOUS
 62
     5
 10
321.8382109613136
 20
227.4971143531761
 30
0.0
 11
378.466270894175
 21
227.4971143531761
 31
0.0
  0
LINE
  5
E4
  8
回07-寸法
  6
CONTINUOUS
 62
     5
 10
325.7382109613137
 20
223.9471143531762
 30
0.0
 11
378.466270894175
 21
223.9471143531762
 31
0.0
  0
LINE
  5
E5
  8
回07-寸法
  6
CONTINUOUS
 62
     5
 10
377.4662708941749
 20
229.4971143531761
 30
0.0
 11
377.4662708941749
 21
231.4971143531761
 31
0.0
  0
LINE
  5
E6
  8
回07-寸法
  6
CONTINUOUS
 62
     5
 10
377.4662708941749
 20
221.9471143531762
 30
0.0
 11
377.4662708941749
 21
199.4471143531761
 31
0.0
  0
LINE
  5
E7
  8
回07-寸法
  6
CONTINUOUS
 62
     5
 10
377.4662708941749
 20
227.4971143531761
 30
0.0
 11
377.4662708941749
 21
223.9471143531762
 31
0.0
  0
INSERT
  5
E8
  8
回07-寸法
  6
CONTINUOUS
 62
     5
 66
     1
  2
_OPEN
 10
377.4662708941749
 20
227.4971143531761
 30
0.0
 41
2.0
 42
2.0
 43
2.0
 50
270.0
  0
SEQEND
  5
E9
  8
回07-寸法
  6
CONTINUOUS
 62
     7
  0
INSERT
  5
EA
  8
回07-寸法
  6
CONTINUOUS
 62
     5
 66
     1
  2
_OPEN
 10
377.4662708941749
 20
223.9471143531762
 30
0.0
 41
2.0
 42
2.0
 43
2.0
 50
90.0
  0
SEQEND
  5
EB
  8
回07-寸法
  6
CONTINUOUS
 62
     7
  0
TEXT
  5
EC
  8
回07-寸法
  6
CONTINUOUS
 62
     5
 10
376.816270894175
 20
199.4971143531762
 30
0.0
 40
3.0
  1
3.55 [0.140]
 50
90.0
1001
ACAD
1000
MTEXTBEGIN
1070
    73
1070
     1
1070
    44
1040
1.0
1070
    74
1070
     0
1000
MTEXTEND
  0
POINT
  5
ED
  8
DEFPOINTS
  6
CONTINUOUS
 62
     0
 10
321.8382109613136
 20
227.4971143531761
 30
0.0
  0
POINT
  5
EF
  8
DEFPOINTS
  6
CONTINUOUS
 62
     0
 10
325.7382109613137
 20
223.9471143531762
 30
0.0
  0
POINT
  5
F0
  8
DEFPOINTS
  6
CONTINUOUS
 62
     0
 10
377.4662708941749
 20
223.9471143531762
 30
0.0
  0
ENDBLK
  5
F1
  8
0
 62
     7
  0
BLOCK
  8
回07-寸法
  2
*D3535
 70
     1
 10
0.0
 20
0.0
 30
0.0
  3
*D3535
  1

  0
LINE
  5
40B
  8
回07-寸法
  6
CONTINUOUS
 62
     5
 10
312.1113500350524
 20
158.3458049842831
 30
0.0
 11
368.7394099679137
 21
158.3458049842831
 31
0.0
  0
LINE
  5
40D
  8
回07-寸法
  6
CONTINUOUS
 62
     5
 10
316.0113500350524
 20
154.7958049842831
 30
0.0
 11
368.7394099679137
 21
154.7958049842831
 31
0.0
  0
LINE
  5
40E
  8
回07-寸法
  6
CONTINUOUS
 62
     5
 10
367.7394099679137
 20
152.7958049842832
 30
0.0
 11
367.7394099679137
 21
130.2958049842831
 31
0.0
  0
LINE
  5
40F
  8
回07-寸法
  6
CONTINUOUS
 62
     5
 10
367.7394099679137
 20
158.3458049842831
 30
0.0
 11
367.7394099679137
 21
154.7958049842831
 31
0.0
  0
LINE
  5
410
  8
回07-寸法
  6
CONTINUOUS
 62
     5
 10
367.7394099679137
 20
160.3458049842831
 30
0.0
 11
367.7394099679137
 21
162.3458049842831
 31
0.0
  0
INSERT
  5
411
  8
回07-寸法
  6
CONTINUOUS
 62
     5
  2
_OPEN
 10
367.7394099679137
 20
158.3458049842831
 30
0.0
 41
2.0
 42
2.0
 43
2.0
 50
270.0
  0
INSERT
  5
412
  8
回07-寸法
  6
CONTINUOUS
 62
     5
  2
_OPEN
 10
367.7394099679137
 20
154.7958049842831
 30
0.0
 41
2.0
 42
2.0
 43
2.0
 50
90.0
  0
TEXT
  5
413
  8
回07-寸法
  6
CONTINUOUS
 62
     5
 10
367.0894099679137
 20
130.3458049842832
 30
0.0
 40
3.0
  1
3.55 [0.140]
 50
90.0
  0
POINT
  5
414
  8
DEFPOINTS
  6
CONTINUOUS
 62
     0
 10
312.1113500350524
 20
158.3458049842831
 30
0.0
  0
POINT
  5
415
  8
DEFPOINTS
  6
CONTINUOUS
 62
     0
 10
316.0113500350524
 20
154.7958049842831
 30
0.0
  0
POINT
  5
416
  8
DEFPOINTS
  6
CONTINUOUS
 62
     0
 10
367.7394099679137
 20
154.7958049842831
 30
0.0
  0
ENDBLK
  5
418
  8
回07-寸法
  6
CONTINUOUS
 62
     7
  0
BLOCK
  8
回07-寸法
  2
*D3636
 70
     1
 10
0.0
 20
0.0
 30
0.0
  3
*D3636
  1

  0
LINE
  5
41A
  8
回07-寸法
  6
CONTINUOUS
 62
     5
 10
312.1113500350524
 20
253.8858049842832
 30
0.0
 11
368.7394099679139
 21
253.8858049842832
 31
0.0
  0
LINE
  5
41B
  8
回07-寸法
  6
CONTINUOUS
 62
     5
 10
316.0113500350524
 20
258.7958049842832
 30
0.0
 11
368.7394099679139
 21
258.7958049842832
 31
0.0
  0
LINE
  5
41C
  8
回07-寸法
  6
CONTINUOUS
 62
     5
 10
367.7394099679138
 20
260.7958049842832
 30
0.0
 11
367.7394099679138
 21
282.717467195445
 31
0.0
  0
LINE
  5
41D
  8
回07-寸法
  6
CONTINUOUS
 62
     5
 10
367.7394099679138
 20
253.8858049842832
 30
0.0
 11
367.7394099679138
 21
258.7958049842832
 31
0.0
  0
LINE
  5
41E
  8
回07-寸法
  6
CONTINUOUS
 62
     5
 10
367.7394099679138
 20
251.8858049842832
 30
0.0
 11
367.7394099679138
 21
249.8858049842832
 31
0.0
  0
INSERT
  5
41F
  8
回07-寸法
  6
CONTINUOUS
 62
     5
  2
_OPEN
 10
367.7394099679138
 20
253.8858049842832
 30
0.0
 41
2.0
 42
2.0
 43
2.0
 50
90.0
  0
INSERT
  5
420
  8
回07-寸法
  6
CONTINUOUS
 62
     5
  2
_OPEN
 10
367.7394099679138
 20
258.7958049842832
 30
0.0
 41
2.0
 42
2.0
 43
2.0
 50
270.0
  0
TEXT
  5
421
  8
回07-寸法
  6
CONTINUOUS
 62
     5
 10
367.0894099679138
 20
262.8458049842832
 30
0.0
 40
3.0
  1
4.91 [0.193]
 50
90.0
  0
POINT
  5
422
  8
DEFPOINTS
  6
CONTINUOUS
 62
     0
 10
312.1113500350524
 20
253.8858049842832
 30
0.0
  0
POINT
  5
423
  8
DEFPOINTS
  6
CONTINUOUS
 62
     0
 10
316.0113500350524
 20
258.7958049842832
 30
0.0
  0
POINT
  5
424
  8
DEFPOINTS
  6
CONTINUOUS
 62
     0
 10
367.7394099679138
 20
258.7958049842832
 30
0.0
  0
ENDBLK
  5
426
  8
回07-寸法
  6
CONTINUOUS
 62
     7
  0
BLOCK
  8
回07-寸法
  2
*D3737
 70
     1
 10
0.0
 20
0.0
 30
0.0
  3
*D3737
  1

  0
LINE
  5
428
  8
回07-寸法
  6
CONTINUOUS
 62
     5
 10
312.1113500350524
 20
158.3458049842832
 30
0.0
 11
368.7394099679139
 21
158.3458049842832
 31
0.0
  0
LINE
  5
429
  8
回07-寸法
  6
CONTINUOUS
 62
     5
 10
312.1113500350524
 20
253.8858049842832
 30
0.0
 11
368.7394099679139
 21
253.8858049842832
 31
0.0
  0
LINE
  5
42A
  8
回07-寸法
  6
CONTINUOUS
 62
     5
 10
367.7394099679138
 20
160.3458049842832
 30
0.0
 11
367.7394099679138
 21
251.8858049842832
 31
0.0
  0
INSERT
  5
42B
  8
回07-寸法
  6
CONTINUOUS
 62
     5
  2
_OPEN
 10
367.7394099679138
 20
158.3458049842832
 30
0.0
 41
2.0
 42
2.0
 43
2.0
 50
270.0
  0
INSERT
  5
42C
  8
回07-寸法
  6
CONTINUOUS
 62
     5
  2
_OPEN
 10
367.7394099679138
 20
253.8858049842832
 30
0.0
 41
2.0
 42
2.0
 43
2.0
 50
90.0
  0
TEXT
  5
42D
  8
回07-寸法
  6
CONTINUOUS
 62
     5
 10
367.0894099679139
 20
194.8549738787022
 30
0.0
 40
3.0
  1
95.54 [3.761]
 50
90.0
  0
POINT
  5
42E
  8
DEFPOINTS
  6
CONTINUOUS
 62
     0
 10
312.1113500350524
 20
158.3458049842832
 30
0.0
  0
POINT
  5
42F
  8
DEFPOINTS
  6
CONTINUOUS
 62
     0
 10
312.1113500350524
 20
253.8858049842832
 30
0.0
  0
POINT
  5
430
  8
DEFPOINTS
  6
CONTINUOUS
 62
     0
 10
367.7394099679138
 20
253.8858049842832
 30
0.0
  0
ENDBLK
  5
432
  8
回07-寸法
  6
CONTINUOUS
 62
     7
  0
BLOCK
  8
回07-寸法
  2
*D3838
 70
     1
 10
0.0
 20
0.0
 30
0.0
  3
*D3838
  1

  0
LINE
  5
434
  8
回07-寸法
  6
CONTINUOUS
 62
     5
 10
312.1113500350524
 20
253.8858049842832
 30
0.0
 11
312.1113500350524
 21
285.8647496008759
 31
0.0
  0
LINE
  5
435
  8
回07-寸法
  6
CONTINUOUS
 62
     5
 10
316.0113500350524
 20
258.7958049842832
 30
0.0
 11
316.0113500350524
 21
285.8647496008759
 31
0.0
  0
LINE
  5
436
  8
回07-寸法
  6
CONTINUOUS
 62
     5
 10
318.0113500350524
 20
284.8647496008759
 30
0.0
 11
338.4221811406334
 21
284.8647496008759
 31
0.0
  0
LINE
  5
437
  8
回07-寸法
  6
CONTINUOUS
 62
     5
 10
312.1113500350524
 20
284.8647496008759
 30
0.0
 11
316.0113500350524
 21
284.8647496008759
 31
0.0
  0
LINE
  5
438
  8
回07-寸法
  6
CONTINUOUS
 62
     5
 10
310.1113500350524
 20
284.8647496008759
 30
0.0
 11
308.1113500350524
 21
284.8647496008759
 31
0.0
  0
INSERT
  5
439
  8
回07-寸法
  6
CONTINUOUS
 62
     5
  2
_OPEN
 10
312.1113500350524
 20
284.8647496008759
 30
0.0
 41
2.0
 42
2.0
 43
2.0
  0
INSERT
  5
43A
  8
回07-寸法
  6
CONTINUOUS
 62
     5
  2
_OPEN
 10
316.0113500350524
 20
284.8647496008759
 30
0.0
 41
2.0
 42
2.0
 43
2.0
 50
180.0
  0
TEXT
  5
43B
  8
回07-寸法
  6
CONTINUOUS
 62
     5
 10
320.0613500350524
 20
285.5147496008759
 30
0.0
 40
3.0
  1
3.9 [0.154]
  0
POINT
  5
43C
  8
DEFPOINTS
  6
CONTINUOUS
 62
     0
 10
312.1113500350524
 20
253.8858049842832
 30
0.0
  0
POINT
  5
43D
  8
DEFPOINTS
  6
CONTINUOUS
 62
     0
 10
316.0113500350524
 20
258.7958049842832
 30
0.0
  0
POINT
  5
43E
  8
DEFPOINTS
  6
CONTINUOUS
 62
     0
 10
316.0113500350524
 20
284.8647496008759
 30
0.0
  0
ENDBLK
  5
440
  8
回07-寸法
  6
CONTINUOUS
 62
     7
  0
BLOCK
  8
回07-寸法
  2
*D3939
 70
     1
 10
0.0
 20
0.0
 30
0.0
  3
*D3939
  1

  0
LINE
  5
442
  8
回07-寸法
  6
CONTINUOUS
 62
     5
 10
156.2113500350524
 20
253.8858049842832
 30
0.0
 11
156.2113500350524
 21
285.8647496008759
 31
0.0
  0
LINE
  5
443
  8
回07-寸法
  6
CONTINUOUS
 62
     5
 10
151.0113500350523
 20
258.7958049842832
 30
0.0
 11
151.0113500350523
 21
285.8647496008759
 31
0.0
  0
LINE
  5
444
  8
回07-寸法
  6
CONTINUOUS
 62
     5
 10
149.0113500350523
 20
284.8647496008759
 30
0.0
 11
128.3113500350524
 21
284.8647496008759
 31
0.0
  0
LINE
  5
445
  8
回07-寸法
  6
CONTINUOUS
 62
     5
 10
156.2113500350524
 20
284.8647496008759
 30
0.0
 11
151.0113500350523
 21
284.8647496008759
 31
0.0
  0
LINE
  5
446
  8
回07-寸法
  6
CONTINUOUS
 62
     5
 10
158.2113500350524
 20
284.8647496008759
 30
0.0
 11
160.2113500350524
 21
284.8647496008759
 31
0.0
  0
INSERT
  5
447
  8
回07-寸法
  6
CONTINUOUS
 62
     5
  2
_OPEN
 10
156.2113500350524
 20
284.8647496008759
 30
0.0
 41
2.0
 42
2.0
 43
2.0
 50
180.0
  0
INSERT
  5
448
  8
回07-寸法
  6
CONTINUOUS
 62
     5
  2
_OPEN
 10
151.0113500350523
 20
284.8647496008759
 30
0.0
 41
2.0
 42
2.0
 43
2.0
  0
TEXT
  5
449
  8
回07-寸法
  6
CONTINUOUS
 62
     5
 10
128.3613500350524
 20
285.5147496008759
 30
0.0
 40
3.0
  1
5.2 [0.205]
  0
POINT
  5
44A
  8
DEFPOINTS
  6
CONTINUOUS
 62
     0
 10
156.2113500350524
 20
253.8858049842832
 30
0.0
  0
POINT
  5
44B
  8
DEFPOINTS
  6
CONTINUOUS
 62
     0
 10
151.0113500350523
 20
258.7958049842832
 30
0.0
  0
POINT
  5
44C
  8
DEFPOINTS
  6
CONTINUOUS
 62
     0
 10
151.0113500350523
 20
284.8647496008759
 30
0.0
  0
ENDBLK
  5
44E
  8
回07-寸法
  6
CONTINUOUS
 62
     7
  0
BLOCK
  8
回07-寸法
  2
*D4040
 70
     1
 10
0.0
 20
0.0
 30
0.0
  3
*D4040
  1

  0
LINE
  5
450
  8
回07-寸法
  6
CONTINUOUS
 62
     5
 10
312.1113500350524
 20
253.8858049842832
 30
0.0
 11
312.1113500350524
 21
285.8647496008759
 31
0.0
  0
LINE
  5
451
  8
回07-寸法
  6
CONTINUOUS
 62
     5
 10
156.2113500350524
 20
253.8858049842832
 30
0.0
 11
156.2113500350524
 21
285.8647496008759
 31
0.0
  0
LINE
  5
452
  8
回07-寸法
  6
CONTINUOUS
 62
     5
 10
310.1113500350524
 20
284.8647496008759
 30
0.0
 11
158.2113500350524
 21
284.8647496008759
 31
0.0
  0
INSERT
  5
453
  8
回07-寸法
  6
CONTINUOUS
 62
     5
  2
_OPEN
 10
312.1113500350524
 20
284.8647496008759
 30
0.0
 41
2.0
 42
2.0
 43
2.0
  0
INSERT
  5
454
  8
回07-寸法
  6
CONTINUOUS
 62
     5
  2
_OPEN
 10
156.2113500350524
 20
284.8647496008759
 30
0.0
 41
2.0
 42
2.0
 43
2.0
 50
180.0
  0
TEXT
  5
455
  8
回07-寸法
  6
CONTINUOUS
 62
     5
 10
223.3559344822619
 20
285.5147496008759
 30
0.0
 40
3.0
  1
155.9 [6.138]
  0
POINT
  5
456
  8
DEFPOINTS
  6
CONTINUOUS
 62
     0
 10
312.1113500350524
 20
253.8858049842832
 30
0.0
  0
POINT
  5
457
  8
DEFPOINTS
  6
CONTINUOUS
 62
     0
 10
156.2113500350524
 20
253.8858049842832
 30
0.0
  0
POINT
  5
458
  8
DEFPOINTS
  6
CONTINUOUS
 62
     0
 10
156.2113500350524
 20
284.8647496008759
 30
0.0
  0
ENDBLK
  5
45A
  8
回07-寸法
  6
CONTINUOUS
 62
     7
  0
BLOCK
  8
回07-寸法
  2
*D4141
 70
     1
 10
0.0
 20
0.0
 30
0.0
  3
*D4141
  1

  0
LINE
  5
45C
  8
回07-寸法
  6
CONTINUOUS
 62
     5
 10
316.0113500350524
 20
158.3458049842832
 30
0.0
 11
345.3892237909774
 21
158.3458049842832
 31
0.0
  0
LINE
  5
45E
  8
回07-寸法
  6
CONTINUOUS
 62
     5
 10
316.0113500350524
 20
160.3458049842832
 30
0.0
 11
345.3892237909774
 21
160.3458049842832
 31
0.0
  0
LINE
  5
45F
  8
回07-寸法
  6
CONTINUOUS
 62
     5
 10
344.3892237909774
 20
162.3458049842831
 30
0.0
 11
344.3892237909774
 21
182.4542738851397
 31
0.0
  0
LINE
  5
460
  8
回07-寸法
  6
CONTINUOUS
 62
     5
 10
344.3892237909774
 20
158.3458049842832
 30
0.0
 11
344.3892237909774
 21
160.3458049842832
 31
0.0
  0
LINE
  5
461
  8
回07-寸法
  6
CONTINUOUS
 62
     5
 10
344.3892237909774
 20
156.3458049842832
 30
0.0
 11
344.3892237909774
 21
154.3458049842832
 31
0.0
  0
INSERT
  5
462
  8
回07-寸法
  6
CONTINUOUS
 62
     5
  2
_OPEN
 10
344.3892237909774
 20
158.3458049842832
 30
0.0
 41
2.0
 42
2.0
 43
2.0
 50
90.0
  0
INSERT
  5
463
  8
回07-寸法
  6
CONTINUOUS
 62
     5
  2
_OPEN
 10
344.3892237909774
 20
160.3458049842832
 30
0.0
 41
2.0
 42
2.0
 43
2.0
 50
270.0
  0
TEXT
  5
464
  8
回07-寸法
  6
CONTINUOUS
 62
     5
 10
343.7392237909774
 20
164.3946238819209
 30
0.0
 40
3.0
  1
(2 [0.079])
 50
90.0
  0
POINT
  5
465
  8
DEFPOINTS
  6
CONTINUOUS
 62
     0
 10
316.0113500350524
 20
158.3458049842832
 30
0.0
  0
POINT
  5
466
  8
DEFPOINTS
  6
CONTINUOUS
 62
     0
 10
316.0113500350524
 20
160.3458049842832
 30
0.0
  0
POINT
  5
467
  8
DEFPOINTS
  6
CONTINUOUS
 62
     0
 10
344.3892237909774
 20
160.3458049842832
 30
0.0
  0
ENDBLK
  5
469
  8
回07-寸法
  6
CONTINUOUS
 62
     7
  0
BLOCK
  8
回07-寸法
  2
*D4242
 70
     1
 10
0.0
 20
0.0
 30
0.0
  3
*D4242
  1

  0
LINE
  5
46B
  8
回07-寸法
  6
CONTINUOUS
 62
     5
 10
316.0113500350524
 20
158.3458049842832
 30
0.0
 11
345.3892237909774
 21
158.3458049842832
 31
0.0
  0
LINE
  5
46C
  8
回07-寸法
  6
CONTINUOUS
 62
     5
 10
316.0113500350524
 20
154.7958049842831
 30
0.0
 11
345.3892237909774
 21
154.7958049842831
 31
0.0
  0
LINE
  5
46D
  8
回07-寸法
  6
CONTINUOUS
 62
     5
 10
344.3892237909774
 20
152.7958049842832
 30
0.0
 11
344.3892237909774
 21
130.2958049842831
 31
0.0
  0
LINE
  5
46E
  8
回07-寸法
  6
CONTINUOUS
 62
     5
 10
344.3892237909774
 20
158.3458049842832
 30
0.0
 11
344.3892237909774
 21
154.7958049842831
 31
0.0
  0
LINE
  5
46F
  8
回07-寸法
  6
CONTINUOUS
 62
     5
 10
344.3892237909774
 20
160.3458049842832
 30
0.0
 11
344.3892237909774
 21
162.3458049842831
 31
0.0
  0
INSERT
  5
470
  8
回07-寸法
  6
CONTINUOUS
 62
     5
  2
_OPEN
 10
344.3892237909774
 20
158.3458049842832
 30
0.0
 41
2.0
 42
2.0
 43
2.0
 50
270.0
  0
INSERT
  5
471
  8
回07-寸法
  6
CONTINUOUS
 62
     5
  2
_OPEN
 10
344.3892237909774
 20
154.7958049842831
 30
0.0
 41
2.0
 42
2.0
 43
2.0
 50
90.0
  0
TEXT
  5
472
  8
回07-寸法
  6
CONTINUOUS
 62
     5
 10
343.7392237909774
 20
130.3458049842832
 30
0.0
 40
3.0
  1
3.55 [0.140]
 50
90.0
  0
POINT
  5
473
  8
DEFPOINTS
  6
CONTINUOUS
 62
     0
 10
316.0113500350524
 20
158.3458049842832
 30
0.0
  0
POINT
  5
474
  8
DEFPOINTS
  6
CONTINUOUS
 62
     0
 10
316.0113500350524
 20
154.7958049842831
 30
0.0
  0
POINT
  5
475
  8
DEFPOINTS
  6
CONTINUOUS
 62
     0
 10
344.3892237909774
 20
154.7958049842831
 30
0.0
  0
ENDBLK
  5
477
  8
回07-寸法
  6
CONTINUOUS
 62
     7
  0
BLOCK
  8
回07-寸法
  2
*D4343
 70
     1
 10
0.0
 20
0.0
 30
0.0
  3
*D4343
  1

  0
LINE
  5
479
  8
回08-記事
  6
CONTINUOUS
 62
     5
 10
57.95912374600334
 20
308.8288326506411
 30
0.0
 11
38.4794019909225
 21
308.8288326506411
 31
0.0
  0
LINE
  5
47A
  8
回08-記事
  6
CONTINUOUS
 62
     5
 10
57.95903672446796
 20
316.3288326506411
 30
0.0
 11
38.4794019909225
 21
316.3288326506411
 31
0.0
  0
LINE
  5
47B
  8
回08-記事
  6
CONTINUOUS
 62
     5
 10
39.4794019909225
 20
306.8288326506411
 30
0.0
 11
39.4794019909225
 21
273.928771650641
 31
0.0
  0
LINE
  5
47C
  8
回08-記事
  6
CONTINUOUS
 62
     5
 10
39.4794019909225
 20
308.8288326506411
 30
0.0
 11
39.4794019909225
 21
316.3288326506411
 31
0.0
  0
LINE
  5
47D
  8
回08-記事
  6
CONTINUOUS
 62
     5
 10
39.4794019909225
 20
318.328832650641
 30
0.0
 11
39.4794019909225
 21
320.328832650641
 31
0.0
  0
INSERT
  5
47E
  8
回08-記事
  6
CONTINUOUS
 62
     5
  2
_OPEN
 10
39.4794019909225
 20
308.8288326506411
 30
0.0
 41
2.0
 42
2.0
 43
2.0
 50
90.0
  0
INSERT
  5
47F
  8
回08-記事
  6
CONTINUOUS
 62
     5
  2
_OPEN
 10
39.4794019909225
 20
316.3288326506411
 30
0.0
 41
2.0
 42
2.0
 43
2.0
 50
270.0
  0
INSERT
  5
480
  8
回08-記事
  6
CONTINUOUS
 62
     5
 66
     1
  2
*X9292
 10
0.0
 20
0.0
 30
0.0
  0
SEQEND
  5
706
  8
回07-寸法
  6
CONTINUOUS
 62
     7
  0
POINT
  5
481
  8
DEFPOINTS
  6
CONTINUOUS
 62
     0
 10
57.95912374600334
 20
308.8288326506411
 30
0.0
  0
POINT
  5
482
  8
DEFPOINTS
  6
CONTINUOUS
 62
     0
 10
57.95903672446796
 20
316.3288326506411
 30
0.0
  0
POINT
  5
483
  8
DEFPOINTS
  6
CONTINUOUS
 62
     0
 10
39.4794019909225
 20
316.3288326506411
 30
0.0
  0
ENDBLK
  5
485
  8
回07-寸法
  6
CONTINUOUS
 62
     7
  0
BLOCK
  8
回07-寸法
  2
*D4444
 70
     1
 10
0.0
 20
0.0
 30
0.0
  3
*D4444
  1

  0
LINE
  5
487
  8
回08-記事
  6
CONTINUOUS
 62
     5
 10
60.85856581427811
 20
309.5288326506412
 30
0.0
 11
51.65877760996082
 21
309.5288326506412
 31
0.0
  0
LINE
  5
488
  8
回08-記事
  6
CONTINUOUS
 62
     5
 10
60.85856581427811
 20
308.1288326506411
 30
0.0
 11
51.65877760996082
 21
308.1288326506411
 31
0.0
  0
LINE
  5
489
  8
回08-記事
  6
CONTINUOUS
 62
     5
 10
52.65877760996082
 20
306.1288326506411
 30
0.0
 11
52.65877760996082
 21
264.9288156506411
 31
0.0
  0
LINE
  5
48A
  8
回08-記事
  6
CONTINUOUS
 62
     5
 10
52.65877760996082
 20
309.5288326506412
 30
0.0
 11
52.65877760996082
 21
308.1288326506411
 31
0.0
  0
LINE
  5
48B
  8
回08-記事
  6
CONTINUOUS
 62
     5
 10
52.65877760996082
 20
311.5288326506412
 30
0.0
 11
52.65877760996082
 21
313.5288326506412
 31
0.0
  0
INSERT
  5
48C
  8
回08-記事
  6
CONTINUOUS
 62
     5
  2
_OPEN
 10
52.65877760996082
 20
309.5288326506412
 30
0.0
 41
2.0
 42
2.0
 43
2.0
 50
270.0
  0
INSERT
  5
48D
  8
回08-記事
  6
CONTINUOUS
 62
     5
  2
_OPEN
 10
52.65877760996082
 20
308.1288326506411
 30
0.0
 41
2.0
 42
2.0
 43
2.0
 50
90.0
  0
INSERT
  5
48E
  8
回08-記事
  6
CONTINUOUS
 62
     5
 66
     1
  2
*X9393
 10
0.0
 20
0.0
 30
0.0
  0
SEQEND
  5
70F
  8
回07-寸法
  6
CONTINUOUS
 62
     7
  0
POINT
  5
48F
  8
DEFPOINTS
  6
CONTINUOUS
 62
     0
 10
60.85856581427811
 20
309.5288326506412
 30
0.0
  0
POINT
  5
490
  8
DEFPOINTS
  6
CONTINUOUS
 62
     0
 10
60.85856581427811
 20
308.1288326506411
 30
0.0
  0
POINT
  5
491
  8
DEFPOINTS
  6
CONTINUOUS
 62
     0
 10
52.65877760996082
 20
308.1288326506411
 30
0.0
  0
ENDBLK
  5
493
  8
回07-寸法
  6
CONTINUOUS
 62
     7
  0
BLOCK
  8
回07-寸法
  2
*D4545
 70
     1
 10
0.0
 20
0.0
 30
0.0
  3
*D4545
  1

  0
LINE
  5
495
  8
回08-記事
  6
CONTINUOUS
 62
     5
 10
57.95912374600334
 20
311.3288326506411
 30
0.0
 11
44.89414001710824
 21
311.3288326506411
 31
0.0
  0
LINE
  5
496
  8
回08-記事
  6
CONTINUOUS
 62
     5
 10
57.95912374600334
 20
308.8288326506411
 30
0.0
 11
44.89414001710824
 21
308.8288326506411
 31
0.0
  0
LINE
  5
497
  8
回08-記事
  6
CONTINUOUS
 62
     5
 10
45.89414001710824
 20
306.8288326506411
 30
0.0
 11
45.89414001710824
 21
273.71793954506
 31
0.0
  0
LINE
  5
498
  8
回08-記事
  6
CONTINUOUS
 62
     5
 10
45.89414001710824
 20
311.3288326506411
 30
0.0
 11
45.89414001710824
 21
308.8288326506411
 31
0.0
  0
LINE
  5
499
  8
回08-記事
  6
CONTINUOUS
 62
     5
 10
45.89414001710824
 20
313.3288326506411
 30
0.0
 11
45.89414001710824
 21
315.3288326506411
 31
0.0
  0
INSERT
  5
49A
  8
回08-記事
  6
CONTINUOUS
 62
     5
  2
_OPEN
 10
45.89414001710824
 20
311.3288326506411
 30
0.0
 41
2.0
 42
2.0
 43
2.0
 50
270.0
  0
INSERT
  5
49B
  8
回08-記事
  6
CONTINUOUS
 62
     5
  2
_OPEN
 10
45.89414001710824
 20
308.8288326506411
 30
0.0
 41
2.0
 42
2.0
 43
2.0
 50
90.0
  0
INSERT
  5
49C
  8
回08-記事
  6
CONTINUOUS
 62
     5
 66
     1
  2
*X9494
 10
0.0
 20
0.0
 30
0.0
  0
SEQEND
  5
718
  8
回07-寸法
  6
CONTINUOUS
 62
     7
  0
POINT
  5
49D
  8
DEFPOINTS
  6
CONTINUOUS
 62
     0
 10
57.95912374600334
 20
311.3288326506411
 30
0.0
  0
POINT
  5
49E
  8
DEFPOINTS
  6
CONTINUOUS
 62
     0
 10
57.95912374600334
 20
308.8288326506411
 30
0.0
  0
POINT
  5
49F
  8
DEFPOINTS
  6
CONTINUOUS
 62
     0
 10
45.89414001710824
 20
308.8288326506411
 30
0.0
  0
ENDBLK
  5
4A1
  8
回07-寸法
  6
CONTINUOUS
 62
     7
  0
BLOCK
  8
回07-寸法
  2
*D4646
 70
     1
 10
0.0
 20
0.0
 30
0.0
  3
*D4646
  1

  0
LINE
  5
4A3
  8
回08-記事
  6
CONTINUOUS
 62
     5
 10
61.85865283581346
 20
318.8288326506456
 30
0.0
 11
31.43945273058604
 21
318.8288326506456
 31
0.0
  0
LINE
  5
4A4
  8
回08-記事
  6
CONTINUOUS
 62
     5
 10
61.85865283581346
 20
306.3288326506466
 30
0.0
 11
31.43945273058604
 21
306.3288326506466
 31
0.0
  0
LINE
  5
4A5
  8
回08-記事
  6
CONTINUOUS
 62
     5
 10
32.43945273058604
 20
304.3288326506466
 30
0.0
 11
32.43945273058604
 21
270.6282126506467
 31
0.0
  0
LINE
  5
4A6
  8
回08-記事
  6
CONTINUOUS
 62
     5
 10
32.43945273058604
 20
318.8288326506456
 30
0.0
 11
32.43945273058604
 21
306.3288326506466
 31
0.0
  0
LINE
  5
4A7
  8
回08-記事
  6
CONTINUOUS
 62
     5
 10
32.43945273058604
 20
320.8288326506457
 30
0.0
 11
32.43945273058604
 21
322.8288326506457
 31
0.0
  0
INSERT
  5
4A8
  8
回08-記事
  6
CONTINUOUS
 62
     5
  2
_OPEN
 10
32.43945273058604
 20
318.8288326506456
 30
0.0
 41
2.0
 42
2.0
 43
2.0
 50
270.0
  0
INSERT
  5
4A9
  8
回08-記事
  6
CONTINUOUS
 62
     5
  2
_OPEN
 10
32.43945273058604
 20
306.3288326506466
 30
0.0
 41
2.0
 42
2.0
 43
2.0
 50
90.0
  0
INSERT
  5
4AA
  8
回08-記事
  6
CONTINUOUS
 62
     5
 66
     1
  2
*X9595
 10
0.0
 20
0.0
 30
0.0
  0
SEQEND
  5
721
  8
回07-寸法
  6
CONTINUOUS
 62
     7
  0
POINT
  5
4AB
  8
DEFPOINTS
  6
CONTINUOUS
 62
     0
 10
61.85865283581346
 20
318.8288326506456
 30
0.0
  0
POINT
  5
4AC
  8
DEFPOINTS
  6
CONTINUOUS
 62
     0
 10
61.85865283581346
 20
306.3288326506466
 30
0.0
  0
POINT
  5
4AD
  8
DEFPOINTS
  6
CONTINUOUS
 62
     0
 10
32.43945273058604
 20
306.3288326506466
 30
0.0
  0
ENDBLK
  5
4AF
  8
回07-寸法
  6
CONTINUOUS
 62
     7
  0
BLOCK
  8
回07-寸法
  2
*D4747
 70
     1
 10
0.0
 20
0.0
 30
0.0
  3
*D4747
  1

  0
LINE
  5
4B1
  8
回07-寸法
  6
CONTINUOUS
 62
     5
 10
151.0113500350523
 20
105.4105303890766
 30
0.0
 11
151.0113500350523
 21
112.6305723843499
 31
0.0
  0
LINE
  5
4B2
  8
回07-寸法
  6
CONTINUOUS
 62
     5
 10
151.5113500350524
 20
107.9105303890766
 30
0.0
 11
151.5113500350524
 21
112.6305723843499
 31
0.0
  0
LINE
  5
4B3
  8
回07-寸法
  6
CONTINUOUS
 62
     5
 10
153.5113500350524
 20
111.6305723843499
 30
0.0
 11
176.608987830328
 21
111.6305723843499
 31
0.0
  0
LINE
  5
4B4
  8
回07-寸法
  6
CONTINUOUS
 62
     5
 10
151.0113500350523
 20
111.6305723843499
 30
0.0
 11
151.5113500350524
 21
111.6305723843499
 31
0.0
  0
LINE
  5
4B5
  8
回07-寸法
  6
CONTINUOUS
 62
     5
 10
149.0113500350523
 20
111.6305723843499
 30
0.0
 11
147.0113500350523
 21
111.6305723843499
 31
0.0
  0
INSERT
  5
4B6
  8
回07-寸法
  6
CONTINUOUS
 62
     5
  2
_OPEN
 10
151.0113500350523
 20
111.6305723843499
 30
0.0
 41
2.0
 42
2.0
 43
2.0
  0
INSERT
  5
4B7
  8
回07-寸法
  6
CONTINUOUS
 62
     5
  2
_OPEN
 10
151.5113500350524
 20
111.6305723843499
 30
0.0
 41
2.0
 42
2.0
 43
2.0
 50
180.0
  0
TEXT
  5
4B8
  8
回07-寸法
  6
CONTINUOUS
 62
     5
 10
155.5601689326902
 20
112.2805723843499
 30
0.0
 40
3.0
  1
(0.5 [0.020])
  0
POINT
  5
4B9
  8
DEFPOINTS
  6
CONTINUOUS
 62
     0
 10
151.0113500350523
 20
105.4105303890766
 30
0.0
  0
POINT
  5
4BA
  8
DEFPOINTS
  6
CONTINUOUS
 62
     0
 10
151.5113500350524
 20
107.9105303890766
 30
0.0
  0
POINT
  5
4BB
  8
DEFPOINTS
  6
CONTINUOUS
 62
     0
 10
151.5113500350524
 20
111.6305723843499
 30
0.0
  0
ENDBLK
  5
4BD
  8
回07-寸法
  6
CONTINUOUS
 62
     7
  0
BLOCK
  8
回07-寸法
  2
*D4848
 70
     1
 10
0.0
 20
0.0
 30
0.0
  3
*D4848
  1

  0
LINE
  5
4BF
  8
回07-寸法
  6
CONTINUOUS
 62
     5
 10
71.01135003505238
 20
103.4105303890766
 30
0.0
 11
71.01135003505238
 21
88.79653281387232
 31
0.0
  0
LINE
  5
4C0
  8
回07-寸法
  6
CONTINUOUS
 62
     5
 10
81.01135003505238
 20
103.4105303890766
 30
0.0
 11
81.01135003505238
 21
88.79653281387232
 31
0.0
  0
LINE
  5
4C1
  8
回07-寸法
  6
CONTINUOUS
 62
     5
 10
83.01135003505237
 20
89.79653281387232
 30
0.0
 11
104.9198189359089
 21
89.79653281387232
 31
0.0
  0
LINE
  5
4C2
  8
回07-寸法
  6
CONTINUOUS
 62
     5
 10
71.01135003505238
 20
89.79653281387232
 30
0.0
 11
81.01135003505238
 21
89.79653281387232
 31
0.0
  0
LINE
  5
4C3
  8
回07-寸法
  6
CONTINUOUS
 62
     5
 10
69.01135003505236
 20
89.79653281387232
 30
0.0
 11
67.01135003505235
 21
89.79653281387232
 31
0.0
  0
INSERT
  5
4C4
  8
回07-寸法
  6
CONTINUOUS
 62
     5
  2
_OPEN
 10
71.01135003505238
 20
89.79653281387232
 30
0.0
 41
2.0
 42
2.0
 43
2.0
  0
INSERT
  5
4C5
  8
回07-寸法
  6
CONTINUOUS
 62
     5
  2
_OPEN
 10
81.01135003505238
 20
89.79653281387232
 30
0.0
 41
2.0
 42
2.0
 43
2.0
 50
180.0
  0
TEXT
  5
4C6
  8
回07-寸法
  6
CONTINUOUS
 62
     5
 10
85.06016893269018
 20
90.44653281387232
 30
0.0
 40
3.0
  1
(10 [0.394])
  0
POINT
  5
4C7
  8
DEFPOINTS
  6
CONTINUOUS
 62
     0
 10
71.01135003505238
 20
103.4105303890766
 30
0.0
  0
POINT
  5
4C8
  8
DEFPOINTS
  6
CONTINUOUS
 62
     0
 10
81.01135003505238
 20
103.4105303890766
 30
0.0
  0
POINT
  5
4C9
  8
DEFPOINTS
  6
CONTINUOUS
 62
     0
 10
81.01135003505238
 20
89.79653281387232
 30
0.0
  0
ENDBLK
  5
4CB
  8
回07-寸法
  6
CONTINUOUS
 62
     7
  0
BLOCK
  8
回07-寸法
  2
*D4949
 70
     1
 10
0.0
 20
0.0
 30
0.0
  3
*D4949
  1

  0
LINE
  5
4CD
  8
回07-寸法
  6
CONTINUOUS
 62
     5
 10
71.01135003505238
 20
106.4105303890766
 30
0.0
 11
71.01135003505238
 21
113.1695781375685
 31
0.0
  0
LINE
  5
4CE
  8
回07-寸法
  6
CONTINUOUS
 62
     5
 10
76.01135003505238
 20
107.4105303890766
 30
0.0
 11
76.01135003505238
 21
113.1695781375685
 31
0.0
  0
LINE
  5
4CF
  8
回07-寸法
  6
CONTINUOUS
 62
     5
 10
78.01135003505237
 20
112.1695781375685
 30
0.0
 11
95.12218114063331
 21
112.1695781375685
 31
0.0
  0
LINE
  5
4D0
  8
回07-寸法
  6
CONTINUOUS
 62
     5
 10
71.01135003505238
 20
112.1695781375685
 30
0.0
 11
76.01135003505238
 21
112.1695781375685
 31
0.0
  0
LINE
  5
4D1
  8
回07-寸法
  6
CONTINUOUS
 62
     5
 10
69.01135003505236
 20
112.1695781375685
 30
0.0
 11
67.01135003505235
 21
112.1695781375685
 31
0.0
  0
INSERT
  5
4D2
  8
回07-寸法
  6
CONTINUOUS
 62
     5
  2
_OPEN
 10
71.01135003505238
 20
112.1695781375685
 30
0.0
 41
2.0
 42
2.0
 43
2.0
  0
INSERT
  5
4D3
  8
回07-寸法
  6
CONTINUOUS
 62
     5
  2
_OPEN
 10
76.01135003505238
 20
112.1695781375685
 30
0.0
 41
2.0
 42
2.0
 43
2.0
 50
180.0
  0
TEXT
  5
4D4
  8
回07-寸法
  6
CONTINUOUS
 62
     5
 10
80.06135003505237
 20
112.8195781375685
 30
0.0
 40
3.0
  1
5 [0.197]
  0
POINT
  5
4D5
  8
DEFPOINTS
  6
CONTINUOUS
 62
     0
 10
71.01135003505238
 20
106.4105303890766
 30
0.0
  0
POINT
  5
4D6
  8
DEFPOINTS
  6
CONTINUOUS
 62
     0
 10
76.01135003505238
 20
107.4105303890766
 30
0.0
  0
POINT
  5
4D7
  8
DEFPOINTS
  6
CONTINUOUS
 62
     0
 10
76.01135003505238
 20
112.1695781375685
 30
0.0
  0
ENDBLK
  5
4D9
  8
回07-寸法
  6
CONTINUOUS
 62
     7
  0
BLOCK
  8
回07-寸法
  2
*D5050
 70
     1
 10
0.0
 20
0.0
 30
0.0
  3
*D5050
  1

  0
LINE
  5
4DB
  8
回07-寸法
  6
CONTINUOUS
 62
     5
 10
310.5113500350524
 20
160.3958049842832
 30
0.0
 11
354.15755069283
 21
160.3958049842832
 31
0.0
  0
LINE
  5
4DC
  8
回07-寸法
  6
CONTINUOUS
 62
     5
 10
316.0113500350524
 20
154.7958049842831
 30
0.0
 11
354.15755069283
 21
154.7958049842831
 31
0.0
  0
LINE
  5
4DD
  8
回07-寸法
  6
CONTINUOUS
 62
     5
 10
353.1575506928299
 20
152.7958049842832
 30
0.0
 11
353.1575506928299
 21
132.0958049842831
 31
0.0
  0
LINE
  5
4DE
  8
回07-寸法
  6
CONTINUOUS
 62
     5
 10
353.1575506928299
 20
160.3958049842832
 30
0.0
 11
353.1575506928299
 21
154.7958049842831
 31
0.0
  0
LINE
  5
4DF
  8
回07-寸法
  6
CONTINUOUS
 62
     5
 10
353.1575506928299
 20
162.3958049842832
 30
0.0
 11
353.1575506928299
 21
164.3958049842832
 31
0.0
  0
INSERT
  5
4E0
  8
回07-寸法
  6
CONTINUOUS
 62
     5
  2
_OPEN
 10
353.1575506928299
 20
160.3958049842832
 30
0.0
 41
2.0
 42
2.0
 43
2.0
 50
270.0
  0
INSERT
  5
4E1
  8
回07-寸法
  6
CONTINUOUS
 62
     5
  2
_OPEN
 10
353.1575506928299
 20
154.7958049842831
 30
0.0
 41
2.0
 42
2.0
 43
2.0
 50
90.0
  0
TEXT
  5
4E2
  8
回07-寸法
  6
CONTINUOUS
 62
     5
 10
352.5075506928299
 20
132.145804984283
 30
0.0
 40
3.0
  1
5.6 [0.220]
 50
90.0
  0
POINT
  5
4E3
  8
DEFPOINTS
  6
CONTINUOUS
 62
     0
 10
310.5113500350524
 20
160.3958049842832
 30
0.0
  0
POINT
  5
4E4
  8
DEFPOINTS
  6
CONTINUOUS
 62
     0
 10
316.0113500350524
 20
154.7958049842831
 30
0.0
  0
POINT
  5
4E5
  8
DEFPOINTS
  6
CONTINUOUS
 62
     0
 10
353.1575506928299
 20
154.7958049842831
 30
0.0
  0
ENDBLK
  5
4E7
  8
回07-寸法
  6
CONTINUOUS
 62
     7
  0
BLOCK
  8
回07-寸法
  2
*D5151
 70
     1
 10
0.0
 20
0.0
 30
0.0
  3
*D5151
  1

  0
LINE
  5
4E9
  8
回07-寸法
  6
CONTINUOUS
 62
     5
 10
311.6113500350525
 20
159.1458049842832
 30
0.0
 11
361.8733091313004
 21
159.1458049842832
 31
0.0
  0
LINE
  5
4EA
  8
回07-寸法
  6
CONTINUOUS
 62
     5
 10
316.0113500350524
 20
154.7958049842831
 30
0.0
 11
361.8733091313004
 21
154.7958049842831
 31
0.0
  0
LINE
  5
4EB
  8
回07-寸法
  6
CONTINUOUS
 62
     5
 10
360.8733091313003
 20
152.7958049842832
 30
0.0
 11
360.8733091313003
 21
130.8958049842832
 31
0.0
  0
LINE
  5
4EC
  8
回07-寸法
  6
CONTINUOUS
 62
     5
 10
360.8733091313003
 20
159.1458049842832
 30
0.0
 11
360.8733091313003
 21
154.7958049842831
 31
0.0
  0
LINE
  5
4ED
  8
回07-寸法
  6
CONTINUOUS
 62
     5
 10
360.8733091313003
 20
161.1458049842832
 30
0.0
 11
360.8733091313003
 21
163.1458049842832
 31
0.0
  0
INSERT
  5
4EE
  8
回07-寸法
  6
CONTINUOUS
 62
     5
  2
_OPEN
 10
360.8733091313003
 20
159.1458049842832
 30
0.0
 41
2.0
 42
2.0
 43
2.0
 50
270.0
  0
INSERT
  5
4EF
  8
回07-寸法
  6
CONTINUOUS
 62
     5
  2
_OPEN
 10
360.8733091313003
 20
154.7958049842831
 30
0.0
 41
2.0
 42
2.0
 43
2.0
 50
90.0
  0
TEXT
  5
4F0
  8
回07-寸法
  6
CONTINUOUS
 62
     5
 10
360.2233091313004
 20
130.9458049842832
 30
0.0
 40
3.0
  1
4.35 [0.171]
 50
90.0
  0
POINT
  5
4F1
  8
DEFPOINTS
  6
CONTINUOUS
 62
     0
 10
311.6113500350525
 20
159.1458049842832
 30
0.0
  0
POINT
  5
4F2
  8
DEFPOINTS
  6
CONTINUOUS
 62
     0
 10
316.0113500350524
 20
154.7958049842831
 30
0.0
  0
POINT
  5
4F3
  8
DEFPOINTS
  6
CONTINUOUS
 62
     0
 10
360.8733091313003
 20
154.7958049842831
 30
0.0
  0
ENDBLK
  5
4F5
  8
回07-寸法
  6
CONTINUOUS
 62
     7
  0
BLOCK
  8
回07-寸法
  2
*D5252
 70
     1
 10
0.0
 20
0.0
 30
0.0
  3
*D5252
  1

  0
LINE
  5
4F7
  8
回07-寸法
  6
CONTINUOUS
 62
     5
 10
310.5113500350524
 20
251.8358049842832
 30
0.0
 11
310.5113500350524
 21
268.9886112455761
 31
0.0
  0
LINE
  5
4F8
  8
回07-寸法
  6
CONTINUOUS
 62
     5
 10
316.0113500350524
 20
258.7958049842832
 30
0.0
 11
316.0113500350524
 21
268.9886112455761
 31
0.0
  0
LINE
  5
4F9
  8
回07-寸法
  6
CONTINUOUS
 62
     5
 10
318.0113500350524
 20
267.9886112455761
 30
0.0
 11
338.1113500350524
 21
267.9886112455761
 31
0.0
  0
LINE
  5
4FA
  8
回07-寸法
  6
CONTINUOUS
 62
     5
 10
310.5113500350524
 20
267.9886112455761
 30
0.0
 11
316.0113500350524
 21
267.9886112455761
 31
0.0
  0
LINE
  5
4FB
  8
回07-寸法
  6
CONTINUOUS
 62
     5
 10
308.5113500350524
 20
267.9886112455761
 30
0.0
 11
306.5113500350524
 21
267.9886112455761
 31
0.0
  0
INSERT
  5
4FC
  8
回07-寸法
  6
CONTINUOUS
 62
     5
  2
_OPEN
 10
310.5113500350524
 20
267.9886112455761
 30
0.0
 41
2.0
 42
2.0
 43
2.0
  0
INSERT
  5
4FD
  8
回07-寸法
  6
CONTINUOUS
 62
     5
  2
_OPEN
 10
316.0113500350524
 20
267.9886112455761
 30
0.0
 41
2.0
 42
2.0
 43
2.0
 50
180.0
  0
TEXT
  5
4FE
  8
回07-寸法
  6
CONTINUOUS
 62
     5
 10
320.0613500350524
 20
268.638611245576
 30
0.0
 40
3.0
  1
5.5 [0.217]
  0
POINT
  5
4FF
  8
DEFPOINTS
  6
CONTINUOUS
 62
     0
 10
310.5113500350524
 20
251.8358049842832
 30
0.0
  0
POINT
  5
500
  8
DEFPOINTS
  6
CONTINUOUS
 62
     0
 10
316.0113500350524
 20
258.7958049842832
 30
0.0
  0
POINT
  5
501
  8
DEFPOINTS
  6
CONTINUOUS
 62
     0
 10
316.0113500350524
 20
267.9886112455761
 30
0.0
  0
ENDBLK
  5
503
  8
回07-寸法
  6
CONTINUOUS
 62
     7
  0
BLOCK
  8
回07-寸法
  2
*D5353
 70
     1
 10
0.0
 20
0.0
 30
0.0
  3
*D5353
  1

  0
LINE
  5
505
  8
回07-寸法
  6
CONTINUOUS
 62
     5
 10
311.6113500350525
 20
253.0858049842832
 30
0.0
 11
311.6113500350525
 21
275.4596698712144
 31
0.0
  0
LINE
  5
506
  8
回07-寸法
  6
CONTINUOUS
 62
     5
 10
316.0113500350524
 20
258.7958049842832
 30
0.0
 11
316.0113500350524
 21
275.4596698712144
 31
0.0
  0
LINE
  5
507
  8
回07-寸法
  6
CONTINUOUS
 62
     5
 10
318.0113500350524
 20
274.4596698712144
 30
0.0
 11
338.7113500350523
 21
274.4596698712144
 31
0.0
  0
LINE
  5
508
  8
回07-寸法
  6
CONTINUOUS
 62
     5
 10
311.6113500350525
 20
274.4596698712144
 30
0.0
 11
316.0113500350524
 21
274.4596698712144
 31
0.0
  0
LINE
  5
509
  8
回07-寸法
  6
CONTINUOUS
 62
     5
 10
309.6113500350525
 20
274.4596698712144
 30
0.0
 11
307.6113500350525
 21
274.4596698712144
 31
0.0
  0
INSERT
  5
50A
  8
回07-寸法
  6
CONTINUOUS
 62
     5
  2
_OPEN
 10
311.6113500350525
 20
274.4596698712144
 30
0.0
 41
2.0
 42
2.0
 43
2.0
  0
INSERT
  5
50B
  8
回07-寸法
  6
CONTINUOUS
 62
     5
  2
_OPEN
 10
316.0113500350524
 20
274.4596698712144
 30
0.0
 41
2.0
 42
2.0
 43
2.0
 50
180.0
  0
TEXT
  5
50C
  8
回07-寸法
  6
CONTINUOUS
 62
     5
 10
320.0613500350524
 20
275.1096698712144
 30
0.0
 40
3.0
  1
4.4 [0.173]
  0
POINT
  5
50D
  8
DEFPOINTS
  6
CONTINUOUS
 62
     0
 10
311.6113500350525
 20
253.0858049842832
 30
0.0
  0
POINT
  5
50E
  8
DEFPOINTS
  6
CONTINUOUS
 62
     0
 10
316.0113500350524
 20
258.7958049842832
 30
0.0
  0
POINT
  5
50F
  8
DEFPOINTS
  6
CONTINUOUS
 62
     0
 10
316.0113500350524
 20
274.4596698712144
 30
0.0
  0
ENDBLK
  5
511
  8
回07-寸法
  6
CONTINUOUS
 62
     7
  0
BLOCK
  8
回07-寸法
  2
*D5454
 70
     1
 10
0.0
 20
0.0
 30
0.0
  3
*D5454
  1

  0
LINE
  5
513
  8
回07-寸法
  6
CONTINUOUS
 62
     5
 10
68.12663679503498
 20
228.7958049842832
 30
0.0
 11
56.71749987335694
 21
228.7958049842832
 31
0.0
  0
LINE
  5
514
  8
回07-寸法
  6
CONTINUOUS
 62
     5
 10
151.0113500350523
 20
258.7958049842832
 30
0.0
 11
56.71749987335694
 21
258.7958049842832
 31
0.0
  0
LINE
  5
515
  8
回07-寸法
  6
CONTINUOUS
 62
     5
 10
57.71749987335692
 20
230.7958049842832
 30
0.0
 11
57.71749987335692
 21
256.7958049842832
 31
0.0
  0
INSERT
  5
516
  8
回07-寸法
  6
CONTINUOUS
 62
     5
  2
_OPEN
 10
57.71749987335692
 20
228.7958049842832
 30
0.0
 41
2.0
 42
2.0
 43
2.0
 50
270.0
  0
INSERT
  5
517
  8
回07-寸法
  6
CONTINUOUS
 62
     5
  2
_OPEN
 10
57.71749987335692
 20
258.7958049842832
 30
0.0
 41
2.0
 42
2.0
 43
2.0
 50
90.0
  0
TEXT
  5
518
  8
回07-寸法
  6
CONTINUOUS
 62
     5
 10
57.06749987335689
 20
234.6458049842832
 30
0.0
 40
3.0
  1
(30 [1.181])
 50
90.0
  0
POINT
  5
519
  8
DEFPOINTS
  6
CONTINUOUS
 62
     0
 10
68.12663679503498
 20
228.7958049842832
 30
0.0
  0
POINT
  5
51A
  8
DEFPOINTS
  6
CONTINUOUS
 62
     0
 10
151.0113500350523
 20
258.7958049842832
 30
0.0
  0
POINT
  5
51B
  8
DEFPOINTS
  6
CONTINUOUS
 62
     0
 10
57.71749987335692
 20
258.7958049842832
 30
0.0
  0
ENDBLK
  5
51D
  8
回07-寸法
  6
CONTINUOUS
 62
     7
  0
BLOCK
  8
回07-寸法
  2
*D5555
 70
     1
 10
0.0
 20
0.0
 30
0.0
  3
*D5555
  1

  0
LINE
  5
51F
  8
回07-寸法
  6
CONTINUOUS
 62
     5
 10
151.0113500350523
 20
220.1186806398155
 30
0.0
 11
151.0113500350523
 21
198.6839146558661
 31
0.0
  0
LINE
  5
520
  8
回07-寸法
  6
CONTINUOUS
 62
     5
 10
140.4916792872591
 20
225.6708049842844
 30
0.0
 11
140.4916792872591
 21
198.6839146558661
 31
0.0
  0
LINE
  5
521
  8
回07-寸法
  6
CONTINUOUS
 62
     5
 10
138.4916792872591
 20
199.6839146558661
 30
0.0
 11
115.841679287259
 21
199.6839146558661
 31
0.0
  0
LINE
  5
522
  8
回07-寸法
  6
CONTINUOUS
 62
     5
 10
151.0113500350523
 20
199.6839146558661
 30
0.0
 11
140.4916792872591
 21
199.6839146558661
 31
0.0
  0
LINE
  5
523
  8
回07-寸法
  6
CONTINUOUS
 62
     5
 10
153.0113500350523
 20
199.6839146558661
 30
0.0
 11
155.0113500350524
 21
199.6839146558661
 31
0.0
  0
INSERT
  5
524
  8
回07-寸法
  6
CONTINUOUS
 62
     5
  2
_OPEN
 10
151.0113500350523
 20
199.6839146558661
 30
0.0
 41
2.0
 42
2.0
 43
2.0
 50
180.0
  0
INSERT
  5
525
  8
回07-寸法
  6
CONTINUOUS
 62
     5
  2
_OPEN
 10
140.4916792872591
 20
199.6839146558661
 30
0.0
 41
2.0
 42
2.0
 43
2.0
  0
TEXT
  5
526
  8
回07-寸法
  6
CONTINUOUS
 62
     5
 10
115.880848181678
 20
200.3339146558662
 30
0.0
 40
3.0
  1
9.4 [0.370]
  0
POINT
  5
527
  8
DEFPOINTS
  6
CONTINUOUS
 62
     0
 10
151.0113500350523
 20
220.1186806398155
 30
0.0
  0
POINT
  5
528
  8
DEFPOINTS
  6
CONTINUOUS
 62
     0
 10
140.4916792872591
 20
225.6708049842844
 30
0.0
  0
POINT
  5
529
  8
DEFPOINTS
  6
CONTINUOUS
 62
     0
 10
140.4916792872591
 20
199.6839146558661
 30
0.0
  0
ENDBLK
  5
52B
  8
回07-寸法
  6
CONTINUOUS
 62
     7
  0
BLOCK
  8
回07-寸法
  2
*D5656
 70
     1
 10
0.0
 20
0.0
 30
0.0
  3
*D5656
  1

  0
LINE
  5
52D
  8
回07-寸法
  6
CONTINUOUS
 62
     5
 10
151.0113500350523
 20
220.1186806398155
 30
0.0
 11
151.0113500350523
 21
204.2287746015243
 31
0.0
  0
LINE
  5
52E
  8
回07-寸法
  6
CONTINUOUS
 62
     5
 10
146.8213500350523
 20
220.7958049842832
 30
0.0
 11
146.8213500350523
 21
204.2287746015243
 31
0.0
  0
LINE
  5
52F
  8
回07-寸法
  6
CONTINUOUS
 62
     5
 10
144.8213500350523
 20
205.2287746015243
 30
0.0
 11
118.9239703368864
 21
205.2287746015243
 31
0.0
  0
LINE
  5
530
  8
回07-寸法
  6
CONTINUOUS
 62
     5
 10
151.0113500350523
 20
205.2287746015243
 30
0.0
 11
146.8213500350523
 21
205.2287746015243
 31
0.0
  0
LINE
  5
531
  8
回07-寸法
  6
CONTINUOUS
 62
     5
 10
153.0113500350523
 20
205.2287746015243
 30
0.0
 11
155.0113500350524
 21
205.2287746015243
 31
0.0
  0
INSERT
  5
532
  8
回07-寸法
  6
CONTINUOUS
 62
     5
  2
_OPEN
 10
151.0113500350523
 20
205.2287746015243
 30
0.0
 41
2.0
 42
2.0
 43
2.0
 50
180.0
  0
INSERT
  5
533
  8
回07-寸法
  6
CONTINUOUS
 62
     5
  2
_OPEN
 10
146.8213500350523
 20
205.2287746015243
 30
0.0
 41
2.0
 42
2.0
 43
2.0
  0
TEXT
  5
534
  8
回07-寸法
  6
CONTINUOUS
 62
     5
 10
118.9739703368864
 20
205.8787746015243
 30
0.0
 40
3.0
  1
4.39 [0.173]
  0
POINT
  5
535
  8
DEFPOINTS
  6
CONTINUOUS
 62
     0
 10
151.0113500350523
 20
220.1186806398155
 30
0.0
  0
POINT
  5
536
  8
DEFPOINTS
  6
CONTINUOUS
 62
     0
 10
146.8213500350523
 20
220.7958049842832
 30
0.0
  0
POINT
  5
537
  8
DEFPOINTS
  6
CONTINUOUS
 62
     0
 10
146.8213500350523
 20
205.2287746015243
 30
0.0
  0
ENDBLK
  5
539
  8
回07-寸法
  6
CONTINUOUS
 62
     7
  0
BLOCK
  8
回07-寸法
  2
*D5757
 70
     1
 10
0.0
 20
0.0
 30
0.0
  3
*D5757
  1

  0
LINE
  5
53B
  8
回07-寸法
  6
CONTINUOUS
 62
     5
 10
147.1951021312722
 20
220.7958049842832
 30
0.0
 11
118.4409891558014
 21
220.7958049842832
 31
0.0
  0
LINE
  5
53C
  8
回07-寸法
  6
CONTINUOUS
 62
     5
 10
147.1951021312722
 20
236.795804984283
 30
0.0
 11
118.4409891558014
 21
236.795804984283
 31
0.0
  0
LINE
  5
53D
  8
回07-寸法
  6
CONTINUOUS
 62
     5
 10
119.4409891558014
 20
238.7958049842829
 30
0.0
 11
119.4409891558014
 21
258.403684425881
 31
0.0
  0
LINE
  5
53E
  8
回07-寸法
  6
CONTINUOUS
 62
     5
 10
119.4409891558014
 20
220.7958049842832
 30
0.0
 11
119.4409891558014
 21
236.795804984283
 31
0.0
  0
LINE
  5
53F
  8
回07-寸法
  6
CONTINUOUS
 62
     5
 10
119.4409891558014
 20
218.7958049842832
 30
0.0
 11
119.4409891558014
 21
216.7958049842832
 31
0.0
  0
INSERT
  5
540
  8
回07-寸法
  6
CONTINUOUS
 62
     5
  2
_OPEN
 10
119.4409891558014
 20
220.7958049842832
 30
0.0
 41
2.0
 42
2.0
 43
2.0
 50
90.0
  0
INSERT
  5
541
  8
回07-寸法
  6
CONTINUOUS
 62
     5
  2
_OPEN
 10
119.4409891558014
 20
236.795804984283
 30
0.0
 41
2.0
 42
2.0
 43
2.0
 50
270.0
  0
TEXT
  5
542
  8
回07-寸法
  6
CONTINUOUS
 62
     5
 10
118.7909891558014
 20
241.253684425881
 30
0.0
 40
3.0
  1
16 [0.630]
 50
90.0
  0
POINT
  5
543
  8
DEFPOINTS
  6
CONTINUOUS
 62
     0
 10
147.1951021312722
 20
220.7958049842832
 30
0.0
  0
POINT
  5
544
  8
DEFPOINTS
  6
CONTINUOUS
 62
     0
 10
147.1951021312722
 20
236.795804984283
 30
0.0
  0
POINT
  5
545
  8
DEFPOINTS
  6
CONTINUOUS
 62
     0
 10
119.4409891558014
 20
236.795804984283
 30
0.0
  0
ENDBLK
  5
547
  8
回07-寸法
  6
CONTINUOUS
 62
     7
  0
BLOCK
  8
回07-寸法
  2
*D5858
 70
     1
 10
0.0
 20
0.0
 30
0.0
  3
*D5858
  1

  0
LINE
  5
549
  8
回07-寸法
  6
CONTINUOUS
 62
     5
 10
71.51135003505237
 20
231.9208049842841
 30
0.0
 11
61.30167188566089
 21
231.9208049842841
 31
0.0
  0
LINE
  5
54A
  8
回07-寸法
  6
CONTINUOUS
 62
     5
 10
71.51135003505237
 20
225.6708049842846
 30
0.0
 11
61.30167188566089
 21
225.6708049842846
 31
0.0
  0
LINE
  5
54B
  8
回07-寸法
  6
CONTINUOUS
 62
     5
 10
62.30167188566091
 20
223.6708049842845
 30
0.0
 11
62.30167188566091
 21
200.5708049842845
 31
0.0
  0
LINE
  5
54C
  8
回07-寸法
  6
CONTINUOUS
 62
     5
 10
62.30167188566091
 20
231.9208049842841
 30
0.0
 11
62.30167188566091
 21
225.6708049842846
 31
0.0
  0
LINE
  5
54D
  8
回07-寸法
  6
CONTINUOUS
 62
     5
 10
62.30167188566091
 20
233.9208049842841
 30
0.0
 11
62.30167188566091
 21
235.9208049842841
 31
0.0
  0
INSERT
  5
54E
  8
回07-寸法
  6
CONTINUOUS
 62
     5
  2
_OPEN
 10
62.30167188566091
 20
231.9208049842841
 30
0.0
 41
2.0
 42
2.0
 43
2.0
 50
270.0
  0
INSERT
  5
54F
  8
回07-寸法
  6
CONTINUOUS
 62
     5
  2
_OPEN
 10
62.30167188566091
 20
225.6708049842846
 30
0.0
 41
2.0
 42
2.0
 43
2.0
 50
90.0
  0
TEXT
  5
550
  8
回07-寸法
  6
CONTINUOUS
 62
     5
 10
61.65167188566091
 20
200.6208049842845
 30
0.0
 40
3.0
  1
6.25 [0.246]
 50
90.0
  0
POINT
  5
551
  8
DEFPOINTS
  6
CONTINUOUS
 62
     0
 10
71.51135003505237
 20
231.9208049842841
 30
0.0
  0
POINT
  5
552
  8
DEFPOINTS
  6
CONTINUOUS
 62
     0
 10
71.51135003505237
 20
225.6708049842846
 30
0.0
  0
POINT
  5
553
  8
DEFPOINTS
  6
CONTINUOUS
 62
     0
 10
62.30167188566091
 20
225.6708049842846
 30
0.0
  0
ENDBLK
  5
555
  8
回07-寸法
  6
CONTINUOUS
 62
     7
  0
BLOCK
  8
回07-寸法
  2
*D5959
 70
     1
 10
0.0
 20
0.0
 30
0.0
  3
*D5959
  1

  0
LINE
  5
557
  8
回07-寸法
  6
CONTINUOUS
 62
     5
 10
71.01135003505238
 20
226.7958049842832
 30
0.0
 11
71.01135003505238
 21
192.3689047707783
 31
0.0
  0
LINE
  5
558
  8
回07-寸法
  6
CONTINUOUS
 62
     5
 10
151.0113500350523
 20
213.7705916627764
 30
0.0
 11
151.0113500350523
 21
192.3689047707783
 31
0.0
  0
LINE
  5
559
  8
回07-寸法
  6
CONTINUOUS
 62
     5
 10
73.01135003505237
 20
193.3689047707783
 30
0.0
 11
149.0113500350523
 21
193.3689047707783
 31
0.0
  0
INSERT
  5
55A
  8
回07-寸法
  6
CONTINUOUS
 62
     5
  2
_OPEN
 10
71.01135003505238
 20
193.3689047707783
 30
0.0
 41
2.0
 42
2.0
 43
2.0
 50
180.0
  0
INSERT
  5
55B
  8
回07-寸法
  6
CONTINUOUS
 62
     5
  2
_OPEN
 10
151.0113500350523
 20
193.3689047707783
 30
0.0
 41
2.0
 42
2.0
 43
2.0
  0
INSERT
  5
55C
  8
回07-寸法
  6
CONTINUOUS
 62
     5
 66
     1
  2
*X9696
 10
0.0
 20
0.0
 30
0.0
  0
SEQEND
  5
72A
  8
回07-寸法
  6
CONTINUOUS
 62
     7
  0
POINT
  5
55D
  8
DEFPOINTS
  6
CONTINUOUS
 62
     0
 10
71.01135003505238
 20
226.7958049842832
 30
0.0
  0
POINT
  5
55E
  8
DEFPOINTS
  6
CONTINUOUS
 62
     0
 10
151.0113500350523
 20
213.7705916627764
 30
0.0
  0
POINT
  5
55F
  8
DEFPOINTS
  6
CONTINUOUS
 62
     0
 10
151.0113500350523
 20
193.3689047707783
 30
0.0
  0
ENDBLK
  5
561
  8
回07-寸法
  6
CONTINUOUS
 62
     7
  0
BLOCK
  8
回07-寸法
  2
*D6060
 70
     1
 10
0.0
 20
0.0
 30
0.0
  3
*D6060
  1

  0
LINE
  5
563
  8
回07-寸法
  6
CONTINUOUS
 62
     5
 10
310.5113500350524
 20
160.3958049842832
 30
0.0
 11
354.1575506928298
 21
160.3958049842832
 31
0.0
  0
LINE
  5
564
  8
回07-寸法
  6
CONTINUOUS
 62
     5
 10
310.5113500350524
 20
251.8358049842832
 30
0.0
 11
354.1575506928298
 21
251.8358049842832
 31
0.0
  0
LINE
  5
565
  8
回07-寸法
  6
CONTINUOUS
 62
     5
 10
353.1575506928299
 20
162.3958049842832
 30
0.0
 11
353.1575506928299
 21
249.8358049842832
 31
0.0
  0
INSERT
  5
566
  8
回07-寸法
  6
CONTINUOUS
 62
     5
  2
_OPEN
 10
353.1575506928299
 20
160.3958049842832
 30
0.0
 41
2.0
 42
2.0
 43
2.0
 50
270.0
  0
INSERT
  5
567
  8
回07-寸法
  6
CONTINUOUS
 62
     5
  2
_OPEN
 10
353.1575506928299
 20
251.8358049842832
 30
0.0
 41
2.0
 42
2.0
 43
2.0
 50
90.0
  0
TEXT
  5
568
  8
回07-寸法
  6
CONTINUOUS
 62
     5
 10
352.5075506928298
 20
181.2055644298833
 30
0.0
 40
3.0
  1
91.44 [3.600](ACTIVE AREA)
 50
90.0
  0
POINT
  5
569
  8
DEFPOINTS
  6
CONTINUOUS
 62
     0
 10
310.5113500350524
 20
160.3958049842832
 30
0.0
  0
POINT
  5
56A
  8
DEFPOINTS
  6
CONTINUOUS
 62
     0
 10
310.5113500350524
 20
251.8358049842832
 30
0.0
  0
POINT
  5
56B
  8
DEFPOINTS
  6
CONTINUOUS
 62
     0
 10
353.1575506928299
 20
251.8358049842832
 30
0.0
  0
ENDBLK
  5
56D
  8
回07-寸法
  6
CONTINUOUS
 62
     7
  0
BLOCK
  8
回07-寸法
  2
*D6161
 70
     1
 10
0.0
 20
0.0
 30
0.0
  3
*D6161
  1

  0
LINE
  5
56F
  8
回07-寸法
  6
CONTINUOUS
 62
     5
 10
311.6113500350525
 20
253.0858049842832
 30
0.0
 11
361.8733091313004
 21
253.0858049842832
 31
0.0
  0
LINE
  5
570
  8
回07-寸法
  6
CONTINUOUS
 62
     5
 10
311.6113500350525
 20
159.1458049842832
 30
0.0
 11
361.8733091313004
 21
159.1458049842832
 31
0.0
  0
LINE
  5
571
  8
回07-寸法
  6
CONTINUOUS
 62
     5
 10
360.8733091313003
 20
251.0858049842832
 30
0.0
 11
360.8733091313003
 21
161.1458049842832
 31
0.0
  0
INSERT
  5
572
  8
回07-寸法
  6
CONTINUOUS
 62
     5
  2
_OPEN
 10
360.8733091313003
 20
253.0858049842832
 30
0.0
 41
2.0
 42
2.0
 43
2.0
 50
90.0
  0
INSERT
  5
573
  8
回07-寸法
  6
CONTINUOUS
 62
     5
  2
_OPEN
 10
360.8733091313003
 20
159.1458049842832
 30
0.0
 41
2.0
 42
2.0
 43
2.0
 50
270.0
  0
TEXT
  5
574
  8
回07-寸法
  6
CONTINUOUS
 62
     5
 10
360.2233091313004
 20
180.1447333243024
 30
0.0
 40
3.0
  1
93.94 [3.698](VIEWING AREA)
 50
90.0
  0
POINT
  5
575
  8
DEFPOINTS
  6
CONTINUOUS
 62
     0
 10
311.6113500350525
 20
253.0858049842832
 30
0.0
  0
POINT
  5
576
  8
DEFPOINTS
  6
CONTINUOUS
 62
     0
 10
311.6113500350525
 20
159.1458049842832
 30
0.0
  0
POINT
  5
577
  8
DEFPOINTS
  6
CONTINUOUS
 62
     0
 10
360.8733091313003
 20
159.1458049842832
 30
0.0
  0
ENDBLK
  5
579
  8
回07-寸法
  6
CONTINUOUS
 62
     7
  0
BLOCK
  8
回07-寸法
  2
*D6262
 70
     1
 10
0.0
 20
0.0
 30
0.0
  3
*D6262
  1

  0
LINE
  5
57B
  8
回07-寸法
  6
CONTINUOUS
 62
     5
 10
316.0113500350524
 20
258.7958049842832
 30
0.0
 11
376.4636407352767
 21
258.7958049842832
 31
0.0
  0
LINE
  5
57C
  8
回07-寸法
  6
CONTINUOUS
 62
     5
 10
316.0113500350524
 20
154.7958049842831
 30
0.0
 11
376.4636407352767
 21
154.7958049842831
 31
0.0
  0
LINE
  5
57D
  8
回07-寸法
  6
CONTINUOUS
 62
     5
 10
375.4636407352767
 20
256.7958049842832
 30
0.0
 11
375.4636407352767
 21
156.7958049842831
 31
0.0
  0
INSERT
  5
57E
  8
回07-寸法
  6
CONTINUOUS
 62
     5
  2
_OPEN
 10
375.4636407352767
 20
258.7958049842832
 30
0.0
 41
2.0
 42
2.0
 43
2.0
 50
90.0
  0
INSERT
  5
57F
  8
回07-寸法
  6
CONTINUOUS
 62
     5
  2
_OPEN
 10
375.4636407352767
 20
154.7958049842831
 30
0.0
 41
2.0
 42
2.0
 43
2.0
 50
270.0
  0
INSERT
  5
580
  8
回07-寸法
  6
CONTINUOUS
 62
     5
 66
     1
  2
*X9797
 10
0.0
 20
0.0
 30
0.0
  0
SEQEND
  5
733
  8
回07-寸法
  6
CONTINUOUS
 62
     7
  0
POINT
  5
581
  8
DEFPOINTS
  6
CONTINUOUS
 62
     0
 10
316.0113500350524
 20
258.7958049842832
 30
0.0
  0
POINT
  5
582
  8
DEFPOINTS
  6
CONTINUOUS
 62
     0
 10
316.0113500350524
 20
154.7958049842831
 30
0.0
  0
POINT
  5
583
  8
DEFPOINTS
  6
CONTINUOUS
 62
     0
 10
375.4636407352767
 20
154.7958049842831
 30
0.0
  0
ENDBLK
  5
585
  8
回07-寸法
  6
CONTINUOUS
 62
     7
  0
BLOCK
  8
回07-寸法
  2
*D6363
 70
     1
 10
0.0
 20
0.0
 30
0.0
  3
*D6363
  1

  0
LINE
  5
587
  8
回07-寸法
  6
CONTINUOUS
 62
     5
 10
158.1113500350525
 20
251.8358049842832
 30
0.0
 11
158.1113500350525
 21
268.9886112455761
 31
0.0
  0
LINE
  5
588
  8
回07-寸法
  6
CONTINUOUS
 62
     5
 10
310.5113500350524
 20
251.8358049842832
 30
0.0
 11
310.5113500350524
 21
268.9886112455761
 31
0.0
  0
LINE
  5
589
  8
回07-寸法
  6
CONTINUOUS
 62
     5
 10
160.1113500350525
 20
267.9886112455761
 30
0.0
 11
308.5113500350524
 21
267.9886112455761
 31
0.0
  0
INSERT
  5
58A
  8
回07-寸法
  6
CONTINUOUS
 62
     5
  2
_OPEN
 10
158.1113500350525
 20
267.9886112455761
 30
0.0
 41
2.0
 42
2.0
 43
2.0
 50
180.0
  0
INSERT
  5
58B
  8
回07-寸法
  6
CONTINUOUS
 62
     5
  2
_OPEN
 10
310.5113500350524
 20
267.9886112455761
 30
0.0
 41
2.0
 42
2.0
 43
2.0
  0
TEXT
  5
58C
  8
回07-寸法
  6
CONTINUOUS
 62
     5
 10
209.5619405862336
 20
268.638611245576
 30
0.0
 40
3.0
  1
152.4 [6.000](ACTIVE AREA)
  0
POINT
  5
58D
  8
DEFPOINTS
  6
CONTINUOUS
 62
     0
 10
158.1113500350525
 20
251.8358049842832
 30
0.0
  0
POINT
  5
58E
  8
DEFPOINTS
  6
CONTINUOUS
 62
     0
 10
310.5113500350524
 20
251.8358049842832
 30
0.0
  0
POINT
  5
58F
  8
DEFPOINTS
  6
CONTINUOUS
 62
     0
 10
310.5113500350524
 20
267.9886112455761
 30
0.0
  0
ENDBLK
  5
591
  8
回07-寸法
  6
CONTINUOUS
 62
     7
  0
BLOCK
  8
回07-寸法
  2
*D6464
 70
     1
 10
0.0
 20
0.0
 30
0.0
  3
*D6464
  1

  0
LINE
  5
593
  8
回07-寸法
  6
CONTINUOUS
 62
     5
 10
156.7113500350526
 20
253.0858049842832
 30
0.0
 11
156.7113500350526
 21
275.4596698712144
 31
0.0
  0
LINE
  5
594
  8
回07-寸法
  6
CONTINUOUS
 62
     5
 10
311.6113500350525
 20
253.0858049842832
 30
0.0
 11
311.6113500350525
 21
275.4596698712144
 31
0.0
  0
LINE
  5
595
  8
回07-寸法
  6
CONTINUOUS
 62
     5
 10
158.7113500350526
 20
274.4596698712144
 30
0.0
 11
309.6113500350525
 21
274.4596698712144
 31
0.0
  0
INSERT
  5
596
  8
回07-寸法
  6
CONTINUOUS
 62
     5
  2
_OPEN
 10
156.7113500350526
 20
274.4596698712144
 30
0.0
 41
2.0
 42
2.0
 43
2.0
 50
180.0
  0
INSERT
  5
597
  8
回07-寸法
  6
CONTINUOUS
 62
     5
  2
_OPEN
 10
311.6113500350525
 20
274.4596698712144
 30
0.0
 41
2.0
 42
2.0
 43
2.0
  0
TEXT
  5
598
  8
回07-寸法
  6
CONTINUOUS
 62
     5
 10
208.5011094806528
 20
275.1096698712144
 30
0.0
 40
3.0
  1
154.9 [6.098](VIEWING AREA)
  0
POINT
  5
599
  8
DEFPOINTS
  6
CONTINUOUS
 62
     0
 10
156.7113500350526
 20
253.0858049842832
 30
0.0
  0
POINT
  5
59A
  8
DEFPOINTS
  6
CONTINUOUS
 62
     0
 10
311.6113500350525
 20
253.0858049842832
 30
0.0
  0
POINT
  5
59B
  8
DEFPOINTS
  6
CONTINUOUS
 62
     0
 10
311.6113500350525
 20
274.4596698712144
 30
0.0
  0
ENDBLK
  5
59D
  8
回07-寸法
  6
CONTINUOUS
 62
     7
  0
BLOCK
  8
回07-寸法
  2
*D6565
 70
     1
 10
0.0
 20
0.0
 30
0.0
  3
*D6565
  1

  0
LINE
  5
59F
  8
回07-寸法
  6
CONTINUOUS
 62
     5
 10
151.0113500350523
 20
258.7958049842832
 30
0.0
 11
151.0113500350523
 21
293.5846355780689
 31
0.0
  0
LINE
  5
5A0
  8
回07-寸法
  6
CONTINUOUS
 62
     5
 10
316.0113500350524
 20
258.7958049842832
 30
0.0
 11
316.0113500350524
 21
293.5846355780689
 31
0.0
  0
LINE
  5
5A1
  8
回07-寸法
  6
CONTINUOUS
 62
     5
 10
153.0113500350523
 20
292.5846355780688
 30
0.0
 11
314.0113500350524
 21
292.5846355780688
 31
0.0
  0
INSERT
  5
5A2
  8
回07-寸法
  6
CONTINUOUS
 62
     5
  2
_OPEN
 10
151.0113500350523
 20
292.5846355780688
 30
0.0
 41
2.0
 42
2.0
 43
2.0
 50
180.0
  0
INSERT
  5
5A3
  8
回07-寸法
  6
CONTINUOUS
 62
     5
  2
_OPEN
 10
316.0113500350524
 20
292.5846355780688
 30
0.0
 41
2.0
 42
2.0
 43
2.0
  0
INSERT
  5
5A4
  8
回07-寸法
  6
CONTINUOUS
 62
     5
 66
     1
  2
*X9898
 10
0.0
 20
0.0
 30
0.0
  0
SEQEND
  5
73C
  8
回07-寸法
  6
CONTINUOUS
 62
     7
  0
POINT
  5
5A5
  8
DEFPOINTS
  6
CONTINUOUS
 62
     0
 10
151.0113500350523
 20
258.7958049842832
 30
0.0
  0
POINT
  5
5A6
  8
DEFPOINTS
  6
CONTINUOUS
 62
     0
 10
316.0113500350524
 20
258.7958049842832
 30
0.0
  0
POINT
  5
5A7
  8
DEFPOINTS
  6
CONTINUOUS
 62
     0
 10
316.0113500350524
 20
292.5846355780688
 30
0.0
  0
ENDBLK
  5
5A9
  8
回07-寸法
  6
CONTINUOUS
 62
     7
  0
BLOCK
  8
回07-寸法
  2
*D6666
 70
     1
 10
0.0
 20
0.0
 30
0.0
  3
*D6666
  1

  0
LINE
  5
5AB
  8
回07-寸法
  6
CONTINUOUS
 62
     5
 10
316.0113500350524
 20
105.4105303890766
 30
0.0
 11
316.0113500350524
 21
113.1643514505062
 31
0.0
  0
LINE
  5
5AC
  8
回07-寸法
  6
CONTINUOUS
 62
     5
 10
315.5113500350524
 20
107.9105303890766
 30
0.0
 11
315.5113500350524
 21
113.1643514505062
 31
0.0
  0
LINE
  5
5AD
  8
回07-寸法
  6
CONTINUOUS
 62
     5
 10
313.5113500350524
 20
112.1643514505062
 30
0.0
 11
290.4137122397768
 21
112.1643514505062
 31
0.0
  0
LINE
  5
5AE
  8
回07-寸法
  6
CONTINUOUS
 62
     5
 10
316.0113500350524
 20
112.1643514505062
 30
0.0
 11
315.5113500350524
 21
112.1643514505062
 31
0.0
  0
LINE
  5
5AF
  8
回07-寸法
  6
CONTINUOUS
 62
     5
 10
318.0113500350524
 20
112.1643514505062
 30
0.0
 11
320.0113500350524
 21
112.1643514505062
 31
0.0
  0
INSERT
  5
5B0
  8
回07-寸法
  6
CONTINUOUS
 62
     5
  2
_OPEN
 10
316.0113500350524
 20
112.1643514505062
 30
0.0
 41
2.0
 42
2.0
 43
2.0
 50
180.0
  0
INSERT
  5
5B1
  8
回07-寸法
  6
CONTINUOUS
 62
     5
  2
_OPEN
 10
315.5113500350524
 20
112.1643514505062
 30
0.0
 41
2.0
 42
2.0
 43
2.0
  0
TEXT
  5
5B2
  8
回07-寸法
  6
CONTINUOUS
 62
     5
 10
290.4625311374146
 20
112.8143514505063
 30
0.0
 40
3.0
  1
(0.5 [0.020])
  0
POINT
  5
5B3
  8
DEFPOINTS
  6
CONTINUOUS
 62
     0
 10
316.0113500350524
 20
105.4105303890766
 30
0.0
  0
POINT
  5
5B4
  8
DEFPOINTS
  6
CONTINUOUS
 62
     0
 10
315.5113500350524
 20
107.9105303890766
 30
0.0
  0
POINT
  5
5B5
  8
DEFPOINTS
  6
CONTINUOUS
 62
     0
 10
315.5113500350524
 20
112.1643514505062
 30
0.0
  0
ENDBLK
  5
5B7
  8
回07-寸法
  6
CONTINUOUS
 62
     7
  0
BLOCK
  8
回07-寸法
  2
*D6767
 70
     1
 10
0.0
 20
0.0
 30
0.0
  3
*D6767
  1

  0
LINE
  5
5B9
  8
回07-寸法
  6
CONTINUOUS
 62
     5
 10
71.01135003505238
 20
106.4105303890766
 30
0.0
 11
61.46513829431729
 21
106.4105303890766
 31
0.0
  0
LINE
  5
5BA
  8
回07-寸法
  6
CONTINUOUS
 62
     5
 10
71.01135003505238
 20
103.4105303890766
 30
0.0
 11
61.46513829431729
 21
103.4105303890766
 31
0.0
  0
LINE
  5
5BB
  8
回07-寸法
  6
CONTINUOUS
 62
     5
 10
62.46513829431728
 20
101.4105303890766
 30
0.0
 11
62.46513829431728
 21
68.30742818435229
 31
0.0
  0
LINE
  5
5BC
  8
回07-寸法
  6
CONTINUOUS
 62
     5
 10
62.46513829431728
 20
106.4105303890766
 30
0.0
 11
62.46513829431728
 21
103.4105303890766
 31
0.0
  0
LINE
  5
5BD
  8
回07-寸法
  6
CONTINUOUS
 62
     5
 10
62.46513829431728
 20
108.4105303890766
 30
0.0
 11
62.46513829431728
 21
110.4105303890766
 31
0.0
  0
INSERT
  5
5BE
  8
回07-寸法
  6
CONTINUOUS
 62
     5
  2
_OPEN
 10
62.46513829431728
 20
106.4105303890766
 30
0.0
 41
2.0
 42
2.0
 43
2.0
 50
270.0
  0
INSERT
  5
5BF
  8
回07-寸法
  6
CONTINUOUS
 62
     5
  2
_OPEN
 10
62.46513829431728
 20
103.4105303890766
 30
0.0
 41
2.0
 42
2.0
 43
2.0
 50
90.0
  0
INSERT
  5
5C0
  8
回07-寸法
  6
CONTINUOUS
 62
     5
 66
     1
  2
*X9999
 10
0.0
 20
0.0
 30
0.0
  0
SEQEND
  5
745
  8
回07-寸法
  6
CONTINUOUS
 62
     7
  0
POINT
  5
5C1
  8
DEFPOINTS
  6
CONTINUOUS
 62
     0
 10
71.01135003505238
 20
106.4105303890766
 30
0.0
  0
POINT
  5
5C2
  8
DEFPOINTS
  6
CONTINUOUS
 62
     0
 10
71.01135003505238
 20
103.4105303890766
 30
0.0
  0
POINT
  5
5C3
  8
DEFPOINTS
  6
CONTINUOUS
 62
     0
 10
62.46513829431728
 20
103.4105303890766
 30
0.0
  0
ENDBLK
  5
5C5
  8
回07-寸法
  6
CONTINUOUS
 62
     7
  0
BLOCK
  8
回07-寸法
  2
*D6868
 70
     1
 10
0.0
 20
0.0
 30
0.0
  3
*D6868
  1

  0
LINE
  5
5C7
  8
回07-寸法
  6
CONTINUOUS
 62
     5
 10
315.5113500350524
 20
107.9105303890766
 30
0.0
 11
325.3479363522826
 21
107.9105303890766
 31
0.0
  0
LINE
  5
5C8
  8
回07-寸法
  6
CONTINUOUS
 62
     5
 10
316.0113500350524
 20
102.9105303890766
 30
0.0
 11
325.3479363522826
 21
102.9105303890766
 31
0.0
  0
LINE
  5
5C9
  8
回07-寸法
  6
CONTINUOUS
 62
     5
 10
324.3479363522827
 20
100.9105303890766
 30
0.0
 11
324.3479363522827
 21
69.90991038907663
 31
0.0
  0
LINE
  5
5CA
  8
回07-寸法
  6
CONTINUOUS
 62
     5
 10
324.3479363522827
 20
107.9105303890766
 30
0.0
 11
324.3479363522827
 21
102.9105303890766
 31
0.0
  0
LINE
  5
5CB
  8
回07-寸法
  6
CONTINUOUS
 62
     5
 10
324.3479363522827
 20
109.9105303890766
 30
0.0
 11
324.3479363522827
 21
111.9105303890766
 31
0.0
  0
INSERT
  5
5CC
  8
回07-寸法
  6
CONTINUOUS
 62
     5
  2
_OPEN
 10
324.3479363522827
 20
107.9105303890766
 30
0.0
 41
2.0
 42
2.0
 43
2.0
 50
270.0
  0
INSERT
  5
5CD
  8
回07-寸法
  6
CONTINUOUS
 62
     5
  2
_OPEN
 10
324.3479363522827
 20
102.9105303890766
 30
0.0
 41
2.0
 42
2.0
 43
2.0
 50
90.0
  0
INSERT
  5
5CE
  8
回07-寸法
  6
CONTINUOUS
 62
     5
 66
     1
  2
*X100100
 10
0.0
 20
0.0
 30
0.0
  0
SEQEND
  5
74E
  8
回07-寸法
  6
CONTINUOUS
 62
     7
  0
POINT
  5
5CF
  8
DEFPOINTS
  6
CONTINUOUS
 62
     0
 10
315.5113500350524
 20
107.9105303890766
 30
0.0
  0
POINT
  5
5D0
  8
DEFPOINTS
  6
CONTINUOUS
 62
     0
 10
316.0113500350524
 20
102.9105303890766
 30
0.0
  0
POINT
  5
5D1
  8
DEFPOINTS
  6
CONTINUOUS
 62
     0
 10
324.3479363522827
 20
102.9105303890766
 30
0.0
  0
ENDBLK
  5
5D3
  8
回07-寸法
  6
CONTINUOUS
 62
     7
  0
BLOCK
  8
回07-寸法
  2
*X6969
 70
     1
 10
0.0
 20
0.0
 30
0.0
  3
*X6969
  1

  0
INSERT
  5
5D8
  8
回07-寸法
  6
CONTINUOUS
 62
     5
  2
_OPEN
 10
61.15154605462691
 20
306.6217258694601
 30
0.0
 41
2.0
 42
2.0
 43
2.0
 50
116.4433597880669
  0
LINE
  5
5D9
  8
回07-寸法
  6
CONTINUOUS
 62
     5
 10
62.04217185570872
 20
304.8309758359692
 30
0.0
 11
66.88055032599073
 21
295.1026180933856
 31
0.0
  0
LINE
  5
5DA
  8
回07-寸法
  6
CONTINUOUS
 62
     5
 10
66.88055032599073
 20
295.1026180933856
 30
0.0
 11
94.28055032599074
 21
295.1026180933856
 31
0.0
  0
ENDBLK
  5
5DC
  8
回07-寸法
  6
CONTINUOUS
 62
     7
  0
BLOCK
  8
回07-寸法
  2
*X7070
 70
     1
 10
0.0
 20
0.0
 30
0.0
  3
*X7070
  1

  0
INSERT
  5
5E9
  8
版01-FER
  6
CONTINUOUS
 62
     5
  2
_OPEN
 10
111.6927846317819
 20
230.6042699126154
 30
0.0
 41
2.0
 42
2.0
 43
2.0
 50
277.5340121762965
  0
LINE
  5
5EA
  8
版01-FER
  6
CONTINUOUS
 62
     5
 10
111.4305552015619
 20
232.5870043189155
 30
0.0
 11
111.0992454433242
 21
235.0920597440438
 31
0.0
  0
LINE
  5
5EB
  8
版01-FER
  6
CONTINUOUS
 62
     5
 10
111.0992454433242
 20
235.0920597440438
 30
0.0
 11
89.3992454433242
 21
235.0920597440438
 31
0.0
  0
ENDBLK
  5
5ED
  8
回07-寸法
  6
CONTINUOUS
 62
     7
  0
BLOCK
  8
回07-寸法
  2
*X7171
 70
     1
 10
0.0
 20
0.0
 30
0.0
  3
*X7171
  1

  0
INSERT
  5
5F0
  8
版01-FER
  6
CONTINUOUS
 62
     5
  2
_OPEN
 10
71.9467929800901
 20
106.4105303890766
 30
0.0
 41
2.0
 42
2.0
 43
2.0
 50
324.6692264560053
  0
LINE
  5
5F1
  8
版01-FER
  6
CONTINUOUS
 62
     5
 10
70.31513876960926
 20
107.5671221655562
 30
0.0
 11
64.79846816928215
 21
111.4775927842081
 31
0.0
  0
LINE
  5
5F2
  8
版01-FER
  6
CONTINUOUS
 62
     5
 10
64.79846816928215
 20
111.4775927842081
 30
0.0
 11
35.59846816928216
 21
111.4775927842081
 31
0.0
  0
ENDBLK
  5
5F4
  8
回07-寸法
  6
CONTINUOUS
 62
     7
  0
BLOCK
  8
回07-寸法
  2
*X7272
 70
     1
 10
0.0
 20
0.0
 30
0.0
  3
*X7272
  1

  0
LINE
  5
5F7
  8
回08-記事
  6
CONTINUOUS
 62
     7
 10
147.359649354614
 20
104.1105303890766
 30
0.0
 11
147.8596493546141
 21
104.6105303890766
 31
0.0
  0
LINE
  5
5F8
  8
回08-記事
  6
CONTINUOUS
 62
     7
 10
148.7066877727744
 20
104.1105303890766
 30
0.0
 11
149.2066877727744
 21
104.6105303890766
 31
0.0
  0
LINE
  5
5F9
  8
回08-記事
  6
CONTINUOUS
 62
     7
 10
150.0537261909347
 20
104.1105303890766
 30
0.0
 11
150.5537261909348
 21
104.6105303890766
 31
0.0
  0
LINE
  5
5FA
  8
回08-記事
  6
CONTINUOUS
 62
     7
 10
150.5113500350524
 20
103.2211158150338
 30
0.0
 11
151.0113500350523
 21
103.7211158150338
 31
0.0
  0
LINE
  5
5FB
  8
回08-記事
  6
CONTINUOUS
 62
     7
 10
151.0478030272555
 20
102.4105303890766
 30
0.0
 11
151.5478030272555
 21
102.9105303890766
 31
0.0
  0
LINE
  5
5FC
  8
回08-記事
  6
CONTINUOUS
 62
     7
 10
152.3948414454159
 20
102.4105303890766
 30
0.0
 11
152.8948414454159
 21
102.9105303890766
 31
0.0
  0
LINE
  5
5FD
  8
回08-記事
  6
CONTINUOUS
 62
     7
 10
153.7418798635763
 20
102.4105303890766
 30
0.0
 11
154.2418798635763
 21
102.9105303890766
 31
0.0
  0
ENDBLK
  5
5FF
  8
回07-寸法
  6
CONTINUOUS
 62
     7
  0
BLOCK
  8
回07-寸法
  2
*X7373
 70
     1
 10
0.0
 20
0.0
 30
0.0
  3
*X7373
  1

  0
INSERT
  5
60C
  8
回08-記事
  6
CONTINUOUS
 62
     5
  2
_OPEN
 10
147.0015179540755
 20
221.7445184752116
 30
0.0
 41
2.0
 42
2.0
 43
2.0
 50
59.10356862308285
  0
LINE
  5
60D
  8
回08-記事
  6
CONTINUOUS
 62
     5
 10
145.9745423397624
 20
220.0283246960578
 30
0.0
 11
140.7994582565911
 21
211.3801669536981
 31
0.0
  0
LINE
  5
60E
  8
回08-記事
  6
CONTINUOUS
 62
     5
 10
140.7994582565911
 20
211.3801669536981
 30
0.0
 11
105.8994582565911
 21
211.3801669536981
 31
0.0
  0
ENDBLK
  5
610
  8
回07-寸法
  6
CONTINUOUS
 62
     7
  0
BLOCK
  8
回07-寸法
  2
*X7474
 70
     1
 10
0.0
 20
0.0
 30
0.0
  3
*X7474
  1

  0
LINE
  5
613
  8
回07-寸法
  6
CONTINUOUS
 62
     5
 10
146.1692395078786
 20
236.5491787249705
 30
0.0
 11
145.3000692979708
 21
238.7615868440909
 31
0.0
  0
LINE
  5
614
  8
回07-寸法
  6
CONTINUOUS
 62
     5
 10
145.3000692979708
 20
238.7615868440909
 30
0.0
 11
121.1892381923899
 21
238.7615868440909
 31
0.0
  0
ENDBLK
  5
616
  8
回07-寸法
  6
CONTINUOUS
 62
     7
  0
BLOCK
  8
回07-寸法
  2
*X7575
 70
     1
 10
0.0
 20
0.0
 30
0.0
  3
*X7575
  1

  0
INSERT
  5
619
  8
回07-寸法
  6
CONTINUOUS
 62
     5
  2
_OPEN
 10
150.6742064500981
 20
237.1686097569027
 30
0.0
 41
2.0
 42
2.0
 43
2.0
 50
291.7467671104366
  0
LINE
  5
61A
  8
回07-寸法
  6
CONTINUOUS
 62
     5
 10
149.9331963916123
 20
239.0262706767755
 30
0.0
 11
148.2297456088959
 21
243.2967038669068
 31
0.0
  0
LINE
  5
61B
  8
回07-寸法
  6
CONTINUOUS
 62
     5
 10
148.2297456088959
 20
243.2967038669068
 30
0.0
 11
123.8189145033149
 21
243.2967038669068
 31
0.0
  0
ENDBLK
  5
61D
  8
回07-寸法
  6
CONTINUOUS
 62
     7
  0
BLOCK
  8
回07-寸法
  2
*X7676
 70
     1
 10
0.0
 20
0.0
 30
0.0
  3
*X7676
  1

  0
LINE
  5
620
  8
回08-記事
  6
CONTINUOUS
 62
     5
 10
316.0113500350524
 20
160.3458049842832
 30
0.0
 11
316.9766808108732
 21
162.8213646587057
 31
0.0
  0
LINE
  5
621
  8
回08-記事
  6
CONTINUOUS
 62
     5
 10
316.9766808108732
 20
162.8213646587057
 30
0.0
 11
335.9766808108732
 21
162.8213646587057
 31
0.0
  0
ENDBLK
  5
623
  8
回07-寸法
  6
CONTINUOUS
 62
     7
  0
BLOCK
  8
回07-寸法
  2
*X7777
 70
     1
 10
0.0
 20
0.0
 30
0.0
  3
*X7777
  1

  0
LINE
  5
626
  8
回08-記事
  6
CONTINUOUS
 62
     5
 10
76.00016565827876
 20
221.6968612687068
 30
0.0
 11
76.57623993016841
 21
219.89132316779
 31
0.0
  0
LINE
  5
627
  8
回08-記事
  6
CONTINUOUS
 62
     5
 10
76.57623993016841
 20
219.89132316779
 30
0.0
 11
80.8762399301684
 21
219.89132316779
 31
0.0
  0
ENDBLK
  5
629
  8
回07-寸法
  6
CONTINUOUS
 62
     7
  0
BLOCK
  8
回07-寸法
  2
*X7878
 70
     1
 10
0.0
 20
0.0
 30
0.0
  3
*X7878
  1

  0
LINE
  5
638
  8
回08-記事
  6
CONTINUOUS
 62
     5
 10
315.5951153162787
 20
172.9727522649136
 30
0.0
 11
316.8704218142452
 21
176.2297508132964
 31
0.0
  0
LINE
  5
639
  8
回08-記事
  6
CONTINUOUS
 62
     5
 10
316.8704218142452
 20
176.2297508132964
 30
0.0
 11
334.6704218142452
 21
176.2297508132964
 31
0.0
  0
ENDBLK
  5
63B
  8
回07-寸法
  6
CONTINUOUS
 62
     7
  0
BLOCK
  8
回07-寸法
  2
*X7979
 70
     1
 10
0.0
 20
0.0
 30
0.0
  3
*X7979
  1

  0
LINE
  5
63E
  8
回08-記事
  6
CONTINUOUS
 62
     8
 10
146.8113500350535
 20
227.5399711883081
 30
0.0
 11
147.0671838310287
 21
227.7958049842832
 31
0.0
  0
LINE
  5
63F
  8
回08-記事
  6
CONTINUOUS
 62
     8
 10
146.8113500350535
 20
225.2949071580407
 30
0.0
 11
149.312247861296
 21
227.7958049842832
 31
0.0
  0
LINE
  5
640
  8
回08-記事
  6
CONTINUOUS
 62
     8
 10
146.8113500350535
 20
223.0498431277735
 30
0.0
 11
151.5573118915632
 21
227.7958049842832
 31
0.0
  0
LINE
  5
641
  8
回08-記事
  6
CONTINUOUS
 62
     8
 10
147.3023759218305
 20
221.2958049842832
 30
0.0
 11
153.8023759218305
 21
227.7958049842832
 31
0.0
  0
LINE
  5
642
  8
回08-記事
  6
CONTINUOUS
 62
     8
 10
149.5474399520978
 20
221.2958049842832
 30
0.0
 11
154.8113500350535
 21
226.5597150672389
 31
0.0
  0
LINE
  5
643
  8
回08-記事
  6
CONTINUOUS
 62
     8
 10
151.7925039823651
 20
221.2958049842832
 30
0.0
 11
154.8113500350535
 21
224.3146510369716
 31
0.0
  0
LINE
  5
644
  8
回08-記事
  6
CONTINUOUS
 62
     8
 10
154.0375680126324
 20
221.2958049842832
 30
0.0
 11
154.8113500350535
 21
222.0695870067043
 31
0.0
  0
ENDBLK
  5
646
  8
回07-寸法
  6
CONTINUOUS
 62
     7
  0
BLOCK
  8
回07-寸法
  2
*X8080
 70
     1
 10
0.0
 20
0.0
 30
0.0
  3
*X8080
  1

  0
INSERT
  5
64E
  8
回08-記事
  6
CONTINUOUS
 62
     5
  2
_OPEN
 10
106.990211421928
 20
104.8170825732323
 30
0.0
 41
1.999999999999999
 42
1.999999999999999
 43
2.0
 50
104.1120118397135
  0
LINE
  5
64F
  8
回08-記事
  6
CONTINUOUS
 62
     5
 10
107.4778480946622
 20
102.8774407311891
 30
0.0
 11
109.0207594728356
 21
96.74029880769513
 31
0.0
  0
LINE
  5
650
  8
回08-記事
  6
CONTINUOUS
 62
     5
 10
109.0207594728356
 20
96.74029880769513
 30
0.0
 11
130.7207594728356
 21
96.74029880769513
 31
0.0
  0
ENDBLK
  5
652
  8
回07-寸法
  6
CONTINUOUS
 62
     7
  0
BLOCK
  8
回07-寸法
  2
*X8181
 70
     1
 10
0.0
 20
0.0
 30
0.0
  3
*X8181
  1

  0
LINE
  5
65A
  8
回08-記事
  6
CONTINUOUS
 62
     7
 10
100.8484671469705
 20
105.4105303890766
 30
0.0
 11
100.0484671469704
 21
104.6105303890766
 31
0.0
  0
LINE
  5
65B
  8
回08-記事
  6
CONTINUOUS
 62
     7
 10
103.0935311772377
 20
105.4105303890766
 30
0.0
 11
102.2935311772377
 21
104.6105303890766
 31
0.0
  0
LINE
  5
65C
  8
回08-記事
  6
CONTINUOUS
 62
     7
 10
105.338595207505
 20
105.4105303890766
 30
0.0
 11
104.538595207505
 21
104.6105303890766
 31
0.0
  0
LINE
  5
65D
  8
回08-記事
  6
CONTINUOUS
 62
     7
 10
107.5836592377723
 20
105.4105303890766
 30
0.0
 11
106.7836592377723
 21
104.6105303890766
 31
0.0
  0
LINE
  5
65E
  8
回08-記事
  6
CONTINUOUS
 62
     7
 10
109.8287232680396
 20
105.4105303890766
 30
0.0
 11
109.0287232680396
 21
104.6105303890766
 31
0.0
  0
LINE
  5
65F
  8
回08-記事
  6
CONTINUOUS
 62
     7
 10
112.0737872983069
 20
105.4105303890766
 30
0.0
 11
111.2737872983069
 21
104.6105303890765
 31
0.0
  0
LINE
  5
660
  8
回08-記事
  6
CONTINUOUS
 62
     7
 10
114.3188513285742
 20
105.4105303890766
 30
0.0
 11
113.5188513285741
 21
104.6105303890765
 31
0.0
  0
LINE
  5
661
  8
回08-記事
  6
CONTINUOUS
 62
     7
 10
116.5639153588415
 20
105.4105303890766
 30
0.0
 11
115.7639153588414
 21
104.6105303890766
 31
0.0
  0
LINE
  5
662
  8
回08-記事
  6
CONTINUOUS
 62
     7
 10
118.8089793891087
 20
105.4105303890766
 30
0.0
 11
118.0089793891087
 21
104.6105303890766
 31
0.0
  0
LINE
  5
663
  8
回08-記事
  6
CONTINUOUS
 62
     7
 10
121.054043419376
 20
105.4105303890765
 30
0.0
 11
120.254043419376
 21
104.6105303890765
 31
0.0
  0
LINE
  5
664
  8
回08-記事
  6
CONTINUOUS
 62
     7
 10
123.2991074496433
 20
105.4105303890765
 30
0.0
 11
122.4991074496433
 21
104.6105303890765
 31
0.0
  0
ENDBLK
  5
666
  8
回07-寸法
  6
CONTINUOUS
 62
     7
  0
BLOCK
  8
回07-寸法
  2
*X8282
 70
     1
 10
0.0
 20
0.0
 30
0.0
  3
*X8282
  1

  0
LINE
  5
687
  8
回08-記事
  6
CONTINUOUS
 62
     8
 10
100.5805557428741
 20
226.2958049842832
 30
0.0
 11
98.70856202009465
 21
228.1677987070627
 31
0.0
  0
LINE
  5
688
  8
回08-記事
  6
CONTINUOUS
 62
     8
 10
103.2322061723237
 20
226.2958049842832
 30
0.0
 11
98.80459788684945
 21
230.7234132697574
 31
0.0
  0
LINE
  5
689
  8
回08-記事
  6
CONTINUOUS
 62
     8
 10
105.8838566017733
 20
226.2958049842832
 30
0.0
 11
100.8838566017733
 21
231.2958049842832
 31
0.0
  0
LINE
  5
68A
  8
回08-記事
  6
CONTINUOUS
 62
     8
 10
108.5355070312228
 20
226.2958049842832
 30
0.0
 11
103.5355070312228
 21
231.2958049842831
 31
0.0
  0
LINE
  5
68B
  8
回08-記事
  6
CONTINUOUS
 62
     8
 10
111.1871574606724
 20
226.2958049842832
 30
0.0
 11
106.1871574606724
 21
231.2958049842831
 31
0.0
  0
LINE
  5
68C
  8
回08-記事
  6
CONTINUOUS
 62
     8
 10
113.8388078901219
 20
226.2958049842832
 30
0.0
 11
108.8388078901219
 21
231.2958049842831
 31
0.0
  0
LINE
  5
68D
  8
回08-記事
  6
CONTINUOUS
 62
     8
 10
116.4904583195714
 20
226.2958049842832
 30
0.0
 11
111.4904583195714
 21
231.2958049842832
 31
0.0
  0
LINE
  5
68E
  8
回08-記事
  6
CONTINUOUS
 62
     8
 10
119.142108749021
 20
226.2958049842832
 30
0.0
 11
114.142108749021
 21
231.2958049842832
 31
0.0
  0
LINE
  5
68F
  8
回08-記事
  6
CONTINUOUS
 62
     8
 10
121.7937591784705
 20
226.2958049842832
 30
0.0
 11
116.7937591784706
 21
231.2958049842832
 31
0.0
  0
LINE
  5
690
  8
回08-記事
  6
CONTINUOUS
 62
     8
 10
124.2717431111922
 20
226.469471481011
 30
0.0
 11
119.4454096079201
 21
231.2958049842831
 31
0.0
  0
LINE
  5
691
  8
回08-記事
  6
CONTINUOUS
 62
     8
 10
124.7085620200946
 20
228.6843030015582
 30
0.0
 11
122.0970600373696
 21
231.2958049842831
 31
0.0
  0
ENDBLK
  5
693
  8
回07-寸法
  6
CONTINUOUS
 62
     7
  0
BLOCK
  8
回07-寸法
  2
*X8383
 70
     1
 10
0.0
 20
0.0
 30
0.0
  3
*X8383
  1

  0
TEXT
  5
6AE
  8
回07-寸法
  6
CONTINUOUS
 62
     5
 10
333.4247972785439
 20
138.1111697579697
 30
0.0
 40
3.0
  1
1.4
 50
90.0
  0
TEXT
  5
6AF
  8
回07-寸法
  6
CONTINUOUS
 62
     5
 10
333.4247972785439
 20
142.9111697579696
 30
0.0
 40
2.000099999999999
  1
±0.2
 50
90.0
  0
TEXT
  5
6B0
  8
回07-寸法
  6
CONTINUOUS
 62
     5
 10
333.4247972785439
 20
147.7114097579697
 30
0.0
 40
3.0
  1
[0.055
 50
90.0
  0
TEXT
  5
6B1
  8
回07-寸法
  6
CONTINUOUS
 62
     5
 10
333.4247972785439
 20
158.2114097579697
 30
0.0
 40
2.000099999999999
  1
±0.008
 50
90.0
  0
TEXT
  5
6B2
  8
回07-寸法
  6
CONTINUOUS
 62
     5
 10
333.4247972785439
 20
165.8117897579697
 30
0.0
 40
3.0
  1
]
 50
90.0
  0
ENDBLK
  5
6B4
  8
回07-寸法
  6
CONTINUOUS
 62
     7
  0
BLOCK
  8
回07-寸法
  2
*X8484
 70
     1
 10
0.0
 20
0.0
 30
0.0
  3
*X8484
  1

  0
TEXT
  5
6B7
  8
回07-寸法
  6
CONTINUOUS
 62
     5
 10
71.5419992205785
 20
137.5110997579697
 30
0.0
 40
3.0
  1
0.3
 50
90.0
  0
TEXT
  5
6B8
  8
回07-寸法
  6
CONTINUOUS
 62
     5
 10
71.5419992205785
 20
142.6110997579697
 30
0.0
 40
2.000099999999999
  1
±0.05
 50
90.0
  0
TEXT
  5
6B9
  8
回07-寸法
  6
CONTINUOUS
 62
     5
 10
71.5419992205785
 20
148.8114097579696
 30
0.0
 40
3.0
  1
[0.012
 50
90.0
  0
TEXT
  5
6BA
  8
回07-寸法
  6
CONTINUOUS
 62
     5
 10
71.5419992205785
 20
158.7114097579697
 30
0.0
 40
2.000099999999999
  1
±0.002
 50
90.0
  0
TEXT
  5
6BB
  8
回07-寸法
  6
CONTINUOUS
 62
     5
 10
71.5419992205785
 20
166.3117897579696
 30
0.0
 40
3.0
  1
]
 50
90.0
  0
ENDBLK
  5
6BD
  8
回07-寸法
  6
CONTINUOUS
 62
     7
  0
BLOCK
  8
回07-寸法
  2
*X8585
 70
     1
 10
0.0
 20
0.0
 30
0.0
  3
*X8585
  1

  0
TEXT
  5
6C0
  8
回07-寸法
  6
CONTINUOUS
 62
     5
 10
227.1827954085231
 20
362.3859449469618
 30
0.0
 40
3.0
  1
165
  0
TEXT
  5
6C1
  8
回07-寸法
  6
CONTINUOUS
 62
     5
 10
232.8827954085231
 20
362.3859449469618
 30
0.0
 40
2.1
  1
±0.3
  0
TEXT
  5
6C2
  8
回07-寸法
  6
CONTINUOUS
 62
     5
 10
237.9227954085231
 20
362.3859449469618
 30
0.0
 40
3.0
  1
 [6.496
  0
TEXT
  5
6C3
  8
回07-寸法
  6
CONTINUOUS
 62
     5
 10
250.5336265141041
 20
362.3859449469618
 30
0.0
 40
2.1
  1
±0.012
  0
TEXT
  5
6C4
  8
回07-寸法
  6
CONTINUOUS
 62
     5
 10
258.0936265141041
 20
362.3859449469618
 30
0.0
 40
3.0
  1
]
  0
ENDBLK
  5
6C6
  8
回07-寸法
  6
CONTINUOUS
 62
     7
  0
BLOCK
  8
回07-寸法
  2
*X8686
 70
     1
 10
0.0
 20
0.0
 30
0.0
  3
*X8686
  1

  0
TEXT
  5
6C9
  8
回07-寸法
  6
CONTINUOUS
 62
     5
 10
384.5405016615378
 20
259.5916988003859
 30
0.0
 40
3.0
  1
104
 50
90.0
  0
TEXT
  5
6CA
  8
回07-寸法
  6
CONTINUOUS
 62
     5
 10
384.5405016615378
 20
265.5916988003859
 30
0.0
 40
2.1
  1
±0.3
 50
90.0
  0
TEXT
  5
6CB
  8
回07-寸法
  6
CONTINUOUS
 62
     5
 10
384.5405016615378
 20
270.6316988003859
 30
0.0
 40
3.0
  1
 [4.094
 50
90.0
  0
TEXT
  5
6CC
  8
回07-寸法
  6
CONTINUOUS
 62
     5
 10
384.5405016615378
 20
283.5425299059668
 30
0.0
 40
2.1
  1
±0.012
 50
90.0
  0
TEXT
  5
6CD
  8
回07-寸法
  6
CONTINUOUS
 62
     5
 10
384.5405016615378
 20
291.1025299059669
 30
0.0
 40
3.0
  1
]
 50
90.0
  0
ENDBLK
  5
6CF
  8
回07-寸法
  6
CONTINUOUS
 62
     7
  0
BLOCK
  8
回07-寸法
  2
*X8787
 70
     1
 10
0.0
 20
0.0
 30
0.0
  3
*X8787
  1

  0
TEXT
  5
6D2
  8
回07-寸法
  6
CONTINUOUS
 62
     5
 10
106.9344200743602
 20
263.1702141396713
 30
0.0
 40
3.0
  1
80
  0
TEXT
  5
6D3
  8
回07-寸法
  6
CONTINUOUS
 62
     5
 10
111.1344200743602
 20
263.1702141396713
 30
0.0
 40
2.1
  1
±1
  0
TEXT
  5
6D4
  8
回07-寸法
  6
CONTINUOUS
 62
     5
 10
113.6544200743602
 20
263.1702141396713
 30
0.0
 40
3.0
  1
 [3.150
  0
TEXT
  5
6D5
  8
回07-寸法
  6
CONTINUOUS
 62
     5
 10
125.3544200743602
 20
263.1702141396713
 30
0.0
 40
2.1
  1
±0.039
  0
TEXT
  5
6D6
  8
回07-寸法
  6
CONTINUOUS
 62
     5
 10
133.3420018482669
 20
263.1702141396713
 30
0.0
 40
3.0
  1
]
  0
ENDBLK
  5
6D8
  8
回07-寸法
  6
CONTINUOUS
 62
     7
  0
BLOCK
  8
回07-寸法
  2
*X8888
 70
     1
 10
0.0
 20
0.0
 30
0.0
  3
*X8888
  1

  0
TEXT
  5
6DB
  8
回08-記事
  6
CONTINUOUS
 62
     5
 10
41.51631365684738
 20
339.7397582400122
 30
0.0
 40
3.0
  1
6.25
 50
90.0
  0
TEXT
  5
6DC
  8
回08-記事
  6
CONTINUOUS
 62
     5
 10
41.51631365684738
 20
346.9397582400122
 30
0.0
 40
2.000099999999999
  1
±0.2
 50
90.0
  0
TEXT
  5
6DD
  8
回08-記事
  6
CONTINUOUS
 62
     5
 10
41.51631365684738
 20
351.7399982400121
 30
0.0
 40
3.0
  1
[0.246
 50
90.0
  0
TEXT
  5
6DE
  8
回08-記事
  6
CONTINUOUS
 62
     5
 10
41.51631365684738
 20
362.5399982400121
 30
0.0
 40
2.000099999999999
  1
±0.008
 50
90.0
  0
TEXT
  5
6DF
  8
回08-記事
  6
CONTINUOUS
 62
     5
 10
41.51631365684738
 20
370.1403782400121
 30
0.0
 40
3.0
  1
]
 50
90.0
  0
ENDBLK
  5
6E1
  8
回07-寸法
  6
CONTINUOUS
 62
     7
  0
BLOCK
  8
回07-寸法
  2
*X8989
 70
     1
 10
0.0
 20
0.0
 30
0.0
  3
*X8989
  1

  0
TEXT
  5
6E4
  8
回08-記事
  6
CONTINUOUS
 62
     5
 10
54.97100094336957
 20
342.9194229710022
 30
0.0
 40
3.0
  1
1.25
 50
90.0
  0
TEXT
  5
6E5
  8
回08-記事
  6
CONTINUOUS
 62
     5
 10
54.97100094336957
 20
349.5194229710024
 30
0.0
 40
2.00001
  1
±0.2
 50
90.0
  0
TEXT
  5
6E6
  8
回08-記事
  6
CONTINUOUS
 62
     5
 10
54.97100094336957
 20
354.3194469710024
 30
0.0
 40
3.0
  1
[0.049
 50
90.0
  0
TEXT
  5
6E7
  8
回08-記事
  6
CONTINUOUS
 62
     5
 10
54.97100094336957
 20
365.1302780765832
 30
0.0
 40
2.00001
  1
±0.008
 50
90.0
  0
TEXT
  5
6E8
  8
回08-記事
  6
CONTINUOUS
 62
     5
 10
54.97100094336957
 20
372.7303160765832
 30
0.0
 40
3.0
  1
]
 50
90.0
  0
ENDBLK
  5
6EA
  8
回07-寸法
  6
CONTINUOUS
 62
     7
  0
BLOCK
  8
回07-寸法
  2
*X9090
 70
     1
 10
0.0
 20
0.0
 30
0.0
  3
*X9090
  1

  0
TEXT
  5
6ED
  8
回08-記事
  6
CONTINUOUS
 62
     5
 10
61.73563853622216
 20
334.1301250195342
 30
0.0
 40
3.0
  1
4-0.7
 50
90.0
  0
TEXT
  5
6EE
  8
回08-記事
  6
CONTINUOUS
 62
     5
 10
61.73563853622216
 20
343.7301250195342
 30
0.0
 40
2.499989999999999
  1
±0.1
 50
90.0
  0
TEXT
  5
6EF
  8
回08-記事
  6
CONTINUOUS
 62
     5
 10
61.73563853622216
 20
349.2301030195342
 30
0.0
 40
3.0
  1
[4-0.028
 50
90.0
  0
TEXT
  5
6F0
  8
回08-記事
  6
CONTINUOUS
 62
     5
 10
61.73563853622216
 20
364.2301030195342
 30
0.0
 40
2.00001
  1
±0.004
 50
90.0
  0
TEXT
  5
6F1
  8
回08-記事
  6
CONTINUOUS
 62
     5
 10
61.73563853622216
 20
372.0301420195343
 30
0.0
 40
3.0
  1
]
 50
90.0
  0
ENDBLK
  5
6F3
  8
回07-寸法
  6
CONTINUOUS
 62
     7
  0
BLOCK
  8
回07-寸法
  2
*X9191
 70
     1
 10
0.0
 20
0.0
 30
0.0
  3
*X9191
  1

  0
TEXT
  5
6F6
  8
回08-記事
  6
CONTINUOUS
 62
     5
 10
48.55626291718374
 20
343.1300810195341
 30
0.0
 40
3.0
  1
3.75
 50
90.0
  0
TEXT
  5
6F7
  8
回08-記事
  6
CONTINUOUS
 62
     5
 10
48.55626291718374
 20
350.3300810195341
 30
0.0
 40
2.00001
  1
±0.1
 50
90.0
  0
TEXT
  5
6F8
  8
回08-記事
  6
CONTINUOUS
 62
     5
 10
48.55626291718374
 20
354.7301030195342
 30
0.0
 40
3.0
  1
[0.148
 50
90.0
  0
TEXT
  5
6F9
  8
回08-記事
  6
CONTINUOUS
 62
     5
 10
48.55626291718374
 20
364.9301030195342
 30
0.0
 40
2.00001
  1
±0.004
 50
90.0
  0
TEXT
  5
6FA
  8
回08-記事
  6
CONTINUOUS
 62
     5
 10
48.55626291718374
 20
372.7301420195341
 30
0.0
 40
3.0
  1
]
 50
90.0
  0
ENDBLK
  5
6FC
  8
回07-寸法
  6
CONTINUOUS
 62
     7
  0
BLOCK
  8
回07-寸法
  2
*X9292
 70
     1
 10
0.0
 20
0.0
 30
0.0
  3
*X9292
  1

  0
TEXT
  5
6FF
  8
回08-記事
  6
CONTINUOUS
 62
     5
 10
38.82940199092252
 20
273.9787716506409
 30
0.0
 40
3.0
  1
3.75
 50
90.0
  0
TEXT
  5
700
  8
回08-記事
  6
CONTINUOUS
 62
     5
 10
38.82940199092252
 20
281.178771650641
 30
0.0
 40
2.00001
  1
±0.1
 50
90.0
  0
TEXT
  5
701
  8
回08-記事
  6
CONTINUOUS
 62
     5
 10
38.82940199092252
 20
285.5787936506412
 30
0.0
 40
3.0
  1
[0.148
 50
90.0
  0
TEXT
  5
702
  8
回08-記事
  6
CONTINUOUS
 62
     5
 10
38.82940199092252
 20
295.778793650641
 30
0.0
 40
2.00001
  1
±0.004
 50
90.0
  0
TEXT
  5
703
  8
回08-記事
  6
CONTINUOUS
 62
     5
 10
38.82940199092252
 20
303.578832650641
 30
0.0
 40
3.0
  1
]
 50
90.0
  0
ENDBLK
  5
705
  8
回07-寸法
  6
CONTINUOUS
 62
     7
  0
BLOCK
  8
回07-寸法
  2
*X9393
 70
     1
 10
0.0
 20
0.0
 30
0.0
  3
*X9393
  1

  0
TEXT
  5
708
  8
回08-記事
  6
CONTINUOUS
 62
     5
 10
52.00877760996087
 20
264.9788156506411
 30
0.0
 40
3.0
  1
4-0.7
 50
90.0
  0
TEXT
  5
709
  8
回08-記事
  6
CONTINUOUS
 62
     5
 10
52.00877760996087
 20
274.5788156506411
 30
0.0
 40
2.499989999999999
  1
±0.1
 50
90.0
  0
TEXT
  5
70A
  8
回08-記事
  6
CONTINUOUS
 62
     5
 10
52.00877760996087
 20
280.0787936506412
 30
0.0
 40
3.0
  1
[4-0.028
 50
90.0
  0
TEXT
  5
70B
  8
回08-記事
  6
CONTINUOUS
 62
     5
 10
52.00877760996087
 20
295.0787936506412
 30
0.0
 40
2.00001
  1
±0.004
 50
90.0
  0
TEXT
  5
70C
  8
回08-記事
  6
CONTINUOUS
 62
     5
 10
52.00877760996087
 20
302.8788326506411
 30
0.0
 40
3.0
  1
]
 50
90.0
  0
ENDBLK
  5
70E
  8
回07-寸法
  6
CONTINUOUS
 62
     7
  0
BLOCK
  8
回07-寸法
  2
*X9494
 70
     1
 10
0.0
 20
0.0
 30
0.0
  3
*X9494
  1

  0
TEXT
  5
711
  8
回08-記事
  6
CONTINUOUS
 62
     5
 10
45.24414001710828
 20
273.7679395450601
 30
0.0
 40
3.0
  1
1.25
 50
90.0
  0
TEXT
  5
712
  8
回08-記事
  6
CONTINUOUS
 62
     5
 10
45.24414001710828
 20
280.3679395450601
 30
0.0
 40
2.00001
  1
±0.2
 50
90.0
  0
TEXT
  5
713
  8
回08-記事
  6
CONTINUOUS
 62
     5
 10
45.24414001710828
 20
285.1679635450601
 30
0.0
 40
3.0
  1
[0.049
 50
90.0
  0
TEXT
  5
714
  8
回08-記事
  6
CONTINUOUS
 62
     5
 10
45.24414001710828
 20
295.9787946506409
 30
0.0
 40
2.00001
  1
±0.008
 50
90.0
  0
TEXT
  5
715
  8
回08-記事
  6
CONTINUOUS
 62
     5
 10
45.24414001710828
 20
303.578832650641
 30
0.0
 40
3.0
  1
]
 50
90.0
  0
ENDBLK
  5
717
  8
回07-寸法
  6
CONTINUOUS
 62
     7
  0
BLOCK
  8
回07-寸法
  2
*X9595
 70
     1
 10
0.0
 20
0.0
 30
0.0
  3
*X9595
  1

  0
TEXT
  5
71A
  8
回08-記事
  6
CONTINUOUS
 62
     5
 10
31.78945273058606
 20
270.6782126506467
 30
0.0
 40
3.0
  1
6.25
 50
90.0
  0
TEXT
  5
71B
  8
回08-記事
  6
CONTINUOUS
 62
     5
 10
31.78945273058606
 20
277.8782126506467
 30
0.0
 40
2.000099999999999
  1
±0.2
 50
90.0
  0
TEXT
  5
71C
  8
回08-記事
  6
CONTINUOUS
 62
     5
 10
31.78945273058606
 20
282.6784526506466
 30
0.0
 40
3.0
  1
[0.246
 50
90.0
  0
TEXT
  5
71D
  8
回08-記事
  6
CONTINUOUS
 62
     5
 10
31.78945273058606
 20
293.4784526506467
 30
0.0
 40
2.000099999999999
  1
±0.008
 50
90.0
  0
TEXT
  5
71E
  8
回08-記事
  6
CONTINUOUS
 62
     5
 10
31.78945273058606
 20
301.0788326506467
 30
0.0
 40
3.0
  1
]
 50
90.0
  0
ENDBLK
  5
720
  8
回07-寸法
  6
CONTINUOUS
 62
     7
  0
BLOCK
  8
回07-寸法
  2
*X9696
 70
     1
 10
0.0
 20
0.0
 30
0.0
  3
*X9696
  1

  0
TEXT
  5
723
  8
回07-寸法
  6
CONTINUOUS
 62
     5
 10
97.20755914809904
 20
194.0189047707782
 30
0.0
 40
3.0
  1
80
  0
TEXT
  5
724
  8
回07-寸法
  6
CONTINUOUS
 62
     5
 10
101.407559148099
 20
194.0189047707782
 30
0.0
 40
2.1
  1
±1
  0
TEXT
  5
725
  8
回07-寸法
  6
CONTINUOUS
 62
     5
 10
103.927559148099
 20
194.0189047707782
 30
0.0
 40
3.0
  1
 [3.150
  0
TEXT
  5
726
  8
回07-寸法
  6
CONTINUOUS
 62
     5
 10
115.627559148099
 20
194.0189047707782
 30
0.0
 40
2.1
  1
±0.039
  0
TEXT
  5
727
  8
回07-寸法
  6
CONTINUOUS
 62
     5
 10
123.6151409220057
 20
194.0189047707782
 30
0.0
 40
3.0
  1
]
  0
ENDBLK
  5
729
  8
回07-寸法
  6
CONTINUOUS
 62
     7
  0
BLOCK
  8
回07-寸法
  2
*X9797
 70
     1
 10
0.0
 20
0.0
 30
0.0
  3
*X9797
  1

  0
TEXT
  5
72C
  8
回07-寸法
  6
CONTINUOUS
 62
     5
 10
374.8136407352766
 20
190.4403894314928
 30
0.0
 40
3.0
  1
104
 50
90.0
  0
TEXT
  5
72D
  8
回07-寸法
  6
CONTINUOUS
 62
     5
 10
374.8136407352766
 20
196.4403894314928
 30
0.0
 40
2.1
  1
±0.3
 50
90.0
  0
TEXT
  5
72E
  8
回07-寸法
  6
CONTINUOUS
 62
     5
 10
374.8136407352766
 20
201.4803894314929
 30
0.0
 40
3.0
  1
 [4.094
 50
90.0
  0
TEXT
  5
72F
  8
回07-寸法
  6
CONTINUOUS
 62
     5
 10
374.8136407352766
 20
214.3912205370738
 30
0.0
 40
2.1
  1
±0.012
 50
90.0
  0
TEXT
  5
730
  8
回07-寸法
  6
CONTINUOUS
 62
     5
 10
374.8136407352766
 20
221.9512205370738
 30
0.0
 40
3.0
  1
]
 50
90.0
  0
ENDBLK
  5
732
  8
回07-寸法
  6
CONTINUOUS
 62
     7
  0
BLOCK
  8
回07-寸法
  2
*X9898
 70
     1
 10
0.0
 20
0.0
 30
0.0
  3
*X9898
  1

  0
TEXT
  5
735
  8
回07-寸法
  6
CONTINUOUS
 62
     5
 10
217.4559344822619
 20
293.2346355780688
 30
0.0
 40
3.0
  1
165
  0
TEXT
  5
736
  8
回07-寸法
  6
CONTINUOUS
 62
     5
 10
223.1559344822619
 20
293.2346355780688
 30
0.0
 40
2.1
  1
±0.3
  0
TEXT
  5
737
  8
回07-寸法
  6
CONTINUOUS
 62
     5
 10
228.1959344822619
 20
293.2346355780688
 30
0.0
 40
3.0
  1
 [6.496
  0
TEXT
  5
738
  8
回07-寸法
  6
CONTINUOUS
 62
     5
 10
240.8067655878428
 20
293.2346355780688
 30
0.0
 40
2.1
  1
±0.012
  0
TEXT
  5
739
  8
回07-寸法
  6
CONTINUOUS
 62
     5
 10
248.3667655878428
 20
293.2346355780688
 30
0.0
 40
3.0
  1
]
  0
ENDBLK
  5
73B
  8
回07-寸法
  6
CONTINUOUS
 62
     7
  0
BLOCK
  8
回07-寸法
  2
*X9999
 70
     1
 10
0.0
 20
0.0
 30
0.0
  3
*X9999
  1

  0
TEXT
  5
73E
  8
回07-寸法
  6
CONTINUOUS
 62
     5
 10
61.81513829431729
 20
68.3597903890767
 30
0.0
 40
3.0
  1
0.3
 50
90.0
  0
TEXT
  5
73F
  8
回07-寸法
  6
CONTINUOUS
 62
     5
 10
61.81513829431729
 20
73.4597903890767
 30
0.0
 40
2.000099999999999
  1
±0.05
 50
90.0
  0
TEXT
  5
740
  8
回07-寸法
  6
CONTINUOUS
 62
     5
 10
61.81513829431729
 20
79.6601003890767
 30
0.0
 40
3.0
  1
[0.012
 50
90.0
  0
TEXT
  5
741
  8
回07-寸法
  6
CONTINUOUS
 62
     5
 10
61.81513829431729
 20
89.5601003890767
 30
0.0
 40
2.000099999999999
  1
±0.002
 50
90.0
  0
TEXT
  5
742
  8
回07-寸法
  6
CONTINUOUS
 62
     5
 10
61.81513829431729
 20
97.16048038907672
 30
0.0
 40
3.0
  1
]
 50
90.0
  0
ENDBLK
  5
744
  8
回07-寸法
  6
CONTINUOUS
 62
     7
  0
BLOCK
  8
回07-寸法
  2
*X100100
 70
     1
 10
0.0
 20
0.0
 30
0.0
  3
*X100100
  1

  0
TEXT
  5
747
  8
回07-寸法
  6
CONTINUOUS
 62
     5
 10
323.6979363522827
 20
69.95991038907664
 30
0.0
 40
3.0
  1
1.4
 50
90.0
  0
TEXT
  5
748
  8
回07-寸法
  6
CONTINUOUS
 62
     5
 10
323.6979363522827
 20
74.75991038907665
 30
0.0
 40
2.000099999999999
  1
±0.2
 50
90.0
  0
TEXT
  5
749
  8
回07-寸法
  6
CONTINUOUS
 62
     5
 10
323.6979363522827
 20
79.56015038907662
 30
0.0
 40
3.0
  1
[0.055
 50
90.0
  0
TEXT
  5
74A
  8
回07-寸法
  6
CONTINUOUS
 62
     5
 10
323.6979363522827
 20
90.06015038907664
 30
0.0
 40
2.000099999999999
  1
±0.008
 50
90.0
  0
TEXT
  5
74B
  8
回07-寸法
  6
CONTINUOUS
 62
     5
 10
323.6979363522827
 20
97.6605303890766
 30
0.0
 40
3.0
  1
]
 50
90.0
  0
ENDBLK
  5
74D
  8
回07-寸法
  6
CONTINUOUS
 62
     7
  0
ENDSEC
  0
SECTION
  2
ENTITIES
  0
TEXT
  5
D1
  8
回03-記事
  6
CONTINUOUS
 62
     5
 10
165.1990787504295
 20
12.79491595467418
 30
0.0
 40
5.376000000000001
  1
without affecting product specification.
  0
TEXT
  5
D3
  8
回03-記事
  6
CONTINUOUS
 62
     5
 10
165.1990787504295
 20
22.22498635457814
 30
0.0
 40
5.376000000000001
  1
Edges and corners of ITO glass may be chamfered 
  0
TEXT
  5
D4
  8
回03-記事
  6
CONTINUOUS
 62
     5
 10
165.1990787504295
 20
31.65505675448193
 30
0.0
 40
5.376000000000001
  1
Unit: mm
  0
TEXT
  5
D5
  8
回03-記事
  6
CONTINUOUS
 62
     5
 10
165.1990787504295
 20
41.08512715438564
 30
0.0
 40
5.376000000000001
  1
EXCEPT WHERE INDICATED
  0
TEXT
  5
D6
  8
回03-記事
  6
CONTINUOUS
 62
     5
 10
165.1990787504295
 20
50.51519755428933
 30
0.0
 40
5.376000000000001
  1
TOLERANCE=±0.5mm
  0
TEXT
  5
D7
  8
回08-記事
  6
CONTINUOUS
 62
     7
 10
373.1438861346721
 20
115.5392552048058
 30
0.0
 40
3.0
  1
(INSULATION AREA)
 50
90.0
  0
TEXT
  5
DB
  8
回08-記事
  6
CONTINUOUS
 62
     7
 10
373.1438861346721
 20
267.435418996385
 30
0.0
 40
3.0
  1
(INSULATION AREA)
 50
90.0
  0
TEXT
  5
DC
  8
回08-記事
  6
CONTINUOUS
 62
     7
 10
320.150566046945
 20
280.7736945643461
 30
0.0
 40
3.0
  1
(INSULATION AREA)
  0
TEXT
  5
DD
  8
回07-寸法
  6
CONTINUOUS
 62
     5
 10
67.16535466856079
 20
296.8700272119885
 30
0.0
 40
3.0
  1
2-R0.5[R0.020]
1001
ACAD
1000
MTEXTBEGIN
1070
    73
1070
     1
1070
    44
1040
1.0
1070
    74
1070
     0
1000
MTEXTEND
  0
INSERT
  5
DE
  8
回07-寸法
  6
CONTINUOUS
 62
     5
 66
     1
  2
*X6969
 10
0.0
 20
0.0
 30
0.0
  0
SEQEND
  5
5DD
  8
回07-寸法
  6
CONTINUOUS
 62
     7
  0
TEXT
  5
DF
  8
回08-記事
  6
CONTINUOUS
 62
     7
 10
115.5258987314162
 20
280.7736945643461
 30
0.0
 40
3.0
  1
(INSULATION AREA)
  0
DIMENSION
  5
E0
  8
回07-寸法
  6
CONTINUOUS
 62
     7
  2
*D3535
 10
367.7394099679137
 20
154.7958049842831
 30
0.0
 11
365.5894099679138
 21
140.5458049842831
 31
0.0
 70
    32
  3
DMC
 13
312.1113500350524
 23
158.3458049842831
 33
0.0
 14
316.0113500350524
 24
154.7958049842831
 34
0.0
 50
90.0
1001
ACAD
1000
DSTYLE
1002
{
1070
    47
1040
0.2
1070
    48
1040
0.2
1070
   170
1070
     1
1070
   371
1070
     9
1070
   372
1070
     9
1002
}
  0
DIMENSION
  5
F2
  8
回07-寸法
  6
CONTINUOUS
 62
     7
  2
*D3636
 10
367.7394099679138
 20
258.7958049842832
 30
0.0
 11
365.588625023282
 21
272.7566360898641
 31
0.0
 70
    32
  3
DMC
 13
312.1113500350524
 23
253.8858049842832
 33
0.0
 14
316.0113500350524
 24
258.7958049842832
 34
0.0
 50
90.0
1001
ACAD
1000
DSTYLE
1002
{
1070
    47
1040
0.2
1070
    48
1040
0.2
1070
   170
1070
     1
1070
   371
1070
     9
1070
   372
1070
     9
1002
}
  0
DIMENSION
  5
103
  8
回07-寸法
  6
CONTINUOUS
 62
     7
  2
*D3737
 10
367.7394099679138
 20
253.8858049842832
 30
0.0
 11
365.5894099679139
 21
206.1158049842832
 31
0.0
 70
    32
  3
DMC
 13
312.1113500350524
 23
158.3458049842832
 33
0.0
 14
312.1113500350524
 24
253.8858049842832
 34
0.0
 50
90.0
1001
ACAD
1000
DSTYLE
1002
{
1070
    47
1040
0.2
1070
    48
1040
0.2
1070
   170
1070
     1
1070
   371
1070
     9
1070
   372
1070
     9
1002
}
  0
DIMENSION
  5
112
  8
回07-寸法
  6
CONTINUOUS
 62
     7
  2
*D3838
 10
316.0113500350524
 20
284.8647496008759
 30
0.0
 11
329.2167655878429
 21
287.0147496008759
 31
0.0
 70
    32
  3
DMC
 13
312.1113500350524
 23
253.8858049842832
 33
0.0
 14
316.0113500350524
 24
258.7958049842832
 34
0.0
1001
ACAD
1000
DSTYLE
1002
{
1070
    47
1040
0.2
1070
    48
1040
0.2
1070
   170
1070
     1
1070
   371
1070
     9
1070
   372
1070
     9
1002
}
  0
DIMENSION
  5
123
  8
回07-寸法
  6
CONTINUOUS
 62
     7
  2
*D3939
 10
151.0113500350523
 20
284.8647496008759
 30
0.0
 11
137.6613500350523
 21
287.0147496008759
 31
0.0
 70
    32
  3
DMC
 13
156.2113500350524
 23
253.8858049842832
 33
0.0
 14
151.0113500350523
 24
258.7958049842832
 34
0.0
1001
ACAD
1000
DSTYLE
1002
{
1070
    47
1040
0.2
1070
    48
1040
0.2
1070
   170
1070
     1
1070
   371
1070
     9
1070
   372
1070
     9
1002
}
  0
DIMENSION
  5
134
  8
回07-寸法
  6
CONTINUOUS
 62
     7
  2
*D4040
 10
156.2113500350524
 20
284.8647496008759
 30
0.0
 11
234.1613500350524
 21
287.0147496008759
 31
0.0
 70
    32
  3
DMC
 13
312.1113500350524
 23
253.8858049842832
 33
0.0
 14
156.2113500350524
 24
253.8858049842832
 34
0.0
1001
ACAD
1000
DSTYLE
1002
{
1070
    47
1040
0.2
1070
    48
1040
0.2
1070
   170
1070
     1
1070
   371
1070
     9
1070
   372
1070
     9
1002
}
  0
POLYLINE
  5
143
  8
0
  6
CONTINUOUS
 62
    30
 66
     1
 10
0.0
 20
0.0
 30
0.0
 70
     1
  0
VERTEX
  5
968
  8
0
  6
CONTINUOUS
 62
    30
 10
312.1113500350524
 20
158.3458049842831
 30
0.0
  0
VERTEX
  5
96A
  8
0
  6
CONTINUOUS
 62
    30
 10
156.2113500350524
 20
158.3458049842831
 30
0.0
  0
VERTEX
  5
96B
  8
0
  6
CONTINUOUS
 62
    30
 10
156.2113500350524
 20
253.8858049842832
 30
0.0
  0
VERTEX
  5
96C
  8
0
  6
CONTINUOUS
 62
    30
 10
312.1113500350524
 20
253.8858049842832
 30
0.0
  0
SEQEND
  5
969
  8
回07-寸法
  6
CONTINUOUS
 62
     7
  0
POLYLINE
  5
144
  8
回08-記事
  6
DASHED2
 62
     7
 66
     1
 10
0.0
 20
0.0
 30
0.0
 70
     1
  0
VERTEX
  5
96D
  8
回08-記事
  6
DASHED2
 62
     7
 10
153.4113500350521
 20
256.3858049842832
 30
0.0
  0
VERTEX
  5
96F
  8
回08-記事
  6
DASHED2
 62
     7
 10
313.9113500350522
 20
256.3858049842832
 30
0.0
  0
VERTEX
  5
970
  8
回08-記事
  6
DASHED2
 62
     7
 10
313.9113500350522
 20
156.8458049842831
 30
0.0
  0
VERTEX
  5
971
  8
回08-記事
  6
DASHED2
 62
     7
 10
153.4113500350521
 20
156.8458049842831
 30
0.0
  0
SEQEND
  5
96E
  8
回07-寸法
  6
CONTINUOUS
 62
     7
  0
TEXT
  5
146
  8
回91-枠英2
 10
443.9350109632593
 20
21.89879797607547
 30
0.0
 40
5.0
  1
Sep/25/2023
 72
     1
 11
463.4350109632593
 21
21.89879797607547
 31
0.0
  0
TEXT
  5
14A
  8
回91-枠英2
  6
CONTINUOUS
 62
     7
 10
458.3857410684919
 20
32.83823489169824
 30
0.0
 40
3.0
  1
DATE
  0
TEXT
  5
14B
  8
版01-FER
  6
CONTINUOUS
 62
     5
 10
88.9492454433242
 20
235.5920597440438
 30
0.0
 40
3.0
  1
LOT LABEL
1001
ACAD
1000
MTEXTBEGIN
1070
    73
1070
     1
1070
    44
1040
1.0
1070
    74
1070
     0
1000
MTEXTEND
  0
INSERT
  5
14F
  8
版01-FER
  6
CONTINUOUS
 62
     5
 66
     1
  2
*X7070
 10
0.0
 20
0.0
 30
0.0
  0
SEQEND
  5
5EE
  8
回07-寸法
  6
CONTINUOUS
 62
     7
  0
TEXT
  5
150
  8
版01-FER
  6
CONTINUOUS
 62
     5
 10
35.14846816928216
 20
111.9775927842081
 30
0.0
 40
3.0
  1
TRACE EXPOSE
1001
ACAD
1000
MTEXTBEGIN
1070
    73
1070
     1
1070
    44
1040
1.0
1070
    74
1070
     0
1000
MTEXTEND
  0
INSERT
  5
151
  8
版01-FER
  6
CONTINUOUS
 62
     5
 66
     1
  2
*X7171
 10
0.0
 20
0.0
 30
0.0
  0
SEQEND
  5
5F5
  8
回07-寸法
  6
CONTINUOUS
 62
     7
  0
LINE
  5
152
  8
回08-記事
  6
CONTINUOUS
 62
     5
 10
414.8339653039226
 20
307.7039977628355
 30
0.0
 11
485.8139653039233
 21
307.7039977628355
 31
0.0
  0
LINE
  5
153
  8
回08-記事
  6
CONTINUOUS
 62
     5
 10
485.8139653039233
 20
236.0414977628356
 30
0.0
 11
485.8139653039233
 21
307.7039977628355
 31
0.0
  0
TEXT
  5
154
  8
回08-記事
  6
CONTINUOUS
 62
     5
 10
408.9729697419445
 20
304.7590307333049
 30
0.0
 40
5.459999999999999
  1
4
  0
TEXT
  5
155
  8
回08-記事
  6
CONTINUOUS
 62
     5
 10
460.4797562099371
 20
247.8424433202138
 30
0.0
 40
4.777499999999998
  1
XR
  0
LINE
  5
156
  8
回08-記事
  6
CONTINUOUS
 62
     5
 10
464.6564653039231
 20
254.8102477628355
 30
0.0
 11
464.6564653039231
 21
288.9352477628355
 31
0.0
  0
LINE
  5
157
  8
回08-記事
  6
CONTINUOUS
 62
     5
 10
460.2202153039226
 20
254.8102477628355
 30
0.0
 11
464.6564653039231
 21
254.8102477628355
 31
0.0
  0
LINE
  5
158
  8
回08-記事
  6
CONTINUOUS
 62
     5
 10
451.2794653039226
 20
256.5847477628357
 30
0.0
 11
453.7364653039228
 21
251.6707477628354
 31
0.0
  0
LINE
  5
159
  8
回08-記事
  6
CONTINUOUS
 62
     5
 10
448.8224653039231
 20
251.6707477628354
 30
0.0
 11
451.2794653039226
 21
256.5847477628357
 31
0.0
  0
LINE
  5
15A
  8
回08-記事
  6
CONTINUOUS
 62
     5
 10
453.7364653039228
 20
251.6707477628354
 30
0.0
 11
456.1934653039228
 21
256.5847477628357
 31
0.0
  0
LINE
  5
15B
  8
回08-記事
  6
CONTINUOUS
 62
     5
 10
456.1934653039228
 20
256.5847477628357
 30
0.0
 11
458.650465303923
 21
251.6707477628354
 31
0.0
  0
LINE
  5
15C
  8
回08-記事
  6
CONTINUOUS
 62
     5
 10
458.650465303923
 20
251.6707477628354
 30
0.0
 11
460.2202153039226
 21
254.8102477628355
 31
0.0
  0
LINE
  5
15D
  8
回08-記事
  6
CONTINUOUS
 62
     5
 10
438.9944653039228
 20
251.6707477628354
 30
0.0
 11
441.4514653039226
 21
256.5847477628357
 31
0.0
  0
LINE
  5
15E
  8
回08-記事
  6
CONTINUOUS
 62
     5
 10
434.0804653039229
 20
251.6707477628354
 30
0.0
 11
436.5374653039228
 21
256.5847477628357
 31
0.0
  0
LINE
  5
15F
  8
回08-記事
  6
CONTINUOUS
 62
     5
 10
436.5374653039228
 20
256.5847477628357
 30
0.0
 11
438.9944653039228
 21
251.6707477628354
 31
0.0
  0
LINE
  5
160
  8
回08-記事
  6
CONTINUOUS
 62
     5
 10
441.0419653039228
 20
256.7894977628354
 30
0.0
 11
445.955965303923
 21
254.3324977628356
 31
0.0
  0
LINE
  5
161
  8
回08-記事
  6
CONTINUOUS
 62
     5
 10
441.0419653039228
 20
262.3859977628357
 30
0.0
 11
445.955965303923
 21
259.9289977628355
 31
0.0
  0
LINE
  5
162
  8
回08-記事
  6
CONTINUOUS
 62
     5
 10
441.0419653039228
 20
262.3859977628357
 30
0.0
 11
445.955965303923
 21
264.8429977628355
 31
0.0
  0
LINE
  5
163
  8
回08-記事
  6
CONTINUOUS
 62
     5
 10
441.0419653039228
 20
256.7894977628354
 30
0.0
 11
445.955965303923
 21
259.2464977628356
 31
0.0
  0
LINE
  5
164
  8
回08-記事
  6
CONTINUOUS
 62
     5
 10
441.0419653039228
 20
246.9614977628352
 30
0.0
 11
445.955965303923
 21
249.418497762836
 31
0.0
  0
LINE
  5
165
  8
回08-記事
  6
CONTINUOUS
 62
     5
 10
441.0419653039228
 20
251.8754977628354
 30
0.0
 11
445.955965303923
 21
249.418497762836
 31
0.0
  0
LINE
  5
166
  8
回08-記事
  6
CONTINUOUS
 62
     5
 10
441.0419653039228
 20
251.8754977628354
 30
0.0
 11
445.955965303923
 21
254.3324977628356
 31
0.0
  0
LINE
  5
167
  8
回08-記事
  6
CONTINUOUS
 62
     5
 10
443.4989653039228
 20
266.0714977628356
 30
0.0
 11
445.955965303923
 21
264.8429977628355
 31
0.0
  0
LINE
  5
168
  8
回08-記事
  6
CONTINUOUS
 62
     5
 10
441.4514653039226
 20
256.5847477628357
 30
0.0
 11
443.9084653039233
 21
251.6707477628354
 31
0.0
  0
LINE
  5
169
  8
回08-記事
  6
CONTINUOUS
 62
     5
 10
443.9084653039233
 20
251.6707477628354
 30
0.0
 11
446.3654653039228
 21
256.5847477628357
 31
0.0
  0
LINE
  5
16A
  8
回08-記事
  6
CONTINUOUS
 62
     5
 10
443.4989653039228
 20
266.0714977628356
 30
0.0
 11
443.4989653039228
 21
270.1664977628356
 31
0.0
  0
TEXT
  5
16B
  8
回08-記事
  6
CONTINUOUS
 62
     5
 10
420.5976487757476
 20
255.4465121768001
 30
0.0
 40
4.777499999999998
  1
XL
  0
LINE
  5
16C
  8
回08-記事
  6
CONTINUOUS
 62
     5
 10
430.0537153039231
 20
253.4452477628357
 30
0.0
 11
431.6234653039226
 21
256.5847477628357
 31
0.0
  0
LINE
  5
16D
  8
回08-記事
  6
CONTINUOUS
 62
     5
 10
431.6234653039226
 20
256.5847477628357
 30
0.0
 11
434.0804653039229
 21
251.6707477628354
 31
0.0
  0
LINE
  5
16E
  8
回08-記事
  6
CONTINUOUS
 62
     5
 10
441.0419653039228
 20
242.0474977628355
 30
0.0
 11
445.955965303923
 21
244.5044977628356
 31
0.0
  0
LINE
  5
16F
  8
回08-記事
  6
CONTINUOUS
 62
     5
 10
441.0419653039228
 20
242.0474977628355
 30
0.0
 11
443.4989653039228
 21
240.8189977628354
 31
0.0
  0
LINE
  5
170
  8
回08-記事
  6
CONTINUOUS
 62
     5
 10
443.4989653039228
 20
236.0414977628356
 30
0.0
 11
443.4989653039228
 21
240.8189977628354
 31
0.0
  0
TEXT
  5
171
  8
回08-記事
  6
CONTINUOUS
 62
     5
 10
430.9487281592508
 20
237.9875658891619
 30
0.0
 40
4.777499999999998
  1
YD
  0
LINE
  5
172
  8
回08-記事
  6
CONTINUOUS
 62
     5
 10
441.0419653039228
 20
246.9614977628352
 30
0.0
 11
445.955965303923
 21
244.5044977628356
 31
0.0
  0
TEXT
  5
173
  8
回08-記事
  6
CONTINUOUS
 62
     5
 10
409.4967062013839
 20
250.2975413562319
 30
0.0
 40
5.459999999999999
  1
1
  0
TEXT
  5
174
  8
回08-記事
  6
CONTINUOUS
 62
     5
 10
409.0780263185022
 20
267.6481399177843
 30
0.0
 40
5.459999999999999
  1
2
  0
TEXT
  5
175
  8
回08-記事
  6
CONTINUOUS
 62
     5
 10
409.2849682382421
 20
285.8140547849277
 30
0.0
 40
5.459999999999999
  1
3
  0
LINE
  5
176
  8
回08-記事
  6
CONTINUOUS
 62
     5
 10
414.8339653039226
 20
270.1664977628356
 30
0.0
 11
443.4989653039228
 21
270.1664977628356
 31
0.0
  0
LINE
  5
177
  8
回08-記事
  6
CONTINUOUS
 62
     5
 10
414.8339653039226
 20
253.4452477628357
 30
0.0
 11
430.0537153039231
 21
253.4452477628357
 31
0.0
  0
LINE
  5
178
  8
回08-記事
  6
CONTINUOUS
 62
     5
 10
485.8139653039233
 20
236.0414977628356
 30
0.0
 11
443.4989653039228
 21
236.0414977628356
 31
0.0
  0
TEXT
  5
179
  8
回08-記事
  6
CONTINUOUS
 62
     5
 10
444.8396927147853
 20
271.0663949660051
 30
0.0
 40
4.777499999999998
  1
YU
  0
LINE
  5
17A
  8
回08-記事
  6
CONTINUOUS
 62
     5
 10
446.3654653039228
 20
256.5847477628357
 30
0.0
 11
448.8224653039231
 21
251.6707477628354
 31
0.0
  0
LINE
  5
17B
  8
回08-記事
  6
CONTINUOUS
 62
     5
 10
414.8339653039226
 20
288.9352477628355
 30
0.0
 11
464.6564653039231
 21
288.9352477628355
 31
0.0
  0
INSERT
  5
17C
  8
回08-記事
  6
CONTINUOUS
 62
     7
 66
     1
  2
*X7272
 10
0.0
 20
0.0
 30
0.0
1001
ACAD
1000
HATCH
1002
{
1070
    19
1000
ANSI31
1040
0.3
1040
0.0
1000
ASC_BOUNDS
1070
     1
1070
     2
1070
     1
1005
17D
1000
ASC_SEEDPOINT
1011
-83.92508043809014
1021
2.141488739768206
1031
0.0
1000
R14_HATCH_DATA
1000
17C
1011
1.0
1021
0.0
1031
0.0
1011
0.0
1021
1.0
1031
0.0
1011
0.0
1021
0.0
1031
1.0
1040
0.0
1010
0.0
1020
0.0
1030
1.0
1000
ANSI31
1070
     0
1070
     1
1071
        1
1071
        1
1071
        8
1070
     1
1040
146.6235937123927
1040
104.1105303890766
1040
150.5113500350524
1040
104.1105303890766
1070
     1
1040
150.5113500350524
1040
104.1105303890766
1040
150.5113500350524
1040
102.4105303890766
1070
     1
1040
150.5113500350524
1040
102.4105303890766
1040
154.3113500350523
1040
102.4105303890766
1070
     1
1040
154.3113500350523
1040
102.4105303890766
1040
154.3113500350523
1040
102.9105303890766
1070
     1
1040
154.3113500350523
1040
102.9105303890766
1040
151.0113500350523
1040
102.9105303890766
1070
     1
1040
151.0113500350523
1040
102.9105303890766
1040
151.0113500350523
1040
104.6105303890766
1070
     1
1040
151.0113500350523
1040
104.6105303890766
1040
146.6235937123927
1040
104.6105303890766
1070
     1
1040
146.6235937123927
1040
104.6105303890766
1040
146.6235937123927
1040
104.1105303890766
1071
        1
1005
17D
1070
     0
1070
     1
1040
0.0
1040
0.3
1070
     0
1070
     1
1040
0.7853981633974483
1040
-83.92508043809014
1040
2.141488739768206
1040
-0.6735192090801864
1040
0.6735192090801866
1070
     0
1071
        1
1040
-83.92508043809014
1040
2.141488739768206
1040
0.0
1002
}
  0
SEQEND
  5
600
  8
回07-寸法
  6
CONTINUOUS
 62
     7
  0
POLYLINE
  5
17D
  8
回08-記事
  6
CONTINUOUS
 62
     7
 66
     1
 10
0.0
 20
0.0
 30
0.0
1001
ACAD
1000
ASC_BOUNDS
1002
{
1070
    19
1005
17C
1002
}
  0
VERTEX
  5
972
  8
回08-記事
  6
CONTINUOUS
 62
     7
 10
146.6235937123927
 20
104.1105303890766
 30
0.0
  0
VERTEX
  5
974
  8
回08-記事
  6
CONTINUOUS
 62
     7
 10
150.5113500350524
 20
104.1105303890766
 30
0.0
  0
VERTEX
  5
975
  8
回08-記事
  6
CONTINUOUS
 62
     7
 10
150.5113500350524
 20
102.4105303890766
 30
0.0
  0
VERTEX
  5
976
  8
回08-記事
  6
CONTINUOUS
 62
     7
 10
154.3113500350523
 20
102.4105303890766
 30
0.0
  0
VERTEX
  5
977
  8
回08-記事
  6
CONTINUOUS
 62
     7
 10
154.3113500350523
 20
102.9105303890766
 30
0.0
  0
VERTEX
  5
978
  8
回08-記事
  6
CONTINUOUS
 62
     7
 10
151.0113500350523
 20
102.9105303890766
 30
0.0
  0
VERTEX
  5
979
  8
回08-記事
  6
CONTINUOUS
 62
     7
 10
151.0113500350523
 20
104.6105303890766
 30
0.0
  0
VERTEX
  5
97A
  8
回08-記事
  6
CONTINUOUS
 62
     7
 10
146.6235937123927
 20
104.6105303890766
 30
0.0
  0
VERTEX
  5
97B
  8
回08-記事
  6
CONTINUOUS
 62
     7
 10
146.6235937123927
 20
104.1105303890766
 30
0.0
  0
SEQEND
  5
973
  8
回07-寸法
  6
CONTINUOUS
 62
     7
  0
TEXT
  5
17E
  8
回08-記事
  6
CONTINUOUS
 62
     5
 10
105.4494582565911
 20
211.880166953698
 30
0.0
 40
3.0
  1
PROTECTION TAPE
1001
ACAD
1000
MTEXTBEGIN
1070
    73
1070
     1
1070
    44
1040
1.0
1070
    74
1070
     0
1000
MTEXTEND
  0
INSERT
  5
17F
  8
回08-記事
  6
CONTINUOUS
 62
     5
 66
     1
  2
*X7373
 10
0.0
 20
0.0
 30
0.0
  0
SEQEND
  5
611
  8
回07-寸法
  6
CONTINUOUS
 62
     7
  0
TEXT
  5
180
  8
回07-寸法
  6
CONTINUOUS
 62
     5
 10
120.7392381923898
 20
239.4115868440909
 30
0.0
 40
3.0
  1
4-R1[R0.039]
1001
ACAD
1000
MTEXTBEGIN
1070
    73
1070
     1
1070
    44
1040
1.0
1070
    74
1070
     0
1000
MTEXTEND
  0
INSERT
  5
181
  8
回07-寸法
  6
CONTINUOUS
 62
     5
 66
     1
  2
*X7474
 10
0.0
 20
0.0
 30
0.0
  0
SEQEND
  5
617
  8
回07-寸法
  6
CONTINUOUS
 62
     7
  0
TEXT
  5
182
  8
回07-寸法
  6
CONTINUOUS
 62
     5
 10
123.3689145033149
 20
243.9467038669068
 30
0.0
 40
3.0
  1
2-R2[R0.079]
1001
ACAD
1000
MTEXTBEGIN
1070
    73
1070
     1
1070
    44
1040
1.0
1070
    74
1070
     0
1000
MTEXTEND
  0
INSERT
  5
183
  8
回07-寸法
  6
CONTINUOUS
 62
     5
 66
     1
  2
*X7575
 10
0.0
 20
0.0
 30
0.0
  0
SEQEND
  5
61E
  8
回07-寸法
  6
CONTINUOUS
 62
     7
  0
ARC
  5
184
  8
回05-ﾃｰﾙ
  6
CONTINUOUS
 62
     7
 10
140.4916792872611
 20
232.9208049842836
 30
0.0
 40
1.0
 50
270.0
 51
311.1165270005064
  0
ARC
  5
188
  8
回05-ﾃｰﾙ
  6
CONTINUOUS
 62
     7
 10
140.4916792872591
 20
224.6708049842844
 30
0.0
 40
1.0
 50
48.88347299949409
 51
90.0
  0
LINE
  5
189
  8
回05-ﾃｰﾙ
  6
CONTINUOUS
 62
     7
 10
71.51135003505237
 20
225.6708049842843
 30
0.0
 11
140.4916792872591
 21
225.6708049842843
 31
0.0
  0
LINE
  5
18A
  8
回05-ﾃｰﾙ
  6
CONTINUOUS
 62
     7
 10
71.51135003505237
 20
231.9208049842841
 30
0.0
 11
140.4916792872611
 21
231.9208049842841
 31
0.0
  0
TEXT
  5
18B
  8
回08-記事
  6
CONTINUOUS
 62
     5
 10
319.0266808108732
 20
163.3213646587057
 30
0.0
 40
3.0
  1
AIR VENT
1001
ACAD
1000
MTEXTBEGIN
1070
    73
1070
     1
1070
    44
1040
1.0
1070
    74
1070
     0
1000
MTEXTEND
  0
INSERT
  5
18C
  8
回08-記事
  6
CONTINUOUS
 62
     5
 66
     1
  2
*X7676
 10
0.0
 20
0.0
 30
0.0
  0
SEQEND
  5
624
  8
回07-寸法
  6
CONTINUOUS
 62
     7
  0
DIMENSION
  5
18D
  8
回07-寸法
  6
CONTINUOUS
 62
     5
  2
*D4141
 10
344.3892237909774
 20
160.3458049842832
 30
0.0
 11
342.2384388463456
 21
173.4000394347114
 31
0.0
 70
    32
  1
(<>)
  3
DMC
 13
316.0113500350524
 23
158.3458049842832
 33
0.0
 14
316.0113500350524
 24
160.3458049842832
 34
0.0
 50
90.0
1001
ACAD
1000
DSTYLE
1002
{
1070
    47
1040
0.2
1070
    48
1040
0.2
1070
   170
1070
     1
1070
   371
1070
     9
1070
   372
1070
     9
1002
}
  0
DIMENSION
  5
19E
  8
回07-寸法
  6
CONTINUOUS
 62
     5
  2
*D4242
 10
344.3892237909774
 20
154.7958049842831
 30
0.0
 11
342.2392237909775
 21
140.5458049842831
 31
0.0
 70
    32
  3
DMC
 13
316.0113500350524
 23
158.3458049842832
 33
0.0
 14
316.0113500350524
 24
154.7958049842831
 34
0.0
 50
90.0
1001
ACAD
1000
DSTYLE
1002
{
1070
    47
1040
0.2
1070
    48
1040
0.2
1070
   170
1070
     1
1070
   371
1070
     9
1070
   372
1070
     9
1002
}
  0
TEXT
  5
1AF
  8
回08-記事
  6
CONTINUOUS
 62
     5
 10
78.62623993016841
 20
220.39132316779
 30
0.0
 40
3.0
  1
A
1001
ACAD
1000
MTEXTBEGIN
1070
    73
1070
     1
1070
    44
1040
1.0
1070
    74
1070
     0
1000
MTEXTEND
  0
INSERT
  5
1B0
  8
回08-記事
  6
CONTINUOUS
 62
     5
 66
     1
  2
*X7777
 10
0.0
 20
0.0
 30
0.0
  0
SEQEND
  5
62A
  8
回07-寸法
  6
CONTINUOUS
 62
     7
  0
CIRCLE
  5
1B1
  8
回08-記事
  6
CONTINUOUS
 62
     5
 10
72.55048892199852
 20
228.7958049842832
 30
0.0
 40
7.892735359921458
  0
TEXT
  5
1B2
  8
回08-記事
  6
CONTINUOUS
 62
     5
 10
43.73805813634681
 20
328.2036342882916
 30
0.0
 40
5.0
  1
SECTION A
  0
LINE
  5
1B3
  8
回08-記事
  6
CONTINUOUS
 62
     8
 10
70.85865283581346
 20
318.8288326506456
 30
0.0
 11
70.85865283581346
 21
306.3288326506462
 31
0.0
  0
LINE
  5
1B4
  8
回08-記事
  6
CONTINUOUS
 62
    20
 10
57.95903672446796
 20
308.8288326506411
 30
0.0
 11
74.47047866384924
 21
308.8288326506411
 31
0.0
  0
LINE
  5
1B5
  8
回08-記事
  6
CONTINUOUS
 62
    20
 10
57.95912374600334
 20
311.3288326506411
 30
0.0
 11
74.47047866384924
 21
311.3288326506411
 31
0.0
  0
LINE
  5
1B6
  8
回08-記事
  6
CONTINUOUS
 62
    20
 10
57.95903672446796
 20
316.3288326506411
 30
0.0
 11
74.47047866384924
 21
316.3288326506411
 31
0.0
  0
DIMENSION
  5
1B7
  8
回08-記事
  6
CONTINUOUS
 62
     5
  2
*D4343
 10
39.4794019909225
 20
316.3288326506411
 30
0.0
 11
39.4794019909225
 21
289.378802150641
 31
0.0
 70
   160
  1
3.75{\H0.66667x;±0.1}[0.148{\H0.66667x;±0.004}]
  3
DMC
 13
57.95912374600334
 23
308.8288326506411
 33
0.0
 14
57.95903672446796
 24
316.3288326506411
 34
0.0
 50
90.0
1001
ACAD
1000
DSTYLE
1002
{
1070
    47
1040
0.2
1070
    48
1040
0.2
1070
   170
1070
     1
1070
   371
1070
     9
1070
   372
1070
     9
1002
}
  0
DIMENSION
  5
1C8
  8
回08-記事
  6
CONTINUOUS
 62
     5
  2
*D4444
 10
52.65877760996082
 20
308.1288326506411
 30
0.0
 11
50.50877760996084
 21
284.5288241506411
 31
0.0
 70
    32
  1
4-0.7{\H0.83333x;±0.1}[4-0.028{\H0.66667x;±0.004}]
  3
DMC
 13
60.85856581427811
 23
309.5288326506412
 33
0.0
 14
60.85856581427811
 24
308.1288326506411
 34
0.0
 50
90.0
1001
ACAD
1000
DSTYLE
1002
{
1070
    47
1040
0.2
1070
    48
1040
0.2
1070
   170
1070
     1
1070
   371
1070
     9
1070
   372
1070
     9
1002
}
  0
DIMENSION
  5
1D9
  8
回08-記事
  6
CONTINUOUS
 62
     5
  2
*D4545
 10
45.89414001710824
 20
308.8288326506411
 30
0.0
 11
43.74414001710825
 21
289.2733860978506
 31
0.0
 70
    32
  1
1.25{\H0.66667x;±0.2}[0.049{\H0.66667x;±0.008}]
  3
DMC
 13
57.95912374600334
 23
311.3288326506411
 33
0.0
 14
57.95912374600334
 24
308.8288326506411
 34
0.0
 50
90.0
1001
ACAD
1000
DSTYLE
1002
{
1070
    47
1040
0.2
1070
    48
1040
0.2
1070
   170
1070
     1
1070
   371
1070
     9
1070
   372
1070
     9
1002
}
  0
POLYLINE
  5
1EA
  8
回08-記事
  6
CONTINUOUS
 62
     8
 66
     1
 10
0.0
 20
0.0
 30
0.0
 40
1.399999999999999
 41
1.399999999999999
  0
VERTEX
  5
97C
  8
回08-記事
  6
CONTINUOUS
 62
     8
 10
60.85856581427811
 20
313.828832650641
 30
0.0
  0
VERTEX
  5
97E
  8
回08-記事
  6
CONTINUOUS
 62
     8
 10
70.85865283581346
 20
313.828832650641
 30
0.0
  0
SEQEND
  5
97D
  8
回07-寸法
  6
CONTINUOUS
 62
     7
  0
POLYLINE
  5
1EB
  8
回08-記事
  6
CONTINUOUS
 62
     8
 66
     1
 10
0.0
 20
0.0
 30
0.0
 40
1.399999999999999
 41
1.399999999999999
  0
VERTEX
  5
97F
  8
回08-記事
  6
CONTINUOUS
 62
     8
 10
60.85856581427811
 20
316.3288326506411
 30
0.0
  0
VERTEX
  5
981
  8
回08-記事
  6
CONTINUOUS
 62
     8
 10
70.85865283581346
 20
316.3288326506411
 30
0.0
  0
SEQEND
  5
980
  8
回07-寸法
  6
CONTINUOUS
 62
     7
  0
POLYLINE
  5
1EC
  8
回08-記事
  6
CONTINUOUS
 62
     8
 66
     1
 10
0.0
 20
0.0
 30
0.0
 40
1.399999999999999
 41
1.399999999999999
  0
VERTEX
  5
982
  8
回08-記事
  6
CONTINUOUS
 62
     8
 10
60.85856581427811
 20
308.8288326506411
 30
0.0
  0
VERTEX
  5
984
  8
回08-記事
  6
CONTINUOUS
 62
     8
 10
70.85865283581346
 20
308.8288326506411
 30
0.0
  0
SEQEND
  5
983
  8
回07-寸法
  6
CONTINUOUS
 62
     7
  0
POLYLINE
  5
1ED
  8
回08-記事
  6
CONTINUOUS
 62
     8
 66
     1
 10
0.0
 20
0.0
 30
0.0
 40
1.399999999999999
 41
1.399999999999999
  0
VERTEX
  5
985
  8
回08-記事
  6
CONTINUOUS
 62
     8
 10
60.85856581427811
 20
311.3288326506411
 30
0.0
  0
VERTEX
  5
987
  8
回08-記事
  6
CONTINUOUS
 62
     8
 10
70.85865283581346
 20
311.3288326506411
 30
0.0
  0
SEQEND
  5
986
  8
回07-寸法
  6
CONTINUOUS
 62
     7
  0
LINE
  5
1EE
  8
回08-記事
  6
CONTINUOUS
 62
     8
 10
61.85865283581346
 20
306.3288326506464
 30
0.0
 11
85.60931574160509
 21
306.3288326506464
 31
0.0
  0
LINE
  5
1EF
  8
回08-記事
  6
CONTINUOUS
 62
     8
 10
60.85865283581346
 20
317.8288326506462
 30
0.0
 11
60.85865283581346
 21
307.3288326506466
 31
0.0
  0
ARC
  5
1F0
  8
回08-記事
  6
CONTINUOUS
 62
     8
 10
61.85865283581346
 20
307.3288326506466
 30
0.0
 40
1.0
 50
180.0
 51
270.0
  0
ARC
  5
1F1
  8
回08-記事
  6
CONTINUOUS
 62
     8
 10
61.85865283581346
 20
317.8288326506462
 30
0.0
 40
1.0
 50
90.0
 51
180.0
  0
LINE
  5
1F2
  8
回08-記事
  6
CONTINUOUS
 62
     8
 10
61.85865283581346
 20
318.828832650646
 30
0.0
 11
85.60931574160509
 21
318.828832650646
 31
0.0
  0
DIMENSION
  5
1F3
  8
回08-記事
  6
CONTINUOUS
 62
     5
  2
*D4646
 10
32.43945273058604
 20
306.3288326506466
 30
0.0
 11
30.28945273058607
 21
286.4785226506466
 31
0.0
 70
    32
  1
6.25{\H0.6667x;±0.2}[0.246{\H0.6667x;±0.008}]
  3
DMC
 13
61.85865283581346
 23
318.8288326506456
 33
0.0
 14
61.85865283581346
 24
306.3288326506466
 34
0.0
 50
90.0
1001
ACAD
1000
DSTYLE
1002
{
1070
    47
1040
0.2
1070
    48
1040
0.2
1070
   170
1070
     1
1070
   371
1070
     9
1070
   372
1070
     9
1002
}
  0
DIMENSION
  5
204
  8
回07-寸法
  6
CONTINUOUS
 62
     5
  2
*D4747
 10
151.5113500350524
 20
111.6305723843499
 30
0.0
 11
166.0601689326901
 21
113.7805723843499
 31
0.0
 70
    32
  1
(<>)
  3
DMC
 13
151.0113500350523
 23
105.4105303890766
 33
0.0
 14
151.5113500350524
 24
107.9105303890766
 34
0.0
1001
ACAD
1000
DSTYLE
1002
{
1070
    47
1040
0.2
1070
    48
1040
0.2
1070
   170
1070
     1
1070
   371
1070
     9
1070
   372
1070
     9
1002
}
  0
DIMENSION
  5
215
  8
回07-寸法
  6
CONTINUOUS
 62
     5
  2
*D4848
 10
81.01135003505238
 20
89.79653281387232
 30
0.0
 11
94.96558448548062
 21
91.94731775850415
 31
0.0
 70
    32
  1
(<>)
  3
DMC
 13
71.01135003505238
 23
103.4105303890766
 33
0.0
 14
81.01135003505238
 24
103.4105303890766
 34
0.0
1001
ACAD
1000
DSTYLE
1002
{
1070
    47
1040
0.2
1070
    48
1040
0.2
1070
   170
1070
     1
1070
   371
1070
     9
1070
   372
1070
     9
1002
}
  0
DIMENSION
  5
226
  8
回07-寸法
  6
CONTINUOUS
 62
     5
  2
*D4949
 10
76.01135003505238
 20
112.1695781375685
 30
0.0
 11
87.56676558784285
 21
114.3203630822003
 31
0.0
 70
    32
  3
DMC
 13
71.01135003505238
 23
106.4105303890766
 33
0.0
 14
76.01135003505238
 24
107.4105303890766
 34
0.0
1001
ACAD
1000
DSTYLE
1002
{
1070
    47
1040
0.2
1070
    48
1040
0.2
1070
   170
1070
     1
1070
   371
1070
     9
1070
   372
1070
     9
1002
}
  0
LINE
  5
237
  8
回08-記事
  6
CONTINUOUS
 62
     7
 10
316.0113500350524
 20
158.3458049842832
 30
0.0
 11
311.6113500350525
 21
158.3458049842832
 31
0.0
  0
LINE
  5
238
  8
回08-記事
  6
CONTINUOUS
 62
     7
 10
311.6113500350525
 20
160.3458049842832
 30
0.0
 11
316.0113500350524
 21
160.3458049842832
 31
0.0
  0
LINE
  5
239
  8
回05-ﾃｰﾙ
  6
CONTINUOUS
 62
     7
 10
71.01135003505238
 20
231.4208049842843
 30
0.0
 11
71.01135003505238
 21
226.1708049842845
 31
0.0
  0
ARC
  5
23A
  8
回05-ﾃｰﾙ
  6
CONTINUOUS
 62
     7
 10
71.51135003505237
 20
226.1708049842845
 30
0.0
 40
0.5
 50
180.0
 51
270.0
  0
ARC
  5
23B
  8
回05-ﾃｰﾙ
  6
CONTINUOUS
 62
     7
 10
71.51135003505237
 20
231.4208049842843
 30
0.0
 40
0.5
 50
90.0
 51
180.0
  0
LINE
  5
23C
  8
回08-記事
  6
CENTER2
 62
     1
 10
154.5334788748312
 20
206.1158049842832
 30
0.0
 11
314.0892211952739
 21
206.1158049842832
 31
0.0
  0
LINE
  5
23E
  8
回08-記事
  6
CENTER2
 62
     1
 10
234.3113500350526
 20
252.3853766007144
 30
0.0
 11
234.3113500350526
 21
159.846233367852
 31
0.0
  0
TEXT
  5
23F
  8
回08-記事
  6
CONTINUOUS
 62
     5
 10
318.4530763760322
 20
172.0710771707576
 30
0.0
 40
3.0
  1
AST-070A
  0
TEXT
  5
240
  8
回08-記事
  6
CONTINUOUS
 62
     5
 10
318.9204218142452
 20
176.7297508132964
 30
0.0
 40
3.0
  1
PART No
1001
ACAD
1000
MTEXTBEGIN
1070
    73
1070
     1
1070
    44
1040
1.0
1070
    74
1070
     0
1000
MTEXTEND
  0
INSERT
  5
241
  8
回08-記事
  6
CONTINUOUS
 62
     5
 66
     1
  2
*X7878
 10
0.0
 20
0.0
 30
0.0
  0
SEQEND
  5
63C
  8
回07-寸法
  6
CONTINUOUS
 62
     7
  0
TEXT
  5
242
  8
回08-記事
  6
CONTINUOUS
 62
     5
 10
302.8831070633303
 20
208.0441595545917
 30
0.0
 40
4.0
  1
XR
  0
INSERT
  5
243
  8
回08-記事
  6
CONTINUOUS
 62
     8
 66
     1
  2
*X7979
 10
0.0
 20
0.0
 30
0.0
1001
ACAD
1000
HATCH
1002
{
1070
    19
1000
ANSI31
1040
0.5
1040
0.0
1000
ASC_BOUNDS
1070
     1
1070
     2
1070
     1
1005
244
1000
ASC_SEEDPOINT
1011
-38.22991294258304
1021
-18.1180206065453
1031
0.0
1000
R14_HATCH_DATA
1000
243
1011
1.0
1021
0.0
1031
0.0
1011
0.0
1021
1.0
1031
0.0
1011
0.0
1021
0.0
1031
1.0
1040
0.0
1010
0.0
1020
0.0
1030
1.0
1000
ANSI31
1070
     0
1070
     1
1071
        1
1071
        1
1071
        4
1070
     1
1040
146.8113500350535
1040
221.2958049842832
1040
154.8113500350534
1040
221.2958049842832
1070
     1
1040
154.8113500350534
1040
221.2958049842832
1040
154.8113500350534
1040
227.7958049842832
1070
     1
1040
154.8113500350534
1040
227.7958049842832
1040
146.8113500350535
1040
227.7958049842832
1070
     1
1040
146.8113500350535
1040
227.7958049842832
1040
146.8113500350535
1040
221.2958049842832
1071
        1
1005
244
1070
     0
1070
     1
1040
0.0
1040
0.5
1070
     0
1070
     1
1040
0.7853981633974483
1040
-38.22991294258304
1040
-18.1180206065453
1040
-1.122532015133643
1040
1.122532015133643
1070
     0
1071
        1
1040
-38.22991294258304
1040
-18.1180206065453
1040
0.0
1002
}
  0
SEQEND
  5
647
  8
回07-寸法
  6
CONTINUOUS
 62
     7
  0
POLYLINE
  5
244
  8
回08-記事
  6
CONTINUOUS
 62
     8
 66
     1
 10
0.0
 20
0.0
 30
0.0
 70
     1
1001
ACAD
1000
ASC_BOUNDS
1002
{
1070
    19
1005
243
1002
}
  0
VERTEX
  5
988
  8
回08-記事
  6
CONTINUOUS
 62
     8
 10
146.8113500350535
 20
221.2958049842832
 30
0.0
  0
VERTEX
  5
98A
  8
回08-記事
  6
CONTINUOUS
 62
     8
 10
154.8113500350534
 20
221.2958049842832
 30
0.0
  0
VERTEX
  5
98B
  8
回08-記事
  6
CONTINUOUS
 62
     8
 10
154.8113500350534
 20
227.7958049842832
 30
0.0
  0
VERTEX
  5
98C
  8
回08-記事
  6
CONTINUOUS
 62
     8
 10
146.8113500350535
 20
227.7958049842832
 30
0.0
  0
SEQEND
  5
989
  8
回07-寸法
  6
CONTINUOUS
 62
     7
  0
TEXT
  5
245
  8
回08-記事
  6
CONTINUOUS
 62
     5
 10
111.0707594728356
 20
97.24029880769514
 30
0.0
 40
3.0
  1
LOT LABEL
1001
ACAD
1000
MTEXTBEGIN
1070
    73
1070
     1
1070
    44
1040
1.0
1070
    74
1070
     0
1000
MTEXTEND
  0
INSERT
  5
246
  8
回08-記事
  6
CONTINUOUS
 62
     5
 66
     1
  2
*X8080
 10
0.0
 20
0.0
 30
0.0
  0
SEQEND
  5
653
  8
回07-寸法
  6
CONTINUOUS
 62
     7
  0
TEXT
  5
247
  8
回08-記事
  6
CONTINUOUS
 62
     7
 10
70.55928430547078
 20
223.3679550452004
 30
0.0
 40
3.0
  1
1
 50
90.0
  0
TEXT
  5
248
  8
回08-記事
  6
CONTINUOUS
 62
     7
 10
70.41679969378106
 20
232.4078717108429
 30
0.0
 40
3.0
  1
4
 50
90.0
  0
TEXT
  5
249
  8
回08-記事
  6
CONTINUOUS
 62
     5
 10
223.3949437233298
 20
162.0834610137066
 30
0.0
 40
4.0
  1
YD
  0
TEXT
  5
24A
  8
回08-記事
  6
CONTINUOUS
 62
     5
 10
160.0107152688267
 20
208.0441595545917
 30
0.0
 40
4.0
  1
XL
  0
TEXT
  5
24B
  8
回08-記事
  6
CONTINUOUS
 62
     5
 10
223.3949437233298
 20
245.5104926316816
 30
0.0
 40
4.0
  1
YU
  0
DIMENSION
  5
24C
  8
回07-寸法
  6
CONTINUOUS
 62
     5
  2
*D5050
 10
353.1575506928299
 20
154.7958049842831
 30
0.0
 11
353.1575506928299
 21
141.4458049842831
 31
0.0
 70
   160
  3
DMC
 13
310.5113500350524
 23
160.3958049842832
 33
0.0
 14
316.0113500350524
 24
154.7958049842831
 34
0.0
 50
90.0
1001
ACAD
1000
DSTYLE
1002
{
1070
    47
1040
0.2
1070
    48
1040
0.2
1070
   170
1070
     1
1070
   371
1070
     9
1070
   372
1070
     9
1002
}
  0
DIMENSION
  5
25D
  8
回07-寸法
  6
CONTINUOUS
 62
     5
  2
*D5151
 10
360.8733091313003
 20
154.7958049842831
 30
0.0
 11
358.7233091313004
 21
140.8458049842832
 31
0.0
 70
    32
  3
DMC
 13
311.6113500350525
 23
159.1458049842832
 33
0.0
 14
316.0113500350524
 24
154.7958049842831
 34
0.0
 50
90.0
1001
ACAD
1000
DSTYLE
1002
{
1070
    47
1040
0.2
1070
    48
1040
0.2
1070
   170
1070
     1
1070
   371
1070
     9
1070
   372
1070
     9
1002
}
  0
DIMENSION
  5
26E
  8
回07-寸法
  6
CONTINUOUS
 62
     5
  2
*D5252
 10
316.0113500350524
 20
267.9886112455761
 30
0.0
 11
329.0613500350524
 21
267.9886112455761
 31
0.0
 70
   160
  3
DMC
 13
310.5113500350524
 23
251.8358049842832
 33
0.0
 14
316.0113500350524
 24
258.7958049842832
 34
0.0
1001
ACAD
1000
DSTYLE
1002
{
1070
    47
1040
0.2
1070
    48
1040
0.2
1070
   170
1070
     1
1070
   371
1070
     9
1070
   372
1070
     9
1002
}
  0
DIMENSION
  5
27F
  8
回07-寸法
  6
CONTINUOUS
 62
     5
  2
*D5353
 10
316.0113500350524
 20
274.4596698712144
 30
0.0
 11
329.3613500350524
 21
276.6096698712143
 31
0.0
 70
    32
  3
DMC
 13
311.6113500350525
 23
253.0858049842832
 33
0.0
 14
316.0113500350524
 24
258.7958049842832
 34
0.0
1001
ACAD
1000
DSTYLE
1002
{
1070
    47
1040
0.2
1070
    48
1040
0.2
1070
   170
1070
     1
1070
   371
1070
     9
1070
   372
1070
     9
1002
}
  0
DIMENSION
  5
290
  8
回07-寸法
  6
CONTINUOUS
 62
     5
  2
*D5454
 10
57.71749987335692
 20
258.7958049842832
 30
0.0
 11
55.56749987335692
 21
243.7958049842832
 31
0.0
 70
    32
  1
(<>)
  3
DMC
 13
68.12663679503498
 23
228.7958049842832
 33
0.0
 14
151.0113500350523
 24
258.7958049842832
 34
0.0
 50
90.0
1001
ACAD
1000
DSTYLE
1002
{
1070
    47
1040
0.2
1070
    48
1040
0.2
1070
   170
1070
     1
1070
   371
1070
     9
1070
   372
1070
     9
1002
}
  0
DIMENSION
  5
29F
  8
回07-寸法
  6
CONTINUOUS
 62
     5
  2
*D5555
 10
140.4916792872591
 20
199.6839146558661
 30
0.0
 11
125.341679287259
 21
199.6839146558661
 31
0.0
 70
   160
  1
9.4 [0.370]
  3
DMC
 13
151.0113500350523
 23
220.1186806398155
 33
0.0
 14
140.4916792872591
 24
225.6708049842844
 34
0.0
1001
ACAD
1000
DSTYLE
1002
{
1070
    47
1040
0.2
1070
    48
1040
0.2
1070
   170
1070
     1
1070
   371
1070
     9
1070
   372
1070
     9
1002
}
  0
DIMENSION
  5
2B0
  8
回07-寸法
  6
CONTINUOUS
 62
     5
  2
*D5656
 10
146.8213500350523
 20
205.2287746015243
 30
0.0
 11
129.1793858896769
 21
205.2287746015243
 31
0.0
 70
   160
  1
4.39 [0.173]
  3
DMC
 13
151.0113500350523
 23
220.1186806398155
 33
0.0
 14
146.8213500350523
 24
220.7958049842832
 34
0.0
1001
ACAD
1000
DSTYLE
1002
{
1070
    47
1040
0.2
1070
    48
1040
0.2
1070
   170
1070
     1
1070
   371
1070
     9
1070
   372
1070
     9
1002
}
  0
DIMENSION
  5
2C1
  8
回07-寸法
  6
CONTINUOUS
 62
     5
  2
*D5757
 10
119.4409891558014
 20
236.795804984283
 30
0.0
 11
119.4409891558014
 21
249.803684425881
 31
0.0
 70
   160
  3
DMC
 13
147.1951021312722
 23
220.7958049842832
 33
0.0
 14
147.1951021312722
 24
236.795804984283
 34
0.0
 50
90.0
1001
ACAD
1000
DSTYLE
1002
{
1070
    47
1040
0.2
1070
    48
1040
0.2
1070
   170
1070
     1
1070
   371
1070
     9
1070
   372
1070
     9
1002
}
  0
DIMENSION
  5
2D2
  8
回07-寸法
  6
CONTINUOUS
 62
     5
  2
*D5858
 10
62.30167188566091
 20
225.6708049842846
 30
0.0
 11
60.15167188566089
 21
211.1208049842845
 31
0.0
 70
    32
  3
DMC
 13
71.51135003505237
 23
231.9208049842841
 33
0.0
 14
71.51135003505237
 24
225.6708049842846
 34
0.0
 50
90.0
1001
ACAD
1000
DSTYLE
1002
{
1070
   147
1040
0.5
1070
    72
1070
     0
1070
    71
1070
     0
1070
    47
1040
0.2
1070
    48
1040
0.2
1070
   170
1070
     1
1070
   371
1070
     9
1070
   372
1070
     9
1002
}
  0
DIMENSION
  5
2E3
  8
回07-寸法
  6
CONTINUOUS
 62
     5
  2
*D5959
 10
151.0113500350523
 20
193.3689047707783
 30
0.0
 11
111.0113500350524
 21
195.5189047707783
 31
0.0
 70
    32
  3
DMC
 13
71.01135003505238
 23
226.7958049842832
 33
0.0
 14
151.0113500350523
 24
213.7705916627764
 34
0.0
1001
ACAD
1000
DSTYLE
1002
{
1070
   147
1040
0.5
1070
    72
1070
     0
1070
    71
1070
     1
1070
    47
1040
1.0
1070
    48
1040
1.0
1070
   170
1070
     1
1070
   371
1070
     9
1070
   372
1070
     9
1002
}
  0
DIMENSION
  5
2F2
  8
回07-寸法
  6
CONTINUOUS
 62
     5
  2
*D6060
 10
353.1575506928299
 20
251.8358049842832
 30
0.0
 11
351.0075506928298
 21
206.1158049842832
 31
0.0
 70
    32
  1
<>(ACTIVE AREA)
  3
DMC
 13
310.5113500350524
 23
160.3958049842832
 33
0.0
 14
310.5113500350524
 24
251.8358049842832
 34
0.0
 50
90.0
1001
ACAD
1000
DSTYLE
1002
{
1070
    47
1040
0.2
1070
    48
1040
0.2
1070
   170
1070
     1
1070
   371
1070
     9
1070
   372
1070
     9
1002
}
  0
DIMENSION
  5
301
  8
回07-寸法
  6
CONTINUOUS
 62
     5
  2
*D6161
 10
360.8733091313003
 20
159.1458049842832
 30
0.0
 11
358.7225241866686
 21
206.1158049842832
 31
0.0
 70
    32
  1
<>(VIEWING AREA)
  3
DMC
 13
311.6113500350525
 23
253.0858049842832
 33
0.0
 14
311.6113500350525
 24
159.1458049842832
 34
0.0
 50
90.0
1001
ACAD
1000
DSTYLE
1002
{
1070
    47
1040
0.2
1070
    48
1040
0.2
1070
   170
1070
     1
1070
   371
1070
     9
1070
   372
1070
     9
1002
}
  0
DIMENSION
  5
310
  8
回07-寸法
  6
CONTINUOUS
 62
     5
  2
*D6262
 10
375.4636407352767
 20
154.7958049842831
 30
0.0
 11
375.4636407352767
 21
206.7958049842833
 31
0.0
 70
   160
  3
DMC
 13
316.0113500350524
 23
258.7958049842832
 33
0.0
 14
316.0113500350524
 24
154.7958049842831
 34
0.0
 50
90.0
1001
ACAD
1000
DSTYLE
1002
{
1070
   147
1040
0.5
1070
    72
1070
     0
1070
    71
1070
     1
1070
    47
1040
0.3
1070
    48
1040
0.3
1070
   170
1070
     1
1070
   371
1070
     9
1070
   372
1070
     9
1002
}
  0
DIMENSION
  5
31F
  8
回07-寸法
  6
CONTINUOUS
 62
     5
  2
*D6363
 10
310.5113500350524
 20
267.9886112455761
 30
0.0
 11
234.3113500350524
 21
267.9886112455761
 31
0.0
 70
   160
  1
<>(ACTIVE AREA)
  3
DMC
 13
158.1113500350525
 23
251.8358049842832
 33
0.0
 14
310.5113500350524
 24
251.8358049842832
 34
0.0
1001
ACAD
1000
DSTYLE
1002
{
1070
    47
1040
0.2
1070
    48
1040
0.2
1070
   170
1070
     1
1070
   371
1070
     9
1070
   372
1070
     9
1002
}
  0
DIMENSION
  5
32E
  8
回07-寸法
  6
CONTINUOUS
 62
     5
  2
*D6464
 10
311.6113500350525
 20
274.4596698712144
 30
0.0
 11
234.1613500350526
 21
274.4596698712144
 31
0.0
 70
   160
  1
<>(VIEWING AREA)
  3
DMC
 13
156.7113500350526
 23
253.0858049842832
 33
0.0
 14
311.6113500350525
 24
253.0858049842832
 34
0.0
1001
ACAD
1000
DSTYLE
1002
{
1070
    47
1040
0.2
1070
    48
1040
0.2
1070
   170
1070
     1
1070
   371
1070
     9
1070
   372
1070
     9
1002
}
  0
DIMENSION
  5
33D
  8
回07-寸法
  6
CONTINUOUS
 62
     5
  2
*D6565
 10
316.0113500350524
 20
292.5846355780688
 30
0.0
 11
233.5113500350524
 21
294.7346355780688
 31
0.0
 70
    32
  3
DMC
 13
151.0113500350523
 23
258.7958049842832
 33
0.0
 14
316.0113500350524
 24
258.7958049842832
 34
0.0
1001
ACAD
1000
DSTYLE
1002
{
1070
   147
1040
0.5
1070
    72
1070
     0
1070
    71
1070
     1
1070
    47
1040
0.3
1070
    48
1040
0.3
1070
   170
1070
     1
1070
   371
1070
     9
1070
   372
1070
     9
1002
}
  0
DIMENSION
  5
34C
  8
回07-寸法
  6
CONTINUOUS
 62
     5
  2
*D6666
 10
315.5113500350524
 20
112.1643514505062
 30
0.0
 11
300.9625311374146
 21
114.3143514505063
 31
0.0
 70
    32
  1
(<>)
  3
DMC
 13
316.0113500350524
 23
105.4105303890766
 33
0.0
 14
315.5113500350524
 24
107.9105303890766
 34
0.0
1001
ACAD
1000
DSTYLE
1002
{
1070
    47
1040
0.2
1070
    48
1040
0.2
1070
   170
1070
     1
1070
   371
1070
     9
1070
   372
1070
     9
1002
}
  0
TEXT
  5
35D
  8
回08-記事
  6
CONTINUOUS
 62
     7
 10
315.3621666747654
 20
170.1936603985791
 30
0.0
 40
1.0
  1
AST-070A
 50
90.0
  0
ARC
  5
35E
  8
回08-記事
  6
CONTINUOUS
 62
     7
 10
162.8621602959508
 20
105.4105303890766
 30
0.0
 40
0.2
 50
0.0
 51
180.0
  0
ARC
  5
35F
  8
回08-記事
  6
CONTINUOUS
 62
     7
 10
166.8621602959508
 20
105.4105303890766
 30
0.0
 40
0.2
 50
0.0
 51
180.0
  0
ARC
  5
360
  8
回08-記事
  6
CONTINUOUS
 62
     7
 10
170.8621602959508
 20
105.4105303890766
 30
0.0
 40
0.2
 50
0.0
 51
180.0
  0
ARC
  5
361
  8
回08-記事
  6
CONTINUOUS
 62
     7
 10
174.8621602959508
 20
105.4105303890766
 30
0.0
 40
0.2
 50
0.0
 51
180.0
  0
ARC
  5
362
  8
回08-記事
  6
CONTINUOUS
 62
     7
 10
178.8621602959508
 20
105.4105303890766
 30
0.0
 40
0.2
 50
0.0
 51
180.0
  0
ARC
  5
363
  8
回08-記事
  6
CONTINUOUS
 62
     7
 10
182.8621602959508
 20
105.4105303890766
 30
0.0
 40
0.2
 50
0.0
 51
180.0
  0
ARC
  5
364
  8
回08-記事
  6
CONTINUOUS
 62
     7
 10
186.8621602959508
 20
105.4105303890766
 30
0.0
 40
0.2
 50
0.0
 51
180.0
  0
ARC
  5
365
  8
回08-記事
  6
CONTINUOUS
 62
     7
 10
190.8621602959508
 20
105.4105303890766
 30
0.0
 40
0.2
 50
0.0
 51
180.0
  0
ARC
  5
366
  8
回08-記事
  6
CONTINUOUS
 62
     7
 10
194.8621602959508
 20
105.4105303890766
 30
0.0
 40
0.2
 50
0.0
 51
180.0
  0
POLYLINE
  5
367
  8
回08-記事
  6
CONTINUOUS
 62
     7
 66
     1
 10
0.0
 20
0.0
 30
0.0
 70
     1
  0
VERTEX
  5
98D
  8
回08-記事
  6
CONTINUOUS
 62
     7
 10
151.0113500350523
 20
104.6105303890766
 30
0.0
  0
VERTEX
  5
98F
  8
回08-記事
  6
CONTINUOUS
 62
     7
 10
151.0113500350523
 20
105.4105303890766
 30
0.0
  0
VERTEX
  5
990
  8
回08-記事
  6
CONTINUOUS
 62
     7
 10
141.5642639171724
 20
105.4105303890766
 30
0.0
  0
VERTEX
  5
991
  8
回08-記事
  6
CONTINUOUS
 62
     7
 10
141.5642639171724
 20
104.6105303890766
 30
0.0
  0
SEQEND
  5
98E
  8
回07-寸法
  6
CONTINUOUS
 62
     7
  0
INSERT
  5
368
  8
回08-記事
  6
CONTINUOUS
 62
     7
 66
     1
  2
*X8181
 10
0.0
 20
0.0
 30
0.0
1001
ACAD
1000
HATCH
1002
{
1070
    19
1000
ANSI31
1040
0.5
1040
4.712388980384688
1000
ASC_BOUNDS
1070
     1
1070
     2
1070
     1
1005
369
1000
ASC_SEEDPOINT
1011
163.7421534374471
1021
62.78620725699068
1031
0.0
1000
R14_HATCH_DATA
1000
368
1011
1.0
1021
0.0
1031
0.0
1011
0.0
1021
1.0
1031
0.0
1011
0.0
1021
0.0
1031
1.0
1040
0.0
1010
0.0
1020
0.0
1030
1.0
1000
ANSI31
1070
     0
1070
     1
1071
        1
1071
        1
1071
        4
1070
     1
1040
98.70856202009465
1040
105.4105303890766
1040
98.70856202009465
1040
104.6105303890766
1070
     1
1040
98.70856202009465
1040
104.6105303890766
1040
124.7085620200946
1040
104.6105303890766
1070
     1
1040
124.7085620200946
1040
104.6105303890766
1040
124.7085620200946
1040
105.4105303890766
1070
     1
1040
124.7085620200946
1040
105.4105303890766
1040
98.70856202009465
1040
105.4105303890766
1071
        1
1005
369
1070
     0
1070
     1
1040
4.712388980384688
1040
0.5
1070
     0
1070
     1
1040
3.92699081698724
1040
163.7421534374471
1040
62.78620725699068
1040
-1.122532015133643
1040
1.122532015133643
1070
     0
1071
        1
1040
163.7421534374471
1040
62.78620725699068
1040
0.0
1002
}
  0
SEQEND
  5
667
  8
回07-寸法
  6
CONTINUOUS
 62
     7
  0
POLYLINE
  5
369
  8
回08-記事
  6
CONTINUOUS
 62
     7
 66
     1
 10
0.0
 20
0.0
 30
0.0
 70
     1
1001
ACAD
1000
ASC_BOUNDS
1002
{
1070
    19
1005
368
1002
}
  0
VERTEX
  5
992
  8
回08-記事
  6
CONTINUOUS
 62
     7
 10
98.70856202009465
 20
105.4105303890766
 30
0.0
  0
VERTEX
  5
994
  8
回08-記事
  6
CONTINUOUS
 62
     7
 10
98.70856202009465
 20
104.6105303890766
 30
0.0
  0
VERTEX
  5
995
  8
回08-記事
  6
CONTINUOUS
 62
     7
 10
124.7085620200946
 20
104.6105303890766
 30
0.0
  0
VERTEX
  5
996
  8
回08-記事
  6
CONTINUOUS
 62
     7
 10
124.7085620200946
 20
105.4105303890766
 30
0.0
  0
SEQEND
  5
993
  8
回07-寸法
  6
CONTINUOUS
 62
     7
  0
LINE
  5
36A
  8
回08-記事
  6
CONTINUOUS
 62
    40
 10
151.0113500350523
 20
104.9105303890766
 30
0.0
 11
151.0113500350523
 21
102.9105303890766
 31
0.0
  0
ARC
  5
36B
  8
回08-記事
  6
CONTINUOUS
 62
     7
 10
310.8621602959508
 20
105.4105303890767
 30
0.0
 40
0.2
 50
0.0
 51
180.0
  0
ARC
  5
36C
  8
回08-記事
  6
CONTINUOUS
 62
     7
 10
306.8621602959508
 20
105.4105303890767
 30
0.0
 40
0.2
 50
0.0
 51
180.0
  0
ARC
  5
36D
  8
回08-記事
  6
CONTINUOUS
 62
     7
 10
302.8621602959508
 20
105.4105303890767
 30
0.0
 40
0.2
 50
0.0
 51
180.0
  0
ARC
  5
36E
  8
回08-記事
  6
CONTINUOUS
 62
     7
 10
298.8621602959508
 20
105.4105303890767
 30
0.0
 40
0.2
 50
0.0
 51
180.0
  0
ARC
  5
36F
  8
回08-記事
  6
CONTINUOUS
 62
     7
 10
294.8621602959509
 20
105.4105303890767
 30
0.0
 40
0.2
 50
0.0
 51
180.0
  0
ARC
  5
370
  8
回08-記事
  6
CONTINUOUS
 62
     7
 10
290.8621602959509
 20
105.4105303890767
 30
0.0
 40
0.2
 50
0.0
 51
180.0
  0
ARC
  5
371
  8
回08-記事
  6
CONTINUOUS
 62
     7
 10
286.8621602959509
 20
105.4105303890767
 30
0.0
 40
0.2
 50
0.0
 51
180.0
  0
ARC
  5
372
  8
回08-記事
  6
CONTINUOUS
 62
     7
 10
282.8621602959509
 20
105.4105303890767
 30
0.0
 40
0.2
 50
0.0
 51
180.0
  0
ARC
  5
373
  8
回08-記事
  6
CONTINUOUS
 62
     7
 10
278.8621602959509
 20
105.4105303890767
 30
0.0
 40
0.2
 50
0.0
 51
180.0
  0
ARC
  5
374
  8
回08-記事
  6
CONTINUOUS
 62
     7
 10
274.8621602959508
 20
105.4105303890767
 30
0.0
 40
0.2
 50
0.0
 51
180.0
  0
ARC
  5
375
  8
回08-記事
  6
CONTINUOUS
 62
     7
 10
270.8621602959508
 20
105.4105303890767
 30
0.0
 40
0.2
 50
0.0
 51
180.0
  0
DIMENSION
  5
376
  8
回07-寸法
  6
CONTINUOUS
 62
     7
  2
*D6767
 10
62.46513829431728
 20
103.4105303890766
 30
0.0
 11
62.46513829431728
 21
83.35895428671449
 31
0.0
 70
   160
  1
0.3{\H0.6667x;±0.05}[0.012{\H0.6667x;±0.002}]
  3
DMC
 13
71.01135003505238
 23
106.4105303890766
 33
0.0
 14
71.01135003505238
 24
103.4105303890766
 34
0.0
 50
90.0
  0
DIMENSION
  5
387
  8
回07-寸法
  6
CONTINUOUS
 62
     7
  2
*D6868
 10
324.3479363522827
 20
102.9105303890766
 30
0.0
 11
322.1979363522827
 21
84.41022038907664
 31
0.0
 70
    32
  1
1.4{\H0.6667x;±0.2}[0.055{\H0.6667x;±0.008}]
  3
DMC
 13
315.5113500350524
 23
107.9105303890766
 33
0.0
 14
316.0113500350524
 24
102.9105303890766
 34
0.0
 50
90.0
  0
ARC
  5
398
  8
回08-記事
  6
CONTINUOUS
 62
     7
 10
198.8621602959508
 20
105.4105303890766
 30
0.0
 40
0.2
 50
0.0
 51
180.0
  0
ARC
  5
399
  8
回08-記事
  6
CONTINUOUS
 62
     7
 10
202.8621602959508
 20
105.4105303890766
 30
0.0
 40
0.2
 50
0.0
 51
180.0
  0
ARC
  5
39A
  8
回08-記事
  6
CONTINUOUS
 62
     7
 10
206.8621602959508
 20
105.4105303890766
 30
0.0
 40
0.2
 50
0.0
 51
180.0
  0
ARC
  5
39B
  8
回08-記事
  6
CONTINUOUS
 62
     7
 10
210.8621602959508
 20
105.4105303890766
 30
0.0
 40
0.2
 50
0.0
 51
180.0
  0
ARC
  5
39C
  8
回08-記事
  6
CONTINUOUS
 62
     7
 10
214.8621602959508
 20
105.4105303890766
 30
0.0
 40
0.2
 50
0.0
 51
180.0
  0
ARC
  5
39D
  8
回08-記事
  6
CONTINUOUS
 62
     7
 10
218.8621602959508
 20
105.4105303890766
 30
0.0
 40
0.2
 50
0.0
 51
180.0
  0
ARC
  5
39E
  8
回08-記事
  6
CONTINUOUS
 62
     7
 10
222.8621602959508
 20
105.4105303890766
 30
0.0
 40
0.2
 50
0.0
 51
180.0
  0
ARC
  5
39F
  8
回08-記事
  6
CONTINUOUS
 62
     7
 10
226.8621602959508
 20
105.4105303890766
 30
0.0
 40
0.2
 50
0.0
 51
180.0
  0
ARC
  5
3A0
  8
回08-記事
  6
CONTINUOUS
 62
     7
 10
230.8621602959509
 20
105.4105303890766
 30
0.0
 40
0.2
 50
0.0
 51
180.0
  0
ARC
  5
3A1
  8
回08-記事
  6
CONTINUOUS
 62
     7
 10
234.8621602959509
 20
105.4105303890766
 30
0.0
 40
0.2
 50
0.0
 51
180.0
  0
ARC
  5
3A2
  8
回08-記事
  6
CONTINUOUS
 62
     7
 10
238.8621602959509
 20
105.4105303890767
 30
0.0
 40
0.2
 50
0.0
 51
180.0
  0
ARC
  5
3A3
  8
回08-記事
  6
CONTINUOUS
 62
     7
 10
242.8621602959509
 20
105.4105303890767
 30
0.0
 40
0.2
 50
0.0
 51
180.0
  0
ARC
  5
3A4
  8
回08-記事
  6
CONTINUOUS
 62
     7
 10
246.8621602959508
 20
105.4105303890767
 30
0.0
 40
0.2
 50
0.0
 51
180.0
  0
ARC
  5
3A5
  8
回08-記事
  6
CONTINUOUS
 62
     7
 10
250.8621602959508
 20
105.4105303890767
 30
0.0
 40
0.2
 50
0.0
 51
180.0
  0
ARC
  5
3A6
  8
回08-記事
  6
CONTINUOUS
 62
     7
 10
254.8621602959508
 20
105.4105303890767
 30
0.0
 40
0.2
 50
0.0
 51
180.0
  0
ARC
  5
3A7
  8
回08-記事
  6
CONTINUOUS
 62
     7
 10
258.8621602959508
 20
105.4105303890767
 30
0.0
 40
0.2
 50
0.0
 51
180.0
  0
ARC
  5
3A8
  8
回08-記事
  6
CONTINUOUS
 62
     7
 10
262.8621602959508
 20
105.4105303890767
 30
0.0
 40
0.2
 50
0.0
 51
180.0
  0
ARC
  5
3A9
  8
回08-記事
  6
CONTINUOUS
 62
     7
 10
266.8621602959508
 20
105.4105303890767
 30
0.0
 40
0.2
 50
0.0
 51
180.0
  0
POLYLINE
  5
3AA
  8
回08-記事
  6
CONTINUOUS
 62
     7
 66
     1
 10
0.0
 20
0.0
 30
0.0
 70
     1
  0
VERTEX
  5
997
  8
回08-記事
  6
CONTINUOUS
 62
     7
 10
76.01135003505238
 20
106.4105303890766
 30
0.0
  0
VERTEX
  5
999
  8
回08-記事
  6
CONTINUOUS
 62
     7
 10
151.5113500350524
 20
106.4105303890766
 30
0.0
  0
VERTEX
  5
99A
  8
回08-記事
  6
CONTINUOUS
 62
     7
 10
151.5113500350524
 20
107.4105303890766
 30
0.0
  0
VERTEX
  5
99B
  8
回08-記事
  6
CONTINUOUS
 62
     7
 10
76.01135003505238
 20
107.4105303890766
 30
0.0
  0
SEQEND
  5
998
  8
回07-寸法
  6
CONTINUOUS
 62
     7
  0
POLYLINE
  5
3AB
  8
回08-記事
  6
CONTINUOUS
 62
     7
 66
     1
 10
0.0
 20
0.0
 30
0.0
 70
     1
  0
VERTEX
  5
99C
  8
回08-記事
  6
CONTINUOUS
 62
     7
 10
71.01135003505238
 20
105.4105303890766
 30
0.0
  0
VERTEX
  5
99E
  8
回08-記事
  6
CONTINUOUS
 62
     7
 10
81.01135003505238
 20
105.4105303890766
 30
0.0
  0
VERTEX
  5
99F
  8
回08-記事
  6
CONTINUOUS
 62
     7
 10
81.01135003505238
 20
103.4105303890766
 30
0.0
  0
VERTEX
  5
9A0
  8
回08-記事
  6
CONTINUOUS
 62
     7
 10
71.01135003505238
 20
103.4105303890766
 30
0.0
  0
SEQEND
  5
99D
  8
回07-寸法
  6
CONTINUOUS
 62
     7
  0
LINE
  5
3AC
  8
回08-記事
  6
CONTINUOUS
 62
     7
 10
158.8113500350525
 20
106.4105303890766
 30
0.0
 11
158.8113500350525
 21
105.4105303890766
 31
0.0
  0
LINE
  5
3AD
  8
回08-記事
  6
CONTINUOUS
 62
     7
 10
315.5113500350524
 20
106.4105303890766
 30
0.0
 11
315.5113500350524
 21
105.4105303890766
 31
0.0
  0
LINE
  5
3AE
  8
回08-記事
  6
CONTINUOUS
 62
     7
 10
312.6113500350525
 20
106.4105303890766
 30
0.0
 11
312.6113500350525
 21
105.4105303890766
 31
0.0
  0
POLYLINE
  5
3AF
  8
回08-記事
  6
CONTINUOUS
 62
     7
 66
     1
 10
0.0
 20
0.0
 30
0.0
 70
     1
  0
VERTEX
  5
9A1
  8
回08-記事
  6
CONTINUOUS
 62
     7
 10
71.01135003505238
 20
105.4105303890766
 30
0.0
  0
VERTEX
  5
9A3
  8
回08-記事
  6
CONTINUOUS
 62
     7
 10
154.3113500350523
 20
105.4105303890766
 30
0.0
  0
VERTEX
  5
9A4
  8
回08-記事
  6
CONTINUOUS
 62
     7
 10
154.3113500350523
 20
106.4105303890766
 30
0.0
  0
VERTEX
  5
9A5
  8
回08-記事
  6
CONTINUOUS
 62
     7
 10
71.01135003505238
 20
106.4105303890766
 30
0.0
  0
SEQEND
  5
9A2
  8
回07-寸法
  6
CONTINUOUS
 62
     7
  0
POLYLINE
  5
3B0
  8
回08-記事
  6
CONTINUOUS
 62
     7
 66
     1
 10
0.0
 20
0.0
 30
0.0
 70
     1
  0
VERTEX
  5
9A6
  8
回08-記事
  6
CONTINUOUS
 62
     7
 10
151.0113500350523
 20
102.9105303890766
 30
0.0
  0
VERTEX
  5
9A8
  8
回08-記事
  6
CONTINUOUS
 62
     7
 10
316.0113500350524
 20
102.9105303890766
 30
0.0
  0
VERTEX
  5
9A9
  8
回08-記事
  6
CONTINUOUS
 62
     7
 10
316.0113500350524
 20
105.4105303890766
 30
0.0
  0
VERTEX
  5
9AA
  8
回08-記事
  6
CONTINUOUS
 62
     7
 10
151.0113500350523
 20
105.4105303890766
 30
0.0
  0
SEQEND
  5
9A7
  8
回07-寸法
  6
CONTINUOUS
 62
     7
  0
POLYLINE
  5
3B1
  8
回08-記事
  6
CONTINUOUS
 62
     7
 66
     1
 10
0.0
 20
0.0
 30
0.0
 70
     1
  0
VERTEX
  5
9AB
  8
回08-記事
  6
CONTINUOUS
 62
     7
 10
151.5113500350524
 20
107.9105303890766
 30
0.0
  0
VERTEX
  5
9AD
  8
回08-記事
  6
CONTINUOUS
 62
     7
 10
315.5113500350524
 20
107.9105303890766
 30
0.0
  0
VERTEX
  5
9AE
  8
回08-記事
  6
CONTINUOUS
 62
     7
 10
315.5113500350524
 20
106.4105303890766
 30
0.0
  0
VERTEX
  5
9AF
  8
回08-記事
  6
CONTINUOUS
 62
     7
 10
151.5113500350524
 20
106.4105303890766
 30
0.0
  0
SEQEND
  5
9AC
  8
回07-寸法
  6
CONTINUOUS
 62
     7
  0
INSERT
  5
3B2
  8
回08-記事
  6
CONTINUOUS
 62
     8
 66
     1
  2
*X8282
 10
0.0
 20
0.0
 30
0.0
1001
ACAD
1000
HATCH
1002
{
1070
    19
1000
ANSI31
1040
15.0
1040
1.570796326794896
1000
ASC_BOUNDS
1070
     1
1070
     2
1070
     1
1005
3B3
1000
ASC_SEEDPOINT
1011
300.9952359092633
1021
208.8450044499131
1031
0.0
1000
R14_HATCH_DATA
1000
3B2
1011
1.0
1021
0.0
1031
0.0
1011
0.0
1021
1.0
1031
0.0
1011
0.0
1021
0.0
1031
1.0
1040
0.0
1010
0.0
1020
0.0
1030
1.0
1000
ANSI31
1070
     0
1070
     1
1071
        1
1071
        1
1071
        8
1070
     1
1040
98.70856202009465
1040
227.2958049842832
1040
98.70856202009465
1040
230.2958049842832
1070
     2
1040
99.70856202009464
1040
230.2958049842832
1040
1.0
1040
3.141592653589792
1040
4.712388980384688
1070
     0
1070
     1
1040
99.70856202009464
1040
231.2958049842832
1040
123.7085620200946
1040
231.2958049842832
1070
     2
1040
123.7085620200946
1040
230.2958049842832
1040
1.0
1040
4.712388980384688
1040
6.283185307179585
1070
     0
1070
     1
1040
124.7085620200946
1040
230.2958049842832
1040
124.7085620200946
1040
227.2958049842832
1070
     2
1040
123.7085620200946
1040
227.2958049842832
1040
1.0
1040
6.283185307179585
1040
7.853981633974482
1070
     0
1070
     1
1040
123.7085620200946
1040
226.2958049842832
1040
99.70856202009464
1040
226.2958049842832
1070
     2
1040
99.70856202009464
1040
227.2958049842832
1040
1.0
1040
1.570796326794896
1040
3.141592653589792
1070
     0
1071
        1
1005
3B3
1070
     0
1070
     1
1040
1.570796326794896
1040
15.0
1070
     0
1070
     1
1040
2.356194490192344
1040
300.9952359092633
1040
208.8450044499131
1040
-1.325825214724775
1040
-1.325825214724775
1070
     0
1071
        1
1040
300.9952359092633
1040
208.8450044499131
1040
0.0
1002
}
  0
SEQEND
  5
694
  8
回07-寸法
  6
CONTINUOUS
 62
     7
  0
POLYLINE
  5
3B3
  8
回08-記事
  6
CONTINUOUS
 62
     8
 66
     1
 10
0.0
 20
0.0
 30
0.0
 70
     1
1001
ACAD
1000
ASC_BOUNDS
1002
{
1070
    19
1005
3B2
1002
}
  0
VERTEX
  5
9B0
  8
回08-記事
  6
CONTINUOUS
 62
     8
 10
98.70856202009465
 20
227.2958049842832
 30
0.0
  0
VERTEX
  5
9B2
  8
回08-記事
  6
CONTINUOUS
 62
     8
 10
98.70856202009465
 20
230.2958049842832
 30
0.0
 42
-0.4142135623730951
  0
VERTEX
  5
9B3
  8
回08-記事
  6
CONTINUOUS
 62
     8
 10
99.70856202009464
 20
231.2958049842832
 30
0.0
  0
VERTEX
  5
9B4
  8
回08-記事
  6
CONTINUOUS
 62
     8
 10
123.7085620200946
 20
231.2958049842832
 30
0.0
 42
-0.4142135623730951
  0
VERTEX
  5
9B5
  8
回08-記事
  6
CONTINUOUS
 62
     8
 10
124.7085620200946
 20
230.2958049842832
 30
0.0
  0
VERTEX
  5
9B6
  8
回08-記事
  6
CONTINUOUS
 62
     8
 10
124.7085620200946
 20
227.2958049842832
 30
0.0
 42
-0.4142135623730951
  0
VERTEX
  5
9B7
  8
回08-記事
  6
CONTINUOUS
 62
     8
 10
123.7085620200946
 20
226.2958049842832
 30
0.0
  0
VERTEX
  5
9B8
  8
回08-記事
  6
CONTINUOUS
 62
     8
 10
99.70856202009464
 20
226.2958049842832
 30
0.0
 42
-0.4142135623730946
  0
SEQEND
  5
9B1
  8
回07-寸法
  6
CONTINUOUS
 62
     7
  0
LINE
  5
3B4
  8
回07-寸法
  6
CENTER2
 62
     1
 10
160.0462642397672
 20
228.7958049842832
 30
0.0
 11
68.12663679503498
 21
228.7958049842832
 31
0.0
  0
POLYLINE
  5
3B5
  8
回08-記事
  6
PHANTOM2
 62
     7
 66
     1
 10
0.0
 20
0.0
 30
0.0
 70
     1
  0
VERTEX
  5
9B9
  8
回08-記事
  6
PHANTOM2
 62
     7
 10
158.1113500350525
 20
160.3958049842832
 30
0.0
  0
VERTEX
  5
9BB
  8
回08-記事
  6
PHANTOM2
 62
     7
 10
310.5113500350524
 20
160.3958049842832
 30
0.0
  0
VERTEX
  5
9BC
  8
回08-記事
  6
PHANTOM2
 62
     7
 10
310.5113500350524
 20
251.8358049842832
 30
0.0
  0
VERTEX
  5
9BD
  8
回08-記事
  6
PHANTOM2
 62
     7
 10
158.1113500350525
 20
251.8358049842832
 30
0.0
  0
SEQEND
  5
9BA
  8
回07-寸法
  6
CONTINUOUS
 62
     7
  0
POLYLINE
  5
3B7
  8
回08-記事
  6
CONTINUOUS
 62
     7
 66
     1
 10
0.0
 20
0.0
 30
0.0
 70
     1
  0
VERTEX
  5
9BE
  8
回08-記事
  6
CONTINUOUS
 62
     7
 10
156.7113500350526
 20
159.1458049842832
 30
0.0
  0
VERTEX
  5
9C0
  8
回08-記事
  6
CONTINUOUS
 62
     7
 10
311.6113500350525
 20
159.1458049842832
 30
0.0
  0
VERTEX
  5
9C1
  8
回08-記事
  6
CONTINUOUS
 62
     7
 10
311.6113500350525
 20
253.0858049842832
 30
0.0
  0
VERTEX
  5
9C2
  8
回08-記事
  6
CONTINUOUS
 62
     7
 10
156.7113500350526
 20
253.0858049842832
 30
0.0
  0
SEQEND
  5
9BF
  8
回07-寸法
  6
CONTINUOUS
 62
     7
  0
POLYLINE
  5
3B8
  8
回04-下接
  6
CONTINUOUS
 62
     7
 66
     1
 10
0.0
 20
0.0
 30
0.0
 70
     1
  0
VERTEX
  5
9C3
  8
回04-下接
  6
CONTINUOUS
 62
     7
 10
151.0113500350523
 20
154.7958049842831
 30
0.0
  0
VERTEX
  5
9C5
  8
回04-下接
  6
CONTINUOUS
 62
     7
 10
316.0113500350524
 20
154.7958049842831
 30
0.0
  0
VERTEX
  5
9C6
  8
回04-下接
  6
CONTINUOUS
 62
     7
 10
316.0113500350524
 20
258.7958049842832
 30
0.0
  0
VERTEX
  5
9C7
  8
回04-下接
  6
CONTINUOUS
 62
     7
 10
151.0113500350523
 20
258.7958049842832
 30
0.0
  0
SEQEND
  5
9C4
  8
回07-寸法
  6
CONTINUOUS
 62
     7
  0
ARC
  5
3BC
  8
回05-ﾃｰﾙ
  6
CONTINUOUS
 62
     7
 10
146.8268320921152
 20
235.7958049842831
 30
0.0
 40
1.0
 50
89.99999999999348
 51
131.1165270005064
  0
ARC
  5
3BD
  8
回05-ﾃｰﾙ
  6
CONTINUOUS
 62
     7
 10
146.8268320921163
 20
221.7958049842823
 30
0.0
 40
1.0
 50
228.8834729994939
 51
270.0
  0
LINE
  5
3BE
  8
回05-ﾃｰﾙ
  6
CONTINUOUS
 62
     7
 10
141.1492718714976
 20
232.1674312435962
 30
0.0
 11
146.1692395078786
 21
236.5491787249705
 31
0.0
  0
LINE
  5
3BF
  8
回05-ﾃｰﾙ
  6
CONTINUOUS
 62
     7
 10
146.8268320921154
 20
236.7958049842831
 30
0.0
 11
149.5113500350524
 21
236.7958049842831
 31
0.0
  0
ARC
  5
3C0
  8
回05-ﾃｰﾙ
  6
CONTINUOUS
 62
     7
 10
149.5113500350524
 20
218.7958049842832
 30
0.0
 40
2.0
 50
41.40962210927095
 51
90.0
  0
ARC
  5
3C1
  8
回05-ﾃｰﾙ
  6
BYBLOCK
 62
     7
 10
149.5113500350524
 20
238.7958051840064
 30
0.0
 40
2.0
 50
270.0256057119457
 51
318.590377890729
  0
LINE
  5
3C2
  8
回05-ﾃｰﾙ
  6
CONTINUOUS
 62
     7
 10
141.1492718714955
 20
225.4241787249718
 30
0.0
 11
146.1692395078801
 21
221.0424312435948
 31
0.0
  0
LINE
  5
3C3
  8
回05-ﾃｰﾙ
  6
CONTINUOUS
 62
     7
 10
146.8268320921163
 20
220.7958049842822
 30
0.0
 11
149.5113500350524
 21
220.7958049842822
 31
0.0
  0
TEXT
  5
3C4
  8
回08-記事
  6
CONTINUOUS
 62
     5
 10
420.8049768372925
 20
315.8425656966714
 30
0.0
 40
5.0
  1
PIN ASSIGNMENT
  0
TEXT
  5
3C5
  8
回91-枠英2
 10
468.2914577383463
 20
353.9766695532143
 30
0.0
 40
3.6
  1
H
  0
LINE
  5
3C6
  8
回91-枠英2
 10
437.9350109632593
 20
358.1414887397682
 30
0.0
 11
437.9350109632593
 21
353.6414887397682
 31
0.0
  0
LINE
  5
3C7
  8
回91-枠英2
 10
505.4350109632593
 20
284.3414887397682
 30
0.0
 11
500.9350109632593
 21
284.3414887397682
 31
0.0
  0
TEXT
  5
3C8
  8
回91-枠英2
 10
501.927641033581
 20
247.7013073060416
 30
0.0
 40
3.6
  1
2
  0
LINE
  5
3C9
  8
回91-枠英2
 10
505.4350109632593
 20
215.0414887397682
 30
0.0
 11
500.9350109632593
 21
215.0414887397682
 31
0.0
  0
TEXT
  5
3CA
  8
回91-枠英2
 10
502.1989898665526
 20
317.0013073060415
 30
0.0
 40
3.6
  1
1
  0
TEXT
  5
3CB
  8
回91-枠英2
 10
501.9227082738003
 20
178.4013073060415
 30
0.0
 40
3.6
  1
3
  0
LINE
  5
3CC
  8
回91-枠英2
 10
505.4350109632593
 20
145.7414887397682
 30
0.0
 11
500.9350109632593
 21
145.7414887397682
 31
0.0
  0
TEXT
  5
3CD
  8
回91-枠英2
 10
501.8569253657274
 20
109.1013073060415
 30
0.0
 40
3.6
  1
4
  0
LINE
  5
3CE
  8
回91-枠英2
 10
505.4350109632593
 20
76.44148873976814
 30
0.0
 11
500.9350109632593
 21
76.44148873976814
 31
0.0
  0
TEXT
  5
3CF
  8
回91-枠英2
 10
501.8569253657274
 20
39.80130730604152
 30
0.0
 40
3.6
  1
5
  0
TEXT
  5
3D0
  8
回91-枠英2
 10
468.2914577383463
 20
2.976669553214278
 30
0.0
 40
3.6
  1
H
  0
LINE
  5
3D1
  8
回91-枠英2
 10
437.9350109632593
 20
7.141488739768205
 30
0.0
 11
437.9350109632593
 21
2.641488739768206
 31
0.0
  0
TEXT
  5
3D2
  8
回91-枠英2
 10
443.5600109632593
 20
9.679196576960306
 30
0.0
 40
5.0
  1
DMC Co., Ltd.
 72
     1
 11
463.4350109632593
 21
9.679196576960306
 31
0.0
  0
LINE
  5
3D3
  8
回91-枠英2
 10
505.4350109632593
 20
2.641488739768206
 30
0.0
 11
505.4350109632593
 21
358.1414887397682
 31
0.0
  0
LINE
  5
3D4
  8
回91-枠英2
 10
500.9350109632593
 20
353.6414887397682
 30
0.0
 11
500.9350109632593
 21
7.141488739768205
 31
0.0
  0
TEXT
  5
3D5
  8
回91-枠英2
 10
405.2914577383464
 20
353.9766695532143
 30
0.0
 40
3.6
  1
G
  0
LINE
  5
3D6
  8
回91-枠英2
 10
374.9350109632593
 20
358.1414887397682
 30
0.0
 11
374.9350109632593
 21
353.6414887397682
 31
0.0
  0
TEXT
  5
3D7
  8
回91-枠英2
 10
342.2914577383465
 20
353.9766695532143
 30
0.0
 40
3.6
  1
F
  0
LINE
  5
3D8
  8
回91-枠英2
 10
311.9350109632594
 20
358.1414887397682
 30
0.0
 11
311.9350109632594
 21
353.6414887397682
 31
0.0
  0
TEXT
  5
3D9
  8
回91-枠英2
 10
279.2914577383465
 20
353.9766695532143
 30
0.0
 40
3.6
  1
E
  0
LINE
  5
3DA
  8
回91-枠英2
 10
248.9350109632594
 20
358.1414887397682
 30
0.0
 11
248.9350109632594
 21
353.6414887397682
 31
0.0
  0
TEXT
  5
3DB
  8
回91-枠英2
 10
216.2914577383465
 20
353.9766695532143
 30
0.0
 40
3.6
  1
D
  0
LINE
  5
3DC
  8
回91-枠英2
 10
185.9350109632594
 20
358.1414887397682
 30
0.0
 11
185.9350109632594
 21
353.6414887397682
 31
0.0
  0
TEXT
  5
3DD
  8
回91-枠英2
 10
153.2914577383465
 20
353.9766695532143
 30
0.0
 40
3.6
  1
C
  0
LINE
  5
3DE
  8
回91-枠英2
 10
122.9350109632594
 20
358.1414887397682
 30
0.0
 11
122.9350109632594
 21
353.6414887397682
 31
0.0
  0
TEXT
  5
3DF
  8
回91-枠英2
 10
90.29145773834647
 20
353.9766695532143
 30
0.0
 40
3.6
  1
B
  0
LINE
  5
3E0
  8
回91-枠英2
 10
59.9350109632594
 20
358.1414887397682
 30
0.0
 11
59.9350109632594
 21
353.6414887397682
 31
0.0
  0
TEXT
  5
3E1
  8
回91-枠英2
 10
27.29145773834648
 20
353.9766695532143
 30
0.0
 40
3.6
  1
A
  0
LINE
  5
3E2
  8
回91-枠英2
 10
-3.064989036740597
 20
284.3414887397682
 30
0.0
 11
-7.564989036740597
 21
284.3414887397682
 31
0.0
  0
TEXT
  5
3E3
  8
回91-枠英2
 10
-6.57235896641896
 20
247.7013073060416
 30
0.0
 40
3.6
  1
2
  0
LINE
  5
3E4
  8
回91-枠英2
 10
-3.064989036740597
 20
215.0414887397682
 30
0.0
 11
-7.564989036740597
 21
215.0414887397682
 31
0.0
  0
TEXT
  5
3E5
  8
回91-枠英2
 10
-6.301010133447333
 20
317.0013073060415
 30
0.0
 40
3.6
  1
1
  0
TEXT
  5
3E6
  8
回91-枠英2
 10
370.4350109632593
 20
24.63337093500014
 30
0.0
 40
5.0
  1
AST-070A080A
 72
     1
 11
393.4350109632593
 21
24.63337093500014
 31
0.0
  0
TEXT
  5
3E7
  8
回91-枠英2
 10
383.9850109632593
 20
33.08874165913131
 30
0.0
 40
3.0
  1
PART　No.
 72
     1
 11
393.4350109632593
 21
33.08874165913131
 31
0.0
  0
TEXT
  5
3E8
  8
回91-枠英2
 10
405.2914577383464
 20
2.976669553214278
 30
0.0
 40
3.6
  1
G
  0
LINE
  5
3E9
  8
回91-枠英2
 10
363.9350109632593
 20
12.1414887397682
 30
0.0
 11
422.9350109632592
 21
12.1414887397682
 31
0.0
  0
TEXT
  5
3EA
  8
回91-枠英2
 10
370.0350109632594
 20
13.2915194711543
 30
0.0
 40
3.0
  1
STANDARD TOUCHSCREEN
 72
     1
 11
393.4350109632593
 21
13.2915194711543
 31
0.0
  0
TEXT
  5
3EB
  8
回91-枠英2
 10
376.7850109632594
 20
8.291519471154302
 30
0.0
 40
3.0
  1
CIRCUIT　DRAWING
 72
     1
 11
393.4350109632593
 21
8.291519471154302
 31
0.0
  0
LINE
  5
3EC
  8
回91-枠英2
 10
425.9350109632593
 20
37.14148873976821
 30
0.0
 11
425.9350109632593
 21
7.141488739768205
 31
0.0
  0
TEXT
  5
3ED
  8
回91-枠英2
 10
388.6350109632593
 20
17.88510842934353
 30
0.0
 40
3.0
  1
TYPE
 72
     1
 11
393.4350109632593
 21
17.88510842934353
 31
0.0
  0
LINE
  5
3EE
  8
回91-枠英2
 10
374.9350109632593
 20
7.141488739768205
 30
0.0
 11
374.9350109632593
 21
2.641488739768206
 31
0.0
  0
TEXT
  5
3EF
  8
回91-枠英2
 10
342.2914577383465
 20
2.976669553214278
 30
0.0
 40
3.6
  1
F
  0
LINE
  5
3F0
  8
回91-枠英2
 10
360.9350109632594
 20
37.14148873976821
 30
0.0
 11
360.9350109632594
 21
7.141488739768205
 31
0.0
  0
LINE
  5
3F1
  8
回91-枠英2
 10
311.9350109632594
 20
7.141488739768205
 30
0.0
 11
311.9350109632594
 21
2.641488739768206
 31
0.0
  0
TEXT
  5
3F2
  8
回91-枠英2
 10
279.2914577383465
 20
2.976669553214278
 30
0.0
 40
3.6
  1
E
  0
LINE
  5
3F3
  8
回91-枠英2
 10
248.9350109632594
 20
7.141488739768205
 30
0.0
 11
248.9350109632594
 21
2.641488739768206
 31
0.0
  0
TEXT
  5
3F4
  8
回91-枠英2
 10
216.2914577383465
 20
2.976669553214278
 30
0.0
 40
3.6
  1
D
  0
LINE
  5
3F5
  8
回91-枠英2
 10
360.9350109632592
 20
22.14148873976821
 30
0.0
 11
425.9350109632593
 21
22.14148873976821
 31
0.0
  0
LINE
  5
3F6
  8
回91-枠英2
 10
185.9350109632594
 20
7.141488739768205
 30
0.0
 11
185.9350109632594
 21
2.641488739768206
 31
0.0
  0
TEXT
  5
3F7
  8
回91-枠英2
 10
153.2914577383465
 20
2.976669553214278
 30
0.0
 40
3.6
  1
C
  0
LINE
  5
3F8
  8
回91-枠英2
 10
122.9350109632594
 20
7.141488739768205
 30
0.0
 11
122.9350109632594
 21
2.641488739768206
 31
0.0
  0
TEXT
  5
3F9
  8
回91-枠英2
 10
90.29145773834647
 20
2.976669553214278
 30
0.0
 40
3.6
  1
B
  0
TEXT
  5
3FA
  8
回91-枠英2
 10
-6.577291726199517
 20
178.4013073060415
 30
0.0
 40
3.6
  1
3
  0
LINE
  5
3FB
  8
回91-枠英2
 10
-3.064989036740597
 20
145.7414887397682
 30
0.0
 11
-7.564989036740597
 21
145.7414887397682
 31
0.0
  0
TEXT
  5
3FC
  8
回91-枠英2
 10
-6.643074634272578
 20
109.1013073060415
 30
0.0
 40
3.6
  1
4
  0
LINE
  5
3FD
  8
回91-枠英2
 10
59.9350109632594
 20
7.141488739768205
 30
0.0
 11
59.9350109632594
 21
2.641488739768206
 31
0.0
  0
TEXT
  5
3FE
  8
回91-枠英2
 10
27.29145773834648
 20
2.976669553214278
 30
0.0
 40
3.6
  1
A
  0
LINE
  5
3FF
  8
回91-枠英2
 10
-3.064989036740597
 20
76.44148873976814
 30
0.0
 11
-7.564989036740597
 21
76.44148873976814
 31
0.0
  0
TEXT
  5
400
  8
回91-枠英2
 10
-6.643074634272578
 20
39.80130730604152
 30
0.0
 40
3.6
  1
5
  0
LINE
  5
401
  8
回91-枠英2
 10
-7.564989036740597
 20
2.641488739768206
 30
0.0
 11
-7.564989036740597
 21
358.1414887397682
 31
0.0
  0
LINE
  5
402
  8
回91-枠英2
 10
-3.064989036740597
 20
353.6414887397682
 30
0.0
 11
-3.064989036740597
 21
7.141488739768205
 31
0.0
  0
LINE
  5
403
  8
回91-枠英2
 10
-3.064989036740597
 20
7.141488739768205
 30
0.0
 11
500.9350109632593
 21
7.141488739768205
 31
0.0
  0
LINE
  5
404
  8
回91-枠英2
 10
505.4350109632593
 20
2.641488739768206
 30
0.0
 11
-7.564989036740597
 21
2.641488739768206
 31
0.0
  0
LINE
  5
405
  8
回91-枠英2
 10
505.4350109632593
 20
358.1414887397682
 30
0.0
 11
-7.564989036740597
 21
358.1414887397682
 31
0.0
  0
LINE
  5
406
  8
回91-枠英2
 10
-3.064989036740597
 20
353.6414887397682
 30
0.0
 11
500.9350109632593
 21
353.6414887397682
 31
0.0
  0
LINE
  5
407
  8
回91-枠英2
 10
360.9350109632594
 20
17.1414887397682
 30
0.0
 11
500.9350109632593
 21
17.1414887397682
 31
0.0
  0
LINE
  5
408
  8
回91-枠英2
 10
360.9350109632594
 20
37.14148873976821
 30
0.0
 11
500.9350109632593
 21
37.14148873976821
 31
0.0
  0
LINE
  5
409
  8
回91-枠英2
 10
360.9350109632594
 20
32.14148873976821
 30
0.0
 11
500.9350109632593
 21
32.14148873976821
 31
0.0
  0
ENDSEC
  0
EOF
