  0
SECTION
  2
HEADER
  9
$ACADVER
  1
AC1009
  9
$INSBASE
 10
0.0
 20
0.0
 30
0.0
  9
$EXTMIN
 10
163.6069143460872
 20
-188.6180785225761
 30
0.0
  9
$EXTMAX
 10
585.1869143460873
 20
113.1219214774239
 30
0.0
  9
$LIMMIN
 10
0.0
 20
0.0
  9
$LIMMAX
 10
3000.0
 20
2500.0
  9
$ORTHOMODE
 70
     0
  9
$REGENMODE
 70
     1
  9
$FILLMODE
 70
     1
  9
$QTEXTMODE
 70
     0
  9
$MIRRTEXT
 70
     1
  9
$DRAGMODE
 70
     2
  9
$LTSCALE
 40
1.0
  9
$OSMODE
 70
    37
  9
$ATTMODE
 70
     1
  9
$TEXTSIZE
 40
3.0
  9
$TRACEWID
 40
1.0
  9
$TEXTSTYLE
  7
STANDARD
  9
$CLAYER
  8
0
  9
$CELTYPE
  6
CONTINUOUS
  9
$CECOLOR
 62
     1
  9
$DIMSCALE
 40
1.0
  9
$DIMASZ
 40
2.0
  9
$DIMEXO
 40
0.0
  9
$DIMDLI
 40
0.0
  9
$DIMRND
 40
0.0
  9
$DIMDLE
 40
0.0
  9
$DIMEXE
 40
1.0
  9
$DIMTP
 40
0.0
  9
$DIMTM
 40
0.0
  9
$DIMTXT
 40
3.0
  9
$DIMCEN
 40
2.0
  9
$DIMTSZ
 40
0.0
  9
$DIMTOL
 70
     0
  9
$DIMLIM
 70
     0
  9
$DIMTIH
 70
     0
  9
$DIMTOH
 70
     0
  9
$DIMSE1
 70
     0
  9
$DIMSE2
 70
     0
  9
$DIMTAD
 70
     3
  9
$DIMZIN
 70
     8
  9
$DIMBLK
  1
OPEN
  9
$DIMASO
 70
     1
  9
$DIMSHO
 70
     1
  9
$DIMPOST
  1

  9
$DIMAPOST
  1

  9
$DIMALT
 70
     1
  9
$DIMALTD
 70
     3
  9
$DIMALTF
 40
0.03937007874016
  9
$DIMLFAC
 40
1.0
  9
$DIMTOFL
 70
     1
  9
$DIMTVP
 40
0.0
  9
$DIMTIX
 70
     0
  9
$DIMSOXD
 70
     0
  9
$DIMSAH
 70
     0
  9
$DIMBLK1
  1

  9
$DIMBLK2
  1

  9
$DIMSTYLE
  2
DMC
  9
$DIMCLRD
 70
     5
  9
$DIMCLRE
 70
     5
  9
$DIMCLRT
 70
     5
  9
$DIMTFAC
 40
0.7
  9
$DIMGAP
 40
0.5
  9
$LUNITS
 70
     2
  9
$LUPREC
 70
     4
  9
$SKETCHINC
 40
1.0
  9
$FILLETRAD
 40
0.5
  9
$AUNITS
 70
     0
  9
$AUPREC
 70
     0
  9
$MENU
  1
.
  9
$ELEVATION
 40
0.0
  9
$PELEVATION
 40
0.0
  9
$THICKNESS
 40
0.0
  9
$LIMCHECK
 70
     0
  9
$BLIPMODE
 70
     0
  9
$CHAMFERA
 40
10.0
  9
$CHAMFERB
 40
10.0
  9
$SKPOLY
 70
     0
  9
$TDCREATE
 40
2451810.404221065
  9
$TDUPDATE
 40
2460221.413524930
  9
$TDINDWG
 40
1.668570984
  9
$TDUSRTIMER
 40
1.668569340
  9
$USRTIMER
 70
     1
  9
$ANGBASE
 50
0.0
  9
$ANGDIR
 70
     0
  9
$PDMODE
 70
     0
  9
$PDSIZE
 40
0.0
  9
$PLINEWID
 40
0.2
  9
$COORDS
 70
     0
  9
$SPLFRAME
 70
     0
  9
$SPLINETYPE
 70
     6
  9
$SPLINESEGS
 70
     8
  9
$ATTDIA
 70
     1
  9
$ATTREQ
 70
     1
  9
$HANDLING
 70
     1
  9
$HANDSEED
  5
65B
  9
$SURFTAB1
 70
     6
  9
$SURFTAB2
 70
     6
  9
$SURFTYPE
 70
     6
  9
$SURFU
 70
     6
  9
$SURFV
 70
     6
  9
$UCSNAME
  2

  9
$UCSORG
 10
0.0
 20
0.0
 30
0.0
  9
$UCSXDIR
 10
1.0
 20
0.0
 30
0.0
  9
$UCSYDIR
 10
0.0
 20
1.0
 30
0.0
  9
$PUCSNAME
  2

  9
$PUCSORG
 10
0.0
 20
0.0
 30
0.0
  9
$PUCSXDIR
 10
1.0
 20
0.0
 30
0.0
  9
$PUCSYDIR
 10
0.0
 20
1.0
 30
0.0
  9
$USERI1
 70
     0
  9
$USERI2
 70
     0
  9
$USERI3
 70
     0
  9
$USERI4
 70
     0
  9
$USERI5
 70
     0
  9
$USERR1
 40
0.0
  9
$USERR2
 40
0.0
  9
$USERR3
 40
0.0
  9
$USERR4
 40
0.0
  9
$USERR5
 40
0.0
  9
$WORLDVIEW
 70
     1
  9
$SHADEDGE
 70
     3
  9
$SHADEDIF
 70
    70
  9
$TILEMODE
 70
     1
  9
$MAXACTVP
 70
    64
  9
$PLIMCHECK
 70
     0
  9
$PEXTMIN
 10
1.000000000000000E+20
 20
1.000000000000000E+20
 30
1.000000000000000E+20
  9
$PEXTMAX
 10
-1.000000000000000E+20
 20
-1.000000000000000E+20
 30
-1.000000000000000E+20
  9
$PLIMMIN
 10
0.0
 20
0.0
  9
$PLIMMAX
 10
420.0
 20
297.0
  9
$UNITMODE
 70
     0
  9
$VISRETAIN
 70
     1
  9
$PLINEGEN
 70
     0
  9
$PSLTSCALE
 70
     1
  0
ENDSEC
  0
SECTION
  2
TABLES
  0
TABLE
  2
VPORT
 70
     1
  0
VPORT
  2
*ACTIVE
 70
     0
 10
0.0
 20
0.0
 11
1.0
 21
1.0
 12
390.3322200450494
 22
-55.09795395668311
 13
0.0
 23
0.0
 14
10.0
 24
10.0
 15
10.0
 25
10.0
 16
0.0
 26
0.0
 36
1.0
 17
0.0
 27
0.0
 37
0.0
 40
774.1074207910298
 41
1.002570694087403
 42
50.0
 43
0.0
 44
0.0
 50
0.0
 51
0.0
 71
     0
 72
   500
 73
     1
 74
     1
 75
     0
 76
     0
 77
     0
 78
     0
  0
ENDTAB
  0
TABLE
  2
LTYPE
 70
     4
  0
LTYPE
  2
CONTINUOUS
 70
     0
  3
Solid line
 72
    65
 73
     0
 40
0.0
  0
LTYPE
  2
CENTER2
 70
     0
  3
Center (.5x) ___ _ ___ _ ___ _ ___ _ ___ _ ___
 72
    65
 73
     4
 40
28.575
 49
19.05
 49
-3.174999999999998
 49
3.174999999999998
 49
-3.174999999999998
  0
LTYPE
  2
DASHED2
 70
     0
  3
Dashed (.5x) _ _ _ _ _ _ _ _ _ _ _ _ _ _ _ _ _
 72
    65
 73
     2
 40
9.524999999999996
 49
6.349999999999998
 49
-3.174999999999998
  0
LTYPE
  2
PHANTOM
 70
     0
  3
Phantom ______  __  __  ______  __  __  ______
 72
    65
 73
     6
 40
63.5
 49
31.75
 49
-6.349999999999998
 49
6.349999999999998
 49
-6.349999999999998
 49
6.349999999999998
 49
-6.349999999999998
  0
ENDTAB
  0
TABLE
  2
LAYER
 70
    10
  0
LAYER
  2
0
 70
     0
 62
     7
  6
CONTINUOUS
  0
LAYER
  2
DEFPOINTS
 70
     0
 62
     7
  6
CONTINUOUS
  0
LAYER
  2
回02-上接
 70
     0
 62
     7
  6
CONTINUOUS
  0
LAYER
  2
回04-下接
 70
     0
 62
     7
  6
CONTINUOUS
  0
LAYER
  2
回90-枠3
 70
     0
 62
     7
  6
CONTINUOUS
  0
LAYER
  2
回08-記事
 70
     0
 62
     7
  6
CONTINUOUS
  0
LAYER
  2
回07-寸法
 70
     0
 62
     7
  6
CONTINUOUS
  0
LAYER
  2
回05-ﾃｰﾙ
 70
     0
 62
     7
  6
CONTINUOUS
  0
LAYER
  2
回91-枠英3
 70
     0
 62
     7
  6
CONTINUOUS
  0
LAYER
  2
回03-記事
 70
     0
 62
     7
  6
CONTINUOUS
  0
ENDTAB
  0
TABLE
  2
STYLE
 70
     2
  0
STYLE
  2
STANDARD
 70
     0
 40
3.0
 41
1.0
 50
0.0
 71
     0
 42
3.0
  3
isocp.shx
  4
bigfont.shx
  0
STYLE
  2
ANNOTATIVE
 70
     0
 40
0.0
 41
1.0
 50
0.0
 71
     0
 42
0.2
  3
txt.shx
  4

  0
ENDTAB
  0
TABLE
  2
VIEW
 70
     0
  0
ENDTAB
  0
TABLE
  2
UCS
 70
     0
  0
ENDTAB
  0
TABLE
  2
APPID
 70
     6
  0
APPID
  2
ACAD
 70
     0
  0
APPID
  2
ACADANNOTATIVE
 70
     0
  0
APPID
  2
ACAD_DSTYLE_DIMJAG
 70
     0
  0
APPID
  2
ACAD_DSTYLE_DIMTALN
 70
     0
  0
APPID
  2
ACAD_NAV_VCDISPLAY
 70
     0
  0
APPID
  2
ACAD_MLEADERVER
 70
     0
  0
ENDTAB
  0
TABLE
  2
DIMSTYLE
 70
     2
  0
DIMSTYLE
  2
DMC
 70
     0
  3

  4

  5
OPEN
  6

  7

 40
1.0
 41
2.0
 42
0.0
 43
0.0
 44
1.0
 45
0.0
 46
0.0
 47
0.0
 48
0.0
140
3.0
141
2.0
142
0.0
143
0.03937007874016
144
1.0
145
0.0
146
0.7
147
0.5
 71
     0
 72
     0
 73
     0
 74
     0
 75
     0
 76
     0
 77
     3
 78
     8
170
     1
171
     3
172
     1
173
     0
174
     0
175
     0
176
     5
177
     5
178
     5
  0
DIMSTYLE
  2
KOUSA
 70
     0
  3

  4

  5

  6
OPEN
  7
OPEN
 40
1.0
 41
2.0
 42
0.0
 43
0.0
 44
1.0
 45
0.0
 46
0.0
 47
0.1
 48
0.1
140
3.0
141
2.0
142
0.0
143
25.4
144
1.0
145
0.0
146
0.7
147
0.5
 71
     1
 72
     0
 73
     0
 74
     0
 75
     0
 76
     0
 77
     3
 78
     8
170
     0
171
     2
172
     1
173
     1
174
     0
175
     0
176
     5
177
     5
178
     5
  0
ENDTAB
  0
ENDSEC
  0
SECTION
  2
BLOCKS
  0
BLOCK
  8
0
  2
$MODEL_SPACE
 70
     0
 10
0.0
 20
0.0
 30
0.0
  3
$MODEL_SPACE
  1

  0
ENDBLK
  8
0
  5
1F
  0
BLOCK
 67
     1
  8
0
  2
$PAPER_SPACE
 70
     0
 10
0.0
 20
0.0
 30
0.0
  3
$PAPER_SPACE
  1

  0
ENDBLK
  5
24
 67
     1
  8
0
  0
BLOCK
  8
0
  2
_OPEN
 70
     0
 10
0.0
 20
0.0
 30
0.0
  3
_OPEN
  1

  0
LINE
  5
4D7
  8
0
  6
BYBLOCK
 62
     0
 10
-1.0
 20
0.166667
 30
0.0
 11
0.0
 21
0.0
 31
0.0
  0
LINE
  5
4D8
  8
0
  6
BYBLOCK
 62
     0
 10
-1.0
 20
-0.166667
 30
0.0
 11
0.0
 21
0.0
 31
0.0
  0
LINE
  5
4D9
  8
0
  6
BYBLOCK
 62
     0
 10
0.0
 20
0.0
 30
0.0
 11
-1.0
 21
0.0
 31
0.0
  0
LINE
  5
11
  8
0
  6
CONTINUOUS
 62
     0
 10
-1.0
 20
0.1666666666666666
 30
0.0
 11
0.0
 21
0.0
 31
0.0
  0
LINE
  5
12
  8
0
  6
CONTINUOUS
 62
     0
 10
-1.0
 20
-0.1666666666666666
 30
0.0
 11
0.0
 21
0.0
 31
0.0
  0
LINE
  5
13
  8
0
  6
CONTINUOUS
 62
     0
 10
0.0
 20
0.0
 30
0.0
 11
-1.0
 21
0.0
 31
0.0
  0
ENDBLK
  5
14
  8
0
  0
BLOCK
  8
0
  2
*D11
 70
     1
 10
0.0
 20
0.0
 30
0.0
  3
*D11
  1

  0
LINE
  5
15C
  8
回07-寸法
  6
CONTINUOUS
 62
     5
 10
380.1787793448704
 20
-112.449878056996
 30
0.0
 11
387.0807913945057
 21
-112.449878056996
 31
0.0
  0
LINE
  5
15D
  8
回07-寸法
  6
CONTINUOUS
 62
     5
 10
380.1787793448704
 20
-105.349878056996
 30
0.0
 11
387.0807913945057
 21
-105.349878056996
 31
0.0
  0
LINE
  5
15E
  8
回07-寸法
  6
CONTINUOUS
 62
     5
 10
386.0807913945057
 20
-103.349878056996
 30
0.0
 11
386.0807913945057
 21
-101.349878056996
 31
0.0
  0
LINE
  5
15F
  8
回07-寸法
  6
CONTINUOUS
 62
     5
 10
386.0807913945057
 20
-114.449878056996
 30
0.0
 11
386.0807913945057
 21
-136.9475158522716
 31
0.0
  0
LINE
  5
160
  8
回07-寸法
  6
CONTINUOUS
 62
     5
 10
386.0807913945057
 20
-105.349878056996
 30
0.0
 11
386.0807913945057
 21
-112.449878056996
 31
0.0
  0
INSERT
  5
161
  8
回07-寸法
  6
CONTINUOUS
 62
     5
  2
_OPEN
 10
386.0807913945057
 20
-105.349878056996
 30
0.0
 41
2.0
 42
2.0
 43
2.0
 50
270.0
  0
INSERT
  5
162
  8
回07-寸法
  6
CONTINUOUS
 62
     5
  2
_OPEN
 10
386.0807913945057
 20
-112.449878056996
 30
0.0
 41
2.0
 42
2.0
 43
2.0
 50
90.0
  0
TEXT
  5
163
  8
回07-寸法
  6
CONTINUOUS
 62
     5
 10
385.4307913945056
 20
-136.8986969546339
 30
0.0
 40
3.0
  1
(7.1 [0.280])
 50
90.0
1001
ACAD
1000
MTEXTBEGIN
1070
    73
1070
     1
1070
    44
1040
1.0
1070
    74
1070
     0
1000
MTEXTEND
  0
POINT
  5
164
  8
DEFPOINTS
  6
CONTINUOUS
 62
     0
 10
380.1787793448704
 20
-112.449878056996
 30
0.0
  0
POINT
  5
165
  8
DEFPOINTS
  6
CONTINUOUS
 62
     0
 10
380.1787793448704
 20
-105.349878056996
 30
0.0
  0
POINT
  5
166
  8
DEFPOINTS
  6
CONTINUOUS
 62
     0
 10
386.0807913945057
 20
-105.349878056996
 30
0.0
  0
ENDBLK
  5
167
  8
0
 62
     6
  0
BLOCK
  8
0
  2
*D22
 70
     1
 10
0.0
 20
0.0
 30
0.0
  3
*D22
  1

  0
LINE
  5
14D
  8
回07-寸法
  6
CONTINUOUS
 62
     5
 10
379.8787793448704
 20
-105.349878056996
 30
0.0
 11
389.9180349316343
 21
-105.349878056996
 31
0.0
  0
LINE
  5
14E
  8
回07-寸法
  6
CONTINUOUS
 62
     5
 10
379.8787793448704
 20
-103.349878056996
 30
0.0
 11
389.9180349316343
 21
-103.349878056996
 31
0.0
  0
LINE
  5
14F
  8
回07-寸法
  6
CONTINUOUS
 62
     5
 10
388.9180349316344
 20
-107.349878056996
 30
0.0
 11
388.9180349316344
 21
-109.349878056996
 31
0.0
  0
LINE
  5
150
  8
回07-寸法
  6
CONTINUOUS
 62
     5
 10
388.9180349316344
 20
-101.349878056996
 30
0.0
 11
388.9180349316344
 21
-81.24175727023761
 31
0.0
  0
LINE
  5
151
  8
回07-寸法
  6
CONTINUOUS
 62
     5
 10
388.9180349316344
 20
-105.349878056996
 30
0.0
 11
388.9180349316344
 21
-103.349878056996
 31
0.0
  0
INSERT
  5
152
  8
回07-寸法
  6
CONTINUOUS
 62
     5
  2
_OPEN
 10
388.9180349316344
 20
-105.349878056996
 30
0.0
 41
2.0
 42
2.0
 43
2.0
 50
90.0
  0
INSERT
  5
153
  8
回07-寸法
  6
CONTINUOUS
 62
     5
  2
_OPEN
 10
388.9180349316344
 20
-103.349878056996
 30
0.0
 41
2.0
 42
2.0
 43
2.0
 50
270.0
  0
TEXT
  5
154
  8
回07-寸法
  6
CONTINUOUS
 62
     5
 10
388.2680948377366
 20
-99.30123321640742
 30
0.0
 40
3.0
  1
(2 [0.079])
 50
90.0
1001
ACAD
1000
MTEXTBEGIN
1070
    73
1070
     1
1070
    44
1040
1.0
1070
    74
1070
     0
1000
MTEXTEND
  0
POINT
  5
155
  8
DEFPOINTS
  6
CONTINUOUS
 62
     0
 10
379.8787793448704
 20
-105.349878056996
 30
0.0
  0
POINT
  5
156
  8
DEFPOINTS
  6
CONTINUOUS
 62
     0
 10
379.8787793448704
 20
-103.349878056996
 30
0.0
  0
POINT
  5
157
  8
DEFPOINTS
  6
CONTINUOUS
 62
     0
 10
388.9180349316344
 20
-103.349878056996
 30
0.0
  0
ENDBLK
  5
158
  8
0
 62
     6
  0
BLOCK
  8
0
  2
*D33
 70
     1
 10
0.0
 20
0.0
 30
0.0
  3
*D33
  1

  0
LINE
  5
135
  8
回07-寸法
  6
CONTINUOUS
 62
     5
 10
281.0663165520635
 20
19.55012194300401
 30
0.0
 11
284.4919463903823
 21
19.55012194300401
 31
0.0
  0
LINE
  5
136
  8
回07-寸法
  6
CONTINUOUS
 62
     5
 10
277.1775763105985
 20
23.94205185137003
 30
0.0
 11
284.4919463903823
 21
23.94205185137003
 31
0.0
  0
LINE
  5
137
  8
回07-寸法
  6
CONTINUOUS
 62
     5
 10
283.4919463903823
 20
17.55012194300401
 30
0.0
 11
283.4919463903823
 21
15.550121943004
 31
0.0
  0
LINE
  5
138
  8
回07-寸法
  6
CONTINUOUS
 62
     5
 10
283.4919463903823
 20
25.94205185137004
 30
0.0
 11
283.4919463903823
 21
51.95050185456532
 31
0.0
  0
LINE
  5
139
  8
回07-寸法
  6
CONTINUOUS
 62
     5
 10
283.4919463903823
 20
19.55012194300401
 30
0.0
 11
283.4919463903823
 21
23.94205185137003
 31
0.0
  0
INSERT
  5
13A
  8
回07-寸法
  6
CONTINUOUS
 62
     5
  2
_OPEN
 10
283.4919463903823
 20
19.55012194300401
 30
0.0
 41
2.0
 42
2.0
 43
2.0
 50
90.0
  0
INSERT
  5
13B
  8
回07-寸法
  6
CONTINUOUS
 62
     5
  2
_OPEN
 10
283.4919463903823
 20
23.94205185137003
 30
0.0
 41
2.0
 42
2.0
 43
2.0
 50
270.0
  0
TEXT
  5
13C
  8
回07-寸法
  6
CONTINUOUS
 62
     5
 10
282.8419463903823
 20
31.48984480603338
 30
0.0
 40
3.0
  1
4.39 [0.173]
 50
90.0
1001
ACAD
1000
MTEXTBEGIN
1070
    73
1070
     1
1070
    44
1040
1.0
1070
    74
1070
     0
1000
MTEXTEND
  0
POINT
  5
13D
  8
DEFPOINTS
  6
CONTINUOUS
 62
     0
 10
281.0663165520635
 20
19.55012194300401
 30
0.0
  0
POINT
  5
13E
  8
DEFPOINTS
  6
CONTINUOUS
 62
     0
 10
277.1775763105985
 20
23.94205185137003
 30
0.0
  0
POINT
  5
13F
  8
DEFPOINTS
  6
CONTINUOUS
 62
     0
 10
283.4919463903823
 20
23.94205185137003
 30
0.0
  0
ENDBLK
  5
140
  8
0
 62
     6
  0
BLOCK
  8
0
  2
*D44
 70
     1
 10
0.0
 20
0.0
 30
0.0
  3
*D44
  1

  0
LINE
  5
287
  8
回07-寸法
  6
CONTINUOUS
 62
     5
 10
428.4969460129491
 20
-112.1507033710312
 30
0.0
 11
428.4969460129491
 21
-121.7872896882613
 31
0.0
  0
LINE
  5
288
  8
回07-寸法
  6
CONTINUOUS
 62
     5
 10
433.4969460129491
 20
-112.4507033710313
 30
0.0
 11
433.4969460129491
 21
-121.7872896882613
 31
0.0
  0
LINE
  5
289
  8
回07-寸法
  6
CONTINUOUS
 62
     5
 10
426.4969460129491
 20
-120.7872896882613
 30
0.0
 11
424.4969460129491
 21
-120.7872896882613
 31
0.0
  0
LINE
  5
28A
  8
回07-寸法
  6
CONTINUOUS
 62
     5
 10
435.4969460129491
 20
-120.7872896882613
 30
0.0
 11
466.4972240129491
 21
-120.7872896882613
 31
0.0
  0
LINE
  5
28B
  8
回07-寸法
  6
CONTINUOUS
 62
     5
 10
428.4969460129491
 20
-120.7872896882613
 30
0.0
 11
433.4969460129491
 21
-120.7872896882613
 31
0.0
  0
INSERT
  5
28C
  8
回07-寸法
  6
CONTINUOUS
 62
     5
  2
_OPEN
 10
428.4969460129491
 20
-120.7872896882613
 30
0.0
 41
2.0
 42
2.0
 43
2.0
  0
INSERT
  5
28D
  8
回07-寸法
  6
CONTINUOUS
 62
     5
  2
_OPEN
 10
433.4969460129491
 20
-120.7872896882613
 30
0.0
 41
2.0
 42
2.0
 43
2.0
 50
180.0
  0
INSERT
  5
28E
  8
回07-寸法
  6
CONTINUOUS
 62
     5
 66
     1
  2
*X4747
 10
0.0
 20
0.0
 30
0.0
  0
SEQEND
  5
412
  8
0
  6
CONTINUOUS
 62
     1
  0
POINT
  5
28F
  8
DEFPOINTS
  6
CONTINUOUS
 62
     0
 10
428.4969460129491
 20
-112.1507033710312
 30
0.0
  0
POINT
  5
290
  8
DEFPOINTS
  6
CONTINUOUS
 62
     0
 10
433.4969460129491
 20
-112.4507033710313
 30
0.0
  0
POINT
  5
291
  8
DEFPOINTS
  6
CONTINUOUS
 62
     0
 10
433.4969460129491
 20
-120.7872896882613
 30
0.0
  0
ENDBLK
  5
292
  8
0
 62
     6
  0
BLOCK
  8
0
  2
*D55
 70
     1
 10
0.0
 20
0.0
 30
0.0
  3
*D55
  1

  0
LINE
  5
278
  8
回07-寸法
  6
CONTINUOUS
 62
     5
 10
432.1969460129492
 20
89.54929662896885
 30
0.0
 11
445.0760163428196
 21
89.54929662896885
 31
0.0
  0
LINE
  5
279
  8
回07-寸法
  6
CONTINUOUS
 62
     5
 10
432.1969460129492
 20
79.54929662896883
 30
0.0
 11
445.0760163428196
 21
79.54929662896883
 31
0.0
  0
LINE
  5
27A
  8
回07-寸法
  6
CONTINUOUS
 62
     5
 10
444.0760163428195
 20
91.54929662896885
 30
0.0
 11
444.0760163428195
 21
93.54929662896884
 31
0.0
  0
LINE
  5
27B
  8
回07-寸法
  6
CONTINUOUS
 62
     5
 10
444.0760163428195
 20
77.54929662896883
 30
0.0
 11
444.0760163428195
 21
51.58632569282922
 31
0.0
  0
LINE
  5
27C
  8
回07-寸法
  6
CONTINUOUS
 62
     5
 10
444.0760163428195
 20
89.54929662896885
 30
0.0
 11
444.0760163428195
 21
79.54929662896883
 31
0.0
  0
INSERT
  5
27D
  8
回07-寸法
  6
CONTINUOUS
 62
     5
  2
_OPEN
 10
444.0760163428195
 20
89.54929662896885
 30
0.0
 41
2.0
 42
2.0
 43
2.0
 50
270.0
  0
INSERT
  5
27E
  8
回07-寸法
  6
CONTINUOUS
 62
     5
  2
_OPEN
 10
444.0760163428195
 20
79.54929662896883
 30
0.0
 41
2.0
 42
2.0
 43
2.0
 50
90.0
  0
TEXT
  5
27F
  8
回07-寸法
  6
CONTINUOUS
 62
     5
 10
443.4260762489216
 20
51.6349705334178
 30
0.0
 40
3.0
  1
(10 [0.394])
 50
90.0
1001
ACAD
1000
MTEXTBEGIN
1070
    73
1070
     1
1070
    44
1040
1.0
1070
    74
1070
     0
1000
MTEXTEND
  0
POINT
  5
280
  8
DEFPOINTS
  6
CONTINUOUS
 62
     0
 10
432.1969460129492
 20
89.54929662896885
 30
0.0
  0
POINT
  5
281
  8
DEFPOINTS
  6
CONTINUOUS
 62
     0
 10
432.1969460129492
 20
79.54929662896883
 30
0.0
  0
POINT
  5
282
  8
DEFPOINTS
  6
CONTINUOUS
 62
     0
 10
444.0760163428195
 20
79.54929662896883
 30
0.0
  0
ENDBLK
  5
283
  8
0
 62
     6
  0
BLOCK
  8
0
  2
*D66
 70
     1
 10
0.0
 20
0.0
 30
0.0
  3
*D66
  1

  0
LINE
  5
269
  8
回07-寸法
  6
CONTINUOUS
 62
     5
 10
429.4969460129492
 20
84.54929662896883
 30
0.0
 11
424.6511497776614
 21
84.54929662896883
 31
0.0
  0
LINE
  5
26A
  8
回07-寸法
  6
CONTINUOUS
 62
     5
 10
429.9969460129493
 20
89.54929662896885
 30
0.0
 11
424.6511497776614
 21
89.54929662896885
 31
0.0
  0
LINE
  5
26B
  8
回07-寸法
  6
CONTINUOUS
 62
     5
 10
425.6511497776615
 20
91.54929662896885
 30
0.0
 11
425.6511497776615
 21
93.54929662896884
 31
0.0
  0
LINE
  5
26C
  8
回07-寸法
  6
CONTINUOUS
 62
     5
 10
425.6511497776615
 20
82.54929662896882
 30
0.0
 11
425.6511497776615
 21
60.18514459046702
 31
0.0
  0
LINE
  5
26D
  8
回07-寸法
  6
CONTINUOUS
 62
     5
 10
425.6511497776615
 20
89.54929662896885
 30
0.0
 11
425.6511497776615
 21
84.54929662896883
 31
0.0
  0
INSERT
  5
26E
  8
回07-寸法
  6
CONTINUOUS
 62
     5
  2
_OPEN
 10
425.6511497776615
 20
89.54929662896885
 30
0.0
 41
2.0
 42
2.0
 43
2.0
 50
270.0
  0
INSERT
  5
26F
  8
回07-寸法
  6
CONTINUOUS
 62
     5
  2
_OPEN
 10
425.6511497776615
 20
84.54929662896883
 30
0.0
 41
2.0
 42
2.0
 43
2.0
 50
90.0
  0
TEXT
  5
270
  8
回07-寸法
  6
CONTINUOUS
 62
     5
 10
425.0012096837636
 20
60.23497053341781
 30
0.0
 40
3.0
  1
5 [0.197]
 50
90.0
1001
ACAD
1000
MTEXTBEGIN
1070
    73
1070
     1
1070
    44
1040
1.0
1070
    74
1070
     0
1000
MTEXTEND
  0
POINT
  5
271
  8
DEFPOINTS
  6
CONTINUOUS
 62
     0
 10
429.4969460129492
 20
84.54929662896883
 30
0.0
  0
POINT
  5
272
  8
DEFPOINTS
  6
CONTINUOUS
 62
     0
 10
429.9969460129493
 20
89.54929662896885
 30
0.0
  0
POINT
  5
273
  8
DEFPOINTS
  6
CONTINUOUS
 62
     0
 10
425.6511497776615
 20
89.54929662896885
 30
0.0
  0
ENDBLK
  5
274
  8
0
 62
     6
  0
BLOCK
  8
0
  2
*D77
 70
     1
 10
0.0
 20
0.0
 30
0.0
  3
*D77
  1

  0
LINE
  5
25A
  8
回07-寸法
  6
CONTINUOUS
 62
     5
 10
429.9969460129491
 20
89.5492966289688
 30
0.0
 11
429.9969460129491
 21
97.6736696483756
 31
0.0
  0
LINE
  5
25B
  8
回07-寸法
  6
CONTINUOUS
 62
     5
 10
432.1969460129491
 20
89.5492966289688
 30
0.0
 11
432.1969460129491
 21
97.6736696483756
 31
0.0
  0
LINE
  5
25C
  8
回07-寸法
  6
CONTINUOUS
 62
     5
 10
427.9969460129491
 20
96.67366964837562
 30
0.0
 11
425.9969460129491
 21
96.67366964837562
 31
0.0
  0
LINE
  5
25D
  8
回07-寸法
  6
CONTINUOUS
 62
     5
 10
434.1969460129489
 20
96.67366964837562
 30
0.0
 11
466.2996562176735
 21
96.67366964837562
 31
0.0
  0
LINE
  5
25E
  8
回07-寸法
  6
CONTINUOUS
 62
     5
 10
429.9969460129491
 20
96.67366964837562
 30
0.0
 11
432.1969460129491
 21
96.67366964837562
 31
0.0
  0
INSERT
  5
25F
  8
回07-寸法
  6
CONTINUOUS
 62
     5
  2
_OPEN
 10
429.9969460129491
 20
96.67366964837562
 30
0.0
 41
2.0
 42
2.0
 43
2.0
  0
INSERT
  5
260
  8
回07-寸法
  6
CONTINUOUS
 62
     5
  2
_OPEN
 10
432.1969460129491
 20
96.67366964837562
 30
0.0
 41
2.0
 42
2.0
 43
2.0
 50
180.0
  0
INSERT
  5
261
  8
回07-寸法
  6
CONTINUOUS
 62
     5
 66
     1
  2
*X4848
 10
0.0
 20
0.0
 30
0.0
  0
SEQEND
  5
41B
  8
0
  6
CONTINUOUS
 62
     1
  0
POINT
  5
262
  8
DEFPOINTS
  6
CONTINUOUS
 62
     0
 10
429.9969460129491
 20
89.5492966289688
 30
0.0
  0
POINT
  5
263
  8
DEFPOINTS
  6
CONTINUOUS
 62
     0
 10
432.1969460129491
 20
89.5492966289688
 30
0.0
  0
POINT
  5
264
  8
DEFPOINTS
  6
CONTINUOUS
 62
     0
 10
432.1969460129491
 20
96.67366964837562
 30
0.0
  0
ENDBLK
  5
265
  8
0
 62
     6
  0
BLOCK
  8
0
  2
*D88
 70
     1
 10
0.0
 20
0.0
 30
0.0
  3
*D88
  1

  0
LINE
  5
23C
  8
回07-寸法
  6
CONTINUOUS
 62
     5
 10
219.2787793448701
 20
-104.349878056996
 30
0.0
 11
219.2787793448701
 21
-140.4094551927036
 31
0.0
  0
LINE
  5
23D
  8
回07-寸法
  6
CONTINUOUS
 62
     5
 10
212.1787793448702
 20
-112.449878056996
 30
0.0
 11
212.1787793448702
 21
-140.4094551927036
 31
0.0
  0
LINE
  5
23E
  8
回07-寸法
  6
CONTINUOUS
 62
     5
 10
221.2787793448701
 20
-139.4094551927036
 30
0.0
 11
223.2787793448701
 21
-139.4094551927036
 31
0.0
  0
LINE
  5
23F
  8
回07-寸法
  6
CONTINUOUS
 62
     5
 10
210.1787793448702
 20
-139.4094551927036
 30
0.0
 11
190.0787793448701
 21
-139.4094551927036
 31
0.0
  0
LINE
  5
240
  8
回07-寸法
  6
CONTINUOUS
 62
     5
 10
219.2787793448701
 20
-139.4094551927036
 30
0.0
 11
212.1787793448702
 21
-139.4094551927036
 31
0.0
  0
INSERT
  5
241
  8
回07-寸法
  6
CONTINUOUS
 62
     5
  2
_OPEN
 10
219.2787793448701
 20
-139.4094551927036
 30
0.0
 41
2.0
 42
2.0
 43
2.0
 50
180.0
  0
INSERT
  5
242
  8
回07-寸法
  6
CONTINUOUS
 62
     5
  2
_OPEN
 10
212.1787793448702
 20
-139.4094551927036
 30
0.0
 41
2.0
 42
2.0
 43
2.0
  0
TEXT
  5
243
  8
回07-寸法
  6
CONTINUOUS
 62
     5
 10
190.1287793448702
 20
-138.7594551927036
 30
0.0
 40
3.0
  1
7.1 [0.280]
1001
ACAD
1000
MTEXTBEGIN
1070
    73
1070
     1
1070
    44
1040
1.0
1070
    74
1070
     0
1000
MTEXTEND
  0
POINT
  5
244
  8
DEFPOINTS
  6
CONTINUOUS
 62
     0
 10
219.2787793448701
 20
-104.349878056996
 30
0.0
  0
POINT
  5
245
  8
DEFPOINTS
  6
CONTINUOUS
 62
     0
 10
212.1787793448702
 20
-112.449878056996
 30
0.0
  0
POINT
  5
246
  8
DEFPOINTS
  6
CONTINUOUS
 62
     0
 10
212.1787793448702
 20
-139.4094551927036
 30
0.0
  0
ENDBLK
  5
247
  8
0
 62
     6
  0
BLOCK
  8
0
  2
*D99
 70
     1
 10
0.0
 20
0.0
 30
0.0
  3
*D99
  1

  0
LINE
  5
22D
  8
回07-寸法
  6
CONTINUOUS
 62
     5
 10
218.2787793448701
 20
-105.349878056996
 30
0.0
 11
218.2787793448701
 21
-145.1842196751898
 31
0.0
  0
LINE
  5
22E
  8
回07-寸法
  6
CONTINUOUS
 62
     5
 10
212.1787793448702
 20
-112.449878056996
 30
0.0
 11
212.1787793448702
 21
-145.1842196751898
 31
0.0
  0
LINE
  5
22F
  8
回07-寸法
  6
CONTINUOUS
 62
     5
 10
220.2787793448701
 20
-144.1842196751898
 30
0.0
 11
222.2787793448701
 21
-144.1842196751898
 31
0.0
  0
LINE
  5
230
  8
回07-寸法
  6
CONTINUOUS
 62
     5
 10
210.1787793448702
 20
-144.1842196751898
 30
0.0
 11
189.5992517858151
 21
-144.1842196751898
 31
0.0
  0
LINE
  5
231
  8
回07-寸法
  6
CONTINUOUS
 62
     5
 10
218.2787793448701
 20
-144.1842196751898
 30
0.0
 11
212.1787793448702
 21
-144.1842196751898
 31
0.0
  0
INSERT
  5
232
  8
回07-寸法
  6
CONTINUOUS
 62
     5
  2
_OPEN
 10
218.2787793448701
 20
-144.1842196751898
 30
0.0
 41
2.0
 42
2.0
 43
2.0
 50
180.0
  0
INSERT
  5
233
  8
回07-寸法
  6
CONTINUOUS
 62
     5
  2
_OPEN
 10
212.1787793448702
 20
-144.1842196751898
 30
0.0
 41
2.0
 42
2.0
 43
2.0
  0
TEXT
  5
234
  8
回07-寸法
  6
CONTINUOUS
 62
     5
 10
189.7390155653426
 20
-143.5342196751898
 30
0.0
 40
3.0
  1
6.1 [0.240]
1001
ACAD
1000
MTEXTBEGIN
1070
    73
1070
     1
1070
    44
1040
1.0
1070
    74
1070
     0
1000
MTEXTEND
  0
POINT
  5
235
  8
DEFPOINTS
  6
CONTINUOUS
 62
     0
 10
218.2787793448701
 20
-105.349878056996
 30
0.0
  0
POINT
  5
236
  8
DEFPOINTS
  6
CONTINUOUS
 62
     0
 10
212.1787793448702
 20
-112.449878056996
 30
0.0
  0
POINT
  5
237
  8
DEFPOINTS
  6
CONTINUOUS
 62
     0
 10
212.1787793448702
 20
-144.1842196751898
 30
0.0
  0
ENDBLK
  5
238
  8
0
 62
     6
  0
BLOCK
  8
0
  2
*D1010
 70
     1
 10
0.0
 20
0.0
 30
0.0
  3
*D1010
  1

  0
LINE
  5
220
  8
回07-寸法
  6
CONTINUOUS
 62
     5
 10
219.2787793448701
 20
-104.349878056996
 30
0.0
 11
219.2787793448701
 21
-140.4094551927036
 31
0.0
  0
LINE
  5
221
  8
回07-寸法
  6
CONTINUOUS
 62
     5
 10
373.0787793448702
 20
-104.349878056996
 30
0.0
 11
373.0787793448702
 21
-140.4094551927036
 31
0.0
  0
LINE
  5
222
  8
回07-寸法
  6
CONTINUOUS
 62
     5
 10
221.2787793448701
 20
-139.4094551927036
 30
0.0
 11
371.0787793448702
 21
-139.4094551927036
 31
0.0
  0
INSERT
  5
223
  8
回07-寸法
  6
CONTINUOUS
 62
     5
  2
_OPEN
 10
219.2787793448701
 20
-139.4094551927036
 30
0.0
 41
2.0
 42
2.0
 43
2.0
 50
180.0
  0
INSERT
  5
224
  8
回07-寸法
  6
CONTINUOUS
 62
     5
  2
_OPEN
 10
373.0787793448702
 20
-139.4094551927036
 30
0.0
 41
2.0
 42
2.0
 43
2.0
  0
INSERT
  5
225
  8
回07-寸法
  6
CONTINUOUS
 62
     5
 66
     1
  2
*X4949
 10
0.0
 20
0.0
 30
0.0
  0
SEQEND
  5
421
  8
0
  6
CONTINUOUS
 62
     1
  0
POINT
  5
226
  8
DEFPOINTS
  6
CONTINUOUS
 62
     0
 10
219.2787793448701
 20
-104.349878056996
 30
0.0
  0
POINT
  5
227
  8
DEFPOINTS
  6
CONTINUOUS
 62
     0
 10
373.0787793448702
 20
-104.349878056996
 30
0.0
  0
POINT
  5
228
  8
DEFPOINTS
  6
CONTINUOUS
 62
     0
 10
373.0787793448702
 20
-139.4094551927036
 30
0.0
  0
ENDBLK
  5
229
  8
0
 62
     6
  0
BLOCK
  8
0
  2
*D1111
 70
     1
 10
0.0
 20
0.0
 30
0.0
  3
*D1111
  1

  0
LINE
  5
213
  8
回07-寸法
  6
CONTINUOUS
 62
     5
 10
218.2787793448701
 20
-105.349878056996
 30
0.0
 11
218.2787793448701
 21
-145.1842196751898
 31
0.0
  0
LINE
  5
214
  8
回07-寸法
  6
CONTINUOUS
 62
     5
 10
374.0787793448702
 20
-105.349878056996
 30
0.0
 11
374.0787793448702
 21
-145.1842196751898
 31
0.0
  0
LINE
  5
215
  8
回07-寸法
  6
CONTINUOUS
 62
     5
 10
220.2787793448701
 20
-144.1842196751898
 30
0.0
 11
372.0787793448702
 21
-144.1842196751898
 31
0.0
  0
INSERT
  5
216
  8
回07-寸法
  6
CONTINUOUS
 62
     5
  2
_OPEN
 10
218.2787793448701
 20
-144.1842196751898
 30
0.0
 41
2.0
 42
2.0
 43
2.0
 50
180.0
  0
INSERT
  5
217
  8
回07-寸法
  6
CONTINUOUS
 62
     5
  2
_OPEN
 10
374.0787793448702
 20
-144.1842196751898
 30
0.0
 41
2.0
 42
2.0
 43
2.0
  0
INSERT
  5
218
  8
回07-寸法
  6
CONTINUOUS
 62
     5
 66
     1
  2
*X5050
 10
0.0
 20
0.0
 30
0.0
  0
SEQEND
  5
427
  8
0
  6
CONTINUOUS
 62
     1
  0
POINT
  5
219
  8
DEFPOINTS
  6
CONTINUOUS
 62
     0
 10
218.2787793448701
 20
-105.349878056996
 30
0.0
  0
POINT
  5
21A
  8
DEFPOINTS
  6
CONTINUOUS
 62
     0
 10
374.0787793448702
 20
-105.349878056996
 30
0.0
  0
POINT
  5
21B
  8
DEFPOINTS
  6
CONTINUOUS
 62
     0
 10
374.0787793448702
 20
-144.1842196751898
 30
0.0
  0
ENDBLK
  5
21C
  8
0
 62
     6
  0
BLOCK
  8
0
  2
*D1212
 70
     1
 10
0.0
 20
0.0
 30
0.0
  3
*D1212
  1

  0
LINE
  5
206
  8
回07-寸法
  6
CONTINUOUS
 62
     5
 10
212.1787793448702
 20
-112.449878056996
 30
0.0
 11
212.1787793448702
 21
-154.7156875406083
 31
0.0
  0
LINE
  5
207
  8
回07-寸法
  6
CONTINUOUS
 62
     5
 10
380.1787793448702
 20
-112.449878056996
 30
0.0
 11
380.1787793448702
 21
-154.7156875406083
 31
0.0
  0
LINE
  5
208
  8
回07-寸法
  6
CONTINUOUS
 62
     5
 10
214.1787793448702
 20
-153.7156875406083
 30
0.0
 11
378.1787793448702
 21
-153.7156875406083
 31
0.0
  0
INSERT
  5
209
  8
回07-寸法
  6
CONTINUOUS
 62
     5
  2
_OPEN
 10
212.1787793448702
 20
-153.7156875406083
 30
0.0
 41
2.0
 42
2.0
 43
2.0
 50
180.0
  0
INSERT
  5
20A
  8
回07-寸法
  6
CONTINUOUS
 62
     5
  2
_OPEN
 10
380.1787793448702
 20
-153.7156875406083
 30
0.0
 41
2.0
 42
2.0
 43
2.0
  0
INSERT
  5
20B
  8
回07-寸法
  6
CONTINUOUS
 62
     5
 66
     1
  2
*X5151
 10
0.0
 20
0.0
 30
0.0
  0
SEQEND
  5
430
  8
0
  6
CONTINUOUS
 62
     1
  0
POINT
  5
20C
  8
DEFPOINTS
  6
CONTINUOUS
 62
     0
 10
212.1787793448702
 20
-112.449878056996
 30
0.0
  0
POINT
  5
20D
  8
DEFPOINTS
  6
CONTINUOUS
 62
     0
 10
380.1787793448702
 20
-112.449878056996
 30
0.0
  0
POINT
  5
20E
  8
DEFPOINTS
  6
CONTINUOUS
 62
     0
 10
380.1787793448702
 20
-153.7156875406083
 30
0.0
  0
ENDBLK
  5
20F
  8
0
 62
     6
  0
BLOCK
  8
0
  2
*D1313
 70
     1
 10
0.0
 20
0.0
 30
0.0
  3
*D1313
  1

  0
LINE
  5
1F7
  8
回07-寸法
  6
CONTINUOUS
 62
     5
 10
373.0787793448703
 20
-104.349878056996
 30
0.0
 11
393.2713673826304
 21
-104.349878056996
 31
0.0
  0
LINE
  5
1F8
  8
回07-寸法
  6
CONTINUOUS
 62
     5
 10
380.1787793448704
 20
-112.449878056996
 30
0.0
 11
393.2713673826304
 21
-112.449878056996
 31
0.0
  0
LINE
  5
1F9
  8
回07-寸法
  6
CONTINUOUS
 62
     5
 10
392.2713673826304
 20
-102.349878056996
 30
0.0
 11
392.2713673826304
 21
-100.349878056996
 31
0.0
  0
LINE
  5
1FA
  8
回07-寸法
  6
CONTINUOUS
 62
     5
 10
392.2713673826304
 20
-114.449878056996
 30
0.0
 11
392.2713673826304
 21
-133.9603610484789
 31
0.0
  0
LINE
  5
1FB
  8
回07-寸法
  6
CONTINUOUS
 62
     5
 10
392.2713673826304
 20
-104.349878056996
 30
0.0
 11
392.2713673826304
 21
-112.449878056996
 31
0.0
  0
INSERT
  5
1FC
  8
回07-寸法
  6
CONTINUOUS
 62
     5
  2
_OPEN
 10
392.2713673826304
 20
-104.349878056996
 30
0.0
 41
2.0
 42
2.0
 43
2.0
 50
270.0
  0
INSERT
  5
1FD
  8
回07-寸法
  6
CONTINUOUS
 62
     5
  2
_OPEN
 10
392.2713673826304
 20
-112.449878056996
 30
0.0
 41
2.0
 42
2.0
 43
2.0
 50
90.0
  0
TEXT
  5
1FE
  8
回07-寸法
  6
CONTINUOUS
 62
     5
 10
391.6214272887326
 20
-133.910535105528
 30
0.0
 40
3.0
  1
8.1 [0.319]
 50
90.0
1001
ACAD
1000
MTEXTBEGIN
1070
    73
1070
     1
1070
    44
1040
1.0
1070
    74
1070
     0
1000
MTEXTEND
  0
POINT
  5
1FF
  8
DEFPOINTS
  6
CONTINUOUS
 62
     0
 10
373.0787793448703
 20
-104.349878056996
 30
0.0
  0
POINT
  5
200
  8
DEFPOINTS
  6
CONTINUOUS
 62
     0
 10
380.1787793448704
 20
-112.449878056996
 30
0.0
  0
POINT
  5
201
  8
DEFPOINTS
  6
CONTINUOUS
 62
     0
 10
392.2713673826304
 20
-112.449878056996
 30
0.0
  0
ENDBLK
  5
202
  8
0
 62
     6
  0
BLOCK
  8
0
  2
*D1414
 70
     1
 10
0.0
 20
0.0
 30
0.0
  3
*D1414
  1

  0
LINE
  5
1E8
  8
回07-寸法
  6
CONTINUOUS
 62
     5
 10
374.0787793448703
 20
-105.349878056996
 30
0.0
 11
399.5336795875529
 21
-105.349878056996
 31
0.0
  0
LINE
  5
1E9
  8
回07-寸法
  6
CONTINUOUS
 62
     5
 10
380.1787793448704
 20
-112.449878056996
 30
0.0
 11
399.5336795875529
 21
-112.449878056996
 31
0.0
  0
LINE
  5
1EA
  8
回07-寸法
  6
CONTINUOUS
 62
     5
 10
398.5336795875529
 20
-103.349878056996
 30
0.0
 11
398.5336795875529
 21
-101.349878056996
 31
0.0
  0
LINE
  5
1EB
  8
回07-寸法
  6
CONTINUOUS
 62
     5
 10
398.5336795875529
 20
-114.449878056996
 30
0.0
 11
398.5336795875529
 21
-134.549878056996
 31
0.0
  0
LINE
  5
1EC
  8
回07-寸法
  6
CONTINUOUS
 62
     5
 10
398.5336795875529
 20
-105.349878056996
 30
0.0
 11
398.5336795875529
 21
-112.449878056996
 31
0.0
  0
INSERT
  5
1ED
  8
回07-寸法
  6
CONTINUOUS
 62
     5
  2
_OPEN
 10
398.5336795875529
 20
-105.349878056996
 30
0.0
 41
2.0
 42
2.0
 43
2.0
 50
270.0
  0
INSERT
  5
1EE
  8
回07-寸法
  6
CONTINUOUS
 62
     5
  2
_OPEN
 10
398.5336795875529
 20
-112.449878056996
 30
0.0
 41
2.0
 42
2.0
 43
2.0
 50
90.0
  0
TEXT
  5
1EF
  8
回07-寸法
  6
CONTINUOUS
 62
     5
 10
397.8836795875528
 20
-134.4998780569962
 30
0.0
 40
3.0
  1
7.1 [0.280]
 50
90.0
1001
ACAD
1000
MTEXTBEGIN
1070
    73
1070
     1
1070
    44
1040
1.0
1070
    74
1070
     0
1000
MTEXTEND
  0
POINT
  5
1F0
  8
DEFPOINTS
  6
CONTINUOUS
 62
     0
 10
374.0787793448703
 20
-105.349878056996
 30
0.0
  0
POINT
  5
1F1
  8
DEFPOINTS
  6
CONTINUOUS
 62
     0
 10
380.1787793448704
 20
-112.449878056996
 30
0.0
  0
POINT
  5
1F2
  8
DEFPOINTS
  6
CONTINUOUS
 62
     0
 10
398.5336795875529
 20
-112.449878056996
 30
0.0
  0
ENDBLK
  5
1F3
  8
0
 62
     6
  0
BLOCK
  8
0
  2
*D1515
 70
     1
 10
0.0
 20
0.0
 30
0.0
  3
*D1515
  1

  0
LINE
  5
1DB
  8
回07-寸法
  6
CONTINUOUS
 62
     5
 10
373.0787793448703
 20
-104.349878056996
 30
0.0
 11
393.2713673826303
 21
-104.349878056996
 31
0.0
  0
LINE
  5
1DC
  8
回07-寸法
  6
CONTINUOUS
 62
     5
 10
373.0787793448703
 20
11.45012194300398
 30
0.0
 11
393.2713673826303
 21
11.45012194300398
 31
0.0
  0
LINE
  5
1DD
  8
回07-寸法
  6
CONTINUOUS
 62
     5
 10
392.2713673826303
 20
-102.349878056996
 30
0.0
 11
392.2713673826303
 21
9.450121943003985
 31
0.0
  0
INSERT
  5
1DE
  8
回07-寸法
  6
CONTINUOUS
 62
     5
  2
_OPEN
 10
392.2713673826303
 20
-104.349878056996
 30
0.0
 41
2.0
 42
2.0
 43
2.0
 50
270.0
  0
INSERT
  5
1DF
  8
回07-寸法
  6
CONTINUOUS
 62
     5
  2
_OPEN
 10
392.2713673826303
 20
11.45012194300398
 30
0.0
 41
2.0
 42
2.0
 43
2.0
 50
90.0
  0
INSERT
  5
1E0
  8
回07-寸法
  6
CONTINUOUS
 62
     5
 66
     1
  2
*X5252
 10
0.0
 20
0.0
 30
0.0
  0
SEQEND
  5
436
  8
0
  6
CONTINUOUS
 62
     1
  0
POINT
  5
1E1
  8
DEFPOINTS
  6
CONTINUOUS
 62
     0
 10
373.0787793448703
 20
-104.349878056996
 30
0.0
  0
POINT
  5
1E2
  8
DEFPOINTS
  6
CONTINUOUS
 62
     0
 10
373.0787793448703
 20
11.45012194300398
 30
0.0
  0
POINT
  5
1E3
  8
DEFPOINTS
  6
CONTINUOUS
 62
     0
 10
392.2713673826303
 20
11.45012194300398
 30
0.0
  0
ENDBLK
  5
1E4
  8
0
 62
     6
  0
BLOCK
  8
0
  2
*D1616
 70
     1
 10
0.0
 20
0.0
 30
0.0
  3
*D1616
  1

  0
LINE
  5
1CE
  8
回07-寸法
  6
CONTINUOUS
 62
     5
 10
374.0787793448703
 20
-105.349878056996
 30
0.0
 11
399.5336795875529
 21
-105.349878056996
 31
0.0
  0
LINE
  5
1CF
  8
回07-寸法
  6
CONTINUOUS
 62
     5
 10
374.0787793448703
 20
12.45012194300398
 30
0.0
 11
399.5336795875529
 21
12.45012194300398
 31
0.0
  0
LINE
  5
1D0
  8
回07-寸法
  6
CONTINUOUS
 62
     5
 10
398.5336795875529
 20
-103.349878056996
 30
0.0
 11
398.5336795875529
 21
10.45012194300398
 31
0.0
  0
INSERT
  5
1D1
  8
回07-寸法
  6
CONTINUOUS
 62
     5
  2
_OPEN
 10
398.5336795875529
 20
-105.349878056996
 30
0.0
 41
2.0
 42
2.0
 43
2.0
 50
270.0
  0
INSERT
  5
1D2
  8
回07-寸法
  6
CONTINUOUS
 62
     5
  2
_OPEN
 10
398.5336795875529
 20
12.45012194300399
 30
0.0
 41
2.0
 42
2.0
 43
2.0
 50
90.0
  0
INSERT
  5
1D3
  8
回07-寸法
  6
CONTINUOUS
 62
     5
 66
     1
  2
*X5353
 10
0.0
 20
0.0
 30
0.0
  0
SEQEND
  5
43C
  8
0
  6
CONTINUOUS
 62
     1
  0
POINT
  5
1D4
  8
DEFPOINTS
  6
CONTINUOUS
 62
     0
 10
374.0787793448703
 20
-105.349878056996
 30
0.0
  0
POINT
  5
1D5
  8
DEFPOINTS
  6
CONTINUOUS
 62
     0
 10
374.0787793448703
 20
12.45012194300398
 30
0.0
  0
POINT
  5
1D6
  8
DEFPOINTS
  6
CONTINUOUS
 62
     0
 10
398.5336795875529
 20
12.45012194300399
 30
0.0
  0
ENDBLK
  5
1D7
  8
0
 62
     6
  0
BLOCK
  8
0
  2
*D1717
 70
     1
 10
0.0
 20
0.0
 30
0.0
  3
*D1717
  1

  0
LINE
  5
1C1
  8
回07-寸法
  6
CONTINUOUS
 62
     5
 10
380.1787793448704
 20
-112.449878056996
 30
0.0
 11
416.4827891895531
 21
-112.449878056996
 31
0.0
  0
LINE
  5
1C2
  8
回07-寸法
  6
CONTINUOUS
 62
     5
 10
380.1787793448704
 20
19.55012194300401
 30
0.0
 11
416.4827891895531
 21
19.55012194300401
 31
0.0
  0
LINE
  5
1C3
  8
回07-寸法
  6
CONTINUOUS
 62
     5
 10
415.4827891895531
 20
-110.449878056996
 30
0.0
 11
415.4827891895531
 21
17.55012194300401
 31
0.0
  0
INSERT
  5
1C4
  8
回07-寸法
  6
CONTINUOUS
 62
     5
  2
_OPEN
 10
415.4827891895531
 20
-112.449878056996
 30
0.0
 41
2.0
 42
2.0
 43
2.0
 50
270.0
  0
INSERT
  5
1C5
  8
回07-寸法
  6
CONTINUOUS
 62
     5
  2
_OPEN
 10
415.4827891895531
 20
19.55012194300401
 30
0.0
 41
2.0
 42
2.0
 43
2.0
 50
90.0
  0
INSERT
  5
1C6
  8
回07-寸法
  6
CONTINUOUS
 62
     5
 66
     1
  2
*X5454
 10
0.0
 20
0.0
 30
0.0
  0
SEQEND
  5
445
  8
0
  6
CONTINUOUS
 62
     1
  0
POINT
  5
1C7
  8
DEFPOINTS
  6
CONTINUOUS
 62
     0
 10
380.1787793448704
 20
-112.449878056996
 30
0.0
  0
POINT
  5
1C8
  8
DEFPOINTS
  6
CONTINUOUS
 62
     0
 10
380.1787793448704
 20
19.55012194300401
 30
0.0
  0
POINT
  5
1C9
  8
DEFPOINTS
  6
CONTINUOUS
 62
     0
 10
415.4827891895531
 20
19.55012194300401
 30
0.0
  0
ENDBLK
  5
1CA
  8
0
 62
     6
  0
BLOCK
  8
0
  2
*D1818
 70
     1
 10
0.0
 20
0.0
 30
0.0
  3
*D1818
  1

  0
LINE
  5
1B4
  8
回07-寸法
  6
CONTINUOUS
 62
     5
 10
212.1787793448702
 20
19.550121943004
 30
0.0
 11
212.1787793448702
 21
99.69822750112928
 31
0.0
  0
LINE
  5
1B5
  8
回07-寸法
  6
CONTINUOUS
 62
     5
 10
266.0531894496876
 20
89.050121943004
 30
0.0
 11
266.0531894496876
 21
99.69822750112928
 31
0.0
  0
LINE
  5
1B6
  8
回07-寸法
  6
CONTINUOUS
 62
     5
 10
214.1787793448702
 20
98.69822750112929
 30
0.0
 11
264.0531894496876
 21
98.69822750112929
 31
0.0
  0
INSERT
  5
1B7
  8
回07-寸法
  6
CONTINUOUS
 62
     5
  2
_OPEN
 10
212.1787793448702
 20
98.69822750112929
 30
0.0
 41
2.0
 42
2.0
 43
2.0
 50
180.0
  0
INSERT
  5
1B8
  8
回07-寸法
  6
CONTINUOUS
 62
     5
  2
_OPEN
 10
266.0531894496876
 20
98.69822750112929
 30
0.0
 41
2.0
 42
2.0
 43
2.0
  0
TEXT
  5
1B9
  8
回07-寸法
  6
CONTINUOUS
 62
     5
 10
227.1159843972789
 20
99.34822750112928
 30
0.0
 40
3.0
  1
(53.87 [2.121])
1001
ACAD
1000
MTEXTBEGIN
1070
    73
1070
     1
1070
    44
1040
1.0
1070
    74
1070
     0
1000
MTEXTEND
  0
POINT
  5
1BA
  8
DEFPOINTS
  6
CONTINUOUS
 62
     0
 10
212.1787793448702
 20
19.550121943004
 30
0.0
  0
POINT
  5
1BB
  8
DEFPOINTS
  6
CONTINUOUS
 62
     0
 10
266.0531894496876
 20
89.050121943004
 30
0.0
  0
POINT
  5
1BC
  8
DEFPOINTS
  6
CONTINUOUS
 62
     0
 10
266.0531894496876
 20
98.69822750112929
 30
0.0
  0
ENDBLK
  5
1BD
  8
0
 62
     6
  0
BLOCK
  8
0
  2
*D1919
 70
     1
 10
0.0
 20
0.0
 30
0.0
  3
*D1919
  1

  0
LINE
  5
1A5
  8
回07-寸法
  6
CONTINUOUS
 62
     5
 10
261.17877934487
 20
23.9378782656637
 30
0.0
 11
261.17877934487
 21
57.89109314649841
 31
0.0
  0
LINE
  5
1A6
  8
回07-寸法
  6
CONTINUOUS
 62
     5
 10
277.1775763105984
 20
23.94205185137002
 30
0.0
 11
277.1775763105984
 21
57.89109314649841
 31
0.0
  0
LINE
  5
1A7
  8
回07-寸法
  6
CONTINUOUS
 62
     5
 10
259.17877934487
 20
56.89109314649839
 30
0.0
 11
257.17877934487
 21
56.89109314649839
 31
0.0
  0
LINE
  5
1A8
  8
回07-寸法
  6
CONTINUOUS
 62
     5
 10
279.1775763105984
 20
56.89109314649839
 30
0.0
 11
298.3775763105984
 21
56.89109314649839
 31
0.0
  0
LINE
  5
1A9
  8
回07-寸法
  6
CONTINUOUS
 62
     5
 10
261.17877934487
 20
56.89109314649839
 30
0.0
 11
277.1775763105984
 21
56.89109314649839
 31
0.0
  0
INSERT
  5
1AA
  8
回07-寸法
  6
CONTINUOUS
 62
     5
  2
_OPEN
 10
261.17877934487
 20
56.89109314649839
 30
0.0
 41
2.0
 42
2.0
 43
2.0
  0
INSERT
  5
1AB
  8
回07-寸法
  6
CONTINUOUS
 62
     5
  2
_OPEN
 10
277.1775763105984
 20
56.89109314649839
 30
0.0
 41
2.0
 42
2.0
 43
2.0
 50
180.0
  0
TEXT
  5
1AC
  8
回07-寸法
  6
CONTINUOUS
 62
     5
 10
281.2275763105984
 20
57.5410931464984
 30
0.0
 40
3.0
  1
16 [0.630]
1001
ACAD
1000
MTEXTBEGIN
1070
    73
1070
     1
1070
    44
1040
1.0
1070
    74
1070
     0
1000
MTEXTEND
  0
POINT
  5
1AD
  8
DEFPOINTS
  6
CONTINUOUS
 62
     0
 10
261.17877934487
 20
23.9378782656637
 30
0.0
  0
POINT
  5
1AE
  8
DEFPOINTS
  6
CONTINUOUS
 62
     0
 10
277.1775763105984
 20
23.94205185137002
 30
0.0
  0
POINT
  5
1AF
  8
DEFPOINTS
  6
CONTINUOUS
 62
     0
 10
277.1775763105984
 20
56.89109314649839
 30
0.0
  0
ENDBLK
  5
1B0
  8
0
 62
     6
  0
BLOCK
  8
0
  2
*D2020
 70
     1
 10
0.0
 20
0.0
 30
0.0
  3
*D2020
  1

  0
LINE
  5
196
  8
回07-寸法
  6
CONTINUOUS
 62
     5
 10
272.5952300145158
 20
28.95012194300399
 30
0.0
 11
289.6571778175503
 21
28.95012194300399
 31
0.0
  0
LINE
  5
197
  8
回07-寸法
  6
CONTINUOUS
 62
     5
 10
281.0663165520635
 20
19.55012194300401
 30
0.0
 11
289.6571778175503
 21
19.55012194300401
 31
0.0
  0
LINE
  5
198
  8
回07-寸法
  6
CONTINUOUS
 62
     5
 10
288.6571778175504
 20
17.55012194300401
 30
0.0
 11
288.6571778175504
 21
15.55012194300401
 31
0.0
  0
LINE
  5
199
  8
回07-寸法
  6
CONTINUOUS
 62
     5
 10
288.6571778175504
 20
30.950121943004
 30
0.0
 11
288.6571778175504
 21
52.07438601171593
 31
0.0
  0
LINE
  5
19A
  8
回07-寸法
  6
CONTINUOUS
 62
     5
 10
288.6571778175504
 20
19.55012194300401
 30
0.0
 11
288.6571778175504
 21
28.950121943004
 31
0.0
  0
INSERT
  5
19B
  8
回07-寸法
  6
CONTINUOUS
 62
     5
  2
_OPEN
 10
288.6571778175504
 20
19.55012194300401
 30
0.0
 41
2.0
 42
2.0
 43
2.0
 50
90.0
  0
INSERT
  5
19C
  8
回07-寸法
  6
CONTINUOUS
 62
     5
  2
_OPEN
 10
288.6571778175504
 20
28.950121943004
 30
0.0
 41
2.0
 42
2.0
 43
2.0
 50
270.0
  0
TEXT
  5
19D
  8
回07-寸法
  6
CONTINUOUS
 62
     5
 10
288.0071778175503
 20
33.05142287177893
 30
0.0
 40
3.0
  1
9.4 [0.370]
 50
90.0
1001
ACAD
1000
MTEXTBEGIN
1070
    73
1070
     1
1070
    44
1040
1.0
1070
    74
1070
     0
1000
MTEXTEND
  0
POINT
  5
19E
  8
DEFPOINTS
  6
CONTINUOUS
 62
     0
 10
272.5952300145158
 20
28.95012194300399
 30
0.0
  0
POINT
  5
19F
  8
DEFPOINTS
  6
CONTINUOUS
 62
     0
 10
281.0663165520635
 20
19.55012194300401
 30
0.0
  0
POINT
  5
1A0
  8
DEFPOINTS
  6
CONTINUOUS
 62
     0
 10
288.6571778175504
 20
19.55012194300401
 30
0.0
  0
ENDBLK
  5
1A1
  8
0
 62
     6
  0
BLOCK
  8
0
  2
*D2121
 70
     1
 10
0.0
 20
0.0
 30
0.0
  3
*D2121
  1

  0
LINE
  5
185
  8
回07-寸法
  6
CONTINUOUS
 62
     5
 10
271.8037793448703
 20
89.55012194300403
 30
0.0
 11
322.6171435280176
 21
89.55012194300403
 31
0.0
  0
LINE
  5
186
  8
回07-寸法
  6
CONTINUOUS
 62
     5
 10
380.1787793448704
 20
19.55012194300401
 30
0.0
 11
320.6171435280176
 21
19.55012194300401
 31
0.0
  0
LINE
  5
187
  8
回07-寸法
  6
CONTINUOUS
 62
     5
 10
321.6171435280176
 20
87.55012194300405
 30
0.0
 11
321.6171435280176
 21
21.550121943004
 31
0.0
  0
INSERT
  5
188
  8
回07-寸法
  6
CONTINUOUS
 62
     5
  2
_OPEN
 10
321.6171435280176
 20
89.55012194300406
 30
0.0
 41
2.0
 42
2.0
 43
2.0
 50
90.0
  0
INSERT
  5
189
  8
回07-寸法
  6
CONTINUOUS
 62
     5
  2
_OPEN
 10
321.6171435280176
 20
19.55012194300399
 30
0.0
 41
2.0
 42
2.0
 43
2.0
 50
270.0
  0
INSERT
  5
18A
  8
回07-寸法
  6
CONTINUOUS
 62
     5
 66
     1
  2
*X5555
 10
0.0
 20
0.0
 30
0.0
  0
SEQEND
  5
44E
  8
0
  6
CONTINUOUS
 62
     1
  0
POINT
  5
18B
  8
DEFPOINTS
  6
CONTINUOUS
 62
     0
 10
271.8037793448703
 20
89.55012194300403
 30
0.0
  0
POINT
  5
18C
  8
DEFPOINTS
  6
CONTINUOUS
 62
     0
 10
380.1787793448704
 20
19.55012194300401
 30
0.0
  0
POINT
  5
18D
  8
DEFPOINTS
  6
CONTINUOUS
 62
     0
 10
321.6171435280176
 20
19.55012194300399
 30
0.0
  0
ENDBLK
  5
18E
  8
0
 62
     6
  0
BLOCK
  8
0
  2
*D2222
 70
     1
 10
0.0
 20
0.0
 30
0.0
  3
*D2222
  1

  0
LINE
  5
176
  8
回07-寸法
  6
CONTINUOUS
 62
     5
 10
266.0531894496876
 20
89.050121943004
 30
0.0
 11
266.0531894496876
 21
99.69822750112928
 31
0.0
  0
LINE
  5
177
  8
回07-寸法
  6
CONTINUOUS
 62
     5
 10
272.3037793448702
 20
89.050121943004
 30
0.0
 11
272.3037793448702
 21
99.69822750112928
 31
0.0
  0
LINE
  5
178
  8
回07-寸法
  6
CONTINUOUS
 62
     5
 10
264.0531894496876
 20
98.69822750112929
 30
0.0
 11
262.0531894496876
 21
98.69822750112929
 31
0.0
  0
LINE
  5
179
  8
回07-寸法
  6
CONTINUOUS
 62
     5
 10
274.3037793448702
 20
98.69822750112929
 30
0.0
 11
297.5833069039254
 21
98.69822750112929
 31
0.0
  0
LINE
  5
17A
  8
回07-寸法
  6
CONTINUOUS
 62
     5
 10
266.0531894496876
 20
98.69822750112929
 30
0.0
 11
272.3037793448702
 21
98.69822750112929
 31
0.0
  0
INSERT
  5
17B
  8
回07-寸法
  6
CONTINUOUS
 62
     5
  2
_OPEN
 10
266.0531894496876
 20
98.69822750112929
 30
0.0
 41
2.0
 42
2.0
 43
2.0
  0
INSERT
  5
17C
  8
回07-寸法
  6
CONTINUOUS
 62
     5
  2
_OPEN
 10
272.3037793448702
 20
98.69822750112929
 30
0.0
 41
2.0
 42
2.0
 43
2.0
 50
180.0
  0
TEXT
  5
17D
  8
回07-寸法
  6
CONTINUOUS
 62
     5
 10
276.4435431243978
 20
99.34822750112928
 30
0.0
 40
3.0
  1
6.25 [0.246]
1001
ACAD
1000
MTEXTBEGIN
1070
    73
1070
     1
1070
    44
1040
1.0
1070
    74
1070
     0
1000
MTEXTEND
  0
POINT
  5
17E
  8
DEFPOINTS
  6
CONTINUOUS
 62
     0
 10
266.0531894496876
 20
89.050121943004
 30
0.0
  0
POINT
  5
17F
  8
DEFPOINTS
  6
CONTINUOUS
 62
     0
 10
272.3037793448702
 20
89.050121943004
 30
0.0
  0
POINT
  5
180
  8
DEFPOINTS
  6
CONTINUOUS
 62
     0
 10
272.3037793448702
 20
98.69822750112929
 30
0.0
  0
ENDBLK
  5
181
  8
0
 62
     6
  0
BLOCK
  8
0
  2
*D2323
 70
     1
 10
0.0
 20
0.0
 30
0.0
  3
*D2323
  1

  0
LINE
  5
120
  8
回07-寸法
 62
     5
 10
533.9083483799241
 20
-8.833130211307434
 30
0.0
 11
533.9083483799241
 21
8.984861535164782
 31
0.0
  0
LINE
  5
121
  8
回07-寸法
 62
     5
 10
522.658348379924
 20
-8.833130211307434
 30
0.0
 11
522.658348379924
 21
8.984861535164782
 31
0.0
  0
LINE
  5
122
  8
回07-寸法
 62
     5
 10
535.908348379924
 20
7.984861535164781
 30
0.0
 11
537.9083483799241
 21
7.984861535164781
 31
0.0
  0
LINE
  5
123
  8
回07-寸法
 62
     5
 10
520.658348379924
 20
7.984861535164781
 30
0.0
 11
487.758287379924
 21
7.984861535164781
 31
0.0
  0
LINE
  5
124
  8
回07-寸法
 62
     5
 10
533.9083483799241
 20
7.984861535164781
 30
0.0
 11
522.658348379924
 21
7.984861535164781
 31
0.0
  0
INSERT
  5
125
  8
回07-寸法
 62
     5
 66
     1
  2
_OPEN
 10
533.9083483799241
 20
7.984861535164781
 30
0.0
 41
2.0
 42
2.0
 43
2.0
 50
180.0
  0
SEQEND
  5
126
  8
0
  6
CONTINUOUS
 62
     1
  0
INSERT
  5
127
  8
回07-寸法
 62
     5
 66
     1
  2
_OPEN
 10
522.658348379924
 20
7.984861535164781
 30
0.0
 41
2.0
 42
2.0
 43
2.0
  0
SEQEND
  5
128
  8
0
  6
CONTINUOUS
 62
     1
  0
INSERT
  5
129
  8
回07-寸法
 62
     5
 66
     1
  2
*X5656
 10
0.0
 20
0.0
 30
0.0
  0
SEQEND
  5
457
  8
0
  6
CONTINUOUS
 62
     1
  0
POINT
  5
12A
  8
DEFPOINTS
 62
     0
 10
533.9083483799241
 20
-8.833130211307434
 30
0.0
  0
POINT
  5
12B
  8
DEFPOINTS
 62
     0
 10
522.658348379924
 20
-8.833130211307434
 30
0.0
  0
POINT
  5
12C
  8
DEFPOINTS
 62
     0
 10
522.658348379924
 20
7.984861535164781
 30
0.0
  0
ENDBLK
  5
12D
  8
0
 62
     6
  0
BLOCK
  8
0
  2
*D2424
 70
     1
 10
0.0
 20
0.0
 30
0.0
  3
*D2424
  1

  0
LINE
  5
10F
  8
回07-寸法
 62
     5
 10
526.408348379924
 20
-8.833130211307434
 30
0.0
 11
526.408348379924
 21
4.329272411997408
 31
0.0
  0
LINE
  5
110
  8
回07-寸法
 62
     5
 10
522.658348379924
 20
-8.833130211307434
 30
0.0
 11
522.658348379924
 21
4.329272411997408
 31
0.0
  0
LINE
  5
111
  8
回07-寸法
 62
     5
 10
528.408348379924
 20
3.329272411997408
 30
0.0
 11
530.408348379924
 21
3.329272411997408
 31
0.0
  0
LINE
  5
112
  8
回07-寸法
 62
     5
 10
520.658348379924
 20
3.329272411997408
 30
0.0
 11
487.5478033884411
 21
3.329272411997408
 31
0.0
  0
LINE
  5
113
  8
回07-寸法
 62
     5
 10
526.408348379924
 20
3.329272411997408
 30
0.0
 11
522.658348379924
 21
3.329272411997408
 31
0.0
  0
INSERT
  5
114
  8
回07-寸法
 62
     5
 66
     1
  2
_OPEN
 10
526.408348379924
 20
3.329272411997408
 30
0.0
 41
2.0
 42
2.0
 43
2.0
 50
180.0
  0
SEQEND
  5
115
  8
0
  6
CONTINUOUS
 62
     1
  0
INSERT
  5
116
  8
回07-寸法
 62
     5
 66
     1
  2
_OPEN
 10
522.658348379924
 20
3.329272411997408
 30
0.0
 41
2.0
 42
2.0
 43
2.0
  0
SEQEND
  5
117
  8
0
  6
CONTINUOUS
 62
     1
  0
INSERT
  5
118
  8
回07-寸法
 62
     5
 66
     1
  2
*X5757
 10
0.0
 20
0.0
 30
0.0
  0
SEQEND
  5
460
  8
0
  6
CONTINUOUS
 62
     1
  0
POINT
  5
119
  8
DEFPOINTS
 62
     0
 10
526.408348379924
 20
-8.833130211307434
 30
0.0
  0
POINT
  5
11A
  8
DEFPOINTS
 62
     0
 10
522.658348379924
 20
-8.833130211307434
 30
0.0
  0
POINT
  5
11B
  8
DEFPOINTS
 62
     0
 10
522.658348379924
 20
3.329272411997408
 30
0.0
  0
ENDBLK
  5
11C
  8
0
 62
     6
  0
BLOCK
  8
0
  2
*D2525
 70
     1
 10
0.0
 20
0.0
 30
0.0
  3
*D2525
  1

  0
LINE
  5
FE
  8
回07-寸法
 62
     5
 10
523.8583483799239
 20
-8.833130211307434
 30
0.0
 11
523.8583483799239
 21
-2.074381821529641
 31
0.0
  0
LINE
  5
FF
  8
回07-寸法
 62
     5
 10
521.4583483799241
 20
-8.833130211307434
 30
0.0
 11
521.4583483799241
 21
-2.074381821529641
 31
0.0
  0
LINE
  5
100
  8
回07-寸法
 62
     5
 10
525.8583483799237
 20
-3.074381821529641
 30
0.0
 11
527.8583483799239
 21
-3.074381821529641
 31
0.0
  0
LINE
  5
101
  8
回07-寸法
 62
     5
 10
519.4583483799241
 20
-3.074381821529641
 30
0.0
 11
479.3582873799241
 21
-3.074381821529641
 31
0.0
  0
LINE
  5
102
  8
回07-寸法
 62
     5
 10
523.8583483799239
 20
-3.074381821529641
 30
0.0
 11
521.4583483799241
 21
-3.074381821529641
 31
0.0
  0
INSERT
  5
103
  8
回07-寸法
 62
     5
 66
     1
  2
_OPEN
 10
523.8583483799239
 20
-3.074381821529641
 30
0.0
 41
2.0
 42
2.0
 43
2.0
 50
180.0
  0
SEQEND
  5
104
  8
0
  6
CONTINUOUS
 62
     1
  0
INSERT
  5
105
  8
回07-寸法
 62
     5
 66
     1
  2
_OPEN
 10
521.4583483799241
 20
-3.074381821529641
 30
0.0
 41
2.0
 42
2.0
 43
2.0
  0
SEQEND
  5
106
  8
0
  6
CONTINUOUS
 62
     1
  0
INSERT
  5
107
  8
回07-寸法
 62
     5
 66
     1
  2
*X5858
 10
0.0
 20
0.0
 30
0.0
  0
SEQEND
  5
469
  8
0
  6
CONTINUOUS
 62
     1
  0
POINT
  5
108
  8
DEFPOINTS
 62
     0
 10
523.8583483799239
 20
-8.833130211307434
 30
0.0
  0
POINT
  5
109
  8
DEFPOINTS
 62
     0
 10
521.4583483799241
 20
-8.833130211307434
 30
0.0
  0
POINT
  5
10A
  8
DEFPOINTS
 62
     0
 10
521.4583483799241
 20
-3.074381821529641
 30
0.0
  0
ENDBLK
  5
10B
  8
0
 62
     6
  0
BLOCK
  8
0
  2
*D2626
 70
     1
 10
0.0
 20
0.0
 30
0.0
  3
*D2626
  1

  0
LINE
  5
DF
  8
回07-寸法
 62
     5
 10
518.9083483799221
 20
-10.33313021130743
 30
0.0
 11
518.9083483799221
 21
14.7256838992273
 31
0.0
  0
LINE
  5
E0
  8
回07-寸法
 62
     5
 10
537.6583483799221
 20
-10.33313021130743
 30
0.0
 11
537.6583483799221
 21
14.7256838992273
 31
0.0
  0
LINE
  5
E1
  8
回07-寸法
 62
     5
 10
539.6583483799221
 20
13.72568389922731
 30
0.0
 11
541.6583483799221
 21
13.72568389922731
 31
0.0
  0
LINE
  5
E2
  8
回07-寸法
 62
     5
 10
516.9083483799221
 20
13.72568389922731
 30
0.0
 11
483.0285428208671
 21
13.72568389922731
 31
0.0
  0
LINE
  5
E3
  8
回07-寸法
 62
     5
 10
537.6583483799221
 20
13.72568389922731
 30
0.0
 11
518.9083483799221
 21
13.72568389922731
 31
0.0
  0
INSERT
  5
E4
  8
回07-寸法
 62
     5
 66
     1
  2
_OPEN
 10
537.6583483799221
 20
13.72568389922731
 30
0.0
 41
2.0
 42
2.0
 43
2.0
 50
180.0
  0
SEQEND
  5
E5
  8
0
  6
CONTINUOUS
 62
     1
  0
INSERT
  5
E6
  8
回07-寸法
 62
     5
 66
     1
  2
_OPEN
 10
518.9083483799221
 20
13.72568389922731
 30
0.0
 41
2.0
 42
2.0
 43
2.0
  0
SEQEND
  5
E7
  8
0
  6
CONTINUOUS
 62
     1
  0
INSERT
  5
E8
  8
回07-寸法
 62
     5
 66
     1
  2
*X5959
 10
0.0
 20
0.0
 30
0.0
  0
SEQEND
  5
472
  8
0
  6
CONTINUOUS
 62
     1
  0
POINT
  5
E9
  8
DEFPOINTS
 62
     0
 10
518.9083483799221
 20
-10.33313021130743
 30
0.0
  0
POINT
  5
EA
  8
DEFPOINTS
 62
     0
 10
537.6583483799221
 20
-10.33313021130743
 30
0.0
  0
POINT
  5
EB
  8
DEFPOINTS
 62
     0
 10
537.6583483799221
 20
13.72568389922731
 30
0.0
  0
ENDBLK
  5
EC
  8
0
 62
     6
  0
BLOCK
  8
0
  2
*D2727
 70
     1
 10
0.0
 20
0.0
 30
0.0
  3
*D2727
  1

  0
LINE
  5
C8
  8
回07-寸法
  6
CONTINUOUS
 62
     5
 10
212.1787793448702
 20
-112.449878056996
 30
0.0
 11
212.1787793448702
 21
-150.4156875406083
 31
0.0
  0
LINE
  5
C9
  8
回07-寸法
  6
CONTINUOUS
 62
     5
 10
217.7787793448702
 20
-106.149878056996
 30
0.0
 11
217.7787793448702
 21
-150.4156875406083
 31
0.0
  0
LINE
  5
CA
  8
回07-寸法
  6
CONTINUOUS
 62
     5
 10
219.7787793448702
 20
-149.4156875406083
 30
0.0
 11
221.7787793448702
 21
-149.4156875406083
 31
0.0
  0
LINE
  5
CB
  8
回07-寸法
  6
CONTINUOUS
 62
     5
 10
210.1787793448702
 20
-149.4156875406083
 30
0.0
 11
189.4787793448702
 21
-149.4156875406083
 31
0.0
  0
LINE
  5
CC
  8
回07-寸法
  6
CONTINUOUS
 62
     5
 10
217.7787793448702
 20
-149.4156875406083
 30
0.0
 11
212.1787793448702
 21
-149.4156875406083
 31
0.0
  0
INSERT
  5
CD
  8
回07-寸法
  6
CONTINUOUS
 62
     5
  2
_OPEN
 10
217.7787793448702
 20
-149.4156875406083
 30
0.0
 41
2.0
 42
2.0
 43
2.0
 50
180.0
  0
INSERT
  5
CE
  8
回07-寸法
  6
CONTINUOUS
 62
     5
  2
_OPEN
 10
212.1787793448702
 20
-149.4156875406083
 30
0.0
 41
2.0
 42
2.0
 43
2.0
  0
TEXT
  5
CF
  8
回07-寸法
  6
CONTINUOUS
 62
     5
 10
189.5287793448702
 20
-148.7656875406083
 30
0.0
 40
3.0
  1
5.6 [0.220]
1001
ACAD
1000
MTEXTBEGIN
1070
    73
1070
     1
1070
    44
1040
1.0
1070
    74
1070
     0
1000
MTEXTEND
  0
POINT
  5
D0
  8
DEFPOINTS
  6
CONTINUOUS
 62
     0
 10
212.1787793448702
 20
-112.449878056996
 30
0.0
  0
POINT
  5
D1
  8
DEFPOINTS
  6
CONTINUOUS
 62
     0
 10
217.7787793448702
 20
-106.149878056996
 30
0.0
  0
POINT
  5
D2
  8
DEFPOINTS
  6
CONTINUOUS
 62
     0
 10
217.7787793448702
 20
-149.4156875406083
 30
0.0
  0
ENDBLK
  5
D3
  8
0
 62
     7
  0
BLOCK
  8
0
  2
*D2828
 70
     1
 10
0.0
 20
0.0
 30
0.0
  3
*D2828
  1

  0
LINE
  5
BB
  8
回07-寸法
  6
CONTINUOUS
 62
     5
 10
217.7787793448702
 20
-106.149878056996
 30
0.0
 11
217.7787793448702
 21
-150.4156875406083
 31
0.0
  0
LINE
  5
BC
  8
回07-寸法
  6
CONTINUOUS
 62
     5
 10
374.5787793448702
 20
-106.149878056996
 30
0.0
 11
374.5787793448702
 21
-150.4156875406083
 31
0.0
  0
LINE
  5
BD
  8
回07-寸法
  6
CONTINUOUS
 62
     5
 10
219.7787793448702
 20
-149.4156875406083
 30
0.0
 11
372.5787793448702
 21
-149.4156875406083
 31
0.0
  0
INSERT
  5
BE
  8
回07-寸法
  6
CONTINUOUS
 62
     5
  2
_OPEN
 10
217.7787793448702
 20
-149.4156875406083
 30
0.0
 41
2.0
 42
2.0
 43
2.0
 50
180.0
  0
INSERT
  5
BF
  8
回07-寸法
  6
CONTINUOUS
 62
     5
  2
_OPEN
 10
374.5787793448702
 20
-149.4156875406083
 30
0.0
 41
2.0
 42
2.0
 43
2.0
  0
TEXT
  5
C0
  8
回07-寸法
  6
CONTINUOUS
 62
     5
 10
285.3787793448702
 20
-148.7656875406083
 30
0.0
 40
3.0
  1
156.8 [6.173]
1001
ACAD
1000
MTEXTBEGIN
1070
    73
1070
     1
1070
    44
1040
1.0
1070
    74
1070
     0
1000
MTEXTEND
  0
POINT
  5
C1
  8
DEFPOINTS
  6
CONTINUOUS
 62
     0
 10
217.7787793448702
 20
-106.149878056996
 30
0.0
  0
POINT
  5
C2
  8
DEFPOINTS
  6
CONTINUOUS
 62
     0
 10
374.5787793448702
 20
-106.149878056996
 30
0.0
  0
POINT
  5
C3
  8
DEFPOINTS
  6
CONTINUOUS
 62
     0
 10
374.5787793448702
 20
-149.4156875406083
 30
0.0
  0
ENDBLK
  5
C4
  8
0
 62
     7
  0
BLOCK
  8
0
  2
*D2929
 70
     1
 10
0.0
 20
0.0
 30
0.0
  3
*D2929
  1

  0
LINE
  5
AC
  8
回07-寸法
  6
CONTINUOUS
 62
     5
 10
374.5787793448702
 20
-106.149878056996
 30
0.0
 11
374.5787793448702
 21
-150.4156875406083
 31
0.0
  0
LINE
  5
AD
  8
回07-寸法
  6
CONTINUOUS
 62
     5
 10
380.1787793448702
 20
-112.449878056996
 30
0.0
 11
380.1787793448702
 21
-150.4156875406083
 31
0.0
  0
LINE
  5
AE
  8
回07-寸法
  6
CONTINUOUS
 62
     5
 10
372.5787793448702
 20
-149.4156875406083
 30
0.0
 11
370.5787793448702
 21
-149.4156875406083
 31
0.0
  0
LINE
  5
AF
  8
回07-寸法
  6
CONTINUOUS
 62
     5
 10
382.1787793448702
 20
-149.4156875406083
 30
0.0
 11
427.1076298880916
 21
-149.4156875406083
 31
0.0
  0
LINE
  5
B0
  8
回07-寸法
  6
CONTINUOUS
 62
     5
 10
374.5787793448702
 20
-149.4156875406083
 30
0.0
 11
380.1787793448702
 21
-149.4156875406083
 31
0.0
  0
INSERT
  5
B1
  8
回07-寸法
  6
CONTINUOUS
 62
     5
  2
_OPEN
 10
374.5787793448702
 20
-149.4156875406083
 30
0.0
 41
2.0
 42
2.0
 43
2.0
  0
INSERT
  5
B2
  8
回07-寸法
  6
CONTINUOUS
 62
     5
  2
_OPEN
 10
380.1787793448702
 20
-149.4156875406083
 30
0.0
 41
2.0
 42
2.0
 43
2.0
 50
180.0
  0
TEXT
  5
B3
  8
回07-寸法
  6
CONTINUOUS
 62
     5
 10
406.0588109904538
 20
-148.7656875406083
 30
0.0
 40
3.0
  1
(5.6 [0.220])
1001
ACAD
1000
MTEXTBEGIN
1070
    73
1070
     1
1070
    44
1040
1.0
1070
    74
1070
     0
1000
MTEXTEND
  0
POINT
  5
B4
  8
DEFPOINTS
  6
CONTINUOUS
 62
     0
 10
374.5787793448702
 20
-106.149878056996
 30
0.0
  0
POINT
  5
B5
  8
DEFPOINTS
  6
CONTINUOUS
 62
     0
 10
380.1787793448702
 20
-112.449878056996
 30
0.0
  0
POINT
  5
B6
  8
DEFPOINTS
  6
CONTINUOUS
 62
     0
 10
380.1787793448702
 20
-149.4156875406083
 30
0.0
  0
ENDBLK
  5
B7
  8
0
 62
     7
  0
BLOCK
  8
0
  2
*D3030
 70
     1
 10
0.0
 20
0.0
 30
0.0
  3
*D3030
  1

  0
LINE
  5
9B
  8
回07-寸法
  6
CONTINUOUS
 62
     5
 10
374.5787793448703
 20
13.25012194300401
 30
0.0
 11
406.2365342115765
 21
13.25012194300401
 31
0.0
  0
LINE
  5
9C
  8
回07-寸法
  6
CONTINUOUS
 62
     5
 10
374.5787793448703
 20
-106.149878056996
 30
0.0
 11
406.2365342115765
 21
-106.149878056996
 31
0.0
  0
LINE
  5
9D
  8
回07-寸法
  6
CONTINUOUS
 62
     5
 10
405.2365342115765
 20
11.25012194300401
 30
0.0
 11
405.2365342115765
 21
-104.149878056996
 31
0.0
  0
INSERT
  5
9E
  8
回07-寸法
  6
CONTINUOUS
 62
     5
  2
_OPEN
 10
405.2365342115765
 20
13.25012194300401
 30
0.0
 41
2.0
 42
2.0
 43
2.0
 50
90.0
  0
INSERT
  5
9F
  8
回07-寸法
  6
CONTINUOUS
 62
     5
  2
_OPEN
 10
405.2365342115765
 20
-106.149878056996
 30
0.0
 41
2.0
 42
2.0
 43
2.0
 50
270.0
  0
TEXT
  5
A0
  8
回07-寸法
  6
CONTINUOUS
 62
     5
 10
404.5865342115765
 20
-57.25529360978658
 30
0.0
 40
3.0
  1
119.4 [4.701]
 50
90.0
1001
ACAD
1000
MTEXTBEGIN
1070
    73
1070
     1
1070
    44
1040
1.0
1070
    74
1070
     0
1000
MTEXTEND
  0
POINT
  5
A1
  8
DEFPOINTS
  6
CONTINUOUS
 62
     0
 10
374.5787793448703
 20
13.25012194300401
 30
0.0
  0
POINT
  5
A2
  8
DEFPOINTS
  6
CONTINUOUS
 62
     0
 10
374.5787793448703
 20
-106.149878056996
 30
0.0
  0
POINT
  5
A3
  8
DEFPOINTS
  6
CONTINUOUS
 62
     0
 10
405.2365342115765
 20
-106.149878056996
 30
0.0
  0
ENDBLK
  5
A4
  8
0
 62
     7
  0
BLOCK
  8
0
  2
*D3131
 70
     1
 10
0.0
 20
0.0
 30
0.0
  3
*D3131
  1

  0
LINE
  5
8C
  8
回07-寸法
  6
CONTINUOUS
 62
     5
 10
374.5787793448703
 20
-106.149878056996
 30
0.0
 11
406.2365342115763
 21
-106.149878056996
 31
0.0
  0
LINE
  5
8D
  8
回07-寸法
  6
CONTINUOUS
 62
     5
 10
380.1787793448704
 20
-112.449878056996
 30
0.0
 11
406.2365342115763
 21
-112.449878056996
 31
0.0
  0
LINE
  5
8E
  8
回07-寸法
  6
CONTINUOUS
 62
     5
 10
405.2365342115764
 20
-104.149878056996
 30
0.0
 11
405.2365342115764
 21
-102.149878056996
 31
0.0
  0
LINE
  5
8F
  8
回07-寸法
  6
CONTINUOUS
 62
     5
 10
405.2365342115764
 20
-114.449878056996
 30
0.0
 11
405.2365342115764
 21
-135.6294056160511
 31
0.0
  0
LINE
  5
90
  8
回07-寸法
  6
CONTINUOUS
 62
     5
 10
405.2365342115764
 20
-106.149878056996
 30
0.0
 11
405.2365342115764
 21
-112.449878056996
 31
0.0
  0
INSERT
  5
91
  8
回07-寸法
  6
CONTINUOUS
 62
     5
  2
_OPEN
 10
405.2365342115764
 20
-106.149878056996
 30
0.0
 41
2.0
 42
2.0
 43
2.0
 50
270.0
  0
INSERT
  5
92
  8
回07-寸法
  6
CONTINUOUS
 62
     5
  2
_OPEN
 10
405.2365342115764
 20
-112.449878056996
 30
0.0
 41
2.0
 42
2.0
 43
2.0
 50
90.0
  0
TEXT
  5
93
  8
回07-寸法
  6
CONTINUOUS
 62
     5
 10
404.5865342115763
 20
-135.4896418365237
 30
0.0
 40
3.0
  1
6.3 [0.248]
 50
90.0
1001
ACAD
1000
MTEXTBEGIN
1070
    73
1070
     1
1070
    44
1040
1.0
1070
    74
1070
     0
1000
MTEXTEND
  0
POINT
  5
94
  8
DEFPOINTS
  6
CONTINUOUS
 62
     0
 10
374.5787793448703
 20
-106.149878056996
 30
0.0
  0
POINT
  5
95
  8
DEFPOINTS
  6
CONTINUOUS
 62
     0
 10
380.1787793448704
 20
-112.449878056996
 30
0.0
  0
POINT
  5
96
  8
DEFPOINTS
  6
CONTINUOUS
 62
     0
 10
405.2365342115764
 20
-112.449878056996
 30
0.0
  0
ENDBLK
  5
97
  8
0
 62
     7
  0
BLOCK
  8
0
  2
*D3232
 70
     1
 10
0.0
 20
0.0
 30
0.0
  3
*D3232
  1

  0
LINE
  5
7C
  8
回07-寸法
  6
CONTINUOUS
 62
     5
 10
380.1787793448704
 20
19.55012194300401
 30
0.0
 11
406.2365342115763
 21
19.55012194300401
 31
0.0
  0
LINE
  5
7D
  8
回07-寸法
  6
CONTINUOUS
 62
     5
 10
374.5787793448703
 20
13.25012194300401
 30
0.0
 11
406.2365342115763
 21
13.25012194300401
 31
0.0
  0
LINE
  5
7E
  8
回07-寸法
  6
CONTINUOUS
 62
     5
 10
405.2365342115764
 20
11.25012194300401
 30
0.0
 11
405.2365342115764
 21
9.250121943004012
 31
0.0
  0
LINE
  5
7F
  8
回07-寸法
  6
CONTINUOUS
 62
     5
 10
405.2365342115764
 20
21.55012194300401
 30
0.0
 11
405.2365342115764
 21
44.9477597382796
 31
0.0
  0
LINE
  5
80
  8
回07-寸法
  6
CONTINUOUS
 62
     5
 10
405.2365342115764
 20
13.25012194300401
 30
0.0
 11
405.2365342115764
 21
19.55012194300401
 31
0.0
  0
INSERT
  5
81
  8
回07-寸法
  6
CONTINUOUS
 62
     5
  2
_OPEN
 10
405.2365342115764
 20
13.25012194300401
 30
0.0
 41
2.0
 42
2.0
 43
2.0
 50
90.0
  0
INSERT
  5
82
  8
回07-寸法
  6
CONTINUOUS
 62
     5
  2
_OPEN
 10
405.2365342115764
 20
19.55012194300401
 30
0.0
 41
2.0
 42
2.0
 43
2.0
 50
270.0
  0
TEXT
  5
83
  8
回07-寸法
  6
CONTINUOUS
 62
     5
 10
404.5865342115763
 20
23.59894084064166
 30
0.0
 40
3.0
  1
(6.3 [0.248])
 50
90.0
1001
ACAD
1000
MTEXTBEGIN
1070
    73
1070
     1
1070
    44
1040
1.0
1070
    74
1070
     0
1000
MTEXTEND
  0
POINT
  5
84
  8
DEFPOINTS
  6
CONTINUOUS
 62
     0
 10
380.1787793448704
 20
19.55012194300401
 30
0.0
  0
POINT
  5
86
  8
DEFPOINTS
  6
CONTINUOUS
 62
     0
 10
374.5787793448703
 20
13.25012194300401
 30
0.0
  0
POINT
  5
87
  8
DEFPOINTS
  6
CONTINUOUS
 62
     0
 10
405.2365342115764
 20
13.25012194300401
 30
0.0
  0
ENDBLK
  5
88
  8
0
 62
     7
  0
BLOCK
  8
0
  2
*X3333
 70
     1
 10
0.0
 20
0.0
 30
0.0
  3
*X3333
  1

  0
LINE
  5
336
  8
回07-寸法
  6
BYBLOCK
 62
     5
 10
539.8769509070444
 20
-1.39253382592301
 30
0.0
 11
564.8083331318821
 21
-1.39253382592301
 31
0.0
  0
POLYLINE
  5
337
  8
回07-寸法
  6
BYBLOCK
 62
     5
 66
     1
 10
0.0
 20
0.0
 30
0.0
  0
VERTEX
  5
640
  8
回07-寸法
  6
BYBLOCK
 62
     5
 10
537.8582341770151
 20
-7.37737357761786
 30
0.0
  0
VERTEX
  5
642
  8
回07-寸法
  6
BYBLOCK
 62
     5
 10
539.8769509070444
 20
-1.39253382592301
 30
0.0
  0
SEQEND
  5
641
  8
0
  6
CONTINUOUS
 62
     1
  0
SOLID
  5
33B
  8
回07-寸法
  6
CONTINUOUS
 62
     5
 10
538.1740835873333
 20
-7.483911181836726
 30
0.0
 11
537.2190085517019
 21
-9.27247003952764
 31
0.0
 12
537.542384766697
 22
-7.270835973398996
 32
0.0
 13
537.542384766697
 23
-7.270835973398996
 33
0.0
  0
ENDBLK
  5
33D
  8
0
  6
CONTINUOUS
 62
     1
  0
BLOCK
  8
0
  2
*X3434
 70
     1
 10
0.0
 20
0.0
 30
0.0
  3
*X3434
  1

  0
INSERT
  5
351
  8
回07-寸法
  6
CONTINUOUS
 62
     5
  2
_OPEN
 10
366.992323917562
 20
-112.002404817832
 30
0.0
 41
2.0
 42
2.0
 43
2.0
 50
77.45506712710859
  0
LINE
  5
352
  8
回07-寸法
  6
CONTINUOUS
 62
     5
 10
366.5579135484092
 20
-113.9546567562796
 30
0.0
 11
365.7809112575848
 21
-117.4465260488987
 31
0.0
  0
LINE
  5
353
  8
回07-寸法
  6
CONTINUOUS
 62
     5
 10
365.7809112575848
 20
-117.4465260488987
 30
0.0
 11
347.0809112575848
 21
-117.4465260488987
 31
0.0
  0
ENDBLK
  5
355
  8
0
  6
CONTINUOUS
 62
     1
  0
BLOCK
  8
0
  2
*X3535
 70
     1
 10
0.0
 20
0.0
 30
0.0
  3
*X3535
  1

  0
INSERT
  5
358
  8
回08-記事
  6
CONTINUOUS
 62
     5
  2
_OPEN
 10
265.1257636851637
 20
22.83489776151691
 30
0.0
 41
2.0
 42
2.0
 43
2.0
 50
287.1628852306494
  0
LINE
  5
359
  8
回08-記事
  6
CONTINUOUS
 62
     5
 10
264.535585319813
 20
24.74583718940886
 30
0.0
 11
261.8032356594799
 21
33.59291631542055
 31
0.0
  0
LINE
  5
35A
  8
回08-記事
  6
CONTINUOUS
 62
     5
 10
261.8032356594799
 20
33.59291631542055
 30
0.0
 11
219.8832356594799
 21
33.59291631542055
 31
0.0
  0
ENDBLK
  5
35C
  8
0
  6
CONTINUOUS
 62
     1
  0
BLOCK
  8
0
  2
*X3636
 70
     1
 10
0.0
 20
0.0
 30
0.0
  3
*X3636
  1

  0
LINE
  5
364
  8
回08-記事
  6
CONTINUOUS
 62
     7
 10
430.9969460129489
 20
64.71217951705053
 30
0.0
 11
431.5903938287934
 21
65.30562733289483
 31
0.0
  0
LINE
  5
365
  8
回08-記事
  6
CONTINUOUS
 62
     7
 10
430.9969460129491
 20
62.46711548678329
 30
0.0
 11
431.5903938287934
 21
63.06056330262753
 31
0.0
  0
LINE
  5
366
  8
回08-記事
  6
CONTINUOUS
 62
     7
 10
430.9969460129489
 20
60.22205145651599
 30
0.0
 11
431.5903938287934
 21
60.81549927236025
 31
0.0
  0
LINE
  5
367
  8
回08-記事
  6
CONTINUOUS
 62
     7
 10
430.9969460129489
 20
57.97698742624872
 30
0.0
 11
431.5903938287934
 21
58.57043524209297
 31
0.0
  0
LINE
  5
368
  8
回08-記事
  6
CONTINUOUS
 62
     7
 10
430.9969460129491
 20
55.73192339598149
 30
0.0
 11
431.5903938287934
 21
56.32537121182576
 31
0.0
  0
LINE
  5
369
  8
回08-記事
  6
CONTINUOUS
 62
     7
 10
430.9969460129489
 20
53.48685936571413
 30
0.0
 11
431.5903938287934
 21
54.08030718155842
 31
0.0
  0
LINE
  5
36A
  8
回08-記事
  6
CONTINUOUS
 62
     7
 10
430.9969460129491
 20
51.24179533544694
 30
0.0
 11
431.5903938287934
 21
51.8352431512912
 31
0.0
  0
LINE
  5
36B
  8
回08-記事
  6
CONTINUOUS
 62
     7
 10
430.9969460129489
 20
48.99673130517964
 30
0.0
 11
431.5903938287934
 21
49.59017912102389
 31
0.0
  0
LINE
  5
36C
  8
回08-記事
  6
CONTINUOUS
 62
     7
 10
430.9969460129489
 20
46.75166727491236
 30
0.0
 11
431.5903938287934
 21
47.34511509075661
 31
0.0
  0
LINE
  5
36D
  8
回08-記事
  6
CONTINUOUS
 62
     7
 10
430.9969460129489
 20
44.50660324464509
 30
0.0
 11
431.5903938287934
 21
45.10005106048935
 31
0.0
  0
LINE
  5
36E
  8
回08-記事
  6
CONTINUOUS
 62
     7
 10
430.9969460129489
 20
42.26153921437782
 30
0.0
 11
431.5903938287933
 21
42.85498703022202
 31
0.0
  0
ENDBLK
  5
370
  8
0
  6
CONTINUOUS
 62
     1
  0
BLOCK
  8
0
  2
*X3737
 70
     1
 10
0.0
 20
0.0
 30
0.0
  3
*X3737
  1

  0
LINE
  5
378
  8
回08-記事
  6
CONTINUOUS
 62
    40
 10
431.4969460129489
 20
23.45398855407929
 30
0.0
 11
431.9800104104984
 21
23.93705295162861
 31
0.0
  0
LINE
  5
379
  8
回08-記事
  6
CONTINUOUS
 62
    40
 10
431.4969460129489
 20
22.55596294197238
 30
0.0
 11
431.9969460129491
 21
23.05596294197238
 31
0.0
  0
LINE
  5
37A
  8
回08-記事
  6
CONTINUOUS
 62
    40
 10
431.4969460129491
 20
21.65793732986547
 30
0.0
 11
431.9969460129491
 21
22.15793732986547
 31
0.0
  0
LINE
  5
37B
  8
回08-記事
  6
CONTINUOUS
 62
    40
 10
431.4969460129491
 20
20.75991171775855
 30
0.0
 11
431.9969460129491
 21
21.25991171775856
 31
0.0
  0
LINE
  5
37C
  8
回08-記事
  6
CONTINUOUS
 62
    40
 10
431.4969460129491
 20
19.8618861056516
 30
0.0
 11
431.9969460129491
 21
20.36188610565157
 31
0.0
  0
LINE
  5
37D
  8
回08-記事
  6
CONTINUOUS
 62
    40
 10
432.0823821483732
 20
19.54929662896872
 30
0.0
 11
432.5823821483732
 21
20.04929662896873
 31
0.0
  0
LINE
  5
37E
  8
回08-記事
  6
CONTINUOUS
 62
    40
 10
432.9804077604801
 20
19.54929662896876
 30
0.0
 11
433.48040776048
 21
20.04929662896876
 31
0.0
  0
LINE
  5
37F
  8
回08-記事
  6
CONTINUOUS
 62
    40
 10
433.4969460129491
 20
19.16780926933073
 30
0.0
 11
433.9969460129491
 21
19.66780926933082
 31
0.0
  0
LINE
  5
380
  8
回08-記事
  6
CONTINUOUS
 62
    40
 10
433.4969460129491
 20
18.26978365722387
 30
0.0
 11
433.9969460129491
 21
18.76978365722387
 31
0.0
  0
LINE
  5
381
  8
回08-記事
  6
CONTINUOUS
 62
    40
 10
433.4969460129491
 20
17.37175804511696
 30
0.0
 11
433.9969460129491
 21
17.87175804511696
 31
0.0
  0
LINE
  5
382
  8
回08-記事
  6
CONTINUOUS
 62
    40
 10
433.4969460129491
 20
16.47373243301005
 30
0.0
 11
433.9969460129491
 21
16.97373243301005
 31
0.0
  0
ENDBLK
  5
384
  8
0
  6
CONTINUOUS
 62
     1
  0
BLOCK
  8
0
  2
*X3838
 70
     1
 10
0.0
 20
0.0
 30
0.0
  3
*X3838
  1

  0
INSERT
  5
387
  8
回07-寸法
  6
CONTINUOUS
 62
     5
  2
_OPEN
 10
377.9201701440651
 20
-105.349878056996
 30
0.0
 41
2.0
 42
2.0
 43
2.0
 50
71.1912061287825
  0
LINE
  5
388
  8
回07-寸法
  6
CONTINUOUS
 62
     5
 10
377.2753481739405
 20
-107.2430776309565
 30
0.0
 11
370.580016281006
 21
-126.900595635157
 31
0.0
  0
LINE
  5
389
  8
回07-寸法
  6
CONTINUOUS
 62
     5
 10
370.580016281006
 20
-126.900595635157
 30
0.0
 11
351.580016281006
 21
-126.900595635157
 31
0.0
  0
ENDBLK
  5
38B
  8
0
  6
CONTINUOUS
 62
     1
  0
BLOCK
  8
0
  2
*X3939
 70
     1
 10
0.0
 20
0.0
 30
0.0
  3
*X3939
  1

  0
INSERT
  5
38E
  8
回07-寸法
  6
CONTINUOUS
 62
     5
  2
_OPEN
 10
260.4181900923945
 20
19.86934401381427
 30
0.0
 41
2.0
 42
2.0
 43
2.0
 50
311.6307595923619
  0
LINE
  5
38F
  8
回07-寸法
  6
CONTINUOUS
 62
     5
 10
259.0895349384542
 20
21.36422711356084
 30
0.0
 11
257.5296332530486
 21
23.11928798083227
 31
0.0
  0
LINE
  5
390
  8
回07-寸法
  6
CONTINUOUS
 62
     5
 10
257.5296332530486
 20
23.11928798083227
 30
0.0
 11
233.1188021474677
 21
23.11928798083227
 31
0.0
  0
ENDBLK
  5
392
  8
0
  6
CONTINUOUS
 62
     1
  0
BLOCK
  8
0
  2
*X4040
 70
     1
 10
0.0
 20
0.0
 30
0.0
  3
*X4040
  1

  0
INSERT
  5
395
  8
回07-寸法
  6
CONTINUOUS
 62
     5
  2
_OPEN
 10
261.2544209857151
 20
24.31940365651025
 30
0.0
 41
2.0
 42
2.0
 43
2.0
 50
329.6133208030397
  0
LINE
  5
396
  8
回07-寸法
  6
CONTINUOUS
 62
     5
 10
259.5291583964494
 20
25.33107010256856
 30
0.0
 11
255.7171854513748
 21
27.56635019605017
 31
0.0
  0
LINE
  5
397
  8
回07-寸法
  6
CONTINUOUS
 62
     5
 10
255.7171854513748
 20
27.56635019605017
 30
0.0
 11
231.6063543457938
 21
27.56635019605017
 31
0.0
  0
ENDBLK
  5
399
  8
0
  6
CONTINUOUS
 62
     1
  0
BLOCK
  8
0
  2
*X4141
 70
     1
 10
0.0
 20
0.0
 30
0.0
  3
*X4141
  1

  0
INSERT
  5
39C
  8
回07-寸法
  6
CONTINUOUS
 62
     5
  2
_OPEN
 10
264.8899391266109
 20
85.61702508795326
 30
0.0
 41
2.0
 42
2.0
 43
2.0
 50
58.3995312422875
  0
LINE
  5
39D
  8
回07-寸法
  6
CONTINUOUS
 62
     5
 10
263.8419533781271
 20
83.91357979356458
 30
0.0
 11
262.3817960452652
 21
81.54017143249722
 31
0.0
  0
LINE
  5
39E
  8
回07-寸法
  6
CONTINUOUS
 62
     5
 10
262.3817960452652
 20
81.54017143249722
 30
0.0
 11
258.0817960452652
 21
81.54017143249722
 31
0.0
  0
ENDBLK
  5
3A0
  8
0
  6
CONTINUOUS
 62
     1
  0
BLOCK
  8
0
  2
*X4242
 70
     1
 10
0.0
 20
0.0
 30
0.0
  3
*X4242
  1

  0
LINE
  5
3CB
  8
回08-記事
  6
CONTINUOUS
 62
     8
 10
266.6197688176737
 20
67.47079215873077
 30
0.0
 11
268.4917625404533
 21
69.3427858815103
 31
0.0
  0
LINE
  5
3CC
  8
回08-記事
  6
CONTINUOUS
 62
     8
 10
266.6197688176737
 20
64.81914172928123
 30
0.0
 11
271.047377103148
 21
69.24675001475548
 31
0.0
  0
LINE
  5
3CD
  8
回08-記事
  6
CONTINUOUS
 62
     8
 10
266.6197688176737
 20
62.1674912998317
 30
0.0
 11
271.6197688176738
 21
67.1674912998317
 31
0.0
  0
LINE
  5
3CE
  8
回08-記事
  6
CONTINUOUS
 62
     8
 10
266.6197688176737
 20
59.51584087038209
 30
0.0
 11
271.6197688176738
 21
64.51584087038213
 31
0.0
  0
LINE
  5
3CF
  8
回08-記事
  6
CONTINUOUS
 62
     8
 10
266.6197688176737
 20
56.86419044093253
 30
0.0
 11
271.6197688176738
 21
61.86419044093256
 31
0.0
  0
LINE
  5
3D0
  8
回08-記事
  6
CONTINUOUS
 62
     8
 10
266.6197688176737
 20
54.21254001148303
 30
0.0
 11
271.6197688176738
 21
59.21254001148307
 31
0.0
  0
LINE
  5
3D1
  8
回08-記事
  6
CONTINUOUS
 62
     8
 10
266.6197688176737
 20
51.5608895820335
 30
0.0
 11
271.6197688176738
 21
56.5608895820335
 31
0.0
  0
LINE
  5
3D2
  8
回08-記事
  6
CONTINUOUS
 62
     8
 10
266.6197688176737
 20
48.90923915258395
 30
0.0
 11
271.6197688176738
 21
53.90923915258395
 31
0.0
  0
LINE
  5
3D3
  8
回08-記事
  6
CONTINUOUS
 62
     8
 10
266.6197688176737
 20
46.25758872313443
 30
0.0
 11
271.6197688176738
 21
51.25758872313443
 31
0.0
  0
LINE
  5
3D4
  8
回08-記事
  6
CONTINUOUS
 62
     8
 10
266.7934353144015
 20
43.77960479041263
 30
0.0
 11
271.6197688176738
 21
48.60593829368486
 31
0.0
  0
LINE
  5
3D5
  8
回08-記事
  6
CONTINUOUS
 62
     8
 10
269.0082668349487
 20
43.34278588151028
 30
0.0
 11
271.6197688176738
 21
45.95428786423532
 31
0.0
  0
ENDBLK
  5
3D7
  8
0
  6
CONTINUOUS
 62
     1
  0
BLOCK
  8
0
  2
*X4343
 70
     1
 10
0.0
 20
0.0
 30
0.0
  3
*X4343
  1

  0
LINE
  5
3E3
  8
回08-記事
  6
CONTINUOUS
 62
     8
 10
274.6778786384755
 20
23.94160494740412
 30
0.0
 11
276.5814621572858
 21
22.0380214285938
 31
0.0
  0
LINE
  5
3E4
  8
回08-記事
  6
CONTINUOUS
 62
     8
 10
272.4328146082083
 20
23.94160494740411
 30
0.0
 11
276.5814621572858
 21
19.79295739832653
 31
0.0
  0
LINE
  5
3E5
  8
回08-記事
  6
CONTINUOUS
 62
     8
 10
270.187750577941
 20
23.94160494740411
 30
0.0
 11
276.5814621572858
 21
17.54789336805927
 31
0.0
  0
LINE
  5
3E6
  8
回08-記事
  6
CONTINUOUS
 62
     8
 10
267.9426865476738
 20
23.94160494740409
 30
0.0
 11
275.6341695520739
 21
16.25012194300392
 31
0.0
  0
LINE
  5
3E7
  8
回08-記事
  6
CONTINUOUS
 62
     8
 10
265.6976225174064
 20
23.94160494740412
 30
0.0
 11
273.3891055218066
 21
16.25012194300393
 31
0.0
  0
LINE
  5
3E8
  8
回08-記事
  6
CONTINUOUS
 62
     8
 10
263.4525584871392
 20
23.94160494740411
 30
0.0
 11
271.1440414915395
 21
16.25012194300392
 31
0.0
  0
LINE
  5
3E9
  8
回08-記事
  6
CONTINUOUS
 62
     8
 10
261.7787793448699
 20
23.37032005940609
 30
0.0
 11
268.8989774612721
 21
16.25012194300392
 31
0.0
  0
LINE
  5
3EA
  8
回08-記事
  6
CONTINUOUS
 62
     8
 10
261.7787793448699
 20
21.12525602913882
 30
0.0
 11
266.6539134310048
 21
16.25012194300395
 31
0.0
  0
LINE
  5
3EB
  8
回08-記事
  6
CONTINUOUS
 62
     8
 10
261.7787793448699
 20
18.88019199887155
 30
0.0
 11
264.4088494007375
 21
16.25012194300393
 31
0.0
  0
LINE
  5
3EC
  8
回08-記事
  6
CONTINUOUS
 62
     8
 10
261.7787793448699
 20
16.63512796860429
 30
0.0
 11
262.1637853704703
 21
16.25012194300392
 31
0.0
  0
ENDBLK
  5
3EE
  8
0
  6
CONTINUOUS
 62
     1
  0
BLOCK
  8
0
  2
*X4444
 70
     1
 10
0.0
 20
0.0
 30
0.0
  3
*X4444
  1

  0
INSERT
  5
3F6
  8
回08-記事
  6
CONTINUOUS
 62
     5
  2
_OPEN
 10
429.492107634585
 20
87.72507586349798
 30
0.0
 41
2.0
 42
2.0
 43
2.0
 50
299.8053168546322
  0
LINE
  5
3F7
  8
回08-記事
  6
CONTINUOUS
 62
     5
 10
428.4979986654088
 20
89.46051452775662
 30
0.0
 11
425.0021362272813
 21
95.56332118997309
 31
0.0
  0
LINE
  5
3F8
  8
回08-記事
  6
CONTINUOUS
 62
     5
 10
425.0021362272813
 20
95.56332118997309
 30
0.0
 11
395.8021362272813
 21
95.56332118997309
 31
0.0
  0
ENDBLK
  5
3FA
  8
0
  6
CONTINUOUS
 62
     1
  0
BLOCK
  8
0
  2
*X4545
 70
     1
 10
0.0
 20
0.0
 30
0.0
  3
*X4545
  1

  0
INSERT
  5
3FD
  8
回07-寸法
  6
CONTINUOUS
 62
     5
  2
_OPEN
 10
271.0391740538744
 20
64.94663025423256
 30
0.0
 41
2.0
 42
2.0
 43
2.0
 50
229.6941333742617
  0
LINE
  5
3FE
  8
回07-寸法
  6
CONTINUOUS
 62
     5
 10
272.3329097882863
 20
66.47183445351399
 30
0.0
 11
273.7618696291924
 21
68.1564563527038
 31
0.0
  0
LINE
  5
3FF
  8
回07-寸法
  6
CONTINUOUS
 62
     5
 10
273.7618696291924
 20
68.1564563527038
 30
0.0
 11
295.4618696291925
 21
68.1564563527038
 31
0.0
  0
ENDBLK
  5
401
  8
0
  6
CONTINUOUS
 62
     1
  0
BLOCK
  8
0
  2
*X4646
 70
     1
 10
0.0
 20
0.0
 30
0.0
  3
*X4646
  1

  0
INSERT
  5
404
  8
回08-記事
  6
CONTINUOUS
 62
     5
  2
_OPEN
 10
431.5903938287934
 20
47.90628670630893
 30
0.0
 41
2.0
 42
2.0
 43
2.0
 50
117.2148660909991
  0
LINE
  5
405
  8
回08-記事
  6
CONTINUOUS
 62
     5
 10
432.5050511920531
 20
46.12769121889915
 30
0.0
 11
434.5869996269138
 21
42.07924177760742
 31
0.0
  0
LINE
  5
406
  8
回08-記事
  6
CONTINUOUS
 62
     5
 10
434.5869996269138
 20
42.07924177760742
 30
0.0
 11
456.2869996269139
 21
42.07924177760742
 31
0.0
  0
ENDBLK
  5
408
  8
0
  6
CONTINUOUS
 62
     1
  0
BLOCK
  8
0
  2
*X4747
 70
     1
 10
0.0
 20
0.0
 30
0.0
  3
*X4747
  1

  0
TEXT
  5
40B
  8
回07-寸法
  6
CONTINUOUS
 62
     5
 10
437.5469460129491
 20
-120.1372896882613
 30
0.0
 40
3.0
  1
1.4
  0
TEXT
  5
40C
  8
回07-寸法
  6
CONTINUOUS
 62
     5
 10
442.3469460129491
 20
-120.1372896882613
 30
0.0
 40
2.000099999999999
  1
±0.2
  0
TEXT
  5
40D
  8
回07-寸法
  6
CONTINUOUS
 62
     5
 10
447.1471860129491
 20
-120.1372896882613
 30
0.0
 40
3.0
  1
[0.055
  0
TEXT
  5
40E
  8
回07-寸法
  6
CONTINUOUS
 62
     5
 10
457.6471860129491
 20
-120.1372896882613
 30
0.0
 40
2.00001
  1
±0.008
  0
TEXT
  5
40F
  8
回07-寸法
  6
CONTINUOUS
 62
     5
 10
465.247224012949
 20
-120.1372896882613
 30
0.0
 40
3.0
  1
]
  0
ENDBLK
  5
411
  8
0
  6
CONTINUOUS
 62
     1
  0
BLOCK
  8
0
  2
*X4848
 70
     1
 10
0.0
 20
0.0
 30
0.0
  3
*X4848
  1

  0
TEXT
  5
414
  8
回07-寸法
  6
CONTINUOUS
 62
     5
 10
436.2493082176735
 20
97.32366964837559
 30
0.0
 40
3.0
  1
0.3
  0
TEXT
  5
415
  8
回07-寸法
  6
CONTINUOUS
 62
     5
 10
441.3493082176734
 20
97.32366964837559
 30
0.0
 40
2.000099999999999
  1
±0.05
  0
TEXT
  5
416
  8
回07-寸法
  6
CONTINUOUS
 62
     5
 10
447.5496182176734
 20
97.32366964837559
 30
0.0
 40
3.0
  1
[0.012
  0
TEXT
  5
417
  8
回07-寸法
  6
CONTINUOUS
 62
     5
 10
457.4496182176733
 20
97.32366964837559
 30
0.0
 40
2.00001
  1
±0.002
  0
TEXT
  5
418
  8
回07-寸法
  6
CONTINUOUS
 62
     5
 10
465.0496562176733
 20
97.32366964837559
 30
0.0
 40
3.0
  1
]
  0
ENDBLK
  5
41A
  8
0
  6
CONTINUOUS
 62
     1
  0
BLOCK
  8
0
  2
*X4949
 70
     1
 10
0.0
 20
0.0
 30
0.0
  3
*X4949
  1

  0
TEXT
  5
41D
  8
回07-寸法
  6
CONTINUOUS
 62
     5
 10
276.2037855653427
 20
-138.7594551927036
 30
0.0
 40
3.0
  1
153.8 [6.055] 
  0
TEXT
  5
41E
  8
回07-寸法
  6
CONTINUOUS
 62
     5
 10
300.2037855653427
 20
-138.7594551927036
 30
0.0
 40
2.000099999999999
  1
(Active area)
  0
ENDBLK
  5
420
  8
0
  6
CONTINUOUS
 62
     1
  0
BLOCK
  8
0
  2
*X5050
 70
     1
 10
0.0
 20
0.0
 30
0.0
  3
*X5050
  1

  0
TEXT
  5
423
  8
回07-寸法
  6
CONTINUOUS
 62
     5
 10
275.6537505653426
 20
-143.1479491762979
 30
0.0
 40
3.0
  1
155.8 [6.134] 
  0
TEXT
  5
424
  8
回07-寸法
  6
CONTINUOUS
 62
     5
 10
299.3537505653427
 20
-143.1479491762979
 30
0.0
 40
2.000099999999999
  1
(Viewing area)
  0
ENDBLK
  5
426
  8
0
  6
CONTINUOUS
 62
     1
  0
BLOCK
  8
0
  2
*X5151
 70
     1
 10
0.0
 20
0.0
 30
0.0
  3
*X5151
  1

  0
TEXT
  5
429
  8
回07-寸法
  6
CONTINUOUS
 62
     5
 10
280.4287793448702
 20
-153.0656875406083
 30
0.0
 40
3.0
  1
168
  0
TEXT
  5
42A
  8
回07-寸法
  6
CONTINUOUS
 62
     5
 10
286.1287793448702
 20
-153.0656875406083
 30
0.0
 40
2.1
  1
±0.3
  0
TEXT
  5
42B
  8
回07-寸法
  6
CONTINUOUS
 62
     5
 10
291.1687793448702
 20
-153.0656875406083
 30
0.0
 40
3.0
  1
 [6.614
  0
TEXT
  5
42C
  8
回07-寸法
  6
CONTINUOUS
 62
     5
 10
303.1687793448702
 20
-153.0656875406083
 30
0.0
 40
2.1
  1
±0.012
  0
TEXT
  5
42D
  8
回07-寸法
  6
CONTINUOUS
 62
     5
 10
310.7287793448703
 20
-153.0656875406083
 30
0.0
 40
3.0
  1
]
  0
ENDBLK
  5
42F
  8
0
  6
CONTINUOUS
 62
     1
  0
BLOCK
  8
0
  2
*X5252
 70
     1
 10
0.0
 20
0.0
 30
0.0
  3
*X5252
  1

  0
TEXT
  5
432
  8
回07-寸法
  6
CONTINUOUS
 62
     5
 10
391.6214272887326
 20
-66.56021483333393
 30
0.0
 40
3.0
  1
115.8 [4.559] 
 50
90.0
  0
TEXT
  5
433
  8
回07-寸法
  6
CONTINUOUS
 62
     5
 10
391.6214272887326
 20
-42.84938372775298
 30
0.0
 40
2.000099999999999
  1
(Active area)
 50
90.0
  0
ENDBLK
  5
435
  8
0
  6
CONTINUOUS
 62
     1
  0
BLOCK
  8
0
  2
*X5353
 70
     1
 10
0.0
 20
0.0
 30
0.0
  3
*X5353
  1

  0
TEXT
  5
438
  8
回07-寸法
  6
CONTINUOUS
 62
     5
 10
397.4974090886608
 20
-65.78266470999364
 30
0.0
 40
3.0
  1
117.8 [4.638] 
 50
90.0
  0
TEXT
  5
439
  8
回07-寸法
  6
CONTINUOUS
 62
     5
 10
397.4974090886608
 20
-42.08266470999364
 30
0.0
 40
2.000099999999999
  1
(Viewing area)
 50
90.0
  0
ENDBLK
  5
43B
  8
0
  6
CONTINUOUS
 62
     1
  0
BLOCK
  8
0
  2
*X5454
 70
     1
 10
0.0
 20
0.0
 30
0.0
  3
*X5454
  1

  0
TEXT
  5
43E
  8
回07-寸法
  6
CONTINUOUS
 62
     5
 10
414.8327891895529
 20
-61.23109466498174
 30
0.0
 40
3.0
  1
132
 50
90.0
  0
TEXT
  5
43F
  8
回07-寸法
  6
CONTINUOUS
 62
     5
 10
414.8327891895529
 20
-55.53109466498177
 30
0.0
 40
2.1
  1
±0.3
 50
90.0
  0
TEXT
  5
440
  8
回07-寸法
  6
CONTINUOUS
 62
     5
 10
414.8327891895529
 20
-50.49109466498174
 30
0.0
 40
3.0
  1
 [5.197
 50
90.0
  0
TEXT
  5
441
  8
回07-寸法
  6
CONTINUOUS
 62
     5
 10
414.8327891895529
 20
-38.78026355940079
 30
0.0
 40
2.1
  1
±0.012
 50
90.0
  0
TEXT
  5
442
  8
回07-寸法
  6
CONTINUOUS
 62
     5
 10
414.8327891895529
 20
-31.22026355940079
 30
0.0
 40
3.0
  1
]
 50
90.0
  0
ENDBLK
  5
444
  8
0
  6
CONTINUOUS
 62
     1
  0
BLOCK
  8
0
  2
*X5555
 70
     1
 10
0.0
 20
0.0
 30
0.0
  3
*X5555
  1

  0
TEXT
  5
447
  8
回07-寸法
  6
CONTINUOUS
 62
     5
 10
320.9671435280176
 20
37.42320582924175
 30
0.0
 40
3.0
  1
70
 50
90.0
  0
TEXT
  5
448
  8
回07-寸法
  6
CONTINUOUS
 62
     5
 10
320.9671435280176
 20
41.62320582924173
 30
0.0
 40
2.1
  1
±1
 50
90.0
  0
TEXT
  5
449
  8
回07-寸法
  6
CONTINUOUS
 62
     5
 10
320.9671435280176
 20
44.14320582924172
 30
0.0
 40
3.0
  1
 [2.756
 50
90.0
  0
TEXT
  5
44A
  8
回07-寸法
  6
CONTINUOUS
 62
     5
 10
320.9671435280176
 20
56.44320582924171
 30
0.0
 40
2.1
  1
±0.039
 50
90.0
  0
TEXT
  5
44B
  8
回07-寸法
  6
CONTINUOUS
 62
     5
 10
320.9671435280176
 20
64.43078760314836
 30
0.0
 40
3.0
  1
]
 50
90.0
  0
ENDBLK
  5
44D
  8
0
  6
CONTINUOUS
 62
     1
  0
BLOCK
  8
0
  2
*X5656
 70
     1
 10
0.0
 20
0.0
 30
0.0
  3
*X5656
  1

  0
TEXT
  5
450
  8
回07-寸法
 62
     5
 10
487.808287379924
 20
8.634861535164782
 30
0.0
 40
3.0
  1
3.75
  0
TEXT
  5
451
  8
回07-寸法
 62
     5
 10
495.008287379924
 20
8.634861535164782
 30
0.0
 40
2.00001
  1
±0.1
  0
TEXT
  5
452
  8
回07-寸法
 62
     5
 10
499.408309379924
 20
8.634861535164782
 30
0.0
 40
3.0
  1
[0.148
  0
TEXT
  5
453
  8
回07-寸法
 62
     5
 10
509.6083093799238
 20
8.634861535164782
 30
0.0
 40
2.00001
  1
±0.004
  0
TEXT
  5
454
  8
回07-寸法
 62
     5
 10
517.4083483799238
 20
8.634861535164782
 30
0.0
 40
3.0
  1
]
  0
ENDBLK
  5
456
  8
0
  6
CONTINUOUS
 62
     1
  0
BLOCK
  8
0
  2
*X5757
 70
     1
 10
0.0
 20
0.0
 30
0.0
  3
*X5757
  1

  0
TEXT
  5
459
  8
回07-寸法
 62
     5
 10
487.5976293313922
 20
3.979272411997408
 30
0.0
 40
3.0
  1
1.25
  0
TEXT
  5
45A
  8
回07-寸法
 62
     5
 10
494.1976293313921
 20
3.979272411997408
 30
0.0
 40
2.00001
  1
±0.2
  0
TEXT
  5
45B
  8
回07-寸法
 62
     5
 10
498.9976533313922
 20
3.979272411997408
 30
0.0
 40
3.0
  1
[0.049
  0
TEXT
  5
45C
  8
回07-寸法
 62
     5
 10
509.8084844369731
 20
3.979272411997408
 30
0.0
 40
2.00001
  1
±0.008
  0
TEXT
  5
45D
  8
回07-寸法
 62
     5
 10
517.4085224369731
 20
3.979272411997408
 30
0.0
 40
3.0
  1
]
  0
ENDBLK
  5
45F
  8
0
  6
CONTINUOUS
 62
     1
  0
BLOCK
  8
0
  2
*X5858
 70
     1
 10
0.0
 20
0.0
 30
0.0
  3
*X5858
  1

  0
TEXT
  5
462
  8
回07-寸法
 62
     5
 10
479.4082873799243
 20
-2.424381821529641
 30
0.0
 40
3.0
  1
4-0.7
  0
TEXT
  5
463
  8
回07-寸法
 62
     5
 10
489.0082873799243
 20
-2.424381821529641
 30
0.0
 40
2.00001
  1
±0.1
  0
TEXT
  5
464
  8
回07-寸法
 62
     5
 10
493.4083093799243
 20
-2.424381821529641
 30
0.0
 40
3.0
  1
[4-0.028
  0
TEXT
  5
465
  8
回07-寸法
 62
     5
 10
508.4083093799241
 20
-2.424381821529641
 30
0.0
 40
2.00001
  1
±0.004
  0
TEXT
  5
466
  8
回07-寸法
 62
     5
 10
516.2083483799241
 20
-2.424381821529641
 30
0.0
 40
3.0
  1
]
  0
ENDBLK
  5
468
  8
0
  6
CONTINUOUS
 62
     1
  0
BLOCK
  8
0
  2
*X5959
 70
     1
 10
0.0
 20
0.0
 30
0.0
  3
*X5959
  1

  0
TEXT
  5
46B
  8
回07-寸法
 62
     5
 10
483.1683066003946
 20
14.3756838992273
 30
0.0
 40
3.0
  1
6.25
  0
TEXT
  5
46C
  8
回07-寸法
 62
     5
 10
490.3683066003946
 20
14.3756838992273
 30
0.0
 40
2.000099999999999
  1
±0.2
  0
TEXT
  5
46D
  8
回07-寸法
 62
     5
 10
495.1685466003945
 20
14.3756838992273
 30
0.0
 40
3.0
  1
[0.246
  0
TEXT
  5
46E
  8
回07-寸法
 62
     5
 10
505.9685466003947
 20
14.3756838992273
 30
0.0
 40
2.00001
  1
±0.008
  0
TEXT
  5
46F
  8
回07-寸法
 62
     5
 10
513.5685846003946
 20
14.3756838992273
 30
0.0
 40
3.0
  1
]
  0
ENDBLK
  5
471
  8
0
  6
CONTINUOUS
 62
     1
  0
ENDSEC
  0
SECTION
  2
ENTITIES
  0
TEXT
  5
5B
  8
回03-記事
  6
CONTINUOUS
 62
     5
 10
458.5023365793097
 20
-154.4169893666336
 30
0.0
 40
3.456
  1
without affecting product specification.
  0
TEXT
  5
5D
  8
回03-記事
  6
CONTINUOUS
 62
     5
 10
458.5023365793097
 20
-148.3548012524097
 30
0.0
 40
3.456
  1
Edges and corners of ITO glass may be chamfered 
  0
TEXT
  5
5E
  8
回03-記事
  6
CONTINUOUS
 62
     5
 10
458.5023365793097
 20
-142.2926131381858
 30
0.0
 40
3.456
  1
Unit: mm
  0
TEXT
  5
5F
  8
回03-記事
  6
CONTINUOUS
 62
     5
 10
458.5023365793097
 20
-136.230425023962
 30
0.0
 40
3.456
  1
EXCEPT WHERE INDICATED
  0
TEXT
  5
60
  8
回03-記事
  6
CONTINUOUS
 62
     5
 10
458.5023365793097
 20
-130.1682369097382
 30
0.0
 40
3.456
  1
TOLERANCE=±0.5mm
  0
TEXT
  5
61
  8
回07-寸法
  6
CONTINUOUS
 62
     5
 10
541.1154277292608
 20
-0.9148160278448358
 30
0.0
 40
3.0
  1
2-R0.5[R0.020]
  0
INSERT
  5
65
  8
0
  6
CONTINUOUS
 62
     1
 66
     1
  2
*X3333
 10
0.0
 20
0.0
 30
0.0
1001
ACAD_MLEADERVER
1070
     2
  0
SEQEND
  5
33E
  8
0
  6
CONTINUOUS
 62
     1
  0
TEXT
  5
67
  8
回90-枠3
 10
548.9744717051629
 20
-169.756407775577
 30
0.0
 40
3.0
  1
Sep/25/2023
  0
TEXT
  5
6B
  8
回90-枠3
 10
555.5315719742655
 20
-164.1085155500401
 30
0.0
 40
2.5
  1
DATE
  0
LINE
  5
6C
  8
回90-枠3
  6
CONTINUOUS
 62
     7
 10
540.6884144324009
 20
-160.4021555028938
 30
0.0
 11
540.6884144324009
 21
-183.3348036588273
 31
0.0
  0
TEXT
  5
6D
  8
回90-枠3
 10
545.409826895677
 20
-180.5276887283145
 30
0.0
 40
4.0
  1
DMC Co., Ltd.
  0
TEXT
  5
6E
  8
回90-枠3
 10
503.7433559952358
 20
-164.173983664264
 30
0.0
 40
2.5
  1
PART No.
  0
TEXT
  5
6F
  8
回90-枠3
 10
504.0053033079181
 20
-175.1567486328068
 30
0.0
 40
2.5
  1
TYPE
  0
TEXT
  5
70
  8
回90-枠3
 10
489.819885760847
 20
-179.162316097004
 30
0.0
 40
2.5
  1
STANDARD TOUCHSCREEN
  0
LINE
  5
71
  8
回90-枠3
 10
476.4187898017126
 20
-160.4021555028938
 30
0.0
 11
476.4187898017126
 21
-183.268078522576
 31
0.0
  0
TEXT
  5
72
  8
回90-枠3
 10
491.6922197184701
 20
-182.5464475186032
 30
0.0
 40
2.5
  1
DIMENSIONAL DRAWING
  0
LINE
  5
73
  8
回90-枠3
 10
487.7203454069752
 20
-179.5042854549682
 30
0.0
 11
534.0496159543468
 21
-179.5042854549682
 31
0.0
  0
LINE
  5
74
  8
回90-枠3
 10
476.4187898017126
 20
-164.6631350833767
 30
0.0
 11
579.6769078390197
 21
-164.6631350833767
 31
0.0
  0
LINE
  5
75
  8
回90-枠3
 10
476.4323962590458
 20
-175.6662257593012
 30
0.0
 11
540.6884144324009
 21
-175.6662257593012
 31
0.0
  0
LINE
  5
76
  8
回90-枠3
 10
476.4187898017126
 20
-160.4021555028938
 30
0.0
 11
579.8369143460872
 21
-160.4021555028938
 31
0.0
  0
LINE
  5
77
  8
回90-枠3
 10
476.4178613885617
 20
-171.9452373451744
 30
0.0
 11
579.7251138123595
 21
-171.9452373451744
 31
0.0
  0
TEXT
  5
78
  8
回90-枠3
 10
484.373014334403
 20
-171.2079226562072
 30
0.0
 40
5.0
  1
AST-075A070A
  0
DIMENSION
  5
79
  8
回07-寸法
  6
CONTINUOUS
 62
     7
  2
*D3232
 10
405.2365342115764
 20
13.25012194300401
 30
0.0
 11
405.2365342115763
 21
34.24894084064169
 31
0.0
 70
   128
  1
(<>)
  3
DMC
 13
380.1787793448702
 23
19.550121943004
 33
0.0
 14
374.5787793448702
 24
13.250121943004
 34
0.0
 50
90.0
1001
ACAD
1000
DSTYLE
1002
{
1070
   371
1070
     9
1070
   372
1070
     9
1002
}
  0
DIMENSION
  5
89
  8
回07-寸法
  6
CONTINUOUS
 62
     7
  2
*D3131
 10
405.2365342115764
 20
-112.449878056996
 30
0.0
 11
405.2365342115763
 21
-126.0396418365237
 31
0.0
 70
   128
  3
DMC
 13
374.5787793448702
 23
-106.149878056996
 33
0.0
 14
380.1787793448702
 24
-112.449878056996
 34
0.0
 50
90.0
1001
ACAD
1000
DSTYLE
1002
{
1070
   371
1070
     9
1070
   372
1070
     9
1002
}
  0
DIMENSION
  5
98
  8
回07-寸法
  6
CONTINUOUS
 62
     7
  2
*D3030
 10
405.2365342115765
 20
-106.149878056996
 30
0.0
 11
403.0865342115764
 21
-46.44987805699612
 31
0.0
 70
     0
  3
DMC
 13
374.5787793448702
 23
13.250121943004
 33
0.0
 14
374.5787793448702
 24
-106.149878056996
 34
0.0
 50
90.0
1001
ACAD
1000
DSTYLE
1002
{
1070
   371
1070
     9
1070
   372
1070
     9
1002
}
  0
TEXT
  5
A5
  8
回07-寸法
  6
CONTINUOUS
 62
     7
 10
409.1999894932879
 20
-132.0392985271498
 30
0.0
 40
2.5
  1
(INSULATION AREA)
 50
90.0
  0
TEXT
  5
A6
  8
回07-寸法
  6
CONTINUOUS
 62
     7
 10
408.9051531699966
 20
23.50859840078192
 30
0.0
 40
3.0
  1
(INSULATION AREA)
 50
90.0
  0
TEXT
  5
A7
  8
回07-寸法
  6
CONTINUOUS
 62
     7
 10
406.0214304887276
 20
-153.6826436235194
 30
0.0
 40
3.0
  1
(INSULATION AREA)
  0
TEXT
  5
A8
  8
回07-寸法
  6
CONTINUOUS
 62
     7
 10
173.0740122662303
 20
-153.1573607654513
 30
0.0
 40
3.0
  1
(INSULATION AREA)
  0
DIMENSION
  5
A9
  8
回07-寸法
  6
CONTINUOUS
 62
     7
  2
*D2929
 10
380.1787793448702
 20
-149.4156875406083
 30
0.0
 11
416.5588109904538
 21
-149.4156875406083
 31
0.0
 70
   128
  1
(<>)
  3
DMC
 13
374.5787793448702
 23
-106.149878056996
 33
0.0
 14
380.1787793448702
 24
-112.449878056996
 34
0.0
1001
ACAD
1000
DSTYLE
1002
{
1070
   371
1070
     9
1070
   372
1070
     9
1002
}
  0
DIMENSION
  5
B8
  8
回07-寸法
  6
CONTINUOUS
 62
     7
  2
*D2828
 10
374.5787793448702
 20
-149.4156875406083
 30
0.0
 11
296.1787793448702
 21
-149.4156875406083
 31
0.0
 70
   128
  3
DMC
 13
217.7787793448702
 23
-106.149878056996
 33
0.0
 14
374.5787793448702
 24
-106.149878056996
 34
0.0
1001
ACAD
1000
DSTYLE
1002
{
1070
   371
1070
     9
1070
   372
1070
     9
1002
}
  0
DIMENSION
  5
C5
  8
回07-寸法
  6
CONTINUOUS
 62
     7
  2
*D2727
 10
217.7787793448702
 20
-149.4156875406083
 30
0.0
 11
198.8287793448702
 21
-149.4156875406083
 31
0.0
 70
   128
  3
DMC
 13
212.1787793448702
 23
-112.449878056996
 33
0.0
 14
217.7787793448702
 24
-106.149878056996
 34
0.0
1001
ACAD
1000
DSTYLE
1002
{
1070
   371
1070
     9
1070
   372
1070
     9
1002
}
  0
POLYLINE
  5
D4
  8
回08-記事
  6
DASHED2
 62
     7
 66
     1
 10
0.0
 20
0.0
 30
0.0
 70
     1
  0
VERTEX
  5
5EF
  8
回08-記事
  6
DASHED2
 62
     7
 10
217.7787793448702
 20
13.250121943004
 30
0.0
  0
VERTEX
  5
5F1
  8
回08-記事
  6
DASHED2
 62
     7
 10
374.5787793448702
 20
13.250121943004
 30
0.0
  0
VERTEX
  5
5F2
  8
回08-記事
  6
DASHED2
 62
     7
 10
374.5787793448702
 20
-106.149878056996
 30
0.0
  0
VERTEX
  5
5F3
  8
回08-記事
  6
DASHED2
 62
     7
 10
217.7787793448702
 20
-106.149878056996
 30
0.0
  0
SEQEND
  5
5F0
  8
0
  6
CONTINUOUS
 62
     1
  0
TEXT
  5
D9
  8
回08-記事
  6
CONTINUOUS
 62
     7
 10
515.9112583802574
 20
-8.156157887220615
 30
0.0
 40
3.0
  1
1
  0
TEXT
  5
DA
  8
回08-記事
  6
CONTINUOUS
 62
     7
 10
538.7661172332801
 20
-8.133264931431796
 30
0.0
 40
3.0
  1
4
  0
DIMENSION
  5
DB
  8
回07-寸法
 62
     5
  2
*D2626
 10
537.6583483799221
 20
13.72568389922731
 30
0.0
 11
498.9684456003947
 21
13.72568389922731
 31
0.0
 70
   128
  1
6.25{\H0.6667x;±0.2}[0.246{\H0.66667x;±0.008}]
  3
KOUSA
 13
518.9083483799221
 23
-10.33313021130743
 33
0.0
 14
537.6583483799221
 24
-10.33313021130743
 34
0.0
1001
ACAD
1000
DSTYLE
1002
{
1070
    71
1070
     0
1070
   140
1040
4.0
1070
   288
1070
     0
1070
   341
1005
0
1070
   371
1070
     9
1070
   372
1070
     9
1002
}
  0
ARC
  5
ED
  8
回08-記事
  6
CONTINUOUS
 62
     8
 10
536.1583483799221
 20
-10.33313021130746
 30
0.0
 40
1.5
 50
0.0
 51
89.99999999999998
  0
POLYLINE
  5
EE
  8
回08-記事
  6
CONTINUOUS
 62
     8
 66
     1
 10
0.0
 20
0.0
 30
0.0
 40
2.399999999999999
 41
2.399999999999999
  0
VERTEX
  5
5F4
  8
回08-記事
  6
CONTINUOUS
 62
     8
 10
526.408348379924
 20
-8.833130211307434
 30
0.0
  0
VERTEX
  5
5F6
  8
回08-記事
  6
CONTINUOUS
 62
     8
 10
526.408348379924
 20
-23.83313021130744
 30
0.0
  0
SEQEND
  5
5F5
  8
0
  6
CONTINUOUS
 62
     1
  0
LINE
  5
EF
  8
回08-記事
  6
CENTER2
 62
     1
 10
526.408348379924
 20
-6.173441912327689
 30
0.0
 11
526.408348379924
 21
-27.14844457378239
 31
0.0
  0
POLYLINE
  5
F1
  8
回08-記事
  6
CONTINUOUS
 62
     8
 66
     1
 10
0.0
 20
0.0
 30
0.0
 40
2.399999999999999
 41
2.399999999999999
  0
VERTEX
  5
5F7
  8
回08-記事
  6
CONTINUOUS
 62
     8
 10
530.158348379923
 20
-8.833130211307434
 30
0.0
  0
VERTEX
  5
5F9
  8
回08-記事
  6
CONTINUOUS
 62
     8
 10
530.158348379923
 20
-23.83313021130744
 30
0.0
  0
SEQEND
  5
5F8
  8
0
  6
CONTINUOUS
 62
     1
  0
POLYLINE
  5
F2
  8
回08-記事
  6
CONTINUOUS
 62
     8
 66
     1
 10
0.0
 20
0.0
 30
0.0
 40
2.399999999999999
 41
2.399999999999999
  0
VERTEX
  5
5FA
  8
回08-記事
  6
CONTINUOUS
 62
     8
 10
533.9083483799241
 20
-8.833130211307434
 30
0.0
  0
VERTEX
  5
5FC
  8
回08-記事
  6
CONTINUOUS
 62
     8
 10
533.9083483799241
 20
-23.83313021130744
 30
0.0
  0
SEQEND
  5
5FB
  8
0
  6
CONTINUOUS
 62
     1
  0
LINE
  5
F3
  8
回08-記事
  6
CONTINUOUS
 62
     8
 10
537.6583483799221
 20
-10.33313021130743
 30
0.0
 11
537.6583483799221
 21
-36.93377117169075
 31
0.0
  0
LINE
  5
F4
  8
回08-記事
  6
CENTER2
 62
     1
 10
533.9083483799241
 20
-6.173441912327689
 30
0.0
 11
533.9083483799241
 21
-27.14844457378239
 31
0.0
  0
ARC
  5
F5
  8
回08-記事
  6
CONTINUOUS
 62
     8
 10
520.4083483799221
 20
-10.33313021130743
 30
0.0
 40
1.5
 50
89.99999999999998
 51
180.0
  0
LINE
  5
F6
  8
回08-記事
  6
CONTINUOUS
 62
     8
 10
518.9083483799221
 20
-10.33313021130743
 30
0.0
 11
518.9083483799221
 21
-36.93377117169075
 31
0.0
  0
LINE
  5
F7
  8
回08-記事
  6
CENTER2
 62
     1
 10
522.658348379924
 20
-6.173441912327689
 30
0.0
 11
522.658348379924
 21
-27.14844457378239
 31
0.0
  0
LINE
  5
F8
  8
回08-記事
  6
CONTINUOUS
 62
     8
 10
537.6583483799221
 20
-23.83313021130744
 30
0.0
 11
518.9083483799221
 21
-23.83313021130744
 31
0.0
  0
LINE
  5
F9
  8
回08-記事
  6
CONTINUOUS
 62
     8
 10
536.1583483799221
 20
-8.833130211307434
 30
0.0
 11
520.4083483799221
 21
-8.833130211307434
 31
0.0
  0
POLYLINE
  5
FA
  8
回08-記事
  6
CONTINUOUS
 62
     8
 66
     1
 10
0.0
 20
0.0
 30
0.0
 40
2.399999999999999
 41
2.399999999999999
  0
VERTEX
  5
5FD
  8
回08-記事
  6
CONTINUOUS
 62
     8
 10
522.658348379924
 20
-8.833130211307434
 30
0.0
  0
VERTEX
  5
5FF
  8
回08-記事
  6
CONTINUOUS
 62
     8
 10
522.658348379924
 20
-23.83313021130744
 30
0.0
  0
SEQEND
  5
5FE
  8
0
  6
CONTINUOUS
 62
     1
  0
DIMENSION
  5
FB
  8
回07-寸法
 62
     5
  2
*D2525
 10
521.4583483799241
 20
-3.074381821529641
 30
0.0
 11
498.4083178799243
 21
-0.9243818215296412
 31
0.0
 70
     0
  1
4-0.7{\H0.66667x;±0.1}[4-0.028{\H0.66667x;±0.004}]
  3
KOUSA
 13
523.8583483799239
 23
-8.833130211307434
 33
0.0
 14
521.4583483799241
 24
-8.833130211307434
 34
0.0
1001
ACAD
1000
DSTYLE
1002
{
1070
    71
1070
     0
1070
   140
1040
4.0
1070
   288
1070
     0
1070
   341
1005
0
1070
   371
1070
     9
1070
   372
1070
     9
1002
}
  0
DIMENSION
  5
10C
  8
回07-寸法
 62
     5
  2
*D2424
 10
522.658348379924
 20
3.329272411997408
 30
0.0
 11
503.1030758841827
 21
3.329272411997408
 31
0.0
 70
   128
  1
1.25{\H0.66667x;±0.2}[0.049{\H0.66667x;±0.008}]
  3
KOUSA
 13
526.408348379924
 23
-8.833130211307434
 33
0.0
 14
522.658348379924
 24
-8.833130211307434
 34
0.0
1001
ACAD
1000
DSTYLE
1002
{
1070
    71
1070
     0
1070
   140
1040
4.0
1070
   288
1070
     0
1070
   341
1005
0
1070
   371
1070
     9
1070
   372
1070
     9
1002
}
  0
DIMENSION
  5
11D
  8
回07-寸法
 62
     5
  2
*D2323
 10
522.658348379924
 20
7.984861535164781
 30
0.0
 11
503.208317879924
 21
10.13486153516478
 31
0.0
 70
     0
  1
3.75{\H0.66667x;±0.1}[0.148{\H0.66667x;±0.004}]
  3
KOUSA
 13
533.9083483799241
 23
-8.833130211307434
 33
0.0
 14
522.658348379924
 24
-8.833130211307434
 34
0.0
1001
ACAD
1000
DSTYLE
1002
{
1070
    71
1070
     0
1070
   140
1040
4.0
1070
   288
1070
     0
1070
   341
1005
0
1070
   371
1070
     9
1070
   372
1070
     9
1002
}
  0
TEXT
  5
12E
  8
回07-寸法
  6
CONTINUOUS
 62
     5
 10
346.6309112575848
 20
-116.9465260488987
 30
0.0
 40
3.0
  1
PART No.
1001
ACAD
1000
MTEXTBEGIN
1070
    73
1070
     1
1070
    44
1040
1.0
1070
    74
1070
     0
1000
MTEXTEND
  0
INSERT
  5
12F
  8
回07-寸法
  6
CONTINUOUS
 62
     3
 66
     1
  2
*X3434
 10
0.0
 20
0.0
 30
0.0
  0
SEQEND
  5
356
  8
0
  6
CONTINUOUS
 62
     1
  0
TEXT
  5
130
  8
回08-記事
  6
CONTINUOUS
 62
     5
 10
219.4782356594799
 20
34.09291631542056
 30
0.0
 40
2.7
  1
TATL PROTECTION TAPE
1001
ACAD
1000
MTEXTBEGIN
1070
    73
1070
     1
1070
    44
1040
1.0
1070
    74
1070
     0
1000
MTEXTEND
  0
INSERT
  5
131
  8
回08-記事
  6
CONTINUOUS
 62
     7
 66
     1
  2
*X3535
 10
0.0
 20
0.0
 30
0.0
  0
SEQEND
  5
35D
  8
0
  6
CONTINUOUS
 62
     1
  0
DIMENSION
  5
132
  8
回07-寸法
  6
CONTINUOUS
 62
     7
  2
*D33
 10
283.4919463903823
 20
23.94205185137003
 30
0.0
 11
283.4919463903823
 21
41.69526035882381
 31
0.0
 70
   128
  3
DMC
 13
281.0663165520634
 23
19.550121943004
 33
0.0
 14
277.1775763105984
 24
23.94205185137002
 34
0.0
 50
90.0
1001
ACAD
1000
DSTYLE
1002
{
1070
   371
1070
     9
1070
   372
1070
     9
1002
}
  0
POLYLINE
  5
141
  8
回08-記事
  6
CONTINUOUS
 62
     7
 66
     1
 10
0.0
 20
0.0
 30
0.0
 70
     1
  0
VERTEX
  5
600
  8
回08-記事
  6
CONTINUOUS
 62
     7
 10
431.4969460129491
 20
19.54929662896869
 30
0.0
  0
VERTEX
  5
602
  8
回08-記事
  6
CONTINUOUS
 62
     7
 10
430.9969460129491
 20
19.54929662896869
 30
0.0
  0
VERTEX
  5
603
  8
回08-記事
  6
CONTINUOUS
 62
     7
 10
430.9969460129491
 20
28.99638274684879
 30
0.0
  0
VERTEX
  5
604
  8
回08-記事
  6
CONTINUOUS
 62
     7
 10
431.4969460129491
 20
28.99638274684879
 30
0.0
  0
SEQEND
  5
601
  8
0
  6
CONTINUOUS
 62
     1
  0
INSERT
  5
142
  8
回08-記事
  6
CONTINUOUS
 62
     7
 66
     1
  2
*X3636
 10
0.0
 20
0.0
 30
0.0
1001
ACAD
1000
HATCH
1002
{
1070
    19
1000
ANSI31
1040
0.5
1040
0.0
1000
ASC_BOUNDS
1070
     1
1070
     2
1070
     1
1005
143
1000
ASC_SEEDPOINT
1011
473.621269145035
1021
1.818493226574105
1031
0.0
1000
R14_HATCH_DATA
1000
142
1011
1.0
1021
0.0
1031
0.0
1011
0.0
1021
1.0
1031
0.0
1011
0.0
1021
0.0
1031
1.0
1040
0.0
1010
0.0
1020
0.0
1030
1.0
1000
ANSI31
1070
     0
1070
     1
1071
        1
1071
        1
1071
        4
1070
     1
1040
430.9969460129491
1040
66.85208464392656
1040
431.5903938287934
1040
66.85208464392656
1070
     1
1040
431.5903938287934
1040
66.85208464392656
1040
431.5903938287934
1040
40.85208464392656
1070
     1
1040
431.5903938287934
1040
40.85208464392656
1040
430.9969460129491
1040
40.85208464392656
1070
     1
1040
430.9969460129491
1040
40.85208464392656
1040
430.9969460129491
1040
66.85208464392656
1071
        1
1005
143
1070
     0
1070
     1
1040
0.0
1040
0.5
1070
     0
1070
     1
1040
0.7853981633974483
1040
473.621269145035
1040
1.818493226574105
1040
-1.122532015133643
1040
1.122532015133643
1070
     0
1071
        1
1040
473.621269145035
1040
1.818493226574105
1040
0.0
1002
}
  0
SEQEND
  5
371
  8
0
  6
CONTINUOUS
 62
     1
  0
POLYLINE
  5
143
  8
回08-記事
  6
CONTINUOUS
 62
     7
 66
     1
 10
0.0
 20
0.0
 30
0.0
 70
     1
1001
ACAD
1000
ASC_BOUNDS
1002
{
1070
    19
1005
142
1002
}
  0
VERTEX
  5
605
  8
回08-記事
  6
CONTINUOUS
 62
     7
 10
430.9969460129491
 20
66.85208464392656
 30
0.0
  0
VERTEX
  5
607
  8
回08-記事
  6
CONTINUOUS
 62
     7
 10
431.5903938287934
 20
66.85208464392656
 30
0.0
  0
VERTEX
  5
608
  8
回08-記事
  6
CONTINUOUS
 62
     7
 10
431.5903938287934
 20
40.85208464392656
 30
0.0
  0
VERTEX
  5
609
  8
回08-記事
  6
CONTINUOUS
 62
     7
 10
430.9969460129491
 20
40.85208464392656
 30
0.0
  0
SEQEND
  5
606
  8
0
  6
CONTINUOUS
 62
     1
  0
INSERT
  5
144
  8
回08-記事
  6
CONTINUOUS
 62
    40
 66
     1
  2
*X3737
 10
0.0
 20
0.0
 30
0.0
1001
ACAD
1000
HATCH
1002
{
1070
    19
1000
ANSI31
1040
0.2
1040
0.0
1000
R14_HATCH_DATA
1000
144
1011
1.0
1021
0.0
1031
0.0
1011
0.0
1021
1.0
1031
0.0
1011
0.0
1021
0.0
1031
1.0
1040
0.0
1010
0.0
1020
0.0
1030
1.0
1000
ANSI31
1070
     0
1070
     1
1071
        1
1071
        7
1070
     0
1070
     1
1071
        8
1040
433.4969460129491
1040
19.54929662896869
1040
433.4969460129491
1040
16.24929662896886
1040
433.9969460129491
1040
16.24929662896886
1040
433.9969460129491
1040
20.0492966289687
1040
431.9969460129491
1040
20.0492966289687
1040
431.9969460129491
1040
23.93705295162863
1040
431.4969460129491
1040
23.93705295162863
1040
431.4969460129491
1040
19.54929662896869
1071
        0
1070
     0
1070
     1
1040
0.0
1040
0.2
1070
     0
1070
     1
1040
0.7853981633974483
1040
473.621269145035
1040
1.818493226574105
1040
-0.4490128060534576
1040
0.4490128060534577
1070
     0
1040
0.0378711451686088
1071
        1
1040
431.8000468868872
1040
19.78504187097553
1040
0.0
1002
}
  0
SEQEND
  5
385
  8
0
  6
CONTINUOUS
 62
     1
  0
LINE
  5
145
  8
回08-記事
  6
CONTINUOUS
 62
    40
 10
433.4969460129491
 20
19.54929662896869
 30
0.0
 11
433.4969460129491
 21
16.24929662896886
 31
0.0
  0
LINE
  5
146
  8
回08-記事
  6
CONTINUOUS
 62
    40
 10
431.4969460129491
 20
19.54929662896869
 30
0.0
 11
433.4969460129491
 21
19.54929662896869
 31
0.0
  0
LINE
  5
147
  8
回08-記事
  6
CONTINUOUS
 62
    40
 10
431.4969460129491
 20
23.93705295162863
 30
0.0
 11
431.4969460129491
 21
19.54929662896869
 31
0.0
  0
TEXT
  5
148
  8
回07-寸法
  6
CONTINUOUS
 62
     5
 10
351.130016281006
 20
-126.400595635157
 30
0.0
 40
3.0
  1
AIR VENT
1001
ACAD
1000
MTEXTBEGIN
1070
    73
1070
     1
1070
    44
1040
1.0
1070
    74
1070
     0
1000
MTEXTEND
  0
INSERT
  5
149
  8
回07-寸法
  6
CONTINUOUS
 62
     3
 66
     1
  2
*X3838
 10
0.0
 20
0.0
 30
0.0
  0
SEQEND
  5
38C
  8
0
  6
CONTINUOUS
 62
     1
  0
DIMENSION
  5
14A
  8
回07-寸法
  6
CONTINUOUS
 62
     3
  2
*D22
 10
388.9180349316344
 20
-103.349878056996
 30
0.0
 11
388.9180349316342
 21
-90.29581766361692
 31
0.0
 70
   128
  1
(<>)
  3
DMC
 13
379.8787793448703
 23
-105.349878056996
 33
0.0
 14
379.8787793448703
 24
-103.349878056996
 34
0.0
 50
90.0
1001
ACAD
1000
DSTYLE
1002
{
1070
   371
1070
     9
1070
   372
1070
     9
1002
}
  0
DIMENSION
  5
159
  8
回07-寸法
  6
CONTINUOUS
 62
     3
  2
*D11
 10
386.0807913945057
 20
-105.349878056996
 30
0.0
 11
386.0807913945056
 21
-126.6986969546339
 31
0.0
 70
   128
  1
(<>)
  3
DMC
 13
380.1787793448702
 23
-112.449878056996
 33
0.0
 14
380.1787793448702
 24
-105.349878056996
 34
0.0
 50
90.0
1001
ACAD
1000
DSTYLE
1002
{
1070
   371
1070
     9
1070
   372
1070
     9
1002
}
  0
LINE
  5
168
  8
回08-記事
  6
CONTINUOUS
 62
     7
 10
374.0787793448702
 20
-103.349878056996
 30
0.0
 11
380.1787793448702
 21
-103.349878056996
 31
0.0
  0
LINE
  5
169
  8
回08-記事
  6
CONTINUOUS
 62
     7
 10
374.0787793448702
 20
-105.349878056996
 30
0.0
 11
380.1787793448702
 21
-105.349878056996
 31
0.0
  0
TEXT
  5
16A
  8
回08-記事
  6
CONTINUOUS
 62
     5
 10
347.3291169690174
 20
-121.2235900538957
 30
0.0
 40
3.0
  1
AST-075A
  0
TEXT
  5
16B
  8
回04-下接
  6
CONTINUOUS
 62
     7
 10
362.6383961075855
 20
-111.8117134872548
 30
0.0
 40
1.5
  1
AST-075A
  0
TEXT
  5
16F
  8
回08-記事
  6
CONTINUOUS
 62
     7
 10
365.6950737152606
 20
-48.05878276879889
 30
0.0
 40
3.0
  1
XR
  0
TEXT
  5
170
  8
回08-記事
  6
CONTINUOUS
 62
     7
 10
222.6893829187929
 20
-48.86664807012778
 30
0.0
 40
3.0
  1
XL
  0
TEXT
  5
171
  8
回08-記事
  6
CONTINUOUS
 62
     7
 10
291.0315804001799
 20
-103.5157235043575
 30
0.0
 40
3.0
  1
YL
  0
TEXT
  5
172
  8
回08-記事
  6
CONTINUOUS
 62
     7
 10
291.0315804001799
 20
6.762030722044188
 30
0.0
 40
3.0
  1
YU
  0
DIMENSION
  5
173
  8
回07-寸法
  6
CONTINUOUS
 62
     7
  2
*D2222
 10
272.3037793448702
 20
98.69822750112929
 30
0.0
 11
286.9435431243978
 21
100.8482275011293
 31
0.0
 70
     0
  3
DMC
 13
266.0531894496876
 23
89.050121943004
 33
0.0
 14
272.3037793448702
 24
89.050121943004
 34
0.0
1001
ACAD
1000
DSTYLE
1002
{
1070
    47
1040
0.2
1070
   147
1040
0.5
1070
    48
1040
0.2
1070
    72
1070
     0
1070
    71
1070
     0
1070
   371
1070
     9
1070
   372
1070
     9
1002
}
  0
DIMENSION
  5
182
  8
回07-寸法
  6
CONTINUOUS
 62
     7
  2
*D2121
 10
321.6171435280176
 20
19.55012194300399
 30
0.0
 11
321.6171435280176
 21
51.52699671619507
 31
0.0
 70
   128
  3
DMC
 13
271.8037793448702
 23
89.55012194300397
 33
0.0
 14
380.1787793448702
 24
19.550121943004
 34
0.0
 50
90.0
1001
ACAD
1000
DSTYLE
1002
{
1070
    47
1040
1.0
1070
    48
1040
1.0
1070
    71
1070
     1
1070
   371
1070
     9
1070
   372
1070
     9
1002
}
  0
TEXT
  5
18F
  8
回07-寸法
  6
CONTINUOUS
 62
     5
 10
232.6688021474677
 20
23.76928798083227
 30
0.0
 40
3.0
  1
2-R2[R0.079]
1001
ACAD
1000
MTEXTBEGIN
1070
    73
1070
     1
1070
    44
1040
1.0
1070
    74
1070
     0
1000
MTEXTEND
  0
INSERT
  5
190
  8
回07-寸法
  6
CONTINUOUS
 62
     3
 66
     1
  2
*X3939
 10
0.0
 20
0.0
 30
0.0
  0
SEQEND
  5
393
  8
0
  6
CONTINUOUS
 62
     1
  0
TEXT
  5
191
  8
回07-寸法
  6
CONTINUOUS
 62
     5
 10
231.1563543457939
 20
28.21635019605017
 30
0.0
 40
3.0
  1
4-R1[R0.039]
1001
ACAD
1000
MTEXTBEGIN
1070
    73
1070
     1
1070
    44
1040
1.0
1070
    74
1070
     0
1000
MTEXTEND
  0
INSERT
  5
192
  8
回07-寸法
  6
CONTINUOUS
 62
     3
 66
     1
  2
*X4040
 10
0.0
 20
0.0
 30
0.0
  0
SEQEND
  5
39A
  8
0
  6
CONTINUOUS
 62
     1
  0
DIMENSION
  5
193
  8
回07-寸法
  6
CONTINUOUS
 62
     3
  2
*D2020
 10
288.6571778175504
 20
19.55012194300401
 30
0.0
 11
288.6571778175503
 21
42.51225397735987
 31
0.0
 70
   128
  3
DMC
 13
272.5952300145157
 23
28.95012194300398
 33
0.0
 14
281.0663165520634
 24
19.550121943004
 34
0.0
 50
90.0
1001
ACAD
1000
DSTYLE
1002
{
1070
   371
1070
     9
1070
   372
1070
     9
1002
}
  0
DIMENSION
  5
1A2
  8
回07-寸法
  6
CONTINUOUS
 62
    30
  2
*D1919
 10
277.1775763105984
 20
56.89109314649839
 30
0.0
 11
289.7775763105983
 21
56.89109314649839
 31
0.0
 70
   128
  3
DMC
 13
261.17877934487
 23
23.9378782656637
 33
0.0
 14
277.1775763105984
 24
23.94205185137002
 34
0.0
1001
ACAD
1000
DSTYLE
1002
{
1070
   371
1070
     9
1070
   372
1070
     9
1002
}
  0
DIMENSION
  5
1B1
  8
回07-寸法
  6
CONTINUOUS
 62
     3
  2
*D1818
 10
266.0531894496876
 20
98.69822750112929
 30
0.0
 11
239.1159843972789
 21
100.8482275011293
 31
0.0
 70
     0
  1
(<>)
  3
DMC
 13
212.1787793448702
 23
19.550121943004
 33
0.0
 14
266.0531894496876
 24
89.050121943004
 34
0.0
1001
ACAD
1000
DSTYLE
1002
{
1070
   371
1070
     9
1070
   372
1070
     9
1002
}
  0
DIMENSION
  5
1BE
  8
回07-寸法
  6
CONTINUOUS
 62
     7
  2
*D1717
 10
415.4827891895531
 20
19.55012194300401
 30
0.0
 11
415.4827891895529
 21
-45.62567911219128
 31
0.0
 70
   128
  3
DMC
 13
380.1787793448702
 23
-112.449878056996
 33
0.0
 14
380.1787793448702
 24
19.550121943004
 34
0.0
 50
90.0
1001
ACAD
1000
DSTYLE
1002
{
1070
    47
1040
0.3
1070
    48
1040
0.3
1070
    71
1070
     1
1070
   371
1070
     9
1070
   372
1070
     9
1002
}
  0
DIMENSION
  5
1CB
  8
回07-寸法
  6
CONTINUOUS
 62
     7
  2
*D1616
 10
398.5336795875529
 20
12.45012194300399
 30
0.0
 11
398.5336795875528
 21
-45.25763593046611
 31
0.0
 70
   128
  1
<> {\H0.6667x;(Viewing area)}
  3
DMC
 13
374.0787793448702
 23
-105.349878056996
 33
0.0
 14
374.0787793448702
 24
12.45012194300398
 34
0.0
 50
90.0
1001
ACAD
1000
DSTYLE
1002
{
1070
   371
1070
     9
1070
   372
1070
     9
1002
}
  0
DIMENSION
  5
1D8
  8
回07-寸法
  6
CONTINUOUS
 62
     7
  2
*D1515
 10
392.2713673826303
 20
11.45012194300398
 30
0.0
 11
392.2713673826302
 21
-46.7298055010159
 31
0.0
 70
   128
  1
<> {\H0.6667x;(Active area)}
  3
DMC
 13
373.0787793448702
 23
-104.349878056996
 33
0.0
 14
373.0787793448702
 24
11.45012194300398
 34
0.0
 50
90.0
1001
ACAD
1000
DSTYLE
1002
{
1070
   371
1070
     9
1070
   372
1070
     9
1002
}
  0
DIMENSION
  5
1E5
  8
回07-寸法
  6
CONTINUOUS
 62
     7
  2
*D1414
 10
398.5336795875529
 20
-112.449878056996
 30
0.0
 11
398.5336795875528
 21
-125.4998780569961
 31
0.0
 70
   128
  3
DMC
 13
374.0787793448702
 23
-105.349878056996
 33
0.0
 14
380.1787793448702
 24
-112.449878056996
 34
0.0
 50
90.0
1001
ACAD
1000
DSTYLE
1002
{
1070
   371
1070
     9
1070
   372
1070
     9
1002
}
  0
DIMENSION
  5
1F4
  8
回07-寸法
  6
CONTINUOUS
 62
     7
  2
*D1313
 10
392.2713673826304
 20
-112.449878056996
 30
0.0
 11
392.2713673826303
 21
-125.2051195527375
 31
0.0
 70
   128
  3
DMC
 13
373.0787793448702
 23
-104.349878056996
 33
0.0
 14
380.1787793448702
 24
-112.449878056996
 34
0.0
 50
90.0
1001
ACAD
1000
DSTYLE
1002
{
1070
   371
1070
     9
1070
   372
1070
     9
1002
}
  0
DIMENSION
  5
203
  8
回07-寸法
  6
CONTINUOUS
 62
     7
  2
*D1212
 10
380.1787793448702
 20
-153.7156875406083
 30
0.0
 11
296.1787793448702
 21
-153.7156875406083
 31
0.0
 70
   128
  3
DMC
 13
212.1787793448702
 23
-112.449878056996
 33
0.0
 14
380.1787793448702
 24
-112.449878056996
 34
0.0
1001
ACAD
1000
DSTYLE
1002
{
1070
    47
1040
0.3
1070
    48
1040
0.3
1070
    71
1070
     1
1070
   371
1070
     9
1070
   372
1070
     9
1002
}
  0
DIMENSION
  5
210
  8
回07-寸法
  6
CONTINUOUS
 62
     7
  2
*D1111
 10
374.0787793448702
 20
-144.1842196751898
 30
0.0
 11
296.1787793448702
 21
-144.1842196751898
 31
0.0
 70
   128
  1
<> {\H0.6667x;(Viewing area)}
  3
DMC
 13
218.2787793448701
 23
-105.349878056996
 33
0.0
 14
374.0787793448702
 24
-105.349878056996
 34
0.0
1001
ACAD
1000
DSTYLE
1002
{
1070
   371
1070
     9
1070
   372
1070
     9
1002
}
  0
DIMENSION
  5
21D
  8
回07-寸法
  6
CONTINUOUS
 62
     7
  2
*D1010
 10
373.0787793448702
 20
-139.4094551927036
 30
0.0
 11
296.1787793448702
 21
-139.4094551927036
 31
0.0
 70
   128
  1
<> {\H0.6667x;(Active area)}
  3
DMC
 13
219.2787793448701
 23
-104.349878056996
 33
0.0
 14
373.0787793448702
 24
-104.349878056996
 34
0.0
1001
ACAD
1000
DSTYLE
1002
{
1070
   371
1070
     9
1070
   372
1070
     9
1002
}
  0
DIMENSION
  5
22A
  8
回07-寸法
  6
CONTINUOUS
 62
     7
  2
*D99
 10
212.1787793448702
 20
-144.1842196751898
 30
0.0
 11
198.8890155653426
 21
-144.1842196751898
 31
0.0
 70
   128
  3
DMC
 13
218.2787793448701
 23
-105.349878056996
 33
0.0
 14
212.1787793448702
 24
-112.449878056996
 34
0.0
1001
ACAD
1000
DSTYLE
1002
{
1070
   371
1070
     9
1070
   372
1070
     9
1002
}
  0
DIMENSION
  5
239
  8
回07-寸法
  6
CONTINUOUS
 62
     7
  2
*D88
 10
212.1787793448702
 20
-139.4094551927036
 30
0.0
 11
199.1287793448702
 21
-139.4094551927036
 31
0.0
 70
   128
  3
DMC
 13
219.2787793448701
 23
-104.349878056996
 33
0.0
 14
212.1787793448702
 24
-112.449878056996
 34
0.0
1001
ACAD
1000
DSTYLE
1002
{
1070
   371
1070
     9
1070
   372
1070
     9
1002
}
  0
LINE
  5
248
  8
回07-寸法
  6
CENTER2
 62
     5
 10
269.1787793448702
 20
89.86959785967213
 30
0.0
 11
269.1787793448702
 21
55.93760978184502
 31
0.0
  0
TEXT
  5
249
  8
回07-寸法
  6
CONTINUOUS
 62
     5
 10
257.6317960452652
 20
82.04017143249723
 30
0.0
 40
3.0
  1
A
1001
ACAD
1000
MTEXTBEGIN
1070
    73
1070
     1
1070
    44
1040
1.0
1070
    74
1070
     0
1000
MTEXTEND
  0
INSERT
  5
24A
  8
回07-寸法
  6
CONTINUOUS
 62
     3
 66
     1
  2
*X4141
 10
0.0
 20
0.0
 30
0.0
  0
SEQEND
  5
3A1
  8
0
  6
CONTINUOUS
 62
     1
  0
CIRCLE
  5
24B
  8
回07-寸法
  6
DASHED2
 62
     5
 10
269.2514627116539
 20
89.72260367041906
 30
0.0
 40
5.926841827396128
  0
ARC
  5
24C
  8
回08-記事
  6
CONTINUOUS
 62
     7
 10
430.9969460129491
 20
-107.3015136319296
 30
0.0
 40
0.2
 50
90.0
 51
270.0
  0
ARC
  5
24D
  8
回08-記事
  6
CONTINUOUS
 62
     7
 10
430.9969460129491
 20
-103.3015136319296
 30
0.0
 40
0.2
 50
90.0
 51
270.0
  0
ARC
  5
24E
  8
回08-記事
  6
CONTINUOUS
 62
     7
 10
430.9969460129491
 20
-99.30151363192965
 30
0.0
 40
0.2
 50
90.0
 51
270.0
  0
ARC
  5
24F
  8
回08-記事
  6
CONTINUOUS
 62
     7
 10
430.9969460129491
 20
-95.30151363192965
 30
0.0
 40
0.2
 50
90.0
 51
270.0
  0
ARC
  5
250
  8
回08-記事
  6
CONTINUOUS
 62
     7
 10
430.9969460129491
 20
-91.30151363192965
 30
0.0
 40
0.2
 50
90.0
 51
270.0
  0
ARC
  5
251
  8
回08-記事
  6
CONTINUOUS
 62
     7
 10
430.9969460129491
 20
-87.30151363192964
 30
0.0
 40
0.2
 50
90.0
 51
270.0
  0
ARC
  5
252
  8
回08-記事
  6
CONTINUOUS
 62
     7
 10
430.9969460129491
 20
-83.30151363192966
 30
0.0
 40
0.2
 50
90.0
 51
270.0
  0
ARC
  5
253
  8
回08-記事
  6
CONTINUOUS
 62
     7
 10
430.9969460129491
 20
-79.30151363192965
 30
0.0
 40
0.2
 50
90.0
 51
270.0
  0
ARC
  5
254
  8
回08-記事
  6
CONTINUOUS
 62
     7
 10
430.9969460129491
 20
-75.30151363192965
 30
0.0
 40
0.2
 50
90.0
 51
270.0
  0
ARC
  5
255
  8
回08-記事
  6
CONTINUOUS
 62
     7
 10
430.9969460129491
 20
-71.30151363192965
 30
0.0
 40
0.2
 50
90.0
 51
270.0
  0
ARC
  5
256
  8
回08-記事
  6
CONTINUOUS
 62
     7
 10
430.9969460129491
 20
-67.30151363192965
 30
0.0
 40
0.2
 50
90.0
 51
270.0
  0
DIMENSION
  5
257
  8
回07-寸法
  6
CONTINUOUS
 62
     7
  2
*D77
 10
432.1969460129491
 20
96.67366964837562
 30
0.0
 11
451.2483011153112
 21
98.82366964837563
 31
0.0
 70
     0
  1
0.3{\H0.6667x;±0.05}[0.012{\H0.66667x;±0.002}]
  3
DMC
 13
429.9969460129491
 23
89.5492966289688
 33
0.0
 14
432.1969460129491
 24
89.5492966289688
 34
0.0
 50
180.0
  0
DIMENSION
  5
266
  8
回07-寸法
  6
CONTINUOUS
 62
     7
  2
*D66
 10
425.6511497776615
 20
89.54929662896885
 30
0.0
 11
425.6511497776613
 21
67.74038608620831
 31
0.0
 70
   128
  3
DMC
 13
429.4969460129491
 23
84.5492966289688
 33
0.0
 14
429.9969460129491
 24
89.5492966289688
 34
0.0
 50
270.0
1001
ACAD
1000
DSTYLE
1002
{
1070
    47
1040
1.0
1070
   147
1040
0.5
1070
    48
1040
1.0
1070
    72
1070
     0
1070
    71
1070
     0
1002
}
  0
DIMENSION
  5
275
  8
回07-寸法
  6
CONTINUOUS
 62
     7
  2
*D55
 10
444.0760163428195
 20
79.54929662896883
 30
0.0
 11
444.0760163428193
 21
61.5403860862083
 31
0.0
 70
   128
  1
(<>)
  3
DMC
 13
432.1969460129491
 23
89.5492966289688
 33
0.0
 14
432.1969460129491
 24
79.5492966289688
 34
0.0
 50
270.0
1001
ACAD
1000
DSTYLE
1002
{
1070
   147
1040
0.5
1070
    72
1070
     0
1070
    47
1040
1.0
1070
    48
1040
1.0
1070
    71
1070
     0
1002
}
  0
DIMENSION
  5
284
  8
回07-寸法
  6
CONTINUOUS
 62
     7
  2
*D44
 10
433.4969460129491
 20
-120.7872896882613
 30
0.0
 11
451.9970850129491
 21
-118.6372896882613
 31
0.0
 70
     0
  1
1.4{\H0.6667x;±0.2}[0.055{\H0.66667x;±0.008}]
  3
DMC
 13
428.4969460129491
 23
-112.1507033710312
 33
0.0
 14
433.4969460129491
 24
-112.4507033710313
 34
0.0
 50
180.0
  0
ARC
  5
293
  8
回08-記事
  6
CONTINUOUS
 62
     7
 10
430.9969460129491
 20
8.698486368070232
 30
0.0
 40
0.2
 50
90.0
 51
270.0
  0
ARC
  5
294
  8
回08-記事
  6
CONTINUOUS
 62
     7
 10
430.9969460129491
 20
4.698486368070233
 30
0.0
 40
0.2
 50
90.0
 51
270.0
  0
ARC
  5
295
  8
回08-記事
  6
CONTINUOUS
 62
     7
 10
430.9969460129491
 20
0.6984863680702347
 30
0.0
 40
0.2
 50
90.0
 51
270.0
  0
ARC
  5
296
  8
回08-記事
  6
CONTINUOUS
 62
     7
 10
430.9969460129491
 20
-3.301513631929765
 30
0.0
 40
0.2
 50
90.0
 51
270.0
  0
ARC
  5
297
  8
回08-記事
  6
CONTINUOUS
 62
     7
 10
430.9969460129491
 20
-7.301513631929764
 30
0.0
 40
0.2
 50
90.0
 51
270.0
  0
ARC
  5
298
  8
回08-記事
  6
CONTINUOUS
 62
     7
 10
430.9969460129491
 20
-11.30151363192976
 30
0.0
 40
0.2
 50
90.0
 51
270.0
  0
ARC
  5
299
  8
回08-記事
  6
CONTINUOUS
 62
     7
 10
430.9969460129491
 20
-15.30151363192976
 30
0.0
 40
0.2
 50
90.0
 51
270.0
  0
ARC
  5
29A
  8
回08-記事
  6
CONTINUOUS
 62
     7
 10
430.9969460129491
 20
-19.30151363192976
 30
0.0
 40
0.2
 50
90.0
 51
270.0
  0
ARC
  5
29B
  8
回08-記事
  6
CONTINUOUS
 62
     7
 10
430.9969460129491
 20
-23.30151363192976
 30
0.0
 40
0.2
 50
90.0
 51
270.0
  0
ARC
  5
29C
  8
回08-記事
  6
CONTINUOUS
 62
     7
 10
430.9969460129491
 20
-27.30151363192977
 30
0.0
 40
0.2
 50
90.0
 51
270.0
  0
ARC
  5
29D
  8
回08-記事
  6
CONTINUOUS
 62
     7
 10
430.9969460129491
 20
-31.30151363192977
 30
0.0
 40
0.2
 50
90.0
 51
270.0
  0
ARC
  5
29E
  8
回08-記事
  6
CONTINUOUS
 62
     7
 10
430.9969460129491
 20
-35.30151363192977
 30
0.0
 40
0.2
 50
90.0
 51
270.0
  0
ARC
  5
29F
  8
回08-記事
  6
CONTINUOUS
 62
     7
 10
430.9969460129491
 20
-39.30151363192976
 30
0.0
 40
0.2
 50
90.0
 51
270.0
  0
ARC
  5
2A0
  8
回08-記事
  6
CONTINUOUS
 62
     7
 10
430.9969460129491
 20
-43.30151363192975
 30
0.0
 40
0.2
 50
90.0
 51
270.0
  0
ARC
  5
2A1
  8
回08-記事
  6
CONTINUOUS
 62
     7
 10
430.9969460129491
 20
-47.30151363192964
 30
0.0
 40
0.2
 50
90.0
 51
270.0
  0
ARC
  5
2A2
  8
回08-記事
  6
CONTINUOUS
 62
     7
 10
430.9969460129491
 20
-51.30151363192965
 30
0.0
 40
0.2
 50
90.0
 51
270.0
  0
ARC
  5
2A3
  8
回08-記事
  6
CONTINUOUS
 62
     7
 10
430.9969460129491
 20
-55.30151363192964
 30
0.0
 40
0.2
 50
90.0
 51
270.0
  0
ARC
  5
2A4
  8
回08-記事
  6
CONTINUOUS
 62
     7
 10
430.9969460129491
 20
-59.30151363192964
 30
0.0
 40
0.2
 50
90.0
 51
270.0
  0
ARC
  5
2A5
  8
回08-記事
  6
CONTINUOUS
 62
     7
 10
430.9969460129491
 20
-63.30151363192964
 30
0.0
 40
0.2
 50
90.0
 51
270.0
  0
LINE
  5
2A6
  8
回08-記事
  6
CONTINUOUS
 62
    40
 10
433.9969460129491
 20
16.24929662896886
 30
0.0
 11
433.4969460129491
 21
16.24929662896886
 31
0.0
  0
LINE
  5
2A7
  8
回08-記事
  6
CONTINUOUS
 62
    40
 10
433.9969460129491
 20
20.0492966289687
 30
0.0
 11
433.9969460129491
 21
16.24929662896886
 31
0.0
  0
LINE
  5
2A8
  8
回08-記事
  6
CONTINUOUS
 62
    40
 10
431.9969460129491
 20
20.0492966289687
 30
0.0
 11
433.9969460129491
 21
20.0492966289687
 31
0.0
  0
LINE
  5
2A9
  8
回08-記事
  6
CONTINUOUS
 62
    40
 10
431.9969460129491
 20
23.93705295162863
 30
0.0
 11
431.9969460129491
 21
20.0492966289687
 31
0.0
  0
LINE
  5
2AA
  8
回08-記事
  6
CONTINUOUS
 62
    40
 10
431.4969460129491
 20
23.93705295162863
 30
0.0
 11
431.9969460129491
 21
23.93705295162863
 31
0.0
  0
POLYLINE
  5
2AB
  8
回08-記事
  6
CONTINUOUS
 62
     7
 66
     1
 10
0.0
 20
0.0
 30
0.0
 70
     1
  0
VERTEX
  5
60A
  8
回08-記事
  6
CONTINUOUS
 62
     7
 10
429.9969460129491
 20
84.5492966289688
 30
0.0
  0
VERTEX
  5
60C
  8
回08-記事
  6
CONTINUOUS
 62
     7
 10
429.9969460129491
 20
19.24929662896875
 30
0.0
  0
VERTEX
  5
60D
  8
回08-記事
  6
CONTINUOUS
 62
     7
 10
429.4969460129491
 20
19.24929662896875
 30
0.0
  0
VERTEX
  5
60E
  8
回08-記事
  6
CONTINUOUS
 62
     7
 10
429.4969460129491
 20
84.5492966289688
 30
0.0
  0
SEQEND
  5
60B
  8
0
  6
CONTINUOUS
 62
     1
  0
POLYLINE
  5
2AC
  8
回08-記事
  6
CONTINUOUS
 62
     7
 66
     1
 10
0.0
 20
0.0
 30
0.0
 70
     1
  0
VERTEX
  5
60F
  8
回08-記事
  6
CONTINUOUS
 62
     7
 10
430.9969460129491
 20
89.5492966289688
 30
0.0
  0
VERTEX
  5
611
  8
回08-記事
  6
CONTINUOUS
 62
     7
 10
430.9969460129491
 20
79.5492966289688
 30
0.0
  0
VERTEX
  5
612
  8
回08-記事
  6
CONTINUOUS
 62
     7
 10
432.1969460129491
 20
79.5492966289688
 30
0.0
  0
VERTEX
  5
613
  8
回08-記事
  6
CONTINUOUS
 62
     7
 10
432.1969460129491
 20
89.5492966289688
 30
0.0
  0
SEQEND
  5
610
  8
0
  6
CONTINUOUS
 62
     1
  0
LINE
  5
2AD
  8
回08-記事
  6
CONTINUOUS
 62
     7
 10
429.9969460129491
 20
11.74929662896875
 30
0.0
 11
430.9969460129491
 21
11.74929662896875
 31
0.0
  0
LINE
  5
2AE
  8
回08-記事
  6
CONTINUOUS
 62
     7
 10
429.9969460129491
 20
-112.1507033710312
 30
0.0
 11
430.9969460129491
 21
-112.1507033710312
 31
0.0
  0
LINE
  5
2AF
  8
回08-記事
  6
CONTINUOUS
 62
     7
 10
429.9969460129491
 20
-109.0507033710313
 30
0.0
 11
430.9969460129491
 21
-109.0507033710313
 31
0.0
  0
POLYLINE
  5
2B0
  8
回08-記事
  6
CONTINUOUS
 62
     7
 66
     1
 10
0.0
 20
0.0
 30
0.0
 70
     1
  0
VERTEX
  5
614
  8
回08-記事
  6
CONTINUOUS
 62
     7
 10
430.9969460129491
 20
89.5492966289688
 30
0.0
  0
VERTEX
  5
616
  8
回08-記事
  6
CONTINUOUS
 62
     7
 10
430.9969460129491
 20
16.24929662896886
 30
0.0
  0
VERTEX
  5
617
  8
回08-記事
  6
CONTINUOUS
 62
     7
 10
429.9969460129491
 20
16.24929662896886
 30
0.0
  0
VERTEX
  5
618
  8
回08-記事
  6
CONTINUOUS
 62
     7
 10
429.9969460129491
 20
89.5492966289688
 30
0.0
  0
SEQEND
  5
615
  8
0
  6
CONTINUOUS
 62
     1
  0
POLYLINE
  5
2B1
  8
回08-記事
  6
CONTINUOUS
 62
     7
 66
     1
 10
0.0
 20
0.0
 30
0.0
 70
     1
  0
VERTEX
  5
619
  8
回08-記事
  6
CONTINUOUS
 62
     7
 10
433.4969460129491
 20
19.54929662896869
 30
0.0
  0
VERTEX
  5
61B
  8
回08-記事
  6
CONTINUOUS
 62
     7
 10
433.4969460129491
 20
-112.4507033710313
 30
0.0
  0
VERTEX
  5
61C
  8
回08-記事
  6
CONTINUOUS
 62
     7
 10
430.9969460129491
 20
-112.4507033710313
 30
0.0
  0
VERTEX
  5
61D
  8
回08-記事
  6
CONTINUOUS
 62
     7
 10
430.9969460129491
 20
19.54929662896869
 30
0.0
  0
SEQEND
  5
61A
  8
0
  6
CONTINUOUS
 62
     1
  0
POLYLINE
  5
2B2
  8
回08-記事
  6
CONTINUOUS
 62
     7
 66
     1
 10
0.0
 20
0.0
 30
0.0
 70
     1
  0
VERTEX
  5
61E
  8
回08-記事
  6
CONTINUOUS
 62
     7
 10
428.4969460129491
 20
19.24929662896875
 30
0.0
  0
VERTEX
  5
620
  8
回08-記事
  6
CONTINUOUS
 62
     7
 10
428.4969460129491
 20
-112.1507033710312
 30
0.0
  0
VERTEX
  5
621
  8
回08-記事
  6
CONTINUOUS
 62
     7
 10
429.9969460129491
 20
-112.1507033710312
 30
0.0
  0
VERTEX
  5
622
  8
回08-記事
  6
CONTINUOUS
 62
     7
 10
429.9969460129491
 20
19.24929662896875
 30
0.0
  0
SEQEND
  5
61F
  8
0
  6
CONTINUOUS
 62
     1
  0
POLYLINE
  5
2B3
  8
回08-記事
  6
CONTINUOUS
 62
     7
 66
     1
 10
0.0
 20
0.0
 30
0.0
 70
     1
  0
VERTEX
  5
623
  8
回08-記事
  6
CONTINUOUS
 62
     7
 10
218.2787793448701
 20
12.45012194300398
 30
0.0
  0
VERTEX
  5
625
  8
回08-記事
  6
CONTINUOUS
 62
     7
 10
374.0787793448702
 20
12.45012194300398
 30
0.0
  0
VERTEX
  5
626
  8
回08-記事
  6
CONTINUOUS
 62
     7
 10
374.0787793448702
 20
-105.349878056996
 30
0.0
  0
VERTEX
  5
627
  8
回08-記事
  6
CONTINUOUS
 62
     7
 10
218.2787793448701
 20
-105.349878056996
 30
0.0
  0
SEQEND
  5
624
  8
0
  6
CONTINUOUS
 62
     1
  0
POLYLINE
  5
2B4
  8
回08-記事
  6
PHANTOM
 62
     7
 66
     1
 10
0.0
 20
0.0
 30
0.0
 70
     1
  0
VERTEX
  5
628
  8
回08-記事
  6
PHANTOM
 62
     7
 10
219.2787793448701
 20
11.45012194300398
 30
0.0
  0
VERTEX
  5
62A
  8
回08-記事
  6
PHANTOM
 62
     7
 10
373.0787793448702
 20
11.45012194300398
 30
0.0
  0
VERTEX
  5
62B
  8
回08-記事
  6
PHANTOM
 62
     7
 10
373.0787793448702
 20
-104.349878056996
 30
0.0
  0
VERTEX
  5
62C
  8
回08-記事
  6
PHANTOM
 62
     7
 10
219.2787793448701
 20
-104.349878056996
 30
0.0
  0
SEQEND
  5
629
  8
0
  6
CONTINUOUS
 62
     1
  0
POLYLINE
  5
2B6
  8
回04-下接
  6
CONTINUOUS
 62
     7
 66
     1
 10
0.0
 20
0.0
 30
0.0
 70
     1
  0
VERTEX
  5
62D
  8
回04-下接
  6
CONTINUOUS
 62
     7
 10
212.1787793448702
 20
19.550121943004
 30
0.0
  0
VERTEX
  5
62F
  8
回04-下接
  6
CONTINUOUS
 62
     7
 10
380.1787793448702
 20
19.550121943004
 30
0.0
  0
VERTEX
  5
630
  8
回04-下接
  6
CONTINUOUS
 62
     7
 10
380.1787793448702
 20
-112.449878056996
 30
0.0
  0
VERTEX
  5
631
  8
回04-下接
  6
CONTINUOUS
 62
     7
 10
212.1787793448702
 20
-112.449878056996
 30
0.0
  0
SEQEND
  5
62E
  8
0
  6
CONTINUOUS
 62
     1
  0
INSERT
  5
2B7
  8
回08-記事
  6
CONTINUOUS
 62
     8
 66
     1
  2
*X4242
 10
0.0
 20
0.0
 30
0.0
1001
ACAD
1000
HATCH
1002
{
1070
    19
1000
ANSI31
1040
15.0
1040
0.0
1000
ASC_BOUNDS
1070
     1
1070
     2
1070
     1
1005
2B8
1000
ASC_SEEDPOINT
1011
249.1689682833037
1021
-132.9438880076584
1031
0.0
1000
R14_HATCH_DATA
1000
2B7
1011
1.0
1021
0.0
1031
0.0
1011
0.0
1021
1.0
1031
0.0
1011
0.0
1021
0.0
1031
1.0
1040
0.0
1010
0.0
1020
0.0
1030
1.0
1000
ANSI31
1070
     0
1070
     1
1071
        1
1071
        1
1071
        8
1070
     1
1040
267.6197688176737
1040
69.34278588151028
1040
270.6197688176737
1040
69.34278588151028
1070
     2
1040
270.6197688176737
1040
68.34278588151028
1040
1.0
1040
4.712388980384688
1040
6.283185307179585
1070
     0
1070
     1
1040
271.6197688176738
1040
68.34278588151028
1040
271.6197688176738
1040
44.34278588151027
1070
     2
1040
270.6197688176737
1040
44.34278588151027
1040
1.0
1040
6.283185307179585
1040
7.853981633974482
1070
     0
1070
     1
1040
270.6197688176737
1040
43.34278588151027
1040
267.6197688176737
1040
43.34278588151027
1070
     2
1040
267.6197688176737
1040
44.34278588151027
1040
1.0
1040
1.570796326794896
1040
3.141592653589792
1070
     0
1070
     1
1040
266.6197688176737
1040
44.34278588151027
1040
266.6197688176737
1040
68.34278588151028
1070
     2
1040
267.6197688176737
1040
68.34278588151028
1040
1.0
1040
3.141592653589792
1040
4.712388980384688
1070
     0
1071
        1
1005
2B8
1070
     0
1070
     1
1040
0.0
1040
15.0
1070
     0
1070
     1
1040
0.7853981633974483
1040
249.1689682833037
1040
-132.9438880076584
1040
-1.325825214724775
1040
1.325825214724775
1070
     0
1071
        1
1040
249.1689682833037
1040
-132.9438880076584
1040
0.0
1002
}
  0
SEQEND
  5
3D8
  8
0
  6
CONTINUOUS
 62
     1
  0
POLYLINE
  5
2B8
  8
回08-記事
  6
CONTINUOUS
 62
     8
 66
     1
 10
0.0
 20
0.0
 30
0.0
 70
     1
1001
ACAD
1000
ASC_BOUNDS
1002
{
1070
    19
1005
2B7
1002
}
  0
VERTEX
  5
632
  8
回08-記事
  6
CONTINUOUS
 62
     8
 10
267.6197688176737
 20
69.34278588151028
 30
0.0
  0
VERTEX
  5
634
  8
回08-記事
  6
CONTINUOUS
 62
     8
 10
270.6197688176737
 20
69.34278588151028
 30
0.0
 42
-0.4142135623730951
  0
VERTEX
  5
635
  8
回08-記事
  6
CONTINUOUS
 62
     8
 10
271.6197688176738
 20
68.34278588151028
 30
0.0
  0
VERTEX
  5
636
  8
回08-記事
  6
CONTINUOUS
 62
     8
 10
271.6197688176738
 20
44.34278588151027
 30
0.0
 42
-0.4142135623730951
  0
VERTEX
  5
637
  8
回08-記事
  6
CONTINUOUS
 62
     8
 10
270.6197688176737
 20
43.34278588151027
 30
0.0
  0
VERTEX
  5
638
  8
回08-記事
  6
CONTINUOUS
 62
     8
 10
267.6197688176737
 20
43.34278588151027
 30
0.0
 42
-0.4142135623730951
  0
VERTEX
  5
639
  8
回08-記事
  6
CONTINUOUS
 62
     8
 10
266.6197688176737
 20
44.34278588151027
 30
0.0
  0
VERTEX
  5
63A
  8
回08-記事
  6
CONTINUOUS
 62
     8
 10
266.6197688176737
 20
68.34278588151028
 30
0.0
 42
-0.4142135623730946
  0
SEQEND
  5
633
  8
0
  6
CONTINUOUS
 62
     1
  0
INSERT
  5
2B9
  8
回08-記事
  6
CONTINUOUS
 62
     8
 66
     1
  2
*X4343
 10
0.0
 20
0.0
 30
0.0
1001
ACAD
1000
HATCH
1002
{
1070
    19
1000
ANSI31
1040
0.5
1040
-1.570796326794896
1000
ASC_BOUNDS
1070
     1
1070
     2
1070
     1
1005
2BA
1000
ASC_SEEDPOINT
1011
52.02911126370002
1021
-229.3632020944853
1031
0.0
1000
R14_HATCH_DATA
1000
2B9
1011
1.0
1021
0.0
1031
0.0
1011
0.0
1021
1.0
1031
0.0
1011
0.0
1021
0.0
1031
1.0
1040
0.0
1010
0.0
1020
0.0
1030
1.0
1000
ANSI31
1070
     0
1070
     1
1071
        1
1071
        1
1071
        4
1070
     1
1040
276.5814621572858
1040
16.25012194300393
1040
276.5814621572858
1040
23.94160494740413
1070
     1
1040
276.5814621572858
1040
23.94160494740413
1040
261.7787793448699
1040
23.94160494740413
1070
     1
1040
261.7787793448699
1040
23.94160494740413
1040
261.7787793448699
1040
16.25012194300393
1070
     1
1040
261.7787793448699
1040
16.25012194300393
1040
276.5814621572858
1040
16.25012194300393
1071
        1
1005
2BA
1070
     0
1070
     1
1040
-1.570796326794896
1040
0.5
1070
     0
1070
     1
1040
5.497787143782136
1040
52.02911126370002
1040
-229.3632020944853
1040
1.122532015133643
1040
1.122532015133643
1070
     0
1071
        1
1040
52.02911126370002
1040
-229.3632020944853
1040
0.0
1002
}
  0
SEQEND
  5
3EF
  8
0
  6
CONTINUOUS
 62
     1
  0
POLYLINE
  5
2BA
  8
回08-記事
  6
CONTINUOUS
 62
     8
 66
     1
 10
0.0
 20
0.0
 30
0.0
 70
     1
1001
ACAD
1000
ASC_BOUNDS
1002
{
1070
    19
1005
2B9
1002
}
  0
VERTEX
  5
63B
  8
回08-記事
  6
CONTINUOUS
 62
     8
 10
276.5814621572858
 20
16.25012194300393
 30
0.0
  0
VERTEX
  5
63D
  8
回08-記事
  6
CONTINUOUS
 62
     8
 10
276.5814621572858
 20
23.94160494740413
 30
0.0
  0
VERTEX
  5
63E
  8
回08-記事
  6
CONTINUOUS
 62
     8
 10
261.7787793448699
 20
23.94160494740413
 30
0.0
  0
VERTEX
  5
63F
  8
回08-記事
  6
CONTINUOUS
 62
     8
 10
261.7787793448699
 20
16.25012194300393
 30
0.0
  0
SEQEND
  5
63C
  8
0
  6
CONTINUOUS
 62
     1
  0
TEXT
  5
2BB
  8
回08-記事
  6
CONTINUOUS
 62
     7
 10
266.5161791666928
 20
89.62754546734025
 30
0.0
 40
1.679999999999999
  1
1
  0
TEXT
  5
2BC
  8
回08-記事
  6
CONTINUOUS
 62
     7
 10
270.3768386179704
 20
89.65043842312912
 30
0.0
 40
1.679999999999999
  1
4
  0
LINE
  5
2BD
  8
回05-ﾃｰﾙ
  6
BYBLOCK
 62
     8
 10
259.1787793448702
 20
19.25012194300393
 30
0.0
 11
259.1787793448702
 21
19.25012194300393
 31
0.0
  0
ARC
  5
2C1
  8
回05-ﾃｰﾙ
  6
BYBLOCK
 62
     7
 10
265.0497546792903
 20
29.65882324287736
 30
0.0
 40
1.0
 50
315.1435981442323
 51
359.9966864211496
  0
ARC
  5
2C2
  8
回05-ﾃｰﾙ
  6
BYBLOCK
 62
     7
 10
273.3037793448702
 20
29.66138451178199
 30
0.0
 40
1.0
 50
180.0
 51
224.8829928953899
  0
ARC
  5
2C3
  8
回05-ﾃｰﾙ
  6
BYBLOCK
 62
     7
 10
276.17757641046
 20
23.94160494740424
 30
0.0
 40
1.0
 50
0.0256057119359746
 51
44.8829928953902
  0
ARC
  5
2C4
  8
回05-ﾃｰﾙ
  6
BYBLOCK
 62
     7
 10
262.17877934487
 20
23.93787826566381
 30
0.0
 40
1.0
 50
135.1435981442323
 51
180.0000000000032
  0
ARC
  5
2C5
  8
回05-ﾃｰﾙ
  6
BYBLOCK
 62
     7
 10
259.1787793448702
 20
21.25012194300416
 30
0.0
 40
2.0
 50
301.788330617043
 51
0.0000000000032569
  0
ARC
  5
2C6
  8
回05-ﾃｰﾙ
  6
BYBLOCK
 62
     7
 10
279.1787795445935
 20
21.25012194300393
 30
0.0
 40
2.0
 50
180.0256057119359
 51
238.2116693829452
  0
LINE
  5
2C7
  8
回05-ﾃｰﾙ
  6
BYBLOCK
 62
     7
 10
265.758631431569
 20
28.95349087435966
 30
0.0
 11
261.4699025925911
 21
24.64321063418129
 31
0.0
  0
LINE
  5
2C8
  8
回05-ﾃｰﾙ
  6
BYBLOCK
 62
     7
 10
272.5952300145157
 20
28.95572322869066
 30
0.0
 11
276.8861257408146
 21
24.64726623049546
 31
0.0
  0
LINE
  5
2C9
  8
回05-ﾃｰﾙ
  6
BYBLOCK
 62
     8
 10
261.17877934487
 20
23.93787826566381
 30
0.0
 11
261.17877934487
 21
21.25012194300416
 31
0.0
  0
LINE
  5
2CA
  8
回05-ﾃｰﾙ
  6
BYBLOCK
 62
     7
 10
277.1775763105984
 20
23.94205185137002
 30
0.0
 11
277.1787797443165
 21
21.24922813507237
 31
0.0
  0
LINE
  5
2CB
  8
回05-ﾃｰﾙ
  6
BYBLOCK
 62
     7
 10
271.8037793448702
 20
89.55012194300397
 30
0.0
 11
266.5537793448702
 21
89.55012194300397
 31
0.0
  0
ARC
  5
2CC
  8
回05-ﾃｰﾙ
  6
BYBLOCK
 62
     7
 10
266.5537793448702
 20
89.050121943004
 30
0.0
 40
0.5
 50
90.0
 51
180.0
  0
ARC
  5
2CD
  8
回05-ﾃｰﾙ
  6
BYBLOCK
 62
     7
 10
271.8037793448702
 20
89.050121943004
 30
0.0
 40
0.5
 50
0.0
 51
90.0
  0
LINE
  5
2CE
  8
回05-ﾃｰﾙ
  6
BYBLOCK
 62
     7
 10
266.0531894496876
 20
89.050121943004
 30
0.0
 11
266.0497546776178
 21
29.65876541001626
 31
0.0
  0
LINE
  5
2CF
  8
回05-ﾃｰﾙ
  6
BYBLOCK
 62
     7
 10
272.3037793448702
 20
89.050121943004
 30
0.0
 11
272.3037793448702
 21
29.66138451178199
 31
0.0
  0
LINE
  5
2D0
  8
回08-記事
  6
CONTINUOUS
 62
     7
 10
534.8822092423225
 20
77.39678017020587
 30
0.0
 11
534.8822092423225
 21
52.82678017020572
 31
0.0
  0
LINE
  5
2D1
  8
回08-記事
  6
CONTINUOUS
 62
     7
 10
546.5357201076192
 20
77.39678017020587
 30
0.0
 11
546.5357201076192
 21
32.31465999952622
 31
0.0
  0
LINE
  5
2D2
  8
回08-記事
  6
CONTINUOUS
 62
     7
 10
504.3544613549082
 20
77.39678017020587
 30
0.0
 11
504.3544613549082
 21
52.82678017020572
 31
0.0
  0
TEXT
  5
2D3
  8
回08-記事
  6
CONTINUOUS
 62
     7
 10
545.031599976935
 20
77.77346241222097
 30
0.0
 40
4.679999999999999
  1
4
  0
TEXT
  5
2D4
  8
回08-記事
  6
CONTINUOUS
 62
     7
 10
536.2450125060352
 20
51.87119338073348
 30
0.0
 40
4.094999999999998
  1
XR
  0
LINE
  5
2D5
  8
回08-記事
  6
CONTINUOUS
 62
     7
 10
546.535720107619
 20
32.31465999952622
 30
0.0
 11
521.7197092423226
 21
32.31465999952622
 31
0.0
  0
LINE
  5
2D6
  8
回08-記事
  6
CONTINUOUS
 62
     7
 10
521.7197092423226
 20
38.49428017020585
 30
0.0
 11
521.7197092423226
 21
32.31465999952622
 31
0.0
  0
LINE
  5
2D7
  8
回08-記事
  6
CONTINUOUS
 62
     7
 10
523.2407092423228
 20
46.15778017020585
 30
0.0
 11
519.0287092423227
 21
44.05178017020574
 31
0.0
  0
LINE
  5
2D8
  8
回08-記事
  6
CONTINUOUS
 62
     7
 10
519.0287092423227
 20
48.26378017020545
 30
0.0
 11
523.2407092423228
 21
46.15778017020585
 31
0.0
  0
LINE
  5
2D9
  8
回08-記事
  6
CONTINUOUS
 62
     7
 10
519.0287092423227
 20
44.05178017020574
 30
0.0
 11
523.2407092423228
 21
41.94578017020558
 31
0.0
  0
LINE
  5
2DA
  8
回08-記事
  6
CONTINUOUS
 62
     7
 10
523.2407092423228
 20
41.94578017020558
 30
0.0
 11
519.0287092423227
 21
39.83978017020547
 31
0.0
  0
LINE
  5
2DB
  8
回08-記事
  6
CONTINUOUS
 62
     7
 10
519.0287092423227
 20
39.83978017020547
 30
0.0
 11
521.7197092423226
 21
38.49428017020585
 31
0.0
  0
LINE
  5
2DC
  8
回08-記事
  6
CONTINUOUS
 62
     7
 10
519.0287092423227
 20
56.68778017020571
 30
0.0
 11
523.2407092423228
 21
54.58178017020583
 31
0.0
  0
LINE
  5
2DD
  8
回08-記事
  6
CONTINUOUS
 62
     7
 10
519.0287092423227
 20
60.89978017020571
 30
0.0
 11
523.2407092423228
 21
58.79378017020582
 31
0.0
  0
LINE
  5
2DE
  8
回08-記事
  6
CONTINUOUS
 62
     7
 10
523.2407092423228
 20
58.79378017020582
 30
0.0
 11
519.0287092423227
 21
56.68778017020571
 31
0.0
  0
LINE
  5
2DF
  8
回08-記事
  6
CONTINUOUS
 62
     7
 10
523.4162092423225
 20
54.93278017020583
 30
0.0
 11
521.3102092423228
 21
50.72078017020562
 31
0.0
  0
LINE
  5
2E0
  8
回08-記事
  6
CONTINUOUS
 62
     7
 10
528.2132092423228
 20
54.93278017020583
 30
0.0
 11
526.1072092423228
 21
50.72078017020562
 31
0.0
  0
LINE
  5
2E1
  8
回08-記事
  6
CONTINUOUS
 62
     7
 10
528.2132092423228
 20
54.93278017020583
 30
0.0
 11
530.3192092423228
 21
50.72078017020562
 31
0.0
  0
LINE
  5
2E2
  8
回08-記事
  6
CONTINUOUS
 62
     7
 10
523.4162092423225
 20
54.93278017020583
 30
0.0
 11
525.5222092423228
 21
50.72078017020562
 31
0.0
  0
LINE
  5
2E3
  8
回08-記事
  6
CONTINUOUS
 62
     7
 10
514.9922092423223
 20
54.93278017020583
 30
0.0
 11
517.098209242323
 21
50.72078017020562
 31
0.0
  0
LINE
  5
2E4
  8
回08-記事
  6
CONTINUOUS
 62
     7
 10
519.2042092423226
 20
54.93278017020583
 30
0.0
 11
517.098209242323
 21
50.72078017020562
 31
0.0
  0
LINE
  5
2E5
  8
回08-記事
  6
CONTINUOUS
 62
     7
 10
519.2042092423226
 20
54.93278017020583
 30
0.0
 11
521.3102092423228
 21
50.72078017020562
 31
0.0
  0
LINE
  5
2E6
  8
回08-記事
  6
CONTINUOUS
 62
     7
 10
531.3722092423225
 20
52.82678017020572
 30
0.0
 11
530.3192092423228
 21
50.72078017020562
 31
0.0
  0
LINE
  5
2E7
  8
回08-記事
  6
CONTINUOUS
 62
     7
 10
523.2407092423228
 20
54.58178017020583
 30
0.0
 11
519.0287092423227
 21
52.47578017020543
 31
0.0
  0
LINE
  5
2E8
  8
回08-記事
  6
CONTINUOUS
 62
     7
 10
519.0287092423227
 20
52.47578017020543
 30
0.0
 11
523.2407092423228
 21
50.36978017020556
 31
0.0
  0
LINE
  5
2E9
  8
回08-記事
  6
CONTINUOUS
 62
     7
 10
531.3722092423225
 20
52.82678017020572
 30
0.0
 11
534.8822092423225
 21
52.82678017020572
 31
0.0
  0
TEXT
  5
2EA
  8
回08-記事
  6
CONTINUOUS
 62
     7
 10
496.5692492705522
 20
51.95523933934703
 30
0.0
 40
4.094999999999998
  1
XL
  0
LINE
  5
2EB
  8
回08-記事
  6
CONTINUOUS
 62
     7
 10
520.5497092423228
 20
64.35128017020542
 30
0.0
 11
523.2407092423228
 21
63.00578017020581
 31
0.0
  0
LINE
  5
2EC
  8
回08-記事
  6
CONTINUOUS
 62
     7
 10
523.2407092423228
 20
63.00578017020581
 30
0.0
 11
519.0287092423227
 21
60.89978017020571
 31
0.0
  0
LINE
  5
2ED
  8
回08-記事
  6
CONTINUOUS
 62
     7
 10
510.7802092423225
 20
54.93278017020583
 30
0.0
 11
512.8862092423227
 21
50.72078017020562
 31
0.0
  0
LINE
  5
2EE
  8
回08-記事
  6
CONTINUOUS
 62
     7
 10
510.7802092423225
 20
54.93278017020583
 30
0.0
 11
509.7272092423225
 21
52.82678017020572
 31
0.0
  0
LINE
  5
2EF
  8
回08-記事
  6
CONTINUOUS
 62
     7
 10
504.3544613549082
 20
52.82678017020572
 30
0.0
 11
509.7272092423225
 21
52.82678017020572
 31
0.0
  0
TEXT
  5
2F0
  8
回08-記事
  6
CONTINUOUS
 62
     7
 10
523.235430949634
 20
34.53725808708816
 30
0.0
 40
4.094999999999998
  1
YD
  0
LINE
  5
2F1
  8
回08-記事
  6
CONTINUOUS
 62
     7
 10
514.9922092423223
 20
54.93278017020583
 30
0.0
 11
512.8862092423227
 21
50.72078017020562
 31
0.0
  0
TEXT
  5
2F2
  8
回08-記事
  6
CONTINUOUS
 62
     7
 10
502.0060459208898
 20
77.92577095226106
 30
0.0
 40
4.679999999999999
  1
1
  0
TEXT
  5
2F3
  8
回08-記事
  6
CONTINUOUS
 62
     7
 10
518.7744427523093
 20
77.96658500087541
 30
0.0
 40
4.679999999999999
  1
2
  0
TEXT
  5
2F4
  8
回08-記事
  6
CONTINUOUS
 62
     7
 10
532.9497906106404
 20
77.86845875750343
 30
0.0
 40
4.679999999999999
  1
3
  0
LINE
  5
2F5
  8
回08-記事
  6
CONTINUOUS
 62
     7
 10
520.5497092423228
 20
77.39678017020587
 30
0.0
 11
520.5497092423228
 21
64.35128017020542
 31
0.0
  0
TEXT
  5
2F6
  8
回08-記事
  6
CONTINUOUS
 62
     7
 10
522.9581365375718
 20
65.22689167929451
 30
0.0
 40
4.094999999999998
  1
YU
  0
LINE
  5
2F7
  8
回08-記事
  6
CONTINUOUS
 62
     7
 10
523.2407092423228
 20
50.36978017020556
 30
0.0
 11
519.0287092423227
 21
48.26378017020545
 31
0.0
  0
TEXT
  5
2F8
  8
回08-記事
  6
CONTINUOUS
 62
     5
 10
395.3521362272815
 20
96.06332118997308
 30
0.0
 40
3.0
  1
TRACE EXPOSE
1001
ACAD
1000
MTEXTBEGIN
1070
    73
1070
     1
1070
    44
1040
1.0
1070
    74
1070
     0
1000
MTEXTEND
  0
INSERT
  5
2F9
  8
回08-記事
  6
CONTINUOUS
 62
     7
 66
     1
  2
*X4444
 10
0.0
 20
0.0
 30
0.0
  0
SEQEND
  5
3FB
  8
0
  6
CONTINUOUS
 62
     1
  0
TEXT
  5
2FA
  8
回91-枠英3
 10
581.3396448200027
 20
69.02581688399346
 30
0.0
 40
4.28
  1
1
  0
TEXT
  5
2FE
  8
回91-枠英3
 10
544.2373566231354
 20
108.1704142222987
 30
0.0
 40
4.28
  1
F
  0
LINE
  5
2FF
  8
回91-枠英3
 10
511.3569143460871
 20
113.1219214774239
 30
0.0
 11
511.3569143460871
 21
107.771921477424
 31
0.0
  0
LINE
  5
300
  8
回91-枠英3
 10
442.8769143460873
 20
113.1219214774239
 30
0.0
 11
442.8769143460873
 21
107.771921477424
 31
0.0
  0
TEXT
  5
301
  8
回91-枠英3
 10
407.2773566231353
 20
108.1704142222987
 30
0.0
 40
4.28
  1
D
  0
TEXT
  5
302
  8
回91-枠英3
 10
475.7573566231353
 20
108.1704142222987
 30
0.0
 40
4.28
  1
E
  0
LINE
  5
303
  8
回91-枠英3
 10
374.3969143460873
 20
113.1219214774239
 30
0.0
 11
374.3969143460873
 21
107.771921477424
 31
0.0
  0
TEXT
  5
304
  8
回91-枠英3
 10
338.7973566231353
 20
108.1704142222987
 30
0.0
 40
4.28
  1
C
  0
LINE
  5
305
  8
回91-枠英3
 10
305.9169143460873
 20
113.1219214774239
 30
0.0
 11
305.9169143460873
 21
107.771921477424
 31
0.0
  0
TEXT
  5
306
  8
回91-枠英3
 10
270.3173566231353
 20
108.1704142222987
 30
0.0
 40
4.28
  1
B
  0
LINE
  5
307
  8
回91-枠英3
 10
237.4369143460872
 20
113.1219214774239
 30
0.0
 11
237.4369143460872
 21
107.771921477424
 31
0.0
  0
TEXT
  5
308
  8
回91-枠英3
 10
201.8373566231353
 20
108.1704142222987
 30
0.0
 40
4.28
  1
A
  0
TEXT
  5
309
  8
回91-枠英3
 10
165.1096448200027
 20
69.02581688399346
 30
0.0
 40
4.28
  1
1
  0
LINE
  5
30A
  8
回91-枠英3
 10
168.9569143460872
 20
107.771921477424
 30
0.0
 11
579.8369143460872
 21
107.771921477424
 31
0.0
  0
LINE
  5
30B
  8
回91-枠英3
 10
585.1869143460873
 20
113.1219214774239
 30
0.0
 11
163.6069143460872
 21
113.1219214774239
 31
0.0
  0
TEXT
  5
30C
  8
回91-枠英3
 10
581.0170412074698
 20
-3.734183116006646
 30
0.0
 40
4.28
  1
2
  0
LINE
  5
30D
  8
回91-枠英3
 10
585.1869143460873
 20
35.01192147742393
 30
0.0
 11
579.8369143460872
 21
35.01192147742393
 31
0.0
  0
TEXT
  5
30E
  8
回91-枠英3
 10
581.011176704175
 20
-76.49418311600664
 30
0.0
 40
4.28
  1
3
  0
LINE
  5
30F
  8
回91-枠英3
 10
585.1869143460873
 20
-37.74807852257608
 30
0.0
 11
579.8369143460872
 21
-37.74807852257608
 31
0.0
  0
TEXT
  5
310
  8
回91-枠英3
 10
580.932968135688
 20
-149.2541831160066
 30
0.0
 40
4.28
  1
4
  0
LINE
  5
311
  8
回91-枠英3
 10
585.1869143460873
 20
-110.508078522576
 30
0.0
 11
579.8369143460872
 21
-110.508078522576
 31
0.0
  0
TEXT
  5
312
  8
回91-枠英3
 10
544.2373566231354
 20
-188.2195857777012
 30
0.0
 40
4.28
  1
F
  0
LINE
  5
313
  8
回91-枠英3
 10
511.3569143460871
 20
-183.268078522576
 30
0.0
 11
511.3569143460871
 21
-188.6180785225761
 31
0.0
  0
LINE
  5
314
  8
回91-枠英3
 10
442.8769143460873
 20
-183.268078522576
 30
0.0
 11
442.8769143460873
 21
-188.6180785225761
 31
0.0
  0
TEXT
  5
315
  8
回91-枠英3
 10
407.2773566231353
 20
-188.2195857777012
 30
0.0
 40
4.28
  1
D
  0
TEXT
  5
316
  8
回91-枠英3
 10
475.7573566231353
 20
-188.2195857777012
 30
0.0
 40
4.28
  1
E
  0
LINE
  5
317
  8
回91-枠英3
 10
374.3969143460873
 20
-183.268078522576
 30
0.0
 11
374.3969143460873
 21
-188.6180785225761
 31
0.0
  0
TEXT
  5
318
  8
回91-枠英3
 10
338.7973566231353
 20
-188.2195857777012
 30
0.0
 40
4.28
  1
C
  0
LINE
  5
319
  8
回91-枠英3
 10
305.9169143460873
 20
-183.268078522576
 30
0.0
 11
305.9169143460873
 21
-188.6180785225761
 31
0.0
  0
TEXT
  5
31A
  8
回91-枠英3
 10
270.3173566231353
 20
-188.2195857777012
 30
0.0
 40
4.28
  1
B
  0
LINE
  5
31B
  8
回91-枠英3
 10
168.9569143460872
 20
35.01192147742393
 30
0.0
 11
163.6069143460872
 21
35.01192147742393
 31
0.0
  0
TEXT
  5
31C
  8
回91-枠英3
 10
164.7870412074697
 20
-3.734183116006646
 30
0.0
 40
4.28
  1
2
  0
LINE
  5
31D
  8
回91-枠英3
 10
168.9569143460872
 20
-37.74807852257608
 30
0.0
 11
163.6069143460872
 21
-37.74807852257608
 31
0.0
  0
TEXT
  5
31E
  8
回91-枠英3
 10
164.7811767041749
 20
-76.49418311600664
 30
0.0
 40
4.28
  1
3
  0
LINE
  5
31F
  8
回91-枠英3
 10
237.4369143460872
 20
-183.268078522576
 30
0.0
 11
237.4369143460872
 21
-188.6180785225761
 31
0.0
  0
TEXT
  5
320
  8
回91-枠英3
 10
201.8373566231353
 20
-188.2195857777012
 30
0.0
 40
4.28
  1
A
  0
LINE
  5
321
  8
回91-枠英3
 10
168.9569143460872
 20
-110.508078522576
 30
0.0
 11
163.6069143460872
 21
-110.508078522576
 31
0.0
  0
TEXT
  5
322
  8
回91-枠英3
 10
164.702968135688
 20
-149.2541831160066
 30
0.0
 40
4.28
  1
4
  0
LINE
  5
323
  8
回91-枠英3
 10
585.1869143460873
 20
-188.6180785225761
 30
0.0
 11
163.6069143460872
 21
-188.6180785225761
 31
0.0
  0
LINE
  5
324
  8
回91-枠英3
 10
168.9569143460872
 20
-183.268078522576
 30
0.0
 11
579.8369143460872
 21
-183.268078522576
 31
0.0
  0
LINE
  5
325
  8
回91-枠英3
 10
163.6069143460872
 20
-188.6180785225761
 30
0.0
 11
163.6069143460872
 21
113.1219214774239
 31
0.0
  0
LINE
  5
326
  8
回91-枠英3
 10
585.1869143460873
 20
-188.6180785225761
 30
0.0
 11
585.1869143460873
 21
113.1219214774239
 31
0.0
  0
LINE
  5
327
  8
回91-枠英3
 10
168.9569143460872
 20
107.771921477424
 30
0.0
 11
168.9569143460872
 21
-183.268078522576
 31
0.0
  0
LINE
  5
328
  8
回91-枠英3
 10
579.8369143460872
 20
107.771921477424
 30
0.0
 11
579.8369143460872
 21
-183.268078522576
 31
0.0
  0
TEXT
  5
329
  8
回07-寸法
  6
CONTINUOUS
 62
     5
 10
274.3679550691807
 20
68.88660072221137
 30
0.0
 40
3.0
  1
LOT LABEL
1001
ACAD
1000
MTEXTBEGIN
1070
    73
1070
     1
1070
    44
1040
1.0
1070
    74
1070
     0
1000
MTEXTEND
  0
INSERT
  5
32A
  8
回07-寸法
  6
CONTINUOUS
 62
     5
 66
     1
  2
*X4545
 10
0.0
 20
0.0
 30
0.0
  0
SEQEND
  5
402
  8
0
  6
CONTINUOUS
 62
     1
  0
TEXT
  5
32B
  8
回08-記事
  6
CONTINUOUS
 62
     5
 10
436.6369996269138
 20
42.57924177760742
 30
0.0
 40
3.0
  1
LOT LABEL
1001
ACAD
1000
MTEXTBEGIN
1070
    73
1070
     1
1070
    44
1040
1.0
1070
    74
1070
     0
1000
MTEXTEND
  0
INSERT
  5
32C
  8
回08-記事
  6
CONTINUOUS
 62
     7
 66
     1
  2
*X4646
 10
0.0
 20
0.0
 30
0.0
  0
SEQEND
  5
409
  8
0
  6
CONTINUOUS
 62
     1
  0
TEXT
  5
32D
  8
回08-記事
  6
CONTINUOUS
 62
     5
 10
516.0828277564351
 20
-50.7625840144226
 30
0.0
 40
3.9
  1
SECTION A
  0
TEXT
  5
32E
  8
回02-上接
  6
CONTINUOUS
 62
     7
 10
498.7365211042416
 20
92.20240303012101
 30
0.0
 40
4.961249999999998
  1
PIN ASSIGNMENT
  0
ENDSEC
  0
EOF
