  0
SECTION
  2
HEADER
  9
$ACADVER
  1
AC1009
  9
$INSBASE
 10
0.0
 20
0.0
 30
0.0
  9
$EXTMIN
 10
395.7735948771841
 20
-544.2302154155127
 30
0.0
  9
$EXTMAX
 10
908.773594877184
 20
-188.7302154155127
 30
0.0
  9
$LIMMIN
 10
0.0
 20
0.0
  9
$LIMMAX
 10
3000.0
 20
2500.0
  9
$ORTHOMODE
 70
     0
  9
$REGENMODE
 70
     1
  9
$FILLMODE
 70
     1
  9
$QTEXTMODE
 70
     0
  9
$MIRRTEXT
 70
     1
  9
$DRAGMODE
 70
     2
  9
$LTSCALE
 40
1.0
  9
$OSMODE
 70
    37
  9
$ATTMODE
 70
     1
  9
$TEXTSIZE
 40
3.0
  9
$TRACEWID
 40
1.0
  9
$TEXTSTYLE
  7
STANDARD
  9
$CLAYER
  8
回07-寸法
  9
$CELTYPE
  6
CONTINUOUS
  9
$CECOLOR
 62
     7
  9
$DIMSCALE
 40
1.0
  9
$DIMASZ
 40
2.0
  9
$DIMEXO
 40
0.0
  9
$DIMDLI
 40
0.0
  9
$DIMRND
 40
0.0
  9
$DIMDLE
 40
0.0
  9
$DIMEXE
 40
1.0
  9
$DIMTP
 40
0.0
  9
$DIMTM
 40
0.0
  9
$DIMTXT
 40
3.0
  9
$DIMCEN
 40
2.0
  9
$DIMTSZ
 40
0.0
  9
$DIMTOL
 70
     0
  9
$DIMLIM
 70
     0
  9
$DIMTIH
 70
     0
  9
$DIMTOH
 70
     0
  9
$DIMSE1
 70
     0
  9
$DIMSE2
 70
     0
  9
$DIMTAD
 70
     3
  9
$DIMZIN
 70
     8
  9
$DIMBLK
  1
OPEN
  9
$DIMASO
 70
     1
  9
$DIMSHO
 70
     1
  9
$DIMPOST
  1

  9
$DIMAPOST
  1

  9
$DIMALT
 70
     1
  9
$DIMALTD
 70
     3
  9
$DIMALTF
 40
0.03937007874016
  9
$DIMLFAC
 40
1.0
  9
$DIMTOFL
 70
     1
  9
$DIMTVP
 40
0.0
  9
$DIMTIX
 70
     0
  9
$DIMSOXD
 70
     0
  9
$DIMSAH
 70
     0
  9
$DIMBLK1
  1

  9
$DIMBLK2
  1

  9
$DIMSTYLE
  2
DMC
  9
$DIMCLRD
 70
     5
  9
$DIMCLRE
 70
     5
  9
$DIMCLRT
 70
     5
  9
$DIMTFAC
 40
0.7
  9
$DIMGAP
 40
0.5
  9
$LUNITS
 70
     2
  9
$LUPREC
 70
     4
  9
$SKETCHINC
 40
1.0
  9
$FILLETRAD
 40
1.0
  9
$AUNITS
 70
     0
  9
$AUPREC
 70
     0
  9
$MENU
  1
.
  9
$ELEVATION
 40
0.0
  9
$PELEVATION
 40
0.0
  9
$THICKNESS
 40
0.0
  9
$LIMCHECK
 70
     0
  9
$BLIPMODE
 70
     0
  9
$CHAMFERA
 40
10.0
  9
$CHAMFERB
 40
10.0
  9
$SKPOLY
 70
     0
  9
$TDCREATE
 40
2451810.404221065
  9
$TDUPDATE
 40
2460221.413933333
  9
$TDINDWG
 40
1.073193947
  9
$TDUSRTIMER
 40
1.073191597
  9
$USRTIMER
 70
     1
  9
$ANGBASE
 50
0.0
  9
$ANGDIR
 70
     0
  9
$PDMODE
 70
     0
  9
$PDSIZE
 40
0.0
  9
$PLINEWID
 40
0.2
  9
$COORDS
 70
     0
  9
$SPLFRAME
 70
     0
  9
$SPLINETYPE
 70
     6
  9
$SPLINESEGS
 70
     8
  9
$ATTDIA
 70
     1
  9
$ATTREQ
 70
     1
  9
$HANDLING
 70
     1
  9
$HANDSEED
  5
975
  9
$SURFTAB1
 70
     6
  9
$SURFTAB2
 70
     6
  9
$SURFTYPE
 70
     6
  9
$SURFU
 70
     6
  9
$SURFV
 70
     6
  9
$UCSNAME
  2

  9
$UCSORG
 10
0.0
 20
0.0
 30
0.0
  9
$UCSXDIR
 10
1.0
 20
0.0
 30
0.0
  9
$UCSYDIR
 10
0.0
 20
1.0
 30
0.0
  9
$PUCSNAME
  2

  9
$PUCSORG
 10
0.0
 20
0.0
 30
0.0
  9
$PUCSXDIR
 10
1.0
 20
0.0
 30
0.0
  9
$PUCSYDIR
 10
0.0
 20
1.0
 30
0.0
  9
$USERI1
 70
     0
  9
$USERI2
 70
     0
  9
$USERI3
 70
     0
  9
$USERI4
 70
     0
  9
$USERI5
 70
     0
  9
$USERR1
 40
0.0
  9
$USERR2
 40
0.0
  9
$USERR3
 40
0.0
  9
$USERR4
 40
0.0
  9
$USERR5
 40
0.0
  9
$WORLDVIEW
 70
     1
  9
$SHADEDGE
 70
     3
  9
$SHADEDIF
 70
    70
  9
$TILEMODE
 70
     1
  9
$MAXACTVP
 70
    64
  9
$PLIMCHECK
 70
     0
  9
$PEXTMIN
 10
1.000000000000000E+20
 20
1.000000000000000E+20
 30
1.000000000000000E+20
  9
$PEXTMAX
 10
-1.000000000000000E+20
 20
-1.000000000000000E+20
 30
-1.000000000000000E+20
  9
$PLIMMIN
 10
0.0
 20
0.0
  9
$PLIMMAX
 10
420.0
 20
297.0
  9
$UNITMODE
 70
     0
  9
$VISRETAIN
 70
     1
  9
$PLINEGEN
 70
     0
  9
$PSLTSCALE
 70
     1
  0
ENDSEC
  0
SECTION
  2
TABLES
  0
TABLE
  2
VPORT
 70
     1
  0
VPORT
  2
*ACTIVE
 70
     0
 10
0.0
 20
0.0
 11
1.0
 21
1.0
 12
663.2019982205295
 22
-432.7660293459084
 13
0.0
 23
0.0
 14
10.0
 24
10.0
 15
10.0
 25
10.0
 16
0.0
 26
0.0
 36
1.0
 17
0.0
 27
0.0
 37
0.0
 40
591.5497855593255
 41
1.002570694087403
 42
50.0
 43
0.0
 44
0.0
 50
0.0
 51
0.0
 71
     0
 72
   500
 73
     1
 74
     1
 75
     0
 76
     0
 77
     0
 78
     0
  0
ENDTAB
  0
TABLE
  2
LTYPE
 70
     4
  0
LTYPE
  2
CONTINUOUS
 70
     0
  3
Solid line
 72
    65
 73
     0
 40
0.0
  0
LTYPE
  2
CENTER2
 70
     0
  3
Center (.5x) ___ _ ___ _ ___ _ ___ _ ___ _ ___
 72
    65
 73
     4
 40
28.575
 49
19.05
 49
-3.174999999999998
 49
3.174999999999998
 49
-3.174999999999998
  0
LTYPE
  2
DASHED2
 70
     0
  3
Dashed (.5x) _ _ _ _ _ _ _ _ _ _ _ _ _ _ _ _ _
 72
    65
 73
     2
 40
9.524999999999996
 49
6.349999999999997
 49
-3.174999999999998
  0
LTYPE
  2
PHANTOM2
 70
     0
  3
Phantom (.5x) ___ _ _ ___ _ _ ___ _ _ ___ _ _
 72
    65
 73
     6
 40
31.75
 49
15.875
 49
-3.174999999999998
 49
3.174999999999998
 49
-3.174999999999998
 49
3.174999999999998
 49
-3.174999999999998
  0
ENDTAB
  0
TABLE
  2
LAYER
 70
     8
  0
LAYER
  2
0
 70
     0
 62
     7
  6
CONTINUOUS
  0
LAYER
  2
DEFPOINTS
 70
     0
 62
     7
  6
CONTINUOUS
  0
LAYER
  2
回04-下接
 70
     0
 62
     7
  6
CONTINUOUS
  0
LAYER
  2
回07-寸法
 70
     0
 62
     7
  6
CONTINUOUS
  0
LAYER
  2
回08-記事
 70
     0
 62
     7
  6
CONTINUOUS
  0
LAYER
  2
回91-枠英2
 70
     0
 62
     7
  6
CONTINUOUS
  0
LAYER
  2
回05-ﾃ-ﾙ
 70
     0
 62
     7
  6
CONTINUOUS
  0
LAYER
  2
回03-記事
 70
     0
 62
     7
  6
CONTINUOUS
  0
ENDTAB
  0
TABLE
  2
STYLE
 70
     2
  0
STYLE
  2
STANDARD
 70
     0
 40
3.0
 41
1.0
 50
0.0
 71
     0
 42
3.0
  3
isocp.shx
  4
bigfont.shx
  0
STYLE
  2
ANNOTATIVE
 70
     0
 40
0.0
 41
1.0
 50
0.0
 71
     0
 42
0.2
  3
txt.shx
  4

  0
ENDTAB
  0
TABLE
  2
VIEW
 70
     0
  0
ENDTAB
  0
TABLE
  2
UCS
 70
     0
  0
ENDTAB
  0
TABLE
  2
APPID
 70
     5
  0
APPID
  2
ACAD
 70
     0
  0
APPID
  2
ACADANNOTATIVE
 70
     0
  0
APPID
  2
ACAD_NAV_VCDISPLAY
 70
     0
  0
APPID
  2
PLOTTRANSPARENCY
 70
     0
  0
APPID
  2
ACAD_PSEXT
 70
     0
  0
ENDTAB
  0
TABLE
  2
DIMSTYLE
 70
     1
  0
DIMSTYLE
  2
DMC
 70
     0
  3

  4

  5
OPEN
  6

  7

 40
1.0
 41
2.0
 42
0.0
 43
0.0
 44
1.0
 45
0.0
 46
0.0
 47
0.0
 48
0.0
140
3.0
141
2.0
142
0.0
143
0.03937007874016
144
1.0
145
0.0
146
0.7
147
0.5
 71
     0
 72
     0
 73
     0
 74
     0
 75
     0
 76
     0
 77
     3
 78
     8
170
     0
171
     3
172
     1
173
     0
174
     0
175
     0
176
     5
177
     5
178
     5
  0
ENDTAB
  0
ENDSEC
  0
SECTION
  2
BLOCKS
  0
BLOCK
  8
0
  2
$MODEL_SPACE
 70
     0
 10
0.0
 20
0.0
 30
0.0
  3
$MODEL_SPACE
  1

  0
ENDBLK
  8
0
  5
1E
  0
BLOCK
 67
     1
  8
0
  2
$PAPER_SPACE
 70
     0
 10
0.0
 20
0.0
 30
0.0
  3
$PAPER_SPACE
  1

  0
ENDBLK
  5
23
 67
     1
  8
0
  0
BLOCK
  8
0
  2
_OPEN
 70
     0
 10
0.0
 20
0.0
 30
0.0
  3
_OPEN
  1

  0
LINE
  5
7DF
  8
0
  6
BYBLOCK
 62
     0
 10
-1.0
 20
0.166667
 30
0.0
 11
0.0
 21
0.0
 31
0.0
  0
LINE
  5
7E0
  8
0
  6
BYBLOCK
 62
     0
 10
-1.0
 20
-0.166667
 30
0.0
 11
0.0
 21
0.0
 31
0.0
  0
LINE
  5
7E1
  8
0
  6
BYBLOCK
 62
     0
 10
0.0
 20
0.0
 30
0.0
 11
-1.0
 21
0.0
 31
0.0
  0
LINE
  5
5F3
  8
0
  6
BYBLOCK
 62
     0
 10
-1.0
 20
0.166667
 30
0.0
 11
0.0
 21
0.0
 31
0.0
  0
LINE
  5
5F4
  8
0
  6
BYBLOCK
 62
     0
 10
-1.0
 20
-0.166667
 30
0.0
 11
0.0
 21
0.0
 31
0.0
  0
LINE
  5
5F5
  8
0
  6
BYBLOCK
 62
     0
 10
0.0
 20
0.0
 30
0.0
 11
-1.0
 21
0.0
 31
0.0
  0
LINE
  5
12
  8
0
  6
CONTINUOUS
 62
     0
 10
-1.0
 20
0.1666666666666666
 30
0.0
 11
0.0
 21
0.0
 31
0.0
  0
LINE
  5
13
  8
0
  6
CONTINUOUS
 62
     0
 10
-1.0
 20
-0.1666666666666666
 30
0.0
 11
0.0
 21
0.0
 31
0.0
  0
LINE
  5
14
  8
0
  6
CONTINUOUS
 62
     0
 10
0.0
 20
0.0
 30
0.0
 11
-1.0
 21
0.0
 31
0.0
  0
ENDBLK
  5
15
  8
0
  0
BLOCK
  8
0
  2
*D111
 70
     1
 10
0.0
 20
0.0
 30
0.0
  3
*D111
  1

  0
LINE
  5
45B
  8
回07-寸法
  6
CONTINUOUS
 62
     5
 10
445.4439812394097
 20
-489.4165222000871
 30
0.0
 11
445.4439812394097
 21
-511.2130960601415
 31
0.0
  0
LINE
  5
45C
  8
回07-寸法
  6
CONTINUOUS
 62
     5
 10
455.4439812394098
 20
-489.4165222000871
 30
0.0
 11
455.4439812394098
 21
-511.2130960601415
 31
0.0
  0
LINE
  5
45D
  8
回07-寸法
  6
CONTINUOUS
 62
     5
 10
443.4439812394098
 20
-510.2130960601416
 30
0.0
 11
441.4439812394097
 21
-510.2130960601416
 31
0.0
  0
LINE
  5
45E
  8
回07-寸法
  6
CONTINUOUS
 62
     5
 10
457.4439812394096
 20
-510.2130960601416
 30
0.0
 11
479.3521020261682
 21
-510.2130960601416
 31
0.0
  0
LINE
  5
45F
  8
回07-寸法
  6
CONTINUOUS
 62
     5
 10
445.4439812394097
 20
-510.2130960601416
 30
0.0
 11
455.4439812394098
 21
-510.2130960601416
 31
0.0
  0
INSERT
  5
460
  8
回07-寸法
  6
CONTINUOUS
 62
     5
 66
     1
  2
_OPEN
 10
445.4439812394097
 20
-510.2130960601416
 30
0.0
 41
2.0
 42
2.0
 43
2.0
  0
SEQEND
  5
461
  8
回07-寸法
  6
CONTINUOUS
 62
     7
  0
INSERT
  5
462
  8
回07-寸法
  6
CONTINUOUS
 62
     5
 66
     1
  2
_OPEN
 10
455.4439812394098
 20
-510.2130960601416
 30
0.0
 41
2.0
 42
2.0
 43
2.0
 50
180.0
  0
SEQEND
  5
463
  8
回07-寸法
  6
CONTINUOUS
 62
     7
  0
TEXT
  5
464
  8
回07-寸法
  6
CONTINUOUS
 62
     5
 10
459.4926260799986
 20
-509.5631559662439
 30
0.0
 40
3.0
  1
(10 [0.394])
1001
ACAD
1000
MTEXTBEGIN
1070
    73
1070
     1
1070
    44
1040
1.0
1070
    74
1070
     0
1000
MTEXTEND
  0
POINT
  5
465
  8
DEFPOINTS
  6
CONTINUOUS
 62
     0
 10
445.4439812394097
 20
-489.4165222000871
 30
0.0
  0
POINT
  5
466
  8
DEFPOINTS
  6
CONTINUOUS
 62
     0
 10
455.4439812394098
 20
-489.4165222000871
 30
0.0
  0
POINT
  5
467
  8
DEFPOINTS
  6
CONTINUOUS
 62
     0
 10
455.4439812394098
 20
-510.2130960601416
 30
0.0
  0
ENDBLK
  5
468
  8
0
 62
    30
  0
BLOCK
  8
0
  2
*D222
 70
     1
 10
0.0
 20
0.0
 30
0.0
  3
*D222
  1

  0
LINE
  5
444
  8
回07-寸法
  6
CONTINUOUS
 62
     5
 10
445.4439812394097
 20
-484.416522200087
 30
0.0
 11
445.4439812394097
 21
-475.8007168191059
 31
0.0
  0
LINE
  5
445
  8
回07-寸法
  6
CONTINUOUS
 62
     5
 10
450.4439812394097
 20
-483.616522200087
 30
0.0
 11
450.4439812394097
 21
-475.8007168191059
 31
0.0
  0
LINE
  5
446
  8
回07-寸法
  6
CONTINUOUS
 62
     5
 10
443.4439812394098
 20
-476.800716819106
 30
0.0
 11
441.4439812394097
 21
-476.800716819106
 31
0.0
  0
LINE
  5
447
  8
回07-寸法
  6
CONTINUOUS
 62
     5
 10
452.4439812394096
 20
-476.800716819106
 30
0.0
 11
469.5544642308925
 21
-476.800716819106
 31
0.0
  0
LINE
  5
448
  8
回07-寸法
  6
CONTINUOUS
 62
     5
 10
445.4439812394097
 20
-476.800716819106
 30
0.0
 11
450.4439812394097
 21
-476.800716819106
 31
0.0
  0
INSERT
  5
449
  8
回07-寸法
  6
CONTINUOUS
 62
     5
 66
     1
  2
_OPEN
 10
445.4439812394097
 20
-476.800716819106
 30
0.0
 41
2.0
 42
2.0
 43
2.0
  0
SEQEND
  5
44A
  8
回07-寸法
  6
CONTINUOUS
 62
     7
  0
INSERT
  5
44B
  8
回07-寸法
  6
CONTINUOUS
 62
     5
 66
     1
  2
_OPEN
 10
450.4439812394097
 20
-476.800716819106
 30
0.0
 41
2.0
 42
2.0
 43
2.0
 50
180.0
  0
SEQEND
  5
44C
  8
回07-寸法
  6
CONTINUOUS
 62
     7
  0
TEXT
  5
44D
  8
回07-寸法
  6
CONTINUOUS
 62
     5
 10
454.4938071823606
 20
-476.1507767252083
 30
0.0
 40
3.0
  1
5 [0.197]
1001
ACAD
1000
MTEXTBEGIN
1070
    73
1070
     1
1070
    44
1040
1.0
1070
    74
1070
     0
1000
MTEXTEND
  0
POINT
  5
44E
  8
DEFPOINTS
  6
CONTINUOUS
 62
     0
 10
445.4439812394097
 20
-484.416522200087
 30
0.0
  0
POINT
  5
44F
  8
DEFPOINTS
  6
CONTINUOUS
 62
     0
 10
450.4439812394097
 20
-483.616522200087
 30
0.0
  0
POINT
  5
450
  8
DEFPOINTS
  6
CONTINUOUS
 62
     0
 10
450.4439812394097
 20
-476.800716819106
 30
0.0
  0
ENDBLK
  5
451
  8
0
 62
    30
  0
BLOCK
  8
0
  2
*D333
 70
     1
 10
0.0
 20
0.0
 30
0.0
  3
*D333
  1

  0
LINE
  5
40E
  8
回07-寸法
 62
     5
 10
719.4439846285072
 20
-440.3019140597042
 30
0.0
 11
773.4315821116187
 21
-440.3019140597042
 31
0.0
  0
LINE
  5
40F
  8
回07-寸法
 62
     5
 10
712.4439846285069
 20
-367.3019140597044
 30
0.0
 11
773.4315821116187
 21
-367.3019140597044
 31
0.0
  0
LINE
  5
410
  8
回07-寸法
 62
     5
 10
772.4315821116188
 20
-438.3019140597043
 30
0.0
 11
772.4315821116188
 21
-369.3019140597044
 31
0.0
  0
INSERT
  5
411
  8
回07-寸法
 62
     5
 66
     1
  2
_OPEN
 10
772.4315821116188
 20
-440.3019140597042
 30
0.0
 41
2.0
 42
2.0
 43
2.0
 50
270.0
  0
SEQEND
  5
412
  8
回07-寸法
  6
CONTINUOUS
 62
     7
  0
INSERT
  5
413
  8
回07-寸法
 62
     5
 66
     1
  2
_OPEN
 10
772.4315821116188
 20
-367.3019140597044
 30
0.0
 41
2.0
 42
2.0
 43
2.0
 50
90.0
  0
SEQEND
  5
414
  8
回07-寸法
  6
CONTINUOUS
 62
     7
  0
INSERT
  5
415
  8
回07-寸法
 62
     5
 66
     1
  2
*X575757
 10
0.0
 20
0.0
 30
0.0
  0
SEQEND
  5
528
  8
回07-寸法
  6
CONTINUOUS
 62
     7
  0
POINT
  5
416
  8
DEFPOINTS
 62
     0
 10
719.4439846285072
 20
-440.3019140597042
 30
0.0
  0
POINT
  5
417
  8
DEFPOINTS
 62
     0
 10
712.4439846285069
 20
-367.3019140597044
 30
0.0
  0
POINT
  5
418
  8
DEFPOINTS
 62
     0
 10
772.4315821116188
 20
-367.3019140597044
 30
0.0
  0
ENDBLK
  5
419
  8
0
 62
    30
  0
BLOCK
  8
0
  2
*D444
 70
     1
 10
0.0
 20
0.0
 30
0.0
  3
*D444
  1

  0
LINE
  5
3FF
  8
回07-寸法
 62
     5
 10
709.6939846285072
 20
-432.3019140597042
 30
0.0
 11
755.4598764757621
 21
-432.3019140597042
 31
0.0
  0
LINE
  5
400
  8
回07-寸法
 62
     5
 10
709.6939846285072
 20
-302.3019140597043
 30
0.0
 11
755.4598764757621
 21
-302.3019140597043
 31
0.0
  0
LINE
  5
401
  8
回07-寸法
 62
     5
 10
754.4598764757621
 20
-430.3019140597043
 30
0.0
 11
754.4598764757621
 21
-304.3019140597043
 31
0.0
  0
INSERT
  5
402
  8
回07-寸法
 62
     5
 66
     1
  2
_OPEN
 10
754.4598764757621
 20
-432.3019140597042
 30
0.0
 41
2.0
 42
2.0
 43
2.0
 50
270.0
  0
SEQEND
  5
403
  8
回07-寸法
  6
CONTINUOUS
 62
     7
  0
INSERT
  5
404
  8
回07-寸法
 62
     5
 66
     1
  2
_OPEN
 10
754.4598764757621
 20
-302.3019140597043
 30
0.0
 41
2.0
 42
2.0
 43
2.0
 50
90.0
  0
SEQEND
  5
405
  8
回07-寸法
  6
CONTINUOUS
 62
     7
  0
INSERT
  5
406
  8
回07-寸法
 62
     5
 66
     1
  2
*X585858
 10
0.0
 20
0.0
 30
0.0
  0
SEQEND
  5
52E
  8
回07-寸法
  6
CONTINUOUS
 62
     7
  0
POINT
  5
407
  8
DEFPOINTS
 62
     0
 10
709.6939846285072
 20
-432.3019140597042
 30
0.0
  0
POINT
  5
408
  8
DEFPOINTS
 62
     0
 10
709.6939846285072
 20
-302.3019140597043
 30
0.0
  0
POINT
  5
409
  8
DEFPOINTS
 62
     0
 10
754.4598764757621
 20
-302.3019140597043
 30
0.0
  0
ENDBLK
  5
40A
  8
0
 62
    30
  0
BLOCK
  8
0
  2
*D555
 70
     1
 10
0.0
 20
0.0
 30
0.0
  3
*D555
  1

  0
LINE
  5
3F0
  8
回07-寸法
 62
     5
 10
712.4439846285071
 20
-299.3019140597044
 30
0.0
 11
764.0882445276239
 21
-299.3019140597044
 31
0.0
  0
LINE
  5
3F1
  8
回07-寸法
 62
     5
 10
712.4439846285071
 20
-435.3019140597043
 30
0.0
 11
764.0882445276239
 21
-435.3019140597043
 31
0.0
  0
LINE
  5
3F2
  8
回07-寸法
 62
     5
 10
763.0882445276239
 20
-301.3019140597044
 30
0.0
 11
763.0882445276239
 21
-433.3019140597043
 31
0.0
  0
INSERT
  5
3F3
  8
回07-寸法
 62
     5
 66
     1
  2
_OPEN
 10
763.0882445276239
 20
-299.3019140597044
 30
0.0
 41
2.0
 42
2.0
 43
2.0
 50
90.0
  0
SEQEND
  5
3F4
  8
回07-寸法
  6
CONTINUOUS
 62
     7
  0
INSERT
  5
3F5
  8
回07-寸法
 62
     5
 66
     1
  2
_OPEN
 10
763.0882445276239
 20
-435.3019140597043
 30
0.0
 41
2.0
 42
2.0
 43
2.0
 50
270.0
  0
SEQEND
  5
3F6
  8
回07-寸法
  6
CONTINUOUS
 62
     7
  0
INSERT
  5
3F7
  8
回07-寸法
 62
     5
 66
     1
  2
*X595959
 10
0.0
 20
0.0
 30
0.0
  0
SEQEND
  5
534
  8
回07-寸法
  6
CONTINUOUS
 62
     7
  0
POINT
  5
3F8
  8
DEFPOINTS
 62
     0
 10
712.4439846285071
 20
-299.3019140597044
 30
0.0
  0
POINT
  5
3F9
  8
DEFPOINTS
 62
     0
 10
712.4439846285071
 20
-435.3019140597043
 30
0.0
  0
POINT
  5
3FA
  8
DEFPOINTS
 62
     0
 10
763.0882445276239
 20
-435.3019140597043
 30
0.0
  0
ENDBLK
  5
3FB
  8
0
 62
    30
  0
BLOCK
  8
0
  2
*D666
 70
     1
 10
0.0
 20
0.0
 30
0.0
  3
*D666
  1

  0
LINE
  5
3DF
  8
回07-寸法
 62
     5
 10
719.4439846285072
 20
-440.3019140597042
 30
0.0
 11
764.0882445276239
 21
-440.3019140597042
 31
0.0
  0
LINE
  5
3E0
  8
回07-寸法
 62
     5
 10
712.4439846285071
 20
-435.3019140597043
 30
0.0
 11
764.0882445276239
 21
-435.3019140597043
 31
0.0
  0
LINE
  5
3E1
  8
回07-寸法
 62
     5
 10
763.0882445276239
 20
-433.3019140597043
 30
0.0
 11
763.0882445276239
 21
-431.3019140597043
 31
0.0
  0
LINE
  5
3E2
  8
回07-寸法
 62
     5
 10
763.0882445276239
 20
-442.3019140597043
 30
0.0
 11
763.0882445276239
 21
-459.4123970511872
 31
0.0
  0
LINE
  5
3E3
  8
回07-寸法
 62
     5
 10
763.0882445276239
 20
-435.3019140597043
 30
0.0
 11
763.0882445276239
 21
-440.3019140597042
 31
0.0
  0
INSERT
  5
3E4
  8
回07-寸法
 62
     5
 66
     1
  2
_OPEN
 10
763.0882445276239
 20
-435.3019140597043
 30
0.0
 41
2.0
 42
2.0
 43
2.0
 50
270.0
  0
SEQEND
  5
3E5
  8
回07-寸法
  6
CONTINUOUS
 62
     7
  0
INSERT
  5
3E6
  8
回07-寸法
 62
     5
 66
     1
  2
_OPEN
 10
763.0882445276239
 20
-440.3019140597042
 30
0.0
 41
2.0
 42
2.0
 43
2.0
 50
90.0
  0
SEQEND
  5
3E7
  8
回07-寸法
  6
CONTINUOUS
 62
     7
  0
TEXT
  5
3E8
  8
回07-寸法
 62
     5
 10
762.4383044337262
 20
-459.3625711082363
 30
0.0
 40
3.0
  1
5 [0.197]
 50
90.0
1001
ACAD
1000
MTEXTBEGIN
1070
    73
1070
     1
1070
    44
1040
1.0
1070
    74
1070
     0
1000
MTEXTEND
  0
POINT
  5
3E9
  8
DEFPOINTS
 62
     0
 10
719.4439846285072
 20
-440.3019140597042
 30
0.0
  0
POINT
  5
3EA
  8
DEFPOINTS
 62
     0
 10
712.4439846285071
 20
-435.3019140597043
 30
0.0
  0
POINT
  5
3EB
  8
DEFPOINTS
 62
     0
 10
763.0882445276239
 20
-435.3019140597043
 30
0.0
  0
ENDBLK
  5
3EC
  8
0
 62
    30
  0
BLOCK
  8
0
  2
*D777
 70
     1
 10
0.0
 20
0.0
 30
0.0
  3
*D777
  1

  0
LINE
  5
3CE
  8
回07-寸法
 62
     5
 10
719.4439846285072
 20
-440.3019140597042
 30
0.0
 11
755.4598764757621
 21
-440.3019140597042
 31
0.0
  0
LINE
  5
3CF
  8
回07-寸法
 62
     5
 10
709.6939846285072
 20
-432.3019140597042
 30
0.0
 11
755.4598764757621
 21
-432.3019140597042
 31
0.0
  0
LINE
  5
3D0
  8
回07-寸法
 62
     5
 10
754.4598764757621
 20
-430.3019140597043
 30
0.0
 11
754.4598764757621
 21
-428.3019140597042
 31
0.0
  0
LINE
  5
3D1
  8
回07-寸法
 62
     5
 10
754.4598764757621
 20
-442.3019140597043
 30
0.0
 11
754.4598764757621
 21
-459.4019140597042
 31
0.0
  0
LINE
  5
3D2
  8
回07-寸法
 62
     5
 10
754.4598764757621
 20
-432.3019140597042
 30
0.0
 11
754.4598764757621
 21
-440.3019140597042
 31
0.0
  0
INSERT
  5
3D3
  8
回07-寸法
 62
     5
 66
     1
  2
_OPEN
 10
754.4598764757621
 20
-432.3019140597042
 30
0.0
 41
2.0
 42
2.0
 43
2.0
 50
270.0
  0
SEQEND
  5
3D4
  8
回07-寸法
  6
CONTINUOUS
 62
     7
  0
INSERT
  5
3D5
  8
回07-寸法
 62
     5
 66
     1
  2
_OPEN
 10
754.4598764757621
 20
-440.3019140597042
 30
0.0
 41
2.0
 42
2.0
 43
2.0
 50
90.0
  0
SEQEND
  5
3D6
  8
回07-寸法
  6
CONTINUOUS
 62
     7
  0
TEXT
  5
3D7
  8
回07-寸法
 62
     5
 10
753.8098764757621
 20
-459.3519140597042
 30
0.0
 40
3.0
  1
8 [0.315]
 50
90.0
1001
ACAD
1000
MTEXTBEGIN
1070
    73
1070
     1
1070
    44
1040
1.0
1070
    74
1070
     0
1000
MTEXTEND
  0
POINT
  5
3D8
  8
DEFPOINTS
 62
     0
 10
719.4439846285072
 20
-440.3019140597042
 30
0.0
  0
POINT
  5
3D9
  8
DEFPOINTS
 62
     0
 10
709.6939846285072
 20
-432.3019140597042
 30
0.0
  0
POINT
  5
3DA
  8
DEFPOINTS
 62
     0
 10
754.4598764757621
 20
-432.3019140597042
 30
0.0
  0
ENDBLK
  5
3DB
  8
0
 62
    30
  0
BLOCK
  8
0
  2
*D888
 70
     1
 10
0.0
 20
0.0
 30
0.0
  3
*D888
  1

  0
LINE
  5
3BF
  8
回07-寸法
 62
     5
 10
719.4439846285072
 20
-294.3019140597044
 30
0.0
 11
801.2149849374445
 21
-294.3019140597044
 31
0.0
  0
LINE
  5
3C0
  8
回07-寸法
 62
     5
 10
719.4439846285072
 20
-440.3019140597042
 30
0.0
 11
801.2149849374445
 21
-440.3019140597042
 31
0.0
  0
LINE
  5
3C1
  8
回07-寸法
 62
     5
 10
800.2149849374443
 20
-296.3019140597044
 30
0.0
 11
800.2149849374443
 21
-438.3019140597043
 31
0.0
  0
INSERT
  5
3C2
  8
回07-寸法
 62
     5
 66
     1
  2
_OPEN
 10
800.2149849374443
 20
-294.3019140597044
 30
0.0
 41
2.0
 42
2.0
 43
2.0
 50
90.0
  0
SEQEND
  5
3C3
  8
回07-寸法
  6
CONTINUOUS
 62
     7
  0
INSERT
  5
3C4
  8
回07-寸法
 62
     5
 66
     1
  2
_OPEN
 10
800.2149849374443
 20
-440.3019140597042
 30
0.0
 41
2.0
 42
2.0
 43
2.0
 50
270.0
  0
SEQEND
  5
3C5
  8
回07-寸法
  6
CONTINUOUS
 62
     7
  0
INSERT
  5
3C6
  8
回07-寸法
 62
     5
 66
     1
  2
*X606060
 10
0.0
 20
0.0
 30
0.0
  0
SEQEND
  5
53D
  8
回07-寸法
  6
CONTINUOUS
 62
     7
  0
POINT
  5
3C7
  8
DEFPOINTS
 62
     0
 10
719.4439846285072
 20
-294.3019140597044
 30
0.0
  0
POINT
  5
3C8
  8
DEFPOINTS
 62
     0
 10
719.4439846285072
 20
-440.3019140597042
 30
0.0
  0
POINT
  5
3C9
  8
DEFPOINTS
 62
     0
 10
800.2149849374443
 20
-440.3019140597042
 30
0.0
  0
ENDBLK
  5
3CA
  8
0
 62
    30
  0
BLOCK
  8
0
  2
*D999
 70
     1
 10
0.0
 20
0.0
 30
0.0
  3
*D999
  1

  0
LINE
  5
3AB
  8
回07-寸法
 62
     5
 10
525.443984628507
 20
-294.3019140597044
 30
0.0
 11
525.443984628507
 21
-277.3016658262998
 31
0.0
  0
LINE
  5
3AC
  8
回07-寸法
 62
     5
 10
535.4439846285071
 20
-299.3019140597044
 30
0.0
 11
535.4439846285071
 21
-277.3016658262998
 31
0.0
  0
LINE
  5
3AD
  8
回07-寸法
 62
     5
 10
537.4439846285071
 20
-278.3016658262998
 30
0.0
 11
539.4439846285071
 21
-278.3016658262998
 31
0.0
  0
LINE
  5
3AE
  8
回07-寸法
 62
     5
 10
523.4439846285071
 20
-278.3016658262998
 30
0.0
 11
503.9335016370244
 21
-278.3016658262998
 31
0.0
  0
LINE
  5
3AF
  8
回07-寸法
 62
     5
 10
535.4439846285071
 20
-278.3016658262998
 30
0.0
 11
525.443984628507
 21
-278.3016658262998
 31
0.0
  0
INSERT
  5
3B0
  8
回07-寸法
 62
     5
 66
     1
  2
_OPEN
 10
535.4439846285071
 20
-278.3016658262998
 30
0.0
 41
2.0
 42
2.0
 43
2.0
 50
180.0
  0
SEQEND
  5
3B1
  8
回07-寸法
  6
CONTINUOUS
 62
     7
  0
INSERT
  5
3B2
  8
回07-寸法
 62
     5
 66
     1
  2
_OPEN
 10
525.443984628507
 20
-278.3016658262998
 30
0.0
 41
2.0
 42
2.0
 43
2.0
  0
SEQEND
  5
3B3
  8
回07-寸法
  6
CONTINUOUS
 62
     7
  0
TEXT
  5
3B4
  8
回07-寸法
 62
     5
 10
503.9833275799751
 20
-277.6517257324022
 30
0.0
 40
3.0
  1
10 [0.394]
1001
ACAD
1000
MTEXTBEGIN
1070
    73
1070
     1
1070
    44
1040
1.0
1070
    74
1070
     0
1000
MTEXTEND
  0
POINT
  5
3B5
  8
DEFPOINTS
 62
     0
 10
525.443984628507
 20
-294.3019140597044
 30
0.0
  0
POINT
  5
3B6
  8
DEFPOINTS
 62
     0
 10
535.4439846285071
 20
-299.3019140597044
 30
0.0
  0
POINT
  5
3B7
  8
DEFPOINTS
 62
     0
 10
535.4439846285071
 20
-278.3016658262998
 30
0.0
  0
ENDBLK
  5
3B8
  8
0
 62
    30
  0
BLOCK
  8
0
  2
*D101010
 70
     1
 10
0.0
 20
0.0
 30
0.0
  3
*D101010
  1

  0
LINE
  5
39A
  8
回07-寸法
 62
     5
 10
525.443984628507
 20
-294.3019140597044
 30
0.0
 11
525.443984628507
 21
-285.3450774822336
 31
0.0
  0
LINE
  5
39B
  8
回07-寸法
 62
     5
 10
538.1939846285071
 20
-302.3019140597043
 30
0.0
 11
538.1939846285071
 21
-285.3450774822336
 31
0.0
  0
LINE
  5
39C
  8
回07-寸法
 62
     5
 10
540.193984628507
 20
-286.3450774822336
 30
0.0
 11
542.1939846285071
 21
-286.3450774822336
 31
0.0
  0
LINE
  5
39D
  8
回07-寸法
 62
     5
 10
523.4439846285071
 20
-286.3450774822336
 30
0.0
 11
499.1439846285071
 21
-286.3450774822336
 31
0.0
  0
LINE
  5
39E
  8
回07-寸法
 62
     5
 10
538.1939846285071
 20
-286.3450774822336
 30
0.0
 11
525.443984628507
 21
-286.3450774822336
 31
0.0
  0
INSERT
  5
39F
  8
回07-寸法
 62
     5
 66
     1
  2
_OPEN
 10
538.1939846285071
 20
-286.3450774822336
 30
0.0
 41
2.0
 42
2.0
 43
2.0
 50
180.0
  0
SEQEND
  5
3A0
  8
回07-寸法
  6
CONTINUOUS
 62
     7
  0
INSERT
  5
3A1
  8
回07-寸法
 62
     5
 66
     1
  2
_OPEN
 10
525.443984628507
 20
-286.3450774822336
 30
0.0
 41
2.0
 42
2.0
 43
2.0
  0
SEQEND
  5
3A2
  8
回07-寸法
  6
CONTINUOUS
 62
     7
  0
TEXT
  5
3A3
  8
回07-寸法
 62
     5
 10
499.1939846285071
 20
-285.6950774822337
 30
0.0
 40
3.0
  1
12.75 [0.502]
1001
ACAD
1000
MTEXTBEGIN
1070
    73
1070
     1
1070
    44
1040
1.0
1070
    74
1070
     0
1000
MTEXTEND
  0
POINT
  5
3A4
  8
DEFPOINTS
 62
     0
 10
525.443984628507
 20
-294.3019140597044
 30
0.0
  0
POINT
  5
3A5
  8
DEFPOINTS
 62
     0
 10
538.1939846285071
 20
-302.3019140597043
 30
0.0
  0
POINT
  5
3A6
  8
DEFPOINTS
 62
     0
 10
538.1939846285071
 20
-286.3450774822336
 30
0.0
  0
ENDBLK
  5
3A7
  8
0
 62
    30
  0
BLOCK
  8
0
  2
*D111111
 70
     1
 10
0.0
 20
0.0
 30
0.0
  3
*D111111
  1

  0
LINE
  5
38B
  8
回07-寸法
 62
     5
 10
525.443984628507
 20
-294.3019140597044
 30
0.0
 11
525.443984628507
 21
-243.3628817444546
 31
0.0
  0
LINE
  5
38C
  8
回07-寸法
 62
     5
 10
719.4439846285072
 20
-294.3019140597044
 30
0.0
 11
719.4439846285072
 21
-243.3628817444546
 31
0.0
  0
LINE
  5
38D
  8
回07-寸法
 62
     5
 10
527.4439846285071
 20
-244.3628817444546
 30
0.0
 11
717.4439846285072
 21
-244.3628817444546
 31
0.0
  0
INSERT
  5
38E
  8
回07-寸法
 62
     5
 66
     1
  2
_OPEN
 10
525.443984628507
 20
-244.3628817444546
 30
0.0
 41
2.0
 42
2.0
 43
2.0
 50
180.0
  0
SEQEND
  5
38F
  8
回07-寸法
  6
CONTINUOUS
 62
     7
  0
INSERT
  5
390
  8
回07-寸法
 62
     5
 66
     1
  2
_OPEN
 10
719.4439846285072
 20
-244.3628817444546
 30
0.0
 41
2.0
 42
2.0
 43
2.0
  0
SEQEND
  5
391
  8
回07-寸法
  6
CONTINUOUS
 62
     7
  0
INSERT
  5
392
  8
回07-寸法
 62
     5
 66
     1
  2
*X616161
 10
0.0
 20
0.0
 30
0.0
  0
SEQEND
  5
546
  8
回07-寸法
  6
CONTINUOUS
 62
     7
  0
POINT
  5
393
  8
DEFPOINTS
 62
     0
 10
525.443984628507
 20
-294.3019140597044
 30
0.0
  0
POINT
  5
394
  8
DEFPOINTS
 62
     0
 10
719.4439846285072
 20
-294.3019140597044
 30
0.0
  0
POINT
  5
395
  8
DEFPOINTS
 62
     0
 10
719.4439846285072
 20
-244.3628817444546
 30
0.0
  0
ENDBLK
  5
396
  8
0
 62
    30
  0
BLOCK
  8
0
  2
*D121212
 70
     1
 10
0.0
 20
0.0
 30
0.0
  3
*D121212
  1

  0
LINE
  5
37C
  8
回07-寸法
 62
     5
 10
525.443984628507
 20
-294.3019140597044
 30
0.0
 11
525.443984628507
 21
-269.4590985019587
 31
0.0
  0
LINE
  5
37D
  8
回07-寸法
 62
     5
 10
623.9439846285072
 20
-299.3019140597044
 30
0.0
 11
623.9439846285072
 21
-269.4590985019587
 31
0.0
  0
LINE
  5
37E
  8
回07-寸法
 62
     5
 10
527.4439846285071
 20
-270.4590985019586
 30
0.0
 11
621.9439846285072
 21
-270.4590985019586
 31
0.0
  0
INSERT
  5
37F
  8
回07-寸法
 62
     5
 66
     1
  2
_OPEN
 10
525.443984628507
 20
-270.4590985019586
 30
0.0
 41
2.0
 42
2.0
 43
2.0
 50
180.0
  0
SEQEND
  5
380
  8
回07-寸法
  6
CONTINUOUS
 62
     7
  0
INSERT
  5
381
  8
回07-寸法
 62
     5
 66
     1
  2
_OPEN
 10
623.9439846285072
 20
-270.4590985019586
 30
0.0
 41
2.0
 42
2.0
 43
2.0
  0
SEQEND
  5
382
  8
回07-寸法
  6
CONTINUOUS
 62
     7
  0
INSERT
  5
383
  8
回07-寸法
 62
     5
 66
     1
  2
*X626262
 10
0.0
 20
0.0
 30
0.0
  0
SEQEND
  5
54C
  8
回07-寸法
  6
CONTINUOUS
 62
     7
  0
POINT
  5
384
  8
DEFPOINTS
 62
     0
 10
525.443984628507
 20
-294.3019140597044
 30
0.0
  0
POINT
  5
385
  8
DEFPOINTS
 62
     0
 10
623.9439846285072
 20
-299.3019140597044
 30
0.0
  0
POINT
  5
386
  8
DEFPOINTS
 62
     0
 10
623.9439846285072
 20
-270.4590985019586
 30
0.0
  0
ENDBLK
  5
387
  8
0
 62
    30
  0
BLOCK
  8
0
  2
*D131313
 70
     1
 10
0.0
 20
0.0
 30
0.0
  3
*D131313
  1

  0
LINE
  5
36B
  8
回07-寸法
 62
     5
 10
445.943984628507
 20
-327.6768971516617
 30
0.0
 11
436.0315069233201
 21
-327.6768971516617
 31
0.0
  0
LINE
  5
36C
  8
回07-寸法
 62
     5
 10
445.9439890704341
 20
-333.9269471660318
 30
0.0
 11
436.0315069233201
 21
-333.9269471660318
 31
0.0
  0
LINE
  5
36D
  8
回07-寸法
 62
     5
 10
437.0315069233201
 20
-325.6768971516617
 30
0.0
 11
437.0315069233201
 21
-323.6768971516617
 31
0.0
  0
LINE
  5
36E
  8
回07-寸法
 62
     5
 10
437.0315069233201
 20
-335.9269471660318
 30
0.0
 11
437.0315069233201
 21
-359.2064747250869
 31
0.0
  0
LINE
  5
36F
  8
回07-寸法
 62
     5
 10
437.0315069233201
 20
-327.6768971516617
 30
0.0
 11
437.0315069233201
 21
-333.9269471660318
 31
0.0
  0
INSERT
  5
370
  8
回07-寸法
 62
     5
 66
     1
  2
_OPEN
 10
437.0315069233201
 20
-327.6768971516617
 30
0.0
 41
2.0
 42
2.0
 43
2.0
 50
270.0
  0
SEQEND
  5
371
  8
回07-寸法
  6
CONTINUOUS
 62
     7
  0
INSERT
  5
372
  8
回07-寸法
 62
     5
 66
     1
  2
_OPEN
 10
437.0315069233201
 20
-333.9269471660318
 30
0.0
 41
2.0
 42
2.0
 43
2.0
 50
90.0
  0
SEQEND
  5
373
  8
回07-寸法
  6
CONTINUOUS
 62
     7
  0
TEXT
  5
374
  8
回07-寸法
 62
     5
 10
436.3815069233197
 20
-359.0667109455594
 30
0.0
 40
3.0
  1
6.25 [0.246]
 50
90.0
1001
ACAD
1000
MTEXTBEGIN
1070
    73
1070
     1
1070
    44
1040
1.0
1070
    74
1070
     0
1000
MTEXTEND
  0
POINT
  5
375
  8
DEFPOINTS
 62
     0
 10
445.943984628507
 20
-327.6768971516617
 30
0.0
  0
POINT
  5
376
  8
DEFPOINTS
 62
     0
 10
445.9439890704341
 20
-333.9269471660318
 30
0.0
  0
POINT
  5
377
  8
DEFPOINTS
 62
     0
 10
437.0315069233201
 20
-333.9269471660318
 30
0.0
  0
ENDBLK
  5
378
  8
0
 62
    30
  0
BLOCK
  8
0
  2
*D141414
 70
     1
 10
0.0
 20
0.0
 30
0.0
  3
*D141414
  1

  0
LINE
  5
35C
  8
回07-寸法
 62
     5
 10
445.9439846285071
 20
-327.6768971516611
 30
0.0
 11
436.0315069233196
 21
-327.6768971516611
 31
0.0
  0
LINE
  5
35D
  8
回07-寸法
 62
     5
 10
525.443984628507
 20
-294.3019140597044
 30
0.0
 11
436.0315069233196
 21
-294.3019140597044
 31
0.0
  0
LINE
  5
35E
  8
回07-寸法
 62
     5
 10
437.0315069233196
 20
-325.6768971516611
 30
0.0
 11
437.0315069233196
 21
-296.3019140597044
 31
0.0
  0
INSERT
  5
35F
  8
回07-寸法
 62
     5
 66
     1
  2
_OPEN
 10
437.0315069233196
 20
-327.6768971516611
 30
0.0
 41
2.0
 42
2.0
 43
2.0
 50
270.0
  0
SEQEND
  5
360
  8
回07-寸法
  6
CONTINUOUS
 62
     7
  0
INSERT
  5
361
  8
回07-寸法
 62
     5
 66
     1
  2
_OPEN
 10
437.0315069233196
 20
-294.3019140597044
 30
0.0
 41
2.0
 42
2.0
 43
2.0
 50
90.0
  0
SEQEND
  5
362
  8
回07-寸法
  6
CONTINUOUS
 62
     7
  0
TEXT
  5
363
  8
回07-寸法
 62
     5
 10
436.3815069233196
 20
-323.1394056056827
 30
0.0
 40
3.0
  1
(33.37 [1.314])
 50
90.0
1001
ACAD
1000
MTEXTBEGIN
1070
    73
1070
     1
1070
    44
1040
1.0
1070
    74
1070
     0
1000
MTEXTEND
  0
POINT
  5
364
  8
DEFPOINTS
 62
     0
 10
445.9439846285071
 20
-327.6768971516611
 30
0.0
  0
POINT
  5
365
  8
DEFPOINTS
 62
     0
 10
525.443984628507
 20
-294.3019140597044
 30
0.0
  0
POINT
  5
366
  8
DEFPOINTS
 62
     0
 10
437.0315069233196
 20
-294.3019140597044
 30
0.0
  0
ENDBLK
  5
367
  8
0
 62
    30
  0
BLOCK
  8
0
  2
*D151515
 70
     1
 10
0.0
 20
0.0
 30
0.0
  3
*D151515
  1

  0
LINE
  5
34D
  8
回07-寸法
 62
     5
 10
445.4439846285072
 20
-328.1768971516616
 30
0.0
 11
445.4439846285072
 21
-300.2722650037203
 31
0.0
  0
LINE
  5
34E
  8
回07-寸法
 62
     5
 10
525.443984628507
 20
-294.3019140597044
 30
0.0
 11
525.443984628507
 21
-302.2722650037203
 31
0.0
  0
LINE
  5
34F
  8
回07-寸法
 62
     5
 10
447.4439846285071
 20
-301.2722650037204
 30
0.0
 11
523.4439846285071
 21
-301.2722650037204
 31
0.0
  0
INSERT
  5
350
  8
回07-寸法
 62
     5
 66
     1
  2
_OPEN
 10
445.4439846285072
 20
-301.2722650037204
 30
0.0
 41
2.0
 42
2.0
 43
2.0
 50
180.0
  0
SEQEND
  5
351
  8
回07-寸法
  6
CONTINUOUS
 62
     7
  0
INSERT
  5
352
  8
回07-寸法
 62
     5
 66
     1
  2
_OPEN
 10
525.443984628507
 20
-301.2722650037204
 30
0.0
 41
2.0
 42
2.0
 43
2.0
  0
SEQEND
  5
353
  8
回07-寸法
  6
CONTINUOUS
 62
     7
  0
INSERT
  5
354
  8
回07-寸法
 62
     5
 66
     1
  2
*X636363
 10
0.0
 20
0.0
 30
0.0
  0
SEQEND
  5
555
  8
回07-寸法
  6
CONTINUOUS
 62
     7
  0
POINT
  5
355
  8
DEFPOINTS
 62
     0
 10
445.4439846285072
 20
-328.1768971516616
 30
0.0
  0
POINT
  5
356
  8
DEFPOINTS
 62
     0
 10
525.443984628507
 20
-294.3019140597044
 30
0.0
  0
POINT
  5
357
  8
DEFPOINTS
 62
     0
 10
525.443984628507
 20
-301.2722650037204
 30
0.0
  0
ENDBLK
  5
358
  8
0
 62
    30
  0
BLOCK
  8
0
  2
*D161616
 70
     1
 10
0.0
 20
0.0
 30
0.0
  3
*D161616
  1

  0
LINE
  5
33D
  8
回07-寸法
 62
     5
 10
535.4439846285071
 20
-299.3019140597044
 30
0.0
 11
535.4439846285071
 21
-277.3016658262998
 31
0.0
  0
LINE
  5
33E
  8
回07-寸法
 62
     5
 10
712.4439846285071
 20
-299.3019140597044
 30
0.0
 11
712.4439846285071
 21
-277.3016658262998
 31
0.0
  0
LINE
  5
33F
  8
回07-寸法
 62
     5
 10
537.4439846285071
 20
-278.3016658262998
 30
0.0
 11
710.4439846285072
 21
-278.3016658262998
 31
0.0
  0
INSERT
  5
340
  8
回07-寸法
 62
     5
 66
     1
  2
_OPEN
 10
535.4439846285071
 20
-278.3016658262998
 30
0.0
 41
2.0
 42
2.0
 43
2.0
 50
180.0
  0
SEQEND
  5
341
  8
回07-寸法
  6
CONTINUOUS
 62
     7
  0
INSERT
  5
342
  8
回07-寸法
 62
     5
 66
     1
  2
_OPEN
 10
712.4439846285071
 20
-278.3016658262998
 30
0.0
 41
2.0
 42
2.0
 43
2.0
  0
SEQEND
  5
343
  8
回07-寸法
  6
CONTINUOUS
 62
     7
  0
INSERT
  5
344
  8
回07-寸法
 62
     5
 66
     1
  2
*X646464
 10
0.0
 20
0.0
 30
0.0
  0
SEQEND
  5
55B
  8
回07-寸法
  6
CONTINUOUS
 62
     7
  0
POINT
  5
345
  8
DEFPOINTS
 62
     0
 10
535.4439846285071
 20
-299.3019140597044
 30
0.0
  0
POINT
  5
346
  8
DEFPOINTS
 62
     0
 10
712.4439846285071
 20
-299.3019140597044
 30
0.0
  0
POINT
  5
347
  8
DEFPOINTS
 62
     0
 10
712.4439846285071
 20
-278.3016658262998
 30
0.0
  0
ENDBLK
  5
348
  8
0
 62
    30
  0
BLOCK
  8
0
  2
*D171717
 70
     1
 10
0.0
 20
0.0
 30
0.0
  3
*D171717
  1

  0
LINE
  5
32E
  8
回07-寸法
 62
     5
 10
538.1939846285071
 20
-302.3019140597043
 30
0.0
 11
538.1939846285071
 21
-285.3016658262998
 31
0.0
  0
LINE
  5
32F
  8
回07-寸法
 62
     5
 10
709.6939846285072
 20
-302.3019140597043
 30
0.0
 11
709.6939846285072
 21
-285.3016658262998
 31
0.0
  0
LINE
  5
330
  8
回07-寸法
 62
     5
 10
540.193984628507
 20
-286.3016658262998
 30
0.0
 11
707.6939846285072
 21
-286.3016658262998
 31
0.0
  0
INSERT
  5
331
  8
回07-寸法
 62
     5
 66
     1
  2
_OPEN
 10
538.1939846285071
 20
-286.3016658262998
 30
0.0
 41
2.0
 42
2.0
 43
2.0
 50
180.0
  0
SEQEND
  5
332
  8
回07-寸法
  6
CONTINUOUS
 62
     7
  0
INSERT
  5
333
  8
回07-寸法
 62
     5
 66
     1
  2
_OPEN
 10
709.6939846285072
 20
-286.3016658262998
 30
0.0
 41
2.0
 42
2.0
 43
2.0
  0
SEQEND
  5
334
  8
回07-寸法
  6
CONTINUOUS
 62
     7
  0
INSERT
  5
335
  8
回07-寸法
 62
     5
 66
     1
  2
*X656565
 10
0.0
 20
0.0
 30
0.0
  0
SEQEND
  5
561
  8
回07-寸法
  6
CONTINUOUS
 62
     7
  0
POINT
  5
336
  8
DEFPOINTS
 62
     0
 10
538.1939846285071
 20
-302.3019140597043
 30
0.0
  0
POINT
  5
337
  8
DEFPOINTS
 62
     0
 10
709.6939846285072
 20
-302.3019140597043
 30
0.0
  0
POINT
  5
338
  8
DEFPOINTS
 62
     0
 10
709.6939846285072
 20
-286.3016658262998
 30
0.0
  0
ENDBLK
  5
339
  8
0
 62
    30
  0
BLOCK
  8
0
  2
*D181818
 70
     1
 10
0.0
 20
0.0
 30
0.0
  3
*D181818
  1

  0
LINE
  5
316
  8
回07-寸法
 62
     5
 10
719.4439846285072
 20
-436.3019140597042
 30
0.0
 11
739.2661145780651
 21
-436.3019140597042
 31
0.0
  0
LINE
  5
317
  8
回07-寸法
 62
     5
 10
719.4439846285067
 20
-434.3019140597043
 30
0.0
 11
739.2661145780651
 21
-434.3019140597043
 31
0.0
  0
LINE
  5
318
  8
回07-寸法
 62
     5
 10
738.2661145780652
 20
-438.3019140597043
 30
0.0
 11
738.2661145780652
 21
-440.3019140597042
 31
0.0
  0
LINE
  5
319
  8
回07-寸法
 62
     5
 10
738.2661145780652
 20
-432.3019140597042
 30
0.0
 11
738.2661145780652
 21
-411.1937932729459
 31
0.0
  0
LINE
  5
31A
  8
回07-寸法
 62
     5
 10
738.2661145780652
 20
-436.3019140597042
 30
0.0
 11
738.2661145780652
 21
-434.3019140597043
 31
0.0
  0
INSERT
  5
31B
  8
回07-寸法
 62
     5
 66
     1
  2
_OPEN
 10
738.2661145780652
 20
-436.3019140597042
 30
0.0
 41
2.0
 42
2.0
 43
2.0
 50
90.0
  0
SEQEND
  5
31C
  8
回07-寸法
  6
CONTINUOUS
 62
     7
  0
INSERT
  5
31D
  8
回07-寸法
 62
     5
 66
     1
  2
_OPEN
 10
738.2661145780652
 20
-434.3019140597043
 30
0.0
 41
2.0
 42
2.0
 43
2.0
 50
270.0
  0
SEQEND
  5
31E
  8
回07-寸法
  6
CONTINUOUS
 62
     7
  0
TEXT
  5
31F
  8
回07-寸法
 62
     5
 10
737.6161744841677
 20
-429.2532692191151
 30
0.0
 40
3.0
  1
(2 [0.079])
 50
90.0
1001
ACAD
1000
MTEXTBEGIN
1070
    73
1070
     1
1070
    44
1040
1.0
1070
    74
1070
     0
1000
MTEXTEND
  0
POINT
  5
320
  8
DEFPOINTS
 62
     0
 10
719.4439846285072
 20
-436.3019140597042
 30
0.0
  0
POINT
  5
321
  8
DEFPOINTS
 62
     0
 10
719.4439846285067
 20
-434.3019140597043
 30
0.0
  0
POINT
  5
322
  8
DEFPOINTS
 62
     0
 10
738.2661145780652
 20
-434.3019140597043
 30
0.0
  0
ENDBLK
  5
323
  8
0
 62
    30
  0
BLOCK
  8
0
  2
*D191919
 70
     1
 10
0.0
 20
0.0
 30
0.0
  3
*D191919
  1

  0
LINE
  5
305
  8
回07-寸法
 62
     5
 10
719.4439846285072
 20
-436.3019140597042
 30
0.0
 11
739.2661145780655
 21
-436.3019140597042
 31
0.0
  0
LINE
  5
306
  8
回07-寸法
 62
     5
 10
719.4439846285072
 20
-440.3019140597042
 30
0.0
 11
739.2661145780655
 21
-440.3019140597042
 31
0.0
  0
LINE
  5
307
  8
回07-寸法
 62
     5
 10
738.2661145780655
 20
-434.3019140597043
 30
0.0
 11
738.2661145780655
 21
-432.3019140597042
 31
0.0
  0
LINE
  5
308
  8
回07-寸法
 62
     5
 10
738.2661145780655
 20
-442.3019140597043
 30
0.0
 11
738.2661145780655
 21
-462.09955185498
 31
0.0
  0
LINE
  5
309
  8
回07-寸法
 62
     5
 10
738.2661145780655
 20
-436.3019140597042
 30
0.0
 11
738.2661145780655
 21
-440.3019140597042
 31
0.0
  0
INSERT
  5
30A
  8
回07-寸法
 62
     5
 66
     1
  2
_OPEN
 10
738.2661145780655
 20
-436.3019140597042
 30
0.0
 41
2.0
 42
2.0
 43
2.0
 50
270.0
  0
SEQEND
  5
30B
  8
回07-寸法
  6
CONTINUOUS
 62
     7
  0
INSERT
  5
30C
  8
回07-寸法
 62
     5
 66
     1
  2
_OPEN
 10
738.2661145780655
 20
-440.3019140597042
 30
0.0
 41
2.0
 42
2.0
 43
2.0
 50
90.0
  0
SEQEND
  5
30D
  8
回07-寸法
  6
CONTINUOUS
 62
     7
  0
TEXT
  5
30E
  8
回07-寸法
 62
     5
 10
737.6161145780656
 20
-462.050732957342
 30
0.0
 40
3.0
  1
(4 [0.157])
 50
90.0
1001
ACAD
1000
MTEXTBEGIN
1070
    73
1070
     1
1070
    44
1040
1.0
1070
    74
1070
     0
1000
MTEXTEND
  0
POINT
  5
30F
  8
DEFPOINTS
 62
     0
 10
719.4439846285072
 20
-436.3019140597042
 30
0.0
  0
POINT
  5
310
  8
DEFPOINTS
 62
     0
 10
719.4439846285072
 20
-440.3019140597042
 30
0.0
  0
POINT
  5
311
  8
DEFPOINTS
 62
     0
 10
738.2661145780655
 20
-440.3019140597042
 30
0.0
  0
ENDBLK
  5
312
  8
0
 62
    30
  0
BLOCK
  8
0
  2
*D202020
 70
     1
 10
0.0
 20
0.0
 30
0.0
  3
*D202020
  1

  0
LINE
  5
2CF
  8
回07-寸法
  6
CONTINUOUS
 62
     5
 10
719.4439846285072
 20
-484.416522200087
 30
0.0
 11
719.4439846285072
 21
-474.7849380742953
 31
0.0
  0
LINE
  5
2D0
  8
回07-寸法
  6
CONTINUOUS
 62
     5
 10
718.9439846285072
 20
-481.916522200087
 30
0.0
 11
718.9439846285072
 21
-474.7849380742953
 31
0.0
  0
LINE
  5
2D1
  8
回07-寸法
  6
CONTINUOUS
 62
     5
 10
721.4439846285072
 20
-475.7849380742952
 30
0.0
 11
723.4439846285072
 21
-475.7849380742952
 31
0.0
  0
LINE
  5
2D2
  8
回07-寸法
  6
CONTINUOUS
 62
     5
 10
716.9439846285072
 20
-475.7849380742952
 30
0.0
 11
693.8463468332316
 21
-475.7849380742952
 31
0.0
  0
LINE
  5
2D3
  8
回07-寸法
  6
CONTINUOUS
 62
     5
 10
719.4439846285072
 20
-475.7849380742952
 30
0.0
 11
718.9439846285072
 21
-475.7849380742952
 31
0.0
  0
INSERT
  5
2D4
  8
回07-寸法
  6
CONTINUOUS
 62
     5
  2
_OPEN
 10
719.4439846285072
 20
-475.7849380742952
 30
0.0
 41
2.0
 42
2.0
 43
2.0
 50
180.0
  0
INSERT
  5
2D5
  8
回07-寸法
  6
CONTINUOUS
 62
     5
  2
_OPEN
 10
718.9439846285072
 20
-475.7849380742952
 30
0.0
 41
2.0
 42
2.0
 43
2.0
  0
TEXT
  5
2D6
  8
回07-寸法
  6
CONTINUOUS
 62
     5
 10
693.8951657308694
 20
-475.1349380742953
 30
0.0
 40
3.0
  1
(0.5 [0.020])
1001
ACAD
1000
MTEXTBEGIN
1070
    73
1070
     1
1070
    44
1040
1.0
1070
    74
1070
     0
1000
MTEXTEND
  0
POINT
  5
2D7
  8
DEFPOINTS
  6
CONTINUOUS
 62
     0
 10
719.4439846285072
 20
-484.416522200087
 30
0.0
  0
POINT
  5
2D8
  8
DEFPOINTS
  6
CONTINUOUS
 62
     0
 10
718.9439846285072
 20
-481.916522200087
 30
0.0
  0
POINT
  5
2D9
  8
DEFPOINTS
  6
CONTINUOUS
 62
     0
 10
718.9439846285072
 20
-475.7849380742952
 30
0.0
  0
ENDBLK
  5
2DA
  8
0
 62
     1
  0
BLOCK
  8
0
  2
*D212121
 70
     1
 10
0.0
 20
0.0
 30
0.0
  3
*D212121
  1

  0
LINE
  5
2C0
  8
回07-寸法
  6
CONTINUOUS
 62
     5
 10
525.443984628507
 20
-486.4165222000869
 30
0.0
 11
525.443984628507
 21
-475.4460973077311
 31
0.0
  0
LINE
  5
2C1
  8
回07-寸法
  6
CONTINUOUS
 62
     5
 10
525.9439846285069
 20
-481.916522200087
 30
0.0
 11
525.9439846285069
 21
-475.4460973077311
 31
0.0
  0
LINE
  5
2C2
  8
回07-寸法
  6
CONTINUOUS
 62
     5
 10
523.4439846285071
 20
-476.4460973077311
 30
0.0
 11
521.443984628507
 21
-476.4460973077311
 31
0.0
  0
LINE
  5
2C3
  8
回07-寸法
  6
CONTINUOUS
 62
     5
 10
527.9439846285071
 20
-476.4460973077311
 30
0.0
 11
551.0416224237826
 21
-476.4460973077311
 31
0.0
  0
LINE
  5
2C4
  8
回07-寸法
  6
CONTINUOUS
 62
     5
 10
525.443984628507
 20
-476.4460973077311
 30
0.0
 11
525.9439846285069
 21
-476.4460973077311
 31
0.0
  0
INSERT
  5
2C5
  8
回07-寸法
  6
CONTINUOUS
 62
     5
  2
_OPEN
 10
525.443984628507
 20
-476.4460973077311
 30
0.0
 41
2.0
 42
2.0
 43
2.0
  0
INSERT
  5
2C6
  8
回07-寸法
  6
CONTINUOUS
 62
     5
  2
_OPEN
 10
525.9439846285069
 20
-476.4460973077311
 30
0.0
 41
2.0
 42
2.0
 43
2.0
 50
180.0
  0
TEXT
  5
2C7
  8
回07-寸法
  6
CONTINUOUS
 62
     5
 10
529.9928035261451
 20
-475.796097307731
 30
0.0
 40
3.0
  1
(0.5 [0.020])
1001
ACAD
1000
MTEXTBEGIN
1070
    73
1070
     1
1070
    44
1040
1.0
1070
    74
1070
     0
1000
MTEXTEND
  0
POINT
  5
2C8
  8
DEFPOINTS
  6
CONTINUOUS
 62
     0
 10
525.443984628507
 20
-486.4165222000869
 30
0.0
  0
POINT
  5
2C9
  8
DEFPOINTS
  6
CONTINUOUS
 62
     0
 10
525.9439846285069
 20
-481.916522200087
 30
0.0
  0
POINT
  5
2CA
  8
DEFPOINTS
  6
CONTINUOUS
 62
     0
 10
525.9439846285069
 20
-476.4460973077311
 30
0.0
  0
ENDBLK
  5
2CB
  8
0
 62
     1
  0
BLOCK
  8
0
  2
*D222222
 70
     1
 10
0.0
 20
0.0
 30
0.0
  3
*D222222
  1

  0
LINE
  5
2AA
  8
回07-寸法
 62
     5
 10
525.4439846285062
 20
-341.6729649635275
 30
0.0
 11
525.4439846285062
 21
-377.1697639139478
 31
0.0
  0
LINE
  5
2AB
  8
回07-寸法
 62
     5
 10
516.0439846285063
 20
-334.069953029431
 30
0.0
 11
516.0439846285063
 21
-377.1697639139478
 31
0.0
  0
LINE
  5
2AC
  8
回07-寸法
 62
     5
 10
527.4439846285063
 20
-376.1697639139478
 30
0.0
 11
529.4439846285063
 21
-376.1697639139478
 31
0.0
  0
LINE
  5
2AD
  8
回07-寸法
 62
     5
 10
514.0439846285063
 20
-376.1697639139478
 30
0.0
 11
492.9197205597943
 21
-376.1697639139478
 31
0.0
  0
LINE
  5
2AE
  8
回07-寸法
 62
     5
 10
525.4439846285062
 20
-376.1697639139478
 30
0.0
 11
516.0439846285063
 21
-376.1697639139478
 31
0.0
  0
INSERT
  5
2AF
  8
回07-寸法
 62
     5
 66
     1
  2
_OPEN
 10
525.4439846285062
 20
-376.1697639139478
 30
0.0
 41
2.0
 42
2.0
 43
2.0
 50
180.0
  0
SEQEND
  5
2B0
  8
回07-寸法
  6
CONTINUOUS
 62
     7
  0
INSERT
  5
2B1
  8
回07-寸法
 62
     5
 66
     1
  2
_OPEN
 10
516.0439846285063
 20
-376.1697639139478
 30
0.0
 41
2.0
 42
2.0
 43
2.0
  0
SEQEND
  5
2B2
  8
回07-寸法
  6
CONTINUOUS
 62
     7
  0
TEXT
  5
2B3
  8
回07-寸法
 62
     5
 10
493.0210214885694
 20
-375.5197639139478
 30
0.0
 40
3.0
  1
9.4 [0.370]
1001
ACAD
1000
MTEXTBEGIN
1070
    73
1070
     1
1070
    44
1040
1.0
1070
    74
1070
     0
1000
MTEXTEND
  0
POINT
  5
2B4
  8
DEFPOINTS
 62
     0
 10
525.4439846285062
 20
-341.6729649635275
 30
0.0
  0
POINT
  5
2B5
  8
DEFPOINTS
 62
     0
 10
516.0439846285063
 20
-334.069953029431
 30
0.0
  0
POINT
  5
2B6
  8
DEFPOINTS
 62
     0
 10
516.0439846285063
 20
-376.1697639139478
 30
0.0
  0
ENDBLK
  5
2B7
  8
0
 62
     1
  0
BLOCK
  8
0
  2
*D232323
 70
     1
 10
0.0
 20
0.0
 30
0.0
  3
*D232323
  1

  0
LINE
  5
299
  8
回07-寸法
 62
     5
 10
525.4439846285062
 20
-341.6729649635275
 30
0.0
 11
525.4439846285062
 21
-372.1352479700718
 31
0.0
  0
LINE
  5
29A
  8
回07-寸法
 62
     5
 10
521.056271816615
 20
-338.8018971516615
 30
0.0
 11
521.056271816615
 21
-372.1352479700718
 31
0.0
  0
LINE
  5
29B
  8
回07-寸法
 62
     5
 10
527.4439846285063
 20
-371.1352479700718
 30
0.0
 11
529.4439846285063
 21
-371.1352479700718
 31
0.0
  0
LINE
  5
29C
  8
回07-寸法
 62
     5
 10
519.0562718166148
 20
-371.1352479700718
 30
0.0
 11
491.2850362668792
 21
-371.1352479700718
 31
0.0
  0
LINE
  5
29D
  8
回07-寸法
 62
     5
 10
525.4439846285062
 20
-371.1352479700718
 30
0.0
 11
521.056271816615
 21
-371.1352479700718
 31
0.0
  0
INSERT
  5
29E
  8
回07-寸法
 62
     5
 66
     1
  2
_OPEN
 10
525.4439846285062
 20
-371.1352479700718
 30
0.0
 41
2.0
 42
2.0
 43
2.0
 50
180.0
  0
SEQEND
  5
29F
  8
回07-寸法
  6
CONTINUOUS
 62
     7
  0
INSERT
  5
2A0
  8
回07-寸法
 62
     5
 66
     1
  2
_OPEN
 10
521.056271816615
 20
-371.1352479700718
 30
0.0
 41
2.0
 42
2.0
 43
2.0
  0
SEQEND
  5
2A1
  8
回07-寸法
  6
CONTINUOUS
 62
     7
  0
TEXT
  5
2A2
  8
回07-寸法
 62
     5
 10
491.33486220983
 20
-370.4852479700718
 30
0.0
 40
3.0
  1
4.39 [0.173]
1001
ACAD
1000
MTEXTBEGIN
1070
    73
1070
     1
1070
    44
1040
1.0
1070
    74
1070
     0
1000
MTEXTEND
  0
POINT
  5
2A3
  8
DEFPOINTS
 62
     0
 10
525.4439846285062
 20
-341.6729649635275
 30
0.0
  0
POINT
  5
2A4
  8
DEFPOINTS
 62
     0
 10
521.056271816615
 20
-338.8018971516615
 30
0.0
  0
POINT
  5
2A5
  8
DEFPOINTS
 62
     0
 10
521.056271816615
 20
-371.1352479700718
 30
0.0
  0
ENDBLK
  5
2A6
  8
0
 62
     1
  0
BLOCK
  8
0
  2
*D242424
 70
     1
 10
0.0
 20
0.0
 30
0.0
  3
*D242424
  1

  0
LINE
  5
28A
  8
回07-寸法
 62
     5
 10
521.2562718166159
 20
-338.8018971516615
 30
0.0
 11
505.1424226500792
 21
-338.8018971516615
 31
0.0
  0
LINE
  5
28B
  8
回07-寸法
 62
     5
 10
521.2520982309082
 20
-322.8031001859329
 30
0.0
 11
505.1424226500792
 21
-322.8031001859329
 31
0.0
  0
LINE
  5
28C
  8
回07-寸法
 62
     5
 10
506.1424226500792
 20
-320.8031001859329
 30
0.0
 11
506.1424226500792
 21
-318.8031001859329
 31
0.0
  0
LINE
  5
28D
  8
回07-寸法
 62
     5
 10
506.1424226500792
 20
-340.8018971516615
 30
0.0
 11
506.1424226500792
 21
-365.1552251416231
 31
0.0
  0
LINE
  5
28E
  8
回07-寸法
 62
     5
 10
506.1424226500792
 20
-322.8031001859329
 30
0.0
 11
506.1424226500792
 21
-338.8018971516615
 31
0.0
  0
INSERT
  5
28F
  8
回07-寸法
 62
     5
  2
_OPEN
 10
506.1424226500792
 20
-322.8031001859329
 30
0.0
 41
2.0
 42
2.0
 43
2.0
 50
270.0
  0
INSERT
  5
290
  8
回07-寸法
 62
     5
  2
_OPEN
 10
506.1424226500792
 20
-338.8018971516615
 30
0.0
 41
2.0
 42
2.0
 43
2.0
 50
90.0
  0
TEXT
  5
291
  8
回07-寸法
 62
     5
 10
505.4924226500793
 20
-365.1052251416232
 30
0.0
 40
3.0
  1
16 [0.630]
 50
90.0
1001
ACAD
1000
MTEXTBEGIN
1070
    73
1070
     1
1070
    44
1040
1.0
1070
    74
1070
     0
1000
MTEXTEND
  0
POINT
  5
292
  8
DEFPOINTS
 62
     0
 10
521.2562718166159
 20
-338.8018971516615
 30
0.0
  0
POINT
  5
293
  8
DEFPOINTS
 62
     0
 10
521.2520982309082
 20
-322.8031001859329
 30
0.0
  0
POINT
  5
294
  8
DEFPOINTS
 62
     0
 10
506.1424226500792
 20
-322.8031001859329
 30
0.0
  0
ENDBLK
  5
295
  8
0
 62
     1
  0
BLOCK
  8
0
  2
*D252525
 70
     1
 10
0.0
 20
0.0
 30
0.0
  3
*D252525
  1

  0
LINE
  5
277
  8
回07-寸法
  6
CONTINUOUS
 62
     5
 10
718.9439846285072
 20
-481.916522200087
 30
0.0
 11
729.681119818785
 21
-481.916522200087
 31
0.0
  0
LINE
  5
278
  8
回07-寸法
  6
CONTINUOUS
 62
     5
 10
719.4439846285072
 20
-490.9165222000869
 30
0.0
 11
729.681119818785
 21
-490.9165222000869
 31
0.0
  0
LINE
  5
279
  8
回07-寸法
  6
CONTINUOUS
 62
     5
 10
728.6811198187852
 20
-479.916522200087
 30
0.0
 11
728.6811198187852
 21
-477.916522200087
 31
0.0
  0
LINE
  5
27A
  8
回07-寸法
  6
CONTINUOUS
 62
     5
 10
728.6811198187852
 20
-492.916522200087
 30
0.0
 11
728.6811198187852
 21
-523.8430833024493
 31
0.0
  0
LINE
  5
27B
  8
回07-寸法
  6
CONTINUOUS
 62
     5
 10
728.6811198187852
 20
-481.916522200087
 30
0.0
 11
728.6811198187852
 21
-490.9165222000869
 31
0.0
  0
INSERT
  5
27C
  8
回07-寸法
  6
CONTINUOUS
 62
     5
  2
_OPEN
 10
728.6811198187852
 20
-481.916522200087
 30
0.0
 41
2.0
 42
2.0
 43
2.0
 50
270.0
  0
INSERT
  5
27D
  8
回07-寸法
  6
CONTINUOUS
 62
     5
  2
_OPEN
 10
728.6811198187852
 20
-490.9165222000869
 30
0.0
 41
2.0
 42
2.0
 43
2.0
 50
90.0
  0
INSERT
  5
27E
  8
回07-寸法
  6
CONTINUOUS
 62
     5
 66
     1
  2
*X666666
 10
0.0
 20
0.0
 30
0.0
  0
SEQEND
  5
56A
  8
回07-寸法
  6
CONTINUOUS
 62
     7
  0
POINT
  5
27F
  8
DEFPOINTS
  6
CONTINUOUS
 62
     0
 10
718.9439846285072
 20
-481.916522200087
 30
0.0
  0
POINT
  5
280
  8
DEFPOINTS
  6
CONTINUOUS
 62
     0
 10
719.4439846285072
 20
-490.9165222000869
 30
0.0
  0
POINT
  5
281
  8
DEFPOINTS
  6
CONTINUOUS
 62
     0
 10
728.6811198187852
 20
-490.9165222000869
 30
0.0
  0
ENDBLK
  5
282
  8
0
 62
     3
  0
BLOCK
  8
0
  2
*D262626
 70
     1
 10
0.0
 20
0.0
 30
0.0
  3
*D262626
  1

  0
LINE
  5
268
  8
回07-寸法
  6
CONTINUOUS
 62
     5
 10
445.4439812394097
 20
-484.416522200087
 30
0.0
 11
436.7589154206789
 21
-484.416522200087
 31
0.0
  0
LINE
  5
269
  8
回07-寸法
  6
CONTINUOUS
 62
     5
 10
445.4439812394097
 20
-489.4165222000871
 30
0.0
 11
436.7589154206789
 21
-489.4165222000871
 31
0.0
  0
LINE
  5
26A
  8
回07-寸法
  6
CONTINUOUS
 62
     5
 10
437.7589154206789
 20
-482.4165222000869
 30
0.0
 11
437.7589154206789
 21
-480.416522200087
 31
0.0
  0
LINE
  5
26B
  8
回07-寸法
  6
CONTINUOUS
 62
     5
 10
437.7589154206789
 20
-491.4165222000868
 30
0.0
 11
437.7589154206789
 21
-523.3042944048114
 31
0.0
  0
LINE
  5
26C
  8
回07-寸法
  6
CONTINUOUS
 62
     5
 10
437.7589154206789
 20
-484.416522200087
 30
0.0
 11
437.7589154206789
 21
-489.4165222000871
 31
0.0
  0
INSERT
  5
26D
  8
回07-寸法
  6
CONTINUOUS
 62
     5
  2
_OPEN
 10
437.7589154206789
 20
-484.416522200087
 30
0.0
 41
2.0
 42
2.0
 43
2.0
 50
270.0
  0
INSERT
  5
26E
  8
回07-寸法
  6
CONTINUOUS
 62
     5
  2
_OPEN
 10
437.7589154206789
 20
-489.4165222000871
 30
0.0
 41
2.0
 42
2.0
 43
2.0
 50
90.0
  0
INSERT
  5
26F
  8
回07-寸法
  6
CONTINUOUS
 62
     5
 66
     1
  2
*X676767
 10
0.0
 20
0.0
 30
0.0
  0
SEQEND
  5
573
  8
回07-寸法
  6
CONTINUOUS
 62
     7
  0
POINT
  5
270
  8
DEFPOINTS
  6
CONTINUOUS
 62
     0
 10
445.4439812394097
 20
-484.416522200087
 30
0.0
  0
POINT
  5
271
  8
DEFPOINTS
  6
CONTINUOUS
 62
     0
 10
445.4439812394097
 20
-489.4165222000871
 30
0.0
  0
POINT
  5
272
  8
DEFPOINTS
  6
CONTINUOUS
 62
     0
 10
437.7589154206789
 20
-489.4165222000871
 30
0.0
  0
ENDBLK
  5
273
  8
0
 62
     3
  0
BLOCK
  8
0
  2
*D272727
 70
     1
 10
0.0
 20
0.0
 30
0.0
  3
*D272727
  1

  0
LINE
  5
24F
  8
回08-記事
  6
CONTINUOUS
 62
     5
 10
868.4739466450047
 20
-378.4292281721637
 30
0.0
 11
838.054746539777
 21
-378.4292281721637
 31
0.0
  0
LINE
  5
250
  8
回08-記事
  6
CONTINUOUS
 62
     5
 10
868.4739466450047
 20
-390.9292281721628
 30
0.0
 11
838.054746539777
 21
-390.9292281721628
 31
0.0
  0
LINE
  5
251
  8
回08-記事
  6
CONTINUOUS
 62
     5
 10
839.0547465397769
 20
-376.4292281721637
 30
0.0
 11
839.0547465397769
 21
-374.4292281721637
 31
0.0
  0
LINE
  5
252
  8
回08-記事
  6
CONTINUOUS
 62
     5
 10
839.0547465397769
 20
-392.9292281721627
 30
0.0
 11
839.0547465397769
 21
-428.8094757312179
 31
0.0
  0
LINE
  5
253
  8
回08-記事
  6
CONTINUOUS
 62
     5
 10
839.0547465397769
 20
-378.4292281721637
 30
0.0
 11
839.0547465397769
 21
-390.9292281721628
 31
0.0
  0
INSERT
  5
254
  8
回08-記事
  6
CONTINUOUS
 62
     5
  2
_OPEN
 10
839.0547465397769
 20
-378.4292281721637
 30
0.0
 41
2.0
 42
2.0
 43
2.0
 50
270.0
  0
INSERT
  5
255
  8
回08-記事
  6
CONTINUOUS
 62
     5
  2
_OPEN
 10
839.0547465397769
 20
-390.9292281721628
 30
0.0
 41
2.0
 42
2.0
 43
2.0
 50
90.0
  0
INSERT
  5
256
  8
回08-記事
  6
CONTINUOUS
 62
     5
 66
     1
  2
*X686868
 10
0.0
 20
0.0
 30
0.0
  0
SEQEND
  5
57C
  8
回07-寸法
  6
CONTINUOUS
 62
     7
  0
POINT
  5
257
  8
DEFPOINTS
  6
CONTINUOUS
 62
     0
 10
868.4739466450047
 20
-378.4292281721637
 30
0.0
  0
POINT
  5
258
  8
DEFPOINTS
  6
CONTINUOUS
 62
     0
 10
868.4739466450047
 20
-390.9292281721628
 30
0.0
  0
POINT
  5
259
  8
DEFPOINTS
  6
CONTINUOUS
 62
     0
 10
839.0547465397769
 20
-390.9292281721628
 30
0.0
  0
ENDBLK
  5
25A
  8
0
 62
    40
  0
BLOCK
  8
0
  2
*D282828
 70
     1
 10
0.0
 20
0.0
 30
0.0
  3
*D282828
  1

  0
LINE
  5
235
  8
回08-記事
  6
CONTINUOUS
 62
     5
 10
864.574417555195
 20
-385.9292281721687
 30
0.0
 11
851.5094338263002
 21
-385.9292281721687
 31
0.0
  0
LINE
  5
236
  8
回08-記事
  6
CONTINUOUS
 62
     5
 10
864.574417555195
 20
-388.4292281721687
 30
0.0
 11
851.5094338263002
 21
-388.4292281721687
 31
0.0
  0
LINE
  5
237
  8
回08-記事
  6
CONTINUOUS
 62
     5
 10
852.5094338263002
 20
-383.9292281721685
 30
0.0
 11
852.5094338263002
 21
-381.9292281721685
 31
0.0
  0
LINE
  5
238
  8
回08-記事
  6
CONTINUOUS
 62
     5
 10
852.5094338263002
 20
-390.4292281721687
 30
0.0
 11
852.5094338263002
 21
-426.6396491636514
 31
0.0
  0
LINE
  5
239
  8
回08-記事
  6
CONTINUOUS
 62
     5
 10
852.5094338263002
 20
-385.9292281721687
 30
0.0
 11
852.5094338263002
 21
-388.4292281721687
 31
0.0
  0
INSERT
  5
23A
  8
回08-記事
  6
CONTINUOUS
 62
     5
 66
     1
  2
_OPEN
 10
852.5094338263002
 20
-385.9292281721687
 30
0.0
 41
2.0
 42
2.0
 43
2.0
 50
270.0
  0
SEQEND
  5
23B
  8
回07-寸法
  6
CONTINUOUS
 62
     7
  0
INSERT
  5
23C
  8
回08-記事
  6
CONTINUOUS
 62
     5
 66
     1
  2
_OPEN
 10
852.5094338263002
 20
-388.4292281721687
 30
0.0
 41
2.0
 42
2.0
 43
2.0
 50
90.0
  0
SEQEND
  5
23D
  8
回07-寸法
  6
CONTINUOUS
 62
     7
  0
INSERT
  5
23E
  8
回08-記事
  6
CONTINUOUS
 62
     5
 66
     1
  2
*X696969
 10
0.0
 20
0.0
 30
0.0
  0
SEQEND
  5
585
  8
回07-寸法
  6
CONTINUOUS
 62
     7
  0
POINT
  5
23F
  8
DEFPOINTS
  6
CONTINUOUS
 62
     0
 10
864.574417555195
 20
-385.9292281721687
 30
0.0
  0
POINT
  5
240
  8
DEFPOINTS
  6
CONTINUOUS
 62
     0
 10
864.574417555195
 20
-388.4292281721687
 30
0.0
  0
POINT
  5
241
  8
DEFPOINTS
  6
CONTINUOUS
 62
     0
 10
852.5094338263002
 20
-388.4292281721687
 30
0.0
  0
ENDBLK
  5
242
  8
0
 62
    40
  0
BLOCK
  8
0
  2
*D292929
 70
     1
 10
0.0
 20
0.0
 30
0.0
  3
*D292929
  1

  0
LINE
  5
224
  8
回08-記事
  6
CONTINUOUS
 62
     5
 10
867.4738596234696
 20
-387.7292281721685
 30
0.0
 11
858.2740714191528
 21
-387.7292281721685
 31
0.0
  0
LINE
  5
225
  8
回08-記事
  6
CONTINUOUS
 62
     5
 10
867.4738596234696
 20
-389.1292281721685
 30
0.0
 11
858.2740714191528
 21
-389.1292281721685
 31
0.0
  0
LINE
  5
226
  8
回08-記事
  6
CONTINUOUS
 62
     5
 10
859.2740714191528
 20
-385.7292281721685
 30
0.0
 11
859.2740714191528
 21
-383.7292281721685
 31
0.0
  0
LINE
  5
227
  8
回08-記事
  6
CONTINUOUS
 62
     5
 10
859.2740714191528
 20
-391.1292281721685
 30
0.0
 11
859.2740714191528
 21
-429.7791671721685
 31
0.0
  0
LINE
  5
228
  8
回08-記事
  6
CONTINUOUS
 62
     5
 10
859.2740714191528
 20
-387.7292281721685
 30
0.0
 11
859.2740714191528
 21
-389.1292281721685
 31
0.0
  0
INSERT
  5
229
  8
回08-記事
  6
CONTINUOUS
 62
     5
 66
     1
  2
_OPEN
 10
859.2740714191528
 20
-387.7292281721685
 30
0.0
 41
2.0
 42
2.0
 43
2.0
 50
270.0
  0
SEQEND
  5
22A
  8
回07-寸法
  6
CONTINUOUS
 62
     7
  0
INSERT
  5
22B
  8
回08-記事
  6
CONTINUOUS
 62
     5
 66
     1
  2
_OPEN
 10
859.2740714191528
 20
-389.1292281721685
 30
0.0
 41
2.0
 42
2.0
 43
2.0
 50
90.0
  0
SEQEND
  5
22C
  8
回07-寸法
  6
CONTINUOUS
 62
     7
  0
INSERT
  5
22D
  8
回08-記事
  6
CONTINUOUS
 62
     5
 66
     1
  2
*X707070
 10
0.0
 20
0.0
 30
0.0
  0
SEQEND
  5
58E
  8
回07-寸法
  6
CONTINUOUS
 62
     7
  0
POINT
  5
22E
  8
DEFPOINTS
  6
CONTINUOUS
 62
     0
 10
867.4738596234696
 20
-387.7292281721685
 30
0.0
  0
POINT
  5
22F
  8
DEFPOINTS
  6
CONTINUOUS
 62
     0
 10
867.4738596234696
 20
-389.1292281721685
 30
0.0
  0
POINT
  5
230
  8
DEFPOINTS
  6
CONTINUOUS
 62
     0
 10
859.2740714191528
 20
-389.1292281721685
 30
0.0
  0
ENDBLK
  5
231
  8
0
 62
    40
  0
BLOCK
  8
0
  2
*D303030
 70
     1
 10
0.0
 20
0.0
 30
0.0
  3
*D303030
  1

  0
LINE
  5
213
  8
回08-記事
  6
CONTINUOUS
 62
     5
 10
864.574417555195
 20
-388.4292281721687
 30
0.0
 11
845.0946958001136
 21
-388.4292281721687
 31
0.0
  0
LINE
  5
214
  8
回08-記事
  6
CONTINUOUS
 62
     5
 10
864.5743305336596
 20
-380.9292281721685
 30
0.0
 11
845.0946958001136
 21
-380.9292281721685
 31
0.0
  0
LINE
  5
215
  8
回08-記事
  6
CONTINUOUS
 62
     5
 10
846.0946958001139
 20
-378.9292281721685
 30
0.0
 11
846.0946958001139
 21
-376.9292281721685
 31
0.0
  0
LINE
  5
216
  8
回08-記事
  6
CONTINUOUS
 62
     5
 10
846.0946958001139
 20
-390.4292281721687
 30
0.0
 11
846.0946958001139
 21
-423.3292891721685
 31
0.0
  0
LINE
  5
217
  8
回08-記事
  6
CONTINUOUS
 62
     5
 10
846.0946958001139
 20
-380.9292281721685
 30
0.0
 11
846.0946958001139
 21
-388.4292281721687
 31
0.0
  0
INSERT
  5
218
  8
回08-記事
  6
CONTINUOUS
 62
     5
 66
     1
  2
_OPEN
 10
846.0946958001139
 20
-380.9292281721685
 30
0.0
 41
2.0
 42
2.0
 43
2.0
 50
270.0
  0
SEQEND
  5
219
  8
回07-寸法
  6
CONTINUOUS
 62
     7
  0
INSERT
  5
21A
  8
回08-記事
  6
CONTINUOUS
 62
     5
 66
     1
  2
_OPEN
 10
846.0946958001139
 20
-388.4292281721687
 30
0.0
 41
2.0
 42
2.0
 43
2.0
 50
90.0
  0
SEQEND
  5
21B
  8
回07-寸法
  6
CONTINUOUS
 62
     7
  0
INSERT
  5
21C
  8
回08-記事
  6
CONTINUOUS
 62
     5
 66
     1
  2
*X717171
 10
0.0
 20
0.0
 30
0.0
  0
SEQEND
  5
597
  8
回07-寸法
  6
CONTINUOUS
 62
     7
  0
POINT
  5
21D
  8
DEFPOINTS
  6
CONTINUOUS
 62
     0
 10
864.574417555195
 20
-388.4292281721687
 30
0.0
  0
POINT
  5
21E
  8
DEFPOINTS
  6
CONTINUOUS
 62
     0
 10
864.5743305336596
 20
-380.9292281721685
 30
0.0
  0
POINT
  5
21F
  8
DEFPOINTS
  6
CONTINUOUS
 62
     0
 10
846.0946958001139
 20
-380.9292281721685
 30
0.0
  0
ENDBLK
  5
220
  8
0
 62
    40
  0
BLOCK
  8
0
  2
*D313131
 70
     1
 10
0.0
 20
0.0
 30
0.0
  3
*D313131
  1

  0
LINE
  5
183
  8
回07-寸法
  6
CONTINUOUS
 62
     5
 10
534.393984628507
 20
-298.8019140597044
 30
0.0
 11
534.393984628507
 21
-261.0138381741629
 31
0.0
  0
LINE
  5
184
  8
回07-寸法
  6
CONTINUOUS
 62
     5
 10
713.7439846285069
 20
-298.8019140597044
 30
0.0
 11
713.7439846285069
 21
-261.0138381741629
 31
0.0
  0
LINE
  5
185
  8
回07-寸法
  6
CONTINUOUS
 62
     5
 10
536.393984628507
 20
-262.0138381741629
 30
0.0
 11
711.7439846285069
 21
-262.0138381741629
 31
0.0
  0
INSERT
  5
186
  8
回07-寸法
  6
CONTINUOUS
 62
     5
  2
_OPEN
 10
534.393984628507
 20
-262.0138381741629
 30
0.0
 41
2.0
 42
2.0
 43
2.0
 50
180.0
  0
INSERT
  5
187
  8
回07-寸法
  6
CONTINUOUS
 62
     5
  2
_OPEN
 10
713.7439846285069
 20
-262.0138381741629
 30
0.0
 41
2.0
 42
2.0
 43
2.0
  0
TEXT
  5
188
  8
回07-寸法
  6
CONTINUOUS
 62
     5
 10
612.2135690757162
 20
-261.3638381741629
 30
0.0
 40
3.0
  1
179.35 [7.061]
1001
ACAD
1000
MTEXTBEGIN
1070
    73
1070
     1
1070
    44
1040
1.0
1070
    74
1070
     0
1000
MTEXTEND
  0
POINT
  5
189
  8
DEFPOINTS
  6
CONTINUOUS
 62
     0
 10
534.393984628507
 20
-298.8019140597044
 30
0.0
  0
POINT
  5
18A
  8
DEFPOINTS
  6
CONTINUOUS
 62
     0
 10
713.7439846285069
 20
-298.8019140597044
 30
0.0
  0
POINT
  5
18B
  8
DEFPOINTS
  6
CONTINUOUS
 62
     0
 10
713.7439846285069
 20
-262.0138381741629
 30
0.0
  0
ENDBLK
  5
18C
  8
0
 62
     7
  0
BLOCK
  8
0
  2
*D323232
 70
     1
 10
0.0
 20
0.0
 30
0.0
  3
*D323232
  1

  0
LINE
  5
176
  8
回07-寸法
  6
CONTINUOUS
 62
     5
 10
713.7439846285069
 20
-298.8019140597044
 30
0.0
 11
781.7003172132837
 21
-298.8019140597044
 31
0.0
  0
LINE
  5
177
  8
回07-寸法
  6
CONTINUOUS
 62
     5
 10
713.7439846285069
 20
-436.3019140597041
 30
0.0
 11
781.7003172132837
 21
-436.3019140597041
 31
0.0
  0
LINE
  5
178
  8
回07-寸法
  6
CONTINUOUS
 62
     5
 10
780.7003172132837
 20
-300.8019140597044
 30
0.0
 11
780.7003172132837
 21
-434.3019140597043
 31
0.0
  0
INSERT
  5
179
  8
回07-寸法
  6
CONTINUOUS
 62
     5
  2
_OPEN
 10
780.7003172132837
 20
-298.8019140597044
 30
0.0
 41
2.0
 42
2.0
 43
2.0
 50
90.0
  0
INSERT
  5
17A
  8
回07-寸法
  6
CONTINUOUS
 62
     5
  2
_OPEN
 10
780.7003172132837
 20
-436.3019140597041
 30
0.0
 41
2.0
 42
2.0
 43
2.0
 50
270.0
  0
TEXT
  5
17B
  8
回07-寸法
  6
CONTINUOUS
 62
     5
 10
780.0503172132837
 20
-378.5019140597043
 30
0.0
 40
3.0
  1
137.5 [5.413]
 50
90.0
1001
ACAD
1000
MTEXTBEGIN
1070
    73
1070
     1
1070
    44
1040
1.0
1070
    74
1070
     0
1000
MTEXTEND
  0
POINT
  5
17C
  8
DEFPOINTS
  6
CONTINUOUS
 62
     0
 10
713.7439846285069
 20
-298.8019140597044
 30
0.0
  0
POINT
  5
17D
  8
DEFPOINTS
  6
CONTINUOUS
 62
     0
 10
713.7439846285069
 20
-436.3019140597041
 30
0.0
  0
POINT
  5
17E
  8
DEFPOINTS
  6
CONTINUOUS
 62
     0
 10
780.7003172132837
 20
-436.3019140597041
 30
0.0
  0
ENDBLK
  5
17F
  8
0
 62
     7
  0
BLOCK
  8
0
  2
*D333333
 70
     1
 10
0.0
 20
0.0
 30
0.0
  3
*D333333
  1

  0
LINE
  5
167
  8
回07-寸法
  6
CONTINUOUS
 62
     5
 10
713.7439846285069
 20
-436.3019140597041
 30
0.0
 11
781.7003172132837
 21
-436.3019140597041
 31
0.0
  0
LINE
  5
168
  8
回07-寸法
  6
CONTINUOUS
 62
     5
 10
719.4439846285072
 20
-440.3019140597042
 30
0.0
 11
781.7003172132837
 21
-440.3019140597042
 31
0.0
  0
LINE
  5
169
  8
回07-寸法
  6
CONTINUOUS
 62
     5
 10
780.7003172132837
 20
-434.3019140597043
 30
0.0
 11
780.7003172132837
 21
-432.3019140597041
 31
0.0
  0
LINE
  5
16A
  8
回07-寸法
  6
CONTINUOUS
 62
     5
 10
780.7003172132837
 20
-442.3019140597043
 30
0.0
 11
780.7003172132837
 21
-459.7019140597041
 31
0.0
  0
LINE
  5
16B
  8
回07-寸法
  6
CONTINUOUS
 62
     5
 10
780.7003172132837
 20
-436.3019140597041
 30
0.0
 11
780.7003172132837
 21
-440.3019140597042
 31
0.0
  0
INSERT
  5
16C
  8
回07-寸法
  6
CONTINUOUS
 62
     5
  2
_OPEN
 10
780.7003172132837
 20
-436.3019140597041
 30
0.0
 41
2.0
 42
2.0
 43
2.0
 50
270.0
  0
INSERT
  5
16D
  8
回07-寸法
  6
CONTINUOUS
 62
     5
  2
_OPEN
 10
780.7003172132837
 20
-440.3019140597042
 30
0.0
 41
2.0
 42
2.0
 43
2.0
 50
90.0
  0
TEXT
  5
16E
  8
回07-寸法
  6
CONTINUOUS
 62
     5
 10
780.0503172132837
 20
-459.6519140597043
 30
0.0
 40
3.0
  1
4 [0.157]
 50
90.0
1001
ACAD
1000
MTEXTBEGIN
1070
    73
1070
     1
1070
    44
1040
1.0
1070
    74
1070
     0
1000
MTEXTEND
  0
POINT
  5
16F
  8
DEFPOINTS
  6
CONTINUOUS
 62
     0
 10
713.7439846285069
 20
-436.3019140597041
 30
0.0
  0
POINT
  5
170
  8
DEFPOINTS
  6
CONTINUOUS
 62
     0
 10
719.4439846285072
 20
-440.3019140597042
 30
0.0
  0
POINT
  5
171
  8
DEFPOINTS
  6
CONTINUOUS
 62
     0
 10
780.7003172132837
 20
-440.3019140597042
 30
0.0
  0
ENDBLK
  5
172
  8
0
 62
     7
  0
BLOCK
  8
0
  2
*D343434
 70
     1
 10
0.0
 20
0.0
 30
0.0
  3
*D343434
  1

  0
LINE
  5
158
  8
回07-寸法
  6
CONTINUOUS
 62
     5
 10
713.7439846285069
 20
-298.8019140597044
 30
0.0
 11
781.7003172132837
 21
-298.8019140597044
 31
0.0
  0
LINE
  5
159
  8
回07-寸法
  6
CONTINUOUS
 62
     5
 10
719.4439846285072
 20
-294.3019140597044
 30
0.0
 11
781.7003172132837
 21
-294.3019140597044
 31
0.0
  0
LINE
  5
15A
  8
回07-寸法
  6
CONTINUOUS
 62
     5
 10
780.7003172132837
 20
-300.8019140597044
 30
0.0
 11
780.7003172132837
 21
-302.8019140597044
 31
0.0
  0
LINE
  5
15B
  8
回07-寸法
  6
CONTINUOUS
 62
     5
 10
780.7003172132837
 20
-292.3019140597044
 30
0.0
 11
780.7003172132837
 21
-269.5042762644288
 31
0.0
  0
LINE
  5
15C
  8
回07-寸法
  6
CONTINUOUS
 62
     5
 10
780.7003172132837
 20
-298.8019140597044
 30
0.0
 11
780.7003172132837
 21
-294.3019140597044
 31
0.0
  0
INSERT
  5
15D
  8
回07-寸法
  6
CONTINUOUS
 62
     5
  2
_OPEN
 10
780.7003172132837
 20
-298.8019140597044
 30
0.0
 41
2.0
 42
2.0
 43
2.0
 50
90.0
  0
INSERT
  5
15E
  8
回07-寸法
  6
CONTINUOUS
 62
     5
  2
_OPEN
 10
780.7003172132837
 20
-294.3019140597044
 30
0.0
 41
2.0
 42
2.0
 43
2.0
 50
270.0
  0
TEXT
  5
15F
  8
回07-寸法
  6
CONTINUOUS
 62
     5
 10
780.0503172132837
 20
-290.2530951620665
 30
0.0
 40
3.0
  1
(4.5 [0.177])
 50
90.0
1001
ACAD
1000
MTEXTBEGIN
1070
    73
1070
     1
1070
    44
1040
1.0
1070
    74
1070
     0
1000
MTEXTEND
  0
POINT
  5
160
  8
DEFPOINTS
  6
CONTINUOUS
 62
     0
 10
713.7439846285069
 20
-298.8019140597044
 30
0.0
  0
POINT
  5
161
  8
DEFPOINTS
  6
CONTINUOUS
 62
     0
 10
719.4439846285072
 20
-294.3019140597044
 30
0.0
  0
POINT
  5
162
  8
DEFPOINTS
  6
CONTINUOUS
 62
     0
 10
780.7003172132837
 20
-294.3019140597044
 30
0.0
  0
ENDBLK
  5
163
  8
0
 62
     7
  0
BLOCK
  8
0
  2
*D353535
 70
     1
 10
0.0
 20
0.0
 30
0.0
  3
*D353535
  1

  0
LINE
  5
148
  8
回07-寸法
  6
CONTINUOUS
 62
     5
 10
534.393984628507
 20
-298.8019140597044
 30
0.0
 11
534.393984628507
 21
-261.0138381741629
 31
0.0
  0
LINE
  5
149
  8
回07-寸法
  6
CONTINUOUS
 62
     5
 10
525.443984628507
 20
-294.3019140597044
 30
0.0
 11
525.443984628507
 21
-261.0138381741629
 31
0.0
  0
LINE
  5
14A
  8
回07-寸法
  6
CONTINUOUS
 62
     5
 10
536.393984628507
 20
-262.0138381741629
 30
0.0
 11
538.393984628507
 21
-262.0138381741629
 31
0.0
  0
LINE
  5
14B
  8
回07-寸法
  6
CONTINUOUS
 62
     5
 10
523.4439846285071
 20
-262.0138381741629
 30
0.0
 11
500.6335016370242
 21
-262.0138381741629
 31
0.0
  0
LINE
  5
14C
  8
回07-寸法
  6
CONTINUOUS
 62
     5
 10
534.393984628507
 20
-262.0138381741629
 30
0.0
 11
525.443984628507
 21
-262.0138381741629
 31
0.0
  0
INSERT
  5
14D
  8
回07-寸法
  6
CONTINUOUS
 62
     5
  2
_OPEN
 10
534.393984628507
 20
-262.0138381741629
 30
0.0
 41
2.0
 42
2.0
 43
2.0
 50
180.0
  0
INSERT
  5
14E
  8
回07-寸法
  6
CONTINUOUS
 62
     5
  2
_OPEN
 10
525.443984628507
 20
-262.0138381741629
 30
0.0
 41
2.0
 42
2.0
 43
2.0
  0
TEXT
  5
14F
  8
回07-寸法
  6
CONTINUOUS
 62
     5
 10
500.6833275799754
 20
-261.3638381741629
 30
0.0
 40
3.0
  1
8.95 [0.352]
1001
ACAD
1000
MTEXTBEGIN
1070
    73
1070
     1
1070
    44
1040
1.0
1070
    74
1070
     0
1000
MTEXTEND
  0
POINT
  5
150
  8
DEFPOINTS
  6
CONTINUOUS
 62
     0
 10
534.393984628507
 20
-298.8019140597044
 30
0.0
  0
POINT
  5
151
  8
DEFPOINTS
  6
CONTINUOUS
 62
     0
 10
525.443984628507
 20
-294.3019140597044
 30
0.0
  0
POINT
  5
152
  8
DEFPOINTS
  6
CONTINUOUS
 62
     0
 10
525.443984628507
 20
-262.0138381741629
 30
0.0
  0
ENDBLK
  5
153
  8
0
 62
     7
  0
BLOCK
  8
0
  2
*D363636
 70
     1
 10
0.0
 20
0.0
 30
0.0
  3
*D363636
  1

  0
LINE
  5
139
  8
回07-寸法
  6
CONTINUOUS
 62
     5
 10
713.7439846285069
 20
-298.8019140597044
 30
0.0
 11
713.7439846285069
 21
-261.0138381741629
 31
0.0
  0
LINE
  5
13A
  8
回07-寸法
  6
CONTINUOUS
 62
     5
 10
719.4439846285072
 20
-294.3019140597044
 30
0.0
 11
719.4439846285072
 21
-261.0138381741629
 31
0.0
  0
LINE
  5
13B
  8
回07-寸法
  6
CONTINUOUS
 62
     5
 10
711.7439846285069
 20
-262.0138381741629
 30
0.0
 11
709.743984628507
 21
-262.0138381741629
 31
0.0
  0
LINE
  5
13C
  8
回07-寸法
  6
CONTINUOUS
 62
     5
 10
721.4439846285072
 20
-262.0138381741629
 30
0.0
 11
744.8416224237828
 21
-262.0138381741629
 31
0.0
  0
LINE
  5
13D
  8
回07-寸法
  6
CONTINUOUS
 62
     5
 10
713.7439846285069
 20
-262.0138381741629
 30
0.0
 11
719.4439846285072
 21
-262.0138381741629
 31
0.0
  0
INSERT
  5
13E
  8
回07-寸法
  6
CONTINUOUS
 62
     5
  2
_OPEN
 10
713.7439846285069
 20
-262.0138381741629
 30
0.0
 41
2.0
 42
2.0
 43
2.0
  0
INSERT
  5
13F
  8
回07-寸法
  6
CONTINUOUS
 62
     5
  2
_OPEN
 10
719.4439846285072
 20
-262.0138381741629
 30
0.0
 41
2.0
 42
2.0
 43
2.0
 50
180.0
  0
TEXT
  5
140
  8
回07-寸法
  6
CONTINUOUS
 62
     5
 10
723.492803526145
 20
-261.3638381741629
 30
0.0
 40
3.0
  1
(5.7 [0.224])
1001
ACAD
1000
MTEXTBEGIN
1070
    73
1070
     1
1070
    44
1040
1.0
1070
    74
1070
     0
1000
MTEXTEND
  0
POINT
  5
141
  8
DEFPOINTS
  6
CONTINUOUS
 62
     0
 10
713.7439846285069
 20
-298.8019140597044
 30
0.0
  0
POINT
  5
142
  8
DEFPOINTS
  6
CONTINUOUS
 62
     0
 10
719.4439846285072
 20
-294.3019140597044
 30
0.0
  0
POINT
  5
143
  8
DEFPOINTS
  6
CONTINUOUS
 62
     0
 10
719.4439846285072
 20
-262.0138381741629
 30
0.0
  0
ENDBLK
  5
144
  8
0
 62
     7
  0
BLOCK
  8
0
  2
*D373737
 70
     1
 10
0.0
 20
0.0
 30
0.0
  3
*D373737
  1

  0
LINE
  5
126
  8
回07-寸法
  6
CONTINUOUS
 62
     5
 10
533.393984628507
 20
-297.8019140597043
 30
0.0
 11
533.393984628507
 21
-249.5707063484918
 31
0.0
  0
LINE
  5
127
  8
回07-寸法
  6
CONTINUOUS
 62
     5
 10
525.443984628507
 20
-294.3019140597044
 30
0.0
 11
525.443984628507
 21
-249.5707063484918
 31
0.0
  0
LINE
  5
128
  8
回07-寸法
  6
CONTINUOUS
 62
     5
 10
535.393984628507
 20
-250.5707063484917
 30
0.0
 11
537.393984628507
 21
-250.5707063484917
 31
0.0
  0
LINE
  5
129
  8
回07-寸法
  6
CONTINUOUS
 62
     5
 10
523.4439846285071
 20
-250.5707063484917
 30
0.0
 11
501.2335016370244
 21
-250.5707063484917
 31
0.0
  0
LINE
  5
12A
  8
回07-寸法
  6
CONTINUOUS
 62
     5
 10
533.393984628507
 20
-250.5707063484917
 30
0.0
 11
525.443984628507
 21
-250.5707063484917
 31
0.0
  0
INSERT
  5
12B
  8
回07-寸法
  6
CONTINUOUS
 62
     5
  2
_OPEN
 10
533.393984628507
 20
-250.5707063484917
 30
0.0
 41
2.0
 42
2.0
 43
2.0
 50
180.0
  0
INSERT
  5
12C
  8
回07-寸法
  6
CONTINUOUS
 62
     5
  2
_OPEN
 10
525.443984628507
 20
-250.5707063484917
 30
0.0
 41
2.0
 42
2.0
 43
2.0
  0
TEXT
  5
12D
  8
回07-寸法
  6
CONTINUOUS
 62
     5
 10
501.2833275799754
 20
-249.9207063484917
 30
0.0
 40
3.0
  1
7.95 [0.313]
1001
ACAD
1000
MTEXTBEGIN
1070
    73
1070
     1
1070
    44
1040
1.0
1070
    74
1070
     0
1000
MTEXTEND
  0
POINT
  5
12E
  8
DEFPOINTS
  6
CONTINUOUS
 62
     0
 10
533.393984628507
 20
-297.8019140597043
 30
0.0
  0
POINT
  5
12F
  8
DEFPOINTS
  6
CONTINUOUS
 62
     0
 10
525.443984628507
 20
-294.3019140597044
 30
0.0
  0
POINT
  5
130
  8
DEFPOINTS
  6
CONTINUOUS
 62
     0
 10
525.443984628507
 20
-250.5707063484917
 30
0.0
  0
ENDBLK
  5
131
  8
0
 62
     7
  0
BLOCK
  8
0
  2
*D383838
 70
     1
 10
0.0
 20
0.0
 30
0.0
  3
*D383838
  1

  0
LINE
  5
118
  8
回07-寸法
  6
CONTINUOUS
 62
     5
 10
533.393984628507
 20
-297.8019140597043
 30
0.0
 11
533.393984628507
 21
-249.5707063484918
 31
0.0
  0
LINE
  5
119
  8
回07-寸法
  6
CONTINUOUS
 62
     5
 10
714.7439846285069
 20
-297.8019140597043
 30
0.0
 11
714.7439846285069
 21
-249.5707063484918
 31
0.0
  0
LINE
  5
11A
  8
回07-寸法
  6
CONTINUOUS
 62
     5
 10
535.393984628507
 20
-250.5707063484917
 30
0.0
 11
712.7439846285069
 21
-250.5707063484917
 31
0.0
  0
INSERT
  5
11B
  8
回07-寸法
  6
CONTINUOUS
 62
     5
  2
_OPEN
 10
533.393984628507
 20
-250.5707063484917
 30
0.0
 41
2.0
 42
2.0
 43
2.0
 50
180.0
  0
INSERT
  5
11C
  8
回07-寸法
  6
CONTINUOUS
 62
     5
  2
_OPEN
 10
714.7439846285069
 20
-250.5707063484917
 30
0.0
 41
2.0
 42
2.0
 43
2.0
  0
TEXT
  5
11D
  8
回07-寸法
  6
CONTINUOUS
 62
     5
 10
612.3689846285067
 20
-249.9207063484917
 30
0.0
 40
3.0
  1
181.35 [7.140]
1001
ACAD
1000
MTEXTBEGIN
1070
    73
1070
     1
1070
    44
1040
1.0
1070
    74
1070
     0
1000
MTEXTEND
  0
POINT
  5
11E
  8
DEFPOINTS
  6
CONTINUOUS
 62
     0
 10
533.393984628507
 20
-297.8019140597043
 30
0.0
  0
POINT
  5
11F
  8
DEFPOINTS
  6
CONTINUOUS
 62
     0
 10
714.7439846285069
 20
-297.8019140597043
 30
0.0
  0
POINT
  5
120
  8
DEFPOINTS
  6
CONTINUOUS
 62
     0
 10
714.7439846285069
 20
-250.5707063484917
 30
0.0
  0
ENDBLK
  5
121
  8
0
 62
     7
  0
BLOCK
  8
0
  2
*D393939
 70
     1
 10
0.0
 20
0.0
 30
0.0
  3
*D393939
  1

  0
LINE
  5
109
  8
回07-寸法
  6
CONTINUOUS
 62
     5
 10
714.7439846285069
 20
-297.8019140597043
 30
0.0
 11
714.7439846285069
 21
-249.5707063484918
 31
0.0
  0
LINE
  5
10A
  8
回07-寸法
  6
CONTINUOUS
 62
     5
 10
719.4439846285072
 20
-294.3019140597044
 30
0.0
 11
719.4439846285072
 21
-249.5707063484918
 31
0.0
  0
LINE
  5
10B
  8
回07-寸法
  6
CONTINUOUS
 62
     5
 10
712.7439846285069
 20
-250.5707063484917
 30
0.0
 11
710.7439846285069
 21
-250.5707063484917
 31
0.0
  0
LINE
  5
10C
  8
回07-寸法
  6
CONTINUOUS
 62
     5
 10
721.4439846285072
 20
-250.5707063484917
 30
0.0
 11
741.8439846285072
 21
-250.5707063484917
 31
0.0
  0
LINE
  5
10D
  8
回07-寸法
  6
CONTINUOUS
 62
     5
 10
714.7439846285069
 20
-250.5707063484917
 30
0.0
 11
719.4439846285072
 21
-250.5707063484917
 31
0.0
  0
INSERT
  5
10E
  8
回07-寸法
  6
CONTINUOUS
 62
     5
  2
_OPEN
 10
714.7439846285069
 20
-250.5707063484917
 30
0.0
 41
2.0
 42
2.0
 43
2.0
  0
INSERT
  5
10F
  8
回07-寸法
  6
CONTINUOUS
 62
     5
  2
_OPEN
 10
719.4439846285072
 20
-250.5707063484917
 30
0.0
 41
2.0
 42
2.0
 43
2.0
 50
180.0
  0
TEXT
  5
110
  8
回07-寸法
  6
CONTINUOUS
 62
     5
 10
723.4939846285072
 20
-249.9207063484917
 30
0.0
 40
3.0
  1
4.7 [0.185]
1001
ACAD
1000
MTEXTBEGIN
1070
    73
1070
     1
1070
    44
1040
1.0
1070
    74
1070
     0
1000
MTEXTEND
  0
POINT
  5
111
  8
DEFPOINTS
  6
CONTINUOUS
 62
     0
 10
714.7439846285069
 20
-297.8019140597043
 30
0.0
  0
POINT
  5
112
  8
DEFPOINTS
  6
CONTINUOUS
 62
     0
 10
719.4439846285072
 20
-294.3019140597044
 30
0.0
  0
POINT
  5
113
  8
DEFPOINTS
  6
CONTINUOUS
 62
     0
 10
719.4439846285072
 20
-250.5707063484917
 30
0.0
  0
ENDBLK
  5
114
  8
0
 62
     7
  0
BLOCK
  8
0
  2
*D404040
 70
     1
 10
0.0
 20
0.0
 30
0.0
  3
*D404040
  1

  0
LINE
  5
F9
  8
回07-寸法
  6
CONTINUOUS
 62
     5
 10
714.7439846285069
 20
-297.8019140597043
 30
0.0
 11
793.9988952322162
 21
-297.8019140597043
 31
0.0
  0
LINE
  5
FA
  8
回07-寸法
  6
CONTINUOUS
 62
     5
 10
719.4439846285072
 20
-294.3019140597044
 30
0.0
 11
793.9988952322162
 21
-294.3019140597044
 31
0.0
  0
LINE
  5
FB
  8
回07-寸法
  6
CONTINUOUS
 62
     5
 10
792.9988952322162
 20
-299.8019140597044
 30
0.0
 11
792.9988952322162
 21
-301.8019140597044
 31
0.0
  0
LINE
  5
FC
  8
回07-寸法
  6
CONTINUOUS
 62
     5
 10
792.9988952322162
 20
-292.3019140597044
 30
0.0
 11
792.9988952322162
 21
-272.2019140597044
 31
0.0
  0
LINE
  5
FD
  8
回07-寸法
  6
CONTINUOUS
 62
     5
 10
792.9988952322162
 20
-297.8019140597043
 30
0.0
 11
792.9988952322162
 21
-294.3019140597044
 31
0.0
  0
INSERT
  5
FE
  8
回07-寸法
  6
CONTINUOUS
 62
     5
  2
_OPEN
 10
792.9988952322162
 20
-297.8019140597043
 30
0.0
 41
2.0
 42
2.0
 43
2.0
 50
90.0
  0
INSERT
  5
FF
  8
回07-寸法
  6
CONTINUOUS
 62
     5
  2
_OPEN
 10
792.9988952322162
 20
-294.3019140597044
 30
0.0
 41
2.0
 42
2.0
 43
2.0
 50
270.0
  0
TEXT
  5
100
  8
回07-寸法
  6
CONTINUOUS
 62
     5
 10
792.3488952322164
 20
-290.2519140597042
 30
0.0
 40
3.0
  1
3.5 [0.138]
 50
90.0
1001
ACAD
1000
MTEXTBEGIN
1070
    73
1070
     1
1070
    44
1040
1.0
1070
    74
1070
     0
1000
MTEXTEND
  0
POINT
  5
101
  8
DEFPOINTS
  6
CONTINUOUS
 62
     0
 10
714.7439846285069
 20
-297.8019140597043
 30
0.0
  0
POINT
  5
102
  8
DEFPOINTS
  6
CONTINUOUS
 62
     0
 10
719.4439846285072
 20
-294.3019140597044
 30
0.0
  0
POINT
  5
103
  8
DEFPOINTS
  6
CONTINUOUS
 62
     0
 10
792.9988952322162
 20
-294.3019140597044
 30
0.0
  0
ENDBLK
  5
104
  8
0
 62
     7
  0
BLOCK
  8
0
  2
*D414141
 70
     1
 10
0.0
 20
0.0
 30
0.0
  3
*D414141
  1

  0
LINE
  5
EC
  8
回07-寸法
  6
CONTINUOUS
 62
     5
 10
714.7439846285069
 20
-297.8019140597043
 30
0.0
 11
793.9988952322162
 21
-297.8019140597043
 31
0.0
  0
LINE
  5
ED
  8
回07-寸法
  6
CONTINUOUS
 62
     5
 10
714.7439846285069
 20
-437.3019140597043
 30
0.0
 11
793.9988952322162
 21
-437.3019140597043
 31
0.0
  0
LINE
  5
EE
  8
回07-寸法
  6
CONTINUOUS
 62
     5
 10
792.9988952322162
 20
-299.8019140597044
 30
0.0
 11
792.9988952322162
 21
-435.3019140597043
 31
0.0
  0
INSERT
  5
EF
  8
回07-寸法
  6
CONTINUOUS
 62
     5
  2
_OPEN
 10
792.9988952322162
 20
-297.8019140597043
 30
0.0
 41
2.0
 42
2.0
 43
2.0
 50
90.0
  0
INSERT
  5
F0
  8
回07-寸法
  6
CONTINUOUS
 62
     5
  2
_OPEN
 10
792.9988952322162
 20
-437.3019140597043
 30
0.0
 41
2.0
 42
2.0
 43
2.0
 50
270.0
  0
TEXT
  5
F1
  8
回07-寸法
  6
CONTINUOUS
 62
     5
 10
792.3489551383186
 20
-378.8127451652853
 30
0.0
 40
3.0
  1
139.5 [5.492]
 50
90.0
1001
ACAD
1000
MTEXTBEGIN
1070
    73
1070
     1
1070
    44
1040
1.0
1070
    74
1070
     0
1000
MTEXTEND
  0
POINT
  5
F2
  8
DEFPOINTS
  6
CONTINUOUS
 62
     0
 10
714.7439846285069
 20
-297.8019140597043
 30
0.0
  0
POINT
  5
F3
  8
DEFPOINTS
  6
CONTINUOUS
 62
     0
 10
714.7439846285069
 20
-437.3019140597043
 30
0.0
  0
POINT
  5
F4
  8
DEFPOINTS
  6
CONTINUOUS
 62
     0
 10
792.9988952322162
 20
-437.3019140597043
 30
0.0
  0
ENDBLK
  5
F5
  8
0
 62
     7
  0
BLOCK
  8
0
  2
*D424242
 70
     1
 10
0.0
 20
0.0
 30
0.0
  3
*D424242
  1

  0
LINE
  5
DC
  8
回07-寸法
  6
CONTINUOUS
 62
     5
 10
714.7439846285069
 20
-437.3019140597043
 30
0.0
 11
793.9988952322162
 21
-437.3019140597043
 31
0.0
  0
LINE
  5
DD
  8
回07-寸法
  6
CONTINUOUS
 62
     5
 10
719.4439846285072
 20
-440.3019140597042
 30
0.0
 11
793.9988952322162
 21
-440.3019140597042
 31
0.0
  0
LINE
  5
DE
  8
回07-寸法
  6
CONTINUOUS
 62
     5
 10
792.9988952322162
 20
-435.3019140597043
 30
0.0
 11
792.9988952322162
 21
-433.3019140597043
 31
0.0
  0
LINE
  5
DF
  8
回07-寸法
  6
CONTINUOUS
 62
     5
 10
792.9988952322162
 20
-442.3019140597043
 30
0.0
 11
792.9988952322162
 21
-458.8019140597043
 31
0.0
  0
LINE
  5
E0
  8
回07-寸法
  6
CONTINUOUS
 62
     5
 10
792.9988952322162
 20
-437.3019140597043
 30
0.0
 11
792.9988952322162
 21
-440.3019140597042
 31
0.0
  0
INSERT
  5
E1
  8
回07-寸法
  6
CONTINUOUS
 62
     5
  2
_OPEN
 10
792.9988952322162
 20
-437.3019140597043
 30
0.0
 41
2.0
 42
2.0
 43
2.0
 50
270.0
  0
INSERT
  5
E2
  8
回07-寸法
  6
CONTINUOUS
 62
     5
  2
_OPEN
 10
792.9988952322162
 20
-440.3019140597042
 30
0.0
 41
2.0
 42
2.0
 43
2.0
 50
90.0
  0
TEXT
  5
E3
  8
回07-寸法
  6
CONTINUOUS
 62
     5
 10
792.3488952322164
 20
-458.7519140597042
 30
0.0
 40
3.0
  1
3 [0.118]
 50
90.0
1001
ACAD
1000
MTEXTBEGIN
1070
    73
1070
     1
1070
    44
1040
1.0
1070
    74
1070
     0
1000
MTEXTEND
  0
POINT
  5
E4
  8
DEFPOINTS
  6
CONTINUOUS
 62
     0
 10
714.7439846285069
 20
-437.3019140597043
 30
0.0
  0
POINT
  5
E6
  8
DEFPOINTS
  6
CONTINUOUS
 62
     0
 10
719.4439846285072
 20
-440.3019140597042
 30
0.0
  0
POINT
  5
E7
  8
DEFPOINTS
  6
CONTINUOUS
 62
     0
 10
792.9988952322162
 20
-440.3019140597042
 30
0.0
  0
ENDBLK
  5
E8
  8
0
 62
     7
  0
BLOCK
  8
回07-寸法
  2
*X434343
 70
     1
 10
0.0
 20
0.0
 30
0.0
  3
*X434343
  1

  0
INSERT
  5
472
  8
回07-寸法
  6
CONTINUOUS
 62
     5
  2
_OPEN
 10
867.7606455185571
 20
-378.702619859822
 30
0.0
 41
1.999999999999999
 42
1.999999999999999
 43
2.0
 50
277.5581606075604
  0
LINE
  5
473
  8
回07-寸法
 62
     5
 10
867.4975804493069
 20
-376.7199961513638
 30
0.0
 11
867.0048851116666
 21
-373.0067344088034
 31
0.0
  0
LINE
  5
474
  8
回07-寸法
 62
     5
 10
867.0048851116666
 20
-373.0067344088034
 30
0.0
 11
839.6048851116667
 21
-373.0067344088034
 31
0.0
  0
ENDBLK
  5
476
  8
回07-寸法
  6
CONTINUOUS
 62
     7
  0
BLOCK
  8
回07-寸法
  2
*X444444
 70
     1
 10
0.0
 20
0.0
 30
0.0
  3
*X444444
  1

  0
LINE
  5
479
  8
回07-寸法
  6
CONTINUOUS
 62
     7
 10
478.738598683393
 20
-487.0165222000871
 30
0.0
 11
479.3385986833929
 21
-486.4165222000869
 31
0.0
  0
LINE
  5
47A
  8
回07-寸法
  6
CONTINUOUS
 62
     7
 10
480.9836627136601
 20
-487.0165222000871
 30
0.0
 11
481.5836627136603
 21
-486.4165222000869
 31
0.0
  0
LINE
  5
47B
  8
回07-寸法
  6
CONTINUOUS
 62
     7
 10
483.2287267439276
 20
-487.0165222000871
 30
0.0
 11
483.8287267439276
 21
-486.4165222000869
 31
0.0
  0
LINE
  5
47C
  8
回07-寸法
  6
CONTINUOUS
 62
     7
 10
485.4737907741948
 20
-487.0165222000871
 30
0.0
 11
486.0737907741947
 21
-486.4165222000869
 31
0.0
  0
LINE
  5
47D
  8
回07-寸法
  6
CONTINUOUS
 62
     7
 10
487.7188548044618
 20
-487.0165222000871
 30
0.0
 11
488.3188548044619
 21
-486.4165222000869
 31
0.0
  0
LINE
  5
47E
  8
回07-寸法
  6
CONTINUOUS
 62
     7
 10
489.9639188347292
 20
-487.0165222000871
 30
0.0
 11
490.5639188347294
 21
-486.4165222000869
 31
0.0
  0
LINE
  5
47F
  8
回07-寸法
  6
CONTINUOUS
 62
     7
 10
492.2089828649965
 20
-487.0165222000871
 30
0.0
 11
492.8089828649966
 21
-486.4165222000869
 31
0.0
  0
LINE
  5
480
  8
回07-寸法
  6
CONTINUOUS
 62
     7
 10
494.4540468952639
 20
-487.0165222000871
 30
0.0
 11
495.0540468952636
 21
-486.4165222000869
 31
0.0
  0
LINE
  5
481
  8
回07-寸法
  6
CONTINUOUS
 62
     7
 10
496.6991109255308
 20
-487.0165222000871
 30
0.0
 11
497.299110925531
 21
-486.4165222000869
 31
0.0
  0
LINE
  5
482
  8
回07-寸法
  6
CONTINUOUS
 62
     7
 10
498.9441749557983
 20
-487.0165222000871
 30
0.0
 11
499.5441749557983
 21
-486.4165222000869
 31
0.0
  0
LINE
  5
483
  8
回07-寸法
  6
CONTINUOUS
 62
     7
 10
501.1892389860655
 20
-487.0165222000871
 30
0.0
 11
501.7892389860655
 21
-486.4165222000869
 31
0.0
  0
LINE
  5
484
  8
回07-寸法
  6
CONTINUOUS
 62
     7
 10
503.4343030163326
 20
-487.0165222000871
 30
0.0
 11
503.5700193479609
 21
-486.880805868459
 31
0.0
  0
ENDBLK
  5
486
  8
回07-寸法
  6
CONTINUOUS
 62
     7
  0
BLOCK
  8
回07-寸法
  2
*X454545
 70
     1
 10
0.0
 20
0.0
 30
0.0
  3
*X454545
  1

  0
INSERT
  5
493
  8
回08-記事
  6
CONTINUOUS
 62
     5
  2
_OPEN
 10
447.2440645672443
 20
-484.2331886019522
 30
0.0
 41
1.999999999999999
 42
1.999999999999999
 43
2.0
 50
315.3238441028802
  0
LINE
  5
494
  8
回08-記事
  6
CONTINUOUS
 62
     5
 10
445.8218802958072
 20
-482.8269909280538
 30
0.0
 11
438.644993824998
 21
-475.7307789506238
 31
0.0
  0
LINE
  5
495
  8
回08-記事
  6
CONTINUOUS
 62
     5
 10
438.644993824998
 20
-475.7307789506238
 30
0.0
 11
409.444993824998
 21
-475.7307789506238
 31
0.0
  0
ENDBLK
  5
497
  8
回07-寸法
  6
CONTINUOUS
 62
     7
  0
BLOCK
  8
回07-寸法
  2
*X464646
 70
     1
 10
0.0
 20
0.0
 30
0.0
  3
*X464646
  1

  0
TEXT
  5
4B0
  8
回07-寸法
 62
     5
 10
467.0992830230401
 20
-347.6638184056937
 30
0.0
 40
3.0
  1
Lot Label
  0
TEXT
  5
4B1
  8
回07-寸法
 62
     5
 10
445.1992830230401
 20
-352.6638184056937
 30
0.0
 40
3.0
  1
Tail information label
  0
ENDBLK
  5
4B3
  8
回07-寸法
  6
CONTINUOUS
 62
     7
  0
BLOCK
  8
回07-寸法
  2
*X474747
 70
     1
 10
0.0
 20
0.0
 30
0.0
  3
*X474747
  1

  0
INSERT
  5
4B6
  8
回07-寸法
  6
CONTINUOUS
 62
     5
  2
_OPEN
 10
490.8086292633515
 20
-330.3893260564487
 30
0.0
 41
2.0
 42
2.0
 43
2.0
 50
79.4067674751847
  0
LINE
  5
4B7
  8
回07-寸法
 62
     5
 10
490.4409587629668
 20
-332.3552401957607
 30
0.0
 11
486.5492830230401
 21
-353.1638184056937
 31
0.0
  0
LINE
  5
4B8
  8
回07-寸法
 62
     5
 10
486.5492830230401
 20
-353.1638184056937
 30
0.0
 11
445.6492830230401
 21
-353.1638184056937
 31
0.0
  0
ENDBLK
  5
4BA
  8
回07-寸法
  6
CONTINUOUS
 62
     7
  0
BLOCK
  8
回07-寸法
  2
*X484848
 70
     1
 10
0.0
 20
0.0
 30
0.0
  3
*X484848
  1

  0
INSERT
  5
4BD
  8
回07-寸法
  6
CONTINUOUS
 62
     5
  2
_OPEN
 10
523.8483975152676
 20
-323.9174023197926
 30
0.0
 41
1.999999999999999
 42
1.999999999999999
 43
2.0
 50
292.798371980563
  0
LINE
  5
4BE
  8
回07-寸法
 62
     5
 10
523.0734187308676
 20
-322.073653995392
 30
0.0
 11
519.4780283600676
 21
-313.5198779370444
 31
0.0
  0
LINE
  5
4BF
  8
回07-寸法
 62
     5
 10
519.4780283600676
 20
-313.5198779370444
 30
0.0
 11
484.5780283600674
 21
-313.5198779370444
 31
0.0
  0
ENDBLK
  5
4C1
  8
回07-寸法
  6
CONTINUOUS
 62
     7
  0
BLOCK
  8
回07-寸法
  2
*X494949
 70
     1
 10
0.0
 20
0.0
 30
0.0
  3
*X494949
  1

  0
INSERT
  5
4C4
  8
回07-寸法
  6
CONTINUOUS
 62
     5
  2
_OPEN
 10
448.2638780219452
 20
-336.4653253155625
 30
0.0
 41
2.0
 42
2.0
 43
2.0
 50
104.3969594743261
  0
LINE
  5
4C5
  8
回07-寸法
 62
     5
 10
448.7611549956127
 20
-338.4025180296362
 30
0.0
 11
449.7987073563465
 21
-342.4444081233165
 31
0.0
  0
LINE
  5
4C6
  8
回07-寸法
 62
     5
 10
449.7987073563465
 20
-342.4444081233165
 30
0.0
 11
454.6987073563465
 21
-342.4444081233165
 31
0.0
  0
ENDBLK
  5
4C8
  8
回07-寸法
  6
CONTINUOUS
 62
     7
  0
BLOCK
  8
回07-寸法
  2
*X505050
 70
     1
 10
0.0
 20
0.0
 30
0.0
  3
*X505050
  1

  0
INSERT
  5
4CB
  8
回07-寸法
  6
CONTINUOUS
 62
     5
  2
_OPEN
 10
520.8427595760927
 20
-322.7952364209583
 30
0.0
 41
2.0
 42
2.0
 43
2.0
 50
293.8652682202201
  0
LINE
  5
4CC
  8
回07-寸法
 62
     5
 10
520.0335849634166
 20
-320.9662376658464
 30
0.0
 11
518.8639252424819
 21
-318.3224248966599
 31
0.0
  0
LINE
  5
4CD
  8
回07-寸法
 62
     5
 10
518.8639252424819
 20
-318.3224248966599
 30
0.0
 11
494.7530941369008
 21
-318.3224248966599
 31
0.0
  0
ENDBLK
  5
4CF
  8
回07-寸法
  6
CONTINUOUS
 62
     7
  0
BLOCK
  8
回07-寸法
  2
*X515151
 70
     1
 10
0.0
 20
0.0
 30
0.0
  3
*X515151
  1

  0
INSERT
  5
4D2
  8
回07-寸法
  6
CONTINUOUS
 62
     5
  2
_OPEN
 10
525.109356498715
 20
-321.929697369762
 30
0.0
 41
1.999999999999999
 42
1.999999999999999
 43
2.0
 50
286.650634641221
  0
LINE
  5
4D3
  8
回07-寸法
 62
     5
 10
524.5362861689543
 20
-320.0135579183785
 30
0.0
 11
521.0781488977072
 21
-308.4508004179066
 31
0.0
  0
LINE
  5
4D4
  8
回07-寸法
 62
     5
 10
521.0781488977072
 20
-308.4508004179066
 30
0.0
 11
496.6673177921263
 21
-308.4508004179066
 31
0.0
  0
ENDBLK
  5
4D6
  8
回07-寸法
  6
CONTINUOUS
 62
     7
  0
BLOCK
  8
回07-寸法
  2
*X525252
 70
     1
 10
0.0
 20
0.0
 30
0.0
  3
*X525252
  1

  0
LINE
  5
4E3
  8
回08-記事
 62
     9
 10
475.9933971941951
 20
-333.3018971516616
 30
0.0
 11
474.1214034714153
 21
-331.4299034288818
 31
0.0
  0
LINE
  5
4E4
  8
回08-記事
 62
     9
 10
478.6450476236445
 20
-333.3018971516615
 30
0.0
 11
474.21743933817
 21
-328.8742888661872
 31
0.0
  0
LINE
  5
4E5
  8
回08-記事
 62
     9
 10
481.2966980530941
 20
-333.3018971516615
 30
0.0
 11
476.296698053094
 21
-328.3018971516615
 31
0.0
  0
LINE
  5
4E6
  8
回08-記事
 62
     9
 10
483.9483484825437
 20
-333.3018971516615
 30
0.0
 11
478.9483484825437
 21
-328.3018971516615
 31
0.0
  0
LINE
  5
4E7
  8
回08-記事
 62
     9
 10
486.5999989119932
 20
-333.3018971516615
 30
0.0
 11
481.5999989119931
 21
-328.3018971516615
 31
0.0
  0
LINE
  5
4E8
  8
回08-記事
 62
     9
 10
489.2516493414428
 20
-333.3018971516615
 30
0.0
 11
484.2516493414428
 21
-328.3018971516615
 31
0.0
  0
LINE
  5
4E9
  8
回08-記事
 62
     9
 10
491.9032997708923
 20
-333.3018971516615
 30
0.0
 11
486.9032997708923
 21
-328.3018971516615
 31
0.0
  0
LINE
  5
4EA
  8
回08-記事
 62
     9
 10
494.5549502003419
 20
-333.3018971516615
 30
0.0
 11
489.5549502003418
 21
-328.3018971516615
 31
0.0
  0
LINE
  5
4EB
  8
回08-記事
 62
     9
 10
497.2066006297914
 20
-333.3018971516615
 30
0.0
 11
492.2066006297914
 21
-328.3018971516615
 31
0.0
  0
LINE
  5
4EC
  8
回08-記事
 62
     9
 10
499.6845845625129
 20
-333.1282306549336
 30
0.0
 11
494.8582510592409
 21
-328.3018971516615
 31
0.0
  0
LINE
  5
4ED
  8
回08-記事
 62
     9
 10
500.1214034714153
 20
-330.9133991343863
 30
0.0
 11
497.5099014886903
 21
-328.3018971516615
 31
0.0
  0
ENDBLK
  5
4EF
  8
回07-寸法
  6
CONTINUOUS
 62
     7
  0
BLOCK
  8
回07-寸法
  2
*X535353
 70
     1
 10
0.0
 20
0.0
 30
0.0
  3
*X535353
  1

  0
LINE
  5
4FB
  8
回08-記事
 62
     9
 10
521.2525451348741
 20
-325.3027978580566
 30
0.0
 11
523.1561286536848
 21
-323.3992143392459
 31
0.0
  0
LINE
  5
4FC
  8
回08-記事
 62
     9
 10
521.2525451348741
 20
-327.5478618883238
 30
0.0
 11
525.4011926839522
 21
-323.3992143392459
 31
0.0
  0
LINE
  5
4FD
  8
回08-記事
 62
     9
 10
521.2525451348741
 20
-329.7929259185912
 30
0.0
 11
527.6462567142194
 21
-323.399214339246
 31
0.0
  0
LINE
  5
4FE
  8
回08-記事
 62
     9
 10
523.4886379320711
 20
-329.8018971516615
 30
0.0
 11
528.9440281392749
 21
-324.3465069444577
 31
0.0
  0
LINE
  5
4FF
  8
回08-記事
 62
     9
 10
525.7337019623384
 20
-329.8018971516615
 30
0.0
 11
528.9440281392749
 21
-326.5915709747249
 31
0.0
  0
LINE
  5
500
  8
回08-記事
 62
     9
 10
527.9787659926056
 20
-329.8018971516615
 30
0.0
 11
528.9440281392749
 21
-328.8366350049922
 31
0.0
  0
ENDBLK
  5
502
  8
回07-寸法
  6
CONTINUOUS
 62
     7
  0
BLOCK
  8
回07-寸法
  2
*X545454
 70
     1
 10
0.0
 20
0.0
 30
0.0
  3
*X545454
  1

  0
INSERT
  5
50A
  8
回07-寸法
  6
CONTINUOUS
 62
     5
  2
_OPEN
 10
716.6257679300155
 20
-433.889196454168
 30
0.0
 41
2.0
 42
2.0
 43
2.0
 50
252.8198160986132
  0
LINE
  5
50B
  8
回07-寸法
 62
     5
 10
717.2165232169223
 20
-431.9784352992898
 30
0.0
 11
723.9502257501572
 21
-410.1986941540483
 31
0.0
  0
LINE
  5
50C
  8
回07-寸法
 62
     5
 10
723.9502257501572
 20
-410.1986941540483
 30
0.0
 11
748.4502257501572
 21
-410.1986941540483
 31
0.0
  0
ENDBLK
  5
50E
  8
回07-寸法
  6
CONTINUOUS
 62
     7
  0
BLOCK
  8
回07-寸法
  2
*X555555
 70
     1
 10
0.0
 20
0.0
 30
0.0
  3
*X555555
  1

  0
INSERT
  5
511
  8
回07-寸法
  6
CONTINUOUS
 62
     5
  2
_OPEN
 10
702.9847952897065
 20
-440.0830388291516
 30
0.0
 41
2.0
 42
2.0
 43
2.0
 50
65.28858136730502
  0
LINE
  5
512
  8
回07-寸法
 62
     5
 10
702.1486990405417
 20
-441.899888592377
 30
0.0
 11
699.1601403158755
 21
-448.3940717880533
 31
0.0
  0
LINE
  5
513
  8
回07-寸法
 62
     5
 10
699.1601403158755
 20
-448.3940717880533
 30
0.0
 11
676.2601403158758
 21
-448.3940717880533
 31
0.0
  0
ENDBLK
  5
515
  8
回07-寸法
  6
CONTINUOUS
 62
     7
  0
BLOCK
  8
回07-寸法
  2
*X565656
 70
     1
 10
0.0
 20
0.0
 30
0.0
  3
*X565656
  1

  0
INSERT
  5
518
  8
回08-記事
  6
CONTINUOUS
 62
     5
  2
_OPEN
 10
486.1372049167696
 20
-487.1296123178451
 30
0.0
 41
1.999999999999999
 42
1.999999999999999
 43
2.0
 50
95.76839439703295
  0
LINE
  5
519
  8
回08-記事
  6
CONTINUOUS
 62
     5
 10
486.3382198845991
 20
-489.1194849224882
 30
0.0
 11
487.3628958242683
 21
-499.2628817202612
 31
0.0
  0
LINE
  5
51A
  8
回08-記事
  6
CONTINUOUS
 62
     5
 10
487.3628958242683
 20
-499.2628817202612
 30
0.0
 11
511.8628958242683
 21
-499.2628817202612
 31
0.0
  0
ENDBLK
  5
51C
  8
回07-寸法
  6
CONTINUOUS
 62
     7
  0
BLOCK
  8
回07-寸法
  2
*X575757
 70
     1
 10
0.0
 20
0.0
 30
0.0
  3
*X575757
  1

  0
TEXT
  5
524
  8
回07-寸法
 62
     5
 10
771.781582111619
 20
-429.6202211463186
 30
0.0
 40
3.0
  1
73 [2.874] 
 50
90.0
  0
TEXT
  5
525
  8
回07-寸法
 62
     5
 10
771.781582111619
 20
-409.8202211463187
 30
0.0
 40
2.25
  1
(ACTIVE AREA CENTER)
 50
90.0
  0
ENDBLK
  5
527
  8
回07-寸法
  6
CONTINUOUS
 62
     7
  0
BLOCK
  8
回07-寸法
  2
*X585858
 70
     1
 10
0.0
 20
0.0
 30
0.0
  3
*X585858
  1

  0
TEXT
  5
52A
  8
回07-寸法
 62
     5
 10
753.8098764757621
 20
-359.1435946529019
 30
0.0
 40
3.0
  1
130 [5.118] 
 50
90.0
  0
TEXT
  5
52B
  8
回07-寸法
 62
     5
 10
753.8098764757621
 20
-339.343594652902
 30
0.0
 40
2.25
  1
(ACTIVE AREA)
 50
90.0
  0
ENDBLK
  5
52D
  8
回07-寸法
  6
CONTINUOUS
 62
     7
  0
BLOCK
  8
回07-寸法
  2
*X595959
 70
     1
 10
0.0
 20
0.0
 30
0.0
  3
*X595959
  1

  0
TEXT
  5
530
  8
回07-寸法
 62
     5
 10
762.438244527624
 20
-360.360489373446
 30
0.0
 40
3.0
  1
136 [5.354] 
 50
90.0
  0
TEXT
  5
531
  8
回07-寸法
 62
     5
 10
762.438244527624
 20
-339.060489373446
 30
0.0
 40
2.25
  1
(VIEWING AREA)
 50
90.0
  0
ENDBLK
  5
533
  8
回07-寸法
  6
CONTINUOUS
 62
     7
  0
BLOCK
  8
回07-寸法
  2
*X606060
 70
     1
 10
0.0
 20
0.0
 30
0.0
  3
*X606060
  1

  0
TEXT
  5
536
  8
回07-寸法
 62
     5
 10
799.5649849374448
 20
-391.0016658262998
 30
0.0
 40
3.0
  1
146
 50
90.0
  0
TEXT
  5
537
  8
回07-寸法
 62
     5
 10
799.5649849374448
 20
-385.0016658262998
 30
0.0
 40
2.1
  1
±0.3
 50
90.0
  0
TEXT
  5
538
  8
回07-寸法
 62
     5
 10
799.5649849374448
 20
-379.9616658262999
 30
0.0
 40
3.0
  1
 [5.748
 50
90.0
  0
TEXT
  5
539
  8
回07-寸法
 62
     5
 10
799.5649849374448
 20
-367.3616658262998
 30
0.0
 40
2.1
  1
±0.012
 50
90.0
  0
TEXT
  5
53A
  8
回07-寸法
 62
     5
 10
799.5649849374448
 20
-359.8016658262999
 30
0.0
 40
3.0
  1
]
 50
90.0
  0
ENDBLK
  5
53C
  8
回07-寸法
  6
CONTINUOUS
 62
     7
  0
BLOCK
  8
回07-寸法
  2
*X616161
 70
     1
 10
0.0
 20
0.0
 30
0.0
  3
*X616161
  1

  0
TEXT
  5
53F
  8
回07-寸法
 62
     5
 10
612.2885690757166
 20
-243.7128817444546
 30
0.0
 40
3.0
  1
194
  0
TEXT
  5
540
  8
回07-寸法
 62
     5
 10
618.2994001812975
 20
-243.7128817444546
 30
0.0
 40
2.1
  1
±0.3
  0
TEXT
  5
541
  8
回07-寸法
 62
     5
 10
623.3394001812975
 20
-243.7128817444546
 30
0.0
 40
3.0
  1
 [7.638
  0
TEXT
  5
542
  8
回07-寸法
 62
     5
 10
635.6394001812972
 20
-243.7128817444546
 30
0.0
 40
2.1
  1
±0.012
  0
TEXT
  5
543
  8
回07-寸法
 62
     5
 10
643.1994001812974
 20
-243.7128817444546
 30
0.0
 40
3.0
  1
]
  0
ENDBLK
  5
545
  8
回07-寸法
  6
CONTINUOUS
 62
     7
  0
BLOCK
  8
回07-寸法
  2
*X626262
 70
     1
 10
0.0
 20
0.0
 30
0.0
  3
*X626262
  1

  0
TEXT
  5
548
  8
回07-寸法
 62
     5
 10
547.5148464363122
 20
-269.8090985019586
 30
0.0
 40
3.0
  1
98.5 [3.878] 
  0
TEXT
  5
549
  8
回07-寸法
 62
     5
 10
570.025677541893
 20
-269.8090985019586
 30
0.0
 40
2.25
  1
(ACTIVE AREA CENTER)
  0
ENDBLK
  5
54B
  8
回07-寸法
  6
CONTINUOUS
 62
     7
  0
BLOCK
  8
回07-寸法
  2
*X636363
 70
     1
 10
0.0
 20
0.0
 30
0.0
  3
*X636363
  1

  0
TEXT
  5
54E
  8
回07-寸法
 62
     5
 10
475.6947163964332
 20
-300.6222650037204
 30
0.0
 40
3.0
  1
80
  0
TEXT
  5
54F
  8
回07-寸法
 62
     5
 10
479.8947163964331
 20
-300.6222650037204
 30
0.0
 40
2.1
  1
±1
  0
TEXT
  5
550
  8
回07-寸法
 62
     5
 10
482.414716396433
 20
-300.6222650037204
 30
0.0
 40
3.0
  1
 [3.150
  0
TEXT
  5
551
  8
回07-寸法
 62
     5
 10
494.114716396433
 20
-300.6222650037204
 30
0.0
 40
2.1
  1
±0.039
  0
TEXT
  5
552
  8
回07-寸法
 62
     5
 10
502.1022981703398
 20
-300.6222650037204
 30
0.0
 40
3.0
  1
]
  0
ENDBLK
  5
554
  8
回07-寸法
  6
CONTINUOUS
 62
     7
  0
BLOCK
  8
回07-寸法
  2
*X646464
 70
     1
 10
0.0
 20
0.0
 30
0.0
  3
*X646464
  1

  0
TEXT
  5
557
  8
回07-寸法
 62
     5
 10
630.6094611341197
 20
-277.6517856385045
 30
0.0
 40
3.0
  1
177 [6.969] 
  0
TEXT
  5
558
  8
回07-寸法
 62
     5
 10
651.6311233452816
 20
-277.6517856385045
 30
0.0
 40
2.25
  1
(VIEWING AREA)
  0
ENDBLK
  5
55A
  8
回07-寸法
  6
CONTINUOUS
 62
     7
  0
BLOCK
  8
回07-寸法
  2
*X656565
 70
     1
 10
0.0
 20
0.0
 30
0.0
  3
*X656565
  1

  0
TEXT
  5
55D
  8
回07-寸法
 62
     5
 10
631.3039885415625
 20
-285.6516658262998
 30
0.0
 40
3.0
  1
171.5 [6.752] 
  0
TEXT
  5
55E
  8
回07-寸法
 62
     5
 10
654.7039885415625
 20
-285.6516658262998
 30
0.0
 40
2.25
  1
(ACTIVE AREA)
  0
ENDBLK
  5
560
  8
回07-寸法
  6
CONTINUOUS
 62
     7
  0
BLOCK
  8
回07-寸法
  2
*X666666
 70
     1
 10
0.0
 20
0.0
 30
0.0
  3
*X666666
  1

  0
TEXT
  5
563
  8
回07-寸法
  6
CONTINUOUS
 62
     5
 10
728.0311198187852
 20
-523.7549927512681
 30
0.0
 40
3.0
  1
2.1
 50
90.0
  0
TEXT
  5
564
  8
回07-寸法
  6
CONTINUOUS
 62
     5
 10
728.0311198187852
 20
-519.2549927512681
 30
0.0
 40
2.0625
  1
±0.2
 50
90.0
  0
TEXT
  5
565
  8
回07-寸法
  6
CONTINUOUS
 62
     5
 10
728.0311198187852
 20
-514.304992751268
 30
0.0
 40
3.0
  1
[0.083
 50
90.0
  0
TEXT
  5
566
  8
回07-寸法
  6
CONTINUOUS
 62
     5
 10
728.0311198187852
 20
-503.8049927512678
 30
0.0
 40
2.000099999999999
  1
±0.008
 50
90.0
  0
TEXT
  5
567
  8
回07-寸法
  6
CONTINUOUS
 62
     5
 10
728.0311198187852
 20
-496.2046127512681
 30
0.0
 40
3.0
  1
]
 50
90.0
  0
ENDBLK
  5
569
  8
回07-寸法
  6
CONTINUOUS
 62
     7
  0
BLOCK
  8
回07-寸法
  2
*X676767
 70
     1
 10
0.0
 20
0.0
 30
0.0
  3
*X676767
  1

  0
TEXT
  5
56C
  8
回07-寸法
  6
CONTINUOUS
 62
     5
 10
437.108915420679
 20
-523.2519322000869
 30
0.0
 40
3.0
  1
0.3
 50
90.0
  0
TEXT
  5
56D
  8
回07-寸法
  6
CONTINUOUS
 62
     5
 10
437.108915420679
 20
-518.151932200087
 30
0.0
 40
1.9689
  1
±0.05
 50
90.0
  0
TEXT
  5
56E
  8
回07-寸法
  6
CONTINUOUS
 62
     5
 10
437.108915420679
 20
-512.0483422000869
 30
0.0
 40
3.0
  1
[0.012
 50
90.0
  0
TEXT
  5
56F
  8
回07-寸法
  6
CONTINUOUS
 62
     5
 10
437.108915420679
 20
-502.1483422000867
 30
0.0
 40
1.9689
  1
±0.002
 50
90.0
  0
TEXT
  5
570
  8
回07-寸法
  6
CONTINUOUS
 62
     5
 10
437.108915420679
 20
-494.6665222000868
 30
0.0
 40
3.0
  1
]
 50
90.0
  0
ENDBLK
  5
572
  8
回07-寸法
  6
CONTINUOUS
 62
     7
  0
BLOCK
  8
回07-寸法
  2
*X686868
 70
     1
 10
0.0
 20
0.0
 30
0.0
  3
*X686868
  1

  0
TEXT
  5
575
  8
回08-記事
  6
CONTINUOUS
 62
     5
 10
838.4047465397772
 20
-427.6696619516902
 30
0.0
 40
3.0
  1
6.25
 50
90.0
  0
TEXT
  5
576
  8
回08-記事
  6
CONTINUOUS
 62
     5
 10
838.4047465397772
 20
-420.4696619516901
 30
0.0
 40
2.000099999999999
  1
±0.2
 50
90.0
  0
TEXT
  5
577
  8
回08-記事
  6
CONTINUOUS
 62
     5
 10
838.4047465397772
 20
-415.6694219516903
 30
0.0
 40
3.0
  1
[0.246
 50
90.0
  0
TEXT
  5
578
  8
回08-記事
  6
CONTINUOUS
 62
     5
 10
838.4047465397772
 20
-404.8694219516902
 30
0.0
 40
2.000099999999999
  1
±0.008
 50
90.0
  0
TEXT
  5
579
  8
回08-記事
  6
CONTINUOUS
 62
     5
 10
838.4047465397772
 20
-397.2690419516904
 30
0.0
 40
3.0
  1
]
 50
90.0
  0
ENDBLK
  5
57B
  8
回07-寸法
  6
CONTINUOUS
 62
     7
  0
BLOCK
  8
回07-寸法
  2
*X696969
 70
     1
 10
0.0
 20
0.0
 30
0.0
  3
*X696969
  1

  0
TEXT
  5
57E
  8
回08-記事
  6
CONTINUOUS
 62
     5
 10
851.8594338262998
 20
-426.5898232207006
 30
0.0
 40
3.0
  1
1.25
 50
90.0
  0
TEXT
  5
57F
  8
回08-記事
  6
CONTINUOUS
 62
     5
 10
851.8594338262998
 20
-419.9898232207005
 30
0.0
 40
2.499989999999999
  1
±0.2
 50
90.0
  0
TEXT
  5
580
  8
回08-記事
  6
CONTINUOUS
 62
     5
 10
851.8594338262998
 20
-413.9898472207006
 30
0.0
 40
3.0
  1
[0.049
 50
90.0
  0
TEXT
  5
581
  8
回08-記事
  6
CONTINUOUS
 62
     5
 10
851.8594338262998
 20
-403.1790161151197
 30
0.0
 40
2.499989999999999
  1
±0.008
 50
90.0
  0
TEXT
  5
582
  8
回08-記事
  6
CONTINUOUS
 62
     5
 10
851.8594338262998
 20
-393.6790541151197
 30
0.0
 40
3.0
  1
]
 50
90.0
  0
ENDBLK
  5
584
  8
回07-寸法
  6
CONTINUOUS
 62
     7
  0
BLOCK
  8
回07-寸法
  2
*X707070
 70
     1
 10
0.0
 20
0.0
 30
0.0
  3
*X707070
  1

  0
TEXT
  5
587
  8
回08-記事
  6
CONTINUOUS
 62
     5
 10
858.6240714191522
 20
-429.7291671721686
 30
0.0
 40
3.0
  1
4-0.7
 50
90.0
  0
TEXT
  5
588
  8
回08-記事
  6
CONTINUOUS
 62
     5
 10
858.6240714191522
 20
-420.1291671721686
 30
0.0
 40
2.499989999999999
  1
±0.1
 50
90.0
  0
TEXT
  5
589
  8
回08-記事
  6
CONTINUOUS
 62
     5
 10
858.6240714191522
 20
-414.6291891721686
 30
0.0
 40
3.0
  1
[0.028
 50
90.0
  0
TEXT
  5
58A
  8
回08-記事
  6
CONTINUOUS
 62
     5
 10
858.6240714191522
 20
-404.1291891721686
 30
0.0
 40
2.499989999999999
  1
±0.004
 50
90.0
  0
TEXT
  5
58B
  8
回08-記事
  6
CONTINUOUS
 62
     5
 10
858.6240714191522
 20
-394.3792281721687
 30
0.0
 40
3.0
  1
]
 50
90.0
  0
ENDBLK
  5
58D
  8
回07-寸法
  6
CONTINUOUS
 62
     7
  0
BLOCK
  8
回07-寸法
  2
*X717171
 70
     1
 10
0.0
 20
0.0
 30
0.0
  3
*X717171
  1

  0
TEXT
  5
590
  8
回08-記事
  6
CONTINUOUS
 62
     5
 10
845.4446958001136
 20
-423.2792891721686
 30
0.0
 40
3.0
  1
3.75
 50
90.0
  0
TEXT
  5
591
  8
回08-記事
  6
CONTINUOUS
 62
     5
 10
845.4446958001136
 20
-416.0792891721686
 30
0.0
 40
2.00001
  1
±0.1
 50
90.0
  0
TEXT
  5
592
  8
回08-記事
  6
CONTINUOUS
 62
     5
 10
845.4446958001136
 20
-411.6792671721686
 30
0.0
 40
3.0
  1
[0.148
 50
90.0
  0
TEXT
  5
593
  8
回08-記事
  6
CONTINUOUS
 62
     5
 10
845.4446958001136
 20
-401.4792671721686
 30
0.0
 40
2.00001
  1
±0.004
 50
90.0
  0
TEXT
  5
594
  8
回08-記事
  6
CONTINUOUS
 62
     5
 10
845.4446958001136
 20
-393.6792281721687
 30
0.0
 40
3.0
  1
]
 50
90.0
  0
ENDBLK
  5
596
  8
回07-寸法
  6
CONTINUOUS
 62
     7
  0
ENDSEC
  0
SECTION
  2
ENTITIES
  0
TEXT
  5
CC
  8
回03-記事
  6
CONTINUOUS
 62
     5
 10
555.7926623232604
 20
-534.1342476864304
 30
0.0
 40
4.320000000000001
  1
without affecting product specification.
  0
TEXT
  5
CE
  8
回03-記事
  6
CONTINUOUS
 62
     5
 10
555.7926623232604
 20
-526.5565125436502
 30
0.0
 40
4.320000000000001
  1
Edges and corners of ITO glass may be chamfered 
  0
TEXT
  5
CF
  8
回03-記事
  6
CONTINUOUS
 62
     5
 10
555.7926623232604
 20
-518.9787774008705
 30
0.0
 40
4.320000000000001
  1
Unit: mm
  0
TEXT
  5
D0
  8
回03-記事
  6
CONTINUOUS
 62
     5
 10
555.7926623232604
 20
-511.4010422580908
 30
0.0
 40
4.320000000000001
  1
EXCEPT WHERE INDICATED
  0
TEXT
  5
D1
  8
回03-記事
  6
CONTINUOUS
 62
     5
 10
555.7926623232604
 20
-503.823307115311
 30
0.0
 40
4.320000000000001
  1
TOLERANCE=±0.5mm
  0
TEXT
  5
D2
  8
回07-寸法
 62
     5
 10
839.1548851116667
 20
-372.3567344088033
 30
0.0
 40
3.0
  1
2-R0.5[R0.020]
1001
ACAD
1000
MTEXTBEGIN
1070
    73
1070
     1
1070
    44
1040
1.0
1070
    74
1070
     0
1000
MTEXTEND
  0
INSERT
  5
D3
  8
回07-寸法
 62
     1
 66
     1
  2
*X434343
 10
0.0
 20
0.0
 30
0.0
  0
SEQEND
  5
477
  8
回07-寸法
  6
CONTINUOUS
 62
     7
  0
TEXT
  5
D4
  8
回08-記事
  6
CONTINUOUS
 62
     7
 10
798.3121257737304
 20
-470.3409186226052
 30
0.0
 40
3.0
  1
(CUSION AREA)
 50
90.0
  0
TEXT
  5
D8
  8
回08-記事
  6
CONTINUOUS
 62
     7
 10
798.3121257737304
 20
-290.2005918114744
 30
0.0
 40
3.0
  1
(CUSION AREA)
 50
90.0
  0
DIMENSION
  5
D9
  8
回07-寸法
  6
CONTINUOUS
 62
     7
  2
*D424242
 10
792.9988952322162
 20
-440.3019140597042
 30
0.0
 11
790.8488952322161
 21
-451.5519140597041
 31
0.0
 70
     0
  3
DMC
 13
714.7439846285069
 23
-437.3019140597043
 33
0.0
 14
719.4439846285072
 24
-440.3019140597042
 34
0.0
 50
90.0
1001
ACAD
1000
DSTYLE
1002
{
1070
   170
1070
     1
1070
   371
1070
     9
1070
   372
1070
     9
1002
}
  0
DIMENSION
  5
E9
  8
回07-寸法
  6
CONTINUOUS
 62
     7
  2
*D414141
 10
792.9988952322162
 20
-437.3019140597043
 30
0.0
 11
790.8481701936866
 21
-367.5519140597043
 31
0.0
 70
     0
  3
DMC
 13
714.7439846285069
 23
-297.8019140597043
 33
0.0
 14
714.7439846285069
 24
-437.3019140597043
 34
0.0
 50
90.0
1001
ACAD
1000
DSTYLE
1002
{
1070
   170
1070
     1
1070
   371
1070
     9
1070
   372
1070
     9
1002
}
  0
DIMENSION
  5
F6
  8
回07-寸法
  6
CONTINUOUS
 62
     7
  2
*D404040
 10
792.9988952322162
 20
-294.3019140597044
 30
0.0
 11
790.8488952322161
 21
-281.2519140597043
 31
0.0
 70
     0
  3
DMC
 13
714.7439846285069
 23
-297.8019140597043
 33
0.0
 14
719.4439846285072
 24
-294.3019140597044
 34
0.0
 50
90.0
1001
ACAD
1000
DSTYLE
1002
{
1070
   170
1070
     1
1070
   371
1070
     9
1070
   372
1070
     9
1002
}
  0
TEXT
  5
105
  8
回08-記事
  6
CONTINUOUS
 62
     7
 10
722.3489120877577
 20
-255.0219898220427
 30
0.0
 40
3.0
  1
(CUSION AREA)
  0
DIMENSION
  5
106
  8
回07-寸法
  6
CONTINUOUS
 62
     7
  2
*D393939
 10
719.4439846285072
 20
-250.5707063484917
 30
0.0
 11
732.6439846285072
 21
-248.4207063484917
 31
0.0
 70
     0
  3
DMC
 13
714.7439846285069
 23
-297.8019140597043
 33
0.0
 14
719.4439846285072
 24
-294.3019140597044
 34
0.0
1001
ACAD
1000
DSTYLE
1002
{
1070
   170
1070
     1
1070
   371
1070
     9
1070
   372
1070
     9
1002
}
  0
DIMENSION
  5
115
  8
回07-寸法
  6
CONTINUOUS
 62
     7
  2
*D383838
 10
714.7439846285069
 20
-250.5707063484917
 30
0.0
 11
624.068984628507
 21
-248.4207063484917
 31
0.0
 70
     0
  3
DMC
 13
533.393984628507
 23
-297.8019140597043
 33
0.0
 14
714.7439846285069
 24
-297.8019140597043
 34
0.0
1001
ACAD
1000
DSTYLE
1002
{
1070
   170
1070
     1
1070
   371
1070
     9
1070
   372
1070
     9
1002
}
  0
TEXT
  5
122
  8
回08-記事
  6
CONTINUOUS
 62
     7
 10
495.7646241890848
 20
-255.0219898220427
 30
0.0
 40
3.0
  1
(CUSION AREA)
  0
DIMENSION
  5
123
  8
回07-寸法
  6
CONTINUOUS
 62
     7
  2
*D373737
 10
525.443984628507
 20
-250.5707063484917
 30
0.0
 11
511.3387431327658
 21
-248.4207063484917
 31
0.0
 70
     0
  3
DMC
 13
533.393984628507
 23
-297.8019140597043
 33
0.0
 14
525.443984628507
 24
-294.3019140597044
 34
0.0
1001
ACAD
1000
DSTYLE
1002
{
1070
   170
1070
     1
1070
   371
1070
     9
1070
   372
1070
     9
1002
}
  0
INSERT
  5
132
  8
回07-寸法
  6
CONTINUOUS
 62
     7
 66
     1
  2
*X444444
 10
0.0
 20
0.0
 30
0.0
1001
ACAD
1000
HATCH
1002
{
1070
    19
1000
ANSI31
1040
0.5
1040
0.0
1000
ASC_BOUNDS
1070
     1
1070
     2
1070
     1
1005
2FF
1000
ASC_SEEDPOINT
1011
-13.09279631305776
1021
0.0
1031
0.0
1000
R14_HATCH_DATA
1000
132
1011
1.0
1021
0.0
1031
0.0
1011
0.0
1021
1.0
1031
0.0
1011
0.0
1021
0.0
1031
1.0
1040
0.0
1010
0.0
1020
0.0
1030
1.0
1000
ANSI31
1070
     0
1070
     1
1071
        1
1071
        1
1071
        4
1070
     1
1040
477.5700193479608
1040
-487.0165222000871
1040
503.5700193479611
1040
-487.0165222000871
1070
     1
1040
503.5700193479611
1040
-487.0165222000871
1040
503.5700193479611
1040
-486.4165222000869
1070
     1
1040
503.5700193479611
1040
-486.4165222000869
1040
477.5700193479608
1040
-486.4165222000869
1070
     1
1040
477.5700193479608
1040
-486.4165222000869
1040
477.5700193479608
1040
-487.0165222000871
1071
        1
1005
2FF
1070
     0
1070
     1
1040
0.0
1040
0.5
1070
     0
1070
     1
1040
0.7853981633974483
1040
-13.09279631305776
1040
0.0
1040
-1.122532015133643
1040
1.122532015133643
1070
     0
1071
        1
1040
-13.09279631305776
1040
0.0
1040
0.0
1002
}
  0
SEQEND
  5
487
  8
回07-寸法
  6
CONTINUOUS
 62
     7
  0
TEXT
  5
133
  8
回08-記事
  6
CONTINUOUS
 62
     7
 10
488.5505900305203
 20
-267.2871034838177
 30
0.0
 40
3.0
  1
(INSULATION AREA)
  0
TEXT
  5
134
  8
回08-記事
  6
CONTINUOUS
 62
     7
 10
724.4017666071792
 20
-267.2871034838177
 30
0.0
 40
3.0
  1
(INSULATION AREA)
  0
TEXT
  5
135
  8
回08-記事
  6
CONTINUOUS
 62
     7
 10
786.5820891130921
 20
-287.6646308790514
 30
0.0
 40
3.0
  1
(INSULATION AREA)
 50
90.0
  0
DIMENSION
  5
136
  8
回07-寸法
  6
CONTINUOUS
 62
     7
  2
*D363636
 10
719.4439846285072
 20
-262.0138381741629
 30
0.0
 11
734.142803526145
 21
-259.8638381741629
 31
0.0
 70
     0
  1
(<>)
  3
DMC
 13
713.7439846285069
 23
-298.8019140597044
 33
0.0
 14
719.4439846285072
 24
-294.3019140597044
 34
0.0
1001
ACAD
1000
DSTYLE
1002
{
1070
   170
1070
     1
1070
   271
1070
     3
1070
   272
1070
     3
1070
   371
1070
     9
1070
   372
1070
     9
1002
}
  0
DIMENSION
  5
145
  8
回07-寸法
  6
CONTINUOUS
 62
     7
  2
*D353535
 10
525.443984628507
 20
-262.0138381741629
 30
0.0
 11
511.0387431327658
 21
-259.8638381741629
 31
0.0
 70
     0
  3
DMC
 13
534.393984628507
 23
-298.8019140597044
 33
0.0
 14
525.443984628507
 24
-294.3019140597044
 34
0.0
1001
ACAD
1000
DSTYLE
1002
{
1070
   170
1070
     1
1070
   271
1070
     3
1070
   272
1070
     3
1070
   371
1070
     9
1070
   372
1070
     9
1002
}
  0
TEXT
  5
154
  8
回08-記事
  6
CONTINUOUS
 62
     7
 10
785.5858368756288
 20
-478.8236253825131
 30
0.0
 40
3.0
  1
(INSULATION AREA)
 50
90.0
  0
DIMENSION
  5
155
  8
回07-寸法
  6
CONTINUOUS
 62
     7
  2
*D343434
 10
780.7003172132837
 20
-294.3019140597044
 30
0.0
 11
778.5503172132837
 21
-279.9030951620665
 31
0.0
 70
     0
  1
(<>)
  3
DMC
 13
713.7439846285069
 23
-298.8019140597044
 33
0.0
 14
719.4439846285072
 24
-294.3019140597044
 34
0.0
 50
90.0
1001
ACAD
1000
DSTYLE
1002
{
1070
   170
1070
     1
1070
   271
1070
     3
1070
   272
1070
     3
1070
   371
1070
     9
1070
   372
1070
     9
1002
}
  0
DIMENSION
  5
164
  8
回07-寸法
  6
CONTINUOUS
 62
     7
  2
*D333333
 10
780.7003172132837
 20
-440.3019140597042
 30
0.0
 11
778.5503172132837
 21
-452.0019140597042
 31
0.0
 70
     0
  3
DMC
 13
713.7439846285069
 23
-436.3019140597041
 33
0.0
 14
719.4439846285072
 24
-440.3019140597042
 34
0.0
 50
90.0
1001
ACAD
1000
DSTYLE
1002
{
1070
   170
1070
     1
1070
   271
1070
     3
1070
   272
1070
     3
1070
   371
1070
     9
1070
   372
1070
     9
1002
}
  0
DIMENSION
  5
173
  8
回07-寸法
  6
CONTINUOUS
 62
     7
  2
*D323232
 10
780.7003172132837
 20
-436.3019140597041
 30
0.0
 11
778.5503172132837
 21
-367.5519140597043
 31
0.0
 70
     0
  3
DMC
 13
713.7439846285069
 23
-298.8019140597044
 33
0.0
 14
713.7439846285069
 24
-436.3019140597041
 34
0.0
 50
90.0
1001
ACAD
1000
DSTYLE
1002
{
1070
   170
1070
     1
1070
   271
1070
     3
1070
   272
1070
     3
1070
   371
1070
     9
1070
   372
1070
     9
1002
}
  0
DIMENSION
  5
180
  8
回07-寸法
  6
CONTINUOUS
 62
     7
  2
*D313131
 10
713.7439846285069
 20
-262.0138381741629
 30
0.0
 11
624.068984628507
 21
-259.8638381741629
 31
0.0
 70
     0
  3
DMC
 13
534.393984628507
 23
-298.8019140597044
 33
0.0
 14
713.7439846285069
 24
-298.8019140597044
 34
0.0
1001
ACAD
1000
DSTYLE
1002
{
1070
   170
1070
     1
1070
   271
1070
     3
1070
   272
1070
     3
1070
   371
1070
     9
1070
   372
1070
     9
1002
}
  0
POLYLINE
  5
18D
  8
回08-記事
  6
PHANTOM2
 62
     7
 66
     1
 10
0.0
 20
0.0
 30
0.0
 70
     1
  0
VERTEX
  5
926
  8
回08-記事
  6
PHANTOM2
 62
     7
 10
714.7439846285069
 20
-297.8019140597043
 30
0.0
  0
VERTEX
  5
928
  8
回08-記事
  6
PHANTOM2
 62
     7
 10
533.393984628507
 20
-297.8019140597043
 30
0.0
  0
VERTEX
  5
929
  8
回08-記事
  6
PHANTOM2
 62
     7
 10
533.393984628507
 20
-437.3019140597043
 30
0.0
  0
VERTEX
  5
92A
  8
回08-記事
  6
PHANTOM2
 62
     7
 10
714.7439846285069
 20
-437.3019140597043
 30
0.0
  0
SEQEND
  5
927
  8
回07-寸法
  6
CONTINUOUS
 62
     7
  0
POLYLINE
  5
18F
  8
回08-記事
  6
DASHED2
 62
     7
 66
     1
 10
0.0
 20
0.0
 30
0.0
 70
     1
  0
VERTEX
  5
92B
  8
回08-記事
  6
DASHED2
 62
     7
 10
713.7439846285069
 20
-298.8019140597044
 30
0.0
  0
VERTEX
  5
92D
  8
回08-記事
  6
DASHED2
 62
     7
 10
534.393984628507
 20
-298.8019140597044
 30
0.0
  0
VERTEX
  5
92E
  8
回08-記事
  6
DASHED2
 62
     7
 10
534.393984628507
 20
-436.3019140597041
 30
0.0
  0
VERTEX
  5
92F
  8
回08-記事
  6
DASHED2
 62
     7
 10
713.7439846285069
 20
-436.3019140597041
 30
0.0
  0
SEQEND
  5
92C
  8
回07-寸法
  6
CONTINUOUS
 62
     7
  0
TEXT
  5
191
  8
回08-記事
  6
CONTINUOUS
 62
     5
 10
408.9949938249981
 20
-475.2307789506238
 30
0.0
 40
3.0
  1
TRACE EXPOSE
1001
ACAD
1000
MTEXTBEGIN
1070
    73
1070
     1
1070
    44
1040
1.0
1070
    74
1070
     0
1000
MTEXTEND
  0
INSERT
  5
192
  8
回08-記事
  6
CONTINUOUS
 62
     7
 66
     1
  2
*X454545
 10
0.0
 20
0.0
 30
0.0
  0
SEQEND
  5
498
  8
回07-寸法
  6
CONTINUOUS
 62
     7
  0
POLYLINE
  5
196
  8
回08-記事
 62
     7
 66
     1
 10
0.0
 20
0.0
 30
0.0
 70
     1
  0
VERTEX
  5
930
  8
回08-記事
 62
     7
 10
538.1939846285071
 20
-302.3019140597043
 30
0.0
  0
VERTEX
  5
932
  8
回08-記事
 62
     7
 10
709.6939846285067
 20
-302.3019140597043
 30
0.0
  0
VERTEX
  5
933
  8
回08-記事
 62
     7
 10
709.6939846285067
 20
-432.3019140597042
 30
0.0
  0
VERTEX
  5
934
  8
回08-記事
 62
     7
 10
538.1939846285071
 20
-432.3019140597042
 30
0.0
  0
SEQEND
  5
931
  8
回07-寸法
  6
CONTINUOUS
 62
     7
  0
TEXT
  5
197
  8
回91-枠英2
 10
843.3735948771841
 20
-524.9729061792054
 30
0.0
 40
6.0
  1
Sep/25/2023
 72
     1
 11
866.7735948771841
 21
-524.9729061792054
 31
0.0
  0
TEXT
  5
19B
  8
回91-枠英2
  6
CONTINUOUS
 62
     7
 10
861.7243249824166
 20
-514.0334692635827
 30
0.0
 40
3.0
  1
DATE
  0
TEXT
  5
19C
  8
回91-枠英2
 10
871.6300416522711
 20
-192.8950346020666
 30
0.0
 40
3.6
  1
H
  0
LINE
  5
19D
  8
回91-枠英2
 10
841.2735948771841
 20
-188.7302154155127
 30
0.0
 11
841.2735948771841
 21
-193.2302154155127
 31
0.0
  0
LINE
  5
19E
  8
回91-枠英2
 10
908.773594877184
 20
-262.5302154155127
 30
0.0
 11
904.273594877184
 21
-262.5302154155127
 31
0.0
  0
TEXT
  5
19F
  8
回91-枠英2
 10
905.2662249475057
 20
-299.1703968492393
 30
0.0
 40
3.6
  1
2
  0
LINE
  5
1A0
  8
回91-枠英2
 10
908.773594877184
 20
-331.8302154155127
 30
0.0
 11
904.273594877184
 21
-331.8302154155127
 31
0.0
  0
TEXT
  5
1A1
  8
回91-枠英2
 10
905.5375737804773
 20
-229.8703968492394
 30
0.0
 40
3.6
  1
1
  0
TEXT
  5
1A2
  8
回91-枠英2
 10
905.2612921877251
 20
-368.4703968492394
 30
0.0
 40
3.6
  1
3
  0
LINE
  5
1A3
  8
回91-枠英2
 10
908.773594877184
 20
-401.1302154155126
 30
0.0
 11
904.273594877184
 21
-401.1302154155126
 31
0.0
  0
TEXT
  5
1A4
  8
回91-枠英2
 10
905.1955092796518
 20
-437.7703968492394
 30
0.0
 40
3.6
  1
4
  0
LINE
  5
1A5
  8
回91-枠英2
 10
908.773594877184
 20
-470.4302154155127
 30
0.0
 11
904.273594877184
 21
-470.4302154155127
 31
0.0
  0
TEXT
  5
1A6
  8
回91-枠英2
 10
905.1955092796518
 20
-507.0703968492393
 30
0.0
 40
3.6
  1
5
  0
TEXT
  5
1A7
  8
回91-枠英2
 10
871.6300416522711
 20
-543.8950346020666
 30
0.0
 40
3.6
  1
H
  0
LINE
  5
1A8
  8
回91-枠英2
 10
841.2735948771841
 20
-539.7302154155124
 30
0.0
 11
841.2735948771841
 21
-544.2302154155127
 31
0.0
  0
TEXT
  5
1A9
  8
回91-枠英2
 10
846.8985948771841
 20
-537.1925075783206
 30
0.0
 40
5.0
  1
DMC Co., Ltd.
 72
     1
 11
866.7735948771841
 21
-537.1925075783206
 31
0.0
  0
LINE
  5
1AA
  8
回91-枠英2
 10
908.773594877184
 20
-544.2302154155127
 30
0.0
 11
908.773594877184
 21
-188.7302154155127
 31
0.0
  0
LINE
  5
1AB
  8
回91-枠英2
 10
904.273594877184
 20
-193.2302154155127
 30
0.0
 11
904.273594877184
 21
-539.7302154155124
 31
0.0
  0
TEXT
  5
1AC
  8
回91-枠英2
 10
808.6300416522712
 20
-192.8950346020666
 30
0.0
 40
3.6
  1
G
  0
LINE
  5
1AD
  8
回91-枠英2
 10
778.2735948771841
 20
-188.7302154155127
 30
0.0
 11
778.2735948771841
 21
-193.2302154155127
 31
0.0
  0
TEXT
  5
1AE
  8
回91-枠英2
 10
745.6300416522712
 20
-192.8950346020666
 30
0.0
 40
3.6
  1
F
  0
LINE
  5
1AF
  8
回91-枠英2
 10
715.2735948771841
 20
-188.7302154155127
 30
0.0
 11
715.2735948771841
 21
-193.2302154155127
 31
0.0
  0
TEXT
  5
1B0
  8
回91-枠英2
 10
682.6300416522713
 20
-192.8950346020666
 30
0.0
 40
3.6
  1
E
  0
LINE
  5
1B1
  8
回91-枠英2
 10
652.2735948771841
 20
-188.7302154155127
 30
0.0
 11
652.2735948771841
 21
-193.2302154155127
 31
0.0
  0
TEXT
  5
1B2
  8
回91-枠英2
 10
619.6300416522713
 20
-192.8950346020666
 30
0.0
 40
3.6
  1
D
  0
LINE
  5
1B3
  8
回91-枠英2
 10
589.2735948771841
 20
-188.7302154155127
 30
0.0
 11
589.2735948771841
 21
-193.2302154155127
 31
0.0
  0
TEXT
  5
1B4
  8
回91-枠英2
 10
556.6300416522712
 20
-192.8950346020666
 30
0.0
 40
3.6
  1
C
  0
LINE
  5
1B5
  8
回91-枠英2
 10
526.2735948771839
 20
-188.7302154155127
 30
0.0
 11
526.2735948771839
 21
-193.2302154155127
 31
0.0
  0
TEXT
  5
1B6
  8
回91-枠英2
 10
493.6300416522711
 20
-192.8950346020666
 30
0.0
 40
3.6
  1
B
  0
LINE
  5
1B7
  8
回91-枠英2
 10
463.273594877184
 20
-188.7302154155127
 30
0.0
 11
463.273594877184
 21
-193.2302154155127
 31
0.0
  0
TEXT
  5
1B8
  8
回91-枠英2
 10
430.6300416522711
 20
-192.8950346020666
 30
0.0
 40
3.6
  1
A
  0
LINE
  5
1B9
  8
回91-枠英2
 10
400.2735948771841
 20
-262.5302154155127
 30
0.0
 11
395.7735948771841
 21
-262.5302154155127
 31
0.0
  0
TEXT
  5
1BA
  8
回91-枠英2
 10
396.7662249475058
 20
-299.1703968492393
 30
0.0
 40
3.6
  1
2
  0
LINE
  5
1BB
  8
回91-枠英2
 10
400.2735948771841
 20
-331.8302154155127
 30
0.0
 11
395.7735948771841
 21
-331.8302154155127
 31
0.0
  0
TEXT
  5
1BC
  8
回91-枠英2
 10
397.0375737804774
 20
-229.8703968492394
 30
0.0
 40
3.6
  1
1
  0
TEXT
  5
1BD
  8
回91-枠英2
 10
773.5235948771839
 20
-522.2383332202809
 30
0.0
 40
5.0
  1
AST-084A080A
 72
     1
 11
796.7735948771839
 21
-522.2383332202809
 31
0.0
  0
TEXT
  5
1BE
  8
回91-枠英2
 10
787.3235948771838
 20
-513.7829624961494
 30
0.0
 40
3.0
  1
PART　No.
 72
     1
 11
796.7735948771839
 21
-513.7829624961494
 31
0.0
  0
TEXT
  5
1BF
  8
回91-枠英2
 10
808.6300416522712
 20
-543.8950346020666
 30
0.0
 40
3.6
  1
G
  0
LINE
  5
1C0
  8
回91-枠英2
 10
767.273594877184
 20
-534.7302154155125
 30
0.0
 11
826.273594877184
 21
-534.7302154155125
 31
0.0
  0
TEXT
  5
1C1
  8
回91-枠英2
 10
773.3735948771839
 20
-533.5801846841266
 30
0.0
 40
3.0
  1
STANDARD TOUCHSCREEN
 72
     1
 11
796.7735948771839
 21
-533.5801846841266
 31
0.0
  0
TEXT
  5
1C2
  8
回91-枠英2
 10
780.1235948771839
 20
-538.5801846841266
 30
0.0
 40
3.0
  1
CIRCUIT　DRAWING
 72
     1
 11
796.7735948771839
 21
-538.5801846841266
 31
0.0
  0
LINE
  5
1C3
  8
回91-枠英2
 10
829.2735948771841
 20
-509.7302154155126
 30
0.0
 11
829.2735948771841
 21
-539.7302154155124
 31
0.0
  0
TEXT
  5
1C4
  8
回91-枠英2
 10
791.9735948771839
 20
-528.9865957259373
 30
0.0
 40
3.0
  1
TYPE
 72
     1
 11
796.7735948771839
 21
-528.9865957259373
 31
0.0
  0
LINE
  5
1C5
  8
回91-枠英2
 10
778.2735948771841
 20
-539.7302154155124
 30
0.0
 11
778.2735948771841
 21
-544.2302154155127
 31
0.0
  0
TEXT
  5
1C6
  8
回91-枠英2
 10
745.6300416522712
 20
-543.8950346020666
 30
0.0
 40
3.6
  1
F
  0
LINE
  5
1C7
  8
回91-枠英2
 10
764.2735948771841
 20
-509.7302154155126
 30
0.0
 11
764.2735948771841
 21
-539.7302154155124
 31
0.0
  0
LINE
  5
1C8
  8
回91-枠英2
 10
715.2735948771841
 20
-539.7302154155124
 30
0.0
 11
715.2735948771841
 21
-544.2302154155127
 31
0.0
  0
TEXT
  5
1C9
  8
回91-枠英2
 10
682.6300416522713
 20
-543.8950346020666
 30
0.0
 40
3.6
  1
E
  0
LINE
  5
1CA
  8
回91-枠英2
 10
652.2735948771841
 20
-539.7302154155124
 30
0.0
 11
652.2735948771841
 21
-544.2302154155127
 31
0.0
  0
TEXT
  5
1CB
  8
回91-枠英2
 10
619.6300416522713
 20
-543.8950346020666
 30
0.0
 40
3.6
  1
D
  0
LINE
  5
1CC
  8
回91-枠英2
 10
764.2735948771836
 20
-524.7302154155127
 30
0.0
 11
829.2735948771841
 21
-524.7302154155127
 31
0.0
  0
LINE
  5
1CD
  8
回91-枠英2
 10
589.2735948771841
 20
-539.7302154155124
 30
0.0
 11
589.2735948771841
 21
-544.2302154155127
 31
0.0
  0
TEXT
  5
1CE
  8
回91-枠英2
 10
556.6300416522712
 20
-543.8950346020666
 30
0.0
 40
3.6
  1
C
  0
LINE
  5
1CF
  8
回91-枠英2
 10
526.2735948771839
 20
-539.7302154155124
 30
0.0
 11
526.2735948771839
 21
-544.2302154155127
 31
0.0
  0
TEXT
  5
1D0
  8
回91-枠英2
 10
493.6300416522711
 20
-543.8950346020666
 30
0.0
 40
3.6
  1
B
  0
TEXT
  5
1D1
  8
回91-枠英2
 10
396.7612921877253
 20
-368.4703968492394
 30
0.0
 40
3.6
  1
3
  0
LINE
  5
1D2
  8
回91-枠英2
 10
400.2735948771841
 20
-401.1302154155126
 30
0.0
 11
395.7735948771841
 21
-401.1302154155126
 31
0.0
  0
TEXT
  5
1D3
  8
回91-枠英2
 10
396.6955092796522
 20
-437.7703968492394
 30
0.0
 40
3.6
  1
4
  0
LINE
  5
1D4
  8
回91-枠英2
 10
463.273594877184
 20
-539.7302154155124
 30
0.0
 11
463.273594877184
 21
-544.2302154155127
 31
0.0
  0
TEXT
  5
1D5
  8
回91-枠英2
 10
430.6300416522711
 20
-543.8950346020666
 30
0.0
 40
3.6
  1
A
  0
LINE
  5
1D6
  8
回91-枠英2
 10
400.2735948771841
 20
-470.4302154155127
 30
0.0
 11
395.7735948771841
 21
-470.4302154155127
 31
0.0
  0
TEXT
  5
1D7
  8
回91-枠英2
 10
396.6955092796522
 20
-507.0703968492393
 30
0.0
 40
3.6
  1
5
  0
LINE
  5
1D8
  8
回91-枠英2
 10
395.7735948771841
 20
-544.2302154155127
 30
0.0
 11
395.7735948771841
 21
-188.7302154155127
 31
0.0
  0
LINE
  5
1D9
  8
回91-枠英2
 10
400.2735948771841
 20
-193.2302154155127
 30
0.0
 11
400.2735948771841
 21
-539.7302154155124
 31
0.0
  0
LINE
  5
1DA
  8
回91-枠英2
 10
400.2735948771841
 20
-539.7302154155124
 30
0.0
 11
904.273594877184
 21
-539.7302154155124
 31
0.0
  0
LINE
  5
1DB
  8
回91-枠英2
 10
908.773594877184
 20
-544.2302154155127
 30
0.0
 11
395.7735948771841
 21
-544.2302154155127
 31
0.0
  0
LINE
  5
1DC
  8
回91-枠英2
 10
908.773594877184
 20
-188.7302154155127
 30
0.0
 11
395.7735948771841
 21
-188.7302154155127
 31
0.0
  0
LINE
  5
1DD
  8
回91-枠英2
 10
400.2735948771841
 20
-193.2302154155127
 30
0.0
 11
904.273594877184
 21
-193.2302154155127
 31
0.0
  0
LINE
  5
1DE
  8
回91-枠英2
 10
764.2735948771841
 20
-529.7302154155127
 30
0.0
 11
904.273594877184
 21
-529.7302154155127
 31
0.0
  0
LINE
  5
1DF
  8
回91-枠英2
 10
764.2735948771841
 20
-509.7302154155126
 30
0.0
 11
904.273594877184
 21
-509.7302154155126
 31
0.0
  0
LINE
  5
1E0
  8
回91-枠英2
 10
764.2735948771841
 20
-514.7302154155124
 30
0.0
 11
904.273594877184
 21
-514.7302154155124
 31
0.0
  0
LINE
  5
1E1
  8
回08-記事
  6
CONTINUOUS
 62
     5
 10
822.40508093253
 20
-254.5470517567376
 30
0.0
 11
893.385080932531
 21
-254.5470517567376
 31
0.0
  0
LINE
  5
1E2
  8
回08-記事
  6
CONTINUOUS
 62
     5
 10
893.385080932531
 20
-326.2095517567376
 30
0.0
 11
893.385080932531
 21
-254.5470517567376
 31
0.0
  0
TEXT
  5
1E3
  8
回08-記事
  6
CONTINUOUS
 62
     5
 10
816.544085370552
 20
-257.4920187862681
 30
0.0
 40
5.459999999999999
  1
4
  0
TEXT
  5
1E4
  8
回08-記事
  6
CONTINUOUS
 62
     5
 10
868.0508718385448
 20
-314.4086061993592
 30
0.0
 40
4.777499999999998
  1
XR
  0
LINE
  5
1E5
  8
回08-記事
  6
CONTINUOUS
 62
     5
 10
872.2275809325306
 20
-307.4408017567375
 30
0.0
 11
872.2275809325306
 21
-273.3158017567375
 31
0.0
  0
LINE
  5
1E6
  8
回08-記事
  6
CONTINUOUS
 62
     5
 10
867.7913309325301
 20
-307.4408017567375
 30
0.0
 11
872.2275809325306
 21
-307.4408017567375
 31
0.0
  0
LINE
  5
1E7
  8
回08-記事
  6
CONTINUOUS
 62
     5
 10
858.8505809325301
 20
-305.6663017567373
 30
0.0
 11
861.3075809325302
 21
-310.5803017567376
 31
0.0
  0
LINE
  5
1E8
  8
回08-記事
  6
CONTINUOUS
 62
     5
 10
856.3935809325306
 20
-310.5803017567376
 30
0.0
 11
858.8505809325301
 21
-305.6663017567373
 31
0.0
  0
LINE
  5
1E9
  8
回08-記事
  6
CONTINUOUS
 62
     5
 10
861.3075809325302
 20
-310.5803017567376
 30
0.0
 11
863.7645809325304
 21
-305.6663017567373
 31
0.0
  0
LINE
  5
1EA
  8
回08-記事
  6
CONTINUOUS
 62
     5
 10
863.7645809325304
 20
-305.6663017567373
 30
0.0
 11
866.2215809325306
 21
-310.5803017567376
 31
0.0
  0
LINE
  5
1EB
  8
回08-記事
  6
CONTINUOUS
 62
     5
 10
866.2215809325306
 20
-310.5803017567376
 30
0.0
 11
867.7913309325301
 21
-307.4408017567375
 31
0.0
  0
LINE
  5
1EC
  8
回08-記事
  6
CONTINUOUS
 62
     5
 10
846.5655809325305
 20
-310.5803017567376
 30
0.0
 11
849.0225809325304
 21
-305.6663017567373
 31
0.0
  0
LINE
  5
1ED
  8
回08-記事
  6
CONTINUOUS
 62
     5
 10
841.6515809325304
 20
-310.5803017567376
 30
0.0
 11
844.1085809325302
 21
-305.6663017567373
 31
0.0
  0
LINE
  5
1EE
  8
回08-記事
  6
CONTINUOUS
 62
     5
 10
844.1085809325302
 20
-305.6663017567373
 30
0.0
 11
846.5655809325305
 21
-310.5803017567376
 31
0.0
  0
LINE
  5
1EF
  8
回08-記事
  6
CONTINUOUS
 62
     5
 10
848.6130809325302
 20
-305.4615517567376
 30
0.0
 11
853.5270809325307
 21
-307.9185517567375
 31
0.0
  0
LINE
  5
1F0
  8
回08-記事
  6
CONTINUOUS
 62
     5
 10
848.6130809325302
 20
-299.8650517567373
 30
0.0
 11
853.5270809325307
 21
-302.3220517567375
 31
0.0
  0
LINE
  5
1F1
  8
回08-記事
  6
CONTINUOUS
 62
     5
 10
848.6130809325302
 20
-299.8650517567373
 30
0.0
 11
853.5270809325307
 21
-297.4080517567375
 31
0.0
  0
LINE
  5
1F2
  8
回08-記事
  6
CONTINUOUS
 62
     5
 10
848.6130809325302
 20
-305.4615517567376
 30
0.0
 11
853.5270809325307
 21
-303.0045517567375
 31
0.0
  0
LINE
  5
1F3
  8
回08-記事
  6
CONTINUOUS
 62
     5
 10
848.6130809325302
 20
-315.2895517567379
 30
0.0
 11
853.5270809325307
 21
-312.8325517567371
 31
0.0
  0
LINE
  5
1F4
  8
回08-記事
  6
CONTINUOUS
 62
     5
 10
848.6130809325302
 20
-310.3755517567376
 30
0.0
 11
853.5270809325307
 21
-312.8325517567371
 31
0.0
  0
LINE
  5
1F5
  8
回08-記事
  6
CONTINUOUS
 62
     5
 10
848.6130809325302
 20
-310.3755517567376
 30
0.0
 11
853.5270809325307
 21
-307.9185517567375
 31
0.0
  0
LINE
  5
1F6
  8
回08-記事
  6
CONTINUOUS
 62
     5
 10
851.0700809325305
 20
-296.1795517567375
 30
0.0
 11
853.5270809325307
 21
-297.4080517567375
 31
0.0
  0
LINE
  5
1F7
  8
回08-記事
  6
CONTINUOUS
 62
     5
 10
849.0225809325304
 20
-305.6663017567373
 30
0.0
 11
851.4795809325308
 21
-310.5803017567376
 31
0.0
  0
LINE
  5
1F8
  8
回08-記事
  6
CONTINUOUS
 62
     5
 10
851.4795809325308
 20
-310.5803017567376
 30
0.0
 11
853.9365809325305
 21
-305.6663017567373
 31
0.0
  0
LINE
  5
1F9
  8
回08-記事
  6
CONTINUOUS
 62
     5
 10
851.0700809325305
 20
-296.1795517567375
 30
0.0
 11
851.0700809325305
 21
-292.0845517567375
 31
0.0
  0
TEXT
  5
1FA
  8
回08-記事
  6
CONTINUOUS
 62
     5
 10
828.1687644043554
 20
-306.804537342773
 30
0.0
 40
4.777499999999998
  1
XL
  0
LINE
  5
1FB
  8
回08-記事
  6
CONTINUOUS
 62
     5
 10
837.6248309325308
 20
-308.8058017567373
 30
0.0
 11
839.1945809325303
 21
-305.6663017567373
 31
0.0
  0
LINE
  5
1FC
  8
回08-記事
  6
CONTINUOUS
 62
     5
 10
839.1945809325303
 20
-305.6663017567373
 30
0.0
 11
841.6515809325304
 21
-310.5803017567376
 31
0.0
  0
LINE
  5
1FD
  8
回08-記事
  6
CONTINUOUS
 62
     5
 10
848.6130809325302
 20
-320.2035517567376
 30
0.0
 11
853.5270809325307
 21
-317.7465517567374
 31
0.0
  0
LINE
  5
1FE
  8
回08-記事
  6
CONTINUOUS
 62
     5
 10
848.6130809325302
 20
-320.2035517567376
 30
0.0
 11
851.0700809325305
 21
-321.4320517567376
 31
0.0
  0
LINE
  5
1FF
  8
回08-記事
  6
CONTINUOUS
 62
     5
 10
851.0700809325305
 20
-326.2095517567376
 30
0.0
 11
851.0700809325305
 21
-321.4320517567376
 31
0.0
  0
TEXT
  5
200
  8
回08-記事
  6
CONTINUOUS
 62
     5
 10
838.5198437878582
 20
-324.2634836304111
 30
0.0
 40
4.777499999999998
  1
YD
  0
LINE
  5
201
  8
回08-記事
  6
CONTINUOUS
 62
     5
 10
848.6130809325302
 20
-315.2895517567379
 30
0.0
 11
853.5270809325307
 21
-317.7465517567374
 31
0.0
  0
TEXT
  5
202
  8
回08-記事
  6
CONTINUOUS
 62
     5
 10
817.0678218299917
 20
-311.9535081633411
 30
0.0
 40
5.459999999999999
  1
1
  0
TEXT
  5
203
  8
回08-記事
  6
CONTINUOUS
 62
     5
 10
816.6491419471096
 20
-294.6029096017888
 30
0.0
 40
5.459999999999999
  1
2
  0
TEXT
  5
204
  8
回08-記事
  6
CONTINUOUS
 62
     5
 10
816.8560838668499
 20
-276.4369947346453
 30
0.0
 40
5.459999999999999
  1
3
  0
LINE
  5
205
  8
回08-記事
  6
CONTINUOUS
 62
     5
 10
822.40508093253
 20
-292.0845517567375
 30
0.0
 11
851.0700809325305
 21
-292.0845517567375
 31
0.0
  0
LINE
  5
206
  8
回08-記事
  6
CONTINUOUS
 62
     5
 10
822.40508093253
 20
-308.8058017567373
 30
0.0
 11
837.6248309325308
 21
-308.8058017567373
 31
0.0
  0
LINE
  5
207
  8
回08-記事
  6
CONTINUOUS
 62
     5
 10
893.385080932531
 20
-326.2095517567376
 30
0.0
 11
851.0700809325305
 21
-326.2095517567376
 31
0.0
  0
TEXT
  5
208
  8
回08-記事
  6
CONTINUOUS
 62
     5
 10
852.4108083433928
 20
-291.1846545535679
 30
0.0
 40
4.777499999999998
  1
YU
  0
LINE
  5
209
  8
回08-記事
  6
CONTINUOUS
 62
     5
 10
853.9365809325305
 20
-305.6663017567373
 30
0.0
 11
856.3935809325306
 21
-310.5803017567376
 31
0.0
  0
LINE
  5
20A
  8
回08-記事
  6
CONTINUOUS
 62
     5
 10
822.40508093253
 20
-273.3158017567375
 30
0.0
 11
872.2275809325306
 21
-273.3158017567375
 31
0.0
  0
TEXT
  5
20B
  8
回08-記事
  6
CONTINUOUS
 62
     5
 10
857.3900202265534
 20
-366.1616841148661
 30
0.0
 40
5.0
  1
SECTION A
  0
LINE
  5
20C
  8
回08-記事
  6
CONTINUOUS
 62
     8
 10
877.4739466450046
 20
-378.4292281721639
 30
0.0
 11
877.4739466450046
 21
-390.9292281721631
 31
0.0
  0
LINE
  5
20D
  8
回08-記事
  6
CONTINUOUS
 62
    20
 10
864.5743305336591
 20
-388.4292281721684
 30
0.0
 11
881.0857724730402
 21
-388.4292281721684
 31
0.0
  0
LINE
  5
20E
  8
回08-記事
  6
CONTINUOUS
 62
    20
 10
864.5744175551946
 20
-385.9292281721683
 30
0.0
 11
881.0857724730402
 21
-385.9292281721683
 31
0.0
  0
LINE
  5
20F
  8
回08-記事
  6
CONTINUOUS
 62
    20
 10
864.5743305336591
 20
-380.9292281721683
 30
0.0
 11
881.0857724730402
 21
-380.9292281721683
 31
0.0
  0
DIMENSION
  5
210
  8
回08-記事
  6
CONTINUOUS
 62
     5
  2
*D303030
 10
846.0946958001139
 20
-380.9292281721685
 30
0.0
 11
846.0946958001136
 21
-407.8792586721686
 31
0.0
 70
   128
  1
3.75{\H0.66667x;±0.1}[0.148{\H0.66667x;±0.004}]
  3
DMC
 13
864.5744175551946
 23
-388.4292281721684
 33
0.0
 14
864.5743305336591
 24
-380.9292281721683
 34
0.0
 50
90.0
1001
ACAD
1000
DSTYLE
1002
{
1070
   170
1070
     1
1070
   271
1070
     3
1070
   272
1070
     3
1070
   371
1070
     9
1070
   372
1070
     9
1002
}
  0
DIMENSION
  5
221
  8
回08-記事
  6
CONTINUOUS
 62
     5
  2
*D292929
 10
859.2740714191528
 20
-389.1292281721685
 30
0.0
 11
857.1240714191525
 21
-411.4541976721686
 31
0.0
 70
     0
  1
4-0.7{\H0.83333x;±0.1}[0.028{\H0.83333x;±0.004}]
  3
DMC
 13
867.4738596234693
 23
-387.7292281721683
 33
0.0
 14
867.4738596234693
 24
-389.1292281721683
 34
0.0
 50
90.0
1001
ACAD
1000
DSTYLE
1002
{
1070
   170
1070
     1
1070
   271
1070
     3
1070
   272
1070
     3
1070
   371
1070
     9
1070
   372
1070
     9
1002
}
  0
DIMENSION
  5
232
  8
回08-記事
  6
CONTINUOUS
 62
     5
  2
*D282828
 10
852.5094338263002
 20
-388.4292281721687
 30
0.0
 11
850.3594338262999
 21
-409.5344386679101
 31
0.0
 70
     0
  1
1.25{\H0.83333x;±0.2}[0.049{\H0.83333x;±0.008}]
  3
DMC
 13
864.5744175551946
 23
-385.9292281721683
 33
0.0
 14
864.5744175551946
 24
-388.4292281721684
 34
0.0
 50
90.0
1001
ACAD
1000
DSTYLE
1002
{
1070
   170
1070
     1
1070
   271
1070
     3
1070
   272
1070
     3
1070
   371
1070
     9
1070
   372
1070
     9
1002
}
  0
POLYLINE
  5
243
  8
回08-記事
  6
CONTINUOUS
 62
     8
 66
     1
 10
0.0
 20
0.0
 30
0.0
 40
1.399999999999999
 41
1.399999999999999
  0
VERTEX
  5
935
  8
回08-記事
  6
CONTINUOUS
 62
     8
 10
867.4738596234693
 20
-383.4292281721683
 30
0.0
  0
VERTEX
  5
937
  8
回08-記事
  6
CONTINUOUS
 62
     8
 10
877.4739466450046
 20
-383.4292281721683
 30
0.0
  0
SEQEND
  5
936
  8
回07-寸法
  6
CONTINUOUS
 62
     7
  0
POLYLINE
  5
244
  8
回08-記事
  6
CONTINUOUS
 62
     8
 66
     1
 10
0.0
 20
0.0
 30
0.0
 40
1.399999999999999
 41
1.399999999999999
  0
VERTEX
  5
938
  8
回08-記事
  6
CONTINUOUS
 62
     8
 10
867.4738596234693
 20
-380.9292281721683
 30
0.0
  0
VERTEX
  5
93A
  8
回08-記事
  6
CONTINUOUS
 62
     8
 10
877.4739466450046
 20
-380.9292281721683
 30
0.0
  0
SEQEND
  5
939
  8
回07-寸法
  6
CONTINUOUS
 62
     7
  0
POLYLINE
  5
245
  8
回08-記事
  6
CONTINUOUS
 62
     8
 66
     1
 10
0.0
 20
0.0
 30
0.0
 40
1.399999999999999
 41
1.399999999999999
  0
VERTEX
  5
93B
  8
回08-記事
  6
CONTINUOUS
 62
     8
 10
867.4738596234693
 20
-388.4292281721684
 30
0.0
  0
VERTEX
  5
93D
  8
回08-記事
  6
CONTINUOUS
 62
     8
 10
877.4739466450046
 20
-388.4292281721684
 30
0.0
  0
SEQEND
  5
93C
  8
回07-寸法
  6
CONTINUOUS
 62
     7
  0
POLYLINE
  5
246
  8
回08-記事
  6
CONTINUOUS
 62
     8
 66
     1
 10
0.0
 20
0.0
 30
0.0
 40
1.399999999999999
 41
1.399999999999999
  0
VERTEX
  5
93E
  8
回08-記事
  6
CONTINUOUS
 62
     8
 10
867.4738596234693
 20
-385.9292281721683
 30
0.0
  0
VERTEX
  5
940
  8
回08-記事
  6
CONTINUOUS
 62
     8
 10
877.4739466450046
 20
-385.9292281721683
 30
0.0
  0
SEQEND
  5
93F
  8
回07-寸法
  6
CONTINUOUS
 62
     7
  0
LINE
  5
247
  8
回08-記事
  6
CONTINUOUS
 62
     8
 10
868.4739466450047
 20
-390.9292281721631
 30
0.0
 11
892.224609550796
 21
-390.9292281721631
 31
0.0
  0
LINE
  5
248
  8
回08-記事
  6
CONTINUOUS
 62
     8
 10
867.4739466450047
 20
-379.4292281721632
 30
0.0
 11
867.4739466450047
 21
-389.9292281721628
 31
0.0
  0
ARC
  5
249
  8
回08-記事
  6
CONTINUOUS
 62
     8
 10
868.4739466450047
 20
-389.9292281721628
 30
0.0
 40
1.0
 50
180.0
 51
270.0
  0
ARC
  5
24A
  8
回08-記事
  6
CONTINUOUS
 62
     8
 10
868.4739466450047
 20
-379.4292281721632
 30
0.0
 40
1.0
 50
90.0
 51
180.0
  0
LINE
  5
24B
  8
回08-記事
  6
CONTINUOUS
 62
     8
 10
868.4739466450047
 20
-378.4292281721637
 30
0.0
 11
892.224609550796
 21
-378.4292281721637
 31
0.0
  0
DIMENSION
  5
24C
  8
回08-記事
  6
CONTINUOUS
 62
     5
  2
*D272727
 10
839.0547465397769
 20
-390.9292281721628
 30
0.0
 11
836.9047465397772
 21
-411.86935195169
 31
0.0
 70
     0
  1
6.25{\H0.6667x;±0.2}[0.246{\H0.6667x;±0.008}]
  3
DMC
 13
868.4739466450047
 23
-378.4292281721637
 33
0.0
 14
868.4739466450047
 24
-390.9292281721628
 34
0.0
 50
90.0
1001
ACAD
1000
DSTYLE
1002
{
1070
   170
1070
     1
1070
   271
1070
     3
1070
   272
1070
     3
1070
   371
1070
     9
1070
   372
1070
     9
1002
}
  0
TEXT
  5
25B
  8
回08-記事
  6
CONTINUOUS
 62
     5
 10
828.3760924659
 20
-246.4084838229017
 30
0.0
 40
5.0
  1
PIN ASSIGNMENT
  0
TEXT
  5
25C
  8
回08-記事
 62
     7
 10
697.221311612057
 20
-439.1624349860911
 30
0.0
 40
1.5
  1
AST-084.A
  0
POLYLINE
  5
25D
  8
回08-記事
  6
CONTINUOUS
 62
     7
 66
     1
 10
0.0
 20
0.0
 30
0.0
 70
     1
  0
VERTEX
  5
941
  8
回08-記事
  6
CONTINUOUS
 62
     7
 10
516.4639846285072
 20
-487.7165222000868
 30
0.0
  0
VERTEX
  5
943
  8
回08-記事
  6
CONTINUOUS
 62
     7
 10
525.443984628507
 20
-487.7165222000868
 30
0.0
  0
VERTEX
  5
944
  8
回08-記事
  6
CONTINUOUS
 62
     7
 10
525.443984628507
 20
-486.4165222000869
 30
0.0
  0
VERTEX
  5
945
  8
回08-記事
  6
CONTINUOUS
 62
     7
 10
516.4639846285072
 20
-486.4165222000869
 30
0.0
  0
SEQEND
  5
942
  8
回07-寸法
  6
CONTINUOUS
 62
     7
  0
INSERT
  5
25E
  8
回07-寸法
 62
     5
 66
     1
  2
*X464646
 10
0.0
 20
0.0
 30
0.0
  0
SEQEND
  5
4B4
  8
回07-寸法
  6
CONTINUOUS
 62
     7
  0
INSERT
  5
25F
  8
回07-寸法
 62
     3
 66
     1
  2
*X474747
 10
0.0
 20
0.0
 30
0.0
  0
SEQEND
  5
4BB
  8
回07-寸法
  6
CONTINUOUS
 62
     7
  0
TEXT
  5
260
  8
回07-寸法
 62
     5
 10
484.1280283600676
 20
-313.0198779370445
 30
0.0
 40
3.0
  1
PROTECTION TAPE
1001
ACAD
1000
MTEXTBEGIN
1070
    73
1070
     1
1070
    44
1040
1.0
1070
    74
1070
     0
1000
MTEXTEND
  0
INSERT
  5
261
  8
回07-寸法
 62
     1
 66
     1
  2
*X484848
 10
0.0
 20
0.0
 30
0.0
  0
SEQEND
  5
4C2
  8
回07-寸法
  6
CONTINUOUS
 62
     7
  0
TEXT
  5
262
  8
回07-寸法
 62
     5
 10
451.6987073563463
 20
-341.9444081233165
 30
0.0
 40
4.0
  1
A
1001
ACAD
1000
MTEXTBEGIN
1070
    73
1070
     1
1070
    44
1040
1.0
1070
    74
1070
     0
1000
MTEXTEND
  0
INSERT
  5
263
  8
回07-寸法
 62
     5
 66
     1
  2
*X494949
 10
0.0
 20
0.0
 30
0.0
  0
SEQEND
  5
4C9
  8
回07-寸法
  6
CONTINUOUS
 62
     7
  0
CIRCLE
  5
264
  8
回07-寸法
 62
     5
 10
446.1088151986978
 20
-330.7580210940374
 30
0.0
 40
7.430077929291428
  0
DIMENSION
  5
265
  8
回07-寸法
  6
CONTINUOUS
 62
     3
  2
*D262626
 10
437.7589154206789
 20
-489.4165222000871
 30
0.0
 11
435.608915420679
 21
-508.3604083024491
 31
0.0
 70
     0
  1
0.3{\H0.6563x;±0.05}[0.012{\H0.6563x;±0.002}]
  3
DMC
 13
445.4439812394097
 23
-484.416522200087
 33
0.0
 14
445.4439812394097
 24
-489.4165222000871
 34
0.0
 50
90.0
1001
ACAD
1000
DSTYLE
1002
{
1070
   170
1070
     1
1070
   271
1070
     3
1070
   272
1070
     3
1070
   371
1070
     9
1070
   372
1070
     9
1002
}
  0
DIMENSION
  5
274
  8
回07-寸法
  6
CONTINUOUS
 62
     3
  2
*D252525
 10
728.6811198187852
 20
-490.9165222000869
 30
0.0
 11
726.5311198187852
 21
-509.379802751268
 31
0.0
 70
     0
  1
2.1{\H0.6875x;±0.2}[0.083{\H0.6667x;±0.008}]
  3
DMC
 13
718.9439846285072
 23
-481.916522200087
 33
0.0
 14
719.4439846285072
 24
-490.9165222000869
 34
0.0
 50
90.0
1001
ACAD
1000
DSTYLE
1002
{
1070
   170
1070
     1
1070
   271
1070
     3
1070
   272
1070
     3
1070
   371
1070
     9
1070
   372
1070
     9
1002
}
  0
TEXT
  5
283
  8
回07-寸法
 62
     5
 10
494.3030941369007
 20
-317.6724248966599
 30
0.0
 40
3.0
  1
4-R1[R0.039]
1001
ACAD
1000
MTEXTBEGIN
1070
    73
1070
     1
1070
    44
1040
1.0
1070
    74
1070
     0
1000
MTEXTEND
  0
INSERT
  5
284
  8
回07-寸法
 62
     1
 66
     1
  2
*X505050
 10
0.0
 20
0.0
 30
0.0
  0
SEQEND
  5
4D0
  8
回07-寸法
  6
CONTINUOUS
 62
     7
  0
TEXT
  5
285
  8
回07-寸法
 62
     5
 10
496.2173177921263
 20
-307.8008004179066
 30
0.0
 40
3.0
  1
2-R2[R0.079]
1001
ACAD
1000
MTEXTBEGIN
1070
    73
1070
     1
1070
    44
1040
1.0
1070
    74
1070
     0
1000
MTEXTEND
  0
INSERT
  5
286
  8
回07-寸法
 62
     1
 66
     1
  2
*X515151
 10
0.0
 20
0.0
 30
0.0
  0
SEQEND
  5
4D7
  8
回07-寸法
  6
CONTINUOUS
 62
     7
  0
DIMENSION
  5
287
  8
回07-寸法
 62
     1
  2
*D242424
 10
506.1424226500792
 20
-322.8031001859329
 30
0.0
 11
506.1424226500792
 21
-356.5552251416232
 31
0.0
 70
   128
  3
DMC
 13
521.2562718166159
 23
-338.8018971516615
 33
0.0
 14
521.2520982309082
 24
-322.8031001859329
 34
0.0
 50
90.0
1001
ACAD
1000
DSTYLE
1002
{
1070
   170
1070
     1
1070
   371
1070
     9
1070
   372
1070
     9
1002
}
  0
DIMENSION
  5
296
  8
回07-寸法
 62
     3
  2
*D232323
 10
521.056271816615
 20
-371.1352479700718
 30
0.0
 11
501.5402777626206
 21
-371.1352479700718
 31
0.0
 70
   128
  3
DMC
 13
525.4439846285062
 23
-341.6729649635275
 33
0.0
 14
521.056271816615
 24
-338.8018971516615
 34
0.0
1001
ACAD
1000
DSTYLE
1002
{
1070
   170
1070
     1
1070
   371
1070
     9
1070
   372
1070
     9
1002
}
  0
DIMENSION
  5
2A7
  8
回07-寸法
 62
     5
  2
*D222222
 10
516.0439846285063
 20
-376.1697639139478
 30
0.0
 11
502.4818525941504
 21
-376.1697639139478
 31
0.0
 70
   128
  3
DMC
 13
525.4439846285062
 23
-341.6729649635275
 33
0.0
 14
516.0439846285063
 24
-334.069953029431
 34
0.0
1001
ACAD
1000
DSTYLE
1002
{
1070
   170
1070
     1
1070
   371
1070
     9
1070
   372
1070
     9
1002
}
  0
LINE
  5
2B8
  8
回08-記事
  6
CONTINUOUS
 62
     7
 10
524.2439846285072
 20
-488.916522200087
 30
0.0
 11
524.2439846285072
 21
-492.116522200087
 31
0.0
  0
LINE
  5
2B9
  8
回08-記事
  6
CONTINUOUS
 62
     7
 10
528.9440281392749
 20
-492.116522200087
 30
0.0
 11
524.2439846285072
 21
-492.116522200087
 31
0.0
  0
LINE
  5
2BA
  8
回08-記事
  6
CONTINUOUS
 62
     7
 10
528.9440281392749
 20
-490.9165222000869
 30
0.0
 11
528.9440281392749
 21
-492.116522200087
 31
0.0
  0
LINE
  5
2BB
  8
回08-記事
  6
CONTINUOUS
 62
     7
 10
521.2525451348741
 20
-488.916522200087
 30
0.0
 11
524.2439846285072
 21
-488.916522200087
 31
0.0
  0
LINE
  5
2BC
  8
回08-記事
  6
CONTINUOUS
 62
     7
 10
521.2525451348741
 20
-487.7165222000868
 30
0.0
 11
521.2525451348741
 21
-488.916522200087
 31
0.0
  0
DIMENSION
  5
2BD
  8
回07-寸法
  6
CONTINUOUS
 62
     1
  2
*D212121
 10
525.9439846285069
 20
-476.4460973077311
 30
0.0
 11
540.492803526145
 21
-474.2960973077311
 31
0.0
 70
     0
  1
(<>)
  3
DMC
 13
525.443984628507
 23
-486.4165222000869
 33
0.0
 14
525.9439846285069
 24
-481.916522200087
 34
0.0
1001
ACAD
1000
DSTYLE
1002
{
1070
   170
1070
     1
1070
   271
1070
     3
1070
   272
1070
     3
1070
   371
1070
     9
1070
   372
1070
     9
1002
}
  0
DIMENSION
  5
2CC
  8
回07-寸法
  6
CONTINUOUS
 62
     1
  2
*D202020
 10
718.9439846285072
 20
-475.7849380742952
 30
0.0
 11
704.3951657308694
 21
-473.6349380742953
 31
0.0
 70
     0
  1
(<>)
  3
DMC
 13
719.4439846285072
 23
-484.416522200087
 33
0.0
 14
718.9439846285072
 24
-481.916522200087
 34
0.0
1001
ACAD
1000
DSTYLE
1002
{
1070
   170
1070
     1
1070
   271
1070
     3
1070
   272
1070
     3
1070
   371
1070
     9
1070
   372
1070
     9
1002
}
  0
POLYLINE
  5
2DB
  8
回08-記事
 62
     7
 66
     1
 10
0.0
 20
0.0
 30
0.0
 70
     1
  0
VERTEX
  5
946
  8
回08-記事
 62
     7
 10
712.4439846285069
 20
-435.3019140597043
 30
0.0
  0
VERTEX
  5
948
  8
回08-記事
 62
     7
 10
535.4439846285067
 20
-435.3019140597043
 30
0.0
  0
VERTEX
  5
949
  8
回08-記事
 62
     7
 10
535.4439846285067
 20
-299.3019140597044
 30
0.0
  0
VERTEX
  5
94A
  8
回08-記事
 62
     7
 10
712.4439846285069
 20
-299.3019140597044
 30
0.0
  0
SEQEND
  5
947
  8
回07-寸法
  6
CONTINUOUS
 62
     7
  0
POLYLINE
  5
2DC
  8
回04-下接
 62
     7
 66
     1
 10
0.0
 20
0.0
 30
0.0
 70
     1
  0
VERTEX
  5
94B
  8
回04-下接
 62
     7
 10
719.4439846285072
 20
-440.3019140597042
 30
0.0
  0
VERTEX
  5
94D
  8
回04-下接
 62
     7
 10
525.443984628507
 20
-440.3019140597042
 30
0.0
  0
VERTEX
  5
94E
  8
回04-下接
 62
     7
 10
525.443984628507
 20
-294.3019140597044
 30
0.0
  0
VERTEX
  5
94F
  8
回04-下接
 62
     7
 10
719.4439846285072
 20
-294.3019140597044
 30
0.0
  0
SEQEND
  5
94C
  8
回07-寸法
  6
CONTINUOUS
 62
     7
  0
INSERT
  5
2E0
  8
回08-記事
 62
     9
 66
     1
  2
*X525252
 10
0.0
 20
0.0
 30
0.0
1001
ACAD
1000
HATCH
1002
{
1070
    19
1000
ANSI31
1040
15.0
1040
1.570796326794896
1000
ASC_BOUNDS
1070
     1
1070
     2
1070
     1
1005
2E1
1000
ASC_SEEDPOINT
1011
676.4080773605842
1021
-350.7526976860317
1031
0.0
1000
R14_HATCH_DATA
1000
2E0
1011
1.0
1021
0.0
1031
0.0
1011
0.0
1021
1.0
1031
0.0
1011
0.0
1021
0.0
1031
1.0
1040
0.0
1010
0.0
1020
0.0
1030
1.0
1000
ANSI31
1070
     0
1070
     1
1071
        1
1071
        1
1071
        8
1070
     1
1040
474.1214034714153
1040
-332.3018971516615
1040
474.1214034714153
1040
-329.3018971516616
1070
     2
1040
475.1214034714153
1040
-329.3018971516616
1040
1.0
1040
3.141592653589792
1040
4.712388980384688
1070
     0
1070
     1
1040
475.1214034714153
1040
-328.3018971516615
1040
499.1214034714153
1040
-328.3018971516615
1070
     2
1040
499.1214034714153
1040
-329.3018971516616
1040
1.0
1040
4.712388980384688
1040
6.283185307179584
1070
     0
1070
     1
1040
500.1214034714153
1040
-329.3018971516616
1040
500.1214034714153
1040
-332.3018971516615
1070
     2
1040
499.1214034714153
1040
-332.3018971516615
1040
1.0
1040
6.283185307179584
1040
7.853981633974482
1070
     0
1070
     1
1040
499.1214034714153
1040
-333.3018971516616
1040
475.1214034714153
1040
-333.3018971516616
1070
     2
1040
475.1214034714153
1040
-332.3018971516615
1040
1.0
1040
1.570796326794896
1040
3.141592653589792
1070
     0
1071
        1
1005
2E1
1070
     0
1070
     1
1040
1.570796326794896
1040
15.0
1070
     0
1070
     1
1040
2.356194490192344
1040
676.4080773605842
1040
-350.7526976860317
1040
-1.325825214724774
1040
-1.325825214724774
1070
     0
1071
        1
1040
676.4080773605842
1040
-350.7526976860317
1040
0.0
1002
}
  0
SEQEND
  5
4F0
  8
回07-寸法
  6
CONTINUOUS
 62
     7
  0
POLYLINE
  5
2E1
  8
回08-記事
 62
     9
 66
     1
 10
0.0
 20
0.0
 30
0.0
 70
     1
1001
ACAD
1000
ASC_BOUNDS
1002
{
1070
    19
1005
2E0
1002
}
  0
VERTEX
  5
950
  8
回08-記事
 62
     9
 10
474.1214034714153
 20
-332.3018971516615
 30
0.0
  0
VERTEX
  5
952
  8
回08-記事
 62
     9
 10
474.1214034714153
 20
-329.3018971516616
 30
0.0
 42
-0.4142135623730951
  0
VERTEX
  5
953
  8
回08-記事
 62
     9
 10
475.1214034714153
 20
-328.3018971516615
 30
0.0
  0
VERTEX
  5
954
  8
回08-記事
 62
     9
 10
499.1214034714153
 20
-328.3018971516615
 30
0.0
 42
-0.4142135623730951
  0
VERTEX
  5
955
  8
回08-記事
 62
     9
 10
500.1214034714153
 20
-329.3018971516616
 30
0.0
  0
VERTEX
  5
956
  8
回08-記事
 62
     9
 10
500.1214034714153
 20
-332.3018971516615
 30
0.0
 42
-0.4142135623730951
  0
VERTEX
  5
957
  8
回08-記事
 62
     9
 10
499.1214034714153
 20
-333.3018971516616
 30
0.0
  0
VERTEX
  5
958
  8
回08-記事
 62
     9
 10
475.1214034714153
 20
-333.3018971516616
 30
0.0
 42
-0.4142135623730946
  0
SEQEND
  5
951
  8
回07-寸法
  6
CONTINUOUS
 62
     7
  0
LINE
  5
2E2
  8
回07-寸法
 62
     1
 10
455.1964643627948
 20
-330.8018971516615
 30
0.0
 11
525.6440281392756
 21
-330.8018971516615
 31
0.0
  0
INSERT
  5
2E3
  8
回08-記事
 62
     9
 66
     1
  2
*X535353
 10
0.0
 20
0.0
 30
0.0
1001
ACAD
1000
HATCH
1002
{
1070
    19
1000
ANSI31
1040
0.5
1040
-0.0000000000000002
1000
ASC_BOUNDS
1070
     1
1070
     2
1070
     1
1005
2E4
1000
ASC_SEEDPOINT
1011
774.557352176764
1021
-547.9515652328315
1031
0.0
1000
R14_HATCH_DATA
1000
2E3
1011
1.0
1021
0.0
1031
0.0
1011
0.0
1021
1.0
1031
0.0
1011
0.0
1021
0.0
1031
1.0
1040
0.0
1010
0.0
1020
0.0
1030
1.0
1000
ANSI31
1070
     0
1070
     1
1071
        1
1071
        1
1071
        4
1070
     1
1040
528.9440281392749
1040
-323.3992143392459
1040
521.2525451348741
1040
-323.3992143392459
1070
     1
1040
521.2525451348741
1040
-323.3992143392459
1040
521.2525451348741
1040
-329.8018971516615
1070
     1
1040
521.2525451348741
1040
-329.8018971516615
1040
528.9440281392749
1040
-329.8018971516615
1070
     1
1040
528.9440281392749
1040
-329.8018971516615
1040
528.9440281392749
1040
-323.3992143392459
1071
        1
1005
2E4
1070
     0
1070
     1
1040
-0.0000000000000002
1040
0.5
1070
     0
1070
     1
1040
0.7853981633974481
1040
774.557352176764
1040
-547.9515652328315
1040
-1.122532015133643
1040
1.122532015133643
1070
     0
1071
        1
1040
774.557352176764
1040
-547.9515652328315
1040
0.0
1002
}
  0
SEQEND
  5
503
  8
回07-寸法
  6
CONTINUOUS
 62
     7
  0
POLYLINE
  5
2E4
  8
回08-記事
 62
     9
 66
     1
 10
0.0
 20
0.0
 30
0.0
 70
     1
1001
ACAD
1000
ASC_BOUNDS
1002
{
1070
    19
1005
2E3
1002
}
  0
VERTEX
  5
959
  8
回08-記事
 62
     9
 10
528.9440281392749
 20
-323.3992143392459
 30
0.0
  0
VERTEX
  5
95B
  8
回08-記事
 62
     9
 10
521.2525451348741
 20
-323.3992143392459
 30
0.0
  0
VERTEX
  5
95C
  8
回08-記事
 62
     9
 10
521.2525451348741
 20
-329.8018971516615
 30
0.0
  0
VERTEX
  5
95D
  8
回08-記事
 62
     9
 10
528.9440281392749
 20
-329.8018971516615
 30
0.0
  0
SEQEND
  5
95A
  8
回07-寸法
  6
CONTINUOUS
 62
     7
  0
TEXT
  5
2E5
  8
回08-記事
 62
     7
 10
445.366561104171
 20
-336.2180917222448
 30
0.0
 40
3.0
  1
1
 50
90.0
  0
TEXT
  5
2E6
  8
回08-記事
 62
     7
 10
445.3436681483821
 20
-326.8479457434535
 30
0.0
 40
3.0
  1
4
 50
90.0
  0
ARC
  5
2E7
  8
回05-ﾃ-ﾙ
 62
     7
 10
515.5353268394015
 20
-334.930921817241
 30
0.0
 40
1.0
 50
45.14359814421964
 51
89.99668642115281
  0
ARC
  5
2EB
  8
回05-ﾃ-ﾙ
 62
     7
 10
515.532765570497
 20
-326.6768971516611
 30
0.0
 40
1.0
 50
270.0
 51
314.8829928953766
  0
ARC
  5
2EC
  8
回05-ﾃ-ﾙ
 62
     7
 10
521.2525451348741
 20
-323.8031000860713
 30
0.0
 40
1.0
 50
90.02560571194575
 51
134.8829928953767
  0
ARC
  5
2ED
  8
回05-ﾃ-ﾙ
 62
     7
 10
521.256271816615
 20
-337.8018971516612
 30
0.0
 40
1.0
 50
225.1435981442198
 51
270.0
  0
ARC
  5
2EE
  8
回05-ﾃ-ﾙ
 62
     7
 10
523.9440281392749
 20
-340.8018971516611
 30
0.0
 40
2.0
 50
41.4115065924081
 51
90.0
  0
ARC
  5
2EF
  8
回05-ﾃ-ﾙ
 62
     7
 10
523.9440281392749
 20
-320.8018969519379
 30
0.0
 40
2.0
 50
270.0256057119457
 51
318.5884934075918
  0
LINE
  5
2F0
  8
回05-ﾃ-ﾙ
 62
     7
 10
516.2406592079191
 20
-334.2220450649628
 30
0.0
 11
520.5509394480982
 21
-338.5107739039402
 31
0.0
  0
LINE
  5
2F1
  8
回05-ﾃ-ﾙ
 62
     7
 10
516.2384268535884
 20
-327.3854464820159
 30
0.0
 11
520.5468838517831
 21
-323.094550755717
 31
0.0
  0
LINE
  5
2F2
  8
回05-ﾃ-ﾙ
 62
     7
 10
521.2562718166159
 20
-338.8018971516615
 30
0.0
 11
523.9440281392749
 21
-338.8018971516615
 31
0.0
  0
LINE
  5
2F3
  8
回05-ﾃ-ﾙ
 62
     7
 10
521.2520982309094
 20
-322.8031001859334
 30
0.0
 11
523.9449219472066
 21
-322.8018967522151
 31
0.0
  0
LINE
  5
2F4
  8
回05-ﾃ-ﾙ
 62
     7
 10
445.4439846285072
 20
-328.1768971516616
 30
0.0
 11
445.4439846285072
 21
-333.4268971516615
 31
0.0
  0
ARC
  5
2F5
  8
回05-ﾃ-ﾙ
 62
     7
 10
445.9439846285071
 20
-333.4268971516611
 30
0.0
 40
0.5
 50
180.0
 51
270.0
  0
ARC
  5
2F6
  8
回05-ﾃ-ﾙ
 62
     7
 10
445.9439846285071
 20
-328.1768971516612
 30
0.0
 40
0.5
 50
90.0
 51
180.0
  0
LINE
  5
2F7
  8
回05-ﾃ-ﾙ
 62
     7
 10
445.9439846285071
 20
-333.9268971516611
 30
0.0
 11
515.5353846722631
 21
-333.9309218189135
 31
0.0
  0
LINE
  5
2F8
  8
回05-ﾃ-ﾙ
 62
     7
 10
445.9439846285071
 20
-327.6768971516611
 30
0.0
 11
515.532765570497
 21
-327.6768971516611
 31
0.0
  0
TEXT
  5
2F9
  8
回07-寸法
 62
     5
 10
725.8502257501572
 20
-409.6986941540483
 30
0.0
 40
4.0
  1
AIR VENT
1001
ACAD
1000
MTEXTBEGIN
1070
    73
1070
     1
1070
    44
1040
1.0
1070
    74
1070
     0
1000
MTEXTEND
  0
INSERT
  5
2FA
  8
回07-寸法
 62
     5
 66
     1
  2
*X545454
 10
0.0
 20
0.0
 30
0.0
  0
SEQEND
  5
50F
  8
回07-寸法
  6
CONTINUOUS
 62
     7
  0
TEXT
  5
2FB
  8
回07-寸法
 62
     5
 10
677.3027686566637
 20
-447.8940717880532
 30
0.0
 40
4.0
  1
PART No
1001
ACAD
1000
MTEXTBEGIN
1070
    73
1070
     1
1070
    44
1040
1.0
1070
    74
1070
     0
1000
MTEXTEND
  0
INSERT
  5
2FC
  8
回07-寸法
 62
     5
 66
     1
  2
*X555555
 10
0.0
 20
0.0
 30
0.0
  0
SEQEND
  5
516
  8
回07-寸法
  6
CONTINUOUS
 62
     7
  0
TEXT
  5
2FD
  8
回08-記事
  6
CONTINUOUS
 62
     5
 10
489.2628958242683
 20
-498.7628817202613
 30
0.0
 40
4.0
  1
Lot Label
1001
ACAD
1000
MTEXTBEGIN
1070
    73
1070
     1
1070
    44
1040
1.0
1070
    74
1070
     0
1000
MTEXTEND
  0
INSERT
  5
2FE
  8
回08-記事
  6
CONTINUOUS
 62
     7
 66
     1
  2
*X565656
 10
0.0
 20
0.0
 30
0.0
  0
SEQEND
  5
51D
  8
回07-寸法
  6
CONTINUOUS
 62
     7
  0
POLYLINE
  5
2FF
  8
回08-記事
  6
CONTINUOUS
 62
     7
 66
     1
 10
0.0
 20
0.0
 30
0.0
 70
     1
1001
ACAD
1000
ASC_BOUNDS
1002
{
1070
    19
1005
132
1002
}
  0
VERTEX
  5
95E
  8
回08-記事
  6
CONTINUOUS
 62
     7
 10
477.5700193479608
 20
-487.0165222000871
 30
0.0
  0
VERTEX
  5
960
  8
回08-記事
  6
CONTINUOUS
 62
     7
 10
503.5700193479611
 20
-487.0165222000871
 30
0.0
  0
VERTEX
  5
961
  8
回08-記事
  6
CONTINUOUS
 62
     7
 10
503.5700193479611
 20
-486.4165222000869
 30
0.0
  0
VERTEX
  5
962
  8
回08-記事
  6
CONTINUOUS
 62
     7
 10
477.5700193479608
 20
-486.4165222000869
 30
0.0
  0
SEQEND
  5
95F
  8
回07-寸法
  6
CONTINUOUS
 62
     7
  0
LINE
  5
300
  8
回08-記事
 62
     7
 10
719.4439846285067
 20
-436.3019140597042
 30
0.0
 11
712.4439846285071
 21
-436.3019140597042
 31
0.0
  0
LINE
  5
301
  8
回08-記事
 62
     7
 10
719.4439846285067
 20
-434.3019140597043
 30
0.0
 11
712.4439846285071
 21
-434.3019140597043
 31
0.0
  0
DIMENSION
  5
302
  8
回07-寸法
 62
     5
  2
*D191919
 10
738.2661145780655
 20
-440.3019140597042
 30
0.0
 11
736.1161145780656
 21
-453.2007329573422
 31
0.0
 70
     0
  1
(<>)
  3
DMC
 13
719.4439846285072
 23
-436.3019140597042
 33
0.0
 14
719.4439846285072
 24
-440.3019140597042
 34
0.0
 50
90.0
1001
ACAD
1000
DSTYLE
1002
{
1070
   170
1070
     1
1070
   271
1070
     3
1070
   272
1070
     3
1070
   371
1070
     9
1070
   372
1070
     9
1002
}
  0
DIMENSION
  5
313
  8
回07-寸法
 62
     5
  2
*D181818
 10
738.2661145780652
 20
-434.3019140597043
 30
0.0
 11
738.2661145780655
 21
-420.2478536663248
 31
0.0
 70
   128
  1
(<>)
  3
DMC
 13
719.4439846285072
 23
-436.3019140597042
 33
0.0
 14
719.4439846285067
 24
-434.3019140597043
 34
0.0
 50
90.0
1001
ACAD
1000
DSTYLE
1002
{
1070
   170
1070
     1
1070
   271
1070
     3
1070
   272
1070
     3
1070
   371
1070
     9
1070
   372
1070
     9
1002
}
  0
TEXT
  5
324
  8
回08-記事
  6
CONTINUOUS
 62
     5
 10
624.8805619968861
 20
-308.5039693543895
 30
0.0
 40
4.0
  1
YU
  0
TEXT
  5
325
  8
回08-記事
  6
CONTINUOUS
 62
     5
 10
701.4222487506957
 20
-365.4308142159512
 30
0.0
 40
4.0
  1
XR
  0
TEXT
  5
326
  8
回08-記事
  6
CONTINUOUS
 62
     5
 10
539.7277568614144
 20
-365.4688945462711
 30
0.0
 40
4.0
  1
XL
  0
TEXT
  5
327
  8
回08-記事
  6
CONTINUOUS
 62
     5
 10
624.8805653846877
 20
-430.1522768087719
 30
0.0
 40
4.0
  1
YD
  0
ARC
  5
328
  8
回08-記事
  6
CONTINUOUS
 62
     7
 10
539.943984628517
 20
-486.4165222000869
 30
0.0
 40
0.5
 50
0.0
 51
180.0
  0
ARC
  5
329
  8
回08-記事
  6
CONTINUOUS
 62
     7
 10
534.9439846285171
 20
-486.4165222000869
 30
0.0
 40
0.5
 50
0.0
 51
180.0
  0
TEXT
  5
32A
  8
回07-寸法
 62
     5
 10
675.3738849366132
 20
-453.8080910571256
 30
0.0
 40
4.0
  1
AST-084A
  0
DIMENSION
  5
32B
  8
回07-寸法
 62
     5
  2
*D171717
 10
709.6939846285072
 20
-286.3016658262998
 30
0.0
 11
653.1847956281767
 21
-286.3016658262998
 31
0.0
 70
   128
  1
<> {\H0.75x;(ACTIVE AREA)}
  3
DMC
 13
538.1939846285071
 23
-302.3019140597043
 33
0.0
 14
709.6939846285072
 24
-302.3019140597043
 34
0.0
1001
ACAD
1000
DSTYLE
1002
{
1070
   170
1070
     1
1070
   271
1070
     3
1070
   272
1070
     3
1070
   371
1070
     9
1070
   372
1070
     9
1002
}
  0
DIMENSION
  5
33A
  8
回07-寸法
 62
     5
  2
*D161616
 10
712.4439846285071
 20
-278.3016658262998
 30
0.0
 11
651.9760993263147
 21
-278.3016658262998
 31
0.0
 70
   128
  1
<> {\H0.75x;(VIEWING AREA)}
  3
DMC
 13
535.4439846285071
 23
-299.3019140597044
 33
0.0
 14
712.4439846285071
 24
-299.3019140597044
 34
0.0
1001
ACAD
1000
DSTYLE
1002
{
1070
   170
1070
     1
1070
   271
1070
     3
1070
   272
1070
     3
1070
   371
1070
     9
1070
   372
1070
     9
1002
}
  0
LINE
  5
349
  8
回07-寸法
 62
    20
 10
524.3604344870533
 20
-330.8018971516615
 30
0.0
 11
439.2604344870533
 21
-330.8018971516615
 31
0.0
  0
DIMENSION
  5
34A
  8
回07-寸法
 62
     5
  2
*D151515
 10
525.443984628507
 20
-301.2722650037204
 30
0.0
 11
489.4985072833865
 21
-301.2722650037204
 31
0.0
 70
   128
  3
DMC
 13
445.4439846285072
 23
-328.1768971516616
 33
0.0
 14
525.443984628507
 24
-294.3019140597044
 34
0.0
1001
ACAD
1000
DSTYLE
1002
{
1070
    47
1040
1.0
1070
   147
1040
0.5
1070
    48
1040
1.0
1070
    72
1070
     0
1070
    71
1070
     1
1070
   170
1070
     1
1070
   271
1070
     3
1070
   272
1070
     3
1070
   371
1070
     9
1070
   372
1070
     9
1002
}
  0
DIMENSION
  5
359
  8
回07-寸法
 62
     5
  2
*D141414
 10
437.0315069233196
 20
-294.3019140597044
 30
0.0
 11
437.0315069233196
 21
-310.9894056056827
 31
0.0
 70
   128
  1
(<>)
  3
DMC
 13
445.9439846285071
 23
-327.6768971516611
 33
0.0
 14
525.443984628507
 24
-294.3019140597044
 34
0.0
 50
90.0
1001
ACAD
1000
DSTYLE
1002
{
1070
   170
1070
     1
1070
   371
1070
     9
1070
   372
1070
     9
1002
}
  0
DIMENSION
  5
368
  8
回07-寸法
 62
     5
  2
*D131313
 10
437.0315069233201
 20
-333.9269471660318
 30
0.0
 11
434.8815069233197
 21
-348.5667109455594
 31
0.0
 70
     0
  1
<>
  3
DMC
 13
445.9439846285067
 23
-327.6768971516615
 33
0.0
 14
445.9439890704338
 24
-333.9269471660316
 34
0.0
 50
90.0
1001
ACAD
1000
DSTYLE
1002
{
1070
    47
1040
0.2
1070
   147
1040
0.5
1070
    48
1040
0.2
1070
    72
1070
     0
1070
    71
1070
     0
1070
   170
1070
     1
1070
   271
1070
     3
1070
   272
1070
     3
1070
   371
1070
     9
1070
   372
1070
     9
1002
}
  0
DIMENSION
  5
379
  8
回07-寸法
 62
     5
  2
*D121212
 10
623.9439846285072
 20
-270.4590985019586
 30
0.0
 11
574.6939846285072
 21
-268.3090985019587
 31
0.0
 70
     0
  1
<> {\H0.75x;(ACTIVE AREA CENTER)}
  3
DMC
 13
525.443984628507
 23
-294.3019140597044
 33
0.0
 14
623.9439846285072
 24
-299.3019140597044
 34
0.0
1001
ACAD
1000
DSTYLE
1002
{
1070
   170
1070
     1
1070
   271
1070
     3
1070
   272
1070
     3
1070
   371
1070
     9
1070
   372
1070
     9
1002
}
  0
DIMENSION
  5
388
  8
回07-寸法
 62
     5
  2
*D111111
 10
719.4439846285072
 20
-244.3628817444546
 30
0.0
 11
628.343984628507
 21
-244.3628817444546
 31
0.0
 70
   128
  3
DMC
 13
525.443984628507
 23
-294.3019140597044
 33
0.0
 14
719.4439846285072
 24
-294.3019140597044
 34
0.0
1001
ACAD
1000
DSTYLE
1002
{
1070
    47
1040
0.3
1070
   147
1040
0.5
1070
    48
1040
0.3
1070
    72
1070
     0
1070
    71
1070
     1
1070
   170
1070
     1
1070
   271
1070
     3
1070
   272
1070
     3
1070
   371
1070
     9
1070
   372
1070
     9
1002
}
  0
DIMENSION
  5
397
  8
回07-寸法
 62
     5
  2
*D101010
 10
538.1939846285071
 20
-286.3450774822336
 30
0.0
 11
510.2939846285071
 21
-286.3450774822336
 31
0.0
 70
   128
  3
DMC
 13
525.443984628507
 23
-294.3019140597044
 33
0.0
 14
538.1939846285071
 24
-302.3019140597043
 34
0.0
1001
ACAD
1000
DSTYLE
1002
{
1070
   170
1070
     1
1070
   271
1070
     3
1070
   272
1070
     3
1070
   371
1070
     9
1070
   372
1070
     9
1002
}
  0
DIMENSION
  5
3A8
  8
回07-寸法
 62
     5
  2
*D999
 10
535.4439846285071
 20
-278.3016658262998
 30
0.0
 11
512.6887431327658
 21
-278.3016658262998
 31
0.0
 70
   128
  3
DMC
 13
525.443984628507
 23
-294.3019140597044
 33
0.0
 14
535.4439846285071
 24
-299.3019140597044
 34
0.0
1001
ACAD
1000
DSTYLE
1002
{
1070
   170
1070
     1
1070
   271
1070
     3
1070
   272
1070
     3
1070
   371
1070
     9
1070
   372
1070
     9
1002
}
  0
LINE
  5
3B9
  8
回07-寸法
  6
CENTER2
 62
     1
 10
623.9439846285072
 20
-299.3019140597044
 30
0.0
 11
623.9439846285072
 21
-435.3019140597043
 31
0.0
  0
LINE
  5
3BB
  8
回07-寸法
  6
CENTER2
 62
    20
 10
535.4439846285067
 20
-367.3019140597044
 30
0.0
 11
712.4439846285069
 21
-367.3019140597044
 31
0.0
  0
DIMENSION
  5
3BC
  8
回07-寸法
 62
     5
  2
*D888
 10
800.2149849374443
 20
-440.3019140597042
 30
0.0
 11
800.2149849374447
 21
-374.8016658262998
 31
0.0
 70
   128
  3
DMC
 13
719.4439846285072
 23
-294.3019140597044
 33
0.0
 14
719.4439846285072
 24
-440.3019140597042
 34
0.0
 50
90.0
1001
ACAD
1000
DSTYLE
1002
{
1070
    47
1040
0.3
1070
   147
1040
0.5
1070
    48
1040
0.3
1070
    72
1070
     0
1070
    71
1070
     1
1070
   170
1070
     1
1070
   271
1070
     3
1070
   272
1070
     3
1070
   371
1070
     9
1070
   372
1070
     9
1002
}
  0
DIMENSION
  5
3CB
  8
回07-寸法
 62
     5
  2
*D777
 10
754.4598764757621
 20
-432.3019140597042
 30
0.0
 11
754.4598764757621
 21
-451.8519140597041
 31
0.0
 70
   128
  3
DMC
 13
719.4439846285072
 23
-440.3019140597042
 33
0.0
 14
709.6939846285072
 24
-432.3019140597042
 34
0.0
 50
90.0
1001
ACAD
1000
DSTYLE
1002
{
1070
   170
1070
     1
1070
   271
1070
     3
1070
   272
1070
     3
1070
   371
1070
     9
1070
   372
1070
     9
1002
}
  0
DIMENSION
  5
3DC
  8
回07-寸法
 62
     5
  2
*D666
 10
763.0882445276239
 20
-435.3019140597043
 30
0.0
 11
763.088244527624
 21
-451.8571555554457
 31
0.0
 70
   128
  3
DMC
 13
719.4439846285072
 23
-440.3019140597042
 33
0.0
 14
712.4439846285071
 24
-435.3019140597043
 34
0.0
 50
90.0
1001
ACAD
1000
DSTYLE
1002
{
1070
   170
1070
     1
1070
   271
1070
     3
1070
   272
1070
     3
1070
   371
1070
     9
1070
   372
1070
     9
1002
}
  0
DIMENSION
  5
3ED
  8
回07-寸法
 62
     5
  2
*D555
 10
763.0882445276239
 20
-435.3019140597043
 30
0.0
 11
763.088244527624
 21
-338.8546822868316
 31
0.0
 70
   128
  1
<> {\H0.75x;(VIEWING AREA)}
  3
DMC
 13
712.4439846285071
 23
-299.3019140597044
 33
0.0
 14
712.4439846285071
 24
-435.3019140597043
 34
0.0
 50
90.0
1001
ACAD
1000
DSTYLE
1002
{
1070
   170
1070
     1
1070
   271
1070
     3
1070
   272
1070
     3
1070
   371
1070
     9
1070
   372
1070
     9
1002
}
  0
DIMENSION
  5
3FC
  8
回07-寸法
 62
     5
  2
*D444
 10
754.4598764757621
 20
-302.3019140597043
 30
0.0
 11
754.4598764757621
 21
-339.0627875662877
 31
0.0
 70
   128
  1
<> {\H0.75x;(ACTIVE AREA)}
  3
DMC
 13
709.6939846285072
 23
-432.3019140597042
 33
0.0
 14
709.6939846285072
 24
-302.3019140597043
 34
0.0
 50
90.0
1001
ACAD
1000
DSTYLE
1002
{
1070
   170
1070
     1
1070
   271
1070
     3
1070
   272
1070
     3
1070
   371
1070
     9
1070
   372
1070
     9
1002
}
  0
DIMENSION
  5
40B
  8
回07-寸法
 62
     5
  2
*D333
 10
772.4315821116188
 20
-367.3019140597044
 30
0.0
 11
770.2815821116193
 21
-403.8019140597041
 31
0.0
 70
     0
  1
<> {\H0.75x;(ACTIVE AREA CENTER)}
  3
DMC
 13
719.4439846285072
 23
-440.3019140597042
 33
0.0
 14
712.4439846285069
 24
-367.3019140597044
 34
0.0
 50
90.0
1001
ACAD
1000
DSTYLE
1002
{
1070
   170
1070
     1
1070
   271
1070
     3
1070
   272
1070
     3
1070
   371
1070
     9
1070
   372
1070
     9
1002
}
  0
ARC
  5
41A
  8
回08-記事
  6
CONTINUOUS
 62
     7
 10
709.9439846285171
 20
-486.4165222000869
 30
0.0
 40
0.5
 50
0.0
 51
180.0
  0
LINE
  5
41B
  8
回08-記事
  6
CONTINUOUS
 62
     7
 10
713.1439846285072
 20
-484.416522200087
 30
0.0
 11
713.1439846285072
 21
-486.4165222000869
 31
0.0
  0
LINE
  5
41C
  8
回08-記事
  6
CONTINUOUS
 62
     7
 10
718.9439846285072
 20
-484.416522200087
 30
0.0
 11
718.9439846285072
 21
-481.916522200087
 31
0.0
  0
LINE
  5
41D
  8
回08-記事
  6
CONTINUOUS
 62
     7
 10
719.4439846285072
 20
-490.9165222000869
 30
0.0
 11
719.4439846285072
 21
-484.416522200087
 31
0.0
  0
ARC
  5
41E
  8
回08-記事
  6
CONTINUOUS
 62
     7
 10
704.9439846285173
 20
-486.4165222000869
 30
0.0
 40
0.5
 50
0.0
 51
180.0
  0
ARC
  5
41F
  8
回08-記事
  6
CONTINUOUS
 62
     7
 10
699.9439846285173
 20
-486.4165222000869
 30
0.0
 40
0.5
 50
0.0
 51
180.0
  0
ARC
  5
420
  8
回08-記事
  6
CONTINUOUS
 62
     7
 10
694.9439846285173
 20
-486.4165222000869
 30
0.0
 40
0.5
 50
0.0
 51
180.0
  0
ARC
  5
421
  8
回08-記事
  6
CONTINUOUS
 62
     7
 10
684.9439846285171
 20
-486.4165222000869
 30
0.0
 40
0.5
 50
0.0
 51
180.0
  0
ARC
  5
422
  8
回08-記事
  6
CONTINUOUS
 62
     7
 10
679.9439846285172
 20
-486.4165222000869
 30
0.0
 40
0.5
 50
0.0
 51
180.0
  0
ARC
  5
423
  8
回08-記事
  6
CONTINUOUS
 62
     7
 10
674.9439846285172
 20
-486.4165222000869
 30
0.0
 40
0.5
 50
0.0
 51
180.0
  0
ARC
  5
424
  8
回08-記事
  6
CONTINUOUS
 62
     7
 10
669.9439846285172
 20
-486.4165222000869
 30
0.0
 40
0.5
 50
0.0
 51
180.0
  0
ARC
  5
425
  8
回08-記事
  6
CONTINUOUS
 62
     7
 10
689.9439846285173
 20
-486.4165222000869
 30
0.0
 40
0.5
 50
0.0
 51
180.0
  0
ARC
  5
426
  8
回08-記事
  6
CONTINUOUS
 62
     7
 10
659.9439846285171
 20
-486.4165222000869
 30
0.0
 40
0.5
 50
0.0
 51
180.0
  0
ARC
  5
427
  8
回08-記事
  6
CONTINUOUS
 62
     7
 10
654.9439846285172
 20
-486.4165222000869
 30
0.0
 40
0.5
 50
0.0
 51
180.0
  0
ARC
  5
428
  8
回08-記事
  6
CONTINUOUS
 62
     7
 10
649.9439846285172
 20
-486.4165222000869
 30
0.0
 40
0.5
 50
0.0
 51
180.0
  0
ARC
  5
429
  8
回08-記事
  6
CONTINUOUS
 62
     7
 10
664.9439846285172
 20
-486.4165222000869
 30
0.0
 40
0.5
 50
0.0
 51
180.0
  0
ARC
  5
42A
  8
回08-記事
  6
CONTINUOUS
 62
     7
 10
639.9439846285172
 20
-486.4165222000869
 30
0.0
 40
0.5
 50
0.0
 51
180.0
  0
ARC
  5
42B
  8
回08-記事
  6
CONTINUOUS
 62
     7
 10
634.9439846285171
 20
-486.4165222000869
 30
0.0
 40
0.5
 50
0.0
 51
180.0
  0
ARC
  5
42C
  8
回08-記事
  6
CONTINUOUS
 62
     7
 10
629.9439846285172
 20
-486.4165222000869
 30
0.0
 40
0.5
 50
0.0
 51
180.0
  0
ARC
  5
42D
  8
回08-記事
  6
CONTINUOUS
 62
     7
 10
624.9439846285172
 20
-486.4165222000869
 30
0.0
 40
0.5
 50
0.0
 51
180.0
  0
ARC
  5
42E
  8
回08-記事
  6
CONTINUOUS
 62
     7
 10
644.9439846285172
 20
-486.4165222000869
 30
0.0
 40
0.5
 50
0.0
 51
180.0
  0
ARC
  5
42F
  8
回08-記事
  6
CONTINUOUS
 62
     7
 10
614.9439846285172
 20
-486.4165222000869
 30
0.0
 40
0.5
 50
0.0
 51
180.0
  0
ARC
  5
430
  8
回08-記事
  6
CONTINUOUS
 62
     7
 10
609.9439846285171
 20
-486.4165222000869
 30
0.0
 40
0.5
 50
0.0
 51
180.0
  0
ARC
  5
431
  8
回08-記事
  6
CONTINUOUS
 62
     7
 10
604.9439846285172
 20
-486.4165222000869
 30
0.0
 40
0.5
 50
0.0
 51
180.0
  0
ARC
  5
432
  8
回08-記事
  6
CONTINUOUS
 62
     7
 10
599.9439846285172
 20
-486.4165222000869
 30
0.0
 40
0.5
 50
0.0
 51
180.0
  0
ARC
  5
433
  8
回08-記事
  6
CONTINUOUS
 62
     7
 10
619.9439846285172
 20
-486.4165222000869
 30
0.0
 40
0.5
 50
0.0
 51
180.0
  0
ARC
  5
434
  8
回08-記事
  6
CONTINUOUS
 62
     7
 10
589.9439846285172
 20
-486.4165222000869
 30
0.0
 40
0.5
 50
0.0
 51
180.0
  0
ARC
  5
435
  8
回08-記事
  6
CONTINUOUS
 62
     7
 10
584.9439846285171
 20
-486.4165222000869
 30
0.0
 40
0.5
 50
0.0
 51
180.0
  0
ARC
  5
436
  8
回08-記事
  6
CONTINUOUS
 62
     7
 10
579.9439846285172
 20
-486.4165222000869
 30
0.0
 40
0.5
 50
0.0
 51
180.0
  0
ARC
  5
437
  8
回08-記事
  6
CONTINUOUS
 62
     7
 10
594.9439846285172
 20
-486.4165222000869
 30
0.0
 40
0.5
 50
0.0
 51
180.0
  0
ARC
  5
438
  8
回08-記事
  6
CONTINUOUS
 62
     7
 10
569.9439846285172
 20
-486.4165222000869
 30
0.0
 40
0.5
 50
0.0
 51
180.0
  0
ARC
  5
439
  8
回08-記事
  6
CONTINUOUS
 62
     7
 10
564.9439846285172
 20
-486.4165222000869
 30
0.0
 40
0.5
 50
0.0
 51
180.0
  0
ARC
  5
43A
  8
回08-記事
  6
CONTINUOUS
 62
     7
 10
559.9439846285171
 20
-486.4165222000869
 30
0.0
 40
0.5
 50
0.0
 51
180.0
  0
ARC
  5
43B
  8
回08-記事
  6
CONTINUOUS
 62
     7
 10
554.9439846285171
 20
-486.4165222000869
 30
0.0
 40
0.5
 50
0.0
 51
180.0
  0
ARC
  5
43C
  8
回08-記事
  6
CONTINUOUS
 62
     7
 10
544.9439846285171
 20
-486.4165222000869
 30
0.0
 40
0.5
 50
0.0
 51
180.0
  0
LINE
  5
43D
  8
回08-記事
  6
CONTINUOUS
 62
     7
 10
530.9439856813362
 20
-484.416522200087
 30
0.0
 11
530.9439856813362
 21
-486.4165222000869
 31
0.0
  0
ARC
  5
43E
  8
回08-記事
  6
CONTINUOUS
 62
     7
 10
549.9439846285171
 20
-486.4165222000869
 30
0.0
 40
0.5
 50
0.0
 51
180.0
  0
ARC
  5
43F
  8
回08-記事
  6
CONTINUOUS
 62
     7
 10
574.9439846285172
 20
-486.4165222000869
 30
0.0
 40
0.5
 50
0.0
 51
180.0
  0
LINE
  5
440
  8
回08-記事
  6
CONTINUOUS
 62
     7
 10
525.9439846285069
 20
-481.916522200087
 30
0.0
 11
525.9439846285069
 21
-484.416522200087
 31
0.0
  0
DIMENSION
  5
441
  8
回07-寸法
  6
CONTINUOUS
 62
     7
  2
*D222
 10
450.4439812394097
 20
-476.800716819106
 30
0.0
 11
461.9992227351511
 21
-474.6499917805762
 31
0.0
 70
     0
  3
DMC
 13
445.4439812394097
 23
-484.416522200087
 33
0.0
 14
450.4439812394097
 24
-483.616522200087
 34
0.0
1001
ACAD
1000
DSTYLE
1002
{
1070
   170
1070
     1
1070
   271
1070
     3
1070
   272
1070
     3
1070
   371
1070
     9
1070
   372
1070
     9
1002
}
  0
LINE
  5
452
  8
回08-記事
  6
CONTINUOUS
 62
     7
 10
445.4439812394097
 20
-489.4165222000871
 30
0.0
 11
455.4439812394098
 21
-489.4165222000871
 31
0.0
  0
LINE
  5
453
  8
回08-記事
  6
CONTINUOUS
 62
     7
 10
455.4439812394098
 20
-486.4165222000869
 30
0.0
 11
455.4439812394098
 21
-489.4165222000871
 31
0.0
  0
LINE
  5
454
  8
回08-記事
  6
CONTINUOUS
 62
     7
 10
445.4439812394097
 20
-486.4165222000869
 30
0.0
 11
445.4439812394097
 21
-489.4165222000871
 31
0.0
  0
LINE
  5
455
  8
回08-記事
  6
CONTINUOUS
 62
     7
 10
450.4439812394097
 20
-483.616522200087
 30
0.0
 11
450.4439812394097
 21
-484.416522200087
 31
0.0
  0
LINE
  5
456
  8
回08-記事
  6
CONTINUOUS
 62
     7
 10
445.4439812394097
 20
-484.416522200087
 30
0.0
 11
445.4439812394097
 21
-486.4165222000869
 31
0.0
  0
LINE
  5
457
  8
回08-記事
 62
     7
 10
450.4439812394097
 20
-483.1165222000868
 30
0.0
 11
525.9439846285069
 21
-483.1165222000868
 31
0.0
  0
DIMENSION
  5
458
  8
回07-寸法
  6
CONTINUOUS
 62
     7
  2
*D111
 10
455.4439812394098
 20
-510.2130960601416
 30
0.0
 11
469.398041632789
 21
-510.2130960601416
 31
0.0
 70
   128
  1
(<>)
  3
DMC
 13
445.4439812394097
 23
-489.4165222000871
 33
0.0
 14
455.4439812394098
 24
-489.4165222000871
 34
0.0
1001
ACAD
1000
DSTYLE
1002
{
1070
   170
1070
     1
1070
   271
1070
     3
1070
   272
1070
     3
1070
   371
1070
     9
1070
   372
1070
     9
1002
}
  0
LINE
  5
469
  8
回08-記事
  6
CONTINUOUS
 10
525.443984628507
 20
-486.4165222000869
 30
0.0
 11
525.443984628507
 21
-490.9165222000869
 31
0.0
  0
LINE
  5
46A
  8
回08-記事
 62
     7
 10
525.9439846285069
 20
-481.916522200087
 30
0.0
 11
718.9439846285072
 21
-481.916522200087
 31
0.0
  0
LINE
  5
46B
  8
回08-記事
  6
CONTINUOUS
 62
     7
 10
440.2439770031496
 20
-484.416522200087
 30
0.0
 11
719.4439846285072
 21
-484.416522200087
 31
0.0
  0
LINE
  5
46C
  8
回08-記事
  6
CONTINUOUS
 62
     7
 10
445.4439812394097
 20
-486.4165222000869
 30
0.0
 11
719.4439846285072
 21
-486.4165222000869
 31
0.0
  0
LINE
  5
46D
  8
回08-記事
  6
CONTINUOUS
 62
     7
 10
525.443984628507
 20
-490.9165222000869
 30
0.0
 11
719.4439846285072
 21
-490.9165222000869
 31
0.0
  0
ENDSEC
  0
EOF
