  0
SECTION
  2
HEADER
  9
$ACADVER
  1
AC1009
  9
$INSBASE
 10
0.0
 20
0.0
 30
0.0
  9
$EXTMIN
 10
-2581.766764266197
 20
-3159.146036669934
 30
0.0
  9
$EXTMAX
 10
-1383.912818995221
 20
-2752.367881397957
 30
0.0
  9
$LIMMIN
 10
0.0
 20
0.0
  9
$LIMMAX
 10
880.0
 20
620.0
  9
$ORTHOMODE
 70
     0
  9
$REGENMODE
 70
     1
  9
$FILLMODE
 70
     1
  9
$QTEXTMODE
 70
     0
  9
$MIRRTEXT
 70
     1
  9
$DRAGMODE
 70
     2
  9
$LTSCALE
 40
2.087542087542087
  9
$OSMODE
 70
   815
  9
$ATTMODE
 70
     1
  9
$TEXTSIZE
 40
4.0
  9
$TRACEWID
 40
1.0
  9
$TEXTSTYLE
  7
STANDARD
  9
$CLAYER
  8
回07-寸法
  9
$CELTYPE
  6
CONTINUOUS
  9
$CECOLOR
 62
     7
  9
$DIMSCALE
 40
1.0
  9
$DIMASZ
 40
2.0
  9
$DIMEXO
 40
0.0
  9
$DIMDLI
 40
0.0
  9
$DIMRND
 40
0.0
  9
$DIMDLE
 40
0.0
  9
$DIMEXE
 40
1.0
  9
$DIMTP
 40
0.3
  9
$DIMTM
 40
0.3
  9
$DIMTXT
 40
4.0
  9
$DIMCEN
 40
2.0
  9
$DIMTSZ
 40
0.0
  9
$DIMTOL
 70
     0
  9
$DIMLIM
 70
     0
  9
$DIMTIH
 70
     0
  9
$DIMTOH
 70
     0
  9
$DIMSE1
 70
     0
  9
$DIMSE2
 70
     0
  9
$DIMTAD
 70
     3
  9
$DIMZIN
 70
     8
  9
$DIMBLK
  1

  9
$DIMASO
 70
     1
  9
$DIMSHO
 70
     1
  9
$DIMPOST
  1

  9
$DIMAPOST
  1

  9
$DIMALT
 70
     0
  9
$DIMALTD
 70
     2
  9
$DIMALTF
 40
25.4
  9
$DIMLFAC
 40
1.0
  9
$DIMTOFL
 70
     1
  9
$DIMTVP
 40
0.0
  9
$DIMTIX
 70
     0
  9
$DIMSOXD
 70
     0
  9
$DIMSAH
 70
     1
  9
$DIMBLK1
  1
OPEN
  9
$DIMBLK2
  1
OPEN
  9
$DIMSTYLE
  2
STANDARD
  9
$DIMCLRD
 70
     5
  9
$DIMCLRE
 70
     5
  9
$DIMCLRT
 70
     5
  9
$DIMTFAC
 40
0.7
  9
$DIMGAP
 40
0.5
  9
$LUNITS
 70
     2
  9
$LUPREC
 70
     4
  9
$SKETCHINC
 40
1.0
  9
$FILLETRAD
 40
10.0
  9
$AUNITS
 70
     0
  9
$AUPREC
 70
     0
  9
$MENU
  1
.
  9
$ELEVATION
 40
0.0
  9
$PELEVATION
 40
0.0
  9
$THICKNESS
 40
0.0
  9
$LIMCHECK
 70
     0
  9
$BLIPMODE
 70
     0
  9
$CHAMFERA
 40
1.7
  9
$CHAMFERB
 40
1.7
  9
$SKPOLY
 70
     0
  9
$TDCREATE
 40
2450431.727493866
  9
$TDUPDATE
 40
2460277.388484144
  9
$TDINDWG
 40
3.891791794
  9
$TDUSRTIMER
 40
3.891791794
  9
$USRTIMER
 70
     1
  9
$ANGBASE
 50
0.0
  9
$ANGDIR
 70
     0
  9
$PDMODE
 70
    34
  9
$PDSIZE
 40
0.0
  9
$PLINEWID
 40
0.2
  9
$COORDS
 70
     1
  9
$SPLFRAME
 70
     0
  9
$SPLINETYPE
 70
     6
  9
$SPLINESEGS
 70
     8
  9
$ATTDIA
 70
     1
  9
$ATTREQ
 70
     1
  9
$HANDLING
 70
     1
  9
$HANDSEED
  5
5C8
  9
$SURFTAB1
 70
     6
  9
$SURFTAB2
 70
     6
  9
$SURFTYPE
 70
     6
  9
$SURFU
 70
     6
  9
$SURFV
 70
     6
  9
$UCSNAME
  2

  9
$UCSORG
 10
0.0
 20
0.0
 30
0.0
  9
$UCSXDIR
 10
1.0
 20
0.0
 30
0.0
  9
$UCSYDIR
 10
0.0
 20
1.0
 30
0.0
  9
$PUCSNAME
  2

  9
$PUCSORG
 10
0.0
 20
0.0
 30
0.0
  9
$PUCSXDIR
 10
1.0
 20
0.0
 30
0.0
  9
$PUCSYDIR
 10
0.0
 20
1.0
 30
0.0
  9
$USERI1
 70
     0
  9
$USERI2
 70
     0
  9
$USERI3
 70
     0
  9
$USERI4
 70
     0
  9
$USERI5
 70
     0
  9
$USERR1
 40
0.0
  9
$USERR2
 40
0.0
  9
$USERR3
 40
0.0
  9
$USERR4
 40
0.0
  9
$USERR5
 40
0.0
  9
$WORLDVIEW
 70
     1
  9
$SHADEDGE
 70
     3
  9
$SHADEDIF
 70
    70
  9
$TILEMODE
 70
     1
  9
$MAXACTVP
 70
    16
  9
$PLIMCHECK
 70
     0
  9
$PEXTMIN
 10
1.000000000000000E+20
 20
1.000000000000000E+20
 30
1.000000000000000E+20
  9
$PEXTMAX
 10
-1.000000000000000E+20
 20
-1.000000000000000E+20
 30
-1.000000000000000E+20
  9
$PLIMMIN
 10
0.0
 20
0.0
  9
$PLIMMAX
 10
420.0
 20
297.0
  9
$UNITMODE
 70
     0
  9
$VISRETAIN
 70
     0
  9
$PLINEGEN
 70
     0
  9
$PSLTSCALE
 70
     1
  0
ENDSEC
  0
SECTION
  2
TABLES
  0
TABLE
  2
VPORT
 70
     1
  0
VPORT
  2
*ACTIVE
 70
     0
 10
0.0
 20
0.0
 11
1.0
 21
1.0
 12
-1663.014410037092
 22
-2987.40788107111
 13
0.0
 23
0.0
 14
1.0
 24
1.0
 15
5.0
 25
5.0
 16
0.0
 26
0.0
 36
1.0
 17
0.0
 27
0.0
 37
0.0
 40
703.5429656923424
 41
2.354978354978355
 42
50.0
 43
0.0
 44
0.0
 50
0.0
 51
0.0
 71
     0
 72
   100
 73
     1
 74
     0
 75
     0
 76
     0
 77
     0
 78
     0
  0
ENDTAB
  0
TABLE
  2
LTYPE
 70
     4
  0
LTYPE
  2
CONTINUOUS
 70
     0
  3
Solid line
 72
    65
 73
     0
 40
0.0
  0
LTYPE
  2
CENTER2
 70
     0
  3
___ _ ___ _ ___ _ ___ _ ___ _ ___ _ ___ _ ___ _
 72
    65
 73
     4
 40
1.125
 49
0.75
 49
-0.125
 49
0.125
 49
-0.125
  0
LTYPE
  2
DASHED2
 70
     0
  3
_ _ _ _ _ _ _ _ _ _ _ _ _ _ _ _ _ _ _ _ _ _ _ _
 72
    65
 73
     2
 40
0.375
 49
0.25
 49
-0.125
  0
LTYPE
  2
PHANTOM2
 70
     0
  3
Phantom (.5x) ___ _ _ ___ _ _ ___ _ _ ___ _ _
 72
    65
 73
     6
 40
1.25
 49
0.625
 49
-0.125
 49
0.125
 49
-0.125
 49
0.125
 49
-0.125
  0
ENDTAB
  0
TABLE
  2
LAYER
 70
     9
  0
LAYER
  2
0
 70
     0
 62
     7
  6
CONTINUOUS
  0
LAYER
  2
DEFPOINTS
 70
     0
 62
     7
  6
CONTINUOUS
  0
LAYER
  2
回08-記事
 70
     0
 62
     7
  6
CONTINUOUS
  0
LAYER
  2
回07-寸法
 70
     0
 62
     7
  6
CONTINUOUS
  0
LAYER
  2
回04-下接
 70
     0
 62
     7
  6
CONTINUOUS
  0
LAYER
  2
回05-ﾃ-ﾙ
 70
     0
 62
     7
  6
CONTINUOUS
  0
LAYER
  2
回90-A2
 70
     0
 62
     7
  6
CONTINUOUS
  0
LAYER
  2
回05-ﾃｰﾙ
 70
     0
 62
     7
  6
CONTINUOUS
  0
LAYER
  2
回03-記事
 70
     0
 62
     7
  6
CONTINUOUS
  0
ENDTAB
  0
TABLE
  2
STYLE
 70
     2
  0
STYLE
  2
STANDARD
 70
     0
 40
4.0
 41
1.0
 50
0.0
 71
     0
 42
4.0
  3
isocp.shx
  4
bigfont.shx
  0
STYLE
  2
MTX_ISOCP_SHXBIGFONT
 70
     0
 40
0.0
 41
1.0
 50
0.0
 71
     0
 42
4.0
  3
isocp.shx
  4
bigfont.shx
  0
ENDTAB
  0
TABLE
  2
VIEW
 70
     0
  0
ENDTAB
  0
TABLE
  2
UCS
 70
     0
  0
ENDTAB
  0
TABLE
  2
APPID
 70
     1
  0
APPID
  2
ACAD
 70
     0
  0
ENDTAB
  0
TABLE
  2
DIMSTYLE
 70
     2
  0
DIMSTYLE
  2
STANDARD
 70
     0
  3

  4

  5

  6
OPEN
  7
OPEN
 40
1.0
 41
2.0
 42
0.0
 43
0.0
 44
1.0
 45
0.0
 46
0.0
 47
0.0
 48
0.0
140
3.0
141
2.0
142
0.0
143
25.4
144
1.0
145
0.0
146
1.0
147
0.5
 71
     0
 72
     0
 73
     0
 74
     0
 75
     0
 76
     0
 77
     3
 78
     8
170
     0
171
     2
172
     1
173
     1
174
     0
175
     0
176
     5
177
     5
178
     5
  0
DIMSTYLE
  2
DMC
 70
     0
  3

  4

  5
OPEN
  6

  7

 40
1.0
 41
2.0
 42
0.0
 43
0.0
 44
1.0
 45
0.0
 46
0.0
 47
0.0
 48
0.0
140
3.0
141
2.0
142
0.0
143
0.03937007874016
144
1.0
145
0.0
146
0.7
147
0.5
 71
     0
 72
     0
 73
     0
 74
     0
 75
     0
 76
     0
 77
     3
 78
     8
170
     0
171
     3
172
     1
173
     0
174
     0
175
     0
176
     5
177
     5
178
     5
  0
ENDTAB
  0
ENDSEC
  0
SECTION
  2
BLOCKS
  0
BLOCK
  8
0
  2
$MODEL_SPACE
 70
     0
 10
0.0
 20
0.0
 30
0.0
  3
$MODEL_SPACE
  1

  0
ENDBLK
  8
0
  5
1C
  0
BLOCK
 67
     1
  8
0
  2
$PAPER_SPACE
 70
     0
 10
0.0
 20
0.0
 30
0.0
  3
$PAPER_SPACE
  1

  0
ENDBLK
  5
21
 67
     1
  8
0
  0
BLOCK
  8
0
  2
_OPEN
 70
     0
 10
0.0
 20
0.0
 30
0.0
  3
_OPEN
  1

  0
LINE
  5
10
  8
0
  6
BYBLOCK
 62
     0
 10
-1.0
 20
0.1666666666666666
 30
0.0
 11
0.0
 21
0.0
 31
0.0
  0
LINE
  5
12
  8
0
  6
BYBLOCK
 62
     0
 10
0.0
 20
0.0
 30
0.0
 11
-1.0
 21
-0.1666666666666666
 31
0.0
  0
LINE
  5
13
  8
0
  6
BYBLOCK
 62
     0
 10
0.0
 20
0.0
 30
0.0
 11
-1.0
 21
0.0
 31
0.0
  0
ENDBLK
  5
14
  8
0
  0
BLOCK
  8
0
  2
*D1
 70
     1
 10
0.0
 20
0.0
 30
0.0
  3
*D1
  1

  0
LINE
  5
352
  8
回07-寸法
  6
CONTINUOUS
 62
     5
 10
-1820.330177995028
 20
-2835.005193240366
 30
0.0
 11
-1820.330177995028
 21
-2800.445791906339
 31
0.0
  0
LINE
  5
353
  8
回07-寸法
  6
CONTINUOUS
 62
     5
 10
-1593.330177995028
 20
-2835.005193240366
 30
0.0
 11
-1593.330177995028
 21
-2800.445791906339
 31
0.0
  0
LINE
  5
354
  8
回07-寸法
  6
CONTINUOUS
 62
     5
 10
-1818.330177995028
 20
-2801.445791906339
 30
0.0
 11
-1595.330177995028
 21
-2801.445791906339
 31
0.0
  0
INSERT
  5
355
  8
回07-寸法
  6
CONTINUOUS
 62
     5
 66
     1
  2
_OPEN
 10
-1820.330177995028
 20
-2801.445791906339
 30
0.0
 41
2.0
 42
2.0
 43
2.0
 50
180.0
  0
SEQEND
  5
356
  8
回07-寸法
  6
CONTINUOUS
 62
     7
  0
INSERT
  5
357
  8
回07-寸法
  6
CONTINUOUS
 62
     5
 66
     1
  2
_OPEN
 10
-1593.330177995028
 20
-2801.445791906339
 30
0.0
 41
2.0
 42
2.0
 43
2.0
  0
SEQEND
  5
358
  8
回07-寸法
  6
CONTINUOUS
 62
     7
  0
INSERT
  5
359
  8
回07-寸法
  6
CONTINUOUS
 62
     5
 66
     1
  2
*X66
 10
0.0
 20
0.0
 30
0.0
  0
SEQEND
  5
54B
  8
回07-寸法
  6
CONTINUOUS
 62
     7
  0
POINT
  5
35A
  8
DEFPOINTS
  6
CONTINUOUS
 62
     0
 10
-1820.330177995028
 20
-2835.005193240366
 30
0.0
  0
POINT
  5
35B
  8
DEFPOINTS
  6
CONTINUOUS
 62
     0
 10
-1593.330177995028
 20
-2835.005193240366
 30
0.0
  0
POINT
  5
35C
  8
DEFPOINTS
  6
CONTINUOUS
 62
     0
 10
-1593.330177995028
 20
-2801.445791906339
 30
0.0
  0
ENDBLK
  5
35D
  8
0
 62
     1
  0
BLOCK
  8
0
  2
*D2
 70
     1
 10
0.0
 20
0.0
 30
0.0
  3
*D2
  1

  0
LINE
  5
343
  8
回07-寸法
  6
CONTINUOUS
 62
     5
 10
-1812.330177995028
 20
-2840.032591245604
 30
0.0
 11
-1812.330177995028
 21
-2808.674697704048
 31
0.0
  0
LINE
  5
344
  8
回07-寸法
  6
CONTINUOUS
 62
     5
 10
-1596.330177995028
 20
-2840.005193240367
 30
0.0
 11
-1596.330177995028
 21
-2808.674697704048
 31
0.0
  0
LINE
  5
345
  8
回07-寸法
  6
CONTINUOUS
 62
     5
 10
-1810.330177995028
 20
-2809.674697704048
 30
0.0
 11
-1598.330177995028
 21
-2809.674697704048
 31
0.0
  0
INSERT
  5
346
  8
回07-寸法
  6
CONTINUOUS
 62
     5
 66
     1
  2
_OPEN
 10
-1812.330177995028
 20
-2809.674697704048
 30
0.0
 41
2.0
 42
2.0
 43
2.0
 50
180.0
  0
SEQEND
  5
347
  8
回07-寸法
  6
CONTINUOUS
 62
     7
  0
INSERT
  5
348
  8
回07-寸法
  6
CONTINUOUS
 62
     5
 66
     1
  2
_OPEN
 10
-1596.330177995028
 20
-2809.674697704048
 30
0.0
 41
2.0
 42
2.0
 43
2.0
  0
SEQEND
  5
349
  8
回07-寸法
  6
CONTINUOUS
 62
     7
  0
TEXT
  5
34A
  8
回07-寸法
  6
CONTINUOUS
 62
     5
 10
-1727.611780232521
 20
-2808.874697704048
 30
0.0
 40
4.0
  1
216 (VIEWING AREA)
  7
MTX_ISOCP_SHXBIGFONT
  0
POINT
  5
34B
  8
DEFPOINTS
  6
CONTINUOUS
 62
     0
 10
-1812.330177995028
 20
-2840.032591245604
 30
0.0
  0
POINT
  5
34C
  8
DEFPOINTS
  6
CONTINUOUS
 62
     0
 10
-1596.330177995028
 20
-2840.005193240367
 30
0.0
  0
POINT
  5
34D
  8
DEFPOINTS
  6
CONTINUOUS
 62
     0
 10
-1596.330177995028
 20
-2809.674697704048
 30
0.0
  0
ENDBLK
  5
34E
  8
0
 62
     1
  0
BLOCK
  8
0
  2
*D3
 70
     1
 10
0.0
 20
0.0
 30
0.0
  3
*D3
  1

  0
LINE
  5
334
  8
回07-寸法
  6
CONTINUOUS
 62
     5
 10
-1810.330177995028
 20
-2842.005193240366
 30
0.0
 11
-1810.330177995028
 21
-2817.650070114961
 31
0.0
  0
LINE
  5
335
  8
回07-寸法
  6
CONTINUOUS
 62
     5
 10
-1598.330177995028
 20
-2842.005193240366
 30
0.0
 11
-1598.330177995028
 21
-2817.650070114961
 31
0.0
  0
LINE
  5
336
  8
回07-寸法
  6
CONTINUOUS
 62
     5
 10
-1808.330177995028
 20
-2818.650070114961
 30
0.0
 11
-1600.330177995028
 21
-2818.650070114961
 31
0.0
  0
INSERT
  5
337
  8
回07-寸法
  6
CONTINUOUS
 62
     5
 66
     1
  2
_OPEN
 10
-1810.330177995028
 20
-2818.650070114961
 30
0.0
 41
2.0
 42
2.0
 43
2.0
 50
180.0
  0
SEQEND
  5
338
  8
回07-寸法
  6
CONTINUOUS
 62
     7
  0
INSERT
  5
339
  8
回07-寸法
  6
CONTINUOUS
 62
     5
 66
     1
  2
_OPEN
 10
-1598.330177995028
 20
-2818.650070114961
 30
0.0
 41
2.0
 42
2.0
 43
2.0
  0
SEQEND
  5
33A
  8
回07-寸法
  6
CONTINUOUS
 62
     7
  0
TEXT
  5
33B
  8
回07-寸法
  6
CONTINUOUS
 62
     5
 10
-1726.259396385543
 20
-2817.850070114962
 30
0.0
 40
4.0
  1
212 (ACTIVE AREA)
  7
MTX_ISOCP_SHXBIGFONT
  0
POINT
  5
33C
  8
DEFPOINTS
  6
CONTINUOUS
 62
     0
 10
-1810.330177995028
 20
-2842.005193240366
 30
0.0
  0
POINT
  5
33D
  8
DEFPOINTS
  6
CONTINUOUS
 62
     0
 10
-1598.330177995028
 20
-2842.005193240366
 30
0.0
  0
POINT
  5
33E
  8
DEFPOINTS
  6
CONTINUOUS
 62
     0
 10
-1598.330177995028
 20
-2818.650070114961
 30
0.0
  0
ENDBLK
  5
33F
  8
0
 62
     1
  0
BLOCK
  8
0
  2
*D4
 70
     1
 10
0.0
 20
0.0
 30
0.0
  3
*D4
  1

  0
LINE
  5
31D
  8
回07-寸法
  6
CONTINUOUS
 62
     5
 10
-1900.330177995028
 20
-3070.83992307648
 30
0.0
 11
-1900.330177995028
 21
-3089.074227381964
 31
0.0
  0
LINE
  5
31E
  8
回07-寸法
  6
CONTINUOUS
 62
     5
 10
-1890.330177995028
 20
-3070.83992307648
 30
0.0
 11
-1890.330177995028
 21
-3089.074227381964
 31
0.0
  0
LINE
  5
31F
  8
回07-寸法
  6
CONTINUOUS
 62
     5
 10
-1888.330177995028
 20
-3088.074227381965
 30
0.0
 11
-1877.683721302114
 21
-3088.074227381965
 31
0.0
  0
LINE
  5
320
  8
回07-寸法
  6
CONTINUOUS
 62
     5
 10
-1900.330177995028
 20
-3088.074227381965
 30
0.0
 11
-1890.330177995028
 21
-3088.074227381965
 31
0.0
  0
LINE
  5
321
  8
回07-寸法
  6
CONTINUOUS
 62
     5
 10
-1902.330177995028
 20
-3088.074227381965
 30
0.0
 11
-1904.330177995028
 21
-3088.074227381965
 31
0.0
  0
INSERT
  5
322
  8
回07-寸法
  6
CONTINUOUS
 62
     5
 66
     1
  2
_OPEN
 10
-1900.330177995028
 20
-3088.074227381965
 30
0.0
 41
2.0
 42
2.0
 43
2.0
  0
SEQEND
  5
323
  8
回07-寸法
  6
CONTINUOUS
 62
     7
  0
INSERT
  5
324
  8
回07-寸法
  6
CONTINUOUS
 62
     5
 66
     1
  2
_OPEN
 10
-1890.330177995028
 20
-3088.074227381965
 30
0.0
 41
2.0
 42
2.0
 43
2.0
 50
180.0
  0
SEQEND
  5
325
  8
回07-寸法
  6
CONTINUOUS
 62
     7
  0
TEXT
  5
326
  8
回07-寸法
  6
CONTINUOUS
 62
     5
 10
-1885.582146498965
 20
-3087.274227381965
 30
0.0
 40
4.0
  1
(10)
  7
MTX_ISOCP_SHXBIGFONT
  0
POINT
  5
327
  8
DEFPOINTS
  6
CONTINUOUS
 62
     0
 10
-1900.330177995028
 20
-3070.83992307648
 30
0.0
  0
POINT
  5
328
  8
DEFPOINTS
  6
CONTINUOUS
 62
     0
 10
-1890.330177995028
 20
-3070.83992307648
 30
0.0
  0
POINT
  5
329
  8
DEFPOINTS
  6
CONTINUOUS
 62
     0
 10
-1890.330177995028
 20
-3088.074227381965
 30
0.0
  0
ENDBLK
  5
32A
  8
0
 62
     1
  0
BLOCK
  8
0
  2
*D5
 70
     1
 10
0.0
 20
0.0
 30
0.0
  3
*D5
  1

  0
LINE
  5
30B
  8
回07-寸法
  6
CONTINUOUS
 62
     5
 10
-1900.330177995028
 20
-3065.83992307648
 30
0.0
 11
-1900.330177995028
 21
-3058.19296794925
 31
0.0
  0
LINE
  5
30C
  8
回07-寸法
  6
CONTINUOUS
 62
     5
 10
-1895.330177995028
 20
-3065.83992307648
 30
0.0
 11
-1895.330177995028
 21
-3058.19296794925
 31
0.0
  0
LINE
  5
30D
  8
回07-寸法
  6
CONTINUOUS
 62
     5
 10
-1893.330177995028
 20
-3059.192967949251
 30
0.0
 11
-1888.426624604434
 21
-3059.192967949251
 31
0.0
  0
LINE
  5
30E
  8
回07-寸法
  6
CONTINUOUS
 62
     5
 10
-1900.330177995028
 20
-3059.192967949251
 30
0.0
 11
-1895.330177995028
 21
-3059.192967949251
 31
0.0
  0
LINE
  5
30F
  8
回07-寸法
  6
CONTINUOUS
 62
     5
 10
-1902.330177995028
 20
-3059.192967949251
 30
0.0
 11
-1904.330177995028
 21
-3059.192967949251
 31
0.0
  0
INSERT
  5
310
  8
回07-寸法
  6
CONTINUOUS
 62
     5
 66
     1
  2
_OPEN
 10
-1900.330177995028
 20
-3059.192967949251
 30
0.0
 41
2.0
 42
2.0
 43
2.0
  0
SEQEND
  5
311
  8
回07-寸法
  6
CONTINUOUS
 62
     7
  0
INSERT
  5
312
  8
回07-寸法
  6
CONTINUOUS
 62
     5
 66
     1
  2
_OPEN
 10
-1895.330177995028
 20
-3059.192967949251
 30
0.0
 41
2.0
 42
2.0
 43
2.0
 50
180.0
  0
SEQEND
  5
313
  8
回07-寸法
  6
CONTINUOUS
 62
     7
  0
TEXT
  5
314
  8
回07-寸法
  6
CONTINUOUS
 62
     5
 10
-1891.126624604434
 20
-3058.692967949251
 30
0.0
 40
4.0
  1
5
  7
MTX_ISOCP_SHXBIGFONT
  0
POINT
  5
315
  8
DEFPOINTS
  6
CONTINUOUS
 62
     0
 10
-1900.330177995028
 20
-3065.83992307648
 30
0.0
  0
POINT
  5
316
  8
DEFPOINTS
  6
CONTINUOUS
 62
     0
 10
-1895.330177995028
 20
-3065.83992307648
 30
0.0
  0
POINT
  5
317
  8
DEFPOINTS
  6
CONTINUOUS
 62
     0
 10
-1895.330177995028
 20
-3059.192967949251
 30
0.0
  0
ENDBLK
  5
318
  8
0
 62
     1
  0
BLOCK
  8
0
  2
*D6
 70
     1
 10
0.0
 20
0.0
 30
0.0
  3
*D6
  1

  0
LINE
  5
2FA
  8
回07-寸法
  6
CONTINUOUS
 62
     5
 10
-1900.330177995028
 20
-3065.83992307648
 30
0.0
 11
-1908.836303772021
 21
-3065.83992307648
 31
0.0
  0
LINE
  5
2FB
  8
回07-寸法
  6
CONTINUOUS
 62
     5
 10
-1900.330177995028
 20
-3072.83992307648
 30
0.0
 11
-1908.836303772021
 21
-3072.83992307648
 31
0.0
  0
LINE
  5
2FC
  8
回07-寸法
  6
CONTINUOUS
 62
     5
 10
-1907.836303772021
 20
-3074.83992307648
 30
0.0
 11
-1907.836303772021
 21
-3097.67701977416
 31
0.0
  0
LINE
  5
2FD
  8
回07-寸法
  6
CONTINUOUS
 62
     5
 10
-1907.836303772021
 20
-3065.83992307648
 30
0.0
 11
-1907.836303772021
 21
-3072.83992307648
 31
0.0
  0
LINE
  5
2FE
  8
回07-寸法
  6
CONTINUOUS
 62
     5
 10
-1907.836303772021
 20
-3063.83992307648
 30
0.0
 11
-1907.836303772021
 21
-3061.83992307648
 31
0.0
  0
INSERT
  5
2FF
  8
回07-寸法
  6
CONTINUOUS
 62
     5
 66
     1
  2
_OPEN
 10
-1907.836303772021
 20
-3065.83992307648
 30
0.0
 41
2.0
 42
2.0
 43
2.0
 50
270.0
  0
SEQEND
  5
300
  8
回07-寸法
  6
CONTINUOUS
 62
     7
  0
INSERT
  5
301
  8
回07-寸法
  6
CONTINUOUS
 62
     5
 66
     1
  2
_OPEN
 10
-1907.836303772021
 20
-3072.83992307648
 30
0.0
 41
2.0
 42
2.0
 43
2.0
 50
90.0
  0
SEQEND
  5
302
  8
回07-寸法
  6
CONTINUOUS
 62
     7
  0
INSERT
  5
303
  8
回07-寸法
  6
CONTINUOUS
 62
     5
 66
     1
  2
*X67
 10
0.0
 20
0.0
 30
0.0
  0
SEQEND
  5
551
  8
回07-寸法
  6
CONTINUOUS
 62
     7
  0
POINT
  5
304
  8
DEFPOINTS
  6
CONTINUOUS
 62
     0
 10
-1900.330177995028
 20
-3065.83992307648
 30
0.0
  0
POINT
  5
305
  8
DEFPOINTS
  6
CONTINUOUS
 62
     0
 10
-1900.330177995028
 20
-3072.83992307648
 30
0.0
  0
POINT
  5
306
  8
DEFPOINTS
  6
CONTINUOUS
 62
     0
 10
-1907.836303772021
 20
-3072.83992307648
 30
0.0
  0
ENDBLK
  5
307
  8
0
 62
     1
  0
BLOCK
  8
0
  2
*D7
 70
     1
 10
0.0
 20
0.0
 30
0.0
  3
*D7
  1

  0
LINE
  5
2B7
  8
回07-寸法
  6
CONTINUOUS
 62
     5
 10
-1812.330177995028
 20
-2840.032591245604
 30
0.0
 11
-1812.330177995028
 21
-2808.676907118185
 31
0.0
  0
LINE
  5
2B8
  8
回07-寸法
  6
CONTINUOUS
 62
     5
 10
-1820.330177995028
 20
-2835.005193240366
 30
0.0
 11
-1820.330177995028
 21
-2808.676907118185
 31
0.0
  0
LINE
  5
2B9
  8
回07-寸法
  6
CONTINUOUS
 62
     5
 10
-1810.330177995028
 20
-2809.676907118185
 30
0.0
 11
-1808.330177995028
 21
-2809.676907118185
 31
0.0
  0
LINE
  5
2BA
  8
回07-寸法
  6
CONTINUOUS
 62
     5
 10
-1822.330177995028
 20
-2809.676907118185
 30
0.0
 11
-1827.346110104468
 21
-2809.676907118185
 31
0.0
  0
LINE
  5
2BB
  8
回07-寸法
  6
CONTINUOUS
 62
     5
 10
-1812.330177995028
 20
-2809.676907118185
 30
0.0
 11
-1820.330177995028
 21
-2809.676907118185
 31
0.0
  0
INSERT
  5
2BC
  8
回07-寸法
  6
CONTINUOUS
 62
     5
 66
     1
  2
_OPEN
 10
-1812.330177995028
 20
-2809.676907118185
 30
0.0
 41
2.0
 42
2.0
 43
2.0
 50
180.0
  0
SEQEND
  5
2BD
  8
回07-寸法
  6
CONTINUOUS
 62
     7
  0
INSERT
  5
2BE
  8
回07-寸法
  6
CONTINUOUS
 62
     5
 66
     1
  2
_OPEN
 10
-1820.330177995028
 20
-2809.676907118185
 30
0.0
 41
2.0
 42
2.0
 43
2.0
  0
SEQEND
  5
2BF
  8
回07-寸法
  6
CONTINUOUS
 62
     7
  0
TEXT
  5
2C0
  8
回07-寸法
  6
CONTINUOUS
 62
     5
 10
-1827.446110104468
 20
-2809.176907118185
 30
0.0
 40
4.0
  1
8
  7
MTX_ISOCP_SHXBIGFONT
  0
POINT
  5
2C1
  8
DEFPOINTS
  6
CONTINUOUS
 62
     0
 10
-1812.330177995028
 20
-2840.032591245604
 30
0.0
  0
POINT
  5
2C2
  8
DEFPOINTS
  6
CONTINUOUS
 62
     0
 10
-1820.330177995028
 20
-2835.005193240366
 30
0.0
  0
POINT
  5
2C3
  8
DEFPOINTS
  6
CONTINUOUS
 62
     0
 10
-1820.330177995028
 20
-2809.676907118185
 30
0.0
  0
ENDBLK
  5
2C4
  8
0
 62
     1
  0
BLOCK
  8
0
  2
*D8
 70
     1
 10
0.0
 20
0.0
 30
0.0
  3
*D8
  1

  0
LINE
  5
2A6
  8
回07-寸法
  6
CONTINUOUS
 62
     5
 10
-1820.330177995028
 20
-2835.005193240366
 30
0.0
 11
-1820.330177995028
 21
-2817.650070114961
 31
0.0
  0
LINE
  5
2A7
  8
回07-寸法
  6
CONTINUOUS
 62
     5
 10
-1810.330177995028
 20
-2842.005193240366
 30
0.0
 11
-1810.330177995028
 21
-2817.650070114961
 31
0.0
  0
LINE
  5
2A8
  8
回07-寸法
  6
CONTINUOUS
 62
     5
 10
-1808.330177995028
 20
-2818.650070114961
 30
0.0
 11
-1806.330177995028
 21
-2818.650070114961
 31
0.0
  0
LINE
  5
2A9
  8
回07-寸法
  6
CONTINUOUS
 62
     5
 10
-1822.330177995028
 20
-2818.650070114961
 30
0.0
 11
-1829.383721302114
 21
-2818.650070114961
 31
0.0
  0
LINE
  5
2AA
  8
回07-寸法
  6
CONTINUOUS
 62
     5
 10
-1810.330177995028
 20
-2818.650070114961
 30
0.0
 11
-1820.330177995028
 21
-2818.650070114961
 31
0.0
  0
INSERT
  5
2AB
  8
回07-寸法
  6
CONTINUOUS
 62
     5
 66
     1
  2
_OPEN
 10
-1810.330177995028
 20
-2818.650070114961
 30
0.0
 41
2.0
 42
2.0
 43
2.0
 50
180.0
  0
SEQEND
  5
2AC
  8
回07-寸法
  6
CONTINUOUS
 62
     7
  0
INSERT
  5
2AD
  8
回07-寸法
  6
CONTINUOUS
 62
     5
 66
     1
  2
_OPEN
 10
-1820.330177995028
 20
-2818.650070114961
 30
0.0
 41
2.0
 42
2.0
 43
2.0
  0
SEQEND
  5
2AE
  8
回07-寸法
  6
CONTINUOUS
 62
     7
  0
TEXT
  5
2AF
  8
回07-寸法
  6
CONTINUOUS
 62
     5
 10
-1829.483721302114
 20
-2818.150070114961
 30
0.0
 40
4.0
  1
10
  7
MTX_ISOCP_SHXBIGFONT
  0
POINT
  5
2B0
  8
DEFPOINTS
  6
CONTINUOUS
 62
     0
 10
-1820.330177995028
 20
-2835.005193240366
 30
0.0
  0
POINT
  5
2B1
  8
DEFPOINTS
  6
CONTINUOUS
 62
     0
 10
-1810.330177995028
 20
-2842.005193240366
 30
0.0
  0
POINT
  5
2B2
  8
DEFPOINTS
  6
CONTINUOUS
 62
     0
 10
-1810.330177995028
 20
-2818.650070114961
 30
0.0
  0
ENDBLK
  5
2B3
  8
0
 62
     1
  0
BLOCK
  8
0
  2
*D9
 70
     1
 10
0.0
 20
0.0
 30
0.0
  3
*D9
  1

  0
LINE
  5
28F
  8
回07-寸法
  6
CONTINUOUS
 62
     5
 10
-1591.330177995028
 20
-3076.839923076481
 30
0.0
 11
-1591.330177995028
 21
-3089.46941913031
 31
0.0
  0
LINE
  5
290
  8
回07-寸法
  6
CONTINUOUS
 62
     5
 10
-1601.330177995028
 20
-3076.839923076481
 30
0.0
 11
-1601.330177995028
 21
-3089.46941913031
 31
0.0
  0
LINE
  5
291
  8
回07-寸法
  6
CONTINUOUS
 62
     5
 10
-1603.330177995028
 20
-3088.46941913031
 30
0.0
 11
-1617.527028388729
 21
-3088.46941913031
 31
0.0
  0
LINE
  5
292
  8
回07-寸法
  6
CONTINUOUS
 62
     5
 10
-1591.330177995028
 20
-3088.46941913031
 30
0.0
 11
-1601.330177995028
 21
-3088.46941913031
 31
0.0
  0
LINE
  5
293
  8
回07-寸法
  6
CONTINUOUS
 62
     5
 10
-1589.330177995028
 20
-3088.46941913031
 30
0.0
 11
-1587.330177995028
 21
-3088.46941913031
 31
0.0
  0
INSERT
  5
294
  8
回07-寸法
  6
CONTINUOUS
 62
     5
 66
     1
  2
_OPEN
 10
-1591.330177995028
 20
-3088.46941913031
 30
0.0
 41
2.0
 42
2.0
 43
2.0
 50
180.0
  0
SEQEND
  5
295
  8
回07-寸法
  6
CONTINUOUS
 62
     7
  0
INSERT
  5
296
  8
回07-寸法
  6
CONTINUOUS
 62
     5
 66
     1
  2
_OPEN
 10
-1601.330177995028
 20
-3088.46941913031
 30
0.0
 41
2.0
 42
2.0
 43
2.0
  0
SEQEND
  5
297
  8
回07-寸法
  6
CONTINUOUS
 62
     7
  0
TEXT
  5
298
  8
回07-寸法
  6
CONTINUOUS
 62
     5
 10
-1617.628603191878
 20
-3087.669419130311
 30
0.0
 40
4.0
  1
(1.45)
  7
MTX_ISOCP_SHXBIGFONT
  0
POINT
  5
299
  8
DEFPOINTS
  6
CONTINUOUS
 62
     0
 10
-1591.330177995028
 20
-3076.839923076481
 30
0.0
  0
POINT
  5
29A
  8
DEFPOINTS
  6
CONTINUOUS
 62
     0
 10
-1601.330177995028
 20
-3076.839923076481
 30
0.0
  0
POINT
  5
29B
  8
DEFPOINTS
  6
CONTINUOUS
 62
     0
 10
-1601.330177995028
 20
-3088.46941913031
 30
0.0
  0
ENDBLK
  5
29C
  8
0
 62
     1
  0
BLOCK
  8
0
  2
*D10
 70
     1
 10
0.0
 20
0.0
 30
0.0
  3
*D10
  1

  0
LINE
  5
26B
  8
回07-寸法
  6
CONTINUOUS
 62
     5
 10
-1593.330177995028
 20
-3061.83992307648
 30
0.0
 11
-1569.732059612802
 21
-3061.83992307648
 31
0.0
  0
LINE
  5
26D
  8
回07-寸法
  6
CONTINUOUS
 62
     5
 10
-1593.330177995028
 20
-3074.83992307648
 30
0.0
 11
-1569.732059612802
 21
-3074.83992307648
 31
0.0
  0
LINE
  5
26E
  8
回07-寸法
  6
CONTINUOUS
 62
     5
 10
-1570.732059612803
 20
-3076.839923076481
 30
0.0
 11
-1570.732059612803
 21
-3100.003997213364
 31
0.0
  0
LINE
  5
26F
  8
回07-寸法
  6
CONTINUOUS
 62
     5
 10
-1570.732059612803
 20
-3061.83992307648
 30
0.0
 11
-1570.732059612803
 21
-3074.83992307648
 31
0.0
  0
LINE
  5
270
  8
回07-寸法
  6
CONTINUOUS
 62
     5
 10
-1570.732059612803
 20
-3059.83992307648
 30
0.0
 11
-1570.732059612803
 21
-3057.83992307648
 31
0.0
  0
INSERT
  5
271
  8
回07-寸法
  6
CONTINUOUS
 62
     5
 66
     1
  2
_OPEN
 10
-1570.732059612803
 20
-3061.83992307648
 30
0.0
 41
2.0
 42
2.0
 43
2.0
 50
270.0
  0
SEQEND
  5
272
  8
回07-寸法
  6
CONTINUOUS
 62
     7
  0
INSERT
  5
273
  8
回07-寸法
  6
CONTINUOUS
 62
     5
 66
     1
  2
_OPEN
 10
-1570.732059612803
 20
-3074.83992307648
 30
0.0
 41
2.0
 42
2.0
 43
2.0
 50
90.0
  0
SEQEND
  5
274
  8
回07-寸法
  6
CONTINUOUS
 62
     7
  0
TEXT
  5
275
  8
回07-寸法
  6
CONTINUOUS
 62
     5
 10
-1571.232059612803
 20
-3100.103997213364
 30
0.0
 40
4.0
  1
2.1±0.2
 50
90.0
  7
MTX_ISOCP_SHXBIGFONT
  0
POINT
  5
276
  8
DEFPOINTS
  6
CONTINUOUS
 62
     0
 10
-1593.330177995028
 20
-3061.83992307648
 30
0.0
  0
POINT
  5
277
  8
DEFPOINTS
  6
CONTINUOUS
 62
     0
 10
-1593.330177995028
 20
-3074.83992307648
 30
0.0
  0
POINT
  5
278
  8
DEFPOINTS
  6
CONTINUOUS
 62
     0
 10
-1570.732059612803
 20
-3074.83992307648
 30
0.0
  0
ENDBLK
  5
279
  8
0
 62
     1
  0
BLOCK
  8
0
  2
*D11
 70
     1
 10
0.0
 20
0.0
 30
0.0
  3
*D11
  1

  0
LINE
  5
21E
  8
回07-寸法
  6
CONTINUOUS
 62
     5
 10
-1593.330177995028
 20
-3008.005193240367
 30
0.0
 11
-1580.858073430088
 21
-3008.005193240367
 31
0.0
  0
LINE
  5
21F
  8
回07-寸法
  6
CONTINUOUS
 62
     5
 10
-1593.830177995028
 20
-3004.555193240367
 30
0.0
 11
-1580.858073430088
 21
-3004.555193240367
 31
0.0
  0
LINE
  5
220
  8
回07-寸法
  6
CONTINUOUS
 62
     5
 10
-1581.858073430089
 20
-3002.555193240367
 30
0.0
 11
-1581.858073430089
 21
-3000.555193240367
 31
0.0
  0
LINE
  5
221
  8
回07-寸法
  6
CONTINUOUS
 62
     5
 10
-1581.858073430089
 20
-3010.005193240366
 30
0.0
 11
-1581.858073430089
 21
-3025.002043634067
 31
0.0
  0
LINE
  5
222
  8
回07-寸法
  6
CONTINUOUS
 62
     5
 10
-1581.858073430089
 20
-3004.555193240367
 30
0.0
 11
-1581.858073430089
 21
-3008.005193240367
 31
0.0
  0
INSERT
  5
223
  8
回07-寸法
  6
CONTINUOUS
 62
     5
 66
     1
  2
_OPEN
 10
-1581.858073430089
 20
-3004.555193240367
 30
0.0
 41
2.0
 42
2.0
 43
2.0
 50
270.0
  0
SEQEND
  5
224
  8
回07-寸法
  6
CONTINUOUS
 62
     7
  0
INSERT
  5
225
  8
回07-寸法
  6
CONTINUOUS
 62
     5
 66
     1
  2
_OPEN
 10
-1581.858073430089
 20
-3008.005193240367
 30
0.0
 41
2.0
 42
2.0
 43
2.0
 50
90.0
  0
SEQEND
  5
226
  8
回07-寸法
  6
CONTINUOUS
 62
     7
  0
TEXT
  5
227
  8
回07-寸法
  6
CONTINUOUS
 62
     5
 10
-1582.558073430089
 20
-3025.103618437217
 30
0.0
 40
4.0
  1
(3.45)
 50
90.0
  7
MTX_ISOCP_SHXBIGFONT
  0
POINT
  5
228
  8
DEFPOINTS
  6
CONTINUOUS
 62
     0
 10
-1593.330177995028
 20
-3008.005193240367
 30
0.0
  0
POINT
  5
229
  8
DEFPOINTS
  6
CONTINUOUS
 62
     0
 10
-1593.830177995028
 20
-3004.555193240367
 30
0.0
  0
POINT
  5
22A
  8
DEFPOINTS
  6
CONTINUOUS
 62
     0
 10
-1581.858073430089
 20
-3004.555193240367
 30
0.0
  0
ENDBLK
  5
22B
  8
0
 62
     1
  0
BLOCK
  8
0
  2
*D12
 70
     1
 10
0.0
 20
0.0
 30
0.0
  3
*D12
  1

  0
LINE
  5
20D
  8
回07-寸法
  6
CONTINUOUS
 62
     5
 10
-1593.730177995028
 20
-3004.555193240367
 30
0.0
 11
-1580.858073430088
 21
-3004.555193240367
 31
0.0
  0
LINE
  5
20E
  8
回07-寸法
  6
CONTINUOUS
 62
     5
 10
-1593.830177995028
 20
-3002.555193240367
 30
0.0
 11
-1580.858073430088
 21
-3002.555193240367
 31
0.0
  0
LINE
  5
20F
  8
回07-寸法
  6
CONTINUOUS
 62
     5
 10
-1581.858073430089
 20
-3006.555193240366
 30
0.0
 11
-1581.858073430089
 21
-3008.555193240367
 31
0.0
  0
LINE
  5
210
  8
回07-寸法
  6
CONTINUOUS
 62
     5
 10
-1581.858073430089
 20
-3000.555193240367
 30
0.0
 11
-1581.858073430089
 21
-2992.719094887882
 31
0.0
  0
LINE
  5
211
  8
回07-寸法
  6
CONTINUOUS
 62
     5
 10
-1581.858073430089
 20
-3004.555193240367
 30
0.0
 11
-1581.858073430089
 21
-3002.555193240367
 31
0.0
  0
INSERT
  5
212
  8
回07-寸法
  6
CONTINUOUS
 62
     5
 66
     1
  2
_OPEN
 10
-1581.858073430089
 20
-3004.555193240367
 30
0.0
 41
2.0
 42
2.0
 43
2.0
 50
90.0
  0
SEQEND
  5
213
  8
回07-寸法
  6
CONTINUOUS
 62
     7
  0
INSERT
  5
214
  8
回07-寸法
  6
CONTINUOUS
 62
     5
 66
     1
  2
_OPEN
 10
-1581.858073430089
 20
-3002.555193240367
 30
0.0
 41
2.0
 42
2.0
 43
2.0
 50
270.0
  0
SEQEND
  5
215
  8
回07-寸法
  6
CONTINUOUS
 62
     7
  0
TEXT
  5
216
  8
回07-寸法
  6
CONTINUOUS
 62
     5
 10
-1582.558073430089
 20
-2998.617520084732
 30
0.0
 40
4.0
  1
(2)
 50
90.0
  7
MTX_ISOCP_SHXBIGFONT
  0
POINT
  5
217
  8
DEFPOINTS
  6
CONTINUOUS
 62
     0
 10
-1593.730177995028
 20
-3004.555193240367
 30
0.0
  0
POINT
  5
218
  8
DEFPOINTS
  6
CONTINUOUS
 62
     0
 10
-1593.830177995028
 20
-3002.555193240367
 30
0.0
  0
POINT
  5
219
  8
DEFPOINTS
  6
CONTINUOUS
 62
     0
 10
-1581.858073430089
 20
-3002.555193240367
 30
0.0
  0
ENDBLK
  5
21A
  8
0
 62
     1
  0
BLOCK
  8
0
  2
*D13
 70
     1
 10
0.0
 20
0.0
 30
0.0
  3
*D13
  1

  0
LINE
  5
1FE
  8
回07-寸法
  6
CONTINUOUS
 62
     5
 10
-1900.330177995028
 20
-2920.880193240366
 30
0.0
 11
-1900.330177995028
 21
-2892.055732052197
 31
0.0
  0
LINE
  5
1FF
  8
回07-寸法
  6
CONTINUOUS
 62
     5
 10
-1820.330177995028
 20
-2894.198401600624
 30
0.0
 11
-1820.330177995028
 21
-2892.055732052197
 31
0.0
  0
LINE
  5
200
  8
回07-寸法
  6
CONTINUOUS
 62
     5
 10
-1898.330177995028
 20
-2893.055732052197
 30
0.0
 11
-1822.330177995028
 21
-2893.055732052197
 31
0.0
  0
INSERT
  5
201
  8
回07-寸法
  6
CONTINUOUS
 62
     5
 66
     1
  2
_OPEN
 10
-1900.330177995028
 20
-2893.055732052197
 30
0.0
 41
2.0
 42
2.0
 43
2.0
 50
180.0
  0
SEQEND
  5
202
  8
回07-寸法
  6
CONTINUOUS
 62
     7
  0
INSERT
  5
203
  8
回07-寸法
  6
CONTINUOUS
 62
     5
 66
     1
  2
_OPEN
 10
-1820.330177995028
 20
-2893.055732052197
 30
0.0
 41
2.0
 42
2.0
 43
2.0
  0
SEQEND
  5
204
  8
回07-寸法
  6
CONTINUOUS
 62
     7
  0
INSERT
  5
205
  8
回07-寸法
  6
CONTINUOUS
 62
     5
 66
     1
  2
*X68
 10
0.0
 20
0.0
 30
0.0
  0
SEQEND
  5
557
  8
回07-寸法
  6
CONTINUOUS
 62
     7
  0
POINT
  5
206
  8
DEFPOINTS
  6
CONTINUOUS
 62
     0
 10
-1900.330177995028
 20
-2920.880193240366
 30
0.0
  0
POINT
  5
207
  8
DEFPOINTS
  6
CONTINUOUS
 62
     0
 10
-1820.330177995028
 20
-2894.198401600624
 30
0.0
  0
POINT
  5
208
  8
DEFPOINTS
  6
CONTINUOUS
 62
     0
 10
-1820.330177995028
 20
-2893.055732052197
 30
0.0
  0
ENDBLK
  5
209
  8
0
 62
     1
  0
BLOCK
  8
0
  2
*D14
 70
     1
 10
0.0
 20
0.0
 30
0.0
  3
*D14
  1

  0
LINE
  5
1EF
  8
回07-寸法
  6
CONTINUOUS
 62
     5
 10
-1820.330177995028
 20
-2835.005193240366
 30
0.0
 11
-1820.330177995028
 21
-2828.274134705446
 31
0.0
  0
LINE
  5
1F0
  8
回07-寸法
  6
CONTINUOUS
 62
     5
 10
-1704.330177995028
 20
-2825.555193240367
 30
0.0
 11
-1704.330177995028
 21
-2830.274134705446
 31
0.0
  0
LINE
  5
1F1
  8
回07-寸法
  6
CONTINUOUS
 62
     5
 10
-1818.330177995028
 20
-2829.274134705446
 30
0.0
 11
-1706.330177995028
 21
-2829.274134705446
 31
0.0
  0
INSERT
  5
1F2
  8
回07-寸法
  6
CONTINUOUS
 62
     5
 66
     1
  2
_OPEN
 10
-1820.330177995028
 20
-2829.274134705446
 30
0.0
 41
2.0
 42
2.0
 43
2.0
 50
180.0
  0
SEQEND
  5
1F3
  8
回07-寸法
  6
CONTINUOUS
 62
     7
  0
INSERT
  5
1F4
  8
回07-寸法
  6
CONTINUOUS
 62
     5
 66
     1
  2
_OPEN
 10
-1704.330177995028
 20
-2829.274134705446
 30
0.0
 41
2.0
 42
2.0
 43
2.0
  0
SEQEND
  5
1F5
  8
回07-寸法
  6
CONTINUOUS
 62
     7
  0
TEXT
  5
1F6
  8
回07-寸法
  6
CONTINUOUS
 62
     5
 10
-1795.129390593453
 20
-2828.574134705446
 30
0.0
 40
4.0
  1
116 (ACTIVE AREA CENTER)
  7
MTX_ISOCP_SHXBIGFONT
  0
POINT
  5
1F7
  8
DEFPOINTS
  6
CONTINUOUS
 62
     0
 10
-1820.330177995028
 20
-2835.005193240366
 30
0.0
  0
POINT
  5
1F8
  8
DEFPOINTS
  6
CONTINUOUS
 62
     0
 10
-1704.330177995028
 20
-2825.555193240367
 30
0.0
  0
POINT
  5
1F9
  8
DEFPOINTS
  6
CONTINUOUS
 62
     0
 10
-1704.330177995028
 20
-2829.274134705446
 30
0.0
  0
ENDBLK
  5
1FA
  8
0
 62
     1
  0
BLOCK
  8
0
  2
*D15
 70
     1
 10
0.0
 20
0.0
 30
0.0
  3
*D15
  1

  0
LINE
  5
1E0
  8
回07-寸法
  6
CONTINUOUS
 62
     5
 10
-1593.330177995028
 20
-2835.005193240366
 30
0.0
 11
-1545.746180316679
 21
-2835.005193240366
 31
0.0
  0
LINE
  5
1E1
  8
回07-寸法
  6
CONTINUOUS
 62
     5
 10
-1593.330177995028
 20
-3008.005193240367
 30
0.0
 11
-1545.746180316679
 21
-3008.005193240367
 31
0.0
  0
LINE
  5
1E2
  8
回07-寸法
  6
CONTINUOUS
 62
     5
 10
-1546.746180316679
 20
-2837.005193240366
 30
0.0
 11
-1546.746180316679
 21
-3006.005193240366
 31
0.0
  0
INSERT
  5
1E3
  8
回07-寸法
  6
CONTINUOUS
 62
     5
 66
     1
  2
_OPEN
 10
-1546.746180316679
 20
-2835.005193240366
 30
0.0
 41
2.0
 42
2.0
 43
2.0
 50
90.0
  0
SEQEND
  5
1E4
  8
回07-寸法
  6
CONTINUOUS
 62
     7
  0
INSERT
  5
1E5
  8
回07-寸法
  6
CONTINUOUS
 62
     5
 66
     1
  2
_OPEN
 10
-1546.746180316679
 20
-3008.005193240367
 30
0.0
 41
2.0
 42
2.0
 43
2.0
 50
270.0
  0
SEQEND
  5
1E6
  8
回07-寸法
  6
CONTINUOUS
 62
     7
  0
INSERT
  5
1E7
  8
回07-寸法
  6
CONTINUOUS
 62
     5
 66
     1
  2
*X69
 10
0.0
 20
0.0
 30
0.0
  0
SEQEND
  5
55D
  8
回07-寸法
  6
CONTINUOUS
 62
     7
  0
POINT
  5
1E8
  8
DEFPOINTS
  6
CONTINUOUS
 62
     0
 10
-1593.330177995028
 20
-2835.005193240366
 30
0.0
  0
POINT
  5
1E9
  8
DEFPOINTS
  6
CONTINUOUS
 62
     0
 10
-1593.330177995028
 20
-3008.005193240367
 30
0.0
  0
POINT
  5
1EA
  8
DEFPOINTS
  6
CONTINUOUS
 62
     0
 10
-1546.746180316679
 20
-3008.005193240367
 30
0.0
  0
ENDBLK
  5
1EB
  8
0
 62
     1
  0
BLOCK
  8
0
  2
*D16
 70
     1
 10
0.0
 20
0.0
 30
0.0
  3
*D16
  1

  0
LINE
  5
1D1
  8
回07-寸法
  6
CONTINUOUS
 62
     5
 10
-1596.330177995028
 20
-2840.005193240367
 30
0.0
 11
-1553.29660857791
 21
-2840.005193240367
 31
0.0
  0
LINE
  5
1D2
  8
回07-寸法
  6
CONTINUOUS
 62
     5
 10
-1596.330177995028
 20
-3003.005193240366
 30
0.0
 11
-1553.29660857791
 21
-3003.005193240366
 31
0.0
  0
LINE
  5
1D3
  8
回07-寸法
  6
CONTINUOUS
 62
     5
 10
-1554.29660857791
 20
-2842.005193240366
 30
0.0
 11
-1554.29660857791
 21
-3001.005193240366
 31
0.0
  0
INSERT
  5
1D4
  8
回07-寸法
  6
CONTINUOUS
 62
     5
 66
     1
  2
_OPEN
 10
-1554.29660857791
 20
-2840.005193240367
 30
0.0
 41
2.0
 42
2.0
 43
2.0
 50
90.0
  0
SEQEND
  5
1D5
  8
回07-寸法
  6
CONTINUOUS
 62
     7
  0
INSERT
  5
1D6
  8
回07-寸法
  6
CONTINUOUS
 62
     5
 66
     1
  2
_OPEN
 10
-1554.29660857791
 20
-3003.005193240366
 30
0.0
 41
2.0
 42
2.0
 43
2.0
 50
270.0
  0
SEQEND
  5
1D7
  8
回07-寸法
  6
CONTINUOUS
 62
     7
  0
TEXT
  5
1D8
  8
回07-寸法
  6
CONTINUOUS
 62
     5
 10
-1554.996608577909
 20
-2945.33035441958
 30
0.0
 40
4.0
  1
163 (VIEWING AREA)
 50
90.0
  7
MTX_ISOCP_SHXBIGFONT
  0
POINT
  5
1D9
  8
DEFPOINTS
  6
CONTINUOUS
 62
     0
 10
-1596.330177995028
 20
-2840.005193240367
 30
0.0
  0
POINT
  5
1DA
  8
DEFPOINTS
  6
CONTINUOUS
 62
     0
 10
-1596.330177995028
 20
-3003.005193240366
 30
0.0
  0
POINT
  5
1DB
  8
DEFPOINTS
  6
CONTINUOUS
 62
     0
 10
-1554.29660857791
 20
-3003.005193240366
 30
0.0
  0
ENDBLK
  5
1DC
  8
0
 62
     1
  0
BLOCK
  8
0
  2
*D17
 70
     1
 10
0.0
 20
0.0
 30
0.0
  3
*D17
  1

  0
LINE
  5
1C2
  8
回07-寸法
  6
CONTINUOUS
 62
     5
 10
-1598.330177995028
 20
-2842.005193240366
 30
0.0
 11
-1561.929421609735
 21
-2842.005193240366
 31
0.0
  0
LINE
  5
1C3
  8
回07-寸法
  6
CONTINUOUS
 62
     5
 10
-1598.330177995028
 20
-3001.005193240366
 30
0.0
 11
-1561.929421609735
 21
-3001.005193240366
 31
0.0
  0
LINE
  5
1C4
  8
回07-寸法
  6
CONTINUOUS
 62
     5
 10
-1562.929421609735
 20
-2844.005193240366
 30
0.0
 11
-1562.929421609735
 21
-2999.005193240366
 31
0.0
  0
INSERT
  5
1C5
  8
回07-寸法
  6
CONTINUOUS
 62
     5
 66
     1
  2
_OPEN
 10
-1562.929421609735
 20
-2842.005193240366
 30
0.0
 41
2.0
 42
2.0
 43
2.0
 50
90.0
  0
SEQEND
  5
1C6
  8
回07-寸法
  6
CONTINUOUS
 62
     7
  0
INSERT
  5
1C7
  8
回07-寸法
  6
CONTINUOUS
 62
     5
 66
     1
  2
_OPEN
 10
-1562.929421609735
 20
-3001.005193240366
 30
0.0
 41
2.0
 42
2.0
 43
2.0
 50
270.0
  0
SEQEND
  5
1C8
  8
回07-寸法
  6
CONTINUOUS
 62
     7
  0
TEXT
  5
1C9
  8
回07-寸法
  6
CONTINUOUS
 62
     5
 10
-1563.629421609735
 20
-2944.435110960377
 30
0.0
 40
4.0
  1
159 (ACTIVE AREA)
 50
90.0
  7
MTX_ISOCP_SHXBIGFONT
  0
POINT
  5
1CA
  8
DEFPOINTS
  6
CONTINUOUS
 62
     0
 10
-1598.330177995028
 20
-2842.005193240366
 30
0.0
  0
POINT
  5
1CB
  8
DEFPOINTS
  6
CONTINUOUS
 62
     0
 10
-1598.330177995028
 20
-3001.005193240366
 30
0.0
  0
POINT
  5
1CC
  8
DEFPOINTS
  6
CONTINUOUS
 62
     0
 10
-1562.929421609735
 20
-3001.005193240366
 30
0.0
  0
ENDBLK
  5
1CD
  8
0
 62
     1
  0
BLOCK
  8
0
  2
*D18
 70
     1
 10
0.0
 20
0.0
 30
0.0
  3
*D18
  1

  0
LINE
  5
1B3
  8
回07-寸法
  6
CONTINUOUS
 62
     5
 10
-1593.330177995028
 20
-2921.505193240367
 30
0.0
 11
-1569.219675744145
 21
-2921.505193240367
 31
0.0
  0
LINE
  5
1B4
  8
回07-寸法
  6
CONTINUOUS
 62
     5
 10
-1593.330177995028
 20
-3008.005193240367
 30
0.0
 11
-1569.219675744145
 21
-3008.005193240367
 31
0.0
  0
LINE
  5
1B5
  8
回07-寸法
  6
CONTINUOUS
 62
     5
 10
-1570.219675744145
 20
-2923.505193240366
 30
0.0
 11
-1570.219675744145
 21
-3006.005193240366
 31
0.0
  0
INSERT
  5
1B6
  8
回07-寸法
  6
CONTINUOUS
 62
     5
 66
     1
  2
_OPEN
 10
-1570.219675744145
 20
-2921.505193240367
 30
0.0
 41
2.0
 42
2.0
 43
2.0
 50
90.0
  0
SEQEND
  5
1B7
  8
回07-寸法
  6
CONTINUOUS
 62
     7
  0
INSERT
  5
1B8
  8
回07-寸法
  6
CONTINUOUS
 62
     5
 66
     1
  2
_OPEN
 10
-1570.219675744145
 20
-3008.005193240367
 30
0.0
 41
2.0
 42
2.0
 43
2.0
 50
270.0
  0
SEQEND
  5
1B9
  8
回07-寸法
  6
CONTINUOUS
 62
     7
  0
TEXT
  5
1BA
  8
回07-寸法
  6
CONTINUOUS
 62
     5
 10
-1570.919675744145
 20
-2998.309769723437
 30
0.0
 40
4.0
  1
86.5 (ACTIVE AREA CENTER)
 50
90.0
  7
MTX_ISOCP_SHXBIGFONT
  0
POINT
  5
1BB
  8
DEFPOINTS
  6
CONTINUOUS
 62
     0
 10
-1593.330177995028
 20
-2921.505193240367
 30
0.0
  0
POINT
  5
1BC
  8
DEFPOINTS
  6
CONTINUOUS
 62
     0
 10
-1593.330177995028
 20
-3008.005193240367
 30
0.0
  0
POINT
  5
1BD
  8
DEFPOINTS
  6
CONTINUOUS
 62
     0
 10
-1570.219675744145
 20
-3008.005193240367
 30
0.0
  0
ENDBLK
  5
1BE
  8
0
 62
     1
  0
BLOCK
  8
0
  2
*D19
 70
     1
 10
0.0
 20
0.0
 30
0.0
  3
*D19
  1

  0
LINE
  5
1A2
  8
回07-寸法
  6
CONTINUOUS
 62
     5
 10
-1598.330177995028
 20
-3001.005193240366
 30
0.0
 11
-1561.929421609735
 21
-3001.005193240366
 31
0.0
  0
LINE
  5
1A3
  8
回07-寸法
  6
CONTINUOUS
 62
     5
 10
-1593.330177995028
 20
-3008.005193240367
 30
0.0
 11
-1561.929421609735
 21
-3008.005193240367
 31
0.0
  0
LINE
  5
1A4
  8
回07-寸法
  6
CONTINUOUS
 62
     5
 10
-1562.929421609735
 20
-2999.005193240366
 30
0.0
 11
-1562.929421609735
 21
-2997.005193240367
 31
0.0
  0
LINE
  5
1A5
  8
回07-寸法
  6
CONTINUOUS
 62
     5
 10
-1562.929421609735
 20
-3010.005193240366
 30
0.0
 11
-1562.929421609735
 21
-3014.605193240366
 31
0.0
  0
LINE
  5
1A6
  8
回07-寸法
  6
CONTINUOUS
 62
     5
 10
-1562.929421609735
 20
-3001.005193240366
 30
0.0
 11
-1562.929421609735
 21
-3008.005193240367
 31
0.0
  0
INSERT
  5
1A7
  8
回07-寸法
  6
CONTINUOUS
 62
     5
 66
     1
  2
_OPEN
 10
-1562.929421609735
 20
-3001.005193240366
 30
0.0
 41
2.0
 42
2.0
 43
2.0
 50
270.0
  0
SEQEND
  5
1A8
  8
回07-寸法
  6
CONTINUOUS
 62
     7
  0
INSERT
  5
1A9
  8
回07-寸法
  6
CONTINUOUS
 62
     5
 66
     1
  2
_OPEN
 10
-1562.929421609735
 20
-3008.005193240367
 30
0.0
 41
2.0
 42
2.0
 43
2.0
 50
90.0
  0
SEQEND
  5
1AA
  8
回07-寸法
  6
CONTINUOUS
 62
     7
  0
TEXT
  5
1AB
  8
回07-寸法
  6
CONTINUOUS
 62
     5
 10
-1563.429421609735
 20
-3014.705193240367
 30
0.0
 40
4.0
  1
7
 50
90.0
  7
MTX_ISOCP_SHXBIGFONT
  0
POINT
  5
1AC
  8
DEFPOINTS
  6
CONTINUOUS
 62
     0
 10
-1598.330177995028
 20
-3001.005193240366
 30
0.0
  0
POINT
  5
1AD
  8
DEFPOINTS
  6
CONTINUOUS
 62
     0
 10
-1593.330177995028
 20
-3008.005193240367
 30
0.0
  0
POINT
  5
1AE
  8
DEFPOINTS
  6
CONTINUOUS
 62
     0
 10
-1562.929421609735
 20
-3008.005193240367
 30
0.0
  0
ENDBLK
  5
1AF
  8
0
 62
     1
  0
BLOCK
  8
0
  2
*D20
 70
     1
 10
0.0
 20
0.0
 30
0.0
  3
*D20
  1

  0
LINE
  5
191
  8
回07-寸法
  6
CONTINUOUS
 62
     5
 10
-1596.330177995028
 20
-3003.005193240366
 30
0.0
 11
-1553.29660857791
 21
-3003.005193240366
 31
0.0
  0
LINE
  5
192
  8
回07-寸法
  6
CONTINUOUS
 62
     5
 10
-1593.330177995028
 20
-3008.005193240367
 30
0.0
 11
-1553.29660857791
 21
-3008.005193240367
 31
0.0
  0
LINE
  5
193
  8
回07-寸法
  6
CONTINUOUS
 62
     5
 10
-1554.29660857791
 20
-3001.005193240366
 30
0.0
 11
-1554.29660857791
 21
-2999.005193240366
 31
0.0
  0
LINE
  5
194
  8
回07-寸法
  6
CONTINUOUS
 62
     5
 10
-1554.29660857791
 20
-3010.005193240366
 30
0.0
 11
-1554.29660857791
 21
-3014.770878665316
 31
0.0
  0
LINE
  5
195
  8
回07-寸法
  6
CONTINUOUS
 62
     5
 10
-1554.29660857791
 20
-3003.005193240366
 30
0.0
 11
-1554.29660857791
 21
-3008.005193240367
 31
0.0
  0
INSERT
  5
196
  8
回07-寸法
  6
CONTINUOUS
 62
     5
 66
     1
  2
_OPEN
 10
-1554.29660857791
 20
-3003.005193240366
 30
0.0
 41
2.0
 42
2.0
 43
2.0
 50
270.0
  0
SEQEND
  5
197
  8
回07-寸法
  6
CONTINUOUS
 62
     7
  0
INSERT
  5
198
  8
回07-寸法
  6
CONTINUOUS
 62
     5
 66
     1
  2
_OPEN
 10
-1554.29660857791
 20
-3008.005193240367
 30
0.0
 41
2.0
 42
2.0
 43
2.0
 50
90.0
  0
SEQEND
  5
199
  8
回07-寸法
  6
CONTINUOUS
 62
     7
  0
TEXT
  5
19A
  8
回07-寸法
  6
CONTINUOUS
 62
     5
 10
-1554.79660857791
 20
-3014.788035952841
 30
0.0
 40
4.0
  1
5
 50
90.0
  7
MTX_ISOCP_SHXBIGFONT
  0
POINT
  5
19B
  8
DEFPOINTS
  6
CONTINUOUS
 62
     0
 10
-1596.330177995028
 20
-3003.005193240366
 30
0.0
  0
POINT
  5
19C
  8
DEFPOINTS
  6
CONTINUOUS
 62
     0
 10
-1593.330177995028
 20
-3008.005193240367
 30
0.0
  0
POINT
  5
19D
  8
DEFPOINTS
  6
CONTINUOUS
 62
     0
 10
-1554.29660857791
 20
-3008.005193240367
 30
0.0
  0
ENDBLK
  5
19E
  8
0
 62
     1
  0
BLOCK
  8
0
  2
*D21
 70
     1
 10
0.0
 20
0.0
 30
0.0
  3
*D21
  1

  0
LINE
  5
17C
  8
回07-寸法
  6
CONTINUOUS
 62
     5
 10
-1899.830177995028
 20
-2918.380193240366
 30
0.0
 11
-1915.148297682795
 21
-2918.380193240366
 31
0.0
  0
LINE
  5
17D
  8
回07-寸法
  6
CONTINUOUS
 62
     5
 10
-1899.830177995028
 20
-2924.630193240366
 30
0.0
 11
-1915.148297682795
 21
-2924.630193240366
 31
0.0
  0
LINE
  5
17E
  8
回07-寸法
  6
CONTINUOUS
 62
     5
 10
-1914.148297682795
 20
-2916.380193240366
 30
0.0
 11
-1914.148297682795
 21
-2914.380193240366
 31
0.0
  0
LINE
  5
17F
  8
回07-寸法
  6
CONTINUOUS
 62
     5
 10
-1914.148297682795
 20
-2926.630193240366
 30
0.0
 11
-1914.148297682795
 21
-2946.737728673437
 31
0.0
  0
LINE
  5
180
  8
回07-寸法
  6
CONTINUOUS
 62
     5
 10
-1914.148297682795
 20
-2918.380193240366
 30
0.0
 11
-1914.148297682795
 21
-2924.630193240366
 31
0.0
  0
INSERT
  5
181
  8
回07-寸法
  6
CONTINUOUS
 62
     5
 66
     1
  2
_OPEN
 10
-1914.148297682795
 20
-2918.380193240366
 30
0.0
 41
2.0
 42
2.0
 43
2.0
 50
270.0
  0
SEQEND
  5
182
  8
回07-寸法
  6
CONTINUOUS
 62
     7
  0
INSERT
  5
183
  8
回07-寸法
  6
CONTINUOUS
 62
     5
 66
     1
  2
_OPEN
 10
-1914.148297682795
 20
-2924.630193240366
 30
0.0
 41
2.0
 42
2.0
 43
2.0
 50
90.0
  0
SEQEND
  5
184
  8
回07-寸法
  6
CONTINUOUS
 62
     7
  0
INSERT
  5
185
  8
回07-寸法
  6
CONTINUOUS
 62
     5
 66
     1
  2
*X70
 10
0.0
 20
0.0
 30
0.0
  0
SEQEND
  5
563
  8
回07-寸法
  6
CONTINUOUS
 62
     7
  0
POINT
  5
186
  8
DEFPOINTS
  6
CONTINUOUS
 62
     0
 10
-1899.830177995028
 20
-2918.380193240366
 30
0.0
  0
POINT
  5
187
  8
DEFPOINTS
  6
CONTINUOUS
 62
     0
 10
-1899.830177995028
 20
-2924.630193240366
 30
0.0
  0
POINT
  5
188
  8
DEFPOINTS
  6
CONTINUOUS
 62
     0
 10
-1914.148297682795
 20
-2924.630193240366
 30
0.0
  0
ENDBLK
  5
189
  8
0
 62
     1
  0
BLOCK
  8
0
  2
*D22
 70
     1
 10
0.0
 20
0.0
 30
0.0
  3
*D22
  1

  0
LINE
  5
147
  8
回07-寸法
  6
CONTINUOUS
 62
     5
 10
-1824.522107903394
 20
-2913.506396274637
 30
0.0
 11
-1840.145871145505
 21
-2913.506396274637
 31
0.0
  0
LINE
  5
148
  8
回07-寸法
  6
CONTINUOUS
 62
     5
 10
-1824.517934317688
 20
-2929.505193240366
 30
0.0
 11
-1840.145871145505
 21
-2929.505193240366
 31
0.0
  0
LINE
  5
149
  8
回07-寸法
  6
CONTINUOUS
 62
     5
 10
-1839.145871145505
 20
-2911.506396274637
 30
0.0
 11
-1839.145871145505
 21
-2909.506396274638
 31
0.0
  0
LINE
  5
14A
  8
回07-寸法
  6
CONTINUOUS
 62
     5
 10
-1839.145871145505
 20
-2931.505193240366
 30
0.0
 11
-1839.145871145505
 21
-2938.303618437216
 31
0.0
  0
LINE
  5
14B
  8
回07-寸法
  6
CONTINUOUS
 62
     5
 10
-1839.145871145505
 20
-2913.506396274637
 30
0.0
 11
-1839.145871145505
 21
-2929.505193240366
 31
0.0
  0
INSERT
  5
14C
  8
回07-寸法
  6
CONTINUOUS
 62
     5
 66
     1
  2
_OPEN
 10
-1839.145871145505
 20
-2913.506396274637
 30
0.0
 41
2.0
 42
2.0
 43
2.0
 50
270.0
  0
SEQEND
  5
14D
  8
回07-寸法
  6
CONTINUOUS
 62
     7
  0
INSERT
  5
14E
  8
回07-寸法
  6
CONTINUOUS
 62
     5
 66
     1
  2
_OPEN
 10
-1839.145871145505
 20
-2929.505193240366
 30
0.0
 41
2.0
 42
2.0
 43
2.0
 50
90.0
  0
SEQEND
  5
14F
  8
回07-寸法
  6
CONTINUOUS
 62
     7
  0
TEXT
  5
150
  8
回07-寸法
  6
CONTINUOUS
 62
     5
 10
-1839.645871145505
 20
-2938.306075895659
 30
0.0
 40
4.0
  1
16
 50
90.0
  7
MTX_ISOCP_SHXBIGFONT
  0
POINT
  5
151
  8
DEFPOINTS
  6
CONTINUOUS
 62
     0
 10
-1824.522107903394
 20
-2913.506396274637
 30
0.0
  0
POINT
  5
152
  8
DEFPOINTS
  6
CONTINUOUS
 62
     0
 10
-1824.517934317688
 20
-2929.505193240366
 30
0.0
  0
POINT
  5
153
  8
DEFPOINTS
  6
CONTINUOUS
 62
     0
 10
-1839.145871145505
 20
-2929.505193240366
 30
0.0
  0
ENDBLK
  5
154
  8
0
 62
     1
  0
BLOCK
  8
0
  2
*D23
 70
     1
 10
0.0
 20
0.0
 30
0.0
  3
*D23
  1

  0
LINE
  5
136
  8
回07-寸法
  6
CONTINUOUS
 62
     5
 10
-1820.330177995028
 20
-2930.45162786508
 30
0.0
 11
-1820.330177995028
 21
-2949.534565486552
 31
0.0
  0
LINE
  5
137
  8
回07-寸法
  6
CONTINUOUS
 62
     5
 10
-1830.438821462039
 20
-2924.634217907618
 30
0.0
 11
-1830.438821462039
 21
-2949.534565486552
 31
0.0
  0
LINE
  5
138
  8
回07-寸法
  6
CONTINUOUS
 62
     5
 10
-1818.330177995028
 20
-2948.534565486552
 30
0.0
 11
-1816.330177995028
 21
-2948.534565486552
 31
0.0
  0
LINE
  5
139
  8
回07-寸法
  6
CONTINUOUS
 62
     5
 10
-1832.438821462039
 20
-2948.534565486552
 30
0.0
 11
-1844.23882146204
 21
-2948.534565486552
 31
0.0
  0
LINE
  5
13A
  8
回07-寸法
  6
CONTINUOUS
 62
     5
 10
-1820.330177995028
 20
-2948.534565486552
 30
0.0
 11
-1830.438821462039
 21
-2948.534565486552
 31
0.0
  0
INSERT
  5
13B
  8
回07-寸法
  6
CONTINUOUS
 62
     5
 66
     1
  2
_OPEN
 10
-1820.330177995028
 20
-2948.534565486552
 30
0.0
 41
2.0
 42
2.0
 43
2.0
 50
180.0
  0
SEQEND
  5
13C
  8
回07-寸法
  6
CONTINUOUS
 62
     7
  0
INSERT
  5
13D
  8
回07-寸法
  6
CONTINUOUS
 62
     5
 66
     1
  2
_OPEN
 10
-1830.438821462039
 20
-2948.534565486552
 30
0.0
 41
2.0
 42
2.0
 43
2.0
  0
SEQEND
  5
13E
  8
回07-寸法
  6
CONTINUOUS
 62
     7
  0
TEXT
  5
13F
  8
回07-寸法
  6
CONTINUOUS
 62
     5
 10
-1844.33882146204
 20
-2948.034565486552
 30
0.0
 40
4.0
  1
10.11
  7
MTX_ISOCP_SHXBIGFONT
  0
POINT
  5
140
  8
DEFPOINTS
  6
CONTINUOUS
 62
     0
 10
-1820.330177995028
 20
-2930.45162786508
 30
0.0
  0
POINT
  5
141
  8
DEFPOINTS
  6
CONTINUOUS
 62
     0
 10
-1830.438821462039
 20
-2924.634217907618
 30
0.0
  0
POINT
  5
142
  8
DEFPOINTS
  6
CONTINUOUS
 62
     0
 10
-1830.438821462039
 20
-2948.534565486552
 30
0.0
  0
ENDBLK
  5
143
  8
0
 62
     1
  0
BLOCK
  8
0
  2
*D24
 70
     1
 10
0.0
 20
0.0
 30
0.0
  3
*D24
  1

  0
LINE
  5
AB
  8
回07-寸法
  6
CONTINUOUS
 62
     5
 10
-1886.420905279128
 20
-3006.473585149316
 30
0.0
 11
-1892.610725781238
 21
-3006.473585149316
 31
0.0
  0
LINE
  5
AC
  8
回07-寸法
  6
CONTINUOUS
 62
     5
 10
-1886.420905279128
 20
-3004.373585149316
 30
0.0
 11
-1892.610725781238
 21
-3004.373585149316
 31
0.0
  0
LINE
  5
AD
  8
回07-寸法
  6
CONTINUOUS
 62
     5
 10
-1891.610725781238
 20
-3008.473585149316
 30
0.0
 11
-1891.610725781238
 21
-3010.473585149316
 31
0.0
  0
LINE
  5
AE
  8
回07-寸法
  6
CONTINUOUS
 62
     5
 10
-1891.610725781238
 20
-3002.373585149316
 30
0.0
 11
-1891.610725781238
 21
-2981.053585149316
 31
0.0
  0
LINE
  5
AF
  8
回07-寸法
  6
CONTINUOUS
 62
     5
 10
-1891.610725781238
 20
-3006.473585149316
 30
0.0
 11
-1891.610725781238
 21
-3004.373585149316
 31
0.0
  0
INSERT
  5
B0
  8
回07-寸法
  6
CONTINUOUS
 62
     5
 66
     1
  2
_OPEN
 10
-1891.610725781238
 20
-3006.473585149316
 30
0.0
 41
2.0
 42
2.0
 43
2.0
 50
90.0
  0
SEQEND
  5
B1
  8
回07-寸法
  6
CONTINUOUS
 62
     7
  0
INSERT
  5
B2
  8
回07-寸法
  6
CONTINUOUS
 62
     5
 66
     1
  2
_OPEN
 10
-1891.610725781238
 20
-3004.373585149316
 30
0.0
 41
2.0
 42
2.0
 43
2.0
 50
270.0
  0
SEQEND
  5
B3
  8
回07-寸法
  6
CONTINUOUS
 62
     7
  0
INSERT
  5
B4
  8
回07-寸法
  6
CONTINUOUS
 62
     5
 66
     1
  2
*X71
 10
0.0
 20
0.0
 30
0.0
  0
SEQEND
  5
569
  8
回07-寸法
  6
CONTINUOUS
 62
     7
  0
POINT
  5
B5
  8
DEFPOINTS
  6
CONTINUOUS
 62
     0
 10
-1886.420905279128
 20
-3006.473585149316
 30
0.0
  0
POINT
  5
B6
  8
DEFPOINTS
  6
CONTINUOUS
 62
     0
 10
-1886.420905279128
 20
-3004.373585149316
 30
0.0
  0
POINT
  5
B7
  8
DEFPOINTS
  6
CONTINUOUS
 62
     0
 10
-1891.610725781238
 20
-3004.373585149316
 30
0.0
  0
ENDBLK
  5
B8
  8
0
 62
     7
  0
BLOCK
  8
0
  2
*D25
 70
     1
 10
0.0
 20
0.0
 30
0.0
  3
*D25
  1

  0
LINE
  5
9C
  8
回07-寸法
  6
CONTINUOUS
 62
     5
 10
-1886.420905279128
 20
-3005.423585149316
 30
0.0
 11
-1904.725298674774
 21
-3005.423585149316
 31
0.0
  0
LINE
  5
9D
  8
回07-寸法
  6
CONTINUOUS
 62
     5
 10
-1886.420905279128
 20
-3016.673585149316
 30
0.0
 11
-1904.725298674774
 21
-3016.673585149316
 31
0.0
  0
LINE
  5
9E
  8
回07-寸法
  6
CONTINUOUS
 62
     5
 10
-1903.725298674774
 20
-3007.423585149317
 30
0.0
 11
-1903.725298674774
 21
-3014.673585149316
 31
0.0
  0
INSERT
  5
9F
  8
回07-寸法
  6
CONTINUOUS
 62
     5
 66
     1
  2
*X72
 10
0.0
 20
0.0
 30
0.0
  0
SEQEND
  5
56F
  8
回07-寸法
  6
CONTINUOUS
 62
     7
  0
INSERT
  5
A0
  8
回07-寸法
  6
CONTINUOUS
 62
     5
 66
     1
  2
_OPEN
 10
-1903.725298674774
 20
-3005.423585149316
 30
0.0
 41
2.0
 42
2.0
 43
2.0
 50
90.0
  0
SEQEND
  5
A1
  8
回07-寸法
  6
CONTINUOUS
 62
     7
  0
INSERT
  5
A2
  8
回07-寸法
  6
CONTINUOUS
 62
     5
 66
     1
  2
_OPEN
 10
-1903.725298674774
 20
-3016.673585149316
 30
0.0
 41
2.0
 42
2.0
 43
2.0
 50
270.0
  0
SEQEND
  5
A3
  8
回07-寸法
  6
CONTINUOUS
 62
     7
  0
POINT
  5
A4
  8
DEFPOINTS
  6
CONTINUOUS
 62
     0
 10
-1886.420905279128
 20
-3005.423585149316
 30
0.0
  0
POINT
  5
A5
  8
DEFPOINTS
  6
CONTINUOUS
 62
     0
 10
-1886.420905279128
 20
-3016.673585149316
 30
0.0
  0
POINT
  5
A6
  8
DEFPOINTS
  6
CONTINUOUS
 62
     0
 10
-1903.725298674774
 20
-3016.673585149316
 30
0.0
  0
ENDBLK
  5
A7
  8
0
 62
     7
  0
BLOCK
  8
0
  2
*D26
 70
     1
 10
0.0
 20
0.0
 30
0.0
  3
*D26
  1

  0
LINE
  5
8B
  8
回07-寸法
  6
CONTINUOUS
 62
     5
 10
-1886.420905279128
 20
-3009.173585149316
 30
0.0
 11
-1898.911265861658
 21
-3009.173585149316
 31
0.0
  0
LINE
  5
8C
  8
回07-寸法
  6
CONTINUOUS
 62
     5
 10
-1886.420905279128
 20
-3005.423585149316
 30
0.0
 11
-1898.911265861658
 21
-3005.423585149316
 31
0.0
  0
LINE
  5
8D
  8
回07-寸法
  6
CONTINUOUS
 62
     5
 10
-1897.911265861658
 20
-3011.173585149317
 30
0.0
 11
-1897.911265861658
 21
-3013.173585149317
 31
0.0
  0
LINE
  5
8E
  8
回07-寸法
  6
CONTINUOUS
 62
     5
 10
-1897.911265861658
 20
-3003.423585149317
 30
0.0
 11
-1897.911265861658
 21
-2983.090745273512
 31
0.0
  0
LINE
  5
8F
  8
回07-寸法
  6
CONTINUOUS
 62
     5
 10
-1897.911265861658
 20
-3009.173585149316
 30
0.0
 11
-1897.911265861658
 21
-3005.423585149316
 31
0.0
  0
INSERT
  5
90
  8
回07-寸法
  6
CONTINUOUS
 62
     5
 66
     1
  2
_OPEN
 10
-1897.911265861658
 20
-3009.173585149316
 30
0.0
 41
2.0
 42
2.0
 43
2.0
 50
90.0
  0
SEQEND
  5
91
  8
回07-寸法
  6
CONTINUOUS
 62
     7
  0
INSERT
  5
92
  8
回07-寸法
  6
CONTINUOUS
 62
     5
 66
     1
  2
_OPEN
 10
-1897.911265861658
 20
-3005.423585149316
 30
0.0
 41
2.0
 42
2.0
 43
2.0
 50
270.0
  0
SEQEND
  5
93
  8
回07-寸法
  6
CONTINUOUS
 62
     7
  0
INSERT
  5
94
  8
回07-寸法
  6
CONTINUOUS
 62
     5
 66
     1
  2
*X73
 10
0.0
 20
0.0
 30
0.0
  0
SEQEND
  5
575
  8
回07-寸法
  6
CONTINUOUS
 62
     7
  0
POINT
  5
95
  8
DEFPOINTS
  6
CONTINUOUS
 62
     0
 10
-1886.420905279128
 20
-3009.173585149316
 30
0.0
  0
POINT
  5
96
  8
DEFPOINTS
  6
CONTINUOUS
 62
     0
 10
-1886.420905279128
 20
-3005.423585149316
 30
0.0
  0
POINT
  5
97
  8
DEFPOINTS
  6
CONTINUOUS
 62
     0
 10
-1897.911265861658
 20
-3005.423585149316
 30
0.0
  0
ENDBLK
  5
98
  8
0
 62
     7
  0
BLOCK
  8
0
  2
*D27
 70
     1
 10
0.0
 20
0.0
 30
0.0
  3
*D27
  1

  0
LINE
  5
7A
  8
回07-寸法
  6
CONTINUOUS
 62
     5
 10
-1884.920905279128
 20
-3001.673585149316
 30
0.0
 11
-1912.529413453323
 21
-3001.673585149316
 31
0.0
  0
LINE
  5
7B
  8
回07-寸法
  6
CONTINUOUS
 62
     5
 10
-1884.920905279129
 20
-3020.423585149317
 30
0.0
 11
-1912.529413453323
 21
-3020.423585149317
 31
0.0
  0
LINE
  5
7C
  8
回07-寸法
  6
CONTINUOUS
 62
     5
 10
-1911.529413453323
 20
-2999.673585149317
 30
0.0
 11
-1911.529413453323
 21
-2997.673585149316
 31
0.0
  0
LINE
  5
7D
  8
回07-寸法
  6
CONTINUOUS
 62
     5
 10
-1911.529413453323
 20
-3022.423585149316
 30
0.0
 11
-1911.529413453323
 21
-3024.423585149316
 31
0.0
  0
LINE
  5
7E
  8
回07-寸法
  6
CONTINUOUS
 62
     5
 10
-1911.529413453323
 20
-3001.673585149316
 30
0.0
 11
-1911.529413453323
 21
-3020.423585149317
 31
0.0
  0
INSERT
  5
7F
  8
回07-寸法
  6
CONTINUOUS
 62
     5
 66
     1
  2
_OPEN
 10
-1911.529413453323
 20
-3001.673585149316
 30
0.0
 41
2.0
 42
2.0
 43
2.0
 50
270.0
  0
SEQEND
  5
80
  8
回07-寸法
  6
CONTINUOUS
 62
     7
  0
INSERT
  5
81
  8
回07-寸法
  6
CONTINUOUS
 62
     5
 66
     1
  2
_OPEN
 10
-1911.529413453323
 20
-3020.423585149317
 30
0.0
 41
2.0
 42
2.0
 43
2.0
 50
90.0
  0
SEQEND
  5
82
  8
回07-寸法
  6
CONTINUOUS
 62
     7
  0
INSERT
  5
83
  8
回07-寸法
  6
CONTINUOUS
 62
     5
 66
     1
  2
*X74
 10
0.0
 20
0.0
 30
0.0
  0
SEQEND
  5
57B
  8
回07-寸法
  6
CONTINUOUS
 62
     7
  0
POINT
  5
84
  8
DEFPOINTS
  6
CONTINUOUS
 62
     0
 10
-1884.920905279128
 20
-3001.673585149316
 30
0.0
  0
POINT
  5
85
  8
DEFPOINTS
  6
CONTINUOUS
 62
     0
 10
-1884.920905279129
 20
-3020.423585149317
 30
0.0
  0
POINT
  5
86
  8
DEFPOINTS
  6
CONTINUOUS
 62
     0
 10
-1911.529413453323
 20
-3020.423585149317
 30
0.0
  0
ENDBLK
  5
87
  8
0
 62
     7
  0
BLOCK
  8
0
  2
*D28
 70
     1
 10
0.0
 20
0.0
 30
0.0
  3
*D28
  1

  0
LINE
  5
61
  8
回07-寸法
  6
CONTINUOUS
 62
     5
 10
-1820.330177995028
 20
-2835.005193240366
 30
0.0
 11
-1925.700050027813
 21
-2835.005193240366
 31
0.0
  0
LINE
  5
62
  8
回07-寸法
  6
CONTINUOUS
 62
     5
 10
-1908.83141966471
 20
-2921.505193240366
 30
0.0
 11
-1925.700050027813
 21
-2921.505193240366
 31
0.0
  0
LINE
  5
63
  8
回07-寸法
  6
CONTINUOUS
 62
     5
 10
-1924.700050027813
 20
-2837.005193240366
 30
0.0
 11
-1924.700050027813
 21
-2919.505193240366
 31
0.0
  0
INSERT
  5
64
  8
回07-寸法
  6
CONTINUOUS
 62
     5
 66
     1
  2
_OPEN
 10
-1924.700050027813
 20
-2835.005193240366
 30
0.0
 41
2.0
 42
2.0
 43
2.0
 50
90.0
  0
SEQEND
  5
65
  8
回07-寸法
  6
CONTINUOUS
 62
     7
  0
INSERT
  5
66
  8
回07-寸法
  6
CONTINUOUS
 62
     5
 66
     1
  2
_OPEN
 10
-1924.700050027813
 20
-2921.505193240366
 30
0.0
 41
2.0
 42
2.0
 43
2.0
 50
270.0
  0
SEQEND
  5
67
  8
回07-寸法
  6
CONTINUOUS
 62
     7
  0
TEXT
  5
68
  8
回07-寸法
  6
CONTINUOUS
 62
     5
 10
-1925.200050027813
 20
-2883.055193240367
 30
0.0
 40
4.0
  1
86.5
 50
90.0
  7
MTX_ISOCP_SHXBIGFONT
  0
POINT
  5
69
  8
DEFPOINTS
  6
CONTINUOUS
 62
     0
 10
-1820.330177995028
 20
-2835.005193240366
 30
0.0
  0
POINT
  5
6B
  8
DEFPOINTS
  6
CONTINUOUS
 62
     0
 10
-1908.83141966471
 20
-2921.505193240366
 30
0.0
  0
POINT
  5
6C
  8
DEFPOINTS
  6
CONTINUOUS
 62
     0
 10
-1924.700050027813
 20
-2921.505193240366
 30
0.0
  0
ENDBLK
  5
6D
  8
0
 62
     7
  0
BLOCK
  8
回07-寸法
  2
*D29
 70
     1
 10
0.0
 20
0.0
 30
0.0
  3
*D29
  1

  0
LINE
  5
361
  8
回07-寸法
  6
CONTINUOUS
 62
     5
 10
-12.24523602323916
 20
150.5080705168734
 30
0.0
 11
-117.6151080560241
 21
150.5080705168734
 31
0.0
  0
LINE
  5
362
  8
回07-寸法
  6
CONTINUOUS
 62
     5
 10
-100.7464776929212
 20
64.00807051687388
 30
0.0
 11
-117.6151080560241
 21
64.00807051687388
 31
0.0
  0
LINE
  5
363
  8
回07-寸法
  6
CONTINUOUS
 62
     5
 10
-116.6151080560241
 20
148.5080705168734
 30
0.0
 11
-116.6151080560241
 21
66.00807051687389
 31
0.0
  0
INSERT
  5
364
  8
回07-寸法
  6
CONTINUOUS
 62
     5
  2
_OPEN
 10
-116.6151080560241
 20
150.5080705168734
 30
0.0
 41
2.0
 42
2.0
 43
2.0
 50
90.0
  0
INSERT
  5
365
  8
回07-寸法
  6
CONTINUOUS
 62
     5
  2
_OPEN
 10
-116.6151080560241
 20
64.00807051687388
 30
0.0
 41
2.0
 42
2.0
 43
2.0
 50
270.0
  0
TEXT
  5
366
  8
回07-寸法
  6
CONTINUOUS
 62
     5
 10
-117.1151080560241
 20
102.4580705168736
 30
0.0
 40
4.0
  1
86.5
 50
90.0
  7
MTX_ISOCP_SHXBIGFONT
  0
POINT
  5
367
  8
DEFPOINTS
  6
CONTINUOUS
 62
     0
 10
-12.24523602323916
 20
150.5080705168734
 30
0.0
  0
POINT
  5
368
  8
DEFPOINTS
  6
CONTINUOUS
 62
     0
 10
-100.7464776929212
 20
64.00807051687388
 30
0.0
  0
POINT
  5
369
  8
DEFPOINTS
  6
CONTINUOUS
 62
     0
 10
-116.6151080560241
 20
64.00807051687388
 30
0.0
  0
ENDBLK
  5
36B
  8
回07-寸法
  6
CONTINUOUS
 62
     7
  0
BLOCK
  8
回07-寸法
  2
*D30
 70
     1
 10
0.0
 20
0.0
 30
0.0
  3
*D30
  1

  0
LINE
  5
36D
  8
回07-寸法
  6
CONTINUOUS
 62
     5
 10
-76.83596330733962
 20
-16.16032139207664
 30
0.0
 11
-104.444471481534
 21
-16.16032139207663
 31
0.0
  0
LINE
  5
36E
  8
回07-寸法
  6
CONTINUOUS
 62
     5
 10
-76.83596330733985
 20
-34.91032139207664
 30
0.0
 11
-104.444471481534
 21
-34.91032139207664
 31
0.0
  0
LINE
  5
36F
  8
回07-寸法
  6
CONTINUOUS
 62
     5
 10
-103.444471481534
 20
-18.16032139207663
 30
0.0
 11
-103.444471481534
 21
-32.91032139207664
 31
0.0
  0
INSERT
  5
370
  8
回07-寸法
  6
CONTINUOUS
 62
     5
  2
_OPEN
 10
-103.444471481534
 20
-16.16032139207663
 30
0.0
 41
2.0
 42
2.0
 43
2.0
 50
90.0
  0
INSERT
  5
371
  8
回07-寸法
  6
CONTINUOUS
 62
     5
  2
_OPEN
 10
-103.444471481534
 20
-34.91032139207664
 30
0.0
 41
2.0
 42
2.0
 43
2.0
 50
270.0
  0
INSERT
  5
372
  8
回07-寸法
  6
CONTINUOUS
 62
     5
 66
     1
  2
*X75
 10
0.0
 20
0.0
 30
0.0
  0
SEQEND
  5
581
  8
回07-寸法
  6
CONTINUOUS
 62
     7
  0
POINT
  5
373
  8
DEFPOINTS
  6
CONTINUOUS
 62
     0
 10
-76.83596330733962
 20
-16.16032139207664
 30
0.0
  0
POINT
  5
374
  8
DEFPOINTS
  6
CONTINUOUS
 62
     0
 10
-76.83596330733985
 20
-34.91032139207664
 30
0.0
  0
POINT
  5
375
  8
DEFPOINTS
  6
CONTINUOUS
 62
     0
 10
-103.444471481534
 20
-34.91032139207664
 30
0.0
  0
ENDBLK
  5
377
  8
回07-寸法
  6
CONTINUOUS
 62
     7
  0
BLOCK
  8
回07-寸法
  2
*D31
 70
     1
 10
0.0
 20
0.0
 30
0.0
  3
*D31
  1

  0
LINE
  5
379
  8
回07-寸法
  6
CONTINUOUS
 62
     5
 10
-78.33596330733962
 20
-23.66032139207664
 30
0.0
 11
-90.82632388986894
 21
-23.66032139207664
 31
0.0
  0
LINE
  5
37A
  8
回07-寸法
  6
CONTINUOUS
 62
     5
 10
-78.33596330733962
 20
-19.91032139207664
 30
0.0
 11
-90.82632388986894
 21
-19.91032139207663
 31
0.0
  0
LINE
  5
37B
  8
回07-寸法
  6
CONTINUOUS
 62
     5
 10
-89.82632388986894
 20
-17.91032139207663
 30
0.0
 11
-89.82632388986894
 21
1.77281285624204
 31
0.0
  0
LINE
  5
37C
  8
回07-寸法
  6
CONTINUOUS
 62
     5
 10
-89.82632388986894
 20
-23.66032139207664
 30
0.0
 11
-89.82632388986894
 21
-19.91032139207663
 31
0.0
  0
LINE
  5
37D
  8
回07-寸法
  6
CONTINUOUS
 62
     5
 10
-89.82632388986894
 20
-25.66032139207664
 30
0.0
 11
-89.82632388986894
 21
-27.66032139207664
 31
0.0
  0
INSERT
  5
37E
  8
回07-寸法
  6
CONTINUOUS
 62
     5
  2
_OPEN
 10
-89.82632388986894
 20
-23.66032139207664
 30
0.0
 41
2.0
 42
2.0
 43
2.0
 50
90.0
  0
INSERT
  5
37F
  8
回07-寸法
  6
CONTINUOUS
 62
     5
  2
_OPEN
 10
-89.82632388986894
 20
-19.91032139207663
 30
0.0
 41
2.0
 42
2.0
 43
2.0
 50
270.0
  0
INSERT
  5
380
  8
回07-寸法
  6
CONTINUOUS
 62
     5
 66
     1
  2
*X76
 10
0.0
 20
0.0
 30
0.0
  0
SEQEND
  5
587
  8
回07-寸法
  6
CONTINUOUS
 62
     7
  0
POINT
  5
381
  8
DEFPOINTS
  6
CONTINUOUS
 62
     0
 10
-78.33596330733962
 20
-23.66032139207664
 30
0.0
  0
POINT
  5
382
  8
DEFPOINTS
  6
CONTINUOUS
 62
     0
 10
-78.33596330733962
 20
-19.91032139207664
 30
0.0
  0
POINT
  5
383
  8
DEFPOINTS
  6
CONTINUOUS
 62
     0
 10
-89.82632388986894
 20
-19.91032139207663
 30
0.0
  0
ENDBLK
  5
385
  8
回07-寸法
  6
CONTINUOUS
 62
     7
  0
BLOCK
  8
回07-寸法
  2
*D32
 70
     1
 10
0.0
 20
0.0
 30
0.0
  3
*D32
  1

  0
LINE
  5
387
  8
回07-寸法
  6
CONTINUOUS
 62
     5
 10
-78.33596330733962
 20
-19.91032139207664
 30
0.0
 11
-96.64035670298517
 21
-19.91032139207663
 31
0.0
  0
LINE
  5
388
  8
回07-寸法
  6
CONTINUOUS
 62
     5
 10
-78.33596330733962
 20
-31.16032139207664
 30
0.0
 11
-96.64035670298517
 21
-31.16032139207664
 31
0.0
  0
LINE
  5
389
  8
回07-寸法
  6
CONTINUOUS
 62
     5
 10
-95.64035670298517
 20
-21.91032139207663
 30
0.0
 11
-95.64035670298517
 21
-29.16032139207663
 31
0.0
  0
INSERT
  5
38A
  8
回07-寸法
  6
CONTINUOUS
 62
     5
  2
_OPEN
 10
-95.64035670298517
 20
-19.91032139207663
 30
0.0
 41
2.0
 42
2.0
 43
2.0
 50
90.0
  0
INSERT
  5
38B
  8
回07-寸法
  6
CONTINUOUS
 62
     5
  2
_OPEN
 10
-95.64035670298517
 20
-31.16032139207664
 30
0.0
 41
2.0
 42
2.0
 43
2.0
 50
270.0
  0
INSERT
  5
38C
  8
回07-寸法
  6
CONTINUOUS
 62
     5
 66
     1
  2
*X77
 10
0.0
 20
0.0
 30
0.0
  0
SEQEND
  5
58D
  8
回07-寸法
  6
CONTINUOUS
 62
     7
  0
POINT
  5
38D
  8
DEFPOINTS
  6
CONTINUOUS
 62
     0
 10
-78.33596330733962
 20
-19.91032139207664
 30
0.0
  0
POINT
  5
38E
  8
DEFPOINTS
  6
CONTINUOUS
 62
     0
 10
-78.33596330733962
 20
-31.16032139207664
 30
0.0
  0
POINT
  5
38F
  8
DEFPOINTS
  6
CONTINUOUS
 62
     0
 10
-95.64035670298517
 20
-31.16032139207664
 30
0.0
  0
ENDBLK
  5
391
  8
回07-寸法
  6
CONTINUOUS
 62
     7
  0
BLOCK
  8
回07-寸法
  2
*D33
 70
     1
 10
0.0
 20
0.0
 30
0.0
  3
*D33
  1

  0
LINE
  5
393
  8
回07-寸法
  6
CONTINUOUS
 62
     5
 10
-78.33596330733962
 20
-20.96032139207637
 30
0.0
 11
-84.52578380944897
 21
-20.96032139207637
 31
0.0
  0
LINE
  5
394
  8
回07-寸法
  6
CONTINUOUS
 62
     5
 10
-78.33596330733962
 20
-18.86032139207646
 30
0.0
 11
-84.52578380944897
 21
-18.86032139207646
 31
0.0
  0
LINE
  5
395
  8
回07-寸法
  6
CONTINUOUS
 62
     5
 10
-83.52578380944896
 20
-16.86032139207646
 30
0.0
 11
-83.52578380944896
 21
3.859678607923399
 31
0.0
  0
LINE
  5
396
  8
回07-寸法
  6
CONTINUOUS
 62
     5
 10
-83.52578380944896
 20
-20.96032139207637
 30
0.0
 11
-83.52578380944896
 21
-18.86032139207646
 31
0.0
  0
LINE
  5
397
  8
回07-寸法
  6
CONTINUOUS
 62
     5
 10
-83.52578380944896
 20
-22.96032139207637
 30
0.0
 11
-83.52578380944896
 21
-24.96032139207637
 31
0.0
  0
INSERT
  5
398
  8
回07-寸法
  6
CONTINUOUS
 62
     5
  2
_OPEN
 10
-83.52578380944896
 20
-20.96032139207637
 30
0.0
 41
2.0
 42
2.0
 43
2.0
 50
90.0
  0
INSERT
  5
399
  8
回07-寸法
  6
CONTINUOUS
 62
     5
  2
_OPEN
 10
-83.52578380944896
 20
-18.86032139207646
 30
0.0
 41
2.0
 42
2.0
 43
2.0
 50
270.0
  0
INSERT
  5
39A
  8
回07-寸法
  6
CONTINUOUS
 62
     5
 66
     1
  2
*X78
 10
0.0
 20
0.0
 30
0.0
  0
SEQEND
  5
593
  8
回07-寸法
  6
CONTINUOUS
 62
     7
  0
POINT
  5
39B
  8
DEFPOINTS
  6
CONTINUOUS
 62
     0
 10
-78.33596330733962
 20
-20.96032139207637
 30
0.0
  0
POINT
  5
39C
  8
DEFPOINTS
  6
CONTINUOUS
 62
     0
 10
-78.33596330733962
 20
-18.86032139207646
 30
0.0
  0
POINT
  5
39D
  8
DEFPOINTS
  6
CONTINUOUS
 62
     0
 10
-83.52578380944896
 20
-18.86032139207646
 30
0.0
  0
ENDBLK
  5
39F
  8
回07-寸法
  6
CONTINUOUS
 62
     7
  0
BLOCK
  8
回07-寸法
  2
*D34
 70
     1
 10
0.0
 20
0.0
 30
0.0
  3
*D34
  1

  0
LINE
  5
3A1
  8
回07-寸法
  6
CONTINUOUS
 62
     5
 10
-12.24523602323938
 20
55.06163589215976
 30
0.0
 11
-12.24523602323938
 21
35.9786982706878
 31
0.0
  0
LINE
  5
3A2
  8
回07-寸法
  6
CONTINUOUS
 62
     5
 10
-22.35387949025085
 20
60.87904584962188
 30
0.0
 11
-22.35387949025085
 21
35.9786982706878
 31
0.0
  0
LINE
  5
3A3
  8
回07-寸法
  6
CONTINUOUS
 62
     5
 10
-24.35387949025085
 20
36.9786982706878
 30
0.0
 11
-36.15387949025094
 21
36.9786982706878
 31
0.0
  0
LINE
  5
3A4
  8
回07-寸法
  6
CONTINUOUS
 62
     5
 10
-12.24523602323938
 20
36.9786982706878
 30
0.0
 11
-22.35387949025085
 21
36.9786982706878
 31
0.0
  0
LINE
  5
3A5
  8
回07-寸法
  6
CONTINUOUS
 62
     5
 10
-10.24523602323938
 20
36.9786982706878
 30
0.0
 11
-8.245236023239385
 21
36.9786982706878
 31
0.0
  0
INSERT
  5
3A6
  8
回07-寸法
  6
CONTINUOUS
 62
     5
  2
_OPEN
 10
-12.24523602323938
 20
36.9786982706878
 30
0.0
 41
2.0
 42
2.0
 43
2.0
 50
180.0
  0
INSERT
  5
3A7
  8
回07-寸法
  6
CONTINUOUS
 62
     5
  2
_OPEN
 10
-22.35387949025085
 20
36.9786982706878
 30
0.0
 41
2.0
 42
2.0
 43
2.0
  0
TEXT
  5
3A8
  8
回07-寸法
  6
CONTINUOUS
 62
     5
 10
-36.25387949025094
 20
37.4786982706878
 30
0.0
 40
4.0
  1
10.11
  7
MTX_ISOCP_SHXBIGFONT
  0
POINT
  5
3A9
  8
DEFPOINTS
  6
CONTINUOUS
 62
     0
 10
-12.24523602323938
 20
55.06163589215976
 30
0.0
  0
POINT
  5
3AA
  8
DEFPOINTS
  6
CONTINUOUS
 62
     0
 10
-22.35387949025085
 20
60.87904584962188
 30
0.0
  0
POINT
  5
3AB
  8
DEFPOINTS
  6
CONTINUOUS
 62
     0
 10
-22.35387949025085
 20
36.9786982706878
 30
0.0
  0
ENDBLK
  5
3AD
  8
回07-寸法
  6
CONTINUOUS
 62
     7
  0
BLOCK
  8
回07-寸法
  2
*D35
 70
     1
 10
0.0
 20
0.0
 30
0.0
  3
*D35
  1

  0
LINE
  5
3AF
  8
回07-寸法
  6
CONTINUOUS
 62
     5
 10
-16.4371659316057
 20
72.0068674826025
 30
0.0
 11
-32.0609291737162
 21
72.0068674826025
 31
0.0
  0
LINE
  5
3B0
  8
回07-寸法
  6
CONTINUOUS
 62
     5
 10
-16.43299234589903
 20
56.00807051687389
 30
0.0
 11
-32.0609291737162
 21
56.00807051687389
 31
0.0
  0
LINE
  5
3B1
  8
回07-寸法
  6
CONTINUOUS
 62
     5
 10
-31.06092917371621
 20
54.00807051687388
 30
0.0
 11
-31.06092917371621
 21
47.30718786158059
 31
0.0
  0
LINE
  5
3B2
  8
回07-寸法
  6
CONTINUOUS
 62
     5
 10
-31.06092917371621
 20
72.0068674826025
 30
0.0
 11
-31.06092917371621
 21
56.00807051687389
 31
0.0
  0
LINE
  5
3B3
  8
回07-寸法
  6
CONTINUOUS
 62
     5
 10
-31.06092917371621
 20
74.0068674826025
 30
0.0
 11
-31.06092917371621
 21
76.0068674826025
 31
0.0
  0
INSERT
  5
3B4
  8
回07-寸法
  6
CONTINUOUS
 62
     5
  2
_OPEN
 10
-31.06092917371621
 20
72.0068674826025
 30
0.0
 41
2.0
 42
2.0
 43
2.0
 50
270.0
  0
INSERT
  5
3B5
  8
回07-寸法
  6
CONTINUOUS
 62
     5
  2
_OPEN
 10
-31.06092917371621
 20
56.00807051687389
 30
0.0
 41
2.0
 42
2.0
 43
2.0
 50
90.0
  0
TEXT
  5
3B6
  8
回07-寸法
  6
CONTINUOUS
 62
     5
 10
-31.56092917371621
 20
47.2071878615806
 30
0.0
 40
4.0
  1
16
 50
90.0
  7
MTX_ISOCP_SHXBIGFONT
  0
POINT
  5
3B7
  8
DEFPOINTS
  6
CONTINUOUS
 62
     0
 10
-16.4371659316057
 20
72.0068674826025
 30
0.0
  0
POINT
  5
3B8
  8
DEFPOINTS
  6
CONTINUOUS
 62
     0
 10
-16.43299234589903
 20
56.00807051687389
 30
0.0
  0
POINT
  5
3B9
  8
DEFPOINTS
  6
CONTINUOUS
 62
     0
 10
-31.06092917371621
 20
56.00807051687389
 30
0.0
  0
ENDBLK
  5
3BB
  8
回07-寸法
  6
CONTINUOUS
 62
     7
  0
BLOCK
  8
回07-寸法
  2
*D36
 70
     1
 10
0.0
 20
0.0
 30
0.0
  3
*D36
  1

  0
LINE
  5
3BD
  8
回07-寸法
  6
CONTINUOUS
 62
     5
 10
-91.74523602323915
 20
67.13307051687388
 30
0.0
 11
-107.0633557110066
 21
67.13307051687388
 31
0.0
  0
LINE
  5
3BE
  8
回07-寸法
  6
CONTINUOUS
 62
     5
 10
-91.74523602323915
 20
60.88307051687388
 30
0.0
 11
-107.0633557110066
 21
60.88307051687388
 31
0.0
  0
LINE
  5
3BF
  8
回07-寸法
  6
CONTINUOUS
 62
     5
 10
-106.0633557110066
 20
58.88307051687388
 30
0.0
 11
-106.0633557110066
 21
40.58245137090534
 31
0.0
  0
LINE
  5
3C0
  8
回07-寸法
  6
CONTINUOUS
 62
     5
 10
-106.0633557110066
 20
67.13307051687388
 30
0.0
 11
-106.0633557110066
 21
60.88307051687388
 31
0.0
  0
LINE
  5
3C1
  8
回07-寸法
  6
CONTINUOUS
 62
     5
 10
-106.0633557110066
 20
69.13307051687389
 30
0.0
 11
-106.0633557110066
 21
71.13307051687389
 31
0.0
  0
INSERT
  5
3C2
  8
回07-寸法
  6
CONTINUOUS
 62
     5
  2
_OPEN
 10
-106.0633557110066
 20
67.13307051687388
 30
0.0
 41
2.0
 42
2.0
 43
2.0
 50
270.0
  0
INSERT
  5
3C3
  8
回07-寸法
  6
CONTINUOUS
 62
     5
  2
_OPEN
 10
-106.0633557110066
 20
60.88307051687388
 30
0.0
 41
2.0
 42
2.0
 43
2.0
 50
90.0
  0
INSERT
  5
3C4
  8
回07-寸法
  6
CONTINUOUS
 62
     5
 66
     1
  2
*X79
 10
0.0
 20
0.0
 30
0.0
  0
SEQEND
  5
599
  8
回07-寸法
  6
CONTINUOUS
 62
     7
  0
POINT
  5
3C5
  8
DEFPOINTS
  6
CONTINUOUS
 62
     0
 10
-91.74523602323915
 20
67.13307051687388
 30
0.0
  0
POINT
  5
3C6
  8
DEFPOINTS
  6
CONTINUOUS
 62
     0
 10
-91.74523602323915
 20
60.88307051687388
 30
0.0
  0
POINT
  5
3C7
  8
DEFPOINTS
  6
CONTINUOUS
 62
     0
 10
-106.0633557110066
 20
60.88307051687388
 30
0.0
  0
ENDBLK
  5
3C9
  8
回07-寸法
  6
CONTINUOUS
 62
     7
  0
BLOCK
  8
回07-寸法
  2
*D37
 70
     1
 10
0.0
 20
0.0
 30
0.0
  3
*D37
  1

  0
LINE
  5
3CB
  8
回07-寸法
  6
CONTINUOUS
 62
     5
 10
211.7547639767608
 20
-17.49192948312657
 30
0.0
 11
254.7883333938789
 21
-17.49192948312657
 31
0.0
  0
LINE
  5
3CC
  8
回07-寸法
  6
CONTINUOUS
 62
     5
 10
214.7547639767608
 20
-22.49192948312657
 30
0.0
 11
254.7883333938789
 21
-22.49192948312657
 31
0.0
  0
LINE
  5
3CD
  8
回07-寸法
  6
CONTINUOUS
 62
     5
 10
253.7883333938789
 20
-19.49192948312657
 30
0.0
 11
253.7883333938789
 21
-20.49192948312657
 31
0.0
  0
INSERT
  5
3CE
  8
回07-寸法
  6
CONTINUOUS
 62
     5
  2
_OPEN
 10
253.7883333938789
 20
-17.49192948312657
 30
0.0
 41
2.0
 42
2.0
 43
2.0
 50
90.0
  0
INSERT
  5
3CF
  8
回07-寸法
  6
CONTINUOUS
 62
     5
  2
_OPEN
 10
253.7883333938789
 20
-22.49192948312657
 30
0.0
 41
2.0
 42
2.0
 43
2.0
 50
270.0
  0
TEXT
  5
3D0
  8
回07-寸法
  6
CONTINUOUS
 62
     5
 10
253.2883333938789
 20
-21.39192948312658
 30
0.0
 40
4.0
  1
5
 50
90.0
  7
MTX_ISOCP_SHXBIGFONT
  0
POINT
  5
3D1
  8
DEFPOINTS
  6
CONTINUOUS
 62
     0
 10
211.7547639767608
 20
-17.49192948312657
 30
0.0
  0
POINT
  5
3D2
  8
DEFPOINTS
  6
CONTINUOUS
 62
     0
 10
214.7547639767608
 20
-22.49192948312657
 30
0.0
  0
POINT
  5
3D3
  8
DEFPOINTS
  6
CONTINUOUS
 62
     0
 10
253.7883333938789
 20
-22.49192948312657
 30
0.0
  0
ENDBLK
  5
3D5
  8
回07-寸法
  6
CONTINUOUS
 62
     7
  0
BLOCK
  8
回07-寸法
  2
*D38
 70
     1
 10
0.0
 20
0.0
 30
0.0
  3
*D38
  1

  0
LINE
  5
3D7
  8
回07-寸法
  6
CONTINUOUS
 62
     5
 10
209.7547639767608
 20
-15.49192948312657
 30
0.0
 11
246.155520362054
 21
-15.49192948312657
 31
0.0
  0
LINE
  5
3D9
  8
回07-寸法
  6
CONTINUOUS
 62
     5
 10
214.7547639767608
 20
-22.49192948312657
 30
0.0
 11
246.155520362054
 21
-22.49192948312657
 31
0.0
  0
LINE
  5
3DA
  8
回07-寸法
  6
CONTINUOUS
 62
     5
 10
245.1555203620539
 20
-24.49192948312657
 30
0.0
 11
245.1555203620539
 21
-29.09192948312722
 31
0.0
  0
LINE
  5
3DB
  8
回07-寸法
  6
CONTINUOUS
 62
     5
 10
245.1555203620539
 20
-15.49192948312657
 30
0.0
 11
245.1555203620539
 21
-22.49192948312657
 31
0.0
  0
LINE
  5
3DC
  8
回07-寸法
  6
CONTINUOUS
 62
     5
 10
245.1555203620539
 20
-13.49192948312657
 30
0.0
 11
245.1555203620539
 21
-11.49192948312657
 31
0.0
  0
INSERT
  5
3DD
  8
回07-寸法
  6
CONTINUOUS
 62
     5
  2
_OPEN
 10
245.1555203620539
 20
-15.49192948312657
 30
0.0
 41
2.0
 42
2.0
 43
2.0
 50
270.0
  0
INSERT
  5
3DE
  8
回07-寸法
  6
CONTINUOUS
 62
     5
  2
_OPEN
 10
245.1555203620539
 20
-22.49192948312657
 30
0.0
 41
2.0
 42
2.0
 43
2.0
 50
90.0
  0
TEXT
  5
3DF
  8
回07-寸法
  6
CONTINUOUS
 62
     5
 10
244.655520362054
 20
-29.19192948312721
 30
0.0
 40
4.0
  1
7
 50
90.0
  7
MTX_ISOCP_SHXBIGFONT
  0
POINT
  5
3E0
  8
DEFPOINTS
  6
CONTINUOUS
 62
     0
 10
209.7547639767608
 20
-15.49192948312657
 30
0.0
  0
POINT
  5
3E1
  8
DEFPOINTS
  6
CONTINUOUS
 62
     0
 10
214.7547639767608
 20
-22.49192948312657
 30
0.0
  0
POINT
  5
3E2
  8
DEFPOINTS
  6
CONTINUOUS
 62
     0
 10
245.1555203620539
 20
-22.49192948312657
 30
0.0
  0
ENDBLK
  5
3E4
  8
回07-寸法
  6
CONTINUOUS
 62
     7
  0
BLOCK
  8
回07-寸法
  2
*D39
 70
     1
 10
0.0
 20
0.0
 30
0.0
  3
*D39
  1

  0
LINE
  5
3E6
  8
回07-寸法
  6
CONTINUOUS
 62
     5
 10
214.7547639767608
 20
64.00807051687343
 30
0.0
 11
238.8652662276438
 21
64.00807051687343
 31
0.0
  0
LINE
  5
3E7
  8
回07-寸法
  6
CONTINUOUS
 62
     5
 10
214.7547639767608
 20
-22.49192948312657
 30
0.0
 11
238.8652662276438
 21
-22.49192948312657
 31
0.0
  0
LINE
  5
3E8
  8
回07-寸法
  6
CONTINUOUS
 62
     5
 10
237.8652662276438
 20
62.00807051687343
 30
0.0
 11
237.8652662276438
 21
-20.49192948312657
 31
0.0
  0
INSERT
  5
3E9
  8
回07-寸法
  6
CONTINUOUS
 62
     5
  2
_OPEN
 10
237.8652662276438
 20
64.00807051687343
 30
0.0
 41
2.0
 42
2.0
 43
2.0
 50
90.0
  0
INSERT
  5
3EA
  8
回07-寸法
  6
CONTINUOUS
 62
     5
  2
_OPEN
 10
237.8652662276438
 20
-22.49192948312657
 30
0.0
 41
2.0
 42
2.0
 43
2.0
 50
270.0
  0
TEXT
  5
3EB
  8
回07-寸法
  6
CONTINUOUS
 62
     5
 10
237.1652662276438
 20
-12.79650596619692
 30
0.0
 40
4.0
  1
86.5 (ACTIVE AREA CENTER)
 50
90.0
  7
MTX_ISOCP_SHXBIGFONT
  0
POINT
  5
3EC
  8
DEFPOINTS
  6
CONTINUOUS
 62
     0
 10
214.7547639767608
 20
64.00807051687343
 30
0.0
  0
POINT
  5
3ED
  8
DEFPOINTS
  6
CONTINUOUS
 62
     0
 10
214.7547639767608
 20
-22.49192948312657
 30
0.0
  0
POINT
  5
3EE
  8
DEFPOINTS
  6
CONTINUOUS
 62
     0
 10
237.8652662276438
 20
-22.49192948312657
 30
0.0
  0
ENDBLK
  5
3F0
  8
回07-寸法
  6
CONTINUOUS
 62
     7
  0
BLOCK
  8
回07-寸法
  2
*D40
 70
     1
 10
0.0
 20
0.0
 30
0.0
  3
*D40
  1

  0
LINE
  5
3F2
  8
回07-寸法
  6
CONTINUOUS
 62
     5
 10
209.7547639767608
 20
143.5080705168734
 30
0.0
 11
246.155520362054
 21
143.5080705168734
 31
0.0
  0
LINE
  5
3F3
  8
回07-寸法
  6
CONTINUOUS
 62
     5
 10
209.7547639767608
 20
-15.49192948312657
 30
0.0
 11
246.155520362054
 21
-15.49192948312657
 31
0.0
  0
LINE
  5
3F4
  8
回07-寸法
  6
CONTINUOUS
 62
     5
 10
245.1555203620539
 20
141.5080705168734
 30
0.0
 11
245.1555203620539
 21
-13.49192948312657
 31
0.0
  0
INSERT
  5
3F5
  8
回07-寸法
  6
CONTINUOUS
 62
     5
  2
_OPEN
 10
245.1555203620539
 20
143.5080705168734
 30
0.0
 41
2.0
 42
2.0
 43
2.0
 50
90.0
  0
INSERT
  5
3F6
  8
回07-寸法
  6
CONTINUOUS
 62
     5
  2
_OPEN
 10
245.1555203620539
 20
-15.49192948312657
 30
0.0
 41
2.0
 42
2.0
 43
2.0
 50
270.0
  0
TEXT
  5
3F7
  8
回07-寸法
  6
CONTINUOUS
 62
     5
 10
244.455520362054
 20
41.07815279686272
 30
0.0
 40
4.0
  1
159 (ACTIVE AREA)
 50
90.0
  7
MTX_ISOCP_SHXBIGFONT
  0
POINT
  5
3F8
  8
DEFPOINTS
  6
CONTINUOUS
 62
     0
 10
209.7547639767608
 20
143.5080705168734
 30
0.0
  0
POINT
  5
3F9
  8
DEFPOINTS
  6
CONTINUOUS
 62
     0
 10
209.7547639767608
 20
-15.49192948312657
 30
0.0
  0
POINT
  5
3FA
  8
DEFPOINTS
  6
CONTINUOUS
 62
     0
 10
245.1555203620539
 20
-15.49192948312657
 30
0.0
  0
ENDBLK
  5
3FC
  8
回07-寸法
  6
CONTINUOUS
 62
     7
  0
BLOCK
  8
回07-寸法
  2
*D41
 70
     1
 10
0.0
 20
0.0
 30
0.0
  3
*D41
  1

  0
LINE
  5
3FE
  8
回07-寸法
  6
CONTINUOUS
 62
     5
 10
211.7547639767608
 20
145.5080705168734
 30
0.0
 11
254.7883333938791
 21
145.5080705168734
 31
0.0
  0
LINE
  5
3FF
  8
回07-寸法
  6
CONTINUOUS
 62
     5
 10
211.7547639767608
 20
-17.49192948312657
 30
0.0
 11
254.7883333938791
 21
-17.49192948312657
 31
0.0
  0
LINE
  5
400
  8
回07-寸法
  6
CONTINUOUS
 62
     5
 10
253.7883333938792
 20
143.5080705168734
 30
0.0
 11
253.7883333938792
 21
-15.49192948312657
 31
0.0
  0
INSERT
  5
401
  8
回07-寸法
  6
CONTINUOUS
 62
     5
  2
_OPEN
 10
253.7883333938792
 20
145.5080705168734
 30
0.0
 41
2.0
 42
2.0
 43
2.0
 50
90.0
  0
INSERT
  5
402
  8
回07-寸法
  6
CONTINUOUS
 62
     5
  2
_OPEN
 10
253.7883333938792
 20
-17.49192948312657
 30
0.0
 41
2.0
 42
2.0
 43
2.0
 50
270.0
  0
TEXT
  5
403
  8
回07-寸法
  6
CONTINUOUS
 62
     5
 10
253.0883333938792
 20
40.1829093376596
 30
0.0
 40
4.0
  1
163 (VIEWING AREA)
 50
90.0
  7
MTX_ISOCP_SHXBIGFONT
  0
POINT
  5
404
  8
DEFPOINTS
  6
CONTINUOUS
 62
     0
 10
211.7547639767608
 20
145.5080705168734
 30
0.0
  0
POINT
  5
405
  8
DEFPOINTS
  6
CONTINUOUS
 62
     0
 10
211.7547639767608
 20
-17.49192948312657
 30
0.0
  0
POINT
  5
406
  8
DEFPOINTS
  6
CONTINUOUS
 62
     0
 10
253.7883333938792
 20
-17.49192948312657
 30
0.0
  0
ENDBLK
  5
408
  8
回07-寸法
  6
CONTINUOUS
 62
     7
  0
BLOCK
  8
回07-寸法
  2
*D42
 70
     1
 10
0.0
 20
0.0
 30
0.0
  3
*D42
  1

  0
LINE
  5
40A
  8
回07-寸法
  6
CONTINUOUS
 62
     5
 10
214.7547639767608
 20
150.5080705168734
 30
0.0
 11
262.3387616551101
 21
150.5080705168734
 31
0.0
  0
LINE
  5
40B
  8
回07-寸法
  6
CONTINUOUS
 62
     5
 10
214.7547639767608
 20
-22.49192948312657
 30
0.0
 11
262.3387616551101
 21
-22.49192948312657
 31
0.0
  0
LINE
  5
40C
  8
回07-寸法
  6
CONTINUOUS
 62
     5
 10
261.3387616551102
 20
148.5080705168734
 30
0.0
 11
261.3387616551102
 21
-20.49192948312657
 31
0.0
  0
INSERT
  5
40D
  8
回07-寸法
  6
CONTINUOUS
 62
     5
  2
_OPEN
 10
261.3387616551102
 20
150.5080705168734
 30
0.0
 41
2.0
 42
2.0
 43
2.0
 50
90.0
  0
INSERT
  5
40E
  8
回07-寸法
  6
CONTINUOUS
 62
     5
  2
_OPEN
 10
261.3387616551102
 20
-22.49192948312657
 30
0.0
 41
2.0
 42
2.0
 43
2.0
 50
270.0
  0
INSERT
  5
40F
  8
回07-寸法
  6
CONTINUOUS
 62
     5
 66
     1
  2
*X80
 10
0.0
 20
0.0
 30
0.0
  0
SEQEND
  5
59F
  8
回07-寸法
  6
CONTINUOUS
 62
     7
  0
POINT
  5
410
  8
DEFPOINTS
  6
CONTINUOUS
 62
     0
 10
214.7547639767608
 20
150.5080705168734
 30
0.0
  0
POINT
  5
411
  8
DEFPOINTS
  6
CONTINUOUS
 62
     0
 10
214.7547639767608
 20
-22.49192948312657
 30
0.0
  0
POINT
  5
412
  8
DEFPOINTS
  6
CONTINUOUS
 62
     0
 10
261.3387616551102
 20
-22.49192948312657
 30
0.0
  0
ENDBLK
  5
414
  8
回07-寸法
  6
CONTINUOUS
 62
     7
  0
BLOCK
  8
回07-寸法
  2
*D43
 70
     1
 10
0.0
 20
0.0
 30
0.0
  3
*D43
  1

  0
LINE
  5
416
  8
回07-寸法
  6
CONTINUOUS
 62
     5
 10
-12.24523602323916
 20
150.5080705168734
 30
0.0
 11
-12.24523602323916
 21
157.2391290517939
 31
0.0
  0
LINE
  5
417
  8
回07-寸法
  6
CONTINUOUS
 62
     5
 10
103.7547639767606
 20
159.9580705168732
 30
0.0
 11
103.7547639767606
 21
155.2391290517939
 31
0.0
  0
LINE
  5
418
  8
回07-寸法
  6
CONTINUOUS
 62
     5
 10
-10.24523602323916
 20
156.2391290517939
 30
0.0
 11
101.7547639767606
 21
156.2391290517939
 31
0.0
  0
INSERT
  5
419
  8
回07-寸法
  6
CONTINUOUS
 62
     5
  2
_OPEN
 10
-12.24523602323916
 20
156.2391290517939
 30
0.0
 41
2.0
 42
2.0
 43
2.0
 50
180.0
  0
INSERT
  5
41A
  8
回07-寸法
  6
CONTINUOUS
 62
     5
  2
_OPEN
 10
103.7547639767606
 20
156.2391290517939
 30
0.0
 41
2.0
 42
2.0
 43
2.0
  0
TEXT
  5
41B
  8
回07-寸法
  6
CONTINUOUS
 62
     5
 10
12.95555137833553
 20
156.939129051794
 30
0.0
 40
4.0
  1
116 (ACTIVE AREA CENTER)
  7
MTX_ISOCP_SHXBIGFONT
  0
POINT
  5
41C
  8
DEFPOINTS
  6
CONTINUOUS
 62
     0
 10
-12.24523602323916
 20
150.5080705168734
 30
0.0
  0
POINT
  5
41D
  8
DEFPOINTS
  6
CONTINUOUS
 62
     0
 10
103.7547639767606
 20
159.9580705168732
 30
0.0
  0
POINT
  5
41E
  8
DEFPOINTS
  6
CONTINUOUS
 62
     0
 10
103.7547639767606
 20
156.2391290517939
 30
0.0
  0
ENDBLK
  5
420
  8
回07-寸法
  6
CONTINUOUS
 62
     7
  0
BLOCK
  8
回07-寸法
  2
*D44
 70
     1
 10
0.0
 20
0.0
 30
0.0
  3
*D44
  1

  0
LINE
  5
422
  8
回07-寸法
  6
CONTINUOUS
 62
     5
 10
-92.24523602323916
 20
64.63307051687388
 30
0.0
 11
-92.24523602323916
 21
93.45753170504258
 31
0.0
  0
LINE
  5
423
  8
回07-寸法
  6
CONTINUOUS
 62
     5
 10
-12.24523602323916
 20
91.31486215661562
 30
0.0
 11
-12.24523602323916
 21
93.45753170504258
 31
0.0
  0
LINE
  5
424
  8
回07-寸法
  6
CONTINUOUS
 62
     5
 10
-90.24523602323915
 20
92.45753170504258
 30
0.0
 11
-14.24523602323916
 21
92.45753170504258
 31
0.0
  0
INSERT
  5
425
  8
回07-寸法
  6
CONTINUOUS
 62
     5
  2
_OPEN
 10
-92.24523602323916
 20
92.45753170504258
 30
0.0
 41
2.0
 42
2.0
 43
2.0
 50
180.0
  0
INSERT
  5
426
  8
回07-寸法
  6
CONTINUOUS
 62
     5
  2
_OPEN
 10
-12.24523602323916
 20
92.45753170504258
 30
0.0
 41
2.0
 42
2.0
 43
2.0
  0
INSERT
  5
427
  8
回07-寸法
  6
CONTINUOUS
 62
     5
 66
     1
  2
*X81
 10
0.0
 20
0.0
 30
0.0
  0
SEQEND
  5
5A5
  8
回07-寸法
  6
CONTINUOUS
 62
     7
  0
POINT
  5
428
  8
DEFPOINTS
  6
CONTINUOUS
 62
     0
 10
-92.24523602323916
 20
64.63307051687388
 30
0.0
  0
POINT
  5
429
  8
DEFPOINTS
  6
CONTINUOUS
 62
     0
 10
-12.24523602323916
 20
91.31486215661562
 30
0.0
  0
POINT
  5
42A
  8
DEFPOINTS
  6
CONTINUOUS
 62
     0
 10
-12.24523602323916
 20
92.45753170504258
 30
0.0
  0
ENDBLK
  5
42C
  8
回07-寸法
  6
CONTINUOUS
 62
     7
  0
BLOCK
  8
回07-寸法
  2
*D45
 70
     1
 10
0.0
 20
0.0
 30
0.0
  3
*D45
  1

  0
LINE
  5
42E
  8
回07-寸法
  6
CONTINUOUS
 62
     5
 10
214.3547639767608
 20
-19.04192948312675
 30
0.0
 11
227.2268685417005
 21
-19.04192948312675
 31
0.0
  0
LINE
  5
42F
  8
回07-寸法
  6
CONTINUOUS
 62
     5
 10
214.2547639767609
 20
-17.04192948312675
 30
0.0
 11
227.2268685417005
 21
-17.04192948312675
 31
0.0
  0
LINE
  5
430
  8
回07-寸法
  6
CONTINUOUS
 62
     5
 10
226.2268685417005
 20
-15.04192948312675
 30
0.0
 11
226.2268685417005
 21
-7.205831130642366
 31
0.0
  0
LINE
  5
431
  8
回07-寸法
  6
CONTINUOUS
 62
     5
 10
226.2268685417005
 20
-19.04192948312675
 30
0.0
 11
226.2268685417005
 21
-17.04192948312675
 31
0.0
  0
LINE
  5
432
  8
回07-寸法
  6
CONTINUOUS
 62
     5
 10
226.2268685417005
 20
-21.04192948312675
 30
0.0
 11
226.2268685417005
 21
-23.04192948312675
 31
0.0
  0
INSERT
  5
433
  8
回07-寸法
  6
CONTINUOUS
 62
     5
  2
_OPEN
 10
226.2268685417005
 20
-19.04192948312675
 30
0.0
 41
2.0
 42
2.0
 43
2.0
 50
90.0
  0
INSERT
  5
434
  8
回07-寸法
  6
CONTINUOUS
 62
     5
  2
_OPEN
 10
226.2268685417005
 20
-17.04192948312675
 30
0.0
 41
2.0
 42
2.0
 43
2.0
 50
270.0
  0
TEXT
  5
435
  8
回07-寸法
  6
CONTINUOUS
 62
     5
 10
225.5268685417005
 20
-13.10425632749275
 30
0.0
 40
4.0
  1
(2)
 50
90.0
  7
MTX_ISOCP_SHXBIGFONT
  0
POINT
  5
436
  8
DEFPOINTS
  6
CONTINUOUS
 62
     0
 10
214.3547639767608
 20
-19.04192948312675
 30
0.0
  0
POINT
  5
437
  8
DEFPOINTS
  6
CONTINUOUS
 62
     0
 10
214.2547639767609
 20
-17.04192948312675
 30
0.0
  0
POINT
  5
438
  8
DEFPOINTS
  6
CONTINUOUS
 62
     0
 10
226.2268685417005
 20
-17.04192948312675
 30
0.0
  0
ENDBLK
  5
43A
  8
回07-寸法
  6
CONTINUOUS
 62
     7
  0
BLOCK
  8
回07-寸法
  2
*D46
 70
     1
 10
0.0
 20
0.0
 30
0.0
  3
*D46
  1

  0
LINE
  5
43C
  8
回07-寸法
  6
CONTINUOUS
 62
     5
 10
214.7547639767608
 20
-22.49192948312657
 30
0.0
 11
227.2268685417005
 21
-22.49192948312657
 31
0.0
  0
LINE
  5
43D
  8
回07-寸法
  6
CONTINUOUS
 62
     5
 10
214.2547639767609
 20
-19.04192948312675
 30
0.0
 11
227.2268685417005
 21
-19.04192948312675
 31
0.0
  0
LINE
  5
43E
  8
回07-寸法
  6
CONTINUOUS
 62
     5
 10
226.2268685417005
 20
-24.49192948312657
 30
0.0
 11
226.2268685417005
 21
-39.48877987682778
 31
0.0
  0
LINE
  5
43F
  8
回07-寸法
  6
CONTINUOUS
 62
     5
 10
226.2268685417005
 20
-22.49192948312657
 30
0.0
 11
226.2268685417005
 21
-19.04192948312675
 31
0.0
  0
LINE
  5
440
  8
回07-寸法
  6
CONTINUOUS
 62
     5
 10
226.2268685417005
 20
-17.04192948312675
 30
0.0
 11
226.2268685417005
 21
-15.04192948312675
 31
0.0
  0
INSERT
  5
441
  8
回07-寸法
  6
CONTINUOUS
 62
     5
  2
_OPEN
 10
226.2268685417005
 20
-22.49192948312657
 30
0.0
 41
2.0
 42
2.0
 43
2.0
 50
90.0
  0
INSERT
  5
442
  8
回07-寸法
  6
CONTINUOUS
 62
     5
  2
_OPEN
 10
226.2268685417005
 20
-19.04192948312675
 30
0.0
 41
2.0
 42
2.0
 43
2.0
 50
270.0
  0
TEXT
  5
443
  8
回07-寸法
  6
CONTINUOUS
 62
     5
 10
225.5268685417005
 20
-39.5903546799774
 30
0.0
 40
4.0
  1
(3.45)
 50
90.0
  7
MTX_ISOCP_SHXBIGFONT
  0
POINT
  5
444
  8
DEFPOINTS
  6
CONTINUOUS
 62
     0
 10
214.7547639767608
 20
-22.49192948312657
 30
0.0
  0
POINT
  5
445
  8
DEFPOINTS
  6
CONTINUOUS
 62
     0
 10
214.2547639767609
 20
-19.04192948312675
 30
0.0
  0
POINT
  5
446
  8
DEFPOINTS
  6
CONTINUOUS
 62
     0
 10
226.2268685417005
 20
-19.04192948312675
 30
0.0
  0
ENDBLK
  5
448
  8
回07-寸法
  6
CONTINUOUS
 62
     7
  0
BLOCK
  8
回07-寸法
  2
*D47
 70
     1
 10
0.0
 20
0.0
 30
0.0
  3
*D47
  1

  0
LINE
  5
44A
  8
回07-寸法
  6
CONTINUOUS
 62
     5
 10
214.7547639767608
 20
-76.3266593192402
 30
0.0
 11
238.3528823589861
 21
-76.3266593192402
 31
0.0
  0
LINE
  5
44B
  8
回07-寸法
  6
CONTINUOUS
 62
     5
 10
214.7547639767608
 20
-89.32665931924066
 30
0.0
 11
238.3528823589861
 21
-89.32665931924066
 31
0.0
  0
LINE
  5
44C
  8
回07-寸法
  6
CONTINUOUS
 62
     5
 10
237.3528823589861
 20
-91.32665931924066
 30
0.0
 11
237.3528823589861
 21
-114.4907334561243
 31
0.0
  0
LINE
  5
44D
  8
回07-寸法
  6
CONTINUOUS
 62
     5
 10
237.3528823589861
 20
-76.3266593192402
 30
0.0
 11
237.3528823589861
 21
-89.32665931924066
 31
0.0
  0
LINE
  5
44E
  8
回07-寸法
  6
CONTINUOUS
 62
     5
 10
237.3528823589861
 20
-74.3266593192402
 30
0.0
 11
237.3528823589861
 21
-72.32665931924021
 31
0.0
  0
INSERT
  5
44F
  8
回07-寸法
  6
CONTINUOUS
 62
     5
  2
_OPEN
 10
237.3528823589861
 20
-76.3266593192402
 30
0.0
 41
2.0
 42
2.0
 43
2.0
 50
270.0
  0
INSERT
  5
450
  8
回07-寸法
  6
CONTINUOUS
 62
     5
  2
_OPEN
 10
237.3528823589861
 20
-89.32665931924066
 30
0.0
 41
2.0
 42
2.0
 43
2.0
 50
90.0
  0
TEXT
  5
451
  8
回07-寸法
  6
CONTINUOUS
 62
     5
 10
236.8528823589861
 20
-114.5907334561243
 30
0.0
 40
4.0
  1
2.1±0.2
 50
90.0
  7
MTX_ISOCP_SHXBIGFONT
  0
POINT
  5
452
  8
DEFPOINTS
  6
CONTINUOUS
 62
     0
 10
214.7547639767608
 20
-76.3266593192402
 30
0.0
  0
POINT
  5
453
  8
DEFPOINTS
  6
CONTINUOUS
 62
     0
 10
214.7547639767608
 20
-89.32665931924066
 30
0.0
  0
POINT
  5
454
  8
DEFPOINTS
  6
CONTINUOUS
 62
     0
 10
237.3528823589861
 20
-89.32665931924066
 30
0.0
  0
ENDBLK
  5
456
  8
回07-寸法
  6
CONTINUOUS
 62
     7
  0
BLOCK
  8
回07-寸法
  2
*D48
 70
     1
 10
0.0
 20
0.0
 30
0.0
  3
*D48
  1

  0
LINE
  5
458
  8
回07-寸法
  6
CONTINUOUS
 62
     5
 10
216.7547639767609
 20
-91.32665931924066
 30
0.0
 11
216.7547639767609
 21
-103.9561553730705
 31
0.0
  0
LINE
  5
459
  8
回07-寸法
  6
CONTINUOUS
 62
     5
 10
206.7547639767608
 20
-91.32665931924066
 30
0.0
 11
206.7547639767608
 21
-103.9561553730705
 31
0.0
  0
LINE
  5
45A
  8
回07-寸法
  6
CONTINUOUS
 62
     5
 10
204.7547639767608
 20
-102.9561553730705
 30
0.0
 11
190.5579135830599
 21
-102.9561553730705
 31
0.0
  0
LINE
  5
45B
  8
回07-寸法
  6
CONTINUOUS
 62
     5
 10
216.7547639767609
 20
-102.9561553730705
 30
0.0
 11
206.7547639767608
 21
-102.9561553730705
 31
0.0
  0
LINE
  5
45C
  8
回07-寸法
  6
CONTINUOUS
 62
     5
 10
218.7547639767609
 20
-102.9561553730705
 30
0.0
 11
220.7547639767609
 21
-102.9561553730705
 31
0.0
  0
INSERT
  5
45D
  8
回07-寸法
  6
CONTINUOUS
 62
     5
  2
_OPEN
 10
216.7547639767609
 20
-102.9561553730705
 30
0.0
 41
2.0
 42
2.0
 43
2.0
 50
180.0
  0
INSERT
  5
45E
  8
回07-寸法
  6
CONTINUOUS
 62
     5
  2
_OPEN
 10
206.7547639767608
 20
-102.9561553730705
 30
0.0
 41
2.0
 42
2.0
 43
2.0
  0
TEXT
  5
45F
  8
回07-寸法
  6
CONTINUOUS
 62
     5
 10
190.4563387799103
 20
-102.1561553730705
 30
0.0
 40
4.0
  1
(1.45)
  7
MTX_ISOCP_SHXBIGFONT
  0
POINT
  5
460
  8
DEFPOINTS
  6
CONTINUOUS
 62
     0
 10
216.7547639767609
 20
-91.32665931924066
 30
0.0
  0
POINT
  5
461
  8
DEFPOINTS
  6
CONTINUOUS
 62
     0
 10
206.7547639767608
 20
-91.32665931924066
 30
0.0
  0
POINT
  5
462
  8
DEFPOINTS
  6
CONTINUOUS
 62
     0
 10
206.7547639767608
 20
-102.9561553730705
 30
0.0
  0
ENDBLK
  5
464
  8
回07-寸法
  6
CONTINUOUS
 62
     7
  0
BLOCK
  8
回07-寸法
  2
*D49
 70
     1
 10
0.0
 20
0.0
 30
0.0
  3
*D49
  1

  0
LINE
  5
466
  8
回07-寸法
  6
CONTINUOUS
 62
     5
 10
-12.24523602323916
 20
150.5080705168734
 30
0.0
 11
-12.24523602323916
 21
167.8631936422785
 31
0.0
  0
LINE
  5
467
  8
回07-寸法
  6
CONTINUOUS
 62
     5
 10
-2.245236023239158
 20
143.5080705168734
 30
0.0
 11
-2.245236023239158
 21
167.8631936422785
 31
0.0
  0
LINE
  5
468
  8
回07-寸法
  6
CONTINUOUS
 62
     5
 10
-14.24523602323916
 20
166.8631936422785
 30
0.0
 11
-21.29877933032572
 21
166.8631936422785
 31
0.0
  0
LINE
  5
469
  8
回07-寸法
  6
CONTINUOUS
 62
     5
 10
-12.24523602323916
 20
166.8631936422785
 30
0.0
 11
-2.245236023239158
 21
166.8631936422785
 31
0.0
  0
LINE
  5
46A
  8
回07-寸法
  6
CONTINUOUS
 62
     5
 10
-0.2452360232391584
 20
166.8631936422785
 30
0.0
 11
1.754763976760841
 21
166.8631936422785
 31
0.0
  0
INSERT
  5
46B
  8
回07-寸法
  6
CONTINUOUS
 62
     5
  2
_OPEN
 10
-12.24523602323916
 20
166.8631936422785
 30
0.0
 41
2.0
 42
2.0
 43
2.0
  0
INSERT
  5
46C
  8
回07-寸法
  6
CONTINUOUS
 62
     5
  2
_OPEN
 10
-2.245236023239158
 20
166.8631936422785
 30
0.0
 41
2.0
 42
2.0
 43
2.0
 50
180.0
  0
TEXT
  5
46D
  8
回07-寸法
  6
CONTINUOUS
 62
     5
 10
-21.39877933032572
 20
167.3631936422784
 30
0.0
 40
4.0
  1
10
  7
MTX_ISOCP_SHXBIGFONT
  0
POINT
  5
46E
  8
DEFPOINTS
  6
CONTINUOUS
 62
     0
 10
-12.24523602323916
 20
150.5080705168734
 30
0.0
  0
POINT
  5
46F
  8
DEFPOINTS
  6
CONTINUOUS
 62
     0
 10
-2.245236023239158
 20
143.5080705168734
 30
0.0
  0
POINT
  5
470
  8
DEFPOINTS
  6
CONTINUOUS
 62
     0
 10
-2.245236023239158
 20
166.8631936422785
 30
0.0
  0
ENDBLK
  5
472
  8
回07-寸法
  6
CONTINUOUS
 62
     7
  0
BLOCK
  8
回07-寸法
  2
*D50
 70
     1
 10
0.0
 20
0.0
 30
0.0
  3
*D50
  1

  0
LINE
  5
474
  8
回07-寸法
  6
CONTINUOUS
 62
     5
 10
-4.245236023239158
 20
145.4806725116355
 30
0.0
 11
-4.245236023239158
 21
176.8363566390549
 31
0.0
  0
LINE
  5
475
  8
回07-寸法
  6
CONTINUOUS
 62
     5
 10
-12.24523602323916
 20
150.5080705168734
 30
0.0
 11
-12.24523602323916
 21
176.8363566390549
 31
0.0
  0
LINE
  5
476
  8
回07-寸法
  6
CONTINUOUS
 62
     5
 10
-14.24523602323916
 20
175.8363566390548
 30
0.0
 11
-19.26116813267918
 21
175.8363566390548
 31
0.0
  0
LINE
  5
477
  8
回07-寸法
  6
CONTINUOUS
 62
     5
 10
-4.245236023239158
 20
175.8363566390548
 30
0.0
 11
-12.24523602323916
 21
175.8363566390548
 31
0.0
  0
LINE
  5
478
  8
回07-寸法
  6
CONTINUOUS
 62
     5
 10
-2.245236023239158
 20
175.8363566390548
 30
0.0
 11
-0.2452360232391584
 21
175.8363566390548
 31
0.0
  0
INSERT
  5
479
  8
回07-寸法
  6
CONTINUOUS
 62
     5
  2
_OPEN
 10
-4.245236023239158
 20
175.8363566390548
 30
0.0
 41
2.0
 42
2.0
 43
2.0
 50
180.0
  0
INSERT
  5
47A
  8
回07-寸法
  6
CONTINUOUS
 62
     5
  2
_OPEN
 10
-12.24523602323916
 20
175.8363566390548
 30
0.0
 41
2.0
 42
2.0
 43
2.0
  0
TEXT
  5
47B
  8
回07-寸法
  6
CONTINUOUS
 62
     5
 10
-19.36116813267917
 20
176.3363566390549
 30
0.0
 40
4.0
  1
8
  7
MTX_ISOCP_SHXBIGFONT
  0
POINT
  5
47C
  8
DEFPOINTS
  6
CONTINUOUS
 62
     0
 10
-4.245236023239158
 20
145.4806725116355
 30
0.0
  0
POINT
  5
47D
  8
DEFPOINTS
  6
CONTINUOUS
 62
     0
 10
-12.24523602323916
 20
150.5080705168734
 30
0.0
  0
POINT
  5
47E
  8
DEFPOINTS
  6
CONTINUOUS
 62
     0
 10
-12.24523602323916
 20
175.8363566390548
 30
0.0
  0
ENDBLK
  5
480
  8
回07-寸法
  6
CONTINUOUS
 62
     7
  0
BLOCK
  8
回07-寸法
  2
*D51
 70
     1
 10
0.0
 20
0.0
 30
0.0
  3
*D51
  1

  0
LINE
  5
482
  8
回07-寸法
  6
CONTINUOUS
 62
     5
 10
-92.24523602323916
 20
-80.3266593192402
 30
0.0
 11
-100.7513618002319
 21
-80.3266593192402
 31
0.0
  0
LINE
  5
483
  8
回07-寸法
  6
CONTINUOUS
 62
     5
 10
-92.24523602323916
 20
-87.32665931924021
 30
0.0
 11
-100.7513618002319
 21
-87.32665931924021
 31
0.0
  0
LINE
  5
484
  8
回07-寸法
  6
CONTINUOUS
 62
     5
 10
-99.75136180023197
 20
-89.3266593192402
 30
0.0
 11
-99.75136180023197
 21
-112.1637560169201
 31
0.0
  0
LINE
  5
485
  8
回07-寸法
  6
CONTINUOUS
 62
     5
 10
-99.75136180023197
 20
-80.3266593192402
 30
0.0
 11
-99.75136180023197
 21
-87.32665931924021
 31
0.0
  0
LINE
  5
486
  8
回07-寸法
  6
CONTINUOUS
 62
     5
 10
-99.75136180023197
 20
-78.32665931924021
 30
0.0
 11
-99.75136180023197
 21
-76.3266593192402
 31
0.0
  0
INSERT
  5
487
  8
回07-寸法
  6
CONTINUOUS
 62
     5
  2
_OPEN
 10
-99.75136180023197
 20
-80.3266593192402
 30
0.0
 41
2.0
 42
2.0
 43
2.0
 50
270.0
  0
INSERT
  5
488
  8
回07-寸法
  6
CONTINUOUS
 62
     5
  2
_OPEN
 10
-99.75136180023197
 20
-87.32665931924021
 30
0.0
 41
2.0
 42
2.0
 43
2.0
 50
90.0
  0
INSERT
  5
489
  8
回07-寸法
  6
CONTINUOUS
 62
     5
 66
     1
  2
*X82
 10
0.0
 20
0.0
 30
0.0
  0
SEQEND
  5
5AB
  8
回07-寸法
  6
CONTINUOUS
 62
     7
  0
POINT
  5
48A
  8
DEFPOINTS
  6
CONTINUOUS
 62
     0
 10
-92.24523602323916
 20
-80.3266593192402
 30
0.0
  0
POINT
  5
48B
  8
DEFPOINTS
  6
CONTINUOUS
 62
     0
 10
-92.24523602323916
 20
-87.32665931924021
 30
0.0
  0
POINT
  5
48C
  8
DEFPOINTS
  6
CONTINUOUS
 62
     0
 10
-99.75136180023197
 20
-87.32665931924021
 30
0.0
  0
ENDBLK
  5
48E
  8
回07-寸法
  6
CONTINUOUS
 62
     7
  0
BLOCK
  8
回07-寸法
  2
*D52
 70
     1
 10
0.0
 20
0.0
 30
0.0
  3
*D52
  1

  0
LINE
  5
490
  8
回07-寸法
  6
CONTINUOUS
 62
     5
 10
-92.24523602323916
 20
-80.3266593192402
 30
0.0
 11
-92.24523602323916
 21
-72.67970419201083
 31
0.0
  0
LINE
  5
491
  8
回07-寸法
  6
CONTINUOUS
 62
     5
 10
-87.24523602323916
 20
-80.3266593192402
 30
0.0
 11
-87.24523602323916
 21
-72.67970419201083
 31
0.0
  0
LINE
  5
492
  8
回07-寸法
  6
CONTINUOUS
 62
     5
 10
-85.24523602323915
 20
-73.67970419201083
 30
0.0
 11
-80.34168263264582
 21
-73.67970419201083
 31
0.0
  0
LINE
  5
493
  8
回07-寸法
  6
CONTINUOUS
 62
     5
 10
-92.24523602323916
 20
-73.67970419201083
 30
0.0
 11
-87.24523602323916
 21
-73.67970419201083
 31
0.0
  0
LINE
  5
494
  8
回07-寸法
  6
CONTINUOUS
 62
     5
 10
-94.24523602323915
 20
-73.67970419201083
 30
0.0
 11
-96.24523602323916
 21
-73.67970419201083
 31
0.0
  0
INSERT
  5
495
  8
回07-寸法
  6
CONTINUOUS
 62
     5
  2
_OPEN
 10
-92.24523602323916
 20
-73.67970419201083
 30
0.0
 41
2.0
 42
2.0
 43
2.0
  0
INSERT
  5
496
  8
回07-寸法
  6
CONTINUOUS
 62
     5
  2
_OPEN
 10
-87.24523602323916
 20
-73.67970419201083
 30
0.0
 41
2.0
 42
2.0
 43
2.0
 50
180.0
  0
TEXT
  5
497
  8
回07-寸法
  6
CONTINUOUS
 62
     5
 10
-83.04168263264582
 20
-73.17970419201083
 30
0.0
 40
4.0
  1
5
  7
MTX_ISOCP_SHXBIGFONT
  0
POINT
  5
498
  8
DEFPOINTS
  6
CONTINUOUS
 62
     0
 10
-92.24523602323916
 20
-80.3266593192402
 30
0.0
  0
POINT
  5
499
  8
DEFPOINTS
  6
CONTINUOUS
 62
     0
 10
-87.24523602323916
 20
-80.3266593192402
 30
0.0
  0
POINT
  5
49A
  8
DEFPOINTS
  6
CONTINUOUS
 62
     0
 10
-87.24523602323916
 20
-73.67970419201083
 30
0.0
  0
ENDBLK
  5
49C
  8
回07-寸法
  6
CONTINUOUS
 62
     7
  0
BLOCK
  8
回07-寸法
  2
*D53
 70
     1
 10
0.0
 20
0.0
 30
0.0
  3
*D53
  1

  0
LINE
  5
49E
  8
回07-寸法
  6
CONTINUOUS
 62
     5
 10
-92.24523602323916
 20
-85.3266593192402
 30
0.0
 11
-92.24523602323916
 21
-103.5609636247245
 31
0.0
  0
LINE
  5
49F
  8
回07-寸法
  6
CONTINUOUS
 62
     5
 10
-82.24523602323916
 20
-85.3266593192402
 30
0.0
 11
-82.24523602323916
 21
-103.5609636247245
 31
0.0
  0
LINE
  5
4A0
  8
回07-寸法
  6
CONTINUOUS
 62
     5
 10
-80.24523602323915
 20
-102.5609636247245
 30
0.0
 11
-69.59877933032571
 21
-102.5609636247245
 31
0.0
  0
LINE
  5
4A1
  8
回07-寸法
  6
CONTINUOUS
 62
     5
 10
-92.24523602323916
 20
-102.5609636247245
 30
0.0
 11
-82.24523602323916
 21
-102.5609636247245
 31
0.0
  0
LINE
  5
4A2
  8
回07-寸法
  6
CONTINUOUS
 62
     5
 10
-94.24523602323915
 20
-102.5609636247245
 30
0.0
 11
-96.24523602323916
 21
-102.5609636247245
 31
0.0
  0
INSERT
  5
4A3
  8
回07-寸法
  6
CONTINUOUS
 62
     5
  2
_OPEN
 10
-92.24523602323916
 20
-102.5609636247245
 30
0.0
 41
2.0
 42
2.0
 43
2.0
  0
INSERT
  5
4A4
  8
回07-寸法
  6
CONTINUOUS
 62
     5
  2
_OPEN
 10
-82.24523602323916
 20
-102.5609636247245
 30
0.0
 41
2.0
 42
2.0
 43
2.0
 50
180.0
  0
TEXT
  5
4A5
  8
回07-寸法
  6
CONTINUOUS
 62
     5
 10
-77.4972045271761
 20
-101.7609636247245
 30
0.0
 40
4.0
  1
(10)
  7
MTX_ISOCP_SHXBIGFONT
  0
POINT
  5
4A6
  8
DEFPOINTS
  6
CONTINUOUS
 62
     0
 10
-92.24523602323916
 20
-85.3266593192402
 30
0.0
  0
POINT
  5
4A7
  8
DEFPOINTS
  6
CONTINUOUS
 62
     0
 10
-82.24523602323916
 20
-85.3266593192402
 30
0.0
  0
POINT
  5
4A8
  8
DEFPOINTS
  6
CONTINUOUS
 62
     0
 10
-82.24523602323916
 20
-102.5609636247245
 30
0.0
  0
ENDBLK
  5
4AA
  8
回07-寸法
  6
CONTINUOUS
 62
     7
  0
BLOCK
  8
回07-寸法
  2
*D54
 70
     1
 10
0.0
 20
0.0
 30
0.0
  3
*D54
  1

  0
LINE
  5
4AC
  8
回07-寸法
  6
CONTINUOUS
 62
     5
 10
-2.245236023239158
 20
143.5080705168734
 30
0.0
 11
-2.245236023239158
 21
167.8631936422785
 31
0.0
  0
LINE
  5
4AD
  8
回07-寸法
  6
CONTINUOUS
 62
     5
 10
209.7547639767608
 20
143.5080705168734
 30
0.0
 11
209.7547639767608
 21
167.8631936422785
 31
0.0
  0
LINE
  5
4AE
  8
回07-寸法
  6
CONTINUOUS
 62
     5
 10
-0.2452360232391584
 20
166.8631936422785
 30
0.0
 11
207.7547639767608
 21
166.8631936422785
 31
0.0
  0
INSERT
  5
4AF
  8
回07-寸法
  6
CONTINUOUS
 62
     5
  2
_OPEN
 10
-2.245236023239158
 20
166.8631936422785
 30
0.0
 41
2.0
 42
2.0
 43
2.0
 50
180.0
  0
INSERT
  5
4B0
  8
回07-寸法
  6
CONTINUOUS
 62
     5
  2
_OPEN
 10
209.7547639767608
 20
166.8631936422785
 30
0.0
 41
2.0
 42
2.0
 43
2.0
  0
TEXT
  5
4B1
  8
回07-寸法
  6
CONTINUOUS
 62
     5
 10
81.82554558624495
 20
167.6631936422785
 30
0.0
 40
4.0
  1
212 (ACTIVE AREA)
  7
MTX_ISOCP_SHXBIGFONT
  0
POINT
  5
4B2
  8
DEFPOINTS
  6
CONTINUOUS
 62
     0
 10
-2.245236023239158
 20
143.5080705168734
 30
0.0
  0
POINT
  5
4B3
  8
DEFPOINTS
  6
CONTINUOUS
 62
     0
 10
209.7547639767608
 20
143.5080705168734
 30
0.0
  0
POINT
  5
4B4
  8
DEFPOINTS
  6
CONTINUOUS
 62
     0
 10
209.7547639767608
 20
166.8631936422785
 30
0.0
  0
ENDBLK
  5
4B6
  8
回07-寸法
  6
CONTINUOUS
 62
     7
  0
BLOCK
  8
回07-寸法
  2
*D55
 70
     1
 10
0.0
 20
0.0
 30
0.0
  3
*D55
  1

  0
LINE
  5
4B8
  8
回07-寸法
  6
CONTINUOUS
 62
     5
 10
-4.245236023239158
 20
145.4806725116355
 30
0.0
 11
-4.245236023239158
 21
176.8385660531917
 31
0.0
  0
LINE
  5
4B9
  8
回07-寸法
  6
CONTINUOUS
 62
     5
 10
211.7547639767608
 20
145.5080705168734
 30
0.0
 11
211.7547639767608
 21
176.8385660531917
 31
0.0
  0
LINE
  5
4BA
  8
回07-寸法
  6
CONTINUOUS
 62
     5
 10
-2.245236023239158
 20
175.8385660531917
 30
0.0
 11
209.7547639767608
 21
175.8385660531917
 31
0.0
  0
INSERT
  5
4BB
  8
回07-寸法
  6
CONTINUOUS
 62
     5
  2
_OPEN
 10
-4.245236023239158
 20
175.8385660531917
 30
0.0
 41
2.0
 42
2.0
 43
2.0
 50
180.0
  0
INSERT
  5
4BC
  8
回07-寸法
  6
CONTINUOUS
 62
     5
  2
_OPEN
 10
211.7547639767608
 20
175.8385660531917
 30
0.0
 41
2.0
 42
2.0
 43
2.0
  0
TEXT
  5
4BD
  8
回07-寸法
  6
CONTINUOUS
 62
     5
 10
80.47316173926722
 20
176.6385660531917
 30
0.0
 40
4.0
  1
216 (VIEWING AREA)
  7
MTX_ISOCP_SHXBIGFONT
  0
POINT
  5
4BE
  8
DEFPOINTS
  6
CONTINUOUS
 62
     0
 10
-4.245236023239158
 20
145.4806725116355
 30
0.0
  0
POINT
  5
4BF
  8
DEFPOINTS
  6
CONTINUOUS
 62
     0
 10
211.7547639767608
 20
145.5080705168734
 30
0.0
  0
POINT
  5
4C0
  8
DEFPOINTS
  6
CONTINUOUS
 62
     0
 10
211.7547639767608
 20
175.8385660531917
 30
0.0
  0
ENDBLK
  5
4C2
  8
回07-寸法
  6
CONTINUOUS
 62
     7
  0
BLOCK
  8
回07-寸法
  2
*D56
 70
     1
 10
0.0
 20
0.0
 30
0.0
  3
*D56
  1

  0
LINE
  5
4C4
  8
回07-寸法
  6
CONTINUOUS
 62
     5
 10
-12.24523602323916
 20
150.5080705168734
 30
0.0
 11
-12.24523602323916
 21
185.0674718509003
 31
0.0
  0
LINE
  5
4C5
  8
回07-寸法
  6
CONTINUOUS
 62
     5
 10
214.7547639767608
 20
150.5080705168734
 30
0.0
 11
214.7547639767608
 21
185.0674718509003
 31
0.0
  0
LINE
  5
4C6
  8
回07-寸法
  6
CONTINUOUS
 62
     5
 10
-10.24523602323916
 20
184.0674718509003
 30
0.0
 11
212.7547639767608
 21
184.0674718509003
 31
0.0
  0
INSERT
  5
4C7
  8
回07-寸法
  6
CONTINUOUS
 62
     5
  2
_OPEN
 10
-12.24523602323916
 20
184.0674718509003
 30
0.0
 41
2.0
 42
2.0
 43
2.0
 50
180.0
  0
INSERT
  5
4C8
  8
回07-寸法
  6
CONTINUOUS
 62
     5
  2
_OPEN
 10
214.7547639767608
 20
184.0674718509003
 30
0.0
 41
2.0
 42
2.0
 43
2.0
  0
INSERT
  5
4C9
  8
回07-寸法
  6
CONTINUOUS
 62
     5
 66
     1
  2
*X83
 10
0.0
 20
0.0
 30
0.0
  0
SEQEND
  5
5B1
  8
回07-寸法
  6
CONTINUOUS
 62
     7
  0
POINT
  5
4CA
  8
DEFPOINTS
  6
CONTINUOUS
 62
     0
 10
-12.24523602323916
 20
150.5080705168734
 30
0.0
  0
POINT
  5
4CB
  8
DEFPOINTS
  6
CONTINUOUS
 62
     0
 10
214.7547639767608
 20
150.5080705168734
 30
0.0
  0
POINT
  5
4CC
  8
DEFPOINTS
  6
CONTINUOUS
 62
     0
 10
214.7547639767608
 20
184.0674718509003
 30
0.0
  0
ENDBLK
  5
4CE
  8
回07-寸法
  6
CONTINUOUS
 62
     7
  0
BLOCK
  8
回07-寸法
  2
*X57
 70
     1
 10
0.0
 20
0.0
 30
0.0
  3
*X57
  1

  0
INSERT
  5
4D4
  8
回07-寸法
  6
CONTINUOUS
 62
     5
  2
_OPEN
 10
-78.19646422438245
 20
-34.08509963074403
 30
0.0
 41
2.0
 42
2.0
 43
2.0
 50
68.69643356225193
  0
LINE
  5
4D5
  8
回07-寸法
  6
CONTINUOUS
 62
     5
 10
-78.92308267217663
 20
-35.94843686037402
 30
0.0
 11
-81.75708098919903
 21
-43.21592998396226
 31
0.0
  0
LINE
  5
4D6
  8
回07-寸法
  6
CONTINUOUS
 62
     5
 10
-81.75708098919903
 20
-43.21592998396226
 30
0.0
 11
-95.05708098919903
 21
-43.21592998396226
 31
0.0
  0
ENDBLK
  5
4D8
  8
回07-寸法
  6
CONTINUOUS
 62
     7
  0
BLOCK
  8
回07-寸法
  2
*X58
 70
     1
 10
0.0
 20
0.0
 30
0.0
  3
*X58
  1

  0
SOLID
  5
4EC
  8
回08-記事
  6
CONTINUOUS
 62
     5
 10
-90.62612324616692
 20
55.59757989254403
 30
0.0
 11
-91.39765028250645
 21
57.47264179640433
 31
0.0
 12
-90.05969922525761
 22
55.94915957480875
 32
0.0
 13
-90.05969922525761
 23
55.94915957480875
 33
0.0
  0
LINE
  5
4ED
  8
回08-記事
  6
CONTINUOUS
 62
     5
 10
-90.34291123571225
 20
55.77336973367639
 30
0.0
 11
-88.12477202578543
 21
52.19976353968331
 31
0.0
  0
LINE
  5
4EE
  8
回08-記事
  6
CONTINUOUS
 62
     5
 10
-88.12477202578543
 20
52.19976353968331
 30
0.0
 11
-83.22477202578543
 21
52.19976353968331
 31
0.0
  0
ENDBLK
  5
4F0
  8
回07-寸法
  6
CONTINUOUS
 62
     7
  0
BLOCK
  8
回07-寸法
  2
*X59
 70
     1
 10
0.0
 20
0.0
 30
0.0
  3
*X59
  1

  0
SOLID
  5
4F3
  8
回07-寸法
  6
CONTINUOUS
 62
     5
 10
-21.60526494139355
 20
69.4226702815397
 30
0.0
 11
-21.73217545356397
 21
67.39905845289968
 31
0.0
 12
-22.26843150809682
 22
69.35444602447929
 32
0.0
 13
-22.26843150809682
 23
69.35444602447929
 33
0.0
  0
LINE
  5
4F4
  8
回07-寸法
  6
CONTINUOUS
 62
     5
 10
-21.93684822474518
 20
69.38855815300948
 30
0.0
 11
-22.68365217276346
 21
76.64778575836454
 31
0.0
  0
LINE
  5
4F5
  8
回07-寸法
  6
CONTINUOUS
 62
     5
 10
-22.68365217276346
 20
76.64778575836454
 30
0.0
 11
-35.18365217276346
 21
76.64778575836454
 31
0.0
  0
ENDBLK
  5
4F7
  8
回07-寸法
  6
CONTINUOUS
 62
     7
  0
BLOCK
  8
回07-寸法
  2
*X60
 70
     1
 10
0.0
 20
0.0
 30
0.0
  3
*X60
  1

  0
SOLID
  5
4FA
  8
回07-寸法
  6
CONTINUOUS
 62
     5
 10
-12.48538085320454
 20
75.00626013460851
 30
0.0
 11
-12.36351454113514
 21
72.98233827023387
 31
0.0
 12
-13.1352005761331
 22
74.85733474343061
 32
0.0
 13
-13.1352005761331
 23
74.85733474343061
 33
0.0
  0
LINE
  5
4FB
  8
回07-寸法
  6
CONTINUOUS
 62
     5
 10
-12.81029071466882
 20
74.93179743901956
 30
0.0
 11
-15.57888352004806
 21
87.01225058044883
 31
0.0
  0
LINE
  5
4FC
  8
回07-寸法
  6
CONTINUOUS
 62
     5
 10
-15.57888352004806
 20
87.01225058044883
 30
0.0
 11
-28.47976801428885
 21
87.01225058044883
 31
0.0
  0
ENDBLK
  5
4FE
  8
回07-寸法
  6
CONTINUOUS
 62
     7
  0
BLOCK
  8
回07-寸法
  2
*X61
 70
     1
 10
0.0
 20
0.0
 30
0.0
  3
*X61
  1

  0
LINE
  5
506
  8
回08-記事
  6
CONTINUOUS
 62
     8
 10
-16.63671902763986
 20
69.50716981047889
 30
0.0
 11
-14.73313550882927
 21
71.41075332928949
 31
0.0
  0
LINE
  5
507
  8
回08-記事
  6
CONTINUOUS
 62
     8
 10
-16.63671902763986
 20
67.26210578021161
 30
0.0
 11
-12.48807147856198
 21
71.41075332928949
 31
0.0
  0
LINE
  5
508
  8
回08-記事
  6
CONTINUOUS
 62
     8
 10
-16.63671902763986
 20
65.01704174994433
 30
0.0
 11
-10.24300744829469
 21
71.41075332928949
 31
0.0
  0
LINE
  5
509
  8
回08-記事
  6
CONTINUOUS
 62
     8
 10
-14.40062623044301
 20
65.00807051687388
 30
0.0
 11
-8.945236023239207
 21
70.46346072407769
 31
0.0
  0
LINE
  5
50A
  8
回08-記事
  6
CONTINUOUS
 62
     8
 10
-12.15556220017573
 20
65.00807051687388
 30
0.0
 11
-8.945236023239207
 21
68.21839669381041
 31
0.0
  0
LINE
  5
50B
  8
回08-記事
  6
CONTINUOUS
 62
     8
 10
-9.910498169908443
 20
65.00807051687388
 30
0.0
 11
-8.945236023239203
 21
65.97333266354311
 31
0.0
  0
ENDBLK
  5
50D
  8
回07-寸法
  6
CONTINUOUS
 62
     7
  0
BLOCK
  8
回07-寸法
  2
*X62
 70
     1
 10
0.0
 20
0.0
 30
0.0
  3
*X62
  1

  0
SOLID
  5
515
  8
回08-記事
  6
CONTINUOUS
 62
     5
 10
200.7140733805353
 20
-23.88341185695889
 30
0.0
 11
201.3861124330424
 21
-21.97043652439015
 31
0.0
 12
201.3708242479904
 22
-23.99796639655207
 32
0.0
 13
201.3708242479904
 23
-23.99796639655207
 33
0.0
  0
LINE
  5
516
  8
回08-記事
  6
CONTINUOUS
 62
     5
 10
201.0424488142628
 20
-23.94068912675548
 30
0.0
 11
199.7493604751601
 21
-31.35407397748031
 31
0.0
  0
LINE
  5
517
  8
回08-記事
  6
CONTINUOUS
 62
     5
 10
199.7493604751601
 20
-31.35407397748031
 30
0.0
 11
176.84936047516
 21
-31.35407397748031
 31
0.0
  0
ENDBLK
  5
519
  8
回07-寸法
  6
CONTINUOUS
 62
     7
  0
BLOCK
  8
回07-寸法
  2
*X63
 70
     1
 10
0.0
 20
0.0
 30
0.0
  3
*X63
  1

  0
LINE
  5
51C
  8
回08-記事
  6
CONTINUOUS
 62
     8
 10
-56.93339912520713
 20
61.50807051687388
 30
0.0
 11
-58.80539284798693
 21
63.38006423965371
 31
0.0
  0
LINE
  5
51D
  8
回08-記事
  6
CONTINUOUS
 62
     8
 10
-54.28174869575759
 20
61.50807051687388
 30
0.0
 11
-58.70935698123203
 21
65.93567880234835
 31
0.0
  0
LINE
  5
51E
  8
回08-記事
  6
CONTINUOUS
 62
     8
 10
-51.63009826630804
 20
61.50807051687388
 30
0.0
 11
-56.63009826630804
 21
66.50807051687388
 31
0.0
  0
LINE
  5
51F
  8
回08-記事
  6
CONTINUOUS
 62
     8
 10
-48.97844783685849
 20
61.50807051687388
 30
0.0
 11
-53.97844783685849
 21
66.50807051687388
 31
0.0
  0
LINE
  5
520
  8
回08-記事
  6
CONTINUOUS
 62
     8
 10
-46.32679740740893
 20
61.50807051687387
 30
0.0
 11
-51.32679740740893
 21
66.50807051687388
 31
0.0
  0
LINE
  5
521
  8
回08-記事
  6
CONTINUOUS
 62
     8
 10
-43.67514697795939
 20
61.50807051687387
 30
0.0
 11
-48.67514697795939
 21
66.50807051687387
 31
0.0
  0
LINE
  5
522
  8
回08-記事
  6
CONTINUOUS
 62
     8
 10
-41.02349654850985
 20
61.50807051687388
 30
0.0
 11
-46.02349654850984
 21
66.50807051687387
 31
0.0
  0
LINE
  5
523
  8
回08-記事
  6
CONTINUOUS
 62
     8
 10
-38.37184611906031
 20
61.50807051687388
 30
0.0
 11
-43.37184611906029
 21
66.50807051687387
 31
0.0
  0
LINE
  5
524
  8
回08-記事
  6
CONTINUOUS
 62
     8
 10
-35.72019568961078
 20
61.5080705168739
 30
0.0
 11
-40.72019568961077
 21
66.5080705168739
 31
0.0
  0
LINE
  5
525
  8
回08-記事
  6
CONTINUOUS
 62
     8
 10
-33.24221175688915
 20
61.68173701360181
 30
0.0
 11
-38.06854526016123
 21
66.5080705168739
 31
0.0
  0
LINE
  5
526
  8
回08-記事
  6
CONTINUOUS
 62
     8
 10
-32.80539284798692
 20
63.89656853414916
 30
0.0
 11
-35.41689483071166
 21
66.50807051687387
 31
0.0
  0
ENDBLK
  5
528
  8
回07-寸法
  6
CONTINUOUS
 62
     7
  0
BLOCK
  8
回07-寸法
  2
*X64
 70
     1
 10
0.0
 20
0.0
 30
0.0
  3
*X64
  1

  0
SOLID
  5
534
  8
回08-記事
  6
CONTINUOUS
 62
     5
 10
-46.48356899263881
 20
59.49974987237851
 30
0.0
 11
-45.73027521982203
 21
61.38221092189496
 31
0.0
 12
-45.83232250237311
 22
59.35719302981721
 32
0.0
 13
-45.83232250237311
 23
59.35719302981721
 33
0.0
  0
LINE
  5
535
  8
回08-記事
  6
CONTINUOUS
 62
     5
 10
-46.15794574750597
 20
59.42847145109786
 30
0.0
 11
-47.4701259994481
 21
53.43400097658696
 31
0.0
  0
LINE
  5
536
  8
回08-記事
  6
CONTINUOUS
 62
     5
 10
-47.4701259994481
 20
53.43400097658696
 30
0.0
 11
-75.57012599944809
 21
53.43400097658696
 31
0.0
  0
ENDBLK
  5
538
  8
回07-寸法
  6
CONTINUOUS
 62
     7
  0
BLOCK
  8
回07-寸法
  2
*X65
 70
     1
 10
0.0
 20
0.0
 30
0.0
  3
*X65
  1

  0
SOLID
  5
540
  8
回08-記事
  6
CONTINUOUS
 62
     5
 10
212.0369605474626
 20
-13.4472601236614
 30
0.0
 11
211.4150472514286
 21
-15.37711373555203
 31
0.0
 12
211.3774451438206
 22
-13.34987492559042
 32
0.0
 13
211.3774451438206
 23
-13.34987492559042
 33
0.0
  0
LINE
  5
541
  8
回08-記事
  6
CONTINUOUS
 62
     5
 10
211.7072028456416
 20
-13.39856752462591
 30
0.0
 11
213.6759797026718
 21
-0.0655488599309138
 31
0.0
  0
LINE
  5
542
  8
回08-記事
  6
CONTINUOUS
 62
     5
 10
213.6759797026718
 20
-0.0655488599309138
 30
0.0
 11
232.6759797026718
 21
-0.0655488599309138
 31
0.0
  0
ENDBLK
  5
544
  8
回07-寸法
  6
CONTINUOUS
 62
     7
  0
BLOCK
  8
回07-寸法
  2
*X66
 70
     1
 10
0.0
 20
0.0
 30
0.0
  3
*X66
  1

  0
TEXT
  5
547
  8
回07-寸法
  6
CONTINUOUS
 62
     5
 10
-1711.520491817753
 20
-2800.945398205552
 30
0.0
 40
4.0
  1
227
  7
MTX_ISOCP_SHXBIGFONT
  0
TEXT
  5
548
  8
回07-寸法
  6
CONTINUOUS
 62
     5
 10
-1703.120491817753
 20
-2800.945398205552
 30
0.0
 40
2.799999999999999
  1
±0.3
  7
MTX_ISOCP_SHXBIGFONT
  0
ENDBLK
  5
54A
  8
回07-寸法
  6
CONTINUOUS
 62
     7
  0
BLOCK
  8
回07-寸法
  2
*X67
 70
     1
 10
0.0
 20
0.0
 30
0.0
  3
*X67
  1

  0
TEXT
  5
54D
  8
回07-寸法
  6
CONTINUOUS
 62
     5
 10
-1908.336303772021
 20
-3097.773870167861
 30
0.0
 40
4.0
  1
0.3
 50
90.0
  7
MTX_ISOCP_SHXBIGFONT
  0
TEXT
  5
54E
  8
回07-寸法
  6
CONTINUOUS
 62
     5
 10
-1908.936303772021
 20
-3090.973870167861
 30
0.0
 40
2.799999999999999
  1
±0.05
 50
90.0
  7
MTX_ISOCP_SHXBIGFONT
  0
ENDBLK
  5
550
  8
回07-寸法
  6
CONTINUOUS
 62
     7
  0
BLOCK
  8
回07-寸法
  2
*X68
 70
     1
 10
0.0
 20
0.0
 30
0.0
  3
*X68
  1

  0
TEXT
  5
553
  8
回07-寸法
  6
CONTINUOUS
 62
     5
 10
-1866.50635909739
 20
-2892.555732052197
 30
0.0
 40
4.0
  1
80
  7
MTX_ISOCP_SHXBIGFONT
  0
TEXT
  5
554
  8
回07-寸法
  6
CONTINUOUS
 62
     5
 10
-1860.90635909739
 20
-2892.555732052197
 30
0.0
 40
3.0
  1
±1.0
  7
MTX_ISOCP_SHXBIGFONT
  0
ENDBLK
  5
556
  8
回07-寸法
  6
CONTINUOUS
 62
     7
  0
BLOCK
  8
回07-寸法
  2
*X69
 70
     1
 10
0.0
 20
0.0
 30
0.0
  3
*X69
  1

  0
TEXT
  5
559
  8
回07-寸法
  6
CONTINUOUS
 62
     5
 10
-1547.246180316678
 20
-2928.372806064416
 30
0.0
 40
4.0
  1
173
 50
90.0
  7
MTX_ISOCP_SHXBIGFONT
  0
TEXT
  5
55A
  8
回07-寸法
  6
CONTINUOUS
 62
     5
 10
-1547.246180316678
 20
-2920.772806064416
 30
0.0
 40
2.799999999999999
  1
±0.3
 50
90.0
  7
MTX_ISOCP_SHXBIGFONT
  0
ENDBLK
  5
55C
  8
回07-寸法
  6
CONTINUOUS
 62
     7
  0
BLOCK
  8
回07-寸法
  2
*X70
 70
     1
 10
0.0
 20
0.0
 30
0.0
  3
*X70
  1

  0
TEXT
  5
55F
  8
回07-寸法
  6
CONTINUOUS
 62
     5
 10
-1914.648691383582
 20
-2945.934270529886
 30
0.0
 40
4.0
  1
6.25
 50
90.0
  7
MTX_ISOCP_SHXBIGFONT
  0
TEXT
  5
560
  8
回07-寸法
  6
CONTINUOUS
 62
     5
 10
-1914.648691383582
 20
-2936.334270529886
 30
0.0
 40
2.799999999999999
  1
±0.2
 50
90.0
  7
MTX_ISOCP_SHXBIGFONT
  0
ENDBLK
  5
562
  8
回07-寸法
  6
CONTINUOUS
 62
     7
  0
BLOCK
  8
回07-寸法
  2
*X71
 70
     1
 10
0.0
 20
0.0
 30
0.0
  3
*X71
  1

  0
TEXT
  5
565
  8
回07-寸法
  6
CONTINUOUS
 62
     5
 10
-1892.110725781238
 20
-2999.873585149316
 30
0.0
 40
4.0
  1
4-0.7
 50
90.0
  7
MTX_ISOCP_SHXBIGFONT
  0
TEXT
  5
566
  8
回07-寸法
  6
CONTINUOUS
 62
     5
 10
-1892.110725781238
 20
-2987.073585149317
 30
0.0
 40
2.399999999999999
  1
±0.1
 50
90.0
  7
MTX_ISOCP_SHXBIGFONT
  0
ENDBLK
  5
568
  8
回07-寸法
  6
CONTINUOUS
 62
     7
  0
BLOCK
  8
回07-寸法
  2
*X72
 70
     1
 10
0.0
 20
0.0
 30
0.0
  3
*X72
  1

  0
TEXT
  5
56B
  8
回07-寸法
  6
CONTINUOUS
 62
     5
 10
-1904.430827502463
 20
-3019.111616901259
 30
0.0
 40
4.0
  1
3.75
 50
90.0
  7
MTX_ISOCP_SHXBIGFONT
  0
TEXT
  5
56C
  8
回07-寸法
  6
CONTINUOUS
 62
     5
 10
-1904.430827502463
 20
-3009.511616901258
 30
0.0
 40
2.399999999999999
  1
±0.15
 50
90.0
  7
MTX_ISOCP_SHXBIGFONT
  0
ENDBLK
  5
56E
  8
回07-寸法
  6
CONTINUOUS
 62
     7
  0
BLOCK
  8
回07-寸法
  2
*X73
 70
     1
 10
0.0
 20
0.0
 30
0.0
  3
*X73
  1

  0
TEXT
  5
571
  8
回07-寸法
  6
CONTINUOUS
 62
     5
 10
-1898.411659562445
 20
-2999.640450900998
 30
0.0
 40
4.0
  1
1.25
 50
90.0
  7
MTX_ISOCP_SHXBIGFONT
  0
TEXT
  5
572
  8
回07-寸法
  6
CONTINUOUS
 62
     5
 10
-1898.411659562445
 20
-2990.840450900998
 30
0.0
 40
2.399999999999999
  1
±0.15
 50
90.0
  7
MTX_ISOCP_SHXBIGFONT
  0
ENDBLK
  5
574
  8
回07-寸法
  6
CONTINUOUS
 62
     7
  0
BLOCK
  8
回07-寸法
  2
*X74
 70
     1
 10
0.0
 20
0.0
 30
0.0
  3
*X74
  1

  0
TEXT
  5
577
  8
回07-寸法
  6
CONTINUOUS
 62
     5
 10
-1912.029807154111
 20
-3018.848850497589
 30
0.0
 40
4.0
  1
6.25
 50
90.0
  7
MTX_ISOCP_SHXBIGFONT
  0
TEXT
  5
578
  8
回07-寸法
  6
CONTINUOUS
 62
     5
 10
-1912.029807154111
 20
-3009.248850497589
 30
0.0
 40
2.399999999999999
  1
±0.2
 50
90.0
  7
MTX_ISOCP_SHXBIGFONT
  0
ENDBLK
  5
57A
  8
回07-寸法
  6
CONTINUOUS
 62
     7
  0
BLOCK
  8
回07-寸法
  2
*X75
 70
     1
 10
0.0
 20
0.0
 30
0.0
  3
*X75
  1

  0
TEXT
  5
57D
  8
回07-寸法
  6
CONTINUOUS
 62
     5
 10
-103.944471481534
 20
-33.33558674034887
 30
0.0
 40
4.0
  1
6.25
 50
90.0
  7
MTX_ISOCP_SHXBIGFONT
  0
TEXT
  5
57E
  8
回07-寸法
  6
CONTINUOUS
 62
     5
 10
-103.944471481534
 20
-23.73558674034888
 30
0.0
 40
2.399999999999999
  1
±0.2
 50
90.0
  7
MTX_ISOCP_SHXBIGFONT
  0
ENDBLK
  5
580
  8
回07-寸法
  6
CONTINUOUS
 62
     7
  0
BLOCK
  8
回07-寸法
  2
*X76
 70
     1
 10
0.0
 20
0.0
 30
0.0
  3
*X76
  1

  0
TEXT
  5
583
  8
回07-寸法
  6
CONTINUOUS
 62
     5
 10
-90.32632388986895
 20
-14.12718714375796
 30
0.0
 40
4.0
  1
1.25
 50
90.0
  7
MTX_ISOCP_SHXBIGFONT
  0
TEXT
  5
584
  8
回07-寸法
  6
CONTINUOUS
 62
     5
 10
-90.32632388986895
 20
-5.327187143757967
 30
0.0
 40
2.399999999999999
  1
±0.15
 50
90.0
  7
MTX_ISOCP_SHXBIGFONT
  0
ENDBLK
  5
586
  8
回07-寸法
  6
CONTINUOUS
 62
     7
  0
BLOCK
  8
回07-寸法
  2
*X77
 70
     1
 10
0.0
 20
0.0
 30
0.0
  3
*X77
  1

  0
TEXT
  5
589
  8
回07-寸法
  6
CONTINUOUS
 62
     5
 10
-96.3458855306742
 20
-33.5983531440187
 30
0.0
 40
4.0
  1
3.75
 50
90.0
  7
MTX_ISOCP_SHXBIGFONT
  0
TEXT
  5
58A
  8
回07-寸法
  6
CONTINUOUS
 62
     5
 10
-96.3458855306742
 20
-23.99835314401869
 30
0.0
 40
2.399999999999999
  1
±0.15
 50
90.0
  7
MTX_ISOCP_SHXBIGFONT
  0
ENDBLK
  5
58C
  8
回07-寸法
  6
CONTINUOUS
 62
     7
  0
BLOCK
  8
回07-寸法
  2
*X78
 70
     1
 10
0.0
 20
0.0
 30
0.0
  3
*X78
  1

  0
TEXT
  5
58F
  8
回07-寸法
  6
CONTINUOUS
 62
     5
 10
-84.02578380944897
 20
-14.3603213920766
 30
0.0
 40
4.0
  1
4-0.7
 50
90.0
  7
MTX_ISOCP_SHXBIGFONT
  0
TEXT
  5
590
  8
回07-寸法
  6
CONTINUOUS
 62
     5
 10
-84.02578380944897
 20
-1.560321392076602
 30
0.0
 40
2.399999999999999
  1
±0.1
 50
90.0
  7
MTX_ISOCP_SHXBIGFONT
  0
ENDBLK
  5
592
  8
回07-寸法
  6
CONTINUOUS
 62
     7
  0
BLOCK
  8
回07-寸法
  2
*X79
 70
     1
 10
0.0
 20
0.0
 30
0.0
  3
*X79
  1

  0
TEXT
  5
595
  8
回07-寸法
  6
CONTINUOUS
 62
     5
 10
-106.5633557110066
 20
40.48245137090535
 30
0.0
 40
4.0
  1
6.25
 50
90.0
  7
MTX_ISOCP_SHXBIGFONT
  0
TEXT
  5
596
  8
回07-寸法
  6
CONTINUOUS
 62
     5
 10
-106.5633557110066
 20
50.08245137090534
 30
0.0
 40
2.799999999999999
  1
±0.2
 50
90.0
  7
MTX_ISOCP_SHXBIGFONT
  0
ENDBLK
  5
598
  8
回07-寸法
  6
CONTINUOUS
 62
     7
  0
BLOCK
  8
回07-寸法
  2
*X80
 70
     1
 10
0.0
 20
0.0
 30
0.0
  3
*X80
  1

  0
TEXT
  5
59B
  8
回07-寸法
  6
CONTINUOUS
 62
     5
 10
260.8387616551102
 20
57.14045769282392
 30
0.0
 40
4.0
  1
173
 50
90.0
  7
MTX_ISOCP_SHXBIGFONT
  0
TEXT
  5
59C
  8
回07-寸法
  6
CONTINUOUS
 62
     5
 10
260.8387616551102
 20
64.74045769282395
 30
0.0
 40
2.799999999999999
  1
±0.3
 50
90.0
  7
MTX_ISOCP_SHXBIGFONT
  0
ENDBLK
  5
59E
  8
回07-寸法
  6
CONTINUOUS
 62
     7
  0
BLOCK
  8
回07-寸法
  2
*X81
 70
     1
 10
0.0
 20
0.0
 30
0.0
  3
*X81
  1

  0
TEXT
  5
5A1
  8
回07-寸法
  6
CONTINUOUS
 62
     5
 10
-58.42141712560136
 20
92.95753170504259
 30
0.0
 40
4.0
  1
80
  7
MTX_ISOCP_SHXBIGFONT
  0
TEXT
  5
5A2
  8
回07-寸法
  6
CONTINUOUS
 62
     5
 10
-52.82141712560136
 20
92.95753170504259
 30
0.0
 40
3.0
  1
±1.0
  7
MTX_ISOCP_SHXBIGFONT
  0
ENDBLK
  5
5A4
  8
回07-寸法
  6
CONTINUOUS
 62
     7
  0
BLOCK
  8
回07-寸法
  2
*X82
 70
     1
 10
0.0
 20
0.0
 30
0.0
  3
*X82
  1

  0
TEXT
  5
5A7
  8
回07-寸法
  6
CONTINUOUS
 62
     5
 10
-100.2513618002319
 20
-112.2606064106209
 30
0.0
 40
4.0
  1
0.3
 50
90.0
  7
MTX_ISOCP_SHXBIGFONT
  0
TEXT
  5
5A8
  8
回07-寸法
  6
CONTINUOUS
 62
     5
 10
-100.8513618002319
 20
-105.4606064106209
 30
0.0
 40
2.799999999999999
  1
±0.05
 50
90.0
  7
MTX_ISOCP_SHXBIGFONT
  0
ENDBLK
  5
5AA
  8
回07-寸法
  6
CONTINUOUS
 62
     7
  0
BLOCK
  8
回07-寸法
  2
*X83
 70
     1
 10
0.0
 20
0.0
 30
0.0
  3
*X83
  1

  0
TEXT
  5
5AD
  8
回07-寸法
  6
CONTINUOUS
 62
     5
 10
96.56445015403539
 20
184.5674718509003
 30
0.0
 40
4.0
  1
227
  7
MTX_ISOCP_SHXBIGFONT
  0
TEXT
  5
5AE
  8
回07-寸法
  6
CONTINUOUS
 62
     5
 10
104.9644501540354
 20
184.5674718509003
 30
0.0
 40
2.799999999999999
  1
±0.3
  7
MTX_ISOCP_SHXBIGFONT
  0
ENDBLK
  5
5B0
  8
回07-寸法
  6
CONTINUOUS
 62
     7
  0
ENDSEC
  0
SECTION
  2
ENTITIES
  0
TEXT
  5
54
  8
回03-記事
  6
CONTINUOUS
 62
     5
 10
91.09269730969073
 20
-163.5412118890049
 30
0.0
 40
4.8
  1
without affecting product specification.
  0
TEXT
  5
56
  8
回03-記事
  6
CONTINUOUS
 62
     5
 10
91.09269730969073
 20
-155.1215061748048
 30
0.0
 40
4.8
  1
Edges and corners of ITO glass may be chamfered 
  0
TEXT
  5
57
  8
回03-記事
  6
CONTINUOUS
 62
     5
 10
91.09269730969073
 20
-146.7018004606047
 30
0.0
 40
4.8
  1
Unit: mm
  0
TEXT
  5
58
  8
回03-記事
  6
CONTINUOUS
 62
     5
 10
91.09269730969073
 20
-138.2820947464051
 30
0.0
 40
4.8
  1
EXCEPT WHERE INDICATED
  0
TEXT
  5
59
  8
回03-記事
  6
CONTINUOUS
 62
     5
 10
91.09269730969073
 20
-129.8623890322055
 30
0.0
 40
4.8
  1
TOLERANCE=±0.5mm
  0
LINE
  5
5A
  8
回08-記事
 62
     5
 10
-78.33596330733962
 20
-19.91032139207664
 30
0.0
 11
-58.82022764866906
 21
-19.91032139207664
 31
0.0
  0
LINE
  5
5C
  8
回08-記事
 62
     5
 10
-78.33596330733962
 20
-23.66032139207664
 30
0.0
 11
-58.82022764866906
 21
-23.66032139207664
 31
0.0
  0
LINE
  5
5D
  8
回08-記事
 62
     5
 10
-78.33596330733962
 20
-31.16032139207664
 30
0.0
 11
-58.82022764866906
 21
-31.16032139207664
 31
0.0
  0
DIMENSION
  5
5E
  8
回07-寸法
  6
CONTINUOUS
 62
     5
  2
*D29
 10
-116.6151080560241
 20
64.00807051687388
 30
0.0
 11
-119.1151080560241
 21
107.2580705168736
 31
0.0
 70
    32
  3
STANDARD
 13
-12.24523602323916
 23
150.5080705168734
 33
0.0
 14
-100.7464776929212
 24
64.00807051687388
 34
0.0
 50
90.0
1001
ACAD
1000
DSTYLE
1002
{
1070
    47
1040
0.3
1070
    48
1040
0.3
1070
   140
1040
4.0
1070
   146
1040
0.7
1070
   283
1070
     0
1070
   288
1070
     0
1070
   341
1005
0
1070
   371
1070
    13
1070
   372
1070
    13
1002
}
  0
LINE
  5
6E
  8
回08-記事
  6
CENTER2
 62
     5
 10
-24.56127765747396
 20
64.00807051687388
 30
0.0
 11
-100.7464776929212
 21
64.00807051687388
 31
0.0
  0
TEXT
  5
70
  8
回07-寸法
  6
CONTINUOUS
 62
     7
 10
-83.78317165316616
 20
6.852539392731159
 30
0.0
 40
2.0
  1
(4-0.028in)
 50
90.0
  0
TEXT
  5
71
  8
回07-寸法
  6
CONTINUOUS
 62
     7
 10
-89.93117242180369
 20
4.088256269543308
 30
0.0
 40
2.0
  1
(0.049in)
 50
90.0
  0
TEXT
  5
72
  8
回07-寸法
  6
CONTINUOUS
 62
     7
 10
-100.8116485376586
 20
-29.78349804467325
 30
0.0
 40
2.0
  1
(0.148in)
 50
90.0
  0
TEXT
  5
73
  8
回07-寸法
  6
CONTINUOUS
 62
     7
 10
-109.1127103851884
 20
-30.84206581319131
 30
0.0
 40
2.0
  1
(0.246in)
 50
90.0
  0
TEXT
  5
74
  8
回07-寸法
  6
CONTINUOUS
 62
     5
 10
-95.50708098919903
 20
-42.71592998396227
 30
0.0
 40
3.0
  1
2-R0.5
  7
MTX_ISOCP_SHXBIGFONT
  0
INSERT
  5
75
  8
回07-寸法
  6
CONTINUOUS
 62
     7
 66
     1
  2
*X57
 10
0.0
 20
0.0
 30
0.0
  0
SEQEND
  5
4D9
  8
回07-寸法
  6
CONTINUOUS
 62
     7
  0
DIMENSION
  5
77
  8
回07-寸法
  6
CONTINUOUS
 62
     5
  2
*D30
 10
-103.444471481534
 20
-34.91032139207664
 30
0.0
 11
-103.444471481534
 21
-25.53532139207664
 31
0.0
 70
   160
  1
6.25{\H0.6x;±0.2}
  3
DMC
 13
-76.83596330733962
 23
-16.16032139207664
 33
0.0
 14
-76.83596330733985
 24
-34.91032139207664
 34
0.0
 50
270.0
1001
ACAD
1000
DSTYLE
1002
{
1070
   372
1070
    13
1070
   371
1070
    13
1002
}
  0
DIMENSION
  5
88
  8
回07-寸法
  6
CONTINUOUS
 62
     5
  2
*D31
 10
-89.82632388986894
 20
-19.91032139207663
 30
0.0
 11
-89.82632388986894
 21
-6.127187143757964
 31
0.0
 70
   160
  1
1.25{\H0.6x;±0.15}
  3
DMC
 13
-78.33596330733962
 23
-23.66032139207664
 33
0.0
 14
-78.33596330733962
 24
-19.91032139207664
 34
0.0
 50
270.0
1001
ACAD
1000
DSTYLE
1002
{
1070
   372
1070
    13
1070
   371
1070
    13
1002
}
  0
DIMENSION
  5
99
  8
回07-寸法
  6
CONTINUOUS
 62
     5
  2
*D32
 10
-95.64035670298517
 20
-31.16032139207664
 30
0.0
 11
-98.34588553067419
 21
-25.19835314401871
 31
0.0
 70
   160
  1
3.75{\H0.6x;±0.15}
  3
DMC
 13
-78.33596330733962
 23
-19.91032139207664
 33
0.0
 14
-78.33596330733962
 24
-31.16032139207664
 34
0.0
 50
270.0
1001
ACAD
1000
DSTYLE
1002
{
1070
   372
1070
    13
1070
   371
1070
    13
1070
   279
1070
     2
1002
}
  0
DIMENSION
  5
A8
  8
回07-寸法
  6
CONTINUOUS
 62
     5
  2
*D33
 10
-83.52578380944896
 20
-18.86032139207646
 30
0.0
 11
-83.52578380944896
 21
-5.200321392076602
 31
0.0
 70
   160
  1
4-0.7{\H0.6x;±0.1}
  3
DMC
 13
-78.33596330733962
 23
-20.96032139207637
 33
0.0
 14
-78.33596330733962
 24
-18.86032139207646
 34
0.0
 50
270.0
1001
ACAD
1000
DSTYLE
1002
{
1070
   372
1070
    13
1070
   371
1070
    13
1002
}
  0
LINE
  5
B9
  8
回08-記事
  6
CONTINUOUS
 62
     7
 10
-63.33596330733939
 20
-16.16032139207664
 30
0.0
 11
-63.33596330733939
 21
-34.91032139207664
 31
0.0
  0
ARC
  5
BA
  8
回05-ﾃｰﾙ
  6
CONTINUOUS
 62
     7
 10
-76.83596330733985
 20
-33.41032139207664
 30
0.0
 40
1.5
 50
180.0
 51
270.0
  0
ARC
  5
BC
  8
回05-ﾃｰﾙ
  6
CONTINUOUS
 62
     7
 10
-76.83596330733962
 20
-17.66032139207664
 30
0.0
 40
1.5
 50
90.0
 51
180.0
  0
LINE
  5
BD
  8
回05-ﾃｰﾙ
  6
CONTINUOUS
 62
     7
 10
-43.63861580448224
 20
-34.91032139207664
 30
0.0
 11
-76.83596330733962
 21
-34.91032139207664
 31
0.0
  0
LINE
  5
BE
  8
回05-ﾃｰﾙ
  6
CONTINUOUS
 62
     7
 10
-43.76690207458227
 20
-16.16032139207664
 30
0.0
 11
-76.83596330733962
 21
-16.16032139207664
 31
0.0
  0
LINE
  5
BF
  8
回05-ﾃｰﾙ
  6
CONTINUOUS
 62
     7
 10
-78.33596330733962
 20
-17.66032139207664
 30
0.0
 11
-78.33596330733962
 21
-33.41032139207618
 31
0.0
  0
POLYLINE
  5
C0
  8
回05-ﾃｰﾙ
  6
CONTINUOUS
 62
     8
 66
     1
 10
0.0
 20
0.0
 30
0.0
  0
VERTEX
  5
4DA
  8
回05-ﾃｰﾙ
  6
CONTINUOUS
 62
     8
 10
-78.33596330733962
 20
-23.66032139207664
 30
0.0
 40
2.099999999999999
 41
2.099999999999999
  0
VERTEX
  5
4DC
  8
回05-ﾃｰﾙ
  6
CONTINUOUS
 62
     8
 10
-63.33596330733962
 20
-23.66032139207664
 30
0.0
 40
2.099999999999999
 41
2.099999999999999
  0
SEQEND
  5
4DB
  8
回07-寸法
  6
CONTINUOUS
 62
     7
  0
POLYLINE
  5
C1
  8
回05-ﾃｰﾙ
  6
CONTINUOUS
 62
     8
 66
     1
 10
0.0
 20
0.0
 30
0.0
  0
VERTEX
  5
4DD
  8
回05-ﾃｰﾙ
  6
CONTINUOUS
 62
     8
 10
-78.33596330733962
 20
-31.16032139207664
 30
0.0
 40
2.099999999999999
 41
2.099999999999999
  0
VERTEX
  5
4DF
  8
回05-ﾃｰﾙ
  6
CONTINUOUS
 62
     8
 10
-63.33596330733962
 20
-31.16032139207664
 30
0.0
 40
2.099999999999999
 41
2.099999999999999
  0
SEQEND
  5
4DE
  8
回07-寸法
  6
CONTINUOUS
 62
     7
  0
POLYLINE
  5
C2
  8
回05-ﾃｰﾙ
  6
CONTINUOUS
 62
     8
 66
     1
 10
0.0
 20
0.0
 30
0.0
  0
VERTEX
  5
4E0
  8
回05-ﾃｰﾙ
  6
CONTINUOUS
 62
     8
 10
-63.33596330733962
 20
-27.41032139207664
 30
0.0
 40
2.099999999999999
 41
2.099999999999999
  0
VERTEX
  5
4E2
  8
回05-ﾃｰﾙ
  6
CONTINUOUS
 62
     8
 10
-78.33596330733962
 20
-27.41032139207664
 30
0.0
  0
SEQEND
  5
4E1
  8
回07-寸法
  6
CONTINUOUS
 62
     7
  0
POLYLINE
  5
C3
  8
回05-ﾃｰﾙ
  6
CONTINUOUS
 62
     8
 66
     1
 10
0.0
 20
0.0
 30
0.0
  0
VERTEX
  5
4E3
  8
回05-ﾃｰﾙ
  6
CONTINUOUS
 62
     8
 10
-63.33596330733962
 20
-19.91032139207664
 30
0.0
 40
2.099999999999999
 41
2.099999999999999
  0
VERTEX
  5
4E5
  8
回05-ﾃｰﾙ
  6
CONTINUOUS
 62
     8
 10
-78.33596330733962
 20
-19.91032139207664
 30
0.0
  0
SEQEND
  5
4E4
  8
回07-寸法
  6
CONTINUOUS
 62
     7
  0
TEXT
  5
C4
  8
回07-寸法
  6
CONTINUOUS
 62
     7
 10
-68.44925306226514
 20
-48.81644079649731
 30
0.0
 40
6.0
  1
SECTION A
  0
LINE
  5
C5
  8
回08-記事
  6
CONTINUOUS
 62
     5
 10
103.7547639767606
 20
150.5080705168734
 30
0.0
 11
103.7547639767606
 21
155.2391290517939
 31
0.0
  0
LINE
  5
C6
  8
回08-記事
  6
CONTINUOUS
 62
     5
 10
-90.40105341044181
 20
-80.30121222632216
 30
0.0
 11
-106.3292649977338
 21
-66.44374296698106
 31
0.0
  0
TEXT
  5
C7
  8
回08-記事
  6
CONTINUOUS
 62
     5
 10
-132.2276025127739
 20
-65.01614325013133
 30
0.0
 40
5.0
  1
TRACE EXPOSE
  0
TEXT
  5
C8
  8
回90-A2
 10
352.55602486926
 20
-146.7686334776126
 30
0.0
 40
5.0
  1
Nov/28/2023
  0
TEXT
  5
CA
  8
回90-A2
 10
361.1739359873681
 20
-137.5976509575512
 30
0.0
 40
3.599999999999999
  1
DATE
  0
LINE
  5
CB
  8
回90-A2
 10
329.1721229765681
 20
-132.6327729126942
 30
0.0
 11
329.1721229765681
 21
-168.6327729126942
 31
0.0
  0
TEXT
  5
CC
  8
回90-A2
 10
283.9490397909885
 20
-155.7404292852034
 30
0.0
 40
3.599999999999999
  1
TYPE
  0
LINE
  5
CD
  8
回90-A2
 10
251.1721229765681
 20
-132.6327729126942
 30
0.0
 11
251.1721229765681
 21
-168.6327729126942
 31
0.0
  0
TEXT
  5
CE
  8
回90-A2
 10
267.2110193691333
 20
-167.6427833820498
 30
0.0
 40
3.599999999999999
  1
DIMENSIONAL DRAWING
  0
TEXT
  5
CF
  8
回90-A2
 10
263.8750603567387
 20
-161.6328952967851
 30
0.0
 40
3.599999999999999
  1
STANDARD TOUCHSCREEN
  0
TEXT
  5
D0
  8
回90-A2
 10
265.3165350768067
 20
-147.805966996746
 30
0.0
 40
6.0
  1
AST-104A080A
  0
TEXT
  5
D1
  8
回90-A2
 10
284.4468230568928
 20
-137.5976509575512
 30
0.0
 40
3.599999999999999
  1
PART No.
  0
LINE
  5
D2
  8
回90-A2
 10
254.7721229765684
 20
-162.6327729126942
 30
0.0
 11
325.5721229765677
 21
-162.6327729126942
 31
0.0
  0
TEXT
  5
D3
  8
回90-A2
 10
352.223548590544
 20
-162.0825453028492
 30
0.0
 40
6.0
  1
DMC Co., Ltd.
  0
LINE
  5
D4
  8
回90-A2
 10
251.1721229765681
 20
-156.6327729126937
 30
0.0
 11
329.1721229765681
 21
-156.6327729126937
 31
0.0
  0
LINE
  5
D5
  8
回90-A2
 10
251.1721229765681
 20
-132.6327729126942
 30
0.0
 11
419.172122976568
 21
-132.6327729126942
 31
0.0
  0
LINE
  5
D6
  8
回90-A2
 10
251.1721229765681
 20
-150.6327729126938
 30
0.0
 11
419.172122976568
 21
-150.6327729126938
 31
0.0
  0
LINE
  5
D7
  8
回90-A2
 10
251.1721229765681
 20
-138.6327729126942
 30
0.0
 11
419.172122976568
 21
-138.6327729126942
 31
0.0
  0
TEXT
  5
D8
  8
回90-A2
 10
382.9015082822207
 20
216.739650213357
 30
0.0
 40
4.0
  1
H
  0
LINE
  5
D9
  8
回90-A2
 10
349.1721229765681
 20
221.3672270873058
 30
0.0
 11
349.1721229765681
 21
216.3672270873058
 31
0.0
  0
LINE
  5
DA
  8
回90-A2
 10
279.1721229765681
 20
221.3672270873058
 30
0.0
 11
279.1721229765681
 21
216.3672270873058
 31
0.0
  0
TEXT
  5
DB
  8
回90-A2
 10
242.9015082822207
 20
216.739650213357
 30
0.0
 40
4.0
  1
F
  0
LINE
  5
DC
  8
回90-A2
 10
209.1721229765681
 20
221.3672270873058
 30
0.0
 11
209.1721229765681
 21
216.3672270873058
 31
0.0
  0
TEXT
  5
DD
  8
回90-A2
 10
172.9015082822207
 20
216.739650213357
 30
0.0
 40
4.0
  1
E
  0
TEXT
  5
DE
  8
回90-A2
 10
312.9015082822207
 20
216.739650213357
 30
0.0
 40
4.0
  1
G
  0
TEXT
  5
DF
  8
回90-A2
 10
420.576543980228
 20
175.655914383165
 30
0.0
 40
4.0
  1
1
  0
LINE
  5
E0
  8
回90-A2
 10
424.172122976568
 20
139.3672270873057
 30
0.0
 11
419.172122976568
 21
139.3672270873057
 31
0.0
  0
LINE
  5
E1
  8
回90-A2
 10
139.172122976568
 20
221.3672270873058
 30
0.0
 11
139.172122976568
 21
216.3672270873058
 31
0.0
  0
TEXT
  5
E2
  8
回90-A2
 10
102.9015082822206
 20
216.739650213357
 30
0.0
 40
4.0
  1
D
  0
LINE
  5
E3
  8
回90-A2
 10
69.17212297656806
 20
221.3672270873058
 30
0.0
 11
69.17212297656806
 21
216.3672270873058
 31
0.0
  0
TEXT
  5
E4
  8
回90-A2
 10
32.90150828222067
 20
216.739650213357
 30
0.0
 40
4.0
  1
C
  0
LINE
  5
E5
  8
回90-A2
 10
-0.8278770234319381
 20
221.3672270873058
 30
0.0
 11
-0.8278770234319381
 21
216.3672270873058
 31
0.0
  0
TEXT
  5
E6
  8
回90-A2
 10
-37.09849171777932
 20
216.739650213357
 30
0.0
 40
4.0
  1
B
  0
LINE
  5
E7
  8
回90-A2
 10
-70.82787702343193
 20
221.3672270873058
 30
0.0
 11
-70.82787702343193
 21
216.3672270873058
 31
0.0
  0
TEXT
  5
E8
  8
回90-A2
 10
-107.0984917177793
 20
216.739650213357
 30
0.0
 40
4.0
  1
A
  0
TEXT
  5
E9
  8
回90-A2
 10
-144.4234560197719
 20
175.655914383165
 30
0.0
 40
4.0
  1
1
  0
LINE
  5
EA
  8
回90-A2
 10
-140.8278770234319
 20
139.3672270873057
 30
0.0
 11
-145.8278770234319
 21
139.3672270873057
 31
0.0
  0
LINE
  5
EB
  8
回90-A2
 10
424.172122976568
 20
221.3672270873058
 30
0.0
 11
-145.8278770234319
 21
221.3672270873058
 31
0.0
  0
LINE
  5
EC
  8
回90-A2
 10
-140.8278770234319
 20
216.3672270873058
 30
0.0
 11
419.172122976568
 21
216.3672270873058
 31
0.0
  0
TEXT
  5
ED
  8
回90-A2
 10
420.275045276926
 20
98.65591438316506
 30
0.0
 40
4.0
  1
2
  0
LINE
  5
EE
  8
回90-A2
 10
424.172122976568
 20
62.36722708730576
 30
0.0
 11
419.172122976568
 21
62.36722708730576
 31
0.0
  0
TEXT
  5
EF
  8
回90-A2
 10
420.269564432725
 20
21.65591438316505
 30
0.0
 40
4.0
  1
3
  0
LINE
  5
F0
  8
回90-A2
 10
424.172122976568
 20
-14.63277291269423
 30
0.0
 11
419.172122976568
 21
-14.63277291269423
 31
0.0
  0
TEXT
  5
F1
  8
回90-A2
 10
420.1964723126438
 20
-55.34408561683495
 30
0.0
 40
4.0
  1
4
  0
TEXT
  5
F2
  8
回90-A2
 10
-144.724954723074
 20
98.65591438316506
 30
0.0
 40
4.0
  1
2
  0
LINE
  5
F3
  8
回90-A2
 10
-140.8278770234319
 20
62.36722708730576
 30
0.0
 11
-145.8278770234319
 21
62.36722708730576
 31
0.0
  0
TEXT
  5
F4
  8
回90-A2
 10
-144.730435567275
 20
21.65591438316505
 30
0.0
 40
4.0
  1
3
  0
LINE
  5
F5
  8
回90-A2
 10
-140.8278770234319
 20
-14.63277291269423
 30
0.0
 11
-145.8278770234319
 21
-14.63277291269423
 31
0.0
  0
TEXT
  5
F6
  8
回90-A2
 10
-144.8035276873561
 20
-55.34408561683495
 30
0.0
 40
4.0
  1
4
  0
LINE
  5
F7
  8
回90-A2
 10
424.172122976568
 20
-91.63277291269423
 30
0.0
 11
419.172122976568
 21
-91.63277291269423
 31
0.0
  0
TEXT
  5
F8
  8
回90-A2
 10
420.1964723126438
 20
-132.3440856168349
 30
0.0
 40
4.0
  1
5
  0
TEXT
  5
F9
  8
回90-A2
 10
382.9015082822207
 20
-173.260349786643
 30
0.0
 40
4.0
  1
H
  0
LINE
  5
FA
  8
回90-A2
 10
349.1721229765681
 20
-168.6327729126942
 30
0.0
 11
349.1721229765681
 21
-173.6327729126942
 31
0.0
  0
LINE
  5
FB
  8
回90-A2
 10
279.1721229765681
 20
-168.6327729126942
 30
0.0
 11
279.1721229765681
 21
-173.6327729126942
 31
0.0
  0
TEXT
  5
FC
  8
回90-A2
 10
242.9015082822207
 20
-173.260349786643
 30
0.0
 40
4.0
  1
F
  0
LINE
  5
FD
  8
回90-A2
 10
209.1721229765681
 20
-168.6327729126942
 30
0.0
 11
209.1721229765681
 21
-173.6327729126942
 31
0.0
  0
TEXT
  5
FE
  8
回90-A2
 10
172.9015082822207
 20
-173.260349786643
 30
0.0
 40
4.0
  1
E
  0
TEXT
  5
FF
  8
回90-A2
 10
312.9015082822207
 20
-173.260349786643
 30
0.0
 40
4.0
  1
G
  0
LINE
  5
100
  8
回90-A2
 10
-140.8278770234319
 20
-91.63277291269423
 30
0.0
 11
-145.8278770234319
 21
-91.63277291269423
 31
0.0
  0
TEXT
  5
101
  8
回90-A2
 10
-144.8035276873561
 20
-132.3440856168349
 30
0.0
 40
4.0
  1
5
  0
LINE
  5
102
  8
回90-A2
 10
139.172122976568
 20
-168.6327729126942
 30
0.0
 11
139.172122976568
 21
-173.6327729126942
 31
0.0
  0
TEXT
  5
103
  8
回90-A2
 10
102.9015082822206
 20
-173.260349786643
 30
0.0
 40
4.0
  1
D
  0
LINE
  5
104
  8
回90-A2
 10
69.17212297656806
 20
-168.6327729126942
 30
0.0
 11
69.17212297656806
 21
-173.6327729126942
 31
0.0
  0
TEXT
  5
105
  8
回90-A2
 10
32.90150828222067
 20
-173.260349786643
 30
0.0
 40
4.0
  1
C
  0
LINE
  5
106
  8
回90-A2
 10
-0.8278770234319381
 20
-168.6327729126942
 30
0.0
 11
-0.8278770234319381
 21
-173.6327729126942
 31
0.0
  0
TEXT
  5
107
  8
回90-A2
 10
-37.09849171777932
 20
-173.260349786643
 30
0.0
 40
4.0
  1
B
  0
LINE
  5
108
  8
回90-A2
 10
-70.82787702343193
 20
-168.6327729126942
 30
0.0
 11
-70.82787702343193
 21
-173.6327729126942
 31
0.0
  0
TEXT
  5
109
  8
回90-A2
 10
-107.0984917177793
 20
-173.260349786643
 30
0.0
 40
4.0
  1
A
  0
LINE
  5
10A
  8
回90-A2
 10
-140.8278770234319
 20
-168.6327729126942
 30
0.0
 11
419.172122976568
 21
-168.6327729126942
 31
0.0
  0
LINE
  5
10B
  8
回90-A2
 10
424.172122976568
 20
-173.6327729126942
 30
0.0
 11
-145.8278770234319
 21
-173.6327729126942
 31
0.0
  0
LINE
  5
10C
  8
回90-A2
 10
424.172122976568
 20
-173.6327729126942
 30
0.0
 11
424.172122976568
 21
221.3672270873058
 31
0.0
  0
LINE
  5
10D
  8
回90-A2
 10
419.172122976568
 20
216.3672270873058
 30
0.0
 11
419.172122976568
 21
-168.6327729126942
 31
0.0
  0
LINE
  5
10E
  8
回90-A2
 10
-145.8278770234319
 20
-173.6327729126942
 30
0.0
 11
-145.8278770234319
 21
221.3672270873058
 31
0.0
  0
LINE
  5
10F
  8
回90-A2
 10
-140.8278770234319
 20
216.3672270873058
 30
0.0
 11
-140.8278770234319
 21
-168.6327729126942
 31
0.0
  0
TEXT
  5
110
  8
回08-記事
  6
CONTINUOUS
 62
     7
 10
242.6670666761211
 20
-113.9513418809783
 30
0.0
 40
3.0
  1
(0.083in)
 50
90.0
  0
TEXT
  5
111
  8
回08-記事
  6
CONTINUOUS
 62
     7
 10
-95.38935145045389
 20
-119.2791154666652
 30
0.0
 40
3.0
  1
(0.012in)
 50
90.0
  0
TEXT
  5
112
  8
回08-記事
  6
CONTINUOUS
 62
     7
 10
189.2444139921135
 20
-107.1678738514579
 30
0.0
 40
3.0
  1
(0.057in)
  0
TEXT
  5
113
  8
回08-記事
  6
CONTINUOUS
 62
     7
 10
-85.88783855036309
 20
-78.0462515105346
 30
0.0
 40
3.0
  1
(0.197in)
  0
TEXT
  5
114
  8
回08-記事
  6
CONTINUOUS
 62
     7
 10
-80.91315628112671
 20
-107.8707764240771
 30
0.0
 40
3.0
  1
(0.394in)
  0
TEXT
  5
115
  8
回08-記事
  6
CONTINUOUS
 62
     7
 10
230.6337370013403
 20
-15.1925503970142
 30
0.0
 40
3.0
  1
(0.079in)
 50
90.0
  0
TEXT
  5
116
  8
回08-記事
  6
CONTINUOUS
 62
     7
 10
230.6337370013403
 20
-40.07113322984787
 30
0.0
 40
3.0
  1
(0.136in)
 50
90.0
  0
TEXT
  5
117
  8
回08-記事
  6
CONTINUOUS
 62
     7
 10
253.397849805021
 20
-46.11307441423287
 30
0.0
 40
3.0
  1
(0.197in)
 50
90.0
  0
TEXT
  5
118
  8
回08-記事
  6
CONTINUOUS
 62
     7
 10
243.79423924616
 20
-45.75766610926893
 30
0.0
 40
3.0
  1
(0.276in)
 50
90.0
  0
TEXT
  5
119
  8
回08-記事
  6
CONTINUOUS
 62
     7
 10
235.9619553183202
 20
55.63075619425944
 30
0.0
 40
3.0
  1
(3.408in)
 50
90.0
  0
TEXT
  5
11A
  8
回08-記事
  6
CONTINUOUS
 62
     7
 10
242.7200514350425
 20
90.46077305144763
 30
0.0
 40
3.0
  1
(6.265in)
 50
90.0
  0
TEXT
  5
11B
  8
回08-記事
  6
CONTINUOUS
 62
     7
 10
251.6122820166547
 20
90.81618135641155
 30
0.0
 40
3.0
  1
(6.422in)
 50
90.0
  0
TEXT
  5
11C
  8
回08-記事
  6
CONTINUOUS
 62
     7
 10
259.7931353544463
 20
74.82280614767296
 30
0.0
 40
3.0
  1
(6.816in)
 50
90.0
  0
TEXT
  5
11D
  8
回08-記事
  6
CONTINUOUS
 62
     7
 10
-37.30204218670497
 20
167.6822348843666
 30
0.0
 40
3.0
  1
(0.394in)
  0
TEXT
  5
11E
  8
回08-記事
  6
CONTINUOUS
 62
     7
 10
-35.30550846284541
 20
176.6595323142114
 30
0.0
 40
3.0
  1
(0.315in)
  0
TEXT
  5
11F
  8
回08-記事
  6
CONTINUOUS
 62
     7
 10
116.6371989787571
 20
185.7529687145743
 30
0.0
 40
3.0
  1
(8.944in)
  0
TEXT
  5
120
  8
回08-記事
  6
CONTINUOUS
 62
     7
 10
129.675517013723
 20
177.6104551693761
 30
0.0
 40
3.0
  1
(8.510in)
  0
TEXT
  5
121
  8
回08-記事
  6
CONTINUOUS
 62
     7
 10
129.675517013723
 20
168.1651407640702
 30
0.0
 40
3.0
  1
(8.353in)
  0
TEXT
  5
122
  8
回08-記事
  6
CONTINUOUS
 62
     7
 10
80.12991012090925
 20
157.417024013288
 30
0.0
 40
3.0
  1
(4.570in)
  0
TEXT
  5
123
  8
回08-記事
  6
CONTINUOUS
 62
     7
 10
-111.8987031531017
 20
100.1295938170801
 30
0.0
 40
3.0
  1
(3.408in)
 50
90.0
  0
TEXT
  5
124
  8
回08-記事
  6
CONTINUOUS
 62
     7
 10
-35.89150145141139
 20
46.35214482815354
 30
0.0
 40
3.0
  1
(0.630in)
 50
90.0
  0
TEXT
  5
125
  8
回08-記事
  6
CONTINUOUS
 62
     7
 10
-100.7718745137481
 20
41.73932629248065
 30
0.0
 40
3.0
  1
(0.246in)
 50
90.0
  0
TEXT
  5
126
  8
回08-記事
  6
CONTINUOUS
 62
     7
 10
-60.31432334452347
 20
88.26631640500181
 30
0.0
 40
3.0
  1
(3.152in)
  0
TEXT
  5
127
  8
回08-記事
  6
CONTINUOUS
 62
     7
 10
-38.76813260626659
 20
32.62384092321099
 30
0.0
 40
3.0
  1
(0.398in)
  0
LINE
  5
128
  8
回08-記事
  6
CONTINUOUS
 62
     5
 10
-47.91997080297187
 20
-87.31703271913238
 30
0.0
 11
-46.27279819764772
 21
-83.62606302261974
 31
0.0
  0
TEXT
  5
129
  8
回08-記事
  6
CONTINUOUS
 62
     5
 10
-63.83978942518751
 20
-92.73684267005682
 30
0.0
 40
5.0
  1
LOT LABEL
  0
POLYLINE
  5
12A
  8
回08-記事
 62
     7
 66
     1
 10
0.0
 20
0.0
 30
0.0
 70
     1
  0
VERTEX
  5
4E6
  8
回08-記事
 62
     7
 10
-4.245236023239158
 20
145.4806725116355
 30
0.0
  0
VERTEX
  5
4E8
  8
回08-記事
 62
     7
 10
211.7547639767608
 20
145.4806725116355
 30
0.0
  0
VERTEX
  5
4E9
  8
回08-記事
 62
     7
 10
211.7547639767608
 20
-17.49192948312657
 30
0.0
  0
VERTEX
  5
4EA
  8
回08-記事
 62
     7
 10
-4.245236023239158
 20
-17.49192948312657
 30
0.0
  0
SEQEND
  5
4E7
  8
回07-寸法
  6
CONTINUOUS
 62
     7
  0
TEXT
  5
12B
  8
回08-記事
  6
CONTINUOUS
 62
     5
 10
-86.22477202578542
 20
52.69976353968331
 30
0.0
 40
4.0
  1
A
  7
MTX_ISOCP_SHXBIGFONT
  0
INSERT
  5
12C
  8
回08-記事
  6
CONTINUOUS
 62
     3
 66
     1
  2
*X58
 10
0.0
 20
0.0
 30
0.0
  0
SEQEND
  5
4F1
  8
回07-寸法
  6
CONTINUOUS
 62
     7
  0
LINE
  5
12D
  8
回08-記事
  6
CONTINUOUS
 62
     7
 10
-4.245236023239158
 20
-80.3266593192402
 30
0.0
 11
-4.245236023239158
 21
-83.32665931924021
 31
0.0
  0
LINE
  5
12E
  8
回08-記事
  6
CONTINUOUS
 62
     7
 10
214.4547639767609
 20
-80.3266593192402
 30
0.0
 11
214.4547639767609
 21
-76.3266593192402
 31
0.0
  0
TEXT
  5
12F
  8
回07-寸法
  6
CONTINUOUS
 62
     5
 10
-35.78365217276346
 20
77.14778575836453
 30
0.0
 40
4.0
  1
4-R1
  7
MTX_ISOCP_SHXBIGFONT
  0
INSERT
  5
130
  8
回07-寸法
  6
CONTINUOUS
 62
     1
 66
     1
  2
*X59
 10
0.0
 20
0.0
 30
0.0
  0
SEQEND
  5
4F8
  8
回07-寸法
  6
CONTINUOUS
 62
     7
  0
TEXT
  5
131
  8
回07-寸法
  6
CONTINUOUS
 62
     5
 10
-29.07976801428885
 20
87.51225058044884
 30
0.0
 40
4.0
  1
2-R2
  7
MTX_ISOCP_SHXBIGFONT
  0
INSERT
  5
132
  8
回07-寸法
  6
CONTINUOUS
 62
     1
 66
     1
  2
*X60
 10
0.0
 20
0.0
 30
0.0
  0
SEQEND
  5
4FF
  8
回07-寸法
  6
CONTINUOUS
 62
     7
  0
DIMENSION
  5
133
  8
回07-寸法
  6
CONTINUOUS
 62
     5
  2
*D34
 10
-22.35387949025085
 20
36.9786982706878
 30
0.0
 11
-31.25387949025094
 21
36.9786982706878
 31
0.0
 70
   160
  3
STANDARD
 13
-12.24523602323938
 23
55.06163589215976
 33
0.0
 14
-22.35387949025085
 24
60.87904584962188
 34
0.0
1001
ACAD
1000
DSTYLE
1002
{
1070
    47
1040
0.3
1070
    48
1040
0.3
1070
   140
1040
4.0
1070
   146
1040
0.7
1070
   283
1070
     0
1070
   288
1070
     0
1070
   341
1005
0
1070
   371
1070
    13
1070
   372
1070
    13
1002
}
  0
DIMENSION
  5
144
  8
回07-寸法
  6
CONTINUOUS
 62
     5
  2
*D35
 10
-31.06092917371621
 20
56.00807051687389
 30
0.0
 11
-31.06092917371621
 21
49.60885791844839
 31
0.0
 70
   160
  3
STANDARD
 13
-16.4371659316057
 23
72.0068674826025
 33
0.0
 14
-16.43299234589903
 24
56.00807051687389
 34
0.0
 50
90.0
1001
ACAD
1000
DSTYLE
1002
{
1070
    47
1040
0.3
1070
    48
1040
0.3
1070
   140
1040
4.0
1070
   146
1040
0.7
1070
   283
1070
     0
1070
   288
1070
     0
1070
   341
1005
0
1070
   371
1070
    13
1070
   372
1070
    13
1002
}
  0
POLYLINE
  5
155
  8
回04-下接
  6
CONTINUOUS
 62
     7
 66
     1
 10
0.0
 20
0.0
 30
0.0
 70
     1
  0
VERTEX
  5
500
  8
回04-下接
  6
CONTINUOUS
 62
     7
 10
-12.24523602323916
 20
150.5080705168734
 30
0.0
  0
VERTEX
  5
502
  8
回04-下接
  6
CONTINUOUS
 62
     7
 10
214.7547639767608
 20
150.5080705168734
 30
0.0
  0
VERTEX
  5
503
  8
回04-下接
  6
CONTINUOUS
 62
     7
 10
214.7547639767608
 20
-22.49192948312657
 30
0.0
  0
VERTEX
  5
504
  8
回04-下接
  6
CONTINUOUS
 62
     7
 10
-12.24523602323916
 20
-22.49192948312657
 30
0.0
  0
SEQEND
  5
501
  8
回07-寸法
  6
CONTINUOUS
 62
     7
  0
INSERT
  5
157
  8
回08-記事
  6
CONTINUOUS
 62
     8
 66
     1
  2
*X61
 10
0.0
 20
0.0
 30
0.0
1001
ACAD
1000
HATCH
1002
{
1070
    19
1000
ANSI31
1040
0.5
1040
6.283185307179586
1000
ASC_BOUNDS
1070
     1
1070
     2
1070
     1
1005
158
1000
ASC_SEEDPOINT
1011
236.6680880142501
1021
-153.1415975642962
1031
0.0
1000
R14_HATCH_DATA
1000
157
1011
1.0
1021
0.0
1031
0.0
1011
0.0
1021
1.0
1031
0.0
1011
0.0
1021
0.0
1031
1.0
1040
0.0
1010
0.0
1020
0.0
1030
1.0
1000
ANSI31
1070
     0
1070
     1
1071
        1
1071
        1
1071
        4
1070
     1
1040
-8.945236023239203
1040
71.41075332928949
1040
-16.63671902763985
1040
71.41075332928949
1070
     1
1040
-16.63671902763985
1040
71.41075332928949
1040
-16.63671902763985
1040
65.00807051687388
1070
     1
1040
-16.63671902763985
1040
65.00807051687388
1040
-8.945236023239203
1040
65.00807051687388
1070
     1
1040
-8.945236023239203
1040
65.00807051687388
1040
-8.945236023239203
1040
71.41075332928949
1071
        1
1005
158
1070
     0
1070
     1
1040
6.283185307179586
1040
0.5
1070
     0
1070
     1
1040
0.7853981633974481
1040
236.6680880142501
1040
-153.1415975642962
1040
-1.122532015133643
1040
1.122532015133644
1070
     0
1071
        1
1040
236.6680880142501
1040
-153.1415975642962
1040
0.0
1002
}
  0
SEQEND
  5
50E
  8
回07-寸法
  6
CONTINUOUS
 62
     7
  0
POLYLINE
  5
158
  8
回08-記事
  6
DASHED2
 62
     8
 66
     1
 10
0.0
 20
0.0
 30
0.0
 70
     1
1001
ACAD
1000
ASC_BOUNDS
1002
{
1070
    19
1005
157
1002
}
  0
VERTEX
  5
50F
  8
回08-記事
  6
DASHED2
 62
     8
 10
-8.945236023239203
 20
71.41075332928949
 30
0.0
  0
VERTEX
  5
511
  8
回08-記事
  6
DASHED2
 62
     8
 10
-16.63671902763985
 20
71.41075332928949
 30
0.0
  0
VERTEX
  5
512
  8
回08-記事
  6
DASHED2
 62
     8
 10
-16.63671902763985
 20
65.00807051687388
 30
0.0
  0
VERTEX
  5
513
  8
回08-記事
  6
DASHED2
 62
     8
 10
-8.945236023239203
 20
65.00807051687388
 30
0.0
  0
SEQEND
  5
510
  8
回07-寸法
  6
CONTINUOUS
 62
     7
  0
LINE
  5
15A
  8
回08-記事
  6
CONTINUOUS
 62
     5
 10
-11.51928163207571
 20
-90.74927710328665
 30
0.0
 11
-8.514744438685511
 21
-96.61000218748995
 31
0.0
  0
TEXT
  5
15B
  8
回08-記事
  6
CONTINUOUS
 62
     5
 10
-8.544636622909592
 20
-102.394004198527
 30
0.0
 40
5.0
  1
PROTECTION TAPE
  0
LINE
  5
15C
  8
回08-記事
  6
CONTINUOUS
 62
     7
 10
-13.74523602323916
 20
-90.82665931924021
 30
0.0
 11
-13.74523602323916
 21
-84.82665931924021
 31
0.0
  0
LINE
  5
15D
  8
回08-記事
  6
CONTINUOUS
 62
     7
 10
-8.745236023239158
 20
-90.82665931924021
 30
0.0
 11
-13.74523602323916
 21
-90.82665931924021
 31
0.0
  0
LINE
  5
15E
  8
回08-記事
  6
CONTINUOUS
 62
     7
 10
-8.745236023239158
 20
-89.3266593192402
 30
0.0
 11
-8.745236023239158
 21
-90.82665931924021
 31
0.0
  0
LINE
  5
15F
  8
回08-記事
  6
CONTINUOUS
 62
     7
 10
-16.43671902763981
 20
-84.82665931924021
 30
0.0
 11
-13.74523602323916
 21
-84.82665931924021
 31
0.0
  0
LINE
  5
160
  8
回08-記事
  6
CONTINUOUS
 62
     7
 10
-16.43671902763981
 20
-83.32665931924021
 30
0.0
 11
-16.43671902763981
 21
-84.82665931924021
 31
0.0
  0
TEXT
  5
161
  8
回08-記事
  6
CONTINUOUS
 62
     5
 10
176.2493604751601
 20
-30.85407397748031
 30
0.0
 40
4.0
  1
PART No
  7
MTX_ISOCP_SHXBIGFONT
  0
INSERT
  5
162
  8
回08-記事
  6
CONTINUOUS
 62
     5
 66
     1
  2
*X62
 10
0.0
 20
0.0
 30
0.0
  0
SEQEND
  5
51A
  8
回07-寸法
  6
CONTINUOUS
 62
     7
  0
INSERT
  5
163
  8
回08-記事
  6
CONTINUOUS
 62
     8
 66
     1
  2
*X63
 10
0.0
 20
0.0
 30
0.0
1001
ACAD
1000
HATCH
1002
{
1070
    19
1000
ANSI31
1040
15.0
1040
1.570796326794896
1000
ASC_BOUNDS
1070
     1
1070
     2
1070
     1
1005
164
1000
ASC_SEEDPOINT
1011
143.481281041182
1021
44.05726998250384
1031
0.0
1000
R14_HATCH_DATA
1000
163
1011
1.0
1021
0.0
1031
0.0
1011
0.0
1021
1.0
1031
0.0
1011
0.0
1021
0.0
1031
1.0
1040
0.0
1010
0.0
1020
0.0
1030
1.0
1000
ANSI31
1070
     0
1070
     1
1071
        1
1071
        1
1071
        8
1070
     1
1040
-58.80539284798692
1040
62.50807051687388
1040
-58.80539284798692
1040
65.50807051687389
1070
     2
1040
-57.80539284798692
1040
65.50807051687389
1040
1.0
1040
3.141592653589793
1040
4.712388980384689
1070
     0
1070
     1
1040
-57.80539284798692
1040
66.50807051687388
1040
-33.80539284798692
1040
66.50807051687388
1070
     2
1040
-33.80539284798692
1040
65.50807051687389
1040
1.0
1040
4.712388980384689
1040
6.283185307179586
1070
     0
1070
     1
1040
-32.80539284798692
1040
65.50807051687389
1040
-32.80539284798692
1040
62.50807051687388
1070
     2
1040
-33.80539284798692
1040
62.50807051687388
1040
1.0
1040
6.283185307179586
1040
7.853981633974482
1070
     0
1070
     1
1040
-33.80539284798692
1040
61.50807051687388
1040
-57.80539284798692
1040
61.50807051687388
1070
     2
1040
-57.80539284798692
1040
62.50807051687388
1040
1.0
1040
1.570796326794896
1040
3.141592653589793
1070
     0
1071
        1
1005
164
1070
     0
1070
     1
1040
1.570796326794896
1040
15.0
1070
     0
1070
     1
1040
2.356194490192344
1040
143.481281041182
1040
44.05726998250384
1040
-1.325825214724776
1040
-1.325825214724776
1070
     0
1071
        1
1040
143.481281041182
1040
44.05726998250384
1040
0.0
1002
}
  0
SEQEND
  5
529
  8
回07-寸法
  6
CONTINUOUS
 62
     7
  0
POLYLINE
  5
164
  8
回08-記事
  6
DASHED2
 62
     8
 66
     1
 10
0.0
 20
0.0
 30
0.0
 70
     1
1001
ACAD
1000
ASC_BOUNDS
1002
{
1070
    19
1005
163
1002
}
  0
VERTEX
  5
52A
  8
回08-記事
  6
DASHED2
 62
     8
 10
-58.80539284798692
 20
62.50807051687388
 30
0.0
  0
VERTEX
  5
52C
  8
回08-記事
  6
DASHED2
 62
     8
 10
-58.80539284798692
 20
65.50807051687389
 30
0.0
 42
-0.4142135623730951
  0
VERTEX
  5
52D
  8
回08-記事
  6
DASHED2
 62
     8
 10
-57.80539284798692
 20
66.50807051687388
 30
0.0
  0
VERTEX
  5
52E
  8
回08-記事
  6
DASHED2
 62
     8
 10
-33.80539284798692
 20
66.50807051687388
 30
0.0
 42
-0.4142135623730951
  0
VERTEX
  5
52F
  8
回08-記事
  6
DASHED2
 62
     8
 10
-32.80539284798692
 20
65.50807051687389
 30
0.0
  0
VERTEX
  5
530
  8
回08-記事
  6
DASHED2
 62
     8
 10
-32.80539284798692
 20
62.50807051687388
 30
0.0
 42
-0.4142135623730951
  0
VERTEX
  5
531
  8
回08-記事
  6
DASHED2
 62
     8
 10
-33.80539284798692
 20
61.50807051687388
 30
0.0
  0
VERTEX
  5
532
  8
回08-記事
  6
DASHED2
 62
     8
 10
-57.80539284798692
 20
61.50807051687388
 30
0.0
 42
-0.4142135623730946
  0
SEQEND
  5
52B
  8
回07-寸法
  6
CONTINUOUS
 62
     7
  0
TEXT
  5
165
  8
回08-記事
  6
CONTINUOUS
 62
     7
 10
-92.52270305834304
 20
61.34547033869694
 30
0.0
 40
2.5
  1
1
 50
90.0
  0
TEXT
  5
166
  8
回08-記事
  6
CONTINUOUS
 62
     7
 10
-92.54559601413189
 20
65.20612978997451
 30
0.0
 40
2.5
  1
4
 50
90.0
  0
ARC
  5
167
  8
回05-ﾃ-ﾙ
  6
CONTINUOUS
 62
     7
 10
-22.35393732311263
 20
59.87904585129445
 30
0.0
 40
1.0
 50
45.14359814421449
 51
89.99668642115283
  0
ARC
  5
169
  8
回05-ﾃ-ﾙ
  6
CONTINUOUS
 62
     7
 10
-22.3564985920168
 20
68.13307051687434
 30
0.0
 40
1.0
 50
270.0
 51
314.8829928953718
  0
ARC
  5
16A
  8
回05-ﾃ-ﾙ
  6
CONTINUOUS
 62
     7
 10
-16.63671902763985
 20
71.00686758246411
 30
0.0
 40
1.0
 50
90.02560571194576
 51
134.8829928953718
  0
ARC
  5
16B
  8
回05-ﾃ-ﾙ
  6
CONTINUOUS
 62
     7
 10
-16.63299234589908
 20
57.00807051687434
 30
0.0
 40
1.0
 50
225.1435981442145
 51
270.0
  0
ARC
  5
16C
  8
回05-ﾃ-ﾙ
  6
CONTINUOUS
 62
     7
 10
-13.9452360232392
 20
54.00807051687434
 30
0.0
 40
2.0
 50
31.78833061704675
 51
90.0
  0
ARC
  5
16D
  8
回05-ﾃ-ﾙ
  6
CONTINUOUS
 62
     7
 10
-13.9452360232392
 20
74.00807071659755
 30
0.0
 40
2.0
 50
270.0256057119457
 51
328.2116693829532
  0
LINE
  5
16E
  8
回05-ﾃ-ﾙ
  6
CONTINUOUS
 62
     7
 10
-21.64860495459493
 20
60.58792260357268
 30
0.0
 11
-17.33832471441587
 21
56.2991937645952
 31
0.0
  0
LINE
  5
16F
  8
回05-ﾃ-ﾙ
  6
CONTINUOUS
 62
     7
 10
-21.6508373089257
 20
67.42452118651954
 30
0.0
 11
-17.34238031073096
 21
71.71541691281845
 31
0.0
  0
LINE
  5
170
  8
回05-ﾃ-ﾙ
  6
CONTINUOUS
 62
     7
 10
-16.63299234589817
 20
56.00807051687389
 30
0.0
 11
-13.9452360232392
 21
56.00807051687389
 31
0.0
  0
LINE
  5
171
  8
回05-ﾃ-ﾙ
  6
CONTINUOUS
 62
     7
 10
-16.63716593160484
 20
72.00686748260205
 30
0.0
 11
-13.94434221530741
 21
72.00807091632032
 31
0.0
  0
LINE
  5
172
  8
回05-ﾃ-ﾙ
  6
CONTINUOUS
 62
     7
 10
-92.24523602323916
 20
66.63307051687389
 30
0.0
 11
-92.24523602323916
 21
61.38307051687388
 31
0.0
  0
ARC
  5
173
  8
回05-ﾃ-ﾙ
  6
CONTINUOUS
 62
     7
 10
-91.74523602323915
 20
61.38307051687434
 30
0.0
 40
0.5
 50
180.0
 51
270.0
  0
ARC
  5
174
  8
回05-ﾃ-ﾙ
  6
CONTINUOUS
 62
     7
 10
-91.74523602323915
 20
66.63307051687434
 30
0.0
 40
0.5
 50
90.0
 51
180.0
  0
LINE
  5
175
  8
回05-ﾃ-ﾙ
  6
CONTINUOUS
 62
     7
 10
-91.74523602323915
 20
60.88307051687388
 30
0.0
 11
-22.35387949025085
 21
60.87904584962188
 31
0.0
  0
LINE
  5
176
  8
回05-ﾃ-ﾙ
  6
CONTINUOUS
 62
     7
 10
-91.74523602323915
 20
67.13307051687434
 30
0.0
 11
-22.3564985920168
 21
67.13307051687434
 31
0.0
  0
TEXT
  5
177
  8
回08-記事
  6
CONTINUOUS
 62
     5
 10
-76.17012599944809
 20
53.93400097658695
 30
0.0
 40
4.0
  1
LOT LABEL
  7
MTX_ISOCP_SHXBIGFONT
  0
INSERT
  5
178
  8
回08-記事
  6
CONTINUOUS
 62
     5
 66
     1
  2
*X64
 10
0.0
 20
0.0
 30
0.0
  0
SEQEND
  5
539
  8
回07-寸法
  6
CONTINUOUS
 62
     7
  0
DIMENSION
  5
179
  8
回07-寸法
  6
CONTINUOUS
 62
     5
  2
*D36
 10
-106.0633557110066
 20
60.88307051687388
 30
0.0
 11
-108.5633557110066
 21
48.73276094388962
 31
0.0
 70
    32
  3
STANDARD
 13
-91.74523602323915
 23
67.13307051687388
 33
0.0
 14
-91.74523602323915
 24
60.88307051687388
 34
0.0
 50
90.0
1001
ACAD
1000
DSTYLE
1002
{
1070
   372
1070
    13
1070
   371
1070
    13
1070
   147
1040
0.5
1070
    72
1070
     0
1070
    71
1070
     1
1070
    47
1040
0.2
1070
    48
1040
0.2
1070
   140
1040
4.0
1070
   146
1040
0.7
1070
   283
1070
     0
1070
   288
1070
     0
1070
   341
1005
0
1002
}
  0
CIRCLE
  5
18A
  8
回08-記事
  6
DASHED2
 62
     5
 10
-91.75460268096959
 20
64.08982635457551
 30
0.0
 40
6.167411405640888
  0
POLYLINE
  5
18B
  8
回08-記事
  6
CONTINUOUS
 62
     7
 66
     1
 10
0.0
 20
0.0
 30
0.0
 70
     1
  0
VERTEX
  5
53A
  8
回08-記事
  6
CONTINUOUS
 62
     7
 10
-58.60539284798687
 20
-83.82665931924021
 30
0.0
  0
VERTEX
  5
53C
  8
回08-記事
  6
CONTINUOUS
 62
     7
 10
-32.60539284798688
 20
-83.82665931924021
 30
0.0
  0
VERTEX
  5
53D
  8
回08-記事
  6
CONTINUOUS
 62
     7
 10
-32.60539284798688
 20
-83.32665931924021
 30
0.0
  0
VERTEX
  5
53E
  8
回08-記事
  6
CONTINUOUS
 62
     7
 10
-58.60539284798687
 20
-83.32665931924021
 30
0.0
  0
SEQEND
  5
53B
  8
回07-寸法
  6
CONTINUOUS
 62
     7
  0
TEXT
  5
18C
  8
回08-記事
  6
CONTINUOUS
 62
     5
 10
215.7259797026719
 20
0.4344511400690863
 30
0.0
 40
3.0
  1
AIR VENT
  7
MTX_ISOCP_SHXBIGFONT
  0
INSERT
  5
18D
  8
回08-記事
  6
CONTINUOUS
 62
     7
 66
     1
  2
*X65
 10
0.0
 20
0.0
 30
0.0
  0
SEQEND
  5
545
  8
回07-寸法
  6
CONTINUOUS
 62
     7
  0
DIMENSION
  5
18E
  8
回07-寸法
  6
CONTINUOUS
 62
     5
  2
*D37
 10
253.7883333938789
 20
-22.49192948312657
 30
0.0
 11
251.2883333938789
 21
-19.99192948312657
 31
0.0
 70
    32
  3
STANDARD
 13
211.7547639767608
 23
-17.49192948312657
 33
0.0
 14
214.7547639767608
 24
-22.49192948312657
 34
0.0
 50
90.0
1001
ACAD
1000
DSTYLE
1002
{
1070
   372
1070
    13
1070
   371
1070
    13
1070
    47
1040
0.3
1070
    48
1040
0.3
1070
   140
1040
4.0
1070
   146
1040
0.7
1070
   283
1070
     0
1070
   288
1070
     0
1070
   341
1005
0
1002
}
  0
DIMENSION
  5
19F
  8
回07-寸法
  6
CONTINUOUS
 62
     7
  2
*D38
 10
245.1555203620539
 20
-22.49192948312657
 30
0.0
 11
245.1555203620539
 21
-27.79192948312721
 31
0.0
 70
   160
  3
STANDARD
 13
209.7547639767608
 23
-15.49192948312657
 33
0.0
 14
214.7547639767608
 24
-22.49192948312657
 34
0.0
 50
90.0
1001
ACAD
1000
DSTYLE
1002
{
1070
   372
1070
    13
1070
   371
1070
    13
1070
    47
1040
0.3
1070
    48
1040
0.3
1070
   140
1040
4.0
1070
   146
1040
0.7
1070
   283
1070
     0
1070
   288
1070
     0
1070
   341
1005
0
1002
}
  0
DIMENSION
  5
1B0
  8
回07-寸法
  6
CONTINUOUS
 62
     5
  2
*D39
 10
237.8652662276438
 20
-22.49192948312657
 30
0.0
 11
237.8652662276438
 21
21.40270663222827
 31
0.0
 70
   160
  1
<> (ACTIVE AREA CENTER)
  3
STANDARD
 13
214.7547639767608
 23
64.00807051687343
 33
0.0
 14
214.7547639767608
 24
-22.49192948312657
 34
0.0
 50
90.0
1001
ACAD
1000
DSTYLE
1002
{
1070
   372
1070
    13
1070
   371
1070
    13
1070
    47
1040
0.3
1070
    48
1040
0.3
1070
   140
1040
4.0
1070
   146
1040
0.7
1070
   283
1070
     0
1070
   288
1070
     0
1070
   341
1005
0
1002
}
  0
DIMENSION
  5
1BF
  8
回07-寸法
  6
CONTINUOUS
 62
     7
  2
*D40
 10
245.1555203620539
 20
-15.49192948312657
 30
0.0
 11
245.1555203620539
 21
64.08458613234188
 31
0.0
 70
   160
  1
<> (ACTIVE AREA)
  3
STANDARD
 13
209.7547639767608
 23
143.5080705168734
 33
0.0
 14
209.7547639767608
 24
-15.49192948312657
 34
0.0
 50
90.0
1001
ACAD
1000
DSTYLE
1002
{
1070
   372
1070
    13
1070
   371
1070
    13
1070
    47
1040
0.3
1070
    48
1040
0.3
1070
   140
1040
4.0
1070
   146
1040
0.7
1070
   283
1070
     0
1070
   288
1070
     0
1070
   341
1005
0
1002
}
  0
DIMENSION
  5
1CE
  8
回07-寸法
  6
CONTINUOUS
 62
     5
  2
*D41
 10
253.7883333938792
 20
-17.49192948312657
 30
0.0
 11
253.7883333938792
 21
64.38212193608478
 31
0.0
 70
   160
  1
<> (VIEWING AREA)
  3
STANDARD
 13
211.7547639767608
 23
145.5080705168734
 33
0.0
 14
211.7547639767608
 24
-17.49192948312657
 34
0.0
 50
90.0
1001
ACAD
1000
DSTYLE
1002
{
1070
   372
1070
    13
1070
   371
1070
    13
1070
    47
1040
0.3
1070
    48
1040
0.3
1070
   140
1040
4.0
1070
   146
1040
0.7
1070
   283
1070
     0
1070
   288
1070
     0
1070
   341
1005
0
1002
}
  0
DIMENSION
  5
1DD
  8
回07-寸法
  6
CONTINUOUS
 62
     5
  2
*D42
 10
261.3387616551102
 20
-22.49192948312657
 30
0.0
 11
261.3387616551102
 21
64.39045769282393
 31
0.0
 70
   160
  3
STANDARD
 13
214.7547639767608
 23
150.5080705168734
 33
0.0
 14
214.7547639767608
 24
-22.49192948312657
 34
0.0
 50
90.0
1001
ACAD
1000
DSTYLE
1002
{
1070
   372
1070
    13
1070
   371
1070
    13
1070
   147
1040
0.5
1070
    72
1070
     0
1070
    71
1070
     1
1070
    47
1040
0.3
1070
    48
1040
0.3
1070
   140
1040
4.0
1070
   146
1040
0.7
1070
   283
1070
     0
1070
   288
1070
     0
1070
   341
1005
0
1002
}
  0
DIMENSION
  5
1EC
  8
回07-寸法
  6
CONTINUOUS
 62
     5
  2
*D43
 10
103.7547639767606
 20
156.2391290517939
 30
0.0
 11
45.75476397676072
 21
158.9391290517939
 31
0.0
 70
    32
  1
<> (ACTIVE AREA CENTER)
  3
STANDARD
 13
-12.24523602323916
 23
150.5080705168734
 33
0.0
 14
103.7547639767606
 24
159.9580705168732
 34
0.0
1001
ACAD
1000
DSTYLE
1002
{
1070
   372
1070
    13
1070
   371
1070
    13
1070
    47
1040
0.3
1070
    48
1040
0.3
1070
   140
1040
4.0
1070
   146
1040
0.7
1070
   283
1070
     0
1070
   288
1070
     0
1070
   341
1005
0
1002
}
  0
DIMENSION
  5
1FB
  8
回07-寸法
  6
CONTINUOUS
 62
     7
  2
*D44
 10
-12.24523602323916
 20
92.45753170504258
 30
0.0
 11
-52.24523602323916
 21
94.95753170504258
 31
0.0
 70
    32
  1
80{\H0.75x;±1.0}
  3
STANDARD
 13
-92.24523602323916
 23
64.63307051687388
 33
0.0
 14
-12.24523602323916
 24
91.31486215661562
 34
0.0
1001
ACAD
1000
DSTYLE
1002
{
1070
   284
1070
     8
1070
   272
1070
     2
1070
   372
1070
    13
1070
   371
1070
    13
1070
   147
1040
0.5
1070
    72
1070
     0
1070
    71
1070
     1
1070
    47
1040
1.0
1070
    48
1040
1.0
1070
   140
1040
4.0
1070
   146
1040
0.7
1070
   283
1070
     0
1070
   288
1070
     0
1070
   341
1005
0
1002
}
  0
DIMENSION
  5
20A
  8
回07-寸法
  6
CONTINUOUS
 62
     5
  2
*D45
 10
226.2268685417005
 20
-17.04192948312675
 30
0.0
 11
226.2268685417005
 21
-10.10425632749275
 31
0.0
 70
   160
  1
(<>)
  3
STANDARD
 13
214.3547639767608
 23
-19.04192948312675
 33
0.0
 14
214.2547639767609
 24
-17.04192948312675
 34
0.0
 50
90.0
1001
ACAD
1000
DSTYLE
1002
{
1070
   372
1070
    13
1070
   371
1070
    13
1070
    47
1040
0.3
1070
    48
1040
0.3
1070
   140
1040
4.0
1070
   146
1040
0.7
1070
   283
1070
     0
1070
   288
1070
     0
1002
}
  0
DIMENSION
  5
21B
  8
回07-寸法
  6
CONTINUOUS
 62
     5
  2
*D46
 10
226.2268685417005
 20
-19.04192948312675
 30
0.0
 11
226.2268685417005
 21
-32.99035467997737
 31
0.0
 70
   160
  1
(<>)
  3
STANDARD
 13
214.7547639767608
 23
-22.49192948312657
 33
0.0
 14
214.2547639767609
 24
-19.04192948312675
 34
0.0
 50
90.0
1001
ACAD
1000
DSTYLE
1002
{
1070
   372
1070
    13
1070
   371
1070
    13
1070
    47
1040
0.3
1070
    48
1040
0.3
1070
   140
1040
4.0
1070
   146
1040
0.7
1070
   283
1070
     0
1070
   288
1070
     0
1002
}
  0
TEXT
  5
22C
  8
回08-記事
  6
CONTINUOUS
 62
     5
 10
302.1221400517888
 20
172.7948310095171
 30
0.0
 40
6.240000000000001
  1
4
  0
LINE
  5
22D
  8
回08-記事
  6
CONTINUOUS
 62
     5
 10
308.8204206940495
 20
175.6553291444788
 30
0.0
 11
387.2104206940499
 21
175.6553291444788
 31
0.0
  0
TEXT
  5
22E
  8
回08-記事
  6
CONTINUOUS
 62
     5
 10
360.9870388723521
 20
107.2421240671965
 30
0.0
 40
5.459999999999999
  1
XR
  0
LINE
  5
22F
  8
回08-記事
  6
CONTINUOUS
 62
     5
 10
365.7604206940498
 20
115.2053291444781
 30
0.0
 11
365.7604206940498
 21
154.2053291444781
 31
0.0
  0
LINE
  5
230
  8
回08-記事
  6
CONTINUOUS
 62
     5
 10
360.6904206940494
 20
115.2053291444781
 30
0.0
 11
365.7604206940498
 21
115.2053291444781
 31
0.0
  0
LINE
  5
231
  8
回08-記事
  6
CONTINUOUS
 62
     5
 10
350.4724206940496
 20
117.2333291444783
 30
0.0
 11
353.2804206940498
 21
111.6173291444784
 31
0.0
  0
LINE
  5
232
  8
回08-記事
  6
CONTINUOUS
 62
     5
 10
347.66442069405
 20
111.6173291444784
 30
0.0
 11
350.4724206940496
 21
117.2333291444783
 31
0.0
  0
LINE
  5
233
  8
回08-記事
  6
CONTINUOUS
 62
     5
 10
353.2804206940498
 20
111.6173291444784
 30
0.0
 11
356.08842069405
 21
117.2333291444783
 31
0.0
  0
LINE
  5
234
  8
回08-記事
  6
CONTINUOUS
 62
     5
 10
356.08842069405
 20
117.2333291444783
 30
0.0
 11
358.8964206940502
 21
111.6173291444784
 31
0.0
  0
LINE
  5
235
  8
回08-記事
  6
CONTINUOUS
 62
     5
 10
358.8964206940502
 20
111.6173291444784
 30
0.0
 11
360.6904206940494
 21
115.2053291444781
 31
0.0
  0
LINE
  5
236
  8
回08-記事
  6
CONTINUOUS
 62
     5
 10
336.4324206940498
 20
111.6173291444784
 30
0.0
 11
339.2404206940494
 21
117.2333291444783
 31
0.0
  0
LINE
  5
237
  8
回08-記事
  6
CONTINUOUS
 62
     5
 10
330.8164206940501
 20
111.6173291444784
 30
0.0
 11
333.6244206940496
 21
117.2333291444783
 31
0.0
  0
LINE
  5
238
  8
回08-記事
  6
CONTINUOUS
 62
     5
 10
333.6244206940496
 20
117.2333291444783
 30
0.0
 11
336.4324206940498
 21
111.6173291444784
 31
0.0
  0
LINE
  5
239
  8
回08-記事
  6
CONTINUOUS
 62
     5
 10
338.7724206940495
 20
117.4673291444783
 30
0.0
 11
344.38842069405
 21
114.6593291444783
 31
0.0
  0
LINE
  5
23A
  8
回08-記事
  6
CONTINUOUS
 62
     5
 10
338.7724206940495
 20
123.8633291444785
 30
0.0
 11
344.38842069405
 21
121.0553291444785
 31
0.0
  0
LINE
  5
23B
  8
回08-記事
  6
CONTINUOUS
 62
     5
 10
338.7724206940495
 20
123.8633291444785
 30
0.0
 11
344.38842069405
 21
126.6713291444784
 31
0.0
  0
LINE
  5
23C
  8
回08-記事
  6
CONTINUOUS
 62
     5
 10
338.7724206940495
 20
117.4673291444783
 30
0.0
 11
344.38842069405
 21
120.2753291444783
 31
0.0
  0
LINE
  5
23D
  8
回08-記事
  6
CONTINUOUS
 62
     5
 10
338.7724206940495
 20
106.2353291444779
 30
0.0
 11
344.38842069405
 21
109.0433291444788
 31
0.0
  0
LINE
  5
23E
  8
回08-記事
  6
CONTINUOUS
 62
     5
 10
338.7724206940495
 20
111.8513291444783
 30
0.0
 11
344.38842069405
 21
109.0433291444788
 31
0.0
  0
LINE
  5
23F
  8
回08-記事
  6
CONTINUOUS
 62
     5
 10
338.7724206940495
 20
111.8513291444783
 30
0.0
 11
344.38842069405
 21
114.6593291444783
 31
0.0
  0
LINE
  5
240
  8
回08-記事
  6
CONTINUOUS
 62
     5
 10
341.5804206940497
 20
128.0753291444785
 30
0.0
 11
344.38842069405
 21
126.6713291444784
 31
0.0
  0
LINE
  5
241
  8
回08-記事
  6
CONTINUOUS
 62
     5
 10
339.2404206940494
 20
117.2333291444783
 30
0.0
 11
342.0484206940503
 21
111.6173291444784
 31
0.0
  0
LINE
  5
242
  8
回08-記事
  6
CONTINUOUS
 62
     5
 10
342.0484206940503
 20
111.6173291444784
 30
0.0
 11
344.8564206940498
 21
117.2333291444783
 31
0.0
  0
LINE
  5
243
  8
回08-記事
  6
CONTINUOUS
 62
     5
 10
341.5804206940497
 20
128.0753291444785
 30
0.0
 11
341.5804206940497
 21
132.7553291444783
 31
0.0
  0
TEXT
  5
244
  8
回08-記事
  6
CONTINUOUS
 62
     5
 10
315.4074875189926
 20
115.9324884747234
 30
0.0
 40
5.459999999999999
  1
XL
  0
LINE
  5
245
  8
回08-記事
  6
CONTINUOUS
 62
     5
 10
326.21442069405
 20
113.6453291444786
 30
0.0
 11
328.0084206940498
 21
117.2333291444783
 31
0.0
  0
LINE
  5
246
  8
回08-記事
  6
CONTINUOUS
 62
     5
 10
328.0084206940498
 20
117.2333291444783
 30
0.0
 11
330.8164206940501
 21
111.6173291444784
 31
0.0
  0
LINE
  5
247
  8
回08-記事
  6
CONTINUOUS
 62
     5
 10
338.7724206940495
 20
100.6193291444783
 30
0.0
 11
344.38842069405
 21
103.4273291444783
 31
0.0
  0
LINE
  5
248
  8
回08-記事
  6
CONTINUOUS
 62
     5
 10
338.7724206940495
 20
100.6193291444783
 30
0.0
 11
341.5804206940497
 21
99.21532914447835
 31
0.0
  0
LINE
  5
249
  8
回08-記事
  6
CONTINUOUS
 62
     5
 10
341.5804206940497
 20
93.7553291444783
 30
0.0
 11
341.5804206940497
 21
99.21532914447835
 31
0.0
  0
TEXT
  5
24A
  8
回08-記事
  6
CONTINUOUS
 62
     5
 10
327.2372925287102
 20
95.97940700313712
 30
0.0
 40
5.459999999999999
  1
YD
  0
LINE
  5
24B
  8
回08-記事
  6
CONTINUOUS
 62
     5
 10
338.7724206940495
 20
106.2353291444779
 30
0.0
 11
344.38842069405
 21
103.4273291444783
 31
0.0
  0
TEXT
  5
24C
  8
回08-記事
  6
CONTINUOUS
 62
     5
 10
302.7206960054341
 20
110.5531288642905
 30
0.0
 40
6.240000000000001
  1
1
  0
TEXT
  5
24D
  8
回08-記事
  6
CONTINUOUS
 62
     5
 10
302.2422047107121
 20
130.3823843632076
 30
0.0
 40
6.240000000000001
  1
2
  0
TEXT
  5
24E
  8
回08-記事
  6
CONTINUOUS
 62
     5
 10
302.4787097618435
 20
151.1434299256571
 30
0.0
 40
6.240000000000001
  1
3
  0
LINE
  5
24F
  8
回08-記事
  6
CONTINUOUS
 62
     5
 10
308.8204206940495
 20
132.7553291444783
 30
0.0
 11
341.5804206940497
 21
132.7553291444783
 31
0.0
  0
LINE
  5
250
  8
回08-記事
  6
CONTINUOUS
 62
     5
 10
308.8204206940495
 20
113.6453291444786
 30
0.0
 11
326.21442069405
 21
113.6453291444786
 31
0.0
  0
TEXT
  5
251
  8
回08-記事
  6
CONTINUOUS
 62
     5
 10
315.3628219523657
 20
71.93490241127165
 30
0.0
 40
7.0
  1
PIN ASSIGNMENT
  0
LINE
  5
252
  8
回08-記事
  6
CONTINUOUS
 62
     5
 10
341.5804206940497
 20
93.7553291444783
 30
0.0
 11
387.2104206940499
 21
93.7553291444783
 31
0.0
  0
TEXT
  5
253
  8
回08-記事
  6
CONTINUOUS
 62
     5
 10
343.1126805921781
 20
133.7837830909579
 30
0.0
 40
5.459999999999999
  1
YU
  0
LINE
  5
254
  8
回08-記事
  6
CONTINUOUS
 62
     5
 10
344.8564206940498
 20
117.2333291444783
 30
0.0
 11
347.66442069405
 21
111.6173291444784
 31
0.0
  0
LINE
  5
255
  8
回08-記事
  6
CONTINUOUS
 62
     5
 10
308.8204206940495
 20
154.2053291444781
 30
0.0
 11
365.7604206940498
 21
154.2053291444781
 31
0.0
  0
LINE
  5
256
  8
回08-記事
  6
CONTINUOUS
 62
     5
 10
387.2104206940499
 20
93.7553291444783
 30
0.0
 11
387.2104206940499
 21
175.6553291444788
 31
0.0
  0
LINE
  5
257
  8
回08-記事
  6
CONTINUOUS
 62
     7
 10
211.7547639767608
 20
-19.04192948312675
 30
0.0
 11
214.4547639767609
 21
-19.04192948312675
 31
0.0
  0
LINE
  5
258
  8
回08-記事
  6
CONTINUOUS
 62
     7
 10
211.7547639767608
 20
-17.04192948312675
 30
0.0
 11
214.4547639767609
 21
-17.04192948312675
 31
0.0
  0
LINE
  5
259
  8
回08-記事
  6
PHANTOM2
 62
     7
 10
209.7547639767608
 20
143.5080705168734
 30
0.0
 11
209.7547639767608
 21
-15.49192948312657
 31
0.0
  0
TEXT
  5
25B
  8
回08-記事
  6
CONTINUOUS
 62
     5
 10
177.6007336415148
 20
-36.73253504029253
 30
0.0
 40
4.0
  1
AST-104A
  0
TEXT
  5
25C
  8
回08-記事
  6
CONTINUOUS
 62
     7
 10
198.0527926456996
 20
-21.64063056862596
 30
0.0
 40
1.5
  1
AST-104A
  0
TEXT
  5
25D
  8
回08-記事
  6
CONTINUOUS
 62
     5
 10
199.5222294188652
 20
66.19039516186603
 30
0.0
 40
5.0
  1
XR
  0
LINE
  5
25E
  8
回08-記事
  6
CONTINUOUS
 62
     5
 10
210.7784723290324
 20
-75.50664793270744
 30
0.0
 11
191.8411991918828
 21
-60.88278359482683
 31
0.0
  0
LINE
  5
25F
  8
回08-記事
  6
CONTINUOUS
 62
     7
 10
206.7547639767608
 20
-91.32665931924066
 30
0.0
 11
216.7547639767609
 21
-91.32665931924066
 31
0.0
  0
LINE
  5
260
  8
回08-記事
  6
CONTINUOUS
 62
     7
 10
206.7547639767608
 20
-74.3266593192402
 30
0.0
 11
216.7547639767609
 21
-74.3266593192402
 31
0.0
  0
LINE
  5
261
  8
回08-記事
  6
CONTINUOUS
 62
     7
 10
206.7547639767608
 20
-76.3266593192402
 30
0.0
 11
206.7547639767608
 21
-74.32665931924066
 31
0.0
  0
LINE
  5
262
  8
回08-記事
  6
CONTINUOUS
 62
     7
 10
206.7547639767608
 20
-91.32665931924021
 30
0.0
 11
206.7547639767608
 21
-89.32665931924066
 31
0.0
  0
ARC
  5
263
  8
回08-記事
  6
CONTINUOUS
 62
     7
 10
210.2547639767609
 20
-83.13843049285424
 30
0.0
 40
0.5
 50
0.0
 51
180.0
  0
LINE
  5
264
  8
回08-記事
  6
CONTINUOUS
 62
     7
 10
211.7547639767608
 20
-83.32665931924021
 30
0.0
 11
211.7547639767608
 21
-80.3266593192402
 31
0.0
  0
ARC
  5
265
  8
回08-記事
  6
CONTINUOUS
 62
     7
 10
206.2547639767609
 20
-83.13843049285424
 30
0.0
 40
0.5
 50
0.0
 51
180.0
  0
LINE
  5
266
  8
回08-記事
  6
CONTINUOUS
 62
     7
 10
216.7547639767609
 20
-91.32665931924021
 30
0.0
 11
216.7547639767609
 21
-74.32665931924066
 31
0.0
  0
LINE
  5
267
  8
回08-記事
  6
CONTINUOUS
 62
     7
 10
214.7547639767608
 20
-89.32665931924066
 30
0.0
 11
214.7547639767608
 21
-80.3266593192402
 31
0.0
  0
DIMENSION
  5
268
  8
回07-寸法
  6
CONTINUOUS
 62
     5
  2
*D47
 10
237.3528823589861
 20
-89.32665931924066
 30
0.0
 11
237.3528823589861
 21
-106.7902912090039
 31
0.0
 70
   160
  1
2.1±0.2
  3
STANDARD
 13
214.7547639767608
 23
-76.3266593192402
 33
0.0
 14
214.7547639767608
 24
-89.32665931924066
 34
0.0
 50
90.0
1001
ACAD
1000
DSTYLE
1002
{
1070
   372
1070
    13
1070
   371
1070
    13
1070
   140
1040
4.0
1002
}
  0
ARC
  5
27A
  8
回08-記事
  6
CONTINUOUS
 62
     7
 10
202.2547639767608
 20
-83.13843049285424
 30
0.0
 40
0.5
 50
0.0
 51
180.0
  0
ARC
  5
27B
  8
回08-記事
  6
CONTINUOUS
 62
     7
 10
190.2547639767608
 20
-83.13843049285424
 30
0.0
 40
0.5
 50
0.0
 51
180.0
  0
ARC
  5
27C
  8
回08-記事
  6
CONTINUOUS
 62
     7
 10
186.2547639767608
 20
-83.13843049285424
 30
0.0
 40
0.5
 50
0.0
 51
180.0
  0
ARC
  5
27D
  8
回08-記事
  6
CONTINUOUS
 62
     7
 10
194.2547639767608
 20
-83.13843049285424
 30
0.0
 40
0.5
 50
0.0
 51
180.0
  0
ARC
  5
27E
  8
回08-記事
  6
CONTINUOUS
 62
     7
 10
198.2547639767608
 20
-83.13843049285424
 30
0.0
 40
0.5
 50
0.0
 51
180.0
  0
ARC
  5
27F
  8
回08-記事
  6
CONTINUOUS
 62
     7
 10
170.2547639767608
 20
-83.13843049285424
 30
0.0
 40
0.5
 50
0.0
 51
180.0
  0
ARC
  5
280
  8
回08-記事
  6
CONTINUOUS
 62
     7
 10
182.2547639767608
 20
-83.13843049285424
 30
0.0
 40
0.5
 50
0.0
 51
180.0
  0
ARC
  5
281
  8
回08-記事
  6
CONTINUOUS
 62
     7
 10
174.2547639767608
 20
-83.13843049285424
 30
0.0
 40
0.5
 50
0.0
 51
180.0
  0
ARC
  5
282
  8
回08-記事
  6
CONTINUOUS
 62
     7
 10
178.2547639767608
 20
-83.13843049285424
 30
0.0
 40
0.5
 50
0.0
 51
180.0
  0
ARC
  5
283
  8
回08-記事
  6
CONTINUOUS
 62
     7
 10
154.2547639767608
 20
-83.13843049285424
 30
0.0
 40
0.5
 50
0.0
 51
180.0
  0
ARC
  5
284
  8
回08-記事
  6
CONTINUOUS
 62
     7
 10
150.2547639767608
 20
-83.13843049285424
 30
0.0
 40
0.5
 50
0.0
 51
180.0
  0
ARC
  5
285
  8
回08-記事
  6
CONTINUOUS
 62
     7
 10
162.2547639767608
 20
-83.13843049285424
 30
0.0
 40
0.5
 50
0.0
 51
180.0
  0
ARC
  5
286
  8
回08-記事
  6
CONTINUOUS
 62
     7
 10
158.2547639767608
 20
-83.13843049285424
 30
0.0
 40
0.5
 50
0.0
 51
180.0
  0
ARC
  5
287
  8
回08-記事
  6
CONTINUOUS
 62
     7
 10
166.2547639767608
 20
-83.13843049285424
 30
0.0
 40
0.5
 50
0.0
 51
180.0
  0
ARC
  5
288
  8
回08-記事
  6
CONTINUOUS
 62
     7
 10
134.2547639767608
 20
-83.13843049285424
 30
0.0
 40
0.5
 50
0.0
 51
180.0
  0
ARC
  5
289
  8
回08-記事
  6
CONTINUOUS
 62
     7
 10
138.2547639767608
 20
-83.13843049285424
 30
0.0
 40
0.5
 50
0.0
 51
180.0
  0
ARC
  5
28A
  8
回08-記事
  6
CONTINUOUS
 62
     7
 10
142.2547639767608
 20
-83.13843049285424
 30
0.0
 40
0.5
 50
0.0
 51
180.0
  0
ARC
  5
28B
  8
回08-記事
  6
CONTINUOUS
 62
     7
 10
146.2547639767608
 20
-83.13843049285424
 30
0.0
 40
0.5
 50
0.0
 51
180.0
  0
DIMENSION
  5
28C
  8
回07-寸法
  6
CONTINUOUS
 62
     5
  2
*D48
 10
206.7547639767608
 20
-102.9561553730705
 30
0.0
 11
196.6563387799103
 21
-102.9561553730705
 31
0.0
 70
   160
  1
(1.45)
  3
STANDARD
 13
216.7547639767609
 23
-91.32665931924066
 33
0.0
 14
206.7547639767608
 24
-91.32665931924066
 34
0.0
1001
ACAD
1000
DSTYLE
1002
{
1070
   372
1070
    13
1070
   371
1070
    13
1070
   140
1040
4.0
1002
}
  0
TEXT
  5
29D
  8
回08-記事
  6
CONTINUOUS
 62
     5
 10
161.3919542749954
 20
-59.55994994795173
 30
0.0
 40
5.0
  1
PROTECTION TAPE
  0
TEXT
  5
29E
  8
回08-記事
  6
CONTINUOUS
 62
     5
 10
104.1640173841547
 20
135.8621238785231
 30
0.0
 40
5.0
  1
YU
  0
TEXT
  5
29F
  8
回08-記事
  6
CONTINUOUS
 62
     5
 10
106.3741425758458
 20
-12.93548158191106
 30
0.0
 40
5.0
  1
YD
  0
LINE
  5
2A0
  8
回07-寸法
  6
CENTER2
 62
     5
 10
103.7547639767608
 20
-22.49192948312657
 30
0.0
 11
103.7547639767608
 21
150.5080705168734
 31
0.0
  0
TEXT
  5
2A1
  8
回08-記事
  6
CONTINUOUS
 62
     5
 10
-0.0060096076026639
 20
73.10495385710282
 30
0.0
 40
5.0
  1
XL
  0
LINE
  5
2A2
  8
回08-記事
  6
PHANTOM2
 62
     7
 10
-2.245236023239158
 20
-15.49192948312657
 30
0.0
 11
-2.245236023239158
 21
143.5080705168734
 31
0.0
  0
DIMENSION
  5
2A3
  8
回07-寸法
  6
CONTINUOUS
 62
     5
  2
*D49
 10
-2.245236023239158
 20
166.8631936422785
 30
0.0
 11
-18.99720452717611
 21
166.8631936422785
 31
0.0
 70
   160
  3
STANDARD
 13
-12.24523602323916
 23
150.5080705168734
 33
0.0
 14
-2.245236023239158
 24
143.5080705168734
 34
0.0
1001
ACAD
1000
DSTYLE
1002
{
1070
   372
1070
    13
1070
   371
1070
    13
1070
   140
1040
4.0
1002
}
  0
DIMENSION
  5
2B4
  8
回07-寸法
  6
CONTINUOUS
 62
     5
  2
*D50
 10
-12.24523602323916
 20
175.8363566390548
 30
0.0
 11
-17.96116813267917
 21
175.8363566390548
 31
0.0
 70
   160
  3
STANDARD
 13
-4.245236023239158
 23
145.4806725116355
 33
0.0
 14
-12.24523602323916
 24
150.5080705168734
 34
0.0
1001
ACAD
1000
DSTYLE
1002
{
1070
   372
1070
    13
1070
   371
1070
    13
1070
   140
1040
4.0
1002
}
  0
ARC
  5
2C5
  8
回08-記事
  6
CONTINUOUS
 62
     7
 10
114.2547639767608
 20
-83.13843049285424
 30
0.0
 40
0.5
 50
0.0
 51
180.0
  0
ARC
  5
2C6
  8
回08-記事
  6
CONTINUOUS
 62
     7
 10
118.2547639767608
 20
-83.13843049285424
 30
0.0
 40
0.5
 50
0.0
 51
180.0
  0
ARC
  5
2C7
  8
回08-記事
  6
CONTINUOUS
 62
     7
 10
122.2547639767608
 20
-83.13843049285424
 30
0.0
 40
0.5
 50
0.0
 51
180.0
  0
ARC
  5
2C8
  8
回08-記事
  6
CONTINUOUS
 62
     7
 10
126.2547639767608
 20
-83.13843049285424
 30
0.0
 40
0.5
 50
0.0
 51
180.0
  0
ARC
  5
2C9
  8
回08-記事
  6
CONTINUOUS
 62
     7
 10
130.2547639767608
 20
-83.13843049285424
 30
0.0
 40
0.5
 50
0.0
 51
180.0
  0
ARC
  5
2CA
  8
回08-記事
  6
CONTINUOUS
 62
     7
 10
106.2547639767608
 20
-83.13843049285424
 30
0.0
 40
0.5
 50
0.0
 51
180.0
  0
ARC
  5
2CB
  8
回08-記事
  6
CONTINUOUS
 62
     7
 10
98.25476397676084
 20
-83.13843049285424
 30
0.0
 40
0.5
 50
0.0
 51
180.0
  0
ARC
  5
2CC
  8
回08-記事
  6
CONTINUOUS
 62
     7
 10
102.2547639767608
 20
-83.13843049285424
 30
0.0
 40
0.5
 50
0.0
 51
180.0
  0
ARC
  5
2CD
  8
回08-記事
  6
CONTINUOUS
 62
     7
 10
110.2547639767608
 20
-83.13843049285424
 30
0.0
 40
0.5
 50
0.0
 51
180.0
  0
LINE
  5
2CE
  8
回08-記事
  6
CONTINUOUS
 62
     5
 10
83.72835908803109
 20
-87.46253174042022
 30
0.0
 11
89.71654429330191
 21
-94.34840137919309
 31
0.0
  0
ARC
  5
2CF
  8
回08-記事
  6
CONTINUOUS
 62
     7
 10
86.25476397676084
 20
-83.13843049285424
 30
0.0
 40
0.5
 50
0.0
 51
180.0
  0
ARC
  5
2D0
  8
回08-記事
  6
CONTINUOUS
 62
     7
 10
78.25476397676084
 20
-83.13843049285424
 30
0.0
 40
0.5
 50
0.0
 51
180.0
  0
ARC
  5
2D1
  8
回08-記事
  6
CONTINUOUS
 62
     7
 10
82.25476397676084
 20
-83.13843049285424
 30
0.0
 40
0.5
 50
0.0
 51
180.0
  0
TEXT
  5
2D2
  8
回08-記事
  6
CONTINUOUS
 62
     5
 10
90.40314451244375
 20
-98.69005974074935
 30
0.0
 40
5.0
  1
ITO GLASS
  0
ARC
  5
2D3
  8
回08-記事
  6
CONTINUOUS
 62
     7
 10
90.25476397676085
 20
-83.13843049285424
 30
0.0
 40
0.5
 50
0.0
 51
180.0
  0
ARC
  5
2D4
  8
回08-記事
  6
CONTINUOUS
 62
     7
 10
94.25476397676083
 20
-83.13843049285424
 30
0.0
 40
0.5
 50
0.0
 51
180.0
  0
ARC
  5
2D5
  8
回08-記事
  6
CONTINUOUS
 62
     7
 10
66.25476397676084
 20
-83.13843049285424
 30
0.0
 40
0.5
 50
0.0
 51
180.0
  0
ARC
  5
2D6
  8
回08-記事
  6
CONTINUOUS
 62
     7
 10
62.25476397676084
 20
-83.13843049285424
 30
0.0
 40
0.5
 50
0.0
 51
180.0
  0
ARC
  5
2D7
  8
回08-記事
  6
CONTINUOUS
 62
     7
 10
70.25476397676084
 20
-83.13843049285424
 30
0.0
 40
0.5
 50
0.0
 51
180.0
  0
ARC
  5
2D8
  8
回08-記事
  6
CONTINUOUS
 62
     7
 10
74.25476397676084
 20
-83.13843049285424
 30
0.0
 40
0.5
 50
0.0
 51
180.0
  0
ARC
  5
2D9
  8
回08-記事
  6
CONTINUOUS
 62
     7
 10
42.25476397676084
 20
-83.13843049285424
 30
0.0
 40
0.5
 50
0.0
 51
180.0
  0
ARC
  5
2DA
  8
回08-記事
  6
CONTINUOUS
 62
     7
 10
46.25476397676083
 20
-83.13843049285424
 30
0.0
 40
0.5
 50
0.0
 51
180.0
  0
ARC
  5
2DB
  8
回08-記事
  6
CONTINUOUS
 62
     7
 10
58.25476397676084
 20
-83.13843049285424
 30
0.0
 40
0.5
 50
0.0
 51
180.0
  0
ARC
  5
2DC
  8
回08-記事
  6
CONTINUOUS
 62
     7
 10
50.25476397676084
 20
-83.13843049285424
 30
0.0
 40
0.5
 50
0.0
 51
180.0
  0
ARC
  5
2DD
  8
回08-記事
  6
CONTINUOUS
 62
     7
 10
54.25476397676084
 20
-83.13843049285424
 30
0.0
 40
0.5
 50
0.0
 51
180.0
  0
ARC
  5
2DE
  8
回08-記事
  6
CONTINUOUS
 62
     7
 10
26.25476397676084
 20
-83.13843049285424
 30
0.0
 40
0.5
 50
0.0
 51
180.0
  0
TEXT
  5
2DF
  8
回08-記事
  6
CONTINUOUS
 62
     5
 10
25.47792822953716
 20
-70.99581322535732
 30
0.0
 40
5.0
  1
ITO FILM (ANTI-GLARE)
  0
ARC
  5
2E0
  8
回08-記事
  6
CONTINUOUS
 62
     7
 10
38.25476397676084
 20
-83.13843049285424
 30
0.0
 40
0.5
 50
0.0
 51
180.0
  0
ARC
  5
2E1
  8
回08-記事
  6
CONTINUOUS
 62
     7
 10
30.25476397676084
 20
-83.13843049285424
 30
0.0
 40
0.5
 50
0.0
 51
180.0
  0
ARC
  5
2E2
  8
回08-記事
  6
CONTINUOUS
 62
     7
 10
34.25476397676084
 20
-83.13843049285424
 30
0.0
 40
0.5
 50
0.0
 51
180.0
  0
LINE
  5
2E3
  8
回08-記事
  6
CONTINUOUS
 62
     5
 10
34.67314542820441
 20
-78.01193176093375
 30
0.0
 11
29.36286720283169
 21
-72.14201010165152
 31
0.0
  0
ARC
  5
2E4
  8
回08-記事
  6
CONTINUOUS
 62
     7
 10
10.25476397676084
 20
-83.13843049285424
 30
0.0
 40
0.5
 50
0.0
 51
180.0
  0
ARC
  5
2E5
  8
回08-記事
  6
CONTINUOUS
 62
     7
 10
6.254763976760841
 20
-83.13843049285424
 30
0.0
 40
0.5
 50
0.0
 51
180.0
  0
ARC
  5
2E6
  8
回08-記事
  6
CONTINUOUS
 62
     7
 10
18.25476397676084
 20
-83.13843049285424
 30
0.0
 40
0.5
 50
0.0
 51
180.0
  0
ARC
  5
2E7
  8
回08-記事
  6
CONTINUOUS
 62
     7
 10
14.25476397676084
 20
-83.13843049285424
 30
0.0
 40
0.5
 50
0.0
 51
180.0
  0
ARC
  5
2E8
  8
回08-記事
  6
CONTINUOUS
 62
     7
 10
22.25476397676084
 20
-83.13843049285424
 30
0.0
 40
0.5
 50
0.0
 51
180.0
  0
LINE
  5
2E9
  8
回08-記事
  6
CONTINUOUS
 62
     7
 10
-11.9452360232392
 20
-80.3266593192402
 30
0.0
 11
-11.9452360232392
 21
-76.3266593192402
 31
0.0
  0
LINE
  5
2EA
  8
回08-記事
  6
CONTINUOUS
 62
     7
 10
-12.24523602323916
 20
-89.32665931924066
 30
0.0
 11
-12.24523602323916
 21
-83.32665931924021
 31
0.0
  0
ARC
  5
2EB
  8
回08-記事
  6
CONTINUOUS
 62
     7
 10
-1.745236023239158
 20
-83.13843049285424
 30
0.0
 40
0.5
 50
0.0
 51
180.0
  0
LINE
  5
2EC
  8
回08-記事
  6
CONTINUOUS
 62
     7
 10
-8.945236023239203
 20
-83.32665931924021
 30
0.0
 11
-8.945236023239203
 21
-80.3266593192402
 31
0.0
  0
ARC
  5
2ED
  8
回08-記事
  6
CONTINUOUS
 62
     7
 10
2.254763976760841
 20
-83.13843049285424
 30
0.0
 40
0.5
 50
0.0
 51
180.0
  0
LINE
  5
2EE
  8
回08-記事
  6
CONTINUOUS
 62
     5
 10
-29.29975009964233
 20
-81.98860478859661
 30
0.0
 11
-25.79627529261325
 21
-93.32361930115348
 31
0.0
  0
TEXT
  5
2EF
  8
回08-記事
  6
CONTINUOUS
 62
     5
 10
-26.76095730465295
 20
-98.91434768598902
 30
0.0
 40
5.0
  1
TAIL
  0
TEXT
  5
2F0
  8
回08-記事
  6
CONTINUOUS
 62
     5
 10
-72.87269748235758
 20
-64.40605471731396
 30
0.0
 40
5.0
  1
REINFORCEMENT FILM
  0
LINE
  5
2F1
  8
回08-記事
  6
CONTINUOUS
 62
     5
 10
-52.85478893567187
 20
-79.83142262960337
 30
0.0
 11
-58.59542232417516
 21
-65.17719048184289
 31
0.0
  0
LINE
  5
2F2
  8
回08-記事
  6
CONTINUOUS
 62
     7
 10
-82.24523602323916
 20
-87.32665931924021
 30
0.0
 11
-82.24523602323916
 21
-83.32665931924021
 31
0.0
  0
LINE
  5
2F3
  8
回08-記事
  6
CONTINUOUS
 62
     5
 10
-85.03553453768063
 20
-84.38063322522612
 30
0.0
 11
-58.59542232417516
 21
-103.3483753780315
 31
0.0
  0
TEXT
  5
2F4
  8
回08-記事
  6
CONTINUOUS
 62
     5
 10
-59.1742304969539
 20
-108.3607519394704
 30
0.0
 40
5.0
  1
STIFFENER
  0
LINE
  5
2F5
  8
回08-記事
  6
CONTINUOUS
 62
     7
 10
-87.24523602323916
 20
-80.3266593192402
 30
0.0
 11
-87.24523602323916
 21
-79.3266593192402
 31
0.0
  0
LINE
  5
2F6
  8
回08-記事
  6
CONTINUOUS
 62
     7
 10
-92.24523602323916
 20
-87.32665931924021
 30
0.0
 11
-92.24523602323916
 21
-80.3266593192402
 31
0.0
  0
DIMENSION
  5
2F7
  8
回07-寸法
  6
CONTINUOUS
 62
     5
  2
*D51
 10
-99.75136180023197
 20
-87.32665931924021
 30
0.0
 11
-99.75136180023197
 21
-104.4321812137705
 31
0.0
 70
   160
  1
0.3{\H0.7x;±0.05}
  3
STANDARD
 13
-92.24523602323916
 23
-80.3266593192402
 33
0.0
 14
-92.24523602323916
 24
-87.32665931924021
 34
0.0
 50
90.0
1001
ACAD
1000
DSTYLE
1002
{
1070
   372
1070
    13
1070
   371
1070
    13
1070
   140
1040
4.0
1002
}
  0
DIMENSION
  5
308
  8
回07-寸法
  6
CONTINUOUS
 62
     5
  2
*D52
 10
-87.24523602323916
 20
-73.67970419201083
 30
0.0
 11
-81.64168263264583
 21
-73.67970419201083
 31
0.0
 70
   160
  3
STANDARD
 13
-92.24523602323916
 23
-80.3266593192402
 33
0.0
 14
-87.24523602323916
 24
-80.3266593192402
 34
0.0
1001
ACAD
1000
DSTYLE
1002
{
1070
   372
1070
    13
1070
   371
1070
    13
1070
   140
1040
4.0
1002
}
  0
LINE
  5
319
  8
回08-記事
  6
CONTINUOUS
 62
     7
 10
-92.24523602323916
 20
-87.32665931924021
 30
0.0
 11
-82.24523602323916
 21
-87.32665931924021
 31
0.0
  0
DIMENSION
  5
31A
  8
回07-寸法
  6
CONTINUOUS
 62
     5
  2
*D53
 10
-82.24523602323916
 20
-102.5609636247245
 30
0.0
 11
-73.49720452717611
 21
-102.5609636247245
 31
0.0
 70
   160
  1
(<>)
  3
STANDARD
 13
-92.24523602323916
 23
-85.3266593192402
 33
0.0
 14
-82.24523602323916
 24
-85.3266593192402
 34
0.0
1001
ACAD
1000
DSTYLE
1002
{
1070
   372
1070
    13
1070
   371
1070
    13
1070
   140
1040
4.0
1002
}
  0
LINE
  5
32B
  8
回08-記事
  6
CONTINUOUS
 62
     7
 10
-87.24523602323916
 20
-79.3266593192402
 30
0.0
 11
-11.9452360232392
 21
-79.3266593192402
 31
0.0
  0
LINE
  5
32C
  8
回07-寸法
  6
CENTER2
 62
     5
 10
-12.24523602323916
 20
64.00807051687343
 30
0.0
 11
214.7547639767608
 21
64.00807051687343
 31
0.0
  0
LINE
  5
32D
  8
回08-記事
  6
CONTINUOUS
 62
     7
 10
-92.24523602323916
 20
-83.32665931924021
 30
0.0
 11
214.7547639767608
 21
-83.32665931924021
 31
0.0
  0
LINE
  5
32E
  8
回08-記事
  6
CONTINUOUS
 62
     7
 10
-92.24523602323916
 20
-80.3266593192402
 30
0.0
 11
214.7547639767608
 21
-80.3266593192402
 31
0.0
  0
LINE
  5
32F
  8
回08-記事
  6
PHANTOM2
 62
     7
 10
209.7547639767608
 20
-15.49192948312657
 30
0.0
 11
-2.245236023239158
 21
-15.49192948312657
 31
0.0
  0
LINE
  5
330
  8
回08-記事
  6
PHANTOM2
 62
     7
 10
209.7547639767608
 20
143.5080705168734
 30
0.0
 11
-2.245236023239158
 21
143.5080705168734
 31
0.0
  0
DIMENSION
  5
331
  8
回07-寸法
  6
CONTINUOUS
 62
     5
  2
*D54
 10
209.7547639767608
 20
166.8631936422785
 30
0.0
 11
104.8247581846701
 21
166.8631936422785
 31
0.0
 70
   160
  1
<> (ACTIVE AREA)
  3
STANDARD
 13
-2.245236023239158
 23
143.5080705168734
 33
0.0
 14
209.7547639767608
 24
143.5080705168734
 34
0.0
1001
ACAD
1000
DSTYLE
1002
{
1070
   372
1070
    13
1070
   371
1070
    13
1070
   140
1040
4.0
1002
}
  0
DIMENSION
  5
340
  8
回07-寸法
  6
CONTINUOUS
 62
     5
  2
*D55
 10
211.7547639767608
 20
175.8385660531917
 30
0.0
 11
104.6723743376924
 21
175.8385660531917
 31
0.0
 70
   160
  1
<> (VIEWING AREA)
  3
STANDARD
 13
-4.245236023239158
 23
145.4806725116355
 33
0.0
 14
211.7547639767608
 24
145.5080705168734
 34
0.0
1001
ACAD
1000
DSTYLE
1002
{
1070
   372
1070
    13
1070
   371
1070
    13
1070
   140
1040
4.0
1002
}
  0
DIMENSION
  5
34F
  8
回07-寸法
  6
CONTINUOUS
 62
     5
  2
*D56
 10
214.7547639767608
 20
184.0674718509003
 30
0.0
 11
104.2144501540354
 21
184.0674718509003
 31
0.0
 70
   160
  3
STANDARD
 13
-12.24523602323916
 23
150.5080705168734
 33
0.0
 14
214.7547639767608
 24
150.5080705168734
 34
0.0
1001
ACAD
1000
DSTYLE
1002
{
1070
   372
1070
    13
1070
   371
1070
    13
1070
   147
1040
0.5
1070
    72
1070
     0
1070
    71
1070
     1
1070
    47
1040
0.3
1070
    48
1040
0.3
1070
   140
1040
4.0
1070
   146
1040
0.7
1070
   283
1070
     0
1070
   288
1070
     0
1002
}
  0
LINE
  5
35E
  8
回08-記事
  6
CONTINUOUS
 62
     7
 10
-12.24523602323916
 20
-89.3266593192402
 30
0.0
 11
214.7547639767608
 21
-89.3266593192402
 31
0.0
  0
LINE
  5
35F
  8
回08-記事
  6
CONTINUOUS
 62
     7
 10
-11.9452360232392
 20
-76.3266593192402
 30
0.0
 11
214.7547639767608
 21
-76.3266593192402
 31
0.0
  0
ENDSEC
  0
EOF
