  0
SECTION
  2
HEADER
  9
$ACADVER
  1
AC1009
  9
$INSBASE
 10
0.0
 20
0.0
 30
0.0
  9
$EXTMIN
 10
-643.878385058673
 20
0.0
 30
0.0
  9
$EXTMAX
 10
-73.87838505867311
 20
395.0
 30
0.0
  9
$LIMMIN
 10
0.0
 20
0.0
  9
$LIMMAX
 10
3000.0
 20
2500.0
  9
$ORTHOMODE
 70
     0
  9
$REGENMODE
 70
     1
  9
$FILLMODE
 70
     1
  9
$QTEXTMODE
 70
     0
  9
$MIRRTEXT
 70
     1
  9
$DRAGMODE
 70
     2
  9
$LTSCALE
 40
1.0
  9
$OSMODE
 70
    37
  9
$ATTMODE
 70
     1
  9
$TEXTSIZE
 40
3.0
  9
$TRACEWID
 40
1.0
  9
$TEXTSTYLE
  7
STANDARD
  9
$CLAYER
  8
回91-枠英2
  9
$CELTYPE
  6
CONTINUOUS
  9
$CECOLOR
 62
    30
  9
$DIMSCALE
 40
1.0
  9
$DIMASZ
 40
2.0
  9
$DIMEXO
 40
0.0
  9
$DIMDLI
 40
0.0
  9
$DIMRND
 40
0.0
  9
$DIMDLE
 40
0.0
  9
$DIMEXE
 40
1.0
  9
$DIMTP
 40
0.2
  9
$DIMTM
 40
0.2
  9
$DIMTXT
 40
3.0
  9
$DIMCEN
 40
2.0
  9
$DIMTSZ
 40
0.0
  9
$DIMTOL
 70
     0
  9
$DIMLIM
 70
     0
  9
$DIMTIH
 70
     0
  9
$DIMTOH
 70
     0
  9
$DIMSE1
 70
     0
  9
$DIMSE2
 70
     0
  9
$DIMTAD
 70
     3
  9
$DIMZIN
 70
     8
  9
$DIMBLK
  1
OPEN
  9
$DIMASO
 70
     1
  9
$DIMSHO
 70
     1
  9
$DIMPOST
  1

  9
$DIMAPOST
  1

  9
$DIMALT
 70
     1
  9
$DIMALTD
 70
     3
  9
$DIMALTF
 40
0.03937007874016
  9
$DIMLFAC
 40
1.0
  9
$DIMTOFL
 70
     1
  9
$DIMTVP
 40
0.0
  9
$DIMTIX
 70
     0
  9
$DIMSOXD
 70
     0
  9
$DIMSAH
 70
     0
  9
$DIMBLK1
  1

  9
$DIMBLK2
  1

  9
$DIMSTYLE
  2
DMC
  9
$DIMCLRD
 70
     5
  9
$DIMCLRE
 70
     5
  9
$DIMCLRT
 70
     5
  9
$DIMTFAC
 40
0.7
  9
$DIMGAP
 40
0.5
  9
$LUNITS
 70
     2
  9
$LUPREC
 70
     4
  9
$SKETCHINC
 40
1.0
  9
$FILLETRAD
 40
0.5
  9
$AUNITS
 70
     0
  9
$AUPREC
 70
     0
  9
$MENU
  1
.
  9
$ELEVATION
 40
0.0
  9
$PELEVATION
 40
0.0
  9
$THICKNESS
 40
0.0
  9
$LIMCHECK
 70
     0
  9
$BLIPMODE
 70
     0
  9
$CHAMFERA
 40
10.0
  9
$CHAMFERB
 40
10.0
  9
$SKPOLY
 70
     0
  9
$TDCREATE
 40
2451810.404221065
  9
$TDUPDATE
 40
2460221.414325903
  9
$TDINDWG
 40
0.993403900
  9
$TDUSRTIMER
 40
0.993401736
  9
$USRTIMER
 70
     1
  9
$ANGBASE
 50
0.0
  9
$ANGDIR
 70
     0
  9
$PDMODE
 70
     0
  9
$PDSIZE
 40
0.0
  9
$PLINEWID
 40
0.2
  9
$COORDS
 70
     0
  9
$SPLFRAME
 70
     0
  9
$SPLINETYPE
 70
     6
  9
$SPLINESEGS
 70
     8
  9
$ATTDIA
 70
     1
  9
$ATTREQ
 70
     1
  9
$HANDLING
 70
     1
  9
$HANDSEED
  5
C09
  9
$SURFTAB1
 70
     6
  9
$SURFTAB2
 70
     6
  9
$SURFTYPE
 70
     6
  9
$SURFU
 70
     6
  9
$SURFV
 70
     6
  9
$UCSNAME
  2

  9
$UCSORG
 10
0.0
 20
0.0
 30
0.0
  9
$UCSXDIR
 10
1.0
 20
0.0
 30
0.0
  9
$UCSYDIR
 10
0.0
 20
1.0
 30
0.0
  9
$PUCSNAME
  2

  9
$PUCSORG
 10
0.0
 20
0.0
 30
0.0
  9
$PUCSXDIR
 10
1.0
 20
0.0
 30
0.0
  9
$PUCSYDIR
 10
0.0
 20
1.0
 30
0.0
  9
$USERI1
 70
     0
  9
$USERI2
 70
     0
  9
$USERI3
 70
     0
  9
$USERI4
 70
     0
  9
$USERI5
 70
     0
  9
$USERR1
 40
0.0
  9
$USERR2
 40
0.0
  9
$USERR3
 40
0.0
  9
$USERR4
 40
0.0
  9
$USERR5
 40
0.0
  9
$WORLDVIEW
 70
     1
  9
$SHADEDGE
 70
     3
  9
$SHADEDIF
 70
    70
  9
$TILEMODE
 70
     1
  9
$MAXACTVP
 70
    64
  9
$PLIMCHECK
 70
     0
  9
$PEXTMIN
 10
1.000000000000000E+20
 20
1.000000000000000E+20
 30
1.000000000000000E+20
  9
$PEXTMAX
 10
-1.000000000000000E+20
 20
-1.000000000000000E+20
 30
-1.000000000000000E+20
  9
$PLIMMIN
 10
0.0
 20
0.0
  9
$PLIMMAX
 10
420.0
 20
297.0
  9
$UNITMODE
 70
     0
  9
$VISRETAIN
 70
     1
  9
$PLINEGEN
 70
     0
  9
$PSLTSCALE
 70
     1
  0
ENDSEC
  0
SECTION
  2
TABLES
  0
TABLE
  2
VPORT
 70
     1
  0
VPORT
  2
*ACTIVE
 70
     0
 10
0.0
 20
0.0
 11
1.0
 21
1.0
 12
-342.4854097615868
 22
144.9546427510535
 13
0.0
 23
0.0
 14
10.0
 24
10.0
 15
10.0
 25
10.0
 16
0.0
 26
0.0
 36
1.0
 17
0.0
 27
0.0
 37
0.0
 40
761.8489446528948
 41
1.002570694087403
 42
50.0
 43
0.0
 44
0.0
 50
0.0
 51
0.0
 71
     0
 72
   500
 73
     1
 74
     1
 75
     0
 76
     0
 77
     0
 78
     0
  0
ENDTAB
  0
TABLE
  2
LTYPE
 70
     4
  0
LTYPE
  2
CONTINUOUS
 70
     0
  3
Solid line
 72
    65
 73
     0
 40
0.0
  0
LTYPE
  2
CENTER2
 70
     0
  3
Center (.5x) ___ _ ___ _ ___ _ ___ _ ___ _ ___
 72
    65
 73
     4
 40
28.575
 49
19.05
 49
-3.174999999999998
 49
3.174999999999998
 49
-3.174999999999998
  0
LTYPE
  2
DASHED2
 70
     0
  3
Dashed (.5x) _ _ _ _ _ _ _ _ _ _ _ _ _ _ _ _ _
 72
    65
 73
     2
 40
9.524999999999996
 49
6.349999999999997
 49
-3.174999999999998
  0
LTYPE
  2
PHANTOM
 70
     0
  3
Phantom ______  __  __  ______  __  __  ______
 72
    65
 73
     6
 40
63.5
 49
31.75
 49
-6.349999999999997
 49
6.349999999999997
 49
-6.349999999999997
 49
6.349999999999997
 49
-6.349999999999997
  0
ENDTAB
  0
TABLE
  2
LAYER
 70
     9
  0
LAYER
  2
0
 70
     0
 62
     7
  6
CONTINUOUS
  0
LAYER
  2
DEFPOINTS
 70
     0
 62
     7
  6
CONTINUOUS
  0
LAYER
  2
回04-下接
 70
     0
 62
     7
  6
CONTINUOUS
  0
LAYER
  2
回07-寸法
 70
     0
 62
     7
  6
CONTINUOUS
  0
LAYER
  2
回05-ﾃｰﾙ
 70
     0
 62
     7
  6
CONTINUOUS
  0
LAYER
  2
回02-上接
 70
     0
 62
     7
  6
CONTINUOUS
  0
LAYER
  2
回91-枠英2
 70
     0
 62
     7
  6
CONTINUOUS
  0
LAYER
  2
回08-記事
 70
     0
 62
     7
  6
CONTINUOUS
  0
LAYER
  2
回03-記事
 70
     0
 62
     7
  6
CONTINUOUS
  0
ENDTAB
  0
TABLE
  2
STYLE
 70
     2
  0
STYLE
  2
STANDARD
 70
     0
 40
3.0
 41
1.0
 50
0.0
 71
     0
 42
3.0
  3
isocp.shx
  4
bigfont.shx
  0
STYLE
  2
ANNOTATIVE
 70
     0
 40
0.0
 41
1.0
 50
0.0
 71
     0
 42
0.2
  3
txt.shx
  4

  0
ENDTAB
  0
TABLE
  2
VIEW
 70
     0
  0
ENDTAB
  0
TABLE
  2
UCS
 70
     0
  0
ENDTAB
  0
TABLE
  2
APPID
 70
     7
  0
APPID
  2
ACAD
 70
     0
  0
APPID
  2
ACADANNOTATIVE
 70
     0
  0
APPID
  2
ACAD_DSTYLE_DIMJAG
 70
     0
  0
APPID
  2
ACAD_DSTYLE_DIMTALN
 70
     0
  0
APPID
  2
ACAD_NAV_VCDISPLAY
 70
     0
  0
APPID
  2
PLOTTRANSPARENCY
 70
     0
  0
APPID
  2
ACAD_PSEXT
 70
     0
  0
ENDTAB
  0
TABLE
  2
DIMSTYLE
 70
     2
  0
DIMSTYLE
  2
DMC
 70
     0
  3

  4

  5
OPEN
  6

  7

 40
1.0
 41
2.0
 42
0.0
 43
0.0
 44
1.0
 45
0.0
 46
0.0
 47
0.0
 48
0.0
140
3.0
141
2.0
142
0.0
143
0.03937007874016
144
1.0
145
0.0
146
0.7
147
0.5
 71
     0
 72
     0
 73
     0
 74
     0
 75
     0
 76
     0
 77
     3
 78
     8
170
     1
171
     3
172
     1
173
     0
174
     0
175
     0
176
     5
177
     5
178
     5
  0
DIMSTYLE
  2
STANDARD
 70
     0
  3

  4

  5

  6

  7

 40
1.0
 41
0.18
 42
0.0625
 43
0.38
 44
0.18
 45
0.0
 46
0.0
 47
0.0
 48
0.0
140
0.18
141
0.09
142
0.0
143
25.4
144
1.0
145
0.0
146
1.0
147
0.09
 71
     0
 72
     0
 73
     1
 74
     1
 75
     0
 76
     0
 77
     0
 78
     0
170
     0
171
     2
172
     0
173
     0
174
     0
175
     0
176
     0
177
     0
178
     0
  0
ENDTAB
  0
ENDSEC
  0
SECTION
  2
BLOCKS
  0
BLOCK
  8
0
  2
$MODEL_SPACE
 70
     0
 10
0.0
 20
0.0
 30
0.0
  3
$MODEL_SPACE
  1

  0
ENDBLK
  8
0
  5
22
  0
BLOCK
 67
     1
  8
0
  2
$PAPER_SPACE
 70
     0
 10
0.0
 20
0.0
 30
0.0
  3
$PAPER_SPACE
  1

  0
ENDBLK
  5
27
 67
     1
  8
0
  0
BLOCK
  8
0
  2
_OPEN
 70
     0
 10
0.0
 20
0.0
 30
0.0
  3
_OPEN
  1

  0
LINE
  5
9C5
  8
0
  6
BYBLOCK
 62
     0
 10
-1.0
 20
0.166667
 30
0.0
 11
0.0
 21
0.0
 31
0.0
  0
LINE
  5
9C6
  8
0
  6
BYBLOCK
 62
     0
 10
-1.0
 20
-0.166667
 30
0.0
 11
0.0
 21
0.0
 31
0.0
  0
LINE
  5
9C7
  8
0
  6
BYBLOCK
 62
     0
 10
0.0
 20
0.0
 30
0.0
 11
-1.0
 21
0.0
 31
0.0
  0
LINE
  5
728
  8
0
  6
BYBLOCK
 62
     0
 10
-1.0
 20
0.166667
 30
0.0
 11
0.0
 21
0.0
 31
0.0
  0
LINE
  5
729
  8
0
  6
BYBLOCK
 62
     0
 10
-1.0
 20
-0.166667
 30
0.0
 11
0.0
 21
0.0
 31
0.0
  0
LINE
  5
72A
  8
0
  6
BYBLOCK
 62
     0
 10
0.0
 20
0.0
 30
0.0
 11
-1.0
 21
0.0
 31
0.0
  0
LINE
  5
14
  8
0
  6
CONTINUOUS
 62
     0
 10
-1.0
 20
0.1666666666666666
 30
0.0
 11
0.0
 21
0.0
 31
0.0
  0
LINE
  5
15
  8
0
  6
CONTINUOUS
 62
     0
 10
-1.0
 20
-0.1666666666666666
 30
0.0
 11
0.0
 21
0.0
 31
0.0
  0
LINE
  5
16
  8
0
  6
CONTINUOUS
 62
     0
 10
0.0
 20
0.0
 30
0.0
 11
-1.0
 21
0.0
 31
0.0
  0
ENDBLK
  5
17
  8
0
  0
BLOCK
  8
0
  2
*D111
 70
     1
 10
0.0
 20
0.0
 30
0.0
  3
*D111
  1

  0
LINE
  5
2FE
  8
回07-寸法
  6
CONTINUOUS
 62
     5
 10
-506.4430625342732
 20
181.0196803811243
 30
0.0
 11
-506.4430625342732
 21
167.766304178138
 31
0.0
  0
LINE
  5
2FF
  8
回07-寸法
  6
CONTINUOUS
 62
     5
 10
-394.4430625342732
 20
187.0196803811242
 30
0.0
 11
-394.4430625342732
 21
167.766304178138
 31
0.0
  0
LINE
  5
300
  8
回07-寸法
  6
CONTINUOUS
 62
     5
 10
-504.4430625342731
 20
168.766304178138
 30
0.0
 11
-396.4430625342732
 21
168.766304178138
 31
0.0
  0
INSERT
  5
301
  8
回07-寸法
  6
CONTINUOUS
 62
     5
  2
_OPEN
 10
-506.4430625342732
 20
168.766304178138
 30
0.0
 41
2.0
 42
2.0
 43
2.0
 50
180.0
  0
INSERT
  5
302
  8
回07-寸法
  6
CONTINUOUS
 62
     5
  2
_OPEN
 10
-394.4430625342732
 20
168.766304178138
 30
0.0
 41
2.0
 42
2.0
 43
2.0
  0
INSERT
  5
303
  8
回07-寸法
  6
CONTINUOUS
 62
     5
 66
     1
  2
*X808080
 10
0.0
 20
0.0
 30
0.0
  0
SEQEND
  5
5F4
  8
回91-枠英2
  6
CONTINUOUS
 62
    30
  0
POINT
  5
304
  8
DEFPOINTS
  6
CONTINUOUS
 62
     0
 10
-506.4430625342732
 20
181.0196803811243
 30
0.0
  0
POINT
  5
305
  8
DEFPOINTS
  6
CONTINUOUS
 62
     0
 10
-394.4430625342732
 20
187.0196803811242
 30
0.0
  0
POINT
  5
306
  8
DEFPOINTS
  6
CONTINUOUS
 62
     0
 10
-394.4430625342732
 20
168.766304178138
 30
0.0
  0
ENDBLK
  5
307
  8
0
 62
     7
  0
BLOCK
  8
0
  2
*D222
 70
     1
 10
0.0
 20
0.0
 30
0.0
  3
*D222
  1

  0
LINE
  5
2F1
  8
回07-寸法
  6
CONTINUOUS
 62
     5
 10
-501.5430625342728
 20
187.0196803811242
 30
0.0
 11
-501.5430625342728
 21
160.5975199716282
 31
0.0
  0
LINE
  5
2F2
  8
回07-寸法
  6
CONTINUOUS
 62
     5
 10
-288.343062534273
 20
187.0196803811242
 30
0.0
 11
-288.343062534273
 21
160.5975199716282
 31
0.0
  0
LINE
  5
2F3
  8
回07-寸法
  6
CONTINUOUS
 62
     5
 10
-499.5430625342731
 20
161.5975199716282
 30
0.0
 11
-290.343062534273
 21
161.5975199716282
 31
0.0
  0
INSERT
  5
2F4
  8
回07-寸法
  6
CONTINUOUS
 62
     5
  2
_OPEN
 10
-501.5430625342728
 20
161.5975199716282
 30
0.0
 41
2.0
 42
2.0
 43
2.0
 50
180.0
  0
INSERT
  5
2F5
  8
回07-寸法
  6
CONTINUOUS
 62
     5
  2
_OPEN
 10
-288.343062534273
 20
161.5975199716282
 30
0.0
 41
2.0
 42
2.0
 43
2.0
  0
INSERT
  5
2F6
  8
回07-寸法
  6
CONTINUOUS
 62
     5
 66
     1
  2
*X818181
 10
0.0
 20
0.0
 30
0.0
  0
SEQEND
  5
5FA
  8
回91-枠英2
  6
CONTINUOUS
 62
    30
  0
POINT
  5
2F7
  8
DEFPOINTS
  6
CONTINUOUS
 62
     0
 10
-501.5430625342728
 20
187.0196803811242
 30
0.0
  0
POINT
  5
2F8
  8
DEFPOINTS
  6
CONTINUOUS
 62
     0
 10
-288.343062534273
 20
187.0196803811242
 30
0.0
  0
POINT
  5
2F9
  8
DEFPOINTS
  6
CONTINUOUS
 62
     0
 10
-288.343062534273
 20
161.5975199716282
 30
0.0
  0
ENDBLK
  5
2FA
  8
0
 62
     7
  0
BLOCK
  8
0
  2
*D333
 70
     1
 10
0.0
 20
0.0
 30
0.0
  3
*D333
  1

  0
LINE
  5
2E4
  8
回07-寸法
  6
CONTINUOUS
 62
     5
 10
-287.6430625342727
 20
186.319680381124
 30
0.0
 11
-287.6430625342727
 21
154.3244022502359
 31
0.0
  0
LINE
  5
2E5
  8
回07-寸法
  6
CONTINUOUS
 62
     5
 10
-502.2430625342731
 20
186.319680381124
 30
0.0
 11
-502.2430625342731
 21
154.3244022502359
 31
0.0
  0
LINE
  5
2E6
  8
回07-寸法
  6
CONTINUOUS
 62
     5
 10
-289.6430625342727
 20
155.3244022502359
 30
0.0
 11
-500.2430625342731
 21
155.3244022502359
 31
0.0
  0
INSERT
  5
2E7
  8
回07-寸法
  6
CONTINUOUS
 62
     5
  2
_OPEN
 10
-287.6430625342727
 20
155.3244022502359
 30
0.0
 41
2.0
 42
2.0
 43
2.0
  0
INSERT
  5
2E8
  8
回07-寸法
  6
CONTINUOUS
 62
     5
  2
_OPEN
 10
-502.2430625342731
 20
155.3244022502359
 30
0.0
 41
2.0
 42
2.0
 43
2.0
 50
180.0
  0
INSERT
  5
2E9
  8
回07-寸法
  6
CONTINUOUS
 62
     5
 66
     1
  2
*X828282
 10
0.0
 20
0.0
 30
0.0
  0
SEQEND
  5
600
  8
回91-枠英2
  6
CONTINUOUS
 62
    30
  0
POINT
  5
2EA
  8
DEFPOINTS
  6
CONTINUOUS
 62
     0
 10
-287.6430625342727
 20
186.319680381124
 30
0.0
  0
POINT
  5
2EB
  8
DEFPOINTS
  6
CONTINUOUS
 62
     0
 10
-502.2430625342731
 20
186.319680381124
 30
0.0
  0
POINT
  5
2EC
  8
DEFPOINTS
  6
CONTINUOUS
 62
     0
 10
-502.2430625342731
 20
155.3244022502359
 30
0.0
  0
ENDBLK
  5
2ED
  8
0
 62
     7
  0
BLOCK
  8
0
  2
*D444
 70
     1
 10
0.0
 20
0.0
 30
0.0
  3
*D444
  1

  0
LINE
  5
2D5
  8
回07-寸法
  6
CONTINUOUS
 62
     5
 10
-501.5430625342728
 20
187.0196803811242
 30
0.0
 11
-501.5430625342728
 21
160.5975199716282
 31
0.0
  0
LINE
  5
2D6
  8
回07-寸法
  6
CONTINUOUS
 62
     5
 10
-506.4430625342732
 20
181.0196803811243
 30
0.0
 11
-506.4430625342732
 21
160.5975199716282
 31
0.0
  0
LINE
  5
2D7
  8
回07-寸法
  6
CONTINUOUS
 62
     5
 10
-499.5430625342731
 20
161.5975199716282
 30
0.0
 11
-497.543062534273
 21
161.5975199716282
 31
0.0
  0
LINE
  5
2D8
  8
回07-寸法
  6
CONTINUOUS
 62
     5
 10
-508.4430625342731
 20
161.5975199716282
 30
0.0
 11
-528.8640285172387
 21
161.5975199716282
 31
0.0
  0
LINE
  5
2D9
  8
回07-寸法
  6
CONTINUOUS
 62
     5
 10
-501.5430625342728
 20
161.5975199716282
 30
0.0
 11
-506.4430625342732
 21
161.5975199716282
 31
0.0
  0
INSERT
  5
2DA
  8
回07-寸法
  6
CONTINUOUS
 62
     5
  2
_OPEN
 10
-501.5430625342728
 20
161.5975199716282
 30
0.0
 41
2.0
 42
2.0
 43
2.0
 50
180.0
  0
INSERT
  5
2DB
  8
回07-寸法
  6
CONTINUOUS
 62
     5
  2
_OPEN
 10
-506.4430625342732
 20
161.5975199716282
 30
0.0
 41
2.0
 42
2.0
 43
2.0
  0
TEXT
  5
2DC
  8
回07-寸法
  6
CONTINUOUS
 62
     5
 10
-528.8143766313369
 20
162.2474600655259
 30
0.0
 40
3.0
  1
4.9 [0.193]
1001
ACAD
1000
MTEXTBEGIN
1070
    73
1070
     1
1070
    44
1040
1.0
1070
    74
1070
     0
1000
MTEXTEND
  0
POINT
  5
2DD
  8
DEFPOINTS
  6
CONTINUOUS
 62
     0
 10
-501.5430625342728
 20
187.0196803811242
 30
0.0
  0
POINT
  5
2DE
  8
DEFPOINTS
  6
CONTINUOUS
 62
     0
 10
-506.4430625342732
 20
181.0196803811243
 30
0.0
  0
POINT
  5
2DF
  8
DEFPOINTS
  6
CONTINUOUS
 62
     0
 10
-506.4430625342732
 20
161.5975199716282
 30
0.0
  0
ENDBLK
  5
2E0
  8
0
 62
     7
  0
BLOCK
  8
0
  2
*D555
 70
     1
 10
0.0
 20
0.0
 30
0.0
  3
*D555
  1

  0
LINE
  5
2C6
  8
回07-寸法
  6
CONTINUOUS
 62
     5
 10
-502.2430625342731
 20
186.319680381124
 30
0.0
 11
-502.2430625342731
 21
154.3244022502359
 31
0.0
  0
LINE
  5
2C7
  8
回07-寸法
  6
CONTINUOUS
 62
     5
 10
-506.4430625342732
 20
181.0196803811243
 30
0.0
 11
-506.4430625342732
 21
154.3244022502359
 31
0.0
  0
LINE
  5
2C8
  8
回07-寸法
  6
CONTINUOUS
 62
     5
 10
-500.2430625342731
 20
155.3244022502359
 30
0.0
 11
-498.2430625342731
 21
155.3244022502359
 31
0.0
  0
LINE
  5
2C9
  8
回07-寸法
  6
CONTINUOUS
 62
     5
 10
-508.4430625342731
 20
155.3244022502359
 30
0.0
 11
-528.8430625342733
 21
155.3244022502359
 31
0.0
  0
LINE
  5
2CA
  8
回07-寸法
  6
CONTINUOUS
 62
     5
 10
-502.2430625342731
 20
155.3244022502359
 30
0.0
 11
-506.4430625342732
 21
155.3244022502359
 31
0.0
  0
INSERT
  5
2CB
  8
回07-寸法
  6
CONTINUOUS
 62
     5
  2
_OPEN
 10
-502.2430625342731
 20
155.3244022502359
 30
0.0
 41
2.0
 42
2.0
 43
2.0
 50
180.0
  0
INSERT
  5
2CC
  8
回07-寸法
  6
CONTINUOUS
 62
     5
  2
_OPEN
 10
-506.4430625342732
 20
155.3244022502359
 30
0.0
 41
2.0
 42
2.0
 43
2.0
  0
TEXT
  5
2CD
  8
回07-寸法
  6
CONTINUOUS
 62
     5
 10
-528.7930625342733
 20
155.9744022502359
 30
0.0
 40
3.0
  1
4.2 [0.165]
1001
ACAD
1000
MTEXTBEGIN
1070
    73
1070
     1
1070
    44
1040
1.0
1070
    74
1070
     0
1000
MTEXTEND
  0
POINT
  5
2CE
  8
DEFPOINTS
  6
CONTINUOUS
 62
     0
 10
-502.2430625342731
 20
186.319680381124
 30
0.0
  0
POINT
  5
2CF
  8
DEFPOINTS
  6
CONTINUOUS
 62
     0
 10
-506.4430625342732
 20
181.0196803811243
 30
0.0
  0
POINT
  5
2D0
  8
DEFPOINTS
  6
CONTINUOUS
 62
     0
 10
-506.4430625342732
 20
155.3244022502359
 30
0.0
  0
ENDBLK
  5
2D1
  8
0
 62
     7
  0
BLOCK
  8
0
  2
*D666
 70
     1
 10
0.0
 20
0.0
 30
0.0
  3
*D666
  1

  0
LINE
  5
2B9
  8
回07-寸法
  6
CONTINUOUS
 62
     5
 10
-506.4430625342732
 20
181.0196803811243
 30
0.0
 11
-506.4430625342732
 21
141.7539263800902
 31
0.0
  0
LINE
  5
2BA
  8
回07-寸法
  6
CONTINUOUS
 62
     5
 10
-283.5430625342728
 20
181.0196803811243
 30
0.0
 11
-283.5430625342728
 21
141.7539263800902
 31
0.0
  0
LINE
  5
2BB
  8
回07-寸法
  6
CONTINUOUS
 62
     5
 10
-504.4430625342731
 20
142.7539263800902
 30
0.0
 11
-285.5430625342728
 21
142.7539263800902
 31
0.0
  0
INSERT
  5
2BC
  8
回07-寸法
  6
CONTINUOUS
 62
     5
  2
_OPEN
 10
-506.4430625342732
 20
142.7539263800902
 30
0.0
 41
2.0
 42
2.0
 43
2.0
 50
180.0
  0
INSERT
  5
2BD
  8
回07-寸法
  6
CONTINUOUS
 62
     5
  2
_OPEN
 10
-283.5430625342728
 20
142.7539263800902
 30
0.0
 41
2.0
 42
2.0
 43
2.0
  0
INSERT
  5
2BE
  8
回07-寸法
  6
CONTINUOUS
 62
     5
 66
     1
  2
*X838383
 10
0.0
 20
0.0
 30
0.0
  0
SEQEND
  5
609
  8
回91-枠英2
  6
CONTINUOUS
 62
    30
  0
POINT
  5
2BF
  8
DEFPOINTS
  6
CONTINUOUS
 62
     0
 10
-506.4430625342732
 20
181.0196803811243
 30
0.0
  0
POINT
  5
2C0
  8
DEFPOINTS
  6
CONTINUOUS
 62
     0
 10
-283.5430625342728
 20
181.0196803811243
 30
0.0
  0
POINT
  5
2C1
  8
DEFPOINTS
  6
CONTINUOUS
 62
     0
 10
-283.5430625342728
 20
142.7539263800902
 30
0.0
  0
ENDBLK
  5
2C2
  8
0
 62
     7
  0
BLOCK
  8
0
  2
*D777
 70
     1
 10
0.0
 20
0.0
 30
0.0
  3
*D777
  1

  0
LINE
  5
2AC
  8
回07-寸法
  6
CONTINUOUS
 62
     5
 10
-506.4430625342732
 20
181.0196803811243
 30
0.0
 11
-522.7439844104631
 21
181.0196803811243
 31
0.0
  0
LINE
  5
2AD
  8
回07-寸法
  6
CONTINUOUS
 62
     5
 10
-501.5430625342733
 20
267.7196803811244
 30
0.0
 11
-522.7439844104633
 21
267.7196803811244
 31
0.0
  0
LINE
  5
2AE
  8
回07-寸法
  6
CONTINUOUS
 62
     5
 10
-521.7439844104632
 20
183.0196803811243
 30
0.0
 11
-521.7439844104632
 21
265.7196803811244
 31
0.0
  0
INSERT
  5
2AF
  8
回07-寸法
  6
CONTINUOUS
 62
     5
  2
_OPEN
 10
-521.7439844104632
 20
181.0196803811243
 30
0.0
 41
2.0
 42
2.0
 43
2.0
 50
270.0
  0
INSERT
  5
2B0
  8
回07-寸法
  6
CONTINUOUS
 62
     5
  2
_OPEN
 10
-521.7439844104633
 20
267.7196803811244
 30
0.0
 41
2.0
 42
2.0
 43
2.0
 50
90.0
  0
INSERT
  5
2B1
  8
回07-寸法
  6
CONTINUOUS
 62
     5
 66
     1
  2
*X848484
 10
0.0
 20
0.0
 30
0.0
  0
SEQEND
  5
60F
  8
回91-枠英2
  6
CONTINUOUS
 62
    30
  0
POINT
  5
2B2
  8
DEFPOINTS
  6
CONTINUOUS
 62
     0
 10
-506.4430625342732
 20
181.0196803811243
 30
0.0
  0
POINT
  5
2B3
  8
DEFPOINTS
  6
CONTINUOUS
 62
     0
 10
-501.5430625342733
 20
267.7196803811244
 30
0.0
  0
POINT
  5
2B4
  8
DEFPOINTS
  6
CONTINUOUS
 62
     0
 10
-521.7439844104633
 20
267.7196803811244
 30
0.0
  0
ENDBLK
  5
2B5
  8
0
 62
     7
  0
BLOCK
  8
0
  2
*D888
 70
     1
 10
0.0
 20
0.0
 30
0.0
  3
*D888
  1

  0
LINE
  5
29F
  8
回07-寸法
  6
CONTINUOUS
 62
     5
 10
-501.5430625342733
 20
187.0196803811242
 30
0.0
 11
-533.8031802632452
 21
187.0196803811242
 31
0.0
  0
LINE
  5
2A0
  8
回07-寸法
  6
CONTINUOUS
 62
     5
 10
-501.5430625342733
 20
348.4196803811244
 30
0.0
 11
-533.8031802632452
 21
348.4196803811244
 31
0.0
  0
LINE
  5
2A1
  8
回07-寸法
  6
CONTINUOUS
 62
     5
 10
-532.8031802632453
 20
189.0196803811242
 30
0.0
 11
-532.8031802632453
 21
346.4196803811244
 31
0.0
  0
INSERT
  5
2A2
  8
回07-寸法
  6
CONTINUOUS
 62
     5
  2
_OPEN
 10
-532.8031802632453
 20
187.0196803811242
 30
0.0
 41
2.0
 42
2.0
 43
2.0
 50
270.0
  0
INSERT
  5
2A3
  8
回07-寸法
  6
CONTINUOUS
 62
     5
  2
_OPEN
 10
-532.8031802632454
 20
348.4196803811244
 30
0.0
 41
2.0
 42
2.0
 43
2.0
 50
90.0
  0
INSERT
  5
2A4
  8
回07-寸法
  6
CONTINUOUS
 62
     5
 66
     1
  2
*X858585
 10
0.0
 20
0.0
 30
0.0
  0
SEQEND
  5
615
  8
回91-枠英2
  6
CONTINUOUS
 62
    30
  0
POINT
  5
2A5
  8
DEFPOINTS
  6
CONTINUOUS
 62
     0
 10
-501.5430625342733
 20
187.0196803811242
 30
0.0
  0
POINT
  5
2A6
  8
DEFPOINTS
  6
CONTINUOUS
 62
     0
 10
-501.5430625342733
 20
348.4196803811244
 30
0.0
  0
POINT
  5
2A7
  8
DEFPOINTS
  6
CONTINUOUS
 62
     0
 10
-532.8031802632454
 20
348.4196803811244
 30
0.0
  0
ENDBLK
  5
2A8
  8
0
 62
     7
  0
BLOCK
  8
0
  2
*D999
 70
     1
 10
0.0
 20
0.0
 30
0.0
  3
*D999
  1

  0
LINE
  5
292
  8
回07-寸法
  6
CONTINUOUS
 62
     5
 10
-502.2430625342733
 20
349.1196803811245
 30
0.0
 11
-540.2579507752096
 21
349.1196803811245
 31
0.0
  0
LINE
  5
293
  8
回07-寸法
  6
CONTINUOUS
 62
     5
 10
-502.2430625342733
 20
186.3196803811242
 30
0.0
 11
-540.2579507752093
 21
186.3196803811242
 31
0.0
  0
LINE
  5
294
  8
回07-寸法
  6
CONTINUOUS
 62
     5
 10
-539.2579507752096
 20
347.1196803811245
 30
0.0
 11
-539.2579507752096
 21
188.3196803811242
 31
0.0
  0
INSERT
  5
295
  8
回07-寸法
  6
CONTINUOUS
 62
     5
  2
_OPEN
 10
-539.2579507752096
 20
349.1196803811245
 30
0.0
 41
2.0
 42
2.0
 43
2.0
 50
90.0
  0
INSERT
  5
296
  8
回07-寸法
  6
CONTINUOUS
 62
     5
  2
_OPEN
 10
-539.2579507752095
 20
186.3196803811242
 30
0.0
 41
2.0
 42
2.0
 43
2.0
 50
270.0
  0
INSERT
  5
297
  8
回07-寸法
  6
CONTINUOUS
 62
     5
 66
     1
  2
*X868686
 10
0.0
 20
0.0
 30
0.0
  0
SEQEND
  5
61B
  8
回91-枠英2
  6
CONTINUOUS
 62
    30
  0
POINT
  5
298
  8
DEFPOINTS
  6
CONTINUOUS
 62
     0
 10
-502.2430625342733
 20
349.1196803811245
 30
0.0
  0
POINT
  5
299
  8
DEFPOINTS
  6
CONTINUOUS
 62
     0
 10
-502.2430625342733
 20
186.3196803811242
 30
0.0
  0
POINT
  5
29A
  8
DEFPOINTS
  6
CONTINUOUS
 62
     0
 10
-539.2579507752095
 20
186.3196803811242
 30
0.0
  0
ENDBLK
  5
29B
  8
0
 62
     7
  0
BLOCK
  8
0
  2
*D101010
 70
     1
 10
0.0
 20
0.0
 30
0.0
  3
*D101010
  1

  0
LINE
  5
283
  8
回07-寸法
  6
CONTINUOUS
 62
     5
 10
-501.5430625342733
 20
187.0196803811242
 30
0.0
 11
-533.8031802632452
 21
187.0196803811242
 31
0.0
  0
LINE
  5
284
  8
回07-寸法
  6
CONTINUOUS
 62
     5
 10
-506.4430625342732
 20
181.0196803811243
 30
0.0
 11
-533.8031802632452
 21
181.0196803811243
 31
0.0
  0
LINE
  5
285
  8
回07-寸法
  6
CONTINUOUS
 62
     5
 10
-532.8031802632454
 20
189.0196803811242
 30
0.0
 11
-532.8031802632454
 21
191.0196803811242
 31
0.0
  0
LINE
  5
286
  8
回07-寸法
  6
CONTINUOUS
 62
     5
 10
-532.8031802632454
 20
179.0196803811243
 30
0.0
 11
-532.8031802632454
 21
161.1401528220693
 31
0.0
  0
LINE
  5
287
  8
回07-寸法
  6
CONTINUOUS
 62
     5
 10
-532.8031802632454
 20
187.0196803811242
 30
0.0
 11
-532.8031802632454
 21
181.0196803811243
 31
0.0
  0
INSERT
  5
288
  8
回07-寸法
  6
CONTINUOUS
 62
     5
  2
_OPEN
 10
-532.8031802632454
 20
187.0196803811242
 30
0.0
 41
2.0
 42
2.0
 43
2.0
 50
270.0
  0
INSERT
  5
289
  8
回07-寸法
  6
CONTINUOUS
 62
     5
  2
_OPEN
 10
-532.8031802632454
 20
181.0196803811243
 30
0.0
 41
2.0
 42
2.0
 43
2.0
 50
90.0
  0
TEXT
  5
28A
  8
回07-寸法
  6
CONTINUOUS
 62
     5
 10
-533.4531802632453
 20
161.2799166015968
 30
0.0
 40
3.0
  1
6 [0.236]
 50
90.0
1001
ACAD
1000
MTEXTBEGIN
1070
    73
1070
     1
1070
    44
1040
1.0
1070
    74
1070
     0
1000
MTEXTEND
  0
POINT
  5
28B
  8
DEFPOINTS
  6
CONTINUOUS
 62
     0
 10
-501.5430625342733
 20
187.0196803811242
 30
0.0
  0
POINT
  5
28C
  8
DEFPOINTS
  6
CONTINUOUS
 62
     0
 10
-506.4430625342732
 20
181.0196803811243
 30
0.0
  0
POINT
  5
28D
  8
DEFPOINTS
  6
CONTINUOUS
 62
     0
 10
-532.8031802632454
 20
181.0196803811243
 30
0.0
  0
ENDBLK
  5
28E
  8
0
 62
     7
  0
BLOCK
  8
0
  2
*D111111
 70
     1
 10
0.0
 20
0.0
 30
0.0
  3
*D111111
  1

  0
LINE
  5
274
  8
回07-寸法
  6
CONTINUOUS
 62
     5
 10
-502.2430625342733
 20
186.3196803811242
 30
0.0
 11
-540.2579507752093
 21
186.3196803811242
 31
0.0
  0
LINE
  5
275
  8
回07-寸法
  6
CONTINUOUS
 62
     5
 10
-506.4430625342732
 20
181.0196803811243
 30
0.0
 11
-540.2579507752093
 21
181.0196803811243
 31
0.0
  0
LINE
  5
276
  8
回07-寸法
  6
CONTINUOUS
 62
     5
 10
-539.2579507752095
 20
188.3196803811242
 30
0.0
 11
-539.2579507752095
 21
190.3196803811242
 31
0.0
  0
LINE
  5
277
  8
回07-寸法
  6
CONTINUOUS
 62
     5
 10
-539.2579507752095
 20
179.0196803811243
 30
0.0
 11
-539.2579507752095
 21
158.3091973896415
 31
0.0
  0
LINE
  5
278
  8
回07-寸法
  6
CONTINUOUS
 62
     5
 10
-539.2579507752095
 20
186.3196803811242
 30
0.0
 11
-539.2579507752095
 21
181.0196803811243
 31
0.0
  0
INSERT
  5
279
  8
回07-寸法
  6
CONTINUOUS
 62
     5
  2
_OPEN
 10
-539.2579507752095
 20
186.3196803811242
 30
0.0
 41
2.0
 42
2.0
 43
2.0
 50
270.0
  0
INSERT
  5
27A
  8
回07-寸法
  6
CONTINUOUS
 62
     5
  2
_OPEN
 10
-539.2579507752095
 20
181.0196803811243
 30
0.0
 41
2.0
 42
2.0
 43
2.0
 50
90.0
  0
TEXT
  5
27B
  8
回07-寸法
  6
CONTINUOUS
 62
     5
 10
-539.9078908691071
 20
158.3590233325926
 30
0.0
 40
3.0
  1
5.3 [0.209]
 50
90.0
1001
ACAD
1000
MTEXTBEGIN
1070
    73
1070
     1
1070
    44
1040
1.0
1070
    74
1070
     0
1000
MTEXTEND
  0
POINT
  5
27C
  8
DEFPOINTS
  6
CONTINUOUS
 62
     0
 10
-502.2430625342733
 20
186.3196803811242
 30
0.0
  0
POINT
  5
27D
  8
DEFPOINTS
  6
CONTINUOUS
 62
     0
 10
-506.4430625342732
 20
181.0196803811243
 30
0.0
  0
POINT
  5
27E
  8
DEFPOINTS
  6
CONTINUOUS
 62
     0
 10
-539.2579507752095
 20
181.0196803811243
 30
0.0
  0
ENDBLK
  5
27F
  8
0
 62
     7
  0
BLOCK
  8
0
  2
*D121212
 70
     1
 10
0.0
 20
0.0
 30
0.0
  3
*D121212
  1

  0
LINE
  5
267
  8
回07-寸法
  6
CONTINUOUS
 62
     5
 10
-513.9753188524537
 20
181.0196803811243
 30
0.0
 11
-557.5715284038477
 21
181.0196803811243
 31
0.0
  0
LINE
  5
268
  8
回07-寸法
  6
CONTINUOUS
 62
     5
 10
-506.4430625342732
 20
357.1196803811245
 30
0.0
 11
-557.5715284038481
 21
357.1196803811245
 31
0.0
  0
LINE
  5
269
  8
回07-寸法
  6
CONTINUOUS
 62
     5
 10
-556.5715284038478
 20
183.0196803811243
 30
0.0
 11
-556.5715284038478
 21
355.1196803811245
 31
0.0
  0
INSERT
  5
26A
  8
回07-寸法
  6
CONTINUOUS
 62
     5
  2
_OPEN
 10
-556.5715284038478
 20
181.0196803811243
 30
0.0
 41
2.0
 42
2.0
 43
2.0
 50
270.0
  0
INSERT
  5
26B
  8
回07-寸法
  6
CONTINUOUS
 62
     5
  2
_OPEN
 10
-556.5715284038481
 20
357.1196803811245
 30
0.0
 41
2.0
 42
2.0
 43
2.0
 50
90.0
  0
INSERT
  5
26C
  8
回07-寸法
  6
CONTINUOUS
 62
     5
 66
     1
  2
*X878787
 10
0.0
 20
0.0
 30
0.0
  0
SEQEND
  5
624
  8
回91-枠英2
  6
CONTINUOUS
 62
    30
  0
POINT
  5
26D
  8
DEFPOINTS
  6
CONTINUOUS
 62
     0
 10
-513.9753188524537
 20
181.0196803811243
 30
0.0
  0
POINT
  5
26E
  8
DEFPOINTS
  6
CONTINUOUS
 62
     0
 10
-506.4430625342732
 20
357.1196803811245
 30
0.0
  0
POINT
  5
26F
  8
DEFPOINTS
  6
CONTINUOUS
 62
     0
 10
-556.5715284038481
 20
357.1196803811245
 30
0.0
  0
ENDBLK
  5
270
  8
0
 62
     7
  0
BLOCK
  8
0
  2
*D131313
 70
     1
 10
0.0
 20
0.0
 30
0.0
  3
*D131313
  1

  0
LINE
  5
25A
  8
回07-寸法
  6
CONTINUOUS
 62
     5
 10
-506.4430625342732
 20
357.1196803811243
 30
0.0
 11
-506.4430625342732
 21
423.8105015046645
 31
0.0
  0
LINE
  5
25B
  8
回07-寸法
  6
CONTINUOUS
 62
     5
 10
-442.0680220642004
 20
416.8133189005573
 30
0.0
 11
-442.0680220642004
 21
423.8105015046645
 31
0.0
  0
LINE
  5
25C
  8
回07-寸法
  6
CONTINUOUS
 62
     5
 10
-504.4430625342731
 20
422.8105015046645
 30
0.0
 11
-444.0680220642001
 21
422.8105015046645
 31
0.0
  0
INSERT
  5
25D
  8
回07-寸法
  6
CONTINUOUS
 62
     5
  2
_OPEN
 10
-506.4430625342732
 20
422.8105015046645
 30
0.0
 41
2.0
 42
2.0
 43
2.0
 50
180.0
  0
INSERT
  5
25E
  8
回07-寸法
  6
CONTINUOUS
 62
     5
  2
_OPEN
 10
-442.0680220642004
 20
422.8105015046645
 30
0.0
 41
2.0
 42
2.0
 43
2.0
  0
TEXT
  5
25F
  8
回07-寸法
  6
CONTINUOUS
 62
     5
 10
-487.1555422992368
 20
423.4605015046644
 30
0.0
 40
3.0
  1
(64.38 [2.534])
1001
ACAD
1000
MTEXTBEGIN
1070
    73
1070
     1
1070
    44
1040
1.0
1070
    74
1070
     0
1000
MTEXTEND
  0
POINT
  5
260
  8
DEFPOINTS
  6
CONTINUOUS
 62
     0
 10
-506.4430625342732
 20
357.1196803811243
 30
0.0
  0
POINT
  5
261
  8
DEFPOINTS
  6
CONTINUOUS
 62
     0
 10
-442.0680220642004
 20
416.8133189005573
 30
0.0
  0
POINT
  5
262
  8
DEFPOINTS
  6
CONTINUOUS
 62
     0
 10
-442.0680220642004
 20
422.8105015046645
 30
0.0
  0
ENDBLK
  5
263
  8
0
 62
     7
  0
BLOCK
  8
0
  2
*D141414
 70
     1
 10
0.0
 20
0.0
 30
0.0
  3
*D141414
  1

  0
LINE
  5
24B
  8
回07-寸法
  6
CONTINUOUS
 62
     5
 10
-442.0680220642004
 20
416.8133189005573
 30
0.0
 11
-442.0680220642004
 21
423.8105015046645
 31
0.0
  0
LINE
  5
24C
  8
回07-寸法
  6
CONTINUOUS
 62
     5
 10
-435.8180625342728
 20
416.8196803811243
 30
0.0
 11
-435.8180625342728
 21
423.8105015046645
 31
0.0
  0
LINE
  5
24D
  8
回07-寸法
  6
CONTINUOUS
 62
     5
 10
-444.0680220642001
 20
422.8105015046645
 30
0.0
 11
-446.0680220642003
 21
422.8105015046645
 31
0.0
  0
LINE
  5
24E
  8
回07-寸法
  6
CONTINUOUS
 62
     5
 10
-433.8180625342728
 20
422.8105015046645
 30
0.0
 11
-410.5385349752178
 21
422.8105015046645
 31
0.0
  0
LINE
  5
24F
  8
回07-寸法
  6
CONTINUOUS
 62
     5
 10
-442.0680220642004
 20
422.8105015046645
 30
0.0
 11
-435.8180625342728
 21
422.8105015046645
 31
0.0
  0
INSERT
  5
250
  8
回07-寸法
  6
CONTINUOUS
 62
     5
  2
_OPEN
 10
-442.0680220642004
 20
422.8105015046645
 30
0.0
 41
2.0
 42
2.0
 43
2.0
  0
INSERT
  5
251
  8
回07-寸法
  6
CONTINUOUS
 62
     5
  2
_OPEN
 10
-435.8180625342728
 20
422.8105015046645
 30
0.0
 41
2.0
 42
2.0
 43
2.0
 50
180.0
  0
TEXT
  5
252
  8
回07-寸法
  6
CONTINUOUS
 62
     5
 10
-431.6782987547454
 20
423.4605015046644
 30
0.0
 40
3.0
  1
6.25 [0.246]
1001
ACAD
1000
MTEXTBEGIN
1070
    73
1070
     1
1070
    44
1040
1.0
1070
    74
1070
     0
1000
MTEXTEND
  0
POINT
  5
253
  8
DEFPOINTS
  6
CONTINUOUS
 62
     0
 10
-442.0680220642004
 20
416.8133189005573
 30
0.0
  0
POINT
  5
254
  8
DEFPOINTS
  6
CONTINUOUS
 62
     0
 10
-435.8180625342728
 20
416.8196803811243
 30
0.0
  0
POINT
  5
255
  8
DEFPOINTS
  6
CONTINUOUS
 62
     0
 10
-435.8180625342728
 20
422.8105015046645
 30
0.0
  0
ENDBLK
  5
256
  8
0
 62
     7
  0
BLOCK
  8
0
  2
*D151515
 70
     1
 10
0.0
 20
0.0
 30
0.0
  3
*D151515
  1

  0
LINE
  5
23E
  8
回07-寸法
  6
CONTINUOUS
 62
     5
 10
-437.0680625342734
 20
417.1196803811245
 30
0.0
 11
-391.9892099319075
 21
417.1196803811245
 31
0.0
  0
LINE
  5
23F
  8
回07-寸法
  6
CONTINUOUS
 62
     5
 10
-429.9966277098356
 20
357.1196803811245
 30
0.0
 11
-391.9892099319073
 21
357.1196803811245
 31
0.0
  0
LINE
  5
240
  8
回07-寸法
  6
CONTINUOUS
 62
     5
 10
-392.9892099319074
 20
415.1196803811243
 30
0.0
 11
-392.9892099319074
 21
359.1196803811245
 31
0.0
  0
INSERT
  5
241
  8
回07-寸法
  6
CONTINUOUS
 62
     5
  2
_OPEN
 10
-392.9892099319074
 20
417.1196803811245
 30
0.0
 41
2.0
 42
2.0
 43
2.0
 50
90.0
  0
INSERT
  5
242
  8
回07-寸法
  6
CONTINUOUS
 62
     5
  2
_OPEN
 10
-392.9892099319074
 20
357.1196803811245
 30
0.0
 41
2.0
 42
2.0
 43
2.0
 50
270.0
  0
INSERT
  5
243
  8
回07-寸法
  6
CONTINUOUS
 62
     5
 66
     1
  2
*X888888
 10
0.0
 20
0.0
 30
0.0
  0
SEQEND
  5
62D
  8
回91-枠英2
  6
CONTINUOUS
 62
    30
  0
POINT
  5
244
  8
DEFPOINTS
  6
CONTINUOUS
 62
     0
 10
-437.0680625342734
 20
417.1196803811245
 30
0.0
  0
POINT
  5
245
  8
DEFPOINTS
  6
CONTINUOUS
 62
     0
 10
-429.9966277098356
 20
357.1196803811245
 30
0.0
  0
POINT
  5
246
  8
DEFPOINTS
  6
CONTINUOUS
 62
     0
 10
-392.9892099319074
 20
357.1196803811245
 30
0.0
  0
ENDBLK
  5
247
  8
0
 62
     7
  0
BLOCK
  8
0
  2
*D161616
 70
     1
 10
0.0
 20
0.0
 30
0.0
  3
*D161616
  1

  0
LINE
  5
22F
  8
回07-寸法
  6
CONTINUOUS
 62
     5
 10
-430.944265568545
 20
361.5116102894902
 30
0.0
 11
-430.944265568545
 21
377.4778740122848
 31
0.0
  0
LINE
  5
230
  8
回07-寸法
  6
CONTINUOUS
 62
     5
 10
-446.9430625342734
 20
361.5074367037839
 30
0.0
 11
-446.9430625342734
 21
377.4778740122848
 31
0.0
  0
LINE
  5
231
  8
回07-寸法
  6
CONTINUOUS
 62
     5
 10
-428.944265568545
 20
376.4778740122848
 30
0.0
 11
-426.944265568545
 21
376.4778740122848
 31
0.0
  0
LINE
  5
232
  8
回07-寸法
  6
CONTINUOUS
 62
     5
 10
-448.9430625342732
 20
376.4778740122848
 30
0.0
 11
-468.1430625342733
 21
376.4778740122848
 31
0.0
  0
LINE
  5
233
  8
回07-寸法
  6
CONTINUOUS
 62
     5
 10
-430.944265568545
 20
376.4778740122848
 30
0.0
 11
-446.9430625342734
 21
376.4778740122848
 31
0.0
  0
INSERT
  5
234
  8
回07-寸法
  6
CONTINUOUS
 62
     5
  2
_OPEN
 10
-430.944265568545
 20
376.4778740122848
 30
0.0
 41
2.0
 42
2.0
 43
2.0
 50
180.0
  0
INSERT
  5
235
  8
回07-寸法
  6
CONTINUOUS
 62
     5
  2
_OPEN
 10
-446.9430625342734
 20
376.4778740122848
 30
0.0
 41
2.0
 42
2.0
 43
2.0
  0
TEXT
  5
236
  8
回07-寸法
  6
CONTINUOUS
 62
     5
 10
-468.0930625342734
 20
377.1278740122848
 30
0.0
 40
3.0
  1
16 [0.630]
1001
ACAD
1000
MTEXTBEGIN
1070
    73
1070
     1
1070
    44
1040
1.0
1070
    74
1070
     0
1000
MTEXTEND
  0
POINT
  5
237
  8
DEFPOINTS
  6
CONTINUOUS
 62
     0
 10
-430.944265568545
 20
361.5116102894902
 30
0.0
  0
POINT
  5
238
  8
DEFPOINTS
  6
CONTINUOUS
 62
     0
 10
-446.9430625342734
 20
361.5074367037839
 30
0.0
  0
POINT
  5
239
  8
DEFPOINTS
  6
CONTINUOUS
 62
     0
 10
-446.9430625342734
 20
376.4778740122848
 30
0.0
  0
ENDBLK
  5
23A
  8
0
 62
     7
  0
BLOCK
  8
0
  2
*D171717
 70
     1
 10
0.0
 20
0.0
 30
0.0
  3
*D171717
  1

  0
LINE
  5
20C
  8
回08-記事
  6
CONTINUOUS
 62
     5
 10
-251.8070572633376
 20
181.3196803811243
 30
0.0
 11
-251.8070572633376
 21
169.2071463896619
 31
0.0
  0
LINE
  5
20D
  8
回08-記事
  6
CONTINUOUS
 62
     5
 10
-245.1070572633378
 20
181.0196803811243
 30
0.0
 11
-245.1070572633378
 21
169.2071463896619
 31
0.0
  0
LINE
  5
20E
  8
回08-記事
  6
CONTINUOUS
 62
     5
 10
-253.8070572633376
 20
170.2071463896619
 30
0.0
 11
-255.8070572633377
 21
170.2071463896619
 31
0.0
  0
LINE
  5
20F
  8
回08-記事
  6
CONTINUOUS
 62
     5
 10
-243.1070572633378
 20
170.2071463896619
 30
0.0
 11
-212.3305981609756
 21
170.2071463896619
 31
0.0
  0
LINE
  5
210
  8
回08-記事
  6
CONTINUOUS
 62
     5
 10
-251.8070572633376
 20
170.2071463896619
 30
0.0
 11
-245.1070572633378
 21
170.2071463896619
 31
0.0
  0
INSERT
  5
211
  8
回08-記事
  6
CONTINUOUS
 62
     5
  2
_OPEN
 10
-251.8070572633376
 20
170.2071463896619
 30
0.0
 41
2.0
 42
2.0
 43
2.0
  0
INSERT
  5
212
  8
回08-記事
  6
CONTINUOUS
 62
     5
  2
_OPEN
 10
-245.1070572633378
 20
170.2071463896619
 30
0.0
 41
2.0
 42
2.0
 43
2.0
 50
180.0
  0
INSERT
  5
213
  8
回08-記事
  6
CONTINUOUS
 62
     5
 66
     1
  2
*X898989
 10
0.0
 20
0.0
 30
0.0
  0
SEQEND
  5
636
  8
回91-枠英2
  6
CONTINUOUS
 62
    30
  0
POINT
  5
214
  8
DEFPOINTS
  6
CONTINUOUS
 62
     0
 10
-251.8070572633376
 20
181.3196803811243
 30
0.0
  0
POINT
  5
215
  8
DEFPOINTS
  6
CONTINUOUS
 62
     0
 10
-245.1070572633378
 20
181.0196803811243
 30
0.0
  0
POINT
  5
216
  8
DEFPOINTS
  6
CONTINUOUS
 62
     0
 10
-245.1070572633378
 20
170.2071463896619
 30
0.0
  0
ENDBLK
  5
217
  8
0
 62
     7
  0
BLOCK
  8
0
  2
*D181818
 70
     1
 10
0.0
 20
0.0
 30
0.0
  3
*D181818
  1

  0
LINE
  5
1FD
  8
回08-記事
  6
CONTINUOUS
 62
     5
 10
-249.8070572633377
 20
417.119680381124
 30
0.0
 11
-249.8070572633377
 21
425.0865982119207
 31
0.0
  0
LINE
  5
1FE
  8
回08-記事
  6
CONTINUOUS
 62
     5
 10
-247.1929058601952
 20
417.119680381124
 30
0.0
 11
-247.1929058601952
 21
425.0865982119207
 31
0.0
  0
LINE
  5
1FF
  8
回08-記事
  6
CONTINUOUS
 62
     5
 10
-251.8070572633376
 20
424.0865982119207
 30
0.0
 11
-253.8070572633376
 21
424.0865982119207
 31
0.0
  0
LINE
  5
200
  8
回08-記事
  6
CONTINUOUS
 62
     5
 10
-245.1929058601952
 20
424.0865982119207
 30
0.0
 11
-213.0901956554708
 21
424.0865982119207
 31
0.0
  0
LINE
  5
201
  8
回08-記事
  6
CONTINUOUS
 62
     5
 10
-249.8070572633377
 20
424.0865982119207
 30
0.0
 11
-247.1929058601952
 21
424.0865982119207
 31
0.0
  0
INSERT
  5
202
  8
回08-記事
  6
CONTINUOUS
 62
     5
  2
_OPEN
 10
-249.8070572633377
 20
424.0865982119207
 30
0.0
 41
2.0
 42
2.0
 43
2.0
  0
INSERT
  5
203
  8
回08-記事
  6
CONTINUOUS
 62
     5
  2
_OPEN
 10
-247.1929058601952
 20
424.0865982119207
 30
0.0
 41
2.0
 42
2.0
 43
2.0
 50
180.0
  0
INSERT
  5
204
  8
回08-記事
  6
CONTINUOUS
 62
     5
 66
     1
  2
*X909090
 10
0.0
 20
0.0
 30
0.0
  0
SEQEND
  5
63F
  8
回91-枠英2
  6
CONTINUOUS
 62
    30
  0
POINT
  5
205
  8
DEFPOINTS
  6
CONTINUOUS
 62
     0
 10
-249.8070572633377
 20
417.119680381124
 30
0.0
  0
POINT
  5
206
  8
DEFPOINTS
  6
CONTINUOUS
 62
     0
 10
-247.1929058601952
 20
417.119680381124
 30
0.0
  0
POINT
  5
207
  8
DEFPOINTS
  6
CONTINUOUS
 62
     0
 10
-247.1929058601952
 20
424.0865982119207
 30
0.0
  0
ENDBLK
  5
208
  8
0
 62
     7
  0
BLOCK
  8
0
  2
*D191919
 70
     1
 10
0.0
 20
0.0
 30
0.0
  3
*D191919
  1

  0
LINE
  5
1EE
  8
回08-記事
  6
CONTINUOUS
 62
     5
 10
-247.1929058601953
 20
417.1196803811245
 30
0.0
 11
-216.8668807845653
 21
417.1196803811245
 31
0.0
  0
LINE
  5
1EF
  8
回08-記事
  6
CONTINUOUS
 62
     5
 10
-247.1929058601953
 20
407.1196803811245
 30
0.0
 11
-216.8668807845653
 21
407.1196803811245
 31
0.0
  0
LINE
  5
1F0
  8
回08-記事
  6
CONTINUOUS
 62
     5
 10
-217.8668807845653
 20
419.1196803811243
 30
0.0
 11
-217.8668807845653
 21
421.1196803811245
 31
0.0
  0
LINE
  5
1F1
  8
回08-記事
  6
CONTINUOUS
 62
     5
 10
-217.8668807845653
 20
405.1196803811245
 30
0.0
 11
-217.8668807845653
 21
383.211559594366
 31
0.0
  0
LINE
  5
1F2
  8
回08-記事
  6
CONTINUOUS
 62
     5
 10
-217.8668807845653
 20
417.1196803811245
 30
0.0
 11
-217.8668807845653
 21
407.1196803811245
 31
0.0
  0
INSERT
  5
1F3
  8
回08-記事
  6
CONTINUOUS
 62
     5
  2
_OPEN
 10
-217.8668807845653
 20
417.1196803811245
 30
0.0
 41
2.0
 42
2.0
 43
2.0
 50
270.0
  0
INSERT
  5
1F4
  8
回08-記事
  6
CONTINUOUS
 62
     5
  2
_OPEN
 10
-217.8668807845653
 20
407.1196803811245
 30
0.0
 41
2.0
 42
2.0
 43
2.0
 50
90.0
  0
TEXT
  5
1F5
  8
回08-記事
  6
CONTINUOUS
 62
     5
 10
-218.5168208784628
 20
383.2602044349549
 30
0.0
 40
3.0
  1
(10 [0.394])
 50
90.0
1001
ACAD
1000
MTEXTBEGIN
1070
    73
1070
     1
1070
    44
1040
1.0
1070
    74
1070
     0
1000
MTEXTEND
  0
POINT
  5
1F6
  8
DEFPOINTS
  6
CONTINUOUS
 62
     0
 10
-247.1929058601953
 20
417.1196803811245
 30
0.0
  0
POINT
  5
1F7
  8
DEFPOINTS
  6
CONTINUOUS
 62
     0
 10
-247.1929058601953
 20
407.1196803811245
 30
0.0
  0
POINT
  5
1F8
  8
DEFPOINTS
  6
CONTINUOUS
 62
     0
 10
-217.8668807845653
 20
407.1196803811245
 30
0.0
  0
ENDBLK
  5
1F9
  8
0
 62
     7
  0
BLOCK
  8
0
  2
*D202020
 70
     1
 10
0.0
 20
0.0
 30
0.0
  3
*D202020
  1

  0
LINE
  5
1DF
  8
回08-記事
  6
CONTINUOUS
 62
     5
 10
-249.8070572633379
 20
417.1196803811245
 30
0.0
 11
-256.628851807829
 21
417.1196803811245
 31
0.0
  0
LINE
  5
1E0
  8
回08-記事
  6
CONTINUOUS
 62
     5
 10
-250.5707949704782
 20
412.1196803811245
 30
0.0
 11
-256.628851807829
 21
412.1196803811245
 31
0.0
  0
LINE
  5
1E1
  8
回08-記事
  6
CONTINUOUS
 62
     5
 10
-255.6288518078289
 20
419.1196803811243
 30
0.0
 11
-255.6288518078289
 21
421.1196803811245
 31
0.0
  0
LINE
  5
1E2
  8
回08-記事
  6
CONTINUOUS
 62
     5
 10
-255.6288518078289
 20
410.1196803811243
 30
0.0
 11
-255.6288518078289
 21
393.0091973896417
 31
0.0
  0
LINE
  5
1E3
  8
回08-記事
  6
CONTINUOUS
 62
     5
 10
-255.6288518078289
 20
417.1196803811245
 30
0.0
 11
-255.6288518078289
 21
412.1196803811245
 31
0.0
  0
INSERT
  5
1E4
  8
回08-記事
  6
CONTINUOUS
 62
     5
  2
_OPEN
 10
-255.6288518078289
 20
417.1196803811245
 30
0.0
 41
2.0
 42
2.0
 43
2.0
 50
270.0
  0
INSERT
  5
1E5
  8
回08-記事
  6
CONTINUOUS
 62
     5
  2
_OPEN
 10
-255.6288518078289
 20
412.1196803811245
 30
0.0
 41
2.0
 42
2.0
 43
2.0
 50
90.0
  0
TEXT
  5
1E6
  8
回08-記事
  6
CONTINUOUS
 62
     5
 10
-256.2787919017265
 20
393.0590233325927
 30
0.0
 40
3.0
  1
5 [0.197]
 50
90.0
1001
ACAD
1000
MTEXTBEGIN
1070
    73
1070
     1
1070
    44
1040
1.0
1070
    74
1070
     0
1000
MTEXTEND
  0
POINT
  5
1E7
  8
DEFPOINTS
  6
CONTINUOUS
 62
     0
 10
-249.8070572633379
 20
417.1196803811245
 30
0.0
  0
POINT
  5
1E8
  8
DEFPOINTS
  6
CONTINUOUS
 62
     0
 10
-250.5707949704782
 20
412.1196803811245
 30
0.0
  0
POINT
  5
1E9
  8
DEFPOINTS
  6
CONTINUOUS
 62
     0
 10
-255.6288518078289
 20
412.1196803811245
 30
0.0
  0
ENDBLK
  5
1EA
  8
0
 62
     7
  0
BLOCK
  8
0
  2
*D212121
 70
     1
 10
0.0
 20
0.0
 30
0.0
  3
*D212121
  1

  0
LINE
  5
1CE
  8
回08-記事
  6
CONTINUOUS
 62
     5
 10
-331.2638655040714
 20
413.9742418762871
 30
0.0
 11
-331.2638655040714
 21
432.867670946826
 31
0.0
  0
LINE
  5
1CF
  8
回08-記事
  6
CONTINUOUS
 62
     5
 10
-342.5138655040714
 20
413.9742418762871
 30
0.0
 11
-342.5138655040714
 21
432.867670946826
 31
0.0
  0
LINE
  5
1D0
  8
回08-記事
  6
CONTINUOUS
 62
     5
 10
-329.2638655040714
 20
431.867670946826
 30
0.0
 11
-327.2638655040714
 21
431.867670946826
 31
0.0
  0
LINE
  5
1D1
  8
回08-記事
  6
CONTINUOUS
 62
     5
 10
-344.5138655040714
 20
431.867670946826
 30
0.0
 11
-379.0354969260089
 21
431.867670946826
 31
0.0
  0
LINE
  5
1D2
  8
回08-記事
  6
CONTINUOUS
 62
     5
 10
-331.2638655040714
 20
431.867670946826
 30
0.0
 11
-342.5138655040714
 21
431.867670946826
 31
0.0
  0
INSERT
  5
1D3
  8
回08-記事
  6
CONTINUOUS
 62
     5
 66
     1
  2
_OPEN
 10
-331.2638655040714
 20
431.867670946826
 30
0.0
 41
2.0
 42
2.0
 43
2.0
 50
180.0
  0
SEQEND
  5
1D4
  8
回91-枠英2
  6
CONTINUOUS
 62
    30
  0
INSERT
  5
1D5
  8
回08-記事
  6
CONTINUOUS
 62
     5
 66
     1
  2
_OPEN
 10
-342.5138655040714
 20
431.867670946826
 30
0.0
 41
2.0
 42
2.0
 43
2.0
  0
SEQEND
  5
1D6
  8
回91-枠英2
  6
CONTINUOUS
 62
    30
  0
INSERT
  5
1D7
  8
回08-記事
  6
CONTINUOUS
 62
     5
 66
     1
  2
*X919191
 10
0.0
 20
0.0
 30
0.0
  0
SEQEND
  5
648
  8
回91-枠英2
  6
CONTINUOUS
 62
    30
  0
POINT
  5
1D8
  8
DEFPOINTS
  6
CONTINUOUS
 62
     0
 10
-331.2638655040714
 20
413.9742418762871
 30
0.0
  0
POINT
  5
1D9
  8
DEFPOINTS
  6
CONTINUOUS
 62
     0
 10
-342.5138655040714
 20
413.9742418762871
 30
0.0
  0
POINT
  5
1DA
  8
DEFPOINTS
  6
CONTINUOUS
 62
     0
 10
-342.5138655040714
 20
431.867670946826
 30
0.0
  0
ENDBLK
  5
1DB
  8
0
 62
     7
  0
BLOCK
  8
0
  2
*D222222
 70
     1
 10
0.0
 20
0.0
 30
0.0
  3
*D222222
  1

  0
LINE
  5
1BD
  8
回08-記事
  6
CONTINUOUS
 62
     5
 10
-338.7638655040714
 20
413.9742418762871
 30
0.0
 11
-338.7638655040714
 21
427.1366444995928
 31
0.0
  0
LINE
  5
1BE
  8
回08-記事
  6
CONTINUOUS
 62
     5
 10
-342.5138655040714
 20
413.9742418762871
 30
0.0
 11
-342.5138655040714
 21
427.1366444995928
 31
0.0
  0
LINE
  5
1BF
  8
回08-記事
  6
CONTINUOUS
 62
     5
 10
-336.7638655040714
 20
426.1366444995927
 30
0.0
 11
-334.7638655040714
 21
426.1366444995927
 31
0.0
  0
LINE
  5
1C0
  8
回08-記事
  6
CONTINUOUS
 62
     5
 10
-344.5138655040714
 20
426.1366444995927
 30
0.0
 11
-379.5954801978627
 21
426.1366444995927
 31
0.0
  0
LINE
  5
1C1
  8
回08-記事
  6
CONTINUOUS
 62
     5
 10
-338.7638655040714
 20
426.1366444995927
 30
0.0
 11
-342.5138655040714
 21
426.1366444995927
 31
0.0
  0
INSERT
  5
1C2
  8
回08-記事
  6
CONTINUOUS
 62
     5
 66
     1
  2
_OPEN
 10
-338.7638655040714
 20
426.1366444995927
 30
0.0
 41
2.0
 42
2.0
 43
2.0
 50
180.0
  0
SEQEND
  5
1C3
  8
回91-枠英2
  6
CONTINUOUS
 62
    30
  0
INSERT
  5
1C4
  8
回08-記事
  6
CONTINUOUS
 62
     5
 66
     1
  2
_OPEN
 10
-342.5138655040714
 20
426.1366444995927
 30
0.0
 41
2.0
 42
2.0
 43
2.0
  0
SEQEND
  5
1C5
  8
回91-枠英2
  6
CONTINUOUS
 62
    30
  0
INSERT
  5
1C6
  8
回08-記事
  6
CONTINUOUS
 62
     5
 66
     1
  2
*X929292
 10
0.0
 20
0.0
 30
0.0
  0
SEQEND
  5
651
  8
回91-枠英2
  6
CONTINUOUS
 62
    30
  0
POINT
  5
1C7
  8
DEFPOINTS
  6
CONTINUOUS
 62
     0
 10
-338.7638655040714
 20
413.9742418762871
 30
0.0
  0
POINT
  5
1C8
  8
DEFPOINTS
  6
CONTINUOUS
 62
     0
 10
-342.5138655040714
 20
413.9742418762871
 30
0.0
  0
POINT
  5
1C9
  8
DEFPOINTS
  6
CONTINUOUS
 62
     0
 10
-342.5138655040714
 20
426.1366444995927
 30
0.0
  0
ENDBLK
  5
1CA
  8
0
 62
     7
  0
BLOCK
  8
0
  2
*D232323
 70
     1
 10
0.0
 20
0.0
 30
0.0
  3
*D232323
  1

  0
LINE
  5
1AC
  8
回08-記事
  6
CONTINUOUS
 62
     5
 10
-341.3138655040716
 20
413.9742418762871
 30
0.0
 11
-341.3138655040716
 21
420.7329902660658
 31
0.0
  0
LINE
  5
1AD
  8
回08-記事
  6
CONTINUOUS
 62
     5
 10
-343.7138655040712
 20
413.9742418762871
 30
0.0
 11
-343.7138655040712
 21
420.7329902660658
 31
0.0
  0
LINE
  5
1AE
  8
回08-記事
  6
CONTINUOUS
 62
     5
 10
-339.3138655040716
 20
419.7329902660658
 30
0.0
 11
-337.3138655040716
 21
419.7329902660658
 31
0.0
  0
LINE
  5
1AF
  8
回08-記事
  6
CONTINUOUS
 62
     5
 10
-345.7138655040712
 20
419.7329902660658
 30
0.0
 11
-385.8139265040712
 21
419.7329902660658
 31
0.0
  0
LINE
  5
1B0
  8
回08-記事
  6
CONTINUOUS
 62
     5
 10
-341.3138655040716
 20
419.7329902660658
 30
0.0
 11
-343.7138655040712
 21
419.7329902660658
 31
0.0
  0
INSERT
  5
1B1
  8
回08-記事
  6
CONTINUOUS
 62
     5
 66
     1
  2
_OPEN
 10
-341.3138655040716
 20
419.7329902660658
 30
0.0
 41
2.0
 42
2.0
 43
2.0
 50
180.0
  0
SEQEND
  5
1B2
  8
回91-枠英2
  6
CONTINUOUS
 62
    30
  0
INSERT
  5
1B3
  8
回08-記事
  6
CONTINUOUS
 62
     5
 66
     1
  2
_OPEN
 10
-343.7138655040712
 20
419.7329902660658
 30
0.0
 41
2.0
 42
2.0
 43
2.0
  0
SEQEND
  5
1B4
  8
回91-枠英2
  6
CONTINUOUS
 62
    30
  0
INSERT
  5
1B5
  8
回08-記事
  6
CONTINUOUS
 62
     5
 66
     1
  2
*X939393
 10
0.0
 20
0.0
 30
0.0
  0
SEQEND
  5
65A
  8
回91-枠英2
  6
CONTINUOUS
 62
    30
  0
POINT
  5
1B6
  8
DEFPOINTS
  6
CONTINUOUS
 62
     0
 10
-341.3138655040716
 20
413.9742418762871
 30
0.0
  0
POINT
  5
1B7
  8
DEFPOINTS
  6
CONTINUOUS
 62
     0
 10
-343.7138655040712
 20
413.9742418762871
 30
0.0
  0
POINT
  5
1B8
  8
DEFPOINTS
  6
CONTINUOUS
 62
     0
 10
-343.7138655040712
 20
419.7329902660658
 30
0.0
  0
ENDBLK
  5
1B9
  8
0
 62
     7
  0
BLOCK
  8
0
  2
*D242424
 70
     1
 10
0.0
 20
0.0
 30
0.0
  3
*D242424
  1

  0
LINE
  5
186
  8
回07-寸法
  6
CONTINUOUS
 62
     5
 10
-506.4430625342732
 20
222.0196803811244
 30
0.0
 11
-512.7499362965503
 21
222.0196803811244
 31
0.0
  0
LINE
  5
187
  8
回07-寸法
  6
CONTINUOUS
 62
     5
 10
-506.4430625342732
 20
181.0196803811243
 30
0.0
 11
-512.7499362965503
 21
181.0196803811243
 31
0.0
  0
LINE
  5
188
  8
回07-寸法
  6
CONTINUOUS
 62
     5
 10
-511.7499362965502
 20
220.0196803811244
 30
0.0
 11
-511.7499362965502
 21
183.0196803811243
 31
0.0
  0
INSERT
  5
189
  8
回07-寸法
  6
CONTINUOUS
 62
     5
  2
_OPEN
 10
-511.7499362965502
 20
222.0196803811244
 30
0.0
 41
2.0
 42
2.0
 43
2.0
 50
90.0
  0
INSERT
  5
18A
  8
回07-寸法
  6
CONTINUOUS
 62
     5
  2
_OPEN
 10
-511.7499362965502
 20
181.0196803811243
 30
0.0
 41
2.0
 42
2.0
 43
2.0
 50
270.0
  0
TEXT
  5
18B
  8
回07-寸法
  6
CONTINUOUS
 62
     5
 10
-512.3999362965503
 20
192.0696803811246
 30
0.0
 40
3.0
  1
(41 [1.614])
 50
90.0
1001
ACAD
1000
MTEXTBEGIN
1070
    73
1070
     1
1070
    44
1040
1.0
1070
    74
1070
     0
1000
MTEXTEND
  0
POINT
  5
18C
  8
DEFPOINTS
  6
CONTINUOUS
 62
     0
 10
-506.4430625342732
 20
222.0196803811244
 30
0.0
  0
POINT
  5
18D
  8
DEFPOINTS
  6
CONTINUOUS
 62
     0
 10
-506.4430625342732
 20
181.0196803811243
 30
0.0
  0
POINT
  5
18E
  8
DEFPOINTS
  6
CONTINUOUS
 62
     0
 10
-511.7499362965502
 20
181.0196803811243
 30
0.0
  0
ENDBLK
  5
18F
  8
0
 62
     7
  0
BLOCK
  8
0
  2
*D252525
 70
     1
 10
0.0
 20
0.0
 30
0.0
  3
*D252525
  1

  0
LINE
  5
177
  8
回07-寸法
  6
CONTINUOUS
 62
     5
 10
-506.4430625342732
 20
222.0196803811244
 30
0.0
 11
-512.7499362965505
 21
222.0196803811244
 31
0.0
  0
LINE
  5
178
  8
回07-寸法
  6
CONTINUOUS
 62
     5
 10
-506.4430625342732
 20
224.0196803811244
 30
0.0
 11
-512.7499362965505
 21
224.0196803811244
 31
0.0
  0
LINE
  5
179
  8
回07-寸法
  6
CONTINUOUS
 62
     5
 10
-511.7499362965507
 20
220.0196803811244
 30
0.0
 11
-511.7499362965507
 21
218.0196803811244
 31
0.0
  0
LINE
  5
17A
  8
回07-寸法
  6
CONTINUOUS
 62
     5
 10
-511.7499362965507
 20
226.0196803811244
 30
0.0
 11
-511.7499362965507
 21
246.1278011678828
 31
0.0
  0
LINE
  5
17B
  8
回07-寸法
  6
CONTINUOUS
 62
     5
 10
-511.7499362965507
 20
222.0196803811244
 30
0.0
 11
-511.7499362965507
 21
224.0196803811244
 31
0.0
  0
INSERT
  5
17C
  8
回07-寸法
  6
CONTINUOUS
 62
     5
  2
_OPEN
 10
-511.7499362965507
 20
222.0196803811244
 30
0.0
 41
2.0
 42
2.0
 43
2.0
 50
90.0
  0
INSERT
  5
17D
  8
回07-寸法
  6
CONTINUOUS
 62
     5
  2
_OPEN
 10
-511.7499362965507
 20
224.0196803811244
 30
0.0
 41
2.0
 42
2.0
 43
2.0
 50
270.0
  0
TEXT
  5
17E
  8
回07-寸法
  6
CONTINUOUS
 62
     5
 10
-512.3998763904483
 20
228.0683252217133
 30
0.0
 40
3.0
  1
(2 [0.079])
 50
90.0
1001
ACAD
1000
MTEXTBEGIN
1070
    73
1070
     1
1070
    44
1040
1.0
1070
    74
1070
     0
1000
MTEXTEND
  0
POINT
  5
17F
  8
DEFPOINTS
  6
CONTINUOUS
 62
     0
 10
-506.4430625342732
 20
222.0196803811244
 30
0.0
  0
POINT
  5
180
  8
DEFPOINTS
  6
CONTINUOUS
 62
     0
 10
-506.4430625342732
 20
224.0196803811244
 30
0.0
  0
POINT
  5
181
  8
DEFPOINTS
  6
CONTINUOUS
 62
     0
 10
-511.7499362965507
 20
224.0196803811244
 30
0.0
  0
ENDBLK
  5
182
  8
0
 62
     7
  0
BLOCK
  8
0
  2
*D262626
 70
     1
 10
0.0
 20
0.0
 30
0.0
  3
*D262626
  1

  0
LINE
  5
F2
  8
回07-寸法
  6
CONTINUOUS
 62
     5
 10
-502.5430625342734
 20
349.9196803811245
 30
0.0
 11
-551.7533318586981
 21
349.9196803811245
 31
0.0
  0
LINE
  5
F3
  8
回07-寸法
  6
CONTINUOUS
 62
     5
 10
-502.5430625342734
 20
185.5196803811244
 30
0.0
 11
-551.7533318586981
 21
185.5196803811244
 31
0.0
  0
LINE
  5
F4
  8
回07-寸法
  6
CONTINUOUS
 62
     5
 10
-550.7533318586983
 20
347.9196803811245
 30
0.0
 11
-550.7533318586983
 21
187.5196803811244
 31
0.0
  0
INSERT
  5
F5
  8
回07-寸法
  6
CONTINUOUS
 62
     5
  2
_OPEN
 10
-550.7533318586983
 20
349.9196803811245
 30
0.0
 41
2.0
 42
2.0
 43
2.0
 50
90.0
  0
INSERT
  5
F6
  8
回07-寸法
  6
CONTINUOUS
 62
     5
  2
_OPEN
 10
-550.7533318586982
 20
185.5196803811244
 30
0.0
 41
2.0
 42
2.0
 43
2.0
 50
270.0
  0
TEXT
  5
F7
  8
回07-寸法
  6
CONTINUOUS
 62
     5
 10
-551.4033318586979
 20
256.1696803811245
 30
0.0
 40
3.0
  1
164.4 [6.472]
 50
90.0
1001
ACAD
1000
MTEXTBEGIN
1070
    73
1070
     1
1070
    44
1040
1.0
1070
    74
1070
     0
1000
MTEXTEND
  0
POINT
  5
F8
  8
DEFPOINTS
  6
CONTINUOUS
 62
     0
 10
-502.5430625342734
 20
349.9196803811245
 30
0.0
  0
POINT
  5
F9
  8
DEFPOINTS
  6
CONTINUOUS
 62
     0
 10
-502.5430625342734
 20
185.5196803811244
 30
0.0
  0
POINT
  5
FA
  8
DEFPOINTS
  6
CONTINUOUS
 62
     0
 10
-550.7533318586982
 20
185.5196803811244
 30
0.0
  0
ENDBLK
  5
FB
  8
0
 62
     7
  0
BLOCK
  8
0
  2
*D272727
 70
     1
 10
0.0
 20
0.0
 30
0.0
  3
*D272727
  1

  0
LINE
  5
E3
  8
回07-寸法
  6
CONTINUOUS
 62
     5
 10
-502.5430625342734
 20
185.5196803811244
 30
0.0
 11
-551.7533318586981
 21
185.5196803811244
 31
0.0
  0
LINE
  5
E4
  8
回07-寸法
  6
CONTINUOUS
 62
     5
 10
-506.4430625342732
 20
181.0196803811243
 30
0.0
 11
-551.7533318586981
 21
181.0196803811243
 31
0.0
  0
LINE
  5
E5
  8
回07-寸法
  6
CONTINUOUS
 62
     5
 10
-550.7533318586982
 20
187.5196803811244
 30
0.0
 11
-550.7533318586982
 21
189.5196803811244
 31
0.0
  0
LINE
  5
E6
  8
回07-寸法
  6
CONTINUOUS
 62
     5
 10
-550.7533318586982
 20
179.0196803811243
 30
0.0
 11
-550.7533318586982
 21
158.6196803811243
 31
0.0
  0
LINE
  5
E7
  8
回07-寸法
  6
CONTINUOUS
 62
     5
 10
-550.7533318586982
 20
185.5196803811244
 30
0.0
 11
-550.7533318586982
 21
181.0196803811243
 31
0.0
  0
INSERT
  5
E8
  8
回07-寸法
  6
CONTINUOUS
 62
     5
  2
_OPEN
 10
-550.7533318586982
 20
185.5196803811244
 30
0.0
 41
2.0
 42
2.0
 43
2.0
 50
270.0
  0
INSERT
  5
E9
  8
回07-寸法
  6
CONTINUOUS
 62
     5
  2
_OPEN
 10
-550.7533318586982
 20
181.0196803811243
 30
0.0
 41
2.0
 42
2.0
 43
2.0
 50
90.0
  0
TEXT
  5
EA
  8
回07-寸法
  6
CONTINUOUS
 62
     5
 10
-551.4033318586979
 20
158.6696803811244
 30
0.0
 40
3.0
  1
4.5 [0.177]
 50
90.0
1001
ACAD
1000
MTEXTBEGIN
1070
    73
1070
     1
1070
    44
1040
1.0
1070
    74
1070
     0
1000
MTEXTEND
  0
POINT
  5
EB
  8
DEFPOINTS
  6
CONTINUOUS
 62
     0
 10
-502.5430625342734
 20
185.5196803811244
 30
0.0
  0
POINT
  5
EC
  8
DEFPOINTS
  6
CONTINUOUS
 62
     0
 10
-506.4430625342732
 20
181.0196803811243
 30
0.0
  0
POINT
  5
ED
  8
DEFPOINTS
  6
CONTINUOUS
 62
     0
 10
-550.7533318586982
 20
181.0196803811243
 30
0.0
  0
ENDBLK
  5
EE
  8
0
 62
     7
  0
BLOCK
  8
0
  2
*D282828
 70
     1
 10
0.0
 20
0.0
 30
0.0
  3
*D282828
  1

  0
LINE
  5
D5
  8
回07-寸法
  6
CONTINUOUS
 62
     5
 10
-502.5430625342732
 20
185.5196803811244
 30
0.0
 11
-502.5430625342732
 21
148.0715994250423
 31
0.0
  0
LINE
  5
D6
  8
回07-寸法
  6
CONTINUOUS
 62
     5
 10
-287.3430625342731
 20
185.5196803811244
 30
0.0
 11
-287.3430625342731
 21
148.0715994250423
 31
0.0
  0
LINE
  5
D7
  8
回07-寸法
  6
CONTINUOUS
 62
     5
 10
-500.5430625342731
 20
149.0715994250423
 30
0.0
 11
-289.3430625342731
 21
149.0715994250423
 31
0.0
  0
INSERT
  5
D8
  8
回07-寸法
  6
CONTINUOUS
 62
     5
  2
_OPEN
 10
-502.5430625342732
 20
149.0715994250423
 30
0.0
 41
2.0
 42
2.0
 43
2.0
 50
180.0
  0
INSERT
  5
D9
  8
回07-寸法
  6
CONTINUOUS
 62
     5
  2
_OPEN
 10
-287.3430625342731
 20
149.0715994250423
 30
0.0
 41
2.0
 42
2.0
 43
2.0
  0
TEXT
  5
DA
  8
回07-寸法
  6
CONTINUOUS
 62
     5
 10
-406.1930625342731
 20
149.7215994250423
 30
0.0
 40
3.0
  1
215.2 [8.472]
1001
ACAD
1000
MTEXTBEGIN
1070
    73
1070
     1
1070
    44
1040
1.0
1070
    74
1070
     0
1000
MTEXTEND
  0
POINT
  5
DB
  8
DEFPOINTS
  6
CONTINUOUS
 62
     0
 10
-502.5430625342732
 20
185.5196803811244
 30
0.0
  0
POINT
  5
DC
  8
DEFPOINTS
  6
CONTINUOUS
 62
     0
 10
-287.3430625342731
 20
185.5196803811244
 30
0.0
  0
POINT
  5
DD
  8
DEFPOINTS
  6
CONTINUOUS
 62
     0
 10
-287.3430625342731
 20
149.0715994250423
 30
0.0
  0
ENDBLK
  5
DE
  8
0
 62
     7
  0
BLOCK
  8
0
  2
*D292929
 70
     1
 10
0.0
 20
0.0
 30
0.0
  3
*D292929
  1

  0
LINE
  5
C6
  8
回07-寸法
  6
CONTINUOUS
 62
     5
 10
-502.5430625342732
 20
185.5196803811244
 30
0.0
 11
-502.5430625342732
 21
148.0715994250423
 31
0.0
  0
LINE
  5
C7
  8
回07-寸法
  6
CONTINUOUS
 62
     5
 10
-506.4430625342732
 20
181.0196803811243
 30
0.0
 11
-506.4430625342732
 21
148.0715994250423
 31
0.0
  0
LINE
  5
C8
  8
回07-寸法
  6
CONTINUOUS
 62
     5
 10
-500.5430625342731
 20
149.0715994250423
 30
0.0
 11
-498.5430625342732
 21
149.0715994250423
 31
0.0
  0
LINE
  5
C9
  8
回07-寸法
  6
CONTINUOUS
 62
     5
 10
-508.4430625342731
 20
149.0715994250423
 30
0.0
 11
-528.853545525756
 21
149.0715994250423
 31
0.0
  0
LINE
  5
CA
  8
回07-寸法
  6
CONTINUOUS
 62
     5
 10
-502.5430625342732
 20
149.0715994250423
 30
0.0
 11
-506.4430625342732
 21
149.0715994250423
 31
0.0
  0
INSERT
  5
CB
  8
回07-寸法
  6
CONTINUOUS
 62
     5
  2
_OPEN
 10
-502.5430625342732
 20
149.0715994250423
 30
0.0
 41
2.0
 42
2.0
 43
2.0
 50
180.0
  0
INSERT
  5
CC
  8
回07-寸法
  6
CONTINUOUS
 62
     5
  2
_OPEN
 10
-506.4430625342732
 20
149.0715994250423
 30
0.0
 41
2.0
 42
2.0
 43
2.0
  0
TEXT
  5
CD
  8
回07-寸法
  6
CONTINUOUS
 62
     5
 10
-528.8037195828051
 20
149.7215994250423
 30
0.0
 40
3.0
  1
3.9 [0.154]
1001
ACAD
1000
MTEXTBEGIN
1070
    73
1070
     1
1070
    44
1040
1.0
1070
    74
1070
     0
1000
MTEXTEND
  0
POINT
  5
CE
  8
DEFPOINTS
  6
CONTINUOUS
 62
     0
 10
-502.5430625342732
 20
185.5196803811244
 30
0.0
  0
POINT
  5
CF
  8
DEFPOINTS
  6
CONTINUOUS
 62
     0
 10
-506.4430625342732
 20
181.0196803811243
 30
0.0
  0
POINT
  5
D0
  8
DEFPOINTS
  6
CONTINUOUS
 62
     0
 10
-506.4430625342732
 20
149.0715994250423
 30
0.0
  0
ENDBLK
  5
D1
  8
0
 62
     7
  0
BLOCK
  8
0
  2
*D303030
 70
     1
 10
0.0
 20
0.0
 30
0.0
  3
*D303030
  1

  0
LINE
  5
7A
  8
回07-寸法
  6
CONTINUOUS
 62
     5
 10
-429.9966277098356
 20
357.1196803811245
 30
0.0
 11
-414.7262300596812
 21
357.1196803811245
 31
0.0
  0
LINE
  5
7B
  8
回07-寸法
  6
CONTINUOUS
 62
     5
 10
-430.9430625342732
 20
361.9196803811245
 30
0.0
 11
-414.7262300596812
 21
361.9196803811245
 31
0.0
  0
LINE
  5
7C
  8
回07-寸法
  6
CONTINUOUS
 62
     5
 10
-415.7262300596813
 20
355.1196803811245
 30
0.0
 11
-415.7262300596813
 21
353.1196803811245
 31
0.0
  0
LINE
  5
7D
  8
回07-寸法
  6
CONTINUOUS
 62
     5
 10
-415.7262300596813
 20
363.9196803811245
 30
0.0
 11
-415.7262300596813
 21
388.1316134496664
 31
0.0
  0
LINE
  5
7E
  8
回07-寸法
  6
CONTINUOUS
 62
     5
 10
-415.7262300596813
 20
357.1196803811245
 30
0.0
 11
-415.7262300596813
 21
361.9196803811245
 31
0.0
  0
INSERT
  5
7F
  8
回07-寸法
  6
CONTINUOUS
 62
     5
  2
_OPEN
 10
-415.7262300596813
 20
357.1196803811245
 30
0.0
 41
2.0
 42
2.0
 43
2.0
 50
90.0
  0
INSERT
  5
80
  8
回07-寸法
  6
CONTINUOUS
 62
     5
  2
_OPEN
 10
-415.7262300596813
 20
361.9196803811245
 30
0.0
 41
2.0
 42
2.0
 43
2.0
 50
270.0
  0
TEXT
  5
81
  8
回07-寸法
  6
CONTINUOUS
 62
     5
 10
-416.3761701535788
 20
369.7709564011345
 30
0.0
 40
3.0
  1
4.8 [0.189]
 50
90.0
1001
ACAD
1000
MTEXTBEGIN
1070
    73
1070
     1
1070
    44
1040
1.0
1070
    74
1070
     0
1000
MTEXTEND
  0
POINT
  5
82
  8
DEFPOINTS
  6
CONTINUOUS
 62
     0
 10
-429.9966277098356
 20
357.1196803811245
 30
0.0
  0
POINT
  5
83
  8
DEFPOINTS
  6
CONTINUOUS
 62
     0
 10
-430.9430625342732
 20
361.9196803811245
 30
0.0
  0
POINT
  5
84
  8
DEFPOINTS
  6
CONTINUOUS
 62
     0
 10
-415.7262300596813
 20
361.9196803811245
 30
0.0
  0
ENDBLK
  5
85
  8
0
 62
    30
  0
BLOCK
  8
0
  2
*D313131
 70
     1
 10
0.0
 20
0.0
 30
0.0
  3
*D313131
  1

  0
LINE
  5
6A
  8
回07-寸法
  6
CONTINUOUS
 62
     5
 10
-429.9966277098356
 20
357.1196803811245
 30
0.0
 11
-408.0580373530517
 21
357.1196803811245
 31
0.0
  0
LINE
  5
6B
  8
回07-寸法
  6
CONTINUOUS
 62
     5
 10
-435.8180625342732
 20
366.8196803811245
 30
0.0
 11
-408.0580373530517
 21
366.8196803811245
 31
0.0
  0
LINE
  5
6C
  8
回07-寸法
  6
CONTINUOUS
 62
     5
 10
-409.0580373530518
 20
355.1196803811245
 30
0.0
 11
-409.0580373530518
 21
353.1196803811245
 31
0.0
  0
LINE
  5
6D
  8
回07-寸法
  6
CONTINUOUS
 62
     5
 10
-409.0580373530518
 20
368.8196803811245
 30
0.0
 11
-409.0580373530518
 21
389.6439444498363
 31
0.0
  0
LINE
  5
6E
  8
回07-寸法
  6
CONTINUOUS
 62
     5
 10
-409.0580373530518
 20
357.1196803811245
 30
0.0
 11
-409.0580373530518
 21
366.8196803811245
 31
0.0
  0
INSERT
  5
6F
  8
回07-寸法
  6
CONTINUOUS
 62
     5
  2
_OPEN
 10
-409.0580373530518
 20
357.1196803811245
 30
0.0
 41
2.0
 42
2.0
 43
2.0
 50
90.0
  0
INSERT
  5
70
  8
回07-寸法
  6
CONTINUOUS
 62
     5
  2
_OPEN
 10
-409.0580373530518
 20
366.8196803811245
 30
0.0
 41
2.0
 42
2.0
 43
2.0
 50
270.0
  0
TEXT
  5
71
  8
回07-寸法
  6
CONTINUOUS
 62
     5
 10
-409.7080373530515
 20
370.9209813098995
 30
0.0
 40
3.0
  1
9.7 [0.382]
 50
90.0
1001
ACAD
1000
MTEXTBEGIN
1070
    73
1070
     1
1070
    44
1040
1.0
1070
    74
1070
     0
1000
MTEXTEND
  0
POINT
  5
72
  8
DEFPOINTS
  6
CONTINUOUS
 62
     0
 10
-429.9966277098356
 20
357.1196803811245
 30
0.0
  0
POINT
  5
74
  8
DEFPOINTS
  6
CONTINUOUS
 62
     0
 10
-435.8180625342732
 20
366.8196803811245
 30
0.0
  0
POINT
  5
75
  8
DEFPOINTS
  6
CONTINUOUS
 62
     0
 10
-409.0580373530518
 20
366.8196803811245
 30
0.0
  0
ENDBLK
  5
76
  8
0
 62
    30
  0
BLOCK
  8
回91-枠英2
  2
*D323232
 70
     1
 10
0.0
 20
0.0
 30
0.0
  3
*D323232
  1

  0
LINE
  5
34A
  8
回07-寸法
  6
CONTINUOUS
 62
     5
 10
-439.7234886360966
 20
287.9683710122313
 30
0.0
 11
-417.7848982793126
 21
287.9683710122313
 31
0.0
  0
LINE
  5
34C
  8
回07-寸法
  6
CONTINUOUS
 62
     5
 10
-445.5449234605342
 20
297.6683710122313
 30
0.0
 11
-417.7848982793126
 21
297.6683710122313
 31
0.0
  0
LINE
  5
34D
  8
回07-寸法
  6
CONTINUOUS
 62
     5
 10
-418.7848982793128
 20
299.6683710122313
 30
0.0
 11
-418.7848982793128
 21
320.4305030465875
 31
0.0
  0
LINE
  5
34E
  8
回07-寸法
  6
CONTINUOUS
 62
     5
 10
-418.7848982793128
 20
287.9683710122313
 30
0.0
 11
-418.7848982793128
 21
297.6683710122313
 31
0.0
  0
LINE
  5
34F
  8
回07-寸法
  6
CONTINUOUS
 62
     5
 10
-418.7848982793128
 20
285.9683710122313
 30
0.0
 11
-418.7848982793128
 21
283.9683710122313
 31
0.0
  0
INSERT
  5
350
  8
回07-寸法
  6
CONTINUOUS
 62
     5
  2
_OPEN
 10
-418.7848982793128
 20
287.9683710122313
 30
0.0
 41
2.0
 42
2.0
 43
2.0
 50
90.0
  0
INSERT
  5
351
  8
回07-寸法
  6
CONTINUOUS
 62
     5
  2
_OPEN
 10
-418.7848982793128
 20
297.6683710122313
 30
0.0
 41
2.0
 42
2.0
 43
2.0
 50
270.0
  0
TEXT
  5
352
  8
回07-寸法
  6
CONTINUOUS
 62
     5
 10
-419.4348982793128
 20
301.7696719410064
 30
0.0
 40
3.0
  1
9.7 [0.382]
 50
90.0
  0
POINT
  5
353
  8
DEFPOINTS
  6
CONTINUOUS
 62
     0
 10
-439.7234886360966
 20
287.9683710122313
 30
0.0
  0
POINT
  5
354
  8
DEFPOINTS
  6
CONTINUOUS
 62
     0
 10
-445.5449234605342
 20
297.6683710122313
 30
0.0
  0
POINT
  5
355
  8
DEFPOINTS
  6
CONTINUOUS
 62
     0
 10
-418.7848982793128
 20
297.6683710122313
 30
0.0
  0
ENDBLK
  5
357
  8
回91-枠英2
  6
CONTINUOUS
 62
    30
  0
BLOCK
  8
回91-枠英2
  2
*D333333
 70
     1
 10
0.0
 20
0.0
 30
0.0
  3
*D333333
  1

  0
LINE
  5
359
  8
回07-寸法
  6
CONTINUOUS
 62
     5
 10
-439.7234886360966
 20
287.9683710122313
 30
0.0
 11
-424.4530909859425
 21
287.9683710122313
 31
0.0
  0
LINE
  5
35A
  8
回07-寸法
  6
CONTINUOUS
 62
     5
 10
-440.6699234605341
 20
292.7683710122313
 30
0.0
 11
-424.4530909859425
 21
292.7683710122313
 31
0.0
  0
LINE
  5
35B
  8
回07-寸法
  6
CONTINUOUS
 62
     5
 10
-425.4530909859425
 20
294.7683710122313
 30
0.0
 11
-425.4530909859425
 21
318.9804781378224
 31
0.0
  0
LINE
  5
35C
  8
回07-寸法
  6
CONTINUOUS
 62
     5
 10
-425.4530909859425
 20
287.9683710122313
 30
0.0
 11
-425.4530909859425
 21
292.7683710122313
 31
0.0
  0
LINE
  5
35D
  8
回07-寸法
  6
CONTINUOUS
 62
     5
 10
-425.4530909859425
 20
285.9683710122313
 30
0.0
 11
-425.4530909859425
 21
283.9683710122313
 31
0.0
  0
INSERT
  5
35E
  8
回07-寸法
  6
CONTINUOUS
 62
     5
  2
_OPEN
 10
-425.4530909859425
 20
287.9683710122313
 30
0.0
 41
2.0
 42
2.0
 43
2.0
 50
90.0
  0
INSERT
  5
35F
  8
回07-寸法
  6
CONTINUOUS
 62
     5
  2
_OPEN
 10
-425.4530909859425
 20
292.7683710122313
 30
0.0
 41
2.0
 42
2.0
 43
2.0
 50
270.0
  0
TEXT
  5
360
  8
回07-寸法
  6
CONTINUOUS
 62
     5
 10
-426.1030909859424
 20
300.6196470322415
 30
0.0
 40
3.0
  1
4.8 [0.189]
 50
90.0
  0
POINT
  5
361
  8
DEFPOINTS
  6
CONTINUOUS
 62
     0
 10
-439.7234886360966
 20
287.9683710122313
 30
0.0
  0
POINT
  5
362
  8
DEFPOINTS
  6
CONTINUOUS
 62
     0
 10
-440.6699234605341
 20
292.7683710122313
 30
0.0
  0
POINT
  5
363
  8
DEFPOINTS
  6
CONTINUOUS
 62
     0
 10
-425.4530909859425
 20
292.7683710122313
 30
0.0
  0
ENDBLK
  5
365
  8
回91-枠英2
  6
CONTINUOUS
 62
    30
  0
BLOCK
  8
回91-枠英2
  2
*D343434
 70
     1
 10
0.0
 20
0.0
 30
0.0
  3
*D343434
  1

  0
LINE
  5
367
  8
回07-寸法
  6
CONTINUOUS
 62
     5
 10
-512.2699234605343
 20
116.3683710122313
 30
0.0
 11
-512.2699234605343
 21
78.92029005614933
 31
0.0
  0
LINE
  5
369
  8
回07-寸法
  6
CONTINUOUS
 62
     5
 10
-516.1699234605341
 20
111.8683710122313
 30
0.0
 11
-516.1699234605341
 21
78.92029005614933
 31
0.0
  0
LINE
  5
36A
  8
回07-寸法
  6
CONTINUOUS
 62
     5
 10
-518.1699234605344
 20
79.92029005614933
 30
0.0
 11
-538.5807545661151
 21
79.92029005614933
 31
0.0
  0
LINE
  5
36B
  8
回07-寸法
  6
CONTINUOUS
 62
     5
 10
-512.2699234605343
 20
79.92029005614933
 30
0.0
 11
-516.1699234605341
 21
79.92029005614933
 31
0.0
  0
LINE
  5
36C
  8
回07-寸法
  6
CONTINUOUS
 62
     5
 10
-510.2699234605343
 20
79.92029005614933
 30
0.0
 11
-508.2699234605343
 21
79.92029005614933
 31
0.0
  0
INSERT
  5
36D
  8
回07-寸法
  6
CONTINUOUS
 62
     5
  2
_OPEN
 10
-512.2699234605343
 20
79.92029005614933
 30
0.0
 41
2.0
 42
2.0
 43
2.0
 50
180.0
  0
INSERT
  5
36E
  8
回07-寸法
  6
CONTINUOUS
 62
     5
  2
_OPEN
 10
-516.1699234605341
 20
79.92029005614933
 30
0.0
 41
2.0
 42
2.0
 43
2.0
  0
TEXT
  5
36F
  8
回07-寸法
  6
CONTINUOUS
 62
     5
 10
-538.5307545661153
 20
80.57029005614934
 30
0.0
 40
3.0
  1
3.9 [0.154]
  0
POINT
  5
370
  8
DEFPOINTS
  6
CONTINUOUS
 62
     0
 10
-512.2699234605343
 20
116.3683710122313
 30
0.0
  0
POINT
  5
371
  8
DEFPOINTS
  6
CONTINUOUS
 62
     0
 10
-516.1699234605341
 20
111.8683710122313
 30
0.0
  0
POINT
  5
372
  8
DEFPOINTS
  6
CONTINUOUS
 62
     0
 10
-516.1699234605341
 20
79.92029005614933
 30
0.0
  0
ENDBLK
  5
374
  8
回91-枠英2
  6
CONTINUOUS
 62
    30
  0
BLOCK
  8
回91-枠英2
  2
*D353535
 70
     1
 10
0.0
 20
0.0
 30
0.0
  3
*D353535
  1

  0
LINE
  5
376
  8
回07-寸法
  6
CONTINUOUS
 62
     5
 10
-512.2699234605343
 20
116.3683710122313
 30
0.0
 11
-512.2699234605343
 21
78.92029005614933
 31
0.0
  0
LINE
  5
377
  8
回07-寸法
  6
CONTINUOUS
 62
     5
 10
-297.0699234605344
 20
116.3683710122313
 30
0.0
 11
-297.0699234605344
 21
78.92029005614933
 31
0.0
  0
LINE
  5
378
  8
回07-寸法
  6
CONTINUOUS
 62
     5
 10
-510.2699234605343
 20
79.92029005614933
 30
0.0
 11
-299.0699234605344
 21
79.92029005614933
 31
0.0
  0
INSERT
  5
379
  8
回07-寸法
  6
CONTINUOUS
 62
     5
  2
_OPEN
 10
-512.2699234605343
 20
79.92029005614933
 30
0.0
 41
2.0
 42
2.0
 43
2.0
 50
180.0
  0
INSERT
  5
37A
  8
回07-寸法
  6
CONTINUOUS
 62
     5
  2
_OPEN
 10
-297.0699234605344
 20
79.92029005614933
 30
0.0
 41
2.0
 42
2.0
 43
2.0
  0
TEXT
  5
37B
  8
回07-寸法
  6
CONTINUOUS
 62
     5
 10
-415.9199234605343
 20
80.57029005614934
 30
0.0
 40
3.0
  1
215.2 [8.472]
  0
POINT
  5
37C
  8
DEFPOINTS
  6
CONTINUOUS
 62
     0
 10
-512.2699234605343
 20
116.3683710122313
 30
0.0
  0
POINT
  5
37D
  8
DEFPOINTS
  6
CONTINUOUS
 62
     0
 10
-297.0699234605344
 20
116.3683710122313
 30
0.0
  0
POINT
  5
37E
  8
DEFPOINTS
  6
CONTINUOUS
 62
     0
 10
-297.0699234605344
 20
79.92029005614933
 30
0.0
  0
ENDBLK
  5
380
  8
回91-枠英2
  6
CONTINUOUS
 62
    30
  0
BLOCK
  8
回91-枠英2
  2
*D363636
 70
     1
 10
0.0
 20
0.0
 30
0.0
  3
*D363636
  1

  0
LINE
  5
382
  8
回07-寸法
  6
CONTINUOUS
 62
     5
 10
-512.2699234605343
 20
116.3683710122313
 30
0.0
 11
-561.4801927849594
 21
116.3683710122313
 31
0.0
  0
LINE
  5
383
  8
回07-寸法
  6
CONTINUOUS
 62
     5
 10
-516.1699234605341
 20
111.8683710122313
 30
0.0
 11
-561.4801927849594
 21
111.8683710122313
 31
0.0
  0
LINE
  5
384
  8
回07-寸法
  6
CONTINUOUS
 62
     5
 10
-560.4801927849591
 20
109.8683710122313
 30
0.0
 11
-560.4801927849591
 21
89.46837101223122
 31
0.0
  0
LINE
  5
385
  8
回07-寸法
  6
CONTINUOUS
 62
     5
 10
-560.4801927849591
 20
116.3683710122313
 30
0.0
 11
-560.4801927849591
 21
111.8683710122313
 31
0.0
  0
LINE
  5
386
  8
回07-寸法
  6
CONTINUOUS
 62
     5
 10
-560.4801927849591
 20
118.3683710122313
 30
0.0
 11
-560.4801927849591
 21
120.3683710122313
 31
0.0
  0
INSERT
  5
387
  8
回07-寸法
  6
CONTINUOUS
 62
     5
  2
_OPEN
 10
-560.4801927849591
 20
116.3683710122313
 30
0.0
 41
2.0
 42
2.0
 43
2.0
 50
270.0
  0
INSERT
  5
388
  8
回07-寸法
  6
CONTINUOUS
 62
     5
  2
_OPEN
 10
-560.4801927849591
 20
111.8683710122313
 30
0.0
 41
2.0
 42
2.0
 43
2.0
 50
90.0
  0
TEXT
  5
389
  8
回07-寸法
  6
CONTINUOUS
 62
     5
 10
-561.1301927849593
 20
89.51837101223111
 30
0.0
 40
3.0
  1
4.5 [0.177]
 50
90.0
  0
POINT
  5
38A
  8
DEFPOINTS
  6
CONTINUOUS
 62
     0
 10
-512.2699234605343
 20
116.3683710122313
 30
0.0
  0
POINT
  5
38B
  8
DEFPOINTS
  6
CONTINUOUS
 62
     0
 10
-516.1699234605341
 20
111.8683710122313
 30
0.0
  0
POINT
  5
38C
  8
DEFPOINTS
  6
CONTINUOUS
 62
     0
 10
-560.4801927849591
 20
111.8683710122313
 30
0.0
  0
ENDBLK
  5
38E
  8
回91-枠英2
  6
CONTINUOUS
 62
    30
  0
BLOCK
  8
回91-枠英2
  2
*D373737
 70
     1
 10
0.0
 20
0.0
 30
0.0
  3
*D373737
  1

  0
LINE
  5
390
  8
回07-寸法
  6
CONTINUOUS
 62
     5
 10
-512.2699234605343
 20
280.7683710122313
 30
0.0
 11
-561.4801927849594
 21
280.7683710122313
 31
0.0
  0
LINE
  5
391
  8
回07-寸法
  6
CONTINUOUS
 62
     5
 10
-512.2699234605343
 20
116.3683710122313
 30
0.0
 11
-561.4801927849594
 21
116.3683710122313
 31
0.0
  0
LINE
  5
392
  8
回07-寸法
  6
CONTINUOUS
 62
     5
 10
-560.4801927849591
 20
278.7683710122313
 30
0.0
 11
-560.4801927849591
 21
118.3683710122313
 31
0.0
  0
INSERT
  5
393
  8
回07-寸法
  6
CONTINUOUS
 62
     5
  2
_OPEN
 10
-560.4801927849591
 20
280.7683710122313
 30
0.0
 41
2.0
 42
2.0
 43
2.0
 50
90.0
  0
INSERT
  5
394
  8
回07-寸法
  6
CONTINUOUS
 62
     5
  2
_OPEN
 10
-560.4801927849591
 20
116.3683710122313
 30
0.0
 41
2.0
 42
2.0
 43
2.0
 50
270.0
  0
TEXT
  5
395
  8
回07-寸法
  6
CONTINUOUS
 62
     5
 10
-561.1301927849593
 20
187.0183710122311
 30
0.0
 40
3.0
  1
164.4 [6.472]
 50
90.0
  0
POINT
  5
396
  8
DEFPOINTS
  6
CONTINUOUS
 62
     0
 10
-512.2699234605343
 20
280.7683710122313
 30
0.0
  0
POINT
  5
397
  8
DEFPOINTS
  6
CONTINUOUS
 62
     0
 10
-512.2699234605343
 20
116.3683710122313
 30
0.0
  0
POINT
  5
398
  8
DEFPOINTS
  6
CONTINUOUS
 62
     0
 10
-560.4801927849591
 20
116.3683710122313
 30
0.0
  0
ENDBLK
  5
39A
  8
回91-枠英2
  6
CONTINUOUS
 62
    30
  0
BLOCK
  8
回91-枠英2
  2
*D383838
 70
     1
 10
0.0
 20
0.0
 30
0.0
  3
*D383838
  1

  0
LINE
  5
39C
  8
回07-寸法
  6
CONTINUOUS
 62
     5
 10
-516.1699234605341
 20
152.8683710122313
 30
0.0
 11
-522.4767972228119
 21
152.8683710122313
 31
0.0
  0
LINE
  5
39D
  8
回07-寸法
  6
CONTINUOUS
 62
     5
 10
-516.1699234605341
 20
154.8683710122313
 30
0.0
 11
-522.4767972228119
 21
154.8683710122313
 31
0.0
  0
LINE
  5
39E
  8
回07-寸法
  6
CONTINUOUS
 62
     5
 10
-521.4767972228119
 20
156.8683710122313
 30
0.0
 11
-521.4767972228119
 21
176.9768399130877
 31
0.0
  0
LINE
  5
39F
  8
回07-寸法
  6
CONTINUOUS
 62
     5
 10
-521.4767972228119
 20
152.8683710122313
 30
0.0
 11
-521.4767972228119
 21
154.8683710122313
 31
0.0
  0
LINE
  5
3A0
  8
回07-寸法
  6
CONTINUOUS
 62
     5
 10
-521.4767972228119
 20
150.8683710122313
 30
0.0
 11
-521.4767972228119
 21
148.8683710122313
 31
0.0
  0
INSERT
  5
3A1
  8
回07-寸法
  6
CONTINUOUS
 62
     5
  2
_OPEN
 10
-521.4767972228119
 20
152.8683710122313
 30
0.0
 41
2.0
 42
2.0
 43
2.0
 50
90.0
  0
INSERT
  5
3A2
  8
回07-寸法
  6
CONTINUOUS
 62
     5
  2
_OPEN
 10
-521.4767972228119
 20
154.8683710122313
 30
0.0
 41
2.0
 42
2.0
 43
2.0
 50
270.0
  0
TEXT
  5
3A3
  8
回07-寸法
  6
CONTINUOUS
 62
     5
 10
-522.1267972228116
 20
158.9171899098691
 30
0.0
 40
3.0
  1
(2 [0.079])
 50
90.0
  0
POINT
  5
3A4
  8
DEFPOINTS
  6
CONTINUOUS
 62
     0
 10
-516.1699234605341
 20
152.8683710122313
 30
0.0
  0
POINT
  5
3A5
  8
DEFPOINTS
  6
CONTINUOUS
 62
     0
 10
-516.1699234605341
 20
154.8683710122313
 30
0.0
  0
POINT
  5
3A6
  8
DEFPOINTS
  6
CONTINUOUS
 62
     0
 10
-521.4767972228119
 20
154.8683710122313
 30
0.0
  0
ENDBLK
  5
3A8
  8
回91-枠英2
  6
CONTINUOUS
 62
    30
  0
BLOCK
  8
回91-枠英2
  2
*D393939
 70
     1
 10
0.0
 20
0.0
 30
0.0
  3
*D393939
  1

  0
LINE
  5
3AA
  8
回07-寸法
  6
CONTINUOUS
 62
     5
 10
-516.1699234605341
 20
152.8683710122313
 30
0.0
 11
-522.4767972228116
 21
152.8683710122313
 31
0.0
  0
LINE
  5
3AB
  8
回07-寸法
  6
CONTINUOUS
 62
     5
 10
-516.1699234605341
 20
111.8683710122313
 30
0.0
 11
-522.4767972228116
 21
111.8683710122313
 31
0.0
  0
LINE
  5
3AC
  8
回07-寸法
  6
CONTINUOUS
 62
     5
 10
-521.4767972228116
 20
150.8683710122313
 30
0.0
 11
-521.4767972228116
 21
113.8683710122313
 31
0.0
  0
INSERT
  5
3AD
  8
回07-寸法
  6
CONTINUOUS
 62
     5
  2
_OPEN
 10
-521.4767972228116
 20
152.8683710122313
 30
0.0
 41
2.0
 42
2.0
 43
2.0
 50
90.0
  0
INSERT
  5
3AE
  8
回07-寸法
  6
CONTINUOUS
 62
     5
  2
_OPEN
 10
-521.4767972228116
 20
111.8683710122313
 30
0.0
 41
2.0
 42
2.0
 43
2.0
 50
270.0
  0
TEXT
  5
3AF
  8
回07-寸法
  6
CONTINUOUS
 62
     5
 10
-522.1267972228116
 20
122.9183710122313
 30
0.0
 40
3.0
  1
(41 [1.614])
 50
90.0
  0
POINT
  5
3B0
  8
DEFPOINTS
  6
CONTINUOUS
 62
     0
 10
-516.1699234605341
 20
152.8683710122313
 30
0.0
  0
POINT
  5
3B1
  8
DEFPOINTS
  6
CONTINUOUS
 62
     0
 10
-516.1699234605341
 20
111.8683710122313
 30
0.0
  0
POINT
  5
3B2
  8
DEFPOINTS
  6
CONTINUOUS
 62
     0
 10
-521.4767972228116
 20
111.8683710122313
 30
0.0
  0
ENDBLK
  5
3B4
  8
回91-枠英2
  6
CONTINUOUS
 62
    30
  0
BLOCK
  8
回91-枠英2
  2
*D404040
 70
     1
 10
0.0
 20
0.0
 30
0.0
  3
*D404040
  1

  0
LINE
  5
3B6
  8
回08-記事
  6
CONTINUOUS
 62
     5
 10
-351.0407264303328
 20
344.8229325073942
 30
0.0
 11
-351.0407264303328
 21
351.5816808971729
 31
0.0
  0
LINE
  5
3B7
  8
回08-記事
  6
CONTINUOUS
 62
     5
 10
-353.4407264303325
 20
344.8229325073942
 30
0.0
 11
-353.4407264303325
 21
351.5816808971729
 31
0.0
  0
LINE
  5
3B8
  8
回08-記事
  6
CONTINUOUS
 62
     5
 10
-355.4407264303325
 20
350.5816808971729
 30
0.0
 11
-395.5407874303324
 21
350.5816808971729
 31
0.0
  0
LINE
  5
3B9
  8
回08-記事
  6
CONTINUOUS
 62
     5
 10
-351.0407264303328
 20
350.5816808971729
 30
0.0
 11
-353.4407264303325
 21
350.5816808971729
 31
0.0
  0
LINE
  5
3BA
  8
回08-記事
  6
CONTINUOUS
 62
     5
 10
-349.0407264303328
 20
350.5816808971729
 30
0.0
 11
-347.0407264303328
 21
350.5816808971729
 31
0.0
  0
INSERT
  5
3BB
  8
回08-記事
  6
CONTINUOUS
 62
     5
  2
_OPEN
 10
-351.0407264303328
 20
350.5816808971729
 30
0.0
 41
2.0
 42
2.0
 43
2.0
 50
180.0
  0
INSERT
  5
3BC
  8
回08-記事
  6
CONTINUOUS
 62
     5
  2
_OPEN
 10
-353.4407264303325
 20
350.5816808971729
 30
0.0
 41
2.0
 42
2.0
 43
2.0
  0
INSERT
  5
3BD
  8
回08-記事
  6
CONTINUOUS
 62
     5
 66
     1
  2
*X949494
 10
0.0
 20
0.0
 30
0.0
  0
SEQEND
  5
663
  8
回91-枠英2
  6
CONTINUOUS
 62
    30
  0
POINT
  5
3BE
  8
DEFPOINTS
  6
CONTINUOUS
 62
     0
 10
-351.0407264303328
 20
344.8229325073942
 30
0.0
  0
POINT
  5
3BF
  8
DEFPOINTS
  6
CONTINUOUS
 62
     0
 10
-353.4407264303325
 20
344.8229325073942
 30
0.0
  0
POINT
  5
3C0
  8
DEFPOINTS
  6
CONTINUOUS
 62
     0
 10
-353.4407264303325
 20
350.5816808971729
 30
0.0
  0
ENDBLK
  5
3C2
  8
回91-枠英2
  6
CONTINUOUS
 62
    30
  0
BLOCK
  8
回91-枠英2
  2
*D414141
 70
     1
 10
0.0
 20
0.0
 30
0.0
  3
*D414141
  1

  0
LINE
  5
3C4
  8
回08-記事
  6
CONTINUOUS
 62
     5
 10
-348.4907264303326
 20
344.8229325073942
 30
0.0
 11
-348.4907264303326
 21
357.9853351306998
 31
0.0
  0
LINE
  5
3C5
  8
回08-記事
  6
CONTINUOUS
 62
     5
 10
-352.2407264303327
 20
344.8229325073942
 30
0.0
 11
-352.2407264303327
 21
357.9853351306998
 31
0.0
  0
LINE
  5
3C6
  8
回08-記事
  6
CONTINUOUS
 62
     5
 10
-354.2407264303327
 20
356.9853351306999
 30
0.0
 11
-389.322515181173
 21
356.9853351306999
 31
0.0
  0
LINE
  5
3C7
  8
回08-記事
  6
CONTINUOUS
 62
     5
 10
-348.4907264303326
 20
356.9853351306999
 30
0.0
 11
-352.2407264303327
 21
356.9853351306999
 31
0.0
  0
LINE
  5
3C8
  8
回08-記事
  6
CONTINUOUS
 62
     5
 10
-346.4907264303326
 20
356.9853351306999
 30
0.0
 11
-344.4907264303326
 21
356.9853351306999
 31
0.0
  0
INSERT
  5
3C9
  8
回08-記事
  6
CONTINUOUS
 62
     5
  2
_OPEN
 10
-348.4907264303326
 20
356.9853351306999
 30
0.0
 41
2.0
 42
2.0
 43
2.0
 50
180.0
  0
INSERT
  5
3CA
  8
回08-記事
  6
CONTINUOUS
 62
     5
  2
_OPEN
 10
-352.2407264303327
 20
356.9853351306999
 30
0.0
 41
2.0
 42
2.0
 43
2.0
  0
INSERT
  5
3CB
  8
回08-記事
  6
CONTINUOUS
 62
     5
 66
     1
  2
*X959595
 10
0.0
 20
0.0
 30
0.0
  0
SEQEND
  5
66C
  8
回91-枠英2
  6
CONTINUOUS
 62
    30
  0
POINT
  5
3CC
  8
DEFPOINTS
  6
CONTINUOUS
 62
     0
 10
-348.4907264303326
 20
344.8229325073942
 30
0.0
  0
POINT
  5
3CD
  8
DEFPOINTS
  6
CONTINUOUS
 62
     0
 10
-352.2407264303327
 20
344.8229325073942
 30
0.0
  0
POINT
  5
3CE
  8
DEFPOINTS
  6
CONTINUOUS
 62
     0
 10
-352.2407264303327
 20
356.9853351306999
 30
0.0
  0
ENDBLK
  5
3D0
  8
回91-枠英2
  6
CONTINUOUS
 62
    30
  0
BLOCK
  8
回91-枠英2
  2
*D424242
 70
     1
 10
0.0
 20
0.0
 30
0.0
  3
*D424242
  1

  0
LINE
  5
3D2
  8
回08-記事
  6
CONTINUOUS
 62
     5
 10
-340.9907264303326
 20
344.8229325073942
 30
0.0
 11
-340.9907264303326
 21
363.7163615779332
 31
0.0
  0
LINE
  5
3D3
  8
回08-記事
  6
CONTINUOUS
 62
     5
 10
-352.2407264303327
 20
344.8229325073942
 30
0.0
 11
-352.2407264303327
 21
363.7163615779332
 31
0.0
  0
LINE
  5
3D4
  8
回08-記事
  6
CONTINUOUS
 62
     5
 10
-354.2407264303327
 20
362.7163615779332
 30
0.0
 11
-388.7623578522702
 21
362.7163615779332
 31
0.0
  0
LINE
  5
3D5
  8
回08-記事
  6
CONTINUOUS
 62
     5
 10
-340.9907264303326
 20
362.7163615779332
 30
0.0
 11
-352.2407264303327
 21
362.7163615779332
 31
0.0
  0
LINE
  5
3D6
  8
回08-記事
  6
CONTINUOUS
 62
     5
 10
-338.9907264303326
 20
362.7163615779332
 30
0.0
 11
-336.9907264303326
 21
362.7163615779332
 31
0.0
  0
INSERT
  5
3D7
  8
回08-記事
  6
CONTINUOUS
 62
     5
  2
_OPEN
 10
-340.9907264303326
 20
362.7163615779332
 30
0.0
 41
2.0
 42
2.0
 43
2.0
 50
180.0
  0
INSERT
  5
3D8
  8
回08-記事
  6
CONTINUOUS
 62
     5
  2
_OPEN
 10
-352.2407264303327
 20
362.7163615779332
 30
0.0
 41
2.0
 42
2.0
 43
2.0
  0
INSERT
  5
3D9
  8
回08-記事
  6
CONTINUOUS
 62
     5
 66
     1
  2
*X969696
 10
0.0
 20
0.0
 30
0.0
  0
SEQEND
  5
675
  8
回91-枠英2
  6
CONTINUOUS
 62
    30
  0
POINT
  5
3DA
  8
DEFPOINTS
  6
CONTINUOUS
 62
     0
 10
-340.9907264303326
 20
344.8229325073942
 30
0.0
  0
POINT
  5
3DB
  8
DEFPOINTS
  6
CONTINUOUS
 62
     0
 10
-352.2407264303327
 20
344.8229325073942
 30
0.0
  0
POINT
  5
3DC
  8
DEFPOINTS
  6
CONTINUOUS
 62
     0
 10
-352.2407264303327
 20
362.7163615779332
 30
0.0
  0
ENDBLK
  5
3DE
  8
回91-枠英2
  6
CONTINUOUS
 62
    30
  0
BLOCK
  8
回91-枠英2
  2
*D434343
 70
     1
 10
0.0
 20
0.0
 30
0.0
  3
*D434343
  1

  0
LINE
  5
3E0
  8
回08-記事
  6
CONTINUOUS
 62
     5
 10
-259.533918189599
 20
347.9683710122313
 30
0.0
 11
-266.3557127340902
 21
347.9683710122313
 31
0.0
  0
LINE
  5
3E2
  8
回08-記事
  6
CONTINUOUS
 62
     5
 10
-260.2976558967394
 20
342.9683710122313
 30
0.0
 11
-266.3557127340902
 21
342.9683710122313
 31
0.0
  0
LINE
  5
3E3
  8
回08-記事
  6
CONTINUOUS
 62
     5
 10
-265.3557127340901
 20
340.9683710122313
 30
0.0
 11
-265.3557127340901
 21
323.8575399066503
 31
0.0
  0
LINE
  5
3E4
  8
回08-記事
  6
CONTINUOUS
 62
     5
 10
-265.3557127340901
 20
347.9683710122313
 30
0.0
 11
-265.3557127340901
 21
342.9683710122313
 31
0.0
  0
LINE
  5
3E5
  8
回08-記事
  6
CONTINUOUS
 62
     5
 10
-265.3557127340901
 20
349.9683710122313
 30
0.0
 11
-265.3557127340901
 21
351.9683710122313
 31
0.0
  0
INSERT
  5
3E6
  8
回08-記事
  6
CONTINUOUS
 62
     5
  2
_OPEN
 10
-265.3557127340901
 20
347.9683710122313
 30
0.0
 41
2.0
 42
2.0
 43
2.0
 50
270.0
  0
INSERT
  5
3E7
  8
回08-記事
  6
CONTINUOUS
 62
     5
  2
_OPEN
 10
-265.3557127340901
 20
342.9683710122313
 30
0.0
 41
2.0
 42
2.0
 43
2.0
 50
90.0
  0
TEXT
  5
3E8
  8
回08-記事
  6
CONTINUOUS
 62
     5
 10
-266.0057127340901
 20
323.9075399066503
 30
0.0
 40
3.0
  1
5 [0.197]
 50
90.0
  0
POINT
  5
3E9
  8
DEFPOINTS
  6
CONTINUOUS
 62
     0
 10
-259.533918189599
 20
347.9683710122313
 30
0.0
  0
POINT
  5
3EA
  8
DEFPOINTS
  6
CONTINUOUS
 62
     0
 10
-260.2976558967394
 20
342.9683710122313
 30
0.0
  0
POINT
  5
3EB
  8
DEFPOINTS
  6
CONTINUOUS
 62
     0
 10
-265.3557127340901
 20
342.9683710122313
 30
0.0
  0
ENDBLK
  5
3ED
  8
回91-枠英2
  6
CONTINUOUS
 62
    30
  0
BLOCK
  8
回91-枠英2
  2
*D444444
 70
     1
 10
0.0
 20
0.0
 30
0.0
  3
*D444444
  1

  0
LINE
  5
3EF
  8
回08-記事
  6
CONTINUOUS
 62
     5
 10
-256.9197667864564
 20
347.9683710122313
 30
0.0
 11
-226.5937417108265
 21
347.9683710122313
 31
0.0
  0
LINE
  5
3F0
  8
回08-記事
  6
CONTINUOUS
 62
     5
 10
-256.9197667864564
 20
337.9683710122313
 30
0.0
 11
-226.5937417108265
 21
337.9683710122313
 31
0.0
  0
LINE
  5
3F1
  8
回08-記事
  6
CONTINUOUS
 62
     5
 10
-227.5937417108265
 20
335.9683710122313
 30
0.0
 11
-227.5937417108265
 21
314.0599021113748
 31
0.0
  0
LINE
  5
3F2
  8
回08-記事
  6
CONTINUOUS
 62
     5
 10
-227.5937417108265
 20
347.9683710122313
 30
0.0
 11
-227.5937417108265
 21
337.9683710122313
 31
0.0
  0
LINE
  5
3F3
  8
回08-記事
  6
CONTINUOUS
 62
     5
 10
-227.5937417108265
 20
349.9683710122313
 30
0.0
 11
-227.5937417108265
 21
351.9683710122313
 31
0.0
  0
INSERT
  5
3F4
  8
回08-記事
  6
CONTINUOUS
 62
     5
  2
_OPEN
 10
-227.5937417108265
 20
347.9683710122313
 30
0.0
 41
2.0
 42
2.0
 43
2.0
 50
270.0
  0
INSERT
  5
3F5
  8
回08-記事
  6
CONTINUOUS
 62
     5
  2
_OPEN
 10
-227.5937417108265
 20
337.9683710122313
 30
0.0
 41
2.0
 42
2.0
 43
2.0
 50
90.0
  0
TEXT
  5
3F6
  8
回08-記事
  6
CONTINUOUS
 62
     5
 10
-228.2437417108265
 20
314.1087210090126
 30
0.0
 40
3.0
  1
(10 [0.394])
 50
90.0
  0
POINT
  5
3F7
  8
DEFPOINTS
  6
CONTINUOUS
 62
     0
 10
-256.9197667864564
 20
347.9683710122313
 30
0.0
  0
POINT
  5
3F8
  8
DEFPOINTS
  6
CONTINUOUS
 62
     0
 10
-256.9197667864564
 20
337.9683710122313
 30
0.0
  0
POINT
  5
3F9
  8
DEFPOINTS
  6
CONTINUOUS
 62
     0
 10
-227.5937417108265
 20
337.9683710122313
 30
0.0
  0
ENDBLK
  5
3FB
  8
回91-枠英2
  6
CONTINUOUS
 62
    30
  0
BLOCK
  8
回91-枠英2
  2
*D454545
 70
     1
 10
0.0
 20
0.0
 30
0.0
  3
*D454545
  1

  0
LINE
  5
3FD
  8
回08-記事
  6
CONTINUOUS
 62
     5
 10
-259.533918189599
 20
347.9683710122313
 30
0.0
 11
-259.533918189599
 21
355.9352888430279
 31
0.0
  0
LINE
  5
3FE
  8
回08-記事
  6
CONTINUOUS
 62
     5
 10
-256.9197667864564
 20
347.9683710122313
 30
0.0
 11
-256.9197667864564
 21
355.9352888430279
 31
0.0
  0
LINE
  5
3FF
  8
回08-記事
  6
CONTINUOUS
 62
     5
 10
-254.9197667864564
 20
354.9352888430279
 30
0.0
 11
-222.817056581732
 21
354.9352888430279
 31
0.0
  0
LINE
  5
400
  8
回08-記事
  6
CONTINUOUS
 62
     5
 10
-259.533918189599
 20
354.9352888430279
 30
0.0
 11
-256.9197667864564
 21
354.9352888430279
 31
0.0
  0
LINE
  5
401
  8
回08-記事
  6
CONTINUOUS
 62
     5
 10
-261.533918189599
 20
354.9352888430279
 30
0.0
 11
-263.533918189599
 21
354.9352888430279
 31
0.0
  0
INSERT
  5
402
  8
回08-記事
  6
CONTINUOUS
 62
     5
  2
_OPEN
 10
-259.533918189599
 20
354.9352888430279
 30
0.0
 41
2.0
 42
2.0
 43
2.0
  0
INSERT
  5
403
  8
回08-記事
  6
CONTINUOUS
 62
     5
  2
_OPEN
 10
-256.9197667864564
 20
354.9352888430279
 30
0.0
 41
2.0
 42
2.0
 43
2.0
 50
180.0
  0
INSERT
  5
404
  8
回08-記事
  6
CONTINUOUS
 62
     5
 66
     1
  2
*X979797
 10
0.0
 20
0.0
 30
0.0
  0
SEQEND
  5
67E
  8
回91-枠英2
  6
CONTINUOUS
 62
    30
  0
POINT
  5
405
  8
DEFPOINTS
  6
CONTINUOUS
 62
     0
 10
-259.533918189599
 20
347.9683710122313
 30
0.0
  0
POINT
  5
406
  8
DEFPOINTS
  6
CONTINUOUS
 62
     0
 10
-256.9197667864564
 20
347.9683710122313
 30
0.0
  0
POINT
  5
407
  8
DEFPOINTS
  6
CONTINUOUS
 62
     0
 10
-256.9197667864564
 20
354.9352888430279
 30
0.0
  0
ENDBLK
  5
409
  8
回91-枠英2
  6
CONTINUOUS
 62
    30
  0
BLOCK
  8
回91-枠英2
  2
*D464646
 70
     1
 10
0.0
 20
0.0
 30
0.0
  3
*D464646
  1

  0
LINE
  5
40B
  8
回08-記事
  6
CONTINUOUS
 62
     5
 10
-261.533918189599
 20
112.1683710122313
 30
0.0
 11
-261.533918189599
 21
100.0558370207689
 31
0.0
  0
LINE
  5
40C
  8
回08-記事
  6
CONTINUOUS
 62
     5
 10
-254.833918189599
 20
111.8683710122313
 30
0.0
 11
-254.833918189599
 21
100.0558370207689
 31
0.0
  0
LINE
  5
40D
  8
回08-記事
  6
CONTINUOUS
 62
     5
 10
-252.833918189599
 20
101.0558370207689
 30
0.0
 11
-222.133640189599
 21
101.0558370207689
 31
0.0
  0
LINE
  5
40E
  8
回08-記事
  6
CONTINUOUS
 62
     5
 10
-261.533918189599
 20
101.0558370207689
 30
0.0
 11
-254.833918189599
 21
101.0558370207689
 31
0.0
  0
LINE
  5
40F
  8
回08-記事
  6
CONTINUOUS
 62
     5
 10
-263.533918189599
 20
101.0558370207689
 30
0.0
 11
-265.533918189599
 21
101.0558370207689
 31
0.0
  0
INSERT
  5
410
  8
回08-記事
  6
CONTINUOUS
 62
     5
  2
_OPEN
 10
-261.533918189599
 20
101.0558370207689
 30
0.0
 41
2.0
 42
2.0
 43
2.0
  0
INSERT
  5
411
  8
回08-記事
  6
CONTINUOUS
 62
     5
  2
_OPEN
 10
-254.833918189599
 20
101.0558370207689
 30
0.0
 41
2.0
 42
2.0
 43
2.0
 50
180.0
  0
INSERT
  5
412
  8
回08-記事
  6
CONTINUOUS
 62
     5
 66
     1
  2
*X989898
 10
0.0
 20
0.0
 30
0.0
  0
SEQEND
  5
687
  8
回91-枠英2
  6
CONTINUOUS
 62
    30
  0
POINT
  5
413
  8
DEFPOINTS
  6
CONTINUOUS
 62
     0
 10
-261.533918189599
 20
112.1683710122313
 30
0.0
  0
POINT
  5
414
  8
DEFPOINTS
  6
CONTINUOUS
 62
     0
 10
-254.833918189599
 20
111.8683710122313
 30
0.0
  0
POINT
  5
415
  8
DEFPOINTS
  6
CONTINUOUS
 62
     0
 10
-254.833918189599
 20
101.0558370207689
 30
0.0
  0
ENDBLK
  5
417
  8
回91-枠英2
  6
CONTINUOUS
 62
    30
  0
BLOCK
  8
回91-枠英2
  2
*D474747
 70
     1
 10
0.0
 20
0.0
 30
0.0
  3
*D474747
  1

  0
LINE
  5
419
  8
回07-寸法
  6
CONTINUOUS
 62
     5
 10
-440.6711264948062
 20
292.3603009205972
 30
0.0
 11
-440.6711264948062
 21
308.3265646433918
 31
0.0
  0
LINE
  5
41A
  8
回07-寸法
  6
CONTINUOUS
 62
     5
 10
-456.6699234605346
 20
292.3561273348909
 30
0.0
 11
-456.6699234605346
 21
308.3265646433918
 31
0.0
  0
LINE
  5
41B
  8
回07-寸法
  6
CONTINUOUS
 62
     5
 10
-458.6699234605346
 20
307.3265646433918
 30
0.0
 11
-477.8699234605347
 21
307.3265646433918
 31
0.0
  0
LINE
  5
41C
  8
回07-寸法
  6
CONTINUOUS
 62
     5
 10
-440.6711264948062
 20
307.3265646433918
 30
0.0
 11
-456.6699234605346
 21
307.3265646433918
 31
0.0
  0
LINE
  5
41D
  8
回07-寸法
  6
CONTINUOUS
 62
     5
 10
-438.6711264948062
 20
307.3265646433918
 30
0.0
 11
-436.6711264948062
 21
307.3265646433918
 31
0.0
  0
INSERT
  5
41E
  8
回07-寸法
  6
CONTINUOUS
 62
     5
  2
_OPEN
 10
-440.6711264948062
 20
307.3265646433918
 30
0.0
 41
2.0
 42
2.0
 43
2.0
 50
180.0
  0
INSERT
  5
41F
  8
回07-寸法
  6
CONTINUOUS
 62
     5
  2
_OPEN
 10
-456.6699234605346
 20
307.3265646433918
 30
0.0
 41
2.0
 42
2.0
 43
2.0
  0
TEXT
  5
420
  8
回07-寸法
  6
CONTINUOUS
 62
     5
 10
-477.8199234605345
 20
307.9765646433918
 30
0.0
 40
3.0
  1
16 [0.630]
  0
POINT
  5
421
  8
DEFPOINTS
  6
CONTINUOUS
 62
     0
 10
-440.6711264948062
 20
292.3603009205972
 30
0.0
  0
POINT
  5
422
  8
DEFPOINTS
  6
CONTINUOUS
 62
     0
 10
-456.6699234605346
 20
292.3561273348909
 30
0.0
  0
POINT
  5
423
  8
DEFPOINTS
  6
CONTINUOUS
 62
     0
 10
-456.6699234605346
 20
307.3265646433918
 30
0.0
  0
ENDBLK
  5
425
  8
回91-枠英2
  6
CONTINUOUS
 62
    30
  0
BLOCK
  8
回91-枠英2
  2
*D484848
 70
     1
 10
0.0
 20
0.0
 30
0.0
  3
*D484848
  1

  0
LINE
  5
427
  8
回07-寸法
  6
CONTINUOUS
 62
     5
 10
-446.7949234605343
 20
347.9683710122313
 30
0.0
 11
-401.7160708581683
 21
347.9683710122313
 31
0.0
  0
LINE
  5
428
  8
回07-寸法
  6
CONTINUOUS
 62
     5
 10
-439.7234886360968
 20
287.9683710122313
 30
0.0
 11
-401.7160708581683
 21
287.9683710122313
 31
0.0
  0
LINE
  5
429
  8
回07-寸法
  6
CONTINUOUS
 62
     5
 10
-402.7160708581684
 20
345.9683710122313
 30
0.0
 11
-402.7160708581684
 21
289.9683710122313
 31
0.0
  0
INSERT
  5
42A
  8
回07-寸法
  6
CONTINUOUS
 62
     5
  2
_OPEN
 10
-402.7160708581684
 20
347.9683710122313
 30
0.0
 41
2.0
 42
2.0
 43
2.0
 50
90.0
  0
INSERT
  5
42B
  8
回07-寸法
  6
CONTINUOUS
 62
     5
  2
_OPEN
 10
-402.7160708581684
 20
287.9683710122313
 30
0.0
 41
2.0
 42
2.0
 43
2.0
 50
270.0
  0
INSERT
  5
42C
  8
回07-寸法
  6
CONTINUOUS
 62
     5
 66
     1
  2
*X999999
 10
0.0
 20
0.0
 30
0.0
  0
SEQEND
  5
690
  8
回91-枠英2
  6
CONTINUOUS
 62
    30
  0
POINT
  5
42D
  8
DEFPOINTS
  6
CONTINUOUS
 62
     0
 10
-446.7949234605343
 20
347.9683710122313
 30
0.0
  0
POINT
  5
42E
  8
DEFPOINTS
  6
CONTINUOUS
 62
     0
 10
-439.7234886360968
 20
287.9683710122313
 30
0.0
  0
POINT
  5
42F
  8
DEFPOINTS
  6
CONTINUOUS
 62
     0
 10
-402.7160708581684
 20
287.9683710122313
 30
0.0
  0
ENDBLK
  5
431
  8
回91-枠英2
  6
CONTINUOUS
 62
    30
  0
BLOCK
  8
回91-枠英2
  2
*D494949
 70
     1
 10
0.0
 20
0.0
 30
0.0
  3
*D494949
  1

  0
LINE
  5
433
  8
回07-寸法
  6
CONTINUOUS
 62
     5
 10
-451.7948829904613
 20
347.6620095316643
 30
0.0
 11
-451.7948829904613
 21
354.6591921357717
 31
0.0
  0
LINE
  5
434
  8
回07-寸法
  6
CONTINUOUS
 62
     5
 10
-445.5449234605342
 20
347.6683710122313
 30
0.0
 11
-445.5449234605342
 21
354.6591921357717
 31
0.0
  0
LINE
  5
435
  8
回07-寸法
  6
CONTINUOUS
 62
     5
 10
-443.5449234605341
 20
353.6591921357715
 30
0.0
 11
-420.4449234605341
 21
353.6591921357715
 31
0.0
  0
LINE
  5
436
  8
回07-寸法
  6
CONTINUOUS
 62
     5
 10
-451.7948829904613
 20
353.6591921357715
 30
0.0
 11
-445.5449234605342
 21
353.6591921357715
 31
0.0
  0
LINE
  5
437
  8
回07-寸法
  6
CONTINUOUS
 62
     5
 10
-453.7948829904616
 20
353.6591921357715
 30
0.0
 11
-455.7948829904614
 21
353.6591921357715
 31
0.0
  0
INSERT
  5
438
  8
回07-寸法
  6
CONTINUOUS
 62
     5
  2
_OPEN
 10
-451.7948829904613
 20
353.6591921357715
 30
0.0
 41
2.0
 42
2.0
 43
2.0
  0
INSERT
  5
439
  8
回07-寸法
  6
CONTINUOUS
 62
     5
  2
_OPEN
 10
-445.5449234605342
 20
353.6591921357715
 30
0.0
 41
2.0
 42
2.0
 43
2.0
 50
180.0
  0
TEXT
  5
43A
  8
回07-寸法
  6
CONTINUOUS
 62
     5
 10
-441.4949234605341
 20
354.3091921357715
 30
0.0
 40
3.0
  1
6.25 [0.246]
  0
POINT
  5
43B
  8
DEFPOINTS
  6
CONTINUOUS
 62
     0
 10
-451.7948829904613
 20
347.6620095316643
 30
0.0
  0
POINT
  5
43C
  8
DEFPOINTS
  6
CONTINUOUS
 62
     0
 10
-445.5449234605342
 20
347.6683710122313
 30
0.0
  0
POINT
  5
43D
  8
DEFPOINTS
  6
CONTINUOUS
 62
     0
 10
-445.5449234605342
 20
353.6591921357715
 30
0.0
  0
ENDBLK
  5
43F
  8
回91-枠英2
  6
CONTINUOUS
 62
    30
  0
BLOCK
  8
回91-枠英2
  2
*D505050
 70
     1
 10
0.0
 20
0.0
 30
0.0
  3
*D505050
  1

  0
LINE
  5
441
  8
回07-寸法
  6
CONTINUOUS
 62
     5
 10
-516.1699234605341
 20
287.9683710122313
 30
0.0
 11
-516.1699234605341
 21
354.6591921357717
 31
0.0
  0
LINE
  5
442
  8
回07-寸法
  6
CONTINUOUS
 62
     5
 10
-451.7948829904613
 20
347.6620095316643
 30
0.0
 11
-451.7948829904613
 21
354.6591921357717
 31
0.0
  0
LINE
  5
443
  8
回07-寸法
  6
CONTINUOUS
 62
     5
 10
-514.1699234605344
 20
353.6591921357715
 30
0.0
 11
-453.7948829904616
 21
353.6591921357715
 31
0.0
  0
INSERT
  5
444
  8
回07-寸法
  6
CONTINUOUS
 62
     5
  2
_OPEN
 10
-516.1699234605341
 20
353.6591921357715
 30
0.0
 41
2.0
 42
2.0
 43
2.0
 50
180.0
  0
INSERT
  5
445
  8
回07-寸法
  6
CONTINUOUS
 62
     5
  2
_OPEN
 10
-451.7948829904613
 20
353.6591921357715
 30
0.0
 41
2.0
 42
2.0
 43
2.0
  0
TEXT
  5
446
  8
回07-寸法
  6
CONTINUOUS
 62
     5
 10
-496.8824032254978
 20
354.3091921357715
 30
0.0
 40
3.0
  1
(64.38 [2.534])
  0
POINT
  5
447
  8
DEFPOINTS
  6
CONTINUOUS
 62
     0
 10
-516.1699234605341
 20
287.9683710122313
 30
0.0
  0
POINT
  5
448
  8
DEFPOINTS
  6
CONTINUOUS
 62
     0
 10
-451.7948829904613
 20
347.6620095316643
 30
0.0
  0
POINT
  5
449
  8
DEFPOINTS
  6
CONTINUOUS
 62
     0
 10
-451.7948829904613
 20
353.6591921357715
 30
0.0
  0
ENDBLK
  5
44B
  8
回91-枠英2
  6
CONTINUOUS
 62
    30
  0
BLOCK
  8
回91-枠英2
  2
*D515151
 70
     1
 10
0.0
 20
0.0
 30
0.0
  3
*D515151
  1

  0
LINE
  5
44D
  8
回07-寸法
  6
CONTINUOUS
 62
     5
 10
-523.7021797787146
 20
111.8683710122313
 30
0.0
 11
-567.2983893301091
 21
111.8683710122313
 31
0.0
  0
LINE
  5
44F
  8
回07-寸法
  6
CONTINUOUS
 62
     5
 10
-516.1699234605341
 20
287.9683710122313
 30
0.0
 11
-567.2983893301091
 21
287.9683710122313
 31
0.0
  0
LINE
  5
450
  8
回07-寸法
  6
CONTINUOUS
 62
     5
 10
-566.2983893301091
 20
113.8683710122313
 30
0.0
 11
-566.2983893301091
 21
285.9683710122313
 31
0.0
  0
INSERT
  5
451
  8
回07-寸法
  6
CONTINUOUS
 62
     5
  2
_OPEN
 10
-566.2983893301091
 20
111.8683710122313
 30
0.0
 41
2.0
 42
2.0
 43
2.0
 50
270.0
  0
INSERT
  5
452
  8
回07-寸法
  6
CONTINUOUS
 62
     5
  2
_OPEN
 10
-566.2983893301091
 20
287.9683710122313
 30
0.0
 41
2.0
 42
2.0
 43
2.0
 50
90.0
  0
INSERT
  5
453
  8
回07-寸法
  6
CONTINUOUS
 62
     5
 66
     1
  2
*X100100100
 10
0.0
 20
0.0
 30
0.0
  0
SEQEND
  5
699
  8
回91-枠英2
  6
CONTINUOUS
 62
    30
  0
POINT
  5
454
  8
DEFPOINTS
  6
CONTINUOUS
 62
     0
 10
-523.7021797787146
 20
111.8683710122313
 30
0.0
  0
POINT
  5
455
  8
DEFPOINTS
  6
CONTINUOUS
 62
     0
 10
-516.1699234605341
 20
287.9683710122313
 30
0.0
  0
POINT
  5
456
  8
DEFPOINTS
  6
CONTINUOUS
 62
     0
 10
-566.2983893301091
 20
287.9683710122313
 30
0.0
  0
ENDBLK
  5
458
  8
回91-枠英2
  6
CONTINUOUS
 62
    30
  0
BLOCK
  8
回91-枠英2
  2
*D525252
 70
     1
 10
0.0
 20
0.0
 30
0.0
  3
*D525252
  1

  0
LINE
  5
45A
  8
回07-寸法
  6
CONTINUOUS
 62
     5
 10
-511.9699234605342
 20
117.1683710122311
 30
0.0
 11
-549.9848117014708
 21
117.1683710122311
 31
0.0
  0
LINE
  5
45B
  8
回07-寸法
  6
CONTINUOUS
 62
     5
 10
-516.1699234605341
 20
111.8683710122313
 30
0.0
 11
-549.9848117014708
 21
111.8683710122313
 31
0.0
  0
LINE
  5
45C
  8
回07-寸法
  6
CONTINUOUS
 62
     5
 10
-548.9848117014708
 20
109.8683710122313
 30
0.0
 11
-548.9848117014708
 21
89.15753990665047
 31
0.0
  0
LINE
  5
45D
  8
回07-寸法
  6
CONTINUOUS
 62
     5
 10
-548.9848117014708
 20
117.1683710122311
 30
0.0
 11
-548.9848117014708
 21
111.8683710122313
 31
0.0
  0
LINE
  5
45E
  8
回07-寸法
  6
CONTINUOUS
 62
     5
 10
-548.9848117014708
 20
119.1683710122311
 30
0.0
 11
-548.9848117014708
 21
121.1683710122311
 31
0.0
  0
INSERT
  5
45F
  8
回07-寸法
  6
CONTINUOUS
 62
     5
  2
_OPEN
 10
-548.9848117014708
 20
117.1683710122311
 30
0.0
 41
2.0
 42
2.0
 43
2.0
 50
270.0
  0
INSERT
  5
460
  8
回07-寸法
  6
CONTINUOUS
 62
     5
  2
_OPEN
 10
-548.9848117014708
 20
111.8683710122313
 30
0.0
 41
2.0
 42
2.0
 43
2.0
 50
90.0
  0
TEXT
  5
461
  8
回07-寸法
  6
CONTINUOUS
 62
     5
 10
-549.6348117014707
 20
89.20753990665048
 30
0.0
 40
3.0
  1
5.3 [0.209]
 50
90.0
  0
POINT
  5
462
  8
DEFPOINTS
  6
CONTINUOUS
 62
     0
 10
-511.9699234605342
 20
117.1683710122311
 30
0.0
  0
POINT
  5
463
  8
DEFPOINTS
  6
CONTINUOUS
 62
     0
 10
-516.1699234605341
 20
111.8683710122313
 30
0.0
  0
POINT
  5
464
  8
DEFPOINTS
  6
CONTINUOUS
 62
     0
 10
-548.9848117014708
 20
111.8683710122313
 30
0.0
  0
ENDBLK
  5
466
  8
回91-枠英2
  6
CONTINUOUS
 62
    30
  0
BLOCK
  8
回91-枠英2
  2
*D535353
 70
     1
 10
0.0
 20
0.0
 30
0.0
  3
*D535353
  1

  0
LINE
  5
468
  8
回07-寸法
  6
CONTINUOUS
 62
     5
 10
-511.2699234605343
 20
117.8683710122312
 30
0.0
 11
-543.5300411895065
 21
117.8683710122312
 31
0.0
  0
LINE
  5
469
  8
回07-寸法
  6
CONTINUOUS
 62
     5
 10
-516.1699234605341
 20
111.8683710122313
 30
0.0
 11
-543.5300411895065
 21
111.8683710122313
 31
0.0
  0
LINE
  5
46A
  8
回07-寸法
  6
CONTINUOUS
 62
     5
 10
-542.5300411895062
 20
109.8683710122313
 30
0.0
 11
-542.5300411895062
 21
92.07860723270387
 31
0.0
  0
LINE
  5
46B
  8
回07-寸法
  6
CONTINUOUS
 62
     5
 10
-542.5300411895062
 20
117.8683710122312
 30
0.0
 11
-542.5300411895062
 21
111.8683710122313
 31
0.0
  0
LINE
  5
46C
  8
回07-寸法
  6
CONTINUOUS
 62
     5
 10
-542.5300411895062
 20
119.8683710122312
 30
0.0
 11
-542.5300411895062
 21
121.8683710122312
 31
0.0
  0
INSERT
  5
46D
  8
回07-寸法
  6
CONTINUOUS
 62
     5
  2
_OPEN
 10
-542.5300411895062
 20
117.8683710122312
 30
0.0
 41
2.0
 42
2.0
 43
2.0
 50
270.0
  0
INSERT
  5
46E
  8
回07-寸法
  6
CONTINUOUS
 62
     5
  2
_OPEN
 10
-542.5300411895062
 20
111.8683710122313
 30
0.0
 41
2.0
 42
2.0
 43
2.0
 50
90.0
  0
TEXT
  5
46F
  8
回07-寸法
  6
CONTINUOUS
 62
     5
 10
-543.1800411895062
 20
92.12860723270386
 30
0.0
 40
3.0
  1
6 [0.236]
 50
90.0
  0
POINT
  5
470
  8
DEFPOINTS
  6
CONTINUOUS
 62
     0
 10
-511.2699234605343
 20
117.8683710122312
 30
0.0
  0
POINT
  5
471
  8
DEFPOINTS
  6
CONTINUOUS
 62
     0
 10
-516.1699234605341
 20
111.8683710122313
 30
0.0
  0
POINT
  5
472
  8
DEFPOINTS
  6
CONTINUOUS
 62
     0
 10
-542.5300411895062
 20
111.8683710122313
 30
0.0
  0
ENDBLK
  5
474
  8
回91-枠英2
  6
CONTINUOUS
 62
    30
  0
BLOCK
  8
回91-枠英2
  2
*D545454
 70
     1
 10
0.0
 20
0.0
 30
0.0
  3
*D545454
  1

  0
LINE
  5
476
  8
回07-寸法
  6
CONTINUOUS
 62
     5
 10
-511.9699234605342
 20
279.9683710122313
 30
0.0
 11
-549.9848117014706
 21
279.9683710122313
 31
0.0
  0
LINE
  5
477
  8
回07-寸法
  6
CONTINUOUS
 62
     5
 10
-511.9699234605342
 20
117.1683710122311
 30
0.0
 11
-549.9848117014706
 21
117.1683710122311
 31
0.0
  0
LINE
  5
478
  8
回07-寸法
  6
CONTINUOUS
 62
     5
 10
-548.9848117014706
 20
277.9683710122313
 30
0.0
 11
-548.9848117014706
 21
119.1683710122311
 31
0.0
  0
INSERT
  5
479
  8
回07-寸法
  6
CONTINUOUS
 62
     5
  2
_OPEN
 10
-548.9848117014706
 20
279.9683710122313
 30
0.0
 41
2.0
 42
2.0
 43
2.0
 50
90.0
  0
INSERT
  5
47A
  8
回07-寸法
  6
CONTINUOUS
 62
     5
  2
_OPEN
 10
-548.9848117014706
 20
117.1683710122311
 30
0.0
 41
2.0
 42
2.0
 43
2.0
 50
270.0
  0
INSERT
  5
47B
  8
回07-寸法
  6
CONTINUOUS
 62
     5
 66
     1
  2
*X101101101
 10
0.0
 20
0.0
 30
0.0
  0
SEQEND
  5
69F
  8
回91-枠英2
  6
CONTINUOUS
 62
    30
  0
POINT
  5
47C
  8
DEFPOINTS
  6
CONTINUOUS
 62
     0
 10
-511.9699234605342
 20
279.9683710122313
 30
0.0
  0
POINT
  5
47D
  8
DEFPOINTS
  6
CONTINUOUS
 62
     0
 10
-511.9699234605342
 20
117.1683710122311
 30
0.0
  0
POINT
  5
47E
  8
DEFPOINTS
  6
CONTINUOUS
 62
     0
 10
-548.9848117014706
 20
117.1683710122311
 30
0.0
  0
ENDBLK
  5
480
  8
回91-枠英2
  6
CONTINUOUS
 62
    30
  0
BLOCK
  8
回91-枠英2
  2
*D555555
 70
     1
 10
0.0
 20
0.0
 30
0.0
  3
*D555555
  1

  0
LINE
  5
482
  8
回07-寸法
  6
CONTINUOUS
 62
     5
 10
-511.2699234605343
 20
117.8683710122312
 30
0.0
 11
-543.5300411895062
 21
117.8683710122312
 31
0.0
  0
LINE
  5
483
  8
回07-寸法
  6
CONTINUOUS
 62
     5
 10
-511.2699234605343
 20
279.2683710122314
 30
0.0
 11
-543.5300411895062
 21
279.2683710122314
 31
0.0
  0
LINE
  5
484
  8
回07-寸法
  6
CONTINUOUS
 62
     5
 10
-542.5300411895062
 20
119.8683710122312
 30
0.0
 11
-542.5300411895062
 21
277.2683710122314
 31
0.0
  0
INSERT
  5
485
  8
回07-寸法
  6
CONTINUOUS
 62
     5
  2
_OPEN
 10
-542.5300411895062
 20
117.8683710122312
 30
0.0
 41
2.0
 42
2.0
 43
2.0
 50
270.0
  0
INSERT
  5
486
  8
回07-寸法
  6
CONTINUOUS
 62
     5
  2
_OPEN
 10
-542.5300411895062
 20
279.2683710122314
 30
0.0
 41
2.0
 42
2.0
 43
2.0
 50
90.0
  0
INSERT
  5
487
  8
回07-寸法
  6
CONTINUOUS
 62
     5
 66
     1
  2
*X102102102
 10
0.0
 20
0.0
 30
0.0
  0
SEQEND
  5
6A5
  8
回91-枠英2
  6
CONTINUOUS
 62
    30
  0
POINT
  5
488
  8
DEFPOINTS
  6
CONTINUOUS
 62
     0
 10
-511.2699234605343
 20
117.8683710122312
 30
0.0
  0
POINT
  5
489
  8
DEFPOINTS
  6
CONTINUOUS
 62
     0
 10
-511.2699234605343
 20
279.2683710122314
 30
0.0
  0
POINT
  5
48A
  8
DEFPOINTS
  6
CONTINUOUS
 62
     0
 10
-542.5300411895062
 20
279.2683710122314
 30
0.0
  0
ENDBLK
  5
48C
  8
回91-枠英2
  6
CONTINUOUS
 62
    30
  0
BLOCK
  8
回91-枠英2
  2
*D565656
 70
     1
 10
0.0
 20
0.0
 30
0.0
  3
*D565656
  1

  0
LINE
  5
48E
  8
回07-寸法
  6
CONTINUOUS
 62
     5
 10
-516.1699234605341
 20
111.8683710122313
 30
0.0
 11
-532.4708453367243
 21
111.8683710122313
 31
0.0
  0
LINE
  5
48F
  8
回07-寸法
  6
CONTINUOUS
 62
     5
 10
-511.2699234605343
 20
198.5683710122312
 30
0.0
 11
-532.4708453367243
 21
198.5683710122312
 31
0.0
  0
LINE
  5
490
  8
回07-寸法
  6
CONTINUOUS
 62
     5
 10
-531.4708453367243
 20
113.8683710122313
 30
0.0
 11
-531.4708453367243
 21
196.5683710122312
 31
0.0
  0
INSERT
  5
491
  8
回07-寸法
  6
CONTINUOUS
 62
     5
  2
_OPEN
 10
-531.4708453367243
 20
111.8683710122313
 30
0.0
 41
2.0
 42
2.0
 43
2.0
 50
270.0
  0
INSERT
  5
492
  8
回07-寸法
  6
CONTINUOUS
 62
     5
  2
_OPEN
 10
-531.4708453367243
 20
198.5683710122312
 30
0.0
 41
2.0
 42
2.0
 43
2.0
 50
90.0
  0
INSERT
  5
493
  8
回07-寸法
  6
CONTINUOUS
 62
     5
 66
     1
  2
*X103103103
 10
0.0
 20
0.0
 30
0.0
  0
SEQEND
  5
6AB
  8
回91-枠英2
  6
CONTINUOUS
 62
    30
  0
POINT
  5
494
  8
DEFPOINTS
  6
CONTINUOUS
 62
     0
 10
-516.1699234605341
 20
111.8683710122313
 30
0.0
  0
POINT
  5
495
  8
DEFPOINTS
  6
CONTINUOUS
 62
     0
 10
-511.2699234605343
 20
198.5683710122312
 30
0.0
  0
POINT
  5
496
  8
DEFPOINTS
  6
CONTINUOUS
 62
     0
 10
-531.4708453367243
 20
198.5683710122312
 30
0.0
  0
ENDBLK
  5
498
  8
回91-枠英2
  6
CONTINUOUS
 62
    30
  0
BLOCK
  8
回91-枠英2
  2
*D575757
 70
     1
 10
0.0
 20
0.0
 30
0.0
  3
*D575757
  1

  0
LINE
  5
49A
  8
回07-寸法
  6
CONTINUOUS
 62
     5
 10
-516.1699234605341
 20
111.8683710122313
 30
0.0
 11
-516.1699234605341
 21
72.60261701119721
 31
0.0
  0
LINE
  5
49B
  8
回07-寸法
  6
CONTINUOUS
 62
     5
 10
-293.2699234605341
 20
111.8683710122313
 30
0.0
 11
-293.2699234605341
 21
72.60261701119721
 31
0.0
  0
LINE
  5
49C
  8
回07-寸法
  6
CONTINUOUS
 62
     5
 10
-514.1699234605344
 20
73.60261701119721
 30
0.0
 11
-295.2699234605341
 21
73.60261701119721
 31
0.0
  0
INSERT
  5
49D
  8
回07-寸法
  6
CONTINUOUS
 62
     5
  2
_OPEN
 10
-516.1699234605341
 20
73.60261701119721
 30
0.0
 41
2.0
 42
2.0
 43
2.0
 50
180.0
  0
INSERT
  5
49E
  8
回07-寸法
  6
CONTINUOUS
 62
     5
  2
_OPEN
 10
-293.2699234605341
 20
73.60261701119721
 30
0.0
 41
2.0
 42
2.0
 43
2.0
  0
INSERT
  5
49F
  8
回07-寸法
  6
CONTINUOUS
 62
     5
 66
     1
  2
*X104104104
 10
0.0
 20
0.0
 30
0.0
  0
SEQEND
  5
6B4
  8
回91-枠英2
  6
CONTINUOUS
 62
    30
  0
POINT
  5
4A0
  8
DEFPOINTS
  6
CONTINUOUS
 62
     0
 10
-516.1699234605341
 20
111.8683710122313
 30
0.0
  0
POINT
  5
4A1
  8
DEFPOINTS
  6
CONTINUOUS
 62
     0
 10
-293.2699234605341
 20
111.8683710122313
 30
0.0
  0
POINT
  5
4A2
  8
DEFPOINTS
  6
CONTINUOUS
 62
     0
 10
-293.2699234605341
 20
73.60261701119721
 30
0.0
  0
ENDBLK
  5
4A4
  8
回91-枠英2
  6
CONTINUOUS
 62
    30
  0
BLOCK
  8
回91-枠英2
  2
*D585858
 70
     1
 10
0.0
 20
0.0
 30
0.0
  3
*D585858
  1

  0
LINE
  5
4A6
  8
回07-寸法
  6
CONTINUOUS
 62
     5
 10
-511.9699234605342
 20
117.1683710122311
 30
0.0
 11
-511.9699234605342
 21
85.17309288134294
 31
0.0
  0
LINE
  5
4A7
  8
回07-寸法
  6
CONTINUOUS
 62
     5
 10
-516.1699234605341
 20
111.8683710122313
 30
0.0
 11
-516.1699234605341
 21
85.17309288134294
 31
0.0
  0
LINE
  5
4A8
  8
回07-寸法
  6
CONTINUOUS
 62
     5
 10
-518.1699234605344
 20
86.17309288134293
 30
0.0
 11
-538.5699234605342
 21
86.17309288134293
 31
0.0
  0
LINE
  5
4A9
  8
回07-寸法
  6
CONTINUOUS
 62
     5
 10
-511.9699234605342
 20
86.17309288134293
 30
0.0
 11
-516.1699234605341
 21
86.17309288134293
 31
0.0
  0
LINE
  5
4AA
  8
回07-寸法
  6
CONTINUOUS
 62
     5
 10
-509.9699234605343
 20
86.17309288134293
 30
0.0
 11
-507.9699234605342
 21
86.17309288134293
 31
0.0
  0
INSERT
  5
4AB
  8
回07-寸法
  6
CONTINUOUS
 62
     5
  2
_OPEN
 10
-511.9699234605342
 20
86.17309288134293
 30
0.0
 41
2.0
 42
2.0
 43
2.0
 50
180.0
  0
INSERT
  5
4AC
  8
回07-寸法
  6
CONTINUOUS
 62
     5
  2
_OPEN
 10
-516.1699234605341
 20
86.17309288134293
 30
0.0
 41
2.0
 42
2.0
 43
2.0
  0
TEXT
  5
4AD
  8
回07-寸法
  6
CONTINUOUS
 62
     5
 10
-538.5199234605344
 20
86.82309288134295
 30
0.0
 40
3.0
  1
4.2 [0.165]
  0
POINT
  5
4AE
  8
DEFPOINTS
  6
CONTINUOUS
 62
     0
 10
-511.9699234605342
 20
117.1683710122311
 30
0.0
  0
POINT
  5
4AF
  8
DEFPOINTS
  6
CONTINUOUS
 62
     0
 10
-516.1699234605341
 20
111.8683710122313
 30
0.0
  0
POINT
  5
4B0
  8
DEFPOINTS
  6
CONTINUOUS
 62
     0
 10
-516.1699234605341
 20
86.17309288134293
 30
0.0
  0
ENDBLK
  5
4B2
  8
回91-枠英2
  6
CONTINUOUS
 62
    30
  0
BLOCK
  8
回91-枠英2
  2
*D595959
 70
     1
 10
0.0
 20
0.0
 30
0.0
  3
*D595959
  1

  0
LINE
  5
4B4
  8
回07-寸法
  6
CONTINUOUS
 62
     5
 10
-511.2699234605343
 20
117.8683710122312
 30
0.0
 11
-511.2699234605343
 21
91.44621060273522
 31
0.0
  0
LINE
  5
4B5
  8
回07-寸法
  6
CONTINUOUS
 62
     5
 10
-516.1699234605341
 20
111.8683710122313
 30
0.0
 11
-516.1699234605341
 21
91.44621060273522
 31
0.0
  0
LINE
  5
4B6
  8
回07-寸法
  6
CONTINUOUS
 62
     5
 10
-518.1699234605344
 20
92.44621060273519
 30
0.0
 11
-538.5915856716962
 21
92.44621060273519
 31
0.0
  0
LINE
  5
4B7
  8
回07-寸法
  6
CONTINUOUS
 62
     5
 10
-511.2699234605343
 20
92.44621060273519
 30
0.0
 11
-516.1699234605341
 21
92.44621060273519
 31
0.0
  0
LINE
  5
4B8
  8
回07-寸法
  6
CONTINUOUS
 62
     5
 10
-509.2699234605341
 20
92.44621060273519
 30
0.0
 11
-507.2699234605343
 21
92.44621060273519
 31
0.0
  0
INSERT
  5
4B9
  8
回07-寸法
  6
CONTINUOUS
 62
     5
  2
_OPEN
 10
-511.2699234605343
 20
92.44621060273519
 30
0.0
 41
2.0
 42
2.0
 43
2.0
 50
180.0
  0
INSERT
  5
4BA
  8
回07-寸法
  6
CONTINUOUS
 62
     5
  2
_OPEN
 10
-516.1699234605341
 20
92.44621060273519
 30
0.0
 41
2.0
 42
2.0
 43
2.0
  0
TEXT
  5
4BB
  8
回07-寸法
  6
CONTINUOUS
 62
     5
 10
-538.5415856716963
 20
93.09621060273519
 30
0.0
 40
3.0
  1
4.9 [0.193]
  0
POINT
  5
4BC
  8
DEFPOINTS
  6
CONTINUOUS
 62
     0
 10
-511.2699234605343
 20
117.8683710122312
 30
0.0
  0
POINT
  5
4BD
  8
DEFPOINTS
  6
CONTINUOUS
 62
     0
 10
-516.1699234605341
 20
111.8683710122313
 30
0.0
  0
POINT
  5
4BE
  8
DEFPOINTS
  6
CONTINUOUS
 62
     0
 10
-516.1699234605341
 20
92.44621060273519
 30
0.0
  0
ENDBLK
  5
4C0
  8
回91-枠英2
  6
CONTINUOUS
 62
    30
  0
BLOCK
  8
回91-枠英2
  2
*D606060
 70
     1
 10
0.0
 20
0.0
 30
0.0
  3
*D606060
  1

  0
LINE
  5
4C2
  8
回07-寸法
  6
CONTINUOUS
 62
     5
 10
-297.369923460534
 20
117.1683710122311
 30
0.0
 11
-297.369923460534
 21
85.17309288134294
 31
0.0
  0
LINE
  5
4C3
  8
回07-寸法
  6
CONTINUOUS
 62
     5
 10
-511.9699234605342
 20
117.1683710122311
 30
0.0
 11
-511.9699234605342
 21
85.17309288134294
 31
0.0
  0
LINE
  5
4C4
  8
回07-寸法
  6
CONTINUOUS
 62
     5
 10
-299.369923460534
 20
86.17309288134293
 30
0.0
 11
-509.9699234605343
 21
86.17309288134293
 31
0.0
  0
INSERT
  5
4C5
  8
回07-寸法
  6
CONTINUOUS
 62
     5
  2
_OPEN
 10
-297.369923460534
 20
86.17309288134293
 30
0.0
 41
2.0
 42
2.0
 43
2.0
  0
INSERT
  5
4C6
  8
回07-寸法
  6
CONTINUOUS
 62
     5
  2
_OPEN
 10
-511.9699234605342
 20
86.17309288134293
 30
0.0
 41
2.0
 42
2.0
 43
2.0
 50
180.0
  0
INSERT
  5
4C7
  8
回07-寸法
  6
CONTINUOUS
 62
     5
 66
     1
  2
*X105105105
 10
0.0
 20
0.0
 30
0.0
  0
SEQEND
  5
6BA
  8
回91-枠英2
  6
CONTINUOUS
 62
    30
  0
POINT
  5
4C8
  8
DEFPOINTS
  6
CONTINUOUS
 62
     0
 10
-297.369923460534
 20
117.1683710122311
 30
0.0
  0
POINT
  5
4C9
  8
DEFPOINTS
  6
CONTINUOUS
 62
     0
 10
-511.9699234605342
 20
117.1683710122311
 30
0.0
  0
POINT
  5
4CA
  8
DEFPOINTS
  6
CONTINUOUS
 62
     0
 10
-511.9699234605342
 20
86.17309288134293
 30
0.0
  0
ENDBLK
  5
4CC
  8
回91-枠英2
  6
CONTINUOUS
 62
    30
  0
BLOCK
  8
回91-枠英2
  2
*D616161
 70
     1
 10
0.0
 20
0.0
 30
0.0
  3
*D616161
  1

  0
LINE
  5
4CE
  8
回07-寸法
  6
CONTINUOUS
 62
     5
 10
-511.2699234605343
 20
117.8683710122312
 30
0.0
 11
-511.2699234605343
 21
91.44621060273522
 31
0.0
  0
LINE
  5
4CF
  8
回07-寸法
  6
CONTINUOUS
 62
     5
 10
-298.0699234605343
 20
117.8683710122312
 30
0.0
 11
-298.0699234605343
 21
91.44621060273522
 31
0.0
  0
LINE
  5
4D0
  8
回07-寸法
  6
CONTINUOUS
 62
     5
 10
-509.2699234605341
 20
92.44621060273519
 30
0.0
 11
-300.0699234605343
 21
92.44621060273519
 31
0.0
  0
INSERT
  5
4D1
  8
回07-寸法
  6
CONTINUOUS
 62
     5
  2
_OPEN
 10
-511.2699234605343
 20
92.44621060273519
 30
0.0
 41
2.0
 42
2.0
 43
2.0
 50
180.0
  0
INSERT
  5
4D2
  8
回07-寸法
  6
CONTINUOUS
 62
     5
  2
_OPEN
 10
-298.0699234605343
 20
92.44621060273519
 30
0.0
 41
2.0
 42
2.0
 43
2.0
  0
INSERT
  5
4D3
  8
回07-寸法
  6
CONTINUOUS
 62
     5
 66
     1
  2
*X106106106
 10
0.0
 20
0.0
 30
0.0
  0
SEQEND
  5
6C0
  8
回91-枠英2
  6
CONTINUOUS
 62
    30
  0
POINT
  5
4D4
  8
DEFPOINTS
  6
CONTINUOUS
 62
     0
 10
-511.2699234605343
 20
117.8683710122312
 30
0.0
  0
POINT
  5
4D5
  8
DEFPOINTS
  6
CONTINUOUS
 62
     0
 10
-298.0699234605343
 20
117.8683710122312
 30
0.0
  0
POINT
  5
4D6
  8
DEFPOINTS
  6
CONTINUOUS
 62
     0
 10
-298.0699234605343
 20
92.44621060273519
 30
0.0
  0
ENDBLK
  5
4D8
  8
回91-枠英2
  6
CONTINUOUS
 62
    30
  0
BLOCK
  8
回91-枠英2
  2
*D626262
 70
     1
 10
0.0
 20
0.0
 30
0.0
  3
*D626262
  1

  0
LINE
  5
4DA
  8
回07-寸法
  6
CONTINUOUS
 62
     5
 10
-516.1699234605341
 20
111.8683710122313
 30
0.0
 11
-516.1699234605341
 21
98.61499480924505
 31
0.0
  0
LINE
  5
4DB
  8
回07-寸法
  6
CONTINUOUS
 62
     5
 10
-404.1699234605342
 20
117.8683710122312
 30
0.0
 11
-404.1699234605342
 21
98.61499480924505
 31
0.0
  0
LINE
  5
4DC
  8
回07-寸法
  6
CONTINUOUS
 62
     5
 10
-514.1699234605344
 20
99.61499480924505
 30
0.0
 11
-406.1699234605343
 21
99.61499480924505
 31
0.0
  0
INSERT
  5
4DD
  8
回07-寸法
  6
CONTINUOUS
 62
     5
  2
_OPEN
 10
-516.1699234605341
 20
99.61499480924505
 30
0.0
 41
2.0
 42
2.0
 43
2.0
 50
180.0
  0
INSERT
  5
4DE
  8
回07-寸法
  6
CONTINUOUS
 62
     5
  2
_OPEN
 10
-404.1699234605342
 20
99.61499480924505
 30
0.0
 41
2.0
 42
2.0
 43
2.0
  0
INSERT
  5
4DF
  8
回07-寸法
  6
CONTINUOUS
 62
     5
 66
     1
  2
*X107107107
 10
0.0
 20
0.0
 30
0.0
  0
SEQEND
  5
6C6
  8
回91-枠英2
  6
CONTINUOUS
 62
    30
  0
POINT
  5
4E0
  8
DEFPOINTS
  6
CONTINUOUS
 62
     0
 10
-516.1699234605341
 20
111.8683710122313
 30
0.0
  0
POINT
  5
4E1
  8
DEFPOINTS
  6
CONTINUOUS
 62
     0
 10
-404.1699234605342
 20
117.8683710122312
 30
0.0
  0
POINT
  5
4E2
  8
DEFPOINTS
  6
CONTINUOUS
 62
     0
 10
-404.1699234605342
 20
99.61499480924505
 30
0.0
  0
ENDBLK
  5
4E4
  8
回91-枠英2
  6
CONTINUOUS
 62
    30
  0
BLOCK
  8
回91-枠英2
  2
*X636363
 70
     1
 10
0.0
 20
0.0
 30
0.0
  3
*X636363
  1

  0
LINE
  5
4E9
  8
回08-記事
  6
CONTINUOUS
 62
     7
 10
-451.1699234605345
 20
327.3111260924957
 30
0.0
 11
-450.5408824127363
 21
327.9401671402937
 31
0.0
  0
LINE
  5
4EA
  8
回08-記事
  6
CONTINUOUS
 62
     7
 10
-451.1699234605345
 20
325.9640876743354
 30
0.0
 11
-449.1938439945761
 21
327.9401671402936
 31
0.0
  0
LINE
  5
4EB
  8
回08-記事
  6
CONTINUOUS
 62
     7
 10
-451.1699234605345
 20
324.6170492561751
 30
0.0
 11
-447.8468055764158
 21
327.9401671402936
 31
0.0
  0
LINE
  5
4EC
  8
回08-記事
  6
CONTINUOUS
 62
     7
 10
-451.1699234605345
 20
323.2700108380147
 30
0.0
 11
-446.5221141408679
 21
327.9178201576814
 31
0.0
  0
LINE
  5
4ED
  8
回08-記事
  6
CONTINUOUS
 62
     7
 10
-451.1699234605345
 20
321.9229724198543
 30
0.0
 11
-446.1699234605346
 21
326.9229724198543
 31
0.0
  0
LINE
  5
4EE
  8
回08-記事
  6
CONTINUOUS
 62
     7
 10
-451.1699234605345
 20
320.5759340016939
 30
0.0
 11
-446.1699234605346
 21
325.575934001694
 31
0.0
  0
LINE
  5
4EF
  8
回08-記事
  6
CONTINUOUS
 62
     7
 10
-451.1699234605345
 20
319.2288955835337
 30
0.0
 11
-446.1699234605346
 21
324.2288955835336
 31
0.0
  0
LINE
  5
4F0
  8
回08-記事
  6
CONTINUOUS
 62
     7
 10
-451.1699234605345
 20
317.8818571653733
 30
0.0
 11
-446.1699234605346
 21
322.8818571653733
 31
0.0
  0
LINE
  5
4F1
  8
回08-記事
  6
CONTINUOUS
 62
     7
 10
-451.1699234605345
 20
316.534818747213
 30
0.0
 11
-446.1699234605346
 21
321.534818747213
 31
0.0
  0
LINE
  5
4F2
  8
回08-記事
  6
CONTINUOUS
 62
     7
 10
-451.1699234605345
 20
315.1877803290525
 30
0.0
 11
-446.1699234605347
 21
320.1877803290525
 31
0.0
  0
LINE
  5
4F3
  8
回08-記事
  6
CONTINUOUS
 62
     7
 10
-451.1699234605345
 20
313.8407419108923
 30
0.0
 11
-446.1699234605346
 21
318.8407419108923
 31
0.0
  0
LINE
  5
4F4
  8
回08-記事
  6
CONTINUOUS
 62
     7
 10
-451.1699234605345
 20
312.4937034927319
 30
0.0
 11
-446.1699234605345
 21
317.493703492732
 31
0.0
  0
LINE
  5
4F5
  8
回08-記事
  6
CONTINUOUS
 62
     7
 10
-451.1699234605345
 20
311.1466650745716
 30
0.0
 11
-446.1699234605345
 21
316.1466650745717
 31
0.0
  0
LINE
  5
4F6
  8
回08-記事
  6
CONTINUOUS
 62
     7
 10
-451.1699234605345
 20
309.7996266564113
 30
0.0
 11
-446.1699234605345
 21
314.7996266564114
 31
0.0
  0
LINE
  5
4F7
  8
回08-記事
  6
CONTINUOUS
 62
     7
 10
-451.1699234605345
 20
308.4525882382509
 30
0.0
 11
-446.1699234605346
 21
313.4525882382509
 31
0.0
  0
LINE
  5
4F8
  8
回08-記事
  6
CONTINUOUS
 62
     7
 10
-451.1699234605345
 20
307.1055498200906
 30
0.0
 11
-446.1699234605346
 21
312.1055498200906
 31
0.0
  0
LINE
  5
4F9
  8
回08-記事
  6
CONTINUOUS
 62
     7
 10
-451.1699234605345
 20
305.7585114019302
 30
0.0
 11
-446.1699234605346
 21
310.7585114019302
 31
0.0
  0
LINE
  5
4FA
  8
回08-記事
  6
CONTINUOUS
 62
     7
 10
-451.1699234605345
 20
304.4114729837698
 30
0.0
 11
-446.1699234605345
 21
309.41147298377
 31
0.0
  0
LINE
  5
4FB
  8
回08-記事
  6
CONTINUOUS
 62
     7
 10
-451.1699234605345
 20
303.0644345656095
 30
0.0
 11
-446.1699234605346
 21
308.0644345656095
 31
0.0
  0
LINE
  5
4FC
  8
回08-記事
  6
CONTINUOUS
 62
     7
 10
-450.8940871724063
 20
301.9932324355774
 30
0.0
 11
-446.1699234605346
 21
306.7173961474491
 31
0.0
  0
LINE
  5
4FD
  8
回08-記事
  6
CONTINUOUS
 62
     7
 10
-449.6001140495297
 20
301.9401671402936
 30
0.0
 11
-446.1699234605347
 21
305.3703577292888
 31
0.0
  0
LINE
  5
4FE
  8
回08-記事
  6
CONTINUOUS
 62
     7
 10
-448.2530756313694
 20
301.9401671402936
 30
0.0
 11
-446.1699234605345
 21
304.0233193111286
 31
0.0
  0
LINE
  5
4FF
  8
回08-記事
  6
CONTINUOUS
 62
     7
 10
-446.9060372132092
 20
301.9401671402936
 30
0.0
 11
-446.1699234605346
 21
302.6762808929682
 31
0.0
  0
ENDBLK
  5
501
  8
回91-枠英2
  6
CONTINUOUS
 62
    30
  0
BLOCK
  8
回91-枠英2
  2
*X646464
 70
     1
 10
0.0
 20
0.0
 30
0.0
  3
*X646464
  1

  0
INSERT
  5
50D
  8
回07-寸法
  6
CONTINUOUS
 62
     5
  2
_OPEN
 10
-454.4175871621471
 20
338.728452844649
 30
0.0
 41
2.0
 42
2.0
 43
2.0
 50
61.14719780830872
  0
LINE
  5
50E
  8
回07-寸法
  6
CONTINUOUS
 62
     5
 10
-455.3827092605408
 20
336.9767281701662
 30
0.0
 11
-457.0279029529363
 21
333.9906537759845
 31
0.0
  0
LINE
  5
50F
  8
回07-寸法
  6
CONTINUOUS
 62
     5
 10
-457.0279029529363
 20
333.9906537759845
 30
0.0
 11
-461.3279029529363
 21
333.9906537759845
 31
0.0
  0
ENDBLK
  5
511
  8
回91-枠英2
  6
CONTINUOUS
 62
    30
  0
BLOCK
  8
回91-枠英2
  2
*X656565
 70
     1
 10
0.0
 20
0.0
 30
0.0
  3
*X656565
  1

  0
LINE
  5
514
  8
回08-記事
  6
CONTINUOUS
 62
     7
 10
-447.6699234605346
 20
290.3999735476852
 30
0.0
 11
-445.7095960876222
 21
292.3603009205974
 31
0.0
  0
LINE
  5
515
  8
回08-記事
  6
CONTINUOUS
 62
     7
 10
-447.6699234605346
 20
288.154909517418
 30
0.0
 11
-443.4645320573549
 21
292.3603009205976
 31
0.0
  0
LINE
  5
516
  8
回08-記事
  6
CONTINUOUS
 62
     7
 10
-447.6699234605346
 20
285.9098454871507
 30
0.0
 11
-441.2194680270878
 21
292.3603009205976
 31
0.0
  0
LINE
  5
517
  8
回08-記事
  6
CONTINUOUS
 62
     7
 10
-447.1663339051864
 20
284.1683710122315
 30
0.0
 11
-441.1711265447372
 21
290.1635783726807
 31
0.0
  0
LINE
  5
518
  8
回08-記事
  6
CONTINUOUS
 62
     7
 10
-444.9212698749192
 20
284.1683710122315
 30
0.0
 11
-441.1711265447372
 21
287.9185143424134
 31
0.0
  0
LINE
  5
519
  8
回08-記事
  6
CONTINUOUS
 62
     7
 10
-442.6762058446517
 20
284.1683710122315
 30
0.0
 11
-441.1711265447372
 21
285.6734503121462
 31
0.0
  0
ENDBLK
  5
51B
  8
回91-枠英2
  6
CONTINUOUS
 62
    30
  0
BLOCK
  8
回91-枠英2
  2
*X666666
 70
     1
 10
0.0
 20
0.0
 30
0.0
  3
*X666666
  1

  0
INSERT
  5
523
  8
回07-寸法
  6
CONTINUOUS
 62
     5
  2
_OPEN
 10
-355.5513866021144
 20
344.3835926791739
 30
0.0
 41
2.0
 42
2.0
 43
2.0
 50
22.06819493363758
  0
LINE
  5
524
  8
回07-寸法
  6
CONTINUOUS
 62
     5
 10
-357.4048612648661
 20
343.6321729066522
 30
0.0
 11
-367.134313291057
 21
339.6877420626787
 31
0.0
  0
LINE
  5
525
  8
回07-寸法
  6
CONTINUOUS
 62
     5
 10
-367.134313291057
 20
339.6877420626787
 30
0.0
 11
-391.5451443966379
 21
339.6877420626787
 31
0.0
  0
ENDBLK
  5
527
  8
回91-枠英2
  6
CONTINUOUS
 62
    30
  0
BLOCK
  8
回91-枠英2
  2
*X676767
 70
     1
 10
0.0
 20
0.0
 30
0.0
  3
*X676767
  1

  0
INSERT
  5
534
  8
回08-記事
  6
CONTINUOUS
 62
     5
  2
_OPEN
 10
-260.1014881160229
 20
345.7068507493202
 30
0.0
 41
2.0
 42
2.0
 43
2.0
 50
297.8265984796368
  0
LINE
  5
535
  8
回08-記事
  6
CONTINUOUS
 62
     5
 10
-261.0350825960642
 20
347.475579486814
 30
0.0
 11
-266.8257449336363
 21
358.4462001412264
 31
0.0
  0
LINE
  5
536
  8
回08-記事
  6
CONTINUOUS
 62
     5
 10
-266.8257449336363
 20
358.4462001412264
 30
0.0
 11
-296.0257449336363
 21
358.4462001412264
 31
0.0
  0
ENDBLK
  5
538
  8
回91-枠英2
  6
CONTINUOUS
 62
    30
  0
BLOCK
  8
回91-枠英2
  2
*X686868
 70
     1
 10
0.0
 20
0.0
 30
0.0
  3
*X686868
  1

  0
INSERT
  5
53B
  8
回08-記事
  6
CONTINUOUS
 62
     5
  2
_OPEN
 10
-261.2068192118663
 20
316.926099480307
 30
0.0
 41
2.0
 42
2.0
 43
2.0
 50
50.06758744912334
  0
LINE
  5
53C
  8
回08-記事
  6
CONTINUOUS
 62
     5
 10
-262.4905862491269
 20
315.3924951656145
 30
0.0
 11
-264.3061254367717
 21
313.2236291246181
 31
0.0
  0
LINE
  5
53D
  8
回08-記事
  6
CONTINUOUS
 62
     5
 10
-264.3061254367717
 20
313.2236291246181
 30
0.0
 11
-305.2061254367717
 21
313.2236291246181
 31
0.0
  0
ENDBLK
  5
53F
  8
回91-枠英2
  6
CONTINUOUS
 62
    30
  0
BLOCK
  8
回91-枠英2
  2
*X696969
 70
     1
 10
0.0
 20
0.0
 30
0.0
  3
*X696969
  1

  0
INSERT
  5
542
  8
回08-記事
  6
CONTINUOUS
 62
     5
  2
_OPEN
 10
-257.3512453298377
 20
315.8077411346683
 30
0.0
 41
2.0
 42
2.0
 43
2.0
 50
243.5301935514591
  0
LINE
  5
543
  8
回08-記事
  6
CONTINUOUS
 62
     5
 10
-256.4597930469314
 20
317.5980798811912
 30
0.0
 11
-255.371306658119
 21
319.784129986532
 31
0.0
  0
LINE
  5
544
  8
回08-記事
  6
CONTINUOUS
 62
     5
 10
-255.371306658119
 20
319.784129986532
 30
0.0
 11
-233.671306658119
 21
319.784129986532
 31
0.0
  0
ENDBLK
  5
546
  8
回91-枠英2
  6
CONTINUOUS
 62
    30
  0
BLOCK
  8
回91-枠英2
  2
*X707070
 70
     1
 10
0.0
 20
0.0
 30
0.0
  3
*X707070
  1

  0
TEXT
  5
549
  8
回07-寸法
  6
CONTINUOUS
 62
     5
 10
-482.6077322551595
 20
326.3352671009496
 30
0.0
 40
3.0
  1
・LOT LABEL
  0
TEXT
  5
54A
  8
回07-寸法
  6
CONTINUOUS
 62
     5
 10
-501.8077322551595
 20
321.3352671009496
 30
0.0
 40
3.0
  1
・Tail information label
  0
ENDBLK
  5
54C
  8
回91-枠英2
  6
CONTINUOUS
 62
    30
  0
BLOCK
  8
回91-枠英2
  2
*X717171
 70
     1
 10
0.0
 20
0.0
 30
0.0
  3
*X717171
  1

  0
INSERT
  5
54F
  8
回07-寸法
  6
CONTINUOUS
 62
     5
  2
_OPEN
 10
-451.2221515725473
 20
315.9916082877769
 30
0.0
 41
2.0
 42
2.0
 43
2.0
 50
319.3216590716823
  0
LINE
  5
550
  8
回07-寸法
  6
CONTINUOUS
 62
     5
 10
-452.7389131518268
 20
317.2952318191775
 30
0.0
 11
-456.8577322551596
 21
320.8352671009496
 31
0.0
  0
LINE
  5
551
  8
回07-寸法
  6
CONTINUOUS
 62
     5
 10
-456.8577322551596
 20
320.8352671009496
 30
0.0
 11
-500.8077322551596
 21
320.8352671009496
 31
0.0
  0
ENDBLK
  5
553
  8
回91-枠英2
  6
CONTINUOUS
 62
    30
  0
BLOCK
  8
回91-枠英2
  2
*X727272
 70
     1
 10
0.0
 20
0.0
 30
0.0
  3
*X727272
  1

  0
LINE
  5
556
  8
回08-記事
  6
CONTINUOUS
 62
     7
 10
-261.1097304712097
 20
327.4389021212077
 30
0.0
 11
-260.5774005975927
 21
327.9712319948247
 31
0.0
  0
LINE
  5
557
  8
回08-記事
  6
CONTINUOUS
 62
     7
 10
-261.1097304712097
 20
326.0918637030473
 30
0.0
 11
-260.2976558967394
 21
326.9039382775177
 31
0.0
  0
LINE
  5
558
  8
回08-記事
  6
CONTINUOUS
 62
     7
 10
-261.1097304712097
 20
324.7448252848871
 30
0.0
 11
-260.2976558967392
 21
325.5568998593575
 31
0.0
  0
LINE
  5
559
  8
回08-記事
  6
CONTINUOUS
 62
     7
 10
-261.1097304712097
 20
323.3977868667266
 30
0.0
 11
-260.2976558967393
 21
324.2098614411971
 31
0.0
  0
LINE
  5
55A
  8
回08-記事
  6
CONTINUOUS
 62
     7
 10
-261.1097304712097
 20
322.0507484485663
 30
0.0
 11
-260.2976558967394
 21
322.8628230230366
 31
0.0
  0
LINE
  5
55B
  8
回08-記事
  6
CONTINUOUS
 62
     7
 10
-261.1097304712097
 20
320.7037100304059
 30
0.0
 11
-260.2976558967392
 21
321.5157846048764
 31
0.0
  0
LINE
  5
55C
  8
回08-記事
  6
CONTINUOUS
 62
     7
 10
-261.1097304712097
 20
319.3566716122457
 30
0.0
 11
-260.2976558967393
 21
320.168746186716
 31
0.0
  0
LINE
  5
55D
  8
回08-記事
  6
CONTINUOUS
 62
     7
 10
-261.1097304712097
 20
318.0096331940853
 30
0.0
 11
-260.2976558967394
 21
318.8217077685556
 31
0.0
  0
LINE
  5
55E
  8
回08-記事
  6
CONTINUOUS
 62
     7
 10
-261.1097304712099
 20
316.6625947759249
 30
0.0
 11
-260.2976558967394
 21
317.4746693503954
 31
0.0
  0
LINE
  5
55F
  8
回08-記事
  6
CONTINUOUS
 62
     7
 10
-261.1097304712099
 20
315.3155563577645
 30
0.0
 11
-260.2976558967392
 21
316.1276309322351
 31
0.0
  0
LINE
  5
560
  8
回08-記事
  6
CONTINUOUS
 62
     7
 10
-261.1097304712097
 20
313.9685179396042
 30
0.0
 11
-260.2976558967393
 21
314.7805925140747
 31
0.0
  0
LINE
  5
561
  8
回08-記事
  6
CONTINUOUS
 62
     7
 10
-261.1097304712097
 20
312.6214795214439
 30
0.0
 11
-260.2976558967393
 21
313.4335540959144
 31
0.0
  0
LINE
  5
562
  8
回08-記事
  6
CONTINUOUS
 62
     7
 10
-261.1097304712097
 20
311.2744411032835
 30
0.0
 11
-260.2976558967394
 21
312.086515677754
 31
0.0
  0
LINE
  5
563
  8
回08-記事
  6
CONTINUOUS
 62
     7
 10
-261.1097304712097
 20
309.9274026851233
 30
0.0
 11
-260.2976558967393
 21
310.7394772595936
 31
0.0
  0
LINE
  5
564
  8
回08-記事
  6
CONTINUOUS
 62
     7
 10
-261.1097304712097
 20
308.5803642669629
 30
0.0
 11
-260.2976558967393
 21
309.3924388414333
 31
0.0
  0
LINE
  5
565
  8
回08-記事
  6
CONTINUOUS
 62
     7
 10
-261.1097304712099
 20
307.2333258488025
 30
0.0
 11
-260.2976558967394
 21
308.0454004232728
 31
0.0
  0
LINE
  5
566
  8
回08-記事
  6
CONTINUOUS
 62
     7
 10
-261.1097304712097
 20
305.8862874306423
 30
0.0
 11
-260.2976558967393
 21
306.6983620051126
 31
0.0
  0
LINE
  5
567
  8
回08-記事
  6
CONTINUOUS
 62
     7
 10
-261.1097304712097
 20
304.5392490124819
 30
0.0
 11
-260.2976558967392
 21
305.3513235869524
 31
0.0
  0
LINE
  5
568
  8
回08-記事
  6
CONTINUOUS
 62
     7
 10
-261.1097304712099
 20
303.1922105943215
 30
0.0
 11
-260.2976558967394
 21
304.0042851687919
 31
0.0
  0
LINE
  5
569
  8
回08-記事
  6
CONTINUOUS
 62
     7
 10
-260.9836706525462
 20
301.9712319948248
 30
0.0
 11
-260.2976558967394
 21
302.6572467506317
 31
0.0
  0
ENDBLK
  5
56B
  8
回91-枠英2
  6
CONTINUOUS
 62
    30
  0
BLOCK
  8
回91-枠英2
  2
*X737373
 70
     1
 10
0.0
 20
0.0
 30
0.0
  3
*X737373
  1

  0
LINE
  5
573
  8
回08-記事
  6
CONTINUOUS
 62
     7
 10
-258.333918189599
 20
327.5206375664975
 30
0.0
 11
-257.8833237612718
 21
327.9712319948247
 31
0.0
  0
LINE
  5
574
  8
回08-記事
  6
CONTINUOUS
 62
     7
 10
-258.3339181895989
 20
326.1735991483373
 30
0.0
 11
-257.4361738504925
 21
327.0713434874437
 31
0.0
  0
LINE
  5
575
  8
回08-記事
  6
CONTINUOUS
 62
     7
 10
-258.3339181895989
 20
324.826560730177
 30
0.0
 11
-257.4361738504926
 21
325.7243050692833
 31
0.0
  0
LINE
  5
576
  8
回08-記事
  6
CONTINUOUS
 62
     7
 10
-258.3339181895989
 20
323.4795223120166
 30
0.0
 11
-257.4361738504927
 21
324.3772666511229
 31
0.0
  0
LINE
  5
577
  8
回08-記事
  6
CONTINUOUS
 62
     7
 10
-258.333918189599
 20
322.1324838938562
 30
0.0
 11
-257.4361738504927
 21
323.0302282329625
 31
0.0
  0
LINE
  5
578
  8
回08-記事
  6
CONTINUOUS
 62
     7
 10
-258.3339181895989
 20
320.7854454756959
 30
0.0
 11
-257.4361738504925
 21
321.6831898148023
 31
0.0
  0
LINE
  5
579
  8
回08-記事
  6
CONTINUOUS
 62
     7
 10
-258.3339181895989
 20
319.4384070575357
 30
0.0
 11
-257.4361738504926
 21
320.3361513966419
 31
0.0
  0
LINE
  5
57A
  8
回08-記事
  6
CONTINUOUS
 62
     7
 10
-258.3339181895989
 20
318.0913686393752
 30
0.0
 11
-257.4361738504926
 21
318.9891129784816
 31
0.0
  0
LINE
  5
57B
  8
回08-記事
  6
CONTINUOUS
 62
     7
 10
-258.3339181895989
 20
316.7443302212149
 30
0.0
 11
-257.4361738504926
 21
317.6420745603213
 31
0.0
  0
LINE
  5
57C
  8
回08-記事
  6
CONTINUOUS
 62
     7
 10
-258.3339181895989
 20
315.3972918030546
 30
0.0
 11
-257.4361738504926
 21
316.2950361421609
 31
0.0
  0
LINE
  5
57D
  8
回08-記事
  6
CONTINUOUS
 62
     7
 10
-258.3339181895989
 20
314.0502533848942
 30
0.0
 11
-257.4361738504927
 21
314.9479977240005
 31
0.0
  0
LINE
  5
57E
  8
回08-記事
  6
CONTINUOUS
 62
     7
 10
-258.333918189599
 20
312.7032149667338
 30
0.0
 11
-257.4361738504927
 21
313.6009593058401
 31
0.0
  0
LINE
  5
57F
  8
回08-記事
  6
CONTINUOUS
 62
     7
 10
-258.3339181895989
 20
311.3561765485735
 30
0.0
 11
-257.4361738504925
 21
312.25392088768
 31
0.0
  0
LINE
  5
580
  8
回08-記事
  6
CONTINUOUS
 62
     7
 10
-258.3339181895989
 20
310.0091381304132
 30
0.0
 11
-257.4361738504926
 21
310.9068824695195
 31
0.0
  0
LINE
  5
581
  8
回08-記事
  6
CONTINUOUS
 62
     7
 10
-258.3339181895989
 20
308.6620997122529
 30
0.0
 11
-257.4361738504926
 21
309.5598440513592
 31
0.0
  0
LINE
  5
582
  8
回08-記事
  6
CONTINUOUS
 62
     7
 10
-258.333918189599
 20
307.3150612940925
 30
0.0
 11
-257.4361738504927
 21
308.2128056331988
 31
0.0
  0
LINE
  5
583
  8
回08-記事
  6
CONTINUOUS
 62
     7
 10
-258.3339181895989
 20
305.9680228759322
 30
0.0
 11
-257.4361738504925
 21
306.8657672150385
 31
0.0
  0
LINE
  5
584
  8
回08-記事
  6
CONTINUOUS
 62
     7
 10
-258.333918189599
 20
304.6209844577718
 30
0.0
 11
-257.4361738504927
 21
305.5187287968781
 31
0.0
  0
LINE
  5
585
  8
回08-記事
  6
CONTINUOUS
 62
     7
 10
-258.333918189599
 20
303.2739460396115
 30
0.0
 11
-257.4361738504926
 21
304.1716903787178
 31
0.0
  0
LINE
  5
586
  8
回08-記事
  6
CONTINUOUS
 62
     7
 10
-258.2895938162254
 20
301.9712319948248
 30
0.0
 11
-257.4361738504925
 21
302.8246519605576
 31
0.0
  0
ENDBLK
  5
588
  8
回91-枠英2
  6
CONTINUOUS
 62
    30
  0
BLOCK
  8
回91-枠英2
  2
*X747474
 70
     1
 10
0.0
 20
0.0
 30
0.0
  3
*X747474
  1

  0
INSERT
  5
590
  8
回07-寸法
  6
CONTINUOUS
 62
     5
  2
_OPEN
 10
-447.6267677947022
 20
291.9184776490518
 30
0.0
 41
1.999999999999999
 42
1.999999999999999
 43
2.0
 50
323.1683903998277
  0
LINE
  5
591
  8
回07-寸法
  6
CONTINUOUS
 62
     5
 10
-449.2275693403467
 20
293.1174081772568
 30
0.0
 11
-460.4306172132569
 21
301.5080023394865
 31
0.0
  0
LINE
  5
592
  8
回07-寸法
  6
CONTINUOUS
 62
     5
 10
-460.4306172132569
 20
301.5080023394865
 30
0.0
 11
-505.2306172132569
 21
301.5080023394865
 31
0.0
  0
ENDBLK
  5
594
  8
回91-枠英2
  6
CONTINUOUS
 62
    30
  0
BLOCK
  8
回91-枠英2
  2
*X757575
 70
     1
 10
0.0
 20
0.0
 30
0.0
  3
*X757575
  1

  0
INSERT
  5
597
  8
回07-寸法
  6
CONTINUOUS
 62
     5
  2
_OPEN
 10
-506.3707759881586
 20
112.1536586420487
 30
0.0
 41
2.0
 42
2.0
 43
2.0
 50
104.8923987992187
  0
LINE
  5
598
  8
回07-寸法
  6
CONTINUOUS
 62
     5
 10
-505.8567668168347
 20
110.2208382748663
 30
0.0
 11
-505.0053581185078
 21
107.0192999274403
 31
0.0
  0
LINE
  5
599
  8
回07-寸法
  6
CONTINUOUS
 62
     5
 10
-505.0053581185078
 20
107.0192999274403
 30
0.0
 11
-489.0053581185078
 21
107.0192999274403
 31
0.0
  0
ENDBLK
  5
59B
  8
回91-枠英2
  6
CONTINUOUS
 62
    30
  0
BLOCK
  8
回91-枠英2
  2
*X767676
 70
     1
 10
0.0
 20
0.0
 30
0.0
  3
*X767676
  1

  0
INSERT
  5
59E
  8
回07-寸法
  6
CONTINUOUS
 62
     5
  2
_OPEN
 10
-513.9327680378178
 20
155.0450755909885
 30
0.0
 41
2.0
 42
2.0
 43
2.0
 50
214.9099672965549
  0
LINE
  5
59F
  8
回07-寸法
  6
CONTINUOUS
 62
     5
 10
-512.2926633743332
 20
156.1896526713183
 30
0.0
 11
-508.9818183766085
 21
158.5001864959514
 31
0.0
  0
LINE
  5
5A0
  8
回07-寸法
  6
CONTINUOUS
 62
     5
 10
-508.9818183766085
 20
158.5001864959514
 30
0.0
 11
-496.4818183766085
 21
158.5001864959514
 31
0.0
  0
ENDBLK
  5
5A2
  8
回91-枠英2
  6
CONTINUOUS
 62
    30
  0
BLOCK
  8
回91-枠英2
  2
*X777777
 70
     1
 10
0.0
 20
0.0
 30
0.0
  3
*X777777
  1

  0
TEXT
  5
5AE
  8
回08-記事
  6
CONTINUOUS
 62
     5
 10
-389.7537284108795
 20
370.6545773395776
 30
0.0
 40
3.5
  1
6.25
  0
TEXT
  5
5AF
  8
回08-記事
  6
CONTINUOUS
 62
     5
 10
-381.3537284108796
 20
370.6545773395776
 30
0.0
 40
2.000004999999998
  1
±0.2
  0
TEXT
  5
5B0
  8
回08-記事
  6
CONTINUOUS
 62
     5
 10
-376.5537164108796
 20
370.6545773395776
 30
0.0
 40
3.000007499999998
  1
[0.246
  0
TEXT
  5
5B1
  8
回08-記事
  6
CONTINUOUS
 62
     5
 10
-365.7536894108796
 20
370.6545773395776
 30
0.0
 40
2.000015000024998
  1
±0.008
  0
TEXT
  5
5B2
  8
回08-記事
  6
CONTINUOUS
 62
     5
 10
-358.1536324107846
 20
370.6545773395776
 30
0.0
 40
3.000022500037498
  1
]
  0
ENDBLK
  5
5B4
  8
回91-枠英2
  6
CONTINUOUS
 62
    30
  0
BLOCK
  8
回91-枠英2
  2
*X787878
 70
     1
 10
0.0
 20
0.0
 30
0.0
  3
*X787878
  1

  0
INSERT
  5
5D8
  8
回07-寸法
  6
CONTINUOUS
 62
     5
  2
_OPEN
 10
-456.5153995677086
 20
292.8404942847921
 30
0.0
 41
2.0
 42
2.0
 43
2.0
 50
324.6828875604169
  0
LINE
  5
5D9
  8
回07-寸法
  6
CONTINUOUS
 62
     5
 10
-458.1473294994323
 20
293.9966969910443
 30
0.0
 11
-461.964112415952
 21
296.7008417288005
 31
0.0
  0
LINE
  5
5DA
  8
回07-寸法
  6
CONTINUOUS
 62
     5
 10
-461.964112415952
 20
296.7008417288005
 30
0.0
 11
-486.0749435215327
 21
296.7008417288005
 31
0.0
  0
ENDBLK
  5
5DC
  8
回91-枠英2
  6
CONTINUOUS
 62
    30
  0
BLOCK
  8
回91-枠英2
  2
*X797979
 70
     1
 10
0.0
 20
0.0
 30
0.0
  3
*X797979
  1

  0
INSERT
  5
5DF
  8
回07-寸法
  6
CONTINUOUS
 62
     5
  2
_OPEN
 10
-457.4350054524443
 20
288.4303328513045
 30
0.0
 41
2.0
 42
2.0
 43
2.0
 50
331.0518698838653
  0
LINE
  5
5E0
  8
回07-寸法
  6
CONTINUOUS
 62
     5
 10
-459.1851219463391
 20
289.3983681077891
 30
0.0
 11
-464.0793015852162
 21
292.1054670115075
 31
0.0
  0
LINE
  5
5E1
  8
回07-寸法
  6
CONTINUOUS
 62
     5
 10
-464.0793015852162
 20
292.1054670115075
 30
0.0
 11
-488.4901326907973
 21
292.1054670115075
 31
0.0
  0
ENDBLK
  5
5E3
  8
回91-枠英2
  6
CONTINUOUS
 62
    30
  0
BLOCK
  8
回91-枠英2
  2
*X808080
 70
     1
 10
0.0
 20
0.0
 30
0.0
  3
*X808080
  1

  0
TEXT
  5
5F0
  8
回07-寸法
  6
CONTINUOUS
 62
     5
 10
-473.4701899411793
 20
169.4162442720357
 30
0.0
 40
3.0
  1
112 [4.409] 
  0
TEXT
  5
5F1
  8
回07-寸法
  6
CONTINUOUS
 62
     5
 10
-452.4593588355982
 20
169.4162442720357
 30
0.0
 40
2.000099999999999
  1
(Active area Center)
  0
ENDBLK
  5
5F3
  8
回91-枠英2
  6
CONTINUOUS
 62
    30
  0
BLOCK
  8
回91-枠英2
  2
*X818181
 70
     1
 10
0.0
 20
0.0
 30
0.0
  3
*X818181
  1

  0
TEXT
  5
5F6
  8
回07-寸法
  6
CONTINUOUS
 62
     5
 10
-415.073471866591
 20
162.2474600655259
 30
0.0
 40
3.0
  1
213.2 [8.394] 
  0
TEXT
  5
5F7
  8
回07-寸法
  6
CONTINUOUS
 62
     5
 10
-390.7626407610102
 20
162.2474600655259
 30
0.0
 40
2.000099999999999
  1
(Active area)
  0
ENDBLK
  5
5F9
  8
回91-枠英2
  6
CONTINUOUS
 62
    30
  0
BLOCK
  8
回91-枠英2
  2
*X828282
 70
     1
 10
0.0
 20
0.0
 30
0.0
  3
*X828282
  1

  0
TEXT
  5
5FC
  8
回07-寸法
  6
CONTINUOUS
 62
     5
 10
-416.0735068665909
 20
156.3606128430256
 30
0.0
 40
3.0
  1
214.6 [8.449] 
  0
TEXT
  5
5FD
  8
回07-寸法
  6
CONTINUOUS
 62
     5
 10
-391.16267576101
 20
156.3606128430256
 30
0.0
 40
2.000099999999999
  1
(Viewing area)
  0
ENDBLK
  5
5FF
  8
回91-枠英2
  6
CONTINUOUS
 62
    30
  0
BLOCK
  8
回91-枠英2
  2
*X838383
 70
     1
 10
0.0
 20
0.0
 30
0.0
  3
*X838383
  1

  0
TEXT
  5
602
  8
回07-寸法
  6
CONTINUOUS
 62
     5
 10
-412.6984780870634
 20
143.4039263800902
 30
0.0
 40
3.0
  1
222.9
  0
TEXT
  5
603
  8
回07-寸法
  6
CONTINUOUS
 62
     5
 10
-403.3876469814824
 20
143.4039263800902
 30
0.0
 40
2.1
  1
±0.3
  0
TEXT
  5
604
  8
回07-寸法
  6
CONTINUOUS
 62
     5
 10
-398.3476469814825
 20
143.4039263800902
 30
0.0
 40
3.0
  1
 [8.776
  0
TEXT
  5
605
  8
回07-寸法
  6
CONTINUOUS
 62
     5
 10
-386.0476469814825
 20
143.4039263800902
 30
0.0
 40
2.1
  1
±0.012
  0
TEXT
  5
606
  8
回07-寸法
  6
CONTINUOUS
 62
     5
 10
-378.4876469814824
 20
143.4039263800902
 30
0.0
 40
3.0
  1
]
  0
ENDBLK
  5
608
  8
回91-枠英2
  6
CONTINUOUS
 62
    30
  0
BLOCK
  8
回91-枠英2
  2
*X848484
 70
     1
 10
0.0
 20
0.0
 30
0.0
  3
*X848484
  1

  0
TEXT
  5
60B
  8
回07-寸法
  6
CONTINUOUS
 62
     5
 10
-522.3939844104631
 20
200.714190715095
 30
0.0
 40
3.0
  1
86.7 [3.413] 
 50
90.0
  0
TEXT
  5
60C
  8
回07-寸法
  6
CONTINUOUS
 62
     5
 10
-522.3939844104631
 20
222.9141907150951
 30
0.0
 40
2.000099999999999
  1
(Active area Center)
 50
90.0
  0
ENDBLK
  5
60E
  8
回91-枠英2
  6
CONTINUOUS
 62
    30
  0
BLOCK
  8
回91-枠英2
  2
*X858585
 70
     1
 10
0.0
 20
0.0
 30
0.0
  3
*X858585
  1

  0
TEXT
  5
611
  8
回07-寸法
  6
CONTINUOUS
 62
     5
 10
-533.4531802632451
 20
248.1814874548084
 30
0.0
 40
3.0
  1
161.4 [6.354] 
 50
90.0
  0
TEXT
  5
612
  8
回07-寸法
  6
CONTINUOUS
 62
     5
 10
-533.4531802632451
 20
272.1814874548083
 30
0.0
 40
2.000099999999999
  1
(Active area)
 50
90.0
  0
ENDBLK
  5
614
  8
回91-枠英2
  6
CONTINUOUS
 62
    30
  0
BLOCK
  8
回91-枠英2
  2
*X868686
 70
     1
 10
0.0
 20
0.0
 30
0.0
  3
*X868686
  1

  0
TEXT
  5
617
  8
回07-寸法
  6
CONTINUOUS
 62
     5
 10
-540.2941613679991
 20
247.6260519020178
 30
0.0
 40
3.0
  1
162.8 [6.409] 
 50
90.0
  0
TEXT
  5
618
  8
回07-寸法
  6
CONTINUOUS
 62
     5
 10
-540.2941613679991
 20
271.9368830075988
 30
0.0
 40
2.000099999999999
  1
(Viewng area)
 50
90.0
  0
ENDBLK
  5
61A
  8
回91-枠英2
  6
CONTINUOUS
 62
    30
  0
BLOCK
  8
回91-枠英2
  2
*X878787
 70
     1
 10
0.0
 20
0.0
 30
0.0
  3
*X878787
  1

  0
TEXT
  5
61D
  8
回07-寸法
  6
CONTINUOUS
 62
     5
 10
-557.2215284038478
 20
251.7457828898391
 30
0.0
 40
3.0
  1
176.1
 50
90.0
  0
TEXT
  5
61E
  8
回07-寸法
  6
CONTINUOUS
 62
     5
 10
-557.2215284038478
 20
259.8457828898391
 30
0.0
 40
2.1
  1
±0.3
 50
90.0
  0
TEXT
  5
61F
  8
回07-寸法
  6
CONTINUOUS
 62
     5
 10
-557.2215284038478
 20
264.8857828898391
 30
0.0
 40
3.0
  1
 [6.933
 50
90.0
  0
TEXT
  5
620
  8
回07-寸法
  6
CONTINUOUS
 62
     5
 10
-557.2215284038478
 20
277.1966139954201
 30
0.0
 40
2.1
  1
±0.012
 50
90.0
  0
TEXT
  5
621
  8
回07-寸法
  6
CONTINUOUS
 62
     5
 10
-557.2215284038478
 20
284.75661399542
 30
0.0
 40
3.0
  1
]
 50
90.0
  0
ENDBLK
  5
623
  8
回91-枠英2
  6
CONTINUOUS
 62
    30
  0
BLOCK
  8
回91-枠英2
  2
*X888888
 70
     1
 10
0.0
 20
0.0
 30
0.0
  3
*X888888
  1

  0
TEXT
  5
626
  8
回07-寸法
  6
CONTINUOUS
 62
     5
 10
-393.6392099319072
 20
373.0158894941713
 30
0.0
 40
3.0
  1
60
 50
90.0
  0
TEXT
  5
627
  8
回07-寸法
  6
CONTINUOUS
 62
     5
 10
-393.6392099319072
 20
377.2158894941712
 30
0.0
 40
2.1
  1
±1
 50
90.0
  0
TEXT
  5
628
  8
回07-寸法
  6
CONTINUOUS
 62
     5
 10
-393.6392099319072
 20
379.7358894941712
 30
0.0
 40
3.0
  1
 [2.362
 50
90.0
  0
TEXT
  5
629
  8
回07-寸法
  6
CONTINUOUS
 62
     5
 10
-393.6392099319072
 20
392.0358894941712
 30
0.0
 40
2.1
  1
±0.039
 50
90.0
  0
TEXT
  5
62A
  8
回07-寸法
  6
CONTINUOUS
 62
     5
 10
-393.6392099319072
 20
400.0234712680778
 30
0.0
 40
3.0
  1
]
 50
90.0
  0
ENDBLK
  5
62C
  8
回91-枠英2
  6
CONTINUOUS
 62
    30
  0
BLOCK
  8
回91-枠英2
  2
*X898989
 70
     1
 10
0.0
 20
0.0
 30
0.0
  3
*X898989
  1

  0
TEXT
  5
62F
  8
回08-記事
  6
CONTINUOUS
 62
     5
 10
-241.0189667121567
 20
170.8571463896619
 30
0.0
 40
3.0
  1
2.1
  0
TEXT
  5
630
  8
回08-記事
  6
CONTINUOUS
 62
     5
 10
-236.5189667121567
 20
170.8571463896619
 30
0.0
 40
2.000099999999999
  1
±0.2
  0
TEXT
  5
631
  8
回08-記事
  6
CONTINUOUS
 62
     5
 10
-231.7187267121567
 20
170.8571463896619
 30
0.0
 40
3.0
  1
[0.083
  0
TEXT
  5
632
  8
回08-記事
  6
CONTINUOUS
 62
     5
 10
-221.2187267121567
 20
170.8571463896619
 30
0.0
 40
2.00001
  1
±0.008
  0
TEXT
  5
633
  8
回08-記事
  6
CONTINUOUS
 62
     5
 10
-213.6186887121567
 20
170.8571463896619
 30
0.0
 40
3.0
  1
]
  0
ENDBLK
  5
635
  8
回91-枠英2
  6
CONTINUOUS
 62
    30
  0
BLOCK
  8
回91-枠英2
  2
*X909090
 70
     1
 10
0.0
 20
0.0
 30
0.0
  3
*X909090
  1

  0
TEXT
  5
638
  8
回08-記事
  6
CONTINUOUS
 62
     5
 10
-243.1405436554708
 20
424.7365982119206
 30
0.0
 40
3.0
  1
0.3
  0
TEXT
  5
639
  8
回08-記事
  6
CONTINUOUS
 62
     5
 10
-238.0405436554708
 20
424.7365982119206
 30
0.0
 40
2.000099999999999
  1
±0.05
  0
TEXT
  5
63A
  8
回08-記事
  6
CONTINUOUS
 62
     5
 10
-231.8402336554708
 20
424.7365982119206
 30
0.0
 40
3.0
  1
[0.012
  0
TEXT
  5
63B
  8
回08-記事
  6
CONTINUOUS
 62
     5
 10
-221.9402336554708
 20
424.7365982119206
 30
0.0
 40
2.00001
  1
±0.002
  0
TEXT
  5
63C
  8
回08-記事
  6
CONTINUOUS
 62
     5
 10
-214.3401956554708
 20
424.7365982119206
 30
0.0
 40
3.0
  1
]
  0
ENDBLK
  5
63E
  8
回91-枠英2
  6
CONTINUOUS
 62
    30
  0
BLOCK
  8
回91-枠英2
  2
*X919191
 70
     1
 10
0.0
 20
0.0
 30
0.0
  3
*X919191
  1

  0
TEXT
  5
641
  8
回08-記事
  6
CONTINUOUS
 62
     5
 10
-378.985496926009
 20
432.517670946826
 30
0.0
 40
3.0
  1
3.75
  0
TEXT
  5
642
  8
回08-記事
  6
CONTINUOUS
 62
     5
 10
-371.785496926009
 20
432.517670946826
 30
0.0
 40
2.00001
  1
±0.1
  0
TEXT
  5
643
  8
回08-記事
  6
CONTINUOUS
 62
     5
 10
-367.385474926009
 20
432.517670946826
 30
0.0
 40
3.0
  1
[0.148
  0
TEXT
  5
644
  8
回08-記事
  6
CONTINUOUS
 62
     5
 10
-357.185474926009
 20
432.517670946826
 30
0.0
 40
2.00001
  1
±0.004
  0
TEXT
  5
645
  8
回08-記事
  6
CONTINUOUS
 62
     5
 10
-349.385435926009
 20
432.517670946826
 30
0.0
 40
3.0
  1
]
  0
ENDBLK
  5
647
  8
回91-枠英2
  6
CONTINUOUS
 62
    30
  0
BLOCK
  8
回91-枠英2
  2
*X929292
 70
     1
 10
0.0
 20
0.0
 30
0.0
  3
*X929292
  1

  0
TEXT
  5
64A
  8
回08-記事
  6
CONTINUOUS
 62
     5
 10
-379.5456542549118
 20
426.7866444995929
 30
0.0
 40
3.0
  1
1.25
  0
TEXT
  5
64B
  8
回08-記事
  6
CONTINUOUS
 62
     5
 10
-372.9456542549116
 20
426.7866444995929
 30
0.0
 40
2.00001
  1
±0.2
  0
TEXT
  5
64C
  8
回08-記事
  6
CONTINUOUS
 62
     5
 10
-368.1456302549118
 20
426.7866444995929
 30
0.0
 40
3.0
  1
[0.049
  0
TEXT
  5
64D
  8
回08-記事
  6
CONTINUOUS
 62
     5
 10
-357.3347991493308
 20
426.7866444995929
 30
0.0
 40
2.00001
  1
±0.008
  0
TEXT
  5
64E
  8
回08-記事
  6
CONTINUOUS
 62
     5
 10
-349.7347611493308
 20
426.7866444995929
 30
0.0
 40
3.0
  1
]
  0
ENDBLK
  5
650
  8
回91-枠英2
  6
CONTINUOUS
 62
    30
  0
BLOCK
  8
回91-枠英2
  2
*X939393
 70
     1
 10
0.0
 20
0.0
 30
0.0
  3
*X939393
  1

  0
TEXT
  5
653
  8
回08-記事
  6
CONTINUOUS
 62
     5
 10
-385.7639265040712
 20
420.3829902660658
 30
0.0
 40
3.0
  1
4-0.7
  0
TEXT
  5
654
  8
回08-記事
  6
CONTINUOUS
 62
     5
 10
-376.1639265040712
 20
420.3829902660658
 30
0.0
 40
2.00001
  1
±0.1
  0
TEXT
  5
655
  8
回08-記事
  6
CONTINUOUS
 62
     5
 10
-371.7639045040712
 20
420.3829902660658
 30
0.0
 40
3.0
  1
[4-0.028
  0
TEXT
  5
656
  8
回08-記事
  6
CONTINUOUS
 62
     5
 10
-356.7639045040712
 20
420.3829902660658
 30
0.0
 40
2.00001
  1
±0.004
  0
TEXT
  5
657
  8
回08-記事
  6
CONTINUOUS
 62
     5
 10
-348.9638655040712
 20
420.3829902660658
 30
0.0
 40
3.0
  1
]
  0
ENDBLK
  5
659
  8
回91-枠英2
  6
CONTINUOUS
 62
    30
  0
BLOCK
  8
回91-枠英2
  2
*X949494
 70
     1
 10
0.0
 20
0.0
 30
0.0
  3
*X949494
  1

  0
TEXT
  5
65C
  8
回08-記事
  6
CONTINUOUS
 62
     5
 10
-395.4907874303324
 20
351.2316808971728
 30
0.0
 40
3.0
  1
4-0.7
  0
TEXT
  5
65D
  8
回08-記事
  6
CONTINUOUS
 62
     5
 10
-385.8907874303324
 20
351.2316808971728
 30
0.0
 40
2.00001
  1
±0.1
  0
TEXT
  5
65E
  8
回08-記事
  6
CONTINUOUS
 62
     5
 10
-381.4907654303324
 20
351.2316808971728
 30
0.0
 40
3.0
  1
[4-0.028
  0
TEXT
  5
65F
  8
回08-記事
  6
CONTINUOUS
 62
     5
 10
-366.4907654303324
 20
351.2316808971728
 30
0.0
 40
2.00001
  1
±0.004
  0
TEXT
  5
660
  8
回08-記事
  6
CONTINUOUS
 62
     5
 10
-358.6907264303324
 20
351.2316808971728
 30
0.0
 40
3.0
  1
]
  0
ENDBLK
  5
662
  8
回91-枠英2
  6
CONTINUOUS
 62
    30
  0
BLOCK
  8
回91-枠英2
  2
*X959595
 70
     1
 10
0.0
 20
0.0
 30
0.0
  3
*X959595
  1

  0
TEXT
  5
665
  8
回08-記事
  6
CONTINUOUS
 62
     5
 10
-389.272515181173
 20
357.6353351306999
 30
0.0
 40
3.0
  1
1.25
  0
TEXT
  5
666
  8
回08-記事
  6
CONTINUOUS
 62
     5
 10
-382.672515181173
 20
357.6353351306999
 30
0.0
 40
2.00001
  1
±0.2
  0
TEXT
  5
667
  8
回08-記事
  6
CONTINUOUS
 62
     5
 10
-377.872491181173
 20
357.6353351306999
 30
0.0
 40
3.0
  1
[0.049
  0
TEXT
  5
668
  8
回08-記事
  6
CONTINUOUS
 62
     5
 10
-367.061660075592
 20
357.6353351306999
 30
0.0
 40
2.00001
  1
±0.008
  0
TEXT
  5
669
  8
回08-記事
  6
CONTINUOUS
 62
     5
 10
-359.461622075592
 20
357.6353351306999
 30
0.0
 40
3.0
  1
]
  0
ENDBLK
  5
66B
  8
回91-枠英2
  6
CONTINUOUS
 62
    30
  0
BLOCK
  8
回91-枠英2
  2
*X969696
 70
     1
 10
0.0
 20
0.0
 30
0.0
  3
*X969696
  1

  0
TEXT
  5
66E
  8
回08-記事
  6
CONTINUOUS
 62
     5
 10
-388.7123578522702
 20
363.3663615779332
 30
0.0
 40
3.0
  1
3.75
  0
TEXT
  5
66F
  8
回08-記事
  6
CONTINUOUS
 62
     5
 10
-381.5123578522702
 20
363.3663615779332
 30
0.0
 40
2.00001
  1
±0.1
  0
TEXT
  5
670
  8
回08-記事
  6
CONTINUOUS
 62
     5
 10
-377.1123358522702
 20
363.3663615779332
 30
0.0
 40
3.0
  1
[0.148
  0
TEXT
  5
671
  8
回08-記事
  6
CONTINUOUS
 62
     5
 10
-366.9123358522702
 20
363.3663615779332
 30
0.0
 40
2.00001
  1
±0.004
  0
TEXT
  5
672
  8
回08-記事
  6
CONTINUOUS
 62
     5
 10
-359.1122968522702
 20
363.3663615779332
 30
0.0
 40
3.0
  1
]
  0
ENDBLK
  5
674
  8
回91-枠英2
  6
CONTINUOUS
 62
    30
  0
BLOCK
  8
回91-枠英2
  2
*X979797
 70
     1
 10
0.0
 20
0.0
 30
0.0
  3
*X979797
  1

  0
TEXT
  5
677
  8
回08-記事
  6
CONTINUOUS
 62
     5
 10
-252.867404581732
 20
355.5852888430278
 30
0.0
 40
3.0
  1
0.3
  0
TEXT
  5
678
  8
回08-記事
  6
CONTINUOUS
 62
     5
 10
-247.767404581732
 20
355.5852888430278
 30
0.0
 40
2.000099999999999
  1
±0.05
  0
TEXT
  5
679
  8
回08-記事
  6
CONTINUOUS
 62
     5
 10
-241.567094581732
 20
355.5852888430278
 30
0.0
 40
3.0
  1
[0.012
  0
TEXT
  5
67A
  8
回08-記事
  6
CONTINUOUS
 62
     5
 10
-231.667094581732
 20
355.5852888430278
 30
0.0
 40
2.00001
  1
±0.002
  0
TEXT
  5
67B
  8
回08-記事
  6
CONTINUOUS
 62
     5
 10
-224.067056581732
 20
355.5852888430278
 30
0.0
 40
3.0
  1
]
  0
ENDBLK
  5
67D
  8
回91-枠英2
  6
CONTINUOUS
 62
    30
  0
BLOCK
  8
回91-枠英2
  2
*X989898
 70
     1
 10
0.0
 20
0.0
 30
0.0
  3
*X989898
  1

  0
TEXT
  5
680
  8
回08-記事
  6
CONTINUOUS
 62
     5
 10
-250.783918189599
 20
101.7058370207689
 30
0.0
 40
3.0
  1
2.1
  0
TEXT
  5
681
  8
回08-記事
  6
CONTINUOUS
 62
     5
 10
-246.283918189599
 20
101.7058370207689
 30
0.0
 40
2.000099999999999
  1
±0.2
  0
TEXT
  5
682
  8
回08-記事
  6
CONTINUOUS
 62
     5
 10
-241.483678189599
 20
101.7058370207689
 30
0.0
 40
3.0
  1
[0.083
  0
TEXT
  5
683
  8
回08-記事
  6
CONTINUOUS
 62
     5
 10
-230.983678189599
 20
101.7058370207689
 30
0.0
 40
2.00001
  1
±0.008
  0
TEXT
  5
684
  8
回08-記事
  6
CONTINUOUS
 62
     5
 10
-223.3836401895989
 20
101.7058370207689
 30
0.0
 40
3.0
  1
]
  0
ENDBLK
  5
686
  8
回91-枠英2
  6
CONTINUOUS
 62
    30
  0
BLOCK
  8
回91-枠英2
  2
*X999999
 70
     1
 10
0.0
 20
0.0
 30
0.0
  3
*X999999
  1

  0
TEXT
  5
689
  8
回07-寸法
  6
CONTINUOUS
 62
     5
 10
-403.3660708581684
 20
303.8645801252782
 30
0.0
 40
3.0
  1
60
 50
90.0
  0
TEXT
  5
68A
  8
回07-寸法
  6
CONTINUOUS
 62
     5
 10
-403.3660708581684
 20
308.0645801252781
 30
0.0
 40
2.1
  1
±1
 50
90.0
  0
TEXT
  5
68B
  8
回07-寸法
  6
CONTINUOUS
 62
     5
 10
-403.3660708581684
 20
310.5845801252781
 30
0.0
 40
3.0
  1
 [2.362
 50
90.0
  0
TEXT
  5
68C
  8
回07-寸法
  6
CONTINUOUS
 62
     5
 10
-403.3660708581684
 20
322.8845801252782
 30
0.0
 40
2.1
  1
±0.039
 50
90.0
  0
TEXT
  5
68D
  8
回07-寸法
  6
CONTINUOUS
 62
     5
 10
-403.3660708581684
 20
330.8721618991848
 30
0.0
 40
3.0
  1
]
 50
90.0
  0
ENDBLK
  5
68F
  8
回91-枠英2
  6
CONTINUOUS
 62
    30
  0
BLOCK
  8
回91-枠英2
  2
*X100100100
 70
     1
 10
0.0
 20
0.0
 30
0.0
  3
*X100100100
  1

  0
TEXT
  5
692
  8
回07-寸法
  6
CONTINUOUS
 62
     5
 10
-566.948389330109
 20
182.5944735209461
 30
0.0
 40
3.0
  1
176.1
 50
90.0
  0
TEXT
  5
693
  8
回07-寸法
  6
CONTINUOUS
 62
     5
 10
-566.948389330109
 20
190.6944735209462
 30
0.0
 40
2.1
  1
±0.3
 50
90.0
  0
TEXT
  5
694
  8
回07-寸法
  6
CONTINUOUS
 62
     5
 10
-566.948389330109
 20
195.7344735209461
 30
0.0
 40
3.0
  1
 [6.933
 50
90.0
  0
TEXT
  5
695
  8
回07-寸法
  6
CONTINUOUS
 62
     5
 10
-566.948389330109
 20
208.0453046265271
 30
0.0
 40
2.1
  1
±0.012
 50
90.0
  0
TEXT
  5
696
  8
回07-寸法
  6
CONTINUOUS
 62
     5
 10
-566.948389330109
 20
215.6053046265271
 30
0.0
 40
3.0
  1
]
 50
90.0
  0
ENDBLK
  5
698
  8
回91-枠英2
  6
CONTINUOUS
 62
    30
  0
BLOCK
  8
回91-枠英2
  2
*X101101101
 70
     1
 10
0.0
 20
0.0
 30
0.0
  3
*X101101101
  1

  0
TEXT
  5
69B
  8
回07-寸法
  6
CONTINUOUS
 62
     5
 10
-549.9848367014704
 20
178.4747425331247
 30
0.0
 40
3.0
  1
162.8 [6.409] 
 50
90.0
  0
TEXT
  5
69C
  8
回07-寸法
  6
CONTINUOUS
 62
     5
 10
-549.9848367014704
 20
202.7855736387057
 30
0.0
 40
2.000099999999999
  1
(Viewng area)
 50
90.0
  0
ENDBLK
  5
69E
  8
回91-枠英2
  6
CONTINUOUS
 62
    30
  0
BLOCK
  8
回91-枠英2
  2
*X102102102
 70
     1
 10
0.0
 20
0.0
 30
0.0
  3
*X102102102
  1

  0
TEXT
  5
6A1
  8
回07-寸法
  6
CONTINUOUS
 62
     5
 10
-543.1800411895062
 20
179.0301780859152
 30
0.0
 40
3.0
  1
161.4 [6.354] 
 50
90.0
  0
TEXT
  5
6A2
  8
回07-寸法
  6
CONTINUOUS
 62
     5
 10
-543.1800411895062
 20
203.0301780859153
 30
0.0
 40
2.000099999999999
  1
(Active area)
 50
90.0
  0
ENDBLK
  5
6A4
  8
回91-枠英2
  6
CONTINUOUS
 62
    30
  0
BLOCK
  8
回91-枠英2
  2
*X103103103
 70
     1
 10
0.0
 20
0.0
 30
0.0
  3
*X103103103
  1

  0
TEXT
  5
6A7
  8
回07-寸法
  6
CONTINUOUS
 62
     5
 10
-532.1208453367241
 20
131.562881346202
 30
0.0
 40
3.0
  1
86.7 [3.413] 
 50
90.0
  0
TEXT
  5
6A8
  8
回07-寸法
  6
CONTINUOUS
 62
     5
 10
-532.1208453367241
 20
153.7628813462021
 30
0.0
 40
2.000099999999999
  1
(Active area Center)
 50
90.0
  0
ENDBLK
  5
6AA
  8
回91-枠英2
  6
CONTINUOUS
 62
    30
  0
BLOCK
  8
回91-枠英2
  2
*X104104104
 70
     1
 10
0.0
 20
0.0
 30
0.0
  3
*X104104104
  1

  0
TEXT
  5
6AD
  8
回07-寸法
  6
CONTINUOUS
 62
     5
 10
-422.4253390133246
 20
74.2526170111972
 30
0.0
 40
3.0
  1
222.9
  0
TEXT
  5
6AE
  8
回07-寸法
  6
CONTINUOUS
 62
     5
 10
-413.1145079077437
 20
74.2526170111972
 30
0.0
 40
2.1
  1
±0.3
  0
TEXT
  5
6AF
  8
回07-寸法
  6
CONTINUOUS
 62
     5
 10
-408.0745079077436
 20
74.2526170111972
 30
0.0
 40
3.0
  1
 [8.776
  0
TEXT
  5
6B0
  8
回07-寸法
  6
CONTINUOUS
 62
     5
 10
-395.7745079077437
 20
74.2526170111972
 30
0.0
 40
2.1
  1
±0.012
  0
TEXT
  5
6B1
  8
回07-寸法
  6
CONTINUOUS
 62
     5
 10
-388.2145079077437
 20
74.2526170111972
 30
0.0
 40
3.0
  1
]
  0
ENDBLK
  5
6B3
  8
回91-枠英2
  6
CONTINUOUS
 62
    30
  0
BLOCK
  8
回91-枠英2
  2
*X105105105
 70
     1
 10
0.0
 20
0.0
 30
0.0
  3
*X105105105
  1

  0
TEXT
  5
6B6
  8
回07-寸法
  6
CONTINUOUS
 62
     5
 10
-425.8003677928519
 20
87.17311788134294
 30
0.0
 40
3.0
  1
214.6 [8.449] 
  0
TEXT
  5
6B7
  8
回07-寸法
  6
CONTINUOUS
 62
     5
 10
-400.8895366872711
 20
87.17311788134294
 30
0.0
 40
2.000099999999999
  1
(Viewing area)
  0
ENDBLK
  5
6B9
  8
回91-枠英2
  6
CONTINUOUS
 62
    30
  0
BLOCK
  8
回91-枠英2
  2
*X106106106
 70
     1
 10
0.0
 20
0.0
 30
0.0
  3
*X106106106
  1

  0
TEXT
  5
6BC
  8
回07-寸法
  6
CONTINUOUS
 62
     5
 10
-424.8003327928523
 20
93.09621060273519
 30
0.0
 40
3.0
  1
213.2 [8.394] 
  0
TEXT
  5
6BD
  8
回07-寸法
  6
CONTINUOUS
 62
     5
 10
-400.4895016872713
 20
93.09621060273519
 30
0.0
 40
2.000099999999999
  1
(Active area)
  0
ENDBLK
  5
6BF
  8
回91-枠英2
  6
CONTINUOUS
 62
    30
  0
BLOCK
  8
回91-枠英2
  2
*X107107107
 70
     1
 10
0.0
 20
0.0
 30
0.0
  3
*X107107107
  1

  0
TEXT
  5
6C2
  8
回07-寸法
  6
CONTINUOUS
 62
     5
 10
-483.1970508674403
 20
100.264994809245
 30
0.0
 40
3.0
  1
112 [4.409] 
  0
TEXT
  5
6C3
  8
回07-寸法
  6
CONTINUOUS
 62
     5
 10
-462.1862197618596
 20
100.264994809245
 30
0.0
 40
2.000099999999999
  1
(Active area Center)
  0
ENDBLK
  5
6C5
  8
回91-枠英2
  6
CONTINUOUS
 62
    30
  0
ENDSEC
  0
SECTION
  2
ENTITIES
  0
TEXT
  5
5E
  8
回03-記事
  6
CONTINUOUS
 62
     5
 10
-462.7297509559737
 20
17.43606573728978
 30
0.0
 40
4.799999999999998
  1
without affecting product specification.
  0
TEXT
  5
60
  8
回03-記事
  6
CONTINUOUS
 62
     5
 10
-462.7297509559737
 20
25.85577145148974
 30
0.0
 40
4.799999999999998
  1
Edges and corners of ITO glass may be chamfered 
  0
TEXT
  5
61
  8
回03-記事
  6
CONTINUOUS
 62
     5
 10
-462.7297509559737
 20
34.27547716568958
 30
0.0
 40
4.799999999999998
  1
Unit: mm
  0
TEXT
  5
62
  8
回03-記事
  6
CONTINUOUS
 62
     5
 10
-462.7297509559737
 20
42.69518287988929
 30
0.0
 40
4.799999999999998
  1
EXCEPT WHERE INDICATED
  0
TEXT
  5
63
  8
回03-記事
  6
CONTINUOUS
 62
     5
 10
-462.7297509559737
 20
51.11488859408902
 30
0.0
 40
4.799999999999998
  1
TOLERANCE=±0.5mm
  0
DIMENSION
  5
64
  8
回07-寸法
  6
CONTINUOUS
 62
     5
  2
*D323232
 10
-418.7848982793128
 20
297.6683710122313
 30
0.0
 11
-418.7848982793128
 21
311.0805030465875
 31
0.0
 70
   160
  3
DMC
 13
-439.7234886360966
 23
287.9683710122313
 33
0.0
 14
-445.5449234605342
 24
297.6683710122313
 34
0.0
 50
90.0
1001
ACAD
1000
DSTYLE
1002
{
1070
    47
1040
0.2
1070
    48
1040
0.2
1070
   371
1070
    13
1070
   372
1070
    13
1002
}
  0
DIMENSION
  5
77
  8
回07-寸法
  6
CONTINUOUS
 62
     5
  2
*D333333
 10
-425.4530909859425
 20
292.7683710122313
 30
0.0
 11
-425.4530909859425
 21
309.775062585032
 31
0.0
 70
   160
  3
DMC
 13
-439.7234886360966
 23
287.9683710122313
 33
0.0
 14
-440.6699234605341
 24
292.7683710122313
 34
0.0
 50
90.0
1001
ACAD
1000
DSTYLE
1002
{
1070
    47
1040
0.2
1070
    48
1040
0.2
1070
   371
1070
    13
1070
   372
1070
    13
1002
}
  0
ARC
  5
86
  8
回05-ﾃｰﾙ
  6
BYBLOCK
 62
     7
 10
-451.2949234605346
 20
347.4683710122316
 30
0.0
 40
0.5
 50
90.0
 51
180.0
  0
ARC
  5
8A
  8
回05-ﾃｰﾙ
  6
CONTINUOUS
 62
     7
 10
-441.6699234282092
 20
292.3556547968122
 30
0.0
 40
1.0
 50
0.00000448756826
 51
44.85346379900538
  0
ARC
  5
8B
  8
回05-ﾃｰﾙ
  6
CONTINUOUS
 62
     7
 10
-444.5449234605346
 20
298.0810871951602
 30
0.0
 40
1.0
 50
180.0
 51
224.8534637990054
  0
ARC
  5
8C
  8
回05-ﾃｰﾙ
  6
CONTINUOUS
 62
     7
 10
-452.7949234605346
 20
298.0810871951602
 30
0.0
 40
1.0
 50
315.1465362009923
 51
0.0
  0
ARC
  5
8D
  8
回05-ﾃｰﾙ
  6
CONTINUOUS
 62
     7
 10
-455.6699234605348
 20
292.3556548293031
 30
0.0
 40
1.0
 50
135.1465362009945
 51
180.0000000000032
  0
ARC
  5
8E
  8
回05-ﾃｰﾙ
  6
CONTINUOUS
 62
     7
 10
-438.6699232177338
 20
289.6683710122315
 30
0.0
 40
2.0
 50
180.000004487565
 51
270.0
  0
ARC
  5
8F
  8
回05-ﾃｰﾙ
  6
CONTINUOUS
 62
     7
 10
-458.6699234605347
 20
289.6683710122315
 30
0.0
 40
2.0
 50
270.0
 51
0.0000000000032569
  0
LINE
  5
90
  8
回05-ﾃｰﾙ
  6
CONTINUOUS
 62
     7
 10
-445.2538363804536
 20
297.3757911778939
 30
0.0
 11
-440.9610105082903
 21
293.0609508140786
 31
0.0
  0
LINE
  5
91
  8
回05-ﾃｰﾙ
  6
CONTINUOUS
 62
     7
 10
-452.0860105406153
 20
297.3757911778938
 30
0.0
 11
-456.3788363804539
 21
293.0609508465694
 31
0.0
  0
LINE
  5
92
  8
回05-ﾃｰﾙ
  6
CONTINUOUS
 62
     7
 10
-438.6699232177338
 20
287.6683710122315
 30
0.0
 11
-438.6699234605345
 21
287.6683710122315
 31
0.0
  0
LINE
  5
93
  8
回05-ﾃｰﾙ
  6
CONTINUOUS
 62
     7
 10
-458.6699234605347
 20
287.6683710122315
 30
0.0
 11
-458.6699234605347
 21
287.6683710122315
 31
0.0
  0
INSERT
  5
94
  8
回08-記事
  6
CONTINUOUS
 62
     7
 66
     1
  2
*X636363
 10
0.0
 20
0.0
 30
0.0
1001
ACAD
1000
HATCH
1002
{
1070
    19
1000
ANSI31
1040
0.3
1040
0.0
1000
ASC_BOUNDS
1070
     1
1070
     2
1070
     1
1005
98
1000
ASC_SEEDPOINT
1011
-630.3068235553896
1021
0.0000000000003979
1031
0.0
1000
R14_HATCH_DATA
1000
94
1011
1.0
1021
0.0
1031
0.0
1011
0.0
1021
1.0
1031
0.0
1011
0.0
1021
0.0
1031
1.0
1040
0.0
1010
0.0
1020
0.0
1030
1.0
1000
ANSI31
1070
     0
1070
     1
1071
        1
1071
        1
1071
        8
1070
     1
1040
-450.6699234605346
1040
327.9401671402936
1040
-446.6699234605346
1040
327.9401671402936
1070
     2
1040
-446.6699234605346
1040
327.4401671402936
1040
0.5
1040
4.712388980384688
1040
6.283185307179584
1070
     0
1070
     1
1040
-446.1699234605346
1040
327.4401671402936
1040
-446.1699234605346
1040
302.4401671402937
1070
     2
1040
-446.6699234605346
1040
302.4401671402937
1040
0.5
1040
6.283185307179584
1040
7.853981633974482
1070
     0
1070
     1
1040
-446.6699234605346
1040
301.9401671402937
1040
-450.6699234605346
1040
301.9401671402936
1070
     2
1040
-450.6699234605346
1040
302.4401671402936
1040
0.5
1040
1.570796326794896
1040
3.141592653589792
1070
     0
1070
     1
1040
-451.1699234605345
1040
302.4401671402936
1040
-451.1699234605345
1040
327.4401671402936
1070
     2
1040
-450.6699234605346
1040
327.4401671402936
1040
0.5
1040
3.141592653589792
1040
4.712388980384688
1070
     0
1071
        1
1005
98
1070
     0
1070
     1
1040
0.0
1040
0.3
1070
     0
1070
     1
1040
0.7853981633974483
1040
-630.3068235553896
1040
0.0000000000003979
1040
-0.6735192090801864
1040
0.6735192090801866
1070
     0
1071
        1
1040
-630.3068235553896
1040
0.0000000000003979
1040
0.0
1002
}
  0
SEQEND
  5
502
  8
回91-枠英2
  6
CONTINUOUS
 62
    30
  0
POLYLINE
  5
98
  8
回08-記事
  6
CONTINUOUS
 62
     7
 66
     1
 10
0.0
 20
0.0
 30
0.0
 70
     1
1001
ACAD
1000
ASC_BOUNDS
1002
{
1070
    19
1005
94
1002
}
  0
VERTEX
  5
B9D
  8
回08-記事
  6
CONTINUOUS
 62
     7
 10
-450.6699234605346
 20
327.9401671402936
 30
0.0
  0
VERTEX
  5
B9F
  8
回08-記事
  6
CONTINUOUS
 62
     7
 10
-446.6699234605346
 20
327.9401671402936
 30
0.0
 42
-0.4142135623730951
  0
VERTEX
  5
BA0
  8
回08-記事
  6
CONTINUOUS
 62
     7
 10
-446.1699234605346
 20
327.4401671402936
 30
0.0
  0
VERTEX
  5
BA1
  8
回08-記事
  6
CONTINUOUS
 62
     7
 10
-446.1699234605346
 20
302.4401671402937
 30
0.0
 42
-0.4142135623730951
  0
VERTEX
  5
BA2
  8
回08-記事
  6
CONTINUOUS
 62
     7
 10
-446.6699234605346
 20
301.9401671402937
 30
0.0
  0
VERTEX
  5
BA3
  8
回08-記事
  6
CONTINUOUS
 62
     7
 10
-450.6699234605346
 20
301.9401671402937
 30
0.0
 42
-0.4142135623730951
  0
VERTEX
  5
BA4
  8
回08-記事
  6
CONTINUOUS
 62
     7
 10
-451.1699234605345
 20
302.4401671402936
 30
0.0
  0
VERTEX
  5
BA5
  8
回08-記事
  6
CONTINUOUS
 62
     7
 10
-451.1699234605345
 20
327.4401671402936
 30
0.0
 42
-0.4142135623730951
  0
SEQEND
  5
B9E
  8
回91-枠英2
  6
CONTINUOUS
 62
    30
  0
TEXT
  5
99
  8
回08-記事
  6
CONTINUOUS
 62
     7
 10
-447.469508886084
 20
348.0368215400858
 30
0.0
 40
2.099999999999999
  1
4
  0
TEXT
  5
9A
  8
回08-記事
  6
CONTINUOUS
 62
     7
 10
-451.3973685203503
 20
348.0368215400858
 30
0.0
 40
2.099999999999999
  1
1
  0
TEXT
  5
9B
  8
回07-寸法
  6
CONTINUOUS
 62
     7
 10
-461.7779029529363
 20
334.4906537759845
 30
0.0
 40
3.0
  1
A
1001
ACAD
1000
MTEXTBEGIN
1070
    73
1070
     1
1070
    44
1040
1.0
1070
    74
1070
     0
1000
MTEXTEND
  0
INSERT
  5
9C
  8
回07-寸法
  6
CONTINUOUS
 62
     7
 66
     1
  2
*X646464
 10
0.0
 20
0.0
 30
0.0
  0
SEQEND
  5
512
  8
回91-枠英2
  6
CONTINUOUS
 62
    30
  0
CIRCLE
  5
9D
  8
回07-寸法
  6
DASHED2
 62
     7
 10
-448.753494211184
 20
344.1242804674713
 30
0.0
 40
7.485144268407109
  0
LINE
  5
9F
  8
回07-寸法
  6
CENTER2
 62
     7
 10
-448.6699234605346
 20
348.3994806285242
 30
0.0
 11
-448.6699234605346
 21
310.7877541943504
 31
0.0
  0
LINE
  5
A1
  8
回05-ﾃｰﾙ
  6
BYBLOCK
 62
     7
 10
-438.6699232608114
 20
287.6683710122314
 30
0.0
 11
-438.6699234605345
 21
287.6683710122314
 31
0.0
  0
LINE
  5
A2
  8
回05-ﾃｰﾙ
  6
BYBLOCK
 62
     7
 10
-458.6699234605346
 20
287.6683710122315
 30
0.0
 11
-458.6699234605346
 21
287.6683710122315
 31
0.0
  0
LINE
  5
A3
  8
回05-ﾃｰﾙ
  6
BYBLOCK
 62
     7
 10
-456.6699234605348
 20
292.3556548293031
 30
0.0
 11
-456.6699234605348
 21
289.6683710122317
 31
0.0
  0
LINE
  5
A4
  8
回05-ﾃｰﾙ
  6
BYBLOCK
 62
     7
 10
-440.6699234282092
 20
292.3556548751351
 30
0.0
 11
-440.6699232177338
 21
289.6683708555859
 31
0.0
  0
LINE
  5
A5
  8
回05-ﾃｰﾙ
  6
BYBLOCK
 62
     7
 10
-446.0449234605341
 20
347.9683710122315
 30
0.0
 11
-451.2949234605346
 21
347.9683710122315
 31
0.0
  0
LINE
  5
A6
  8
回05-ﾃｰﾙ
  6
BYBLOCK
 62
     7
 10
-451.7949234605346
 20
347.4683710122316
 30
0.0
 11
-451.7949234605346
 21
298.0810871951602
 31
0.0
  0
LINE
  5
A7
  8
回05-ﾃｰﾙ
  6
BYBLOCK
 62
     7
 10
-445.5449234605342
 20
347.4683710122315
 30
0.0
 11
-445.5449234605342
 21
298.0810871951602
 31
0.0
  0
INSERT
  5
A8
  8
回08-記事
  6
CONTINUOUS
 62
     7
 66
     1
  2
*X656565
 10
0.0
 20
0.0
 30
0.0
1001
ACAD
1000
HATCH
1002
{
1070
    19
1000
ANSI31
1040
0.5
1040
0.0
1000
ASC_BOUNDS
1070
     1
1070
     2
1070
     1
1005
A9
1000
ASC_SEEDPOINT
1011
-630.3068235553896
1021
0.0000000000003979
1031
0.0
1000
R14_HATCH_DATA
1000
A8
1011
1.0
1021
0.0
1031
0.0
1011
0.0
1021
1.0
1031
0.0
1011
0.0
1021
0.0
1031
1.0
1040
0.0
1010
0.0
1020
0.0
1030
1.0
1000
ANSI31
1070
     0
1070
     1
1071
        1
1071
        1
1071
        4
1070
     1
1040
-447.6699234605346
1040
284.1683710122315
1040
-441.1711265447372
1040
284.1683710122315
1070
     1
1040
-441.1711265447372
1040
284.1683710122315
1040
-441.1711265447372
1040
292.3603009205974
1070
     1
1040
-441.1711265447372
1040
292.3603009205974
1040
-447.6699234605346
1040
292.3603009205974
1070
     1
1040
-447.6699234605346
1040
292.3603009205974
1040
-447.6699234605346
1040
284.1683710122315
1071
        1
1005
A9
1070
     0
1070
     1
1040
0.0
1040
0.5
1070
     0
1070
     1
1040
0.7853981633974483
1040
-630.3068235553896
1040
0.0000000000003979
1040
-1.122532015133643
1040
1.122532015133643
1070
     0
1071
        1
1040
-630.3068235553896
1040
0.0000000000003979
1040
0.0
1002
}
  0
SEQEND
  5
51C
  8
回91-枠英2
  6
CONTINUOUS
 62
    30
  0
POLYLINE
  5
A9
  8
回08-記事
  6
CONTINUOUS
 62
     7
 66
     1
 10
0.0
 20
0.0
 30
0.0
 70
     1
1001
ACAD
1000
ASC_BOUNDS
1002
{
1070
    19
1005
A8
1002
}
  0
VERTEX
  5
BA6
  8
回08-記事
  6
CONTINUOUS
 62
     7
 10
-447.6699234605346
 20
284.1683710122315
 30
0.0
  0
VERTEX
  5
BA8
  8
回08-記事
  6
CONTINUOUS
 62
     7
 10
-441.1711265447372
 20
284.1683710122315
 30
0.0
  0
VERTEX
  5
BA9
  8
回08-記事
  6
CONTINUOUS
 62
     7
 10
-441.1711265447372
 20
292.3603009205974
 30
0.0
  0
VERTEX
  5
BAA
  8
回08-記事
  6
CONTINUOUS
 62
     7
 10
-447.6699234605346
 20
292.3603009205974
 30
0.0
  0
SEQEND
  5
BA7
  8
回91-枠英2
  6
CONTINUOUS
 62
    30
  0
INSERT
  5
AA
  8
回07-寸法
  6
CONTINUOUS
 62
     7
 66
     1
  2
*X666666
 10
0.0
 20
0.0
 30
0.0
  0
SEQEND
  5
528
  8
回91-枠英2
  6
CONTINUOUS
 62
    30
  0
TEXT
  5
AB
  8
回07-寸法
  6
CONTINUOUS
 62
     5
 10
-488.9401326907973
 20
292.7554670115075
 30
0.0
 40
3.0
  1
2-R2[R0.079]
1001
ACAD
1000
MTEXTBEGIN
1070
    73
1070
     1
1070
    44
1040
1.0
1070
    74
1070
     0
1000
MTEXTEND
  0
TEXT
  5
AC
  8
回07-寸法
  6
CONTINUOUS
 62
     5
 10
-393.2954986904804
 20
340.9558846201371
 30
0.0
 40
3.0
  1
2-R0.5[R0.020]
1001
ACAD
1000
MTEXTBEGIN
1070
    73
1070
     1
1070
    44
1040
1.0
1070
    74
1070
     0
1000
MTEXTEND
  0
TEXT
  5
AD
  8
回08-記事
  6
CONTINUOUS
 62
     5
 10
-253.2095108835652
 20
223.1902555616458
 30
0.0
 40
3.0
  1
ITO FILM (ANTI-GLARE)
  0
LINE
  5
AE
  8
回08-記事
  6
CONTINUOUS
 62
     5
 10
-253.7590584352279
 20
223.3518110081066
 30
0.0
 11
-260.6829284637938
 21
219.3988465511345
 31
0.0
  0
LINE
  5
AF
  8
回08-記事
  6
CONTINUOUS
 62
     5
 10
-250.9392988487093
 20
300.633951778238
 30
0.0
 11
-257.9754699566442
 21
295.132975761487
 31
0.0
  0
LINE
  5
B0
  8
回08-記事
  6
CONTINUOUS
 62
     5
 10
-259.9310588220308
 20
299.9012262207283
 30
0.0
 11
-250.9392988487093
 21
300.633951778238
 31
0.0
  0
TEXT
  5
B1
  8
回91-枠英2
 10
-109.7408276995974
 20
18.51167074699901
 30
0.0
 40
3.0
  1
Sep/25/2023
  0
TEXT
  5
B2
  8
回91-枠英2
 10
-103.1837274304949
 20
24.15956297253592
 30
0.0
 40
2.5
  1
DATE
  0
LINE
  5
B3
  8
回91-枠英2
  6
CONTINUOUS
 62
     7
 10
-118.0268849723594
 20
27.86592301968222
 30
0.0
 11
-118.0268849723594
 21
4.933274863748692
 31
0.0
  0
TEXT
  5
B4
  8
回91-枠英2
 10
-113.3054725090834
 20
7.740389794261544
 30
0.0
 40
4.0
  1
DMC Co., Ltd.
  0
TEXT
  5
B5
  8
回91-枠英2
 10
-154.9719434095246
 20
24.09409485831202
 30
0.0
 40
2.5
  1
PART No.
  0
TEXT
  5
B6
  8
回91-枠英2
 10
-154.7099960968422
 20
13.11132988976919
 30
0.0
 40
2.5
  1
TYPE
  0
TEXT
  5
B7
  8
回91-枠英2
 10
-168.8954136439134
 20
9.105762425572038
 30
0.0
 40
2.5
  1
STANDARD TOUCHSCREEN
  0
LINE
  5
B8
  8
回91-枠英2
 10
-182.2965096030478
 20
27.86592301968222
 30
0.0
 11
-182.2965096030478
 21
5.0
 31
0.0
  0
TEXT
  5
B9
  8
回91-枠英2
 10
-167.0230796862903
 20
5.721631003972786
 30
0.0
 40
2.5
  1
DIMENSIONAL DRAWING
  0
LINE
  5
BA
  8
回91-枠英2
 10
-170.9949539977853
 20
8.763793067607821
 30
0.0
 11
-124.6656834504134
 21
8.763793067607821
 31
0.0
  0
LINE
  5
BB
  8
回91-枠英2
 10
-182.2965096030478
 20
23.60494343919936
 30
0.0
 11
-79.03839156574065
 21
23.60494343919936
 31
0.0
  0
LINE
  5
BC
  8
回91-枠英2
 10
-182.2829031457146
 20
12.60185276327479
 30
0.0
 11
-118.0268849723594
 21
12.60185276327479
 31
0.0
  0
LINE
  5
BD
  8
回91-枠英2
 10
-182.2965096030478
 20
27.86592301968222
 30
0.0
 11
-78.87838505867319
 21
27.86592301968222
 31
0.0
  0
LINE
  5
BE
  8
回91-枠英2
 10
-182.2974380161987
 20
16.32284117740164
 30
0.0
 11
-78.99018559240094
 21
16.32284117740164
 31
0.0
  0
TEXT
  5
BF
  8
回91-枠英2
 10
-174.3422850703574
 20
17.06015586636886
 30
0.0
 40
5.0
  1
AST-105A060A
  0
POLYLINE
  5
C0
  8
回07-寸法
  6
PHANTOM
 62
     7
 66
     1
 10
0.0
 20
0.0
 30
0.0
 70
     1
  0
VERTEX
  5
BAB
  8
回07-寸法
  6
PHANTOM
 62
     7
 10
-511.2699234605343
 20
279.2683710122314
 30
0.0
  0
VERTEX
  5
BAD
  8
回07-寸法
  6
PHANTOM
 62
     7
 10
-298.0699234605343
 20
279.2683710122314
 30
0.0
  0
VERTEX
  5
BAE
  8
回07-寸法
  6
PHANTOM
 62
     7
 10
-298.0699234605343
 20
117.8683710122312
 30
0.0
  0
VERTEX
  5
BAF
  8
回07-寸法
  6
PHANTOM
 62
     7
 10
-511.2699234605343
 20
117.8683710122312
 30
0.0
  0
SEQEND
  5
BAC
  8
回91-枠英2
  6
CONTINUOUS
 62
    30
  0
TEXT
  5
C2
  8
回08-記事
  6
CONTINUOUS
 62
     7
 10
-554.5060801016695
 20
75.54117776435505
 30
0.0
 40
3.0
  1
(INSULATION AREA)
  0
DIMENSION
  5
C3
  8
回07-寸法
  6
CONTINUOUS
 62
     7
  2
*D343434
 10
-516.1699234605341
 20
79.92029005614933
 30
0.0
 11
-529.3753390133248
 21
82.07029005614932
 31
0.0
 70
    32
  3
DMC
 13
-512.2699234605343
 23
116.3683710122313
 33
0.0
 14
-516.1699234605341
 24
111.8683710122313
 34
0.0
1001
ACAD
1000
DSTYLE
1002
{
1070
    47
1040
0.2
1070
    48
1040
0.2
1070
   371
1070
    13
1070
   372
1070
    13
1002
}
  0
DIMENSION
  5
D2
  8
回07-寸法
  6
CONTINUOUS
 62
     7
  2
*D353535
 10
-297.0699234605344
 20
79.92029005614933
 30
0.0
 11
-404.6699234605342
 21
82.07029005614932
 31
0.0
 70
    32
  3
DMC
 13
-512.2699234605343
 23
116.3683710122313
 33
0.0
 14
-297.0699234605344
 24
116.3683710122313
 34
0.0
1001
ACAD
1000
DSTYLE
1002
{
1070
    47
1040
0.2
1070
    48
1040
0.2
1070
   371
1070
    13
1070
   372
1070
    13
1002
}
  0
TEXT
  5
DF
  8
回08-記事
  6
CONTINUOUS
 62
     7
 10
-565.4546835935876
 20
72.44359543556729
 30
0.0
 40
3.0
  1
(INSULATION AREA)
 50
90.0
  0
DIMENSION
  5
E0
  8
回07-寸法
  6
CONTINUOUS
 62
     7
  2
*D363636
 10
-560.4801927849591
 20
111.8683710122313
 30
0.0
 11
-562.6301927849594
 21
98.66837101223127
 31
0.0
 70
    32
  3
DMC
 13
-512.2699234605343
 23
116.3683710122313
 33
0.0
 14
-516.1699234605341
 24
111.8683710122313
 34
0.0
 50
90.0
1001
ACAD
1000
DSTYLE
1002
{
1070
    47
1040
0.2
1070
    48
1040
0.2
1070
   371
1070
    13
1070
   372
1070
    13
1002
}
  0
DIMENSION
  5
EF
  8
回07-寸法
  6
CONTINUOUS
 62
     7
  2
*D373737
 10
-560.4801927849591
 20
116.3683710122313
 30
0.0
 11
-562.6301927849594
 21
198.5683710122313
 31
0.0
 70
    32
  3
DMC
 13
-512.2699234605343
 23
280.7683710122313
 33
0.0
 14
-512.2699234605343
 24
116.3683710122313
 34
0.0
 50
90.0
1001
ACAD
1000
DSTYLE
1002
{
1070
    47
1040
0.2
1070
    48
1040
0.2
1070
   371
1070
    13
1070
   372
1070
    13
1002
}
  0
POLYLINE
  5
FC
  8
回08-記事
  6
DASHED2
 62
     7
 66
     1
 10
0.0
 20
0.0
 30
0.0
 70
     1
  0
VERTEX
  5
BB0
  8
回08-記事
  6
DASHED2
 62
     7
 10
-512.2699234605343
 20
280.7683710122313
 30
0.0
  0
VERTEX
  5
BB2
  8
回08-記事
  6
DASHED2
 62
     7
 10
-297.0699234605344
 20
280.7683710122313
 30
0.0
  0
VERTEX
  5
BB3
  8
回08-記事
  6
DASHED2
 62
     7
 10
-297.0699234605344
 20
116.3683710122313
 30
0.0
  0
VERTEX
  5
BB4
  8
回08-記事
  6
DASHED2
 62
     7
 10
-512.2699234605343
 20
116.3683710122313
 30
0.0
  0
SEQEND
  5
BB1
  8
回91-枠英2
  6
CONTINUOUS
 62
    30
  0
TEXT
  5
FD
  8
回08-記事
  6
CONTINUOUS
 62
     5
 10
-129.6758308436133
 20
317.8559891714845
 30
0.0
 40
5.0
  1
4
  0
TEXT
  5
FE
  8
回08-記事
  6
CONTINUOUS
 62
     5
 10
-149.6758308436133
 20
317.8559891714845
 30
0.0
 40
5.0
  1
3
  0
LINE
  5
FF
  8
回08-記事
  6
CONTINUOUS
 62
     5
 10
-148.0822662892611
 20
280.1499906153615
 30
0.0
 11
-148.0822662892611
 21
316.1499906153616
 31
0.0
  0
TEXT
  5
100
  8
回08-記事
  6
CONTINUOUS
 62
     5
 10
-169.6758308436133
 20
317.8559891714845
 30
0.0
 40
5.0
  1
2
  0
TEXT
  5
101
  8
回08-記事
  6
CONTINUOUS
 62
     5
 10
-189.6758308436133
 20
317.8559891714845
 30
0.0
 40
5.0
  1
1
  0
LINE
  5
102
  8
回08-記事
  6
CONTINUOUS
 62
     5
 10
-162.0822662892613
 20
282.5499906153615
 30
0.0
 11
-159.6822662892613
 21
277.7499906153616
 31
0.0
  0
TEXT
  5
103
  8
回08-記事
  6
CONTINUOUS
 62
     5
 10
-166.4665036220872
 20
295.8779002497835
 30
0.0
 40
5.0
  1
YU
  0
LINE
  5
104
  8
回08-記事
  6
CONTINUOUS
 62
     5
 10
-170.4822662892612
 20
292.1499906153615
 30
0.0
 11
-165.6822662892613
 21
289.7499906153616
 31
0.0
  0
LINE
  5
105
  8
回08-記事
  6
CONTINUOUS
 62
     5
 10
-170.4822662892612
 20
287.3499906153616
 30
0.0
 11
-165.6822662892613
 21
289.7499906153616
 31
0.0
  0
LINE
  5
106
  8
回08-記事
  6
CONTINUOUS
 62
     5
 10
-170.4822662892612
 20
282.5499906153615
 30
0.0
 11
-165.6822662892613
 21
284.9499906153615
 31
0.0
  0
LINE
  5
107
  8
回08-記事
  6
CONTINUOUS
 62
     5
 10
-170.4822662892612
 20
287.3499906153616
 30
0.0
 11
-165.6822662892613
 21
284.9499906153615
 31
0.0
  0
LINE
  5
108
  8
回08-記事
  6
CONTINUOUS
 62
     5
 10
-170.4822662892612
 20
292.1499906153615
 30
0.0
 11
-168.0822662892613
 21
293.3499906153616
 31
0.0
  0
LINE
  5
109
  8
回08-記事
  6
CONTINUOUS
 62
     5
 10
-170.4822662892612
 20
277.7499906153616
 30
0.0
 11
-165.6822662892613
 21
280.1499906153615
 31
0.0
  0
LINE
  5
10A
  8
回08-記事
  6
CONTINUOUS
 62
     5
 10
-170.4822662892612
 20
277.7499906153616
 30
0.0
 11
-165.6822662892613
 21
275.3499906153616
 31
0.0
  0
LINE
  5
10B
  8
回08-記事
  6
CONTINUOUS
 62
     5
 10
-166.8822662892612
 20
282.5499906153615
 30
0.0
 11
-164.4822662892612
 21
277.7499906153616
 31
0.0
  0
LINE
  5
10C
  8
回08-記事
  6
CONTINUOUS
 62
     5
 10
-170.4822662892612
 20
282.5499906153615
 30
0.0
 11
-165.6822662892613
 21
280.1499906153615
 31
0.0
  0
LINE
  5
10D
  8
回08-記事
  6
CONTINUOUS
 62
     5
 10
-171.6822662892613
 20
282.5499906153615
 30
0.0
 11
-169.2822662892613
 21
277.7499906153616
 31
0.0
  0
LINE
  5
10E
  8
回08-記事
  6
CONTINUOUS
 62
     5
 10
-169.2822662892613
 20
277.7499906153616
 30
0.0
 11
-166.8822662892612
 21
282.5499906153615
 31
0.0
  0
LINE
  5
10F
  8
回08-記事
  6
CONTINUOUS
 62
     5
 10
-164.4822662892612
 20
277.7499906153616
 30
0.0
 11
-162.0822662892613
 21
282.5499906153615
 31
0.0
  0
LINE
  5
110
  8
回08-記事
  6
CONTINUOUS
 62
     5
 10
-154.8822662892612
 20
277.7499906153616
 30
0.0
 11
-153.6822662892612
 21
280.1499906153615
 31
0.0
  0
LINE
  5
111
  8
回08-記事
  6
CONTINUOUS
 62
     5
 10
-159.6822662892613
 20
277.7499906153616
 30
0.0
 11
-157.2822662892613
 21
282.5499906153615
 31
0.0
  0
LINE
  5
112
  8
回08-記事
  6
CONTINUOUS
 62
     5
 10
-157.2822662892613
 20
282.5499906153615
 30
0.0
 11
-154.8822662892612
 21
277.7499906153616
 31
0.0
  0
LINE
  5
113
  8
回08-記事
  6
CONTINUOUS
 62
     5
 10
-176.4822662892611
 20
282.5499906153615
 30
0.0
 11
-174.0822662892611
 21
277.7499906153616
 31
0.0
  0
LINE
  5
114
  8
回08-記事
  6
CONTINUOUS
 62
     5
 10
-188.0822662892613
 20
280.1499906153615
 30
0.0
 11
-182.4822662892611
 21
280.1499906153615
 31
0.0
  0
LINE
  5
115
  8
回08-記事
  6
CONTINUOUS
 62
     5
 10
-181.2822662892613
 20
282.5499906153615
 30
0.0
 11
-178.8822662892611
 21
277.7499906153616
 31
0.0
  0
LINE
  5
116
  8
回08-記事
  6
CONTINUOUS
 62
     5
 10
-182.4822662892611
 20
280.1499906153615
 30
0.0
 11
-181.2822662892613
 21
282.5499906153615
 31
0.0
  0
LINE
  5
117
  8
回08-記事
  6
CONTINUOUS
 62
     5
 10
-178.8822662892611
 20
277.7499906153616
 30
0.0
 11
-176.4822662892611
 21
282.5499906153615
 31
0.0
  0
LINE
  5
118
  8
回08-記事
  6
CONTINUOUS
 62
     5
 10
-174.0822662892611
 20
277.7499906153616
 30
0.0
 11
-171.6822662892613
 21
282.5499906153615
 31
0.0
  0
LINE
  5
119
  8
回08-記事
  6
CONTINUOUS
 62
     5
 10
-188.0822662892613
 20
280.1499906153615
 30
0.0
 11
-188.0822662892613
 21
316.1499906153616
 31
0.0
  0
LINE
  5
11A
  8
回08-記事
  6
CONTINUOUS
 62
     5
 10
-168.0822662892613
 20
293.3499906153616
 30
0.0
 11
-168.0822662892613
 21
316.1499906153616
 31
0.0
  0
LINE
  5
11B
  8
回08-記事
  6
CONTINUOUS
 62
     5
 10
-153.6822662892612
 20
280.1499906153615
 30
0.0
 11
-148.0822662892611
 21
280.1499906153615
 31
0.0
  0
LINE
  5
11C
  8
回08-記事
  6
CONTINUOUS
 62
     5
 10
-170.4822662892612
 20
268.1499906153616
 30
0.0
 11
-168.0822662892613
 21
266.9499906153615
 31
0.0
  0
LINE
  5
11D
  8
回08-記事
  6
CONTINUOUS
 62
     5
 10
-168.0822662892613
 20
262.1499906153616
 30
0.0
 11
-168.0822662892613
 21
266.9499906153615
 31
0.0
  0
LINE
  5
11E
  8
回08-記事
  6
CONTINUOUS
 62
     5
 10
-170.4822662892612
 20
268.1499906153616
 30
0.0
 11
-165.6822662892613
 21
270.5499906153615
 31
0.0
  0
LINE
  5
11F
  8
回08-記事
  6
CONTINUOUS
 62
     5
 10
-170.4822662892612
 20
272.9499906153615
 30
0.0
 11
-165.6822662892613
 21
270.5499906153615
 31
0.0
  0
TEXT
  5
120
  8
回08-記事
  6
CONTINUOUS
 62
     5
 10
-179.3799109947278
 20
260.5877604140822
 30
0.0
 40
5.0
  1
YD
  0
LINE
  5
121
  8
回08-記事
  6
CONTINUOUS
 62
     5
 10
-168.0822662892613
 20
262.1499906153616
 30
0.0
 11
-128.0822662892612
 21
262.1499906153616
 31
0.0
  0
LINE
  5
122
  8
回08-記事
  6
CONTINUOUS
 62
     5
 10
-128.0822662892612
 20
262.1499906153616
 30
0.0
 11
-128.0822662892612
 21
316.1499906153616
 31
0.0
  0
TEXT
  5
123
  8
回08-記事
  6
CONTINUOUS
 62
     5
 10
-189.2298315282783
 20
272.1330569091486
 30
0.0
 40
5.0
  1
XL
  0
LINE
  5
124
  8
回08-記事
  6
CONTINUOUS
 62
     5
 10
-170.4822662892612
 20
272.9499906153615
 30
0.0
 11
-165.6822662892613
 21
275.3499906153616
 31
0.0
  0
TEXT
  5
125
  8
回08-記事
  6
CONTINUOUS
 62
     5
 10
-155.0492779699898
 20
272.5796030609508
 30
0.0
 40
5.0
  1
XR
  0
TEXT
  5
126
  8
回08-記事
  6
CONTINUOUS
 62
     5
 10
-296.4757449336364
 20
358.9462001412264
 30
0.0
 40
3.0
  1
TRACE EXPOSE
1001
ACAD
1000
MTEXTBEGIN
1070
    73
1070
     1
1070
    44
1040
1.0
1070
    74
1070
     0
1000
MTEXTEND
  0
INSERT
  5
127
  8
回08-記事
  6
CONTINUOUS
 62
     7
 66
     1
  2
*X676767
 10
0.0
 20
0.0
 30
0.0
  0
SEQEND
  5
539
  8
回91-枠英2
  6
CONTINUOUS
 62
    30
  0
TEXT
  5
128
  8
回08-記事
  6
CONTINUOUS
 62
     7
 10
-305.442587144455
 20
200.7197501865128
 30
0.0
 40
3.0
  1
XR
  0
TEXT
  5
129
  8
回08-記事
  6
CONTINUOUS
 62
     7
 10
-509.1072718460513
 20
200.7197501865128
 30
0.0
 40
3.0
  1
XL
  0
TEXT
  5
12A
  8
回08-記事
  6
CONTINUOUS
 62
     7
 10
-412.3799961418357
 20
121.2595139225957
 30
0.0
 40
3.0
  1
YD
  0
TEXT
  5
12B
  8
回08-記事
  6
CONTINUOUS
 62
     7
 10
-412.3799961418357
 20
273.6734368868745
 30
0.0
 40
3.0
  1
YU
  0
ARC
  5
12C
  8
回08-記事
  6
CONTINUOUS
 62
     7
 10
-258.333918189599
 20
278.9599305990787
 30
0.0
 40
0.4
 50
90.0
 51
270.0
  0
ARC
  5
12D
  8
回08-記事
  6
CONTINUOUS
 62
     7
 10
-258.333918189599
 20
274.9599305990788
 30
0.0
 40
0.4
 50
90.0
 51
270.0
  0
ARC
  5
12E
  8
回08-記事
  6
CONTINUOUS
 62
     7
 10
-258.333918189599
 20
270.9599305990788
 30
0.0
 40
0.4
 50
90.0
 51
270.0
  0
ARC
  5
12F
  8
回08-記事
  6
CONTINUOUS
 62
     7
 10
-258.333918189599
 20
266.9599305990788
 30
0.0
 40
0.4
 50
90.0
 51
270.0
  0
ARC
  5
130
  8
回08-記事
  6
CONTINUOUS
 62
     7
 10
-258.333918189599
 20
262.9599305990788
 30
0.0
 40
0.4
 50
90.0
 51
270.0
  0
ARC
  5
131
  8
回08-記事
  6
CONTINUOUS
 62
     7
 10
-258.333918189599
 20
258.9599305990788
 30
0.0
 40
0.4
 50
90.0
 51
270.0
  0
ARC
  5
132
  8
回08-記事
  6
CONTINUOUS
 62
     7
 10
-258.333918189599
 20
254.9599305990787
 30
0.0
 40
0.4
 50
90.0
 51
270.0
  0
ARC
  5
133
  8
回08-記事
  6
CONTINUOUS
 62
     7
 10
-258.333918189599
 20
250.9599305990787
 30
0.0
 40
0.4
 50
90.0
 51
270.0
  0
ARC
  5
134
  8
回08-記事
  6
CONTINUOUS
 62
     7
 10
-258.333918189599
 20
246.9599305990787
 30
0.0
 40
0.4
 50
90.0
 51
270.0
  0
ARC
  5
135
  8
回08-記事
  6
CONTINUOUS
 62
     7
 10
-258.333918189599
 20
242.9599305990786
 30
0.0
 40
0.4
 50
90.0
 51
270.0
  0
ARC
  5
136
  8
回08-記事
  6
CONTINUOUS
 62
     7
 10
-258.333918189599
 20
238.9599305990786
 30
0.0
 40
0.4
 50
90.0
 51
270.0
  0
ARC
  5
137
  8
回08-記事
  6
CONTINUOUS
 62
     7
 10
-258.333918189599
 20
234.9599305990786
 30
0.0
 40
0.4
 50
90.0
 51
270.0
  0
ARC
  5
138
  8
回08-記事
  6
CONTINUOUS
 62
     7
 10
-258.333918189599
 20
230.9599305990786
 30
0.0
 40
0.4
 50
90.0
 51
270.0
  0
ARC
  5
139
  8
回08-記事
  6
CONTINUOUS
 62
     7
 10
-258.333918189599
 20
226.9599305990787
 30
0.0
 40
0.4
 50
90.0
 51
270.0
  0
ARC
  5
13A
  8
回08-記事
  6
CONTINUOUS
 62
     7
 10
-258.333918189599
 20
222.9599305990788
 30
0.0
 40
0.4
 50
90.0
 51
270.0
  0
ARC
  5
13B
  8
回08-記事
  6
CONTINUOUS
 62
     7
 10
-258.333918189599
 20
218.9599305990789
 30
0.0
 40
0.4
 50
90.0
 51
270.0
  0
ARC
  5
13C
  8
回08-記事
  6
CONTINUOUS
 62
     7
 10
-258.333918189599
 20
214.9599305990788
 30
0.0
 40
0.4
 50
90.0
 51
270.0
  0
ARC
  5
13D
  8
回08-記事
  6
CONTINUOUS
 62
     7
 10
-258.333918189599
 20
210.9599305990788
 30
0.0
 40
0.4
 50
90.0
 51
270.0
  0
ARC
  5
13E
  8
回08-記事
  6
CONTINUOUS
 62
     7
 10
-258.333918189599
 20
206.9599305990788
 30
0.0
 40
0.4
 50
90.0
 51
270.0
  0
ARC
  5
13F
  8
回08-記事
  6
CONTINUOUS
 62
     7
 10
-258.333918189599
 20
202.9599305990787
 30
0.0
 40
0.4
 50
90.0
 51
270.0
  0
ARC
  5
140
  8
回08-記事
  6
CONTINUOUS
 62
     7
 10
-258.333918189599
 20
198.9599305990786
 30
0.0
 40
0.4
 50
90.0
 51
270.0
  0
ARC
  5
141
  8
回08-記事
  6
CONTINUOUS
 62
     7
 10
-258.333918189599
 20
194.9599305990786
 30
0.0
 40
0.4
 50
90.0
 51
270.0
  0
ARC
  5
142
  8
回08-記事
  6
CONTINUOUS
 62
     7
 10
-258.333918189599
 20
190.9599305990786
 30
0.0
 40
0.4
 50
90.0
 51
270.0
  0
ARC
  5
143
  8
回08-記事
  6
CONTINUOUS
 62
     7
 10
-258.333918189599
 20
186.9599305990787
 30
0.0
 40
0.4
 50
90.0
 51
270.0
  0
ARC
  5
144
  8
回08-記事
  6
CONTINUOUS
 62
     7
 10
-258.333918189599
 20
182.9599305990786
 30
0.0
 40
0.4
 50
90.0
 51
270.0
  0
ARC
  5
145
  8
回08-記事
  6
CONTINUOUS
 62
     7
 10
-258.333918189599
 20
178.9599305990786
 30
0.0
 40
0.4
 50
90.0
 51
270.0
  0
ARC
  5
146
  8
回08-記事
  6
CONTINUOUS
 62
     7
 10
-258.333918189599
 20
174.9599305990786
 30
0.0
 40
0.4
 50
90.0
 51
270.0
  0
ARC
  5
147
  8
回08-記事
  6
CONTINUOUS
 62
     7
 10
-258.333918189599
 20
170.9599305990787
 30
0.0
 40
0.4
 50
90.0
 51
270.0
  0
ARC
  5
148
  8
回08-記事
  6
CONTINUOUS
 62
     7
 10
-258.333918189599
 20
166.9599305990787
 30
0.0
 40
0.4
 50
90.0
 51
270.0
  0
ARC
  5
149
  8
回08-記事
  6
CONTINUOUS
 62
     7
 10
-258.333918189599
 20
162.9599305990787
 30
0.0
 40
0.4
 50
90.0
 51
270.0
  0
ARC
  5
14A
  8
回08-記事
  6
CONTINUOUS
 62
     7
 10
-258.333918189599
 20
158.9599305990787
 30
0.0
 40
0.4
 50
90.0
 51
270.0
  0
ARC
  5
14B
  8
回08-記事
  6
CONTINUOUS
 62
     7
 10
-258.333918189599
 20
154.9599305990787
 30
0.0
 40
0.4
 50
90.0
 51
270.0
  0
ARC
  5
14C
  8
回08-記事
  6
CONTINUOUS
 62
     7
 10
-258.333918189599
 20
150.9599305990787
 30
0.0
 40
0.4
 50
90.0
 51
270.0
  0
ARC
  5
14D
  8
回08-記事
  6
CONTINUOUS
 62
     7
 10
-258.333918189599
 20
146.9599305990787
 30
0.0
 40
0.4
 50
90.0
 51
270.0
  0
ARC
  5
14E
  8
回08-記事
  6
CONTINUOUS
 62
     7
 10
-258.333918189599
 20
142.9599305990787
 30
0.0
 40
0.4
 50
90.0
 51
270.0
  0
ARC
  5
14F
  8
回08-記事
  6
CONTINUOUS
 62
     7
 10
-258.333918189599
 20
138.9599305990787
 30
0.0
 40
0.4
 50
90.0
 51
270.0
  0
ARC
  5
150
  8
回08-記事
  6
CONTINUOUS
 62
     7
 10
-258.333918189599
 20
134.9599305990787
 30
0.0
 40
0.4
 50
90.0
 51
270.0
  0
ARC
  5
151
  8
回08-記事
  6
CONTINUOUS
 62
     7
 10
-258.333918189599
 20
130.9599305990787
 30
0.0
 40
0.4
 50
90.0
 51
270.0
  0
ARC
  5
152
  8
回08-記事
  6
CONTINUOUS
 62
     7
 10
-258.333918189599
 20
126.9599305990787
 30
0.0
 40
0.4
 50
90.0
 51
270.0
  0
ARC
  5
153
  8
回08-記事
  6
CONTINUOUS
 62
     7
 10
-258.333918189599
 20
122.9599305990787
 30
0.0
 40
0.4
 50
90.0
 51
270.0
  0
ARC
  5
154
  8
回08-記事
  6
CONTINUOUS
 62
     7
 10
-258.333918189599
 20
118.9599305990787
 30
0.0
 40
0.4
 50
90.0
 51
270.0
  0
LINE
  5
155
  8
回08-記事
  6
CONTINUOUS
 62
     5
 10
-250.0498414868039
 20
174.7482035636094
 30
0.0
 11
-256.2318657129422
 21
172.6481922147914
 31
0.0
  0
LINE
  5
156
  8
回08-記事
  6
CONTINUOUS
 62
     5
 10
-252.3372174731853
 20
292.0895174678761
 30
0.0
 11
-256.5775633958769
 21
288.6444163253143
 31
0.0
  0
LINE
  5
157
  8
回08-記事
  6
CONTINUOUS
 62
     5
 10
-254.6169691946456
 20
308.3503610458182
 30
0.0
 11
-258.8753262368432
 21
309.6396157423831
 31
0.0
  0
LINE
  5
158
  8
回08-記事
  6
CONTINUOUS
 62
     5
 10
-255.8448775776395
 20
334.8471636796686
 30
0.0
 11
-257.7484725698782
 21
338.45532642325
 31
0.0
  0
TEXT
  5
159
  8
回08-記事
  6
CONTINUOUS
 62
     5
 10
-252.8996901115952
 20
292.0942332621694
 30
0.0
 40
3.0
  1
PROTECTION TAPE
  0
TEXT
  5
15A
  8
回08-記事
  6
CONTINUOUS
 62
     5
 10
-249.8963449814219
 20
174.5836936764925
 30
0.0
 40
3.0
  1
ITO GLASS
  0
TEXT
  5
15B
  8
回08-記事
  6
CONTINUOUS
 62
     5
 10
-256.8257578956604
 20
331.28756862449
 30
0.0
 40
3.0
  1
STIFFENER
  0
TEXT
  5
15C
  8
回08-記事
  6
CONTINUOUS
 62
     5
 10
-250.7525861807377
 20
299.9157805005116
 30
0.0
 40
3.0
  1
REINFORCEMENT FILM
  0
TEXT
  5
15D
  8
回08-記事
  6
CONTINUOUS
 62
     5
 10
-254.2961731545456
 20
306.6221811957135
 30
0.0
 40
3.0
  1
TAIL
  0
TEXT
  5
15E
  8
回08-記事
  6
CONTINUOUS
 62
     5
 10
-288.1656908656007
 20
309.2975531111753
 30
0.0
 40
3.0
  1
060A
  0
TEXT
  5
15F
  8
回08-記事
  6
CONTINUOUS
 62
     5
 10
-305.6561254367717
 20
313.7236291246181
 30
0.0
 40
3.0
  1
Tail information label
1001
ACAD
1000
MTEXTBEGIN
1070
    73
1070
     1
1070
    44
1040
1.0
1070
    74
1070
     0
1000
MTEXTEND
  0
INSERT
  5
160
  8
回08-記事
  6
CONTINUOUS
 62
     7
 66
     1
  2
*X686868
 10
0.0
 20
0.0
 30
0.0
  0
SEQEND
  5
540
  8
回91-枠英2
  6
CONTINUOUS
 62
    30
  0
TEXT
  5
161
  8
回08-記事
  6
CONTINUOUS
 62
     5
 10
-253.321306658119
 20
320.284129986532
 30
0.0
 40
3.0
  1
LOT LABEL
1001
ACAD
1000
MTEXTBEGIN
1070
    73
1070
     1
1070
    44
1040
1.0
1070
    74
1070
     0
1000
MTEXTEND
  0
INSERT
  5
162
  8
回08-記事
  6
CONTINUOUS
 62
     7
 66
     1
  2
*X696969
 10
0.0
 20
0.0
 30
0.0
  0
SEQEND
  5
547
  8
回91-枠英2
  6
CONTINUOUS
 62
    30
  0
INSERT
  5
163
  8
回07-寸法
  6
CONTINUOUS
 62
     5
 66
     1
  2
*X707070
 10
0.0
 20
0.0
 30
0.0
  0
SEQEND
  5
54D
  8
回91-枠英2
  6
CONTINUOUS
 62
    30
  0
INSERT
  5
164
  8
回07-寸法
  6
CONTINUOUS
 62
     7
 66
     1
  2
*X717171
 10
0.0
 20
0.0
 30
0.0
  0
SEQEND
  5
554
  8
回91-枠英2
  6
CONTINUOUS
 62
    30
  0
INSERT
  5
165
  8
回08-記事
  6
CONTINUOUS
 62
     7
 66
     1
  2
*X727272
 10
0.0
 20
0.0
 30
0.0
1001
ACAD
1000
HATCH
1002
{
1070
    19
1000
ANSI31
1040
0.3
1040
0.0
1000
ASC_BOUNDS
1070
     1
1070
     2
1070
     1
1005
166
1000
ASC_SEEDPOINT
1011
-630.3068235553894
1021
0.0000000000001137
1031
0.0
1000
R14_HATCH_DATA
1000
165
1011
1.0
1021
0.0
1031
0.0
1011
0.0
1021
1.0
1031
0.0
1011
0.0
1021
0.0
1031
1.0
1040
0.0
1010
0.0
1020
0.0
1030
1.0
1000
ANSI31
1070
     0
1070
     1
1071
        1
1071
        1
1071
        4
1070
     1
1040
-261.1097304712099
1040
327.9712319948247
1040
-260.2976558967394
1040
327.9712319948247
1070
     1
1040
-260.2976558967394
1040
327.9712319948247
1040
-260.2976558967394
1040
301.9712319948247
1070
     1
1040
-260.2976558967394
1040
301.9712319948247
1040
-261.1097304712099
1040
301.9712319948247
1070
     1
1040
-261.1097304712099
1040
301.9712319948247
1040
-261.1097304712099
1040
327.9712319948247
1071
        1
1005
166
1070
     0
1070
     1
1040
0.0
1040
0.3
1070
     0
1070
     1
1040
0.7853981633974483
1040
-630.3068235553894
1040
0.0000000000001137
1040
-0.6735192090801864
1040
0.6735192090801866
1070
     0
1071
        1
1040
-630.3068235553894
1040
0.0000000000001137
1040
0.0
1002
}
  0
SEQEND
  5
56C
  8
回91-枠英2
  6
CONTINUOUS
 62
    30
  0
POLYLINE
  5
166
  8
回08-記事
  6
CONTINUOUS
 62
     7
 66
     1
 10
0.0
 20
0.0
 30
0.0
 70
     1
1001
ACAD
1000
ASC_BOUNDS
1002
{
1070
    19
1005
165
1002
}
  0
VERTEX
  5
BB5
  8
回08-記事
  6
CONTINUOUS
 62
     7
 10
-261.1097304712099
 20
327.9712319948247
 30
0.0
  0
VERTEX
  5
BB7
  8
回08-記事
  6
CONTINUOUS
 62
     7
 10
-260.2976558967394
 20
327.9712319948247
 30
0.0
  0
VERTEX
  5
BB8
  8
回08-記事
  6
CONTINUOUS
 62
     7
 10
-260.2976558967394
 20
301.9712319948247
 30
0.0
  0
VERTEX
  5
BB9
  8
回08-記事
  6
CONTINUOUS
 62
     7
 10
-261.1097304712099
 20
301.9712319948247
 30
0.0
  0
SEQEND
  5
BB6
  8
回91-枠英2
  6
CONTINUOUS
 62
    30
  0
INSERT
  5
167
  8
回08-記事
  6
CONTINUOUS
 62
     7
 66
     1
  2
*X737373
 10
0.0
 20
0.0
 30
0.0
1001
ACAD
1000
HATCH
1002
{
1070
    19
1000
ANSI31
1040
0.3
1040
0.0
1000
ASC_BOUNDS
1070
     1
1070
     2
1070
     1
1005
168
1000
ASC_SEEDPOINT
1011
-630.3068235553894
1021
0.0000000000001137
1031
0.0
1000
R14_HATCH_DATA
1000
167
1011
1.0
1021
0.0
1031
0.0
1011
0.0
1021
1.0
1031
0.0
1011
0.0
1021
0.0
1031
1.0
1040
0.0
1010
0.0
1020
0.0
1030
1.0
1000
ANSI31
1070
     0
1070
     1
1071
        1
1071
        1
1071
        4
1070
     1
1040
-257.4361738504927
1040
327.9712319948247
1040
-258.333918189599
1040
327.9712319948247
1070
     1
1040
-258.333918189599
1040
327.9712319948247
1040
-258.333918189599
1040
301.9712319948247
1070
     1
1040
-258.333918189599
1040
301.9712319948247
1040
-257.4361738504927
1040
301.9712319948247
1070
     1
1040
-257.4361738504927
1040
301.9712319948247
1040
-257.4361738504927
1040
327.9712319948247
1071
        1
1005
168
1070
     0
1070
     1
1040
0.0
1040
0.3
1070
     0
1070
     1
1040
0.7853981633974483
1040
-630.3068235553894
1040
0.0000000000001137
1040
-0.6735192090801864
1040
0.6735192090801866
1070
     0
1071
        1
1040
-630.3068235553894
1040
0.0000000000001137
1040
0.0
1002
}
  0
SEQEND
  5
589
  8
回91-枠英2
  6
CONTINUOUS
 62
    30
  0
POLYLINE
  5
168
  8
回08-記事
  6
CONTINUOUS
 62
     7
 66
     1
 10
0.0
 20
0.0
 30
0.0
 70
     1
1001
ACAD
1000
ASC_BOUNDS
1002
{
1070
    19
1005
167
1002
}
  0
VERTEX
  5
BBA
  8
回08-記事
  6
CONTINUOUS
 62
     7
 10
-257.4361738504927
 20
327.9712319948247
 30
0.0
  0
VERTEX
  5
BBC
  8
回08-記事
  6
CONTINUOUS
 62
     7
 10
-258.333918189599
 20
327.9712319948247
 30
0.0
  0
VERTEX
  5
BBD
  8
回08-記事
  6
CONTINUOUS
 62
     7
 10
-258.333918189599
 20
301.9712319948247
 30
0.0
  0
VERTEX
  5
BBE
  8
回08-記事
  6
CONTINUOUS
 62
     7
 10
-257.4361738504927
 20
301.9712319948247
 30
0.0
  0
SEQEND
  5
BBB
  8
回91-枠英2
  6
CONTINUOUS
 62
    30
  0
TEXT
  5
169
  8
回07-寸法
  6
CONTINUOUS
 62
     5
 10
-505.6806172132569
 20
302.0080023394865
 30
0.0
 40
3.0
  1
TAIL PROTECTION TAPE
1001
ACAD
1000
MTEXTBEGIN
1070
    73
1070
     1
1070
    44
1040
1.0
1070
    74
1070
     0
1000
MTEXTEND
  0
INSERT
  5
16A
  8
回07-寸法
  6
CONTINUOUS
 62
     5
 66
     1
  2
*X747474
 10
0.0
 20
0.0
 30
0.0
  0
SEQEND
  5
595
  8
回91-枠英2
  6
CONTINUOUS
 62
    30
  0
TEXT
  5
16B
  8
回07-寸法
  6
CONTINUOUS
 62
     5
 10
-504.7402762669346
 20
103.8399013615655
 30
0.0
 40
2.399999999999999
  1
AST-105A
  0
TEXT
  5
16C
  8
回07-寸法
  6
CONTINUOUS
 62
     5
 10
-502.8803581185078
 20
107.5192999274402
 30
0.0
 40
2.5
  1
PART No.
1001
ACAD
1000
MTEXTBEGIN
1070
    73
1070
     1
1070
    44
1040
1.0
1070
    74
1070
     0
1000
MTEXTEND
  0
INSERT
  5
16D
  8
回07-寸法
  6
CONTINUOUS
 62
     3
 66
     1
  2
*X757575
 10
0.0
 20
0.0
 30
0.0
  0
SEQEND
  5
59C
  8
回91-枠英2
  6
CONTINUOUS
 62
    30
  0
TEXT
  5
16E
  8
回04-下接
  6
CONTINUOUS
 62
     7
 10
-509.0161437846624
 20
112.2065128675932
 30
0.0
 40
1.049999999999997
  1
AST-105A
  0
TEXT
  5
172
  8
回07-寸法
  6
CONTINUOUS
 62
     5
 10
-508.2611117036853
 20
159.0001864959515
 30
0.0
 40
2.0
  1
Air Vent
1001
ACAD
1000
MTEXTBEGIN
1070
    73
1070
     1
1070
    44
1040
1.0
1070
    74
1070
     0
1000
MTEXTEND
  0
INSERT
  5
173
  8
回07-寸法
  6
CONTINUOUS
 62
     7
 66
     1
  2
*X767676
 10
0.0
 20
0.0
 30
0.0
  0
SEQEND
  5
5A3
  8
回91-枠英2
  6
CONTINUOUS
 62
    30
  0
DIMENSION
  5
174
  8
回07-寸法
  6
CONTINUOUS
 62
     7
  2
*D383838
 10
-521.4767972228119
 20
154.8683710122313
 30
0.0
 11
-521.4767972228119
 21
167.9226054626595
 31
0.0
 70
   160
  1
(<>)
  3
DMC
 13
-516.1699234605341
 23
152.8683710122313
 33
0.0
 14
-516.1699234605341
 24
154.8683710122313
 34
0.0
 50
90.0
1001
ACAD
1000
DSTYLE
1002
{
1070
    47
1040
0.2
1070
    48
1040
0.2
1002
}
  0
DIMENSION
  5
183
  8
回07-寸法
  6
CONTINUOUS
 62
     7
  2
*D393939
 10
-521.4767972228116
 20
111.8683710122313
 30
0.0
 11
-523.6267972228116
 21
132.3683710122313
 31
0.0
 70
    32
  1
(<>)
  3
DMC
 13
-516.1699234605341
 23
152.8683710122313
 33
0.0
 14
-516.1699234605341
 24
111.8683710122313
 34
0.0
 50
90.0
1001
ACAD
1000
DSTYLE
1002
{
1070
    47
1040
0.2
1070
    48
1040
0.2
1002
}
  0
LINE
  5
190
  8
回08-記事
  6
CONTINUOUS
 62
     7
 10
-516.1699234605341
 20
152.8683710122313
 30
0.0
 11
-511.9699234605342
 21
152.8683710122313
 31
0.0
  0
LINE
  5
191
  8
回08-記事
  6
CONTINUOUS
 62
     7
 10
-511.9699234605342
 20
154.8683710122313
 30
0.0
 11
-516.1699234605341
 21
154.8683710122313
 31
0.0
  0
LINE
  5
192
  8
回08-記事
  6
CENTER2
 62
     5
 10
-348.4907264303326
 20
347.4826208063739
 30
0.0
 11
-348.4907264303326
 21
326.5076181449192
 31
0.0
  0
LINE
  5
193
  8
回08-記事
  6
CENTER2
 62
     5
 10
-340.9907264303326
 20
347.4826208063739
 30
0.0
 11
-340.9907264303326
 21
326.5076181449192
 31
0.0
  0
LINE
  5
194
  8
回08-記事
  6
CENTER2
 62
     5
 10
-352.2407264303327
 20
347.4826208063739
 30
0.0
 11
-352.2407264303327
 21
326.5076181449192
 31
0.0
  0
ARC
  5
195
  8
回08-記事
  6
CONTINUOUS
 62
     7
 10
-338.7407264303345
 20
343.3229325073942
 30
0.0
 40
1.5
 50
0.0
 51
90.0
  0
POLYLINE
  5
196
  8
回08-記事
  6
CONTINUOUS
 62
     8
 66
     1
 10
0.0
 20
0.0
 30
0.0
 40
2.399999999999999
 41
2.399999999999999
  0
VERTEX
  5
BBF
  8
回08-記事
  6
CONTINUOUS
 62
     8
 10
-348.4907264303326
 20
344.8229325073942
 30
0.0
  0
VERTEX
  5
BC1
  8
回08-記事
  6
CONTINUOUS
 62
     8
 10
-348.4907264303326
 20
329.8229325073942
 30
0.0
  0
SEQEND
  5
BC0
  8
回91-枠英2
  6
CONTINUOUS
 62
    30
  0
POLYLINE
  5
197
  8
回08-記事
  6
CONTINUOUS
 62
     8
 66
     1
 10
0.0
 20
0.0
 30
0.0
 40
2.399999999999999
 41
2.399999999999999
  0
VERTEX
  5
BC2
  8
回08-記事
  6
CONTINUOUS
 62
     8
 10
-344.7407264303336
 20
344.8229325073942
 30
0.0
  0
VERTEX
  5
BC4
  8
回08-記事
  6
CONTINUOUS
 62
     8
 10
-344.7407264303336
 20
329.8229325073942
 30
0.0
  0
SEQEND
  5
BC3
  8
回91-枠英2
  6
CONTINUOUS
 62
    30
  0
POLYLINE
  5
198
  8
回08-記事
  6
CONTINUOUS
 62
     8
 66
     1
 10
0.0
 20
0.0
 30
0.0
 40
2.399999999999999
 41
2.399999999999999
  0
VERTEX
  5
BC5
  8
回08-記事
  6
CONTINUOUS
 62
     8
 10
-340.9907264303326
 20
344.8229325073942
 30
0.0
  0
VERTEX
  5
BC7
  8
回08-記事
  6
CONTINUOUS
 62
     8
 10
-340.9907264303326
 20
329.8229325073942
 30
0.0
  0
SEQEND
  5
BC6
  8
回91-枠英2
  6
CONTINUOUS
 62
    30
  0
LINE
  5
199
  8
回08-記事
  6
CONTINUOUS
 62
     7
 10
-337.2407264303344
 20
343.3229325073942
 30
0.0
 11
-337.2407264303344
 21
316.7222915470109
 31
0.0
  0
INSERT
  5
19A
  8
回08-記事
  6
CONTINUOUS
 62
     5
 66
     1
  2
_OPEN
 10
-337.240726430334
 20
369.5737250011432
 30
0.0
 41
2.0
 42
2.0
 43
2.0
  0
SEQEND
  5
19B
  8
回91-枠英2
  6
CONTINUOUS
 62
    30
  0
LINE
  5
19C
  8
回08-記事
  6
CONTINUOUS
 62
     5
 10
-337.240726430334
 20
343.3229325073942
 30
0.0
 11
-337.240726430334
 21
370.4967579427528
 31
0.0
  0
ARC
  5
19D
  8
回08-記事
  6
CONTINUOUS
 62
     7
 10
-354.4907264303345
 20
343.3229325073942
 30
0.0
 40
1.5
 50
90.0
 51
180.0
  0
LINE
  5
19E
  8
回08-記事
  6
CONTINUOUS
 62
     7
 10
-355.9907264303344
 20
343.3229325073942
 30
0.0
 11
-355.9907264303344
 21
316.7222915470109
 31
0.0
  0
TEXT
  5
19F
  8
回08-記事
  6
CONTINUOUS
 62
     5
 10
-357.2762456731211
 20
305.7636178745939
 30
0.0
 40
5.0
  1
SECTION A
  0
INSERT
  5
1A0
  8
回08-記事
  6
CONTINUOUS
 62
     5
 66
     1
  2
_OPEN
 10
-355.9907264303344
 20
369.5737250011432
 30
0.0
 41
2.0
 42
2.0
 43
2.0
 50
180.0
  0
SEQEND
  5
1A1
  8
回91-枠英2
  6
CONTINUOUS
 62
    30
  0
LINE
  5
1A2
  8
回08-記事
  6
CONTINUOUS
 62
     5
 10
-355.9907264303344
 20
343.3229325073942
 30
0.0
 11
-355.9907264303344
 21
370.5737250011432
 31
0.0
  0
LINE
  5
1A3
  8
回08-記事
  6
CONTINUOUS
 62
     5
 10
-339.240726430334
 20
369.5737250011432
 30
0.0
 11
-389.6008017660932
 21
369.5737250011432
 31
0.0
  0
INSERT
  5
1A4
  8
回08-記事
  6
CONTINUOUS
 62
     5
 66
     1
  2
*X777777
 10
0.0
 20
0.0
 30
0.0
  0
SEQEND
  5
5B5
  8
回91-枠英2
  6
CONTINUOUS
 62
    30
  0
LINE
  5
1A5
  8
回08-記事
  6
CONTINUOUS
 62
     7
 10
-337.2407264303344
 20
329.8229325073942
 30
0.0
 11
-355.9907264303344
 21
329.8229325073942
 31
0.0
  0
LINE
  5
1A6
  8
回08-記事
  6
CONTINUOUS
 62
     7
 10
-338.7407264303345
 20
344.8229325073942
 30
0.0
 11
-354.4907264303345
 21
344.8229325073942
 31
0.0
  0
POLYLINE
  5
1A7
  8
回08-記事
  6
CONTINUOUS
 62
     8
 66
     1
 10
0.0
 20
0.0
 30
0.0
 40
2.399999999999999
 41
2.399999999999999
  0
VERTEX
  5
BC8
  8
回08-記事
  6
CONTINUOUS
 62
     8
 10
-352.2407264303327
 20
344.8229325073942
 30
0.0
  0
VERTEX
  5
BCA
  8
回08-記事
  6
CONTINUOUS
 62
     8
 10
-352.2407264303327
 20
329.8229325073942
 30
0.0
  0
SEQEND
  5
BC9
  8
回91-枠英2
  6
CONTINUOUS
 62
    30
  0
DIMENSION
  5
1A8
  8
回08-記事
  6
CONTINUOUS
 62
     5
  2
*D404040
 10
-353.4407264303325
 20
350.5816808971729
 30
0.0
 11
-376.4907569303324
 21
352.7316808971729
 31
0.0
 70
    32
  1
4-0.7{\H0.66667x;±0.1}[4-0.028{\H0.66667x;±0.004}]
  3
STANDARD
 13
-351.0407264303328
 23
344.8229325073942
 33
0.0
 14
-353.4407264303325
 24
344.8229325073942
 34
0.0
1001
ACAD
1000
DSTYLE
1002
{
1070
    41
1040
2.0
1070
    42
1040
0.0
1070
    43
1040
0.0
1070
    44
1040
1.0
1070
    47
1040
0.2
1070
    48
1040
0.2
1070
    73
1070
     0
1070
    74
1070
     0
1070
    77
1070
     3
1070
    78
1070
     8
1070
   140
1040
4.0
1070
   141
1040
2.0
1070
   143
1040
0.0394
1070
   146
1040
0.7
1070
   147
1040
0.5
1070
   171
1070
     4
1070
   172
1070
     1
1070
   173
1070
     1
1070
   176
1070
     5
1070
   177
1070
     5
1070
   178
1070
     5
1070
   271
1070
     2
1070
   272
1070
     2
1070
   273
1070
     8
1070
   274
1070
     4
1070
   283
1070
     0
1070
   284
1070
     8
1070
   289
1070
     0
1070
   341
1005
E
1070
   343
1005
E
1070
   344
1005
E
1002
}
  0
DIMENSION
  5
1BA
  8
回08-記事
  6
CONTINUOUS
 62
     5
  2
*D414141
 10
-352.2407264303327
 20
356.9853351306999
 30
0.0
 11
-373.7670686283825
 21
356.9853351306999
 31
0.0
 70
   160
  1
1.25{\H0.66667x;±0.2}[0.049{\H0.66667x;±0.008}]
  3
STANDARD
 13
-348.4907264303326
 23
344.8229325073942
 33
0.0
 14
-352.2407264303327
 24
344.8229325073942
 34
0.0
1001
ACAD
1000
DSTYLE
1002
{
1070
    41
1040
2.0
1070
    42
1040
0.0
1070
    43
1040
0.0
1070
    44
1040
1.0
1070
    47
1040
0.2
1070
    48
1040
0.2
1070
    73
1070
     0
1070
    74
1070
     0
1070
    77
1070
     3
1070
    78
1070
     8
1070
   140
1040
4.0
1070
   141
1040
2.0
1070
   143
1040
0.0394
1070
   146
1040
0.7
1070
   147
1040
0.5
1070
   171
1070
     4
1070
   172
1070
     1
1070
   173
1070
     1
1070
   176
1070
     5
1070
   177
1070
     5
1070
   178
1070
     5
1070
   271
1070
     2
1070
   272
1070
     2
1070
   273
1070
     8
1070
   274
1070
     4
1070
   283
1070
     0
1070
   284
1070
     8
1070
   289
1070
     0
1070
   341
1005
E
1070
   343
1005
E
1070
   344
1005
E
1002
}
  0
DIMENSION
  5
1CB
  8
回08-記事
  6
CONTINUOUS
 62
     5
  2
*D424242
 10
-352.2407264303327
 20
362.7163615779332
 30
0.0
 11
-373.3123273522702
 21
362.7163615779332
 31
0.0
 70
   160
  1
3.75{\H0.66667x;±0.1}[0.148{\H0.66667x;±0.004}]
  3
STANDARD
 13
-340.9907264303326
 23
344.8229325073942
 33
0.0
 14
-352.2407264303327
 24
344.8229325073942
 34
0.0
1001
ACAD
1000
DSTYLE
1002
{
1070
    41
1040
2.0
1070
    42
1040
0.0
1070
    43
1040
0.0
1070
    44
1040
1.0
1070
    47
1040
0.2
1070
    48
1040
0.2
1070
    73
1070
     0
1070
    74
1070
     0
1070
    77
1070
     3
1070
    78
1070
     8
1070
   140
1040
4.0
1070
   141
1040
2.0
1070
   143
1040
0.0394
1070
   146
1040
0.7
1070
   147
1040
0.5
1070
   171
1070
     4
1070
   172
1070
     1
1070
   173
1070
     1
1070
   176
1070
     5
1070
   177
1070
     5
1070
   178
1070
     5
1070
   271
1070
     2
1070
   272
1070
     2
1070
   273
1070
     8
1070
   274
1070
     4
1070
   283
1070
     0
1070
   284
1070
     8
1070
   289
1070
     0
1070
   341
1005
E
1070
   343
1005
E
1070
   344
1005
E
1002
}
  0
DIMENSION
  5
1DC
  8
回08-記事
  6
CONTINUOUS
 62
    40
  2
*D434343
 10
-265.3557127340901
 20
342.9683710122313
 30
0.0
 11
-267.506497678722
 21
331.4129554594408
 31
0.0
 70
    32
  3
DMC
 13
-259.533918189599
 23
347.9683710122313
 33
0.0
 14
-260.2976558967394
 24
342.9683710122313
 34
0.0
 50
90.0
1001
ACAD
1000
DSTYLE
1002
{
1070
    47
1040
0.2
1070
    48
1040
0.2
1002
}
  0
DIMENSION
  5
1EB
  8
回08-記事
  6
CONTINUOUS
 62
    40
  2
*D444444
 10
-227.5937417108265
 20
337.9683710122313
 30
0.0
 11
-229.7445266554584
 21
324.014136561803
 31
0.0
 70
    32
  1
(<>)
  3
DMC
 13
-256.9197667864564
 23
347.9683710122313
 33
0.0
 14
-256.9197667864564
 24
337.9683710122313
 34
0.0
 50
90.0
1001
ACAD
1000
DSTYLE
1002
{
1070
    47
1040
0.2
1070
    48
1040
0.2
1002
}
  0
DIMENSION
  5
1FA
  8
回08-記事
  6
CONTINUOUS
 62
    40
  2
*D454545
 10
-256.9197667864564
 20
354.9352888430279
 30
0.0
 11
-237.8684116840942
 21
354.9352888430279
 31
0.0
 70
   160
  1
0.3{\H0.6667x;±0.05}[0.012{\H0.66667x;±0.002}]
  3
DMC
 13
-259.533918189599
 23
347.9683710122313
 33
0.0
 14
-256.9197667864564
 24
347.9683710122313
 34
0.0
1001
ACAD
1000
DSTYLE
1002
{
1070
    47
1040
0.2
1070
    48
1040
0.2
1002
}
  0
DIMENSION
  5
209
  8
回08-記事
  6
CONTINUOUS
 62
    40
  2
*D464646
 10
-254.833918189599
 20
101.0558370207689
 30
0.0
 11
-236.483779189599
 21
103.2058370207689
 31
0.0
 70
    32
  1
2.1{\H0.6667x;±0.2}[0.083{\H0.66667x;±0.008}]
  3
DMC
 13
-261.533918189599
 23
112.1683710122313
 33
0.0
 14
-254.833918189599
 24
111.8683710122313
 34
0.0
1001
ACAD
1000
DSTYLE
1002
{
1070
    47
1040
0.2
1070
    48
1040
0.2
1002
}
  0
LINE
  5
218
  8
回08-記事
  6
CONTINUOUS
 62
     7
 10
-257.573918189599
 20
287.9683710122313
 30
0.0
 11
-257.573918189599
 21
292.3603009205972
 31
0.0
  0
LINE
  5
219
  8
回08-記事
  6
CONTINUOUS
 62
     7
 10
-254.833918189599
 20
287.9683710122313
 30
0.0
 11
-257.573918189599
 21
287.9683710122313
 31
0.0
  0
LINE
  5
21A
  8
回08-記事
  6
CONTINUOUS
 62
     7
 10
-254.833918189599
 20
284.1683710122312
 30
0.0
 11
-254.833918189599
 21
287.9683710122313
 31
0.0
  0
LINE
  5
21B
  8
回08-記事
  6
CONTINUOUS
 62
     7
 10
-254.073918189599
 20
284.1683710122312
 30
0.0
 11
-254.833918189599
 21
284.1683710122312
 31
0.0
  0
LINE
  5
21C
  8
回08-記事
  6
CONTINUOUS
 62
     7
 10
-254.073918189599
 20
288.7283710122313
 30
0.0
 11
-254.073918189599
 21
284.1683710122312
 31
0.0
  0
LINE
  5
21D
  8
回08-記事
  6
CONTINUOUS
 62
     7
 10
-256.813918189599
 20
288.7283710122313
 30
0.0
 11
-254.073918189599
 21
288.7283710122313
 31
0.0
  0
LINE
  5
21E
  8
回08-記事
  6
CONTINUOUS
 62
     7
 10
-256.813918189599
 20
292.3603009205972
 30
0.0
 11
-256.813918189599
 21
288.7283710122313
 31
0.0
  0
LINE
  5
21F
  8
回08-記事
  6
CONTINUOUS
 62
     7
 10
-257.573918189599
 20
292.3603009205972
 30
0.0
 11
-256.813918189599
 21
292.3603009205972
 31
0.0
  0
POLYLINE
  5
220
  8
回08-記事
  6
CONTINUOUS
 62
     7
 66
     1
 10
0.0
 20
0.0
 30
0.0
 70
     1
  0
VERTEX
  5
BCB
  8
回08-記事
  6
CONTINUOUS
 62
     7
 10
-258.333918189599
 20
287.9683710122313
 30
0.0
  0
VERTEX
  5
BCD
  8
回08-記事
  6
CONTINUOUS
 62
     7
 10
-257.573918189599
 20
287.9683710122313
 30
0.0
  0
VERTEX
  5
BCE
  8
回08-記事
  6
CONTINUOUS
 62
     7
 10
-257.573918189599
 20
295.7786098518998
 30
0.0
  0
VERTEX
  5
BCF
  8
回08-記事
  6
CONTINUOUS
 62
     7
 10
-258.333918189599
 20
295.7786098518998
 30
0.0
  0
SEQEND
  5
BCC
  8
回91-枠英2
  6
CONTINUOUS
 62
    30
  0
POLYLINE
  5
221
  8
回08-記事
  6
CONTINUOUS
 62
     7
 66
     1
 10
0.0
 20
0.0
 30
0.0
 70
     1
  0
VERTEX
  5
BD0
  8
回08-記事
  6
CONTINUOUS
 62
     7
 10
-260.2976558967394
 20
287.6683710122313
 30
0.0
  0
VERTEX
  5
BD2
  8
回08-記事
  6
CONTINUOUS
 62
     7
 10
-259.533918189599
 20
287.6683710122313
 30
0.0
  0
VERTEX
  5
BD3
  8
回08-記事
  6
CONTINUOUS
 62
     7
 10
-259.533918189599
 20
342.9683710122313
 30
0.0
  0
VERTEX
  5
BD4
  8
回08-記事
  6
CONTINUOUS
 62
     7
 10
-260.2976558967394
 20
342.9683710122313
 30
0.0
  0
SEQEND
  5
BD1
  8
回91-枠英2
  6
CONTINUOUS
 62
    30
  0
POLYLINE
  5
222
  8
回08-記事
  6
CONTINUOUS
 62
     7
 66
     1
 10
0.0
 20
0.0
 30
0.0
 70
     1
  0
VERTEX
  5
BD5
  8
回08-記事
  6
CONTINUOUS
 62
     7
 10
-256.9197667864564
 20
347.9683710122313
 30
0.0
  0
VERTEX
  5
BD7
  8
回08-記事
  6
CONTINUOUS
 62
     7
 10
-258.333918189599
 20
347.9683710122313
 30
0.0
  0
VERTEX
  5
BD8
  8
回08-記事
  6
CONTINUOUS
 62
     7
 10
-258.333918189599
 20
337.9683710122313
 30
0.0
  0
VERTEX
  5
BD9
  8
回08-記事
  6
CONTINUOUS
 62
     7
 10
-256.9197667864564
 20
337.9683710122313
 30
0.0
  0
SEQEND
  5
BD6
  8
回91-枠英2
  6
CONTINUOUS
 62
    30
  0
LINE
  5
223
  8
回08-記事
  6
CONTINUOUS
 62
     7
 10
-259.533918189599
 20
117.1683710122311
 30
0.0
 11
-258.333918189599
 21
117.1683710122311
 31
0.0
  0
LINE
  5
224
  8
回08-記事
  6
CONTINUOUS
 62
     7
 10
-259.533918189599
 20
279.9683710122313
 30
0.0
 11
-258.333918189599
 21
279.9683710122313
 31
0.0
  0
POLYLINE
  5
225
  8
回08-記事
  6
CONTINUOUS
 62
     7
 66
     1
 10
0.0
 20
0.0
 30
0.0
 70
     1
  0
VERTEX
  5
BDA
  8
回08-記事
  6
CONTINUOUS
 62
     7
 10
-259.533918189599
 20
347.9683710122313
 30
0.0
  0
VERTEX
  5
BDC
  8
回08-記事
  6
CONTINUOUS
 62
     7
 10
-258.333918189599
 20
347.9683710122313
 30
0.0
  0
VERTEX
  5
BDD
  8
回08-記事
  6
CONTINUOUS
 62
     7
 10
-258.333918189599
 20
284.1683710122312
 30
0.0
  0
VERTEX
  5
BDE
  8
回08-記事
  6
CONTINUOUS
 62
     7
 10
-259.533918189599
 20
284.1683710122312
 30
0.0
  0
SEQEND
  5
BDB
  8
回91-枠英2
  6
CONTINUOUS
 62
    30
  0
LINE
  5
226
  8
回08-記事
  6
CONTINUOUS
 62
     7
 10
-259.533918189599
 20
112.1683710122313
 30
0.0
 11
-258.333918189599
 21
112.1683710122313
 31
0.0
  0
POLYLINE
  5
227
  8
回08-記事
  6
CONTINUOUS
 62
     7
 66
     1
 10
0.0
 20
0.0
 30
0.0
 70
     1
  0
VERTEX
  5
BDF
  8
回08-記事
  6
CONTINUOUS
 62
     7
 10
-259.533918189599
 20
287.6683710122313
 30
0.0
  0
VERTEX
  5
BE1
  8
回08-記事
  6
CONTINUOUS
 62
     7
 10
-261.533918189599
 20
287.6683710122313
 30
0.0
  0
VERTEX
  5
BE2
  8
回08-記事
  6
CONTINUOUS
 62
     7
 10
-261.533918189599
 20
112.1683710122313
 30
0.0
  0
VERTEX
  5
BE3
  8
回08-記事
  6
CONTINUOUS
 62
     7
 10
-259.533918189599
 20
112.1683710122313
 30
0.0
  0
SEQEND
  5
BE0
  8
回91-枠英2
  6
CONTINUOUS
 62
    30
  0
POLYLINE
  5
228
  8
回08-記事
  6
CONTINUOUS
 62
     7
 66
     1
 10
0.0
 20
0.0
 30
0.0
 70
     1
  0
VERTEX
  5
BE4
  8
回08-記事
  6
CONTINUOUS
 62
     7
 10
-258.333918189599
 20
287.9683710122313
 30
0.0
  0
VERTEX
  5
BE6
  8
回08-記事
  6
CONTINUOUS
 62
     7
 10
-254.833918189599
 20
287.9683710122313
 30
0.0
  0
VERTEX
  5
BE7
  8
回08-記事
  6
CONTINUOUS
 62
     7
 10
-254.833918189599
 20
111.8683710122313
 30
0.0
  0
VERTEX
  5
BE8
  8
回08-記事
  6
CONTINUOUS
 62
     7
 10
-258.333918189599
 20
111.8683710122313
 30
0.0
  0
SEQEND
  5
BE5
  8
回91-枠英2
  6
CONTINUOUS
 62
    30
  0
TEXT
  5
229
  8
回07-寸法
  6
CONTINUOUS
 62
     5
 10
-486.5249435215329
 20
297.3508417288005
 30
0.0
 40
3.0
  1
4-R1[R0.039]
1001
ACAD
1000
MTEXTBEGIN
1070
    73
1070
     1
1070
    44
1040
1.0
1070
    74
1070
     0
1000
MTEXTEND
  0
INSERT
  5
22A
  8
回07-寸法
  6
CONTINUOUS
 62
     7
 66
     1
  2
*X787878
 10
0.0
 20
0.0
 30
0.0
  0
SEQEND
  5
5DD
  8
回91-枠英2
  6
CONTINUOUS
 62
    30
  0
INSERT
  5
22B
  8
回07-寸法
  6
CONTINUOUS
 62
     7
 66
     1
  2
*X797979
 10
0.0
 20
0.0
 30
0.0
  0
SEQEND
  5
5E4
  8
回91-枠英2
  6
CONTINUOUS
 62
    30
  0
DIMENSION
  5
22C
  8
回07-寸法
  6
CONTINUOUS
 62
     7
  2
*D474747
 10
-456.6699234605346
 20
307.3265646433918
 30
0.0
 11
-469.2699234605345
 21
307.3265646433918
 31
0.0
 70
   160
  3
DMC
 13
-440.6711264948062
 23
292.3603009205972
 33
0.0
 14
-456.6699234605346
 24
292.3561273348909
 34
0.0
1001
ACAD
1000
DSTYLE
1002
{
1070
    47
1040
0.2
1070
    48
1040
0.2
1002
}
  0
DIMENSION
  5
23B
  8
回07-寸法
  6
CONTINUOUS
 62
     7
  2
*D484848
 10
-402.7160708581684
 20
287.9683710122313
 30
0.0
 11
-402.7160708581684
 21
317.9683710122315
 31
0.0
 70
   160
  3
DMC
 13
-446.7949234605343
 23
347.9683710122313
 33
0.0
 14
-439.7234886360968
 24
287.9683710122313
 34
0.0
 50
90.0
1001
ACAD
1000
DSTYLE
1002
{
1070
    47
1040
1.0
1070
    48
1040
1.0
1070
    71
1070
     1
1002
}
  0
DIMENSION
  5
248
  8
回07-寸法
  6
CONTINUOUS
 62
     7
  2
*D494949
 10
-445.5449234605342
 20
353.6591921357715
 30
0.0
 11
-430.9949234605341
 21
355.8091921357715
 31
0.0
 70
    32
  3
DMC
 13
-451.7948829904613
 23
347.6620095316643
 33
0.0
 14
-445.5449234605342
 24
347.6683710122313
 34
0.0
1001
ACAD
1000
DSTYLE
1002
{
1070
   147
1040
0.5
1070
    72
1070
     0
1070
    71
1070
     0
1070
    47
1040
0.2
1070
    48
1040
0.2
1002
}
  0
DIMENSION
  5
257
  8
回07-寸法
  6
CONTINUOUS
 62
     7
  2
*D505050
 10
-451.7948829904613
 20
353.6591921357715
 30
0.0
 11
-483.982403225498
 21
355.8091921357715
 31
0.0
 70
    32
  1
(<>)
  3
DMC
 13
-516.1699234605341
 23
287.9683710122313
 33
0.0
 14
-451.7948829904613
 24
347.6620095316643
 34
0.0
1001
ACAD
1000
DSTYLE
1002
{
1070
    47
1040
0.2
1070
    48
1040
0.2
1002
}
  0
DIMENSION
  5
264
  8
回07-寸法
  6
CONTINUOUS
 62
     4
  2
*D515151
 10
-566.2983893301091
 20
287.9683710122313
 30
0.0
 11
-566.2983893301091
 21
199.6998890737366
 31
0.0
 70
   160
  3
DMC
 13
-523.7021797787146
 23
111.8683710122313
 33
0.0
 14
-516.1699234605341
 24
287.9683710122313
 34
0.0
 50
90.0
1001
ACAD
1000
DSTYLE
1002
{
1070
   147
1040
0.5
1070
    72
1070
     0
1070
    71
1070
     1
1070
    47
1040
0.3
1070
    48
1040
0.3
1002
}
  0
DIMENSION
  5
271
  8
回07-寸法
  6
CONTINUOUS
 62
     4
  2
*D525252
 10
-548.9848117014708
 20
111.8683710122313
 30
0.0
 11
-551.1355966461024
 21
98.5129554594409
 31
0.0
 70
    32
  3
DMC
 13
-511.9699234605342
 23
117.1683710122311
 33
0.0
 14
-516.1699234605341
 24
111.8683710122313
 34
0.0
 50
90.0
1001
ACAD
1000
DSTYLE
1002
{
1070
    47
1040
0.2
1070
    48
1040
0.2
1002
}
  0
DIMENSION
  5
280
  8
回07-寸法
  6
CONTINUOUS
 62
     4
  2
*D535353
 10
-542.5300411895062
 20
111.8683710122313
 30
0.0
 11
-542.5300411895062
 21
99.92860723270391
 31
0.0
 70
   160
  3
DMC
 13
-511.2699234605343
 23
117.8683710122312
 33
0.0
 14
-516.1699234605341
 24
111.8683710122313
 34
0.0
 50
90.0
1001
ACAD
1000
DSTYLE
1002
{
1070
    47
1040
0.2
1070
    48
1040
0.2
1002
}
  0
DIMENSION
  5
28F
  8
回07-寸法
  6
CONTINUOUS
 62
     4
  2
*D545454
 10
-548.9848117014706
 20
117.1683710122311
 30
0.0
 11
-548.9848117014706
 21
199.0051718654429
 31
0.0
 70
   160
  1
<> {\H0.6667x;(Viewng area)}
  3
DMC
 13
-511.9699234605342
 23
279.9683710122313
 33
0.0
 14
-511.9699234605342
 24
117.1683710122311
 34
0.0
 50
90.0
1001
ACAD
1000
DSTYLE
1002
{
1070
    47
1040
0.2
1070
    48
1040
0.2
1002
}
  0
DIMENSION
  5
29C
  8
回07-寸法
  6
CONTINUOUS
 62
     4
  2
*D555555
 10
-542.5300411895062
 20
279.2683710122314
 30
0.0
 11
-542.5300411895062
 21
199.0051718654429
 31
0.0
 70
   160
  1
<> {\H0.6667x;(Active area)}
  3
DMC
 13
-511.2699234605343
 23
117.8683710122312
 33
0.0
 14
-511.2699234605343
 24
279.2683710122314
 34
0.0
 50
90.0
1001
ACAD
1000
DSTYLE
1002
{
1070
    47
1040
0.2
1070
    48
1040
0.2
1002
}
  0
DIMENSION
  5
2A9
  8
回07-寸法
  6
CONTINUOUS
 62
     4
  2
*D565656
 10
-531.4708453367243
 20
198.5683710122312
 30
0.0
 11
-531.4708453367243
 21
155.2381051257296
 31
0.0
 70
   160
  1
<> {\H0.6667x;(Active area Center)}
  3
DMC
 13
-516.1699234605341
 23
111.8683710122313
 33
0.0
 14
-511.2699234605343
 24
198.5683710122312
 34
0.0
 50
90.0
1001
ACAD
1000
DSTYLE
1002
{
1070
    47
1040
0.2
1070
    48
1040
0.2
1002
}
  0
DIMENSION
  5
2B6
  8
回07-寸法
  6
CONTINUOUS
 62
     4
  2
*D575757
 10
-293.2699234605341
 20
73.60261701119721
 30
0.0
 11
-404.7199234605342
 21
73.60261701119721
 31
0.0
 70
   160
  3
DMC
 13
-516.1699234605341
 23
111.8683710122313
 33
0.0
 14
-293.2699234605341
 24
111.8683710122313
 34
0.0
1001
ACAD
1000
DSTYLE
1002
{
1070
   147
1040
0.5
1070
    72
1070
     0
1070
    71
1070
     1
1070
    47
1040
0.3
1070
    48
1040
0.3
1002
}
  0
DIMENSION
  5
2C3
  8
回07-寸法
  6
CONTINUOUS
 62
     4
  2
*D585858
 10
-516.1699234605341
 20
86.17309288134293
 30
0.0
 11
-529.3699234605343
 21
88.32309288134295
 31
0.0
 70
    32
  3
DMC
 13
-511.9699234605342
 23
117.1683710122311
 33
0.0
 14
-516.1699234605341
 24
111.8683710122313
 34
0.0
1001
ACAD
1000
DSTYLE
1002
{
1070
    47
1040
0.2
1070
    48
1040
0.2
1002
}
  0
DIMENSION
  5
2D2
  8
回07-寸法
  6
CONTINUOUS
 62
     4
  2
*D595959
 10
-516.1699234605341
 20
92.44621060273519
 30
0.0
 11
-529.3807545661153
 21
94.59699554736706
 31
0.0
 70
    32
  3
DMC
 13
-511.2699234605343
 23
117.8683710122312
 33
0.0
 14
-516.1699234605341
 24
111.8683710122313
 34
0.0
1001
ACAD
1000
DSTYLE
1002
{
1070
    47
1040
0.2
1070
    48
1040
0.2
1002
}
  0
DIMENSION
  5
2E1
  8
回07-寸法
  6
CONTINUOUS
 62
     4
  2
*D606060
 10
-511.9699234605342
 20
86.17309288134293
 30
0.0
 11
-404.6699234605339
 21
88.49889032597479
 31
0.0
 70
    32
  1
<> {\H0.6667x;(Viewing area)}
  3
DMC
 13
-297.369923460534
 23
117.1683710122311
 33
0.0
 14
-511.9699234605342
 24
117.1683710122311
 34
0.0
1001
ACAD
1000
DSTYLE
1002
{
1070
    47
1040
0.2
1070
    48
1040
0.2
1002
}
  0
DIMENSION
  5
2EE
  8
回07-寸法
  6
CONTINUOUS
 62
     4
  2
*D616161
 10
-298.0699234605343
 20
92.44621060273519
 30
0.0
 11
-404.6699234605342
 21
94.59699554736706
 31
0.0
 70
    32
  1
<> {\H0.6667x;(Active area)}
  3
DMC
 13
-511.2699234605343
 23
117.8683710122312
 33
0.0
 14
-298.0699234605343
 24
117.8683710122312
 34
0.0
1001
ACAD
1000
DSTYLE
1002
{
1070
    47
1040
0.2
1070
    48
1040
0.2
1002
}
  0
DIMENSION
  5
2FB
  8
回07-寸法
  6
CONTINUOUS
 62
     4
  2
*D626262
 10
-404.1699234605342
 20
99.61499480924505
 30
0.0
 11
-460.1164115351225
 21
99.61499480924505
 31
0.0
 70
   160
  1
<> {\H0.6667x;(Active area Center)}
  3
DMC
 13
-516.1699234605341
 23
111.8683710122313
 33
0.0
 14
-404.1699234605342
 24
117.8683710122312
 34
0.0
1001
ACAD
1000
DSTYLE
1002
{
1070
    47
1040
0.2
1070
    48
1040
0.2
1002
}
  0
ARC
  5
308
  8
回05-ﾃｰﾙ
  6
BYBLOCK
 62
     7
 10
-446.0449234605341
 20
347.4683710122313
 30
0.0
 40
0.5
 50
0.0
 51
90.0
  0
LINE
  5
309
  8
回07-寸法
  6
CENTER2
 62
     5
 10
-511.9699234605342
 20
198.5683710122312
 30
0.0
 11
-297.369923460534
 21
198.5683710122312
 31
0.0
  0
POLYLINE
  5
30A
  8
回04-下接
  6
CONTINUOUS
 62
     7
 66
     1
 10
0.0
 20
0.0
 30
0.0
 70
     1
  0
VERTEX
  5
BE9
  8
回04-下接
  6
CONTINUOUS
 62
     7
 10
-516.1699234605341
 20
287.9683710122313
 30
0.0
  0
VERTEX
  5
BEB
  8
回04-下接
  6
CONTINUOUS
 62
     7
 10
-293.2699234605341
 20
287.9683710122313
 30
0.0
  0
VERTEX
  5
BEC
  8
回04-下接
  6
CONTINUOUS
 62
     7
 10
-293.2699234605341
 20
111.8683710122313
 30
0.0
  0
VERTEX
  5
BED
  8
回04-下接
  6
CONTINUOUS
 62
     7
 10
-516.1699234605341
 20
111.8683710122313
 30
0.0
  0
SEQEND
  5
BEA
  8
回91-枠英2
  6
CONTINUOUS
 62
    30
  0
POLYLINE
  5
30B
  8
回08-記事
  6
CONTINUOUS
 62
     7
 66
     1
 10
0.0
 20
0.0
 30
0.0
 70
     1
  0
VERTEX
  5
BEE
  8
回08-記事
  6
CONTINUOUS
 62
     7
 10
-511.9699234605342
 20
117.1683710122311
 30
0.0
  0
VERTEX
  5
BF0
  8
回08-記事
  6
CONTINUOUS
 62
     7
 10
-297.369923460534
 20
117.1683710122311
 30
0.0
  0
VERTEX
  5
BF1
  8
回08-記事
  6
CONTINUOUS
 62
     7
 10
-297.369923460534
 20
279.9683710122313
 30
0.0
  0
VERTEX
  5
BF2
  8
回08-記事
  6
CONTINUOUS
 62
     7
 10
-511.9699234605342
 20
279.9683710122313
 30
0.0
  0
SEQEND
  5
BEF
  8
回91-枠英2
  6
CONTINUOUS
 62
    30
  0
LINE
  5
30C
  8
回07-寸法
  6
CENTER2
 62
     5
 10
-404.1699234605342
 20
279.9683710122313
 30
0.0
 11
-404.1699234605342
 21
117.1683710122311
 31
0.0
  0
TEXT
  5
30D
  8
回02-上接
  6
CONTINUOUS
 62
     5
 10
-183.4013639560421
 20
334.0404748524177
 30
0.0
 40
4.961249999999997
  1
PIN ASSIGNMENT
  0
TEXT
  5
311
  8
回91-枠英2
 10
-115.1489997530207
 20
390.3724231260511
 30
0.0
 40
4.0
  1
H
  0
LINE
  5
312
  8
回91-枠英2
 10
-148.8783850586731
 20
395.0
 30
0.0
 11
-148.8783850586731
 21
390.0
 31
0.0
  0
LINE
  5
313
  8
回91-枠英2
 10
-73.87838505867311
 20
313.0
 30
0.0
 11
-78.87838505867311
 21
313.0
 31
0.0
  0
TEXT
  5
314
  8
回91-枠英2
 10
-77.77546275831565
 20
272.2886872958593
 30
0.0
 40
4.0
  1
2
  0
LINE
  5
315
  8
回91-枠英2
 10
-73.87838505867311
 20
236.0
 30
0.0
 11
-78.87838505867311
 21
236.0
 31
0.0
  0
TEXT
  5
316
  8
回91-枠英2
 10
-77.47396405501381
 20
349.2886872958593
 30
0.0
 40
4.0
  1
1
  0
TEXT
  5
317
  8
回91-枠英2
 10
-77.7809436025164
 20
195.2886872958593
 30
0.0
 40
4.0
  1
3
  0
LINE
  5
318
  8
回91-枠英2
 10
-73.87838505867311
 20
159.0
 30
0.0
 11
-78.87838505867311
 21
159.0
 31
0.0
  0
TEXT
  5
319
  8
回91-枠英2
 10
-77.85403572259752
 20
118.2886872958593
 30
0.0
 40
4.0
  1
4
  0
LINE
  5
31A
  8
回91-枠英2
 10
-73.87838505867311
 20
82.00000000000001
 30
0.0
 11
-78.87838505867311
 21
82.00000000000001
 31
0.0
  0
TEXT
  5
31B
  8
回91-枠英2
 10
-77.85403572259752
 20
41.28868729585929
 30
0.0
 40
4.0
  1
5
  0
TEXT
  5
31C
  8
回91-枠英2
 10
-115.1489997530207
 20
0.372423126051217
 30
0.0
 40
4.0
  1
H
  0
LINE
  5
31D
  8
回91-枠英2
 10
-148.8783850586731
 20
5.0
 30
0.0
 11
-148.8783850586731
 21
0.0
 31
0.0
  0
LINE
  5
31E
  8
回91-枠英2
 10
-73.87838505867311
 20
0.0
 30
0.0
 11
-73.87838505867311
 21
395.0
 31
0.0
  0
LINE
  5
31F
  8
回91-枠英2
 10
-78.87838505867311
 20
390.0
 30
0.0
 11
-78.87838505867311
 21
5.0
 31
0.0
  0
TEXT
  5
320
  8
回91-枠英2
 10
-185.1489997530207
 20
390.3724231260511
 30
0.0
 40
4.0
  1
G
  0
LINE
  5
321
  8
回91-枠英2
 10
-218.8783850586731
 20
395.0
 30
0.0
 11
-218.8783850586731
 21
390.0
 31
0.0
  0
TEXT
  5
322
  8
回91-枠英2
 10
-255.1489997530207
 20
390.3724231260511
 30
0.0
 40
4.0
  1
F
  0
LINE
  5
323
  8
回91-枠英2
 10
-288.8783850586731
 20
395.0
 30
0.0
 11
-288.8783850586731
 21
390.0
 31
0.0
  0
TEXT
  5
324
  8
回91-枠英2
 10
-325.1489997530208
 20
390.3724231260511
 30
0.0
 40
4.0
  1
E
  0
LINE
  5
325
  8
回91-枠英2
 10
-358.8783850586731
 20
395.0
 30
0.0
 11
-358.8783850586731
 21
390.0
 31
0.0
  0
TEXT
  5
326
  8
回91-枠英2
 10
-395.1489997530207
 20
390.3724231260511
 30
0.0
 40
4.0
  1
D
  0
LINE
  5
327
  8
回91-枠英2
 10
-428.8783850586731
 20
395.0
 30
0.0
 11
-428.8783850586731
 21
390.0
 31
0.0
  0
TEXT
  5
328
  8
回91-枠英2
 10
-465.1489997530206
 20
390.3724231260511
 30
0.0
 40
4.0
  1
C
  0
LINE
  5
329
  8
回91-枠英2
 10
-498.878385058673
 20
395.0
 30
0.0
 11
-498.878385058673
 21
390.0
 31
0.0
  0
TEXT
  5
32A
  8
回91-枠英2
 10
-535.1489997530205
 20
390.3724231260511
 30
0.0
 40
4.0
  1
B
  0
LINE
  5
32B
  8
回91-枠英2
 10
-568.878385058673
 20
395.0
 30
0.0
 11
-568.878385058673
 21
390.0
 31
0.0
  0
TEXT
  5
32C
  8
回91-枠英2
 10
-605.1489997530206
 20
390.3724231260511
 30
0.0
 40
4.0
  1
A
  0
LINE
  5
32D
  8
回91-枠英2
 10
-638.878385058673
 20
313.0
 30
0.0
 11
-643.878385058673
 21
313.0
 31
0.0
  0
TEXT
  5
32E
  8
回91-枠英2
 10
-642.7754627583157
 20
272.2886872958593
 30
0.0
 40
4.0
  1
2
  0
LINE
  5
32F
  8
回91-枠英2
 10
-638.878385058673
 20
236.0
 30
0.0
 11
-643.878385058673
 21
236.0
 31
0.0
  0
TEXT
  5
330
  8
回91-枠英2
 10
-642.4739640550138
 20
349.2886872958593
 30
0.0
 40
4.0
  1
1
  0
TEXT
  5
331
  8
回91-枠英2
 10
-185.1489997530207
 20
0.372423126051217
 30
0.0
 40
4.0
  1
G
  0
LINE
  5
332
  8
回91-枠英2
 10
-218.8783850586731
 20
5.0
 30
0.0
 11
-218.8783850586731
 21
0.0
 31
0.0
  0
TEXT
  5
333
  8
回91-枠英2
 10
-255.1489997530207
 20
0.372423126051217
 30
0.0
 40
4.0
  1
F
  0
LINE
  5
334
  8
回91-枠英2
 10
-288.8783850586731
 20
5.0
 30
0.0
 11
-288.8783850586731
 21
0.0
 31
0.0
  0
TEXT
  5
335
  8
回91-枠英2
 10
-325.1489997530208
 20
0.372423126051217
 30
0.0
 40
4.0
  1
E
  0
LINE
  5
336
  8
回91-枠英2
 10
-358.8783850586731
 20
5.0
 30
0.0
 11
-358.8783850586731
 21
0.0
 31
0.0
  0
TEXT
  5
337
  8
回91-枠英2
 10
-395.1489997530207
 20
0.372423126051217
 30
0.0
 40
4.0
  1
D
  0
LINE
  5
338
  8
回91-枠英2
 10
-428.8783850586731
 20
5.0
 30
0.0
 11
-428.8783850586731
 21
0.0
 31
0.0
  0
TEXT
  5
339
  8
回91-枠英2
 10
-465.1489997530206
 20
0.372423126051217
 30
0.0
 40
4.0
  1
C
  0
LINE
  5
33A
  8
回91-枠英2
 10
-498.878385058673
 20
5.0
 30
0.0
 11
-498.878385058673
 21
0.0
 31
0.0
  0
TEXT
  5
33B
  8
回91-枠英2
 10
-535.1489997530205
 20
0.372423126051217
 30
0.0
 40
4.0
  1
B
  0
TEXT
  5
33C
  8
回91-枠英2
 10
-642.7809436025162
 20
195.2886872958593
 30
0.0
 40
4.0
  1
3
  0
LINE
  5
33D
  8
回91-枠英2
 10
-638.878385058673
 20
159.0
 30
0.0
 11
-643.878385058673
 21
159.0
 31
0.0
  0
TEXT
  5
33E
  8
回91-枠英2
 10
-642.8540357225974
 20
118.2886872958593
 30
0.0
 40
4.0
  1
4
  0
LINE
  5
33F
  8
回91-枠英2
 10
-568.878385058673
 20
5.0
 30
0.0
 11
-568.878385058673
 21
0.0
 31
0.0
  0
TEXT
  5
340
  8
回91-枠英2
 10
-605.1489997530206
 20
0.372423126051217
 30
0.0
 40
4.0
  1
A
  0
LINE
  5
341
  8
回91-枠英2
 10
-638.878385058673
 20
82.00000000000001
 30
0.0
 11
-643.878385058673
 21
82.00000000000001
 31
0.0
  0
TEXT
  5
342
  8
回91-枠英2
 10
-642.8540357225974
 20
41.28868729585929
 30
0.0
 40
4.0
  1
5
  0
LINE
  5
343
  8
回91-枠英2
 10
-643.878385058673
 20
0.0
 30
0.0
 11
-643.878385058673
 21
395.0
 31
0.0
  0
LINE
  5
344
  8
回91-枠英2
 10
-638.878385058673
 20
390.0
 30
0.0
 11
-638.878385058673
 21
5.0
 31
0.0
  0
LINE
  5
345
  8
回91-枠英2
 10
-638.878385058673
 20
5.0
 30
0.0
 11
-78.87838505867311
 21
5.0
 31
0.0
  0
LINE
  5
346
  8
回91-枠英2
 10
-73.87838505867311
 20
0.0
 30
0.0
 11
-643.878385058673
 21
0.0
 31
0.0
  0
LINE
  5
347
  8
回91-枠英2
 10
-73.87838505867311
 20
395.0
 30
0.0
 11
-643.878385058673
 21
395.0
 31
0.0
  0
LINE
  5
348
  8
回91-枠英2
 10
-638.878385058673
 20
390.0
 30
0.0
 11
-78.87838505867311
 21
390.0
 31
0.0
  0
ENDSEC
  0
EOF
