  0
SECTION
  2
HEADER
  9
$ACADVER
  1
AC1009
  9
$INSBASE
 10
0.0
 20
0.0
 30
0.0
  9
$EXTMIN
 10
-159.7305794182284
 20
482.5001590484284
 30
0.0
  9
$EXTMAX
 10
410.2694205817713
 20
877.5001590484281
 30
0.0
  9
$LIMMIN
 10
0.0
 20
0.0
  9
$LIMMAX
 10
880.0
 20
620.0
  9
$ORTHOMODE
 70
     0
  9
$REGENMODE
 70
     1
  9
$FILLMODE
 70
     1
  9
$QTEXTMODE
 70
     0
  9
$MIRRTEXT
 70
     1
  9
$DRAGMODE
 70
     2
  9
$LTSCALE
 40
2.087542087542086
  9
$OSMODE
 70
    37
  9
$ATTMODE
 70
     1
  9
$TEXTSIZE
 40
4.0
  9
$TRACEWID
 40
1.0
  9
$TEXTSTYLE
  7
STANDARD
  9
$CLAYER
  8
回07-寸法
  9
$CELTYPE
  6
CONTINUOUS
  9
$CECOLOR
 62
     5
  9
$DIMSCALE
 40
0.0
  9
$DIMASZ
 40
2.0
  9
$DIMEXO
 40
0.0
  9
$DIMDLI
 40
0.0
  9
$DIMRND
 40
0.0
  9
$DIMDLE
 40
0.0
  9
$DIMEXE
 40
1.0
  9
$DIMTP
 40
0.0
  9
$DIMTM
 40
0.0
  9
$DIMTXT
 40
4.0
  9
$DIMCEN
 40
2.0
  9
$DIMTSZ
 40
0.0
  9
$DIMTOL
 70
     0
  9
$DIMLIM
 70
     0
  9
$DIMTIH
 70
     0
  9
$DIMTOH
 70
     0
  9
$DIMSE1
 70
     0
  9
$DIMSE2
 70
     0
  9
$DIMTAD
 70
     3
  9
$DIMZIN
 70
     8
  9
$DIMBLK
  1
OPEN
  9
$DIMASO
 70
     1
  9
$DIMSHO
 70
     1
  9
$DIMPOST
  1

  9
$DIMAPOST
  1

  9
$DIMALT
 70
     1
  9
$DIMALTD
 70
     3
  9
$DIMALTF
 40
0.03937007874016
  9
$DIMLFAC
 40
1.0
  9
$DIMTOFL
 70
     1
  9
$DIMTVP
 40
0.0
  9
$DIMTIX
 70
     0
  9
$DIMSOXD
 70
     0
  9
$DIMSAH
 70
     0
  9
$DIMBLK1
  1

  9
$DIMBLK2
  1

  9
$DIMSTYLE
  2
DMC
  9
$DIMCLRD
 70
     5
  9
$DIMCLRE
 70
     5
  9
$DIMCLRT
 70
     5
  9
$DIMTFAC
 40
1.0
  9
$DIMGAP
 40
0.5
  9
$LUNITS
 70
     2
  9
$LUPREC
 70
     4
  9
$SKETCHINC
 40
1.0
  9
$FILLETRAD
 40
10.0
  9
$AUNITS
 70
     0
  9
$AUPREC
 70
     0
  9
$MENU
  1
.
  9
$ELEVATION
 40
0.0
  9
$PELEVATION
 40
0.0
  9
$THICKNESS
 40
0.0
  9
$LIMCHECK
 70
     0
  9
$BLIPMODE
 70
     0
  9
$CHAMFERA
 40
2.0
  9
$CHAMFERB
 40
2.0
  9
$SKPOLY
 70
     0
  9
$TDCREATE
 40
2450431.727493866
  9
$TDUPDATE
 40
2460221.414948773
  9
$TDINDWG
 40
7.062425278
  9
$TDUSRTIMER
 40
7.062423356
  9
$USRTIMER
 70
     1
  9
$ANGBASE
 50
0.0
  9
$ANGDIR
 70
     0
  9
$PDMODE
 70
    34
  9
$PDSIZE
 40
0.0
  9
$PLINEWID
 40
0.2
  9
$COORDS
 70
     0
  9
$SPLFRAME
 70
     0
  9
$SPLINETYPE
 70
     6
  9
$SPLINESEGS
 70
     8
  9
$ATTDIA
 70
     1
  9
$ATTREQ
 70
     1
  9
$HANDLING
 70
     1
  9
$HANDSEED
  5
AF2
  9
$SURFTAB1
 70
     6
  9
$SURFTAB2
 70
     6
  9
$SURFTYPE
 70
     6
  9
$SURFU
 70
     6
  9
$SURFV
 70
     6
  9
$UCSNAME
  2

  9
$UCSORG
 10
0.0
 20
0.0
 30
0.0
  9
$UCSXDIR
 10
1.0
 20
0.0
 30
0.0
  9
$UCSYDIR
 10
0.0
 20
1.0
 30
0.0
  9
$PUCSNAME
  2

  9
$PUCSORG
 10
0.0
 20
0.0
 30
0.0
  9
$PUCSXDIR
 10
1.0
 20
0.0
 30
0.0
  9
$PUCSYDIR
 10
0.0
 20
1.0
 30
0.0
  9
$USERI1
 70
     0
  9
$USERI2
 70
     0
  9
$USERI3
 70
     0
  9
$USERI4
 70
     0
  9
$USERI5
 70
     0
  9
$USERR1
 40
0.0
  9
$USERR2
 40
0.0
  9
$USERR3
 40
0.0
  9
$USERR4
 40
0.0
  9
$USERR5
 40
0.0
  9
$WORLDVIEW
 70
     1
  9
$SHADEDGE
 70
     3
  9
$SHADEDIF
 70
    70
  9
$TILEMODE
 70
     1
  9
$MAXACTVP
 70
    16
  9
$PLIMCHECK
 70
     0
  9
$PEXTMIN
 10
1.000000000000000E+20
 20
1.000000000000000E+20
 30
1.000000000000000E+20
  9
$PEXTMAX
 10
-1.000000000000000E+20
 20
-1.000000000000000E+20
 30
-1.000000000000000E+20
  9
$PLIMMIN
 10
0.0
 20
0.0
  9
$PLIMMAX
 10
420.0
 20
297.0
  9
$UNITMODE
 70
     0
  9
$VISRETAIN
 70
     0
  9
$PLINEGEN
 70
     0
  9
$PSLTSCALE
 70
     1
  0
ENDSEC
  0
SECTION
  2
TABLES
  0
TABLE
  2
VPORT
 70
     1
  0
VPORT
  2
*ACTIVE
 70
     0
 10
0.0
 20
0.0
 11
1.0
 21
1.0
 12
141.6662658626923
 22
631.5446551954059
 13
0.0
 23
0.0
 14
0.25
 24
0.25
 15
1.0
 25
1.0
 16
0.0
 26
0.0
 36
1.0
 17
0.0
 27
0.0
 37
0.0
 40
820.0136716313414
 41
1.002570694087403
 42
50.0
 43
0.0
 44
0.0
 50
0.0
 51
0.0
 71
     0
 72
   100
 73
     1
 74
     0
 75
     0
 76
     0
 77
     0
 78
     0
  0
ENDTAB
  0
TABLE
  2
LTYPE
 70
     5
  0
LTYPE
  2
CONTINUOUS
 70
     0
  3
Solid line
 72
    65
 73
     0
 40
0.0
  0
LTYPE
  2
CENTER2
 70
     0
  3
___ _ ___ _ ___ _ ___ _ ___ _ ___ _ ___ _ ___ _
 72
    65
 73
     4
 40
1.125
 49
0.75
 49
-0.125
 49
0.125
 49
-0.125
  0
LTYPE
  2
PHANTOM2
 70
     0
  3
___ _ _ ___ _ _ ___ _ _ ___ _ _ ___ _ _ ___ _ _
 72
    65
 73
     6
 40
1.25
 49
0.625
 49
-0.125
 49
0.125
 49
-0.125
 49
0.125
 49
-0.125
  0
LTYPE
  2
DASHED2
 70
     0
  3
_ _ _ _ _ _ _ _ _ _ _ _ _ _ _ _ _ _ _ _ _ _ _ _
 72
    65
 73
     2
 40
0.375
 49
0.25
 49
-0.125
  0
LTYPE
  2
DASHED
 70
     0
  3
Dashed __ __ __ __ __ __ __ __ __ __ __ __ __ _
 72
    65
 73
     2
 40
0.75
 49
0.5
 49
-0.25
  0
ENDTAB
  0
TABLE
  2
LAYER
 70
     8
  0
LAYER
  2
0
 70
     0
 62
     7
  6
CONTINUOUS
  0
LAYER
  2
DEFPOINTS
 70
     0
 62
     7
  6
CONTINUOUS
  0
LAYER
  2
回90-A2
 70
     0
 62
     7
  6
CONTINUOUS
  0
LAYER
  2
回04-下接
 70
     0
 62
     7
  6
CONTINUOUS
  0
LAYER
  2
回07-寸法
 70
     0
 62
     7
  6
CONTINUOUS
  0
LAYER
  2
回08-記事
 70
     0
 62
     7
  6
CONTINUOUS
  0
LAYER
  2
回05-ﾃ-ﾙ
 70
     0
 62
     7
  6
CONTINUOUS
  0
LAYER
  2
回03-記事
 70
     0
 62
     7
  6
CONTINUOUS
  0
ENDTAB
  0
TABLE
  2
STYLE
 70
     2
  0
STYLE
  2
STANDARD
 70
     0
 40
4.0
 41
1.0
 50
0.0
 71
     0
 42
4.0
  3
isocp.shx
  4
bigfont.shx
  0
STYLE
  2
ANNOTATIVE
 70
     0
 40
0.0
 41
1.0
 50
0.0
 71
     0
 42
0.2
  3
txt.shx
  4

  0
ENDTAB
  0
TABLE
  2
VIEW
 70
     0
  0
ENDTAB
  0
TABLE
  2
UCS
 70
     0
  0
ENDTAB
  0
TABLE
  2
APPID
 70
     5
  0
APPID
  2
ACAD
 70
     0
  0
APPID
  2
ACADANNOTATIVE
 70
     0
  0
APPID
  2
ACAD_DSTYLE_DIMJAG
 70
     0
  0
APPID
  2
ACAD_DSTYLE_DIMTALN
 70
     0
  0
APPID
  2
ACAD_NAV_VCDISPLAY
 70
     0
  0
ENDTAB
  0
TABLE
  2
DIMSTYLE
 70
     2
  0
DIMSTYLE
  2
RUISIN
 70
     0
  3

  4

  5

  6
OPEN
  7
OPEN
 40
1.0
 41
2.0
 42
0.0
 43
0.0
 44
1.0
 45
0.0
 46
0.0
 47
0.0
 48
0.0
140
3.0
141
2.0
142
0.0
143
25.4
144
1.0
145
0.0
146
1.0
147
0.5
 71
     0
 72
     0
 73
     0
 74
     0
 75
     0
 76
     0
 77
     3
 78
     8
170
     0
171
     2
172
     1
173
     1
174
     0
175
     0
176
     5
177
     5
178
     5
  0
DIMSTYLE
  2
DMC
 70
     0
  3

  4

  5
OPEN
  6

  7

 40
0.0
 41
2.0
 42
0.0
 43
0.0
 44
1.0
 45
0.0
 46
0.0
 47
0.0
 48
0.0
140
4.0
141
2.0
142
0.0
143
0.03937007874016
144
1.0
145
0.0
146
1.0
147
0.5
 71
     0
 72
     0
 73
     0
 74
     0
 75
     0
 76
     0
 77
     3
 78
     8
170
     1
171
     3
172
     1
173
     0
174
     0
175
     0
176
     5
177
     5
178
     5
  0
ENDTAB
  0
ENDSEC
  0
SECTION
  2
BLOCKS
  0
BLOCK
  8
0
  2
$MODEL_SPACE
 70
     0
 10
0.0
 20
0.0
 30
0.0
  3
$MODEL_SPACE
  1

  0
ENDBLK
  8
0
  5
24
  0
BLOCK
 67
     1
  8
0
  2
$PAPER_SPACE
 70
     0
 10
0.0
 20
0.0
 30
0.0
  3
$PAPER_SPACE
  1

  0
ENDBLK
  5
29
 67
     1
  8
0
  0
BLOCK
  8
0
  2
_OPEN
 70
     0
 10
0.0
 20
0.0
 30
0.0
  3
_OPEN
  1

  0
LINE
  5
912
  8
0
  6
BYBLOCK
 62
     0
 10
-1.0
 20
0.166667
 30
0.0
 11
0.0
 21
0.0
 31
0.0
  0
LINE
  5
913
  8
0
  6
BYBLOCK
 62
     0
 10
-1.0
 20
-0.166667
 30
0.0
 11
0.0
 21
0.0
 31
0.0
  0
LINE
  5
914
  8
0
  6
BYBLOCK
 62
     0
 10
0.0
 20
0.0
 30
0.0
 11
-1.0
 21
0.0
 31
0.0
  0
LINE
  5
6DE
  8
0
  6
BYBLOCK
 62
     0
 10
-1.0
 20
0.166667
 30
0.0
 11
0.0
 21
0.0
 31
0.0
  0
LINE
  5
6DF
  8
0
  6
BYBLOCK
 62
     0
 10
-1.0
 20
-0.166667
 30
0.0
 11
0.0
 21
0.0
 31
0.0
  0
LINE
  5
6E0
  8
0
  6
BYBLOCK
 62
     0
 10
0.0
 20
0.0
 30
0.0
 11
-1.0
 21
0.0
 31
0.0
  0
LINE
  5
15
  8
0
  6
BYBLOCK
 62
     0
 10
-1.0
 20
0.1666666666666666
 30
0.0
 11
0.0
 21
0.0
 31
0.0
  0
LINE
  5
17
  8
0
  6
BYBLOCK
 62
     0
 10
0.0
 20
0.0
 30
0.0
 11
-1.0
 21
-0.1666666666666666
 31
0.0
  0
LINE
  5
18
  8
0
  6
BYBLOCK
 62
     0
 10
0.0
 20
0.0
 30
0.0
 11
-1.0
 21
0.0
 31
0.0
  0
ENDBLK
  5
19
  8
0
  0
BLOCK
  8
0
  2
*D111
 70
     1
 10
0.0
 20
0.0
 30
0.0
  3
*D111
  1

  0
LINE
  5
111
  8
回07-寸法
  6
CONTINUOUS
 62
     5
 10
-5480.968507009331
 20
37.57752208394754
 30
0.0
 11
-5480.968507009331
 21
27.17578931004732
 31
0.0
  0
LINE
  5
112
  8
回07-寸法
  6
CONTINUOUS
 62
     5
 10
-5485.358507009332
 20
40.44858989581348
 30
0.0
 11
-5485.358507009332
 21
27.17578931004732
 31
0.0
  0
LINE
  5
113
  8
回07-寸法
  6
CONTINUOUS
 62
     5
 10
-5478.968507009331
 20
28.17578931004732
 30
0.0
 11
-5476.968507009331
 21
28.17578931004732
 31
0.0
  0
LINE
  5
114
  8
回07-寸法
  6
CONTINUOUS
 62
     5
 10
-5487.358507009331
 20
28.17578931004732
 30
0.0
 11
-5520.991002263159
 21
28.17578931004732
 31
0.0
  0
LINE
  5
115
  8
回07-寸法
  6
CONTINUOUS
 62
     5
 10
-5480.968507009331
 20
28.17578931004732
 30
0.0
 11
-5485.358507009332
 21
28.17578931004732
 31
0.0
  0
INSERT
  5
116
  8
回07-寸法
  6
CONTINUOUS
 62
     5
 66
     1
  2
_OPEN
 10
-5480.968507009331
 20
28.17578931004732
 30
0.0
 41
2.0
 42
2.0
 43
2.0
 50
180.0
  0
SEQEND
  5
117
  8
回07-寸法
  6
CONTINUOUS
 62
     5
  0
INSERT
  5
118
  8
回07-寸法
  6
CONTINUOUS
 62
     5
 66
     1
  2
_OPEN
 10
-5485.358507009332
 20
28.17578931004732
 30
0.0
 41
2.0
 42
2.0
 43
2.0
  0
SEQEND
  5
119
  8
回07-寸法
  6
CONTINUOUS
 62
     5
  0
TEXT
  5
11A
  8
回07-寸法
  6
CONTINUOUS
 62
     5
 10
-5521.091234339223
 20
28.87578931004732
 30
0.0
 40
4.0
  1
4.39 [0.173]
1001
ACAD
1000
MTEXTBEGIN
1070
    73
1070
     1
1070
    44
1040
1.0
1070
    74
1070
     0
1000
MTEXTEND
  0
POINT
  5
11B
  8
DEFPOINTS
  6
CONTINUOUS
 62
     0
 10
-5480.968507009331
 20
37.57752208394754
 30
0.0
  0
POINT
  5
11C
  8
DEFPOINTS
  6
CONTINUOUS
 62
     0
 10
-5485.358507009332
 20
40.44858989581348
 30
0.0
  0
POINT
  5
11D
  8
DEFPOINTS
  6
CONTINUOUS
 62
     0
 10
-5485.358507009332
 20
28.17578931004732
 30
0.0
  0
ENDBLK
  5
11E
  8
0
 62
    20
  0
BLOCK
  8
0
  2
*D222
 70
     1
 10
0.0
 20
0.0
 30
0.0
  3
*D222
  1

  0
LINE
  5
F0
  8
回08-記事
  6
CONTINUOUS
 62
     5
 10
-5536.471680408658
 20
-0.4802390338379612
 30
0.0
 11
-5571.161237652663
 21
-0.4802390338379612
 31
0.0
  0
LINE
  5
F1
  8
回08-記事
  6
CONTINUOUS
 62
     5
 10
-5536.471680408658
 20
-19.23023903383773
 30
0.0
 11
-5571.161237652663
 21
-19.23023903383773
 31
0.0
  0
LINE
  5
F2
  8
回08-記事
  6
CONTINUOUS
 62
     5
 10
-5570.161237652664
 20
1.519760966162033
 30
0.0
 11
-5570.161237652664
 21
3.519760966162033
 31
0.0
  0
LINE
  5
F3
  8
回08-記事
  6
CONTINUOUS
 62
     5
 10
-5570.161237652664
 20
-21.23023903383774
 30
0.0
 11
-5570.161237652664
 21
-65.91960911257793
 31
0.0
  0
LINE
  5
F4
  8
回08-記事
  6
CONTINUOUS
 62
     5
 10
-5570.161237652664
 20
-0.4802390338379667
 30
0.0
 11
-5570.161237652664
 21
-19.23023903383773
 31
0.0
  0
INSERT
  5
F5
  8
回08-記事
  6
CONTINUOUS
 62
     5
 66
     1
  2
_OPEN
 10
-5570.161237652664
 20
-0.4802390338379667
 30
0.0
 41
2.0
 42
2.0
 43
2.0
 50
270.0
  0
SEQEND
  5
F6
  8
回07-寸法
  6
CONTINUOUS
 62
     5
  0
INSERT
  5
F7
  8
回08-記事
  6
CONTINUOUS
 62
     5
 66
     1
  2
_OPEN
 10
-5570.161237652664
 20
-19.23023903383773
 30
0.0
 41
2.0
 42
2.0
 43
2.0
 50
90.0
  0
SEQEND
  5
F8
  8
回07-寸法
  6
CONTINUOUS
 62
     5
  0
INSERT
  5
F9
  8
回08-記事
  6
CONTINUOUS
 62
     5
 66
     1
  2
*X777777
 10
0.0
 20
0.0
 30
0.0
  0
SEQEND
  5
608
  8
回07-寸法
  6
CONTINUOUS
 62
     5
  0
POINT
  5
FA
  8
DEFPOINTS
  6
CONTINUOUS
 62
     0
 10
-5536.471680408658
 20
-0.4802390338379612
 30
0.0
  0
POINT
  5
FB
  8
DEFPOINTS
  6
CONTINUOUS
 62
     0
 10
-5536.471680408658
 20
-19.23023903383773
 30
0.0
  0
POINT
  5
FC
  8
DEFPOINTS
  6
CONTINUOUS
 62
     0
 10
-5570.161237652664
 20
-19.23023903383773
 30
0.0
  0
ENDBLK
  5
FD
  8
0
 62
    20
  0
BLOCK
  8
0
  2
*D333
 70
     1
 10
0.0
 20
0.0
 30
0.0
  3
*D333
  1

  0
LINE
  5
C3
  8
回07-寸法
  6
CONTINUOUS
 62
     5
 10
-5473.768507009332
 20
143.1985898958135
 30
0.0
 11
-5473.768507009332
 21
185.455304157316
 31
0.0
  0
LINE
  5
C4
  8
回07-寸法
  6
CONTINUOUS
 62
     5
 10
-5480.968507009331
 20
148.9485898958134
 30
0.0
 11
-5480.968507009331
 21
185.455304157316
 31
0.0
  0
LINE
  5
C5
  8
回07-寸法
  6
CONTINUOUS
 62
     5
 10
-5471.768507009331
 20
184.455304157316
 30
0.0
 11
-5469.768507009331
 21
184.455304157316
 31
0.0
  0
LINE
  5
C6
  8
回07-寸法
  6
CONTINUOUS
 62
     5
 10
-5482.968507009331
 20
184.455304157316
 30
0.0
 11
-5509.568507009332
 21
184.455304157316
 31
0.0
  0
LINE
  5
C7
  8
回07-寸法
  6
CONTINUOUS
 62
     5
 10
-5473.768507009332
 20
184.455304157316
 30
0.0
 11
-5480.968507009331
 21
184.455304157316
 31
0.0
  0
INSERT
  5
C8
  8
回07-寸法
  6
CONTINUOUS
 62
     5
 66
     1
  2
_OPEN
 10
-5473.768507009332
 20
184.455304157316
 30
0.0
 41
2.0
 42
2.0
 43
2.0
 50
180.0
  0
SEQEND
  5
C9
  8
回07-寸法
  6
CONTINUOUS
 62
     5
  0
INSERT
  5
CA
  8
回07-寸法
  6
CONTINUOUS
 62
     5
 66
     1
  2
_OPEN
 10
-5480.968507009331
 20
184.455304157316
 30
0.0
 41
2.0
 42
2.0
 43
2.0
  0
SEQEND
  5
CB
  8
回07-寸法
  6
CONTINUOUS
 62
     5
  0
TEXT
  5
CC
  8
回07-寸法
  6
CONTINUOUS
 62
     5
 10
-5509.66850700933
 20
185.155304157316
 30
0.0
 40
4.0
  1
7.2 [0.283]
1001
ACAD
1000
MTEXTBEGIN
1070
    73
1070
     1
1070
    44
1040
1.0
1070
    74
1070
     0
1000
MTEXTEND
  0
POINT
  5
CD
  8
DEFPOINTS
  6
CONTINUOUS
 62
     0
 10
-5473.768507009332
 20
143.1985898958135
 30
0.0
  0
POINT
  5
CE
  8
DEFPOINTS
  6
CONTINUOUS
 62
     0
 10
-5480.968507009331
 20
148.9485898958134
 30
0.0
  0
POINT
  5
CF
  8
DEFPOINTS
  6
CONTINUOUS
 62
     0
 10
-5480.968507009331
 20
184.455304157316
 30
0.0
  0
ENDBLK
  5
D0
  8
0
 62
    20
  0
BLOCK
  8
0
  2
*D444
 70
     1
 10
0.0
 20
0.0
 30
0.0
  3
*D444
  1

  0
LINE
  5
B4
  8
回07-寸法
  6
CONTINUOUS
 62
     5
 10
-5473.768507009332
 20
143.1985898958135
 30
0.0
 11
-5473.768507009332
 21
185.455304157316
 31
0.0
  0
LINE
  5
B5
  8
回07-寸法
  6
CONTINUOUS
 62
     5
 10
-5222.168507009333
 20
143.1985898958135
 30
0.0
 11
-5222.168507009333
 21
185.455304157316
 31
0.0
  0
LINE
  5
B6
  8
回07-寸法
  6
CONTINUOUS
 62
     5
 10
-5471.768507009331
 20
184.455304157316
 30
0.0
 11
-5224.168507009331
 21
184.455304157316
 31
0.0
  0
INSERT
  5
B7
  8
回07-寸法
  6
CONTINUOUS
 62
     5
 66
     1
  2
_OPEN
 10
-5473.768507009332
 20
184.455304157316
 30
0.0
 41
2.0
 42
2.0
 43
2.0
 50
180.0
  0
SEQEND
  5
B8
  8
回07-寸法
  6
CONTINUOUS
 62
     5
  0
INSERT
  5
B9
  8
回07-寸法
  6
CONTINUOUS
 62
     5
 66
     1
  2
_OPEN
 10
-5222.168507009333
 20
184.455304157316
 30
0.0
 41
2.0
 42
2.0
 43
2.0
  0
SEQEND
  5
BA
  8
回07-寸法
  6
CONTINUOUS
 62
     5
  0
TEXT
  5
BB
  8
回07-寸法
  6
CONTINUOUS
 62
     5
 10
-5362.782948483438
 20
185.1561910005523
 30
0.0
 40
4.0
  1
251.6 [9.906]
1001
ACAD
1000
MTEXTBEGIN
1070
    73
1070
     1
1070
    44
1040
1.0
1070
    74
1070
     0
1000
MTEXTEND
  0
POINT
  5
BC
  8
DEFPOINTS
  6
CONTINUOUS
 62
     0
 10
-5473.768507009332
 20
143.1985898958135
 30
0.0
  0
POINT
  5
BD
  8
DEFPOINTS
  6
CONTINUOUS
 62
     0
 10
-5222.168507009333
 20
143.1985898958135
 30
0.0
  0
POINT
  5
BE
  8
DEFPOINTS
  6
CONTINUOUS
 62
     0
 10
-5222.168507009333
 20
184.455304157316
 30
0.0
  0
ENDBLK
  5
BF
  8
0
 62
    20
  0
BLOCK
  8
0
  2
*D555
 70
     1
 10
0.0
 20
0.0
 30
0.0
  3
*D555
  1

  0
LINE
  5
A3
  8
回07-寸法
  6
CONTINUOUS
 62
     5
 10
-5222.168507009333
 20
143.1985898958135
 30
0.0
 11
-5222.168507009333
 21
185.455304157316
 31
0.0
  0
LINE
  5
A4
  8
回07-寸法
  6
CONTINUOUS
 62
     5
 10
-5217.968507009332
 20
148.9485898958134
 30
0.0
 11
-5217.968507009332
 21
185.455304157316
 31
0.0
  0
LINE
  5
A5
  8
回07-寸法
  6
CONTINUOUS
 62
     5
 10
-5224.168507009331
 20
184.455304157316
 30
0.0
 11
-5226.168507009333
 21
184.455304157316
 31
0.0
  0
LINE
  5
A6
  8
回07-寸法
  6
CONTINUOUS
 62
     5
 10
-5215.968507009332
 20
184.455304157316
 30
0.0
 11
-5189.768507009333
 21
184.455304157316
 31
0.0
  0
LINE
  5
A7
  8
回07-寸法
  6
CONTINUOUS
 62
     5
 10
-5222.168507009333
 20
184.455304157316
 30
0.0
 11
-5217.968507009332
 21
184.455304157316
 31
0.0
  0
INSERT
  5
A8
  8
回07-寸法
  6
CONTINUOUS
 62
     5
 66
     1
  2
_OPEN
 10
-5222.168507009333
 20
184.455304157316
 30
0.0
 41
2.0
 42
2.0
 43
2.0
  0
SEQEND
  5
A9
  8
回07-寸法
  6
CONTINUOUS
 62
     5
  0
INSERT
  5
AA
  8
回07-寸法
  6
CONTINUOUS
 62
     5
 66
     1
  2
_OPEN
 10
-5217.968507009332
 20
184.455304157316
 30
0.0
 41
2.0
 42
2.0
 43
2.0
 50
180.0
  0
SEQEND
  5
AB
  8
回07-寸法
  6
CONTINUOUS
 62
     5
  0
TEXT
  5
AC
  8
回07-寸法
  6
CONTINUOUS
 62
     5
 10
-5214.068507009333
 20
185.155304157316
 30
0.0
 40
4.0
  1
4.2 [0.165]
1001
ACAD
1000
MTEXTBEGIN
1070
    73
1070
     1
1070
    44
1040
1.0
1070
    74
1070
     0
1000
MTEXTEND
  0
POINT
  5
AD
  8
DEFPOINTS
  6
CONTINUOUS
 62
     0
 10
-5222.168507009333
 20
143.1985898958135
 30
0.0
  0
POINT
  5
AE
  8
DEFPOINTS
  6
CONTINUOUS
 62
     0
 10
-5217.968507009332
 20
148.9485898958134
 30
0.0
  0
POINT
  5
AF
  8
DEFPOINTS
  6
CONTINUOUS
 62
     0
 10
-5217.968507009332
 20
184.455304157316
 30
0.0
  0
ENDBLK
  5
B0
  8
0
 62
    20
  0
BLOCK
  8
0
  2
*D666
 70
     1
 10
0.0
 20
0.0
 30
0.0
  3
*D666
  1

  0
LINE
  5
94
  8
回07-寸法
  6
CONTINUOUS
 62
     5
 10
-5222.168507009333
 20
-46.30141010418653
 30
0.0
 11
-5156.017796212758
 21
-46.30141010418653
 31
0.0
  0
LINE
  5
95
  8
回07-寸法
  6
CONTINUOUS
 62
     5
 10
-5222.168507009333
 20
143.1985898958135
 30
0.0
 11
-5156.017796212758
 21
143.1985898958135
 31
0.0
  0
LINE
  5
96
  8
回07-寸法
  6
CONTINUOUS
 62
     5
 10
-5157.017796212755
 20
-44.30141010418652
 30
0.0
 11
-5157.017796212755
 21
141.1985898958135
 31
0.0
  0
INSERT
  5
97
  8
回07-寸法
  6
CONTINUOUS
 62
     5
 66
     1
  2
_OPEN
 10
-5157.017796212755
 20
-46.30141010418652
 30
0.0
 41
2.0
 42
2.0
 43
2.0
 50
270.0
  0
SEQEND
  5
98
  8
回07-寸法
  6
CONTINUOUS
 62
     5
  0
INSERT
  5
99
  8
回07-寸法
  6
CONTINUOUS
 62
     5
 66
     1
  2
_OPEN
 10
-5157.017796212755
 20
143.1985898958135
 30
0.0
 41
2.0
 42
2.0
 43
2.0
 50
90.0
  0
SEQEND
  5
9A
  8
回07-寸法
  6
CONTINUOUS
 62
     5
  0
TEXT
  5
9B
  8
回07-寸法
  6
CONTINUOUS
 62
     5
 10
-5157.717796212756
 20
33.84136915876025
 30
0.0
 40
4.0
  1
189.5 [7.461]
 50
90.0
1001
ACAD
1000
MTEXTBEGIN
1070
    73
1070
     1
1070
    44
1040
1.0
1070
    74
1070
     0
1000
MTEXTEND
  0
POINT
  5
9C
  8
DEFPOINTS
  6
CONTINUOUS
 62
     0
 10
-5222.168507009333
 20
-46.30141010418653
 30
0.0
  0
POINT
  5
9D
  8
DEFPOINTS
  6
CONTINUOUS
 62
     0
 10
-5222.168507009333
 20
143.1985898958135
 30
0.0
  0
POINT
  5
9E
  8
DEFPOINTS
  6
CONTINUOUS
 62
     0
 10
-5157.017796212755
 20
143.1985898958135
 30
0.0
  0
ENDBLK
  5
9F
  8
0
 62
    20
  0
BLOCK
  8
0
  2
*D777
 70
     1
 10
0.0
 20
0.0
 30
0.0
  3
*D777
  1

  0
LINE
  5
83
  8
回07-寸法
  6
CONTINUOUS
 62
     5
 10
-5222.168507009333
 20
143.1985898958135
 30
0.0
 11
-5156.017796212758
 21
143.1985898958135
 31
0.0
  0
LINE
  5
84
  8
回07-寸法
  6
CONTINUOUS
 62
     5
 10
-5217.968507009334
 20
148.9485898958135
 30
0.0
 11
-5156.017796212758
 21
148.9485898958135
 31
0.0
  0
LINE
  5
85
  8
回07-寸法
  6
CONTINUOUS
 62
     5
 10
-5157.017796212755
 20
141.1985898958135
 30
0.0
 11
-5157.017796212755
 21
139.1985898958135
 31
0.0
  0
LINE
  5
86
  8
回07-寸法
  6
CONTINUOUS
 62
     5
 10
-5157.017796212755
 20
150.9485898958135
 30
0.0
 11
-5157.017796212755
 21
180.3485898958135
 31
0.0
  0
LINE
  5
87
  8
回07-寸法
  6
CONTINUOUS
 62
     5
 10
-5157.017796212755
 20
143.1985898958135
 30
0.0
 11
-5157.017796212755
 21
148.9485898958135
 31
0.0
  0
INSERT
  5
88
  8
回07-寸法
  6
CONTINUOUS
 62
     5
 66
     1
  2
_OPEN
 10
-5157.017796212755
 20
143.1985898958135
 30
0.0
 41
2.0
 42
2.0
 43
2.0
 50
90.0
  0
SEQEND
  5
89
  8
回07-寸法
  6
CONTINUOUS
 62
     5
  0
INSERT
  5
8A
  8
回07-寸法
  6
CONTINUOUS
 62
     5
 66
     1
  2
_OPEN
 10
-5157.017796212755
 20
148.9485898958135
 30
0.0
 41
2.0
 42
2.0
 43
2.0
 50
270.0
  0
SEQEND
  5
8B
  8
回07-寸法
  6
CONTINUOUS
 62
     5
  0
TEXT
  5
8C
  8
回07-寸法
  6
CONTINUOUS
 62
     5
 10
-5157.717796212756
 20
152.8485898958152
 30
0.0
 40
4.0
  1
5.75 [0.226]
 50
90.0
1001
ACAD
1000
MTEXTBEGIN
1070
    73
1070
     1
1070
    44
1040
1.0
1070
    74
1070
     0
1000
MTEXTEND
  0
POINT
  5
8D
  8
DEFPOINTS
  6
CONTINUOUS
 62
     0
 10
-5222.168507009333
 20
143.1985898958135
 30
0.0
  0
POINT
  5
8E
  8
DEFPOINTS
  6
CONTINUOUS
 62
     0
 10
-5217.968507009334
 20
148.9485898958135
 30
0.0
  0
POINT
  5
8F
  8
DEFPOINTS
  6
CONTINUOUS
 62
     0
 10
-5157.017796212755
 20
148.9485898958135
 30
0.0
  0
ENDBLK
  5
90
  8
0
 62
    20
  0
BLOCK
  8
0
  2
*D888
 70
     1
 10
0.0
 20
0.0
 30
0.0
  3
*D888
  1

  0
LINE
  5
71
  8
回07-寸法
  6
CONTINUOUS
 62
     5
 10
-5222.168507009333
 20
-46.30141010418653
 30
0.0
 11
-5156.017796212758
 21
-46.30141010418653
 31
0.0
  0
LINE
  5
72
  8
回07-寸法
  6
CONTINUOUS
 62
     5
 10
-5217.968507009334
 20
-52.05141010418653
 30
0.0
 11
-5156.017796212758
 21
-52.05141010418653
 31
0.0
  0
LINE
  5
73
  8
回07-寸法
  6
CONTINUOUS
 62
     5
 10
-5157.017796212755
 20
-44.30141010418652
 30
0.0
 11
-5157.017796212755
 21
-42.30141010418652
 31
0.0
  0
LINE
  5
74
  8
回07-寸法
  6
CONTINUOUS
 62
     5
 10
-5157.017796212755
 20
-54.05141010418653
 30
0.0
 11
-5157.017796212755
 21
-83.45141010418656
 31
0.0
  0
LINE
  5
75
  8
回07-寸法
  6
CONTINUOUS
 62
     5
 10
-5157.017796212755
 20
-46.30141010418652
 30
0.0
 11
-5157.017796212755
 21
-52.05141010418653
 31
0.0
  0
INSERT
  5
76
  8
回07-寸法
  6
CONTINUOUS
 62
     5
 66
     1
  2
_OPEN
 10
-5157.017796212755
 20
-46.30141010418652
 30
0.0
 41
2.0
 42
2.0
 43
2.0
 50
270.0
  0
SEQEND
  5
77
  8
回07-寸法
  6
CONTINUOUS
 62
     5
  0
INSERT
  5
78
  8
回07-寸法
  6
CONTINUOUS
 62
     5
 66
     1
  2
_OPEN
 10
-5157.017796212755
 20
-52.05141010418653
 30
0.0
 41
2.0
 42
2.0
 43
2.0
 50
90.0
  0
SEQEND
  5
79
  8
回07-寸法
  6
CONTINUOUS
 62
     5
  0
TEXT
  5
7A
  8
回07-寸法
  6
CONTINUOUS
 62
     5
 10
-5157.717796212756
 20
-83.55141010418536
 30
0.0
 40
4.0
  1
5.75 [0.226]
 50
90.0
1001
ACAD
1000
MTEXTBEGIN
1070
    73
1070
     1
1070
    44
1040
1.0
1070
    74
1070
     0
1000
MTEXTEND
  0
POINT
  5
7B
  8
DEFPOINTS
  6
CONTINUOUS
 62
     0
 10
-5222.168507009333
 20
-46.30141010418653
 30
0.0
  0
POINT
  5
7D
  8
DEFPOINTS
  6
CONTINUOUS
 62
     0
 10
-5217.968507009334
 20
-52.05141010418653
 30
0.0
  0
POINT
  5
7E
  8
DEFPOINTS
  6
CONTINUOUS
 62
     0
 10
-5157.017796212755
 20
-52.05141010418653
 30
0.0
  0
ENDBLK
  5
7F
  8
0
 62
    20
  0
BLOCK
  8
0
  2
*D999
 70
     1
 10
0.0
 20
0.0
 30
0.0
  3
*D999
  1

  0
LINE
  5
33D
  8
回08-記事
 62
     5
 10
-5560.968507009332
 20
-101.2492704169215
 30
0.0
 11
-5560.968507009332
 21
-126.6208923920753
 31
0.0
  0
LINE
  5
33E
  8
回08-記事
 62
     5
 10
-5550.968507009332
 20
-101.2492704169215
 30
0.0
 11
-5550.968507009332
 21
-126.6208923920753
 31
0.0
  0
LINE
  5
33F
  8
回08-記事
 62
     5
 10
-5562.968507009332
 20
-125.6208923920753
 30
0.0
 11
-5564.968507009332
 21
-125.6208923920753
 31
0.0
  0
LINE
  5
340
  8
回08-記事
 62
     5
 10
-5548.968507009332
 20
-125.6208923920753
 30
0.0
 11
-5520.757679293653
 21
-125.6208923920753
 31
0.0
  0
LINE
  5
341
  8
回08-記事
 62
     5
 10
-5560.968507009332
 20
-125.6208923920753
 30
0.0
 11
-5550.968507009332
 21
-125.6208923920753
 31
0.0
  0
INSERT
  5
342
  8
回08-記事
 62
     5
 66
     1
  2
_OPEN
 10
-5560.968507009332
 20
-125.6208923920753
 30
0.0
 41
2.0
 42
2.0
 43
2.0
  0
SEQEND
  5
343
  8
回07-寸法
  6
CONTINUOUS
 62
     5
  0
INSERT
  5
344
  8
回08-記事
 62
     5
 66
     1
  2
_OPEN
 10
-5550.968507009332
 20
-125.6208923920753
 30
0.0
 41
2.0
 42
2.0
 43
2.0
 50
180.0
  0
SEQEND
  5
345
  8
回07-寸法
  6
CONTINUOUS
 62
     5
  0
TEXT
  5
346
  8
回08-記事
 62
     5
 10
-5547.070313888546
 20
-124.9209722668784
 30
0.0
 40
4.0
  1
(10 [0.394])
1001
ACAD
1000
MTEXTBEGIN
1070
    73
1070
     1
1070
    44
1040
1.0
1070
    74
1070
     0
1000
MTEXTEND
  0
POINT
  5
347
  8
DEFPOINTS
 62
     0
 10
-5560.968507009332
 20
-101.2492704169215
 30
0.0
  0
POINT
  5
348
  8
DEFPOINTS
 62
     0
 10
-5550.968507009332
 20
-101.2492704169215
 30
0.0
  0
POINT
  5
349
  8
DEFPOINTS
 62
     0
 10
-5550.968507009332
 20
-125.6208923920753
 30
0.0
  0
ENDBLK
  5
34A
  8
0
 62
    20
  0
BLOCK
  8
0
  2
*D101010
 70
     1
 10
0.0
 20
0.0
 30
0.0
  3
*D101010
  1

  0
LINE
  5
32C
  8
回08-記事
 62
     5
 10
-5560.968507009332
 20
-96.7492704169215
 30
0.0
 11
-5560.968507009332
 21
-83.58672788885384
 31
0.0
  0
LINE
  5
32D
  8
回08-記事
 62
     5
 10
-5555.968507009332
 20
-96.7492704169215
 30
0.0
 11
-5555.968507009332
 21
-83.58672788885384
 31
0.0
  0
LINE
  5
32E
  8
回08-記事
 62
     5
 10
-5562.968507009332
 20
-84.58672788885383
 30
0.0
 11
-5564.968507009332
 21
-84.58672788885383
 31
0.0
  0
LINE
  5
32F
  8
回08-記事
 62
     5
 10
-5553.968507009332
 20
-84.58672788885383
 30
0.0
 11
-5532.154529687353
 21
-84.58672788885383
 31
0.0
  0
LINE
  5
330
  8
回08-記事
 62
     5
 10
-5560.968507009332
 20
-84.58672788885383
 30
0.0
 11
-5555.968507009332
 21
-84.58672788885383
 31
0.0
  0
INSERT
  5
331
  8
回08-記事
 62
     5
 66
     1
  2
_OPEN
 10
-5560.968507009332
 20
-84.58672788885383
 30
0.0
 41
2.0
 42
2.0
 43
2.0
  0
SEQEND
  5
332
  8
回07-寸法
  6
CONTINUOUS
 62
     5
  0
INSERT
  5
333
  8
回08-記事
 62
     5
 66
     1
  2
_OPEN
 10
-5555.968507009332
 20
-84.58672788885383
 30
0.0
 41
2.0
 42
2.0
 43
2.0
 50
180.0
  0
SEQEND
  5
334
  8
回07-寸法
  6
CONTINUOUS
 62
     5
  0
TEXT
  5
335
  8
回08-記事
 62
     5
 10
-5552.068739085395
 20
-83.88680776365692
 30
0.0
 40
4.0
  1
5 [0.197]
1001
ACAD
1000
MTEXTBEGIN
1070
    73
1070
     1
1070
    44
1040
1.0
1070
    74
1070
     0
1000
MTEXTEND
  0
POINT
  5
336
  8
DEFPOINTS
 62
     0
 10
-5560.968507009332
 20
-96.7492704169215
 30
0.0
  0
POINT
  5
337
  8
DEFPOINTS
 62
     0
 10
-5555.968507009332
 20
-96.7492704169215
 30
0.0
  0
POINT
  5
338
  8
DEFPOINTS
 62
     0
 10
-5555.968507009332
 20
-84.58672788885383
 30
0.0
  0
ENDBLK
  5
339
  8
0
 62
    20
  0
BLOCK
  8
0
  2
*D111111
 70
     1
 10
0.0
 20
0.0
 30
0.0
  3
*D111111
  1

  0
LINE
  5
2AD
  8
回07-寸法
  6
CONTINUOUS
 62
     5
 10
-5485.156263331992
 20
40.44858989581348
 30
0.0
 11
-5533.863515376845
 21
40.44858989581348
 31
0.0
  0
LINE
  5
2AE
  8
回07-寸法
  6
CONTINUOUS
 62
     5
 10
-5485.160436917698
 20
56.44738686154167
 30
0.0
 11
-5533.863515376845
 21
56.44738686154167
 31
0.0
  0
LINE
  5
2AF
  8
回07-寸法
  6
CONTINUOUS
 62
     5
 10
-5532.863515376845
 20
58.44738686154165
 30
0.0
 11
-5532.863515376845
 21
60.44738686154165
 31
0.0
  0
LINE
  5
2B0
  8
回07-寸法
  6
CONTINUOUS
 62
     5
 10
-5532.863515376845
 20
38.44858989581349
 30
0.0
 11
-5532.863515376845
 21
13.84858989581345
 31
0.0
  0
LINE
  5
2B1
  8
回07-寸法
  6
CONTINUOUS
 62
     5
 10
-5532.863515376845
 20
56.44738686154165
 30
0.0
 11
-5532.863515376845
 21
40.44858989581348
 31
0.0
  0
INSERT
  5
2B2
  8
回07-寸法
  6
CONTINUOUS
 62
     5
 66
     1
  2
_OPEN
 10
-5532.863515376845
 20
56.44738686154165
 30
0.0
 41
2.0
 42
2.0
 43
2.0
 50
270.0
  0
SEQEND
  5
2B3
  8
回07-寸法
  6
CONTINUOUS
 62
     5
  0
INSERT
  5
2B4
  8
回07-寸法
  6
CONTINUOUS
 62
     5
 66
     1
  2
_OPEN
 10
-5532.863515376845
 20
40.44858989581348
 30
0.0
 41
2.0
 42
2.0
 43
2.0
 50
90.0
  0
SEQEND
  5
2B5
  8
回07-寸法
  6
CONTINUOUS
 62
     5
  0
TEXT
  5
2B6
  8
回07-寸法
  6
CONTINUOUS
 62
     5
 10
-5533.563515376844
 20
13.7485898958148
 30
0.0
 40
4.0
  1
16 [0.630]
 50
90.0
1001
ACAD
1000
MTEXTBEGIN
1070
    73
1070
     1
1070
    44
1040
1.0
1070
    74
1070
     0
1000
MTEXTEND
  0
POINT
  5
2B7
  8
DEFPOINTS
  6
CONTINUOUS
 62
     0
 10
-5485.156263331992
 20
40.44858989581348
 30
0.0
  0
POINT
  5
2B8
  8
DEFPOINTS
  6
CONTINUOUS
 62
     0
 10
-5485.160436917698
 20
56.44738686154167
 30
0.0
  0
POINT
  5
2B9
  8
DEFPOINTS
  6
CONTINUOUS
 62
     0
 10
-5532.863515376845
 20
56.44738686154165
 30
0.0
  0
ENDBLK
  5
2BA
  8
0
 62
    20
  0
BLOCK
  8
0
  2
*D121212
 70
     1
 10
0.0
 20
0.0
 30
0.0
  3
*D121212
  1

  0
LINE
  5
29E
  8
回07-寸法
 62
     5
 10
-5224.468507009333
 20
-44.30141010418654
 30
0.0
 11
-5175.180949539093
 21
-44.30141010418654
 31
0.0
  0
LINE
  5
29F
  8
回07-寸法
 62
     5
 10
-5224.468507009333
 20
141.1985898958135
 30
0.0
 11
-5175.180949539093
 21
141.1985898958135
 31
0.0
  0
LINE
  5
2A0
  8
回07-寸法
 62
     5
 10
-5176.180949539093
 20
-42.30141010418652
 30
0.0
 11
-5176.180949539093
 21
139.1985898958135
 31
0.0
  0
INSERT
  5
2A1
  8
回07-寸法
 62
     5
 66
     1
  2
_OPEN
 10
-5176.180949539093
 20
-44.30141010418652
 30
0.0
 41
2.0
 42
2.0
 43
2.0
 50
270.0
  0
SEQEND
  5
2A2
  8
回07-寸法
  6
CONTINUOUS
 62
     5
  0
INSERT
  5
2A3
  8
回07-寸法
 62
     5
 66
     1
  2
_OPEN
 10
-5176.180949539093
 20
141.1985898958135
 30
0.0
 41
2.0
 42
2.0
 43
2.0
 50
90.0
  0
SEQEND
  5
2A4
  8
回07-寸法
  6
CONTINUOUS
 62
     5
  0
TEXT
  5
2A5
  8
回07-寸法
 62
     5
 10
-5176.880949539092
 20
19.78992017908513
 30
0.0
 40
4.0
  1
185.5 [7.303] (ACTIVE AREA)
 50
90.0
1001
ACAD
1000
MTEXTBEGIN
1070
    73
1070
     1
1070
    44
1040
1.0
1070
    74
1070
     0
1000
MTEXTEND
  0
POINT
  5
2A6
  8
DEFPOINTS
 62
     0
 10
-5224.468507009333
 20
-44.30141010418654
 30
0.0
  0
POINT
  5
2A7
  8
DEFPOINTS
 62
     0
 10
-5224.468507009333
 20
141.1985898958135
 30
0.0
  0
POINT
  5
2A8
  8
DEFPOINTS
 62
     0
 10
-5176.180949539093
 20
141.1985898958135
 30
0.0
  0
ENDBLK
  5
2A9
  8
0
 62
    20
  0
BLOCK
  8
0
  2
*D131313
 70
     1
 10
0.0
 20
0.0
 30
0.0
  3
*D131313
  1

  0
LINE
  5
28F
  8
回07-寸法
 62
     5
 10
-5222.968507009333
 20
142.6985898958135
 30
0.0
 11
-5165.599372875924
 21
142.6985898958135
 31
0.0
  0
LINE
  5
290
  8
回07-寸法
 62
     5
 10
-5222.968507009333
 20
-45.80141010418652
 30
0.0
 11
-5165.599372875924
 21
-45.80141010418652
 31
0.0
  0
LINE
  5
291
  8
回07-寸法
 62
     5
 10
-5166.599372875923
 20
140.6985898958135
 30
0.0
 11
-5166.599372875923
 21
-43.8014101041865
 31
0.0
  0
INSERT
  5
292
  8
回07-寸法
 62
     5
 66
     1
  2
_OPEN
 10
-5166.599372875923
 20
142.6985898958135
 30
0.0
 41
2.0
 42
2.0
 43
2.0
 50
90.0
  0
SEQEND
  5
293
  8
回07-寸法
  6
CONTINUOUS
 62
     5
  0
INSERT
  5
294
  8
回07-寸法
 62
     5
 66
     1
  2
_OPEN
 10
-5166.599372875923
 20
-45.80141010418651
 30
0.0
 41
2.0
 42
2.0
 43
2.0
 50
270.0
  0
SEQEND
  5
295
  8
回07-寸法
  6
CONTINUOUS
 62
     5
  0
TEXT
  5
296
  8
回07-寸法
 62
     5
 10
-5167.299372875922
 20
18.78992017908513
 30
0.0
 40
4.0
  1
188.5 [7.421] (VIEWING AREA)
 50
90.0
1001
ACAD
1000
MTEXTBEGIN
1070
    73
1070
     1
1070
    44
1040
1.0
1070
    74
1070
     0
1000
MTEXTEND
  0
POINT
  5
297
  8
DEFPOINTS
 62
     0
 10
-5222.968507009333
 20
142.6985898958135
 30
0.0
  0
POINT
  5
298
  8
DEFPOINTS
 62
     0
 10
-5222.968507009333
 20
-45.80141010418652
 30
0.0
  0
POINT
  5
299
  8
DEFPOINTS
 62
     0
 10
-5166.599372875923
 20
-45.80141010418651
 30
0.0
  0
ENDBLK
  5
29A
  8
0
 62
    20
  0
BLOCK
  8
0
  2
*D141414
 70
     1
 10
0.0
 20
0.0
 30
0.0
  3
*D141414
  1

  0
LINE
  5
280
  8
回07-寸法
 62
     5
 10
-5217.968507009334
 20
148.9485898958135
 30
0.0
 11
-5146.436219549585
 21
148.9485898958135
 31
0.0
  0
LINE
  5
281
  8
回07-寸法
 62
     5
 10
-5217.968507009334
 20
-52.05141010418653
 30
0.0
 11
-5146.436219549585
 21
-52.05141010418653
 31
0.0
  0
LINE
  5
282
  8
回07-寸法
 62
     5
 10
-5147.436219549584
 20
146.9485898958135
 30
0.0
 11
-5147.436219549584
 21
-50.05141010418654
 31
0.0
  0
INSERT
  5
283
  8
回07-寸法
 62
     5
 66
     1
  2
_OPEN
 10
-5147.436219549584
 20
148.9485898958135
 30
0.0
 41
2.0
 42
2.0
 43
2.0
 50
90.0
  0
SEQEND
  5
284
  8
回07-寸法
  6
CONTINUOUS
 62
     5
  0
INSERT
  5
285
  8
回07-寸法
 62
     5
 66
     1
  2
_OPEN
 10
-5147.436219549584
 20
-52.05141010418653
 30
0.0
 41
2.0
 42
2.0
 43
2.0
 50
270.0
  0
SEQEND
  5
286
  8
回07-寸法
  6
CONTINUOUS
 62
     5
  0
INSERT
  5
287
  8
回07-寸法
 62
     5
 66
     1
  2
*X787878
 10
0.0
 20
0.0
 30
0.0
  0
SEQEND
  5
611
  8
回07-寸法
  6
CONTINUOUS
 62
     5
  0
POINT
  5
288
  8
DEFPOINTS
 62
     0
 10
-5217.968507009334
 20
148.9485898958135
 30
0.0
  0
POINT
  5
289
  8
DEFPOINTS
 62
     0
 10
-5217.968507009334
 20
-52.05141010418653
 30
0.0
  0
POINT
  5
28A
  8
DEFPOINTS
 62
     0
 10
-5147.436219549584
 20
-52.05141010418653
 30
0.0
  0
ENDBLK
  5
28B
  8
0
 62
    20
  0
BLOCK
  8
0
  2
*D151515
 70
     1
 10
0.0
 20
0.0
 30
0.0
  3
*D151515
  1

  0
LINE
  5
271
  8
回07-寸法
 62
     5
 10
-5560.468507009332
 20
51.57358989581329
 30
0.0
 11
-5570.788957516071
 21
51.57358989581329
 31
0.0
  0
LINE
  5
272
  8
回07-寸法
 62
     5
 10
-5480.968507009333
 20
148.9485898958135
 30
0.0
 11
-5570.788957516071
 21
148.9485898958135
 31
0.0
  0
LINE
  5
273
  8
回07-寸法
 62
     5
 10
-5569.78895751607
 20
53.57358989581328
 30
0.0
 11
-5569.78895751607
 21
146.9485898958135
 31
0.0
  0
INSERT
  5
274
  8
回07-寸法
 62
     5
 66
     1
  2
_OPEN
 10
-5569.78895751607
 20
51.57358989581329
 30
0.0
 41
2.0
 42
2.0
 43
2.0
 50
270.0
  0
SEQEND
  5
275
  8
回07-寸法
  6
CONTINUOUS
 62
     5
  0
INSERT
  5
276
  8
回07-寸法
 62
     5
 66
     1
  2
_OPEN
 10
-5569.78895751607
 20
148.9485898958135
 30
0.0
 41
2.0
 42
2.0
 43
2.0
 50
90.0
  0
SEQEND
  5
277
  8
回07-寸法
  6
CONTINUOUS
 62
     5
  0
TEXT
  5
278
  8
回07-寸法
 62
     5
 10
-5570.489924234109
 20
83.25386915876061
 30
0.0
 40
4.0
  1
(97.38 [3.834])
 50
90.0
1001
ACAD
1000
MTEXTBEGIN
1070
    73
1070
     1
1070
    44
1040
1.0
1070
    74
1070
     0
1000
MTEXTEND
  0
POINT
  5
279
  8
DEFPOINTS
 62
     0
 10
-5560.468507009332
 20
51.57358989581329
 30
0.0
  0
POINT
  5
27A
  8
DEFPOINTS
 62
     0
 10
-5480.968507009333
 20
148.9485898958135
 30
0.0
  0
POINT
  5
27B
  8
DEFPOINTS
 62
     0
 10
-5569.78895751607
 20
148.9485898958135
 30
0.0
  0
ENDBLK
  5
27C
  8
0
 62
    20
  0
BLOCK
  8
0
  2
*D161616
 70
     1
 10
0.0
 20
0.0
 30
0.0
  3
*D161616
  1

  0
LINE
  5
262
  8
回07-寸法
 62
     5
 10
-5560.96850700933
 20
50.32358989581324
 30
0.0
 11
-5560.96850700933
 21
108.0357362677691
 31
0.0
  0
LINE
  5
263
  8
回07-寸法
 62
     5
 10
-5480.968507009333
 20
58.45609089661614
 30
0.0
 11
-5480.968507009333
 21
108.0357362677691
 31
0.0
  0
LINE
  5
264
  8
回07-寸法
 62
     5
 10
-5558.96850700933
 20
107.0357362677691
 30
0.0
 11
-5482.968507009331
 21
107.0357362677691
 31
0.0
  0
INSERT
  5
265
  8
回07-寸法
 62
     5
 66
     1
  2
_OPEN
 10
-5560.96850700933
 20
107.0357362677691
 30
0.0
 41
2.0
 42
2.0
 43
2.0
 50
180.0
  0
SEQEND
  5
266
  8
回07-寸法
  6
CONTINUOUS
 62
     5
  0
INSERT
  5
267
  8
回07-寸法
 62
     5
 66
     1
  2
_OPEN
 10
-5480.968507009333
 20
107.0357362677691
 30
0.0
 41
2.0
 42
2.0
 43
2.0
  0
SEQEND
  5
268
  8
回07-寸法
  6
CONTINUOUS
 62
     5
  0
INSERT
  5
269
  8
回07-寸法
 62
     5
 66
     1
  2
*X797979
 10
0.0
 20
0.0
 30
0.0
  0
SEQEND
  5
61A
  8
回07-寸法
  6
CONTINUOUS
 62
     5
  0
POINT
  5
26A
  8
DEFPOINTS
 62
     0
 10
-5560.96850700933
 20
50.32358989581324
 30
0.0
  0
POINT
  5
26B
  8
DEFPOINTS
 62
     0
 10
-5480.968507009333
 20
58.45609089661614
 30
0.0
  0
POINT
  5
26C
  8
DEFPOINTS
 62
     0
 10
-5480.968507009333
 20
107.0357362677691
 30
0.0
  0
ENDBLK
  5
26D
  8
0
 62
    20
  0
BLOCK
  8
0
  2
*D171717
 70
     1
 10
0.0
 20
0.0
 30
0.0
  3
*D171717
  1

  0
LINE
  5
250
  8
回07-寸法
  6
CONTINUOUS
 62
     5
 10
-5480.968507009331
 20
37.57752208394754
 30
0.0
 11
-5480.968507009331
 21
18.0991672001328
 31
0.0
  0
LINE
  5
251
  8
回07-寸法
  6
CONTINUOUS
 62
     5
 10
-5490.368507009331
 20
45.18050831052845
 30
0.0
 11
-5490.368507009331
 21
18.0991672001328
 31
0.0
  0
LINE
  5
252
  8
回07-寸法
  6
CONTINUOUS
 62
     5
 10
-5478.968507009331
 20
19.0991672001328
 30
0.0
 11
-5476.968507009331
 21
19.0991672001328
 31
0.0
  0
LINE
  5
253
  8
回07-寸法
  6
CONTINUOUS
 62
     5
 10
-5492.368507009331
 20
19.0991672001328
 30
0.0
 11
-5519.534192434282
 21
19.0991672001328
 31
0.0
  0
LINE
  5
254
  8
回07-寸法
  6
CONTINUOUS
 62
     5
 10
-5480.968507009331
 20
19.0991672001328
 30
0.0
 11
-5490.368507009331
 21
19.0991672001328
 31
0.0
  0
INSERT
  5
255
  8
回07-寸法
  6
CONTINUOUS
 62
     5
 66
     1
  2
_OPEN
 10
-5480.968507009331
 20
19.0991672001328
 30
0.0
 41
2.0
 42
2.0
 43
2.0
 50
180.0
  0
SEQEND
  5
256
  8
回07-寸法
  6
CONTINUOUS
 62
     5
  0
INSERT
  5
257
  8
回07-寸法
  6
CONTINUOUS
 62
     5
 66
     1
  2
_OPEN
 10
-5490.368507009331
 20
19.0991672001328
 30
0.0
 41
2.0
 42
2.0
 43
2.0
  0
SEQEND
  5
258
  8
回07-寸法
  6
CONTINUOUS
 62
     5
  0
TEXT
  5
259
  8
回07-寸法
  6
CONTINUOUS
 62
     5
 10
-5519.565791195912
 20
19.79916720013279
 30
0.0
 40
4.0
  1
9.4 [0.370]
1001
ACAD
1000
MTEXTBEGIN
1070
    73
1070
     1
1070
    44
1040
1.0
1070
    74
1070
     0
1000
MTEXTEND
  0
POINT
  5
25A
  8
DEFPOINTS
  6
CONTINUOUS
 62
     0
 10
-5480.968507009331
 20
37.57752208394754
 30
0.0
  0
POINT
  5
25B
  8
DEFPOINTS
  6
CONTINUOUS
 62
     0
 10
-5490.368507009331
 20
45.18050831052845
 30
0.0
  0
POINT
  5
25C
  8
DEFPOINTS
  6
CONTINUOUS
 62
     0
 10
-5490.368507009331
 20
19.0991672001328
 30
0.0
  0
ENDBLK
  5
25D
  8
0
 62
    20
  0
BLOCK
  8
0
  2
*D181818
 70
     1
 10
0.0
 20
0.0
 30
0.0
  3
*D181818
  1

  0
LINE
  5
23F
  8
回07-寸法
 62
     5
 10
-5560.468507009332
 20
51.57358989581329
 30
0.0
 11
-5570.788957516068
 21
51.57358989581329
 31
0.0
  0
LINE
  5
240
  8
回07-寸法
 62
     5
 10
-5560.468507009332
 20
45.32358989581328
 30
0.0
 11
-5570.788957516068
 21
45.32358989581328
 31
0.0
  0
LINE
  5
241
  8
回07-寸法
 62
     5
 10
-5569.788957516068
 20
53.57358989581328
 30
0.0
 11
-5569.788957516068
 21
55.57358989581328
 31
0.0
  0
LINE
  5
242
  8
回07-寸法
 62
     5
 10
-5569.788957516068
 20
43.32358989581329
 30
0.0
 11
-5569.788957516068
 21
13.28421981707311
 31
0.0
  0
LINE
  5
243
  8
回07-寸法
 62
     5
 10
-5569.788957516068
 20
51.57358989581329
 30
0.0
 11
-5569.788957516068
 21
45.32358989581328
 31
0.0
  0
INSERT
  5
244
  8
回07-寸法
 62
     5
 66
     1
  2
_OPEN
 10
-5569.788957516068
 20
51.57358989581329
 30
0.0
 41
2.0
 42
2.0
 43
2.0
 50
270.0
  0
SEQEND
  5
245
  8
回07-寸法
  6
CONTINUOUS
 62
     5
  0
INSERT
  5
246
  8
回07-寸法
 62
     5
 66
     1
  2
_OPEN
 10
-5569.788957516068
 20
45.32358989581328
 30
0.0
 41
2.0
 42
2.0
 43
2.0
 50
90.0
  0
SEQEND
  5
247
  8
回07-寸法
  6
CONTINUOUS
 62
     5
  0
TEXT
  5
248
  8
回07-寸法
 62
     5
 10
-5570.488957516067
 20
13.30390485644511
 30
0.0
 40
4.0
  1
6.25 [0.246]
 50
90.0
1001
ACAD
1000
MTEXTBEGIN
1070
    73
1070
     1
1070
    44
1040
1.0
1070
    74
1070
     0
1000
MTEXTEND
  0
POINT
  5
249
  8
DEFPOINTS
 62
     0
 10
-5560.468507009332
 20
51.57358989581329
 30
0.0
  0
POINT
  5
24A
  8
DEFPOINTS
 62
     0
 10
-5560.468507009332
 20
45.32358989581328
 30
0.0
  0
POINT
  5
24B
  8
DEFPOINTS
 62
     0
 10
-5569.788957516068
 20
45.32358989581328
 30
0.0
  0
ENDBLK
  5
24C
  8
0
 62
    20
  0
BLOCK
  8
0
  2
*D191919
 70
     1
 10
0.0
 20
0.0
 30
0.0
  3
*D191919
  1

  0
LINE
  5
22A
  8
回07-寸法
  6
CONTINUOUS
 62
     5
 10
-5480.968507009333
 20
148.9485898958134
 30
0.0
 11
-5480.968507009333
 21
156.3390875911061
 31
0.0
  0
LINE
  5
22B
  8
回07-寸法
  6
CONTINUOUS
 62
     5
 10
-5347.968507009331
 20
147.7110479677474
 30
0.0
 11
-5347.968507009331
 21
156.3390875911061
 31
0.0
  0
LINE
  5
22C
  8
回07-寸法
  6
CONTINUOUS
 62
     5
 10
-5478.968507009332
 20
155.3390875911061
 30
0.0
 11
-5349.968507009331
 21
155.3390875911061
 31
0.0
  0
INSERT
  5
22D
  8
回07-寸法
  6
CONTINUOUS
 62
     5
 66
     1
  2
_OPEN
 10
-5480.968507009333
 20
155.3390875911061
 30
0.0
 41
2.0
 42
2.0
 43
2.0
 50
180.0
  0
SEQEND
  5
22E
  8
回07-寸法
  6
CONTINUOUS
 62
     5
  0
INSERT
  5
22F
  8
回07-寸法
  6
CONTINUOUS
 62
     5
 66
     1
  2
_OPEN
 10
-5347.968507009331
 20
155.3390875911061
 30
0.0
 41
2.0
 42
2.0
 43
2.0
  0
SEQEND
  5
230
  8
回07-寸法
  6
CONTINUOUS
 62
     5
  0
TEXT
  5
231
  8
回07-寸法
  6
CONTINUOUS
 62
     5
 10
-5453.313499316072
 20
156.0390875911061
 30
0.0
 40
4.0
  1
133 [5.236] (ACTIVE AERA CENTER)
1001
ACAD
1000
MTEXTBEGIN
1070
    73
1070
     1
1070
    44
1040
1.0
1070
    74
1070
     0
1000
MTEXTEND
  0
POINT
  5
232
  8
DEFPOINTS
  6
CONTINUOUS
 62
     0
 10
-5480.968507009333
 20
148.9485898958134
 30
0.0
  0
POINT
  5
233
  8
DEFPOINTS
  6
CONTINUOUS
 62
     0
 10
-5347.968507009331
 20
147.7110479677474
 30
0.0
  0
POINT
  5
234
  8
DEFPOINTS
  6
CONTINUOUS
 62
     0
 10
-5347.968507009331
 20
155.3390875911061
 30
0.0
  0
ENDBLK
  5
235
  8
0
 62
    20
  0
BLOCK
  8
0
  2
*D202020
 70
     1
 10
0.0
 20
0.0
 30
0.0
  3
*D202020
  1

  0
LINE
  5
21B
  8
回07-寸法
 62
     5
 10
-5471.468507009331
 20
141.1985898958135
 30
0.0
 11
-5471.468507009331
 21
166.4300550136738
 31
0.0
  0
LINE
  5
21C
  8
回07-寸法
 62
     5
 10
-5224.468507009331
 20
141.1985898958135
 30
0.0
 11
-5224.468507009331
 21
166.4300550136738
 31
0.0
  0
LINE
  5
21D
  8
回07-寸法
 62
     5
 10
-5469.468507009331
 20
165.4300550136738
 30
0.0
 11
-5226.468507009331
 21
165.4300550136738
 31
0.0
  0
INSERT
  5
21E
  8
回07-寸法
 62
     5
 66
     1
  2
_OPEN
 10
-5471.468507009331
 20
165.4300550136738
 30
0.0
 41
2.0
 42
2.0
 43
2.0
 50
180.0
  0
SEQEND
  5
21F
  8
回07-寸法
  6
CONTINUOUS
 62
     5
  0
INSERT
  5
220
  8
回07-寸法
 62
     5
 66
     1
  2
_OPEN
 10
-5224.468507009331
 20
165.4300550136738
 30
0.0
 41
2.0
 42
2.0
 43
2.0
  0
SEQEND
  5
221
  8
回07-寸法
  6
CONTINUOUS
 62
     5
  0
TEXT
  5
222
  8
回07-寸法
 62
     5
 10
-5377.455936658154
 20
166.1310217317132
 30
0.0
 40
4.0
  1
247 [9.724] (ACTIVE AREA)
1001
ACAD
1000
MTEXTBEGIN
1070
    73
1070
     1
1070
    44
1040
1.0
1070
    74
1070
     0
1000
MTEXTEND
  0
POINT
  5
223
  8
DEFPOINTS
 62
     0
 10
-5471.468507009331
 20
141.1985898958135
 30
0.0
  0
POINT
  5
224
  8
DEFPOINTS
 62
     0
 10
-5224.468507009331
 20
141.1985898958135
 30
0.0
  0
POINT
  5
225
  8
DEFPOINTS
 62
     0
 10
-5224.468507009331
 20
165.4300550136738
 30
0.0
  0
ENDBLK
  5
226
  8
0
 62
    20
  0
BLOCK
  8
0
  2
*D212121
 70
     1
 10
0.0
 20
0.0
 30
0.0
  3
*D212121
  1

  0
LINE
  5
20C
  8
回07-寸法
 62
     5
 10
-5472.968507009331
 20
142.6985898958134
 30
0.0
 11
-5472.968507009331
 21
176.1005651913599
 31
0.0
  0
LINE
  5
20D
  8
回07-寸法
 62
     5
 10
-5222.968507009332
 20
142.6985898958134
 30
0.0
 11
-5222.968507009332
 21
176.1005651913599
 31
0.0
  0
LINE
  5
20E
  8
回07-寸法
 62
     5
 10
-5470.968507009331
 20
175.1005651913599
 30
0.0
 11
-5224.968507009332
 21
175.1005651913599
 31
0.0
  0
INSERT
  5
20F
  8
回07-寸法
 62
     5
 66
     1
  2
_OPEN
 10
-5472.968507009331
 20
175.1005651913599
 30
0.0
 41
2.0
 42
2.0
 43
2.0
 50
180.0
  0
SEQEND
  5
210
  8
回07-寸法
  6
CONTINUOUS
 62
     5
  0
INSERT
  5
211
  8
回07-寸法
 62
     5
 66
     1
  2
_OPEN
 10
-5222.968507009332
 20
175.1005651913599
 30
0.0
 41
2.0
 42
2.0
 43
2.0
  0
SEQEND
  5
212
  8
回07-寸法
  6
CONTINUOUS
 62
     5
  0
TEXT
  5
213
  8
回07-寸法
 62
     5
 10
-5378.035277080501
 20
175.8015319093993
 30
0.0
 40
4.0
  1
250 [9.843] (VIEWING AREA)
1001
ACAD
1000
MTEXTBEGIN
1070
    73
1070
     1
1070
    44
1040
1.0
1070
    74
1070
     0
1000
MTEXTEND
  0
POINT
  5
214
  8
DEFPOINTS
 62
     0
 10
-5472.968507009331
 20
142.6985898958134
 30
0.0
  0
POINT
  5
215
  8
DEFPOINTS
 62
     0
 10
-5222.968507009332
 20
142.6985898958134
 30
0.0
  0
POINT
  5
216
  8
DEFPOINTS
 62
     0
 10
-5222.968507009332
 20
175.1005651913599
 30
0.0
  0
ENDBLK
  5
217
  8
0
 62
    20
  0
BLOCK
  8
0
  2
*D222222
 70
     1
 10
0.0
 20
0.0
 30
0.0
  3
*D222222
  1

  0
LINE
  5
1FD
  8
回07-寸法
 62
     5
 10
-5480.968507009333
 20
148.9485898958134
 30
0.0
 11
-5480.968507009333
 21
195.35625563802
 31
0.0
  0
LINE
  5
1FE
  8
回07-寸法
 62
     5
 10
-5217.968507009332
 20
148.9485898958134
 30
0.0
 11
-5217.968507009332
 21
195.35625563802
 31
0.0
  0
LINE
  5
1FF
  8
回07-寸法
 62
     5
 10
-5478.968507009332
 20
194.3562556380199
 30
0.0
 11
-5219.968507009332
 21
194.3562556380199
 31
0.0
  0
INSERT
  5
200
  8
回07-寸法
 62
     5
 66
     1
  2
_OPEN
 10
-5480.968507009333
 20
194.3562556380199
 30
0.0
 41
2.0
 42
2.0
 43
2.0
 50
180.0
  0
SEQEND
  5
201
  8
回07-寸法
  6
CONTINUOUS
 62
     5
  0
INSERT
  5
202
  8
回07-寸法
 62
     5
 66
     1
  2
_OPEN
 10
-5217.968507009332
 20
194.3562556380199
 30
0.0
 41
2.0
 42
2.0
 43
2.0
  0
SEQEND
  5
203
  8
回07-寸法
  6
CONTINUOUS
 62
     5
  0
INSERT
  5
204
  8
回07-寸法
 62
     5
 66
     1
  2
*X808080
 10
0.0
 20
0.0
 30
0.0
  0
SEQEND
  5
623
  8
回07-寸法
  6
CONTINUOUS
 62
     5
  0
POINT
  5
205
  8
DEFPOINTS
 62
     0
 10
-5480.968507009333
 20
148.9485898958134
 30
0.0
  0
POINT
  5
206
  8
DEFPOINTS
 62
     0
 10
-5217.968507009332
 20
148.9485898958134
 30
0.0
  0
POINT
  5
207
  8
DEFPOINTS
 62
     0
 10
-5217.968507009332
 20
194.3562556380199
 30
0.0
  0
ENDBLK
  5
208
  8
0
 62
    20
  0
BLOCK
  8
0
  2
*D232323
 70
     1
 10
0.0
 20
0.0
 30
0.0
  3
*D232323
  1

  0
LINE
  5
1E9
  8
回07-寸法
  6
CONTINUOUS
 62
     5
 10
-5471.468507009331
 20
141.1985898958135
 30
0.0
 11
-5471.468507009331
 21
166.4300550136738
 31
0.0
  0
LINE
  5
1EA
  8
回07-寸法
  6
CONTINUOUS
 62
     5
 10
-5480.968507009331
 20
148.9485898958134
 30
0.0
 11
-5480.968507009331
 21
166.4300550136738
 31
0.0
  0
LINE
  5
1EB
  8
回07-寸法
  6
CONTINUOUS
 62
     5
 10
-5469.468507009331
 20
165.4300550136738
 30
0.0
 11
-5467.468507009331
 21
165.4300550136738
 31
0.0
  0
LINE
  5
1EC
  8
回07-寸法
  6
CONTINUOUS
 62
     5
 10
-5482.968507009331
 20
165.4300550136738
 30
0.0
 11
-5510.134192434279
 21
165.4300550136738
 31
0.0
  0
LINE
  5
1ED
  8
回07-寸法
  6
CONTINUOUS
 62
     5
 10
-5471.468507009331
 20
165.4300550136738
 30
0.0
 11
-5480.968507009331
 21
165.4300550136738
 31
0.0
  0
INSERT
  5
1EE
  8
回07-寸法
  6
CONTINUOUS
 62
     5
 66
     1
  2
_OPEN
 10
-5471.468507009331
 20
165.4300550136738
 30
0.0
 41
2.0
 42
2.0
 43
2.0
 50
180.0
  0
SEQEND
  5
1EF
  8
回07-寸法
  6
CONTINUOUS
 62
     5
  0
INSERT
  5
1F0
  8
回07-寸法
  6
CONTINUOUS
 62
     5
 66
     1
  2
_OPEN
 10
-5480.968507009331
 20
165.4300550136738
 30
0.0
 41
2.0
 42
2.0
 43
2.0
  0
SEQEND
  5
1F1
  8
回07-寸法
  6
CONTINUOUS
 62
     5
  0
TEXT
  5
1F2
  8
回07-寸法
  6
CONTINUOUS
 62
     5
 10
-5510.165791195912
 20
166.1300550136738
 30
0.0
 40
4.0
  1
9.5 [0.374]
1001
ACAD
1000
MTEXTBEGIN
1070
    73
1070
     1
1070
    44
1040
1.0
1070
    74
1070
     0
1000
MTEXTEND
  0
POINT
  5
1F3
  8
DEFPOINTS
  6
CONTINUOUS
 62
     0
 10
-5471.468507009331
 20
141.1985898958135
 30
0.0
  0
POINT
  5
1F4
  8
DEFPOINTS
  6
CONTINUOUS
 62
     0
 10
-5480.968507009331
 20
148.9485898958134
 30
0.0
  0
POINT
  5
1F5
  8
DEFPOINTS
  6
CONTINUOUS
 62
     0
 10
-5480.968507009331
 20
165.4300550136738
 30
0.0
  0
ENDBLK
  5
1F6
  8
0
 62
    20
  0
BLOCK
  8
0
  2
*D242424
 70
     1
 10
0.0
 20
0.0
 30
0.0
  3
*D242424
  1

  0
LINE
  5
1D8
  8
回07-寸法
  6
CONTINUOUS
 62
     5
 10
-5472.968507009331
 20
142.6985898958134
 30
0.0
 11
-5472.968507009331
 21
176.1005651913599
 31
0.0
  0
LINE
  5
1D9
  8
回07-寸法
  6
CONTINUOUS
 62
     5
 10
-5480.968507009333
 20
148.9485898958134
 30
0.0
 11
-5480.968507009333
 21
176.1005651913599
 31
0.0
  0
LINE
  5
1DA
  8
回07-寸法
  6
CONTINUOUS
 62
     5
 10
-5470.968507009331
 20
175.1005651913599
 30
0.0
 11
-5468.968507009331
 21
175.1005651913599
 31
0.0
  0
LINE
  5
1DB
  8
回07-寸法
  6
CONTINUOUS
 62
     5
 10
-5482.968507009331
 20
175.1005651913599
 30
0.0
 11
-5504.768507009332
 21
175.1005651913599
 31
0.0
  0
LINE
  5
1DC
  8
回07-寸法
  6
CONTINUOUS
 62
     5
 10
-5472.968507009331
 20
175.1005651913599
 30
0.0
 11
-5480.968507009333
 21
175.1005651913599
 31
0.0
  0
INSERT
  5
1DD
  8
回07-寸法
  6
CONTINUOUS
 62
     5
 66
     1
  2
_OPEN
 10
-5472.968507009331
 20
175.1005651913599
 30
0.0
 41
2.0
 42
2.0
 43
2.0
 50
180.0
  0
SEQEND
  5
1DE
  8
回07-寸法
  6
CONTINUOUS
 62
     5
  0
INSERT
  5
1DF
  8
回07-寸法
  6
CONTINUOUS
 62
     5
 66
     1
  2
_OPEN
 10
-5480.968507009333
 20
175.1005651913599
 30
0.0
 41
2.0
 42
2.0
 43
2.0
  0
SEQEND
  5
1E0
  8
回07-寸法
  6
CONTINUOUS
 62
     5
  0
TEXT
  5
1E1
  8
回07-寸法
  6
CONTINUOUS
 62
     5
 10
-5504.86850700933
 20
175.8005651913599
 30
0.0
 40
4.0
  1
8 [0.315]
1001
ACAD
1000
MTEXTBEGIN
1070
    73
1070
     1
1070
    44
1040
1.0
1070
    74
1070
     0
1000
MTEXTEND
  0
POINT
  5
1E2
  8
DEFPOINTS
  6
CONTINUOUS
 62
     0
 10
-5472.968507009331
 20
142.6985898958134
 30
0.0
  0
POINT
  5
1E3
  8
DEFPOINTS
  6
CONTINUOUS
 62
     0
 10
-5480.968507009333
 20
148.9485898958134
 30
0.0
  0
POINT
  5
1E4
  8
DEFPOINTS
  6
CONTINUOUS
 62
     0
 10
-5480.968507009333
 20
175.1005651913599
 30
0.0
  0
ENDBLK
  5
1E5
  8
0
 62
    20
  0
BLOCK
  8
0
  2
*D252525
 70
     1
 10
0.0
 20
0.0
 30
0.0
  3
*D252525
  1

  0
LINE
  5
1C7
  8
回07-寸法
  6
CONTINUOUS
 62
     5
 10
-5224.468507009333
 20
-44.30141010418654
 30
0.0
 11
-5175.180949539093
 21
-44.30141010418654
 31
0.0
  0
LINE
  5
1C8
  8
回07-寸法
  6
CONTINUOUS
 62
     5
 10
-5217.968507009334
 20
-52.05141010418653
 30
0.0
 11
-5175.180949539093
 21
-52.05141010418653
 31
0.0
  0
LINE
  5
1C9
  8
回07-寸法
  6
CONTINUOUS
 62
     5
 10
-5176.180949539093
 20
-42.30141010418652
 30
0.0
 11
-5176.180949539093
 21
-40.30141010418652
 31
0.0
  0
LINE
  5
1CA
  8
回07-寸法
  6
CONTINUOUS
 62
     5
 10
-5176.180949539093
 20
-54.05141010418653
 30
0.0
 11
-5176.180949539093
 21
-83.45141010418656
 31
0.0
  0
LINE
  5
1CB
  8
回07-寸法
  6
CONTINUOUS
 62
     5
 10
-5176.180949539093
 20
-44.30141010418652
 30
0.0
 11
-5176.180949539093
 21
-52.05141010418653
 31
0.0
  0
INSERT
  5
1CC
  8
回07-寸法
  6
CONTINUOUS
 62
     5
 66
     1
  2
_OPEN
 10
-5176.180949539093
 20
-44.30141010418652
 30
0.0
 41
2.0
 42
2.0
 43
2.0
 50
270.0
  0
SEQEND
  5
1CD
  8
回07-寸法
  6
CONTINUOUS
 62
     5
  0
INSERT
  5
1CE
  8
回07-寸法
  6
CONTINUOUS
 62
     5
 66
     1
  2
_OPEN
 10
-5176.180949539093
 20
-52.05141010418653
 30
0.0
 41
2.0
 42
2.0
 43
2.0
 50
90.0
  0
SEQEND
  5
1CF
  8
回07-寸法
  6
CONTINUOUS
 62
     5
  0
TEXT
  5
1D0
  8
回07-寸法
  6
CONTINUOUS
 62
     5
 10
-5176.880949539089
 20
-83.55141010418536
 30
0.0
 40
4.0
  1
7.75 [0.305]
 50
90.0
1001
ACAD
1000
MTEXTBEGIN
1070
    73
1070
     1
1070
    44
1040
1.0
1070
    74
1070
     0
1000
MTEXTEND
  0
POINT
  5
1D1
  8
DEFPOINTS
  6
CONTINUOUS
 62
     0
 10
-5224.468507009333
 20
-44.30141010418654
 30
0.0
  0
POINT
  5
1D2
  8
DEFPOINTS
  6
CONTINUOUS
 62
     0
 10
-5217.968507009334
 20
-52.05141010418653
 30
0.0
  0
POINT
  5
1D3
  8
DEFPOINTS
  6
CONTINUOUS
 62
     0
 10
-5176.180949539093
 20
-52.05141010418653
 30
0.0
  0
ENDBLK
  5
1D4
  8
0
 62
    20
  0
BLOCK
  8
0
  2
*D262626
 70
     1
 10
0.0
 20
0.0
 30
0.0
  3
*D262626
  1

  0
LINE
  5
1B6
  8
回07-寸法
  6
CONTINUOUS
 62
     5
 10
-5222.968507009333
 20
-45.80141010418652
 30
0.0
 11
-5165.599372875924
 21
-45.80141010418652
 31
0.0
  0
LINE
  5
1B7
  8
回07-寸法
  6
CONTINUOUS
 62
     5
 10
-5217.968507009333
 20
-52.05141010418653
 30
0.0
 11
-5165.599372875924
 21
-52.05141010418653
 31
0.0
  0
LINE
  5
1B8
  8
回07-寸法
  6
CONTINUOUS
 62
     5
 10
-5166.599372875923
 20
-43.8014101041865
 30
0.0
 11
-5166.599372875923
 21
-41.8014101041865
 31
0.0
  0
LINE
  5
1B9
  8
回07-寸法
  6
CONTINUOUS
 62
     5
 10
-5166.599372875923
 20
-54.05141010418653
 30
0.0
 11
-5166.599372875923
 21
-84.09078018292667
 31
0.0
  0
LINE
  5
1BA
  8
回07-寸法
  6
CONTINUOUS
 62
     5
 10
-5166.599372875923
 20
-45.80141010418651
 30
0.0
 11
-5166.599372875923
 21
-52.05141010418653
 31
0.0
  0
INSERT
  5
1BB
  8
回07-寸法
  6
CONTINUOUS
 62
     5
 66
     1
  2
_OPEN
 10
-5166.599372875923
 20
-45.80141010418651
 30
0.0
 41
2.0
 42
2.0
 43
2.0
 50
270.0
  0
SEQEND
  5
1BC
  8
回07-寸法
  6
CONTINUOUS
 62
     5
  0
INSERT
  5
1BD
  8
回07-寸法
  6
CONTINUOUS
 62
     5
 66
     1
  2
_OPEN
 10
-5166.599372875923
 20
-52.05141010418653
 30
0.0
 41
2.0
 42
2.0
 43
2.0
 50
90.0
  0
SEQEND
  5
1BE
  8
回07-寸法
  6
CONTINUOUS
 62
     5
  0
TEXT
  5
1BF
  8
回07-寸法
  6
CONTINUOUS
 62
     5
 10
-5167.299372875922
 20
-84.07109514355488
 30
0.0
 40
4.0
  1
6.25 [0.246]
 50
90.0
1001
ACAD
1000
MTEXTBEGIN
1070
    73
1070
     1
1070
    44
1040
1.0
1070
    74
1070
     0
1000
MTEXTEND
  0
POINT
  5
1C0
  8
DEFPOINTS
  6
CONTINUOUS
 62
     0
 10
-5222.968507009333
 20
-45.80141010418652
 30
0.0
  0
POINT
  5
1C1
  8
DEFPOINTS
  6
CONTINUOUS
 62
     0
 10
-5217.968507009333
 20
-52.05141010418653
 30
0.0
  0
POINT
  5
1C2
  8
DEFPOINTS
  6
CONTINUOUS
 62
     0
 10
-5166.599372875923
 20
-52.05141010418653
 30
0.0
  0
ENDBLK
  5
1C3
  8
0
 62
    20
  0
BLOCK
  8
0
  2
*D272727
 70
     1
 10
0.0
 20
0.0
 30
0.0
  3
*D272727
  1

  0
LINE
  5
1A3
  8
回07-寸法
  6
CONTINUOUS
 62
     5
 10
-5217.968507009333
 20
-46.30141010418653
 30
0.0
 11
-5203.203506555841
 21
-46.30141010418653
 31
0.0
  0
LINE
  5
1A4
  8
回07-寸法
  6
CONTINUOUS
 62
     5
 10
-5217.968507009333
 20
-52.05141010418653
 30
0.0
 11
-5203.203506555841
 21
-52.05141010418653
 31
0.0
  0
LINE
  5
1A5
  8
回07-寸法
  6
CONTINUOUS
 62
     5
 10
-5204.203506555842
 20
-44.30141010418654
 30
0.0
 11
-5204.203506555842
 21
-42.30141010418653
 31
0.0
  0
LINE
  5
1A6
  8
回07-寸法
  6
CONTINUOUS
 62
     5
 10
-5204.203506555842
 20
-54.05141010418653
 30
0.0
 11
-5204.203506555842
 21
-86.64826049788734
 31
0.0
  0
LINE
  5
1A7
  8
回07-寸法
  6
CONTINUOUS
 62
     5
 10
-5204.203506555842
 20
-46.30141010418653
 30
0.0
 11
-5204.203506555842
 21
-52.05141010418653
 31
0.0
  0
INSERT
  5
1A8
  8
回07-寸法
  6
CONTINUOUS
 62
     5
 66
     1
  2
_OPEN
 10
-5204.203506555842
 20
-46.30141010418653
 30
0.0
 41
2.0
 42
2.0
 43
2.0
 50
270.0
  0
SEQEND
  5
1A9
  8
回07-寸法
  6
CONTINUOUS
 62
     5
  0
INSERT
  5
1AA
  8
回07-寸法
  6
CONTINUOUS
 62
     5
 66
     1
  2
_OPEN
 10
-5204.203506555842
 20
-52.05141010418653
 30
0.0
 41
2.0
 42
2.0
 43
2.0
 50
90.0
  0
SEQEND
  5
1AB
  8
回07-寸法
  6
CONTINUOUS
 62
     5
  0
TEXT
  5
1AC
  8
回07-寸法
  6
CONTINUOUS
 62
     5
 10
-5204.90350655584
 20
-86.74983530103508
 30
0.0
 40
4.0
  1
(5.75 [0.226])
 50
90.0
1001
ACAD
1000
MTEXTBEGIN
1070
    73
1070
     1
1070
    44
1040
1.0
1070
    74
1070
     0
1000
MTEXTEND
  0
POINT
  5
1AD
  8
DEFPOINTS
  6
CONTINUOUS
 62
     0
 10
-5217.968507009333
 20
-46.30141010418653
 30
0.0
  0
POINT
  5
1AE
  8
DEFPOINTS
  6
CONTINUOUS
 62
     0
 10
-5217.968507009333
 20
-52.05141010418653
 30
0.0
  0
POINT
  5
1AF
  8
DEFPOINTS
  6
CONTINUOUS
 62
     0
 10
-5204.203506555842
 20
-52.05141010418653
 30
0.0
  0
ENDBLK
  5
1B0
  8
0
 62
    20
  0
BLOCK
  8
0
  2
*D282828
 70
     1
 10
0.0
 20
0.0
 30
0.0
  3
*D282828
  1

  0
LINE
  5
192
  8
回07-寸法
  6
CONTINUOUS
 62
     5
 10
-5217.968507009333
 20
-46.30141010418653
 30
0.0
 11
-5207.939576714821
 21
-46.30141010418653
 31
0.0
  0
LINE
  5
193
  8
回07-寸法
  6
CONTINUOUS
 62
     5
 10
-5217.968507009333
 20
-44.30141010418654
 30
0.0
 11
-5207.939576714821
 21
-44.30141010418654
 31
0.0
  0
LINE
  5
194
  8
回07-寸法
  6
CONTINUOUS
 62
     5
 10
-5208.939576714818
 20
-48.30141010418653
 30
0.0
 11
-5208.939576714818
 21
-50.30141010418653
 31
0.0
  0
LINE
  5
195
  8
回07-寸法
  6
CONTINUOUS
 62
     5
 10
-5208.939576714818
 20
-42.30141010418653
 30
0.0
 11
-5208.939576714818
 21
-16.49058238850862
 31
0.0
  0
LINE
  5
196
  8
回07-寸法
  6
CONTINUOUS
 62
     5
 10
-5208.939576714818
 20
-46.30141010418653
 30
0.0
 11
-5208.939576714818
 21
-44.30141010418654
 31
0.0
  0
INSERT
  5
197
  8
回07-寸法
  6
CONTINUOUS
 62
     5
 66
     1
  2
_OPEN
 10
-5208.939576714818
 20
-46.30141010418653
 30
0.0
 41
2.0
 42
2.0
 43
2.0
 50
90.0
  0
SEQEND
  5
198
  8
回07-寸法
  6
CONTINUOUS
 62
     5
  0
INSERT
  5
199
  8
回07-寸法
  6
CONTINUOUS
 62
     5
 66
     1
  2
_OPEN
 10
-5208.939576714818
 20
-44.30141010418654
 30
0.0
 41
2.0
 42
2.0
 43
2.0
 50
270.0
  0
SEQEND
  5
19A
  8
回07-寸法
  6
CONTINUOUS
 62
     5
  0
TEXT
  5
19B
  8
回07-寸法
  6
CONTINUOUS
 62
     5
 10
-5209.639496840015
 20
-40.40321698339993
 30
0.0
 40
4.0
  1
(2 [0.079])
 50
90.0
1001
ACAD
1000
MTEXTBEGIN
1070
    73
1070
     1
1070
    44
1040
1.0
1070
    74
1070
     0
1000
MTEXTEND
  0
POINT
  5
19C
  8
DEFPOINTS
  6
CONTINUOUS
 62
     0
 10
-5217.968507009333
 20
-46.30141010418653
 30
0.0
  0
POINT
  5
19D
  8
DEFPOINTS
  6
CONTINUOUS
 62
     0
 10
-5217.968507009333
 20
-44.30141010418654
 30
0.0
  0
POINT
  5
19E
  8
DEFPOINTS
  6
CONTINUOUS
 62
     0
 10
-5208.939576714818
 20
-44.30141010418654
 30
0.0
  0
ENDBLK
  5
19F
  8
0
 62
    20
  0
BLOCK
  8
0
  2
*D292929
 70
     1
 10
0.0
 20
0.0
 30
0.0
  3
*D292929
  1

  0
LINE
  5
180
  8
回08-記事
  6
CONTINUOUS
 62
     5
 10
-5537.971680408658
 20
-4.230239033835915
 30
0.0
 11
-5562.489672155137
 21
-4.230239033835915
 31
0.0
  0
LINE
  5
181
  8
回08-記事
  6
CONTINUOUS
 62
     5
 10
-5537.971680408658
 20
-15.48023903383592
 30
0.0
 11
-5562.489672155137
 21
-15.48023903383592
 31
0.0
  0
LINE
  5
182
  8
回08-記事
  6
CONTINUOUS
 62
     5
 10
-5561.489672155136
 20
-2.230239033835919
 30
0.0
 11
-5561.489672155136
 21
-0.2302390338359194
 31
0.0
  0
LINE
  5
183
  8
回08-記事
  6
CONTINUOUS
 62
     5
 10
-5561.489672155136
 20
-17.48023903383591
 30
0.0
 11
-5561.489672155136
 21
-62.38023903383596
 31
0.0
  0
LINE
  5
184
  8
回08-記事
  6
CONTINUOUS
 62
     5
 10
-5561.489672155136
 20
-4.230239033835919
 30
0.0
 11
-5561.489672155136
 21
-15.48023903383592
 31
0.0
  0
INSERT
  5
185
  8
回08-記事
  6
CONTINUOUS
 62
     5
 66
     1
  2
_OPEN
 10
-5561.489672155136
 20
-4.230239033835919
 30
0.0
 41
2.0
 42
2.0
 43
2.0
 50
270.0
  0
SEQEND
  5
186
  8
回07-寸法
  6
CONTINUOUS
 62
     5
  0
INSERT
  5
187
  8
回08-記事
  6
CONTINUOUS
 62
     5
 66
     1
  2
_OPEN
 10
-5561.489672155136
 20
-15.48023903383592
 30
0.0
 41
2.0
 42
2.0
 43
2.0
 50
90.0
  0
SEQEND
  5
188
  8
回07-寸法
  6
CONTINUOUS
 62
     5
  0
INSERT
  5
189
  8
回08-記事
  6
CONTINUOUS
 62
     5
 66
     1
  2
*X818181
 10
0.0
 20
0.0
 30
0.0
  0
SEQEND
  5
62C
  8
回07-寸法
  6
CONTINUOUS
 62
     5
  0
POINT
  5
18A
  8
DEFPOINTS
  6
CONTINUOUS
 62
     0
 10
-5537.971680408658
 20
-4.230239033835915
 30
0.0
  0
POINT
  5
18B
  8
DEFPOINTS
  6
CONTINUOUS
 62
     0
 10
-5537.971680408658
 20
-15.48023903383592
 30
0.0
  0
POINT
  5
18C
  8
DEFPOINTS
  6
CONTINUOUS
 62
     0
 10
-5561.489672155136
 20
-15.48023903383592
 30
0.0
  0
ENDBLK
  5
18D
  8
0
 62
    20
  0
BLOCK
  8
0
  2
*D303030
 70
     1
 10
0.0
 20
0.0
 30
0.0
  3
*D303030
  1

  0
LINE
  5
16F
  8
回08-記事
  6
CONTINUOUS
 62
     5
 10
-5537.971680408658
 20
-11.73023903383592
 30
0.0
 11
-5553.13408303196
 21
-11.73023903383592
 31
0.0
  0
LINE
  5
170
  8
回08-記事
  6
CONTINUOUS
 62
     5
 10
-5537.971680408658
 20
-15.48023903383592
 30
0.0
 11
-5553.13408303196
 21
-15.48023903383592
 31
0.0
  0
LINE
  5
171
  8
回08-記事
  6
CONTINUOUS
 62
     5
 10
-5552.134083031962
 20
-9.730239033835919
 30
0.0
 11
-5552.134083031962
 21
-7.730239033835921
 31
0.0
  0
LINE
  5
172
  8
回08-記事
  6
CONTINUOUS
 62
     5
 10
-5552.134083031962
 20
-17.48023903383591
 30
0.0
 11
-5552.134083031962
 21
-62.69421635581303
 31
0.0
  0
LINE
  5
173
  8
回08-記事
  6
CONTINUOUS
 62
     5
 10
-5552.134083031962
 20
-11.73023903383592
 30
0.0
 11
-5552.134083031962
 21
-15.48023903383592
 31
0.0
  0
INSERT
  5
174
  8
回08-記事
  6
CONTINUOUS
 62
     5
 66
     1
  2
_OPEN
 10
-5552.134083031962
 20
-11.73023903383592
 30
0.0
 41
2.0
 42
2.0
 43
2.0
 50
270.0
  0
SEQEND
  5
175
  8
回07-寸法
  6
CONTINUOUS
 62
     5
  0
INSERT
  5
176
  8
回08-記事
  6
CONTINUOUS
 62
     5
 66
     1
  2
_OPEN
 10
-5552.134083031962
 20
-15.48023903383592
 30
0.0
 41
2.0
 42
2.0
 43
2.0
 50
90.0
  0
SEQEND
  5
177
  8
回07-寸法
  6
CONTINUOUS
 62
     5
  0
INSERT
  5
178
  8
回08-記事
  6
CONTINUOUS
 62
     5
 66
     1
  2
*X828282
 10
0.0
 20
0.0
 30
0.0
  0
SEQEND
  5
635
  8
回07-寸法
  6
CONTINUOUS
 62
     5
  0
POINT
  5
179
  8
DEFPOINTS
  6
CONTINUOUS
 62
     0
 10
-5537.971680408658
 20
-11.73023903383592
 30
0.0
  0
POINT
  5
17A
  8
DEFPOINTS
  6
CONTINUOUS
 62
     0
 10
-5537.971680408658
 20
-15.48023903383592
 30
0.0
  0
POINT
  5
17B
  8
DEFPOINTS
  6
CONTINUOUS
 62
     0
 10
-5552.134083031962
 20
-15.48023903383592
 30
0.0
  0
ENDBLK
  5
17C
  8
0
 62
    20
  0
BLOCK
  8
0
  2
*D313131
 70
     1
 10
0.0
 20
0.0
 30
0.0
  3
*D313131
  1

  0
LINE
  5
15E
  8
回08-記事
  6
CONTINUOUS
 62
     5
 10
-5537.971680408658
 20
-14.2802390338361
 30
0.0
 11
-5544.730428798442
 21
-14.2802390338361
 31
0.0
  0
LINE
  5
15F
  8
回08-記事
  6
CONTINUOUS
 62
     5
 10
-5537.971680408658
 20
-16.68023903383574
 30
0.0
 11
-5544.730428798442
 21
-16.68023903383574
 31
0.0
  0
LINE
  5
160
  8
回08-記事
  6
CONTINUOUS
 62
     5
 10
-5543.730428798443
 20
-12.2802390338361
 30
0.0
 11
-5543.730428798443
 21
-10.2802390338361
 31
0.0
  0
LINE
  5
161
  8
回08-記事
  6
CONTINUOUS
 62
     5
 10
-5543.730428798443
 20
-18.68023903383573
 30
0.0
 11
-5543.730428798443
 21
-73.18023903383576
 31
0.0
  0
LINE
  5
162
  8
回08-記事
  6
CONTINUOUS
 62
     5
 10
-5543.730428798443
 20
-14.2802390338361
 30
0.0
 11
-5543.730428798443
 21
-16.68023903383574
 31
0.0
  0
INSERT
  5
163
  8
回08-記事
  6
CONTINUOUS
 62
     5
 66
     1
  2
_OPEN
 10
-5543.730428798443
 20
-14.2802390338361
 30
0.0
 41
2.0
 42
2.0
 43
2.0
 50
270.0
  0
SEQEND
  5
164
  8
回07-寸法
  6
CONTINUOUS
 62
     5
  0
INSERT
  5
165
  8
回08-記事
  6
CONTINUOUS
 62
     5
 66
     1
  2
_OPEN
 10
-5543.730428798443
 20
-16.68023903383574
 30
0.0
 41
2.0
 42
2.0
 43
2.0
 50
90.0
  0
SEQEND
  5
166
  8
回07-寸法
  6
CONTINUOUS
 62
     5
  0
INSERT
  5
167
  8
回08-記事
  6
CONTINUOUS
 62
     5
 66
     1
  2
*X838383
 10
0.0
 20
0.0
 30
0.0
  0
SEQEND
  5
63E
  8
回07-寸法
  6
CONTINUOUS
 62
     5
  0
POINT
  5
168
  8
DEFPOINTS
  6
CONTINUOUS
 62
     0
 10
-5537.971680408658
 20
-14.2802390338361
 30
0.0
  0
POINT
  5
169
  8
DEFPOINTS
  6
CONTINUOUS
 62
     0
 10
-5537.971680408658
 20
-16.68023903383574
 30
0.0
  0
POINT
  5
16A
  8
DEFPOINTS
  6
CONTINUOUS
 62
     0
 10
-5543.730428798443
 20
-16.68023903383574
 30
0.0
  0
ENDBLK
  5
16B
  8
0
 62
    20
  0
BLOCK
  8
0
  2
*D323232
 70
     1
 10
0.0
 20
0.0
 30
0.0
  3
*D323232
  1

  0
LINE
  5
13A
  8
回07-寸法
  6
CONTINUOUS
 62
     5
 10
-5217.968507009333
 20
-52.05141010418653
 30
0.0
 11
-5184.466899077165
 21
-52.05141010418653
 31
0.0
  0
LINE
  5
13B
  8
回07-寸法
  6
CONTINUOUS
 62
     5
 10
-5219.380037220109
 20
48.4485898958135
 30
0.0
 11
-5184.466899077165
 21
48.4485898958135
 31
0.0
  0
LINE
  5
13C
  8
回07-寸法
  6
CONTINUOUS
 62
     5
 10
-5185.466899077165
 20
-50.05141010418654
 30
0.0
 11
-5185.466899077165
 21
46.4485898958135
 31
0.0
  0
INSERT
  5
13D
  8
回07-寸法
  6
CONTINUOUS
 62
     5
 66
     1
  2
_OPEN
 10
-5185.466899077165
 20
-52.05141010418653
 30
0.0
 41
2.0
 42
2.0
 43
2.0
 50
270.0
  0
SEQEND
  5
13E
  8
回07-寸法
  6
CONTINUOUS
 62
     5
  0
INSERT
  5
13F
  8
回07-寸法
  6
CONTINUOUS
 62
     5
 66
     1
  2
_OPEN
 10
-5185.466899077165
 20
48.44858989581352
 30
0.0
 41
2.0
 42
2.0
 43
2.0
 50
90.0
  0
SEQEND
  5
140
  8
回07-寸法
  6
CONTINUOUS
 62
     5
  0
TEXT
  5
141
  8
回07-寸法
  6
CONTINUOUS
 62
     5
 10
-5186.166819202361
 20
-44.21255271772588
 30
0.0
 40
4.0
  1
100.5 [3.957] (ACTIVE AREA CENTER)
 50
90.0
1001
ACAD
1000
MTEXTBEGIN
1070
    73
1070
     1
1070
    44
1040
1.0
1070
    74
1070
     0
1000
MTEXTEND
  0
POINT
  5
142
  8
DEFPOINTS
  6
CONTINUOUS
 62
     0
 10
-5217.968507009333
 20
-52.05141010418653
 30
0.0
  0
POINT
  5
143
  8
DEFPOINTS
  6
CONTINUOUS
 62
     0
 10
-5219.380037220109
 20
48.4485898958135
 30
0.0
  0
POINT
  5
144
  8
DEFPOINTS
  6
CONTINUOUS
 62
     0
 10
-5185.466899077165
 20
48.44858989581352
 30
0.0
  0
ENDBLK
  5
145
  8
0
 62
    20
  0
BLOCK
  8
回07-寸法
  2
*D333333
 70
     1
 10
0.0
 20
0.0
 30
0.0
  3
*D333333
  1

  0
LINE
  5
3B8
  8
回07-寸法
  6
CONTINUOUS
 62
     5
 10
224.9863805646728
 20
617.1753243962919
 30
0.0
 11
291.1370913612482
 21
617.1753243962919
 31
0.0
  0
LINE
  5
3BA
  8
回07-寸法
  6
CONTINUOUS
 62
     5
 10
229.1863805646726
 20
611.4253243962918
 30
0.0
 11
291.1370913612482
 21
611.4253243962918
 31
0.0
  0
LINE
  5
3BB
  8
回07-寸法
  6
CONTINUOUS
 62
     5
 10
290.1370913612482
 20
609.4253243962919
 30
0.0
 11
290.1370913612482
 21
580.0253243962919
 31
0.0
  0
LINE
  5
3BC
  8
回07-寸法
  6
CONTINUOUS
 62
     5
 10
290.1370913612482
 20
617.1753243962919
 30
0.0
 11
290.1370913612482
 21
611.4253243962918
 31
0.0
  0
LINE
  5
3BD
  8
回07-寸法
  6
CONTINUOUS
 62
     5
 10
290.1370913612482
 20
619.1753243962919
 30
0.0
 11
290.1370913612482
 21
621.1753243962919
 31
0.0
  0
INSERT
  5
3BE
  8
回07-寸法
  6
CONTINUOUS
 62
     5
  2
_OPEN
 10
290.1370913612482
 20
617.1753243962919
 30
0.0
 41
2.0
 42
2.0
 43
2.0
 50
270.0
  0
INSERT
  5
3BF
  8
回07-寸法
  6
CONTINUOUS
 62
     5
  2
_OPEN
 10
290.1370913612482
 20
611.4253243962918
 30
0.0
 41
2.0
 42
2.0
 43
2.0
 50
90.0
  0
TEXT
  5
3C0
  8
回07-寸法
  6
CONTINUOUS
 62
     5
 10
289.4370913612481
 20
579.9253243962919
 30
0.0
 40
4.0
  1
5.75 [0.226]
 50
90.0
  0
POINT
  5
3C1
  8
DEFPOINTS
  6
CONTINUOUS
 62
     0
 10
224.9863805646728
 20
617.1753243962919
 30
0.0
  0
POINT
  5
3C2
  8
DEFPOINTS
  6
CONTINUOUS
 62
     0
 10
229.1863805646726
 20
611.4253243962918
 30
0.0
  0
POINT
  5
3C3
  8
DEFPOINTS
  6
CONTINUOUS
 62
     0
 10
290.1370913612482
 20
611.4253243962918
 30
0.0
  0
ENDBLK
  5
3C5
  8
回07-寸法
  6
CONTINUOUS
 62
     5
  0
BLOCK
  8
回07-寸法
  2
*D343434
 70
     1
 10
0.0
 20
0.0
 30
0.0
  3
*D343434
  1

  0
LINE
  5
3C7
  8
回07-寸法
  6
CONTINUOUS
 62
     5
 10
224.9863805646728
 20
806.6753243962917
 30
0.0
 11
291.1370913612482
 21
806.6753243962917
 31
0.0
  0
LINE
  5
3C8
  8
回07-寸法
  6
CONTINUOUS
 62
     5
 10
229.1863805646726
 20
812.4253243962918
 30
0.0
 11
291.1370913612482
 21
812.4253243962918
 31
0.0
  0
LINE
  5
3C9
  8
回07-寸法
  6
CONTINUOUS
 62
     5
 10
290.1370913612482
 20
814.4253243962918
 30
0.0
 11
290.1370913612482
 21
843.8253243962916
 31
0.0
  0
LINE
  5
3CA
  8
回07-寸法
  6
CONTINUOUS
 62
     5
 10
290.1370913612482
 20
806.6753243962917
 30
0.0
 11
290.1370913612482
 21
812.4253243962918
 31
0.0
  0
LINE
  5
3CB
  8
回07-寸法
  6
CONTINUOUS
 62
     5
 10
290.1370913612482
 20
804.6753243962918
 30
0.0
 11
290.1370913612482
 21
802.6753243962918
 31
0.0
  0
INSERT
  5
3CC
  8
回07-寸法
  6
CONTINUOUS
 62
     5
  2
_OPEN
 10
290.1370913612482
 20
806.6753243962917
 30
0.0
 41
2.0
 42
2.0
 43
2.0
 50
90.0
  0
INSERT
  5
3CD
  8
回07-寸法
  6
CONTINUOUS
 62
     5
  2
_OPEN
 10
290.1370913612482
 20
812.4253243962918
 30
0.0
 41
2.0
 42
2.0
 43
2.0
 50
270.0
  0
TEXT
  5
3CE
  8
回07-寸法
  6
CONTINUOUS
 62
     5
 10
289.4370913612481
 20
816.325324396292
 30
0.0
 40
4.0
  1
5.75 [0.226]
 50
90.0
  0
POINT
  5
3CF
  8
DEFPOINTS
  6
CONTINUOUS
 62
     0
 10
224.9863805646728
 20
806.6753243962917
 30
0.0
  0
POINT
  5
3D0
  8
DEFPOINTS
  6
CONTINUOUS
 62
     0
 10
229.1863805646726
 20
812.4253243962918
 30
0.0
  0
POINT
  5
3D1
  8
DEFPOINTS
  6
CONTINUOUS
 62
     0
 10
290.1370913612482
 20
812.4253243962918
 30
0.0
  0
ENDBLK
  5
3D3
  8
回07-寸法
  6
CONTINUOUS
 62
     5
  0
BLOCK
  8
回07-寸法
  2
*D353535
 70
     1
 10
0.0
 20
0.0
 30
0.0
  3
*D353535
  1

  0
LINE
  5
3D5
  8
回07-寸法
  6
CONTINUOUS
 62
     5
 10
224.9863805646728
 20
617.1753243962919
 30
0.0
 11
291.1370913612482
 21
617.1753243962919
 31
0.0
  0
LINE
  5
3D6
  8
回07-寸法
  6
CONTINUOUS
 62
     5
 10
224.9863805646728
 20
806.6753243962917
 30
0.0
 11
291.1370913612482
 21
806.6753243962917
 31
0.0
  0
LINE
  5
3D7
  8
回07-寸法
  6
CONTINUOUS
 62
     5
 10
290.1370913612482
 20
619.1753243962919
 30
0.0
 11
290.1370913612482
 21
804.6753243962918
 31
0.0
  0
INSERT
  5
3D8
  8
回07-寸法
  6
CONTINUOUS
 62
     5
  2
_OPEN
 10
290.1370913612482
 20
617.1753243962919
 30
0.0
 41
2.0
 42
2.0
 43
2.0
 50
270.0
  0
INSERT
  5
3D9
  8
回07-寸法
  6
CONTINUOUS
 62
     5
  2
_OPEN
 10
290.1370913612482
 20
806.6753243962917
 30
0.0
 41
2.0
 42
2.0
 43
2.0
 50
90.0
  0
TEXT
  5
3DA
  8
回07-寸法
  6
CONTINUOUS
 62
     5
 10
289.4370913612481
 20
697.318103659238
 30
0.0
 40
4.0
  1
189.5 [7.461]
 50
90.0
  0
POINT
  5
3DB
  8
DEFPOINTS
  6
CONTINUOUS
 62
     0
 10
224.9863805646728
 20
617.1753243962919
 30
0.0
  0
POINT
  5
3DC
  8
DEFPOINTS
  6
CONTINUOUS
 62
     0
 10
224.9863805646728
 20
806.6753243962917
 30
0.0
  0
POINT
  5
3DD
  8
DEFPOINTS
  6
CONTINUOUS
 62
     0
 10
290.1370913612482
 20
806.6753243962917
 30
0.0
  0
ENDBLK
  5
3DF
  8
回07-寸法
  6
CONTINUOUS
 62
     5
  0
BLOCK
  8
回07-寸法
  2
*D363636
 70
     1
 10
0.0
 20
0.0
 30
0.0
  3
*D363636
  1

  0
LINE
  5
3E1
  8
回07-寸法
  6
CONTINUOUS
 62
     5
 10
224.9863805646728
 20
806.6753243962917
 30
0.0
 11
224.9863805646728
 21
848.9320386577944
 31
0.0
  0
LINE
  5
3E2
  8
回07-寸法
  6
CONTINUOUS
 62
     5
 10
229.1863805646726
 20
812.4253243962918
 30
0.0
 11
229.1863805646726
 21
848.9320386577944
 31
0.0
  0
LINE
  5
3E3
  8
回07-寸法
  6
CONTINUOUS
 62
     5
 10
231.1863805646726
 20
847.9320386577944
 30
0.0
 11
257.3863805646726
 21
847.9320386577944
 31
0.0
  0
LINE
  5
3E4
  8
回07-寸法
  6
CONTINUOUS
 62
     5
 10
224.9863805646728
 20
847.9320386577944
 30
0.0
 11
229.1863805646726
 21
847.9320386577944
 31
0.0
  0
LINE
  5
3E5
  8
回07-寸法
  6
CONTINUOUS
 62
     5
 10
222.9863805646728
 20
847.9320386577944
 30
0.0
 11
220.9863805646728
 21
847.9320386577944
 31
0.0
  0
INSERT
  5
3E6
  8
回07-寸法
  6
CONTINUOUS
 62
     5
  2
_OPEN
 10
224.9863805646728
 20
847.9320386577944
 30
0.0
 41
2.0
 42
2.0
 43
2.0
  0
INSERT
  5
3E7
  8
回07-寸法
  6
CONTINUOUS
 62
     5
  2
_OPEN
 10
229.1863805646726
 20
847.9320386577944
 30
0.0
 41
2.0
 42
2.0
 43
2.0
 50
180.0
  0
TEXT
  5
3E8
  8
回07-寸法
  6
CONTINUOUS
 62
     5
 10
233.0863805646726
 20
848.6320386577945
 30
0.0
 40
4.0
  1
4.2 [0.165]
  0
POINT
  5
3E9
  8
DEFPOINTS
  6
CONTINUOUS
 62
     0
 10
224.9863805646728
 20
806.6753243962917
 30
0.0
  0
POINT
  5
3EA
  8
DEFPOINTS
  6
CONTINUOUS
 62
     0
 10
229.1863805646726
 20
812.4253243962918
 30
0.0
  0
POINT
  5
3EB
  8
DEFPOINTS
  6
CONTINUOUS
 62
     0
 10
229.1863805646726
 20
847.9320386577944
 30
0.0
  0
ENDBLK
  5
3ED
  8
回07-寸法
  6
CONTINUOUS
 62
     5
  0
BLOCK
  8
回07-寸法
  2
*D373737
 70
     1
 10
0.0
 20
0.0
 30
0.0
  3
*D373737
  1

  0
LINE
  5
3EF
  8
回07-寸法
  6
CONTINUOUS
 62
     5
 10
-26.61361943532666
 20
806.6753243962917
 30
0.0
 11
-26.61361943532666
 21
848.9320386577944
 31
0.0
  0
LINE
  5
3F0
  8
回07-寸法
  6
CONTINUOUS
 62
     5
 10
224.9863805646728
 20
806.6753243962917
 30
0.0
 11
224.9863805646728
 21
848.9320386577944
 31
0.0
  0
LINE
  5
3F1
  8
回07-寸法
  6
CONTINUOUS
 62
     5
 10
-24.61361943532665
 20
847.9320386577944
 30
0.0
 11
222.9863805646728
 21
847.9320386577944
 31
0.0
  0
INSERT
  5
3F2
  8
回07-寸法
  6
CONTINUOUS
 62
     5
  2
_OPEN
 10
-26.61361943532666
 20
847.9320386577944
 30
0.0
 41
2.0
 42
2.0
 43
2.0
 50
180.0
  0
INSERT
  5
3F3
  8
回07-寸法
  6
CONTINUOUS
 62
     5
  2
_OPEN
 10
224.9863805646728
 20
847.9320386577944
 30
0.0
 41
2.0
 42
2.0
 43
2.0
  0
TEXT
  5
3F4
  8
回07-寸法
  6
CONTINUOUS
 62
     5
 10
84.37193909056516
 20
848.6320386577942
 30
0.0
 40
4.0
  1
251.6 [9.906]
  0
POINT
  5
3F5
  8
DEFPOINTS
  6
CONTINUOUS
 62
     0
 10
-26.61361943532666
 20
806.6753243962917
 30
0.0
  0
POINT
  5
3F6
  8
DEFPOINTS
  6
CONTINUOUS
 62
     0
 10
224.9863805646728
 20
806.6753243962917
 30
0.0
  0
POINT
  5
3F7
  8
DEFPOINTS
  6
CONTINUOUS
 62
     0
 10
224.9863805646728
 20
847.9320386577944
 30
0.0
  0
ENDBLK
  5
3F9
  8
回07-寸法
  6
CONTINUOUS
 62
     5
  0
BLOCK
  8
回07-寸法
  2
*D383838
 70
     1
 10
0.0
 20
0.0
 30
0.0
  3
*D383838
  1

  0
LINE
  5
3FB
  8
回07-寸法
  6
CONTINUOUS
 62
     5
 10
-26.61361943532666
 20
806.6753243962917
 30
0.0
 11
-26.61361943532666
 21
848.9320386577944
 31
0.0
  0
LINE
  5
3FC
  8
回07-寸法
  6
CONTINUOUS
 62
     5
 10
-33.81361943532648
 20
812.4253243962918
 30
0.0
 11
-33.81361943532648
 21
848.9320386577944
 31
0.0
  0
LINE
  5
3FD
  8
回07-寸法
  6
CONTINUOUS
 62
     5
 10
-35.81361943532647
 20
847.9320386577944
 30
0.0
 11
-62.41361943532665
 21
847.9320386577944
 31
0.0
  0
LINE
  5
3FE
  8
回07-寸法
  6
CONTINUOUS
 62
     5
 10
-26.61361943532666
 20
847.9320386577944
 30
0.0
 11
-33.81361943532648
 21
847.9320386577944
 31
0.0
  0
LINE
  5
3FF
  8
回07-寸法
  6
CONTINUOUS
 62
     5
 10
-24.61361943532665
 20
847.9320386577944
 30
0.0
 11
-22.61361943532666
 21
847.9320386577944
 31
0.0
  0
INSERT
  5
400
  8
回07-寸法
  6
CONTINUOUS
 62
     5
  2
_OPEN
 10
-26.61361943532666
 20
847.9320386577944
 30
0.0
 41
2.0
 42
2.0
 43
2.0
 50
180.0
  0
INSERT
  5
401
  8
回07-寸法
  6
CONTINUOUS
 62
     5
  2
_OPEN
 10
-33.81361943532648
 20
847.9320386577944
 30
0.0
 41
2.0
 42
2.0
 43
2.0
  0
TEXT
  5
402
  8
回07-寸法
  6
CONTINUOUS
 62
     5
 10
-62.51361943532665
 20
848.6320386577945
 30
0.0
 40
4.0
  1
7.2 [0.283]
  0
POINT
  5
403
  8
DEFPOINTS
  6
CONTINUOUS
 62
     0
 10
-26.61361943532666
 20
806.6753243962917
 30
0.0
  0
POINT
  5
404
  8
DEFPOINTS
  6
CONTINUOUS
 62
     0
 10
-33.81361943532648
 20
812.4253243962918
 30
0.0
  0
POINT
  5
405
  8
DEFPOINTS
  6
CONTINUOUS
 62
     0
 10
-33.81361943532648
 20
847.9320386577944
 30
0.0
  0
ENDBLK
  5
407
  8
回07-寸法
  6
CONTINUOUS
 62
     5
  0
BLOCK
  8
回07-寸法
  2
*D393939
 70
     1
 10
0.0
 20
0.0
 30
0.0
  3
*D393939
  1

  0
LINE
  5
409
  8
回08-記事
  6
CONTINUOUS
 62
     5
 10
-89.31679283465106
 20
662.9964954666402
 30
0.0
 11
-124.0063500786582
 21
662.9964954666402
 31
0.0
  0
LINE
  5
40B
  8
回08-記事
  6
CONTINUOUS
 62
     5
 10
-89.31679283465106
 20
644.2464954666406
 30
0.0
 11
-124.0063500786582
 21
644.2464954666406
 31
0.0
  0
LINE
  5
40C
  8
回08-記事
  6
CONTINUOUS
 62
     5
 10
-123.0063500786582
 20
642.2464954666406
 30
0.0
 11
-123.0063500786582
 21
597.6768104272721
 31
0.0
  0
LINE
  5
40D
  8
回08-記事
  6
CONTINUOUS
 62
     5
 10
-123.0063500786582
 20
662.9964954666402
 30
0.0
 11
-123.0063500786582
 21
644.2464954666406
 31
0.0
  0
LINE
  5
40E
  8
回08-記事
  6
CONTINUOUS
 62
     5
 10
-123.0063500786582
 20
664.9964954666402
 30
0.0
 11
-123.0063500786582
 21
666.9964954666402
 31
0.0
  0
INSERT
  5
40F
  8
回08-記事
  6
CONTINUOUS
 62
     5
  2
_OPEN
 10
-123.0063500786582
 20
662.9964954666402
 30
0.0
 41
2.0
 42
2.0
 43
2.0
 50
270.0
  0
INSERT
  5
410
  8
回08-記事
  6
CONTINUOUS
 62
     5
  2
_OPEN
 10
-123.0063500786582
 20
644.2464954666406
 30
0.0
 41
2.0
 42
2.0
 43
2.0
 50
90.0
  0
INSERT
  5
411
  8
回08-記事
  6
CONTINUOUS
 62
     5
 66
     1
  2
*X848484
 10
0.0
 20
0.0
 30
0.0
  0
SEQEND
  5
647
  8
回07-寸法
  6
CONTINUOUS
 62
     5
  0
POINT
  5
412
  8
DEFPOINTS
  6
CONTINUOUS
 62
     0
 10
-89.31679283465106
 20
662.9964954666402
 30
0.0
  0
POINT
  5
413
  8
DEFPOINTS
  6
CONTINUOUS
 62
     0
 10
-89.31679283465106
 20
644.2464954666406
 30
0.0
  0
POINT
  5
414
  8
DEFPOINTS
  6
CONTINUOUS
 62
     0
 10
-123.0063500786582
 20
644.2464954666406
 30
0.0
  0
ENDBLK
  5
416
  8
回07-寸法
  6
CONTINUOUS
 62
     5
  0
BLOCK
  8
回07-寸法
  2
*D404040
 70
     1
 10
0.0
 20
0.0
 30
0.0
  3
*D404040
  1

  0
LINE
  5
418
  8
回07-寸法
  6
CONTINUOUS
 62
     5
 10
-33.81361943532648
 20
701.0542565844258
 30
0.0
 11
-33.81361943532648
 21
690.6525238105258
 31
0.0
  0
LINE
  5
41A
  8
回07-寸法
  6
CONTINUOUS
 62
     5
 10
-38.2036194353268
 20
703.9253243962917
 30
0.0
 11
-38.2036194353268
 21
690.6525238105258
 31
0.0
  0
LINE
  5
41B
  8
回07-寸法
  6
CONTINUOUS
 62
     5
 10
-40.20361943532679
 20
691.6525238105258
 30
0.0
 11
-73.83634676521973
 21
691.6525238105258
 31
0.0
  0
LINE
  5
41C
  8
回07-寸法
  6
CONTINUOUS
 62
     5
 10
-33.81361943532648
 20
691.6525238105258
 30
0.0
 11
-38.2036194353268
 21
691.6525238105258
 31
0.0
  0
LINE
  5
41D
  8
回07-寸法
  6
CONTINUOUS
 62
     5
 10
-31.81361943532647
 20
691.6525238105258
 30
0.0
 11
-29.81361943532647
 21
691.6525238105258
 31
0.0
  0
INSERT
  5
41E
  8
回07-寸法
  6
CONTINUOUS
 62
     5
  2
_OPEN
 10
-33.81361943532648
 20
691.6525238105258
 30
0.0
 41
2.0
 42
2.0
 43
2.0
 50
180.0
  0
INSERT
  5
41F
  8
回07-寸法
  6
CONTINUOUS
 62
     5
  2
_OPEN
 10
-38.2036194353268
 20
691.6525238105258
 30
0.0
 41
2.0
 42
2.0
 43
2.0
  0
TEXT
  5
420
  8
回07-寸法
  6
CONTINUOUS
 62
     5
 10
-73.93634676521974
 20
692.3525238105257
 30
0.0
 40
4.0
  1
4.39 [0.173]
  0
POINT
  5
421
  8
DEFPOINTS
  6
CONTINUOUS
 62
     0
 10
-33.81361943532648
 20
701.0542565844258
 30
0.0
  0
POINT
  5
422
  8
DEFPOINTS
  6
CONTINUOUS
 62
     0
 10
-38.2036194353268
 20
703.9253243962917
 30
0.0
  0
POINT
  5
423
  8
DEFPOINTS
  6
CONTINUOUS
 62
     0
 10
-38.2036194353268
 20
691.6525238105258
 30
0.0
  0
ENDBLK
  5
425
  8
回07-寸法
  6
CONTINUOUS
 62
     5
  0
BLOCK
  8
回07-寸法
  2
*D414141
 70
     1
 10
0.0
 20
0.0
 30
0.0
  3
*D414141
  1

  0
LINE
  5
427
  8
回07-寸法
  6
CONTINUOUS
 62
     5
 10
229.1863805646735
 20
611.4253243962918
 30
0.0
 11
262.6879884968403
 21
611.4253243962918
 31
0.0
  0
LINE
  5
428
  8
回07-寸法
  6
CONTINUOUS
 62
     5
 10
227.7748503538969
 20
711.9253243962917
 30
0.0
 11
262.6879884968403
 21
711.9253243962917
 31
0.0
  0
LINE
  5
429
  8
回07-寸法
  6
CONTINUOUS
 62
     5
 10
261.6879884968402
 20
613.4253243962919
 30
0.0
 11
261.6879884968402
 21
709.9253243962918
 31
0.0
  0
INSERT
  5
42A
  8
回07-寸法
  6
CONTINUOUS
 62
     5
  2
_OPEN
 10
261.6879884968402
 20
611.4253243962918
 30
0.0
 41
2.0
 42
2.0
 43
2.0
 50
270.0
  0
INSERT
  5
42B
  8
回07-寸法
  6
CONTINUOUS
 62
     5
  2
_OPEN
 10
261.6879884968402
 20
711.9253243962917
 30
0.0
 41
2.0
 42
2.0
 43
2.0
 50
90.0
  0
TEXT
  5
42C
  8
回07-寸法
  6
CONTINUOUS
 62
     5
 10
260.9879884968403
 20
619.2641817827522
 30
0.0
 40
4.0
  1
100.5 [3.957] (ACTIVE AREA CENTER)
 50
90.0
  0
POINT
  5
42D
  8
DEFPOINTS
  6
CONTINUOUS
 62
     0
 10
229.1863805646735
 20
611.4253243962918
 30
0.0
  0
POINT
  5
42E
  8
DEFPOINTS
  6
CONTINUOUS
 62
     0
 10
227.7748503538969
 20
711.9253243962917
 30
0.0
  0
POINT
  5
42F
  8
DEFPOINTS
  6
CONTINUOUS
 62
     0
 10
261.6879884968402
 20
711.9253243962917
 30
0.0
  0
ENDBLK
  5
431
  8
回07-寸法
  6
CONTINUOUS
 62
     5
  0
BLOCK
  8
回07-寸法
  2
*D424242
 70
     1
 10
0.0
 20
0.0
 30
0.0
  3
*D424242
  1

  0
LINE
  5
433
  8
回08-記事
  6
CONTINUOUS
 62
     5
 10
-90.81679283465106
 20
649.1964954666421
 30
0.0
 11
-97.57554122443799
 21
649.1964954666421
 31
0.0
  0
LINE
  5
434
  8
回08-記事
  6
CONTINUOUS
 62
     5
 10
-90.81679283465106
 20
646.7964954666427
 30
0.0
 11
-97.57554122443799
 21
646.7964954666427
 31
0.0
  0
LINE
  5
435
  8
回08-記事
  6
CONTINUOUS
 62
     5
 10
-96.57554122443798
 20
644.7964954666425
 30
0.0
 11
-96.57554122443798
 21
590.2964954666425
 31
0.0
  0
LINE
  5
436
  8
回08-記事
  6
CONTINUOUS
 62
     5
 10
-96.57554122443798
 20
649.1964954666421
 30
0.0
 11
-96.57554122443798
 21
646.7964954666427
 31
0.0
  0
LINE
  5
437
  8
回08-記事
  6
CONTINUOUS
 62
     5
 10
-96.57554122443798
 20
651.1964954666422
 30
0.0
 11
-96.57554122443798
 21
653.1964954666421
 31
0.0
  0
INSERT
  5
438
  8
回08-記事
  6
CONTINUOUS
 62
     5
  2
_OPEN
 10
-96.57554122443798
 20
649.1964954666421
 30
0.0
 41
2.0
 42
2.0
 43
2.0
 50
270.0
  0
INSERT
  5
439
  8
回08-記事
  6
CONTINUOUS
 62
     5
  2
_OPEN
 10
-96.57554122443798
 20
646.7964954666427
 30
0.0
 41
2.0
 42
2.0
 43
2.0
 50
90.0
  0
INSERT
  5
43A
  8
回08-記事
  6
CONTINUOUS
 62
     5
 66
     1
  2
*X858585
 10
0.0
 20
0.0
 30
0.0
  0
SEQEND
  5
650
  8
回07-寸法
  6
CONTINUOUS
 62
     5
  0
POINT
  5
43B
  8
DEFPOINTS
  6
CONTINUOUS
 62
     0
 10
-90.81679283465106
 20
649.1964954666421
 30
0.0
  0
POINT
  5
43C
  8
DEFPOINTS
  6
CONTINUOUS
 62
     0
 10
-90.81679283465106
 20
646.7964954666427
 30
0.0
  0
POINT
  5
43D
  8
DEFPOINTS
  6
CONTINUOUS
 62
     0
 10
-96.57554122443798
 20
646.7964954666427
 30
0.0
  0
ENDBLK
  5
43F
  8
回07-寸法
  6
CONTINUOUS
 62
     5
  0
BLOCK
  8
回07-寸法
  2
*D434343
 70
     1
 10
0.0
 20
0.0
 30
0.0
  3
*D434343
  1

  0
LINE
  5
441
  8
回08-記事
  6
CONTINUOUS
 62
     5
 10
-90.81679283465106
 20
651.7464954666425
 30
0.0
 11
-105.9791954579568
 21
651.7464954666425
 31
0.0
  0
LINE
  5
442
  8
回08-記事
  6
CONTINUOUS
 62
     5
 10
-90.81679283465106
 20
647.9964954666423
 30
0.0
 11
-105.9791954579568
 21
647.9964954666423
 31
0.0
  0
LINE
  5
443
  8
回08-記事
  6
CONTINUOUS
 62
     5
 10
-104.9791954579568
 20
645.9964954666425
 30
0.0
 11
-104.9791954579568
 21
600.7820539925346
 31
0.0
  0
LINE
  5
444
  8
回08-記事
  6
CONTINUOUS
 62
     5
 10
-104.9791954579568
 20
651.7464954666425
 30
0.0
 11
-104.9791954579568
 21
647.9964954666423
 31
0.0
  0
LINE
  5
445
  8
回08-記事
  6
CONTINUOUS
 62
     5
 10
-104.9791954579568
 20
653.7464954666424
 30
0.0
 11
-104.9791954579568
 21
655.7464954666425
 31
0.0
  0
INSERT
  5
446
  8
回08-記事
  6
CONTINUOUS
 62
     5
  2
_OPEN
 10
-104.9791954579568
 20
651.7464954666425
 30
0.0
 41
2.0
 42
2.0
 43
2.0
 50
270.0
  0
INSERT
  5
447
  8
回08-記事
  6
CONTINUOUS
 62
     5
  2
_OPEN
 10
-104.9791954579568
 20
647.9964954666423
 30
0.0
 41
2.0
 42
2.0
 43
2.0
 50
90.0
  0
INSERT
  5
448
  8
回08-記事
  6
CONTINUOUS
 62
     5
 66
     1
  2
*X868686
 10
0.0
 20
0.0
 30
0.0
  0
SEQEND
  5
659
  8
回07-寸法
  6
CONTINUOUS
 62
     5
  0
POINT
  5
449
  8
DEFPOINTS
  6
CONTINUOUS
 62
     0
 10
-90.81679283465106
 20
651.7464954666425
 30
0.0
  0
POINT
  5
44A
  8
DEFPOINTS
  6
CONTINUOUS
 62
     0
 10
-90.81679283465106
 20
647.9964954666423
 30
0.0
  0
POINT
  5
44B
  8
DEFPOINTS
  6
CONTINUOUS
 62
     0
 10
-104.9791954579568
 20
647.9964954666423
 30
0.0
  0
ENDBLK
  5
44D
  8
回07-寸法
  6
CONTINUOUS
 62
     5
  0
BLOCK
  8
回07-寸法
  2
*D444444
 70
     1
 10
0.0
 20
0.0
 30
0.0
  3
*D444444
  1

  0
LINE
  5
44F
  8
回08-記事
  6
CONTINUOUS
 62
     5
 10
-90.81679283465106
 20
659.2464954666425
 30
0.0
 11
-115.3347845811313
 21
659.2464954666425
 31
0.0
  0
LINE
  5
450
  8
回08-記事
  6
CONTINUOUS
 62
     5
 10
-90.81679283465106
 20
647.9964954666423
 30
0.0
 11
-115.3347845811313
 21
647.9964954666423
 31
0.0
  0
LINE
  5
451
  8
回08-記事
  6
CONTINUOUS
 62
     5
 10
-114.3347845811313
 20
645.9964954666425
 30
0.0
 11
-114.3347845811313
 21
601.0964954666424
 31
0.0
  0
LINE
  5
452
  8
回08-記事
  6
CONTINUOUS
 62
     5
 10
-114.3347845811313
 20
659.2464954666425
 30
0.0
 11
-114.3347845811313
 21
647.9964954666423
 31
0.0
  0
LINE
  5
453
  8
回08-記事
  6
CONTINUOUS
 62
     5
 10
-114.3347845811313
 20
661.2464954666425
 30
0.0
 11
-114.3347845811313
 21
663.2464954666422
 31
0.0
  0
INSERT
  5
454
  8
回08-記事
  6
CONTINUOUS
 62
     5
  2
_OPEN
 10
-114.3347845811313
 20
659.2464954666425
 30
0.0
 41
2.0
 42
2.0
 43
2.0
 50
270.0
  0
INSERT
  5
455
  8
回08-記事
  6
CONTINUOUS
 62
     5
  2
_OPEN
 10
-114.3347845811313
 20
647.9964954666423
 30
0.0
 41
2.0
 42
2.0
 43
2.0
 50
90.0
  0
INSERT
  5
456
  8
回08-記事
  6
CONTINUOUS
 62
     5
 66
     1
  2
*X878787
 10
0.0
 20
0.0
 30
0.0
  0
SEQEND
  5
662
  8
回07-寸法
  6
CONTINUOUS
 62
     5
  0
POINT
  5
457
  8
DEFPOINTS
  6
CONTINUOUS
 62
     0
 10
-90.81679283465106
 20
659.2464954666425
 30
0.0
  0
POINT
  5
458
  8
DEFPOINTS
  6
CONTINUOUS
 62
     0
 10
-90.81679283465106
 20
647.9964954666423
 30
0.0
  0
POINT
  5
459
  8
DEFPOINTS
  6
CONTINUOUS
 62
     0
 10
-114.3347845811313
 20
647.9964954666423
 30
0.0
  0
ENDBLK
  5
45B
  8
回07-寸法
  6
CONTINUOUS
 62
     5
  0
BLOCK
  8
回07-寸法
  2
*D454545
 70
     1
 10
0.0
 20
0.0
 30
0.0
  3
*D454545
  1

  0
LINE
  5
45D
  8
回07-寸法
  6
CONTINUOUS
 62
     5
 10
229.1863805646735
 20
617.1753243962919
 30
0.0
 11
239.2153108591856
 21
617.1753243962919
 31
0.0
  0
LINE
  5
45E
  8
回07-寸法
  6
CONTINUOUS
 62
     5
 10
229.1863805646735
 20
619.1753243962919
 30
0.0
 11
239.2153108591856
 21
619.1753243962919
 31
0.0
  0
LINE
  5
45F
  8
回07-寸法
  6
CONTINUOUS
 62
     5
 10
238.2153108591856
 20
621.1753243962919
 30
0.0
 11
238.2153108591856
 21
646.9866162641007
 31
0.0
  0
LINE
  5
460
  8
回07-寸法
  6
CONTINUOUS
 62
     5
 10
238.2153108591856
 20
617.1753243962919
 30
0.0
 11
238.2153108591856
 21
619.1753243962919
 31
0.0
  0
LINE
  5
461
  8
回07-寸法
  6
CONTINUOUS
 62
     5
 10
238.2153108591856
 20
615.1753243962919
 30
0.0
 11
238.2153108591856
 21
613.1753243962918
 31
0.0
  0
INSERT
  5
462
  8
回07-寸法
  6
CONTINUOUS
 62
     5
  2
_OPEN
 10
238.2153108591856
 20
617.1753243962919
 30
0.0
 41
2.0
 42
2.0
 43
2.0
 50
90.0
  0
INSERT
  5
463
  8
回07-寸法
  6
CONTINUOUS
 62
     5
  2
_OPEN
 10
238.2153108591856
 20
619.1753243962919
 30
0.0
 41
2.0
 42
2.0
 43
2.0
 50
270.0
  0
TEXT
  5
464
  8
回07-寸法
  6
CONTINUOUS
 62
     5
 10
237.5153108591856
 20
623.0737495931422
 30
0.0
 40
4.0
  1
(2 [0.079])
 50
90.0
  0
POINT
  5
465
  8
DEFPOINTS
  6
CONTINUOUS
 62
     0
 10
229.1863805646735
 20
617.1753243962919
 30
0.0
  0
POINT
  5
466
  8
DEFPOINTS
  6
CONTINUOUS
 62
     0
 10
229.1863805646735
 20
619.1753243962919
 30
0.0
  0
POINT
  5
467
  8
DEFPOINTS
  6
CONTINUOUS
 62
     0
 10
238.2153108591856
 20
619.1753243962919
 30
0.0
  0
ENDBLK
  5
469
  8
回07-寸法
  6
CONTINUOUS
 62
     5
  0
BLOCK
  8
回07-寸法
  2
*D464646
 70
     1
 10
0.0
 20
0.0
 30
0.0
  3
*D464646
  1

  0
LINE
  5
46B
  8
回07-寸法
  6
CONTINUOUS
 62
     5
 10
229.1863805646735
 20
617.1753243962919
 30
0.0
 11
243.9513810181643
 21
617.1753243962919
 31
0.0
  0
LINE
  5
46C
  8
回07-寸法
  6
CONTINUOUS
 62
     5
 10
229.1863805646735
 20
611.4253243962918
 30
0.0
 11
243.9513810181643
 21
611.4253243962918
 31
0.0
  0
LINE
  5
46D
  8
回07-寸法
  6
CONTINUOUS
 62
     5
 10
242.9513810181644
 20
609.4253243962919
 30
0.0
 11
242.9513810181644
 21
576.8284740025911
 31
0.0
  0
LINE
  5
46E
  8
回07-寸法
  6
CONTINUOUS
 62
     5
 10
242.9513810181644
 20
617.1753243962919
 30
0.0
 11
242.9513810181644
 21
611.4253243962918
 31
0.0
  0
LINE
  5
46F
  8
回07-寸法
  6
CONTINUOUS
 62
     5
 10
242.9513810181644
 20
619.1753243962919
 30
0.0
 11
242.9513810181644
 21
621.1753243962919
 31
0.0
  0
INSERT
  5
470
  8
回07-寸法
  6
CONTINUOUS
 62
     5
  2
_OPEN
 10
242.9513810181644
 20
617.1753243962919
 30
0.0
 41
2.0
 42
2.0
 43
2.0
 50
270.0
  0
INSERT
  5
471
  8
回07-寸法
  6
CONTINUOUS
 62
     5
  2
_OPEN
 10
242.9513810181644
 20
611.4253243962918
 30
0.0
 41
2.0
 42
2.0
 43
2.0
 50
90.0
  0
TEXT
  5
472
  8
回07-寸法
  6
CONTINUOUS
 62
     5
 10
242.2513810181643
 20
576.7268991994415
 30
0.0
 40
4.0
  1
(5.75 [0.226])
 50
90.0
  0
POINT
  5
473
  8
DEFPOINTS
  6
CONTINUOUS
 62
     0
 10
229.1863805646735
 20
617.1753243962919
 30
0.0
  0
POINT
  5
474
  8
DEFPOINTS
  6
CONTINUOUS
 62
     0
 10
229.1863805646735
 20
611.4253243962918
 30
0.0
  0
POINT
  5
475
  8
DEFPOINTS
  6
CONTINUOUS
 62
     0
 10
242.9513810181644
 20
611.4253243962918
 30
0.0
  0
ENDBLK
  5
477
  8
回07-寸法
  6
CONTINUOUS
 62
     5
  0
BLOCK
  8
回07-寸法
  2
*D474747
 70
     1
 10
0.0
 20
0.0
 30
0.0
  3
*D474747
  1

  0
LINE
  5
479
  8
回07-寸法
  6
CONTINUOUS
 62
     5
 10
224.1863805646735
 20
617.6753243962918
 30
0.0
 11
281.5555146980823
 21
617.6753243962918
 31
0.0
  0
LINE
  5
47A
  8
回07-寸法
  6
CONTINUOUS
 62
     5
 10
229.1863805646735
 20
611.4253243962918
 30
0.0
 11
281.5555146980823
 21
611.4253243962918
 31
0.0
  0
LINE
  5
47B
  8
回07-寸法
  6
CONTINUOUS
 62
     5
 10
280.5555146980823
 20
609.4253243962919
 30
0.0
 11
280.5555146980823
 21
579.5056393569232
 31
0.0
  0
LINE
  5
47C
  8
回07-寸法
  6
CONTINUOUS
 62
     5
 10
280.5555146980823
 20
617.6753243962918
 30
0.0
 11
280.5555146980823
 21
611.4253243962918
 31
0.0
  0
LINE
  5
47D
  8
回07-寸法
  6
CONTINUOUS
 62
     5
 10
280.5555146980823
 20
619.6753243962919
 30
0.0
 11
280.5555146980823
 21
621.6753243962918
 31
0.0
  0
INSERT
  5
47E
  8
回07-寸法
  6
CONTINUOUS
 62
     5
  2
_OPEN
 10
280.5555146980823
 20
617.6753243962918
 30
0.0
 41
2.0
 42
2.0
 43
2.0
 50
270.0
  0
INSERT
  5
47F
  8
回07-寸法
  6
CONTINUOUS
 62
     5
  2
_OPEN
 10
280.5555146980823
 20
611.4253243962918
 30
0.0
 41
2.0
 42
2.0
 43
2.0
 50
90.0
  0
TEXT
  5
480
  8
回07-寸法
  6
CONTINUOUS
 62
     5
 10
279.8555146980823
 20
579.4056393569231
 30
0.0
 40
4.0
  1
6.25 [0.246]
 50
90.0
  0
POINT
  5
481
  8
DEFPOINTS
  6
CONTINUOUS
 62
     0
 10
224.1863805646735
 20
617.6753243962918
 30
0.0
  0
POINT
  5
482
  8
DEFPOINTS
  6
CONTINUOUS
 62
     0
 10
229.1863805646735
 20
611.4253243962918
 30
0.0
  0
POINT
  5
483
  8
DEFPOINTS
  6
CONTINUOUS
 62
     0
 10
280.5555146980823
 20
611.4253243962918
 30
0.0
  0
ENDBLK
  5
485
  8
回07-寸法
  6
CONTINUOUS
 62
     5
  0
BLOCK
  8
回07-寸法
  2
*D484848
 70
     1
 10
0.0
 20
0.0
 30
0.0
  3
*D484848
  1

  0
LINE
  5
487
  8
回07-寸法
  6
CONTINUOUS
 62
     5
 10
222.6863805646735
 20
619.1753243962919
 30
0.0
 11
271.9739380349129
 21
619.1753243962919
 31
0.0
  0
LINE
  5
488
  8
回07-寸法
  6
CONTINUOUS
 62
     5
 10
229.1863805646726
 20
611.4253243962918
 30
0.0
 11
271.9739380349129
 21
611.4253243962918
 31
0.0
  0
LINE
  5
489
  8
回07-寸法
  6
CONTINUOUS
 62
     5
 10
270.9739380349128
 20
609.4253243962919
 30
0.0
 11
270.9739380349128
 21
580.0253243962917
 31
0.0
  0
LINE
  5
48A
  8
回07-寸法
  6
CONTINUOUS
 62
     5
 10
270.9739380349128
 20
619.1753243962919
 30
0.0
 11
270.9739380349128
 21
611.4253243962918
 31
0.0
  0
LINE
  5
48B
  8
回07-寸法
  6
CONTINUOUS
 62
     5
 10
270.9739380349128
 20
621.1753243962919
 30
0.0
 11
270.9739380349128
 21
623.1753243962919
 31
0.0
  0
INSERT
  5
48C
  8
回07-寸法
  6
CONTINUOUS
 62
     5
  2
_OPEN
 10
270.9739380349128
 20
619.1753243962919
 30
0.0
 41
2.0
 42
2.0
 43
2.0
 50
270.0
  0
INSERT
  5
48D
  8
回07-寸法
  6
CONTINUOUS
 62
     5
  2
_OPEN
 10
270.9739380349128
 20
611.4253243962918
 30
0.0
 41
2.0
 42
2.0
 43
2.0
 50
90.0
  0
TEXT
  5
48E
  8
回07-寸法
  6
CONTINUOUS
 62
     5
 10
270.2739380349128
 20
579.9253243962919
 30
0.0
 40
4.0
  1
7.75 [0.305]
 50
90.0
  0
POINT
  5
48F
  8
DEFPOINTS
  6
CONTINUOUS
 62
     0
 10
222.6863805646735
 20
619.1753243962919
 30
0.0
  0
POINT
  5
490
  8
DEFPOINTS
  6
CONTINUOUS
 62
     0
 10
229.1863805646726
 20
611.4253243962918
 30
0.0
  0
POINT
  5
491
  8
DEFPOINTS
  6
CONTINUOUS
 62
     0
 10
270.9739380349128
 20
611.4253243962918
 30
0.0
  0
ENDBLK
  5
493
  8
回07-寸法
  6
CONTINUOUS
 62
     5
  0
BLOCK
  8
回07-寸法
  2
*D494949
 70
     1
 10
0.0
 20
0.0
 30
0.0
  3
*D494949
  1

  0
LINE
  5
495
  8
回07-寸法
  6
CONTINUOUS
 62
     5
 10
-25.81361943532647
 20
806.1753243962918
 30
0.0
 11
-25.81361943532647
 21
839.5772996918381
 31
0.0
  0
LINE
  5
496
  8
回07-寸法
  6
CONTINUOUS
 62
     5
 10
-33.81361943532738
 20
812.4253243962918
 30
0.0
 11
-33.81361943532738
 21
839.5772996918381
 31
0.0
  0
LINE
  5
497
  8
回07-寸法
  6
CONTINUOUS
 62
     5
 10
-35.81361943532738
 20
838.5772996918381
 30
0.0
 11
-57.61361943532739
 21
838.5772996918381
 31
0.0
  0
LINE
  5
498
  8
回07-寸法
  6
CONTINUOUS
 62
     5
 10
-25.81361943532647
 20
838.5772996918381
 30
0.0
 11
-33.81361943532738
 21
838.5772996918381
 31
0.0
  0
LINE
  5
499
  8
回07-寸法
  6
CONTINUOUS
 62
     5
 10
-23.81361943532647
 20
838.5772996918381
 30
0.0
 11
-21.81361943532647
 21
838.5772996918381
 31
0.0
  0
INSERT
  5
49A
  8
回07-寸法
  6
CONTINUOUS
 62
     5
  2
_OPEN
 10
-25.81361943532647
 20
838.5772996918381
 30
0.0
 41
2.0
 42
2.0
 43
2.0
 50
180.0
  0
INSERT
  5
49B
  8
回07-寸法
  6
CONTINUOUS
 62
     5
  2
_OPEN
 10
-33.81361943532738
 20
838.5772996918381
 30
0.0
 41
2.0
 42
2.0
 43
2.0
  0
TEXT
  5
49C
  8
回07-寸法
  6
CONTINUOUS
 62
     5
 10
-57.71361943532738
 20
839.2772996918383
 30
0.0
 40
4.0
  1
8 [0.315]
  0
POINT
  5
49D
  8
DEFPOINTS
  6
CONTINUOUS
 62
     0
 10
-25.81361943532647
 20
806.1753243962918
 30
0.0
  0
POINT
  5
49E
  8
DEFPOINTS
  6
CONTINUOUS
 62
     0
 10
-33.81361943532738
 20
812.4253243962918
 30
0.0
  0
POINT
  5
49F
  8
DEFPOINTS
  6
CONTINUOUS
 62
     0
 10
-33.81361943532738
 20
838.5772996918381
 30
0.0
  0
ENDBLK
  5
4A1
  8
回07-寸法
  6
CONTINUOUS
 62
     5
  0
BLOCK
  8
回07-寸法
  2
*D505050
 70
     1
 10
0.0
 20
0.0
 30
0.0
  3
*D505050
  1

  0
LINE
  5
4A3
  8
回07-寸法
  6
CONTINUOUS
 62
     5
 10
-24.31361943532647
 20
804.6753243962918
 30
0.0
 11
-24.31361943532647
 21
829.9067895141522
 31
0.0
  0
LINE
  5
4A4
  8
回07-寸法
  6
CONTINUOUS
 62
     5
 10
-33.81361943532648
 20
812.4253243962918
 30
0.0
 11
-33.81361943532648
 21
829.9067895141522
 31
0.0
  0
LINE
  5
4A5
  8
回07-寸法
  6
CONTINUOUS
 62
     5
 10
-35.81361943532647
 20
828.9067895141522
 30
0.0
 11
-62.89646214780077
 21
828.9067895141522
 31
0.0
  0
LINE
  5
4A6
  8
回07-寸法
  6
CONTINUOUS
 62
     5
 10
-24.31361943532647
 20
828.9067895141522
 30
0.0
 11
-33.81361943532648
 21
828.9067895141522
 31
0.0
  0
LINE
  5
4A7
  8
回07-寸法
  6
CONTINUOUS
 62
     5
 10
-22.31361943532647
 20
828.9067895141522
 30
0.0
 11
-20.31361943532647
 21
828.9067895141522
 31
0.0
  0
INSERT
  5
4A8
  8
回07-寸法
  6
CONTINUOUS
 62
     5
  2
_OPEN
 10
-24.31361943532647
 20
828.9067895141522
 30
0.0
 41
2.0
 42
2.0
 43
2.0
 50
180.0
  0
INSERT
  5
4A9
  8
回07-寸法
  6
CONTINUOUS
 62
     5
  2
_OPEN
 10
-33.81361943532648
 20
828.9067895141522
 30
0.0
 41
2.0
 42
2.0
 43
2.0
  0
TEXT
  5
4AA
  8
回07-寸法
  6
CONTINUOUS
 62
     5
 10
-63.0109036219087
 20
829.6067895141522
 30
0.0
 40
4.0
  1
9.5 [0.374]
  0
POINT
  5
4AB
  8
DEFPOINTS
  6
CONTINUOUS
 62
     0
 10
-24.31361943532647
 20
804.6753243962918
 30
0.0
  0
POINT
  5
4AC
  8
DEFPOINTS
  6
CONTINUOUS
 62
     0
 10
-33.81361943532648
 20
812.4253243962918
 30
0.0
  0
POINT
  5
4AD
  8
DEFPOINTS
  6
CONTINUOUS
 62
     0
 10
-33.81361943532648
 20
828.9067895141522
 30
0.0
  0
ENDBLK
  5
4AF
  8
回07-寸法
  6
CONTINUOUS
 62
     5
  0
BLOCK
  8
回07-寸法
  2
*D515151
 70
     1
 10
0.0
 20
0.0
 30
0.0
  3
*D515151
  1

  0
LINE
  5
4B1
  8
回07-寸法
 62
     5
 10
-33.81361943532738
 20
812.4253243962918
 30
0.0
 11
-33.81361943532738
 21
858.8329901384984
 31
0.0
  0
LINE
  5
4B2
  8
回07-寸法
 62
     5
 10
229.1863805646726
 20
812.4253243962918
 30
0.0
 11
229.1863805646726
 21
858.8329901384984
 31
0.0
  0
LINE
  5
4B3
  8
回07-寸法
 62
     5
 10
-31.81361943532738
 20
857.8329901384984
 30
0.0
 11
227.1863805646726
 21
857.8329901384984
 31
0.0
  0
INSERT
  5
4B4
  8
回07-寸法
  6
CONTINUOUS
 62
     5
  2
_OPEN
 10
-33.81361943532738
 20
857.8329901384984
 30
0.0
 41
2.0
 42
2.0
 43
2.0
 50
180.0
  0
INSERT
  5
4B5
  8
回07-寸法
  6
CONTINUOUS
 62
     5
  2
_OPEN
 10
229.1863805646726
 20
857.8329901384984
 30
0.0
 41
2.0
 42
2.0
 43
2.0
  0
INSERT
  5
4B6
  8
回07-寸法
  6
CONTINUOUS
 62
     5
 66
     1
  2
*X888888
 10
0.0
 20
0.0
 30
0.0
  0
SEQEND
  5
66B
  8
回07-寸法
  6
CONTINUOUS
 62
     5
  0
POINT
  5
4B7
  8
DEFPOINTS
  6
CONTINUOUS
 62
     0
 10
-33.81361943532738
 20
812.4253243962918
 30
0.0
  0
POINT
  5
4B8
  8
DEFPOINTS
  6
CONTINUOUS
 62
     0
 10
229.1863805646726
 20
812.4253243962918
 30
0.0
  0
POINT
  5
4B9
  8
DEFPOINTS
  6
CONTINUOUS
 62
     0
 10
229.1863805646726
 20
857.8329901384984
 30
0.0
  0
ENDBLK
  5
4BB
  8
回07-寸法
  6
CONTINUOUS
 62
     5
  0
BLOCK
  8
回07-寸法
  2
*D525252
 70
     1
 10
0.0
 20
0.0
 30
0.0
  3
*D525252
  1

  0
LINE
  5
4BD
  8
回07-寸法
 62
     5
 10
-25.81361943532647
 20
806.1753243962918
 30
0.0
 11
-25.81361943532647
 21
839.5772996918381
 31
0.0
  0
LINE
  5
4BE
  8
回07-寸法
 62
     5
 10
224.1863805646726
 20
806.1753243962918
 30
0.0
 11
224.1863805646726
 21
839.5772996918381
 31
0.0
  0
LINE
  5
4BF
  8
回07-寸法
 62
     5
 10
-23.81361943532647
 20
838.5772996918381
 30
0.0
 11
222.1863805646726
 21
838.5772996918381
 31
0.0
  0
INSERT
  5
4C0
  8
回07-寸法
  6
CONTINUOUS
 62
     5
  2
_OPEN
 10
-25.81361943532647
 20
838.5772996918381
 30
0.0
 41
2.0
 42
2.0
 43
2.0
 50
180.0
  0
INSERT
  5
4C1
  8
回07-寸法
  6
CONTINUOUS
 62
     5
  2
_OPEN
 10
224.1863805646726
 20
838.5772996918381
 30
0.0
 41
2.0
 42
2.0
 43
2.0
  0
TEXT
  5
4C2
  8
回07-寸法
  6
CONTINUOUS
 62
     5
 10
69.11961049350381
 20
839.2772996918383
 30
0.0
 40
4.0
  1
250 [9.843] (VIEWING AREA)
  0
POINT
  5
4C3
  8
DEFPOINTS
  6
CONTINUOUS
 62
     0
 10
-25.81361943532647
 20
806.1753243962918
 30
0.0
  0
POINT
  5
4C4
  8
DEFPOINTS
  6
CONTINUOUS
 62
     0
 10
224.1863805646726
 20
806.1753243962918
 30
0.0
  0
POINT
  5
4C5
  8
DEFPOINTS
  6
CONTINUOUS
 62
     0
 10
224.1863805646726
 20
838.5772996918381
 30
0.0
  0
ENDBLK
  5
4C7
  8
回07-寸法
  6
CONTINUOUS
 62
     5
  0
BLOCK
  8
回07-寸法
  2
*D535353
 70
     1
 10
0.0
 20
0.0
 30
0.0
  3
*D535353
  1

  0
LINE
  5
4C9
  8
回07-寸法
 62
     5
 10
-24.31361943532647
 20
804.6753243962918
 30
0.0
 11
-24.31361943532647
 21
829.9067895141522
 31
0.0
  0
LINE
  5
4CA
  8
回07-寸法
 62
     5
 10
222.6863805646735
 20
804.6753243962918
 30
0.0
 11
222.6863805646735
 21
829.9067895141522
 31
0.0
  0
LINE
  5
4CB
  8
回07-寸法
 62
     5
 10
-22.31361943532647
 20
828.9067895141522
 30
0.0
 11
220.6863805646735
 21
828.9067895141522
 31
0.0
  0
INSERT
  5
4CC
  8
回07-寸法
  6
CONTINUOUS
 62
     5
  2
_OPEN
 10
-24.31361943532647
 20
828.9067895141522
 30
0.0
 41
2.0
 42
2.0
 43
2.0
 50
180.0
  0
INSERT
  5
4CD
  8
回07-寸法
  6
CONTINUOUS
 62
     5
  2
_OPEN
 10
222.6863805646735
 20
828.9067895141522
 30
0.0
 41
2.0
 42
2.0
 43
2.0
  0
TEXT
  5
4CE
  8
回07-寸法
  6
CONTINUOUS
 62
     5
 10
69.69895091585154
 20
829.6067895141522
 30
0.0
 40
4.0
  1
247 [9.724] (ACTIVE AREA)
  0
POINT
  5
4CF
  8
DEFPOINTS
  6
CONTINUOUS
 62
     0
 10
-24.31361943532647
 20
804.6753243962918
 30
0.0
  0
POINT
  5
4D0
  8
DEFPOINTS
  6
CONTINUOUS
 62
     0
 10
222.6863805646735
 20
804.6753243962918
 30
0.0
  0
POINT
  5
4D1
  8
DEFPOINTS
  6
CONTINUOUS
 62
     0
 10
222.6863805646735
 20
828.9067895141522
 30
0.0
  0
ENDBLK
  5
4D3
  8
回07-寸法
  6
CONTINUOUS
 62
     5
  0
BLOCK
  8
回07-寸法
  2
*D545454
 70
     1
 10
0.0
 20
0.0
 30
0.0
  3
*D545454
  1

  0
LINE
  5
4D5
  8
回07-寸法
  6
CONTINUOUS
 62
     5
 10
-33.81361943532738
 20
812.4253243962918
 30
0.0
 11
-33.81361943532738
 21
819.8158220915845
 31
0.0
  0
LINE
  5
4D6
  8
回07-寸法
  6
CONTINUOUS
 62
     5
 10
99.18638056467351
 20
811.1877824682256
 30
0.0
 11
99.18638056467351
 21
819.8158220915845
 31
0.0
  0
LINE
  5
4D7
  8
回07-寸法
  6
CONTINUOUS
 62
     5
 10
-31.81361943532738
 20
818.8158220915845
 30
0.0
 11
97.18638056467352
 21
818.8158220915845
 31
0.0
  0
INSERT
  5
4D8
  8
回07-寸法
  6
CONTINUOUS
 62
     5
  2
_OPEN
 10
-33.81361943532738
 20
818.8158220915845
 30
0.0
 41
2.0
 42
2.0
 43
2.0
 50
180.0
  0
INSERT
  5
4D9
  8
回07-寸法
  6
CONTINUOUS
 62
     5
  2
_OPEN
 10
99.18638056467351
 20
818.8158220915845
 30
0.0
 41
2.0
 42
2.0
 43
2.0
  0
TEXT
  5
4DA
  8
回07-寸法
  6
CONTINUOUS
 62
     5
 10
-6.158611742067463
 20
819.5158220915846
 30
0.0
 40
4.0
  1
133 [5.236] (ACTIVE AERA CENTER)
  0
POINT
  5
4DB
  8
DEFPOINTS
  6
CONTINUOUS
 62
     0
 10
-33.81361943532738
 20
812.4253243962918
 30
0.0
  0
POINT
  5
4DC
  8
DEFPOINTS
  6
CONTINUOUS
 62
     0
 10
99.18638056467351
 20
811.1877824682256
 30
0.0
  0
POINT
  5
4DD
  8
DEFPOINTS
  6
CONTINUOUS
 62
     0
 10
99.18638056467351
 20
818.8158220915845
 30
0.0
  0
ENDBLK
  5
4DF
  8
回07-寸法
  6
CONTINUOUS
 62
     5
  0
BLOCK
  8
回07-寸法
  2
*D555555
 70
     1
 10
0.0
 20
0.0
 30
0.0
  3
*D555555
  1

  0
LINE
  5
4E1
  8
回07-寸法
 62
     5
 10
-113.3136194353255
 20
715.0503243962917
 30
0.0
 11
-123.6340699420625
 21
715.0503243962917
 31
0.0
  0
LINE
  5
4E2
  8
回07-寸法
 62
     5
 10
-113.3136194353255
 20
708.8003243962917
 30
0.0
 11
-123.6340699420625
 21
708.8003243962917
 31
0.0
  0
LINE
  5
4E3
  8
回07-寸法
 62
     5
 10
-122.6340699420625
 20
706.8003243962916
 30
0.0
 11
-122.6340699420625
 21
676.8806393569231
 31
0.0
  0
LINE
  5
4E4
  8
回07-寸法
 62
     5
 10
-122.6340699420625
 20
715.0503243962917
 30
0.0
 11
-122.6340699420625
 21
708.8003243962917
 31
0.0
  0
LINE
  5
4E5
  8
回07-寸法
 62
     5
 10
-122.6340699420625
 20
717.0503243962916
 30
0.0
 11
-122.6340699420625
 21
719.0503243962917
 31
0.0
  0
INSERT
  5
4E6
  8
回07-寸法
  6
CONTINUOUS
 62
     5
  2
_OPEN
 10
-122.6340699420625
 20
715.0503243962917
 30
0.0
 41
2.0
 42
2.0
 43
2.0
 50
270.0
  0
INSERT
  5
4E7
  8
回07-寸法
  6
CONTINUOUS
 62
     5
  2
_OPEN
 10
-122.6340699420625
 20
708.8003243962917
 30
0.0
 41
2.0
 42
2.0
 43
2.0
 50
90.0
  0
TEXT
  5
4E8
  8
回07-寸法
  6
CONTINUOUS
 62
     5
 10
-123.3340699420625
 20
676.7806393569231
 30
0.0
 40
4.0
  1
6.25 [0.246]
 50
90.0
  0
POINT
  5
4E9
  8
DEFPOINTS
  6
CONTINUOUS
 62
     0
 10
-113.3136194353255
 20
715.0503243962917
 30
0.0
  0
POINT
  5
4EA
  8
DEFPOINTS
  6
CONTINUOUS
 62
     0
 10
-113.3136194353255
 20
708.8003243962917
 30
0.0
  0
POINT
  5
4EB
  8
DEFPOINTS
  6
CONTINUOUS
 62
     0
 10
-122.6340699420625
 20
708.8003243962917
 30
0.0
  0
ENDBLK
  5
4ED
  8
回07-寸法
  6
CONTINUOUS
 62
     5
  0
BLOCK
  8
回07-寸法
  2
*D565656
 70
     1
 10
0.0
 20
0.0
 30
0.0
  3
*D565656
  1

  0
LINE
  5
4EF
  8
回07-寸法
  6
CONTINUOUS
 62
     5
 10
-33.81361943532648
 20
701.0542565844258
 30
0.0
 11
-33.81361943532648
 21
681.5759017006111
 31
0.0
  0
LINE
  5
4F0
  8
回07-寸法
  6
CONTINUOUS
 62
     5
 10
-43.2136194353261
 20
708.6572428110067
 30
0.0
 11
-43.2136194353261
 21
681.5759017006111
 31
0.0
  0
LINE
  5
4F1
  8
回07-寸法
  6
CONTINUOUS
 62
     5
 10
-45.2136194353261
 20
682.5759017006112
 30
0.0
 11
-72.29646214780041
 21
682.5759017006112
 31
0.0
  0
LINE
  5
4F2
  8
回07-寸法
  6
CONTINUOUS
 62
     5
 10
-33.81361943532648
 20
682.5759017006112
 30
0.0
 11
-43.2136194353261
 21
682.5759017006112
 31
0.0
  0
LINE
  5
4F3
  8
回07-寸法
  6
CONTINUOUS
 62
     5
 10
-31.81361943532647
 20
682.5759017006112
 30
0.0
 11
-29.81361943532647
 21
682.5759017006112
 31
0.0
  0
INSERT
  5
4F4
  8
回07-寸法
  6
CONTINUOUS
 62
     5
  2
_OPEN
 10
-33.81361943532648
 20
682.5759017006112
 30
0.0
 41
2.0
 42
2.0
 43
2.0
 50
180.0
  0
INSERT
  5
4F5
  8
回07-寸法
  6
CONTINUOUS
 62
     5
  2
_OPEN
 10
-43.2136194353261
 20
682.5759017006112
 30
0.0
 41
2.0
 42
2.0
 43
2.0
  0
TEXT
  5
4F6
  8
回07-寸法
  6
CONTINUOUS
 62
     5
 10
-72.41090362190833
 20
683.2759017006112
 30
0.0
 40
4.0
  1
9.4 [0.370]
  0
POINT
  5
4F7
  8
DEFPOINTS
  6
CONTINUOUS
 62
     0
 10
-33.81361943532648
 20
701.0542565844258
 30
0.0
  0
POINT
  5
4F8
  8
DEFPOINTS
  6
CONTINUOUS
 62
     0
 10
-43.2136194353261
 20
708.6572428110067
 30
0.0
  0
POINT
  5
4F9
  8
DEFPOINTS
  6
CONTINUOUS
 62
     0
 10
-43.2136194353261
 20
682.5759017006112
 30
0.0
  0
ENDBLK
  5
4FB
  8
回07-寸法
  6
CONTINUOUS
 62
     5
  0
BLOCK
  8
回07-寸法
  2
*D575757
 70
     1
 10
0.0
 20
0.0
 30
0.0
  3
*D575757
  1

  0
LINE
  5
4FD
  8
回07-寸法
 62
     5
 10
-113.8136194353255
 20
713.8003243962916
 30
0.0
 11
-113.8136194353255
 21
771.5124707682475
 31
0.0
  0
LINE
  5
4FE
  8
回07-寸法
 62
     5
 10
-33.81361943532738
 20
721.9328253970945
 30
0.0
 11
-33.81361943532738
 21
771.5124707682475
 31
0.0
  0
LINE
  5
4FF
  8
回07-寸法
 62
     5
 10
-111.8136194353255
 20
770.5124707682475
 30
0.0
 11
-35.81361943532738
 21
770.5124707682475
 31
0.0
  0
INSERT
  5
500
  8
回07-寸法
  6
CONTINUOUS
 62
     5
  2
_OPEN
 10
-113.8136194353255
 20
770.5124707682475
 30
0.0
 41
2.0
 42
2.0
 43
2.0
 50
180.0
  0
INSERT
  5
501
  8
回07-寸法
  6
CONTINUOUS
 62
     5
  2
_OPEN
 10
-33.81361943532738
 20
770.5124707682475
 30
0.0
 41
2.0
 42
2.0
 43
2.0
  0
INSERT
  5
502
  8
回07-寸法
  6
CONTINUOUS
 62
     5
 66
     1
  2
*X898989
 10
0.0
 20
0.0
 30
0.0
  0
SEQEND
  5
674
  8
回07-寸法
  6
CONTINUOUS
 62
     5
  0
POINT
  5
503
  8
DEFPOINTS
  6
CONTINUOUS
 62
     0
 10
-113.8136194353255
 20
713.8003243962916
 30
0.0
  0
POINT
  5
504
  8
DEFPOINTS
  6
CONTINUOUS
 62
     0
 10
-33.81361943532738
 20
721.9328253970945
 30
0.0
  0
POINT
  5
505
  8
DEFPOINTS
  6
CONTINUOUS
 62
     0
 10
-33.81361943532738
 20
770.5124707682475
 30
0.0
  0
ENDBLK
  5
507
  8
回07-寸法
  6
CONTINUOUS
 62
     5
  0
BLOCK
  8
回07-寸法
  2
*D585858
 70
     1
 10
0.0
 20
0.0
 30
0.0
  3
*D585858
  1

  0
LINE
  5
509
  8
回07-寸法
 62
     5
 10
-113.3136194353255
 20
715.0503243962917
 30
0.0
 11
-123.6340699420661
 21
715.0503243962917
 31
0.0
  0
LINE
  5
50A
  8
回07-寸法
 62
     5
 10
-33.81361943532738
 20
812.4253243962918
 30
0.0
 11
-123.6340699420661
 21
812.4253243962918
 31
0.0
  0
LINE
  5
50B
  8
回07-寸法
 62
     5
 10
-122.6340699420661
 20
717.0503243962916
 30
0.0
 11
-122.6340699420661
 21
810.4253243962917
 31
0.0
  0
INSERT
  5
50C
  8
回07-寸法
  6
CONTINUOUS
 62
     5
  2
_OPEN
 10
-122.6340699420661
 20
715.0503243962917
 30
0.0
 41
2.0
 42
2.0
 43
2.0
 50
270.0
  0
INSERT
  5
50D
  8
回07-寸法
  6
CONTINUOUS
 62
     5
  2
_OPEN
 10
-122.6340699420661
 20
812.4253243962918
 30
0.0
 41
2.0
 42
2.0
 43
2.0
 50
90.0
  0
TEXT
  5
50E
  8
回07-寸法
  6
CONTINUOUS
 62
     5
 10
-123.3340699420662
 20
746.7306036592377
 30
0.0
 40
4.0
  1
(97.38 [3.834])
 50
90.0
  0
POINT
  5
50F
  8
DEFPOINTS
  6
CONTINUOUS
 62
     0
 10
-113.3136194353255
 20
715.0503243962917
 30
0.0
  0
POINT
  5
510
  8
DEFPOINTS
  6
CONTINUOUS
 62
     0
 10
-33.81361943532738
 20
812.4253243962918
 30
0.0
  0
POINT
  5
511
  8
DEFPOINTS
  6
CONTINUOUS
 62
     0
 10
-122.6340699420661
 20
812.4253243962918
 30
0.0
  0
ENDBLK
  5
513
  8
回07-寸法
  6
CONTINUOUS
 62
     5
  0
BLOCK
  8
回07-寸法
  2
*D595959
 70
     1
 10
0.0
 20
0.0
 30
0.0
  3
*D595959
  1

  0
LINE
  5
515
  8
回07-寸法
 62
     5
 10
229.1863805646726
 20
812.4253243962918
 30
0.0
 11
300.7186680244213
 21
812.4253243962918
 31
0.0
  0
LINE
  5
516
  8
回07-寸法
 62
     5
 10
229.1863805646726
 20
611.4253243962918
 30
0.0
 11
300.7186680244213
 21
611.4253243962918
 31
0.0
  0
LINE
  5
517
  8
回07-寸法
 62
     5
 10
299.7186680244213
 20
810.4253243962917
 30
0.0
 11
299.7186680244213
 21
613.4253243962919
 31
0.0
  0
INSERT
  5
518
  8
回07-寸法
  6
CONTINUOUS
 62
     5
  2
_OPEN
 10
299.7186680244213
 20
812.4253243962918
 30
0.0
 41
2.0
 42
2.0
 43
2.0
 50
90.0
  0
INSERT
  5
519
  8
回07-寸法
  6
CONTINUOUS
 62
     5
  2
_OPEN
 10
299.7186680244213
 20
611.4253243962918
 30
0.0
 41
2.0
 42
2.0
 43
2.0
 50
270.0
  0
INSERT
  5
51A
  8
回07-寸法
  6
CONTINUOUS
 62
     5
 66
     1
  2
*X909090
 10
0.0
 20
0.0
 30
0.0
  0
SEQEND
  5
67D
  8
回07-寸法
  6
CONTINUOUS
 62
     5
  0
POINT
  5
51B
  8
DEFPOINTS
  6
CONTINUOUS
 62
     0
 10
229.1863805646726
 20
812.4253243962918
 30
0.0
  0
POINT
  5
51C
  8
DEFPOINTS
  6
CONTINUOUS
 62
     0
 10
229.1863805646726
 20
611.4253243962918
 30
0.0
  0
POINT
  5
51D
  8
DEFPOINTS
  6
CONTINUOUS
 62
     0
 10
299.7186680244213
 20
611.4253243962918
 30
0.0
  0
ENDBLK
  5
51F
  8
回07-寸法
  6
CONTINUOUS
 62
     5
  0
BLOCK
  8
回07-寸法
  2
*D606060
 70
     1
 10
0.0
 20
0.0
 30
0.0
  3
*D606060
  1

  0
LINE
  5
521
  8
回07-寸法
 62
     5
 10
224.1863805646726
 20
806.1753243962918
 30
0.0
 11
281.5555146980823
 21
806.1753243962918
 31
0.0
  0
LINE
  5
522
  8
回07-寸法
 62
     5
 10
224.1863805646726
 20
617.6753243962918
 30
0.0
 11
281.5555146980823
 21
617.6753243962918
 31
0.0
  0
LINE
  5
523
  8
回07-寸法
 62
     5
 10
280.5555146980823
 20
804.1753243962917
 30
0.0
 11
280.5555146980823
 21
619.6753243962919
 31
0.0
  0
INSERT
  5
524
  8
回07-寸法
  6
CONTINUOUS
 62
     5
  2
_OPEN
 10
280.5555146980823
 20
806.1753243962918
 30
0.0
 41
2.0
 42
2.0
 43
2.0
 50
90.0
  0
INSERT
  5
525
  8
回07-寸法
  6
CONTINUOUS
 62
     5
  2
_OPEN
 10
280.5555146980823
 20
617.6753243962918
 30
0.0
 41
2.0
 42
2.0
 43
2.0
 50
270.0
  0
TEXT
  5
526
  8
回07-寸法
  6
CONTINUOUS
 62
     5
 10
279.8555146980823
 20
682.2666546795635
 30
0.0
 40
4.0
  1
188.5 [7.421] (VIEWING AREA)
 50
90.0
  0
POINT
  5
527
  8
DEFPOINTS
  6
CONTINUOUS
 62
     0
 10
224.1863805646726
 20
806.1753243962918
 30
0.0
  0
POINT
  5
528
  8
DEFPOINTS
  6
CONTINUOUS
 62
     0
 10
224.1863805646726
 20
617.6753243962918
 30
0.0
  0
POINT
  5
529
  8
DEFPOINTS
  6
CONTINUOUS
 62
     0
 10
280.5555146980823
 20
617.6753243962918
 30
0.0
  0
ENDBLK
  5
52B
  8
回07-寸法
  6
CONTINUOUS
 62
     5
  0
BLOCK
  8
回07-寸法
  2
*D616161
 70
     1
 10
0.0
 20
0.0
 30
0.0
  3
*D616161
  1

  0
LINE
  5
52D
  8
回07-寸法
 62
     5
 10
222.6863805646735
 20
619.1753243962919
 30
0.0
 11
271.9739380349129
 21
619.1753243962919
 31
0.0
  0
LINE
  5
52E
  8
回07-寸法
 62
     5
 10
222.6863805646735
 20
804.6753243962918
 30
0.0
 11
271.9739380349129
 21
804.6753243962918
 31
0.0
  0
LINE
  5
52F
  8
回07-寸法
 62
     5
 10
270.9739380349128
 20
621.1753243962919
 30
0.0
 11
270.9739380349128
 21
802.6753243962918
 31
0.0
  0
INSERT
  5
530
  8
回07-寸法
  6
CONTINUOUS
 62
     5
  2
_OPEN
 10
270.9739380349128
 20
619.1753243962919
 30
0.0
 41
2.0
 42
2.0
 43
2.0
 50
270.0
  0
INSERT
  5
531
  8
回07-寸法
  6
CONTINUOUS
 62
     5
  2
_OPEN
 10
270.9739380349128
 20
804.6753243962918
 30
0.0
 41
2.0
 42
2.0
 43
2.0
 50
90.0
  0
TEXT
  5
532
  8
回07-寸法
  6
CONTINUOUS
 62
     5
 10
270.2739380349128
 20
683.2666546795636
 30
0.0
 40
4.0
  1
185.5 [7.303] (ACTIVE AREA)
 50
90.0
  0
POINT
  5
533
  8
DEFPOINTS
  6
CONTINUOUS
 62
     0
 10
222.6863805646735
 20
619.1753243962919
 30
0.0
  0
POINT
  5
534
  8
DEFPOINTS
  6
CONTINUOUS
 62
     0
 10
222.6863805646735
 20
804.6753243962918
 30
0.0
  0
POINT
  5
535
  8
DEFPOINTS
  6
CONTINUOUS
 62
     0
 10
270.9739380349128
 20
804.6753243962918
 30
0.0
  0
ENDBLK
  5
537
  8
回07-寸法
  6
CONTINUOUS
 62
     5
  0
BLOCK
  8
回07-寸法
  2
*D626262
 70
     1
 10
0.0
 20
0.0
 30
0.0
  3
*D626262
  1

  0
LINE
  5
539
  8
回07-寸法
  6
CONTINUOUS
 62
     5
 10
-38.00137575798544
 20
703.9253243962917
 30
0.0
 11
-86.70862780283917
 21
703.9253243962917
 31
0.0
  0
LINE
  5
53A
  8
回07-寸法
  6
CONTINUOUS
 62
     5
 10
-38.00554934369211
 20
719.9241213620198
 30
0.0
 11
-86.70862780283917
 21
719.9241213620198
 31
0.0
  0
LINE
  5
53B
  8
回07-寸法
  6
CONTINUOUS
 62
     5
 10
-85.70862780283915
 20
701.9253243962918
 30
0.0
 11
-85.70862780283915
 21
677.3253243962917
 31
0.0
  0
LINE
  5
53C
  8
回07-寸法
  6
CONTINUOUS
 62
     5
 10
-85.70862780283915
 20
703.9253243962917
 30
0.0
 11
-85.70862780283915
 21
719.9241213620198
 31
0.0
  0
LINE
  5
53D
  8
回07-寸法
  6
CONTINUOUS
 62
     5
 10
-85.70862780283915
 20
721.9241213620198
 30
0.0
 11
-85.70862780283915
 21
723.9241213620198
 31
0.0
  0
INSERT
  5
53E
  8
回07-寸法
  6
CONTINUOUS
 62
     5
  2
_OPEN
 10
-85.70862780283915
 20
703.9253243962917
 30
0.0
 41
2.0
 42
2.0
 43
2.0
 50
90.0
  0
INSERT
  5
53F
  8
回07-寸法
  6
CONTINUOUS
 62
     5
  2
_OPEN
 10
-85.70862780283915
 20
719.9241213620198
 30
0.0
 41
2.0
 42
2.0
 43
2.0
 50
270.0
  0
TEXT
  5
540
  8
回07-寸法
  6
CONTINUOUS
 62
     5
 10
-86.40862780283915
 20
677.2253243962921
 30
0.0
 40
4.0
  1
16 [0.630]
 50
90.0
  0
POINT
  5
541
  8
DEFPOINTS
  6
CONTINUOUS
 62
     0
 10
-38.00137575798544
 20
703.9253243962917
 30
0.0
  0
POINT
  5
542
  8
DEFPOINTS
  6
CONTINUOUS
 62
     0
 10
-38.00554934369211
 20
719.9241213620198
 30
0.0
  0
POINT
  5
543
  8
DEFPOINTS
  6
CONTINUOUS
 62
     0
 10
-85.70862780283915
 20
719.9241213620198
 30
0.0
  0
ENDBLK
  5
545
  8
回07-寸法
  6
CONTINUOUS
 62
     5
  0
BLOCK
  8
回07-寸法
  2
*D636363
 70
     1
 10
0.0
 20
0.0
 30
0.0
  3
*D636363
  1

  0
LINE
  5
547
  8
回08-記事
 62
     5
 10
-113.8136194353274
 20
566.7274640835569
 30
0.0
 11
-113.8136194353274
 21
579.8900066116243
 31
0.0
  0
LINE
  5
548
  8
回08-記事
 62
     5
 10
-108.8136194353274
 20
566.7274640835569
 30
0.0
 11
-108.8136194353274
 21
579.8900066116243
 31
0.0
  0
LINE
  5
549
  8
回08-記事
 62
     5
 10
-106.8136194353274
 20
578.8900066116243
 30
0.0
 11
-84.99917796121946
 21
578.8900066116243
 31
0.0
  0
LINE
  5
54A
  8
回08-記事
 62
     5
 10
-113.8136194353274
 20
578.8900066116243
 30
0.0
 11
-108.8136194353274
 21
578.8900066116243
 31
0.0
  0
LINE
  5
54B
  8
回08-記事
 62
     5
 10
-115.8136194353273
 20
578.8900066116243
 30
0.0
 11
-117.8136194353273
 21
578.8900066116243
 31
0.0
  0
INSERT
  5
54C
  8
回08-記事
  6
CONTINUOUS
 62
     5
  2
_OPEN
 10
-113.8136194353274
 20
578.8900066116243
 30
0.0
 41
2.0
 42
2.0
 43
2.0
  0
INSERT
  5
54D
  8
回08-記事
  6
CONTINUOUS
 62
     5
  2
_OPEN
 10
-108.8136194353274
 20
578.8900066116243
 30
0.0
 41
2.0
 42
2.0
 43
2.0
 50
180.0
  0
TEXT
  5
54E
  8
回08-記事
  6
CONTINUOUS
 62
     5
 10
-104.9136194353273
 20
579.5900066116245
 30
0.0
 40
4.0
  1
5 [0.197]
  0
POINT
  5
54F
  8
DEFPOINTS
  6
CONTINUOUS
 62
     0
 10
-113.8136194353274
 20
566.7274640835569
 30
0.0
  0
POINT
  5
550
  8
DEFPOINTS
  6
CONTINUOUS
 62
     0
 10
-108.8136194353274
 20
566.7274640835569
 30
0.0
  0
POINT
  5
551
  8
DEFPOINTS
  6
CONTINUOUS
 62
     0
 10
-108.8136194353274
 20
578.8900066116243
 30
0.0
  0
ENDBLK
  5
553
  8
回07-寸法
  6
CONTINUOUS
 62
     5
  0
BLOCK
  8
回07-寸法
  2
*D646464
 70
     1
 10
0.0
 20
0.0
 30
0.0
  3
*D646464
  1

  0
LINE
  5
555
  8
回08-記事
 62
     5
 10
-113.8136194353274
 20
562.2274640835569
 30
0.0
 11
-113.8136194353274
 21
536.855842108403
 31
0.0
  0
LINE
  5
556
  8
回08-記事
 62
     5
 10
-103.8136194353274
 20
562.2274640835569
 30
0.0
 11
-103.8136194353274
 21
536.855842108403
 31
0.0
  0
LINE
  5
557
  8
回08-記事
 62
     5
 10
-101.8136194353274
 20
537.855842108403
 30
0.0
 11
-73.60232756751867
 21
537.855842108403
 31
0.0
  0
LINE
  5
558
  8
回08-記事
 62
     5
 10
-113.8136194353274
 20
537.855842108403
 30
0.0
 11
-103.8136194353274
 21
537.855842108403
 31
0.0
  0
LINE
  5
559
  8
回08-記事
 62
     5
 10
-115.8136194353273
 20
537.855842108403
 30
0.0
 11
-117.8136194353273
 21
537.855842108403
 31
0.0
  0
INSERT
  5
55A
  8
回08-記事
  6
CONTINUOUS
 62
     5
  2
_OPEN
 10
-113.8136194353274
 20
537.855842108403
 30
0.0
 41
2.0
 42
2.0
 43
2.0
  0
INSERT
  5
55B
  8
回08-記事
  6
CONTINUOUS
 62
     5
  2
_OPEN
 10
-103.8136194353274
 20
537.855842108403
 30
0.0
 41
2.0
 42
2.0
 43
2.0
 50
180.0
  0
TEXT
  5
55C
  8
回08-記事
  6
CONTINUOUS
 62
     5
 10
-99.91519423847698
 20
538.555842108403
 30
0.0
 40
4.0
  1
(10 [0.394])
  0
POINT
  5
55D
  8
DEFPOINTS
  6
CONTINUOUS
 62
     0
 10
-113.8136194353274
 20
562.2274640835569
 30
0.0
  0
POINT
  5
55E
  8
DEFPOINTS
  6
CONTINUOUS
 62
     0
 10
-103.8136194353274
 20
562.2274640835569
 30
0.0
  0
POINT
  5
55F
  8
DEFPOINTS
  6
CONTINUOUS
 62
     0
 10
-103.8136194353274
 20
537.855842108403
 30
0.0
  0
ENDBLK
  5
561
  8
回07-寸法
  6
CONTINUOUS
 62
     5
  0
BLOCK
  8
回07-寸法
  2
*X656565
 70
     1
 10
0.0
 20
0.0
 30
0.0
  3
*X656565
  1

  0
INSERT
  5
566
  8
回07-寸法
  6
CONTINUOUS
 62
     5
  2
_OPEN
 10
-37.46610688393048
 20
715.6599953518044
 30
0.0
 41
2.0
 42
2.0
 43
2.0
 50
300.5131168165647
  0
LINE
  5
567
  8
回07-寸法
  6
CONTINUOUS
 62
     5
 10
-38.48157809159591
 20
717.3830212443557
 30
0.0
 11
-46.39425165210741
 21
730.8090458535736
 31
0.0
  0
LINE
  5
568
  8
回07-寸法
  6
CONTINUOUS
 62
     5
 10
-46.39425165210741
 20
730.8090458535736
 30
0.0
 11
-48.89425165210742
 21
730.8090458535736
 31
0.0
  0
ENDBLK
  5
56A
  8
回07-寸法
  6
CONTINUOUS
 62
     5
  0
BLOCK
  8
回07-寸法
  2
*X666666
 70
     1
 10
0.0
 20
0.0
 30
0.0
  3
*X666666
  1

  0
INSERT
  5
56D
  8
回07-寸法
  6
CONTINUOUS
 62
     5
  2
_OPEN
 10
226.6849195666809
 20
618.418268591636
 30
0.0
 41
2.0
 42
2.0
 43
2.0
 50
309.2133280779906
  0
LINE
  5
56E
  8
回07-寸法
  6
CONTINUOUS
 62
     5
 10
225.4205004621725
 20
619.9678634832622
 30
0.0
 11
219.2125330610215
 21
627.5759694806366
 31
0.0
  0
LINE
  5
56F
  8
回07-寸法
  6
CONTINUOUS
 62
     5
 10
219.2125330610215
 20
627.5759694806366
 30
0.0
 11
216.7125330610215
 21
627.5759694806366
 31
0.0
  0
ENDBLK
  5
571
  8
回07-寸法
  6
CONTINUOUS
 62
     5
  0
BLOCK
  8
回07-寸法
  2
*X676767
 70
     1
 10
0.0
 20
0.0
 30
0.0
  3
*X676767
  1

  0
INSERT
  5
579
  8
回07-寸法
  6
CONTINUOUS
 62
     5
  2
_OPEN
 10
-112.9843973306633
 20
704.4788657929911
 30
0.0
 41
2.0
 42
2.0
 43
2.0
 50
117.3417258391869
  0
LINE
  5
57A
  8
回07-寸法
  6
CONTINUOUS
 62
     5
 10
-112.0658041882319
 20
702.7022998249852
 30
0.0
 11
-104.582394587007
 21
688.2293300105177
 31
0.0
  0
LINE
  5
57B
  8
回07-寸法
  6
CONTINUOUS
 62
     5
 10
-104.582394587007
 20
688.2293300105177
 30
0.0
 11
-93.98857182082792
 21
688.2293300105177
 31
0.0
  0
ENDBLK
  5
57D
  8
回07-寸法
  6
CONTINUOUS
 62
     5
  0
BLOCK
  8
回07-寸法
  2
*X686868
 70
     1
 10
0.0
 20
0.0
 30
0.0
  3
*X686868
  1

  0
INSERT
  5
594
  8
回07-寸法
  6
CONTINUOUS
 62
     5
  2
_OPEN
 10
-38.38704883860282
 20
719.8483059393463
 30
0.0
 41
1.999999999999999
 42
1.999999999999999
 43
2.0
 50
294.2347713767173
  0
LINE
  5
595
  8
回07-寸法
  6
CONTINUOUS
 62
     5
 10
-39.20800184105221
 20
721.6720482917003
 30
0.0
 11
-45.86097044228517
 21
736.4515796056105
 31
0.0
  0
LINE
  5
596
  8
回07-寸法
  6
CONTINUOUS
 62
     5
 10
-45.86097044228517
 20
736.4515796056105
 30
0.0
 11
-48.36097044228517
 21
736.4515796056105
 31
0.0
  0
ENDBLK
  5
598
  8
回07-寸法
  6
CONTINUOUS
 62
     5
  0
BLOCK
  8
回07-寸法
  2
*X696969
 70
     1
 10
0.0
 20
0.0
 30
0.0
  3
*X696969
  1

  0
LINE
  5
59B
  8
回08-記事
  6
CONTINUOUS
 62
     8
 10
-78.3017825372944
 20
709.4253243962917
 30
0.0
 11
-80.17377626007409
 21
711.2973181190715
 31
0.0
  0
LINE
  5
59C
  8
回08-記事
  6
CONTINUOUS
 62
     8
 10
-75.65013210784484
 20
709.4253243962917
 30
0.0
 11
-80.0777403933193
 21
713.8529326817661
 31
0.0
  0
LINE
  5
59D
  8
回08-記事
  6
CONTINUOUS
 62
     8
 10
-72.99848167839538
 20
709.4253243962917
 30
0.0
 11
-77.99848167839535
 21
714.4253243962918
 31
0.0
  0
LINE
  5
59E
  8
回08-記事
  6
CONTINUOUS
 62
     8
 10
-70.34683124894583
 20
709.4253243962917
 30
0.0
 11
-75.34683124894581
 21
714.4253243962918
 31
0.0
  0
LINE
  5
59F
  8
回08-記事
  6
CONTINUOUS
 62
     8
 10
-67.69518081949629
 20
709.4253243962917
 30
0.0
 11
-72.69518081949623
 21
714.4253243962918
 31
0.0
  0
LINE
  5
5A0
  8
回08-記事
  6
CONTINUOUS
 62
     8
 10
-65.04353039004674
 20
709.4253243962917
 30
0.0
 11
-70.04353039004678
 21
714.425324396292
 31
0.0
  0
LINE
  5
5A1
  8
回08-記事
  6
CONTINUOUS
 62
     8
 10
-62.3918799605971
 20
709.4253243962917
 30
0.0
 11
-67.39187996059722
 21
714.425324396292
 31
0.0
  0
LINE
  5
5A2
  8
回08-記事
  6
CONTINUOUS
 62
     8
 10
-59.74022953114756
 20
709.4253243962917
 30
0.0
 11
-64.74022953114768
 21
714.425324396292
 31
0.0
  0
LINE
  5
5A3
  8
回08-記事
  6
CONTINUOUS
 62
     8
 10
-57.088579101698
 20
709.4253243962917
 30
0.0
 11
-62.08857910169804
 21
714.4253243962918
 31
0.0
  0
LINE
  5
5A4
  8
回08-記事
  6
CONTINUOUS
 62
     8
 10
-54.6105951689764
 20
709.5989908930197
 30
0.0
 11
-59.4369286722485
 21
714.4253243962918
 31
0.0
  0
LINE
  5
5A5
  8
回08-記事
  6
CONTINUOUS
 62
     8
 10
-54.17377626007422
 20
711.8138224135671
 30
0.0
 11
-56.78527824279896
 21
714.4253243962918
 31
0.0
  0
ENDBLK
  5
5A7
  8
回07-寸法
  6
CONTINUOUS
 62
     5
  0
BLOCK
  8
回07-寸法
  2
*X707070
 70
     1
 10
0.0
 20
0.0
 30
0.0
  3
*X707070
  1

  0
LINE
  5
5B3
  8
回08-記事
  6
CONTINUOUS
 62
     8
 10
-38.00510243972702
 20
717.4244236898966
 30
0.0
 11
-36.10151892091648
 21
719.3280072087072
 31
0.0
  0
LINE
  5
5B4
  8
回08-記事
  6
CONTINUOUS
 62
     8
 10
-38.00510243972701
 20
715.1793596596296
 30
0.0
 11
-33.85645489064926
 21
719.3280072087072
 31
0.0
  0
LINE
  5
5B5
  8
回08-記事
  6
CONTINUOUS
 62
     8
 10
-38.00510243972699
 20
712.9342956293621
 30
0.0
 11
-31.61139086038198
 21
719.3280072087072
 31
0.0
  0
LINE
  5
5B6
  8
回08-記事
  6
CONTINUOUS
 62
     8
 10
-35.76900964252987
 20
712.9253243962922
 30
0.0
 11
-30.31361943532639
 21
718.3807146034958
 31
0.0
  0
LINE
  5
5B7
  8
回08-記事
  6
CONTINUOUS
 62
     8
 10
-33.52394561226257
 20
712.9253243962922
 30
0.0
 11
-30.3136194353265
 21
716.1356505732283
 31
0.0
  0
LINE
  5
5B8
  8
回08-記事
  6
CONTINUOUS
 62
     8
 10
-31.27888158199521
 20
712.9253243962922
 30
0.0
 11
-30.31361943532648
 21
713.8905865429611
 31
0.0
  0
ENDBLK
  5
5BA
  8
回07-寸法
  6
CONTINUOUS
 62
     5
  0
BLOCK
  8
回07-寸法
  2
*X717171
 70
     1
 10
0.0
 20
0.0
 30
0.0
  3
*X717171
  1

  0
INSERT
  5
5C2
  8
回07-寸法
  6
CONTINUOUS
 62
     5
  2
_OPEN
 10
-34.22160356070071
 20
720.3849502461658
 30
0.0
 41
2.0
 42
2.0
 43
2.0
 50
289.9600154311668
  0
LINE
  5
5C3
  8
回07-寸法
  6
CONTINUOUS
 62
     5
 10
-34.90433212864029
 20
722.2648123960374
 30
0.0
 11
-41.90923194769857
 21
741.5524863734565
 31
0.0
  0
LINE
  5
5C4
  8
回07-寸法
  6
CONTINUOUS
 62
     5
 10
-41.90923194769857
 20
741.5524863734565
 30
0.0
 11
-44.40923194769857
 21
741.5524863734565
 31
0.0
  0
ENDBLK
  5
5C6
  8
回07-寸法
  6
CONTINUOUS
 62
     5
  0
BLOCK
  8
回07-寸法
  2
*X727272
 70
     1
 10
0.0
 20
0.0
 30
0.0
  3
*X727272
  1

  0
INSERT
  5
5C9
  8
回07-寸法
  6
CONTINUOUS
 62
     5
  2
_OPEN
 10
-70.06905750777605
 20
712.5711936791357
 30
0.0
 41
1.999999999999999
 42
1.999999999999999
 43
2.0
 50
292.7238555870838
  0
LINE
  5
5CA
  8
回07-寸法
  6
CONTINUOUS
 62
     5
 10
-70.84163773872728
 20
714.4159483475791
 30
0.0
 11
-74.84806969265173
 21
723.9824422270593
 31
0.0
  0
LINE
  5
5CB
  8
回07-寸法
  6
CONTINUOUS
 62
     5
 10
-74.84806969265173
 20
723.9824422270593
 30
0.0
 11
-77.34806969265173
 21
723.9824422270593
 31
0.0
  0
ENDBLK
  5
5CD
  8
回07-寸法
  6
CONTINUOUS
 62
     5
  0
BLOCK
  8
回07-寸法
  2
*X737373
 70
     1
 10
0.0
 20
0.0
 30
0.0
  3
*X737373
  1

  0
INSERT
  5
5DC
  8
回07-寸法
  6
CONTINUOUS
 62
     5
  2
_OPEN
 10
213.5539649082975
 20
611.9970064388617
 30
0.0
 41
1.999999999999999
 42
1.999999999999999
 43
2.0
 50
74.42490434138306
  0
LINE
  5
5DD
  8
回07-寸法
  6
CONTINUOUS
 62
     5
 10
213.016962619638
 20
610.0704477083852
 30
0.0
 11
210.0708374665483
 21
599.500877979121
 31
0.0
  0
LINE
  5
5DE
  8
回07-寸法
  6
CONTINUOUS
 62
     5
 10
210.0708374665483
 20
599.500877979121
 30
0.0
 11
207.5708374665483
 21
599.500877979121
 31
0.0
  0
ENDBLK
  5
5E0
  8
回07-寸法
  6
CONTINUOUS
 62
     5
  0
BLOCK
  8
回07-寸法
  2
*X747474
 70
     1
 10
0.0
 20
0.0
 30
0.0
  3
*X747474
  1

  0
INSERT
  5
5E3
  8
回08-記事
  6
CONTINUOUS
 62
     5
  2
_OPEN
 10
-69.26213364633622
 20
564.7792621247288
 30
0.0
 41
2.0
 42
2.0
 43
2.0
 50
107.8294588928977
  0
LINE
  5
5E4
  8
回08-記事
  6
CONTINUOUS
 62
     5
 10
-68.64976403370817
 20
562.8753179402711
 30
0.0
 11
-65.65427719307445
 21
553.5619234931373
 31
0.0
  0
LINE
  5
5E5
  8
回08-記事
  6
CONTINUOUS
 62
     5
 10
-65.65427719307445
 20
553.5619234931373
 30
0.0
 11
-63.15427719307447
 21
553.5619234931373
 31
0.0
  0
ENDBLK
  5
5E7
  8
回07-寸法
  6
CONTINUOUS
 62
     5
  0
BLOCK
  8
回07-寸法
  2
*X757575
 70
     1
 10
0.0
 20
0.0
 30
0.0
  3
*X757575
  1

  0
TEXT
  5
5EF
  8
回08-記事
 62
     5
 10
-121.9929798921302
 20
529.0810489879734
 30
0.0
 40
4.0
  1
0.3
 50
90.0
  0
TEXT
  5
5F0
  8
回08-記事
 62
     5
 10
-121.9929798921302
 20
535.8810489879735
 30
0.0
 40
2.799999999999998
  1
±0.05
 50
90.0
  0
TEXT
  5
5F1
  8
回08-記事
 62
     5
 10
-121.9929798921302
 20
544.5610489879734
 30
0.0
 40
4.0
  1
[0.012
 50
90.0
  0
TEXT
  5
5F2
  8
回08-記事
 62
     5
 10
-121.9929798921302
 20
557.7610489879734
 30
0.0
 40
2.799999999999998
  1
±0.002
 50
90.0
  0
TEXT
  5
5F3
  8
回08-記事
 62
     5
 10
-121.9929798921302
 20
568.4010489879732
 30
0.0
 40
4.0
  1
]
 50
90.0
  0
ENDBLK
  5
5F5
  8
回07-寸法
  6
CONTINUOUS
 62
     5
  0
BLOCK
  8
回07-寸法
  2
*X767676
 70
     1
 10
0.0
 20
0.0
 30
0.0
  3
*X767676
  1

  0
TEXT
  5
5F8
  8
回08-記事
 62
     5
 10
234.7494712239359
 20
519.9451612583825
 30
0.0
 40
4.0
  1
2.1
 50
90.0
  0
TEXT
  5
5F9
  8
回08-記事
 62
     5
 10
234.7494712239359
 20
525.9451612583825
 30
0.0
 40
2.799999999999998
  1
±0.2
 50
90.0
  0
TEXT
  5
5FA
  8
回08-記事
 62
     5
 10
234.7494712239359
 20
532.6651612583823
 30
0.0
 40
4.0
  1
[0.083
 50
90.0
  0
TEXT
  5
5FB
  8
回08-記事
 62
     5
 10
234.7494712239359
 20
546.6651612583823
 30
0.0
 40
2.799999999999998
  1
±0.008
 50
90.0
  0
TEXT
  5
5FC
  8
回08-記事
 62
     5
 10
234.7494712239359
 20
557.3051612583823
 30
0.0
 40
4.0
  1
]
 50
90.0
  0
ENDBLK
  5
5FE
  8
回07-寸法
  6
CONTINUOUS
 62
     5
  0
BLOCK
  8
回07-寸法
  2
*X777777
 70
     1
 10
0.0
 20
0.0
 30
0.0
  3
*X777777
  1

  0
TEXT
  5
601
  8
回08-記事
  6
CONTINUOUS
 62
     5
 10
-5570.861237652662
 20
-65.89992407320733
 30
0.0
 40
4.0
  1
6.25
 50
90.0
  0
TEXT
  5
602
  8
回08-記事
  6
CONTINUOUS
 62
     5
 10
-5570.861237652662
 20
-56.29992407320695
 30
0.0
 40
2.75
  1
±0.2
 50
90.0
  0
TEXT
  5
603
  8
回08-記事
  6
CONTINUOUS
 62
     5
 10
-5570.861237652662
 20
-49.6999240732066
 30
0.0
 40
4.0
  1
[0.246
 50
90.0
  0
TEXT
  5
604
  8
回08-記事
  6
CONTINUOUS
 62
     5
 10
-5570.861237652662
 20
-35.29992407320697
 30
0.0
 40
2.75
  1
±0.008
 50
90.0
  0
TEXT
  5
605
  8
回08-記事
  6
CONTINUOUS
 62
     5
 10
-5570.861237652662
 20
-24.84992407320715
 30
0.0
 40
4.0
  1
]
 50
90.0
  0
ENDBLK
  5
607
  8
回07-寸法
  6
CONTINUOUS
 62
     5
  0
BLOCK
  8
回07-寸法
  2
*X787878
 70
     1
 10
0.0
 20
0.0
 30
0.0
  3
*X787878
  1

  0
TEXT
  5
60A
  8
回07-寸法
 62
     5
 10
-5148.136219549583
 20
27.38356044478587
 30
0.0
 40
4.0
  1
201
 50
90.0
  0
TEXT
  5
60B
  8
回07-寸法
 62
     5
 10
-5148.136219549583
 20
34.98356044478624
 30
0.0
 40
3.2
  1
±0.3
 50
90.0
  0
TEXT
  5
60C
  8
回07-寸法
 62
     5
 10
-5148.136219549583
 20
42.66356044478652
 30
0.0
 40
4.0
  1
 [7.913
 50
90.0
  0
TEXT
  5
60D
  8
回07-寸法
 62
     5
 10
-5148.136219549583
 20
58.27800191889401
 30
0.0
 40
3.2
  1
±0.012
 50
90.0
  0
TEXT
  5
60E
  8
回07-寸法
 62
     5
 10
-5148.136219549583
 20
69.79800191889443
 30
0.0
 40
4.0
  1
]
 50
90.0
  0
ENDBLK
  5
610
  8
回07-寸法
  6
CONTINUOUS
 62
     5
  0
BLOCK
  8
回07-寸法
  2
*X797979
 70
     1
 10
0.0
 20
0.0
 30
0.0
  3
*X797979
  1

  0
TEXT
  5
613
  8
回07-寸法
 62
     5
 10
-5537.308792157478
 20
107.7357362677691
 30
0.0
 40
4.0
  1
80
  0
TEXT
  5
614
  8
回07-寸法
 62
     5
 10
-5531.70879215748
 20
107.7357362677691
 30
0.0
 40
3.2
  1
±1
  0
TEXT
  5
615
  8
回07-寸法
 62
     5
 10
-5527.868792157478
 20
107.7357362677691
 30
0.0
 40
4.0
  1
 [3.150
  0
TEXT
  5
616
  8
回07-寸法
 62
     5
 10
-5512.268792157478
 20
107.7357362677691
 30
0.0
 40
3.2
  1
±0.039
  0
TEXT
  5
617
  8
回07-寸法
 62
     5
 10
-5500.097238978192
 20
107.7357362677691
 30
0.0
 40
4.0
  1
]
  0
ENDBLK
  5
619
  8
回07-寸法
  6
CONTINUOUS
 62
     5
  0
BLOCK
  8
回07-寸法
  2
*X808080
 70
     1
 10
0.0
 20
0.0
 30
0.0
  3
*X808080
  1

  0
TEXT
  5
61C
  8
回07-寸法
 62
     5
 10
-5373.968507009332
 20
195.05625563802
 30
0.0
 40
4.0
  1
263
  0
TEXT
  5
61D
  8
回07-寸法
 62
     5
 10
-5365.568507009332
 20
195.05625563802
 30
0.0
 40
3.2
  1
±0.3
  0
TEXT
  5
61E
  8
回07-寸法
 62
     5
 10
-5357.888507009332
 20
195.05625563802
 30
0.0
 40
4.0
  1
 [10.354
  0
TEXT
  5
61F
  8
回07-寸法
 62
     5
 10
-5339.088507009332
 20
195.05625563802
 30
0.0
 40
3.2
  1
±0.012
  0
TEXT
  5
620
  8
回07-寸法
 62
     5
 10
-5327.568507009331
 20
195.05625563802
 30
0.0
 40
4.0
  1
]
  0
ENDBLK
  5
622
  8
回07-寸法
  6
CONTINUOUS
 62
     5
  0
BLOCK
  8
回07-寸法
  2
*X818181
 70
     1
 10
0.0
 20
0.0
 30
0.0
  3
*X818181
  1

  0
TEXT
  5
625
  8
回08-記事
  6
CONTINUOUS
 62
     5
 10
-5562.189672155136
 20
-62.48023903383455
 30
0.0
 40
4.0
  1
3.75
 50
90.0
  0
TEXT
  5
626
  8
回08-記事
  6
CONTINUOUS
 62
     5
 10
-5562.189672155136
 20
-52.88023903383418
 30
0.0
 40
3.0
  1
±0.1
 50
90.0
  0
TEXT
  5
627
  8
回08-記事
  6
CONTINUOUS
 62
     5
 10
-5562.189672155136
 20
-46.28023903383382
 30
0.0
 40
4.0
  1
[0.148
 50
90.0
  0
TEXT
  5
628
  8
回08-記事
  6
CONTINUOUS
 62
     5
 10
-5562.189672155136
 20
-32.68023903383346
 30
0.0
 40
3.0
  1
±0.004
 50
90.0
  0
TEXT
  5
629
  8
回08-記事
  6
CONTINUOUS
 62
     5
 10
-5562.189672155136
 20
-20.98023903383364
 30
0.0
 40
4.0
  1
]
 50
90.0
  0
ENDBLK
  5
62B
  8
回07-寸法
  6
CONTINUOUS
 62
     5
  0
BLOCK
  8
回07-寸法
  2
*X828282
 70
     1
 10
0.0
 20
0.0
 30
0.0
  3
*X828282
  1

  0
TEXT
  5
62E
  8
回08-記事
  6
CONTINUOUS
 62
     5
 10
-5552.83408303196
 20
-62.79444843187775
 30
0.0
 40
4.0
  1
1.25
 50
90.0
  0
TEXT
  5
62F
  8
回08-記事
  6
CONTINUOUS
 62
     5
 10
-5552.83408303196
 20
-53.99444843187757
 30
0.0
 40
3.0
  1
±0.2
 50
90.0
  0
TEXT
  5
630
  8
回08-記事
  6
CONTINUOUS
 62
     5
 10
-5552.83408303196
 20
-46.79444843187774
 30
0.0
 40
4.0
  1
[0.049
 50
90.0
  0
TEXT
  5
631
  8
回08-記事
  6
CONTINUOUS
 62
     5
 10
-5552.83408303196
 20
-32.38000695777009
 30
0.0
 40
3.0
  1
±0.008
 50
90.0
  0
TEXT
  5
632
  8
回08-記事
  6
CONTINUOUS
 62
     5
 10
-5552.83408303196
 20
-20.98000695777046
 30
0.0
 40
4.0
  1
]
 50
90.0
  0
ENDBLK
  5
634
  8
回07-寸法
  6
CONTINUOUS
 62
     5
  0
BLOCK
  8
回07-寸法
  2
*X838383
 70
     1
 10
0.0
 20
0.0
 30
0.0
  3
*X838383
  1

  0
TEXT
  5
637
  8
回08-記事
  6
CONTINUOUS
 62
     5
 10
-5544.430428798442
 20
-73.28023903383473
 30
0.0
 40
4.0
  1
4-0.7
 50
90.0
  0
TEXT
  5
638
  8
回08-記事
  6
CONTINUOUS
 62
     5
 10
-5544.430428798442
 20
-60.48023903383454
 30
0.0
 40
3.0
  1
±0.1
 50
90.0
  0
TEXT
  5
639
  8
回08-記事
  6
CONTINUOUS
 62
     5
 10
-5544.430428798442
 20
-53.8802390338342
 30
0.0
 40
4.0
  1
[4-0.028
 50
90.0
  0
TEXT
  5
63A
  8
回08-記事
  6
CONTINUOUS
 62
     5
 10
-5544.430428798442
 20
-33.8802390338342
 30
0.0
 40
3.0
  1
±0.004
 50
90.0
  0
TEXT
  5
63B
  8
回08-記事
  6
CONTINUOUS
 62
     5
 10
-5544.430428798442
 20
-22.18023903383437
 30
0.0
 40
4.0
  1
]
 50
90.0
  0
ENDBLK
  5
63D
  8
回07-寸法
  6
CONTINUOUS
 62
     5
  0
BLOCK
  8
回07-寸法
  2
*X848484
 70
     1
 10
0.0
 20
0.0
 30
0.0
  3
*X848484
  1

  0
TEXT
  5
640
  8
回08-記事
  6
CONTINUOUS
 62
     5
 10
-123.7063500786582
 20
597.5768104272722
 30
0.0
 40
4.0
  1
6.25
 50
90.0
  0
TEXT
  5
641
  8
回08-記事
  6
CONTINUOUS
 62
     5
 10
-123.7063500786582
 20
607.1768104272721
 30
0.0
 40
2.75
  1
±0.2
 50
90.0
  0
TEXT
  5
642
  8
回08-記事
  6
CONTINUOUS
 62
     5
 10
-123.7063500786582
 20
613.7768104272721
 30
0.0
 40
4.0
  1
[0.246
 50
90.0
  0
TEXT
  5
643
  8
回08-記事
  6
CONTINUOUS
 62
     5
 10
-123.7063500786582
 20
628.1768104272721
 30
0.0
 40
2.75
  1
±0.008
 50
90.0
  0
TEXT
  5
644
  8
回08-記事
  6
CONTINUOUS
 62
     5
 10
-123.7063500786582
 20
638.6268104272723
 30
0.0
 40
4.0
  1
]
 50
90.0
  0
ENDBLK
  5
646
  8
回07-寸法
  6
CONTINUOUS
 62
     5
  0
BLOCK
  8
回07-寸法
  2
*X858585
 70
     1
 10
0.0
 20
0.0
 30
0.0
  3
*X858585
  1

  0
TEXT
  5
649
  8
回08-記事
  6
CONTINUOUS
 62
     5
 10
-97.27554122443805
 20
590.1964954666426
 30
0.0
 40
4.0
  1
4-0.7
 50
90.0
  0
TEXT
  5
64A
  8
回08-記事
  6
CONTINUOUS
 62
     5
 10
-97.27554122443805
 20
602.9964954666427
 30
0.0
 40
3.0
  1
±0.1
 50
90.0
  0
TEXT
  5
64B
  8
回08-記事
  6
CONTINUOUS
 62
     5
 10
-97.27554122443805
 20
609.5964954666426
 30
0.0
 40
4.0
  1
[4-0.028
 50
90.0
  0
TEXT
  5
64C
  8
回08-記事
  6
CONTINUOUS
 62
     5
 10
-97.27554122443805
 20
629.5964954666426
 30
0.0
 40
3.0
  1
±0.004
 50
90.0
  0
TEXT
  5
64D
  8
回08-記事
  6
CONTINUOUS
 62
     5
 10
-97.27554122443805
 20
641.2964954666428
 30
0.0
 40
4.0
  1
]
 50
90.0
  0
ENDBLK
  5
64F
  8
回07-寸法
  6
CONTINUOUS
 62
     5
  0
BLOCK
  8
回07-寸法
  2
*X868686
 70
     1
 10
0.0
 20
0.0
 30
0.0
  3
*X868686
  1

  0
TEXT
  5
652
  8
回08-記事
  6
CONTINUOUS
 62
     5
 10
-105.6791954579569
 20
600.6820539925346
 30
0.0
 40
4.0
  1
1.25
 50
90.0
  0
TEXT
  5
653
  8
回08-記事
  6
CONTINUOUS
 62
     5
 10
-105.6791954579569
 20
609.4820539925343
 30
0.0
 40
3.0
  1
±0.2
 50
90.0
  0
TEXT
  5
654
  8
回08-記事
  6
CONTINUOUS
 62
     5
 10
-105.6791954579569
 20
616.6820539925346
 30
0.0
 40
4.0
  1
[0.049
 50
90.0
  0
TEXT
  5
655
  8
回08-記事
  6
CONTINUOUS
 62
     5
 10
-105.6791954579569
 20
631.0964954666425
 30
0.0
 40
3.0
  1
±0.008
 50
90.0
  0
TEXT
  5
656
  8
回08-記事
  6
CONTINUOUS
 62
     5
 10
-105.6791954579569
 20
642.4964954666426
 30
0.0
 40
4.0
  1
]
 50
90.0
  0
ENDBLK
  5
658
  8
回07-寸法
  6
CONTINUOUS
 62
     5
  0
BLOCK
  8
回07-寸法
  2
*X878787
 70
     1
 10
0.0
 20
0.0
 30
0.0
  3
*X878787
  1

  0
TEXT
  5
65B
  8
回08-記事
  6
CONTINUOUS
 62
     5
 10
-115.0347845811313
 20
600.9964954666425
 30
0.0
 40
4.0
  1
3.75
 50
90.0
  0
TEXT
  5
65C
  8
回08-記事
  6
CONTINUOUS
 62
     5
 10
-115.0347845811313
 20
610.5964954666424
 30
0.0
 40
3.0
  1
±0.1
 50
90.0
  0
TEXT
  5
65D
  8
回08-記事
  6
CONTINUOUS
 62
     5
 10
-115.0347845811313
 20
617.1964954666424
 30
0.0
 40
4.0
  1
[0.148
 50
90.0
  0
TEXT
  5
65E
  8
回08-記事
  6
CONTINUOUS
 62
     5
 10
-115.0347845811313
 20
630.7964954666422
 30
0.0
 40
3.0
  1
±0.004
 50
90.0
  0
TEXT
  5
65F
  8
回08-記事
  6
CONTINUOUS
 62
     5
 10
-115.0347845811313
 20
642.4964954666425
 30
0.0
 40
4.0
  1
]
 50
90.0
  0
ENDBLK
  5
661
  8
回07-寸法
  6
CONTINUOUS
 62
     5
  0
BLOCK
  8
回07-寸法
  2
*X888888
 70
     1
 10
0.0
 20
0.0
 30
0.0
  3
*X888888
  1

  0
TEXT
  5
664
  8
回07-寸法
  6
CONTINUOUS
 62
     5
 10
73.18638056467261
 20
858.5329901384984
 30
0.0
 40
4.0
  1
263
  0
TEXT
  5
665
  8
回07-寸法
  6
CONTINUOUS
 62
     5
 10
81.58638056467262
 20
858.5329901384984
 30
0.0
 40
3.2
  1
±0.3
  0
TEXT
  5
666
  8
回07-寸法
  6
CONTINUOUS
 62
     5
 10
89.26638056467259
 20
858.5329901384984
 30
0.0
 40
4.0
  1
 [10.354
  0
TEXT
  5
667
  8
回07-寸法
  6
CONTINUOUS
 62
     5
 10
108.0663805646726
 20
858.5329901384984
 30
0.0
 40
3.2
  1
±0.012
  0
TEXT
  5
668
  8
回07-寸法
  6
CONTINUOUS
 62
     5
 10
119.5863805646726
 20
858.5329901384984
 30
0.0
 40
4.0
  1
]
  0
ENDBLK
  5
66A
  8
回07-寸法
  6
CONTINUOUS
 62
     5
  0
BLOCK
  8
回07-寸法
  2
*X898989
 70
     1
 10
0.0
 20
0.0
 30
0.0
  3
*X898989
  1

  0
TEXT
  5
66D
  8
回07-寸法
  6
CONTINUOUS
 62
     5
 10
-90.15390458347424
 20
771.2124707682477
 30
0.0
 40
4.0
  1
80
  0
TEXT
  5
66E
  8
回07-寸法
  6
CONTINUOUS
 62
     5
 10
-84.55390458347425
 20
771.2124707682477
 30
0.0
 40
3.2
  1
±1
  0
TEXT
  5
66F
  8
回07-寸法
  6
CONTINUOUS
 62
     5
 10
-80.71390458347423
 20
771.2124707682477
 30
0.0
 40
4.0
  1
 [3.150
  0
TEXT
  5
670
  8
回07-寸法
  6
CONTINUOUS
 62
     5
 10
-65.11390458347425
 20
771.2124707682477
 30
0.0
 40
3.2
  1
±0.039
  0
TEXT
  5
671
  8
回07-寸法
  6
CONTINUOUS
 62
     5
 10
-52.94235140418789
 20
771.2124707682477
 30
0.0
 40
4.0
  1
]
  0
ENDBLK
  5
673
  8
回07-寸法
  6
CONTINUOUS
 62
     5
  0
BLOCK
  8
回07-寸法
  2
*X909090
 70
     1
 10
0.0
 20
0.0
 30
0.0
  3
*X909090
  1

  0
TEXT
  5
676
  8
回07-寸法
  6
CONTINUOUS
 62
     5
 10
299.0186680244212
 20
690.8602949452641
 30
0.0
 40
4.0
  1
201
 50
90.0
  0
TEXT
  5
677
  8
回07-寸法
  6
CONTINUOUS
 62
     5
 10
299.0186680244212
 20
698.4602949452638
 30
0.0
 40
3.2
  1
±0.3
 50
90.0
  0
TEXT
  5
678
  8
回07-寸法
  6
CONTINUOUS
 62
     5
 10
299.0186680244212
 20
706.140294945264
 30
0.0
 40
4.0
  1
 [7.913
 50
90.0
  0
TEXT
  5
679
  8
回07-寸法
  6
CONTINUOUS
 62
     5
 10
299.0186680244212
 20
721.754736419372
 30
0.0
 40
3.2
  1
±0.012
 50
90.0
  0
TEXT
  5
67A
  8
回07-寸法
  6
CONTINUOUS
 62
     5
 10
299.0186680244212
 20
733.2747364193719
 30
0.0
 40
4.0
  1
]
 50
90.0
  0
ENDBLK
  5
67C
  8
回07-寸法
  6
CONTINUOUS
 62
     5
  0
ENDSEC
  0
SECTION
  2
ENTITIES
  0
TEXT
  5
60
  8
回03-記事
  6
CONTINUOUS
 62
     5
 10
46.91481980285425
 20
495.7646695225466
 30
0.0
 40
4.799999999999998
  1
without affecting product specification.
  0
TEXT
  5
62
  8
回03-記事
  6
CONTINUOUS
 62
     5
 10
46.91481980285425
 20
504.1843752367466
 30
0.0
 40
4.799999999999998
  1
Edges and corners of ITO glass may be chamfered 
  0
TEXT
  5
63
  8
回03-記事
  6
CONTINUOUS
 62
     5
 10
46.91481980285425
 20
512.6040809509463
 30
0.0
 40
4.799999999999998
  1
Unit: mm
  0
TEXT
  5
64
  8
回03-記事
  6
CONTINUOUS
 62
     5
 10
46.91481980285425
 20
521.0237866651461
 30
0.0
 40
4.799999999999998
  1
EXCEPT WHERE INDICATED
  0
TEXT
  5
65
  8
回03-記事
  6
CONTINUOUS
 62
     5
 10
46.91481980285425
 20
529.4434923793459
 30
0.0
 40
4.799999999999998
  1
TOLERANCE=±0.5mm
  0
TEXT
  5
66
  8
回07-寸法
  6
CONTINUOUS
 62
     5
 10
-92.48326456284376
 20
729.3670012622762
 30
0.0
 40
4.0
  1
PROTECTION TAPE
1001
ACAD
1000
MTEXTBEGIN
1070
    73
1070
     1
1070
    44
1040
1.0
1070
    74
1070
     0
1000
MTEXTEND
  0
INSERT
  5
67
  8
回07-寸法
  6
CONTINUOUS
 62
     7
 66
     1
  2
*X656565
 10
0.0
 20
0.0
 30
0.0
  0
SEQEND
  5
56B
  8
回07-寸法
  6
CONTINUOUS
 62
     5
  0
INSERT
  5
68
  8
回07-寸法
  6
CONTINUOUS
 62
     5
 66
     1
  2
*X666666
 10
0.0
 20
0.0
 30
0.0
  0
SEQEND
  5
572
  8
回07-寸法
  6
CONTINUOUS
 62
     5
  0
LINE
  5
69
  8
回07-寸法
  6
CONTINUOUS
 62
     5
 10
236.279674384532
 20
557.2274640835569
 30
0.0
 11
236.279674384532
 21
520.6421629740686
 31
0.0
  0
TEXT
  5
6A
  8
回07-寸法
  6
CONTINUOUS
 62
     7
 10
295.4741263306368
 20
570.9111636865192
 30
0.0
 40
3.0
  1
(INSULATION AREA)
 50
90.0
  0
TEXT
  5
6B
  8
回07-寸法
  6
CONTINUOUS
 62
     7
 10
295.4741263306368
 20
817.766720501083
 30
0.0
 40
3.0
  1
(INSULATION AREA)
 50
90.0
  0
TEXT
  5
6C
  8
回07-寸法
  6
CONTINUOUS
 62
     7
 10
-98.40737301325134
 20
848.6656835147861
 30
0.0
 40
3.0
  1
(INSULATION AREA)
  0
TEXT
  5
6D
  8
回07-寸法
  6
CONTINUOUS
 62
     7
 10
233.6460462448477
 20
843.1897427518757
 30
0.0
 40
3.0
  1
(INSULATION AREA)
  0
DIMENSION
  5
6E
  8
回07-寸法
  6
CONTINUOUS
 62
     5
  2
*D333333
 10
290.1370913612482
 20
611.4253243962918
 30
0.0
 11
287.4370913612481
 21
593.7253243962917
 31
0.0
 70
    32
  3
DMC
 13
224.9863805646728
 23
617.1753243962919
 33
0.0
 14
229.1863805646726
 24
611.4253243962918
 34
0.0
 50
90.0
1001
ACAD
1000
DSTYLE
1002
{
1070
    40
1040
1.0
1002
}
  0
DIMENSION
  5
80
  8
回07-寸法
  6
CONTINUOUS
 62
     5
  2
*D343434
 10
290.1370913612482
 20
812.4253243962918
 30
0.0
 11
287.4370913612481
 21
830.125324396292
 31
0.0
 70
    32
  3
DMC
 13
224.9863805646728
 23
806.6753243962917
 33
0.0
 14
229.1863805646726
 24
812.4253243962918
 34
0.0
 50
90.0
1001
ACAD
1000
DSTYLE
1002
{
1070
    40
1040
1.0
1002
}
  0
DIMENSION
  5
91
  8
回07-寸法
  6
CONTINUOUS
 62
     5
  2
*D353535
 10
290.1370913612482
 20
806.6753243962917
 30
0.0
 11
287.4370913612481
 21
711.9253243962917
 31
0.0
 70
    32
  3
DMC
 13
224.9863805646728
 23
617.1753243962919
 33
0.0
 14
224.9863805646728
 24
806.6753243962917
 34
0.0
 50
90.0
1001
ACAD
1000
DSTYLE
1002
{
1070
    40
1040
1.0
1002
}
  0
DIMENSION
  5
A0
  8
回07-寸法
  6
CONTINUOUS
 62
     5
  2
*D363636
 10
229.1863805646726
 20
847.9320386577944
 30
0.0
 11
245.2863805646726
 21
850.6320386577945
 31
0.0
 70
    32
  3
DMC
 13
224.9863805646728
 23
806.6753243962917
 33
0.0
 14
229.1863805646726
 24
812.4253243962918
 34
0.0
1001
ACAD
1000
DSTYLE
1002
{
1070
    40
1040
1.0
1002
}
  0
DIMENSION
  5
B1
  8
回07-寸法
  6
CONTINUOUS
 62
     5
  2
*D373737
 10
224.9863805646728
 20
847.9320386577944
 30
0.0
 11
99.18638056467308
 21
850.6330852506369
 31
0.0
 70
    32
  3
DMC
 13
-26.61361943532666
 23
806.6753243962917
 33
0.0
 14
224.9863805646728
 24
806.6753243962917
 34
0.0
1001
ACAD
1000
DSTYLE
1002
{
1070
    40
1040
1.0
1002
}
  0
DIMENSION
  5
C0
  8
回07-寸法
  6
CONTINUOUS
 62
     5
  2
*D383838
 10
-33.81361943532648
 20
847.9320386577944
 30
0.0
 11
-50.11361943532666
 21
847.9320386577944
 31
0.0
 70
   160
  3
DMC
 13
-26.61361943532666
 23
806.6753243962917
 33
0.0
 14
-33.81361943532648
 24
812.4253243962918
 34
0.0
1001
ACAD
1000
DSTYLE
1002
{
1070
    40
1040
1.0
1002
}
  0
POLYLINE
  5
D1
  8
回08-記事
  6
DASHED2
 62
     7
 66
     1
 10
0.0
 20
0.0
 30
0.0
 70
     1
  0
VERTEX
  5
AA6
  8
回08-記事
  6
DASHED2
 62
     7
 10
-26.61361943532666
 20
617.1753243962919
 30
0.0
  0
VERTEX
  5
AA8
  8
回08-記事
  6
DASHED2
 62
     7
 10
224.9863805646728
 20
617.1753243962919
 30
0.0
  0
VERTEX
  5
AA9
  8
回08-記事
  6
DASHED2
 62
     7
 10
224.9863805646728
 20
806.6753243962917
 30
0.0
  0
VERTEX
  5
AAA
  8
回08-記事
  6
DASHED2
 62
     7
 10
-26.61361943532666
 20
806.6753243962917
 30
0.0
  0
SEQEND
  5
AA7
  8
回07-寸法
  6
CONTINUOUS
 62
     5
  0
TEXT
  5
D6
  8
回07-寸法
  6
CONTINUOUS
 62
     7
 10
-141.5880920092113
 20
584.8813560626697
 30
0.0
 40
4.0
  1
TRACE EXPOSE
  0
LINE
  5
D7
  8
回07-寸法
  6
CONTINUOUS
 62
     7
 10
-111.5883081516122
 20
566.7347408369376
 30
0.0
 11
-134.1795075667332
 21
583.5250646200462
 31
0.0
  0
TEXT
  5
D8
  8
回07-寸法
  6
CONTINUOUS
 62
     5
 10
-102.7283065455502
 20
689.04308954268
 30
0.0
 40
5.0
  1
A
  0
INSERT
  5
D9
  8
回07-寸法
  6
CONTINUOUS
 62
     5
 66
     1
  2
*X676767
 10
0.0
 20
0.0
 30
0.0
  0
SEQEND
  5
57E
  8
回07-寸法
  6
CONTINUOUS
 62
     5
  0
CIRCLE
  5
DA
  8
回07-寸法
  6
DASHED
 62
     5
 10
-113.8136629460941
 20
711.9253243962917
 30
0.0
 40
7.342325998566342
  0
TEXT
  5
DC
  8
回90-A2
 10
340.8071468864691
 20
509.4872463305708
 30
0.0
 40
5.0
  1
Sep/25/2023
  0
TEXT
  5
E0
  8
回90-A2
 10
347.2712335925717
 20
518.5352810035713
 30
0.0
 40
3.599999999999998
  1
DATE
  0
LINE
  5
E1
  8
回90-A2
 10
315.2694205817716
 20
523.5001590484281
 30
0.0
 11
315.2694205817716
 21
487.5001590484282
 31
0.0
  0
TEXT
  5
E2
  8
回90-A2
 10
270.046337396192
 20
500.3925026759191
 30
0.0
 40
3.599999999999998
  1
TYPE
  0
LINE
  5
E3
  8
回90-A2
 10
237.2694205817715
 20
523.5001590484281
 30
0.0
 11
237.2694205817715
 21
487.5001590484282
 31
0.0
  0
TEXT
  5
E4
  8
回90-A2
 10
253.3083169743368
 20
488.4901485790726
 30
0.0
 40
3.599999999999998
  1
DIMENSIONAL DRAWING
  0
TEXT
  5
E5
  8
回90-A2
 10
249.9723579619422
 20
494.5000366643371
 30
0.0
 40
3.599999999999998
  1
STANDARD TOUCHSCREEN
  0
TEXT
  5
E6
  8
回90-A2
 10
270.5441206620962
 20
518.5352810035713
 30
0.0
 40
3.599999999999998
  1
PART No.
  0
LINE
  5
E7
  8
回90-A2
 10
240.8694205817719
 20
493.5001590484282
 30
0.0
 11
311.6694205817712
 21
493.5001590484282
 31
0.0
  0
TEXT
  5
E8
  8
回90-A2
 10
338.3208461957474
 20
494.0503866582733
 30
0.0
 40
6.0
  1
DMC Co., Ltd.
  0
LINE
  5
E9
  8
回90-A2
 10
237.2694205817715
 20
499.5001590484286
 30
0.0
 11
315.2694205817716
 21
499.5001590484286
 31
0.0
  0
LINE
  5
EA
  8
回90-A2
 10
237.2694205817715
 20
523.5001590484281
 30
0.0
 11
405.2694205817713
 21
523.5001590484281
 31
0.0
  0
LINE
  5
EB
  8
回90-A2
 10
237.2694205817715
 20
505.5001590484287
 30
0.0
 11
405.2694205817713
 21
505.5001590484287
 31
0.0
  0
LINE
  5
EC
  8
回90-A2
 10
237.2694205817715
 20
517.5001590484281
 30
0.0
 11
405.2694205817713
 21
517.5001590484281
 31
0.0
  0
DIMENSION
  5
ED
  8
回08-記事
  6
CONTINUOUS
 62
   142
  2
*D393939
 10
-123.0063500786582
 20
644.2464954666406
 30
0.0
 11
-123.0063500786582
 21
618.9018104272721
 31
0.0
 70
   160
  1
6.25{\H0.6875x;±0.2}[0.246{\H0.6875x;±0.008}]
  3
DMC
 13
-89.31679283465106
 23
662.9964954666402
 33
0.0
 14
-89.31679283465106
 24
644.2464954666406
 34
0.0
 50
90.0
1001
ACAD
1000
DSTYLE
1002
{
1070
    40
1040
1.0
1002
}
  0
LINE
  5
FE
  8
回08-記事
  6
CONTINUOUS
 62
     7
 10
-38.00510243972713
 20
563.2274640835569
 30
0.0
 11
-34.83050525007366
 21
563.2274640835569
 31
0.0
  0
LINE
  5
FF
  8
回08-記事
  6
CONTINUOUS
 62
     7
 10
-38.00510243972713
 20
563.2274640835569
 30
0.0
 11
-38.00510243972713
 21
564.2274640835569
 31
0.0
  0
LINE
  5
100
  8
回08-記事
  6
CONTINUOUS
 62
     7
 10
-48.61338458537103
 20
571.597899413485
 30
0.0
 11
-39.12935218984967
 21
564.1899729161642
 31
0.0
  0
LINE
  5
101
  8
回08-記事
  6
CONTINUOUS
 62
     7
 10
-49.58960212081001
 20
567.2563780217212
 30
0.0
 11
-48.61338458537103
 21
571.597899413485
 31
0.0
  0
POLYLINE
  5
102
  8
回08-記事
  6
CONTINUOUS
 62
     7
 66
     1
 10
0.0
 20
0.0
 30
0.0
 70
     1
  0
VERTEX
  5
AAB
  8
回08-記事
  6
CONTINUOUS
 62
     7
 10
-42.79577115332995
 20
564.2274640835569
 30
0.0
  0
VERTEX
  5
AAD
  8
回08-記事
  6
CONTINUOUS
 62
     7
 10
-33.81361943532648
 20
564.2274640835569
 30
0.0
  0
VERTEX
  5
AAE
  8
回08-記事
  6
CONTINUOUS
 62
     7
 10
-33.81361943532648
 20
565.2274640835569
 30
0.0
  0
VERTEX
  5
AAF
  8
回08-記事
  6
CONTINUOUS
 62
     7
 10
-42.79577115332995
 20
565.2274640835569
 30
0.0
  0
SEQEND
  5
AAC
  8
回07-寸法
  6
CONTINUOUS
 62
     5
  0
TEXT
  5
103
  8
回08-記事
  6
CONTINUOUS
 62
     7
 10
-90.79203275823784
 20
641.2267223245024
 30
0.0
 40
3.0
  1
1
 50
90.0
  0
TEXT
  5
104
  8
回08-記事
  6
CONTINUOUS
 62
     7
 10
-90.81492571402668
 20
664.2666703063171
 30
0.0
 40
3.0
  1
4
 50
90.0
  0
POLYLINE
  5
105
  8
回08-記事
  6
CONTINUOUS
 62
     7
 66
     1
 10
0.0
 20
0.0
 30
0.0
 70
     1
  0
VERTEX
  5
AB0
  8
回08-記事
  6
CONTINUOUS
 62
     7
 10
-25.81361943532647
 20
806.1753243962918
 30
0.0
  0
VERTEX
  5
AB2
  8
回08-記事
  6
CONTINUOUS
 62
     7
 10
224.1863805646726
 20
806.1753243962918
 30
0.0
  0
VERTEX
  5
AB3
  8
回08-記事
  6
CONTINUOUS
 62
     7
 10
224.1863805646726
 20
617.6753243962918
 30
0.0
  0
VERTEX
  5
AB4
  8
回08-記事
  6
CONTINUOUS
 62
     7
 10
-25.81361943532647
 20
617.6753243962918
 30
0.0
  0
SEQEND
  5
AB1
  8
回07-寸法
  6
CONTINUOUS
 62
     5
  0
POLYLINE
  5
106
  8
回08-記事
  6
PHANTOM2
 62
     7
 66
     1
 10
0.0
 20
0.0
 30
0.0
 70
     1
  0
VERTEX
  5
AB5
  8
回08-記事
  6
PHANTOM2
 62
     7
 10
-24.31361943532647
 20
804.6753243962918
 30
0.0
  0
VERTEX
  5
AB7
  8
回08-記事
  6
PHANTOM2
 62
     7
 10
222.6863805646735
 20
804.6753243962918
 30
0.0
  0
VERTEX
  5
AB8
  8
回08-記事
  6
PHANTOM2
 62
     7
 10
222.6863805646735
 20
619.1753243962919
 30
0.0
  0
VERTEX
  5
AB9
  8
回08-記事
  6
PHANTOM2
 62
     7
 10
-24.31361943532647
 20
619.1753243962919
 30
0.0
  0
SEQEND
  5
AB6
  8
回07-寸法
  6
CONTINUOUS
 62
     5
  0
POLYLINE
  5
108
  8
回04-下接
  6
CONTINUOUS
 62
     7
 66
     1
 10
0.0
 20
0.0
 30
0.0
 70
     1
  0
VERTEX
  5
ABA
  8
回04-下接
  6
CONTINUOUS
 62
     7
 10
-33.81361943532738
 20
812.4253243962918
 30
0.0
  0
VERTEX
  5
ABC
  8
回04-下接
  6
CONTINUOUS
 62
     7
 10
229.1863805646735
 20
812.4253243962918
 30
0.0
  0
VERTEX
  5
ABD
  8
回04-下接
  6
CONTINUOUS
 62
     7
 10
229.1863805646735
 20
611.4253243962918
 30
0.0
  0
VERTEX
  5
ABE
  8
回04-下接
  6
CONTINUOUS
 62
     7
 10
-33.81361943532738
 20
611.4253243962918
 30
0.0
  0
SEQEND
  5
ABB
  8
回07-寸法
  6
CONTINUOUS
 62
     5
  0
TEXT
  5
10C
  8
回07-寸法
  6
CONTINUOUS
 62
     5
 10
-77.57660340032661
 20
735.1973564411155
 30
0.0
 40
4.0
  1
4-R1[R0.039]
1001
ACAD
1000
MTEXTBEGIN
1070
    73
1070
     1
1070
    44
1040
1.0
1070
    74
1070
     0
1000
MTEXTEND
  0
INSERT
  5
10D
  8
回07-寸法
  6
CONTINUOUS
 62
     7
 66
     1
  2
*X686868
 10
0.0
 20
0.0
 30
0.0
  0
SEQEND
  5
599
  8
回07-寸法
  6
CONTINUOUS
 62
     5
  0
DIMENSION
  5
10E
  8
回07-寸法
  6
CONTINUOUS
 62
     7
  2
*D404040
 10
-38.2036194353268
 20
691.6525238105258
 30
0.0
 11
-60.32912602816576
 21
691.6525238105258
 31
0.0
 70
   160
  3
DMC
 13
-33.81361943532648
 23
701.0542565844258
 33
0.0
 14
-38.2036194353268
 24
703.9253243962917
 34
0.0
1001
ACAD
1000
DSTYLE
1002
{
1070
    40
1040
1.0
1002
}
  0
INSERT
  5
11F
  8
回08-記事
  6
CONTINUOUS
 62
     8
 66
     1
  2
*X696969
 10
0.0
 20
0.0
 30
0.0
1001
ACAD
1000
HATCH
1002
{
1070
    19
1000
ANSI31
1040
15.0
1040
1.570796326794896
1000
ASC_BOUNDS
1070
     1
1070
     2
1070
     1
1005
120
1000
ASC_SEEDPOINT
1011
122.1128976290947
1021
691.9745238619217
1031
0.0
1000
R14_HATCH_DATA
1000
11F
1011
1.0
1021
0.0
1031
0.0
1011
0.0
1021
1.0
1031
0.0
1011
0.0
1021
0.0
1031
1.0
1040
0.0
1010
0.0
1020
0.0
1030
1.0
1000
ANSI31
1070
     0
1070
     1
1071
        1
1071
        1
1071
        8
1070
     1
1040
-80.17377626007419
1040
710.4253243962918
1040
-80.17377626007419
1040
713.4253243962917
1070
     2
1040
-79.17377626007419
1040
713.4253243962917
1040
1.0
1040
3.141592653589792
1040
4.712388980384688
1070
     0
1070
     1
1040
-79.17377626007419
1040
714.4253243962918
1040
-55.17377626007418
1040
714.4253243962918
1070
     2
1040
-55.17377626007418
1040
713.4253243962917
1040
1.0
1040
4.712388980384688
1040
6.283185307179584
1070
     0
1070
     1
1040
-54.17377626007418
1040
713.4253243962917
1040
-54.17377626007418
1040
710.4253243962918
1070
     2
1040
-55.17377626007418
1040
710.4253243962918
1040
1.0
1040
6.283185307179584
1040
7.853981633974482
1070
     0
1070
     1
1040
-55.17377626007418
1040
709.4253243962917
1040
-79.17377626007419
1040
709.4253243962917
1070
     2
1040
-79.17377626007419
1040
710.4253243962918
1040
1.0
1040
1.570796326794896
1040
3.141592653589792
1070
     0
1071
        1
1005
120
1070
     0
1070
     1
1040
1.570796326794896
1040
15.0
1070
     0
1070
     1
1040
2.356194490192344
1040
122.1128976290947
1040
691.9745238619217
1040
-1.325825214724774
1040
-1.325825214724774
1070
     0
1071
        1
1040
122.1128976290947
1040
691.9745238619217
1040
0.0
1002
}
  0
SEQEND
  5
5A8
  8
回07-寸法
  6
CONTINUOUS
 62
     5
  0
POLYLINE
  5
120
  8
回08-記事
  6
DASHED
 62
     8
 66
     1
 10
0.0
 20
0.0
 30
0.0
 70
     1
1001
ACAD
1000
ASC_BOUNDS
1002
{
1070
    19
1005
11F
1002
}
  0
VERTEX
  5
ABF
  8
回08-記事
  6
DASHED
 62
     8
 10
-80.17377626007419
 20
710.4253243962918
 30
0.0
  0
VERTEX
  5
AC1
  8
回08-記事
  6
DASHED
 62
     8
 10
-80.17377626007419
 20
713.4253243962917
 30
0.0
 42
-0.4142135623730951
  0
VERTEX
  5
AC2
  8
回08-記事
  6
DASHED
 62
     8
 10
-79.17377626007419
 20
714.4253243962918
 30
0.0
  0
VERTEX
  5
AC3
  8
回08-記事
  6
DASHED
 62
     8
 10
-55.17377626007418
 20
714.4253243962918
 30
0.0
 42
-0.4142135623730951
  0
VERTEX
  5
AC4
  8
回08-記事
  6
DASHED
 62
     8
 10
-54.17377626007418
 20
713.4253243962917
 30
0.0
  0
VERTEX
  5
AC5
  8
回08-記事
  6
DASHED
 62
     8
 10
-54.17377626007418
 20
710.4253243962918
 30
0.0
 42
-0.4142135623730951
  0
VERTEX
  5
AC6
  8
回08-記事
  6
DASHED
 62
     8
 10
-55.17377626007418
 20
709.4253243962917
 30
0.0
  0
VERTEX
  5
AC7
  8
回08-記事
  6
DASHED
 62
     8
 10
-79.17377626007419
 20
709.4253243962917
 30
0.0
 42
-0.4142135623730946
  0
SEQEND
  5
AC0
  8
回07-寸法
  6
CONTINUOUS
 62
     5
  0
INSERT
  5
121
  8
回08-記事
  6
CONTINUOUS
 62
     8
 66
     1
  2
*X707070
 10
0.0
 20
0.0
 30
0.0
1001
ACAD
1000
HATCH
1002
{
1070
    19
1000
ANSI31
1040
0.5
1040
6.283185307179584
1000
ASC_BOUNDS
1070
     1
1070
     2
1070
     1
1005
122
1000
ASC_SEEDPOINT
1011
215.2997046021628
1021
494.7756563151217
1031
0.0
1000
R14_HATCH_DATA
1000
121
1011
1.0
1021
0.0
1031
0.0
1011
0.0
1021
1.0
1031
0.0
1011
0.0
1021
0.0
1031
1.0
1040
0.0
1010
0.0
1020
0.0
1030
1.0
1000
ANSI31
1070
     0
1070
     1
1071
        1
1071
        1
1071
        4
1070
     1
1040
-30.31361943532647
1040
719.3280072087072
1040
-38.00510243972713
1040
719.3280072087072
1070
     1
1040
-38.00510243972713
1040
719.3280072087072
1040
-38.00510243972713
1040
712.9253243962922
1070
     1
1040
-38.00510243972713
1040
712.9253243962922
1040
-30.31361943532647
1040
712.9253243962922
1070
     1
1040
-30.31361943532647
1040
712.9253243962922
1040
-30.31361943532647
1040
719.3280072087072
1071
        1
1005
122
1070
     0
1070
     1
1040
6.283185307179584
1040
0.5
1070
     0
1070
     1
1040
0.7853981633974481
1040
215.2997046021628
1040
494.7756563151217
1040
-1.122532015133643
1040
1.122532015133643
1070
     0
1071
        1
1040
215.2997046021628
1040
494.7756563151217
1040
0.0
1002
}
  0
SEQEND
  5
5BB
  8
回07-寸法
  6
CONTINUOUS
 62
     5
  0
POLYLINE
  5
122
  8
回08-記事
  6
DASHED
 62
     8
 66
     1
 10
0.0
 20
0.0
 30
0.0
 70
     1
1001
ACAD
1000
ASC_BOUNDS
1002
{
1070
    19
1005
121
1002
}
  0
VERTEX
  5
AC8
  8
回08-記事
  6
DASHED
 62
     8
 10
-30.31361943532647
 20
719.3280072087072
 30
0.0
  0
VERTEX
  5
ACA
  8
回08-記事
  6
DASHED
 62
     8
 10
-38.00510243972713
 20
719.3280072087072
 30
0.0
  0
VERTEX
  5
ACB
  8
回08-記事
  6
DASHED
 62
     8
 10
-38.00510243972713
 20
712.9253243962922
 30
0.0
  0
VERTEX
  5
ACC
  8
回08-記事
  6
DASHED
 62
     8
 10
-30.31361943532647
 20
712.9253243962922
 30
0.0
  0
SEQEND
  5
AC9
  8
回07-寸法
  6
CONTINUOUS
 62
     5
  0
TEXT
  5
123
  8
回08-記事
  6
CONTINUOUS
 62
     7
 10
-113.8910864704303
 20
709.0127869870419
 30
0.0
 40
3.0
  1
1
 50
90.0
  0
TEXT
  5
124
  8
回08-記事
  6
CONTINUOUS
 62
     7
 10
-113.9139794262191
 20
712.8734464383194
 30
0.0
 40
3.0
  1
4
 50
90.0
  0
ARC
  5
125
  8
回05-ﾃ-ﾙ
  6
CONTINUOUS
 62
     7
 10
-43.7223207351999
 20
707.7962997307125
 30
0.0
 40
1.0
 50
45.14359814421449
 51
89.99668642115281
  0
ARC
  5
129
  8
回05-ﾃ-ﾙ
  6
CONTINUOUS
 62
     7
 10
-43.72488200410407
 20
716.0503243962922
 30
0.0
 40
1.0
 50
270.0
 51
314.8829928953718
  0
ARC
  5
12A
  8
回05-ﾃ-ﾙ
  6
CONTINUOUS
 62
     7
 10
-38.00510243972713
 20
718.9241214618821
 30
0.0
 40
1.0
 50
90.02560571194576
 51
134.8829928953718
  0
ARC
  5
12B
  8
回05-ﾃ-ﾙ
  6
CONTINUOUS
 62
     7
 10
-38.00137575798635
 20
704.9253243962922
 30
0.0
 40
1.0
 50
225.1435981442145
 51
270.0
  0
ARC
  5
12C
  8
回05-ﾃ-ﾙ
  6
CONTINUOUS
 62
     7
 10
-35.31361943532647
 20
701.9253243962922
 30
0.0
 40
2.0
 50
41.40962210934328
 51
90.0
  0
ARC
  5
12D
  8
回05-ﾃ-ﾙ
  6
BYBLOCK
 62
     7
 10
-35.31361943532647
 20
721.9253245960153
 30
0.0
 40
2.0
 50
270.0256057119457
 51
318.5903778906567
  0
LINE
  5
12E
  8
回05-ﾃ-ﾙ
  6
CONTINUOUS
 62
     7
 10
-43.0169883666822
 20
708.5051764829906
 30
0.0
 11
-38.70670812650315
 21
704.2164476440132
 31
0.0
  0
LINE
  5
12F
  8
回05-ﾃ-ﾙ
  6
CONTINUOUS
 62
     7
 10
-43.01922072101296
 20
715.3417750659375
 30
0.0
 11
-38.71076372281823
 21
719.6326707922365
 31
0.0
  0
LINE
  5
130
  8
回05-ﾃ-ﾙ
  6
CONTINUOUS
 62
     7
 10
-38.00137575798544
 20
703.9253243962917
 30
0.0
 11
-35.31361943532647
 21
703.9253243962917
 31
0.0
  0
LINE
  5
131
  8
回05-ﾃ-ﾙ
  6
CONTINUOUS
 62
     7
 10
-38.00554934369211
 20
719.9241213620198
 30
0.0
 11
-35.31272562739469
 21
719.9253247957382
 31
0.0
  0
LINE
  5
132
  8
回05-ﾃ-ﾙ
  6
CONTINUOUS
 62
     7
 10
-113.8136629460941
 20
714.5503243962918
 30
0.0
 11
-113.8136629460941
 21
709.3003243962917
 31
0.0
  0
ARC
  5
133
  8
回05-ﾃ-ﾙ
  6
CONTINUOUS
 62
     7
 10
-113.3136629460941
 20
709.3003243962924
 30
0.0
 40
0.5
 50
180.0
 51
270.0
  0
ARC
  5
134
  8
回05-ﾃ-ﾙ
  6
CONTINUOUS
 62
     7
 10
-113.3136629460941
 20
714.5503243962922
 30
0.0
 40
0.5
 50
90.0
 51
180.0
  0
LINE
  5
135
  8
回05-ﾃ-ﾙ
  6
CONTINUOUS
 62
     7
 10
-113.3136629460941
 20
708.8003243962922
 30
0.0
 11
-43.72226290233811
 21
708.7962997290397
 31
0.0
  0
LINE
  5
136
  8
回05-ﾃ-ﾙ
  6
CONTINUOUS
 62
     7
 10
-113.3136629460941
 20
715.0503243962922
 30
0.0
 11
-43.72488200410407
 21
715.0503243962922
 31
0.0
  0
DIMENSION
  5
137
  8
回07-寸法
  6
CONTINUOUS
 62
     7
  2
*D414141
 10
261.6879884968402
 20
711.9253243962917
 30
0.0
 11
261.6879884968402
 21
663.4706151182315
 31
0.0
 70
   160
  1
<> (ACTIVE AREA CENTER)
  3
DMC
 13
229.1863805646735
 23
611.4253243962918
 33
0.0
 14
227.7748503538969
 24
711.9253243962917
 34
0.0
 50
90.0
1001
ACAD
1000
DSTYLE
1002
{
1070
    40
1040
1.0
1002
}
  0
LINE
  5
146
  8
回07-寸法
  6
CENTER2
 62
     5
 10
227.7748503538969
 20
711.9253243962917
 30
0.0
 11
-115.200854860217
 21
711.9253243962917
 31
0.0
  0
LINE
  5
148
  8
回07-寸法
  6
CENTER2
 62
     5
 10
99.18638056467351
 20
811.1877824682256
 30
0.0
 11
99.18638056467351
 21
613.6029800378387
 31
0.0
  0
TEXT
  5
149
  8
回07-寸法
  6
CONTINUOUS
 62
     5
 10
-74.96360304589932
 20
741.2498547883958
 30
0.0
 40
4.0
  1
2-R2[R0.079]
1001
ACAD
1000
MTEXTBEGIN
1070
    73
1070
     1
1070
    44
1040
1.0
1070
    74
1070
     0
1000
MTEXTEND
  0
INSERT
  5
14A
  8
回07-寸法
  6
CONTINUOUS
 62
     7
 66
     1
  2
*X717171
 10
0.0
 20
0.0
 30
0.0
  0
SEQEND
  5
5C7
  8
回07-寸法
  6
CONTINUOUS
 62
     5
  0
TEXT
  5
14B
  8
回07-寸法
  6
CONTINUOUS
 62
     5
 10
-100.7242124762671
 20
724.5429946982255
 30
0.0
 40
4.0
  1
LOT LABEL
1001
ACAD
1000
MTEXTBEGIN
1070
    73
1070
     1
1070
    44
1040
1.0
1070
    74
1070
     0
1000
MTEXTEND
  0
INSERT
  5
14C
  8
回07-寸法
  6
CONTINUOUS
 62
     7
 66
     1
  2
*X727272
 10
0.0
 20
0.0
 30
0.0
  0
SEQEND
  5
5CE
  8
回07-寸法
  6
CONTINUOUS
 62
     5
  0
ARC
  5
14D
  8
回08-記事
  6
CONTINUOUS
 62
     7
 10
-89.31679283465106
 20
661.4964954666406
 30
0.0
 40
1.5
 50
90.0
 51
180.0
  0
POLYLINE
  5
14E
  8
回08-記事
  6
CONTINUOUS
 62
     8
 66
     1
 10
0.0
 20
0.0
 30
0.0
 40
2.399999999999999
 41
2.399999999999999
  0
VERTEX
  5
ACD
  8
回08-記事
  6
CONTINUOUS
 62
     8
 10
-90.81679283465106
 20
651.7464954666425
 30
0.0
  0
VERTEX
  5
ACF
  8
回08-記事
  6
CONTINUOUS
 62
     8
 10
-75.8167928346511
 20
651.7464954666425
 30
0.0
  0
SEQEND
  5
ACE
  8
回07-寸法
  6
CONTINUOUS
 62
     5
  0
LINE
  5
14F
  8
回07-寸法
 62
     5
 10
-93.47648113363083
 20
651.7464954666425
 30
0.0
 11
-72.50147847217611
 21
651.7464954666425
 31
0.0
  0
POLYLINE
  5
150
  8
回08-記事
  6
CONTINUOUS
 62
     8
 66
     1
 10
0.0
 20
0.0
 30
0.0
 40
2.399999999999999
 41
2.399999999999999
  0
VERTEX
  5
AD0
  8
回08-記事
  6
CONTINUOUS
 62
     8
 10
-90.81679283465106
 20
655.4964954666416
 30
0.0
  0
VERTEX
  5
AD2
  8
回08-記事
  6
CONTINUOUS
 62
     8
 10
-75.8167928346511
 20
655.4964954666416
 30
0.0
  0
SEQEND
  5
AD1
  8
回07-寸法
  6
CONTINUOUS
 62
     5
  0
POLYLINE
  5
151
  8
回08-記事
  6
CONTINUOUS
 62
     8
 66
     1
 10
0.0
 20
0.0
 30
0.0
 40
2.399999999999999
 41
2.399999999999999
  0
VERTEX
  5
AD3
  8
回08-記事
  6
CONTINUOUS
 62
     8
 10
-90.81679283465106
 20
659.2464954666425
 30
0.0
  0
VERTEX
  5
AD5
  8
回08-記事
  6
CONTINUOUS
 62
     8
 10
-75.8167928346511
 20
659.2464954666425
 30
0.0
  0
SEQEND
  5
AD4
  8
回07-寸法
  6
CONTINUOUS
 62
     5
  0
LINE
  5
152
  8
回08-記事
  6
CONTINUOUS
 62
     7
 10
-89.31679283465106
 20
662.9964954666406
 30
0.0
 11
-62.71615187426778
 21
662.9964954666406
 31
0.0
  0
LINE
  5
153
  8
回07-寸法
 62
     5
 10
-93.47648113363083
 20
659.2464954666425
 30
0.0
 11
-72.50147847217611
 21
659.2464954666425
 31
0.0
  0
ARC
  5
154
  8
回08-記事
  6
CONTINUOUS
 62
     7
 10
-89.27978216744032
 20
645.8358471213747
 30
0.0
 40
1.589782523458143
 50
165.1960135173837
 51
268.666014633362
  0
LINE
  5
155
  8
回08-記事
  6
CONTINUOUS
 62
     7
 10
-89.31679283465106
 20
644.2464954666406
 30
0.0
 11
-62.71615187426778
 21
644.2464954666406
 31
0.0
  0
LINE
  5
156
  8
回07-寸法
 62
     5
 10
-93.47648113363083
 20
647.9964954666423
 30
0.0
 11
-72.50147847217611
 21
647.9964954666423
 31
0.0
  0
TEXT
  5
157
  8
回08-記事
  6
CONTINUOUS
 62
     5
 10
-82.72766555703126
 20
625.7052880251713
 30
0.0
 40
5.0
  1
SECTION A
  0
LINE
  5
158
  8
回05-ﾃ-ﾙ
  6
CONTINUOUS
 62
     7
 10
-75.8167928346511
 20
662.9964954666406
 30
0.0
 11
-75.8167928346511
 21
644.2464954666406
 31
0.0
  0
LINE
  5
159
  8
回05-ﾃ-ﾙ
  6
CONTINUOUS
 62
     7
 10
-90.81679283465106
 20
661.4964954666406
 30
0.0
 11
-90.81679283465106
 21
645.7464954666408
 31
0.0
  0
POLYLINE
  5
15A
  8
回08-記事
  6
CONTINUOUS
 62
     8
 66
     1
 10
0.0
 20
0.0
 30
0.0
 40
2.399999999999999
 41
2.399999999999999
  0
VERTEX
  5
AD6
  8
回08-記事
  6
CONTINUOUS
 62
     8
 10
-90.81679283465106
 20
647.9964954666423
 30
0.0
  0
VERTEX
  5
AD8
  8
回08-記事
  6
CONTINUOUS
 62
     8
 10
-75.8167928346511
 20
647.9964954666423
 30
0.0
  0
SEQEND
  5
AD7
  8
回07-寸法
  6
CONTINUOUS
 62
     5
  0
DIMENSION
  5
15B
  8
回08-記事
  6
CONTINUOUS
 62
     5
  2
*D424242
 10
-96.57554122443798
 20
646.7964954666427
 30
0.0
 11
-99.27554122443805
 21
616.5464954666425
 31
0.0
 70
    32
  1
4-0.7{\H0.75x;±0.1}[4-0.028{\H0.75x;±0.004}]
  3
DMC
 13
-90.81679283465106
 23
649.1964954666421
 33
0.0
 14
-90.81679283465106
 24
646.7964954666427
 34
0.0
 50
90.0
1001
ACAD
1000
DSTYLE
1002
{
1070
    40
1040
1.0
1002
}
  0
DIMENSION
  5
16C
  8
回08-記事
  6
CONTINUOUS
 62
     5
  2
*D434343
 10
-104.9791954579568
 20
647.9964954666423
 30
0.0
 11
-104.9791954579568
 21
622.3892747295884
 31
0.0
 70
   160
  1
1.25{\H0.75x;±0.2}[0.049{\H0.75x;±0.008}]
  3
DMC
 13
-90.81679283465106
 23
651.7464954666425
 33
0.0
 14
-90.81679283465106
 24
647.9964954666423
 34
0.0
 50
90.0
1001
ACAD
1000
DSTYLE
1002
{
1070
    40
1040
1.0
1002
}
  0
DIMENSION
  5
17D
  8
回08-記事
  6
CONTINUOUS
 62
     5
  2
*D444444
 10
-114.3347845811313
 20
647.9964954666423
 30
0.0
 11
-114.3347845811313
 21
622.5464954666422
 31
0.0
 70
   160
  1
3.75{\H0.75x;±0.1}[0.148{\H0.75x;±0.004}]
  3
DMC
 13
-90.81679283465106
 23
659.2464954666425
 33
0.0
 14
-90.81679283465106
 24
647.9964954666423
 34
0.0
 50
90.0
1001
ACAD
1000
DSTYLE
1002
{
1070
    40
1040
1.0
1002
}
  0
TEXT
  5
18E
  8
回07-寸法
  6
CONTINUOUS
 62
     5
 10
197.382745453166
 20
628.6011675884529
 30
0.0
 40
4.0
  1
AIR VENT
1001
ACAD
1000
MTEXTBEGIN
1070
    73
1070
     1
1070
    44
1040
1.0
1070
    74
1070
     0
1000
MTEXTEND
  0
DIMENSION
  5
18F
  8
回07-寸法
  6
CONTINUOUS
 62
     5
  2
*D454545
 10
238.2153108591856
 20
619.1753243962919
 30
0.0
 11
238.2153108591856
 21
635.0809703301962
 31
0.0
 70
   160
  1
(<>)
  3
DMC
 13
229.1863805646735
 23
617.1753243962919
 33
0.0
 14
229.1863805646735
 24
619.1753243962919
 34
0.0
 50
90.0
1001
ACAD
1000
DSTYLE
1002
{
1070
    40
1040
1.0
1002
}
  0
DIMENSION
  5
1A0
  8
回07-寸法
  6
CONTINUOUS
 62
     5
  2
*D464646
 10
242.9513810181644
 20
611.4253243962918
 30
0.0
 11
242.9513810181644
 21
592.1268991994415
 31
0.0
 70
   160
  1
(<>)
  3
DMC
 13
229.1863805646735
 23
617.1753243962919
 33
0.0
 14
229.1863805646735
 24
611.4253243962918
 34
0.0
 50
90.0
1001
ACAD
1000
DSTYLE
1002
{
1070
    40
1040
1.0
1002
}
  0
LINE
  5
1B1
  8
回08-記事
  6
CONTINUOUS
 62
     7
 10
229.1863805646735
 20
619.1753243962919
 30
0.0
 11
224.1863805646726
 21
619.1753243962919
 31
0.0
  0
LINE
  5
1B2
  8
回08-記事
  6
CONTINUOUS
 62
     7
 10
224.1863805646726
 20
617.1753243962919
 30
0.0
 11
229.1863805646735
 21
617.1753243962919
 31
0.0
  0
DIMENSION
  5
1B3
  8
回07-寸法
  6
CONTINUOUS
 62
     5
  2
*D474747
 10
280.5555146980823
 20
611.4253243962918
 30
0.0
 11
280.5555146980823
 21
593.4056393569232
 31
0.0
 70
   160
  3
DMC
 13
224.1863805646735
 23
617.6753243962918
 33
0.0
 14
229.1863805646735
 24
611.4253243962918
 34
0.0
 50
90.0
1001
ACAD
1000
DSTYLE
1002
{
1070
    40
1040
1.0
1002
}
  0
DIMENSION
  5
1C4
  8
回07-寸法
  6
CONTINUOUS
 62
     5
  2
*D484848
 10
270.9739380349128
 20
611.4253243962918
 30
0.0
 11
270.9739380349128
 21
593.7253243962917
 31
0.0
 70
   160
  3
DMC
 13
222.6863805646735
 23
619.1753243962919
 33
0.0
 14
229.1863805646726
 24
611.4253243962918
 34
0.0
 50
90.0
1001
ACAD
1000
DSTYLE
1002
{
1070
    40
1040
1.0
1002
}
  0
DIMENSION
  5
1D5
  8
回07-寸法
  6
CONTINUOUS
 62
     5
  2
*D494949
 10
-33.81361943532738
 20
838.5772996918381
 30
0.0
 11
-47.71361943532737
 21
838.5772996918381
 31
0.0
 70
   160
  3
DMC
 13
-25.81361943532647
 23
806.1753243962918
 33
0.0
 14
-33.81361943532738
 24
812.4253243962918
 34
0.0
1001
ACAD
1000
DSTYLE
1002
{
1070
    40
1040
1.0
1002
}
  0
DIMENSION
  5
1E6
  8
回07-寸法
  6
CONTINUOUS
 62
     5
  2
*D505050
 10
-33.81361943532648
 20
828.9067895141522
 30
0.0
 11
-50.39646214780077
 21
828.9067895141522
 31
0.0
 70
   160
  3
DMC
 13
-24.31361943532647
 23
804.6753243962918
 33
0.0
 14
-33.81361943532648
 24
812.4253243962918
 34
0.0
1001
ACAD
1000
DSTYLE
1002
{
1070
    40
1040
1.0
1002
}
  0
TEXT
  5
1F7
  8
回07-寸法
  6
CONTINUOUS
 62
     5
 10
185.3708374665482
 20
600.000877979121
 30
0.0
 40
4.0
  1
PART No.
1001
ACAD
1000
MTEXTBEGIN
1070
    73
1070
     1
1070
    44
1040
1.0
1070
    74
1070
     0
1000
MTEXTEND
  0
INSERT
  5
1F8
  8
回07-寸法
  6
CONTINUOUS
 62
     5
 66
     1
  2
*X737373
 10
0.0
 20
0.0
 30
0.0
  0
SEQEND
  5
5E1
  8
回07-寸法
  6
CONTINUOUS
 62
     5
  0
TEXT
  5
1F9
  8
回08-記事
  6
CONTINUOUS
 62
     5
 10
101.7428381752524
 20
793.9653723117419
 30
0.0
 40
7.0
  1
YU
  0
DIMENSION
  5
1FA
  8
回07-寸法
 62
     5
  2
*D515151
 10
229.1863805646726
 20
857.8329901384984
 30
0.0
 11
97.18638056467264
 21
857.8329901384984
 31
0.0
 70
   160
  3
DMC
 13
-33.81361943532738
 23
812.4253243962918
 33
0.0
 14
229.1863805646726
 24
812.4253243962918
 34
0.0
1001
ACAD
1000
DSTYLE
1002
{
1070
   146
1040
0.8
1070
    47
1040
0.3
1070
   147
1040
0.5
1070
    48
1040
0.3
1070
    72
1070
     0
1070
    71
1070
     1
1070
    40
1040
1.0
1002
}
  0
DIMENSION
  5
209
  8
回07-寸法
 62
     5
  2
*D525252
 10
224.1863805646726
 20
838.5772996918381
 30
0.0
 11
102.926043828983
 21
838.5772996918381
 31
0.0
 70
   160
  1
<> (VIEWING AREA)
  3
DMC
 13
-25.81361943532647
 23
806.1753243962918
 33
0.0
 14
224.1863805646726
 24
806.1753243962918
 34
0.0
1001
ACAD
1000
DSTYLE
1002
{
1070
    40
1040
1.0
1002
}
  0
DIMENSION
  5
218
  8
回07-寸法
 62
     5
  2
*D535353
 10
222.6863805646735
 20
828.9067895141522
 30
0.0
 11
102.5053842513307
 21
828.9067895141522
 31
0.0
 70
   160
  1
<> (ACTIVE AREA)
  3
DMC
 13
-24.31361943532647
 23
804.6753243962918
 33
0.0
 14
222.6863805646735
 24
804.6753243962918
 34
0.0
1001
ACAD
1000
DSTYLE
1002
{
1070
    40
1040
1.0
1002
}
  0
DIMENSION
  5
227
  8
回07-寸法
  6
CONTINUOUS
 62
     7
  2
*D545454
 10
99.18638056467351
 20
818.8158220915845
 30
0.0
 11
36.04060085635774
 21
818.8158220915845
 31
0.0
 70
   160
  1
<> (ACTIVE AERA CENTER)
  3
DMC
 13
-33.81361943532738
 23
812.4253243962918
 33
0.0
 14
99.18638056467351
 24
811.1877824682256
 34
0.0
1001
ACAD
1000
DSTYLE
1002
{
1070
    40
1040
1.0
1002
}
  0
TEXT
  5
236
  8
回08-記事
  6
CONTINUOUS
 62
     5
 10
208.8404019163236
 20
713.9236546349725
 30
0.0
 40
7.0
  1
XR
  0
TEXT
  5
237
  8
回08-記事
  6
CONTINUOUS
 62
     5
 10
101.7428381752524
 20
622.7650460053624
 30
0.0
 40
7.0
  1
YD
  0
TEXT
  5
238
  8
回08-記事
 62
     7
 10
211.107025570288
 20
612.6122407846319
 30
0.0
 40
1.5
  1
AST-121B
  0
TEXT
  5
239
  8
回07-寸法
  6
CONTINUOUS
 62
     5
 10
187.9875158975901
 20
593.913969140368
 30
0.0
 40
4.0
  1
AST-121B
  0
TEXT
  5
23A
  8
回08-記事
  6
CONTINUOUS
 62
     5
 10
-22.8706027307162
 20
713.9236546349725
 30
0.0
 40
7.0
  1
XL
  0
TEXT
  5
23B
  8
回08-記事
  6
CONTINUOUS
 62
     5
 10
-22.8706027307162
 20
713.9236546349725
 30
0.0
 40
7.0
  1
XL
  0
DIMENSION
  5
23C
  8
回07-寸法
 62
     5
  2
*D555555
 10
-122.6340699420625
 20
708.8003243962917
 30
0.0
 11
-122.6340699420625
 21
690.7806393569232
 31
0.0
 70
   160
  1
<>
  3
DMC
 13
-113.3136194353255
 23
715.0503243962917
 33
0.0
 14
-113.3136194353255
 24
708.8003243962917
 34
0.0
 50
90.0
1001
ACAD
1000
DSTYLE
1002
{
1070
    40
1040
1.0
1002
}
  0
DIMENSION
  5
24D
  8
回07-寸法
  6
CONTINUOUS
 62
     5
  2
*D565656
 10
-43.2136194353261
 20
682.5759017006112
 30
0.0
 11
-59.79646214780039
 21
682.5759017006112
 31
0.0
 70
   160
  3
DMC
 13
-33.81361943532648
 23
701.0542565844258
 33
0.0
 14
-43.2136194353261
 24
708.6572428110067
 34
0.0
1001
ACAD
1000
DSTYLE
1002
{
1070
    40
1040
1.0
1002
}
  0
LINE
  5
25E
  8
回04-下接
  6
CONTINUOUS
 62
     3
 10
-33.81361943532648
 20
611.4253243962918
 30
0.0
 11
-33.81361943532648
 21
701.0542565844258
 31
0.0
  0
DIMENSION
  5
25F
  8
回07-寸法
 62
     5
  2
*D575757
 10
-33.81361943532738
 20
770.5124707682475
 30
0.0
 11
-70.74812799383106
 21
770.5124707682475
 31
0.0
 70
   160
  1
<>
  3
DMC
 13
-113.8136194353255
 23
713.8003243962916
 33
0.0
 14
-33.81361943532738
 24
721.9328253970945
 34
0.0
1001
ACAD
1000
DSTYLE
1002
{
1070
    40
1040
1.0
1070
    47
1040
1.0
1070
    48
1040
1.0
1070
    71
1070
     1
1070
   146
1040
0.8
1002
}
  0
DIMENSION
  5
26E
  8
回07-寸法
 62
     5
  2
*D585858
 10
-122.6340699420661
 20
812.4253243962918
 30
0.0
 11
-125.3340699420662
 21
763.7378243962918
 31
0.0
 70
    32
  1
(<>)
  3
DMC
 13
-113.3136194353255
 23
715.0503243962917
 33
0.0
 14
-33.81361943532738
 24
812.4253243962918
 34
0.0
 50
90.0
1001
ACAD
1000
DSTYLE
1002
{
1070
    40
1040
1.0
1002
}
  0
DIMENSION
  5
27D
  8
回07-寸法
 62
     5
  2
*D595959
 10
299.7186680244213
 20
611.4253243962918
 30
0.0
 11
299.7186680244213
 21
712.8675156823178
 31
0.0
 70
   160
  3
DMC
 13
229.1863805646726
 23
812.4253243962918
 33
0.0
 14
229.1863805646726
 24
611.4253243962918
 34
0.0
 50
90.0
1001
ACAD
1000
DSTYLE
1002
{
1070
   146
1040
0.8
1070
    47
1040
0.3
1070
   147
1040
0.5
1070
    48
1040
0.3
1070
    72
1070
     0
1070
    71
1070
     1
1070
    40
1040
1.0
1002
}
  0
DIMENSION
  5
28C
  8
回07-寸法
 62
     5
  2
*D606060
 10
280.5555146980823
 20
617.6753243962918
 30
0.0
 11
280.5555146980823
 21
717.2658672779887
 31
0.0
 70
   160
  1
<> (VIEWING AREA)
  3
DMC
 13
224.1863805646726
 23
806.1753243962918
 33
0.0
 14
224.1863805646726
 24
617.6753243962918
 34
0.0
 50
90.0
1001
ACAD
1000
DSTYLE
1002
{
1070
    40
1040
1.0
1002
}
  0
DIMENSION
  5
29B
  8
回07-寸法
 62
     5
  2
*D616161
 10
270.9739380349128
 20
804.6753243962918
 30
0.0
 11
270.9739380349128
 21
717.2658672779887
 31
0.0
 70
   160
  1
<> (ACTIVE AREA)
  3
DMC
 13
222.6863805646735
 23
619.1753243962919
 33
0.0
 14
222.6863805646735
 24
804.6753243962918
 34
0.0
 50
90.0
1001
ACAD
1000
DSTYLE
1002
{
1070
    40
1040
1.0
1002
}
  0
DIMENSION
  5
2AA
  8
回07-寸法
  6
CONTINUOUS
 62
     5
  2
*D626262
 10
-85.70862780283915
 20
719.9241213620198
 30
0.0
 11
-85.70862780283915
 21
688.6253243962918
 31
0.0
 70
   160
  3
DMC
 13
-38.00137575798544
 23
703.9253243962917
 33
0.0
 14
-38.00554934369211
 24
719.9241213620198
 34
0.0
 50
90.0
1001
ACAD
1000
DSTYLE
1002
{
1070
    40
1040
1.0
1002
}
  0
LINE
  5
2BB
  8
回08-記事
  6
CONTINUOUS
 62
     7
 10
-27.8315339033561
 20
553.9662559251719
 30
0.0
 11
-30.59995052374325
 21
558.635379922822
 31
0.0
  0
TEXT
  5
2BC
  8
回08-記事
  6
CONTINUOUS
 62
     7
 10
-28.71493697878032
 20
550.1436304709994
 30
0.0
 40
4.0
  1
PROTECTION TAPE
  0
LINE
  5
2BD
  8
回08-記事
  6
CONTINUOUS
 62
     7
 10
-30.31361943532647
 20
558.3023635521564
 30
0.0
 11
-30.31361943532647
 21
559.2274640835569
 31
0.0
  0
LINE
  5
2BE
  8
回08-記事
  6
CONTINUOUS
 62
     7
 10
-34.83050525007366
 20
558.3023635521564
 30
0.0
 11
-30.31361943532647
 21
558.3023635521564
 31
0.0
  0
LINE
  5
2BF
  8
回08-記事
  6
CONTINUOUS
 62
     7
 10
-34.83050525007366
 20
563.2274640835569
 30
0.0
 11
-34.83050525007366
 21
558.3023635521564
 31
0.0
  0
TEXT
  5
2C0
  8
回08-記事
  6
CONTINUOUS
 62
     5
 10
-64.12964965474893
 20
554.0619234931373
 30
0.0
 40
4.0
  1
LOT LABEL
1001
ACAD
1000
MTEXTBEGIN
1070
    73
1070
     1
1070
    44
1040
1.0
1070
    74
1070
     0
1000
MTEXTEND
  0
INSERT
  5
2C1
  8
回08-記事
  6
CONTINUOUS
 62
     7
 66
     1
  2
*X747474
 10
0.0
 20
0.0
 30
0.0
  0
SEQEND
  5
5E8
  8
回07-寸法
  6
CONTINUOUS
 62
     5
  0
POLYLINE
  5
2C2
  8
回08-記事
  6
CONTINUOUS
 62
     7
 66
     1
 10
0.0
 20
0.0
 30
0.0
 70
     1
  0
VERTEX
  5
AD9
  8
回08-記事
  6
CONTINUOUS
 62
     7
 10
-77.57293501983531
 20
564.627464083557
 30
0.0
  0
VERTEX
  5
ADB
  8
回08-記事
  6
CONTINUOUS
 62
     7
 10
-51.57293501983531
 20
564.627464083557
 30
0.0
  0
VERTEX
  5
ADC
  8
回08-記事
  6
CONTINUOUS
 62
     7
 10
-51.57293501983531
 20
565.2274640835569
 30
0.0
  0
VERTEX
  5
ADD
  8
回08-記事
  6
CONTINUOUS
 62
     7
 10
-77.57293501983531
 20
565.2274640835569
 30
0.0
  0
SEQEND
  5
ADA
  8
回07-寸法
  6
CONTINUOUS
 62
     5
  0
INSERT
  5
2C3
  8
回08-記事
 62
     5
 66
     1
  2
*X757575
 10
0.0
 20
0.0
 30
0.0
  0
SEQEND
  5
5F6
  8
回07-寸法
  6
CONTINUOUS
 62
     5
  0
INSERT
  5
2C4
  8
回08-記事
 62
     5
 66
     1
  2
_OPEN
 10
-121.4929798921303
 20
562.2274640835569
 30
0.0
 41
2.0
 42
2.0
 43
2.0
 50
90.0
  0
SEQEND
  5
2C5
  8
回07-寸法
  6
CONTINUOUS
 62
     5
  0
INSERT
  5
2C6
  8
回08-記事
 62
     5
 66
     1
  2
_OPEN
 10
-121.4929798921303
 20
566.7274640835569
 30
0.0
 41
2.0
 42
2.0
 43
2.0
 50
270.0
  0
SEQEND
  5
2C7
  8
回07-寸法
  6
CONTINUOUS
 62
     5
  0
LINE
  5
2C8
  8
回08-記事
 62
     5
 10
-121.4929798921303
 20
566.7274640835569
 30
0.0
 11
-121.4929798921303
 21
562.2274640835569
 31
0.0
  0
LINE
  5
2C9
  8
回08-記事
 62
     5
 10
-121.4929798921303
 20
560.2274640835569
 30
0.0
 11
-121.4929798921303
 21
540.8514842860925
 31
0.0
  0
LINE
  5
2CA
  8
回08-記事
 62
     5
 10
-121.4929798921303
 20
568.7274640835567
 30
0.0
 11
-121.4929798921303
 21
570.7274640835569
 31
0.0
  0
LINE
  5
2CB
  8
回08-記事
 62
     5
 10
-113.8136194353274
 20
562.2274640835569
 30
0.0
 11
-122.4929798921303
 21
562.2274640835569
 31
0.0
  0
LINE
  5
2CC
  8
回08-記事
 62
     5
 10
-113.8136194353274
 20
566.7274640835569
 30
0.0
 11
-122.4929798921303
 21
566.7274640835569
 31
0.0
  0
INSERT
  5
2CD
  8
回08-記事
 62
     5
 66
     1
  2
*X767676
 10
0.0
 20
0.0
 30
0.0
  0
SEQEND
  5
5FF
  8
回07-寸法
  6
CONTINUOUS
 62
     5
  0
INSERT
  5
2CE
  8
回08-記事
 62
     5
 66
     1
  2
_OPEN
 10
236.279674384532
 20
559.2274640835569
 30
0.0
 41
2.0
 42
2.0
 43
2.0
 50
90.0
  0
SEQEND
  5
2CF
  8
回07-寸法
  6
CONTINUOUS
 62
     5
  0
INSERT
  5
2D0
  8
回08-記事
 62
     5
 66
     1
  2
_OPEN
 10
236.2081933789105
 20
569.7274640835569
 30
0.0
 41
2.0
 42
2.0
 43
2.0
 50
270.0
  0
SEQEND
  5
2D1
  8
回07-寸法
  6
CONTINUOUS
 62
     5
  0
LINE
  5
2D2
  8
回08-記事
 62
     5
 10
236.2081933789105
 20
569.7274640835569
 30
0.0
 11
236.2081933789105
 21
559.2274640835569
 31
0.0
  0
LINE
  5
2D3
  8
回08-記事
 62
     5
 10
243.3729682043913
 20
571.7274640835569
 30
0.0
 11
243.3729682043913
 21
573.7274640835569
 31
0.0
  0
LINE
  5
2D4
  8
回08-記事
 62
     5
 10
228.1863805646735
 20
559.2274640835569
 30
0.0
 11
244.3729682043913
 21
559.2274640835569
 31
0.0
  0
LINE
  5
2D5
  8
回08-記事
 62
     5
 10
227.6863805646735
 20
569.7274640835569
 30
0.0
 11
244.3729682043913
 21
569.7274640835569
 31
0.0
  0
ARC
  5
2D6
  8
回08-記事
  6
CONTINUOUS
 62
     7
 10
180.6863805646735
 20
565.2274640835569
 30
0.0
 40
0.5
 50
0.0
 51
180.0
  0
ARC
  5
2D7
  8
回08-記事
  6
CONTINUOUS
 62
     7
 10
184.6863805646735
 20
565.2274640835569
 30
0.0
 40
0.5
 50
0.0
 51
180.0
  0
ARC
  5
2D8
  8
回08-記事
  6
CONTINUOUS
 62
     7
 10
204.6863805646735
 20
565.2274640835569
 30
0.0
 40
0.5
 50
0.0
 51
180.0
  0
ARC
  5
2D9
  8
回08-記事
  6
CONTINUOUS
 62
     7
 10
208.6863805646735
 20
565.2274640835569
 30
0.0
 40
0.5
 50
0.0
 51
180.0
  0
ARC
  5
2DA
  8
回08-記事
  6
CONTINUOUS
 62
     7
 10
212.6863805646735
 20
565.2274640835569
 30
0.0
 40
0.5
 50
0.0
 51
180.0
  0
ARC
  5
2DB
  8
回08-記事
  6
CONTINUOUS
 62
     7
 10
216.6863805646735
 20
565.2274640835569
 30
0.0
 40
0.5
 50
0.0
 51
180.0
  0
ARC
  5
2DC
  8
回08-記事
  6
CONTINUOUS
 62
     7
 10
220.6863805646735
 20
565.2274640835569
 30
0.0
 40
0.5
 50
0.0
 51
180.0
  0
LINE
  5
2DD
  8
回08-記事
  6
CONTINUOUS
 62
     7
 10
228.1863805646735
 20
559.2274640835569
 30
0.0
 11
228.1863805646735
 21
565.2274640835569
 31
0.0
  0
ARC
  5
2DE
  8
回08-記事
  6
CONTINUOUS
 62
     7
 10
224.6863805646735
 20
565.2274640835569
 30
0.0
 40
0.5
 50
0.0
 51
180.0
  0
LINE
  5
2DF
  8
回08-記事
  6
CONTINUOUS
 62
     7
 10
226.6863805646735
 20
565.2274640835569
 30
0.0
 11
226.6863805646735
 21
566.7274640835569
 31
0.0
  0
ARC
  5
2E0
  8
回08-記事
  6
CONTINUOUS
 62
     7
 10
188.6863805646735
 20
565.2274640835569
 30
0.0
 40
0.5
 50
0.0
 51
180.0
  0
ARC
  5
2E1
  8
回08-記事
  6
CONTINUOUS
 62
     7
 10
192.6863805646735
 20
565.2274640835569
 30
0.0
 40
0.5
 50
0.0
 51
180.0
  0
ARC
  5
2E2
  8
回08-記事
  6
CONTINUOUS
 62
     7
 10
196.6863805646735
 20
565.2274640835569
 30
0.0
 40
0.5
 50
0.0
 51
180.0
  0
ARC
  5
2E3
  8
回08-記事
  6
CONTINUOUS
 62
     7
 10
200.6863805646735
 20
565.2274640835569
 30
0.0
 40
0.5
 50
0.0
 51
180.0
  0
LINE
  5
2E4
  8
回08-記事
  6
CONTINUOUS
 62
     7
 10
227.6863805646735
 20
565.2274640835569
 30
0.0
 11
227.6863805646735
 21
569.7274640835569
 31
0.0
  0
ARC
  5
2E5
  8
回08-記事
  6
CONTINUOUS
 62
     7
 10
140.6863805646735
 20
565.2274640835569
 30
0.0
 40
0.5
 50
0.0
 51
180.0
  0
ARC
  5
2E6
  8
回08-記事
  6
CONTINUOUS
 62
     7
 10
132.6863805646735
 20
565.2274640835569
 30
0.0
 40
0.5
 50
0.0
 51
180.0
  0
ARC
  5
2E7
  8
回08-記事
  6
CONTINUOUS
 62
     7
 10
136.6863805646735
 20
565.2274640835569
 30
0.0
 40
0.5
 50
0.0
 51
180.0
  0
ARC
  5
2E8
  8
回08-記事
  6
CONTINUOUS
 62
     7
 10
124.6863805646735
 20
565.2274640835569
 30
0.0
 40
0.5
 50
0.0
 51
180.0
  0
ARC
  5
2E9
  8
回08-記事
  6
CONTINUOUS
 62
     7
 10
128.6863805646735
 20
565.2274640835569
 30
0.0
 40
0.5
 50
0.0
 51
180.0
  0
ARC
  5
2EA
  8
回08-記事
  6
CONTINUOUS
 62
     7
 10
172.6863805646735
 20
565.2274640835569
 30
0.0
 40
0.5
 50
0.0
 51
180.0
  0
ARC
  5
2EB
  8
回08-記事
  6
CONTINUOUS
 62
     7
 10
168.6863805646735
 20
565.2274640835569
 30
0.0
 40
0.5
 50
0.0
 51
180.0
  0
ARC
  5
2EC
  8
回08-記事
  6
CONTINUOUS
 62
     7
 10
176.6863805646735
 20
565.2274640835569
 30
0.0
 40
0.5
 50
0.0
 51
180.0
  0
ARC
  5
2ED
  8
回08-記事
  6
CONTINUOUS
 62
     7
 10
156.6863805646735
 20
565.2274640835569
 30
0.0
 40
0.5
 50
0.0
 51
180.0
  0
ARC
  5
2EE
  8
回08-記事
  6
CONTINUOUS
 62
     7
 10
144.6863805646735
 20
565.2274640835569
 30
0.0
 40
0.5
 50
0.0
 51
180.0
  0
ARC
  5
2EF
  8
回08-記事
  6
CONTINUOUS
 62
     7
 10
148.6863805646735
 20
565.2274640835569
 30
0.0
 40
0.5
 50
0.0
 51
180.0
  0
ARC
  5
2F0
  8
回08-記事
  6
CONTINUOUS
 62
     7
 10
152.6863805646735
 20
565.2274640835569
 30
0.0
 40
0.5
 50
0.0
 51
180.0
  0
ARC
  5
2F1
  8
回08-記事
  6
CONTINUOUS
 62
     7
 10
160.6863805646735
 20
565.2274640835569
 30
0.0
 40
0.5
 50
0.0
 51
180.0
  0
ARC
  5
2F2
  8
回08-記事
  6
CONTINUOUS
 62
     7
 10
164.6863805646735
 20
565.2274640835569
 30
0.0
 40
0.5
 50
0.0
 51
180.0
  0
ARC
  5
2F3
  8
回08-記事
  6
CONTINUOUS
 62
     7
 10
68.68638056467353
 20
565.2274640835569
 30
0.0
 40
0.5
 50
0.0
 51
180.0
  0
ARC
  5
2F4
  8
回08-記事
  6
CONTINUOUS
 62
     7
 10
72.68638056467351
 20
565.2274640835569
 30
0.0
 40
0.5
 50
0.0
 51
180.0
  0
ARC
  5
2F5
  8
回08-記事
  6
CONTINUOUS
 62
     7
 10
76.68638056467353
 20
565.2274640835569
 30
0.0
 40
0.5
 50
0.0
 51
180.0
  0
ARC
  5
2F6
  8
回08-記事
  6
CONTINUOUS
 62
     7
 10
80.68638056467353
 20
565.2274640835569
 30
0.0
 40
0.5
 50
0.0
 51
180.0
  0
ARC
  5
2F7
  8
回08-記事
  6
CONTINUOUS
 62
     7
 10
84.68638056467353
 20
565.2274640835569
 30
0.0
 40
0.5
 50
0.0
 51
180.0
  0
ARC
  5
2F8
  8
回08-記事
  6
CONTINUOUS
 62
     7
 10
88.68638056467352
 20
565.2274640835569
 30
0.0
 40
0.5
 50
0.0
 51
180.0
  0
ARC
  5
2F9
  8
回08-記事
  6
CONTINUOUS
 62
     7
 10
92.6863805646735
 20
565.2274640835569
 30
0.0
 40
0.5
 50
0.0
 51
180.0
  0
ARC
  5
2FA
  8
回08-記事
  6
CONTINUOUS
 62
     7
 10
96.68638056467351
 20
565.2274640835569
 30
0.0
 40
0.5
 50
0.0
 51
180.0
  0
ARC
  5
2FB
  8
回08-記事
  6
CONTINUOUS
 62
     7
 10
100.6863805646735
 20
565.2274640835569
 30
0.0
 40
0.5
 50
0.0
 51
180.0
  0
ARC
  5
2FC
  8
回08-記事
  6
CONTINUOUS
 62
     7
 10
104.6863805646735
 20
565.2274640835569
 30
0.0
 40
0.5
 50
0.0
 51
180.0
  0
ARC
  5
2FD
  8
回08-記事
  6
CONTINUOUS
 62
     7
 10
108.6863805646735
 20
565.2274640835569
 30
0.0
 40
0.5
 50
0.0
 51
180.0
  0
ARC
  5
2FE
  8
回08-記事
  6
CONTINUOUS
 62
     7
 10
112.6863805646735
 20
565.2274640835569
 30
0.0
 40
0.5
 50
0.0
 51
180.0
  0
ARC
  5
2FF
  8
回08-記事
  6
CONTINUOUS
 62
     7
 10
116.6863805646735
 20
565.2274640835569
 30
0.0
 40
0.5
 50
0.0
 51
180.0
  0
ARC
  5
300
  8
回08-記事
  6
CONTINUOUS
 62
     7
 10
120.6863805646735
 20
565.2274640835569
 30
0.0
 40
0.5
 50
0.0
 51
180.0
  0
ARC
  5
301
  8
回08-記事
  6
CONTINUOUS
 62
     7
 10
48.68638056467353
 20
565.2274640835569
 30
0.0
 40
0.5
 50
0.0
 51
180.0
  0
ARC
  5
302
  8
回08-記事
  6
CONTINUOUS
 62
     7
 10
24.68638056467354
 20
565.2274640835569
 30
0.0
 40
0.5
 50
0.0
 51
180.0
  0
ARC
  5
303
  8
回08-記事
  6
CONTINUOUS
 62
     7
 10
28.68638056467354
 20
565.2274640835569
 30
0.0
 40
0.5
 50
0.0
 51
180.0
  0
ARC
  5
304
  8
回08-記事
  6
CONTINUOUS
 62
     7
 10
32.68638056467354
 20
565.2274640835569
 30
0.0
 40
0.5
 50
0.0
 51
180.0
  0
ARC
  5
305
  8
回08-記事
  6
CONTINUOUS
 62
     7
 10
36.68638056467353
 20
565.2274640835569
 30
0.0
 40
0.5
 50
0.0
 51
180.0
  0
ARC
  5
306
  8
回08-記事
  6
CONTINUOUS
 62
     7
 10
40.68638056467352
 20
565.2274640835569
 30
0.0
 40
0.5
 50
0.0
 51
180.0
  0
ARC
  5
307
  8
回08-記事
  6
CONTINUOUS
 62
     7
 10
44.68638056467352
 20
565.2274640835569
 30
0.0
 40
0.5
 50
0.0
 51
180.0
  0
ARC
  5
308
  8
回08-記事
  6
CONTINUOUS
 62
     7
 10
16.68638056467353
 20
565.2274640835569
 30
0.0
 40
0.5
 50
0.0
 51
180.0
  0
ARC
  5
309
  8
回08-記事
  6
CONTINUOUS
 62
     7
 10
20.68638056467353
 20
565.2274640835569
 30
0.0
 40
0.5
 50
0.0
 51
180.0
  0
ARC
  5
30A
  8
回08-記事
  6
CONTINUOUS
 62
     7
 10
60.68638056467353
 20
565.2274640835569
 30
0.0
 40
0.5
 50
0.0
 51
180.0
  0
ARC
  5
30B
  8
回08-記事
  6
CONTINUOUS
 62
     7
 10
64.68638056467352
 20
565.2274640835569
 30
0.0
 40
0.5
 50
0.0
 51
180.0
  0
ARC
  5
30C
  8
回08-記事
  6
CONTINUOUS
 62
     7
 10
56.68638056467353
 20
565.2274640835569
 30
0.0
 40
0.5
 50
0.0
 51
180.0
  0
ARC
  5
30D
  8
回08-記事
  6
CONTINUOUS
 62
     7
 10
52.68638056467352
 20
565.2274640835569
 30
0.0
 40
0.5
 50
0.0
 51
180.0
  0
TEXT
  5
30E
  8
回08-記事
  6
CONTINUOUS
 62
     7
 10
32.36878104254174
 20
547.3673946007238
 30
0.0
 40
4.0
  1
ITO GLASS
  0
LINE
  5
30F
  8
回08-記事
  6
CONTINUOUS
 62
     7
 10
27.68096299943136
 20
561.0026851527775
 30
0.0
 11
32.0930279339982
 21
551.7732427414614
 31
0.0
  0
LINE
  5
310
  8
回08-記事
  6
CONTINUOUS
 62
     7
 10
38.09163729497687
 20
567.4206469165319
 30
0.0
 11
35.18888756865726
 21
572.8774643097889
 31
0.0
  0
TEXT
  5
311
  8
回08-記事
  6
CONTINUOUS
 62
     7
 10
32.72146756484018
 20
573.6728268434192
 30
0.0
 40
4.0
  1
ITO FILM (ANTI-GLARE)
  0
ARC
  5
312
  8
回08-記事
  6
CONTINUOUS
 62
     7
 10
-15.31361943532647
 20
565.2274640835569
 30
0.0
 40
0.5
 50
0.0
 51
180.0
  0
ARC
  5
313
  8
回08-記事
  6
CONTINUOUS
 62
     7
 10
-11.31361943532647
 20
565.2274640835569
 30
0.0
 40
0.5
 50
0.0
 51
180.0
  0
ARC
  5
314
  8
回08-記事
  6
CONTINUOUS
 62
     7
 10
-7.313619435326472
 20
565.2274640835569
 30
0.0
 40
0.5
 50
0.0
 51
180.0
  0
ARC
  5
315
  8
回08-記事
  6
CONTINUOUS
 62
     7
 10
-3.313619435326471
 20
565.2274640835569
 30
0.0
 40
0.5
 50
0.0
 51
180.0
  0
ARC
  5
316
  8
回08-記事
  6
CONTINUOUS
 62
     7
 10
0.6863805646735273
 20
565.2274640835569
 30
0.0
 40
0.5
 50
0.0
 51
180.0
  0
LINE
  5
317
  8
回08-記事
  6
CONTINUOUS
 62
     7
 10
-33.81361943532648
 20
559.2274640835569
 30
0.0
 11
-33.81361943532648
 21
565.2274640835569
 31
0.0
  0
ARC
  5
318
  8
回08-記事
  6
CONTINUOUS
 62
     7
 10
-27.31361943532647
 20
565.2274640835569
 30
0.0
 40
0.5
 50
0.0
 51
180.0
  0
LINE
  5
319
  8
回08-記事
  6
CONTINUOUS
 62
     7
 10
-30.81361943532647
 20
565.2274640835569
 30
0.0
 11
-30.81361943532647
 21
566.7274640835569
 31
0.0
  0
LINE
  5
31A
  8
回08-記事
  6
CONTINUOUS
 62
     7
 10
-33.31361943532647
 20
566.7274640835569
 30
0.0
 11
-33.31361943532647
 21
569.7274640835569
 31
0.0
  0
ARC
  5
31B
  8
回08-記事
  6
CONTINUOUS
 62
     7
 10
-23.31361943532646
 20
565.2274640835569
 30
0.0
 40
0.5
 50
0.0
 51
180.0
  0
ARC
  5
31C
  8
回08-記事
  6
CONTINUOUS
 62
     7
 10
-19.31361943532647
 20
565.2274640835569
 30
0.0
 40
0.5
 50
0.0
 51
180.0
  0
ARC
  5
31D
  8
回08-記事
  6
CONTINUOUS
 62
     7
 10
4.686380564673527
 20
565.2274640835569
 30
0.0
 40
0.5
 50
0.0
 51
180.0
  0
ARC
  5
31E
  8
回08-記事
  6
CONTINUOUS
 62
     7
 10
8.686380564673527
 20
565.2274640835569
 30
0.0
 40
0.5
 50
0.0
 51
180.0
  0
ARC
  5
31F
  8
回08-記事
  6
CONTINUOUS
 62
     7
 10
12.68638056467352
 20
565.2274640835569
 30
0.0
 40
0.5
 50
0.0
 51
180.0
  0
TEXT
  5
320
  8
回08-記事
  6
CONTINUOUS
 62
     7
 10
-97.3105133455747
 20
545.3068234983312
 30
0.0
 40
4.0
  1
STIFFENER
  0
TEXT
  5
321
  8
回08-記事
  6
CONTINUOUS
 62
     7
 10
-88.17864041235045
 20
553.6409818221146
 30
0.0
 40
4.0
  1
TAIL
  0
LINE
  5
322
  8
回08-記事
  6
CONTINUOUS
 62
     7
 10
-80.7809234497572
 20
566.3397564966969
 30
0.0
 11
-82.18605262315305
 21
558.6933392380021
 31
0.0
  0
TEXT
  5
323
  8
回08-記事
  6
CONTINUOUS
 62
     7
 10
-90.95921958248979
 20
571.824595875196
 30
0.0
 40
4.0
  1
REINFORCEMENT FILM
  0
LINE
  5
324
  8
回08-記事
  6
CONTINUOUS
 62
     7
 10
-113.8136194353274
 20
562.2274640835569
 30
0.0
 11
-103.8136194353274
 21
562.2274640835569
 31
0.0
  0
LINE
  5
325
  8
回08-記事
  6
CONTINUOUS
 62
     7
 10
-113.8136194353274
 20
562.2274640835569
 30
0.0
 11
-113.8136194353274
 21
566.7274640835569
 31
0.0
  0
LINE
  5
326
  8
回08-記事
  6
CONTINUOUS
 62
     7
 10
-108.8136194353274
 20
566.7274640835569
 30
0.0
 11
-108.8136194353274
 21
567.7274640835569
 31
0.0
  0
LINE
  5
327
  8
回08-記事
  6
CONTINUOUS
 62
     7
 10
-106.9505203362687
 20
563.8117648046995
 30
0.0
 11
-95.7620368602984
 21
550.3578261467739
 31
0.0
  0
LINE
  5
328
  8
回08-記事
  6
CONTINUOUS
 62
     7
 10
-103.8136194353274
 20
562.2274640835569
 30
0.0
 11
-103.8136194353274
 21
565.2274640835569
 31
0.0
  0
DIMENSION
  5
329
  8
回08-記事
 62
     5
  2
*D636363
 10
-108.8136194353274
 20
578.8900066116243
 30
0.0
 11
-94.90639869827344
 21
578.8900066116243
 31
0.0
 70
   160
  3
DMC
 13
-113.8136194353274
 23
566.7274640835569
 33
0.0
 14
-108.8136194353274
 24
566.7274640835569
 34
0.0
1001
ACAD
1000
DSTYLE
1002
{
1070
    40
1040
1.0
1002
}
  0
DIMENSION
  5
33A
  8
回08-記事
 62
     5
  2
*D646464
 10
-103.8136194353274
 20
537.855842108403
 30
0.0
 11
-86.70797350142306
 21
540.5568887012455
 31
0.0
 70
    32
  1
(<>)
  3
DMC
 13
-113.8136194353274
 23
562.2274640835569
 33
0.0
 14
-103.8136194353274
 24
562.2274640835569
 34
0.0
1001
ACAD
1000
DSTYLE
1002
{
1070
    40
1040
1.0
1002
}
  0
LINE
  5
34B
  8
回08-記事
  6
CONTINUOUS
 62
     7
 10
-108.8136194353274
 20
567.7274640835569
 30
0.0
 11
-33.31361943532647
 21
567.7274640835569
 31
0.0
  0
LINE
  5
34C
  8
回08-記事
  6
CONTINUOUS
 62
     7
 10
-33.31361943532647
 20
569.7274640835569
 30
0.0
 11
227.6863805646735
 21
569.7274640835569
 31
0.0
  0
LINE
  5
34D
  8
回08-記事
  6
CONTINUOUS
 62
     7
 10
-115.8136194353273
 20
566.7274640835569
 30
0.0
 11
227.6863805646735
 21
566.7274640835569
 31
0.0
  0
LINE
  5
34E
  8
回08-記事
  6
CONTINUOUS
 62
     7
 10
-113.8136194353274
 20
565.2274640835569
 30
0.0
 11
228.1863805646735
 21
565.2274640835569
 31
0.0
  0
LINE
  5
34F
  8
回08-記事
  6
CONTINUOUS
 62
     7
 10
-33.81361943532648
 20
559.2274640835569
 30
0.0
 11
228.1863805646735
 21
559.2274640835569
 31
0.0
  0
TEXT
  5
350
  8
回90-A2
 10
250.0695575285245
 20
507.8023102286565
 30
0.0
 40
6.0
  1
AST-121B080A
  0
TEXT
  5
351
  8
回90-A2
 10
368.9988058874242
 20
872.8725821744795
 30
0.0
 40
4.0
  1
H
  0
LINE
  5
352
  8
回90-A2
 10
335.2694205817716
 20
877.5001590484281
 30
0.0
 11
335.2694205817716
 21
872.500159048428
 31
0.0
  0
LINE
  5
353
  8
回90-A2
 10
265.2694205817716
 20
877.5001590484281
 30
0.0
 11
265.2694205817716
 21
872.500159048428
 31
0.0
  0
TEXT
  5
354
  8
回90-A2
 10
228.9988058874242
 20
872.8725821744795
 30
0.0
 40
4.0
  1
F
  0
LINE
  5
355
  8
回90-A2
 10
195.2694205817715
 20
877.5001590484281
 30
0.0
 11
195.2694205817715
 21
872.500159048428
 31
0.0
  0
TEXT
  5
356
  8
回90-A2
 10
158.998805887424
 20
872.8725821744795
 30
0.0
 40
4.0
  1
E
  0
TEXT
  5
357
  8
回90-A2
 10
298.9988058874242
 20
872.8725821744795
 30
0.0
 40
4.0
  1
G
  0
TEXT
  5
358
  8
回90-A2
 10
406.6738415854315
 20
831.7888463442875
 30
0.0
 40
4.0
  1
1
  0
LINE
  5
359
  8
回90-A2
 10
410.2694205817713
 20
795.5001590484281
 30
0.0
 11
405.2694205817713
 21
795.5001590484281
 31
0.0
  0
LINE
  5
35A
  8
回90-A2
 10
125.2694205817715
 20
877.5001590484281
 30
0.0
 11
125.2694205817715
 21
872.500159048428
 31
0.0
  0
TEXT
  5
35B
  8
回90-A2
 10
88.99880588742417
 20
872.8725821744795
 30
0.0
 40
4.0
  1
D
  0
LINE
  5
35C
  8
回90-A2
 10
55.26942058177155
 20
877.5001590484281
 30
0.0
 11
55.26942058177155
 21
872.500159048428
 31
0.0
  0
TEXT
  5
35D
  8
回90-A2
 10
18.99880588742417
 20
872.8725821744795
 30
0.0
 40
4.0
  1
C
  0
LINE
  5
35E
  8
回90-A2
 10
-14.73057941822844
 20
877.5001590484281
 30
0.0
 11
-14.73057941822844
 21
872.500159048428
 31
0.0
  0
TEXT
  5
35F
  8
回90-A2
 10
-51.00119411257582
 20
872.8725821744795
 30
0.0
 40
4.0
  1
B
  0
LINE
  5
360
  8
回90-A2
 10
-84.73057941822842
 20
877.5001590484281
 30
0.0
 11
-84.73057941822842
 21
872.500159048428
 31
0.0
  0
TEXT
  5
361
  8
回90-A2
 10
-121.0011941125758
 20
872.8725821744795
 30
0.0
 40
4.0
  1
A
  0
TEXT
  5
362
  8
回90-A2
 10
-158.3261584145684
 20
831.7888463442875
 30
0.0
 40
4.0
  1
1
  0
LINE
  5
363
  8
回90-A2
 10
-154.7305794182284
 20
795.5001590484281
 30
0.0
 11
-159.7305794182284
 21
795.5001590484281
 31
0.0
  0
LINE
  5
364
  8
回90-A2
 10
410.2694205817713
 20
877.5001590484281
 30
0.0
 11
-159.7305794182284
 21
877.5001590484281
 31
0.0
  0
LINE
  5
365
  8
回90-A2
 10
-154.7305794182284
 20
872.500159048428
 30
0.0
 11
405.2694205817713
 21
872.500159048428
 31
0.0
  0
TEXT
  5
366
  8
回90-A2
 10
406.3723428821295
 20
754.7888463442875
 30
0.0
 40
4.0
  1
2
  0
LINE
  5
367
  8
回90-A2
 10
410.2694205817713
 20
718.5001590484281
 30
0.0
 11
405.2694205817713
 21
718.5001590484281
 31
0.0
  0
TEXT
  5
368
  8
回90-A2
 10
406.3668620379283
 20
677.7888463442873
 30
0.0
 40
4.0
  1
3
  0
LINE
  5
369
  8
回90-A2
 10
410.2694205817713
 20
641.5001590484282
 30
0.0
 11
405.2694205817713
 21
641.5001590484282
 31
0.0
  0
TEXT
  5
36A
  8
回90-A2
 10
406.2937699178474
 20
600.7888463442873
 30
0.0
 40
4.0
  1
4
  0
TEXT
  5
36B
  8
回90-A2
 10
-158.6276571178705
 20
754.7888463442875
 30
0.0
 40
4.0
  1
2
  0
LINE
  5
36C
  8
回90-A2
 10
-154.7305794182284
 20
718.5001590484281
 30
0.0
 11
-159.7305794182284
 21
718.5001590484281
 31
0.0
  0
TEXT
  5
36D
  8
回90-A2
 10
-158.6331379620714
 20
677.7888463442873
 30
0.0
 40
4.0
  1
3
  0
LINE
  5
36E
  8
回90-A2
 10
-154.7305794182284
 20
641.5001590484282
 30
0.0
 11
-159.7305794182284
 21
641.5001590484282
 31
0.0
  0
TEXT
  5
36F
  8
回90-A2
 10
-158.7062300821526
 20
600.7888463442873
 30
0.0
 40
4.0
  1
4
  0
LINE
  5
370
  8
回90-A2
 10
410.2694205817713
 20
564.5001590484282
 30
0.0
 11
405.2694205817713
 21
564.5001590484282
 31
0.0
  0
TEXT
  5
371
  8
回90-A2
 10
406.2937699178474
 20
523.7888463442873
 30
0.0
 40
4.0
  1
5
  0
TEXT
  5
372
  8
回90-A2
 10
368.9988058874242
 20
482.8725821744795
 30
0.0
 40
4.0
  1
H
  0
LINE
  5
373
  8
回90-A2
 10
335.2694205817716
 20
487.5001590484282
 30
0.0
 11
335.2694205817716
 21
482.5001590484284
 31
0.0
  0
LINE
  5
374
  8
回90-A2
 10
265.2694205817716
 20
487.5001590484282
 30
0.0
 11
265.2694205817716
 21
482.5001590484284
 31
0.0
  0
TEXT
  5
375
  8
回90-A2
 10
228.9988058874242
 20
482.8725821744795
 30
0.0
 40
4.0
  1
F
  0
LINE
  5
376
  8
回90-A2
 10
195.2694205817715
 20
487.5001590484282
 30
0.0
 11
195.2694205817715
 21
482.5001590484284
 31
0.0
  0
TEXT
  5
377
  8
回90-A2
 10
158.998805887424
 20
482.8725821744795
 30
0.0
 40
4.0
  1
E
  0
TEXT
  5
378
  8
回90-A2
 10
298.9988058874242
 20
482.8725821744795
 30
0.0
 40
4.0
  1
G
  0
LINE
  5
379
  8
回90-A2
 10
-154.7305794182284
 20
564.5001590484282
 30
0.0
 11
-159.7305794182284
 21
564.5001590484282
 31
0.0
  0
TEXT
  5
37A
  8
回90-A2
 10
-158.7062300821526
 20
523.7888463442873
 30
0.0
 40
4.0
  1
5
  0
LINE
  5
37B
  8
回90-A2
 10
125.2694205817715
 20
487.5001590484282
 30
0.0
 11
125.2694205817715
 21
482.5001590484284
 31
0.0
  0
TEXT
  5
37C
  8
回90-A2
 10
88.99880588742417
 20
482.8725821744795
 30
0.0
 40
4.0
  1
D
  0
LINE
  5
37D
  8
回90-A2
 10
55.26942058177155
 20
487.5001590484282
 30
0.0
 11
55.26942058177155
 21
482.5001590484284
 31
0.0
  0
TEXT
  5
37E
  8
回90-A2
 10
18.99880588742417
 20
482.8725821744795
 30
0.0
 40
4.0
  1
C
  0
LINE
  5
37F
  8
回90-A2
 10
-14.73057941822844
 20
487.5001590484282
 30
0.0
 11
-14.73057941822844
 21
482.5001590484284
 31
0.0
  0
TEXT
  5
380
  8
回90-A2
 10
-51.00119411257582
 20
482.8725821744795
 30
0.0
 40
4.0
  1
B
  0
LINE
  5
381
  8
回90-A2
 10
-84.73057941822842
 20
487.5001590484282
 30
0.0
 11
-84.73057941822842
 21
482.5001590484284
 31
0.0
  0
TEXT
  5
382
  8
回90-A2
 10
-121.0011941125758
 20
482.8725821744795
 30
0.0
 40
4.0
  1
A
  0
LINE
  5
383
  8
回90-A2
 10
-154.7305794182284
 20
487.5001590484282
 30
0.0
 11
405.2694205817713
 21
487.5001590484282
 31
0.0
  0
LINE
  5
384
  8
回90-A2
 10
410.2694205817713
 20
482.5001590484284
 30
0.0
 11
-159.7305794182284
 21
482.5001590484284
 31
0.0
  0
LINE
  5
385
  8
回90-A2
 10
410.2694205817713
 20
482.5001590484284
 30
0.0
 11
410.2694205817713
 21
877.5001590484281
 31
0.0
  0
LINE
  5
386
  8
回90-A2
 10
405.2694205817713
 20
872.500159048428
 30
0.0
 11
405.2694205817713
 21
487.5001590484282
 31
0.0
  0
LINE
  5
387
  8
回90-A2
 10
-159.7305794182284
 20
482.5001590484284
 30
0.0
 11
-159.7305794182284
 21
877.5001590484281
 31
0.0
  0
LINE
  5
388
  8
回90-A2
 10
-154.7305794182284
 20
872.500159048428
 30
0.0
 11
-154.7305794182284
 21
487.5001590484282
 31
0.0
  0
LINE
  5
389
  8
回08-記事
  6
CONTINUOUS
 62
     5
 10
349.3733711387931
 20
750.8919420972937
 30
0.0
 11
351.7733711387927
 21
752.0919420972936
 31
0.0
  0
LINE
  5
38A
  8
回08-記事
  6
CONTINUOUS
 62
     5
 10
349.3733711387931
 20
750.8919420972937
 30
0.0
 11
354.1733711387934
 21
748.4919420972936
 31
0.0
  0
TEXT
  5
38B
  8
回08-記事
  6
CONTINUOUS
 62
     5
 10
352.8440873385116
 20
751.9142753491848
 30
0.0
 40
4.799999999999998
  1
YU
  0
LINE
  5
38C
  8
回08-記事
  6
CONTINUOUS
 62
     5
 10
351.7733711387927
 20
752.0919420972936
 30
0.0
 11
351.7733711387927
 21
756.8919420972937
 31
0.0
  0
TEXT
  5
38D
  8
回08-記事
  6
CONTINUOUS
 62
     5
 10
313.5652765770874
 20
755.1388493816339
 30
0.0
 40
4.799999999999998
  1
2
  0
TEXT
  5
38E
  8
回08-記事
  6
CONTINUOUS
 62
     5
 10
313.3189698201968
 20
773.3493565828609
 30
0.0
 40
4.799999999999998
  1
3
  0
TEXT
  5
38F
  8
回08-記事
  6
CONTINUOUS
 62
     5
 10
313.4421210760765
 20
791.3137755770906
 30
0.0
 40
4.799999999999998
  1
4
  0
LINE
  5
390
  8
回08-記事
  6
CONTINUOUS
 62
     5
 10
318.1733711387933
 20
756.8919420972937
 30
0.0
 11
351.7733711387927
 21
756.8919420972937
 31
0.0
  0
LINE
  5
391
  8
回08-記事
  6
CONTINUOUS
 62
     5
 10
318.1733711387933
 20
774.8919420972937
 30
0.0
 11
374.5733711387929
 21
774.8919420972937
 31
0.0
  0
LINE
  5
392
  8
回08-記事
  6
CONTINUOUS
 62
     5
 10
316.9733711387926
 20
792.8919420972937
 30
0.0
 11
387.7733711387928
 21
792.8919420972937
 31
0.0
  0
LINE
  5
393
  8
回08-記事
  6
CONTINUOUS
 62
     5
 10
349.3733711387931
 20
731.6919420972936
 30
0.0
 11
354.1733711387934
 21
734.0919420972936
 31
0.0
  0
LINE
  5
394
  8
回08-記事
  6
CONTINUOUS
 62
     5
 10
349.3733711387931
 20
726.8919420972935
 30
0.0
 11
351.7733711387927
 21
725.6919420972937
 31
0.0
  0
LINE
  5
395
  8
回08-記事
  6
CONTINUOUS
 62
     5
 10
349.3733711387931
 20
726.8919420972935
 30
0.0
 11
354.1733711387934
 21
729.2919420972936
 31
0.0
  0
LINE
  5
396
  8
回08-記事
  6
CONTINUOUS
 62
     5
 10
349.3733711387931
 20
731.6919420972936
 30
0.0
 11
354.1733711387934
 21
729.2919420972936
 31
0.0
  0
LINE
  5
397
  8
回08-記事
  6
CONTINUOUS
 62
     5
 10
351.7733711387927
 20
720.8919420972937
 30
0.0
 11
351.7733711387927
 21
725.6919420972937
 31
0.0
  0
TEXT
  5
398
  8
回08-記事
  6
CONTINUOUS
 62
     5
 10
343.1953583681953
 20
719.6200742132752
 30
0.0
 40
4.799999999999998
  1
YD
  0
LINE
  5
399
  8
回08-記事
  6
CONTINUOUS
 62
     5
 10
349.3733711387931
 20
746.0919420972937
 30
0.0
 11
354.1733711387934
 21
743.6919420972937
 31
0.0
  0
LINE
  5
39A
  8
回08-記事
  6
CONTINUOUS
 62
     5
 10
352.9733711387927
 20
741.2919420972936
 30
0.0
 11
355.3733711387931
 21
736.4919420972936
 31
0.0
  0
LINE
  5
39B
  8
回08-記事
  6
CONTINUOUS
 62
     5
 10
349.3733711387931
 20
741.2919420972936
 30
0.0
 11
354.1733711387934
 21
738.8919420972937
 31
0.0
  0
LINE
  5
39C
  8
回08-記事
  6
CONTINUOUS
 62
     5
 10
348.1733711387934
 20
741.2919420972936
 30
0.0
 11
350.5733711387929
 21
736.4919420972936
 31
0.0
  0
LINE
  5
39D
  8
回08-記事
  6
CONTINUOUS
 62
     5
 10
350.5733711387929
 20
736.4919420972936
 30
0.0
 11
352.9733711387927
 21
741.2919420972936
 31
0.0
  0
LINE
  5
39E
  8
回08-記事
  6
CONTINUOUS
 62
     5
 10
357.7733711387927
 20
741.2919420972936
 30
0.0
 11
360.1733711387934
 21
736.4919420972936
 31
0.0
  0
LINE
  5
39F
  8
回08-記事
  6
CONTINUOUS
 62
     5
 10
355.3733711387931
 20
736.4919420972936
 30
0.0
 11
357.7733711387927
 21
741.2919420972936
 31
0.0
  0
LINE
  5
3A0
  8
回08-記事
  6
CONTINUOUS
 62
     5
 10
362.5733711387929
 20
741.2919420972936
 30
0.0
 11
364.9733711387926
 21
736.4919420972936
 31
0.0
  0
LINE
  5
3A1
  8
回08-記事
  6
CONTINUOUS
 62
     5
 10
364.9733711387926
 20
736.4919420972936
 30
0.0
 11
367.3733711387931
 21
741.2919420972936
 31
0.0
  0
LINE
  5
3A2
  8
回08-記事
  6
CONTINUOUS
 62
     5
 10
360.1733711387934
 20
736.4919420972936
 30
0.0
 11
362.5733711387929
 21
741.2919420972936
 31
0.0
  0
LINE
  5
3A3
  8
回08-記事
  6
CONTINUOUS
 62
     5
 10
343.3733711387931
 20
741.2919420972936
 30
0.0
 11
345.7733711387927
 21
736.4919420972936
 31
0.0
  0
LINE
  5
3A4
  8
回08-記事
  6
CONTINUOUS
 62
     5
 10
340.9733711387926
 20
736.4919420972936
 30
0.0
 11
343.3733711387931
 21
741.2919420972936
 31
0.0
  0
LINE
  5
3A5
  8
回08-記事
  6
CONTINUOUS
 62
     5
 10
345.7733711387927
 20
736.4919420972936
 30
0.0
 11
348.1733711387934
 21
741.2919420972936
 31
0.0
  0
LINE
  5
3A6
  8
回08-記事
  6
CONTINUOUS
 62
     5
 10
367.3733711387931
 20
741.2919420972936
 30
0.0
 11
369.7733711387928
 21
736.4919420972936
 31
0.0
  0
LINE
  5
3A7
  8
回08-記事
  6
CONTINUOUS
 62
     5
 10
369.7733711387928
 20
736.4919420972936
 30
0.0
 11
370.9733711387926
 21
738.8919420972937
 31
0.0
  0
LINE
  5
3A8
  8
回08-記事
  6
CONTINUOUS
 62
     5
 10
370.9733711387926
 20
738.8919420972937
 30
0.0
 11
374.5733711387929
 21
738.8919420972937
 31
0.0
  0
TEXT
  5
3A9
  8
回08-記事
  6
CONTINUOUS
 62
     5
 10
371.5626197579695
 20
733.5981606382468
 30
0.0
 40
4.799999999999998
  1
XR
  0
LINE
  5
3AA
  8
回08-記事
  6
CONTINUOUS
 62
     5
 10
349.3733711387931
 20
736.4919420972936
 30
0.0
 11
354.1733711387934
 21
734.0919420972936
 31
0.0
  0
LINE
  5
3AB
  8
回08-記事
  6
CONTINUOUS
 62
     5
 10
349.3733711387931
 20
736.4919420972936
 30
0.0
 11
354.1733711387934
 21
738.8919420972937
 31
0.0
  0
LINE
  5
3AC
  8
回08-記事
  6
CONTINUOUS
 62
     5
 10
349.3733711387931
 20
741.2919420972936
 30
0.0
 11
354.1733711387934
 21
743.6919420972937
 31
0.0
  0
LINE
  5
3AD
  8
回08-記事
  6
CONTINUOUS
 62
     5
 10
337.3733711387931
 20
738.8919420972937
 30
0.0
 11
338.573371138793
 21
741.2919420972936
 31
0.0
  0
TEXT
  5
3AE
  8
回08-記事
  6
CONTINUOUS
 62
     5
 10
313.8115875791082
 20
737.4205185944012
 30
0.0
 40
4.799999999999998
  1
1
  0
TEXT
  5
3AF
  8
回08-記事
  6
CONTINUOUS
 62
     5
 10
329.5906553170471
 20
733.790962292765
 30
0.0
 40
4.799999999999998
  1
XL
  0
LINE
  5
3B0
  8
回08-記事
  6
CONTINUOUS
 62
     5
 10
318.1733711387933
 20
738.8919420972937
 30
0.0
 11
337.3733711387931
 21
738.8919420972937
 31
0.0
  0
LINE
  5
3B1
  8
回08-記事
  6
CONTINUOUS
 62
     5
 10
338.573371138793
 20
741.2919420972936
 30
0.0
 11
340.9733711387926
 21
736.4919420972936
 31
0.0
  0
LINE
  5
3B2
  8
回08-記事
  6
CONTINUOUS
 62
     5
 10
351.7733711387927
 20
720.8919420972937
 30
0.0
 11
387.7733711387928
 21
720.8919420972937
 31
0.0
  0
TEXT
  5
3B3
  8
回08-記事
  6
CONTINUOUS
 62
     5
 10
319.2424912634597
 20
700.7025528747958
 30
0.0
 40
7.0
  1
PIN ASSIGNMENT
  0
LINE
  5
3B4
  8
回08-記事
  6
CONTINUOUS
 62
     5
 10
387.7733711387928
 20
720.8919420972937
 30
0.0
 11
387.7733711387928
 21
792.8919420972937
 31
0.0
  0
LINE
  5
3B5
  8
回08-記事
  6
CONTINUOUS
 62
     5
 10
374.5733711387929
 20
738.8919420972937
 30
0.0
 11
374.5733711387929
 21
774.8919420972937
 31
0.0
  0
LINE
  5
3B6
  8
回08-記事
  6
CONTINUOUS
 62
     5
 10
349.3733711387931
 20
746.0919420972937
 30
0.0
 11
354.1733711387934
 21
748.4919420972936
 31
0.0
  0
ENDSEC
  0
EOF
