  0
SECTION
  2
HEADER
  9
$ACADVER
  1
AC1009
  9
$INSBASE
 10
0.0
 20
0.0
 30
0.0
  9
$EXTMIN
 10
310.813463376413
 20
-457.9403361962659
 30
0.0
  9
$EXTMAX
 10
1120.813463376413
 20
92.18208692978498
 30
0.0
  9
$LIMMIN
 10
0.0
 20
0.0
  9
$LIMMAX
 10
880.0
 20
620.0
  9
$ORTHOMODE
 70
     0
  9
$REGENMODE
 70
     1
  9
$FILLMODE
 70
     1
  9
$QTEXTMODE
 70
     0
  9
$MIRRTEXT
 70
     1
  9
$DRAGMODE
 70
     2
  9
$LTSCALE
 40
2.087542087542086
  9
$OSMODE
 70
    37
  9
$ATTMODE
 70
     1
  9
$TEXTSIZE
 40
3.0
  9
$TRACEWID
 40
1.0
  9
$TEXTSTYLE
  7
STANDARD
  9
$CLAYER
  8
回08-記事
  9
$CELTYPE
  6
CONTINUOUS
  9
$CECOLOR
 62
     7
  9
$DIMSCALE
 40
1.0
  9
$DIMASZ
 40
2.0
  9
$DIMEXO
 40
0.0
  9
$DIMDLI
 40
0.0
  9
$DIMRND
 40
0.0
  9
$DIMDLE
 40
0.0
  9
$DIMEXE
 40
1.0
  9
$DIMTP
 40
0.0
  9
$DIMTM
 40
0.0
  9
$DIMTXT
 40
5.0
  9
$DIMCEN
 40
2.0
  9
$DIMTSZ
 40
0.0
  9
$DIMTOL
 70
     0
  9
$DIMLIM
 70
     0
  9
$DIMTIH
 70
     0
  9
$DIMTOH
 70
     0
  9
$DIMSE1
 70
     0
  9
$DIMSE2
 70
     0
  9
$DIMTAD
 70
     3
  9
$DIMZIN
 70
     8
  9
$DIMBLK
  1
OPEN
  9
$DIMASO
 70
     1
  9
$DIMSHO
 70
     1
  9
$DIMPOST
  1

  9
$DIMAPOST
  1

  9
$DIMALT
 70
     1
  9
$DIMALTD
 70
     3
  9
$DIMALTF
 40
0.03937007874016
  9
$DIMLFAC
 40
1.0
  9
$DIMTOFL
 70
     1
  9
$DIMTVP
 40
0.0
  9
$DIMTIX
 70
     0
  9
$DIMSOXD
 70
     0
  9
$DIMSAH
 70
     0
  9
$DIMBLK1
  1

  9
$DIMBLK2
  1

  9
$DIMSTYLE
  2
DMC
  9
$DIMCLRD
 70
     5
  9
$DIMCLRE
 70
     5
  9
$DIMCLRT
 70
     5
  9
$DIMTFAC
 40
0.7
  9
$DIMGAP
 40
0.5
  9
$LUNITS
 70
     2
  9
$LUPREC
 70
     4
  9
$SKETCHINC
 40
1.0
  9
$FILLETRAD
 40
1.0
  9
$AUNITS
 70
     0
  9
$AUPREC
 70
     0
  9
$MENU
  1
.
  9
$ELEVATION
 40
0.0
  9
$PELEVATION
 40
0.0
  9
$THICKNESS
 40
0.0
  9
$LIMCHECK
 70
     0
  9
$BLIPMODE
 70
     0
  9
$CHAMFERA
 40
3.0
  9
$CHAMFERB
 40
3.0
  9
$SKPOLY
 70
     0
  9
$TDCREATE
 40
2450431.727493866
  9
$TDUPDATE
 40
2460221.704813912
  9
$TDINDWG
 40
5.198167153
  9
$TDUSRTIMER
 40
5.198157685
  9
$USRTIMER
 70
     1
  9
$ANGBASE
 50
0.0
  9
$ANGDIR
 70
     0
  9
$PDMODE
 70
    34
  9
$PDSIZE
 40
0.0
  9
$PLINEWID
 40
0.2
  9
$COORDS
 70
     0
  9
$SPLFRAME
 70
     0
  9
$SPLINETYPE
 70
     6
  9
$SPLINESEGS
 70
     8
  9
$ATTDIA
 70
     1
  9
$ATTREQ
 70
     1
  9
$HANDLING
 70
     1
  9
$HANDSEED
  5
E34
  9
$SURFTAB1
 70
     6
  9
$SURFTAB2
 70
     6
  9
$SURFTYPE
 70
     6
  9
$SURFU
 70
     6
  9
$SURFV
 70
     6
  9
$UCSNAME
  2

  9
$UCSORG
 10
0.0
 20
0.0
 30
0.0
  9
$UCSXDIR
 10
1.0
 20
0.0
 30
0.0
  9
$UCSYDIR
 10
0.0
 20
1.0
 30
0.0
  9
$PUCSNAME
  2

  9
$PUCSORG
 10
0.0
 20
0.0
 30
0.0
  9
$PUCSXDIR
 10
1.0
 20
0.0
 30
0.0
  9
$PUCSYDIR
 10
0.0
 20
1.0
 30
0.0
  9
$USERI1
 70
     0
  9
$USERI2
 70
     0
  9
$USERI3
 70
     0
  9
$USERI4
 70
     0
  9
$USERI5
 70
     0
  9
$USERR1
 40
0.0
  9
$USERR2
 40
0.0
  9
$USERR3
 40
0.0
  9
$USERR4
 40
0.0
  9
$USERR5
 40
0.0
  9
$WORLDVIEW
 70
     1
  9
$SHADEDGE
 70
     3
  9
$SHADEDIF
 70
    70
  9
$TILEMODE
 70
     1
  9
$MAXACTVP
 70
    16
  9
$PLIMCHECK
 70
     0
  9
$PEXTMIN
 10
1.000000000000000E+20
 20
1.000000000000000E+20
 30
1.000000000000000E+20
  9
$PEXTMAX
 10
-1.000000000000000E+20
 20
-1.000000000000000E+20
 30
-1.000000000000000E+20
  9
$PLIMMIN
 10
0.0
 20
0.0
  9
$PLIMMAX
 10
420.0
 20
297.0
  9
$UNITMODE
 70
     0
  9
$VISRETAIN
 70
     0
  9
$PLINEGEN
 70
     0
  9
$PSLTSCALE
 70
     1
  0
ENDSEC
  0
SECTION
  2
TABLES
  0
TABLE
  2
VPORT
 70
     1
  0
VPORT
  2
*ACTIVE
 70
     0
 10
0.0
 20
0.0
 11
1.0
 21
1.0
 12
831.7138974470875
 22
-214.9859271478792
 13
0.0
 23
0.0
 14
0.25
 24
0.25
 15
1.0
 25
1.0
 16
0.0
 26
0.0
 36
1.0
 17
0.0
 27
0.0
 37
0.0
 40
674.2185933597331
 41
2.216284987277353
 42
50.0
 43
0.0
 44
0.0
 50
0.0
 51
0.0
 71
     0
 72
   100
 73
     1
 74
     0
 75
     0
 76
     0
 77
     0
 78
     0
  0
ENDTAB
  0
TABLE
  2
LTYPE
 70
     4
  0
LTYPE
  2
CONTINUOUS
 70
     0
  3
Solid line
 72
    65
 73
     0
 40
0.0
  0
LTYPE
  2
CENTER2
 70
     0
  3
___ _ ___ _ ___ _ ___ _ ___ _ ___ _ ___ _ ___ _
 72
    65
 73
     4
 40
1.125
 49
0.75
 49
-0.125
 49
0.125
 49
-0.125
  0
LTYPE
  2
DASHED2
 70
     0
  3
_ _ _ _ _ _ _ _ _ _ _ _ _ _ _ _ _ _ _ _ _ _ _ _
 72
    65
 73
     2
 40
0.375
 49
0.25
 49
-0.125
  0
LTYPE
  2
PHANTOM2
 70
     0
  3
Phantom (.5x) ___ _ _ ___ _ _ ___ _ _ ___ _ _
 72
    65
 73
     6
 40
1.25
 49
0.625
 49
-0.125
 49
0.125
 49
-0.125
 49
0.125
 49
-0.125
  0
ENDTAB
  0
TABLE
  2
LAYER
 70
     8
  0
LAYER
  2
0
 70
     0
 62
     7
  6
CONTINUOUS
  0
LAYER
  2
DEFPOINTS
 70
     0
 62
     7
  6
CONTINUOUS
  0
LAYER
  2
回07-ﾃｰﾙ
 70
     0
 62
     7
  6
CONTINUOUS
  0
LAYER
  2
回90-A1和
 70
     0
 62
     7
  6
CONTINUOUS
  0
LAYER
  2
回03-下接
 70
     0
 62
     7
  6
CONTINUOUS
  0
LAYER
  2
回08-記事
 70
     0
 62
     7
  6
CONTINUOUS
  0
LAYER
  2
回07-寸法
 70
     0
 62
     7
  6
CONTINUOUS
  0
LAYER
  2
回03-記事
 70
     0
 62
     7
  6
CONTINUOUS
  0
ENDTAB
  0
TABLE
  2
STYLE
 70
     2
  0
STYLE
  2
STANDARD
 70
     0
 40
5.0
 41
1.0
 50
0.0
 71
     0
 42
3.0
  3
isocp.shx
  4
bigfont.shx
  0
STYLE
  2
ANNOTATIVE
 70
     0
 40
0.0
 41
1.0
 50
0.0
 71
     0
 42
0.2
  3
txt.shx
  4

  0
ENDTAB
  0
TABLE
  2
VIEW
 70
     0
  0
ENDTAB
  0
TABLE
  2
UCS
 70
     0
  0
ENDTAB
  0
TABLE
  2
APPID
 70
     5
  0
APPID
  2
ACAD
 70
     0
  0
APPID
  2
ACADANNOTATIVE
 70
     0
  0
APPID
  2
ACAD_DSTYLE_DIMJAG
 70
     0
  0
APPID
  2
ACAD_DSTYLE_DIMTALN
 70
     0
  0
APPID
  2
ACAD_NAV_VCDISPLAY
 70
     0
  0
ENDTAB
  0
TABLE
  2
DIMSTYLE
 70
     2
  0
DIMSTYLE
  2
KOUSA
 70
     0
  3

  4

  5

  6
OPEN
  7
OPEN
 40
1.0
 41
2.0
 42
0.0
 43
0.0
 44
1.0
 45
0.0
 46
0.0
 47
0.1
 48
0.1
140
3.0
141
2.0
142
0.0
143
25.4
144
1.0
145
0.0
146
0.7
147
0.5
 71
     1
 72
     0
 73
     0
 74
     0
 75
     0
 76
     0
 77
     3
 78
     8
170
     0
171
     2
172
     1
173
     1
174
     0
175
     0
176
     5
177
     5
178
     5
  0
DIMSTYLE
  2
DMC
 70
     0
  3

  4

  5
OPEN
  6

  7

 40
1.0
 41
2.0
 42
0.0
 43
0.0
 44
1.0
 45
0.0
 46
0.0
 47
0.0
 48
0.0
140
5.0
141
2.0
142
0.0
143
0.03937007874016
144
1.0
145
0.0
146
0.7
147
0.5
 71
     0
 72
     0
 73
     0
 74
     0
 75
     0
 76
     0
 77
     3
 78
     8
170
     1
171
     3
172
     1
173
     0
174
     0
175
     0
176
     5
177
     5
178
     5
  0
ENDTAB
  0
ENDSEC
  0
SECTION
  2
BLOCKS
  0
BLOCK
  8
0
  2
$MODEL_SPACE
 70
     0
 10
0.0
 20
0.0
 30
0.0
  3
$MODEL_SPACE
  1

  0
ENDBLK
  8
0
  5
24
  0
BLOCK
 67
     1
  8
0
  2
$PAPER_SPACE
 70
     0
 10
0.0
 20
0.0
 30
0.0
  3
$PAPER_SPACE
  1

  0
ENDBLK
  5
29
 67
     1
  8
0
  0
BLOCK
  8
0
  2
_OPEN
 70
     0
 10
0.0
 20
0.0
 30
0.0
  3
_OPEN
  1

  0
LINE
  5
C31
  8
0
  6
BYBLOCK
 62
     0
 10
-1.0
 20
0.166667
 30
0.0
 11
0.0
 21
0.0
 31
0.0
  0
LINE
  5
C32
  8
0
  6
BYBLOCK
 62
     0
 10
-1.0
 20
-0.166667
 30
0.0
 11
0.0
 21
0.0
 31
0.0
  0
LINE
  5
C33
  8
0
  6
BYBLOCK
 62
     0
 10
0.0
 20
0.0
 30
0.0
 11
-1.0
 21
0.0
 31
0.0
  0
LINE
  5
9DB
  8
0
  6
BYBLOCK
 62
     0
 10
-1.0
 20
0.166667
 30
0.0
 11
0.0
 21
0.0
 31
0.0
  0
LINE
  5
9DC
  8
0
  6
BYBLOCK
 62
     0
 10
-1.0
 20
-0.166667
 30
0.0
 11
0.0
 21
0.0
 31
0.0
  0
LINE
  5
9DD
  8
0
  6
BYBLOCK
 62
     0
 10
0.0
 20
0.0
 30
0.0
 11
-1.0
 21
0.0
 31
0.0
  0
LINE
  5
785
  8
0
  6
BYBLOCK
 62
     0
 10
-1.0
 20
0.166667
 30
0.0
 11
0.0
 21
0.0
 31
0.0
  0
LINE
  5
786
  8
0
  6
BYBLOCK
 62
     0
 10
-1.0
 20
-0.166667
 30
0.0
 11
0.0
 21
0.0
 31
0.0
  0
LINE
  5
787
  8
0
  6
BYBLOCK
 62
     0
 10
0.0
 20
0.0
 30
0.0
 11
-1.0
 21
0.0
 31
0.0
  0
LINE
  5
15
  8
0
  6
BYBLOCK
 62
     0
 10
-1.0
 20
0.1666666666666666
 30
0.0
 11
0.0
 21
0.0
 31
0.0
  0
LINE
  5
17
  8
0
  6
BYBLOCK
 62
     0
 10
0.0
 20
0.0
 30
0.0
 11
-1.0
 21
-0.1666666666666666
 31
0.0
  0
LINE
  5
18
  8
0
  6
BYBLOCK
 62
     0
 10
0.0
 20
0.0
 30
0.0
 11
-1.0
 21
0.0
 31
0.0
  0
ENDBLK
  5
19
  8
0
  0
BLOCK
  8
0
  2
*D1111
 70
     1
 10
0.0
 20
0.0
 30
0.0
  3
*D1111
  1

  0
LINE
  5
35C
  8
回07-寸法
  6
CONTINUOUS
 62
     5
 10
985.5577144920626
 20
-132.2295454151639
 30
0.0
 11
997.5816637066856
 21
-132.2295454151639
 31
0.0
  0
LINE
  5
35D
  8
回07-寸法
  6
CONTINUOUS
 62
     5
 10
985.5577144920626
 20
-134.2295454151639
 30
0.0
 11
997.5816637066856
 21
-134.2295454151639
 31
0.0
  0
LINE
  5
35E
  8
回07-寸法
  6
CONTINUOUS
 62
     5
 10
996.5816637066858
 20
-136.2295454151639
 30
0.0
 11
996.5816637066858
 21
-138.2295454151639
 31
0.0
  0
LINE
  5
35F
  8
回07-寸法
  6
CONTINUOUS
 62
     5
 10
996.5816637066858
 20
-130.2295454151639
 30
0.0
 11
996.5816637066858
 21
-98.71601077056659
 31
0.0
  0
LINE
  5
360
  8
回07-寸法
  6
CONTINUOUS
 62
     5
 10
996.5816637066858
 20
-134.2295454151639
 30
0.0
 11
996.5816637066858
 21
-132.2295454151639
 31
0.0
  0
INSERT
  5
361
  8
回07-寸法
  6
CONTINUOUS
 62
     5
 66
     1
  2
_OPEN
 10
996.5816637066858
 20
-134.2295454151639
 30
0.0
 41
2.0
 42
2.0
 43
2.0
 50
90.0
  0
SEQEND
  5
362
  8
回08-記事
  6
CONTINUOUS
 62
     7
  0
INSERT
  5
363
  8
回07-寸法
  6
CONTINUOUS
 62
     5
 66
     1
  2
_OPEN
 10
996.5816637066858
 20
-132.2295454151639
 30
0.0
 41
2.0
 42
2.0
 43
2.0
 50
270.0
  0
SEQEND
  5
364
  8
回08-記事
  6
CONTINUOUS
 62
     7
  0
TEXT
  5
365
  8
回07-寸法
  6
CONTINUOUS
 62
     5
 10
995.8317635501892
 20
-128.481804014183
 30
0.0
 40
5.0
  1
(2 [0.079])
 50
90.0
1001
ACAD
1000
MTEXTBEGIN
1070
    73
1070
     1
1070
    44
1040
1.0
1070
    74
1070
     0
1000
MTEXTEND
  0
POINT
  5
366
  8
DEFPOINTS
  6
CONTINUOUS
 62
     0
 10
985.5577144920626
 20
-132.2295454151639
 30
0.0
  0
POINT
  5
367
  8
DEFPOINTS
  6
CONTINUOUS
 62
     0
 10
985.5577144920626
 20
-134.2295454151639
 30
0.0
  0
POINT
  5
368
  8
DEFPOINTS
  6
CONTINUOUS
 62
     0
 10
996.5816637066858
 20
-134.2295454151639
 30
0.0
  0
ENDBLK
  5
369
  8
0
 62
    30
  0
BLOCK
  8
0
  2
*D2222
 70
     1
 10
0.0
 20
0.0
 30
0.0
  3
*D2222
  1

  0
LINE
  5
34B
  8
回07-寸法
  6
CONTINUOUS
 62
     5
 10
985.657714492062
 20
-141.7295454151639
 30
0.0
 11
1002.442698786237
 21
-141.7295454151639
 31
0.0
  0
LINE
  5
34C
  8
回07-寸法
  6
CONTINUOUS
 62
     5
 10
985.5577144920619
 20
-134.2295454151639
 30
0.0
 11
1002.442698786237
 21
-134.2295454151639
 31
0.0
  0
LINE
  5
34D
  8
回07-寸法
  6
CONTINUOUS
 62
     5
 10
1001.442698786237
 20
-143.7295454151639
 30
0.0
 11
1001.442698786237
 21
-176.2475972577987
 31
0.0
  0
LINE
  5
34E
  8
回07-寸法
  6
CONTINUOUS
 62
     5
 10
1001.442698786237
 20
-141.7295454151639
 30
0.0
 11
1001.442698786237
 21
-134.2295454151639
 31
0.0
  0
LINE
  5
34F
  8
回07-寸法
  6
CONTINUOUS
 62
     5
 10
1001.442698786237
 20
-132.2295454151639
 30
0.0
 11
1001.442698786237
 21
-130.2295454151639
 31
0.0
  0
INSERT
  5
350
  8
回07-寸法
  6
CONTINUOUS
 62
     5
 66
     1
  2
_OPEN
 10
1001.442698786237
 20
-141.7295454151639
 30
0.0
 41
2.0
 42
2.0
 43
2.0
 50
90.0
  0
SEQEND
  5
351
  8
回08-記事
  6
CONTINUOUS
 62
     7
  0
INSERT
  5
352
  8
回07-寸法
  6
CONTINUOUS
 62
     5
 66
     1
  2
_OPEN
 10
1001.442698786237
 20
-134.2295454151639
 30
0.0
 41
2.0
 42
2.0
 43
2.0
 50
270.0
  0
SEQEND
  5
353
  8
回08-記事
  6
CONTINUOUS
 62
     7
  0
TEXT
  5
354
  8
回07-寸法
  6
CONTINUOUS
 62
     5
 10
1000.692698786237
 20
-176.4975972577987
 30
0.0
 40
5.0
  1
7.5 [0.295]
 50
90.0
  0
POINT
  5
355
  8
DEFPOINTS
  6
CONTINUOUS
 62
     0
 10
985.657714492062
 20
-141.7295454151639
 30
0.0
  0
POINT
  5
356
  8
DEFPOINTS
  6
CONTINUOUS
 62
     0
 10
985.5577144920619
 20
-134.2295454151639
 30
0.0
  0
POINT
  5
357
  8
DEFPOINTS
  6
CONTINUOUS
 62
     0
 10
1001.442698786237
 20
-134.2295454151639
 30
0.0
  0
ENDBLK
  5
358
  8
0
 62
    30
  0
BLOCK
  8
0
  2
*D3333
 70
     1
 10
0.0
 20
0.0
 30
0.0
  3
*D3333
  1

  0
LINE
  5
33A
  8
回07-寸法
  6
CONTINUOUS
 62
     5
 10
653.4699581694024
 20
-23.73457585747008
 30
0.0
 11
594.2461263104212
 21
-23.73457585747008
 31
0.0
  0
LINE
  5
33B
  8
回07-寸法
  6
CONTINUOUS
 62
     5
 10
653.4657845836966
 20
-7.735778891741919
 30
0.0
 11
594.2461263104212
 21
-7.735778891741919
 31
0.0
  0
LINE
  5
33C
  8
回07-寸法
  6
CONTINUOUS
 62
     5
 10
595.2461263104212
 20
-5.735778891741928
 30
0.0
 11
595.2461263104212
 21
-3.735778891741925
 31
0.0
  0
LINE
  5
33D
  8
回07-寸法
  6
CONTINUOUS
 62
     5
 10
595.2461263104212
 20
-25.7345758574701
 30
0.0
 11
595.2461263104212
 21
-55.73457585747011
 31
0.0
  0
LINE
  5
33E
  8
回07-寸法
  6
CONTINUOUS
 62
     5
 10
595.2461263104212
 20
-7.735778891741928
 30
0.0
 11
595.2461263104212
 21
-23.7345758574701
 31
0.0
  0
INSERT
  5
33F
  8
回07-寸法
  6
CONTINUOUS
 62
     5
 66
     1
  2
_OPEN
 10
595.2461263104212
 20
-7.735778891741928
 30
0.0
 41
2.0
 42
2.0
 43
2.0
 50
270.0
  0
SEQEND
  5
340
  8
回08-記事
  6
CONTINUOUS
 62
     7
  0
INSERT
  5
341
  8
回07-寸法
  6
CONTINUOUS
 62
     5
 66
     1
  2
_OPEN
 10
595.2461263104212
 20
-23.7345758574701
 30
0.0
 41
2.0
 42
2.0
 43
2.0
 50
90.0
  0
SEQEND
  5
342
  8
回08-記事
  6
CONTINUOUS
 62
     7
  0
TEXT
  5
343
  8
回07-寸法
  6
CONTINUOUS
 62
     5
 10
594.4961263104212
 20
-55.98457585747031
 30
0.0
 40
5.0
  1
16 [0.630]
 50
90.0
1001
ACAD
1000
MTEXTBEGIN
1070
    73
1070
     1
1070
    44
1040
1.0
1070
    74
1070
     0
1000
MTEXTEND
  0
POINT
  5
344
  8
DEFPOINTS
  6
CONTINUOUS
 62
     0
 10
653.4699581694024
 20
-23.73457585747008
 30
0.0
  0
POINT
  5
345
  8
DEFPOINTS
  6
CONTINUOUS
 62
     0
 10
653.4657845836966
 20
-7.735778891741919
 30
0.0
  0
POINT
  5
346
  8
DEFPOINTS
  6
CONTINUOUS
 62
     0
 10
595.2461263104212
 20
-7.735778891741928
 30
0.0
  0
ENDBLK
  5
347
  8
0
 62
    30
  0
BLOCK
  8
0
  2
*D4444
 70
     1
 10
0.0
 20
0.0
 30
0.0
  3
*D4444
  1

  0
LINE
  5
32B
  8
回07-寸法
 62
     5
 10
577.6576709812942
 20
-13.85957585747007
 30
0.0
 11
577.6576709812942
 21
30.0337232262948
 31
0.0
  0
LINE
  5
32C
  8
回07-寸法
 62
     5
 10
657.6576709812925
 20
-5.727074856666945
 30
0.0
 11
657.6576709812925
 21
30.0337232262948
 31
0.0
  0
LINE
  5
32D
  8
回07-寸法
 62
     5
 10
579.6576709812942
 20
29.03372322629479
 30
0.0
 11
655.6576709812925
 21
29.03372322629479
 31
0.0
  0
INSERT
  5
32E
  8
回07-寸法
 62
     5
 66
     1
  2
_OPEN
 10
577.6576709812942
 20
29.03372322629479
 30
0.0
 41
2.0
 42
2.0
 43
2.0
 50
180.0
  0
SEQEND
  5
32F
  8
回08-記事
  6
CONTINUOUS
 62
     7
  0
INSERT
  5
330
  8
回07-寸法
 62
     5
 66
     1
  2
_OPEN
 10
657.6576709812925
 20
29.03372322629479
 30
0.0
 41
2.0
 42
2.0
 43
2.0
  0
SEQEND
  5
331
  8
回08-記事
  6
CONTINUOUS
 62
     7
  0
INSERT
  5
332
  8
回07-寸法
 62
     5
 66
     1
  2
*X82828282
 10
0.0
 20
0.0
 30
0.0
  0
SEQEND
  5
68C
  8
回08-記事
  6
CONTINUOUS
 62
     7
  0
POINT
  5
333
  8
DEFPOINTS
 62
     0
 10
577.6576709812942
 20
-13.85957585747007
 30
0.0
  0
POINT
  5
334
  8
DEFPOINTS
 62
     0
 10
657.6576709812925
 20
-5.727074856666945
 30
0.0
  0
POINT
  5
335
  8
DEFPOINTS
 62
     0
 10
657.6576709812925
 20
29.03372322629479
 30
0.0
  0
ENDBLK
  5
336
  8
0
 62
    30
  0
BLOCK
  8
0
  2
*D5555
 70
     1
 10
0.0
 20
0.0
 30
0.0
  3
*D5555
  1

  0
LINE
  5
31A
  8
回07-寸法
  6
CONTINUOUS
 62
     5
 10
657.6576709812934
 20
-26.60564366933602
 30
0.0
 11
657.6576709812934
 21
-46.34072641612374
 31
0.0
  0
LINE
  5
31B
  8
回07-寸法
  6
CONTINUOUS
 62
     5
 10
647.7490710250499
 20
-18.86360052472207
 30
0.0
 11
647.7490710250499
 21
-46.34072641612374
 31
0.0
  0
LINE
  5
31C
  8
回07-寸法
  6
CONTINUOUS
 62
     5
 10
659.6576709812934
 20
-45.34072641612374
 30
0.0
 11
661.6576709812934
 21
-45.34072641612374
 31
0.0
  0
LINE
  5
31D
  8
回07-寸法
  6
CONTINUOUS
 62
     5
 10
645.7490710250499
 20
-45.34072641612374
 30
0.0
 11
612.5419642438632
 21
-45.34072641612374
 31
0.0
  0
LINE
  5
31E
  8
回07-寸法
  6
CONTINUOUS
 62
     5
 10
657.6576709812934
 20
-45.34072641612374
 30
0.0
 11
647.7490710250499
 21
-45.34072641612374
 31
0.0
  0
INSERT
  5
31F
  8
回07-寸法
  6
CONTINUOUS
 62
     5
 66
     1
  2
_OPEN
 10
657.6576709812934
 20
-45.34072641612374
 30
0.0
 41
2.0
 42
2.0
 43
2.0
 50
180.0
  0
SEQEND
  5
320
  8
回08-記事
  6
CONTINUOUS
 62
     7
  0
INSERT
  5
321
  8
回07-寸法
  6
CONTINUOUS
 62
     5
 66
     1
  2
_OPEN
 10
647.7490710250499
 20
-45.34072641612374
 30
0.0
 41
2.0
 42
2.0
 43
2.0
  0
SEQEND
  5
322
  8
回08-記事
  6
CONTINUOUS
 62
     7
  0
TEXT
  5
323
  8
回07-寸法
  6
CONTINUOUS
 62
     5
 10
612.3774657918215
 20
-44.59072641612374
 30
0.0
 40
5.0
  1
9.4 [0.370]
1001
ACAD
1000
MTEXTBEGIN
1070
    73
1070
     1
1070
    44
1040
1.0
1070
    74
1070
     0
1000
MTEXTEND
  0
POINT
  5
324
  8
DEFPOINTS
  6
CONTINUOUS
 62
     0
 10
657.6576709812934
 20
-26.60564366933602
 30
0.0
  0
POINT
  5
325
  8
DEFPOINTS
  6
CONTINUOUS
 62
     0
 10
647.7490710250499
 20
-18.86360052472207
 30
0.0
  0
POINT
  5
326
  8
DEFPOINTS
  6
CONTINUOUS
 62
     0
 10
647.7490710250499
 20
-45.34072641612374
 30
0.0
  0
ENDBLK
  5
327
  8
0
 62
    30
  0
BLOCK
  8
0
  2
*D6666
 70
     1
 10
0.0
 20
0.0
 30
0.0
  3
*D6666
  1

  0
LINE
  5
309
  8
回07-寸法
 62
     5
 10
578.1576709812942
 20
-12.60957585747008
 30
0.0
 11
567.8372204745577
 21
-12.60957585747008
 31
0.0
  0
LINE
  5
30A
  8
回07-寸法
 62
     5
 10
578.1576709812942
 20
-18.85957585747007
 30
0.0
 11
567.8372204745577
 21
-18.85957585747007
 31
0.0
  0
LINE
  5
30B
  8
回07-寸法
 62
     5
 10
568.8372204745577
 20
-10.60957585747008
 30
0.0
 11
568.8372204745577
 21
-8.609575857470082
 31
0.0
  0
LINE
  5
30C
  8
回07-寸法
 62
     5
 10
568.8372204745577
 20
-20.85957585747008
 30
0.0
 11
568.8372204745577
 21
-68.50878845589528
 31
0.0
  0
LINE
  5
30D
  8
回07-寸法
 62
     5
 10
568.8372204745577
 20
-12.60957585747008
 30
0.0
 11
568.8372204745577
 21
-18.85957585747007
 31
0.0
  0
INSERT
  5
30E
  8
回07-寸法
 62
     5
 66
     1
  2
_OPEN
 10
568.8372204745577
 20
-12.60957585747008
 30
0.0
 41
2.0
 42
2.0
 43
2.0
 50
270.0
  0
SEQEND
  5
30F
  8
回08-記事
  6
CONTINUOUS
 62
     7
  0
INSERT
  5
310
  8
回07-寸法
 62
     5
 66
     1
  2
_OPEN
 10
568.8372204745577
 20
-18.85957585747007
 30
0.0
 41
2.0
 42
2.0
 43
2.0
 50
90.0
  0
SEQEND
  5
311
  8
回08-記事
  6
CONTINUOUS
 62
     7
  0
TEXT
  5
312
  8
回07-寸法
 62
     5
 10
568.0872204745575
 20
-68.60918215668289
 30
0.0
 40
5.0
  1
6.25 [0.246]
 50
90.0
1001
ACAD
1000
MTEXTBEGIN
1070
    73
1070
     1
1070
    44
1040
1.0
1070
    74
1070
     0
1000
MTEXTEND
  0
POINT
  5
313
  8
DEFPOINTS
 62
     0
 10
578.1576709812942
 20
-12.60957585747008
 30
0.0
  0
POINT
  5
314
  8
DEFPOINTS
 62
     0
 10
578.1576709812942
 20
-18.85957585747007
 30
0.0
  0
POINT
  5
315
  8
DEFPOINTS
 62
     0
 10
568.8372204745577
 20
-18.85957585747007
 30
0.0
  0
ENDBLK
  5
316
  8
0
 62
    30
  0
BLOCK
  8
0
  2
*D7777
 70
     1
 10
0.0
 20
0.0
 30
0.0
  3
*D7777
  1

  0
LINE
  5
2F2
  8
回07-寸法
  6
CONTINUOUS
 62
     5
 10
657.657714492062
 20
109.2704545848361
 30
0.0
 11
657.657714492062
 21
124.2759271831115
 31
0.0
  0
LINE
  5
2F3
  8
回07-寸法
  6
CONTINUOUS
 62
     5
 10
822.1577144920621
 20
110.2704545848361
 30
0.0
 11
822.1577144920621
 21
124.2759271831115
 31
0.0
  0
LINE
  5
2F4
  8
回07-寸法
  6
CONTINUOUS
 62
     5
 10
659.657714492062
 20
123.2759271831115
 30
0.0
 11
820.1577144920619
 21
123.2759271831115
 31
0.0
  0
INSERT
  5
2F5
  8
回07-寸法
  6
CONTINUOUS
 62
     5
 66
     1
  2
_OPEN
 10
657.657714492062
 20
123.2759271831115
 30
0.0
 41
2.0
 42
2.0
 43
2.0
 50
180.0
  0
SEQEND
  5
2F6
  8
回08-記事
  6
CONTINUOUS
 62
     7
  0
INSERT
  5
2F7
  8
回07-寸法
  6
CONTINUOUS
 62
     5
 66
     1
  2
_OPEN
 10
822.1577144920621
 20
123.2759271831115
 30
0.0
 41
2.0
 42
2.0
 43
2.0
  0
SEQEND
  5
2F8
  8
回08-記事
  6
CONTINUOUS
 62
     7
  0
TEXT
  5
2F9
  8
回07-寸法
  6
CONTINUOUS
 62
     5
 10
684.1586987440305
 20
124.0259271831115
 30
0.0
 40
5.0
  1
164.5 [6.476] (ACTIVE AREA CENTER)
1001
ACAD
1000
MTEXTBEGIN
1070
    73
1070
     1
1070
    44
1040
1.0
1070
    74
1070
     0
1000
MTEXTEND
  0
POINT
  5
2FA
  8
DEFPOINTS
  6
CONTINUOUS
 62
     0
 10
657.657714492062
 20
109.2704545848361
 30
0.0
  0
POINT
  5
2FB
  8
DEFPOINTS
  6
CONTINUOUS
 62
     0
 10
822.1577144920621
 20
110.2704545848361
 30
0.0
  0
POINT
  5
2FC
  8
DEFPOINTS
  6
CONTINUOUS
 62
     0
 10
822.1577144920621
 20
123.2759271831115
 30
0.0
  0
ENDBLK
  5
2FD
  8
0
 62
    30
  0
BLOCK
  8
0
  2
*D8888
 70
     1
 10
0.0
 20
0.0
 30
0.0
  3
*D8888
  1

  0
LINE
  5
2E3
  8
回07-寸法
  6
CONTINUOUS
 62
     5
 10
669.657714492062
 20
98.7704545848361
 30
0.0
 11
669.657714492062
 21
134.0084997831433
 31
0.0
  0
LINE
  5
2E4
  8
回07-寸法
  6
CONTINUOUS
 62
     5
 10
974.6577144920619
 20
98.7704545848361
 30
0.0
 11
974.6577144920619
 21
134.0084997831433
 31
0.0
  0
LINE
  5
2E5
  8
回07-寸法
  6
CONTINUOUS
 62
     5
 10
671.657714492062
 20
133.0084997831433
 30
0.0
 11
972.657714492062
 21
133.0084997831433
 31
0.0
  0
INSERT
  5
2E6
  8
回07-寸法
  6
CONTINUOUS
 62
     5
 66
     1
  2
_OPEN
 10
669.657714492062
 20
133.0084997831433
 30
0.0
 41
2.0
 42
2.0
 43
2.0
 50
180.0
  0
SEQEND
  5
2E7
  8
回08-記事
  6
CONTINUOUS
 62
     7
  0
INSERT
  5
2E8
  8
回07-寸法
  6
CONTINUOUS
 62
     5
 66
     1
  2
_OPEN
 10
974.6577144920619
 20
133.0084997831433
 30
0.0
 41
2.0
 42
2.0
 43
2.0
  0
SEQEND
  5
2E9
  8
回08-記事
  6
CONTINUOUS
 62
     7
  0
TEXT
  5
2EA
  8
回07-寸法
  6
CONTINUOUS
 62
     5
 10
780.4086987440302
 20
133.7584997831433
 30
0.0
 40
5.0
  1
305 [12.008] (ACTIVE AREA)
1001
ACAD
1000
MTEXTBEGIN
1070
    73
1070
     1
1070
    44
1040
1.0
1070
    74
1070
     0
1000
MTEXTEND
  0
POINT
  5
2EB
  8
DEFPOINTS
  6
CONTINUOUS
 62
     0
 10
669.657714492062
 20
98.7704545848361
 30
0.0
  0
POINT
  5
2EC
  8
DEFPOINTS
  6
CONTINUOUS
 62
     0
 10
974.6577144920619
 20
98.7704545848361
 30
0.0
  0
POINT
  5
2ED
  8
DEFPOINTS
  6
CONTINUOUS
 62
     0
 10
974.6577144920619
 20
133.0084997831433
 30
0.0
  0
ENDBLK
  5
2EE
  8
0
 62
    30
  0
BLOCK
  8
0
  2
*D9999
 70
     1
 10
0.0
 20
0.0
 30
0.0
  3
*D9999
  1

  0
LINE
  5
2D4
  8
回07-寸法
  6
CONTINUOUS
 62
     5
 10
667.657714492062
 20
100.7704545848361
 30
0.0
 11
667.657714492062
 21
143.7203376990006
 31
0.0
  0
LINE
  5
2D5
  8
回07-寸法
  6
CONTINUOUS
 62
     5
 10
976.6577144920621
 20
100.7704545848361
 30
0.0
 11
976.6577144920621
 21
143.7203376990006
 31
0.0
  0
LINE
  5
2D6
  8
回07-寸法
  6
CONTINUOUS
 62
     5
 10
669.657714492062
 20
142.7203376990006
 30
0.0
 11
974.6577144920619
 21
142.7203376990006
 31
0.0
  0
INSERT
  5
2D7
  8
回07-寸法
  6
CONTINUOUS
 62
     5
 66
     1
  2
_OPEN
 10
667.657714492062
 20
142.7203376990006
 30
0.0
 41
2.0
 42
2.0
 43
2.0
 50
180.0
  0
SEQEND
  5
2D8
  8
回08-記事
  6
CONTINUOUS
 62
     7
  0
INSERT
  5
2D9
  8
回07-寸法
  6
CONTINUOUS
 62
     5
 66
     1
  2
_OPEN
 10
976.6577144920621
 20
142.7203376990006
 30
0.0
 41
2.0
 42
2.0
 43
2.0
  0
SEQEND
  5
2DA
  8
回08-記事
  6
CONTINUOUS
 62
     7
  0
TEXT
  5
2DB
  8
回07-寸法
  6
CONTINUOUS
 62
     5
 10
779.399672822713
 20
143.4703376990006
 30
0.0
 40
5.0
  1
309 [12.165] (VIEWING AREA)
1001
ACAD
1000
MTEXTBEGIN
1070
    73
1070
     1
1070
    44
1040
1.0
1070
    74
1070
     0
1000
MTEXTEND
  0
POINT
  5
2DC
  8
DEFPOINTS
  6
CONTINUOUS
 62
     0
 10
667.657714492062
 20
100.7704545848361
 30
0.0
  0
POINT
  5
2DD
  8
DEFPOINTS
  6
CONTINUOUS
 62
     0
 10
976.6577144920621
 20
100.7704545848361
 30
0.0
  0
POINT
  5
2DE
  8
DEFPOINTS
  6
CONTINUOUS
 62
     0
 10
976.6577144920621
 20
142.7203376990006
 30
0.0
  0
ENDBLK
  5
2DF
  8
0
 62
    30
  0
BLOCK
  8
0
  2
*D10101010
 70
     1
 10
0.0
 20
0.0
 30
0.0
  3
*D10101010
  1

  0
LINE
  5
2C5
  8
回07-寸法
  6
CONTINUOUS
 62
     5
 10
657.657714492062
 20
109.2704545848361
 30
0.0
 11
657.657714492062
 21
171.86965291355
 31
0.0
  0
LINE
  5
2C6
  8
回07-寸法
  6
CONTINUOUS
 62
     5
 10
985.657714492062
 20
110.2704545848361
 30
0.0
 11
985.657714492062
 21
171.86965291355
 31
0.0
  0
LINE
  5
2C7
  8
回07-寸法
  6
CONTINUOUS
 62
     5
 10
659.657714492062
 20
170.86965291355
 30
0.0
 11
983.6577144920621
 21
170.86965291355
 31
0.0
  0
INSERT
  5
2C8
  8
回07-寸法
  6
CONTINUOUS
 62
     5
 66
     1
  2
_OPEN
 10
657.657714492062
 20
170.86965291355
 30
0.0
 41
2.0
 42
2.0
 43
2.0
 50
180.0
  0
SEQEND
  5
2C9
  8
回08-記事
  6
CONTINUOUS
 62
     7
  0
INSERT
  5
2CA
  8
回07-寸法
  6
CONTINUOUS
 62
     5
 66
     1
  2
_OPEN
 10
985.657714492062
 20
170.86965291355
 30
0.0
 41
2.0
 42
2.0
 43
2.0
  0
SEQEND
  5
2CB
  8
回08-記事
  6
CONTINUOUS
 62
     7
  0
INSERT
  5
2CC
  8
回07-寸法
  6
CONTINUOUS
 62
     5
 66
     1
  2
*X83838383
 10
0.0
 20
0.0
 30
0.0
  0
SEQEND
  5
695
  8
回08-記事
  6
CONTINUOUS
 62
     7
  0
POINT
  5
2CD
  8
DEFPOINTS
  6
CONTINUOUS
 62
     0
 10
657.657714492062
 20
109.2704545848361
 30
0.0
  0
POINT
  5
2CE
  8
DEFPOINTS
  6
CONTINUOUS
 62
     0
 10
985.657714492062
 20
110.2704545848361
 30
0.0
  0
POINT
  5
2CF
  8
DEFPOINTS
  6
CONTINUOUS
 62
     0
 10
985.657714492062
 20
170.86965291355
 30
0.0
  0
ENDBLK
  5
2D0
  8
0
 62
    30
  0
BLOCK
  8
0
  2
*D11111111
 70
     1
 10
0.0
 20
0.0
 30
0.0
  3
*D11111111
  1

  0
LINE
  5
2B6
  8
回07-寸法
  6
CONTINUOUS
 62
     5
 10
985.657714492062
 20
-15.7295454151639
 30
0.0
 11
1019.2140006988
 21
-15.7295454151639
 31
0.0
  0
LINE
  5
2B7
  8
回07-寸法
  6
CONTINUOUS
 62
     5
 10
985.657714492062
 20
-141.7295454151639
 30
0.0
 11
1019.2140006988
 21
-141.7295454151639
 31
0.0
  0
LINE
  5
2B8
  8
回07-寸法
  6
CONTINUOUS
 62
     5
 10
1018.2140006988
 20
-17.7295454151639
 30
0.0
 11
1018.2140006988
 21
-139.7295454151639
 31
0.0
  0
INSERT
  5
2B9
  8
回07-寸法
  6
CONTINUOUS
 62
     5
 66
     1
  2
_OPEN
 10
1018.2140006988
 20
-15.7295454151639
 30
0.0
 41
2.0
 42
2.0
 43
2.0
 50
90.0
  0
SEQEND
  5
2BA
  8
回08-記事
  6
CONTINUOUS
 62
     7
  0
INSERT
  5
2BB
  8
回07-寸法
  6
CONTINUOUS
 62
     5
 66
     1
  2
_OPEN
 10
1018.2140006988
 20
-141.7295454151639
 30
0.0
 41
2.0
 42
2.0
 43
2.0
 50
270.0
  0
SEQEND
  5
2BC
  8
回08-記事
  6
CONTINUOUS
 62
     7
  0
TEXT
  5
2BD
  8
回07-寸法
  6
CONTINUOUS
 62
     5
 10
1017.4640006988
 20
-124.3537865343247
 30
0.0
 40
5.0
  1
126 [4.961] (ACTIVE AREA CENTER)
 50
90.0
  0
POINT
  5
2BE
  8
DEFPOINTS
  6
CONTINUOUS
 62
     0
 10
985.657714492062
 20
-15.7295454151639
 30
0.0
  0
POINT
  5
2BF
  8
DEFPOINTS
  6
CONTINUOUS
 62
     0
 10
985.657714492062
 20
-141.7295454151639
 30
0.0
  0
POINT
  5
2C0
  8
DEFPOINTS
  6
CONTINUOUS
 62
     0
 10
1018.2140006988
 20
-141.7295454151639
 30
0.0
  0
ENDBLK
  5
2C1
  8
0
 62
    30
  0
BLOCK
  8
0
  2
*D12121212
 70
     1
 10
0.0
 20
0.0
 30
0.0
  3
*D12121212
  1

  0
LINE
  5
2A7
  8
回07-寸法
  6
CONTINUOUS
 62
     5
 10
974.6577144920623
 20
-130.2295454151639
 30
0.0
 11
1030.596393927003
 21
-130.2295454151639
 31
0.0
  0
LINE
  5
2A8
  8
回07-寸法
  6
CONTINUOUS
 62
     5
 10
974.6577144920623
 20
98.77045458483616
 30
0.0
 11
1030.596393927003
 21
98.77045458483616
 31
0.0
  0
LINE
  5
2A9
  8
回07-寸法
  6
CONTINUOUS
 62
     5
 10
1029.596393927003
 20
-128.2295454151639
 30
0.0
 11
1029.596393927003
 21
96.7704545848362
 31
0.0
  0
INSERT
  5
2AA
  8
回07-寸法
  6
CONTINUOUS
 62
     5
 66
     1
  2
_OPEN
 10
1029.596393927003
 20
-130.2295454151639
 30
0.0
 41
2.0
 42
2.0
 43
2.0
 50
270.0
  0
SEQEND
  5
2AB
  8
回08-記事
  6
CONTINUOUS
 62
     7
  0
INSERT
  5
2AC
  8
回07-寸法
  6
CONTINUOUS
 62
     5
 66
     1
  2
_OPEN
 10
1029.596393927003
 20
98.77045458483621
 30
0.0
 41
2.0
 42
2.0
 43
2.0
 50
90.0
  0
SEQEND
  5
2AD
  8
回08-記事
  6
CONTINUOUS
 62
     7
  0
TEXT
  5
2AE
  8
回07-寸法
  6
CONTINUOUS
 62
     5
 10
1028.845185529454
 20
-55.74661300583068
 30
0.0
 40
5.0
  1
229 [9.016] (ACTIVE AREA)
 50
90.0
1001
ACAD
1000
MTEXTBEGIN
1070
    73
1070
     1
1070
    44
1040
1.0
1070
    74
1070
     0
1000
MTEXTEND
  0
POINT
  5
2AF
  8
DEFPOINTS
  6
CONTINUOUS
 62
     0
 10
974.6577144920623
 20
-130.2295454151639
 30
0.0
  0
POINT
  5
2B0
  8
DEFPOINTS
  6
CONTINUOUS
 62
     0
 10
974.6577144920623
 20
98.77045458483616
 30
0.0
  0
POINT
  5
2B1
  8
DEFPOINTS
  6
CONTINUOUS
 62
     0
 10
1029.596393927003
 20
98.77045458483621
 30
0.0
  0
ENDBLK
  5
2B2
  8
0
 62
    30
  0
BLOCK
  8
0
  2
*D13131313
 70
     1
 10
0.0
 20
0.0
 30
0.0
  3
*D13131313
  1

  0
LINE
  5
298
  8
回07-寸法
  6
CONTINUOUS
 62
     5
 10
976.6577144920624
 20
100.7704545848361
 30
0.0
 11
1040.830791836357
 21
100.7704545848361
 31
0.0
  0
LINE
  5
299
  8
回07-寸法
  6
CONTINUOUS
 62
     5
 10
976.6577144920624
 20
-132.2295454151639
 30
0.0
 11
1040.830791836357
 21
-132.2295454151639
 31
0.0
  0
LINE
  5
29A
  8
回07-寸法
  6
CONTINUOUS
 62
     5
 10
1039.830791836356
 20
98.77045458483621
 30
0.0
 11
1039.830791836356
 21
-130.2295454151639
 31
0.0
  0
INSERT
  5
29B
  8
回07-寸法
  6
CONTINUOUS
 62
     5
 66
     1
  2
_OPEN
 10
1039.830791836356
 20
100.7704545848361
 30
0.0
 41
2.0
 42
2.0
 43
2.0
 50
90.0
  0
SEQEND
  5
29C
  8
回08-記事
  6
CONTINUOUS
 62
     7
  0
INSERT
  5
29D
  8
回07-寸法
  6
CONTINUOUS
 62
     5
 66
     1
  2
_OPEN
 10
1039.830791836356
 20
-132.2295454151639
 30
0.0
 41
2.0
 42
2.0
 43
2.0
 50
270.0
  0
SEQEND
  5
29E
  8
回08-記事
  6
CONTINUOUS
 62
     7
  0
TEXT
  5
29F
  8
回07-寸法
  6
CONTINUOUS
 62
     5
 10
1039.079583438807
 20
-54.48758708451316
 30
0.0
 40
5.0
  1
233 [9.173] (VIEING AREA)
 50
90.0
1001
ACAD
1000
MTEXTBEGIN
1070
    73
1070
     1
1070
    44
1040
1.0
1070
    74
1070
     0
1000
MTEXTEND
  0
POINT
  5
2A0
  8
DEFPOINTS
  6
CONTINUOUS
 62
     0
 10
976.6577144920624
 20
100.7704545848361
 30
0.0
  0
POINT
  5
2A1
  8
DEFPOINTS
  6
CONTINUOUS
 62
     0
 10
976.6577144920624
 20
-132.2295454151639
 30
0.0
  0
POINT
  5
2A2
  8
DEFPOINTS
  6
CONTINUOUS
 62
     0
 10
1039.830791836356
 20
-132.2295454151639
 30
0.0
  0
ENDBLK
  5
2A3
  8
0
 62
    30
  0
BLOCK
  8
0
  2
*D14141414
 70
     1
 10
0.0
 20
0.0
 30
0.0
  3
*D14141414
  1

  0
LINE
  5
289
  8
回07-寸法
  6
CONTINUOUS
 62
     5
 10
985.657714492062
 20
-141.7295454151639
 30
0.0
 11
1061.336373231436
 21
-141.7295454151639
 31
0.0
  0
LINE
  5
28A
  8
回07-寸法
  6
CONTINUOUS
 62
     5
 10
985.657714492062
 20
110.2704545848361
 30
0.0
 11
1061.336373231436
 21
110.2704545848361
 31
0.0
  0
LINE
  5
28B
  8
回07-寸法
  6
CONTINUOUS
 62
     5
 10
1060.336373231436
 20
-139.7295454151639
 30
0.0
 11
1060.336373231436
 21
108.2704545848361
 31
0.0
  0
INSERT
  5
28C
  8
回07-寸法
  6
CONTINUOUS
 62
     5
 66
     1
  2
_OPEN
 10
1060.336373231436
 20
-141.7295454151639
 30
0.0
 41
2.0
 42
2.0
 43
2.0
 50
270.0
  0
SEQEND
  5
28D
  8
回08-記事
  6
CONTINUOUS
 62
     7
  0
INSERT
  5
28E
  8
回07-寸法
  6
CONTINUOUS
 62
     5
 66
     1
  2
_OPEN
 10
1060.336373231436
 20
110.2704545848361
 30
0.0
 41
2.0
 42
2.0
 43
2.0
 50
90.0
  0
SEQEND
  5
28F
  8
回08-記事
  6
CONTINUOUS
 62
     7
  0
INSERT
  5
290
  8
回07-寸法
  6
CONTINUOUS
 62
     5
 66
     1
  2
*X84848484
 10
0.0
 20
0.0
 30
0.0
  0
SEQEND
  5
69E
  8
回08-記事
  6
CONTINUOUS
 62
     7
  0
POINT
  5
291
  8
DEFPOINTS
  6
CONTINUOUS
 62
     0
 10
985.657714492062
 20
-141.7295454151639
 30
0.0
  0
POINT
  5
292
  8
DEFPOINTS
  6
CONTINUOUS
 62
     0
 10
985.657714492062
 20
110.2704545848361
 30
0.0
  0
POINT
  5
293
  8
DEFPOINTS
  6
CONTINUOUS
 62
     0
 10
1060.336373231436
 20
110.2704545848361
 30
0.0
  0
ENDBLK
  5
294
  8
0
 62
    30
  0
BLOCK
  8
0
  2
*D15151515
 70
     1
 10
0.0
 20
0.0
 30
0.0
  3
*D15151515
  1

  0
LINE
  5
276
  8
回07-寸法
  6
CONTINUOUS
 62
     5
 10
667.657714492062
 20
142.7203376990006
 30
0.0
 11
667.657714492062
 21
143.7294205897583
 31
0.0
  0
LINE
  5
277
  8
回07-寸法
  6
CONTINUOUS
 62
     5
 10
657.657714492062
 20
109.2704545848361
 30
0.0
 11
657.657714492062
 21
143.7294205897583
 31
0.0
  0
LINE
  5
278
  8
回07-寸法
  6
CONTINUOUS
 62
     5
 10
669.657714492062
 20
142.7294205897583
 30
0.0
 11
671.657714492062
 21
142.7294205897583
 31
0.0
  0
LINE
  5
279
  8
回07-寸法
  6
CONTINUOUS
 62
     5
 10
655.657714492062
 20
142.7294205897583
 30
0.0
 11
625.1402428395906
 21
142.7294205897583
 31
0.0
  0
LINE
  5
27A
  8
回07-寸法
  6
CONTINUOUS
 62
     5
 10
667.657714492062
 20
142.7294205897583
 30
0.0
 11
657.657714492062
 21
142.7294205897583
 31
0.0
  0
INSERT
  5
27B
  8
回07-寸法
  6
CONTINUOUS
 62
     5
 66
     1
  2
_OPEN
 10
667.657714492062
 20
142.7294205897583
 30
0.0
 41
2.0
 42
2.0
 43
2.0
 50
180.0
  0
SEQEND
  5
27C
  8
回08-記事
  6
CONTINUOUS
 62
     7
  0
INSERT
  5
27D
  8
回07-寸法
  6
CONTINUOUS
 62
     5
 66
     1
  2
_OPEN
 10
657.657714492062
 20
142.7294205897583
 30
0.0
 41
2.0
 42
2.0
 43
2.0
  0
SEQEND
  5
27E
  8
回08-記事
  6
CONTINUOUS
 62
     7
  0
TEXT
  5
27F
  8
回07-寸法
  6
CONTINUOUS
 62
     5
 10
624.889952744509
 20
143.4793207462544
 30
0.0
 40
5.0
  1
10 [0.394]
1001
ACAD
1000
MTEXTBEGIN
1070
    73
1070
     1
1070
    44
1040
1.0
1070
    74
1070
     0
1000
MTEXTEND
  0
POINT
  5
280
  8
DEFPOINTS
  6
CONTINUOUS
 62
     0
 10
667.657714492062
 20
142.7203376990006
 30
0.0
  0
POINT
  5
281
  8
DEFPOINTS
  6
CONTINUOUS
 62
     0
 10
657.657714492062
 20
109.2704545848361
 30
0.0
  0
POINT
  5
282
  8
DEFPOINTS
  6
CONTINUOUS
 62
     0
 10
657.657714492062
 20
142.7294205897583
 30
0.0
  0
ENDBLK
  5
283
  8
0
 62
    30
  0
BLOCK
  8
0
  2
*D16161616
 70
     1
 10
0.0
 20
0.0
 30
0.0
  3
*D16161616
  1

  0
LINE
  5
265
  8
回07-寸法
  6
CONTINUOUS
 62
     5
 10
669.657714492062
 20
133.0084997831433
 30
0.0
 11
669.657714492062
 21
134.0230346845237
 31
0.0
  0
LINE
  5
266
  8
回07-寸法
  6
CONTINUOUS
 62
     5
 10
657.657714492062
 20
109.2704545848361
 30
0.0
 11
657.657714492062
 21
134.0230346845237
 31
0.0
  0
LINE
  5
267
  8
回07-寸法
  6
CONTINUOUS
 62
     5
 10
671.657714492062
 20
133.0230346845237
 30
0.0
 11
673.657714492062
 21
133.0230346845237
 31
0.0
  0
LINE
  5
268
  8
回07-寸法
  6
CONTINUOUS
 62
     5
 10
655.657714492062
 20
133.0230346845237
 30
0.0
 11
625.157714492062
 21
133.0230346845237
 31
0.0
  0
LINE
  5
269
  8
回07-寸法
  6
CONTINUOUS
 62
     5
 10
669.657714492062
 20
133.0230346845237
 30
0.0
 11
657.657714492062
 21
133.0230346845237
 31
0.0
  0
INSERT
  5
26A
  8
回07-寸法
  6
CONTINUOUS
 62
     5
 66
     1
  2
_OPEN
 10
669.657714492062
 20
133.0230346845237
 30
0.0
 41
2.0
 42
2.0
 43
2.0
 50
180.0
  0
SEQEND
  5
26B
  8
回08-記事
  6
CONTINUOUS
 62
     7
  0
INSERT
  5
26C
  8
回07-寸法
  6
CONTINUOUS
 62
     5
 66
     1
  2
_OPEN
 10
657.657714492062
 20
133.0230346845237
 30
0.0
 41
2.0
 42
2.0
 43
2.0
  0
SEQEND
  5
26D
  8
回08-記事
  6
CONTINUOUS
 62
     7
  0
TEXT
  5
26E
  8
回07-寸法
  6
CONTINUOUS
 62
     5
 10
624.907714492062
 20
133.7730346845237
 30
0.0
 40
5.0
  1
12 [0.472]
1001
ACAD
1000
MTEXTBEGIN
1070
    73
1070
     1
1070
    44
1040
1.0
1070
    74
1070
     0
1000
MTEXTEND
  0
POINT
  5
26F
  8
DEFPOINTS
  6
CONTINUOUS
 62
     0
 10
669.657714492062
 20
133.0084997831433
 30
0.0
  0
POINT
  5
270
  8
DEFPOINTS
  6
CONTINUOUS
 62
     0
 10
657.657714492062
 20
109.2704545848361
 30
0.0
  0
POINT
  5
271
  8
DEFPOINTS
  6
CONTINUOUS
 62
     0
 10
657.657714492062
 20
133.0230346845237
 30
0.0
  0
ENDBLK
  5
272
  8
0
 62
    30
  0
BLOCK
  8
0
  2
*D17171717
 70
     1
 10
0.0
 20
0.0
 30
0.0
  3
*D17171717
  1

  0
LINE
  5
254
  8
回07-寸法
  6
CONTINUOUS
 62
     5
 10
1039.830791836353
 20
-132.2295454151639
 30
0.0
 11
1040.862650517444
 21
-132.2295454151639
 31
0.0
  0
LINE
  5
255
  8
回07-寸法
  6
CONTINUOUS
 62
     5
 10
985.657714492062
 20
-141.7295454151639
 30
0.0
 11
1040.862650517444
 21
-141.7295454151639
 31
0.0
  0
LINE
  5
256
  8
回07-寸法
  6
CONTINUOUS
 62
     5
 10
1039.862650517445
 20
-143.7295454151639
 30
0.0
 11
1039.862650517445
 21
-176.8330988057575
 31
0.0
  0
LINE
  5
257
  8
回07-寸法
  6
CONTINUOUS
 62
     5
 10
1039.862650517445
 20
-132.2295454151639
 30
0.0
 11
1039.862650517445
 21
-141.7295454151639
 31
0.0
  0
LINE
  5
258
  8
回07-寸法
  6
CONTINUOUS
 62
     5
 10
1039.862650517445
 20
-130.2295454151639
 30
0.0
 11
1039.862650517445
 21
-128.2295454151639
 31
0.0
  0
INSERT
  5
259
  8
回07-寸法
  6
CONTINUOUS
 62
     5
 66
     1
  2
_OPEN
 10
1039.862650517445
 20
-132.2295454151639
 30
0.0
 41
2.0
 42
2.0
 43
2.0
 50
270.0
  0
SEQEND
  5
25A
  8
回08-記事
  6
CONTINUOUS
 62
     7
  0
INSERT
  5
25B
  8
回07-寸法
  6
CONTINUOUS
 62
     5
 66
     1
  2
_OPEN
 10
1039.862650517445
 20
-141.7295454151639
 30
0.0
 41
2.0
 42
2.0
 43
2.0
 50
90.0
  0
SEQEND
  5
25C
  8
回08-記事
  6
CONTINUOUS
 62
     7
  0
TEXT
  5
25D
  8
回07-寸法
  6
CONTINUOUS
 62
     5
 10
1039.112650517445
 20
-177.1011506483925
 30
0.0
 40
5.0
  1
9.5 [0.374]
 50
90.0
  0
POINT
  5
25E
  8
DEFPOINTS
  6
CONTINUOUS
 62
     0
 10
1039.830791836353
 20
-132.2295454151639
 30
0.0
  0
POINT
  5
25F
  8
DEFPOINTS
  6
CONTINUOUS
 62
     0
 10
985.657714492062
 20
-141.7295454151639
 30
0.0
  0
POINT
  5
260
  8
DEFPOINTS
  6
CONTINUOUS
 62
     0
 10
1039.862650517445
 20
-141.7295454151639
 30
0.0
  0
ENDBLK
  5
261
  8
0
 62
    30
  0
BLOCK
  8
0
  2
*D18181818
 70
     1
 10
0.0
 20
0.0
 30
0.0
  3
*D18181818
  1

  0
LINE
  5
243
  8
回07-寸法
  6
CONTINUOUS
 62
     5
 10
1029.596393927
 20
-130.2295454151639
 30
0.0
 11
1030.624407271966
 21
-130.2295454151639
 31
0.0
  0
LINE
  5
244
  8
回07-寸法
  6
CONTINUOUS
 62
     5
 10
985.657714492062
 20
-141.7295454151639
 30
0.0
 11
1030.624407271966
 21
-141.7295454151639
 31
0.0
  0
LINE
  5
245
  8
回07-寸法
  6
CONTINUOUS
 62
     5
 10
1029.624407271966
 20
-143.7295454151639
 30
0.0
 11
1029.624407271966
 21
-178.2295454151642
 31
0.0
  0
LINE
  5
246
  8
回07-寸法
  6
CONTINUOUS
 62
     5
 10
1029.624407271966
 20
-130.2295454151639
 30
0.0
 11
1029.624407271966
 21
-141.7295454151639
 31
0.0
  0
LINE
  5
247
  8
回07-寸法
  6
CONTINUOUS
 62
     5
 10
1029.624407271966
 20
-128.2295454151639
 30
0.0
 11
1029.624407271966
 21
-126.2295454151639
 31
0.0
  0
INSERT
  5
248
  8
回07-寸法
  6
CONTINUOUS
 62
     5
 66
     1
  2
_OPEN
 10
1029.624407271966
 20
-130.2295454151639
 30
0.0
 41
2.0
 42
2.0
 43
2.0
 50
270.0
  0
SEQEND
  5
249
  8
回08-記事
  6
CONTINUOUS
 62
     7
  0
INSERT
  5
24A
  8
回07-寸法
  6
CONTINUOUS
 62
     5
 66
     1
  2
_OPEN
 10
1029.624407271966
 20
-141.7295454151639
 30
0.0
 41
2.0
 42
2.0
 43
2.0
 50
90.0
  0
SEQEND
  5
24B
  8
回08-記事
  6
CONTINUOUS
 62
     7
  0
TEXT
  5
24C
  8
回07-寸法
  6
CONTINUOUS
 62
     5
 10
1028.874407271966
 20
-178.4795454151641
 30
0.0
 40
5.0
  1
11.5 [0.453]
 50
90.0
  0
POINT
  5
24D
  8
DEFPOINTS
  6
CONTINUOUS
 62
     0
 10
1029.596393927
 20
-130.2295454151639
 30
0.0
  0
POINT
  5
24E
  8
DEFPOINTS
  6
CONTINUOUS
 62
     0
 10
985.657714492062
 20
-141.7295454151639
 30
0.0
  0
POINT
  5
24F
  8
DEFPOINTS
  6
CONTINUOUS
 62
     0
 10
1029.624407271966
 20
-141.7295454151639
 30
0.0
  0
ENDBLK
  5
250
  8
0
 62
    30
  0
BLOCK
  8
0
  2
*D19191919
 70
     1
 10
0.0
 20
0.0
 30
0.0
  3
*D19191919
  1

  0
LINE
  5
233
  8
回07-寸法
  6
CONTINUOUS
 62
     5
 10
657.657714492062
 20
110.2704545848361
 30
0.0
 11
556.5029862366857
 21
110.2704545848361
 31
0.0
  0
LINE
  5
235
  8
回07-寸法
  6
CONTINUOUS
 62
     5
 10
575.8040618786599
 20
-15.7295454151639
 30
0.0
 11
556.5029862366857
 21
-15.72954541516389
 31
0.0
  0
LINE
  5
236
  8
回07-寸法
  6
CONTINUOUS
 62
     5
 10
557.5029862366857
 20
108.2704545848361
 30
0.0
 11
557.5029862366857
 21
-13.72954541516389
 31
0.0
  0
INSERT
  5
237
  8
回07-寸法
  6
CONTINUOUS
 62
     5
 66
     1
  2
_OPEN
 10
557.5029862366857
 20
110.2704545848361
 30
0.0
 41
2.0
 42
2.0
 43
2.0
 50
90.0
  0
SEQEND
  5
238
  8
回08-記事
  6
CONTINUOUS
 62
     7
  0
INSERT
  5
239
  8
回07-寸法
  6
CONTINUOUS
 62
     5
 66
     1
  2
_OPEN
 10
557.5029862366857
 20
-15.72954541516389
 30
0.0
 41
2.0
 42
2.0
 43
2.0
 50
270.0
  0
SEQEND
  5
23A
  8
回08-記事
  6
CONTINUOUS
 62
     7
  0
TEXT
  5
23B
  8
回07-寸法
  6
CONTINUOUS
 62
     5
 10
556.7529862366857
 20
31.5114286635187
 30
0.0
 40
5.0
  1
126 [4.961]
 50
90.0
  0
POINT
  5
23C
  8
DEFPOINTS
  6
CONTINUOUS
 62
     0
 10
657.657714492062
 20
110.2704545848361
 30
0.0
  0
POINT
  5
23D
  8
DEFPOINTS
  6
CONTINUOUS
 62
     0
 10
575.8040618786599
 20
-15.7295454151639
 30
0.0
  0
POINT
  5
23E
  8
DEFPOINTS
  6
CONTINUOUS
 62
     0
 10
557.5029862366857
 20
-15.72954541516389
 30
0.0
  0
ENDBLK
  5
23F
  8
0
 62
    30
  0
BLOCK
  8
0
  2
*D20202020
 70
     1
 10
0.0
 20
0.0
 30
0.0
  3
*D20202020
  1

  0
LINE
  5
224
  8
回07-寸法
  6
CONTINUOUS
 62
     5
 10
977.157714492062
 20
101.570454584836
 30
0.0
 11
977.157714492062
 21
162.8897669837051
 31
0.0
  0
LINE
  5
225
  8
回07-寸法
  6
CONTINUOUS
 62
     5
 10
667.157714492062
 20
101.570454584836
 30
0.0
 11
667.157714492062
 21
162.8897669837051
 31
0.0
  0
LINE
  5
226
  8
回07-寸法
  6
CONTINUOUS
 62
     5
 10
975.157714492062
 20
161.8897669837051
 30
0.0
 11
669.157714492062
 21
161.8897669837051
 31
0.0
  0
INSERT
  5
227
  8
回07-寸法
  6
CONTINUOUS
 62
     5
 66
     1
  2
_OPEN
 10
977.157714492062
 20
161.8897669837051
 30
0.0
 41
2.0
 42
2.0
 43
2.0
  0
SEQEND
  5
228
  8
回08-記事
  6
CONTINUOUS
 62
     7
  0
INSERT
  5
229
  8
回07-寸法
  6
CONTINUOUS
 62
     5
 66
     1
  2
_OPEN
 10
667.157714492062
 20
161.8897669837051
 30
0.0
 41
2.0
 42
2.0
 43
2.0
 50
180.0
  0
SEQEND
  5
22A
  8
回08-記事
  6
CONTINUOUS
 62
     7
  0
TEXT
  5
22B
  8
回07-寸法
  6
CONTINUOUS
 62
     5
 10
804.9077144920619
 20
162.6397669837051
 30
0.0
 40
5.0
  1
310 [12.205]
1001
ACAD
1000
MTEXTBEGIN
1070
    73
1070
     1
1070
    44
1040
1.0
1070
    74
1070
     0
1000
MTEXTEND
  0
POINT
  5
22C
  8
DEFPOINTS
  6
CONTINUOUS
 62
     0
 10
977.157714492062
 20
101.570454584836
 30
0.0
  0
POINT
  5
22D
  8
DEFPOINTS
  6
CONTINUOUS
 62
     0
 10
667.157714492062
 20
101.570454584836
 30
0.0
  0
POINT
  5
22E
  8
DEFPOINTS
  6
CONTINUOUS
 62
     0
 10
667.157714492062
 20
161.8897669837051
 30
0.0
  0
ENDBLK
  5
22F
  8
0
 62
    30
  0
BLOCK
  8
0
  2
*D21212121
 70
     1
 10
0.0
 20
0.0
 30
0.0
  3
*D21212121
  1

  0
LINE
  5
213
  8
回07-寸法
  6
CONTINUOUS
 62
     5
 10
667.157714492062
 20
101.570454584836
 30
0.0
 11
667.157714492062
 21
162.8897669837051
 31
0.0
  0
LINE
  5
214
  8
回07-寸法
  6
CONTINUOUS
 62
     5
 10
657.657714492062
 20
110.2704545848361
 30
0.0
 11
657.657714492062
 21
162.8897669837051
 31
0.0
  0
LINE
  5
215
  8
回07-寸法
  6
CONTINUOUS
 62
     5
 10
655.657714492062
 20
161.8897669837051
 30
0.0
 11
622.5541611014687
 21
161.8897669837051
 31
0.0
  0
LINE
  5
216
  8
回07-寸法
  6
CONTINUOUS
 62
     5
 10
667.157714492062
 20
161.8897669837051
 30
0.0
 11
657.657714492062
 21
161.8897669837051
 31
0.0
  0
LINE
  5
217
  8
回07-寸法
  6
CONTINUOUS
 62
     5
 10
669.157714492062
 20
161.8897669837051
 30
0.0
 11
671.157714492062
 21
161.8897669837051
 31
0.0
  0
INSERT
  5
218
  8
回07-寸法
  6
CONTINUOUS
 62
     5
 66
     1
  2
_OPEN
 10
667.157714492062
 20
161.8897669837051
 30
0.0
 41
2.0
 42
2.0
 43
2.0
 50
180.0
  0
SEQEND
  5
219
  8
回08-記事
  6
CONTINUOUS
 62
     7
  0
INSERT
  5
21A
  8
回07-寸法
  6
CONTINUOUS
 62
     5
 66
     1
  2
_OPEN
 10
657.657714492062
 20
161.8897669837051
 30
0.0
 41
2.0
 42
2.0
 43
2.0
  0
SEQEND
  5
21B
  8
回08-記事
  6
CONTINUOUS
 62
     7
  0
TEXT
  5
21C
  8
回07-寸法
  6
CONTINUOUS
 62
     5
 10
622.2861092588337
 20
162.6397669837051
 30
0.0
 40
5.0
  1
9.5 [0.374]
  0
POINT
  5
21D
  8
DEFPOINTS
  6
CONTINUOUS
 62
     0
 10
667.157714492062
 20
101.570454584836
 30
0.0
  0
POINT
  5
21E
  8
DEFPOINTS
  6
CONTINUOUS
 62
     0
 10
657.657714492062
 20
110.2704545848361
 30
0.0
  0
POINT
  5
21F
  8
DEFPOINTS
  6
CONTINUOUS
 62
     0
 10
657.657714492062
 20
161.8897669837051
 30
0.0
  0
ENDBLK
  5
220
  8
0
 62
    30
  0
BLOCK
  8
0
  2
*D22222222
 70
     1
 10
0.0
 20
0.0
 30
0.0
  3
*D22222222
  1

  0
LINE
  5
202
  8
回07-寸法
  6
CONTINUOUS
 62
     5
 10
977.157714492062
 20
101.570454584836
 30
0.0
 11
977.157714492062
 21
162.8897669837051
 31
0.0
  0
LINE
  5
203
  8
回07-寸法
  6
CONTINUOUS
 62
     5
 10
985.657714492062
 20
110.2704545848361
 30
0.0
 11
985.657714492062
 21
162.8897669837051
 31
0.0
  0
LINE
  5
204
  8
回07-寸法
  6
CONTINUOUS
 62
     5
 10
987.657714492062
 20
161.8897669837051
 30
0.0
 11
1020.157714492062
 21
161.8897669837051
 31
0.0
  0
LINE
  5
205
  8
回07-寸法
  6
CONTINUOUS
 62
     5
 10
977.157714492062
 20
161.8897669837051
 30
0.0
 11
985.657714492062
 21
161.8897669837051
 31
0.0
  0
LINE
  5
206
  8
回07-寸法
  6
CONTINUOUS
 62
     5
 10
975.157714492062
 20
161.8897669837051
 30
0.0
 11
973.157714492062
 21
161.8897669837051
 31
0.0
  0
INSERT
  5
207
  8
回07-寸法
  6
CONTINUOUS
 62
     5
 66
     1
  2
_OPEN
 10
977.157714492062
 20
161.8897669837051
 30
0.0
 41
2.0
 42
2.0
 43
2.0
  0
SEQEND
  5
208
  8
回08-記事
  6
CONTINUOUS
 62
     7
  0
INSERT
  5
209
  8
回07-寸法
  6
CONTINUOUS
 62
     5
 66
     1
  2
_OPEN
 10
985.657714492062
 20
161.8897669837051
 30
0.0
 41
2.0
 42
2.0
 43
2.0
 50
180.0
  0
SEQEND
  5
20A
  8
回08-記事
  6
CONTINUOUS
 62
     7
  0
TEXT
  5
20B
  8
回07-寸法
  6
CONTINUOUS
 62
     5
 10
989.407714492062
 20
162.6397669837051
 30
0.0
 40
5.0
  1
8.5 [0.335]
  0
POINT
  5
20C
  8
DEFPOINTS
  6
CONTINUOUS
 62
     0
 10
977.157714492062
 20
101.570454584836
 30
0.0
  0
POINT
  5
20D
  8
DEFPOINTS
  6
CONTINUOUS
 62
     0
 10
985.657714492062
 20
110.2704545848361
 30
0.0
  0
POINT
  5
20E
  8
DEFPOINTS
  6
CONTINUOUS
 62
     0
 10
985.657714492062
 20
161.8897669837051
 30
0.0
  0
ENDBLK
  5
20F
  8
0
 62
    30
  0
BLOCK
  8
0
  2
*D23232323
 70
     1
 10
0.0
 20
0.0
 30
0.0
  3
*D23232323
  1

  0
LINE
  5
1F1
  8
回07-寸法
  6
CONTINUOUS
 62
     5
 10
977.157714492062
 20
101.570454584836
 30
0.0
 11
1051.135435063182
 21
101.570454584836
 31
0.0
  0
LINE
  5
1F2
  8
回07-寸法
  6
CONTINUOUS
 62
     5
 10
985.657714492062
 20
110.2704545848361
 30
0.0
 11
1051.135435063182
 21
110.2704545848361
 31
0.0
  0
LINE
  5
1F3
  8
回07-寸法
  6
CONTINUOUS
 62
     5
 10
1050.135435063181
 20
112.2704545848361
 30
0.0
 11
1050.135435063181
 21
145.2704545848361
 31
0.0
  0
LINE
  5
1F4
  8
回07-寸法
  6
CONTINUOUS
 62
     5
 10
1050.135435063181
 20
101.570454584836
 30
0.0
 11
1050.135435063181
 21
110.2704545848361
 31
0.0
  0
LINE
  5
1F5
  8
回07-寸法
  6
CONTINUOUS
 62
     5
 10
1050.135435063181
 20
99.57045458483605
 30
0.0
 11
1050.135435063181
 21
97.57045458483606
 31
0.0
  0
INSERT
  5
1F6
  8
回07-寸法
  6
CONTINUOUS
 62
     5
 66
     1
  2
_OPEN
 10
1050.135435063181
 20
101.570454584836
 30
0.0
 41
2.0
 42
2.0
 43
2.0
 50
90.0
  0
SEQEND
  5
1F7
  8
回08-記事
  6
CONTINUOUS
 62
     7
  0
INSERT
  5
1F8
  8
回07-寸法
  6
CONTINUOUS
 62
     5
 66
     1
  2
_OPEN
 10
1050.135435063181
 20
110.2704545848361
 30
0.0
 41
2.0
 42
2.0
 43
2.0
 50
270.0
  0
SEQEND
  5
1F9
  8
回08-記事
  6
CONTINUOUS
 62
     7
  0
TEXT
  5
1FA
  8
回07-寸法
  6
CONTINUOUS
 62
     5
 10
1049.385435063182
 20
114.0204545848362
 30
0.0
 40
5.0
  1
8.7 [0.343]
 50
90.0
  0
POINT
  5
1FB
  8
DEFPOINTS
  6
CONTINUOUS
 62
     0
 10
977.157714492062
 20
101.570454584836
 30
0.0
  0
POINT
  5
1FC
  8
DEFPOINTS
  6
CONTINUOUS
 62
     0
 10
985.657714492062
 20
110.2704545848361
 30
0.0
  0
POINT
  5
1FD
  8
DEFPOINTS
  6
CONTINUOUS
 62
     0
 10
1050.135435063181
 20
110.2704545848361
 30
0.0
  0
ENDBLK
  5
1FE
  8
0
 62
    30
  0
BLOCK
  8
0
  2
*D24242424
 70
     1
 10
0.0
 20
0.0
 30
0.0
  3
*D24242424
  1

  0
LINE
  5
1E2
  8
回07-寸法
  6
CONTINUOUS
 62
     5
 10
977.1577144920623
 20
101.5704545848361
 30
0.0
 11
1051.135435063185
 21
101.5704545848361
 31
0.0
  0
LINE
  5
1E3
  8
回07-寸法
  6
CONTINUOUS
 62
     5
 10
977.1577144920623
 20
-133.0295454151639
 30
0.0
 11
1051.135435063185
 21
-133.0295454151639
 31
0.0
  0
LINE
  5
1E4
  8
回07-寸法
  6
CONTINUOUS
 62
     5
 10
1050.135435063185
 20
99.57045458483612
 30
0.0
 11
1050.135435063185
 21
-131.0295454151639
 31
0.0
  0
INSERT
  5
1E5
  8
回07-寸法
  6
CONTINUOUS
 62
     5
 66
     1
  2
_OPEN
 10
1050.135435063185
 20
101.5704545848361
 30
0.0
 41
2.0
 42
2.0
 43
2.0
 50
90.0
  0
SEQEND
  5
1E6
  8
回08-記事
  6
CONTINUOUS
 62
     7
  0
INSERT
  5
1E7
  8
回07-寸法
  6
CONTINUOUS
 62
     5
 66
     1
  2
_OPEN
 10
1050.135435063185
 20
-133.0295454151639
 30
0.0
 41
2.0
 42
2.0
 43
2.0
 50
270.0
  0
SEQEND
  5
1E8
  8
回08-記事
  6
CONTINUOUS
 62
     7
  0
TEXT
  5
1E9
  8
回07-寸法
  6
CONTINUOUS
 62
     5
 10
1049.384226665635
 20
-34.98857133648176
 30
0.0
 40
5.0
  1
234.6 [9.236]
 50
90.0
1001
ACAD
1000
MTEXTBEGIN
1070
    73
1070
     1
1070
    44
1040
1.0
1070
    74
1070
     0
1000
MTEXTEND
  0
POINT
  5
1EA
  8
DEFPOINTS
  6
CONTINUOUS
 62
     0
 10
977.1577144920623
 20
101.5704545848361
 30
0.0
  0
POINT
  5
1EB
  8
DEFPOINTS
  6
CONTINUOUS
 62
     0
 10
977.1577144920623
 20
-133.0295454151639
 30
0.0
  0
POINT
  5
1EC
  8
DEFPOINTS
  6
CONTINUOUS
 62
     0
 10
1050.135435063185
 20
-133.0295454151639
 30
0.0
  0
ENDBLK
  5
1ED
  8
0
 62
    30
  0
BLOCK
  8
0
  2
*D25252525
 70
     1
 10
0.0
 20
0.0
 30
0.0
  3
*D25252525
  1

  0
LINE
  5
1D0
  8
回07-寸法
  6
CONTINUOUS
 62
     5
 10
977.157714492062
 20
-133.0295454151638
 30
0.0
 11
1051.135435063182
 21
-133.0295454151638
 31
0.0
  0
LINE
  5
1D2
  8
回07-寸法
  6
CONTINUOUS
 62
     5
 10
985.657714492062
 20
-141.7295454151639
 30
0.0
 11
1051.135435063182
 21
-141.7295454151639
 31
0.0
  0
LINE
  5
1D3
  8
回07-寸法
  6
CONTINUOUS
 62
     5
 10
1050.135435063181
 20
-143.7295454151639
 30
0.0
 11
1050.135435063181
 21
-176.7295454151642
 31
0.0
  0
LINE
  5
1D4
  8
回07-寸法
  6
CONTINUOUS
 62
     5
 10
1050.135435063181
 20
-133.0295454151638
 30
0.0
 11
1050.135435063181
 21
-141.7295454151639
 31
0.0
  0
LINE
  5
1D5
  8
回07-寸法
  6
CONTINUOUS
 62
     5
 10
1050.135435063181
 20
-131.0295454151638
 30
0.0
 11
1050.135435063181
 21
-129.0295454151638
 31
0.0
  0
INSERT
  5
1D6
  8
回07-寸法
  6
CONTINUOUS
 62
     5
 66
     1
  2
_OPEN
 10
1050.135435063181
 20
-133.0295454151638
 30
0.0
 41
2.0
 42
2.0
 43
2.0
 50
270.0
  0
SEQEND
  5
1D7
  8
回08-記事
  6
CONTINUOUS
 62
     7
  0
INSERT
  5
1D8
  8
回07-寸法
  6
CONTINUOUS
 62
     5
 66
     1
  2
_OPEN
 10
1050.135435063181
 20
-141.7295454151639
 30
0.0
 41
2.0
 42
2.0
 43
2.0
 50
90.0
  0
SEQEND
  5
1D9
  8
回08-記事
  6
CONTINUOUS
 62
     7
  0
TEXT
  5
1DA
  8
回07-寸法
  6
CONTINUOUS
 62
     5
 10
1049.385435063182
 20
-176.9795454151642
 30
0.0
 40
5.0
  1
8.7 [0.343]
 50
90.0
  0
POINT
  5
1DB
  8
DEFPOINTS
  6
CONTINUOUS
 62
     0
 10
977.157714492062
 20
-133.0295454151638
 30
0.0
  0
POINT
  5
1DC
  8
DEFPOINTS
  6
CONTINUOUS
 62
     0
 10
985.657714492062
 20
-141.7295454151639
 30
0.0
  0
POINT
  5
1DD
  8
DEFPOINTS
  6
CONTINUOUS
 62
     0
 10
1050.135435063181
 20
-141.7295454151639
 30
0.0
  0
ENDBLK
  5
1DE
  8
0
 62
    30
  0
BLOCK
  8
0
  2
*D26262626
 70
     1
 10
0.0
 20
0.0
 30
0.0
  3
*D26262626
  1

  0
LINE
  5
1B3
  8
回08-記事
  6
CONTINUOUS
 62
     5
 10
577.6577144920622
 20
-190.1872081055221
 30
0.0
 11
563.2284165388847
 21
-190.1872081055221
 31
0.0
  0
LINE
  5
1B4
  8
回08-記事
  6
CONTINUOUS
 62
     5
 10
577.6577144920622
 20
-197.187208105522
 30
0.0
 11
563.2284165388847
 21
-197.187208105522
 31
0.0
  0
LINE
  5
1B5
  8
回08-記事
  6
CONTINUOUS
 62
     5
 10
564.2284165388847
 20
-188.187208105522
 30
0.0
 11
564.2284165388847
 21
-186.187208105522
 31
0.0
  0
LINE
  5
1B6
  8
回08-記事
  6
CONTINUOUS
 62
     5
 10
564.2284165388847
 20
-199.1872081055221
 30
0.0
 11
564.2284165388847
 21
-253.5661451133962
 31
0.0
  0
LINE
  5
1B7
  8
回08-記事
  6
CONTINUOUS
 62
     5
 10
564.2284165388847
 20
-190.1872081055221
 30
0.0
 11
564.2284165388847
 21
-197.1872081055222
 31
0.0
  0
INSERT
  5
1B8
  8
回08-記事
  6
CONTINUOUS
 62
     5
 66
     1
  2
_OPEN
 10
564.2284165388847
 20
-190.1872081055221
 30
0.0
 41
2.0
 42
2.0
 43
2.0
 50
270.0
  0
SEQEND
  5
1B9
  8
回08-記事
  6
CONTINUOUS
 62
     7
  0
INSERT
  5
1BA
  8
回08-記事
  6
CONTINUOUS
 62
     5
 66
     1
  2
_OPEN
 10
564.2284165388847
 20
-197.1872081055222
 30
0.0
 41
2.0
 42
2.0
 43
2.0
 50
90.0
  0
SEQEND
  5
1BB
  8
回08-記事
  6
CONTINUOUS
 62
     7
  0
INSERT
  5
1BC
  8
回08-記事
  6
CONTINUOUS
 62
     5
 66
     1
  2
*X85858585
 10
0.0
 20
0.0
 30
0.0
  0
SEQEND
  5
6A7
  8
回08-記事
  6
CONTINUOUS
 62
     7
  0
POINT
  5
1BD
  8
DEFPOINTS
  6
CONTINUOUS
 62
     0
 10
577.6577144920622
 20
-190.1872081055221
 30
0.0
  0
POINT
  5
1BE
  8
DEFPOINTS
  6
CONTINUOUS
 62
     0
 10
577.6577144920622
 20
-197.187208105522
 30
0.0
  0
POINT
  5
1BF
  8
DEFPOINTS
  6
CONTINUOUS
 62
     0
 10
564.2284165388847
 20
-197.1872081055222
 30
0.0
  0
ENDBLK
  5
1C0
  8
0
 62
    30
  0
BLOCK
  8
0
  2
*D27272727
 70
     1
 10
0.0
 20
0.0
 30
0.0
  3
*D27272727
  1

  0
LINE
  5
19D
  8
回08-記事
  6
CONTINUOUS
 62
     5
 10
577.657714492062
 20
-190.187208105522
 30
0.0
 11
577.657714492062
 21
-167.7459642857852
 31
0.0
  0
LINE
  5
19E
  8
回08-記事
  6
CONTINUOUS
 62
     5
 10
582.657714492062
 20
-190.1872081055224
 30
0.0
 11
582.657714492062
 21
-167.7459642857852
 31
0.0
  0
LINE
  5
19F
  8
回08-記事
  6
CONTINUOUS
 62
     5
 10
575.657714492062
 20
-168.7459642857852
 30
0.0
 11
573.657714492062
 21
-168.7459642857852
 31
0.0
  0
LINE
  5
1A0
  8
回08-記事
  6
CONTINUOUS
 62
     5
 10
584.657714492062
 20
-168.7459642857852
 30
0.0
 11
611.1751861445334
 21
-168.7459642857852
 31
0.0
  0
LINE
  5
1A1
  8
回08-記事
  6
CONTINUOUS
 62
     5
 10
577.657714492062
 20
-168.7459642857852
 30
0.0
 11
582.657714492062
 21
-168.7459642857852
 31
0.0
  0
INSERT
  5
1A2
  8
回08-記事
  6
CONTINUOUS
 62
     5
 66
     1
  2
_OPEN
 10
577.657714492062
 20
-168.7459642857852
 30
0.0
 41
2.0
 42
2.0
 43
2.0
  0
SEQEND
  5
1A3
  8
回08-記事
  6
CONTINUOUS
 62
     7
  0
INSERT
  5
1A4
  8
回08-記事
  6
CONTINUOUS
 62
     5
 66
     1
  2
_OPEN
 10
582.657714492062
 20
-168.7459642857852
 30
0.0
 41
2.0
 42
2.0
 43
2.0
 50
180.0
  0
SEQEND
  5
1A5
  8
回08-記事
  6
CONTINUOUS
 62
     7
  0
TEXT
  5
1A6
  8
回08-記事
  6
CONTINUOUS
 62
     5
 10
586.4074243969803
 20
-167.9960641292891
 30
0.0
 40
5.0
  1
5 [0.197]
1001
ACAD
1000
MTEXTBEGIN
1070
    73
1070
     1
1070
    44
1040
1.0
1070
    74
1070
     0
1000
MTEXTEND
  0
POINT
  5
1A7
  8
DEFPOINTS
  6
CONTINUOUS
 62
     0
 10
577.657714492062
 20
-190.187208105522
 30
0.0
  0
POINT
  5
1A8
  8
DEFPOINTS
  6
CONTINUOUS
 62
     0
 10
582.657714492062
 20
-190.1872081055224
 30
0.0
  0
POINT
  5
1A9
  8
DEFPOINTS
  6
CONTINUOUS
 62
     0
 10
582.657714492062
 20
-168.7459642857852
 30
0.0
  0
ENDBLK
  5
1AA
  8
0
 62
    30
  0
BLOCK
  8
0
  2
*D28282828
 70
     1
 10
0.0
 20
0.0
 30
0.0
  3
*D28282828
  1

  0
LINE
  5
164
  8
回08-記事
  6
CONTINUOUS
 62
     5
 10
985.1577144920623
 20
-187.187208105522
 30
0.0
 11
999.53410207955
 21
-187.187208105522
 31
0.0
  0
LINE
  5
165
  8
回08-記事
  6
CONTINUOUS
 62
     5
 10
985.6577144920624
 20
-198.1872081055221
 30
0.0
 11
999.53410207955
 21
-198.1872081055221
 31
0.0
  0
LINE
  5
166
  8
回08-記事
  6
CONTINUOUS
 62
     5
 10
998.53410207955
 20
-185.1872081055221
 30
0.0
 11
998.53410207955
 21
-183.187208105522
 31
0.0
  0
LINE
  5
167
  8
回08-記事
  6
CONTINUOUS
 62
     5
 10
998.53410207955
 20
-200.1872081055221
 30
0.0
 11
998.53410207955
 21
-252.0641766094591
 31
0.0
  0
LINE
  5
168
  8
回08-記事
  6
CONTINUOUS
 62
     5
 10
998.53410207955
 20
-187.187208105522
 30
0.0
 11
998.53410207955
 21
-198.1872081055221
 31
0.0
  0
INSERT
  5
169
  8
回08-記事
  6
CONTINUOUS
 62
     5
 66
     1
  2
_OPEN
 10
998.53410207955
 20
-187.187208105522
 30
0.0
 41
2.0
 42
2.0
 43
2.0
 50
270.0
  0
SEQEND
  5
16A
  8
回08-記事
  6
CONTINUOUS
 62
     7
  0
INSERT
  5
16B
  8
回08-記事
  6
CONTINUOUS
 62
     5
 66
     1
  2
_OPEN
 10
998.53410207955
 20
-198.1872081055221
 30
0.0
 41
2.0
 42
2.0
 43
2.0
 50
90.0
  0
SEQEND
  5
16C
  8
回08-記事
  6
CONTINUOUS
 62
     7
  0
INSERT
  5
16D
  8
回08-記事
  6
CONTINUOUS
 62
     5
 66
     1
  2
*X86868686
 10
0.0
 20
0.0
 30
0.0
  0
SEQEND
  5
6B0
  8
回08-記事
  6
CONTINUOUS
 62
     7
  0
POINT
  5
16E
  8
DEFPOINTS
  6
CONTINUOUS
 62
     0
 10
985.1577144920623
 20
-187.187208105522
 30
0.0
  0
POINT
  5
16F
  8
DEFPOINTS
  6
CONTINUOUS
 62
     0
 10
985.6577144920624
 20
-198.1872081055221
 30
0.0
  0
POINT
  5
170
  8
DEFPOINTS
  6
CONTINUOUS
 62
     0
 10
998.53410207955
 20
-198.1872081055221
 30
0.0
  0
ENDBLK
  5
171
  8
0
 62
    30
  0
BLOCK
  8
0
  2
*D29292929
 70
     1
 10
0.0
 20
0.0
 30
0.0
  3
*D29292929
  1

  0
LINE
  5
139
  8
回08-記事
  6
CONTINUOUS
 62
     5
 10
541.6241755294625
 20
-115.1173953069132
 30
0.0
 11
534.396390926931
 21
-115.1173953069132
 31
0.0
  0
LINE
  5
13A
  8
回08-記事
  6
CONTINUOUS
 62
     5
 10
541.6241755294625
 20
-112.5973953069132
 30
0.0
 11
534.396390926931
 21
-112.5973953069132
 31
0.0
  0
LINE
  5
13B
  8
回08-記事
  6
CONTINUOUS
 62
     5
 10
535.3963909269308
 20
-117.1173953069132
 30
0.0
 11
535.3963909269308
 21
-119.1173953069132
 31
0.0
  0
LINE
  5
13C
  8
回08-記事
  6
CONTINUOUS
 62
     5
 10
535.3963909269308
 20
-110.5973953069132
 30
0.0
 11
535.3963909269308
 21
-47.79739530691322
 31
0.0
  0
LINE
  5
13D
  8
回08-記事
  6
CONTINUOUS
 62
     5
 10
535.3963909269308
 20
-115.1173953069132
 30
0.0
 11
535.3963909269308
 21
-112.5973953069132
 31
0.0
  0
INSERT
  5
13E
  8
回08-記事
  6
CONTINUOUS
 62
     5
  2
_OPEN
 10
535.3963909269308
 20
-115.1173953069132
 30
0.0
 41
2.0
 42
2.0
 43
2.0
 50
90.0
  0
INSERT
  5
13F
  8
回08-記事
  6
CONTINUOUS
 62
     5
  2
_OPEN
 10
535.3963909269308
 20
-112.5973953069132
 30
0.0
 41
2.0
 42
2.0
 43
2.0
 50
270.0
  0
INSERT
  5
140
  8
回08-記事
  6
CONTINUOUS
 62
     5
 66
     1
  2
*X87878787
 10
0.0
 20
0.0
 30
0.0
  0
SEQEND
  5
6B9
  8
回08-記事
  6
CONTINUOUS
 62
     7
  0
POINT
  5
141
  8
DEFPOINTS
  6
CONTINUOUS
 62
     0
 10
541.6241755294625
 20
-115.1173953069132
 30
0.0
  0
POINT
  5
142
  8
DEFPOINTS
  6
CONTINUOUS
 62
     0
 10
541.6241755294625
 20
-112.5973953069132
 30
0.0
  0
POINT
  5
143
  8
DEFPOINTS
  6
CONTINUOUS
 62
     0
 10
535.3963909269308
 20
-112.5973953069132
 30
0.0
  0
ENDBLK
  5
144
  8
0
 62
    30
  0
BLOCK
  8
0
  2
*D30303030
 70
     1
 10
0.0
 20
0.0
 30
0.0
  3
*D30303030
  1

  0
LINE
  5
12A
  8
回08-記事
  6
CONTINUOUS
 62
     5
 10
541.6241755294625
 20
-113.8573953069132
 30
0.0
 11
513.6122688614606
 21
-113.8573953069132
 31
0.0
  0
LINE
  5
12B
  8
回08-記事
  6
CONTINUOUS
 62
     5
 10
541.6241755294621
 20
-127.3573953069132
 30
0.0
 11
513.6122688614606
 21
-127.3573953069132
 31
0.0
  0
LINE
  5
12C
  8
回08-記事
  6
CONTINUOUS
 62
     5
 10
514.6122688614606
 20
-129.3573953069132
 30
0.0
 11
514.6122688614606
 21
-131.3573953069132
 31
0.0
  0
LINE
  5
12D
  8
回08-記事
  6
CONTINUOUS
 62
     5
 10
514.6122688614606
 20
-111.8573953069132
 30
0.0
 11
514.6122688614606
 21
-58.54206848279928
 31
0.0
  0
LINE
  5
12E
  8
回08-記事
  6
CONTINUOUS
 62
     5
 10
514.6122688614606
 20
-127.3573953069132
 30
0.0
 11
514.6122688614606
 21
-113.8573953069132
 31
0.0
  0
INSERT
  5
12F
  8
回08-記事
  6
CONTINUOUS
 62
     5
  2
_OPEN
 10
514.6122688614606
 20
-127.3573953069132
 30
0.0
 41
2.0
 42
2.0
 43
2.0
 50
90.0
  0
INSERT
  5
130
  8
回08-記事
  6
CONTINUOUS
 62
     5
  2
_OPEN
 10
514.6122688614606
 20
-113.8573953069132
 30
0.0
 41
2.0
 42
2.0
 43
2.0
 50
270.0
  0
INSERT
  5
131
  8
回08-記事
  6
CONTINUOUS
 62
     5
 66
     1
  2
*X88888888
 10
0.0
 20
0.0
 30
0.0
  0
SEQEND
  5
6C2
  8
回08-記事
  6
CONTINUOUS
 62
     7
  0
POINT
  5
132
  8
DEFPOINTS
  6
CONTINUOUS
 62
     0
 10
541.6241755294625
 20
-113.8573953069132
 30
0.0
  0
POINT
  5
133
  8
DEFPOINTS
  6
CONTINUOUS
 62
     0
 10
541.6241755294621
 20
-127.3573953069132
 30
0.0
  0
POINT
  5
134
  8
DEFPOINTS
  6
CONTINUOUS
 62
     0
 10
514.6122688614606
 20
-127.3573953069132
 30
0.0
  0
ENDBLK
  5
135
  8
0
 62
    30
  0
BLOCK
  8
0
  2
*D31313131
 70
     1
 10
0.0
 20
0.0
 30
0.0
  3
*D31313131
  1

  0
LINE
  5
11B
  8
回08-記事
  6
CONTINUOUS
 62
     5
 10
541.6241755294625
 20
-118.3573953069132
 30
0.0
 11
524.8357428304272
 21
-118.3573953069132
 31
0.0
  0
LINE
  5
11C
  8
回08-記事
  6
CONTINUOUS
 62
     5
 10
541.6241755294625
 20
-113.8573953069132
 30
0.0
 11
524.8357428304272
 21
-113.8573953069132
 31
0.0
  0
LINE
  5
11D
  8
回08-記事
  6
CONTINUOUS
 62
     5
 10
525.8357428304272
 20
-120.3573953069132
 30
0.0
 11
525.8357428304272
 21
-122.3573953069132
 31
0.0
  0
LINE
  5
11E
  8
回08-記事
  6
CONTINUOUS
 62
     5
 10
525.8357428304272
 20
-111.8573953069132
 30
0.0
 11
525.8357428304272
 21
-58.03065127460735
 31
0.0
  0
LINE
  5
11F
  8
回08-記事
  6
CONTINUOUS
 62
     5
 10
525.8357428304272
 20
-118.3573953069132
 30
0.0
 11
525.8357428304272
 21
-113.8573953069132
 31
0.0
  0
INSERT
  5
120
  8
回08-記事
  6
CONTINUOUS
 62
     5
  2
_OPEN
 10
525.8357428304272
 20
-118.3573953069132
 30
0.0
 41
2.0
 42
2.0
 43
2.0
 50
90.0
  0
INSERT
  5
121
  8
回08-記事
  6
CONTINUOUS
 62
     5
  2
_OPEN
 10
525.8357428304272
 20
-113.8573953069132
 30
0.0
 41
2.0
 42
2.0
 43
2.0
 50
270.0
  0
INSERT
  5
122
  8
回08-記事
  6
CONTINUOUS
 62
     5
 66
     1
  2
*X89898989
 10
0.0
 20
0.0
 30
0.0
  0
SEQEND
  5
6CB
  8
回08-記事
  6
CONTINUOUS
 62
     7
  0
POINT
  5
123
  8
DEFPOINTS
  6
CONTINUOUS
 62
     0
 10
541.6241755294625
 20
-118.3573953069132
 30
0.0
  0
POINT
  5
124
  8
DEFPOINTS
  6
CONTINUOUS
 62
     0
 10
541.6241755294625
 20
-113.8573953069132
 30
0.0
  0
POINT
  5
125
  8
DEFPOINTS
  6
CONTINUOUS
 62
     0
 10
525.8357428304272
 20
-113.8573953069132
 30
0.0
  0
ENDBLK
  5
126
  8
0
 62
    30
  0
BLOCK
  8
0
  2
*D32323232
 70
     1
 10
0.0
 20
0.0
 30
0.0
  3
*D32323232
  1

  0
LINE
  5
10C
  8
回08-記事
  6
CONTINUOUS
 62
     5
 10
543.4241755294626
 20
-109.3573953069133
 30
0.0
 11
503.9578933380818
 21
-109.3573953069133
 31
0.0
  0
LINE
  5
10D
  8
回08-記事
  6
CONTINUOUS
 62
     5
 10
543.4241755294622
 20
-131.8573953069132
 30
0.0
 11
503.9578933380818
 21
-131.8573953069132
 31
0.0
  0
LINE
  5
10E
  8
回08-記事
  6
CONTINUOUS
 62
     5
 10
504.9578933380819
 20
-133.8573953069132
 30
0.0
 11
504.9578933380819
 21
-135.8573953069132
 31
0.0
  0
LINE
  5
10F
  8
回08-記事
  6
CONTINUOUS
 62
     5
 10
504.9578933380818
 20
-107.3573953069133
 30
0.0
 11
504.9578933380818
 21
-54.95818270848815
 31
0.0
  0
LINE
  5
110
  8
回08-記事
  6
CONTINUOUS
 62
     5
 10
504.9578933380819
 20
-131.8573953069132
 30
0.0
 11
504.9578933380819
 21
-109.3573953069133
 31
0.0
  0
INSERT
  5
111
  8
回08-記事
  6
CONTINUOUS
 62
     5
  2
_OPEN
 10
504.9578933380819
 20
-131.8573953069132
 30
0.0
 41
2.0
 42
2.0
 43
2.0
 50
90.0
  0
INSERT
  5
112
  8
回08-記事
  6
CONTINUOUS
 62
     5
  2
_OPEN
 10
504.9578933380818
 20
-109.3573953069133
 30
0.0
 41
2.0
 42
2.0
 43
2.0
 50
270.0
  0
INSERT
  5
113
  8
回08-記事
  6
CONTINUOUS
 62
     5
 66
     1
  2
*X90909090
 10
0.0
 20
0.0
 30
0.0
  0
SEQEND
  5
6D4
  8
回08-記事
  6
CONTINUOUS
 62
     7
  0
POINT
  5
114
  8
DEFPOINTS
  6
CONTINUOUS
 62
     0
 10
543.4241755294626
 20
-109.3573953069133
 30
0.0
  0
POINT
  5
115
  8
DEFPOINTS
  6
CONTINUOUS
 62
     0
 10
543.4241755294622
 20
-131.8573953069132
 30
0.0
  0
POINT
  5
116
  8
DEFPOINTS
  6
CONTINUOUS
 62
     0
 10
504.9578933380819
 20
-131.8573953069132
 30
0.0
  0
ENDBLK
  5
117
  8
0
 62
    30
  0
BLOCK
  8
0
  2
*D33333333
 70
     1
 10
0.0
 20
0.0
 30
0.0
  3
*D33333333
  1

  0
LINE
  5
F2
  8
回08-記事
  6
CONTINUOUS
 62
     5
 10
657.657714492062
 20
-24.41170020193732
 30
0.0
 11
657.657714492062
 21
-37.48582832198372
 31
0.0
  0
LINE
  5
F3
  8
回08-記事
  6
CONTINUOUS
 62
     5
 10
653.4699581694021
 20
-23.73457585747008
 30
0.0
 11
653.4699581694021
 21
-37.48582832198372
 31
0.0
  0
LINE
  5
F4
  8
回08-記事
  6
CONTINUOUS
 62
     5
 10
659.657714492062
 20
-36.48582832198372
 30
0.0
 11
661.657714492062
 21
-36.48582832198372
 31
0.0
  0
LINE
  5
F5
  8
回08-記事
  6
CONTINUOUS
 62
     5
 10
651.4699581694022
 20
-36.48582832198372
 30
0.0
 11
612.7024865169309
 21
-36.48582832198372
 31
0.0
  0
LINE
  5
F6
  8
回08-記事
  6
CONTINUOUS
 62
     5
 10
657.657714492062
 20
-36.48582832198372
 30
0.0
 11
653.4699581694021
 21
-36.48582832198372
 31
0.0
  0
INSERT
  5
F7
  8
回08-記事
  6
CONTINUOUS
 62
     5
 66
     1
  2
_OPEN
 10
657.657714492062
 20
-36.48582832198372
 30
0.0
 41
2.0
 42
2.0
 43
2.0
 50
180.0
  0
SEQEND
  5
F8
  8
回08-記事
  6
CONTINUOUS
 62
     7
  0
INSERT
  5
F9
  8
回08-記事
  6
CONTINUOUS
 62
     5
 66
     1
  2
_OPEN
 10
653.4699581694021
 20
-36.48582832198372
 30
0.0
 41
2.0
 42
2.0
 43
2.0
  0
SEQEND
  5
FA
  8
回08-記事
  6
CONTINUOUS
 62
     7
  0
TEXT
  5
FB
  8
回08-記事
  6
CONTINUOUS
 62
     5
 10
612.4521964218492
 20
-35.73582832198372
 30
0.0
 40
5.0
  1
4.39 [0.173]
1001
ACAD
1000
MTEXTBEGIN
1070
    73
1070
     1
1070
    44
1040
1.0
1070
    74
1070
     0
1000
MTEXTEND
  0
POINT
  5
FC
  8
DEFPOINTS
  6
CONTINUOUS
 62
     0
 10
657.657714492062
 20
-24.41170020193732
 30
0.0
  0
POINT
  5
FD
  8
DEFPOINTS
  6
CONTINUOUS
 62
     0
 10
653.4699581694021
 20
-23.73457585747008
 30
0.0
  0
POINT
  5
FE
  8
DEFPOINTS
  6
CONTINUOUS
 62
     0
 10
653.4699581694021
 20
-36.48582832198372
 30
0.0
  0
ENDBLK
  5
FF
  8
0
 62
     7
  0
BLOCK
  8
0
  2
*D34343434
 70
     1
 10
0.0
 20
0.0
 30
0.0
  3
*D34343434
  1

  0
LINE
  5
E0
  8
回08-記事
  6
CONTINUOUS
 62
     5
 10
577.657714492062
 20
-197.187208105522
 30
0.0
 11
577.657714492062
 21
-231.8566490392841
 31
0.0
  0
LINE
  5
E1
  8
回08-記事
  6
CONTINUOUS
 62
     5
 10
587.657714492062
 20
-197.187208105522
 30
0.0
 11
587.657714492062
 21
-231.8566490392841
 31
0.0
  0
LINE
  5
E2
  8
回08-記事
  6
CONTINUOUS
 62
     5
 10
575.657714492062
 20
-230.8566490392841
 30
0.0
 11
573.657714492062
 21
-230.8566490392841
 31
0.0
  0
LINE
  5
E3
  8
回08-記事
  6
CONTINUOUS
 62
     5
 10
589.657714492062
 20
-230.8566490392841
 30
0.0
 11
624.1712491366594
 21
-230.8566490392841
 31
0.0
  0
LINE
  5
E4
  8
回08-記事
  6
CONTINUOUS
 62
     5
 10
577.657714492062
 20
-230.8566490392841
 30
0.0
 11
587.657714492062
 21
-230.8566490392841
 31
0.0
  0
INSERT
  5
E5
  8
回08-記事
  6
CONTINUOUS
 62
     5
 66
     1
  2
_OPEN
 10
577.657714492062
 20
-230.8566490392841
 30
0.0
 41
2.0
 42
2.0
 43
2.0
  0
SEQEND
  5
E6
  8
回08-記事
  6
CONTINUOUS
 62
     7
  0
INSERT
  5
E7
  8
回08-記事
  6
CONTINUOUS
 62
     5
 66
     1
  2
_OPEN
 10
587.657714492062
 20
-230.8566490392841
 30
0.0
 41
2.0
 42
2.0
 43
2.0
 50
180.0
  0
SEQEND
  5
E8
  8
回08-記事
  6
CONTINUOUS
 62
     7
  0
TEXT
  5
E9
  8
回08-記事
  6
CONTINUOUS
 62
     5
 10
591.4054558930431
 20
-230.1067488827879
 30
0.0
 40
5.0
  1
(10 [0.394])
1001
ACAD
1000
MTEXTBEGIN
1070
    73
1070
     1
1070
    44
1040
1.0
1070
    74
1070
     0
1000
MTEXTEND
  0
POINT
  5
EA
  8
DEFPOINTS
  6
CONTINUOUS
 62
     0
 10
577.657714492062
 20
-197.187208105522
 30
0.0
  0
POINT
  5
EC
  8
DEFPOINTS
  6
CONTINUOUS
 62
     0
 10
587.657714492062
 20
-197.187208105522
 30
0.0
  0
POINT
  5
ED
  8
DEFPOINTS
  6
CONTINUOUS
 62
     0
 10
587.657714492062
 20
-230.8566490392841
 30
0.0
  0
ENDBLK
  5
EE
  8
0
 62
     7
  0
BLOCK
  8
回08-記事
  2
*D35353535
 70
     1
 10
0.0
 20
0.0
 30
0.0
  3
*D35353535
  1

  0
LINE
  5
41B
  8
回08-記事
  6
CONTINUOUS
 62
     5
 10
435.657714492062
 20
-330.187208105522
 30
0.0
 11
435.657714492062
 21
-364.8566490392842
 31
0.0
  0
LINE
  5
41C
  8
回08-記事
  6
CONTINUOUS
 62
     5
 10
445.6577144920618
 20
-330.187208105522
 30
0.0
 11
445.6577144920618
 21
-364.8566490392842
 31
0.0
  0
LINE
  5
41D
  8
回08-記事
  6
CONTINUOUS
 62
     5
 10
447.657714492062
 20
-363.8566490392841
 30
0.0
 11
482.1718293268228
 21
-363.8566490392841
 31
0.0
  0
LINE
  5
41E
  8
回08-記事
  6
CONTINUOUS
 62
     5
 10
435.657714492062
 20
-363.8566490392841
 30
0.0
 11
445.6577144920618
 21
-363.8566490392841
 31
0.0
  0
LINE
  5
41F
  8
回08-記事
  6
CONTINUOUS
 62
     5
 10
433.6577144920618
 20
-363.8566490392841
 30
0.0
 11
431.657714492062
 21
-363.8566490392841
 31
0.0
  0
INSERT
  5
420
  8
回08-記事
  6
CONTINUOUS
 62
     5
  2
_OPEN
 10
435.657714492062
 20
-363.8566490392841
 30
0.0
 41
2.0
 42
2.0
 43
2.0
  0
INSERT
  5
421
  8
回08-記事
  6
CONTINUOUS
 62
     5
  2
_OPEN
 10
445.6577144920618
 20
-363.8566490392841
 30
0.0
 41
2.0
 42
2.0
 43
2.0
 50
180.0
  0
TEXT
  5
422
  8
回08-記事
  6
CONTINUOUS
 62
     5
 10
449.405745988125
 20
-363.1066490392842
 30
0.0
 40
5.0
  1
(10 [0.394])
  0
POINT
  5
423
  8
DEFPOINTS
  6
CONTINUOUS
 62
     0
 10
435.657714492062
 20
-330.187208105522
 30
0.0
  0
POINT
  5
424
  8
DEFPOINTS
  6
CONTINUOUS
 62
     0
 10
445.6577144920618
 20
-330.187208105522
 30
0.0
  0
POINT
  5
425
  8
DEFPOINTS
  6
CONTINUOUS
 62
     0
 10
445.6577144920618
 20
-363.8566490392841
 30
0.0
  0
ENDBLK
  5
427
  8
回08-記事
  6
CONTINUOUS
 62
     7
  0
BLOCK
  8
回08-記事
  2
*D36363636
 70
     1
 10
0.0
 20
0.0
 30
0.0
  3
*D36363636
  1

  0
LINE
  5
429
  8
回08-記事
  6
CONTINUOUS
 62
     5
 10
515.657714492062
 20
-157.4117002019373
 30
0.0
 11
515.657714492062
 21
-170.4858283219837
 31
0.0
  0
LINE
  5
42A
  8
回08-記事
  6
CONTINUOUS
 62
     5
 10
511.4699581694021
 20
-156.7345758574701
 30
0.0
 11
511.4699581694021
 21
-170.4858283219837
 31
0.0
  0
LINE
  5
42B
  8
回08-記事
  6
CONTINUOUS
 62
     5
 10
509.4699581694022
 20
-169.4858283219837
 30
0.0
 11
470.702196421849
 21
-169.4858283219837
 31
0.0
  0
LINE
  5
42C
  8
回08-記事
  6
CONTINUOUS
 62
     5
 10
515.657714492062
 20
-169.4858283219837
 30
0.0
 11
511.4699581694021
 21
-169.4858283219837
 31
0.0
  0
LINE
  5
42D
  8
回08-記事
  6
CONTINUOUS
 62
     5
 10
517.657714492062
 20
-169.4858283219837
 30
0.0
 11
519.657714492062
 21
-169.4858283219837
 31
0.0
  0
INSERT
  5
42E
  8
回08-記事
  6
CONTINUOUS
 62
     5
  2
_OPEN
 10
515.657714492062
 20
-169.4858283219837
 30
0.0
 41
2.0
 42
2.0
 43
2.0
 50
180.0
  0
INSERT
  5
42F
  8
回08-記事
  6
CONTINUOUS
 62
     5
  2
_OPEN
 10
511.4699581694021
 20
-169.4858283219837
 30
0.0
 41
2.0
 42
2.0
 43
2.0
  0
TEXT
  5
430
  8
回08-記事
  6
CONTINUOUS
 62
     5
 10
470.4521964218491
 20
-168.7358283219837
 30
0.0
 40
5.0
  1
4.39 [0.173]
  0
POINT
  5
431
  8
DEFPOINTS
  6
CONTINUOUS
 62
     0
 10
515.657714492062
 20
-157.4117002019373
 30
0.0
  0
POINT
  5
432
  8
DEFPOINTS
  6
CONTINUOUS
 62
     0
 10
511.4699581694021
 20
-156.7345758574701
 30
0.0
  0
POINT
  5
433
  8
DEFPOINTS
  6
CONTINUOUS
 62
     0
 10
511.4699581694021
 20
-169.4858283219837
 30
0.0
  0
ENDBLK
  5
435
  8
回08-記事
  6
CONTINUOUS
 62
     7
  0
BLOCK
  8
回08-記事
  2
*D37373737
 70
     1
 10
0.0
 20
0.0
 30
0.0
  3
*D37373737
  1

  0
LINE
  5
437
  8
回08-記事
  6
CONTINUOUS
 62
     5
 10
401.4241755294622
 20
-242.3573953069133
 30
0.0
 11
361.9578933380816
 21
-242.3573953069133
 31
0.0
  0
LINE
  5
438
  8
回08-記事
  6
CONTINUOUS
 62
     5
 10
401.4241755294619
 20
-264.8573953069132
 30
0.0
 11
361.9578933380816
 21
-264.8573953069132
 31
0.0
  0
LINE
  5
439
  8
回08-記事
  6
CONTINUOUS
 62
     5
 10
362.9578933380817
 20
-240.3573953069133
 30
0.0
 11
362.9578933380817
 21
-188.1077890077008
 31
0.0
  0
LINE
  5
43A
  8
回08-記事
  6
CONTINUOUS
 62
     5
 10
362.9578933380817
 20
-242.3573953069133
 30
0.0
 11
362.9578933380817
 21
-264.8573953069132
 31
0.0
  0
LINE
  5
43B
  8
回08-記事
  6
CONTINUOUS
 62
     5
 10
362.9578933380817
 20
-266.8573953069132
 30
0.0
 11
362.9578933380817
 21
-268.8573953069132
 31
0.0
  0
INSERT
  5
43C
  8
回08-記事
  6
CONTINUOUS
 62
     5
  2
_OPEN
 10
362.9578933380817
 20
-242.3573953069133
 30
0.0
 41
2.0
 42
2.0
 43
2.0
 50
270.0
  0
INSERT
  5
43D
  8
回08-記事
  6
CONTINUOUS
 62
     5
  2
_OPEN
 10
362.9578933380817
 20
-264.8573953069132
 30
0.0
 41
2.0
 42
2.0
 43
2.0
 50
90.0
  0
INSERT
  5
43E
  8
回08-記事
  6
CONTINUOUS
 62
     5
 66
     1
  2
*X91919191
 10
0.0
 20
0.0
 30
0.0
  0
SEQEND
  5
6DD
  8
回08-記事
  6
CONTINUOUS
 62
     7
  0
POINT
  5
43F
  8
DEFPOINTS
  6
CONTINUOUS
 62
     0
 10
401.4241755294622
 20
-242.3573953069133
 30
0.0
  0
POINT
  5
440
  8
DEFPOINTS
  6
CONTINUOUS
 62
     0
 10
401.4241755294619
 20
-264.8573953069132
 30
0.0
  0
POINT
  5
441
  8
DEFPOINTS
  6
CONTINUOUS
 62
     0
 10
362.9578933380817
 20
-264.8573953069132
 30
0.0
  0
ENDBLK
  5
443
  8
回08-記事
  6
CONTINUOUS
 62
     7
  0
BLOCK
  8
回08-記事
  2
*D38383838
 70
     1
 10
0.0
 20
0.0
 30
0.0
  3
*D38383838
  1

  0
LINE
  5
445
  8
回08-記事
  6
CONTINUOUS
 62
     5
 10
399.6241755294623
 20
-251.3573953069132
 30
0.0
 11
382.8357428304271
 21
-251.3573953069132
 31
0.0
  0
LINE
  5
446
  8
回08-記事
  6
CONTINUOUS
 62
     5
 10
399.6241755294623
 20
-246.8573953069132
 30
0.0
 11
382.8357428304271
 21
-246.8573953069132
 31
0.0
  0
LINE
  5
447
  8
回08-記事
  6
CONTINUOUS
 62
     5
 10
383.8357428304271
 20
-244.8573953069132
 30
0.0
 11
383.8357428304271
 21
-191.0303611795256
 31
0.0
  0
LINE
  5
448
  8
回08-記事
  6
CONTINUOUS
 62
     5
 10
383.8357428304271
 20
-251.3573953069132
 30
0.0
 11
383.8357428304271
 21
-246.8573953069132
 31
0.0
  0
LINE
  5
449
  8
回08-記事
  6
CONTINUOUS
 62
     5
 10
383.8357428304271
 20
-253.3573953069132
 30
0.0
 11
383.8357428304271
 21
-255.3573953069132
 31
0.0
  0
INSERT
  5
44A
  8
回08-記事
  6
CONTINUOUS
 62
     5
  2
_OPEN
 10
383.8357428304271
 20
-251.3573953069132
 30
0.0
 41
2.0
 42
2.0
 43
2.0
 50
90.0
  0
INSERT
  5
44B
  8
回08-記事
  6
CONTINUOUS
 62
     5
  2
_OPEN
 10
383.8357428304271
 20
-246.8573953069132
 30
0.0
 41
2.0
 42
2.0
 43
2.0
 50
270.0
  0
INSERT
  5
44C
  8
回08-記事
  6
CONTINUOUS
 62
     5
 66
     1
  2
*X92929292
 10
0.0
 20
0.0
 30
0.0
  0
SEQEND
  5
6E6
  8
回08-記事
  6
CONTINUOUS
 62
     7
  0
POINT
  5
44D
  8
DEFPOINTS
  6
CONTINUOUS
 62
     0
 10
399.6241755294623
 20
-251.3573953069132
 30
0.0
  0
POINT
  5
44E
  8
DEFPOINTS
  6
CONTINUOUS
 62
     0
 10
399.6241755294623
 20
-246.8573953069132
 30
0.0
  0
POINT
  5
44F
  8
DEFPOINTS
  6
CONTINUOUS
 62
     0
 10
383.8357428304271
 20
-246.8573953069132
 30
0.0
  0
ENDBLK
  5
451
  8
回08-記事
  6
CONTINUOUS
 62
     7
  0
BLOCK
  8
回08-記事
  2
*D39393939
 70
     1
 10
0.0
 20
0.0
 30
0.0
  3
*D39393939
  1

  0
LINE
  5
453
  8
回08-記事
  6
CONTINUOUS
 62
     5
 10
399.6241755294623
 20
-246.8573953069132
 30
0.0
 11
371.6122688614605
 21
-246.8573953069132
 31
0.0
  0
LINE
  5
454
  8
回08-記事
  6
CONTINUOUS
 62
     5
 10
399.6241755294621
 20
-260.3573953069132
 30
0.0
 11
371.6122688614605
 21
-260.3573953069132
 31
0.0
  0
LINE
  5
455
  8
回08-記事
  6
CONTINUOUS
 62
     5
 10
372.6122688614605
 20
-244.8573953069132
 30
0.0
 11
372.6122688614605
 21
-191.5420684827994
 31
0.0
  0
LINE
  5
456
  8
回08-記事
  6
CONTINUOUS
 62
     5
 10
372.6122688614605
 20
-246.8573953069132
 30
0.0
 11
372.6122688614605
 21
-260.3573953069132
 31
0.0
  0
LINE
  5
457
  8
回08-記事
  6
CONTINUOUS
 62
     5
 10
372.6122688614605
 20
-262.3573953069132
 30
0.0
 11
372.6122688614605
 21
-264.3573953069132
 31
0.0
  0
INSERT
  5
458
  8
回08-記事
  6
CONTINUOUS
 62
     5
  2
_OPEN
 10
372.6122688614605
 20
-246.8573953069132
 30
0.0
 41
2.0
 42
2.0
 43
2.0
 50
270.0
  0
INSERT
  5
459
  8
回08-記事
  6
CONTINUOUS
 62
     5
  2
_OPEN
 10
372.6122688614605
 20
-260.3573953069132
 30
0.0
 41
2.0
 42
2.0
 43
2.0
 50
90.0
  0
INSERT
  5
45A
  8
回08-記事
  6
CONTINUOUS
 62
     5
 66
     1
  2
*X93939393
 10
0.0
 20
0.0
 30
0.0
  0
SEQEND
  5
6EF
  8
回08-記事
  6
CONTINUOUS
 62
     7
  0
POINT
  5
45B
  8
DEFPOINTS
  6
CONTINUOUS
 62
     0
 10
399.6241755294623
 20
-246.8573953069132
 30
0.0
  0
POINT
  5
45C
  8
DEFPOINTS
  6
CONTINUOUS
 62
     0
 10
399.6241755294621
 20
-260.3573953069132
 30
0.0
  0
POINT
  5
45D
  8
DEFPOINTS
  6
CONTINUOUS
 62
     0
 10
372.6122688614605
 20
-260.3573953069132
 30
0.0
  0
ENDBLK
  5
45F
  8
回08-記事
  6
CONTINUOUS
 62
     7
  0
BLOCK
  8
回08-記事
  2
*D40404040
 70
     1
 10
0.0
 20
0.0
 30
0.0
  3
*D40404040
  1

  0
LINE
  5
461
  8
回08-記事
  6
CONTINUOUS
 62
     5
 10
399.6241755294623
 20
-248.1173953069132
 30
0.0
 11
392.396390926931
 21
-248.1173953069132
 31
0.0
  0
LINE
  5
462
  8
回08-記事
  6
CONTINUOUS
 62
     5
 10
399.6241755294623
 20
-245.5973953069132
 30
0.0
 11
392.396390926931
 21
-245.5973953069132
 31
0.0
  0
LINE
  5
463
  8
回08-記事
  6
CONTINUOUS
 62
     5
 10
393.3963909269309
 20
-243.5973953069132
 30
0.0
 11
393.3963909269309
 21
-180.7973953069132
 31
0.0
  0
LINE
  5
464
  8
回08-記事
  6
CONTINUOUS
 62
     5
 10
393.3963909269309
 20
-248.1173953069132
 30
0.0
 11
393.3963909269309
 21
-245.5973953069132
 31
0.0
  0
LINE
  5
465
  8
回08-記事
  6
CONTINUOUS
 62
     5
 10
393.3963909269309
 20
-250.1173953069132
 30
0.0
 11
393.3963909269309
 21
-252.1173953069132
 31
0.0
  0
INSERT
  5
466
  8
回08-記事
  6
CONTINUOUS
 62
     5
  2
_OPEN
 10
393.3963909269309
 20
-248.1173953069132
 30
0.0
 41
2.0
 42
2.0
 43
2.0
 50
90.0
  0
INSERT
  5
467
  8
回08-記事
  6
CONTINUOUS
 62
     5
  2
_OPEN
 10
393.3963909269309
 20
-245.5973953069132
 30
0.0
 41
2.0
 42
2.0
 43
2.0
 50
270.0
  0
INSERT
  5
468
  8
回08-記事
  6
CONTINUOUS
 62
     5
 66
     1
  2
*X94949494
 10
0.0
 20
0.0
 30
0.0
  0
SEQEND
  5
6F8
  8
回08-記事
  6
CONTINUOUS
 62
     7
  0
POINT
  5
469
  8
DEFPOINTS
  6
CONTINUOUS
 62
     0
 10
399.6241755294623
 20
-248.1173953069132
 30
0.0
  0
POINT
  5
46A
  8
DEFPOINTS
  6
CONTINUOUS
 62
     0
 10
399.6241755294623
 20
-245.5973953069132
 30
0.0
  0
POINT
  5
46B
  8
DEFPOINTS
  6
CONTINUOUS
 62
     0
 10
393.3963909269309
 20
-245.5973953069132
 30
0.0
  0
ENDBLK
  5
46D
  8
回08-記事
  6
CONTINUOUS
 62
     7
  0
BLOCK
  8
回08-記事
  2
*D41414141
 70
     1
 10
0.0
 20
0.0
 30
0.0
  3
*D41414141
  1

  0
LINE
  5
46F
  8
回08-記事
  6
CONTINUOUS
 62
     5
 10
843.157714492062
 20
-320.187208105522
 30
0.0
 11
857.53410207955
 21
-320.187208105522
 31
0.0
  0
LINE
  5
470
  8
回08-記事
  6
CONTINUOUS
 62
     5
 10
843.6577144920621
 20
-331.187208105522
 30
0.0
 11
857.53410207955
 21
-331.187208105522
 31
0.0
  0
LINE
  5
471
  8
回08-記事
  6
CONTINUOUS
 62
     5
 10
856.5341020795496
 20
-333.187208105522
 30
0.0
 11
856.5341020795496
 21
-384.937208105522
 31
0.0
  0
LINE
  5
472
  8
回08-記事
  6
CONTINUOUS
 62
     5
 10
856.5341020795496
 20
-320.187208105522
 30
0.0
 11
856.5341020795496
 21
-331.187208105522
 31
0.0
  0
LINE
  5
473
  8
回08-記事
  6
CONTINUOUS
 62
     5
 10
856.5341020795496
 20
-318.187208105522
 30
0.0
 11
856.5341020795496
 21
-316.187208105522
 31
0.0
  0
INSERT
  5
474
  8
回08-記事
  6
CONTINUOUS
 62
     5
  2
_OPEN
 10
856.5341020795496
 20
-320.187208105522
 30
0.0
 41
2.0
 42
2.0
 43
2.0
 50
270.0
  0
INSERT
  5
475
  8
回08-記事
  6
CONTINUOUS
 62
     5
  2
_OPEN
 10
856.5341020795496
 20
-331.187208105522
 30
0.0
 41
2.0
 42
2.0
 43
2.0
 50
90.0
  0
INSERT
  5
476
  8
回08-記事
  6
CONTINUOUS
 62
     5
 66
     1
  2
*X95959595
 10
0.0
 20
0.0
 30
0.0
  0
SEQEND
  5
701
  8
回08-記事
  6
CONTINUOUS
 62
     7
  0
POINT
  5
477
  8
DEFPOINTS
  6
CONTINUOUS
 62
     0
 10
843.157714492062
 20
-320.187208105522
 30
0.0
  0
POINT
  5
478
  8
DEFPOINTS
  6
CONTINUOUS
 62
     0
 10
843.6577144920621
 20
-331.187208105522
 30
0.0
  0
POINT
  5
479
  8
DEFPOINTS
  6
CONTINUOUS
 62
     0
 10
856.5341020795496
 20
-331.187208105522
 30
0.0
  0
ENDBLK
  5
47B
  8
回08-記事
  6
CONTINUOUS
 62
     7
  0
BLOCK
  8
回08-記事
  2
*D42424242
 70
     1
 10
0.0
 20
0.0
 30
0.0
  3
*D42424242
  1

  0
LINE
  5
47D
  8
回08-記事
  6
CONTINUOUS
 62
     5
 10
435.657714492062
 20
-323.187208105522
 30
0.0
 11
435.657714492062
 21
-300.7459642857853
 31
0.0
  0
LINE
  5
47E
  8
回08-記事
  6
CONTINUOUS
 62
     5
 10
440.6577144920619
 20
-323.1872081055225
 30
0.0
 11
440.6577144920619
 21
-300.7459642857853
 31
0.0
  0
LINE
  5
47F
  8
回08-記事
  6
CONTINUOUS
 62
     5
 10
442.657714492062
 20
-301.7459642857852
 30
0.0
 11
469.1757663346969
 21
-301.7459642857852
 31
0.0
  0
LINE
  5
480
  8
回08-記事
  6
CONTINUOUS
 62
     5
 10
435.657714492062
 20
-301.7459642857852
 30
0.0
 11
440.6577144920619
 21
-301.7459642857852
 31
0.0
  0
LINE
  5
481
  8
回08-記事
  6
CONTINUOUS
 62
     5
 10
433.6577144920618
 20
-301.7459642857852
 30
0.0
 11
431.657714492062
 21
-301.7459642857852
 31
0.0
  0
INSERT
  5
482
  8
回08-記事
  6
CONTINUOUS
 62
     5
  2
_OPEN
 10
435.657714492062
 20
-301.7459642857852
 30
0.0
 41
2.0
 42
2.0
 43
2.0
  0
INSERT
  5
483
  8
回08-記事
  6
CONTINUOUS
 62
     5
  2
_OPEN
 10
440.6577144920619
 20
-301.7459642857852
 30
0.0
 41
2.0
 42
2.0
 43
2.0
 50
180.0
  0
TEXT
  5
484
  8
回08-記事
  6
CONTINUOUS
 62
     5
 10
444.4077144920618
 20
-300.9959642857853
 30
0.0
 40
5.0
  1
5 [0.197]
  0
POINT
  5
485
  8
DEFPOINTS
  6
CONTINUOUS
 62
     0
 10
435.657714492062
 20
-323.187208105522
 30
0.0
  0
POINT
  5
486
  8
DEFPOINTS
  6
CONTINUOUS
 62
     0
 10
440.6577144920619
 20
-323.1872081055225
 30
0.0
  0
POINT
  5
487
  8
DEFPOINTS
  6
CONTINUOUS
 62
     0
 10
440.6577144920619
 20
-301.7459642857852
 30
0.0
  0
ENDBLK
  5
489
  8
回08-記事
  6
CONTINUOUS
 62
     7
  0
BLOCK
  8
回08-記事
  2
*D43434343
 70
     1
 10
0.0
 20
0.0
 30
0.0
  3
*D43434343
  1

  0
LINE
  5
48B
  8
回08-記事
  6
CONTINUOUS
 62
     5
 10
435.657714492062
 20
-323.187208105522
 30
0.0
 11
421.2284165388846
 21
-323.187208105522
 31
0.0
  0
LINE
  5
48C
  8
回08-記事
  6
CONTINUOUS
 62
     5
 10
435.657714492062
 20
-330.187208105522
 30
0.0
 11
421.2284165388846
 21
-330.187208105522
 31
0.0
  0
LINE
  5
48D
  8
回08-記事
  6
CONTINUOUS
 62
     5
 10
422.2284165388846
 20
-332.187208105522
 30
0.0
 11
422.2284165388846
 21
-386.5661451133963
 31
0.0
  0
LINE
  5
48E
  8
回08-記事
  6
CONTINUOUS
 62
     5
 10
422.2284165388846
 20
-323.187208105522
 30
0.0
 11
422.2284165388846
 21
-330.187208105522
 31
0.0
  0
LINE
  5
48F
  8
回08-記事
  6
CONTINUOUS
 62
     5
 10
422.2284165388846
 20
-321.187208105522
 30
0.0
 11
422.2284165388846
 21
-319.187208105522
 31
0.0
  0
INSERT
  5
490
  8
回08-記事
  6
CONTINUOUS
 62
     5
  2
_OPEN
 10
422.2284165388846
 20
-323.187208105522
 30
0.0
 41
2.0
 42
2.0
 43
2.0
 50
270.0
  0
INSERT
  5
491
  8
回08-記事
  6
CONTINUOUS
 62
     5
  2
_OPEN
 10
422.2284165388846
 20
-330.187208105522
 30
0.0
 41
2.0
 42
2.0
 43
2.0
 50
90.0
  0
INSERT
  5
492
  8
回08-記事
  6
CONTINUOUS
 62
     5
 66
     1
  2
*X96969696
 10
0.0
 20
0.0
 30
0.0
  0
SEQEND
  5
70A
  8
回08-記事
  6
CONTINUOUS
 62
     7
  0
POINT
  5
493
  8
DEFPOINTS
  6
CONTINUOUS
 62
     0
 10
435.657714492062
 20
-323.187208105522
 30
0.0
  0
POINT
  5
494
  8
DEFPOINTS
  6
CONTINUOUS
 62
     0
 10
435.657714492062
 20
-330.187208105522
 30
0.0
  0
POINT
  5
495
  8
DEFPOINTS
  6
CONTINUOUS
 62
     0
 10
422.2284165388846
 20
-330.187208105522
 30
0.0
  0
ENDBLK
  5
497
  8
回08-記事
  6
CONTINUOUS
 62
     7
  0
BLOCK
  8
回08-記事
  2
*D44444444
 70
     1
 10
0.0
 20
0.0
 30
0.0
  3
*D44444444
  1

  0
LINE
  5
499
  8
回07-寸法
  6
CONTINUOUS
 62
     5
 10
835.157714492062
 20
-266.0295454151639
 30
0.0
 11
909.1354350631815
 21
-266.0295454151639
 31
0.0
  0
LINE
  5
49A
  8
回07-寸法
  6
CONTINUOUS
 62
     5
 10
843.6577144920621
 20
-274.729545415164
 30
0.0
 11
909.1354350631815
 21
-274.729545415164
 31
0.0
  0
LINE
  5
49B
  8
回07-寸法
  6
CONTINUOUS
 62
     5
 10
908.1354350631816
 20
-276.729545415164
 30
0.0
 11
908.1354350631816
 21
-309.7295454151642
 31
0.0
  0
LINE
  5
49C
  8
回07-寸法
  6
CONTINUOUS
 62
     5
 10
908.1354350631816
 20
-266.0295454151639
 30
0.0
 11
908.1354350631816
 21
-274.729545415164
 31
0.0
  0
LINE
  5
49D
  8
回07-寸法
  6
CONTINUOUS
 62
     5
 10
908.1354350631816
 20
-264.0295454151639
 30
0.0
 11
908.1354350631816
 21
-262.0295454151639
 31
0.0
  0
INSERT
  5
49E
  8
回07-寸法
  6
CONTINUOUS
 62
     5
  2
_OPEN
 10
908.1354350631816
 20
-266.0295454151639
 30
0.0
 41
2.0
 42
2.0
 43
2.0
 50
270.0
  0
INSERT
  5
49F
  8
回07-寸法
  6
CONTINUOUS
 62
     5
  2
_OPEN
 10
908.1354350631816
 20
-274.729545415164
 30
0.0
 41
2.0
 42
2.0
 43
2.0
 50
90.0
  0
TEXT
  5
4A0
  8
回07-寸法
  6
CONTINUOUS
 62
     5
 10
907.3854350631815
 20
-309.9795454151642
 30
0.0
 40
5.0
  1
8.7 [0.343]
 50
90.0
  0
POINT
  5
4A1
  8
DEFPOINTS
  6
CONTINUOUS
 62
     0
 10
835.157714492062
 20
-266.0295454151639
 30
0.0
  0
POINT
  5
4A2
  8
DEFPOINTS
  6
CONTINUOUS
 62
     0
 10
843.6577144920621
 20
-274.729545415164
 30
0.0
  0
POINT
  5
4A3
  8
DEFPOINTS
  6
CONTINUOUS
 62
     0
 10
908.1354350631816
 20
-274.729545415164
 30
0.0
  0
ENDBLK
  5
4A5
  8
回08-記事
  6
CONTINUOUS
 62
     7
  0
BLOCK
  8
回08-記事
  2
*D45454545
 70
     1
 10
0.0
 20
0.0
 30
0.0
  3
*D45454545
  1

  0
LINE
  5
4A7
  8
回07-寸法
  6
CONTINUOUS
 62
     5
 10
835.157714492062
 20
-31.42954541516394
 30
0.0
 11
909.1354350631847
 21
-31.42954541516395
 31
0.0
  0
LINE
  5
4A8
  8
回07-寸法
  6
CONTINUOUS
 62
     5
 10
835.157714492062
 20
-266.0295454151639
 30
0.0
 11
909.1354350631847
 21
-266.0295454151639
 31
0.0
  0
LINE
  5
4A9
  8
回07-寸法
  6
CONTINUOUS
 62
     5
 10
908.1354350631848
 20
-33.42954541516395
 30
0.0
 11
908.1354350631848
 21
-264.0295454151639
 31
0.0
  0
INSERT
  5
4AA
  8
回07-寸法
  6
CONTINUOUS
 62
     5
  2
_OPEN
 10
908.1354350631848
 20
-31.42954541516395
 30
0.0
 41
2.0
 42
2.0
 43
2.0
 50
90.0
  0
INSERT
  5
4AB
  8
回07-寸法
  6
CONTINUOUS
 62
     5
  2
_OPEN
 10
908.1354350631848
 20
-266.0295454151639
 30
0.0
 41
2.0
 42
2.0
 43
2.0
 50
270.0
  0
TEXT
  5
4AC
  8
回07-寸法
  6
CONTINUOUS
 62
     5
 10
907.3854350631847
 20
-167.9885713364814
 30
0.0
 40
5.0
  1
234.6 [9.236]
 50
90.0
  0
POINT
  5
4AD
  8
DEFPOINTS
  6
CONTINUOUS
 62
     0
 10
835.157714492062
 20
-31.42954541516394
 30
0.0
  0
POINT
  5
4AE
  8
DEFPOINTS
  6
CONTINUOUS
 62
     0
 10
835.157714492062
 20
-266.0295454151639
 30
0.0
  0
POINT
  5
4AF
  8
DEFPOINTS
  6
CONTINUOUS
 62
     0
 10
908.1354350631848
 20
-266.0295454151639
 30
0.0
  0
ENDBLK
  5
4B1
  8
回08-記事
  6
CONTINUOUS
 62
     7
  0
BLOCK
  8
回08-記事
  2
*D46464646
 70
     1
 10
0.0
 20
0.0
 30
0.0
  3
*D46464646
  1

  0
LINE
  5
4B3
  8
回07-寸法
  6
CONTINUOUS
 62
     5
 10
835.157714492062
 20
-31.42954541516394
 30
0.0
 11
909.1354350631815
 21
-31.42954541516395
 31
0.0
  0
LINE
  5
4B4
  8
回07-寸法
  6
CONTINUOUS
 62
     5
 10
843.6577144920621
 20
-22.72954541516384
 30
0.0
 11
909.1354350631815
 21
-22.72954541516384
 31
0.0
  0
LINE
  5
4B5
  8
回07-寸法
  6
CONTINUOUS
 62
     5
 10
908.1354350631816
 20
-20.72954541516384
 30
0.0
 11
908.1354350631816
 21
12.27045458483616
 31
0.0
  0
LINE
  5
4B6
  8
回07-寸法
  6
CONTINUOUS
 62
     5
 10
908.1354350631816
 20
-31.42954541516395
 30
0.0
 11
908.1354350631816
 21
-22.72954541516384
 31
0.0
  0
LINE
  5
4B7
  8
回07-寸法
  6
CONTINUOUS
 62
     5
 10
908.1354350631816
 20
-33.42954541516395
 30
0.0
 11
908.1354350631816
 21
-35.42954541516394
 31
0.0
  0
INSERT
  5
4B8
  8
回07-寸法
  6
CONTINUOUS
 62
     5
  2
_OPEN
 10
908.1354350631816
 20
-31.42954541516395
 30
0.0
 41
2.0
 42
2.0
 43
2.0
 50
90.0
  0
INSERT
  5
4B9
  8
回07-寸法
  6
CONTINUOUS
 62
     5
  2
_OPEN
 10
908.1354350631816
 20
-22.72954541516384
 30
0.0
 41
2.0
 42
2.0
 43
2.0
 50
270.0
  0
TEXT
  5
4BA
  8
回07-寸法
  6
CONTINUOUS
 62
     5
 10
907.3854350631815
 20
-18.97954541516378
 30
0.0
 40
5.0
  1
8.7 [0.343]
 50
90.0
  0
POINT
  5
4BB
  8
DEFPOINTS
  6
CONTINUOUS
 62
     0
 10
835.157714492062
 20
-31.42954541516394
 30
0.0
  0
POINT
  5
4BC
  8
DEFPOINTS
  6
CONTINUOUS
 62
     0
 10
843.6577144920621
 20
-22.72954541516384
 30
0.0
  0
POINT
  5
4BD
  8
DEFPOINTS
  6
CONTINUOUS
 62
     0
 10
908.1354350631816
 20
-22.72954541516384
 30
0.0
  0
ENDBLK
  5
4BF
  8
回08-記事
  6
CONTINUOUS
 62
     7
  0
BLOCK
  8
回08-記事
  2
*D47474747
 70
     1
 10
0.0
 20
0.0
 30
0.0
  3
*D47474747
  1

  0
LINE
  5
4C1
  8
回07-寸法
  6
CONTINUOUS
 62
     5
 10
835.157714492062
 20
-31.42954541516394
 30
0.0
 11
835.157714492062
 21
29.88976698370516
 31
0.0
  0
LINE
  5
4C2
  8
回07-寸法
  6
CONTINUOUS
 62
     5
 10
843.6577144920621
 20
-22.72954541516384
 30
0.0
 11
843.6577144920621
 21
29.88976698370516
 31
0.0
  0
LINE
  5
4C3
  8
回07-寸法
  6
CONTINUOUS
 62
     5
 10
845.657714492062
 20
28.88976698370516
 30
0.0
 11
878.1577144920619
 21
28.88976698370516
 31
0.0
  0
LINE
  5
4C4
  8
回07-寸法
  6
CONTINUOUS
 62
     5
 10
835.157714492062
 20
28.88976698370516
 30
0.0
 11
843.6577144920621
 21
28.88976698370516
 31
0.0
  0
LINE
  5
4C5
  8
回07-寸法
  6
CONTINUOUS
 62
     5
 10
833.157714492062
 20
28.88976698370516
 30
0.0
 11
831.1577144920621
 21
28.88976698370516
 31
0.0
  0
INSERT
  5
4C6
  8
回07-寸法
  6
CONTINUOUS
 62
     5
  2
_OPEN
 10
835.157714492062
 20
28.88976698370516
 30
0.0
 41
2.0
 42
2.0
 43
2.0
  0
INSERT
  5
4C7
  8
回07-寸法
  6
CONTINUOUS
 62
     5
  2
_OPEN
 10
843.6577144920621
 20
28.88976698370516
 30
0.0
 41
2.0
 42
2.0
 43
2.0
 50
180.0
  0
TEXT
  5
4C8
  8
回07-寸法
  6
CONTINUOUS
 62
     5
 10
847.407714492062
 20
29.63976698370516
 30
0.0
 40
5.0
  1
8.5 [0.335]
  0
POINT
  5
4C9
  8
DEFPOINTS
  6
CONTINUOUS
 62
     0
 10
835.157714492062
 20
-31.42954541516394
 30
0.0
  0
POINT
  5
4CA
  8
DEFPOINTS
  6
CONTINUOUS
 62
     0
 10
843.6577144920621
 20
-22.72954541516384
 30
0.0
  0
POINT
  5
4CB
  8
DEFPOINTS
  6
CONTINUOUS
 62
     0
 10
843.6577144920621
 20
28.88976698370516
 30
0.0
  0
ENDBLK
  5
4CD
  8
回08-記事
  6
CONTINUOUS
 62
     7
  0
BLOCK
  8
回08-記事
  2
*D48484848
 70
     1
 10
0.0
 20
0.0
 30
0.0
  3
*D48484848
  1

  0
LINE
  5
4CF
  8
回07-寸法
  6
CONTINUOUS
 62
     5
 10
525.157714492062
 20
-31.42954541516394
 30
0.0
 11
525.157714492062
 21
29.88976698370516
 31
0.0
  0
LINE
  5
4D0
  8
回07-寸法
  6
CONTINUOUS
 62
     5
 10
515.657714492062
 20
-22.7295454151639
 30
0.0
 11
515.657714492062
 21
29.88976698370516
 31
0.0
  0
LINE
  5
4D1
  8
回07-寸法
  6
CONTINUOUS
 62
     5
 10
513.657714492062
 20
28.88976698370516
 30
0.0
 11
480.5541611014686
 21
28.88976698370516
 31
0.0
  0
LINE
  5
4D2
  8
回07-寸法
  6
CONTINUOUS
 62
     5
 10
525.157714492062
 20
28.88976698370516
 30
0.0
 11
515.657714492062
 21
28.88976698370516
 31
0.0
  0
LINE
  5
4D3
  8
回07-寸法
  6
CONTINUOUS
 62
     5
 10
527.157714492062
 20
28.88976698370516
 30
0.0
 11
529.157714492062
 21
28.88976698370516
 31
0.0
  0
INSERT
  5
4D4
  8
回07-寸法
  6
CONTINUOUS
 62
     5
  2
_OPEN
 10
525.157714492062
 20
28.88976698370516
 30
0.0
 41
2.0
 42
2.0
 43
2.0
 50
180.0
  0
INSERT
  5
4D5
  8
回07-寸法
  6
CONTINUOUS
 62
     5
  2
_OPEN
 10
515.657714492062
 20
28.88976698370516
 30
0.0
 41
2.0
 42
2.0
 43
2.0
  0
TEXT
  5
4D6
  8
回07-寸法
  6
CONTINUOUS
 62
     5
 10
480.2861092588337
 20
29.63976698370516
 30
0.0
 40
5.0
  1
9.5 [0.374]
  0
POINT
  5
4D7
  8
DEFPOINTS
  6
CONTINUOUS
 62
     0
 10
525.157714492062
 20
-31.42954541516394
 30
0.0
  0
POINT
  5
4D8
  8
DEFPOINTS
  6
CONTINUOUS
 62
     0
 10
515.657714492062
 20
-22.7295454151639
 30
0.0
  0
POINT
  5
4D9
  8
DEFPOINTS
  6
CONTINUOUS
 62
     0
 10
515.657714492062
 20
28.88976698370516
 30
0.0
  0
ENDBLK
  5
4DB
  8
回08-記事
  6
CONTINUOUS
 62
     7
  0
BLOCK
  8
回08-記事
  2
*D49494949
 70
     1
 10
0.0
 20
0.0
 30
0.0
  3
*D49494949
  1

  0
LINE
  5
4DD
  8
回07-寸法
  6
CONTINUOUS
 62
     5
 10
835.157714492062
 20
-31.42954541516394
 30
0.0
 11
835.157714492062
 21
29.88976698370516
 31
0.0
  0
LINE
  5
4DE
  8
回07-寸法
  6
CONTINUOUS
 62
     5
 10
525.157714492062
 20
-31.42954541516394
 30
0.0
 11
525.157714492062
 21
29.88976698370516
 31
0.0
  0
LINE
  5
4DF
  8
回07-寸法
  6
CONTINUOUS
 62
     5
 10
833.157714492062
 20
28.88976698370516
 30
0.0
 11
527.157714492062
 21
28.88976698370516
 31
0.0
  0
INSERT
  5
4E0
  8
回07-寸法
  6
CONTINUOUS
 62
     5
  2
_OPEN
 10
835.157714492062
 20
28.88976698370516
 30
0.0
 41
2.0
 42
2.0
 43
2.0
  0
INSERT
  5
4E1
  8
回07-寸法
  6
CONTINUOUS
 62
     5
  2
_OPEN
 10
525.157714492062
 20
28.88976698370516
 30
0.0
 41
2.0
 42
2.0
 43
2.0
 50
180.0
  0
TEXT
  5
4E2
  8
回07-寸法
  6
CONTINUOUS
 62
     5
 10
662.907714492062
 20
29.63976698370516
 30
0.0
 40
5.0
  1
310 [12.205]
  0
POINT
  5
4E3
  8
DEFPOINTS
  6
CONTINUOUS
 62
     0
 10
835.157714492062
 20
-31.42954541516394
 30
0.0
  0
POINT
  5
4E4
  8
DEFPOINTS
  6
CONTINUOUS
 62
     0
 10
525.157714492062
 20
-31.42954541516394
 30
0.0
  0
POINT
  5
4E5
  8
DEFPOINTS
  6
CONTINUOUS
 62
     0
 10
525.157714492062
 20
28.88976698370516
 30
0.0
  0
ENDBLK
  5
4E7
  8
回08-記事
  6
CONTINUOUS
 62
     7
  0
BLOCK
  8
回08-記事
  2
*D50505050
 70
     1
 10
0.0
 20
0.0
 30
0.0
  3
*D50505050
  1

  0
LINE
  5
4E9
  8
回07-寸法
  6
CONTINUOUS
 62
     5
 10
515.657714492062
 20
-22.7295454151639
 30
0.0
 11
414.5029862366857
 21
-22.72954541516389
 31
0.0
  0
LINE
  5
4EA
  8
回07-寸法
  6
CONTINUOUS
 62
     5
 10
433.8040618786599
 20
-148.7295454151639
 30
0.0
 11
414.5029862366857
 21
-148.7295454151639
 31
0.0
  0
LINE
  5
4EB
  8
回07-寸法
  6
CONTINUOUS
 62
     5
 10
415.5029862366857
 20
-24.72954541516389
 30
0.0
 11
415.5029862366857
 21
-146.7295454151639
 31
0.0
  0
INSERT
  5
4EC
  8
回07-寸法
  6
CONTINUOUS
 62
     5
  2
_OPEN
 10
415.5029862366857
 20
-22.72954541516389
 30
0.0
 41
2.0
 42
2.0
 43
2.0
 50
90.0
  0
INSERT
  5
4ED
  8
回07-寸法
  6
CONTINUOUS
 62
     5
  2
_OPEN
 10
415.5029862366857
 20
-148.7295454151639
 30
0.0
 41
2.0
 42
2.0
 43
2.0
 50
270.0
  0
TEXT
  5
4EE
  8
回07-寸法
  6
CONTINUOUS
 62
     5
 10
414.7529862366857
 20
-101.4885713364813
 30
0.0
 40
5.0
  1
126 [4.961]
 50
90.0
  0
POINT
  5
4EF
  8
DEFPOINTS
  6
CONTINUOUS
 62
     0
 10
515.657714492062
 20
-22.7295454151639
 30
0.0
  0
POINT
  5
4F0
  8
DEFPOINTS
  6
CONTINUOUS
 62
     0
 10
433.8040618786599
 20
-148.7295454151639
 30
0.0
  0
POINT
  5
4F1
  8
DEFPOINTS
  6
CONTINUOUS
 62
     0
 10
415.5029862366857
 20
-148.7295454151639
 30
0.0
  0
ENDBLK
  5
4F3
  8
回08-記事
  6
CONTINUOUS
 62
     7
  0
BLOCK
  8
回08-記事
  2
*D51515151
 70
     1
 10
0.0
 20
0.0
 30
0.0
  3
*D51515151
  1

  0
LINE
  5
4F5
  8
回07-寸法
  6
CONTINUOUS
 62
     5
 10
887.5963939270004
 20
-263.2295454151639
 30
0.0
 11
888.6244072719664
 21
-263.2295454151639
 31
0.0
  0
LINE
  5
4F6
  8
回07-寸法
  6
CONTINUOUS
 62
     5
 10
843.6577144920621
 20
-274.7295454151639
 30
0.0
 11
888.6244072719664
 21
-274.7295454151639
 31
0.0
  0
LINE
  5
4F7
  8
回07-寸法
  6
CONTINUOUS
 62
     5
 10
887.6244072719664
 20
-276.7295454151639
 30
0.0
 11
887.6244072719664
 21
-311.2295454151642
 31
0.0
  0
LINE
  5
4F8
  8
回07-寸法
  6
CONTINUOUS
 62
     5
 10
887.6244072719664
 20
-263.2295454151639
 30
0.0
 11
887.6244072719664
 21
-274.7295454151639
 31
0.0
  0
LINE
  5
4F9
  8
回07-寸法
  6
CONTINUOUS
 62
     5
 10
887.6244072719664
 20
-261.2295454151639
 30
0.0
 11
887.6244072719664
 21
-259.2295454151639
 31
0.0
  0
INSERT
  5
4FA
  8
回07-寸法
  6
CONTINUOUS
 62
     5
  2
_OPEN
 10
887.6244072719664
 20
-263.2295454151639
 30
0.0
 41
2.0
 42
2.0
 43
2.0
 50
270.0
  0
INSERT
  5
4FB
  8
回07-寸法
  6
CONTINUOUS
 62
     5
  2
_OPEN
 10
887.6244072719664
 20
-274.7295454151639
 30
0.0
 41
2.0
 42
2.0
 43
2.0
 50
90.0
  0
TEXT
  5
4FC
  8
回07-寸法
  6
CONTINUOUS
 62
     5
 10
886.8744072719664
 20
-311.4795454151642
 30
0.0
 40
5.0
  1
11.5 [0.453]
 50
90.0
  0
POINT
  5
4FD
  8
DEFPOINTS
  6
CONTINUOUS
 62
     0
 10
887.5963939270004
 20
-263.2295454151639
 30
0.0
  0
POINT
  5
4FE
  8
DEFPOINTS
  6
CONTINUOUS
 62
     0
 10
843.6577144920621
 20
-274.7295454151639
 30
0.0
  0
POINT
  5
4FF
  8
DEFPOINTS
  6
CONTINUOUS
 62
     0
 10
887.6244072719664
 20
-274.7295454151639
 30
0.0
  0
ENDBLK
  5
501
  8
回08-記事
  6
CONTINUOUS
 62
     7
  0
BLOCK
  8
回08-記事
  2
*D52525252
 70
     1
 10
0.0
 20
0.0
 30
0.0
  3
*D52525252
  1

  0
LINE
  5
503
  8
回07-寸法
  6
CONTINUOUS
 62
     5
 10
897.8307918363535
 20
-265.2295454151639
 30
0.0
 11
898.8626505174448
 21
-265.2295454151639
 31
0.0
  0
LINE
  5
504
  8
回07-寸法
  6
CONTINUOUS
 62
     5
 10
843.6577144920621
 20
-274.7295454151639
 30
0.0
 11
898.8626505174448
 21
-274.7295454151639
 31
0.0
  0
LINE
  5
505
  8
回07-寸法
  6
CONTINUOUS
 62
     5
 10
897.8626505174448
 20
-276.7295454151639
 30
0.0
 11
897.8626505174448
 21
-309.8330988057575
 31
0.0
  0
LINE
  5
506
  8
回07-寸法
  6
CONTINUOUS
 62
     5
 10
897.8626505174448
 20
-265.2295454151639
 30
0.0
 11
897.8626505174448
 21
-274.7295454151639
 31
0.0
  0
LINE
  5
507
  8
回07-寸法
  6
CONTINUOUS
 62
     5
 10
897.8626505174448
 20
-263.2295454151639
 30
0.0
 11
897.8626505174448
 21
-261.2295454151639
 31
0.0
  0
INSERT
  5
508
  8
回07-寸法
  6
CONTINUOUS
 62
     5
  2
_OPEN
 10
897.8626505174448
 20
-265.2295454151639
 30
0.0
 41
2.0
 42
2.0
 43
2.0
 50
270.0
  0
INSERT
  5
509
  8
回07-寸法
  6
CONTINUOUS
 62
     5
  2
_OPEN
 10
897.8626505174448
 20
-274.7295454151639
 30
0.0
 41
2.0
 42
2.0
 43
2.0
 50
90.0
  0
TEXT
  5
50A
  8
回07-寸法
  6
CONTINUOUS
 62
     5
 10
897.1126505174447
 20
-310.1011506483922
 30
0.0
 40
5.0
  1
9.5 [0.374]
 50
90.0
  0
POINT
  5
50B
  8
DEFPOINTS
  6
CONTINUOUS
 62
     0
 10
897.8307918363535
 20
-265.2295454151639
 30
0.0
  0
POINT
  5
50C
  8
DEFPOINTS
  6
CONTINUOUS
 62
     0
 10
843.6577144920621
 20
-274.7295454151639
 30
0.0
  0
POINT
  5
50D
  8
DEFPOINTS
  6
CONTINUOUS
 62
     0
 10
897.8626505174448
 20
-274.7295454151639
 30
0.0
  0
ENDBLK
  5
50F
  8
回08-記事
  6
CONTINUOUS
 62
     7
  0
BLOCK
  8
回08-記事
  2
*D53535353
 70
     1
 10
0.0
 20
0.0
 30
0.0
  3
*D53535353
  1

  0
LINE
  5
511
  8
回07-寸法
  6
CONTINUOUS
 62
     5
 10
527.657714492062
 20
0.0084997831432929
 30
0.0
 11
527.657714492062
 21
1.023034684523735
 31
0.0
  0
LINE
  5
512
  8
回07-寸法
  6
CONTINUOUS
 62
     5
 10
515.657714492062
 20
-23.7295454151639
 30
0.0
 11
515.657714492062
 21
1.023034684523735
 31
0.0
  0
LINE
  5
513
  8
回07-寸法
  6
CONTINUOUS
 62
     5
 10
513.657714492062
 20
0.0230346845237364
 30
0.0
 11
483.1577144920618
 21
0.0230346845237364
 31
0.0
  0
LINE
  5
514
  8
回07-寸法
  6
CONTINUOUS
 62
     5
 10
527.657714492062
 20
0.0230346845237364
 30
0.0
 11
515.657714492062
 21
0.0230346845237364
 31
0.0
  0
LINE
  5
515
  8
回07-寸法
  6
CONTINUOUS
 62
     5
 10
529.657714492062
 20
0.0230346845237364
 30
0.0
 11
531.657714492062
 21
0.0230346845237364
 31
0.0
  0
INSERT
  5
516
  8
回07-寸法
  6
CONTINUOUS
 62
     5
  2
_OPEN
 10
527.657714492062
 20
0.0230346845237364
 30
0.0
 41
2.0
 42
2.0
 43
2.0
 50
180.0
  0
INSERT
  5
517
  8
回07-寸法
  6
CONTINUOUS
 62
     5
  2
_OPEN
 10
515.657714492062
 20
0.0230346845237364
 30
0.0
 41
2.0
 42
2.0
 43
2.0
  0
TEXT
  5
518
  8
回07-寸法
  6
CONTINUOUS
 62
     5
 10
482.907714492062
 20
0.7730346845237364
 30
0.0
 40
5.0
  1
12 [0.472]
  0
POINT
  5
519
  8
DEFPOINTS
  6
CONTINUOUS
 62
     0
 10
527.657714492062
 20
0.0084997831432929
 30
0.0
  0
POINT
  5
51A
  8
DEFPOINTS
  6
CONTINUOUS
 62
     0
 10
515.657714492062
 20
-23.7295454151639
 30
0.0
  0
POINT
  5
51B
  8
DEFPOINTS
  6
CONTINUOUS
 62
     0
 10
515.657714492062
 20
0.0230346845237364
 30
0.0
  0
ENDBLK
  5
51D
  8
回08-記事
  6
CONTINUOUS
 62
     7
  0
BLOCK
  8
回08-記事
  2
*D54545454
 70
     1
 10
0.0
 20
0.0
 30
0.0
  3
*D54545454
  1

  0
LINE
  5
51F
  8
回07-寸法
  6
CONTINUOUS
 62
     5
 10
525.657714492062
 20
9.720337699000651
 30
0.0
 11
525.657714492062
 21
10.72942058975832
 31
0.0
  0
LINE
  5
520
  8
回07-寸法
  6
CONTINUOUS
 62
     5
 10
515.657714492062
 20
-23.7295454151639
 30
0.0
 11
515.657714492062
 21
10.72942058975832
 31
0.0
  0
LINE
  5
521
  8
回07-寸法
  6
CONTINUOUS
 62
     5
 10
513.657714492062
 20
9.729420589758319
 30
0.0
 11
483.1396626494271
 21
9.729420589758319
 31
0.0
  0
LINE
  5
522
  8
回07-寸法
  6
CONTINUOUS
 62
     5
 10
525.657714492062
 20
9.729420589758319
 30
0.0
 11
515.657714492062
 21
9.729420589758319
 31
0.0
  0
LINE
  5
523
  8
回07-寸法
  6
CONTINUOUS
 62
     5
 10
527.657714492062
 20
9.729420589758319
 30
0.0
 11
529.657714492062
 21
9.729420589758319
 31
0.0
  0
INSERT
  5
524
  8
回07-寸法
  6
CONTINUOUS
 62
     5
  2
_OPEN
 10
525.657714492062
 20
9.729420589758319
 30
0.0
 41
2.0
 42
2.0
 43
2.0
 50
180.0
  0
INSERT
  5
525
  8
回07-寸法
  6
CONTINUOUS
 62
     5
  2
_OPEN
 10
515.657714492062
 20
9.729420589758319
 30
0.0
 41
2.0
 42
2.0
 43
2.0
  0
TEXT
  5
526
  8
回07-寸法
  6
CONTINUOUS
 62
     5
 10
482.889662649427
 20
10.47942058975832
 30
0.0
 40
5.0
  1
10 [0.394]
  0
POINT
  5
527
  8
DEFPOINTS
  6
CONTINUOUS
 62
     0
 10
525.657714492062
 20
9.720337699000651
 30
0.0
  0
POINT
  5
528
  8
DEFPOINTS
  6
CONTINUOUS
 62
     0
 10
515.657714492062
 20
-23.7295454151639
 30
0.0
  0
POINT
  5
529
  8
DEFPOINTS
  6
CONTINUOUS
 62
     0
 10
515.657714492062
 20
9.729420589758319
 30
0.0
  0
ENDBLK
  5
52B
  8
回08-記事
  6
CONTINUOUS
 62
     7
  0
BLOCK
  8
回08-記事
  2
*D55555555
 70
     1
 10
0.0
 20
0.0
 30
0.0
  3
*D55555555
  1

  0
LINE
  5
52D
  8
回07-寸法
  6
CONTINUOUS
 62
     5
 10
843.6577144920621
 20
-274.7295454151639
 30
0.0
 11
919.3363732314363
 21
-274.7295454151639
 31
0.0
  0
LINE
  5
52E
  8
回07-寸法
  6
CONTINUOUS
 62
     5
 10
843.6577144920621
 20
-22.72954541516384
 30
0.0
 11
919.3363732314363
 21
-22.72954541516384
 31
0.0
  0
LINE
  5
52F
  8
回07-寸法
  6
CONTINUOUS
 62
     5
 10
918.336373231436
 20
-272.7295454151639
 30
0.0
 11
918.336373231436
 21
-24.72954541516385
 31
0.0
  0
INSERT
  5
530
  8
回07-寸法
  6
CONTINUOUS
 62
     5
  2
_OPEN
 10
918.336373231436
 20
-274.7295454151639
 30
0.0
 41
2.0
 42
2.0
 43
2.0
 50
270.0
  0
INSERT
  5
531
  8
回07-寸法
  6
CONTINUOUS
 62
     5
  2
_OPEN
 10
918.336373231436
 20
-22.72954541516384
 30
0.0
 41
2.0
 42
2.0
 43
2.0
 50
90.0
  0
INSERT
  5
532
  8
回07-寸法
  6
CONTINUOUS
 62
     5
 66
     1
  2
*X97979797
 10
0.0
 20
0.0
 30
0.0
  0
SEQEND
  5
713
  8
回08-記事
  6
CONTINUOUS
 62
     7
  0
POINT
  5
533
  8
DEFPOINTS
  6
CONTINUOUS
 62
     0
 10
843.6577144920621
 20
-274.7295454151639
 30
0.0
  0
POINT
  5
534
  8
DEFPOINTS
  6
CONTINUOUS
 62
     0
 10
843.6577144920621
 20
-22.72954541516384
 30
0.0
  0
POINT
  5
535
  8
DEFPOINTS
  6
CONTINUOUS
 62
     0
 10
918.336373231436
 20
-22.72954541516384
 30
0.0
  0
ENDBLK
  5
537
  8
回08-記事
  6
CONTINUOUS
 62
     7
  0
BLOCK
  8
回08-記事
  2
*D56565656
 70
     1
 10
0.0
 20
0.0
 30
0.0
  3
*D56565656
  1

  0
LINE
  5
539
  8
回07-寸法
  6
CONTINUOUS
 62
     5
 10
834.6577144920621
 20
-32.2295454151639
 30
0.0
 11
898.8307918363569
 21
-32.2295454151639
 31
0.0
  0
LINE
  5
53A
  8
回07-寸法
  6
CONTINUOUS
 62
     5
 10
834.6577144920621
 20
-265.2295454151639
 30
0.0
 11
898.8307918363569
 21
-265.2295454151639
 31
0.0
  0
LINE
  5
53B
  8
回07-寸法
  6
CONTINUOUS
 62
     5
 10
897.8307918363569
 20
-34.22954541516391
 30
0.0
 11
897.8307918363569
 21
-263.2295454151639
 31
0.0
  0
INSERT
  5
53C
  8
回07-寸法
  6
CONTINUOUS
 62
     5
  2
_OPEN
 10
897.8307918363569
 20
-32.2295454151639
 30
0.0
 41
2.0
 42
2.0
 43
2.0
 50
90.0
  0
INSERT
  5
53D
  8
回07-寸法
  6
CONTINUOUS
 62
     5
  2
_OPEN
 10
897.8307918363569
 20
-265.2295454151639
 30
0.0
 41
2.0
 42
2.0
 43
2.0
 50
270.0
  0
TEXT
  5
53E
  8
回07-寸法
  6
CONTINUOUS
 62
     5
 10
897.0807918363568
 20
-187.4875870845129
 30
0.0
 40
5.0
  1
233 [9.173] (VIEING AREA)
 50
90.0
  0
POINT
  5
53F
  8
DEFPOINTS
  6
CONTINUOUS
 62
     0
 10
834.6577144920621
 20
-32.2295454151639
 30
0.0
  0
POINT
  5
540
  8
DEFPOINTS
  6
CONTINUOUS
 62
     0
 10
834.6577144920621
 20
-265.2295454151639
 30
0.0
  0
POINT
  5
541
  8
DEFPOINTS
  6
CONTINUOUS
 62
     0
 10
897.8307918363569
 20
-265.2295454151639
 30
0.0
  0
ENDBLK
  5
543
  8
回08-記事
  6
CONTINUOUS
 62
     7
  0
BLOCK
  8
回08-記事
  2
*D57575757
 70
     1
 10
0.0
 20
0.0
 30
0.0
  3
*D57575757
  1

  0
LINE
  5
545
  8
回07-寸法
  6
CONTINUOUS
 62
     5
 10
832.6577144920619
 20
-263.2295454151639
 30
0.0
 11
888.5963939270036
 21
-263.2295454151639
 31
0.0
  0
LINE
  5
546
  8
回07-寸法
  6
CONTINUOUS
 62
     5
 10
832.6577144920619
 20
-34.2295454151639
 30
0.0
 11
888.5963939270036
 21
-34.2295454151639
 31
0.0
  0
LINE
  5
547
  8
回07-寸法
  6
CONTINUOUS
 62
     5
 10
887.5963939270036
 20
-261.2295454151639
 30
0.0
 11
887.5963939270036
 21
-36.2295454151639
 31
0.0
  0
INSERT
  5
548
  8
回07-寸法
  6
CONTINUOUS
 62
     5
  2
_OPEN
 10
887.5963939270036
 20
-263.2295454151639
 30
0.0
 41
2.0
 42
2.0
 43
2.0
 50
270.0
  0
INSERT
  5
549
  8
回07-寸法
  6
CONTINUOUS
 62
     5
  2
_OPEN
 10
887.5963939270036
 20
-34.2295454151639
 30
0.0
 41
2.0
 42
2.0
 43
2.0
 50
90.0
  0
TEXT
  5
54A
  8
回07-寸法
  6
CONTINUOUS
 62
     5
 10
886.8463939270036
 20
-188.7466130058304
 30
0.0
 40
5.0
  1
229 [9.016] (ACTIVE AREA)
 50
90.0
  0
POINT
  5
54B
  8
DEFPOINTS
  6
CONTINUOUS
 62
     0
 10
832.6577144920619
 20
-263.2295454151639
 30
0.0
  0
POINT
  5
54C
  8
DEFPOINTS
  6
CONTINUOUS
 62
     0
 10
832.6577144920619
 20
-34.2295454151639
 30
0.0
  0
POINT
  5
54D
  8
DEFPOINTS
  6
CONTINUOUS
 62
     0
 10
887.5963939270036
 20
-34.2295454151639
 30
0.0
  0
ENDBLK
  5
54F
  8
回08-記事
  6
CONTINUOUS
 62
     7
  0
BLOCK
  8
回08-記事
  2
*D58585858
 70
     1
 10
0.0
 20
0.0
 30
0.0
  3
*D58585858
  1

  0
LINE
  5
551
  8
回07-寸法
  6
CONTINUOUS
 62
     5
 10
843.6577144920621
 20
-148.7295454151639
 30
0.0
 11
877.2140006988006
 21
-148.7295454151639
 31
0.0
  0
LINE
  5
552
  8
回07-寸法
  6
CONTINUOUS
 62
     5
 10
843.6577144920621
 20
-274.7295454151639
 30
0.0
 11
877.2140006988006
 21
-274.7295454151639
 31
0.0
  0
LINE
  5
553
  8
回07-寸法
  6
CONTINUOUS
 62
     5
 10
876.2140006988007
 20
-150.7295454151639
 30
0.0
 11
876.2140006988007
 21
-272.7295454151639
 31
0.0
  0
INSERT
  5
554
  8
回07-寸法
  6
CONTINUOUS
 62
     5
  2
_OPEN
 10
876.2140006988007
 20
-148.7295454151639
 30
0.0
 41
2.0
 42
2.0
 43
2.0
 50
90.0
  0
INSERT
  5
555
  8
回07-寸法
  6
CONTINUOUS
 62
     5
  2
_OPEN
 10
876.2140006988007
 20
-274.7295454151639
 30
0.0
 41
2.0
 42
2.0
 43
2.0
 50
270.0
  0
TEXT
  5
556
  8
回07-寸法
  6
CONTINUOUS
 62
     5
 10
875.4640006988006
 20
-257.3537865343247
 30
0.0
 40
5.0
  1
126 [4.961] (ACTIVE AREA CENTER)
 50
90.0
  0
POINT
  5
557
  8
DEFPOINTS
  6
CONTINUOUS
 62
     0
 10
843.6577144920621
 20
-148.7295454151639
 30
0.0
  0
POINT
  5
558
  8
DEFPOINTS
  6
CONTINUOUS
 62
     0
 10
843.6577144920621
 20
-274.7295454151639
 30
0.0
  0
POINT
  5
559
  8
DEFPOINTS
  6
CONTINUOUS
 62
     0
 10
876.2140006988007
 20
-274.7295454151639
 30
0.0
  0
ENDBLK
  5
55B
  8
回08-記事
  6
CONTINUOUS
 62
     7
  0
BLOCK
  8
回08-記事
  2
*D59595959
 70
     1
 10
0.0
 20
0.0
 30
0.0
  3
*D59595959
  1

  0
LINE
  5
55D
  8
回07-寸法
  6
CONTINUOUS
 62
     5
 10
515.657714492062
 20
-23.7295454151639
 30
0.0
 11
515.657714492062
 21
38.86965291355
 31
0.0
  0
LINE
  5
55E
  8
回07-寸法
  6
CONTINUOUS
 62
     5
 10
843.6577144920621
 20
-22.72954541516384
 30
0.0
 11
843.6577144920621
 21
38.86965291355
 31
0.0
  0
LINE
  5
55F
  8
回07-寸法
  6
CONTINUOUS
 62
     5
 10
517.657714492062
 20
37.86965291355
 30
0.0
 11
841.6577144920619
 21
37.86965291355
 31
0.0
  0
INSERT
  5
560
  8
回07-寸法
  6
CONTINUOUS
 62
     5
  2
_OPEN
 10
515.657714492062
 20
37.86965291355
 30
0.0
 41
2.0
 42
2.0
 43
2.0
 50
180.0
  0
INSERT
  5
561
  8
回07-寸法
  6
CONTINUOUS
 62
     5
  2
_OPEN
 10
843.6577144920621
 20
37.86965291355
 30
0.0
 41
2.0
 42
2.0
 43
2.0
  0
INSERT
  5
562
  8
回07-寸法
  6
CONTINUOUS
 62
     5
 66
     1
  2
*X98989898
 10
0.0
 20
0.0
 30
0.0
  0
SEQEND
  5
71C
  8
回08-記事
  6
CONTINUOUS
 62
     7
  0
POINT
  5
563
  8
DEFPOINTS
  6
CONTINUOUS
 62
     0
 10
515.657714492062
 20
-23.7295454151639
 30
0.0
  0
POINT
  5
564
  8
DEFPOINTS
  6
CONTINUOUS
 62
     0
 10
843.6577144920621
 20
-22.72954541516384
 30
0.0
  0
POINT
  5
565
  8
DEFPOINTS
  6
CONTINUOUS
 62
     0
 10
843.6577144920621
 20
37.86965291355
 30
0.0
  0
ENDBLK
  5
567
  8
回08-記事
  6
CONTINUOUS
 62
     7
  0
BLOCK
  8
回08-記事
  2
*D60606060
 70
     1
 10
0.0
 20
0.0
 30
0.0
  3
*D60606060
  1

  0
LINE
  5
569
  8
回07-寸法
  6
CONTINUOUS
 62
     5
 10
525.657714492062
 20
-32.2295454151639
 30
0.0
 11
525.657714492062
 21
10.72033769900065
 31
0.0
  0
LINE
  5
56A
  8
回07-寸法
  6
CONTINUOUS
 62
     5
 10
834.6577144920621
 20
-32.2295454151639
 30
0.0
 11
834.6577144920621
 21
10.72033769900065
 31
0.0
  0
LINE
  5
56B
  8
回07-寸法
  6
CONTINUOUS
 62
     5
 10
527.657714492062
 20
9.720337699000651
 30
0.0
 11
832.6577144920619
 21
9.720337699000651
 31
0.0
  0
INSERT
  5
56C
  8
回07-寸法
  6
CONTINUOUS
 62
     5
  2
_OPEN
 10
525.657714492062
 20
9.720337699000651
 30
0.0
 41
2.0
 42
2.0
 43
2.0
 50
180.0
  0
INSERT
  5
56D
  8
回07-寸法
  6
CONTINUOUS
 62
     5
  2
_OPEN
 10
834.6577144920621
 20
9.720337699000651
 30
0.0
 41
2.0
 42
2.0
 43
2.0
  0
TEXT
  5
56E
  8
回07-寸法
  6
CONTINUOUS
 62
     5
 10
637.3996728227131
 20
10.47033769900066
 30
0.0
 40
5.0
  1
309 [12.165] (VIEWING AREA)
  0
POINT
  5
56F
  8
DEFPOINTS
  6
CONTINUOUS
 62
     0
 10
525.657714492062
 20
-32.2295454151639
 30
0.0
  0
POINT
  5
570
  8
DEFPOINTS
  6
CONTINUOUS
 62
     0
 10
834.6577144920621
 20
-32.2295454151639
 30
0.0
  0
POINT
  5
571
  8
DEFPOINTS
  6
CONTINUOUS
 62
     0
 10
834.6577144920621
 20
9.720337699000651
 30
0.0
  0
ENDBLK
  5
573
  8
回08-記事
  6
CONTINUOUS
 62
     7
  0
BLOCK
  8
回08-記事
  2
*D61616161
 70
     1
 10
0.0
 20
0.0
 30
0.0
  3
*D61616161
  1

  0
LINE
  5
575
  8
回07-寸法
  6
CONTINUOUS
 62
     5
 10
527.657714492062
 20
-34.2295454151639
 30
0.0
 11
527.657714492062
 21
1.008499783143292
 31
0.0
  0
LINE
  5
576
  8
回07-寸法
  6
CONTINUOUS
 62
     5
 10
832.6577144920619
 20
-34.2295454151639
 30
0.0
 11
832.6577144920619
 21
1.008499783143292
 31
0.0
  0
LINE
  5
577
  8
回07-寸法
  6
CONTINUOUS
 62
     5
 10
529.657714492062
 20
0.0084997831432929
 30
0.0
 11
830.657714492062
 21
0.0084997831432929
 31
0.0
  0
INSERT
  5
578
  8
回07-寸法
  6
CONTINUOUS
 62
     5
  2
_OPEN
 10
527.657714492062
 20
0.0084997831432929
 30
0.0
 41
2.0
 42
2.0
 43
2.0
 50
180.0
  0
INSERT
  5
579
  8
回07-寸法
  6
CONTINUOUS
 62
     5
  2
_OPEN
 10
832.6577144920619
 20
0.0084997831432929
 30
0.0
 41
2.0
 42
2.0
 43
2.0
  0
TEXT
  5
57A
  8
回07-寸法
  6
CONTINUOUS
 62
     5
 10
638.4086987440305
 20
0.7584997831432983
 30
0.0
 40
5.0
  1
305 [12.008] (ACTIVE AREA)
  0
POINT
  5
57B
  8
DEFPOINTS
  6
CONTINUOUS
 62
     0
 10
527.657714492062
 20
-34.2295454151639
 30
0.0
  0
POINT
  5
57C
  8
DEFPOINTS
  6
CONTINUOUS
 62
     0
 10
832.6577144920619
 20
-34.2295454151639
 30
0.0
  0
POINT
  5
57D
  8
DEFPOINTS
  6
CONTINUOUS
 62
     0
 10
832.6577144920619
 20
0.0084997831432929
 30
0.0
  0
ENDBLK
  5
57F
  8
回08-記事
  6
CONTINUOUS
 62
     7
  0
BLOCK
  8
回08-記事
  2
*D62626262
 70
     1
 10
0.0
 20
0.0
 30
0.0
  3
*D62626262
  1

  0
LINE
  5
581
  8
回07-寸法
  6
CONTINUOUS
 62
     5
 10
515.657714492062
 20
-23.7295454151639
 30
0.0
 11
515.657714492062
 21
-8.724072816888451
 31
0.0
  0
LINE
  5
582
  8
回07-寸法
  6
CONTINUOUS
 62
     5
 10
680.157714492062
 20
-22.7295454151639
 30
0.0
 11
680.157714492062
 21
-8.724072816888451
 31
0.0
  0
LINE
  5
583
  8
回07-寸法
  6
CONTINUOUS
 62
     5
 10
517.657714492062
 20
-9.724072816888453
 30
0.0
 11
678.157714492062
 21
-9.724072816888453
 31
0.0
  0
INSERT
  5
584
  8
回07-寸法
  6
CONTINUOUS
 62
     5
  2
_OPEN
 10
515.657714492062
 20
-9.724072816888453
 30
0.0
 41
2.0
 42
2.0
 43
2.0
 50
180.0
  0
INSERT
  5
585
  8
回07-寸法
  6
CONTINUOUS
 62
     5
  2
_OPEN
 10
680.157714492062
 20
-9.724072816888453
 30
0.0
 41
2.0
 42
2.0
 43
2.0
  0
TEXT
  5
586
  8
回07-寸法
  6
CONTINUOUS
 62
     5
 10
542.1586987440305
 20
-8.974072816888446
 30
0.0
 40
5.0
  1
164.5 [6.476] (ACTIVE AREA CENTER)
  0
POINT
  5
587
  8
DEFPOINTS
  6
CONTINUOUS
 62
     0
 10
515.657714492062
 20
-23.7295454151639
 30
0.0
  0
POINT
  5
588
  8
DEFPOINTS
  6
CONTINUOUS
 62
     0
 10
680.157714492062
 20
-22.7295454151639
 30
0.0
  0
POINT
  5
589
  8
DEFPOINTS
  6
CONTINUOUS
 62
     0
 10
680.157714492062
 20
-9.724072816888453
 30
0.0
  0
ENDBLK
  5
58B
  8
回08-記事
  6
CONTINUOUS
 62
     7
  0
BLOCK
  8
回08-記事
  2
*D63636363
 70
     1
 10
0.0
 20
0.0
 30
0.0
  3
*D63636363
  1

  0
LINE
  5
58D
  8
回07-寸法
 62
     5
 10
436.1576709812942
 20
-145.6095758574701
 30
0.0
 11
425.8372204745576
 21
-145.6095758574701
 31
0.0
  0
LINE
  5
58E
  8
回07-寸法
 62
     5
 10
436.1576709812942
 20
-151.8595758574701
 30
0.0
 11
425.8372204745576
 21
-151.8595758574701
 31
0.0
  0
LINE
  5
58F
  8
回07-寸法
 62
     5
 10
426.8372204745576
 20
-153.85957585747
 30
0.0
 11
426.8372204745576
 21
-201.3591821566828
 31
0.0
  0
LINE
  5
590
  8
回07-寸法
 62
     5
 10
426.8372204745576
 20
-145.6095758574701
 30
0.0
 11
426.8372204745576
 21
-151.8595758574701
 31
0.0
  0
LINE
  5
591
  8
回07-寸法
 62
     5
 10
426.8372204745576
 20
-143.60957585747
 30
0.0
 11
426.8372204745576
 21
-141.60957585747
 31
0.0
  0
INSERT
  5
592
  8
回07-寸法
  6
CONTINUOUS
 62
     5
  2
_OPEN
 10
426.8372204745576
 20
-145.6095758574701
 30
0.0
 41
2.0
 42
2.0
 43
2.0
 50
270.0
  0
INSERT
  5
593
  8
回07-寸法
  6
CONTINUOUS
 62
     5
  2
_OPEN
 10
426.8372204745576
 20
-151.8595758574701
 30
0.0
 41
2.0
 42
2.0
 43
2.0
 50
90.0
  0
TEXT
  5
594
  8
回07-寸法
  6
CONTINUOUS
 62
     5
 10
426.0872204745576
 20
-201.6091821566829
 30
0.0
 40
5.0
  1
6.25 [0.246]
 50
90.0
  0
POINT
  5
595
  8
DEFPOINTS
  6
CONTINUOUS
 62
     0
 10
436.1576709812942
 20
-145.6095758574701
 30
0.0
  0
POINT
  5
596
  8
DEFPOINTS
  6
CONTINUOUS
 62
     0
 10
436.1576709812942
 20
-151.8595758574701
 30
0.0
  0
POINT
  5
597
  8
DEFPOINTS
  6
CONTINUOUS
 62
     0
 10
426.8372204745576
 20
-151.8595758574701
 30
0.0
  0
ENDBLK
  5
599
  8
回08-記事
  6
CONTINUOUS
 62
     7
  0
BLOCK
  8
回08-記事
  2
*D64646464
 70
     1
 10
0.0
 20
0.0
 30
0.0
  3
*D64646464
  1

  0
LINE
  5
59B
  8
回07-寸法
  6
CONTINUOUS
 62
     5
 10
515.6576709812934
 20
-159.605643669336
 30
0.0
 11
515.6576709812934
 21
-179.3407264161237
 31
0.0
  0
LINE
  5
59C
  8
回07-寸法
  6
CONTINUOUS
 62
     5
 10
505.7490710250498
 20
-151.8636005247221
 30
0.0
 11
505.7490710250498
 21
-179.3407264161237
 31
0.0
  0
LINE
  5
59D
  8
回07-寸法
  6
CONTINUOUS
 62
     5
 10
503.7490710250499
 20
-178.3407264161237
 30
0.0
 11
470.6455176344566
 21
-178.3407264161237
 31
0.0
  0
LINE
  5
59E
  8
回07-寸法
  6
CONTINUOUS
 62
     5
 10
515.6576709812934
 20
-178.3407264161237
 30
0.0
 11
505.7490710250498
 21
-178.3407264161237
 31
0.0
  0
LINE
  5
59F
  8
回07-寸法
  6
CONTINUOUS
 62
     5
 10
517.6576709812934
 20
-178.3407264161237
 30
0.0
 11
519.6576709812934
 21
-178.3407264161237
 31
0.0
  0
INSERT
  5
5A0
  8
回07-寸法
  6
CONTINUOUS
 62
     5
  2
_OPEN
 10
515.6576709812934
 20
-178.3407264161237
 30
0.0
 41
2.0
 42
2.0
 43
2.0
 50
180.0
  0
INSERT
  5
5A1
  8
回07-寸法
  6
CONTINUOUS
 62
     5
  2
_OPEN
 10
505.7490710250498
 20
-178.3407264161237
 30
0.0
 41
2.0
 42
2.0
 43
2.0
  0
TEXT
  5
5A2
  8
回07-寸法
  6
CONTINUOUS
 62
     5
 10
470.3774657918216
 20
-177.5907264161237
 30
0.0
 40
5.0
  1
9.4 [0.370]
  0
POINT
  5
5A3
  8
DEFPOINTS
  6
CONTINUOUS
 62
     0
 10
515.6576709812934
 20
-159.605643669336
 30
0.0
  0
POINT
  5
5A4
  8
DEFPOINTS
  6
CONTINUOUS
 62
     0
 10
505.7490710250498
 20
-151.8636005247221
 30
0.0
  0
POINT
  5
5A5
  8
DEFPOINTS
  6
CONTINUOUS
 62
     0
 10
505.7490710250498
 20
-178.3407264161237
 30
0.0
  0
ENDBLK
  5
5A7
  8
回08-記事
  6
CONTINUOUS
 62
     7
  0
BLOCK
  8
回08-記事
  2
*D65656565
 70
     1
 10
0.0
 20
0.0
 30
0.0
  3
*D65656565
  1

  0
LINE
  5
5A9
  8
回07-寸法
 62
     5
 10
435.6576709812943
 20
-146.85957585747
 30
0.0
 11
435.6576709812943
 21
-102.9662767737052
 31
0.0
  0
LINE
  5
5AA
  8
回07-寸法
 62
     5
 10
515.6576709812925
 20
-138.7270748566669
 30
0.0
 11
515.6576709812925
 21
-102.9662767737052
 31
0.0
  0
LINE
  5
5AB
  8
回07-寸法
 62
     5
 10
437.6576709812943
 20
-103.9662767737052
 30
0.0
 11
513.6576709812925
 21
-103.9662767737052
 31
0.0
  0
INSERT
  5
5AC
  8
回07-寸法
  6
CONTINUOUS
 62
     5
  2
_OPEN
 10
435.6576709812943
 20
-103.9662767737052
 30
0.0
 41
2.0
 42
2.0
 43
2.0
 50
180.0
  0
INSERT
  5
5AD
  8
回07-寸法
  6
CONTINUOUS
 62
     5
  2
_OPEN
 10
515.6576709812925
 20
-103.9662767737052
 30
0.0
 41
2.0
 42
2.0
 43
2.0
  0
INSERT
  5
5AE
  8
回07-寸法
  6
CONTINUOUS
 62
     5
 66
     1
  2
*X99999999
 10
0.0
 20
0.0
 30
0.0
  0
SEQEND
  5
725
  8
回08-記事
  6
CONTINUOUS
 62
     7
  0
POINT
  5
5AF
  8
DEFPOINTS
  6
CONTINUOUS
 62
     0
 10
435.6576709812943
 20
-146.85957585747
 30
0.0
  0
POINT
  5
5B0
  8
DEFPOINTS
  6
CONTINUOUS
 62
     0
 10
515.6576709812925
 20
-138.7270748566669
 30
0.0
  0
POINT
  5
5B1
  8
DEFPOINTS
  6
CONTINUOUS
 62
     0
 10
515.6576709812925
 20
-103.9662767737052
 30
0.0
  0
ENDBLK
  5
5B3
  8
回08-記事
  6
CONTINUOUS
 62
     7
  0
BLOCK
  8
回08-記事
  2
*D66666666
 70
     1
 10
0.0
 20
0.0
 30
0.0
  3
*D66666666
  1

  0
LINE
  5
5B5
  8
回07-寸法
  6
CONTINUOUS
 62
     5
 10
511.4699581694021
 20
-156.7345758574701
 30
0.0
 11
452.2461263104212
 21
-156.7345758574701
 31
0.0
  0
LINE
  5
5B6
  8
回07-寸法
  6
CONTINUOUS
 62
     5
 10
511.4657845836963
 20
-140.7357788917419
 30
0.0
 11
452.2461263104212
 21
-140.7357788917419
 31
0.0
  0
LINE
  5
5B7
  8
回07-寸法
  6
CONTINUOUS
 62
     5
 10
453.2461263104212
 20
-158.7345758574701
 30
0.0
 11
453.2461263104212
 21
-188.7345758574701
 31
0.0
  0
LINE
  5
5B8
  8
回07-寸法
  6
CONTINUOUS
 62
     5
 10
453.2461263104212
 20
-156.7345758574701
 30
0.0
 11
453.2461263104212
 21
-140.7357788917419
 31
0.0
  0
LINE
  5
5B9
  8
回07-寸法
  6
CONTINUOUS
 62
     5
 10
453.2461263104212
 20
-138.7357788917419
 30
0.0
 11
453.2461263104212
 21
-136.7357788917419
 31
0.0
  0
INSERT
  5
5BA
  8
回07-寸法
  6
CONTINUOUS
 62
     5
  2
_OPEN
 10
453.2461263104212
 20
-156.7345758574701
 30
0.0
 41
2.0
 42
2.0
 43
2.0
 50
90.0
  0
INSERT
  5
5BB
  8
回07-寸法
  6
CONTINUOUS
 62
     5
  2
_OPEN
 10
453.2461263104212
 20
-140.7357788917419
 30
0.0
 41
2.0
 42
2.0
 43
2.0
 50
270.0
  0
TEXT
  5
5BC
  8
回07-寸法
  6
CONTINUOUS
 62
     5
 10
452.4961263104213
 20
-188.9845758574703
 30
0.0
 40
5.0
  1
16 [0.630]
 50
90.0
  0
POINT
  5
5BD
  8
DEFPOINTS
  6
CONTINUOUS
 62
     0
 10
511.4699581694021
 20
-156.7345758574701
 30
0.0
  0
POINT
  5
5BE
  8
DEFPOINTS
  6
CONTINUOUS
 62
     0
 10
511.4657845836963
 20
-140.7357788917419
 30
0.0
  0
POINT
  5
5BF
  8
DEFPOINTS
  6
CONTINUOUS
 62
     0
 10
453.2461263104212
 20
-140.7357788917419
 30
0.0
  0
ENDBLK
  5
5C1
  8
回08-記事
  6
CONTINUOUS
 62
     7
  0
BLOCK
  8
回08-記事
  2
*D67676767
 70
     1
 10
0.0
 20
0.0
 30
0.0
  3
*D67676767
  1

  0
LINE
  5
5C3
  8
回07-寸法
  6
CONTINUOUS
 62
     5
 10
843.6577144920621
 20
-274.7295454151639
 30
0.0
 11
860.4426987862371
 21
-274.7295454151639
 31
0.0
  0
LINE
  5
5C4
  8
回07-寸法
  6
CONTINUOUS
 62
     5
 10
843.5577144920619
 20
-267.2295454151639
 30
0.0
 11
860.4426987862371
 21
-267.2295454151639
 31
0.0
  0
LINE
  5
5C5
  8
回07-寸法
  6
CONTINUOUS
 62
     5
 10
859.4426987862371
 20
-276.7295454151639
 30
0.0
 11
859.4426987862371
 21
-309.2475972577987
 31
0.0
  0
LINE
  5
5C6
  8
回07-寸法
  6
CONTINUOUS
 62
     5
 10
859.4426987862371
 20
-274.7295454151639
 30
0.0
 11
859.4426987862371
 21
-267.2295454151639
 31
0.0
  0
LINE
  5
5C7
  8
回07-寸法
  6
CONTINUOUS
 62
     5
 10
859.4426987862371
 20
-265.2295454151639
 30
0.0
 11
859.4426987862371
 21
-263.2295454151639
 31
0.0
  0
INSERT
  5
5C8
  8
回07-寸法
  6
CONTINUOUS
 62
     5
  2
_OPEN
 10
859.4426987862371
 20
-274.7295454151639
 30
0.0
 41
2.0
 42
2.0
 43
2.0
 50
90.0
  0
INSERT
  5
5C9
  8
回07-寸法
  6
CONTINUOUS
 62
     5
  2
_OPEN
 10
859.4426987862371
 20
-267.2295454151639
 30
0.0
 41
2.0
 42
2.0
 43
2.0
 50
270.0
  0
TEXT
  5
5CA
  8
回07-寸法
  6
CONTINUOUS
 62
     5
 10
858.6926987862371
 20
-309.4975972577987
 30
0.0
 40
5.0
  1
7.5 [0.295]
 50
90.0
  0
POINT
  5
5CB
  8
DEFPOINTS
  6
CONTINUOUS
 62
     0
 10
843.6577144920621
 20
-274.7295454151639
 30
0.0
  0
POINT
  5
5CC
  8
DEFPOINTS
  6
CONTINUOUS
 62
     0
 10
843.5577144920619
 20
-267.2295454151639
 30
0.0
  0
POINT
  5
5CD
  8
DEFPOINTS
  6
CONTINUOUS
 62
     0
 10
859.4426987862371
 20
-267.2295454151639
 30
0.0
  0
ENDBLK
  5
5CF
  8
回08-記事
  6
CONTINUOUS
 62
     7
  0
BLOCK
  8
回08-記事
  2
*D68686868
 70
     1
 10
0.0
 20
0.0
 30
0.0
  3
*D68686868
  1

  0
LINE
  5
5D1
  8
回07-寸法
  6
CONTINUOUS
 62
     5
 10
843.5577144920619
 20
-265.2295454151639
 30
0.0
 11
855.5816637066854
 21
-265.2295454151639
 31
0.0
  0
LINE
  5
5D2
  8
回07-寸法
  6
CONTINUOUS
 62
     5
 10
843.5577144920619
 20
-267.2295454151639
 30
0.0
 11
855.5816637066854
 21
-267.2295454151639
 31
0.0
  0
LINE
  5
5D3
  8
回07-寸法
  6
CONTINUOUS
 62
     5
 10
854.5816637066854
 20
-263.2295454151639
 30
0.0
 11
854.5816637066854
 21
-231.715430580403
 31
0.0
  0
LINE
  5
5D4
  8
回07-寸法
  6
CONTINUOUS
 62
     5
 10
854.5816637066854
 20
-265.2295454151639
 30
0.0
 11
854.5816637066854
 21
-267.2295454151639
 31
0.0
  0
LINE
  5
5D5
  8
回07-寸法
  6
CONTINUOUS
 62
     5
 10
854.5816637066854
 20
-269.2295454151639
 30
0.0
 11
854.5816637066854
 21
-271.2295454151639
 31
0.0
  0
INSERT
  5
5D6
  8
回07-寸法
  6
CONTINUOUS
 62
     5
  2
_OPEN
 10
854.5816637066854
 20
-265.2295454151639
 30
0.0
 41
2.0
 42
2.0
 43
2.0
 50
270.0
  0
INSERT
  5
5D7
  8
回07-寸法
  6
CONTINUOUS
 62
     5
  2
_OPEN
 10
854.5816637066854
 20
-267.2295454151639
 30
0.0
 41
2.0
 42
2.0
 43
2.0
 50
90.0
  0
TEXT
  5
5D8
  8
回07-寸法
  6
CONTINUOUS
 62
     5
 10
853.8316637066854
 20
-261.4815139191009
 30
0.0
 40
5.0
  1
(2 [0.079])
 50
90.0
  0
POINT
  5
5D9
  8
DEFPOINTS
  6
CONTINUOUS
 62
     0
 10
843.5577144920619
 20
-265.2295454151639
 30
0.0
  0
POINT
  5
5DA
  8
DEFPOINTS
  6
CONTINUOUS
 62
     0
 10
843.5577144920619
 20
-267.2295454151639
 30
0.0
  0
POINT
  5
5DB
  8
DEFPOINTS
  6
CONTINUOUS
 62
     0
 10
854.5816637066854
 20
-267.2295454151639
 30
0.0
  0
ENDBLK
  5
5DD
  8
回08-記事
  6
CONTINUOUS
 62
     7
  0
BLOCK
  8
回08-記事
  2
*X69696969
 70
     1
 10
0.0
 20
0.0
 30
0.0
  3
*X69696969
  1

  0
INSERT
  5
5E2
  8
回07-寸法
  6
CONTINUOUS
 62
     5
  2
_OPEN
 10
512.2238569060236
 20
-147.0756601388284
 30
0.0
 41
2.0
 42
2.0
 43
2.0
 50
291.0314553242729
  0
LINE
  5
5E3
  8
回07-寸法
  6
CONTINUOUS
 62
     5
 10
511.5060960456006
 20
-145.2088930544698
 30
0.0
 11
507.09287454684
 21
-133.7308965738399
 31
0.0
  0
LINE
  5
5E4
  8
回07-寸法
  6
CONTINUOUS
 62
     5
 10
507.09287454684
 20
-133.7308965738399
 30
0.0
 11
461.39287454684
 21
-133.7308965738399
 31
0.0
  0
ENDBLK
  5
5E6
  8
回08-記事
  6
CONTINUOUS
 62
     7
  0
BLOCK
  8
回08-記事
  2
*X70707070
 70
     1
 10
0.0
 20
0.0
 30
0.0
  3
*X70707070
  1

  0
INSERT
  5
5E9
  8
回08-記事
  6
CONTINUOUS
 62
     5
  2
_OPEN
 10
399.7915744290109
 20
-263.8671291933143
 30
0.0
 41
1.999999999999999
 42
1.999999999999999
 43
2.0
 50
80.5242398108675
  0
LINE
  5
5EA
  8
回08-記事
  6
CONTINUOUS
 62
     5
 10
399.4623137716742
 20
-265.8398398714246
 30
0.0
 11
397.3680577184682
 21
-278.3872280479402
 31
0.0
  0
LINE
  5
5EB
  8
回08-記事
  6
CONTINUOUS
 62
     5
 10
397.3680577184682
 20
-278.3872280479402
 30
0.0
 11
353.3680577184682
 21
-278.3872280479402
 31
0.0
  0
ENDBLK
  5
5ED
  8
回08-記事
  6
CONTINUOUS
 62
     7
  0
BLOCK
  8
回08-記事
  2
*X71717171
 70
     1
 10
0.0
 20
0.0
 30
0.0
  3
*X71717171
  1

  0
INSERT
  5
5FC
  8
回08-記事
  6
CONTINUOUS
 62
     5
  2
_OPEN
 10
485.2192495029212
 20
-327.8029501765258
 30
0.0
 41
1.999999999999999
 42
1.999999999999999
 43
2.0
 50
97.93423712153588
  0
LINE
  5
5FD
  8
回08-記事
  6
CONTINUOUS
 62
     5
 10
485.4953223046925
 20
-329.7838044892207
 30
0.0
 11
486.5748226515352
 21
-337.5293444478024
 31
0.0
  0
LINE
  5
5FE
  8
回08-記事
  6
CONTINUOUS
 62
     5
 10
486.5748226515352
 20
-337.5293444478024
 30
0.0
 11
514.6748226515352
 21
-337.5293444478024
 31
0.0
  0
ENDBLK
  5
600
  8
回08-記事
  6
CONTINUOUS
 62
     7
  0
BLOCK
  8
回08-記事
  2
*X72727272
 70
     1
 10
0.0
 20
0.0
 30
0.0
  3
*X72727272
  1

  0
INSERT
  5
608
  8
回07-寸法
  6
CONTINUOUS
 62
     5
  2
_OPEN
 10
511.0842850887861
 20
-140.7048340392662
 30
0.0
 41
2.0
 42
2.0
 43
2.0
 50
291.0314553242729
  0
LINE
  5
609
  8
回07-寸法
  6
CONTINUOUS
 62
     5
 10
510.366524228363
 20
-138.8380669549076
 30
0.0
 11
505.9533027296025
 21
-127.3600704742778
 31
0.0
  0
LINE
  5
60A
  8
回07-寸法
  6
CONTINUOUS
 62
     5
 10
505.9533027296025
 20
-127.3600704742778
 30
0.0
 11
474.6388612554945
 21
-127.3600704742778
 31
0.0
  0
ENDBLK
  5
60C
  8
回08-記事
  6
CONTINUOUS
 62
     7
  0
BLOCK
  8
回08-記事
  2
*X73737373
 70
     1
 10
0.0
 20
0.0
 30
0.0
  3
*X73737373
  1

  0
INSERT
  5
60F
  8
回07-寸法
  6
CONTINUOUS
 62
     5
  2
_OPEN
 10
435.9162401189792
 20
-140.9342495699794
 30
0.0
 41
1.999999999999999
 42
1.999999999999999
 43
2.0
 50
220.8868480902174
  0
LINE
  5
610
  8
回07-寸法
  6
CONTINUOUS
 62
     5
 10
437.4282476013046
 20
-139.6251149804923
 30
0.0
 11
439.2822799019937
 21
-138.0198465917899
 31
0.0
  0
LINE
  5
611
  8
回07-寸法
  6
CONTINUOUS
 62
     5
 10
439.2822799019937
 20
-138.0198465917899
 30
0.0
 11
444.1822799019936
 21
-138.0198465917899
 31
0.0
  0
ENDBLK
  5
613
  8
回08-記事
  6
CONTINUOUS
 62
     7
  0
BLOCK
  8
回08-記事
  2
*X74747474
 70
     1
 10
0.0
 20
0.0
 30
0.0
  3
*X74747474
  1

  0
INSERT
  5
616
  8
回07-寸法
  6
CONTINUOUS
 62
     5
  2
_OPEN
 10
515.2645540393058
 20
-140.3875741447848
 30
0.0
 41
2.0
 42
2.0
 43
2.0
 50
280.694850854908
  0
LINE
  5
617
  8
回07-寸法
  6
CONTINUOUS
 62
     5
 10
514.8933974239453
 20
-138.4223151880887
 30
0.0
 11
511.5691204669892
 21
-120.8204059297861
 31
0.0
  0
LINE
  5
618
  8
回07-寸法
  6
CONTINUOUS
 62
     5
 10
511.5691204669892
 20
-120.8204059297861
 30
0.0
 11
479.8546789928813
 21
-120.8204059297861
 31
0.0
  0
ENDBLK
  5
61A
  8
回08-記事
  6
CONTINUOUS
 62
     7
  0
BLOCK
  8
回08-記事
  2
*X75757575
 70
     1
 10
0.0
 20
0.0
 30
0.0
  3
*X75757575
  1

  0
INSERT
  5
61D
  8
回07-寸法
  6
CONTINUOUS
 62
     5
  2
_OPEN
 10
490.6731368327164
 20
-146.7012790519654
 30
0.0
 41
1.999999999999999
 42
1.999999999999999
 43
2.0
 50
309.2019125020561
  0
LINE
  5
61E
  8
回07-寸法
  6
CONTINUOUS
 62
     5
 10
489.4090264936371
 20
-145.1514322690114
 30
0.0
 11
485.0792016086677
 21
-139.8429042384505
 31
0.0
  0
LINE
  5
61F
  8
回07-寸法
  6
CONTINUOUS
 62
     5
 10
485.0792016086677
 20
-139.8429042384505
 30
0.0
 11
456.9792016086676
 21
-139.8429042384505
 31
0.0
  0
ENDBLK
  5
621
  8
回08-記事
  6
CONTINUOUS
 62
     7
  0
BLOCK
  8
回08-記事
  2
*X76767676
 70
     1
 10
0.0
 20
0.0
 30
0.0
  3
*X76767676
  1

  0
INSERT
  5
624
  8
回07-寸法
  6
CONTINUOUS
 62
     5
  2
_OPEN
 10
840.142355155066
 20
-264.8483669951332
 30
0.0
 41
2.0
 42
2.0
 43
2.0
 50
263.2880237478844
  0
LINE
  5
625
  8
回07-寸法
  6
CONTINUOUS
 62
     5
 10
840.3761118192166
 20
-262.8620745136579
 30
0.0
 11
844.3725101935415
 21
-228.9036157345545
 31
0.0
  0
LINE
  5
626
  8
回07-寸法
  6
CONTINUOUS
 62
     5
 10
844.3725101935415
 20
-228.9036157345545
 30
0.0
 11
868.8725101935416
 21
-228.9036157345545
 31
0.0
  0
ENDBLK
  5
628
  8
回08-記事
  6
CONTINUOUS
 62
     7
  0
BLOCK
  8
回08-記事
  2
*X77777777
 70
     1
 10
0.0
 20
0.0
 30
0.0
  3
*X77777777
  1

  0
LINE
  5
630
  8
回08-記事
  6
CONTINUOUS
 62
     8
 10
511.4662314876618
 20
-143.2354765638647
 30
0.0
 11
513.3698150064717
 21
-141.3318930450544
 31
0.0
  0
LINE
  5
631
  8
回08-記事
  6
CONTINUOUS
 62
     8
 10
511.4662314876618
 20
-145.4805405941319
 30
0.0
 11
515.6148790367392
 21
-141.3318930450544
 31
0.0
  0
LINE
  5
632
  8
回08-記事
  6
CONTINUOUS
 62
     8
 10
511.4662314876618
 20
-147.7256046243992
 30
0.0
 11
517.8599430670066
 21
-141.3318930450544
 31
0.0
  0
LINE
  5
633
  8
回08-記事
  6
CONTINUOUS
 62
     8
 10
511.4662314876618
 20
-149.9706686546665
 30
0.0
 11
519.157714492062
 21
-142.2791856502663
 31
0.0
  0
LINE
  5
634
  8
回08-記事
  6
CONTINUOUS
 62
     8
 10
511.4662314876618
 20
-152.2157326849336
 30
0.0
 11
519.157714492062
 21
-144.5242496805336
 31
0.0
  0
LINE
  5
635
  8
回08-記事
  6
CONTINUOUS
 62
     8
 10
511.4662314876618
 20
-154.460796715201
 30
0.0
 11
519.157714492062
 21
-146.7693137108009
 31
0.0
  0
LINE
  5
636
  8
回08-記事
  6
CONTINUOUS
 62
     8
 10
512.0375163756598
 20
-156.1345758574701
 30
0.0
 11
519.157714492062
 21
-149.0143777410682
 31
0.0
  0
LINE
  5
637
  8
回08-記事
  6
CONTINUOUS
 62
     8
 10
514.2825804059273
 20
-156.1345758574701
 30
0.0
 11
519.157714492062
 21
-151.2594417713354
 31
0.0
  0
LINE
  5
638
  8
回08-記事
  6
CONTINUOUS
 62
     8
 10
516.5276444361945
 20
-156.1345758574701
 30
0.0
 11
519.157714492062
 21
-153.5045058016027
 31
0.0
  0
LINE
  5
639
  8
回08-記事
  6
CONTINUOUS
 62
     8
 10
518.7727084664618
 20
-156.1345758574701
 30
0.0
 11
519.157714492062
 21
-155.74956983187
 31
0.0
  0
ENDBLK
  5
63B
  8
回08-記事
  6
CONTINUOUS
 62
     7
  0
BLOCK
  8
回08-記事
  2
*X78787878
 70
     1
 10
0.0
 20
0.0
 30
0.0
  3
*X78787878
  1

  0
TEXT
  5
64D
  8
回07-寸法
  6
CONTINUOUS
 62
     5
 10
849.3725508447493
 20
-18.01081598581756
 30
0.0
 40
5.0
  1
C3
  0
TEXT
  5
64E
  8
回07-寸法
  6
CONTINUOUS
 62
     5
 10
856.3725508447493
 20
-18.01081598581756
 30
0.0
 40
3.0
  1
±1
  0
TEXT
  5
64F
  8
回07-寸法
  6
CONTINUOUS
 62
     5
 10
859.9725508447495
 20
-18.01081598581756
 30
0.0
 40
5.000009999999997
  1
[C0.118
  0
TEXT
  5
650
  8
回07-寸法
  6
CONTINUOUS
 62
     5
 10
878.9725888447494
 20
-18.01081598581756
 30
0.0
 40
3.000005999999998
  1
±0.039
  0
TEXT
  5
651
  8
回07-寸法
  6
CONTINUOUS
 62
     5
 10
890.3834427719926
 20
-18.01081598581756
 30
0.0
 40
5.000020000020001
  1
]
  0
ENDBLK
  5
653
  8
回08-記事
  6
CONTINUOUS
 62
     7
  0
BLOCK
  8
回08-記事
  2
*X79797979
 70
     1
 10
0.0
 20
0.0
 30
0.0
  3
*X79797979
  1

  0
INSERT
  5
656
  8
回07-寸法
  6
CONTINUOUS
 62
     5
  2
_OPEN
 10
842.8194365697434
 20
-24.25597319050758
 30
0.0
 41
1.999999999999999
 42
1.999999999999999
 43
2.0
 50
228.844486065008
  0
LINE
  5
657
  8
回07-寸法
  6
CONTINUOUS
 62
     5
 10
844.1356467005475
 20
-22.75012097612243
 30
0.0
 11
847.6225508447495
 21
-18.76081698581856
 31
0.0
  0
LINE
  5
658
  8
回07-寸法
  6
CONTINUOUS
 62
     5
 10
847.6225508447495
 20
-18.76081698581856
 30
0.0
 11
891.6334477719976
 21
-18.76081698581856
 31
0.0
  0
ENDBLK
  5
65A
  8
回08-記事
  6
CONTINUOUS
 62
     7
  0
BLOCK
  8
回08-記事
  2
*X80808080
 70
     1
 10
0.0
 20
0.0
 30
0.0
  3
*X80808080
  1

  0
INSERT
  5
65D
  8
回07-寸法
  6
CONTINUOUS
 62
     5
  2
_OPEN
 10
816.6520990752232
 20
-274.0597047054047
 30
0.0
 41
2.0
 42
2.0
 43
2.0
 50
52.50524136778486
  0
LINE
  5
65E
  8
回07-寸法
  6
CONTINUOUS
 62
     5
 10
815.434721372839
 20
-275.6465227572738
 30
0.0
 11
810.0755667652872
 21
-282.6320320674616
 31
0.0
  0
LINE
  5
65F
  8
回07-寸法
  6
CONTINUOUS
 62
     5
 10
810.0755667652872
 20
-282.6320320674616
 30
0.0
 11
785.9755667652875
 21
-282.6320320674616
 31
0.0
  0
ENDBLK
  5
661
  8
回08-記事
  6
CONTINUOUS
 62
     7
  0
BLOCK
  8
回08-記事
  2
*X81818181
 70
     1
 10
0.0
 20
0.0
 30
0.0
  3
*X81818181
  1

  0
LINE
  5
664
  8
回08-記事
  6
CONTINUOUS
 62
     8
 10
471.1695513900941
 20
-151.2345758574701
 30
0.0
 11
469.2975576673143
 21
-149.3625821346903
 31
0.0
  0
LINE
  5
665
  8
回08-記事
  6
CONTINUOUS
 62
     8
 10
473.8212018195435
 20
-151.23457585747
 30
0.0
 11
469.3935935340689
 21
-146.8069675719956
 31
0.0
  0
LINE
  5
666
  8
回08-記事
  6
CONTINUOUS
 62
     8
 10
476.4728522489931
 20
-151.23457585747
 30
0.0
 11
471.4728522489931
 21
-146.2345758574701
 31
0.0
  0
LINE
  5
667
  8
回08-記事
  6
CONTINUOUS
 62
     8
 10
479.1245026784427
 20
-151.23457585747
 30
0.0
 11
474.1245026784427
 21
-146.23457585747
 31
0.0
  0
LINE
  5
668
  8
回08-記事
  6
CONTINUOUS
 62
     8
 10
481.7761531078921
 20
-151.23457585747
 30
0.0
 11
476.7761531078921
 21
-146.2345758574701
 31
0.0
  0
LINE
  5
669
  8
回08-記事
  6
CONTINUOUS
 62
     8
 10
484.4278035373418
 20
-151.23457585747
 30
0.0
 11
479.4278035373418
 21
-146.2345758574701
 31
0.0
  0
LINE
  5
66A
  8
回08-記事
  6
CONTINUOUS
 62
     8
 10
487.0794539667913
 20
-151.2345758574701
 30
0.0
 11
482.0794539667913
 21
-146.2345758574701
 31
0.0
  0
LINE
  5
66B
  8
回08-記事
  6
CONTINUOUS
 62
     8
 10
489.7311043962408
 20
-151.2345758574701
 30
0.0
 11
484.7311043962408
 21
-146.2345758574701
 31
0.0
  0
LINE
  5
66C
  8
回08-記事
  6
CONTINUOUS
 62
     8
 10
492.3827548256904
 20
-151.2345758574701
 30
0.0
 11
487.3827548256904
 21
-146.2345758574701
 31
0.0
  0
LINE
  5
66D
  8
回08-記事
  6
CONTINUOUS
 62
     8
 10
494.8607387584121
 20
-151.0609093607422
 30
0.0
 11
490.0344052551401
 21
-146.2345758574701
 31
0.0
  0
LINE
  5
66E
  8
回08-記事
  6
CONTINUOUS
 62
     8
 10
495.2975576673143
 20
-148.8460778401948
 30
0.0
 11
492.6860556845894
 21
-146.23457585747
 31
0.0
  0
ENDBLK
  5
670
  8
回08-記事
  6
CONTINUOUS
 62
     7
  0
BLOCK
  8
回08-記事
  2
*X82828282
 70
     1
 10
0.0
 20
0.0
 30
0.0
  3
*X82828282
  1

  0
TEXT
  5
685
  8
回07-寸法
 62
     5
 10
596.2406286362525
 20
29.7837232262948
 30
0.0
 40
5.0
  1
80
  0
TEXT
  5
686
  8
回07-寸法
 62
     5
 10
603.2406286362522
 20
29.7837232262948
 30
0.0
 40
3.75
  1
±1.0
  0
TEXT
  5
687
  8
回07-寸法
 62
     5
 10
611.4906286362525
 20
29.7837232262948
 30
0.0
 40
5.0
  1
[3.150
  0
TEXT
  5
688
  8
回07-寸法
 62
     5
 10
627.9906286362525
 20
29.7837232262948
 30
0.0
 40
3.75
  1
±0.039
  0
TEXT
  5
689
  8
回07-寸法
 62
     5
 10
642.2541675182286
 20
29.7837232262948
 30
0.0
 40
5.0
  1
]
  0
ENDBLK
  5
68B
  8
回08-記事
  6
CONTINUOUS
 62
     7
  0
BLOCK
  8
回08-記事
  2
*X83838383
 70
     1
 10
0.0
 20
0.0
 30
0.0
  3
*X83838383
  1

  0
TEXT
  5
68E
  8
回07-寸法
  6
CONTINUOUS
 62
     5
 10
793.8986885707446
 20
171.61965291355
 30
0.0
 40
5.0
  1
328
  0
TEXT
  5
68F
  8
回07-寸法
  6
CONTINUOUS
 62
     5
 10
804.3986885707447
 20
171.61965291355
 30
0.0
 40
3.5
  1
±0.3
  0
TEXT
  5
690
  8
回07-寸法
  6
CONTINUOUS
 62
     5
 10
812.7986885707446
 20
171.61965291355
 30
0.0
 40
5.0
  1
 [12.913
  0
TEXT
  5
691
  8
回07-寸法
  6
CONTINUOUS
 62
     5
 10
834.8167404133794
 20
171.61965291355
 30
0.0
 40
3.5
  1
±0.012
  0
TEXT
  5
692
  8
回07-寸法
  6
CONTINUOUS
 62
     5
 10
847.4167404133796
 20
171.61965291355
 30
0.0
 40
5.0
  1
]
  0
ENDBLK
  5
694
  8
回08-記事
  6
CONTINUOUS
 62
     7
  0
BLOCK
  8
回08-記事
  2
*X84848484
 70
     1
 10
0.0
 20
0.0
 30
0.0
  3
*X84848484
  1

  0
TEXT
  5
697
  8
回07-寸法
  6
CONTINUOUS
 62
     5
 10
1059.586373231436
 20
-42.24759725779859
 30
0.0
 40
5.0
  1
252
 50
90.0
  0
TEXT
  5
698
  8
回07-寸法
  6
CONTINUOUS
 62
     5
 10
1059.586373231436
 20
-31.74759725779859
 30
0.0
 40
3.5
  1
±0.3
 50
90.0
  0
TEXT
  5
699
  8
回07-寸法
  6
CONTINUOUS
 62
     5
 10
1059.586373231436
 20
-23.3475972577985
 30
0.0
 40
5.0
  1
 [9.921
 50
90.0
  0
TEXT
  5
69A
  8
回07-寸法
  6
CONTINUOUS
 62
     5
 10
1059.586373231436
 20
-3.811493572528661
 30
0.0
 40
3.5
  1
±0.012
 50
90.0
  0
TEXT
  5
69B
  8
回07-寸法
  6
CONTINUOUS
 62
     5
 10
1059.586373231436
 20
8.788506427471245
 30
0.0
 40
5.0
  1
]
 50
90.0
  0
ENDBLK
  5
69D
  8
回08-記事
  6
CONTINUOUS
 62
     7
  0
BLOCK
  8
回08-記事
  2
*X85858585
 70
     1
 10
0.0
 20
0.0
 30
0.0
  3
*X85858585
  1

  0
TEXT
  5
6A0
  8
回08-記事
  6
CONTINUOUS
 62
     5
 10
563.4784165388846
 20
-253.8122081055222
 30
0.0
 40
5.0
  1
0.3
 50
90.0
  0
TEXT
  5
6A1
  8
回08-記事
  6
CONTINUOUS
 62
     5
 10
563.4784165388846
 20
-245.3122081055223
 30
0.0
 40
3.75
  1
±0.05
 50
90.0
  0
TEXT
  5
6A2
  8
回08-記事
  6
CONTINUOUS
 62
     5
 10
563.4784165388846
 20
-233.6872081055223
 30
0.0
 40
5.0
  1
[0.012
 50
90.0
  0
TEXT
  5
6A3
  8
回08-記事
  6
CONTINUOUS
 62
     5
 10
563.4784165388846
 20
-217.1872081055223
 30
0.0
 40
3.75
  1
±0.002
 50
90.0
  0
TEXT
  5
6A4
  8
回08-記事
  6
CONTINUOUS
 62
     5
 10
563.4784165388846
 20
-202.9372081055222
 30
0.0
 40
5.0
  1
]
 50
90.0
  0
ENDBLK
  5
6A6
  8
回08-記事
  6
CONTINUOUS
 62
     7
  0
BLOCK
  8
回08-記事
  2
*X86868686
 70
     1
 10
0.0
 20
0.0
 30
0.0
  3
*X86868686
  1

  0
TEXT
  5
6A9
  8
回08-記事
  6
CONTINUOUS
 62
     5
 10
997.7841020795496
 20
-252.2506923574908
 30
0.0
 40
5.0
  1
2.1
 50
90.0
  0
TEXT
  5
6AA
  8
回08-記事
  6
CONTINUOUS
 62
     5
 10
997.7841020795496
 20
-244.7506923574908
 30
0.0
 40
3.75
  1
±0.2
 50
90.0
  0
TEXT
  5
6AB
  8
回08-記事
  6
CONTINUOUS
 62
     5
 10
997.7841020795496
 20
-235.7506923574908
 30
0.0
 40
5.0
  1
[0.083
 50
90.0
  0
TEXT
  5
6AC
  8
回08-記事
  6
CONTINUOUS
 62
     5
 10
997.7841020795496
 20
-218.2506923574909
 30
0.0
 40
3.75
  1
±0.008
 50
90.0
  0
TEXT
  5
6AD
  8
回08-記事
  6
CONTINUOUS
 62
     5
 10
997.7841020795496
 20
-204.0006923574908
 30
0.0
 40
5.0
  1
]
 50
90.0
  0
ENDBLK
  5
6AF
  8
回08-記事
  6
CONTINUOUS
 62
     7
  0
BLOCK
  8
回08-記事
  2
*X87878787
 70
     1
 10
0.0
 20
0.0
 30
0.0
  3
*X87878787
  1

  0
TEXT
  5
6B2
  8
回08-記事
  6
CONTINUOUS
 62
     5
 10
534.6463909269308
 20
-108.8473953069133
 30
0.0
 40
5.0
  1
4-0.7
 50
90.0
  0
TEXT
  5
6B3
  8
回08-記事
  6
CONTINUOUS
 62
     5
 10
534.6463909269308
 20
-92.8473953069133
 30
0.0
 40
3.0
  1
±0.1
 50
90.0
  0
TEXT
  5
6B4
  8
回08-記事
  6
CONTINUOUS
 62
     5
 10
534.6463909269308
 20
-86.2473953069133
 30
0.0
 40
5.0
  1
[4-0.028
 50
90.0
  0
TEXT
  5
6B5
  8
回08-記事
  6
CONTINUOUS
 62
     5
 10
534.6463909269308
 20
-61.24739530691329
 30
0.0
 40
3.0
  1
±0.004
 50
90.0
  0
TEXT
  5
6B6
  8
回08-記事
  6
CONTINUOUS
 62
     5
 10
534.6463909269308
 20
-49.54739530691324
 30
0.0
 40
5.0
  1
]
 50
90.0
  0
ENDBLK
  5
6B8
  8
回08-記事
  6
CONTINUOUS
 62
     7
  0
BLOCK
  8
回08-記事
  2
*X88888888
 70
     1
 10
0.0
 20
0.0
 30
0.0
  3
*X88888888
  1

  0
TEXT
  5
6BB
  8
回08-記事
  6
CONTINUOUS
 62
     5
 10
513.8622688614605
 20
-107.5920684827994
 30
0.0
 40
5.0
  1
3.75
 50
90.0
  0
TEXT
  5
6BC
  8
回08-記事
  6
CONTINUOUS
 62
     5
 10
513.8622688614605
 20
-95.59206848279941
 30
0.0
 40
3.0
  1
±0.1
 50
90.0
  0
TEXT
  5
6BD
  8
回08-記事
  6
CONTINUOUS
 62
     5
 10
513.8622688614605
 20
-88.99206848279936
 30
0.0
 40
5.0
  1
[0.148
 50
90.0
  0
TEXT
  5
6BE
  8
回08-記事
  6
CONTINUOUS
 62
     5
 10
513.8622688614605
 20
-71.99206848279938
 30
0.0
 40
3.0
  1
±0.004
 50
90.0
  0
TEXT
  5
6BF
  8
回08-記事
  6
CONTINUOUS
 62
     5
 10
513.8622688614605
 20
-60.29206848279932
 30
0.0
 40
5.0
  1
]
 50
90.0
  0
ENDBLK
  5
6C1
  8
回08-記事
  6
CONTINUOUS
 62
     7
  0
BLOCK
  8
回08-記事
  2
*X89898989
 70
     1
 10
0.0
 20
0.0
 30
0.0
  3
*X89898989
  1

  0
TEXT
  5
6C4
  8
回08-記事
  6
CONTINUOUS
 62
     5
 10
525.0857428304271
 20
-107.3984130221605
 30
0.0
 40
5.0
  1
1.25
 50
90.0
  0
TEXT
  5
6C5
  8
回08-記事
  6
CONTINUOUS
 62
     5
 10
525.0857428304271
 20
-96.39841302216064
 30
0.0
 40
3.0
  1
±0.2
 50
90.0
  0
TEXT
  5
6C6
  8
回08-記事
  6
CONTINUOUS
 62
     5
 10
525.0857428304271
 20
-89.1984130221606
 30
0.0
 40
5.0
  1
[0.049
 50
90.0
  0
TEXT
  5
6C7
  8
回08-記事
  6
CONTINUOUS
 62
     5
 10
525.0857428304271
 20
-71.18036117952567
 30
0.0
 40
3.0
  1
±0.008
 50
90.0
  0
TEXT
  5
6C8
  8
回08-記事
  6
CONTINUOUS
 62
     5
 10
525.0857428304271
 20
-59.78036117952569
 30
0.0
 40
5.0
  1
]
 50
90.0
  0
ENDBLK
  5
6CA
  8
回08-記事
  6
CONTINUOUS
 62
     7
  0
BLOCK
  8
回08-記事
  2
*X90909090
 70
     1
 10
0.0
 20
0.0
 30
0.0
  3
*X90909090
  1

  0
TEXT
  5
6CD
  8
回08-記事
  6
CONTINUOUS
 62
     5
 10
504.2078933380816
 20
-105.4577890077009
 30
0.0
 40
5.0
  1
6.25
 50
90.0
  0
TEXT
  5
6CE
  8
回08-記事
  6
CONTINUOUS
 62
     5
 10
504.2078933380816
 20
-93.4577890077009
 30
0.0
 40
3.0
  1
±0.2
 50
90.0
  0
TEXT
  5
6CF
  8
回08-記事
  6
CONTINUOUS
 62
     5
 10
504.2078933380816
 20
-86.25778900770091
 30
0.0
 40
5.0
  1
[0.246
 50
90.0
  0
TEXT
  5
6D0
  8
回08-記事
  6
CONTINUOUS
 62
     5
 10
504.2078933380816
 20
-68.25778900770092
 30
0.0
 40
3.0
  1
±0.008
 50
90.0
  0
TEXT
  5
6D1
  8
回08-記事
  6
CONTINUOUS
 62
     5
 10
504.2078933380816
 20
-56.85778900770094
 30
0.0
 40
5.0
  1
]
 50
90.0
  0
ENDBLK
  5
6D3
  8
回08-記事
  6
CONTINUOUS
 62
     7
  0
BLOCK
  8
回08-記事
  2
*X91919191
 70
     1
 10
0.0
 20
0.0
 30
0.0
  3
*X91919191
  1

  0
TEXT
  5
6D6
  8
回08-記事
  6
CONTINUOUS
 62
     5
 10
362.2078933380816
 20
-238.4577890077009
 30
0.0
 40
5.0
  1
6.25
 50
90.0
  0
TEXT
  5
6D7
  8
回08-記事
  6
CONTINUOUS
 62
     5
 10
362.2078933380816
 20
-226.4577890077009
 30
0.0
 40
3.0
  1
±0.2
 50
90.0
  0
TEXT
  5
6D8
  8
回08-記事
  6
CONTINUOUS
 62
     5
 10
362.2078933380816
 20
-219.2577890077009
 30
0.0
 40
5.0
  1
[0.246
 50
90.0
  0
TEXT
  5
6D9
  8
回08-記事
  6
CONTINUOUS
 62
     5
 10
362.2078933380816
 20
-201.2577890077009
 30
0.0
 40
3.0
  1
±0.008
 50
90.0
  0
TEXT
  5
6DA
  8
回08-記事
  6
CONTINUOUS
 62
     5
 10
362.2078933380816
 20
-189.8577890077009
 30
0.0
 40
5.0
  1
]
 50
90.0
  0
ENDBLK
  5
6DC
  8
回08-記事
  6
CONTINUOUS
 62
     7
  0
BLOCK
  8
回08-記事
  2
*X92929292
 70
     1
 10
0.0
 20
0.0
 30
0.0
  3
*X92929292
  1

  0
TEXT
  5
6DF
  8
回08-記事
  6
CONTINUOUS
 62
     5
 10
383.0857428304271
 20
-240.3984130221606
 30
0.0
 40
5.0
  1
1.25
 50
90.0
  0
TEXT
  5
6E0
  8
回08-記事
  6
CONTINUOUS
 62
     5
 10
383.0857428304271
 20
-229.3984130221606
 30
0.0
 40
3.0
  1
±0.2
 50
90.0
  0
TEXT
  5
6E1
  8
回08-記事
  6
CONTINUOUS
 62
     5
 10
383.0857428304271
 20
-222.1984130221606
 30
0.0
 40
5.0
  1
[0.049
 50
90.0
  0
TEXT
  5
6E2
  8
回08-記事
  6
CONTINUOUS
 62
     5
 10
383.0857428304271
 20
-204.1803611795257
 30
0.0
 40
3.0
  1
±0.008
 50
90.0
  0
TEXT
  5
6E3
  8
回08-記事
  6
CONTINUOUS
 62
     5
 10
383.0857428304271
 20
-192.7803611795257
 30
0.0
 40
5.0
  1
]
 50
90.0
  0
ENDBLK
  5
6E5
  8
回08-記事
  6
CONTINUOUS
 62
     7
  0
BLOCK
  8
回08-記事
  2
*X93939393
 70
     1
 10
0.0
 20
0.0
 30
0.0
  3
*X93939393
  1

  0
TEXT
  5
6E8
  8
回08-記事
  6
CONTINUOUS
 62
     5
 10
371.8622688614605
 20
-240.5920684827994
 30
0.0
 40
5.0
  1
3.75
 50
90.0
  0
TEXT
  5
6E9
  8
回08-記事
  6
CONTINUOUS
 62
     5
 10
371.8622688614605
 20
-228.5920684827994
 30
0.0
 40
3.0
  1
±0.1
 50
90.0
  0
TEXT
  5
6EA
  8
回08-記事
  6
CONTINUOUS
 62
     5
 10
371.8622688614605
 20
-221.9920684827993
 30
0.0
 40
5.0
  1
[0.148
 50
90.0
  0
TEXT
  5
6EB
  8
回08-記事
  6
CONTINUOUS
 62
     5
 10
371.8622688614605
 20
-204.9920684827994
 30
0.0
 40
3.0
  1
±0.004
 50
90.0
  0
TEXT
  5
6EC
  8
回08-記事
  6
CONTINUOUS
 62
     5
 10
371.8622688614605
 20
-193.2920684827994
 30
0.0
 40
5.0
  1
]
 50
90.0
  0
ENDBLK
  5
6EE
  8
回08-記事
  6
CONTINUOUS
 62
     7
  0
BLOCK
  8
回08-記事
  2
*X94949494
 70
     1
 10
0.0
 20
0.0
 30
0.0
  3
*X94949494
  1

  0
TEXT
  5
6F1
  8
回08-記事
  6
CONTINUOUS
 62
     5
 10
392.646390926931
 20
-241.8473953069132
 30
0.0
 40
5.0
  1
4-0.7
 50
90.0
  0
TEXT
  5
6F2
  8
回08-記事
  6
CONTINUOUS
 62
     5
 10
392.646390926931
 20
-225.8473953069132
 30
0.0
 40
3.0
  1
±0.1
 50
90.0
  0
TEXT
  5
6F3
  8
回08-記事
  6
CONTINUOUS
 62
     5
 10
392.646390926931
 20
-219.2473953069132
 30
0.0
 40
5.0
  1
[4-0.028
 50
90.0
  0
TEXT
  5
6F4
  8
回08-記事
  6
CONTINUOUS
 62
     5
 10
392.646390926931
 20
-194.2473953069131
 30
0.0
 40
3.0
  1
±0.004
 50
90.0
  0
TEXT
  5
6F5
  8
回08-記事
  6
CONTINUOUS
 62
     5
 10
392.646390926931
 20
-182.5473953069132
 30
0.0
 40
5.0
  1
]
 50
90.0
  0
ENDBLK
  5
6F7
  8
回08-記事
  6
CONTINUOUS
 62
     7
  0
BLOCK
  8
回08-記事
  2
*X95959595
 70
     1
 10
0.0
 20
0.0
 30
0.0
  3
*X95959595
  1

  0
TEXT
  5
6FA
  8
回08-記事
  6
CONTINUOUS
 62
     5
 10
855.78410207955
 20
-385.1872081055221
 30
0.0
 40
5.0
  1
2.1
 50
90.0
  0
TEXT
  5
6FB
  8
回08-記事
  6
CONTINUOUS
 62
     5
 10
855.78410207955
 20
-377.6872081055221
 30
0.0
 40
3.75
  1
±0.2
 50
90.0
  0
TEXT
  5
6FC
  8
回08-記事
  6
CONTINUOUS
 62
     5
 10
855.78410207955
 20
-368.6872081055221
 30
0.0
 40
5.0
  1
[0.083
 50
90.0
  0
TEXT
  5
6FD
  8
回08-記事
  6
CONTINUOUS
 62
     5
 10
855.78410207955
 20
-351.1872081055221
 30
0.0
 40
3.75
  1
±0.008
 50
90.0
  0
TEXT
  5
6FE
  8
回08-記事
  6
CONTINUOUS
 62
     5
 10
855.78410207955
 20
-336.9372081055221
 30
0.0
 40
5.0
  1
]
 50
90.0
  0
ENDBLK
  5
700
  8
回08-記事
  6
CONTINUOUS
 62
     7
  0
BLOCK
  8
回08-記事
  2
*X96969696
 70
     1
 10
0.0
 20
0.0
 30
0.0
  3
*X96969696
  1

  0
TEXT
  5
703
  8
回08-記事
  6
CONTINUOUS
 62
     5
 10
421.4784165388846
 20
-386.8122081055223
 30
0.0
 40
5.0
  1
0.3
 50
90.0
  0
TEXT
  5
704
  8
回08-記事
  6
CONTINUOUS
 62
     5
 10
421.4784165388846
 20
-378.3122081055223
 30
0.0
 40
3.75
  1
±0.05
 50
90.0
  0
TEXT
  5
705
  8
回08-記事
  6
CONTINUOUS
 62
     5
 10
421.4784165388846
 20
-366.6872081055223
 30
0.0
 40
5.0
  1
[0.012
 50
90.0
  0
TEXT
  5
706
  8
回08-記事
  6
CONTINUOUS
 62
     5
 10
421.4784165388846
 20
-350.1872081055223
 30
0.0
 40
3.75
  1
±0.002
 50
90.0
  0
TEXT
  5
707
  8
回08-記事
  6
CONTINUOUS
 62
     5
 10
421.4784165388846
 20
-335.9372081055223
 30
0.0
 40
5.0
  1
]
 50
90.0
  0
ENDBLK
  5
709
  8
回08-記事
  6
CONTINUOUS
 62
     7
  0
BLOCK
  8
回08-記事
  2
*X97979797
 70
     1
 10
0.0
 20
0.0
 30
0.0
  3
*X97979797
  1

  0
TEXT
  5
70C
  8
回07-寸法
  6
CONTINUOUS
 62
     5
 10
917.5863732314363
 20
-175.2475972577987
 30
0.0
 40
5.0
  1
252
 50
90.0
  0
TEXT
  5
70D
  8
回07-寸法
  6
CONTINUOUS
 62
     5
 10
917.5863732314363
 20
-164.7475972577987
 30
0.0
 40
3.5
  1
±0.3
 50
90.0
  0
TEXT
  5
70E
  8
回07-寸法
  6
CONTINUOUS
 62
     5
 10
917.5863732314363
 20
-156.3475972577987
 30
0.0
 40
5.0
  1
 [9.921
 50
90.0
  0
TEXT
  5
70F
  8
回07-寸法
  6
CONTINUOUS
 62
     5
 10
917.5863732314363
 20
-136.8114935725289
 30
0.0
 40
3.5
  1
±0.012
 50
90.0
  0
TEXT
  5
710
  8
回07-寸法
  6
CONTINUOUS
 62
     5
 10
917.5863732314363
 20
-124.2114935725288
 30
0.0
 40
5.0
  1
]
 50
90.0
  0
ENDBLK
  5
712
  8
回08-記事
  6
CONTINUOUS
 62
     7
  0
BLOCK
  8
回08-記事
  2
*X98989898
 70
     1
 10
0.0
 20
0.0
 30
0.0
  3
*X98989898
  1

  0
TEXT
  5
715
  8
回07-寸法
  6
CONTINUOUS
 62
     5
 10
651.8986885707446
 20
38.61965291355
 30
0.0
 40
5.0
  1
328
  0
TEXT
  5
716
  8
回07-寸法
  6
CONTINUOUS
 62
     5
 10
662.3986885707446
 20
38.61965291355
 30
0.0
 40
3.5
  1
±0.3
  0
TEXT
  5
717
  8
回07-寸法
  6
CONTINUOUS
 62
     5
 10
670.7986885707446
 20
38.61965291355
 30
0.0
 40
5.0
  1
 [12.913
  0
TEXT
  5
718
  8
回07-寸法
  6
CONTINUOUS
 62
     5
 10
692.8167404133795
 20
38.61965291355
 30
0.0
 40
3.5
  1
±0.012
  0
TEXT
  5
719
  8
回07-寸法
  6
CONTINUOUS
 62
     5
 10
705.4167404133795
 20
38.61965291355
 30
0.0
 40
5.0
  1
]
  0
ENDBLK
  5
71B
  8
回08-記事
  6
CONTINUOUS
 62
     7
  0
BLOCK
  8
回08-記事
  2
*X99999999
 70
     1
 10
0.0
 20
0.0
 30
0.0
  3
*X99999999
  1

  0
TEXT
  5
71E
  8
回07-寸法
  6
CONTINUOUS
 62
     5
 10
454.2406286362525
 20
-103.2162767737052
 30
0.0
 40
5.0
  1
80
  0
TEXT
  5
71F
  8
回07-寸法
  6
CONTINUOUS
 62
     5
 10
461.2406286362523
 20
-103.2162767737052
 30
0.0
 40
3.75
  1
±1.0
  0
TEXT
  5
720
  8
回07-寸法
  6
CONTINUOUS
 62
     5
 10
469.4906286362525
 20
-103.2162767737052
 30
0.0
 40
5.0
  1
[3.150
  0
TEXT
  5
721
  8
回07-寸法
  6
CONTINUOUS
 62
     5
 10
485.9906286362525
 20
-103.2162767737052
 30
0.0
 40
3.75
  1
±0.039
  0
TEXT
  5
722
  8
回07-寸法
  6
CONTINUOUS
 62
     5
 10
500.2541675182285
 20
-103.2162767737052
 30
0.0
 40
5.0
  1
]
  0
ENDBLK
  5
724
  8
回08-記事
  6
CONTINUOUS
 62
     7
  0
ENDSEC
  0
SECTION
  2
ENTITIES
  0
TEXT
  5
D2
  8
回03-記事
  6
CONTINUOUS
 62
     5
 10
529.933596712926
 20
-438.8852793160022
 30
0.0
 40
8.640000000000002
  1
without affecting product specification.
  0
TEXT
  5
D4
  8
回03-記事
  6
CONTINUOUS
 62
     5
 10
529.933596712926
 20
-423.7298090304421
 30
0.0
 40
8.640000000000002
  1
Edges and corners of ITO glass may be chamfered 
  0
TEXT
  5
D5
  8
回03-記事
  6
CONTINUOUS
 62
     5
 10
529.933596712926
 20
-408.5743387448824
 30
0.0
 40
8.640000000000002
  1
Unit: mm
  0
TEXT
  5
D6
  8
回03-記事
  6
CONTINUOUS
 62
     5
 10
529.933596712926
 20
-393.4188684593231
 30
0.0
 40
8.640000000000002
  1
EXCEPT WHERE INDICATED
  0
TEXT
  5
D7
  8
回03-記事
  6
CONTINUOUS
 62
     5
 10
529.933596712926
 20
-378.2633981737637
 30
0.0
 40
8.640000000000002
  1
TOLERANCE=±0.5mm
  0
TEXT
  5
D8
  8
回07-寸法
  6
CONTINUOUS
 62
     5
 10
460.79287454684
 20
-133.2308965738399
 30
0.0
 40
4.0
  1
PROTECTION TAPE
1001
ACAD
1000
MTEXTBEGIN
1070
    73
1070
     1
1070
    44
1040
1.0
1070
    74
1070
     0
1000
MTEXTEND
  0
INSERT
  5
DC
  8
回07-寸法
  6
CONTINUOUS
 62
     7
 66
     1
  2
*X69696969
 10
0.0
 20
0.0
 30
0.0
  0
SEQEND
  5
5E7
  8
回08-記事
  6
CONTINUOUS
 62
     7
  0
DIMENSION
  5
DD
  8
回08-記事
  6
CONTINUOUS
 62
     7
  2
*D35353535
 10
445.6577144920618
 20
-363.8566490392841
 30
0.0
 11
465.9147719094423
 21
-360.605340798231
 31
0.0
 70
    32
  1
(<>)
  3
DMC
 13
435.657714492062
 23
-330.187208105522
 33
0.0
 14
445.6577144920618
 24
-330.187208105522
 34
0.0
  0
DIMENSION
  5
EF
  8
回08-記事
  6
CONTINUOUS
 62
     7
  2
*D36363636
 10
511.4699581694021
 20
-169.4858283219837
 30
0.0
 11
487.4612223431666
 21
-169.4858283219837
 31
0.0
 70
   160
  1
4.39 [0.173]
  3
DMC
 13
515.657714492062
 23
-157.4117002019373
 33
0.0
 14
511.4699581694021
 24
-156.7345758574701
 34
0.0
  0
LINE
  5
100
  8
回90-A1和
  6
CONTINUOUS
 62
     7
 10
835.813463376413
 20
-392.9403361962662
 30
0.0
 11
1115.813463376413
 21
-392.9403361962662
 31
0.0
  0
LINE
  5
104
  8
回08-記事
 62
     5
 10
399.6241755294623
 20
-246.8573953069132
 30
0.0
 11
423.0430583198667
 21
-246.8573953069132
 31
0.0
  0
LINE
  5
105
  8
回08-記事
 62
     5
 10
399.6241755294623
 20
-251.3573953069132
 30
0.0
 11
423.0430583198667
 21
-251.3573953069132
 31
0.0
  0
LINE
  5
106
  8
回08-記事
 62
     5
 10
399.6241755294621
 20
-260.3573953069132
 30
0.0
 11
423.0430583198667
 21
-260.3573953069132
 31
0.0
  0
TEXT
  5
107
  8
回08-記事
  6
CONTINUOUS
 62
     5
 10
352.6180577184681
 20
-277.6372280479402
 30
0.0
 40
5.0
  1
2-R0.5[R0.020]
1001
ACAD
1000
MTEXTBEGIN
1070
    73
1070
     1
1070
    44
1040
1.0
1070
    74
1070
     0
1000
MTEXTEND
  0
INSERT
  5
108
  8
回08-記事
  6
CONTINUOUS
 62
     7
 66
     1
  2
*X70707070
 10
0.0
 20
0.0
 30
0.0
  0
SEQEND
  5
5EE
  8
回08-記事
  6
CONTINUOUS
 62
     7
  0
DIMENSION
  5
109
  8
回08-記事
  6
CONTINUOUS
 62
     5
  2
*D37373737
 10
362.9578933380817
 20
-264.8573953069132
 30
0.0
 11
362.9578933380817
 21
-213.1577890077009
 31
0.0
 70
   160
  1
6.25{\H0.6x;±0.2}[0.246{\H0.6x;±0.008}]
  3
DMC
 13
401.4241755294622
 23
-242.3573953069133
 33
0.0
 14
401.4241755294619
 24
-264.8573953069132
 34
0.0
 50
270.0
  0
DIMENSION
  5
118
  8
回08-記事
  6
CONTINUOUS
 62
     5
  2
*D38383838
 10
383.8357428304271
 20
-246.8573953069132
 30
0.0
 11
383.8357428304271
 21
-215.5893871008432
 31
0.0
 70
   160
  1
1.25{\H0.6x;±0.2}[0.049{\H0.6x;±0.008}]
  3
DMC
 13
399.6241755294623
 23
-251.3573953069132
 33
0.0
 14
399.6241755294623
 24
-246.8573953069132
 34
0.0
 50
270.0
  0
DIMENSION
  5
127
  8
回08-記事
  6
CONTINUOUS
 62
     5
  2
*D39393939
 10
372.6122688614605
 20
-260.3573953069132
 30
0.0
 11
372.6122688614605
 21
-215.9420684827994
 31
0.0
 70
   160
  1
3.75{\H0.6x;±0.1}[0.148{\H0.6x;±0.004}]
  3
DMC
 13
399.6241755294623
 23
-246.8573953069132
 33
0.0
 14
399.6241755294621
 24
-260.3573953069132
 34
0.0
 50
270.0
  0
DIMENSION
  5
136
  8
回08-記事
  6
CONTINUOUS
 62
     5
  2
*D40404040
 10
393.3963909269309
 20
-245.5973953069132
 30
0.0
 11
393.3963909269309
 21
-211.1973953069132
 31
0.0
 70
   160
  1
4-0.7{\H0.6x;±0.1}[4-0.028{\H0.6x;±0.004}]
  3
DMC
 13
399.6241755294623
 23
-248.1173953069132
 33
0.0
 14
399.6241755294623
 24
-245.5973953069132
 34
0.0
 50
270.0
  0
LINE
  5
145
  8
回08-記事
  6
CONTINUOUS
 62
     7
 10
417.6241755294625
 20
-242.3573953069133
 30
0.0
 11
417.6241755294625
 21
-264.8573953069132
 31
0.0
  0
ARC
  5
146
  8
回08-記事
  6
CONTINUOUS
 62
     7
 10
401.4241755294619
 20
-263.0573953069132
 30
0.0
 40
1.799999999999999
 50
180.0
 51
270.0
  0
ARC
  5
147
  8
回08-記事
  6
CONTINUOUS
 62
     7
 10
401.4241755294622
 20
-244.1573953069134
 30
0.0
 40
1.799999999999999
 50
90.0
 51
180.0
  0
LINE
  5
148
  8
回08-記事
  6
CONTINUOUS
 62
     7
 10
441.2609925328911
 20
-264.8573953069132
 30
0.0
 11
401.4241755294619
 21
-264.8573953069132
 31
0.0
  0
LINE
  5
149
  8
回08-記事
  6
CONTINUOUS
 62
     7
 10
441.1070490087708
 20
-242.3573953069132
 30
0.0
 11
401.4241755294622
 21
-242.3573953069132
 31
0.0
  0
LINE
  5
14A
  8
回08-記事
  6
CONTINUOUS
 62
     7
 10
399.6241755294623
 20
-244.1573953069132
 30
0.0
 11
399.6241755294623
 21
-263.0573953069131
 31
0.0
  0
POLYLINE
  5
14B
  8
回08-記事
  6
CONTINUOUS
 62
     8
 66
     1
 10
0.0
 20
0.0
 30
0.0
 40
2.519999999999999
 41
2.519999999999999
  0
VERTEX
  5
DE9
  8
回08-記事
  6
CONTINUOUS
 62
     8
 10
399.6241755294623
 20
-251.3573953069132
 30
0.0
  0
VERTEX
  5
DEB
  8
回08-記事
  6
CONTINUOUS
 62
     8
 10
417.6241755294622
 20
-251.3573953069132
 30
0.0
  0
SEQEND
  5
DEA
  8
回08-記事
  6
CONTINUOUS
 62
     7
  0
POLYLINE
  5
14C
  8
回08-記事
  6
CONTINUOUS
 62
     8
 66
     1
 10
0.0
 20
0.0
 30
0.0
 40
2.519999999999999
 41
2.519999999999999
  0
VERTEX
  5
DEC
  8
回08-記事
  6
CONTINUOUS
 62
     8
 10
399.6241755294621
 20
-260.3573953069132
 30
0.0
  0
VERTEX
  5
DEE
  8
回08-記事
  6
CONTINUOUS
 62
     8
 10
417.6241755294618
 20
-260.3573953069132
 30
0.0
  0
SEQEND
  5
DED
  8
回08-記事
  6
CONTINUOUS
 62
     7
  0
POLYLINE
  5
14D
  8
回08-記事
  6
CONTINUOUS
 62
     8
 66
     1
 10
0.0
 20
0.0
 30
0.0
  0
VERTEX
  5
DEF
  8
回08-記事
  6
CONTINUOUS
 62
     8
 10
417.6241755294622
 20
-255.8573953069132
 30
0.0
 40
2.519999999999999
 41
2.519999999999999
  0
VERTEX
  5
DF1
  8
回08-記事
  6
CONTINUOUS
 62
     8
 10
399.6241755294623
 20
-255.8573953069132
 30
0.0
  0
SEQEND
  5
DF0
  8
回08-記事
  6
CONTINUOUS
 62
     7
  0
POLYLINE
  5
14E
  8
回08-記事
  6
CONTINUOUS
 62
     8
 66
     1
 10
0.0
 20
0.0
 30
0.0
  0
VERTEX
  5
DF2
  8
回08-記事
  6
CONTINUOUS
 62
     8
 10
417.6241755294622
 20
-246.8573953069132
 30
0.0
 40
2.519999999999999
 41
2.519999999999999
  0
VERTEX
  5
DF4
  8
回08-記事
  6
CONTINUOUS
 62
     8
 10
399.6241755294623
 20
-246.8573953069132
 30
0.0
  0
SEQEND
  5
DF3
  8
回08-記事
  6
CONTINUOUS
 62
     7
  0
TEXT
  5
14F
  8
回08-記事
  6
CONTINUOUS
 62
     7
 10
404.8924618817068
 20
-229.6497761825465
 30
0.0
 40
5.0
  1
SECTION A
  0
LINE
  5
150
  8
回08-記事
  6
CONTINUOUS
 62
     5
 10
437.9586671083229
 20
-323.1658972592239
 30
0.0
 11
414.2339853510223
 21
-309.9066392543378
 31
0.0
  0
TEXT
  5
151
  8
回08-記事
  6
CONTINUOUS
 62
     5
 10
377.2395639185461
 20
-308.5003555701431
 30
0.0
 40
5.0
  1
TRACE EXPOSE
  0
LINE
  5
152
  8
回08-記事
  6
CONTINUOUS
 62
     7
 10
843.157714492062
 20
-323.1872081055225
 30
0.0
 11
843.157714492062
 21
-320.187208105522
 31
0.0
  0
LINE
  5
153
  8
回08-記事
  6
CONTINUOUS
 62
     5
 10
516.5683436343223
 20
-332.5912085405729
 30
0.0
 11
528.3183827501152
 21
-340.4155627655704
 31
0.0
  0
TEXT
  5
154
  8
回08-記事
  6
CONTINUOUS
 62
     5
 10
529.5235144389088
 20
-344.0274128433033
 30
0.0
 40
5.0
  1
PROTECTION TAPE
  0
LINE
  5
155
  8
回08-記事
  6
CONTINUOUS
 62
     7
 10
519.157714492062
 20
-332.5912085405729
 30
0.0
 11
519.157714492062
 21
-331.187208105522
 31
0.0
  0
LINE
  5
156
  8
回08-記事
  6
CONTINUOUS
 62
     7
 10
514.1337527533123
 20
-332.5912085405729
 30
0.0
 11
519.157714492062
 21
-332.5912085405729
 31
0.0
  0
LINE
  5
157
  8
回08-記事
  6
CONTINUOUS
 62
     7
 10
514.1337527533123
 20
-328.6236941999372
 30
0.0
 11
514.1337527533123
 21
-332.5912085405729
 31
0.0
  0
LINE
  5
158
  8
回08-記事
  6
CONTINUOUS
 62
     7
 10
511.4662314876618
 20
-328.6236941999372
 30
0.0
 11
514.1337527533123
 21
-328.6236941999372
 31
0.0
  0
LINE
  5
159
  8
回08-記事
  6
CONTINUOUS
 62
     7
 10
511.4662314876618
 20
-327.187208105522
 30
0.0
 11
511.4662314876618
 21
-328.6236941999372
 31
0.0
  0
TEXT
  5
15A
  8
回08-記事
  6
CONTINUOUS
 62
     5
 10
488.4748226515352
 20
-337.0293444478024
 30
0.0
 40
4.0
  1
LOT LABEL
1001
ACAD
1000
MTEXTBEGIN
1070
    73
1070
     1
1070
    44
1040
1.0
1070
    74
1070
     0
1000
MTEXTEND
  0
INSERT
  5
15B
  8
回08-記事
  6
CONTINUOUS
 62
     7
 66
     1
  2
*X71717171
 10
0.0
 20
0.0
 30
0.0
  0
SEQEND
  5
601
  8
回08-記事
  6
CONTINUOUS
 62
     7
  0
POLYLINE
  5
15C
  8
回08-記事
  6
CONTINUOUS
 62
     7
 66
     1
 10
0.0
 20
0.0
 30
0.0
 70
     1
  0
VERTEX
  5
DF5
  8
回08-記事
  6
CONTINUOUS
 62
     7
 10
478.9776709812938
 20
-327.7872081055219
 30
0.0
  0
VERTEX
  5
DF7
  8
回08-記事
  6
CONTINUOUS
 62
     7
 10
504.977670981293
 20
-327.7872081055219
 30
0.0
  0
VERTEX
  5
DF8
  8
回08-記事
  6
CONTINUOUS
 62
     7
 10
504.977670981293
 20
-327.187208105522
 30
0.0
  0
VERTEX
  5
DF9
  8
回08-記事
  6
CONTINUOUS
 62
     7
 10
478.9776709812938
 20
-327.187208105522
 30
0.0
  0
SEQEND
  5
DF6
  8
回08-記事
  6
CONTINUOUS
 62
     7
  0
ARC
  5
15D
  8
回08-記事
  6
CONTINUOUS
 62
     7
 10
820.657714492062
 20
-327.187208105522
 30
0.0
 40
1.0
 50
0.0
 51
180.0
  0
ARC
  5
15E
  8
回08-記事
  6
CONTINUOUS
 62
     7
 10
830.657714492062
 20
-327.187208105522
 30
0.0
 40
1.0
 50
0.0
 51
180.0
  0
LINE
  5
15F
  8
回08-記事
  6
CONTINUOUS
 62
     7
 10
843.6577144920624
 20
-331.187208105522
 30
0.0
 11
843.6577144920624
 21
-323.1872081055225
 31
0.0
  0
LINE
  5
160
  8
回08-記事
  6
CONTINUOUS
 62
     7
 10
833.6577144920621
 20
-323.187208105522
 30
0.0
 11
833.6577144920621
 21
-327.187208105522
 31
0.0
  0
DIMENSION
  5
161
  8
回08-記事
  6
CONTINUOUS
 62
     5
  2
*D41414141
 10
856.5341020795496
 20
-331.187208105522
 30
0.0
 11
853.2841020795498
 21
-360.062208105522
 31
0.0
 70
    32
  1
2.1{\H0.75x;±0.2}[0.083{\H0.75x;±0.008}]
  3
DMC
 13
843.157714492062
 23
-320.187208105522
 33
0.0
 14
843.6577144920621
 24
-331.187208105522
 34
0.0
 50
90.0
  0
ARC
  5
172
  8
回08-記事
  6
CONTINUOUS
 62
     7
 10
800.6577144920621
 20
-327.187208105522
 30
0.0
 40
1.0
 50
0.0
 51
180.0
  0
ARC
  5
173
  8
回08-記事
  6
CONTINUOUS
 62
     7
 10
810.657714492062
 20
-327.187208105522
 30
0.0
 40
1.0
 50
0.0
 51
180.0
  0
ARC
  5
174
  8
回08-記事
  6
CONTINUOUS
 62
     7
 10
770.657714492062
 20
-327.187208105522
 30
0.0
 40
1.0
 50
0.0
 51
180.0
  0
ARC
  5
175
  8
回08-記事
  6
CONTINUOUS
 62
     7
 10
780.657714492062
 20
-327.187208105522
 30
0.0
 40
1.0
 50
0.0
 51
180.0
  0
ARC
  5
176
  8
回08-記事
  6
CONTINUOUS
 62
     7
 10
790.657714492062
 20
-327.187208105522
 30
0.0
 40
1.0
 50
0.0
 51
180.0
  0
ARC
  5
177
  8
回08-記事
  6
CONTINUOUS
 62
     7
 10
750.657714492062
 20
-327.187208105522
 30
0.0
 40
1.0
 50
0.0
 51
180.0
  0
ARC
  5
178
  8
回08-記事
  6
CONTINUOUS
 62
     7
 10
760.657714492062
 20
-327.187208105522
 30
0.0
 40
1.0
 50
0.0
 51
180.0
  0
ARC
  5
179
  8
回08-記事
  6
CONTINUOUS
 62
     7
 10
720.657714492062
 20
-327.187208105522
 30
0.0
 40
1.0
 50
0.0
 51
180.0
  0
ARC
  5
17A
  8
回08-記事
  6
CONTINUOUS
 62
     7
 10
730.657714492062
 20
-327.187208105522
 30
0.0
 40
1.0
 50
0.0
 51
180.0
  0
ARC
  5
17B
  8
回08-記事
  6
CONTINUOUS
 62
     7
 10
740.657714492062
 20
-327.187208105522
 30
0.0
 40
1.0
 50
0.0
 51
180.0
  0
ARC
  5
17C
  8
回08-記事
  6
CONTINUOUS
 62
     7
 10
700.657714492062
 20
-327.187208105522
 30
0.0
 40
1.0
 50
0.0
 51
180.0
  0
ARC
  5
17D
  8
回08-記事
  6
CONTINUOUS
 62
     7
 10
710.657714492062
 20
-327.187208105522
 30
0.0
 40
1.0
 50
0.0
 51
180.0
  0
ARC
  5
17E
  8
回08-記事
  6
CONTINUOUS
 62
     7
 10
670.657714492062
 20
-327.187208105522
 30
0.0
 40
1.0
 50
0.0
 51
180.0
  0
ARC
  5
17F
  8
回08-記事
  6
CONTINUOUS
 62
     7
 10
680.657714492062
 20
-327.187208105522
 30
0.0
 40
1.0
 50
0.0
 51
180.0
  0
ARC
  5
180
  8
回08-記事
  6
CONTINUOUS
 62
     7
 10
690.657714492062
 20
-327.187208105522
 30
0.0
 40
1.0
 50
0.0
 51
180.0
  0
ARC
  5
181
  8
回08-記事
  6
CONTINUOUS
 62
     7
 10
650.657714492062
 20
-327.187208105522
 30
0.0
 40
1.0
 50
0.0
 51
180.0
  0
ARC
  5
182
  8
回08-記事
  6
CONTINUOUS
 62
     7
 10
660.657714492062
 20
-327.187208105522
 30
0.0
 40
1.0
 50
0.0
 51
180.0
  0
ARC
  5
183
  8
回08-記事
  6
CONTINUOUS
 62
     7
 10
630.657714492062
 20
-327.187208105522
 30
0.0
 40
1.0
 50
0.0
 51
180.0
  0
ARC
  5
184
  8
回08-記事
  6
CONTINUOUS
 62
     7
 10
640.657714492062
 20
-327.187208105522
 30
0.0
 40
1.0
 50
0.0
 51
180.0
  0
TEXT
  5
185
  8
回08-記事
  6
CONTINUOUS
 62
     5
 10
647.8125653190208
 20
-311.8814947066852
 30
0.0
 40
5.0
  1
ITO FILM (ANTI-GLARE)
  0
ARC
  5
186
  8
回08-記事
  6
CONTINUOUS
 62
     7
 10
600.657714492062
 20
-327.187208105522
 30
0.0
 40
1.0
 50
0.0
 51
180.0
  0
ARC
  5
187
  8
回08-記事
  6
CONTINUOUS
 62
     7
 10
610.657714492062
 20
-327.187208105522
 30
0.0
 40
1.0
 50
0.0
 51
180.0
  0
ARC
  5
188
  8
回08-記事
  6
CONTINUOUS
 62
     7
 10
580.657714492062
 20
-327.187208105522
 30
0.0
 40
1.0
 50
0.0
 51
180.0
  0
ARC
  5
189
  8
回08-記事
  6
CONTINUOUS
 62
     7
 10
590.657714492062
 20
-327.187208105522
 30
0.0
 40
1.0
 50
0.0
 51
180.0
  0
ARC
  5
18A
  8
回08-記事
  6
CONTINUOUS
 62
     7
 10
620.657714492062
 20
-327.187208105522
 30
0.0
 40
1.0
 50
0.0
 51
180.0
  0
LINE
  5
18B
  8
回08-記事
  6
CONTINUOUS
 62
     5
 10
630.531780088475
 20
-330.1156755803207
 30
0.0
 11
642.2818192042678
 21
-337.6403602171034
 31
0.0
  0
ARC
  5
18C
  8
回08-記事
  6
CONTINUOUS
 62
     7
 10
550.657714492062
 20
-327.187208105522
 30
0.0
 40
1.0
 50
0.0
 51
180.0
  0
ARC
  5
18D
  8
回08-記事
  6
CONTINUOUS
 62
     7
 10
560.657714492062
 20
-327.187208105522
 30
0.0
 40
1.0
 50
0.0
 51
180.0
  0
ARC
  5
18E
  8
回08-記事
  6
CONTINUOUS
 62
     7
 10
530.657714492062
 20
-327.187208105522
 30
0.0
 40
1.0
 50
0.0
 51
180.0
  0
ARC
  5
18F
  8
回08-記事
  6
CONTINUOUS
 62
     7
 10
540.657714492062
 20
-327.187208105522
 30
0.0
 40
1.0
 50
0.0
 51
180.0
  0
LINE
  5
190
  8
回08-記事
  6
CONTINUOUS
 62
     7
 10
526.657714492062
 20
-323.187208105522
 30
0.0
 11
526.657714492062
 21
-327.187208105522
 31
0.0
  0
LINE
  5
191
  8
回08-記事
  6
CONTINUOUS
 62
     7
 10
516.157714492062
 20
-323.187208105522
 30
0.0
 11
516.157714492062
 21
-320.187208105522
 31
0.0
  0
TEXT
  5
192
  8
回08-記事
  6
CONTINUOUS
 62
     5
 10
452.7291776565155
 20
-308.3516909721361
 30
0.0
 40
5.0
  1
REINFORCEMENT FILM
  0
LINE
  5
193
  8
回08-記事
  6
CONTINUOUS
 62
     7
 10
515.657714492062
 20
-331.187208105522
 30
0.0
 11
515.657714492062
 21
-327.187208105522
 31
0.0
  0
LINE
  5
194
  8
回08-記事
  6
CONTINUOUS
 62
     5
 10
476.4947612981586
 20
-325.1198084184779
 30
0.0
 11
470.8557936033228
 21
-332.2380944028917
 31
0.0
  0
TEXT
  5
195
  8
回08-記事
  6
CONTINUOUS
 62
     5
 10
464.1007043931038
 20
-340.1128083547277
 30
0.0
 40
5.0
  1
TAIL
  0
LINE
  5
196
  8
回08-記事
  6
CONTINUOUS
 62
     5
 10
637.2676578920227
 20
-321.5130914566456
 30
0.0
 11
647.8125653190208
 21
-310.9785308907543
 31
0.0
  0
TEXT
  5
197
  8
回08-記事
  6
CONTINUOUS
 62
     5
 10
643.4869508930614
 20
-341.2522102948364
 30
0.0
 40
5.0
  1
ITO GLASS
  0
ARC
  5
198
  8
回08-記事
  6
CONTINUOUS
 62
     7
 10
570.657714492062
 20
-327.187208105522
 30
0.0
 40
1.0
 50
0.0
 51
180.0
  0
LINE
  5
199
  8
回08-記事
  6
CONTINUOUS
 62
     7
 10
440.6577144920619
 20
-323.1872081055225
 30
0.0
 11
440.6577144920619
 21
-322.1872081055225
 31
0.0
  0
DIMENSION
  5
19A
  8
回08-記事
  6
CONTINUOUS
 62
     5
  2
*D42424242
 10
440.6577144920619
 20
-301.7459642857852
 30
0.0
 11
456.9167404133795
 21
-298.4946560447322
 31
0.0
 70
    32
  3
DMC
 13
435.657714492062
 23
-323.187208105522
 33
0.0
 14
440.6577144920619
 24
-323.1872081055225
 34
0.0
  0
TEXT
  5
1AB
  8
回08-記事
  6
CONTINUOUS
 62
     5
 10
472.3569248045651
 20
-352.8623441888092
 30
0.0
 40
5.0
  1
STIFFENER
  0
LINE
  5
1AC
  8
回08-記事
  6
CONTINUOUS
 62
     7
 10
445.6577144920618
 20
-330.187208105522
 30
0.0
 11
445.6577144920618
 21
-327.187208105522
 31
0.0
  0
LINE
  5
1AD
  8
回08-記事
  6
CONTINUOUS
 62
     7
 10
445.6577144920618
 20
-330.187208105522
 30
0.0
 11
435.657714492062
 21
-330.187208105522
 31
0.0
  0
LINE
  5
1AE
  8
回08-記事
  6
CONTINUOUS
 62
     5
 10
471.6063603993157
 20
-348.3625088152626
 30
0.0
 11
442.68736702766
 21
-329.1445241403228
 31
0.0
  0
LINE
  5
1AF
  8
回08-記事
  6
CONTINUOUS
 62
     7
 10
435.657714492062
 20
-330.187208105522
 30
0.0
 11
435.657714492062
 21
-323.187208105522
 31
0.0
  0
DIMENSION
  5
1B0
  8
回08-記事
  6
CONTINUOUS
 62
     5
  2
*D43434343
 10
422.2284165388846
 20
-330.187208105522
 30
0.0
 11
422.2284165388846
 21
-360.3766766094592
 31
0.0
 70
   160
  1
0.3{\H0.75x;±0.05}[0.012{\H0.75x;±0.002}]
  3
DMC
 13
435.657714492062
 23
-323.187208105522
 33
0.0
 14
435.657714492062
 24
-330.187208105522
 34
0.0
 50
90.0
  0
LINE
  5
1C1
  8
回08-記事
  6
CONTINUOUS
 62
     5
 10
467.7690457826356
 20
-322.4881672042951
 30
0.0
 11
466.0697615040665
 21
-309.168202244703
 31
0.0
  0
LINE
  5
1C2
  8
回08-記事
  6
CONTINUOUS
 62
     7
 10
516.1577144920618
 20
-322.187208105522
 30
0.0
 11
440.6577144920619
 21
-322.187208105522
 31
0.0
  0
LINE
  5
1C3
  8
回08-記事
  6
CONTINUOUS
 62
     7
 10
843.6577144920621
 20
-323.1872081055225
 30
0.0
 11
435.657714492062
 21
-323.1872081055225
 31
0.0
  0
LINE
  5
1C4
  8
回08-記事
  6
CONTINUOUS
 62
     7
 10
843.6577144920621
 20
-327.187208105522
 30
0.0
 11
435.657714492062
 21
-327.187208105522
 31
0.0
  0
LINE
  5
1C5
  8
回08-記事
  6
CONTINUOUS
 62
     7
 10
843.157714492062
 20
-320.187208105522
 30
0.0
 11
516.1577144920616
 21
-320.187208105522
 31
0.0
  0
LINE
  5
1C6
  8
回08-記事
  6
CONTINUOUS
 62
     7
 10
843.6577144920621
 20
-331.187208105522
 30
0.0
 11
515.657714492062
 21
-331.187208105522
 31
0.0
  0
LINE
  5
1C7
  8
回08-記事
  6
CONTINUOUS
 62
     7
 10
843.5577144920619
 20
-265.2295454151639
 30
0.0
 11
834.6577144920621
 21
-265.2295454151639
 31
0.0
  0
LINE
  5
1C8
  8
回08-記事
  6
CONTINUOUS
 62
     7
 10
843.5577144920619
 20
-267.2295454151639
 30
0.0
 11
834.5577144920619
 21
-267.2295454151639
 31
0.0
  0
TEXT
  5
1C9
  8
回07-寸法
  6
CONTINUOUS
 62
     7
 10
915.1985711144883
 20
-337.909898593111
 30
0.0
 40
5.0
  1
(INSULATION AREA)
 50
90.0
  0
TEXT
  5
1CA
  8
回07-寸法
  6
CONTINUOUS
 62
     7
 10
915.1985711144883
 20
-18.99397231667819
 30
0.0
 40
5.0
  1
(INSULATION AREA)
 50
90.0
  0
TEXT
  5
1CB
  8
回07-寸法
  6
CONTINUOUS
 62
     7
 10
846.2564458935862
 20
22.0507921049093
 30
0.0
 40
5.0
  1
(INSULATION AREA)
  0
TEXT
  5
1CC
  8
回07-寸法
  6
CONTINUOUS
 62
     7
 10
454.1280398236303
 20
36.81081453030834
 30
0.0
 40
5.0
  1
(INSULATION AREA)
  0
DIMENSION
  5
1CD
  8
回07-寸法
  6
CONTINUOUS
 62
     7
  2
*D44444444
 10
908.1354350631816
 20
-274.729545415164
 30
0.0
 11
908.1354350631816
 21
-294.2295454151643
 31
0.0
 70
   160
  3
DMC
 13
835.157714492062
 23
-266.0295454151639
 33
0.0
 14
843.6577144920621
 24
-274.729545415164
 34
0.0
 50
90.0
  0
DIMENSION
  5
1DF
  8
回07-寸法
  6
CONTINUOUS
 62
     7
  2
*D45454545
 10
908.1354350631848
 20
-266.0295454151639
 30
0.0
 11
904.8854350631852
 21
-148.7295454151639
 31
0.0
 70
    32
  3
DMC
 13
835.157714492062
 23
-31.42954541516394
 33
0.0
 14
835.157714492062
 24
-266.0295454151639
 34
0.0
 50
90.0
  0
DIMENSION
  5
1EE
  8
回07-寸法
  6
CONTINUOUS
 62
     7
  2
*D46464646
 10
908.1354350631816
 20
-22.72954541516384
 30
0.0
 11
908.1354350631816
 21
-3.22954541516384
 31
0.0
 70
   160
  3
DMC
 13
835.157714492062
 23
-31.42954541516394
 33
0.0
 14
843.6577144920621
 24
-22.72954541516384
 34
0.0
 50
90.0
  0
DIMENSION
  5
1FF
  8
回07-寸法
  6
CONTINUOUS
 62
     7
  2
*D47474747
 10
843.6577144920621
 20
28.88976698370516
 30
0.0
 11
862.907714492062
 21
28.88976698370516
 31
0.0
 70
   160
  3
DMC
 13
835.157714492062
 23
-31.42954541516394
 33
0.0
 14
843.6577144920621
 24
-22.72954541516384
 34
0.0
  0
DIMENSION
  5
210
  8
回07-寸法
  6
CONTINUOUS
 62
     7
  2
*D48484848
 10
515.657714492062
 20
28.88976698370516
 30
0.0
 11
496.0541611014686
 21
28.88976698370516
 31
0.0
 70
   160
  3
DMC
 13
525.157714492062
 23
-31.42954541516394
 33
0.0
 14
515.657714492062
 24
-22.7295454151639
 34
0.0
  0
DIMENSION
  5
221
  8
回07-寸法
  6
CONTINUOUS
 62
     7
  2
*D49494949
 10
525.157714492062
 20
28.88976698370516
 30
0.0
 11
680.157714492062
 21
32.13976698370516
 31
0.0
 70
    32
  3
DMC
 13
835.157714492062
 23
-31.42954541516394
 33
0.0
 14
525.157714492062
 24
-31.42954541516394
 34
0.0
  0
DIMENSION
  5
230
  8
回07-寸法
  6
CONTINUOUS
 62
     5
  2
*D50505050
 10
415.5029862366857
 20
-148.7295454151639
 30
0.0
 11
412.2516779956326
 21
-85.72954541516391
 31
0.0
 70
    32
  3
DMC
 13
515.657714492062
 23
-22.7295454151639
 33
0.0
 14
433.8040618786599
 24
-148.7295454151639
 34
0.0
 50
90.0
  0
DIMENSION
  5
240
  8
回07-寸法
  6
CONTINUOUS
 62
     5
  2
*D51515151
 10
887.6244072719664
 20
-274.7295454151639
 30
0.0
 11
887.6244072719664
 21
-294.9795454151642
 31
0.0
 70
   160
  3
DMC
 13
887.5963939270004
 23
-263.2295454151639
 33
0.0
 14
843.6577144920621
 24
-274.7295454151639
 34
0.0
 50
90.0
  0
DIMENSION
  5
251
  8
回07-寸法
  6
CONTINUOUS
 62
     5
  2
*D52525252
 10
897.8626505174448
 20
-274.7295454151639
 30
0.0
 11
897.8626505174448
 21
-294.3330988057573
 31
0.0
 70
   160
  3
DMC
 13
897.8307918363535
 23
-265.2295454151639
 33
0.0
 14
843.6577144920621
 24
-274.7295454151639
 34
0.0
 50
90.0
  0
DIMENSION
  5
262
  8
回07-寸法
  6
CONTINUOUS
 62
     5
  2
*D53535353
 10
515.657714492062
 20
0.0230346845237364
 30
0.0
 11
497.4077144920618
 21
0.0230346845237364
 31
0.0
 70
   160
  3
DMC
 13
527.657714492062
 23
0.0084997831432929
 33
0.0
 14
515.657714492062
 24
-23.7295454151639
 34
0.0
  0
DIMENSION
  5
273
  8
回07-寸法
  6
CONTINUOUS
 62
     5
  2
*D54545454
 10
515.657714492062
 20
9.729420589758319
 30
0.0
 11
497.3986885707446
 21
9.729420589758319
 31
0.0
 70
   160
  3
DMC
 13
525.657714492062
 23
9.720337699000651
 33
0.0
 14
515.657714492062
 24
-23.7295454151639
 34
0.0
  0
TEXT
  5
284
  8
回07-寸法
  6
CONTINUOUS
 62
     5
 10
474.0388612554943
 20
-126.6600704742778
 30
0.0
 40
4.0
  1
4-R1[R0.039]
1001
ACAD
1000
MTEXTBEGIN
1070
    73
1070
     1
1070
    44
1040
1.0
1070
    74
1070
     0
1000
MTEXTEND
  0
INSERT
  5
285
  8
回07-寸法
  6
CONTINUOUS
 62
     7
 66
     1
  2
*X72727272
 10
0.0
 20
0.0
 30
0.0
  0
SEQEND
  5
60D
  8
回08-記事
  6
CONTINUOUS
 62
     7
  0
DIMENSION
  5
286
  8
回07-寸法
  6
CONTINUOUS
 62
     5
  2
*D55555555
 10
918.336373231436
 20
-22.72954541516384
 30
0.0
 11
915.0863732314363
 21
-148.7295454151638
 31
0.0
 70
    32
  3
DMC
 13
843.6577144920621
 23
-274.7295454151639
 33
0.0
 14
843.6577144920621
 24
-22.72954541516384
 34
0.0
 50
90.0
1001
ACAD
1000
DSTYLE
1002
{
1070
    47
1040
0.3
1070
   147
1040
0.5
1070
    48
1040
0.3
1070
    72
1070
     0
1070
    71
1070
     1
1002
}
  0
DIMENSION
  5
295
  8
回07-寸法
  6
CONTINUOUS
 62
     5
  2
*D56565656
 10
897.8307918363569
 20
-265.2295454151639
 30
0.0
 11
894.5807918363566
 21
-148.7295454151639
 31
0.0
 70
    32
  1
<> (VIEING AREA)
  3
DMC
 13
834.6577144920621
 23
-32.2295454151639
 33
0.0
 14
834.6577144920621
 24
-265.2295454151639
 34
0.0
 50
90.0
  0
DIMENSION
  5
2A4
  8
回07-寸法
  6
CONTINUOUS
 62
     5
  2
*D57575757
 10
887.5963939270036
 20
-34.2295454151639
 30
0.0
 11
884.3463939270035
 21
-148.7295454151639
 31
0.0
 70
    32
  1
<> (ACTIVE AREA)
  3
DMC
 13
832.6577144920619
 23
-263.2295454151639
 33
0.0
 14
832.6577144920619
 24
-34.2295454151639
 34
0.0
 50
90.0
  0
DIMENSION
  5
2B3
  8
回07-寸法
  6
CONTINUOUS
 62
     5
  2
*D58585858
 10
876.2140006988007
 20
-274.7295454151639
 30
0.0
 11
876.2140006988007
 21
-204.8457448649758
 31
0.0
 70
   160
  1
<> (ACTIVE AREA CENTER)
  3
DMC
 13
843.6577144920621
 23
-148.7295454151639
 33
0.0
 14
843.6577144920621
 24
-274.7295454151639
 34
0.0
 50
90.0
  0
DIMENSION
  5
2C2
  8
回07-寸法
  6
CONTINUOUS
 62
     5
  2
*D59595959
 10
843.6577144920621
 20
37.86965291355
 30
0.0
 11
679.657714492062
 21
41.11965291355
 31
0.0
 70
    32
  3
DMC
 13
515.657714492062
 23
-23.7295454151639
 33
0.0
 14
843.6577144920621
 24
-22.72954541516384
 34
0.0
1001
ACAD
1000
DSTYLE
1002
{
1070
    47
1040
0.3
1070
   147
1040
0.5
1070
    48
1040
0.3
1070
    72
1070
     0
1070
    71
1070
     1
1002
}
  0
DIMENSION
  5
2D1
  8
回07-寸法
  6
CONTINUOUS
 62
     5
  2
*D60606060
 10
834.6577144920621
 20
9.720337699000651
 30
0.0
 11
680.157714492062
 21
12.97033769900065
 31
0.0
 70
    32
  1
<> (VIEWING AREA)
  3
DMC
 13
525.657714492062
 23
-32.2295454151639
 33
0.0
 14
834.6577144920621
 24
-32.2295454151639
 34
0.0
  0
DIMENSION
  5
2E0
  8
回07-寸法
  6
CONTINUOUS
 62
     5
  2
*D61616161
 10
832.6577144920619
 20
0.0084997831432929
 30
0.0
 11
680.157714492062
 21
3.258499783143296
 31
0.0
 70
    32
  1
<> (ACTIVE AREA)
  3
DMC
 13
527.657714492062
 23
-34.2295454151639
 33
0.0
 14
832.6577144920619
 24
-34.2295454151639
 34
0.0
  0
DIMENSION
  5
2EF
  8
回07-寸法
  6
CONTINUOUS
 62
     5
  2
*D62626262
 10
680.157714492062
 20
-9.724072816888453
 30
0.0
 11
597.907714492062
 21
-6.474072816888447
 31
0.0
 70
    32
  1
<> (ACTIVE AREA CENTER)
  3
DMC
 13
515.657714492062
 23
-23.7295454151639
 33
0.0
 14
680.157714492062
 24
-22.7295454151639
 34
0.0
  0
TEXT
  5
2FE
  8
回07-寸法
  6
CONTINUOUS
 62
     5
 10
441.1822799019936
 20
-137.5198465917899
 30
0.0
 40
4.0
  1
A
1001
ACAD
1000
MTEXTBEGIN
1070
    73
1070
     1
1070
    44
1040
1.0
1070
    74
1070
     0
1000
MTEXTEND
  0
INSERT
  5
2FF
  8
回07-寸法
  6
CONTINUOUS
 62
     5
 66
     1
  2
*X73737373
 10
0.0
 20
0.0
 30
0.0
  0
SEQEND
  5
614
  8
回08-記事
  6
CONTINUOUS
 62
     7
  0
CIRCLE
  5
300
  8
回07-寸法
  6
DASHED2
 62
     5
 10
435.9162401189792
 20
-148.6797499202056
 30
0.0
 40
7.745500350226136
  0
TEXT
  5
302
  8
回07-寸法
  6
CONTINUOUS
 62
     5
 10
479.2546789928811
 20
-120.1204059297861
 30
0.0
 40
4.0
  1
2-R2[R0.079]
1001
ACAD
1000
MTEXTBEGIN
1070
    73
1070
     1
1070
    44
1040
1.0
1070
    74
1070
     0
1000
MTEXTEND
  0
INSERT
  5
303
  8
回07-寸法
  6
CONTINUOUS
 62
     7
 66
     1
  2
*X74747474
 10
0.0
 20
0.0
 30
0.0
  0
SEQEND
  5
61B
  8
回08-記事
  6
CONTINUOUS
 62
     7
  0
TEXT
  5
304
  8
回07-寸法
  6
CONTINUOUS
 62
     5
 10
458.4591217591237
 20
-138.7904578701345
 30
0.0
 40
4.0
  1
LOT LABEL
1001
ACAD
1000
MTEXTBEGIN
1070
    73
1070
     1
1070
    44
1040
1.0
1070
    74
1070
     0
1000
MTEXTEND
  0
INSERT
  5
305
  8
回07-寸法
  6
CONTINUOUS
 62
     7
 66
     1
  2
*X75757575
 10
0.0
 20
0.0
 30
0.0
  0
SEQEND
  5
622
  8
回08-記事
  6
CONTINUOUS
 62
     7
  0
DIMENSION
  5
306
  8
回07-寸法
 62
     5
  2
*D63636363
 10
426.8372204745576
 20
-151.8595758574701
 30
0.0
 11
426.8372204745576
 21
-184.1091821566828
 31
0.0
 70
   160
  1
<>
  3
DMC
 13
436.1576709812942
 23
-145.6095758574701
 33
0.0
 14
436.1576709812942
 24
-151.8595758574701
 34
0.0
 50
90.0
1001
ACAD
1000
DSTYLE
1002
{
1070
    47
1040
0.2
1070
   147
1040
0.5
1070
    48
1040
0.2
1070
    72
1070
     0
1070
    71
1070
     0
1002
}
  0
DIMENSION
  5
317
  8
回07-寸法
  6
CONTINUOUS
 62
     5
  2
*D64646464
 10
505.7490710250498
 20
-178.3407264161237
 30
0.0
 11
486.1455176344565
 21
-178.3407264161237
 31
0.0
 70
   160
  1
9.4 [0.370]
  3
DMC
 13
515.6576709812934
 23
-159.605643669336
 33
0.0
 14
505.7490710250498
 24
-151.8636005247221
 34
0.0
  0
DIMENSION
  5
328
  8
回07-寸法
 62
     5
  2
*D65656565
 10
515.6576709812925
 20
-103.9662767737052
 30
0.0
 11
478.2473980772405
 21
-103.9662767737052
 31
0.0
 70
   160
  1
80{\H0.75x;±1.0}[3.150{\H0.75x;±0.039}]
  3
DMC
 13
435.6576709812943
 23
-146.85957585747
 33
0.0
 14
515.6576709812925
 24
-138.7270748566669
 34
0.0
  0
DIMENSION
  5
337
  8
回07-寸法
  6
CONTINUOUS
 62
     5
  2
*D66666666
 10
453.2461263104212
 20
-140.7357788917419
 30
0.0
 11
453.2461263104212
 21
-174.7345758574701
 31
0.0
 70
   160
  3
DMC
 13
511.4699581694021
 23
-156.7345758574701
 33
0.0
 14
511.4657845836963
 24
-140.7357788917419
 34
0.0
 50
90.0
  0
DIMENSION
  5
348
  8
回07-寸法
  6
CONTINUOUS
 62
     5
  2
*D67676767
 10
859.4426987862371
 20
-267.2295454151639
 30
0.0
 11
859.4426987862371
 21
-293.9885713364813
 31
0.0
 70
   160
  3
DMC
 13
843.6577144920621
 23
-274.7295454151639
 33
0.0
 14
843.5577144920619
 24
-267.2295454151639
 34
0.0
 50
90.0
  0
DIMENSION
  5
359
  8
回07-寸法
  6
CONTINUOUS
 62
     5
  2
*D68686868
 10
854.5816637066854
 20
-267.2295454151639
 30
0.0
 11
854.5816637066854
 21
-246.4724879977834
 31
0.0
 70
   160
  1
(<>)
  3
DMC
 13
843.5577144920619
 23
-265.2295454151639
 33
0.0
 14
843.5577144920619
 24
-267.2295454151639
 34
0.0
 50
90.0
  0
INSERT
  5
36A
  8
回07-寸法
  6
CONTINUOUS
 62
     5
 66
     1
  2
*X76767676
 10
0.0
 20
0.0
 30
0.0
  0
SEQEND
  5
629
  8
回08-記事
  6
CONTINUOUS
 62
     7
  0
TEXT
  5
36B
  8
回07-寸法
  6
CONTINUOUS
 62
     5
 10
846.2725101935415
 20
-228.3647426166356
 30
0.0
 40
4.0
  1
AIR VENT
1001
ACAD
1000
MTEXTBEGIN
1070
    73
1070
     1
1070
    44
1040
1.0
1070
    74
1070
     0
1000
MTEXTEND
  0
POLYLINE
  5
36C
  8
回08-記事
  6
CONTINUOUS
 62
     7
 66
     1
 10
0.0
 20
0.0
 30
0.0
 70
     1
  0
VERTEX
  5
DFA
  8
回08-記事
  6
CONTINUOUS
 62
     7
 10
525.657714492062
 20
-32.2295454151639
 30
0.0
  0
VERTEX
  5
DFC
  8
回08-記事
  6
CONTINUOUS
 62
     7
 10
834.6577144920621
 20
-32.2295454151639
 30
0.0
  0
VERTEX
  5
DFD
  8
回08-記事
  6
CONTINUOUS
 62
     7
 10
834.6577144920621
 20
-265.2295454151635
 30
0.0
  0
VERTEX
  5
DFE
  8
回08-記事
  6
CONTINUOUS
 62
     7
 10
525.657714492062
 20
-265.2295454151635
 30
0.0
  0
SEQEND
  5
DFB
  8
回08-記事
  6
CONTINUOUS
 62
     7
  0
INSERT
  5
36D
  8
回08-記事
  6
CONTINUOUS
 62
     8
 66
     1
  2
*X77777777
 10
0.0
 20
0.0
 30
0.0
1001
ACAD
1000
HATCH
1002
{
1070
    19
1000
ANSI31
1040
0.5
1040
6.283185307179584
1000
ASC_BOUNDS
1070
     1
1070
     2
1070
     1
1005
36E
1000
ASC_SEEDPOINT
1011
764.7710385295511
1021
-365.8842439386402
1031
0.0
1000
R14_HATCH_DATA
1000
36D
1011
1.0
1021
0.0
1031
0.0
1011
0.0
1021
1.0
1031
0.0
1011
0.0
1021
0.0
1031
1.0
1040
0.0
1010
0.0
1020
0.0
1030
1.0
1000
ANSI31
1070
     0
1070
     1
1071
        1
1071
        1
1071
        4
1070
     1
1040
519.157714492062
1040
-141.3318930450544
1040
511.4662314876618
1040
-141.3318930450544
1070
     1
1040
511.4662314876618
1040
-141.3318930450544
1040
511.4662314876618
1040
-156.1345758574701
1070
     1
1040
511.4662314876618
1040
-156.1345758574701
1040
519.157714492062
1040
-156.1345758574701
1070
     1
1040
519.157714492062
1040
-156.1345758574701
1040
519.157714492062
1040
-141.3318930450544
1071
        1
1005
36E
1070
     0
1070
     1
1040
6.283185307179584
1040
0.5
1070
     0
1070
     1
1040
0.7853981633974481
1040
764.7710385295511
1040
-365.8842439386402
1040
-1.122532015133643
1040
1.122532015133643
1070
     0
1071
        1
1040
764.7710385295511
1040
-365.8842439386402
1040
0.0
1002
}
  0
SEQEND
  5
63C
  8
回08-記事
  6
CONTINUOUS
 62
     7
  0
POLYLINE
  5
36E
  8
回08-記事
  6
CONTINUOUS
 62
     8
 66
     1
 10
0.0
 20
0.0
 30
0.0
 70
     1
1001
ACAD
1000
ASC_BOUNDS
1002
{
1070
    19
1005
36D
1002
}
  0
VERTEX
  5
DFF
  8
回08-記事
  6
CONTINUOUS
 62
     8
 10
519.157714492062
 20
-141.3318930450544
 30
0.0
  0
VERTEX
  5
E01
  8
回08-記事
  6
CONTINUOUS
 62
     8
 10
511.4662314876618
 20
-141.3318930450544
 30
0.0
  0
VERTEX
  5
E02
  8
回08-記事
  6
CONTINUOUS
 62
     8
 10
511.4662314876618
 20
-156.1345758574701
 30
0.0
  0
VERTEX
  5
E03
  8
回08-記事
  6
CONTINUOUS
 62
     8
 10
519.157714492062
 20
-156.1345758574701
 30
0.0
  0
SEQEND
  5
E00
  8
回08-記事
  6
CONTINUOUS
 62
     7
  0
LINE
  5
36F
  8
回07-ﾃｰﾙ
  6
CONTINUOUS
 62
     7
 10
513.6794389890683
 20
-149.2341036807486
 30
0.0
 11
515.657714492062
 21
-149.2341036807486
 31
0.0
  0
LINE
  5
373
  8
回07-ﾃｰﾙ
  6
CONTINUOUS
 62
     7
 10
513.657714492062
 20
-148.2345758574696
 30
0.0
 11
515.657714492062
 21
-148.2345758574696
 31
0.0
  0
POLYLINE
  5
374
  8
回08-記事
  6
PHANTOM2
 62
     7
 66
     1
 10
0.0
 20
0.0
 30
0.0
 70
     1
  0
VERTEX
  5
E04
  8
回08-記事
  6
PHANTOM2
 62
     7
 10
527.657714492062
 20
-34.2295454151639
 30
0.0
  0
VERTEX
  5
E06
  8
回08-記事
  6
PHANTOM2
 62
     7
 10
832.6577144920619
 20
-34.2295454151639
 30
0.0
  0
VERTEX
  5
E07
  8
回08-記事
  6
PHANTOM2
 62
     7
 10
832.6577144920619
 20
-263.2295454151639
 30
0.0
  0
VERTEX
  5
E08
  8
回08-記事
  6
PHANTOM2
 62
     7
 10
527.657714492062
 20
-263.2295454151639
 30
0.0
  0
SEQEND
  5
E05
  8
回08-記事
  6
CONTINUOUS
 62
     7
  0
TEXT
  5
376
  8
回08-記事
  6
CONTINUOUS
 62
     7
 10
811.9623927794437
 20
-273.5244415354176
 30
0.0
 40
5.0
  1
AST-150C
  0
POLYLINE
  5
377
  8
回08-記事
  6
DASHED2
 62
     7
 66
     1
 10
0.0
 20
0.0
 30
0.0
 70
     1
  0
VERTEX
  5
E09
  8
回08-記事
  6
DASHED2
 62
     7
 10
835.157714492062
 20
-266.0295454151636
 30
0.0
  0
VERTEX
  5
E0B
  8
回08-記事
  6
DASHED2
 62
     7
 10
525.157714492062
 20
-266.0295454151636
 30
0.0
  0
VERTEX
  5
E0C
  8
回08-記事
  6
DASHED2
 62
     7
 10
525.157714492062
 20
-31.42954541516417
 30
0.0
  0
VERTEX
  5
E0D
  8
回08-記事
  6
DASHED2
 62
     7
 10
835.157714492062
 20
-31.42954541516417
 30
0.0
  0
SEQEND
  5
E0A
  8
回08-記事
  6
CONTINUOUS
 62
     7
  0
TEXT
  5
37A
  8
回07-寸法
  6
CONTINUOUS
 62
     5
 10
785.3755667652873
 20
-282.1320320674616
 30
0.0
 40
4.0
  1
PART No.
1001
ACAD
1000
MTEXTBEGIN
1070
    73
1070
     1
1070
    44
1040
1.0
1070
    74
1070
     0
1000
MTEXTEND
  0
INSERT
  5
37B
  8
回07-寸法
  6
CONTINUOUS
 62
     7
 66
     1
  2
*X80808080
 10
0.0
 20
0.0
 30
0.0
  0
SEQEND
  5
662
  8
回08-記事
  6
CONTINUOUS
 62
     7
  0
TEXT
  5
37C
  8
回07-寸法
  6
CONTINUOUS
 62
     5
 10
786.6311900856682
 20
-288.8882238642835
 30
0.0
 40
5.0
  1
AST-150C
  0
LINE
  5
37D
  8
回07-寸法
  6
CENTER2
 62
     5
 10
845.1966791800114
 20
-148.7295454151639
 30
0.0
 11
433.8040618786599
 21
-148.7295454151639
 31
0.0
  0
LINE
  5
37F
  8
回07-寸法
  6
CENTER2
 62
     5
 10
680.157714492062
 20
-21.00869871106931
 30
0.0
 11
680.157714492062
 21
-276.7530695010122
 31
0.0
  0
INSERT
  5
380
  8
回08-記事
  6
CONTINUOUS
 62
     8
 66
     1
  2
*X81818181
 10
0.0
 20
0.0
 30
0.0
1001
ACAD
1000
HATCH
1002
{
1070
    19
1000
ANSI31
1040
15.0
1040
1.570796326794896
1000
ASC_BOUNDS
1070
     1
1070
     2
1070
     1
1005
381
1000
ASC_SEEDPOINT
1011
671.5842315564832
1021
-168.6853763918401
1031
0.0
1000
R14_HATCH_DATA
1000
380
1011
1.0
1021
0.0
1031
0.0
1011
0.0
1021
1.0
1031
0.0
1011
0.0
1021
0.0
1031
1.0
1040
0.0
1010
0.0
1020
0.0
1030
1.0
1000
ANSI31
1070
     0
1070
     1
1071
        1
1071
        1
1071
        8
1070
     1
1040
469.2975576673143
1040
-150.2345758574701
1040
469.2975576673143
1040
-147.2345758574701
1070
     2
1040
470.2975576673143
1040
-147.2345758574701
1040
1.0
1040
3.141592653589792
1040
4.712388980384688
1070
     0
1070
     1
1040
470.2975576673143
1040
-146.2345758574701
1040
494.2975576673143
1040
-146.2345758574701
1070
     2
1040
494.2975576673143
1040
-147.2345758574701
1040
1.0
1040
4.712388980384688
1040
6.283185307179584
1070
     0
1070
     1
1040
495.2975576673143
1040
-147.2345758574701
1040
495.2975576673143
1040
-150.2345758574701
1070
     2
1040
494.2975576673143
1040
-150.2345758574701
1040
1.0
1040
6.283185307179584
1040
7.853981633974482
1070
     0
1070
     1
1040
494.2975576673143
1040
-151.2345758574701
1040
470.2975576673143
1040
-151.2345758574701
1070
     2
1040
470.2975576673143
1040
-150.2345758574701
1040
1.0
1040
1.570796326794896
1040
3.141592653589792
1070
     0
1071
        1
1005
381
1070
     0
1070
     1
1040
1.570796326794896
1040
15.0
1070
     0
1070
     1
1040
2.356194490192344
1040
671.5842315564832
1040
-168.6853763918401
1040
-1.325825214724774
1040
-1.325825214724774
1070
     0
1071
        1
1040
671.5842315564832
1040
-168.6853763918401
1040
0.0
1002
}
  0
SEQEND
  5
671
  8
回08-記事
  6
CONTINUOUS
 62
     7
  0
POLYLINE
  5
381
  8
回08-記事
  6
CONTINUOUS
 62
     8
 66
     1
 10
0.0
 20
0.0
 30
0.0
 70
     1
1001
ACAD
1000
ASC_BOUNDS
1002
{
1070
    19
1005
380
1002
}
  0
VERTEX
  5
E0E
  8
回08-記事
  6
CONTINUOUS
 62
     8
 10
469.2975576673143
 20
-150.2345758574701
 30
0.0
  0
VERTEX
  5
E10
  8
回08-記事
  6
CONTINUOUS
 62
     8
 10
469.2975576673143
 20
-147.2345758574701
 30
0.0
 42
-0.4142135623730951
  0
VERTEX
  5
E11
  8
回08-記事
  6
CONTINUOUS
 62
     8
 10
470.2975576673143
 20
-146.2345758574701
 30
0.0
  0
VERTEX
  5
E12
  8
回08-記事
  6
CONTINUOUS
 62
     8
 10
494.2975576673143
 20
-146.2345758574701
 30
0.0
 42
-0.4142135623730951
  0
VERTEX
  5
E13
  8
回08-記事
  6
CONTINUOUS
 62
     8
 10
495.2975576673143
 20
-147.2345758574701
 30
0.0
  0
VERTEX
  5
E14
  8
回08-記事
  6
CONTINUOUS
 62
     8
 10
495.2975576673143
 20
-150.2345758574701
 30
0.0
 42
-0.4142135623730951
  0
VERTEX
  5
E15
  8
回08-記事
  6
CONTINUOUS
 62
     8
 10
494.2975576673143
 20
-151.2345758574701
 30
0.0
  0
VERTEX
  5
E16
  8
回08-記事
  6
CONTINUOUS
 62
     8
 10
470.2975576673143
 20
-151.2345758574701
 30
0.0
 42
-0.4142135623730946
  0
SEQEND
  5
E0F
  8
回08-記事
  6
CONTINUOUS
 62
     7
  0
TEXT
  5
382
  8
回08-記事
  6
CONTINUOUS
 62
     7
 10
435.7561427291236
 20
-151.8119088875003
 30
0.0
 40
5.0
  1
1
 50
90.0
  0
TEXT
  5
383
  8
回08-記事
  6
CONTINUOUS
 62
     7
 10
435.6122296307074
 20
-147.7723512281384
 30
0.0
 40
5.0
  1
4
 50
90.0
  0
ARC
  5
384
  8
回07-ﾃｰﾙ
  6
CONTINUOUS
 62
     7
 10
505.7490131921887
 20
-152.8636005230495
 30
0.0
 40
1.0
 50
45.14359814423406
 51
89.99668642115281
  0
ARC
  5
385
  8
回07-ﾃｰﾙ
  6
CONTINUOUS
 62
     7
 10
505.7464519232843
 20
-144.6095758574696
 30
0.0
 40
1.0
 50
270.0
 51
314.8829928953902
  0
ARC
  5
386
  8
回07-ﾃｰﾙ
  6
CONTINUOUS
 62
     7
 10
511.4662314876618
 20
-141.7357787918798
 30
0.0
 40
1.0
 50
90.02560571194576
 51
134.8829928953902
  0
ARC
  5
387
  8
回07-ﾃｰﾙ
  6
CONTINUOUS
 62
     7
 10
511.4699581694021
 20
-155.7345758574696
 30
0.0
 40
1.0
 50
225.1435981442341
 51
270.0
  0
ARC
  5
388
  8
回07-ﾃｰﾙ
  6
CONTINUOUS
 62
     7
 10
514.157714492062
 20
-158.7345758574696
 30
0.0
 40
2.0
 50
41.40962210926974
 51
90.0
  0
ARC
  5
389
  8
回07-ﾃｰﾙ
  6
CONTINUOUS
 62
     7
 10
514.157714492062
 20
-138.7345756577464
 30
0.0
 40
2.0
 50
270.0256057119457
 51
318.5903778907302
  0
ARC
  5
38A
  8
回07-ﾃｰﾙ
  6
CONTINUOUS
 62
     7
 10
513.657714492062
 20
-148.7345758574696
 30
0.0
 40
0.5
 50
90.0
 51
272.4902279154731
  0
LINE
  5
38B
  8
回07-ﾃｰﾙ
  6
CONTINUOUS
 62
     7
 10
506.4543455607063
 20
-152.1547237707713
 30
0.0
 11
510.7646258008847
 21
-156.4434526097486
 31
0.0
  0
LINE
  5
38C
  8
回07-ﾃｰﾙ
  6
CONTINUOUS
 62
     7
 10
506.4521132063752
 20
-145.3181251878244
 30
0.0
 11
510.7605702045707
 21
-141.0272294615255
 31
0.0
  0
LINE
  5
38D
  8
回07-ﾃｰﾙ
  6
CONTINUOUS
 62
     7
 10
511.4699581694026
 20
-156.7345758574701
 30
0.0
 11
514.157714492062
 21
-156.7345758574701
 31
0.0
  0
LINE
  5
38E
  8
回07-ﾃｰﾙ
  6
CONTINUOUS
 62
     7
 10
511.4657845836963
 20
-140.7357788917419
 30
0.0
 11
514.1586082999938
 21
-140.7345754580236
 31
0.0
  0
LINE
  5
38F
  8
回07-ﾃｰﾙ
  6
CONTINUOUS
 62
     7
 10
435.6576709812943
 20
-146.1095758574701
 30
0.0
 11
435.6576709812943
 21
-151.3595758574701
 31
0.0
  0
ARC
  5
390
  8
回07-ﾃｰﾙ
  6
CONTINUOUS
 62
     7
 10
436.1576709812942
 20
-151.3595758574696
 30
0.0
 40
0.5
 50
180.0
 51
270.0
  0
ARC
  5
391
  8
回07-ﾃｰﾙ
  6
CONTINUOUS
 62
     7
 10
436.1576709812942
 20
-146.1095758574696
 30
0.0
 40
0.5
 50
90.0
 51
180.0
  0
LINE
  5
392
  8
回07-ﾃｰﾙ
  6
CONTINUOUS
 62
     7
 10
436.1576709812942
 20
-151.8595758574696
 30
0.0
 11
505.7490710250498
 21
-151.8636005247221
 31
0.0
  0
LINE
  5
393
  8
回07-ﾃｰﾙ
  6
CONTINUOUS
 62
     7
 10
436.1576709812942
 20
-145.6095758574696
 30
0.0
 11
505.7464519232843
 21
-145.6095758574696
 31
0.0
  0
TEXT
  5
394
  8
回08-記事
  6
CONTINUOUS
 62
     5
 10
816.7234334932524
 20
-146.4220913491102
 30
0.0
 40
5.0
  1
XR
  0
TEXT
  5
395
  8
回08-記事
  6
CONTINUOUS
 62
     5
 10
530.1797724582102
 20
-145.7750516687505
 30
0.0
 40
5.0
  1
XL
  0
TEXT
  5
396
  8
回08-記事
  6
CONTINUOUS
 62
     5
 10
664.9133230703701
 20
-261.1470262397546
 30
0.0
 40
5.0
  1
YD
  0
TEXT
  5
397
  8
回08-記事
  6
CONTINUOUS
 62
     5
 10
665.2486442358967
 20
-42.96935913223602
 30
0.0
 40
5.0
  1
YU
  0
POLYLINE
  5
398
  8
回03-下接
  6
CONTINUOUS
 62
     7
 66
     1
 10
0.0
 20
0.0
 30
0.0
 70
     1
  0
VERTEX
  5
E17
  8
回03-下接
  6
CONTINUOUS
 62
     7
 10
515.657714492062
 20
-22.72954541516384
 30
0.0
  0
VERTEX
  5
E19
  8
回03-下接
  6
CONTINUOUS
 62
     7
 10
843.6577144920621
 20
-22.72954541516384
 30
0.0
  0
VERTEX
  5
E1A
  8
回03-下接
  6
CONTINUOUS
 62
     7
 10
843.6577144920621
 20
-22.72954541516384
 30
0.0
  0
VERTEX
  5
E1B
  8
回03-下接
  6
CONTINUOUS
 62
     7
 10
843.6577144920621
 20
-274.729545415164
 30
0.0
  0
VERTEX
  5
E1C
  8
回03-下接
  6
CONTINUOUS
 62
     7
 10
843.6577144920621
 20
-274.7295454151639
 30
0.0
  0
VERTEX
  5
E1D
  8
回03-下接
  6
CONTINUOUS
 62
     7
 10
515.657714492062
 20
-274.7295454151639
 30
0.0
  0
VERTEX
  5
E1E
  8
回03-下接
  6
CONTINUOUS
 62
     7
 10
515.657714492062
 20
-274.7295454151639
 30
0.0
  0
VERTEX
  5
E1F
  8
回03-下接
  6
CONTINUOUS
 62
     7
 10
515.657714492062
 20
-22.72954541516384
 30
0.0
  0
SEQEND
  5
E18
  8
回08-記事
  6
CONTINUOUS
 62
     7
  0
LINE
  5
39C
  8
回08-記事
  6
CONTINUOUS
 62
     5
 10
1065.368669934076
 20
-51.78016613244118
 30
0.0
 11
1065.368669934076
 21
-3.030166132441193
 31
0.0
  0
LINE
  5
39D
  8
回08-記事
  6
CONTINUOUS
 62
     5
 10
1092.181169934076
 20
-78.59266613244121
 30
0.0
 11
1092.181169934076
 21
23.7823338675588
 31
0.0
  0
TEXT
  5
39E
  8
回08-記事
  6
CONTINUOUS
 62
     5
 10
986.2665312688186
 20
-6.857540155967967
 30
0.0
 40
5.0
  1
3
  0
TEXT
  5
39F
  8
回08-記事
  6
CONTINUOUS
 62
     5
 10
985.8208191312499
 20
20.20671119885708
 30
0.0
 40
5.0
  1
4
  0
LINE
  5
3A0
  8
回08-記事
  6
CONTINUOUS
 62
     5
 10
1053.278669934077
 20
-49.24516613244134
 30
0.0
 11
1056.788669934077
 21
-56.26516613244177
 31
0.0
  0
LINE
  5
3A1
  8
回08-記事
  6
CONTINUOUS
 62
     5
 10
1056.788669934077
 20
-56.26516613244177
 30
0.0
 11
1059.031169934076
 21
-51.78016613244118
 31
0.0
  0
LINE
  5
3A2
  8
回08-記事
  6
CONTINUOUS
 62
     5
 10
1046.258669934076
 20
-49.24516613244134
 30
0.0
 11
1049.768669934076
 21
-56.26516613244177
 31
0.0
  0
LINE
  5
3A3
  8
回08-記事
  6
CONTINUOUS
 62
     5
 10
1042.748669934076
 20
-56.26516613244177
 30
0.0
 11
1046.258669934076
 21
-49.24516613244134
 31
0.0
  0
LINE
  5
3A4
  8
回08-記事
  6
CONTINUOUS
 62
     5
 10
1049.768669934076
 20
-56.26516613244177
 30
0.0
 11
1053.278669934077
 21
-49.24516613244134
 31
0.0
  0
LINE
  5
3A5
  8
回08-記事
  6
CONTINUOUS
 62
     5
 10
1032.218669934076
 20
-49.24516613244134
 30
0.0
 11
1035.728669934076
 21
-56.26516613244177
 31
0.0
  0
LINE
  5
3A6
  8
回08-記事
  6
CONTINUOUS
 62
     5
 10
1031.633669934076
 20
-55.9726661324413
 30
0.0
 11
1038.653669934077
 21
-52.4626661324411
 31
0.0
  0
LINE
  5
3A7
  8
回08-記事
  6
CONTINUOUS
 62
     5
 10
1031.633669934076
 20
-55.9726661324413
 30
0.0
 11
1038.653669934077
 21
-59.48266613244062
 31
0.0
  0
LINE
  5
3A8
  8
回08-記事
  6
CONTINUOUS
 62
     5
 10
1031.633669934076
 20
-62.99266613244174
 30
0.0
 11
1038.653669934077
 21
-59.48266613244062
 31
0.0
  0
LINE
  5
3A9
  8
回08-記事
  6
CONTINUOUS
 62
     5
 10
1031.633669934076
 20
-70.01266613244125
 30
0.0
 11
1038.653669934077
 21
-66.50266613244105
 31
0.0
  0
LINE
  5
3AA
  8
回08-記事
  6
CONTINUOUS
 62
     5
 10
1031.633669934076
 20
-62.99266613244174
 30
0.0
 11
1038.653669934077
 21
-66.50266613244105
 31
0.0
  0
LINE
  5
3AB
  8
回08-記事
  6
CONTINUOUS
 62
     5
 10
1031.633669934076
 20
-48.95266613244178
 30
0.0
 11
1038.653669934077
 21
-45.44266613244156
 31
0.0
  0
LINE
  5
3AC
  8
回08-記事
  6
CONTINUOUS
 62
     5
 10
1031.633669934076
 20
-41.93266613244134
 30
0.0
 11
1038.653669934077
 21
-38.42266613244203
 31
0.0
  0
LINE
  5
3AD
  8
回08-記事
  6
CONTINUOUS
 62
     5
 10
1031.633669934076
 20
-41.93266613244134
 30
0.0
 11
1038.653669934077
 21
-45.44266613244156
 31
0.0
  0
LINE
  5
3AE
  8
回08-記事
  6
CONTINUOUS
 62
     5
 10
1031.633669934076
 20
-48.95266613244178
 30
0.0
 11
1038.653669934077
 21
-52.4626661324411
 31
0.0
  0
LINE
  5
3AF
  8
回08-記事
  6
CONTINUOUS
 62
     5
 10
1025.198669934076
 20
-49.24516613244134
 30
0.0
 11
1028.708669934076
 21
-56.26516613244177
 31
0.0
  0
LINE
  5
3B0
  8
回08-記事
  6
CONTINUOUS
 62
     5
 10
1021.688669934077
 20
-56.26516613244177
 30
0.0
 11
1025.198669934076
 21
-49.24516613244134
 31
0.0
  0
LINE
  5
3B1
  8
回08-記事
  6
CONTINUOUS
 62
     5
 10
1015.936169934076
 20
-53.73016613244146
 30
0.0
 11
1018.178669934076
 21
-49.24516613244134
 31
0.0
  0
LINE
  5
3B2
  8
回08-記事
  6
CONTINUOUS
 62
     5
 10
1018.178669934076
 20
-49.24516613244134
 30
0.0
 11
1021.688669934077
 21
-56.26516613244177
 31
0.0
  0
LINE
  5
3B3
  8
回08-記事
  6
CONTINUOUS
 62
     5
 10
1028.708669934076
 20
-56.26516613244177
 30
0.0
 11
1032.218669934076
 21
-49.24516613244134
 31
0.0
  0
LINE
  5
3B4
  8
回08-記事
  6
CONTINUOUS
 62
     5
 10
1035.143669934076
 20
-36.66766613244192
 30
0.0
 11
1035.143669934076
 21
-30.81766613244156
 31
0.0
  0
LINE
  5
3B5
  8
回08-記事
  6
CONTINUOUS
 62
     5
 10
1035.728669934076
 20
-56.26516613244177
 30
0.0
 11
1039.238669934076
 21
-49.24516613244134
 31
0.0
  0
LINE
  5
3B6
  8
回08-記事
  6
CONTINUOUS
 62
     5
 10
1035.143669934076
 20
-36.66766613244192
 30
0.0
 11
1038.653669934077
 21
-38.42266613244203
 31
0.0
  0
TEXT
  5
3B7
  8
回08-記事
  6
CONTINUOUS
 62
     5
 10
1037.058994806737
 20
-29.53209869934211
 30
0.0
 40
5.0
  1
YU
  0
LINE
  5
3B8
  8
回08-記事
  6
CONTINUOUS
 62
     5
 10
1039.238669934076
 20
-49.24516613244134
 30
0.0
 11
1042.748669934076
 21
-56.26516613244177
 31
0.0
  0
LINE
  5
3B9
  8
回08-記事
  6
CONTINUOUS
 62
     5
 10
1035.143669934076
 20
-78.59266613244121
 30
0.0
 11
1035.143669934076
 21
-71.76766613244137
 31
0.0
  0
LINE
  5
3BA
  8
回08-記事
  6
CONTINUOUS
 62
     5
 10
1031.633669934076
 20
-70.01266613244125
 30
0.0
 11
1035.143669934076
 21
-71.76766613244137
 31
0.0
  0
TEXT
  5
3BB
  8
回08-記事
  6
CONTINUOUS
 62
     5
 10
1017.214759727401
 20
-75.81256880911826
 30
0.0
 40
5.0
  1
YD
  0
TEXT
  5
3BC
  8
回08-記事
  6
CONTINUOUS
 62
     5
 10
1002.427503465254
 20
-50.87121696963515
 30
0.0
 40
5.0
  1
XL
  0
TEXT
  5
3BD
  8
回08-記事
  6
CONTINUOUS
 62
     5
 10
986.5690140733065
 20
-57.59541648267634
 30
0.0
 40
5.0
  1
1
  0
TEXT
  5
3BE
  8
回08-記事
  6
CONTINUOUS
 62
     5
 10
985.9708999549038
 20
-33.78384710903004
 30
0.0
 40
5.0
  1
2
  0
LINE
  5
3BF
  8
回08-記事
  6
CONTINUOUS
 62
     5
 10
994.1936699340756
 20
-30.81766613244156
 30
0.0
 11
1035.143669934076
 21
-30.81766613244156
 31
0.0
  0
LINE
  5
3C0
  8
回08-記事
  6
CONTINUOUS
 62
     5
 10
994.1936699340756
 20
-53.73016613244146
 30
0.0
 11
1015.936169934076
 21
-53.73016613244146
 31
0.0
  0
TEXT
  5
3C1
  8
回08-記事
  6
CONTINUOUS
 62
     5
 10
994.7975875099125
 20
-103.0124876023585
 30
0.0
 40
5.0
  1
PIN ASSIGNMENT
  0
LINE
  5
3C2
  8
回08-記事
  6
CONTINUOUS
 62
     5
 10
1035.143669934076
 20
-78.59266613244121
 30
0.0
 11
1092.181169934076
 21
-78.59266613244121
 31
0.0
  0
LINE
  5
3C3
  8
回08-記事
  6
CONTINUOUS
 62
     5
 10
994.1936699340756
 20
23.7823338675588
 30
0.0
 11
1092.181169934076
 21
23.7823338675588
 31
0.0
  0
LINE
  5
3C4
  8
回08-記事
  6
CONTINUOUS
 62
     5
 10
994.1936699340756
 20
-3.030166132441193
 30
0.0
 11
1065.368669934076
 21
-3.030166132441193
 31
0.0
  0
LINE
  5
3C5
  8
回08-記事
  6
CONTINUOUS
 62
     5
 10
1059.031169934076
 20
-51.78016613244118
 30
0.0
 11
1065.368669934076
 21
-51.78016613244118
 31
0.0
  0
TEXT
  5
3C6
  8
回08-記事
  6
CONTINUOUS
 62
     5
 10
1059.401942656954
 20
-61.7341724790441
 30
0.0
 40
5.0
  1
XR
  0
TEXT
  5
3C7
  8
回90-A1和
 10
999.9376696636959
 20
-417.2658254411808
 30
0.0
 40
10.0
  1
Sep/25/2023
  0
TEXT
  5
3C8
  8
回90-A1和
 10
1022.283445230661
 20
-401.2151329376949
 30
0.0
 40
5.0
  1
DATE
  0
LINE
  5
3C9
  8
回07-ﾃｰﾙ
  6
CONTINUOUS
 62
     7
 10
835.813463376413
 20
-392.9403361962662
 30
0.0
 11
1115.813463376413
 21
-392.9403361962662
 31
0.0
  0
TEXT
  5
3CA
  8
回90-A1和
 10
1004.232506066372
 20
-443.2062389070059
 30
0.0
 40
10.0
  1
DMC Co., Ltd.
  0
LINE
  5
3CB
  8
回90-A1和
 10
965.8134633764127
 20
-392.9403361962662
 30
0.0
 11
965.8134633764127
 21
-452.9403361962661
 31
0.0
  0
TEXT
  5
3CC
  8
回90-A1和
 10
857.9380808070443
 20
-440.8352700870366
 30
0.0
 40
5.0
  1
STANDARD TOUCHSCREEN
  0
LINE
  5
3CD
  8
回90-A1和
 10
835.813463376413
 20
-392.9403361962662
 30
0.0
 11
835.813463376413
 21
-452.9403361962661
 31
0.0
  0
TEXT
  5
3CE
  8
回90-A1和
 10
881.132185660163
 20
-431.453096817116
 30
0.0
 40
5.0
  1
TYPE
  0
LINE
  5
3CF
  8
回90-A1和
 10
841.8134633764127
 20
-442.9403361962662
 30
0.0
 11
959.813463376413
 21
-442.9403361962662
 31
0.0
  0
TEXT
  5
3D0
  8
回90-A1和
 10
861.9568515474149
 20
-451.5174762398231
 30
0.0
 40
5.0
  1
DIMENSIONAL DRAWING
  0
TEXT
  5
3D1
  8
回90-A1和
 10
856.7743738291101
 20
-418.1201987455982
 30
0.0
 40
10.0
  1
AST-150C080A
  0
TEXT
  5
3D2
  8
回90-A1和
 10
878.9473111377114
 20
-401.2151329376949
 30
0.0
 40
5.0
  1
PART No.
  0
LINE
  5
3D3
  8
回90-A1和
 10
835.813463376413
 20
-422.9403361962662
 30
0.0
 11
1115.813463376413
 21
-422.9403361962662
 31
0.0
  0
LINE
  5
3D4
  8
回90-A1和
 10
835.813463376413
 20
-432.9403361962659
 30
0.0
 11
965.8134633764127
 21
-432.9403361962659
 31
0.0
  0
LINE
  5
3D5
  8
回90-A1和
 10
835.813463376413
 20
-402.9403361962661
 30
0.0
 11
1115.813463376413
 21
-402.9403361962661
 31
0.0
  0
TEXT
  5
3D6
  8
回90-A1和
 10
1117.217884380072
 20
39.84835109959306
 30
0.0
 40
5.0
  1
1
  0
TEXT
  5
3D7
  8
回90-A1和
 10
1074.542848682065
 20
87.43208692978498
 30
0.0
 40
5.0
  1
J
  0
LINE
  5
3D8
  8
回90-A1和
 10
1035.813463376413
 20
92.05966380373377
 30
0.0
 11
1035.813463376413
 21
87.05966380373377
 31
0.0
  0
TEXT
  5
3D9
  8
回90-A1和
 10
994.5428486820656
 20
87.43208692978498
 30
0.0
 40
5.0
  1
I
  0
LINE
  5
3DA
  8
回90-A1和
 10
955.8134633764128
 20
92.05966380373377
 30
0.0
 11
955.8134633764128
 21
87.05966380373377
 31
0.0
  0
LINE
  5
3DB
  8
回90-A1和
 10
1120.813463376413
 20
-2.940336196266228
 30
0.0
 11
1115.813463376413
 21
-2.940336196266228
 31
0.0
  0
TEXT
  5
3DC
  8
回90-A1和
 10
1116.91638567677
 20
-50.15164890040693
 30
0.0
 40
5.0
  1
2
  0
LINE
  5
3DD
  8
回90-A1和
 10
1120.813463376413
 20
-92.94033619626622
 30
0.0
 11
1115.813463376413
 21
-92.94033619626622
 31
0.0
  0
TEXT
  5
3DE
  8
回90-A1和
 10
1116.91090483257
 20
-140.1516489004069
 30
0.0
 40
5.0
  1
3
  0
LINE
  5
3DF
  8
回90-A1和
 10
1120.813463376413
 20
-182.9403361962661
 30
0.0
 11
1115.813463376413
 21
-182.9403361962661
 31
0.0
  0
TEXT
  5
3E0
  8
回90-A1和
 10
1116.837812712489
 20
-230.151648900407
 30
0.0
 40
5.0
  1
4
  0
LINE
  5
3E1
  8
回90-A1和
 10
1120.813463376413
 20
-272.9403361962662
 30
0.0
 11
1115.813463376413
 21
-272.9403361962662
 31
0.0
  0
TEXT
  5
3E2
  8
回90-A1和
 10
1116.837812712489
 20
-320.1516489004069
 30
0.0
 40
5.0
  1
5
  0
LINE
  5
3E3
  8
回90-A1和
 10
1120.813463376413
 20
-362.9403361962662
 30
0.0
 11
1115.813463376413
 21
-362.9403361962662
 31
0.0
  0
TEXT
  5
3E4
  8
回90-A1和
 10
1116.837812712489
 20
-410.1516489004068
 30
0.0
 40
5.0
  1
6
  0
TEXT
  5
3E5
  8
回90-A1和
 10
1074.542848682065
 20
-457.567913070215
 30
0.0
 40
5.0
  1
J
  0
LINE
  5
3E6
  8
回90-A1和
 10
1035.813463376413
 20
-452.9403361962661
 30
0.0
 11
1035.813463376413
 21
-457.9403361962659
 31
0.0
  0
TEXT
  5
3E7
  8
回90-A1和
 10
994.5428486820656
 20
-457.567913070215
 30
0.0
 40
5.0
  1
I
  0
LINE
  5
3E8
  8
回90-A1和
 10
955.8134633764128
 20
-452.9403361962661
 30
0.0
 11
955.8134633764128
 21
-457.9403361962659
 31
0.0
  0
LINE
  5
3E9
  8
回90-A1和
 10
1115.813463376413
 20
87.05966380373377
 30
0.0
 11
1115.813463376413
 21
-452.9403361962661
 31
0.0
  0
LINE
  5
3EA
  8
回90-A1和
 10
1120.813463376413
 20
-457.9403361962659
 30
0.0
 11
1120.813463376413
 21
92.05966380373377
 31
0.0
  0
TEXT
  5
3EB
  8
回90-A1和
 10
914.5428486820655
 20
87.43208692978498
 30
0.0
 40
5.0
  1
H
  0
LINE
  5
3EC
  8
回90-A1和
 10
875.8134633764127
 20
92.05966380373377
 30
0.0
 11
875.8134633764127
 21
87.05966380373377
 31
0.0
  0
TEXT
  5
3ED
  8
回90-A1和
 10
834.5428486820656
 20
87.43208692978498
 30
0.0
 40
5.0
  1
G
  0
LINE
  5
3EE
  8
回90-A1和
 10
795.813463376413
 20
92.05966380373377
 30
0.0
 11
795.813463376413
 21
87.05966380373377
 31
0.0
  0
TEXT
  5
3EF
  8
回90-A1和
 10
754.5428486820656
 20
87.43208692978498
 30
0.0
 40
5.0
  1
F
  0
LINE
  5
3F0
  8
回90-A1和
 10
715.8134633764127
 20
92.05966380373377
 30
0.0
 11
715.8134633764127
 21
87.05966380373377
 31
0.0
  0
TEXT
  5
3F1
  8
回90-A1和
 10
674.5428486820657
 20
87.43208692978498
 30
0.0
 40
5.0
  1
E
  0
LINE
  5
3F2
  8
回90-A1和
 10
635.8134633764128
 20
92.05966380373377
 30
0.0
 11
635.8134633764128
 21
87.05966380373377
 31
0.0
  0
TEXT
  5
3F3
  8
回90-A1和
 10
594.5428486820657
 20
87.43208692978498
 30
0.0
 40
5.0
  1
D
  0
LINE
  5
3F4
  8
回90-A1和
 10
555.8134633764129
 20
92.05966380373377
 30
0.0
 11
555.8134633764129
 21
87.05966380373377
 31
0.0
  0
TEXT
  5
3F5
  8
回90-A1和
 10
514.5428486820653
 20
87.43208692978498
 30
0.0
 40
5.0
  1
C
  0
LINE
  5
3F6
  8
回90-A1和
 10
475.813463376413
 20
92.05966380373377
 30
0.0
 11
475.813463376413
 21
87.05966380373377
 31
0.0
  0
TEXT
  5
3F7
  8
回90-A1和
 10
434.5428486820654
 20
87.43208692978498
 30
0.0
 40
5.0
  1
B
  0
LINE
  5
3F8
  8
回90-A1和
 10
395.813463376413
 20
92.05966380373377
 30
0.0
 11
395.813463376413
 21
87.05966380373377
 31
0.0
  0
TEXT
  5
3F9
  8
回90-A1和
 10
354.5428486820654
 20
87.43208692978498
 30
0.0
 40
5.0
  1
A
  0
TEXT
  5
3FA
  8
回90-A1和
 10
312.2178843800723
 20
39.84835109959306
 30
0.0
 40
5.0
  1
1
  0
LINE
  5
3FB
  8
回90-A1和
 10
315.813463376413
 20
-2.940336196266228
 30
0.0
 11
310.813463376413
 21
-2.940336196266228
 31
0.0
  0
TEXT
  5
3FC
  8
回90-A1和
 10
311.9163856767705
 20
-50.15164890040693
 30
0.0
 40
5.0
  1
2
  0
LINE
  5
3FD
  8
回90-A1和
 10
315.813463376413
 20
-92.94033619626622
 30
0.0
 11
310.813463376413
 21
-92.94033619626622
 31
0.0
  0
TEXT
  5
3FE
  8
回90-A1和
 10
311.9109048325697
 20
-140.1516489004069
 30
0.0
 40
5.0
  1
3
  0
LINE
  5
3FF
  8
回90-A1和
 10
315.813463376413
 20
-182.9403361962661
 30
0.0
 11
310.813463376413
 21
-182.9403361962661
 31
0.0
  0
TEXT
  5
400
  8
回90-A1和
 10
311.8378127124886
 20
-230.151648900407
 30
0.0
 40
5.0
  1
4
  0
LINE
  5
401
  8
回90-A1和
 10
315.813463376413
 20
-272.9403361962662
 30
0.0
 11
310.813463376413
 21
-272.9403361962662
 31
0.0
  0
TEXT
  5
402
  8
回90-A1和
 10
311.8378127124886
 20
-320.1516489004069
 30
0.0
 40
5.0
  1
5
  0
TEXT
  5
403
  8
回90-A1和
 10
914.5428486820655
 20
-457.567913070215
 30
0.0
 40
5.0
  1
H
  0
LINE
  5
404
  8
回90-A1和
 10
875.8134633764127
 20
-452.9403361962661
 30
0.0
 11
875.8134633764127
 21
-457.9403361962659
 31
0.0
  0
TEXT
  5
405
  8
回90-A1和
 10
834.5428486820656
 20
-457.567913070215
 30
0.0
 40
5.0
  1
G
  0
LINE
  5
406
  8
回90-A1和
 10
795.813463376413
 20
-452.9403361962661
 30
0.0
 11
795.813463376413
 21
-457.9403361962659
 31
0.0
  0
TEXT
  5
407
  8
回90-A1和
 10
754.5428486820656
 20
-457.567913070215
 30
0.0
 40
5.0
  1
F
  0
LINE
  5
408
  8
回90-A1和
 10
715.8134633764127
 20
-452.9403361962661
 30
0.0
 11
715.8134633764127
 21
-457.9403361962659
 31
0.0
  0
TEXT
  5
409
  8
回90-A1和
 10
674.5428486820657
 20
-457.567913070215
 30
0.0
 40
5.0
  1
E
  0
LINE
  5
40A
  8
回90-A1和
 10
635.8134633764128
 20
-452.9403361962661
 30
0.0
 11
635.8134633764128
 21
-457.9403361962659
 31
0.0
  0
LINE
  5
40B
  8
回90-A1和
 10
315.813463376413
 20
-362.9403361962662
 30
0.0
 11
310.813463376413
 21
-362.9403361962662
 31
0.0
  0
TEXT
  5
40C
  8
回90-A1和
 10
311.8378127124886
 20
-410.1516489004068
 30
0.0
 40
5.0
  1
6
  0
TEXT
  5
40D
  8
回90-A1和
 10
594.5428486820657
 20
-457.567913070215
 30
0.0
 40
5.0
  1
D
  0
LINE
  5
40E
  8
回90-A1和
 10
555.8134633764129
 20
-452.9403361962661
 30
0.0
 11
555.8134633764129
 21
-457.9403361962659
 31
0.0
  0
TEXT
  5
40F
  8
回90-A1和
 10
514.5428486820653
 20
-457.567913070215
 30
0.0
 40
5.0
  1
C
  0
LINE
  5
410
  8
回90-A1和
 10
475.813463376413
 20
-452.9403361962661
 30
0.0
 11
475.813463376413
 21
-457.9403361962659
 31
0.0
  0
TEXT
  5
411
  8
回90-A1和
 10
434.5428486820654
 20
-457.567913070215
 30
0.0
 40
5.0
  1
B
  0
LINE
  5
412
  8
回90-A1和
 10
395.813463376413
 20
-452.9403361962661
 30
0.0
 11
395.813463376413
 21
-457.9403361962659
 31
0.0
  0
TEXT
  5
413
  8
回90-A1和
 10
354.5428486820654
 20
-457.567913070215
 30
0.0
 40
5.0
  1
A
  0
LINE
  5
414
  8
回90-A1和
 10
315.813463376413
 20
87.05966380373377
 30
0.0
 11
315.813463376413
 21
-452.9403361962661
 31
0.0
  0
LINE
  5
415
  8
回90-A1和
 10
310.813463376413
 20
-457.9403361962659
 30
0.0
 11
310.813463376413
 21
92.05966380373377
 31
0.0
  0
LINE
  5
416
  8
回90-A1和
 10
315.813463376413
 20
-452.9403361962661
 30
0.0
 11
1115.813463376413
 21
-452.9403361962661
 31
0.0
  0
LINE
  5
417
  8
回90-A1和
 10
1120.813463376413
 20
-457.9403361962659
 30
0.0
 11
310.813463376413
 21
-457.9403361962659
 31
0.0
  0
LINE
  5
418
  8
回90-A1和
 10
315.813463376413
 20
87.05966380373377
 30
0.0
 11
1115.813463376413
 21
87.05966380373377
 31
0.0
  0
LINE
  5
419
  8
回90-A1和
 10
1120.813463376413
 20
92.05966380373377
 30
0.0
 11
310.813463376413
 21
92.05966380373377
 31
0.0
  0
ENDSEC
  0
EOF
