  0
SECTION
  2
HEADER
  9
$ACADVER
  1
AC1009
  9
$INSBASE
 10
0.0
 20
0.0
 30
0.0
  9
$EXTMIN
 10
-701.9874419149437
 20
166.0039023948375
 30
0.0
  9
$EXTMAX
 10
108.0125580850563
 20
758.8146478496447
 30
0.0
  9
$LIMMIN
 10
0.0
 20
0.0
  9
$LIMMAX
 10
880.0
 20
620.0
  9
$ORTHOMODE
 70
     1
  9
$REGENMODE
 70
     1
  9
$FILLMODE
 70
     1
  9
$QTEXTMODE
 70
     0
  9
$MIRRTEXT
 70
     1
  9
$DRAGMODE
 70
     2
  9
$LTSCALE
 40
2.087542087542086
  9
$OSMODE
 70
    37
  9
$ATTMODE
 70
     1
  9
$TEXTSIZE
 40
3.0
  9
$TRACEWID
 40
1.0
  9
$TEXTSTYLE
  7
STANDARD
  9
$CLAYER
  8
回02-上ER
  9
$CELTYPE
  6
CONTINUOUS
  9
$CECOLOR
 62
     7
  9
$DIMSCALE
 40
1.0
  9
$DIMASZ
 40
2.0
  9
$DIMEXO
 40
0.0
  9
$DIMDLI
 40
0.0
  9
$DIMRND
 40
0.0
  9
$DIMDLE
 40
0.0
  9
$DIMEXE
 40
1.0
  9
$DIMTP
 40
0.0
  9
$DIMTM
 40
0.0
  9
$DIMTXT
 40
6.0
  9
$DIMCEN
 40
2.0
  9
$DIMTSZ
 40
0.0
  9
$DIMTOL
 70
     0
  9
$DIMLIM
 70
     0
  9
$DIMTIH
 70
     0
  9
$DIMTOH
 70
     0
  9
$DIMSE1
 70
     0
  9
$DIMSE2
 70
     0
  9
$DIMTAD
 70
     3
  9
$DIMZIN
 70
     8
  9
$DIMBLK
  1
OPEN
  9
$DIMASO
 70
     1
  9
$DIMSHO
 70
     1
  9
$DIMPOST
  1

  9
$DIMAPOST
  1

  9
$DIMALT
 70
     1
  9
$DIMALTD
 70
     3
  9
$DIMALTF
 40
0.03937007874016
  9
$DIMLFAC
 40
1.0
  9
$DIMTOFL
 70
     1
  9
$DIMTVP
 40
0.0
  9
$DIMTIX
 70
     0
  9
$DIMSOXD
 70
     0
  9
$DIMSAH
 70
     0
  9
$DIMBLK1
  1

  9
$DIMBLK2
  1

  9
$DIMSTYLE
  2
DMC
  9
$DIMCLRD
 70
     5
  9
$DIMCLRE
 70
     5
  9
$DIMCLRT
 70
     5
  9
$DIMTFAC
 40
0.7
  9
$DIMGAP
 40
0.5
  9
$LUNITS
 70
     2
  9
$LUPREC
 70
     4
  9
$SKETCHINC
 40
1.0
  9
$FILLETRAD
 40
1.0
  9
$AUNITS
 70
     0
  9
$AUPREC
 70
     0
  9
$MENU
  1
.
  9
$ELEVATION
 40
0.0
  9
$PELEVATION
 40
0.0
  9
$THICKNESS
 40
0.0
  9
$LIMCHECK
 70
     0
  9
$BLIPMODE
 70
     0
  9
$CHAMFERA
 40
3.0
  9
$CHAMFERB
 40
3.0
  9
$SKPOLY
 70
     0
  9
$TDCREATE
 40
2450431.727493866
  9
$TDUPDATE
 40
2460221.430387025
  9
$TDINDWG
 40
5.294760382
  9
$TDUSRTIMER
 40
5.294758241
  9
$USRTIMER
 70
     1
  9
$ANGBASE
 50
0.0
  9
$ANGDIR
 70
     0
  9
$PDMODE
 70
    34
  9
$PDSIZE
 40
0.0
  9
$PLINEWID
 40
0.2
  9
$COORDS
 70
     0
  9
$SPLFRAME
 70
     0
  9
$SPLINETYPE
 70
     6
  9
$SPLINESEGS
 70
     8
  9
$ATTDIA
 70
     1
  9
$ATTREQ
 70
     1
  9
$HANDLING
 70
     1
  9
$HANDSEED
  5
AF1
  9
$SURFTAB1
 70
     6
  9
$SURFTAB2
 70
     6
  9
$SURFTYPE
 70
     6
  9
$SURFU
 70
     6
  9
$SURFV
 70
     6
  9
$UCSNAME
  2

  9
$UCSORG
 10
0.0
 20
0.0
 30
0.0
  9
$UCSXDIR
 10
1.0
 20
0.0
 30
0.0
  9
$UCSYDIR
 10
0.0
 20
1.0
 30
0.0
  9
$PUCSNAME
  2

  9
$PUCSORG
 10
0.0
 20
0.0
 30
0.0
  9
$PUCSXDIR
 10
1.0
 20
0.0
 30
0.0
  9
$PUCSYDIR
 10
0.0
 20
1.0
 30
0.0
  9
$USERI1
 70
     0
  9
$USERI2
 70
     0
  9
$USERI3
 70
     0
  9
$USERI4
 70
     0
  9
$USERI5
 70
     0
  9
$USERR1
 40
0.0
  9
$USERR2
 40
0.0
  9
$USERR3
 40
0.0
  9
$USERR4
 40
0.0
  9
$USERR5
 40
0.0
  9
$WORLDVIEW
 70
     1
  9
$SHADEDGE
 70
     3
  9
$SHADEDIF
 70
    70
  9
$TILEMODE
 70
     1
  9
$MAXACTVP
 70
    16
  9
$PLIMCHECK
 70
     0
  9
$PEXTMIN
 10
1.000000000000000E+20
 20
1.000000000000000E+20
 30
1.000000000000000E+20
  9
$PEXTMAX
 10
-1.000000000000000E+20
 20
-1.000000000000000E+20
 30
-1.000000000000000E+20
  9
$PLIMMIN
 10
0.0
 20
0.0
  9
$PLIMMAX
 10
420.0
 20
297.0
  9
$UNITMODE
 70
     0
  9
$VISRETAIN
 70
     0
  9
$PLINEGEN
 70
     0
  9
$PSLTSCALE
 70
     1
  0
ENDSEC
  0
SECTION
  2
TABLES
  0
TABLE
  2
VPORT
 70
     1
  0
VPORT
  2
*ACTIVE
 70
     0
 10
0.0
 20
0.0
 11
1.0
 21
1.0
 12
-250.8048999284857
 22
403.0429747994524
 13
0.0
 23
0.0
 14
0.25
 24
0.25
 15
1.0
 25
1.0
 16
0.0
 26
0.0
 36
1.0
 17
0.0
 27
0.0
 37
0.0
 40
1131.376837931924
 41
1.002570694087403
 42
50.0
 43
0.0
 44
0.0
 50
0.0
 51
0.0
 71
     0
 72
   100
 73
     1
 74
     0
 75
     0
 76
     0
 77
     0
 78
     0
  0
ENDTAB
  0
TABLE
  2
LTYPE
 70
     4
  0
LTYPE
  2
CONTINUOUS
 70
     0
  3
Solid line
 72
    65
 73
     0
 40
0.0
  0
LTYPE
  2
CENTER2
 70
     0
  3
___ _ ___ _ ___ _ ___ _ ___ _ ___ _ ___ _ ___ _
 72
    65
 73
     4
 40
1.125
 49
0.75
 49
-0.125
 49
0.125
 49
-0.125
  0
LTYPE
  2
DASHED2
 70
     0
  3
_ _ _ _ _ _ _ _ _ _ _ _ _ _ _ _ _ _ _ _ _ _ _ _
 72
    65
 73
     2
 40
0.375
 49
0.25
 49
-0.125
  0
LTYPE
  2
PHANTOM2
 70
     0
  3
Phantom (.5x) ___ _ _ ___ _ _ ___ _ _ ___ _ _
 72
    65
 73
     6
 40
1.25
 49
0.625
 49
-0.125
 49
0.125
 49
-0.125
 49
0.125
 49
-0.125
  0
ENDTAB
  0
TABLE
  2
LAYER
 70
     9
  0
LAYER
  2
0
 70
     0
 62
     7
  6
CONTINUOUS
  0
LAYER
  2
DEFPOINTS
 70
     0
 62
     7
  6
CONTINUOUS
  0
LAYER
  2
回03-下接
 70
     0
 62
     7
  6
CONTINUOUS
  0
LAYER
  2
回02-上ER
 70
     0
 62
     7
  6
CONTINUOUS
  0
LAYER
  2
回08-記事
 70
     0
 62
     7
  6
CONTINUOUS
  0
LAYER
  2
回07-寸法
 70
     0
 62
     7
  6
CONTINUOUS
  0
LAYER
  2
回05-ﾃｰﾙ
 70
     0
 62
     7
  6
CONTINUOUS
  0
LAYER
  2
回91-枠英1
 70
     0
 62
     7
  6
CONTINUOUS
  0
LAYER
  2
回03-記事
 70
     0
 62
     7
  6
CONTINUOUS
  0
ENDTAB
  0
TABLE
  2
STYLE
 70
     2
  0
STYLE
  2
STANDARD
 70
     0
 40
6.0
 41
1.0
 50
0.0
 71
     0
 42
3.0
  3
isocp.shx
  4
bigfont.shx
  0
STYLE
  2
ANNOTATIVE
 70
     0
 40
0.0
 41
1.0
 50
0.0
 71
     0
 42
0.2
  3
txt.shx
  4

  0
ENDTAB
  0
TABLE
  2
VIEW
 70
     0
  0
ENDTAB
  0
TABLE
  2
UCS
 70
     0
  0
ENDTAB
  0
TABLE
  2
APPID
 70
     7
  0
APPID
  2
ACAD
 70
     0
  0
APPID
  2
ACADANNOTATIVE
 70
     0
  0
APPID
  2
ACAD_PSEXT
 70
     0
  0
APPID
  2
ACAD_DSTYLE_DIMJAG
 70
     0
  0
APPID
  2
ACAD_DSTYLE_DIMTALN
 70
     0
  0
APPID
  2
ACAD_NAV_VCDISPLAY
 70
     0
  0
APPID
  2
PLOTTRANSPARENCY
 70
     0
  0
ENDTAB
  0
TABLE
  2
DIMSTYLE
 70
     2
  0
DIMSTYLE
  2
KOUSA
 70
     0
  3

  4

  5

  6
OPEN
  7
OPEN
 40
1.0
 41
2.0
 42
0.0
 43
0.0
 44
1.0
 45
0.0
 46
0.0
 47
0.1
 48
0.1
140
3.0
141
2.0
142
0.0
143
25.4
144
1.0
145
0.0
146
0.7
147
0.5
 71
     1
 72
     0
 73
     0
 74
     0
 75
     0
 76
     0
 77
     3
 78
     8
170
     0
171
     2
172
     1
173
     1
174
     0
175
     0
176
     5
177
     5
178
     5
  0
DIMSTYLE
  2
DMC
 70
     0
  3

  4

  5
OPEN
  6

  7

 40
1.0
 41
2.0
 42
0.0
 43
0.0
 44
1.0
 45
0.0
 46
0.0
 47
0.0
 48
0.0
140
6.0
141
2.0
142
0.0
143
0.03937007874016
144
1.0
145
0.0
146
0.7
147
0.5
 71
     0
 72
     0
 73
     0
 74
     0
 75
     0
 76
     0
 77
     3
 78
     8
170
     1
171
     3
172
     1
173
     0
174
     0
175
     0
176
     5
177
     5
178
     5
  0
ENDTAB
  0
ENDSEC
  0
SECTION
  2
BLOCKS
  0
BLOCK
  8
0
  2
$MODEL_SPACE
 70
     0
 10
0.0
 20
0.0
 30
0.0
  3
$MODEL_SPACE
  1

  0
ENDBLK
  8
0
  5
24
  0
BLOCK
 67
     1
  8
0
  2
$PAPER_SPACE
 70
     0
 10
0.0
 20
0.0
 30
0.0
  3
$PAPER_SPACE
  1

  0
ENDBLK
  5
2A
 67
     1
  8
0
  0
BLOCK
  8
0
  2
_OPEN
 70
     0
 10
0.0
 20
0.0
 30
0.0
  3
_OPEN
  1

  0
LINE
  5
8FF
  8
0
  6
BYBLOCK
 62
     0
 10
-1.0
 20
0.166667
 30
0.0
 11
0.0
 21
0.0
 31
0.0
  0
LINE
  5
900
  8
0
  6
BYBLOCK
 62
     0
 10
-1.0
 20
-0.166667
 30
0.0
 11
0.0
 21
0.0
 31
0.0
  0
LINE
  5
901
  8
0
  6
BYBLOCK
 62
     0
 10
0.0
 20
0.0
 30
0.0
 11
-1.0
 21
0.0
 31
0.0
  0
LINE
  5
6B5
  8
0
  6
BYBLOCK
 62
     0
 10
-1.0
 20
0.166667
 30
0.0
 11
0.0
 21
0.0
 31
0.0
  0
LINE
  5
6B6
  8
0
  6
BYBLOCK
 62
     0
 10
-1.0
 20
-0.166667
 30
0.0
 11
0.0
 21
0.0
 31
0.0
  0
LINE
  5
6B7
  8
0
  6
BYBLOCK
 62
     0
 10
0.0
 20
0.0
 30
0.0
 11
-1.0
 21
0.0
 31
0.0
  0
LINE
  5
15
  8
0
  6
BYBLOCK
 62
     0
 10
-1.0
 20
0.1666666666666666
 30
0.0
 11
0.0
 21
0.0
 31
0.0
  0
LINE
  5
17
  8
0
  6
BYBLOCK
 62
     0
 10
0.0
 20
0.0
 30
0.0
 11
-1.0
 21
-0.1666666666666666
 31
0.0
  0
LINE
  5
18
  8
0
  6
BYBLOCK
 62
     0
 10
0.0
 20
0.0
 30
0.0
 11
-1.0
 21
0.0
 31
0.0
  0
ENDBLK
  5
19
  8
0
  0
BLOCK
  8
0
  2
*D111
 70
     1
 10
0.0
 20
0.0
 30
0.0
  3
*D111
  1

  0
LINE
  5
2C4
  8
回08-記事
  6
CONTINUOUS
 62
     5
 10
-474.3245345605385
 20
396.2211059893379
 30
0.0
 11
-485.6336641427135
 21
396.2211059893379
 31
0.0
  0
LINE
  5
2C5
  8
回08-記事
  6
CONTINUOUS
 62
     5
 10
-474.3245345605385
 20
390.9809922215812
 30
0.0
 11
-485.6336641427135
 21
390.9809922215812
 31
0.0
  0
LINE
  5
2C6
  8
回08-記事
  6
CONTINUOUS
 62
     5
 10
-484.6336641427135
 20
398.2211059893379
 30
0.0
 11
-484.6336641427135
 21
400.2211059893378
 31
0.0
  0
LINE
  5
2C7
  8
回08-記事
  6
CONTINUOUS
 62
     5
 10
-484.6336641427135
 20
388.9809922215812
 30
0.0
 11
-484.6336641427135
 21
324.3262678121324
 31
0.0
  0
LINE
  5
2C8
  8
回08-記事
  6
CONTINUOUS
 62
     5
 10
-484.6336641427135
 20
396.2211059893379
 30
0.0
 11
-484.6336641427135
 21
390.9809922215812
 31
0.0
  0
INSERT
  5
2C9
  8
回08-記事
  6
CONTINUOUS
 62
     5
 66
     1
  2
_OPEN
 10
-484.6336641427135
 20
396.2211059893379
 30
0.0
 41
2.0
 42
2.0
 43
2.0
 50
270.0
  0
SEQEND
  5
2CA
  8
回02-上ER
  6
CONTINUOUS
 62
     7
  0
INSERT
  5
2CB
  8
回08-記事
  6
CONTINUOUS
 62
     5
 66
     1
  2
_OPEN
 10
-484.6336641427135
 20
390.9809922215812
 30
0.0
 41
2.0
 42
2.0
 43
2.0
 50
90.0
  0
SEQEND
  5
2CC
  8
回02-上ER
  6
CONTINUOUS
 62
     7
  0
INSERT
  5
2CD
  8
回08-記事
  6
CONTINUOUS
 62
     5
 66
     1
  2
*X787878
 10
0.0
 20
0.0
 30
0.0
  0
SEQEND
  5
5CB
  8
回02-上ER
  6
CONTINUOUS
 62
     7
  0
POINT
  5
2CE
  8
DEFPOINTS
  6
CONTINUOUS
 62
     0
 10
-474.3245345605385
 20
396.2211059893379
 30
0.0
  0
POINT
  5
2CF
  8
DEFPOINTS
  6
CONTINUOUS
 62
     0
 10
-474.3245345605385
 20
390.9809922215812
 30
0.0
  0
POINT
  5
2D0
  8
DEFPOINTS
  6
CONTINUOUS
 62
     0
 10
-484.6336641427135
 20
390.9809922215812
 30
0.0
  0
ENDBLK
  5
2D1
  8
0
 62
     7
  0
BLOCK
  8
0
  2
*D222
 70
     1
 10
0.0
 20
0.0
 30
0.0
  3
*D222
  1

  0
LINE
  5
2B2
  8
回08-記事
  6
CONTINUOUS
 62
     5
 10
-474.324534560538
 20
390.980992221581
 30
0.0
 11
-474.324534560538
 21
364.3615268803168
 31
0.0
  0
LINE
  5
2B3
  8
回08-記事
  6
CONTINUOUS
 62
     5
 10
-464.3245345605381
 20
390.980992221581
 30
0.0
 11
-464.3245345605381
 21
364.3615268803168
 31
0.0
  0
LINE
  5
2B4
  8
回08-記事
  6
CONTINUOUS
 62
     5
 10
-476.3245345605382
 20
365.3615268803168
 30
0.0
 11
-478.324534560538
 21
365.3615268803168
 31
0.0
  0
LINE
  5
2B5
  8
回08-記事
  6
CONTINUOUS
 62
     5
 10
-462.3245345605381
 20
365.3615268803168
 30
0.0
 11
-420.5422304834669
 21
365.3615268803168
 31
0.0
  0
LINE
  5
2B6
  8
回08-記事
  6
CONTINUOUS
 62
     5
 10
-474.324534560538
 20
365.3615268803168
 30
0.0
 11
-464.3245345605381
 21
365.3615268803168
 31
0.0
  0
INSERT
  5
2B7
  8
回08-記事
  6
CONTINUOUS
 62
     5
 66
     1
  2
_OPEN
 10
-474.324534560538
 20
365.3615268803168
 30
0.0
 41
2.0
 42
2.0
 43
2.0
  0
SEQEND
  5
2B8
  8
回02-上ER
  6
CONTINUOUS
 62
     7
  0
INSERT
  5
2B9
  8
回08-記事
  6
CONTINUOUS
 62
     5
 66
     1
  2
_OPEN
 10
-464.3245345605381
 20
365.3615268803168
 30
0.0
 41
2.0
 42
2.0
 43
2.0
 50
180.0
  0
SEQEND
  5
2BA
  8
回02-上ER
  6
CONTINUOUS
 62
     7
  0
TEXT
  5
2BB
  8
回08-記事
  6
CONTINUOUS
 62
     5
 10
-459.7611823758062
 20
366.1614070681123
 30
0.0
 40
6.0
  1
(10 [0.394])
1001
ACAD
1000
MTEXTBEGIN
1070
    73
1070
     1
1070
    44
1040
1.0
1070
    74
1070
     0
1000
MTEXTEND
  0
POINT
  5
2BC
  8
DEFPOINTS
  6
CONTINUOUS
 62
     0
 10
-474.324534560538
 20
390.980992221581
 30
0.0
  0
POINT
  5
2BD
  8
DEFPOINTS
  6
CONTINUOUS
 62
     0
 10
-464.3245345605381
 20
390.980992221581
 30
0.0
  0
POINT
  5
2BE
  8
DEFPOINTS
  6
CONTINUOUS
 62
     0
 10
-464.3245345605381
 20
365.3615268803168
 30
0.0
  0
ENDBLK
  5
2BF
  8
0
 62
     7
  0
BLOCK
  8
0
  2
*D333
 70
     1
 10
0.0
 20
0.0
 30
0.0
  3
*D333
  1

  0
LINE
  5
29F
  8
回08-記事
  6
CONTINUOUS
 62
     5
 10
-474.324534560538
 20
396.2211059893376
 30
0.0
 11
-474.324534560538
 21
402.1950716756378
 31
0.0
  0
LINE
  5
2A0
  8
回08-記事
  6
CONTINUOUS
 62
     5
 10
-469.324534560538
 20
397.221105989338
 30
0.0
 11
-469.324534560538
 21
402.1950716756378
 31
0.0
  0
LINE
  5
2A1
  8
回08-記事
  6
CONTINUOUS
 62
     5
 10
-476.3245345605382
 20
401.1950716756378
 30
0.0
 11
-478.324534560538
 21
401.1950716756378
 31
0.0
  0
LINE
  5
2A2
  8
回08-記事
  6
CONTINUOUS
 62
     5
 10
-467.3245345605383
 20
401.1950716756378
 30
0.0
 11
-433.7518214123255
 21
401.1950716756378
 31
0.0
  0
LINE
  5
2A3
  8
回08-記事
  6
CONTINUOUS
 62
     5
 10
-474.324534560538
 20
401.1950716756378
 30
0.0
 11
-469.324534560538
 21
401.1950716756378
 31
0.0
  0
INSERT
  5
2A4
  8
回08-記事
  6
CONTINUOUS
 62
     5
 66
     1
  2
_OPEN
 10
-474.324534560538
 20
401.1950716756378
 30
0.0
 41
2.0
 42
2.0
 43
2.0
  0
SEQEND
  5
2A5
  8
回02-上ER
  6
CONTINUOUS
 62
     7
  0
INSERT
  5
2A6
  8
回08-記事
  6
CONTINUOUS
 62
     5
 66
     1
  2
_OPEN
 10
-469.324534560538
 20
401.1950716756378
 30
0.0
 41
2.0
 42
2.0
 43
2.0
 50
180.0
  0
SEQEND
  5
2A7
  8
回02-上ER
  6
CONTINUOUS
 62
     7
  0
TEXT
  5
2A8
  8
回08-記事
  6
CONTINUOUS
 62
     5
 10
-463.3731355093892
 20
401.9949518634331
 30
0.0
 40
6.0
  1
5 [0.197]
1001
ACAD
1000
MTEXTBEGIN
1070
    73
1070
     1
1070
    44
1040
1.0
1070
    74
1070
     0
1000
MTEXTEND
  0
POINT
  5
2A9
  8
DEFPOINTS
  6
CONTINUOUS
 62
     0
 10
-474.324534560538
 20
396.2211059893376
 30
0.0
  0
POINT
  5
2AA
  8
DEFPOINTS
  6
CONTINUOUS
 62
     0
 10
-469.324534560538
 20
397.221105989338
 30
0.0
  0
POINT
  5
2AB
  8
DEFPOINTS
  6
CONTINUOUS
 62
     0
 10
-469.324534560538
 20
401.1950716756378
 30
0.0
  0
ENDBLK
  5
2AC
  8
0
 62
     7
  0
BLOCK
  8
0
  2
*D444
 70
     1
 10
0.0
 20
0.0
 30
0.0
  3
*D444
  1

  0
LINE
  5
26D
  8
回08-記事
  6
CONTINUOUS
 62
     5
 10
-6.824534560538499
 20
399.0538857454152
 30
0.0
 11
3.751853026945553
 21
399.0538857454152
 31
0.0
  0
LINE
  5
26E
  8
回08-記事
  6
CONTINUOUS
 62
     5
 10
-6.324534560538271
 20
389.9809922215812
 30
0.0
 11
3.751853026945556
 21
389.9809922215812
 31
0.0
  0
LINE
  5
26F
  8
回08-記事
  6
CONTINUOUS
 62
     5
 10
2.751853026945555
 20
387.9809922215812
 30
0.0
 11
2.751853026945555
 21
385.9809922215812
 31
0.0
  0
LINE
  5
270
  8
回08-記事
  6
CONTINUOUS
 62
     5
 10
2.751853026945551
 20
401.0538857454151
 30
0.0
 11
2.751853026945551
 21
462.7062479501394
 31
0.0
  0
LINE
  5
271
  8
回08-記事
  6
CONTINUOUS
 62
     5
 10
2.751853026945555
 20
389.9809922215812
 30
0.0
 11
2.751853026945555
 21
399.0538857454152
 31
0.0
  0
INSERT
  5
272
  8
回08-記事
  6
CONTINUOUS
 62
     5
 66
     1
  2
_OPEN
 10
2.751853026945555
 20
389.9809922215812
 30
0.0
 41
2.0
 42
2.0
 43
2.0
 50
90.0
  0
SEQEND
  5
273
  8
回02-上ER
  6
CONTINUOUS
 62
     7
  0
INSERT
  5
274
  8
回08-記事
  6
CONTINUOUS
 62
     5
 66
     1
  2
_OPEN
 10
2.751853026945553
 20
399.0538857454152
 30
0.0
 41
2.0
 42
2.0
 43
2.0
 50
270.0
  0
SEQEND
  5
275
  8
回02-上ER
  6
CONTINUOUS
 62
     7
  0
INSERT
  5
276
  8
回08-記事
  6
CONTINUOUS
 62
     5
 66
     1
  2
*X797979
 10
0.0
 20
0.0
 30
0.0
  0
SEQEND
  5
5D4
  8
回02-上ER
  6
CONTINUOUS
 62
     7
  0
POINT
  5
277
  8
DEFPOINTS
  6
CONTINUOUS
 62
     0
 10
-6.824534560538499
 20
399.0538857454152
 30
0.0
  0
POINT
  5
278
  8
DEFPOINTS
  6
CONTINUOUS
 62
     0
 10
-6.324534560538271
 20
389.9809922215812
 30
0.0
  0
POINT
  5
279
  8
DEFPOINTS
  6
CONTINUOUS
 62
     0
 10
2.751853026945555
 20
389.9809922215812
 30
0.0
  0
ENDBLK
  5
27A
  8
0
 62
     7
  0
BLOCK
  8
0
  2
*D555
 70
     1
 10
0.0
 20
0.0
 30
0.0
  3
*D555
  1

  0
LINE
  5
242
  8
回07-寸法
  6
CONTINUOUS
 62
     5
 10
-334.3245345605383
 20
734.8719919848146
 30
0.0
 11
-485.7675796087094
 21
734.8719919848146
 31
0.0
  0
LINE
  5
243
  8
回07-寸法
  6
CONTINUOUS
 62
     5
 10
-473.8245345605387
 20
611.9919615425092
 30
0.0
 11
-485.7675796087094
 21
611.9919615425092
 31
0.0
  0
LINE
  5
244
  8
回07-寸法
  6
CONTINUOUS
 62
     5
 10
-484.7675796087094
 20
732.8719919848146
 30
0.0
 11
-484.7675796087094
 21
613.9919615425092
 31
0.0
  0
INSERT
  5
245
  8
回07-寸法
  6
CONTINUOUS
 62
     5
 66
     1
  2
_OPEN
 10
-484.7675796087094
 20
734.8719919848146
 30
0.0
 41
2.0
 42
2.0
 43
2.0
 50
90.0
  0
SEQEND
  5
246
  8
回02-上ER
  6
CONTINUOUS
 62
     7
  0
INSERT
  5
247
  8
回07-寸法
  6
CONTINUOUS
 62
     5
 66
     1
  2
_OPEN
 10
-484.7675796087094
 20
611.9919615425092
 30
0.0
 41
2.0
 42
2.0
 43
2.0
 50
270.0
  0
SEQEND
  5
248
  8
回02-上ER
  6
CONTINUOUS
 62
     7
  0
TEXT
  5
249
  8
回07-寸法
  6
CONTINUOUS
 62
     5
 10
-485.5675796087091
 20
645.1920365453187
 30
0.0
 40
6.0
  1
(122.88 [4.838])
 50
90.0
  0
POINT
  5
24A
  8
DEFPOINTS
  6
CONTINUOUS
 62
     0
 10
-334.3245345605383
 20
734.8719919848146
 30
0.0
  0
POINT
  5
24B
  8
DEFPOINTS
  6
CONTINUOUS
 62
     0
 10
-473.8245345605387
 20
611.9919615425092
 30
0.0
  0
POINT
  5
24C
  8
DEFPOINTS
  6
CONTINUOUS
 62
     0
 10
-484.7675796087094
 20
611.9919615425092
 30
0.0
  0
ENDBLK
  5
24D
  8
0
 62
     7
  0
BLOCK
  8
0
  2
*D666
 70
     1
 10
0.0
 20
0.0
 30
0.0
  3
*D666
  1

  0
LINE
  5
22E
  8
回07-寸法
  6
CONTINUOUS
 62
     5
 10
-6.424534560538178
 20
492.3719919848148
 30
0.0
 11
9.404915021828717
 21
492.3719919848148
 31
0.0
  0
LINE
  5
22F
  8
回07-寸法
  6
CONTINUOUS
 62
     5
 10
-6.424534560538178
 20
490.3719919848148
 30
0.0
 11
9.404915021828717
 21
490.3719919848148
 31
0.0
  0
LINE
  5
230
  8
回07-寸法
  6
CONTINUOUS
 62
     5
 10
8.404915021828717
 20
488.3719919848148
 30
0.0
 11
8.404915021828717
 21
486.3719919848148
 31
0.0
  0
LINE
  5
231
  8
回07-寸法
  6
CONTINUOUS
 62
     5
 10
8.404915021828713
 20
494.3719919848148
 30
0.0
 11
8.404915021828713
 21
534.4395870227913
 31
0.0
  0
LINE
  5
232
  8
回07-寸法
  6
CONTINUOUS
 62
     5
 10
8.404915021828717
 20
490.3719919848148
 30
0.0
 11
8.404915021828717
 21
492.3719919848148
 31
0.0
  0
INSERT
  5
233
  8
回07-寸法
  6
CONTINUOUS
 62
     5
 66
     1
  2
_OPEN
 10
8.404915021828717
 20
490.3719919848148
 30
0.0
 41
2.0
 42
2.0
 43
2.0
 50
90.0
  0
SEQEND
  5
234
  8
回02-上ER
  6
CONTINUOUS
 62
     7
  0
INSERT
  5
235
  8
回07-寸法
  6
CONTINUOUS
 62
     5
 66
     1
  2
_OPEN
 10
8.404915021828713
 20
492.3719919848148
 30
0.0
 41
2.0
 42
2.0
 43
2.0
 50
270.0
  0
SEQEND
  5
236
  8
回02-上ER
  6
CONTINUOUS
 62
     7
  0
TEXT
  5
237
  8
回07-寸法
  6
CONTINUOUS
 62
     5
 10
7.605034834033517
 20
498.8206351304518
 30
0.0
 40
6.0
  1
(2 [0.079])
 50
90.0
1001
ACAD
1000
MTEXTBEGIN
1070
    73
1070
     1
1070
    44
1040
1.0
1070
    74
1070
     0
1000
MTEXTEND
  0
POINT
  5
238
  8
DEFPOINTS
  6
CONTINUOUS
 62
     0
 10
-6.424534560538178
 20
492.3719919848148
 30
0.0
  0
POINT
  5
239
  8
DEFPOINTS
  6
CONTINUOUS
 62
     0
 10
-6.424534560538178
 20
490.3719919848148
 30
0.0
  0
POINT
  5
23A
  8
DEFPOINTS
  6
CONTINUOUS
 62
     0
 10
8.404915021828717
 20
490.3719919848148
 30
0.0
  0
ENDBLK
  5
23B
  8
0
 62
     7
  0
BLOCK
  8
0
  2
*D777
 70
     1
 10
0.0
 20
0.0
 30
0.0
  3
*D777
  1

  0
LINE
  5
21D
  8
回07-寸法
 62
     5
 10
-473.8245345605387
 20
611.9919615425088
 30
0.0
 11
-485.7825040879644
 21
611.9919615425088
 31
0.0
  0
LINE
  5
21E
  8
回07-寸法
 62
     5
 10
-473.8245345605387
 20
605.7419615425088
 30
0.0
 11
-485.7825040879644
 21
605.7419615425088
 31
0.0
  0
LINE
  5
21F
  8
回07-寸法
 62
     5
 10
-484.7825040879643
 20
613.9919615425091
 30
0.0
 11
-484.7825040879643
 21
615.9919615425089
 31
0.0
  0
LINE
  5
220
  8
回07-寸法
 62
     5
 10
-484.7825040879643
 20
603.7419615425091
 30
0.0
 11
-484.7825040879643
 21
556.8029851645563
 31
0.0
  0
LINE
  5
221
  8
回07-寸法
 62
     5
 10
-484.7825040879643
 20
611.9919615425088
 30
0.0
 11
-484.7825040879643
 21
605.7419615425088
 31
0.0
  0
INSERT
  5
222
  8
回07-寸法
 62
     5
 66
     1
  2
_OPEN
 10
-484.7825040879643
 20
611.9919615425088
 30
0.0
 41
2.0
 42
2.0
 43
2.0
 50
270.0
  0
SEQEND
  5
223
  8
回02-上ER
  6
CONTINUOUS
 62
     7
  0
INSERT
  5
224
  8
回07-寸法
 62
     5
 66
     1
  2
_OPEN
 10
-484.7825040879643
 20
605.7419615425088
 30
0.0
 41
2.0
 42
2.0
 43
2.0
 50
90.0
  0
SEQEND
  5
225
  8
回02-上ER
  6
CONTINUOUS
 62
     7
  0
TEXT
  5
226
  8
回07-寸法
 62
     5
 10
-485.5825040879643
 20
556.5825127236113
 30
0.0
 40
6.0
  1
6.25 [0.246]
 50
90.0
1001
ACAD
1000
MTEXTBEGIN
1070
    73
1070
     1
1070
    44
1040
1.0
1070
    74
1070
     0
1000
MTEXTEND
  0
POINT
  5
227
  8
DEFPOINTS
 62
     0
 10
-473.8245345605387
 20
611.9919615425088
 30
0.0
  0
POINT
  5
228
  8
DEFPOINTS
 62
     0
 10
-473.8245345605387
 20
605.7419615425088
 30
0.0
  0
POINT
  5
229
  8
DEFPOINTS
 62
     0
 10
-484.7825040879643
 20
605.7419615425088
 30
0.0
  0
ENDBLK
  5
22A
  8
0
 62
     7
  0
BLOCK
  8
0
  2
*D888
 70
     1
 10
0.0
 20
0.0
 30
0.0
  3
*D888
  1

  0
LINE
  5
20B
  8
回07-寸法
  6
CONTINUOUS
 62
     5
 10
-334.3245345605383
 20
734.8719919848146
 30
0.0
 11
-334.3245345605383
 21
743.2189560247502
 31
0.0
  0
LINE
  5
20C
  8
回07-寸法
  6
CONTINUOUS
 62
     5
 10
-169.8245345605382
 20
736.5928386889091
 30
0.0
 11
-169.8245345605382
 21
743.2189560247502
 31
0.0
  0
LINE
  5
20D
  8
回07-寸法
  6
CONTINUOUS
 62
     5
 10
-332.3245345605382
 20
742.2189560247502
 30
0.0
 11
-171.8245345605383
 21
742.2189560247502
 31
0.0
  0
INSERT
  5
20E
  8
回07-寸法
  6
CONTINUOUS
 62
     5
 66
     1
  2
_OPEN
 10
-334.3245345605383
 20
742.2189560247502
 30
0.0
 41
2.0
 42
2.0
 43
2.0
 50
180.0
  0
SEQEND
  5
20F
  8
回02-上ER
  6
CONTINUOUS
 62
     7
  0
INSERT
  5
210
  8
回07-寸法
  6
CONTINUOUS
 62
     5
 66
     1
  2
_OPEN
 10
-169.8245345605382
 20
742.2189560247502
 30
0.0
 41
2.0
 42
2.0
 43
2.0
  0
SEQEND
  5
211
  8
回02-上ER
  6
CONTINUOUS
 62
     7
  0
TEXT
  5
212
  8
回07-寸法
  6
CONTINUOUS
 62
     5
 10
-311.2932956640739
 20
743.0189560247502
 30
0.0
 40
6.0
  1
164.5 [6.476] (ACTIVE AREA CENTER)
  0
POINT
  5
213
  8
DEFPOINTS
  6
CONTINUOUS
 62
     0
 10
-334.3245345605383
 20
734.8719919848146
 30
0.0
  0
POINT
  5
214
  8
DEFPOINTS
  6
CONTINUOUS
 62
     0
 10
-169.8245345605382
 20
736.5928386889091
 30
0.0
  0
POINT
  5
215
  8
DEFPOINTS
  6
CONTINUOUS
 62
     0
 10
-169.8245345605382
 20
742.2189560247502
 30
0.0
  0
ENDBLK
  5
216
  8
0
 62
     7
  0
BLOCK
  8
0
  2
*D999
 70
     1
 10
0.0
 20
0.0
 30
0.0
  3
*D999
  1

  0
LINE
  5
1FC
  8
回07-寸法
  6
CONTINUOUS
 62
     5
 10
-322.3245345605383
 20
723.3719919848142
 30
0.0
 11
-322.3245345605383
 21
760.425169624928
 31
0.0
  0
LINE
  5
1FD
  8
回07-寸法
  6
CONTINUOUS
 62
     5
 10
-17.32453456053827
 20
723.3719919848142
 30
0.0
 11
-17.32453456053827
 21
760.425169624928
 31
0.0
  0
LINE
  5
1FE
  8
回07-寸法
  6
CONTINUOUS
 62
     5
 10
-320.3245345605383
 20
759.425169624928
 30
0.0
 11
-19.32453456053826
 21
759.425169624928
 31
0.0
  0
INSERT
  5
1FF
  8
回07-寸法
  6
CONTINUOUS
 62
     5
 66
     1
  2
_OPEN
 10
-322.3245345605383
 20
759.425169624928
 30
0.0
 41
2.0
 42
2.0
 43
2.0
 50
180.0
  0
SEQEND
  5
200
  8
回02-上ER
  6
CONTINUOUS
 62
     7
  0
INSERT
  5
201
  8
回07-寸法
  6
CONTINUOUS
 62
     5
 66
     1
  2
_OPEN
 10
-17.32453456053826
 20
759.425169624928
 30
0.0
 41
2.0
 42
2.0
 43
2.0
  0
SEQEND
  5
202
  8
回02-上ER
  6
CONTINUOUS
 62
     7
  0
TEXT
  5
203
  8
回07-寸法
  6
CONTINUOUS
 62
     5
 10
-219.9233534581761
 20
760.2251696249278
 30
0.0
 40
6.0
  1
305 [12.008] (ACTIVE AREA)
1001
ACAD
1000
MTEXTBEGIN
1070
    73
1070
     1
1070
    44
1040
1.0
1070
    74
1070
     0
1000
MTEXTEND
  0
POINT
  5
204
  8
DEFPOINTS
  6
CONTINUOUS
 62
     0
 10
-322.3245345605383
 20
723.3719919848142
 30
0.0
  0
POINT
  5
205
  8
DEFPOINTS
  6
CONTINUOUS
 62
     0
 10
-17.32453456053827
 20
723.3719919848142
 30
0.0
  0
POINT
  5
206
  8
DEFPOINTS
  6
CONTINUOUS
 62
     0
 10
-17.32453456053826
 20
759.425169624928
 30
0.0
  0
ENDBLK
  5
207
  8
0
 62
     7
  0
BLOCK
  8
0
  2
*D101010
 70
     1
 10
0.0
 20
0.0
 30
0.0
  3
*D101010
  1

  0
LINE
  5
1ED
  8
回07-寸法
  6
CONTINUOUS
 62
     5
 10
-324.3245345605383
 20
725.3719919848146
 30
0.0
 11
-324.3245345605383
 21
772.9916903013702
 31
0.0
  0
LINE
  5
1EE
  8
回07-寸法
  6
CONTINUOUS
 62
     5
 10
-15.32453456053827
 20
725.3719919848146
 30
0.0
 11
-15.32453456053827
 21
772.9916903013702
 31
0.0
  0
LINE
  5
1EF
  8
回07-寸法
  6
CONTINUOUS
 62
     5
 10
-322.3245345605383
 20
771.9916903013706
 30
0.0
 11
-17.32453456053826
 21
771.9916903013706
 31
0.0
  0
INSERT
  5
1F0
  8
回07-寸法
  6
CONTINUOUS
 62
     5
 66
     1
  2
_OPEN
 10
-324.3245345605383
 20
771.9916903013706
 30
0.0
 41
2.0
 42
2.0
 43
2.0
 50
180.0
  0
SEQEND
  5
1F1
  8
回02-上ER
  6
CONTINUOUS
 62
     7
  0
INSERT
  5
1F2
  8
回07-寸法
  6
CONTINUOUS
 62
     5
 66
     1
  2
_OPEN
 10
-15.32453456053826
 20
771.9916903013706
 30
0.0
 41
2.0
 42
2.0
 43
2.0
  0
SEQEND
  5
1F3
  8
回02-上ER
  6
CONTINUOUS
 62
     7
  0
TEXT
  5
1F4
  8
回07-寸法
  6
CONTINUOUS
 62
     5
 10
-220.8596839074745
 20
772.7916903013704
 30
0.0
 40
6.0
  1
309 [12.165] (VIEWING AREA)
1001
ACAD
1000
MTEXTBEGIN
1070
    73
1070
     1
1070
    44
1040
1.0
1070
    74
1070
     0
1000
MTEXTEND
  0
POINT
  5
1F5
  8
DEFPOINTS
  6
CONTINUOUS
 62
     0
 10
-324.3245345605383
 20
725.3719919848146
 30
0.0
  0
POINT
  5
1F6
  8
DEFPOINTS
  6
CONTINUOUS
 62
     0
 10
-15.32453456053827
 20
725.3719919848146
 30
0.0
  0
POINT
  5
1F7
  8
DEFPOINTS
  6
CONTINUOUS
 62
     0
 10
-15.32453456053826
 20
771.9916903013706
 30
0.0
  0
ENDBLK
  5
1F8
  8
0
 62
     7
  0
BLOCK
  8
0
  2
*D111111
 70
     1
 10
0.0
 20
0.0
 30
0.0
  3
*D111111
  1

  0
LINE
  5
1DD
  8
回07-寸法
  6
CONTINUOUS
 62
     5
 10
-334.3245345605383
 20
734.8719919848146
 30
0.0
 11
-334.3245345605383
 21
801.6138598055535
 31
0.0
  0
LINE
  5
1DF
  8
回07-寸法
  6
CONTINUOUS
 62
     5
 10
-6.324534560538268
 20
734.8719919848146
 30
0.0
 11
-6.324534560538268
 21
801.6138598055535
 31
0.0
  0
LINE
  5
1E0
  8
回07-寸法
  6
CONTINUOUS
 62
     5
 10
-332.3245345605382
 20
800.6138598055535
 30
0.0
 11
-8.324534560538268
 21
800.6138598055535
 31
0.0
  0
INSERT
  5
1E1
  8
回07-寸法
  6
CONTINUOUS
 62
     5
 66
     1
  2
_OPEN
 10
-334.3245345605383
 20
800.6138598055535
 30
0.0
 41
2.0
 42
2.0
 43
2.0
 50
180.0
  0
SEQEND
  5
1E2
  8
回02-上ER
  6
CONTINUOUS
 62
     7
  0
INSERT
  5
1E3
  8
回07-寸法
  6
CONTINUOUS
 62
     5
 66
     1
  2
_OPEN
 10
-6.324534560538268
 20
800.6138598055535
 30
0.0
 41
2.0
 42
2.0
 43
2.0
  0
SEQEND
  5
1E4
  8
回02-上ER
  6
CONTINUOUS
 62
     7
  0
INSERT
  5
1E5
  8
回07-寸法
  6
CONTINUOUS
 62
     5
 66
     1
  2
*X808080
 10
0.0
 20
0.0
 30
0.0
  0
SEQEND
  5
5DD
  8
回02-上ER
  6
CONTINUOUS
 62
     7
  0
POINT
  5
1E6
  8
DEFPOINTS
  6
CONTINUOUS
 62
     0
 10
-334.3245345605383
 20
734.8719919848146
 30
0.0
  0
POINT
  5
1E7
  8
DEFPOINTS
  6
CONTINUOUS
 62
     0
 10
-6.324534560538268
 20
734.8719919848146
 30
0.0
  0
POINT
  5
1E8
  8
DEFPOINTS
  6
CONTINUOUS
 62
     0
 10
-6.324534560538268
 20
800.6138598055535
 30
0.0
  0
ENDBLK
  5
1E9
  8
0
 62
     7
  0
BLOCK
  8
0
  2
*D121212
 70
     1
 10
0.0
 20
0.0
 30
0.0
  3
*D121212
  1

  0
LINE
  5
1CE
  8
回07-寸法
  6
CONTINUOUS
 62
     5
 10
-17.32453456053827
 20
494.3719919848148
 30
0.0
 11
46.047012882114
 21
494.3719919848148
 31
0.0
  0
LINE
  5
1CF
  8
回07-寸法
  6
CONTINUOUS
 62
     5
 10
-17.32453456053827
 20
723.3719919848147
 30
0.0
 11
46.04701288211393
 21
723.3719919848147
 31
0.0
  0
LINE
  5
1D0
  8
回07-寸法
  6
CONTINUOUS
 62
     5
 10
45.04701288211399
 20
496.3719919848148
 30
0.0
 11
45.04701288211399
 21
721.3719919848147
 31
0.0
  0
INSERT
  5
1D1
  8
回07-寸法
  6
CONTINUOUS
 62
     5
 66
     1
  2
_OPEN
 10
45.04701288211399
 20
494.3719919848148
 30
0.0
 41
2.0
 42
2.0
 43
2.0
 50
270.0
  0
SEQEND
  5
1D2
  8
回02-上ER
  6
CONTINUOUS
 62
     7
  0
INSERT
  5
1D3
  8
回07-寸法
  6
CONTINUOUS
 62
     5
 66
     1
  2
_OPEN
 10
45.04701288211393
 20
723.3719919848147
 30
0.0
 41
2.0
 42
2.0
 43
2.0
 50
90.0
  0
SEQEND
  5
1D4
  8
回02-上ER
  6
CONTINUOUS
 62
     7
  0
TEXT
  5
1D5
  8
回07-寸法
  6
CONTINUOUS
 62
     5
 10
44.2455628050551
 20
560.7766915390052
 30
0.0
 40
6.0
  1
229 [9.016] (ACTIVE AREA)
 50
90.0
1001
ACAD
1000
MTEXTBEGIN
1070
    73
1070
     1
1070
    44
1040
1.0
1070
    74
1070
     0
1000
MTEXTEND
  0
POINT
  5
1D6
  8
DEFPOINTS
  6
CONTINUOUS
 62
     0
 10
-17.32453456053827
 20
494.3719919848148
 30
0.0
  0
POINT
  5
1D7
  8
DEFPOINTS
  6
CONTINUOUS
 62
     0
 10
-17.32453456053827
 20
723.3719919848147
 30
0.0
  0
POINT
  5
1D8
  8
DEFPOINTS
  6
CONTINUOUS
 62
     0
 10
45.04701288211393
 20
723.3719919848147
 30
0.0
  0
ENDBLK
  5
1D9
  8
0
 62
     7
  0
BLOCK
  8
0
  2
*D131313
 70
     1
 10
0.0
 20
0.0
 30
0.0
  3
*D131313
  1

  0
LINE
  5
1BF
  8
回07-寸法
  6
CONTINUOUS
 62
     5
 10
-15.32453456053827
 20
725.3719919848147
 30
0.0
 11
57.89707176586265
 21
725.3719919848147
 31
0.0
  0
LINE
  5
1C0
  8
回07-寸法
  6
CONTINUOUS
 62
     5
 10
-15.32453456053827
 20
492.3719919848148
 30
0.0
 11
57.89707176586272
 21
492.3719919848148
 31
0.0
  0
LINE
  5
1C1
  8
回07-寸法
  6
CONTINUOUS
 62
     5
 10
56.89707176586265
 20
723.3719919848147
 30
0.0
 11
56.89707176586265
 21
494.3719919848148
 31
0.0
  0
INSERT
  5
1C2
  8
回07-寸法
  6
CONTINUOUS
 62
     5
 66
     1
  2
_OPEN
 10
56.89707176586265
 20
725.3719919848147
 30
0.0
 41
2.0
 42
2.0
 43
2.0
 50
90.0
  0
SEQEND
  5
1C3
  8
回02-上ER
  6
CONTINUOUS
 62
     7
  0
INSERT
  5
1C4
  8
回07-寸法
  6
CONTINUOUS
 62
     5
 66
     1
  2
_OPEN
 10
56.89707176586272
 20
492.3719919848148
 30
0.0
 41
2.0
 42
2.0
 43
2.0
 50
270.0
  0
SEQEND
  5
1C5
  8
回02-上ER
  6
CONTINUOUS
 62
     7
  0
TEXT
  5
1C6
  8
回07-寸法
  6
CONTINUOUS
 62
     5
 10
56.09562168880382
 20
562.2875226445861
 30
0.0
 40
6.0
  1
233 [9.173] (VIEING AREA)
 50
90.0
1001
ACAD
1000
MTEXTBEGIN
1070
    73
1070
     1
1070
    44
1040
1.0
1070
    74
1070
     0
1000
MTEXTEND
  0
POINT
  5
1C7
  8
DEFPOINTS
  6
CONTINUOUS
 62
     0
 10
-15.32453456053827
 20
725.3719919848147
 30
0.0
  0
POINT
  5
1C8
  8
DEFPOINTS
  6
CONTINUOUS
 62
     0
 10
-15.32453456053827
 20
492.3719919848148
 30
0.0
  0
POINT
  5
1C9
  8
DEFPOINTS
  6
CONTINUOUS
 62
     0
 10
56.89707176586272
 20
492.3719919848148
 30
0.0
  0
ENDBLK
  5
1CA
  8
0
 62
     7
  0
BLOCK
  8
0
  2
*D141414
 70
     1
 10
0.0
 20
0.0
 30
0.0
  3
*D141414
  1

  0
LINE
  5
1AE
  8
回07-寸法
  6
CONTINUOUS
 62
     5
 10
-324.8245345605383
 20
726.1719919848143
 30
0.0
 11
-324.8245345605383
 21
790.1432213344693
 31
0.0
  0
LINE
  5
1AF
  8
回07-寸法
  6
CONTINUOUS
 62
     5
 10
-14.82453456053827
 20
726.1719919848143
 30
0.0
 11
-14.82453456053827
 21
790.1432213344693
 31
0.0
  0
LINE
  5
1B0
  8
回07-寸法
  6
CONTINUOUS
 62
     5
 10
-322.8245345605383
 20
789.1432213344693
 30
0.0
 11
-16.82453456053826
 21
789.1432213344693
 31
0.0
  0
INSERT
  5
1B1
  8
回07-寸法
  6
CONTINUOUS
 62
     5
 66
     1
  2
_OPEN
 10
-324.8245345605383
 20
789.1432213344693
 30
0.0
 41
2.0
 42
2.0
 43
2.0
 50
180.0
  0
SEQEND
  5
1B2
  8
回02-上ER
  6
CONTINUOUS
 62
     7
  0
INSERT
  5
1B3
  8
回07-寸法
  6
CONTINUOUS
 62
     5
 66
     1
  2
_OPEN
 10
-14.82453456053826
 20
789.1432213344693
 30
0.0
 41
2.0
 42
2.0
 43
2.0
  0
SEQEND
  5
1B4
  8
回02-上ER
  6
CONTINUOUS
 62
     7
  0
TEXT
  5
1B5
  8
回07-寸法
  6
CONTINUOUS
 62
     5
 10
-190.5245345605383
 20
789.9432213344693
 30
0.0
 40
6.0
  1
310 [12.205]
1001
ACAD
1000
MTEXTBEGIN
1070
    73
1070
     1
1070
    44
1040
1.0
1070
    74
1070
     0
1000
MTEXTEND
  0
POINT
  5
1B6
  8
DEFPOINTS
  6
CONTINUOUS
 62
     0
 10
-324.8245345605383
 20
726.1719919848143
 30
0.0
  0
POINT
  5
1B7
  8
DEFPOINTS
  6
CONTINUOUS
 62
     0
 10
-14.82453456053827
 20
726.1719919848143
 30
0.0
  0
POINT
  5
1B8
  8
DEFPOINTS
  6
CONTINUOUS
 62
     0
 10
-14.82453456053826
 20
789.1432213344693
 30
0.0
  0
ENDBLK
  5
1B9
  8
0
 62
     7
  0
BLOCK
  8
0
  2
*D151515
 70
     1
 10
0.0
 20
0.0
 30
0.0
  3
*D151515
  1

  0
LINE
  5
19D
  8
回07-寸法
  6
CONTINUOUS
 62
     5
 10
-14.82453456053827
 20
726.1719919848143
 30
0.0
 11
-14.82453456053827
 21
790.1432213344693
 31
0.0
  0
LINE
  5
19E
  8
回07-寸法
  6
CONTINUOUS
 62
     5
 10
-6.324534560538268
 20
734.8719919848146
 30
0.0
 11
-6.324534560538268
 21
790.1432213344693
 31
0.0
  0
LINE
  5
19F
  8
回07-寸法
  6
CONTINUOUS
 62
     5
 10
-16.82453456053826
 20
789.1432213344693
 30
0.0
 11
-18.82453456053826
 21
789.1432213344693
 31
0.0
  0
LINE
  5
1A0
  8
回07-寸法
  6
CONTINUOUS
 62
     5
 10
-4.324534560538263
 20
789.1432213344693
 30
0.0
 11
37.02546543946173
 21
789.1432213344693
 31
0.0
  0
LINE
  5
1A1
  8
回07-寸法
  6
CONTINUOUS
 62
     5
 10
-14.82453456053826
 20
789.1432213344693
 30
0.0
 11
-6.324534560538261
 21
789.1432213344693
 31
0.0
  0
INSERT
  5
1A2
  8
回07-寸法
  6
CONTINUOUS
 62
     5
 66
     1
  2
_OPEN
 10
-14.82453456053826
 20
789.1432213344693
 30
0.0
 41
2.0
 42
2.0
 43
2.0
  0
SEQEND
  5
1A3
  8
回02-上ER
  6
CONTINUOUS
 62
     7
  0
INSERT
  5
1A4
  8
回07-寸法
  6
CONTINUOUS
 62
     5
 66
     1
  2
_OPEN
 10
-6.324534560538261
 20
789.1432213344693
 30
0.0
 41
2.0
 42
2.0
 43
2.0
 50
180.0
  0
SEQEND
  5
1A5
  8
回02-上ER
  6
CONTINUOUS
 62
     7
  0
TEXT
  5
1A6
  8
回07-寸法
  6
CONTINUOUS
 62
     5
 10
0.2254654394617324
 20
789.9432213344693
 30
0.0
 40
6.0
  1
8.5 [0.335]
1001
ACAD
1000
MTEXTBEGIN
1070
    73
1070
     1
1070
    44
1040
1.0
1070
    74
1070
     0
1000
MTEXTEND
  0
POINT
  5
1A7
  8
DEFPOINTS
  6
CONTINUOUS
 62
     0
 10
-14.82453456053827
 20
726.1719919848143
 30
0.0
  0
POINT
  5
1A8
  8
DEFPOINTS
  6
CONTINUOUS
 62
     0
 10
-6.324534560538268
 20
734.8719919848146
 30
0.0
  0
POINT
  5
1A9
  8
DEFPOINTS
  6
CONTINUOUS
 62
     0
 10
-6.324534560538261
 20
789.1432213344693
 30
0.0
  0
ENDBLK
  5
1AA
  8
0
 62
     7
  0
BLOCK
  8
0
  2
*D161616
 70
     1
 10
0.0
 20
0.0
 30
0.0
  3
*D161616
  1

  0
LINE
  5
18C
  8
回07-寸法
  6
CONTINUOUS
 62
     5
 10
-324.8245345605383
 20
726.1719919848143
 30
0.0
 11
-324.8245345605383
 21
790.1432213344693
 31
0.0
  0
LINE
  5
18D
  8
回07-寸法
  6
CONTINUOUS
 62
     5
 10
-334.3245345605383
 20
734.8719919848146
 30
0.0
 11
-334.3245345605383
 21
790.1432213344693
 31
0.0
  0
LINE
  5
18E
  8
回07-寸法
  6
CONTINUOUS
 62
     5
 10
-322.8245345605383
 20
789.1432213344693
 30
0.0
 11
-320.8245345605383
 21
789.1432213344693
 31
0.0
  0
LINE
  5
18F
  8
回07-寸法
  6
CONTINUOUS
 62
     5
 10
-336.3245345605383
 20
789.1432213344693
 30
0.0
 11
-378.5937733760808
 21
789.1432213344693
 31
0.0
  0
LINE
  5
190
  8
回07-寸法
  6
CONTINUOUS
 62
     5
 10
-324.8245345605383
 20
789.1432213344693
 30
0.0
 11
-334.3245345605383
 21
789.1432213344693
 31
0.0
  0
INSERT
  5
191
  8
回07-寸法
  6
CONTINUOUS
 62
     5
 66
     1
  2
_OPEN
 10
-324.8245345605383
 20
789.1432213344693
 30
0.0
 41
2.0
 42
2.0
 43
2.0
 50
180.0
  0
SEQEND
  5
192
  8
回02-上ER
  6
CONTINUOUS
 62
     7
  0
INSERT
  5
193
  8
回07-寸法
  6
CONTINUOUS
 62
     5
 66
     1
  2
_OPEN
 10
-334.3245345605383
 20
789.1432213344693
 30
0.0
 41
2.0
 42
2.0
 43
2.0
  0
SEQEND
  5
194
  8
回02-上ER
  6
CONTINUOUS
 62
     7
  0
TEXT
  5
195
  8
回07-寸法
  6
CONTINUOUS
 62
     5
 10
-378.8911715185308
 20
789.9432213344693
 30
0.0
 40
6.0
  1
9.5 [0.374]
1001
ACAD
1000
MTEXTBEGIN
1070
    73
1070
     1
1070
    44
1040
1.0
1070
    74
1070
     0
1000
MTEXTEND
  0
POINT
  5
196
  8
DEFPOINTS
  6
CONTINUOUS
 62
     0
 10
-324.8245345605383
 20
726.1719919848143
 30
0.0
  0
POINT
  5
197
  8
DEFPOINTS
  6
CONTINUOUS
 62
     0
 10
-334.3245345605383
 20
734.8719919848146
 30
0.0
  0
POINT
  5
198
  8
DEFPOINTS
  6
CONTINUOUS
 62
     0
 10
-334.3245345605383
 20
789.1432213344693
 30
0.0
  0
ENDBLK
  5
199
  8
0
 62
     7
  0
BLOCK
  8
0
  2
*D171717
 70
     1
 10
0.0
 20
0.0
 30
0.0
  3
*D171717
  1

  0
LINE
  5
17D
  8
回07-寸法
  6
CONTINUOUS
 62
     5
 10
-14.82453456053827
 20
726.1719919848143
 30
0.0
 11
69.89707176586249
 21
726.1719919848143
 31
0.0
  0
LINE
  5
17E
  8
回07-寸法
  6
CONTINUOUS
 62
     5
 10
-14.82453456053827
 20
491.5719919848149
 30
0.0
 11
69.89707176586254
 21
491.5719919848149
 31
0.0
  0
LINE
  5
17F
  8
回07-寸法
  6
CONTINUOUS
 62
     5
 10
68.89707176586249
 20
724.1719919848143
 30
0.0
 11
68.89707176586249
 21
493.5719919848152
 31
0.0
  0
INSERT
  5
180
  8
回07-寸法
  6
CONTINUOUS
 62
     5
 66
     1
  2
_OPEN
 10
68.89707176586249
 20
726.1719919848143
 30
0.0
 41
2.0
 42
2.0
 43
2.0
 50
90.0
  0
SEQEND
  5
181
  8
回02-上ER
  6
CONTINUOUS
 62
     7
  0
INSERT
  5
182
  8
回07-寸法
  6
CONTINUOUS
 62
     5
 66
     1
  2
_OPEN
 10
68.89707176586253
 20
491.5719919848149
 30
0.0
 41
2.0
 42
2.0
 43
2.0
 50
270.0
  0
SEQEND
  5
183
  8
回02-上ER
  6
CONTINUOUS
 62
     7
  0
TEXT
  5
184
  8
回07-寸法
  6
CONTINUOUS
 62
     5
 10
68.09562168880359
 20
585.7611608792337
 30
0.0
 40
6.0
  1
234.6 [9.236]
 50
90.0
1001
ACAD
1000
MTEXTBEGIN
1070
    73
1070
     1
1070
    44
1040
1.0
1070
    74
1070
     0
1000
MTEXTEND
  0
POINT
  5
185
  8
DEFPOINTS
  6
CONTINUOUS
 62
     0
 10
-14.82453456053827
 20
726.1719919848143
 30
0.0
  0
POINT
  5
186
  8
DEFPOINTS
  6
CONTINUOUS
 62
     0
 10
-14.82453456053827
 20
491.5719919848149
 30
0.0
  0
POINT
  5
187
  8
DEFPOINTS
  6
CONTINUOUS
 62
     0
 10
68.89707176586253
 20
491.5719919848149
 30
0.0
  0
ENDBLK
  5
188
  8
0
 62
     7
  0
BLOCK
  8
0
  2
*D181818
 70
     1
 10
0.0
 20
0.0
 30
0.0
  3
*D181818
  1

  0
LINE
  5
16B
  8
回07-寸法
  6
CONTINUOUS
 62
     5
 10
-14.82453456053827
 20
726.1719919848143
 30
0.0
 11
69.89707176586271
 21
726.1719919848143
 31
0.0
  0
LINE
  5
16D
  8
回07-寸法
  6
CONTINUOUS
 62
     5
 10
-6.324534560538268
 20
734.8719919848146
 30
0.0
 11
69.89707176586271
 21
734.8719919848146
 31
0.0
  0
LINE
  5
16E
  8
回07-寸法
  6
CONTINUOUS
 62
     5
 10
68.8970717658627
 20
736.8719919848146
 30
0.0
 11
68.8970717658627
 21
778.8719919848147
 31
0.0
  0
LINE
  5
16F
  8
回07-寸法
  6
CONTINUOUS
 62
     5
 10
68.8970717658627
 20
726.1719919848143
 30
0.0
 11
68.8970717658627
 21
734.8719919848146
 31
0.0
  0
LINE
  5
170
  8
回07-寸法
  6
CONTINUOUS
 62
     5
 10
68.8970717658627
 20
724.1719919848143
 30
0.0
 11
68.8970717658627
 21
722.1719919848143
 31
0.0
  0
INSERT
  5
171
  8
回07-寸法
  6
CONTINUOUS
 62
     5
 66
     1
  2
_OPEN
 10
68.8970717658627
 20
726.1719919848143
 30
0.0
 41
2.0
 42
2.0
 43
2.0
 50
90.0
  0
SEQEND
  5
172
  8
回02-上ER
  6
CONTINUOUS
 62
     7
  0
INSERT
  5
173
  8
回07-寸法
  6
CONTINUOUS
 62
     5
 66
     1
  2
_OPEN
 10
68.8970717658627
 20
734.8719919848146
 30
0.0
 41
2.0
 42
2.0
 43
2.0
 50
270.0
  0
SEQEND
  5
174
  8
回02-上ER
  6
CONTINUOUS
 62
     7
  0
TEXT
  5
175
  8
回07-寸法
  6
CONTINUOUS
 62
     5
 10
68.09707176586278
 20
741.4719919848147
 30
0.0
 40
6.0
  1
8.7 [0.343]
 50
90.0
  0
POINT
  5
176
  8
DEFPOINTS
  6
CONTINUOUS
 62
     0
 10
-14.82453456053827
 20
726.1719919848143
 30
0.0
  0
POINT
  5
177
  8
DEFPOINTS
  6
CONTINUOUS
 62
     0
 10
-6.324534560538268
 20
734.8719919848146
 30
0.0
  0
POINT
  5
178
  8
DEFPOINTS
  6
CONTINUOUS
 62
     0
 10
68.8970717658627
 20
734.8719919848146
 30
0.0
  0
ENDBLK
  5
179
  8
0
 62
     7
  0
BLOCK
  8
0
  2
*D191919
 70
     1
 10
0.0
 20
0.0
 30
0.0
  3
*D191919
  1

  0
LINE
  5
156
  8
回07-寸法
  6
CONTINUOUS
 62
     5
 10
-322.3245345605383
 20
723.3719919848142
 30
0.0
 11
-322.3245345605383
 21
760.425169624928
 31
0.0
  0
LINE
  5
157
  8
回07-寸法
  6
CONTINUOUS
 62
     5
 10
-334.3245345605383
 20
734.8719919848146
 30
0.0
 11
-334.3245345605383
 21
760.425169624928
 31
0.0
  0
LINE
  5
158
  8
回07-寸法
  6
CONTINUOUS
 62
     5
 10
-336.3245345605383
 20
759.425169624928
 30
0.0
 11
-375.0745345605383
 21
759.425169624928
 31
0.0
  0
LINE
  5
159
  8
回07-寸法
  6
CONTINUOUS
 62
     5
 10
-322.3245345605383
 20
759.425169624928
 30
0.0
 11
-334.3245345605383
 21
759.425169624928
 31
0.0
  0
LINE
  5
15A
  8
回07-寸法
  6
CONTINUOUS
 62
     5
 10
-320.3245345605383
 20
759.425169624928
 30
0.0
 11
-318.3245345605383
 21
759.425169624928
 31
0.0
  0
INSERT
  5
15B
  8
回07-寸法
  6
CONTINUOUS
 62
     5
 66
     1
  2
_OPEN
 10
-322.3245345605383
 20
759.425169624928
 30
0.0
 41
2.0
 42
2.0
 43
2.0
 50
180.0
  0
SEQEND
  5
15C
  8
回02-上ER
  6
CONTINUOUS
 62
     7
  0
INSERT
  5
15D
  8
回07-寸法
  6
CONTINUOUS
 62
     5
 66
     1
  2
_OPEN
 10
-334.3245345605383
 20
759.425169624928
 30
0.0
 41
2.0
 42
2.0
 43
2.0
  0
SEQEND
  5
15E
  8
回02-上ER
  6
CONTINUOUS
 62
     7
  0
TEXT
  5
15F
  8
回07-寸法
  6
CONTINUOUS
 62
     5
 10
-375.4745345605382
 20
760.2251696249278
 30
0.0
 40
6.0
  1
12 [0.472]
  0
POINT
  5
160
  8
DEFPOINTS
  6
CONTINUOUS
 62
     0
 10
-322.3245345605383
 20
723.3719919848142
 30
0.0
  0
POINT
  5
161
  8
DEFPOINTS
  6
CONTINUOUS
 62
     0
 10
-334.3245345605383
 20
734.8719919848146
 30
0.0
  0
POINT
  5
162
  8
DEFPOINTS
  6
CONTINUOUS
 62
     0
 10
-334.3245345605383
 20
759.425169624928
 30
0.0
  0
ENDBLK
  5
163
  8
0
 62
     7
  0
BLOCK
  8
0
  2
*D202020
 70
     1
 10
0.0
 20
0.0
 30
0.0
  3
*D202020
  1

  0
LINE
  5
144
  8
回07-寸法
  6
CONTINUOUS
 62
     5
 10
-324.3245345605383
 20
725.3719919848146
 30
0.0
 11
-324.3245345605383
 21
772.9916903013702
 31
0.0
  0
LINE
  5
146
  8
回07-寸法
  6
CONTINUOUS
 62
     5
 10
-334.3245345605383
 20
734.8719919848146
 30
0.0
 11
-334.3245345605383
 21
772.9916903013702
 31
0.0
  0
LINE
  5
147
  8
回07-寸法
  6
CONTINUOUS
 62
     5
 10
-336.3245345605383
 20
771.9916903013706
 30
0.0
 11
-375.0975958228492
 21
771.9916903013706
 31
0.0
  0
LINE
  5
148
  8
回07-寸法
  6
CONTINUOUS
 62
     5
 10
-324.3245345605383
 20
771.9916903013706
 30
0.0
 11
-334.3245345605383
 21
771.9916903013706
 31
0.0
  0
LINE
  5
149
  8
回07-寸法
  6
CONTINUOUS
 62
     5
 10
-322.3245345605383
 20
771.9916903013706
 30
0.0
 11
-320.3245345605383
 21
771.9916903013706
 31
0.0
  0
INSERT
  5
14A
  8
回07-寸法
  6
CONTINUOUS
 62
     5
 66
     1
  2
_OPEN
 10
-324.3245345605383
 20
771.9916903013706
 30
0.0
 41
2.0
 42
2.0
 43
2.0
 50
180.0
  0
SEQEND
  5
14B
  8
回02-上ER
  6
CONTINUOUS
 62
     7
  0
INSERT
  5
14C
  8
回07-寸法
  6
CONTINUOUS
 62
     5
 66
     1
  2
_OPEN
 10
-334.3245345605383
 20
771.9916903013706
 30
0.0
 41
2.0
 42
2.0
 43
2.0
  0
SEQEND
  5
14D
  8
回02-上ER
  6
CONTINUOUS
 62
     7
  0
TEXT
  5
14E
  8
回07-寸法
  6
CONTINUOUS
 62
     5
 10
-375.4975958228492
 20
772.7916903013703
 30
0.0
 40
6.0
  1
10 [0.394]
  0
POINT
  5
14F
  8
DEFPOINTS
  6
CONTINUOUS
 62
     0
 10
-324.3245345605383
 20
725.3719919848146
 30
0.0
  0
POINT
  5
150
  8
DEFPOINTS
  6
CONTINUOUS
 62
     0
 10
-334.3245345605383
 20
734.8719919848146
 30
0.0
  0
POINT
  5
151
  8
DEFPOINTS
  6
CONTINUOUS
 62
     0
 10
-334.3245345605383
 20
771.9916903013706
 30
0.0
  0
ENDBLK
  5
152
  8
0
 62
     7
  0
BLOCK
  8
0
  2
*D212121
 70
     1
 10
0.0
 20
0.0
 30
0.0
  3
*D212121
  1

  0
LINE
  5
11B
  8
回07-寸法
  6
CONTINUOUS
 62
     5
 10
-474.3245345605386
 20
610.7419615425084
 30
0.0
 11
-474.3245345605386
 21
671.0704859827392
 31
0.0
  0
LINE
  5
11C
  8
回07-寸法
  6
CONTINUOUS
 62
     5
 10
-334.3245345605383
 20
617.5440860867003
 30
0.0
 11
-334.3245345605383
 21
671.0704859827392
 31
0.0
  0
LINE
  5
11D
  8
回07-寸法
  6
CONTINUOUS
 62
     5
 10
-472.3245345605387
 20
670.0704859827392
 30
0.0
 11
-336.3245345605383
 21
670.0704859827392
 31
0.0
  0
INSERT
  5
11E
  8
回07-寸法
  6
CONTINUOUS
 62
     5
 66
     1
  2
_OPEN
 10
-474.3245345605386
 20
670.0704859827392
 30
0.0
 41
2.0
 42
2.0
 43
2.0
 50
180.0
  0
SEQEND
  5
11F
  8
回02-上ER
  6
CONTINUOUS
 62
     7
  0
INSERT
  5
120
  8
回07-寸法
  6
CONTINUOUS
 62
     5
 66
     1
  2
_OPEN
 10
-334.3245345605383
 20
670.0704859827392
 30
0.0
 41
2.0
 42
2.0
 43
2.0
  0
SEQEND
  5
121
  8
回02-上ER
  6
CONTINUOUS
 62
     7
  0
INSERT
  5
122
  8
回07-寸法
  6
CONTINUOUS
 62
     5
 66
     1
  2
*X818181
 10
0.0
 20
0.0
 30
0.0
  0
SEQEND
  5
5E6
  8
回02-上ER
  6
CONTINUOUS
 62
     7
  0
POINT
  5
123
  8
DEFPOINTS
  6
CONTINUOUS
 62
     0
 10
-474.3245345605386
 20
610.7419615425084
 30
0.0
  0
POINT
  5
124
  8
DEFPOINTS
  6
CONTINUOUS
 62
     0
 10
-334.3245345605383
 20
617.5440860867003
 30
0.0
  0
POINT
  5
125
  8
DEFPOINTS
  6
CONTINUOUS
 62
     0
 10
-334.3245345605383
 20
670.0704859827392
 30
0.0
  0
ENDBLK
  5
126
  8
0
 62
     7
  0
BLOCK
  8
0
  2
*D222222
 70
     1
 10
0.0
 20
0.0
 30
0.0
  3
*D222222
  1

  0
LINE
  5
104
  8
回07-寸法
  6
CONTINUOUS
 62
     5
 10
-338.5122908831982
 20
600.8669615425086
 30
0.0
 11
-434.711685913674
 21
600.8669615425086
 31
0.0
  0
LINE
  5
105
  8
回07-寸法
  6
CONTINUOUS
 62
     5
 10
-338.516464468904
 20
616.8657585082367
 30
0.0
 11
-434.711685913674
 21
616.8657585082367
 31
0.0
  0
LINE
  5
106
  8
回07-寸法
  6
CONTINUOUS
 62
     5
 10
-433.711685913674
 20
618.8657585082368
 30
0.0
 11
-433.711685913674
 21
620.8657585082367
 31
0.0
  0
LINE
  5
107
  8
回07-寸法
  6
CONTINUOUS
 62
     5
 10
-433.711685913674
 20
598.8669615425086
 30
0.0
 11
-433.711685913674
 21
559.5394943084986
 31
0.0
  0
LINE
  5
108
  8
回07-寸法
  6
CONTINUOUS
 62
     5
 10
-433.711685913674
 20
616.8657585082367
 30
0.0
 11
-433.711685913674
 21
600.8669615425086
 31
0.0
  0
INSERT
  5
109
  8
回07-寸法
  6
CONTINUOUS
 62
     5
 66
     1
  2
_OPEN
 10
-433.711685913674
 20
616.8657585082367
 30
0.0
 41
2.0
 42
2.0
 43
2.0
 50
270.0
  0
SEQEND
  5
10A
  8
回02-上ER
  6
CONTINUOUS
 62
     7
  0
INSERT
  5
10B
  8
回07-寸法
  6
CONTINUOUS
 62
     5
 66
     1
  2
_OPEN
 10
-433.711685913674
 20
600.8669615425086
 30
0.0
 41
2.0
 42
2.0
 43
2.0
 50
90.0
  0
SEQEND
  5
10C
  8
回02-上ER
  6
CONTINUOUS
 62
     7
  0
TEXT
  5
10D
  8
回07-寸法
  6
CONTINUOUS
 62
     5
 10
-434.5116859136735
 20
559.1394943084988
 30
0.0
 40
6.0
  1
16 [0.630]
 50
90.0
1001
ACAD
1000
MTEXTBEGIN
1070
    73
1070
     1
1070
    44
1040
1.0
1070
    74
1070
     0
1000
MTEXTEND
  0
POINT
  5
10E
  8
DEFPOINTS
  6
CONTINUOUS
 62
     0
 10
-338.5122908831982
 20
600.8669615425086
 30
0.0
  0
POINT
  5
10F
  8
DEFPOINTS
  6
CONTINUOUS
 62
     0
 10
-338.516464468904
 20
616.8657585082367
 30
0.0
  0
POINT
  5
110
  8
DEFPOINTS
  6
CONTINUOUS
 62
     0
 10
-433.711685913674
 20
616.8657585082367
 30
0.0
  0
ENDBLK
  5
111
  8
0
 62
     7
  0
BLOCK
  8
0
  2
*D232323
 70
     1
 10
0.0
 20
0.0
 30
0.0
  3
*D232323
  1

  0
LINE
  5
EF
  8
回07-寸法
  6
CONTINUOUS
 62
     5
 10
-334.3245345605383
 20
618.0810833394968
 30
0.0
 11
-334.3245345605383
 21
633.5714707943807
 31
0.0
  0
LINE
  5
F0
  8
回07-寸法
  6
CONTINUOUS
 62
     5
 10
-339.4204709903909
 20
616.5755108728638
 30
0.0
 11
-339.4204709903909
 21
633.5714707943807
 31
0.0
  0
LINE
  5
F1
  8
回07-寸法
  6
CONTINUOUS
 62
     5
 10
-332.3245345605382
 20
632.5714707943807
 30
0.0
 11
-330.3245345605383
 21
632.5714707943807
 31
0.0
  0
LINE
  5
F2
  8
回07-寸法
  6
CONTINUOUS
 62
     5
 10
-341.4204709903909
 20
632.5714707943807
 30
0.0
 11
-386.6931841386037
 21
632.5714707943807
 31
0.0
  0
LINE
  5
F3
  8
回07-寸法
  6
CONTINUOUS
 62
     5
 10
-334.3245345605383
 20
632.5714707943807
 30
0.0
 11
-339.4204709903909
 21
632.5714707943807
 31
0.0
  0
INSERT
  5
F4
  8
回07-寸法
  6
CONTINUOUS
 62
     5
 66
     1
  2
_OPEN
 10
-334.3245345605383
 20
632.5714707943807
 30
0.0
 41
2.0
 42
2.0
 43
2.0
 50
180.0
  0
SEQEND
  5
F5
  8
回02-上ER
  6
CONTINUOUS
 62
     7
  0
INSERT
  5
F6
  8
回07-寸法
  6
CONTINUOUS
 62
     5
 66
     1
  2
_OPEN
 10
-339.4204709903909
 20
632.5714707943807
 30
0.0
 41
2.0
 42
2.0
 43
2.0
  0
SEQEND
  5
F7
  8
回02-上ER
  6
CONTINUOUS
 62
     7
  0
TEXT
  5
F8
  8
回07-寸法
  6
CONTINUOUS
 62
     5
 10
-387.0935322527018
 20
633.3714707943807
 30
0.0
 40
6.0
  1
4.39 [0.173]
1001
ACAD
1000
MTEXTBEGIN
1070
    73
1070
     1
1070
    44
1040
1.0
1070
    74
1070
     0
1000
MTEXTEND
  0
POINT
  5
F9
  8
DEFPOINTS
  6
CONTINUOUS
 62
     0
 10
-334.3245345605383
 20
618.0810833394968
 30
0.0
  0
POINT
  5
FA
  8
DEFPOINTS
  6
CONTINUOUS
 62
     0
 10
-339.4204709903909
 20
616.5755108728638
 30
0.0
  0
POINT
  5
FB
  8
DEFPOINTS
  6
CONTINUOUS
 62
     0
 10
-339.4204709903909
 20
632.5714707943807
 30
0.0
  0
ENDBLK
  5
FC
  8
0
 62
     7
  0
BLOCK
  8
0
  2
*D242424
 70
     1
 10
0.0
 20
0.0
 30
0.0
  3
*D242424
  1

  0
LINE
  5
DE
  8
回07-寸法
  6
CONTINUOUS
 62
     5
 10
-334.3245345605383
 20
618.0810833394968
 30
0.0
 11
-334.3245345605383
 21
646.4958877077306
 31
0.0
  0
LINE
  5
DF
  8
回07-寸法
  6
CONTINUOUS
 62
     5
 10
-344.4357971293166
 20
611.9919615425084
 30
0.0
 11
-344.4357971293166
 21
646.4958877077306
 31
0.0
  0
LINE
  5
E0
  8
回07-寸法
  6
CONTINUOUS
 62
     5
 10
-332.3245345605382
 20
645.4958877077306
 30
0.0
 11
-330.3245345605383
 21
645.4958877077306
 31
0.0
  0
LINE
  5
E1
  8
回07-寸法
  6
CONTINUOUS
 62
     5
 10
-346.4357971293166
 20
645.4958877077306
 30
0.0
 11
-391.0222913547585
 21
645.4958877077306
 31
0.0
  0
LINE
  5
E2
  8
回07-寸法
  6
CONTINUOUS
 62
     5
 10
-334.3245345605383
 20
645.4958877077306
 30
0.0
 11
-344.4357971293166
 21
645.4958877077306
 31
0.0
  0
INSERT
  5
E3
  8
回07-寸法
  6
CONTINUOUS
 62
     5
 66
     1
  2
_OPEN
 10
-334.3245345605383
 20
645.4958877077306
 30
0.0
 41
2.0
 42
2.0
 43
2.0
 50
180.0
  0
SEQEND
  5
E4
  8
回02-上ER
  6
CONTINUOUS
 62
     7
  0
INSERT
  5
E5
  8
回07-寸法
  6
CONTINUOUS
 62
     5
 66
     1
  2
_OPEN
 10
-344.4357971293166
 20
645.4958877077306
 30
0.0
 41
2.0
 42
2.0
 43
2.0
  0
SEQEND
  5
E6
  8
回02-上ER
  6
CONTINUOUS
 62
     7
  0
TEXT
  5
E7
  8
回07-寸法
  6
CONTINUOUS
 62
     5
 10
-391.3196894972085
 20
646.2958877077304
 30
0.0
 40
6.0
  1
9.4 [0.370]
1001
ACAD
1000
MTEXTBEGIN
1070
    73
1070
     1
1070
    44
1040
1.0
1070
    74
1070
     0
1000
MTEXTEND
  0
POINT
  5
E8
  8
DEFPOINTS
  6
CONTINUOUS
 62
     0
 10
-334.3245345605383
 20
618.0810833394968
 30
0.0
  0
POINT
  5
E9
  8
DEFPOINTS
  6
CONTINUOUS
 62
     0
 10
-344.4357971293166
 20
611.9919615425084
 30
0.0
  0
POINT
  5
EA
  8
DEFPOINTS
  6
CONTINUOUS
 62
     0
 10
-344.4357971293166
 20
645.4958877077306
 30
0.0
  0
ENDBLK
  5
EB
  8
0
 62
     7
  0
BLOCK
  8
0
  2
*D252525
 70
     1
 10
0.0
 20
0.0
 30
0.0
  3
*D252525
  1

  0
LINE
  5
B7
  8
回08-記事
  6
CONTINUOUS
 62
     5
 10
-444.5659473183686
 20
487.6103230030432
 30
0.0
 11
-450.5481750003935
 21
487.6103230030432
 31
0.0
  0
LINE
  5
B8
  8
回08-記事
  6
CONTINUOUS
 62
     5
 10
-444.5659473183684
 20
489.6263230030433
 30
0.0
 11
-450.5481750003935
 21
489.6263230030433
 31
0.0
  0
LINE
  5
B9
  8
回08-記事
  6
CONTINUOUS
 62
     5
 10
-449.5481750003937
 20
485.6103230030432
 30
0.0
 11
-449.5481750003937
 21
483.6103230030432
 31
0.0
  0
LINE
  5
BA
  8
回08-記事
  6
CONTINUOUS
 62
     5
 10
-449.5481750003937
 20
491.6263230030432
 30
0.0
 11
-449.5481750003937
 21
566.3863230030432
 31
0.0
  0
LINE
  5
BB
  8
回08-記事
  6
CONTINUOUS
 62
     5
 10
-449.5481750003937
 20
487.6103230030432
 30
0.0
 11
-449.5481750003937
 21
489.6263230030433
 31
0.0
  0
INSERT
  5
BC
  8
回08-記事
  6
CONTINUOUS
 62
     5
  2
_OPEN
 10
-449.5481750003937
 20
487.6103230030432
 30
0.0
 41
2.0
 42
2.0
 43
2.0
 50
90.0
  0
INSERT
  5
BD
  8
回08-記事
  6
CONTINUOUS
 62
     5
  2
_OPEN
 10
-449.5481750003937
 20
489.6263230030433
 30
0.0
 41
2.0
 42
2.0
 43
2.0
 50
270.0
  0
INSERT
  5
BE
  8
回08-記事
  6
CONTINUOUS
 62
     5
 66
     1
  2
*X828282
 10
0.0
 20
0.0
 30
0.0
  0
SEQEND
  5
5EF
  8
回02-上ER
  6
CONTINUOUS
 62
     7
  0
POINT
  5
BF
  8
DEFPOINTS
  6
CONTINUOUS
 62
     0
 10
-444.5659473183686
 20
487.6103230030432
 30
0.0
  0
POINT
  5
C0
  8
DEFPOINTS
  6
CONTINUOUS
 62
     0
 10
-444.5659473183684
 20
489.6263230030433
 30
0.0
  0
POINT
  5
C1
  8
DEFPOINTS
  6
CONTINUOUS
 62
     0
 10
-449.5481750003937
 20
489.6263230030433
 30
0.0
  0
ENDBLK
  5
C2
  8
0
 62
     7
  0
BLOCK
  8
0
  2
*D262626
 70
     1
 10
0.0
 20
0.0
 30
0.0
  3
*D262626
  1

  0
LINE
  5
A8
  8
回08-記事
  6
CONTINUOUS
 62
     5
 10
-444.5659473183686
 20
488.6183230030431
 30
0.0
 11
-474.7623223789776
 21
488.6183230030431
 31
0.0
  0
LINE
  5
A9
  8
回08-記事
  6
CONTINUOUS
 62
     5
 10
-444.5659473183686
 20
477.8183230030433
 30
0.0
 11
-474.7623223789776
 21
477.8183230030433
 31
0.0
  0
LINE
  5
AA
  8
回08-記事
  6
CONTINUOUS
 62
     5
 10
-473.7623223789777
 20
475.8183230030431
 30
0.0
 11
-473.7623223789777
 21
473.8183230030433
 31
0.0
  0
LINE
  5
AB
  8
回08-記事
  6
CONTINUOUS
 62
     5
 10
-473.7623223789777
 20
490.6183230030432
 30
0.0
 11
-473.7623223789777
 21
550.9783230030432
 31
0.0
  0
LINE
  5
AC
  8
回08-記事
  6
CONTINUOUS
 62
     5
 10
-473.7623223789777
 20
477.8183230030433
 30
0.0
 11
-473.7623223789777
 21
488.6183230030431
 31
0.0
  0
INSERT
  5
AD
  8
回08-記事
  6
CONTINUOUS
 62
     5
  2
_OPEN
 10
-473.7623223789777
 20
477.8183230030433
 30
0.0
 41
2.0
 42
2.0
 43
2.0
 50
90.0
  0
INSERT
  5
AE
  8
回08-記事
  6
CONTINUOUS
 62
     5
  2
_OPEN
 10
-473.7623223789777
 20
488.6183230030431
 30
0.0
 41
2.0
 42
2.0
 43
2.0
 50
270.0
  0
INSERT
  5
AF
  8
回08-記事
  6
CONTINUOUS
 62
     5
 66
     1
  2
*X838383
 10
0.0
 20
0.0
 30
0.0
  0
SEQEND
  5
5F8
  8
回02-上ER
  6
CONTINUOUS
 62
     7
  0
POINT
  5
B0
  8
DEFPOINTS
  6
CONTINUOUS
 62
     0
 10
-444.5659473183686
 20
488.6183230030431
 30
0.0
  0
POINT
  5
B1
  8
DEFPOINTS
  6
CONTINUOUS
 62
     0
 10
-444.5659473183686
 20
477.8183230030433
 30
0.0
  0
POINT
  5
B2
  8
DEFPOINTS
  6
CONTINUOUS
 62
     0
 10
-473.7623223789777
 20
477.8183230030433
 30
0.0
  0
ENDBLK
  5
B3
  8
0
 62
     7
  0
BLOCK
  8
0
  2
*D272727
 70
     1
 10
0.0
 20
0.0
 30
0.0
  3
*D272727
  1

  0
LINE
  5
99
  8
回08-記事
  6
CONTINUOUS
 62
     5
 10
-444.5659473183686
 20
485.0183230030433
 30
0.0
 11
-465.7481750003935
 21
485.0183230030433
 31
0.0
  0
LINE
  5
9A
  8
回08-記事
  6
CONTINUOUS
 62
     5
 10
-444.5659473183686
 20
488.6183230030431
 30
0.0
 11
-465.7481750003935
 21
488.6183230030431
 31
0.0
  0
LINE
  5
9B
  8
回08-記事
  6
CONTINUOUS
 62
     5
 10
-464.7481750003932
 20
483.0183230030432
 30
0.0
 11
-464.7481750003932
 21
481.0183230030433
 31
0.0
  0
LINE
  5
9C
  8
回08-記事
  6
CONTINUOUS
 62
     5
 10
-464.7481750003932
 20
490.6183230030432
 30
0.0
 11
-464.7481750003932
 21
551.3592889860086
 31
0.0
  0
LINE
  5
9D
  8
回08-記事
  6
CONTINUOUS
 62
     5
 10
-464.7481750003932
 20
485.0183230030433
 30
0.0
 11
-464.7481750003932
 21
488.6183230030431
 31
0.0
  0
INSERT
  5
9E
  8
回08-記事
  6
CONTINUOUS
 62
     5
  2
_OPEN
 10
-464.7481750003932
 20
485.0183230030433
 30
0.0
 41
2.0
 42
2.0
 43
2.0
 50
90.0
  0
INSERT
  5
9F
  8
回08-記事
  6
CONTINUOUS
 62
     5
  2
_OPEN
 10
-464.7481750003932
 20
488.6183230030431
 30
0.0
 41
2.0
 42
2.0
 43
2.0
 50
270.0
  0
INSERT
  5
A0
  8
回08-記事
  6
CONTINUOUS
 62
     5
 66
     1
  2
*X848484
 10
0.0
 20
0.0
 30
0.0
  0
SEQEND
  5
601
  8
回02-上ER
  6
CONTINUOUS
 62
     7
  0
POINT
  5
A1
  8
DEFPOINTS
  6
CONTINUOUS
 62
     0
 10
-444.5659473183686
 20
485.0183230030433
 30
0.0
  0
POINT
  5
A2
  8
DEFPOINTS
  6
CONTINUOUS
 62
     0
 10
-444.5659473183686
 20
488.6183230030431
 30
0.0
  0
POINT
  5
A3
  8
DEFPOINTS
  6
CONTINUOUS
 62
     0
 10
-464.7481750003932
 20
488.6183230030431
 30
0.0
  0
ENDBLK
  5
A4
  8
0
 62
     7
  0
BLOCK
  8
0
  2
*D282828
 70
     1
 10
0.0
 20
0.0
 30
0.0
  3
*D282828
  1

  0
LINE
  5
8B
  8
回08-記事
  6
CONTINUOUS
 62
     5
 10
-443.1259473183683
 20
492.2183230030431
 30
0.0
 11
-508.4219143158628
 21
492.2183230030431
 31
0.0
  0
LINE
  5
8C
  8
回08-記事
  6
CONTINUOUS
 62
     5
 10
-443.1259473183684
 20
474.2183230030432
 30
0.0
 11
-508.4219143158628
 21
474.2183230030432
 31
0.0
  0
LINE
  5
8D
  8
回08-記事
  6
CONTINUOUS
 62
     5
 10
-507.4219143158628
 20
490.2183230030431
 30
0.0
 11
-507.4219143158628
 21
476.2183230030433
 31
0.0
  0
INSERT
  5
8E
  8
回08-記事
  6
CONTINUOUS
 62
     5
  2
_OPEN
 10
-507.4219143158628
 20
492.2183230030431
 30
0.0
 41
2.0
 42
2.0
 43
2.0
 50
90.0
  0
INSERT
  5
8F
  8
回08-記事
  6
CONTINUOUS
 62
     5
  2
_OPEN
 10
-507.4219143158628
 20
474.2183230030432
 30
0.0
 41
2.0
 42
2.0
 43
2.0
 50
270.0
  0
INSERT
  5
90
  8
回08-記事
  6
CONTINUOUS
 62
     5
 66
     1
  2
*X858585
 10
0.0
 20
0.0
 30
0.0
  0
SEQEND
  5
60A
  8
回02-上ER
  6
CONTINUOUS
 62
     7
  0
POINT
  5
91
  8
DEFPOINTS
  6
CONTINUOUS
 62
     0
 10
-443.1259473183683
 20
492.2183230030431
 30
0.0
  0
POINT
  5
93
  8
DEFPOINTS
  6
CONTINUOUS
 62
     0
 10
-443.1259473183684
 20
474.2183230030432
 30
0.0
  0
POINT
  5
94
  8
DEFPOINTS
  6
CONTINUOUS
 62
     0
 10
-507.4219143158628
 20
474.2183230030432
 30
0.0
  0
ENDBLK
  5
95
  8
0
 62
     7
  0
BLOCK
  8
回02-上ER
  2
*D292929
 70
     1
 10
0.0
 20
0.0
 30
0.0
  3
*D292929
  1

  0
LINE
  5
359
  8
回08-記事
  6
CONTINUOUS
 62
     5
 10
-585.1259473183681
 20
359.2183230030429
 30
0.0
 11
-650.4219143158625
 21
359.2183230030429
 31
0.0
  0
LINE
  5
35A
  8
回08-記事
  6
CONTINUOUS
 62
     5
 10
-585.1259473183684
 20
341.218323003043
 30
0.0
 11
-650.4219143158625
 21
341.218323003043
 31
0.0
  0
LINE
  5
35B
  8
回08-記事
  6
CONTINUOUS
 62
     5
 10
-649.4219143158625
 20
357.2183230030429
 30
0.0
 11
-649.4219143158625
 21
343.218323003043
 31
0.0
  0
INSERT
  5
35C
  8
回08-記事
  6
CONTINUOUS
 62
     5
  2
_OPEN
 10
-649.4219143158625
 20
359.2183230030429
 30
0.0
 41
2.0
 42
2.0
 43
2.0
 50
90.0
  0
INSERT
  5
35D
  8
回08-記事
  6
CONTINUOUS
 62
     5
  2
_OPEN
 10
-649.4219143158625
 20
341.218323003043
 30
0.0
 41
2.0
 42
2.0
 43
2.0
 50
270.0
  0
INSERT
  5
35E
  8
回08-記事
  6
CONTINUOUS
 62
     5
 66
     1
  2
*X868686
 10
0.0
 20
0.0
 30
0.0
  0
SEQEND
  5
613
  8
回02-上ER
  6
CONTINUOUS
 62
     7
  0
POINT
  5
35F
  8
DEFPOINTS
  6
CONTINUOUS
 62
     0
 10
-585.1259473183681
 20
359.2183230030429
 30
0.0
  0
POINT
  5
360
  8
DEFPOINTS
  6
CONTINUOUS
 62
     0
 10
-585.1259473183684
 20
341.218323003043
 30
0.0
  0
POINT
  5
361
  8
DEFPOINTS
  6
CONTINUOUS
 62
     0
 10
-649.4219143158625
 20
341.218323003043
 30
0.0
  0
ENDBLK
  5
363
  8
回02-上ER
  6
CONTINUOUS
 62
     7
  0
BLOCK
  8
回02-上ER
  2
*D303030
 70
     1
 10
0.0
 20
0.0
 30
0.0
  3
*D303030
  1

  0
LINE
  5
365
  8
回08-記事
  6
CONTINUOUS
 62
     5
 10
-586.5659473183682
 20
352.0183230030431
 30
0.0
 11
-607.7481750003932
 21
352.0183230030431
 31
0.0
  0
LINE
  5
366
  8
回08-記事
  6
CONTINUOUS
 62
     5
 10
-586.5659473183682
 20
355.6183230030431
 30
0.0
 11
-607.7481750003932
 21
355.6183230030431
 31
0.0
  0
LINE
  5
367
  8
回08-記事
  6
CONTINUOUS
 62
     5
 10
-606.7481750003931
 20
357.6183230030431
 30
0.0
 11
-606.7481750003931
 21
418.3599852142048
 31
0.0
  0
LINE
  5
368
  8
回08-記事
  6
CONTINUOUS
 62
     5
 10
-606.7481750003931
 20
352.0183230030431
 30
0.0
 11
-606.7481750003931
 21
355.6183230030431
 31
0.0
  0
LINE
  5
369
  8
回08-記事
  6
CONTINUOUS
 62
     5
 10
-606.7481750003931
 20
350.0183230030431
 30
0.0
 11
-606.7481750003931
 21
348.0183230030431
 31
0.0
  0
INSERT
  5
36A
  8
回08-記事
  6
CONTINUOUS
 62
     5
  2
_OPEN
 10
-606.7481750003931
 20
352.0183230030431
 30
0.0
 41
2.0
 42
2.0
 43
2.0
 50
90.0
  0
INSERT
  5
36B
  8
回08-記事
  6
CONTINUOUS
 62
     5
  2
_OPEN
 10
-606.7481750003931
 20
355.6183230030431
 30
0.0
 41
2.0
 42
2.0
 43
2.0
 50
270.0
  0
INSERT
  5
36C
  8
回08-記事
  6
CONTINUOUS
 62
     5
 66
     1
  2
*X878787
 10
0.0
 20
0.0
 30
0.0
  0
SEQEND
  5
61C
  8
回02-上ER
  6
CONTINUOUS
 62
     7
  0
POINT
  5
36D
  8
DEFPOINTS
  6
CONTINUOUS
 62
     0
 10
-586.5659473183682
 20
352.0183230030431
 30
0.0
  0
POINT
  5
36E
  8
DEFPOINTS
  6
CONTINUOUS
 62
     0
 10
-586.5659473183682
 20
355.6183230030431
 30
0.0
  0
POINT
  5
36F
  8
DEFPOINTS
  6
CONTINUOUS
 62
     0
 10
-606.7481750003931
 20
355.6183230030431
 30
0.0
  0
ENDBLK
  5
371
  8
回02-上ER
  6
CONTINUOUS
 62
     7
  0
BLOCK
  8
回02-上ER
  2
*D313131
 70
     1
 10
0.0
 20
0.0
 30
0.0
  3
*D313131
  1

  0
LINE
  5
373
  8
回08-記事
  6
CONTINUOUS
 62
     5
 10
-586.5659473183682
 20
355.6183230030431
 30
0.0
 11
-616.7623223789775
 21
355.6183230030431
 31
0.0
  0
LINE
  5
374
  8
回08-記事
  6
CONTINUOUS
 62
     5
 10
-586.5659473183682
 20
344.8183230030431
 30
0.0
 11
-616.7623223789775
 21
344.8183230030431
 31
0.0
  0
LINE
  5
375
  8
回08-記事
  6
CONTINUOUS
 62
     5
 10
-615.7623223789775
 20
357.6183230030431
 30
0.0
 11
-615.7623223789775
 21
417.9783230030432
 31
0.0
  0
LINE
  5
376
  8
回08-記事
  6
CONTINUOUS
 62
     5
 10
-615.7623223789775
 20
355.6183230030431
 30
0.0
 11
-615.7623223789775
 21
344.8183230030431
 31
0.0
  0
LINE
  5
377
  8
回08-記事
  6
CONTINUOUS
 62
     5
 10
-615.7623223789775
 20
342.8183230030431
 30
0.0
 11
-615.7623223789775
 21
340.8183230030431
 31
0.0
  0
INSERT
  5
378
  8
回08-記事
  6
CONTINUOUS
 62
     5
  2
_OPEN
 10
-615.7623223789775
 20
355.6183230030431
 30
0.0
 41
2.0
 42
2.0
 43
2.0
 50
270.0
  0
INSERT
  5
379
  8
回08-記事
  6
CONTINUOUS
 62
     5
  2
_OPEN
 10
-615.7623223789775
 20
344.8183230030431
 30
0.0
 41
2.0
 42
2.0
 43
2.0
 50
90.0
  0
INSERT
  5
37A
  8
回08-記事
  6
CONTINUOUS
 62
     5
 66
     1
  2
*X888888
 10
0.0
 20
0.0
 30
0.0
  0
SEQEND
  5
625
  8
回02-上ER
  6
CONTINUOUS
 62
     7
  0
POINT
  5
37B
  8
DEFPOINTS
  6
CONTINUOUS
 62
     0
 10
-586.5659473183682
 20
355.6183230030431
 30
0.0
  0
POINT
  5
37C
  8
DEFPOINTS
  6
CONTINUOUS
 62
     0
 10
-586.5659473183682
 20
344.8183230030431
 30
0.0
  0
POINT
  5
37D
  8
DEFPOINTS
  6
CONTINUOUS
 62
     0
 10
-615.7623223789775
 20
344.8183230030431
 30
0.0
  0
ENDBLK
  5
37F
  8
回02-上ER
  6
CONTINUOUS
 62
     7
  0
BLOCK
  8
回02-上ER
  2
*D323232
 70
     1
 10
0.0
 20
0.0
 30
0.0
  3
*D323232
  1

  0
LINE
  5
381
  8
回08-記事
  6
CONTINUOUS
 62
     5
 10
-586.5659473183682
 20
354.6103230030432
 30
0.0
 11
-592.5481750003934
 21
354.6103230030432
 31
0.0
  0
LINE
  5
382
  8
回08-記事
  6
CONTINUOUS
 62
     5
 10
-586.5659473183682
 20
356.6263230030431
 30
0.0
 11
-592.5481750003934
 21
356.6263230030431
 31
0.0
  0
LINE
  5
383
  8
回08-記事
  6
CONTINUOUS
 62
     5
 10
-591.5481750003935
 20
358.6263230030431
 30
0.0
 11
-591.5481750003935
 21
433.3863230030432
 31
0.0
  0
LINE
  5
384
  8
回08-記事
  6
CONTINUOUS
 62
     5
 10
-591.5481750003935
 20
354.6103230030432
 30
0.0
 11
-591.5481750003935
 21
356.6263230030431
 31
0.0
  0
LINE
  5
385
  8
回08-記事
  6
CONTINUOUS
 62
     5
 10
-591.5481750003935
 20
352.6103230030432
 30
0.0
 11
-591.5481750003935
 21
350.6103230030432
 31
0.0
  0
INSERT
  5
386
  8
回08-記事
  6
CONTINUOUS
 62
     5
  2
_OPEN
 10
-591.5481750003935
 20
354.6103230030432
 30
0.0
 41
2.0
 42
2.0
 43
2.0
 50
90.0
  0
INSERT
  5
387
  8
回08-記事
  6
CONTINUOUS
 62
     5
  2
_OPEN
 10
-591.5481750003935
 20
356.6263230030431
 30
0.0
 41
2.0
 42
2.0
 43
2.0
 50
270.0
  0
INSERT
  5
388
  8
回08-記事
  6
CONTINUOUS
 62
     5
 66
     1
  2
*X898989
 10
0.0
 20
0.0
 30
0.0
  0
SEQEND
  5
62E
  8
回02-上ER
  6
CONTINUOUS
 62
     7
  0
POINT
  5
389
  8
DEFPOINTS
  6
CONTINUOUS
 62
     0
 10
-586.5659473183682
 20
354.6103230030432
 30
0.0
  0
POINT
  5
38A
  8
DEFPOINTS
  6
CONTINUOUS
 62
     0
 10
-586.5659473183682
 20
356.6263230030431
 30
0.0
  0
POINT
  5
38B
  8
DEFPOINTS
  6
CONTINUOUS
 62
     0
 10
-591.5481750003935
 20
356.6263230030431
 30
0.0
  0
ENDBLK
  5
38D
  8
回02-上ER
  6
CONTINUOUS
 62
     7
  0
BLOCK
  8
回02-上ER
  2
*D333333
 70
     1
 10
0.0
 20
0.0
 30
0.0
  3
*D333333
  1

  0
LINE
  5
38F
  8
回07-寸法
  6
CONTINUOUS
 62
     5
 10
-476.3245345605382
 20
485.0810833394968
 30
0.0
 11
-476.3245345605382
 21
513.4958877077306
 31
0.0
  0
LINE
  5
390
  8
回07-寸法
  6
CONTINUOUS
 62
     5
 10
-486.4357971293165
 20
478.9919615425084
 30
0.0
 11
-486.4357971293165
 21
513.4958877077306
 31
0.0
  0
LINE
  5
391
  8
回07-寸法
  6
CONTINUOUS
 62
     5
 10
-488.4357971293166
 20
512.4958877077306
 30
0.0
 11
-532.8980272860465
 21
512.4958877077306
 31
0.0
  0
LINE
  5
392
  8
回07-寸法
  6
CONTINUOUS
 62
     5
 10
-476.3245345605382
 20
512.4958877077306
 30
0.0
 11
-486.4357971293165
 21
512.4958877077306
 31
0.0
  0
LINE
  5
393
  8
回07-寸法
  6
CONTINUOUS
 62
     5
 10
-474.324534560538
 20
512.4958877077306
 30
0.0
 11
-472.3245345605382
 21
512.4958877077306
 31
0.0
  0
INSERT
  5
394
  8
回07-寸法
  6
CONTINUOUS
 62
     5
  2
_OPEN
 10
-476.3245345605382
 20
512.4958877077306
 30
0.0
 41
2.0
 42
2.0
 43
2.0
 50
180.0
  0
INSERT
  5
395
  8
回07-寸法
  6
CONTINUOUS
 62
     5
  2
_OPEN
 10
-486.4357971293165
 20
512.4958877077306
 30
0.0
 41
2.0
 42
2.0
 43
2.0
  0
TEXT
  5
396
  8
回07-寸法
  6
CONTINUOUS
 62
     5
 10
-533.3196894972084
 20
513.2958877077307
 30
0.0
 40
6.0
  1
9.4 [0.370]
  0
POINT
  5
397
  8
DEFPOINTS
  6
CONTINUOUS
 62
     0
 10
-476.3245345605382
 20
485.0810833394968
 30
0.0
  0
POINT
  5
398
  8
DEFPOINTS
  6
CONTINUOUS
 62
     0
 10
-486.4357971293165
 20
478.9919615425084
 30
0.0
  0
POINT
  5
399
  8
DEFPOINTS
  6
CONTINUOUS
 62
     0
 10
-486.4357971293165
 20
512.4958877077306
 30
0.0
  0
ENDBLK
  5
39B
  8
回02-上ER
  6
CONTINUOUS
 62
     7
  0
BLOCK
  8
回02-上ER
  2
*D343434
 70
     1
 10
0.0
 20
0.0
 30
0.0
  3
*D343434
  1

  0
LINE
  5
39D
  8
回07-寸法
  6
CONTINUOUS
 62
     5
 10
-476.3245345605382
 20
485.0810833394968
 30
0.0
 11
-476.3245345605382
 21
500.5714707943807
 31
0.0
  0
LINE
  5
39E
  8
回07-寸法
  6
CONTINUOUS
 62
     5
 10
-481.4204709903909
 20
483.5755108728638
 30
0.0
 11
-481.4204709903909
 21
500.5714707943807
 31
0.0
  0
LINE
  5
39F
  8
回07-寸法
  6
CONTINUOUS
 62
     5
 10
-483.4204709903906
 20
499.5714707943807
 30
0.0
 11
-528.6935322527017
 21
499.5714707943807
 31
0.0
  0
LINE
  5
3A0
  8
回07-寸法
  6
CONTINUOUS
 62
     5
 10
-476.3245345605382
 20
499.5714707943807
 30
0.0
 11
-481.4204709903909
 21
499.5714707943807
 31
0.0
  0
LINE
  5
3A1
  8
回07-寸法
  6
CONTINUOUS
 62
     5
 10
-474.324534560538
 20
499.5714707943807
 30
0.0
 11
-472.3245345605382
 21
499.5714707943807
 31
0.0
  0
INSERT
  5
3A2
  8
回07-寸法
  6
CONTINUOUS
 62
     5
  2
_OPEN
 10
-476.3245345605382
 20
499.5714707943807
 30
0.0
 41
2.0
 42
2.0
 43
2.0
 50
180.0
  0
INSERT
  5
3A3
  8
回07-寸法
  6
CONTINUOUS
 62
     5
  2
_OPEN
 10
-481.4204709903909
 20
499.5714707943807
 30
0.0
 41
2.0
 42
2.0
 43
2.0
  0
TEXT
  5
3A4
  8
回07-寸法
  6
CONTINUOUS
 62
     5
 10
-529.0935322527017
 20
500.3714707943807
 30
0.0
 40
6.0
  1
4.39 [0.173]
  0
POINT
  5
3A5
  8
DEFPOINTS
  6
CONTINUOUS
 62
     0
 10
-476.3245345605382
 20
485.0810833394968
 30
0.0
  0
POINT
  5
3A6
  8
DEFPOINTS
  6
CONTINUOUS
 62
     0
 10
-481.4204709903909
 20
483.5755108728638
 30
0.0
  0
POINT
  5
3A7
  8
DEFPOINTS
  6
CONTINUOUS
 62
     0
 10
-481.4204709903909
 20
499.5714707943807
 30
0.0
  0
ENDBLK
  5
3A9
  8
回02-上ER
  6
CONTINUOUS
 62
     7
  0
BLOCK
  8
回02-上ER
  2
*D353535
 70
     1
 10
0.0
 20
0.0
 30
0.0
  3
*D353535
  1

  0
LINE
  5
3AB
  8
回07-寸法
  6
CONTINUOUS
 62
     5
 10
-480.5122908831982
 20
467.8669615425084
 30
0.0
 11
-576.7116859136738
 21
467.8669615425084
 31
0.0
  0
LINE
  5
3AC
  8
回07-寸法
  6
CONTINUOUS
 62
     5
 10
-480.5164644689039
 20
483.8657585082366
 30
0.0
 11
-576.7116859136738
 21
483.8657585082366
 31
0.0
  0
LINE
  5
3AD
  8
回07-寸法
  6
CONTINUOUS
 62
     5
 10
-575.7116859136734
 20
465.8669615425083
 30
0.0
 11
-575.7116859136734
 21
426.5394943084985
 31
0.0
  0
LINE
  5
3AE
  8
回07-寸法
  6
CONTINUOUS
 62
     5
 10
-575.7116859136734
 20
467.8669615425084
 30
0.0
 11
-575.7116859136734
 21
483.8657585082366
 31
0.0
  0
LINE
  5
3AF
  8
回07-寸法
  6
CONTINUOUS
 62
     5
 10
-575.7116859136734
 20
485.8657585082363
 30
0.0
 11
-575.7116859136734
 21
487.8657585082366
 31
0.0
  0
INSERT
  5
3B0
  8
回07-寸法
  6
CONTINUOUS
 62
     5
  2
_OPEN
 10
-575.7116859136734
 20
467.8669615425084
 30
0.0
 41
2.0
 42
2.0
 43
2.0
 50
90.0
  0
INSERT
  5
3B1
  8
回07-寸法
  6
CONTINUOUS
 62
     5
  2
_OPEN
 10
-575.7116859136734
 20
483.8657585082366
 30
0.0
 41
2.0
 42
2.0
 43
2.0
 50
270.0
  0
TEXT
  5
3B2
  8
回07-寸法
  6
CONTINUOUS
 62
     5
 10
-576.5116859136737
 20
426.1394943084987
 30
0.0
 40
6.0
  1
16 [0.630]
 50
90.0
  0
POINT
  5
3B3
  8
DEFPOINTS
  6
CONTINUOUS
 62
     0
 10
-480.5122908831982
 20
467.8669615425084
 30
0.0
  0
POINT
  5
3B4
  8
DEFPOINTS
  6
CONTINUOUS
 62
     0
 10
-480.5164644689039
 20
483.8657585082366
 30
0.0
  0
POINT
  5
3B5
  8
DEFPOINTS
  6
CONTINUOUS
 62
     0
 10
-575.7116859136734
 20
483.8657585082366
 30
0.0
  0
ENDBLK
  5
3B7
  8
回02-上ER
  6
CONTINUOUS
 62
     7
  0
BLOCK
  8
回02-上ER
  2
*D363636
 70
     1
 10
0.0
 20
0.0
 30
0.0
  3
*D363636
  1

  0
LINE
  5
3B9
  8
回07-寸法
  6
CONTINUOUS
 62
     5
 10
-616.3245345605388
 20
477.7419615425084
 30
0.0
 11
-616.3245345605388
 21
538.0704859827392
 31
0.0
  0
LINE
  5
3BA
  8
回07-寸法
  6
CONTINUOUS
 62
     5
 10
-476.3245345605382
 20
484.5440860867003
 30
0.0
 11
-476.3245345605382
 21
538.0704859827392
 31
0.0
  0
LINE
  5
3BB
  8
回07-寸法
  6
CONTINUOUS
 62
     5
 10
-614.3245345605388
 20
537.0704859827392
 30
0.0
 11
-478.324534560538
 21
537.0704859827392
 31
0.0
  0
INSERT
  5
3BC
  8
回07-寸法
  6
CONTINUOUS
 62
     5
  2
_OPEN
 10
-616.3245345605388
 20
537.0704859827392
 30
0.0
 41
2.0
 42
2.0
 43
2.0
 50
180.0
  0
INSERT
  5
3BD
  8
回07-寸法
  6
CONTINUOUS
 62
     5
  2
_OPEN
 10
-476.3245345605382
 20
537.0704859827392
 30
0.0
 41
2.0
 42
2.0
 43
2.0
  0
INSERT
  5
3BE
  8
回07-寸法
  6
CONTINUOUS
 62
     5
 66
     1
  2
*X909090
 10
0.0
 20
0.0
 30
0.0
  0
SEQEND
  5
637
  8
回02-上ER
  6
CONTINUOUS
 62
     7
  0
POINT
  5
3BF
  8
DEFPOINTS
  6
CONTINUOUS
 62
     0
 10
-616.3245345605388
 20
477.7419615425084
 30
0.0
  0
POINT
  5
3C0
  8
DEFPOINTS
  6
CONTINUOUS
 62
     0
 10
-476.3245345605382
 20
484.5440860867003
 30
0.0
  0
POINT
  5
3C1
  8
DEFPOINTS
  6
CONTINUOUS
 62
     0
 10
-476.3245345605382
 20
537.0704859827392
 30
0.0
  0
ENDBLK
  5
3C3
  8
回02-上ER
  6
CONTINUOUS
 62
     7
  0
BLOCK
  8
回02-上ER
  2
*D373737
 70
     1
 10
0.0
 20
0.0
 30
0.0
  3
*D373737
  1

  0
LINE
  5
3C5
  8
回07-寸法
  6
CONTINUOUS
 62
     5
 10
-466.3245345605381
 20
592.3719919848146
 30
0.0
 11
-466.3245345605381
 21
639.9916903013702
 31
0.0
  0
LINE
  5
3C6
  8
回07-寸法
  6
CONTINUOUS
 62
     5
 10
-476.3245345605382
 20
601.8719919848146
 30
0.0
 11
-476.3245345605382
 21
639.9916903013702
 31
0.0
  0
LINE
  5
3C7
  8
回07-寸法
  6
CONTINUOUS
 62
     5
 10
-478.324534560538
 20
638.9916903013705
 30
0.0
 11
-517.0975958228491
 21
638.9916903013705
 31
0.0
  0
LINE
  5
3C8
  8
回07-寸法
  6
CONTINUOUS
 62
     5
 10
-466.3245345605381
 20
638.9916903013705
 30
0.0
 11
-476.3245345605382
 21
638.9916903013705
 31
0.0
  0
LINE
  5
3C9
  8
回07-寸法
  6
CONTINUOUS
 62
     5
 10
-464.3245345605381
 20
638.9916903013705
 30
0.0
 11
-462.3245345605381
 21
638.9916903013705
 31
0.0
  0
INSERT
  5
3CA
  8
回07-寸法
  6
CONTINUOUS
 62
     5
  2
_OPEN
 10
-466.3245345605381
 20
638.9916903013705
 30
0.0
 41
2.0
 42
2.0
 43
2.0
 50
180.0
  0
INSERT
  5
3CB
  8
回07-寸法
  6
CONTINUOUS
 62
     5
  2
_OPEN
 10
-476.3245345605382
 20
638.9916903013705
 30
0.0
 41
2.0
 42
2.0
 43
2.0
  0
TEXT
  5
3CC
  8
回07-寸法
  6
CONTINUOUS
 62
     5
 10
-517.4975958228491
 20
639.7916903013703
 30
0.0
 40
6.0
  1
10 [0.394]
  0
POINT
  5
3CD
  8
DEFPOINTS
  6
CONTINUOUS
 62
     0
 10
-466.3245345605381
 20
592.3719919848146
 30
0.0
  0
POINT
  5
3CE
  8
DEFPOINTS
  6
CONTINUOUS
 62
     0
 10
-476.3245345605382
 20
601.8719919848146
 30
0.0
  0
POINT
  5
3CF
  8
DEFPOINTS
  6
CONTINUOUS
 62
     0
 10
-476.3245345605382
 20
638.9916903013705
 30
0.0
  0
ENDBLK
  5
3D1
  8
回02-上ER
  6
CONTINUOUS
 62
     7
  0
BLOCK
  8
回02-上ER
  2
*D383838
 70
     1
 10
0.0
 20
0.0
 30
0.0
  3
*D383838
  1

  0
LINE
  5
3D3
  8
回07-寸法
  6
CONTINUOUS
 62
     5
 10
-464.3245345605381
 20
590.3719919848144
 30
0.0
 11
-464.3245345605381
 21
627.425169624928
 31
0.0
  0
LINE
  5
3D4
  8
回07-寸法
  6
CONTINUOUS
 62
     5
 10
-476.3245345605382
 20
601.8719919848146
 30
0.0
 11
-476.3245345605382
 21
627.425169624928
 31
0.0
  0
LINE
  5
3D5
  8
回07-寸法
  6
CONTINUOUS
 62
     5
 10
-478.324534560538
 20
626.425169624928
 30
0.0
 11
-517.0745345605381
 21
626.425169624928
 31
0.0
  0
LINE
  5
3D6
  8
回07-寸法
  6
CONTINUOUS
 62
     5
 10
-464.3245345605381
 20
626.425169624928
 30
0.0
 11
-476.3245345605382
 21
626.425169624928
 31
0.0
  0
LINE
  5
3D7
  8
回07-寸法
  6
CONTINUOUS
 62
     5
 10
-462.3245345605381
 20
626.425169624928
 30
0.0
 11
-460.3245345605381
 21
626.425169624928
 31
0.0
  0
INSERT
  5
3D8
  8
回07-寸法
  6
CONTINUOUS
 62
     5
  2
_OPEN
 10
-464.3245345605381
 20
626.425169624928
 30
0.0
 41
2.0
 42
2.0
 43
2.0
 50
180.0
  0
INSERT
  5
3D9
  8
回07-寸法
  6
CONTINUOUS
 62
     5
  2
_OPEN
 10
-476.3245345605382
 20
626.425169624928
 30
0.0
 41
2.0
 42
2.0
 43
2.0
  0
TEXT
  5
3DA
  8
回07-寸法
  6
CONTINUOUS
 62
     5
 10
-517.4745345605381
 20
627.2251696249279
 30
0.0
 40
6.0
  1
12 [0.472]
  0
POINT
  5
3DB
  8
DEFPOINTS
  6
CONTINUOUS
 62
     0
 10
-464.3245345605381
 20
590.3719919848144
 30
0.0
  0
POINT
  5
3DC
  8
DEFPOINTS
  6
CONTINUOUS
 62
     0
 10
-476.3245345605382
 20
601.8719919848146
 30
0.0
  0
POINT
  5
3DD
  8
DEFPOINTS
  6
CONTINUOUS
 62
     0
 10
-476.3245345605382
 20
626.425169624928
 30
0.0
  0
ENDBLK
  5
3DF
  8
回02-上ER
  6
CONTINUOUS
 62
     7
  0
BLOCK
  8
回02-上ER
  2
*D393939
 70
     1
 10
0.0
 20
0.0
 30
0.0
  3
*D393939
  1

  0
LINE
  5
3E1
  8
回07-寸法
  6
CONTINUOUS
 62
     5
 10
-156.8245345605381
 20
593.171991984814
 30
0.0
 11
-72.1029282341373
 21
593.171991984814
 31
0.0
  0
LINE
  5
3E2
  8
回07-寸法
  6
CONTINUOUS
 62
     5
 10
-148.3245345605381
 20
601.8719919848146
 30
0.0
 11
-72.1029282341373
 21
601.8719919848146
 31
0.0
  0
LINE
  5
3E3
  8
回07-寸法
  6
CONTINUOUS
 62
     5
 10
-73.10292823413729
 20
603.8719919848146
 30
0.0
 11
-73.10292823413729
 21
645.8719919848147
 31
0.0
  0
LINE
  5
3E4
  8
回07-寸法
  6
CONTINUOUS
 62
     5
 10
-73.10292823413729
 20
593.171991984814
 30
0.0
 11
-73.10292823413729
 21
601.8719919848146
 31
0.0
  0
LINE
  5
3E5
  8
回07-寸法
  6
CONTINUOUS
 62
     5
 10
-73.10292823413729
 20
591.1719919848142
 30
0.0
 11
-73.10292823413729
 21
589.171991984814
 31
0.0
  0
INSERT
  5
3E6
  8
回07-寸法
  6
CONTINUOUS
 62
     5
  2
_OPEN
 10
-73.10292823413729
 20
593.171991984814
 30
0.0
 41
2.0
 42
2.0
 43
2.0
 50
90.0
  0
INSERT
  5
3E7
  8
回07-寸法
  6
CONTINUOUS
 62
     5
  2
_OPEN
 10
-73.10292823413729
 20
601.8719919848146
 30
0.0
 41
2.0
 42
2.0
 43
2.0
 50
270.0
  0
TEXT
  5
3E8
  8
回07-寸法
  6
CONTINUOUS
 62
     5
 10
-73.90292823413722
 20
608.4719919848146
 30
0.0
 40
6.0
  1
8.7 [0.343]
 50
90.0
  0
POINT
  5
3E9
  8
DEFPOINTS
  6
CONTINUOUS
 62
     0
 10
-156.8245345605381
 20
593.171991984814
 30
0.0
  0
POINT
  5
3EA
  8
DEFPOINTS
  6
CONTINUOUS
 62
     0
 10
-148.3245345605381
 20
601.8719919848146
 30
0.0
  0
POINT
  5
3EB
  8
DEFPOINTS
  6
CONTINUOUS
 62
     0
 10
-73.10292823413729
 20
601.8719919848146
 30
0.0
  0
ENDBLK
  5
3ED
  8
回02-上ER
  6
CONTINUOUS
 62
     7
  0
BLOCK
  8
回02-上ER
  2
*D404040
 70
     1
 10
0.0
 20
0.0
 30
0.0
  3
*D404040
  1

  0
LINE
  5
3EF
  8
回07-寸法
  6
CONTINUOUS
 62
     5
 10
-156.8245345605381
 20
593.171991984814
 30
0.0
 11
-72.1029282341373
 21
593.171991984814
 31
0.0
  0
LINE
  5
3F0
  8
回07-寸法
  6
CONTINUOUS
 62
     5
 10
-156.8245345605381
 20
358.5719919848149
 30
0.0
 11
-72.10292823413734
 21
358.5719919848149
 31
0.0
  0
LINE
  5
3F1
  8
回07-寸法
  6
CONTINUOUS
 62
     5
 10
-73.10292823413731
 20
591.1719919848142
 30
0.0
 11
-73.10292823413734
 21
360.5719919848149
 31
0.0
  0
INSERT
  5
3F2
  8
回07-寸法
  6
CONTINUOUS
 62
     5
  2
_OPEN
 10
-73.10292823413731
 20
593.171991984814
 30
0.0
 41
2.0
 42
2.0
 43
2.0
 50
90.0
  0
INSERT
  5
3F3
  8
回07-寸法
  6
CONTINUOUS
 62
     5
  2
_OPEN
 10
-73.10292823413734
 20
358.5719919848149
 30
0.0
 41
2.0
 42
2.0
 43
2.0
 50
270.0
  0
TEXT
  5
3F4
  8
回07-寸法
  6
CONTINUOUS
 62
     5
 10
-73.90292823413735
 20
452.7611608792337
 30
0.0
 40
6.0
  1
234.6 [9.236]
 50
90.0
  0
POINT
  5
3F5
  8
DEFPOINTS
  6
CONTINUOUS
 62
     0
 10
-156.8245345605381
 20
593.171991984814
 30
0.0
  0
POINT
  5
3F6
  8
DEFPOINTS
  6
CONTINUOUS
 62
     0
 10
-156.8245345605381
 20
358.5719919848149
 30
0.0
  0
POINT
  5
3F7
  8
DEFPOINTS
  6
CONTINUOUS
 62
     0
 10
-73.10292823413734
 20
358.5719919848149
 30
0.0
  0
ENDBLK
  5
3F9
  8
回02-上ER
  6
CONTINUOUS
 62
     7
  0
BLOCK
  8
回02-上ER
  2
*D414141
 70
     1
 10
0.0
 20
0.0
 30
0.0
  3
*D414141
  1

  0
LINE
  5
3FB
  8
回07-寸法
  6
CONTINUOUS
 62
     5
 10
-466.8245345605383
 20
593.171991984814
 30
0.0
 11
-466.8245345605383
 21
657.1432213344692
 31
0.0
  0
LINE
  5
3FC
  8
回07-寸法
  6
CONTINUOUS
 62
     5
 10
-476.3245345605382
 20
601.8719919848146
 30
0.0
 11
-476.3245345605382
 21
657.1432213344692
 31
0.0
  0
LINE
  5
3FD
  8
回07-寸法
  6
CONTINUOUS
 62
     5
 10
-478.324534560538
 20
656.1432213344692
 30
0.0
 11
-520.4695093073687
 21
656.1432213344692
 31
0.0
  0
LINE
  5
3FE
  8
回07-寸法
  6
CONTINUOUS
 62
     5
 10
-466.8245345605383
 20
656.1432213344692
 30
0.0
 11
-476.3245345605382
 21
656.1432213344692
 31
0.0
  0
LINE
  5
3FF
  8
回07-寸法
  6
CONTINUOUS
 62
     5
 10
-464.824534560538
 20
656.1432213344692
 30
0.0
 11
-462.8245345605383
 21
656.1432213344692
 31
0.0
  0
INSERT
  5
400
  8
回07-寸法
  6
CONTINUOUS
 62
     5
  2
_OPEN
 10
-466.8245345605383
 20
656.1432213344692
 30
0.0
 41
2.0
 42
2.0
 43
2.0
 50
180.0
  0
INSERT
  5
401
  8
回07-寸法
  6
CONTINUOUS
 62
     5
  2
_OPEN
 10
-476.3245345605382
 20
656.1432213344692
 30
0.0
 41
2.0
 42
2.0
 43
2.0
  0
TEXT
  5
402
  8
回07-寸法
  6
CONTINUOUS
 62
     5
 10
-520.8911715185307
 20
656.9432213344692
 30
0.0
 40
6.0
  1
9.5 [0.374]
  0
POINT
  5
403
  8
DEFPOINTS
  6
CONTINUOUS
 62
     0
 10
-466.8245345605383
 20
593.171991984814
 30
0.0
  0
POINT
  5
404
  8
DEFPOINTS
  6
CONTINUOUS
 62
     0
 10
-476.3245345605382
 20
601.8719919848146
 30
0.0
  0
POINT
  5
405
  8
DEFPOINTS
  6
CONTINUOUS
 62
     0
 10
-476.3245345605382
 20
656.1432213344692
 30
0.0
  0
ENDBLK
  5
407
  8
回02-上ER
  6
CONTINUOUS
 62
     7
  0
BLOCK
  8
回02-上ER
  2
*D424242
 70
     1
 10
0.0
 20
0.0
 30
0.0
  3
*D424242
  1

  0
LINE
  5
409
  8
回07-寸法
  6
CONTINUOUS
 62
     5
 10
-156.8245345605381
 20
593.171991984814
 30
0.0
 11
-156.8245345605381
 21
657.1432213344692
 31
0.0
  0
LINE
  5
40A
  8
回07-寸法
  6
CONTINUOUS
 62
     5
 10
-148.3245345605381
 20
601.8719919848146
 30
0.0
 11
-148.3245345605381
 21
657.1432213344692
 31
0.0
  0
LINE
  5
40B
  8
回07-寸法
  6
CONTINUOUS
 62
     5
 10
-146.3245345605382
 20
656.1432213344692
 30
0.0
 11
-104.9745345605382
 21
656.1432213344692
 31
0.0
  0
LINE
  5
40C
  8
回07-寸法
  6
CONTINUOUS
 62
     5
 10
-156.8245345605381
 20
656.1432213344692
 30
0.0
 11
-148.3245345605381
 21
656.1432213344692
 31
0.0
  0
LINE
  5
40D
  8
回07-寸法
  6
CONTINUOUS
 62
     5
 10
-158.8245345605382
 20
656.1432213344692
 30
0.0
 11
-160.8245345605381
 21
656.1432213344692
 31
0.0
  0
INSERT
  5
40E
  8
回07-寸法
  6
CONTINUOUS
 62
     5
  2
_OPEN
 10
-156.8245345605381
 20
656.1432213344692
 30
0.0
 41
2.0
 42
2.0
 43
2.0
  0
INSERT
  5
40F
  8
回07-寸法
  6
CONTINUOUS
 62
     5
  2
_OPEN
 10
-148.3245345605381
 20
656.1432213344692
 30
0.0
 41
2.0
 42
2.0
 43
2.0
 50
180.0
  0
TEXT
  5
410
  8
回07-寸法
  6
CONTINUOUS
 62
     5
 10
-141.7745345605383
 20
656.9432213344692
 30
0.0
 40
6.0
  1
8.5 [0.335]
  0
POINT
  5
411
  8
DEFPOINTS
  6
CONTINUOUS
 62
     0
 10
-156.8245345605381
 20
593.171991984814
 30
0.0
  0
POINT
  5
412
  8
DEFPOINTS
  6
CONTINUOUS
 62
     0
 10
-148.3245345605381
 20
601.8719919848146
 30
0.0
  0
POINT
  5
413
  8
DEFPOINTS
  6
CONTINUOUS
 62
     0
 10
-148.3245345605381
 20
656.1432213344692
 30
0.0
  0
ENDBLK
  5
415
  8
回02-上ER
  6
CONTINUOUS
 62
     7
  0
BLOCK
  8
回02-上ER
  2
*D434343
 70
     1
 10
0.0
 20
0.0
 30
0.0
  3
*D434343
  1

  0
LINE
  5
417
  8
回07-寸法
  6
CONTINUOUS
 62
     5
 10
-466.8245345605383
 20
593.171991984814
 30
0.0
 11
-466.8245345605383
 21
657.1432213344692
 31
0.0
  0
LINE
  5
418
  8
回07-寸法
  6
CONTINUOUS
 62
     5
 10
-156.8245345605381
 20
593.171991984814
 30
0.0
 11
-156.8245345605381
 21
657.1432213344692
 31
0.0
  0
LINE
  5
419
  8
回07-寸法
  6
CONTINUOUS
 62
     5
 10
-464.824534560538
 20
656.1432213344692
 30
0.0
 11
-158.8245345605382
 21
656.1432213344692
 31
0.0
  0
INSERT
  5
41A
  8
回07-寸法
  6
CONTINUOUS
 62
     5
  2
_OPEN
 10
-466.8245345605383
 20
656.1432213344692
 30
0.0
 41
2.0
 42
2.0
 43
2.0
 50
180.0
  0
INSERT
  5
41B
  8
回07-寸法
  6
CONTINUOUS
 62
     5
  2
_OPEN
 10
-156.8245345605381
 20
656.1432213344692
 30
0.0
 41
2.0
 42
2.0
 43
2.0
  0
TEXT
  5
41C
  8
回07-寸法
  6
CONTINUOUS
 62
     5
 10
-332.5245345605383
 20
656.9432213344692
 30
0.0
 40
6.0
  1
310 [12.205]
  0
POINT
  5
41D
  8
DEFPOINTS
  6
CONTINUOUS
 62
     0
 10
-466.8245345605383
 20
593.171991984814
 30
0.0
  0
POINT
  5
41E
  8
DEFPOINTS
  6
CONTINUOUS
 62
     0
 10
-156.8245345605381
 20
593.171991984814
 30
0.0
  0
POINT
  5
41F
  8
DEFPOINTS
  6
CONTINUOUS
 62
     0
 10
-156.8245345605381
 20
656.1432213344692
 30
0.0
  0
ENDBLK
  5
421
  8
回02-上ER
  6
CONTINUOUS
 62
     7
  0
BLOCK
  8
回02-上ER
  2
*D444444
 70
     1
 10
0.0
 20
0.0
 30
0.0
  3
*D444444
  1

  0
LINE
  5
423
  8
回07-寸法
  6
CONTINUOUS
 62
     5
 10
-157.3245345605382
 20
592.3719919848146
 30
0.0
 11
-84.10292823413714
 21
592.3719919848146
 31
0.0
  0
LINE
  5
424
  8
回07-寸法
  6
CONTINUOUS
 62
     5
 10
-157.3245345605382
 20
359.3719919848146
 30
0.0
 11
-84.10292823413717
 21
359.3719919848146
 31
0.0
  0
LINE
  5
425
  8
回07-寸法
  6
CONTINUOUS
 62
     5
 10
-85.10292823413712
 20
590.3719919848144
 30
0.0
 11
-85.10292823413717
 21
361.3719919848146
 31
0.0
  0
INSERT
  5
426
  8
回07-寸法
  6
CONTINUOUS
 62
     5
  2
_OPEN
 10
-85.10292823413712
 20
592.3719919848146
 30
0.0
 41
2.0
 42
2.0
 43
2.0
 50
90.0
  0
INSERT
  5
427
  8
回07-寸法
  6
CONTINUOUS
 62
     5
  2
_OPEN
 10
-85.10292823413717
 20
359.3719919848146
 30
0.0
 41
2.0
 42
2.0
 43
2.0
 50
270.0
  0
TEXT
  5
428
  8
回07-寸法
  6
CONTINUOUS
 62
     5
 10
-85.90292823413717
 20
429.287522644586
 30
0.0
 40
6.0
  1
233 [9.173] (VIEING AREA)
 50
90.0
  0
POINT
  5
429
  8
DEFPOINTS
  6
CONTINUOUS
 62
     0
 10
-157.3245345605382
 20
592.3719919848146
 30
0.0
  0
POINT
  5
42A
  8
DEFPOINTS
  6
CONTINUOUS
 62
     0
 10
-157.3245345605382
 20
359.3719919848146
 30
0.0
  0
POINT
  5
42B
  8
DEFPOINTS
  6
CONTINUOUS
 62
     0
 10
-85.10292823413717
 20
359.3719919848146
 30
0.0
  0
ENDBLK
  5
42D
  8
回02-上ER
  6
CONTINUOUS
 62
     7
  0
BLOCK
  8
回02-上ER
  2
*D454545
 70
     1
 10
0.0
 20
0.0
 30
0.0
  3
*D454545
  1

  0
LINE
  5
42F
  8
回07-寸法
  6
CONTINUOUS
 62
     5
 10
-159.3245345605383
 20
361.3719919848146
 30
0.0
 11
-95.95298711788585
 21
361.3719919848146
 31
0.0
  0
LINE
  5
430
  8
回07-寸法
  6
CONTINUOUS
 62
     5
 10
-159.3245345605383
 20
590.3719919848144
 30
0.0
 11
-95.95298711788585
 21
590.3719919848144
 31
0.0
  0
LINE
  5
431
  8
回07-寸法
  6
CONTINUOUS
 62
     5
 10
-96.95298711788588
 20
363.3719919848146
 30
0.0
 11
-96.95298711788588
 21
588.3719919848146
 31
0.0
  0
INSERT
  5
432
  8
回07-寸法
  6
CONTINUOUS
 62
     5
  2
_OPEN
 10
-96.95298711788588
 20
361.3719919848146
 30
0.0
 41
2.0
 42
2.0
 43
2.0
 50
270.0
  0
INSERT
  5
433
  8
回07-寸法
  6
CONTINUOUS
 62
     5
  2
_OPEN
 10
-96.95298711788588
 20
590.3719919848144
 30
0.0
 41
2.0
 42
2.0
 43
2.0
 50
90.0
  0
TEXT
  5
434
  8
回07-寸法
  6
CONTINUOUS
 62
     5
 10
-97.75298711788588
 20
427.7766915390052
 30
0.0
 40
6.0
  1
229 [9.016] (ACTIVE AREA)
 50
90.0
  0
POINT
  5
435
  8
DEFPOINTS
  6
CONTINUOUS
 62
     0
 10
-159.3245345605383
 20
361.3719919848146
 30
0.0
  0
POINT
  5
436
  8
DEFPOINTS
  6
CONTINUOUS
 62
     0
 10
-159.3245345605383
 20
590.3719919848144
 30
0.0
  0
POINT
  5
437
  8
DEFPOINTS
  6
CONTINUOUS
 62
     0
 10
-96.95298711788588
 20
590.3719919848144
 30
0.0
  0
ENDBLK
  5
439
  8
回02-上ER
  6
CONTINUOUS
 62
     7
  0
BLOCK
  8
回02-上ER
  2
*D464646
 70
     1
 10
0.0
 20
0.0
 30
0.0
  3
*D464646
  1

  0
LINE
  5
43B
  8
回07-寸法
  6
CONTINUOUS
 62
     5
 10
-476.3245345605382
 20
601.8719919848146
 30
0.0
 11
-476.3245345605382
 21
668.6138598055536
 31
0.0
  0
LINE
  5
43C
  8
回07-寸法
  6
CONTINUOUS
 62
     5
 10
-148.3245345605381
 20
601.8719919848146
 30
0.0
 11
-148.3245345605381
 21
668.6138598055536
 31
0.0
  0
LINE
  5
43D
  8
回07-寸法
  6
CONTINUOUS
 62
     5
 10
-474.324534560538
 20
667.6138598055536
 30
0.0
 11
-150.3245345605382
 21
667.6138598055536
 31
0.0
  0
INSERT
  5
43E
  8
回07-寸法
  6
CONTINUOUS
 62
     5
  2
_OPEN
 10
-476.3245345605382
 20
667.6138598055536
 30
0.0
 41
2.0
 42
2.0
 43
2.0
 50
180.0
  0
INSERT
  5
43F
  8
回07-寸法
  6
CONTINUOUS
 62
     5
  2
_OPEN
 10
-148.3245345605381
 20
667.6138598055536
 30
0.0
 41
2.0
 42
2.0
 43
2.0
  0
INSERT
  5
440
  8
回07-寸法
  6
CONTINUOUS
 62
     5
 66
     1
  2
*X919191
 10
0.0
 20
0.0
 30
0.0
  0
SEQEND
  5
640
  8
回02-上ER
  6
CONTINUOUS
 62
     7
  0
POINT
  5
441
  8
DEFPOINTS
  6
CONTINUOUS
 62
     0
 10
-476.3245345605382
 20
601.8719919848146
 30
0.0
  0
POINT
  5
442
  8
DEFPOINTS
  6
CONTINUOUS
 62
     0
 10
-148.3245345605381
 20
601.8719919848146
 30
0.0
  0
POINT
  5
443
  8
DEFPOINTS
  6
CONTINUOUS
 62
     0
 10
-148.3245345605381
 20
667.6138598055536
 30
0.0
  0
ENDBLK
  5
445
  8
回02-上ER
  6
CONTINUOUS
 62
     7
  0
BLOCK
  8
回02-上ER
  2
*D474747
 70
     1
 10
0.0
 20
0.0
 30
0.0
  3
*D474747
  1

  0
LINE
  5
447
  8
回07-寸法
  6
CONTINUOUS
 62
     5
 10
-466.3245345605381
 20
592.3719919848146
 30
0.0
 11
-466.3245345605381
 21
639.9916903013702
 31
0.0
  0
LINE
  5
448
  8
回07-寸法
  6
CONTINUOUS
 62
     5
 10
-157.3245345605382
 20
592.3719919848146
 30
0.0
 11
-157.3245345605382
 21
639.9916903013702
 31
0.0
  0
LINE
  5
449
  8
回07-寸法
  6
CONTINUOUS
 62
     5
 10
-464.3245345605381
 20
638.9916903013705
 30
0.0
 11
-159.3245345605383
 21
638.9916903013705
 31
0.0
  0
INSERT
  5
44A
  8
回07-寸法
  6
CONTINUOUS
 62
     5
  2
_OPEN
 10
-466.3245345605381
 20
638.9916903013705
 30
0.0
 41
2.0
 42
2.0
 43
2.0
 50
180.0
  0
INSERT
  5
44B
  8
回07-寸法
  6
CONTINUOUS
 62
     5
  2
_OPEN
 10
-157.3245345605382
 20
638.9916903013705
 30
0.0
 41
2.0
 42
2.0
 43
2.0
  0
TEXT
  5
44C
  8
回07-寸法
  6
CONTINUOUS
 62
     5
 10
-362.8596839074745
 20
639.7916903013704
 30
0.0
 40
6.0
  1
309 [12.165] (VIEWING AREA)
  0
POINT
  5
44D
  8
DEFPOINTS
  6
CONTINUOUS
 62
     0
 10
-466.3245345605381
 20
592.3719919848146
 30
0.0
  0
POINT
  5
44E
  8
DEFPOINTS
  6
CONTINUOUS
 62
     0
 10
-157.3245345605382
 20
592.3719919848146
 30
0.0
  0
POINT
  5
44F
  8
DEFPOINTS
  6
CONTINUOUS
 62
     0
 10
-157.3245345605382
 20
638.9916903013705
 30
0.0
  0
ENDBLK
  5
451
  8
回02-上ER
  6
CONTINUOUS
 62
     7
  0
BLOCK
  8
回02-上ER
  2
*D484848
 70
     1
 10
0.0
 20
0.0
 30
0.0
  3
*D484848
  1

  0
LINE
  5
453
  8
回07-寸法
  6
CONTINUOUS
 62
     5
 10
-464.3245345605381
 20
590.3719919848144
 30
0.0
 11
-464.3245345605381
 21
627.425169624928
 31
0.0
  0
LINE
  5
454
  8
回07-寸法
  6
CONTINUOUS
 62
     5
 10
-159.3245345605383
 20
590.3719919848144
 30
0.0
 11
-159.3245345605383
 21
627.425169624928
 31
0.0
  0
LINE
  5
455
  8
回07-寸法
  6
CONTINUOUS
 62
     5
 10
-462.3245345605381
 20
626.425169624928
 30
0.0
 11
-161.3245345605383
 21
626.425169624928
 31
0.0
  0
INSERT
  5
456
  8
回07-寸法
  6
CONTINUOUS
 62
     5
  2
_OPEN
 10
-464.3245345605381
 20
626.425169624928
 30
0.0
 41
2.0
 42
2.0
 43
2.0
 50
180.0
  0
INSERT
  5
457
  8
回07-寸法
  6
CONTINUOUS
 62
     5
  2
_OPEN
 10
-159.3245345605383
 20
626.425169624928
 30
0.0
 41
2.0
 42
2.0
 43
2.0
  0
TEXT
  5
458
  8
回07-寸法
  6
CONTINUOUS
 62
     5
 10
-361.9233534581761
 20
627.2251696249279
 30
0.0
 40
6.0
  1
305 [12.008] (ACTIVE AREA)
  0
POINT
  5
459
  8
DEFPOINTS
  6
CONTINUOUS
 62
     0
 10
-464.3245345605381
 20
590.3719919848144
 30
0.0
  0
POINT
  5
45A
  8
DEFPOINTS
  6
CONTINUOUS
 62
     0
 10
-159.3245345605383
 20
590.3719919848144
 30
0.0
  0
POINT
  5
45B
  8
DEFPOINTS
  6
CONTINUOUS
 62
     0
 10
-159.3245345605383
 20
626.425169624928
 30
0.0
  0
ENDBLK
  5
45D
  8
回02-上ER
  6
CONTINUOUS
 62
     7
  0
BLOCK
  8
回02-上ER
  2
*D494949
 70
     1
 10
0.0
 20
0.0
 30
0.0
  3
*D494949
  1

  0
LINE
  5
45F
  8
回07-寸法
  6
CONTINUOUS
 62
     5
 10
-476.3245345605382
 20
601.8719919848146
 30
0.0
 11
-476.3245345605382
 21
610.2189560247502
 31
0.0
  0
LINE
  5
460
  8
回07-寸法
  6
CONTINUOUS
 62
     5
 10
-311.8245345605383
 20
603.5928386889091
 30
0.0
 11
-311.8245345605383
 21
610.2189560247502
 31
0.0
  0
LINE
  5
461
  8
回07-寸法
  6
CONTINUOUS
 62
     5
 10
-474.324534560538
 20
609.2189560247502
 30
0.0
 11
-313.8245345605383
 21
609.2189560247502
 31
0.0
  0
INSERT
  5
462
  8
回07-寸法
  6
CONTINUOUS
 62
     5
  2
_OPEN
 10
-476.3245345605382
 20
609.2189560247502
 30
0.0
 41
2.0
 42
2.0
 43
2.0
 50
180.0
  0
INSERT
  5
463
  8
回07-寸法
  6
CONTINUOUS
 62
     5
  2
_OPEN
 10
-311.8245345605383
 20
609.2189560247502
 30
0.0
 41
2.0
 42
2.0
 43
2.0
  0
TEXT
  5
464
  8
回07-寸法
  6
CONTINUOUS
 62
     5
 10
-453.2932956640737
 20
610.0189560247502
 30
0.0
 40
6.0
  1
164.5 [6.476] (ACTIVE AREA CENTER)
  0
POINT
  5
465
  8
DEFPOINTS
  6
CONTINUOUS
 62
     0
 10
-476.3245345605382
 20
601.8719919848146
 30
0.0
  0
POINT
  5
466
  8
DEFPOINTS
  6
CONTINUOUS
 62
     0
 10
-311.8245345605383
 20
603.5928386889091
 30
0.0
  0
POINT
  5
467
  8
DEFPOINTS
  6
CONTINUOUS
 62
     0
 10
-311.8245345605383
 20
609.2189560247502
 30
0.0
  0
ENDBLK
  5
469
  8
回02-上ER
  6
CONTINUOUS
 62
     7
  0
BLOCK
  8
回02-上ER
  2
*D505050
 70
     1
 10
0.0
 20
0.0
 30
0.0
  3
*D505050
  1

  0
LINE
  5
46B
  8
回07-寸法
 62
     5
 10
-615.8245345605386
 20
478.9919615425088
 30
0.0
 11
-627.7825040879642
 21
478.9919615425088
 31
0.0
  0
LINE
  5
46C
  8
回07-寸法
 62
     5
 10
-615.8245345605386
 20
472.7419615425088
 30
0.0
 11
-627.7825040879642
 21
472.7419615425088
 31
0.0
  0
LINE
  5
46D
  8
回07-寸法
 62
     5
 10
-626.7825040879642
 20
470.7419615425088
 30
0.0
 11
-626.7825040879642
 21
423.9825127236112
 31
0.0
  0
LINE
  5
46E
  8
回07-寸法
 62
     5
 10
-626.7825040879642
 20
478.9919615425088
 30
0.0
 11
-626.7825040879642
 21
472.7419615425088
 31
0.0
  0
LINE
  5
46F
  8
回07-寸法
 62
     5
 10
-626.7825040879642
 20
480.9919615425088
 30
0.0
 11
-626.7825040879642
 21
482.9919615425088
 31
0.0
  0
INSERT
  5
470
  8
回07-寸法
  6
CONTINUOUS
 62
     5
  2
_OPEN
 10
-626.7825040879642
 20
478.9919615425088
 30
0.0
 41
2.0
 42
2.0
 43
2.0
 50
270.0
  0
INSERT
  5
471
  8
回07-寸法
  6
CONTINUOUS
 62
     5
  2
_OPEN
 10
-626.7825040879642
 20
472.7419615425088
 30
0.0
 41
2.0
 42
2.0
 43
2.0
 50
90.0
  0
TEXT
  5
472
  8
回07-寸法
  6
CONTINUOUS
 62
     5
 10
-627.5825040879642
 20
423.5825127236114
 30
0.0
 40
6.0
  1
6.25 [0.246]
 50
90.0
  0
POINT
  5
473
  8
DEFPOINTS
  6
CONTINUOUS
 62
     0
 10
-615.8245345605386
 20
478.9919615425088
 30
0.0
  0
POINT
  5
474
  8
DEFPOINTS
  6
CONTINUOUS
 62
     0
 10
-615.8245345605386
 20
472.7419615425088
 30
0.0
  0
POINT
  5
475
  8
DEFPOINTS
  6
CONTINUOUS
 62
     0
 10
-626.7825040879642
 20
472.7419615425088
 30
0.0
  0
ENDBLK
  5
477
  8
回02-上ER
  6
CONTINUOUS
 62
     7
  0
BLOCK
  8
回02-上ER
  2
*D515151
 70
     1
 10
0.0
 20
0.0
 30
0.0
  3
*D515151
  1

  0
LINE
  5
479
  8
回07-寸法
  6
CONTINUOUS
 62
     5
 10
-148.4245345605382
 20
359.3719919848146
 30
0.0
 11
-132.5950849781711
 21
359.3719919848146
 31
0.0
  0
LINE
  5
47A
  8
回07-寸法
  6
CONTINUOUS
 62
     5
 10
-148.4245345605382
 20
357.3719919848146
 30
0.0
 11
-132.5950849781711
 21
357.3719919848146
 31
0.0
  0
LINE
  5
47B
  8
回07-寸法
  6
CONTINUOUS
 62
     5
 10
-133.5950849781711
 20
361.3719919848146
 30
0.0
 11
-133.5950849781711
 21
401.4399351368893
 31
0.0
  0
LINE
  5
47C
  8
回07-寸法
  6
CONTINUOUS
 62
     5
 10
-133.5950849781711
 20
359.3719919848146
 30
0.0
 11
-133.5950849781711
 21
357.3719919848146
 31
0.0
  0
LINE
  5
47D
  8
回07-寸法
  6
CONTINUOUS
 62
     5
 10
-133.5950849781711
 20
355.3719919848146
 30
0.0
 11
-133.5950849781711
 21
353.3719919848146
 31
0.0
  0
INSERT
  5
47E
  8
回07-寸法
  6
CONTINUOUS
 62
     5
  2
_OPEN
 10
-133.5950849781711
 20
359.3719919848146
 30
0.0
 41
2.0
 42
2.0
 43
2.0
 50
270.0
  0
INSERT
  5
47F
  8
回07-寸法
  6
CONTINUOUS
 62
     5
  2
_OPEN
 10
-133.5950849781711
 20
357.3719919848146
 30
0.0
 41
2.0
 42
2.0
 43
2.0
 50
90.0
  0
TEXT
  5
480
  8
回07-寸法
  6
CONTINUOUS
 62
     5
 10
-134.3950849781711
 20
365.8206351304518
 30
0.0
 40
6.0
  1
(2 [0.079])
 50
90.0
  0
POINT
  5
481
  8
DEFPOINTS
  6
CONTINUOUS
 62
     0
 10
-148.4245345605382
 20
359.3719919848146
 30
0.0
  0
POINT
  5
482
  8
DEFPOINTS
  6
CONTINUOUS
 62
     0
 10
-148.4245345605382
 20
357.3719919848146
 30
0.0
  0
POINT
  5
483
  8
DEFPOINTS
  6
CONTINUOUS
 62
     0
 10
-133.5950849781711
 20
357.3719919848146
 30
0.0
  0
ENDBLK
  5
485
  8
回02-上ER
  6
CONTINUOUS
 62
     7
  0
BLOCK
  8
回02-上ER
  2
*D525252
 70
     1
 10
0.0
 20
0.0
 30
0.0
  3
*D525252
  1

  0
LINE
  5
487
  8
回07-寸法
  6
CONTINUOUS
 62
     5
 10
-476.3245345605382
 20
601.8719919848146
 30
0.0
 11
-627.7675796087094
 21
601.8719919848146
 31
0.0
  0
LINE
  5
488
  8
回07-寸法
  6
CONTINUOUS
 62
     5
 10
-615.8245345605386
 20
478.9919615425093
 30
0.0
 11
-627.7675796087094
 21
478.9919615425093
 31
0.0
  0
LINE
  5
489
  8
回07-寸法
  6
CONTINUOUS
 62
     5
 10
-626.7675796087094
 20
599.8719919848146
 30
0.0
 11
-626.7675796087094
 21
480.9919615425093
 31
0.0
  0
INSERT
  5
48A
  8
回07-寸法
  6
CONTINUOUS
 62
     5
  2
_OPEN
 10
-626.7675796087094
 20
601.8719919848146
 30
0.0
 41
2.0
 42
2.0
 43
2.0
 50
90.0
  0
INSERT
  5
48B
  8
回07-寸法
  6
CONTINUOUS
 62
     5
  2
_OPEN
 10
-626.7675796087094
 20
478.9919615425093
 30
0.0
 41
2.0
 42
2.0
 43
2.0
 50
270.0
  0
TEXT
  5
48C
  8
回07-寸法
  6
CONTINUOUS
 62
     5
 10
-627.5675796087092
 20
512.1920365453188
 30
0.0
 40
6.0
  1
(122.88 [4.838])
 50
90.0
  0
POINT
  5
48D
  8
DEFPOINTS
  6
CONTINUOUS
 62
     0
 10
-476.3245345605382
 20
601.8719919848146
 30
0.0
  0
POINT
  5
48E
  8
DEFPOINTS
  6
CONTINUOUS
 62
     0
 10
-615.8245345605386
 20
478.9919615425093
 30
0.0
  0
POINT
  5
48F
  8
DEFPOINTS
  6
CONTINUOUS
 62
     0
 10
-626.7675796087094
 20
478.9919615425093
 30
0.0
  0
ENDBLK
  5
491
  8
回02-上ER
  6
CONTINUOUS
 62
     7
  0
BLOCK
  8
回02-上ER
  2
*D535353
 70
     1
 10
0.0
 20
0.0
 30
0.0
  3
*D535353
  1

  0
LINE
  5
493
  8
回08-記事
  6
CONTINUOUS
 62
     5
 10
-148.8245345605385
 20
266.053885745415
 30
0.0
 11
-138.2481469730543
 21
266.053885745415
 31
0.0
  0
LINE
  5
494
  8
回08-記事
  6
CONTINUOUS
 62
     5
 10
-148.3245345605381
 20
256.980992221581
 30
0.0
 11
-138.2481469730543
 21
256.980992221581
 31
0.0
  0
LINE
  5
495
  8
回08-記事
  6
CONTINUOUS
 62
     5
 10
-139.2481469730543
 20
268.053885745415
 30
0.0
 11
-139.2481469730543
 21
329.6300668477773
 31
0.0
  0
LINE
  5
496
  8
回08-記事
  6
CONTINUOUS
 62
     5
 10
-139.2481469730543
 20
266.053885745415
 30
0.0
 11
-139.2481469730543
 21
256.980992221581
 31
0.0
  0
LINE
  5
497
  8
回08-記事
  6
CONTINUOUS
 62
     5
 10
-139.2481469730543
 20
254.980992221581
 30
0.0
 11
-139.2481469730543
 21
252.980992221581
 31
0.0
  0
INSERT
  5
498
  8
回08-記事
  6
CONTINUOUS
 62
     5
  2
_OPEN
 10
-139.2481469730543
 20
266.053885745415
 30
0.0
 41
2.0
 42
2.0
 43
2.0
 50
270.0
  0
INSERT
  5
499
  8
回08-記事
  6
CONTINUOUS
 62
     5
  2
_OPEN
 10
-139.2481469730543
 20
256.980992221581
 30
0.0
 41
2.0
 42
2.0
 43
2.0
 50
90.0
  0
INSERT
  5
49A
  8
回08-記事
  6
CONTINUOUS
 62
     5
 66
     1
  2
*X929292
 10
0.0
 20
0.0
 30
0.0
  0
SEQEND
  5
649
  8
回02-上ER
  6
CONTINUOUS
 62
     7
  0
POINT
  5
49B
  8
DEFPOINTS
  6
CONTINUOUS
 62
     0
 10
-148.8245345605385
 20
266.053885745415
 30
0.0
  0
POINT
  5
49C
  8
DEFPOINTS
  6
CONTINUOUS
 62
     0
 10
-148.3245345605381
 20
256.980992221581
 30
0.0
  0
POINT
  5
49D
  8
DEFPOINTS
  6
CONTINUOUS
 62
     0
 10
-139.2481469730543
 20
256.980992221581
 30
0.0
  0
ENDBLK
  5
49F
  8
回02-上ER
  6
CONTINUOUS
 62
     7
  0
BLOCK
  8
回02-上ER
  2
*D545454
 70
     1
 10
0.0
 20
0.0
 30
0.0
  3
*D545454
  1

  0
LINE
  5
4A1
  8
回08-記事
  6
CONTINUOUS
 62
     5
 10
-616.3245345605382
 20
263.2211059893375
 30
0.0
 11
-616.3245345605382
 21
269.1950716756378
 31
0.0
  0
LINE
  5
4A2
  8
回08-記事
  6
CONTINUOUS
 62
     5
 10
-611.3245345605382
 20
264.2211059893381
 30
0.0
 11
-611.3245345605382
 21
269.1950716756378
 31
0.0
  0
LINE
  5
4A3
  8
回08-記事
  6
CONTINUOUS
 62
     5
 10
-609.3245345605383
 20
268.1950716756378
 30
0.0
 11
-575.7514732982274
 21
268.1950716756378
 31
0.0
  0
LINE
  5
4A4
  8
回08-記事
  6
CONTINUOUS
 62
     5
 10
-616.3245345605382
 20
268.1950716756378
 30
0.0
 11
-611.3245345605382
 21
268.1950716756378
 31
0.0
  0
LINE
  5
4A5
  8
回08-記事
  6
CONTINUOUS
 62
     5
 10
-618.3245345605382
 20
268.1950716756378
 30
0.0
 11
-620.3245345605382
 21
268.1950716756378
 31
0.0
  0
INSERT
  5
4A6
  8
回08-記事
  6
CONTINUOUS
 62
     5
  2
_OPEN
 10
-616.3245345605382
 20
268.1950716756378
 30
0.0
 41
2.0
 42
2.0
 43
2.0
  0
INSERT
  5
4A7
  8
回08-記事
  6
CONTINUOUS
 62
     5
  2
_OPEN
 10
-611.3245345605382
 20
268.1950716756378
 30
0.0
 41
2.0
 42
2.0
 43
2.0
 50
180.0
  0
TEXT
  5
4A8
  8
回08-記事
  6
CONTINUOUS
 62
     5
 10
-605.3731355093892
 20
268.9950716756378
 30
0.0
 40
6.0
  1
5 [0.197]
  0
POINT
  5
4A9
  8
DEFPOINTS
  6
CONTINUOUS
 62
     0
 10
-616.3245345605382
 20
263.2211059893375
 30
0.0
  0
POINT
  5
4AA
  8
DEFPOINTS
  6
CONTINUOUS
 62
     0
 10
-611.3245345605382
 20
264.2211059893381
 30
0.0
  0
POINT
  5
4AB
  8
DEFPOINTS
  6
CONTINUOUS
 62
     0
 10
-611.3245345605382
 20
268.1950716756378
 30
0.0
  0
ENDBLK
  5
4AD
  8
回02-上ER
  6
CONTINUOUS
 62
     7
  0
BLOCK
  8
回02-上ER
  2
*D555555
 70
     1
 10
0.0
 20
0.0
 30
0.0
  3
*D555555
  1

  0
LINE
  5
4AF
  8
回08-記事
  6
CONTINUOUS
 62
     5
 10
-616.3245345605382
 20
257.980992221581
 30
0.0
 11
-616.3245345605382
 21
231.3615268803169
 31
0.0
  0
LINE
  5
4B0
  8
回08-記事
  6
CONTINUOUS
 62
     5
 10
-606.3245345605382
 20
257.980992221581
 30
0.0
 11
-606.3245345605382
 21
231.3615268803169
 31
0.0
  0
LINE
  5
4B1
  8
回08-記事
  6
CONTINUOUS
 62
     5
 10
-604.3245345605383
 20
232.3615268803169
 30
0.0
 11
-562.5418823693686
 21
232.3615268803169
 31
0.0
  0
LINE
  5
4B2
  8
回08-記事
  6
CONTINUOUS
 62
     5
 10
-616.3245345605382
 20
232.3615268803169
 30
0.0
 11
-606.3245345605382
 21
232.3615268803169
 31
0.0
  0
LINE
  5
4B3
  8
回08-記事
  6
CONTINUOUS
 62
     5
 10
-618.3245345605382
 20
232.3615268803169
 30
0.0
 11
-620.3245345605382
 21
232.3615268803169
 31
0.0
  0
INSERT
  5
4B4
  8
回08-記事
  6
CONTINUOUS
 62
     5
  2
_OPEN
 10
-616.3245345605382
 20
232.3615268803169
 30
0.0
 41
2.0
 42
2.0
 43
2.0
  0
INSERT
  5
4B5
  8
回08-記事
  6
CONTINUOUS
 62
     5
  2
_OPEN
 10
-606.3245345605382
 20
232.3615268803169
 30
0.0
 41
2.0
 42
2.0
 43
2.0
 50
180.0
  0
TEXT
  5
4B6
  8
回08-記事
  6
CONTINUOUS
 62
     5
 10
-601.7611823758062
 20
233.1615268803169
 30
0.0
 40
6.0
  1
(10 [0.394])
  0
POINT
  5
4B7
  8
DEFPOINTS
  6
CONTINUOUS
 62
     0
 10
-616.3245345605382
 20
257.980992221581
 30
0.0
  0
POINT
  5
4B8
  8
DEFPOINTS
  6
CONTINUOUS
 62
     0
 10
-606.3245345605382
 20
257.980992221581
 30
0.0
  0
POINT
  5
4B9
  8
DEFPOINTS
  6
CONTINUOUS
 62
     0
 10
-606.3245345605382
 20
232.3615268803169
 30
0.0
  0
ENDBLK
  5
4BB
  8
回02-上ER
  6
CONTINUOUS
 62
     7
  0
BLOCK
  8
回02-上ER
  2
*D565656
 70
     1
 10
0.0
 20
0.0
 30
0.0
  3
*D565656
  1

  0
LINE
  5
4BD
  8
回08-記事
  6
CONTINUOUS
 62
     5
 10
-616.3245345605382
 20
263.2211059893375
 30
0.0
 11
-627.6336641427132
 21
263.2211059893375
 31
0.0
  0
LINE
  5
4BE
  8
回08-記事
  6
CONTINUOUS
 62
     5
 10
-616.3245345605382
 20
257.980992221581
 30
0.0
 11
-627.6336641427132
 21
257.980992221581
 31
0.0
  0
LINE
  5
4BF
  8
回08-記事
  6
CONTINUOUS
 62
     5
 10
-626.633664142713
 20
255.980992221581
 30
0.0
 11
-626.633664142713
 21
191.3262678121322
 31
0.0
  0
LINE
  5
4C0
  8
回08-記事
  6
CONTINUOUS
 62
     5
 10
-626.633664142713
 20
263.2211059893375
 30
0.0
 11
-626.633664142713
 21
257.980992221581
 31
0.0
  0
LINE
  5
4C1
  8
回08-記事
  6
CONTINUOUS
 62
     5
 10
-626.633664142713
 20
265.2211059893375
 30
0.0
 11
-626.633664142713
 21
267.2211059893375
 31
0.0
  0
INSERT
  5
4C2
  8
回08-記事
  6
CONTINUOUS
 62
     5
  2
_OPEN
 10
-626.633664142713
 20
263.2211059893375
 30
0.0
 41
2.0
 42
2.0
 43
2.0
 50
270.0
  0
INSERT
  5
4C3
  8
回08-記事
  6
CONTINUOUS
 62
     5
  2
_OPEN
 10
-626.633664142713
 20
257.980992221581
 30
0.0
 41
2.0
 42
2.0
 43
2.0
 50
90.0
  0
INSERT
  5
4C4
  8
回08-記事
  6
CONTINUOUS
 62
     5
 66
     1
  2
*X939393
 10
0.0
 20
0.0
 30
0.0
  0
SEQEND
  5
652
  8
回02-上ER
  6
CONTINUOUS
 62
     7
  0
POINT
  5
4C5
  8
DEFPOINTS
  6
CONTINUOUS
 62
     0
 10
-616.3245345605382
 20
263.2211059893375
 30
0.0
  0
POINT
  5
4C6
  8
DEFPOINTS
  6
CONTINUOUS
 62
     0
 10
-616.3245345605382
 20
257.980992221581
 30
0.0
  0
POINT
  5
4C7
  8
DEFPOINTS
  6
CONTINUOUS
 62
     0
 10
-626.633664142713
 20
257.980992221581
 30
0.0
  0
ENDBLK
  5
4C9
  8
回02-上ER
  6
CONTINUOUS
 62
     7
  0
BLOCK
  8
回02-上ER
  2
*X575757
 70
     1
 10
0.0
 20
0.0
 30
0.0
  3
*X575757
  1

  0
INSERT
  5
4CE
  8
回07-寸法
  6
CONTINUOUS
 62
     5
  2
_OPEN
 10
-480.2947230165599
 20
472.8088861810528
 30
0.0
 41
2.0
 42
2.0
 43
2.0
 50
62.85109630128675
  0
LINE
  5
4CF
  8
回07-寸法
  6
CONTINUOUS
 62
     5
 10
-481.2073321466368
 20
471.0292388632677
 30
0.0
 11
-491.4852463719062
 21
450.9866358686145
 31
0.0
  0
LINE
  5
4D0
  8
回07-寸法
  6
CONTINUOUS
 62
     5
 10
-491.4852463719062
 20
450.9866358686145
 30
0.0
 11
-569.5852463719062
 21
450.9866358686145
 31
0.0
  0
ENDBLK
  5
4D2
  8
回02-上ER
  6
CONTINUOUS
 62
     7
  0
BLOCK
  8
回02-上ER
  2
*X585858
 70
     1
 10
0.0
 20
0.0
 30
0.0
  3
*X585858
  1

  0
INSERT
  5
4D5
  8
回08-記事
  6
CONTINUOUS
 62
     5
  2
_OPEN
 10
-330.7708764818908
 20
258.0798963750936
 30
0.0
 41
2.0
 42
2.0
 43
2.0
 50
105.6689398306418
  0
LINE
  5
4D6
  8
回08-記事
  6
CONTINUOUS
 62
     5
 10
-330.2307194240794
 20
256.15421977896
 30
0.0
 11
-326.6038031199105
 21
243.2241511219445
 31
0.0
  0
LINE
  5
4D7
  8
回08-記事
  6
CONTINUOUS
 62
     5
 10
-326.6038031199105
 20
243.2241511219445
 30
0.0
 11
-280.7108673974383
 21
243.2241511219445
 31
0.0
  0
ENDBLK
  5
4D9
  8
回02-上ER
  6
CONTINUOUS
 62
     7
  0
BLOCK
  8
回02-上ER
  2
*X595959
 70
     1
 10
0.0
 20
0.0
 30
0.0
  3
*X595959
  1

  0
INSERT
  5
4DC
  8
回08-記事
  6
CONTINUOUS
 62
     5
  2
_OPEN
 10
-316.9683839472
 20
264.8300461327722
 30
0.0
 41
1.999999999999999
 42
1.999999999999999
 43
2.0
 50
240.539720121747
  0
LINE
  5
4DD
  8
回08-記事
  6
CONTINUOUS
 62
     5
 10
-315.9847438063337
 20
266.5714398485286
 30
0.0
 11
-309.8646119781215
 21
277.4062550034528
 31
0.0
  0
LINE
  5
4DE
  8
回08-記事
  6
CONTINUOUS
 62
     5
 10
-309.8646119781215
 20
277.4062550034528
 30
0.0
 11
-273.7646119781215
 21
277.4062550034528
 31
0.0
  0
ENDBLK
  5
4E0
  8
回02-上ER
  6
CONTINUOUS
 62
     7
  0
BLOCK
  8
回02-上ER
  2
*X606060
 70
     1
 10
0.0
 20
0.0
 30
0.0
  3
*X606060
  1

  0
INSERT
  5
4E3
  8
回08-記事
  6
CONTINUOUS
 62
     5
  2
_OPEN
 10
-476.8533629998565
 20
256.2949470515764
 30
0.0
 41
2.0
 42
2.0
 43
2.0
 50
104.927627470964
  0
LINE
  5
4E4
  8
回08-記事
  6
CONTINUOUS
 62
     5
 10
-476.3381655189626
 20
254.3624430915078
 30
0.0
 11
-473.8027440940432
 21
244.8520861394491
 31
0.0
  0
LINE
  5
4E5
  8
回08-記事
  6
CONTINUOUS
 62
     5
 10
-473.8027440940432
 20
244.8520861394491
 30
0.0
 11
-395.7027440940432
 21
244.8520861394491
 31
0.0
  0
ENDBLK
  5
4E7
  8
回02-上ER
  6
CONTINUOUS
 62
     7
  0
BLOCK
  8
回02-上ER
  2
*U616161
 70
     1
 10
0.0
 20
0.0
 30
0.0
  3
*U616161
  1

  0
SOLID
  5
4EA
  8
回08-記事
  6
CONTINUOUS
 62
     5
 10
-483.6739003998988
 20
258.0140356841237
 30
0.0
 11
-484.998947846013
 21
258.8386769379201
 31
0.0
 12
-483.6739003998988
 22
260.03736035649
 32
0.0
 13
-483.6739003998988
 23
260.03736035649
 33
0.0
1001
ACAD
1010
0.0
1020
0.0
1030
0.0
  0
SOLID
  5
4EB
  8
回08-記事
  6
CONTINUOUS
 62
     5
 10
-483.6739003998988
 20
258.0140356841237
 30
0.0
 11
-483.6739003998988
 21
260.03736035649
 31
0.0
 12
-482.8956842218818
 22
260.7413614331209
 32
0.0
 13
-482.8956842218818
 23
260.7413614331209
 33
0.0
1001
ACAD
1010
0.0
1020
0.0
1030
0.0
  0
ENDBLK
  5
4ED
  8
回02-上ER
  6
CONTINUOUS
 62
     7
  0
BLOCK
  8
回02-上ER
  2
*X626262
 70
     1
 10
0.0
 20
0.0
 30
0.0
  3
*X626262
  1

  0
INSERT
  5
4F0
  8
回08-記事
  6
CONTINUOUS
 62
     5
  2
_OPEN
 10
-491.0256681317759
 20
264.1232091642728
 30
0.0
 41
2.0
 42
2.0
 43
2.0
 50
264.7269061542695
  0
LINE
  5
4F1
  8
回08-記事
  6
CONTINUOUS
 62
     5
 10
-490.8418621638086
 20
266.1147450956935
 30
0.0
 11
-488.9918784379315
 21
286.1593013382053
 31
0.0
  0
LINE
  5
4F2
  8
回08-記事
  6
CONTINUOUS
 62
     5
 10
-488.9918784379315
 20
286.1593013382053
 30
0.0
 11
-399.6918784379315
 21
286.1593013382053
 31
0.0
  0
ENDBLK
  5
4F4
  8
回02-上ER
  6
CONTINUOUS
 62
     7
  0
BLOCK
  8
回02-上ER
  2
*X636363
 70
     1
 10
0.0
 20
0.0
 30
0.0
  3
*X636363
  1

  0
INSERT
  5
4F7
  8
回08-記事
  6
CONTINUOUS
 62
     5
  2
_OPEN
 10
-607.4759798555842
 20
260.1160232628495
 30
0.0
 41
2.0
 42
2.0
 43
2.0
 50
132.6357835919535
  0
LINE
  5
4F8
  8
回08-記事
  6
CONTINUOUS
 62
     5
 10
-606.1213087339409
 20
258.6446748499351
 30
0.0
 11
-597.1116761399507
 21
248.8590461417443
 31
0.0
  0
LINE
  5
4F9
  8
回08-記事
  6
CONTINUOUS
 62
     5
 10
-597.1116761399507
 20
248.8590461417443
 30
0.0
 11
-552.6116761399507
 21
248.8590461417443
 31
0.0
  0
ENDBLK
  5
4FB
  8
回02-上ER
  6
CONTINUOUS
 62
     7
  0
BLOCK
  8
回02-上ER
  2
*X646464
 70
     1
 10
0.0
 20
0.0
 30
0.0
  3
*X646464
  1

  0
INSERT
  5
4FE
  8
回08-記事
  6
CONTINUOUS
 62
     5
  2
_OPEN
 10
-614.05540833953
 20
263.2146320747411
 30
0.0
 41
2.0
 42
2.0
 43
2.0
 50
325.7257935600348
  0
LINE
  5
4FF
  8
回08-記事
  6
CONTINUOUS
 62
     5
 10
-615.7081121402692
 20
264.3409402683638
 30
0.0
 11
-625.5798376234479
 21
271.0684647600024
 31
0.0
  0
LINE
  5
500
  8
回08-記事
  6
CONTINUOUS
 62
     5
 10
-625.5798376234479
 20
271.0684647600024
 30
0.0
 11
-690.3798376234479
 21
271.0684647600024
 31
0.0
  0
ENDBLK
  5
502
  8
回02-上ER
  6
CONTINUOUS
 62
     7
  0
BLOCK
  8
回02-上ER
  2
*X656565
 70
     1
 10
0.0
 20
0.0
 30
0.0
  3
*X656565
  1

  0
INSERT
  5
505
  8
回08-記事
  6
CONTINUOUS
 62
     5
  2
_OPEN
 10
-586.4320281987292
 20
342.0105358939222
 30
0.0
 41
2.0
 42
2.0
 43
2.0
 50
77.15755055703933
  0
LINE
  5
506
  8
回08-記事
  6
CONTINUOUS
 62
     5
 10
-586.8765700144979
 20
340.0605660033769
 30
0.0
 11
-589.7502202929532
 21
327.4553816985955
 31
0.0
  0
LINE
  5
507
  8
回08-記事
  6
CONTINUOUS
 62
     5
 10
-589.7502202929532
 20
327.4553816985955
 30
0.0
 11
-650.3502202929532
 21
327.4553816985955
 31
0.0
  0
ENDBLK
  5
509
  8
回02-上ER
  6
CONTINUOUS
 62
     7
  0
BLOCK
  8
回02-上ER
  2
*X666666
 70
     1
 10
0.0
 20
0.0
 30
0.0
  3
*X666666
  1

  0
TEXT
  5
518
  8
回07-寸法
  6
CONTINUOUS
 62
     5
 10
-615.8138202945214
 20
502.9179003726039
 30
0.0
 40
7.0
  1
・Information Label
  0
TEXT
  5
519
  8
回07-寸法
  6
CONTINUOUS
 62
     5
 10
-580.1138202945212
 20
491.2512337059373
 30
0.0
 40
7.0
  1
・Lot label
  0
ENDBLK
  5
51B
  8
回02-上ER
  6
CONTINUOUS
 62
     7
  0
BLOCK
  8
回02-上ER
  2
*X676767
 70
     1
 10
0.0
 20
0.0
 30
0.0
  3
*X676767
  1

  0
INSERT
  5
51E
  8
回07-寸法
  6
CONTINUOUS
 62
     5
  2
_OPEN
 10
-520.9527614259441
 20
476.8774300502671
 30
0.0
 41
2.0
 42
2.0
 43
2.0
 50
307.9272403152249
  0
LINE
  5
51F
  8
回07-寸法
  6
CONTINUOUS
 62
     5
 10
-522.1820820007898
 20
478.455013938452
 30
0.0
 11
-531.7638202945213
 21
490.7512337059373
 31
0.0
  0
LINE
  5
520
  8
回07-寸法
  6
CONTINUOUS
 62
     5
 10
-531.7638202945213
 20
490.7512337059373
 30
0.0
 11
-613.4804869611879
 21
490.7512337059373
 31
0.0
  0
ENDBLK
  5
522
  8
回02-上ER
  6
CONTINUOUS
 62
     7
  0
BLOCK
  8
回02-上ER
  2
*X686868
 70
     1
 10
0.0
 20
0.0
 30
0.0
  3
*X686868
  1

  0
INSERT
  5
534
  8
回07-寸法
  6
CONTINUOUS
 62
     5
  2
_OPEN
 10
-481.4204709903909
 20
468.1584122121536
 30
0.0
 41
2.0
 42
2.0
 43
2.0
 50
85.68994357566152
  0
LINE
  5
535
  8
回07-寸法
  6
CONTINUOUS
 62
     5
 10
-481.5707784890453
 20
466.1640682960128
 30
0.0
 11
-483.7686673302322
 21
437.0015429528828
 31
0.0
  0
LINE
  5
536
  8
回07-寸法
  6
CONTINUOUS
 62
     5
 10
-483.7686673302322
 20
437.0015429528828
 30
0.0
 11
-536.6939399099211
 21
437.0015429528828
 31
0.0
  0
ENDBLK
  5
538
  8
回02-上ER
  6
CONTINUOUS
 62
     7
  0
BLOCK
  8
回02-上ER
  2
*X696969
 70
     1
 10
0.0
 20
0.0
 30
0.0
  3
*X696969
  1

  0
INSERT
  5
53B
  8
回07-寸法
  6
CONTINUOUS
 62
     5
  2
_OPEN
 10
-476.5718660141523
 20
467.1534699477528
 30
0.0
 41
2.0
 42
2.0
 43
2.0
 50
83.22939266488736
  0
LINE
  5
53C
  8
回07-寸法
  6
CONTINUOUS
 62
     5
 10
-476.807655139465
 20
465.1674177106793
 30
0.0
 11
-481.7749767537812
 21
423.3276585983981
 31
0.0
  0
LINE
  5
53D
  8
回07-寸法
  6
CONTINUOUS
 62
     5
 10
-481.7749767537812
 20
423.3276585983981
 30
0.0
 11
-535.4002493334703
 21
423.3276585983981
 31
0.0
  0
ENDBLK
  5
53F
  8
回02-上ER
  6
CONTINUOUS
 62
     7
  0
BLOCK
  8
回02-上ER
  2
*X707070
 70
     1
 10
0.0
 20
0.0
 30
0.0
  3
*X707070
  1

  0
LINE
  5
542
  8
回08-記事
  6
PHANTOM2
 62
     8
 10
-480.7164644689036
 20
468.5236131194173
 30
0.0
 11
-480.5610159761982
 21
468.3681646267118
 31
0.0
  0
LINE
  5
543
  8
回08-記事
  6
PHANTOM2
 62
     8
 10
-480.7164644689036
 20
470.3196643436312
 30
0.0
 11
-478.7649647519844
 21
468.3681646267118
 31
0.0
  0
LINE
  5
544
  8
回08-記事
  6
PHANTOM2
 62
     8
 10
-480.7164644689036
 20
472.1157155678451
 30
0.0
 11
-476.9689135277704
 21
468.3681646267118
 31
0.0
  0
LINE
  5
545
  8
回08-記事
  6
PHANTOM2
 62
     8
 10
-480.7164644689036
 20
473.9117667920588
 30
0.0
 11
-475.1728623035567
 21
468.368164626712
 31
0.0
  0
LINE
  5
546
  8
回08-記事
  6
PHANTOM2
 62
     8
 10
-479.8756079951407
 20
474.8669615425096
 30
0.0
 11
-473.376811079343
 21
468.368164626712
 31
0.0
  0
LINE
  5
547
  8
回08-記事
  6
PHANTOM2
 62
     8
 10
-478.0795567709268
 20
474.8669615425095
 30
0.0
 11
-472.1245345605376
 21
468.9119393321205
 31
0.0
  0
LINE
  5
548
  8
回08-記事
  6
PHANTOM2
 62
     8
 10
-476.283505546713
 20
474.8669615425095
 30
0.0
 11
-472.124534560538
 21
470.7079905563345
 31
0.0
  0
LINE
  5
549
  8
回08-記事
  6
PHANTOM2
 62
     8
 10
-474.4874543224991
 20
474.8669615425095
 30
0.0
 11
-472.1245345605377
 21
472.5040417805479
 31
0.0
  0
LINE
  5
54A
  8
回08-記事
  6
PHANTOM2
 62
     8
 10
-472.6914030982853
 20
474.8669615425093
 30
0.0
 11
-472.1245345605381
 21
474.3000930047621
 31
0.0
  0
ENDBLK
  5
54C
  8
回02-上ER
  6
CONTINUOUS
 62
     7
  0
BLOCK
  8
回02-上ER
  2
*X717171
 70
     1
 10
0.0
 20
0.0
 30
0.0
  3
*X717171
  1

  0
INSERT
  5
554
  8
回08-記事
  6
CONTINUOUS
 62
     5
  2
_OPEN
 10
-526.2151540712712
 20
265.2786387469382
 30
0.0
 41
2.0
 42
2.0
 43
2.0
 50
265.599817879863
  0
LINE
  5
555
  8
回08-記事
  6
CONTINUOUS
 62
     5
 10
-526.0617096765623
 20
267.2727437636644
 30
0.0
 11
-524.5646989197921
 21
286.7273264210244
 31
0.0
  0
LINE
  5
556
  8
回08-記事
  6
CONTINUOUS
 62
     5
 10
-524.5646989197921
 20
286.7273264210244
 30
0.0
 11
-491.2646989197921
 21
286.7273264210244
 31
0.0
  0
ENDBLK
  5
558
  8
回02-上ER
  6
CONTINUOUS
 62
     7
  0
BLOCK
  8
回02-上ER
  2
*X727272
 70
     1
 10
0.0
 20
0.0
 30
0.0
  3
*X727272
  1

  0
INSERT
  5
560
  8
回07-寸法
  6
CONTINUOUS
 62
     5
  2
_OPEN
 10
-175.330149977377
 20
350.5418326945738
 30
0.0
 41
2.0
 42
2.0
 43
2.0
 50
72.73122831544498
  0
LINE
  5
561
  8
回07-寸法
  6
CONTINUOUS
 62
     5
 10
-175.923858877465
 20
348.6319872186371
 30
0.0
 11
-178.9226474679757
 21
338.9854705131798
 31
0.0
  0
LINE
  5
562
  8
回07-寸法
  6
CONTINUOUS
 62
     5
 10
-178.9226474679757
 20
338.9854705131798
 30
0.0
 11
-217.1226474679758
 21
338.9854705131798
 31
0.0
  0
ENDBLK
  5
564
  8
回02-上ER
  6
CONTINUOUS
 62
     7
  0
BLOCK
  8
回02-上ER
  2
*X737373
 70
     1
 10
0.0
 20
0.0
 30
0.0
  3
*X737373
  1

  0
INSERT
  5
567
  8
回07-寸法
  6
CONTINUOUS
 62
     5
  2
_OPEN
 10
-620.7561056716627
 20
470.6571038553976
 30
0.0
 41
2.0
 42
2.0
 43
2.0
 50
109.0884900913313
  0
LINE
  5
568
  8
回07-寸法
  6
CONTINUOUS
 62
     5
 10
-620.1020495405486
 20
468.767074602356
 30
0.0
 11
-617.4199336286164
 21
461.0165509202911
 31
0.0
  0
LINE
  5
569
  8
回07-寸法
  6
CONTINUOUS
 62
     5
 10
-617.4199336286164
 20
461.0165509202911
 30
0.0
 11
-610.7199336286164
 21
461.0165509202911
 31
0.0
  0
ENDBLK
  5
56B
  8
回02-上ER
  6
CONTINUOUS
 62
     7
  0
BLOCK
  8
回02-上ER
  2
*X747474
 70
     1
 10
0.0
 20
0.0
 30
0.0
  3
*X747474
  1

  0
INSERT
  5
56E
  8
回07-寸法
  6
CONTINUOUS
 62
     5
  2
_OPEN
 10
-151.8398938975342
 20
359.7531704048453
 30
0.0
 41
2.0
 42
2.0
 43
2.0
 50
307.7581128647064
  0
LINE
  5
56F
  8
回07-寸法
  6
CONTINUOUS
 62
     5
 10
-153.0645523626072
 20
361.3343761611986
 30
0.0
 11
-165.0905877581954
 21
376.8616737187922
 31
0.0
  0
LINE
  5
570
  8
回07-寸法
  6
CONTINUOUS
 62
     5
 10
-165.0905877581954
 20
376.8616737187922
 30
0.0
 11
-206.0905877581954
 21
376.8616737187922
 31
0.0
  0
ENDBLK
  5
572
  8
回02-上ER
  6
CONTINUOUS
 62
     7
  0
BLOCK
  8
回02-上ER
  2
*X757575
 70
     1
 10
0.0
 20
0.0
 30
0.0
  3
*X757575
  1

  0
LINE
  5
575
  8
回08-記事
  6
PHANTOM2
 62
     8
 10
-526.1910813930771
 20
473.3669615425085
 30
0.0
 11
-528.063075115857
 21
475.2389552652881
 31
0.0
  0
LINE
  5
576
  8
回08-記事
  6
PHANTOM2
 62
     8
 10
-523.5394309636276
 20
473.3669615425085
 30
0.0
 11
-527.967039249102
 21
477.7945698279828
 31
0.0
  0
LINE
  5
577
  8
回08-記事
  6
PHANTOM2
 62
     8
 10
-520.8877805341781
 20
473.3669615425085
 30
0.0
 11
-525.8877805341779
 21
478.3669615425083
 31
0.0
  0
LINE
  5
578
  8
回08-記事
  6
PHANTOM2
 62
     8
 10
-518.2361301047284
 20
473.3669615425085
 30
0.0
 11
-523.2361301047284
 21
478.3669615425083
 31
0.0
  0
LINE
  5
579
  8
回08-記事
  6
PHANTOM2
 62
     8
 10
-515.584479675279
 20
473.3669615425085
 30
0.0
 11
-520.5844796752788
 21
478.3669615425083
 31
0.0
  0
LINE
  5
57A
  8
回08-記事
  6
PHANTOM2
 62
     8
 10
-512.9328292458295
 20
473.3669615425084
 30
0.0
 11
-517.9328292458293
 21
478.3669615425083
 31
0.0
  0
LINE
  5
57B
  8
回08-記事
  6
PHANTOM2
 62
     8
 10
-510.2811788163798
 20
473.3669615425085
 30
0.0
 11
-515.2811788163798
 21
478.3669615425083
 31
0.0
  0
LINE
  5
57C
  8
回08-記事
  6
PHANTOM2
 62
     8
 10
-507.6295283869303
 20
473.3669615425084
 30
0.0
 11
-512.6295283869301
 21
478.3669615425083
 31
0.0
  0
LINE
  5
57D
  8
回08-記事
  6
PHANTOM2
 62
     8
 10
-504.9778779574809
 20
473.3669615425085
 30
0.0
 11
-509.9778779574808
 21
478.3669615425083
 31
0.0
  0
LINE
  5
57E
  8
回08-記事
  6
PHANTOM2
 62
     8
 10
-502.4998940247591
 20
473.5406280392361
 30
0.0
 11
-507.3262275280312
 21
478.3669615425083
 31
0.0
  0
LINE
  5
57F
  8
回08-記事
  6
PHANTOM2
 62
     8
 10
-502.0630751158567
 20
475.7554595597834
 30
0.0
 11
-504.6745770985816
 21
478.3669615425083
 31
0.0
  0
ENDBLK
  5
581
  8
回02-上ER
  6
CONTINUOUS
 62
     7
  0
BLOCK
  8
回02-上ER
  2
*X767676
 70
     1
 10
0.0
 20
0.0
 30
0.0
  3
*X767676
  1

  0
INSERT
  5
596
  8
回08-記事
  6
CONTINUOUS
 62
     5
  2
_OPEN
 10
-526.4114647747637
 20
260.3652501505773
 30
0.0
 41
1.999999999999999
 42
1.999999999999999
 43
2.0
 50
97.93423712153588
  0
LINE
  5
597
  8
回08-記事
  6
CONTINUOUS
 62
     5
 10
-526.1353919729921
 20
258.3843958378823
 30
0.0
 11
-525.0558916261495
 21
250.6388558793005
 31
0.0
  0
LINE
  5
598
  8
回08-記事
  6
CONTINUOUS
 62
     5
 10
-525.0558916261495
 20
250.6388558793005
 30
0.0
 11
-497.3558916261498
 21
250.6388558793005
 31
0.0
  0
ENDBLK
  5
59A
  8
回02-上ER
  6
CONTINUOUS
 62
     7
  0
BLOCK
  8
回02-上ER
  2
*X777777
 70
     1
 10
0.0
 20
0.0
 30
0.0
  3
*X777777
  1

  0
LINE
  5
5A2
  8
回08-記事
  6
CONTINUOUS
 62
     7
 10
-527.8092615708276
 20
264.221105989338
 30
0.0
 11
-526.8092615708277
 21
265.2211059893379
 31
0.0
1001
ACAD
1010
0.0
1020
0.0
1030
0.0
  0
LINE
  5
5A3
  8
回08-記事
  6
CONTINUOUS
 62
     7
 10
-526.041494617861
 20
264.221105989338
 30
0.0
 11
-525.0414946178614
 21
265.2211059893379
 31
0.0
1001
ACAD
1010
0.0
1020
0.0
1030
0.0
  0
LINE
  5
5A4
  8
回08-記事
  6
CONTINUOUS
 62
     7
 10
-528.0630751158565
 20
260.4317585383761
 30
0.0
 11
-527.5138414326518
 21
260.9809922215809
 31
0.0
1001
ACAD
1010
0.0
1020
0.0
1030
0.0
  0
LINE
  5
5A5
  8
回08-記事
  6
CONTINUOUS
 62
     7
 10
-524.2737276648947
 20
264.2211059893381
 30
0.0
 11
-523.273727664895
 21
265.2211059893379
 31
0.0
1001
ACAD
1010
0.0
1020
0.0
1030
0.0
  0
LINE
  5
5A6
  8
回08-記事
  6
CONTINUOUS
 62
     7
 10
-526.7460744796855
 20
259.980992221581
 30
0.0
 11
-525.7460744796852
 21
260.9809922215811
 31
0.0
1001
ACAD
1010
0.0
1020
0.0
1030
0.0
  0
LINE
  5
5A7
  8
回08-記事
  6
CONTINUOUS
 62
     7
 10
-522.5059607119284
 20
264.2211059893381
 30
0.0
 11
-521.5059607119285
 21
265.221105989338
 31
0.0
1001
ACAD
1010
0.0
1020
0.0
1030
0.0
  0
LINE
  5
5A8
  8
回08-記事
  6
CONTINUOUS
 62
     7
 10
-524.9783075267189
 20
259.9809922215811
 30
0.0
 11
-523.9783075267189
 21
260.980992221581
 31
0.0
1001
ACAD
1010
0.0
1020
0.0
1030
0.0
  0
LINE
  5
5A9
  8
回08-記事
  6
CONTINUOUS
 62
     7
 10
-520.7381937589619
 20
264.221105989338
 30
0.0
 11
-519.7381937589621
 21
265.2211059893379
 31
0.0
1001
ACAD
1010
0.0
1020
0.0
1030
0.0
  0
LINE
  5
5AA
  8
回08-記事
  6
CONTINUOUS
 62
     7
 10
-523.2105405737526
 20
259.980992221581
 30
0.0
 11
-522.2105405737527
 21
260.980992221581
 31
0.0
1001
ACAD
1010
0.0
1020
0.0
1030
0.0
  0
LINE
  5
5AB
  8
回08-記事
  6
CONTINUOUS
 62
     7
 10
-518.9704268059956
 20
264.221105989338
 30
0.0
 11
-517.9704268059956
 21
265.2211059893379
 31
0.0
1001
ACAD
1010
0.0
1020
0.0
1030
0.0
  0
LINE
  5
5AC
  8
回08-記事
  6
CONTINUOUS
 62
     7
 10
-521.4427736207861
 20
259.9809922215811
 30
0.0
 11
-520.4427736207861
 21
260.9809922215811
 31
0.0
1001
ACAD
1010
0.0
1020
0.0
1030
0.0
  0
LINE
  5
5AD
  8
回08-記事
  6
CONTINUOUS
 62
     7
 10
-517.2026598530292
 20
264.221105989338
 30
0.0
 11
-516.2026598530293
 21
265.2211059893379
 31
0.0
1001
ACAD
1010
0.0
1020
0.0
1030
0.0
  0
LINE
  5
5AE
  8
回08-記事
  6
CONTINUOUS
 62
     7
 10
-519.6750066678198
 20
259.9809922215811
 30
0.0
 11
-518.6750066678198
 21
260.980992221581
 31
0.0
1001
ACAD
1010
0.0
1020
0.0
1030
0.0
  0
LINE
  5
5AF
  8
回08-記事
  6
CONTINUOUS
 62
     7
 10
-515.4348929000628
 20
264.221105989338
 30
0.0
 11
-514.434892900063
 21
265.2211059893379
 31
0.0
1001
ACAD
1010
0.0
1020
0.0
1030
0.0
  0
LINE
  5
5B0
  8
回08-記事
  6
CONTINUOUS
 62
     7
 10
-517.9072397148534
 20
259.9809922215811
 30
0.0
 11
-516.9072397148534
 21
260.980992221581
 31
0.0
1001
ACAD
1010
0.0
1020
0.0
1030
0.0
  0
LINE
  5
5B1
  8
回08-記事
  6
CONTINUOUS
 62
     7
 10
-513.6671259470964
 20
264.221105989338
 30
0.0
 11
-512.6671259470964
 21
265.2211059893379
 31
0.0
1001
ACAD
1010
0.0
1020
0.0
1030
0.0
  0
LINE
  5
5B2
  8
回08-記事
  6
CONTINUOUS
 62
     7
 10
-516.1394727618868
 20
259.9809922215811
 30
0.0
 11
-515.1394727618868
 21
260.980992221581
 31
0.0
1001
ACAD
1010
0.0
1020
0.0
1030
0.0
  0
LINE
  5
5B3
  8
回08-記事
  6
CONTINUOUS
 62
     7
 10
-511.8993589941298
 20
264.221105989338
 30
0.0
 11
-510.8993589941301
 21
265.2211059893379
 31
0.0
1001
ACAD
1010
0.0
1020
0.0
1030
0.0
  0
LINE
  5
5B4
  8
回08-記事
  6
CONTINUOUS
 62
     7
 10
-514.3717058089205
 20
259.9809922215811
 30
0.0
 11
-513.3717058089206
 21
260.980992221581
 31
0.0
1001
ACAD
1010
0.0
1020
0.0
1030
0.0
  0
LINE
  5
5B5
  8
回08-記事
  6
CONTINUOUS
 62
     7
 10
-510.1315920411636
 20
264.221105989338
 30
0.0
 11
-509.1315920411637
 21
265.2211059893379
 31
0.0
1001
ACAD
1010
0.0
1020
0.0
1030
0.0
  0
LINE
  5
5B6
  8
回08-記事
  6
CONTINUOUS
 62
     7
 10
-512.6039388559538
 20
259.9809922215811
 30
0.0
 11
-511.6039388559541
 21
260.980992221581
 31
0.0
1001
ACAD
1010
0.0
1020
0.0
1030
0.0
  0
LINE
  5
5B7
  8
回08-記事
  6
CONTINUOUS
 62
     7
 10
-508.363825088197
 20
264.221105989338
 30
0.0
 11
-507.3638250881971
 21
265.2211059893379
 31
0.0
1001
ACAD
1010
0.0
1020
0.0
1030
0.0
  0
LINE
  5
5B8
  8
回08-記事
  6
CONTINUOUS
 62
     7
 10
-510.8361719029876
 20
259.9809922215811
 30
0.0
 11
-509.8361719029878
 21
260.980992221581
 31
0.0
1001
ACAD
1010
0.0
1020
0.0
1030
0.0
  0
LINE
  5
5B9
  8
回08-記事
  6
CONTINUOUS
 62
     7
 10
-506.5960581352308
 20
264.221105989338
 30
0.0
 11
-505.596058135231
 21
265.2211059893379
 31
0.0
1001
ACAD
1010
0.0
1020
0.0
1030
0.0
  0
LINE
  5
5BA
  8
回08-記事
  6
CONTINUOUS
 62
     7
 10
-509.0684049500214
 20
259.9809922215811
 30
0.0
 11
-508.0684049500215
 21
260.9809922215809
 31
0.0
1001
ACAD
1010
0.0
1020
0.0
1030
0.0
  0
LINE
  5
5BB
  8
回08-記事
  6
CONTINUOUS
 62
     7
 10
-504.8282911822643
 20
264.2211059893381
 30
0.0
 11
-503.8282911822644
 21
265.2211059893379
 31
0.0
1001
ACAD
1010
0.0
1020
0.0
1030
0.0
  0
LINE
  5
5BC
  8
回08-記事
  6
CONTINUOUS
 62
     7
 10
-507.3006379970548
 20
259.9809922215811
 30
0.0
 11
-506.3006379970548
 21
260.9809922215811
 31
0.0
1001
ACAD
1010
0.0
1020
0.0
1030
0.0
  0
LINE
  5
5BD
  8
回08-記事
  6
CONTINUOUS
 62
     7
 10
-503.0605242292979
 20
264.2211059893381
 30
0.0
 11
-502.0630751158575
 21
265.2185551027784
 31
0.0
1001
ACAD
1010
0.0
1020
0.0
1030
0.0
  0
LINE
  5
5BE
  8
回08-記事
  6
CONTINUOUS
 62
     7
 10
-505.5328710440885
 20
259.9809922215811
 30
0.0
 11
-504.5328710440887
 21
260.9809922215809
 31
0.0
1001
ACAD
1010
0.0
1020
0.0
1030
0.0
  0
LINE
  5
5BF
  8
回08-記事
  6
CONTINUOUS
 62
     7
 10
-503.7651040911221
 20
259.9809922215811
 30
0.0
 11
-502.7651040911222
 21
260.980992221581
 31
0.0
1001
ACAD
1010
0.0
1020
0.0
1030
0.0
  0
ENDBLK
  5
5C1
  8
回02-上ER
  6
CONTINUOUS
 62
     7
  0
BLOCK
  8
回02-上ER
  2
*X787878
 70
     1
 10
0.0
 20
0.0
 30
0.0
  3
*X787878
  1

  0
TEXT
  5
5C4
  8
回08-記事
  6
CONTINUOUS
 62
     5
 10
-485.4336641427133
 20
323.9309922215814
 30
0.0
 40
6.0
  1
0.3
 50
90.0
  0
TEXT
  5
5C5
  8
回08-記事
  6
CONTINUOUS
 62
     5
 10
-485.4336641427133
 20
334.1309922215814
 30
0.0
 40
4.5
  1
±0.05
 50
90.0
  0
TEXT
  5
5C6
  8
回08-記事
  6
CONTINUOUS
 62
     5
 10
-485.4336641427133
 20
348.0809922215814
 30
0.0
 40
6.0
  1
[0.012
 50
90.0
  0
TEXT
  5
5C7
  8
回08-記事
  6
CONTINUOUS
 62
     5
 10
-485.4336641427133
 20
367.8809922215813
 30
0.0
 40
4.5
  1
±0.002
 50
90.0
  0
TEXT
  5
5C8
  8
回08-記事
  6
CONTINUOUS
 62
     5
 10
-485.433664142713
 20
384.9809922215813
 30
0.0
 40
6.0
  1
]
 50
90.0
  0
ENDBLK
  5
5CA
  8
回02-上ER
  6
CONTINUOUS
 62
     7
  0
BLOCK
  8
回02-上ER
  2
*X797979
 70
     1
 10
0.0
 20
0.0
 30
0.0
  3
*X797979
  1

  0
TEXT
  5
5CD
  8
回08-記事
  6
CONTINUOUS
 62
     5
 10
1.951853026945683
 20
402.7300668477773
 30
0.0
 40
6.0
  1
2.1
 50
90.0
  0
TEXT
  5
5CE
  8
回08-記事
  6
CONTINUOUS
 62
     5
 10
1.951853026945683
 20
411.7300668477771
 30
0.0
 40
4.5
  1
±0.2
 50
90.0
  0
TEXT
  5
5CF
  8
回08-記事
  6
CONTINUOUS
 62
     5
 10
1.951853026945683
 20
422.530066847777
 30
0.0
 40
6.0
  1
[0.083
 50
90.0
  0
TEXT
  5
5D0
  8
回08-記事
  6
CONTINUOUS
 62
     5
 10
1.951853026945683
 20
443.5300668477771
 30
0.0
 40
4.5
  1
±0.008
 50
90.0
  0
TEXT
  5
5D1
  8
回08-記事
  6
CONTINUOUS
 62
     5
 10
1.951853026945683
 20
460.630066847777
 30
0.0
 40
6.0
  1
]
 50
90.0
  0
ENDBLK
  5
5D3
  8
回02-上ER
  6
CONTINUOUS
 62
     7
  0
BLOCK
  8
回02-上ER
  2
*X808080
 70
     1
 10
0.0
 20
0.0
 30
0.0
  3
*X808080
  1

  0
TEXT
  5
5D6
  8
回07-寸法
  6
CONTINUOUS
 62
     5
 10
-203.3031239333131
 20
801.4138598055534
 30
0.0
 40
6.0
  1
328
  0
TEXT
  5
5D7
  8
回07-寸法
  6
CONTINUOUS
 62
     5
 10
-190.7031239333131
 20
801.4138598055534
 30
0.0
 40
4.2
  1
±0.3
  0
TEXT
  5
5D8
  8
回07-寸法
  6
CONTINUOUS
 62
     5
 10
-180.6231239333131
 20
801.4138598055534
 30
0.0
 40
6.0
  1
 [12.913
  0
TEXT
  5
5D9
  8
回07-寸法
  6
CONTINUOUS
 62
     5
 10
-154.2014617221512
 20
801.4138598055534
 30
0.0
 40
4.2
  1
±0.012
  0
TEXT
  5
5DA
  8
回07-寸法
  6
CONTINUOUS
 62
     5
 10
-139.0814617221512
 20
801.4138598055534
 30
0.0
 40
6.0
  1
]
  0
ENDBLK
  5
5DC
  8
回02-上ER
  6
CONTINUOUS
 62
     7
  0
BLOCK
  8
回02-上ER
  2
*X818181
 70
     1
 10
0.0
 20
0.0
 30
0.0
  3
*X818181
  1

  0
TEXT
  5
5DF
  8
回07-寸法
  6
CONTINUOUS
 62
     5
 10
-433.7321163344451
 20
670.8704859827393
 30
0.0
 40
6.0
  1
140
  0
TEXT
  5
5E0
  8
回07-寸法
  6
CONTINUOUS
 62
     5
 10
-421.732116334445
 20
670.8704859827393
 30
0.0
 40
4.2
  1
±1
  0
TEXT
  5
5E1
  8
回07-寸法
  6
CONTINUOUS
 62
     5
 10
-416.6921163344451
 20
670.8704859827393
 30
0.0
 40
6.0
  1
 [5.512
  0
TEXT
  5
5E2
  8
回07-寸法
  6
CONTINUOUS
 62
     5
 10
-393.2921163344452
 20
670.8704859827393
 30
0.0
 40
4.2
  1
±0.039
  0
TEXT
  5
5E3
  8
回07-寸法
  6
CONTINUOUS
 62
     5
 10
-377.3169527866317
 20
670.8704859827393
 30
0.0
 40
6.0
  1
]
  0
ENDBLK
  5
5E5
  8
回02-上ER
  6
CONTINUOUS
 62
     7
  0
BLOCK
  8
回02-上ER
  2
*X828282
 70
     1
 10
0.0
 20
0.0
 30
0.0
  3
*X828282
  1

  0
TEXT
  5
5E8
  8
回08-記事
  6
CONTINUOUS
 62
     5
 10
-450.3481750003935
 20
493.2263230030431
 30
0.0
 40
6.0
  1
4-0.7
 50
90.0
  0
TEXT
  5
5E9
  8
回08-記事
  6
CONTINUOUS
 62
     5
 10
-450.3481750003935
 20
512.4263230030432
 30
0.0
 40
3.599999999999998
  1
±0.1
 50
90.0
  0
TEXT
  5
5EA
  8
回08-記事
  6
CONTINUOUS
 62
     5
 10
-450.3481750003935
 20
520.3463230030433
 30
0.0
 40
6.0
  1
[4-0.028
 50
90.0
  0
TEXT
  5
5EB
  8
回08-記事
  6
CONTINUOUS
 62
     5
 10
-450.3481750003935
 20
550.3463230030432
 30
0.0
 40
3.599999999999998
  1
±0.004
 50
90.0
  0
TEXT
  5
5EC
  8
回08-記事
  6
CONTINUOUS
 62
     5
 10
-450.3481750003935
 20
564.3863230030432
 30
0.0
 40
6.0
  1
]
 50
90.0
  0
ENDBLK
  5
5EE
  8
回02-上ER
  6
CONTINUOUS
 62
     7
  0
BLOCK
  8
回02-上ER
  2
*X838383
 70
     1
 10
0.0
 20
0.0
 30
0.0
  3
*X838383
  1

  0
TEXT
  5
5F1
  8
回08-記事
  6
CONTINUOUS
 62
     5
 10
-474.5623223789775
 20
492.2183230030433
 30
0.0
 40
6.0
  1
3.75
 50
90.0
  0
TEXT
  5
5F2
  8
回08-記事
  6
CONTINUOUS
 62
     5
 10
-474.5623223789775
 20
506.6183230030431
 30
0.0
 40
3.599999999999998
  1
±0.1
 50
90.0
  0
TEXT
  5
5F3
  8
回08-記事
  6
CONTINUOUS
 62
     5
 10
-474.5623223789775
 20
514.5383230030431
 30
0.0
 40
6.0
  1
[0.148
 50
90.0
  0
TEXT
  5
5F4
  8
回08-記事
  6
CONTINUOUS
 62
     5
 10
-474.5623223789775
 20
534.9383230030432
 30
0.0
 40
3.599999999999998
  1
±0.004
 50
90.0
  0
TEXT
  5
5F5
  8
回08-記事
  6
CONTINUOUS
 62
     5
 10
-474.5623223789775
 20
548.9783230030432
 30
0.0
 40
6.0
  1
]
 50
90.0
  0
ENDBLK
  5
5F7
  8
回02-上ER
  6
CONTINUOUS
 62
     7
  0
BLOCK
  8
回02-上ER
  2
*X848484
 70
     1
 10
0.0
 20
0.0
 30
0.0
  3
*X848484
  1

  0
TEXT
  5
5FA
  8
回08-記事
  6
CONTINUOUS
 62
     5
 10
-465.5481750003931
 20
492.2179748889451
 30
0.0
 40
6.0
  1
1.25
 50
90.0
  0
TEXT
  5
5FB
  8
回08-記事
  6
CONTINUOUS
 62
     5
 10
-465.5481750003931
 20
505.4179748889451
 30
0.0
 40
3.599999999999998
  1
±0.2
 50
90.0
  0
TEXT
  5
5FC
  8
回08-記事
  6
CONTINUOUS
 62
     5
 10
-465.5481750003931
 20
514.0579748889451
 30
0.0
 40
6.0
  1
[0.049
 50
90.0
  0
TEXT
  5
5FD
  8
回08-記事
  6
CONTINUOUS
 62
     5
 10
-465.5481750003931
 20
535.6796371001069
 30
0.0
 40
3.599999999999998
  1
±0.008
 50
90.0
  0
TEXT
  5
5FE
  8
回08-記事
  6
CONTINUOUS
 62
     5
 10
-465.5481750003931
 20
549.359637100107
 30
0.0
 40
6.0
  1
]
 50
90.0
  0
ENDBLK
  5
600
  8
回02-上ER
  6
CONTINUOUS
 62
     7
  0
BLOCK
  8
回02-上ER
  2
*X858585
 70
     1
 10
0.0
 20
0.0
 30
0.0
  3
*X858585
  1

  0
TEXT
  5
603
  8
回08-記事
  6
CONTINUOUS
 62
     5
 10
-508.2219143158623
 20
452.8583230030432
 30
0.0
 40
6.0
  1
6.25
 50
90.0
  0
TEXT
  5
604
  8
回08-記事
  6
CONTINUOUS
 62
     5
 10
-508.2219143158623
 20
467.2583230030432
 30
0.0
 40
3.599999999999998
  1
±0.2
 50
90.0
  0
TEXT
  5
605
  8
回08-記事
  6
CONTINUOUS
 62
     5
 10
-508.2219143158623
 20
475.898323003043
 30
0.0
 40
6.0
  1
[0.246
 50
90.0
  0
TEXT
  5
606
  8
回08-記事
  6
CONTINUOUS
 62
     5
 10
-508.2219143158623
 20
497.4983230030431
 30
0.0
 40
3.599999999999998
  1
±0.008
 50
90.0
  0
TEXT
  5
607
  8
回08-記事
  6
CONTINUOUS
 62
     5
 10
-508.2219143158623
 20
511.1783230030432
 30
0.0
 40
6.0
  1
]
 50
90.0
  0
ENDBLK
  5
609
  8
回02-上ER
  6
CONTINUOUS
 62
     7
  0
BLOCK
  8
回02-上ER
  2
*X868686
 70
     1
 10
0.0
 20
0.0
 30
0.0
  3
*X868686
  1

  0
TEXT
  5
60C
  8
回08-記事
  6
CONTINUOUS
 62
     5
 10
-650.2219143158622
 20
319.8583230030432
 30
0.0
 40
6.0
  1
6.25
 50
90.0
  0
TEXT
  5
60D
  8
回08-記事
  6
CONTINUOUS
 62
     5
 10
-650.2219143158622
 20
334.2583230030432
 30
0.0
 40
3.599999999999998
  1
±0.2
 50
90.0
  0
TEXT
  5
60E
  8
回08-記事
  6
CONTINUOUS
 62
     5
 10
-650.2219143158622
 20
342.8983230030432
 30
0.0
 40
6.0
  1
[0.246
 50
90.0
  0
TEXT
  5
60F
  8
回08-記事
  6
CONTINUOUS
 62
     5
 10
-650.2219143158622
 20
364.4983230030432
 30
0.0
 40
3.599999999999998
  1
±0.008
 50
90.0
  0
TEXT
  5
610
  8
回08-記事
  6
CONTINUOUS
 62
     5
 10
-650.2219143158622
 20
378.1783230030431
 30
0.0
 40
6.0
  1
]
 50
90.0
  0
ENDBLK
  5
612
  8
回02-上ER
  6
CONTINUOUS
 62
     7
  0
BLOCK
  8
回02-上ER
  2
*X878787
 70
     1
 10
0.0
 20
0.0
 30
0.0
  3
*X878787
  1

  0
TEXT
  5
615
  8
回08-記事
  6
CONTINUOUS
 62
     5
 10
-607.5481750003932
 20
359.2183230030431
 30
0.0
 40
6.0
  1
1.25
 50
90.0
  0
TEXT
  5
616
  8
回08-記事
  6
CONTINUOUS
 62
     5
 10
-607.5481750003932
 20
372.4183230030432
 30
0.0
 40
3.599999999999998
  1
±0.2
 50
90.0
  0
TEXT
  5
617
  8
回08-記事
  6
CONTINUOUS
 62
     5
 10
-607.5481750003932
 20
381.0583230030431
 30
0.0
 40
6.0
  1
[0.049
 50
90.0
  0
TEXT
  5
618
  8
回08-記事
  6
CONTINUOUS
 62
     5
 10
-607.5481750003932
 20
402.679985214205
 30
0.0
 40
3.599999999999998
  1
±0.008
 50
90.0
  0
TEXT
  5
619
  8
回08-記事
  6
CONTINUOUS
 62
     5
 10
-607.5481750003932
 20
416.359985214205
 30
0.0
 40
6.0
  1
]
 50
90.0
  0
ENDBLK
  5
61B
  8
回02-上ER
  6
CONTINUOUS
 62
     7
  0
BLOCK
  8
回02-上ER
  2
*X888888
 70
     1
 10
0.0
 20
0.0
 30
0.0
  3
*X888888
  1

  0
TEXT
  5
61E
  8
回08-記事
  6
CONTINUOUS
 62
     5
 10
-616.5623223789777
 20
359.2183230030433
 30
0.0
 40
6.0
  1
3.75
 50
90.0
  0
TEXT
  5
61F
  8
回08-記事
  6
CONTINUOUS
 62
     5
 10
-616.5623223789777
 20
373.6183230030433
 30
0.0
 40
3.599999999999998
  1
±0.1
 50
90.0
  0
TEXT
  5
620
  8
回08-記事
  6
CONTINUOUS
 62
     5
 10
-616.5623223789777
 20
381.5383230030433
 30
0.0
 40
6.0
  1
[0.148
 50
90.0
  0
TEXT
  5
621
  8
回08-記事
  6
CONTINUOUS
 62
     5
 10
-616.5623223789777
 20
401.9383230030432
 30
0.0
 40
3.599999999999998
  1
±0.004
 50
90.0
  0
TEXT
  5
622
  8
回08-記事
  6
CONTINUOUS
 62
     5
 10
-616.5623223789777
 20
415.9783230030432
 30
0.0
 40
6.0
  1
]
 50
90.0
  0
ENDBLK
  5
624
  8
回02-上ER
  6
CONTINUOUS
 62
     7
  0
BLOCK
  8
回02-上ER
  2
*X898989
 70
     1
 10
0.0
 20
0.0
 30
0.0
  3
*X898989
  1

  0
TEXT
  5
627
  8
回08-記事
  6
CONTINUOUS
 62
     5
 10
-592.3481750003932
 20
360.2263230030433
 30
0.0
 40
6.0
  1
4-0.7
 50
90.0
  0
TEXT
  5
628
  8
回08-記事
  6
CONTINUOUS
 62
     5
 10
-592.3481750003932
 20
379.4263230030433
 30
0.0
 40
3.599999999999998
  1
±0.1
 50
90.0
  0
TEXT
  5
629
  8
回08-記事
  6
CONTINUOUS
 62
     5
 10
-592.3481750003932
 20
387.3463230030433
 30
0.0
 40
6.0
  1
[4-0.028
 50
90.0
  0
TEXT
  5
62A
  8
回08-記事
  6
CONTINUOUS
 62
     5
 10
-592.3481750003932
 20
417.3463230030431
 30
0.0
 40
3.599999999999998
  1
±0.004
 50
90.0
  0
TEXT
  5
62B
  8
回08-記事
  6
CONTINUOUS
 62
     5
 10
-592.3481750003932
 20
431.3863230030432
 30
0.0
 40
6.0
  1
]
 50
90.0
  0
ENDBLK
  5
62D
  8
回02-上ER
  6
CONTINUOUS
 62
     7
  0
BLOCK
  8
回02-上ER
  2
*X909090
 70
     1
 10
0.0
 20
0.0
 30
0.0
  3
*X909090
  1

  0
TEXT
  5
630
  8
回07-寸法
  6
CONTINUOUS
 62
     5
 10
-575.732116334445
 20
537.8704859827392
 30
0.0
 40
6.0
  1
140
  0
TEXT
  5
631
  8
回07-寸法
  6
CONTINUOUS
 62
     5
 10
-563.7321163344449
 20
537.8704859827392
 30
0.0
 40
4.2
  1
±1
  0
TEXT
  5
632
  8
回07-寸法
  6
CONTINUOUS
 62
     5
 10
-558.6921163344451
 20
537.8704859827392
 30
0.0
 40
6.0
  1
 [5.512
  0
TEXT
  5
633
  8
回07-寸法
  6
CONTINUOUS
 62
     5
 10
-535.2921163344452
 20
537.8704859827392
 30
0.0
 40
4.2
  1
±0.039
  0
TEXT
  5
634
  8
回07-寸法
  6
CONTINUOUS
 62
     5
 10
-519.3169527866316
 20
537.8704859827392
 30
0.0
 40
6.0
  1
]
  0
ENDBLK
  5
636
  8
回02-上ER
  6
CONTINUOUS
 62
     7
  0
BLOCK
  8
回02-上ER
  2
*X919191
 70
     1
 10
0.0
 20
0.0
 30
0.0
  3
*X919191
  1

  0
TEXT
  5
639
  8
回07-寸法
  6
CONTINUOUS
 62
     5
 10
-345.3031239333132
 20
668.4138598055535
 30
0.0
 40
6.0
  1
328
  0
TEXT
  5
63A
  8
回07-寸法
  6
CONTINUOUS
 62
     5
 10
-332.7031239333131
 20
668.4138598055535
 30
0.0
 40
4.2
  1
±0.3
  0
TEXT
  5
63B
  8
回07-寸法
  6
CONTINUOUS
 62
     5
 10
-322.6231239333131
 20
668.4138598055535
 30
0.0
 40
6.0
  1
 [12.913
  0
TEXT
  5
63C
  8
回07-寸法
  6
CONTINUOUS
 62
     5
 10
-296.2014617221512
 20
668.4138598055535
 30
0.0
 40
4.2
  1
±0.012
  0
TEXT
  5
63D
  8
回07-寸法
  6
CONTINUOUS
 62
     5
 10
-281.0814617221512
 20
668.4138598055535
 30
0.0
 40
6.0
  1
]
  0
ENDBLK
  5
63F
  8
回02-上ER
  6
CONTINUOUS
 62
     7
  0
BLOCK
  8
回02-上ER
  2
*X929292
 70
     1
 10
0.0
 20
0.0
 30
0.0
  3
*X929292
  1

  0
TEXT
  5
642
  8
回08-記事
  6
CONTINUOUS
 62
     5
 10
-140.0481469730543
 20
269.7300668477772
 30
0.0
 40
6.0
  1
2.1
 50
90.0
  0
TEXT
  5
643
  8
回08-記事
  6
CONTINUOUS
 62
     5
 10
-140.0481469730543
 20
278.7300668477773
 30
0.0
 40
4.5
  1
±0.2
 50
90.0
  0
TEXT
  5
644
  8
回08-記事
  6
CONTINUOUS
 62
     5
 10
-140.0481469730543
 20
289.5300668477773
 30
0.0
 40
6.0
  1
[0.083
 50
90.0
  0
TEXT
  5
645
  8
回08-記事
  6
CONTINUOUS
 62
     5
 10
-140.0481469730543
 20
310.5300668477773
 30
0.0
 40
4.5
  1
±0.008
 50
90.0
  0
TEXT
  5
646
  8
回08-記事
  6
CONTINUOUS
 62
     5
 10
-140.0481469730543
 20
327.6300668477773
 30
0.0
 40
6.0
  1
]
 50
90.0
  0
ENDBLK
  5
648
  8
回02-上ER
  6
CONTINUOUS
 62
     7
  0
BLOCK
  8
回02-上ER
  2
*X939393
 70
     1
 10
0.0
 20
0.0
 30
0.0
  3
*X939393
  1

  0
TEXT
  5
64B
  8
回08-記事
  6
CONTINUOUS
 62
     5
 10
-627.4336641427132
 20
190.930992221581
 30
0.0
 40
6.0
  1
0.3
 50
90.0
  0
TEXT
  5
64C
  8
回08-記事
  6
CONTINUOUS
 62
     5
 10
-627.4336641427132
 20
201.1309922215811
 30
0.0
 40
4.5
  1
±0.05
 50
90.0
  0
TEXT
  5
64D
  8
回08-記事
  6
CONTINUOUS
 62
     5
 10
-627.4336641427132
 20
215.0809922215811
 30
0.0
 40
6.0
  1
[0.012
 50
90.0
  0
TEXT
  5
64E
  8
回08-記事
  6
CONTINUOUS
 62
     5
 10
-627.4336641427132
 20
234.880992221581
 30
0.0
 40
4.5
  1
±0.002
 50
90.0
  0
TEXT
  5
64F
  8
回08-記事
  6
CONTINUOUS
 62
     5
 10
-627.4336641427132
 20
251.9809922215811
 30
0.0
 40
6.0
  1
]
 50
90.0
  0
ENDBLK
  5
651
  8
回02-上ER
  6
CONTINUOUS
 62
     7
  0
ENDSEC
  0
SECTION
  2
ENTITIES
  0
TEXT
  5
63
  8
回03-記事
  6
CONTINUOUS
 62
     5
 10
-426.2100582123921
 20
177.4135669693202
 30
0.0
 40
6.912
  1
without affecting product specification.
  0
TEXT
  5
65
  8
回03-記事
  6
CONTINUOUS
 62
     5
 10
-426.2100582123921
 20
189.5379431977682
 30
0.0
 40
6.912
  1
Edges and corners of ITO glass may be chamfered 
  0
TEXT
  5
66
  8
回03-記事
  6
CONTINUOUS
 62
     5
 10
-426.2100582123921
 20
201.662319426216
 30
0.0
 40
6.912
  1
Unit: mm
  0
TEXT
  5
67
  8
回03-記事
  6
CONTINUOUS
 62
     5
 10
-426.2100582123921
 20
213.7866956546635
 30
0.0
 40
6.912
  1
EXCEPT WHERE INDICATED
  0
TEXT
  5
68
  8
回03-記事
  6
CONTINUOUS
 62
     5
 10
-426.2100582123921
 20
225.9110718831111
 30
0.0
 40
6.912
  1
TOLERANCE=±0.5mm
  0
TEXT
  5
69
  8
回07-寸法
  6
CONTINUOUS
 62
     5
 10
-570.6352463719063
 20
451.4866358686145
 30
0.0
 40
7.0
  1
PROTECTION TAPE
1001
ACAD
1000
MTEXTBEGIN
1070
    73
1070
     1
1070
    44
1040
1.0
1070
    74
1070
     0
1000
MTEXTEND
  0
INSERT
  5
6D
  8
回07-寸法
  6
CONTINUOUS
 62
     7
 66
     1
  2
*X575757
 10
0.0
 20
0.0
 30
0.0
  0
SEQEND
  5
4D3
  8
回02-上ER
  6
CONTINUOUS
 62
     7
  0
TEXT
  5
6F
  8
回08-記事
  6
CONTINUOUS
 62
     5
 10
-325.1538031199105
 20
243.7241511219445
 30
0.0
 40
7.0
  1
ITO GLASS
1001
ACAD
1000
MTEXTBEGIN
1070
    73
1070
     1
1070
    44
1040
1.0
1070
    74
1070
     0
1000
MTEXTEND
  0
INSERT
  5
73
  8
回08-記事
  6
CONTINUOUS
 62
     5
 66
     1
  2
*X585858
 10
0.0
 20
0.0
 30
0.0
  0
SEQEND
  5
4DA
  8
回02-上ER
  6
CONTINUOUS
 62
     7
  0
TEXT
  5
74
  8
回08-記事
  6
CONTINUOUS
 62
     5
 10
-308.4146119781215
 20
277.9062550034528
 30
0.0
 40
7.0
  1
ITO FILM
1001
ACAD
1000
MTEXTBEGIN
1070
    73
1070
     1
1070
    44
1040
1.0
1070
    74
1070
     0
1000
MTEXTEND
  0
INSERT
  5
75
  8
回08-記事
  6
CONTINUOUS
 62
     5
 66
     1
  2
*X595959
 10
0.0
 20
0.0
 30
0.0
  0
SEQEND
  5
4E1
  8
回02-上ER
  6
CONTINUOUS
 62
     7
  0
TEXT
  5
76
  8
回08-記事
  6
CONTINUOUS
 62
     5
 10
-472.3527440940432
 20
245.352086139449
 30
0.0
 40
7.0
  1
PROTECTION TAPE
1001
ACAD
1000
MTEXTBEGIN
1070
    73
1070
     1
1070
    44
1040
1.0
1070
    74
1070
     0
1000
MTEXTEND
  0
INSERT
  5
77
  8
回08-記事
  6
CONTINUOUS
 62
     5
 66
     1
  2
*X606060
 10
0.0
 20
0.0
 30
0.0
  0
SEQEND
  5
4E8
  8
回02-上ER
  6
CONTINUOUS
 62
     7
  0
LINE
  5
78
  8
回08-記事
  6
CONTINUOUS
 62
     5
 10
-483.6739003998988
 20
258.0140356841237
 30
0.0
 11
-484.998947846013
 21
258.8386769379201
 31
0.0
  0
LINE
  5
79
  8
回08-記事
  6
CONTINUOUS
 62
     5
 10
-482.8956842218818
 20
260.7413614331211
 30
0.0
 11
-484.998947846013
 21
258.8386769379201
 31
0.0
  0
LINE
  5
7A
  8
回08-記事
  6
CONTINUOUS
 62
     5
 10
-482.8956842218818
 20
260.7413614331209
 30
0.0
 11
-483.6739003998988
 21
258.0140356841237
 31
0.0
  0
INSERT
  5
7B
  8
回08-記事
  6
CONTINUOUS
 62
     5
 66
     1
  2
*U616161
 10
0.0
 20
0.0
 30
0.0
1001
ACAD
1010
0.0
1020
0.0
1030
0.0
  0
SEQEND
  5
4EE
  8
回02-上ER
  6
CONTINUOUS
 62
     7
  0
LINE
  5
7C
  8
回08-記事
  6
CONTINUOUS
 62
     5
 10
-496.2970787387368
 20
239.2077751649391
 30
0.0
 11
-482.8956842218818
 21
260.7413614331209
 31
0.0
  0
TEXT
  5
7D
  8
回08-記事
  6
CONTINUOUS
 62
     5
 10
-487.5418784379315
 20
286.6593013382053
 30
0.0
 40
7.0
  1
REINFORCEMENT FILM
1001
ACAD
1000
MTEXTBEGIN
1070
    73
1070
     1
1070
    44
1040
1.0
1070
    74
1070
     0
1000
MTEXTEND
  0
INSERT
  5
7E
  8
回08-記事
  6
CONTINUOUS
 62
     7
 66
     1
  2
*X626262
 10
0.0
 20
0.0
 30
0.0
  0
SEQEND
  5
4F5
  8
回02-上ER
  6
CONTINUOUS
 62
     7
  0
TEXT
  5
7F
  8
回08-記事
  6
CONTINUOUS
 62
     5
 10
-595.6616761399507
 20
249.3590461417444
 30
0.0
 40
7.0
  1
STIFFENER
1001
ACAD
1000
MTEXTBEGIN
1070
    73
1070
     1
1070
    44
1040
1.0
1070
    74
1070
     0
1000
MTEXTEND
  0
INSERT
  5
80
  8
回08-記事
  6
CONTINUOUS
 62
     7
 66
     1
  2
*X636363
 10
0.0
 20
0.0
 30
0.0
  0
SEQEND
  5
4FC
  8
回02-上ER
  6
CONTINUOUS
 62
     7
  0
TEXT
  5
81
  8
回08-記事
  6
CONTINUOUS
 62
     5
 10
-691.4298376234476
 20
271.5684647600024
 30
0.0
 40
7.0
  1
TRACE EXPOSE
1001
ACAD
1000
MTEXTBEGIN
1070
    73
1070
     1
1070
    44
1040
1.0
1070
    74
1070
     0
1000
MTEXTEND
  0
INSERT
  5
82
  8
回08-記事
  6
CONTINUOUS
 62
     7
 66
     1
  2
*X646464
 10
0.0
 20
0.0
 30
0.0
  0
SEQEND
  5
503
  8
回02-上ER
  6
CONTINUOUS
 62
     7
  0
LINE
  5
83
  8
回08-記事
 62
     5
 10
-586.5659473183682
 20
355.6183230030431
 30
0.0
 11
-567.8308410860444
 21
355.6183230030431
 31
0.0
  0
LINE
  5
84
  8
回08-記事
 62
     5
 10
-586.5659473183682
 20
352.0183230030431
 30
0.0
 11
-567.8308410860444
 21
352.0183230030431
 31
0.0
  0
LINE
  5
85
  8
回08-記事
 62
     5
 10
-586.5659473183682
 20
344.8183230030431
 30
0.0
 11
-567.8308410860444
 21
344.8183230030431
 31
0.0
  0
TEXT
  5
86
  8
回08-記事
  6
CONTINUOUS
 62
     5
 10
-651.4002202929532
 20
328.3053816985955
 30
0.0
 40
7.0
  1
2-R0.5[R0.020]
1001
ACAD
1000
MTEXTBEGIN
1070
    73
1070
     1
1070
    44
1040
1.0
1070
    74
1070
     0
1000
MTEXTEND
  0
INSERT
  5
87
  8
回08-記事
  6
CONTINUOUS
 62
     7
 66
     1
  2
*X656565
 10
0.0
 20
0.0
 30
0.0
  0
SEQEND
  5
50A
  8
回02-上ER
  6
CONTINUOUS
 62
     7
  0
DIMENSION
  5
88
  8
回08-記事
  6
CONTINUOUS
 62
     5
  2
*D292929
 10
-649.4219143158625
 20
341.218323003043
 30
0.0
 11
-649.4219143158625
 21
350.2183230030433
 31
0.0
 70
   160
  1
6.25{\H0.6x;±0.2}[0.246{\H0.6x;±0.008}]
  3
DMC
 13
-585.1259473183681
 23
359.2183230030429
 33
0.0
 14
-585.1259473183684
 24
341.218323003043
 34
0.0
 50
270.0
  0
DIMENSION
  5
96
  8
回08-記事
  6
CONTINUOUS
 62
     5
  2
*D303030
 10
-606.7481750003931
 20
355.6183230030431
 30
0.0
 11
-606.7481750003931
 21
388.989154108624
 31
0.0
 70
   160
  1
1.25{\H0.6x;±0.2}[0.049{\H0.6x;±0.008}]
  3
DMC
 13
-586.5659473183682
 23
352.0183230030431
 33
0.0
 14
-586.5659473183682
 24
355.6183230030431
 34
0.0
 50
270.0
  0
DIMENSION
  5
A5
  8
回08-記事
  6
CONTINUOUS
 62
     5
  2
*D313131
 10
-615.7623223789775
 20
344.8183230030431
 30
0.0
 11
-615.7623223789775
 21
388.7983230030433
 31
0.0
 70
   160
  1
3.75{\H0.6x;±0.1}[0.148{\H0.6x;±0.004}]
  3
DMC
 13
-586.5659473183682
 23
355.6183230030431
 33
0.0
 14
-586.5659473183682
 24
344.8183230030431
 34
0.0
 50
270.0
  0
DIMENSION
  5
B4
  8
回08-記事
  6
CONTINUOUS
 62
     5
  2
*D323232
 10
-591.5481750003935
 20
356.6263230030431
 30
0.0
 11
-591.5481750003935
 21
397.0063230030433
 31
0.0
 70
   160
  1
4-0.7{\H0.6x;±0.1}[4-0.028{\H0.6x;±0.004}]
  3
DMC
 13
-586.5659473183682
 23
354.6103230030432
 33
0.0
 14
-586.5659473183682
 24
356.6263230030431
 34
0.0
 50
270.0
  0
LINE
  5
C3
  8
回08-記事
  6
CONTINUOUS
 62
     7
 10
-572.1659473183677
 20
359.2183230030429
 30
0.0
 11
-572.1659473183677
 21
341.218323003043
 31
0.0
  0
ARC
  5
C4
  8
回08-記事
  6
CONTINUOUS
 62
     7
 10
-585.1259473183684
 20
342.658323003043
 30
0.0
 40
1.439999999999999
 50
180.0
 51
270.0
  0
ARC
  5
C5
  8
回08-記事
  6
CONTINUOUS
 62
     7
 10
-585.1259473183681
 20
357.7783230030429
 30
0.0
 40
1.439999999999999
 50
90.0
 51
180.0
  0
LINE
  5
C6
  8
回08-記事
  6
CONTINUOUS
 62
     7
 10
-553.2564937156251
 20
341.218323003043
 30
0.0
 11
-585.1259473183684
 21
341.218323003043
 31
0.0
  0
LINE
  5
C7
  8
回08-記事
  6
CONTINUOUS
 62
     7
 10
-553.3796485349212
 20
359.2183230030431
 30
0.0
 11
-585.1259473183681
 21
359.2183230030431
 31
0.0
  0
LINE
  5
C8
  8
回08-記事
  6
CONTINUOUS
 62
     7
 10
-586.5659473183682
 20
357.778323003043
 30
0.0
 11
-586.5659473183682
 21
342.6583230030431
 31
0.0
  0
POLYLINE
  5
C9
  8
回08-記事
  6
CONTINUOUS
 62
     8
 66
     1
 10
0.0
 20
0.0
 30
0.0
 40
2.015999999999999
 41
2.015999999999999
  0
VERTEX
  5
A9F
  8
回08-記事
  6
CONTINUOUS
 62
     8
 10
-586.5659473183682
 20
352.0183230030431
 30
0.0
  0
VERTEX
  5
AA1
  8
回08-記事
  6
CONTINUOUS
 62
     8
 10
-572.1659473183682
 20
352.0183230030431
 30
0.0
  0
SEQEND
  5
AA0
  8
回02-上ER
  6
CONTINUOUS
 62
     7
  0
POLYLINE
  5
CA
  8
回08-記事
  6
CONTINUOUS
 62
     8
 66
     1
 10
0.0
 20
0.0
 30
0.0
 40
2.015999999999999
 41
2.015999999999999
  0
VERTEX
  5
AA2
  8
回08-記事
  6
CONTINUOUS
 62
     8
 10
-586.5659473183682
 20
344.8183230030431
 30
0.0
  0
VERTEX
  5
AA4
  8
回08-記事
  6
CONTINUOUS
 62
     8
 10
-572.1659473183684
 20
344.8183230030431
 30
0.0
  0
SEQEND
  5
AA3
  8
回02-上ER
  6
CONTINUOUS
 62
     7
  0
POLYLINE
  5
CB
  8
回08-記事
  6
CONTINUOUS
 62
     8
 66
     1
 10
0.0
 20
0.0
 30
0.0
  0
VERTEX
  5
AA5
  8
回08-記事
  6
CONTINUOUS
 62
     8
 10
-572.1659473183682
 20
348.4183230030432
 30
0.0
 40
2.015999999999999
 41
2.015999999999999
  0
VERTEX
  5
AA7
  8
回08-記事
  6
CONTINUOUS
 62
     8
 10
-586.5659473183682
 20
348.4183230030432
 30
0.0
  0
SEQEND
  5
AA6
  8
回02-上ER
  6
CONTINUOUS
 62
     7
  0
POLYLINE
  5
CC
  8
回08-記事
  6
CONTINUOUS
 62
     8
 66
     1
 10
0.0
 20
0.0
 30
0.0
  0
VERTEX
  5
AA8
  8
回08-記事
  6
CONTINUOUS
 62
     8
 10
-572.1659473183682
 20
355.6183230030431
 30
0.0
 40
2.015999999999999
 41
2.015999999999999
  0
VERTEX
  5
AAA
  8
回08-記事
  6
CONTINUOUS
 62
     8
 10
-586.5659473183682
 20
355.6183230030431
 30
0.0
  0
SEQEND
  5
AA9
  8
回02-上ER
  6
CONTINUOUS
 62
     7
  0
TEXT
  5
CD
  8
回08-記事
  6
CONTINUOUS
 62
     7
 10
-577.4834452130318
 20
367.1402904809671
 30
0.0
 40
7.0
  1
SECTION A
  0
TEXT
  5
CE
  8
回07-寸法
  6
CONTINUOUS
 62
     7
 10
-58.86966909505827
 20
261.1979988588682
 30
0.0
 40
7.0
  1
(INSULATION AREA)
 50
90.0
  0
TEXT
  5
CF
  8
回07-寸法
  6
CONTINUOUS
 62
     7
 10
-60.06854368710083
 20
606.8786289658198
 30
0.0
 40
7.0
  1
(INSULATION AREA)
 50
90.0
  0
TEXT
  5
D0
  8
回07-寸法
  6
CONTINUOUS
 62
     7
 10
-150.350188180344
 20
673.364966184281
 30
0.0
 40
7.0
  1
(INSULATION AREA)
  0
TEXT
  5
D1
  8
回07-寸法
  6
CONTINUOUS
 62
     7
 10
-563.3469692922442
 20
667.0134665951509
 30
0.0
 40
7.0
  1
(INSULATION AREA)
  0
INSERT
  5
D2
  8
回07-寸法
  6
CONTINUOUS
 62
     5
 66
     1
  2
*X666666
 10
0.0
 20
0.0
 30
0.0
  0
SEQEND
  5
51C
  8
回02-上ER
  6
CONTINUOUS
 62
     7
  0
INSERT
  5
D3
  8
回07-寸法
  6
CONTINUOUS
 62
     7
 66
     1
  2
*X676767
 10
0.0
 20
0.0
 30
0.0
  0
SEQEND
  5
523
  8
回02-上ER
  6
CONTINUOUS
 62
     7
  0
LINE
  5
D4
  8
回08-記事
  6
CONTINUOUS
 62
     7
 10
-148.4245345605382
 20
359.3719919848146
 30
0.0
 11
-157.4245345605381
 21
359.3719919848146
 31
0.0
  0
LINE
  5
D5
  8
回08-記事
  6
CONTINUOUS
 62
     7
 10
-148.4245345605382
 20
357.3719919848146
 30
0.0
 11
-157.4245345605381
 21
357.3719919848146
 31
0.0
  0
POLYLINE
  5
D6
  8
回08-記事
  6
CONTINUOUS
 62
     7
 66
     1
 10
0.0
 20
0.0
 30
0.0
 70
     1
  0
VERTEX
  5
AAB
  8
回08-記事
  6
CONTINUOUS
 62
     7
 10
-157.3245345605382
 20
359.3719919848146
 30
0.0
  0
VERTEX
  5
AAD
  8
回08-記事
  6
CONTINUOUS
 62
     7
 10
-466.3245345605381
 20
359.3719919848146
 30
0.0
  0
VERTEX
  5
AAE
  8
回08-記事
  6
CONTINUOUS
 62
     7
 10
-466.3245345605381
 20
592.3719919848146
 30
0.0
  0
VERTEX
  5
AAF
  8
回08-記事
  6
CONTINUOUS
 62
     7
 10
-157.3245345605382
 20
592.3719919848146
 30
0.0
  0
SEQEND
  5
AAC
  8
回02-上ER
  6
CONTINUOUS
 62
     7
  0
POLYLINE
  5
D7
  8
回08-記事
  6
PHANTOM2
 62
     7
 66
     1
 10
0.0
 20
0.0
 30
0.0
 70
     1
  0
VERTEX
  5
AB0
  8
回08-記事
  6
PHANTOM2
 62
     7
 10
-464.3245345605381
 20
590.3719919848144
 30
0.0
  0
VERTEX
  5
AB2
  8
回08-記事
  6
PHANTOM2
 62
     7
 10
-159.3245345605383
 20
590.3719919848144
 30
0.0
  0
VERTEX
  5
AB3
  8
回08-記事
  6
PHANTOM2
 62
     7
 10
-159.3245345605383
 20
361.3719919848146
 30
0.0
  0
VERTEX
  5
AB4
  8
回08-記事
  6
PHANTOM2
 62
     7
 10
-464.3245345605381
 20
361.3719919848146
 30
0.0
  0
SEQEND
  5
AB1
  8
回02-上ER
  6
CONTINUOUS
 62
     7
  0
POLYLINE
  5
D9
  8
回08-記事
  6
DASHED2
 62
     7
 66
     1
 10
0.0
 20
0.0
 30
0.0
 70
     1
  0
VERTEX
  5
AB5
  8
回08-記事
  6
DASHED2
 62
     7
 10
-156.8245345605381
 20
358.5719919848149
 30
0.0
  0
VERTEX
  5
AB7
  8
回08-記事
  6
DASHED2
 62
     7
 10
-466.8245345605383
 20
358.5719919848149
 30
0.0
  0
VERTEX
  5
AB8
  8
回08-記事
  6
DASHED2
 62
     7
 10
-466.8245345605383
 20
593.171991984814
 30
0.0
  0
VERTEX
  5
AB9
  8
回08-記事
  6
DASHED2
 62
     7
 10
-156.8245345605381
 20
593.171991984814
 30
0.0
  0
SEQEND
  5
AB6
  8
回02-上ER
  6
CONTINUOUS
 62
     7
  0
DIMENSION
  5
DB
  8
回07-寸法
  6
CONTINUOUS
 62
     7
  2
*D333333
 10
-486.4357971293165
 20
512.4958877077306
 30
0.0
 11
-514.3980272860463
 21
512.4958877077306
 31
0.0
 70
   160
  1
9.4 [0.370]
  3
DMC
 13
-476.3245345605382
 23
485.0810833394968
 33
0.0
 14
-486.4357971293165
 24
478.9919615425084
 34
0.0
  0
DIMENSION
  5
EC
  8
回07-寸法
  6
CONTINUOUS
 62
     7
  2
*D343434
 10
-481.4204709903909
 20
499.5714707943807
 30
0.0
 11
-508.6827011471208
 21
499.5714707943807
 31
0.0
 70
   160
  1
4.39 [0.173]
  3
DMC
 13
-476.3245345605382
 23
485.0810833394968
 33
0.0
 14
-481.4204709903909
 24
483.5755108728638
 34
0.0
  0
TEXT
  5
FD
  8
回07-寸法
  6
CONTINUOUS
 62
     5
 10
-537.7439399099212
 20
437.851542952883
 30
0.0
 40
7.0
  1
4-R1[R0.039]
1001
ACAD
1000
MTEXTBEGIN
1070
    73
1070
     1
1070
    44
1040
1.0
1070
    74
1070
     0
1000
MTEXTEND
  0
INSERT
  5
FE
  8
回07-寸法
  6
CONTINUOUS
 62
     7
 66
     1
  2
*X686868
 10
0.0
 20
0.0
 30
0.0
  0
SEQEND
  5
539
  8
回02-上ER
  6
CONTINUOUS
 62
     7
  0
TEXT
  5
FF
  8
回07-寸法
  6
CONTINUOUS
 62
     5
 10
-536.4502493334703
 20
424.1776585983981
 30
0.0
 40
7.0
  1
2-R2[R0.079]
1001
ACAD
1000
MTEXTBEGIN
1070
    73
1070
     1
1070
    44
1040
1.0
1070
    74
1070
     0
1000
MTEXTEND
  0
INSERT
  5
100
  8
回07-寸法
  6
CONTINUOUS
 62
     7
 66
     1
  2
*X696969
 10
0.0
 20
0.0
 30
0.0
  0
SEQEND
  5
540
  8
回02-上ER
  6
CONTINUOUS
 62
     7
  0
DIMENSION
  5
101
  8
回07-寸法
  6
CONTINUOUS
 62
     5
  2
*D353535
 10
-575.7116859136734
 20
483.8657585082366
 30
0.0
 11
-575.7116859136734
 21
443.2394943084987
 31
0.0
 70
   160
  3
DMC
 13
-480.5122908831982
 23
467.8669615425084
 33
0.0
 14
-480.5164644689039
 24
483.8657585082366
 34
0.0
 50
90.0
  0
INSERT
  5
112
  8
回08-記事
  6
PHANTOM2
 62
     8
 66
     1
  2
*X707070
 10
0.0
 20
0.0
 30
0.0
1001
ACAD
1000
HATCH
1002
{
1070
    19
1000
ANSI31
1040
0.4
1040
0.0
1000
ASC_BOUNDS
1070
     1
1070
     2
1070
     1
1005
113
1000
ASC_SEEDPOINT
1011
-405.6786519496838
1021
591.0514352637187
1031
0.0
1000
R14_HATCH_DATA
1000
112
1011
1.0
1021
0.0
1031
0.0
1011
0.0
1021
1.0
1031
0.0
1011
0.0
1021
0.0
1031
1.0
1040
0.0
1010
0.0
1020
0.0
1030
1.0
1000
ANSI31
1070
     0
1070
     1
1071
        1
1071
        1
1071
        4
1070
     1
1040
-480.7164644689036
1040
468.3681646267118
1040
-472.124534560538
1040
468.3681646267118
1070
     1
1040
-472.124534560538
1040
468.3681646267118
1040
-472.124534560538
1040
474.8669615425093
1070
     1
1040
-472.124534560538
1040
474.8669615425093
1040
-480.7164644689036
1040
474.8669615425093
1070
     1
1040
-480.7164644689036
1040
474.8669615425093
1040
-480.7164644689036
1040
468.3681646267118
1071
        1
1005
113
1070
     0
1070
     1
1040
0.0
1040
0.4
1070
     0
1070
     1
1040
5.497787143782136
1040
-405.6786519496838
1040
591.0514352637187
1040
-0.8980256121069151
1040
-0.8980256121069153
1070
     0
1071
        1
1040
-405.6786519496838
1040
591.0514352637187
1040
0.0
1002
}
  0
SEQEND
  5
54D
  8
回02-上ER
  6
CONTINUOUS
 62
     7
  0
POLYLINE
  5
113
  8
回08-記事
  6
PHANTOM2
 62
     8
 66
     1
 10
0.0
 20
0.0
 30
0.0
 70
     1
1001
ACAD
1000
ASC_BOUNDS
1002
{
1070
    19
1005
112
1002
}
  0
VERTEX
  5
ABA
  8
回08-記事
  6
PHANTOM2
 62
     8
 10
-480.7164644689036
 20
468.3681646267118
 30
0.0
  0
VERTEX
  5
ABC
  8
回08-記事
  6
PHANTOM2
 62
     8
 10
-472.124534560538
 20
468.3681646267118
 30
0.0
  0
VERTEX
  5
ABD
  8
回08-記事
  6
PHANTOM2
 62
     8
 10
-472.124534560538
 20
474.8669615425093
 30
0.0
  0
VERTEX
  5
ABE
  8
回08-記事
  6
PHANTOM2
 62
     8
 10
-480.7164644689036
 20
474.8669615425093
 30
0.0
  0
SEQEND
  5
ABB
  8
回02-上ER
  6
CONTINUOUS
 62
     7
  0
TEXT
  5
114
  8
回08-記事
  6
CONTINUOUS
 62
     5
 10
-530.3775233383021
 20
231.3715882687138
 30
0.0
 40
7.0
  1
AST-150C140A
  0
TEXT
  5
115
  8
回08-記事
  6
CONTINUOUS
 62
     5
 10
-522.0646989197921
 20
287.2273264210244
 30
0.0
 40
7.0
  1
情報ﾗﾍﾞﾙ
1001
ACAD
1000
MTEXTBEGIN
1070
    73
1070
     1
1070
    44
1040
1.0
1070
    74
1070
     0
1000
MTEXTEND
  0
INSERT
  5
116
  8
回08-記事
  6
CONTINUOUS
 62
     7
 66
     1
  2
*X717171
 10
0.0
 20
0.0
 30
0.0
  0
SEQEND
  5
559
  8
回02-上ER
  6
CONTINUOUS
 62
     7
  0
POLYLINE
  5
117
  8
回08-記事
  6
CONTINUOUS
 62
     7
 66
     1
 10
0.0
 20
0.0
 30
0.0
 70
     1
1001
ACAD
1000
ASC_BOUNDS
1002
{
1070
    19
1005
265
1002
}
  0
VERTEX
  5
ABF
  8
回08-記事
  6
CONTINUOUS
 62
     7
 10
-528.0630751158566
 20
264.2211059893381
 30
0.0
  0
VERTEX
  5
AC1
  8
回08-記事
  6
CONTINUOUS
 62
     7
 10
-502.0630751158578
 20
264.2211059893381
 30
0.0
  0
VERTEX
  5
AC2
  8
回08-記事
  6
CONTINUOUS
 62
     7
 10
-502.0630751158578
 20
265.2211059893379
 30
0.0
  0
VERTEX
  5
AC3
  8
回08-記事
  6
CONTINUOUS
 62
     7
 10
-528.0630751158566
 20
265.2211059893379
 30
0.0
  0
SEQEND
  5
AC0
  8
回02-上ER
  6
CONTINUOUS
 62
     7
  0
DIMENSION
  5
118
  8
回07-寸法
  6
CONTINUOUS
 62
     7
  2
*D363636
 10
-476.3245345605382
 20
537.0704859827392
 30
0.0
 11
-546.3245345605383
 21
537.0704859827392
 31
0.0
 70
   160
  3
DMC
 13
-616.3245345605388
 23
477.7419615425084
 33
0.0
 14
-476.3245345605382
 24
484.5440860867003
 34
0.0
1001
ACAD
1000
DSTYLE
1002
{
1070
    47
1040
1.0
1070
   147
1040
0.5
1070
    48
1040
1.0
1070
    72
1070
     0
1070
    71
1070
     1
1002
}
  0
ARC
  5
127
  8
回05-ﾃｰﾙ
  6
CONTINUOUS
 62
     7
 10
-478.3245345605386
 20
475.8669615425088
 30
0.0
 40
0.5000000000004548
 50
90.0
 51
270.0
  0
ARC
  5
12B
  8
回05-ﾃｰﾙ
  6
CONTINUOUS
 62
     7
 10
-480.7148097072993
 20
468.8669615425084
 30
0.0
 40
1.0
 50
225.1170071046006
 51
270.0
  0
ARC
  5
12C
  8
回05-ﾃｰﾙ
  6
CONTINUOUS
 62
     7
 10
-486.4357971293165
 20
471.7419615425093
 30
0.0
 40
1.0
 50
45.11700710460057
 51
90.0
  0
LINE
  5
12D
  8
回05-ﾃｰﾙ
  6
CONTINUOUS
 62
     7
 10
-485.7301358462249
 20
472.4505108728636
 30
0.0
 11
-481.420470990391
 21
468.1584122121541
 31
0.0
  0
ARC
  5
12E
  8
回05-ﾃｰﾙ
  6
CONTINUOUS
 62
     7
 10
-480.7148097072993
 20
482.8669615425093
 30
0.0
 40
1.0
 50
90.0
 51
134.8829928953994
  0
LINE
  5
12F
  8
回05-ﾃｰﾙ
  6
CONTINUOUS
 62
     7
 10
-480.7148097072991
 20
483.8669615425093
 30
0.0
 11
-477.8245345605387
 21
483.8669615425093
 31
0.0
  0
LINE
  5
130
  8
回05-ﾃｰﾙ
  6
CONTINUOUS
 62
     7
 10
-615.8245345605386
 20
472.7419615425084
 30
0.0
 11
-486.4357971293165
 21
472.7419615425084
 31
0.0
  0
ARC
  5
131
  8
回05-ﾃｰﾙ
  6
CONTINUOUS
 62
     7
 10
-615.8245345605386
 20
473.2419615425088
 30
0.0
 40
0.5
 50
180.0
 51
270.0
  0
ARC
  5
132
  8
回05-ﾃｰﾙ
  6
CONTINUOUS
 62
     7
 10
-486.4357971293165
 20
479.9919615425084
 30
0.0
 40
1.0
 50
270.0
 51
314.8829928953994
  0
LINE
  5
133
  8
回05-ﾃｰﾙ
  6
CONTINUOUS
 62
     7
 10
-475.8245345605387
 20
465.8669615425083
 30
0.0
 11
-475.8245345605387
 21
465.8669615425083
 31
0.0
  0
ARC
  5
134
  8
回05-ﾃｰﾙ
  6
CONTINUOUS
 62
     7
 10
-477.8245345605387
 20
465.8669615425089
 30
0.0
 40
2.0
 50
0.0
 51
90.0
  0
ARC
  5
135
  8
回05-ﾃｰﾙ
  6
CONTINUOUS
 62
     7
 10
-477.8245345605387
 20
485.8669617422321
 30
0.0
 40
2.0
 50
270.0256057119457
 51
0.0
  0
LINE
  5
136
  8
回05-ﾃｰﾙ
  6
CONTINUOUS
 62
     7
 10
-472.7245345605383
 20
475.3669615425084
 30
0.0
 11
-478.3245345605386
 21
475.3669615425084
 31
0.0
  0
LINE
  5
137
  8
回05-ﾃｰﾙ
  6
CONTINUOUS
 62
     7
 10
-478.3245345605386
 20
476.3669615425084
 30
0.0
 11
-472.7245345605383
 21
476.3669615425084
 31
0.0
  0
LINE
  5
138
  8
回05-ﾃｰﾙ
  6
CONTINUOUS
 62
     7
 10
-472.7245345605383
 20
475.3669615425084
 30
0.0
 11
-472.7245345605383
 21
465.8669615425083
 31
0.0
  0
LINE
  5
139
  8
回05-ﾃｰﾙ
  6
CONTINUOUS
 62
     7
 10
-485.7301358462249
 20
479.283412212154
 30
0.0
 11
-481.420470990391
 21
483.5755108728641
 31
0.0
  0
LINE
  5
13A
  8
回05-ﾃｰﾙ
  6
CONTINUOUS
 62
     7
 10
-472.7245345605383
 20
485.8669615425084
 30
0.0
 11
-472.7245345605383
 21
476.3669615425084
 31
0.0
  0
LINE
  5
13B
  8
回05-ﾃｰﾙ
  6
CONTINUOUS
 62
     7
 10
-475.8245345605387
 20
465.8669615425083
 30
0.0
 11
-472.7245345605383
 21
465.8669615425083
 31
0.0
  0
LINE
  5
13C
  8
回05-ﾃｰﾙ
  6
CONTINUOUS
 62
     7
 10
-472.7245345605383
 20
485.8669615425084
 30
0.0
 11
-475.8245345605387
 21
485.8669615425084
 31
0.0
  0
LINE
  5
13D
  8
回05-ﾃｰﾙ
  6
CONTINUOUS
 62
     7
 10
-480.7148097072991
 20
467.8669615425084
 30
0.0
 11
-477.8245345605387
 21
467.8669615425084
 31
0.0
  0
LINE
  5
13E
  8
回05-ﾃｰﾙ
  6
CONTINUOUS
 62
     7
 10
-616.3245345605388
 20
478.4919615425084
 30
0.0
 11
-616.3245345605388
 21
473.2419615425084
 31
0.0
  0
ARC
  5
13F
  8
回05-ﾃｰﾙ
  6
CONTINUOUS
 62
     7
 10
-615.8245345605386
 20
478.4919615425089
 30
0.0
 40
0.5
 50
90.0
 51
180.0
  0
LINE
  5
140
  8
回05-ﾃｰﾙ
  6
CONTINUOUS
 62
     7
 10
-615.8245345605386
 20
478.9919615425093
 30
0.0
 11
-486.4357971293165
 21
478.9919615425093
 31
0.0
  0
DIMENSION
  5
141
  8
回07-寸法
  6
CONTINUOUS
 62
     5
  2
*D373737
 10
-476.3245345605382
 20
638.9916903013705
 30
0.0
 11
-500.0867647172682
 21
638.9916903013705
 31
0.0
 70
   160
  3
DMC
 13
-466.3245345605381
 23
592.3719919848146
 33
0.0
 14
-476.3245345605382
 24
601.8719919848146
 34
0.0
  0
DIMENSION
  5
153
  8
回07-寸法
  6
CONTINUOUS
 62
     5
  2
*D383838
 10
-476.3245345605382
 20
626.425169624928
 30
0.0
 11
-500.074534560538
 21
626.425169624928
 31
0.0
 70
   160
  3
DMC
 13
-464.3245345605381
 23
590.3719919848144
 33
0.0
 14
-476.3245345605382
 24
601.8719919848146
 34
0.0
  0
TEXT
  5
164
  8
回03-下接
  6
CONTINUOUS
 62
     7
 10
-189.275075958807
 20
351.0770958645609
 30
0.0
 40
7.0
  1
AST-150C
  0
DIMENSION
  5
168
  8
回07-寸法
  6
CONTINUOUS
 62
     8
  2
*D393939
 10
-73.10292823413729
 20
601.8719919848146
 30
0.0
 11
-73.10292823413729
 21
627.3719919848147
 31
0.0
 70
   160
  3
DMC
 13
-156.8245345605381
 23
593.171991984814
 33
0.0
 14
-148.3245345605381
 24
601.8719919848146
 34
0.0
 50
90.0
  0
DIMENSION
  5
17A
  8
回07-寸法
  6
CONTINUOUS
 62
     8
  2
*D404040
 10
-73.10292823413734
 20
358.5719919848149
 30
0.0
 11
-73.10292823413731
 21
475.8719919848148
 31
0.0
 70
   160
  3
DMC
 13
-156.8245345605381
 23
593.171991984814
 33
0.0
 14
-156.8245345605381
 24
358.5719919848149
 34
0.0
 50
90.0
  0
DIMENSION
  5
189
  8
回07-寸法
  6
CONTINUOUS
 62
     8
  2
*D414141
 10
-476.3245345605382
 20
656.1432213344692
 30
0.0
 11
-501.9695093073686
 21
656.1432213344692
 31
0.0
 70
   160
  3
DMC
 13
-466.8245345605383
 23
593.171991984814
 33
0.0
 14
-476.3245345605382
 24
601.8719919848146
 34
0.0
  0
DIMENSION
  5
19A
  8
回07-寸法
  6
CONTINUOUS
 62
     8
  2
*D424242
 10
-148.3245345605381
 20
656.1432213344692
 30
0.0
 11
-123.1745345605382
 21
656.1432213344692
 31
0.0
 70
   160
  3
DMC
 13
-156.8245345605381
 23
593.171991984814
 33
0.0
 14
-148.3245345605381
 24
601.8719919848146
 34
0.0
  0
DIMENSION
  5
1AB
  8
回07-寸法
  6
CONTINUOUS
 62
     8
  2
*D434343
 10
-156.8245345605381
 20
656.1432213344692
 30
0.0
 11
-311.8245345605383
 21
656.1432213344692
 31
0.0
 70
   160
  3
DMC
 13
-466.8245345605383
 23
593.171991984814
 33
0.0
 14
-156.8245345605381
 24
593.171991984814
 34
0.0
  0
TEXT
  5
1BA
  8
回07-寸法
  6
CONTINUOUS
 62
     5
 10
-218.1726474679757
 20
339.4854705131798
 30
0.0
 40
7.0
  1
PART No
1001
ACAD
1000
MTEXTBEGIN
1070
    73
1070
     1
1070
    44
1040
1.0
1070
    74
1070
     0
1000
MTEXTEND
  0
INSERT
  5
1BB
  8
回07-寸法
  6
CONTINUOUS
 62
     7
 66
     1
  2
*X727272
 10
0.0
 20
0.0
 30
0.0
  0
SEQEND
  5
565
  8
回02-上ER
  6
CONTINUOUS
 62
     7
  0
DIMENSION
  5
1BC
  8
回07-寸法
  6
CONTINUOUS
 62
     7
  2
*D444444
 10
-85.10292823413717
 20
359.3719919848146
 30
0.0
 11
-85.10292823413715
 21
475.7971726478047
 31
0.0
 70
   160
  1
<> (VIEING AREA)
  3
DMC
 13
-157.3245345605382
 23
592.3719919848146
 33
0.0
 14
-157.3245345605382
 24
359.3719919848146
 34
0.0
 50
90.0
  0
DIMENSION
  5
1CB
  8
回07-寸法
  6
CONTINUOUS
 62
     7
  2
*D454545
 10
-96.95298711788588
 20
590.3719919848144
 30
0.0
 11
-96.95298711788588
 21
475.7971726478047
 31
0.0
 70
   160
  1
<> (ACTIVE AREA)
  3
DMC
 13
-159.3245345605383
 23
361.3719919848146
 33
0.0
 14
-159.3245345605383
 24
590.3719919848144
 34
0.0
 50
90.0
  0
DIMENSION
  5
1DA
  8
回07-寸法
  6
CONTINUOUS
 62
     7
  2
*D464646
 10
-148.3245345605381
 20
667.6138598055536
 30
0.0
 11
-311.9922928277322
 21
667.6138598055536
 31
0.0
 70
   160
  1
<>
  3
DMC
 13
-476.3245345605382
 23
601.8719919848146
 33
0.0
 14
-148.3245345605381
 24
601.8719919848146
 34
0.0
1001
ACAD
1000
DSTYLE
1002
{
1070
    47
1040
0.3
1070
   147
1040
0.5
1070
    48
1040
0.3
1070
    72
1070
     0
1070
    71
1070
     1
1002
}
  0
DIMENSION
  5
1EA
  8
回07-寸法
  6
CONTINUOUS
 62
     7
  2
*D474747
 10
-157.3245345605382
 20
638.9916903013705
 30
0.0
 11
-311.5500339042558
 21
638.9916903013705
 31
0.0
 70
   160
  1
<> (VIEWING AREA)
  3
DMC
 13
-466.3245345605381
 23
592.3719919848146
 33
0.0
 14
-157.3245345605382
 24
592.3719919848146
 34
0.0
  0
DIMENSION
  5
1F9
  8
回07-寸法
  6
CONTINUOUS
 62
     7
  2
*D484848
 10
-159.3245345605383
 20
626.425169624928
 30
0.0
 11
-311.8245345605383
 21
626.425169624928
 31
0.0
 70
   160
  1
<> (ACTIVE AREA)
  3
DMC
 13
-464.3245345605381
 23
590.3719919848144
 33
0.0
 14
-159.3245345605383
 24
590.3719919848144
 34
0.0
  0
DIMENSION
  5
208
  8
回07-寸法
  6
CONTINUOUS
 62
     7
  2
*D494949
 10
-311.8245345605383
 20
609.2189560247502
 30
0.0
 11
-386.3944767664362
 21
609.2189560247502
 31
0.0
 70
   160
  1
<> (ACTIVE AREA CENTER)
  3
DMC
 13
-476.3245345605382
 23
601.8719919848146
 33
0.0
 14
-311.8245345605383
 24
603.5928386889091
 34
0.0
  0
TEXT
  5
217
  8
回07-寸法
  6
CONTINUOUS
 62
     5
 10
-617.3219791887575
 20
461.5165509202911
 30
0.0
 40
7.0
  1
A
1001
ACAD
1000
MTEXTBEGIN
1070
    73
1070
     1
1070
    44
1040
1.0
1070
    74
1070
     0
1000
MTEXTEND
  0
INSERT
  5
218
  8
回07-寸法
  6
CONTINUOUS
 62
     5
 66
     1
  2
*X737373
 10
0.0
 20
0.0
 30
0.0
  0
SEQEND
  5
56C
  8
回02-上ER
  6
CONTINUOUS
 62
     7
  0
CIRCLE
  5
219
  8
回07-寸法
  6
DASHED2
 62
     5
 10
-615.2792098503351
 20
476.1339996767252
 30
0.0
 40
7.745500350226136
  0
DIMENSION
  5
21A
  8
回07-寸法
 62
     5
  2
*D505050
 10
-626.7825040879642
 20
472.7419615425088
 30
0.0
 11
-626.7825040879642
 21
444.5825127236114
 31
0.0
 70
   160
  1
<>
  3
DMC
 13
-615.8245345605386
 23
478.9919615425088
 33
0.0
 14
-615.8245345605386
 24
472.7419615425088
 34
0.0
 50
90.0
  0
DIMENSION
  5
22B
  8
回07-寸法
  6
CONTINUOUS
 62
     7
  2
*D515151
 10
-133.5950849781711
 20
357.3719919848146
 30
0.0
 11
-133.5950849781711
 21
383.8314662360328
 31
0.0
 70
   160
  1
(<>)
  3
DMC
 13
-148.4245345605382
 23
359.3719919848146
 33
0.0
 14
-148.4245345605382
 24
357.3719919848146
 34
0.0
 50
90.0
  0
INSERT
  5
23C
  8
回07-寸法
  6
CONTINUOUS
 62
     5
 66
     1
  2
*X747474
 10
0.0
 20
0.0
 30
0.0
  0
SEQEND
  5
573
  8
回02-上ER
  6
CONTINUOUS
 62
     7
  0
TEXT
  5
23D
  8
回07-寸法
  6
CONTINUOUS
 62
     5
 10
-207.1405877581954
 20
377.3616737187922
 30
0.0
 40
7.0
  1
AIR VENT
1001
ACAD
1000
MTEXTBEGIN
1070
    73
1070
     1
1070
    44
1040
1.0
1070
    74
1070
     0
1000
MTEXTEND
  0
TEXT
  5
23E
  8
回07-寸法
  6
CONTINUOUS
 62
     5
 10
-218.6557091236882
 20
331.216393390112
 30
0.0
 40
7.0
  1
AST-150C
  0
DIMENSION
  5
23F
  8
回07-寸法
  6
CONTINUOUS
 62
     5
  2
*D525252
 10
-626.7675796087094
 20
478.9919615425093
 30
0.0
 11
-626.7675796087094
 21
539.1920365453188
 31
0.0
 70
   160
  1
(<>)
  3
DMC
 13
-476.3245345605382
 23
601.8719919848146
 33
0.0
 14
-615.8245345605386
 24
478.9919615425093
 34
0.0
 50
90.0
  0
LINE
  5
24E
  8
回07-寸法
  6
CENTER2
 62
     5
 10
-146.7855698725889
 20
475.8719919848146
 30
0.0
 11
-616.9443910797198
 21
475.8719919848146
 31
0.0
  0
LINE
  5
250
  8
回07-寸法
  6
CENTER2
 62
     5
 10
-311.8245345605383
 20
603.5928386889091
 30
0.0
 11
-311.8245345605383
 21
347.8484678989663
 31
0.0
  0
INSERT
  5
251
  8
回08-記事
  6
PHANTOM2
 62
     8
 66
     1
  2
*X757575
 10
0.0
 20
0.0
 30
0.0
1001
ACAD
1000
HATCH
1002
{
1070
    19
1000
ANSI31
1040
15.0
1040
1.570796326794896
1000
ASC_BOUNDS
1070
     1
1070
     2
1070
     1
1005
252
1000
ASC_SEEDPOINT
1011
-325.776401226688
1021
455.9161610081384
1031
0.0
1000
R14_HATCH_DATA
1000
251
1011
1.0
1021
0.0
1031
0.0
1011
0.0
1021
1.0
1031
0.0
1011
0.0
1021
0.0
1031
1.0
1040
0.0
1010
0.0
1020
0.0
1030
1.0
1000
ANSI31
1070
     0
1070
     1
1071
        1
1071
        1
1071
        8
1070
     1
1040
-528.0630751158566
1040
474.3669615425083
1040
-528.0630751158566
1040
477.3669615425084
1070
     2
1040
-527.0630751158567
1040
477.3669615425084
1040
1.0
1040
3.141592653589792
1040
4.712388980384688
1070
     0
1070
     1
1040
-527.0630751158567
1040
478.3669615425083
1040
-503.0630751158567
1040
478.3669615425083
1070
     2
1040
-503.0630751158567
1040
477.3669615425084
1040
1.0
1040
4.712388980384688
1040
6.283185307179584
1070
     0
1070
     1
1040
-502.0630751158567
1040
477.3669615425084
1040
-502.0630751158567
1040
474.3669615425083
1070
     2
1040
-503.0630751158567
1040
474.3669615425083
1040
1.0
1040
6.283185307179584
1040
7.853981633974482
1070
     0
1070
     1
1040
-503.0630751158567
1040
473.3669615425084
1040
-527.0630751158567
1040
473.3669615425084
1070
     2
1040
-527.0630751158567
1040
474.3669615425083
1040
1.0
1040
1.570796326794896
1040
3.141592653589792
1070
     0
1071
        1
1005
252
1070
     0
1070
     1
1040
1.570796326794896
1040
15.0
1070
     0
1070
     1
1040
2.356194490192344
1040
-325.776401226688
1040
455.9161610081384
1040
-1.325825214724774
1040
-1.325825214724774
1070
     0
1071
        1
1040
-325.776401226688
1040
455.9161610081384
1040
0.0
1002
}
  0
SEQEND
  5
582
  8
回02-上ER
  6
CONTINUOUS
 62
     7
  0
POLYLINE
  5
252
  8
回08-記事
  6
PHANTOM2
 62
     8
 66
     1
 10
0.0
 20
0.0
 30
0.0
 70
     1
1001
ACAD
1000
ASC_BOUNDS
1002
{
1070
    19
1005
251
1002
}
  0
VERTEX
  5
AC4
  8
回08-記事
  6
PHANTOM2
 62
     8
 10
-528.0630751158566
 20
474.3669615425083
 30
0.0
  0
VERTEX
  5
AC6
  8
回08-記事
  6
PHANTOM2
 62
     8
 10
-528.0630751158566
 20
477.3669615425084
 30
0.0
 42
-0.4142135623730951
  0
VERTEX
  5
AC7
  8
回08-記事
  6
PHANTOM2
 62
     8
 10
-527.0630751158567
 20
478.3669615425083
 30
0.0
  0
VERTEX
  5
AC8
  8
回08-記事
  6
PHANTOM2
 62
     8
 10
-503.0630751158567
 20
478.3669615425083
 30
0.0
 42
-0.4142135623730951
  0
VERTEX
  5
AC9
  8
回08-記事
  6
PHANTOM2
 62
     8
 10
-502.0630751158567
 20
477.3669615425084
 30
0.0
  0
VERTEX
  5
ACA
  8
回08-記事
  6
PHANTOM2
 62
     8
 10
-502.0630751158567
 20
474.3669615425083
 30
0.0
 42
-0.4142135623730951
  0
VERTEX
  5
ACB
  8
回08-記事
  6
PHANTOM2
 62
     8
 10
-503.0630751158567
 20
473.3669615425084
 30
0.0
  0
VERTEX
  5
ACC
  8
回08-記事
  6
PHANTOM2
 62
     8
 10
-527.0630751158567
 20
473.3669615425084
 30
0.0
 42
-0.4142135623730946
  0
SEQEND
  5
AC5
  8
回02-上ER
  6
CONTINUOUS
 62
     7
  0
TEXT
  5
253
  8
回08-記事
  6
CONTINUOUS
 62
     7
 10
-616.6314954331187
 20
473.2043613643313
 30
0.0
 40
7.0
  1
1
 50
90.0
  0
TEXT
  5
254
  8
回08-記事
  6
CONTINUOUS
 62
     7
 10
-616.6543883889076
 20
477.065020815609
 30
0.0
 40
7.0
  1
4
 50
90.0
  0
TEXT
  5
255
  8
回08-記事
  6
CONTINUOUS
 62
     5
 10
-175.2588155593475
 20
478.1794460508682
 30
0.0
 40
7.0
  1
XR
  0
TEXT
  5
256
  8
回08-記事
  6
CONTINUOUS
 62
     5
 10
-461.8024765943901
 20
478.8264857312277
 30
0.0
 40
7.0
  1
XL
  0
TEXT
  5
257
  8
回08-記事
  6
CONTINUOUS
 62
     5
 10
-327.0689259822302
 20
363.4545111602238
 30
0.0
 40
7.0
  1
YD
  0
TEXT
  5
258
  8
回08-記事
  6
CONTINUOUS
 62
     5
 10
-326.7336048167035
 20
581.6321782677422
 30
0.0
 40
7.0
  1
YU
  0
POLYLINE
  5
259
  8
回03-下接
  6
CONTINUOUS
 62
     7
 66
     1
 10
0.0
 20
0.0
 30
0.0
 70
     1
  0
VERTEX
  5
ACD
  8
回03-下接
  6
CONTINUOUS
 62
     7
 10
-476.3245345605382
 20
601.8719919848146
 30
0.0
  0
VERTEX
  5
ACF
  8
回03-下接
  6
CONTINUOUS
 62
     7
 10
-148.3245345605381
 20
601.8719919848146
 30
0.0
  0
VERTEX
  5
AD0
  8
回03-下接
  6
CONTINUOUS
 62
     7
 10
-148.3245345605381
 20
601.8719919848146
 30
0.0
  0
VERTEX
  5
AD1
  8
回03-下接
  6
CONTINUOUS
 62
     7
 10
-148.3245345605381
 20
349.8719919848148
 30
0.0
  0
VERTEX
  5
AD2
  8
回03-下接
  6
CONTINUOUS
 62
     7
 10
-148.3245345605381
 20
349.8719919848148
 30
0.0
  0
VERTEX
  5
AD3
  8
回03-下接
  6
CONTINUOUS
 62
     7
 10
-476.3245345605382
 20
349.8719919848146
 30
0.0
  0
VERTEX
  5
AD4
  8
回03-下接
  6
CONTINUOUS
 62
     7
 10
-476.3245345605382
 20
349.8719919848146
 30
0.0
  0
VERTEX
  5
AD5
  8
回03-下接
  6
CONTINUOUS
 62
     7
 10
-476.3245345605382
 20
601.8719919848146
 30
0.0
  0
SEQEND
  5
ACE
  8
回02-上ER
  6
CONTINUOUS
 62
     7
  0
LINE
  5
25A
  8
回08-記事
  6
CONTINUOUS
 62
     7
 10
-486.0707953643827
 20
259.9809922215804
 30
0.0
 11
-476.3245345605382
 21
259.9809922215804
 31
0.0
  0
LINE
  5
25B
  8
回08-記事
  6
CONTINUOUS
 62
     7
 10
-486.0707953643827
 20
260.980992221581
 30
0.0
 11
-486.0707953643827
 21
259.9809922215804
 31
0.0
  0
LINE
  5
25C
  8
回08-記事
  6
CONTINUOUS
 62
     7
 10
-148.8245345605383
 20
263.2211059893371
 30
0.0
 11
-148.8245345605383
 21
266.053885745415
 31
0.0
  0
LINE
  5
25D
  8
回08-記事
  6
CONTINUOUS
 62
     7
 10
-472.8245345605381
 20
255.5769917865301
 30
0.0
 11
-472.8245345605381
 21
256.980992221581
 31
0.0
  0
LINE
  5
25E
  8
回08-記事
  6
CONTINUOUS
 62
     7
 10
-477.8484962992878
 20
255.5769917865301
 30
0.0
 11
-472.8245345605381
 21
255.5769917865301
 31
0.0
  0
LINE
  5
25F
  8
回08-記事
  6
CONTINUOUS
 62
     7
 10
-477.8484962992878
 20
258.5445061271653
 30
0.0
 11
-477.8484962992878
 21
255.5769917865301
 31
0.0
  0
LINE
  5
260
  8
回08-記事
  6
CONTINUOUS
 62
     7
 10
-480.5160175649382
 20
258.5445061271653
 30
0.0
 11
-477.8484962992878
 21
258.5445061271653
 31
0.0
  0
LINE
  5
261
  8
回08-記事
  6
CONTINUOUS
 62
     7
 10
-480.5160175649382
 20
259.9809922215804
 30
0.0
 11
-480.5160175649382
 21
258.5445061271653
 31
0.0
  0
TEXT
  5
262
  8
回08-記事
  6
CONTINUOUS
 62
     5
 10
-522.5558916261498
 20
251.1388558793007
 30
0.0
 40
7.0
  1
ﾛｯﾄﾗﾍﾞﾙ
1001
ACAD
1000
MTEXTBEGIN
1070
    73
1070
     1
1070
    44
1040
1.0
1070
    74
1070
     0
1000
MTEXTEND
  0
INSERT
  5
263
  8
回08-記事
  6
CONTINUOUS
 62
     7
 66
     1
  2
*X767676
 10
0.0
 20
0.0
 30
0.0
  0
SEQEND
  5
59B
  8
回02-上ER
  6
CONTINUOUS
 62
     7
  0
POLYLINE
  5
264
  8
回08-記事
  6
CONTINUOUS
 62
     7
 66
     1
 10
0.0
 20
0.0
 30
0.0
 70
     1
1001
ACAD
1000
ASC_BOUNDS
1002
{
1070
    19
1005
265
1002
}
  0
VERTEX
  5
AD6
  8
回08-記事
  6
CONTINUOUS
 62
     7
 10
-528.0630751158566
 20
259.9809922215811
 30
0.0
  0
VERTEX
  5
AD8
  8
回08-記事
  6
CONTINUOUS
 62
     7
 10
-502.0630751158578
 20
259.9809922215811
 30
0.0
  0
VERTEX
  5
AD9
  8
回08-記事
  6
CONTINUOUS
 62
     7
 10
-502.0630751158578
 20
260.980992221581
 30
0.0
  0
VERTEX
  5
ADA
  8
回08-記事
  6
CONTINUOUS
 62
     7
 10
-528.0630751158566
 20
260.980992221581
 30
0.0
  0
SEQEND
  5
AD7
  8
回02-上ER
  6
CONTINUOUS
 62
     7
  0
INSERT
  5
265
  8
回08-記事
  6
CONTINUOUS
 62
     7
 66
     1
  2
*X777777
 10
0.0
 20
0.0
 30
0.0
1001
ACAD
1010
0.0
1020
0.0
1030
0.0
  0
SEQEND
  5
5C2
  8
回02-上ER
  6
CONTINUOUS
 62
     7
  0
ARC
  5
266
  8
回08-記事
  6
CONTINUOUS
 62
     7
 10
-171.3245345605382
 20
260.980992221581
 30
0.0
 40
1.0
 50
0.0
 51
180.0
  0
ARC
  5
267
  8
回08-記事
  6
CONTINUOUS
 62
     7
 10
-161.3245345605383
 20
260.980992221581
 30
0.0
 40
1.0
 50
0.0
 51
180.0
  0
LINE
  5
268
  8
回08-記事
  6
CONTINUOUS
 62
     7
 10
-148.3245345605378
 20
256.980992221581
 30
0.0
 11
-148.3245345605378
 21
263.2211059893371
 31
0.0
  0
LINE
  5
269
  8
回08-記事
  6
CONTINUOUS
 62
     7
 10
-158.3245345605383
 20
263.2211059893371
 30
0.0
 11
-158.3245345605383
 21
260.980992221581
 31
0.0
  0
DIMENSION
  5
26A
  8
回08-記事
  6
CONTINUOUS
 62
     5
  2
*D535353
 10
-139.2481469730543
 20
256.980992221581
 30
0.0
 11
-139.2481469730543
 21
299.8800668477772
 31
0.0
 70
   160
  1
2.1{\H0.75x;±0.2}[0.083{\H0.75x;±0.008}]
  3
DMC
 13
-148.8245345605385
 23
266.053885745415
 33
0.0
 14
-148.3245345605381
 24
256.980992221581
 34
0.0
 50
90.0
  0
ARC
  5
27B
  8
回08-記事
  6
CONTINUOUS
 62
     7
 10
-191.3245345605382
 20
260.980992221581
 30
0.0
 40
1.0
 50
0.0
 51
180.0
  0
ARC
  5
27C
  8
回08-記事
  6
CONTINUOUS
 62
     7
 10
-181.3245345605382
 20
260.980992221581
 30
0.0
 40
1.0
 50
0.0
 51
180.0
  0
ARC
  5
27D
  8
回08-記事
  6
CONTINUOUS
 62
     7
 10
-221.3245345605383
 20
260.980992221581
 30
0.0
 40
1.0
 50
0.0
 51
180.0
  0
ARC
  5
27E
  8
回08-記事
  6
CONTINUOUS
 62
     7
 10
-211.3245345605383
 20
260.980992221581
 30
0.0
 40
1.0
 50
0.0
 51
180.0
  0
ARC
  5
27F
  8
回08-記事
  6
CONTINUOUS
 62
     7
 10
-201.3245345605383
 20
260.980992221581
 30
0.0
 40
1.0
 50
0.0
 51
180.0
  0
ARC
  5
280
  8
回08-記事
  6
CONTINUOUS
 62
     7
 10
-241.3245345605383
 20
260.980992221581
 30
0.0
 40
1.0
 50
0.0
 51
180.0
  0
ARC
  5
281
  8
回08-記事
  6
CONTINUOUS
 62
     7
 10
-231.3245345605383
 20
260.980992221581
 30
0.0
 40
1.0
 50
0.0
 51
180.0
  0
ARC
  5
282
  8
回08-記事
  6
CONTINUOUS
 62
     7
 10
-271.3245345605383
 20
260.980992221581
 30
0.0
 40
1.0
 50
0.0
 51
180.0
  0
ARC
  5
283
  8
回08-記事
  6
CONTINUOUS
 62
     7
 10
-261.3245345605383
 20
260.980992221581
 30
0.0
 40
1.0
 50
0.0
 51
180.0
  0
ARC
  5
284
  8
回08-記事
  6
CONTINUOUS
 62
     7
 10
-251.3245345605383
 20
260.980992221581
 30
0.0
 40
1.0
 50
0.0
 51
180.0
  0
ARC
  5
285
  8
回08-記事
  6
CONTINUOUS
 62
     7
 10
-291.3245345605383
 20
260.980992221581
 30
0.0
 40
1.0
 50
0.0
 51
180.0
  0
ARC
  5
286
  8
回08-記事
  6
CONTINUOUS
 62
     7
 10
-281.3245345605383
 20
260.980992221581
 30
0.0
 40
1.0
 50
0.0
 51
180.0
  0
ARC
  5
287
  8
回08-記事
  6
CONTINUOUS
 62
     7
 10
-321.3245345605383
 20
260.980992221581
 30
0.0
 40
1.0
 50
0.0
 51
180.0
  0
ARC
  5
288
  8
回08-記事
  6
CONTINUOUS
 62
     7
 10
-311.3245345605383
 20
260.980992221581
 30
0.0
 40
1.0
 50
0.0
 51
180.0
  0
ARC
  5
289
  8
回08-記事
  6
CONTINUOUS
 62
     7
 10
-301.3245345605383
 20
260.980992221581
 30
0.0
 40
1.0
 50
0.0
 51
180.0
  0
ARC
  5
28A
  8
回08-記事
  6
CONTINUOUS
 62
     7
 10
-341.3245345605383
 20
260.980992221581
 30
0.0
 40
1.0
 50
0.0
 51
180.0
  0
ARC
  5
28B
  8
回08-記事
  6
CONTINUOUS
 62
     7
 10
-331.3245345605383
 20
260.980992221581
 30
0.0
 40
1.0
 50
0.0
 51
180.0
  0
ARC
  5
28C
  8
回08-記事
  6
CONTINUOUS
 62
     7
 10
-361.3245345605383
 20
260.980992221581
 30
0.0
 40
1.0
 50
0.0
 51
180.0
  0
ARC
  5
28D
  8
回08-記事
  6
CONTINUOUS
 62
     7
 10
-351.3245345605383
 20
260.980992221581
 30
0.0
 40
1.0
 50
0.0
 51
180.0
  0
ARC
  5
28E
  8
回08-記事
  6
CONTINUOUS
 62
     7
 10
-391.3245345605383
 20
260.980992221581
 30
0.0
 40
1.0
 50
0.0
 51
180.0
  0
ARC
  5
28F
  8
回08-記事
  6
CONTINUOUS
 62
     7
 10
-381.3245345605383
 20
260.980992221581
 30
0.0
 40
1.0
 50
0.0
 51
180.0
  0
ARC
  5
290
  8
回08-記事
  6
CONTINUOUS
 62
     7
 10
-411.324534560538
 20
260.980992221581
 30
0.0
 40
1.0
 50
0.0
 51
180.0
  0
ARC
  5
291
  8
回08-記事
  6
CONTINUOUS
 62
     7
 10
-401.3245345605382
 20
260.980992221581
 30
0.0
 40
1.0
 50
0.0
 51
180.0
  0
ARC
  5
292
  8
回08-記事
  6
CONTINUOUS
 62
     7
 10
-371.3245345605383
 20
260.980992221581
 30
0.0
 40
1.0
 50
0.0
 51
180.0
  0
ARC
  5
293
  8
回08-記事
  6
CONTINUOUS
 62
     7
 10
-441.3245345605381
 20
260.980992221581
 30
0.0
 40
1.0
 50
0.0
 51
180.0
  0
ARC
  5
294
  8
回08-記事
  6
CONTINUOUS
 62
     7
 10
-431.324534560538
 20
260.980992221581
 30
0.0
 40
1.0
 50
0.0
 51
180.0
  0
ARC
  5
295
  8
回08-記事
  6
CONTINUOUS
 62
     7
 10
-461.324534560538
 20
260.980992221581
 30
0.0
 40
1.0
 50
0.0
 51
180.0
  0
ARC
  5
296
  8
回08-記事
  6
CONTINUOUS
 62
     7
 10
-451.3245345605382
 20
260.980992221581
 30
0.0
 40
1.0
 50
0.0
 51
180.0
  0
LINE
  5
297
  8
回08-記事
  6
CONTINUOUS
 62
     7
 10
-465.324534560538
 20
263.2211059893375
 30
0.0
 11
-465.324534560538
 21
260.980992221581
 31
0.0
  0
LINE
  5
298
  8
回08-記事
  6
CONTINUOUS
 62
     7
 10
-475.8245345605383
 20
263.2211059893375
 30
0.0
 11
-475.8245345605383
 21
266.053885745415
 31
0.0
  0
LINE
  5
299
  8
回08-記事
  6
CONTINUOUS
 62
     7
 10
-476.3245345605382
 20
256.980992221581
 30
0.0
 11
-476.3245345605382
 21
260.980992221581
 31
0.0
  0
ARC
  5
29A
  8
回08-記事
  6
CONTINUOUS
 62
     7
 10
-421.3245345605383
 20
260.980992221581
 30
0.0
 40
1.0
 50
0.0
 51
180.0
  0
LINE
  5
29B
  8
回08-記事
  6
CONTINUOUS
 62
     7
 10
-611.3245345605382
 20
263.2211059893375
 30
0.0
 11
-611.3245345605382
 21
264.2211059893376
 31
0.0
  0
DIMENSION
  5
29C
  8
回08-記事
  6
CONTINUOUS
 62
     5
  2
*D545454
 10
-611.3245345605382
 20
268.1950716756378
 30
0.0
 11
-590.3623044038083
 21
268.1950716756378
 31
0.0
 70
   160
  3
DMC
 13
-616.3245345605382
 23
263.2211059893375
 33
0.0
 14
-611.3245345605382
 24
264.2211059893381
 34
0.0
  0
LINE
  5
2AD
  8
回08-記事
  6
CONTINUOUS
 62
     7
 10
-606.3245345605382
 20
257.980992221581
 30
0.0
 11
-606.3245345605382
 21
260.980992221581
 31
0.0
  0
LINE
  5
2AE
  8
回08-記事
  6
CONTINUOUS
 62
     7
 10
-606.3245345605382
 20
257.980992221581
 30
0.0
 11
-616.3245345605382
 21
257.980992221581
 31
0.0
  0
DIMENSION
  5
2AF
  8
回08-記事
  6
CONTINUOUS
 62
     5
  2
*D555555
 10
-606.3245345605382
 20
232.3615268803169
 30
0.0
 11
-581.9503512702253
 21
232.3615268803169
 31
0.0
 70
   160
  1
(<>)
  3
DMC
 13
-616.3245345605382
 23
257.980992221581
 33
0.0
 14
-606.3245345605382
 24
257.980992221581
 34
0.0
  0
LINE
  5
2C0
  8
回08-記事
  6
CONTINUOUS
 62
     7
 10
-616.3245345605382
 20
257.980992221581
 30
0.0
 11
-616.3245345605382
 21
263.2211059893375
 31
0.0
  0
DIMENSION
  5
2C1
  8
回08-記事
  6
CONTINUOUS
 62
     5
  2
*D565656
 10
-626.633664142713
 20
257.980992221581
 30
0.0
 11
-626.633664142713
 21
222.6536300168566
 31
0.0
 70
   160
  1
0.3{\H0.75x;±0.05}[0.012{\H0.75x;±0.002}]
  3
DMC
 13
-616.3245345605382
 23
263.2211059893375
 33
0.0
 14
-616.3245345605382
 24
257.980992221581
 34
0.0
 50
90.0
  0
LINE
  5
2D2
  8
回08-記事
  6
CONTINUOUS
 62
     7
 10
-475.8245345605383
 20
264.2211059893381
 30
0.0
 11
-611.3245345605382
 21
264.2211059893381
 31
0.0
  0
LINE
  5
2D3
  8
回08-記事
  6
CONTINUOUS
 62
     7
 10
-148.3245345605381
 20
263.2211059893371
 30
0.0
 11
-616.3245345605382
 21
263.2211059893371
 31
0.0
  0
LINE
  5
2D4
  8
回08-記事
  6
CONTINUOUS
 62
     7
 10
-148.3245345605381
 20
260.980992221581
 30
0.0
 11
-616.3245345605382
 21
260.980992221581
 31
0.0
  0
LINE
  5
2D5
  8
回08-記事
  6
CONTINUOUS
 62
     7
 10
-148.8245345605385
 20
266.053885745415
 30
0.0
 11
-475.8245345605387
 21
266.053885745415
 31
0.0
  0
LINE
  5
2D6
  8
回08-記事
  6
CONTINUOUS
 62
     7
 10
-148.3245345605381
 20
256.980992221581
 30
0.0
 11
-476.3245345605382
 21
256.980992221581
 31
0.0
  0
TEXT
  5
2D7
  8
回91-枠英1
 10
-12.86323562766051
 20
206.678413149923
 30
0.0
 40
10.0
  1
Sep/25/2023
  0
TEXT
  5
2DB
  8
回91-枠英1
 10
9.482539939304386
 20
222.7291056534087
 30
0.0
 40
7.0
  1
DATE
  0
LINE
  5
2DC
  8
回91-枠英1
  6
CONTINUOUS
 62
     7
 10
-176.9874419149437
 20
231.0039023948376
 30
0.0
 11
103.0125580850563
 21
231.0039023948376
 31
0.0
  0
LINE
  5
2DD
  8
回08-記事
  6
CONTINUOUS
 62
     5
 10
61.4478282692221
 20
567.0688133767526
 30
0.0
 11
61.4478282692221
 21
615.8188133767525
 31
0.0
  0
LINE
  5
2DE
  8
回08-記事
  6
CONTINUOUS
 62
     5
 10
88.26032826922206
 20
540.2563133767523
 30
0.0
 11
88.26032826922206
 21
642.6313133767526
 31
0.0
  0
TEXT
  5
2DF
  8
回08-記事
  6
CONTINUOUS
 62
     5
 10
-17.65431039603572
 20
611.9914393532257
 30
0.0
 40
7.0
  1
3
  0
TEXT
  5
2E0
  8
回08-記事
  6
CONTINUOUS
 62
     5
 10
-18.10002253360426
 20
639.0556907080507
 30
0.0
 40
7.0
  1
4
  0
LINE
  5
2E1
  8
回08-記事
  6
CONTINUOUS
 62
     5
 10
49.3578282692224
 20
569.6038133767524
 30
0.0
 11
52.86782826922262
 21
562.583813376752
 31
0.0
  0
LINE
  5
2E2
  8
回08-記事
  6
CONTINUOUS
 62
     5
 10
52.86782826922262
 20
562.583813376752
 30
0.0
 11
55.11032826922154
 21
567.0688133767526
 31
0.0
  0
LINE
  5
2E3
  8
回08-記事
  6
CONTINUOUS
 62
     5
 10
42.33782826922197
 20
569.6038133767524
 30
0.0
 11
45.84782826922218
 21
562.583813376752
 31
0.0
  0
LINE
  5
2E4
  8
回08-記事
  6
CONTINUOUS
 62
     5
 10
38.82782826922221
 20
562.583813376752
 30
0.0
 11
42.33782826922197
 21
569.6038133767524
 31
0.0
  0
LINE
  5
2E5
  8
回08-記事
  6
CONTINUOUS
 62
     5
 10
45.84782826922218
 20
562.583813376752
 30
0.0
 11
49.3578282692224
 21
569.6038133767524
 31
0.0
  0
LINE
  5
2E6
  8
回08-記事
  6
CONTINUOUS
 62
     5
 10
28.29782826922155
 20
569.6038133767524
 30
0.0
 11
31.80782826922223
 21
562.583813376752
 31
0.0
  0
LINE
  5
2E7
  8
回08-記事
  6
CONTINUOUS
 62
     5
 10
27.71282826922198
 20
562.8763133767525
 30
0.0
 11
34.73282826922241
 21
566.3863133767526
 31
0.0
  0
LINE
  5
2E8
  8
回08-記事
  6
CONTINUOUS
 62
     5
 10
27.71282826922198
 20
562.8763133767525
 30
0.0
 11
34.73282826922241
 21
559.3663133767531
 31
0.0
  0
LINE
  5
2E9
  8
回08-記事
  6
CONTINUOUS
 62
     5
 10
27.71282826922198
 20
555.856313376752
 30
0.0
 11
34.73282826922241
 21
559.3663133767531
 31
0.0
  0
LINE
  5
2EA
  8
回08-記事
  6
CONTINUOUS
 62
     5
 10
27.71282826922198
 20
548.8363133767525
 30
0.0
 11
34.73282826922241
 21
552.3463133767527
 31
0.0
  0
LINE
  5
2EB
  8
回08-記事
  6
CONTINUOUS
 62
     5
 10
27.71282826922198
 20
555.856313376752
 30
0.0
 11
34.73282826922241
 21
552.3463133767527
 31
0.0
  0
LINE
  5
2EC
  8
回08-記事
  6
CONTINUOUS
 62
     5
 10
27.71282826922198
 20
569.8963133767517
 30
0.0
 11
34.73282826922241
 21
573.4063133767522
 31
0.0
  0
LINE
  5
2ED
  8
回08-記事
  6
CONTINUOUS
 62
     5
 10
27.71282826922198
 20
576.9163133767524
 30
0.0
 11
34.73282826922241
 21
580.4263133767517
 31
0.0
  0
LINE
  5
2EE
  8
回08-記事
  6
CONTINUOUS
 62
     5
 10
27.71282826922198
 20
576.9163133767524
 30
0.0
 11
34.73282826922241
 21
573.4063133767522
 31
0.0
  0
LINE
  5
2EF
  8
回08-記事
  6
CONTINUOUS
 62
     5
 10
27.71282826922198
 20
569.8963133767517
 30
0.0
 11
34.73282826922241
 21
566.3863133767526
 31
0.0
  0
LINE
  5
2F0
  8
回08-記事
  6
CONTINUOUS
 62
     5
 10
21.27782826922157
 20
569.6038133767524
 30
0.0
 11
24.78782826922179
 21
562.583813376752
 31
0.0
  0
LINE
  5
2F1
  8
回08-記事
  6
CONTINUOUS
 62
     5
 10
17.76782826922226
 20
562.583813376752
 30
0.0
 11
21.27782826922157
 21
569.6038133767524
 31
0.0
  0
LINE
  5
2F2
  8
回08-記事
  6
CONTINUOUS
 62
     5
 10
12.01532826922221
 20
565.118813376752
 30
0.0
 11
14.25782826922204
 21
569.6038133767524
 31
0.0
  0
LINE
  5
2F3
  8
回08-記事
  6
CONTINUOUS
 62
     5
 10
14.25782826922204
 20
569.6038133767524
 30
0.0
 11
17.76782826922226
 21
562.583813376752
 31
0.0
  0
LINE
  5
2F4
  8
回08-記事
  6
CONTINUOUS
 62
     5
 10
24.78782826922179
 20
562.583813376752
 30
0.0
 11
28.29782826922155
 21
569.6038133767524
 31
0.0
  0
LINE
  5
2F5
  8
回08-記事
  6
CONTINUOUS
 62
     5
 10
31.22282826922219
 20
582.1813133767517
 30
0.0
 11
31.22282826922219
 21
588.0313133767522
 31
0.0
  0
LINE
  5
2F6
  8
回08-記事
  6
CONTINUOUS
 62
     5
 10
31.80782826922223
 20
562.583813376752
 30
0.0
 11
35.31782826922199
 21
569.6038133767524
 31
0.0
  0
LINE
  5
2F7
  8
回08-記事
  6
CONTINUOUS
 62
     5
 10
31.22282826922219
 20
582.1813133767517
 30
0.0
 11
34.73282826922241
 21
580.4263133767517
 31
0.0
  0
TEXT
  5
2F8
  8
回08-記事
  6
CONTINUOUS
 62
     5
 10
33.13815314188242
 20
589.3168808098518
 30
0.0
 40
7.0
  1
YU
  0
LINE
  5
2F9
  8
回08-記事
  6
CONTINUOUS
 62
     5
 10
35.31782826922199
 20
569.6038133767524
 30
0.0
 11
38.82782826922221
 21
562.583813376752
 31
0.0
  0
LINE
  5
2FA
  8
回08-記事
  6
CONTINUOUS
 62
     5
 10
31.22282826922219
 20
540.2563133767523
 30
0.0
 11
31.22282826922219
 21
547.0813133767522
 31
0.0
  0
LINE
  5
2FB
  8
回08-記事
  6
CONTINUOUS
 62
     5
 10
27.71282826922198
 20
548.8363133767525
 30
0.0
 11
31.22282826922219
 21
547.0813133767522
 31
0.0
  0
TEXT
  5
2FC
  8
回08-記事
  6
CONTINUOUS
 62
     5
 10
13.29391806254716
 20
543.0364107000754
 30
0.0
 40
7.0
  1
YD
  0
TEXT
  5
2FD
  8
回08-記事
  6
CONTINUOUS
 62
     5
 10
-1.493338199599745
 20
567.9777625395586
 30
0.0
 40
7.0
  1
XL
  0
TEXT
  5
2FE
  8
回08-記事
  6
CONTINUOUS
 62
     5
 10
-17.35182759154759
 20
561.2535630265174
 30
0.0
 40
7.0
  1
1
  0
TEXT
  5
2FF
  8
回08-記事
  6
CONTINUOUS
 62
     5
 10
-17.94994170995051
 20
585.0651324001638
 30
0.0
 40
7.0
  1
2
  0
LINE
  5
300
  8
回08-記事
  6
CONTINUOUS
 62
     5
 10
-9.727171730778536
 20
588.0313133767522
 30
0.0
 11
31.22282826922219
 21
588.0313133767522
 31
0.0
  0
LINE
  5
301
  8
回08-記事
  6
CONTINUOUS
 62
     5
 10
-9.727171730778536
 20
565.118813376752
 30
0.0
 11
12.01532826922221
 21
565.118813376752
 31
0.0
  0
TEXT
  5
302
  8
回08-記事
  6
CONTINUOUS
 62
     5
 10
-9.123254154941831
 20
515.8364919068351
 30
0.0
 40
7.0
  1
PIN ASSIGNMENT
  0
LINE
  5
303
  8
回08-記事
  6
CONTINUOUS
 62
     5
 10
31.22282826922219
 20
540.2563133767523
 30
0.0
 11
88.26032826922206
 21
540.2563133767523
 31
0.0
  0
LINE
  5
304
  8
回08-記事
  6
CONTINUOUS
 62
     5
 10
-9.727171730778536
 20
642.6313133767526
 30
0.0
 11
88.26032826922206
 21
642.6313133767526
 31
0.0
  0
LINE
  5
305
  8
回08-記事
  6
CONTINUOUS
 62
     5
 10
-9.727171730778536
 20
615.8188133767525
 30
0.0
 11
61.4478282692221
 21
615.8188133767525
 31
0.0
  0
LINE
  5
306
  8
回08-記事
  6
CONTINUOUS
 62
     5
 10
55.11032826922154
 20
567.0688133767526
 30
0.0
 11
61.4478282692221
 21
567.0688133767526
 31
0.0
  0
TEXT
  5
307
  8
回08-記事
  6
CONTINUOUS
 62
     5
 10
55.48110099209953
 20
557.1148070301497
 30
0.0
 40
7.0
  1
XR
  0
TEXT
  5
308
  8
回91-枠英1
 10
-8.568399224984659
 20
180.737999684098
 30
0.0
 40
10.0
  1
DMC Co., Ltd.
  0
LINE
  5
309
  8
回91-枠英1
 10
-46.9874419149437
 20
231.0039023948376
 30
0.0
 11
-46.9874419149437
 21
171.0039023948375
 31
0.0
  0
TEXT
  5
30A
  8
回91-枠英1
 10
-166.8628244843123
 20
183.108968504067
 30
0.0
 40
7.0
  1
STANDARD TOUCHSCREEN
  0
LINE
  5
30B
  8
回91-枠英1
 10
-176.9874419149437
 20
231.0039023948376
 30
0.0
 11
-176.9874419149437
 21
171.0039023948375
 31
0.0
  0
TEXT
  5
30C
  8
回91-枠英1
 10
-131.6687196311936
 20
192.4911417739878
 30
0.0
 40
7.0
  1
TYPE
  0
LINE
  5
30D
  8
回91-枠英1
 10
-170.9874419149437
 20
181.0039023948376
 30
0.0
 11
-52.9874419149437
 21
181.0039023948376
 31
0.0
  0
TEXT
  5
30E
  8
回91-枠英1
 10
-162.8440537439417
 20
172.4267623512806
 30
0.0
 40
7.0
  1
DIMENSIONAL DRAWING
  0
TEXT
  5
30F
  8
回91-枠英1
 10
-156.0265314622465
 20
205.8240398455056
 30
0.0
 40
10.0
  1
AST-150C140A
  0
TEXT
  5
310
  8
回91-枠英1
 10
-133.8535941536452
 20
222.7291056534087
 30
0.0
 40
7.0
  1
PART No.
  0
LINE
  5
311
  8
回91-枠英1
 10
-176.9874419149437
 20
201.0039023948376
 30
0.0
 11
103.0125580850563
 21
201.0039023948376
 31
0.0
  0
LINE
  5
312
  8
回91-枠英1
 10
-176.9874419149437
 20
191.0039023948376
 30
0.0
 11
-46.9874419149437
 21
191.0039023948376
 31
0.0
  0
LINE
  5
313
  8
回91-枠英1
 10
-176.9874419149437
 20
221.0039023948377
 30
0.0
 11
103.0125580850563
 21
221.0039023948377
 31
0.0
  0
TEXT
  5
314
  8
回91-枠英1
 10
104.4169790887154
 20
663.7925896906969
 30
0.0
 40
3.0
  1
1
  0
TEXT
  5
315
  8
回91-枠英1
 10
61.7419433907089
 20
711.3763255208888
 30
0.0
 40
3.0
  1
J
  0
LINE
  5
316
  8
回91-枠英1
 10
23.0125580850563
 20
716.0039023948375
 30
0.0
 11
23.0125580850563
 21
711.0039023948376
 31
0.0
  0
TEXT
  5
317
  8
回91-枠英1
 10
-18.25805660929109
 20
711.3763255208888
 30
0.0
 40
3.0
  1
I
  0
LINE
  5
318
  8
回91-枠英1
 10
-56.9874419149437
 20
716.0039023948375
 30
0.0
 11
-56.9874419149437
 21
711.0039023948376
 31
0.0
  0
LINE
  5
319
  8
回91-枠英1
 10
108.0125580850563
 20
621.0039023948374
 30
0.0
 11
103.0125580850563
 21
621.0039023948374
 31
0.0
  0
TEXT
  5
31A
  8
回91-枠英1
 10
104.1154803854138
 20
573.7925896906967
 30
0.0
 40
3.0
  1
2
  0
LINE
  5
31B
  8
回91-枠英1
 10
108.0125580850563
 20
531.0039023948376
 30
0.0
 11
103.0125580850563
 21
531.0039023948376
 31
0.0
  0
TEXT
  5
31C
  8
回91-枠英1
 10
104.1099995412132
 20
483.7925896906967
 30
0.0
 40
3.0
  1
3
  0
LINE
  5
31D
  8
回91-枠英1
 10
108.0125580850563
 20
441.0039023948375
 30
0.0
 11
103.0125580850563
 21
441.0039023948375
 31
0.0
  0
TEXT
  5
31E
  8
回91-枠英1
 10
104.0369074211321
 20
393.7925896906969
 30
0.0
 40
3.0
  1
4
  0
LINE
  5
31F
  8
回91-枠英1
 10
108.0125580850563
 20
351.0039023948376
 30
0.0
 11
103.0125580850563
 21
351.0039023948376
 31
0.0
  0
TEXT
  5
320
  8
回91-枠英1
 10
104.0369074211321
 20
303.7925896906969
 30
0.0
 40
3.0
  1
5
  0
LINE
  5
321
  8
回91-枠英1
 10
108.0125580850563
 20
261.0039023948376
 30
0.0
 11
103.0125580850563
 21
261.0039023948376
 31
0.0
  0
TEXT
  5
322
  8
回91-枠英1
 10
104.0369074211321
 20
213.7925896906969
 30
0.0
 40
3.0
  1
6
  0
TEXT
  5
323
  8
回91-枠英1
 10
61.7419433907089
 20
166.3763255208888
 30
0.0
 40
3.0
  1
J
  0
LINE
  5
324
  8
回91-枠英1
 10
23.0125580850563
 20
171.0039023948375
 30
0.0
 11
23.0125580850563
 21
166.0039023948375
 31
0.0
  0
TEXT
  5
325
  8
回91-枠英1
 10
-18.25805660929109
 20
166.3763255208888
 30
0.0
 40
3.0
  1
I
  0
LINE
  5
326
  8
回91-枠英1
 10
-56.9874419149437
 20
171.0039023948375
 30
0.0
 11
-56.9874419149437
 21
166.0039023948375
 31
0.0
  0
LINE
  5
327
  8
回91-枠英1
 10
103.0125580850563
 20
711.0039023948376
 30
0.0
 11
103.0125580850563
 21
171.0039023948375
 31
0.0
  0
LINE
  5
328
  8
回91-枠英1
 10
108.0125580850563
 20
166.0039023948375
 30
0.0
 11
108.0125580850563
 21
716.0039023948375
 31
0.0
  0
TEXT
  5
329
  8
回91-枠英1
 10
-98.25805660929107
 20
711.3763255208888
 30
0.0
 40
3.0
  1
H
  0
LINE
  5
32A
  8
回91-枠英1
 10
-136.9874419149437
 20
716.0039023948375
 30
0.0
 11
-136.9874419149437
 21
711.0039023948376
 31
0.0
  0
TEXT
  5
32B
  8
回91-枠英1
 10
-178.2580566092911
 20
711.3763255208888
 30
0.0
 40
3.0
  1
G
  0
LINE
  5
32C
  8
回91-枠英1
 10
-216.9874419149437
 20
716.0039023948375
 30
0.0
 11
-216.9874419149437
 21
711.0039023948376
 31
0.0
  0
TEXT
  5
32D
  8
回91-枠英1
 10
-258.2580566092911
 20
711.3763255208888
 30
0.0
 40
3.0
  1
F
  0
LINE
  5
32E
  8
回91-枠英1
 10
-296.9874419149437
 20
716.0039023948375
 30
0.0
 11
-296.9874419149437
 21
711.0039023948376
 31
0.0
  0
TEXT
  5
32F
  8
回91-枠英1
 10
-338.2580566092911
 20
711.3763255208888
 30
0.0
 40
3.0
  1
E
  0
LINE
  5
330
  8
回91-枠英1
 10
-376.9874419149437
 20
716.0039023948375
 30
0.0
 11
-376.9874419149437
 21
711.0039023948376
 31
0.0
  0
TEXT
  5
331
  8
回91-枠英1
 10
-418.258056609291
 20
711.3763255208888
 30
0.0
 40
3.0
  1
D
  0
LINE
  5
332
  8
回91-枠英1
 10
-456.9874419149437
 20
716.0039023948375
 30
0.0
 11
-456.9874419149437
 21
711.0039023948376
 31
0.0
  0
TEXT
  5
333
  8
回91-枠英1
 10
-498.2580566092909
 20
711.3763255208888
 30
0.0
 40
3.0
  1
C
  0
LINE
  5
334
  8
回91-枠英1
 10
-536.9874419149437
 20
716.0039023948375
 30
0.0
 11
-536.9874419149437
 21
711.0039023948376
 31
0.0
  0
TEXT
  5
335
  8
回91-枠英1
 10
-578.2580566092908
 20
711.3763255208888
 30
0.0
 40
3.0
  1
B
  0
LINE
  5
336
  8
回91-枠英1
 10
-616.9874419149437
 20
716.0039023948375
 30
0.0
 11
-616.9874419149437
 21
711.0039023948376
 31
0.0
  0
TEXT
  5
337
  8
回91-枠英1
 10
-658.2580566092912
 20
711.3763255208888
 30
0.0
 40
3.0
  1
A
  0
TEXT
  5
338
  8
回91-枠英1
 10
-700.5830209112842
 20
663.7925896906969
 30
0.0
 40
3.0
  1
1
  0
LINE
  5
339
  8
回91-枠英1
 10
-696.9874419149436
 20
621.0039023948374
 30
0.0
 11
-701.9874419149437
 21
621.0039023948374
 31
0.0
  0
TEXT
  5
33A
  8
回91-枠英1
 10
-700.8845196145862
 20
573.7925896906967
 30
0.0
 40
3.0
  1
2
  0
LINE
  5
33B
  8
回91-枠英1
 10
-696.9874419149436
 20
531.0039023948376
 30
0.0
 11
-701.9874419149437
 21
531.0039023948376
 31
0.0
  0
TEXT
  5
33C
  8
回91-枠英1
 10
-700.890000458787
 20
483.7925896906967
 30
0.0
 40
3.0
  1
3
  0
LINE
  5
33D
  8
回91-枠英1
 10
-696.9874419149436
 20
441.0039023948375
 30
0.0
 11
-701.9874419149437
 21
441.0039023948375
 31
0.0
  0
TEXT
  5
33E
  8
回91-枠英1
 10
-700.9630925788679
 20
393.7925896906969
 30
0.0
 40
3.0
  1
4
  0
LINE
  5
33F
  8
回91-枠英1
 10
-696.9874419149436
 20
351.0039023948376
 30
0.0
 11
-701.9874419149437
 21
351.0039023948376
 31
0.0
  0
TEXT
  5
340
  8
回91-枠英1
 10
-700.9630925788679
 20
303.7925896906969
 30
0.0
 40
3.0
  1
5
  0
TEXT
  5
341
  8
回91-枠英1
 10
-98.25805660929107
 20
166.3763255208888
 30
0.0
 40
3.0
  1
H
  0
LINE
  5
342
  8
回91-枠英1
 10
-136.9874419149437
 20
171.0039023948375
 30
0.0
 11
-136.9874419149437
 21
166.0039023948375
 31
0.0
  0
TEXT
  5
343
  8
回91-枠英1
 10
-178.2580566092911
 20
166.3763255208888
 30
0.0
 40
3.0
  1
G
  0
LINE
  5
344
  8
回91-枠英1
 10
-216.9874419149437
 20
171.0039023948375
 30
0.0
 11
-216.9874419149437
 21
166.0039023948375
 31
0.0
  0
TEXT
  5
345
  8
回91-枠英1
 10
-258.2580566092911
 20
166.3763255208888
 30
0.0
 40
3.0
  1
F
  0
LINE
  5
346
  8
回91-枠英1
 10
-296.9874419149437
 20
171.0039023948375
 30
0.0
 11
-296.9874419149437
 21
166.0039023948375
 31
0.0
  0
TEXT
  5
347
  8
回91-枠英1
 10
-338.2580566092911
 20
166.3763255208888
 30
0.0
 40
3.0
  1
E
  0
LINE
  5
348
  8
回91-枠英1
 10
-376.9874419149437
 20
171.0039023948375
 30
0.0
 11
-376.9874419149437
 21
166.0039023948375
 31
0.0
  0
LINE
  5
349
  8
回91-枠英1
 10
-696.9874419149436
 20
261.0039023948376
 30
0.0
 11
-701.9874419149437
 21
261.0039023948376
 31
0.0
  0
TEXT
  5
34A
  8
回91-枠英1
 10
-700.9630925788679
 20
213.7925896906969
 30
0.0
 40
3.0
  1
6
  0
TEXT
  5
34B
  8
回91-枠英1
 10
-418.258056609291
 20
166.3763255208888
 30
0.0
 40
3.0
  1
D
  0
LINE
  5
34C
  8
回91-枠英1
 10
-456.9874419149437
 20
171.0039023948375
 30
0.0
 11
-456.9874419149437
 21
166.0039023948375
 31
0.0
  0
TEXT
  5
34D
  8
回91-枠英1
 10
-498.2580566092909
 20
166.3763255208888
 30
0.0
 40
3.0
  1
C
  0
LINE
  5
34E
  8
回91-枠英1
 10
-536.9874419149437
 20
171.0039023948375
 30
0.0
 11
-536.9874419149437
 21
166.0039023948375
 31
0.0
  0
TEXT
  5
34F
  8
回91-枠英1
 10
-578.2580566092908
 20
166.3763255208888
 30
0.0
 40
3.0
  1
B
  0
LINE
  5
350
  8
回91-枠英1
 10
-616.9874419149437
 20
171.0039023948375
 30
0.0
 11
-616.9874419149437
 21
166.0039023948375
 31
0.0
  0
TEXT
  5
351
  8
回91-枠英1
 10
-658.2580566092912
 20
166.3763255208888
 30
0.0
 40
3.0
  1
A
  0
LINE
  5
352
  8
回91-枠英1
 10
-696.9874419149436
 20
711.0039023948376
 30
0.0
 11
-696.9874419149436
 21
171.0039023948375
 31
0.0
  0
LINE
  5
353
  8
回91-枠英1
 10
-701.9874419149437
 20
166.0039023948375
 30
0.0
 11
-701.9874419149437
 21
716.0039023948375
 31
0.0
  0
LINE
  5
354
  8
回91-枠英1
 10
-696.9874419149436
 20
171.0039023948375
 30
0.0
 11
103.0125580850563
 21
171.0039023948375
 31
0.0
  0
LINE
  5
355
  8
回91-枠英1
 10
108.0125580850563
 20
166.0039023948375
 30
0.0
 11
-701.9874419149437
 21
166.0039023948375
 31
0.0
  0
LINE
  5
356
  8
回91-枠英1
 10
-696.9874419149436
 20
711.0039023948376
 30
0.0
 11
103.0125580850563
 21
711.0039023948376
 31
0.0
  0
LINE
  5
357
  8
回91-枠英1
 10
108.0125580850563
 20
716.0039023948375
 30
0.0
 11
-701.9874419149437
 21
716.0039023948375
 31
0.0
  0
ENDSEC
  0
EOF
