  0
SECTION
  2
HEADER
  9
$ACADVER
  1
AC1009
  9
$INSBASE
 10
0.0
 20
0.0
 30
0.0
  9
$EXTMIN
 10
-616.0335246817667
 20
639.8382417685276
 30
0.0
  9
$EXTMAX
 10
193.9664753182333
 20
1189.838241768527
 30
0.0
  9
$LIMMIN
 10
0.0
 20
0.0
  9
$LIMMAX
 10
3000.0
 20
2500.0
  9
$ORTHOMODE
 70
     0
  9
$REGENMODE
 70
     1
  9
$FILLMODE
 70
     1
  9
$QTEXTMODE
 70
     0
  9
$MIRRTEXT
 70
     1
  9
$DRAGMODE
 70
     2
  9
$LTSCALE
 40
1.0
  9
$OSMODE
 70
    37
  9
$ATTMODE
 70
     1
  9
$TEXTSIZE
 40
5.0
  9
$TRACEWID
 40
1.0
  9
$TEXTSTYLE
  7
STANDARD
  9
$CLAYER
  8
回09-寸法
  9
$CELTYPE
  6
CONTINUOUS
  9
$CECOLOR
 62
     7
  9
$DIMSCALE
 40
1.0
  9
$DIMASZ
 40
2.0
  9
$DIMEXO
 40
0.0
  9
$DIMDLI
 40
0.0
  9
$DIMRND
 40
0.0
  9
$DIMDLE
 40
0.0
  9
$DIMEXE
 40
1.0
  9
$DIMTP
 40
0.0
  9
$DIMTM
 40
0.0
  9
$DIMTXT
 40
6.0
  9
$DIMCEN
 40
2.0
  9
$DIMTSZ
 40
0.0
  9
$DIMTOL
 70
     0
  9
$DIMLIM
 70
     0
  9
$DIMTIH
 70
     0
  9
$DIMTOH
 70
     0
  9
$DIMSE1
 70
     0
  9
$DIMSE2
 70
     0
  9
$DIMTAD
 70
     3
  9
$DIMZIN
 70
     8
  9
$DIMBLK
  1
OPEN
  9
$DIMASO
 70
     1
  9
$DIMSHO
 70
     1
  9
$DIMPOST
  1

  9
$DIMAPOST
  1

  9
$DIMALT
 70
     1
  9
$DIMALTD
 70
     3
  9
$DIMALTF
 40
0.03937007874016
  9
$DIMLFAC
 40
1.0
  9
$DIMTOFL
 70
     1
  9
$DIMTVP
 40
0.0
  9
$DIMTIX
 70
     0
  9
$DIMSOXD
 70
     0
  9
$DIMSAH
 70
     0
  9
$DIMBLK1
  1

  9
$DIMBLK2
  1

  9
$DIMSTYLE
  2
DMC
  9
$DIMCLRD
 70
     5
  9
$DIMCLRE
 70
     5
  9
$DIMCLRT
 70
     5
  9
$DIMTFAC
 40
0.7
  9
$DIMGAP
 40
0.5
  9
$LUNITS
 70
     2
  9
$LUPREC
 70
     4
  9
$SKETCHINC
 40
1.0
  9
$FILLETRAD
 40
5.0
  9
$AUNITS
 70
     0
  9
$AUPREC
 70
     0
  9
$MENU
  1
.
  9
$ELEVATION
 40
0.0
  9
$PELEVATION
 40
0.0
  9
$THICKNESS
 40
0.0
  9
$LIMCHECK
 70
     0
  9
$BLIPMODE
 70
     0
  9
$CHAMFERA
 40
10.0
  9
$CHAMFERB
 40
10.0
  9
$SKPOLY
 70
     0
  9
$TDCREATE
 40
2451810.404221065
  9
$TDUPDATE
 40
2460221.416338033
  9
$TDINDWG
 40
2.828373507
  9
$TDUSRTIMER
 40
2.828371262
  9
$USRTIMER
 70
     1
  9
$ANGBASE
 50
0.0
  9
$ANGDIR
 70
     0
  9
$PDMODE
 70
     0
  9
$PDSIZE
 40
0.0
  9
$PLINEWID
 40
0.2
  9
$COORDS
 70
     0
  9
$SPLFRAME
 70
     0
  9
$SPLINETYPE
 70
     6
  9
$SPLINESEGS
 70
     8
  9
$ATTDIA
 70
     1
  9
$ATTREQ
 70
     1
  9
$HANDLING
 70
     1
  9
$HANDSEED
  5
7DC
  9
$SURFTAB1
 70
     6
  9
$SURFTAB2
 70
     6
  9
$SURFTYPE
 70
     6
  9
$SURFU
 70
     6
  9
$SURFV
 70
     6
  9
$UCSNAME
  2

  9
$UCSORG
 10
0.0
 20
0.0
 30
0.0
  9
$UCSXDIR
 10
1.0
 20
0.0
 30
0.0
  9
$UCSYDIR
 10
0.0
 20
1.0
 30
0.0
  9
$PUCSNAME
  2

  9
$PUCSORG
 10
0.0
 20
0.0
 30
0.0
  9
$PUCSXDIR
 10
1.0
 20
0.0
 30
0.0
  9
$PUCSYDIR
 10
0.0
 20
1.0
 30
0.0
  9
$USERI1
 70
     0
  9
$USERI2
 70
     0
  9
$USERI3
 70
     0
  9
$USERI4
 70
     0
  9
$USERI5
 70
     0
  9
$USERR1
 40
0.0
  9
$USERR2
 40
0.0
  9
$USERR3
 40
0.0
  9
$USERR4
 40
0.0
  9
$USERR5
 40
0.0
  9
$WORLDVIEW
 70
     1
  9
$SHADEDGE
 70
     3
  9
$SHADEDIF
 70
    70
  9
$TILEMODE
 70
     1
  9
$MAXACTVP
 70
    64
  9
$PLIMCHECK
 70
     0
  9
$PEXTMIN
 10
1.000000000000000E+20
 20
1.000000000000000E+20
 30
1.000000000000000E+20
  9
$PEXTMAX
 10
-1.000000000000000E+20
 20
-1.000000000000000E+20
 30
-1.000000000000000E+20
  9
$PLIMMIN
 10
0.0
 20
0.0
  9
$PLIMMAX
 10
420.0
 20
297.0
  9
$UNITMODE
 70
     0
  9
$VISRETAIN
 70
     1
  9
$PLINEGEN
 70
     0
  9
$PSLTSCALE
 70
     1
  0
ENDSEC
  0
SECTION
  2
TABLES
  0
TABLE
  2
VPORT
 70
     1
  0
VPORT
  2
*ACTIVE
 70
     0
 10
0.0
 20
0.0
 11
1.0
 21
1.0
 12
-219.6324536496824
 22
836.146502964787
 13
0.0
 23
0.0
 14
10.0
 24
10.0
 15
10.0
 25
10.0
 16
0.0
 26
0.0
 36
1.0
 17
0.0
 27
0.0
 37
0.0
 40
1021.290614411192
 41
1.002570694087403
 42
50.0
 43
0.0
 44
0.0
 50
0.0
 51
0.0
 71
     0
 72
   500
 73
     1
 74
     1
 75
     0
 76
     0
 77
     0
 78
     0
  0
ENDTAB
  0
TABLE
  2
LTYPE
 70
     4
  0
LTYPE
  2
CONTINUOUS
 70
     0
  3
Solid line
 72
    65
 73
     0
 40
0.0
  0
LTYPE
  2
CENTER2
 70
     0
  3
Center (.5x) ___ _ ___ _ ___ _ ___ _ ___ _ ___
 72
    65
 73
     4
 40
28.575
 49
19.05
 49
-3.174999999999998
 49
3.174999999999998
 49
-3.174999999999998
  0
LTYPE
  2
DASHED2
 70
     0
  3
Dashed (.5x) _ _ _ _ _ _ _ _ _ _ _ _ _ _ _ _ _
 72
    65
 73
     2
 40
9.524999999999996
 49
6.349999999999997
 49
-3.174999999999998
  0
LTYPE
  2
PHANTOM2
 70
     0
  3
Phantom (.5x) ___ _ _ ___ _ _ ___ _ _ ___ _ _
 72
    65
 73
     6
 40
31.75
 49
15.875
 49
-3.174999999999998
 49
3.174999999999998
 49
-3.174999999999998
 49
3.174999999999998
 49
-3.174999999999998
  0
ENDTAB
  0
TABLE
  2
LAYER
 70
    11
  0
LAYER
  2
0
 70
     0
 62
     7
  6
CONTINUOUS
  0
LAYER
  2
DEFPOINTS
 70
     0
 62
     7
  6
CONTINUOUS
  0
LAYER
  2
回04-下接
 70
     0
 62
     7
  6
CONTINUOUS
  0
LAYER
  2
回08-記事
 70
     0
 62
     7
  6
CONTINUOUS
  0
LAYER
  2
回91-枠英1
 70
     0
 62
     7
  6
CONTINUOUS
  0
LAYER
  2
回09-寸法
 70
     0
 62
     7
  6
CONTINUOUS
  0
LAYER
  2
回07-ﾃｰﾙ
 70
     0
 62
     7
  6
CONTINUOUS
  0
LAYER
  2
版01-FER
 70
     0
 62
     7
  6
CONTINUOUS
  0
LAYER
  2
回07-寸法
 70
     0
 62
     7
  6
CONTINUOUS
  0
LAYER
  2
回90-和A1
 70
     0
 62
     7
  6
CONTINUOUS
  0
LAYER
  2
回03-記事
 70
     0
 62
     7
  6
CONTINUOUS
  0
ENDTAB
  0
TABLE
  2
STYLE
 70
     2
  0
STYLE
  2
STANDARD
 70
     0
 40
6.0
 41
1.0
 50
0.0
 71
     0
 42
5.0
  3
isocp.shx
  4
bigfont.shx
  0
STYLE
  2
ANNOTATIVE
 70
     0
 40
0.0
 41
1.0
 50
0.0
 71
     0
 42
0.2
  3
txt.shx
  4

  0
ENDTAB
  0
TABLE
  2
VIEW
 70
     0
  0
ENDTAB
  0
TABLE
  2
UCS
 70
     0
  0
ENDTAB
  0
TABLE
  2
APPID
 70
     5
  0
APPID
  2
ACAD
 70
     0
  0
APPID
  2
ACADANNOTATIVE
 70
     0
  0
APPID
  2
ACAD_DSTYLE_DIMJAG
 70
     0
  0
APPID
  2
ACAD_DSTYLE_DIMTALN
 70
     0
  0
APPID
  2
ACAD_NAV_VCDISPLAY
 70
     0
  0
ENDTAB
  0
TABLE
  2
DIMSTYLE
 70
     2
  0
DIMSTYLE
  2
DMC
 70
     0
  3

  4

  5
OPEN
  6

  7

 40
1.0
 41
2.0
 42
0.0
 43
0.0
 44
1.0
 45
0.0
 46
0.0
 47
0.0
 48
0.0
140
6.0
141
2.0
142
0.0
143
0.03937007874016
144
1.0
145
0.0
146
0.7
147
0.5
 71
     0
 72
     0
 73
     0
 74
     0
 75
     0
 76
     0
 77
     3
 78
     8
170
     1
171
     3
172
     1
173
     0
174
     0
175
     0
176
     5
177
     5
178
     5
  0
DIMSTYLE
  2
KOUSA
 70
     0
  3

  4

  5

  6
OPEN
  7
OPEN
 40
1.0
 41
2.0
 42
0.0
 43
0.0
 44
1.0
 45
0.0
 46
0.0
 47
0.1
 48
0.1
140
3.0
141
2.0
142
0.0
143
25.4
144
1.0
145
0.0
146
0.7
147
0.5
 71
     1
 72
     0
 73
     0
 74
     0
 75
     0
 76
     0
 77
     3
 78
     8
170
     0
171
     2
172
     1
173
     1
174
     0
175
     0
176
     5
177
     5
178
     5
  0
ENDTAB
  0
ENDSEC
  0
SECTION
  2
BLOCKS
  0
BLOCK
  8
0
  2
$MODEL_SPACE
 70
     0
 10
0.0
 20
0.0
 30
0.0
  3
$MODEL_SPACE
  1

  0
ENDBLK
  8
0
  5
22
  0
BLOCK
 67
     1
  8
0
  2
$PAPER_SPACE
 70
     0
 10
0.0
 20
0.0
 30
0.0
  3
$PAPER_SPACE
  1

  0
ENDBLK
  5
27
 67
     1
  8
0
  0
BLOCK
  8
0
  2
_OPEN
 70
     0
 10
0.0
 20
0.0
 30
0.0
  3
_OPEN
  1

  0
LINE
  5
68F
  8
0
  6
BYBLOCK
 62
     0
 10
-1.0
 20
0.166667
 30
0.0
 11
0.0
 21
0.0
 31
0.0
  0
LINE
  5
690
  8
0
  6
BYBLOCK
 62
     0
 10
-1.0
 20
-0.166667
 30
0.0
 11
0.0
 21
0.0
 31
0.0
  0
LINE
  5
691
  8
0
  6
BYBLOCK
 62
     0
 10
0.0
 20
0.0
 30
0.0
 11
-1.0
 21
0.0
 31
0.0
  0
LINE
  5
4EC
  8
0
  6
BYBLOCK
 62
     0
 10
-1.0
 20
0.166667
 30
0.0
 11
0.0
 21
0.0
 31
0.0
  0
LINE
  5
4ED
  8
0
  6
BYBLOCK
 62
     0
 10
-1.0
 20
-0.166667
 30
0.0
 11
0.0
 21
0.0
 31
0.0
  0
LINE
  5
4EE
  8
0
  6
BYBLOCK
 62
     0
 10
0.0
 20
0.0
 30
0.0
 11
-1.0
 21
0.0
 31
0.0
  0
LINE
  5
14
  8
0
  6
CONTINUOUS
 62
     0
 10
-1.0
 20
0.1666666666666666
 30
0.0
 11
0.0
 21
0.0
 31
0.0
  0
LINE
  5
15
  8
0
  6
CONTINUOUS
 62
     0
 10
-1.0
 20
-0.1666666666666666
 30
0.0
 11
0.0
 21
0.0
 31
0.0
  0
LINE
  5
16
  8
0
  6
CONTINUOUS
 62
     0
 10
0.0
 20
0.0
 30
0.0
 11
-1.0
 21
0.0
 31
0.0
  0
ENDBLK
  5
17
  8
0
  0
BLOCK
  8
0
  2
*D111
 70
     1
 10
0.0
 20
0.0
 30
0.0
  3
*D111
  1

  0
LINE
  5
323
  8
回09-寸法
  6
CONTINUOUS
 62
     5
 10
-487.2680206619567
 20
1090.687569424497
 30
0.0
 11
-487.2680206619567
 21
1122.296500246995
 31
0.0
  0
LINE
  5
324
  8
回09-寸法
  6
CONTINUOUS
 62
     5
 10
-147.2680206619567
 20
1090.687569424497
 30
0.0
 11
-147.2680206619567
 21
1122.296500246995
 31
0.0
  0
LINE
  5
325
  8
回09-寸法
  6
CONTINUOUS
 62
     5
 10
-485.2680206619567
 20
1121.296500246995
 30
0.0
 11
-149.2680206619566
 21
1121.296500246995
 31
0.0
  0
INSERT
  5
326
  8
回09-寸法
  6
CONTINUOUS
 62
     5
  2
_OPEN
 10
-487.2680206619567
 20
1121.296500246995
 30
0.0
 41
2.0
 42
2.0
 43
2.0
 50
180.0
  0
INSERT
  5
327
  8
回09-寸法
  6
CONTINUOUS
 62
     5
  2
_OPEN
 10
-147.2680206619567
 20
1121.296500246995
 30
0.0
 41
2.0
 42
2.0
 43
2.0
  0
TEXT
  5
328
  8
回09-寸法
  6
CONTINUOUS
 62
     5
 10
-367.6668395595945
 20
1122.096500246995
 30
0.0
 40
6.0
  1
340 [13.386] (ACTIVE AREA)
1001
ACAD
1000
MTEXTBEGIN
1070
    73
1070
     1
1070
    44
1040
1.0
1070
    74
1070
     0
1000
MTEXTEND
  0
POINT
  5
329
  8
DEFPOINTS
  6
CONTINUOUS
 62
     0
 10
-487.2680206619567
 20
1090.687569424497
 30
0.0
  0
POINT
  5
32A
  8
DEFPOINTS
  6
CONTINUOUS
 62
     0
 10
-147.2680206619567
 20
1090.687569424497
 30
0.0
  0
POINT
  5
32B
  8
DEFPOINTS
  6
CONTINUOUS
 62
     0
 10
-147.2680206619567
 20
1121.296500246995
 30
0.0
  0
ENDBLK
  5
32C
  8
0
 62
     1
  0
BLOCK
  8
0
  2
*D222
 70
     1
 10
0.0
 20
0.0
 30
0.0
  3
*D222
  1

  0
LINE
  5
315
  8
回09-寸法
  6
CONTINUOUS
 62
     5
 10
-488.5280206619567
 20
1092.155569424497
 30
0.0
 11
-488.5280206619567
 21
1135.282218226158
 31
0.0
  0
LINE
  5
316
  8
回09-寸法
  6
CONTINUOUS
 62
     5
 10
-146.0080206619569
 20
1092.155569424497
 30
0.0
 11
-146.0080206619569
 21
1135.282218226158
 31
0.0
  0
LINE
  5
317
  8
回09-寸法
  6
CONTINUOUS
 62
     5
 10
-486.5280206619567
 20
1134.282218226158
 30
0.0
 11
-148.0080206619569
 21
1134.282218226158
 31
0.0
  0
INSERT
  5
318
  8
回09-寸法
  6
CONTINUOUS
 62
     5
  2
_OPEN
 10
-488.5280206619567
 20
1134.282218226158
 30
0.0
 41
2.0
 42
2.0
 43
2.0
 50
180.0
  0
INSERT
  5
319
  8
回09-寸法
  6
CONTINUOUS
 62
     5
  2
_OPEN
 10
-146.0080206619569
 20
1134.282218226158
 30
0.0
 41
2.0
 42
2.0
 43
2.0
  0
TEXT
  5
31A
  8
回09-寸法
  6
CONTINUOUS
 62
     5
 10
-374.8668395595947
 20
1135.082218226158
 30
0.0
 40
6.0
  1
342.52 [13.485] (VIEWING AREA)
1001
ACAD
1000
MTEXTBEGIN
1070
    73
1070
     1
1070
    44
1040
1.0
1070
    74
1070
     0
1000
MTEXTEND
  0
POINT
  5
31B
  8
DEFPOINTS
  6
CONTINUOUS
 62
     0
 10
-488.5280206619567
 20
1092.155569424497
 30
0.0
  0
POINT
  5
31C
  8
DEFPOINTS
  6
CONTINUOUS
 62
     0
 10
-146.0080206619569
 20
1092.155569424497
 30
0.0
  0
POINT
  5
31D
  8
DEFPOINTS
  6
CONTINUOUS
 62
     0
 10
-146.0080206619569
 20
1134.282218226158
 30
0.0
  0
ENDBLK
  5
31E
  8
0
 62
     1
  0
BLOCK
  8
0
  2
*D333
 70
     1
 10
0.0
 20
0.0
 30
0.0
  3
*D333
  1

  0
LINE
  5
308
  8
回09-寸法
  6
CONTINUOUS
 62
     5
 10
-492.2680206619567
 20
1102.187569424497
 30
0.0
 11
-492.2680206619567
 21
1165.497818345485
 31
0.0
  0
LINE
  5
309
  8
回09-寸法
  6
CONTINUOUS
 62
     5
 10
-137.6680206619568
 20
1102.187569424497
 30
0.0
 11
-137.6680206619568
 21
1165.497818345485
 31
0.0
  0
LINE
  5
30A
  8
回09-寸法
  6
CONTINUOUS
 62
     5
 10
-490.2680206619566
 20
1164.497818345485
 30
0.0
 11
-139.6680206619568
 21
1164.497818345485
 31
0.0
  0
INSERT
  5
30B
  8
回09-寸法
  6
CONTINUOUS
 62
     5
  2
_OPEN
 10
-492.2680206619567
 20
1164.497818345485
 30
0.0
 41
2.0
 42
2.0
 43
2.0
 50
180.0
  0
INSERT
  5
30C
  8
回09-寸法
  6
CONTINUOUS
 62
     5
  2
_OPEN
 10
-137.6680206619568
 20
1164.497818345485
 30
0.0
 41
2.0
 42
2.0
 43
2.0
  0
INSERT
  5
30D
  8
回09-寸法
  6
CONTINUOUS
 62
     5
 66
     1
  2
*X454545
 10
0.0
 20
0.0
 30
0.0
  0
SEQEND
  5
43E
  8
回09-寸法
  6
CONTINUOUS
 62
     7
  0
POINT
  5
30E
  8
DEFPOINTS
  6
CONTINUOUS
 62
     0
 10
-492.2680206619567
 20
1102.187569424497
 30
0.0
  0
POINT
  5
30F
  8
DEFPOINTS
  6
CONTINUOUS
 62
     0
 10
-137.6680206619568
 20
1102.187569424497
 30
0.0
  0
POINT
  5
310
  8
DEFPOINTS
  6
CONTINUOUS
 62
     0
 10
-137.6680206619568
 20
1164.497818345485
 30
0.0
  0
ENDBLK
  5
311
  8
0
 62
     1
  0
BLOCK
  8
0
  2
*D444
 70
     1
 10
0.0
 20
0.0
 30
0.0
  3
*D444
  1

  0
LINE
  5
2FB
  8
回09-寸法
  6
CONTINUOUS
 62
     5
 10
-492.2680206619567
 20
1102.187569424497
 30
0.0
 11
-492.2680206619567
 21
1109.215514026519
 31
0.0
  0
LINE
  5
2FC
  8
回09-寸法
  6
CONTINUOUS
 62
     5
 10
-317.2680206619566
 20
1102.187569424497
 30
0.0
 11
-317.2680206619566
 21
1109.215514026519
 31
0.0
  0
LINE
  5
2FD
  8
回09-寸法
  6
CONTINUOUS
 62
     5
 10
-490.2680206619566
 20
1108.215514026519
 30
0.0
 11
-319.2680206619566
 21
1108.215514026519
 31
0.0
  0
INSERT
  5
2FE
  8
回09-寸法
  6
CONTINUOUS
 62
     5
  2
_OPEN
 10
-492.2680206619567
 20
1108.215514026519
 30
0.0
 41
2.0
 42
2.0
 43
2.0
 50
180.0
  0
INSERT
  5
2FF
  8
回09-寸法
  6
CONTINUOUS
 62
     5
  2
_OPEN
 10
-317.2680206619566
 20
1108.215514026519
 30
0.0
 41
2.0
 42
2.0
 43
2.0
  0
TEXT
  5
300
  8
回09-寸法
  6
CONTINUOUS
 62
     5
 10
-468.0776706651753
 20
1109.015394214314
 30
0.0
 40
6.0
  1
175 [6.890] (ACTIVE AREA CENTER)
1001
ACAD
1000
MTEXTBEGIN
1070
    73
1070
     1
1070
    44
1040
1.0
1070
    74
1070
     0
1000
MTEXTEND
  0
POINT
  5
301
  8
DEFPOINTS
  6
CONTINUOUS
 62
     0
 10
-492.2680206619567
 20
1102.187569424497
 30
0.0
  0
POINT
  5
302
  8
DEFPOINTS
  6
CONTINUOUS
 62
     0
 10
-317.2680206619566
 20
1102.187569424497
 30
0.0
  0
POINT
  5
303
  8
DEFPOINTS
  6
CONTINUOUS
 62
     0
 10
-317.2680206619566
 20
1108.215514026519
 30
0.0
  0
ENDBLK
  5
304
  8
0
 62
     1
  0
BLOCK
  8
0
  2
*D555
 70
     1
 10
0.0
 20
0.0
 30
0.0
  3
*D555
  1

  0
LINE
  5
2E1
  8
回09-寸法
  6
CONTINUOUS
 62
     5
 10
-488.5280206619567
 20
1092.155569424497
 30
0.0
 11
-488.5280206619567
 21
1135.282218226158
 31
0.0
  0
LINE
  5
2E2
  8
回09-寸法
  6
CONTINUOUS
 62
     5
 10
-492.2680206619567
 20
1102.187569424497
 30
0.0
 11
-492.2680206619567
 21
1135.282218226158
 31
0.0
  0
LINE
  5
2E3
  8
回09-寸法
  6
CONTINUOUS
 62
     5
 10
-486.5280206619567
 20
1134.282218226158
 30
0.0
 11
-484.5280206619569
 21
1134.282218226158
 31
0.0
  0
LINE
  5
2E4
  8
回09-寸法
  6
CONTINUOUS
 62
     5
 10
-494.2680206619566
 20
1134.282218226158
 30
0.0
 11
-536.8680206619567
 21
1134.282218226158
 31
0.0
  0
LINE
  5
2E5
  8
回09-寸法
  6
CONTINUOUS
 62
     5
 10
-488.5280206619567
 20
1134.282218226158
 30
0.0
 11
-492.2680206619567
 21
1134.282218226158
 31
0.0
  0
INSERT
  5
2E6
  8
回09-寸法
  6
CONTINUOUS
 62
     5
  2
_OPEN
 10
-488.5280206619567
 20
1134.282218226158
 30
0.0
 41
2.0
 42
2.0
 43
2.0
 50
180.0
  0
INSERT
  5
2E7
  8
回09-寸法
  6
CONTINUOUS
 62
     5
  2
_OPEN
 10
-492.2680206619567
 20
1134.282218226158
 30
0.0
 41
2.0
 42
2.0
 43
2.0
  0
TEXT
  5
2E8
  8
回09-寸法
  6
CONTINUOUS
 62
     5
 10
-537.2680206619567
 20
1135.082218226158
 30
0.0
 40
6.0
  1
3.74 [0.147]
1001
ACAD
1000
MTEXTBEGIN
1070
    73
1070
     1
1070
    44
1040
1.0
1070
    74
1070
     0
1000
MTEXTEND
  0
POINT
  5
2E9
  8
DEFPOINTS
  6
CONTINUOUS
 62
     0
 10
-488.5280206619567
 20
1092.155569424497
 30
0.0
  0
POINT
  5
2EA
  8
DEFPOINTS
  6
CONTINUOUS
 62
     0
 10
-492.2680206619567
 20
1102.187569424497
 30
0.0
  0
POINT
  5
2EB
  8
DEFPOINTS
  6
CONTINUOUS
 62
     0
 10
-492.2680206619567
 20
1134.282218226158
 30
0.0
  0
ENDBLK
  5
2EC
  8
0
 62
     1
  0
BLOCK
  8
0
  2
*D666
 70
     1
 10
0.0
 20
0.0
 30
0.0
  3
*D666
  1

  0
LINE
  5
2D2
  8
回09-寸法
  6
CONTINUOUS
 62
     5
 10
-487.2680206619567
 20
1090.687569424497
 30
0.0
 11
-487.2680206619567
 21
1122.296500246995
 31
0.0
  0
LINE
  5
2D3
  8
回09-寸法
  6
CONTINUOUS
 62
     5
 10
-492.2680206619567
 20
1102.187569424497
 30
0.0
 11
-492.2680206619567
 21
1122.296500246995
 31
0.0
  0
LINE
  5
2D4
  8
回09-寸法
  6
CONTINUOUS
 62
     5
 10
-485.2680206619567
 20
1121.296500246995
 30
0.0
 11
-483.2680206619567
 21
1121.296500246995
 31
0.0
  0
LINE
  5
2D5
  8
回09-寸法
  6
CONTINUOUS
 62
     5
 10
-494.2680206619566
 20
1121.296500246995
 30
0.0
 11
-525.4889866449224
 21
1121.296500246995
 31
0.0
  0
LINE
  5
2D6
  8
回09-寸法
  6
CONTINUOUS
 62
     5
 10
-487.2680206619567
 20
1121.296500246995
 30
0.0
 11
-492.2680206619567
 21
1121.296500246995
 31
0.0
  0
INSERT
  5
2D7
  8
回09-寸法
  6
CONTINUOUS
 62
     5
  2
_OPEN
 10
-487.2680206619567
 20
1121.296500246995
 30
0.0
 41
2.0
 42
2.0
 43
2.0
 50
180.0
  0
INSERT
  5
2D8
  8
回09-寸法
  6
CONTINUOUS
 62
     5
  2
_OPEN
 10
-492.2680206619567
 20
1121.296500246995
 30
0.0
 41
2.0
 42
2.0
 43
2.0
  0
TEXT
  5
2D9
  8
回09-寸法
  6
CONTINUOUS
 62
     5
 10
-525.8893347590205
 20
1122.09638043479
 30
0.0
 40
6.0
  1
5 [0.197]
1001
ACAD
1000
MTEXTBEGIN
1070
    73
1070
     1
1070
    44
1040
1.0
1070
    74
1070
     0
1000
MTEXTEND
  0
POINT
  5
2DA
  8
DEFPOINTS
  6
CONTINUOUS
 62
     0
 10
-487.2680206619567
 20
1090.687569424497
 30
0.0
  0
POINT
  5
2DB
  8
DEFPOINTS
  6
CONTINUOUS
 62
     0
 10
-492.2680206619567
 20
1102.187569424497
 30
0.0
  0
POINT
  5
2DC
  8
DEFPOINTS
  6
CONTINUOUS
 62
     0
 10
-492.2680206619567
 20
1121.296500246995
 30
0.0
  0
ENDBLK
  5
2DD
  8
0
 62
     1
  0
BLOCK
  8
0
  2
*D777
 70
     1
 10
0.0
 20
0.0
 30
0.0
  3
*D777
  1

  0
LINE
  5
24C
  8
回09-寸法
  6
CONTINUOUS
 62
     5
 10
2.331979338043198
 20
751.5715197819837
 30
0.0
 11
28.84605976577747
 21
751.5715197819837
 31
0.0
  0
LINE
  5
24D
  8
回09-寸法
  6
CONTINUOUS
 62
     5
 10
2.331979338043198
 20
746.6715197819836
 30
0.0
 11
28.84605976577747
 21
746.6715197819836
 31
0.0
  0
LINE
  5
24E
  8
回09-寸法
  6
CONTINUOUS
 62
     5
 10
27.84605976577747
 20
744.6715197819836
 30
0.0
 11
27.84605976577747
 21
742.6715197819836
 31
0.0
  0
LINE
  5
24F
  8
回09-寸法
  6
CONTINUOUS
 62
     5
 10
27.84605976577747
 20
753.5715197819837
 30
0.0
 11
27.84605976577747
 21
814.7776241914327
 31
0.0
  0
LINE
  5
250
  8
回09-寸法
  6
CONTINUOUS
 62
     5
 10
27.84605976577747
 20
746.6715197819836
 30
0.0
 11
27.84605976577747
 21
751.5715197819837
 31
0.0
  0
INSERT
  5
251
  8
回09-寸法
  6
CONTINUOUS
 62
     5
  2
_OPEN
 10
27.84605976577747
 20
746.6715197819836
 30
0.0
 41
2.0
 42
2.0
 43
2.0
 50
90.0
  0
INSERT
  5
252
  8
回09-寸法
  6
CONTINUOUS
 62
     5
  2
_OPEN
 10
27.84605976577747
 20
751.5715197819837
 30
0.0
 41
2.0
 42
2.0
 43
2.0
 50
270.0
  0
INSERT
  5
253
  8
回09-寸法
  6
CONTINUOUS
 62
     5
 66
     1
  2
*X464646
 10
0.0
 20
0.0
 30
0.0
  0
SEQEND
  5
447
  8
回09-寸法
  6
CONTINUOUS
 62
     7
  0
POINT
  5
254
  8
DEFPOINTS
  6
CONTINUOUS
 62
     0
 10
2.331979338043198
 20
751.5715197819837
 30
0.0
  0
POINT
  5
255
  8
DEFPOINTS
  6
CONTINUOUS
 62
     0
 10
2.331979338043198
 20
746.6715197819836
 30
0.0
  0
POINT
  5
256
  8
DEFPOINTS
  6
CONTINUOUS
 62
     0
 10
27.84605976577747
 20
746.6715197819836
 30
0.0
  0
ENDBLK
  5
257
  8
0
 62
     1
  0
BLOCK
  8
0
  2
*D888
 70
     1
 10
0.0
 20
0.0
 30
0.0
  3
*D888
  1

  0
LINE
  5
23D
  8
回09-寸法
  6
CONTINUOUS
 62
     5
 10
-491.968020661957
 20
754.0715197819837
 30
0.0
 11
-499.4178860420218
 21
754.0715197819837
 31
0.0
  0
LINE
  5
23E
  8
回09-寸法
  6
CONTINUOUS
 62
     5
 10
-492.2680206619569
 20
745.5715197819837
 30
0.0
 11
-499.4178860420218
 21
745.5715197819837
 31
0.0
  0
LINE
  5
23F
  8
回09-寸法
  6
CONTINUOUS
 62
     5
 10
-498.4178860420217
 20
756.0715197819837
 30
0.0
 11
-498.4178860420217
 21
758.0715197819837
 31
0.0
  0
LINE
  5
240
  8
回09-寸法
  6
CONTINUOUS
 62
     5
 10
-498.4178860420217
 20
743.5715197819837
 30
0.0
 11
-498.4178860420217
 21
685.0179175772592
 31
0.0
  0
LINE
  5
241
  8
回09-寸法
  6
CONTINUOUS
 62
     5
 10
-498.4178860420217
 20
754.0715197819837
 30
0.0
 11
-498.4178860420217
 21
745.5715197819837
 31
0.0
  0
INSERT
  5
242
  8
回09-寸法
  6
CONTINUOUS
 62
     5
  2
_OPEN
 10
-498.4178860420217
 20
754.0715197819837
 30
0.0
 41
2.0
 42
2.0
 43
2.0
 50
270.0
  0
INSERT
  5
243
  8
回09-寸法
  6
CONTINUOUS
 62
     5
  2
_OPEN
 10
-498.4178860420217
 20
745.5715197819837
 30
0.0
 41
2.0
 42
2.0
 43
2.0
 50
90.0
  0
INSERT
  5
244
  8
回09-寸法
  6
CONTINUOUS
 62
     5
 66
     1
  2
*X474747
 10
0.0
 20
0.0
 30
0.0
  0
SEQEND
  5
450
  8
回09-寸法
  6
CONTINUOUS
 62
     7
  0
POINT
  5
245
  8
DEFPOINTS
  6
CONTINUOUS
 62
     0
 10
-491.968020661957
 20
754.0715197819837
 30
0.0
  0
POINT
  5
246
  8
DEFPOINTS
  6
CONTINUOUS
 62
     0
 10
-492.2680206619569
 20
745.5715197819837
 30
0.0
  0
POINT
  5
247
  8
DEFPOINTS
  6
CONTINUOUS
 62
     0
 10
-498.4178860420217
 20
745.5715197819837
 30
0.0
  0
ENDBLK
  5
248
  8
0
 62
     1
  0
BLOCK
  8
0
  2
*D999
 70
     1
 10
0.0
 20
0.0
 30
0.0
  3
*D999
  1

  0
LINE
  5
230
  8
回09-寸法
  6
CONTINUOUS
 62
     5
 10
2.331979338043197
 20
751.5715197819835
 30
0.0
 11
2.331979338043197
 21
767.4266164510939
 31
0.0
  0
LINE
  5
231
  8
回09-寸法
  6
CONTINUOUS
 62
     5
 10
-2.6680206619568
 20
752.5715197819835
 30
0.0
 11
-2.6680206619568
 21
767.4266164510939
 31
0.0
  0
LINE
  5
232
  8
回09-寸法
  6
CONTINUOUS
 62
     5
 10
0.3319793380431983
 20
766.4266164510937
 30
0.0
 11
-0.6680206619568017
 21
766.4266164510937
 31
0.0
  0
INSERT
  5
233
  8
回09-寸法
  6
CONTINUOUS
 62
     5
  2
_OPEN
 10
2.331979338043198
 20
766.4266164510937
 30
0.0
 41
2.0
 42
2.0
 43
2.0
  0
INSERT
  5
234
  8
回09-寸法
  6
CONTINUOUS
 62
     5
  2
_OPEN
 10
-2.668020661956799
 20
766.4266164510937
 30
0.0
 41
2.0
 42
2.0
 43
2.0
 50
180.0
  0
TEXT
  5
235
  8
回09-寸法
  6
CONTINUOUS
 62
     5
 10
-15.17885176753775
 20
767.2264966388893
 30
0.0
 40
6.0
  1
5 [0.197]
1001
ACAD
1000
MTEXTBEGIN
1070
    73
1070
     1
1070
    44
1040
1.0
1070
    74
1070
     0
1000
MTEXTEND
  0
POINT
  5
236
  8
DEFPOINTS
  6
CONTINUOUS
 62
     0
 10
2.331979338043197
 20
751.5715197819835
 30
0.0
  0
POINT
  5
237
  8
DEFPOINTS
  6
CONTINUOUS
 62
     0
 10
-2.6680206619568
 20
752.5715197819835
 30
0.0
  0
POINT
  5
238
  8
DEFPOINTS
  6
CONTINUOUS
 62
     0
 10
-2.668020661956799
 20
766.4266164510937
 30
0.0
  0
ENDBLK
  5
239
  8
0
 62
     1
  0
BLOCK
  8
0
  2
*D101010
 70
     1
 10
0.0
 20
0.0
 30
0.0
  3
*D101010
  1

  0
LINE
  5
221
  8
回09-寸法
  6
CONTINUOUS
 62
     5
 10
2.331979338043197
 20
746.6715197819832
 30
0.0
 11
2.331979338043197
 21
716.968409625977
 31
0.0
  0
LINE
  5
222
  8
回09-寸法
  6
CONTINUOUS
 62
     5
 10
-7.668020661956802
 20
746.6715197819832
 30
0.0
 11
-7.668020661956802
 21
716.968409625977
 31
0.0
  0
LINE
  5
223
  8
回09-寸法
  6
CONTINUOUS
 62
     5
 10
4.331979338043193
 20
717.968409625977
 30
0.0
 11
6.331979338043193
 21
717.968409625977
 31
0.0
  0
LINE
  5
224
  8
回09-寸法
  6
CONTINUOUS
 62
     5
 10
-9.668020661956804
 20
717.968409625977
 30
0.0
 11
-50.48426223547362
 21
717.968409625977
 31
0.0
  0
LINE
  5
225
  8
回09-寸法
  6
CONTINUOUS
 62
     5
 10
2.331979338043193
 20
717.968409625977
 30
0.0
 11
-7.668020661956802
 21
717.968409625977
 31
0.0
  0
INSERT
  5
226
  8
回09-寸法
  6
CONTINUOUS
 62
     5
  2
_OPEN
 10
2.331979338043193
 20
717.968409625977
 30
0.0
 41
2.0
 42
2.0
 43
2.0
 50
180.0
  0
INSERT
  5
227
  8
回09-寸法
  6
CONTINUOUS
 62
     5
  2
_OPEN
 10
-7.668020661956802
 20
717.968409625977
 30
0.0
 41
2.0
 42
2.0
 43
2.0
  0
TEXT
  5
228
  8
回09-寸法
  6
CONTINUOUS
 62
     5
 10
-50.88697255429615
 20
718.7682898137722
 30
0.0
 40
6.0
  1
(10 [0.394])
1001
ACAD
1000
MTEXTBEGIN
1070
    73
1070
     1
1070
    44
1040
1.0
1070
    74
1070
     0
1000
MTEXTEND
  0
POINT
  5
229
  8
DEFPOINTS
  6
CONTINUOUS
 62
     0
 10
2.331979338043197
 20
746.6715197819832
 30
0.0
  0
POINT
  5
22A
  8
DEFPOINTS
  6
CONTINUOUS
 62
     0
 10
-7.668020661956802
 20
746.6715197819832
 30
0.0
  0
POINT
  5
22B
  8
DEFPOINTS
  6
CONTINUOUS
 62
     0
 10
-7.668020661956802
 20
717.968409625977
 30
0.0
  0
ENDBLK
  5
22C
  8
0
 62
     1
  0
BLOCK
  8
0
  2
*D111111
 70
     1
 10
0.0
 20
0.0
 30
0.0
  3
*D111111
  1

  0
LINE
  5
207
  8
回09-寸法
  6
CONTINUOUS
 62
     5
 10
-487.2680206619569
 20
1090.687569424497
 30
0.0
 11
-520.9080415346504
 21
1090.687569424497
 31
0.0
  0
LINE
  5
208
  8
回09-寸法
  6
CONTINUOUS
 62
     5
 10
-487.2680206619569
 20
818.6875694244973
 30
0.0
 11
-520.9080415346504
 21
818.6875694244973
 31
0.0
  0
LINE
  5
209
  8
回09-寸法
  6
CONTINUOUS
 62
     5
 10
-519.9080415346506
 20
1088.687569424497
 30
0.0
 11
-519.9080415346506
 21
820.6875694244972
 31
0.0
  0
INSERT
  5
20A
  8
回09-寸法
  6
CONTINUOUS
 62
     5
  2
_OPEN
 10
-519.9080415346506
 20
1090.687569424497
 30
0.0
 41
2.0
 42
2.0
 43
2.0
 50
90.0
  0
INSERT
  5
20B
  8
回09-寸法
  6
CONTINUOUS
 62
     5
  2
_OPEN
 10
-519.9080415346506
 20
818.6875694244973
 30
0.0
 41
2.0
 42
2.0
 43
2.0
 50
270.0
  0
TEXT
  5
20C
  8
回09-寸法
  6
CONTINUOUS
 62
     5
 10
-520.7079217224453
 20
906.3779194212784
 30
0.0
 40
6.0
  1
272 [10.709](ACTIVE AREA)
 50
90.0
1001
ACAD
1000
MTEXTBEGIN
1070
    73
1070
     1
1070
    44
1040
1.0
1070
    74
1070
     0
1000
MTEXTEND
  0
POINT
  5
20D
  8
DEFPOINTS
  6
CONTINUOUS
 62
     0
 10
-487.2680206619569
 20
1090.687569424497
 30
0.0
  0
POINT
  5
20E
  8
DEFPOINTS
  6
CONTINUOUS
 62
     0
 10
-487.2680206619569
 20
818.6875694244973
 30
0.0
  0
POINT
  5
20F
  8
DEFPOINTS
  6
CONTINUOUS
 62
     0
 10
-519.9080415346506
 20
818.6875694244973
 30
0.0
  0
ENDBLK
  5
210
  8
0
 62
     1
  0
BLOCK
  8
0
  2
*D121212
 70
     1
 10
0.0
 20
0.0
 30
0.0
  3
*D121212
  1

  0
LINE
  5
1FA
  8
回09-寸法
  6
CONTINUOUS
 62
     5
 10
-492.2680206619569
 20
807.1875694244972
 30
0.0
 11
-499.9319529723407
 21
807.1875694244972
 31
0.0
  0
LINE
  5
1FB
  8
回09-寸法
  6
CONTINUOUS
 62
     5
 10
-492.2680206619569
 20
954.6875694244972
 30
0.0
 11
-499.9319529723407
 21
954.6875694244972
 31
0.0
  0
LINE
  5
1FC
  8
回09-寸法
  6
CONTINUOUS
 62
     5
 10
-498.9319529723409
 20
809.1875694244972
 30
0.0
 11
-498.9319529723409
 21
952.6875694244973
 31
0.0
  0
INSERT
  5
1FD
  8
回09-寸法
  6
CONTINUOUS
 62
     5
  2
_OPEN
 10
-498.9319529723409
 20
807.1875694244972
 30
0.0
 41
2.0
 42
2.0
 43
2.0
 50
270.0
  0
INSERT
  5
1FE
  8
回09-寸法
  6
CONTINUOUS
 62
     5
  2
_OPEN
 10
-498.931952972341
 20
954.6875694244972
 30
0.0
 41
2.0
 42
2.0
 43
2.0
 50
90.0
  0
TEXT
  5
1FF
  8
回09-寸法
  6
CONTINUOUS
 62
     5
 10
-499.7319529723403
 20
825.9492518515241
 30
0.0
 40
6.0
  1
147.5 [5.807] (ACTIVE AREA CENTER)
 50
90.0
1001
ACAD
1000
MTEXTBEGIN
1070
    73
1070
     1
1070
    44
1040
1.0
1070
    74
1070
     0
1000
MTEXTEND
  0
POINT
  5
200
  8
DEFPOINTS
  6
CONTINUOUS
 62
     0
 10
-492.2680206619569
 20
807.1875694244972
 30
0.0
  0
POINT
  5
201
  8
DEFPOINTS
  6
CONTINUOUS
 62
     0
 10
-492.2680206619569
 20
954.6875694244972
 30
0.0
  0
POINT
  5
202
  8
DEFPOINTS
  6
CONTINUOUS
 62
     0
 10
-498.931952972341
 20
954.6875694244972
 30
0.0
  0
ENDBLK
  5
203
  8
0
 62
     1
  0
BLOCK
  8
0
  2
*D131313
 70
     1
 10
0.0
 20
0.0
 30
0.0
  3
*D131313
  1

  0
LINE
  5
1ED
  8
回09-寸法
  6
CONTINUOUS
 62
     5
 10
-488.5280206619571
 20
1092.155569424497
 30
0.0
 11
-536.5598821439881
 21
1092.155569424497
 31
0.0
  0
LINE
  5
1EE
  8
回09-寸法
  6
CONTINUOUS
 62
     5
 10
-488.5280206619567
 20
817.2195694244972
 30
0.0
 11
-536.5598821439881
 21
817.2195694244972
 31
0.0
  0
LINE
  5
1EF
  8
回09-寸法
  6
CONTINUOUS
 62
     5
 10
-535.5598821439881
 20
1090.155569424497
 30
0.0
 11
-535.5598821439881
 21
819.2195694244972
 31
0.0
  0
INSERT
  5
1F0
  8
回09-寸法
  6
CONTINUOUS
 62
     5
  2
_OPEN
 10
-535.5598821439881
 20
1092.155569424497
 30
0.0
 41
2.0
 42
2.0
 43
2.0
 50
90.0
  0
INSERT
  5
1F1
  8
回09-寸法
  6
CONTINUOUS
 62
     5
  2
_OPEN
 10
-535.5598821439881
 20
817.2195694244972
 30
0.0
 41
2.0
 42
2.0
 43
2.0
 50
270.0
  0
TEXT
  5
1F2
  8
回09-寸法
  6
CONTINUOUS
 62
     5
 10
-536.3598821439876
 20
901.0376011872224
 30
0.0
 40
6.0
  1
274.94 [10.824](VIEWING ARA)
 50
90.0
1001
ACAD
1000
MTEXTBEGIN
1070
    73
1070
     1
1070
    44
1040
1.0
1070
    74
1070
     0
1000
MTEXTEND
  0
POINT
  5
1F3
  8
DEFPOINTS
  6
CONTINUOUS
 62
     0
 10
-488.5280206619571
 20
1092.155569424497
 30
0.0
  0
POINT
  5
1F4
  8
DEFPOINTS
  6
CONTINUOUS
 62
     0
 10
-488.5280206619567
 20
817.2195694244972
 30
0.0
  0
POINT
  5
1F5
  8
DEFPOINTS
  6
CONTINUOUS
 62
     0
 10
-535.5598821439881
 20
817.2195694244972
 30
0.0
  0
ENDBLK
  5
1F6
  8
0
 62
     1
  0
BLOCK
  8
0
  2
*D141414
 70
     1
 10
0.0
 20
0.0
 30
0.0
  3
*D141414
  1

  0
LINE
  5
1E0
  8
回09-寸法
  6
CONTINUOUS
 62
     5
 10
-492.2680206619569
 20
807.1875694244972
 30
0.0
 11
-567.9251695873452
 21
807.1875694244972
 31
0.0
  0
LINE
  5
1E1
  8
回09-寸法
  6
CONTINUOUS
 62
     5
 10
-492.2680206619569
 20
1102.187569424497
 30
0.0
 11
-567.9251695873452
 21
1102.187569424497
 31
0.0
  0
LINE
  5
1E2
  8
回09-寸法
  6
CONTINUOUS
 62
     5
 10
-566.9251695873453
 20
809.1875694244972
 30
0.0
 11
-566.9251695873453
 21
1100.187569424497
 31
0.0
  0
INSERT
  5
1E3
  8
回09-寸法
  6
CONTINUOUS
 62
     5
  2
_OPEN
 10
-566.9251695873453
 20
807.1875694244972
 30
0.0
 41
2.0
 42
2.0
 43
2.0
 50
270.0
  0
INSERT
  5
1E4
  8
回09-寸法
  6
CONTINUOUS
 62
     5
  2
_OPEN
 10
-566.9251695873453
 20
1102.187569424497
 30
0.0
 41
2.0
 42
2.0
 43
2.0
 50
90.0
  0
INSERT
  5
1E5
  8
回09-寸法
  6
CONTINUOUS
 62
     5
 66
     1
  2
*X484848
 10
0.0
 20
0.0
 30
0.0
  0
SEQEND
  5
459
  8
回09-寸法
  6
CONTINUOUS
 62
     7
  0
POINT
  5
1E6
  8
DEFPOINTS
  6
CONTINUOUS
 62
     0
 10
-492.2680206619569
 20
807.1875694244972
 30
0.0
  0
POINT
  5
1E7
  8
DEFPOINTS
  6
CONTINUOUS
 62
     0
 10
-492.2680206619569
 20
1102.187569424497
 30
0.0
  0
POINT
  5
1E8
  8
DEFPOINTS
  6
CONTINUOUS
 62
     0
 10
-566.9251695873453
 20
1102.187569424497
 30
0.0
  0
ENDBLK
  5
1E9
  8
0
 62
     1
  0
BLOCK
  8
0
  2
*D151515
 70
     1
 10
0.0
 20
0.0
 30
0.0
  3
*D151515
  1

  0
LINE
  5
1D1
  8
回09-寸法
  6
CONTINUOUS
 62
     5
 10
-492.2680206619569
 20
807.1875694244972
 30
0.0
 11
-508.5352085340177
 21
807.1875694244972
 31
0.0
  0
LINE
  5
1D2
  8
回09-寸法
  6
CONTINUOUS
 62
     5
 10
-492.2680206619569
 20
817.2195694244972
 30
0.0
 11
-508.5352085340177
 21
817.2195694244972
 31
0.0
  0
LINE
  5
1D3
  8
回09-寸法
  6
CONTINUOUS
 62
     5
 10
-507.5352085340178
 20
819.2195694244972
 30
0.0
 11
-507.5352085340178
 21
821.2195694244972
 31
0.0
  0
LINE
  5
1D4
  8
回09-寸法
  6
CONTINUOUS
 62
     5
 10
-507.5352085340178
 20
805.1875694244973
 30
0.0
 11
-507.5352085340178
 21
754.7713278509802
 31
0.0
  0
LINE
  5
1D5
  8
回09-寸法
  6
CONTINUOUS
 62
     5
 10
-507.5352085340178
 20
817.2195694244972
 30
0.0
 11
-507.5352085340178
 21
807.1875694244972
 31
0.0
  0
INSERT
  5
1D6
  8
回09-寸法
  6
CONTINUOUS
 62
     5
  2
_OPEN
 10
-507.5352085340178
 20
817.2195694244972
 30
0.0
 41
2.0
 42
2.0
 43
2.0
 50
270.0
  0
INSERT
  5
1D7
  8
回09-寸法
  6
CONTINUOUS
 62
     5
  2
_OPEN
 10
-507.5352085340178
 20
807.1875694244972
 30
0.0
 41
2.0
 42
2.0
 43
2.0
 50
90.0
  0
TEXT
  5
1D8
  8
回09-寸法
  6
CONTINUOUS
 62
     5
 10
-508.3350887218128
 20
754.3686175321576
 30
0.0
 40
6.0
  1
(10.03 [0.395])
 50
90.0
1001
ACAD
1000
MTEXTBEGIN
1070
    73
1070
     1
1070
    44
1040
1.0
1070
    74
1070
     0
1000
MTEXTEND
  0
POINT
  5
1D9
  8
DEFPOINTS
  6
CONTINUOUS
 62
     0
 10
-492.2680206619569
 20
807.1875694244972
 30
0.0
  0
POINT
  5
1DA
  8
DEFPOINTS
  6
CONTINUOUS
 62
     0
 10
-492.2680206619569
 20
817.2195694244972
 30
0.0
  0
POINT
  5
1DB
  8
DEFPOINTS
  6
CONTINUOUS
 62
     0
 10
-507.5352085340178
 20
817.2195694244972
 30
0.0
  0
ENDBLK
  5
1DC
  8
0
 62
     1
  0
BLOCK
  8
0
  2
*D161616
 70
     1
 10
0.0
 20
0.0
 30
0.0
  3
*D161616
  1

  0
LINE
  5
1C2
  8
回09-寸法
  6
CONTINUOUS
 62
     5
 10
-492.2680206619569
 20
817.2195694244972
 30
0.0
 11
-512.3366586110774
 21
817.2195694244972
 31
0.0
  0
LINE
  5
1C3
  8
回09-寸法
  6
CONTINUOUS
 62
     5
 10
-492.2680206619569
 20
819.2195694244972
 30
0.0
 11
-512.3366586110774
 21
819.2195694244972
 31
0.0
  0
LINE
  5
1C4
  8
回09-寸法
  6
CONTINUOUS
 62
     5
 10
-511.3366586110772
 20
815.2195694244971
 30
0.0
 11
-511.3366586110772
 21
813.2195694244972
 31
0.0
  0
LINE
  5
1C5
  8
回09-寸法
  6
CONTINUOUS
 62
     5
 10
-511.3366586110772
 20
821.2195694244972
 30
0.0
 11
-511.3366586110772
 21
858.4358109980142
 31
0.0
  0
LINE
  5
1C6
  8
回09-寸法
  6
CONTINUOUS
 62
     5
 10
-511.3366586110772
 20
817.2195694244972
 30
0.0
 11
-511.3366586110772
 21
819.2195694244972
 31
0.0
  0
INSERT
  5
1C7
  8
回09-寸法
  6
CONTINUOUS
 62
     5
  2
_OPEN
 10
-511.3366586110772
 20
817.2195694244972
 30
0.0
 41
2.0
 42
2.0
 43
2.0
 50
90.0
  0
INSERT
  5
1C8
  8
回09-寸法
  6
CONTINUOUS
 62
     5
  2
_OPEN
 10
-511.3366586110772
 20
819.2195694244972
 30
0.0
 41
2.0
 42
2.0
 43
2.0
 50
270.0
  0
TEXT
  5
1C9
  8
回09-寸法
  6
CONTINUOUS
 62
     5
 10
-512.1365387988722
 20
822.8168591056745
 30
0.0
 40
6.0
  1
(2 [0.079])
 50
90.0
1001
ACAD
1000
MTEXTBEGIN
1070
    73
1070
     1
1070
    44
1040
1.0
1070
    74
1070
     0
1000
MTEXTEND
  0
POINT
  5
1CA
  8
DEFPOINTS
  6
CONTINUOUS
 62
     0
 10
-492.2680206619569
 20
817.2195694244972
 30
0.0
  0
POINT
  5
1CB
  8
DEFPOINTS
  6
CONTINUOUS
 62
     0
 10
-492.2680206619569
 20
819.2195694244972
 30
0.0
  0
POINT
  5
1CC
  8
DEFPOINTS
  6
CONTINUOUS
 62
     0
 10
-511.3366586110772
 20
819.2195694244972
 30
0.0
  0
ENDBLK
  5
1CD
  8
0
 62
     1
  0
BLOCK
  8
0
  2
*D171717
 70
     1
 10
0.0
 20
0.0
 30
0.0
  3
*D171717
  1

  0
LINE
  5
1B5
  8
回09-寸法
  6
CONTINUOUS
 62
     5
 10
2.331979338043197
 20
956.5625694244973
 30
0.0
 11
2.331979338043197
 21
883.8031303586388
 31
0.0
  0
LINE
  5
1B6
  8
回09-寸法
  6
CONTINUOUS
 62
     5
 10
-137.6680206619568
 20
932.6402105871451
 30
0.0
 11
-137.6680206619568
 21
883.8031303586388
 31
0.0
  0
LINE
  5
1B7
  8
回09-寸法
  6
CONTINUOUS
 62
     5
 10
0.331979338043193
 20
884.8031303586385
 30
0.0
 11
-135.6680206619568
 21
884.8031303586385
 31
0.0
  0
INSERT
  5
1B8
  8
回09-寸法
  6
CONTINUOUS
 62
     5
  2
_OPEN
 10
2.331979338043193
 20
884.8031303586385
 30
0.0
 41
2.0
 42
2.0
 43
2.0
  0
INSERT
  5
1B9
  8
回09-寸法
  6
CONTINUOUS
 62
     5
  2
_OPEN
 10
-137.6680206619568
 20
884.8031303586385
 30
0.0
 41
2.0
 42
2.0
 43
2.0
 50
180.0
  0
INSERT
  5
1BA
  8
回09-寸法
  6
CONTINUOUS
 62
     5
 66
     1
  2
*X494949
 10
0.0
 20
0.0
 30
0.0
  0
SEQEND
  5
462
  8
回09-寸法
  6
CONTINUOUS
 62
     7
  0
POINT
  5
1BB
  8
DEFPOINTS
  6
CONTINUOUS
 62
     0
 10
2.331979338043197
 20
956.5625694244973
 30
0.0
  0
POINT
  5
1BC
  8
DEFPOINTS
  6
CONTINUOUS
 62
     0
 10
-137.6680206619568
 20
932.6402105871451
 30
0.0
  0
POINT
  5
1BD
  8
DEFPOINTS
  6
CONTINUOUS
 62
     0
 10
-137.6680206619568
 20
884.8031303586385
 30
0.0
  0
ENDBLK
  5
1BE
  8
0
 62
     1
  0
BLOCK
  8
0
  2
*D181818
 70
     1
 10
0.0
 20
0.0
 30
0.0
  3
*D181818
  1

  0
LINE
  5
1A6
  8
回09-寸法
  6
CONTINUOUS
 62
     5
 10
1.83197933804297
 20
951.562569424497
 30
0.0
 11
20.68063635100369
 21
951.562569424497
 31
0.0
  0
LINE
  5
1A7
  8
回09-寸法
  6
CONTINUOUS
 62
     5
 10
1.83197933804297
 20
957.8125694244974
 30
0.0
 11
20.68063635100369
 21
957.8125694244974
 31
0.0
  0
LINE
  5
1A8
  8
回09-寸法
  6
CONTINUOUS
 62
     5
 10
19.68063635100369
 20
959.8125694244972
 30
0.0
 11
19.68063635100369
 21
961.8125694244973
 31
0.0
  0
LINE
  5
1A9
  8
回09-寸法
  6
CONTINUOUS
 62
     5
 10
19.68063635100369
 20
949.5625694244973
 30
0.0
 11
19.68063635100369
 21
892.9835143063867
 31
0.0
  0
LINE
  5
1AA
  8
回09-寸法
  6
CONTINUOUS
 62
     5
 10
19.68063635100369
 20
957.8125694244974
 30
0.0
 11
19.68063635100369
 21
951.562569424497
 31
0.0
  0
INSERT
  5
1AB
  8
回09-寸法
  6
CONTINUOUS
 62
     5
  2
_OPEN
 10
19.68063635100369
 20
957.8125694244974
 30
0.0
 41
2.0
 42
2.0
 43
2.0
 50
270.0
  0
INSERT
  5
1AC
  8
回09-寸法
  6
CONTINUOUS
 62
     5
  2
_OPEN
 10
19.68063635100369
 20
951.562569424497
 30
0.0
 41
2.0
 42
2.0
 43
2.0
 50
90.0
  0
TEXT
  5
1AD
  8
回09-寸法
  6
CONTINUOUS
 62
     5
 10
18.880636351004
 20
892.7630418654414
 30
0.0
 40
6.0
  1
6.25 [0.246]
 50
90.0
1001
ACAD
1000
MTEXTBEGIN
1070
    73
1070
     1
1070
    44
1040
1.0
1070
    74
1070
     0
1000
MTEXTEND
  0
POINT
  5
1AE
  8
DEFPOINTS
  6
CONTINUOUS
 62
     0
 10
1.83197933804297
 20
951.562569424497
 30
0.0
  0
POINT
  5
1AF
  8
DEFPOINTS
  6
CONTINUOUS
 62
     0
 10
1.83197933804297
 20
957.8125694244974
 30
0.0
  0
POINT
  5
1B0
  8
DEFPOINTS
  6
CONTINUOUS
 62
     0
 10
19.68063635100369
 20
957.8125694244974
 30
0.0
  0
ENDBLK
  5
1B1
  8
0
 62
     1
  0
BLOCK
  8
0
  2
*D191919
 70
     1
 10
0.0
 20
0.0
 30
0.0
  3
*D191919
  1

  0
LINE
  5
195
  8
回09-寸法
  6
CONTINUOUS
 62
     5
 10
-488.5280206619567
 20
817.2195694244972
 30
0.0
 11
-536.5598821439881
 21
817.2195694244972
 31
0.0
  0
LINE
  5
196
  8
回09-寸法
  6
CONTINUOUS
 62
     5
 10
-492.2680206619569
 20
807.1875694244972
 30
0.0
 11
-536.5598821439881
 21
807.1875694244972
 31
0.0
  0
LINE
  5
197
  8
回09-寸法
  6
CONTINUOUS
 62
     5
 10
-535.5598821439881
 20
819.2195694244972
 30
0.0
 11
-535.5598821439881
 21
821.2195694244972
 31
0.0
  0
LINE
  5
198
  8
回09-寸法
  6
CONTINUOUS
 62
     5
 10
-535.5598821439881
 20
805.1875694244973
 30
0.0
 11
-535.5598821439881
 21
759.5666034415312
 31
0.0
  0
LINE
  5
199
  8
回09-寸法
  6
CONTINUOUS
 62
     5
 10
-535.5598821439881
 20
817.2195694244972
 30
0.0
 11
-535.5598821439881
 21
807.1875694244972
 31
0.0
  0
INSERT
  5
19A
  8
回09-寸法
  6
CONTINUOUS
 62
     5
  2
_OPEN
 10
-535.5598821439881
 20
817.2195694244972
 30
0.0
 41
2.0
 42
2.0
 43
2.0
 50
270.0
  0
INSERT
  5
19B
  8
回09-寸法
  6
CONTINUOUS
 62
     5
  2
_OPEN
 10
-535.5598821439881
 20
807.1875694244972
 30
0.0
 41
2.0
 42
2.0
 43
2.0
 50
90.0
  0
TEXT
  5
19C
  8
回09-寸法
  6
CONTINUOUS
 62
     5
 10
-536.3597623317832
 20
759.1662553274333
 30
0.0
 40
6.0
  1
10.03 [0.395]
 50
90.0
1001
ACAD
1000
MTEXTBEGIN
1070
    73
1070
     1
1070
    44
1040
1.0
1070
    74
1070
     0
1000
MTEXTEND
  0
POINT
  5
19D
  8
DEFPOINTS
  6
CONTINUOUS
 62
     0
 10
-488.5280206619567
 20
817.2195694244972
 30
0.0
  0
POINT
  5
19E
  8
DEFPOINTS
  6
CONTINUOUS
 62
     0
 10
-492.2680206619569
 20
807.1875694244972
 30
0.0
  0
POINT
  5
19F
  8
DEFPOINTS
  6
CONTINUOUS
 62
     0
 10
-535.5598821439881
 20
807.1875694244972
 30
0.0
  0
ENDBLK
  5
1A0
  8
0
 62
     1
  0
BLOCK
  8
0
  2
*D202020
 70
     1
 10
0.0
 20
0.0
 30
0.0
  3
*D202020
  1

  0
LINE
  5
186
  8
回09-寸法
  6
CONTINUOUS
 62
     5
 10
-487.2680206619569
 20
818.6875694244973
 30
0.0
 11
-520.9080415346502
 21
818.6875694244973
 31
0.0
  0
LINE
  5
187
  8
回09-寸法
  6
CONTINUOUS
 62
     5
 10
-492.2680206619569
 20
807.1875694244972
 30
0.0
 11
-520.9080415346502
 21
807.1875694244972
 31
0.0
  0
LINE
  5
188
  8
回09-寸法
  6
CONTINUOUS
 62
     5
 10
-519.9080415346502
 20
820.6875694244972
 30
0.0
 11
-519.9080415346502
 21
822.6875694244972
 31
0.0
  0
LINE
  5
189
  8
回09-寸法
  6
CONTINUOUS
 62
     5
 10
-519.9080415346502
 20
805.1875694244973
 30
0.0
 11
-519.9080415346502
 21
764.3875694244972
 31
0.0
  0
LINE
  5
18A
  8
回09-寸法
  6
CONTINUOUS
 62
     5
 10
-519.9080415346502
 20
818.6875694244973
 30
0.0
 11
-519.9080415346502
 21
807.1875694244972
 31
0.0
  0
INSERT
  5
18B
  8
回09-寸法
  6
CONTINUOUS
 62
     5
  2
_OPEN
 10
-519.9080415346502
 20
818.6875694244973
 30
0.0
 41
2.0
 42
2.0
 43
2.0
 50
270.0
  0
INSERT
  5
18C
  8
回09-寸法
  6
CONTINUOUS
 62
     5
  2
_OPEN
 10
-519.9080415346502
 20
807.1875694244972
 30
0.0
 41
2.0
 42
2.0
 43
2.0
 50
90.0
  0
TEXT
  5
18D
  8
回09-寸法
  6
CONTINUOUS
 62
     5
 10
-520.7080415346498
 20
763.9875694244972
 30
0.0
 40
6.0
  1
11.5 [0.453]
 50
90.0
1001
ACAD
1000
MTEXTBEGIN
1070
    73
1070
     1
1070
    44
1040
1.0
1070
    74
1070
     0
1000
MTEXTEND
  0
POINT
  5
18E
  8
DEFPOINTS
  6
CONTINUOUS
 62
     0
 10
-487.2680206619569
 20
818.6875694244973
 30
0.0
  0
POINT
  5
18F
  8
DEFPOINTS
  6
CONTINUOUS
 62
     0
 10
-492.2680206619569
 20
807.1875694244972
 30
0.0
  0
POINT
  5
190
  8
DEFPOINTS
  6
CONTINUOUS
 62
     0
 10
-519.9080415346502
 20
807.1875694244972
 30
0.0
  0
ENDBLK
  5
191
  8
0
 62
     1
  0
BLOCK
  8
0
  2
*D212121
 70
     1
 10
0.0
 20
0.0
 30
0.0
  3
*D212121
  1

  0
LINE
  5
177
  8
回09-寸法
  6
CONTINUOUS
 62
     5
 10
-133.2760907535909
 20
962.6863663902256
 30
0.0
 11
-62.32619396198271
 21
962.6863663902256
 31
0.0
  0
LINE
  5
178
  8
回09-寸法
  6
CONTINUOUS
 62
     5
 10
-133.2760907535909
 20
946.6887724587692
 30
0.0
 11
-62.32619396198271
 21
946.6887724587692
 31
0.0
  0
LINE
  5
179
  8
回09-寸法
  6
CONTINUOUS
 62
     5
 10
-63.32619396198271
 20
944.6887724587693
 30
0.0
 11
-63.32619396198271
 21
942.6887724587691
 31
0.0
  0
LINE
  5
17A
  8
回09-寸法
  6
CONTINUOUS
 62
     5
 10
-63.32619396198271
 20
964.6863663902257
 30
0.0
 11
-63.32619396198271
 21
1000.086366390225
 31
0.0
  0
LINE
  5
17B
  8
回09-寸法
  6
CONTINUOUS
 62
     5
 10
-63.32619396198271
 20
946.6887724587692
 30
0.0
 11
-63.32619396198271
 21
962.6863663902256
 31
0.0
  0
INSERT
  5
17C
  8
回09-寸法
  6
CONTINUOUS
 62
     5
  2
_OPEN
 10
-63.32619396198271
 20
946.6887724587692
 30
0.0
 41
2.0
 42
2.0
 43
2.0
 50
90.0
  0
INSERT
  5
17D
  8
回09-寸法
  6
CONTINUOUS
 62
     5
  2
_OPEN
 10
-63.32619396198271
 20
962.6863663902256
 30
0.0
 41
2.0
 42
2.0
 43
2.0
 50
270.0
  0
TEXT
  5
17E
  8
回09-寸法
  6
CONTINUOUS
 62
     5
 10
-64.12619396198238
 20
966.2863663902252
 30
0.0
 40
6.0
  1
16 [0.630]
 50
90.0
1001
ACAD
1000
MTEXTBEGIN
1070
    73
1070
     1
1070
    44
1040
1.0
1070
    74
1070
     0
1000
MTEXTEND
  0
POINT
  5
17F
  8
DEFPOINTS
  6
CONTINUOUS
 62
     0
 10
-133.2760907535909
 20
962.6863663902256
 30
0.0
  0
POINT
  5
180
  8
DEFPOINTS
  6
CONTINUOUS
 62
     0
 10
-133.2760907535909
 20
946.6887724587692
 30
0.0
  0
POINT
  5
181
  8
DEFPOINTS
  6
CONTINUOUS
 62
     0
 10
-63.32619396198271
 20
946.6887724587692
 30
0.0
  0
ENDBLK
  5
182
  8
0
 62
     1
  0
BLOCK
  8
0
  2
*D222222
 70
     1
 10
0.0
 20
0.0
 30
0.0
  3
*D222222
  1

  0
LINE
  5
168
  8
回09-寸法
  6
CONTINUOUS
 62
     5
 10
-137.6680206619568
 20
969.2630228350754
 30
0.0
 11
-137.6680206619568
 21
992.6170981008541
 31
0.0
  0
LINE
  5
169
  8
回09-寸法
  6
CONTINUOUS
 62
     5
 10
-127.5567580931787
 20
957.8125694244969
 30
0.0
 11
-127.5567580931787
 21
992.6170981008541
 31
0.0
  0
LINE
  5
16A
  8
回09-寸法
  6
CONTINUOUS
 62
     5
 10
-139.6680206619568
 20
991.6170981008541
 30
0.0
 11
-141.6680206619568
 21
991.6170981008541
 31
0.0
  0
LINE
  5
16B
  8
回09-寸法
  6
CONTINUOUS
 62
     5
 10
-125.5567580931787
 20
991.6170981008541
 30
0.0
 11
-86.30822995575485
 21
991.6170981008541
 31
0.0
  0
LINE
  5
16C
  8
回09-寸法
  6
CONTINUOUS
 62
     5
 10
-137.6680206619568
 20
991.6170981008541
 30
0.0
 11
-127.5567580931787
 21
991.6170981008541
 31
0.0
  0
INSERT
  5
16D
  8
回09-寸法
  6
CONTINUOUS
 62
     5
  2
_OPEN
 10
-137.6680206619568
 20
991.6170981008541
 30
0.0
 41
2.0
 42
2.0
 43
2.0
  0
INSERT
  5
16E
  8
回09-寸法
  6
CONTINUOUS
 62
     5
  2
_OPEN
 10
-127.5567580931787
 20
991.6170981008541
 30
0.0
 41
2.0
 42
2.0
 43
2.0
 50
180.0
  0
TEXT
  5
16F
  8
回09-寸法
  6
CONTINUOUS
 62
     5
 10
-123.8541562356286
 20
992.4170981008542
 30
0.0
 40
6.0
  1
9.4 [0.370]
1001
ACAD
1000
MTEXTBEGIN
1070
    73
1070
     1
1070
    44
1040
1.0
1070
    74
1070
     0
1000
MTEXTEND
  0
POINT
  5
170
  8
DEFPOINTS
  6
CONTINUOUS
 62
     0
 10
-137.6680206619568
 20
969.2630228350754
 30
0.0
  0
POINT
  5
171
  8
DEFPOINTS
  6
CONTINUOUS
 62
     0
 10
-127.5567580931787
 20
957.8125694244969
 30
0.0
  0
POINT
  5
172
  8
DEFPOINTS
  6
CONTINUOUS
 62
     0
 10
-127.5567580931787
 20
991.6170981008541
 30
0.0
  0
ENDBLK
  5
173
  8
0
 62
     1
  0
BLOCK
  8
0
  2
*D232323
 70
     1
 10
0.0
 20
0.0
 30
0.0
  3
*D232323
  1

  0
LINE
  5
147
  8
回07-寸法
  6
CONTINUOUS
 62
     5
 10
66.71875900809486
 20
825.3296206005137
 30
0.0
 11
94.48634110538458
 21
825.3296206005137
 31
0.0
  0
LINE
  5
148
  8
回07-寸法
  6
CONTINUOUS
 62
     5
 10
66.71875900809486
 20
838.8296206005136
 30
0.0
 11
94.48634110538458
 21
838.8296206005136
 31
0.0
  0
LINE
  5
149
  8
回07-寸法
  6
CONTINUOUS
 62
     5
 10
93.48634110538458
 20
823.3296206005139
 30
0.0
 11
93.48634110538458
 21
821.3296206005137
 31
0.0
  0
LINE
  5
14A
  8
回07-寸法
  6
CONTINUOUS
 62
     5
 10
93.48634110538458
 20
840.8296206005138
 30
0.0
 11
93.48634110538458
 21
842.8296206005139
 31
0.0
  0
LINE
  5
14B
  8
回07-寸法
  6
CONTINUOUS
 62
     5
 10
93.48634110538455
 20
904.1335197604952
 30
0.0
 11
93.48634110538455
 21
838.8296206005136
 31
0.0
  0
INSERT
  5
14C
  8
回07-寸法
  6
CONTINUOUS
 62
     5
 66
     1
  2
*X505050
 10
0.0
 20
0.0
 30
0.0
  0
SEQEND
  5
46B
  8
回09-寸法
  6
CONTINUOUS
 62
     7
  0
LINE
  5
14D
  8
回07-寸法
  6
CONTINUOUS
 62
     5
 10
93.48634110538458
 20
825.3296206005137
 30
0.0
 11
93.48634110538458
 21
838.8296206005136
 31
0.0
  0
LINE
  5
14E
  8
回07-寸法
  6
CONTINUOUS
 62
     5
 10
93.48634110538458
 20
825.3296206005137
 30
0.0
 11
93.48634110538458
 21
838.8296206005136
 31
0.0
  0
INSERT
  5
14F
  8
回07-寸法
  6
CONTINUOUS
 62
     5
 66
     1
  2
_OPEN
 10
93.48634110538458
 20
825.3296206005137
 30
0.0
 41
2.0
 42
2.0
 43
2.0
 50
90.0
  0
SEQEND
  5
150
  8
回09-寸法
  6
CONTINUOUS
 62
     7
  0
INSERT
  5
151
  8
回07-寸法
  6
CONTINUOUS
 62
     5
 66
     1
  2
_OPEN
 10
93.48634110538458
 20
838.8296206005136
 30
0.0
 41
2.0
 42
2.0
 43
2.0
 50
270.0
  0
SEQEND
  5
152
  8
回09-寸法
  6
CONTINUOUS
 62
     7
  0
POINT
  5
153
  8
DEFPOINTS
  6
CONTINUOUS
 62
     0
 10
66.71875900809486
 20
825.3296206005137
 30
0.0
  0
POINT
  5
154
  8
DEFPOINTS
  6
CONTINUOUS
 62
     0
 10
66.71875900809486
 20
838.8296206005136
 30
0.0
  0
POINT
  5
155
  8
DEFPOINTS
  6
CONTINUOUS
 62
     0
 10
93.48634110538458
 20
838.8296206005136
 30
0.0
  0
ENDBLK
  5
156
  8
0
 62
     7
  0
BLOCK
  8
0
  2
*D242424
 70
     1
 10
0.0
 20
0.0
 30
0.0
  3
*D242424
  1

  0
LINE
  5
134
  8
回07-寸法
  6
CONTINUOUS
 62
     5
 10
66.71875900809486
 20
834.3296206005136
 30
0.0
 11
84.23115567284231
 21
834.3296206005136
 31
0.0
  0
LINE
  5
135
  8
回07-寸法
  6
CONTINUOUS
 62
     5
 10
66.71875900809486
 20
838.8296206005136
 30
0.0
 11
84.23115567284231
 21
838.8296206005136
 31
0.0
  0
LINE
  5
136
  8
回07-寸法
  6
CONTINUOUS
 62
     5
 10
83.23115567284231
 20
832.3296206005139
 30
0.0
 11
83.23115567284231
 21
830.3296206005139
 31
0.0
  0
LINE
  5
137
  8
回07-寸法
  6
CONTINUOUS
 62
     5
 10
83.23115567284231
 20
840.8296206005138
 30
0.0
 11
83.23115567284231
 21
842.8296206005139
 31
0.0
  0
LINE
  5
138
  8
回07-寸法
  6
CONTINUOUS
 62
     5
 10
83.23115567284229
 20
903.5721895983018
 30
0.0
 11
83.23115567284229
 21
838.8296206005136
 31
0.0
  0
INSERT
  5
139
  8
回07-寸法
  6
CONTINUOUS
 62
     5
 66
     1
  2
*X515151
 10
0.0
 20
0.0
 30
0.0
  0
SEQEND
  5
474
  8
回09-寸法
  6
CONTINUOUS
 62
     7
  0
LINE
  5
13A
  8
回07-寸法
  6
CONTINUOUS
 62
     5
 10
83.23115567284231
 20
834.3296206005136
 30
0.0
 11
83.23115567284231
 21
838.8296206005136
 31
0.0
  0
LINE
  5
13B
  8
回07-寸法
  6
CONTINUOUS
 62
     5
 10
83.23115567284231
 20
834.3296206005136
 30
0.0
 11
83.23115567284231
 21
838.8296206005136
 31
0.0
  0
INSERT
  5
13C
  8
回07-寸法
  6
CONTINUOUS
 62
     5
 66
     1
  2
_OPEN
 10
83.23115567284231
 20
834.3296206005136
 30
0.0
 41
2.0
 42
2.0
 43
2.0
 50
90.0
  0
SEQEND
  5
13D
  8
回09-寸法
  6
CONTINUOUS
 62
     7
  0
INSERT
  5
13E
  8
回07-寸法
  6
CONTINUOUS
 62
     5
 66
     1
  2
_OPEN
 10
83.23115567284231
 20
838.8296206005136
 30
0.0
 41
2.0
 42
2.0
 43
2.0
 50
270.0
  0
SEQEND
  5
13F
  8
回09-寸法
  6
CONTINUOUS
 62
     7
  0
POINT
  5
140
  8
DEFPOINTS
  6
CONTINUOUS
 62
     0
 10
66.71875900809486
 20
834.3296206005136
 30
0.0
  0
POINT
  5
141
  8
DEFPOINTS
  6
CONTINUOUS
 62
     0
 10
66.71875900809486
 20
838.8296206005136
 30
0.0
  0
POINT
  5
142
  8
DEFPOINTS
  6
CONTINUOUS
 62
     0
 10
83.23115567284231
 20
838.8296206005136
 30
0.0
  0
ENDBLK
  5
143
  8
0
 62
     7
  0
BLOCK
  8
0
  2
*D252525
 70
     1
 10
0.0
 20
0.0
 30
0.0
  3
*D252525
  1

  0
LINE
  5
123
  8
回07-寸法
  6
CONTINUOUS
 62
     5
 10
66.71875900809486
 20
837.389620600514
 30
0.0
 11
74.62925707582829
 21
837.389620600514
 31
0.0
  0
LINE
  5
124
  8
回07-寸法
  6
CONTINUOUS
 62
     5
 10
66.71875900809486
 20
840.2696206005138
 30
0.0
 11
74.62925707582829
 21
840.2696206005138
 31
0.0
  0
LINE
  5
125
  8
回07-寸法
  6
CONTINUOUS
 62
     5
 10
73.62925707582829
 20
835.389620600514
 30
0.0
 11
73.62925707582829
 21
833.3896206005141
 31
0.0
  0
LINE
  5
126
  8
回07-寸法
  6
CONTINUOUS
 62
     5
 10
73.62925707582829
 20
842.2696206005136
 30
0.0
 11
73.62925707582829
 21
917.0296206005135
 31
0.0
  0
LINE
  5
127
  8
回07-寸法
  6
CONTINUOUS
 62
     5
 10
73.62925707582829
 20
837.389620600514
 30
0.0
 11
73.62925707582829
 21
840.2696206005138
 31
0.0
  0
INSERT
  5
128
  8
回07-寸法
  6
CONTINUOUS
 62
     5
 66
     1
  2
_OPEN
 10
73.62925707582829
 20
837.389620600514
 30
0.0
 41
2.0
 42
2.0
 43
2.0
 50
90.0
  0
SEQEND
  5
129
  8
回09-寸法
  6
CONTINUOUS
 62
     7
  0
INSERT
  5
12A
  8
回07-寸法
  6
CONTINUOUS
 62
     5
 66
     1
  2
_OPEN
 10
73.62925707582829
 20
840.2696206005138
 30
0.0
 41
2.0
 42
2.0
 43
2.0
 50
270.0
  0
SEQEND
  5
12B
  8
回09-寸法
  6
CONTINUOUS
 62
     7
  0
INSERT
  5
12C
  8
回07-寸法
  6
CONTINUOUS
 62
     5
 66
     1
  2
*X525252
 10
0.0
 20
0.0
 30
0.0
  0
SEQEND
  5
47D
  8
回09-寸法
  6
CONTINUOUS
 62
     7
  0
POINT
  5
12D
  8
DEFPOINTS
  6
CONTINUOUS
 62
     0
 10
66.71875900809486
 20
837.389620600514
 30
0.0
  0
POINT
  5
12E
  8
DEFPOINTS
  6
CONTINUOUS
 62
     0
 10
66.71875900809486
 20
840.2696206005138
 30
0.0
  0
POINT
  5
12F
  8
DEFPOINTS
  6
CONTINUOUS
 62
     0
 10
73.62925707582829
 20
840.2696206005138
 30
0.0
  0
ENDBLK
  5
130
  8
0
 62
     7
  0
BLOCK
  8
0
  2
*D262626
 70
     1
 10
0.0
 20
0.0
 30
0.0
  3
*D262626
  1

  0
LINE
  5
105
  8
回90-和A1
  6
CONTINUOUS
 62
     5
 10
64.91875900809486
 20
820.8296206005158
 30
0.0
 11
109.0920175465005
 21
820.8296206005158
 31
0.0
  0
LINE
  5
106
  8
回90-和A1
  6
CONTINUOUS
 62
     5
 10
64.91875900809486
 20
843.3296206005159
 30
0.0
 11
109.0920175465005
 21
843.3296206005159
 31
0.0
  0
LINE
  5
107
  8
回90-和A1
  6
CONTINUOUS
 62
     5
 10
108.0920175465005
 20
818.8296206005158
 30
0.0
 11
108.0920175465005
 21
816.8296206005159
 31
0.0
  0
LINE
  5
108
  8
回90-和A1
  6
CONTINUOUS
 62
     5
 10
108.0920175465005
 20
845.3296206005159
 30
0.0
 11
108.0920175465005
 21
910.089915718626
 31
0.0
  0
LINE
  5
109
  8
回90-和A1
  6
CONTINUOUS
 62
     5
 10
108.0920175465005
 20
820.8296206005158
 30
0.0
 11
108.0920175465005
 21
843.3296206005159
 31
0.0
  0
INSERT
  5
10A
  8
回90-和A1
  6
CONTINUOUS
 62
     5
 66
     1
  2
_OPEN
 10
108.0920175465005
 20
820.8296206005158
 30
0.0
 41
2.0
 42
2.0
 43
2.0
 50
90.0
  0
SEQEND
  5
10B
  8
回09-寸法
  6
CONTINUOUS
 62
     7
  0
INSERT
  5
10C
  8
回90-和A1
  6
CONTINUOUS
 62
     5
 66
     1
  2
_OPEN
 10
108.0920175465005
 20
843.3296206005159
 30
0.0
 41
2.0
 42
2.0
 43
2.0
 50
270.0
  0
SEQEND
  5
10D
  8
回09-寸法
  6
CONTINUOUS
 62
     7
  0
INSERT
  5
10E
  8
回90-和A1
  6
CONTINUOUS
 62
     5
 66
     1
  2
*X535353
 10
0.0
 20
0.0
 30
0.0
  0
SEQEND
  5
486
  8
回09-寸法
  6
CONTINUOUS
 62
     7
  0
POINT
  5
10F
  8
DEFPOINTS
  6
CONTINUOUS
 62
     0
 10
64.91875900809486
 20
820.8296206005158
 30
0.0
  0
POINT
  5
110
  8
DEFPOINTS
  6
CONTINUOUS
 62
     0
 10
64.91875900809486
 20
843.3296206005159
 30
0.0
  0
POINT
  5
111
  8
DEFPOINTS
  6
CONTINUOUS
 62
     0
 10
108.0920175465005
 20
843.3296206005159
 30
0.0
  0
ENDBLK
  5
112
  8
0
 62
     7
  0
BLOCK
  8
0
  2
*D272727
 70
     1
 10
0.0
 20
0.0
 30
0.0
  3
*D272727
  1

  0
LINE
  5
E3
  8
回09-寸法
  6
CONTINUOUS
 62
     5
 10
13.77689430921908
 20
954.6875694244972
 30
0.0
 11
37.05895981015736
 21
954.6875694244972
 31
0.0
  0
LINE
  5
E4
  8
回09-寸法
  6
CONTINUOUS
 62
     5
 10
-137.6680206619568
 20
1102.187569424497
 30
0.0
 11
37.05895981015731
 21
1102.187569424497
 31
0.0
  0
LINE
  5
E5
  8
回09-寸法
  6
CONTINUOUS
 62
     5
 10
36.05895981015736
 20
956.6875694244972
 30
0.0
 11
36.05895981015736
 21
1100.187569424497
 31
0.0
  0
INSERT
  5
E6
  8
回09-寸法
  6
CONTINUOUS
 62
     5
  2
_OPEN
 10
36.05895981015736
 20
954.6875694244972
 30
0.0
 41
2.0
 42
2.0
 43
2.0
 50
270.0
  0
INSERT
  5
E7
  8
回09-寸法
  6
CONTINUOUS
 62
     5
  2
_OPEN
 10
36.05895981015733
 20
1102.187569424497
 30
0.0
 41
2.0
 42
2.0
 43
2.0
 50
90.0
  0
TEXT
  5
E8
  8
回09-寸法
  6
CONTINUOUS
 62
     5
 10
35.25895981015765
 20
1005.937569424497
 30
0.0
 40
6.0
  1
147.5 [5.807]
 50
90.0
1001
ACAD
1000
MTEXTBEGIN
1070
    73
1070
     1
1070
    44
1040
1.0
1070
    74
1070
     0
1000
MTEXTEND
  0
POINT
  5
E9
  8
DEFPOINTS
  6
CONTINUOUS
 62
     0
 10
13.77689430921908
 20
954.6875694244972
 30
0.0
  0
POINT
  5
EA
  8
DEFPOINTS
  6
CONTINUOUS
 62
     0
 10
-137.6680206619568
 20
1102.187569424497
 30
0.0
  0
POINT
  5
EB
  8
DEFPOINTS
  6
CONTINUOUS
 62
     0
 10
36.05895981015733
 20
1102.187569424497
 30
0.0
  0
ENDBLK
  5
EC
  8
0
 62
     7
  0
BLOCK
  8
0
  2
*D282828
 70
     1
 10
0.0
 20
0.0
 30
0.0
  3
*D282828
  1

  0
LINE
  5
D4
  8
回09-寸法
  6
CONTINUOUS
 62
     5
 10
-488.8280206619573
 20
1093.455569424497
 30
0.0
 11
-488.8280206619573
 21
1155.884768578752
 31
0.0
  0
LINE
  5
D5
  8
回09-寸法
  6
CONTINUOUS
 62
     5
 10
-145.708020661957
 20
1093.455569424497
 30
0.0
 11
-145.708020661957
 21
1155.884768578752
 31
0.0
  0
LINE
  5
D6
  8
回09-寸法
  6
CONTINUOUS
 62
     5
 10
-486.8280206619576
 20
1154.884768578752
 30
0.0
 11
-147.708020661957
 21
1154.884768578752
 31
0.0
  0
INSERT
  5
D7
  8
回09-寸法
  6
CONTINUOUS
 62
     5
  2
_OPEN
 10
-488.8280206619573
 20
1154.884768578752
 30
0.0
 41
2.0
 42
2.0
 43
2.0
 50
180.0
  0
INSERT
  5
D8
  8
回09-寸法
  6
CONTINUOUS
 62
     5
  2
_OPEN
 10
-145.708020661957
 20
1154.884768578752
 30
0.0
 41
2.0
 42
2.0
 43
2.0
  0
TEXT
  5
D9
  8
回09-寸法
  6
CONTINUOUS
 62
     5
 10
-343.3788517675382
 20
1155.684648766547
 30
0.0
 40
6.0
  1
343.12 [13.509]
1001
ACAD
1000
MTEXTBEGIN
1070
    73
1070
     1
1070
    44
1040
1.0
1070
    74
1070
     0
1000
MTEXTEND
  0
POINT
  5
DA
  8
DEFPOINTS
  6
CONTINUOUS
 62
     0
 10
-488.8280206619573
 20
1093.455569424497
 30
0.0
  0
POINT
  5
DB
  8
DEFPOINTS
  6
CONTINUOUS
 62
     0
 10
-145.708020661957
 20
1093.455569424497
 30
0.0
  0
POINT
  5
DC
  8
DEFPOINTS
  6
CONTINUOUS
 62
     0
 10
-145.708020661957
 20
1154.884768578752
 30
0.0
  0
ENDBLK
  5
DD
  8
0
 62
     7
  0
BLOCK
  8
0
  2
*D292929
 70
     1
 10
0.0
 20
0.0
 30
0.0
  3
*D292929
  1

  0
LINE
  5
C5
  8
回09-寸法
  6
CONTINUOUS
 62
     5
 10
-488.8280206619573
 20
1093.455569424497
 30
0.0
 11
-488.8280206619573
 21
1155.884768578752
 31
0.0
  0
LINE
  5
C6
  8
回09-寸法
  6
CONTINUOUS
 62
     5
 10
-492.2680206619567
 20
1102.187569424497
 30
0.0
 11
-492.2680206619567
 21
1155.884768578752
 31
0.0
  0
LINE
  5
C7
  8
回09-寸法
  6
CONTINUOUS
 62
     5
 10
-486.8280206619576
 20
1154.884768578752
 30
0.0
 11
-484.8280206619573
 21
1154.884768578752
 31
0.0
  0
LINE
  5
C8
  8
回09-寸法
  6
CONTINUOUS
 62
     5
 10
-494.2680206619566
 20
1154.884768578752
 30
0.0
 11
-536.8680206619566
 21
1154.884768578752
 31
0.0
  0
LINE
  5
C9
  8
回09-寸法
  6
CONTINUOUS
 62
     5
 10
-488.8280206619573
 20
1154.884768578752
 30
0.0
 11
-492.2680206619567
 21
1154.884768578752
 31
0.0
  0
INSERT
  5
CA
  8
回09-寸法
  6
CONTINUOUS
 62
     5
  2
_OPEN
 10
-488.8280206619573
 20
1154.884768578752
 30
0.0
 41
2.0
 42
2.0
 43
2.0
 50
180.0
  0
INSERT
  5
CB
  8
回09-寸法
  6
CONTINUOUS
 62
     5
  2
_OPEN
 10
-492.2680206619567
 20
1154.884768578752
 30
0.0
 41
2.0
 42
2.0
 43
2.0
  0
TEXT
  5
CC
  8
回09-寸法
  6
CONTINUOUS
 62
     5
 10
-537.2680206619564
 20
1155.684768578752
 30
0.0
 40
6.0
  1
3.44 [0.135]
1001
ACAD
1000
MTEXTBEGIN
1070
    73
1070
     1
1070
    44
1040
1.0
1070
    74
1070
     0
1000
MTEXTEND
  0
POINT
  5
CD
  8
DEFPOINTS
  6
CONTINUOUS
 62
     0
 10
-488.8280206619573
 20
1093.455569424497
 30
0.0
  0
POINT
  5
CE
  8
DEFPOINTS
  6
CONTINUOUS
 62
     0
 10
-492.2680206619567
 20
1102.187569424497
 30
0.0
  0
POINT
  5
CF
  8
DEFPOINTS
  6
CONTINUOUS
 62
     0
 10
-492.2680206619567
 20
1154.884768578752
 30
0.0
  0
ENDBLK
  5
D0
  8
0
 62
     7
  0
BLOCK
  8
0
  2
*D303030
 70
     1
 10
0.0
 20
0.0
 30
0.0
  3
*D303030
  1

  0
LINE
  5
B6
  8
回09-寸法
  6
CONTINUOUS
 62
     5
 10
-145.708020661957
 20
1093.455569424497
 30
0.0
 11
-145.708020661957
 21
1155.884768578752
 31
0.0
  0
LINE
  5
B7
  8
回09-寸法
  6
CONTINUOUS
 62
     5
 10
-137.6680206619568
 20
1102.187569424497
 30
0.0
 11
-137.6680206619568
 21
1155.884768578752
 31
0.0
  0
LINE
  5
B8
  8
回09-寸法
  6
CONTINUOUS
 62
     5
 10
-147.708020661957
 20
1154.884768578752
 30
0.0
 11
-149.708020661957
 21
1154.884768578752
 31
0.0
  0
LINE
  5
B9
  8
回09-寸法
  6
CONTINUOUS
 62
     5
 10
-135.6680206619568
 20
1154.884768578752
 30
0.0
 11
-93.66802066195685
 21
1154.884768578752
 31
0.0
  0
LINE
  5
BA
  8
回09-寸法
  6
CONTINUOUS
 62
     5
 10
-145.708020661957
 20
1154.884768578752
 30
0.0
 11
-137.6680206619568
 21
1154.884768578752
 31
0.0
  0
INSERT
  5
BB
  8
回09-寸法
  6
CONTINUOUS
 62
     5
  2
_OPEN
 10
-145.708020661957
 20
1154.884768578752
 30
0.0
 41
2.0
 42
2.0
 43
2.0
  0
INSERT
  5
BC
  8
回09-寸法
  6
CONTINUOUS
 62
     5
  2
_OPEN
 10
-137.6680206619568
 20
1154.884768578752
 30
0.0
 41
2.0
 42
2.0
 43
2.0
 50
180.0
  0
TEXT
  5
BD
  8
回09-寸法
  6
CONTINUOUS
 62
     5
 10
-134.0680206619568
 20
1155.684768578752
 30
0.0
 40
6.0
  1
8.04 [0.317]
1001
ACAD
1000
MTEXTBEGIN
1070
    73
1070
     1
1070
    44
1040
1.0
1070
    74
1070
     0
1000
MTEXTEND
  0
POINT
  5
BE
  8
DEFPOINTS
  6
CONTINUOUS
 62
     0
 10
-145.708020661957
 20
1093.455569424497
 30
0.0
  0
POINT
  5
BF
  8
DEFPOINTS
  6
CONTINUOUS
 62
     0
 10
-137.6680206619568
 20
1102.187569424497
 30
0.0
  0
POINT
  5
C0
  8
DEFPOINTS
  6
CONTINUOUS
 62
     0
 10
-137.6680206619568
 20
1154.884768578752
 30
0.0
  0
ENDBLK
  5
C1
  8
0
 62
     7
  0
BLOCK
  8
0
  2
*D313131
 70
     1
 10
0.0
 20
0.0
 30
0.0
  3
*D313131
  1

  0
LINE
  5
A9
  8
回09-寸法
  6
CONTINUOUS
 62
     5
 10
-488.8280206619578
 20
1093.455569424497
 30
0.0
 11
-554.6269897834219
 21
1093.455569424497
 31
0.0
  0
LINE
  5
AA
  8
回09-寸法
  6
CONTINUOUS
 62
     5
 10
-488.8280206619578
 20
815.9195694244971
 30
0.0
 11
-554.6269897834219
 21
815.9195694244971
 31
0.0
  0
LINE
  5
AB
  8
回09-寸法
  6
CONTINUOUS
 62
     5
 10
-553.6269897834221
 20
1091.455569424497
 30
0.0
 11
-553.6269897834221
 21
817.919569424497
 31
0.0
  0
INSERT
  5
AC
  8
回09-寸法
  6
CONTINUOUS
 62
     5
  2
_OPEN
 10
-553.6269897834221
 20
1093.455569424497
 30
0.0
 41
2.0
 42
2.0
 43
2.0
 50
90.0
  0
INSERT
  5
AD
  8
回09-寸法
  6
CONTINUOUS
 62
     5
  2
_OPEN
 10
-553.6269897834221
 20
815.9195694244971
 30
0.0
 41
2.0
 42
2.0
 43
2.0
 50
270.0
  0
TEXT
  5
AE
  8
回09-寸法
  6
CONTINUOUS
 62
     5
 10
-554.4268699712167
 20
927.976738318916
 30
0.0
 40
6.0
  1
277.54 [10.927]
 50
90.0
1001
ACAD
1000
MTEXTBEGIN
1070
    73
1070
     1
1070
    44
1040
1.0
1070
    74
1070
     0
1000
MTEXTEND
  0
POINT
  5
AF
  8
DEFPOINTS
  6
CONTINUOUS
 62
     0
 10
-488.8280206619578
 20
1093.455569424497
 30
0.0
  0
POINT
  5
B0
  8
DEFPOINTS
  6
CONTINUOUS
 62
     0
 10
-488.8280206619578
 20
815.9195694244971
 30
0.0
  0
POINT
  5
B1
  8
DEFPOINTS
  6
CONTINUOUS
 62
     0
 10
-553.6269897834221
 20
815.9195694244971
 30
0.0
  0
ENDBLK
  5
B2
  8
0
 62
     7
  0
BLOCK
  8
0
  2
*D323232
 70
     1
 10
0.0
 20
0.0
 30
0.0
  3
*D323232
  1

  0
LINE
  5
9A
  8
回09-寸法
  6
CONTINUOUS
 62
     5
 10
-488.8280206619578
 20
815.9195694244971
 30
0.0
 11
-554.6269897834219
 21
815.9195694244971
 31
0.0
  0
LINE
  5
9B
  8
回09-寸法
  6
CONTINUOUS
 62
     5
 10
-492.2680206619569
 20
807.1875694244972
 30
0.0
 11
-554.6269897834219
 21
807.1875694244972
 31
0.0
  0
LINE
  5
9C
  8
回09-寸法
  6
CONTINUOUS
 62
     5
 10
-553.6269897834221
 20
817.919569424497
 30
0.0
 11
-553.6269897834221
 21
819.9195694244972
 31
0.0
  0
LINE
  5
9D
  8
回09-寸法
  6
CONTINUOUS
 62
     5
 10
-553.6269897834221
 20
805.1875694244973
 30
0.0
 11
-553.6269897834221
 21
761.3875694244971
 31
0.0
  0
LINE
  5
9E
  8
回09-寸法
  6
CONTINUOUS
 62
     5
 10
-553.6269897834221
 20
815.9195694244971
 30
0.0
 11
-553.6269897834221
 21
807.1875694244972
 31
0.0
  0
INSERT
  5
9F
  8
回09-寸法
  6
CONTINUOUS
 62
     5
  2
_OPEN
 10
-553.6269897834221
 20
815.9195694244971
 30
0.0
 41
2.0
 42
2.0
 43
2.0
 50
270.0
  0
INSERT
  5
A0
  8
回09-寸法
  6
CONTINUOUS
 62
     5
  2
_OPEN
 10
-553.6269897834221
 20
807.1875694244972
 30
0.0
 41
2.0
 42
2.0
 43
2.0
 50
90.0
  0
TEXT
  5
A1
  8
回09-寸法
  6
CONTINUOUS
 62
     5
 10
-554.4269897834217
 20
760.9875694244972
 30
0.0
 40
6.0
  1
8.73 [0.344]
 50
90.0
1001
ACAD
1000
MTEXTBEGIN
1070
    73
1070
     1
1070
    44
1040
1.0
1070
    74
1070
     0
1000
MTEXTEND
  0
POINT
  5
A2
  8
DEFPOINTS
  6
CONTINUOUS
 62
     0
 10
-488.8280206619578
 20
815.9195694244971
 30
0.0
  0
POINT
  5
A3
  8
DEFPOINTS
  6
CONTINUOUS
 62
     0
 10
-492.2680206619569
 20
807.1875694244972
 30
0.0
  0
POINT
  5
A4
  8
DEFPOINTS
  6
CONTINUOUS
 62
     0
 10
-553.6269897834221
 20
807.1875694244972
 30
0.0
  0
ENDBLK
  5
A5
  8
0
 62
     7
  0
BLOCK
  8
0
  2
*D333333
 70
     1
 10
0.0
 20
0.0
 30
0.0
  3
*D333333
  1

  0
LINE
  5
8B
  8
回09-寸法
  6
CONTINUOUS
 62
     5
 10
-488.8280206619578
 20
1093.455569424497
 30
0.0
 11
-554.6269897834219
 21
1093.455569424497
 31
0.0
  0
LINE
  5
8C
  8
回09-寸法
  6
CONTINUOUS
 62
     5
 10
-492.2680206619569
 20
1102.187569424497
 30
0.0
 11
-554.6269897834219
 21
1102.187569424497
 31
0.0
  0
LINE
  5
8D
  8
回09-寸法
  6
CONTINUOUS
 62
     5
 10
-553.6269897834221
 20
1091.455569424497
 30
0.0
 11
-553.6269897834221
 21
1089.455569424497
 31
0.0
  0
LINE
  5
8E
  8
回09-寸法
  6
CONTINUOUS
 62
     5
 10
-553.6269897834221
 20
1104.187569424497
 30
0.0
 11
-553.6269897834221
 21
1147.987569424497
 31
0.0
  0
LINE
  5
8F
  8
回09-寸法
  6
CONTINUOUS
 62
     5
 10
-553.6269897834221
 20
1093.455569424497
 30
0.0
 11
-553.6269897834221
 21
1102.187569424497
 31
0.0
  0
INSERT
  5
90
  8
回09-寸法
  6
CONTINUOUS
 62
     5
  2
_OPEN
 10
-553.6269897834221
 20
1093.455569424497
 30
0.0
 41
2.0
 42
2.0
 43
2.0
 50
90.0
  0
INSERT
  5
91
  8
回09-寸法
  6
CONTINUOUS
 62
     5
  2
_OPEN
 10
-553.6269897834221
 20
1102.187569424497
 30
0.0
 41
2.0
 42
2.0
 43
2.0
 50
270.0
  0
TEXT
  5
92
  8
回09-寸法
  6
CONTINUOUS
 62
     5
 10
-554.4269897834216
 20
1105.787569424497
 30
0.0
 40
6.0
  1
8.73 [0.344]
 50
90.0
1001
ACAD
1000
MTEXTBEGIN
1070
    73
1070
     1
1070
    44
1040
1.0
1070
    74
1070
     0
1000
MTEXTEND
  0
POINT
  5
93
  8
DEFPOINTS
  6
CONTINUOUS
 62
     0
 10
-488.8280206619578
 20
1093.455569424497
 30
0.0
  0
POINT
  5
94
  8
DEFPOINTS
  6
CONTINUOUS
 62
     0
 10
-492.2680206619569
 20
1102.187569424497
 30
0.0
  0
POINT
  5
95
  8
DEFPOINTS
  6
CONTINUOUS
 62
     0
 10
-553.6269897834221
 20
1102.187569424497
 30
0.0
  0
ENDBLK
  5
96
  8
0
 62
     7
  0
BLOCK
  8
0
  2
*D343434
 70
     1
 10
0.0
 20
0.0
 30
0.0
  3
*D343434
  1

  0
LINE
  5
6B
  8
回09-寸法
  6
CONTINUOUS
 62
     5
 10
-137.6680206619568
 20
963.6340042489347
 30
0.0
 11
-137.6680206619568
 21
980.9926859460956
 31
0.0
  0
LINE
  5
6C
  8
回09-寸法
  6
CONTINUOUS
 62
     5
 10
-132.8945912586809
 20
962.6105509675507
 30
0.0
 11
-132.8945912586809
 21
980.9926859460956
 31
0.0
  0
LINE
  5
6D
  8
回09-寸法
  6
CONTINUOUS
 62
     5
 10
-139.6680206619568
 20
979.9926859460954
 30
0.0
 11
-141.6680206619568
 21
979.9926859460954
 31
0.0
  0
LINE
  5
6E
  8
回09-寸法
  6
CONTINUOUS
 62
     5
 10
-130.8945912586809
 20
979.9926859460954
 30
0.0
 11
-85.07362527571538
 21
979.9926859460954
 31
0.0
  0
LINE
  5
6F
  8
回09-寸法
  6
CONTINUOUS
 62
     5
 10
-137.6680206619568
 20
979.9926859460954
 30
0.0
 11
-132.8945912586809
 21
979.9926859460954
 31
0.0
  0
INSERT
  5
70
  8
回09-寸法
  6
CONTINUOUS
 62
     5
  2
_OPEN
 10
-137.6680206619568
 20
979.9926859460954
 30
0.0
 41
2.0
 42
2.0
 43
2.0
  0
INSERT
  5
71
  8
回09-寸法
  6
CONTINUOUS
 62
     5
  2
_OPEN
 10
-132.8945912586809
 20
979.9926859460954
 30
0.0
 41
2.0
 42
2.0
 43
2.0
 50
180.0
  0
TEXT
  5
72
  8
回09-寸法
  6
CONTINUOUS
 62
     5
 10
-125.4949393727792
 20
980.7926859460955
 30
0.0
 40
6.0
  1
4.39 [0.173]
1001
ACAD
1000
MTEXTBEGIN
1070
    73
1070
     1
1070
    44
1040
1.0
1070
    74
1070
     0
1000
MTEXTEND
  0
POINT
  5
73
  8
DEFPOINTS
  6
CONTINUOUS
 62
     0
 10
-137.6680206619568
 20
963.6340042489347
 30
0.0
  0
POINT
  5
75
  8
DEFPOINTS
  6
CONTINUOUS
 62
     0
 10
-132.8945912586809
 20
962.6105509675507
 30
0.0
  0
POINT
  5
76
  8
DEFPOINTS
  6
CONTINUOUS
 62
     0
 10
-132.8945912586809
 20
979.9926859460954
 30
0.0
  0
ENDBLK
  5
77
  8
0
 62
     7
  0
BLOCK
  8
回09-寸法
  2
*X353535
 70
     1
 10
0.0
 20
0.0
 30
0.0
  3
*X353535
  1

  0
INSERT
  5
3B5
  8
回09-寸法
  6
CONTINUOUS
 62
     5
  2
_OPEN
 10
66.1915512142306
 20
821.3568283943796
 30
0.0
 41
1.999999999999999
 42
1.999999999999999
 43
2.0
 50
117.8772113995802
  0
LINE
  5
3B6
  8
回09-寸法
  6
CONTINUOUS
 62
     5
 10
67.12670775774018
 20
819.5889250488511
 30
0.0
 11
76.55729961113812
 21
801.7604930032746
 31
0.0
  0
LINE
  5
3B7
  8
回09-寸法
  6
CONTINUOUS
 62
     5
 10
76.55729961113812
 20
801.7604930032746
 30
0.0
 11
116.5572996111381
 21
801.7604930032746
 31
0.0
  0
ENDBLK
  5
3B9
  8
回09-寸法
  6
CONTINUOUS
 62
     7
  0
BLOCK
  8
回09-寸法
  2
*X363636
 70
     1
 10
0.0
 20
0.0
 30
0.0
  3
*X363636
  1

  0
INSERT
  5
3BC
  8
回09-寸法
  6
CONTINUOUS
 62
     5
  2
_OPEN
 10
-140.2014655774333
 20
947.6178023289248
 30
0.0
 41
2.0
 42
2.0
 43
2.0
 50
109.3705233845999
  0
LINE
  5
3BD
  8
回09-寸法
  6
CONTINUOUS
 62
     5
 10
-139.5381139097233
 20
945.7310154928073
 30
0.0
 11
-129.8357171805257
 21
918.1342590232876
 31
0.0
  0
LINE
  5
3BE
  8
回09-寸法
  6
CONTINUOUS
 62
     5
 10
-129.8357171805257
 20
918.1342590232876
 30
0.0
 11
-73.33571718052578
 21
918.1342590232876
 31
0.0
  0
ENDBLK
  5
3C0
  8
回09-寸法
  6
CONTINUOUS
 62
     7
  0
BLOCK
  8
回09-寸法
  2
*X373737
 70
     1
 10
0.0
 20
0.0
 30
0.0
  3
*X373737
  1

  0
INSERT
  5
3CD
  8
回08-記事
  6
CONTINUOUS
 62
     5
  2
_OPEN
 10
-48.48649833150568
 20
953.6505713599423
 30
0.0
 41
2.0
 42
2.0
 43
2.0
 50
116.2233087465226
  0
LINE
  5
3CE
  8
回08-記事
  6
CONTINUOUS
 62
     5
 10
-47.60275666381146
 20
951.8564139909299
 30
0.0
 11
-43.29963835956789
 21
943.1202960760263
 31
0.0
  0
LINE
  5
3CF
  8
回08-記事
  6
CONTINUOUS
 62
     5
 10
-43.29963835956789
 20
943.1202960760263
 30
0.0
 11
-15.11770569664543
 21
943.1202960760263
 31
0.0
  0
ENDBLK
  5
3D1
  8
回09-寸法
  6
CONTINUOUS
 62
     7
  0
BLOCK
  8
回09-寸法
  2
*X383838
 70
     1
 10
0.0
 20
0.0
 30
0.0
  3
*X383838
  1

  0
LINE
  5
3D4
  8
回08-記事
  6
CONTINUOUS
 62
     8
 10
-52.42680293255208
 20
952.1830538149476
 30
0.0
 11
-54.29879665533177
 21
954.0550475377271
 31
0.0
  0
LINE
  5
3D5
  8
回08-記事
  6
CONTINUOUS
 62
     8
 10
-49.77515250310243
 20
952.1830538149476
 30
0.0
 11
-54.20276078857689
 21
956.610662100422
 31
0.0
  0
LINE
  5
3D6
  8
回08-記事
  6
CONTINUOUS
 62
     8
 10
-47.12350207365289
 20
952.1830538149476
 30
0.0
 11
-52.12350207365292
 21
957.1830538149477
 31
0.0
  0
LINE
  5
3D7
  8
回08-記事
  6
CONTINUOUS
 62
     8
 10
-44.47185164420335
 20
952.1830538149476
 30
0.0
 11
-49.47185164420338
 21
957.1830538149477
 31
0.0
  0
LINE
  5
3D8
  8
回08-記事
  6
CONTINUOUS
 62
     8
 10
-41.82020121475388
 20
952.1830538149476
 30
0.0
 11
-46.82020121475392
 21
957.1830538149477
 31
0.0
  0
LINE
  5
3D9
  8
回08-記事
  6
CONTINUOUS
 62
     8
 10
-39.16855078530435
 20
952.1830538149476
 30
0.0
 11
-44.16855078530438
 21
957.1830538149477
 31
0.0
  0
LINE
  5
3DA
  8
回08-記事
  6
CONTINUOUS
 62
     8
 10
-36.51690035585479
 20
952.1830538149476
 30
0.0
 11
-41.51690035585479
 21
957.1830538149477
 31
0.0
  0
LINE
  5
3DB
  8
回08-記事
  6
CONTINUOUS
 62
     8
 10
-33.86524992640523
 20
952.1830538149476
 30
0.0
 11
-38.86524992640519
 21
957.1830538149477
 31
0.0
  0
LINE
  5
3DC
  8
回08-記事
  6
CONTINUOUS
 62
     8
 10
-31.21359949695568
 20
952.1830538149476
 30
0.0
 11
-36.21359949695565
 21
957.1830538149477
 31
0.0
  0
LINE
  5
3DD
  8
回08-記事
  6
CONTINUOUS
 62
     8
 10
-28.73561556423402
 20
952.3567203116755
 30
0.0
 11
-33.56194906750609
 21
957.1830538149477
 31
0.0
  0
LINE
  5
3DE
  8
回08-記事
  6
CONTINUOUS
 62
     8
 10
-28.29879665533183
 20
954.5715518322227
 30
0.0
 11
-30.91029863805655
 21
957.1830538149477
 31
0.0
  0
ENDBLK
  5
3E0
  8
回09-寸法
  6
CONTINUOUS
 62
     7
  0
BLOCK
  8
回09-寸法
  2
*X393939
 70
     1
 10
0.0
 20
0.0
 30
0.0
  3
*X393939
  1

  0
INSERT
  5
3EC
  8
回08-記事
  6
CONTINUOUS
 62
     5
  2
_OPEN
 10
-1.702158213342158
 20
960.0466453044615
 30
0.0
 41
2.0
 42
2.0
 43
2.0
 50
304.8393757817714
  0
LINE
  5
3ED
  8
回08-記事
  6
CONTINUOUS
 62
     5
 10
-2.844713727376761
 20
961.6881589039634
 30
0.0
 11
-5.831966028302417
 21
965.9799549846603
 31
0.0
  0
LINE
  5
3EE
  8
回08-記事
  6
CONTINUOUS
 62
     5
 10
-5.831966028302417
 20
965.9799549846603
 30
0.0
 11
-15.38214246401423
 21
965.9799549846603
 31
0.0
  0
ENDBLK
  5
3F0
  8
回09-寸法
  6
CONTINUOUS
 62
     7
  0
BLOCK
  8
回09-寸法
  2
*X404040
 70
     1
 10
0.0
 20
0.0
 30
0.0
  3
*X404040
  1

  0
INSERT
  5
3FF
  8
回09-寸法
  6
CONTINUOUS
 62
     5
  2
_OPEN
 10
-132.8945912586809
 20
946.7645878814426
 30
0.0
 41
2.0
 42
2.0
 43
2.0
 50
123.5380457195127
  0
LINE
  5
400
  8
回09-寸法
  6
CONTINUOUS
 62
     5
 10
-131.7896100926517
 20
945.0975496027215
 30
0.0
 11
-124.9448114490496
 21
934.7710918314767
 31
0.0
  0
LINE
  5
401
  8
回09-寸法
  6
CONTINUOUS
 62
     5
 10
-124.9448114490496
 20
934.7710918314767
 30
0.0
 11
-86.42675960641476
 21
934.7710918314767
 31
0.0
  0
ENDBLK
  5
403
  8
回09-寸法
  6
CONTINUOUS
 62
     7
  0
BLOCK
  8
回09-寸法
  2
*X414141
 70
     1
 10
0.0
 20
0.0
 30
0.0
  3
*X414141
  1

  0
INSERT
  5
406
  8
回09-寸法
  6
CONTINUOUS
 62
     5
  2
_OPEN
 10
-137.0481342409447
 20
946.3708263817423
 30
0.0
 41
1.999999999999999
 42
1.999999999999999
 43
2.0
 50
117.8772113995802
  0
LINE
  5
407
  8
回09-寸法
  6
CONTINUOUS
 62
     5
 10
-136.1129776974351
 20
944.6029230362137
 30
0.0
 11
-126.6823858440372
 21
926.7744909906372
 31
0.0
  0
LINE
  5
408
  8
回09-寸法
  6
CONTINUOUS
 62
     5
 10
-126.6823858440372
 20
926.7744909906372
 30
0.0
 11
-87.66433400140227
 21
926.7744909906372
 31
0.0
  0
ENDBLK
  5
40A
  8
回09-寸法
  6
CONTINUOUS
 62
     7
  0
BLOCK
  8
回09-寸法
  2
*X424242
 70
     1
 10
0.0
 20
0.0
 30
0.0
  3
*X424242
  1

  0
INSERT
  5
40D
  8
回09-寸法
  6
CONTINUOUS
 62
     5
  2
_OPEN
 10
-184.4290163975325
 20
808.1798224807428
 30
0.0
 41
2.0
 42
2.0
 43
2.0
 50
66.63606238542223
  0
LINE
  5
40E
  8
回09-寸法
  6
CONTINUOUS
 62
     5
 10
-185.2221567385115
 20
806.3438136573676
 30
0.0
 11
-190.5934570747105
 21
793.9100055395153
 31
0.0
  0
LINE
  5
40F
  8
回09-寸法
  6
CONTINUOUS
 62
     5
 10
-190.5934570747105
 20
793.9100055395153
 30
0.0
 11
-220.5934570747105
 21
793.9100055395153
 31
0.0
  0
ENDBLK
  5
411
  8
回09-寸法
  6
CONTINUOUS
 62
     7
  0
BLOCK
  8
回09-寸法
  2
*X434343
 70
     1
 10
0.0
 20
0.0
 30
0.0
  3
*X434343
  1

  0
INSERT
  5
414
  8
回09-寸法
  6
CONTINUOUS
 62
     5
  2
_OPEN
 10
-491.9680206619569
 20
818.0865847395184
 30
0.0
 41
2.0
 42
2.0
 43
2.0
 50
117.7500123064837
  0
LINE
  5
415
  8
回09-寸法
  6
CONTINUOUS
 62
     5
 10
-491.036791241136
 20
816.3166096646097
 30
0.0
 11
-481.3043112695567
 21
797.8182175588722
 31
0.0
  0
LINE
  5
416
  8
回09-寸法
  6
CONTINUOUS
 62
     5
 10
-481.3043112695567
 20
797.8182175588722
 30
0.0
 11
-451.3043112695569
 21
797.8182175588722
 31
0.0
  0
ENDBLK
  5
418
  8
回09-寸法
  6
CONTINUOUS
 62
     7
  0
BLOCK
  8
回09-寸法
  2
*X444444
 70
     1
 10
0.0
 20
0.0
 30
0.0
  3
*X444444
  1

  0
LINE
  5
42A
  8
回08-記事
  6
CONTINUOUS
 62
     8
 10
-141.9680206619564
 20
952.6232112603507
 30
0.0
 11
-140.9036624978102
 21
953.6875694244972
 31
0.0
  0
LINE
  5
42B
  8
回08-記事
  6
CONTINUOUS
 62
     8
 10
-141.9680206619564
 20
948.1330831998162
 30
0.0
 11
-136.4135344372756
 21
953.6875694244972
 31
0.0
  0
LINE
  5
42C
  8
回08-記事
  6
CONTINUOUS
 62
     8
 10
-138.4245041391275
 20
947.1864716621103
 30
0.0
 11
-133.2760907535908
 21
952.3348850476473
 31
0.0
  0
LINE
  5
42D
  8
回08-記事
  6
CONTINUOUS
 62
     8
 10
-133.9323685251718
 20
947.1884792155318
 30
0.0
 11
-133.2760907535909
 21
947.8447569871123
 31
0.0
  0
ENDBLK
  5
42F
  8
回09-寸法
  6
CONTINUOUS
 62
     7
  0
BLOCK
  8
回09-寸法
  2
*X454545
 70
     1
 10
0.0
 20
0.0
 30
0.0
  3
*X454545
  1

  0
TEXT
  5
437
  8
回09-寸法
  6
CONTINUOUS
 62
     5
 10
-351.5788517675377
 20
1165.297818345485
 30
0.0
 40
6.0
  1
354.6
  0
TEXT
  5
438
  8
回09-寸法
  6
CONTINUOUS
 62
     5
 10
-332.3788517675377
 20
1165.297818345485
 30
0.0
 40
4.2
  1
±0.3
  0
TEXT
  5
439
  8
回09-寸法
  6
CONTINUOUS
 62
     5
 10
-322.2988517675377
 20
1165.297818345485
 30
0.0
 40
6.0
  1
 [13.961
  0
TEXT
  5
43A
  8
回09-寸法
  6
CONTINUOUS
 62
     5
 10
-295.8771895563758
 20
1165.297818345485
 30
0.0
 40
4.2
  1
±0.012
  0
TEXT
  5
43B
  8
回09-寸法
  6
CONTINUOUS
 62
     5
 10
-280.7571895563758
 20
1165.297818345485
 30
0.0
 40
6.0
  1
]
  0
ENDBLK
  5
43D
  8
回09-寸法
  6
CONTINUOUS
 62
     7
  0
BLOCK
  8
回09-寸法
  2
*X464646
 70
     1
 10
0.0
 20
0.0
 30
0.0
  3
*X464646
  1

  0
TEXT
  5
440
  8
回09-寸法
  6
CONTINUOUS
 62
     5
 10
27.04605976577773
 20
755.1762441914321
 30
0.0
 40
6.0
  1
0.3
 50
90.0
  0
TEXT
  5
441
  8
回09-寸法
  6
CONTINUOUS
 62
     5
 10
27.04605976577773
 20
765.3762441914325
 30
0.0
 40
4.000199999999998
  1
±0.05
 50
90.0
  0
TEXT
  5
442
  8
回09-寸法
  6
CONTINUOUS
 62
     5
 10
27.04605976577773
 20
777.7768641914325
 30
0.0
 40
6.0
  1
[0.012
 50
90.0
  0
TEXT
  5
443
  8
回09-寸法
  6
CONTINUOUS
 62
     5
 10
27.04605976577773
 20
797.5768641914322
 30
0.0
 40
4.000199999999998
  1
±0.002
 50
90.0
  0
TEXT
  5
444
  8
回09-寸法
  6
CONTINUOUS
 62
     5
 10
27.04605976577773
 20
812.7776241914325
 30
0.0
 40
6.0
  1
]
 50
90.0
  0
ENDBLK
  5
446
  8
回09-寸法
  6
CONTINUOUS
 62
     7
  0
BLOCK
  8
回09-寸法
  2
*X474747
 70
     1
 10
0.0
 20
0.0
 30
0.0
  3
*X474747
  1

  0
TEXT
  5
449
  8
回09-寸法
  6
CONTINUOUS
 62
     5
 10
-499.2178860420215
 20
684.6940986796215
 30
0.0
 40
6.0
  1
2.1
 50
90.0
  0
TEXT
  5
44A
  8
回09-寸法
  6
CONTINUOUS
 62
     5
 10
-499.2178860420215
 20
693.6940986796216
 30
0.0
 40
4.000199999999998
  1
±0.2
 50
90.0
  0
TEXT
  5
44B
  8
回09-寸法
  6
CONTINUOUS
 62
     5
 10
-499.2178860420215
 20
703.2945786796212
 30
0.0
 40
6.0
  1
[0.083
 50
90.0
  0
TEXT
  5
44C
  8
回09-寸法
  6
CONTINUOUS
 62
     5
 10
-499.2178860420215
 20
724.2945786796212
 30
0.0
 40
4.000199999999998
  1
±0.008
 50
90.0
  0
TEXT
  5
44D
  8
回09-寸法
  6
CONTINUOUS
 62
     5
 10
-499.2178860420215
 20
739.4953386796214
 30
0.0
 40
6.0
  1
]
 50
90.0
  0
ENDBLK
  5
44F
  8
回09-寸法
  6
CONTINUOUS
 62
     7
  0
BLOCK
  8
回09-寸法
  2
*X484848
 70
     1
 10
0.0
 20
0.0
 30
0.0
  3
*X484848
  1

  0
TEXT
  5
452
  8
回09-寸法
  6
CONTINUOUS
 62
     5
 10
-567.7251695873447
 20
921.6767383189161
 30
0.0
 40
6.0
  1
295
 50
90.0
  0
TEXT
  5
453
  8
回09-寸法
  6
CONTINUOUS
 62
     5
 10
-567.7251695873447
 20
934.2984005300779
 30
0.0
 40
4.2
  1
±0.3
 50
90.0
  0
TEXT
  5
454
  8
回09-寸法
  6
CONTINUOUS
 62
     5
 10
-567.7251695873447
 20
944.3784005300781
 30
0.0
 40
6.0
  1
 [11.614
 50
90.0
  0
TEXT
  5
455
  8
回09-寸法
  6
CONTINUOUS
 62
     5
 10
-567.7251695873447
 20
970.178400530078
 30
0.0
 40
4.2
  1
±0.012
 50
90.0
  0
TEXT
  5
456
  8
回09-寸法
  6
CONTINUOUS
 62
     5
 10
-567.7251695873447
 20
985.2984005300779
 30
0.0
 40
6.0
  1
]
 50
90.0
  0
ENDBLK
  5
458
  8
回09-寸法
  6
CONTINUOUS
 62
     7
  0
BLOCK
  8
回09-寸法
  2
*X494949
 70
     1
 10
0.0
 20
0.0
 30
0.0
  3
*X494949
  1

  0
TEXT
  5
45B
  8
回09-寸法
  6
CONTINUOUS
 62
     5
 10
-99.7072906466678
 20
885.6031303586386
 30
0.0
 40
6.0
  1
140
  0
TEXT
  5
45C
  8
回09-寸法
  6
CONTINUOUS
 62
     5
 10
-87.70729064666779
 20
885.6031303586386
 30
0.0
 40
4.2
  1
±1
  0
TEXT
  5
45D
  8
回09-寸法
  6
CONTINUOUS
 62
     5
 10
-82.6672906466678
 20
885.6031303586386
 30
0.0
 40
6.0
  1
 [5.512
  0
TEXT
  5
45E
  8
回09-寸法
  6
CONTINUOUS
 62
     5
 10
-59.2672906466678
 20
885.6031303586386
 30
0.0
 40
4.2
  1
±0.039
  0
TEXT
  5
45F
  8
回09-寸法
  6
CONTINUOUS
 62
     5
 10
-43.29212709885446
 20
885.6031303586386
 30
0.0
 40
6.0
  1
]
  0
ENDBLK
  5
461
  8
回09-寸法
  6
CONTINUOUS
 62
     7
  0
BLOCK
  8
回09-寸法
  2
*X505050
 70
     1
 10
0.0
 20
0.0
 30
0.0
  3
*X505050
  1

  0
TEXT
  5
464
  8
回07-寸法
  6
CONTINUOUS
 62
     5
 10
92.68634110538483
 20
845.3735197604951
 30
0.0
 40
6.0
  1
3.75
 50
90.0
  0
TEXT
  5
465
  8
回07-寸法
  6
CONTINUOUS
 62
     5
 10
92.68634110538483
 20
859.7735197604951
 30
0.0
 40
3.599999999999998
  1
±0.1
 50
90.0
  0
TEXT
  5
466
  8
回07-寸法
  6
CONTINUOUS
 62
     5
 10
92.68634110538483
 20
867.6935197604951
 30
0.0
 40
6.0
  1
[0.148
 50
90.0
  0
TEXT
  5
467
  8
回07-寸法
  6
CONTINUOUS
 62
     5
 10
92.68634110538483
 20
888.0935197604951
 30
0.0
 40
3.599999999999998
  1
±0.004
 50
90.0
  0
TEXT
  5
468
  8
回07-寸法
  6
CONTINUOUS
 62
     5
 10
92.68634110538483
 20
902.1335197604953
 30
0.0
 40
6.0
  1
]
 50
90.0
  0
ENDBLK
  5
46A
  8
回09-寸法
  6
CONTINUOUS
 62
     7
  0
BLOCK
  8
回09-寸法
  2
*X515151
 70
     1
 10
0.0
 20
0.0
 30
0.0
  3
*X515151
  1

  0
TEXT
  5
46D
  8
回07-寸法
  6
CONTINUOUS
 62
     5
 10
82.43115567284258
 20
844.4308755012377
 30
0.0
 40
6.0
  1
1.25
 50
90.0
  0
TEXT
  5
46E
  8
回07-寸法
  6
CONTINUOUS
 62
     5
 10
82.43115567284258
 20
857.6308755012375
 30
0.0
 40
3.599999999999998
  1
±0.2
 50
90.0
  0
TEXT
  5
46F
  8
回07-寸法
  6
CONTINUOUS
 62
     5
 10
82.43115567284258
 20
866.2708755012376
 30
0.0
 40
6.0
  1
[0.049
 50
90.0
  0
TEXT
  5
470
  8
回07-寸法
  6
CONTINUOUS
 62
     5
 10
82.43115567284258
 20
887.8925377123994
 30
0.0
 40
3.599999999999998
  1
±0.008
 50
90.0
  0
TEXT
  5
471
  8
回07-寸法
  6
CONTINUOUS
 62
     5
 10
82.43115567284258
 20
901.5725377123995
 30
0.0
 40
6.0
  1
]
 50
90.0
  0
ENDBLK
  5
473
  8
回09-寸法
  6
CONTINUOUS
 62
     7
  0
BLOCK
  8
回09-寸法
  2
*X525252
 70
     1
 10
0.0
 20
0.0
 30
0.0
  3
*X525252
  1

  0
TEXT
  5
476
  8
回07-寸法
  6
CONTINUOUS
 62
     5
 10
72.82925707582854
 20
843.8696206005133
 30
0.0
 40
6.0
  1
4-0.7
 50
90.0
  0
TEXT
  5
477
  8
回07-寸法
  6
CONTINUOUS
 62
     5
 10
72.82925707582854
 20
863.0696206005135
 30
0.0
 40
3.599999999999998
  1
±0.1
 50
90.0
  0
TEXT
  5
478
  8
回07-寸法
  6
CONTINUOUS
 62
     5
 10
72.82925707582854
 20
870.9896206005135
 30
0.0
 40
6.0
  1
[4-0.028
 50
90.0
  0
TEXT
  5
479
  8
回07-寸法
  6
CONTINUOUS
 62
     5
 10
72.82925707582854
 20
900.9896206005135
 30
0.0
 40
3.599999999999998
  1
±0.004
 50
90.0
  0
TEXT
  5
47A
  8
回07-寸法
  6
CONTINUOUS
 62
     5
 10
72.82925707582854
 20
915.0296206005135
 30
0.0
 40
6.0
  1
]
 50
90.0
  0
ENDBLK
  5
47C
  8
回09-寸法
  6
CONTINUOUS
 62
     7
  0
BLOCK
  8
回09-寸法
  2
*X535353
 70
     1
 10
0.0
 20
0.0
 30
0.0
  3
*X535353
  1

  0
TEXT
  5
47F
  8
回90-和A1
  6
CONTINUOUS
 62
     5
 10
107.2920175465008
 20
847.1091481595706
 30
0.0
 40
6.0
  1
6.25
 50
90.0
  0
TEXT
  5
480
  8
回90-和A1
  6
CONTINUOUS
 62
     5
 10
107.2920175465008
 20
861.5091481595706
 30
0.0
 40
4.000199999999998
  1
±0.2
 50
90.0
  0
TEXT
  5
481
  8
回90-和A1
  6
CONTINUOUS
 62
     5
 10
107.2920175465008
 20
871.1096281595708
 30
0.0
 40
6.0
  1
[0.246
 50
90.0
  0
TEXT
  5
482
  8
回90-和A1
  6
CONTINUOUS
 62
     5
 10
107.2920175465008
 20
892.7096281595707
 30
0.0
 40
4.000199999999998
  1
±0.008
 50
90.0
  0
TEXT
  5
483
  8
回90-和A1
  6
CONTINUOUS
 62
     5
 10
107.2920175465008
 20
907.9103881595708
 30
0.0
 40
6.0
  1
]
 50
90.0
  0
ENDBLK
  5
485
  8
回09-寸法
  6
CONTINUOUS
 62
     7
  0
ENDSEC
  0
SECTION
  2
ENTITIES
  0
TEXT
  5
5E
  8
回03-記事
  6
CONTINUOUS
 62
     5
 10
-300.9025691780478
 20
656.784994922996
 30
0.0
 40
6.240000000000001
  1
without affecting product specification.
  0
TEXT
  5
60
  8
回03-記事
  6
CONTINUOUS
 62
     5
 10
-300.9025691780478
 20
667.730612351456
 30
0.0
 40
6.240000000000001
  1
Edges and corners of ITO glass may be chamfered 
  0
TEXT
  5
61
  8
回03-記事
  6
CONTINUOUS
 62
     5
 10
-300.9025691780478
 20
678.6762297799157
 30
0.0
 40
6.240000000000001
  1
Unit: mm
  0
TEXT
  5
62
  8
回03-記事
  6
CONTINUOUS
 62
     5
 10
-300.9025691780478
 20
689.6218472083752
 30
0.0
 40
6.240000000000001
  1
EXCEPT WHERE INDICATED
  0
TEXT
  5
63
  8
回03-記事
  6
CONTINUOUS
 62
     5
 10
-300.9025691780478
 20
700.5674646368349
 30
0.0
 40
6.240000000000001
  1
TOLERANCE=±0.5mm
  0
TEXT
  5
64
  8
回09-寸法
  6
CONTINUOUS
 62
     5
 10
78.30729961113812
 20
802.5104930032746
 30
0.0
 40
5.0
  1
2-R0.5[0.020]
1001
ACAD
1000
MTEXTBEGIN
1070
    73
1070
     1
1070
    44
1040
1.0
1070
    74
1070
     0
1000
MTEXTEND
  0
INSERT
  5
65
  8
回09-寸法
  6
CONTINUOUS
 62
     5
 66
     1
  2
*X353535
 10
0.0
 20
0.0
 30
0.0
  0
SEQEND
  5
3BA
  8
回09-寸法
  6
CONTINUOUS
 62
     7
  0
TEXT
  5
66
  8
回09-寸法
  6
CONTINUOUS
 62
     5
 10
-128.0857171805257
 20
918.6342590232877
 30
0.0
 40
5.0
  1
PROTECTION TAPE
1001
ACAD
1000
MTEXTBEGIN
1070
    73
1070
     1
1070
    44
1040
1.0
1070
    74
1070
     0
1000
MTEXTEND
  0
INSERT
  5
67
  8
回09-寸法
  6
CONTINUOUS
 62
     5
 66
     1
  2
*X363636
 10
0.0
 20
0.0
 30
0.0
  0
SEQEND
  5
3C1
  8
回09-寸法
  6
CONTINUOUS
 62
     7
  0
DIMENSION
  5
68
  8
回09-寸法
  6
CONTINUOUS
 62
     7
  2
*D343434
 10
-132.8945912586809
 20
979.9926859460954
 30
0.0
 11
-105.0841082671982
 21
979.9926859460954
 31
0.0
 70
   128
  1
4.39 [0.173]
  3
DMC
 13
-137.6680206619568
 23
963.6340042489347
 33
0.0
 14
-132.8945912586809
 24
962.6105509675507
 34
0.0
  0
LINE
  5
78
  8
回08-記事
  6
CONTINUOUS
 62
     5
 10
-131.072565422614
 20
748.6658199536317
 30
0.0
 11
-121.2987046912047
 21
758.2340625083583
 31
0.0
  0
LINE
  5
7C
  8
回08-記事
  6
CONTINUOUS
 62
     7
 10
-129.8438240770225
 20
748.3715197819832
 30
0.0
 11
-129.8438240770225
 21
749.3715197819835
 31
0.0
  0
LINE
  5
7D
  8
回08-記事
  6
CONTINUOUS
 62
     7
 10
-137.668020661957
 20
748.3715197819832
 30
0.0
 11
-129.8438240770225
 21
748.3715197819832
 31
0.0
  0
LINE
  5
7E
  8
回08-記事
  6
CONTINUOUS
 62
     7
 10
-136.668020661957
 20
747.3715197819832
 30
0.0
 11
-136.668020661957
 21
744.5715197819835
 31
0.0
  0
LINE
  5
7F
  8
回08-記事
  6
CONTINUOUS
 62
     7
 10
-141.9680206619565
 20
744.5715197819835
 30
0.0
 11
-136.668020661957
 21
744.5715197819835
 31
0.0
  0
LINE
  5
80
  8
回08-記事
  6
CONTINUOUS
 62
     7
 10
-141.9680206619565
 20
745.5715197819832
 30
0.0
 11
-141.9680206619565
 21
744.5715197819835
 31
0.0
  0
LINE
  5
81
  8
回08-記事
  6
CONTINUOUS
 62
     7
 10
-133.1680206619568
 20
747.3715197819832
 30
0.0
 11
-136.668020661957
 21
747.3715197819832
 31
0.0
  0
LINE
  5
82
  8
回08-記事
  6
CONTINUOUS
 62
     7
 10
-133.1680206619568
 20
748.3715197819832
 30
0.0
 11
-133.1680206619568
 21
747.3715197819832
 31
0.0
  0
LINE
  5
83
  8
回08-記事
  6
CONTINUOUS
 62
     7
 10
-137.668020661957
 20
749.3715197819835
 30
0.0
 11
-137.668020661957
 21
745.5715197819832
 31
0.0
  0
TEXT
  5
84
  8
回08-記事
  6
CONTINUOUS
 62
     7
 10
-547.2287266095364
 20
1106.671469927775
 30
0.0
 40
4.0
  1
(INSULATION AREA)
 50
90.0
  0
TEXT
  5
85
  8
回08-記事
  6
CONTINUOUS
 62
     7
 10
-547.2287266095364
 20
756.375615304228
 30
0.0
 40
4.0
  1
(INSULATION AREA)
 50
90.0
  0
TEXT
  5
86
  8
回08-記事
  6
CONTINUOUS
 62
     7
 10
-131.7323005578918
 20
1148.440930671412
 30
0.0
 40
4.0
  1
(INSULATION AREA)
  0
TEXT
  5
87
  8
回08-記事
  6
CONTINUOUS
 62
     7
 10
-541.6417643495673
 20
1148.440930671412
 30
0.0
 40
4.0
  1
(INSULATION AREA)
  0
DIMENSION
  5
88
  8
回09-寸法
  6
CONTINUOUS
 62
     5
  2
*D333333
 10
-553.6269897834221
 20
1102.187569424497
 30
0.0
 11
-557.4269897834216
 21
1127.087569424497
 31
0.0
 70
     0
  3
DMC
 13
-488.8280206619573
 23
1093.455569424497
 33
0.0
 14
-492.2680206619567
 24
1102.187569424497
 34
0.0
 50
90.0
1001
ACAD
1000
DSTYLE
1002
{
1070
   140
1040
5.0
1070
   371
1070
    13
1070
   372
1070
    13
1002
}
  0
DIMENSION
  5
97
  8
回09-寸法
  6
CONTINUOUS
 62
     5
  2
*D323232
 10
-553.6269897834221
 20
807.1875694244972
 30
0.0
 11
-557.4269897834217
 21
782.287569424497
 31
0.0
 70
     0
  3
DMC
 13
-488.8280206619573
 23
815.9195694244967
 33
0.0
 14
-492.2680206619567
 24
807.1875694244967
 34
0.0
 50
90.0
1001
ACAD
1000
DSTYLE
1002
{
1070
   140
1040
5.0
1070
   371
1070
    13
1070
   372
1070
    13
1002
}
  0
DIMENSION
  5
A6
  8
回09-寸法
  6
CONTINUOUS
 62
     5
  2
*D313131
 10
-553.6269897834221
 20
815.9195694244971
 30
0.0
 11
-557.4284398604807
 21
954.687569424497
 31
0.0
 70
     0
  3
DMC
 13
-488.8280206619573
 23
1093.455569424497
 33
0.0
 14
-488.8280206619573
 24
815.9195694244967
 34
0.0
 50
90.0
1001
ACAD
1000
DSTYLE
1002
{
1070
   140
1040
5.0
1070
   371
1070
    13
1070
   372
1070
    13
1002
}
  0
DIMENSION
  5
B3
  8
回09-寸法
  6
CONTINUOUS
 62
     5
  2
*D303030
 10
-137.6680206619568
 20
1154.884768578752
 30
0.0
 11
-113.6680206619568
 21
1158.684768578752
 31
0.0
 70
     0
  3
DMC
 13
-145.708020661957
 23
1093.455569424497
 33
0.0
 14
-137.6680206619568
 24
1102.187569424497
 34
0.0
1001
ACAD
1000
DSTYLE
1002
{
1070
   140
1040
5.0
1070
   271
1070
     3
1070
   272
1070
     3
1070
   371
1070
    13
1070
   372
1070
    13
1002
}
  0
DIMENSION
  5
C2
  8
回09-寸法
  6
CONTINUOUS
 62
     5
  2
*D292929
 10
-492.2680206619567
 20
1154.884768578752
 30
0.0
 11
-516.5680206619566
 21
1158.684768578752
 31
0.0
 70
     0
  3
DMC
 13
-488.8280206619573
 23
1093.455569424497
 33
0.0
 14
-492.2680206619567
 24
1102.187569424497
 34
0.0
1001
ACAD
1000
DSTYLE
1002
{
1070
   140
1040
5.0
1070
   271
1070
     3
1070
   272
1070
     3
1070
   371
1070
    13
1070
   372
1070
    13
1002
}
  0
DIMENSION
  5
D1
  8
回09-寸法
  6
CONTINUOUS
 62
     5
  2
*D282828
 10
-145.708020661957
 20
1154.884768578752
 30
0.0
 11
-317.2680206619574
 21
1158.686218655811
 31
0.0
 70
     0
  3
DMC
 13
-488.8280206619573
 23
1093.455569424497
 33
0.0
 14
-145.708020661957
 24
1093.455569424497
 34
0.0
1001
ACAD
1000
DSTYLE
1002
{
1070
   140
1040
5.0
1070
   271
1070
     3
1070
   272
1070
     3
1070
   371
1070
    13
1070
   372
1070
    13
1002
}
  0
POLYLINE
  5
DE
  8
回08-記事
  6
PHANTOM2
 62
     7
 66
     1
 10
0.0
 20
0.0
 30
0.0
 70
     1
  0
VERTEX
  5
78F
  8
回08-記事
  6
PHANTOM2
 62
     7
 10
-488.8280206619573
 20
1093.455569424497
 30
0.0
  0
VERTEX
  5
791
  8
回08-記事
  6
PHANTOM2
 62
     7
 10
-145.708020661957
 20
1093.455569424497
 30
0.0
  0
VERTEX
  5
792
  8
回08-記事
  6
PHANTOM2
 62
     7
 10
-145.708020661957
 20
815.9195694244967
 30
0.0
  0
VERTEX
  5
793
  8
回08-記事
  6
PHANTOM2
 62
     7
 10
-488.8280206619573
 20
815.9195694244967
 30
0.0
  0
SEQEND
  5
790
  8
回09-寸法
  6
CONTINUOUS
 62
     7
  0
DIMENSION
  5
E0
  8
回09-寸法
  6
CONTINUOUS
 62
     5
  2
*D272727
 10
36.05895981015733
 20
1102.187569424497
 30
0.0
 11
32.25895981015763
 21
1028.437569424497
 31
0.0
 70
     0
  3
DMC
 13
13.77689430921907
 23
954.6875694244969
 33
0.0
 14
-137.6680206619568
 24
1102.187569424497
 34
0.0
 50
90.0
1001
ACAD
1000
DSTYLE
1002
{
1070
   372
1070
    13
1070
   371
1070
    13
1070
   140
1040
5.0
1002
}
  0
LINE
  5
ED
  8
回08-記事
  6
CENTER2
 62
     5
 10
-87.47202370935713
 20
954.6875694244969
 30
0.0
 11
13.77689430921907
 21
954.6875694244969
 31
0.0
  0
LINE
  5
EF
  8
回08-記事
 62
     5
 10
69.91038496687048
 20
838.8296206005133
 30
0.0
 11
44.74038177312484
 21
838.8296206005133
 31
0.0
  0
LINE
  5
F0
  8
回08-記事
 62
     5
 10
69.91038496687048
 20
834.3296206005133
 30
0.0
 11
44.74038177312484
 21
834.3296206005133
 31
0.0
  0
LINE
  5
F1
  8
回08-記事
 62
     5
 10
69.91038496687048
 20
825.3296206005133
 30
0.0
 11
44.74038177312484
 21
825.3296206005133
 31
0.0
  0
LINE
  5
F2
  8
回08-記事
  6
CONTINUOUS
 62
     5
 10
-49.13346788317731
 20
740.9403639912875
 30
0.0
 11
-43.20856872305339
 21
748.6625720473497
 31
0.0
  0
TEXT
  5
F3
  8
回09-寸法
  6
CONTINUOUS
 62
     5
 10
-83.1831273598442
 20
737.8182723746667
 30
0.0
 40
5.0
  1
LOT LABEL
  0
POLYLINE
  5
F4
  8
回08-記事
  6
CONTINUOUS
 62
     7
 66
     1
 10
0.0
 20
0.0
 30
0.0
 70
     1
  0
VERTEX
  5
794
  8
回08-記事
  6
CONTINUOUS
 62
     7
 10
-54.31168206066661
 20
749.3862302241239
 30
0.0
  0
VERTEX
  5
796
  8
回08-記事
  6
CONTINUOUS
 62
     7
 10
-28.32699352421662
 20
749.3862302241239
 30
0.0
  0
VERTEX
  5
797
  8
回08-記事
  6
CONTINUOUS
 62
     7
 10
-28.32699352421662
 20
748.0444833679812
 30
0.0
  0
VERTEX
  5
798
  8
回08-記事
  6
CONTINUOUS
 62
     7
 10
-54.31168206066661
 20
748.0444833679812
 30
0.0
  0
SEQEND
  5
795
  8
回09-寸法
  6
CONTINUOUS
 62
     7
  0
TEXT
  5
F5
  8
回09-寸法
  6
CONTINUOUS
 62
     5
 10
-42.3898655361387
 20
943.8371418473813
 30
0.0
 40
4.0
  1
LOT LABEL
  0
INSERT
  5
F6
  8
回08-記事
  6
CONTINUOUS
 62
     7
 66
     1
  2
*X373737
 10
0.0
 20
0.0
 30
0.0
  0
SEQEND
  5
3D2
  8
回09-寸法
  6
CONTINUOUS
 62
     7
  0
INSERT
  5
F7
  8
回08-記事
  6
CONTINUOUS
 62
     8
 66
     1
  2
*X383838
 10
0.0
 20
0.0
 30
0.0
1001
ACAD
1000
HATCH
1002
{
1070
    19
1000
ANSI31
1040
15.0
1040
1.570796326794896
1000
ASC_BOUNDS
1070
     1
1070
     2
1070
     1
1005
F8
1000
ASC_SEEDPOINT
1011
147.9878772338371
1021
934.7322532805774
1031
0.0
1000
R14_HATCH_DATA
1000
F7
1011
1.0
1021
0.0
1031
0.0
1011
0.0
1021
1.0
1031
0.0
1011
0.0
1021
0.0
1031
1.0
1040
0.0
1010
0.0
1020
0.0
1030
1.0
1000
ANSI31
1070
     0
1070
     1
1071
        1
1071
        1
1071
        8
1070
     1
1040
-54.29879665533178
1040
953.1830538149476
1040
-54.29879665533178
1040
956.1830538149477
1070
     2
1040
-53.29879665533178
1040
956.1830538149477
1040
1.0
1040
3.141592653589792
1040
4.712388980384688
1070
     0
1070
     1
1040
-53.29879665533178
1040
957.1830538149477
1040
-29.29879665533178
1040
957.1830538149477
1070
     2
1040
-29.29879665533178
1040
956.1830538149477
1040
1.0
1040
4.712388980384688
1040
6.283185307179584
1070
     0
1070
     1
1040
-28.29879665533179
1040
956.1830538149477
1040
-28.29879665533179
1040
953.1830538149476
1070
     2
1040
-29.29879665533178
1040
953.1830538149476
1040
1.0
1040
6.283185307179584
1040
7.853981633974482
1070
     0
1070
     1
1040
-29.29879665533178
1040
952.1830538149476
1040
-53.29879665533178
1040
952.1830538149476
1070
     2
1040
-53.29879665533178
1040
953.1830538149476
1040
1.0
1040
1.570796326794896
1040
3.141592653589792
1070
     0
1071
        1
1005
F8
1070
     0
1070
     1
1040
1.570796326794896
1040
15.0
1070
     0
1070
     1
1040
2.356194490192344
1040
147.9878772338371
1040
934.7322532805774
1040
-1.325825214724774
1040
-1.325825214724774
1070
     0
1071
        1
1040
147.9878772338371
1040
934.7322532805774
1040
0.0
1002
}
  0
SEQEND
  5
3E1
  8
回09-寸法
  6
CONTINUOUS
 62
     7
  0
POLYLINE
  5
F8
  8
回08-記事
  6
DASHED2
 62
     8
 66
     1
 10
0.0
 20
0.0
 30
0.0
 70
     1
1001
ACAD
1000
ASC_BOUNDS
1002
{
1070
    19
1005
F7
1002
}
  0
VERTEX
  5
799
  8
回08-記事
  6
DASHED2
 62
     8
 10
-54.29879665533178
 20
953.1830538149476
 30
0.0
  0
VERTEX
  5
79B
  8
回08-記事
  6
DASHED2
 62
     8
 10
-54.29879665533178
 20
956.1830538149477
 30
0.0
 42
-0.4142135623730951
  0
VERTEX
  5
79C
  8
回08-記事
  6
DASHED2
 62
     8
 10
-53.29879665533178
 20
957.1830538149477
 30
0.0
  0
VERTEX
  5
79D
  8
回08-記事
  6
DASHED2
 62
     8
 10
-29.29879665533178
 20
957.1830538149477
 30
0.0
 42
-0.4142135623730951
  0
VERTEX
  5
79E
  8
回08-記事
  6
DASHED2
 62
     8
 10
-28.29879665533179
 20
956.1830538149477
 30
0.0
  0
VERTEX
  5
79F
  8
回08-記事
  6
DASHED2
 62
     8
 10
-28.29879665533179
 20
953.1830538149476
 30
0.0
 42
-0.4142135623730951
  0
VERTEX
  5
7A0
  8
回08-記事
  6
DASHED2
 62
     8
 10
-29.29879665533178
 20
952.1830538149476
 30
0.0
  0
VERTEX
  5
7A1
  8
回08-記事
  6
DASHED2
 62
     8
 10
-53.29879665533178
 20
952.1830538149476
 30
0.0
 42
-0.4142135623730946
  0
SEQEND
  5
79A
  8
回09-寸法
  6
CONTINUOUS
 62
     7
  0
TEXT
  5
FA
  8
回09-寸法
  6
CONTINUOUS
 62
     5
 10
10.91996977863374
 20
855.2127673145927
 30
0.0
 40
7.0
  1
SECTION A
  0
TEXT
  5
FB
  8
回09-寸法
  6
CONTINUOUS
 62
     5
 10
-13.92944443365934
 20
967.7515669799907
 30
0.0
 40
6.0
  1
A
  0
INSERT
  5
FC
  8
回08-記事
  6
CONTINUOUS
 62
     7
 66
     1
  2
*X393939
 10
0.0
 20
0.0
 30
0.0
  0
SEQEND
  5
3F1
  8
回09-寸法
  6
CONTINUOUS
 62
     7
  0
CIRCLE
  5
FD
  8
回08-記事
  6
DASHED2
 62
     5
 10
2.01289814697918
 20
954.239744639146
 30
0.0
 40
7.018766476975851
  0
DIMENSION
  5
FE
  8
回90-和A1
  6
CONTINUOUS
 62
     5
  2
*D262626
 10
108.0920175465005
 20
843.3296206005159
 30
0.0
 11
104.2920175465007
 21
878.7097681595708
 31
0.0
 70
     0
  1
6.25{\H0.6667x;±0.2}[0.246{\H0.6667x;±0.008}]
  3
KOUSA
 13
64.91875900809484
 23
820.8296206005154
 33
0.0
 14
64.91875900809484
 24
843.3296206005154
 34
0.0
 50
270.0
1001
ACAD
1000
DSTYLE
1002
{
1070
    47
1040
0.2
1070
    48
1040
0.2
1070
    71
1070
     0
1070
   140
1040
4.0
1070
   288
1070
     0
1070
   341
1005
0
1070
   371
1070
    13
1070
   372
1070
    13
1002
}
  0
ARC
  5
113
  8
回08-記事
  6
CONTINUOUS
 62
     7
 10
64.91875900809481
 20
822.6296206005153
 30
0.0
 40
1.799999999999999
 50
270.0
 51
0.0
  0
LINE
  5
114
  8
回08-記事
  6
CONTINUOUS
 62
     7
 10
64.91875900809481
 20
820.8296206005154
 30
0.0
 11
32.9979898556349
 21
820.8296206005154
 31
0.0
  0
ARC
  5
115
  8
回08-記事
  6
CONTINUOUS
 62
     7
 10
64.91875900809481
 20
841.5296206005152
 30
0.0
 40
1.799999999999999
 50
0.0
 51
90.0
  0
LINE
  5
116
  8
回08-記事
  6
CONTINUOUS
 62
     7
 10
64.91875900809481
 20
843.3296206005156
 30
0.0
 11
32.9979898556349
 21
843.3296206005156
 31
0.0
  0
LINE
  5
117
  8
回08-記事
  6
CONTINUOUS
 62
     7
 10
48.71875900809488
 20
820.8296206005154
 30
0.0
 11
48.71875900809488
 21
843.3296206005156
 31
0.0
  0
LINE
  5
118
  8
回08-記事
  6
CONTINUOUS
 62
     7
 10
66.71875900809488
 20
822.6296206005153
 30
0.0
 11
66.71875900809488
 21
841.5296206005152
 31
0.0
  0
POLYLINE
  5
119
  8
回08-記事
  6
CONTINUOUS
 62
     8
 66
     1
 10
0.0
 20
0.0
 30
0.0
 40
2.879999999999999
 41
2.879999999999999
  0
VERTEX
  5
7A2
  8
回08-記事
  6
CONTINUOUS
 62
     8
 10
66.71875900809482
 20
834.3296206005133
 30
0.0
  0
VERTEX
  5
7A4
  8
回08-記事
  6
CONTINUOUS
 62
     8
 10
48.71875900809484
 20
834.3296206005133
 30
0.0
  0
SEQEND
  5
7A3
  8
回09-寸法
  6
CONTINUOUS
 62
     7
  0
POLYLINE
  5
11A
  8
回08-記事
  6
CONTINUOUS
 62
     8
 66
     1
 10
0.0
 20
0.0
 30
0.0
 40
2.879999999999999
 41
2.879999999999999
  0
VERTEX
  5
7A5
  8
回08-記事
  6
CONTINUOUS
 62
     8
 10
66.71875900809482
 20
829.8296206005145
 30
0.0
  0
VERTEX
  5
7A7
  8
回08-記事
  6
CONTINUOUS
 62
     8
 10
48.71875900809484
 20
829.8296206005145
 30
0.0
  0
SEQEND
  5
7A6
  8
回09-寸法
  6
CONTINUOUS
 62
     7
  0
POLYLINE
  5
11B
  8
回08-記事
  6
CONTINUOUS
 62
     8
 66
     1
 10
0.0
 20
0.0
 30
0.0
 40
2.879999999999999
 41
2.879999999999999
  0
VERTEX
  5
7A8
  8
回08-記事
  6
CONTINUOUS
 62
     8
 10
66.71875900809482
 20
825.3296206005133
 30
0.0
  0
VERTEX
  5
7AA
  8
回08-記事
  6
CONTINUOUS
 62
     8
 10
48.71875900809484
 20
825.3296206005133
 30
0.0
  0
SEQEND
  5
7A9
  8
回09-寸法
  6
CONTINUOUS
 62
     7
  0
POLYLINE
  5
11C
  8
回08-記事
  6
CONTINUOUS
 62
     8
 66
     1
 10
0.0
 20
0.0
 30
0.0
 40
2.879999999999999
 41
2.879999999999999
  0
VERTEX
  5
7AB
  8
回08-記事
  6
CONTINUOUS
 62
     8
 10
66.71875900809482
 20
838.8296206005133
 30
0.0
  0
VERTEX
  5
7AD
  8
回08-記事
  6
CONTINUOUS
 62
     8
 10
48.71875900809484
 20
838.8296206005133
 30
0.0
  0
SEQEND
  5
7AC
  8
回09-寸法
  6
CONTINUOUS
 62
     7
  0
DIMENSION
  5
11D
  8
回07-寸法
  6
CONTINUOUS
 62
     5
  2
*D252525
 10
73.62925707582829
 20
840.2696206005138
 30
0.0
 11
69.82925707582852
 21
880.6496206005133
 31
0.0
 70
     0
  1
4-0.7{\H0.6x;±0.1}[4-0.028{\H0.6x;±0.004}]
  3
DMC
 13
66.71875900809482
 23
837.3896206005136
 33
0.0
 14
66.71875900809482
 24
840.2696206005131
 34
0.0
 50
270.0
1001
ACAD
1000
DSTYLE
1002
{
1070
   372
1070
    13
1070
   371
1070
    13
1002
}
  0
DIMENSION
  5
131
  8
回07-寸法
  6
CONTINUOUS
 62
     5
  2
*D242424
 10
83.23115567284231
 20
838.8296206005136
 30
0.0
 11
83.23115567284212
 21
874.2017066068186
 31
0.0
 70
   128
  1
1.25{\H0.6x;±0.2}[0.049{\H0.6x;±0.008}]
  3
DMC
 13
66.71875900809482
 23
834.3296206005133
 33
0.0
 14
66.71875900809482
 24
838.8296206005133
 34
0.0
 50
270.0
1001
ACAD
1000
DSTYLE
1002
{
1070
   279
1070
     1
1070
   371
1070
    13
1070
   372
1070
    13
1002
}
  0
DIMENSION
  5
144
  8
回07-寸法
  6
CONTINUOUS
 62
     5
  2
*D232323
 10
93.48634110538458
 20
838.8296206005136
 30
0.0
 11
92.95497423009312
 21
874.9535197604949
 31
0.0
 70
   128
  1
3.75{\H0.6x;±0.1}[0.148{\H0.6x;±0.004}]
  3
DMC
 13
66.71875900809482
 23
825.3296206005133
 33
0.0
 14
66.71875900809482
 24
838.8296206005133
 34
0.0
 50
270.0
1001
ACAD
1000
DSTYLE
1002
{
1070
   279
1070
     1
1070
   371
1070
    13
1070
   372
1070
    13
1002
}
  0
LINE
  5
157
  8
版01-FER
  6
CONTINUOUS
 62
     5
 10
-0.3594809969623611
 20
751.8077691658858
 30
0.0
 11
-30.39617459193562
 21
773.9185443382515
 31
0.0
  0
TEXT
  5
15B
  8
回08-記事
  6
CONTINUOUS
 62
     5
 10
-80.59065677572709
 20
775.0897434123802
 30
0.0
 40
6.0
  1
TRACE EXPOSE
  0
TEXT
  5
15C
  8
回91-枠英1
 10
103.8506859414518
 20
671.6508842702062
 30
0.0
 40
7.5
  1
Sep/25/2023
  0
ARC
  5
160
  8
回08-記事
  6
CONTINUOUS
 62
     7
 10
-156.0680206619569
 20
749.3715197819835
 30
0.0
 40
0.5
 50
0.0
 51
180.0
  0
TEXT
  5
161
  8
回09-寸法
  6
CONTINUOUS
 62
     5
 10
-123.1948114490496
 20
935.5210918314767
 30
0.0
 40
5.0
  1
4-R1[R0.039]
1001
ACAD
1000
MTEXTBEGIN
1070
    73
1070
     1
1070
    44
1040
1.0
1070
    74
1070
     0
1000
MTEXTEND
  0
INSERT
  5
162
  8
回09-寸法
  6
CONTINUOUS
 62
     5
 66
     1
  2
*X404040
 10
0.0
 20
0.0
 30
0.0
  0
SEQEND
  5
404
  8
回09-寸法
  6
CONTINUOUS
 62
     7
  0
TEXT
  5
163
  8
回09-寸法
  6
CONTINUOUS
 62
     5
 10
-124.9323858440372
 20
927.5244909906373
 30
0.0
 40
5.0
  1
2-R2[R0.079]
1001
ACAD
1000
MTEXTBEGIN
1070
    73
1070
     1
1070
    44
1040
1.0
1070
    74
1070
     0
1000
MTEXTEND
  0
INSERT
  5
164
  8
回09-寸法
  6
CONTINUOUS
 62
     5
 66
     1
  2
*X414141
 10
0.0
 20
0.0
 30
0.0
  0
SEQEND
  5
40B
  8
回09-寸法
  6
CONTINUOUS
 62
     7
  0
DIMENSION
  5
165
  8
回09-寸法
  6
CONTINUOUS
 62
     5
  2
*D222222
 10
-127.5567580931787
 20
991.6170981008541
 30
0.0
 11
-104.9324940244668
 21
995.4170981008543
 31
0.0
 70
     0
  1
9.4 [0.370]
  3
DMC
 13
-137.6680206619568
 23
969.2630228350754
 33
0.0
 14
-127.5567580931787
 24
957.8125694244969
 34
0.0
1001
ACAD
1000
DSTYLE
1002
{
1070
   140
1040
5.0
1070
   371
1070
    13
1070
   372
1070
    13
1002
}
  0
DIMENSION
  5
174
  8
回09-寸法
  6
CONTINUOUS
 62
     5
  2
*D212121
 10
-63.32619396198271
 20
946.6887724587692
 30
0.0
 11
-63.32619396198243
 21
983.3863663902253
 31
0.0
 70
   128
  3
DMC
 13
-133.2760907535909
 23
962.686366390225
 33
0.0
 14
-133.2760907535909
 24
946.6887724587687
 34
0.0
 50
90.0
1001
ACAD
1000
DSTYLE
1002
{
1070
   140
1040
5.0
1070
   371
1070
    13
1070
   372
1070
    13
1002
}
  0
DIMENSION
  5
183
  8
回09-寸法
  6
CONTINUOUS
 62
     5
  2
*D202020
 10
-519.9080415346502
 20
807.1875694244972
 30
0.0
 11
-519.9080415346498
 21
783.7875694244972
 31
0.0
 70
   128
  3
DMC
 13
-487.2680206619567
 23
818.6875694244967
 33
0.0
 14
-492.2680206619567
 24
807.1875694244967
 34
0.0
 50
90.0
1001
ACAD
1000
DSTYLE
1002
{
1070
   372
1070
    13
1070
   371
1070
    13
1070
   140
1040
5.0
1002
}
  0
DIMENSION
  5
192
  8
回09-寸法
  6
CONTINUOUS
 62
     5
  2
*D191919
 10
-535.5598821439881
 20
807.1875694244972
 30
0.0
 11
-539.3613322210469
 21
781.3770864330144
 31
0.0
 70
     0
  3
DMC
 13
-488.5280206619567
 23
817.2195694244969
 33
0.0
 14
-492.2680206619567
 24
807.1875694244967
 34
0.0
 50
90.0
1001
ACAD
1000
DSTYLE
1002
{
1070
   372
1070
    13
1070
   371
1070
    13
1070
   140
1040
5.0
1002
}
  0
TEXT
  5
1A1
  8
回08-記事
  6
CONTINUOUS
 62
     7
 10
3.295361101751836
 20
947.2741033139255
 30
0.0
 40
5.0
  1
4
 50
270.0
  0
TEXT
  5
1A2
  8
回08-記事
  6
CONTINUOUS
 62
     7
 10
2.33016330554926
 20
965.1872471763722
 30
0.0
 40
5.0
  1
1
 50
270.0
  0
DIMENSION
  5
1A3
  8
回09-寸法
  6
CONTINUOUS
 62
     5
  2
*D181818
 10
19.68063635100369
 20
957.8125694244974
 30
0.0
 11
19.68063635100395
 21
913.7630418654415
 31
0.0
 70
   128
  3
DMC
 13
1.83197933804297
 23
951.5625694244963
 33
0.0
 14
1.83197933804297
 24
957.8125694244969
 34
0.0
 50
90.0
1001
ACAD
1000
DSTYLE
1002
{
1070
   372
1070
    13
1070
   371
1070
    13
1070
    47
1040
0.2
1070
   147
1040
0.5
1070
    48
1040
0.2
1070
    72
1070
     0
1070
    71
1070
     0
1070
   140
1040
5.0
1002
}
  0
DIMENSION
  5
1B2
  8
回09-寸法
  6
CONTINUOUS
 62
     5
  2
*D171717
 10
-137.6680206619568
 20
884.8031303586385
 30
0.0
 11
-70.29970887276113
 21
884.8031303586385
 31
0.0
 70
   128
  3
DMC
 13
2.331979338043197
 23
956.5625694244973
 33
0.0
 14
-137.6680206619568
 24
932.6402105871451
 34
0.0
1001
ACAD
1000
DSTYLE
1002
{
1070
    47
1040
1.0
1070
    48
1040
1.0
1070
    71
1070
     1
1070
   140
1040
5.0
1070
   371
1070
    13
1070
   372
1070
    13
1002
}
  0
DIMENSION
  5
1BF
  8
回09-寸法
  6
CONTINUOUS
 62
     5
  2
*D161616
 10
-511.3366586110772
 20
819.2195694244972
 30
0.0
 11
-511.3366586110766
 21
840.8276902112557
 31
0.0
 70
   128
  1
(<>)
  3
DMC
 13
-492.2680206619567
 23
817.2195694244969
 33
0.0
 14
-492.2680206619567
 24
819.2195694244967
 34
0.0
 50
90.0
1001
ACAD
1000
DSTYLE
1002
{
1070
   140
1040
5.0
1070
   371
1070
    13
1070
   372
1070
    13
1002
}
  0
DIMENSION
  5
1CE
  8
回09-寸法
  6
CONTINUOUS
 62
     5
  2
*D151515
 10
-507.5352085340178
 20
817.2195694244972
 30
0.0
 11
-507.5352085340173
 21
778.9794486377387
 31
0.0
 70
   128
  1
(<>)
  3
DMC
 13
-492.2680206619567
 23
807.1875694244967
 33
0.0
 14
-492.2680206619567
 24
817.2195694244969
 34
0.0
 50
90.0
1001
ACAD
1000
DSTYLE
1002
{
1070
   372
1070
    13
1070
   371
1070
    13
1070
   140
1040
5.0
1002
}
  0
DIMENSION
  5
1DD
  8
回09-寸法
  6
CONTINUOUS
 62
     5
  2
*D141414
 10
-566.9251695873453
 20
1102.187569424497
 30
0.0
 11
-570.7251695873448
 21
954.687569424497
 31
0.0
 70
     0
  3
DMC
 13
-492.2680206619567
 23
807.1875694244967
 33
0.0
 14
-492.2680206619567
 24
1102.187569424497
 34
0.0
 50
90.0
1001
ACAD
1000
DSTYLE
1002
{
1070
   372
1070
    13
1070
   371
1070
    13
1070
    47
1040
0.3
1070
   147
1040
0.5
1070
    48
1040
0.3
1070
    72
1070
     0
1070
    71
1070
     1
1070
   140
1040
5.0
1002
}
  0
DIMENSION
  5
1EA
  8
回09-寸法
  6
CONTINUOUS
 62
     5
  2
*D131313
 10
-535.5598821439881
 20
817.2195694244972
 30
0.0
 11
-535.5598821439876
 21
955.0472511904413
 31
0.0
 70
   128
  1
<>(VIEWING ARA)
  3
DMC
 13
-488.5280206619567
 23
1092.155569424497
 33
0.0
 14
-488.5280206619567
 24
817.2195694244969
 34
0.0
 50
90.0
1001
ACAD
1000
DSTYLE
1002
{
1070
   372
1070
    13
1070
   371
1070
    13
1070
   140
1040
5.0
1002
}
  0
DIMENSION
  5
1F7
  8
回09-寸法
  6
CONTINUOUS
 62
     5
  2
*D121212
 10
-498.931952972341
 20
954.6875694244972
 30
0.0
 11
-498.9319529723403
 21
892.5480707491615
 31
0.0
 70
   128
  1
<> (ACTIVE AREA CENTER)
  3
DMC
 13
-492.2680206619567
 23
807.1875694244967
 33
0.0
 14
-492.2680206619567
 24
954.6875694244969
 34
0.0
 50
90.0
1001
ACAD
1000
DSTYLE
1002
{
1070
   140
1040
5.0
1070
   371
1070
    13
1070
   372
1070
    13
1002
}
  0
DIMENSION
  5
204
  8
回09-寸法
  6
CONTINUOUS
 62
     5
  2
*D111111
 10
-519.9080415346506
 20
818.6875694244973
 30
0.0
 11
-523.7094916117091
 21
954.687569424497
 31
0.0
 70
     0
  1
<>(ACTIVE AREA)
  3
DMC
 13
-487.2680206619567
 23
1090.687569424497
 33
0.0
 14
-487.2680206619567
 24
818.6875694244967
 34
0.0
 50
90.0
1001
ACAD
1000
DSTYLE
1002
{
1070
   372
1070
    13
1070
   371
1070
    13
1070
   140
1040
5.0
1002
}
  0
TEXT
  5
211
  8
回08-記事
  6
CONTINUOUS
 62
     5
 10
-221.0871187967947
 20
786.6860560071172
 30
0.0
 40
5.0
  1
AST-171A
1001
ACAD
1000
MTEXTBEGIN
1070
    73
1070
     1
1070
    44
1040
1.0
1070
    74
1070
     0
1000
MTEXTEND
  0
TEXT
  5
212
  8
回08-記事
  6
CONTINUOUS
 62
     5
 10
-208.9061230301928
 20
729.3108154959593
 30
0.0
 40
6.0
  1
PROTECTION TAPE
  0
TEXT
  5
213
  8
回08-記事
  6
CONTINUOUS
 62
     5
 10
-49.55026712198072
 20
729.7335624891078
 30
0.0
 40
6.0
  1
STIFFENER
  0
TEXT
  5
214
  8
回08-記事
  6
CONTINUOUS
 62
     5
 10
-174.75226822471
 20
760.2767999204407
 30
0.0
 40
6.0
  1
REINFORCEMENT FILM
  0
TEXT
  5
215
  8
回08-記事
  6
CONTINUOUS
 62
     5
 10
-107.1501191603264
 20
733.5723910274678
 30
0.0
 40
6.0
  1
TAIL
  0
TEXT
  5
216
  8
回08-記事
  6
CONTINUOUS
 62
     5
 10
-346.8824347656608
 20
727.48716495684
 30
0.0
 40
6.0
  1
ITO GLASS
  0
TEXT
  5
217
  8
回08-記事
  6
CONTINUOUS
 62
     5
 10
-279.8070641627736
 20
765.7867792710471
 30
0.0
 40
6.0
  1
ITO FILM
  0
LINE
  5
218
  8
回08-記事
  6
CONTINUOUS
 62
     5
 10
-138.7939066868701
 20
745.1017492691131
 30
0.0
 11
-145.097616405007
 21
737.3810431824263
 31
0.0
  0
LINE
  5
219
  8
回08-記事
  6
CONTINUOUS
 62
     5
 10
-335.7818554706999
 20
747.3904815827332
 30
0.0
 11
-339.7727405117283
 21
734.5717881546995
 31
0.0
  0
LINE
  5
21A
  8
回08-記事
  6
CONTINUOUS
 62
     5
 10
-270.187681543645
 20
752.8153134668185
 30
0.0
 11
-275.5234750418903
 21
764.5115464660463
 31
0.0
  0
LINE
  5
21B
  8
回08-記事
  6
CONTINUOUS
 62
     5
 10
-97.76857031040515
 20
750.2025654530004
 30
0.0
 11
-101.2437024115751
 21
740.9421428561078
 31
0.0
  0
LINE
  5
21C
  8
回08-記事
  6
CONTINUOUS
 62
     5
 10
-117.7074786530667
 20
752.017938654799
 30
0.0
 11
-121.2987046912047
 21
758.2340625083583
 31
0.0
  0
LINE
  5
21D
  8
回08-記事
  6
CONTINUOUS
 62
     5
 10
-6.227905454114874
 20
747.72110582267
 30
0.0
 11
-23.59207219258371
 21
738.0897294536119
 31
0.0
  0
DIMENSION
  5
21E
  8
回09-寸法
  6
CONTINUOUS
 62
     5
  2
*D101010
 10
-7.668020661956802
 20
717.968409625977
 30
0.0
 11
-31.07614144871521
 21
717.968409625977
 31
0.0
 70
   128
  1
(<>)
  3
DMC
 13
2.331979338043197
 23
746.6715197819832
 33
0.0
 14
-7.668020661956802
 24
746.6715197819832
 34
0.0
 50
180.0
1001
ACAD
1000
DSTYLE
1002
{
1070
   140
1040
5.0
1070
   371
1070
    13
1070
   372
1070
    13
1002
}
  0
DIMENSION
  5
22D
  8
回09-寸法
  6
CONTINUOUS
 62
     5
  2
*D999
 10
-2.668020661956799
 20
766.4266164510937
 30
0.0
 11
-0.1680206619568016
 21
766.4266164510937
 31
0.0
 70
   128
  3
DMC
 13
2.331979338043197
 23
751.5715197819835
 33
0.0
 14
-2.6680206619568
 24
752.5715197819835
 34
0.0
 50
180.0
1001
ACAD
1000
DSTYLE
1002
{
1070
   140
1040
5.0
1070
   371
1070
    13
1070
   372
1070
    13
1002
}
  0
DIMENSION
  5
23A
  8
回09-寸法
  6
CONTINUOUS
 62
     5
  2
*D888
 10
-498.4178860420217
 20
745.5715197819837
 30
0.0
 11
-502.2178860420216
 21
713.2947186796212
 31
0.0
 70
     0
  1
2.1{\H0.6667x;±0.2}[0.083{\H0.6667x;±0.008}]
  3
DMC
 13
-491.9680206619569
 23
754.0715197819835
 33
0.0
 14
-492.2680206619567
 24
745.5715197819832
 34
0.0
 50
90.0
1001
ACAD
1000
DSTYLE
1002
{
1070
   372
1070
    13
1070
   371
1070
    13
1070
   140
1040
5.0
1002
}
  0
DIMENSION
  5
249
  8
回09-寸法
  6
CONTINUOUS
 62
     5
  2
*D777
 10
27.84605976577747
 20
746.6715197819836
 30
0.0
 11
27.84605976577768
 21
785.174571986708
 31
0.0
 70
   128
  1
0.3{\H0.6667x;±0.05}[0.012{\H0.6667x;±0.002}]
  3
DMC
 13
2.331979338043197
 23
751.5715197819835
 33
0.0
 14
2.331979338043197
 24
746.6715197819832
 34
0.0
 50
90.0
1001
ACAD
1000
DSTYLE
1002
{
1070
   140
1040
5.0
1070
   371
1070
    13
1070
   372
1070
    13
1002
}
  0
ARC
  5
258
  8
回08-記事
  6
CONTINUOUS
 62
     7
 10
-148.0680206619569
 20
749.3715197819835
 30
0.0
 40
0.5
 50
0.0
 51
180.0
  0
ARC
  5
259
  8
回08-記事
  6
CONTINUOUS
 62
     7
 10
-152.0680206619569
 20
749.3715197819835
 30
0.0
 40
0.5
 50
0.0
 51
180.0
  0
ARC
  5
25A
  8
回08-記事
  6
CONTINUOUS
 62
     7
 10
-160.0680206619569
 20
749.3715197819835
 30
0.0
 40
0.5
 50
0.0
 51
180.0
  0
ARC
  5
25B
  8
回08-記事
  6
CONTINUOUS
 62
     7
 10
-164.0680206619569
 20
749.3715197819835
 30
0.0
 40
0.5
 50
0.0
 51
180.0
  0
ARC
  5
25C
  8
回08-記事
  6
CONTINUOUS
 62
     7
 10
-168.0680206619569
 20
749.3715197819835
 30
0.0
 40
0.5
 50
0.0
 51
180.0
  0
ARC
  5
25D
  8
回08-記事
  6
CONTINUOUS
 62
     7
 10
-172.0680206619569
 20
749.3715197819835
 30
0.0
 40
0.5
 50
0.0
 51
180.0
  0
ARC
  5
25E
  8
回08-記事
  6
CONTINUOUS
 62
     7
 10
-176.0680206619569
 20
749.3715197819835
 30
0.0
 40
0.5
 50
0.0
 51
180.0
  0
ARC
  5
25F
  8
回08-記事
  6
CONTINUOUS
 62
     7
 10
-180.0680206619569
 20
749.3715197819835
 30
0.0
 40
0.5
 50
0.0
 51
180.0
  0
ARC
  5
260
  8
回08-記事
  6
CONTINUOUS
 62
     7
 10
-184.0680206619569
 20
749.3715197819835
 30
0.0
 40
0.5
 50
0.0
 51
180.0
  0
ARC
  5
261
  8
回08-記事
  6
CONTINUOUS
 62
     7
 10
-188.0680206619569
 20
749.3715197819835
 30
0.0
 40
0.5
 50
0.0
 51
180.0
  0
ARC
  5
262
  8
回08-記事
  6
CONTINUOUS
 62
     7
 10
-192.0680206619569
 20
749.3715197819835
 30
0.0
 40
0.5
 50
0.0
 51
180.0
  0
ARC
  5
263
  8
回08-記事
  6
CONTINUOUS
 62
     7
 10
-196.0680206619569
 20
749.3715197819835
 30
0.0
 40
0.5
 50
0.0
 51
180.0
  0
ARC
  5
264
  8
回08-記事
  6
CONTINUOUS
 62
     7
 10
-200.0680206619569
 20
749.3715197819835
 30
0.0
 40
0.5
 50
0.0
 51
180.0
  0
ARC
  5
265
  8
回08-記事
  6
CONTINUOUS
 62
     7
 10
-204.0680206619569
 20
749.3715197819835
 30
0.0
 40
0.5
 50
0.0
 51
180.0
  0
ARC
  5
266
  8
回08-記事
  6
CONTINUOUS
 62
     7
 10
-208.0680206619569
 20
749.3715197819835
 30
0.0
 40
0.5
 50
0.0
 51
180.0
  0
ARC
  5
267
  8
回08-記事
  6
CONTINUOUS
 62
     7
 10
-212.0680206619569
 20
749.3715197819835
 30
0.0
 40
0.5
 50
0.0
 51
180.0
  0
ARC
  5
268
  8
回08-記事
  6
CONTINUOUS
 62
     7
 10
-216.0680206619569
 20
749.3715197819835
 30
0.0
 40
0.5
 50
0.0
 51
180.0
  0
ARC
  5
269
  8
回08-記事
  6
CONTINUOUS
 62
     7
 10
-220.0680206619569
 20
749.3715197819835
 30
0.0
 40
0.5
 50
0.0
 51
180.0
  0
ARC
  5
26A
  8
回08-記事
  6
CONTINUOUS
 62
     7
 10
-224.0680206619569
 20
749.3715197819835
 30
0.0
 40
0.5
 50
0.0
 51
180.0
  0
ARC
  5
26B
  8
回08-記事
  6
CONTINUOUS
 62
     7
 10
-228.0680206619569
 20
749.3715197819835
 30
0.0
 40
0.5
 50
0.0
 51
180.0
  0
ARC
  5
26C
  8
回08-記事
  6
CONTINUOUS
 62
     7
 10
-232.0680206619569
 20
749.3715197819835
 30
0.0
 40
0.5
 50
0.0
 51
180.0
  0
ARC
  5
26D
  8
回08-記事
  6
CONTINUOUS
 62
     7
 10
-236.0680206619569
 20
749.3715197819835
 30
0.0
 40
0.5
 50
0.0
 51
180.0
  0
ARC
  5
26E
  8
回08-記事
  6
CONTINUOUS
 62
     7
 10
-240.0680206619569
 20
749.3715197819835
 30
0.0
 40
0.5
 50
0.0
 51
180.0
  0
ARC
  5
26F
  8
回08-記事
  6
CONTINUOUS
 62
     7
 10
-244.0680206619569
 20
749.3715197819835
 30
0.0
 40
0.5
 50
0.0
 51
180.0
  0
ARC
  5
270
  8
回08-記事
  6
CONTINUOUS
 62
     7
 10
-248.0680206619569
 20
749.3715197819835
 30
0.0
 40
0.5
 50
0.0
 51
180.0
  0
ARC
  5
271
  8
回08-記事
  6
CONTINUOUS
 62
     7
 10
-252.0680206619569
 20
749.3715197819835
 30
0.0
 40
0.5
 50
0.0
 51
180.0
  0
ARC
  5
272
  8
回08-記事
  6
CONTINUOUS
 62
     7
 10
-256.0680206619569
 20
749.3715197819835
 30
0.0
 40
0.5
 50
0.0
 51
180.0
  0
ARC
  5
273
  8
回08-記事
  6
CONTINUOUS
 62
     7
 10
-260.0680206619569
 20
749.3715197819835
 30
0.0
 40
0.5
 50
0.0
 51
180.0
  0
ARC
  5
274
  8
回08-記事
  6
CONTINUOUS
 62
     7
 10
-264.0680206619569
 20
749.3715197819835
 30
0.0
 40
0.5
 50
0.0
 51
180.0
  0
ARC
  5
275
  8
回08-記事
  6
CONTINUOUS
 62
     7
 10
-268.0680206619569
 20
749.3715197819835
 30
0.0
 40
0.5
 50
0.0
 51
180.0
  0
ARC
  5
276
  8
回08-記事
  6
CONTINUOUS
 62
     7
 10
-272.0680206619569
 20
749.3715197819835
 30
0.0
 40
0.5
 50
0.0
 51
180.0
  0
ARC
  5
277
  8
回08-記事
  6
CONTINUOUS
 62
     7
 10
-276.0680206619569
 20
749.3715197819835
 30
0.0
 40
0.5
 50
0.0
 51
180.0
  0
ARC
  5
278
  8
回08-記事
  6
CONTINUOUS
 62
     7
 10
-280.0680206619569
 20
749.3715197819835
 30
0.0
 40
0.5
 50
0.0
 51
180.0
  0
ARC
  5
279
  8
回08-記事
  6
CONTINUOUS
 62
     7
 10
-284.0680206619568
 20
749.3715197819835
 30
0.0
 40
0.5
 50
0.0
 51
180.0
  0
ARC
  5
27A
  8
回08-記事
  6
CONTINUOUS
 62
     7
 10
-288.0680206619569
 20
749.3715197819835
 30
0.0
 40
0.5
 50
0.0
 51
180.0
  0
ARC
  5
27B
  8
回08-記事
  6
CONTINUOUS
 62
     7
 10
-292.0680206619568
 20
749.3715197819835
 30
0.0
 40
0.5
 50
0.0
 51
180.0
  0
ARC
  5
27C
  8
回08-記事
  6
CONTINUOUS
 62
     7
 10
-296.0680206619569
 20
749.3715197819835
 30
0.0
 40
0.5
 50
0.0
 51
180.0
  0
ARC
  5
27D
  8
回08-記事
  6
CONTINUOUS
 62
     7
 10
-300.0680206619569
 20
749.3715197819835
 30
0.0
 40
0.5
 50
0.0
 51
180.0
  0
ARC
  5
27E
  8
回08-記事
  6
CONTINUOUS
 62
     7
 10
-304.0680206619569
 20
749.3715197819835
 30
0.0
 40
0.5
 50
0.0
 51
180.0
  0
ARC
  5
27F
  8
回08-記事
  6
CONTINUOUS
 62
     7
 10
-308.0680206619569
 20
749.3715197819835
 30
0.0
 40
0.5
 50
0.0
 51
180.0
  0
ARC
  5
280
  8
回08-記事
  6
CONTINUOUS
 62
     7
 10
-312.0680206619568
 20
749.3715197819835
 30
0.0
 40
0.5
 50
0.0
 51
180.0
  0
ARC
  5
281
  8
回08-記事
  6
CONTINUOUS
 62
     7
 10
-316.0680206619568
 20
749.3715197819835
 30
0.0
 40
0.5
 50
0.0
 51
180.0
  0
ARC
  5
282
  8
回08-記事
  6
CONTINUOUS
 62
     7
 10
-484.0680206619585
 20
749.3715197819835
 30
0.0
 40
0.5
 50
0.0
 51
180.0
  0
ARC
  5
283
  8
回08-記事
  6
CONTINUOUS
 62
     7
 10
-480.0680206619585
 20
749.3715197819835
 30
0.0
 40
0.5
 50
0.0
 51
180.0
  0
ARC
  5
284
  8
回08-記事
  6
CONTINUOUS
 62
     7
 10
-476.0680206619585
 20
749.3715197819835
 30
0.0
 40
0.5
 50
0.0
 51
180.0
  0
ARC
  5
285
  8
回08-記事
  6
CONTINUOUS
 62
     7
 10
-472.0680206619585
 20
749.3715197819835
 30
0.0
 40
0.5
 50
0.0
 51
180.0
  0
ARC
  5
286
  8
回08-記事
  6
CONTINUOUS
 62
     7
 10
-468.0680206619585
 20
749.3715197819835
 30
0.0
 40
0.5
 50
0.0
 51
180.0
  0
ARC
  5
287
  8
回08-記事
  6
CONTINUOUS
 62
     7
 10
-464.0680206619585
 20
749.3715197819835
 30
0.0
 40
0.5
 50
0.0
 51
180.0
  0
ARC
  5
288
  8
回08-記事
  6
CONTINUOUS
 62
     7
 10
-460.0680206619581
 20
749.3715197819835
 30
0.0
 40
0.5
 50
0.0
 51
180.0
  0
ARC
  5
289
  8
回08-記事
  6
CONTINUOUS
 62
     7
 10
-456.0680206619581
 20
749.3715197819835
 30
0.0
 40
0.5
 50
0.0
 51
180.0
  0
ARC
  5
28A
  8
回08-記事
  6
CONTINUOUS
 62
     7
 10
-452.0680206619581
 20
749.3715197819835
 30
0.0
 40
0.5
 50
0.0
 51
180.0
  0
ARC
  5
28B
  8
回08-記事
  6
CONTINUOUS
 62
     7
 10
-448.0680206619581
 20
749.3715197819835
 30
0.0
 40
0.5
 50
0.0
 51
180.0
  0
ARC
  5
28C
  8
回08-記事
  6
CONTINUOUS
 62
     7
 10
-444.0680206619581
 20
749.3715197819835
 30
0.0
 40
0.5
 50
0.0
 51
180.0
  0
ARC
  5
28D
  8
回08-記事
  6
CONTINUOUS
 62
     7
 10
-440.0680206619581
 20
749.3715197819835
 30
0.0
 40
0.5
 50
0.0
 51
180.0
  0
ARC
  5
28E
  8
回08-記事
  6
CONTINUOUS
 62
     7
 10
-436.068020661958
 20
749.3715197819835
 30
0.0
 40
0.5
 50
0.0
 51
180.0
  0
ARC
  5
28F
  8
回08-記事
  6
CONTINUOUS
 62
     7
 10
-432.068020661958
 20
749.3715197819835
 30
0.0
 40
0.5
 50
0.0
 51
180.0
  0
ARC
  5
290
  8
回08-記事
  6
CONTINUOUS
 62
     7
 10
-428.068020661958
 20
749.3715197819835
 30
0.0
 40
0.5
 50
0.0
 51
180.0
  0
ARC
  5
291
  8
回08-記事
  6
CONTINUOUS
 62
     7
 10
-424.068020661958
 20
749.3715197819835
 30
0.0
 40
0.5
 50
0.0
 51
180.0
  0
ARC
  5
292
  8
回08-記事
  6
CONTINUOUS
 62
     7
 10
-420.0680206619578
 20
749.3715197819835
 30
0.0
 40
0.5
 50
0.0
 51
180.0
  0
ARC
  5
293
  8
回08-記事
  6
CONTINUOUS
 62
     7
 10
-416.0680206619578
 20
749.3715197819835
 30
0.0
 40
0.5
 50
0.0
 51
180.0
  0
ARC
  5
294
  8
回08-記事
  6
CONTINUOUS
 62
     7
 10
-412.0680206619578
 20
749.3715197819835
 30
0.0
 40
0.5
 50
0.0
 51
180.0
  0
ARC
  5
295
  8
回08-記事
  6
CONTINUOUS
 62
     7
 10
-408.0680206619578
 20
749.3715197819835
 30
0.0
 40
0.5
 50
0.0
 51
180.0
  0
ARC
  5
296
  8
回08-記事
  6
CONTINUOUS
 62
     7
 10
-404.0680206619578
 20
749.3715197819835
 30
0.0
 40
0.5
 50
0.0
 51
180.0
  0
ARC
  5
297
  8
回08-記事
  6
CONTINUOUS
 62
     7
 10
-400.0680206619578
 20
749.3715197819835
 30
0.0
 40
0.5
 50
0.0
 51
180.0
  0
ARC
  5
298
  8
回08-記事
  6
CONTINUOUS
 62
     7
 10
-396.0680206619578
 20
749.3715197819835
 30
0.0
 40
0.5
 50
0.0
 51
180.0
  0
ARC
  5
299
  8
回08-記事
  6
CONTINUOUS
 62
     7
 10
-392.0680206619578
 20
749.3715197819835
 30
0.0
 40
0.5
 50
0.0
 51
180.0
  0
ARC
  5
29A
  8
回08-記事
  6
CONTINUOUS
 62
     7
 10
-388.0680206619578
 20
749.3715197819835
 30
0.0
 40
0.5
 50
0.0
 51
180.0
  0
ARC
  5
29B
  8
回08-記事
  6
CONTINUOUS
 62
     7
 10
-384.0680206619576
 20
749.3715197819835
 30
0.0
 40
0.5
 50
0.0
 51
180.0
  0
ARC
  5
29C
  8
回08-記事
  6
CONTINUOUS
 62
     7
 10
-380.0680206619576
 20
749.3715197819835
 30
0.0
 40
0.5
 50
0.0
 51
180.0
  0
ARC
  5
29D
  8
回08-記事
  6
CONTINUOUS
 62
     7
 10
-376.0680206619576
 20
749.3715197819835
 30
0.0
 40
0.5
 50
0.0
 51
180.0
  0
ARC
  5
29E
  8
回08-記事
  6
CONTINUOUS
 62
     7
 10
-372.0680206619574
 20
749.3715197819835
 30
0.0
 40
0.5
 50
0.0
 51
180.0
  0
ARC
  5
29F
  8
回08-記事
  6
CONTINUOUS
 62
     7
 10
-368.0680206619574
 20
749.3715197819835
 30
0.0
 40
0.5
 50
0.0
 51
180.0
  0
ARC
  5
2A0
  8
回08-記事
  6
CONTINUOUS
 62
     7
 10
-364.0680206619574
 20
749.3715197819835
 30
0.0
 40
0.5
 50
0.0
 51
180.0
  0
ARC
  5
2A1
  8
回08-記事
  6
CONTINUOUS
 62
     7
 10
-360.0680206619573
 20
749.3715197819835
 30
0.0
 40
0.5
 50
0.0
 51
180.0
  0
ARC
  5
2A2
  8
回08-記事
  6
CONTINUOUS
 62
     7
 10
-356.0680206619573
 20
749.3715197819835
 30
0.0
 40
0.5
 50
0.0
 51
180.0
  0
ARC
  5
2A3
  8
回08-記事
  6
CONTINUOUS
 62
     7
 10
-352.0680206619573
 20
749.3715197819835
 30
0.0
 40
0.5
 50
0.0
 51
180.0
  0
ARC
  5
2A4
  8
回08-記事
  6
CONTINUOUS
 62
     7
 10
-348.0680206619573
 20
749.3715197819835
 30
0.0
 40
0.5
 50
0.0
 51
180.0
  0
ARC
  5
2A5
  8
回08-記事
  6
CONTINUOUS
 62
     7
 10
-344.0680206619573
 20
749.3715197819835
 30
0.0
 40
0.5
 50
0.0
 51
180.0
  0
ARC
  5
2A6
  8
回08-記事
  6
CONTINUOUS
 62
     7
 10
-340.0680206619573
 20
749.3715197819835
 30
0.0
 40
0.5
 50
0.0
 51
180.0
  0
ARC
  5
2A7
  8
回08-記事
  6
CONTINUOUS
 62
     7
 10
-336.0680206619571
 20
749.3715197819835
 30
0.0
 40
0.5
 50
0.0
 51
180.0
  0
ARC
  5
2A8
  8
回08-記事
  6
CONTINUOUS
 62
     7
 10
-332.0680206619571
 20
749.3715197819835
 30
0.0
 40
0.5
 50
0.0
 51
180.0
  0
ARC
  5
2A9
  8
回08-記事
  6
CONTINUOUS
 62
     7
 10
-328.0680206619571
 20
749.3715197819835
 30
0.0
 40
0.5
 50
0.0
 51
180.0
  0
ARC
  5
2AA
  8
回08-記事
  6
CONTINUOUS
 62
     7
 10
-324.0680206619571
 20
749.3715197819835
 30
0.0
 40
0.5
 50
0.0
 51
180.0
  0
ARC
  5
2AB
  8
回08-記事
  6
CONTINUOUS
 62
     7
 10
-320.0680206619568
 20
749.3715197819835
 30
0.0
 40
0.5
 50
0.0
 51
180.0
  0
LINE
  5
2AC
  8
回08-記事
  6
CONTINUOUS
 62
     7
 10
-488.5280206619567
 20
751.5715197819835
 30
0.0
 11
-488.5280206619567
 21
749.3715197819835
 31
0.0
  0
LINE
  5
2AD
  8
回08-記事
  6
CONTINUOUS
 62
     7
 10
-141.9680206619565
 20
751.5715197819835
 30
0.0
 11
-141.9680206619565
 21
749.3715197819835
 31
0.0
  0
LINE
  5
2AE
  8
回08-記事
  6
CONTINUOUS
 62
     7
 10
-146.0080206619567
 20
751.5715197819835
 30
0.0
 11
-146.0080206619567
 21
749.3715197819835
 31
0.0
  0
LINE
  5
2AF
  8
回08-記事
  6
CONTINUOUS
 62
     7
 10
-2.6680206619568
 20
752.5715197819835
 30
0.0
 11
-137.968020661957
 21
752.5715197819835
 31
0.0
  0
LINE
  5
2B0
  8
回08-記事
  6
CONTINUOUS
 62
     7
 10
-2.6680206619568
 20
751.5715197819835
 30
0.0
 11
-2.6680206619568
 21
752.5715197819835
 31
0.0
  0
LINE
  5
2B1
  8
回08-記事
  6
CONTINUOUS
 62
     7
 10
-7.668020661956802
 20
749.3715197819835
 30
0.0
 11
-7.668020661956802
 21
746.6715197819832
 31
0.0
  0
LINE
  5
2B2
  8
回08-記事
  6
CONTINUOUS
 62
     7
 10
2.331979338043197
 20
746.6715197819832
 30
0.0
 11
-7.668020661956802
 21
746.6715197819832
 31
0.0
  0
LINE
  5
2B3
  8
回08-記事
  6
CONTINUOUS
 62
     7
 10
2.331979338043197
 20
751.5715197819835
 30
0.0
 11
2.331979338043197
 21
746.6715197819832
 31
0.0
  0
LINE
  5
2B4
  8
回08-記事
  6
CONTINUOUS
 62
     7
 10
-138.168020661957
 20
751.5715197819835
 30
0.0
 11
2.331979338043197
 21
751.5715197819835
 31
0.0
  0
LINE
  5
2B5
  8
回08-記事
  6
CONTINUOUS
 62
     7
 10
-138.168020661957
 20
749.3715197819835
 30
0.0
 11
2.331979338043197
 21
749.3715197819835
 31
0.0
  0
LINE
  5
2B6
  8
回08-記事
  6
CONTINUOUS
 62
     7
 10
-491.9680206619569
 20
754.0715197819835
 30
0.0
 11
-491.9680206619569
 21
749.3715197819835
 31
0.0
  0
LINE
  5
2B7
  8
回08-記事
  6
CONTINUOUS
 62
     7
 10
-492.2680206619567
 20
749.3715197819835
 30
0.0
 11
-492.2680206619567
 21
745.5715197819832
 31
0.0
  0
LINE
  5
2B8
  8
回08-記事
  6
CONTINUOUS
 62
     7
 10
-137.968020661957
 20
754.0715197819835
 30
0.0
 11
-137.968020661957
 21
751.5715197819835
 31
0.0
  0
LINE
  5
2B9
  8
回08-記事
  6
CONTINUOUS
 62
     7
 10
-137.668020661957
 20
745.5715197819832
 30
0.0
 11
-492.2680206619567
 21
745.5715197819832
 31
0.0
  0
LINE
  5
2BA
  8
回08-記事
  6
CONTINUOUS
 62
     7
 10
-137.668020661957
 20
749.3715197819835
 30
0.0
 11
-492.2680206619567
 21
749.3715197819835
 31
0.0
  0
LINE
  5
2BB
  8
回08-記事
  6
CONTINUOUS
 62
     7
 10
-138.168020661957
 20
751.5715197819835
 30
0.0
 11
-491.9680206619569
 21
751.5715197819835
 31
0.0
  0
LINE
  5
2BC
  8
回08-記事
  6
CONTINUOUS
 62
     7
 10
-137.968020661957
 20
754.0715197819835
 30
0.0
 11
-491.9680206619569
 21
754.0715197819835
 31
0.0
  0
ARC
  5
2BD
  8
回07-ﾃｰﾙ
  6
BYBLOCK
 62
     7
 10
-135.9680206619567
 20
964.6875696242199
 30
0.0
 40
2.0
 50
211.7883306170488
 51
269.9743942880672
  0
LINE
  5
2C1
  8
回07-ﾃｰﾙ
  6
BYBLOCK
 62
     7
 10
-133.2760907535904
 20
962.686366390225
 30
0.0
 11
-135.9689144698881
 21
962.687569823943
 31
0.0
  0
ARC
  5
2C2
  8
回07-ﾃｰﾙ
  6
BYBLOCK
 62
     7
 10
-127.5567580931787
 20
958.8125694244968
 30
0.0
 40
1.0
 50
225.1170071046098
 51
270.0
  0
ARC
  5
2C3
  8
回07-ﾃｰﾙ
  6
BYBLOCK
 62
     7
 10
-133.2765376575565
 20
961.6863664900868
 30
0.0
 40
1.0
 50
45.11700710460991
 51
89.97439428806728
  0
LINE
  5
2C4
  8
回07-ﾃｰﾙ
  6
BYBLOCK
 62
     7
 10
-128.26241937627
 20
958.1040200941423
 30
0.0
 11
-132.570876374465
 21
962.3949158204407
 31
0.0
  0
ARC
  5
2C5
  8
回07-ﾃｰﾙ
  6
BYBLOCK
 62
     7
 10
-127.5567580931787
 20
950.5625694244967
 30
0.0
 40
1.0
 50
90.0
 51
134.88299289539
  0
ARC
  5
2C6
  8
回07-ﾃｰﾙ
  6
BYBLOCK
 62
     7
 10
-133.2765376575565
 20
947.688772358907
 30
0.0
 40
1.0
 50
270.0256057119327
 51
314.8829928953901
  0
ARC
  5
2C7
  8
回07-ﾃｰﾙ
  6
BYBLOCK
 62
     7
 10
-135.9680206619567
 20
944.6875692247736
 30
0.0
 40
2.0
 50
90.02560571193274
 51
148.2116693829512
  0
LINE
  5
2C8
  8
回07-ﾃｰﾙ
  6
BYBLOCK
 62
     7
 10
-128.26241937627
 20
951.2711187548516
 30
0.0
 11
-132.570876374465
 21
946.9802230285527
 31
0.0
  0
LINE
  5
2C9
  8
回07-ﾃｰﾙ
  6
BYBLOCK
 62
     7
 10
-133.2760907535904
 20
946.6887724587687
 30
0.0
 11
-135.9689144698881
 21
946.6875690250509
 31
0.0
  0
LINE
  5
2CA
  8
回07-ﾃｰﾙ
  6
BYBLOCK
 62
     7
 10
2.331979338043197
 20
952.0625694244968
 30
0.0
 11
2.331979338043197
 21
957.3125694244968
 31
0.0
  0
ARC
  5
2CB
  8
回07-ﾃｰﾙ
  6
BYBLOCK
 62
     7
 10
1.83197933804297
 20
957.312569424497
 30
0.0
 40
0.5
 50
0.0
 51
90.0
  0
ARC
  5
2CC
  8
回07-ﾃｰﾙ
  6
BYBLOCK
 62
     7
 10
1.83197933804297
 20
952.0625694244968
 30
0.0
 40
0.5
 50
270.0
 51
0.0
  0
LINE
  5
2CD
  8
回07-ﾃｰﾙ
  6
BYBLOCK
 62
     7
 10
1.83197933804297
 20
957.8125694244969
 30
0.0
 11
-127.5567580931787
 21
957.8125694244969
 31
0.0
  0
LINE
  5
2CE
  8
回07-ﾃｰﾙ
  6
BYBLOCK
 62
     7
 10
1.83197933804297
 20
951.5625694244963
 30
0.0
 11
-127.5567580931785
 21
951.5625694244963
 31
0.0
  0
DIMENSION
  5
2CF
  8
回09-寸法
  6
CONTINUOUS
 62
     5
  2
*D666
 10
-492.2680206619567
 20
1121.296500246995
 30
0.0
 11
-510.8785036534396
 21
1121.296500246995
 31
0.0
 70
   128
  3
DMC
 13
-487.2680206619567
 23
1090.687569424497
 33
0.0
 14
-492.2680206619567
 24
1102.187569424497
 34
0.0
1001
ACAD
1000
DSTYLE
1002
{
1070
   372
1070
    13
1070
   371
1070
    13
1070
   140
1040
5.0
1002
}
  0
DIMENSION
  5
2DE
  8
回09-寸法
  6
CONTINUOUS
 62
     5
  2
*D555
 10
-492.2680206619567
 20
1134.282218226158
 30
0.0
 11
-516.5680206619566
 21
1134.282218226158
 31
0.0
 70
   128
  3
DMC
 13
-488.5280206619567
 23
1092.155569424497
 33
0.0
 14
-492.2680206619567
 24
1102.187569424497
 34
0.0
1001
ACAD
1000
DSTYLE
1002
{
1070
   372
1070
    13
1070
   371
1070
    13
1070
   140
1040
5.0
1002
}
  0
TEXT
  5
2ED
  8
回09-寸法
  6
CONTINUOUS
 62
     5
 10
-221.3434570747105
 20
794.4100055395153
 30
0.0
 40
5.0
  1
PART NO.
1001
ACAD
1000
MTEXTBEGIN
1070
    73
1070
     1
1070
    44
1040
1.0
1070
    74
1070
     0
1000
MTEXTEND
  0
INSERT
  5
2EE
  8
回09-寸法
  6
CONTINUOUS
 62
     7
 66
     1
  2
*X424242
 10
0.0
 20
0.0
 30
0.0
  0
SEQEND
  5
412
  8
回09-寸法
  6
CONTINUOUS
 62
     7
  0
TEXT
  5
2EF
  8
回08-記事
  6
CONTINUOUS
 62
     7
 10
-187.9639426977861
 20
809.0368111776449
 30
0.0
 40
2.399999999999999
  1
AST-171A
  0
TEXT
  5
2F0
  8
回09-寸法
  6
CONTINUOUS
 62
     5
 10
-479.5543112695567
 20
798.3182175588722
 30
0.0
 40
5.0
  1
AIR VENT
1001
ACAD
1000
MTEXTBEGIN
1070
    73
1070
     1
1070
    44
1040
1.0
1070
    74
1070
     0
1000
MTEXTEND
  0
INSERT
  5
2F1
  8
回09-寸法
  6
CONTINUOUS
 62
     7
 66
     1
  2
*X434343
 10
0.0
 20
0.0
 30
0.0
  0
SEQEND
  5
419
  8
回09-寸法
  6
CONTINUOUS
 62
     7
  0
LINE
  5
2F2
  8
回08-記事
  6
CONTINUOUS
 62
     7
 10
-488.5280206619567
 20
819.2195694244967
 30
0.0
 11
-492.2680206619567
 21
819.2195694244967
 31
0.0
  0
LINE
  5
2F3
  8
回08-記事
  6
CONTINUOUS
 62
     7
 10
-488.5280206619567
 20
817.2195694244969
 30
0.0
 11
-492.2680206619567
 21
817.2195694244969
 31
0.0
  0
TEXT
  5
2F4
  8
回08-記事
  6
CONTINUOUS
 62
     5
 10
-313.0050018253984
 20
823.9896273407552
 30
0.0
 40
6.0
  1
YD
  0
TEXT
  5
2F5
  8
回08-記事
  6
CONTINUOUS
 62
     5
 10
-313.0050018253984
 20
1079.625429444191
 30
0.0
 40
6.0
  1
YU
  0
TEXT
  5
2F6
  8
回08-記事
  6
CONTINUOUS
 62
     5
 10
-161.2908473884177
 20
959.1808437260899
 30
0.0
 40
6.0
  1
XR
  0
TEXT
  5
2F7
  8
回08-記事
  6
CONTINUOUS
 62
     5
 10
-480.547826117248
 20
959.1808437260899
 30
0.0
 40
6.0
  1
XL
  0
DIMENSION
  5
2F8
  8
回09-寸法
  6
CONTINUOUS
 62
     5
  2
*D444
 10
-317.2680206619566
 20
1108.215514026519
 30
0.0
 11
-404.7680206619567
 21
1112.016964103578
 31
0.0
 70
     0
  1
<> (ACTIVE AREA CENTER)
  3
DMC
 13
-492.2680206619567
 23
1102.187569424497
 33
0.0
 14
-317.2680206619566
 24
1102.187569424497
 34
0.0
1001
ACAD
1000
DSTYLE
1002
{
1070
   372
1070
    13
1070
   371
1070
    13
1070
   140
1040
5.0
1002
}
  0
DIMENSION
  5
305
  8
回09-寸法
  6
CONTINUOUS
 62
     5
  2
*D333
 10
-137.6680206619568
 20
1164.497818345485
 30
0.0
 11
-314.9680206619568
 21
1164.497818345485
 31
0.0
 70
   128
  3
DMC
 13
-492.2680206619567
 23
1102.187569424497
 33
0.0
 14
-137.6680206619568
 24
1102.187569424497
 34
0.0
1001
ACAD
1000
DSTYLE
1002
{
1070
   372
1070
    13
1070
   371
1070
    13
1070
    47
1040
0.3
1070
   147
1040
0.5
1070
    48
1040
0.3
1070
    72
1070
     0
1070
    71
1070
     1
1070
   140
1040
5.0
1002
}
  0
DIMENSION
  5
312
  8
回09-寸法
  6
CONTINUOUS
 62
     5
  2
*D222
 10
-146.0080206619569
 20
1134.282218226158
 30
0.0
 11
-317.268020661957
 21
1138.082218226158
 31
0.0
 70
     0
  1
<> (VIEWING AREA)
  3
DMC
 13
-488.5280206619567
 23
1092.155569424497
 33
0.0
 14
-146.0080206619569
 24
1092.155569424497
 34
0.0
1001
ACAD
1000
DSTYLE
1002
{
1070
   372
1070
    13
1070
   371
1070
    13
1070
   140
1040
5.0
1070
   271
1070
     3
1070
   272
1070
     3
1002
}
  0
POLYLINE
  5
31F
  8
回08-記事
  6
CONTINUOUS
 62
     7
 66
     1
 10
0.0
 20
0.0
 30
0.0
 70
     1
  0
VERTEX
  5
7AE
  8
回08-記事
  6
CONTINUOUS
 62
     7
 10
-488.5280206619567
 20
1092.155569424497
 30
0.0
  0
VERTEX
  5
7B0
  8
回08-記事
  6
CONTINUOUS
 62
     7
 10
-146.0080206619569
 20
1092.155569424497
 30
0.0
  0
VERTEX
  5
7B1
  8
回08-記事
  6
CONTINUOUS
 62
     7
 10
-146.0080206619569
 20
817.2195694244969
 30
0.0
  0
VERTEX
  5
7B2
  8
回08-記事
  6
CONTINUOUS
 62
     7
 10
-488.5280206619567
 20
817.2195694244969
 30
0.0
  0
SEQEND
  5
7AF
  8
回09-寸法
  6
CONTINUOUS
 62
     7
  0
DIMENSION
  5
320
  8
回09-寸法
  6
CONTINUOUS
 62
     5
  2
*D111
 10
-147.2680206619567
 20
1121.296500246995
 30
0.0
 11
-317.2680206619566
 21
1121.296500246995
 31
0.0
 70
   128
  1
<> (ACTIVE AREA)
  3
DMC
 13
-487.2680206619567
 23
1090.687569424497
 33
0.0
 14
-147.2680206619567
 24
1090.687569424497
 34
0.0
1001
ACAD
1000
DSTYLE
1002
{
1070
   372
1070
    13
1070
   371
1070
    13
1070
   140
1040
5.0
1002
}
  0
POLYLINE
  5
32D
  8
回08-記事
 62
     7
 66
     1
 10
0.0
 20
0.0
 30
0.0
 70
     1
  0
VERTEX
  5
7B3
  8
回08-記事
 62
     7
 10
-487.2680206619567
 20
818.6875694244967
 30
0.0
  0
VERTEX
  5
7B5
  8
回08-記事
 62
     7
 10
-147.2680206619567
 20
818.6875694244967
 30
0.0
  0
VERTEX
  5
7B6
  8
回08-記事
 62
     7
 10
-147.2680206619567
 20
1090.687569424497
 30
0.0
  0
VERTEX
  5
7B7
  8
回08-記事
 62
     7
 10
-487.2680206619567
 20
1090.687569424497
 30
0.0
  0
SEQEND
  5
7B4
  8
回09-寸法
  6
CONTINUOUS
 62
     7
  0
LINE
  5
32E
  8
回09-寸法
  6
CENTER2
 62
     5
 10
-492.2680206619567
 20
954.6875694244969
 30
0.0
 11
-137.6680206619568
 21
954.6875694244969
 31
0.0
  0
LINE
  5
32F
  8
回09-寸法
  6
CENTER2
 62
     5
 10
-317.2680206619566
 20
1102.187569424497
 30
0.0
 11
-317.2680206619566
 21
807.1875694244967
 31
0.0
  0
POLYLINE
  5
330
  8
回04-下接
  6
CONTINUOUS
 62
     7
 66
     1
 10
0.0
 20
0.0
 30
0.0
 70
     1
  0
VERTEX
  5
7B8
  8
回04-下接
  6
CONTINUOUS
 62
     7
 10
-492.2680206619567
 20
807.1875694244967
 30
0.0
  0
VERTEX
  5
7BA
  8
回04-下接
  6
CONTINUOUS
 62
     7
 10
-137.6680206619568
 20
807.1875694244967
 30
0.0
  0
VERTEX
  5
7BB
  8
回04-下接
  6
CONTINUOUS
 62
     7
 10
-137.6680206619568
 20
1102.187569424497
 30
0.0
  0
VERTEX
  5
7BC
  8
回04-下接
  6
CONTINUOUS
 62
     7
 10
-492.2680206619567
 20
1102.187569424497
 30
0.0
  0
SEQEND
  5
7B9
  8
回09-寸法
  6
CONTINUOUS
 62
     7
  0
INSERT
  5
334
  8
回08-記事
  6
CONTINUOUS
 62
     8
 66
     1
  2
*X444444
 10
0.0
 20
0.0
 30
0.0
1001
ACAD
1000
HATCH
1002
{
1070
    19
1000
ANSI31
1040
1.0
1040
0.0
1000
ASC_BOUNDS
1070
     1
1070
     2
1070
     1
1005
335
1000
ASC_SEEDPOINT
1011
508.1959008590755
1021
610.4688314032413
1031
0.0
1000
R14_HATCH_DATA
1000
334
1011
1.0
1021
0.0
1031
0.0
1011
0.0
1021
1.0
1031
0.0
1011
0.0
1021
0.0
1031
1.0
1040
0.0
1010
0.0
1020
0.0
1030
1.0
1000
ANSI31
1070
     0
1070
     1
1071
        1
1071
        1
1071
        4
1070
     1
1040
-141.9680206619565
1040
953.6875694244972
1040
-133.2760907535909
1040
953.6875694244972
1070
     1
1040
-133.2760907535909
1040
953.6875694244972
1040
-133.2760907535909
1040
947.1887725086997
1070
     1
1040
-133.2760907535909
1040
947.1887725086997
1040
-141.9680206619565
1040
947.1848880503657
1070
     1
1040
-141.9680206619565
1040
947.1848880503657
1040
-141.9680206619565
1040
953.6875694244972
1071
        1
1005
335
1070
     0
1070
     1
1040
0.0
1040
1.0
1070
     0
1070
     1
1040
0.7853981633974483
1040
508.1959008590755
1040
610.4688314032413
1040
-2.245064030267287
1040
2.245064030267287
1070
     0
1071
        1
1040
508.1959008590755
1040
610.4688314032413
1040
0.0
1002
}
  0
SEQEND
  5
430
  8
回09-寸法
  6
CONTINUOUS
 62
     7
  0
POLYLINE
  5
335
  8
回08-記事
  6
DASHED2
 62
     8
 66
     1
 10
0.0
 20
0.0
 30
0.0
 70
     1
1001
ACAD
1000
ASC_BOUNDS
1002
{
1070
    19
1005
334
1002
}
  0
VERTEX
  5
7BD
  8
回08-記事
  6
DASHED2
 62
     8
 10
-141.9680206619565
 20
953.6875694244972
 30
0.0
  0
VERTEX
  5
7BF
  8
回08-記事
  6
DASHED2
 62
     8
 10
-133.2760907535909
 20
953.6875694244972
 30
0.0
  0
VERTEX
  5
7C0
  8
回08-記事
  6
DASHED2
 62
     8
 10
-133.2760907535909
 20
947.1887725086997
 30
0.0
  0
VERTEX
  5
7C1
  8
回08-記事
  6
DASHED2
 62
     8
 10
-141.9680206619565
 20
947.1848880503657
 30
0.0
  0
SEQEND
  5
7BE
  8
回09-寸法
  6
CONTINUOUS
 62
     7
  0
LINE
  5
336
  8
回08-記事
  6
CONTINUOUS
 62
     5
 10
158.0307064618049
 20
1030.136963145076
 30
0.0
 11
67.65019706059945
 21
1030.136963145076
 31
0.0
  0
LINE
  5
337
  8
回08-記事
  6
CONTINUOUS
 62
     5
 10
67.65019706059945
 20
986.2619631450771
 30
0.0
 11
67.65019706059945
 21
1030.136963145076
 31
0.0
  0
TEXT
  5
338
  8
回08-記事
  6
CONTINUOUS
 62
     5
 10
162.0330210443352
 20
984.5906053518277
 30
0.0
 40
7.799999999999998
  1
3
  0
TEXT
  5
339
  8
回08-記事
  6
CONTINUOUS
 62
     5
 10
161.4234763891858
 20
957.2423371238144
 30
0.0
 40
7.799999999999998
  1
4
  0
LINE
  5
33A
  8
回08-記事
  6
CONTINUOUS
 62
     5
 10
119.1282064618052
 20
990.7469631450771
 30
0.0
 11
122.6382064618054
 21
983.7269631450768
 31
0.0
  0
LINE
  5
33B
  8
回08-記事
  6
CONTINUOUS
 62
     5
 10
122.6382064618054
 20
983.7269631450768
 30
0.0
 11
124.8807064618044
 21
988.2119631450771
 31
0.0
  0
LINE
  5
33C
  8
回08-記事
  6
CONTINUOUS
 62
     5
 10
112.1082064618048
 20
990.7469631450771
 30
0.0
 11
115.618206461805
 21
983.7269631450768
 31
0.0
  0
LINE
  5
33D
  8
回08-記事
  6
CONTINUOUS
 62
     5
 10
108.598206461805
 20
983.7269631450768
 30
0.0
 11
112.1082064618048
 21
990.7469631450771
 31
0.0
  0
LINE
  5
33E
  8
回08-記事
  6
CONTINUOUS
 62
     5
 10
115.618206461805
 20
983.7269631450768
 30
0.0
 11
119.1282064618052
 21
990.7469631450771
 31
0.0
  0
LINE
  5
33F
  8
回08-記事
  6
CONTINUOUS
 62
     5
 10
98.0682064618044
 20
990.7469631450771
 30
0.0
 11
101.578206461805
 21
983.7269631450768
 31
0.0
  0
LINE
  5
340
  8
回08-記事
  6
CONTINUOUS
 62
     5
 10
97.48320646180479
 20
984.0194631450772
 30
0.0
 11
104.5032064618052
 21
987.5294631450772
 31
0.0
  0
LINE
  5
341
  8
回08-記事
  6
CONTINUOUS
 62
     5
 10
97.48320646180479
 20
984.0194631450772
 30
0.0
 11
104.5032064618052
 21
980.509463145078
 31
0.0
  0
LINE
  5
342
  8
回08-記事
  6
CONTINUOUS
 62
     5
 10
97.48320646180479
 20
976.9994631450767
 30
0.0
 11
104.5032064618052
 21
980.509463145078
 31
0.0
  0
LINE
  5
343
  8
回08-記事
  6
CONTINUOUS
 62
     5
 10
97.48320646180479
 20
969.9794631450773
 30
0.0
 11
104.5032064618052
 21
973.4894631450773
 31
0.0
  0
LINE
  5
344
  8
回08-記事
  6
CONTINUOUS
 62
     5
 10
97.48320646180479
 20
976.9994631450767
 30
0.0
 11
104.5032064618052
 21
973.4894631450773
 31
0.0
  0
LINE
  5
345
  8
回08-記事
  6
CONTINUOUS
 62
     5
 10
97.48320646180479
 20
991.0394631450767
 30
0.0
 11
104.5032064618052
 21
994.5494631450767
 31
0.0
  0
LINE
  5
346
  8
回08-記事
  6
CONTINUOUS
 62
     5
 10
97.48320646180479
 20
998.059463145077
 30
0.0
 11
104.5032064618052
 21
1001.569463145076
 31
0.0
  0
LINE
  5
347
  8
回08-記事
  6
CONTINUOUS
 62
     5
 10
97.48320646180479
 20
998.059463145077
 30
0.0
 11
104.5032064618052
 21
994.5494631450767
 31
0.0
  0
LINE
  5
348
  8
回08-記事
  6
CONTINUOUS
 62
     5
 10
97.48320646180479
 20
991.0394631450767
 30
0.0
 11
104.5032064618052
 21
987.5294631450772
 31
0.0
  0
LINE
  5
349
  8
回08-記事
  6
CONTINUOUS
 62
     5
 10
91.0482064618044
 20
990.7469631450771
 30
0.0
 11
94.55820646180461
 21
983.7269631450768
 31
0.0
  0
LINE
  5
34A
  8
回08-記事
  6
CONTINUOUS
 62
     5
 10
87.53820646180509
 20
983.7269631450768
 30
0.0
 11
91.0482064618044
 21
990.7469631450771
 31
0.0
  0
LINE
  5
34B
  8
回08-記事
  6
CONTINUOUS
 62
     5
 10
81.78570646180503
 20
986.2619631450771
 30
0.0
 11
84.02820646180487
 21
990.7469631450771
 31
0.0
  0
LINE
  5
34C
  8
回08-記事
  6
CONTINUOUS
 62
     5
 10
84.02820646180487
 20
990.7469631450771
 30
0.0
 11
87.53820646180509
 21
983.7269631450768
 31
0.0
  0
LINE
  5
34D
  8
回08-記事
  6
CONTINUOUS
 62
     5
 10
94.55820646180461
 20
983.7269631450768
 30
0.0
 11
98.0682064618044
 21
990.7469631450771
 31
0.0
  0
LINE
  5
34E
  8
回08-記事
  6
CONTINUOUS
 62
     5
 10
100.993206461805
 20
1003.324463145076
 30
0.0
 11
100.993206461805
 21
1009.174463145077
 31
0.0
  0
LINE
  5
34F
  8
回08-記事
  6
CONTINUOUS
 62
     5
 10
101.578206461805
 20
983.7269631450768
 30
0.0
 11
105.0882064618048
 21
990.7469631450771
 31
0.0
  0
LINE
  5
350
  8
回08-記事
  6
CONTINUOUS
 62
     5
 10
100.993206461805
 20
1003.324463145076
 30
0.0
 11
104.5032064618052
 21
1001.569463145076
 31
0.0
  0
TEXT
  5
351
  8
回08-記事
  6
CONTINUOUS
 62
     5
 10
102.9085313344652
 20
1010.460030578176
 30
0.0
 40
6.824999999999997
  1
YU
  0
LINE
  5
352
  8
回08-記事
  6
CONTINUOUS
 62
     5
 10
105.0882064618048
 20
990.7469631450771
 30
0.0
 11
108.598206461805
 21
983.7269631450768
 31
0.0
  0
LINE
  5
353
  8
回08-記事
  6
CONTINUOUS
 62
     5
 10
100.993206461805
 20
961.3994631450774
 30
0.0
 11
100.993206461805
 21
968.2244631450773
 31
0.0
  0
LINE
  5
354
  8
回08-記事
  6
CONTINUOUS
 62
     5
 10
97.48320646180479
 20
969.9794631450773
 30
0.0
 11
100.993206461805
 21
968.2244631450773
 31
0.0
  0
TEXT
  5
355
  8
回08-記事
  6
CONTINUOUS
 62
     5
 10
83.06429625512999
 20
964.1795604684002
 30
0.0
 40
6.824999999999997
  1
YD
  0
TEXT
  5
356
  8
回08-記事
  6
CONTINUOUS
 62
     5
 10
71.68632126187174
 20
992.530193576772
 30
0.0
 40
6.824999999999997
  1
XL
  0
TEXT
  5
357
  8
回08-記事
  6
CONTINUOUS
 62
     5
 10
161.6254119018275
 20
1026.515482229817
 30
0.0
 40
7.799999999999998
  1
1
  0
TEXT
  5
358
  8
回08-記事
  6
CONTINUOUS
 62
     5
 10
162.1313571390636
 20
1006.208282168488
 30
0.0
 40
7.799999999999998
  1
2
  0
LINE
  5
359
  8
回08-記事
  6
CONTINUOUS
 62
     5
 10
158.0307064618049
 20
1009.174463145077
 30
0.0
 11
100.993206461805
 21
1009.174463145077
 31
0.0
  0
LINE
  5
35A
  8
回08-記事
  6
CONTINUOUS
 62
     5
 10
67.65019706059945
 20
986.2619631450771
 30
0.0
 11
81.78570646180503
 21
986.2619631450771
 31
0.0
  0
LINE
  5
35B
  8
回08-記事
  6
CONTINUOUS
 62
     5
 10
100.993206461805
 20
961.3994631450774
 30
0.0
 11
158.0307064618049
 21
961.3994631450774
 31
0.0
  0
LINE
  5
35C
  8
回08-記事
  6
CONTINUOUS
 62
     5
 10
124.8807064618044
 20
988.2119631450771
 30
0.0
 11
158.0307064618049
 21
988.2119631450771
 31
0.0
  0
TEXT
  5
35D
  8
回08-記事
  6
CONTINUOUS
 62
     5
 10
125.2514791846823
 20
978.2579567984743
 30
0.0
 40
6.824999999999997
  1
XR
  0
TEXT
  5
35E
  8
回91-枠英1
 10
-7.849022853945371
 20
654.0632818889029
 30
0.0
 40
4.5
  1
STANDARD TOUCHSCREEN
  0
TEXT
  5
35F
  8
回08-記事
  6
CONTINUOUS
 62
     5
 10
67.19908818523491
 20
932.5302858671673
 30
0.0
 40
10.0
  1
PIN ASSIGNMENT
  0
TEXT
  5
360
  8
回91-枠英1
 10
147.6958606238859
 20
1185.210664894579
 30
0.0
 40
4.0
  1
J
  0
TEXT
  5
361
  8
回91-枠英1
 10
190.3708963218923
 20
1137.626929064387
 30
0.0
 40
4.0
  1
1
  0
LINE
  5
362
  8
回91-枠英1
 10
193.9664753182333
 20
1094.838241768527
 30
0.0
 11
188.9664753182333
 21
1094.838241768527
 31
0.0
  0
TEXT
  5
363
  8
回91-枠英1
 10
190.0693976185907
 20
1047.626929064387
 30
0.0
 40
4.0
  1
2
  0
LINE
  5
364
  8
回91-枠英1
 10
108.9664753182333
 20
1189.838241768527
 30
0.0
 11
108.9664753182333
 21
1184.838241768527
 31
0.0
  0
TEXT
  5
365
  8
回91-枠英1
 10
67.69586062388566
 20
1185.210664894579
 30
0.0
 40
4.0
  1
I
  0
LINE
  5
366
  8
回91-枠英1
 10
28.96647531823328
 20
1189.838241768527
 30
0.0
 11
28.96647531823328
 21
1184.838241768527
 31
0.0
  0
TEXT
  5
367
  8
回91-枠英1
 10
-12.30413937611433
 20
1185.210664894579
 30
0.0
 40
4.0
  1
H
  0
LINE
  5
368
  8
回91-枠英1
 10
-51.03352468176672
 20
1189.838241768527
 30
0.0
 11
-51.03352468176672
 21
1184.838241768527
 31
0.0
  0
TEXT
  5
369
  8
回91-枠英1
 10
-92.30413937611436
 20
1185.210664894579
 30
0.0
 40
4.0
  1
G
  0
LINE
  5
36A
  8
回91-枠英1
 10
-131.0335246817667
 20
1189.838241768527
 30
0.0
 11
-131.0335246817667
 21
1184.838241768527
 31
0.0
  0
TEXT
  5
36B
  8
回91-枠英1
 10
-172.3041393761143
 20
1185.210664894579
 30
0.0
 40
4.0
  1
F
  0
LINE
  5
36C
  8
回91-枠英1
 10
193.9664753182333
 20
1004.838241768527
 30
0.0
 11
188.9664753182333
 21
1004.838241768527
 31
0.0
  0
TEXT
  5
36D
  8
回91-枠英1
 10
190.0639167743902
 20
957.6269290643868
 30
0.0
 40
4.0
  1
3
  0
LINE
  5
36E
  8
回91-枠英1
 10
193.9664753182333
 20
914.8382417685278
 30
0.0
 11
188.9664753182333
 21
914.8382417685278
 31
0.0
  0
TEXT
  5
36F
  8
回91-枠英1
 10
189.990824654309
 20
867.6269290643869
 30
0.0
 40
4.0
  1
4
  0
LINE
  5
370
  8
回91-枠英1
 10
193.9664753182333
 20
824.8382417685277
 30
0.0
 11
188.9664753182333
 21
824.8382417685277
 31
0.0
  0
TEXT
  5
371
  8
回91-枠英1
 10
189.990824654309
 20
777.6269290643869
 30
0.0
 40
4.0
  1
5
  0
LINE
  5
372
  8
回91-枠英1
 10
-211.0335246817667
 20
1189.838241768527
 30
0.0
 11
-211.0335246817667
 21
1184.838241768527
 31
0.0
  0
TEXT
  5
373
  8
回91-枠英1
 10
-252.3041393761143
 20
1185.210664894579
 30
0.0
 40
4.0
  1
E
  0
LINE
  5
374
  8
回91-枠英1
 10
-291.0335246817667
 20
1189.838241768527
 30
0.0
 11
-291.0335246817667
 21
1184.838241768527
 31
0.0
  0
TEXT
  5
375
  8
回91-枠英1
 10
-332.3041393761144
 20
1185.210664894579
 30
0.0
 40
4.0
  1
D
  0
LINE
  5
376
  8
回91-枠英1
 10
-371.0335246817667
 20
1189.838241768527
 30
0.0
 11
-371.0335246817667
 21
1184.838241768527
 31
0.0
  0
TEXT
  5
377
  8
回91-枠英1
 10
-412.3041393761143
 20
1185.210664894579
 30
0.0
 40
4.0
  1
C
  0
LINE
  5
378
  8
回91-枠英1
 10
-451.0335246817667
 20
1189.838241768527
 30
0.0
 11
-451.0335246817667
 21
1184.838241768527
 31
0.0
  0
LINE
  5
379
  8
回91-枠英1
 10
-531.0335246817666
 20
1189.838241768527
 30
0.0
 11
-531.0335246817666
 21
1184.838241768527
 31
0.0
  0
TEXT
  5
37A
  8
回91-枠英1
 10
-492.3041393761143
 20
1185.210664894579
 30
0.0
 40
4.0
  1
B
  0
TEXT
  5
37B
  8
回91-枠英1
 10
-572.3041393761143
 20
1185.210664894579
 30
0.0
 40
4.0
  1
A
  0
TEXT
  5
37C
  8
回91-枠英1
 10
-614.6291036781072
 20
1137.626929064387
 30
0.0
 40
4.0
  1
1
  0
LINE
  5
37D
  8
回91-枠英1
 10
-611.0335246817667
 20
1094.838241768527
 30
0.0
 11
-616.0335246817667
 21
1094.838241768527
 31
0.0
  0
TEXT
  5
37E
  8
回91-枠英1
 10
-614.9306023814092
 20
1047.626929064387
 30
0.0
 40
4.0
  1
2
  0
TEXT
  5
37F
  8
回91-枠英1
 10
-614.9360832256101
 20
957.6269290643868
 30
0.0
 40
4.0
  1
3
  0
LINE
  5
380
  8
回91-枠英1
 10
-611.0335246817667
 20
1004.838241768527
 30
0.0
 11
-616.0335246817667
 21
1004.838241768527
 31
0.0
  0
LINE
  5
381
  8
回91-枠英1
 10
-611.0335246817667
 20
914.8382417685278
 30
0.0
 11
-616.0335246817667
 21
914.8382417685278
 31
0.0
  0
TEXT
  5
382
  8
回91-枠英1
 10
-615.0091753456912
 20
867.6269290643869
 30
0.0
 40
4.0
  1
4
  0
LINE
  5
383
  8
回91-枠英1
 10
-611.0335246817667
 20
824.8382417685277
 30
0.0
 11
-616.0335246817667
 21
824.8382417685277
 31
0.0
  0
TEXT
  5
384
  8
回91-枠英1
 10
-615.0091753456912
 20
777.6269290643869
 30
0.0
 40
4.0
  1
5
  0
LINE
  5
385
  8
回91-枠英1
 10
193.9664753182333
 20
1189.838241768527
 30
0.0
 11
-616.0335246817667
 21
1189.838241768527
 31
0.0
  0
LINE
  5
386
  8
回91-枠英1
 10
-611.0335246817667
 20
1184.838241768527
 30
0.0
 11
188.9664753182333
 21
1184.838241768527
 31
0.0
  0
LINE
  5
387
  8
回91-枠英1
 10
193.9664753182333
 20
734.8382417685277
 30
0.0
 11
188.9664753182333
 21
734.8382417685277
 31
0.0
  0
TEXT
  5
388
  8
回91-枠英1
 10
189.990824654309
 20
687.6269290643867
 30
0.0
 40
4.0
  1
6
  0
TEXT
  5
389
  8
回91-枠英1
 10
105.2807573357022
 20
652.7838526756777
 30
0.0
 40
7.5
  1
DMC Co., Ltd.
  0
TEXT
  5
38A
  8
回91-枠英1
 10
147.6958606238859
 20
640.2106648945788
 30
0.0
 40
4.0
  1
J
  0
TEXT
  5
38B
  8
回91-枠英1
 10
122.5156028353449
 20
683.8106187130298
 30
0.0
 40
4.0
  1
DATE
  0
TEXT
  5
38C
  8
回91-枠英1
 10
16.93135469548815
 20
660.9536713028908
 30
0.0
 40
4.5
  1
TYPE
  0
LINE
  5
38D
  8
回91-枠英1
 10
-16.53352468176672
 20
652.3382417685276
 30
0.0
 11
71.96647531823328
 21
652.3382417685276
 31
0.0
  0
TEXT
  5
38E
  8
回91-枠英1
 10
11.42035986788687
 20
683.3248186506338
 30
0.0
 40
4.5
  1
PART　No.
  0
TEXT
  5
38F
  8
回91-枠英1
 10
-3.560653191227856
 20
670.4343131402587
 30
0.0
 40
7.5
  1
AST-171A140A
  0
LINE
  5
390
  8
回91-枠英1
 10
108.9664753182333
 20
644.8382417685276
 30
0.0
 11
108.9664753182333
 21
639.8382417685276
 31
0.0
  0
TEXT
  5
391
  8
回91-枠英1
 10
67.69586062388566
 20
640.2106648945788
 30
0.0
 40
4.0
  1
I
  0
LINE
  5
392
  8
回91-枠英1
 10
-21.03352468176672
 20
689.8382417685277
 30
0.0
 11
-21.03352468176672
 21
644.8382417685276
 31
0.0
  0
LINE
  5
393
  8
回91-枠英1
 10
76.46647531823328
 20
689.8382417685277
 30
0.0
 11
76.46647531823328
 21
644.8382417685276
 31
0.0
  0
TEXT
  5
394
  8
回91-枠英1
 10
3.258814253031231
 20
646.5632818889027
 30
0.0
 40
4.5
  1
CIRCUIT　DRAWING
  0
LINE
  5
395
  8
回91-枠英1
 10
28.96647531823328
 20
644.8382417685276
 30
0.0
 11
28.96647531823328
 21
639.8382417685276
 31
0.0
  0
TEXT
  5
396
  8
回91-枠英1
 10
-12.30413937611433
 20
640.2106648945788
 30
0.0
 40
4.0
  1
H
  0
LINE
  5
397
  8
回91-枠英1
 10
-51.03352468176672
 20
644.8382417685276
 30
0.0
 11
-51.03352468176672
 21
639.8382417685276
 31
0.0
  0
TEXT
  5
398
  8
回91-枠英1
 10
-92.30413937611436
 20
640.2106648945788
 30
0.0
 40
4.0
  1
G
  0
LINE
  5
399
  8
回91-枠英1
 10
-131.0335246817667
 20
644.8382417685276
 30
0.0
 11
-131.0335246817667
 21
639.8382417685276
 31
0.0
  0
TEXT
  5
39A
  8
回91-枠英1
 10
-172.3041393761143
 20
640.2106648945788
 30
0.0
 40
4.0
  1
F
  0
LINE
  5
39B
  8
回91-枠英1
 10
-21.03352468176672
 20
667.3382417685274
 30
0.0
 11
188.9664753182333
 21
667.3382417685274
 31
0.0
  0
LINE
  5
39C
  8
回91-枠英1
 10
-21.03352468176672
 20
689.8382417685277
 30
0.0
 11
188.9664753182333
 21
689.8382417685277
 31
0.0
  0
LINE
  5
39D
  8
回91-枠英1
 10
-21.03352468176672
 20
659.8382417685276
 30
0.0
 11
76.46647531823328
 21
659.8382417685276
 31
0.0
  0
LINE
  5
39E
  8
回91-枠英1
 10
-21.03352468176672
 20
682.3382417685276
 30
0.0
 11
188.9664753182333
 21
682.3382417685276
 31
0.0
  0
LINE
  5
39F
  8
回91-枠英1
 10
-211.0335246817667
 20
644.8382417685276
 30
0.0
 11
-211.0335246817667
 21
639.8382417685276
 31
0.0
  0
TEXT
  5
3A0
  8
回91-枠英1
 10
-252.3041393761143
 20
640.2106648945788
 30
0.0
 40
4.0
  1
E
  0
LINE
  5
3A1
  8
回91-枠英1
 10
-291.0335246817667
 20
644.8382417685276
 30
0.0
 11
-291.0335246817667
 21
639.8382417685276
 31
0.0
  0
TEXT
  5
3A2
  8
回91-枠英1
 10
-332.3041393761144
 20
640.2106648945788
 30
0.0
 40
4.0
  1
D
  0
LINE
  5
3A3
  8
回91-枠英1
 10
-371.0335246817667
 20
644.8382417685276
 30
0.0
 11
-371.0335246817667
 21
639.8382417685276
 31
0.0
  0
TEXT
  5
3A4
  8
回91-枠英1
 10
-412.3041393761143
 20
640.2106648945788
 30
0.0
 40
4.0
  1
C
  0
LINE
  5
3A5
  8
回91-枠英1
 10
-451.0335246817667
 20
644.8382417685276
 30
0.0
 11
-451.0335246817667
 21
639.8382417685276
 31
0.0
  0
LINE
  5
3A6
  8
回91-枠英1
 10
-531.0335246817666
 20
644.8382417685276
 30
0.0
 11
-531.0335246817666
 21
639.8382417685276
 31
0.0
  0
TEXT
  5
3A7
  8
回91-枠英1
 10
-492.3041393761143
 20
640.2106648945788
 30
0.0
 40
4.0
  1
B
  0
TEXT
  5
3A8
  8
回91-枠英1
 10
-615.0091753456912
 20
687.6269290643867
 30
0.0
 40
4.0
  1
6
  0
LINE
  5
3A9
  8
回91-枠英1
 10
-611.0335246817667
 20
734.8382417685277
 30
0.0
 11
-616.0335246817667
 21
734.8382417685277
 31
0.0
  0
TEXT
  5
3AA
  8
回91-枠英1
 10
-572.3041393761143
 20
640.2106648945788
 30
0.0
 40
4.0
  1
A
  0
LINE
  5
3AB
  8
回91-枠英1
 10
193.9664753182333
 20
639.8382417685276
 30
0.0
 11
-616.0335246817667
 21
639.8382417685276
 31
0.0
  0
LINE
  5
3AC
  8
回91-枠英1
 10
-611.0335246817667
 20
644.8382417685276
 30
0.0
 11
188.9664753182333
 21
644.8382417685276
 31
0.0
  0
LINE
  5
3AD
  8
回91-枠英1
 10
193.9664753182333
 20
639.8382417685276
 30
0.0
 11
193.9664753182333
 21
1189.838241768527
 31
0.0
  0
LINE
  5
3AE
  8
回91-枠英1
 10
188.9664753182333
 20
1184.838241768527
 30
0.0
 11
188.9664753182333
 21
644.8382417685276
 31
0.0
  0
LINE
  5
3AF
  8
回91-枠英1
 10
-616.0335246817667
 20
639.8382417685276
 30
0.0
 11
-616.0335246817667
 21
1189.838241768527
 31
0.0
  0
LINE
  5
3B0
  8
回91-枠英1
 10
-611.0335246817667
 20
1184.838241768527
 30
0.0
 11
-611.0335246817667
 21
644.8382417685276
 31
0.0
  0
ENDSEC
  0
EOF
