  0
SECTION
  2
HEADER
  9
$ACADVER
  1
AC1009
  9
$INSBASE
 10
0.0
 20
0.0
 30
0.0
  9
$EXTMIN
 10
586.9549686419802
 20
-182.1368149110741
 30
0.0
  9
$EXTMAX
 10
1396.95496864198
 20
367.8631850889258
 30
0.0
  9
$LIMMIN
 10
0.0
 20
0.0
  9
$LIMMAX
 10
3000.0
 20
2500.0
  9
$ORTHOMODE
 70
     0
  9
$REGENMODE
 70
     1
  9
$FILLMODE
 70
     1
  9
$QTEXTMODE
 70
     0
  9
$MIRRTEXT
 70
     1
  9
$DRAGMODE
 70
     2
  9
$LTSCALE
 40
1.0
  9
$OSMODE
 70
    37
  9
$ATTMODE
 70
     1
  9
$TEXTSIZE
 40
8.0
  9
$TRACEWID
 40
1.0
  9
$TEXTSTYLE
  7
STANDARD
  9
$CLAYER
  8
回07-寸法
  9
$CELTYPE
  6
CONTINUOUS
  9
$CECOLOR
 62
     5
  9
$DIMSCALE
 40
1.0
  9
$DIMASZ
 40
2.0
  9
$DIMEXO
 40
0.0
  9
$DIMDLI
 40
0.0
  9
$DIMRND
 40
0.0
  9
$DIMDLE
 40
0.0
  9
$DIMEXE
 40
1.0
  9
$DIMTP
 40
0.0
  9
$DIMTM
 40
0.0
  9
$DIMTXT
 40
8.0
  9
$DIMCEN
 40
2.0
  9
$DIMTSZ
 40
0.0
  9
$DIMTOL
 70
     0
  9
$DIMLIM
 70
     0
  9
$DIMTIH
 70
     0
  9
$DIMTOH
 70
     0
  9
$DIMSE1
 70
     0
  9
$DIMSE2
 70
     0
  9
$DIMTAD
 70
     3
  9
$DIMZIN
 70
     8
  9
$DIMBLK
  1
OPEN
  9
$DIMASO
 70
     1
  9
$DIMSHO
 70
     1
  9
$DIMPOST
  1

  9
$DIMAPOST
  1

  9
$DIMALT
 70
     1
  9
$DIMALTD
 70
     3
  9
$DIMALTF
 40
0.03937007874016
  9
$DIMLFAC
 40
1.0
  9
$DIMTOFL
 70
     1
  9
$DIMTVP
 40
0.0
  9
$DIMTIX
 70
     0
  9
$DIMSOXD
 70
     0
  9
$DIMSAH
 70
     0
  9
$DIMBLK1
  1

  9
$DIMBLK2
  1

  9
$DIMSTYLE
  2
DMC
  9
$DIMCLRD
 70
     5
  9
$DIMCLRE
 70
     5
  9
$DIMCLRT
 70
     5
  9
$DIMTFAC
 40
0.7
  9
$DIMGAP
 40
0.5
  9
$LUNITS
 70
     2
  9
$LUPREC
 70
     4
  9
$SKETCHINC
 40
1.0
  9
$FILLETRAD
 40
1.0
  9
$AUNITS
 70
     0
  9
$AUPREC
 70
     0
  9
$MENU
  1
.
  9
$ELEVATION
 40
0.0
  9
$PELEVATION
 40
0.0
  9
$THICKNESS
 40
0.0
  9
$LIMCHECK
 70
     0
  9
$BLIPMODE
 70
     0
  9
$CHAMFERA
 40
10.0
  9
$CHAMFERB
 40
10.0
  9
$SKPOLY
 70
     0
  9
$TDCREATE
 40
2451810.404221065
  9
$TDUPDATE
 40
2460221.447708611
  9
$TDINDWG
 40
1.610572002
  9
$TDUSRTIMER
 40
1.610570208
  9
$USRTIMER
 70
     1
  9
$ANGBASE
 50
0.0
  9
$ANGDIR
 70
     0
  9
$PDMODE
 70
     0
  9
$PDSIZE
 40
0.0
  9
$PLINEWID
 40
0.2
  9
$COORDS
 70
     0
  9
$SPLFRAME
 70
     0
  9
$SPLINETYPE
 70
     6
  9
$SPLINESEGS
 70
     8
  9
$ATTDIA
 70
     1
  9
$ATTREQ
 70
     1
  9
$HANDLING
 70
     1
  9
$HANDSEED
  5
7C2
  9
$SURFTAB1
 70
     6
  9
$SURFTAB2
 70
     6
  9
$SURFTYPE
 70
     6
  9
$SURFU
 70
     6
  9
$SURFV
 70
     6
  9
$UCSNAME
  2

  9
$UCSORG
 10
0.0
 20
0.0
 30
0.0
  9
$UCSXDIR
 10
1.0
 20
0.0
 30
0.0
  9
$UCSYDIR
 10
0.0
 20
1.0
 30
0.0
  9
$PUCSNAME
  2

  9
$PUCSORG
 10
0.0
 20
0.0
 30
0.0
  9
$PUCSXDIR
 10
1.0
 20
0.0
 30
0.0
  9
$PUCSYDIR
 10
0.0
 20
1.0
 30
0.0
  9
$USERI1
 70
     0
  9
$USERI2
 70
     0
  9
$USERI3
 70
     0
  9
$USERI4
 70
     0
  9
$USERI5
 70
     0
  9
$USERR1
 40
0.0
  9
$USERR2
 40
0.0
  9
$USERR3
 40
0.0
  9
$USERR4
 40
0.0
  9
$USERR5
 40
0.0
  9
$WORLDVIEW
 70
     1
  9
$SHADEDGE
 70
     3
  9
$SHADEDIF
 70
    70
  9
$TILEMODE
 70
     1
  9
$MAXACTVP
 70
    64
  9
$PLIMCHECK
 70
     0
  9
$PEXTMIN
 10
1.000000000000000E+20
 20
1.000000000000000E+20
 30
1.000000000000000E+20
  9
$PEXTMAX
 10
-1.000000000000000E+20
 20
-1.000000000000000E+20
 30
-1.000000000000000E+20
  9
$PLIMMIN
 10
0.0
 20
0.0
  9
$PLIMMAX
 10
420.0
 20
297.0
  9
$UNITMODE
 70
     0
  9
$VISRETAIN
 70
     1
  9
$PLINEGEN
 70
     0
  9
$PSLTSCALE
 70
     1
  0
ENDSEC
  0
SECTION
  2
TABLES
  0
TABLE
  2
VPORT
 70
     1
  0
VPORT
  2
*ACTIVE
 70
     0
 10
0.0
 20
0.0
 11
1.0
 21
1.0
 12
1058.870457302815
 22
-39.52100461271914
 13
0.0
 23
0.0
 14
10.0
 24
10.0
 15
10.0
 25
10.0
 16
0.0
 26
0.0
 36
1.0
 17
0.0
 27
0.0
 37
0.0
 40
1165.708375545015
 41
1.010362694300518
 42
50.0
 43
0.0
 44
0.0
 50
0.0
 51
0.0
 71
     0
 72
   500
 73
     1
 74
     1
 75
     0
 76
     0
 77
     0
 78
     0
  0
ENDTAB
  0
TABLE
  2
LTYPE
 70
     4
  0
LTYPE
  2
CONTINUOUS
 70
     0
  3
Solid line
 72
    65
 73
     0
 40
0.0
  0
LTYPE
  2
CENTER2
 70
     0
  3
Center (.5x) ___ _ ___ _ ___ _ ___ _ ___ _ ___
 72
    65
 73
     4
 40
28.575
 49
19.05
 49
-3.174999999999998
 49
3.174999999999998
 49
-3.174999999999998
  0
LTYPE
  2
DASHED2
 70
     0
  3
Dashed (.5x) _ _ _ _ _ _ _ _ _ _ _ _ _ _ _ _ _
 72
    65
 73
     2
 40
9.524999999999996
 49
6.349999999999997
 49
-3.174999999999998
  0
LTYPE
  2
PHANTOM2
 70
     0
  3
Phantom (.5x) ___ _ _ ___ _ _ ___ _ _ ___ _ _
 72
    65
 73
     6
 40
31.75
 49
15.875
 49
-3.174999999999998
 49
3.174999999999998
 49
-3.174999999999998
 49
3.174999999999998
 49
-3.174999999999998
  0
ENDTAB
  0
TABLE
  2
LAYER
 70
    10
  0
LAYER
  2
0
 70
     0
 62
     7
  6
CONTINUOUS
  0
LAYER
  2
DEFPOINTS
 70
     0
 62
     7
  6
CONTINUOUS
  0
LAYER
  2
回04-下接
 70
     0
 62
     7
  6
CONTINUOUS
  0
LAYER
  2
回08-記事
 70
     0
 62
     7
  6
CONTINUOUS
  0
LAYER
  2
回07-寸法
 70
     0
 62
     7
  6
CONTINUOUS
  0
LAYER
  2
回91-枠英1
 70
     0
 62
     7
  6
CONTINUOUS
  0
LAYER
  2
回03-寸法
 70
     0
 62
     7
  6
CONTINUOUS
  0
LAYER
  2
回07-ﾃｰﾙ
 70
     0
 62
     7
  6
CONTINUOUS
  0
LAYER
  2
回90-和A1
 70
     0
 62
     7
  6
CONTINUOUS
  0
LAYER
  2
回03-記事
 70
     0
 62
     7
  6
CONTINUOUS
  0
ENDTAB
  0
TABLE
  2
STYLE
 70
     2
  0
STYLE
  2
STANDARD
 70
     0
 40
8.0
 41
1.0
 50
0.0
 71
     0
 42
8.0
  3
isocp.shx
  4
bigfont.shx
  0
STYLE
  2
ANNOTATIVE
 70
     0
 40
0.0
 41
1.0
 50
0.0
 71
     0
 42
0.2
  3
txt.shx
  4

  0
ENDTAB
  0
TABLE
  2
VIEW
 70
     0
  0
ENDTAB
  0
TABLE
  2
UCS
 70
     0
  0
ENDTAB
  0
TABLE
  2
APPID
 70
     7
  0
APPID
  2
ACAD
 70
     0
  0
APPID
  2
ACADANNOTATIVE
 70
     0
  0
APPID
  2
ACAD_DSTYLE_DIMJAG
 70
     0
  0
APPID
  2
ACAD_DSTYLE_DIMTALN
 70
     0
  0
APPID
  2
ACAD_NAV_VCDISPLAY
 70
     0
  0
APPID
  2
PLOTTRANSPARENCY
 70
     0
  0
APPID
  2
ACAD_PSEXT
 70
     0
  0
ENDTAB
  0
TABLE
  2
DIMSTYLE
 70
     2
  0
DIMSTYLE
  2
DMC
 70
     0
  3

  4

  5
OPEN
  6

  7

 40
1.0
 41
2.0
 42
0.0
 43
0.0
 44
1.0
 45
0.0
 46
0.0
 47
0.0
 48
0.0
140
8.0
141
2.0
142
0.0
143
0.03937007874016
144
1.0
145
0.0
146
0.7
147
0.5
 71
     0
 72
     0
 73
     0
 74
     0
 75
     0
 76
     0
 77
     3
 78
     8
170
     1
171
     3
172
     1
173
     0
174
     0
175
     0
176
     5
177
     5
178
     5
  0
DIMSTYLE
  2
STANDARD
 70
     0
  3

  4

  5

  6

  7

 40
1.0
 41
0.18
 42
0.0625
 43
0.38
 44
0.18
 45
0.0
 46
0.0
 47
0.0
 48
0.0
140
0.18
141
0.09
142
0.0
143
25.4
144
1.0
145
0.0
146
1.0
147
0.09
 71
     0
 72
     0
 73
     1
 74
     1
 75
     0
 76
     0
 77
     0
 78
     0
170
     0
171
     2
172
     0
173
     0
174
     0
175
     0
176
     0
177
     0
178
     0
  0
ENDTAB
  0
ENDSEC
  0
SECTION
  2
BLOCKS
  0
BLOCK
  8
0
  2
$MODEL_SPACE
 70
     0
 10
0.0
 20
0.0
 30
0.0
  3
$MODEL_SPACE
  1

  0
ENDBLK
  8
0
  5
22
  0
BLOCK
 67
     1
  8
0
  2
$PAPER_SPACE
 70
     0
 10
0.0
 20
0.0
 30
0.0
  3
$PAPER_SPACE
  1

  0
ENDBLK
  5
27
 67
     1
  8
0
  0
BLOCK
  8
0
  2
_OPEN
 70
     0
 10
0.0
 20
0.0
 30
0.0
  3
_OPEN
  1

  0
LINE
  5
678
  8
0
  6
BYBLOCK
 62
     0
 10
-1.0
 20
0.166667
 30
0.0
 11
0.0
 21
0.0
 31
0.0
  0
LINE
  5
679
  8
0
  6
BYBLOCK
 62
     0
 10
-1.0
 20
-0.166667
 30
0.0
 11
0.0
 21
0.0
 31
0.0
  0
LINE
  5
67A
  8
0
  6
BYBLOCK
 62
     0
 10
0.0
 20
0.0
 30
0.0
 11
-1.0
 21
0.0
 31
0.0
  0
LINE
  5
4DC
  8
0
  6
BYBLOCK
 62
     0
 10
-1.0
 20
0.166667
 30
0.0
 11
0.0
 21
0.0
 31
0.0
  0
LINE
  5
4DD
  8
0
  6
BYBLOCK
 62
     0
 10
-1.0
 20
-0.166667
 30
0.0
 11
0.0
 21
0.0
 31
0.0
  0
LINE
  5
4DE
  8
0
  6
BYBLOCK
 62
     0
 10
0.0
 20
0.0
 30
0.0
 11
-1.0
 21
0.0
 31
0.0
  0
LINE
  5
14
  8
0
  6
CONTINUOUS
 62
     0
 10
-1.0
 20
0.1666666666666666
 30
0.0
 11
0.0
 21
0.0
 31
0.0
  0
LINE
  5
15
  8
0
  6
CONTINUOUS
 62
     0
 10
-1.0
 20
-0.1666666666666666
 30
0.0
 11
0.0
 21
0.0
 31
0.0
  0
LINE
  5
16
  8
0
  6
CONTINUOUS
 62
     0
 10
0.0
 20
0.0
 30
0.0
 11
-1.0
 21
0.0
 31
0.0
  0
ENDBLK
  5
17
  8
0
  0
BLOCK
  8
0
  2
*D111
 70
     1
 10
0.0
 20
0.0
 30
0.0
  3
*D111
  1

  0
LINE
  5
339
  8
回07-寸法
  6
CONTINUOUS
 62
     5
 10
1240.729913336
 20
125.5402716365222
 30
0.0
 11
1240.729913336
 21
196.8021640349611
 31
0.0
  0
LINE
  5
33A
  8
回07-寸法
  6
CONTINUOUS
 62
     5
 10
1100.729913336
 20
148.925794925344
 30
0.0
 11
1100.729913336
 21
196.8021640349611
 31
0.0
  0
LINE
  5
33B
  8
回07-寸法
  6
CONTINUOUS
 62
     5
 10
1238.729913336
 20
195.8021640349611
 30
0.0
 11
1102.729913336
 21
195.8021640349611
 31
0.0
  0
INSERT
  5
33C
  8
回07-寸法
  6
CONTINUOUS
 62
     5
  2
_OPEN
 10
1240.729913336
 20
195.8021640349611
 30
0.0
 41
2.0
 42
2.0
 43
2.0
  0
INSERT
  5
33D
  8
回07-寸法
  6
CONTINUOUS
 62
     5
  2
_OPEN
 10
1100.729913336
 20
195.8021640349611
 30
0.0
 41
2.0
 42
2.0
 43
2.0
 50
180.0
  0
INSERT
  5
33E
  8
回07-寸法
  6
CONTINUOUS
 62
     5
 66
     1
  2
*X444444
 10
0.0
 20
0.0
 30
0.0
  0
SEQEND
  5
430
  8
回07-寸法
  6
CONTINUOUS
 62
     5
  0
POINT
  5
33F
  8
DEFPOINTS
  6
CONTINUOUS
 62
     0
 10
1240.729913336
 20
125.5402716365222
 30
0.0
  0
POINT
  5
340
  8
DEFPOINTS
  6
CONTINUOUS
 62
     0
 10
1100.729913336
 20
148.925794925344
 30
0.0
  0
POINT
  5
341
  8
DEFPOINTS
  6
CONTINUOUS
 62
     0
 10
1100.729913336
 20
195.8021640349611
 30
0.0
  0
ENDBLK
  5
342
  8
0
 62
     7
  0
BLOCK
  8
0
  2
*D222
 70
     1
 10
0.0
 20
0.0
 30
0.0
  3
*D222
  1

  0
LINE
  5
327
  8
回07-寸法
  6
CONTINUOUS
 62
     5
 10
1240.229913336
 20
119.7902716365222
 30
0.0
 11
1262.944833946564
 21
119.7902716365222
 31
0.0
  0
LINE
  5
328
  8
回07-寸法
  6
CONTINUOUS
 62
     5
 10
1240.229913336
 20
126.0402716365225
 30
0.0
 11
1262.944833946564
 21
126.0402716365225
 31
0.0
  0
LINE
  5
329
  8
回07-寸法
  6
CONTINUOUS
 62
     5
 10
1261.944833946563
 20
128.0402716365225
 30
0.0
 11
1261.944833946563
 21
130.0402716365225
 31
0.0
  0
LINE
  5
32A
  8
回07-寸法
  6
CONTINUOUS
 62
     5
 10
1261.944833946563
 20
117.7902716365223
 30
0.0
 11
1261.944833946563
 21
43.35153147904196
 31
0.0
  0
LINE
  5
32B
  8
回07-寸法
  6
CONTINUOUS
 62
     5
 10
1261.944833946563
 20
126.0402716365225
 30
0.0
 11
1261.944833946563
 21
119.7902716365223
 31
0.0
  0
INSERT
  5
32C
  8
回07-寸法
  6
CONTINUOUS
 62
     5
  2
_OPEN
 10
1261.944833946563
 20
126.0402716365225
 30
0.0
 41
2.0
 42
2.0
 43
2.0
 50
270.0
  0
INSERT
  5
32D
  8
回07-寸法
  6
CONTINUOUS
 62
     5
  2
_OPEN
 10
1261.944833946563
 20
119.7902716365223
 30
0.0
 41
2.0
 42
2.0
 43
2.0
 50
90.0
  0
TEXT
  5
32E
  8
回07-寸法
  6
CONTINUOUS
 62
     5
 10
1261.044833946563
 20
42.89090155778171
 30
0.0
 40
8.0
  1
6.25 [0.246]
 50
90.0
1001
ACAD
1000
MTEXTBEGIN
1070
    73
1070
     1
1070
    44
1040
1.0
1070
    74
1070
     0
1000
MTEXTEND
  0
POINT
  5
32F
  8
DEFPOINTS
  6
CONTINUOUS
 62
     0
 10
1240.229913336
 20
119.7902716365222
 30
0.0
  0
POINT
  5
330
  8
DEFPOINTS
  6
CONTINUOUS
 62
     0
 10
1240.229913336
 20
126.0402716365225
 30
0.0
  0
POINT
  5
331
  8
DEFPOINTS
  6
CONTINUOUS
 62
     0
 10
1261.944833946563
 20
126.0402716365225
 30
0.0
  0
ENDBLK
  5
332
  8
0
 62
     7
  0
BLOCK
  8
0
  2
*D333
 70
     1
 10
0.0
 20
0.0
 30
0.0
  3
*D333
  1

  0
LINE
  5
31A
  8
回07-寸法
  6
CONTINUOUS
 62
     5
 10
711.7699133360002
 20
273.9452716365224
 30
0.0
 11
711.7699133360002
 21
308.8180895851684
 31
0.0
  0
LINE
  5
31B
  8
回07-寸法
  6
CONTINUOUS
 62
     5
 10
1089.089913336
 20
273.9452716365224
 30
0.0
 11
1089.089913336
 21
308.8180895851684
 31
0.0
  0
LINE
  5
31C
  8
回07-寸法
  6
CONTINUOUS
 62
     5
 10
713.769913336
 20
307.8180895851684
 30
0.0
 11
1087.089913336
 21
307.8180895851684
 31
0.0
  0
INSERT
  5
31D
  8
回07-寸法
  6
CONTINUOUS
 62
     5
  2
_OPEN
 10
711.7699133360002
 20
307.8180895851684
 30
0.0
 41
2.0
 42
2.0
 43
2.0
 50
180.0
  0
INSERT
  5
31E
  8
回07-寸法
  6
CONTINUOUS
 62
     5
  2
_OPEN
 10
1089.089913336
 20
307.8180895851684
 30
0.0
 41
2.0
 42
2.0
 43
2.0
  0
TEXT
  5
31F
  8
回07-寸法
  6
CONTINUOUS
 62
     5
 10
826.4314881391497
 20
308.7180895851684
 30
0.0
 40
8.0
  1
377.32 [14.855] (ACTIVE AREA)
1001
ACAD
1000
MTEXTBEGIN
1070
    73
1070
     1
1070
    44
1040
1.0
1070
    74
1070
     0
1000
MTEXTEND
  0
POINT
  5
320
  8
DEFPOINTS
  6
CONTINUOUS
 62
     0
 10
711.7699133360002
 20
273.9452716365224
 30
0.0
  0
POINT
  5
321
  8
DEFPOINTS
  6
CONTINUOUS
 62
     0
 10
1089.089913336
 20
273.9452716365224
 30
0.0
  0
POINT
  5
322
  8
DEFPOINTS
  6
CONTINUOUS
 62
     0
 10
1089.089913336
 20
307.8180895851684
 30
0.0
  0
ENDBLK
  5
323
  8
0
 62
     7
  0
BLOCK
  8
0
  2
*D444
 70
     1
 10
0.0
 20
0.0
 30
0.0
  3
*D444
  1

  0
LINE
  5
30D
  8
回07-寸法
  6
CONTINUOUS
 62
     5
 10
1091.379913336
 20
276.2652716365226
 30
0.0
 11
1091.379913336
 21
320.4340259694009
 31
0.0
  0
LINE
  5
30E
  8
回07-寸法
  6
CONTINUOUS
 62
     5
 10
709.4799133359997
 20
276.2652716365226
 30
0.0
 11
709.4799133359997
 21
320.4340259694009
 31
0.0
  0
LINE
  5
30F
  8
回07-寸法
  6
CONTINUOUS
 62
     5
 10
1089.379913336
 20
319.4340259694009
 30
0.0
 11
711.479913336
 21
319.4340259694009
 31
0.0
  0
INSERT
  5
310
  8
回07-寸法
  6
CONTINUOUS
 62
     5
  2
_OPEN
 10
1091.379913336
 20
319.4340259694009
 30
0.0
 41
2.0
 42
2.0
 43
2.0
  0
INSERT
  5
311
  8
回07-寸法
  6
CONTINUOUS
 62
     5
  2
_OPEN
 10
709.4799133359997
 20
319.4340259694009
 30
0.0
 41
2.0
 42
2.0
 43
2.0
 50
180.0
  0
TEXT
  5
312
  8
回07-寸法
  6
CONTINUOUS
 62
     5
 10
828.0170466650416
 20
320.3340259694008
 30
0.0
 40
8.0
  1
381.9 [15.035] (VIEWING AREA)
1001
ACAD
1000
MTEXTBEGIN
1070
    73
1070
     1
1070
    44
1040
1.0
1070
    74
1070
     0
1000
MTEXTEND
  0
POINT
  5
313
  8
DEFPOINTS
  6
CONTINUOUS
 62
     0
 10
1091.379913336
 20
276.2652716365226
 30
0.0
  0
POINT
  5
314
  8
DEFPOINTS
  6
CONTINUOUS
 62
     0
 10
709.4799133359997
 20
276.2652716365226
 30
0.0
  0
POINT
  5
315
  8
DEFPOINTS
  6
CONTINUOUS
 62
     0
 10
709.4799133359997
 20
319.4340259694009
 30
0.0
  0
ENDBLK
  5
316
  8
0
 62
     7
  0
BLOCK
  8
0
  2
*D555
 70
     1
 10
0.0
 20
0.0
 30
0.0
  3
*D555
  1

  0
LINE
  5
300
  8
回07-寸法
  6
CONTINUOUS
 62
     5
 10
1100.729913336
 20
286.1152716365225
 30
0.0
 11
1100.729913336
 21
342.9846633865734
 31
0.0
  0
LINE
  5
301
  8
回07-寸法
  6
CONTINUOUS
 62
     5
 10
700.129913336
 20
286.1152716365225
 30
0.0
 11
700.129913336
 21
342.9846633865734
 31
0.0
  0
LINE
  5
302
  8
回07-寸法
  6
CONTINUOUS
 62
     5
 10
1098.729913336
 20
341.9846633865733
 30
0.0
 11
702.1299133360001
 21
341.9846633865733
 31
0.0
  0
INSERT
  5
303
  8
回07-寸法
  6
CONTINUOUS
 62
     5
  2
_OPEN
 10
1100.729913336
 20
341.9846633865733
 30
0.0
 41
2.0
 42
2.0
 43
2.0
  0
INSERT
  5
304
  8
回07-寸法
  6
CONTINUOUS
 62
     5
  2
_OPEN
 10
700.129913336
 20
341.9846633865733
 30
0.0
 41
2.0
 42
2.0
 43
2.0
 50
180.0
  0
INSERT
  5
305
  8
回07-寸法
  6
CONTINUOUS
 62
     5
 66
     1
  2
*X454545
 10
0.0
 20
0.0
 30
0.0
  0
SEQEND
  5
439
  8
回07-寸法
  6
CONTINUOUS
 62
     5
  0
POINT
  5
306
  8
DEFPOINTS
  6
CONTINUOUS
 62
     0
 10
1100.729913336
 20
286.1152716365225
 30
0.0
  0
POINT
  5
307
  8
DEFPOINTS
  6
CONTINUOUS
 62
     0
 10
700.129913336
 20
286.1152716365225
 30
0.0
  0
POINT
  5
308
  8
DEFPOINTS
  6
CONTINUOUS
 62
     0
 10
700.129913336
 20
341.9846633865733
 30
0.0
  0
ENDBLK
  5
309
  8
0
 62
     7
  0
BLOCK
  8
0
  2
*D666
 70
     1
 10
0.0
 20
0.0
 30
0.0
  3
*D666
  1

  0
LINE
  5
2F3
  8
回07-寸法
  6
CONTINUOUS
 62
     5
 10
711.7699133360002
 20
-28.11472836347754
 30
0.0
 11
663.2002574417533
 21
-28.11472836347754
 31
0.0
  0
LINE
  5
2F4
  8
回07-寸法
  6
CONTINUOUS
 62
     5
 10
711.7699133360002
 20
273.9452716365225
 30
0.0
 11
663.2002574417533
 21
273.9452716365225
 31
0.0
  0
LINE
  5
2F5
  8
回07-寸法
  6
CONTINUOUS
 62
     5
 10
664.2002574417532
 20
-26.11472836347755
 30
0.0
 11
664.2002574417532
 21
271.9452716365225
 31
0.0
  0
INSERT
  5
2F6
  8
回07-寸法
  6
CONTINUOUS
 62
     5
  2
_OPEN
 10
664.2002574417532
 20
-28.11472836347754
 30
0.0
 41
2.0
 42
2.0
 43
2.0
 50
270.0
  0
INSERT
  5
2F7
  8
回07-寸法
  6
CONTINUOUS
 62
     5
  2
_OPEN
 10
664.2002574417532
 20
273.9452716365225
 30
0.0
 41
2.0
 42
2.0
 43
2.0
 50
90.0
  0
TEXT
  5
2F8
  8
回07-寸法
  6
CONTINUOUS
 62
     5
 10
663.3004171913594
 20
50.10240496556412
 30
0.0
 40
8.0
  1
302.06 [11.892] (ACTIVE AREA)
 50
90.0
1001
ACAD
1000
MTEXTBEGIN
1070
    73
1070
     1
1070
    44
1040
1.0
1070
    74
1070
     0
1000
MTEXTEND
  0
POINT
  5
2F9
  8
DEFPOINTS
  6
CONTINUOUS
 62
     0
 10
711.7699133360002
 20
-28.11472836347754
 30
0.0
  0
POINT
  5
2FA
  8
DEFPOINTS
  6
CONTINUOUS
 62
     0
 10
711.7699133360002
 20
273.9452716365225
 30
0.0
  0
POINT
  5
2FB
  8
DEFPOINTS
  6
CONTINUOUS
 62
     0
 10
664.2002574417532
 20
273.9452716365225
 30
0.0
  0
ENDBLK
  5
2FC
  8
0
 62
     7
  0
BLOCK
  8
0
  2
*D777
 70
     1
 10
0.0
 20
0.0
 30
0.0
  3
*D777
  1

  0
LINE
  5
2E6
  8
回07-寸法
  6
CONTINUOUS
 62
     5
 10
709.4799133360002
 20
276.2652716365227
 30
0.0
 11
649.1570978950607
 21
276.2652716365227
 31
0.0
  0
LINE
  5
2E7
  8
回07-寸法
  6
CONTINUOUS
 62
     5
 10
709.4799133360002
 20
-30.43472836347748
 30
0.0
 11
649.1570978950609
 21
-30.43472836347748
 31
0.0
  0
LINE
  5
2E8
  8
回07-寸法
  6
CONTINUOUS
 62
     5
 10
650.1570978950606
 20
274.2652716365227
 30
0.0
 11
650.1570978950606
 21
-28.43472836347748
 31
0.0
  0
INSERT
  5
2E9
  8
回07-寸法
  6
CONTINUOUS
 62
     5
  2
_OPEN
 10
650.1570978950606
 20
276.2652716365227
 30
0.0
 41
2.0
 42
2.0
 43
2.0
 50
90.0
  0
INSERT
  5
2EA
  8
回07-寸法
  6
CONTINUOUS
 62
     5
  2
_OPEN
 10
650.1570978950609
 20
-30.43472836347748
 30
0.0
 41
2.0
 42
2.0
 43
2.0
 50
270.0
  0
TEXT
  5
2EB
  8
回07-寸法
  6
CONTINUOUS
 62
     5
 10
649.2570978950607
 20
49.71684643967217
 30
0.0
 40
8.0
  1
306.7 [12.075] (VIEWING AREA)
 50
90.0
1001
ACAD
1000
MTEXTBEGIN
1070
    73
1070
     1
1070
    44
1040
1.0
1070
    74
1070
     0
1000
MTEXTEND
  0
POINT
  5
2EC
  8
DEFPOINTS
  6
CONTINUOUS
 62
     0
 10
709.4799133360002
 20
276.2652716365227
 30
0.0
  0
POINT
  5
2ED
  8
DEFPOINTS
  6
CONTINUOUS
 62
     0
 10
709.4799133360002
 20
-30.43472836347748
 30
0.0
  0
POINT
  5
2EE
  8
DEFPOINTS
  6
CONTINUOUS
 62
     0
 10
650.1570978950609
 20
-30.43472836347748
 30
0.0
  0
ENDBLK
  5
2EF
  8
0
 62
     7
  0
BLOCK
  8
0
  2
*D888
 70
     1
 10
0.0
 20
0.0
 30
0.0
  3
*D888
  1

  0
LINE
  5
2D9
  8
回07-寸法
  6
CONTINUOUS
 62
     5
 10
700.129913336
 20
-40.28472836347761
 30
0.0
 11
618.5909576449877
 21
-40.28472836347761
 31
0.0
  0
LINE
  5
2DA
  8
回07-寸法
  6
CONTINUOUS
 62
     5
 10
700.129913336
 20
286.1152716365227
 30
0.0
 11
618.5909576449875
 21
286.1152716365227
 31
0.0
  0
LINE
  5
2DB
  8
回07-寸法
  6
CONTINUOUS
 62
     5
 10
619.5909576449877
 20
-38.28472836347764
 30
0.0
 11
619.5909576449877
 21
284.1152716365225
 31
0.0
  0
INSERT
  5
2DC
  8
回07-寸法
  6
CONTINUOUS
 62
     5
  2
_OPEN
 10
619.5909576449877
 20
-40.28472836347762
 30
0.0
 41
2.0
 42
2.0
 43
2.0
 50
270.0
  0
INSERT
  5
2DD
  8
回07-寸法
  6
CONTINUOUS
 62
     5
  2
_OPEN
 10
619.5909576449876
 20
286.1152716365225
 30
0.0
 41
2.0
 42
2.0
 43
2.0
 50
90.0
  0
INSERT
  5
2DE
  8
回07-寸法
  6
CONTINUOUS
 62
     5
 66
     1
  2
*X464646
 10
0.0
 20
0.0
 30
0.0
  0
SEQEND
  5
442
  8
回07-寸法
  6
CONTINUOUS
 62
     5
  0
POINT
  5
2DF
  8
DEFPOINTS
  6
CONTINUOUS
 62
     0
 10
700.129913336
 20
-40.28472836347761
 30
0.0
  0
POINT
  5
2E0
  8
DEFPOINTS
  6
CONTINUOUS
 62
     0
 10
700.129913336
 20
286.1152716365227
 30
0.0
  0
POINT
  5
2E1
  8
DEFPOINTS
  6
CONTINUOUS
 62
     0
 10
619.5909576449876
 20
286.1152716365225
 30
0.0
  0
ENDBLK
  5
2E2
  8
0
 62
     7
  0
BLOCK
  8
0
  2
*D999
 70
     1
 10
0.0
 20
0.0
 30
0.0
  3
*D999
  1

  0
LINE
  5
2C8
  8
回07-寸法
  6
CONTINUOUS
 62
     5
 10
700.129913336
 20
-30.43472836347748
 30
0.0
 11
677.3213952316597
 21
-30.43472836347748
 31
0.0
  0
LINE
  5
2C9
  8
回07-寸法
  6
CONTINUOUS
 62
     5
 10
700.129913336
 20
-28.43472836347748
 30
0.0
 11
677.3213952316597
 21
-28.43472836347748
 31
0.0
  0
LINE
  5
2CA
  8
回07-寸法
  6
CONTINUOUS
 62
     5
 10
678.3213952316597
 20
-32.43472836347748
 30
0.0
 11
678.3213952316597
 21
-34.43472836347748
 31
0.0
  0
LINE
  5
2CB
  8
回07-寸法
  6
CONTINUOUS
 62
     5
 10
678.3213952316597
 20
-26.43472836347748
 30
0.0
 11
678.3213952316597
 21
22.18692706787832
 31
0.0
  0
LINE
  5
2CC
  8
回07-寸法
  6
CONTINUOUS
 62
     5
 10
678.3213952316597
 20
-30.43472836347748
 30
0.0
 11
678.3213952316597
 21
-28.43472836347748
 31
0.0
  0
INSERT
  5
2CD
  8
回07-寸法
  6
CONTINUOUS
 62
     5
  2
_OPEN
 10
678.3213952316597
 20
-30.43472836347748
 30
0.0
 41
2.0
 42
2.0
 43
2.0
 50
90.0
  0
INSERT
  5
2CE
  8
回07-寸法
  6
CONTINUOUS
 62
     5
  2
_OPEN
 10
678.3213952316597
 20
-28.43472836347748
 30
0.0
 41
2.0
 42
2.0
 43
2.0
 50
270.0
  0
TEXT
  5
2CF
  8
回07-寸法
  6
CONTINUOUS
 62
     5
 10
677.4215549812656
 20
-25.13834212190773
 30
0.0
 40
8.0
  1
(2 [0.079])
 50
90.0
1001
ACAD
1000
MTEXTBEGIN
1070
    73
1070
     1
1070
    44
1040
1.0
1070
    74
1070
     0
1000
MTEXTEND
  0
POINT
  5
2D0
  8
DEFPOINTS
  6
CONTINUOUS
 62
     0
 10
700.129913336
 20
-30.43472836347748
 30
0.0
  0
POINT
  5
2D1
  8
DEFPOINTS
  6
CONTINUOUS
 62
     0
 10
700.129913336
 20
-28.43472836347748
 30
0.0
  0
POINT
  5
2D2
  8
DEFPOINTS
  6
CONTINUOUS
 62
     0
 10
678.3213952316597
 20
-28.43472836347748
 30
0.0
  0
ENDBLK
  5
2D3
  8
0
 62
     7
  0
BLOCK
  8
0
  2
*D101010
 70
     1
 10
0.0
 20
0.0
 30
0.0
  3
*D101010
  1

  0
LINE
  5
2B5
  8
回07-寸法
  6
CONTINUOUS
 62
     5
 10
1105.121843244366
 20
114.9164746707943
 30
0.0
 11
1177.176351698418
 21
114.9164746707943
 31
0.0
  0
LINE
  5
2B6
  8
回07-寸法
  6
CONTINUOUS
 62
     5
 10
1105.121843244366
 20
130.9140686022506
 30
0.0
 11
1177.176351698418
 21
130.9140686022506
 31
0.0
  0
LINE
  5
2B7
  8
回07-寸法
  6
CONTINUOUS
 62
     5
 10
1176.176351698418
 20
112.9164746707943
 30
0.0
 11
1176.176351698418
 21
110.9164746707943
 31
0.0
  0
LINE
  5
2B8
  8
回07-寸法
  6
CONTINUOUS
 62
     5
 10
1176.176351698418
 20
132.9140686022507
 30
0.0
 11
1176.176351698418
 21
179.1140686022506
 31
0.0
  0
LINE
  5
2B9
  8
回07-寸法
  6
CONTINUOUS
 62
     5
 10
1176.176351698418
 20
114.9164746707943
 30
0.0
 11
1176.176351698418
 21
130.9140686022506
 31
0.0
  0
INSERT
  5
2BA
  8
回07-寸法
  6
CONTINUOUS
 62
     5
  2
_OPEN
 10
1176.176351698418
 20
114.9164746707943
 30
0.0
 41
2.0
 42
2.0
 43
2.0
 50
90.0
  0
INSERT
  5
2BB
  8
回07-寸法
  6
CONTINUOUS
 62
     5
  2
_OPEN
 10
1176.176351698418
 20
130.9140686022506
 30
0.0
 41
2.0
 42
2.0
 43
2.0
 50
270.0
  0
TEXT
  5
2BC
  8
回07-寸法
  6
CONTINUOUS
 62
     5
 10
1175.276351698418
 20
134.2140686022503
 30
0.0
 40
8.0
  1
16 [0.630]
 50
90.0
1001
ACAD
1000
MTEXTBEGIN
1070
    73
1070
     1
1070
    44
1040
1.0
1070
    74
1070
     0
1000
MTEXTEND
  0
POINT
  5
2BD
  8
DEFPOINTS
  6
CONTINUOUS
 62
     0
 10
1105.121843244366
 20
114.9164746707943
 30
0.0
  0
POINT
  5
2BE
  8
DEFPOINTS
  6
CONTINUOUS
 62
     0
 10
1105.121843244366
 20
130.9140686022506
 30
0.0
  0
POINT
  5
2BF
  8
DEFPOINTS
  6
CONTINUOUS
 62
     0
 10
1176.176351698418
 20
130.9140686022506
 30
0.0
  0
ENDBLK
  5
2C0
  8
0
 62
     7
  0
BLOCK
  8
0
  2
*D111111
 70
     1
 10
0.0
 20
0.0
 30
0.0
  3
*D111111
  1

  0
LINE
  5
2A6
  8
回07-寸法
  6
CONTINUOUS
 62
     5
 10
1100.729913336
 20
134.7074279352084
 30
0.0
 11
1100.729913336
 21
159.5500739205849
 31
0.0
  0
LINE
  5
2A7
  8
回07-寸法
  6
CONTINUOUS
 62
     5
 10
1110.841175904778
 20
126.0402716365224
 30
0.0
 11
1110.841175904778
 21
159.5500739205849
 31
0.0
  0
LINE
  5
2A8
  8
回07-寸法
  6
CONTINUOUS
 62
     5
 10
1098.729913336
 20
158.5500739205849
 30
0.0
 11
1096.729913336
 21
158.5500739205849
 31
0.0
  0
LINE
  5
2A9
  8
回07-寸法
  6
CONTINUOUS
 62
     5
 10
1112.841175904778
 20
158.5500739205849
 30
0.0
 11
1114.841175904778
 21
158.5500739205849
 31
0.0
  0
TEXT
  5
2AA
  8
回07-寸法
  6
CONTINUOUS
 62
     5
 10
1103.062200988256
 20
161.422755168709
 30
0.0
 40
8.0
  1
9.4 [0.370]
1001
ACAD
1000
MTEXTBEGIN
1070
    73
1070
     1
1070
    44
1040
1.0
1070
    74
1070
     0
1000
MTEXTEND
  0
LINE
  5
2AB
  8
回07-寸法
  6
CONTINUOUS
 62
     5
 10
1100.729913336
 20
158.5500739205849
 30
0.0
 11
1110.841175904778
 21
158.5500739205849
 31
0.0
  0
INSERT
  5
2AC
  8
回07-寸法
  6
CONTINUOUS
 62
     5
  2
_OPEN
 10
1100.729913336
 20
158.5500739205849
 30
0.0
 41
2.0
 42
2.0
 43
2.0
  0
INSERT
  5
2AD
  8
回07-寸法
  6
CONTINUOUS
 62
     5
  2
_OPEN
 10
1110.841175904778
 20
158.5500739205849
 30
0.0
 41
2.0
 42
2.0
 43
2.0
 50
180.0
  0
POINT
  5
2AE
  8
DEFPOINTS
  6
CONTINUOUS
 62
     0
 10
1100.729913336
 20
134.7074279352084
 30
0.0
  0
POINT
  5
2AF
  8
DEFPOINTS
  6
CONTINUOUS
 62
     0
 10
1110.841175904778
 20
126.0402716365224
 30
0.0
  0
POINT
  5
2B0
  8
DEFPOINTS
  6
CONTINUOUS
 62
     0
 10
1110.841175904778
 20
158.5500739205849
 30
0.0
  0
ENDBLK
  5
2B1
  8
0
 62
     7
  0
BLOCK
  8
0
  2
*D121212
 70
     1
 10
0.0
 20
0.0
 30
0.0
  3
*D121212
  1

  0
LINE
  5
253
  8
回08-記事
  6
CONTINUOUS
 62
     5
 10
1240.729913336001
 20
-81.69075177946323
 30
0.0
 11
1256.135675658921
 21
-81.69075177946323
 31
0.0
  0
LINE
  5
254
  8
回08-記事
  6
CONTINUOUS
 62
     5
 10
1240.729913336001
 20
-86.59075177946331
 30
0.0
 11
1256.135675658921
 21
-86.59075177946331
 31
0.0
  0
LINE
  5
255
  8
回08-記事
  6
CONTINUOUS
 62
     5
 10
1255.135675658921
 20
-88.59075177946328
 30
0.0
 11
1255.135675658921
 21
-90.59075177946331
 31
0.0
  0
LINE
  5
256
  8
回08-記事
  6
CONTINUOUS
 62
     5
 10
1255.135675658921
 20
-79.6907517794632
 30
0.0
 11
1255.135675658921
 21
1.169707433135208
 31
0.0
  0
LINE
  5
257
  8
回08-記事
  6
CONTINUOUS
 62
     5
 10
1255.135675658921
 20
-86.59075177946331
 30
0.0
 11
1255.135675658921
 21
-81.6907517794632
 31
0.0
  0
INSERT
  5
258
  8
回08-記事
  6
CONTINUOUS
 62
     5
  2
_OPEN
 10
1255.135675658921
 20
-86.59075177946331
 30
0.0
 41
2.0
 42
2.0
 43
2.0
 50
90.0
  0
INSERT
  5
259
  8
回08-記事
  6
CONTINUOUS
 62
     5
  2
_OPEN
 10
1255.135675658921
 20
-81.6907517794632
 30
0.0
 41
2.0
 42
2.0
 43
2.0
 50
270.0
  0
INSERT
  5
25A
  8
回08-記事
  6
CONTINUOUS
 62
     5
 66
     1
  2
*X474747
 10
0.0
 20
0.0
 30
0.0
  0
SEQEND
  5
44B
  8
回07-寸法
  6
CONTINUOUS
 62
     5
  0
POINT
  5
25B
  8
DEFPOINTS
  6
CONTINUOUS
 62
     0
 10
1240.729913336001
 20
-81.69075177946323
 30
0.0
  0
POINT
  5
25C
  8
DEFPOINTS
  6
CONTINUOUS
 62
     0
 10
1240.729913336001
 20
-86.59075177946331
 30
0.0
  0
POINT
  5
25D
  8
DEFPOINTS
  6
CONTINUOUS
 62
     0
 10
1255.135675658921
 20
-86.59075177946331
 30
0.0
  0
ENDBLK
  5
25E
  8
0
 62
     7
  0
BLOCK
  8
0
  2
*D131313
 70
     1
 10
0.0
 20
0.0
 30
0.0
  3
*D131313
  1

  0
LINE
  5
244
  8
回08-記事
  6
CONTINUOUS
 62
     5
 10
700.4299133359999
 20
-79.1907517794632
 30
0.0
 11
692.9800479559371
 21
-79.1907517794632
 31
0.0
  0
LINE
  5
245
  8
回08-記事
  6
CONTINUOUS
 62
     5
 10
700.129913336
 20
-87.69075177946323
 30
0.0
 11
692.9800479559371
 21
-87.69075177946323
 31
0.0
  0
LINE
  5
246
  8
回08-記事
  6
CONTINUOUS
 62
     5
 10
693.9800479559371
 20
-77.1907517794632
 30
0.0
 11
693.9800479559371
 21
-75.19075177946323
 31
0.0
  0
LINE
  5
247
  8
回08-記事
  6
CONTINUOUS
 62
     5
 10
693.9800479559371
 20
-89.6907517794632
 30
0.0
 11
693.9800479559371
 21
-168.8345413857624
 31
0.0
  0
LINE
  5
248
  8
回08-記事
  6
CONTINUOUS
 62
     5
 10
693.9800479559371
 20
-79.1907517794632
 30
0.0
 11
693.9800479559371
 21
-87.69075177946323
 31
0.0
  0
INSERT
  5
249
  8
回08-記事
  6
CONTINUOUS
 62
     5
  2
_OPEN
 10
693.9800479559371
 20
-79.1907517794632
 30
0.0
 41
2.0
 42
2.0
 43
2.0
 50
270.0
  0
INSERT
  5
24A
  8
回08-記事
  6
CONTINUOUS
 62
     5
  2
_OPEN
 10
693.9800479559371
 20
-87.69075177946323
 30
0.0
 41
2.0
 42
2.0
 43
2.0
 50
90.0
  0
INSERT
  5
24B
  8
回08-記事
  6
CONTINUOUS
 62
     5
 66
     1
  2
*X484848
 10
0.0
 20
0.0
 30
0.0
  0
SEQEND
  5
454
  8
回07-寸法
  6
CONTINUOUS
 62
     5
  0
POINT
  5
24C
  8
DEFPOINTS
  6
CONTINUOUS
 62
     0
 10
700.4299133359999
 20
-79.1907517794632
 30
0.0
  0
POINT
  5
24D
  8
DEFPOINTS
  6
CONTINUOUS
 62
     0
 10
700.129913336
 20
-87.69075177946323
 30
0.0
  0
POINT
  5
24E
  8
DEFPOINTS
  6
CONTINUOUS
 62
     0
 10
693.9800479559371
 20
-87.69075177946323
 30
0.0
  0
ENDBLK
  5
24F
  8
0
 62
     7
  0
BLOCK
  8
0
  2
*D141414
 70
     1
 10
0.0
 20
0.0
 30
0.0
  3
*D141414
  1

  0
LINE
  5
235
  8
回08-記事
  6
CONTINUOUS
 62
     5
 10
1240.729913336
 20
-81.6907517794632
 30
0.0
 11
1240.729913336
 21
-54.657938874141
 31
0.0
  0
LINE
  5
236
  8
回08-記事
  6
CONTINUOUS
 62
     5
 10
1235.729913336
 20
-80.6907517794632
 30
0.0
 11
1235.729913336
 21
-54.657938874141
 31
0.0
  0
LINE
  5
237
  8
回08-記事
  6
CONTINUOUS
 62
     5
 10
1242.729913336
 20
-55.65793887414099
 30
0.0
 11
1244.729913336
 21
-55.65793887414099
 31
0.0
  0
LINE
  5
238
  8
回08-記事
  6
CONTINUOUS
 62
     5
 10
1233.729913336
 20
-55.65793887414099
 30
0.0
 11
1193.101958692046
 21
-55.65793887414099
 31
0.0
  0
LINE
  5
239
  8
回08-記事
  6
CONTINUOUS
 62
     5
 10
1240.729913336
 20
-55.65793887414099
 30
0.0
 11
1235.729913336
 21
-55.65793887414099
 31
0.0
  0
INSERT
  5
23A
  8
回08-記事
  6
CONTINUOUS
 62
     5
  2
_OPEN
 10
1240.729913336
 20
-55.65793887414099
 30
0.0
 41
2.0
 42
2.0
 43
2.0
 50
180.0
  0
INSERT
  5
23B
  8
回08-記事
  6
CONTINUOUS
 62
     5
  2
_OPEN
 10
1235.729913336
 20
-55.65793887414099
 30
0.0
 41
2.0
 42
2.0
 43
2.0
  0
TEXT
  5
23C
  8
回08-記事
  6
CONTINUOUS
 62
     5
 10
1192.401494539915
 20
-54.75809862374717
 30
0.0
 40
8.0
  1
5 [0.197]
1001
ACAD
1000
MTEXTBEGIN
1070
    73
1070
     1
1070
    44
1040
1.0
1070
    74
1070
     0
1000
MTEXTEND
  0
POINT
  5
23D
  8
DEFPOINTS
  6
CONTINUOUS
 62
     0
 10
1240.729913336
 20
-81.6907517794632
 30
0.0
  0
POINT
  5
23E
  8
DEFPOINTS
  6
CONTINUOUS
 62
     0
 10
1235.729913336
 20
-80.6907517794632
 30
0.0
  0
POINT
  5
23F
  8
DEFPOINTS
  6
CONTINUOUS
 62
     0
 10
1235.729913336
 20
-55.65793887414099
 30
0.0
  0
ENDBLK
  5
240
  8
0
 62
     7
  0
BLOCK
  8
0
  2
*D151515
 70
     1
 10
0.0
 20
0.0
 30
0.0
  3
*D151515
  1

  0
LINE
  5
226
  8
回08-記事
  6
CONTINUOUS
 62
     5
 10
1240.729913336
 20
-86.59075177946329
 30
0.0
 11
1240.729913336
 21
-105.6483437252957
 31
0.0
  0
LINE
  5
227
  8
回08-記事
  6
CONTINUOUS
 62
     5
 10
1230.729913336
 20
-86.59075177946329
 30
0.0
 11
1230.729913336
 21
-105.6483437252957
 31
0.0
  0
LINE
  5
228
  8
回08-記事
  6
CONTINUOUS
 62
     5
 10
1228.729913336
 20
-104.6483437252957
 30
0.0
 11
1226.729913336
 21
-104.6483437252957
 31
0.0
  0
LINE
  5
229
  8
回08-記事
  6
CONTINUOUS
 62
     5
 10
1242.729913336
 20
-104.6483437252957
 30
0.0
 11
1296.151568767356
 21
-104.6483437252957
 31
0.0
  0
LINE
  5
22A
  8
回08-記事
  6
CONTINUOUS
 62
     5
 10
1230.729913336
 20
-104.6483437252957
 30
0.0
 11
1240.729913336
 21
-104.6483437252957
 31
0.0
  0
INSERT
  5
22B
  8
回08-記事
  6
CONTINUOUS
 62
     5
  2
_OPEN
 10
1230.729913336
 20
-104.6483437252957
 30
0.0
 41
2.0
 42
2.0
 43
2.0
  0
INSERT
  5
22C
  8
回08-記事
  6
CONTINUOUS
 62
     5
  2
_OPEN
 10
1240.729913336
 20
-104.6483437252957
 30
0.0
 41
2.0
 42
2.0
 43
2.0
 50
180.0
  0
TEXT
  5
22D
  8
回08-記事
  6
CONTINUOUS
 62
     5
 10
1244.02629957757
 20
-103.7485034749019
 30
0.0
 40
8.0
  1
(10 [0.394])
1001
ACAD
1000
MTEXTBEGIN
1070
    73
1070
     1
1070
    44
1040
1.0
1070
    74
1070
     0
1000
MTEXTEND
  0
POINT
  5
22E
  8
DEFPOINTS
  6
CONTINUOUS
 62
     0
 10
1240.729913336
 20
-86.59075177946329
 30
0.0
  0
POINT
  5
22F
  8
DEFPOINTS
  6
CONTINUOUS
 62
     0
 10
1230.729913336
 20
-86.59075177946329
 30
0.0
  0
POINT
  5
230
  8
DEFPOINTS
  6
CONTINUOUS
 62
     0
 10
1230.729913336
 20
-104.6483437252957
 30
0.0
  0
ENDBLK
  5
231
  8
0
 62
     7
  0
BLOCK
  8
0
  2
*D161616
 70
     1
 10
0.0
 20
0.0
 30
0.0
  3
*D161616
  1

  0
LINE
  5
1CD
  8
回08-記事
  6
CONTINUOUS
 62
     5
 10
1323.079714615347
 20
25.8065879175929
 30
0.0
 11
1363.010948810174
 21
25.8065879175929
 31
0.0
  0
LINE
  5
1CE
  8
回08-記事
  6
CONTINUOUS
 62
     5
 10
1323.079714615347
 20
42.68158791759289
 30
0.0
 11
1363.010948810174
 21
42.68158791759289
 31
0.0
  0
LINE
  5
1CF
  8
回08-記事
  6
CONTINUOUS
 62
     5
 10
1362.010948810173
 20
44.68158791759289
 30
0.0
 11
1362.010948810173
 21
46.68158791759291
 31
0.0
  0
LINE
  5
1D0
  8
回08-記事
  6
CONTINUOUS
 62
     5
 10
1362.010948810173
 20
23.8065879175929
 30
0.0
 11
1362.010948810173
 21
-65.21607212916912
 31
0.0
  0
LINE
  5
1D1
  8
回08-記事
  6
CONTINUOUS
 62
     5
 10
1362.010948810173
 20
42.68158791759289
 30
0.0
 11
1362.010948810173
 21
25.8065879175929
 31
0.0
  0
INSERT
  5
1D2
  8
回08-記事
  6
CONTINUOUS
 62
     5
 66
     1
  2
_OPEN
 10
1362.010948810173
 20
42.68158791759289
 30
0.0
 41
2.0
 42
2.0
 43
2.0
 50
270.0
  0
SEQEND
  5
1D3
  8
回07-寸法
  6
CONTINUOUS
 62
     5
  0
INSERT
  5
1D4
  8
回08-記事
  6
CONTINUOUS
 62
     5
 66
     1
  2
_OPEN
 10
1362.010948810173
 20
25.8065879175929
 30
0.0
 41
2.0
 42
2.0
 43
2.0
 50
90.0
  0
SEQEND
  5
1D5
  8
回07-寸法
  6
CONTINUOUS
 62
     5
  0
INSERT
  5
1D6
  8
回08-記事
  6
CONTINUOUS
 62
     5
 66
     1
  2
*X494949
 10
0.0
 20
0.0
 30
0.0
  0
SEQEND
  5
45D
  8
回07-寸法
  6
CONTINUOUS
 62
     5
  0
POINT
  5
1D7
  8
DEFPOINTS
  6
CONTINUOUS
 62
     0
 10
1323.079714615347
 20
25.8065879175929
 30
0.0
  0
POINT
  5
1D8
  8
DEFPOINTS
  6
CONTINUOUS
 62
     0
 10
1323.079714615347
 20
42.68158791759289
 30
0.0
  0
POINT
  5
1D9
  8
DEFPOINTS
  6
CONTINUOUS
 62
     0
 10
1362.010948810173
 20
42.68158791759289
 30
0.0
  0
ENDBLK
  5
1DA
  8
0
 62
     7
  0
BLOCK
  8
0
  2
*D171717
 70
     1
 10
0.0
 20
0.0
 30
0.0
  3
*D171717
  1

  0
LINE
  5
1BC
  8
回08-記事
  6
CONTINUOUS
 62
     5
 10
1323.079714615347
 20
25.8065879175929
 30
0.0
 11
1350.445411270227
 21
25.8065879175929
 31
0.0
  0
LINE
  5
1BD
  8
回08-記事
  6
CONTINUOUS
 62
     5
 10
1323.079714615347
 20
31.43158791759426
 30
0.0
 11
1350.445411270227
 21
31.43158791759426
 31
0.0
  0
LINE
  5
1BE
  8
回08-記事
  6
CONTINUOUS
 62
     5
 10
1349.445411270227
 20
33.43158791759427
 30
0.0
 11
1349.445411270227
 21
35.43158791759426
 31
0.0
  0
LINE
  5
1BF
  8
回08-記事
  6
CONTINUOUS
 62
     5
 10
1349.445411270227
 20
23.8065879175929
 30
0.0
 11
1349.445411270227
 21
-63.55402409048448
 31
0.0
  0
LINE
  5
1C0
  8
回08-記事
  6
CONTINUOUS
 62
     5
 10
1349.445411270227
 20
31.43158791759427
 30
0.0
 11
1349.445411270227
 21
25.8065879175929
 31
0.0
  0
INSERT
  5
1C1
  8
回08-記事
  6
CONTINUOUS
 62
     5
 66
     1
  2
_OPEN
 10
1349.445411270227
 20
31.43158791759427
 30
0.0
 41
2.0
 42
2.0
 43
2.0
 50
270.0
  0
SEQEND
  5
1C2
  8
回07-寸法
  6
CONTINUOUS
 62
     5
  0
INSERT
  5
1C3
  8
回08-記事
  6
CONTINUOUS
 62
     5
 66
     1
  2
_OPEN
 10
1349.445411270227
 20
25.8065879175929
 30
0.0
 41
2.0
 42
2.0
 43
2.0
 50
90.0
  0
SEQEND
  5
1C4
  8
回07-寸法
  6
CONTINUOUS
 62
     5
  0
INSERT
  5
1C5
  8
回08-記事
  6
CONTINUOUS
 62
     5
 66
     1
  2
*X505050
 10
0.0
 20
0.0
 30
0.0
  0
SEQEND
  5
466
  8
回07-寸法
  6
CONTINUOUS
 62
     5
  0
POINT
  5
1C6
  8
DEFPOINTS
  6
CONTINUOUS
 62
     0
 10
1323.079714615347
 20
25.8065879175929
 30
0.0
  0
POINT
  5
1C7
  8
DEFPOINTS
  6
CONTINUOUS
 62
     0
 10
1323.079714615347
 20
31.43158791759426
 30
0.0
  0
POINT
  5
1C8
  8
DEFPOINTS
  6
CONTINUOUS
 62
     0
 10
1349.445411270227
 20
31.43158791759427
 30
0.0
  0
ENDBLK
  5
1C9
  8
0
 62
     7
  0
BLOCK
  8
0
  2
*D181818
 70
     1
 10
0.0
 20
0.0
 30
0.0
  3
*D181818
  1

  0
LINE
  5
1AB
  8
回08-記事
  6
CONTINUOUS
 62
     5
 10
1319.090182166877
 20
24.00658791759318
 30
0.0
 11
1337.323804021016
 21
24.00658791759318
 31
0.0
  0
LINE
  5
1AC
  8
回08-記事
  6
CONTINUOUS
 62
     5
 10
1319.090182166877
 20
27.60658791759262
 30
0.0
 11
1337.323804021016
 21
27.60658791759262
 31
0.0
  0
LINE
  5
1AD
  8
回08-記事
  6
CONTINUOUS
 62
     5
 10
1336.323804021016
 20
29.60658791759263
 30
0.0
 11
1336.323804021016
 21
31.60658791759263
 31
0.0
  0
LINE
  5
1AE
  8
回08-記事
  6
CONTINUOUS
 62
     5
 10
1336.323804021016
 20
22.00658791759317
 30
0.0
 11
1336.323804021016
 21
-81.92493695012409
 31
0.0
  0
LINE
  5
1AF
  8
回08-記事
  6
CONTINUOUS
 62
     5
 10
1336.323804021016
 20
27.60658791759263
 30
0.0
 11
1336.323804021016
 21
24.00658791759318
 31
0.0
  0
INSERT
  5
1B0
  8
回08-記事
  6
CONTINUOUS
 62
     5
 66
     1
  2
_OPEN
 10
1336.323804021016
 20
27.60658791759263
 30
0.0
 41
2.0
 42
2.0
 43
2.0
 50
270.0
  0
SEQEND
  5
1B1
  8
回07-寸法
  6
CONTINUOUS
 62
     5
  0
INSERT
  5
1B2
  8
回08-記事
  6
CONTINUOUS
 62
     5
 66
     1
  2
_OPEN
 10
1336.323804021016
 20
24.00658791759318
 30
0.0
 41
2.0
 42
2.0
 43
2.0
 50
90.0
  0
SEQEND
  5
1B3
  8
回07-寸法
  6
CONTINUOUS
 62
     5
  0
INSERT
  5
1B4
  8
回08-記事
  6
CONTINUOUS
 62
     5
 66
     1
  2
*X515151
 10
0.0
 20
0.0
 30
0.0
  0
SEQEND
  5
46F
  8
回07-寸法
  6
CONTINUOUS
 62
     5
  0
POINT
  5
1B5
  8
DEFPOINTS
  6
CONTINUOUS
 62
     0
 10
1319.090182166877
 20
24.00658791759318
 30
0.0
  0
POINT
  5
1B6
  8
DEFPOINTS
  6
CONTINUOUS
 62
     0
 10
1319.090182166877
 20
27.60658791759262
 30
0.0
  0
POINT
  5
1B7
  8
DEFPOINTS
  6
CONTINUOUS
 62
     0
 10
1336.323804021016
 20
27.60658791759263
 30
0.0
  0
ENDBLK
  5
1B8
  8
0
 62
     7
  0
BLOCK
  8
0
  2
*D191919
 70
     1
 10
0.0
 20
0.0
 30
0.0
  3
*D191919
  1

  0
LINE
  5
190
  8
回07-寸法
  6
CONTINUOUS
 62
     5
 10
1316.840182166877
 20
20.18158791759562
 30
0.0
 11
1373.872401192564
 21
20.18158791759562
 31
0.0
  0
LINE
  5
191
  8
回07-寸法
  6
CONTINUOUS
 62
     5
 10
1316.840182166877
 20
48.30658791759564
 30
0.0
 11
1373.872401192564
 21
48.30658791759564
 31
0.0
  0
LINE
  5
192
  8
回07-寸法
  6
CONTINUOUS
 62
     5
 10
1372.872401192564
 20
50.30658791759564
 30
0.0
 11
1372.872401192564
 21
52.30658791759564
 31
0.0
  0
LINE
  5
193
  8
回07-寸法
  6
CONTINUOUS
 62
     5
 10
1372.872401192564
 20
18.18158791759563
 30
0.0
 11
1372.872401192564
 21
-67.4177922398847
 31
0.0
  0
LINE
  5
194
  8
回07-寸法
  6
CONTINUOUS
 62
     5
 10
1372.872401192564
 20
48.30658791759564
 30
0.0
 11
1372.872401192564
 21
20.18158791759563
 31
0.0
  0
INSERT
  5
195
  8
回07-寸法
  6
CONTINUOUS
 62
     5
  2
_OPEN
 10
1372.872401192564
 20
48.30658791759564
 30
0.0
 41
2.0
 42
2.0
 43
2.0
 50
270.0
  0
INSERT
  5
196
  8
回07-寸法
  6
CONTINUOUS
 62
     5
  2
_OPEN
 10
1372.872401192564
 20
20.18158791759563
 30
0.0
 41
2.0
 42
2.0
 43
2.0
 50
90.0
  0
INSERT
  5
197
  8
回07-寸法
  6
CONTINUOUS
 62
     5
 66
     1
  2
*X525252
 10
0.0
 20
0.0
 30
0.0
  0
SEQEND
  5
478
  8
回07-寸法
  6
CONTINUOUS
 62
     5
  0
POINT
  5
198
  8
DEFPOINTS
  6
CONTINUOUS
 62
     0
 10
1316.840182166877
 20
20.18158791759562
 30
0.0
  0
POINT
  5
199
  8
DEFPOINTS
  6
CONTINUOUS
 62
     0
 10
1316.840182166877
 20
48.30658791759564
 30
0.0
  0
POINT
  5
19A
  8
DEFPOINTS
  6
CONTINUOUS
 62
     0
 10
1372.872401192564
 20
48.30658791759564
 30
0.0
  0
ENDBLK
  5
19B
  8
0
 62
     7
  0
BLOCK
  8
0
  2
*D202020
 70
     1
 10
0.0
 20
0.0
 30
0.0
  3
*D202020
  1

  0
LINE
  5
13E
  8
回03-寸法
  6
CONTINUOUS
 62
     5
 10
700.129913336
 20
286.1152716365225
 30
0.0
 11
700.129913336
 21
320.4340259694009
 31
0.0
  0
LINE
  5
13F
  8
回03-寸法
  6
CONTINUOUS
 62
     5
 10
709.4799133359997
 20
276.2652716365226
 30
0.0
 11
709.4799133359997
 21
320.4340259694009
 31
0.0
  0
LINE
  5
140
  8
回03-寸法
  6
CONTINUOUS
 62
     5
 10
711.479913336
 20
319.4340259694009
 30
0.0
 11
713.4799133359997
 21
319.4340259694009
 31
0.0
  0
LINE
  5
141
  8
回03-寸法
  6
CONTINUOUS
 62
     5
 10
698.1299133360001
 20
319.4340259694009
 30
0.0
 11
641.9985424861015
 21
319.4340259694009
 31
0.0
  0
LINE
  5
142
  8
回03-寸法
  6
CONTINUOUS
 62
     5
 10
709.4799133359997
 20
319.4340259694009
 30
0.0
 11
700.129913336
 21
319.4340259694009
 31
0.0
  0
INSERT
  5
143
  8
回03-寸法
  6
CONTINUOUS
 62
     5
  2
_OPEN
 10
709.4799133359997
 20
319.4340259694009
 30
0.0
 41
2.0
 42
2.0
 43
2.0
 50
180.0
  0
INSERT
  5
144
  8
回03-寸法
  6
CONTINUOUS
 62
     5
  2
_OPEN
 10
700.129913336
 20
319.4340259694009
 30
0.0
 41
2.0
 42
2.0
 43
2.0
  0
TEXT
  5
145
  8
回03-寸法
  6
CONTINUOUS
 62
     5
 10
641.4353449628347
 20
320.3340259694008
 30
0.0
 40
8.0
  1
9.35 [0.368]
1001
ACAD
1000
MTEXTBEGIN
1070
    73
1070
     1
1070
    44
1040
1.0
1070
    74
1070
     0
1000
MTEXTEND
  0
POINT
  5
146
  8
DEFPOINTS
  6
CONTINUOUS
 62
     0
 10
700.129913336
 20
286.1152716365225
 30
0.0
  0
POINT
  5
147
  8
DEFPOINTS
  6
CONTINUOUS
 62
     0
 10
709.4799133359997
 20
276.2652716365226
 30
0.0
  0
POINT
  5
148
  8
DEFPOINTS
  6
CONTINUOUS
 62
     0
 10
709.4799133359997
 20
319.4340259694009
 30
0.0
  0
ENDBLK
  5
149
  8
0
 62
     7
  0
BLOCK
  8
0
  2
*D212121
 70
     1
 10
0.0
 20
0.0
 30
0.0
  3
*D212121
  1

  0
LINE
  5
12F
  8
回03-寸法
  6
CONTINUOUS
 62
     5
 10
711.7699133360002
 20
273.9452716365224
 30
0.0
 11
711.7699133360002
 21
308.8180895851684
 31
0.0
  0
LINE
  5
130
  8
回03-寸法
  6
CONTINUOUS
 62
     5
 10
700.129913336
 20
286.1152716365225
 30
0.0
 11
700.129913336
 21
308.8180895851684
 31
0.0
  0
LINE
  5
131
  8
回03-寸法
  6
CONTINUOUS
 62
     5
 10
713.769913336
 20
307.8180895851684
 30
0.0
 11
715.7699133360002
 21
307.8180895851684
 31
0.0
  0
LINE
  5
132
  8
回03-寸法
  6
CONTINUOUS
 62
     5
 10
698.1299133360001
 20
307.8180895851684
 30
0.0
 11
638.3299133360001
 21
307.8180895851684
 31
0.0
  0
LINE
  5
133
  8
回03-寸法
  6
CONTINUOUS
 62
     5
 10
711.7699133360002
 20
307.8180895851684
 30
0.0
 11
700.129913336
 21
307.8180895851684
 31
0.0
  0
INSERT
  5
134
  8
回03-寸法
  6
CONTINUOUS
 62
     5
  2
_OPEN
 10
711.7699133360002
 20
307.8180895851684
 30
0.0
 41
2.0
 42
2.0
 43
2.0
 50
180.0
  0
INSERT
  5
135
  8
回03-寸法
  6
CONTINUOUS
 62
     5
  2
_OPEN
 10
700.129913336
 20
307.8180895851684
 30
0.0
 41
2.0
 42
2.0
 43
2.0
  0
TEXT
  5
136
  8
回03-寸法
  6
CONTINUOUS
 62
     5
 10
637.6299133359999
 20
308.7180895851684
 30
0.0
 40
8.0
  1
11.64 [0.458]
1001
ACAD
1000
MTEXTBEGIN
1070
    73
1070
     1
1070
    44
1040
1.0
1070
    74
1070
     0
1000
MTEXTEND
  0
POINT
  5
137
  8
DEFPOINTS
  6
CONTINUOUS
 62
     0
 10
711.7699133360002
 20
273.9452716365224
 30
0.0
  0
POINT
  5
138
  8
DEFPOINTS
  6
CONTINUOUS
 62
     0
 10
700.129913336
 20
286.1152716365225
 30
0.0
  0
POINT
  5
139
  8
DEFPOINTS
  6
CONTINUOUS
 62
     0
 10
700.129913336
 20
307.8180895851684
 30
0.0
  0
ENDBLK
  5
13A
  8
0
 62
     7
  0
BLOCK
  8
0
  2
*D222222
 70
     1
 10
0.0
 20
0.0
 30
0.0
  3
*D222222
  1

  0
LINE
  5
120
  8
回03-寸法
  6
CONTINUOUS
 62
     5
 10
709.4799133360002
 20
-30.43472836347748
 30
0.0
 11
649.1570978950617
 21
-30.43472836347748
 31
0.0
  0
LINE
  5
121
  8
回03-寸法
  6
CONTINUOUS
 62
     5
 10
700.129913336
 20
-40.28472836347761
 30
0.0
 11
649.1570978950617
 21
-40.28472836347761
 31
0.0
  0
LINE
  5
122
  8
回03-寸法
  6
CONTINUOUS
 62
     5
 10
650.1570978950617
 20
-28.43472836347748
 30
0.0
 11
650.1570978950617
 21
-26.43472836347748
 31
0.0
  0
LINE
  5
123
  8
回03-寸法
  6
CONTINUOUS
 62
     5
 10
650.1570978950617
 20
-42.28472836347761
 30
0.0
 11
650.1570978950617
 21
-98.41609921337614
 31
0.0
  0
LINE
  5
124
  8
回03-寸法
  6
CONTINUOUS
 62
     5
 10
650.1570978950617
 20
-30.43472836347748
 30
0.0
 11
650.1570978950617
 21
-40.28472836347762
 31
0.0
  0
INSERT
  5
125
  8
回03-寸法
  6
CONTINUOUS
 62
     5
  2
_OPEN
 10
650.1570978950617
 20
-30.43472836347748
 30
0.0
 41
2.0
 42
2.0
 43
2.0
 50
270.0
  0
INSERT
  5
126
  8
回03-寸法
  6
CONTINUOUS
 62
     5
  2
_OPEN
 10
650.1570978950617
 20
-40.28472836347762
 30
0.0
 41
2.0
 42
2.0
 43
2.0
 50
90.0
  0
TEXT
  5
127
  8
回03-寸法
  6
CONTINUOUS
 62
     5
 10
649.2570978950616
 20
-98.97929673664291
 30
0.0
 40
8.0
  1
9.85 [0.388]
 50
90.0
1001
ACAD
1000
MTEXTBEGIN
1070
    73
1070
     1
1070
    44
1040
1.0
1070
    74
1070
     0
1000
MTEXTEND
  0
POINT
  5
128
  8
DEFPOINTS
  6
CONTINUOUS
 62
     0
 10
709.4799133360002
 20
-30.43472836347748
 30
0.0
  0
POINT
  5
129
  8
DEFPOINTS
  6
CONTINUOUS
 62
     0
 10
700.129913336
 20
-40.28472836347761
 30
0.0
  0
POINT
  5
12A
  8
DEFPOINTS
  6
CONTINUOUS
 62
     0
 10
650.1570978950617
 20
-40.28472836347762
 30
0.0
  0
ENDBLK
  5
12B
  8
0
 62
     7
  0
BLOCK
  8
0
  2
*D232323
 70
     1
 10
0.0
 20
0.0
 30
0.0
  3
*D232323
  1

  0
LINE
  5
111
  8
回03-寸法
  6
CONTINUOUS
 62
     5
 10
711.7699133360002
 20
-28.11472836347754
 30
0.0
 11
663.2002574417542
 21
-28.11472836347754
 31
0.0
  0
LINE
  5
112
  8
回03-寸法
  6
CONTINUOUS
 62
     5
 10
700.129913336
 20
-40.28472836347761
 30
0.0
 11
663.2002574417542
 21
-40.28472836347761
 31
0.0
  0
LINE
  5
113
  8
回03-寸法
  6
CONTINUOUS
 62
     5
 10
664.2002574417542
 20
-26.11472836347755
 30
0.0
 11
664.2002574417542
 21
-24.11472836347754
 31
0.0
  0
LINE
  5
114
  8
回03-寸法
  6
CONTINUOUS
 62
     5
 10
664.2002574417542
 20
-42.28472836347761
 30
0.0
 11
664.2002574417542
 21
-101.3126830074318
 31
0.0
  0
LINE
  5
115
  8
回03-寸法
  6
CONTINUOUS
 62
     5
 10
664.2002574417542
 20
-28.11472836347754
 30
0.0
 11
664.2002574417542
 21
-40.28472836347762
 31
0.0
  0
INSERT
  5
116
  8
回03-寸法
  6
CONTINUOUS
 62
     5
  2
_OPEN
 10
664.2002574417542
 20
-28.11472836347754
 30
0.0
 41
2.0
 42
2.0
 43
2.0
 50
270.0
  0
INSERT
  5
117
  8
回03-寸法
  6
CONTINUOUS
 62
     5
  2
_OPEN
 10
664.2002574417542
 20
-40.28472836347762
 30
0.0
 41
2.0
 42
2.0
 43
2.0
 50
90.0
  0
TEXT
  5
118
  8
回03-寸法
  6
CONTINUOUS
 62
     5
 10
663.3004171913602
 20
-102.0131471595629
 30
0.0
 40
8.0
  1
12.17 [0.479]
 50
90.0
1001
ACAD
1000
MTEXTBEGIN
1070
    73
1070
     1
1070
    44
1040
1.0
1070
    74
1070
     0
1000
MTEXTEND
  0
POINT
  5
119
  8
DEFPOINTS
  6
CONTINUOUS
 62
     0
 10
711.7699133360002
 20
-28.11472836347754
 30
0.0
  0
POINT
  5
11A
  8
DEFPOINTS
  6
CONTINUOUS
 62
     0
 10
700.129913336
 20
-40.28472836347761
 30
0.0
  0
POINT
  5
11B
  8
DEFPOINTS
  6
CONTINUOUS
 62
     0
 10
664.2002574417542
 20
-40.28472836347762
 30
0.0
  0
ENDBLK
  5
11C
  8
0
 62
     7
  0
BLOCK
  8
0
  2
*D242424
 70
     1
 10
0.0
 20
0.0
 30
0.0
  3
*D242424
  1

  0
LINE
  5
104
  8
回03-寸法
  6
CONTINUOUS
 62
     5
 10
700.129913336
 20
-40.28472836347761
 30
0.0
 11
691.2209358088771
 21
-40.28472836347761
 31
0.0
  0
LINE
  5
105
  8
回03-寸法
  6
CONTINUOUS
 62
     5
 10
700.129913336
 20
122.9152716365225
 30
0.0
 11
691.2209358088771
 21
122.9152716365225
 31
0.0
  0
LINE
  5
106
  8
回03-寸法
  6
CONTINUOUS
 62
     5
 10
692.2209358088771
 20
-38.28472836347761
 30
0.0
 11
692.2209358088771
 21
120.9152716365225
 31
0.0
  0
TEXT
  5
107
  8
回03-寸法
  6
CONTINUOUS
 62
     5
 10
689.4106592349617
 20
-20.34106530165275
 30
0.0
 40
8.0
  1
163.2 [6.425] (ACTIVE AREA CENTER)
 50
90.0
1001
ACAD
1000
MTEXTBEGIN
1070
    73
1070
     1
1070
    44
1040
1.0
1070
    74
1070
     0
1000
MTEXTEND
  0
INSERT
  5
108
  8
回03-寸法
  6
CONTINUOUS
 62
     5
  2
_OPEN
 10
692.2209358088771
 20
-40.28472836347761
 30
0.0
 41
2.0
 42
2.0
 43
2.0
 50
270.0
  0
INSERT
  5
109
  8
回03-寸法
  6
CONTINUOUS
 62
     5
  2
_OPEN
 10
692.2209358088771
 20
122.9152716365225
 30
0.0
 41
2.0
 42
2.0
 43
2.0
 50
90.0
  0
POINT
  5
10A
  8
DEFPOINTS
  6
CONTINUOUS
 62
     0
 10
700.129913336
 20
-40.28472836347761
 30
0.0
  0
POINT
  5
10B
  8
DEFPOINTS
  6
CONTINUOUS
 62
     0
 10
700.129913336
 20
122.9152716365225
 30
0.0
  0
POINT
  5
10C
  8
DEFPOINTS
  6
CONTINUOUS
 62
     0
 10
692.2209358088771
 20
122.9152716365225
 30
0.0
  0
ENDBLK
  5
10D
  8
0
 62
     7
  0
BLOCK
  8
0
  2
*D252525
 70
     1
 10
0.0
 20
0.0
 30
0.0
  3
*D252525
  1

  0
LINE
  5
F7
  8
回03-寸法
  6
CONTINUOUS
 62
     5
 10
900.4299133359999
 20
286.1152716365225
 30
0.0
 11
900.4299133359999
 21
296.2167979633762
 31
0.0
  0
LINE
  5
F8
  8
回03-寸法
  6
CONTINUOUS
 62
     5
 10
700.129913336
 20
286.1152716365225
 30
0.0
 11
700.129913336
 21
296.2167979633762
 31
0.0
  0
LINE
  5
F9
  8
回03-寸法
  6
CONTINUOUS
 62
     5
 10
898.429913336
 20
295.2167979633762
 30
0.0
 11
702.1299133360001
 21
295.2167979633762
 31
0.0
  0
INSERT
  5
FA
  8
回03-寸法
  6
CONTINUOUS
 62
     5
  2
_OPEN
 10
900.4299133359999
 20
295.2167979633762
 30
0.0
 41
2.0
 42
2.0
 43
2.0
  0
INSERT
  5
FB
  8
回03-寸法
  6
CONTINUOUS
 62
     5
  2
_OPEN
 10
700.129913336
 20
295.2167979633762
 30
0.0
 41
2.0
 42
2.0
 43
2.0
 50
180.0
  0
TEXT
  5
FC
  8
回03-寸法
  6
CONTINUOUS
 62
     5
 10
717.3657604881474
 20
296.1167979633762
 30
0.0
 40
8.0
  1
200.3 [7.886] (ACTIVE AREA CENTER)
1001
ACAD
1000
MTEXTBEGIN
1070
    73
1070
     1
1070
    44
1040
1.0
1070
    74
1070
     0
1000
MTEXTEND
  0
POINT
  5
FD
  8
DEFPOINTS
  6
CONTINUOUS
 62
     0
 10
900.4299133359999
 20
286.1152716365225
 30
0.0
  0
POINT
  5
FE
  8
DEFPOINTS
  6
CONTINUOUS
 62
     0
 10
700.129913336
 20
286.1152716365225
 30
0.0
  0
POINT
  5
FF
  8
DEFPOINTS
  6
CONTINUOUS
 62
     0
 10
700.129913336
 20
295.2167979633762
 30
0.0
  0
ENDBLK
  5
100
  8
0
 62
     7
  0
BLOCK
  8
0
  2
*D262626
 70
     1
 10
0.0
 20
0.0
 30
0.0
  3
*D262626
  1

  0
LINE
  5
E8
  8
回03-寸法
  6
CONTINUOUS
 62
     5
 10
1100.729913336
 20
286.1152716365227
 30
0.0
 11
1267.867213516832
 21
286.1152716365227
 31
0.0
  0
LINE
  5
E9
  8
回03-寸法
  6
CONTINUOUS
 62
     5
 10
1240.729913336
 20
122.9152716365222
 30
0.0
 11
1267.867213516832
 21
122.9152716365222
 31
0.0
  0
LINE
  5
EA
  8
回03-寸法
  6
CONTINUOUS
 62
     5
 10
1266.867213516833
 20
284.1152716365227
 30
0.0
 11
1266.867213516833
 21
124.9152716365223
 31
0.0
  0
INSERT
  5
EB
  8
回03-寸法
  6
CONTINUOUS
 62
     5
  2
_OPEN
 10
1266.867213516833
 20
286.1152716365227
 30
0.0
 41
2.0
 42
2.0
 43
2.0
 50
90.0
  0
INSERT
  5
EC
  8
回03-寸法
  6
CONTINUOUS
 62
     5
  2
_OPEN
 10
1266.867213516833
 20
122.9152716365223
 30
0.0
 41
2.0
 42
2.0
 43
2.0
 50
270.0
  0
TEXT
  5
ED
  8
回03-寸法
  6
CONTINUOUS
 62
     5
 10
1265.967213516832
 20
174.5152716365221
 30
0.0
 40
8.0
  1
163.2 [6.425]
 50
90.0
1001
ACAD
1000
MTEXTBEGIN
1070
    73
1070
     1
1070
    44
1040
1.0
1070
    74
1070
     0
1000
MTEXTEND
  0
POINT
  5
EE
  8
DEFPOINTS
  6
CONTINUOUS
 62
     0
 10
1100.729913336
 20
286.1152716365227
 30
0.0
  0
POINT
  5
EF
  8
DEFPOINTS
  6
CONTINUOUS
 62
     0
 10
1240.729913336
 20
122.9152716365222
 30
0.0
  0
POINT
  5
F0
  8
DEFPOINTS
  6
CONTINUOUS
 62
     0
 10
1266.867213516833
 20
122.9152716365223
 30
0.0
  0
ENDBLK
  5
F1
  8
0
 62
     7
  0
BLOCK
  8
0
  2
*D272727
 70
     1
 10
0.0
 20
0.0
 30
0.0
  3
*D272727
  1

  0
LINE
  5
C9
  8
回07-寸法
  6
CONTINUOUS
 62
     5
 10
708.9799133359997
 20
277.0652716365224
 30
0.0
 11
708.9799133359997
 21
332.3368008132502
 31
0.0
  0
LINE
  5
CA
  8
回07-寸法
  6
CONTINUOUS
 62
     5
 10
1091.879913336
 20
277.0652716365224
 30
0.0
 11
1091.879913336
 21
332.3368008132502
 31
0.0
  0
LINE
  5
CB
  8
回07-寸法
  6
CONTINUOUS
 62
     5
 10
710.9799133360001
 20
331.3368008132502
 30
0.0
 11
1089.879913336
 21
331.3368008132502
 31
0.0
  0
INSERT
  5
CC
  8
回07-寸法
  6
CONTINUOUS
 62
     5
  2
_OPEN
 10
708.9799133359997
 20
331.3368008132502
 30
0.0
 41
2.0
 42
2.0
 43
2.0
 50
180.0
  0
INSERT
  5
CD
  8
回07-寸法
  6
CONTINUOUS
 62
     5
  2
_OPEN
 10
1091.879913336
 20
331.3368008132502
 30
0.0
 41
2.0
 42
2.0
 43
2.0
  0
TEXT
  5
CE
  8
回07-寸法
  6
CONTINUOUS
 62
     5
 10
868.0154718618918
 20
332.2368008132502
 30
0.0
 40
8.0
  1
382.9 [15.075]
1001
ACAD
1000
MTEXTBEGIN
1070
    73
1070
     1
1070
    44
1040
1.0
1070
    74
1070
     0
1000
MTEXTEND
  0
POINT
  5
CF
  8
DEFPOINTS
  6
CONTINUOUS
 62
     0
 10
708.9799133359997
 20
277.0652716365224
 30
0.0
  0
POINT
  5
D0
  8
DEFPOINTS
  6
CONTINUOUS
 62
     0
 10
1091.879913336
 20
277.0652716365224
 30
0.0
  0
POINT
  5
D1
  8
DEFPOINTS
  6
CONTINUOUS
 62
     0
 10
1091.879913336
 20
331.3368008132502
 30
0.0
  0
ENDBLK
  5
D2
  8
0
 62
    20
  0
BLOCK
  8
0
  2
*D282828
 70
     1
 10
0.0
 20
0.0
 30
0.0
  3
*D282828
  1

  0
LINE
  5
BA
  8
回07-寸法
  6
CONTINUOUS
 62
     5
 10
708.9799133359997
 20
277.0652716365224
 30
0.0
 11
708.9799133359997
 21
332.3368008132502
 31
0.0
  0
LINE
  5
BB
  8
回07-寸法
  6
CONTINUOUS
 62
     5
 10
700.129913336
 20
286.1152716365225
 30
0.0
 11
700.129913336
 21
332.3368008132502
 31
0.0
  0
LINE
  5
BC
  8
回07-寸法
  6
CONTINUOUS
 62
     5
 10
710.9799133360001
 20
331.3368008132502
 30
0.0
 11
712.9799133359997
 21
331.3368008132502
 31
0.0
  0
LINE
  5
BD
  8
回07-寸法
  6
CONTINUOUS
 62
     5
 10
698.1299133360001
 20
331.3368008132502
 30
0.0
 11
641.5299133359999
 21
331.3368008132502
 31
0.0
  0
LINE
  5
BE
  8
回07-寸法
  6
CONTINUOUS
 62
     5
 10
708.9799133359997
 20
331.3368008132502
 30
0.0
 11
700.129913336
 21
331.3368008132502
 31
0.0
  0
INSERT
  5
BF
  8
回07-寸法
  6
CONTINUOUS
 62
     5
  2
_OPEN
 10
708.9799133359997
 20
331.3368008132502
 30
0.0
 41
2.0
 42
2.0
 43
2.0
 50
180.0
  0
INSERT
  5
C0
  8
回07-寸法
  6
CONTINUOUS
 62
     5
  2
_OPEN
 10
700.129913336
 20
331.3368008132502
 30
0.0
 41
2.0
 42
2.0
 43
2.0
  0
TEXT
  5
C1
  8
回07-寸法
  6
CONTINUOUS
 62
     5
 10
640.8299133360001
 20
332.2368008132502
 30
0.0
 40
8.0
  1
8.85 [0.348]
1001
ACAD
1000
MTEXTBEGIN
1070
    73
1070
     1
1070
    44
1040
1.0
1070
    74
1070
     0
1000
MTEXTEND
  0
POINT
  5
C2
  8
DEFPOINTS
  6
CONTINUOUS
 62
     0
 10
708.9799133359997
 20
277.0652716365224
 30
0.0
  0
POINT
  5
C3
  8
DEFPOINTS
  6
CONTINUOUS
 62
     0
 10
700.129913336
 20
286.1152716365225
 30
0.0
  0
POINT
  5
C4
  8
DEFPOINTS
  6
CONTINUOUS
 62
     0
 10
700.129913336
 20
331.3368008132502
 30
0.0
  0
ENDBLK
  5
C5
  8
0
 62
    20
  0
BLOCK
  8
0
  2
*D292929
 70
     1
 10
0.0
 20
0.0
 30
0.0
  3
*D292929
  1

  0
LINE
  5
AC
  8
回07-寸法
  6
CONTINUOUS
 62
     5
 10
708.9799133360002
 20
-31.23472836347762
 30
0.0
 11
633.4667303684716
 21
-31.23472836347762
 31
0.0
  0
LINE
  5
AD
  8
回07-寸法
  6
CONTINUOUS
 62
     5
 10
708.9799133360002
 20
277.0652716365225
 30
0.0
 11
633.4667303684715
 21
277.0652716365225
 31
0.0
  0
LINE
  5
AE
  8
回07-寸法
  6
CONTINUOUS
 62
     5
 10
634.4667303684716
 20
-29.23472836347763
 30
0.0
 11
634.4667303684716
 21
275.0652716365225
 31
0.0
  0
INSERT
  5
AF
  8
回07-寸法
  6
CONTINUOUS
 62
     5
  2
_OPEN
 10
634.4667303684716
 20
-31.23472836347763
 30
0.0
 41
2.0
 42
2.0
 43
2.0
 50
270.0
  0
INSERT
  5
B0
  8
回07-寸法
  6
CONTINUOUS
 62
     5
  2
_OPEN
 10
634.4667303684715
 20
277.0652716365225
 30
0.0
 41
2.0
 42
2.0
 43
2.0
 50
90.0
  0
TEXT
  5
B1
  8
回07-寸法
  6
CONTINUOUS
 62
     5
 10
633.5667303684715
 20
91.3152716365222
 30
0.0
 40
8.0
  1
308.3 [12.138]
 50
90.0
1001
ACAD
1000
MTEXTBEGIN
1070
    73
1070
     1
1070
    44
1040
1.0
1070
    74
1070
     0
1000
MTEXTEND
  0
POINT
  5
B2
  8
DEFPOINTS
  6
CONTINUOUS
 62
     0
 10
708.9799133360002
 20
-31.23472836347762
 30
0.0
  0
POINT
  5
B3
  8
DEFPOINTS
  6
CONTINUOUS
 62
     0
 10
708.9799133360002
 20
277.0652716365225
 30
0.0
  0
POINT
  5
B4
  8
DEFPOINTS
  6
CONTINUOUS
 62
     0
 10
634.4667303684715
 20
277.0652716365225
 30
0.0
  0
ENDBLK
  5
B5
  8
0
 62
    20
  0
BLOCK
  8
0
  2
*D303030
 70
     1
 10
0.0
 20
0.0
 30
0.0
  3
*D303030
  1

  0
LINE
  5
9D
  8
回07-寸法
  6
CONTINUOUS
 62
     5
 10
708.9799133360002
 20
-31.23472836347762
 30
0.0
 11
633.4667303684714
 21
-31.23472836347762
 31
0.0
  0
LINE
  5
9E
  8
回07-寸法
  6
CONTINUOUS
 62
     5
 10
700.129913336
 20
-40.28472836347761
 30
0.0
 11
633.4667303684714
 21
-40.28472836347761
 31
0.0
  0
LINE
  5
9F
  8
回07-寸法
  6
CONTINUOUS
 62
     5
 10
634.4667303684714
 20
-29.23472836347763
 30
0.0
 11
634.4667303684714
 21
-27.23472836347763
 31
0.0
  0
LINE
  5
A0
  8
回07-寸法
  6
CONTINUOUS
 62
     5
 10
634.4667303684714
 20
-42.28472836347761
 30
0.0
 11
634.4667303684714
 21
-98.41609921337614
 31
0.0
  0
LINE
  5
A1
  8
回07-寸法
  6
CONTINUOUS
 62
     5
 10
634.4667303684714
 20
-31.23472836347763
 30
0.0
 11
634.4667303684714
 21
-40.28472836347762
 31
0.0
  0
INSERT
  5
A2
  8
回07-寸法
  6
CONTINUOUS
 62
     5
  2
_OPEN
 10
634.4667303684714
 20
-31.23472836347763
 30
0.0
 41
2.0
 42
2.0
 43
2.0
 50
270.0
  0
INSERT
  5
A3
  8
回07-寸法
  6
CONTINUOUS
 62
     5
  2
_OPEN
 10
634.4667303684714
 20
-40.28472836347762
 30
0.0
 41
2.0
 42
2.0
 43
2.0
 50
90.0
  0
TEXT
  5
A4
  8
回07-寸法
  6
CONTINUOUS
 62
     5
 10
633.5667303684711
 20
-98.97929673664291
 30
0.0
 40
8.0
  1
9.05 [0.356]
 50
90.0
1001
ACAD
1000
MTEXTBEGIN
1070
    73
1070
     1
1070
    44
1040
1.0
1070
    74
1070
     0
1000
MTEXTEND
  0
POINT
  5
A5
  8
DEFPOINTS
  6
CONTINUOUS
 62
     0
 10
708.9799133360002
 20
-31.23472836347762
 30
0.0
  0
POINT
  5
A6
  8
DEFPOINTS
  6
CONTINUOUS
 62
     0
 10
700.129913336
 20
-40.28472836347761
 30
0.0
  0
POINT
  5
A7
  8
DEFPOINTS
  6
CONTINUOUS
 62
     0
 10
634.4667303684714
 20
-40.28472836347762
 30
0.0
  0
ENDBLK
  5
A8
  8
0
 62
    20
  0
BLOCK
  8
0
  2
*D313131
 70
     1
 10
0.0
 20
0.0
 30
0.0
  3
*D313131
  1

  0
LINE
  5
8A
  8
回07-寸法
  6
CONTINUOUS
 62
     5
 10
1100.729913336
 20
131.8617064609604
 30
0.0
 11
1100.729913336
 21
148.7881371079311
 31
0.0
  0
LINE
  5
8B
  8
回07-寸法
  6
CONTINUOUS
 62
     5
 10
1105.503342739276
 20
130.8382531795765
 30
0.0
 11
1105.503342739276
 21
148.7881371079311
 31
0.0
  0
LINE
  5
8C
  8
回07-寸法
  6
CONTINUOUS
 62
     5
 10
1098.729913336
 20
147.7881371079311
 30
0.0
 11
1096.729913336
 21
147.7881371079311
 31
0.0
  0
LINE
  5
8D
  8
回07-寸法
  6
CONTINUOUS
 62
     5
 10
1107.503342739276
 20
147.7881371079311
 30
0.0
 11
1164.350521022292
 21
147.7881371079311
 31
0.0
  0
LINE
  5
8E
  8
回07-寸法
  6
CONTINUOUS
 62
     5
 10
1100.729913336
 20
147.7881371079311
 30
0.0
 11
1105.503342739276
 21
147.7881371079311
 31
0.0
  0
INSERT
  5
8F
  8
回07-寸法
  6
CONTINUOUS
 62
     5
  2
_OPEN
 10
1100.729913336
 20
147.7881371079311
 30
0.0
 41
2.0
 42
2.0
 43
2.0
  0
INSERT
  5
90
  8
回07-寸法
  6
CONTINUOUS
 62
     5
  2
_OPEN
 10
1105.503342739276
 20
147.7881371079311
 30
0.0
 41
2.0
 42
2.0
 43
2.0
 50
180.0
  0
TEXT
  5
91
  8
回07-寸法
  6
CONTINUOUS
 62
     5
 10
1110.622102226207
 20
148.6881371079311
 30
0.0
 40
8.0
  1
4.39 [0.173]
1001
ACAD
1000
MTEXTBEGIN
1070
    73
1070
     1
1070
    44
1040
1.0
1070
    74
1070
     0
1000
MTEXTEND
  0
POINT
  5
92
  8
DEFPOINTS
  6
CONTINUOUS
 62
     0
 10
1100.729913336
 20
131.8617064609604
 30
0.0
  0
POINT
  5
93
  8
DEFPOINTS
  6
CONTINUOUS
 62
     0
 10
1105.503342739276
 20
130.8382531795765
 30
0.0
  0
POINT
  5
94
  8
DEFPOINTS
  6
CONTINUOUS
 62
     0
 10
1105.503342739276
 20
147.7881371079311
 30
0.0
  0
ENDBLK
  5
95
  8
0
 62
     5
  0
BLOCK
  8
0
  2
*D323232
 70
     1
 10
0.0
 20
0.0
 30
0.0
  3
*D323232
  1

  0
LINE
  5
7B
  8
回07-寸法
  6
CONTINUOUS
 62
     5
 10
1091.879913336
 20
277.0652716365224
 30
0.0
 11
1091.879913336
 21
332.3368008132502
 31
0.0
  0
LINE
  5
7C
  8
回07-寸法
  6
CONTINUOUS
 62
     5
 10
1100.729913336
 20
286.1152716365227
 30
0.0
 11
1100.729913336
 21
332.3368008132502
 31
0.0
  0
LINE
  5
7D
  8
回07-寸法
  6
CONTINUOUS
 62
     5
 10
1089.879913336
 20
331.3368008132502
 30
0.0
 11
1087.879913336
 21
331.3368008132502
 31
0.0
  0
LINE
  5
7E
  8
回07-寸法
  6
CONTINUOUS
 62
     5
 10
1102.729913336
 20
331.3368008132502
 30
0.0
 11
1159.329913336
 21
331.3368008132502
 31
0.0
  0
LINE
  5
7F
  8
回07-寸法
  6
CONTINUOUS
 62
     5
 10
1091.879913336
 20
331.3368008132502
 30
0.0
 11
1100.729913336
 21
331.3368008132502
 31
0.0
  0
INSERT
  5
80
  8
回07-寸法
  6
CONTINUOUS
 62
     5
  2
_OPEN
 10
1091.879913336
 20
331.3368008132502
 30
0.0
 41
2.0
 42
2.0
 43
2.0
  0
INSERT
  5
81
  8
回07-寸法
  6
CONTINUOUS
 62
     5
  2
_OPEN
 10
1100.729913336
 20
331.3368008132502
 30
0.0
 41
2.0
 42
2.0
 43
2.0
 50
180.0
  0
TEXT
  5
82
  8
回07-寸法
  6
CONTINUOUS
 62
     5
 10
1104.029913336
 20
332.2368008132502
 30
0.0
 40
8.0
  1
8.85 [0.348]
1001
ACAD
1000
MTEXTBEGIN
1070
    73
1070
     1
1070
    44
1040
1.0
1070
    74
1070
     0
1000
MTEXTEND
  0
POINT
  5
83
  8
DEFPOINTS
  6
CONTINUOUS
 62
     0
 10
1091.879913336
 20
277.0652716365224
 30
0.0
  0
POINT
  5
84
  8
DEFPOINTS
  6
CONTINUOUS
 62
     0
 10
1100.729913336
 20
286.1152716365227
 30
0.0
  0
POINT
  5
85
  8
DEFPOINTS
  6
CONTINUOUS
 62
     0
 10
1100.729913336
 20
331.3368008132502
 30
0.0
  0
ENDBLK
  5
86
  8
0
 62
     5
  0
BLOCK
  8
0
  2
*D333333
 70
     1
 10
0.0
 20
0.0
 30
0.0
  3
*D333333
  1

  0
LINE
  5
67
  8
回07-寸法
  6
CONTINUOUS
 62
     5
 10
708.9799133360002
 20
277.0652716365226
 30
0.0
 11
633.4667303684717
 21
277.0652716365226
 31
0.0
  0
LINE
  5
68
  8
回07-寸法
  6
CONTINUOUS
 62
     5
 10
700.129913336
 20
286.1152716365227
 30
0.0
 11
633.4667303684717
 21
286.1152716365227
 31
0.0
  0
LINE
  5
69
  8
回07-寸法
  6
CONTINUOUS
 62
     5
 10
634.4667303684717
 20
275.0652716365226
 30
0.0
 11
634.4667303684717
 21
273.0652716365226
 31
0.0
  0
LINE
  5
6A
  8
回07-寸法
  6
CONTINUOUS
 62
     5
 10
634.4667303684717
 20
288.1152716365225
 30
0.0
 11
634.4667303684717
 21
344.246642486421
 31
0.0
  0
LINE
  5
6B
  8
回07-寸法
  6
CONTINUOUS
 62
     5
 10
634.4667303684717
 20
277.0652716365226
 30
0.0
 11
634.4667303684717
 21
286.1152716365225
 31
0.0
  0
INSERT
  5
6C
  8
回07-寸法
  6
CONTINUOUS
 62
     5
  2
_OPEN
 10
634.4667303684717
 20
277.0652716365226
 30
0.0
 41
2.0
 42
2.0
 43
2.0
 50
90.0
  0
INSERT
  5
6D
  8
回07-寸法
  6
CONTINUOUS
 62
     5
  2
_OPEN
 10
634.4667303684717
 20
286.1152716365225
 30
0.0
 41
2.0
 42
2.0
 43
2.0
 50
270.0
  0
TEXT
  5
6E
  8
回07-寸法
  6
CONTINUOUS
 62
     5
 10
633.5667303684718
 20
289.5520741132557
 30
0.0
 40
8.0
  1
9.05 [0.356]
 50
90.0
1001
ACAD
1000
MTEXTBEGIN
1070
    73
1070
     1
1070
    44
1040
1.0
1070
    74
1070
     0
1000
MTEXTEND
  0
POINT
  5
6F
  8
DEFPOINTS
  6
CONTINUOUS
 62
     0
 10
708.9799133360002
 20
277.0652716365226
 30
0.0
  0
POINT
  5
71
  8
DEFPOINTS
  6
CONTINUOUS
 62
     0
 10
700.129913336
 20
286.1152716365227
 30
0.0
  0
POINT
  5
72
  8
DEFPOINTS
  6
CONTINUOUS
 62
     0
 10
634.4667303684717
 20
286.1152716365225
 30
0.0
  0
ENDBLK
  5
73
  8
0
 62
     5
  0
BLOCK
  8
回07-寸法
  2
*X343434
 70
     1
 10
0.0
 20
0.0
 30
0.0
  3
*X343434
  1

  0
INSERT
  5
3A5
  8
回07-寸法
  6
CONTINUOUS
 62
     5
  2
_OPEN
 10
1096.994320358706
 20
116.3569648326038
 30
0.0
 41
1.999999999999999
 42
1.999999999999999
 43
2.0
 50
117.461916682383
  0
LINE
  5
3A6
  8
回07-寸法
  6
CONTINUOUS
 62
     5
 10
1097.916638225814
 20
114.5823297286987
 30
0.0
 11
1114.586142810138
 21
82.50847639136486
 31
0.0
  0
LINE
  5
3A7
  8
回07-寸法
  6
CONTINUOUS
 62
     5
 10
1114.586142810138
 20
82.50847639136486
 30
0.0
 11
1181.886142810138
 21
82.50847639136486
 31
0.0
  0
ENDBLK
  5
3A9
  8
回07-寸法
  6
CONTINUOUS
 62
     5
  0
BLOCK
  8
回07-寸法
  2
*X353535
 70
     1
 10
0.0
 20
0.0
 30
0.0
  3
*X353535
  1

  0
LINE
  5
3B6
  8
回08-記事
  6
CONTINUOUS
 62
     8
 10
1173.594617055979
 20
120.4152716365221
 30
0.0
 11
1171.7226233332
 21
122.287265359302
 31
0.0
  0
LINE
  5
3B7
  8
回08-記事
  6
CONTINUOUS
 62
     8
 10
1176.246267485429
 20
120.4152716365221
 30
0.0
 11
1171.818659199955
 21
124.8428799219966
 31
0.0
  0
LINE
  5
3B8
  8
回08-記事
  6
CONTINUOUS
 62
     8
 10
1178.897917914879
 20
120.4152716365221
 30
0.0
 11
1173.897917914878
 21
125.4152716365222
 31
0.0
  0
LINE
  5
3B9
  8
回08-記事
  6
CONTINUOUS
 62
     8
 10
1181.549568344328
 20
120.4152716365222
 30
0.0
 11
1176.549568344328
 21
125.4152716365222
 31
0.0
  0
LINE
  5
3BA
  8
回08-記事
  6
CONTINUOUS
 62
     8
 10
1184.201218773778
 20
120.4152716365222
 30
0.0
 11
1179.201218773778
 21
125.4152716365222
 31
0.0
  0
LINE
  5
3BB
  8
回08-記事
  6
CONTINUOUS
 62
     8
 10
1186.852869203227
 20
120.4152716365222
 30
0.0
 11
1181.852869203227
 21
125.4152716365222
 31
0.0
  0
LINE
  5
3BC
  8
回08-記事
  6
CONTINUOUS
 62
     8
 10
1189.504519632677
 20
120.4152716365222
 30
0.0
 11
1184.504519632677
 21
125.4152716365222
 31
0.0
  0
LINE
  5
3BD
  8
回08-記事
  6
CONTINUOUS
 62
     8
 10
1192.156170062126
 20
120.4152716365222
 30
0.0
 11
1187.156170062126
 21
125.4152716365222
 31
0.0
  0
LINE
  5
3BE
  8
回08-記事
  6
CONTINUOUS
 62
     8
 10
1194.807820491576
 20
120.4152716365221
 30
0.0
 11
1189.807820491576
 21
125.4152716365222
 31
0.0
  0
LINE
  5
3BF
  8
回08-記事
  6
CONTINUOUS
 62
     8
 10
1197.285804424297
 20
120.5889381332501
 30
0.0
 11
1192.459470921025
 21
125.4152716365222
 31
0.0
  0
LINE
  5
3C0
  8
回08-記事
  6
CONTINUOUS
 62
     8
 10
1197.7226233332
 20
122.8037696537974
 30
0.0
 11
1195.111121350475
 21
125.4152716365222
 31
0.0
  0
ENDBLK
  5
3C2
  8
回07-寸法
  6
CONTINUOUS
 62
     5
  0
BLOCK
  8
回07-寸法
  2
*X363636
 70
     1
 10
0.0
 20
0.0
 30
0.0
  3
*X363636
  1

  0
INSERT
  5
3CE
  8
回08-記事
  6
CONTINUOUS
 62
     5
  2
_OPEN
 10
1239.314609095341
 20
-81.6691580146189
 30
0.0
 41
2.0
 42
2.0
 43
2.0
 50
323.2825050897957
  0
LINE
  5
3CF
  8
回08-記事
  6
CONTINUOUS
 62
     5
 10
1237.711422843851
 20
-80.47341814197443
 30
0.0
 11
1228.300172449539
 21
-73.45401703529842
 31
0.0
  0
LINE
  5
3D0
  8
回08-記事
  6
CONTINUOUS
 62
     5
 10
1228.300172449539
 20
-73.45401703529842
 30
0.0
 11
1172.400172449538
 21
-73.45401703529842
 31
0.0
  0
ENDBLK
  5
3D2
  8
回07-寸法
  6
CONTINUOUS
 62
     5
  0
BLOCK
  8
回07-寸法
  2
*X373737
 70
     1
 10
0.0
 20
0.0
 30
0.0
  3
*X373737
  1

  0
INSERT
  5
3D5
  8
回08-記事
  6
CONTINUOUS
 62
     5
  2
_OPEN
 10
705.0132428994012
 20
-28.47854504009161
 30
0.0
 41
2.0
 42
2.0
 43
2.0
 50
87.02570682434078
  0
LINE
  5
3D6
  8
回08-記事
  6
CONTINUOUS
 62
     5
 10
704.9094671051006
 20
-30.47585087158495
 30
0.0
 11
703.5864092686431
 21
-55.93989236580546
 31
0.0
  0
LINE
  5
3D7
  8
回08-記事
  6
CONTINUOUS
 62
     5
 10
703.5864092686431
 20
-55.93989236580546
 30
0.0
 11
679.0864092686431
 21
-55.93989236580546
 31
0.0
  0
ENDBLK
  5
3D9
  8
回07-寸法
  6
CONTINUOUS
 62
     5
  0
BLOCK
  8
回07-寸法
  2
*X383838
 70
     1
 10
0.0
 20
0.0
 30
0.0
  3
*X383838
  1

  0
INSERT
  5
3DC
  8
回08-記事
  6
CONTINUOUS
 62
     5
  2
_OPEN
 10
1239.761247473462
 20
112.3876738672404
 30
0.0
 41
1.999999999999999
 42
1.999999999999999
 43
2.0
 50
66.29588932625542
  0
LINE
  5
3DD
  8
回08-記事
  6
CONTINUOUS
 62
     5
 10
1238.957220534176
 20
110.5564063605932
 30
0.0
 11
1236.963204940136
 21
106.0147973837154
 31
0.0
  0
LINE
  5
3DE
  8
回08-記事
  6
CONTINUOUS
 62
     5
 10
1236.963204940136
 20
106.0147973837154
 30
0.0
 11
1230.863204940136
 21
106.0147973837154
 31
0.0
  0
ENDBLK
  5
3E0
  8
回07-寸法
  6
CONTINUOUS
 62
     5
  0
BLOCK
  8
回07-寸法
  2
*X393939
 70
     1
 10
0.0
 20
0.0
 30
0.0
  3
*X393939
  1

  0
INSERT
  5
3E3
  8
回07-寸法
  6
CONTINUOUS
 62
     5
  2
_OPEN
 10
1318.375576710851
 20
47.6824390951192
 30
0.0
 41
1.999999999999999
 42
1.999999999999999
 43
2.0
 50
230.3045876028064
  0
LINE
  5
3E4
  8
回07-寸法
  6
CONTINUOUS
 62
     5
 10
1319.652989132029
 20
49.22134049099196
 30
0.0
 11
1327.51199584673
 21
58.68910219654253
 31
0.0
  0
LINE
  5
3E5
  8
回07-寸法
  6
CONTINUOUS
 62
     5
 10
1327.51199584673
 20
58.68910219654253
 30
0.0
 11
1379.81199584673
 21
58.68910219654253
 31
0.0
  0
ENDBLK
  5
3E7
  8
回07-寸法
  6
CONTINUOUS
 62
     5
  0
BLOCK
  8
回07-寸法
  2
*X404040
 70
     1
 10
0.0
 20
0.0
 30
0.0
  3
*X404040
  1

  0
INSERT
  5
3F6
  8
回07-寸法
  6
CONTINUOUS
 62
     5
  2
_OPEN
 10
719.2614963118352
 20
-39.40808900751495
 30
0.0
 41
2.0
 42
2.0
 43
2.0
 50
102.8515593140161
  0
LINE
  5
3F7
  8
回07-寸法
  6
CONTINUOUS
 62
     5
 10
719.7063481618222
 20
-41.35798819248908
 30
0.0
 11
721.8696988252842
 21
-50.84050623892856
 31
0.0
  0
LINE
  5
3F8
  8
回07-寸法
  6
CONTINUOUS
 62
     5
 10
721.8696988252842
 20
-50.84050623892856
 30
0.0
 11
757.3696988252842
 21
-50.84050623892856
 31
0.0
  0
ENDBLK
  5
3FA
  8
回07-寸法
  6
CONTINUOUS
 62
     5
  0
BLOCK
  8
回07-寸法
  2
*X414141
 70
     1
 10
0.0
 20
0.0
 30
0.0
  3
*X414141
  1

  0
INSERT
  5
3FD
  8
回07-寸法
  6
CONTINUOUS
 62
     5
  2
_OPEN
 10
1101.295780022957
 20
114.0081789596559
 30
0.0
 41
2.0
 42
2.0
 43
2.0
 50
123.3267150541111
  0
LINE
  5
3FE
  8
回07-寸法
  6
CONTINUOUS
 62
     5
 10
1102.394604956097
 20
112.337076399575
 30
0.0
 11
1114.586142810138
 21
93.79607909895751
 31
0.0
  0
LINE
  5
3FF
  8
回07-寸法
  6
CONTINUOUS
 62
     5
 10
1114.586142810138
 20
93.79607909895751
 30
0.0
 11
1160.9078050213
 21
93.79607909895751
 31
0.0
  0
ENDBLK
  5
401
  8
回07-寸法
  6
CONTINUOUS
 62
     5
  0
BLOCK
  8
回07-寸法
  2
*X424242
 70
     1
 10
0.0
 20
0.0
 30
0.0
  3
*X424242
  1

  0
INSERT
  5
404
  8
回07-寸法
  6
CONTINUOUS
 62
     5
  2
_OPEN
 10
1105.503342739276
 20
114.9922900934684
 30
0.0
 41
2.0
 42
2.0
 43
2.0
 50
129.3007487901471
  0
LINE
  5
405
  8
回07-寸法
  6
CONTINUOUS
 62
     5
 10
1106.770124710831
 20
113.4446262292712
 30
0.0
 11
1114.655014200511
 21
103.8114306120478
 31
0.0
  0
LINE
  5
406
  8
回07-寸法
  6
CONTINUOUS
 62
     5
 10
1114.655014200511
 20
103.8114306120478
 30
0.0
 11
1160.376676411673
 21
103.8114306120478
 31
0.0
  0
ENDBLK
  5
408
  8
回07-寸法
  6
CONTINUOUS
 62
     5
  0
BLOCK
  8
回07-寸法
  2
*X434343
 70
     1
 10
0.0
 20
0.0
 30
0.0
  3
*X434343
  1

  0
LINE
  5
41A
  8
回08-記事
  6
CONTINUOUS
 62
     8
 10
1096.429913336
 20
129.8311695934452
 30
0.0
 11
1096.512812344805
 21
129.9140686022505
 31
0.0
  0
LINE
  5
41B
  8
回08-記事
  6
CONTINUOUS
 62
     8
 10
1096.429913336
 20
125.3410415329107
 30
0.0
 11
1101.00294040534
 21
129.9140686022507
 31
0.0
  0
LINE
  5
41C
  8
回08-記事
  6
CONTINUOUS
 62
     8
 10
1096.429913336
 20
120.8509134723761
 30
0.0
 11
1105.229913336
 21
129.650913472376
 31
0.0
  0
LINE
  5
41D
  8
回08-記事
  6
CONTINUOUS
 62
     8
 10
1096.429913336
 20
116.3607854118416
 30
0.0
 11
1105.229913336
 21
125.1607854118413
 31
0.0
  0
LINE
  5
41E
  8
回08-記事
  6
CONTINUOUS
 62
     8
 10
1100.475730655487
 20
115.9164746707942
 30
0.0
 11
1105.229913336
 21
120.6706573513069
 31
0.0
  0
LINE
  5
41F
  8
回08-記事
  6
CONTINUOUS
 62
     8
 10
1104.965858716022
 20
115.9164746707941
 30
0.0
 11
1105.229913336
 21
116.1805292907721
 31
0.0
  0
ENDBLK
  5
421
  8
回07-寸法
  6
CONTINUOUS
 62
     5
  0
BLOCK
  8
回07-寸法
  2
*X444444
 70
     1
 10
0.0
 20
0.0
 30
0.0
  3
*X444444
  1

  0
TEXT
  5
429
  8
回07-寸法
  6
CONTINUOUS
 62
     5
 10
1132.947490538734
 20
196.7021640349611
 30
0.0
 40
8.0
  1
140
  0
TEXT
  5
42A
  8
回07-寸法
  6
CONTINUOUS
 62
     5
 10
1148.947490538734
 20
196.7021640349611
 30
0.0
 40
5.599999999999997
  1
±1
  0
TEXT
  5
42B
  8
回07-寸法
  6
CONTINUOUS
 62
     5
 10
1155.667490538734
 20
196.7021640349611
 30
0.0
 40
8.0
  1
 [5.512
  0
TEXT
  5
42C
  8
回07-寸法
  6
CONTINUOUS
 62
     5
 10
1186.867490538734
 20
196.7021640349611
 30
0.0
 40
5.599999999999997
  1
±0.039
  0
TEXT
  5
42D
  8
回07-寸法
  6
CONTINUOUS
 62
     5
 10
1208.167708602485
 20
196.7021640349611
 30
0.0
 40
8.0
  1
]
  0
ENDBLK
  5
42F
  8
回07-寸法
  6
CONTINUOUS
 62
     5
  0
BLOCK
  8
回07-寸法
  2
*X454545
 70
     1
 10
0.0
 20
0.0
 30
0.0
  3
*X454545
  1

  0
TEXT
  5
432
  8
回07-寸法
  6
CONTINUOUS
 62
     5
 10
850.8299133359999
 20
342.8846633865734
 30
0.0
 40
8.0
  1
400.6
  0
TEXT
  5
433
  8
回07-寸法
  6
CONTINUOUS
 62
     5
 10
876.4299133359999
 20
342.8846633865734
 30
0.0
 40
5.599999999999997
  1
±0.3
  0
TEXT
  5
434
  8
回07-寸法
  6
CONTINUOUS
 62
     5
 10
889.869913336
 20
342.8846633865734
 30
0.0
 40
8.0
  1
 [15.772
  0
TEXT
  5
435
  8
回07-寸法
  6
CONTINUOUS
 62
     5
 10
926.6699133360001
 20
342.8846633865734
 30
0.0
 40
5.599999999999997
  1
±0.012
  0
TEXT
  5
436
  8
回07-寸法
  6
CONTINUOUS
 62
     5
 10
946.8299133360002
 20
342.8846633865734
 30
0.0
 40
8.0
  1
]
  0
ENDBLK
  5
438
  8
回07-寸法
  6
CONTINUOUS
 62
     5
  0
BLOCK
  8
回07-寸法
  2
*X464646
 70
     1
 10
0.0
 20
0.0
 30
0.0
  3
*X464646
  1

  0
TEXT
  5
43B
  8
回07-寸法
  6
CONTINUOUS
 62
     5
 10
618.6909576449876
 20
73.31527163652251
 30
0.0
 40
8.0
  1
326.4
 50
90.0
  0
TEXT
  5
43C
  8
回07-寸法
  6
CONTINUOUS
 62
     5
 10
618.6909576449876
 20
98.91527163652256
 30
0.0
 40
5.599999999999997
  1
±0.3
 50
90.0
  0
TEXT
  5
43D
  8
回07-寸法
  6
CONTINUOUS
 62
     5
 10
618.6909576449876
 20
112.3552716365226
 30
0.0
 40
8.0
  1
 [12.850
 50
90.0
  0
TEXT
  5
43E
  8
回07-寸法
  6
CONTINUOUS
 62
     5
 10
618.6909576449876
 20
149.1552716365226
 30
0.0
 40
5.599999999999997
  1
±0.012
 50
90.0
  0
TEXT
  5
43F
  8
回07-寸法
  6
CONTINUOUS
 62
     5
 10
618.6909576449876
 20
169.3152716365225
 30
0.0
 40
8.0
  1
]
 50
90.0
  0
ENDBLK
  5
441
  8
回07-寸法
  6
CONTINUOUS
 62
     5
  0
BLOCK
  8
回07-寸法
  2
*X474747
 70
     1
 10
0.0
 20
0.0
 30
0.0
  3
*X474747
  1

  0
TEXT
  5
444
  8
回08-記事
  6
CONTINUOUS
 62
     5
 10
1254.23567565892
 20
-78.3844525668653
 30
0.0
 40
8.0
  1
0.3
 50
90.0
  0
TEXT
  5
445
  8
回08-記事
  6
CONTINUOUS
 62
     5
 10
1254.23567565892
 20
-64.78445256686541
 30
0.0
 40
5.333599999999997
  1
±0.05
 50
90.0
  0
TEXT
  5
446
  8
回08-記事
  6
CONTINUOUS
 62
     5
 10
1254.23567565892
 20
-48.25029256686548
 30
0.0
 40
8.0
  1
[0.012
 50
90.0
  0
TEXT
  5
447
  8
回08-記事
  6
CONTINUOUS
 62
     5
 10
1254.23567565892
 20
-21.85029256686539
 30
0.0
 40
5.4
  1
±0.002
 50
90.0
  0
TEXT
  5
448
  8
回08-記事
  6
CONTINUOUS
 62
     5
 10
1254.23567565892
 20
-1.330292566865409
 30
0.0
 40
8.0
  1
]
 50
90.0
  0
ENDBLK
  5
44A
  8
回07-寸法
  6
CONTINUOUS
 62
     5
  0
BLOCK
  8
回07-寸法
  2
*X484848
 70
     1
 10
0.0
 20
0.0
 30
0.0
  3
*X484848
  1

  0
TEXT
  5
44D
  8
回08-記事
  6
CONTINUOUS
 62
     5
 10
693.0800479559372
 20
-169.432966582613
 30
0.0
 40
8.0
  1
2.1
 50
90.0
  0
TEXT
  5
44E
  8
回08-記事
  6
CONTINUOUS
 62
     5
 10
693.0800479559372
 20
-157.432966582613
 30
0.0
 40
5.333599999999997
  1
±0.2
 50
90.0
  0
TEXT
  5
44F
  8
回08-記事
  6
CONTINUOUS
 62
     5
 10
693.0800479559372
 20
-144.632326582613
 30
0.0
 40
8.0
  1
[0.083±
 50
90.0
  0
TEXT
  5
450
  8
回08-記事
  6
CONTINUOUS
 62
     5
 10
693.0800479559372
 20
-111.032326582613
 30
0.0
 40
5.4
  1
0.008
 50
90.0
  0
TEXT
  5
451
  8
回08-記事
  6
CONTINUOUS
 62
     5
 10
693.0800479559372
 20
-94.29232658261298
 30
0.0
 40
8.0
  1
]
 50
90.0
  0
ENDBLK
  5
453
  8
回07-寸法
  6
CONTINUOUS
 62
     5
  0
BLOCK
  8
回07-寸法
  2
*X494949
 70
     1
 10
0.0
 20
0.0
 30
0.0
  3
*X494949
  1

  0
TEXT
  5
456
  8
回08-記事
  6
CONTINUOUS
 62
     5
 10
1361.110948810173
 20
-65.91607212916961
 30
0.0
 40
8.0
  1
3.75
 50
90.0
  0
TEXT
  5
457
  8
回08-記事
  6
CONTINUOUS
 62
     5
 10
1361.110948810173
 20
-46.71607212916955
 30
0.0
 40
4.799999999999998
  1
±0.1
 50
90.0
  0
TEXT
  5
458
  8
回08-記事
  6
CONTINUOUS
 62
     5
 10
1361.110948810173
 20
-36.15607212916962
 30
0.0
 40
8.0
  1
[0.148
 50
90.0
  0
TEXT
  5
459
  8
回08-記事
  6
CONTINUOUS
 62
     5
 10
1361.110948810173
 20
-8.956072129169568
 30
0.0
 40
5.4
  1
±0.004
 50
90.0
  0
TEXT
  5
45A
  8
回08-記事
  6
CONTINUOUS
 62
     5
 10
1361.110948810173
 20
12.10392787083037
 30
0.0
 40
8.0
  1
]
 50
90.0
  0
ENDBLK
  5
45C
  8
回07-寸法
  6
CONTINUOUS
 62
     5
  0
BLOCK
  8
回07-寸法
  2
*X505050
 70
     1
 10
0.0
 20
0.0
 30
0.0
  3
*X505050
  1

  0
TEXT
  5
45F
  8
回08-記事
  6
CONTINUOUS
 62
     5
 10
1348.545411270226
 20
-64.25448824261571
 30
0.0
 40
8.0
  1
1.25
 50
90.0
  0
TEXT
  5
460
  8
回08-記事
  6
CONTINUOUS
 62
     5
 10
1348.545411270226
 20
-46.6544882426158
 30
0.0
 40
4.799999999999998
  1
±0.2
 50
90.0
  0
TEXT
  5
461
  8
回08-記事
  6
CONTINUOUS
 62
     5
 10
1348.545411270226
 20
-35.13448824261582
 30
0.0
 40
8.0
  1
[0.049
 50
90.0
  0
TEXT
  5
462
  8
回08-記事
  6
CONTINUOUS
 62
     5
 10
1348.545411270226
 20
-6.305605294400037
 30
0.0
 40
5.4
  1
±0.008
 50
90.0
  0
TEXT
  5
463
  8
回08-記事
  6
CONTINUOUS
 62
     5
 10
1348.545411270226
 20
14.21439470559994
 30
0.0
 40
8.0
  1
]
 50
90.0
  0
ENDBLK
  5
465
  8
回07-寸法
  6
CONTINUOUS
 62
     5
  0
BLOCK
  8
回07-寸法
  2
*X515151
 70
     1
 10
0.0
 20
0.0
 30
0.0
  3
*X515151
  1

  0
TEXT
  5
468
  8
回08-記事
  6
CONTINUOUS
 62
     5
 10
1335.423804021015
 20
-82.6249369501245
 30
0.0
 40
8.0
  1
4-0.7
 50
90.0
  0
TEXT
  5
469
  8
回08-記事
  6
CONTINUOUS
 62
     5
 10
1335.423804021015
 20
-57.02493695012456
 30
0.0
 40
4.799999999999998
  1
±0.1
 50
90.0
  0
TEXT
  5
46A
  8
回08-記事
  6
CONTINUOUS
 62
     5
 10
1335.423804021015
 20
-46.46493695012464
 30
0.0
 40
8.0
  1
[4-0.028
 50
90.0
  0
TEXT
  5
46B
  8
回08-記事
  6
CONTINUOUS
 62
     5
 10
1335.423804021015
 20
-6.464936950124638
 30
0.0
 40
5.4
  1
±0.004
 50
90.0
  0
TEXT
  5
46C
  8
回08-記事
  6
CONTINUOUS
 62
     5
 10
1335.423804021015
 20
14.5950630498753
 30
0.0
 40
8.0
  1
]
 50
90.0
  0
ENDBLK
  5
46E
  8
回07-寸法
  6
CONTINUOUS
 62
     5
  0
BLOCK
  8
回07-寸法
  2
*X525252
 70
     1
 10
0.0
 20
0.0
 30
0.0
  3
*X525252
  1

  0
TEXT
  5
471
  8
回07-寸法
  6
CONTINUOUS
 62
     5
 10
1371.972401192564
 20
-67.87842216114495
 30
0.0
 40
8.0
  1
6.25
 50
90.0
  0
TEXT
  5
472
  8
回07-寸法
  6
CONTINUOUS
 62
     5
 10
1371.972401192564
 20
-48.67842216114491
 30
0.0
 40
5.333599999999997
  1
±0.2
 50
90.0
  0
TEXT
  5
473
  8
回07-寸法
  6
CONTINUOUS
 62
     5
 10
1371.972401192564
 20
-35.87778216114498
 30
0.0
 40
8.0
  1
[0.246
 50
90.0
  0
TEXT
  5
474
  8
回07-寸法
  6
CONTINUOUS
 62
     5
 10
1371.972401192564
 20
-7.077782161145021
 30
0.0
 40
5.4
  1
±0.008
 50
90.0
  0
TEXT
  5
475
  8
回07-寸法
  6
CONTINUOUS
 62
     5
 10
1371.972401192564
 20
13.44221783885496
 30
0.0
 40
8.0
  1
]
 50
90.0
  0
ENDBLK
  5
477
  8
回07-寸法
  6
CONTINUOUS
 62
     5
  0
ENDSEC
  0
SECTION
  2
ENTITIES
  0
TEXT
  5
5E
  8
回03-記事
  6
CONTINUOUS
 62
     5
 10
913.2861785654327
 20
-165.6212932474694
 30
0.0
 40
5.759999999999998
  1
without affecting product specification.
  0
TEXT
  5
60
  8
回03-記事
  6
CONTINUOUS
 62
     5
 10
913.2861785654327
 20
-155.5176463904294
 30
0.0
 40
5.759999999999998
  1
Edges and corners of ITO glass may be chamfered 
  0
TEXT
  5
61
  8
回03-記事
  6
CONTINUOUS
 62
     5
 10
913.2861785654327
 20
-145.4139995333895
 30
0.0
 40
5.759999999999998
  1
Unit: mm
  0
TEXT
  5
62
  8
回03-記事
  6
CONTINUOUS
 62
     5
 10
913.2861785654327
 20
-135.31035267635
 30
0.0
 40
5.759999999999998
  1
EXCEPT WHERE INDICATED
  0
TEXT
  5
63
  8
回03-記事
  6
CONTINUOUS
 62
     5
 10
913.2861785654327
 20
-125.2067058193103
 30
0.0
 40
5.759999999999998
  1
TOLERANCE=±0.5mm
  0
DIMENSION
  5
64
  8
回07-寸法
  6
CONTINUOUS
 62
     5
  2
*D333333
 10
634.4667303684717
 20
286.1152716365225
 30
0.0
 11
629.5667303684718
 21
317.1809570614716
 31
0.0
 70
     0
  3
DMC
 13
708.9799133359997
 23
277.0652716365225
 33
0.0
 14
700.129913336
 24
286.1152716365225
 34
0.0
 50
90.0
  0
TEXT
  5
74
  8
回03-寸法
  6
CONTINUOUS
 62
     7
 10
1110.256427156781
 20
343.2039498459336
 30
0.0
 40
6.0
  1
(INSULATION AREA)
  0
DIMENSION
  5
78
  8
回07-寸法
  6
CONTINUOUS
 62
     5
  2
*D323232
 10
1100.729913336
 20
331.3368008132502
 30
0.0
 11
1132.029913336
 21
336.2368008132502
 31
0.0
 70
     0
  3
DMC
 13
1091.879913336
 23
277.0652716365224
 33
0.0
 14
1100.729913336
 24
286.1152716365227
 34
0.0
  0
DIMENSION
  5
87
  8
回07-寸法
  6
CONTINUOUS
 62
     5
  2
*D313131
 10
1105.503342739276
 20
147.7881371079311
 30
0.0
 11
1137.836543700315
 21
147.7881371079311
 31
0.0
 70
   128
  1
4.39 [0.173]
  3
DMC
 13
1100.729913336
 23
131.8617064609604
 33
0.0
 14
1105.503342739276
 24
130.8382531795765
 34
0.0
  0
TEXT
  5
96
  8
回07-寸法
  6
CONTINUOUS
 62
     5
 10
1116.186142810138
 20
83.00847639136486
 30
0.0
 40
6.0
  1
PROTECTION TAPE
1001
ACAD
1000
MTEXTBEGIN
1070
    73
1070
     1
1070
    44
1040
1.0
1070
    74
1070
     0
1000
MTEXTEND
  0
INSERT
  5
97
  8
回07-寸法
  6
CONTINUOUS
 62
     7
 66
     1
  2
*X343434
 10
0.0
 20
0.0
 30
0.0
  0
SEQEND
  5
3AA
  8
回07-寸法
  6
CONTINUOUS
 62
     5
  0
LINE
  5
98
  8
回07-寸法
  6
CONTINUOUS
 62
     5
 10
1110.841175904778
 20
158.5500739205849
 30
0.0
 11
1153.907294496761
 21
158.5500739205849
 31
0.0
  0
TEXT
  5
99
  8
回03-寸法
  6
CONTINUOUS
 62
     7
 10
623.7235125458877
 20
287.8965890061859
 30
0.0
 40
6.0
  1
(INSULATION AREA)
 50
90.0
  0
DIMENSION
  5
9A
  8
回07-寸法
  6
CONTINUOUS
 62
    20
  2
*D303030
 10
634.4667303684714
 20
-40.28472836347762
 30
0.0
 11
629.5667303684711
 21
-71.35041378842704
 31
0.0
 70
     0
  3
DMC
 13
708.9799133359997
 23
-31.2347283634776
 33
0.0
 14
700.129913336
 24
-40.28472836347757
 34
0.0
 50
90.0
1001
ACAD
1000
DSTYLE
1002
{
1070
   140
1040
8.0
1002
}
  0
DIMENSION
  5
A9
  8
回07-寸法
  6
CONTINUOUS
 62
    20
  2
*D292929
 10
634.4667303684715
 20
277.0652716365225
 30
0.0
 11
629.5667303684715
 21
122.9152716365222
 31
0.0
 70
     0
  3
DMC
 13
708.9799133359997
 23
-31.2347283634776
 33
0.0
 14
708.9799133359997
 24
277.0652716365224
 34
0.0
 50
90.0
1001
ACAD
1000
DSTYLE
1002
{
1070
   140
1040
8.0
1002
}
  0
TEXT
  5
B6
  8
回03-寸法
  6
CONTINUOUS
 62
     7
 10
640.2505514256254
 20
343.2039498459336
 30
0.0
 40
6.0
  1
(INSULATION AREA)
  0
DIMENSION
  5
B7
  8
回07-寸法
  6
CONTINUOUS
 62
    20
  2
*D282828
 10
700.129913336
 20
331.3368008132502
 30
0.0
 11
668.8299133360001
 21
336.2368008132502
 31
0.0
 70
     0
  3
DMC
 13
708.9799133359997
 23
277.0652716365224
 33
0.0
 14
700.129913336
 24
286.1152716365225
 34
0.0
1001
ACAD
1000
DSTYLE
1002
{
1070
   140
1040
8.0
1002
}
  0
DIMENSION
  5
C6
  8
回07-寸法
  6
CONTINUOUS
 62
    20
  2
*D272727
 10
1091.879913336
 20
331.3368008132502
 30
0.0
 11
900.4299133359999
 21
336.2368008132502
 31
0.0
 70
     0
  1
<>
  3
DMC
 13
708.9799133359997
 23
277.0652716365224
 33
0.0
 14
1091.879913336
 24
277.0652716365224
 34
0.0
1001
ACAD
1000
DSTYLE
1002
{
1070
   140
1040
8.0
1002
}
  0
POLYLINE
  5
D3
  8
回08-記事
  6
DASHED2
 62
     7
 66
     1
 10
0.0
 20
0.0
 30
0.0
 70
     1
  0
VERTEX
  5
777
  8
回08-記事
  6
DASHED2
 62
     7
 10
708.9799133359997
 20
277.0652716365224
 30
0.0
  0
VERTEX
  5
779
  8
回08-記事
  6
DASHED2
 62
     7
 10
1091.879913336
 20
277.0652716365224
 30
0.0
  0
VERTEX
  5
77A
  8
回08-記事
  6
DASHED2
 62
     7
 10
1091.879913336
 20
-31.2347283634776
 30
0.0
  0
VERTEX
  5
77B
  8
回08-記事
  6
DASHED2
 62
     7
 10
708.9799133359997
 20
-31.2347283634776
 30
0.0
  0
SEQEND
  5
778
  8
回07-寸法
  6
CONTINUOUS
 62
     5
  0
TEXT
  5
D8
  8
回07-ﾃｰﾙ
  6
CONTINUOUS
 62
     5
 10
1181.037869255139
 20
106.0598286261484
 30
0.0
 40
6.0
  1
LOT LABEL
  0
LINE
  5
DC
  8
回07-ﾃｰﾙ
  6
CONTINUOUS
 62
     5
 10
1182.12616867951
 20
121.3162734161581
 30
0.0
 11
1187.117253245052
 21
114.0111045505616
 31
0.0
  0
TEXT
  5
DD
  8
回08-記事
  6
CONTINUOUS
 62
     5
 10
1165.26000494807
 20
-99.17350399999214
 30
0.0
 40
6.0
  1
LOT LABEL
  0
LINE
  5
DE
  8
回08-記事
  6
CONTINUOUS
 62
     5
 10
1186.942737762993
 20
-84.47659694622577
 30
0.0
 11
1180.205495382334
 21
-92.32012870533891
 31
0.0
  0
POLYLINE
  5
DF
  8
回07-ﾃｰﾙ
  6
CONTINUOUS
 62
     7
 66
     1
 10
0.0
 20
0.0
 30
0.0
 70
     1
  0
VERTEX
  5
77C
  8
回07-ﾃｰﾙ
  6
CONTINUOUS
 62
     7
 10
1171.7226233332
 20
-83.89075177946322
 30
0.0
  0
VERTEX
  5
77E
  8
回07-ﾃｰﾙ
  6
CONTINUOUS
 62
     7
 10
1197.725733435212
 20
-83.89075177946322
 30
0.0
  0
VERTEX
  5
77F
  8
回07-ﾃｰﾙ
  6
CONTINUOUS
 62
     7
 10
1197.725733435212
 20
-84.88350083546743
 30
0.0
  0
VERTEX
  5
780
  8
回07-ﾃｰﾙ
  6
CONTINUOUS
 62
     7
 10
1171.7226233332
 20
-84.88350083546743
 30
0.0
  0
SEQEND
  5
77D
  8
回07-寸法
  6
CONTINUOUS
 62
     5
  0
INSERT
  5
E0
  8
回08-記事
  6
CONTINUOUS
 62
     8
 66
     1
  2
*X353535
 10
0.0
 20
0.0
 30
0.0
1001
ACAD
1000
HATCH
1002
{
1070
    19
1000
ANSI31
1040
15.0
1040
1.570796326794896
1000
ASC_BOUNDS
1070
     1
1070
     2
1070
     1
1005
E1
1000
ASC_SEEDPOINT
1011
1374.009297222369
1021
102.9644711021521
1031
0.0
1000
R14_HATCH_DATA
1000
E0
1011
1.0
1021
0.0
1031
0.0
1011
0.0
1021
1.0
1031
0.0
1011
0.0
1021
0.0
1031
1.0
1040
0.0
1010
0.0
1020
0.0
1030
1.0
1000
ANSI31
1070
     0
1070
     1
1071
        1
1071
        1
1071
        8
1070
     1
1040
1171.7226233332
1040
121.4152716365222
1040
1171.7226233332
1040
124.4152716365222
1070
     2
1040
1172.7226233332
1040
124.4152716365222
1040
1.0
1040
3.141592653589792
1040
4.712388980384688
1070
     0
1070
     1
1040
1172.7226233332
1040
125.4152716365222
1040
1196.7226233332
1040
125.4152716365222
1070
     2
1040
1196.7226233332
1040
124.4152716365222
1040
1.0
1040
4.712388980384688
1040
6.283185307179584
1070
     0
1070
     1
1040
1197.7226233332
1040
124.4152716365222
1040
1197.7226233332
1040
121.4152716365222
1070
     2
1040
1196.7226233332
1040
121.4152716365222
1040
1.0
1040
6.283185307179584
1040
7.853981633974482
1070
     0
1070
     1
1040
1196.7226233332
1040
120.4152716365222
1040
1172.7226233332
1040
120.4152716365222
1070
     2
1040
1172.7226233332
1040
121.4152716365222
1040
1.0
1040
1.570796326794896
1040
3.141592653589792
1070
     0
1071
        1
1005
E1
1070
     0
1070
     1
1040
1.570796326794896
1040
15.0
1070
     0
1070
     1
1040
2.356194490192344
1040
1374.009297222369
1040
102.9644711021521
1040
-1.325825214724774
1040
-1.325825214724774
1070
     0
1071
        1
1040
1374.009297222369
1040
102.9644711021521
1040
0.0
1002
}
  0
SEQEND
  5
3C3
  8
回07-寸法
  6
CONTINUOUS
 62
     5
  0
POLYLINE
  5
E1
  8
回08-記事
  6
DASHED2
 62
     8
 66
     1
 10
0.0
 20
0.0
 30
0.0
 70
     1
1001
ACAD
1000
ASC_BOUNDS
1002
{
1070
    19
1005
E0
1002
}
  0
VERTEX
  5
781
  8
回08-記事
  6
DASHED2
 62
     8
 10
1171.7226233332
 20
121.4152716365222
 30
0.0
  0
VERTEX
  5
783
  8
回08-記事
  6
DASHED2
 62
     8
 10
1171.7226233332
 20
124.4152716365222
 30
0.0
 42
-0.4142135623730951
  0
VERTEX
  5
784
  8
回08-記事
  6
DASHED2
 62
     8
 10
1172.7226233332
 20
125.4152716365222
 30
0.0
  0
VERTEX
  5
785
  8
回08-記事
  6
DASHED2
 62
     8
 10
1196.7226233332
 20
125.4152716365222
 30
0.0
 42
-0.4142135623730951
  0
VERTEX
  5
786
  8
回08-記事
  6
DASHED2
 62
     8
 10
1197.7226233332
 20
124.4152716365222
 30
0.0
  0
VERTEX
  5
787
  8
回08-記事
  6
DASHED2
 62
     8
 10
1197.7226233332
 20
121.4152716365222
 30
0.0
 42
-0.4142135623730951
  0
VERTEX
  5
788
  8
回08-記事
  6
DASHED2
 62
     8
 10
1196.7226233332
 20
120.4152716365222
 30
0.0
  0
VERTEX
  5
789
  8
回08-記事
  6
DASHED2
 62
     8
 10
1172.7226233332
 20
120.4152716365222
 30
0.0
 42
-0.4142135623730946
  0
SEQEND
  5
782
  8
回07-寸法
  6
CONTINUOUS
 62
     5
  0
LINE
  5
E2
  8
回08-記事
 62
     5
 10
1323.079714615346
 20
25.80658791759288
 30
0.0
 11
1291.617210623164
 21
25.80658791759288
 31
0.0
  0
LINE
  5
E3
  8
回08-記事
 62
     5
 10
1323.079714615346
 20
31.43158791759425
 30
0.0
 11
1291.617210623164
 21
31.43158791759425
 31
0.0
  0
LINE
  5
E4
  8
回08-記事
 62
     5
 10
1323.079714615346
 20
42.68158791759288
 30
0.0
 11
1291.617210623164
 21
42.68158791759288
 31
0.0
  0
DIMENSION
  5
E5
  8
回03-寸法
  6
CONTINUOUS
 62
     5
  2
*D262626
 10
1266.867213516833
 20
122.9152716365223
 30
0.0
 11
1261.967213516832
 21
204.5152716365221
 31
0.0
 70
     0
  3
DMC
 13
1100.729913336
 23
286.1152716365225
 33
0.0
 14
1240.729913336
 24
122.9152716365222
 34
0.0
 50
90.0
1001
ACAD
1000
DSTYLE
1002
{
1070
   140
1040
8.0
1002
}
  0
LINE
  5
F2
  8
回03-寸法
  6
CENTER2
 62
     5
 10
1138.646710922041
 20
122.9152716365222
 30
0.0
 11
1252.707993305133
 21
122.9152716365222
 31
0.0
  0
DIMENSION
  5
F4
  8
回03-寸法
  6
CONTINUOUS
 62
     5
  2
*D252525
 10
700.129913336
 20
295.2167979633762
 30
0.0
 11
806.5641856849977
 21
295.2167979633762
 31
0.0
 70
   128
  1
<> (ACTIVE AREA CENTER)
  3
DMC
 13
900.4299133359999
 23
286.1152716365225
 33
0.0
 14
700.129913336
 24
286.1152716365225
 34
0.0
  0
DIMENSION
  5
101
  8
回03-寸法
  6
CONTINUOUS
 62
     5
  2
*D242424
 10
692.2209358088771
 20
122.9152716365225
 30
0.0
 11
685.4106592349618
 21
68.45735989519766
 31
0.0
 70
   128
  1
<> (ACTIVE AREA CENTER)
  3
DMC
 13
700.129913336
 23
-40.28472836347757
 33
0.0
 14
700.129913336
 24
122.9152716365224
 34
0.0
 50
90.0
1001
ACAD
1000
DSTYLE
1002
{
1070
   279
1070
     2
1002
}
  0
DIMENSION
  5
10E
  8
回03-寸法
  6
CONTINUOUS
 62
     5
  2
*D232323
 10
664.2002574417542
 20
-40.28472836347762
 30
0.0
 11
659.2983240056752
 21
-72.79870568545489
 31
0.0
 70
     0
  3
DMC
 13
711.7699133360002
 23
-28.11472836347753
 33
0.0
 14
700.129913336
 24
-40.28472836347757
 34
0.0
 50
90.0
1001
ACAD
1000
DSTYLE
1002
{
1070
   140
1040
8.0
1002
}
  0
DIMENSION
  5
11D
  8
回03-寸法
  6
CONTINUOUS
 62
     5
  2
*D222222
 10
650.1570978950617
 20
-40.28472836347762
 30
0.0
 11
645.2570978950616
 21
-71.35041378842704
 31
0.0
 70
     0
  3
DMC
 13
709.4799133359997
 23
-30.43472836347746
 33
0.0
 14
700.129913336
 24
-40.28472836347757
 34
0.0
 50
90.0
1001
ACAD
1000
DSTYLE
1002
{
1070
   140
1040
8.0
1002
}
  0
DIMENSION
  5
12C
  8
回03-寸法
  6
CONTINUOUS
 62
     5
  2
*D212121
 10
700.129913336
 20
307.8180895851684
 30
0.0
 11
667.2299133360001
 21
312.7180895851684
 31
0.0
 70
     0
  3
DMC
 13
711.7699133360002
 23
273.9452716365224
 33
0.0
 14
700.129913336
 24
286.1152716365225
 34
0.0
1001
ACAD
1000
DSTYLE
1002
{
1070
   140
1040
8.0
1002
}
  0
DIMENSION
  5
13B
  8
回03-寸法
  6
CONTINUOUS
 62
     5
  2
*D202020
 10
709.4799133359997
 20
319.4340259694009
 30
0.0
 11
669.0642279110506
 21
319.4340259694009
 31
0.0
 70
   128
  3
DMC
 13
700.129913336
 23
286.1152716365225
 33
0.0
 14
709.4799133359997
 24
276.2652716365226
 34
0.0
1001
ACAD
1000
DSTYLE
1002
{
1070
   140
1040
8.0
1002
}
  0
TEXT
  5
14A
  8
回90-和A1
 10
1311.637841719273
 20
-150.0602531888672
 30
0.0
 40
6.0
  1
Sep/25/2023
  0
TEXT
  5
14E
  8
回90-和A1
 10
1329.652964720719
 20
-138.0890684272277
 30
0.0
 40
4.0
  1
DATE
  0
LINE
  5
14F
  8
回90-和A1
  6
CONTINUOUS
 62
     7
 10
1181.95496864198
 20
-132.1368149110742
 30
0.0
 11
1391.95496864198
 21
-132.1368149110742
 31
0.0
  0
TEXT
  5
150
  8
回90-和A1
 10
1312.551290777164
 20
-169.0861222791646
 30
0.0
 40
7.0
  1
DMC Co., Ltd.
  0
LINE
  5
151
  8
回90-和A1
 10
1279.45496864198
 20
-132.1368149110742
 30
0.0
 11
1279.45496864198
 21
-177.1368149110742
 31
0.0
  0
TEXT
  5
152
  8
回90-和A1
 10
1219.343808963506
 20
-161.0213853767112
 30
0.0
 40
4.0
  1
TYPE
  0
TEXT
  5
153
  8
回90-和A1
 10
1198.291665643995
 20
-168.058015329152
 30
0.0
 40
4.0
  1
STANDARD TOUCHSCREEN
  0
LINE
  5
154
  8
回90-和A1
 10
1181.95496864198
 20
-132.1368149110742
 30
0.0
 11
1181.95496864198
 21
-177.1368149110742
 31
0.0
  0
TEXT
  5
155
  8
回90-和A1
 10
1200.572655541535
 20
-176.0696699437422
 30
0.0
 40
4.0
  1
DIMENSIONAL DRAWING
  0
LINE
  5
156
  8
回90-和A1
 10
1186.45496864198
 20
-169.6368149110741
 30
0.0
 11
1274.95496864198
 21
-169.6368149110741
 31
0.0
  0
TEXT
  5
157
  8
回90-和A1
 10
1217.013738264846
 20
-138.3429124671458
 30
0.0
 40
5.0
  1
PART No.
  0
TEXT
  5
158
  8
回90-和A1
 10
1199.607687660042
 20
-151.0217046458708
 30
0.0
 40
7.0
  1
AST-190A140A
  0
LINE
  5
159
  8
回90-和A1
 10
1181.95496864198
 20
-139.6368149110742
 30
0.0
 11
1391.95496864198
 21
-139.6368149110742
 31
0.0
  0
LINE
  5
15A
  8
回90-和A1
 10
1181.95496864198
 20
-162.1368149110741
 30
0.0
 11
1279.45496864198
 21
-162.1368149110741
 31
0.0
  0
LINE
  5
15B
  8
回90-和A1
 10
1181.95496864198
 20
-154.6368149110741
 30
0.0
 11
1391.95496864198
 21
-154.6368149110741
 31
0.0
  0
TEXT
  5
15C
  8
回08-記事
  6
CONTINUOUS
 62
     5
 10
1171.500172449539
 20
-72.95401703529842
 30
0.0
 40
6.0
  1
TRACE EXPOSE
1001
ACAD
1000
MTEXTBEGIN
1070
    73
1070
     1
1070
    44
1040
1.0
1070
    74
1070
     0
1000
MTEXTEND
  0
INSERT
  5
15D
  8
回08-記事
  6
CONTINUOUS
 62
     7
 66
     1
  2
*X363636
 10
0.0
 20
0.0
 30
0.0
  0
SEQEND
  5
3D3
  8
回07-寸法
  6
CONTINUOUS
 62
     5
  0
TEXT
  5
15E
  8
回08-記事
  6
CONTINUOUS
 62
     5
 10
678.4864092686431
 20
-55.43989236580546
 30
0.0
 40
4.0
  1
AIR VENT
1001
ACAD
1000
MTEXTBEGIN
1070
    73
1070
     1
1070
    44
1040
1.0
1070
    74
1070
     0
1000
MTEXTEND
  0
INSERT
  5
15F
  8
回08-記事
  6
CONTINUOUS
 62
     7
 66
     1
  2
*X373737
 10
0.0
 20
0.0
 30
0.0
  0
SEQEND
  5
3DA
  8
回07-寸法
  6
CONTINUOUS
 62
     5
  0
LINE
  5
160
  8
回08-記事
  6
CONTINUOUS
 62
     5
 10
1371.741563468172
 20
203.012911672613
 30
0.0
 11
1281.361054066967
 21
203.012911672613
 31
0.0
  0
LINE
  5
161
  8
回08-記事
  6
CONTINUOUS
 62
     5
 10
1281.361054066967
 20
159.1379116726135
 30
0.0
 11
1281.361054066967
 21
203.012911672613
 31
0.0
  0
TEXT
  5
162
  8
回08-記事
  6
CONTINUOUS
 62
     5
 10
1375.743878050703
 20
156.1017898245544
 30
0.0
 40
7.799999999999998
  1
3
  0
TEXT
  5
163
  8
回08-記事
  6
CONTINUOUS
 62
     5
 10
1375.134333395553
 20
128.7535215965412
 30
0.0
 40
7.799999999999998
  1
4
  0
LINE
  5
164
  8
回08-記事
  6
CONTINUOUS
 62
     5
 10
1332.839063468173
 20
163.6229116726136
 30
0.0
 11
1336.349063468173
 21
156.6029116726132
 31
0.0
  0
LINE
  5
165
  8
回08-記事
  6
CONTINUOUS
 62
     5
 10
1336.349063468173
 20
156.6029116726132
 30
0.0
 11
1338.591563468172
 21
161.0879116726138
 31
0.0
  0
LINE
  5
166
  8
回08-記事
  6
CONTINUOUS
 62
     5
 10
1325.819063468172
 20
163.6229116726136
 30
0.0
 11
1329.329063468172
 21
156.6029116726132
 31
0.0
  0
LINE
  5
167
  8
回08-記事
  6
CONTINUOUS
 62
     5
 10
1322.309063468172
 20
156.6029116726132
 30
0.0
 11
1325.819063468172
 21
163.6229116726136
 31
0.0
  0
LINE
  5
168
  8
回08-記事
  6
CONTINUOUS
 62
     5
 10
1329.329063468172
 20
156.6029116726132
 30
0.0
 11
1332.839063468173
 21
163.6229116726136
 31
0.0
  0
LINE
  5
169
  8
回08-記事
  6
CONTINUOUS
 62
     5
 10
1311.779063468172
 20
163.6229116726136
 30
0.0
 11
1315.289063468172
 21
156.6029116726132
 31
0.0
  0
LINE
  5
16A
  8
回08-記事
  6
CONTINUOUS
 62
     5
 10
1311.194063468172
 20
156.8954116726136
 30
0.0
 11
1318.214063468173
 21
160.4054116726139
 31
0.0
  0
LINE
  5
16B
  8
回08-記事
  6
CONTINUOUS
 62
     5
 10
1311.194063468172
 20
156.8954116726136
 30
0.0
 11
1318.214063468173
 21
153.3854116726144
 31
0.0
  0
LINE
  5
16C
  8
回08-記事
  6
CONTINUOUS
 62
     5
 10
1311.194063468172
 20
149.8754116726131
 30
0.0
 11
1318.214063468173
 21
153.3854116726144
 31
0.0
  0
LINE
  5
16D
  8
回08-記事
  6
CONTINUOUS
 62
     5
 10
1311.194063468172
 20
142.8554116726137
 30
0.0
 11
1318.214063468173
 21
146.3654116726139
 31
0.0
  0
LINE
  5
16E
  8
回08-記事
  6
CONTINUOUS
 62
     5
 10
1311.194063468172
 20
149.8754116726131
 30
0.0
 11
1318.214063468173
 21
146.3654116726139
 31
0.0
  0
LINE
  5
16F
  8
回08-記事
  6
CONTINUOUS
 62
     5
 10
1311.194063468172
 20
163.9154116726132
 30
0.0
 11
1318.214063468173
 21
167.4254116726134
 31
0.0
  0
LINE
  5
170
  8
回08-記事
  6
CONTINUOUS
 62
     5
 10
1311.194063468172
 20
170.9354116726135
 30
0.0
 11
1318.214063468173
 21
174.4454116726128
 31
0.0
  0
LINE
  5
171
  8
回08-記事
  6
CONTINUOUS
 62
     5
 10
1311.194063468172
 20
170.9354116726135
 30
0.0
 11
1318.214063468173
 21
167.4254116726134
 31
0.0
  0
LINE
  5
172
  8
回08-記事
  6
CONTINUOUS
 62
     5
 10
1311.194063468172
 20
163.9154116726132
 30
0.0
 11
1318.214063468173
 21
160.4054116726139
 31
0.0
  0
LINE
  5
173
  8
回08-記事
  6
CONTINUOUS
 62
     5
 10
1304.759063468172
 20
163.6229116726136
 30
0.0
 11
1308.269063468172
 21
156.6029116726132
 31
0.0
  0
LINE
  5
174
  8
回08-記事
  6
CONTINUOUS
 62
     5
 10
1301.249063468172
 20
156.6029116726132
 30
0.0
 11
1304.759063468172
 21
163.6229116726136
 31
0.0
  0
LINE
  5
175
  8
回08-記事
  6
CONTINUOUS
 62
     5
 10
1295.496563468172
 20
159.1379116726135
 30
0.0
 11
1297.739063468172
 21
163.6229116726136
 31
0.0
  0
LINE
  5
176
  8
回08-記事
  6
CONTINUOUS
 62
     5
 10
1297.739063468172
 20
163.6229116726136
 30
0.0
 11
1301.249063468172
 21
156.6029116726132
 31
0.0
  0
LINE
  5
177
  8
回08-記事
  6
CONTINUOUS
 62
     5
 10
1308.269063468172
 20
156.6029116726132
 30
0.0
 11
1311.779063468172
 21
163.6229116726136
 31
0.0
  0
LINE
  5
178
  8
回08-記事
  6
CONTINUOUS
 62
     5
 10
1314.704063468173
 20
176.200411672613
 30
0.0
 11
1314.704063468173
 21
182.0504116726133
 31
0.0
  0
LINE
  5
179
  8
回08-記事
  6
CONTINUOUS
 62
     5
 10
1315.289063468172
 20
156.6029116726132
 30
0.0
 11
1318.799063468172
 21
163.6229116726136
 31
0.0
  0
LINE
  5
17A
  8
回08-記事
  6
CONTINUOUS
 62
     5
 10
1314.704063468173
 20
176.200411672613
 30
0.0
 11
1318.214063468173
 21
174.4454116726128
 31
0.0
  0
TEXT
  5
17B
  8
回08-記事
  6
CONTINUOUS
 62
     5
 10
1316.619388340833
 20
183.3359791057128
 30
0.0
 40
6.824999999999997
  1
YU
  0
LINE
  5
17C
  8
回08-記事
  6
CONTINUOUS
 62
     5
 10
1318.799063468172
 20
163.6229116726136
 30
0.0
 11
1322.309063468172
 21
156.6029116726132
 31
0.0
  0
LINE
  5
17D
  8
回08-記事
  6
CONTINUOUS
 62
     5
 10
1314.704063468173
 20
134.2754116726138
 30
0.0
 11
1314.704063468173
 21
141.1004116726136
 31
0.0
  0
LINE
  5
17E
  8
回08-記事
  6
CONTINUOUS
 62
     5
 10
1311.194063468172
 20
142.8554116726137
 30
0.0
 11
1314.704063468173
 21
141.1004116726136
 31
0.0
  0
TEXT
  5
17F
  8
回08-記事
  6
CONTINUOUS
 62
     5
 10
1296.775153261497
 20
137.0555089959367
 30
0.0
 40
6.824999999999997
  1
YD
  0
TEXT
  5
180
  8
回08-記事
  6
CONTINUOUS
 62
     5
 10
1285.397178268239
 20
165.4061421043085
 30
0.0
 40
6.824999999999997
  1
XL
  0
TEXT
  5
181
  8
回08-記事
  6
CONTINUOUS
 62
     5
 10
1375.336268908195
 20
198.0266667025436
 30
0.0
 40
7.799999999999998
  1
1
  0
TEXT
  5
182
  8
回08-記事
  6
CONTINUOUS
 62
     5
 10
1375.842214145431
 20
177.7194666412154
 30
0.0
 40
7.799999999999998
  1
2
  0
LINE
  5
183
  8
回08-記事
  6
CONTINUOUS
 62
     5
 10
1371.741563468172
 20
182.0504116726133
 30
0.0
 11
1314.704063468173
 21
182.0504116726133
 31
0.0
  0
LINE
  5
184
  8
回08-記事
  6
CONTINUOUS
 62
     5
 10
1281.361054066967
 20
159.1379116726135
 30
0.0
 11
1295.496563468172
 21
159.1379116726135
 31
0.0
  0
LINE
  5
185
  8
回08-記事
  6
CONTINUOUS
 62
     5
 10
1314.704063468173
 20
134.2754116726138
 30
0.0
 11
1371.741563468172
 21
134.2754116726138
 31
0.0
  0
LINE
  5
186
  8
回08-記事
  6
CONTINUOUS
 62
     5
 10
1338.591563468172
 20
161.0879116726138
 30
0.0
 11
1371.741563468172
 21
161.0879116726138
 31
0.0
  0
TEXT
  5
187
  8
回08-記事
  6
CONTINUOUS
 62
     5
 10
1338.96233619105
 20
151.1339053260109
 30
0.0
 40
6.824999999999997
  1
XR
  0
TEXT
  5
188
  8
回08-記事
  6
CONTINUOUS
 62
     5
 10
1280.909945191602
 20
105.4062343947038
 30
0.0
 40
10.0
  1
PIN ASSIGNMENT
  0
TEXT
  5
189
  8
回08-記事
  6
CONTINUOUS
 62
     5
 10
1229.963204940136
 20
106.5147973837154
 30
0.0
 40
6.0
  1
A
1001
ACAD
1000
MTEXTBEGIN
1070
    73
1070
     1
1070
    44
1040
1.0
1070
    74
1070
     0
1000
MTEXTEND
  0
INSERT
  5
18A
  8
回08-記事
  6
CONTINUOUS
 62
     7
 66
     1
  2
*X383838
 10
0.0
 20
0.0
 30
0.0
  0
SEQEND
  5
3E1
  8
回07-寸法
  6
CONTINUOUS
 62
     5
  0
TEXT
  5
18B
  8
回07-寸法
  6
CONTINUOUS
 62
     5
 10
1329.111995846731
 20
59.48910219654253
 30
0.0
 40
6.0
  1
2-R0.5[R0.020]
1001
ACAD
1000
MTEXTBEGIN
1070
    73
1070
     1
1070
    44
1040
1.0
1070
    74
1070
     0
1000
MTEXTEND
  0
INSERT
  5
18C
  8
回07-寸法
  6
CONTINUOUS
 62
     7
 66
     1
  2
*X393939
 10
0.0
 20
0.0
 30
0.0
  0
SEQEND
  5
3E8
  8
回07-寸法
  6
CONTINUOUS
 62
     5
  0
DIMENSION
  5
18D
  8
回07-寸法
  6
CONTINUOUS
 62
     5
  2
*D191919
 10
1372.872401192564
 20
48.30658791759564
 30
0.0
 11
1372.872401192563
 21
-25.61810216114493
 31
0.0
 70
   128
  1
6.25{\H0.6667x;±0.2}[0.246{\H0.675x;±0.008}]
  3
DMC
 13
1316.840182166877
 23
20.18158791759561
 33
0.0
 14
1316.840182166877
 24
48.3065879175956
 34
0.0
 50
90.0
  0
ARC
  5
19C
  8
回08-記事
  6
CONTINUOUS
 62
     7
 10
1316.840182166877
 20
22.43158791759561
 30
0.0
 40
2.25
 50
270.0
 51
0.0
  0
LINE
  5
19D
  8
回08-記事
  6
CONTINUOUS
 62
     7
 10
1316.840182166877
 20
20.18158791759561
 30
0.0
 11
1276.939220726301
 21
20.18158791759561
 31
0.0
  0
ARC
  5
19E
  8
回08-記事
  6
CONTINUOUS
 62
     7
 10
1316.840182166877
 20
46.05658791759561
 30
0.0
 40
2.25
 50
0.0
 51
90.0
  0
LINE
  5
19F
  8
回08-記事
  6
CONTINUOUS
 62
     7
 10
1316.840182166877
 20
48.3065879175956
 30
0.0
 11
1276.939220726301
 21
48.3065879175956
 31
0.0
  0
TEXT
  5
1A0
  8
回08-記事
  6
CONTINUOUS
 62
     5
 10
1276.702443646883
 20
-3.97363791759562
 30
0.0
 40
6.0
  1
SECTION A
  0
LINE
  5
1A1
  8
回08-記事
  6
CONTINUOUS
 62
     7
 10
1296.590182166877
 20
20.18158791759561
 30
0.0
 11
1296.590182166877
 21
48.3065879175956
 31
0.0
  0
LINE
  5
1A2
  8
回08-記事
  6
CONTINUOUS
 62
     7
 10
1319.090182166877
 20
22.43158791759561
 30
0.0
 11
1319.090182166877
 21
46.05658791759561
 31
0.0
  0
POLYLINE
  5
1A3
  8
回08-記事
  6
CONTINUOUS
 62
     8
 66
     1
 10
0.0
 20
0.0
 30
0.0
 40
3.6
 41
3.6
  0
VERTEX
  5
78A
  8
回08-記事
  6
CONTINUOUS
 62
     8
 10
1319.090182166877
 20
37.05658791759289
 30
0.0
  0
VERTEX
  5
78C
  8
回08-記事
  6
CONTINUOUS
 62
     8
 10
1296.590182166877
 20
37.05658791759289
 30
0.0
  0
SEQEND
  5
78B
  8
回07-寸法
  6
CONTINUOUS
 62
     5
  0
POLYLINE
  5
1A4
  8
回08-記事
  6
CONTINUOUS
 62
     8
 66
     1
 10
0.0
 20
0.0
 30
0.0
 40
3.6
 41
3.6
  0
VERTEX
  5
78D
  8
回08-記事
  6
CONTINUOUS
 62
     8
 10
1319.090182166877
 20
31.43158791759425
 30
0.0
  0
VERTEX
  5
78F
  8
回08-記事
  6
CONTINUOUS
 62
     8
 10
1296.590182166877
 20
31.43158791759425
 30
0.0
  0
SEQEND
  5
78E
  8
回07-寸法
  6
CONTINUOUS
 62
     5
  0
POLYLINE
  5
1A5
  8
回08-記事
  6
CONTINUOUS
 62
     8
 66
     1
 10
0.0
 20
0.0
 30
0.0
 40
3.6
 41
3.6
  0
VERTEX
  5
790
  8
回08-記事
  6
CONTINUOUS
 62
     8
 10
1319.090182166877
 20
25.80658791759288
 30
0.0
  0
VERTEX
  5
792
  8
回08-記事
  6
CONTINUOUS
 62
     8
 10
1296.590182166877
 20
25.80658791759288
 30
0.0
  0
SEQEND
  5
791
  8
回07-寸法
  6
CONTINUOUS
 62
     5
  0
POLYLINE
  5
1A6
  8
回08-記事
  6
CONTINUOUS
 62
     8
 66
     1
 10
0.0
 20
0.0
 30
0.0
 40
3.6
 41
3.6
  0
VERTEX
  5
793
  8
回08-記事
  6
CONTINUOUS
 62
     8
 10
1319.090182166877
 20
42.68158791759288
 30
0.0
  0
VERTEX
  5
795
  8
回08-記事
  6
CONTINUOUS
 62
     8
 10
1296.590182166877
 20
42.68158791759288
 30
0.0
  0
SEQEND
  5
794
  8
回07-寸法
  6
CONTINUOUS
 62
     5
  0
DIMENSION
  5
1A7
  8
回08-記事
  6
CONTINUOUS
 62
     5
  2
*D181818
 10
1336.323804021016
 20
27.60658791759263
 30
0.0
 11
1336.323804021015
 21
-32.41493695012446
 31
0.0
 70
   128
  1
4-0.7{\H0.6x;±0.1}[4-0.028{\H0.675x;±0.004}]
  3
STANDARD
 13
1319.090182166877
 23
24.00658791759316
 33
0.0
 14
1319.090182166877
 24
27.60658791759261
 34
0.0
 50
270.0
1001
ACAD
1000
DSTYLE
1002
{
1070
    41
1040
2.0
1070
    42
1040
0.0
1070
    43
1040
0.0
1070
    44
1040
1.0
1070
    47
1040
0.2
1070
    48
1040
0.2
1070
    73
1070
     0
1070
    74
1070
     0
1070
    77
1070
     3
1070
    78
1070
     8
1070
   140
1040
4.0
1070
   141
1040
2.0
1070
   143
1040
0.0394
1070
   146
1040
0.7
1070
   147
1040
0.5
1070
   171
1070
     4
1070
   172
1070
     1
1070
   173
1070
     1
1070
   176
1070
     5
1070
   177
1070
     5
1070
   178
1070
     5
1070
   271
1070
     2
1070
   272
1070
     2
1070
   273
1070
     8
1070
   274
1070
     4
1070
   283
1070
     0
1070
   284
1070
     8
1070
   289
1070
     0
1070
   341
1005
E
1070
   343
1005
E
1070
   344
1005
E
1002
}
  0
DIMENSION
  5
1B9
  8
回08-記事
  6
CONTINUOUS
 62
     5
  2
*D171717
 10
1349.445411270227
 20
31.43158791759427
 30
0.0
 11
1349.445411270227
 21
-23.42004676850774
 31
0.0
 70
   128
  1
1.25{\H0.6x;±0.2}[0.049{\H0.675x;±0.008}]
  3
STANDARD
 13
1323.079714615346
 23
25.80658791759288
 33
0.0
 14
1323.079714615346
 24
31.43158791759425
 34
0.0
 50
270.0
1001
ACAD
1000
DSTYLE
1002
{
1070
    41
1040
2.0
1070
    42
1040
0.0
1070
    43
1040
0.0
1070
    44
1040
1.0
1070
    47
1040
0.2
1070
    48
1040
0.2
1070
    73
1070
     0
1070
    74
1070
     0
1070
    77
1070
     3
1070
    78
1070
     8
1070
   140
1040
4.0
1070
   141
1040
2.0
1070
   143
1040
0.0394
1070
   146
1040
0.7
1070
   147
1040
0.5
1070
   171
1070
     4
1070
   172
1070
     1
1070
   173
1070
     1
1070
   176
1070
     5
1070
   177
1070
     5
1070
   178
1070
     5
1070
   271
1070
     2
1070
   272
1070
     2
1070
   273
1070
     8
1070
   274
1070
     4
1070
   283
1070
     0
1070
   284
1070
     8
1070
   289
1070
     0
1070
   341
1005
E
1070
   343
1005
E
1070
   344
1005
E
1002
}
  0
DIMENSION
  5
1CA
  8
回08-記事
  6
CONTINUOUS
 62
     5
  2
*D161616
 10
1362.010948810173
 20
42.68158791759289
 30
0.0
 11
1362.010948810173
 21
-25.30607212916948
 31
0.0
 70
   128
  1
3.75{\H0.6x;±0.1}[0.148{\H0.675x;±0.004}]
  3
STANDARD
 13
1323.079714615346
 23
25.80658791759288
 33
0.0
 14
1323.079714615346
 24
42.68158791759288
 34
0.0
 50
270.0
1001
ACAD
1000
DSTYLE
1002
{
1070
    41
1040
2.0
1070
    42
1040
0.0
1070
    43
1040
0.0
1070
    44
1040
1.0
1070
    47
1040
0.2
1070
    48
1040
0.2
1070
    73
1070
     0
1070
    74
1070
     0
1070
    77
1070
     3
1070
    78
1070
     8
1070
   140
1040
4.0
1070
   141
1040
2.0
1070
   143
1040
0.0394
1070
   146
1040
0.7
1070
   147
1040
0.5
1070
   171
1070
     4
1070
   172
1070
     1
1070
   173
1070
     1
1070
   176
1070
     5
1070
   177
1070
     5
1070
   178
1070
     5
1070
   271
1070
     2
1070
   272
1070
     2
1070
   273
1070
     8
1070
   274
1070
     4
1070
   283
1070
     0
1070
   284
1070
     8
1070
   289
1070
     0
1070
   341
1005
E
1070
   343
1005
E
1070
   344
1005
E
1002
}
  0
TEXT
  5
1DB
  8
回08-記事
  6
CONTINUOUS
 62
     5
 10
885.5206739245652
 20
262.9299143021042
 30
0.0
 40
7.0
  1
YU
  0
TEXT
  5
1DC
  8
回08-記事
  6
CONTINUOUS
 62
     5
 10
886.4881894733397
 20
-24.45064868729355
 30
0.0
 40
7.0
  1
YD
  0
TEXT
  5
1DD
  8
回08-記事
  6
CONTINUOUS
 62
     5
 10
715.0510351881305
 20
126.8903840651553
 30
0.0
 40
7.0
  1
XL
  0
TEXT
  5
1DE
  8
回08-記事
  6
CONTINUOUS
 62
     5
 10
1074.993628106885
 20
126.7987298103587
 30
0.0
 40
7.0
  1
XR
  0
TEXT
  5
1DF
  8
回07-寸法
  6
CONTINUOUS
 62
     5
 10
723.549734054172
 20
-58.22802978906246
 30
0.0
 40
6.0
  1
AST-190A
1001
ACAD
1000
MTEXTBEGIN
1070
    73
1070
     1
1070
    44
1040
1.0
1070
    74
1070
     0
1000
MTEXTEND
  0
TEXT
  5
1E0
  8
回07-寸法
  6
CONTINUOUS
 62
     5
 10
723.4696988252842
 20
-50.34050623892857
 30
0.0
 40
6.0
  1
PART NO.
1001
ACAD
1000
MTEXTBEGIN
1070
    73
1070
     1
1070
    44
1040
1.0
1070
    74
1070
     0
1000
MTEXTEND
  0
INSERT
  5
1E1
  8
回07-寸法
  6
CONTINUOUS
 62
     7
 66
     1
  2
*X404040
 10
0.0
 20
0.0
 30
0.0
  0
SEQEND
  5
3FB
  8
回07-寸法
  6
CONTINUOUS
 62
     5
  0
TEXT
  5
1E2
  8
回08-記事
  6
CONTINUOUS
 62
     7
 10
710.4368191625232
 20
-38.81368679041066
 30
0.0
 40
3.0
  1
AST-190A
  0
ARC
  5
1E3
  8
回08-記事
  6
CONTINUOUS
 62
     7
 10
716.4299133359991
 20
-83.89075177946322
 30
0.0
 40
0.5
 50
0.0
 51
180.0
  0
ARC
  5
1E4
  8
回08-記事
  6
CONTINUOUS
 62
     7
 10
720.4299133359991
 20
-83.89075177946322
 30
0.0
 40
0.5
 50
0.0
 51
180.0
  0
ARC
  5
1E5
  8
回08-記事
  6
CONTINUOUS
 62
     7
 10
724.4299133359991
 20
-83.89075177946322
 30
0.0
 40
0.5
 50
0.0
 51
180.0
  0
ARC
  5
1E6
  8
回08-記事
  6
CONTINUOUS
 62
     7
 10
728.4299133359991
 20
-83.89075177946322
 30
0.0
 40
0.5
 50
0.0
 51
180.0
  0
ARC
  5
1E7
  8
回08-記事
  6
CONTINUOUS
 62
     7
 10
732.4299133359991
 20
-83.89075177946322
 30
0.0
 40
0.5
 50
0.0
 51
180.0
  0
ARC
  5
1E8
  8
回08-記事
  6
CONTINUOUS
 62
     7
 10
736.4299133359991
 20
-83.89075177946322
 30
0.0
 40
0.5
 50
0.0
 51
180.0
  0
ARC
  5
1E9
  8
回08-記事
  6
CONTINUOUS
 62
     7
 10
740.4299133359993
 20
-83.89075177946322
 30
0.0
 40
0.5
 50
0.0
 51
180.0
  0
ARC
  5
1EA
  8
回08-記事
  6
CONTINUOUS
 62
     7
 10
744.4299133359993
 20
-83.89075177946322
 30
0.0
 40
0.5
 50
0.0
 51
180.0
  0
ARC
  5
1EB
  8
回08-記事
  6
CONTINUOUS
 62
     7
 10
748.4299133359993
 20
-83.89075177946322
 30
0.0
 40
0.5
 50
0.0
 51
180.0
  0
ARC
  5
1EC
  8
回08-記事
  6
CONTINUOUS
 62
     7
 10
752.4299133359993
 20
-83.89075177946322
 30
0.0
 40
0.5
 50
0.0
 51
180.0
  0
ARC
  5
1ED
  8
回08-記事
  6
CONTINUOUS
 62
     7
 10
756.4299133359993
 20
-83.89075177946322
 30
0.0
 40
0.5
 50
0.0
 51
180.0
  0
ARC
  5
1EE
  8
回08-記事
  6
CONTINUOUS
 62
     7
 10
760.4299133359993
 20
-83.89075177946322
 30
0.0
 40
0.5
 50
0.0
 51
180.0
  0
ARC
  5
1EF
  8
回08-記事
  6
CONTINUOUS
 62
     7
 10
764.4299133359993
 20
-83.89075177946322
 30
0.0
 40
0.5
 50
0.0
 51
180.0
  0
ARC
  5
1F0
  8
回08-記事
  6
CONTINUOUS
 62
     7
 10
808.4299133359998
 20
-83.89075177946322
 30
0.0
 40
0.5
 50
0.0
 51
180.0
  0
ARC
  5
1F1
  8
回08-記事
  6
CONTINUOUS
 62
     7
 10
804.4299133359997
 20
-83.89075177946322
 30
0.0
 40
0.5
 50
0.0
 51
180.0
  0
ARC
  5
1F2
  8
回08-記事
  6
CONTINUOUS
 62
     7
 10
800.4299133359998
 20
-83.89075177946322
 30
0.0
 40
0.5
 50
0.0
 51
180.0
  0
ARC
  5
1F3
  8
回08-記事
  6
CONTINUOUS
 62
     7
 10
796.4299133359998
 20
-83.89075177946322
 30
0.0
 40
0.5
 50
0.0
 51
180.0
  0
ARC
  5
1F4
  8
回08-記事
  6
CONTINUOUS
 62
     7
 10
792.4299133359998
 20
-83.89075177946322
 30
0.0
 40
0.5
 50
0.0
 51
180.0
  0
ARC
  5
1F5
  8
回08-記事
  6
CONTINUOUS
 62
     7
 10
788.4299133359998
 20
-83.89075177946322
 30
0.0
 40
0.5
 50
0.0
 51
180.0
  0
ARC
  5
1F6
  8
回08-記事
  6
CONTINUOUS
 62
     7
 10
768.4299133359996
 20
-83.89075177946322
 30
0.0
 40
0.5
 50
0.0
 51
180.0
  0
ARC
  5
1F7
  8
回08-記事
  6
CONTINUOUS
 62
     7
 10
772.4299133359996
 20
-83.89075177946322
 30
0.0
 40
0.5
 50
0.0
 51
180.0
  0
ARC
  5
1F8
  8
回08-記事
  6
CONTINUOUS
 62
     7
 10
776.4299133359996
 20
-83.89075177946322
 30
0.0
 40
0.5
 50
0.0
 51
180.0
  0
ARC
  5
1F9
  8
回08-記事
  6
CONTINUOUS
 62
     7
 10
780.4299133359996
 20
-83.89075177946322
 30
0.0
 40
0.5
 50
0.0
 51
180.0
  0
ARC
  5
1FA
  8
回08-記事
  6
CONTINUOUS
 62
     7
 10
784.4299133359998
 20
-83.89075177946322
 30
0.0
 40
0.5
 50
0.0
 51
180.0
  0
ARC
  5
1FB
  8
回08-記事
  6
CONTINUOUS
 62
     7
 10
896.429913336
 20
-83.89075177946322
 30
0.0
 40
0.5
 50
0.0
 51
180.0
  0
ARC
  5
1FC
  8
回08-記事
  6
CONTINUOUS
 62
     7
 10
892.4299133359999
 20
-83.89075177946322
 30
0.0
 40
0.5
 50
0.0
 51
180.0
  0
ARC
  5
1FD
  8
回08-記事
  6
CONTINUOUS
 62
     7
 10
888.429913336
 20
-83.89075177946322
 30
0.0
 40
0.5
 50
0.0
 51
180.0
  0
ARC
  5
1FE
  8
回08-記事
  6
CONTINUOUS
 62
     7
 10
884.4299133359999
 20
-83.89075177946322
 30
0.0
 40
0.5
 50
0.0
 51
180.0
  0
ARC
  5
1FF
  8
回08-記事
  6
CONTINUOUS
 62
     7
 10
880.429913336
 20
-83.89075177946322
 30
0.0
 40
0.5
 50
0.0
 51
180.0
  0
ARC
  5
200
  8
回08-記事
  6
CONTINUOUS
 62
     7
 10
876.4299133359999
 20
-83.89075177946322
 30
0.0
 40
0.5
 50
0.0
 51
180.0
  0
ARC
  5
201
  8
回08-記事
  6
CONTINUOUS
 62
     7
 10
872.429913336
 20
-83.89075177946322
 30
0.0
 40
0.5
 50
0.0
 51
180.0
  0
ARC
  5
202
  8
回08-記事
  6
CONTINUOUS
 62
     7
 10
868.4299133359999
 20
-83.89075177946322
 30
0.0
 40
0.5
 50
0.0
 51
180.0
  0
ARC
  5
203
  8
回08-記事
  6
CONTINUOUS
 62
     7
 10
864.429913336
 20
-83.89075177946322
 30
0.0
 40
0.5
 50
0.0
 51
180.0
  0
ARC
  5
204
  8
回08-記事
  6
CONTINUOUS
 62
     7
 10
860.4299133359999
 20
-83.89075177946322
 30
0.0
 40
0.5
 50
0.0
 51
180.0
  0
ARC
  5
205
  8
回08-記事
  6
CONTINUOUS
 62
     7
 10
856.429913336
 20
-83.89075177946322
 30
0.0
 40
0.5
 50
0.0
 51
180.0
  0
ARC
  5
206
  8
回08-記事
  6
CONTINUOUS
 62
     7
 10
852.4299133359999
 20
-83.89075177946322
 30
0.0
 40
0.5
 50
0.0
 51
180.0
  0
ARC
  5
207
  8
回08-記事
  6
CONTINUOUS
 62
     7
 10
848.429913336
 20
-83.89075177946322
 30
0.0
 40
0.5
 50
0.0
 51
180.0
  0
ARC
  5
208
  8
回08-記事
  6
CONTINUOUS
 62
     7
 10
844.4299133360001
 20
-83.89075177946322
 30
0.0
 40
0.5
 50
0.0
 51
180.0
  0
ARC
  5
209
  8
回08-記事
  6
CONTINUOUS
 62
     7
 10
840.429913336
 20
-83.89075177946322
 30
0.0
 40
0.5
 50
0.0
 51
180.0
  0
ARC
  5
20A
  8
回08-記事
  6
CONTINUOUS
 62
     7
 10
836.4299133360001
 20
-83.89075177946322
 30
0.0
 40
0.5
 50
0.0
 51
180.0
  0
ARC
  5
20B
  8
回08-記事
  6
CONTINUOUS
 62
     7
 10
832.429913336
 20
-83.89075177946322
 30
0.0
 40
0.5
 50
0.0
 51
180.0
  0
ARC
  5
20C
  8
回08-記事
  6
CONTINUOUS
 62
     7
 10
812.4299133359997
 20
-83.89075177946322
 30
0.0
 40
0.5
 50
0.0
 51
180.0
  0
ARC
  5
20D
  8
回08-記事
  6
CONTINUOUS
 62
     7
 10
816.4299133359998
 20
-83.89075177946322
 30
0.0
 40
0.5
 50
0.0
 51
180.0
  0
ARC
  5
20E
  8
回08-記事
  6
CONTINUOUS
 62
     7
 10
820.4299133359997
 20
-83.89075177946322
 30
0.0
 40
0.5
 50
0.0
 51
180.0
  0
ARC
  5
20F
  8
回08-記事
  6
CONTINUOUS
 62
     7
 10
824.4299133359998
 20
-83.89075177946322
 30
0.0
 40
0.5
 50
0.0
 51
180.0
  0
ARC
  5
210
  8
回08-記事
  6
CONTINUOUS
 62
     7
 10
828.4299133360001
 20
-83.89075177946322
 30
0.0
 40
0.5
 50
0.0
 51
180.0
  0
ARC
  5
211
  8
回08-記事
  6
CONTINUOUS
 62
     7
 10
1080.429913336
 20
-83.89075177946322
 30
0.0
 40
0.5
 50
0.0
 51
180.0
  0
TEXT
  5
212
  8
回08-記事
  6
CONTINUOUS
 62
     5
 10
1067.297758447434
 20
-102.8534773894616
 30
0.0
 40
6.0
  1
PROTECTION TAPE
  0
TEXT
  5
213
  8
回08-記事
  6
CONTINUOUS
 62
     5
 10
1184.086880836404
 20
-110.3133394499034
 30
0.0
 40
6.0
  1
STIFFENER
  0
TEXT
  5
214
  8
回08-記事
  6
CONTINUOUS
 62
     5
 10
1079.543529960886
 20
-61.78019745149232
 30
0.0
 40
6.0
  1
REINFORCEMENT FILM
  0
TEXT
  5
215
  8
回08-記事
  6
CONTINUOUS
 62
     5
 10
1140.537171173892
 20
-99.68988053397881
 30
0.0
 40
6.0
  1
TAIL
  0
TEXT
  5
216
  8
回08-記事
  6
CONTINUOUS
 62
     5
 10
893.3612945951203
 20
-103.9293112417824
 30
0.0
 40
6.0
  1
ITO GLASS
  0
TEXT
  5
217
  8
回08-記事
  6
CONTINUOUS
 62
     5
 10
958.5908698351834
 20
-72.31939873796955
 30
0.0
 40
6.0
  1
ITO FILM
  0
LINE
  5
218
  8
回08-記事
  6
CONTINUOUS
 62
     5
 10
1099.604027311086
 20
-88.16052229233354
 30
0.0
 11
1093.30031759295
 21
-95.88122837902028
 31
0.0
  0
LINE
  5
219
  8
回08-記事
  6
CONTINUOUS
 62
     7
 10
1101.729913336
 20
-84.89075177946324
 30
0.0
 11
1101.729913336
 21
-88.69075177946319
 31
0.0
  0
LINE
  5
21A
  8
回08-記事
  6
CONTINUOUS
 62
     7
 10
1096.429913336
 20
-88.69075177946319
 30
0.0
 11
1101.729913336
 21
-88.69075177946319
 31
0.0
  0
LINE
  5
21B
  8
回08-記事
  6
CONTINUOUS
 62
     7
 10
1096.429913336
 20
-87.69075177946319
 30
0.0
 11
1096.429913336
 21
-88.69075177946319
 31
0.0
  0
LINE
  5
21C
  8
回08-記事
  6
CONTINUOUS
 62
     7
 10
1105.229913336
 20
-84.89075177946324
 30
0.0
 11
1101.729913336
 21
-84.89075177946324
 31
0.0
  0
LINE
  5
21D
  8
回08-記事
  6
CONTINUOUS
 62
     7
 10
1105.229913336
 20
-83.89075177946322
 30
0.0
 11
1105.229913336
 21
-84.89075177946324
 31
0.0
  0
LINE
  5
21E
  8
回08-記事
  6
CONTINUOUS
 62
     5
 10
902.6160785272573
 20
-85.87178997871342
 30
0.0
 11
898.6251934862286
 21
-98.69048340674726
 31
0.0
  0
LINE
  5
21F
  8
回08-記事
  6
CONTINUOUS
 62
     5
 10
968.5757140531986
 20
-80.99970218526687
 30
0.0
 11
962.8744589560668
 21
-72.49842507102198
 31
0.0
  0
LINE
  5
220
  8
回08-記事
  6
CONTINUOUS
 62
     5
 10
1149.918720023814
 20
-83.05970610844633
 30
0.0
 11
1146.443587922644
 21
-92.32012870533891
 31
0.0
  0
LINE
  5
221
  8
回08-記事
  6
CONTINUOUS
 62
     5
 10
1145.325675102486
 20
-81.09191436191668
 30
0.0
 11
1125.645265954593
 21
-64.09705438284889
 31
0.0
  0
LINE
  5
222
  8
回08-記事
  6
CONTINUOUS
 62
     5
 10
1232.170028543842
 20
-85.54116573877672
 30
0.0
 11
1218.098957433352
 21
-101.2905727510131
 31
0.0
  0
DIMENSION
  5
223
  8
回08-記事
  6
CONTINUOUS
 62
     5
  2
*D151515
 10
1230.729913336
 20
-104.6483437252957
 30
0.0
 11
1270.440741051678
 21
-104.6483437252957
 31
0.0
 70
   128
  1
(<>)
  3
DMC
 13
1240.729913336
 23
-86.59075177946329
 33
0.0
 14
1230.729913336
 24
-86.59075177946329
 34
0.0
 50
180.0
1001
ACAD
1000
DSTYLE
1002
{
1070
   140
1040
5.0
1002
}
  0
DIMENSION
  5
232
  8
回08-記事
  6
CONTINUOUS
 62
     5
  2
*D141414
 10
1235.729913336
 20
-55.65793887414099
 30
0.0
 11
1212.415936014023
 21
-55.65793887414099
 31
0.0
 70
   128
  3
DMC
 13
1240.729913336
 23
-81.6907517794632
 33
0.0
 14
1235.729913336
 24
-80.6907517794632
 34
0.0
 50
180.0
1001
ACAD
1000
DSTYLE
1002
{
1070
   140
1040
5.0
1002
}
  0
DIMENSION
  5
241
  8
回08-記事
  6
CONTINUOUS
 62
     5
  2
*D131313
 10
693.9800479559371
 20
-87.69075177946323
 30
0.0
 11
689.0800479559372
 21
-130.262646582613
 31
0.0
 70
     0
  1
2.1{\H0.6667x;±0.2}[0.083±{\H0.675x;0.008}]
  3
DMC
 13
700.4299133359998
 23
-79.1907517794632
 33
0.0
 14
700.129913336
 24
-87.69075177946319
 34
0.0
 50
90.0
1001
ACAD
1000
DSTYLE
1002
{
1070
   140
1040
5.0
1002
}
  0
DIMENSION
  5
250
  8
回08-記事
  6
CONTINUOUS
 62
     5
  2
*D121212
 10
1255.135675658921
 20
-86.59075177946331
 30
0.0
 11
1255.13567565892
 21
-38.26052217316436
 31
0.0
 70
   128
  1
0.3{\H0.6667x;±0.05}[0.012{\H0.675x;±0.002}]
  3
DMC
 13
1240.729913336
 23
-81.6907517794632
 33
0.0
 14
1240.729913336
 24
-86.59075177946329
 34
0.0
 50
90.0
1001
ACAD
1000
DSTYLE
1002
{
1070
   140
1040
5.0
1002
}
  0
ARC
  5
25F
  8
回08-記事
  6
CONTINUOUS
 62
     7
 10
1088.429913336
 20
-83.89075177946322
 30
0.0
 40
0.5
 50
0.0
 51
180.0
  0
ARC
  5
260
  8
回08-記事
  6
CONTINUOUS
 62
     7
 10
1084.429913336
 20
-83.89075177946322
 30
0.0
 40
0.5
 50
0.0
 51
180.0
  0
ARC
  5
261
  8
回08-記事
  6
CONTINUOUS
 62
     7
 10
1076.429913336
 20
-83.89075177946322
 30
0.0
 40
0.5
 50
0.0
 51
180.0
  0
ARC
  5
262
  8
回08-記事
  6
CONTINUOUS
 62
     7
 10
1072.429913336
 20
-83.89075177946322
 30
0.0
 40
0.5
 50
0.0
 51
180.0
  0
ARC
  5
263
  8
回08-記事
  6
CONTINUOUS
 62
     7
 10
1068.429913336
 20
-83.89075177946322
 30
0.0
 40
0.5
 50
0.0
 51
180.0
  0
ARC
  5
264
  8
回08-記事
  6
CONTINUOUS
 62
     7
 10
1064.429913336
 20
-83.89075177946322
 30
0.0
 40
0.5
 50
0.0
 51
180.0
  0
ARC
  5
265
  8
回08-記事
  6
CONTINUOUS
 62
     7
 10
1060.429913336
 20
-83.89075177946322
 30
0.0
 40
0.5
 50
0.0
 51
180.0
  0
ARC
  5
266
  8
回08-記事
  6
CONTINUOUS
 62
     7
 10
1056.429913336
 20
-83.89075177946322
 30
0.0
 40
0.5
 50
0.0
 51
180.0
  0
ARC
  5
267
  8
回08-記事
  6
CONTINUOUS
 62
     7
 10
1052.429913336
 20
-83.89075177946322
 30
0.0
 40
0.5
 50
0.0
 51
180.0
  0
ARC
  5
268
  8
回08-記事
  6
CONTINUOUS
 62
     7
 10
1048.429913336
 20
-83.89075177946322
 30
0.0
 40
0.5
 50
0.0
 51
180.0
  0
ARC
  5
269
  8
回08-記事
  6
CONTINUOUS
 62
     7
 10
1044.429913336
 20
-83.89075177946322
 30
0.0
 40
0.5
 50
0.0
 51
180.0
  0
ARC
  5
26A
  8
回08-記事
  6
CONTINUOUS
 62
     7
 10
1040.429913336
 20
-83.89075177946322
 30
0.0
 40
0.5
 50
0.0
 51
180.0
  0
ARC
  5
26B
  8
回08-記事
  6
CONTINUOUS
 62
     7
 10
1036.429913336
 20
-83.89075177946322
 30
0.0
 40
0.5
 50
0.0
 51
180.0
  0
ARC
  5
26C
  8
回08-記事
  6
CONTINUOUS
 62
     7
 10
1032.429913336
 20
-83.89075177946322
 30
0.0
 40
0.5
 50
0.0
 51
180.0
  0
ARC
  5
26D
  8
回08-記事
  6
CONTINUOUS
 62
     7
 10
1028.429913336
 20
-83.89075177946322
 30
0.0
 40
0.5
 50
0.0
 51
180.0
  0
ARC
  5
26E
  8
回08-記事
  6
CONTINUOUS
 62
     7
 10
1024.429913336
 20
-83.89075177946322
 30
0.0
 40
0.5
 50
0.0
 51
180.0
  0
ARC
  5
26F
  8
回08-記事
  6
CONTINUOUS
 62
     7
 10
1020.429913336
 20
-83.89075177946322
 30
0.0
 40
0.5
 50
0.0
 51
180.0
  0
ARC
  5
270
  8
回08-記事
  6
CONTINUOUS
 62
     7
 10
1016.429913336
 20
-83.89075177946322
 30
0.0
 40
0.5
 50
0.0
 51
180.0
  0
ARC
  5
271
  8
回08-記事
  6
CONTINUOUS
 62
     7
 10
1012.429913336
 20
-83.89075177946322
 30
0.0
 40
0.5
 50
0.0
 51
180.0
  0
ARC
  5
272
  8
回08-記事
  6
CONTINUOUS
 62
     7
 10
1008.429913336
 20
-83.89075177946322
 30
0.0
 40
0.5
 50
0.0
 51
180.0
  0
ARC
  5
273
  8
回08-記事
  6
CONTINUOUS
 62
     7
 10
1004.429913336
 20
-83.89075177946322
 30
0.0
 40
0.5
 50
0.0
 51
180.0
  0
ARC
  5
274
  8
回08-記事
  6
CONTINUOUS
 62
     7
 10
1000.429913336
 20
-83.89075177946322
 30
0.0
 40
0.5
 50
0.0
 51
180.0
  0
ARC
  5
275
  8
回08-記事
  6
CONTINUOUS
 62
     7
 10
996.4299133360002
 20
-83.89075177946322
 30
0.0
 40
0.5
 50
0.0
 51
180.0
  0
ARC
  5
276
  8
回08-記事
  6
CONTINUOUS
 62
     7
 10
992.4299133360003
 20
-83.89075177946322
 30
0.0
 40
0.5
 50
0.0
 51
180.0
  0
ARC
  5
277
  8
回08-記事
  6
CONTINUOUS
 62
     7
 10
988.4299133360002
 20
-83.89075177946322
 30
0.0
 40
0.5
 50
0.0
 51
180.0
  0
ARC
  5
278
  8
回08-記事
  6
CONTINUOUS
 62
     7
 10
984.4299133360003
 20
-83.89075177946322
 30
0.0
 40
0.5
 50
0.0
 51
180.0
  0
ARC
  5
279
  8
回08-記事
  6
CONTINUOUS
 62
     7
 10
980.4299133360002
 20
-83.89075177946322
 30
0.0
 40
0.5
 50
0.0
 51
180.0
  0
ARC
  5
27A
  8
回08-記事
  6
CONTINUOUS
 62
     7
 10
976.4299133360003
 20
-83.89075177946322
 30
0.0
 40
0.5
 50
0.0
 51
180.0
  0
ARC
  5
27B
  8
回08-記事
  6
CONTINUOUS
 62
     7
 10
972.4299133360002
 20
-83.89075177946322
 30
0.0
 40
0.5
 50
0.0
 51
180.0
  0
ARC
  5
27C
  8
回08-記事
  6
CONTINUOUS
 62
     7
 10
968.4299133360003
 20
-83.89075177946322
 30
0.0
 40
0.5
 50
0.0
 51
180.0
  0
ARC
  5
27D
  8
回08-記事
  6
CONTINUOUS
 62
     7
 10
964.4299133360002
 20
-83.89075177946322
 30
0.0
 40
0.5
 50
0.0
 51
180.0
  0
ARC
  5
27E
  8
回08-記事
  6
CONTINUOUS
 62
     7
 10
960.4299133360003
 20
-83.89075177946322
 30
0.0
 40
0.5
 50
0.0
 51
180.0
  0
ARC
  5
27F
  8
回08-記事
  6
CONTINUOUS
 62
     7
 10
956.4299133360002
 20
-83.89075177946322
 30
0.0
 40
0.5
 50
0.0
 51
180.0
  0
ARC
  5
280
  8
回08-記事
  6
CONTINUOUS
 62
     7
 10
952.4299133360003
 20
-83.89075177946322
 30
0.0
 40
0.5
 50
0.0
 51
180.0
  0
ARC
  5
281
  8
回08-記事
  6
CONTINUOUS
 62
     7
 10
948.4299133360002
 20
-83.89075177946322
 30
0.0
 40
0.5
 50
0.0
 51
180.0
  0
ARC
  5
282
  8
回08-記事
  6
CONTINUOUS
 62
     7
 10
944.4299133360003
 20
-83.89075177946322
 30
0.0
 40
0.5
 50
0.0
 51
180.0
  0
ARC
  5
283
  8
回08-記事
  6
CONTINUOUS
 62
     7
 10
940.4299133360002
 20
-83.89075177946322
 30
0.0
 40
0.5
 50
0.0
 51
180.0
  0
ARC
  5
284
  8
回08-記事
  6
CONTINUOUS
 62
     7
 10
936.4299133360002
 20
-83.89075177946322
 30
0.0
 40
0.5
 50
0.0
 51
180.0
  0
ARC
  5
285
  8
回08-記事
  6
CONTINUOUS
 62
     7
 10
932.4299133360002
 20
-83.89075177946322
 30
0.0
 40
0.5
 50
0.0
 51
180.0
  0
ARC
  5
286
  8
回08-記事
  6
CONTINUOUS
 62
     7
 10
928.4299133360002
 20
-83.89075177946322
 30
0.0
 40
0.5
 50
0.0
 51
180.0
  0
ARC
  5
287
  8
回08-記事
  6
CONTINUOUS
 62
     7
 10
924.429913336
 20
-83.89075177946322
 30
0.0
 40
0.5
 50
0.0
 51
180.0
  0
ARC
  5
288
  8
回08-記事
  6
CONTINUOUS
 62
     7
 10
920.4299133360002
 20
-83.89075177946322
 30
0.0
 40
0.5
 50
0.0
 51
180.0
  0
ARC
  5
289
  8
回08-記事
  6
CONTINUOUS
 62
     7
 10
900.4299133359999
 20
-83.89075177946322
 30
0.0
 40
0.5
 50
0.0
 51
180.0
  0
ARC
  5
28A
  8
回08-記事
  6
CONTINUOUS
 62
     7
 10
904.429913336
 20
-83.89075177946322
 30
0.0
 40
0.5
 50
0.0
 51
180.0
  0
ARC
  5
28B
  8
回08-記事
  6
CONTINUOUS
 62
     7
 10
908.429913336
 20
-83.89075177946322
 30
0.0
 40
0.5
 50
0.0
 51
180.0
  0
ARC
  5
28C
  8
回08-記事
  6
CONTINUOUS
 62
     7
 10
912.429913336
 20
-83.89075177946322
 30
0.0
 40
0.5
 50
0.0
 51
180.0
  0
ARC
  5
28D
  8
回08-記事
  6
CONTINUOUS
 62
     7
 10
916.429913336
 20
-83.89075177946322
 30
0.0
 40
0.5
 50
0.0
 51
180.0
  0
LINE
  5
28E
  8
回08-記事
  6
CONTINUOUS
 62
     7
 10
711.7699133360002
 20
-81.6907517794632
 30
0.0
 11
711.7699133360002
 21
-83.89075177946322
 31
0.0
  0
LINE
  5
28F
  8
回08-記事
  6
CONTINUOUS
 62
     7
 10
1096.429913336
 20
-81.6907517794632
 30
0.0
 11
1096.429913336
 21
-83.89075177946322
 31
0.0
  0
LINE
  5
290
  8
回08-記事
  6
CONTINUOUS
 62
     7
 10
1091.379913336
 20
-81.6907517794632
 30
0.0
 11
1091.379913336
 21
-83.89075177946322
 31
0.0
  0
LINE
  5
291
  8
回08-記事
  6
CONTINUOUS
 62
     7
 10
1235.729913336
 20
-80.6907517794632
 30
0.0
 11
1100.429913336
 21
-80.6907517794632
 31
0.0
  0
LINE
  5
292
  8
回08-記事
  6
CONTINUOUS
 62
     7
 10
1235.729913336
 20
-81.6907517794632
 30
0.0
 11
1235.729913336
 21
-80.6907517794632
 31
0.0
  0
LINE
  5
293
  8
回08-記事
  6
CONTINUOUS
 62
     7
 10
1230.729913336
 20
-83.89075177946322
 30
0.0
 11
1230.729913336
 21
-86.59075177946329
 31
0.0
  0
LINE
  5
294
  8
回08-記事
  6
CONTINUOUS
 62
     7
 10
1240.729913336
 20
-86.59075177946329
 30
0.0
 11
1230.729913336
 21
-86.59075177946329
 31
0.0
  0
LINE
  5
295
  8
回08-記事
  6
CONTINUOUS
 62
     7
 10
1240.729913336
 20
-81.6907517794632
 30
0.0
 11
1240.729913336
 21
-86.59075177946329
 31
0.0
  0
LINE
  5
296
  8
回08-記事
  6
CONTINUOUS
 62
     7
 10
1100.229913336
 20
-81.6907517794632
 30
0.0
 11
1240.729913336
 21
-81.6907517794632
 31
0.0
  0
LINE
  5
297
  8
回08-記事
  6
CONTINUOUS
 62
     7
 10
1100.229913336
 20
-83.89075177946322
 30
0.0
 11
1240.729913336
 21
-83.89075177946322
 31
0.0
  0
LINE
  5
298
  8
回08-記事
  6
CONTINUOUS
 62
     7
 10
700.4299133359998
 20
-79.1907517794632
 30
0.0
 11
700.4299133359998
 21
-83.89075177946322
 31
0.0
  0
LINE
  5
299
  8
回08-記事
  6
CONTINUOUS
 62
     7
 10
700.129913336
 20
-83.89075177946322
 30
0.0
 11
700.129913336
 21
-87.69075177946319
 31
0.0
  0
LINE
  5
29A
  8
回08-記事
  6
CONTINUOUS
 62
     7
 10
1100.429913336
 20
-79.1907517794632
 30
0.0
 11
1100.429913336
 21
-81.6907517794632
 31
0.0
  0
LINE
  5
29B
  8
回08-記事
  6
CONTINUOUS
 62
     7
 10
1100.729913336
 20
-83.89075177946322
 30
0.0
 11
1100.729913336
 21
-87.69075177946319
 31
0.0
  0
LINE
  5
29C
  8
回08-記事
  6
CONTINUOUS
 62
     7
 10
1100.729913336
 20
-87.69075177946319
 30
0.0
 11
700.129913336
 21
-87.69075177946319
 31
0.0
  0
LINE
  5
29D
  8
回08-記事
  6
CONTINUOUS
 62
     7
 10
1100.729913336
 20
-83.89075177946322
 30
0.0
 11
700.129913336
 21
-83.89075177946322
 31
0.0
  0
LINE
  5
29E
  8
回08-記事
  6
CONTINUOUS
 62
     7
 10
1100.229913336
 20
-81.6907517794632
 30
0.0
 11
700.4299133359998
 21
-81.6907517794632
 31
0.0
  0
LINE
  5
29F
  8
回08-記事
  6
CONTINUOUS
 62
     7
 10
1100.429913336
 20
-79.1907517794632
 30
0.0
 11
700.4299133359998
 21
-79.1907517794632
 31
0.0
  0
TEXT
  5
2A0
  8
回08-記事
  6
CONTINUOUS
 62
     7
 10
1241.183262983853
 20
119.1635763419863
 30
0.0
 40
6.0
  1
4
 50
270.0
  0
TEXT
  5
2A1
  8
回08-記事
  6
CONTINUOUS
 62
     7
 10
1241.197698430915
 20
129.4032649460785
 30
0.0
 40
6.0
  1
1
 50
270.0
  0
CIRCLE
  5
2A2
  8
回08-記事
  6
DASHED2
 62
     5
 10
1242.327415546266
 20
122.9152716365222
 30
0.0
 40
10.59319344560026
  0
DIMENSION
  5
2A3
  8
回07-寸法
  6
CONTINUOUS
 62
     5
  2
*D111111
 10
1110.841175904778
 20
158.5500739205849
 30
0.0
 11
1128.291083936472
 21
165.422755168709
 31
0.0
 70
   128
  1
9.4 [0.370]
  3
DMC
 13
1100.729913336
 23
134.7074279352084
 33
0.0
 14
1110.841175904778
 24
126.0402716365224
 34
0.0
1001
ACAD
1000
DSTYLE
1002
{
1070
   279
1070
     2
1002
}
  0
DIMENSION
  5
2B2
  8
回07-寸法
  6
CONTINUOUS
 62
     5
  2
*D101010
 10
1176.176351698418
 20
130.9140686022506
 30
0.0
 11
1176.176351698418
 21
157.0140686022503
 31
0.0
 70
   128
  3
DMC
 13
1105.121843244366
 23
114.9164746707943
 33
0.0
 14
1105.121843244366
 24
130.9140686022506
 34
0.0
 50
90.0
  0
TEXT
  5
2C1
  8
回07-寸法
  6
CONTINUOUS
 62
     5
 10
1116.186142810138
 20
94.59607909895751
 30
0.0
 40
6.0
  1
2-R2[R0.079]
1001
ACAD
1000
MTEXTBEGIN
1070
    73
1070
     1
1070
    44
1040
1.0
1070
    74
1070
     0
1000
MTEXTEND
  0
INSERT
  5
2C2
  8
回07-寸法
  6
CONTINUOUS
 62
     7
 66
     1
  2
*X414141
 10
0.0
 20
0.0
 30
0.0
  0
SEQEND
  5
402
  8
回07-寸法
  6
CONTINUOUS
 62
     5
  0
TEXT
  5
2C3
  8
回07-寸法
  6
CONTINUOUS
 62
     5
 10
1116.255014200511
 20
104.6114306120478
 30
0.0
 40
6.0
  1
4-R1[R0.039]
1001
ACAD
1000
MTEXTBEGIN
1070
    73
1070
     1
1070
    44
1040
1.0
1070
    74
1070
     0
1000
MTEXTEND
  0
INSERT
  5
2C4
  8
回07-寸法
  6
CONTINUOUS
 62
     7
 66
     1
  2
*X424242
 10
0.0
 20
0.0
 30
0.0
  0
SEQEND
  5
409
  8
回07-寸法
  6
CONTINUOUS
 62
     5
  0
DIMENSION
  5
2C5
  8
回07-寸法
  6
CONTINUOUS
 62
     5
  2
*D999
 10
678.3213952316597
 20
-28.43472836347748
 30
0.0
 11
678.3213952316596
 21
-1.12390064779977
 31
0.0
 70
   128
  1
(<>)
  3
DMC
 13
700.129913336
 23
-30.43472836347746
 33
0.0
 14
700.129913336
 24
-28.43472836347746
 34
0.0
 50
90.0
  0
LINE
  5
2D4
  8
回08-記事
  6
CONTINUOUS
 62
     7
 10
709.4799133359997
 20
-28.43472836347746
 30
0.0
 11
700.129913336
 21
-28.43472836347746
 31
0.0
  0
LINE
  5
2D5
  8
回08-記事
  6
CONTINUOUS
 62
     7
 10
709.4799133359997
 20
-30.43472836347746
 30
0.0
 11
700.129913336
 21
-30.43472836347746
 31
0.0
  0
DIMENSION
  5
2D6
  8
回07-寸法
  6
CONTINUOUS
 62
     5
  2
*D888
 10
619.5909576449876
 20
286.1152716365225
 30
0.0
 11
619.5909576449876
 21
122.9152716365226
 31
0.0
 70
   128
  3
DMC
 13
700.129913336
 23
-40.28472836347757
 33
0.0
 14
700.129913336
 24
286.1152716365225
 34
0.0
 50
90.0
1001
ACAD
1000
DSTYLE
1002
{
1070
    47
1040
0.3
1070
   147
1040
0.5
1070
    48
1040
0.3
1070
    72
1070
     0
1070
    71
1070
     1
1002
}
  0
DIMENSION
  5
2E3
  8
回07-寸法
  6
CONTINUOUS
 62
     5
  2
*D777
 10
650.1570978950609
 20
-30.43472836347748
 30
0.0
 11
650.1570978950606
 21
122.9152716365227
 31
0.0
 70
   128
  1
<> (VIEWING AREA)
  3
DMC
 13
709.4799133359997
 23
276.2652716365226
 33
0.0
 14
709.4799133359997
 24
-30.43472836347746
 34
0.0
 50
90.0
  0
DIMENSION
  5
2F0
  8
回07-寸法
  6
CONTINUOUS
 62
     5
  2
*D666
 10
664.2002574417532
 20
273.9452716365225
 30
0.0
 11
664.2002574417532
 21
122.9152716365226
 31
0.0
 70
   128
  1
<> (ACTIVE AREA)
  3
DMC
 13
711.7699133360002
 23
-28.11472836347753
 33
0.0
 14
711.7699133360002
 24
273.9452716365224
 34
0.0
 50
90.0
  0
DIMENSION
  5
2FD
  8
回07-寸法
  6
CONTINUOUS
 62
     5
  2
*D555
 10
700.129913336
 20
341.9846633865733
 30
0.0
 11
900.4299133359999
 21
341.9846633865733
 31
0.0
 70
   128
  1
<>
  3
DMC
 13
1100.729913336
 23
286.1152716365225
 33
0.0
 14
700.129913336
 24
286.1152716365225
 34
0.0
1001
ACAD
1000
DSTYLE
1002
{
1070
    47
1040
0.3
1070
   147
1040
0.5
1070
    48
1040
0.3
1070
    72
1070
     0
1070
    71
1070
     1
1002
}
  0
DIMENSION
  5
30A
  8
回07-寸法
  6
CONTINUOUS
 62
     5
  2
*D444
 10
709.4799133359997
 20
319.4340259694009
 30
0.0
 11
900.4299133359999
 21
319.4340259694009
 31
0.0
 70
   128
  1
<> (VIEWING AREA)
  3
DMC
 13
1091.379913336
 23
276.2652716365226
 33
0.0
 14
709.4799133359997
 24
276.2652716365226
 34
0.0
  0
DIMENSION
  5
317
  8
回07-寸法
  6
CONTINUOUS
 62
     5
  2
*D333
 10
1089.089913336
 20
307.8180895851684
 30
0.0
 11
900.4299133359999
 21
307.8180895851684
 31
0.0
 70
   128
  1
<> (ACTIVE AREA)
  3
DMC
 13
711.7699133360002
 23
273.9452716365224
 33
0.0
 14
1089.089913336
 24
273.9452716365224
 34
0.0
  0
DIMENSION
  5
324
  8
回07-寸法
  6
CONTINUOUS
 62
     5
  2
*D222
 10
1261.944833946563
 20
126.0402716365225
 30
0.0
 11
1261.944833946563
 21
70.89090155778176
 31
0.0
 70
   128
  3
DMC
 13
1240.229913336
 23
119.7902716365222
 33
0.0
 14
1240.229913336
 24
126.0402716365224
 34
0.0
 50
90.0
1001
ACAD
1000
DSTYLE
1002
{
1070
    47
1040
0.2
1070
   147
1040
0.5
1070
    48
1040
0.2
1070
    72
1070
     0
1070
    71
1070
     0
1002
}
  0
POLYLINE
  5
333
  8
回08-記事
  6
PHANTOM2
 62
     7
 66
     1
 10
0.0
 20
0.0
 30
0.0
 70
     1
  0
VERTEX
  5
796
  8
回08-記事
  6
PHANTOM2
 62
     7
 10
711.7699133360002
 20
-28.11472836347753
 30
0.0
  0
VERTEX
  5
798
  8
回08-記事
  6
PHANTOM2
 62
     7
 10
1089.089913336
 20
-28.11472836347753
 30
0.0
  0
VERTEX
  5
799
  8
回08-記事
  6
PHANTOM2
 62
     7
 10
1089.089913336
 20
273.9452716365224
 30
0.0
  0
VERTEX
  5
79A
  8
回08-記事
  6
PHANTOM2
 62
     7
 10
711.7699133360002
 20
273.9452716365224
 30
0.0
  0
SEQEND
  5
797
  8
回07-寸法
  6
CONTINUOUS
 62
     5
  0
POLYLINE
  5
335
  8
回08-記事
  6
CONTINUOUS
 62
     7
 66
     1
 10
0.0
 20
0.0
 30
0.0
 70
     1
  0
VERTEX
  5
79B
  8
回08-記事
  6
CONTINUOUS
 62
     7
 10
709.4799133359997
 20
-30.43472836347746
 30
0.0
  0
VERTEX
  5
79D
  8
回08-記事
  6
CONTINUOUS
 62
     7
 10
1091.379913336
 20
-30.43472836347746
 30
0.0
  0
VERTEX
  5
79E
  8
回08-記事
  6
CONTINUOUS
 62
     7
 10
1091.379913336
 20
276.2652716365226
 30
0.0
  0
VERTEX
  5
79F
  8
回08-記事
  6
CONTINUOUS
 62
     7
 10
709.4799133359997
 20
276.2652716365226
 30
0.0
  0
SEQEND
  5
79C
  8
回07-寸法
  6
CONTINUOUS
 62
     5
  0
DIMENSION
  5
336
  8
回07-寸法
  6
CONTINUOUS
 62
     5
  2
*D111
 10
1100.729913336
 20
195.8021640349611
 30
0.0
 11
1172.15759957061
 21
195.8021640349611
 31
0.0
 70
   128
  3
DMC
 13
1240.729913336
 23
125.5402716365222
 33
0.0
 14
1100.729913336
 24
148.925794925344
 34
0.0
1001
ACAD
1000
DSTYLE
1002
{
1070
    47
1040
1.0
1070
    48
1040
1.0
1070
    71
1070
     1
1002
}
  0
ARC
  5
343
  8
回07-ﾃｰﾙ
  6
BYBLOCK
 62
     7
 10
1102.429913336
 20
132.9152718362456
 30
0.0
 40
2.0
 50
211.7883306170488
 51
269.9743942880671
  0
LINE
  5
344
  8
回07-ﾃｰﾙ
  6
BYBLOCK
 62
     7
 10
1105.121843244366
 20
130.9140686022504
 30
0.0
 11
1102.429019528068
 21
130.9152720359686
 31
0.0
  0
ARC
  5
345
  8
回07-ﾃｰﾙ
  6
BYBLOCK
 62
     7
 10
1110.841175904778
 20
127.0402716365224
 30
0.0
 40
1.0
 50
225.1170071046098
 51
270.0
  0
ARC
  5
346
  8
回07-ﾃｰﾙ
  6
BYBLOCK
 62
     7
 10
1105.1213963404
 20
129.9140687021122
 30
0.0
 40
1.0
 50
45.11700710460978
 51
89.97439428806728
  0
LINE
  5
347
  8
回07-ﾃｰﾙ
  6
BYBLOCK
 62
     7
 10
1110.135514621687
 20
126.3317223061678
 30
0.0
 11
1105.827057623492
 21
130.6226180324668
 31
0.0
  0
ARC
  5
348
  8
回07-ﾃｰﾙ
  6
BYBLOCK
 62
     7
 10
1110.841175904778
 20
118.7902716365224
 30
0.0
 40
1.0
 50
90.0
 51
134.8829928953902
  0
ARC
  5
349
  8
回07-ﾃｰﾙ
  6
BYBLOCK
 62
     7
 10
1105.1213963404
 20
115.9164745709327
 30
0.0
 40
1.0
 50
270.0256057119327
 51
314.8829928953901
  0
ARC
  5
34A
  8
回07-ﾃｰﾙ
  6
BYBLOCK
 62
     7
 10
1102.429913336
 20
112.9152714367992
 30
0.0
 40
2.0
 50
90.02560571193274
 51
148.2116693829511
  0
LINE
  5
34B
  8
回07-ﾃｰﾙ
  6
BYBLOCK
 62
     7
 10
1110.135514621687
 20
119.498820966877
 30
0.0
 11
1105.827057623492
 21
115.2079252405781
 31
0.0
  0
LINE
  5
34C
  8
回07-ﾃｰﾙ
  6
BYBLOCK
 62
     7
 10
1105.121843244366
 20
114.9164746707945
 30
0.0
 11
1102.429019528068
 21
114.9152712370762
 31
0.0
  0
LINE
  5
34D
  8
回07-ﾃｰﾙ
  6
BYBLOCK
 62
     7
 10
1240.729913336
 20
120.2902716365222
 30
0.0
 11
1240.729913336
 21
125.5402716365222
 31
0.0
  0
ARC
  5
34E
  8
回07-ﾃｰﾙ
  6
BYBLOCK
 62
     7
 10
1240.229913336
 20
125.5402716365224
 30
0.0
 40
0.5
 50
0.0
 51
90.0
  0
ARC
  5
34F
  8
回07-ﾃｰﾙ
  6
BYBLOCK
 62
     7
 10
1240.229913336
 20
120.2902716365224
 30
0.0
 40
0.5
 50
270.0
 51
0.0
  0
LINE
  5
350
  8
回07-ﾃｰﾙ
  6
BYBLOCK
 62
     7
 10
1240.229913336
 20
126.0402716365224
 30
0.0
 11
1110.841175904778
 21
126.0402716365224
 31
0.0
  0
LINE
  5
351
  8
回07-ﾃｰﾙ
  6
BYBLOCK
 62
     7
 10
1240.229913336
 20
119.7902716365222
 30
0.0
 11
1110.841175904778
 21
119.7902716365222
 31
0.0
  0
LINE
  5
352
  8
回07-寸法
  6
CENTER2
 62
     5
 10
900.4299133359999
 20
286.1152716365225
 30
0.0
 11
900.4299133359999
 21
-40.28472836347757
 31
0.0
  0
LINE
  5
353
  8
回07-寸法
  6
CENTER2
 62
     5
 10
700.129913336
 20
122.9152716365224
 30
0.0
 11
1100.729913336
 21
122.9152716365224
 31
0.0
  0
POLYLINE
  5
354
  8
回04-下接
  6
CONTINUOUS
 62
     7
 66
     1
 10
0.0
 20
0.0
 30
0.0
 70
     1
  0
VERTEX
  5
7A0
  8
回04-下接
  6
CONTINUOUS
 62
     7
 10
700.129913336
 20
-40.28472836347757
 30
0.0
  0
VERTEX
  5
7A2
  8
回04-下接
  6
CONTINUOUS
 62
     7
 10
1100.729913336
 20
-40.28472836347757
 30
0.0
  0
VERTEX
  5
7A3
  8
回04-下接
  6
CONTINUOUS
 62
     7
 10
1100.729913336
 20
286.1152716365225
 30
0.0
  0
VERTEX
  5
7A4
  8
回04-下接
  6
CONTINUOUS
 62
     7
 10
700.129913336
 20
286.1152716365225
 30
0.0
  0
SEQEND
  5
7A1
  8
回07-寸法
  6
CONTINUOUS
 62
     5
  0
INSERT
  5
358
  8
回08-記事
  6
CONTINUOUS
 62
     8
 66
     1
  2
*X434343
 10
0.0
 20
0.0
 30
0.0
1001
ACAD
1000
HATCH
1002
{
1070
    19
1000
ANSI31
1040
1.0
1040
0.0
1000
ASC_BOUNDS
1070
     1
1070
     2
1070
     1
1005
359
1000
ASC_SEEDPOINT
1011
1746.593834857032
1021
-221.3034663847332
1031
0.0
1000
R14_HATCH_DATA
1000
358
1011
1.0
1021
0.0
1031
0.0
1011
0.0
1021
1.0
1031
0.0
1011
0.0
1021
0.0
1031
1.0
1040
0.0
1010
0.0
1020
0.0
1030
1.0
1000
ANSI31
1070
     0
1070
     1
1071
        1
1071
        1
1071
        4
1070
     1
1040
1096.429913336
1040
129.9140686022506
1040
1105.229913336
1040
129.9140686022506
1070
     1
1040
1105.229913336
1040
129.9140686022506
1040
1105.229913336
1040
115.9164746707943
1070
     1
1040
1105.229913336
1040
115.9164746707943
1040
1096.429913336
1040
115.9164746707943
1070
     1
1040
1096.429913336
1040
115.9164746707943
1040
1096.429913336
1040
129.9140686022506
1071
        1
1005
359
1070
     0
1070
     1
1040
0.0
1040
1.0
1070
     0
1070
     1
1040
0.7853981633974483
1040
1746.593834857032
1040
-221.3034663847332
1040
-2.245064030267287
1040
2.245064030267287
1070
     0
1071
        1
1040
1746.593834857032
1040
-221.3034663847332
1040
0.0
1002
}
  0
SEQEND
  5
422
  8
回07-寸法
  6
CONTINUOUS
 62
     5
  0
POLYLINE
  5
359
  8
回08-記事
  6
DASHED2
 62
     8
 66
     1
 10
0.0
 20
0.0
 30
0.0
 70
     1
1001
ACAD
1000
ASC_BOUNDS
1002
{
1070
    19
1005
358
1002
}
  0
VERTEX
  5
7A5
  8
回08-記事
  6
DASHED2
 62
     8
 10
1096.429913336
 20
129.9140686022506
 30
0.0
  0
VERTEX
  5
7A7
  8
回08-記事
  6
DASHED2
 62
     8
 10
1105.229913336
 20
129.9140686022506
 30
0.0
  0
VERTEX
  5
7A8
  8
回08-記事
  6
DASHED2
 62
     8
 10
1105.229913336
 20
115.9164746707943
 30
0.0
  0
VERTEX
  5
7A9
  8
回08-記事
  6
DASHED2
 62
     8
 10
1096.429913336
 20
115.9164746707943
 30
0.0
  0
SEQEND
  5
7A6
  8
回07-寸法
  6
CONTINUOUS
 62
     5
  0
TEXT
  5
35A
  8
回91-枠英1
 10
1393.35938964564
 20
315.6518723847851
 30
0.0
 40
4.0
  1
1
  0
TEXT
  5
35E
  8
回91-枠英1
 10
1350.684353947633
 20
363.2356082149771
 30
0.0
 40
4.0
  1
J
  0
LINE
  5
35F
  8
回91-枠英1
 10
1396.95496864198
 20
272.8631850889258
 30
0.0
 11
1391.95496864198
 21
272.8631850889258
 31
0.0
  0
TEXT
  5
360
  8
回91-枠英1
 10
1393.057890942338
 20
225.6518723847851
 30
0.0
 40
4.0
  1
2
  0
LINE
  5
361
  8
回91-枠英1
 10
1396.95496864198
 20
182.8631850889258
 30
0.0
 11
1391.95496864198
 21
182.8631850889258
 31
0.0
  0
TEXT
  5
362
  8
回91-枠英1
 10
1393.052410098137
 20
135.651872384785
 30
0.0
 40
4.0
  1
3
  0
LINE
  5
363
  8
回91-枠英1
 10
1396.95496864198
 20
92.86318508892575
 30
0.0
 11
1391.95496864198
 21
92.86318508892575
 31
0.0
  0
TEXT
  5
364
  8
回91-枠英1
 10
1392.979317978056
 20
45.65187238478507
 30
0.0
 40
4.0
  1
4
  0
LINE
  5
365
  8
回91-枠英1
 10
1311.95496864198
 20
367.8631850889258
 30
0.0
 11
1311.95496864198
 21
362.8631850889258
 31
0.0
  0
TEXT
  5
366
  8
回91-枠英1
 10
1270.684353947633
 20
363.2356082149771
 30
0.0
 40
4.0
  1
I
  0
LINE
  5
367
  8
回91-枠英1
 10
1231.95496864198
 20
367.8631850889258
 30
0.0
 11
1231.95496864198
 21
362.8631850889258
 31
0.0
  0
TEXT
  5
368
  8
回91-枠英1
 10
1190.684353947633
 20
363.2356082149771
 30
0.0
 40
4.0
  1
H
  0
LINE
  5
369
  8
回91-枠英1
 10
1151.95496864198
 20
367.8631850889258
 30
0.0
 11
1151.95496864198
 21
362.8631850889258
 31
0.0
  0
TEXT
  5
36A
  8
回91-枠英1
 10
1110.684353947632
 20
363.2356082149771
 30
0.0
 40
4.0
  1
G
  0
LINE
  5
36B
  8
回91-枠英1
 10
1396.95496864198
 20
2.863185088925773
 30
0.0
 11
1391.95496864198
 21
2.863185088925773
 31
0.0
  0
TEXT
  5
36C
  8
回91-枠英1
 10
1392.979317978056
 20
-44.34812761521492
 30
0.0
 40
4.0
  1
5
  0
LINE
  5
36D
  8
回91-枠英1
 10
1396.95496864198
 20
-87.13681491107422
 30
0.0
 11
1391.95496864198
 21
-87.13681491107422
 31
0.0
  0
TEXT
  5
36E
  8
回91-枠英1
 10
1392.979317978056
 20
-134.3481276152149
 30
0.0
 40
4.0
  1
6
  0
TEXT
  5
36F
  8
回91-枠英1
 10
1350.684353947633
 20
-181.764391785023
 30
0.0
 40
4.0
  1
J
  0
LINE
  5
370
  8
回91-枠英1
 10
1311.95496864198
 20
-177.1368149110742
 30
0.0
 11
1311.95496864198
 21
-182.1368149110741
 31
0.0
  0
TEXT
  5
371
  8
回91-枠英1
 10
1270.684353947633
 20
-181.764391785023
 30
0.0
 40
4.0
  1
I
  0
LINE
  5
372
  8
回91-枠英1
 10
1231.95496864198
 20
-177.1368149110742
 30
0.0
 11
1231.95496864198
 21
-182.1368149110741
 31
0.0
  0
TEXT
  5
373
  8
回91-枠英1
 10
1190.684353947633
 20
-181.764391785023
 30
0.0
 40
4.0
  1
H
  0
LINE
  5
374
  8
回91-枠英1
 10
1151.95496864198
 20
-177.1368149110742
 30
0.0
 11
1151.95496864198
 21
-182.1368149110741
 31
0.0
  0
TEXT
  5
375
  8
回91-枠英1
 10
1110.684353947632
 20
-181.764391785023
 30
0.0
 40
4.0
  1
G
  0
LINE
  5
376
  8
回91-枠英1
 10
1391.95496864198
 20
362.8631850889258
 30
0.0
 11
1391.95496864198
 21
-177.1368149110742
 31
0.0
  0
LINE
  5
377
  8
回91-枠英1
 10
1396.95496864198
 20
-182.1368149110741
 30
0.0
 11
1396.95496864198
 21
367.8631850889258
 31
0.0
  0
LINE
  5
378
  8
回91-枠英1
 10
1071.95496864198
 20
367.8631850889258
 30
0.0
 11
1071.95496864198
 21
362.8631850889258
 31
0.0
  0
TEXT
  5
379
  8
回91-枠英1
 10
1030.684353947633
 20
363.2356082149771
 30
0.0
 40
4.0
  1
F
  0
LINE
  5
37A
  8
回91-枠英1
 10
991.9549686419804
 20
367.8631850889258
 30
0.0
 11
991.9549686419804
 21
362.8631850889258
 31
0.0
  0
TEXT
  5
37B
  8
回91-枠英1
 10
950.6843539476328
 20
363.2356082149771
 30
0.0
 40
4.0
  1
E
  0
LINE
  5
37C
  8
回91-枠英1
 10
911.9549686419805
 20
367.8631850889258
 30
0.0
 11
911.9549686419805
 21
362.8631850889258
 31
0.0
  0
TEXT
  5
37D
  8
回91-枠英1
 10
870.6843539476329
 20
363.2356082149771
 30
0.0
 40
4.0
  1
D
  0
LINE
  5
37E
  8
回91-枠英1
 10
831.9549686419804
 20
367.8631850889258
 30
0.0
 11
831.9549686419804
 21
362.8631850889258
 31
0.0
  0
TEXT
  5
37F
  8
回91-枠英1
 10
790.6843539476327
 20
363.2356082149771
 30
0.0
 40
4.0
  1
C
  0
LINE
  5
380
  8
回91-枠英1
 10
751.9549686419805
 20
367.8631850889258
 30
0.0
 11
751.9549686419805
 21
362.8631850889258
 31
0.0
  0
TEXT
  5
381
  8
回91-枠英1
 10
710.6843539476328
 20
363.2356082149771
 30
0.0
 40
4.0
  1
B
  0
LINE
  5
382
  8
回91-枠英1
 10
671.9549686419805
 20
367.8631850889258
 30
0.0
 11
671.9549686419805
 21
362.8631850889258
 31
0.0
  0
TEXT
  5
383
  8
回91-枠英1
 10
630.6843539476329
 20
363.2356082149771
 30
0.0
 40
4.0
  1
A
  0
TEXT
  5
384
  8
回91-枠英1
 10
588.3593896456396
 20
315.6518723847851
 30
0.0
 40
4.0
  1
1
  0
LINE
  5
385
  8
回91-枠英1
 10
591.9549686419805
 20
272.8631850889258
 30
0.0
 11
586.9549686419802
 21
272.8631850889258
 31
0.0
  0
TEXT
  5
386
  8
回91-枠英1
 10
588.057890942338
 20
225.6518723847851
 30
0.0
 40
4.0
  1
2
  0
LINE
  5
387
  8
回91-枠英1
 10
591.9549686419805
 20
182.8631850889258
 30
0.0
 11
586.9549686419802
 21
182.8631850889258
 31
0.0
  0
TEXT
  5
388
  8
回91-枠英1
 10
588.0524100981373
 20
135.651872384785
 30
0.0
 40
4.0
  1
3
  0
LINE
  5
389
  8
回91-枠英1
 10
591.9549686419805
 20
92.86318508892575
 30
0.0
 11
586.9549686419802
 21
92.86318508892575
 31
0.0
  0
TEXT
  5
38A
  8
回91-枠英1
 10
587.9793179780561
 20
45.65187238478507
 30
0.0
 40
4.0
  1
4
  0
LINE
  5
38B
  8
回91-枠英1
 10
1071.95496864198
 20
-177.1368149110742
 30
0.0
 11
1071.95496864198
 21
-182.1368149110741
 31
0.0
  0
TEXT
  5
38C
  8
回91-枠英1
 10
1030.684353947633
 20
-181.764391785023
 30
0.0
 40
4.0
  1
F
  0
LINE
  5
38D
  8
回91-枠英1
 10
991.9549686419804
 20
-177.1368149110742
 30
0.0
 11
991.9549686419804
 21
-182.1368149110741
 31
0.0
  0
TEXT
  5
38E
  8
回91-枠英1
 10
950.6843539476328
 20
-181.764391785023
 30
0.0
 40
4.0
  1
E
  0
LINE
  5
38F
  8
回91-枠英1
 10
911.9549686419805
 20
-177.1368149110742
 30
0.0
 11
911.9549686419805
 21
-182.1368149110741
 31
0.0
  0
TEXT
  5
390
  8
回91-枠英1
 10
870.6843539476329
 20
-181.764391785023
 30
0.0
 40
4.0
  1
D
  0
LINE
  5
391
  8
回91-枠英1
 10
831.9549686419804
 20
-177.1368149110742
 30
0.0
 11
831.9549686419804
 21
-182.1368149110741
 31
0.0
  0
TEXT
  5
392
  8
回91-枠英1
 10
790.6843539476327
 20
-181.764391785023
 30
0.0
 40
4.0
  1
C
  0
LINE
  5
393
  8
回91-枠英1
 10
751.9549686419805
 20
-177.1368149110742
 30
0.0
 11
751.9549686419805
 21
-182.1368149110741
 31
0.0
  0
TEXT
  5
394
  8
回91-枠英1
 10
710.6843539476328
 20
-181.764391785023
 30
0.0
 40
4.0
  1
B
  0
LINE
  5
395
  8
回91-枠英1
 10
591.9549686419805
 20
2.863185088925773
 30
0.0
 11
586.9549686419802
 21
2.863185088925773
 31
0.0
  0
TEXT
  5
396
  8
回91-枠英1
 10
587.9793179780561
 20
-44.34812761521492
 30
0.0
 40
4.0
  1
5
  0
LINE
  5
397
  8
回91-枠英1
 10
591.9549686419805
 20
-87.13681491107422
 30
0.0
 11
586.9549686419802
 21
-87.13681491107422
 31
0.0
  0
LINE
  5
398
  8
回91-枠英1
 10
671.9549686419805
 20
-177.1368149110742
 30
0.0
 11
671.9549686419805
 21
-182.1368149110741
 31
0.0
  0
TEXT
  5
399
  8
回91-枠英1
 10
630.6843539476329
 20
-181.764391785023
 30
0.0
 40
4.0
  1
A
  0
TEXT
  5
39A
  8
回91-枠英1
 10
587.9793179780561
 20
-134.3481276152149
 30
0.0
 40
4.0
  1
6
  0
LINE
  5
39B
  8
回91-枠英1
 10
591.9549686419805
 20
362.8631850889258
 30
0.0
 11
591.9549686419805
 21
-177.1368149110742
 31
0.0
  0
LINE
  5
39C
  8
回91-枠英1
 10
586.9549686419802
 20
-182.1368149110741
 30
0.0
 11
586.9549686419802
 21
367.8631850889258
 31
0.0
  0
LINE
  5
39D
  8
回91-枠英1
 10
591.9549686419805
 20
-177.1368149110742
 30
0.0
 11
1391.95496864198
 21
-177.1368149110742
 31
0.0
  0
LINE
  5
39E
  8
回91-枠英1
 10
1396.95496864198
 20
-182.1368149110741
 30
0.0
 11
586.9549686419802
 21
-182.1368149110741
 31
0.0
  0
LINE
  5
39F
  8
回91-枠英1
 10
591.9549686419805
 20
362.8631850889258
 30
0.0
 11
1391.95496864198
 21
362.8631850889258
 31
0.0
  0
LINE
  5
3A0
  8
回91-枠英1
 10
1396.95496864198
 20
367.8631850889258
 30
0.0
 11
586.9549686419802
 21
367.8631850889258
 31
0.0
  0
ENDSEC
  0
EOF
