  0
SECTION
  2
HEADER
  9
$ACADVER
  1
AC1009
  9
$INSBASE
 10
0.0
 20
0.0
 30
0.0
  9
$EXTMIN
 10
1172.846836236329
 20
29.01812158044271
 30
0.0
  9
$EXTMAX
 10
1982.846836236329
 20
579.0181215804428
 30
0.0
  9
$LIMMIN
 10
0.0
 20
0.0
  9
$LIMMAX
 10
3000.0
 20
2500.0
  9
$ORTHOMODE
 70
     1
  9
$REGENMODE
 70
     1
  9
$FILLMODE
 70
     1
  9
$QTEXTMODE
 70
     0
  9
$MIRRTEXT
 70
     1
  9
$DRAGMODE
 70
     2
  9
$LTSCALE
 40
1.0
  9
$OSMODE
 70
    37
  9
$ATTMODE
 70
     1
  9
$TEXTSIZE
 40
5.0
  9
$TRACEWID
 40
1.0
  9
$TEXTSTYLE
  7
STANDARD
  9
$CLAYER
  8
回09-LCD
  9
$CELTYPE
  6
CONTINUOUS
  9
$CECOLOR
 62
     7
  9
$DIMSCALE
 40
1.0
  9
$DIMASZ
 40
2.0
  9
$DIMEXO
 40
0.0
  9
$DIMDLI
 40
0.0
  9
$DIMRND
 40
0.0
  9
$DIMDLE
 40
0.0
  9
$DIMEXE
 40
1.0
  9
$DIMTP
 40
0.0
  9
$DIMTM
 40
0.0
  9
$DIMTXT
 40
5.0
  9
$DIMCEN
 40
2.0
  9
$DIMTSZ
 40
0.0
  9
$DIMTOL
 70
     0
  9
$DIMLIM
 70
     0
  9
$DIMTIH
 70
     0
  9
$DIMTOH
 70
     0
  9
$DIMSE1
 70
     0
  9
$DIMSE2
 70
     0
  9
$DIMTAD
 70
     3
  9
$DIMZIN
 70
     8
  9
$DIMBLK
  1
OPEN
  9
$DIMASO
 70
     1
  9
$DIMSHO
 70
     1
  9
$DIMPOST
  1

  9
$DIMAPOST
  1

  9
$DIMALT
 70
     1
  9
$DIMALTD
 70
     3
  9
$DIMALTF
 40
0.03937007874016
  9
$DIMLFAC
 40
1.0
  9
$DIMTOFL
 70
     1
  9
$DIMTVP
 40
0.0
  9
$DIMTIX
 70
     0
  9
$DIMSOXD
 70
     0
  9
$DIMSAH
 70
     0
  9
$DIMBLK1
  1

  9
$DIMBLK2
  1

  9
$DIMSTYLE
  2
DMC
  9
$DIMCLRD
 70
     5
  9
$DIMCLRE
 70
     5
  9
$DIMCLRT
 70
     5
  9
$DIMTFAC
 40
0.7
  9
$DIMGAP
 40
0.5
  9
$LUNITS
 70
     2
  9
$LUPREC
 70
     4
  9
$SKETCHINC
 40
1.0
  9
$FILLETRAD
 40
1.0
  9
$AUNITS
 70
     0
  9
$AUPREC
 70
     0
  9
$MENU
  1
.
  9
$ELEVATION
 40
0.0
  9
$PELEVATION
 40
0.0
  9
$THICKNESS
 40
0.0
  9
$LIMCHECK
 70
     0
  9
$BLIPMODE
 70
     0
  9
$CHAMFERA
 40
3.0
  9
$CHAMFERB
 40
3.0
  9
$SKPOLY
 70
     0
  9
$TDCREATE
 40
2451810.404221065
  9
$TDUPDATE
 40
2460221.426506019
  9
$TDINDWG
 40
2.818773819
  9
$TDUSRTIMER
 40
2.818772211
  9
$USRTIMER
 70
     1
  9
$ANGBASE
 50
0.0
  9
$ANGDIR
 70
     0
  9
$PDMODE
 70
     0
  9
$PDSIZE
 40
0.0
  9
$PLINEWID
 40
0.2
  9
$COORDS
 70
     0
  9
$SPLFRAME
 70
     0
  9
$SPLINETYPE
 70
     6
  9
$SPLINESEGS
 70
     8
  9
$ATTDIA
 70
     1
  9
$ATTREQ
 70
     1
  9
$HANDLING
 70
     1
  9
$HANDSEED
  5
73B
  9
$SURFTAB1
 70
     6
  9
$SURFTAB2
 70
     6
  9
$SURFTYPE
 70
     6
  9
$SURFU
 70
     6
  9
$SURFV
 70
     6
  9
$UCSNAME
  2

  9
$UCSORG
 10
0.0
 20
0.0
 30
0.0
  9
$UCSXDIR
 10
1.0
 20
0.0
 30
0.0
  9
$UCSYDIR
 10
0.0
 20
1.0
 30
0.0
  9
$PUCSNAME
  2

  9
$PUCSORG
 10
0.0
 20
0.0
 30
0.0
  9
$PUCSXDIR
 10
1.0
 20
0.0
 30
0.0
  9
$PUCSYDIR
 10
0.0
 20
1.0
 30
0.0
  9
$USERI1
 70
     0
  9
$USERI2
 70
     0
  9
$USERI3
 70
     0
  9
$USERI4
 70
     0
  9
$USERI5
 70
     0
  9
$USERR1
 40
0.0
  9
$USERR2
 40
0.0
  9
$USERR3
 40
0.0
  9
$USERR4
 40
0.0
  9
$USERR5
 40
0.0
  9
$WORLDVIEW
 70
     1
  9
$SHADEDGE
 70
     3
  9
$SHADEDIF
 70
    70
  9
$TILEMODE
 70
     1
  9
$MAXACTVP
 70
    64
  9
$PLIMCHECK
 70
     0
  9
$PEXTMIN
 10
1.000000000000000E+20
 20
1.000000000000000E+20
 30
1.000000000000000E+20
  9
$PEXTMAX
 10
-1.000000000000000E+20
 20
-1.000000000000000E+20
 30
-1.000000000000000E+20
  9
$PLIMMIN
 10
0.0
 20
0.0
  9
$PLIMMAX
 10
420.0
 20
297.0
  9
$UNITMODE
 70
     0
  9
$VISRETAIN
 70
     1
  9
$PLINEGEN
 70
     0
  9
$PSLTSCALE
 70
     1
  0
ENDSEC
  0
SECTION
  2
TABLES
  0
TABLE
  2
VPORT
 70
     1
  0
VPORT
  2
*ACTIVE
 70
     0
 10
0.0
 20
0.0
 11
1.0
 21
1.0
 12
1662.292665253263
 22
155.1017799846059
 13
0.0
 23
0.0
 14
10.0
 24
10.0
 15
10.0
 25
10.0
 16
0.0
 26
0.0
 36
1.0
 17
0.0
 27
0.0
 37
0.0
 40
1192.029433861635
 41
1.002570694087403
 42
50.0
 43
0.0
 44
0.0
 50
0.0
 51
0.0
 71
     0
 72
   500
 73
     1
 74
     1
 75
     0
 76
     0
 77
     0
 78
     0
  0
ENDTAB
  0
TABLE
  2
LTYPE
 70
     4
  0
LTYPE
  2
CONTINUOUS
 70
     0
  3
Solid line
 72
    65
 73
     0
 40
0.0
  0
LTYPE
  2
CENTER2
 70
     0
  3
Center (.5x) ___ _ ___ _ ___ _ ___ _ ___ _ ___
 72
    65
 73
     4
 40
28.575
 49
19.05
 49
-3.174999999999998
 49
3.174999999999998
 49
-3.174999999999998
  0
LTYPE
  2
DASHED2
 70
     0
  3
Dashed (.5x) _ _ _ _ _ _ _ _ _ _ _ _ _ _ _ _ _
 72
    65
 73
     2
 40
9.524999999999996
 49
6.349999999999998
 49
-3.174999999999998
  0
LTYPE
  2
PHANTOM2
 70
     0
  3
Phantom (.5x) ___ _ _ ___ _ _ ___ _ _ ___ _ _
 72
    65
 73
     6
 40
31.75
 49
15.875
 49
-3.174999999999998
 49
3.174999999999998
 49
-3.174999999999998
 49
3.174999999999998
 49
-3.174999999999998
  0
ENDTAB
  0
TABLE
  2
LAYER
 70
    10
  0
LAYER
  2
0
 70
     0
 62
     7
  6
CONTINUOUS
  0
LAYER
  2
DEFPOINTS
 70
     0
 62
     7
  6
CONTINUOUS
  0
LAYER
  2
回04-下接
 70
     0
 62
     7
  6
CONTINUOUS
  0
LAYER
  2
回05-ﾃｰﾙ
 70
     0
 62
     7
  6
CONTINUOUS
  0
LAYER
  2
回07-寸法
 70
     0
 62
     7
  6
CONTINUOUS
  0
LAYER
  2
回08-記事
 70
     0
 62
     7
  6
CONTINUOUS
  0
LAYER
  2
回09-LCD
 70
     0
 62
     7
  6
CONTINUOUS
  0
LAYER
  2
回91-枠英1
 70
     0
 62
     7
  6
CONTINUOUS
  0
LAYER
  2
回91-枠英2
 70
     0
 62
     7
  6
CONTINUOUS
  0
LAYER
  2
回03-記事
 70
     0
 62
     7
  6
CONTINUOUS
  0
ENDTAB
  0
TABLE
  2
STYLE
 70
     2
  0
STYLE
  2
STANDARD
 70
     0
 40
6.0
 41
1.0
 50
0.0
 71
     0
 42
5.0
  3
isocp.shx
  4
bigfont.shx
  0
STYLE
  2
ANNOTATIVE
 70
     0
 40
0.0
 41
1.0
 50
0.0
 71
     0
 42
0.2
  3
txt.shx
  4

  0
ENDTAB
  0
TABLE
  2
VIEW
 70
     0
  0
ENDTAB
  0
TABLE
  2
UCS
 70
     0
  0
ENDTAB
  0
TABLE
  2
APPID
 70
     5
  0
APPID
  2
ACAD
 70
     0
  0
APPID
  2
ACADANNOTATIVE
 70
     0
  0
APPID
  2
ACAD_DSTYLE_DIMJAG
 70
     0
  0
APPID
  2
ACAD_DSTYLE_DIMTALN
 70
     0
  0
APPID
  2
ACAD_NAV_VCDISPLAY
 70
     0
  0
ENDTAB
  0
TABLE
  2
DIMSTYLE
 70
     1
  0
DIMSTYLE
  2
DMC
 70
     0
  3

  4

  5
OPEN
  6

  7

 40
1.0
 41
2.0
 42
0.0
 43
0.0
 44
1.0
 45
0.0
 46
0.0
 47
0.0
 48
0.0
140
6.0
141
2.0
142
0.0
143
0.03937007874016
144
1.0
145
0.0
146
0.7
147
0.5
 71
     0
 72
     0
 73
     0
 74
     0
 75
     0
 76
     0
 77
     3
 78
     8
170
     1
171
     3
172
     1
173
     0
174
     0
175
     0
176
     5
177
     5
178
     5
  0
ENDTAB
  0
ENDSEC
  0
SECTION
  2
BLOCKS
  0
BLOCK
  8
0
  2
$MODEL_SPACE
 70
     0
 10
0.0
 20
0.0
 30
0.0
  3
$MODEL_SPACE
  1

  0
ENDBLK
  8
0
  5
22
  0
BLOCK
 67
     1
  8
0
  2
$PAPER_SPACE
 70
     0
 10
0.0
 20
0.0
 30
0.0
  3
$PAPER_SPACE
  1

  0
ENDBLK
  5
27
 67
     1
  8
0
  0
BLOCK
  8
0
  2
_OPEN
 70
     0
 10
0.0
 20
0.0
 30
0.0
  3
_OPEN
  1

  0
LINE
  5
5C1
  8
0
  6
BYBLOCK
 62
     0
 10
-1.0
 20
0.166667
 30
0.0
 11
0.0
 21
0.0
 31
0.0
  0
LINE
  5
5C2
  8
0
  6
BYBLOCK
 62
     0
 10
-1.0
 20
-0.166667
 30
0.0
 11
0.0
 21
0.0
 31
0.0
  0
LINE
  5
5C3
  8
0
  6
BYBLOCK
 62
     0
 10
0.0
 20
0.0
 30
0.0
 11
-1.0
 21
0.0
 31
0.0
  0
LINE
  5
14
  8
0
  6
CONTINUOUS
 62
     0
 10
-1.0
 20
0.1666666666666666
 30
0.0
 11
0.0
 21
0.0
 31
0.0
  0
LINE
  5
15
  8
0
  6
CONTINUOUS
 62
     0
 10
-1.0
 20
-0.1666666666666666
 30
0.0
 11
0.0
 21
0.0
 31
0.0
  0
LINE
  5
16
  8
0
  6
CONTINUOUS
 62
     0
 10
0.0
 20
0.0
 30
0.0
 11
-1.0
 21
0.0
 31
0.0
  0
ENDBLK
  5
17
  8
0
  0
BLOCK
  8
0
  2
*D11
 70
     1
 10
0.0
 20
0.0
 30
0.0
  3
*D11
  1

  0
LINE
  5
403
  8
回07-寸法
  6
CONTINUOUS
 62
     5
 10
1348.876329083612
 20
503.9013586260682
 30
0.0
 11
1348.876329083612
 21
516.3996626972119
 31
0.0
  0
LINE
  5
404
  8
回07-寸法
  6
CONTINUOUS
 62
     5
 10
1576.376329083612
 20
503.9013586260679
 30
0.0
 11
1576.376329083612
 21
516.3996626972119
 31
0.0
  0
LINE
  5
405
  8
回07-寸法
  6
CONTINUOUS
 62
     5
 10
1350.876329083612
 20
515.3996626972119
 30
0.0
 11
1574.376329083612
 21
515.3996626972119
 31
0.0
  0
INSERT
  5
406
  8
回07-寸法
  6
CONTINUOUS
 62
     5
  2
_OPEN
 10
1348.876329083612
 20
515.3996626972119
 30
0.0
 41
2.0
 42
2.0
 43
2.0
 50
180.0
  0
INSERT
  5
407
  8
回07-寸法
  6
CONTINUOUS
 62
     5
  2
_OPEN
 10
1576.376329083612
 20
515.3996626972119
 30
0.0
 41
2.0
 42
2.0
 43
2.0
  0
TEXT
  5
408
  8
回07-寸法
  6
CONTINUOUS
 62
     5
 10
1386.778748032736
 20
516.1996626972121
 30
0.0
 40
6.0
  1
227.5 [8.957]         (Active area Center)
  0
POINT
  5
409
  8
DEFPOINTS
  6
CONTINUOUS
 62
     0
 10
1348.876329083612
 20
503.9013586260682
 30
0.0
  0
POINT
  5
40A
  8
DEFPOINTS
  6
CONTINUOUS
 62
     0
 10
1576.376329083612
 20
503.9013586260679
 30
0.0
  0
POINT
  5
40B
  8
DEFPOINTS
  6
CONTINUOUS
 62
     0
 10
1576.376329083612
 20
515.3996626972119
 30
0.0
  0
ENDBLK
  5
40C
  8
0
 62
     5
  0
BLOCK
  8
0
  2
*D22
 70
     1
 10
0.0
 20
0.0
 30
0.0
  3
*D22
  1

  0
LINE
  5
3F6
  8
回07-寸法
  6
CONTINUOUS
 62
     5
 10
1361.376329083612
 20
490.9013586260679
 30
0.0
 11
1361.376329083612
 21
525.9059898030973
 31
0.0
  0
LINE
  5
3F7
  8
回07-寸法
  6
CONTINUOUS
 62
     5
 10
1791.376329083612
 20
490.9013586260679
 30
0.0
 11
1791.376329083612
 21
525.9059898030973
 31
0.0
  0
LINE
  5
3F8
  8
回07-寸法
  6
CONTINUOUS
 62
     5
 10
1363.376329083612
 20
524.9059898030973
 30
0.0
 11
1789.376329083612
 21
524.9059898030973
 31
0.0
  0
INSERT
  5
3F9
  8
回07-寸法
  6
CONTINUOUS
 62
     5
  2
_OPEN
 10
1361.376329083612
 20
524.9059898030973
 30
0.0
 41
2.0
 42
2.0
 43
2.0
 50
180.0
  0
INSERT
  5
3FA
  8
回07-寸法
  6
CONTINUOUS
 62
     5
  2
_OPEN
 10
1791.376329083612
 20
524.9059898030973
 30
0.0
 41
2.0
 42
2.0
 43
2.0
  0
TEXT
  5
3FB
  8
回07-寸法
  6
CONTINUOUS
 62
     5
 10
1512.694771085839
 20
525.7057501786881
 30
0.0
 40
6.0
  1
430 [16.929]         (Active area)
1001
ACAD
1000
MTEXTBEGIN
1070
    73
1070
     1
1070
    44
1040
1.0
1070
    74
1070
     0
1000
MTEXTEND
  0
POINT
  5
3FC
  8
DEFPOINTS
  6
CONTINUOUS
 62
     0
 10
1361.376329083612
 20
490.9013586260679
 30
0.0
  0
POINT
  5
3FD
  8
DEFPOINTS
  6
CONTINUOUS
 62
     0
 10
1791.376329083612
 20
490.9013586260679
 30
0.0
  0
POINT
  5
3FE
  8
DEFPOINTS
  6
CONTINUOUS
 62
     0
 10
1791.376329083612
 20
524.9059898030973
 30
0.0
  0
ENDBLK
  5
3FF
  8
0
 62
     5
  0
BLOCK
  8
0
  2
*D33
 70
     1
 10
0.0
 20
0.0
 30
0.0
  3
*D33
  1

  0
LINE
  5
3E9
  8
回07-寸法
  6
CONTINUOUS
 62
     5
 10
1796.476329083612
 20
495.9013586260679
 30
0.0
 11
1796.476329083612
 21
534.778534708852
 31
0.0
  0
LINE
  5
3EA
  8
回07-寸法
  6
CONTINUOUS
 62
     5
 10
1356.276329083613
 20
495.9013586260679
 30
0.0
 11
1356.276329083613
 21
534.778534708852
 31
0.0
  0
LINE
  5
3EB
  8
回07-寸法
  6
CONTINUOUS
 62
     5
 10
1794.476329083612
 20
533.7785347088519
 30
0.0
 11
1358.276329083613
 21
533.7785347088519
 31
0.0
  0
INSERT
  5
3EC
  8
回07-寸法
  6
CONTINUOUS
 62
     5
  2
_OPEN
 10
1796.476329083612
 20
533.7785347088519
 30
0.0
 41
2.0
 42
2.0
 43
2.0
  0
INSERT
  5
3ED
  8
回07-寸法
  6
CONTINUOUS
 62
     5
  2
_OPEN
 10
1356.276329083613
 20
533.7785347088519
 30
0.0
 41
2.0
 42
2.0
 43
2.0
 50
180.0
  0
TEXT
  5
3EE
  8
回07-寸法
  6
CONTINUOUS
 62
     5
 10
1509.396606742251
 20
535.887265768975
 30
0.0
 40
6.0
  1
440.2 [17.331]         (Viewing area)
1001
ACAD
1000
MTEXTBEGIN
1070
    73
1070
     1
1070
    44
1040
1.0
1070
    74
1070
     0
1000
MTEXTEND
  0
POINT
  5
3EF
  8
DEFPOINTS
  6
CONTINUOUS
 62
     0
 10
1796.476329083612
 20
495.9013586260679
 30
0.0
  0
POINT
  5
3F0
  8
DEFPOINTS
  6
CONTINUOUS
 62
     0
 10
1356.276329083613
 20
495.9013586260679
 30
0.0
  0
POINT
  5
3F1
  8
DEFPOINTS
  6
CONTINUOUS
 62
     0
 10
1356.276329083613
 20
533.7785347088519
 30
0.0
  0
ENDBLK
  5
3F2
  8
0
 62
     5
  0
BLOCK
  8
0
  2
*D44
 70
     1
 10
0.0
 20
0.0
 30
0.0
  3
*D44
  1

  0
LINE
  5
3DC
  8
回07-寸法
  6
CONTINUOUS
 62
     5
 10
1348.876329083612
 20
503.9013586260682
 30
0.0
 11
1348.876329083612
 21
560.4103253752108
 31
0.0
  0
LINE
  5
3DD
  8
回07-寸法
  6
CONTINUOUS
 62
     5
 10
1803.876329083613
 20
503.9013586260684
 30
0.0
 11
1803.876329083613
 21
560.4103253752108
 31
0.0
  0
LINE
  5
3DE
  8
回07-寸法
  6
CONTINUOUS
 62
     5
 10
1350.876329083612
 20
559.4103253752108
 30
0.0
 11
1801.876329083613
 21
559.4103253752108
 31
0.0
  0
INSERT
  5
3DF
  8
回07-寸法
  6
CONTINUOUS
 62
     5
  2
_OPEN
 10
1348.876329083612
 20
559.4103253752108
 30
0.0
 41
2.0
 42
2.0
 43
2.0
 50
180.0
  0
INSERT
  5
3E0
  8
回07-寸法
  6
CONTINUOUS
 62
     5
  2
_OPEN
 10
1803.876329083613
 20
559.4103253752108
 30
0.0
 41
2.0
 42
2.0
 43
2.0
  0
INSERT
  5
3E1
  8
回07-寸法
  6
CONTINUOUS
 62
     5
 66
     1
  2
*X4949
 10
0.0
 20
0.0
 30
0.0
  0
SEQEND
  5
517
  8
回09-LCD
  6
CONTINUOUS
 62
     7
  0
POINT
  5
3E2
  8
DEFPOINTS
  6
CONTINUOUS
 62
     0
 10
1348.876329083612
 20
503.9013586260682
 30
0.0
  0
POINT
  5
3E3
  8
DEFPOINTS
  6
CONTINUOUS
 62
     0
 10
1803.876329083613
 20
503.9013586260684
 30
0.0
  0
POINT
  5
3E4
  8
DEFPOINTS
  6
CONTINUOUS
 62
     0
 10
1803.876329083613
 20
559.4103253752108
 30
0.0
  0
ENDBLK
  5
3E5
  8
0
 62
     5
  0
BLOCK
  8
0
  2
*D55
 70
     1
 10
0.0
 20
0.0
 30
0.0
  3
*D55
  1

  0
LINE
  5
3CD
  8
回07-寸法
  6
CONTINUOUS
 62
     5
 10
1361.376329083612
 20
490.9013586260679
 30
0.0
 11
1361.376329083612
 21
525.9059898030973
 31
0.0
  0
LINE
  5
3CE
  8
回07-寸法
  6
CONTINUOUS
 62
     5
 10
1348.876329083612
 20
503.9013586260682
 30
0.0
 11
1348.876329083612
 21
525.9059898030973
 31
0.0
  0
LINE
  5
3CF
  8
回07-寸法
  6
CONTINUOUS
 62
     5
 10
1346.876329083612
 20
524.9059898030973
 30
0.0
 11
1301.118353447775
 21
524.9059898030973
 31
0.0
  0
LINE
  5
3D0
  8
回07-寸法
  6
CONTINUOUS
 62
     5
 10
1361.376329083612
 20
524.9059898030973
 30
0.0
 11
1348.876329083612
 21
524.9059898030973
 31
0.0
  0
LINE
  5
3D1
  8
回07-寸法
  6
CONTINUOUS
 62
     5
 10
1363.376329083612
 20
524.9059898030973
 30
0.0
 11
1365.376329083612
 21
524.9059898030973
 31
0.0
  0
INSERT
  5
3D2
  8
回07-寸法
  6
CONTINUOUS
 62
     5
  2
_OPEN
 10
1361.376329083612
 20
524.9059898030973
 30
0.0
 41
2.0
 42
2.0
 43
2.0
 50
180.0
  0
INSERT
  5
3D3
  8
回07-寸法
  6
CONTINUOUS
 62
     5
  2
_OPEN
 10
1348.876329083612
 20
524.9059898030973
 30
0.0
 41
2.0
 42
2.0
 43
2.0
  0
TEXT
  5
3D4
  8
回07-寸法
  6
CONTINUOUS
 62
     5
 10
1300.718353447775
 20
525.7059898030972
 30
0.0
 40
6.0
  1
12.5 [0.492]
  0
POINT
  5
3D5
  8
DEFPOINTS
  6
CONTINUOUS
 62
     0
 10
1361.376329083612
 20
490.9013586260679
 30
0.0
  0
POINT
  5
3D6
  8
DEFPOINTS
  6
CONTINUOUS
 62
     0
 10
1348.876329083612
 20
503.9013586260682
 30
0.0
  0
POINT
  5
3D7
  8
DEFPOINTS
  6
CONTINUOUS
 62
     0
 10
1348.876329083612
 20
524.9059898030973
 30
0.0
  0
ENDBLK
  5
3D8
  8
0
 62
     5
  0
BLOCK
  8
0
  2
*D66
 70
     1
 10
0.0
 20
0.0
 30
0.0
  3
*D66
  1

  0
LINE
  5
3BE
  8
回07-寸法
  6
CONTINUOUS
 62
     5
 10
1356.276329083613
 20
495.9013586260679
 30
0.0
 11
1356.276329083613
 21
534.778534708852
 31
0.0
  0
LINE
  5
3BF
  8
回07-寸法
  6
CONTINUOUS
 62
     5
 10
1348.876329083612
 20
503.9013586260682
 30
0.0
 11
1348.876329083612
 21
534.778534708852
 31
0.0
  0
LINE
  5
3C0
  8
回07-寸法
  6
CONTINUOUS
 62
     5
 10
1346.876329083612
 20
533.7785347088519
 30
0.0
 11
1302.607009494115
 21
533.7785347088519
 31
0.0
  0
LINE
  5
3C1
  8
回07-寸法
  6
CONTINUOUS
 62
     5
 10
1356.276329083613
 20
533.7785347088519
 30
0.0
 11
1348.876329083612
 21
533.7785347088519
 31
0.0
  0
LINE
  5
3C2
  8
回07-寸法
  6
CONTINUOUS
 62
     5
 10
1358.276329083613
 20
533.7785347088519
 30
0.0
 11
1360.276329083612
 21
533.7785347088519
 31
0.0
  0
INSERT
  5
3C3
  8
回07-寸法
  6
CONTINUOUS
 62
     5
  2
_OPEN
 10
1356.276329083613
 20
533.7785347088519
 30
0.0
 41
2.0
 42
2.0
 43
2.0
 50
180.0
  0
INSERT
  5
3C4
  8
回07-寸法
  6
CONTINUOUS
 62
     5
  2
_OPEN
 10
1348.876329083612
 20
533.7785347088519
 30
0.0
 41
2.0
 42
2.0
 43
2.0
  0
TEXT
  5
3C5
  8
回07-寸法
  6
CONTINUOUS
 62
     5
 10
1302.207009494115
 20
534.5785347088519
 30
0.0
 40
6.0
  1
7.4 [0.291]
  0
POINT
  5
3C6
  8
DEFPOINTS
  6
CONTINUOUS
 62
     0
 10
1356.276329083613
 20
495.9013586260679
 30
0.0
  0
POINT
  5
3C7
  8
DEFPOINTS
  6
CONTINUOUS
 62
     0
 10
1348.876329083612
 20
503.9013586260682
 30
0.0
  0
POINT
  5
3C8
  8
DEFPOINTS
  6
CONTINUOUS
 62
     0
 10
1348.876329083612
 20
533.7785347088519
 30
0.0
  0
ENDBLK
  5
3C9
  8
0
 62
     5
  0
BLOCK
  8
0
  2
*D77
 70
     1
 10
0.0
 20
0.0
 30
0.0
  3
*D77
  1

  0
LINE
  5
3B1
  8
回07-寸法
  6
CONTINUOUS
 62
     5
 10
1803.876329083612
 20
329.901358626068
 30
0.0
 11
1834.679360251803
 21
329.901358626068
 31
0.0
  0
LINE
  5
3B2
  8
回07-寸法
  6
CONTINUOUS
 62
     5
 10
1803.876329083613
 20
155.901358626068
 30
0.0
 11
1834.679360251803
 21
155.901358626068
 31
0.0
  0
LINE
  5
3B3
  8
回07-寸法
  6
CONTINUOUS
 62
     5
 10
1833.679360251803
 20
327.901358626068
 30
0.0
 11
1833.679360251803
 21
157.901358626068
 31
0.0
  0
INSERT
  5
3B4
  8
回07-寸法
  6
CONTINUOUS
 62
     5
  2
_OPEN
 10
1833.679360251803
 20
329.901358626068
 30
0.0
 41
2.0
 42
2.0
 43
2.0
 50
90.0
  0
INSERT
  5
3B5
  8
回07-寸法
  6
CONTINUOUS
 62
     5
  2
_OPEN
 10
1833.679360251803
 20
155.901358626068
 30
0.0
 41
2.0
 42
2.0
 43
2.0
 50
270.0
  0
TEXT
  5
3B6
  8
回07-寸法
  6
CONTINUOUS
 62
     5
 10
1832.879360251802
 20
169.3826763532563
 30
0.0
 40
6.0
  1
174 [6.850]        (Active area Center)
 50
90.0
  0
POINT
  5
3B7
  8
DEFPOINTS
  6
CONTINUOUS
 62
     0
 10
1803.876329083612
 20
329.901358626068
 30
0.0
  0
POINT
  5
3B8
  8
DEFPOINTS
  6
CONTINUOUS
 62
     0
 10
1803.876329083613
 20
155.901358626068
 30
0.0
  0
POINT
  5
3B9
  8
DEFPOINTS
  6
CONTINUOUS
 62
     0
 10
1833.679360251803
 20
155.901358626068
 30
0.0
  0
ENDBLK
  5
3BA
  8
0
 62
     5
  0
BLOCK
  8
0
  2
*D88
 70
     1
 10
0.0
 20
0.0
 30
0.0
  3
*D88
  1

  0
LINE
  5
3A4
  8
回07-寸法
  6
CONTINUOUS
 62
     5
 10
1791.376329083613
 20
168.9013586260681
 30
0.0
 11
1851.285219676902
 21
168.9013586260681
 31
0.0
  0
LINE
  5
3A5
  8
回07-寸法
  6
CONTINUOUS
 62
     5
 10
1791.376329083613
 20
490.9013586260682
 30
0.0
 11
1851.285219676902
 21
490.9013586260682
 31
0.0
  0
LINE
  5
3A6
  8
回07-寸法
  6
CONTINUOUS
 62
     5
 10
1850.285219676902
 20
170.9013586260681
 30
0.0
 11
1850.285219676902
 21
488.9013586260682
 31
0.0
  0
INSERT
  5
3A7
  8
回07-寸法
  6
CONTINUOUS
 62
     5
  2
_OPEN
 10
1850.285219676902
 20
168.9013586260681
 30
0.0
 41
2.0
 42
2.0
 43
2.0
 50
270.0
  0
INSERT
  5
3A8
  8
回07-寸法
  6
CONTINUOUS
 62
     5
  2
_OPEN
 10
1850.285219676902
 20
490.9013586260682
 30
0.0
 41
2.0
 42
2.0
 43
2.0
 50
90.0
  0
TEXT
  5
3A9
  8
回07-寸法
  6
CONTINUOUS
 62
     5
 10
1849.485219676902
 20
270.0855345831073
 30
0.0
 40
6.0
  1
322 [12.677]         (Active area)
 50
90.0
1001
ACAD
1000
MTEXTBEGIN
1070
    73
1070
     1
1070
    44
1040
1.0
1070
    74
1070
     0
1000
MTEXTEND
  0
POINT
  5
3AA
  8
DEFPOINTS
  6
CONTINUOUS
 62
     0
 10
1791.376329083613
 20
168.9013586260681
 30
0.0
  0
POINT
  5
3AB
  8
DEFPOINTS
  6
CONTINUOUS
 62
     0
 10
1791.376329083613
 20
490.9013586260682
 30
0.0
  0
POINT
  5
3AC
  8
DEFPOINTS
  6
CONTINUOUS
 62
     0
 10
1850.285219676902
 20
490.9013586260682
 30
0.0
  0
ENDBLK
  5
3AD
  8
0
 62
     5
  0
BLOCK
  8
0
  2
*D99
 70
     1
 10
0.0
 20
0.0
 30
0.0
  3
*D99
  1

  0
LINE
  5
397
  8
回07-寸法
  6
CONTINUOUS
 62
     5
 10
1796.476329083613
 20
495.9013586260682
 30
0.0
 11
1862.273018892695
 21
495.9013586260682
 31
0.0
  0
LINE
  5
398
  8
回07-寸法
  6
CONTINUOUS
 62
     5
 10
1796.476329083613
 20
163.9013586260681
 30
0.0
 11
1862.273018892695
 21
163.9013586260681
 31
0.0
  0
LINE
  5
399
  8
回07-寸法
  6
CONTINUOUS
 62
     5
 10
1861.273018892695
 20
493.9013586260681
 30
0.0
 11
1861.273018892695
 21
165.9013586260681
 31
0.0
  0
INSERT
  5
39A
  8
回07-寸法
  6
CONTINUOUS
 62
     5
  2
_OPEN
 10
1861.273018892695
 20
495.9013586260682
 30
0.0
 41
2.0
 42
2.0
 43
2.0
 50
90.0
  0
INSERT
  5
39B
  8
回07-寸法
  6
CONTINUOUS
 62
     5
  2
_OPEN
 10
1861.273018892695
 20
163.9013586260681
 30
0.0
 41
2.0
 42
2.0
 43
2.0
 50
270.0
  0
TEXT
  5
39C
  8
回07-寸法
  6
CONTINUOUS
 62
     5
 10
1859.164287832571
 20
267.2802939099797
 30
0.0
 40
6.0
  1
332 [13.071]         (Viewing area)
 50
90.0
1001
ACAD
1000
MTEXTBEGIN
1070
    73
1070
     1
1070
    44
1040
1.0
1070
    74
1070
     0
1000
MTEXTEND
  0
POINT
  5
39D
  8
DEFPOINTS
  6
CONTINUOUS
 62
     0
 10
1796.476329083613
 20
495.9013586260682
 30
0.0
  0
POINT
  5
39E
  8
DEFPOINTS
  6
CONTINUOUS
 62
     0
 10
1796.476329083613
 20
163.9013586260681
 30
0.0
  0
POINT
  5
39F
  8
DEFPOINTS
  6
CONTINUOUS
 62
     0
 10
1861.273018892695
 20
163.9013586260681
 30
0.0
  0
ENDBLK
  5
3A0
  8
0
 62
     5
  0
BLOCK
  8
0
  2
*D1010
 70
     1
 10
0.0
 20
0.0
 30
0.0
  3
*D1010
  1

  0
LINE
  5
38A
  8
回07-寸法
  6
CONTINUOUS
 62
     5
 10
1803.876329083613
 20
155.901358626068
 30
0.0
 11
1882.167639612456
 21
155.901358626068
 31
0.0
  0
LINE
  5
38B
  8
回07-寸法
  6
CONTINUOUS
 62
     5
 10
1803.876329083613
 20
503.9013586260684
 30
0.0
 11
1882.167639612456
 21
503.9013586260684
 31
0.0
  0
LINE
  5
38C
  8
回07-寸法
  6
CONTINUOUS
 62
     5
 10
1881.167639612456
 20
157.901358626068
 30
0.0
 11
1881.167639612456
 21
501.9013586260683
 31
0.0
  0
INSERT
  5
38D
  8
回07-寸法
  6
CONTINUOUS
 62
     5
  2
_OPEN
 10
1881.167639612456
 20
155.901358626068
 30
0.0
 41
2.0
 42
2.0
 43
2.0
 50
270.0
  0
INSERT
  5
38E
  8
回07-寸法
  6
CONTINUOUS
 62
     5
  2
_OPEN
 10
1881.167639612456
 20
503.9013586260684
 30
0.0
 41
2.0
 42
2.0
 43
2.0
 50
90.0
  0
INSERT
  5
38F
  8
回07-寸法
  6
CONTINUOUS
 62
     5
 66
     1
  2
*X5050
 10
0.0
 20
0.0
 30
0.0
  0
SEQEND
  5
520
  8
回09-LCD
  6
CONTINUOUS
 62
     7
  0
POINT
  5
390
  8
DEFPOINTS
  6
CONTINUOUS
 62
     0
 10
1803.876329083613
 20
155.901358626068
 30
0.0
  0
POINT
  5
391
  8
DEFPOINTS
  6
CONTINUOUS
 62
     0
 10
1803.876329083613
 20
503.9013586260684
 30
0.0
  0
POINT
  5
392
  8
DEFPOINTS
  6
CONTINUOUS
 62
     0
 10
1881.167639612456
 20
503.9013586260684
 30
0.0
  0
ENDBLK
  5
393
  8
0
 62
     5
  0
BLOCK
  8
0
  2
*D1111
 70
     1
 10
0.0
 20
0.0
 30
0.0
  3
*D1111
  1

  0
LINE
  5
37B
  8
回07-寸法
  6
CONTINUOUS
 62
     5
 10
1791.376329083612
 20
168.901358626068
 30
0.0
 11
1851.285219676902
 21
168.901358626068
 31
0.0
  0
LINE
  5
37C
  8
回07-寸法
  6
CONTINUOUS
 62
     5
 10
1803.876329083613
 20
155.901358626068
 30
0.0
 11
1851.285219676902
 21
155.901358626068
 31
0.0
  0
LINE
  5
37D
  8
回07-寸法
  6
CONTINUOUS
 62
     5
 10
1850.285219676902
 20
153.901358626068
 30
0.0
 11
1850.285219676902
 21
114.0354249585221
 31
0.0
  0
LINE
  5
37E
  8
回07-寸法
  6
CONTINUOUS
 62
     5
 10
1850.285219676902
 20
168.901358626068
 30
0.0
 11
1850.285219676902
 21
155.901358626068
 31
0.0
  0
LINE
  5
37F
  8
回07-寸法
  6
CONTINUOUS
 62
     5
 10
1850.285219676902
 20
170.901358626068
 30
0.0
 11
1850.285219676902
 21
172.901358626068
 31
0.0
  0
INSERT
  5
380
  8
回07-寸法
  6
CONTINUOUS
 62
     5
  2
_OPEN
 10
1850.285219676902
 20
168.901358626068
 30
0.0
 41
2.0
 42
2.0
 43
2.0
 50
270.0
  0
INSERT
  5
381
  8
回07-寸法
  6
CONTINUOUS
 62
     5
  2
_OPEN
 10
1850.285219676902
 20
155.901358626068
 30
0.0
 41
2.0
 42
2.0
 43
2.0
 50
90.0
  0
TEXT
  5
382
  8
回07-寸法
  6
CONTINUOUS
 62
     5
 10
1849.485219676902
 20
113.635424958522
 30
0.0
 40
6.0
  1
13 [0.512]     
 50
90.0
  0
POINT
  5
383
  8
DEFPOINTS
  6
CONTINUOUS
 62
     0
 10
1791.376329083612
 20
168.901358626068
 30
0.0
  0
POINT
  5
384
  8
DEFPOINTS
  6
CONTINUOUS
 62
     0
 10
1803.876329083613
 20
155.901358626068
 30
0.0
  0
POINT
  5
385
  8
DEFPOINTS
  6
CONTINUOUS
 62
     0
 10
1850.285219676902
 20
155.901358626068
 30
0.0
  0
ENDBLK
  5
386
  8
0
 62
     5
  0
BLOCK
  8
0
  2
*D1212
 70
     1
 10
0.0
 20
0.0
 30
0.0
  3
*D1212
  1

  0
LINE
  5
36B
  8
回07-寸法
  6
CONTINUOUS
 62
     5
 10
1796.476329083612
 20
163.901358626068
 30
0.0
 11
1862.273018892694
 21
163.901358626068
 31
0.0
  0
LINE
  5
36D
  8
回07-寸法
  6
CONTINUOUS
 62
     5
 10
1803.876329083613
 20
155.901358626068
 30
0.0
 11
1862.273018892694
 21
155.901358626068
 31
0.0
  0
LINE
  5
36E
  8
回07-寸法
  6
CONTINUOUS
 62
     5
 10
1861.273018892694
 20
153.901358626068
 30
0.0
 11
1861.273018892694
 21
117.567237896596
 31
0.0
  0
LINE
  5
36F
  8
回07-寸法
  6
CONTINUOUS
 62
     5
 10
1861.273018892694
 20
163.901358626068
 30
0.0
 11
1861.273018892694
 21
155.901358626068
 31
0.0
  0
LINE
  5
370
  8
回07-寸法
  6
CONTINUOUS
 62
     5
 10
1861.273018892694
 20
165.901358626068
 30
0.0
 11
1861.273018892694
 21
167.901358626068
 31
0.0
  0
INSERT
  5
371
  8
回07-寸法
  6
CONTINUOUS
 62
     5
  2
_OPEN
 10
1861.273018892694
 20
163.901358626068
 30
0.0
 41
2.0
 42
2.0
 43
2.0
 50
270.0
  0
INSERT
  5
372
  8
回07-寸法
  6
CONTINUOUS
 62
     5
  2
_OPEN
 10
1861.273018892694
 20
155.901358626068
 30
0.0
 41
2.0
 42
2.0
 43
2.0
 50
90.0
  0
TEXT
  5
373
  8
回07-寸法
  6
CONTINUOUS
 62
     5
 10
1860.473018892694
 20
117.1672378965959
 30
0.0
 40
6.0
  1
8 [0.315]
 50
90.0
  0
POINT
  5
374
  8
DEFPOINTS
  6
CONTINUOUS
 62
     0
 10
1796.476329083612
 20
163.901358626068
 30
0.0
  0
POINT
  5
375
  8
DEFPOINTS
  6
CONTINUOUS
 62
     0
 10
1803.876329083613
 20
155.901358626068
 30
0.0
  0
POINT
  5
376
  8
DEFPOINTS
  6
CONTINUOUS
 62
     0
 10
1861.273018892694
 20
155.901358626068
 30
0.0
  0
ENDBLK
  5
377
  8
0
 62
     5
  0
BLOCK
  8
0
  2
*D1313
 70
     1
 10
0.0
 20
0.0
 30
0.0
  3
*D1313
  1

  0
LINE
  5
35A
  8
回07-寸法
  6
CONTINUOUS
 62
     5
 10
1803.876329083612
 20
162.901358626068
 30
0.0
 11
1825.756089344131
 21
162.901358626068
 31
0.0
  0
LINE
  5
35B
  8
回07-寸法
  6
CONTINUOUS
 62
     5
 10
1803.876329083613
 20
155.901358626068
 30
0.0
 11
1825.756089344131
 21
155.901358626068
 31
0.0
  0
LINE
  5
35C
  8
回07-寸法
  6
CONTINUOUS
 62
     5
 10
1824.756089344131
 20
153.901358626068
 30
0.0
 11
1824.756089344131
 21
116.7060830355162
 31
0.0
  0
LINE
  5
35D
  8
回07-寸法
  6
CONTINUOUS
 62
     5
 10
1824.756089344131
 20
162.901358626068
 30
0.0
 11
1824.756089344131
 21
155.901358626068
 31
0.0
  0
LINE
  5
35E
  8
回07-寸法
  6
CONTINUOUS
 62
     5
 10
1824.756089344131
 20
164.901358626068
 30
0.0
 11
1824.756089344131
 21
166.901358626068
 31
0.0
  0
INSERT
  5
35F
  8
回07-寸法
  6
CONTINUOUS
 62
     5
  2
_OPEN
 10
1824.756089344131
 20
162.901358626068
 30
0.0
 41
2.0
 42
2.0
 43
2.0
 50
270.0
  0
INSERT
  5
360
  8
回07-寸法
  6
CONTINUOUS
 62
     5
  2
_OPEN
 10
1824.756089344131
 20
155.901358626068
 30
0.0
 41
2.0
 42
2.0
 43
2.0
 50
90.0
  0
TEXT
  5
361
  8
回07-寸法
  6
CONTINUOUS
 62
     5
 10
1823.956089344131
 20
116.3037208307919
 30
0.0
 40
6.0
  1
(7 [0.276])
 50
90.0
  0
POINT
  5
362
  8
DEFPOINTS
  6
CONTINUOUS
 62
     0
 10
1803.876329083612
 20
162.901358626068
 30
0.0
  0
POINT
  5
363
  8
DEFPOINTS
  6
CONTINUOUS
 62
     0
 10
1803.876329083613
 20
155.901358626068
 30
0.0
  0
POINT
  5
364
  8
DEFPOINTS
  6
CONTINUOUS
 62
     0
 10
1824.756089344131
 20
155.901358626068
 30
0.0
  0
ENDBLK
  5
365
  8
0
 62
     5
  0
BLOCK
  8
0
  2
*D1414
 70
     1
 10
0.0
 20
0.0
 30
0.0
  3
*D1414
  1

  0
LINE
  5
34B
  8
回07-寸法
  6
CONTINUOUS
 62
     5
 10
1803.876329083613
 20
162.9013586260681
 30
0.0
 11
1818.67869779908
 21
162.9013586260681
 31
0.0
  0
LINE
  5
34C
  8
回07-寸法
  6
CONTINUOUS
 62
     5
 10
1803.876329083613
 20
164.9013586260681
 30
0.0
 11
1818.67869779908
 21
164.9013586260681
 31
0.0
  0
LINE
  5
34D
  8
回07-寸法
  6
CONTINUOUS
 62
     5
 10
1817.67869779908
 20
160.9013586260681
 30
0.0
 11
1817.67869779908
 21
158.9013586260681
 31
0.0
  0
LINE
  5
34E
  8
回07-寸法
  6
CONTINUOUS
 62
     5
 10
1817.67869779908
 20
166.9013586260681
 30
0.0
 11
1817.67869779908
 21
206.4989761597165
 31
0.0
  0
LINE
  5
34F
  8
回07-寸法
  6
CONTINUOUS
 62
     5
 10
1817.67869779908
 20
162.9013586260681
 30
0.0
 11
1817.67869779908
 21
164.9013586260681
 31
0.0
  0
INSERT
  5
350
  8
回07-寸法
  6
CONTINUOUS
 62
     5
  2
_OPEN
 10
1817.67869779908
 20
162.9013586260681
 30
0.0
 41
2.0
 42
2.0
 43
2.0
 50
90.0
  0
INSERT
  5
351
  8
回07-寸法
  6
CONTINUOUS
 62
     5
  2
_OPEN
 10
1817.67869779908
 20
164.9013586260681
 30
0.0
 41
2.0
 42
2.0
 43
2.0
 50
270.0
  0
TEXT
  5
352
  8
回07-寸法
  6
CONTINUOUS
 62
     5
 10
1816.878817611285
 20
170.8800242673767
 30
0.0
 40
6.0
  1
(2 [0.079])
 50
90.0
1001
ACAD
1000
MTEXTBEGIN
1070
    73
1070
     1
1070
    44
1040
1.0
1070
    74
1070
     0
1000
MTEXTEND
  0
POINT
  5
353
  8
DEFPOINTS
  6
CONTINUOUS
 62
     0
 10
1803.876329083613
 20
162.9013586260681
 30
0.0
  0
POINT
  5
354
  8
DEFPOINTS
  6
CONTINUOUS
 62
     0
 10
1803.876329083613
 20
164.9013586260681
 30
0.0
  0
POINT
  5
355
  8
DEFPOINTS
  6
CONTINUOUS
 62
     0
 10
1817.67869779908
 20
164.9013586260681
 30
0.0
  0
ENDBLK
  5
356
  8
0
 62
     5
  0
BLOCK
  8
0
  2
*D1515
 70
     1
 10
0.0
 20
0.0
 30
0.0
  3
*D1515
  1

  0
LINE
  5
33C
  8
回07-寸法
  6
CONTINUOUS
 62
     5
 10
1350.876329083612
 20
503.9013586260682
 30
0.0
 11
1201.397107326285
 21
503.9013586260682
 31
0.0
  0
LINE
  5
33D
  8
回07-寸法
  6
CONTINUOUS
 62
     5
 10
1209.376329083612
 20
333.0263586260685
 30
0.0
 11
1201.397107326285
 21
333.0263586260685
 31
0.0
  0
LINE
  5
33E
  8
回07-寸法
  6
CONTINUOUS
 62
     5
 10
1202.397107326285
 20
501.9013586260681
 30
0.0
 11
1202.397107326285
 21
335.0263586260685
 31
0.0
  0
INSERT
  5
33F
  8
回07-寸法
  6
CONTINUOUS
 62
     5
  2
_OPEN
 10
1202.397107326285
 20
503.9013586260682
 30
0.0
 41
2.0
 42
2.0
 43
2.0
 50
90.0
  0
INSERT
  5
340
  8
回07-寸法
  6
CONTINUOUS
 62
     5
  2
_OPEN
 10
1202.397107326285
 20
333.0263586260685
 30
0.0
 41
2.0
 42
2.0
 43
2.0
 50
270.0
  0
TEXT
  5
341
  8
回07-寸法
  6
CONTINUOUS
 62
     5
 10
1201.597107326285
 20
391.763858626068
 30
0.0
 40
6.0
  1
(170.88 [6.727])
 50
90.0
1001
ACAD
1000
MTEXTBEGIN
1070
    73
1070
     1
1070
    44
1040
1.0
1070
    74
1070
     0
1000
MTEXTEND
  0
POINT
  5
342
  8
DEFPOINTS
  6
CONTINUOUS
 62
     0
 10
1350.876329083612
 20
503.9013586260682
 30
0.0
  0
POINT
  5
343
  8
DEFPOINTS
  6
CONTINUOUS
 62
     0
 10
1209.376329083612
 20
333.0263586260685
 30
0.0
  0
POINT
  5
344
  8
DEFPOINTS
  6
CONTINUOUS
 62
     0
 10
1202.397107326285
 20
333.0263586260685
 30
0.0
  0
ENDBLK
  5
345
  8
0
 62
     5
  0
BLOCK
  8
0
  2
*D1616
 70
     1
 10
0.0
 20
0.0
 30
0.0
  3
*D1616
  1

  0
LINE
  5
32D
  8
回07-寸法
  6
CONTINUOUS
 62
     5
 10
1209.576329083613
 20
333.0263586260685
 30
0.0
 11
1201.397107326286
 21
333.0263586260685
 31
0.0
  0
LINE
  5
32E
  8
回07-寸法
  6
CONTINUOUS
 62
     5
 10
1209.376329083612
 20
326.7763586260681
 30
0.0
 11
1201.397107326286
 21
326.7763586260681
 31
0.0
  0
LINE
  5
32F
  8
回07-寸法
  6
CONTINUOUS
 62
     5
 10
1202.397107326286
 20
335.0263586260685
 30
0.0
 11
1202.397107326286
 21
337.0263586260685
 31
0.0
  0
LINE
  5
330
  8
回07-寸法
  6
CONTINUOUS
 62
     5
 10
1202.397107326286
 20
324.7763586260682
 30
0.0
 11
1202.397107326286
 21
281.2173035079579
 31
0.0
  0
LINE
  5
331
  8
回07-寸法
  6
CONTINUOUS
 62
     5
 10
1202.397107326286
 20
333.0263586260685
 30
0.0
 11
1202.397107326286
 21
326.7763586260681
 31
0.0
  0
INSERT
  5
332
  8
回07-寸法
  6
CONTINUOUS
 62
     5
  2
_OPEN
 10
1202.397107326286
 20
333.0263586260685
 30
0.0
 41
2.0
 42
2.0
 43
2.0
 50
270.0
  0
INSERT
  5
333
  8
回07-寸法
  6
CONTINUOUS
 62
     5
  2
_OPEN
 10
1202.397107326286
 20
326.7763586260681
 30
0.0
 41
2.0
 42
2.0
 43
2.0
 50
90.0
  0
TEXT
  5
334
  8
回07-寸法
  6
CONTINUOUS
 62
     5
 10
1201.597107326285
 20
280.9968310670127
 30
0.0
 40
6.0
  1
6.25 [0.246]
 50
90.0
1001
ACAD
1000
MTEXTBEGIN
1070
    73
1070
     1
1070
    44
1040
1.0
1070
    74
1070
     0
1000
MTEXTEND
  0
POINT
  5
335
  8
DEFPOINTS
  6
CONTINUOUS
 62
     0
 10
1209.576329083613
 20
333.0263586260685
 30
0.0
  0
POINT
  5
336
  8
DEFPOINTS
  6
CONTINUOUS
 62
     0
 10
1209.376329083612
 20
326.7763586260681
 30
0.0
  0
POINT
  5
337
  8
DEFPOINTS
  6
CONTINUOUS
 62
     0
 10
1202.397107326286
 20
326.7763586260681
 30
0.0
  0
ENDBLK
  5
338
  8
0
 62
     5
  0
BLOCK
  8
0
  2
*D1717
 70
     1
 10
0.0
 20
0.0
 30
0.0
  3
*D1717
  1

  0
LINE
  5
31E
  8
回07-寸法
  6
CONTINUOUS
 62
     5
 10
1348.876329083612
 20
320.9549240013533
 30
0.0
 11
1348.876329083612
 21
303.2703470324141
 31
0.0
  0
LINE
  5
31F
  8
回07-寸法
  6
CONTINUOUS
 62
     5
 10
1344.486053936852
 20
321.9013586260676
 30
0.0
 11
1344.486053936852
 21
303.2703470324141
 31
0.0
  0
LINE
  5
320
  8
回07-寸法
  6
CONTINUOUS
 62
     5
 10
1350.876329083612
 20
304.2703470324141
 30
0.0
 11
1352.876329083612
 21
304.2703470324141
 31
0.0
  0
LINE
  5
321
  8
回07-寸法
  6
CONTINUOUS
 62
     5
 10
1342.486053936851
 20
304.2703470324141
 30
0.0
 11
1299.047857414127
 21
304.2703470324141
 31
0.0
  0
LINE
  5
322
  8
回07-寸法
  6
CONTINUOUS
 62
     5
 10
1348.876329083612
 20
304.2703470324141
 30
0.0
 11
1344.486053936852
 21
304.2703470324141
 31
0.0
  0
INSERT
  5
323
  8
回07-寸法
  6
CONTINUOUS
 62
     5
  2
_OPEN
 10
1348.876329083612
 20
304.2703470324141
 30
0.0
 41
2.0
 42
2.0
 43
2.0
 50
180.0
  0
INSERT
  5
324
  8
回07-寸法
  6
CONTINUOUS
 62
     5
  2
_OPEN
 10
1344.486053936852
 20
304.2703470324141
 30
0.0
 41
2.0
 42
2.0
 43
2.0
  0
TEXT
  5
325
  8
回07-寸法
  6
CONTINUOUS
 62
     5
 10
1298.647509300028
 20
305.0703470324141
 30
0.0
 40
6.0
  1
4.39 [0.173]
1001
ACAD
1000
MTEXTBEGIN
1070
    73
1070
     1
1070
    44
1040
1.0
1070
    74
1070
     0
1000
MTEXTEND
  0
POINT
  5
326
  8
DEFPOINTS
  6
CONTINUOUS
 62
     0
 10
1348.876329083612
 20
320.9549240013533
 30
0.0
  0
POINT
  5
327
  8
DEFPOINTS
  6
CONTINUOUS
 62
     0
 10
1344.486053936852
 20
321.9013586260676
 30
0.0
  0
POINT
  5
328
  8
DEFPOINTS
  6
CONTINUOUS
 62
     0
 10
1344.486053936852
 20
304.2703470324141
 30
0.0
  0
ENDBLK
  5
329
  8
0
 62
     5
  0
BLOCK
  8
0
  2
*D1818
 70
     1
 10
0.0
 20
0.0
 30
0.0
  3
*D1818
  1

  0
LINE
  5
30F
  8
回07-寸法
  6
CONTINUOUS
 62
     5
 10
1348.876329083612
 20
320.9549240013533
 30
0.0
 11
1348.876329083612
 21
290.627012058083
 31
0.0
  0
LINE
  5
310
  8
回07-寸法
  6
CONTINUOUS
 62
     5
 10
1339.472960152256
 20
326.4826847011693
 30
0.0
 11
1339.472960152256
 21
290.627012058083
 31
0.0
  0
LINE
  5
311
  8
回07-寸法
  6
CONTINUOUS
 62
     5
 10
1350.876329083612
 20
291.627012058083
 30
0.0
 11
1352.876329083612
 21
291.627012058083
 31
0.0
  0
LINE
  5
312
  8
回07-寸法
  6
CONTINUOUS
 62
     5
 10
1337.472960152256
 20
291.627012058083
 30
0.0
 11
1298.224432014833
 21
291.627012058083
 31
0.0
  0
LINE
  5
313
  8
回07-寸法
  6
CONTINUOUS
 62
     5
 10
1348.876329083612
 20
291.627012058083
 30
0.0
 11
1339.472960152256
 21
291.627012058083
 31
0.0
  0
INSERT
  5
314
  8
回07-寸法
  6
CONTINUOUS
 62
     5
  2
_OPEN
 10
1348.876329083612
 20
291.627012058083
 30
0.0
 41
2.0
 42
2.0
 43
2.0
 50
180.0
  0
INSERT
  5
315
  8
回07-寸法
  6
CONTINUOUS
 62
     5
  2
_OPEN
 10
1339.472960152256
 20
291.627012058083
 30
0.0
 41
2.0
 42
2.0
 43
2.0
  0
TEXT
  5
316
  8
回07-寸法
  6
CONTINUOUS
 62
     5
 10
1297.927033872382
 20
292.427012058083
 30
0.0
 40
6.0
  1
9.4 [0.370]
1001
ACAD
1000
MTEXTBEGIN
1070
    73
1070
     1
1070
    44
1040
1.0
1070
    74
1070
     0
1000
MTEXTEND
  0
POINT
  5
317
  8
DEFPOINTS
  6
CONTINUOUS
 62
     0
 10
1348.876329083612
 20
320.9549240013533
 30
0.0
  0
POINT
  5
318
  8
DEFPOINTS
  6
CONTINUOUS
 62
     0
 10
1339.472960152256
 20
326.4826847011693
 30
0.0
  0
POINT
  5
319
  8
DEFPOINTS
  6
CONTINUOUS
 62
     0
 10
1339.472960152256
 20
291.627012058083
 30
0.0
  0
ENDBLK
  5
31A
  8
0
 62
     5
  0
BLOCK
  8
0
  2
*D1919
 70
     1
 10
0.0
 20
0.0
 30
0.0
  3
*D1919
  1

  0
LINE
  5
300
  8
回07-寸法
  6
CONTINUOUS
 62
     5
 10
1344.486053936852
 20
321.9013586260677
 30
0.0
 11
1245.186250893607
 21
321.9013586260677
 31
0.0
  0
LINE
  5
301
  8
回07-寸法
  6
CONTINUOUS
 62
     5
 10
1344.488572760954
 20
337.9013586260686
 30
0.0
 11
1245.186250893607
 21
337.9013586260686
 31
0.0
  0
LINE
  5
302
  8
回07-寸法
  6
CONTINUOUS
 62
     5
 10
1246.186250893607
 20
339.9013586260686
 30
0.0
 11
1246.186250893607
 21
341.9013586260686
 31
0.0
  0
LINE
  5
303
  8
回07-寸法
  6
CONTINUOUS
 62
     5
 10
1246.186250893607
 20
319.9013586260677
 30
0.0
 11
1246.186250893607
 21
284.5013586260677
 31
0.0
  0
LINE
  5
304
  8
回07-寸法
  6
CONTINUOUS
 62
     5
 10
1246.186250893607
 20
337.9013586260686
 30
0.0
 11
1246.186250893607
 21
321.9013586260677
 31
0.0
  0
INSERT
  5
305
  8
回07-寸法
  6
CONTINUOUS
 62
     5
  2
_OPEN
 10
1246.186250893607
 20
337.9013586260686
 30
0.0
 41
2.0
 42
2.0
 43
2.0
 50
270.0
  0
INSERT
  5
306
  8
回07-寸法
  6
CONTINUOUS
 62
     5
  2
_OPEN
 10
1246.186250893607
 20
321.9013586260677
 30
0.0
 41
2.0
 42
2.0
 43
2.0
 50
90.0
  0
TEXT
  5
307
  8
回07-寸法
  6
CONTINUOUS
 62
     5
 10
1245.386250893607
 20
284.1013586260672
 30
0.0
 40
6.0
  1
16 [0.630]
 50
90.0
1001
ACAD
1000
MTEXTBEGIN
1070
    73
1070
     1
1070
    44
1040
1.0
1070
    74
1070
     0
1000
MTEXTEND
  0
POINT
  5
308
  8
DEFPOINTS
  6
CONTINUOUS
 62
     0
 10
1344.486053936852
 20
321.9013586260677
 30
0.0
  0
POINT
  5
309
  8
DEFPOINTS
  6
CONTINUOUS
 62
     0
 10
1344.488572760954
 20
337.9013586260686
 30
0.0
  0
POINT
  5
30A
  8
DEFPOINTS
  6
CONTINUOUS
 62
     0
 10
1246.186250893607
 20
337.9013586260686
 30
0.0
  0
ENDBLK
  5
30B
  8
0
 62
     5
  0
BLOCK
  8
0
  2
*D2020
 70
     1
 10
0.0
 20
0.0
 30
0.0
  3
*D2020
  1

  0
LINE
  5
2EE
  8
回07-寸法
  6
CONTINUOUS
 62
     5
 10
1208.876329083612
 20
332.5263586260676
 30
0.0
 11
1208.876329083612
 21
373.9153858352525
 31
0.0
  0
LINE
  5
2EF
  8
回07-寸法
  6
CONTINUOUS
 62
     5
 10
1348.876329083612
 20
338.8477934505059
 30
0.0
 11
1348.876329083612
 21
373.9153858352525
 31
0.0
  0
LINE
  5
2F0
  8
回07-寸法
  6
CONTINUOUS
 62
     5
 10
1210.876329083612
 20
372.9153858352526
 30
0.0
 11
1346.876329083612
 21
372.9153858352526
 31
0.0
  0
INSERT
  5
2F1
  8
回07-寸法
  6
CONTINUOUS
 62
     5
  2
_OPEN
 10
1208.876329083612
 20
372.9153858352526
 30
0.0
 41
2.0
 42
2.0
 43
2.0
 50
180.0
  0
INSERT
  5
2F2
  8
回07-寸法
  6
CONTINUOUS
 62
     5
  2
_OPEN
 10
1348.876329083612
 20
372.9153858352526
 30
0.0
 41
2.0
 42
2.0
 43
2.0
  0
INSERT
  5
2F3
  8
回07-寸法
  6
CONTINUOUS
 62
     5
 66
     1
  2
*X5151
 10
0.0
 20
0.0
 30
0.0
  0
SEQEND
  5
529
  8
回09-LCD
  6
CONTINUOUS
 62
     7
  0
POINT
  5
2F4
  8
DEFPOINTS
  6
CONTINUOUS
 62
     0
 10
1208.876329083612
 20
332.5263586260676
 30
0.0
  0
POINT
  5
2F5
  8
DEFPOINTS
  6
CONTINUOUS
 62
     0
 10
1348.876329083612
 20
338.8477934505059
 30
0.0
  0
POINT
  5
2F6
  8
DEFPOINTS
  6
CONTINUOUS
 62
     0
 10
1348.876329083612
 20
372.9153858352526
 30
0.0
  0
ENDBLK
  5
2F7
  8
0
 62
     5
  0
BLOCK
  8
0
  2
*D2121
 70
     1
 10
0.0
 20
0.0
 30
0.0
  3
*D2121
  1

  0
LINE
  5
2D1
  8
回08-記事
  6
CONTINUOUS
 62
     5
 10
1258.16940210672
 20
236.7717546548757
 30
0.0
 11
1223.712435833548
 21
236.7717546548757
 31
0.0
  0
LINE
  5
2D2
  8
回08-記事
  6
CONTINUOUS
 62
     5
 10
1258.16940210672
 20
225.5217546548757
 30
0.0
 11
1223.712435833548
 21
225.5217546548757
 31
0.0
  0
LINE
  5
2D3
  8
回08-記事
  6
CONTINUOUS
 62
     5
 10
1224.712435833548
 20
238.7717546548757
 30
0.0
 11
1224.712435833548
 21
240.7717546548757
 31
0.0
  0
LINE
  5
2D4
  8
回08-記事
  6
CONTINUOUS
 62
     5
 10
1224.712435833548
 20
223.5217546548757
 30
0.0
 11
1224.712435833548
 21
160.7216326548757
 31
0.0
  0
LINE
  5
2D5
  8
回08-記事
  6
CONTINUOUS
 62
     5
 10
1224.712435833548
 20
236.7717546548757
 30
0.0
 11
1224.712435833548
 21
225.5217546548757
 31
0.0
  0
INSERT
  5
2D6
  8
回08-記事
  6
CONTINUOUS
 62
     5
 66
     1
  2
_OPEN
 10
1224.712435833548
 20
236.7717546548757
 30
0.0
 41
2.0
 42
2.0
 43
2.0
 50
270.0
  0
SEQEND
  5
2D7
  8
回09-LCD
  6
CONTINUOUS
 62
     7
  0
INSERT
  5
2D8
  8
回08-記事
  6
CONTINUOUS
 62
     5
 66
     1
  2
_OPEN
 10
1224.712435833548
 20
225.5217546548757
 30
0.0
 41
2.0
 42
2.0
 43
2.0
 50
90.0
  0
SEQEND
  5
2D9
  8
回09-LCD
  6
CONTINUOUS
 62
     7
  0
INSERT
  5
2DA
  8
回08-記事
  6
CONTINUOUS
 62
     5
 66
     1
  2
*X5252
 10
0.0
 20
0.0
 30
0.0
  0
SEQEND
  5
532
  8
回09-LCD
  6
CONTINUOUS
 62
     7
  0
POINT
  5
2DB
  8
DEFPOINTS
  6
CONTINUOUS
 62
     0
 10
1258.16940210672
 20
236.7717546548757
 30
0.0
  0
POINT
  5
2DC
  8
DEFPOINTS
  6
CONTINUOUS
 62
     0
 10
1258.16940210672
 20
225.5217546548757
 30
0.0
  0
POINT
  5
2DD
  8
DEFPOINTS
  6
CONTINUOUS
 62
     0
 10
1224.712435833548
 20
225.5217546548757
 30
0.0
  0
ENDBLK
  5
2DE
  8
0
 62
     5
  0
BLOCK
  8
0
  2
*D2222
 70
     1
 10
0.0
 20
0.0
 30
0.0
  3
*D2222
  1

  0
LINE
  5
2C0
  8
回08-記事
  6
CONTINUOUS
 62
     5
 10
1258.16940210672
 20
229.2717546548757
 30
0.0
 11
1237.801541483255
 21
229.2717546548757
 31
0.0
  0
LINE
  5
2C1
  8
回08-記事
  6
CONTINUOUS
 62
     5
 10
1258.16940210672
 20
225.5217546548757
 30
0.0
 11
1237.801541483255
 21
225.5217546548757
 31
0.0
  0
LINE
  5
2C2
  8
回08-記事
  6
CONTINUOUS
 62
     5
 10
1238.801541483255
 20
231.2717546548757
 30
0.0
 11
1238.801541483255
 21
233.2717546548757
 31
0.0
  0
LINE
  5
2C3
  8
回08-記事
  6
CONTINUOUS
 62
     5
 10
1238.801541483255
 20
223.5217546548757
 30
0.0
 11
1238.801541483255
 21
160.30066467191
 31
0.0
  0
LINE
  5
2C4
  8
回08-記事
  6
CONTINUOUS
 62
     5
 10
1238.801541483255
 20
229.2717546548757
 30
0.0
 11
1238.801541483255
 21
225.5217546548757
 31
0.0
  0
INSERT
  5
2C5
  8
回08-記事
  6
CONTINUOUS
 62
     5
 66
     1
  2
_OPEN
 10
1238.801541483255
 20
229.2717546548757
 30
0.0
 41
2.0
 42
2.0
 43
2.0
 50
270.0
  0
SEQEND
  5
2C6
  8
回09-LCD
  6
CONTINUOUS
 62
     7
  0
INSERT
  5
2C7
  8
回08-記事
  6
CONTINUOUS
 62
     5
 66
     1
  2
_OPEN
 10
1238.801541483255
 20
225.5217546548757
 30
0.0
 41
2.0
 42
2.0
 43
2.0
 50
90.0
  0
SEQEND
  5
2C8
  8
回09-LCD
  6
CONTINUOUS
 62
     7
  0
INSERT
  5
2C9
  8
回08-記事
  6
CONTINUOUS
 62
     5
 66
     1
  2
*X5353
 10
0.0
 20
0.0
 30
0.0
  0
SEQEND
  5
53B
  8
回09-LCD
  6
CONTINUOUS
 62
     7
  0
POINT
  5
2CA
  8
DEFPOINTS
  6
CONTINUOUS
 62
     0
 10
1258.16940210672
 20
229.2717546548757
 30
0.0
  0
POINT
  5
2CB
  8
DEFPOINTS
  6
CONTINUOUS
 62
     0
 10
1258.16940210672
 20
225.5217546548757
 30
0.0
  0
POINT
  5
2CC
  8
DEFPOINTS
  6
CONTINUOUS
 62
     0
 10
1238.801541483255
 20
225.5217546548757
 30
0.0
  0
ENDBLK
  5
2CD
  8
0
 62
     5
  0
BLOCK
  8
0
  2
*D2323
 70
     1
 10
0.0
 20
0.0
 30
0.0
  3
*D2323
  1

  0
LINE
  5
2AF
  8
回08-記事
  6
CONTINUOUS
 62
     5
 10
1258.16940210672
 20
226.7217546548756
 30
0.0
 11
1254.300614651304
 21
226.7217546548756
 31
0.0
  0
LINE
  5
2B0
  8
回08-記事
  6
CONTINUOUS
 62
     5
 10
1258.16940210672
 20
224.3217546548759
 30
0.0
 11
1254.300614651304
 21
224.3217546548759
 31
0.0
  0
LINE
  5
2B1
  8
回08-記事
  6
CONTINUOUS
 62
     5
 10
1255.300614651304
 20
228.7217546548756
 30
0.0
 11
1255.300614651304
 21
230.7217546548756
 31
0.0
  0
LINE
  5
2B2
  8
回08-記事
  6
CONTINUOUS
 62
     5
 10
1255.300614651304
 20
222.3217546548759
 30
0.0
 11
1255.300614651304
 21
145.1216326548759
 31
0.0
  0
LINE
  5
2B3
  8
回08-記事
  6
CONTINUOUS
 62
     5
 10
1255.300614651304
 20
226.7217546548756
 30
0.0
 11
1255.300614651304
 21
224.3217546548759
 31
0.0
  0
INSERT
  5
2B4
  8
回08-記事
  6
CONTINUOUS
 62
     5
 66
     1
  2
_OPEN
 10
1255.300614651304
 20
226.7217546548756
 30
0.0
 41
2.0
 42
2.0
 43
2.0
 50
270.0
  0
SEQEND
  5
2B5
  8
回09-LCD
  6
CONTINUOUS
 62
     7
  0
INSERT
  5
2B6
  8
回08-記事
  6
CONTINUOUS
 62
     5
 66
     1
  2
_OPEN
 10
1255.300614651304
 20
224.3217546548759
 30
0.0
 41
2.0
 42
2.0
 43
2.0
 50
90.0
  0
SEQEND
  5
2B7
  8
回09-LCD
  6
CONTINUOUS
 62
     7
  0
INSERT
  5
2B8
  8
回08-記事
  6
CONTINUOUS
 62
     5
 66
     1
  2
*X5454
 10
0.0
 20
0.0
 30
0.0
  0
SEQEND
  5
544
  8
回09-LCD
  6
CONTINUOUS
 62
     7
  0
POINT
  5
2B9
  8
DEFPOINTS
  6
CONTINUOUS
 62
     0
 10
1258.16940210672
 20
226.7217546548756
 30
0.0
  0
POINT
  5
2BA
  8
DEFPOINTS
  6
CONTINUOUS
 62
     0
 10
1258.16940210672
 20
224.3217546548759
 30
0.0
  0
POINT
  5
2BB
  8
DEFPOINTS
  6
CONTINUOUS
 62
     0
 10
1255.300614651304
 20
224.3217546548759
 30
0.0
  0
ENDBLK
  5
2BC
  8
0
 62
     5
  0
BLOCK
  8
0
  2
*D2424
 70
     1
 10
0.0
 20
0.0
 30
0.0
  3
*D2424
  1

  0
LINE
  5
28F
  8
回08-記事
  6
CONTINUOUS
 62
     5
 10
1259.66940210672
 20
221.7717546548739
 30
0.0
 11
1207.343572008767
 21
221.7717546548739
 31
0.0
  0
LINE
  5
290
  8
回08-記事
  6
CONTINUOUS
 62
     5
 10
1259.66940210672
 20
240.5217546548739
 30
0.0
 11
1207.343572008767
 21
240.5217546548739
 31
0.0
  0
LINE
  5
291
  8
回08-記事
  6
CONTINUOUS
 62
     5
 10
1208.343572008767
 20
242.5217546548739
 30
0.0
 11
1208.343572008767
 21
244.5217546548739
 31
0.0
  0
LINE
  5
292
  8
回08-記事
  6
CONTINUOUS
 62
     5
 10
1208.343572008767
 20
219.7717546548739
 30
0.0
 11
1208.343572008767
 21
157.4926995367636
 31
0.0
  0
LINE
  5
293
  8
回08-記事
  6
CONTINUOUS
 62
     5
 10
1208.343572008767
 20
240.5217546548739
 30
0.0
 11
1208.343572008767
 21
221.7717546548739
 31
0.0
  0
INSERT
  5
294
  8
回08-記事
  6
CONTINUOUS
 62
     5
 66
     1
  2
_OPEN
 10
1208.343572008767
 20
240.5217546548739
 30
0.0
 41
2.0
 42
2.0
 43
2.0
 50
270.0
  0
SEQEND
  5
295
  8
回09-LCD
  6
CONTINUOUS
 62
     7
  0
INSERT
  5
296
  8
回08-記事
  6
CONTINUOUS
 62
     5
 66
     1
  2
_OPEN
 10
1208.343572008767
 20
221.7717546548739
 30
0.0
 41
2.0
 42
2.0
 43
2.0
 50
90.0
  0
SEQEND
  5
297
  8
回09-LCD
  6
CONTINUOUS
 62
     7
  0
INSERT
  5
298
  8
回08-記事
  6
CONTINUOUS
 62
     5
 66
     1
  2
*X5555
 10
0.0
 20
0.0
 30
0.0
  0
SEQEND
  5
54D
  8
回09-LCD
  6
CONTINUOUS
 62
     7
  0
POINT
  5
299
  8
DEFPOINTS
  6
CONTINUOUS
 62
     0
 10
1259.66940210672
 20
221.7717546548739
 30
0.0
  0
POINT
  5
29A
  8
DEFPOINTS
  6
CONTINUOUS
 62
     0
 10
1259.66940210672
 20
240.5217546548739
 30
0.0
  0
POINT
  5
29B
  8
DEFPOINTS
  6
CONTINUOUS
 62
     0
 10
1208.343572008767
 20
240.5217546548739
 30
0.0
  0
ENDBLK
  5
29C
  8
0
 62
     5
  0
BLOCK
  8
0
  2
*D2525
 70
     1
 10
0.0
 20
0.0
 30
0.0
  3
*D2525
  1

  0
LINE
  5
270
  8
回08-記事
  6
CONTINUOUS
 62
     5
 10
1208.876329083612
 20
118.4150438855658
 30
0.0
 11
1208.876329083612
 21
124.2621416427455
 31
0.0
  0
LINE
  5
271
  8
回08-記事
  6
CONTINUOUS
 62
     5
 10
1213.876329083612
 20
119.4150438855658
 30
0.0
 11
1213.876329083612
 21
124.2621416427455
 31
0.0
  0
LINE
  5
272
  8
回08-記事
  6
CONTINUOUS
 62
     5
 10
1206.876329083612
 20
123.2621416427455
 30
0.0
 11
1204.876329083612
 21
123.2621416427455
 31
0.0
  0
LINE
  5
273
  8
回08-記事
  6
CONTINUOUS
 62
     5
 10
1215.876329083612
 20
123.2621416427455
 30
0.0
 11
1247.097295066578
 21
123.2621416427455
 31
0.0
  0
LINE
  5
274
  8
回08-記事
  6
CONTINUOUS
 62
     5
 10
1208.876329083612
 20
123.2621416427455
 30
0.0
 11
1213.876329083612
 21
123.2621416427455
 31
0.0
  0
INSERT
  5
275
  8
回08-記事
  6
CONTINUOUS
 62
     5
  2
_OPEN
 10
1208.876329083612
 20
123.2621416427455
 30
0.0
 41
2.0
 42
2.0
 43
2.0
  0
INSERT
  5
276
  8
回08-記事
  6
CONTINUOUS
 62
     5
  2
_OPEN
 10
1213.876329083612
 20
123.2621416427455
 30
0.0
 41
2.0
 42
2.0
 43
2.0
 50
180.0
  0
TEXT
  5
277
  8
回08-記事
  6
CONTINUOUS
 62
     5
 10
1217.475980969514
 20
124.0620218305409
 30
0.0
 40
6.0
  1
5 [0.197]
1001
ACAD
1000
MTEXTBEGIN
1070
    73
1070
     1
1070
    44
1040
1.0
1070
    74
1070
     0
1000
MTEXTEND
  0
POINT
  5
278
  8
DEFPOINTS
  6
CONTINUOUS
 62
     0
 10
1208.876329083612
 20
118.4150438855658
 30
0.0
  0
POINT
  5
279
  8
DEFPOINTS
  6
CONTINUOUS
 62
     0
 10
1213.876329083612
 20
119.4150438855658
 30
0.0
  0
POINT
  5
27A
  8
DEFPOINTS
  6
CONTINUOUS
 62
     0
 10
1213.876329083612
 20
123.2621416427455
 30
0.0
  0
ENDBLK
  5
27B
  8
0
 62
     5
  0
BLOCK
  8
0
  2
*D2626
 70
     1
 10
0.0
 20
0.0
 30
0.0
  3
*D2626
  1

  0
LINE
  5
261
  8
回08-記事
  6
CONTINUOUS
 62
     5
 10
1208.876329083612
 20
115.2150438855658
 30
0.0
 11
1208.876329083612
 21
99.10851170731621
 31
0.0
  0
LINE
  5
262
  8
回08-記事
  6
CONTINUOUS
 62
     5
 10
1218.876329083612
 20
115.2150438855658
 30
0.0
 11
1218.876329083612
 21
99.10851170731621
 31
0.0
  0
LINE
  5
263
  8
回08-記事
  6
CONTINUOUS
 62
     5
 10
1206.876329083612
 20
100.1085117073162
 30
0.0
 11
1204.876329083612
 21
100.1085117073162
 31
0.0
  0
LINE
  5
264
  8
回08-記事
  6
CONTINUOUS
 62
     5
 10
1220.876329083612
 20
100.1085117073162
 30
0.0
 11
1261.692570657129
 21
100.1085117073162
 31
0.0
  0
LINE
  5
265
  8
回08-記事
  6
CONTINUOUS
 62
     5
 10
1208.876329083612
 20
100.1085117073162
 30
0.0
 11
1218.876329083612
 21
100.1085117073162
 31
0.0
  0
INSERT
  5
266
  8
回08-記事
  6
CONTINUOUS
 62
     5
  2
_OPEN
 10
1208.876329083612
 20
100.1085117073162
 30
0.0
 41
2.0
 42
2.0
 43
2.0
  0
INSERT
  5
267
  8
回08-記事
  6
CONTINUOUS
 62
     5
  2
_OPEN
 10
1218.876329083612
 20
100.1085117073162
 30
0.0
 41
2.0
 42
2.0
 43
2.0
 50
180.0
  0
TEXT
  5
268
  8
回08-記事
  6
CONTINUOUS
 62
     5
 10
1222.473618764789
 20
100.9083918951116
 30
0.0
 40
6.0
  1
(10 [0.394])
1001
ACAD
1000
MTEXTBEGIN
1070
    73
1070
     1
1070
    44
1040
1.0
1070
    74
1070
     0
1000
MTEXTEND
  0
POINT
  5
269
  8
DEFPOINTS
  6
CONTINUOUS
 62
     0
 10
1208.876329083612
 20
115.2150438855658
 30
0.0
  0
POINT
  5
26A
  8
DEFPOINTS
  6
CONTINUOUS
 62
     0
 10
1218.876329083612
 20
115.2150438855658
 30
0.0
  0
POINT
  5
26B
  8
DEFPOINTS
  6
CONTINUOUS
 62
     0
 10
1218.876329083612
 20
100.1085117073162
 30
0.0
  0
ENDBLK
  5
26C
  8
0
 62
     5
  0
BLOCK
  8
0
  2
*D2727
 70
     1
 10
0.0
 20
0.0
 30
0.0
  3
*D2727
  1

  0
LINE
  5
252
  8
回08-記事
  6
CONTINUOUS
 62
     5
 10
1208.876329083612
 20
118.4150438855659
 30
0.0
 11
1194.816992512469
 21
118.4150438855659
 31
0.0
  0
LINE
  5
253
  8
回08-記事
  6
CONTINUOUS
 62
     5
 10
1208.876329083612
 20
115.2150438855659
 30
0.0
 11
1194.816992512469
 21
115.2150438855659
 31
0.0
  0
LINE
  5
254
  8
回08-記事
  6
CONTINUOUS
 62
     5
 10
1195.816992512469
 20
120.4150438855659
 30
0.0
 11
1195.816992512469
 21
122.4150438855659
 31
0.0
  0
LINE
  5
255
  8
回08-記事
  6
CONTINUOUS
 62
     5
 10
1195.816992512469
 20
113.2150438855659
 30
0.0
 11
1195.816992512469
 21
52.0089394761171
 31
0.0
  0
LINE
  5
256
  8
回08-記事
  6
CONTINUOUS
 62
     5
 10
1195.816992512469
 20
118.4150438855659
 30
0.0
 11
1195.816992512469
 21
115.2150438855659
 31
0.0
  0
INSERT
  5
257
  8
回08-記事
  6
CONTINUOUS
 62
     5
  2
_OPEN
 10
1195.816992512469
 20
118.4150438855659
 30
0.0
 41
2.0
 42
2.0
 43
2.0
 50
270.0
  0
INSERT
  5
258
  8
回08-記事
  6
CONTINUOUS
 62
     5
  2
_OPEN
 10
1195.816992512469
 20
115.2150438855659
 30
0.0
 41
2.0
 42
2.0
 43
2.0
 50
90.0
  0
INSERT
  5
259
  8
回08-記事
  6
CONTINUOUS
 62
     5
 66
     1
  2
*X5656
 10
0.0
 20
0.0
 30
0.0
  0
SEQEND
  5
556
  8
回09-LCD
  6
CONTINUOUS
 62
     7
  0
POINT
  5
25A
  8
DEFPOINTS
  6
CONTINUOUS
 62
     0
 10
1208.876329083612
 20
118.4150438855659
 30
0.0
  0
POINT
  5
25B
  8
DEFPOINTS
  6
CONTINUOUS
 62
     0
 10
1208.876329083612
 20
115.2150438855659
 30
0.0
  0
POINT
  5
25C
  8
DEFPOINTS
  6
CONTINUOUS
 62
     0
 10
1195.816992512469
 20
115.2150438855659
 30
0.0
  0
ENDBLK
  5
25D
  8
0
 62
     5
  0
BLOCK
  8
0
  2
*D2828
 70
     1
 10
0.0
 20
0.0
 30
0.0
  3
*D2828
  1

  0
LINE
  5
23F
  8
回08-記事
  6
CONTINUOUS
 62
     5
 10
1348.876329083612
 20
116.9150438855658
 30
0.0
 11
1348.876329083612
 21
98.94002797095666
 31
0.0
  0
LINE
  5
240
  8
回08-記事
  6
CONTINUOUS
 62
     5
 10
1349.376329083612
 20
118.4150438855658
 30
0.0
 11
1349.376329083612
 21
98.94002797095666
 31
0.0
  0
LINE
  5
241
  8
回08-記事
  6
CONTINUOUS
 62
     5
 10
1346.876329083612
 20
99.94002797095665
 30
0.0
 11
1344.876329083612
 21
99.94002797095665
 31
0.0
  0
LINE
  5
242
  8
回08-記事
  6
CONTINUOUS
 62
     5
 10
1351.376329083612
 20
99.94002797095665
 30
0.0
 11
1394.571604674163
 21
99.94002797095665
 31
0.0
  0
LINE
  5
243
  8
回08-記事
  6
CONTINUOUS
 62
     5
 10
1348.876329083612
 20
99.94002797095665
 30
0.0
 11
1349.376329083612
 21
99.94002797095665
 31
0.0
  0
INSERT
  5
244
  8
回08-記事
  6
CONTINUOUS
 62
     5
  2
_OPEN
 10
1348.876329083612
 20
99.94002797095665
 30
0.0
 41
2.0
 42
2.0
 43
2.0
  0
INSERT
  5
245
  8
回08-記事
  6
CONTINUOUS
 62
     5
  2
_OPEN
 10
1349.376329083612
 20
99.94002797095665
 30
0.0
 41
2.0
 42
2.0
 43
2.0
 50
180.0
  0
TEXT
  5
246
  8
回08-記事
  6
CONTINUOUS
 62
     5
 10
1352.973966878888
 20
100.7400279709566
 30
0.0
 40
6.0
  1
(0.5 [0.020])
1001
ACAD
1000
MTEXTBEGIN
1070
    73
1070
     1
1070
    44
1040
1.0
1070
    74
1070
     0
1000
MTEXTEND
  0
POINT
  5
247
  8
DEFPOINTS
  6
CONTINUOUS
 62
     0
 10
1348.876329083612
 20
116.9150438855658
 30
0.0
  0
POINT
  5
248
  8
DEFPOINTS
  6
CONTINUOUS
 62
     0
 10
1349.376329083612
 20
118.4150438855658
 30
0.0
  0
POINT
  5
249
  8
DEFPOINTS
  6
CONTINUOUS
 62
     0
 10
1349.376329083612
 20
99.94002797095665
 30
0.0
  0
ENDBLK
  5
24A
  8
0
 62
     5
  0
BLOCK
  8
0
  2
*D2929
 70
     1
 10
0.0
 20
0.0
 30
0.0
  3
*D2929
  1

  0
LINE
  5
230
  8
回08-記事
  6
CONTINUOUS
 62
     5
 10
1803.876329083612
 20
112.9150438855658
 30
0.0
 11
1803.876329083612
 21
104.0155471948146
 31
0.0
  0
LINE
  5
231
  8
回08-記事
  6
CONTINUOUS
 62
     5
 10
1803.376329083612
 20
116.9150438855658
 30
0.0
 11
1803.376329083612
 21
104.0155471948146
 31
0.0
  0
LINE
  5
232
  8
回08-記事
  6
CONTINUOUS
 62
     5
 10
1805.876329083612
 20
105.0155471948146
 30
0.0
 11
1807.876329083612
 21
105.0155471948146
 31
0.0
  0
LINE
  5
233
  8
回08-記事
  6
CONTINUOUS
 62
     5
 10
1801.376329083612
 20
105.0155471948146
 30
0.0
 11
1758.181053493061
 21
105.0155471948146
 31
0.0
  0
LINE
  5
234
  8
回08-記事
  6
CONTINUOUS
 62
     5
 10
1803.876329083612
 20
105.0155471948146
 30
0.0
 11
1803.376329083612
 21
105.0155471948146
 31
0.0
  0
INSERT
  5
235
  8
回08-記事
  6
CONTINUOUS
 62
     5
  2
_OPEN
 10
1803.876329083612
 20
105.0155471948146
 30
0.0
 41
2.0
 42
2.0
 43
2.0
 50
180.0
  0
INSERT
  5
236
  8
回08-記事
  6
CONTINUOUS
 62
     5
  2
_OPEN
 10
1803.376329083612
 20
105.0155471948146
 30
0.0
 41
2.0
 42
2.0
 43
2.0
  0
TEXT
  5
237
  8
回08-記事
  6
CONTINUOUS
 62
     5
 10
1757.778691288336
 20
105.8155471948146
 30
0.0
 40
6.0
  1
(0.5 [0.020])
1001
ACAD
1000
MTEXTBEGIN
1070
    73
1070
     1
1070
    44
1040
1.0
1070
    74
1070
     0
1000
MTEXTEND
  0
POINT
  5
238
  8
DEFPOINTS
  6
CONTINUOUS
 62
     0
 10
1803.876329083612
 20
112.9150438855658
 30
0.0
  0
POINT
  5
239
  8
DEFPOINTS
  6
CONTINUOUS
 62
     0
 10
1803.376329083612
 20
116.9150438855658
 30
0.0
  0
POINT
  5
23A
  8
DEFPOINTS
  6
CONTINUOUS
 62
     0
 10
1803.376329083612
 20
105.0155471948146
 30
0.0
  0
ENDBLK
  5
23B
  8
0
 62
     5
  0
BLOCK
  8
0
  2
*D3030
 70
     1
 10
0.0
 20
0.0
 30
0.0
  3
*D3030
  1

  0
LINE
  5
221
  8
回08-記事
  6
CONTINUOUS
 62
     5
 10
1803.376329083613
 20
120.4150438855659
 30
0.0
 11
1814.313586924004
 21
120.4150438855659
 31
0.0
  0
LINE
  5
222
  8
回08-記事
  6
CONTINUOUS
 62
     5
 10
1803.876329083613
 20
112.9150438855659
 30
0.0
 11
1814.313586924004
 21
112.9150438855659
 31
0.0
  0
LINE
  5
223
  8
回08-記事
  6
CONTINUOUS
 62
     5
 10
1813.313586924003
 20
122.4150438855659
 30
0.0
 11
1813.313586924003
 21
124.4150438855659
 31
0.0
  0
LINE
  5
224
  8
回08-記事
  6
CONTINUOUS
 62
     5
 10
1813.313586924003
 20
110.9150438855659
 30
0.0
 11
1813.313586924003
 21
52.3614416808415
 31
0.0
  0
LINE
  5
225
  8
回08-記事
  6
CONTINUOUS
 62
     5
 10
1813.313586924003
 20
120.4150438855659
 30
0.0
 11
1813.313586924003
 21
112.9150438855659
 31
0.0
  0
INSERT
  5
226
  8
回08-記事
  6
CONTINUOUS
 62
     5
  2
_OPEN
 10
1813.313586924003
 20
120.4150438855659
 30
0.0
 41
2.0
 42
2.0
 43
2.0
 50
270.0
  0
INSERT
  5
227
  8
回08-記事
  6
CONTINUOUS
 62
     5
  2
_OPEN
 10
1813.313586924003
 20
112.9150438855659
 30
0.0
 41
2.0
 42
2.0
 43
2.0
 50
90.0
  0
INSERT
  5
228
  8
回08-記事
  6
CONTINUOUS
 62
     5
 66
     1
  2
*X5757
 10
0.0
 20
0.0
 30
0.0
  0
SEQEND
  5
55F
  8
回09-LCD
  6
CONTINUOUS
 62
     7
  0
POINT
  5
229
  8
DEFPOINTS
  6
CONTINUOUS
 62
     0
 10
1803.376329083613
 20
120.4150438855659
 30
0.0
  0
POINT
  5
22A
  8
DEFPOINTS
  6
CONTINUOUS
 62
     0
 10
1803.876329083613
 20
112.9150438855659
 30
0.0
  0
POINT
  5
22B
  8
DEFPOINTS
  6
CONTINUOUS
 62
     0
 10
1813.313586924003
 20
112.9150438855659
 30
0.0
  0
ENDBLK
  5
22C
  8
0
 62
     5
  0
BLOCK
  8
0
  2
*D3131
 70
     1
 10
0.0
 20
0.0
 30
0.0
  3
*D3131
  1

  0
LINE
  5
13F
  8
回07-寸法
  6
CONTINUOUS
 62
     5
 10
1796.976329083613
 20
496.9013586260679
 30
0.0
 11
1796.976329083613
 21
550.9720001631193
 31
0.0
  0
LINE
  5
140
  8
回07-寸法
  6
CONTINUOUS
 62
     5
 10
1355.776329083612
 20
496.9013586260679
 30
0.0
 11
1355.776329083612
 21
550.9720001631193
 31
0.0
  0
LINE
  5
141
  8
回07-寸法
  6
CONTINUOUS
 62
     5
 10
1794.976329083613
 20
549.9720001631193
 30
0.0
 11
1357.776329083612
 21
549.9720001631193
 31
0.0
  0
INSERT
  5
142
  8
回07-寸法
  6
CONTINUOUS
 62
     5
  2
_OPEN
 10
1796.976329083613
 20
549.9720001631193
 30
0.0
 41
2.0
 42
2.0
 43
2.0
  0
INSERT
  5
143
  8
回07-寸法
  6
CONTINUOUS
 62
     5
  2
_OPEN
 10
1355.776329083612
 20
549.9720001631193
 30
0.0
 41
2.0
 42
2.0
 43
2.0
 50
180.0
  0
TEXT
  5
144
  8
回07-寸法
  6
CONTINUOUS
 62
     5
 10
1552.351323332131
 20
550.7720001631192
 30
0.0
 40
6.0
  1
441.2 [17.370]
1001
ACAD
1000
MTEXTBEGIN
1070
    73
1070
     1
1070
    44
1040
1.0
1070
    74
1070
     0
1000
MTEXTEND
  0
POINT
  5
145
  8
DEFPOINTS
  6
CONTINUOUS
 62
     0
 10
1796.976329083613
 20
496.9013586260679
 30
0.0
  0
POINT
  5
146
  8
DEFPOINTS
  6
CONTINUOUS
 62
     0
 10
1355.776329083612
 20
496.9013586260679
 30
0.0
  0
POINT
  5
147
  8
DEFPOINTS
  6
CONTINUOUS
 62
     0
 10
1355.776329083612
 20
549.9720001631193
 30
0.0
  0
ENDBLK
  5
148
  8
0
 62
     7
  0
BLOCK
  8
0
  2
*D3232
 70
     1
 10
0.0
 20
0.0
 30
0.0
  3
*D3232
  1

  0
LINE
  5
132
  8
回07-寸法
  6
CONTINUOUS
 62
     5
 10
1796.976329083614
 20
162.9013586260681
 30
0.0
 11
1872.492641926869
 21
162.9013586260681
 31
0.0
  0
LINE
  5
133
  8
回07-寸法
  6
CONTINUOUS
 62
     5
 10
1796.976329083614
 20
496.9013586260683
 30
0.0
 11
1872.492641926869
 21
496.9013586260683
 31
0.0
  0
LINE
  5
134
  8
回07-寸法
  6
CONTINUOUS
 62
     5
 10
1871.492641926869
 20
164.9013586260682
 30
0.0
 11
1871.492641926869
 21
494.9013586260682
 31
0.0
  0
INSERT
  5
135
  8
回07-寸法
  6
CONTINUOUS
 62
     5
  2
_OPEN
 10
1871.492641926869
 20
162.9013586260682
 30
0.0
 41
2.0
 42
2.0
 43
2.0
 50
270.0
  0
INSERT
  5
136
  8
回07-寸法
  6
CONTINUOUS
 62
     5
  2
_OPEN
 10
1871.492641926869
 20
496.9013586260683
 30
0.0
 41
2.0
 42
2.0
 43
2.0
 50
90.0
  0
TEXT
  5
137
  8
回07-寸法
  6
CONTINUOUS
 62
     5
 10
1870.692641926869
 20
308.9013586260683
 30
0.0
 40
6.0
  1
334 [13.150]
 50
90.0
1001
ACAD
1000
MTEXTBEGIN
1070
    73
1070
     1
1070
    44
1040
1.0
1070
    74
1070
     0
1000
MTEXTEND
  0
POINT
  5
138
  8
DEFPOINTS
  6
CONTINUOUS
 62
     0
 10
1796.976329083614
 20
162.9013586260681
 30
0.0
  0
POINT
  5
139
  8
DEFPOINTS
  6
CONTINUOUS
 62
     0
 10
1796.976329083614
 20
496.9013586260683
 30
0.0
  0
POINT
  5
13A
  8
DEFPOINTS
  6
CONTINUOUS
 62
     0
 10
1871.492641926869
 20
496.9013586260683
 30
0.0
  0
ENDBLK
  5
13B
  8
0
 62
     7
  0
BLOCK
  8
0
  2
*D3333
 70
     1
 10
0.0
 20
0.0
 30
0.0
  3
*D3333
  1

  0
LINE
  5
123
  8
回07-寸法
  6
CONTINUOUS
 62
     5
 10
1355.776329083612
 20
496.9013586260679
 30
0.0
 11
1355.776329083612
 21
550.9720001631193
 31
0.0
  0
LINE
  5
124
  8
回07-寸法
  6
CONTINUOUS
 62
     5
 10
1348.876329083612
 20
503.9013586260682
 30
0.0
 11
1348.876329083612
 21
550.9720001631193
 31
0.0
  0
LINE
  5
125
  8
回07-寸法
  6
CONTINUOUS
 62
     5
 10
1346.876329083612
 20
549.9720001631193
 30
0.0
 11
1302.307009494115
 21
549.9720001631193
 31
0.0
  0
LINE
  5
126
  8
回07-寸法
  6
CONTINUOUS
 62
     5
 10
1355.776329083612
 20
549.9720001631193
 30
0.0
 11
1348.876329083612
 21
549.9720001631193
 31
0.0
  0
LINE
  5
127
  8
回07-寸法
  6
CONTINUOUS
 62
     5
 10
1357.776329083612
 20
549.9720001631193
 30
0.0
 11
1359.776329083613
 21
549.9720001631193
 31
0.0
  0
INSERT
  5
128
  8
回07-寸法
  6
CONTINUOUS
 62
     5
  2
_OPEN
 10
1355.776329083612
 20
549.9720001631193
 30
0.0
 41
2.0
 42
2.0
 43
2.0
 50
180.0
  0
INSERT
  5
129
  8
回07-寸法
  6
CONTINUOUS
 62
     5
  2
_OPEN
 10
1348.876329083612
 20
549.9720001631193
 30
0.0
 41
2.0
 42
2.0
 43
2.0
  0
TEXT
  5
12A
  8
回07-寸法
  6
CONTINUOUS
 62
     5
 10
1301.907009494115
 20
550.7720001631192
 30
0.0
 40
6.0
  1
6.9 [0.272]    
  0
POINT
  5
12B
  8
DEFPOINTS
  6
CONTINUOUS
 62
     0
 10
1355.776329083612
 20
496.9013586260679
 30
0.0
  0
POINT
  5
12C
  8
DEFPOINTS
  6
CONTINUOUS
 62
     0
 10
1348.876329083612
 20
503.9013586260682
 30
0.0
  0
POINT
  5
12D
  8
DEFPOINTS
  6
CONTINUOUS
 62
     0
 10
1348.876329083612
 20
549.9720001631193
 30
0.0
  0
ENDBLK
  5
12E
  8
0
 62
     7
  0
BLOCK
  8
0
  2
*D3434
 70
     1
 10
0.0
 20
0.0
 30
0.0
  3
*D3434
  1

  0
LINE
  5
114
  8
回07-寸法
  6
CONTINUOUS
 62
     5
 10
1796.976329083613
 20
496.9013586260679
 30
0.0
 11
1796.976329083613
 21
550.9720001631193
 31
0.0
  0
LINE
  5
115
  8
回07-寸法
  6
CONTINUOUS
 62
     5
 10
1803.876329083613
 20
503.9013586260684
 30
0.0
 11
1803.876329083613
 21
550.9720001631193
 31
0.0
  0
LINE
  5
116
  8
回07-寸法
  6
CONTINUOUS
 62
     5
 10
1805.876329083613
 20
549.9720001631193
 30
0.0
 11
1844.297991294774
 21
549.9720001631193
 31
0.0
  0
LINE
  5
117
  8
回07-寸法
  6
CONTINUOUS
 62
     5
 10
1796.976329083613
 20
549.9720001631193
 30
0.0
 11
1803.876329083613
 21
549.9720001631193
 31
0.0
  0
LINE
  5
118
  8
回07-寸法
  6
CONTINUOUS
 62
     5
 10
1794.976329083613
 20
549.9720001631193
 30
0.0
 11
1792.976329083613
 21
549.9720001631193
 31
0.0
  0
INSERT
  5
119
  8
回07-寸法
  6
CONTINUOUS
 62
     5
  2
_OPEN
 10
1796.976329083613
 20
549.9720001631193
 30
0.0
 41
2.0
 42
2.0
 43
2.0
  0
INSERT
  5
11A
  8
回07-寸法
  6
CONTINUOUS
 62
     5
  2
_OPEN
 10
1803.876329083613
 20
549.9720001631193
 30
0.0
 41
2.0
 42
2.0
 43
2.0
 50
180.0
  0
TEXT
  5
11B
  8
回07-寸法
  6
CONTINUOUS
 62
     5
 10
1807.476329083613
 20
550.7720001631192
 30
0.0
 40
6.0
  1
6.9 [0.272]
  0
POINT
  5
11C
  8
DEFPOINTS
  6
CONTINUOUS
 62
     0
 10
1796.976329083613
 20
496.9013586260679
 30
0.0
  0
POINT
  5
11D
  8
DEFPOINTS
  6
CONTINUOUS
 62
     0
 10
1803.876329083613
 20
503.9013586260684
 30
0.0
  0
POINT
  5
11E
  8
DEFPOINTS
  6
CONTINUOUS
 62
     0
 10
1803.876329083613
 20
549.9720001631193
 30
0.0
  0
ENDBLK
  5
11F
  8
0
 62
     7
  0
BLOCK
  8
0
  2
*D3535
 70
     1
 10
0.0
 20
0.0
 30
0.0
  3
*D3535
  1

  0
LINE
  5
105
  8
回07-寸法
  6
CONTINUOUS
 62
     5
 10
1796.976329083613
 20
496.9013586260679
 30
0.0
 11
1872.492641926869
 21
496.9013586260679
 31
0.0
  0
LINE
  5
106
  8
回07-寸法
  6
CONTINUOUS
 62
     5
 10
1803.876329083613
 20
503.9013586260684
 30
0.0
 11
1872.492641926869
 21
503.9013586260684
 31
0.0
  0
LINE
  5
107
  8
回07-寸法
  6
CONTINUOUS
 62
     5
 10
1871.492641926868
 20
505.9013586260683
 30
0.0
 11
1871.492641926868
 21
538.3013586260683
 31
0.0
  0
LINE
  5
108
  8
回07-寸法
  6
CONTINUOUS
 62
     5
 10
1871.492641926868
 20
496.9013586260679
 30
0.0
 11
1871.492641926868
 21
503.9013586260684
 31
0.0
  0
LINE
  5
109
  8
回07-寸法
  6
CONTINUOUS
 62
     5
 10
1871.492641926868
 20
494.9013586260679
 30
0.0
 11
1871.492641926868
 21
492.9013586260679
 31
0.0
  0
INSERT
  5
10A
  8
回07-寸法
  6
CONTINUOUS
 62
     5
  2
_OPEN
 10
1871.492641926868
 20
496.9013586260679
 30
0.0
 41
2.0
 42
2.0
 43
2.0
 50
90.0
  0
INSERT
  5
10B
  8
回07-寸法
  6
CONTINUOUS
 62
     5
  2
_OPEN
 10
1871.492641926868
 20
503.9013586260684
 30
0.0
 41
2.0
 42
2.0
 43
2.0
 50
270.0
  0
TEXT
  5
10C
  8
回07-寸法
  6
CONTINUOUS
 62
     5
 10
1870.692641926869
 20
507.5013586260683
 30
0.0
 40
6.0
  1
7 [0.276]
 50
90.0
  0
POINT
  5
10D
  8
DEFPOINTS
  6
CONTINUOUS
 62
     0
 10
1796.976329083613
 20
496.9013586260679
 30
0.0
  0
POINT
  5
10E
  8
DEFPOINTS
  6
CONTINUOUS
 62
     0
 10
1803.876329083613
 20
503.9013586260684
 30
0.0
  0
POINT
  5
10F
  8
DEFPOINTS
  6
CONTINUOUS
 62
     0
 10
1871.492641926868
 20
503.9013586260684
 30
0.0
  0
ENDBLK
  5
110
  8
0
 62
     7
  0
BLOCK
  8
0
  2
*D3636
 70
     1
 10
0.0
 20
0.0
 30
0.0
  3
*D3636
  1

  0
LINE
  5
F4
  8
回07-寸法
  6
CONTINUOUS
 62
     5
 10
1796.976329083613
 20
162.9013586260681
 30
0.0
 11
1872.492641926869
 21
162.9013586260681
 31
0.0
  0
LINE
  5
F6
  8
回07-寸法
  6
CONTINUOUS
 62
     5
 10
1803.876329083613
 20
155.901358626068
 30
0.0
 11
1872.492641926869
 21
155.901358626068
 31
0.0
  0
LINE
  5
F7
  8
回07-寸法
  6
CONTINUOUS
 62
     5
 10
1871.492641926868
 20
153.901358626068
 30
0.0
 11
1871.492641926868
 21
117.2212145138553
 31
0.0
  0
LINE
  5
F8
  8
回07-寸法
  6
CONTINUOUS
 62
     5
 10
1871.492641926868
 20
162.9013586260681
 30
0.0
 11
1871.492641926868
 21
155.901358626068
 31
0.0
  0
LINE
  5
F9
  8
回07-寸法
  6
CONTINUOUS
 62
     5
 10
1871.492641926868
 20
164.9013586260681
 30
0.0
 11
1871.492641926868
 21
166.9013586260681
 31
0.0
  0
INSERT
  5
FA
  8
回07-寸法
  6
CONTINUOUS
 62
     5
  2
_OPEN
 10
1871.492641926868
 20
162.9013586260681
 30
0.0
 41
2.0
 42
2.0
 43
2.0
 50
270.0
  0
INSERT
  5
FB
  8
回07-寸法
  6
CONTINUOUS
 62
     5
  2
_OPEN
 10
1871.492641926868
 20
155.901358626068
 30
0.0
 41
2.0
 42
2.0
 43
2.0
 50
90.0
  0
TEXT
  5
FC
  8
回07-寸法
  6
CONTINUOUS
 62
     5
 10
1870.692641926869
 20
116.8212145138552
 30
0.0
 40
6.0
  1
7 [0.276]
 50
90.0
  0
POINT
  5
FD
  8
DEFPOINTS
  6
CONTINUOUS
 62
     0
 10
1796.976329083613
 20
162.9013586260681
 30
0.0
  0
POINT
  5
FF
  8
DEFPOINTS
  6
CONTINUOUS
 62
     0
 10
1803.876329083613
 20
155.901358626068
 30
0.0
  0
POINT
  5
100
  8
DEFPOINTS
  6
CONTINUOUS
 62
     0
 10
1871.492641926868
 20
155.901358626068
 30
0.0
  0
ENDBLK
  5
101
  8
0
 62
     7
  0
BLOCK
  8
回09-LCD
  2
*X3737
 70
     1
 10
0.0
 20
0.0
 30
0.0
  3
*X3737
  1

  0
INSERT
  5
448
  8
回07-寸法
  6
CONTINUOUS
 62
     5
  2
_OPEN
 10
1258.297314454627
 20
239.8226710177128
 30
0.0
 41
2.0
 42
2.0
 43
2.0
 50
299.7583556801724
  0
LINE
  5
449
  8
回07-寸法
  6
CONTINUOUS
 62
     5
 10
1257.304628231793
 20
241.5589238976227
 30
0.0
 11
1250.362232976407
 21
253.7014856440944
 31
0.0
  0
LINE
  5
44A
  8
回07-寸法
  6
CONTINUOUS
 62
     5
 10
1250.362232976407
 20
253.7014856440944
 30
0.0
 11
1198.062232976407
 21
253.7014856440944
 31
0.0
  0
ENDBLK
  5
44C
  8
回09-LCD
  6
CONTINUOUS
 62
     7
  0
BLOCK
  8
回09-LCD
  2
*X3838
 70
     1
 10
0.0
 20
0.0
 30
0.0
  3
*X3838
  1

  0
LINE
  5
45D
  8
回08-記事
 62
     8
 10
1344.484399175247
 20
322.5580102029762
 30
0.0
 11
1344.639847667952
 21
322.4025617102711
 31
0.0
  0
LINE
  5
45E
  8
回08-記事
 62
     8
 10
1344.484399175246
 20
324.3540614271905
 30
0.0
 11
1346.435898892166
 21
322.4025617102709
 31
0.0
  0
LINE
  5
45F
  8
回08-記事
 62
     8
 10
1344.484399175246
 20
326.1501126514043
 30
0.0
 11
1348.231950116379
 21
322.4025617102709
 31
0.0
  0
LINE
  5
460
  8
回08-記事
 62
     8
 10
1344.484399175246
 20
327.946163875618
 30
0.0
 11
1350.028001340593
 21
322.4025617102709
 31
0.0
  0
LINE
  5
461
  8
回08-記事
 62
     8
 10
1345.32525564901
 20
328.9013586260684
 30
0.0
 11
1351.824052564807
 21
322.402561710271
 31
0.0
  0
LINE
  5
462
  8
回08-記事
 62
     8
 10
1347.121306873223
 20
328.9013586260686
 30
0.0
 11
1353.076329083612
 21
322.94633641568
 31
0.0
  0
LINE
  5
463
  8
回08-記事
 62
     8
 10
1348.917358097438
 20
328.9013586260684
 30
0.0
 11
1353.076329083612
 21
324.7423876398938
 31
0.0
  0
LINE
  5
464
  8
回08-記事
 62
     8
 10
1350.713409321651
 20
328.9013586260687
 30
0.0
 11
1353.076329083612
 21
326.5384388641076
 31
0.0
  0
LINE
  5
465
  8
回08-記事
 62
     8
 10
1352.509460545865
 20
328.9013586260685
 30
0.0
 11
1353.076329083612
 21
328.3344900883215
 31
0.0
  0
ENDBLK
  5
467
  8
回09-LCD
  6
CONTINUOUS
 62
     7
  0
BLOCK
  8
回09-LCD
  2
*X3939
 70
     1
 10
0.0
 20
0.0
 30
0.0
  3
*X3939
  1

  0
INSERT
  5
479
  8
回07-寸法
  6
CONTINUOUS
 62
     5
  2
_OPEN
 10
1778.202123723256
 20
156.571224499251
 30
0.0
 41
2.0
 42
2.0
 43
2.0
 50
73.24094763835002
  0
LINE
  5
47A
  8
回07-寸法
  6
CONTINUOUS
 62
     5
 10
1777.625428614051
 20
154.6561728678272
 30
0.0
 11
1776.067083950396
 21
149.4813232066817
 31
0.0
  0
LINE
  5
47B
  8
回07-寸法
  6
CONTINUOUS
 62
     5
 10
1776.067083950396
 20
149.4813232066817
 30
0.0
 11
1757.367083950396
 21
149.4813232066817
 31
0.0
  0
ENDBLK
  5
47D
  8
回09-LCD
  6
CONTINUOUS
 62
     7
  0
BLOCK
  8
回09-LCD
  2
*X4040
 70
     1
 10
0.0
 20
0.0
 30
0.0
  3
*X4040
  1

  0
INSERT
  5
480
  8
回08-記事
  6
CONTINUOUS
 62
     5
  2
_OPEN
 10
1295.069308630381
 20
116.2737326257838
 30
0.0
 41
2.0
 42
2.0
 43
2.0
 50
70.25968785593447
  0
LINE
  5
481
  8
回08-記事
  6
CONTINUOUS
 62
     5
 10
1294.393793481496
 20
114.3912663488942
 30
0.0
 11
1292.951819634574
 21
110.3729003011931
 31
0.0
  0
LINE
  5
482
  8
回08-記事
  6
CONTINUOUS
 62
     5
 10
1292.951819634574
 20
110.3729003011931
 30
0.0
 11
1271.251819634574
 21
110.3729003011931
 31
0.0
  0
ENDBLK
  5
484
  8
回09-LCD
  6
CONTINUOUS
 62
     7
  0
BLOCK
  8
回09-LCD
  2
*X4141
 70
     1
 10
0.0
 20
0.0
 30
0.0
  3
*X4141
  1

  0
LINE
  5
487
  8
回08-記事
  6
CONTINUOUS
 62
     7
 10
1285.334541951656
 20
116.3150438855657
 30
0.0
 11
1285.934541951656
 21
116.9150438855659
 31
0.0
  0
LINE
  5
488
  8
回08-記事
  6
CONTINUOUS
 62
     7
 10
1287.13059317587
 20
116.3150438855658
 30
0.0
 11
1287.73059317587
 21
116.915043885566
 31
0.0
  0
LINE
  5
489
  8
回08-記事
  6
CONTINUOUS
 62
     7
 10
1288.926644400083
 20
116.3150438855656
 30
0.0
 11
1289.526644400083
 21
116.9150438855657
 31
0.0
  0
LINE
  5
48A
  8
回08-記事
  6
CONTINUOUS
 62
     7
 10
1290.722695624297
 20
116.3150438855658
 30
0.0
 11
1291.322695624298
 21
116.9150438855659
 31
0.0
  0
LINE
  5
48B
  8
回08-記事
  6
CONTINUOUS
 62
     7
 10
1292.518746848511
 20
116.3150438855658
 30
0.0
 11
1293.118746848511
 21
116.9150438855657
 31
0.0
  0
LINE
  5
48C
  8
回08-記事
  6
CONTINUOUS
 62
     7
 10
1294.314798072725
 20
116.3150438855657
 30
0.0
 11
1294.914798072725
 21
116.9150438855659
 31
0.0
  0
LINE
  5
48D
  8
回08-記事
  6
CONTINUOUS
 62
     7
 10
1296.110849296939
 20
116.3150438855658
 30
0.0
 11
1296.710849296939
 21
116.9150438855658
 31
0.0
  0
LINE
  5
48E
  8
回08-記事
  6
CONTINUOUS
 62
     7
 10
1297.906900521153
 20
116.3150438855658
 30
0.0
 11
1298.506900521153
 21
116.9150438855658
 31
0.0
  0
LINE
  5
48F
  8
回08-記事
  6
CONTINUOUS
 62
     7
 10
1299.702951745367
 20
116.3150438855657
 30
0.0
 11
1300.302951745367
 21
116.9150438855655
 31
0.0
  0
LINE
  5
490
  8
回08-記事
  6
CONTINUOUS
 62
     7
 10
1301.49900296958
 20
116.3150438855657
 30
0.0
 11
1302.099002969581
 21
116.9150438855659
 31
0.0
  0
LINE
  5
491
  8
回08-記事
  6
CONTINUOUS
 62
     7
 10
1303.295054193794
 20
116.3150438855659
 30
0.0
 11
1303.895054193795
 21
116.9150438855659
 31
0.0
  0
LINE
  5
492
  8
回08-記事
  6
CONTINUOUS
 62
     7
 10
1305.091105418008
 20
116.3150438855658
 30
0.0
 11
1305.691105418009
 21
116.9150438855659
 31
0.0
  0
LINE
  5
493
  8
回08-記事
  6
CONTINUOUS
 62
     7
 10
1306.887156642222
 20
116.3150438855657
 30
0.0
 11
1307.487156642222
 21
116.9150438855658
 31
0.0
  0
LINE
  5
494
  8
回08-記事
  6
CONTINUOUS
 62
     7
 10
1308.683207866436
 20
116.3150438855657
 30
0.0
 11
1309.283207866436
 21
116.9150438855657
 31
0.0
  0
ENDBLK
  5
496
  8
回09-LCD
  6
CONTINUOUS
 62
     7
  0
BLOCK
  8
回09-LCD
  2
*X4242
 70
     1
 10
0.0
 20
0.0
 30
0.0
  3
*X4242
  1

  0
INSERT
  5
4B7
  8
回07-寸法
  6
CONTINUOUS
 62
     5
  2
_OPEN
 10
1213.243429182025
 20
324.2435411346887
 30
0.0
 41
2.0
 42
2.0
 43
2.0
 50
100.5003679249212
  0
LINE
  5
4B8
  8
回07-寸法
  6
CONTINUOUS
 62
     5
 10
1213.607912860947
 20
322.2770336600527
 30
0.0
 11
1214.225451729161
 21
318.9452114950327
 31
0.0
  0
LINE
  5
4B9
  8
回07-寸法
  6
CONTINUOUS
 62
     5
 10
1214.225451729161
 20
318.9452114950327
 30
0.0
 11
1218.525451729161
 21
318.9452114950327
 31
0.0
  0
ENDBLK
  5
4BB
  8
回09-LCD
  6
CONTINUOUS
 62
     7
  0
BLOCK
  8
回09-LCD
  2
*X4343
 70
     1
 10
0.0
 20
0.0
 30
0.0
  3
*X4343
  1

  0
INSERT
  5
4CA
  8
回07-寸法
  6
CONTINUOUS
 62
     5
  2
_OPEN
 10
1298.03188935194
 20
327.5948241853916
 30
0.0
 41
2.0
 42
2.0
 43
2.0
 50
79.89879463528644
  0
LINE
  5
4CB
  8
回07-寸法
  6
CONTINUOUS
 62
     5
 10
1297.681114476699
 20
325.6258252044625
 30
0.0
 11
1295.772572944287
 21
314.9126396326642
 31
0.0
  0
LINE
  5
4CC
  8
回07-寸法
  6
CONTINUOUS
 62
     5
 10
1295.772572944287
 20
314.9126396326642
 30
0.0
 11
1274.072572944287
 21
314.9126396326642
 31
0.0
  0
ENDBLK
  5
4CE
  8
回09-LCD
  6
CONTINUOUS
 62
     7
  0
BLOCK
  8
回09-LCD
  2
*X4444
 70
     1
 10
0.0
 20
0.0
 30
0.0
  3
*X4444
  1

  0
LINE
  5
4D1
  8
回08-記事
 62
     8
 10
1284.2834045698
 20
331.1252491701285
 30
0.0
 11
1285.559514025739
 21
332.401358626068
 31
0.0
  0
LINE
  5
4D2
  8
回08-記事
 62
     8
 10
1284.2834045698
 20
329.3291979459146
 30
0.0
 11
1287.355565249953
 21
332.401358626068
 31
0.0
  0
LINE
  5
4D3
  8
回08-記事
 62
     8
 10
1284.370151954416
 20
327.6198941063171
 30
0.0
 11
1289.151616474167
 21
332.401358626068
 31
0.0
  0
LINE
  5
4D4
  8
回08-記事
 62
     8
 10
1285.947667698381
 20
327.401358626068
 30
0.0
 11
1290.947667698381
 21
332.401358626068
 31
0.0
  0
LINE
  5
4D5
  8
回08-記事
 62
     8
 10
1287.743718922595
 20
327.401358626068
 30
0.0
 11
1292.743718922595
 21
332.401358626068
 31
0.0
  0
LINE
  5
4D6
  8
回08-記事
 62
     8
 10
1289.539770146808
 20
327.4013586260679
 30
0.0
 11
1294.539770146809
 21
332.4013586260681
 31
0.0
  0
LINE
  5
4D7
  8
回08-記事
 62
     8
 10
1291.335821371022
 20
327.401358626068
 30
0.0
 11
1296.335821371022
 21
332.4013586260678
 31
0.0
  0
LINE
  5
4D8
  8
回08-記事
 62
     8
 10
1293.131872595236
 20
327.401358626068
 30
0.0
 11
1298.131872595236
 21
332.4013586260678
 31
0.0
  0
LINE
  5
4D9
  8
回08-記事
 62
     8
 10
1294.92792381945
 20
327.401358626068
 30
0.0
 11
1299.92792381945
 21
332.4013586260681
 31
0.0
  0
LINE
  5
4DA
  8
回08-記事
 62
     8
 10
1296.723975043664
 20
327.4013586260681
 30
0.0
 11
1301.723975043664
 21
332.4013586260681
 31
0.0
  0
LINE
  5
4DB
  8
回08-記事
 62
     8
 10
1298.520026267878
 20
327.4013586260683
 30
0.0
 11
1303.520026267878
 21
332.401358626068
 31
0.0
  0
LINE
  5
4DC
  8
回08-記事
 62
     8
 10
1300.316077492092
 20
327.4013586260681
 30
0.0
 11
1305.316077492092
 21
332.4013586260682
 31
0.0
  0
LINE
  5
4DD
  8
回08-記事
 62
     8
 10
1302.112128716305
 20
327.4013586260679
 30
0.0
 11
1307.112128716305
 21
332.401358626068
 31
0.0
  0
LINE
  5
4DE
  8
回08-記事
 62
     8
 10
1303.908179940519
 20
327.401358626068
 30
0.0
 11
1308.908179940519
 21
332.401358626068
 31
0.0
  0
LINE
  5
4DF
  8
回08-記事
 62
     8
 10
1305.704231164733
 20
327.401358626068
 30
0.0
 11
1310.277941509805
 21
331.9750689711396
 31
0.0
  0
LINE
  5
4E0
  8
回08-記事
 62
     8
 10
1307.500282388947
 20
327.401358626068
 30
0.0
 11
1310.2834045698
 21
330.1844808069209
 31
0.0
  0
LINE
  5
4E1
  8
回08-記事
 62
     8
 10
1309.296333613161
 20
327.401358626068
 30
0.0
 11
1310.283404569799
 21
328.3884295827068
 31
0.0
  0
ENDBLK
  5
4E3
  8
回09-LCD
  6
CONTINUOUS
 62
     7
  0
BLOCK
  8
回09-LCD
  2
*X4545
 70
     1
 10
0.0
 20
0.0
 30
0.0
  3
*X4545
  1

  0
INSERT
  5
4EF
  8
回07-寸法
  6
CONTINUOUS
 62
     5
  2
_OPEN
 10
1345.961289526351
 20
328.5513437708337
 30
0.0
 41
2.0
 42
2.0
 43
2.0
 50
328.67895552798
  0
LINE
  5
4F0
  8
回07-寸法
  6
CONTINUOUS
 62
     5
 10
1344.252753615231
 20
329.5910096019617
 30
0.0
 11
1324.775777562488
 21
341.4429972388314
 31
0.0
  0
LINE
  5
4F1
  8
回07-寸法
  6
CONTINUOUS
 62
     5
 10
1324.775777562488
 20
341.4429972388314
 30
0.0
 11
1257.475777562488
 21
341.4429972388314
 31
0.0
  0
ENDBLK
  5
4F3
  8
回09-LCD
  6
CONTINUOUS
 62
     7
  0
BLOCK
  8
回09-LCD
  2
*X4646
 70
     1
 10
0.0
 20
0.0
 30
0.0
  3
*X4646
  1

  0
INSERT
  5
4F6
  8
回07-寸法
  6
CONTINUOUS
 62
     5
  2
_OPEN
 10
1348.5649016033
 20
338.3187393613184
 30
0.0
 41
1.999999999999999
 42
1.999999999999999
 43
2.0
 50
305.9693726804925
  0
LINE
  5
4F7
  8
回07-寸法
  6
CONTINUOUS
 62
     5
 10
1347.390196182759
 20
339.9374015172214
 30
0.0
 11
1332.837838600882
 21
359.9895355118981
 31
0.0
  0
LINE
  5
4F8
  8
回07-寸法
  6
CONTINUOUS
 62
     5
 10
1332.837838600882
 20
359.9895355118981
 30
0.0
 11
1286.51617638972
 21
359.9895355118981
 31
0.0
  0
ENDBLK
  5
4FA
  8
回09-LCD
  6
CONTINUOUS
 62
     7
  0
BLOCK
  8
回09-LCD
  2
*X4747
 70
     1
 10
0.0
 20
0.0
 30
0.0
  3
*X4747
  1

  0
INSERT
  5
4FD
  8
回07-寸法
  6
CONTINUOUS
 62
     5
  2
_OPEN
 10
1343.78039265376
 20
337.6099079564232
 30
0.0
 41
2.0
 42
2.0
 43
2.0
 50
309.7135560385819
  0
LINE
  5
4FE
  8
回07-寸法
  6
CONTINUOUS
 62
     5
 10
1342.502492978456
 20
339.1484047617039
 30
0.0
 11
1332.206411210567
 21
351.5441265956927
 31
0.0
  0
LINE
  5
4FF
  8
回07-寸法
  6
CONTINUOUS
 62
     5
 10
1332.206411210567
 20
351.5441265956927
 30
0.0
 11
1286.484748999406
 21
351.5441265956927
 31
0.0
  0
ENDBLK
  5
501
  8
回09-LCD
  6
CONTINUOUS
 62
     7
  0
BLOCK
  8
回09-LCD
  2
*X4848
 70
     1
 10
0.0
 20
0.0
 30
0.0
  3
*X4848
  1

  0
INSERT
  5
504
  8
回07-寸法
  6
CONTINUOUS
 62
     5
  2
_OPEN
 10
1802.241566153852
 20
164.4551894416172
 30
0.0
 41
2.0
 42
2.0
 43
2.0
 50
318.2357034758032
  0
LINE
  5
505
  8
回07-寸法
  6
CONTINUOUS
 62
     5
 10
1800.749783753652
 20
165.7873250467461
 30
0.0
 11
1790.056666314035
 21
175.3360919910558
 31
0.0
  0
LINE
  5
506
  8
回07-寸法
  6
CONTINUOUS
 62
     5
 10
1790.056666314035
 20
175.3360919910558
 30
0.0
 11
1771.056666314036
 21
175.3360919910558
 31
0.0
  0
ENDBLK
  5
508
  8
回09-LCD
  6
CONTINUOUS
 62
     7
  0
BLOCK
  8
回09-LCD
  2
*X4949
 70
     1
 10
0.0
 20
0.0
 30
0.0
  3
*X4949
  1

  0
TEXT
  5
510
  8
回07-寸法
  6
CONTINUOUS
 62
     5
 10
1542.577981004657
 20
560.2103253752109
 30
0.0
 40
6.0
  1
455
  0
TEXT
  5
511
  8
回07-寸法
  6
CONTINUOUS
 62
     5
 10
1555.777981004657
 20
560.2103253752109
 30
0.0
 40
4.2
  1
±0.3
  0
TEXT
  5
512
  8
回07-寸法
  6
CONTINUOUS
 62
     5
 10
1565.857981004657
 20
560.2103253752109
 30
0.0
 40
6.0
  1
 [17.913
  0
TEXT
  5
513
  8
回07-寸法
  6
CONTINUOUS
 62
     5
 10
1592.279643215819
 20
560.2103253752109
 30
0.0
 40
4.2
  1
±0.012
  0
TEXT
  5
514
  8
回07-寸法
  6
CONTINUOUS
 62
     5
 10
1607.399643215819
 20
560.2103253752109
 30
0.0
 40
6.0
  1
]
  0
ENDBLK
  5
516
  8
回09-LCD
  6
CONTINUOUS
 62
     7
  0
BLOCK
  8
回09-LCD
  2
*X5050
 70
     1
 10
0.0
 20
0.0
 30
0.0
  3
*X5050
  1

  0
TEXT
  5
519
  8
回07-寸法
  6
CONTINUOUS
 62
     5
 10
1880.367639612456
 20
299.2262417976237
 30
0.0
 40
6.0
  1
348
 50
90.0
  0
TEXT
  5
51A
  8
回07-寸法
  6
CONTINUOUS
 62
     5
 10
1880.367639612456
 20
312.4262417976238
 30
0.0
 40
4.2
  1
±0.3
 50
90.0
  0
TEXT
  5
51B
  8
回07-寸法
  6
CONTINUOUS
 62
     5
 10
1880.367639612456
 20
322.5062417976237
 30
0.0
 40
6.0
  1
 [13.701
 50
90.0
  0
TEXT
  5
51C
  8
回07-寸法
  6
CONTINUOUS
 62
     5
 10
1880.367639612456
 20
348.9062417976238
 30
0.0
 40
4.2
  1
±0.012
 50
90.0
  0
TEXT
  5
51D
  8
回07-寸法
  6
CONTINUOUS
 62
     5
 10
1880.367639612456
 20
364.0262417976237
 30
0.0
 40
6.0
  1
]
 50
90.0
  0
ENDBLK
  5
51F
  8
回09-LCD
  6
CONTINUOUS
 62
     7
  0
BLOCK
  8
回09-LCD
  2
*X5151
 70
     1
 10
0.0
 20
0.0
 30
0.0
  3
*X5151
  1

  0
TEXT
  5
522
  8
回07-寸法
  6
CONTINUOUS
 62
     5
 10
1249.086224800308
 20
373.7153858352526
 30
0.0
 40
6.0
  1
140
  0
TEXT
  5
523
  8
回07-寸法
  6
CONTINUOUS
 62
     5
 10
1261.086224800308
 20
373.7153858352526
 30
0.0
 40
4.2
  1
±1
  0
TEXT
  5
524
  8
回07-寸法
  6
CONTINUOUS
 62
     5
 10
1266.126224800308
 20
373.7153858352526
 30
0.0
 40
6.0
  1
 [5.512
  0
TEXT
  5
525
  8
回07-寸法
  6
CONTINUOUS
 62
     5
 10
1289.526224800308
 20
373.7153858352526
 30
0.0
 40
4.2
  1
±0.039
  0
TEXT
  5
526
  8
回07-寸法
  6
CONTINUOUS
 62
     5
 10
1305.501388348122
 20
373.7153858352526
 30
0.0
 40
6.0
  1
]
  0
ENDBLK
  5
528
  8
回09-LCD
  6
CONTINUOUS
 62
     7
  0
BLOCK
  8
回09-LCD
  2
*X5252
 70
     1
 10
0.0
 20
0.0
 30
0.0
  3
*X5252
  1

  0
TEXT
  5
52B
  8
回08-記事
  6
CONTINUOUS
 62
     5
 10
1223.912435833547
 20
160.3216326548752
 30
0.0
 40
6.0
  1
3.75
 50
90.0
  0
TEXT
  5
52C
  8
回08-記事
  6
CONTINUOUS
 62
     5
 10
1223.912435833547
 20
174.7216326548753
 30
0.0
 40
4.00002
  1
±0.1
 50
90.0
  0
TEXT
  5
52D
  8
回08-記事
  6
CONTINUOUS
 62
     5
 10
1223.912435833547
 20
183.5216766548754
 30
0.0
 40
6.0
  1
[0.148
 50
90.0
  0
TEXT
  5
52E
  8
回08-記事
  6
CONTINUOUS
 62
     5
 10
1223.912435833547
 20
203.9216766548754
 30
0.0
 40
4.00002
  1
±0.004
 50
90.0
  0
TEXT
  5
52F
  8
回08-記事
  6
CONTINUOUS
 62
     5
 10
1223.912435833547
 20
219.5217546548754
 30
0.0
 40
6.0
  1
]
 50
90.0
  0
ENDBLK
  5
531
  8
回09-LCD
  6
CONTINUOUS
 62
     7
  0
BLOCK
  8
回09-LCD
  2
*X5353
 70
     1
 10
0.0
 20
0.0
 30
0.0
  3
*X5353
  1

  0
TEXT
  5
534
  8
回08-記事
  6
CONTINUOUS
 62
     5
 10
1238.001541483255
 20
159.9003165578115
 30
0.0
 40
6.0
  1
1.25
 50
90.0
  0
TEXT
  5
535
  8
回08-記事
  6
CONTINUOUS
 62
     5
 10
1238.001541483255
 20
173.1003165578115
 30
0.0
 40
4.00002
  1
±0.2
 50
90.0
  0
TEXT
  5
536
  8
回08-記事
  6
CONTINUOUS
 62
     5
 10
1238.001541483255
 20
182.7003645578115
 30
0.0
 40
6.0
  1
[0.049
 50
90.0
  0
TEXT
  5
537
  8
回08-記事
  6
CONTINUOUS
 62
     5
 10
1238.001541483255
 20
204.3220267689735
 30
0.0
 40
4.00002
  1
±0.008
 50
90.0
  0
TEXT
  5
538
  8
回08-記事
  6
CONTINUOUS
 62
     5
 10
1238.001541483255
 20
219.5221027689736
 30
0.0
 40
6.0
  1
]
 50
90.0
  0
ENDBLK
  5
53A
  8
回09-LCD
  6
CONTINUOUS
 62
     7
  0
BLOCK
  8
回09-LCD
  2
*X5454
 70
     1
 10
0.0
 20
0.0
 30
0.0
  3
*X5454
  1

  0
TEXT
  5
53D
  8
回08-記事
  6
CONTINUOUS
 62
     5
 10
1254.500614651303
 20
144.7216326548753
 30
0.0
 40
6.0
  1
4-0.7
 50
90.0
  0
TEXT
  5
53E
  8
回08-記事
  6
CONTINUOUS
 62
     5
 10
1254.500614651303
 20
163.9216326548753
 30
0.0
 40
4.00002
  1
±0.1
 50
90.0
  0
TEXT
  5
53F
  8
回08-記事
  6
CONTINUOUS
 62
     5
 10
1254.500614651303
 20
172.7216766548754
 30
0.0
 40
6.0
  1
[4-0.028
 50
90.0
  0
TEXT
  5
540
  8
回08-記事
  6
CONTINUOUS
 62
     5
 10
1254.500614651303
 20
202.7216766548754
 30
0.0
 40
4.00002
  1
±0.004
 50
90.0
  0
TEXT
  5
541
  8
回08-記事
  6
CONTINUOUS
 62
     5
 10
1254.500614651303
 20
218.3217546548753
 30
0.0
 40
6.0
  1
]
 50
90.0
  0
ENDBLK
  5
543
  8
回09-LCD
  6
CONTINUOUS
 62
     7
  0
BLOCK
  8
回09-LCD
  2
*X5555
 70
     1
 10
0.0
 20
0.0
 30
0.0
  3
*X5555
  1

  0
TEXT
  5
546
  8
回08-記事
  6
CONTINUOUS
 62
     5
 10
1207.543572008767
 20
157.2722270958182
 30
0.0
 40
6.0
  1
6.25
 50
90.0
  0
TEXT
  5
547
  8
回08-記事
  6
CONTINUOUS
 62
     5
 10
1207.543572008767
 20
171.6722270958183
 30
0.0
 40
3.599999999999998
  1
±0.2
 50
90.0
  0
TEXT
  5
548
  8
回08-記事
  6
CONTINUOUS
 62
     5
 10
1207.543572008767
 20
180.3122270958184
 30
0.0
 40
6.0
  1
[0.246
 50
90.0
  0
TEXT
  5
549
  8
回08-記事
  6
CONTINUOUS
 62
     5
 10
1207.543572008767
 20
201.9122270958184
 30
0.0
 40
3.599999999999998
  1
±0.008
 50
90.0
  0
TEXT
  5
54A
  8
回08-記事
  6
CONTINUOUS
 62
     5
 10
1207.543572008767
 20
215.5922270958184
 30
0.0
 40
6.0
  1
]
 50
90.0
  0
ENDBLK
  5
54C
  8
回09-LCD
  6
CONTINUOUS
 62
     7
  0
BLOCK
  8
回09-LCD
  2
*X5656
 70
     1
 10
0.0
 20
0.0
 30
0.0
  3
*X5656
  1

  0
TEXT
  5
54F
  8
回08-記事
  6
CONTINUOUS
 62
     5
 10
1195.016992512469
 20
51.61366388556553
 30
0.0
 40
6.0
  1
0.3
 50
90.0
  0
TEXT
  5
550
  8
回08-記事
  6
CONTINUOUS
 62
     5
 10
1195.016992512469
 20
61.81366388556558
 30
0.0
 40
4.000199999999998
  1
±0.05
 50
90.0
  0
TEXT
  5
551
  8
回08-記事
  6
CONTINUOUS
 62
     5
 10
1195.016992512469
 20
74.21428388556545
 30
0.0
 40
6.0
  1
[0.012
 50
90.0
  0
TEXT
  5
552
  8
回08-記事
  6
CONTINUOUS
 62
     5
 10
1195.016992512469
 20
94.01428388556542
 30
0.0
 40
4.000199999999998
  1
±0.002
 50
90.0
  0
TEXT
  5
553
  8
回08-記事
  6
CONTINUOUS
 62
     5
 10
1195.016992512469
 20
109.2150438855654
 30
0.0
 40
6.0
  1
]
 50
90.0
  0
ENDBLK
  5
555
  8
回09-LCD
  6
CONTINUOUS
 62
     7
  0
BLOCK
  8
回09-LCD
  2
*X5757
 70
     1
 10
0.0
 20
0.0
 30
0.0
  3
*X5757
  1

  0
TEXT
  5
558
  8
回08-記事
  6
CONTINUOUS
 62
     5
 10
1812.513586924003
 20
52.03762278320301
 30
0.0
 40
6.0
  1
2.1
 50
90.0
  0
TEXT
  5
559
  8
回08-記事
  6
CONTINUOUS
 62
     5
 10
1812.513586924003
 20
61.03762278320299
 30
0.0
 40
4.000199999999998
  1
±0.2
 50
90.0
  0
TEXT
  5
55A
  8
回08-記事
  6
CONTINUOUS
 62
     5
 10
1812.513586924003
 20
70.63810278320305
 30
0.0
 40
6.0
  1
[0.083
 50
90.0
  0
TEXT
  5
55B
  8
回08-記事
  6
CONTINUOUS
 62
     5
 10
1812.513586924003
 20
91.63810278320308
 30
0.0
 40
4.000199999999998
  1
±0.008
 50
90.0
  0
TEXT
  5
55C
  8
回08-記事
  6
CONTINUOUS
 62
     5
 10
1812.513586924003
 20
106.838862783203
 30
0.0
 40
6.0
  1
]
 50
90.0
  0
ENDBLK
  5
55E
  8
回09-LCD
  6
CONTINUOUS
 62
     7
  0
ENDSEC
  0
SECTION
  2
ENTITIES
  0
TEXT
  5
D0
  8
回03-記事
  6
CONTINUOUS
 62
     5
 10
1482.5748157072
 20
47.1671840015569
 30
0.0
 40
4.799999999999999
  1
without affecting product specification.
  0
TEXT
  5
D2
  8
回03-記事
  6
CONTINUOUS
 62
     5
 10
1482.5748157072
 20
55.58688971575685
 30
0.0
 40
4.799999999999999
  1
Edges and corners of ITO glass may be chamfered 
  0
TEXT
  5
D3
  8
回03-記事
  6
CONTINUOUS
 62
     5
 10
1482.5748157072
 20
64.00659542995668
 30
0.0
 40
4.799999999999999
  1
Unit: mm
  0
TEXT
  5
D4
  8
回03-記事
  6
CONTINUOUS
 62
     5
 10
1482.5748157072
 20
72.42630114415641
 30
0.0
 40
4.799999999999999
  1
EXCEPT WHERE INDICATED
  0
TEXT
  5
D5
  8
回03-記事
  6
CONTINUOUS
 62
     5
 10
1482.5748157072
 20
80.84600685835615
 30
0.0
 40
4.799999999999999
  1
TOLERANCE=±0.5mm
  0
TEXT
  5
D6
  8
回07-寸法
  6
CONTINUOUS
 62
     5
 10
1197.162232976407
 20
254.5014856440944
 30
0.0
 40
6.0
  1
2-R0.5[R0.020]             
1001
ACAD
1000
MTEXTBEGIN
1070
    73
1070
     1
1070
    44
1040
1.0
1070
    74
1070
     0
1000
MTEXTEND
  0
INSERT
  5
DA
  8
回07-寸法
  6
CONTINUOUS
 62
     7
 66
     1
  2
*X3737
 10
0.0
 20
0.0
 30
0.0
  0
SEQEND
  5
44D
  8
回09-LCD
  6
CONTINUOUS
 62
     7
  0
TEXT
  5
DB
  8
回91-枠英2
 10
1920.846836236329
 20
48.77543081674997
 30
0.0
 40
5.0
  1
Sep/25/2023
 72
     1
 11
1940.346836236329
 21
48.77543081674997
 31
0.0
  0
TEXT
  5
DF
  8
回91-枠英2
  6
CONTINUOUS
 62
     7
 10
1935.297566341562
 20
59.71486773237272
 30
0.0
 40
3.0
  1
DATE
  0
TEXT
  5
E0
  8
回91-枠英2
 10
1920.471836236329
 20
36.55582941763481
 30
0.0
 40
5.0
  1
DMC Co., Ltd.
 72
     1
 11
1940.346836236329
 21
36.55582941763481
 31
0.0
  0
TEXT
  5
E1
  8
回91-枠英2
 10
1848.096836236329
 20
51.51000377567465
 30
0.0
 40
5.0
  1
AST-213A140A
 72
     1
 11
1870.346836236329
 21
51.51000377567465
 31
0.0
  0
TEXT
  5
E2
  8
回91-枠英2
 10
1860.896836236329
 20
59.96537449980582
 30
0.0
 40
3.0
  1
PART　No.
 72
     1
 11
1870.346836236329
 21
59.96537449980582
 31
0.0
  0
LINE
  5
E3
  8
回91-枠英2
 10
1840.846836236329
 20
39.01812158044271
 30
0.0
 11
1899.846836236329
 21
39.01812158044271
 31
0.0
  0
TEXT
  5
E4
  8
回91-枠英2
 10
1846.946836236329
 20
40.16815231182881
 30
0.0
 40
3.0
  1
STANDARD TOUCHSCREEN
 72
     1
 11
1870.346836236329
 21
40.16815231182881
 31
0.0
  0
TEXT
  5
E5
  8
回91-枠英2
 10
1853.696836236329
 20
35.16815231182881
 30
0.0
 40
3.0
  1
CIRCUIT　DRAWING
 72
     1
 11
1870.346836236329
 21
35.16815231182881
 31
0.0
  0
LINE
  5
E6
  8
回91-枠英2
 10
1902.846836236329
 20
64.01812158044271
 30
0.0
 11
1902.846836236329
 21
34.01812158044271
 31
0.0
  0
TEXT
  5
E7
  8
回91-枠英2
 10
1865.546836236329
 20
44.76174127001804
 30
0.0
 40
3.0
  1
TYPE
 72
     1
 11
1870.346836236329
 21
44.76174127001804
 31
0.0
  0
LINE
  5
E8
  8
回91-枠英2
 10
1837.846836236329
 20
64.01812158044271
 30
0.0
 11
1837.846836236329
 21
34.01812158044271
 31
0.0
  0
LINE
  5
E9
  8
回91-枠英2
 10
1837.846836236328
 20
49.01812158044272
 30
0.0
 11
1902.846836236329
 21
49.01812158044272
 31
0.0
  0
LINE
  5
EA
  8
回91-枠英2
 10
1837.846836236329
 20
44.01812158044271
 30
0.0
 11
1977.846836236329
 21
44.01812158044271
 31
0.0
  0
LINE
  5
EB
  8
回91-枠英2
 10
1837.846836236329
 20
64.01812158044271
 30
0.0
 11
1977.846836236329
 21
64.01812158044271
 31
0.0
  0
LINE
  5
EC
  8
回91-枠英2
 10
1837.846836236329
 20
59.01812158044272
 30
0.0
 11
1977.846836236329
 21
59.01812158044272
 31
0.0
  0
TEXT
  5
ED
  8
回07-寸法
  6
CONTINUOUS
 62
     7
 10
1877.227889336604
 20
114.888453215155
 30
0.0
 40
3.2
  1
(INSULATION AREA)
 50
90.0
  0
TEXT
  5
EE
  8
回07-寸法
  6
CONTINUOUS
 62
     7
 10
1876.104900413394
 20
506.2456153332004
 30
0.0
 40
3.2
  1
(INSULATION AREA)
 50
90.0
  0
TEXT
  5
EF
  8
回07-寸法
  6
CONTINUOUS
 62
     7
 10
1310.057488866983
 20
545.26667967304
 30
0.0
 40
3.2
  1
(INSULATION AREA)
  0
TEXT
  5
F0
  8
回07-寸法
  6
CONTINUOUS
 62
     7
 10
1806.974936834891
 20
546.0864218673767
 30
0.0
 40
3.2
  1
(INSULATION AREA)
  0
DIMENSION
  5
F1
  8
回07-寸法
  6
CONTINUOUS
 62
     7
  2
*D3636
 10
1871.492641926868
 20
155.901358626068
 30
0.0
 11
1871.492641926868
 21
132.4212145138554
 31
0.0
 70
   128
  3
DMC
 13
1796.976329083613
 23
162.9013586260681
 33
0.0
 14
1803.876329083613
 24
155.901358626068
 34
0.0
 50
90.0
1001
ACAD
1000
DSTYLE
1002
{
1070
    79
1070
     2
1070
   140
1040
5.0
1070
   143
1040
0.03937007874016
1070
   285
1070
     0
1070
   371
1070
     9
1070
   372
1070
     9
1002
}
  0
DIMENSION
  5
102
  8
回07-寸法
  6
CONTINUOUS
 62
     7
  2
*D3535
 10
1871.492641926868
 20
503.9013586260684
 30
0.0
 11
1871.492641926868
 21
523.1013586260683
 31
0.0
 70
   128
  3
DMC
 13
1796.976329083613
 23
496.9013586260679
 33
0.0
 14
1803.876329083613
 24
503.9013586260684
 34
0.0
 50
90.0
1001
ACAD
1000
DSTYLE
1002
{
1070
    79
1070
     2
1070
   140
1040
5.0
1070
   143
1040
0.03937007874016
1070
   285
1070
     0
1070
   371
1070
     9
1070
   372
1070
     9
1002
}
  0
DIMENSION
  5
111
  8
回07-寸法
  6
CONTINUOUS
 62
     7
  2
*D3434
 10
1803.876329083613
 20
549.9720001631193
 30
0.0
 11
1826.087160189194
 21
553.7720001631194
 31
0.0
 70
     0
  3
DMC
 13
1796.976329083613
 23
496.9013586260679
 33
0.0
 14
1803.876329083613
 24
503.9013586260684
 34
0.0
1001
ACAD
1000
DSTYLE
1002
{
1070
    79
1070
     2
1070
   140
1040
5.0
1070
   143
1040
0.03937007874016
1070
   285
1070
     0
1070
   371
1070
     9
1070
   372
1070
     9
1002
}
  0
DIMENSION
  5
120
  8
回07-寸法
  6
CONTINUOUS
 62
     7
  2
*D3333
 10
1348.876329083612
 20
549.9720001631193
 30
0.0
 11
1320.517840599696
 21
549.9720001631193
 31
0.0
 70
   128
  1
<>    
  3
DMC
 13
1355.776329083612
 23
496.9013586260679
 33
0.0
 14
1348.876329083612
 24
503.9013586260682
 34
0.0
1001
ACAD
1000
DSTYLE
1002
{
1070
    79
1070
     2
1070
   140
1040
5.0
1070
   143
1040
0.03937007874016
1070
   285
1070
     0
1070
   371
1070
     9
1070
   372
1070
     9
1002
}
  0
DIMENSION
  5
12F
  8
回07-寸法
  6
CONTINUOUS
 62
     7
  2
*D3232
 10
1871.492641926869
 20
496.9013586260683
 30
0.0
 11
1871.492641926868
 21
329.9013586260684
 31
0.0
 70
   128
  3
DMC
 13
1796.976329083613
 23
162.9013586260681
 33
0.0
 14
1796.976329083613
 24
496.9013586260679
 34
0.0
 50
90.0
1001
ACAD
1000
DSTYLE
1002
{
1070
    79
1070
     2
1070
   140
1040
5.0
1070
   143
1040
0.03937007874016
1070
   285
1070
     0
1070
   371
1070
     9
1070
   372
1070
     9
1002
}
  0
DIMENSION
  5
13C
  8
回07-寸法
  6
CONTINUOUS
 62
     7
  2
*D3131
 10
1355.776329083612
 20
549.9720001631193
 30
0.0
 11
1576.651323332131
 21
549.9720001631193
 31
0.0
 70
   128
  3
DMC
 13
1796.976329083613
 23
496.9013586260679
 33
0.0
 14
1355.776329083612
 24
496.9013586260679
 34
0.0
1001
ACAD
1000
DSTYLE
1002
{
1070
    79
1070
     2
1070
   140
1040
5.0
1070
   143
1040
0.03937007874016
1070
   285
1070
     0
1070
   371
1070
     9
1070
   372
1070
     9
1002
}
  0
POLYLINE
  5
149
  8
回08-記事
  6
DASHED2
 62
     7
 66
     1
 10
0.0
 20
0.0
 30
0.0
 70
     1
  0
VERTEX
  5
6D0
  8
回08-記事
  6
DASHED2
 62
     7
 10
1796.976329083613
 20
162.9013586260681
 30
0.0
  0
VERTEX
  5
6D2
  8
回08-記事
  6
DASHED2
 62
     7
 10
1355.776329083612
 20
162.9013586260681
 30
0.0
  0
VERTEX
  5
6D3
  8
回08-記事
  6
DASHED2
 62
     7
 10
1355.776329083612
 20
496.9013586260679
 30
0.0
  0
VERTEX
  5
6D4
  8
回08-記事
  6
DASHED2
 62
     7
 10
1796.976329083613
 20
496.9013586260679
 30
0.0
  0
SEQEND
  5
6D1
  8
回09-LCD
  6
CONTINUOUS
 62
     7
  0
TEXT
  5
14E
  8
回91-枠英1
 10
1979.251257239988
 20
526.806808876302
 30
0.0
 40
4.0
  1
1
  0
TEXT
  5
152
  8
回91-枠英1
 10
1936.576221541981
 20
574.3905447064938
 30
0.0
 40
4.0
  1
J
  0
LINE
  5
153
  8
回91-枠英1
 10
1982.846836236329
 20
484.0181215804427
 30
0.0
 11
1977.846836236329
 21
484.0181215804427
 31
0.0
  0
TEXT
  5
154
  8
回91-枠英1
 10
1978.949758536686
 20
436.806808876302
 30
0.0
 40
4.0
  1
2
  0
LINE
  5
155
  8
回91-枠英1
 10
1982.846836236329
 20
394.0181215804427
 30
0.0
 11
1977.846836236329
 21
394.0181215804427
 31
0.0
  0
TEXT
  5
156
  8
回91-枠英1
 10
1978.944277692486
 20
346.8068088763021
 30
0.0
 40
4.0
  1
3
  0
LINE
  5
157
  8
回91-枠英1
 10
1982.846836236329
 20
304.0181215804427
 30
0.0
 11
1977.846836236329
 21
304.0181215804427
 31
0.0
  0
TEXT
  5
158
  8
回91-枠英1
 10
1978.871185572404
 20
256.806808876302
 30
0.0
 40
4.0
  1
4
  0
LINE
  5
159
  8
回91-枠英1
 10
1897.846836236329
 20
579.0181215804428
 30
0.0
 11
1897.846836236329
 21
574.0181215804427
 31
0.0
  0
TEXT
  5
15A
  8
回91-枠英1
 10
1856.576221541981
 20
574.3905447064938
 30
0.0
 40
4.0
  1
I
  0
LINE
  5
15B
  8
回91-枠英1
 10
1817.846836236329
 20
579.0181215804428
 30
0.0
 11
1817.846836236329
 21
574.0181215804427
 31
0.0
  0
TEXT
  5
15C
  8
回91-枠英1
 10
1776.576221541981
 20
574.3905447064938
 30
0.0
 40
4.0
  1
H
  0
LINE
  5
15D
  8
回91-枠英1
 10
1737.846836236329
 20
579.0181215804428
 30
0.0
 11
1737.846836236329
 21
574.0181215804427
 31
0.0
  0
TEXT
  5
15E
  8
回91-枠英1
 10
1696.576221541981
 20
574.3905447064938
 30
0.0
 40
4.0
  1
G
  0
LINE
  5
15F
  8
回91-枠英1
 10
1982.846836236329
 20
214.0181215804427
 30
0.0
 11
1977.846836236329
 21
214.0181215804427
 31
0.0
  0
TEXT
  5
160
  8
回91-枠英1
 10
1978.871185572404
 20
166.806808876302
 30
0.0
 40
4.0
  1
5
  0
LINE
  5
161
  8
回91-枠英1
 10
1982.846836236329
 20
124.0181215804427
 30
0.0
 11
1977.846836236329
 21
124.0181215804427
 31
0.0
  0
TEXT
  5
162
  8
回91-枠英1
 10
1978.871185572404
 20
76.806808876302
 30
0.0
 40
4.0
  1
6
  0
TEXT
  5
163
  8
回91-枠英1
 10
1936.576221541981
 20
29.39054470649393
 30
0.0
 40
4.0
  1
J
  0
LINE
  5
164
  8
回91-枠英1
 10
1897.846836236329
 20
34.01812158044271
 30
0.0
 11
1897.846836236329
 21
29.01812158044271
 31
0.0
  0
TEXT
  5
165
  8
回91-枠英1
 10
1856.576221541981
 20
29.39054470649393
 30
0.0
 40
4.0
  1
I
  0
LINE
  5
166
  8
回91-枠英1
 10
1817.846836236329
 20
34.01812158044271
 30
0.0
 11
1817.846836236329
 21
29.01812158044271
 31
0.0
  0
TEXT
  5
167
  8
回91-枠英1
 10
1776.576221541981
 20
29.39054470649393
 30
0.0
 40
4.0
  1
H
  0
LINE
  5
168
  8
回91-枠英1
 10
1737.846836236329
 20
34.01812158044271
 30
0.0
 11
1737.846836236329
 21
29.01812158044271
 31
0.0
  0
TEXT
  5
169
  8
回91-枠英1
 10
1696.576221541981
 20
29.39054470649393
 30
0.0
 40
4.0
  1
G
  0
LINE
  5
16A
  8
回91-枠英1
 10
1977.846836236329
 20
574.0181215804427
 30
0.0
 11
1977.846836236329
 21
34.01812158044271
 31
0.0
  0
LINE
  5
16B
  8
回91-枠英1
 10
1982.846836236329
 20
29.01812158044271
 30
0.0
 11
1982.846836236329
 21
579.0181215804428
 31
0.0
  0
LINE
  5
16C
  8
回91-枠英1
 10
1657.846836236329
 20
579.0181215804428
 30
0.0
 11
1657.846836236329
 21
574.0181215804427
 31
0.0
  0
TEXT
  5
16D
  8
回91-枠英1
 10
1616.576221541981
 20
574.3905447064938
 30
0.0
 40
4.0
  1
F
  0
LINE
  5
16E
  8
回91-枠英1
 10
1577.846836236329
 20
579.0181215804428
 30
0.0
 11
1577.846836236329
 21
574.0181215804427
 31
0.0
  0
TEXT
  5
16F
  8
回91-枠英1
 10
1536.576221541981
 20
574.3905447064938
 30
0.0
 40
4.0
  1
E
  0
LINE
  5
170
  8
回91-枠英1
 10
1497.846836236329
 20
579.0181215804428
 30
0.0
 11
1497.846836236329
 21
574.0181215804427
 31
0.0
  0
TEXT
  5
171
  8
回91-枠英1
 10
1456.576221541981
 20
574.3905447064938
 30
0.0
 40
4.0
  1
D
  0
LINE
  5
172
  8
回91-枠英1
 10
1417.846836236329
 20
579.0181215804428
 30
0.0
 11
1417.846836236329
 21
574.0181215804427
 31
0.0
  0
TEXT
  5
173
  8
回91-枠英1
 10
1376.576221541981
 20
574.3905447064938
 30
0.0
 40
4.0
  1
C
  0
LINE
  5
174
  8
回91-枠英1
 10
1337.846836236329
 20
579.0181215804428
 30
0.0
 11
1337.846836236329
 21
574.0181215804427
 31
0.0
  0
TEXT
  5
175
  8
回91-枠英1
 10
1296.576221541981
 20
574.3905447064938
 30
0.0
 40
4.0
  1
B
  0
LINE
  5
176
  8
回91-枠英1
 10
1257.846836236329
 20
579.0181215804428
 30
0.0
 11
1257.846836236329
 21
574.0181215804427
 31
0.0
  0
TEXT
  5
177
  8
回91-枠英1
 10
1216.576221541981
 20
574.3905447064938
 30
0.0
 40
4.0
  1
A
  0
TEXT
  5
178
  8
回91-枠英1
 10
1174.251257239988
 20
526.806808876302
 30
0.0
 40
4.0
  1
1
  0
LINE
  5
179
  8
回91-枠英1
 10
1177.846836236329
 20
484.0181215804427
 30
0.0
 11
1172.846836236329
 21
484.0181215804427
 31
0.0
  0
TEXT
  5
17A
  8
回91-枠英1
 10
1173.949758536686
 20
436.806808876302
 30
0.0
 40
4.0
  1
2
  0
LINE
  5
17B
  8
回91-枠英1
 10
1177.846836236329
 20
394.0181215804427
 30
0.0
 11
1172.846836236329
 21
394.0181215804427
 31
0.0
  0
TEXT
  5
17C
  8
回91-枠英1
 10
1173.944277692485
 20
346.8068088763021
 30
0.0
 40
4.0
  1
3
  0
LINE
  5
17D
  8
回91-枠英1
 10
1177.846836236329
 20
304.0181215804427
 30
0.0
 11
1172.846836236329
 21
304.0181215804427
 31
0.0
  0
TEXT
  5
17E
  8
回91-枠英1
 10
1173.871185572404
 20
256.806808876302
 30
0.0
 40
4.0
  1
4
  0
LINE
  5
17F
  8
回91-枠英1
 10
1657.846836236329
 20
34.01812158044271
 30
0.0
 11
1657.846836236329
 21
29.01812158044271
 31
0.0
  0
TEXT
  5
180
  8
回91-枠英1
 10
1616.576221541981
 20
29.39054470649393
 30
0.0
 40
4.0
  1
F
  0
LINE
  5
181
  8
回91-枠英1
 10
1577.846836236329
 20
34.01812158044271
 30
0.0
 11
1577.846836236329
 21
29.01812158044271
 31
0.0
  0
TEXT
  5
182
  8
回91-枠英1
 10
1536.576221541981
 20
29.39054470649393
 30
0.0
 40
4.0
  1
E
  0
LINE
  5
183
  8
回91-枠英1
 10
1497.846836236329
 20
34.01812158044271
 30
0.0
 11
1497.846836236329
 21
29.01812158044271
 31
0.0
  0
TEXT
  5
184
  8
回91-枠英1
 10
1456.576221541981
 20
29.39054470649393
 30
0.0
 40
4.0
  1
D
  0
LINE
  5
185
  8
回91-枠英1
 10
1417.846836236329
 20
34.01812158044271
 30
0.0
 11
1417.846836236329
 21
29.01812158044271
 31
0.0
  0
TEXT
  5
186
  8
回91-枠英1
 10
1376.576221541981
 20
29.39054470649393
 30
0.0
 40
4.0
  1
C
  0
LINE
  5
187
  8
回91-枠英1
 10
1337.846836236329
 20
34.01812158044271
 30
0.0
 11
1337.846836236329
 21
29.01812158044271
 31
0.0
  0
TEXT
  5
188
  8
回91-枠英1
 10
1296.576221541981
 20
29.39054470649393
 30
0.0
 40
4.0
  1
B
  0
LINE
  5
189
  8
回91-枠英1
 10
1177.846836236329
 20
214.0181215804427
 30
0.0
 11
1172.846836236329
 21
214.0181215804427
 31
0.0
  0
TEXT
  5
18A
  8
回91-枠英1
 10
1173.871185572404
 20
166.806808876302
 30
0.0
 40
4.0
  1
5
  0
LINE
  5
18B
  8
回91-枠英1
 10
1177.846836236329
 20
124.0181215804427
 30
0.0
 11
1172.846836236329
 21
124.0181215804427
 31
0.0
  0
LINE
  5
18C
  8
回91-枠英1
 10
1257.846836236329
 20
34.01812158044271
 30
0.0
 11
1257.846836236329
 21
29.01812158044271
 31
0.0
  0
TEXT
  5
18D
  8
回91-枠英1
 10
1216.576221541981
 20
29.39054470649393
 30
0.0
 40
4.0
  1
A
  0
TEXT
  5
18E
  8
回91-枠英1
 10
1173.871185572404
 20
76.806808876302
 30
0.0
 40
4.0
  1
6
  0
LINE
  5
18F
  8
回91-枠英1
 10
1177.846836236329
 20
574.0181215804427
 30
0.0
 11
1177.846836236329
 21
34.01812158044271
 31
0.0
  0
LINE
  5
190
  8
回91-枠英1
 10
1172.846836236329
 20
29.01812158044271
 30
0.0
 11
1172.846836236329
 21
579.0181215804428
 31
0.0
  0
LINE
  5
191
  8
回91-枠英1
 10
1177.846836236329
 20
34.01812158044271
 30
0.0
 11
1977.846836236329
 21
34.01812158044271
 31
0.0
  0
LINE
  5
192
  8
回91-枠英1
 10
1982.846836236329
 20
29.01812158044271
 30
0.0
 11
1172.846836236329
 21
29.01812158044271
 31
0.0
  0
LINE
  5
193
  8
回91-枠英1
 10
1177.846836236329
 20
574.0181215804427
 30
0.0
 11
1977.846836236329
 21
574.0181215804427
 31
0.0
  0
LINE
  5
194
  8
回91-枠英1
 10
1982.846836236329
 20
579.0181215804428
 30
0.0
 11
1172.846836236329
 21
579.0181215804428
 31
0.0
  0
TEXT
  5
195
  8
回04-下接
 62
     3
 10
1774.103067991112
 20
156.4068292658589
 30
0.0
 40
1.322999999999999
  1
AST-213A
  0
POLYLINE
  5
199
  8
回04-下接
 62
     7
 66
     1
 10
0.0
 20
0.0
 30
0.0
 70
     1
  0
VERTEX
  5
6D5
  8
回04-下接
 62
     7
 10
1348.876329083612
 20
503.9013586260682
 30
0.0
  0
VERTEX
  5
6D7
  8
回04-下接
 62
     7
 10
1803.876329083613
 20
503.9013586260684
 30
0.0
  0
VERTEX
  5
6D8
  8
回04-下接
 62
     7
 10
1803.876329083613
 20
503.9013586260684
 30
0.0
  0
VERTEX
  5
6D9
  8
回04-下接
 62
     7
 10
1803.876329083613
 20
155.901358626068
 30
0.0
  0
VERTEX
  5
6DA
  8
回04-下接
 62
     7
 10
1803.876329083613
 20
155.901358626068
 30
0.0
  0
VERTEX
  5
6DB
  8
回04-下接
 62
     7
 10
1348.876329083612
 20
155.901358626068
 30
0.0
  0
VERTEX
  5
6DC
  8
回04-下接
 62
     7
 10
1348.876329083612
 20
155.901358626068
 30
0.0
  0
VERTEX
  5
6DD
  8
回04-下接
 62
     7
 10
1348.876329083612
 20
503.9013586260682
 30
0.0
  0
SEQEND
  5
6D6
  8
回09-LCD
  6
CONTINUOUS
 62
     7
  0
INSERT
  5
19A
  8
回08-記事
 62
     8
 66
     1
  2
*X3838
 10
0.0
 20
0.0
 30
0.0
1001
ACAD
1000
HATCH
1002
{
1070
    19
1000
ANSI31
1040
0.4
1040
0.0
1000
ASC_BOUNDS
1070
     1
1070
     2
1070
     1
1005
19B
1000
ASC_SEEDPOINT
1011
1419.522211694466
1021
445.0858323472779
1031
0.0
1000
R14_HATCH_DATA
1000
19A
1011
1.0
1021
0.0
1031
0.0
1011
0.0
1021
1.0
1031
0.0
1011
0.0
1021
0.0
1031
1.0
1040
0.0
1010
0.0
1020
0.0
1030
1.0
1000
ANSI31
1070
     0
1070
     1
1071
        1
1071
        1
1071
        4
1070
     1
1040
1344.484399175246
1040
322.4025617102711
1040
1353.076329083612
1040
322.4025617102711
1070
     1
1040
1353.076329083612
1040
322.4025617102711
1040
1353.076329083612
1040
328.9013586260686
1070
     1
1040
1353.076329083612
1040
328.9013586260686
1040
1344.484399175246
1040
328.9013586260686
1070
     1
1040
1344.484399175246
1040
328.9013586260686
1040
1344.484399175246
1040
322.4025617102711
1071
        1
1005
19B
1070
     0
1070
     1
1040
0.0
1040
0.4
1070
     0
1070
     1
1040
5.497787143782136
1040
1419.522211694466
1040
445.0858323472779
1040
-0.8980256121069151
1040
-0.8980256121069153
1070
     0
1071
        1
1040
1419.522211694466
1040
445.0858323472779
1040
0.0
1002
}
  0
SEQEND
  5
468
  8
回09-LCD
  6
CONTINUOUS
 62
     7
  0
POLYLINE
  5
19B
  8
回08-記事
 62
     8
 66
     1
 10
0.0
 20
0.0
 30
0.0
 70
     1
1001
ACAD
1000
ASC_BOUNDS
1002
{
1070
    19
1005
19A
1002
}
  0
VERTEX
  5
6DE
  8
回08-記事
 62
     8
 10
1344.484399175246
 20
322.4025617102711
 30
0.0
  0
VERTEX
  5
6E0
  8
回08-記事
 62
     8
 10
1353.076329083612
 20
322.4025617102711
 30
0.0
  0
VERTEX
  5
6E1
  8
回08-記事
 62
     8
 10
1353.076329083612
 20
328.9013586260686
 30
0.0
  0
VERTEX
  5
6E2
  8
回08-記事
 62
     8
 10
1344.484399175246
 20
328.9013586260686
 30
0.0
  0
SEQEND
  5
6DF
  8
回09-LCD
  6
CONTINUOUS
 62
     7
  0
ARC
  5
19C
  8
回05-ﾃｰﾙ
 62
     7
 10
1346.876329083612
 20
329.901358626068
 30
0.0
 40
0.5000000000004548
 50
89.99999999999836
 51
269.9999999999984
  0
POLYLINE
  5
1A0
  8
回08-記事
  6
PHANTOM2
 62
     7
 66
     1
 10
0.0
 20
0.0
 30
0.0
 70
     1
  0
VERTEX
  5
6E3
  8
回08-記事
  6
PHANTOM2
 62
     7
 10
1791.376329083612
 20
490.9013586260679
 30
0.0
  0
VERTEX
  5
6E5
  8
回08-記事
  6
PHANTOM2
 62
     7
 10
1361.376329083612
 20
490.9013586260679
 30
0.0
  0
VERTEX
  5
6E6
  8
回08-記事
  6
PHANTOM2
 62
     7
 10
1361.376329083612
 20
168.901358626068
 30
0.0
  0
VERTEX
  5
6E7
  8
回08-記事
  6
PHANTOM2
 62
     7
 10
1791.376329083612
 20
168.901358626068
 30
0.0
  0
SEQEND
  5
6E4
  8
回09-LCD
  6
CONTINUOUS
 62
     7
  0
ARC
  5
1A2
  8
回05-ﾃｰﾙ
 62
     7
 10
1344.486053936851
 20
322.9013586260677
 30
0.0
 40
1.0
 50
225.1170071046083
 51
270.000000000009
  0
ARC
  5
1A3
  8
回05-ﾃｰﾙ
 62
     7
 10
1338.765066514834
 20
325.7763586260685
 30
0.0
 40
1.0
 50
45.11700710460853
 51
90.00000000000033
  0
LINE
  5
1A4
  8
回05-ﾃｰﾙ
 62
     7
 10
1339.470727797926
 20
326.4849079564228
 30
0.0
 11
1343.78039265376
 21
322.1928092957132
 31
0.0
  0
ARC
  5
1A5
  8
回05-ﾃｰﾙ
 62
     7
 10
1344.486053936851
 20
336.9013586260685
 30
0.0
 40
1.0
 50
89.99999999999097
 51
134.8829928953917
  0
LINE
  5
1A6
  8
回05-ﾃｰﾙ
 62
     7
 10
1344.486053936852
 20
337.9013586260685
 30
0.0
 11
1347.376329083612
 21
337.9013586260685
 31
0.0
  0
LINE
  5
1A7
  8
回05-ﾃｰﾙ
 62
     7
 10
1209.376329083612
 20
326.7763586260676
 30
0.0
 11
1338.765066514834
 21
326.7763586260676
 31
0.0
  0
ARC
  5
1A8
  8
回05-ﾃｰﾙ
 62
     7
 10
1209.376329083612
 20
327.276358626068
 30
0.0
 40
0.5
 50
180.0
 51
270.0
  0
ARC
  5
1A9
  8
回08-記事
  6
CONTINUOUS
 62
     7
 10
1792.240620527774
 20
116.9150438855658
 30
0.0
 40
0.5
 50
0.0
 51
180.0
  0
ARC
  5
1AA
  8
回08-記事
  6
CONTINUOUS
 62
     7
 10
1788.240620527774
 20
116.9150438855658
 30
0.0
 40
0.5
 50
0.0
 51
180.0
  0
ARC
  5
1AB
  8
回08-記事
  6
CONTINUOUS
 62
     7
 10
1784.240620527774
 20
116.9150438855658
 30
0.0
 40
0.5
 50
0.0
 51
180.0
  0
ARC
  5
1AC
  8
回08-記事
  6
CONTINUOUS
 62
     7
 10
1780.240620527774
 20
116.9150438855658
 30
0.0
 40
0.5
 50
0.0
 51
180.0
  0
ARC
  5
1AD
  8
回08-記事
  6
CONTINUOUS
 62
     7
 10
1776.240620527774
 20
116.9150438855658
 30
0.0
 40
0.5
 50
0.0
 51
180.0
  0
ARC
  5
1AE
  8
回08-記事
  6
CONTINUOUS
 62
     7
 10
1772.240620527774
 20
116.9150438855658
 30
0.0
 40
0.5
 50
0.0
 51
180.0
  0
ARC
  5
1AF
  8
回08-記事
  6
CONTINUOUS
 62
     7
 10
1768.240620527774
 20
116.9150438855658
 30
0.0
 40
0.5
 50
0.0
 51
180.0
  0
ARC
  5
1B0
  8
回08-記事
  6
CONTINUOUS
 62
     7
 10
1764.240620527775
 20
116.9150438855658
 30
0.0
 40
0.5
 50
0.0
 51
180.0
  0
ARC
  5
1B1
  8
回08-記事
  6
CONTINUOUS
 62
     7
 10
1760.240620527774
 20
116.9150438855658
 30
0.0
 40
0.5
 50
0.0
 51
180.0
  0
ARC
  5
1B2
  8
回08-記事
  6
CONTINUOUS
 62
     7
 10
1756.240620527774
 20
116.9150438855658
 30
0.0
 40
0.5
 50
0.0
 51
180.0
  0
ARC
  5
1B3
  8
回08-記事
  6
CONTINUOUS
 62
     7
 10
1752.240620527774
 20
116.9150438855658
 30
0.0
 40
0.5
 50
0.0
 51
180.0
  0
ARC
  5
1B4
  8
回08-記事
  6
CONTINUOUS
 62
     7
 10
1748.240620527775
 20
116.9150438855658
 30
0.0
 40
0.5
 50
0.0
 51
180.0
  0
ARC
  5
1B5
  8
回08-記事
  6
CONTINUOUS
 62
     7
 10
1744.240620527774
 20
116.9150438855658
 30
0.0
 40
0.5
 50
0.0
 51
180.0
  0
ARC
  5
1B6
  8
回08-記事
  6
CONTINUOUS
 62
     7
 10
1740.240620527774
 20
116.9150438855658
 30
0.0
 40
0.5
 50
0.0
 51
180.0
  0
ARC
  5
1B7
  8
回08-記事
  6
CONTINUOUS
 62
     7
 10
1736.240620527774
 20
116.9150438855658
 30
0.0
 40
0.5
 50
0.0
 51
180.0
  0
ARC
  5
1B8
  8
回08-記事
  6
CONTINUOUS
 62
     7
 10
1732.240620527775
 20
116.9150438855658
 30
0.0
 40
0.5
 50
0.0
 51
180.0
  0
ARC
  5
1B9
  8
回08-記事
  6
CONTINUOUS
 62
     7
 10
1728.240620527774
 20
116.9150438855658
 30
0.0
 40
0.5
 50
0.0
 51
180.0
  0
ARC
  5
1BA
  8
回08-記事
  6
CONTINUOUS
 62
     7
 10
1724.240620527774
 20
116.9150438855658
 30
0.0
 40
0.5
 50
0.0
 51
180.0
  0
ARC
  5
1BB
  8
回08-記事
  6
CONTINUOUS
 62
     7
 10
1720.240620527774
 20
116.9150438855658
 30
0.0
 40
0.5
 50
0.0
 51
180.0
  0
ARC
  5
1BC
  8
回08-記事
  6
CONTINUOUS
 62
     7
 10
1716.240620527775
 20
116.9150438855658
 30
0.0
 40
0.5
 50
0.0
 51
180.0
  0
ARC
  5
1BD
  8
回08-記事
  6
CONTINUOUS
 62
     7
 10
1712.240620527774
 20
116.9150438855658
 30
0.0
 40
0.5
 50
0.0
 51
180.0
  0
ARC
  5
1BE
  8
回08-記事
  6
CONTINUOUS
 62
     7
 10
1708.240620527774
 20
116.9150438855658
 30
0.0
 40
0.5
 50
0.0
 51
180.0
  0
ARC
  5
1BF
  8
回08-記事
  6
CONTINUOUS
 62
     7
 10
1704.240620527774
 20
116.9150438855658
 30
0.0
 40
0.5
 50
0.0
 51
180.0
  0
ARC
  5
1C0
  8
回08-記事
  6
CONTINUOUS
 62
     7
 10
1700.240620527775
 20
116.9150438855658
 30
0.0
 40
0.5
 50
0.0
 51
180.0
  0
ARC
  5
1C1
  8
回08-記事
  6
CONTINUOUS
 62
     7
 10
1696.240620527774
 20
116.9150438855658
 30
0.0
 40
0.5
 50
0.0
 51
180.0
  0
ARC
  5
1C2
  8
回08-記事
  6
CONTINUOUS
 62
     7
 10
1692.240620527774
 20
116.9150438855658
 30
0.0
 40
0.5
 50
0.0
 51
180.0
  0
ARC
  5
1C3
  8
回08-記事
  6
CONTINUOUS
 62
     7
 10
1688.240620527774
 20
116.9150438855658
 30
0.0
 40
0.5
 50
0.0
 51
180.0
  0
ARC
  5
1C4
  8
回08-記事
  6
CONTINUOUS
 62
     7
 10
1684.240620527775
 20
116.9150438855658
 30
0.0
 40
0.5
 50
0.0
 51
180.0
  0
ARC
  5
1C5
  8
回08-記事
  6
CONTINUOUS
 62
     7
 10
1680.240620527774
 20
116.9150438855658
 30
0.0
 40
0.5
 50
0.0
 51
180.0
  0
ARC
  5
1C6
  8
回08-記事
  6
CONTINUOUS
 62
     7
 10
1676.240620527774
 20
116.9150438855658
 30
0.0
 40
0.5
 50
0.0
 51
180.0
  0
ARC
  5
1C7
  8
回08-記事
  6
CONTINUOUS
 62
     7
 10
1672.240620527774
 20
116.9150438855658
 30
0.0
 40
0.5
 50
0.0
 51
180.0
  0
ARC
  5
1C8
  8
回08-記事
  6
CONTINUOUS
 62
     7
 10
1668.240620527775
 20
116.9150438855658
 30
0.0
 40
0.5
 50
0.0
 51
180.0
  0
ARC
  5
1C9
  8
回08-記事
  6
CONTINUOUS
 62
     7
 10
1664.240620527774
 20
116.9150438855658
 30
0.0
 40
0.5
 50
0.0
 51
180.0
  0
ARC
  5
1CA
  8
回08-記事
  6
CONTINUOUS
 62
     7
 10
1660.240620527774
 20
116.9150438855658
 30
0.0
 40
0.5
 50
0.0
 51
180.0
  0
ARC
  5
1CB
  8
回08-記事
  6
CONTINUOUS
 62
     7
 10
1656.240620527774
 20
116.9150438855658
 30
0.0
 40
0.5
 50
0.0
 51
180.0
  0
ARC
  5
1CC
  8
回08-記事
  6
CONTINUOUS
 62
     7
 10
1652.240620527775
 20
116.9150438855658
 30
0.0
 40
0.5
 50
0.0
 51
180.0
  0
ARC
  5
1CD
  8
回08-記事
  6
CONTINUOUS
 62
     7
 10
1648.240620527775
 20
116.9150438855658
 30
0.0
 40
0.5
 50
0.0
 51
180.0
  0
ARC
  5
1CE
  8
回08-記事
  6
CONTINUOUS
 62
     7
 10
1644.240620527774
 20
116.9150438855658
 30
0.0
 40
0.5
 50
0.0
 51
180.0
  0
ARC
  5
1CF
  8
回08-記事
  6
CONTINUOUS
 62
     7
 10
1640.240620527774
 20
116.9150438855658
 30
0.0
 40
0.5
 50
0.0
 51
180.0
  0
ARC
  5
1D0
  8
回08-記事
  6
CONTINUOUS
 62
     7
 10
1636.240620527775
 20
116.9150438855658
 30
0.0
 40
0.5
 50
0.0
 51
180.0
  0
ARC
  5
1D1
  8
回08-記事
  6
CONTINUOUS
 62
     7
 10
1632.240620527775
 20
116.9150438855658
 30
0.0
 40
0.5
 50
0.0
 51
180.0
  0
ARC
  5
1D2
  8
回08-記事
  6
CONTINUOUS
 62
     7
 10
1628.240620527774
 20
116.9150438855658
 30
0.0
 40
0.5
 50
0.0
 51
180.0
  0
ARC
  5
1D3
  8
回08-記事
  6
CONTINUOUS
 62
     7
 10
1624.240620527774
 20
116.9150438855658
 30
0.0
 40
0.5
 50
0.0
 51
180.0
  0
ARC
  5
1D4
  8
回08-記事
  6
CONTINUOUS
 62
     7
 10
1620.240620527775
 20
116.9150438855658
 30
0.0
 40
0.5
 50
0.0
 51
180.0
  0
ARC
  5
1D5
  8
回08-記事
  6
CONTINUOUS
 62
     7
 10
1616.240620527775
 20
116.9150438855658
 30
0.0
 40
0.5
 50
0.0
 51
180.0
  0
ARC
  5
1D6
  8
回08-記事
  6
CONTINUOUS
 62
     7
 10
1612.240620527774
 20
116.9150438855658
 30
0.0
 40
0.5
 50
0.0
 51
180.0
  0
ARC
  5
1D7
  8
回08-記事
  6
CONTINUOUS
 62
     7
 10
1608.240620527774
 20
116.9150438855658
 30
0.0
 40
0.5
 50
0.0
 51
180.0
  0
ARC
  5
1D8
  8
回08-記事
  6
CONTINUOUS
 62
     7
 10
1604.240620527775
 20
116.9150438855658
 30
0.0
 40
0.5
 50
0.0
 51
180.0
  0
ARC
  5
1D9
  8
回08-記事
  6
CONTINUOUS
 62
     7
 10
1600.240620527775
 20
116.9150438855658
 30
0.0
 40
0.5
 50
0.0
 51
180.0
  0
ARC
  5
1DA
  8
回08-記事
  6
CONTINUOUS
 62
     7
 10
1596.240620527775
 20
116.9150438855658
 30
0.0
 40
0.5
 50
0.0
 51
180.0
  0
ARC
  5
1DB
  8
回08-記事
  6
CONTINUOUS
 62
     7
 10
1592.240620527774
 20
116.9150438855658
 30
0.0
 40
0.5
 50
0.0
 51
180.0
  0
ARC
  5
1DC
  8
回08-記事
  6
CONTINUOUS
 62
     7
 10
1588.240620527774
 20
116.9150438855658
 30
0.0
 40
0.5
 50
0.0
 51
180.0
  0
ARC
  5
1DD
  8
回08-記事
  6
CONTINUOUS
 62
     7
 10
1584.240620527774
 20
116.9150438855658
 30
0.0
 40
0.5
 50
0.0
 51
180.0
  0
ARC
  5
1DE
  8
回08-記事
  6
CONTINUOUS
 62
     7
 10
1580.240620527774
 20
116.9150438855658
 30
0.0
 40
0.5
 50
0.0
 51
180.0
  0
ARC
  5
1DF
  8
回08-記事
  6
CONTINUOUS
 62
     7
 10
1576.240620527774
 20
116.9150438855658
 30
0.0
 40
0.5
 50
0.0
 51
180.0
  0
ARC
  5
1E0
  8
回08-記事
  6
CONTINUOUS
 62
     7
 10
1572.240620527774
 20
116.9150438855658
 30
0.0
 40
0.5
 50
0.0
 51
180.0
  0
ARC
  5
1E1
  8
回08-記事
  6
CONTINUOUS
 62
     7
 10
1568.240620527774
 20
116.9150438855658
 30
0.0
 40
0.5
 50
0.0
 51
180.0
  0
ARC
  5
1E2
  8
回08-記事
  6
CONTINUOUS
 62
     7
 10
1564.240620527774
 20
116.9150438855658
 30
0.0
 40
0.5
 50
0.0
 51
180.0
  0
ARC
  5
1E3
  8
回08-記事
  6
CONTINUOUS
 62
     7
 10
1560.240620527775
 20
116.9150438855658
 30
0.0
 40
0.5
 50
0.0
 51
180.0
  0
ARC
  5
1E4
  8
回08-記事
  6
CONTINUOUS
 62
     7
 10
1556.240620527774
 20
116.9150438855658
 30
0.0
 40
0.5
 50
0.0
 51
180.0
  0
ARC
  5
1E5
  8
回08-記事
  6
CONTINUOUS
 62
     7
 10
1552.240620527775
 20
116.9150438855658
 30
0.0
 40
0.5
 50
0.0
 51
180.0
  0
ARC
  5
1E6
  8
回08-記事
  6
CONTINUOUS
 62
     7
 10
1548.240620527774
 20
116.9150438855658
 30
0.0
 40
0.5
 50
0.0
 51
180.0
  0
ARC
  5
1E7
  8
回08-記事
  6
CONTINUOUS
 62
     7
 10
1544.240620527775
 20
116.9150438855658
 30
0.0
 40
0.5
 50
0.0
 51
180.0
  0
ARC
  5
1E8
  8
回08-記事
  6
CONTINUOUS
 62
     7
 10
1540.240620527774
 20
116.9150438855658
 30
0.0
 40
0.5
 50
0.0
 51
180.0
  0
ARC
  5
1E9
  8
回08-記事
  6
CONTINUOUS
 62
     7
 10
1536.240620527775
 20
116.9150438855658
 30
0.0
 40
0.5
 50
0.0
 51
180.0
  0
ARC
  5
1EA
  8
回08-記事
  6
CONTINUOUS
 62
     7
 10
1532.240620527774
 20
116.9150438855658
 30
0.0
 40
0.5
 50
0.0
 51
180.0
  0
ARC
  5
1EB
  8
回08-記事
  6
CONTINUOUS
 62
     7
 10
1528.240620527775
 20
116.9150438855658
 30
0.0
 40
0.5
 50
0.0
 51
180.0
  0
ARC
  5
1EC
  8
回08-記事
  6
CONTINUOUS
 62
     7
 10
1524.240620527774
 20
116.9150438855658
 30
0.0
 40
0.5
 50
0.0
 51
180.0
  0
ARC
  5
1ED
  8
回08-記事
  6
CONTINUOUS
 62
     7
 10
1520.240620527775
 20
116.9150438855658
 30
0.0
 40
0.5
 50
0.0
 51
180.0
  0
ARC
  5
1EE
  8
回08-記事
  6
CONTINUOUS
 62
     7
 10
1516.240620527774
 20
116.9150438855658
 30
0.0
 40
0.5
 50
0.0
 51
180.0
  0
ARC
  5
1EF
  8
回08-記事
  6
CONTINUOUS
 62
     7
 10
1512.240620527775
 20
116.9150438855658
 30
0.0
 40
0.5
 50
0.0
 51
180.0
  0
ARC
  5
1F0
  8
回08-記事
  6
CONTINUOUS
 62
     7
 10
1508.240620527774
 20
116.9150438855658
 30
0.0
 40
0.5
 50
0.0
 51
180.0
  0
ARC
  5
1F1
  8
回08-記事
  6
CONTINUOUS
 62
     7
 10
1504.240620527775
 20
116.9150438855658
 30
0.0
 40
0.5
 50
0.0
 51
180.0
  0
ARC
  5
1F2
  8
回08-記事
  6
CONTINUOUS
 62
     7
 10
1500.240620527774
 20
116.9150438855658
 30
0.0
 40
0.5
 50
0.0
 51
180.0
  0
ARC
  5
1F3
  8
回08-記事
  6
CONTINUOUS
 62
     7
 10
1496.240620527775
 20
116.9150438855658
 30
0.0
 40
0.5
 50
0.0
 51
180.0
  0
ARC
  5
1F4
  8
回08-記事
  6
CONTINUOUS
 62
     7
 10
1492.240620527774
 20
116.9150438855658
 30
0.0
 40
0.5
 50
0.0
 51
180.0
  0
ARC
  5
1F5
  8
回08-記事
  6
CONTINUOUS
 62
     7
 10
1488.240620527774
 20
116.9150438855658
 30
0.0
 40
0.5
 50
0.0
 51
180.0
  0
ARC
  5
1F6
  8
回08-記事
  6
CONTINUOUS
 62
     7
 10
1484.240620527774
 20
116.9150438855658
 30
0.0
 40
0.5
 50
0.0
 51
180.0
  0
ARC
  5
1F7
  8
回08-記事
  6
CONTINUOUS
 62
     7
 10
1480.240620527774
 20
116.9150438855658
 30
0.0
 40
0.5
 50
0.0
 51
180.0
  0
ARC
  5
1F8
  8
回08-記事
  6
CONTINUOUS
 62
     7
 10
1476.240620527774
 20
116.9150438855658
 30
0.0
 40
0.5
 50
0.0
 51
180.0
  0
ARC
  5
1F9
  8
回08-記事
  6
CONTINUOUS
 62
     7
 10
1472.240620527774
 20
116.9150438855658
 30
0.0
 40
0.5
 50
0.0
 51
180.0
  0
ARC
  5
1FA
  8
回08-記事
  6
CONTINUOUS
 62
     7
 10
1468.240620527774
 20
116.9150438855658
 30
0.0
 40
0.5
 50
0.0
 51
180.0
  0
ARC
  5
1FB
  8
回08-記事
  6
CONTINUOUS
 62
     7
 10
1464.240620527774
 20
116.9150438855658
 30
0.0
 40
0.5
 50
0.0
 51
180.0
  0
ARC
  5
1FC
  8
回08-記事
  6
CONTINUOUS
 62
     7
 10
1460.240620527774
 20
116.9150438855658
 30
0.0
 40
0.5
 50
0.0
 51
180.0
  0
ARC
  5
1FD
  8
回08-記事
  6
CONTINUOUS
 62
     7
 10
1456.240620527774
 20
116.9150438855658
 30
0.0
 40
0.5
 50
0.0
 51
180.0
  0
ARC
  5
1FE
  8
回08-記事
  6
CONTINUOUS
 62
     7
 10
1452.240620527774
 20
116.9150438855658
 30
0.0
 40
0.5
 50
0.0
 51
180.0
  0
ARC
  5
1FF
  8
回08-記事
  6
CONTINUOUS
 62
     7
 10
1448.240620527774
 20
116.9150438855658
 30
0.0
 40
0.5
 50
0.0
 51
180.0
  0
ARC
  5
200
  8
回08-記事
  6
CONTINUOUS
 62
     7
 10
1444.240620527774
 20
116.9150438855658
 30
0.0
 40
0.5
 50
0.0
 51
180.0
  0
ARC
  5
201
  8
回08-記事
  6
CONTINUOUS
 62
     7
 10
1440.240620527774
 20
116.9150438855658
 30
0.0
 40
0.5
 50
0.0
 51
180.0
  0
ARC
  5
202
  8
回08-記事
  6
CONTINUOUS
 62
     7
 10
1436.240620527774
 20
116.9150438855658
 30
0.0
 40
0.5
 50
0.0
 51
180.0
  0
ARC
  5
203
  8
回08-記事
  6
CONTINUOUS
 62
     7
 10
1432.240620527774
 20
116.9150438855658
 30
0.0
 40
0.5
 50
0.0
 51
180.0
  0
ARC
  5
204
  8
回08-記事
  6
CONTINUOUS
 62
     7
 10
1428.240620527774
 20
116.9150438855658
 30
0.0
 40
0.5
 50
0.0
 51
180.0
  0
ARC
  5
205
  8
回08-記事
  6
CONTINUOUS
 62
     7
 10
1424.240620527774
 20
116.9150438855658
 30
0.0
 40
0.5
 50
0.0
 51
180.0
  0
ARC
  5
206
  8
回08-記事
  6
CONTINUOUS
 62
     7
 10
1420.240620527774
 20
116.9150438855658
 30
0.0
 40
0.5
 50
0.0
 51
180.0
  0
ARC
  5
207
  8
回08-記事
  6
CONTINUOUS
 62
     7
 10
1416.240620527774
 20
116.9150438855658
 30
0.0
 40
0.5
 50
0.0
 51
180.0
  0
ARC
  5
208
  8
回08-記事
  6
CONTINUOUS
 62
     7
 10
1412.240620527774
 20
116.9150438855658
 30
0.0
 40
0.5
 50
0.0
 51
180.0
  0
ARC
  5
209
  8
回08-記事
  6
CONTINUOUS
 62
     7
 10
1408.240620527774
 20
116.9150438855658
 30
0.0
 40
0.5
 50
0.0
 51
180.0
  0
ARC
  5
20A
  8
回08-記事
  6
CONTINUOUS
 62
     7
 10
1404.240620527774
 20
116.9150438855658
 30
0.0
 40
0.5
 50
0.0
 51
180.0
  0
ARC
  5
20B
  8
回08-記事
  6
CONTINUOUS
 62
     7
 10
1400.240620527774
 20
116.9150438855658
 30
0.0
 40
0.5
 50
0.0
 51
180.0
  0
ARC
  5
20C
  8
回08-記事
  6
CONTINUOUS
 62
     7
 10
1396.240620527774
 20
116.9150438855658
 30
0.0
 40
0.5
 50
0.0
 51
180.0
  0
ARC
  5
20D
  8
回08-記事
  6
CONTINUOUS
 62
     7
 10
1392.240620527774
 20
116.9150438855658
 30
0.0
 40
0.5
 50
0.0
 51
180.0
  0
ARC
  5
20E
  8
回08-記事
  6
CONTINUOUS
 62
     7
 10
1388.240620527774
 20
116.9150438855658
 30
0.0
 40
0.5
 50
0.0
 51
180.0
  0
ARC
  5
20F
  8
回08-記事
  6
CONTINUOUS
 62
     7
 10
1384.240620527774
 20
116.9150438855658
 30
0.0
 40
0.5
 50
0.0
 51
180.0
  0
ARC
  5
210
  8
回08-記事
  6
CONTINUOUS
 62
     7
 10
1380.240620527774
 20
116.9150438855658
 30
0.0
 40
0.5
 50
0.0
 51
180.0
  0
ARC
  5
211
  8
回08-記事
  6
CONTINUOUS
 62
     7
 10
1376.240620527774
 20
116.9150438855658
 30
0.0
 40
0.5
 50
0.0
 51
180.0
  0
ARC
  5
212
  8
回08-記事
  6
CONTINUOUS
 62
     7
 10
1372.240620527774
 20
116.9150438855658
 30
0.0
 40
0.5
 50
0.0
 51
180.0
  0
ARC
  5
213
  8
回08-記事
  6
CONTINUOUS
 62
     7
 10
1368.240620527774
 20
116.9150438855658
 30
0.0
 40
0.5
 50
0.0
 51
180.0
  0
ARC
  5
214
  8
回08-記事
  6
CONTINUOUS
 62
     7
 10
1364.240620527774
 20
116.9150438855658
 30
0.0
 40
0.5
 50
0.0
 51
180.0
  0
ARC
  5
215
  8
回08-記事
  6
CONTINUOUS
 62
     7
 10
1360.240620527774
 20
116.9150438855658
 30
0.0
 40
0.5
 50
0.0
 51
180.0
  0
LINE
  5
216
  8
回08-記事
  6
CONTINUOUS
 62
     7
 10
1595.017565893331
 20
124.3933181182392
 30
0.0
 11
1593.51936904672
 21
119.4039620374469
 31
0.0
  0
LINE
  5
217
  8
回08-記事
  6
CONTINUOUS
 62
     7
 10
1557.562716422384
 20
107.595824572445
 30
0.0
 11
1556.397453801561
 21
114.4146059566556
 31
0.0
  0
POLYLINE
  5
218
  8
回08-記事
  6
CONTINUOUS
 62
     7
 66
     1
 10
0.0
 20
0.0
 30
0.0
 70
     1
  0
VERTEX
  5
6E8
  8
回08-記事
  6
CONTINUOUS
 62
     7
 10
1340.180068279767
 20
116.9150438855658
 30
0.0
  0
VERTEX
  5
6EA
  8
回08-記事
  6
CONTINUOUS
 62
     7
 10
1348.876329083612
 20
116.9150438855658
 30
0.0
  0
VERTEX
  5
6EB
  8
回08-記事
  6
CONTINUOUS
 62
     7
 10
1348.876329083612
 20
115.9150438855658
 30
0.0
  0
VERTEX
  5
6EC
  8
回08-記事
  6
CONTINUOUS
 62
     7
 10
1340.180068279767
 20
115.9150438855658
 30
0.0
  0
SEQEND
  5
6E9
  8
回09-LCD
  6
CONTINUOUS
 62
     7
  0
TEXT
  5
219
  8
回08-記事
  6
CONTINUOUS
 62
     7
 10
1556.144983554016
 20
102.4551317253153
 30
0.0
 40
4.5
  1
2
  0
TEXT
  5
21A
  8
回08-記事
  6
CONTINUOUS
 62
     7
 10
1593.765504330565
 20
125.4760000130664
 30
0.0
 40
4.5
  1
1
  0
TEXT
  5
21B
  8
回07-寸法
  6
CONTINUOUS
 62
     5
 10
1757.701009429165
 20
145.5286804968455
 30
0.0
 40
3.0
  1
AST-213A
  0
TEXT
  5
21C
  8
回07-寸法
  6
CONTINUOUS
 62
     5
 10
1756.917083950396
 20
149.9813232066817
 30
0.0
 40
3.0
  1
PART No.
1001
ACAD
1000
MTEXTBEGIN
1070
    73
1070
     1
1070
    44
1040
1.0
1070
    74
1070
     0
1000
MTEXTEND
  0
INSERT
  5
21D
  8
回07-寸法
  6
CONTINUOUS
 62
     3
 66
     1
  2
*X3939
 10
0.0
 20
0.0
 30
0.0
  0
SEQEND
  5
47E
  8
回09-LCD
  6
CONTINUOUS
 62
     7
  0
DIMENSION
  5
21E
  8
回08-記事
  6
CONTINUOUS
 62
     7
  2
*D3030
 10
1813.313586924003
 20
112.9150438855659
 30
0.0
 11
1813.313586924003
 21
80.6382427832032
 31
0.0
 70
   128
  1
2.1{\H0.6667x;±0.2}[0.083{\H0.6667x;±0.008}]
  3
DMC
 13
1803.376329083612
 23
120.4150438855658
 33
0.0
 14
1803.876329083612
 24
112.9150438855658
 34
0.0
 50
90.0
1001
ACAD
1000
DSTYLE
1002
{
1070
   285
1070
     0
1070
   371
1070
     9
1070
   372
1070
     9
1002
}
  0
DIMENSION
  5
22D
  8
回08-記事
  6
CONTINUOUS
 62
     7
  2
*D2929
 10
1803.376329083612
 20
105.0155471948146
 30
0.0
 11
1778.778691288336
 21
108.8155471948146
 31
0.0
 70
     0
  1
(<>)
  3
DMC
 13
1803.876329083612
 23
112.9150438855658
 33
0.0
 14
1803.376329083612
 24
116.9150438855658
 34
0.0
1001
ACAD
1000
DSTYLE
1002
{
1070
   285
1070
     0
1070
   371
1070
     9
1070
   372
1070
     9
1002
}
  0
DIMENSION
  5
23C
  8
回08-記事
  6
CONTINUOUS
 62
     7
  2
*D2828
 10
1349.376329083612
 20
99.94002797095665
 30
0.0
 11
1373.973966878887
 21
103.7400279709566
 31
0.0
 70
     0
  1
(<>)
  3
DMC
 13
1348.876329083612
 23
116.9150438855658
 33
0.0
 14
1349.376329083612
 24
118.4150438855658
 34
0.0
1001
ACAD
1000
DSTYLE
1002
{
1070
   285
1070
     0
1070
   371
1070
     9
1070
   372
1070
     9
1002
}
  0
TEXT
  5
24B
  8
回08-記事
  6
CONTINUOUS
 62
     5
 10
1270.801819634574
 20
110.8729003011931
 30
0.0
 40
3.0
  1
LOT LABEL
1001
ACAD
1000
MTEXTBEGIN
1070
    73
1070
     1
1070
    44
1040
1.0
1070
    74
1070
     0
1000
MTEXTEND
  0
INSERT
  5
24C
  8
回08-記事
  6
CONTINUOUS
 62
     7
 66
     1
  2
*X4040
 10
0.0
 20
0.0
 30
0.0
  0
SEQEND
  5
485
  8
回09-LCD
  6
CONTINUOUS
 62
     7
  0
INSERT
  5
24D
  8
回08-記事
  6
CONTINUOUS
 62
     7
 66
     1
  2
*X4141
 10
0.0
 20
0.0
 30
0.0
1001
ACAD
1000
HATCH
1002
{
1070
    19
1000
ANSI31
1040
0.4
1040
0.0
1000
ASC_BOUNDS
1070
     1
1070
     2
1070
     1
1005
24E
1000
ASC_SEEDPOINT
1011
1456.189514617253
1021
186.5911479951883
1031
0.0
1000
R14_HATCH_DATA
1000
24D
1011
1.0
1021
0.0
1031
0.0
1011
0.0
1021
1.0
1031
0.0
1011
0.0
1021
0.0
1031
1.0
1040
0.0
1010
0.0
1020
0.0
1030
1.0
1000
ANSI31
1070
     0
1070
     1
1071
        1
1071
        1
1071
        4
1070
     1
1040
1284.2834045698
1040
116.9150438855658
1040
1310.2834045698
1040
116.9150438855658
1070
     1
1040
1310.2834045698
1040
116.9150438855658
1040
1310.2834045698
1040
116.3150438855659
1070
     1
1040
1310.2834045698
1040
116.3150438855659
1040
1284.2834045698
1040
116.3150438855659
1070
     1
1040
1284.2834045698
1040
116.3150438855659
1040
1284.2834045698
1040
116.9150438855658
1071
        1
1005
24E
1070
     0
1070
     1
1040
0.0
1040
0.4
1070
     0
1070
     1
1040
0.7853981633974483
1040
1456.189514617253
1040
186.5911479951883
1040
-0.8980256121069151
1040
0.8980256121069153
1070
     0
1071
        1
1040
1456.189514617253
1040
186.5911479951883
1040
0.0
1002
}
  0
SEQEND
  5
497
  8
回09-LCD
  6
CONTINUOUS
 62
     7
  0
POLYLINE
  5
24E
  8
回08-記事
  6
CONTINUOUS
 62
     7
 66
     1
 10
0.0
 20
0.0
 30
0.0
 70
     1
1001
ACAD
1000
ASC_BOUNDS
1002
{
1070
    19
1005
24D
1002
}
  0
VERTEX
  5
6ED
  8
回08-記事
  6
CONTINUOUS
 62
     7
 10
1284.2834045698
 20
116.9150438855658
 30
0.0
  0
VERTEX
  5
6EF
  8
回08-記事
  6
CONTINUOUS
 62
     7
 10
1310.2834045698
 20
116.9150438855658
 30
0.0
  0
VERTEX
  5
6F0
  8
回08-記事
  6
CONTINUOUS
 62
     7
 10
1310.2834045698
 20
116.3150438855659
 30
0.0
  0
VERTEX
  5
6F1
  8
回08-記事
  6
CONTINUOUS
 62
     7
 10
1284.2834045698
 20
116.3150438855659
 30
0.0
  0
SEQEND
  5
6EE
  8
回09-LCD
  6
CONTINUOUS
 62
     7
  0
DIMENSION
  5
24F
  8
回08-記事
  6
CONTINUOUS
 62
     7
  2
*D2727
 10
1195.816992512469
 20
115.2150438855659
 30
0.0
 11
1195.816992512469
 21
81.61199168084115
 31
0.0
 70
   128
  1
0.3{\H0.6667x;±0.05}[0.012{\H0.6667x;±0.002}]
  3
DMC
 13
1208.876329083612
 23
118.4150438855658
 33
0.0
 14
1208.876329083612
 24
115.2150438855658
 34
0.0
 50
90.0
1001
ACAD
1000
DSTYLE
1002
{
1070
   285
1070
     0
1070
    47
1040
0.05
1070
   147
1040
0.5
1070
    48
1040
0.05
1070
    72
1070
     0
1070
    71
1070
     1
1070
   371
1070
     9
1070
   372
1070
     9
1002
}
  0
DIMENSION
  5
25E
  8
回08-記事
  6
CONTINUOUS
 62
     7
  2
*D2626
 10
1218.876329083612
 20
100.1085117073162
 30
0.0
 11
1242.28444987037
 21
100.1085117073162
 31
0.0
 70
   128
  1
(<>)
  3
DMC
 13
1208.876329083612
 23
115.2150438855658
 33
0.0
 14
1218.876329083612
 24
115.2150438855658
 34
0.0
1001
ACAD
1000
DSTYLE
1002
{
1070
   285
1070
     0
1070
   371
1070
     9
1070
   372
1070
     9
1002
}
  0
DIMENSION
  5
26D
  8
回08-記事
  6
CONTINUOUS
 62
     7
  2
*D2525
 10
1213.876329083612
 20
123.2621416427455
 30
0.0
 11
1232.486812075095
 21
127.0635917198046
 31
0.0
 70
     0
  3
DMC
 13
1208.876329083612
 23
118.4150438855658
 33
0.0
 14
1213.876329083612
 24
119.4150438855658
 34
0.0
1001
ACAD
1000
DSTYLE
1002
{
1070
   285
1070
     0
1070
   371
1070
     9
1070
   372
1070
     9
1002
}
  0
LINE
  5
27C
  8
回08-記事
  6
CONTINUOUS
 62
     7
 10
1352.876329083612
 20
111.9150438855658
 30
0.0
 11
1352.876329083612
 21
112.9150438855658
 31
0.0
  0
LINE
  5
27D
  8
回08-記事
  6
CONTINUOUS
 62
     7
 10
1347.876329083612
 20
111.9150438855658
 30
0.0
 11
1352.876329083612
 21
111.9150438855658
 31
0.0
  0
LINE
  5
27E
  8
回08-記事
  6
CONTINUOUS
 62
     7
 10
1347.876329083612
 20
114.9150438855658
 30
0.0
 11
1347.876329083612
 21
111.9150438855658
 31
0.0
  0
LINE
  5
27F
  8
回08-記事
  6
CONTINUOUS
 62
     7
 10
1344.484399175246
 20
114.9150438855658
 30
0.0
 11
1347.876329083612
 21
114.9150438855658
 31
0.0
  0
LINE
  5
280
  8
回08-記事
  6
CONTINUOUS
 62
     7
 10
1344.484399175246
 20
115.9150438855658
 30
0.0
 11
1344.484399175246
 21
114.9150438855658
 31
0.0
  0
POLYLINE
  5
281
  8
回08-記事
  6
CONTINUOUS
 62
     7
 66
     1
 10
0.0
 20
0.0
 30
0.0
 70
     1
  0
VERTEX
  5
6F2
  8
回08-記事
  6
CONTINUOUS
 62
     7
 10
1213.876329083612
 20
119.4150438855658
 30
0.0
  0
VERTEX
  5
6F4
  8
回08-記事
  6
CONTINUOUS
 62
     7
 10
1349.376329083612
 20
119.4150438855658
 30
0.0
  0
VERTEX
  5
6F5
  8
回08-記事
  6
CONTINUOUS
 62
     7
 10
1349.376329083612
 20
118.4150438855658
 30
0.0
  0
VERTEX
  5
6F6
  8
回08-記事
  6
CONTINUOUS
 62
     7
 10
1213.876329083612
 20
118.4150438855658
 30
0.0
  0
SEQEND
  5
6F3
  8
回09-LCD
  6
CONTINUOUS
 62
     7
  0
POLYLINE
  5
282
  8
回08-記事
  6
CONTINUOUS
 62
     7
 66
     1
 10
0.0
 20
0.0
 30
0.0
 70
     1
  0
VERTEX
  5
6F7
  8
回08-記事
  6
CONTINUOUS
 62
     7
 10
1218.876329083612
 20
116.9150438855658
 30
0.0
  0
VERTEX
  5
6F9
  8
回08-記事
  6
CONTINUOUS
 62
     7
 10
1208.876329083612
 20
116.9150438855658
 30
0.0
  0
VERTEX
  5
6FA
  8
回08-記事
  6
CONTINUOUS
 62
     7
 10
1208.876329083612
 20
115.2150438855658
 30
0.0
  0
VERTEX
  5
6FB
  8
回08-記事
  6
CONTINUOUS
 62
     7
 10
1218.876329083612
 20
115.2150438855658
 30
0.0
  0
SEQEND
  5
6F8
  8
回09-LCD
  6
CONTINUOUS
 62
     7
  0
LINE
  5
283
  8
回08-記事
  6
CONTINUOUS
 62
     7
 10
1803.376329083612
 20
118.4150438855658
 30
0.0
 11
1803.376329083612
 21
116.9150438855658
 31
0.0
  0
LINE
  5
284
  8
回08-記事
  6
CONTINUOUS
 62
     7
 10
1796.476329083612
 20
118.4150438855658
 30
0.0
 11
1796.476329083612
 21
116.9150438855658
 31
0.0
  0
LINE
  5
285
  8
回08-記事
  6
CONTINUOUS
 62
     7
 10
1356.276329083612
 20
118.4150438855658
 30
0.0
 11
1356.276329083612
 21
116.9150438855658
 31
0.0
  0
POLYLINE
  5
286
  8
回08-記事
  6
CONTINUOUS
 62
     7
 66
     1
 10
0.0
 20
0.0
 30
0.0
 70
     1
  0
VERTEX
  5
6FC
  8
回08-記事
  6
CONTINUOUS
 62
     7
 10
1352.276329083612
 20
118.4150438855658
 30
0.0
  0
VERTEX
  5
6FE
  8
回08-記事
  6
CONTINUOUS
 62
     7
 10
1208.876329083612
 20
118.4150438855658
 30
0.0
  0
VERTEX
  5
6FF
  8
回08-記事
  6
CONTINUOUS
 62
     7
 10
1208.876329083612
 20
116.9150438855658
 30
0.0
  0
VERTEX
  5
700
  8
回08-記事
  6
CONTINUOUS
 62
     7
 10
1352.276329083612
 20
116.9150438855658
 30
0.0
  0
SEQEND
  5
6FD
  8
回09-LCD
  6
CONTINUOUS
 62
     7
  0
POLYLINE
  5
287
  8
回08-記事
  6
CONTINUOUS
 62
     7
 66
     1
 10
0.0
 20
0.0
 30
0.0
 70
     1
  0
VERTEX
  5
701
  8
回08-記事
  6
CONTINUOUS
 62
     7
 10
1803.376329083612
 20
120.4150438855658
 30
0.0
  0
VERTEX
  5
703
  8
回08-記事
  6
CONTINUOUS
 62
     7
 10
1349.376329083612
 20
120.4150438855658
 30
0.0
  0
VERTEX
  5
704
  8
回08-記事
  6
CONTINUOUS
 62
     7
 10
1349.376329083612
 20
118.4150438855658
 30
0.0
  0
VERTEX
  5
705
  8
回08-記事
  6
CONTINUOUS
 62
     7
 10
1803.376329083612
 20
118.4150438855658
 30
0.0
  0
SEQEND
  5
702
  8
回09-LCD
  6
CONTINUOUS
 62
     7
  0
POLYLINE
  5
288
  8
回08-記事
  6
CONTINUOUS
 62
     7
 66
     1
 10
0.0
 20
0.0
 30
0.0
 70
     1
  0
VERTEX
  5
706
  8
回08-記事
  6
CONTINUOUS
 62
     7
 10
1348.876329083612
 20
116.9150438855658
 30
0.0
  0
VERTEX
  5
708
  8
回08-記事
  6
CONTINUOUS
 62
     7
 10
1803.876329083612
 20
116.9150438855658
 30
0.0
  0
VERTEX
  5
709
  8
回08-記事
  6
CONTINUOUS
 62
     7
 10
1803.876329083612
 20
112.9150438855658
 30
0.0
  0
VERTEX
  5
70A
  8
回08-記事
  6
CONTINUOUS
 62
     7
 10
1348.876329083612
 20
112.9150438855658
 30
0.0
  0
SEQEND
  5
707
  8
回09-LCD
  6
CONTINUOUS
 62
     7
  0
TEXT
  5
289
  8
回07-寸法
  6
CONTINUOUS
 62
     5
 10
1216.275451729161
 20
319.4452114950327
 30
0.0
 40
3.0
  1
A
1001
ACAD
1000
MTEXTBEGIN
1070
    73
1070
     1
1070
    44
1040
1.0
1070
    74
1070
     0
1000
MTEXTEND
  0
INSERT
  5
28A
  8
回07-寸法
  6
CONTINUOUS
 62
     5
 66
     1
  2
*X4242
 10
0.0
 20
0.0
 30
0.0
  0
SEQEND
  5
4BC
  8
回09-LCD
  6
CONTINUOUS
 62
     7
  0
CIRCLE
  5
28B
  8
回07-寸法
  6
DASHED2
 62
     5
 10
1211.808710513524
 20
330.0023677093713
 30
0.0
 40
7.429711666397452
  0
DIMENSION
  5
28C
  8
回08-記事
  6
CONTINUOUS
 62
     5
  2
*D2424
 10
1208.343572008767
 20
240.5217546548739
 30
0.0
 11
1208.343572008767
 21
187.6322270958183
 31
0.0
 70
   128
  1
6.25{\H0.6x;±0.2}[0.246{\H0.6x;±0.008}]
  3
DMC
 13
1259.669402106719
 23
221.7717546548738
 33
0.0
 14
1259.669402106719
 24
240.5217546548738
 34
0.0
 50
90.0
1001
ACAD
1000
DSTYLE
1002
{
1070
   285
1070
     0
1070
   371
1070
     9
1070
   372
1070
     9
1002
}
  0
ARC
  5
29D
  8
回08-記事
  6
CONTINUOUS
 62
     8
 10
1259.669402106719
 20
239.0217546548738
 30
0.0
 40
1.5
 50
90.0
 51
180.0
  0
POLYLINE
  5
29E
  8
回08-記事
  6
CONTINUOUS
 62
     8
 66
     1
 10
0.0
 20
0.0
 30
0.0
 40
2.399999999999999
 41
2.399999999999999
  0
VERTEX
  5
70B
  8
回08-記事
  6
CONTINUOUS
 62
     8
 10
1258.169402106719
 20
229.2717546548756
 30
0.0
  0
VERTEX
  5
70D
  8
回08-記事
  6
CONTINUOUS
 62
     8
 10
1273.169402106719
 20
229.2717546548756
 30
0.0
  0
SEQEND
  5
70C
  8
回09-LCD
  6
CONTINUOUS
 62
     7
  0
LINE
  5
29F
  8
回08-記事
  6
CENTER2
 62
     5
 10
1255.509713807739
 20
229.2717546548756
 30
0.0
 11
1276.484716469194
 21
229.2717546548756
 31
0.0
  0
POLYLINE
  5
2A1
  8
回08-記事
  6
CONTINUOUS
 62
     8
 66
     1
 10
0.0
 20
0.0
 30
0.0
 40
2.399999999999999
 41
2.399999999999999
  0
VERTEX
  5
70E
  8
回08-記事
  6
CONTINUOUS
 62
     8
 10
1258.169402106719
 20
233.0217546548747
 30
0.0
  0
VERTEX
  5
710
  8
回08-記事
  6
CONTINUOUS
 62
     8
 10
1273.169402106719
 20
233.0217546548747
 30
0.0
  0
SEQEND
  5
70F
  8
回09-LCD
  6
CONTINUOUS
 62
     7
  0
POLYLINE
  5
2A2
  8
回08-記事
  6
CONTINUOUS
 62
     8
 66
     1
 10
0.0
 20
0.0
 30
0.0
 40
2.399999999999999
 41
2.399999999999999
  0
VERTEX
  5
711
  8
回08-記事
  6
CONTINUOUS
 62
     8
 10
1258.169402106719
 20
236.7717546548756
 30
0.0
  0
VERTEX
  5
713
  8
回08-記事
  6
CONTINUOUS
 62
     8
 10
1273.169402106719
 20
236.7717546548756
 30
0.0
  0
SEQEND
  5
712
  8
回09-LCD
  6
CONTINUOUS
 62
     7
  0
LINE
  5
2A3
  8
回08-記事
  6
CONTINUOUS
 62
     8
 10
1259.669402106719
 20
240.5217546548738
 30
0.0
 11
1286.270043067102
 21
240.5217546548738
 31
0.0
  0
LINE
  5
2A4
  8
回08-記事
  6
CENTER2
 62
     5
 10
1255.509713807739
 20
236.7717546548756
 30
0.0
 11
1276.484716469194
 21
236.7717546548756
 31
0.0
  0
ARC
  5
2A5
  8
回08-記事
  6
CONTINUOUS
 62
     8
 10
1259.669402106719
 20
223.2717546548738
 30
0.0
 40
1.5
 50
180.0
 51
270.0
  0
LINE
  5
2A6
  8
回08-記事
  6
CONTINUOUS
 62
     8
 10
1259.669402106719
 20
221.7717546548738
 30
0.0
 11
1286.270043067102
 21
221.7717546548738
 31
0.0
  0
LINE
  5
2A7
  8
回08-記事
  6
CENTER2
 62
     5
 10
1255.509713807739
 20
225.5217546548756
 30
0.0
 11
1276.484716469194
 21
225.5217546548756
 31
0.0
  0
TEXT
  5
2A8
  8
回08-記事
  6
CONTINUOUS
 62
     5
 10
1263.326998654011
 20
209.6121918385634
 30
0.0
 40
5.0
  1
SECTION A
  0
LINE
  5
2A9
  8
回08-記事
  6
CONTINUOUS
 62
     8
 10
1273.169402106719
 20
240.5217546548738
 30
0.0
 11
1273.169402106719
 21
221.7717546548738
 31
0.0
  0
LINE
  5
2AA
  8
回08-記事
  6
CONTINUOUS
 62
     8
 10
1258.169402106719
 20
239.0217546548738
 30
0.0
 11
1258.169402106719
 21
223.2717546548738
 31
0.0
  0
POLYLINE
  5
2AB
  8
回08-記事
  6
CONTINUOUS
 62
     8
 66
     1
 10
0.0
 20
0.0
 30
0.0
 40
2.399999999999999
 41
2.399999999999999
  0
VERTEX
  5
714
  8
回08-記事
  6
CONTINUOUS
 62
     8
 10
1258.169402106719
 20
225.5217546548756
 30
0.0
  0
VERTEX
  5
716
  8
回08-記事
  6
CONTINUOUS
 62
     8
 10
1273.169402106719
 20
225.5217546548756
 30
0.0
  0
SEQEND
  5
715
  8
回09-LCD
  6
CONTINUOUS
 62
     7
  0
DIMENSION
  5
2AC
  8
回08-記事
  6
CONTINUOUS
 62
     5
  2
*D2323
 10
1255.300614651304
 20
224.3217546548759
 30
0.0
 11
1255.300614651303
 21
182.7216936548755
 31
0.0
 70
   128
  1
4-0.7{\H0.66667x;±0.1}[4-0.028{\H0.66667x;±0.004}]
  3
DMC
 13
1258.169402106719
 23
226.7217546548754
 33
0.0
 14
1258.169402106719
 24
224.3217546548758
 34
0.0
 50
90.0
1001
ACAD
1000
DSTYLE
1002
{
1070
   285
1070
     0
1070
    47
1040
0.1
1070
   147
1040
0.5
1070
    48
1040
0.1
1070
    72
1070
     0
1070
    71
1070
     1
1070
   371
1070
     9
1070
   372
1070
     9
1002
}
  0
DIMENSION
  5
2BD
  8
回08-記事
  6
CONTINUOUS
 62
     5
  2
*D2222
 10
1238.801541483255
 20
225.5217546548757
 30
0.0
 11
1238.801541483255
 21
190.9112096633925
 31
0.0
 70
   128
  1
1.25{\H0.66667x;±0.2}[0.049{\H0.66667x;±0.008}]
  3
DMC
 13
1258.169402106719
 23
229.2717546548756
 33
0.0
 14
1258.169402106719
 24
225.5217546548756
 34
0.0
 50
90.0
1001
ACAD
1000
DSTYLE
1002
{
1070
   285
1070
     0
1070
   371
1070
     9
1070
   372
1070
     9
1002
}
  0
DIMENSION
  5
2CE
  8
回08-記事
  6
CONTINUOUS
 62
     5
  2
*D2121
 10
1224.712435833548
 20
225.5217546548757
 30
0.0
 11
1224.712435833548
 21
191.1216936548752
 31
0.0
 70
   128
  1
3.75{\H0.66667x;±0.1}[0.148{\H0.66667x;±0.004}]
  3
DMC
 13
1258.169402106719
 23
236.7717546548756
 33
0.0
 14
1258.169402106719
 24
225.5217546548756
 34
0.0
 50
90.0
1001
ACAD
1000
DSTYLE
1002
{
1070
   285
1070
     0
1070
    47
1040
0.1
1070
   147
1040
0.5
1070
    48
1040
0.1
1070
    72
1070
     0
1070
    71
1070
     1
1070
   371
1070
     9
1070
   372
1070
     9
1002
}
  0
TEXT
  5
2DF
  8
回08-記事
 62
     5
 10
1779.479463275567
 20
334.2071272427479
 30
0.0
 40
5.399999999999998
  1
XR
  0
TEXT
  5
2E0
  8
回08-記事
 62
     5
 10
1363.830225649846
 20
334.2071272427479
 30
0.0
 40
5.399999999999998
  1
XL
  0
TEXT
  5
2E1
  8
回08-記事
 62
     5
 10
1578.149364595379
 20
171.9945013613473
 30
0.0
 40
5.399999999999998
  1
YD
  0
TEXT
  5
2E2
  8
回08-記事
 62
     5
 10
1578.149364595379
 20
481.5888852489106
 30
0.0
 40
5.399999999999998
  1
YU
  0
TEXT
  5
2E3
  8
回07-寸法
  6
CONTINUOUS
 62
     5
 10
1273.622572944287
 20
316.1028232491667
 30
0.0
 40
3.0
  1
LOT LABEL
1001
ACAD
1000
MTEXTBEGIN
1070
    73
1070
     1
1070
    44
1040
1.0
1070
    74
1070
     0
1000
MTEXTEND
  0
INSERT
  5
2E4
  8
回07-寸法
  6
CONTINUOUS
 62
     7
 66
     1
  2
*X4343
 10
0.0
 20
0.0
 30
0.0
  0
SEQEND
  5
4CF
  8
回09-LCD
  6
CONTINUOUS
 62
     7
  0
INSERT
  5
2E5
  8
回08-記事
 62
     8
 66
     1
  2
*X4444
 10
0.0
 20
0.0
 30
0.0
1001
ACAD
1000
HATCH
1002
{
1070
    19
1000
ANSI31
1040
0.4
1040
0.0
1000
ASC_BOUNDS
1070
     1
1070
     2
1070
     1
1005
2E6
1000
ASC_SEEDPOINT
1011
1419.322211694466
1021
214.716884904858
1031
0.0
1000
R14_HATCH_DATA
1000
2E5
1011
1.0
1021
0.0
1031
0.0
1011
0.0
1021
1.0
1031
0.0
1011
0.0
1021
0.0
1031
1.0
1040
0.0
1010
0.0
1020
0.0
1030
1.0
1000
ANSI31
1070
     0
1070
     1
1071
        1
1071
        1
1071
        8
1070
     1
1040
1284.7834045698
1040
332.401358626068
1040
1309.7834045698
1040
332.401358626068
1070
     2
1040
1309.7834045698
1040
331.901358626068
1040
0.5
1040
4.712388980384688
1040
6.283185307179585
1070
     0
1070
     1
1040
1310.2834045698
1040
331.901358626068
1040
1310.2834045698
1040
327.901358626068
1070
     2
1040
1309.7834045698
1040
327.901358626068
1040
0.5
1040
6.283185307179585
1040
7.853981633974482
1070
     0
1070
     1
1040
1309.7834045698
1040
327.401358626068
1040
1284.7834045698
1040
327.401358626068
1070
     2
1040
1284.7834045698
1040
327.901358626068
1040
0.5
1040
1.570796326794896
1040
3.141592653589792
1070
     0
1070
     1
1040
1284.2834045698
1040
327.901358626068
1040
1284.2834045698
1040
331.901358626068
1070
     2
1040
1284.7834045698
1040
331.901358626068
1040
0.5
1040
3.141592653589792
1040
4.712388980384688
1070
     0
1071
        1
1005
2E6
1070
     0
1070
     1
1040
0.0
1040
0.4
1070
     0
1070
     1
1040
0.7853981633974483
1040
1419.322211694466
1040
214.716884904858
1040
-0.8980256121069151
1040
0.8980256121069153
1070
     0
1071
        1
1040
1419.322211694466
1040
214.716884904858
1040
0.0
1002
}
  0
SEQEND
  5
4E4
  8
回09-LCD
  6
CONTINUOUS
 62
     7
  0
POLYLINE
  5
2E6
  8
回08-記事
 62
     8
 66
     1
 10
0.0
 20
0.0
 30
0.0
 70
     1
1001
ACAD
1000
ASC_BOUNDS
1002
{
1070
    19
1005
2E5
1002
}
  0
VERTEX
  5
717
  8
回08-記事
 62
     8
 10
1284.7834045698
 20
332.401358626068
 30
0.0
  0
VERTEX
  5
719
  8
回08-記事
 62
     8
 10
1309.7834045698
 20
332.401358626068
 30
0.0
 42
-0.4142135623730951
  0
VERTEX
  5
71A
  8
回08-記事
 62
     8
 10
1310.2834045698
 20
331.901358626068
 30
0.0
  0
VERTEX
  5
71B
  8
回08-記事
 62
     8
 10
1310.2834045698
 20
327.901358626068
 30
0.0
 42
-0.4142135623730951
  0
VERTEX
  5
71C
  8
回08-記事
 62
     8
 10
1309.7834045698
 20
327.401358626068
 30
0.0
  0
VERTEX
  5
71D
  8
回08-記事
 62
     8
 10
1284.7834045698
 20
327.401358626068
 30
0.0
 42
-0.4142135623730951
  0
VERTEX
  5
71E
  8
回08-記事
 62
     8
 10
1284.2834045698
 20
327.901358626068
 30
0.0
  0
VERTEX
  5
71F
  8
回08-記事
 62
     8
 10
1284.2834045698
 20
331.901358626068
 30
0.0
 42
-0.4142135623730951
  0
SEQEND
  5
718
  8
回09-LCD
  6
CONTINUOUS
 62
     7
  0
TEXT
  5
2E7
  8
回08-記事
 62
    30
 10
1208.876329083612
 20
333.5405028366636
 30
0.0
 40
2.5
  1
4
 50
90.0
  0
TEXT
  5
2E8
  8
回08-記事
 62
    30
 10
1208.632592399746
 20
324.8410727430141
 30
0.0
 40
2.5
  1
1
 50
90.0
  0
TEXT
  5
2E9
  8
回07-寸法
  6
CONTINUOUS
 62
     5
 10
1256.575777562488
 20
341.9429972388314
 30
0.0
 40
6.0
  1
PROTECTION TAPE
1001
ACAD
1000
MTEXTBEGIN
1070
    73
1070
     1
1070
    44
1040
1.0
1070
    74
1070
     0
1000
MTEXTEND
  0
INSERT
  5
2EA
  8
回07-寸法
  6
CONTINUOUS
 62
     7
 66
     1
  2
*X4545
 10
0.0
 20
0.0
 30
0.0
  0
SEQEND
  5
4F4
  8
回09-LCD
  6
CONTINUOUS
 62
     7
  0
DIMENSION
  5
2EB
  8
回07-寸法
  6
CONTINUOUS
 62
     7
  2
*D2020
 10
1348.876329083612
 20
372.9153858352526
 30
0.0
 11
1278.493806574215
 21
372.9153858352526
 31
0.0
 70
   128
  3
DMC
 13
1208.876329083612
 23
332.5263586260676
 33
0.0
 14
1348.876329083612
 24
338.8477934505059
 34
0.0
1001
ACAD
1000
DSTYLE
1002
{
1070
   285
1070
     0
1070
    47
1040
1.0
1070
    48
1040
1.0
1070
    71
1070
     1
1070
   371
1070
     9
1070
   372
1070
     9
1002
}
  0
TEXT
  5
2F8
  8
回07-寸法
  6
CONTINUOUS
 62
     5
 10
1285.61617638972
 20
360.7895355118982
 30
0.0
 40
6.0
  1
2-R2[R0.079]             
1001
ACAD
1000
MTEXTBEGIN
1070
    73
1070
     1
1070
    44
1040
1.0
1070
    74
1070
     0
1000
MTEXTEND
  0
INSERT
  5
2F9
  8
回07-寸法
  6
CONTINUOUS
 62
     7
 66
     1
  2
*X4646
 10
0.0
 20
0.0
 30
0.0
  0
SEQEND
  5
4FB
  8
回09-LCD
  6
CONTINUOUS
 62
     7
  0
TEXT
  5
2FA
  8
回07-寸法
  6
CONTINUOUS
 62
     5
 10
1285.584748999405
 20
352.3441265956927
 30
0.0
 40
6.0
  1
4-R1[R0.039]
1001
ACAD
1000
MTEXTBEGIN
1070
    73
1070
     1
1070
    44
1040
1.0
1070
    74
1070
     0
1000
MTEXTEND
  0
INSERT
  5
2FB
  8
回07-寸法
  6
CONTINUOUS
 62
     7
 66
     1
  2
*X4747
 10
0.0
 20
0.0
 30
0.0
  0
SEQEND
  5
502
  8
回09-LCD
  6
CONTINUOUS
 62
     7
  0
ARC
  5
2FC
  8
回05-ﾃｰﾙ
 62
     7
 10
1338.765066514834
 20
334.0263586260676
 30
0.0
 40
1.0
 50
269.9999999999997
 51
314.8829928953915
  0
DIMENSION
  5
2FD
  8
回07-寸法
  6
CONTINUOUS
 62
     7
  2
*D1919
 10
1246.186250893607
 20
337.9013586260686
 30
0.0
 11
1246.186250893607
 21
301.2013586260673
 31
0.0
 70
   128
  3
DMC
 13
1344.486053936852
 23
321.9013586260676
 33
0.0
 14
1344.488572760953
 24
337.9013586260685
 34
0.0
 50
90.0
1001
ACAD
1000
DSTYLE
1002
{
1070
   285
1070
     0
1070
   371
1070
     9
1070
   372
1070
     9
1002
}
  0
DIMENSION
  5
30C
  8
回07-寸法
  6
CONTINUOUS
 62
     7
  2
*D1818
 10
1339.472960152256
 20
291.627012058083
 30
0.0
 11
1316.848696083545
 21
291.627012058083
 31
0.0
 70
   128
  3
DMC
 13
1348.876329083612
 23
320.9549240013533
 33
0.0
 14
1339.472960152256
 24
326.4826847011693
 34
0.0
1001
ACAD
1000
DSTYLE
1002
{
1070
   285
1070
     0
1070
   371
1070
     9
1070
   372
1070
     9
1002
}
  0
DIMENSION
  5
31B
  8
回07-寸法
  6
CONTINUOUS
 62
     7
  2
*D1717
 10
1344.486053936852
 20
304.2703470324141
 30
0.0
 11
1319.058340405609
 21
304.2703470324141
 31
0.0
 70
   128
  3
DMC
 13
1348.876329083612
 23
320.9549240013533
 33
0.0
 14
1344.486053936852
 24
321.9013586260676
 34
0.0
1001
ACAD
1000
DSTYLE
1002
{
1070
   285
1070
     0
1070
   371
1070
     9
1070
   372
1070
     9
1002
}
  0
DIMENSION
  5
32A
  8
回07-寸法
  6
CONTINUOUS
 62
     7
  2
*D1616
 10
1202.397107326286
 20
326.7763586260681
 30
0.0
 11
1198.597107326285
 21
301.9968310670126
 31
0.0
 70
     0
  3
DMC
 13
1209.576329083612
 23
333.0263586260684
 33
0.0
 14
1209.376329083612
 24
326.776358626068
 34
0.0
 50
90.0
1001
ACAD
1000
DSTYLE
1002
{
1070
   285
1070
     0
1070
    47
1040
0.2
1070
   147
1040
0.5
1070
    48
1040
0.2
1070
    72
1070
     0
1070
    71
1070
     0
1070
   371
1070
     9
1070
   372
1070
     9
1002
}
  0
DIMENSION
  5
339
  8
回07-寸法
  6
CONTINUOUS
 62
     7
  2
*D1515
 10
1202.397107326285
 20
333.0263586260685
 30
0.0
 11
1198.597107326285
 21
418.4638586260678
 31
0.0
 70
     0
  1
(<>)
  3
DMC
 13
1350.876329083612
 23
503.9013586260679
 33
0.0
 14
1209.376329083612
 24
333.0263586260684
 34
0.0
 50
90.0
1001
ACAD
1000
DSTYLE
1002
{
1070
   285
1070
     0
1070
   371
1070
     9
1070
   372
1070
     9
1002
}
  0
TEXT
  5
346
  8
回07-寸法
  6
CONTINUOUS
 62
     5
 10
1770.606666314036
 20
175.8360919910558
 30
0.0
 40
3.0
  1
AIR VENT
1001
ACAD
1000
MTEXTBEGIN
1070
    73
1070
     1
1070
    44
1040
1.0
1070
    74
1070
     0
1000
MTEXTEND
  0
INSERT
  5
347
  8
回07-寸法
  6
CONTINUOUS
 62
     7
 66
     1
  2
*X4848
 10
0.0
 20
0.0
 30
0.0
  0
SEQEND
  5
509
  8
回09-LCD
  6
CONTINUOUS
 62
     7
  0
DIMENSION
  5
348
  8
回07-寸法
  6
CONTINUOUS
 62
     7
  2
*D1414
 10
1817.67869779908
 20
164.9013586260681
 30
0.0
 11
1817.67869779908
 21
188.8908553729575
 31
0.0
 70
   128
  1
(<>)
  3
DMC
 13
1803.876329083612
 23
162.901358626068
 33
0.0
 14
1803.876329083612
 24
164.901358626068
 34
0.0
 50
90.0
1001
ACAD
1000
DSTYLE
1002
{
1070
   285
1070
     0
1070
   371
1070
     9
1070
   372
1070
     9
1002
}
  0
DIMENSION
  5
357
  8
回07-寸法
  6
CONTINUOUS
 62
     7
  2
*D1313
 10
1824.756089344131
 20
155.901358626068
 30
0.0
 11
1824.756089344131
 21
134.3037208307919
 31
0.0
 70
   128
  1
(<>)
  3
DMC
 13
1803.876329083612
 23
162.901358626068
 33
0.0
 14
1803.876329083613
 24
155.901358626068
 34
0.0
 50
90.0
1001
ACAD
1000
DSTYLE
1002
{
1070
   285
1070
     0
1070
   371
1070
     9
1070
   372
1070
     9
1002
}
  0
LINE
  5
366
  8
回08-記事
 62
     7
 10
1796.476329083612
 20
162.901358626068
 30
0.0
 11
1803.876329083612
 21
162.901358626068
 31
0.0
  0
LINE
  5
367
  8
回08-記事
 62
     7
 10
1796.476329083612
 20
164.901358626068
 30
0.0
 11
1803.876329083612
 21
164.901358626068
 31
0.0
  0
DIMENSION
  5
368
  8
回07-寸法
  6
CONTINUOUS
 62
    20
  2
*D1212
 10
1861.273018892694
 20
155.901358626068
 30
0.0
 11
1861.273018892694
 21
132.1672378965959
 31
0.0
 70
   128
  3
DMC
 13
1796.476329083612
 23
163.901358626068
 33
0.0
 14
1803.876329083613
 24
155.901358626068
 34
0.0
 50
90.0
1001
ACAD
1000
DSTYLE
1002
{
1070
   285
1070
     0
1070
   371
1070
     9
1070
   372
1070
     9
1002
}
  0
DIMENSION
  5
378
  8
回07-寸法
  6
CONTINUOUS
 62
    20
  2
*D1111
 10
1850.285219676902
 20
155.901358626068
 30
0.0
 11
1850.285219676902
 21
130.1354249585219
 31
0.0
 70
   128
  1
<>     
  3
DMC
 13
1791.376329083612
 23
168.901358626068
 33
0.0
 14
1803.876329083613
 24
155.901358626068
 34
0.0
 50
90.0
1001
ACAD
1000
DSTYLE
1002
{
1070
   285
1070
     0
1070
   371
1070
     9
1070
   372
1070
     9
1002
}
  0
DIMENSION
  5
387
  8
回07-寸法
  6
CONTINUOUS
 62
    20
  2
*D1010
 10
1881.167639612456
 20
503.9013586260684
 30
0.0
 11
1881.167639612456
 21
332.8262417976239
 31
0.0
 70
   128
  3
DMC
 13
1803.876329083613
 23
155.901358626068
 33
0.0
 14
1803.876329083613
 24
503.9013586260684
 34
0.0
 50
90.0
1001
ACAD
1000
DSTYLE
1002
{
1070
   285
1070
     0
1070
    47
1040
0.3
1070
   147
1040
0.5
1070
    48
1040
0.3
1070
    72
1070
     0
1070
    71
1070
     1
1070
   371
1070
     9
1070
   372
1070
     9
1002
}
  0
DIMENSION
  5
394
  8
回07-寸法
  6
CONTINUOUS
 62
    20
  2
*D99
 10
1861.273018892695
 20
163.9013586260681
 30
0.0
 11
1861.273018892694
 21
329.9791128076176
 31
0.0
 70
   128
  1
<>         (Viewing area)
  3
DMC
 13
1796.476329083612
 23
495.9013586260679
 33
0.0
 14
1796.476329083612
 24
163.901358626068
 34
0.0
 50
90.0
1001
ACAD
1000
DSTYLE
1002
{
1070
   285
1070
     0
1070
   371
1070
     9
1070
   372
1070
     9
1002
}
  0
DIMENSION
  5
3A1
  8
回07-寸法
  6
CONTINUOUS
 62
    20
  2
*D88
 10
1850.285219676902
 20
490.9013586260682
 30
0.0
 11
1850.285219676902
 21
331.2843534807452
 31
0.0
 70
   128
  1
<>         (Active area)
  3
DMC
 13
1791.376329083612
 23
168.901358626068
 33
0.0
 14
1791.376329083612
 24
490.9013586260679
 34
0.0
 50
90.0
1001
ACAD
1000
DSTYLE
1002
{
1070
   285
1070
     0
1070
   371
1070
     9
1070
   372
1070
     9
1002
}
  0
DIMENSION
  5
3AE
  8
回07-寸法
  6
CONTINUOUS
 62
    20
  2
*D77
 10
1833.679360251803
 20
155.901358626068
 30
0.0
 11
1833.679360251803
 21
240.7814952508943
 31
0.0
 70
   128
  1
<>        (Active area Center)
  3
DMC
 13
1803.876329083612
 23
329.901358626068
 33
0.0
 14
1803.876329083613
 24
155.901358626068
 34
0.0
 50
90.0
1001
ACAD
1000
DSTYLE
1002
{
1070
   285
1070
     0
1070
   371
1070
     9
1070
   372
1070
     9
1002
}
  0
DIMENSION
  5
3BB
  8
回07-寸法
  6
CONTINUOUS
 62
    20
  2
*D66
 10
1348.876329083612
 20
533.7785347088519
 30
0.0
 11
1320.517840599696
 21
533.7785347088519
 31
0.0
 70
   128
  3
DMC
 13
1356.276329083613
 23
495.9013586260679
 33
0.0
 14
1348.876329083612
 24
503.9013586260682
 34
0.0
1001
ACAD
1000
DSTYLE
1002
{
1070
   285
1070
     0
1070
   371
1070
     9
1070
   372
1070
     9
1002
}
  0
DIMENSION
  5
3CA
  8
回07-寸法
  6
CONTINUOUS
 62
    20
  2
*D55
 10
1348.876329083612
 20
524.9059898030973
 30
0.0
 11
1321.129184553356
 21
524.9059898030973
 31
0.0
 70
   128
  3
DMC
 13
1361.376329083612
 23
490.9013586260679
 33
0.0
 14
1348.876329083612
 24
503.9013586260682
 34
0.0
1001
ACAD
1000
DSTYLE
1002
{
1070
   285
1070
     0
1070
   371
1070
     9
1070
   372
1070
     9
1002
}
  0
DIMENSION
  5
3D9
  8
回07-寸法
  6
CONTINUOUS
 62
    20
  2
*D44
 10
1803.876329083613
 20
559.4103253752108
 30
0.0
 11
1576.188812110238
 21
559.4103253752108
 31
0.0
 70
   128
  3
DMC
 13
1348.876329083612
 23
503.9013586260682
 33
0.0
 14
1803.876329083613
 24
503.9013586260684
 34
0.0
1001
ACAD
1000
DSTYLE
1002
{
1070
   285
1070
     0
1070
    47
1040
0.3
1070
   147
1040
0.5
1070
    48
1040
0.3
1070
    72
1070
     0
1070
    71
1070
     1
1070
   371
1070
     9
1070
   372
1070
     9
1002
}
  0
DIMENSION
  5
3E6
  8
回07-寸法
  6
CONTINUOUS
 62
    20
  2
*D33
 10
1356.276329083613
 20
533.7785347088519
 30
0.0
 11
1575.695425639889
 21
533.7785347088519
 31
0.0
 70
   128
  1
<>         (Viewing area)
  3
DMC
 13
1796.476329083612
 23
495.9013586260679
 33
0.0
 14
1356.276329083613
 24
495.9013586260679
 34
0.0
1001
ACAD
1000
DSTYLE
1002
{
1070
   285
1070
     0
1070
   371
1070
     9
1070
   372
1070
     9
1002
}
  0
DIMENSION
  5
3F3
  8
回07-寸法
  6
CONTINUOUS
 62
    20
  2
*D22
 10
1791.376329083612
 20
524.9059898030973
 30
0.0
 11
1574.215252194639
 21
524.9059898030973
 31
0.0
 70
   128
  1
<>         (Active area)
  3
DMC
 13
1361.376329083612
 23
490.9013586260679
 33
0.0
 14
1791.376329083612
 24
490.9013586260679
 34
0.0
1001
ACAD
1000
DSTYLE
1002
{
1070
   285
1070
     0
1070
   371
1070
     9
1070
   372
1070
     9
1002
}
  0
DIMENSION
  5
400
  8
回07-寸法
  6
CONTINUOUS
 62
    20
  2
*D11
 10
1576.376329083612
 20
515.3996626972119
 30
0.0
 11
1463.288398035954
 21
515.3996626972119
 31
0.0
 70
   128
  1
<>         (Active area Center)
  3
DMC
 13
1348.876329083612
 23
503.9013586260682
 33
0.0
 14
1576.376329083612
 24
503.9013586260679
 34
0.0
1001
ACAD
1000
DSTYLE
1002
{
1070
   285
1070
     0
1070
   371
1070
     9
1070
   372
1070
     9
1002
}
  0
ARC
  5
40D
  8
回05-ﾃｰﾙ
 62
     7
 10
1347.376329083612
 20
319.901358626068
 30
0.0
 40
2.0
 50
41.40962210926177
 51
90.0
  0
ARC
  5
40E
  8
回05-ﾃｰﾙ
 62
     7
 10
1347.376329083612
 20
339.9013588257913
 30
0.0
 40
2.0
 50
270.0256057119457
 51
318.5903778907394
  0
LINE
  5
40F
  8
回05-ﾃｰﾙ
 62
     7
 10
1348.876329083612
 20
329.4013586260676
 30
0.0
 11
1346.876329083612
 21
329.4013586260676
 31
0.0
  0
LINE
  5
410
  8
回05-ﾃｰﾙ
 62
     7
 10
1346.876329083612
 20
330.4013586260676
 30
0.0
 11
1348.876329083612
 21
330.4013586260676
 31
0.0
  0
LINE
  5
411
  8
回05-ﾃｰﾙ
 62
     7
 10
1339.470727797926
 20
333.3178092957132
 30
0.0
 11
1343.78039265376
 21
337.6099079564233
 31
0.0
  0
LINE
  5
412
  8
回05-ﾃｰﾙ
 62
     7
 10
1344.486053936852
 20
321.9013586260676
 30
0.0
 11
1347.376329083612
 21
321.9013586260676
 31
0.0
  0
LINE
  5
413
  8
回05-ﾃｰﾙ
 62
     7
 10
1208.876329083612
 20
332.5263586260676
 30
0.0
 11
1208.876329083612
 21
327.2763586260676
 31
0.0
  0
ARC
  5
414
  8
回05-ﾃｰﾙ
 62
     7
 10
1209.376329083612
 20
332.526358626068
 30
0.0
 40
0.5
 50
90.0
 51
180.0
  0
LINE
  5
415
  8
回05-ﾃｰﾙ
 62
     7
 10
1209.376329083612
 20
333.0263586260685
 30
0.0
 11
1338.765066514834
 21
333.0263586260685
 31
0.0
  0
POLYLINE
  5
416
  8
回08-記事
 62
     7
 66
     1
 10
0.0
 20
0.0
 30
0.0
 70
     1
  0
VERTEX
  5
720
  8
回08-記事
 62
     7
 10
1356.276329083613
 20
495.9013586260679
 30
0.0
  0
VERTEX
  5
722
  8
回08-記事
 62
     7
 10
1796.476329083612
 20
495.9013586260679
 30
0.0
  0
VERTEX
  5
723
  8
回08-記事
 62
     7
 10
1796.476329083612
 20
163.901358626068
 30
0.0
  0
VERTEX
  5
724
  8
回08-記事
 62
     7
 10
1356.276329083612
 20
163.901358626068
 30
0.0
  0
SEQEND
  5
721
  8
回09-LCD
  6
CONTINUOUS
 62
     7
  0
LINE
  5
417
  8
回07-寸法
  6
CENTER2
 62
     1
 10
1207.370702394144
 20
329.901358626068
 30
0.0
 11
1805.876329083612
 21
329.901358626068
 31
0.0
  0
LINE
  5
418
  8
回07-寸法
  6
CENTER2
 62
     1
 10
1576.376329083612
 20
505.901358626068
 30
0.0
 11
1576.376329083612
 21
153.901358626068
 31
0.0
  0
TEXT
  5
419
  8
回08-記事
  6
CONTINUOUS
 62
     7
 10
1889.011731274111
 20
437.2478527616421
 30
0.0
 40
5.849999999999999
  1
4
  0
LINE
  5
41A
  8
回08-記事
  6
CONTINUOUS
 62
     7
 10
1895.29136937623
 20
439.9295697631688
 30
0.0
 11
1968.78199437623
 21
439.9295697631688
 31
0.0
  0
TEXT
  5
41B
  8
回08-記事
  6
CONTINUOUS
 62
     7
 10
1944.197573918389
 20
375.792190003217
 30
0.0
 40
5.118749999999998
  1
XR
  0
LINE
  5
41C
  8
回08-記事
  6
CONTINUOUS
 62
     7
 10
1948.67261937623
 20
383.2576947631687
 30
0.0
 11
1948.67261937623
 21
419.8201947631686
 31
0.0
  0
LINE
  5
41D
  8
回08-記事
  6
CONTINUOUS
 62
     7
 10
1943.91949437623
 20
383.2576947631687
 30
0.0
 11
1948.67261937623
 21
383.2576947631687
 31
0.0
  0
LINE
  5
41E
  8
回08-記事
  6
CONTINUOUS
 62
     7
 10
1934.34011937623
 20
385.1589447631691
 30
0.0
 11
1936.972619376231
 21
379.8939447631688
 31
0.0
  0
LINE
  5
41F
  8
回08-記事
  6
CONTINUOUS
 62
     7
 10
1931.707619376231
 20
379.8939447631688
 30
0.0
 11
1934.34011937623
 21
385.1589447631691
 31
0.0
  0
LINE
  5
420
  8
回08-記事
  6
CONTINUOUS
 62
     7
 10
1936.972619376231
 20
379.8939447631688
 30
0.0
 11
1939.60511937623
 21
385.1589447631691
 31
0.0
  0
LINE
  5
421
  8
回08-記事
  6
CONTINUOUS
 62
     7
 10
1939.60511937623
 20
385.1589447631691
 30
0.0
 11
1942.237619376231
 21
379.8939447631688
 31
0.0
  0
LINE
  5
422
  8
回08-記事
  6
CONTINUOUS
 62
     7
 10
1942.237619376231
 20
379.8939447631688
 30
0.0
 11
1943.91949437623
 21
383.2576947631687
 31
0.0
  0
LINE
  5
423
  8
回08-記事
  6
CONTINUOUS
 62
     7
 10
1921.17761937623
 20
379.8939447631688
 30
0.0
 11
1923.81011937623
 21
385.1589447631691
 31
0.0
  0
LINE
  5
424
  8
回08-記事
  6
CONTINUOUS
 62
     7
 10
1915.91261937623
 20
379.8939447631688
 30
0.0
 11
1918.54511937623
 21
385.1589447631691
 31
0.0
  0
LINE
  5
425
  8
回08-記事
  6
CONTINUOUS
 62
     7
 10
1918.54511937623
 20
385.1589447631691
 30
0.0
 11
1921.17761937623
 21
379.8939447631688
 31
0.0
  0
LINE
  5
426
  8
回08-記事
  6
CONTINUOUS
 62
     7
 10
1923.37136937623
 20
385.3783197631687
 30
0.0
 11
1928.63636937623
 21
382.7458197631687
 31
0.0
  0
LINE
  5
427
  8
回08-記事
  6
CONTINUOUS
 62
     7
 10
1923.37136937623
 20
391.3745697631689
 30
0.0
 11
1928.63636937623
 21
388.7420697631687
 31
0.0
  0
LINE
  5
428
  8
回08-記事
  6
CONTINUOUS
 62
     7
 10
1923.37136937623
 20
391.3745697631689
 30
0.0
 11
1928.63636937623
 21
394.0070697631687
 31
0.0
  0
LINE
  5
429
  8
回08-記事
  6
CONTINUOUS
 62
     7
 10
1923.37136937623
 20
385.3783197631687
 30
0.0
 11
1928.63636937623
 21
388.0108197631689
 31
0.0
  0
LINE
  5
42A
  8
回08-記事
  6
CONTINUOUS
 62
     7
 10
1923.37136937623
 20
374.8483197631681
 30
0.0
 11
1928.63636937623
 21
377.4808197631692
 31
0.0
  0
LINE
  5
42B
  8
回08-記事
  6
CONTINUOUS
 62
     7
 10
1923.37136937623
 20
380.1133197631684
 30
0.0
 11
1928.63636937623
 21
377.4808197631692
 31
0.0
  0
LINE
  5
42C
  8
回08-記事
  6
CONTINUOUS
 62
     7
 10
1923.37136937623
 20
380.1133197631684
 30
0.0
 11
1928.63636937623
 21
382.7458197631687
 31
0.0
  0
LINE
  5
42D
  8
回08-記事
  6
CONTINUOUS
 62
     7
 10
1926.003869376231
 20
395.3233197631689
 30
0.0
 11
1928.63636937623
 21
394.0070697631687
 31
0.0
  0
LINE
  5
42E
  8
回08-記事
  6
CONTINUOUS
 62
     7
 10
1923.81011937623
 20
385.1589447631691
 30
0.0
 11
1926.442619376231
 21
379.8939447631688
 31
0.0
  0
LINE
  5
42F
  8
回08-記事
  6
CONTINUOUS
 62
     7
 10
1926.442619376231
 20
379.8939447631688
 30
0.0
 11
1929.07511937623
 21
385.1589447631691
 31
0.0
  0
LINE
  5
430
  8
回08-記事
  6
CONTINUOUS
 62
     7
 10
1926.003869376231
 20
395.3233197631689
 30
0.0
 11
1926.003869376231
 21
399.7108197631687
 31
0.0
  0
TEXT
  5
431
  8
回08-記事
  6
CONTINUOUS
 62
     7
 10
1901.466744524614
 20
383.9394066352734
 30
0.0
 40
5.118749999999998
  1
XL
  0
LINE
  5
432
  8
回08-記事
  6
CONTINUOUS
 62
     7
 10
1911.59824437623
 20
381.7951947631686
 30
0.0
 11
1913.28011937623
 21
385.1589447631691
 31
0.0
  0
LINE
  5
433
  8
回08-記事
  6
CONTINUOUS
 62
     7
 10
1913.28011937623
 20
385.1589447631691
 30
0.0
 11
1915.91261937623
 21
379.8939447631688
 31
0.0
  0
LINE
  5
434
  8
回08-記事
  6
CONTINUOUS
 62
     7
 10
1923.37136937623
 20
369.5833197631687
 30
0.0
 11
1928.63636937623
 21
372.2158197631689
 31
0.0
  0
LINE
  5
435
  8
回08-記事
  6
CONTINUOUS
 62
     7
 10
1923.37136937623
 20
369.5833197631687
 30
0.0
 11
1926.003869376231
 21
368.2670697631684
 31
0.0
  0
LINE
  5
436
  8
回08-記事
  6
CONTINUOUS
 62
     7
 10
1926.003869376231
 20
363.1483197631687
 30
0.0
 11
1926.003869376231
 21
368.2670697631684
 31
0.0
  0
TEXT
  5
437
  8
回08-記事
  6
CONTINUOUS
 62
     7
 10
1912.557186721224
 20
365.2333927556611
 30
0.0
 40
5.118749999999998
  1
YD
  0
LINE
  5
438
  8
回08-記事
  6
CONTINUOUS
 62
     7
 10
1923.37136937623
 20
374.8483197631681
 30
0.0
 11
1928.63636937623
 21
372.2158197631689
 31
0.0
  0
TEXT
  5
439
  8
回08-記事
  6
CONTINUOUS
 62
     7
 10
1889.572877480653
 20
378.8962570004928
 30
0.0
 40
5.849999999999999
  1
1
  0
TEXT
  5
43A
  8
回08-記事
  6
CONTINUOUS
 62
     7
 10
1889.124291891851
 20
397.4861840307271
 30
0.0
 40
5.849999999999999
  1
2
  0
TEXT
  5
43B
  8
回08-記事
  6
CONTINUOUS
 62
     7
 10
1889.346015377287
 20
416.9496642455237
 30
0.0
 40
5.849999999999999
  1
3
  0
LINE
  5
43C
  8
回08-記事
  6
CONTINUOUS
 62
     7
 10
1895.29136937623
 20
399.7108197631687
 30
0.0
 11
1926.003869376231
 21
399.7108197631687
 31
0.0
  0
LINE
  5
43D
  8
回08-記事
  6
CONTINUOUS
 62
     7
 10
1895.29136937623
 20
381.7951947631686
 30
0.0
 11
1911.59824437623
 21
381.7951947631686
 31
0.0
  0
TEXT
  5
43E
  8
回08-記事
  6
CONTINUOUS
 62
     7
 10
1894.650712660248
 20
343.6161689763617
 30
0.0
 40
7.5
  1
PIN ASSIGNMENT
  0
LINE
  5
43F
  8
回08-記事
  6
CONTINUOUS
 62
     7
 10
1926.003869376231
 20
363.1483197631687
 30
0.0
 11
1968.78199437623
 21
363.1483197631687
 31
0.0
  0
TEXT
  5
440
  8
回08-記事
  6
CONTINUOUS
 62
     7
 10
1927.440363030726
 20
400.674995337993
 30
0.0
 40
5.118749999999998
  1
YU
  0
LINE
  5
441
  8
回08-記事
  6
CONTINUOUS
 62
     7
 10
1929.07511937623
 20
385.1589447631691
 30
0.0
 11
1931.707619376231
 21
379.8939447631688
 31
0.0
  0
LINE
  5
442
  8
回08-記事
  6
CONTINUOUS
 62
     7
 10
1895.29136937623
 20
419.8201947631686
 30
0.0
 11
1948.67261937623
 21
419.8201947631686
 31
0.0
  0
LINE
  5
443
  8
回08-記事
  6
CONTINUOUS
 62
     7
 10
1968.78199437623
 20
363.1483197631687
 30
0.0
 11
1968.78199437623
 21
439.9295697631688
 31
0.0
  0
ENDSEC
  0
EOF
