  0
SECTION
  2
HEADER
  9
$ACADVER
  1
AC1009
  9
$INSBASE
 10
0.0
 20
0.0
 30
0.0
  9
$EXTMIN
 10
-159.2939520015313
 20
-2901.534251067126
 30
0.0
  9
$EXTMAX
 10
296.7060479984687
 20
-2585.534251067127
 30
0.0
  9
$LIMMIN
 10
0.0
 20
0.0
  9
$LIMMAX
 10
3000.0
 20
2500.0
  9
$ORTHOMODE
 70
     1
  9
$REGENMODE
 70
     1
  9
$FILLMODE
 70
     1
  9
$QTEXTMODE
 70
     0
  9
$MIRRTEXT
 70
     1
  9
$DRAGMODE
 70
     2
  9
$LTSCALE
 40
10.0
  9
$OSMODE
 70
   295
  9
$ATTMODE
 70
     1
  9
$TEXTSIZE
 40
3.0
  9
$TRACEWID
 40
1.0
  9
$TEXTSTYLE
  7
STANDARD
  9
$CLAYER
  8
回07-寸法
  9
$CELTYPE
  6
CONTINUOUS
  9
$CECOLOR
 62
     7
  9
$DIMSCALE
 40
1.0
  9
$DIMASZ
 40
1.5
  9
$DIMEXO
 40
0.0
  9
$DIMDLI
 40
0.0
  9
$DIMRND
 40
0.0
  9
$DIMDLE
 40
0.0
  9
$DIMEXE
 40
1.0
  9
$DIMTP
 40
0.2
  9
$DIMTM
 40
0.2
  9
$DIMTXT
 40
3.0
  9
$DIMCEN
 40
1.5
  9
$DIMTSZ
 40
0.0
  9
$DIMTOL
 70
     0
  9
$DIMLIM
 70
     0
  9
$DIMTIH
 70
     0
  9
$DIMTOH
 70
     0
  9
$DIMSE1
 70
     0
  9
$DIMSE2
 70
     0
  9
$DIMTAD
 70
     3
  9
$DIMZIN
 70
     8
  9
$DIMBLK
  1
OPEN
  9
$DIMASO
 70
     1
  9
$DIMSHO
 70
     1
  9
$DIMPOST
  1

  9
$DIMAPOST
  1

  9
$DIMALT
 70
     0
  9
$DIMALTD
 70
     3
  9
$DIMALTF
 40
0.03937007874016
  9
$DIMLFAC
 40
1.0
  9
$DIMTOFL
 70
     1
  9
$DIMTVP
 40
0.0
  9
$DIMTIX
 70
     0
  9
$DIMSOXD
 70
     0
  9
$DIMSAH
 70
     0
  9
$DIMBLK1
  1

  9
$DIMBLK2
  1

  9
$DIMSTYLE
  2
DMC
  9
$DIMCLRD
 70
     5
  9
$DIMCLRE
 70
     5
  9
$DIMCLRT
 70
     5
  9
$DIMTFAC
 40
0.7
  9
$DIMGAP
 40
0.5
  9
$LUNITS
 70
     2
  9
$LUPREC
 70
     4
  9
$SKETCHINC
 40
1.0
  9
$FILLETRAD
 40
2.0
  9
$AUNITS
 70
     0
  9
$AUPREC
 70
     0
  9
$MENU
  1
.
  9
$ELEVATION
 40
0.0
  9
$PELEVATION
 40
0.0
  9
$THICKNESS
 40
0.0
  9
$LIMCHECK
 70
     0
  9
$BLIPMODE
 70
     0
  9
$CHAMFERA
 40
1.0
  9
$CHAMFERB
 40
1.0
  9
$SKPOLY
 70
     0
  9
$TDCREATE
 40
2451810.404221065
  9
$TDUPDATE
 40
2459796.693429479
  9
$TDINDWG
 40
5.791731470
  9
$TDUSRTIMER
 40
5.791730775
  9
$USRTIMER
 70
     1
  9
$ANGBASE
 50
0.0
  9
$ANGDIR
 70
     0
  9
$PDMODE
 70
     0
  9
$PDSIZE
 40
0.0
  9
$PLINEWID
 40
3.0
  9
$COORDS
 70
     0
  9
$SPLFRAME
 70
     0
  9
$SPLINETYPE
 70
     6
  9
$SPLINESEGS
 70
     8
  9
$ATTDIA
 70
     1
  9
$ATTREQ
 70
     1
  9
$HANDLING
 70
     1
  9
$HANDSEED
  5
96A
  9
$SURFTAB1
 70
     6
  9
$SURFTAB2
 70
     6
  9
$SURFTYPE
 70
     6
  9
$SURFU
 70
     6
  9
$SURFV
 70
     6
  9
$UCSNAME
  2

  9
$UCSORG
 10
0.0
 20
0.0
 30
0.0
  9
$UCSXDIR
 10
1.0
 20
0.0
 30
0.0
  9
$UCSYDIR
 10
0.0
 20
1.0
 30
0.0
  9
$PUCSNAME
  2

  9
$PUCSORG
 10
0.0
 20
0.0
 30
0.0
  9
$PUCSXDIR
 10
1.0
 20
0.0
 30
0.0
  9
$PUCSYDIR
 10
0.0
 20
1.0
 30
0.0
  9
$USERI1
 70
     0
  9
$USERI2
 70
     0
  9
$USERI3
 70
     0
  9
$USERI4
 70
     0
  9
$USERI5
 70
     0
  9
$USERR1
 40
0.0
  9
$USERR2
 40
0.0
  9
$USERR3
 40
0.0
  9
$USERR4
 40
0.0
  9
$USERR5
 40
0.0
  9
$WORLDVIEW
 70
     1
  9
$SHADEDGE
 70
     3
  9
$SHADEDIF
 70
    70
  9
$TILEMODE
 70
     1
  9
$MAXACTVP
 70
    64
  9
$PLIMCHECK
 70
     0
  9
$PEXTMIN
 10
1.000000000000000E+20
 20
1.000000000000000E+20
 30
1.000000000000000E+20
  9
$PEXTMAX
 10
-1.000000000000000E+20
 20
-1.000000000000000E+20
 30
-1.000000000000000E+20
  9
$PLIMMIN
 10
0.0
 20
0.0
  9
$PLIMMAX
 10
420.0
 20
297.0
  9
$UNITMODE
 70
     0
  9
$VISRETAIN
 70
     1
  9
$PLINEGEN
 70
     0
  9
$PSLTSCALE
 70
     1
  0
ENDSEC
  0
SECTION
  2
TABLES
  0
TABLE
  2
VPORT
 70
     1
  0
VPORT
  2
*ACTIVE
 70
     0
 10
0.0
 20
0.0
 11
1.0
 21
1.0
 12
201.8123458532335
 22
-2812.904297696895
 13
0.0
 23
0.0
 14
10.0
 24
10.0
 15
10.0
 25
10.0
 16
0.0
 26
0.0
 36
1.0
 17
0.0
 27
0.0
 37
0.0
 40
708.5707819735898
 41
2.368956743002544
 42
50.0
 43
0.0
 44
0.0
 50
0.0
 51
0.0
 71
     0
 72
   500
 73
     1
 74
     1
 75
     0
 76
     0
 77
     0
 78
     0
  0
ENDTAB
  0
TABLE
  2
LTYPE
 70
     3
  0
LTYPE
  2
CONTINUOUS
 70
     0
  3
Solid line
 72
    65
 73
     0
 40
0.0
  0
LTYPE
  2
CENTER2
 70
     0
  3
Center (.5x) ___ _ ___ _ ___ _ ___ _ ___ _ ___
 72
    65
 73
     4
 40
28.575
 49
19.05
 49
-3.174999999999999
 49
3.174999999999999
 49
-3.174999999999999
  0
LTYPE
  2
PHANTOM2
 70
     0
  3
___ _ _ ___ _ _ ___ _ _ ___ _ _ ___ _ _ ___ _ _
 72
    65
 73
     6
 40
1.25
 49
0.625
 49
-0.125
 49
0.125
 49
-0.125
 49
0.125
 49
-0.125
  0
ENDTAB
  0
TABLE
  2
LAYER
 70
     7
  0
LAYER
  2
0
 70
     0
 62
     7
  6
CONTINUOUS
  0
LAYER
  2
DEFPOINTS
 70
     0
 62
     7
  6
CONTINUOUS
  0
LAYER
  2
回00-TP外形
 70
     0
 62
     7
  6
CONTINUOUS
  0
LAYER
  2
回90-図面枠
 70
     0
 62
     7
  6
CONTINUOUS
  0
LAYER
  2
回08-CG
 70
     0
 62
     7
  6
CONTINUOUS
  0
LAYER
  2
回06-記事
 70
     0
 62
     7
  6
CONTINUOUS
  0
LAYER
  2
回07-寸法
 70
     0
 62
     7
  6
CONTINUOUS
  0
ENDTAB
  0
TABLE
  2
STYLE
 70
     3
  0
STYLE
  2
STANDARD
 70
     0
 40
3.0
 41
1.0
 50
0.0
 71
     0
 42
3.0
  3
isocp.shx
  4
bigfont.shx
  0
STYLE
  2
2MM
 70
     0
 40
2.0
 41
1.0
 50
0.0
 71
     0
 42
2.0
  3
isocp.shx
  4
bigfont.shx
  0
STYLE
  2
4MM
 70
     0
 40
4.0
 41
1.0
 50
0.0
 71
     0
 42
4.0
  3
isocp.shx
  4
bigfont.shx
  0
ENDTAB
  0
TABLE
  2
VIEW
 70
     0
  0
ENDTAB
  0
TABLE
  2
UCS
 70
     0
  0
ENDTAB
  0
TABLE
  2
APPID
 70
     8
  0
APPID
  2
ACAD
 70
     0
  0
APPID
  2
ACAECLAYERSTANDARD
 70
     0
  0
APPID
  2
ACAD_PSEXT
 70
     0
  0
APPID
  2
GRADIENTCOLOR1ACI
 70
     0
  0
APPID
  2
GRADIENTCOLOR2ACI
 70
     0
  0
APPID
  2
ACAD_MLEADERVER
 70
     0
  0
APPID
  2
ACCMTRANSPARENCY
 70
     0
  0
APPID
  2
ACAD_NAV_VCDISPLAY
 70
     0
  0
ENDTAB
  0
TABLE
  2
DIMSTYLE
 70
     2
  0
DIMSTYLE
  2
DMC
 70
     0
  3

  4

  5
OPEN
  6

  7

 40
1.0
 41
2.0
 42
0.0
 43
0.0
 44
1.0
 45
0.0
 46
0.0
 47
0.0
 48
0.0
140
3.0
141
2.0
142
0.0
143
0.03937007874016
144
1.0
145
0.0
146
0.7
147
0.5
 71
     0
 72
     0
 73
     0
 74
     0
 75
     0
 76
     0
 77
     3
 78
     8
170
     0
171
     3
172
     1
173
     0
174
     0
175
     0
176
     5
177
     5
178
     5
  0
DIMSTYLE
  2
KOUSA
 70
     0
  3

  4

  5

  6
OPEN
  7
OPEN
 40
1.0
 41
2.0
 42
0.0
 43
0.0
 44
1.0
 45
0.0
 46
0.0
 47
0.1
 48
0.1
140
3.0
141
2.0
142
0.0
143
25.4
144
1.0
145
0.0
146
0.7
147
0.5
 71
     1
 72
     0
 73
     0
 74
     0
 75
     0
 76
     0
 77
     3
 78
     8
170
     0
171
     2
172
     1
173
     1
174
     0
175
     0
176
     5
177
     5
178
     5
  0
ENDTAB
  0
ENDSEC
  0
SECTION
  2
BLOCKS
  0
BLOCK
  8
0
  2
$MODEL_SPACE
 70
     0
 10
0.0
 20
0.0
 30
0.0
  3
$MODEL_SPACE
  1

  0
ENDBLK
  8
0
  5
1E
  0
BLOCK
 67
     1
  8
0
  2
$PAPER_SPACE
 70
     0
 10
0.0
 20
0.0
 30
0.0
  3
$PAPER_SPACE
  1

  0
ENDBLK
  5
24
 67
     1
  8
0
  0
BLOCK
  8
0
  2
_OPEN
 70
     0
 10
0.0
 20
0.0
 30
0.0
  3
_OPEN
  1

  0
LINE
  5
12
  8
0
  6
CONTINUOUS
 62
     0
 10
-1.0
 20
0.1666666666666666
 30
0.0
 11
0.0
 21
0.0
 31
0.0
  0
LINE
  5
13
  8
0
  6
CONTINUOUS
 62
     0
 10
-1.0
 20
-0.1666666666666666
 30
0.0
 11
0.0
 21
0.0
 31
0.0
  0
LINE
  5
14
  8
0
  6
CONTINUOUS
 62
     0
 10
0.0
 20
0.0
 30
0.0
 11
-1.0
 21
0.0
 31
0.0
  0
ENDBLK
  5
15
  8
0
  0
BLOCK
  8
0
  2
_DOTSMALL
 70
     0
 10
0.0
 20
0.0
 30
0.0
  3
_DOTSMALL
  1

  0
POLYLINE
  5
2ED
  8
0
  6
BYBLOCK
 62
     0
 66
     1
 10
0.0
 20
0.0
 30
0.0
 70
     1
 40
0.5
 41
0.5
  0
VERTEX
  5
898
  8
0
  6
BYBLOCK
 62
     0
 10
-0.0625
 20
0.0
 30
0.0
 42
1.0
  0
VERTEX
  5
89A
  8
0
  6
BYBLOCK
 62
     0
 10
0.0625
 20
0.0
 30
0.0
 42
1.0
  0
SEQEND
  5
899
  8
回07-寸法
  6
CONTINUOUS
 62
     7
  0
ENDBLK
  5
2EE
  8
0
 62
     7
  0
BLOCK
  8
0
  2
_DOT
 70
     0
 10
0.0
 20
0.0
 30
0.0
  3
_DOT
  1

  0
POLYLINE
  5
2E7
  8
0
  6
BYBLOCK
 62
     0
 66
     1
 10
0.0
 20
0.0
 30
0.0
 70
     1
 40
0.5
 41
0.5
  0
VERTEX
  5
89B
  8
0
  6
BYBLOCK
 62
     0
 10
-0.25
 20
0.0
 30
0.0
 42
1.0
  0
VERTEX
  5
89D
  8
0
  6
BYBLOCK
 62
     0
 10
0.25
 20
0.0
 30
0.0
 42
1.0
  0
SEQEND
  5
89C
  8
回07-寸法
  6
CONTINUOUS
 62
     7
  0
LINE
  5
2E8
  8
0
  6
BYBLOCK
 62
     0
 10
-0.5
 20
0.0
 30
0.0
 11
-1.0
 21
0.0
 31
0.0
  0
ENDBLK
  5
2E9
  8
0
 62
     7
  0
BLOCK
  8
0
  2
*D3
 70
     1
 10
0.0
 20
0.0
 30
0.0
  3
*D3
  1

  0
LINE
  5
351
  8
回06-記事
  6
CONTINUOUS
 62
     5
 10
105.3461900220613
 20
-2638.569402071843
 30
0.0
 11
105.3461900220613
 21
-2628.028246074702
 31
0.0
  0
LINE
  5
352
  8
回06-記事
  6
CONTINUOUS
 62
     5
 10
144.0623766089852
 20
-2650.87193032177
 30
0.0
 11
144.0623766089852
 21
-2628.028246074702
 31
0.0
  0
LINE
  5
353
  8
回06-記事
  6
CONTINUOUS
 62
     5
 10
106.8461900220613
 20
-2629.028246074702
 30
0.0
 11
142.5623766089852
 21
-2629.028246074702
 31
0.0
  0
INSERT
  5
354
  8
回06-記事
  6
CONTINUOUS
 62
     5
 66
     1
  2
_OPEN
 10
105.3461900220613
 20
-2629.028246074702
 30
0.0
 41
1.5
 42
1.5
 43
1.5
 50
180.0
  0
SEQEND
  5
355
  8
回07-寸法
  6
CONTINUOUS
 62
     7
  0
INSERT
  5
356
  8
回06-記事
  6
CONTINUOUS
 62
     5
 66
     1
  2
_OPEN
 10
144.0623766089852
 20
-2629.028246074702
 30
0.0
 41
1.5
 42
1.5
 43
1.5
  0
SEQEND
  5
357
  8
回07-寸法
  6
CONTINUOUS
 62
     7
  0
INSERT
  5
358
  8
回06-記事
  6
CONTINUOUS
 62
     5
 66
     1
  2
*X72
 10
0.0
 20
0.0
 30
0.0
  0
SEQEND
  5
8A3
  8
回07-寸法
  6
CONTINUOUS
 62
     7
  0
POINT
  5
359
  8
DEFPOINTS
  6
CONTINUOUS
 62
     0
 10
105.3461900220613
 20
-2638.569402071843
 30
0.0
  0
POINT
  5
35A
  8
DEFPOINTS
  6
CONTINUOUS
 62
     0
 10
144.0623766089852
 20
-2650.87193032177
 30
0.0
  0
POINT
  5
35B
  8
DEFPOINTS
  6
CONTINUOUS
 62
     0
 10
144.0623766089852
 20
-2629.028246074702
 30
0.0
  0
ENDBLK
  5
35C
  8
0
 62
     7
  0
BLOCK
  8
0
  2
*D4
 70
     1
 10
0.0
 20
0.0
 30
0.0
  3
*D4
  1

  0
LINE
  5
342
  8
回06-記事
  6
CONTINUOUS
 62
     5
 10
136.0623766089853
 20
-2822.271930321772
 30
0.0
 11
143.2584956459994
 21
-2822.271930321772
 31
0.0
  0
LINE
  5
343
  8
回06-記事
  6
CONTINUOUS
 62
     5
 10
136.8623766089845
 20
-2817.271930321771
 30
0.0
 11
143.2584956459994
 21
-2817.271930321771
 31
0.0
  0
LINE
  5
344
  8
回06-記事
  6
CONTINUOUS
 62
     5
 10
142.2584956459994
 20
-2820.771930321772
 30
0.0
 11
142.2584956459994
 21
-2818.771930321771
 31
0.0
  0
INSERT
  5
345
  8
回06-記事
  6
CONTINUOUS
 62
     5
 66
     1
  2
_OPEN
 10
142.2584956459994
 20
-2822.271930321772
 30
0.0
 41
1.5
 42
1.5
 43
1.5
 50
270.0
  0
SEQEND
  5
346
  8
回07-寸法
  6
CONTINUOUS
 62
     7
  0
INSERT
  5
347
  8
回06-記事
  6
CONTINUOUS
 62
     5
 66
     1
  2
_OPEN
 10
142.2584956459994
 20
-2817.271930321771
 30
0.0
 41
1.5
 42
1.5
 43
1.5
 50
90.0
  0
SEQEND
  5
348
  8
回07-寸法
  6
CONTINUOUS
 62
     7
  0
TEXT
  5
349
  8
回06-記事
  6
CONTINUOUS
 62
     5
 10
141.7584956459986
 20
-2820.821930321771
 30
0.0
 40
3.0
  1
5
 50
90.0
1001
ACAD
1000
MTEXTBEGIN
1070
    73
1070
     1
1070
    44
1040
1.0
1070
    74
1070
     0
1000
MTEXTEND
  0
POINT
  5
34A
  8
DEFPOINTS
  6
CONTINUOUS
 62
     0
 10
136.0623766089853
 20
-2822.271930321772
 30
0.0
  0
POINT
  5
34B
  8
DEFPOINTS
  6
CONTINUOUS
 62
     0
 10
136.8623766089845
 20
-2817.271930321771
 30
0.0
  0
POINT
  5
34C
  8
DEFPOINTS
  6
CONTINUOUS
 62
     0
 10
142.2584956459994
 20
-2817.271930321771
 30
0.0
  0
ENDBLK
  5
34D
  8
0
 62
     7
  0
BLOCK
  8
0
  2
*D5
 70
     1
 10
0.0
 20
0.0
 30
0.0
  3
*D5
  1

  0
LINE
  5
333
  8
回06-記事
  6
CONTINUOUS
 62
     5
 10
128.104283315523
 20
-2812.271930321772
 30
0.0
 11
123.5834751255059
 21
-2812.271930321772
 31
0.0
  0
LINE
  5
334
  8
回06-記事
  6
CONTINUOUS
 62
     5
 10
128.104283315523
 20
-2822.271930321772
 30
0.0
 11
123.5834751255059
 21
-2822.271930321772
 31
0.0
  0
LINE
  5
335
  8
回06-記事
  6
CONTINUOUS
 62
     5
 10
124.5834751255059
 20
-2813.771930321772
 30
0.0
 11
124.5834751255059
 21
-2820.771930321772
 31
0.0
  0
INSERT
  5
336
  8
回06-記事
  6
CONTINUOUS
 62
     5
 66
     1
  2
_OPEN
 10
124.5834751255059
 20
-2812.271930321772
 30
0.0
 41
1.5
 42
1.5
 43
1.5
 50
90.0
  0
SEQEND
  5
337
  8
回07-寸法
  6
CONTINUOUS
 62
     7
  0
INSERT
  5
338
  8
回06-記事
  6
CONTINUOUS
 62
     5
 66
     1
  2
_OPEN
 10
124.5834751255059
 20
-2822.271930321772
 30
0.0
 41
1.5
 42
1.5
 43
1.5
 50
270.0
  0
SEQEND
  5
339
  8
回07-寸法
  6
CONTINUOUS
 62
     7
  0
TEXT
  5
33A
  8
回06-記事
  6
CONTINUOUS
 62
     5
 10
123.933475125505
 20
-2820.271930321771
 30
0.0
 40
3.0
  1
(10)
 50
90.0
1001
ACAD
1000
MTEXTBEGIN
1070
    73
1070
     1
1070
    44
1040
1.0
1070
    74
1070
     0
1000
MTEXTEND
  0
POINT
  5
33B
  8
DEFPOINTS
  6
CONTINUOUS
 62
     0
 10
128.104283315523
 20
-2812.271930321772
 30
0.0
  0
POINT
  5
33C
  8
DEFPOINTS
  6
CONTINUOUS
 62
     0
 10
128.104283315523
 20
-2822.271930321772
 30
0.0
  0
POINT
  5
33D
  8
DEFPOINTS
  6
CONTINUOUS
 62
     0
 10
124.5834751255059
 20
-2822.271930321772
 30
0.0
  0
ENDBLK
  5
33E
  8
0
 62
     7
  0
BLOCK
  8
0
  2
*D6
 70
     1
 10
0.0
 20
0.0
 30
0.0
  3
*D6
  1

  0
LINE
  5
322
  8
回06-記事
  6
CONTINUOUS
 62
     5
 10
133.2623766089841
 20
-2822.27193032177
 30
0.0
 11
133.2623766089841
 21
-2829.091058345693
 31
0.0
  0
LINE
  5
323
  8
回06-記事
  6
CONTINUOUS
 62
     5
 10
136.0623766089852
 20
-2822.27193032177
 30
0.0
 11
136.0623766089852
 21
-2829.091058345693
 31
0.0
  0
LINE
  5
324
  8
回06-記事
  6
CONTINUOUS
 62
     5
 10
131.7623766089841
 20
-2828.091058345693
 30
0.0
 11
130.2623766089841
 21
-2828.091058345693
 31
0.0
  0
LINE
  5
325
  8
回06-記事
  6
CONTINUOUS
 62
     5
 10
137.5623766089852
 20
-2828.091058345693
 30
0.0
 11
150.6976114403978
 21
-2828.091058345693
 31
0.0
  0
LINE
  5
326
  8
回06-記事
  6
CONTINUOUS
 62
     5
 10
133.2623766089841
 20
-2828.091058345693
 30
0.0
 11
136.0623766089852
 21
-2828.091058345693
 31
0.0
  0
INSERT
  5
327
  8
回06-記事
  6
CONTINUOUS
 62
     5
 66
     1
  2
_OPEN
 10
133.2623766089841
 20
-2828.091058345693
 30
0.0
 41
1.5
 42
1.5
 43
1.5
  0
SEQEND
  5
328
  8
回07-寸法
  6
CONTINUOUS
 62
     7
  0
INSERT
  5
329
  8
回06-記事
  6
CONTINUOUS
 62
     5
 66
     1
  2
_OPEN
 10
136.0623766089852
 20
-2828.091058345693
 30
0.0
 41
1.5
 42
1.5
 43
1.5
 50
180.0
  0
SEQEND
  5
32A
  8
回07-寸法
  6
CONTINUOUS
 62
     7
  0
INSERT
  5
32B
  8
回06-記事
  6
CONTINUOUS
 62
     5
 66
     1
  2
*X73
 10
0.0
 20
0.0
 30
0.0
  0
SEQEND
  5
8A9
  8
回07-寸法
  6
CONTINUOUS
 62
     7
  0
POINT
  5
32C
  8
DEFPOINTS
  6
CONTINUOUS
 62
     0
 10
133.2623766089841
 20
-2822.27193032177
 30
0.0
  0
POINT
  5
32D
  8
DEFPOINTS
  6
CONTINUOUS
 62
     0
 10
136.0623766089852
 20
-2822.27193032177
 30
0.0
  0
POINT
  5
32E
  8
DEFPOINTS
  6
CONTINUOUS
 62
     0
 10
136.0623766089852
 20
-2828.091058345693
 30
0.0
  0
ENDBLK
  5
32F
  8
0
 62
     7
  0
BLOCK
  8
0
  2
*D7
 70
     1
 10
0.0
 20
0.0
 30
0.0
  3
*D7
  1

  0
LINE
  5
311
  8
回06-記事
  6
CONTINUOUS
 62
     5
 10
128.1042833155229
 20
-2822.27193032177
 30
0.0
 11
128.1042833155229
 21
-2834.72444494315
 31
0.0
  0
LINE
  5
312
  8
回06-記事
  6
CONTINUOUS
 62
     5
 10
130.904283315524
 20
-2822.27193032177
 30
0.0
 11
130.904283315524
 21
-2834.72444494315
 31
0.0
  0
LINE
  5
313
  8
回06-記事
  6
CONTINUOUS
 62
     5
 10
126.6042833155229
 20
-2833.72444494315
 30
0.0
 11
125.1042833155229
 21
-2833.72444494315
 31
0.0
  0
LINE
  5
314
  8
回06-記事
  6
CONTINUOUS
 62
     5
 10
132.404283315524
 20
-2833.72444494315
 30
0.0
 11
145.5395181469366
 21
-2833.72444494315
 31
0.0
  0
LINE
  5
315
  8
回06-記事
  6
CONTINUOUS
 62
     5
 10
128.1042833155229
 20
-2833.72444494315
 30
0.0
 11
130.904283315524
 21
-2833.72444494315
 31
0.0
  0
INSERT
  5
316
  8
回06-記事
  6
CONTINUOUS
 62
     5
 66
     1
  2
_OPEN
 10
128.1042833155229
 20
-2833.72444494315
 30
0.0
 41
1.5
 42
1.5
 43
1.5
  0
SEQEND
  5
317
  8
回07-寸法
  6
CONTINUOUS
 62
     7
  0
INSERT
  5
318
  8
回06-記事
  6
CONTINUOUS
 62
     5
 66
     1
  2
_OPEN
 10
130.904283315524
 20
-2833.72444494315
 30
0.0
 41
1.5
 42
1.5
 43
1.5
 50
180.0
  0
SEQEND
  5
319
  8
回07-寸法
  6
CONTINUOUS
 62
     7
  0
INSERT
  5
31A
  8
回06-記事
  6
CONTINUOUS
 62
     5
 66
     1
  2
*X74
 10
0.0
 20
0.0
 30
0.0
  0
SEQEND
  5
8AF
  8
回07-寸法
  6
CONTINUOUS
 62
     7
  0
POINT
  5
31B
  8
DEFPOINTS
  6
CONTINUOUS
 62
     0
 10
128.1042833155229
 20
-2822.27193032177
 30
0.0
  0
POINT
  5
31C
  8
DEFPOINTS
  6
CONTINUOUS
 62
     0
 10
130.904283315524
 20
-2822.27193032177
 30
0.0
  0
POINT
  5
31D
  8
DEFPOINTS
  6
CONTINUOUS
 62
     0
 10
130.904283315524
 20
-2833.72444494315
 30
0.0
  0
ENDBLK
  5
31E
  8
0
 62
     7
  0
BLOCK
  8
0
  2
*D8
 70
     1
 10
0.0
 20
0.0
 30
0.0
  3
*D8
  1

  0
LINE
  5
38E
  8
回06-記事
  6
CONTINUOUS
 62
     5
 10
-137.2432899755817
 20
-2872.910135778107
 30
0.0
 11
-137.2432899755817
 21
-2876.889794512337
 31
0.0
  0
LINE
  5
38F
  8
回06-記事
  6
CONTINUOUS
 62
     5
 10
-138.1072899755816
 20
-2872.843808228147
 30
0.0
 11
-138.1072899755816
 21
-2876.889794512337
 31
0.0
  0
LINE
  5
390
  8
回06-記事
  6
CONTINUOUS
 62
     5
 10
-135.2432899755817
 20
-2875.889794512337
 30
0.0
 11
-133.2432899755817
 21
-2875.889794512337
 31
0.0
  0
LINE
  5
391
  8
回06-記事
  6
CONTINUOUS
 62
     5
 10
-140.1072899755815
 20
-2875.889794512337
 30
0.0
 11
-147.433916249018
 21
-2875.889794512337
 31
0.0
  0
LINE
  5
392
  8
回06-記事
  6
CONTINUOUS
 62
     5
 10
-137.2432899755817
 20
-2875.889794512337
 30
0.0
 11
-138.1072899755816
 21
-2875.889794512337
 31
0.0
  0
INSERT
  5
393
  8
回06-記事
  6
CONTINUOUS
 62
     5
 66
     1
  2
_OPEN
 10
-137.2432899755817
 20
-2875.889794512337
 30
0.0
 41
2.0
 42
2.0
 43
2.0
 50
180.0
  0
SEQEND
  5
394
  8
回07-寸法
  6
CONTINUOUS
 62
     7
  0
INSERT
  5
395
  8
回06-記事
  6
CONTINUOUS
 62
     5
 66
     1
  2
_OPEN
 10
-138.1072899755816
 20
-2875.889794512337
 30
0.0
 41
2.0
 42
2.0
 43
2.0
  0
SEQEND
  5
396
  8
回07-寸法
  6
CONTINUOUS
 62
     7
  0
TEXT
  5
397
  8
回06-記事
  6
CONTINUOUS
 62
     5
 10
-147.3194220099376
 20
-2875.389794512337
 30
0.0
 40
3.0
  1
0.3
1001
ACAD
1000
MTEXTBEGIN
1070
    73
1070
     1
1070
    44
1040
1.0
1070
    74
1070
     0
1000
MTEXTEND
  0
POINT
  5
398
  8
DEFPOINTS
  6
CONTINUOUS
 62
     0
 10
-137.2432899755817
 20
-2872.910135778107
 30
0.0
  0
POINT
  5
399
  8
DEFPOINTS
  6
CONTINUOUS
 62
     0
 10
-138.1072899755816
 20
-2872.843808228147
 30
0.0
  0
POINT
  5
39A
  8
DEFPOINTS
  6
CONTINUOUS
 62
     0
 10
-138.1072899755816
 20
-2875.889794512337
 30
0.0
  0
ENDBLK
  5
39B
  8
0
 62
     7
  0
BLOCK
  8
0
  2
*D9
 70
     1
 10
0.0
 20
0.0
 30
0.0
  3
*D9
  1

  0
LINE
  5
37D
  8
回06-記事
  6
CONTINUOUS
 62
     5
 10
-136.2352899755815
 20
-2872.910135778107
 30
0.0
 11
-136.2352899755815
 21
-2883.503579042896
 31
0.0
  0
LINE
  5
37E
  8
回06-記事
  6
CONTINUOUS
 62
     5
 10
-137.6752899755818
 20
-2872.910135778107
 30
0.0
 11
-137.6752899755818
 21
-2883.503579042896
 31
0.0
  0
LINE
  5
37F
  8
回06-記事
  6
CONTINUOUS
 62
     5
 10
-134.2352899755815
 20
-2882.503579042897
 30
0.0
 11
-132.2352899755815
 21
-2882.503579042897
 31
0.0
  0
LINE
  5
380
  8
回06-記事
  6
CONTINUOUS
 62
     5
 10
-139.6752899755818
 20
-2882.503579042897
 30
0.0
 11
-147.0019162490182
 21
-2882.503579042897
 31
0.0
  0
LINE
  5
381
  8
回06-記事
  6
CONTINUOUS
 62
     5
 10
-136.2352899755815
 20
-2882.503579042897
 30
0.0
 11
-137.6752899755818
 21
-2882.503579042897
 31
0.0
  0
INSERT
  5
382
  8
回06-記事
  6
CONTINUOUS
 62
     5
 66
     1
  2
_OPEN
 10
-136.2352899755815
 20
-2882.503579042897
 30
0.0
 41
2.0
 42
2.0
 43
2.0
 50
180.0
  0
SEQEND
  5
383
  8
回07-寸法
  6
CONTINUOUS
 62
     7
  0
INSERT
  5
384
  8
回06-記事
  6
CONTINUOUS
 62
     5
 66
     1
  2
_OPEN
 10
-137.6752899755818
 20
-2882.503579042897
 30
0.0
 41
2.0
 42
2.0
 43
2.0
  0
SEQEND
  5
385
  8
回07-寸法
  6
CONTINUOUS
 62
     7
  0
TEXT
  5
386
  8
回06-記事
  6
CONTINUOUS
 62
     5
 10
-146.8874220099378
 20
-2882.003579042896
 30
0.0
 40
3.0
  1
0.5
1001
ACAD
1000
MTEXTBEGIN
1070
    73
1070
     1
1070
    44
1040
1.0
1070
    74
1070
     0
1000
MTEXTEND
  0
POINT
  5
387
  8
DEFPOINTS
  6
CONTINUOUS
 62
     0
 10
-136.2352899755815
 20
-2872.910135778107
 30
0.0
  0
POINT
  5
388
  8
DEFPOINTS
  6
CONTINUOUS
 62
     0
 10
-137.6752899755818
 20
-2872.910135778107
 30
0.0
  0
POINT
  5
389
  8
DEFPOINTS
  6
CONTINUOUS
 62
     0
 10
-137.6752899755818
 20
-2882.503579042897
 30
0.0
  0
ENDBLK
  5
38A
  8
0
 62
     7
  0
BLOCK
  8
0
  2
*D10
 70
     1
 10
0.0
 20
0.0
 30
0.0
  3
*D10
  1

  0
LINE
  5
215
  8
回07-寸法
  6
CONTINUOUS
 62
     5
 10
-30.23954163240342
 20
-2822.072053789847
 30
0.0
 11
-30.23954163240342
 21
-2857.471968823246
 31
0.0
  0
LINE
  5
216
  8
回07-寸法
  6
CONTINUOUS
 62
     5
 10
-9.739541632402278
 20
-2822.072053789847
 30
0.0
 11
-9.739541632402278
 21
-2857.471968823246
 31
0.0
  0
LINE
  5
217
  8
回07-寸法
  6
CONTINUOUS
 62
     5
 10
-28.23954163240342
 20
-2856.471968823246
 30
0.0
 11
-11.73954163240228
 21
-2856.471968823246
 31
0.0
  0
INSERT
  5
218
  8
回07-寸法
  6
CONTINUOUS
 62
     5
 66
     1
  2
_OPEN
 10
-30.23954163240342
 20
-2856.471968823246
 30
0.0
 41
2.0
 42
2.0
 43
2.0
 50
180.0
  0
SEQEND
  5
219
  8
回07-寸法
  6
CONTINUOUS
 62
     7
  0
INSERT
  5
21A
  8
回07-寸法
  6
CONTINUOUS
 62
     5
 66
     1
  2
_OPEN
 10
-9.73954163240228
 20
-2856.471968823246
 30
0.0
 41
2.0
 42
2.0
 43
2.0
  0
SEQEND
  5
21B
  8
回07-寸法
  6
CONTINUOUS
 62
     7
  0
INSERT
  5
21C
  8
回07-寸法
  6
CONTINUOUS
 62
     5
 66
     1
  2
*X75
 10
0.0
 20
0.0
 30
0.0
  0
SEQEND
  5
8B5
  8
回07-寸法
  6
CONTINUOUS
 62
     7
  0
POINT
  5
21D
  8
DEFPOINTS
  6
CONTINUOUS
 62
     0
 10
-30.23954163240342
 20
-2822.072053789847
 30
0.0
  0
POINT
  5
21E
  8
DEFPOINTS
  6
CONTINUOUS
 62
     0
 10
-9.739541632402278
 20
-2822.072053789847
 30
0.0
  0
POINT
  5
21F
  8
DEFPOINTS
  6
CONTINUOUS
 62
     0
 10
-9.73954163240228
 20
-2856.471968823246
 30
0.0
  0
ENDBLK
  5
220
  8
0
 62
     5
  0
BLOCK
  8
0
  2
*D11
 70
     1
 10
0.0
 20
0.0
 30
0.0
  3
*D11
  1

  0
LINE
  5
206
  8
回07-寸法
  6
CONTINUOUS
 62
     5
 10
-97.23021859729989
 20
-2762.272053789847
 30
0.0
 11
-97.23021859729989
 21
-2841.800652997692
 31
0.0
  0
LINE
  5
207
  8
回07-寸法
  6
CONTINUOUS
 62
     5
 10
-53.7395246879014
 20
-2822.072053789847
 30
0.0
 11
-53.7395246879014
 21
-2841.800652997692
 31
0.0
  0
LINE
  5
208
  8
回07-寸法
  6
CONTINUOUS
 62
     5
 10
-95.73021859729989
 20
-2840.800652997693
 30
0.0
 11
-55.23952468790139
 21
-2840.800652997693
 31
0.0
  0
INSERT
  5
209
  8
回07-寸法
  6
CONTINUOUS
 62
     5
 66
     1
  2
_OPEN
 10
-97.23021859729989
 20
-2840.800652997693
 30
0.0
 41
1.5
 42
1.5
 43
1.5
 50
180.0
  0
SEQEND
  5
20A
  8
回07-寸法
  6
CONTINUOUS
 62
     7
  0
INSERT
  5
20B
  8
回07-寸法
  6
CONTINUOUS
 62
     5
 66
     1
  2
_OPEN
 10
-53.7395246879014
 20
-2840.800652997693
 30
0.0
 41
1.5
 42
1.5
 43
1.5
  0
SEQEND
  5
20C
  8
回07-寸法
  6
CONTINUOUS
 62
     7
  0
TEXT
  5
20D
  8
回07-寸法
  6
CONTINUOUS
 62
     5
 10
-83.73503664260065
 20
-2840.050647997692
 30
0.0
 40
5.000099999999999
  1
(43.5)
1001
ACAD
1000
MTEXTBEGIN
1070
    73
1070
     1
1070
    44
1040
1.0
1070
    74
1070
     0
1000
MTEXTEND
  0
POINT
  5
20E
  8
DEFPOINTS
  6
CONTINUOUS
 62
     0
 10
-97.23021859729989
 20
-2762.272053789847
 30
0.0
  0
POINT
  5
20F
  8
DEFPOINTS
  6
CONTINUOUS
 62
     0
 10
-53.7395246879014
 20
-2822.072053789847
 30
0.0
  0
POINT
  5
210
  8
DEFPOINTS
  6
CONTINUOUS
 62
     0
 10
-53.7395246879014
 20
-2840.800652997693
 30
0.0
  0
ENDBLK
  5
211
  8
0
 62
     5
  0
BLOCK
  8
0
  2
*D12
 70
     1
 10
0.0
 20
0.0
 30
0.0
  3
*D12
  1

  0
LINE
  5
1F7
  8
回07-寸法
  6
CONTINUOUS
 62
     5
 10
-30.23954163240342
 20
-2822.072053789847
 30
0.0
 11
-30.23954163240342
 21
-2857.471968823246
 31
0.0
  0
LINE
  5
1F8
  8
回07-寸法
  6
CONTINUOUS
 62
     5
 10
-97.23021859729989
 20
-2762.272053789847
 30
0.0
 11
-97.23021859729989
 21
-2857.471968823246
 31
0.0
  0
LINE
  5
1F9
  8
回07-寸法
  6
CONTINUOUS
 62
     5
 10
-31.73954163240342
 20
-2856.471968823246
 30
0.0
 11
-95.73021859729989
 21
-2856.471968823246
 31
0.0
  0
INSERT
  5
1FA
  8
回07-寸法
  6
CONTINUOUS
 62
     5
 66
     1
  2
_OPEN
 10
-30.23954163240342
 20
-2856.471968823246
 30
0.0
 41
1.5
 42
1.5
 43
1.5
  0
SEQEND
  5
1FB
  8
回07-寸法
  6
CONTINUOUS
 62
     7
  0
INSERT
  5
1FC
  8
回07-寸法
  6
CONTINUOUS
 62
     5
 66
     1
  2
_OPEN
 10
-97.23021859729989
 20
-2856.471968823246
 30
0.0
 41
1.5
 42
1.5
 43
1.5
 50
180.0
  0
SEQEND
  5
1FD
  8
回07-寸法
  6
CONTINUOUS
 62
     7
  0
TEXT
  5
1FE
  8
回07-寸法
  6
CONTINUOUS
 62
     5
 10
-69.23499011485166
 20
-2855.721963823246
 30
0.0
 40
5.000099999999999
  1
(67)
1001
ACAD
1000
MTEXTBEGIN
1070
    73
1070
     1
1070
    44
1040
1.0
1070
    74
1070
     0
1000
MTEXTEND
  0
POINT
  5
1FF
  8
DEFPOINTS
  6
CONTINUOUS
 62
     0
 10
-30.23954163240342
 20
-2822.072053789847
 30
0.0
  0
POINT
  5
200
  8
DEFPOINTS
  6
CONTINUOUS
 62
     0
 10
-97.23021859729989
 20
-2762.272053789847
 30
0.0
  0
POINT
  5
201
  8
DEFPOINTS
  6
CONTINUOUS
 62
     0
 10
-97.23021859729989
 20
-2856.471968823246
 30
0.0
  0
ENDBLK
  5
202
  8
0
 62
     5
  0
BLOCK
  8
0
  2
*D13
 70
     1
 10
0.0
 20
0.0
 30
0.0
  3
*D13
  1

  0
LINE
  5
1E8
  8
回07-寸法
  6
CONTINUOUS
 62
     5
 10
-53.7395246879014
 20
-2822.072053789847
 30
0.0
 11
-53.7395246879014
 21
-2841.800652997692
 31
0.0
  0
LINE
  5
1E9
  8
回07-寸法
  6
CONTINUOUS
 62
     5
 10
-40.23952468790002
 20
-2822.072053789847
 30
0.0
 11
-40.23952468790002
 21
-2841.800652997692
 31
0.0
  0
LINE
  5
1EA
  8
回07-寸法
  6
CONTINUOUS
 62
     5
 10
-52.23952468790139
 20
-2840.800652997693
 30
0.0
 11
-41.73952468790003
 21
-2840.800652997693
 31
0.0
  0
INSERT
  5
1EB
  8
回07-寸法
  6
CONTINUOUS
 62
     5
 66
     1
  2
_OPEN
 10
-53.7395246879014
 20
-2840.800652997693
 30
0.0
 41
1.5
 42
1.5
 43
1.5
 50
180.0
  0
SEQEND
  5
1EC
  8
回07-寸法
  6
CONTINUOUS
 62
     7
  0
INSERT
  5
1ED
  8
回07-寸法
  6
CONTINUOUS
 62
     5
 66
     1
  2
_OPEN
 10
-40.23952468790002
 20
-2840.800652997693
 30
0.0
 41
1.5
 42
1.5
 43
1.5
  0
SEQEND
  5
1EE
  8
回07-寸法
  6
CONTINUOUS
 62
     7
  0
INSERT
  5
1EF
  8
回07-寸法
  6
CONTINUOUS
 62
     5
 66
     1
  2
*X76
 10
0.0
 20
0.0
 30
0.0
  0
SEQEND
  5
8BB
  8
回07-寸法
  6
CONTINUOUS
 62
     7
  0
POINT
  5
1F0
  8
DEFPOINTS
  6
CONTINUOUS
 62
     0
 10
-53.7395246879014
 20
-2822.072053789847
 30
0.0
  0
POINT
  5
1F1
  8
DEFPOINTS
  6
CONTINUOUS
 62
     0
 10
-40.23952468790002
 20
-2822.072053789847
 30
0.0
  0
POINT
  5
1F2
  8
DEFPOINTS
  6
CONTINUOUS
 62
     0
 10
-40.23952468790002
 20
-2840.800652997693
 30
0.0
  0
ENDBLK
  5
1F3
  8
0
 62
     5
  0
BLOCK
  8
0
  2
*D14
 70
     1
 10
0.0
 20
0.0
 30
0.0
  3
*D14
  1

  0
LINE
  5
2D1
  8
回07-寸法
  6
CONTINUOUS
 62
     5
 10
-53.53952468790115
 20
-2822.272053789847
 30
0.0
 11
-67.47831357692861
 21
-2822.272053789847
 31
0.0
  0
LINE
  5
2D2
  8
回07-寸法
  6
CONTINUOUS
 62
     5
 10
-53.73952468790097
 20
-2762.272053789847
 30
0.0
 11
-67.47831357692863
 21
-2762.272053789847
 31
0.0
  0
LINE
  5
2D3
  8
回07-寸法
  6
CONTINUOUS
 62
     5
 10
-66.47831357692862
 20
-2820.272053789847
 30
0.0
 11
-66.47831357692862
 21
-2764.272053789847
 31
0.0
  0
INSERT
  5
2D4
  8
回07-寸法
  6
CONTINUOUS
 62
     5
 66
     1
  2
_OPEN
 10
-66.47831357692862
 20
-2822.272053789847
 30
0.0
 41
2.0
 42
2.0
 43
2.0
 50
270.0
  0
SEQEND
  5
2D5
  8
回07-寸法
  6
CONTINUOUS
 62
     7
  0
INSERT
  5
2D6
  8
回07-寸法
  6
CONTINUOUS
 62
     5
 66
     1
  2
_OPEN
 10
-66.47831357692862
 20
-2762.272053789847
 30
0.0
 41
2.0
 42
2.0
 43
2.0
 50
90.0
  0
SEQEND
  5
2D7
  8
回07-寸法
  6
CONTINUOUS
 62
     7
  0
INSERT
  5
2D8
  8
回07-寸法
  6
CONTINUOUS
 62
     5
 66
     1
  2
*X77
 10
0.0
 20
0.0
 30
0.0
  0
SEQEND
  5
8C1
  8
回07-寸法
  6
CONTINUOUS
 62
     7
  0
POINT
  5
2D9
  8
DEFPOINTS
  6
CONTINUOUS
 62
     0
 10
-53.53952468790115
 20
-2822.272053789847
 30
0.0
  0
POINT
  5
2DA
  8
DEFPOINTS
  6
CONTINUOUS
 62
     0
 10
-53.73952468790097
 20
-2762.272053789847
 30
0.0
  0
POINT
  5
2DB
  8
DEFPOINTS
  6
CONTINUOUS
 62
     0
 10
-66.47831357692862
 20
-2762.272053789847
 30
0.0
  0
ENDBLK
  5
2DC
  8
0
 62
     5
  0
BLOCK
  8
0
  2
*D15
 70
     1
 10
0.0
 20
0.0
 30
0.0
  3
*D15
  1

  0
LINE
  5
2C2
  8
回07-寸法
  6
CONTINUOUS
 62
     5
 10
-9.9395416324021
 20
-2822.272053789847
 30
0.0
 11
9.530279793552725
 21
-2822.272053789847
 31
0.0
  0
LINE
  5
2C3
  8
回07-寸法
  6
CONTINUOUS
 62
     5
 10
-9.739541632403192
 20
-2762.272053789849
 30
0.0
 11
9.530279793552711
 21
-2762.272053789849
 31
0.0
  0
LINE
  5
2C4
  8
回07-寸法
  6
CONTINUOUS
 62
     5
 10
8.530279793552725
 20
-2820.272053789847
 30
0.0
 11
8.530279793552725
 21
-2764.272053789849
 31
0.0
  0
INSERT
  5
2C5
  8
回07-寸法
  6
CONTINUOUS
 62
     5
 66
     1
  2
_OPEN
 10
8.530279793552725
 20
-2822.272053789847
 30
0.0
 41
2.0
 42
2.0
 43
2.0
 50
270.0
  0
SEQEND
  5
2C6
  8
回07-寸法
  6
CONTINUOUS
 62
     7
  0
INSERT
  5
2C7
  8
回07-寸法
  6
CONTINUOUS
 62
     5
 66
     1
  2
_OPEN
 10
8.530279793552711
 20
-2762.272053789849
 30
0.0
 41
2.0
 42
2.0
 43
2.0
 50
90.0
  0
SEQEND
  5
2C8
  8
回07-寸法
  6
CONTINUOUS
 62
     7
  0
INSERT
  5
2C9
  8
回07-寸法
  6
CONTINUOUS
 62
     5
 66
     1
  2
*X78
 10
0.0
 20
0.0
 30
0.0
  0
SEQEND
  5
8C7
  8
回07-寸法
  6
CONTINUOUS
 62
     7
  0
POINT
  5
2CA
  8
DEFPOINTS
  6
CONTINUOUS
 62
     0
 10
-9.9395416324021
 20
-2822.272053789847
 30
0.0
  0
POINT
  5
2CB
  8
DEFPOINTS
  6
CONTINUOUS
 62
     0
 10
-9.739541632403192
 20
-2762.272053789849
 30
0.0
  0
POINT
  5
2CC
  8
DEFPOINTS
  6
CONTINUOUS
 62
     0
 10
8.530279793552711
 20
-2762.272053789849
 30
0.0
  0
ENDBLK
  5
2CD
  8
0
 62
     5
  0
BLOCK
  8
0
  2
*D16
 70
     1
 10
0.0
 20
0.0
 30
0.0
  3
*D16
  1

  0
LINE
  5
2B1
  8
回07-寸法
  6
CONTINUOUS
 62
     5
 10
-88.98021859729988
 20
-2658.839402071841
 30
0.0
 11
-88.98021859729988
 21
-2627.549041917336
 31
0.0
  0
LINE
  5
2B2
  8
回07-寸法
  6
CONTINUOUS
 62
     5
 10
63.41978140270043
 20
-2658.839402071843
 30
0.0
 11
63.41978140270043
 21
-2627.549041917336
 31
0.0
  0
LINE
  5
2B3
  8
回07-寸法
  6
CONTINUOUS
 62
     5
 10
-87.48021859729988
 20
-2628.549041917336
 30
0.0
 11
61.91978140270044
 21
-2628.549041917336
 31
0.0
  0
INSERT
  5
2B4
  8
回07-寸法
  6
CONTINUOUS
 62
     5
 66
     1
  2
_OPEN
 10
-88.98021859729988
 20
-2628.549041917336
 30
0.0
 41
1.5
 42
1.5
 43
1.5
 50
180.0
  0
SEQEND
  5
2B5
  8
回07-寸法
  6
CONTINUOUS
 62
     7
  0
INSERT
  5
2B6
  8
回07-寸法
  6
CONTINUOUS
 62
     5
 66
     1
  2
_OPEN
 10
63.41978140270043
 20
-2628.549041917336
 30
0.0
 41
1.5
 42
1.5
 43
1.5
  0
SEQEND
  5
2B7
  8
回07-寸法
  6
CONTINUOUS
 62
     7
  0
INSERT
  5
2B8
  8
回07-寸法
  6
CONTINUOUS
 62
     5
 66
     1
  2
*X79
 10
0.0
 20
0.0
 30
0.0
  0
SEQEND
  5
8CD
  8
回07-寸法
  6
CONTINUOUS
 62
     7
  0
POINT
  5
2B9
  8
DEFPOINTS
  6
CONTINUOUS
 62
     0
 10
-88.98021859729988
 20
-2658.839402071841
 30
0.0
  0
POINT
  5
2BA
  8
DEFPOINTS
  6
CONTINUOUS
 62
     0
 10
63.41978140270043
 20
-2658.839402071843
 30
0.0
  0
POINT
  5
2BB
  8
DEFPOINTS
  6
CONTINUOUS
 62
     0
 10
63.41978140270043
 20
-2628.549041917336
 30
0.0
  0
ENDBLK
  5
2BC
  8
0
 62
     5
  0
BLOCK
  8
0
  2
*D17
 70
     1
 10
0.0
 20
0.0
 30
0.0
  3
*D17
  1

  0
LINE
  5
2A2
  8
回07-寸法
  6
CONTINUOUS
 62
     5
 10
-97.23021859729989
 20
-2650.87193032177
 30
0.0
 11
-97.23021859729989
 21
-2621.646167433424
 31
0.0
  0
LINE
  5
2A3
  8
回07-寸法
  6
CONTINUOUS
 62
     5
 10
71.56978140270007
 20
-2650.87193032177
 30
0.0
 11
71.56978140270007
 21
-2621.646167433424
 31
0.0
  0
LINE
  5
2A4
  8
回07-寸法
  6
CONTINUOUS
 62
     5
 10
-95.73021859729989
 20
-2622.646167433424
 30
0.0
 11
70.06978140270007
 21
-2622.646167433424
 31
0.0
  0
INSERT
  5
2A5
  8
回07-寸法
  6
CONTINUOUS
 62
     5
 66
     1
  2
_OPEN
 10
-97.23021859729989
 20
-2622.646167433424
 30
0.0
 41
1.5
 42
1.5
 43
1.5
 50
180.0
  0
SEQEND
  5
2A6
  8
回07-寸法
  6
CONTINUOUS
 62
     7
  0
INSERT
  5
2A7
  8
回07-寸法
  6
CONTINUOUS
 62
     5
 66
     1
  2
_OPEN
 10
71.56978140270007
 20
-2622.646167433424
 30
0.0
 41
1.5
 42
1.5
 43
1.5
  0
SEQEND
  5
2A8
  8
回07-寸法
  6
CONTINUOUS
 62
     7
  0
INSERT
  5
2A9
  8
回07-寸法
  6
CONTINUOUS
 62
     5
 66
     1
  2
*X80
 10
0.0
 20
0.0
 30
0.0
  0
SEQEND
  5
8D4
  8
回07-寸法
  6
CONTINUOUS
 62
     7
  0
POINT
  5
2AA
  8
DEFPOINTS
  6
CONTINUOUS
 62
     0
 10
-97.23021859729989
 20
-2650.87193032177
 30
0.0
  0
POINT
  5
2AB
  8
DEFPOINTS
  6
CONTINUOUS
 62
     0
 10
71.56978140270007
 20
-2650.87193032177
 30
0.0
  0
POINT
  5
2AC
  8
DEFPOINTS
  6
CONTINUOUS
 62
     0
 10
71.56978140270007
 20
-2622.646167433424
 30
0.0
  0
ENDBLK
  5
2AD
  8
0
 62
     5
  0
BLOCK
  8
0
  2
*D18
 70
     1
 10
0.0
 20
0.0
 30
0.0
  3
*D18
  1

  0
LINE
  5
293
  8
回07-寸法
  6
CONTINUOUS
 62
     5
 10
81.21978140270016
 20
-2642.059402071842
 30
0.0
 11
81.21978140270016
 21
-2616.170878190808
 31
0.0
  0
LINE
  5
294
  8
回07-寸法
  6
CONTINUOUS
 62
     5
 10
-106.7802185972998
 20
-2642.059402071842
 30
0.0
 11
-106.7802185972998
 21
-2616.170878190808
 31
0.0
  0
LINE
  5
295
  8
回07-寸法
  6
CONTINUOUS
 62
     5
 10
79.71978140270016
 20
-2617.170878190808
 30
0.0
 11
-105.2802185972998
 21
-2617.170878190808
 31
0.0
  0
INSERT
  5
296
  8
回07-寸法
  6
CONTINUOUS
 62
     5
 66
     1
  2
_OPEN
 10
81.21978140270016
 20
-2617.170878190808
 30
0.0
 41
1.5
 42
1.5
 43
1.5
  0
SEQEND
  5
297
  8
回07-寸法
  6
CONTINUOUS
 62
     7
  0
INSERT
  5
298
  8
回07-寸法
  6
CONTINUOUS
 62
     5
 66
     1
  2
_OPEN
 10
-106.7802185972998
 20
-2617.170878190808
 30
0.0
 41
1.5
 42
1.5
 43
1.5
 50
180.0
  0
SEQEND
  5
299
  8
回07-寸法
  6
CONTINUOUS
 62
     7
  0
INSERT
  5
29A
  8
回07-寸法
  6
CONTINUOUS
 62
     5
 66
     1
  2
*X81
 10
0.0
 20
0.0
 30
0.0
  0
SEQEND
  5
8DB
  8
回07-寸法
  6
CONTINUOUS
 62
     7
  0
POINT
  5
29B
  8
DEFPOINTS
  6
CONTINUOUS
 62
     0
 10
81.21978140270016
 20
-2642.059402071842
 30
0.0
  0
POINT
  5
29C
  8
DEFPOINTS
  6
CONTINUOUS
 62
     0
 10
-106.7802185972998
 20
-2642.059402071842
 30
0.0
  0
POINT
  5
29D
  8
DEFPOINTS
  6
CONTINUOUS
 62
     0
 10
-106.7802185972998
 20
-2617.170878190808
 30
0.0
  0
ENDBLK
  5
29E
  8
0
 62
     5
  0
BLOCK
  8
0
  2
*D19
 70
     1
 10
0.0
 20
0.0
 30
0.0
  3
*D19
  1

  0
LINE
  5
284
  8
回07-寸法
  6
CONTINUOUS
 62
     5
 10
-88.98021859729992
 20
-2658.839402071843
 30
0.0
 11
-117.3876692342439
 21
-2658.839402071843
 31
0.0
  0
LINE
  5
285
  8
回07-寸法
  6
CONTINUOUS
 62
     5
 10
-88.98021859729992
 20
-2750.279402071842
 30
0.0
 11
-117.3876692342439
 21
-2750.279402071842
 31
0.0
  0
LINE
  5
286
  8
回07-寸法
  6
CONTINUOUS
 62
     5
 10
-116.3876692342439
 20
-2660.339402071843
 30
0.0
 11
-116.3876692342439
 21
-2748.779402071842
 31
0.0
  0
INSERT
  5
287
  8
回07-寸法
  6
CONTINUOUS
 62
     5
 66
     1
  2
_OPEN
 10
-116.3876692342439
 20
-2658.839402071843
 30
0.0
 41
1.5
 42
1.5
 43
1.5
 50
90.0
  0
SEQEND
  5
288
  8
回07-寸法
  6
CONTINUOUS
 62
     7
  0
INSERT
  5
289
  8
回07-寸法
  6
CONTINUOUS
 62
     5
 66
     1
  2
_OPEN
 10
-116.3876692342439
 20
-2750.279402071842
 30
0.0
 41
1.5
 42
1.5
 43
1.5
 50
270.0
  0
SEQEND
  5
28A
  8
回07-寸法
  6
CONTINUOUS
 62
     7
  0
INSERT
  5
28B
  8
回07-寸法
  6
CONTINUOUS
 62
     5
 66
     1
  2
*X82
 10
0.0
 20
0.0
 30
0.0
  0
SEQEND
  5
8E1
  8
回07-寸法
  6
CONTINUOUS
 62
     7
  0
POINT
  5
28C
  8
DEFPOINTS
  6
CONTINUOUS
 62
     0
 10
-88.98021859729992
 20
-2658.839402071843
 30
0.0
  0
POINT
  5
28D
  8
DEFPOINTS
  6
CONTINUOUS
 62
     0
 10
-88.98021859729992
 20
-2750.279402071842
 30
0.0
  0
POINT
  5
28E
  8
DEFPOINTS
  6
CONTINUOUS
 62
     0
 10
-116.3876692342439
 20
-2750.279402071842
 30
0.0
  0
ENDBLK
  5
28F
  8
0
 62
     5
  0
BLOCK
  8
0
  2
*D20
 70
     1
 10
0.0
 20
0.0
 30
0.0
  3
*D20
  1

  0
LINE
  5
275
  8
回07-寸法
  6
CONTINUOUS
 62
     5
 10
-97.23021859729994
 20
-2762.271930321771
 30
0.0
 11
-122.657506345904
 21
-2762.271930321771
 31
0.0
  0
LINE
  5
276
  8
回07-寸法
  6
CONTINUOUS
 62
     5
 10
-97.23021859729994
 20
-2650.87193032177
 30
0.0
 11
-122.657506345904
 21
-2650.87193032177
 31
0.0
  0
LINE
  5
277
  8
回07-寸法
  6
CONTINUOUS
 62
     5
 10
-121.657506345904
 20
-2760.771930321771
 30
0.0
 11
-121.657506345904
 21
-2652.37193032177
 31
0.0
  0
INSERT
  5
278
  8
回07-寸法
  6
CONTINUOUS
 62
     5
 66
     1
  2
_OPEN
 10
-121.657506345904
 20
-2762.271930321771
 30
0.0
 41
1.5
 42
1.5
 43
1.5
 50
270.0
  0
SEQEND
  5
279
  8
回07-寸法
  6
CONTINUOUS
 62
     7
  0
INSERT
  5
27A
  8
回07-寸法
  6
CONTINUOUS
 62
     5
 66
     1
  2
_OPEN
 10
-121.657506345904
 20
-2650.87193032177
 30
0.0
 41
1.5
 42
1.5
 43
1.5
 50
90.0
  0
SEQEND
  5
27B
  8
回07-寸法
  6
CONTINUOUS
 62
     7
  0
INSERT
  5
27C
  8
回07-寸法
  6
CONTINUOUS
 62
     5
 66
     1
  2
*X83
 10
0.0
 20
0.0
 30
0.0
  0
SEQEND
  5
8E8
  8
回07-寸法
  6
CONTINUOUS
 62
     7
  0
POINT
  5
27D
  8
DEFPOINTS
  6
CONTINUOUS
 62
     0
 10
-97.23021859729994
 20
-2762.271930321771
 30
0.0
  0
POINT
  5
27E
  8
DEFPOINTS
  6
CONTINUOUS
 62
     0
 10
-97.23021859729994
 20
-2650.87193032177
 30
0.0
  0
POINT
  5
27F
  8
DEFPOINTS
  6
CONTINUOUS
 62
     0
 10
-121.657506345904
 20
-2650.87193032177
 30
0.0
  0
ENDBLK
  5
280
  8
0
 62
     5
  0
BLOCK
  8
0
  2
*D21
 70
     1
 10
0.0
 20
0.0
 30
0.0
  3
*D21
  1

  0
LINE
  5
266
  8
回07-寸法
  6
CONTINUOUS
 62
     5
 10
-102.7802185972996
 20
-2638.059402071843
 30
0.0
 11
-128.5302065149275
 21
-2638.059402071843
 31
0.0
  0
LINE
  5
267
  8
回07-寸法
  6
CONTINUOUS
 62
     5
 10
-102.7802185972999
 20
-2771.059402071843
 30
0.0
 11
-128.5302065149275
 21
-2771.059402071843
 31
0.0
  0
LINE
  5
268
  8
回07-寸法
  6
CONTINUOUS
 62
     5
 10
-127.5302065149275
 20
-2639.559402071843
 30
0.0
 11
-127.5302065149275
 21
-2769.559402071843
 31
0.0
  0
INSERT
  5
269
  8
回07-寸法
  6
CONTINUOUS
 62
     5
 66
     1
  2
_OPEN
 10
-127.5302065149275
 20
-2638.059402071843
 30
0.0
 41
1.5
 42
1.5
 43
1.5
 50
90.0
  0
SEQEND
  5
26A
  8
回07-寸法
  6
CONTINUOUS
 62
     7
  0
INSERT
  5
26B
  8
回07-寸法
  6
CONTINUOUS
 62
     5
 66
     1
  2
_OPEN
 10
-127.5302065149275
 20
-2771.059402071843
 30
0.0
 41
1.5
 42
1.5
 43
1.5
 50
270.0
  0
SEQEND
  5
26C
  8
回07-寸法
  6
CONTINUOUS
 62
     7
  0
INSERT
  5
26D
  8
回07-寸法
  6
CONTINUOUS
 62
     5
 66
     1
  2
*X84
 10
0.0
 20
0.0
 30
0.0
  0
SEQEND
  5
8EF
  8
回07-寸法
  6
CONTINUOUS
 62
     7
  0
POINT
  5
26E
  8
DEFPOINTS
  6
CONTINUOUS
 62
     0
 10
-102.7802185972996
 20
-2638.059402071843
 30
0.0
  0
POINT
  5
26F
  8
DEFPOINTS
  6
CONTINUOUS
 62
     0
 10
-102.7802185972999
 20
-2771.059402071843
 30
0.0
  0
POINT
  5
270
  8
DEFPOINTS
  6
CONTINUOUS
 62
     0
 10
-127.5302065149275
 20
-2771.059402071843
 30
0.0
  0
ENDBLK
  5
271
  8
0
 62
     5
  0
BLOCK
  8
0
  2
*D22
 70
     1
 10
0.0
 20
0.0
 30
0.0
  3
*D22
  1

  0
LINE
  5
257
  8
回07-寸法
  6
CONTINUOUS
 62
     5
 10
-88.98021859729988
 20
-2658.839402071843
 30
0.0
 11
-88.98021859729988
 21
-2627.549041917336
 31
0.0
  0
LINE
  5
258
  8
回07-寸法
  6
CONTINUOUS
 62
     5
 10
-97.23021859729989
 20
-2650.871930321772
 30
0.0
 11
-97.23021859729989
 21
-2627.549041917336
 31
0.0
  0
LINE
  5
259
  8
回07-寸法
  6
CONTINUOUS
 62
     5
 10
-90.48021859729988
 20
-2628.549041917336
 30
0.0
 11
-95.73021859729989
 21
-2628.549041917336
 31
0.0
  0
INSERT
  5
25A
  8
回07-寸法
  6
CONTINUOUS
 62
     5
 66
     1
  2
_OPEN
 10
-88.98021859729988
 20
-2628.549041917336
 30
0.0
 41
1.5
 42
1.5
 43
1.5
  0
SEQEND
  5
25B
  8
回07-寸法
  6
CONTINUOUS
 62
     7
  0
INSERT
  5
25C
  8
回07-寸法
  6
CONTINUOUS
 62
     5
 66
     1
  2
_OPEN
 10
-97.23021859729989
 20
-2628.549041917336
 30
0.0
 41
1.5
 42
1.5
 43
1.5
 50
180.0
  0
SEQEND
  5
25D
  8
回07-寸法
  6
CONTINUOUS
 62
     7
  0
TEXT
  5
25E
  8
回07-寸法
  6
CONTINUOUS
 62
     5
 10
-95.65521859729988
 20
-2628.049041917336
 30
0.0
 40
3.0
  1
8.3
1001
ACAD
1000
MTEXTBEGIN
1070
    73
1070
     1
1070
    44
1040
1.0
1070
    74
1070
     0
1000
MTEXTEND
  0
POINT
  5
25F
  8
DEFPOINTS
  6
CONTINUOUS
 62
     0
 10
-88.98021859729988
 20
-2658.839402071843
 30
0.0
  0
POINT
  5
260
  8
DEFPOINTS
  6
CONTINUOUS
 62
     0
 10
-97.23021859729989
 20
-2650.871930321772
 30
0.0
  0
POINT
  5
261
  8
DEFPOINTS
  6
CONTINUOUS
 62
     0
 10
-97.23021859729989
 20
-2628.549041917336
 30
0.0
  0
ENDBLK
  5
262
  8
0
 62
     5
  0
BLOCK
  8
0
  2
*D23
 70
     1
 10
0.0
 20
0.0
 30
0.0
  3
*D23
  1

  0
LINE
  5
246
  8
回07-寸法
  6
CONTINUOUS
 62
     5
 10
-97.23021859729989
 20
-2650.87193032177
 30
0.0
 11
-97.23021859729989
 21
-2621.646167433424
 31
0.0
  0
LINE
  5
247
  8
回07-寸法
  6
CONTINUOUS
 62
     5
 10
-106.7802185972998
 20
-2642.059402071842
 30
0.0
 11
-106.7802185972998
 21
-2621.646167433424
 31
0.0
  0
LINE
  5
248
  8
回07-寸法
  6
CONTINUOUS
 62
     5
 10
-95.73021859729989
 20
-2622.646167433424
 30
0.0
 11
-94.23021859729988
 21
-2622.646167433424
 31
0.0
  0
LINE
  5
249
  8
回07-寸法
  6
CONTINUOUS
 62
     5
 10
-108.2802185972998
 20
-2622.646167433424
 30
0.0
 11
-120.3836558943582
 21
-2622.646167433424
 31
0.0
  0
LINE
  5
24A
  8
回07-寸法
  6
CONTINUOUS
 62
     5
 10
-97.23021859729989
 20
-2622.646167433424
 30
0.0
 11
-106.7802185972998
 21
-2622.646167433424
 31
0.0
  0
INSERT
  5
24B
  8
回07-寸法
  6
CONTINUOUS
 62
     5
 66
     1
  2
_OPEN
 10
-97.23021859729989
 20
-2622.646167433424
 30
0.0
 41
1.5
 42
1.5
 43
1.5
 50
180.0
  0
SEQEND
  5
24C
  8
回07-寸法
  6
CONTINUOUS
 62
     7
  0
INSERT
  5
24D
  8
回07-寸法
  6
CONTINUOUS
 62
     5
 66
     1
  2
_OPEN
 10
-106.7802185972998
 20
-2622.646167433424
 30
0.0
 41
1.5
 42
1.5
 43
1.5
  0
SEQEND
  5
24E
  8
回07-寸法
  6
CONTINUOUS
 62
     7
  0
INSERT
  5
24F
  8
回07-寸法
  6
CONTINUOUS
 62
     5
 66
     1
  2
*X85
 10
0.0
 20
0.0
 30
0.0
  0
SEQEND
  5
8F5
  8
回07-寸法
  6
CONTINUOUS
 62
     7
  0
POINT
  5
250
  8
DEFPOINTS
  6
CONTINUOUS
 62
     0
 10
-97.23021859729989
 20
-2650.87193032177
 30
0.0
  0
POINT
  5
251
  8
DEFPOINTS
  6
CONTINUOUS
 62
     0
 10
-106.7802185972998
 20
-2642.059402071842
 30
0.0
  0
POINT
  5
252
  8
DEFPOINTS
  6
CONTINUOUS
 62
     0
 10
-106.7802185972998
 20
-2622.646167433424
 30
0.0
  0
ENDBLK
  5
253
  8
0
 62
     5
  0
BLOCK
  8
0
  2
*D24
 70
     1
 10
0.0
 20
0.0
 30
0.0
  3
*D24
  1

  0
LINE
  5
237
  8
回07-寸法
  6
CONTINUOUS
 62
     5
 10
-88.98021859729992
 20
-2750.279402071842
 30
0.0
 11
-117.3876692342439
 21
-2750.279402071842
 31
0.0
  0
LINE
  5
238
  8
回07-寸法
  6
CONTINUOUS
 62
     5
 10
-97.23021859729994
 20
-2762.271930321771
 30
0.0
 11
-117.3876692342439
 21
-2762.271930321771
 31
0.0
  0
LINE
  5
239
  8
回07-寸法
  6
CONTINUOUS
 62
     5
 10
-116.3876692342439
 20
-2751.779402071842
 30
0.0
 11
-116.3876692342439
 21
-2760.771930321771
 31
0.0
  0
INSERT
  5
23A
  8
回07-寸法
  6
CONTINUOUS
 62
     5
 66
     1
  2
_OPEN
 10
-116.3876692342439
 20
-2750.279402071842
 30
0.0
 41
1.5
 42
1.5
 43
1.5
 50
90.0
  0
SEQEND
  5
23B
  8
回07-寸法
  6
CONTINUOUS
 62
     7
  0
INSERT
  5
23C
  8
回07-寸法
  6
CONTINUOUS
 62
     5
 66
     1
  2
_OPEN
 10
-116.3876692342439
 20
-2762.271930321771
 30
0.0
 41
1.5
 42
1.5
 43
1.5
 50
270.0
  0
SEQEND
  5
23D
  8
回07-寸法
  6
CONTINUOUS
 62
     7
  0
TEXT
  5
23E
  8
回07-寸法
  6
CONTINUOUS
 62
     5
 10
-116.8879645098354
 20
-2758.075997882146
 30
0.0
 40
3.0
  1
12
 50
90.0
1001
ACAD
1000
MTEXTBEGIN
1070
    73
1070
     1
1070
    44
1040
1.0
1070
    74
1070
     0
1000
MTEXTEND
  0
POINT
  5
23F
  8
DEFPOINTS
  6
CONTINUOUS
 62
     0
 10
-88.98021859729992
 20
-2750.279402071842
 30
0.0
  0
POINT
  5
240
  8
DEFPOINTS
  6
CONTINUOUS
 62
     0
 10
-97.23021859729994
 20
-2762.271930321771
 30
0.0
  0
POINT
  5
241
  8
DEFPOINTS
  6
CONTINUOUS
 62
     0
 10
-116.3876692342439
 20
-2762.271930321771
 30
0.0
  0
ENDBLK
  5
242
  8
0
 62
     5
  0
BLOCK
  8
0
  2
*D25
 70
     1
 10
0.0
 20
0.0
 30
0.0
  3
*D25
  1

  0
LINE
  5
226
  8
回07-寸法
  6
CONTINUOUS
 62
     5
 10
-97.23021859729994
 20
-2762.271930321771
 30
0.0
 11
-122.6575063459038
 21
-2762.271930321771
 31
0.0
  0
LINE
  5
227
  8
回07-寸法
  6
CONTINUOUS
 62
     5
 10
-102.7802185972999
 20
-2771.059402071843
 30
0.0
 11
-122.6575063459038
 21
-2771.059402071843
 31
0.0
  0
LINE
  5
228
  8
回07-寸法
  6
CONTINUOUS
 62
     5
 10
-121.6575063459038
 20
-2760.771930321771
 30
0.0
 11
-121.6575063459038
 21
-2759.271930321771
 31
0.0
  0
LINE
  5
229
  8
回07-寸法
  6
CONTINUOUS
 62
     5
 10
-121.6575063459038
 20
-2772.559402071843
 30
0.0
 11
-121.6575063459038
 21
-2784.538575300189
 31
0.0
  0
LINE
  5
22A
  8
回07-寸法
  6
CONTINUOUS
 62
     5
 10
-121.6575063459038
 20
-2762.271930321771
 30
0.0
 11
-121.6575063459038
 21
-2771.059402071843
 31
0.0
  0
INSERT
  5
22B
  8
回07-寸法
  6
CONTINUOUS
 62
     5
 66
     1
  2
_OPEN
 10
-121.6575063459038
 20
-2762.271930321771
 30
0.0
 41
1.5
 42
1.5
 43
1.5
 50
270.0
  0
SEQEND
  5
22C
  8
回07-寸法
  6
CONTINUOUS
 62
     7
  0
INSERT
  5
22D
  8
回07-寸法
  6
CONTINUOUS
 62
     5
 66
     1
  2
_OPEN
 10
-121.6575063459038
 20
-2771.059402071843
 30
0.0
 41
1.5
 42
1.5
 43
1.5
 50
90.0
  0
SEQEND
  5
22E
  8
回07-寸法
  6
CONTINUOUS
 62
     7
  0
INSERT
  5
22F
  8
回07-寸法
  6
CONTINUOUS
 62
     5
 66
     1
  2
*X86
 10
0.0
 20
0.0
 30
0.0
  0
SEQEND
  5
8FB
  8
回07-寸法
  6
CONTINUOUS
 62
     7
  0
POINT
  5
230
  8
DEFPOINTS
  6
CONTINUOUS
 62
     0
 10
-97.23021859729994
 20
-2762.271930321771
 30
0.0
  0
POINT
  5
231
  8
DEFPOINTS
  6
CONTINUOUS
 62
     0
 10
-102.7802185972999
 20
-2771.059402071843
 30
0.0
  0
POINT
  5
232
  8
DEFPOINTS
  6
CONTINUOUS
 62
     0
 10
-121.6575063459038
 20
-2771.059402071843
 30
0.0
  0
ENDBLK
  5
233
  8
0
 62
     5
  0
BLOCK
  8
0
  2
*D26
 70
     1
 10
0.0
 20
0.0
 30
0.0
  3
*D26
  1

  0
LINE
  5
1D2
  8
回07-寸法
  6
CONTINUOUS
 62
     5
 10
-74.31021859730003
 20
-2753.734402071842
 30
0.0
 11
-74.31021859730003
 21
-2745.687741908453
 31
0.0
  0
LINE
  5
1D3
  8
回07-寸法
  6
CONTINUOUS
 62
     5
 10
-68.45021859729991
 20
-2753.734402071842
 30
0.0
 11
-68.45021859729991
 21
-2745.687741908453
 31
0.0
  0
LINE
  5
1D4
  8
回07-寸法
  6
CONTINUOUS
 62
     5
 10
-75.81021859730004
 20
-2746.687741908453
 30
0.0
 11
-77.31021859730003
 21
-2746.687741908453
 31
0.0
  0
LINE
  5
1D5
  8
回07-寸法
  6
CONTINUOUS
 62
     5
 10
-66.9502185972999
 20
-2746.687741908453
 30
0.0
 11
-58.00139969966211
 21
-2746.687741908453
 31
0.0
  0
LINE
  5
1D6
  8
回07-寸法
  6
CONTINUOUS
 62
     5
 10
-74.31021859730003
 20
-2746.687741908453
 30
0.0
 11
-68.45021859729991
 21
-2746.687741908453
 31
0.0
  0
INSERT
  5
1D7
  8
回07-寸法
  6
CONTINUOUS
 62
     5
 66
     1
  2
_OPEN
 10
-74.31021859730003
 20
-2746.687741908453
 30
0.0
 41
1.5
 42
1.5
 43
1.5
  0
SEQEND
  5
1D8
  8
回07-寸法
  6
CONTINUOUS
 62
     7
  0
INSERT
  5
1D9
  8
回07-寸法
  6
CONTINUOUS
 62
     5
 66
     1
  2
_OPEN
 10
-68.45021859729991
 20
-2746.687741908453
 30
0.0
 41
1.5
 42
1.5
 43
1.5
 50
180.0
  0
SEQEND
  5
1DA
  8
回07-寸法
  6
CONTINUOUS
 62
     7
  0
TEXT
  5
1DB
  8
回07-寸法
  6
CONTINUOUS
 62
     5
 10
-65.32706169113186
 20
-2746.187741908453
 30
0.0
 40
3.0
  1
5.86
1001
ACAD
1000
MTEXTBEGIN
1070
    73
1070
     1
1070
    44
1040
1.0
1070
    74
1070
     0
1000
MTEXTEND
  0
POINT
  5
1DC
  8
DEFPOINTS
  6
CONTINUOUS
 62
     0
 10
-74.31021859730003
 20
-2753.734402071842
 30
0.0
  0
POINT
  5
1DD
  8
DEFPOINTS
  6
CONTINUOUS
 62
     0
 10
-68.45021859729991
 20
-2753.734402071842
 30
0.0
  0
POINT
  5
1DE
  8
DEFPOINTS
  6
CONTINUOUS
 62
     0
 10
-68.45021859729991
 20
-2746.687741908453
 30
0.0
  0
ENDBLK
  5
1DF
  8
0
 62
     7
  0
BLOCK
  8
0
  2
*D27
 70
     1
 10
0.0
 20
0.0
 30
0.0
  3
*D27
  1

  0
LINE
  5
1C2
  8
回07-寸法
  6
CONTINUOUS
 62
     5
 10
-92.63021859729978
 20
-2735.909402071843
 30
0.0
 11
-80.86872722822961
 21
-2735.909402071843
 31
0.0
  0
LINE
  5
1C3
  8
回07-寸法
  6
CONTINUOUS
 62
     5
 10
-92.63021859729978
 20
-2730.209402071843
 30
0.0
 11
-80.86872722822961
 21
-2730.209402071843
 31
0.0
  0
LINE
  5
1C4
  8
回07-寸法
  6
CONTINUOUS
 62
     5
 10
-81.86872722822961
 20
-2734.409402071843
 30
0.0
 11
-81.86872722822961
 21
-2731.709402071843
 31
0.0
  0
INSERT
  5
1C5
  8
回07-寸法
  6
CONTINUOUS
 62
     5
 66
     1
  2
_OPEN
 10
-81.86872722822961
 20
-2735.909402071843
 30
0.0
 41
1.5
 42
1.5
 43
1.5
 50
270.0
  0
SEQEND
  5
1C6
  8
回07-寸法
  6
CONTINUOUS
 62
     7
  0
INSERT
  5
1C7
  8
回07-寸法
  6
CONTINUOUS
 62
     5
 66
     1
  2
_OPEN
 10
-81.86872722822961
 20
-2730.209402071843
 30
0.0
 41
1.5
 42
1.5
 43
1.5
 50
90.0
  0
SEQEND
  5
1C8
  8
回07-寸法
  6
CONTINUOUS
 62
     7
  0
TEXT
  5
1C9
  8
回07-寸法
  6
CONTINUOUS
 62
     5
 10
-82.36872722823045
 20
-2735.609402071843
 30
0.0
 40
3.0
  1
5.7
 50
90.0
1001
ACAD
1000
MTEXTBEGIN
1070
    73
1070
     1
1070
    44
1040
1.0
1070
    74
1070
     0
1000
MTEXTEND
  0
POINT
  5
1CA
  8
DEFPOINTS
  6
CONTINUOUS
 62
     0
 10
-92.63021859729978
 20
-2735.909402071843
 30
0.0
  0
POINT
  5
1CC
  8
DEFPOINTS
  6
CONTINUOUS
 62
     0
 10
-92.63021859729978
 20
-2730.209402071843
 30
0.0
  0
POINT
  5
1CD
  8
DEFPOINTS
  6
CONTINUOUS
 62
     0
 10
-81.86872722822961
 20
-2730.209402071843
 30
0.0
  0
ENDBLK
  5
1CE
  8
0
 62
     7
  0
BLOCK
  8
回07-寸法
  2
*D28
 70
     1
 10
0.0
 20
0.0
 30
0.0
  3
*D28
  1

  0
LINE
  5
432
  8
回07-寸法
  6
CONTINUOUS
 62
     5
 10
-102.3570795235609
 20
-2805.060711440735
 30
0.0
 11
-90.59558815449085
 21
-2805.060711440735
 31
0.0
  0
LINE
  5
434
  8
回07-寸法
  6
CONTINUOUS
 62
     5
 10
-102.3570795235609
 20
-2799.360711440736
 30
0.0
 11
-90.59558815449085
 21
-2799.360711440736
 31
0.0
  0
LINE
  5
435
  8
回07-寸法
  6
CONTINUOUS
 62
     5
 10
-91.59558815449084
 20
-2803.560711440736
 30
0.0
 11
-91.59558815449084
 21
-2800.860711440736
 31
0.0
  0
INSERT
  5
436
  8
回07-寸法
  6
CONTINUOUS
 62
     5
  2
_OPEN
 10
-91.59558815449084
 20
-2805.060711440735
 30
0.0
 41
1.5
 42
1.5
 43
1.5
 50
270.0
  0
INSERT
  5
437
  8
回07-寸法
  6
CONTINUOUS
 62
     5
  2
_OPEN
 10
-91.59558815449084
 20
-2799.360711440736
 30
0.0
 41
1.5
 42
1.5
 43
1.5
 50
90.0
  0
TEXT
  5
438
  8
回07-寸法
  6
CONTINUOUS
 62
     5
 10
-92.09558815449099
 20
-2804.760711440735
 30
0.0
 40
3.0
  1
5.7
 50
90.0
  0
POINT
  5
439
  8
DEFPOINTS
  6
CONTINUOUS
 62
     0
 10
-102.3570795235609
 20
-2805.060711440735
 30
0.0
  0
POINT
  5
43A
  8
DEFPOINTS
  6
CONTINUOUS
 62
     0
 10
-102.3570795235609
 20
-2799.360711440736
 30
0.0
  0
POINT
  5
43B
  8
DEFPOINTS
  6
CONTINUOUS
 62
     0
 10
-91.59558815449084
 20
-2799.360711440736
 30
0.0
  0
ENDBLK
  5
43D
  8
回07-寸法
  6
CONTINUOUS
 62
     7
  0
BLOCK
  8
回07-寸法
  2
*D29
 70
     1
 10
0.0
 20
0.0
 30
0.0
  3
*D29
  1

  0
LINE
  5
43F
  8
回07-寸法
  6
CONTINUOUS
 62
     5
 10
-84.03707952356127
 20
-2822.885711440735
 30
0.0
 11
-84.03707952356127
 21
-2814.839051277346
 31
0.0
  0
LINE
  5
440
  8
回07-寸法
  6
CONTINUOUS
 62
     5
 10
-78.17707952356113
 20
-2822.885711440735
 30
0.0
 11
-78.17707952356113
 21
-2814.839051277346
 31
0.0
  0
LINE
  5
441
  8
回07-寸法
  6
CONTINUOUS
 62
     5
 10
-76.67707952356114
 20
-2815.839051277346
 30
0.0
 11
-67.87457443825942
 21
-2815.839051277346
 31
0.0
  0
LINE
  5
442
  8
回07-寸法
  6
CONTINUOUS
 62
     5
 10
-84.03707952356127
 20
-2815.839051277346
 30
0.0
 11
-78.17707952356113
 21
-2815.839051277346
 31
0.0
  0
LINE
  5
443
  8
回07-寸法
  6
CONTINUOUS
 62
     5
 10
-85.53707952356125
 20
-2815.839051277346
 30
0.0
 11
-87.03707952356126
 21
-2815.839051277346
 31
0.0
  0
INSERT
  5
444
  8
回07-寸法
  6
CONTINUOUS
 62
     5
  2
_OPEN
 10
-84.03707952356127
 20
-2815.839051277346
 30
0.0
 41
1.5
 42
1.5
 43
1.5
  0
INSERT
  5
445
  8
回07-寸法
  6
CONTINUOUS
 62
     5
  2
_OPEN
 10
-78.17707952356113
 20
-2815.839051277346
 30
0.0
 41
1.5
 42
1.5
 43
1.5
 50
180.0
  0
TEXT
  5
446
  8
回07-寸法
  6
CONTINUOUS
 62
     5
 10
-75.12707952356113
 20
-2815.339051277346
 30
0.0
 40
3.0
  1
5.86
  0
POINT
  5
447
  8
DEFPOINTS
  6
CONTINUOUS
 62
     0
 10
-84.03707952356127
 20
-2822.885711440735
 30
0.0
  0
POINT
  5
448
  8
DEFPOINTS
  6
CONTINUOUS
 62
     0
 10
-78.17707952356113
 20
-2822.885711440735
 30
0.0
  0
POINT
  5
449
  8
DEFPOINTS
  6
CONTINUOUS
 62
     0
 10
-78.17707952356113
 20
-2815.839051277346
 30
0.0
  0
ENDBLK
  5
44B
  8
回07-寸法
  6
CONTINUOUS
 62
     7
  0
BLOCK
  8
回07-寸法
  2
*D30
 70
     1
 10
0.0
 20
0.0
 30
0.0
  3
*D30
  1

  0
LINE
  5
44D
  8
回07-寸法
  6
CONTINUOUS
 62
     5
 10
-63.46638561416262
 20
-2891.22336315874
 30
0.0
 11
-63.46638561416262
 21
-2910.951962366586
 31
0.0
  0
LINE
  5
44E
  8
回07-寸法
  6
CONTINUOUS
 62
     5
 10
-49.96638561416125
 20
-2891.22336315874
 30
0.0
 11
-49.96638561416125
 21
-2910.951962366586
 31
0.0
  0
LINE
  5
44F
  8
回07-寸法
  6
CONTINUOUS
 62
     5
 10
-61.96638561416262
 20
-2909.951962366586
 30
0.0
 11
-51.46638561416125
 21
-2909.951962366586
 31
0.0
  0
INSERT
  5
450
  8
回07-寸法
  6
CONTINUOUS
 62
     5
  2
_OPEN
 10
-63.46638561416262
 20
-2909.951962366586
 30
0.0
 41
1.5
 42
1.5
 43
1.5
 50
180.0
  0
INSERT
  5
451
  8
回07-寸法
  6
CONTINUOUS
 62
     5
  2
_OPEN
 10
-49.96638561416125
 20
-2909.951962366586
 30
0.0
 41
1.5
 42
1.5
 43
1.5
  0
INSERT
  5
452
  8
回07-寸法
  6
CONTINUOUS
 62
     5
 66
     1
  2
*X87
 10
0.0
 20
0.0
 30
0.0
  0
SEQEND
  5
901
  8
回07-寸法
  6
CONTINUOUS
 62
     7
  0
POINT
  5
453
  8
DEFPOINTS
  6
CONTINUOUS
 62
     0
 10
-63.46638561416262
 20
-2891.22336315874
 30
0.0
  0
POINT
  5
454
  8
DEFPOINTS
  6
CONTINUOUS
 62
     0
 10
-49.96638561416125
 20
-2891.22336315874
 30
0.0
  0
POINT
  5
455
  8
DEFPOINTS
  6
CONTINUOUS
 62
     0
 10
-49.96638561416125
 20
-2909.951962366586
 30
0.0
  0
ENDBLK
  5
457
  8
回07-寸法
  6
CONTINUOUS
 62
     7
  0
BLOCK
  8
回07-寸法
  2
*D31
 70
     1
 10
0.0
 20
0.0
 30
0.0
  3
*D31
  1

  0
LINE
  5
459
  8
回07-寸法
  6
CONTINUOUS
 62
     5
 10
-39.96640255866464
 20
-2891.22336315874
 30
0.0
 11
-39.96640255866464
 21
-2926.62327819214
 31
0.0
  0
LINE
  5
45A
  8
回07-寸法
  6
CONTINUOUS
 62
     5
 10
-106.9570795235611
 20
-2831.423363158739
 30
0.0
 11
-106.9570795235611
 21
-2926.62327819214
 31
0.0
  0
LINE
  5
45B
  8
回07-寸法
  6
CONTINUOUS
 62
     5
 10
-41.46640255866464
 20
-2925.623278192139
 30
0.0
 11
-105.4570795235611
 21
-2925.623278192139
 31
0.0
  0
INSERT
  5
45C
  8
回07-寸法
  6
CONTINUOUS
 62
     5
  2
_OPEN
 10
-39.96640255866464
 20
-2925.623278192139
 30
0.0
 41
1.5
 42
1.5
 43
1.5
  0
INSERT
  5
45D
  8
回07-寸法
  6
CONTINUOUS
 62
     5
  2
_OPEN
 10
-106.9570795235611
 20
-2925.623278192139
 30
0.0
 41
1.5
 42
1.5
 43
1.5
 50
180.0
  0
TEXT
  5
45E
  8
回07-寸法
  6
CONTINUOUS
 62
     5
 10
-78.96185104111288
 20
-2924.87327319214
 30
0.0
 40
5.000099999999999
  1
(67)
  0
POINT
  5
45F
  8
DEFPOINTS
  6
CONTINUOUS
 62
     0
 10
-39.96640255866464
 20
-2891.22336315874
 30
0.0
  0
POINT
  5
460
  8
DEFPOINTS
  6
CONTINUOUS
 62
     0
 10
-106.9570795235611
 20
-2831.423363158739
 30
0.0
  0
POINT
  5
461
  8
DEFPOINTS
  6
CONTINUOUS
 62
     0
 10
-106.9570795235611
 20
-2925.623278192139
 30
0.0
  0
ENDBLK
  5
463
  8
回07-寸法
  6
CONTINUOUS
 62
     7
  0
BLOCK
  8
回07-寸法
  2
*D32
 70
     1
 10
0.0
 20
0.0
 30
0.0
  3
*D32
  1

  0
LINE
  5
465
  8
回07-寸法
  6
CONTINUOUS
 62
     5
 10
-106.9570795235611
 20
-2831.423363158739
 30
0.0
 11
-106.9570795235611
 21
-2910.951962366586
 31
0.0
  0
LINE
  5
466
  8
回07-寸法
  6
CONTINUOUS
 62
     5
 10
-63.46638561416262
 20
-2891.22336315874
 30
0.0
 11
-63.46638561416262
 21
-2910.951962366586
 31
0.0
  0
LINE
  5
467
  8
回07-寸法
  6
CONTINUOUS
 62
     5
 10
-105.4570795235611
 20
-2909.951962366586
 30
0.0
 11
-64.96638561416261
 21
-2909.951962366586
 31
0.0
  0
INSERT
  5
468
  8
回07-寸法
  6
CONTINUOUS
 62
     5
  2
_OPEN
 10
-106.9570795235611
 20
-2909.951962366586
 30
0.0
 41
1.5
 42
1.5
 43
1.5
 50
180.0
  0
INSERT
  5
469
  8
回07-寸法
  6
CONTINUOUS
 62
     5
  2
_OPEN
 10
-63.46638561416262
 20
-2909.951962366586
 30
0.0
 41
1.5
 42
1.5
 43
1.5
  0
TEXT
  5
46A
  8
回07-寸法
  6
CONTINUOUS
 62
     5
 10
-93.46189756886188
 20
-2909.201957366586
 30
0.0
 40
5.000099999999999
  1
(43.5)
  0
POINT
  5
46B
  8
DEFPOINTS
  6
CONTINUOUS
 62
     0
 10
-106.9570795235611
 20
-2831.423363158739
 30
0.0
  0
POINT
  5
46C
  8
DEFPOINTS
  6
CONTINUOUS
 62
     0
 10
-63.46638561416262
 20
-2891.22336315874
 30
0.0
  0
POINT
  5
46D
  8
DEFPOINTS
  6
CONTINUOUS
 62
     0
 10
-63.46638561416262
 20
-2909.951962366586
 30
0.0
  0
ENDBLK
  5
46F
  8
回07-寸法
  6
CONTINUOUS
 62
     7
  0
BLOCK
  8
回07-寸法
  2
*D33
 70
     1
 10
0.0
 20
0.0
 30
0.0
  3
*D33
  1

  0
LINE
  5
471
  8
回07-寸法
  6
CONTINUOUS
 62
     5
 10
-39.96640255866464
 20
-2891.22336315874
 30
0.0
 11
-39.96640255866464
 21
-2926.62327819214
 31
0.0
  0
LINE
  5
472
  8
回07-寸法
  6
CONTINUOUS
 62
     5
 10
-19.4664025586635
 20
-2891.22336315874
 30
0.0
 11
-19.4664025586635
 21
-2926.62327819214
 31
0.0
  0
LINE
  5
473
  8
回07-寸法
  6
CONTINUOUS
 62
     5
 10
-37.96640255866464
 20
-2925.623278192139
 30
0.0
 11
-21.4664025586635
 21
-2925.623278192139
 31
0.0
  0
INSERT
  5
474
  8
回07-寸法
  6
CONTINUOUS
 62
     5
  2
_OPEN
 10
-39.96640255866464
 20
-2925.623278192139
 30
0.0
 41
2.0
 42
2.0
 43
2.0
 50
180.0
  0
INSERT
  5
475
  8
回07-寸法
  6
CONTINUOUS
 62
     5
  2
_OPEN
 10
-19.4664025586635
 20
-2925.623278192139
 30
0.0
 41
2.0
 42
2.0
 43
2.0
  0
INSERT
  5
476
  8
回07-寸法
  6
CONTINUOUS
 62
     5
 66
     1
  2
*X88
 10
0.0
 20
0.0
 30
0.0
  0
SEQEND
  5
907
  8
回07-寸法
  6
CONTINUOUS
 62
     7
  0
POINT
  5
477
  8
DEFPOINTS
  6
CONTINUOUS
 62
     0
 10
-39.96640255866464
 20
-2891.22336315874
 30
0.0
  0
POINT
  5
478
  8
DEFPOINTS
  6
CONTINUOUS
 62
     0
 10
-19.4664025586635
 20
-2891.22336315874
 30
0.0
  0
POINT
  5
479
  8
DEFPOINTS
  6
CONTINUOUS
 62
     0
 10
-19.4664025586635
 20
-2925.623278192139
 30
0.0
  0
ENDBLK
  5
47B
  8
回07-寸法
  6
CONTINUOUS
 62
     7
  0
BLOCK
  8
回07-寸法
  2
*D34
 70
     1
 10
0.0
 20
0.0
 30
0.0
  3
*D34
  1

  0
LINE
  5
47D
  8
回07-寸法
  6
CONTINUOUS
 62
     5
 10
-106.9570795235611
 20
-2831.423239690663
 30
0.0
 11
-132.3843672721651
 21
-2831.423239690663
 31
0.0
  0
LINE
  5
47E
  8
回07-寸法
  6
CONTINUOUS
 62
     5
 10
-112.507079523561
 20
-2840.210711440735
 30
0.0
 11
-132.3843672721651
 21
-2840.210711440735
 31
0.0
  0
LINE
  5
47F
  8
回07-寸法
  6
CONTINUOUS
 62
     5
 10
-131.3843672721651
 20
-2841.710711440735
 30
0.0
 11
-131.3843672721651
 21
-2853.587465000446
 31
0.0
  0
LINE
  5
480
  8
回07-寸法
  6
CONTINUOUS
 62
     5
 10
-131.3843672721651
 20
-2831.423239690663
 30
0.0
 11
-131.3843672721651
 21
-2840.210711440735
 31
0.0
  0
LINE
  5
481
  8
回07-寸法
  6
CONTINUOUS
 62
     5
 10
-131.3843672721651
 20
-2829.923239690663
 30
0.0
 11
-131.3843672721651
 21
-2828.423239690663
 31
0.0
  0
INSERT
  5
482
  8
回07-寸法
  6
CONTINUOUS
 62
     5
  2
_OPEN
 10
-131.3843672721651
 20
-2831.423239690663
 30
0.0
 41
1.5
 42
1.5
 43
1.5
 50
270.0
  0
INSERT
  5
483
  8
回07-寸法
  6
CONTINUOUS
 62
     5
  2
_OPEN
 10
-131.3843672721651
 20
-2840.210711440735
 30
0.0
 41
1.5
 42
1.5
 43
1.5
 50
90.0
  0
INSERT
  5
484
  8
回07-寸法
  6
CONTINUOUS
 62
     5
 66
     1
  2
*X89
 10
0.0
 20
0.0
 30
0.0
  0
SEQEND
  5
90D
  8
回07-寸法
  6
CONTINUOUS
 62
     7
  0
POINT
  5
485
  8
DEFPOINTS
  6
CONTINUOUS
 62
     0
 10
-106.9570795235611
 20
-2831.423239690663
 30
0.0
  0
POINT
  5
486
  8
DEFPOINTS
  6
CONTINUOUS
 62
     0
 10
-112.507079523561
 20
-2840.210711440735
 30
0.0
  0
POINT
  5
487
  8
DEFPOINTS
  6
CONTINUOUS
 62
     0
 10
-131.3843672721651
 20
-2840.210711440735
 30
0.0
  0
ENDBLK
  5
489
  8
回07-寸法
  6
CONTINUOUS
 62
     7
  0
BLOCK
  8
回07-寸法
  2
*D35
 70
     1
 10
0.0
 20
0.0
 30
0.0
  3
*D35
  1

  0
LINE
  5
48B
  8
回07-寸法
  6
CONTINUOUS
 62
     5
 10
-98.70707952356111
 20
-2819.430711440734
 30
0.0
 11
-127.1145301605052
 21
-2819.430711440734
 31
0.0
  0
LINE
  5
48C
  8
回07-寸法
  6
CONTINUOUS
 62
     5
 10
-106.9570795235611
 20
-2831.423239690663
 30
0.0
 11
-127.1145301605052
 21
-2831.423239690663
 31
0.0
  0
LINE
  5
48D
  8
回07-寸法
  6
CONTINUOUS
 62
     5
 10
-126.1145301605052
 20
-2820.930711440734
 30
0.0
 11
-126.1145301605052
 21
-2829.923239690663
 31
0.0
  0
INSERT
  5
48E
  8
回07-寸法
  6
CONTINUOUS
 62
     5
  2
_OPEN
 10
-126.1145301605052
 20
-2819.430711440734
 30
0.0
 41
1.5
 42
1.5
 43
1.5
 50
90.0
  0
INSERT
  5
48F
  8
回07-寸法
  6
CONTINUOUS
 62
     5
  2
_OPEN
 10
-126.1145301605052
 20
-2831.423239690663
 30
0.0
 41
1.5
 42
1.5
 43
1.5
 50
270.0
  0
TEXT
  5
490
  8
回07-寸法
  6
CONTINUOUS
 62
     5
 10
-126.6145301605052
 20
-2827.227307251039
 30
0.0
 40
3.0
  1
12
 50
90.0
  0
POINT
  5
491
  8
DEFPOINTS
  6
CONTINUOUS
 62
     0
 10
-98.70707952356111
 20
-2819.430711440734
 30
0.0
  0
POINT
  5
492
  8
DEFPOINTS
  6
CONTINUOUS
 62
     0
 10
-106.9570795235611
 20
-2831.423239690663
 30
0.0
  0
POINT
  5
493
  8
DEFPOINTS
  6
CONTINUOUS
 62
     0
 10
-126.1145301605052
 20
-2831.423239690663
 30
0.0
  0
ENDBLK
  5
495
  8
回07-寸法
  6
CONTINUOUS
 62
     7
  0
BLOCK
  8
回07-寸法
  2
*D36
 70
     1
 10
0.0
 20
0.0
 30
0.0
  3
*D36
  1

  0
LINE
  5
497
  8
回07-寸法
  6
CONTINUOUS
 62
     5
 10
-106.9570795235611
 20
-2720.023239690664
 30
0.0
 11
-106.9570795235611
 21
-2690.797476802317
 31
0.0
  0
LINE
  5
498
  8
回07-寸法
  6
CONTINUOUS
 62
     5
 10
-116.507079523561
 20
-2711.210711440735
 30
0.0
 11
-116.507079523561
 21
-2690.797476802317
 31
0.0
  0
LINE
  5
499
  8
回07-寸法
  6
CONTINUOUS
 62
     5
 10
-118.007079523561
 20
-2691.797476802317
 30
0.0
 11
-129.8838330832722
 21
-2691.797476802317
 31
0.0
  0
LINE
  5
49A
  8
回07-寸法
  6
CONTINUOUS
 62
     5
 10
-106.9570795235611
 20
-2691.797476802317
 30
0.0
 11
-116.507079523561
 21
-2691.797476802317
 31
0.0
  0
LINE
  5
49B
  8
回07-寸法
  6
CONTINUOUS
 62
     5
 10
-105.4570795235611
 20
-2691.797476802317
 30
0.0
 11
-103.9570795235611
 21
-2691.797476802317
 31
0.0
  0
INSERT
  5
49C
  8
回07-寸法
  6
CONTINUOUS
 62
     5
  2
_OPEN
 10
-106.9570795235611
 20
-2691.797476802317
 30
0.0
 41
1.5
 42
1.5
 43
1.5
 50
180.0
  0
INSERT
  5
49D
  8
回07-寸法
  6
CONTINUOUS
 62
     5
  2
_OPEN
 10
-116.507079523561
 20
-2691.797476802317
 30
0.0
 41
1.5
 42
1.5
 43
1.5
  0
INSERT
  5
49E
  8
回07-寸法
  6
CONTINUOUS
 62
     5
 66
     1
  2
*X90
 10
0.0
 20
0.0
 30
0.0
  0
SEQEND
  5
913
  8
回07-寸法
  6
CONTINUOUS
 62
     7
  0
POINT
  5
49F
  8
DEFPOINTS
  6
CONTINUOUS
 62
     0
 10
-106.9570795235611
 20
-2720.023239690664
 30
0.0
  0
POINT
  5
4A0
  8
DEFPOINTS
  6
CONTINUOUS
 62
     0
 10
-116.507079523561
 20
-2711.210711440735
 30
0.0
  0
POINT
  5
4A1
  8
DEFPOINTS
  6
CONTINUOUS
 62
     0
 10
-116.507079523561
 20
-2691.797476802317
 30
0.0
  0
ENDBLK
  5
4A3
  8
回07-寸法
  6
CONTINUOUS
 62
     7
  0
BLOCK
  8
回07-寸法
  2
*D37
 70
     1
 10
0.0
 20
0.0
 30
0.0
  3
*D37
  1

  0
LINE
  5
4A5
  8
回07-寸法
  6
CONTINUOUS
 62
     5
 10
-98.70707952356111
 20
-2727.990711440736
 30
0.0
 11
-98.70707952356111
 21
-2696.700351286229
 31
0.0
  0
LINE
  5
4A6
  8
回07-寸法
  6
CONTINUOUS
 62
     5
 10
-106.9570795235611
 20
-2720.023239690665
 30
0.0
 11
-106.9570795235611
 21
-2696.700351286229
 31
0.0
  0
LINE
  5
4A7
  8
回07-寸法
  6
CONTINUOUS
 62
     5
 10
-100.2070795235611
 20
-2697.700351286229
 30
0.0
 11
-105.4570795235611
 21
-2697.700351286229
 31
0.0
  0
INSERT
  5
4A8
  8
回07-寸法
  6
CONTINUOUS
 62
     5
  2
_OPEN
 10
-98.70707952356111
 20
-2697.700351286229
 30
0.0
 41
1.5
 42
1.5
 43
1.5
  0
INSERT
  5
4A9
  8
回07-寸法
  6
CONTINUOUS
 62
     5
  2
_OPEN
 10
-106.9570795235611
 20
-2697.700351286229
 30
0.0
 41
1.5
 42
1.5
 43
1.5
 50
180.0
  0
TEXT
  5
4AA
  8
回07-寸法
  6
CONTINUOUS
 62
     5
 10
-105.3820795235611
 20
-2697.200351286229
 30
0.0
 40
3.0
  1
8.3
  0
POINT
  5
4AB
  8
DEFPOINTS
  6
CONTINUOUS
 62
     0
 10
-98.70707952356111
 20
-2727.990711440736
 30
0.0
  0
POINT
  5
4AC
  8
DEFPOINTS
  6
CONTINUOUS
 62
     0
 10
-106.9570795235611
 20
-2720.023239690665
 30
0.0
  0
POINT
  5
4AD
  8
DEFPOINTS
  6
CONTINUOUS
 62
     0
 10
-106.9570795235611
 20
-2697.700351286229
 30
0.0
  0
ENDBLK
  5
4AF
  8
回07-寸法
  6
CONTINUOUS
 62
     7
  0
BLOCK
  8
回07-寸法
  2
*D38
 70
     1
 10
0.0
 20
0.0
 30
0.0
  3
*D38
  1

  0
LINE
  5
4B1
  8
回07-寸法
  6
CONTINUOUS
 62
     5
 10
-112.5070795235608
 20
-2707.210711440735
 30
0.0
 11
-138.2570674411887
 21
-2707.210711440735
 31
0.0
  0
LINE
  5
4B2
  8
回07-寸法
  6
CONTINUOUS
 62
     5
 10
-112.507079523561
 20
-2840.210711440735
 30
0.0
 11
-138.2570674411887
 21
-2840.210711440735
 31
0.0
  0
LINE
  5
4B3
  8
回07-寸法
  6
CONTINUOUS
 62
     5
 10
-137.2570674411887
 20
-2708.710711440735
 30
0.0
 11
-137.2570674411887
 21
-2838.710711440735
 31
0.0
  0
INSERT
  5
4B4
  8
回07-寸法
  6
CONTINUOUS
 62
     5
  2
_OPEN
 10
-137.2570674411887
 20
-2707.210711440735
 30
0.0
 41
1.5
 42
1.5
 43
1.5
 50
90.0
  0
INSERT
  5
4B5
  8
回07-寸法
  6
CONTINUOUS
 62
     5
  2
_OPEN
 10
-137.2570674411887
 20
-2840.210711440735
 30
0.0
 41
1.5
 42
1.5
 43
1.5
 50
270.0
  0
INSERT
  5
4B6
  8
回07-寸法
  6
CONTINUOUS
 62
     5
 66
     1
  2
*X91
 10
0.0
 20
0.0
 30
0.0
  0
SEQEND
  5
91A
  8
回07-寸法
  6
CONTINUOUS
 62
     7
  0
POINT
  5
4B7
  8
DEFPOINTS
  6
CONTINUOUS
 62
     0
 10
-112.5070795235608
 20
-2707.210711440735
 30
0.0
  0
POINT
  5
4B8
  8
DEFPOINTS
  6
CONTINUOUS
 62
     0
 10
-112.507079523561
 20
-2840.210711440735
 30
0.0
  0
POINT
  5
4B9
  8
DEFPOINTS
  6
CONTINUOUS
 62
     0
 10
-137.2570674411887
 20
-2840.210711440735
 30
0.0
  0
ENDBLK
  5
4BB
  8
回07-寸法
  6
CONTINUOUS
 62
     7
  0
BLOCK
  8
回07-寸法
  2
*D39
 70
     1
 10
0.0
 20
0.0
 30
0.0
  3
*D39
  1

  0
LINE
  5
4BD
  8
回07-寸法
  6
CONTINUOUS
 62
     5
 10
-106.9570795235611
 20
-2831.423239690663
 30
0.0
 11
-132.3843672721652
 21
-2831.423239690663
 31
0.0
  0
LINE
  5
4BE
  8
回07-寸法
  6
CONTINUOUS
 62
     5
 10
-106.9570795235611
 20
-2720.023239690663
 30
0.0
 11
-132.3843672721652
 21
-2720.023239690663
 31
0.0
  0
LINE
  5
4BF
  8
回07-寸法
  6
CONTINUOUS
 62
     5
 10
-131.3843672721652
 20
-2829.923239690663
 30
0.0
 11
-131.3843672721652
 21
-2721.523239690663
 31
0.0
  0
INSERT
  5
4C0
  8
回07-寸法
  6
CONTINUOUS
 62
     5
  2
_OPEN
 10
-131.3843672721652
 20
-2831.423239690663
 30
0.0
 41
1.5
 42
1.5
 43
1.5
 50
270.0
  0
INSERT
  5
4C1
  8
回07-寸法
  6
CONTINUOUS
 62
     5
  2
_OPEN
 10
-131.3843672721652
 20
-2720.023239690663
 30
0.0
 41
1.5
 42
1.5
 43
1.5
 50
90.0
  0
INSERT
  5
4C2
  8
回07-寸法
  6
CONTINUOUS
 62
     5
 66
     1
  2
*X92
 10
0.0
 20
0.0
 30
0.0
  0
SEQEND
  5
921
  8
回07-寸法
  6
CONTINUOUS
 62
     7
  0
POINT
  5
4C3
  8
DEFPOINTS
  6
CONTINUOUS
 62
     0
 10
-106.9570795235611
 20
-2831.423239690663
 30
0.0
  0
POINT
  5
4C4
  8
DEFPOINTS
  6
CONTINUOUS
 62
     0
 10
-106.9570795235611
 20
-2720.023239690663
 30
0.0
  0
POINT
  5
4C5
  8
DEFPOINTS
  6
CONTINUOUS
 62
     0
 10
-131.3843672721652
 20
-2720.023239690663
 30
0.0
  0
ENDBLK
  5
4C7
  8
回07-寸法
  6
CONTINUOUS
 62
     7
  0
BLOCK
  8
回07-寸法
  2
*D40
 70
     1
 10
0.0
 20
0.0
 30
0.0
  3
*D40
  1

  0
LINE
  5
4C9
  8
回07-寸法
  6
CONTINUOUS
 62
     5
 10
-98.70707952356111
 20
-2727.990711440735
 30
0.0
 11
-127.1145301605052
 21
-2727.990711440735
 31
0.0
  0
LINE
  5
4CA
  8
回07-寸法
  6
CONTINUOUS
 62
     5
 10
-98.70707952356111
 20
-2819.430711440734
 30
0.0
 11
-127.1145301605052
 21
-2819.430711440734
 31
0.0
  0
LINE
  5
4CB
  8
回07-寸法
  6
CONTINUOUS
 62
     5
 10
-126.1145301605052
 20
-2729.490711440735
 30
0.0
 11
-126.1145301605052
 21
-2817.930711440734
 31
0.0
  0
INSERT
  5
4CC
  8
回07-寸法
  6
CONTINUOUS
 62
     5
  2
_OPEN
 10
-126.1145301605052
 20
-2727.990711440735
 30
0.0
 41
1.5
 42
1.5
 43
1.5
 50
90.0
  0
INSERT
  5
4CD
  8
回07-寸法
  6
CONTINUOUS
 62
     5
  2
_OPEN
 10
-126.1145301605052
 20
-2819.430711440734
 30
0.0
 41
1.5
 42
1.5
 43
1.5
 50
270.0
  0
INSERT
  5
4CE
  8
回07-寸法
  6
CONTINUOUS
 62
     5
 66
     1
  2
*X93
 10
0.0
 20
0.0
 30
0.0
  0
SEQEND
  5
927
  8
回07-寸法
  6
CONTINUOUS
 62
     7
  0
POINT
  5
4CF
  8
DEFPOINTS
  6
CONTINUOUS
 62
     0
 10
-98.70707952356111
 20
-2727.990711440735
 30
0.0
  0
POINT
  5
4D0
  8
DEFPOINTS
  6
CONTINUOUS
 62
     0
 10
-98.70707952356111
 20
-2819.430711440734
 30
0.0
  0
POINT
  5
4D1
  8
DEFPOINTS
  6
CONTINUOUS
 62
     0
 10
-126.1145301605052
 20
-2819.430711440734
 30
0.0
  0
ENDBLK
  5
4D3
  8
回07-寸法
  6
CONTINUOUS
 62
     7
  0
BLOCK
  8
回07-寸法
  2
*D41
 70
     1
 10
0.0
 20
0.0
 30
0.0
  3
*D41
  1

  0
LINE
  5
4D5
  8
回07-寸法
  6
CONTINUOUS
 62
     5
 10
71.49292047643894
 20
-2711.210711440735
 30
0.0
 11
71.49292047643894
 21
-2685.322187559701
 31
0.0
  0
LINE
  5
4D6
  8
回07-寸法
  6
CONTINUOUS
 62
     5
 10
-116.507079523561
 20
-2711.210711440735
 30
0.0
 11
-116.507079523561
 21
-2685.322187559701
 31
0.0
  0
LINE
  5
4D7
  8
回07-寸法
  6
CONTINUOUS
 62
     5
 10
69.99292047643894
 20
-2686.322187559701
 30
0.0
 11
-115.007079523561
 21
-2686.322187559701
 31
0.0
  0
INSERT
  5
4D8
  8
回07-寸法
  6
CONTINUOUS
 62
     5
  2
_OPEN
 10
71.49292047643894
 20
-2686.322187559701
 30
0.0
 41
1.5
 42
1.5
 43
1.5
  0
INSERT
  5
4D9
  8
回07-寸法
  6
CONTINUOUS
 62
     5
  2
_OPEN
 10
-116.507079523561
 20
-2686.322187559701
 30
0.0
 41
1.5
 42
1.5
 43
1.5
 50
180.0
  0
INSERT
  5
4DA
  8
回07-寸法
  6
CONTINUOUS
 62
     5
 66
     1
  2
*X94
 10
0.0
 20
0.0
 30
0.0
  0
SEQEND
  5
92E
  8
回07-寸法
  6
CONTINUOUS
 62
     7
  0
POINT
  5
4DB
  8
DEFPOINTS
  6
CONTINUOUS
 62
     0
 10
71.49292047643894
 20
-2711.210711440735
 30
0.0
  0
POINT
  5
4DC
  8
DEFPOINTS
  6
CONTINUOUS
 62
     0
 10
-116.507079523561
 20
-2711.210711440735
 30
0.0
  0
POINT
  5
4DD
  8
DEFPOINTS
  6
CONTINUOUS
 62
     0
 10
-116.507079523561
 20
-2686.322187559701
 30
0.0
  0
ENDBLK
  5
4DF
  8
回07-寸法
  6
CONTINUOUS
 62
     7
  0
BLOCK
  8
回07-寸法
  2
*D42
 70
     1
 10
0.0
 20
0.0
 30
0.0
  3
*D42
  1

  0
LINE
  5
4E1
  8
回07-寸法
  6
CONTINUOUS
 62
     5
 10
-106.9570795235611
 20
-2720.023239690664
 30
0.0
 11
-106.9570795235611
 21
-2690.797476802317
 31
0.0
  0
LINE
  5
4E2
  8
回07-寸法
  6
CONTINUOUS
 62
     5
 10
61.84292047643885
 20
-2720.023239690664
 30
0.0
 11
61.84292047643885
 21
-2690.797476802317
 31
0.0
  0
LINE
  5
4E3
  8
回07-寸法
  6
CONTINUOUS
 62
     5
 10
-105.4570795235611
 20
-2691.797476802317
 30
0.0
 11
60.34292047643885
 21
-2691.797476802317
 31
0.0
  0
INSERT
  5
4E4
  8
回07-寸法
  6
CONTINUOUS
 62
     5
  2
_OPEN
 10
-106.9570795235611
 20
-2691.797476802317
 30
0.0
 41
1.5
 42
1.5
 43
1.5
 50
180.0
  0
INSERT
  5
4E5
  8
回07-寸法
  6
CONTINUOUS
 62
     5
  2
_OPEN
 10
61.84292047643885
 20
-2691.797476802317
 30
0.0
 41
1.5
 42
1.5
 43
1.5
  0
INSERT
  5
4E6
  8
回07-寸法
  6
CONTINUOUS
 62
     5
 66
     1
  2
*X95
 10
0.0
 20
0.0
 30
0.0
  0
SEQEND
  5
935
  8
回07-寸法
  6
CONTINUOUS
 62
     7
  0
POINT
  5
4E7
  8
DEFPOINTS
  6
CONTINUOUS
 62
     0
 10
-106.9570795235611
 20
-2720.023239690664
 30
0.0
  0
POINT
  5
4E8
  8
DEFPOINTS
  6
CONTINUOUS
 62
     0
 10
61.84292047643885
 20
-2720.023239690664
 30
0.0
  0
POINT
  5
4E9
  8
DEFPOINTS
  6
CONTINUOUS
 62
     0
 10
61.84292047643885
 20
-2691.797476802317
 30
0.0
  0
ENDBLK
  5
4EB
  8
回07-寸法
  6
CONTINUOUS
 62
     7
  0
BLOCK
  8
回07-寸法
  2
*D43
 70
     1
 10
0.0
 20
0.0
 30
0.0
  3
*D43
  1

  0
LINE
  5
4ED
  8
回07-寸法
  6
CONTINUOUS
 62
     5
 10
-98.70707952356111
 20
-2727.990711440735
 30
0.0
 11
-98.70707952356111
 21
-2696.700351286229
 31
0.0
  0
LINE
  5
4EE
  8
回07-寸法
  6
CONTINUOUS
 62
     5
 10
53.69292047643921
 20
-2727.990711440736
 30
0.0
 11
53.69292047643921
 21
-2696.700351286229
 31
0.0
  0
LINE
  5
4EF
  8
回07-寸法
  6
CONTINUOUS
 62
     5
 10
-97.20707952356111
 20
-2697.700351286229
 30
0.0
 11
52.19292047643921
 21
-2697.700351286229
 31
0.0
  0
INSERT
  5
4F0
  8
回07-寸法
  6
CONTINUOUS
 62
     5
  2
_OPEN
 10
-98.70707952356111
 20
-2697.700351286229
 30
0.0
 41
1.5
 42
1.5
 43
1.5
 50
180.0
  0
INSERT
  5
4F1
  8
回07-寸法
  6
CONTINUOUS
 62
     5
  2
_OPEN
 10
53.69292047643921
 20
-2697.700351286229
 30
0.0
 41
1.5
 42
1.5
 43
1.5
  0
INSERT
  5
4F2
  8
回07-寸法
  6
CONTINUOUS
 62
     5
 66
     1
  2
*X96
 10
0.0
 20
0.0
 30
0.0
  0
SEQEND
  5
93B
  8
回07-寸法
  6
CONTINUOUS
 62
     7
  0
POINT
  5
4F3
  8
DEFPOINTS
  6
CONTINUOUS
 62
     0
 10
-98.70707952356111
 20
-2727.990711440735
 30
0.0
  0
POINT
  5
4F4
  8
DEFPOINTS
  6
CONTINUOUS
 62
     0
 10
53.69292047643921
 20
-2727.990711440736
 30
0.0
  0
POINT
  5
4F5
  8
DEFPOINTS
  6
CONTINUOUS
 62
     0
 10
53.69292047643921
 20
-2697.700351286229
 30
0.0
  0
ENDBLK
  5
4F7
  8
回07-寸法
  6
CONTINUOUS
 62
     7
  0
BLOCK
  8
回07-寸法
  2
*D44
 70
     1
 10
0.0
 20
0.0
 30
0.0
  3
*D44
  1

  0
LINE
  5
4F9
  8
回07-寸法
  6
CONTINUOUS
 62
     5
 10
-19.66640255866332
 20
-2891.42336315874
 30
0.0
 11
-0.1965811327093014
 21
-2891.42336315874
 31
0.0
  0
LINE
  5
4FA
  8
回07-寸法
  6
CONTINUOUS
 62
     5
 10
-19.46640255866441
 20
-2831.423363158741
 30
0.0
 11
-0.1965811327092979
 21
-2831.423363158741
 31
0.0
  0
LINE
  5
4FB
  8
回07-寸法
  6
CONTINUOUS
 62
     5
 10
-1.196581132709301
 20
-2889.423363158739
 30
0.0
 11
-1.196581132709298
 21
-2833.423363158741
 31
0.0
  0
INSERT
  5
4FC
  8
回07-寸法
  6
CONTINUOUS
 62
     5
  2
_OPEN
 10
-1.196581132709301
 20
-2891.42336315874
 30
0.0
 41
2.0
 42
2.0
 43
2.0
 50
270.0
  0
INSERT
  5
4FD
  8
回07-寸法
  6
CONTINUOUS
 62
     5
  2
_OPEN
 10
-1.196581132709297
 20
-2831.423363158741
 30
0.0
 41
2.0
 42
2.0
 43
2.0
 50
90.0
  0
INSERT
  5
4FE
  8
回07-寸法
  6
CONTINUOUS
 62
     5
 66
     1
  2
*X97
 10
0.0
 20
0.0
 30
0.0
  0
SEQEND
  5
941
  8
回07-寸法
  6
CONTINUOUS
 62
     7
  0
POINT
  5
4FF
  8
DEFPOINTS
  6
CONTINUOUS
 62
     0
 10
-19.66640255866332
 20
-2891.42336315874
 30
0.0
  0
POINT
  5
500
  8
DEFPOINTS
  6
CONTINUOUS
 62
     0
 10
-19.46640255866441
 20
-2831.423363158741
 30
0.0
  0
POINT
  5
501
  8
DEFPOINTS
  6
CONTINUOUS
 62
     0
 10
-1.196581132709297
 20
-2831.423363158741
 30
0.0
  0
ENDBLK
  5
503
  8
回07-寸法
  6
CONTINUOUS
 62
     7
  0
BLOCK
  8
回07-寸法
  2
*D45
 70
     1
 10
0.0
 20
0.0
 30
0.0
  3
*D45
  1

  0
LINE
  5
505
  8
回07-寸法
  6
CONTINUOUS
 62
     5
 10
-63.26638561416235
 20
-2891.42336315874
 30
0.0
 11
-77.20517450319062
 21
-2891.42336315874
 31
0.0
  0
LINE
  5
506
  8
回07-寸法
  6
CONTINUOUS
 62
     5
 10
-63.46638561416217
 20
-2831.423363158739
 30
0.0
 11
-77.20517450319062
 21
-2831.423363158739
 31
0.0
  0
LINE
  5
507
  8
回07-寸法
  6
CONTINUOUS
 62
     5
 10
-76.20517450319062
 20
-2889.423363158739
 30
0.0
 11
-76.20517450319062
 21
-2833.42336315874
 31
0.0
  0
INSERT
  5
508
  8
回07-寸法
  6
CONTINUOUS
 62
     5
  2
_OPEN
 10
-76.20517450319062
 20
-2891.42336315874
 30
0.0
 41
2.0
 42
2.0
 43
2.0
 50
270.0
  0
INSERT
  5
509
  8
回07-寸法
  6
CONTINUOUS
 62
     5
  2
_OPEN
 10
-76.20517450319062
 20
-2831.423363158739
 30
0.0
 41
2.0
 42
2.0
 43
2.0
 50
90.0
  0
INSERT
  5
50A
  8
回07-寸法
  6
CONTINUOUS
 62
     5
 66
     1
  2
*X98
 10
0.0
 20
0.0
 30
0.0
  0
SEQEND
  5
947
  8
回07-寸法
  6
CONTINUOUS
 62
     7
  0
POINT
  5
50B
  8
DEFPOINTS
  6
CONTINUOUS
 62
     0
 10
-63.26638561416235
 20
-2891.42336315874
 30
0.0
  0
POINT
  5
50C
  8
DEFPOINTS
  6
CONTINUOUS
 62
     0
 10
-63.46638561416217
 20
-2831.423363158739
 30
0.0
  0
POINT
  5
50D
  8
DEFPOINTS
  6
CONTINUOUS
 62
     0
 10
-76.20517450319062
 20
-2831.423363158739
 30
0.0
  0
ENDBLK
  5
50F
  8
回07-寸法
  6
CONTINUOUS
 62
     7
  0
BLOCK
  8
回07-寸法
  2
*D46
 70
     1
 10
0.0
 20
0.0
 30
0.0
  3
*D46
  1

  0
LINE
  5
511
  8
回06-記事
  6
CONTINUOUS
 62
     5
 10
118.3774223892617
 20
-2891.423239690664
 30
0.0
 11
118.3774223892617
 21
-2903.875754312043
 31
0.0
  0
LINE
  5
512
  8
回06-記事
  6
CONTINUOUS
 62
     5
 10
121.1774223892628
 20
-2891.423239690664
 30
0.0
 11
121.1774223892628
 21
-2903.875754312043
 31
0.0
  0
LINE
  5
513
  8
回06-記事
  6
CONTINUOUS
 62
     5
 10
122.6774223892628
 20
-2902.875754312043
 30
0.0
 11
135.7712356573313
 21
-2902.875754312043
 31
0.0
  0
LINE
  5
514
  8
回06-記事
  6
CONTINUOUS
 62
     5
 10
118.3774223892617
 20
-2902.875754312043
 30
0.0
 11
121.1774223892628
 21
-2902.875754312043
 31
0.0
  0
LINE
  5
515
  8
回06-記事
  6
CONTINUOUS
 62
     5
 10
116.8774223892617
 20
-2902.875754312043
 30
0.0
 11
115.3774223892617
 21
-2902.875754312043
 31
0.0
  0
INSERT
  5
516
  8
回06-記事
  6
CONTINUOUS
 62
     5
  2
_OPEN
 10
118.3774223892617
 20
-2902.875754312043
 30
0.0
 41
1.5
 42
1.5
 43
1.5
  0
INSERT
  5
517
  8
回06-記事
  6
CONTINUOUS
 62
     5
  2
_OPEN
 10
121.1774223892628
 20
-2902.875754312043
 30
0.0
 41
1.5
 42
1.5
 43
1.5
 50
180.0
  0
INSERT
  5
518
  8
回06-記事
  6
CONTINUOUS
 62
     5
 66
     1
  2
*X99
 10
0.0
 20
0.0
 30
0.0
  0
SEQEND
  5
94D
  8
回07-寸法
  6
CONTINUOUS
 62
     7
  0
POINT
  5
519
  8
DEFPOINTS
  6
CONTINUOUS
 62
     0
 10
118.3774223892617
 20
-2891.423239690664
 30
0.0
  0
POINT
  5
51A
  8
DEFPOINTS
  6
CONTINUOUS
 62
     0
 10
121.1774223892628
 20
-2891.423239690664
 30
0.0
  0
POINT
  5
51B
  8
DEFPOINTS
  6
CONTINUOUS
 62
     0
 10
121.1774223892628
 20
-2902.875754312043
 30
0.0
  0
ENDBLK
  5
51D
  8
回07-寸法
  6
CONTINUOUS
 62
     7
  0
BLOCK
  8
回07-寸法
  2
*D47
 70
     1
 10
0.0
 20
0.0
 30
0.0
  3
*D47
  1

  0
LINE
  5
51F
  8
回06-記事
  6
CONTINUOUS
 62
     5
 10
123.5355156827229
 20
-2891.423239690664
 30
0.0
 11
123.5355156827229
 21
-2898.242367714586
 31
0.0
  0
LINE
  5
520
  8
回06-記事
  6
CONTINUOUS
 62
     5
 10
126.335515682724
 20
-2891.423239690664
 30
0.0
 11
126.335515682724
 21
-2898.242367714586
 31
0.0
  0
LINE
  5
521
  8
回06-記事
  6
CONTINUOUS
 62
     5
 10
127.835515682724
 20
-2897.242367714586
 30
0.0
 11
140.9293289507925
 21
-2897.242367714586
 31
0.0
  0
LINE
  5
522
  8
回06-記事
  6
CONTINUOUS
 62
     5
 10
123.5355156827229
 20
-2897.242367714586
 30
0.0
 11
126.335515682724
 21
-2897.242367714586
 31
0.0
  0
LINE
  5
523
  8
回06-記事
  6
CONTINUOUS
 62
     5
 10
122.0355156827229
 20
-2897.242367714586
 30
0.0
 11
120.5355156827229
 21
-2897.242367714586
 31
0.0
  0
INSERT
  5
524
  8
回06-記事
  6
CONTINUOUS
 62
     5
  2
_OPEN
 10
123.5355156827229
 20
-2897.242367714586
 30
0.0
 41
1.5
 42
1.5
 43
1.5
  0
INSERT
  5
525
  8
回06-記事
  6
CONTINUOUS
 62
     5
  2
_OPEN
 10
126.335515682724
 20
-2897.242367714586
 30
0.0
 41
1.5
 42
1.5
 43
1.5
 50
180.0
  0
INSERT
  5
526
  8
回06-記事
  6
CONTINUOUS
 62
     5
 66
     1
  2
*X100
 10
0.0
 20
0.0
 30
0.0
  0
SEQEND
  5
953
  8
回07-寸法
  6
CONTINUOUS
 62
     7
  0
POINT
  5
527
  8
DEFPOINTS
  6
CONTINUOUS
 62
     0
 10
123.5355156827229
 20
-2891.423239690664
 30
0.0
  0
POINT
  5
528
  8
DEFPOINTS
  6
CONTINUOUS
 62
     0
 10
126.335515682724
 20
-2891.423239690664
 30
0.0
  0
POINT
  5
529
  8
DEFPOINTS
  6
CONTINUOUS
 62
     0
 10
126.335515682724
 20
-2897.242367714586
 30
0.0
  0
ENDBLK
  5
52B
  8
回07-寸法
  6
CONTINUOUS
 62
     7
  0
BLOCK
  8
回07-寸法
  2
*D48
 70
     1
 10
0.0
 20
0.0
 30
0.0
  3
*D48
  1

  0
LINE
  5
52D
  8
回06-記事
  6
CONTINUOUS
 62
     5
 10
118.3774223892617
 20
-2881.423239690663
 30
0.0
 11
113.8566141992447
 21
-2881.423239690663
 31
0.0
  0
LINE
  5
52E
  8
回06-記事
  6
CONTINUOUS
 62
     5
 10
118.3774223892617
 20
-2891.423239690664
 30
0.0
 11
113.8566141992447
 21
-2891.423239690664
 31
0.0
  0
LINE
  5
52F
  8
回06-記事
  6
CONTINUOUS
 62
     5
 10
114.8566141992447
 20
-2882.923239690664
 30
0.0
 11
114.8566141992447
 21
-2889.923239690664
 31
0.0
  0
INSERT
  5
530
  8
回06-記事
  6
CONTINUOUS
 62
     5
  2
_OPEN
 10
114.8566141992447
 20
-2881.423239690663
 30
0.0
 41
1.5
 42
1.5
 43
1.5
 50
90.0
  0
INSERT
  5
531
  8
回06-記事
  6
CONTINUOUS
 62
     5
  2
_OPEN
 10
114.8566141992447
 20
-2891.423239690664
 30
0.0
 41
1.5
 42
1.5
 43
1.5
 50
270.0
  0
TEXT
  5
532
  8
回06-記事
  6
CONTINUOUS
 62
     5
 10
114.2066141992445
 20
-2889.423239690664
 30
0.0
 40
3.0
  1
(10)
 50
90.0
  0
POINT
  5
533
  8
DEFPOINTS
  6
CONTINUOUS
 62
     0
 10
118.3774223892617
 20
-2881.423239690663
 30
0.0
  0
POINT
  5
534
  8
DEFPOINTS
  6
CONTINUOUS
 62
     0
 10
118.3774223892617
 20
-2891.423239690664
 30
0.0
  0
POINT
  5
535
  8
DEFPOINTS
  6
CONTINUOUS
 62
     0
 10
114.8566141992447
 20
-2891.423239690664
 30
0.0
  0
ENDBLK
  5
537
  8
回07-寸法
  6
CONTINUOUS
 62
     7
  0
BLOCK
  8
回07-寸法
  2
*D49
 70
     1
 10
0.0
 20
0.0
 30
0.0
  3
*D49
  1

  0
LINE
  5
539
  8
回06-記事
  6
CONTINUOUS
 62
     5
 10
126.335515682724
 20
-2891.423239690664
 30
0.0
 11
133.5316347197382
 21
-2891.423239690664
 31
0.0
  0
LINE
  5
53A
  8
回06-記事
  6
CONTINUOUS
 62
     5
 10
127.1355156827232
 20
-2886.423239690664
 30
0.0
 11
133.5316347197382
 21
-2886.423239690664
 31
0.0
  0
LINE
  5
53B
  8
回06-記事
  6
CONTINUOUS
 62
     5
 10
132.5316347197382
 20
-2889.923239690664
 30
0.0
 11
132.5316347197382
 21
-2887.923239690664
 31
0.0
  0
INSERT
  5
53C
  8
回06-記事
  6
CONTINUOUS
 62
     5
  2
_OPEN
 10
132.5316347197382
 20
-2891.423239690664
 30
0.0
 41
1.5
 42
1.5
 43
1.5
 50
270.0
  0
INSERT
  5
53D
  8
回06-記事
  6
CONTINUOUS
 62
     5
  2
_OPEN
 10
132.5316347197382
 20
-2886.423239690664
 30
0.0
 41
1.5
 42
1.5
 43
1.5
 50
90.0
  0
TEXT
  5
53E
  8
回06-記事
  6
CONTINUOUS
 62
     5
 10
132.0316347197381
 20
-2889.973239690664
 30
0.0
 40
3.0
  1
5
 50
90.0
  0
POINT
  5
53F
  8
DEFPOINTS
  6
CONTINUOUS
 62
     0
 10
126.335515682724
 20
-2891.423239690664
 30
0.0
  0
POINT
  5
540
  8
DEFPOINTS
  6
CONTINUOUS
 62
     0
 10
127.1355156827232
 20
-2886.423239690664
 30
0.0
  0
POINT
  5
541
  8
DEFPOINTS
  6
CONTINUOUS
 62
     0
 10
132.5316347197382
 20
-2886.423239690664
 30
0.0
  0
ENDBLK
  5
543
  8
回07-寸法
  6
CONTINUOUS
 62
     7
  0
BLOCK
  8
回07-寸法
  2
*D50
 70
     1
 10
0.0
 20
0.0
 30
0.0
  3
*D50
  1

  0
LINE
  5
545
  8
回06-記事
  6
CONTINUOUS
 62
     5
 10
95.61932909580013
 20
-2707.720711440736
 30
0.0
 11
95.61932909580013
 21
-2697.179555443595
 31
0.0
  0
LINE
  5
546
  8
回06-記事
  6
CONTINUOUS
 62
     5
 10
134.335515682724
 20
-2720.023239690664
 30
0.0
 11
134.335515682724
 21
-2697.179555443595
 31
0.0
  0
LINE
  5
547
  8
回06-記事
  6
CONTINUOUS
 62
     5
 10
97.11932909580013
 20
-2698.179555443596
 30
0.0
 11
132.835515682724
 21
-2698.179555443596
 31
0.0
  0
INSERT
  5
548
  8
回06-記事
  6
CONTINUOUS
 62
     5
  2
_OPEN
 10
95.61932909580013
 20
-2698.179555443596
 30
0.0
 41
1.5
 42
1.5
 43
1.5
 50
180.0
  0
INSERT
  5
549
  8
回06-記事
  6
CONTINUOUS
 62
     5
  2
_OPEN
 10
134.335515682724
 20
-2698.179555443596
 30
0.0
 41
1.5
 42
1.5
 43
1.5
  0
INSERT
  5
54A
  8
回06-記事
  6
CONTINUOUS
 62
     5
 66
     1
  2
*X101
 10
0.0
 20
0.0
 30
0.0
  0
SEQEND
  5
959
  8
回07-寸法
  6
CONTINUOUS
 62
     7
  0
POINT
  5
54B
  8
DEFPOINTS
  6
CONTINUOUS
 62
     0
 10
95.61932909580013
 20
-2707.720711440736
 30
0.0
  0
POINT
  5
54C
  8
DEFPOINTS
  6
CONTINUOUS
 62
     0
 10
134.335515682724
 20
-2720.023239690664
 30
0.0
  0
POINT
  5
54D
  8
DEFPOINTS
  6
CONTINUOUS
 62
     0
 10
134.335515682724
 20
-2698.179555443596
 30
0.0
  0
ENDBLK
  5
54F
  8
回07-寸法
  6
CONTINUOUS
 62
     7
  0
BLOCK
  8
回07-寸法
  2
*D51
 70
     1
 10
0.0
 20
0.0
 30
0.0
  3
*D51
  1

  0
LINE
  5
551
  8
回06-記事
  6
CONTINUOUS
 62
     5
 10
-145.9621509018427
 20
-2942.061445147
 30
0.0
 11
-145.9621509018427
 21
-2952.65488841179
 31
0.0
  0
LINE
  5
552
  8
回06-記事
  6
CONTINUOUS
 62
     5
 10
-147.402150901843
 20
-2942.061445147
 30
0.0
 11
-147.402150901843
 21
-2952.65488841179
 31
0.0
  0
LINE
  5
553
  8
回06-記事
  6
CONTINUOUS
 62
     5
 10
-149.402150901843
 20
-2951.65488841179
 30
0.0
 11
-156.6666451409234
 21
-2951.65488841179
 31
0.0
  0
LINE
  5
554
  8
回06-記事
  6
CONTINUOUS
 62
     5
 10
-145.9621509018427
 20
-2951.65488841179
 30
0.0
 11
-147.402150901843
 21
-2951.65488841179
 31
0.0
  0
LINE
  5
555
  8
回06-記事
  6
CONTINUOUS
 62
     5
 10
-143.9621509018427
 20
-2951.65488841179
 30
0.0
 11
-141.9621509018427
 21
-2951.65488841179
 31
0.0
  0
INSERT
  5
556
  8
回06-記事
  6
CONTINUOUS
 62
     5
  2
_OPEN
 10
-145.9621509018427
 20
-2951.65488841179
 30
0.0
 41
2.0
 42
2.0
 43
2.0
 50
180.0
  0
INSERT
  5
557
  8
回06-記事
  6
CONTINUOUS
 62
     5
  2
_OPEN
 10
-147.402150901843
 20
-2951.65488841179
 30
0.0
 41
2.0
 42
2.0
 43
2.0
  0
TEXT
  5
558
  8
回06-記事
  6
CONTINUOUS
 62
     5
 10
-156.614282936199
 20
-2951.15488841179
 30
0.0
 40
3.0
  1
0.5
  0
POINT
  5
559
  8
DEFPOINTS
  6
CONTINUOUS
 62
     0
 10
-145.9621509018427
 20
-2942.061445147
 30
0.0
  0
POINT
  5
55A
  8
DEFPOINTS
  6
CONTINUOUS
 62
     0
 10
-147.402150901843
 20
-2942.061445147
 30
0.0
  0
POINT
  5
55B
  8
DEFPOINTS
  6
CONTINUOUS
 62
     0
 10
-147.402150901843
 20
-2951.65488841179
 30
0.0
  0
ENDBLK
  5
55D
  8
回07-寸法
  6
CONTINUOUS
 62
     7
  0
BLOCK
  8
回07-寸法
  2
*D52
 70
     1
 10
0.0
 20
0.0
 30
0.0
  3
*D52
  1

  0
LINE
  5
55F
  8
回06-記事
  6
CONTINUOUS
 62
     5
 10
-146.970150901843
 20
-2942.061445147
 30
0.0
 11
-146.970150901843
 21
-2946.04110388123
 31
0.0
  0
LINE
  5
560
  8
回06-記事
  6
CONTINUOUS
 62
     5
 10
-147.8341509018428
 20
-2941.99511759704
 30
0.0
 11
-147.8341509018428
 21
-2946.04110388123
 31
0.0
  0
LINE
  5
561
  8
回06-記事
  6
CONTINUOUS
 62
     5
 10
-149.8341509018428
 20
-2945.04110388123
 30
0.0
 11
-157.0986451409232
 21
-2945.04110388123
 31
0.0
  0
LINE
  5
562
  8
回06-記事
  6
CONTINUOUS
 62
     5
 10
-146.970150901843
 20
-2945.04110388123
 30
0.0
 11
-147.8341509018428
 21
-2945.04110388123
 31
0.0
  0
LINE
  5
563
  8
回06-記事
  6
CONTINUOUS
 62
     5
 10
-144.970150901843
 20
-2945.04110388123
 30
0.0
 11
-142.970150901843
 21
-2945.04110388123
 31
0.0
  0
INSERT
  5
564
  8
回06-記事
  6
CONTINUOUS
 62
     5
  2
_OPEN
 10
-146.970150901843
 20
-2945.04110388123
 30
0.0
 41
2.0
 42
2.0
 43
2.0
 50
180.0
  0
INSERT
  5
565
  8
回06-記事
  6
CONTINUOUS
 62
     5
  2
_OPEN
 10
-147.8341509018428
 20
-2945.04110388123
 30
0.0
 41
2.0
 42
2.0
 43
2.0
  0
TEXT
  5
566
  8
回06-記事
  6
CONTINUOUS
 62
     5
 10
-157.0462829361988
 20
-2944.54110388123
 30
0.0
 40
3.0
  1
0.3
  0
POINT
  5
567
  8
DEFPOINTS
  6
CONTINUOUS
 62
     0
 10
-146.970150901843
 20
-2942.061445147
 30
0.0
  0
POINT
  5
568
  8
DEFPOINTS
  6
CONTINUOUS
 62
     0
 10
-147.8341509018428
 20
-2941.99511759704
 30
0.0
  0
POINT
  5
569
  8
DEFPOINTS
  6
CONTINUOUS
 62
     0
 10
-147.8341509018428
 20
-2945.04110388123
 30
0.0
  0
ENDBLK
  5
56B
  8
回07-寸法
  6
CONTINUOUS
 62
     7
  0
BLOCK
  8
回07-寸法
  2
*X53
 70
     1
 10
0.0
 20
0.0
 30
0.0
  3
*X53
  1

  0
TEXT
  5
591
  8
回07-寸法
  6
CONTINUOUS
 62
     5
 10
75.94205233876758
 20
-2843.657798544736
 30
0.0
 40
3.0
  1
4-R4
  7
Standard
  0
TEXT
  5
592
  8
回07-寸法
  6
CONTINUOUS
 62
     5
 10
85.24205233876758
 20
-2843.657798544736
 30
0.0
 40
2.00001
  1
±0.3
  7
Standard
  0
LINE
  5
593
  8
回07-寸法
  6
BYBLOCK
 62
     5
 10
74.03205233876758
 20
-2844.257798544735
 30
0.0
 11
74.39205233876759
 21
-2844.257798544735
 31
0.0
  0
POLYLINE
  5
594
  8
回07-寸法
  6
BYBLOCK
 62
     5
 66
     1
 10
0.0
 20
0.0
 30
0.0
  0
VERTEX
  5
595
  8
回07-寸法
  6
BYBLOCK
 62
     5
 10
71.84626727633788
 20
-2840.228093015968
 30
0.0
  0
VERTEX
  5
597
  8
回07-寸法
  6
BYBLOCK
 62
     5
 10
74.03205233876758
 20
-2844.257798544735
 30
0.0
  0
SEQEND
  5
596
  8
回07-寸法
  6
CONTINUOUS
 62
     7
  0
SOLID
  5
598
  8
回07-寸法
  6
CONTINUOUS
 62
     5
 10
71.55326220590119
 20
-2840.387024258364
 30
0.0
 11
70.89267982196247
 21
-2838.470062593348
 31
0.0
 12
72.13927234677456
 22
-2840.069161773572
 32
0.0
 13
72.13927234677456
 23
-2840.069161773572
 33
0.0
  0
POLYLINE
  5
599
  8
回07-寸法
  6
BYBLOCK
 62
     5
 66
     1
 10
0.0
 20
0.0
 30
0.0
  0
VERTEX
  5
59A
  8
回07-寸法
  6
BYBLOCK
 62
     5
 10
74.39205233876759
 20
-2844.257798544735
 30
0.0
  0
VERTEX
  5
59C
  8
回07-寸法
  6
BYBLOCK
 62
     5
 10
89.74207483876758
 20
-2844.257798544735
 30
0.0
  0
SEQEND
  5
59B
  8
回07-寸法
  6
CONTINUOUS
 62
     7
  0
ENDBLK
  5
59E
  8
回07-寸法
  6
CONTINUOUS
 62
     7
  0
BLOCK
  8
回07-寸法
  2
*X54
 70
     1
 10
0.0
 20
0.0
 30
0.0
  3
*X54
  1

  0
TEXT
  5
5A1
  8
回07-寸法
  6
CONTINUOUS
 62
     5
 10
-144.3680341570874
 20
-2860.126927364128
 30
0.0
 40
3.0
  1
Reference point
  7
Standard
  0
LINE
  5
5A2
  8
回07-寸法
  6
BYBLOCK
 62
     5
 10
-113.3580341570874
 20
-2860.876927364128
 30
0.0
 11
-113.7180341570874
 21
-2860.876927364128
 31
0.0
  0
POLYLINE
  5
5A3
  8
回07-寸法
  6
BYBLOCK
 62
     5
 66
     1
 10
0.0
 20
0.0
 30
0.0
  0
VERTEX
  5
5A4
  8
回07-寸法
  6
BYBLOCK
 62
     5
 10
-107.8065420044584
 20
-2835.332000810705
 30
0.0
  0
VERTEX
  5
5A6
  8
回07-寸法
  6
BYBLOCK
 62
     5
 10
-113.3580341570874
 20
-2860.876927364128
 30
0.0
  0
SEQEND
  5
5A5
  8
回07-寸法
  6
CONTINUOUS
 62
     7
  0
SOLID
  5
5A7
  8
回07-寸法
  6
CONTINUOUS
 62
     5
 10
-108.458002191132
 20
-2835.190423730555
 30
0.0
 11
-106.9570795235611
 21
-2831.423239690663
 31
0.0
 12
-107.1550818177848
 22
-2835.473577890854
 32
0.0
 13
-107.1550818177848
 23
-2835.473577890854
 33
0.0
  0
POLYLINE
  5
5A8
  8
回07-寸法
  6
BYBLOCK
 62
     5
 66
     1
 10
0.0
 20
0.0
 30
0.0
  0
VERTEX
  5
5A9
  8
回07-寸法
  6
BYBLOCK
 62
     5
 10
-143.9180341570874
 20
-2860.876927364128
 30
0.0
  0
VERTEX
  5
5AB
  8
回07-寸法
  6
BYBLOCK
 62
     5
 10
-113.7180341570874
 20
-2860.876927364128
 30
0.0
  0
SEQEND
  5
5AA
  8
回07-寸法
  6
CONTINUOUS
 62
     7
  0
ENDBLK
  5
5AD
  8
回07-寸法
  6
CONTINUOUS
 62
     7
  0
BLOCK
  8
回07-寸法
  2
*X55
 70
     1
 10
0.0
 20
0.0
 30
0.0
  3
*X55
  1

  0
TEXT
  5
5B3
  8
回06-記事
  6
CONTINUOUS
 62
     5
 10
86.92442984116986
 20
-2751.656019022928
 30
0.0
 40
5.0
  1
8
  7
Standard
  0
LINE
  5
5B4
  8
回06-記事
  6
BYBLOCK
 62
     5
 10
92.03442984116987
 20
-2752.656019022928
 30
0.0
 11
91.67442984116986
 21
-2752.656019022928
 31
0.0
  0
POLYLINE
  5
5B5
  8
回06-記事
  6
BYBLOCK
 62
     5
 66
     1
 10
0.0
 20
0.0
 30
0.0
  0
VERTEX
  5
5B6
  8
回06-記事
  6
BYBLOCK
 62
     5
 10
98.50167766478334
 20
-2757.993656991785
 30
0.0
  0
VERTEX
  5
5B8
  8
回06-記事
  6
BYBLOCK
 62
     5
 10
92.03442984116987
 20
-2752.656019022928
 30
0.0
  0
SEQEND
  5
5B7
  8
回07-寸法
  6
CONTINUOUS
 62
     7
  0
INSERT
  5
5B9
  8
回06-記事
  6
CONTINUOUS
 62
     5
  2
_DOT
 10
100.0441714700621
 20
-2759.266729205242
 30
0.0
 41
2.0
 42
2.0
 43
2.0
 50
320.4659920342114
  0
POLYLINE
  5
5BA
  8
回06-記事
  6
BYBLOCK
 62
     5
 66
     1
 10
0.0
 20
0.0
 30
0.0
  0
VERTEX
  5
5BB
  8
回06-記事
  6
BYBLOCK
 62
     5
 10
87.67442984116987
 20
-2752.656019022928
 30
0.0
  0
VERTEX
  5
5BD
  8
回06-記事
  6
BYBLOCK
 62
     5
 10
91.67442984116986
 20
-2752.656019022928
 30
0.0
  0
SEQEND
  5
5BC
  8
回07-寸法
  6
CONTINUOUS
 62
     7
  0
ENDBLK
  5
5BF
  8
回07-寸法
  6
CONTINUOUS
 62
     7
  0
BLOCK
  8
回07-寸法
  2
*X56
 70
     1
 10
0.0
 20
0.0
 30
0.0
  3
*X56
  1

  0
LINE
  5
5C2
  8
回06-記事
  6
BYBLOCK
 62
     5
 10
135.5019953639942
 20
-2841.999739850809
 30
0.0
 11
135.8619953639942
 21
-2841.999739850809
 31
0.0
  0
POLYLINE
  5
5C3
  8
回06-記事
  6
BYBLOCK
 62
     5
 66
     1
 10
0.0
 20
0.0
 30
0.0
  0
VERTEX
  5
5C4
  8
回06-記事
  6
BYBLOCK
 62
     5
 10
127.565592945619
 20
-2834.685088821332
 30
0.0
  0
VERTEX
  5
5C6
  8
回06-記事
  6
BYBLOCK
 62
     5
 10
135.5019953639942
 20
-2841.999739850809
 30
0.0
  0
SEQEND
  5
5C5
  8
回07-寸法
  6
CONTINUOUS
 62
     7
  0
INSERT
  5
5C7
  8
回06-記事
  6
CONTINUOUS
 62
     5
  2
_DOTSMALL
 10
127.565592945619
 20
-2834.685088821332
 30
0.0
 41
1.5
 42
1.5
 43
1.5
 50
137.3345282077879
  0
POLYLINE
  5
5C8
  8
回06-記事
  6
BYBLOCK
 62
     5
 66
     1
 10
0.0
 20
0.0
 30
0.0
  0
VERTEX
  5
5C9
  8
回06-記事
  6
BYBLOCK
 62
     5
 10
135.8619953639942
 20
-2841.999739850809
 30
0.0
  0
VERTEX
  5
5CB
  8
回06-記事
  6
BYBLOCK
 62
     5
 10
137.8619953639942
 20
-2841.999739850809
 30
0.0
  0
SEQEND
  5
5CA
  8
回07-寸法
  6
CONTINUOUS
 62
     7
  0
ENDBLK
  5
5CD
  8
回07-寸法
  6
CONTINUOUS
 62
     7
  0
BLOCK
  8
回07-寸法
  2
*X57
 70
     1
 10
0.0
 20
0.0
 30
0.0
  3
*X57
  1

  0
TEXT
  5
5D0
  8
回06-記事
  6
CONTINUOUS
 62
     5
 10
137.1119953639942
 20
-2840.99973985081
 30
0.0
 40
5.0
  1
7
  7
Standard
  0
LINE
  5
5D1
  8
回06-記事
  6
BYBLOCK
 62
     5
 10
135.5019953639942
 20
-2841.999739850809
 30
0.0
 11
135.8619953639942
 21
-2841.999739850809
 31
0.0
  0
POLYLINE
  5
5D2
  8
回06-記事
  6
BYBLOCK
 62
     5
 66
     1
 10
0.0
 20
0.0
 30
0.0
  0
VERTEX
  5
5D3
  8
回06-記事
  6
BYBLOCK
 62
     5
 10
122.5711350015019
 20
-2836.735924850359
 30
0.0
  0
VERTEX
  5
5D5
  8
回06-記事
  6
BYBLOCK
 62
     5
 10
135.5019953639942
 20
-2841.999739850809
 30
0.0
  0
SEQEND
  5
5D4
  8
回07-寸法
  6
CONTINUOUS
 62
     7
  0
INSERT
  5
5D6
  8
回06-記事
  6
CONTINUOUS
 62
     5
  2
_DOTSMALL
 10
122.5711350015019
 20
-2836.735924850359
 30
0.0
 41
1.5
 42
1.5
 43
1.5
 50
157.8500473735716
  0
POLYLINE
  5
5D7
  8
回06-記事
  6
BYBLOCK
 62
     5
 66
     1
 10
0.0
 20
0.0
 30
0.0
  0
VERTEX
  5
5D8
  8
回06-記事
  6
BYBLOCK
 62
     5
 10
135.8619953639942
 20
-2841.999739850809
 30
0.0
  0
VERTEX
  5
5DA
  8
回06-記事
  6
BYBLOCK
 62
     5
 10
139.8619953639942
 20
-2841.999739850809
 30
0.0
  0
SEQEND
  5
5D9
  8
回07-寸法
  6
CONTINUOUS
 62
     7
  0
ENDBLK
  5
5DC
  8
回07-寸法
  6
CONTINUOUS
 62
     7
  0
BLOCK
  8
回07-寸法
  2
*X58
 70
     1
 10
0.0
 20
0.0
 30
0.0
  3
*X58
  1

  0
LINE
  5
5DF
  8
回06-記事
  6
BYBLOCK
 62
     5
 10
90.95894998462449
 20
-2788.022515030021
 30
0.0
 11
90.5989499846245
 21
-2788.022515030021
 31
0.0
  0
POLYLINE
  5
5E0
  8
回06-記事
  6
BYBLOCK
 62
     5
 66
     1
 10
0.0
 20
0.0
 30
0.0
  0
VERTEX
  5
5E1
  8
回06-記事
  6
BYBLOCK
 62
     5
 10
107.0641647889698
 20
-2801.604271395944
 30
0.0
  0
VERTEX
  5
5E3
  8
回06-記事
  6
BYBLOCK
 62
     5
 10
90.95894998462449
 20
-2788.022515030021
 30
0.0
  0
SEQEND
  5
5E2
  8
回07-寸法
  6
CONTINUOUS
 62
     7
  0
INSERT
  5
5E4
  8
回06-記事
  6
CONTINUOUS
 62
     5
  2
_DOT
 10
108.5930761037918
 20
-2802.893624020872
 30
0.0
 41
2.0
 42
2.0
 43
2.0
 50
319.858589172338
  0
POLYLINE
  5
5E5
  8
回06-記事
  6
BYBLOCK
 62
     5
 66
     1
 10
0.0
 20
0.0
 30
0.0
  0
VERTEX
  5
5E6
  8
回06-記事
  6
BYBLOCK
 62
     5
 10
88.59894998462449
 20
-2788.022515030021
 30
0.0
  0
VERTEX
  5
5E8
  8
回06-記事
  6
BYBLOCK
 62
     5
 10
90.5989499846245
 20
-2788.022515030021
 30
0.0
  0
SEQEND
  5
5E7
  8
回07-寸法
  6
CONTINUOUS
 62
     7
  0
ENDBLK
  5
5EA
  8
回07-寸法
  6
CONTINUOUS
 62
     7
  0
BLOCK
  8
回07-寸法
  2
*X59
 70
     1
 10
0.0
 20
0.0
 30
0.0
  3
*X59
  1

  0
TEXT
  5
5ED
  8
回06-記事
  6
CONTINUOUS
 62
     5
 10
85.84477484245502
 20
-2787.022515030021
 30
0.0
 40
5.0
  1
6
  7
Standard
  0
LINE
  5
5EE
  8
回06-記事
  6
BYBLOCK
 62
     5
 10
90.95894998462449
 20
-2788.022515030021
 30
0.0
 11
90.5989499846245
 21
-2788.022515030021
 31
0.0
  0
POLYLINE
  5
5EF
  8
回06-記事
  6
BYBLOCK
 62
     5
 66
     1
 10
0.0
 20
0.0
 30
0.0
  0
VERTEX
  5
5F0
  8
回06-記事
  6
BYBLOCK
 62
     5
 10
120.9977819822455
 20
-2798.423582152369
 30
0.0
  0
VERTEX
  5
5F2
  8
回06-記事
  6
BYBLOCK
 62
     5
 10
90.95894998462449
 20
-2788.022515030021
 30
0.0
  0
SEQEND
  5
5F1
  8
回07-寸法
  6
CONTINUOUS
 62
     7
  0
INSERT
  5
5F3
  8
回06-記事
  6
CONTINUOUS
 62
     5
  2
_DOT
 10
122.8876955846419
 20
-2799.07797238417
 30
0.0
 41
2.0
 42
2.0
 43
2.0
 50
340.9013814173178
  0
POLYLINE
  5
5F4
  8
回06-記事
  6
BYBLOCK
 62
     5
 66
     1
 10
0.0
 20
0.0
 30
0.0
  0
VERTEX
  5
5F5
  8
回06-記事
  6
BYBLOCK
 62
     5
 10
86.59477484245501
 20
-2788.022515030021
 30
0.0
  0
VERTEX
  5
5F7
  8
回06-記事
  6
BYBLOCK
 62
     5
 10
90.5989499846245
 20
-2788.022515030021
 30
0.0
  0
SEQEND
  5
5F6
  8
回07-寸法
  6
CONTINUOUS
 62
     7
  0
ENDBLK
  5
5F9
  8
回07-寸法
  6
CONTINUOUS
 62
     7
  0
BLOCK
  8
回07-寸法
  2
*X60
 70
     1
 10
0.0
 20
0.0
 30
0.0
  3
*X60
  1

  0
LINE
  5
5FC
  8
回06-記事
  6
BYBLOCK
 62
     5
 10
115.4385949411874
 20
-2872.591343544327
 30
0.0
 11
115.0785949411873
 21
-2872.591343544327
 31
0.0
  0
POLYLINE
  5
5FD
  8
回06-記事
  6
BYBLOCK
 62
     5
 66
     1
 10
0.0
 20
0.0
 30
0.0
  0
VERTEX
  5
5FE
  8
回06-記事
  6
BYBLOCK
 62
     5
 10
119.1931919578485
 20
-2882.707052609123
 30
0.0
  0
VERTEX
  5
600
  8
回06-記事
  6
BYBLOCK
 62
     5
 10
115.4385949411874
 20
-2872.591343544327
 30
0.0
  0
SEQEND
  5
5FF
  8
回07-寸法
  6
CONTINUOUS
 62
     7
  0
INSERT
  5
601
  8
回06-記事
  6
CONTINUOUS
 62
     5
  2
_DOTSMALL
 10
119.1931919578485
 20
-2882.707052609123
 30
0.0
 41
2.0
 42
2.0
 43
2.0
 50
290.3631626698112
  0
POLYLINE
  5
602
  8
回06-記事
  6
BYBLOCK
 62
     5
 66
     1
 10
0.0
 20
0.0
 30
0.0
  0
VERTEX
  5
603
  8
回06-記事
  6
BYBLOCK
 62
     5
 10
113.0785949411873
 20
-2872.591343544327
 30
0.0
  0
VERTEX
  5
605
  8
回06-記事
  6
BYBLOCK
 62
     5
 10
115.0785949411873
 20
-2872.591343544327
 30
0.0
  0
SEQEND
  5
604
  8
回07-寸法
  6
CONTINUOUS
 62
     7
  0
ENDBLK
  5
607
  8
回07-寸法
  6
CONTINUOUS
 62
     7
  0
BLOCK
  8
回07-寸法
  2
*X61
 70
     1
 10
0.0
 20
0.0
 30
0.0
  3
*X61
  1

  0
TEXT
  5
60A
  8
回06-記事
  6
CONTINUOUS
 62
     5
 10
110.3285949411874
 20
-2871.591343544327
 30
0.0
 40
5.0
  1
5
  7
Standard
  0
LINE
  5
60B
  8
回06-記事
  6
BYBLOCK
 62
     5
 10
115.4385949411874
 20
-2872.591343544327
 30
0.0
 11
115.0785949411873
 21
-2872.591343544327
 31
0.0
  0
POLYLINE
  5
60C
  8
回06-記事
  6
BYBLOCK
 62
     5
 66
     1
 10
0.0
 20
0.0
 30
0.0
  0
VERTEX
  5
60D
  8
回06-記事
  6
BYBLOCK
 62
     5
 10
124.4228036112283
 20
-2882.707052609123
 30
0.0
  0
VERTEX
  5
60F
  8
回06-記事
  6
BYBLOCK
 62
     5
 10
115.4385949411874
 20
-2872.591343544327
 30
0.0
  0
SEQEND
  5
60E
  8
回07-寸法
  6
CONTINUOUS
 62
     7
  0
INSERT
  5
610
  8
回06-記事
  6
CONTINUOUS
 62
     5
  2
_DOTSMALL
 10
124.4228036112283
 20
-2882.707052609123
 30
0.0
 41
2.0
 42
2.0
 43
2.0
 50
311.6096966173753
  0
POLYLINE
  5
611
  8
回06-記事
  6
BYBLOCK
 62
     5
 66
     1
 10
0.0
 20
0.0
 30
0.0
  0
VERTEX
  5
612
  8
回06-記事
  6
BYBLOCK
 62
     5
 10
111.0785949411873
 20
-2872.591343544327
 30
0.0
  0
VERTEX
  5
614
  8
回06-記事
  6
BYBLOCK
 62
     5
 10
115.0785949411873
 20
-2872.591343544327
 30
0.0
  0
SEQEND
  5
613
  8
回07-寸法
  6
CONTINUOUS
 62
     7
  0
ENDBLK
  5
616
  8
回07-寸法
  6
CONTINUOUS
 62
     7
  0
BLOCK
  8
回07-寸法
  2
*X62
 70
     1
 10
0.0
 20
0.0
 30
0.0
  3
*X62
  1

  0
LINE
  5
619
  8
回06-記事
  6
BYBLOCK
 62
     5
 10
113.9833093848804
 20
-2844.536361338063
 30
0.0
 11
113.6233093848804
 21
-2844.536361338063
 31
0.0
  0
POLYLINE
  5
61A
  8
回06-記事
  6
BYBLOCK
 62
     5
 66
     1
 10
0.0
 20
0.0
 30
0.0
  0
VERTEX
  5
61B
  8
回06-記事
  6
BYBLOCK
 62
     5
 10
121.7036523277577
 20
-2850.920376980449
 30
0.0
  0
VERTEX
  5
61D
  8
回06-記事
  6
BYBLOCK
 62
     5
 10
113.9833093848804
 20
-2844.536361338063
 30
0.0
  0
SEQEND
  5
61C
  8
回07-寸法
  6
CONTINUOUS
 62
     7
  0
INSERT
  5
61E
  8
回06-記事
  6
CONTINUOUS
 62
     5
  2
_DOTSMALL
 10
121.7036523277577
 20
-2850.920376980449
 30
0.0
 41
2.0
 42
2.0
 43
2.0
 50
320.4123720497904
  0
POLYLINE
  5
61F
  8
回06-記事
  6
BYBLOCK
 62
     5
 66
     1
 10
0.0
 20
0.0
 30
0.0
  0
VERTEX
  5
620
  8
回06-記事
  6
BYBLOCK
 62
     5
 10
111.6233093848804
 20
-2844.536361338063
 30
0.0
  0
VERTEX
  5
622
  8
回06-記事
  6
BYBLOCK
 62
     5
 10
113.6233093848804
 20
-2844.536361338063
 30
0.0
  0
SEQEND
  5
621
  8
回07-寸法
  6
CONTINUOUS
 62
     7
  0
ENDBLK
  5
624
  8
回07-寸法
  6
CONTINUOUS
 62
     7
  0
BLOCK
  8
回07-寸法
  2
*X63
 70
     1
 10
0.0
 20
0.0
 30
0.0
  3
*X63
  1

  0
LINE
  5
627
  8
回06-記事
  6
BYBLOCK
 62
     5
 10
113.9833093848804
 20
-2844.536361338063
 30
0.0
 11
113.6233093848804
 21
-2844.536361338063
 31
0.0
  0
POLYLINE
  5
628
  8
回06-記事
  6
BYBLOCK
 62
     5
 66
     1
 10
0.0
 20
0.0
 30
0.0
  0
VERTEX
  5
629
  8
回06-記事
  6
BYBLOCK
 62
     5
 10
119.5073488053942
 20
-2837.420843136513
 30
0.0
  0
VERTEX
  5
62B
  8
回06-記事
  6
BYBLOCK
 62
     5
 10
113.9833093848804
 20
-2844.536361338063
 30
0.0
  0
SEQEND
  5
62A
  8
回07-寸法
  6
CONTINUOUS
 62
     7
  0
INSERT
  5
62C
  8
回06-記事
  6
CONTINUOUS
 62
     5
  2
_DOTSMALL
 10
119.5073488053942
 20
-2837.420843136513
 30
0.0
 41
2.0
 42
2.0
 43
2.0
 50
52.17649075912969
  0
POLYLINE
  5
62D
  8
回06-記事
  6
BYBLOCK
 62
     5
 66
     1
 10
0.0
 20
0.0
 30
0.0
  0
VERTEX
  5
62E
  8
回06-記事
  6
BYBLOCK
 62
     5
 10
111.6233093848804
 20
-2844.536361338063
 30
0.0
  0
VERTEX
  5
630
  8
回06-記事
  6
BYBLOCK
 62
     5
 10
113.6233093848804
 20
-2844.536361338063
 30
0.0
  0
SEQEND
  5
62F
  8
回07-寸法
  6
CONTINUOUS
 62
     7
  0
ENDBLK
  5
632
  8
回07-寸法
  6
CONTINUOUS
 62
     7
  0
BLOCK
  8
回07-寸法
  2
*X64
 70
     1
 10
0.0
 20
0.0
 30
0.0
  3
*X64
  1

  0
TEXT
  5
635
  8
回06-記事
  6
CONTINUOUS
 62
     5
 10
108.3733093848804
 20
-2843.536361338062
 30
0.0
 40
5.0
  1
4
  7
Standard
  0
LINE
  5
636
  8
回06-記事
  6
BYBLOCK
 62
     5
 10
113.9833093848804
 20
-2844.536361338063
 30
0.0
 11
113.6233093848804
 21
-2844.536361338063
 31
0.0
  0
POLYLINE
  5
637
  8
回06-記事
  6
BYBLOCK
 62
     5
 66
     1
 10
0.0
 20
0.0
 30
0.0
  0
VERTEX
  5
638
  8
回06-記事
  6
BYBLOCK
 62
     5
 10
126.7618065521139
 20
-2848.260370823638
 30
0.0
  0
VERTEX
  5
63A
  8
回06-記事
  6
BYBLOCK
 62
     5
 10
113.9833093848804
 20
-2844.536361338063
 30
0.0
  0
SEQEND
  5
639
  8
回07-寸法
  6
CONTINUOUS
 62
     7
  0
INSERT
  5
63B
  8
回06-記事
  6
CONTINUOUS
 62
     5
  2
_DOTSMALL
 10
126.7618065521139
 20
-2848.260370823638
 30
0.0
 41
2.0
 42
2.0
 43
2.0
 50
343.7524084690837
  0
POLYLINE
  5
63C
  8
回06-記事
  6
BYBLOCK
 62
     5
 66
     1
 10
0.0
 20
0.0
 30
0.0
  0
VERTEX
  5
63D
  8
回06-記事
  6
BYBLOCK
 62
     5
 10
109.1233093848804
 20
-2844.536361338063
 30
0.0
  0
VERTEX
  5
63F
  8
回06-記事
  6
BYBLOCK
 62
     5
 10
113.6233093848804
 20
-2844.536361338063
 30
0.0
  0
SEQEND
  5
63E
  8
回07-寸法
  6
CONTINUOUS
 62
     7
  0
ENDBLK
  5
641
  8
回07-寸法
  6
CONTINUOUS
 62
     7
  0
BLOCK
  8
回07-寸法
  2
*X65
 70
     1
 10
0.0
 20
0.0
 30
0.0
  3
*X65
  1

  0
LINE
  5
644
  8
回06-記事
  6
BYBLOCK
 62
     5
 10
116.264899142043
 20
-2858.962095777015
 30
0.0
 11
115.904899142043
 21
-2858.962095777015
 31
0.0
  0
POLYLINE
  5
645
  8
回06-記事
  6
BYBLOCK
 62
     5
 66
     1
 10
0.0
 20
0.0
 30
0.0
  0
VERTEX
  5
646
  8
回06-記事
  6
BYBLOCK
 62
     5
 10
120.589816598773
 20
-2865.806334221174
 30
0.0
  0
VERTEX
  5
648
  8
回06-記事
  6
BYBLOCK
 62
     5
 10
116.264899142043
 20
-2858.962095777015
 30
0.0
  0
SEQEND
  5
647
  8
回07-寸法
  6
CONTINUOUS
 62
     7
  0
INSERT
  5
649
  8
回06-記事
  6
CONTINUOUS
 62
     5
  2
_DOTSMALL
 10
120.589816598773
 20
-2865.806334221174
 30
0.0
 41
2.0
 42
2.0
 43
2.0
 50
302.2890504231494
  0
POLYLINE
  5
64A
  8
回06-記事
  6
BYBLOCK
 62
     5
 66
     1
 10
0.0
 20
0.0
 30
0.0
  0
VERTEX
  5
64B
  8
回06-記事
  6
BYBLOCK
 62
     5
 10
113.904899142043
 20
-2858.962095777015
 30
0.0
  0
VERTEX
  5
64D
  8
回06-記事
  6
BYBLOCK
 62
     5
 10
115.904899142043
 20
-2858.962095777015
 30
0.0
  0
SEQEND
  5
64C
  8
回07-寸法
  6
CONTINUOUS
 62
     7
  0
ENDBLK
  5
64F
  8
回07-寸法
  6
CONTINUOUS
 62
     7
  0
BLOCK
  8
回07-寸法
  2
*X66
 70
     1
 10
0.0
 20
0.0
 30
0.0
  3
*X66
  1

  0
TEXT
  5
652
  8
回06-記事
  6
CONTINUOUS
 62
     5
 10
111.5148991420427
 20
-2857.962095777015
 30
0.0
 40
5.0
  1
3
  7
Standard
  0
LINE
  5
653
  8
回06-記事
  6
BYBLOCK
 62
     5
 10
116.6248991420427
 20
-2858.962095777015
 30
0.0
 11
116.2648991420427
 21
-2858.962095777015
 31
0.0
  0
POLYLINE
  5
654
  8
回06-記事
  6
BYBLOCK
 62
     5
 66
     1
 10
0.0
 20
0.0
 30
0.0
  0
VERTEX
  5
655
  8
回06-記事
  6
BYBLOCK
 62
     5
 10
125.5859186329246
 20
-2862.368490218592
 30
0.0
  0
VERTEX
  5
657
  8
回06-記事
  6
BYBLOCK
 62
     5
 10
116.6248991420427
 20
-2858.962095777015
 30
0.0
  0
SEQEND
  5
656
  8
回07-寸法
  6
CONTINUOUS
 62
     7
  0
INSERT
  5
658
  8
回06-記事
  6
CONTINUOUS
 62
     5
  2
_DOTSMALL
 10
125.5859186329246
 20
-2862.368490218592
 30
0.0
 41
2.0
 42
2.0
 43
2.0
 50
339.1864654492164
  0
POLYLINE
  5
659
  8
回06-記事
  6
BYBLOCK
 62
     5
 66
     1
 10
0.0
 20
0.0
 30
0.0
  0
VERTEX
  5
65A
  8
回06-記事
  6
BYBLOCK
 62
     5
 10
112.2648991420427
 20
-2858.962095777015
 30
0.0
  0
VERTEX
  5
65C
  8
回06-記事
  6
BYBLOCK
 62
     5
 10
116.2648991420427
 20
-2858.962095777015
 30
0.0
  0
SEQEND
  5
65B
  8
回07-寸法
  6
CONTINUOUS
 62
     7
  0
ENDBLK
  5
65E
  8
回07-寸法
  6
CONTINUOUS
 62
     7
  0
BLOCK
  8
回07-寸法
  2
*X67
 70
     1
 10
0.0
 20
0.0
 30
0.0
  3
*X67
  1

  0
TEXT
  5
661
  8
回06-記事
  6
CONTINUOUS
 62
     5
 10
141.8088990789034
 20
-2765.652913761854
 30
0.0
 40
5.0
  1
2
  7
Standard
  0
LINE
  5
662
  8
回06-記事
  6
BYBLOCK
 62
     5
 10
140.1988990789034
 20
-2766.652913761854
 30
0.0
 11
140.5588990789034
 21
-2766.652913761854
 31
0.0
  0
POLYLINE
  5
663
  8
回06-記事
  6
BYBLOCK
 62
     5
 66
     1
 10
0.0
 20
0.0
 30
0.0
  0
VERTEX
  5
664
  8
回06-記事
  6
BYBLOCK
 62
     5
 10
132.3219385615566
 20
-2774.729156403632
 30
0.0
  0
VERTEX
  5
666
  8
回06-記事
  6
BYBLOCK
 62
     5
 10
140.1988990789034
 20
-2766.652913761854
 30
0.0
  0
SEQEND
  5
665
  8
回07-寸法
  6
CONTINUOUS
 62
     7
  0
INSERT
  5
667
  8
回06-記事
  6
CONTINUOUS
 62
     5
  2
_DOT
 10
130.9254998332519
 20
-2776.160924149495
 30
0.0
 41
2.0
 42
2.0
 43
2.0
 50
225.7156826568161
  0
POLYLINE
  5
668
  8
回06-記事
  6
BYBLOCK
 62
     5
 66
     1
 10
0.0
 20
0.0
 30
0.0
  0
VERTEX
  5
669
  8
回06-記事
  6
BYBLOCK
 62
     5
 10
140.5588990789034
 20
-2766.652913761854
 30
0.0
  0
VERTEX
  5
66B
  8
回06-記事
  6
BYBLOCK
 62
     5
 10
144.5600046967044
 20
-2766.652913761854
 30
0.0
  0
SEQEND
  5
66A
  8
回07-寸法
  6
CONTINUOUS
 62
     7
  0
ENDBLK
  5
66D
  8
回07-寸法
  6
CONTINUOUS
 62
     7
  0
BLOCK
  8
回07-寸法
  2
*X68
 70
     1
 10
0.0
 20
0.0
 30
0.0
  3
*X68
  1

  0
TEXT
  5
670
  8
回06-記事
  6
CONTINUOUS
 62
     5
 10
141.1666401912331
 20
-2743.790590589362
 30
0.0
 40
5.0
  1
1
  7
Standard
  0
LINE
  5
671
  8
回06-記事
  6
BYBLOCK
 62
     5
 10
139.5566401912331
 20
-2744.790590589362
 30
0.0
 11
139.9166401912331
 21
-2744.790590589362
 31
0.0
  0
POLYLINE
  5
672
  8
回06-記事
  6
BYBLOCK
 62
     5
 66
     1
 10
0.0
 20
0.0
 30
0.0
  0
VERTEX
  5
673
  8
回06-記事
  6
BYBLOCK
 62
     5
 10
117.8764976291986
 20
-2758.046506146096
 30
0.0
  0
VERTEX
  5
675
  8
回06-記事
  6
BYBLOCK
 62
     5
 10
139.5566401912331
 20
-2744.790590589362
 30
0.0
  0
SEQEND
  5
674
  8
回07-寸法
  6
CONTINUOUS
 62
     7
  0
INSERT
  5
676
  8
回06-記事
  6
CONTINUOUS
 62
     5
  2
_DOT
 10
116.1701770241754
 20
-2759.089803799152
 30
0.0
 41
2.0
 42
2.0
 43
2.0
 50
211.4429166438124
  0
POLYLINE
  5
677
  8
回06-記事
  6
BYBLOCK
 62
     5
 66
     1
 10
0.0
 20
0.0
 30
0.0
  0
VERTEX
  5
678
  8
回06-記事
  6
BYBLOCK
 62
     5
 10
139.9166401912331
 20
-2744.790590589362
 30
0.0
  0
VERTEX
  5
67A
  8
回06-記事
  6
BYBLOCK
 62
     5
 10
142.9166401912331
 20
-2744.790590589362
 30
0.0
  0
SEQEND
  5
679
  8
回07-寸法
  6
CONTINUOUS
 62
     7
  0
ENDBLK
  5
67C
  8
回07-寸法
  6
CONTINUOUS
 62
     7
  0
BLOCK
  8
回07-寸法
  2
*X69
 70
     1
 10
0.0
 20
0.0
 30
0.0
  3
*X69
  1

  0
LINE
  5
67F
  8
回06-記事
  6
CONTINUOUS
 62
     0
 10
127.1355156827231
 20
-2832.975266647128
 30
0.0
 11
128.6875426391885
 21
-2831.423239690664
 31
0.0
1001
GradientColor1ACI
1070
     5
1001
GradientColor2ACI
1070
     2
1001
ACAD
1010
0.0
1020
0.0
1030
0.0
  0
LINE
  5
680
  8
回06-記事
  6
CONTINUOUS
 62
     0
 10
127.1355156827234
 20
-2834.771317871342
 30
0.0
 11
127.9355156827236
 21
-2833.971317871342
 31
0.0
1001
GradientColor1ACI
1070
     5
1001
GradientColor2ACI
1070
     2
1001
ACAD
1010
0.0
1020
0.0
1030
0.0
  0
LINE
  5
681
  8
回06-記事
  6
CONTINUOUS
 62
     0
 10
129.6835938634018
 20
-2832.223239690664
 30
0.0
 11
130.4835938634018
 21
-2831.423239690664
 31
0.0
1001
GradientColor1ACI
1070
     5
1001
GradientColor2ACI
1070
     2
1001
ACAD
1010
0.0
1020
0.0
1030
0.0
  0
LINE
  5
682
  8
回06-記事
  6
CONTINUOUS
 62
     0
 10
127.1355156827231
 20
-2836.567369095556
 30
0.0
 11
127.9355156827231
 21
-2835.767369095556
 31
0.0
1001
GradientColor1ACI
1070
     5
1001
GradientColor2ACI
1070
     2
1001
ACAD
1010
0.0
1020
0.0
1030
0.0
  0
LINE
  5
683
  8
回06-記事
  6
CONTINUOUS
 62
     0
 10
131.4796450876155
 20
-2832.223239690664
 30
0.0
 11
132.2796450876154
 21
-2831.423239690664
 31
0.0
1001
GradientColor1ACI
1070
     5
1001
GradientColor2ACI
1070
     2
1001
ACAD
1010
0.0
1020
0.0
1030
0.0
  0
LINE
  5
684
  8
回06-記事
  6
CONTINUOUS
 62
     0
 10
134.3355156827239
 20
-2829.367369095556
 30
0.0
 11
135.1355156827243
 21
-2828.567369095555
 31
0.0
1001
GradientColor1ACI
1070
     5
1001
GradientColor2ACI
1070
     2
1001
ACAD
1010
0.0
1020
0.0
1030
0.0
  0
LINE
  5
685
  8
回06-記事
  6
CONTINUOUS
 62
     0
 10
127.1355156827229
 20
-2838.36342031977
 30
0.0
 11
127.9355156827233
 21
-2837.56342031977
 31
0.0
1001
GradientColor1ACI
1070
     5
1001
GradientColor2ACI
1070
     2
1001
ACAD
1010
0.0
1020
0.0
1030
0.0
  0
LINE
  5
686
  8
回06-記事
  6
CONTINUOUS
 62
     0
 10
133.2756963118287
 20
-2832.223239690664
 30
0.0
 11
134.0756963118289
 21
-2831.423239690665
 31
0.0
1001
GradientColor1ACI
1070
     5
1001
GradientColor2ACI
1070
     2
1001
ACAD
1010
0.0
1020
0.0
1030
0.0
  0
LINE
  5
687
  8
回06-記事
  6
CONTINUOUS
 62
     0
 10
134.3355156827236
 20
-2831.163420319769
 30
0.0
 11
135.1355156827238
 21
-2830.363420319769
 31
0.0
1001
GradientColor1ACI
1070
     5
1001
GradientColor2ACI
1070
     2
1001
ACAD
1010
0.0
1020
0.0
1030
0.0
  0
LINE
  5
688
  8
回06-記事
  6
CONTINUOUS
 62
     0
 10
127.8717475360428
 20
-2839.423239690664
 30
0.0
 11
127.9355156827233
 21
-2839.359471543983
 31
0.0
1001
GradientColor1ACI
1070
     5
1001
GradientColor2ACI
1070
     2
1001
ACAD
1010
0.0
1020
0.0
1030
0.0
  0
LINE
  5
689
  8
回06-記事
  6
CONTINUOUS
 62
     0
 10
135.0717475360428
 20
-2832.223239690664
 30
0.0
 11
135.1355156827241
 21
-2832.159471543983
 31
0.0
1001
GradientColor1ACI
1070
     5
1001
GradientColor2ACI
1070
     2
1001
ACAD
1010
0.0
1020
0.0
1030
0.0
  0
ENDBLK
  5
68B
  8
回07-寸法
  6
CONTINUOUS
 62
     7
  0
BLOCK
  8
回07-寸法
  2
*X70
 70
     1
 10
0.0
 20
0.0
 30
0.0
  3
*X70
  1

  0
LINE
  5
68E
  8
回06-記事
  6
CONTINUOUS
 62
     0
 10
121.9774223892624
 20
-2832.745206267949
 30
0.0
 11
123.2993889665464
 21
-2831.423239690665
 31
0.0
1001
GradientColor1ACI
1070
     5
1001
GradientColor2ACI
1070
     2
1001
ACAD
1010
0.0
1020
0.0
1030
0.0
  0
LINE
  5
68F
  8
回06-記事
  6
CONTINUOUS
 62
     0
 10
121.9774223892622
 20
-2834.541257492162
 30
0.0
 11
122.7774223892623
 21
-2833.741257492162
 31
0.0
1001
GradientColor1ACI
1070
     5
1001
GradientColor2ACI
1070
     2
1001
ACAD
1010
0.0
1020
0.0
1030
0.0
  0
LINE
  5
690
  8
回06-記事
  6
CONTINUOUS
 62
     0
 10
124.2954401907606
 20
-2832.223239690664
 30
0.0
 11
125.0954401907607
 21
-2831.423239690664
 31
0.0
1001
GradientColor1ACI
1070
     5
1001
GradientColor2ACI
1070
     2
1001
ACAD
1010
0.0
1020
0.0
1030
0.0
  0
LINE
  5
691
  8
回06-記事
  6
CONTINUOUS
 62
     0
 10
121.9774223892624
 20
-2836.337308716375
 30
0.0
 11
122.7774223892626
 21
-2835.537308716375
 31
0.0
1001
GradientColor1ACI
1070
     5
1001
GradientColor2ACI
1070
     2
1001
ACAD
1010
0.0
1020
0.0
1030
0.0
  0
LINE
  5
692
  8
回06-記事
  6
CONTINUOUS
 62
     0
 10
121.9774223892622
 20
-2838.13335994059
 30
0.0
 11
122.7774223892626
 21
-2837.333359940589
 31
0.0
1001
GradientColor1ACI
1070
     5
1001
GradientColor2ACI
1070
     2
1001
ACAD
1010
0.0
1020
0.0
1030
0.0
  0
LINE
  5
693
  8
回06-記事
  6
CONTINUOUS
 62
     0
 10
122.4835938634011
 20
-2839.423239690665
 30
0.0
 11
122.7774223892623
 21
-2839.129411164803
 31
0.0
1001
GradientColor1ACI
1070
     5
1001
GradientColor2ACI
1070
     2
1001
ACAD
1010
0.0
1020
0.0
1030
0.0
  0
ENDBLK
  5
695
  8
回07-寸法
  6
CONTINUOUS
 62
     7
  0
BLOCK
  8
回07-寸法
  2
*X71
 70
     1
 10
0.0
 20
0.0
 30
0.0
  3
*X71
  1

  0
LINE
  5
7F9
  8
回08-CG
  6
CONTINUOUS
 62
     7
 10
-116.0070795235613
 20
-2711.518107445267
 30
0.0
 11
-112.1996835190298
 21
-2707.710711440735
 31
0.0
1001
GradientColor1ACI
1070
     5
1001
GradientColor2ACI
1070
     2
1001
ACAD
1010
0.0
1020
0.0
1030
0.0
  0
LINE
  5
7FA
  8
回08-CG
  6
CONTINUOUS
 62
     7
 10
-116.0070795235613
 20
-2715.110209893695
 30
0.0
 11
-108.607581070602
 21
-2707.710711440735
 31
0.0
1001
GradientColor1ACI
1070
     5
1001
GradientColor2ACI
1070
     2
1001
ACAD
1010
0.0
1020
0.0
1030
0.0
  0
LINE
  5
7FB
  8
回08-CG
  6
CONTINUOUS
 62
     7
 10
-116.007079523561
 20
-2718.702312342122
 30
0.0
 11
-105.0154786221744
 21
-2707.710711440736
 31
0.0
1001
GradientColor1ACI
1070
     5
1001
GradientColor2ACI
1070
     2
1001
ACAD
1010
0.0
1020
0.0
1030
0.0
  0
LINE
  5
7FC
  8
回08-CG
  6
CONTINUOUS
 62
     7
 10
-116.0070795235613
 20
-2722.29441479055
 30
0.0
 11
-101.4233761737464
 21
-2707.710711440735
 31
0.0
1001
GradientColor1ACI
1070
     5
1001
GradientColor2ACI
1070
     2
1001
ACAD
1010
0.0
1020
0.0
1030
0.0
  0
LINE
  5
7FD
  8
回08-CG
  6
CONTINUOUS
 62
     7
 10
-116.0070795235613
 20
-2725.886517238978
 30
0.0
 11
-97.83127372531863
 21
-2707.710711440735
 31
0.0
1001
GradientColor1ACI
1070
     5
1001
GradientColor2ACI
1070
     2
1001
ACAD
1010
0.0
1020
0.0
1030
0.0
  0
LINE
  5
7FE
  8
回08-CG
  6
CONTINUOUS
 62
     7
 10
-116.0070795235613
 20
-2729.478619687406
 30
0.0
 11
-94.23917127689106
 21
-2707.710711440736
 31
0.0
1001
GradientColor1ACI
1070
     5
1001
GradientColor2ACI
1070
     2
1001
ACAD
1010
0.0
1020
0.0
1030
0.0
  0
LINE
  5
7FF
  8
回08-CG
  6
CONTINUOUS
 62
     7
 10
-116.007079523561
 20
-2733.070722135833
 30
0.0
 11
-90.64706882846303
 21
-2707.710711440735
 31
0.0
1001
GradientColor1ACI
1070
     5
1001
GradientColor2ACI
1070
     2
1001
ACAD
1010
0.0
1020
0.0
1030
0.0
  0
LINE
  5
800
  8
回08-CG
  6
CONTINUOUS
 62
     7
 10
-116.007079523561
 20
-2736.662824584261
 30
0.0
 11
-87.05496638003523
 21
-2707.710711440735
 31
0.0
1001
GradientColor1ACI
1070
     5
1001
GradientColor2ACI
1070
     2
1001
ACAD
1010
0.0
1020
0.0
1030
0.0
  0
LINE
  5
801
  8
回08-CG
  6
CONTINUOUS
 62
     7
 10
-116.007079523561
 20
-2740.254927032689
 30
0.0
 11
-83.46286393160744
 21
-2707.710711440735
 31
0.0
1001
GradientColor1ACI
1070
     5
1001
GradientColor2ACI
1070
     2
1001
ACAD
1010
0.0
1020
0.0
1030
0.0
  0
LINE
  5
802
  8
回08-CG
  6
CONTINUOUS
 62
     7
 10
-116.007079523561
 20
-2743.847029481117
 30
0.0
 11
-79.87076148317988
 21
-2707.710711440736
 31
0.0
1001
GradientColor1ACI
1070
     5
1001
GradientColor2ACI
1070
     2
1001
ACAD
1010
0.0
1020
0.0
1030
0.0
  0
LINE
  5
803
  8
回08-CG
  6
CONTINUOUS
 62
     7
 10
-116.0070795235613
 20
-2747.439131929545
 30
0.0
 11
-99.00707952356107
 21
-2730.439131929544
 31
0.0
1001
GradientColor1ACI
1070
     5
1001
GradientColor2ACI
1070
     2
1001
ACAD
1010
0.0
1020
0.0
1030
0.0
  0
LINE
  5
804
  8
回08-CG
  6
CONTINUOUS
 62
     7
 10
-96.25865903475256
 20
-2727.690711440736
 30
0.0
 11
-76.27865903475186
 21
-2707.710711440735
 31
0.0
1001
GradientColor1ACI
1070
     5
1001
GradientColor2ACI
1070
     2
1001
ACAD
1010
0.0
1020
0.0
1030
0.0
  0
LINE
  5
805
  8
回08-CG
  6
CONTINUOUS
 62
     7
 10
-116.0070795235613
 20
-2751.031234377972
 30
0.0
 11
-99.00707952356151
 21
-2734.031234377973
 31
0.0
1001
GradientColor1ACI
1070
     5
1001
GradientColor2ACI
1070
     2
1001
ACAD
1010
0.0
1020
0.0
1030
0.0
  0
LINE
  5
806
  8
回08-CG
  6
CONTINUOUS
 62
     7
 10
-92.66655658632453
 20
-2727.690711440736
 30
0.0
 11
-72.68655658632406
 21
-2707.710711440735
 31
0.0
1001
GradientColor1ACI
1070
     5
1001
GradientColor2ACI
1070
     2
1001
ACAD
1010
0.0
1020
0.0
1030
0.0
  0
LINE
  5
807
  8
回08-CG
  6
CONTINUOUS
 62
     7
 10
-116.0070795235613
 20
-2754.6233368264
 30
0.0
 11
-99.00707952356107
 21
-2737.6233368264
 31
0.0
1001
GradientColor1ACI
1070
     5
1001
GradientColor2ACI
1070
     2
1001
ACAD
1010
0.0
1020
0.0
1030
0.0
  0
LINE
  5
808
  8
回08-CG
  6
CONTINUOUS
 62
     7
 10
-89.07445413789696
 20
-2727.690711440736
 30
0.0
 11
-69.09445413789649
 21
-2707.710711440736
 31
0.0
1001
GradientColor1ACI
1070
     5
1001
GradientColor2ACI
1070
     2
1001
ACAD
1010
0.0
1020
0.0
1030
0.0
  0
LINE
  5
809
  8
回08-CG
  6
CONTINUOUS
 62
     7
 10
-116.0070795235613
 20
-2758.215439274828
 30
0.0
 11
-99.00707952356128
 21
-2741.215439274828
 31
0.0
1001
GradientColor1ACI
1070
     5
1001
GradientColor2ACI
1070
     2
1001
ACAD
1010
0.0
1020
0.0
1030
0.0
  0
LINE
  5
80A
  8
回08-CG
  6
CONTINUOUS
 62
     7
 10
-85.48235168946893
 20
-2727.690711440736
 30
0.0
 11
-65.50235168946847
 21
-2707.710711440735
 31
0.0
1001
GradientColor1ACI
1070
     5
1001
GradientColor2ACI
1070
     2
1001
ACAD
1010
0.0
1020
0.0
1030
0.0
  0
LINE
  5
80B
  8
回08-CG
  6
CONTINUOUS
 62
     7
 10
-116.0070795235613
 20
-2761.807541723256
 30
0.0
 11
-99.00707952356128
 21
-2744.807541723256
 31
0.0
1001
GradientColor1ACI
1070
     5
1001
GradientColor2ACI
1070
     2
1001
ACAD
1010
0.0
1020
0.0
1030
0.0
  0
LINE
  5
80C
  8
回08-CG
  6
CONTINUOUS
 62
     7
 10
-81.89024924104137
 20
-2727.690711440736
 30
0.0
 11
-61.91024924104067
 21
-2707.710711440735
 31
0.0
1001
GradientColor1ACI
1070
     5
1001
GradientColor2ACI
1070
     2
1001
ACAD
1010
0.0
1020
0.0
1030
0.0
  0
LINE
  5
80D
  8
回08-CG
  6
CONTINUOUS
 62
     7
 10
-116.007079523561
 20
-2765.399644171683
 30
0.0
 11
-99.00707952356128
 21
-2748.399644171684
 31
0.0
1001
GradientColor1ACI
1070
     5
1001
GradientColor2ACI
1070
     2
1001
ACAD
1010
0.0
1020
0.0
1030
0.0
  0
LINE
  5
80E
  8
回08-CG
  6
CONTINUOUS
 62
     7
 10
-78.29814679261358
 20
-2727.690711440736
 30
0.0
 11
-58.31814679261288
 21
-2707.710711440735
 31
0.0
1001
GradientColor1ACI
1070
     5
1001
GradientColor2ACI
1070
     2
1001
ACAD
1010
0.0
1020
0.0
1030
0.0
  0
LINE
  5
80F
  8
回08-CG
  6
CONTINUOUS
 62
     7
 10
-116.007079523561
 20
-2768.991746620111
 30
0.0
 11
-99.00707952356128
 21
-2751.991746620112
 31
0.0
1001
GradientColor1ACI
1070
     5
1001
GradientColor2ACI
1070
     2
1001
ACAD
1010
0.0
1020
0.0
1030
0.0
  0
LINE
  5
810
  8
回08-CG
  6
CONTINUOUS
 62
     7
 10
-74.70604434418601
 20
-2727.690711440736
 30
0.0
 11
-54.72604434418531
 21
-2707.710711440736
 31
0.0
1001
GradientColor1ACI
1070
     5
1001
GradientColor2ACI
1070
     2
1001
ACAD
1010
0.0
1020
0.0
1030
0.0
  0
LINE
  5
811
  8
回08-CG
  6
CONTINUOUS
 62
     7
 10
-116.007079523561
 20
-2772.583849068539
 30
0.0
 11
-99.00707952356128
 21
-2755.58384906854
 31
0.0
1001
GradientColor1ACI
1070
     5
1001
GradientColor2ACI
1070
     2
1001
ACAD
1010
0.0
1020
0.0
1030
0.0
  0
LINE
  5
812
  8
回08-CG
  6
CONTINUOUS
 62
     7
 10
-71.11394189575799
 20
-2727.690711440736
 30
0.0
 11
-51.13394189575728
 21
-2707.710711440735
 31
0.0
1001
GradientColor1ACI
1070
     5
1001
GradientColor2ACI
1070
     2
1001
ACAD
1010
0.0
1020
0.0
1030
0.0
  0
LINE
  5
813
  8
回08-CG
  6
CONTINUOUS
 62
     7
 10
-116.0070795235613
 20
-2776.175951516967
 30
0.0
 11
-99.00707952356128
 21
-2759.175951516967
 31
0.0
1001
GradientColor1ACI
1070
     5
1001
GradientColor2ACI
1070
     2
1001
ACAD
1010
0.0
1020
0.0
1030
0.0
  0
LINE
  5
814
  8
回08-CG
  6
CONTINUOUS
 62
     7
 10
-67.52183944733019
 20
-2727.690711440736
 30
0.0
 11
-47.54183944732949
 21
-2707.710711440735
 31
0.0
1001
GradientColor1ACI
1070
     5
1001
GradientColor2ACI
1070
     2
1001
ACAD
1010
0.0
1020
0.0
1030
0.0
  0
LINE
  5
815
  8
回08-CG
  6
CONTINUOUS
 62
     7
 10
-116.0070795235613
 20
-2779.768053965395
 30
0.0
 11
-99.00707952356151
 21
-2762.768053965395
 31
0.0
1001
GradientColor1ACI
1070
     5
1001
GradientColor2ACI
1070
     2
1001
ACAD
1010
0.0
1020
0.0
1030
0.0
  0
LINE
  5
816
  8
回08-CG
  6
CONTINUOUS
 62
     7
 10
-63.9297369989024
 20
-2727.690711440736
 30
0.0
 11
-43.94973699890193
 21
-2707.710711440736
 31
0.0
1001
GradientColor1ACI
1070
     5
1001
GradientColor2ACI
1070
     2
1001
ACAD
1010
0.0
1020
0.0
1030
0.0
  0
LINE
  5
817
  8
回08-CG
  6
CONTINUOUS
 62
     7
 10
-116.007079523561
 20
-2783.360156413822
 30
0.0
 11
-99.00707952356107
 21
-2766.360156413822
 31
0.0
1001
GradientColor1ACI
1070
     5
1001
GradientColor2ACI
1070
     2
1001
ACAD
1010
0.0
1020
0.0
1030
0.0
  0
LINE
  5
818
  8
回08-CG
  6
CONTINUOUS
 62
     7
 10
-60.33763455047438
 20
-2727.690711440736
 30
0.0
 11
-40.3576345504739
 21
-2707.710711440735
 31
0.0
1001
GradientColor1ACI
1070
     5
1001
GradientColor2ACI
1070
     2
1001
ACAD
1010
0.0
1020
0.0
1030
0.0
  0
LINE
  5
819
  8
回08-CG
  6
CONTINUOUS
 62
     7
 10
-116.007079523561
 20
-2786.95225886225
 30
0.0
 11
-99.00707952356174
 21
-2769.952258862251
 31
0.0
1001
GradientColor1ACI
1070
     5
1001
GradientColor2ACI
1070
     2
1001
ACAD
1010
0.0
1020
0.0
1030
0.0
  0
LINE
  5
81A
  8
回08-CG
  6
CONTINUOUS
 62
     7
 10
-56.74553210204681
 20
-2727.690711440736
 30
0.0
 11
-36.76553210204611
 21
-2707.710711440735
 31
0.0
1001
GradientColor1ACI
1070
     5
1001
GradientColor2ACI
1070
     2
1001
ACAD
1010
0.0
1020
0.0
1030
0.0
  0
LINE
  5
81B
  8
回08-CG
  6
CONTINUOUS
 62
     7
 10
-116.0070795235608
 20
-2790.544361310677
 30
0.0
 11
-99.00707952356128
 21
-2773.544361310678
 31
0.0
1001
GradientColor1ACI
1070
     5
1001
GradientColor2ACI
1070
     2
1001
ACAD
1010
0.0
1020
0.0
1030
0.0
  0
LINE
  5
81C
  8
回08-CG
  6
CONTINUOUS
 62
     7
 10
-53.15342965361878
 20
-2727.690711440736
 30
0.0
 11
-33.17342965361831
 21
-2707.710711440735
 31
0.0
1001
GradientColor1ACI
1070
     5
1001
GradientColor2ACI
1070
     2
1001
ACAD
1010
0.0
1020
0.0
1030
0.0
  0
LINE
  5
81D
  8
回08-CG
  6
CONTINUOUS
 62
     7
 10
-116.0070795235608
 20
-2794.136463759105
 30
0.0
 11
-99.00707952356107
 21
-2777.136463759106
 31
0.0
1001
GradientColor1ACI
1070
     5
1001
GradientColor2ACI
1070
     2
1001
ACAD
1010
0.0
1020
0.0
1030
0.0
  0
LINE
  5
81E
  8
回08-CG
  6
CONTINUOUS
 62
     7
 10
-49.56132720519144
 20
-2727.690711440736
 30
0.0
 11
-29.58132720519074
 21
-2707.710711440736
 31
0.0
1001
GradientColor1ACI
1070
     5
1001
GradientColor2ACI
1070
     2
1001
ACAD
1010
0.0
1020
0.0
1030
0.0
  0
LINE
  5
81F
  8
回08-CG
  6
CONTINUOUS
 62
     7
 10
-116.007079523561
 20
-2797.728566207533
 30
0.0
 11
-99.00707952356128
 21
-2780.728566207534
 31
0.0
1001
GradientColor1ACI
1070
     5
1001
GradientColor2ACI
1070
     2
1001
ACAD
1010
0.0
1020
0.0
1030
0.0
  0
LINE
  5
820
  8
回08-CG
  6
CONTINUOUS
 62
     7
 10
-45.96922475676342
 20
-2727.690711440736
 30
0.0
 11
-25.98922475676295
 21
-2707.710711440736
 31
0.0
1001
GradientColor1ACI
1070
     5
1001
GradientColor2ACI
1070
     2
1001
ACAD
1010
0.0
1020
0.0
1030
0.0
  0
LINE
  5
821
  8
回08-CG
  6
CONTINUOUS
 62
     7
 10
-116.0070795235613
 20
-2801.320668655962
 30
0.0
 11
-99.00707952356107
 21
-2784.320668655961
 31
0.0
1001
GradientColor1ACI
1070
     5
1001
GradientColor2ACI
1070
     2
1001
ACAD
1010
0.0
1020
0.0
1030
0.0
  0
LINE
  5
822
  8
回08-CG
  6
CONTINUOUS
 62
     7
 10
-42.37712230833539
 20
-2727.690711440736
 30
0.0
 11
-22.39712230833493
 21
-2707.710711440735
 31
0.0
1001
GradientColor1ACI
1070
     5
1001
GradientColor2ACI
1070
     2
1001
ACAD
1010
0.0
1020
0.0
1030
0.0
  0
LINE
  5
823
  8
回08-CG
  6
CONTINUOUS
 62
     7
 10
-116.0070795235613
 20
-2804.912771104389
 30
0.0
 11
-99.00707952356128
 21
-2787.91277110439
 31
0.0
1001
GradientColor1ACI
1070
     5
1001
GradientColor2ACI
1070
     2
1001
ACAD
1010
0.0
1020
0.0
1030
0.0
  0
LINE
  5
824
  8
回08-CG
  6
CONTINUOUS
 62
     7
 10
-38.78501985990784
 20
-2727.690711440736
 30
0.0
 11
-18.80501985990736
 21
-2707.710711440736
 31
0.0
1001
GradientColor1ACI
1070
     5
1001
GradientColor2ACI
1070
     2
1001
ACAD
1010
0.0
1020
0.0
1030
0.0
  0
LINE
  5
825
  8
回08-CG
  6
CONTINUOUS
 62
     7
 10
-116.007079523561
 20
-2808.504873552817
 30
0.0
 11
-99.00707952356107
 21
-2791.504873552817
 31
0.0
1001
GradientColor1ACI
1070
     5
1001
GradientColor2ACI
1070
     2
1001
ACAD
1010
0.0
1020
0.0
1030
0.0
  0
LINE
  5
826
  8
回08-CG
  6
CONTINUOUS
 62
     7
 10
-35.19291741148004
 20
-2727.690711440736
 30
0.0
 11
-15.21291741147934
 21
-2707.710711440735
 31
0.0
1001
GradientColor1ACI
1070
     5
1001
GradientColor2ACI
1070
     2
1001
ACAD
1010
0.0
1020
0.0
1030
0.0
  0
LINE
  5
827
  8
回08-CG
  6
CONTINUOUS
 62
     7
 10
-116.007079523561
 20
-2812.096976001244
 30
0.0
 11
-99.00707952356128
 21
-2795.096976001245
 31
0.0
1001
GradientColor1ACI
1070
     5
1001
GradientColor2ACI
1070
     2
1001
ACAD
1010
0.0
1020
0.0
1030
0.0
  0
LINE
  5
828
  8
回08-CG
  6
CONTINUOUS
 62
     7
 10
-31.60081496305224
 20
-2727.690711440736
 30
0.0
 11
-11.62081496305177
 21
-2707.710711440736
 31
0.0
1001
GradientColor1ACI
1070
     5
1001
GradientColor2ACI
1070
     2
1001
ACAD
1010
0.0
1020
0.0
1030
0.0
  0
LINE
  5
829
  8
回08-CG
  6
CONTINUOUS
 62
     7
 10
-116.0070795235608
 20
-2815.689078449672
 30
0.0
 11
-99.00707952356128
 21
-2798.689078449673
 31
0.0
1001
GradientColor1ACI
1070
     5
1001
GradientColor2ACI
1070
     2
1001
ACAD
1010
0.0
1020
0.0
1030
0.0
  0
LINE
  5
82A
  8
回08-CG
  6
CONTINUOUS
 62
     7
 10
-28.00871251462445
 20
-2727.690711440736
 30
0.0
 11
-8.028712514623748
 21
-2707.710711440735
 31
0.0
1001
GradientColor1ACI
1070
     5
1001
GradientColor2ACI
1070
     2
1001
ACAD
1010
0.0
1020
0.0
1030
0.0
  0
LINE
  5
82B
  8
回08-CG
  6
CONTINUOUS
 62
     7
 10
-116.007079523561
 20
-2819.2811808981
 30
0.0
 11
-99.00707952356151
 21
-2802.281180898101
 31
0.0
1001
GradientColor1ACI
1070
     5
1001
GradientColor2ACI
1070
     2
1001
ACAD
1010
0.0
1020
0.0
1030
0.0
  0
LINE
  5
82C
  8
回08-CG
  6
CONTINUOUS
 62
     7
 10
-24.41661006619688
 20
-2727.690711440736
 30
0.0
 11
-4.43661006619618
 21
-2707.710711440736
 31
0.0
1001
GradientColor1ACI
1070
     5
1001
GradientColor2ACI
1070
     2
1001
ACAD
1010
0.0
1020
0.0
1030
0.0
  0
LINE
  5
82D
  8
回08-CG
  6
CONTINUOUS
 62
     7
 10
-116.007079523561
 20
-2822.873283346528
 30
0.0
 11
-99.00707952356128
 21
-2805.873283346528
 31
0.0
1001
GradientColor1ACI
1070
     5
1001
GradientColor2ACI
1070
     2
1001
ACAD
1010
0.0
1020
0.0
1030
0.0
  0
LINE
  5
82E
  8
回08-CG
  6
CONTINUOUS
 62
     7
 10
-20.82450761776886
 20
-2727.690711440736
 30
0.0
 11
-0.8445076177683858
 21
-2707.710711440736
 31
0.0
1001
GradientColor1ACI
1070
     5
1001
GradientColor2ACI
1070
     2
1001
ACAD
1010
0.0
1020
0.0
1030
0.0
  0
LINE
  5
82F
  8
回08-CG
  6
CONTINUOUS
 62
     7
 10
-116.007079523561
 20
-2826.465385794956
 30
0.0
 11
-99.00707952356128
 21
-2809.465385794956
 31
0.0
1001
GradientColor1ACI
1070
     5
1001
GradientColor2ACI
1070
     2
1001
ACAD
1010
0.0
1020
0.0
1030
0.0
  0
LINE
  5
830
  8
回08-CG
  6
CONTINUOUS
 62
     7
 10
-17.23240516934083
 20
-2727.690711440736
 30
0.0
 11
2.747594830659409
 21
-2707.710711440736
 31
0.0
1001
GradientColor1ACI
1070
     5
1001
GradientColor2ACI
1070
     2
1001
ACAD
1010
0.0
1020
0.0
1030
0.0
  0
LINE
  5
831
  8
回08-CG
  6
CONTINUOUS
 62
     7
 10
-116.0070795235608
 20
-2830.057488243383
 30
0.0
 11
-99.00707952356128
 21
-2813.057488243384
 31
0.0
1001
GradientColor1ACI
1070
     5
1001
GradientColor2ACI
1070
     2
1001
ACAD
1010
0.0
1020
0.0
1030
0.0
  0
LINE
  5
832
  8
回08-CG
  6
CONTINUOUS
 62
     7
 10
-13.64030272091327
 20
-2727.690711440736
 30
0.0
 11
6.339697279087204
 21
-2707.710711440736
 31
0.0
1001
GradientColor1ACI
1070
     5
1001
GradientColor2ACI
1070
     2
1001
ACAD
1010
0.0
1020
0.0
1030
0.0
  0
LINE
  5
833
  8
回08-CG
  6
CONTINUOUS
 62
     7
 10
-116.007079523561
 20
-2833.649590691811
 30
0.0
 11
-99.00707952356107
 21
-2816.649590691811
 31
0.0
1001
GradientColor1ACI
1070
     5
1001
GradientColor2ACI
1070
     2
1001
ACAD
1010
0.0
1020
0.0
1030
0.0
  0
LINE
  5
834
  8
回08-CG
  6
CONTINUOUS
 62
     7
 10
-10.04820027248524
 20
-2727.690711440736
 30
0.0
 11
9.931799727515226
 21
-2707.710711440735
 31
0.0
1001
GradientColor1ACI
1070
     5
1001
GradientColor2ACI
1070
     2
1001
ACAD
1010
0.0
1020
0.0
1030
0.0
  0
LINE
  5
835
  8
回08-CG
  6
CONTINUOUS
 62
     7
 10
-115.8865798528011
 20
-2837.12119346948
 30
0.0
 11
-98.49609782405742
 21
-2819.730711440735
 31
0.0
1001
GradientColor1ACI
1070
     5
1001
GradientColor2ACI
1070
     2
1001
ACAD
1010
0.0
1020
0.0
1030
0.0
  0
LINE
  5
836
  8
回08-CG
  6
CONTINUOUS
 62
     7
 10
-6.456097824057678
 20
-2727.690711440736
 30
0.0
 11
13.52390217594302
 21
-2707.710711440735
 31
0.0
1001
GradientColor1ACI
1070
     5
1001
GradientColor2ACI
1070
     2
1001
ACAD
1010
0.0
1020
0.0
1030
0.0
  0
LINE
  5
837
  8
回08-CG
  6
CONTINUOUS
 62
     7
 10
-114.3558632572744
 20
-2839.18257932238
 30
0.0
 11
-94.90399537562963
 21
-2819.730711440735
 31
0.0
1001
GradientColor1ACI
1070
     5
1001
GradientColor2ACI
1070
     2
1001
ACAD
1010
0.0
1020
0.0
1030
0.0
  0
LINE
  5
838
  8
回08-CG
  6
CONTINUOUS
 62
     7
 10
-2.863995375629883
 20
-2727.690711440736
 30
0.0
 11
17.11600462437059
 21
-2707.710711440736
 31
0.0
1001
GradientColor1ACI
1070
     5
1001
GradientColor2ACI
1070
     2
1001
ACAD
1010
0.0
1020
0.0
1030
0.0
  0
LINE
  5
839
  8
回08-CG
  6
CONTINUOUS
 62
     7
 10
-111.2918929272014
 20
-2839.710711440735
 30
0.0
 11
-91.31189292720227
 21
-2819.730711440736
 31
0.0
1001
GradientColor1ACI
1070
     5
1001
GradientColor2ACI
1070
     2
1001
ACAD
1010
0.0
1020
0.0
1030
0.0
  0
LINE
  5
83A
  8
回08-CG
  6
CONTINUOUS
 62
     7
 10
0.7281070727981387
 20
-2727.690711440736
 30
0.0
 11
20.70810707279861
 21
-2707.710711440735
 31
0.0
1001
GradientColor1ACI
1070
     5
1001
GradientColor2ACI
1070
     2
1001
ACAD
1010
0.0
1020
0.0
1030
0.0
  0
LINE
  5
83B
  8
回08-CG
  6
CONTINUOUS
 62
     7
 10
-107.699790478774
 20
-2839.710711440736
 30
0.0
 11
-87.71979047877403
 21
-2819.730711440735
 31
0.0
1001
GradientColor1ACI
1070
     5
1001
GradientColor2ACI
1070
     2
1001
ACAD
1010
0.0
1020
0.0
1030
0.0
  0
LINE
  5
83C
  8
回08-CG
  6
CONTINUOUS
 62
     7
 10
4.320209521225706
 20
-2727.690711440736
 30
0.0
 11
24.30020952122618
 21
-2707.710711440736
 31
0.0
1001
GradientColor1ACI
1070
     5
1001
GradientColor2ACI
1070
     2
1001
ACAD
1010
0.0
1020
0.0
1030
0.0
  0
LINE
  5
83D
  8
回08-CG
  6
CONTINUOUS
 62
     7
 10
-104.107688030346
 20
-2839.710711440736
 30
0.0
 11
-84.12768803034623
 21
-2819.730711440735
 31
0.0
1001
GradientColor1ACI
1070
     5
1001
GradientColor2ACI
1070
     2
1001
ACAD
1010
0.0
1020
0.0
1030
0.0
  0
LINE
  5
83E
  8
回08-CG
  6
CONTINUOUS
 62
     7
 10
7.912311969653501
 20
-2727.690711440736
 30
0.0
 11
27.8923119696542
 21
-2707.710711440735
 31
0.0
1001
GradientColor1ACI
1070
     5
1001
GradientColor2ACI
1070
     2
1001
ACAD
1010
0.0
1020
0.0
1030
0.0
  0
LINE
  5
83F
  8
回08-CG
  6
CONTINUOUS
 62
     7
 10
-100.5155855819182
 20
-2839.710711440736
 30
0.0
 11
-80.53558558191822
 21
-2819.730711440735
 31
0.0
1001
GradientColor1ACI
1070
     5
1001
GradientColor2ACI
1070
     2
1001
ACAD
1010
0.0
1020
0.0
1030
0.0
  0
LINE
  5
840
  8
回08-CG
  6
CONTINUOUS
 62
     7
 10
11.50441441808129
 20
-2727.690711440736
 30
0.0
 11
31.48441441808154
 21
-2707.710711440736
 31
0.0
1001
GradientColor1ACI
1070
     5
1001
GradientColor2ACI
1070
     2
1001
ACAD
1010
0.0
1020
0.0
1030
0.0
  0
LINE
  5
841
  8
回08-CG
  6
CONTINUOUS
 62
     7
 10
-96.92348313349066
 20
-2839.710711440736
 30
0.0
 11
-76.94348313349064
 21
-2819.730711440735
 31
0.0
1001
GradientColor1ACI
1070
     5
1001
GradientColor2ACI
1070
     2
1001
ACAD
1010
0.0
1020
0.0
1030
0.0
  0
LINE
  5
842
  8
回08-CG
  6
CONTINUOUS
 62
     7
 10
15.09651686650909
 20
-2727.690711440736
 30
0.0
 11
35.07651686650979
 21
-2707.710711440735
 31
0.0
1001
GradientColor1ACI
1070
     5
1001
GradientColor2ACI
1070
     2
1001
ACAD
1010
0.0
1020
0.0
1030
0.0
  0
LINE
  5
843
  8
回08-CG
  6
CONTINUOUS
 62
     7
 10
-93.33138068506263
 20
-2839.710711440736
 30
0.0
 11
-73.35138068506285
 21
-2819.730711440735
 31
0.0
1001
GradientColor1ACI
1070
     5
1001
GradientColor2ACI
1070
     2
1001
ACAD
1010
0.0
1020
0.0
1030
0.0
  0
LINE
  5
844
  8
回08-CG
  6
CONTINUOUS
 62
     7
 10
18.68861931493688
 20
-2727.690711440736
 30
0.0
 11
38.66861931493759
 21
-2707.710711440735
 31
0.0
1001
GradientColor1ACI
1070
     5
1001
GradientColor2ACI
1070
     2
1001
ACAD
1010
0.0
1020
0.0
1030
0.0
  0
LINE
  5
845
  8
回08-CG
  6
CONTINUOUS
 62
     7
 10
-89.73927823663485
 20
-2839.710711440736
 30
0.0
 11
-69.75927823663505
 21
-2819.730711440735
 31
0.0
1001
GradientColor1ACI
1070
     5
1001
GradientColor2ACI
1070
     2
1001
ACAD
1010
0.0
1020
0.0
1030
0.0
  0
LINE
  5
846
  8
回08-CG
  6
CONTINUOUS
 62
     7
 10
22.28072176336468
 20
-2727.690711440736
 30
0.0
 11
42.26072176336538
 21
-2707.710711440735
 31
0.0
1001
GradientColor1ACI
1070
     5
1001
GradientColor2ACI
1070
     2
1001
ACAD
1010
0.0
1020
0.0
1030
0.0
  0
LINE
  5
847
  8
回08-CG
  6
CONTINUOUS
 62
     7
 10
-86.14717578820682
 20
-2839.710711440735
 30
0.0
 11
-66.16717578820703
 21
-2819.730711440735
 31
0.0
1001
GradientColor1ACI
1070
     5
1001
GradientColor2ACI
1070
     2
1001
ACAD
1010
0.0
1020
0.0
1030
0.0
  0
LINE
  5
848
  8
回08-CG
  6
CONTINUOUS
 62
     7
 10
25.87282421179248
 20
-2727.690711440736
 30
0.0
 11
45.85282421179295
 21
-2707.710711440736
 31
0.0
1001
GradientColor1ACI
1070
     5
1001
GradientColor2ACI
1070
     2
1001
ACAD
1010
0.0
1020
0.0
1030
0.0
  0
LINE
  5
849
  8
回08-CG
  6
CONTINUOUS
 62
     7
 10
-82.55507333977902
 20
-2839.710711440735
 30
0.0
 11
-62.57507333977947
 21
-2819.730711440735
 31
0.0
1001
GradientColor1ACI
1070
     5
1001
GradientColor2ACI
1070
     2
1001
ACAD
1010
0.0
1020
0.0
1030
0.0
  0
LINE
  5
84A
  8
回08-CG
  6
CONTINUOUS
 62
     7
 10
29.46492666022027
 20
-2727.690711440736
 30
0.0
 11
49.44492666022097
 21
-2707.710711440735
 31
0.0
1001
GradientColor1ACI
1070
     5
1001
GradientColor2ACI
1070
     2
1001
ACAD
1010
0.0
1020
0.0
1030
0.0
  0
LINE
  5
84B
  8
回08-CG
  6
CONTINUOUS
 62
     7
 10
-78.962970891351
 20
-2839.710711440734
 30
0.0
 11
-58.98297089135167
 21
-2819.730711440735
 31
0.0
1001
GradientColor1ACI
1070
     5
1001
GradientColor2ACI
1070
     2
1001
ACAD
1010
0.0
1020
0.0
1030
0.0
  0
LINE
  5
84C
  8
回08-CG
  6
CONTINUOUS
 62
     7
 10
33.05702910864829
 20
-2727.690711440736
 30
0.0
 11
53.03702910864877
 21
-2707.710711440735
 31
0.0
1001
GradientColor1ACI
1070
     5
1001
GradientColor2ACI
1070
     2
1001
ACAD
1010
0.0
1020
0.0
1030
0.0
  0
LINE
  5
84D
  8
回08-CG
  6
CONTINUOUS
 62
     7
 10
-75.37086844292367
 20
-2839.710711440736
 30
0.0
 11
-55.3908684429241
 21
-2819.730711440736
 31
0.0
1001
GradientColor1ACI
1070
     5
1001
GradientColor2ACI
1070
     2
1001
ACAD
1010
0.0
1020
0.0
1030
0.0
  0
LINE
  5
84E
  8
回08-CG
  6
CONTINUOUS
 62
     7
 10
36.64913155707586
 20
-2727.690711440736
 30
0.0
 11
56.62913155707633
 21
-2707.710711440736
 31
0.0
1001
GradientColor1ACI
1070
     5
1001
GradientColor2ACI
1070
     2
1001
ACAD
1010
0.0
1020
0.0
1030
0.0
  0
LINE
  5
84F
  8
回08-CG
  6
CONTINUOUS
 62
     7
 10
-71.77876599449565
 20
-2839.710711440735
 30
0.0
 11
-51.79876599449608
 21
-2819.730711440735
 31
0.0
1001
GradientColor1ACI
1070
     5
1001
GradientColor2ACI
1070
     2
1001
ACAD
1010
0.0
1020
0.0
1030
0.0
  0
LINE
  5
850
  8
回08-CG
  6
CONTINUOUS
 62
     7
 10
40.24123400550365
 20
-2727.690711440736
 30
0.0
 11
60.22123400550412
 21
-2707.710711440736
 31
0.0
1001
GradientColor1ACI
1070
     5
1001
GradientColor2ACI
1070
     2
1001
ACAD
1010
0.0
1020
0.0
1030
0.0
  0
LINE
  5
851
  8
回08-CG
  6
CONTINUOUS
 62
     7
 10
-68.18666354606808
 20
-2839.710711440736
 30
0.0
 11
-48.20666354606828
 21
-2819.730711440735
 31
0.0
1001
GradientColor1ACI
1070
     5
1001
GradientColor2ACI
1070
     2
1001
ACAD
1010
0.0
1020
0.0
1030
0.0
  0
LINE
  5
852
  8
回08-CG
  6
CONTINUOUS
 62
     7
 10
43.83333645393145
 20
-2727.690711440736
 30
0.0
 11
63.81333645393192
 21
-2707.710711440736
 31
0.0
1001
GradientColor1ACI
1070
     5
1001
GradientColor2ACI
1070
     2
1001
ACAD
1010
0.0
1020
0.0
1030
0.0
  0
LINE
  5
853
  8
回08-CG
  6
CONTINUOUS
 62
     7
 10
-64.59456109764028
 20
-2839.710711440736
 30
0.0
 11
-44.61456109764049
 21
-2819.730711440735
 31
0.0
1001
GradientColor1ACI
1070
     5
1001
GradientColor2ACI
1070
     2
1001
ACAD
1010
0.0
1020
0.0
1030
0.0
  0
LINE
  5
854
  8
回08-CG
  6
CONTINUOUS
 62
     7
 10
47.42543890235924
 20
-2727.690711440736
 30
0.0
 11
67.40543890235994
 21
-2707.710711440735
 31
0.0
1001
GradientColor1ACI
1070
     5
1001
GradientColor2ACI
1070
     2
1001
ACAD
1010
0.0
1020
0.0
1030
0.0
  0
LINE
  5
855
  8
回08-CG
  6
CONTINUOUS
 62
     7
 10
-61.00245864921226
 20
-2839.710711440735
 30
0.0
 11
-41.02245864921269
 21
-2819.730711440735
 31
0.0
1001
GradientColor1ACI
1070
     5
1001
GradientColor2ACI
1070
     2
1001
ACAD
1010
0.0
1020
0.0
1030
0.0
  0
LINE
  5
856
  8
回08-CG
  6
CONTINUOUS
 62
     7
 10
51.01754135078727
 20
-2727.690711440736
 30
0.0
 11
69.97010356930331
 21
-2708.738149222219
 31
0.0
1001
GradientColor1ACI
1070
     5
1001
GradientColor2ACI
1070
     2
1001
ACAD
1010
0.0
1020
0.0
1030
0.0
  0
LINE
  5
857
  8
回08-CG
  6
CONTINUOUS
 62
     7
 10
-57.41035620078446
 20
-2839.710711440735
 30
0.0
 11
-37.4303562007849
 21
-2819.730711440735
 31
0.0
1001
GradientColor1ACI
1070
     5
1001
GradientColor2ACI
1070
     2
1001
ACAD
1010
0.0
1020
0.0
1030
0.0
  0
LINE
  5
858
  8
回08-CG
  6
CONTINUOUS
 62
     7
 10
53.99292047643917
 20
-2728.307434763511
 30
0.0
 11
70.99292047643849
 21
-2711.307434763512
 31
0.0
1001
GradientColor1ACI
1070
     5
1001
GradientColor2ACI
1070
     2
1001
ACAD
1010
0.0
1020
0.0
1030
0.0
  0
LINE
  5
859
  8
回08-CG
  6
CONTINUOUS
 62
     7
 10
-53.81825375235667
 20
-2839.710711440735
 30
0.0
 11
-33.83825375235711
 21
-2819.730711440735
 31
0.0
1001
GradientColor1ACI
1070
     5
1001
GradientColor2ACI
1070
     2
1001
ACAD
1010
0.0
1020
0.0
1030
0.0
  0
LINE
  5
85A
  8
回08-CG
  6
CONTINUOUS
 62
     7
 10
53.99292047643939
 20
-2731.899537211939
 30
0.0
 11
70.99292047643871
 21
-2714.89953721194
 31
0.0
1001
GradientColor1ACI
1070
     5
1001
GradientColor2ACI
1070
     2
1001
ACAD
1010
0.0
1020
0.0
1030
0.0
  0
LINE
  5
85B
  8
回08-CG
  6
CONTINUOUS
 62
     7
 10
-50.2261513039291
 20
-2839.710711440736
 30
0.0
 11
-30.24615130392954
 21
-2819.730711440736
 31
0.0
1001
GradientColor1ACI
1070
     5
1001
GradientColor2ACI
1070
     2
1001
ACAD
1010
0.0
1020
0.0
1030
0.0
  0
LINE
  5
85C
  8
回08-CG
  6
CONTINUOUS
 62
     7
 10
53.99292047643917
 20
-2735.491639660367
 30
0.0
 11
70.99292047643849
 21
-2718.491639660367
 31
0.0
1001
GradientColor1ACI
1070
     5
1001
GradientColor2ACI
1070
     2
1001
ACAD
1010
0.0
1020
0.0
1030
0.0
  0
LINE
  5
85D
  8
回08-CG
  6
CONTINUOUS
 62
     7
 10
-46.63404885550107
 20
-2839.710711440735
 30
0.0
 11
-26.65404885550151
 21
-2819.730711440735
 31
0.0
1001
GradientColor1ACI
1070
     5
1001
GradientColor2ACI
1070
     2
1001
ACAD
1010
0.0
1020
0.0
1030
0.0
  0
LINE
  5
85E
  8
回08-CG
  6
CONTINUOUS
 62
     7
 10
53.99292047643939
 20
-2739.083742108795
 30
0.0
 11
70.99292047643894
 21
-2722.083742108795
 31
0.0
1001
GradientColor1ACI
1070
     5
1001
GradientColor2ACI
1070
     2
1001
ACAD
1010
0.0
1020
0.0
1030
0.0
  0
LINE
  5
85F
  8
回08-CG
  6
CONTINUOUS
 62
     7
 10
-43.04194640707351
 20
-2839.710711440736
 30
0.0
 11
-23.06194640707372
 21
-2819.730711440735
 31
0.0
1001
GradientColor1ACI
1070
     5
1001
GradientColor2ACI
1070
     2
1001
ACAD
1010
0.0
1020
0.0
1030
0.0
  0
LINE
  5
860
  8
回08-CG
  6
CONTINUOUS
 62
     7
 10
53.99292047643917
 20
-2742.675844557223
 30
0.0
 11
70.99292047643871
 21
-2725.675844557223
 31
0.0
1001
GradientColor1ACI
1070
     5
1001
GradientColor2ACI
1070
     2
1001
ACAD
1010
0.0
1020
0.0
1030
0.0
  0
LINE
  5
861
  8
回08-CG
  6
CONTINUOUS
 62
     7
 10
-39.44984395864549
 20
-2839.710711440735
 30
0.0
 11
-19.46984395864592
 21
-2819.730711440735
 31
0.0
1001
GradientColor1ACI
1070
     5
1001
GradientColor2ACI
1070
     2
1001
ACAD
1010
0.0
1020
0.0
1030
0.0
  0
LINE
  5
862
  8
回08-CG
  6
CONTINUOUS
 62
     7
 10
53.99292047643917
 20
-2746.26794700565
 30
0.0
 11
70.99292047643894
 21
-2729.267947005651
 31
0.0
1001
GradientColor1ACI
1070
     5
1001
GradientColor2ACI
1070
     2
1001
ACAD
1010
0.0
1020
0.0
1030
0.0
  0
LINE
  5
863
  8
回08-CG
  6
CONTINUOUS
 62
     7
 10
-35.85774151021769
 20
-2839.710711440735
 30
0.0
 11
-15.8777415102179
 21
-2819.730711440735
 31
0.0
1001
GradientColor1ACI
1070
     5
1001
GradientColor2ACI
1070
     2
1001
ACAD
1010
0.0
1020
0.0
1030
0.0
  0
LINE
  5
864
  8
回08-CG
  6
CONTINUOUS
 62
     7
 10
53.99292047643894
 20
-2749.860049454079
 30
0.0
 11
70.99292047643894
 21
-2732.860049454079
 31
0.0
1001
GradientColor1ACI
1070
     5
1001
GradientColor2ACI
1070
     2
1001
ACAD
1010
0.0
1020
0.0
1030
0.0
  0
LINE
  5
865
  8
回08-CG
  6
CONTINUOUS
 62
     7
 10
-32.2656390617899
 20
-2839.710711440735
 30
0.0
 11
-12.28563906179033
 21
-2819.730711440735
 31
0.0
1001
GradientColor1ACI
1070
     5
1001
GradientColor2ACI
1070
     2
1001
ACAD
1010
0.0
1020
0.0
1030
0.0
  0
LINE
  5
866
  8
回08-CG
  6
CONTINUOUS
 62
     7
 10
53.99292047643871
 20
-2753.452151902507
 30
0.0
 11
70.99292047643871
 21
-2736.452151902506
 31
0.0
1001
GradientColor1ACI
1070
     5
1001
GradientColor2ACI
1070
     2
1001
ACAD
1010
0.0
1020
0.0
1030
0.0
  0
LINE
  5
867
  8
回08-CG
  6
CONTINUOUS
 62
     7
 10
-28.67353661336233
 20
-2839.710711440736
 30
0.0
 11
-8.693536613362539
 21
-2819.730711440735
 31
0.0
1001
GradientColor1ACI
1070
     5
1001
GradientColor2ACI
1070
     2
1001
ACAD
1010
0.0
1020
0.0
1030
0.0
  0
LINE
  5
868
  8
回08-CG
  6
CONTINUOUS
 62
     7
 10
53.99292047643917
 20
-2757.044254350934
 30
0.0
 11
70.99292047643894
 21
-2740.044254350934
 31
0.0
1001
GradientColor1ACI
1070
     5
1001
GradientColor2ACI
1070
     2
1001
ACAD
1010
0.0
1020
0.0
1030
0.0
  0
LINE
  5
869
  8
回08-CG
  6
CONTINUOUS
 62
     7
 10
-25.08143416493453
 20
-2839.710711440736
 30
0.0
 11
-5.101434164934971
 21
-2819.730711440736
 31
0.0
1001
GradientColor1ACI
1070
     5
1001
GradientColor2ACI
1070
     2
1001
ACAD
1010
0.0
1020
0.0
1030
0.0
  0
LINE
  5
86A
  8
回08-CG
  6
CONTINUOUS
 62
     7
 10
53.99292047643917
 20
-2760.636356799361
 30
0.0
 11
70.99292047643849
 21
-2743.636356799362
 31
0.0
1001
GradientColor1ACI
1070
     5
1001
GradientColor2ACI
1070
     2
1001
ACAD
1010
0.0
1020
0.0
1030
0.0
  0
LINE
  5
86B
  8
回08-CG
  6
CONTINUOUS
 62
     7
 10
-21.48933171650651
 20
-2839.710711440735
 30
0.0
 11
-1.509331716506949
 21
-2819.730711440735
 31
0.0
1001
GradientColor1ACI
1070
     5
1001
GradientColor2ACI
1070
     2
1001
ACAD
1010
0.0
1020
0.0
1030
0.0
  0
LINE
  5
86C
  8
回08-CG
  6
CONTINUOUS
 62
     7
 10
53.99292047643917
 20
-2764.228459247789
 30
0.0
 11
70.99292047643871
 21
-2747.22845924779
 31
0.0
1001
GradientColor1ACI
1070
     5
1001
GradientColor2ACI
1070
     2
1001
ACAD
1010
0.0
1020
0.0
1030
0.0
  0
LINE
  5
86D
  8
回08-CG
  6
CONTINUOUS
 62
     7
 10
-17.89722926807894
 20
-2839.710711440736
 30
0.0
 11
2.082770731920845
 21
-2819.730711440735
 31
0.0
1001
GradientColor1ACI
1070
     5
1001
GradientColor2ACI
1070
     2
1001
ACAD
1010
0.0
1020
0.0
1030
0.0
  0
LINE
  5
86E
  8
回08-CG
  6
CONTINUOUS
 62
     7
 10
53.99292047643871
 20
-2767.820561696218
 30
0.0
 11
70.99292047643871
 21
-2750.820561696218
 31
0.0
1001
GradientColor1ACI
1070
     5
1001
GradientColor2ACI
1070
     2
1001
ACAD
1010
0.0
1020
0.0
1030
0.0
  0
LINE
  5
86F
  8
回08-CG
  6
CONTINUOUS
 62
     7
 10
-14.30512681965115
 20
-2839.710711440736
 30
0.0
 11
5.67487318034864
 21
-2819.730711440735
 31
0.0
1001
GradientColor1ACI
1070
     5
1001
GradientColor2ACI
1070
     2
1001
ACAD
1010
0.0
1020
0.0
1030
0.0
  0
LINE
  5
870
  8
回08-CG
  6
CONTINUOUS
 62
     7
 10
53.99292047643894
 20
-2771.412664144645
 30
0.0
 11
70.99292047643894
 21
-2754.412664144645
 31
0.0
1001
GradientColor1ACI
1070
     5
1001
GradientColor2ACI
1070
     2
1001
ACAD
1010
0.0
1020
0.0
1030
0.0
  0
LINE
  5
871
  8
回08-CG
  6
CONTINUOUS
 62
     7
 10
-10.71302437122312
 20
-2839.710711440735
 30
0.0
 11
9.266975628776663
 21
-2819.730711440735
 31
0.0
1001
GradientColor1ACI
1070
     5
1001
GradientColor2ACI
1070
     2
1001
ACAD
1010
0.0
1020
0.0
1030
0.0
  0
LINE
  5
872
  8
回08-CG
  6
CONTINUOUS
 62
     7
 10
53.99292047643917
 20
-2775.004766593073
 30
0.0
 11
70.99292047643871
 21
-2758.004766593074
 31
0.0
1001
GradientColor1ACI
1070
     5
1001
GradientColor2ACI
1070
     2
1001
ACAD
1010
0.0
1020
0.0
1030
0.0
  0
LINE
  5
873
  8
回08-CG
  6
CONTINUOUS
 62
     7
 10
-7.120921922795332
 20
-2839.710711440735
 30
0.0
 11
12.85907807720423
 21
-2819.730711440735
 31
0.0
1001
GradientColor1ACI
1070
     5
1001
GradientColor2ACI
1070
     2
1001
ACAD
1010
0.0
1020
0.0
1030
0.0
  0
LINE
  5
874
  8
回08-CG
  6
CONTINUOUS
 62
     7
 10
53.99292047643871
 20
-2778.596869041501
 30
0.0
 11
70.99292047643849
 21
-2761.596869041501
 31
0.0
1001
GradientColor1ACI
1070
     5
1001
GradientColor2ACI
1070
     2
1001
ACAD
1010
0.0
1020
0.0
1030
0.0
  0
LINE
  5
875
  8
回08-CG
  6
CONTINUOUS
 62
     7
 10
-3.528819474367764
 20
-2839.710711440736
 30
0.0
 11
16.45118052563202
 21
-2819.730711440735
 31
0.0
1001
GradientColor1ACI
1070
     5
1001
GradientColor2ACI
1070
     2
1001
ACAD
1010
0.0
1020
0.0
1030
0.0
  0
LINE
  5
876
  8
回08-CG
  6
CONTINUOUS
 62
     7
 10
53.99292047643894
 20
-2782.188971489929
 30
0.0
 11
70.99292047643871
 21
-2765.188971489929
 31
0.0
1001
GradientColor1ACI
1070
     5
1001
GradientColor2ACI
1070
     2
1001
ACAD
1010
0.0
1020
0.0
1030
0.0
  0
LINE
  5
877
  8
回08-CG
  6
CONTINUOUS
 62
     7
 10
0.06328297406003
 20
-2839.710711440736
 30
0.0
 11
20.04328297405959
 21
-2819.730711440736
 31
0.0
1001
GradientColor1ACI
1070
     5
1001
GradientColor2ACI
1070
     2
1001
ACAD
1010
0.0
1020
0.0
1030
0.0
  0
LINE
  5
878
  8
回08-CG
  6
CONTINUOUS
 62
     7
 10
53.99292047643917
 20
-2785.781073938356
 30
0.0
 11
70.99292047643849
 21
-2768.781073938357
 31
0.0
1001
GradientColor1ACI
1070
     5
1001
GradientColor2ACI
1070
     2
1001
ACAD
1010
0.0
1020
0.0
1030
0.0
  0
LINE
  5
879
  8
回08-CG
  6
CONTINUOUS
 62
     7
 10
3.655385422487597
 20
-2839.710711440736
 30
0.0
 11
23.63538542248739
 21
-2819.730711440736
 31
0.0
1001
GradientColor1ACI
1070
     5
1001
GradientColor2ACI
1070
     2
1001
ACAD
1010
0.0
1020
0.0
1030
0.0
  0
LINE
  5
87A
  8
回08-CG
  6
CONTINUOUS
 62
     7
 10
53.99292047643939
 20
-2789.373176386784
 30
0.0
 11
70.99292047643871
 21
-2772.373176386785
 31
0.0
1001
GradientColor1ACI
1070
     5
1001
GradientColor2ACI
1070
     2
1001
ACAD
1010
0.0
1020
0.0
1030
0.0
  0
LINE
  5
87B
  8
回08-CG
  6
CONTINUOUS
 62
     7
 10
7.247487870915847
 20
-2839.710711440735
 30
0.0
 11
27.22748787091564
 21
-2819.730711440735
 31
0.0
1001
GradientColor1ACI
1070
     5
1001
GradientColor2ACI
1070
     2
1001
ACAD
1010
0.0
1020
0.0
1030
0.0
  0
LINE
  5
87C
  8
回08-CG
  6
CONTINUOUS
 62
     7
 10
53.99292047643917
 20
-2792.965278835211
 30
0.0
 11
70.99292047643871
 21
-2775.965278835212
 31
0.0
1001
GradientColor1ACI
1070
     5
1001
GradientColor2ACI
1070
     2
1001
ACAD
1010
0.0
1020
0.0
1030
0.0
  0
LINE
  5
87D
  8
回08-CG
  6
CONTINUOUS
 62
     7
 10
10.83959031934341
 20
-2839.710711440736
 30
0.0
 11
30.81959031934321
 21
-2819.730711440735
 31
0.0
1001
GradientColor1ACI
1070
     5
1001
GradientColor2ACI
1070
     2
1001
ACAD
1010
0.0
1020
0.0
1030
0.0
  0
LINE
  5
87E
  8
回08-CG
  6
CONTINUOUS
 62
     7
 10
53.99292047643917
 20
-2796.557381283639
 30
0.0
 11
70.99292047643894
 21
-2779.55738128364
 31
0.0
1001
GradientColor1ACI
1070
     5
1001
GradientColor2ACI
1070
     2
1001
ACAD
1010
0.0
1020
0.0
1030
0.0
  0
LINE
  5
87F
  8
回08-CG
  6
CONTINUOUS
 62
     7
 10
14.43169276777121
 20
-2839.710711440736
 30
0.0
 11
34.41169276777078
 21
-2819.730711440736
 31
0.0
1001
GradientColor1ACI
1070
     5
1001
GradientColor2ACI
1070
     2
1001
ACAD
1010
0.0
1020
0.0
1030
0.0
  0
LINE
  5
880
  8
回08-CG
  6
CONTINUOUS
 62
     7
 10
53.99292047643894
 20
-2800.149483732067
 30
0.0
 11
70.99292047643871
 21
-2783.149483732068
 31
0.0
1001
GradientColor1ACI
1070
     5
1001
GradientColor2ACI
1070
     2
1001
ACAD
1010
0.0
1020
0.0
1030
0.0
  0
LINE
  5
881
  8
回08-CG
  6
CONTINUOUS
 62
     7
 10
18.02379521619923
 20
-2839.710711440735
 30
0.0
 11
38.00379521619902
 21
-2819.730711440735
 31
0.0
1001
GradientColor1ACI
1070
     5
1001
GradientColor2ACI
1070
     2
1001
ACAD
1010
0.0
1020
0.0
1030
0.0
  0
LINE
  5
882
  8
回08-CG
  6
CONTINUOUS
 62
     7
 10
53.99292047643917
 20
-2803.741586180495
 30
0.0
 11
70.99292047643849
 21
-2786.741586180496
 31
0.0
1001
GradientColor1ACI
1070
     5
1001
GradientColor2ACI
1070
     2
1001
ACAD
1010
0.0
1020
0.0
1030
0.0
  0
LINE
  5
883
  8
回08-CG
  6
CONTINUOUS
 62
     7
 10
21.61589766462725
 20
-2839.710711440734
 30
0.0
 11
41.59589766462613
 21
-2819.730711440736
 31
0.0
1001
GradientColor1ACI
1070
     5
1001
GradientColor2ACI
1070
     2
1001
ACAD
1010
0.0
1020
0.0
1030
0.0
  0
LINE
  5
884
  8
回08-CG
  6
CONTINUOUS
 62
     7
 10
53.99292047643894
 20
-2807.333688628923
 30
0.0
 11
70.99292047643849
 21
-2790.333688628924
 31
0.0
1001
GradientColor1ACI
1070
     5
1001
GradientColor2ACI
1070
     2
1001
ACAD
1010
0.0
1020
0.0
1030
0.0
  0
LINE
  5
885
  8
回08-CG
  6
CONTINUOUS
 62
     7
 10
25.20800011305482
 20
-2839.710711440735
 30
0.0
 11
45.18800011305415
 21
-2819.730711440736
 31
0.0
1001
GradientColor1ACI
1070
     5
1001
GradientColor2ACI
1070
     2
1001
ACAD
1010
0.0
1020
0.0
1030
0.0
  0
LINE
  5
886
  8
回08-CG
  6
CONTINUOUS
 62
     7
 10
53.99292047643894
 20
-2810.925791077351
 30
0.0
 11
70.99292047643894
 21
-2793.925791077351
 31
0.0
1001
GradientColor1ACI
1070
     5
1001
GradientColor2ACI
1070
     2
1001
ACAD
1010
0.0
1020
0.0
1030
0.0
  0
LINE
  5
887
  8
回08-CG
  6
CONTINUOUS
 62
     7
 10
28.80010256148216
 20
-2839.710711440736
 30
0.0
 11
48.78010256148195
 21
-2819.730711440736
 31
0.0
1001
GradientColor1ACI
1070
     5
1001
GradientColor2ACI
1070
     2
1001
ACAD
1010
0.0
1020
0.0
1030
0.0
  0
LINE
  5
888
  8
回08-CG
  6
CONTINUOUS
 62
     7
 10
53.99292047643939
 20
-2814.517893525778
 30
0.0
 11
70.99292047643894
 21
-2797.517893525779
 31
0.0
1001
GradientColor1ACI
1070
     5
1001
GradientColor2ACI
1070
     2
1001
ACAD
1010
0.0
1020
0.0
1030
0.0
  0
LINE
  5
889
  8
回08-CG
  6
CONTINUOUS
 62
     7
 10
32.39220500991041
 20
-2839.710711440735
 30
0.0
 11
52.37220500990975
 21
-2819.730711440736
 31
0.0
1001
GradientColor1ACI
1070
     5
1001
GradientColor2ACI
1070
     2
1001
ACAD
1010
0.0
1020
0.0
1030
0.0
  0
LINE
  5
88A
  8
回08-CG
  6
CONTINUOUS
 62
     7
 10
53.99292047643894
 20
-2818.109995974206
 30
0.0
 11
70.99292047643871
 21
-2801.109995974207
 31
0.0
1001
GradientColor1ACI
1070
     5
1001
GradientColor2ACI
1070
     2
1001
ACAD
1010
0.0
1020
0.0
1030
0.0
  0
LINE
  5
88B
  8
回08-CG
  6
CONTINUOUS
 62
     7
 10
35.98430745833821
 20
-2839.710711440735
 30
0.0
 11
70.99292047643894
 21
-2804.702098422634
 31
0.0
1001
GradientColor1ACI
1070
     5
1001
GradientColor2ACI
1070
     2
1001
ACAD
1010
0.0
1020
0.0
1030
0.0
  0
LINE
  5
88C
  8
回08-CG
  6
CONTINUOUS
 62
     7
 10
39.576409906766
 20
-2839.710711440735
 30
0.0
 11
70.99292047643871
 21
-2808.294200871062
 31
0.0
1001
GradientColor1ACI
1070
     5
1001
GradientColor2ACI
1070
     2
1001
ACAD
1010
0.0
1020
0.0
1030
0.0
  0
LINE
  5
88D
  8
回08-CG
  6
CONTINUOUS
 62
     7
 10
43.16851235519379
 20
-2839.710711440735
 30
0.0
 11
70.99292047643871
 21
-2811.88630331949
 31
0.0
1001
GradientColor1ACI
1070
     5
1001
GradientColor2ACI
1070
     2
1001
ACAD
1010
0.0
1020
0.0
1030
0.0
  0
LINE
  5
88E
  8
回08-CG
  6
CONTINUOUS
 62
     7
 10
46.76061480362159
 20
-2839.710711440735
 30
0.0
 11
70.99292047643871
 21
-2815.478405767918
 31
0.0
1001
GradientColor1ACI
1070
     5
1001
GradientColor2ACI
1070
     2
1001
ACAD
1010
0.0
1020
0.0
1030
0.0
  0
LINE
  5
88F
  8
回08-CG
  6
CONTINUOUS
 62
     7
 10
50.35271725204939
 20
-2839.710711440735
 30
0.0
 11
70.99292047643849
 21
-2819.070508216346
 31
0.0
1001
GradientColor1ACI
1070
     5
1001
GradientColor2ACI
1070
     2
1001
ACAD
1010
0.0
1020
0.0
1030
0.0
  0
LINE
  5
890
  8
回08-CG
  6
CONTINUOUS
 62
     7
 10
53.94481970047741
 20
-2839.710711440734
 30
0.0
 11
70.99292047643871
 21
-2822.662610664774
 31
0.0
1001
GradientColor1ACI
1070
     5
1001
GradientColor2ACI
1070
     2
1001
ACAD
1010
0.0
1020
0.0
1030
0.0
  0
LINE
  5
891
  8
回08-CG
  6
CONTINUOUS
 62
     7
 10
57.5369221489052
 20
-2839.710711440734
 30
0.0
 11
70.99292047643871
 21
-2826.254713113201
 31
0.0
1001
GradientColor1ACI
1070
     5
1001
GradientColor2ACI
1070
     2
1001
ACAD
1010
0.0
1020
0.0
1030
0.0
  0
LINE
  5
892
  8
回08-CG
  6
CONTINUOUS
 62
     7
 10
61.12902459733255
 20
-2839.710711440736
 30
0.0
 11
70.99292047643894
 21
-2829.846815561629
 31
0.0
1001
GradientColor1ACI
1070
     5
1001
GradientColor2ACI
1070
     2
1001
ACAD
1010
0.0
1020
0.0
1030
0.0
  0
LINE
  5
893
  8
回08-CG
  6
CONTINUOUS
 62
     7
 10
64.72112704576034
 20
-2839.710711440736
 30
0.0
 11
70.99292047643871
 21
-2833.438918010057
 31
0.0
1001
GradientColor1ACI
1070
     5
1001
GradientColor2ACI
1070
     2
1001
ACAD
1010
0.0
1020
0.0
1030
0.0
  0
LINE
  5
894
  8
回08-CG
  6
CONTINUOUS
 62
     7
 10
68.44529499798659
 20
-2839.578645936937
 30
0.0
 11
70.86085497264093
 21
-2837.163085962283
 31
0.0
1001
GradientColor1ACI
1070
     5
1001
GradientColor2ACI
1070
     2
1001
ACAD
1010
0.0
1020
0.0
1030
0.0
  0
ENDBLK
  5
896
  8
回07-寸法
  6
CONTINUOUS
 62
     7
  0
BLOCK
  8
回07-寸法
  2
*X72
 70
     1
 10
0.0
 20
0.0
 30
0.0
  3
*X72
  1

  0
TEXT
  5
89F
  8
回06-記事
  6
CONTINUOUS
 62
     5
 10
116.703942380183
 20
-2628.528246074703
 30
0.0
 40
5.00001
  1
3.6
  0
TEXT
  5
8A0
  8
回06-記事
  6
CONTINUOUS
 62
     5
 10
125.203959380183
 20
-2628.528246074703
 30
0.0
 40
3.0
  1
±0.2
  0
ENDBLK
  5
8A2
  8
回07-寸法
  6
CONTINUOUS
 62
     7
  0
BLOCK
  8
回07-寸法
  2
*X73
 70
     1
 10
0.0
 20
0.0
 30
0.0
  3
*X73
  1

  0
TEXT
  5
8A5
  8
回06-記事
  6
CONTINUOUS
 62
     5
 10
139.1561603770537
 20
-2827.591058345693
 30
0.0
 40
3.0
  1
0.3
  0
TEXT
  5
8A6
  8
回06-記事
  6
CONTINUOUS
 62
     5
 10
144.2561603770537
 20
-2827.591058345693
 30
0.0
 40
2.00001
  1
±0.03
  0
ENDBLK
  5
8A8
  8
回07-寸法
  6
CONTINUOUS
 62
     7
  0
BLOCK
  8
回07-寸法
  2
*X74
 70
     1
 10
0.0
 20
0.0
 30
0.0
  3
*X74
  1

  0
TEXT
  5
8AB
  8
回06-記事
  6
CONTINUOUS
 62
     5
 10
133.9980670835925
 20
-2833.22444494315
 30
0.0
 40
3.0
  1
0.3
  0
TEXT
  5
8AC
  8
回06-記事
  6
CONTINUOUS
 62
     5
 10
139.0980670835925
 20
-2833.22444494315
 30
0.0
 40
2.00001
  1
±0.03
  0
ENDBLK
  5
8AE
  8
回07-寸法
  6
CONTINUOUS
 62
     7
  0
BLOCK
  8
回07-寸法
  2
*X75
 70
     1
 10
0.0
 20
0.0
 30
0.0
  3
*X75
  1

  0
TEXT
  5
8B1
  8
回07-寸法
  6
CONTINUOUS
 62
     5
 10
-28.77952888240285
 20
-2855.971575123442
 30
0.0
 40
3.999989999999999
  1
20.5
  0
TEXT
  5
8B2
  8
回07-寸法
  6
CONTINUOUS
 62
     5
 10
-19.17955288240285
 20
-2855.971575123442
 30
0.0
 40
3.6
  1
±0.1
  0
ENDBLK
  5
8B4
  8
回07-寸法
  6
CONTINUOUS
 62
     7
  0
BLOCK
  8
回07-寸法
  2
*X76
 70
     1
 10
0.0
 20
0.0
 30
0.0
  3
*X76
  1

  0
TEXT
  5
8B7
  8
回07-寸法
  6
CONTINUOUS
 62
     5
 10
-52.66702468790072
 20
-2840.300652997692
 30
0.0
 40
3.0
  1
13.5
  0
TEXT
  5
8B8
  8
回07-寸法
  6
CONTINUOUS
 62
     5
 10
-46.06702468790071
 20
-2840.300652997692
 30
0.0
 40
2.1
  1
±0.1
  0
ENDBLK
  5
8BA
  8
回07-寸法
  6
CONTINUOUS
 62
     7
  0
BLOCK
  8
回07-寸法
  2
*X77
 70
     1
 10
0.0
 20
0.0
 30
0.0
  3
*X77
  1

  0
TEXT
  5
8BD
  8
回07-寸法
  6
CONTINUOUS
 62
     5
 10
-66.97831357692894
 20
-2797.269940197164
 30
0.0
 40
5.00001
  1
60
 50
90.0
  0
TEXT
  5
8BE
  8
回07-寸法
  6
CONTINUOUS
 62
     5
 10
-66.97831357692894
 20
-2790.269926197164
 30
0.0
 40
3.6
  1
±1
 50
90.0
  0
ENDBLK
  5
8C0
  8
回07-寸法
  6
CONTINUOUS
 62
     7
  0
BLOCK
  8
回07-寸法
  2
*X78
 70
     1
 10
0.0
 20
0.0
 30
0.0
  3
*X78
  1

  0
TEXT
  5
8C3
  8
回07-寸法
  6
CONTINUOUS
 62
     5
 10
8.030279793551926
 20
-2793.601365934715
 30
0.0
 40
5.000099999999999
  1
60
 50
90.0
  0
TEXT
  5
8C4
  8
回07-寸法
  6
CONTINUOUS
 62
     5
 10
8.030279793551926
 20
-2786.601225934715
 30
0.0
 40
3.6
  1
±1
 50
90.0
  0
ENDBLK
  5
8C6
  8
回07-寸法
  6
CONTINUOUS
 62
     7
  0
BLOCK
  8
回07-寸法
  2
*X79
 70
     1
 10
0.0
 20
0.0
 30
0.0
  3
*X79
  1

  0
TEXT
  5
8C9
  8
回07-寸法
  6
CONTINUOUS
 62
     5
 10
-25.85486664454382
 20
-2627.948746141746
 30
0.0
 40
3.0
  1
152.4
  0
TEXT
  5
8CA
  8
回07-寸法
  6
CONTINUOUS
 62
     5
 10
-16.85486664454381
 20
-2627.948746141746
 30
0.0
 40
2.00001
  1
 (Active area)
  0
ENDBLK
  5
8CC
  8
回07-寸法
  6
CONTINUOUS
 62
     7
  0
BLOCK
  8
回07-寸法
  2
*X80
 70
     1
 10
0.0
 20
0.0
 30
0.0
  3
*X80
  1

  0
TEXT
  5
8CF
  8
回07-寸法
  6
CONTINUOUS
 62
     5
 10
-28.474867644544
 20
-2621.646164933424
 30
0.0
 40
3.0
  1
168.8
  0
TEXT
  5
8D0
  8
回07-寸法
  6
CONTINUOUS
 62
     5
 10
-19.774867644544
 20
-2621.646164933424
 30
0.0
 40
2.1
  1
±0.5
  0
TEXT
  5
8D1
  8
回07-寸法
  6
CONTINUOUS
 62
     5
 10
-14.734867644544
 20
-2621.646164933424
 30
0.0
 40
2.00001
  1
 (Touch panel)
  0
ENDBLK
  5
8D3
  8
回07-寸法
  6
CONTINUOUS
 62
     7
  0
BLOCK
  8
回07-寸法
  2
*X81
 70
     1
 10
0.0
 20
0.0
 30
0.0
  3
*X81
  1

  0
TEXT
  5
8D6
  8
回07-寸法
  6
CONTINUOUS
 62
     5
 10
-26.82986716954393
 20
-2616.134631822882
 30
0.0
 40
3.0
  1
188
  0
TEXT
  5
8D7
  8
回07-寸法
  6
CONTINUOUS
 62
     5
 10
-21.12986716954393
 20
-2616.134631822882
 30
0.0
 40
2.1
  1
±0.3
  0
TEXT
  5
8D8
  8
回07-寸法
  6
CONTINUOUS
 62
     5
 10
-16.08986716954393
 20
-2616.134631822882
 30
0.0
 40
2.00001
  1
 (Cover glass)
  0
ENDBLK
  5
8DA
  8
回07-寸法
  6
CONTINUOUS
 62
     7
  0
BLOCK
  8
回07-寸法
  2
*X82
 70
     1
 10
0.0
 20
0.0
 30
0.0
  3
*X82
  1

  0
TEXT
  5
8DD
  8
回07-寸法
  6
CONTINUOUS
 62
     5
 10
-116.9876697342447
 20
-2717.794881224667
 30
0.0
 40
3.0
  1
91.44
 50
90.0
  0
TEXT
  5
8DE
  8
回07-寸法
  6
CONTINUOUS
 62
     5
 10
-116.9876697342447
 20
-2708.484050119086
 30
0.0
 40
2.00001
  1
 (Active area)
 50
90.0
  0
ENDBLK
  5
8E0
  8
回07-寸法
  6
CONTINUOUS
 62
     7
  0
BLOCK
  8
回07-寸法
  2
*X83
 70
     1
 10
0.0
 20
0.0
 30
0.0
  3
*X83
  1

  0
TEXT
  5
8E3
  8
回07-寸法
  6
CONTINUOUS
 62
     5
 10
-122.6575088459049
 20
-2721.766579369015
 30
0.0
 40
3.0
  1
111.4
 50
90.0
  0
TEXT
  5
8E4
  8
回07-寸法
  6
CONTINUOUS
 62
     5
 10
-122.6575088459049
 20
-2713.966579369014
 30
0.0
 40
2.1
  1
±0.5
 50
90.0
  0
TEXT
  5
8E5
  8
回07-寸法
  6
CONTINUOUS
 62
     5
 10
-122.6575088459049
 20
-2708.926579369014
 30
0.0
 40
2.00001
  1
 (Touch panel)
 50
90.0
  0
ENDBLK
  5
8E7
  8
回07-寸法
  6
CONTINUOUS
 62
     7
  0
BLOCK
  8
回07-寸法
  2
*X84
 70
     1
 10
0.0
 20
0.0
 30
0.0
  3
*X84
  1

  0
TEXT
  5
8EA
  8
回07-寸法
  6
CONTINUOUS
 62
     5
 10
-128.5664528828542
 20
-2718.609050644086
 30
0.0
 40
3.0
  1
133
 50
90.0
  0
TEXT
  5
8EB
  8
回07-寸法
  6
CONTINUOUS
 62
     5
 10
-128.5664528828542
 20
-2712.909050644086
 30
0.0
 40
2.1
  1
±0.3
 50
90.0
  0
TEXT
  5
8EC
  8
回07-寸法
  6
CONTINUOUS
 62
     5
 10
-128.5664528828542
 20
-2707.869050644087
 30
0.0
 40
2.00001
  1
 (Cover glass)
 50
90.0
  0
ENDBLK
  5
8EE
  8
回07-寸法
  6
CONTINUOUS
 62
     7
  0
BLOCK
  8
回07-寸法
  2
*X85
 70
     1
 10
0.0
 20
0.0
 30
0.0
  3
*X85
  1

  0
TEXT
  5
8F1
  8
回07-寸法
  6
CONTINUOUS
 62
     5
 10
-120.2311451312655
 20
-2622.146167433424
 30
0.0
 40
3.0
  1
9.6
  0
TEXT
  5
8F2
  8
回07-寸法
  6
CONTINUOUS
 62
     5
 10
-115.1203140256846
 20
-2622.146167433424
 30
0.0
 40
2.1
  1
±0.6
  0
ENDBLK
  5
8F4
  8
回07-寸法
  6
CONTINUOUS
 62
     7
  0
BLOCK
  8
回07-寸法
  2
*X86
 70
     1
 10
0.0
 20
0.0
 30
0.0
  3
*X86
  1

  0
TEXT
  5
8F7
  8
回07-寸法
  6
CONTINUOUS
 62
     5
 10
-122.1575063459045
 20
-2784.437365465871
 30
0.0
 40
3.0
  1
8.8
 50
90.0
  0
TEXT
  5
8F8
  8
回07-寸法
  6
CONTINUOUS
 62
     5
 10
-122.1575063459045
 20
-2779.337365465871
 30
0.0
 40
2.1
  1
±0.6
 50
90.0
  0
ENDBLK
  5
8FA
  8
回07-寸法
  6
CONTINUOUS
 62
     7
  0
BLOCK
  8
回07-寸法
  2
*X87
 70
     1
 10
0.0
 20
0.0
 30
0.0
  3
*X87
  1

  0
TEXT
  5
8FD
  8
回07-寸法
  6
CONTINUOUS
 62
     5
 10
-62.39388561416194
 20
-2909.451962366586
 30
0.0
 40
3.0
  1
13.5
  0
TEXT
  5
8FE
  8
回07-寸法
  6
CONTINUOUS
 62
     5
 10
-55.79388561416194
 20
-2909.451962366586
 30
0.0
 40
2.1
  1
±0.1
  0
ENDBLK
  5
900
  8
回07-寸法
  6
CONTINUOUS
 62
     7
  0
BLOCK
  8
回07-寸法
  2
*X88
 70
     1
 10
0.0
 20
0.0
 30
0.0
  3
*X88
  1

  0
TEXT
  5
903
  8
回07-寸法
  6
CONTINUOUS
 62
     5
 10
-38.50638980866407
 20
-2925.123278192139
 30
0.0
 40
3.999989999999999
  1
20.5
  0
TEXT
  5
904
  8
回07-寸法
  6
CONTINUOUS
 62
     5
 10
-28.90641380866407
 20
-2925.123278192139
 30
0.0
 40
3.6
  1
±0.1
  0
ENDBLK
  5
906
  8
回07-寸法
  6
CONTINUOUS
 62
     7
  0
BLOCK
  8
回07-寸法
  2
*X89
 70
     1
 10
0.0
 20
0.0
 30
0.0
  3
*X89
  1

  0
TEXT
  5
909
  8
回07-寸法
  6
CONTINUOUS
 62
     5
 10
-131.884367272165
 20
-2853.537465000446
 30
0.0
 40
3.0
  1
8.8
 50
90.0
  0
TEXT
  5
90A
  8
回07-寸法
  6
CONTINUOUS
 62
     5
 10
-131.884367272165
 20
-2848.437465000446
 30
0.0
 40
2.1
  1
±0.6
 50
90.0
  0
ENDBLK
  5
90C
  8
回07-寸法
  6
CONTINUOUS
 62
     7
  0
BLOCK
  8
回07-寸法
  2
*X90
 70
     1
 10
0.0
 20
0.0
 30
0.0
  3
*X90
  1

  0
TEXT
  5
90F
  8
回07-寸法
  6
CONTINUOUS
 62
     5
 10
-129.8446641888532
 20
-2691.297476802317
 30
0.0
 40
3.0
  1
9.6
  0
TEXT
  5
910
  8
回07-寸法
  6
CONTINUOUS
 62
     5
 10
-124.7338330832722
 20
-2691.297476802317
 30
0.0
 40
2.1
  1
±0.6
  0
ENDBLK
  5
912
  8
回07-寸法
  6
CONTINUOUS
 62
     7
  0
BLOCK
  8
回07-寸法
  2
*X91
 70
     1
 10
0.0
 20
0.0
 30
0.0
  3
*X91
  1

  0
TEXT
  5
915
  8
回07-寸法
  6
CONTINUOUS
 62
     5
 10
-138.2570699411885
 20
-2787.760360012979
 30
0.0
 40
3.0
  1
133
 50
90.0
  0
TEXT
  5
916
  8
回07-寸法
  6
CONTINUOUS
 62
     5
 10
-138.2570699411885
 20
-2782.060360012979
 30
0.0
 40
2.1
  1
±0.3
 50
90.0
  0
TEXT
  5
917
  8
回07-寸法
  6
CONTINUOUS
 62
     5
 10
-138.2570699411885
 20
-2777.02036001298
 30
0.0
 40
2.00001
  1
 (Cover glass)
 50
90.0
  0
ENDBLK
  5
919
  8
回07-寸法
  6
CONTINUOUS
 62
     7
  0
BLOCK
  8
回07-寸法
  2
*X92
 70
     1
 10
0.0
 20
0.0
 30
0.0
  3
*X92
  1

  0
TEXT
  5
91C
  8
回07-寸法
  6
CONTINUOUS
 62
     5
 10
-132.3843697721654
 20
-2790.917888737907
 30
0.0
 40
3.0
  1
111.4
 50
90.0
  0
TEXT
  5
91D
  8
回07-寸法
  6
CONTINUOUS
 62
     5
 10
-132.3843697721654
 20
-2783.117888737907
 30
0.0
 40
2.1
  1
±0.5
 50
90.0
  0
TEXT
  5
91E
  8
回07-寸法
  6
CONTINUOUS
 62
     5
 10
-132.3843697721654
 20
-2778.077888737907
 30
0.0
 40
2.00001
  1
 (Touch panel)
 50
90.0
  0
ENDBLK
  5
920
  8
回07-寸法
  6
CONTINUOUS
 62
     7
  0
BLOCK
  8
回07-寸法
  2
*X93
 70
     1
 10
0.0
 20
0.0
 30
0.0
  3
*X93
  1

  0
TEXT
  5
923
  8
回07-寸法
  6
CONTINUOUS
 62
     5
 10
-126.7145306605048
 20
-2786.946190593559
 30
0.0
 40
3.0
  1
91.44
 50
90.0
  0
TEXT
  5
924
  8
回07-寸法
  6
CONTINUOUS
 62
     5
 10
-126.7145306605048
 20
-2777.635359487979
 30
0.0
 40
2.00001
  1
 (Active area)
 50
90.0
  0
ENDBLK
  5
926
  8
回07-寸法
  6
CONTINUOUS
 62
     7
  0
BLOCK
  8
回07-寸法
  2
*X94
 70
     1
 10
0.0
 20
0.0
 30
0.0
  3
*X94
  1

  0
TEXT
  5
929
  8
回07-寸法
  6
CONTINUOUS
 62
     5
 10
-36.55672809580515
 20
-2685.322185059701
 30
0.0
 40
3.0
  1
188
  0
TEXT
  5
92A
  8
回07-寸法
  6
CONTINUOUS
 62
     5
 10
-30.85672809580516
 20
-2685.322185059701
 30
0.0
 40
2.1
  1
±0.3
  0
TEXT
  5
92B
  8
回07-寸法
  6
CONTINUOUS
 62
     5
 10
-25.81672809580516
 20
-2685.322185059701
 30
0.0
 40
2.00001
  1
 (Cover glass)
  0
ENDBLK
  5
92D
  8
回07-寸法
  6
CONTINUOUS
 62
     7
  0
BLOCK
  8
回07-寸法
  2
*X95
 70
     1
 10
0.0
 20
0.0
 30
0.0
  3
*X95
  1

  0
TEXT
  5
930
  8
回07-寸法
  6
CONTINUOUS
 62
     5
 10
-38.20172857080523
 20
-2690.797474302317
 30
0.0
 40
3.0
  1
168.8
  0
TEXT
  5
931
  8
回07-寸法
  6
CONTINUOUS
 62
     5
 10
-29.50172857080523
 20
-2690.797474302317
 30
0.0
 40
2.1
  1
±0.5
  0
TEXT
  5
932
  8
回07-寸法
  6
CONTINUOUS
 62
     5
 10
-24.46172857080523
 20
-2690.797474302317
 30
0.0
 40
2.00001
  1
 (Touch panel)
  0
ENDBLK
  5
934
  8
回07-寸法
  6
CONTINUOUS
 62
     7
  0
BLOCK
  8
回07-寸法
  2
*X96
 70
     1
 10
0.0
 20
0.0
 30
0.0
  3
*X96
  1

  0
TEXT
  5
937
  8
回07-寸法
  6
CONTINUOUS
 62
     5
 10
-35.58172757080504
 20
-2697.100350786229
 30
0.0
 40
3.0
  1
152.4
  0
TEXT
  5
938
  8
回07-寸法
  6
CONTINUOUS
 62
     5
 10
-26.58172757080504
 20
-2697.100350786229
 30
0.0
 40
2.00001
  1
 (Active area)
  0
ENDBLK
  5
93A
  8
回07-寸法
  6
CONTINUOUS
 62
     7
  0
BLOCK
  8
回07-寸法
  2
*X97
 70
     1
 10
0.0
 20
0.0
 30
0.0
  3
*X97
  1

  0
TEXT
  5
93D
  8
回07-寸法
  6
CONTINUOUS
 62
     5
 10
-1.69658113270907
 20
-2862.752675303607
 30
0.0
 40
5.000099999999999
  1
60
 50
90.0
  0
TEXT
  5
93E
  8
回07-寸法
  6
CONTINUOUS
 62
     5
 10
-1.69658113270907
 20
-2855.752535303608
 30
0.0
 40
3.6
  1
±1
 50
90.0
  0
ENDBLK
  5
940
  8
回07-寸法
  6
CONTINUOUS
 62
     7
  0
BLOCK
  8
回07-寸法
  2
*X98
 70
     1
 10
0.0
 20
0.0
 30
0.0
  3
*X98
  1

  0
TEXT
  5
943
  8
回07-寸法
  6
CONTINUOUS
 62
     5
 10
-76.70517450319039
 20
-2866.421249566057
 30
0.0
 40
5.00001
  1
60
 50
90.0
  0
TEXT
  5
944
  8
回07-寸法
  6
CONTINUOUS
 62
     5
 10
-76.70517450319039
 20
-2859.421235566057
 30
0.0
 40
3.6
  1
±1
 50
90.0
  0
ENDBLK
  5
946
  8
回07-寸法
  6
CONTINUOUS
 62
     7
  0
BLOCK
  8
回07-寸法
  2
*X99
 70
     1
 10
0.0
 20
0.0
 30
0.0
  3
*X99
  1

  0
TEXT
  5
949
  8
回06-記事
  6
CONTINUOUS
 62
     5
 10
124.2712061573313
 20
-2902.375754312043
 30
0.0
 40
3.0
  1
0.3
  0
TEXT
  5
94A
  8
回06-記事
  6
CONTINUOUS
 62
     5
 10
129.3712061573313
 20
-2902.375754312043
 30
0.0
 40
2.00001
  1
±0.03
  0
ENDBLK
  5
94C
  8
回07-寸法
  6
CONTINUOUS
 62
     7
  0
BLOCK
  8
回07-寸法
  2
*X100
 70
     1
 10
0.0
 20
0.0
 30
0.0
  3
*X100
  1

  0
TEXT
  5
94F
  8
回06-記事
  6
CONTINUOUS
 62
     5
 10
129.4292994507925
 20
-2896.742367714586
 30
0.0
 40
3.0
  1
0.3
  0
TEXT
  5
950
  8
回06-記事
  6
CONTINUOUS
 62
     5
 10
134.5292994507925
 20
-2896.742367714586
 30
0.0
 40
2.00001
  1
±0.03
  0
ENDBLK
  5
952
  8
回07-寸法
  6
CONTINUOUS
 62
     7
  0
BLOCK
  8
回07-寸法
  2
*X101
 70
     1
 10
0.0
 20
0.0
 30
0.0
  3
*X101
  1

  0
TEXT
  5
955
  8
回06-記事
  6
CONTINUOUS
 62
     5
 10
106.9770814539218
 20
-2697.679555443596
 30
0.0
 40
5.00001
  1
3.6
  0
TEXT
  5
956
  8
回06-記事
  6
CONTINUOUS
 62
     5
 10
115.4770984539218
 20
-2697.679555443596
 30
0.0
 40
3.0
  1
±0.2
  0
ENDBLK
  5
958
  8
回07-寸法
  6
CONTINUOUS
 62
     7
  0
ENDSEC
  0
SECTION
  2
ENTITIES
  0
TEXT
  5
61
  8
回06-記事
  6
CONTINUOUS
 62
     7
 10
193.1314816049432
 20
-2912.625111245358
 30
0.0
 40
3.12
  1
POLYIMIDE     
  0
TEXT
  5
63
  8
回06-記事
  6
CONTINUOUS
 62
     7
 10
193.1314816049432
 20
-2907.425111245359
 30
0.0
 40
3.12
  1
POLYIMIDE     
  0
TEXT
  5
64
  8
回06-記事
  6
CONTINUOUS
 62
     7
 10
271.1083865121111
 20
-2873.483250773843
 30
0.0
 40
3.3
  1
mm
  0
TEXT
  5
65
  8
回06-記事
  6
CONTINUOUS
 62
     7
 10
258.116302767399
 20
-2868.283250773842
 30
0.0
 40
3.3
  1
0.1-0.2mm
  0
TEXT
  5
66
  8
回06-記事
  6
CONTINUOUS
 62
     7
 10
239.339799317798
 20
-2931.436330302135
 30
0.0
 40
2.184
  1
Black printing
  0
TEXT
  5
67
  8
0
  6
CONTINUOUS
 62
     7
 10
239.0490880260752
 20
-2899.63715200961
 30
0.0
 40
1.57535035877848
  1
Electrolytic copper foil 
  0
TEXT
  5
68
  8
0
  6
CONTINUOUS
 62
     7
 10
239.0490880260752
 20
-2902.136009017569
 30
0.0
 40
1.57535035877848
  1
GILDING 
  0
TEXT
  5
69
  8
回06-記事
  6
CONTINUOUS
 62
     7
 10
239.339799317798
 20
-2927.187261782268
 30
0.0
 40
2.184
  1
Clear/Chemical strengthening
  0
TEXT
  5
6A
  8
回06-記事
  6
CONTINUOUS
 62
     7
 10
206.7888400292594
 20
-2929.427271010132
 30
0.0
 40
3.12
  1
t=1.1mm
  0
TEXT
  5
6B
  8
回06-記事
  6
CONTINUOUS
 62
     7
 10
146.281040410494
 20
-2929.735512018101
 30
0.0
 40
3.12
  1
8
  0
TEXT
  5
6C
  8
回06-記事
  6
CONTINUOUS
 62
     7
 10
150.5843981451302
 20
-2930.034125226026
 30
0.0
 40
3.12
  1
COVER GLASS
  0
LINE
  5
6D
  8
回06-記事
  6
CONTINUOUS
 62
     7
 10
144.6870154988239
 20
-2932.897521967267
 30
0.0
 11
279.9250456743195
 21
-2932.897521967266
 31
0.0
  0
TEXT
  5
6E
  8
回06-記事
  6
CONTINUOUS
 62
     7
 10
206.7888400292593
 20
-2891.538197821932
 30
0.0
 40
3.12
  1
t=1.1mm
  0
TEXT
  5
6F
  8
回06-記事
  6
CONTINUOUS
 62
     7
 10
271.1083865121113
 20
-2863.083250773843
 30
0.0
 40
3.3
  1
mm
  0
TEXT
  5
70
  8
回06-記事
  6
CONTINUOUS
 62
     7
 10
257.297257003584
 20
-2857.883250773843
 30
0.0
 40
3.3
  1
0.2-0.3mm
  0
TEXT
  5
71
  8
回06-記事
  6
CONTINUOUS
 62
     7
 10
224.5805853378595
 20
-2922.800709052095
 30
0.0
 40
3.0
  1
25μm
  0
TEXT
  5
72
  8
回06-記事
  6
CONTINUOUS
 62
     7
 10
223.4553469184518
 20
-2917.600709052095
 30
0.0
 40
3.0
  1
150μm
  0
TEXT
  5
73
  8
回06-記事
  6
CONTINUOUS
 62
     7
 10
193.1314816049432
 20
-2922.852471626884
 30
0.0
 40
3.12
  1
POLYESTER
  0
TEXT
  5
74
  8
回06-記事
  6
CONTINUOUS
 62
     7
 10
223.0052515506884
 20
-2912.400709052095
 30
0.0
 40
3.0
  1
225μm
  0
TEXT
  5
75
  8
回06-記事
  6
CONTINUOUS
 62
     7
 10
225.2557348517482
 20
-2907.200709052094
 30
0.0
 40
3.0
  1
25μm
  0
TEXT
  5
76
  8
回06-記事
  6
CONTINUOUS
 62
     7
 10
222.8927309398712
 20
-2902.000709052094
 30
0.0
 40
3.0
  1
12.5μm
  0
TEXT
  5
77
  8
回06-記事
  6
CONTINUOUS
 62
     7
 10
193.1314816049432
 20
-2902.225111245358
 30
0.0
 40
3.12
  1
POLYIMIDE     
  0
TEXT
  5
78
  8
回06-記事
  6
CONTINUOUS
 62
     7
 10
265.3686915430094
 20
-2852.683250773843
 30
0.0
 40
3.3
  1
0.5mm
  0
TEXT
  5
79
  8
回06-記事
  6
CONTINUOUS
 62
     7
 10
146.2810404104939
 20
-2922.694248508264
 30
0.0
 40
3.12
  1
7
  0
LINE
  5
7A
  8
回06-記事
  6
CONTINUOUS
 62
     7
 10
144.6870154988239
 20
-2923.59008954929
 30
0.0
 11
279.9250456743194
 21
-2923.59008954929
 31
0.0
  0
TEXT
  5
7B
  8
回06-記事
  6
CONTINUOUS
 62
     7
 10
150.9652248780089
 20
-2917.407278575506
 30
0.0
 40
3.0
  1
ADHESIVE SHEET
  0
TEXT
  5
7C
  8
回06-記事
  6
CONTINUOUS
 62
     7
 10
150.7860713626696
 20
-2922.572894717575
 30
0.0
 40
3.0
  1
PROTECTION TAPE
  0
TEXT
  5
7D
  8
回06-記事
  6
CONTINUOUS
 62
     7
 10
146.2810404104939
 20
-2917.494248508264
 30
0.0
 40
3.12
  1
6
  0
LINE
  5
7E
  8
回06-記事
  6
CONTINUOUS
 62
     7
 10
144.6870154988239
 20
-2918.390089549289
 30
0.0
 11
279.9250456743195
 21
-2918.390089549289
 31
0.0
  0
TEXT
  5
7F
  8
回06-記事
  6
CONTINUOUS
 62
     7
 10
150.5843981451301
 20
-2912.592861716189
 30
0.0
 40
3.12
  1
STIFFENER
  0
TEXT
  5
80
  8
回06-記事
  6
CONTINUOUS
 62
     7
 10
150.5843981451301
 20
-2907.39286171619
 30
0.0
 40
3.12
  1
REINFORCEMENT FILM
  0
LINE
  5
81
  8
回06-記事
  6
CONTINUOUS
 62
     7
 10
234.9132308294945
 20
-2874.033250773843
 30
0.0
 11
234.9132308294945
 21
-2848.033250773843
 31
0.0
  0
TEXT
  5
82
  8
回06-記事
  6
CONTINUOUS
 62
     7
 10
182.9260107783671
 20
-2852.554557979805
 30
0.0
 40
3.12
  1
FPC PATTERN PITCH
  0
TEXT
  5
83
  8
回06-記事
  6
CONTINUOUS
 62
     7
 10
182.7561817041016
 20
-2859.960309560429
 30
0.0
 40
3.12
  1
FPC PATTERN WIDTH
  0
TEXT
  5
84
  8
回06-記事
  6
CONTINUOUS
 62
     7
 10
181.2930059439631
 20
-2870.589850495484
 30
0.0
 40
3.12
  1
CIRCUIT PATTERN WIDTH
  0
LINE
  5
85
  8
回06-記事
  6
CONTINUOUS
 62
     7
 10
228.7058459428365
 20
-2874.033250773843
 30
0.0
 11
228.7058459428365
 21
-2853.233250773843
 31
0.0
  0
LINE
  5
86
  8
回06-記事
  6
CONTINUOUS
 62
     7
 10
180.9483867084239
 20
-2879.233250773843
 30
0.0
 11
279.2629168364615
 21
-2879.233250773843
 31
0.0
  0
TEXT
  5
87
  8
回06-記事
  6
CONTINUOUS
 62
     7
 10
220.5746607326273
 20
-2847.550608196869
 30
0.0
 40
4.16
  1
REMARKS
  0
LINE
  5
88
  8
回06-記事
  6
CONTINUOUS
 62
     7
 10
228.7058459428367
 20
-2868.833250773842
 30
0.0
 11
279.2629168364615
 21
-2868.833250773842
 31
0.0
  0
LINE
  5
89
  8
回06-記事
  6
CONTINUOUS
 62
     7
 10
228.7058459428367
 20
-2858.433250773843
 30
0.0
 11
279.2629168364615
 21
-2858.433250773843
 31
0.0
  0
LINE
  5
8A
  8
回06-記事
  6
CONTINUOUS
 62
     7
 10
180.9483867084239
 20
-2874.033250773843
 30
0.0
 11
279.2629168364615
 21
-2874.033250773843
 31
0.0
  0
LINE
  5
8B
  8
回06-記事
  6
CONTINUOUS
 62
     7
 10
180.9483867084239
 20
-2842.833250773843
 30
0.0
 11
279.2629168364615
 21
-2842.833250773843
 31
0.0
  0
LINE
  5
8C
  8
回06-記事
  6
CONTINUOUS
 62
     7
 10
180.9483867084239
 20
-2848.033250773843
 30
0.0
 11
279.2629168364615
 21
-2848.033250773843
 31
0.0
  0
LINE
  5
8D
  8
回06-記事
  6
CONTINUOUS
 62
     7
 10
180.9483867084239
 20
-2853.233250773843
 30
0.0
 11
279.2629168364615
 21
-2853.233250773843
 31
0.0
  0
LINE
  5
8E
  8
回06-記事
  6
CONTINUOUS
 62
     7
 10
180.9483867084239
 20
-2863.633250773843
 30
0.0
 11
279.2629168364615
 21
-2863.633250773843
 31
0.0
  0
TEXT
  5
8F
  8
回06-記事
  6
CONTINUOUS
 62
     7
 10
229.1967339564124
 20
-2857.001314507658
 30
0.0
 40
3.12
  1
Cu
  0
TEXT
  5
90
  8
回06-記事
  6
CONTINUOUS
 62
     7
 10
229.1967339564124
 20
-2867.53615899811
 30
0.0
 40
3.12
  1
Ag
  0
TEXT
  5
91
  8
回06-記事
  6
CONTINUOUS
 62
     7
 10
230.3165330568788
 20
-2873.129883851626
 30
0.0
 40
3.12
  1
-
  0
TEXT
  5
92
  8
回06-記事
  6
CONTINUOUS
 62
     7
 10
230.3165330568788
 20
-2862.967953247025
 30
0.0
 40
3.12
  1
-
  0
TEXT
  5
93
  8
回06-記事
  6
CONTINUOUS
 62
     7
 10
249.8354049982183
 20
-2886.456084442274
 30
0.0
 40
3.12
  1
REMARKS
  0
LINE
  5
94
  8
回06-記事
  6
CONTINUOUS
 62
     7
 10
279.9250456743195
 20
-2932.897521967265
 30
0.0
 11
279.9250456743195
 21
-2881.990089549289
 31
0.0
  0
TEXT
  5
95
  8
回06-記事
  6
CONTINUOUS
 62
     7
 10
203.310125969512
 20
-2886.483868086626
 30
0.0
 40
3.12
  1
MATERIAL
  0
TEXT
  5
96
  8
回06-記事
  6
CONTINUOUS
 62
     7
 10
162.8632100250668
 20
-2886.20137893466
 30
0.0
 40
3.12
  1
ITEM
  0
TEXT
  5
97
  8
回06-記事
  6
CONTINUOUS
 62
     7
 10
206.7888400292593
 20
-2896.386007500295
 30
0.0
 40
3.12
  1
t=1.1mm
  0
LINE
  5
98
  8
回06-記事
  6
CONTINUOUS
 62
     7
 10
192.7073715328845
 20
-2932.897521967266
 30
0.0
 11
192.7073715328845
 21
-2881.990089549289
 31
0.0
  0
LINE
  5
99
  8
回06-記事
  6
CONTINUOUS
 62
     7
 10
238.1953562202768
 20
-2932.897521967266
 30
0.0
 11
238.1953562202768
 21
-2881.990089549289
 31
0.0
  0
TEXT
  5
9A
  8
回06-記事
  6
CONTINUOUS
 62
     7
 10
182.5813889076721
 20
-2878.100717857034
 30
0.0
 40
2.808
  1
○TOLERANCE=±0.3mm
  0
TEXT
  5
9B
  8
回06-記事
  6
CONTINUOUS
 62
     7
 10
146.2810404104939
 20
-2901.894248508265
 30
0.0
 40
3.12
  1
3
  0
TEXT
  5
9C
  8
回06-記事
  6
CONTINUOUS
 62
     7
 10
146.2810404104939
 20
-2907.094248508265
 30
0.0
 40
3.12
  1
4
  0
TEXT
  5
9D
  8
回06-記事
  6
CONTINUOUS
 62
     7
 10
146.2810404104939
 20
-2896.694248508265
 30
0.0
 40
3.12
  1
2
  0
TEXT
  5
9E
  8
回06-記事
  6
CONTINUOUS
 62
     7
 10
146.2810404104939
 20
-2912.294248508265
 30
0.0
 40
3.12
  1
5
  0
LINE
  5
9F
  8
回06-記事
  6
CONTINUOUS
 62
     7
 10
150.0974118780677
 20
-2881.990089549289
 30
0.0
 11
150.0974118780677
 21
-2932.897521967266
 31
0.0
  0
LINE
  5
A0
  8
回06-記事
  6
CONTINUOUS
 62
     7
 10
144.6870154988239
 20
-2881.990089549289
 30
0.0
 11
144.6870154988239
 21
-2932.897521967266
 31
0.0
  0
TEXT
  5
A1
  8
回06-記事
  6
CONTINUOUS
 62
     7
 10
146.2810404104939
 20
-2891.494248508264
 30
0.0
 40
3.12
  1
1
  0
LINE
  5
A2
  8
回06-記事
  6
CONTINUOUS
 62
     7
 10
144.6870154988239
 20
-2913.190089549289
 30
0.0
 11
279.9250456743194
 21
-2913.190089549289
 31
0.0
  0
LINE
  5
A3
  8
回06-記事
  6
CONTINUOUS
 62
     7
 10
144.6870154988239
 20
-2881.990089549289
 30
0.0
 11
279.9250456743191
 21
-2881.990089549289
 31
0.0
  0
LINE
  5
A4
  8
回06-記事
  6
CONTINUOUS
 62
     7
 10
144.6870154988239
 20
-2892.390089549289
 30
0.0
 11
279.9250456743192
 21
-2892.390089549289
 31
0.0
  0
LINE
  5
A5
  8
回06-記事
  6
CONTINUOUS
 62
     7
 10
144.6870154988239
 20
-2887.190089549289
 30
0.0
 11
279.9250456743192
 21
-2887.190089549289
 31
0.0
  0
LINE
  5
A6
  8
回06-記事
  6
CONTINUOUS
 62
     7
 10
144.6870154988239
 20
-2907.99008954929
 30
0.0
 11
279.9250456743194
 21
-2907.99008954929
 31
0.0
  0
LINE
  5
A7
  8
回06-記事
  6
CONTINUOUS
 62
     7
 10
144.6870154988239
 20
-2902.790089549289
 30
0.0
 11
279.9250456743193
 21
-2902.790089549289
 31
0.0
  0
LINE
  5
A8
  8
回06-記事
  6
CONTINUOUS
 62
     7
 10
144.6870154988239
 20
-2897.590089549289
 30
0.0
 11
279.9250456743193
 21
-2897.590089549289
 31
0.0
  0
TEXT
  5
A9
  8
回06-記事
  6
CONTINUOUS
 62
     7
 10
150.5843981451301
 20
-2891.792861716189
 30
0.0
 40
3.12
  1
TOP ITO GLASS
  0
TEXT
  5
AA
  8
回06-記事
  6
CONTINUOUS
 62
     7
 10
150.5843981451301
 20
-2896.992861716189
 30
0.0
 40
3.12
  1
BOTTOM ITO GLASS
  0
TEXT
  5
AB
  8
回06-記事
  6
CONTINUOUS
 62
     7
 10
150.5843981451301
 20
-2902.192861716189
 30
0.0
 40
3.12
  1
FPC
  0
LINE
  5
AC
  8
回06-記事
  6
CONTINUOUS
 62
     7
 10
279.2629168364613
 20
-2879.233250773843
 30
0.0
 11
279.2629168364613
 21
-2842.833250773843
 31
0.0
  0
LINE
  5
AD
  8
回06-記事
  6
CONTINUOUS
 62
     7
 10
180.9483867084239
 20
-2842.833250773843
 30
0.0
 11
180.9483867084239
 21
-2879.233250773843
 31
0.0
  0
LINE
  5
AE
  8
回06-記事
  6
CONTINUOUS
 62
     7
 10
256.5484499794646
 20
-2670.52271430249
 30
0.0
 11
263.7743504539458
 21
-2670.52271430249
 31
0.0
  0
TEXT
  5
AF
  8
回06-記事
  6
CONTINUOUS
 62
     7
 10
265.6016913324751
 20
-2671.853431212894
 30
0.0
 40
2.582236799999999
  1
NC
  7
2MM
1001
ACAD
1000
MTEXTBEGIN
1070
    73
1070
     1
1070
    44
1040
1.0
1070
    74
1070
     0
1000
MTEXTEND
  0
LINE
  5
B1
  8
回06-記事
  6
CONTINUOUS
 62
     7
 10
256.5484499794646
 20
-2670.52271430249
 30
0.0
 11
263.7743504539458
 21
-2670.52271430249
 31
0.0
  0
LINE
  5
B2
  8
回06-記事
  6
CONTINUOUS
 62
     7
 10
256.5484499794646
 20
-2670.52271430249
 30
0.0
 11
263.7743504539458
 21
-2670.52271430249
 31
0.0
  0
LINE
  5
B3
  8
回06-記事
  6
CONTINUOUS
 62
     7
 10
256.5484499794646
 20
-2674.340255829004
 30
0.0
 11
263.7743504539458
 21
-2674.340255829004
 31
0.0
  0
TEXT
  5
B4
  8
回06-記事
  6
CONTINUOUS
 62
     7
 10
265.6016913324751
 20
-2675.670972739407
 30
0.0
 40
2.582236799999999
  1
NC
  7
2MM
1001
ACAD
1000
MTEXTBEGIN
1070
    73
1070
     1
1070
    44
1040
1.0
1070
    74
1070
     0
1000
MTEXTEND
  0
LINE
  5
B5
  8
回06-記事
  6
CONTINUOUS
 62
     7
 10
256.5484499794646
 20
-2674.340255829003
 30
0.0
 11
263.7743504539458
 21
-2674.340255829003
 31
0.0
  0
TEXT
  5
B6
  8
回06-記事
  6
CONTINUOUS
 62
     7
 10
232.6606526283817
 20
-2671.879831232482
 30
0.0
 40
2.582236799999999
  1
Dummy
  7
2MM
1001
ACAD
1000
MTEXTBEGIN
1070
    73
1070
     1
1070
    44
1040
1.0
1070
    74
1070
     0
1000
MTEXTEND
  0
TEXT
  5
B7
  8
回06-記事
  6
CONTINUOUS
 62
     7
 10
232.6684103762509
 20
-2675.670972739407
 30
0.0
 40
2.582236799999999
  1
Y15
  7
2MM
1001
ACAD
1000
MTEXTBEGIN
1070
    73
1070
     1
1070
    44
1040
1.0
1070
    74
1070
     0
1000
MTEXTEND
  0
TEXT
  5
B8
  8
回06-記事
  6
CONTINUOUS
 62
     7
 10
232.6684103762509
 20
-2679.488514265921
 30
0.0
 40
2.582236799999999
  1
Y14
  7
2MM
1001
ACAD
1000
MTEXTBEGIN
1070
    73
1070
     1
1070
    44
1040
1.0
1070
    74
1070
     0
1000
MTEXTEND
  0
TEXT
  5
B9
  8
回06-記事
  6
CONTINUOUS
 62
     7
 10
232.6684103762509
 20
-2683.306055792434
 30
0.0
 40
2.582236799999999
  1
Y13
  7
2MM
1001
ACAD
1000
MTEXTBEGIN
1070
    73
1070
     1
1070
    44
1040
1.0
1070
    74
1070
     0
1000
MTEXTEND
  0
TEXT
  5
BA
  8
回06-記事
  6
CONTINUOUS
 62
     7
 10
232.6684103762509
 20
-2687.123597318949
 30
0.0
 40
2.582236799999999
  1
Y12
  7
2MM
1001
ACAD
1000
MTEXTBEGIN
1070
    73
1070
     1
1070
    44
1040
1.0
1070
    74
1070
     0
1000
MTEXTEND
  0
TEXT
  5
BB
  8
回06-記事
  6
CONTINUOUS
 62
     7
 10
232.6684103762509
 20
-2690.941138845462
 30
0.0
 40
2.582236799999999
  1
Y11
  7
2MM
1001
ACAD
1000
MTEXTBEGIN
1070
    73
1070
     1
1070
    44
1040
1.0
1070
    74
1070
     0
1000
MTEXTEND
  0
TEXT
  5
BC
  8
回06-記事
  6
CONTINUOUS
 62
     7
 10
232.6684103762509
 20
-2694.758680371976
 30
0.0
 40
2.582236799999999
  1
Y10
  7
2MM
1001
ACAD
1000
MTEXTBEGIN
1070
    73
1070
     1
1070
    44
1040
1.0
1070
    74
1070
     0
1000
MTEXTEND
  0
TEXT
  5
BD
  8
回06-記事
  6
CONTINUOUS
 62
     7
 10
232.6684103762509
 20
-2698.576221898489
 30
0.0
 40
2.582236799999999
  1
Y09
  7
2MM
1001
ACAD
1000
MTEXTBEGIN
1070
    73
1070
     1
1070
    44
1040
1.0
1070
    74
1070
     0
1000
MTEXTEND
  0
TEXT
  5
BE
  8
回06-記事
  6
CONTINUOUS
 62
     7
 10
232.6684103762509
 20
-2702.393763425003
 30
0.0
 40
2.582236799999999
  1
Y08
  7
2MM
1001
ACAD
1000
MTEXTBEGIN
1070
    73
1070
     1
1070
    44
1040
1.0
1070
    74
1070
     0
1000
MTEXTEND
  0
TEXT
  5
BF
  8
回06-記事
  6
CONTINUOUS
 62
     7
 10
232.6684103762509
 20
-2706.211304951516
 30
0.0
 40
2.582236799999999
  1
Y07
  7
2MM
1001
ACAD
1000
MTEXTBEGIN
1070
    73
1070
     1
1070
    44
1040
1.0
1070
    74
1070
     0
1000
MTEXTEND
  0
TEXT
  5
C0
  8
回06-記事
  6
CONTINUOUS
 62
     7
 10
232.6684103762509
 20
-2710.028846478029
 30
0.0
 40
2.582236799999999
  1
Y06
  7
2MM
1001
ACAD
1000
MTEXTBEGIN
1070
    73
1070
     1
1070
    44
1040
1.0
1070
    74
1070
     0
1000
MTEXTEND
  0
TEXT
  5
C1
  8
回06-記事
  6
CONTINUOUS
 62
     7
 10
232.6684103762509
 20
-2713.846388004542
 30
0.0
 40
2.582236799999999
  1
Y05
  7
2MM
1001
ACAD
1000
MTEXTBEGIN
1070
    73
1070
     1
1070
    44
1040
1.0
1070
    74
1070
     0
1000
MTEXTEND
  0
TEXT
  5
C2
  8
回06-記事
  6
CONTINUOUS
 62
     7
 10
232.6684103762509
 20
-2717.663929531056
 30
0.0
 40
2.582236799999999
  1
Y04
  7
2MM
1001
ACAD
1000
MTEXTBEGIN
1070
    73
1070
     1
1070
    44
1040
1.0
1070
    74
1070
     0
1000
MTEXTEND
  0
TEXT
  5
C3
  8
回06-記事
  6
CONTINUOUS
 62
     7
 10
232.6684103762509
 20
-2721.48147105757
 30
0.0
 40
2.582236799999999
  1
Y03
  7
2MM
1001
ACAD
1000
MTEXTBEGIN
1070
    73
1070
     1
1070
    44
1040
1.0
1070
    74
1070
     0
1000
MTEXTEND
  0
TEXT
  5
C4
  8
回06-記事
  6
CONTINUOUS
 62
     7
 10
232.6684103762509
 20
-2725.299012584084
 30
0.0
 40
2.582236799999999
  1
Y02
  7
2MM
1001
ACAD
1000
MTEXTBEGIN
1070
    73
1070
     1
1070
    44
1040
1.0
1070
    74
1070
     0
1000
MTEXTEND
  0
TEXT
  5
C5
  8
回06-記事
  6
CONTINUOUS
 62
     7
 10
232.6684103762509
 20
-2729.116554110597
 30
0.0
 40
2.582236799999999
  1
Y01
  7
2MM
1001
ACAD
1000
MTEXTBEGIN
1070
    73
1070
     1
1070
    44
1040
1.0
1070
    74
1070
     0
1000
MTEXTEND
  0
TEXT
  5
C6
  8
回06-記事
  6
CONTINUOUS
 62
     7
 10
232.6684103762509
 20
-2732.934095637111
 30
0.0
 40
2.582236799999999
  1
Y00
  7
2MM
1001
ACAD
1000
MTEXTBEGIN
1070
    73
1070
     1
1070
    44
1040
1.0
1070
    74
1070
     0
1000
MTEXTEND
  0
TEXT
  5
C7
  8
回06-記事
  6
CONTINUOUS
 62
     7
 10
232.6684103762509
 20
-2736.751637163624
 30
0.0
 40
2.582236799999999
  1
Dummy
  7
2MM
1001
ACAD
1000
MTEXTBEGIN
1070
    73
1070
     1
1070
    44
1040
1.0
1070
    74
1070
     0
1000
MTEXTEND
  0
TEXT
  5
C8
  8
回06-記事
  6
CONTINUOUS
 62
     7
 10
232.6684103762509
 20
-2740.569178690139
 30
0.0
 40
2.582236799999999
  1
NC
  7
2MM
1001
ACAD
1000
MTEXTBEGIN
1070
    73
1070
     1
1070
    44
1040
1.0
1070
    74
1070
     0
1000
MTEXTEND
  0
TEXT
  5
C9
  8
回06-記事
  6
CONTINUOUS
 62
     7
 10
232.6684103762509
 20
-2744.386720216651
 30
0.0
 40
2.582236799999999
  1
NC
  7
2MM
1001
ACAD
1000
MTEXTBEGIN
1070
    73
1070
     1
1070
    44
1040
1.0
1070
    74
1070
     0
1000
MTEXTEND
  0
TEXT
  5
CA
  8
回06-記事
  6
CONTINUOUS
 62
     7
 10
232.6684103762509
 20
-2748.204261743165
 30
0.0
 40
2.582236799999999
  1
NC
  7
2MM
1001
ACAD
1000
MTEXTBEGIN
1070
    73
1070
     1
1070
    44
1040
1.0
1070
    74
1070
     0
1000
MTEXTEND
  0
TEXT
  5
CB
  8
回06-記事
  6
CONTINUOUS
 62
     7
 10
232.6684103762509
 20
-2752.021803269679
 30
0.0
 40
2.582236799999999
  1
NC
  7
2MM
1001
ACAD
1000
MTEXTBEGIN
1070
    73
1070
     1
1070
    44
1040
1.0
1070
    74
1070
     0
1000
MTEXTEND
  0
TEXT
  5
CC
  8
回06-記事
  6
CONTINUOUS
 62
     7
 10
232.6684103762509
 20
-2755.839344796192
 30
0.0
 40
2.582236799999999
  1
NC
  7
2MM
1001
ACAD
1000
MTEXTBEGIN
1070
    73
1070
     1
1070
    44
1040
1.0
1070
    74
1070
     0
1000
MTEXTEND
  0
TEXT
  5
CD
  8
回06-記事
  6
CONTINUOUS
 62
     7
 10
232.6684103762509
 20
-2759.656886322706
 30
0.0
 40
2.582236799999999
  1
NC
  7
2MM
1001
ACAD
1000
MTEXTBEGIN
1070
    73
1070
     1
1070
    44
1040
1.0
1070
    74
1070
     0
1000
MTEXTEND
  0
TEXT
  5
CE
  8
回06-記事
  6
CONTINUOUS
 62
     7
 10
232.6684103762509
 20
-2763.474427849219
 30
0.0
 40
2.582236799999999
  1
NC
  7
2MM
1001
ACAD
1000
MTEXTBEGIN
1070
    73
1070
     1
1070
    44
1040
1.0
1070
    74
1070
     0
1000
MTEXTEND
  0
TEXT
  5
CF
  8
回06-記事
  6
CONTINUOUS
 62
     7
 10
232.6684103762509
 20
-2767.291969375734
 30
0.0
 40
2.582236799999999
  1
NC
  7
2MM
1001
ACAD
1000
MTEXTBEGIN
1070
    73
1070
     1
1070
    44
1040
1.0
1070
    74
1070
     0
1000
MTEXTEND
  0
LINE
  5
D0
  8
回06-記事
  6
CONTINUOUS
 62
     7
 10
223.6151690232404
 20
-2670.52271430249
 30
0.0
 11
230.8410694977225
 21
-2670.52271430249
 31
0.0
  0
LINE
  5
D1
  8
回06-記事
  6
CONTINUOUS
 62
     7
 10
223.6151690232404
 20
-2674.340255829003
 30
0.0
 11
230.8410694977225
 21
-2674.340255829003
 31
0.0
  0
LINE
  5
D2
  8
回06-記事
  6
CONTINUOUS
 62
     7
 10
223.6151690232404
 20
-2678.157797355517
 30
0.0
 11
230.8410694977225
 21
-2678.157797355517
 31
0.0
  0
LINE
  5
D3
  8
回06-記事
  6
CONTINUOUS
 62
     7
 10
223.6151690232404
 20
-2681.97533888203
 30
0.0
 11
230.8410694977225
 21
-2681.97533888203
 31
0.0
  0
LINE
  5
D4
  8
回06-記事
  6
CONTINUOUS
 62
     7
 10
223.6151690232404
 20
-2685.792880408545
 30
0.0
 11
230.8410694977225
 21
-2685.792880408545
 31
0.0
  0
LINE
  5
D5
  8
回06-記事
  6
CONTINUOUS
 62
     7
 10
223.6151690232404
 20
-2689.610421935058
 30
0.0
 11
230.8410694977225
 21
-2689.610421935058
 31
0.0
  0
LINE
  5
D6
  8
回06-記事
  6
CONTINUOUS
 62
     7
 10
223.6151690232404
 20
-2693.427963461572
 30
0.0
 11
230.8410694977225
 21
-2693.427963461572
 31
0.0
  0
LINE
  5
D7
  8
回06-記事
  6
CONTINUOUS
 62
     7
 10
223.6151690232404
 20
-2697.245504988085
 30
0.0
 11
230.8410694977225
 21
-2697.245504988085
 31
0.0
  0
LINE
  5
D8
  8
回06-記事
  6
CONTINUOUS
 62
     7
 10
223.6151690232404
 20
-2701.063046514598
 30
0.0
 11
230.8410694977225
 21
-2701.063046514598
 31
0.0
  0
LINE
  5
D9
  8
回06-記事
  6
CONTINUOUS
 62
     7
 10
223.6151690232404
 20
-2704.880588041112
 30
0.0
 11
230.8410694977225
 21
-2704.880588041112
 31
0.0
  0
LINE
  5
DA
  8
回06-記事
  6
CONTINUOUS
 62
     7
 10
223.6151690232404
 20
-2708.698129567625
 30
0.0
 11
230.8410694977225
 21
-2708.698129567625
 31
0.0
  0
LINE
  5
DB
  8
回06-記事
  6
CONTINUOUS
 62
     7
 10
223.6151690232404
 20
-2712.515671094139
 30
0.0
 11
230.8410694977225
 21
-2712.515671094139
 31
0.0
  0
LINE
  5
DC
  8
回06-記事
  6
CONTINUOUS
 62
     7
 10
223.6151690232404
 20
-2716.333212620652
 30
0.0
 11
230.8410694977225
 21
-2716.333212620652
 31
0.0
  0
LINE
  5
DD
  8
回06-記事
  6
CONTINUOUS
 62
     7
 10
223.6151690232404
 20
-2720.150754147166
 30
0.0
 11
230.8410694977225
 21
-2720.150754147166
 31
0.0
  0
LINE
  5
DE
  8
回06-記事
  6
CONTINUOUS
 62
     7
 10
223.6151690232404
 20
-2723.968295673679
 30
0.0
 11
230.8410694977225
 21
-2723.968295673679
 31
0.0
  0
LINE
  5
DF
  8
回06-記事
  6
CONTINUOUS
 62
     7
 10
223.6151690232404
 20
-2727.785837200193
 30
0.0
 11
230.8410694977225
 21
-2727.785837200193
 31
0.0
  0
LINE
  5
E0
  8
回06-記事
  6
CONTINUOUS
 62
     7
 10
223.6151690232404
 20
-2731.603378726707
 30
0.0
 11
230.8410694977225
 21
-2731.603378726707
 31
0.0
  0
LINE
  5
E1
  8
回06-記事
  6
CONTINUOUS
 62
     7
 10
223.6151690232404
 20
-2735.42092025322
 30
0.0
 11
230.8410694977225
 21
-2735.42092025322
 31
0.0
  0
LINE
  5
E2
  8
回06-記事
  6
CONTINUOUS
 62
     7
 10
223.6151690232404
 20
-2739.238461779734
 30
0.0
 11
230.8410694977225
 21
-2739.238461779734
 31
0.0
  0
LINE
  5
E3
  8
回06-記事
  6
CONTINUOUS
 62
     7
 10
223.6151690232404
 20
-2743.056003306247
 30
0.0
 11
230.8410694977225
 21
-2743.056003306247
 31
0.0
  0
LINE
  5
E4
  8
回06-記事
  6
CONTINUOUS
 62
     7
 10
223.6151690232404
 20
-2746.873544832761
 30
0.0
 11
230.8410694977225
 21
-2746.873544832761
 31
0.0
  0
LINE
  5
E5
  8
回06-記事
  6
CONTINUOUS
 62
     7
 10
223.6151690232404
 20
-2750.691086359275
 30
0.0
 11
230.8410694977225
 21
-2750.691086359275
 31
0.0
  0
LINE
  5
E6
  8
回06-記事
  6
CONTINUOUS
 62
     7
 10
223.6151690232404
 20
-2754.508627885788
 30
0.0
 11
230.8410694977225
 21
-2754.508627885788
 31
0.0
  0
LINE
  5
E7
  8
回06-記事
  6
CONTINUOUS
 62
     7
 10
223.6151690232404
 20
-2758.326169412301
 30
0.0
 11
230.8410694977225
 21
-2758.326169412301
 31
0.0
  0
LINE
  5
E8
  8
回06-記事
  6
CONTINUOUS
 62
     7
 10
223.6151690232404
 20
-2762.143710938814
 30
0.0
 11
230.8410694977225
 21
-2762.143710938814
 31
0.0
  0
LINE
  5
E9
  8
回06-記事
  6
CONTINUOUS
 62
     7
 10
223.6151690232404
 20
-2765.961252465328
 30
0.0
 11
230.8410694977225
 21
-2765.961252465328
 31
0.0
  0
TEXT
  5
EA
  8
回06-記事
  6
CONTINUOUS
 62
     7
 10
265.6016913324751
 20
-2717.663929531056
 30
0.0
 40
2.582236799999999
  1
Dummy
  7
2MM
1001
ACAD
1000
MTEXTBEGIN
1070
    73
1070
     1
1070
    44
1040
1.0
1070
    74
1070
     0
1000
MTEXTEND
  0
TEXT
  5
EB
  8
回06-記事
  6
CONTINUOUS
 62
     7
 10
265.6016913324751
 20
-2713.846388004544
 30
0.0
 40
2.582236799999999
  1
NC
  7
2MM
1001
ACAD
1000
MTEXTBEGIN
1070
    73
1070
     1
1070
    44
1040
1.0
1070
    74
1070
     0
1000
MTEXTEND
  0
LINE
  5
EC
  8
回06-記事
  6
CONTINUOUS
 62
     7
 10
256.5484499794646
 20
-2670.52271430249
 30
0.0
 11
263.7743504539458
 21
-2670.52271430249
 31
0.0
  0
LINE
  5
ED
  8
回06-記事
  6
CONTINUOUS
 62
     7
 10
256.5484499794646
 20
-2716.333212620652
 30
0.0
 11
263.7743504539458
 21
-2716.333212620652
 31
0.0
  0
LINE
  5
EE
  8
回06-記事
  6
CONTINUOUS
 62
     7
 10
256.5484499794646
 20
-2712.51567109414
 30
0.0
 11
263.7743504539458
 21
-2712.51567109414
 31
0.0
  0
LINE
  5
EF
  8
回06-記事
  6
CONTINUOUS
 62
     7
 10
256.5484499794646
 20
-2708.698129567626
 30
0.0
 11
263.7743504539458
 21
-2708.698129567626
 31
0.0
  0
TEXT
  5
F0
  8
回06-記事
  6
CONTINUOUS
 62
     7
 10
265.6016913324751
 20
-2710.02884647803
 30
0.0
 40
2.582236799999999
  1
NC
  7
2MM
1001
ACAD
1000
MTEXTBEGIN
1070
    73
1070
     1
1070
    44
1040
1.0
1070
    74
1070
     0
1000
MTEXTEND
  0
LINE
  5
F1
  8
回06-記事
  6
CONTINUOUS
 62
     7
 10
256.5484499794646
 20
-2704.880588041112
 30
0.0
 11
263.7743504539458
 21
-2704.880588041112
 31
0.0
  0
TEXT
  5
F2
  8
回06-記事
  6
CONTINUOUS
 62
     7
 10
265.6016913324751
 20
-2706.211304951516
 30
0.0
 40
2.582236799999999
  1
NC
  7
2MM
1001
ACAD
1000
MTEXTBEGIN
1070
    73
1070
     1
1070
    44
1040
1.0
1070
    74
1070
     0
1000
MTEXTEND
  0
LINE
  5
F3
  8
回06-記事
  6
CONTINUOUS
 62
     7
 10
256.5484499794646
 20
-2701.063046514599
 30
0.0
 11
263.7743504539458
 21
-2701.063046514599
 31
0.0
  0
TEXT
  5
F4
  8
回06-記事
  6
CONTINUOUS
 62
     7
 10
265.6016913324751
 20
-2702.393763425003
 30
0.0
 40
2.582236799999999
  1
NC
  7
2MM
1001
ACAD
1000
MTEXTBEGIN
1070
    73
1070
     1
1070
    44
1040
1.0
1070
    74
1070
     0
1000
MTEXTEND
  0
LINE
  5
F5
  8
回06-記事
  6
CONTINUOUS
 62
     7
 10
256.5484499794646
 20
-2697.245504988085
 30
0.0
 11
263.7743504539458
 21
-2697.245504988085
 31
0.0
  0
TEXT
  5
F6
  8
回06-記事
  6
CONTINUOUS
 62
     7
 10
265.6016913324751
 20
-2698.576221898489
 30
0.0
 40
2.582236799999999
  1
NC
  7
2MM
1001
ACAD
1000
MTEXTBEGIN
1070
    73
1070
     1
1070
    44
1040
1.0
1070
    74
1070
     0
1000
MTEXTEND
  0
LINE
  5
F7
  8
回06-記事
  6
CONTINUOUS
 62
     7
 10
256.5484499794646
 20
-2693.427963461572
 30
0.0
 11
263.7743504539458
 21
-2693.427963461572
 31
0.0
  0
TEXT
  5
F8
  8
回06-記事
  6
CONTINUOUS
 62
     7
 10
265.6016913324751
 20
-2694.758680371975
 30
0.0
 40
2.582236799999999
  1
NC
  7
2MM
1001
ACAD
1000
MTEXTBEGIN
1070
    73
1070
     1
1070
    44
1040
1.0
1070
    74
1070
     0
1000
MTEXTEND
  0
LINE
  5
F9
  8
回06-記事
  6
CONTINUOUS
 62
     7
 10
256.5484499794646
 20
-2689.610421935058
 30
0.0
 11
263.7743504539458
 21
-2689.610421935058
 31
0.0
  0
TEXT
  5
FA
  8
回06-記事
  6
CONTINUOUS
 62
     7
 10
265.6016913324751
 20
-2690.941138845462
 30
0.0
 40
2.582236799999999
  1
NC
  7
2MM
1001
ACAD
1000
MTEXTBEGIN
1070
    73
1070
     1
1070
    44
1040
1.0
1070
    74
1070
     0
1000
MTEXTEND
  0
LINE
  5
FB
  8
回06-記事
  6
CONTINUOUS
 62
     7
 10
256.5484499794646
 20
-2685.792880408544
 30
0.0
 11
263.7743504539458
 21
-2685.792880408544
 31
0.0
  0
TEXT
  5
FC
  8
回06-記事
  6
CONTINUOUS
 62
     7
 10
265.6016913324751
 20
-2687.123597318948
 30
0.0
 40
2.582236799999999
  1
NC
  7
2MM
1001
ACAD
1000
MTEXTBEGIN
1070
    73
1070
     1
1070
    44
1040
1.0
1070
    74
1070
     0
1000
MTEXTEND
  0
LINE
  5
FD
  8
回06-記事
  6
CONTINUOUS
 62
     7
 10
256.5484499794646
 20
-2681.975338882031
 30
0.0
 11
263.7743504539458
 21
-2681.975338882031
 31
0.0
  0
TEXT
  5
FE
  8
回06-記事
  6
CONTINUOUS
 62
     7
 10
265.6016913324751
 20
-2683.306055792435
 30
0.0
 40
2.582236799999999
  1
NC
  7
2MM
1001
ACAD
1000
MTEXTBEGIN
1070
    73
1070
     1
1070
    44
1040
1.0
1070
    74
1070
     0
1000
MTEXTEND
  0
LINE
  5
FF
  8
回06-記事
  6
CONTINUOUS
 62
     7
 10
256.5484499794646
 20
-2678.157797355517
 30
0.0
 11
263.7743504539458
 21
-2678.157797355517
 31
0.0
  0
TEXT
  5
100
  8
回06-記事
  6
CONTINUOUS
 62
     7
 10
265.6016913324751
 20
-2679.488514265921
 30
0.0
 40
2.582236799999999
  1
NC
  7
2MM
1001
ACAD
1000
MTEXTBEGIN
1070
    73
1070
     1
1070
    44
1040
1.0
1070
    74
1070
     0
1000
MTEXTEND
  0
LINE
  5
101
  8
回06-記事
  6
CONTINUOUS
 62
     7
 10
256.5484499794646
 20
-2720.150754147166
 30
0.0
 11
263.7743504539458
 21
-2720.150754147166
 31
0.0
  0
TEXT
  5
102
  8
回06-記事
  6
CONTINUOUS
 62
     7
 10
265.6016913324751
 20
-2721.48147105757
 30
0.0
 40
2.582236799999999
  1
X25
  7
2MM
1001
ACAD
1000
MTEXTBEGIN
1070
    73
1070
     1
1070
    44
1040
1.0
1070
    74
1070
     0
1000
MTEXTEND
  0
LINE
  5
103
  8
回06-記事
  6
CONTINUOUS
 62
     7
 10
256.5484499794646
 20
-2723.968295673679
 30
0.0
 11
263.7743504539458
 21
-2723.968295673679
 31
0.0
  0
TEXT
  5
104
  8
回06-記事
  6
CONTINUOUS
 62
     7
 10
265.6016913324751
 20
-2725.299012584084
 30
0.0
 40
2.582236799999999
  1
X24
  7
2MM
1001
ACAD
1000
MTEXTBEGIN
1070
    73
1070
     1
1070
    44
1040
1.0
1070
    74
1070
     0
1000
MTEXTEND
  0
LINE
  5
105
  8
回06-記事
  6
CONTINUOUS
 62
     7
 10
256.5484499794646
 20
-2727.785837200193
 30
0.0
 11
263.7743504539458
 21
-2727.785837200193
 31
0.0
  0
TEXT
  5
106
  8
回06-記事
  6
CONTINUOUS
 62
     7
 10
265.6016913324751
 20
-2729.116554110597
 30
0.0
 40
2.582236799999999
  1
X23
  7
2MM
1001
ACAD
1000
MTEXTBEGIN
1070
    73
1070
     1
1070
    44
1040
1.0
1070
    74
1070
     0
1000
MTEXTEND
  0
LINE
  5
107
  8
回06-記事
  6
CONTINUOUS
 62
     7
 10
256.5484499794646
 20
-2731.603378726707
 30
0.0
 11
263.7743504539458
 21
-2731.603378726707
 31
0.0
  0
TEXT
  5
108
  8
回06-記事
  6
CONTINUOUS
 62
     7
 10
265.6016913324751
 20
-2732.934095637111
 30
0.0
 40
2.582236799999999
  1
X22
  7
2MM
1001
ACAD
1000
MTEXTBEGIN
1070
    73
1070
     1
1070
    44
1040
1.0
1070
    74
1070
     0
1000
MTEXTEND
  0
LINE
  5
109
  8
回06-記事
  6
CONTINUOUS
 62
     7
 10
256.5484499794646
 20
-2735.42092025322
 30
0.0
 11
263.7743504539458
 21
-2735.42092025322
 31
0.0
  0
TEXT
  5
10A
  8
回06-記事
  6
CONTINUOUS
 62
     7
 10
265.6016913324751
 20
-2736.751637163624
 30
0.0
 40
2.582236799999999
  1
X21
  7
2MM
1001
ACAD
1000
MTEXTBEGIN
1070
    73
1070
     1
1070
    44
1040
1.0
1070
    74
1070
     0
1000
MTEXTEND
  0
LINE
  5
10B
  8
回06-記事
  6
CONTINUOUS
 62
     7
 10
256.5484499794646
 20
-2739.238461779734
 30
0.0
 11
263.7743504539458
 21
-2739.238461779734
 31
0.0
  0
TEXT
  5
10C
  8
回06-記事
  6
CONTINUOUS
 62
     7
 10
265.6016913324751
 20
-2740.569178690138
 30
0.0
 40
2.582236799999999
  1
X20
  7
2MM
1001
ACAD
1000
MTEXTBEGIN
1070
    73
1070
     1
1070
    44
1040
1.0
1070
    74
1070
     0
1000
MTEXTEND
  0
LINE
  5
10D
  8
回06-記事
  6
CONTINUOUS
 62
     7
 10
256.5484499794646
 20
-2743.056003306247
 30
0.0
 11
263.7743504539458
 21
-2743.056003306247
 31
0.0
  0
TEXT
  5
10E
  8
回06-記事
  6
CONTINUOUS
 62
     7
 10
265.6016913324751
 20
-2744.386720216651
 30
0.0
 40
2.582236799999999
  1
X19
  7
2MM
1001
ACAD
1000
MTEXTBEGIN
1070
    73
1070
     1
1070
    44
1040
1.0
1070
    74
1070
     0
1000
MTEXTEND
  0
LINE
  5
10F
  8
回06-記事
  6
CONTINUOUS
 62
     7
 10
256.5484499794646
 20
-2746.873544832761
 30
0.0
 11
263.7743504539458
 21
-2746.873544832761
 31
0.0
  0
TEXT
  5
110
  8
回06-記事
  6
CONTINUOUS
 62
     7
 10
265.6016913324751
 20
-2748.204261743165
 30
0.0
 40
2.582236799999999
  1
X18
  7
2MM
1001
ACAD
1000
MTEXTBEGIN
1070
    73
1070
     1
1070
    44
1040
1.0
1070
    74
1070
     0
1000
MTEXTEND
  0
LINE
  5
111
  8
回06-記事
  6
CONTINUOUS
 62
     7
 10
256.5484499794646
 20
-2750.691086359275
 30
0.0
 11
263.7743504539458
 21
-2750.691086359275
 31
0.0
  0
TEXT
  5
112
  8
回06-記事
  6
CONTINUOUS
 62
     7
 10
265.6016913324751
 20
-2752.021803269679
 30
0.0
 40
2.582236799999999
  1
X17
  7
2MM
1001
ACAD
1000
MTEXTBEGIN
1070
    73
1070
     1
1070
    44
1040
1.0
1070
    74
1070
     0
1000
MTEXTEND
  0
LINE
  5
113
  8
回06-記事
  6
CONTINUOUS
 62
     7
 10
256.5484499794646
 20
-2754.508627885788
 30
0.0
 11
263.7743504539458
 21
-2754.508627885788
 31
0.0
  0
TEXT
  5
114
  8
回06-記事
  6
CONTINUOUS
 62
     7
 10
265.6016913324751
 20
-2755.839344796192
 30
0.0
 40
2.582236799999999
  1
X16
  7
2MM
1001
ACAD
1000
MTEXTBEGIN
1070
    73
1070
     1
1070
    44
1040
1.0
1070
    74
1070
     0
1000
MTEXTEND
  0
LINE
  5
115
  8
回06-記事
  6
CONTINUOUS
 62
     7
 10
256.5484499794646
 20
-2758.326169412301
 30
0.0
 11
263.7743504539458
 21
-2758.326169412301
 31
0.0
  0
TEXT
  5
116
  8
回06-記事
  6
CONTINUOUS
 62
     7
 10
265.6016913324751
 20
-2759.656886322706
 30
0.0
 40
2.582236799999999
  1
X15
  7
2MM
1001
ACAD
1000
MTEXTBEGIN
1070
    73
1070
     1
1070
    44
1040
1.0
1070
    74
1070
     0
1000
MTEXTEND
  0
LINE
  5
117
  8
回06-記事
  6
CONTINUOUS
 62
     7
 10
256.5484499794646
 20
-2762.143710938814
 30
0.0
 11
263.7743504539458
 21
-2762.143710938814
 31
0.0
  0
TEXT
  5
118
  8
回06-記事
  6
CONTINUOUS
 62
     7
 10
265.6016913324751
 20
-2763.474427849219
 30
0.0
 40
2.582236799999999
  1
X14
  7
2MM
1001
ACAD
1000
MTEXTBEGIN
1070
    73
1070
     1
1070
    44
1040
1.0
1070
    74
1070
     0
1000
MTEXTEND
  0
LINE
  5
119
  8
回06-記事
  6
CONTINUOUS
 62
     7
 10
256.5484499794646
 20
-2765.961252465328
 30
0.0
 11
263.7743504539458
 21
-2765.961252465328
 31
0.0
  0
TEXT
  5
11A
  8
回06-記事
  6
CONTINUOUS
 62
     7
 10
265.6016913324751
 20
-2767.291969375733
 30
0.0
 40
2.582236799999999
  1
X13
  7
2MM
1001
ACAD
1000
MTEXTBEGIN
1070
    73
1070
     1
1070
    44
1040
1.0
1070
    74
1070
     0
1000
MTEXTEND
  0
LINE
  5
11B
  8
回06-記事
  6
CONTINUOUS
 62
     7
 10
256.5484499794646
 20
-2769.778793991842
 30
0.0
 11
263.7743504539458
 21
-2769.778793991842
 31
0.0
  0
TEXT
  5
11C
  8
回06-記事
  6
CONTINUOUS
 62
     7
 10
265.6016913324751
 20
-2771.109510902246
 30
0.0
 40
2.582236799999999
  1
X12
  7
2MM
1001
ACAD
1000
MTEXTBEGIN
1070
    73
1070
     1
1070
    44
1040
1.0
1070
    74
1070
     0
1000
MTEXTEND
  0
LINE
  5
11D
  8
回06-記事
  6
CONTINUOUS
 62
     7
 10
256.5484499794646
 20
-2773.596335518356
 30
0.0
 11
263.7743504539458
 21
-2773.596335518356
 31
0.0
  0
TEXT
  5
11E
  8
回06-記事
  6
CONTINUOUS
 62
     7
 10
265.6016913324751
 20
-2774.92705242876
 30
0.0
 40
2.582236799999999
  1
X11
  7
2MM
1001
ACAD
1000
MTEXTBEGIN
1070
    73
1070
     1
1070
    44
1040
1.0
1070
    74
1070
     0
1000
MTEXTEND
  0
LINE
  5
11F
  8
回06-記事
  6
CONTINUOUS
 62
     7
 10
256.5484499794646
 20
-2777.413877044869
 30
0.0
 11
263.7743504539458
 21
-2777.413877044869
 31
0.0
  0
TEXT
  5
120
  8
回06-記事
  6
CONTINUOUS
 62
     7
 10
265.6016913324751
 20
-2778.744593955273
 30
0.0
 40
2.582236799999999
  1
X10
  7
2MM
1001
ACAD
1000
MTEXTBEGIN
1070
    73
1070
     1
1070
    44
1040
1.0
1070
    74
1070
     0
1000
MTEXTEND
  0
LINE
  5
121
  8
回06-記事
  6
CONTINUOUS
 62
     7
 10
256.5484499794646
 20
-2781.231418571383
 30
0.0
 11
263.7743504539458
 21
-2781.231418571383
 31
0.0
  0
TEXT
  5
122
  8
回06-記事
  6
CONTINUOUS
 62
     7
 10
265.6016913324751
 20
-2782.562135481787
 30
0.0
 40
2.582236799999999
  1
X09
  7
2MM
1001
ACAD
1000
MTEXTBEGIN
1070
    73
1070
     1
1070
    44
1040
1.0
1070
    74
1070
     0
1000
MTEXTEND
  0
LINE
  5
123
  8
回06-記事
  6
CONTINUOUS
 62
     7
 10
256.5484499794646
 20
-2785.048960097896
 30
0.0
 11
263.7743504539458
 21
-2785.048960097896
 31
0.0
  0
TEXT
  5
124
  8
回06-記事
  6
CONTINUOUS
 62
     7
 10
265.6016913324751
 20
-2786.379677008301
 30
0.0
 40
2.582236799999999
  1
X08
  7
2MM
1001
ACAD
1000
MTEXTBEGIN
1070
    73
1070
     1
1070
    44
1040
1.0
1070
    74
1070
     0
1000
MTEXTEND
  0
LINE
  5
125
  8
回06-記事
  6
CONTINUOUS
 62
     7
 10
256.5484499794646
 20
-2788.86650162441
 30
0.0
 11
263.7743504539458
 21
-2788.86650162441
 31
0.0
  0
TEXT
  5
126
  8
回06-記事
  6
CONTINUOUS
 62
     7
 10
265.6016913324751
 20
-2790.197218534814
 30
0.0
 40
2.582236799999999
  1
X07
  7
2MM
1001
ACAD
1000
MTEXTBEGIN
1070
    73
1070
     1
1070
    44
1040
1.0
1070
    74
1070
     0
1000
MTEXTEND
  0
LINE
  5
127
  8
回06-記事
  6
CONTINUOUS
 62
     7
 10
256.5484499794646
 20
-2792.684043150923
 30
0.0
 11
263.7743504539458
 21
-2792.684043150923
 31
0.0
  0
TEXT
  5
128
  8
回06-記事
  6
CONTINUOUS
 62
     7
 10
265.6016913324751
 20
-2794.014760061327
 30
0.0
 40
2.582236799999999
  1
X06
  7
2MM
1001
ACAD
1000
MTEXTBEGIN
1070
    73
1070
     1
1070
    44
1040
1.0
1070
    74
1070
     0
1000
MTEXTEND
  0
LINE
  5
129
  8
回06-記事
  6
CONTINUOUS
 62
     7
 10
256.5484499794646
 20
-2796.501584677436
 30
0.0
 11
263.7743504539458
 21
-2796.501584677436
 31
0.0
  0
TEXT
  5
12A
  8
回06-記事
  6
CONTINUOUS
 62
     7
 10
265.6016913324751
 20
-2797.832301587841
 30
0.0
 40
2.582236799999999
  1
X05
  7
2MM
1001
ACAD
1000
MTEXTBEGIN
1070
    73
1070
     1
1070
    44
1040
1.0
1070
    74
1070
     0
1000
MTEXTEND
  0
LINE
  5
12B
  8
回06-記事
  6
CONTINUOUS
 62
     7
 10
256.5484499794646
 20
-2800.31912620395
 30
0.0
 11
263.7743504539458
 21
-2800.31912620395
 31
0.0
  0
TEXT
  5
12C
  8
回06-記事
  6
CONTINUOUS
 62
     7
 10
265.6016913324751
 20
-2801.649843114355
 30
0.0
 40
2.582236799999999
  1
X04
  7
2MM
1001
ACAD
1000
MTEXTBEGIN
1070
    73
1070
     1
1070
    44
1040
1.0
1070
    74
1070
     0
1000
MTEXTEND
  0
LINE
  5
12D
  8
回06-記事
  6
CONTINUOUS
 62
     7
 10
256.5484499794646
 20
-2804.136667730464
 30
0.0
 11
263.7743504539458
 21
-2804.136667730464
 31
0.0
  0
TEXT
  5
12E
  8
回06-記事
  6
CONTINUOUS
 62
     7
 10
265.6016913324751
 20
-2805.467384640868
 30
0.0
 40
2.582236799999999
  1
X03
  7
2MM
1001
ACAD
1000
MTEXTBEGIN
1070
    73
1070
     1
1070
    44
1040
1.0
1070
    74
1070
     0
1000
MTEXTEND
  0
LINE
  5
12F
  8
回06-記事
  6
CONTINUOUS
 62
     7
 10
256.5484499794646
 20
-2807.954209256978
 30
0.0
 11
263.7743504539458
 21
-2807.954209256978
 31
0.0
  0
TEXT
  5
130
  8
回06-記事
  6
CONTINUOUS
 62
     7
 10
265.6016913324751
 20
-2809.284926167382
 30
0.0
 40
2.582236799999999
  1
X02
  7
2MM
1001
ACAD
1000
MTEXTBEGIN
1070
    73
1070
     1
1070
    44
1040
1.0
1070
    74
1070
     0
1000
MTEXTEND
  0
LINE
  5
131
  8
回06-記事
  6
CONTINUOUS
 62
     7
 10
256.5484499794646
 20
-2811.771750783491
 30
0.0
 11
263.7743504539458
 21
-2811.771750783491
 31
0.0
  0
TEXT
  5
132
  8
回06-記事
  6
CONTINUOUS
 62
     7
 10
265.6016913324751
 20
-2813.102467693895
 30
0.0
 40
2.582236799999999
  1
X01
  7
2MM
1001
ACAD
1000
MTEXTBEGIN
1070
    73
1070
     1
1070
    44
1040
1.0
1070
    74
1070
     0
1000
MTEXTEND
  0
LINE
  5
133
  8
回06-記事
  6
CONTINUOUS
 62
     7
 10
256.5484499794646
 20
-2815.589292310005
 30
0.0
 11
263.7743504539458
 21
-2815.589292310005
 31
0.0
  0
TEXT
  5
134
  8
回06-記事
  6
CONTINUOUS
 62
     7
 10
265.6016913324751
 20
-2816.920009220408
 30
0.0
 40
2.582236799999999
  1
X00
  7
2MM
1001
ACAD
1000
MTEXTBEGIN
1070
    73
1070
     1
1070
    44
1040
1.0
1070
    74
1070
     0
1000
MTEXTEND
  0
LINE
  5
135
  8
回06-記事
  6
CONTINUOUS
 62
     7
 10
256.5484499794646
 20
-2819.406833836518
 30
0.0
 11
263.7743504539458
 21
-2819.406833836518
 31
0.0
  0
TEXT
  5
136
  8
回06-記事
  6
CONTINUOUS
 62
     7
 10
265.6016913324751
 20
-2820.737550746922
 30
0.0
 40
2.582236799999999
  1
Dummy
  7
2MM
1001
ACAD
1000
MTEXTBEGIN
1070
    73
1070
     1
1070
    44
1040
1.0
1070
    74
1070
     0
1000
MTEXTEND
  0
POLYLINE
  5
137
  8
回06-記事
  6
CONTINUOUS
 62
     7
 66
     1
 10
0.0
 20
0.0
 30
0.0
  0
VERTEX
  5
570
  8
回06-記事
  6
CONTINUOUS
 62
     7
 10
240.0279136207209
 20
-2664.50867296548
 30
0.0
  0
VERTEX
  5
572
  8
回06-記事
  6
CONTINUOUS
 62
     7
 10
243.669228052172
 20
-2664.50867296548
 30
0.0
  0
VERTEX
  5
573
  8
回06-記事
  6
CONTINUOUS
 62
     7
 10
243.669228052171
 20
-2772.513140835974
 30
0.0
  0
VERTEX
  5
574
  8
回06-記事
  6
CONTINUOUS
 62
     7
 10
213.6112588294332
 20
-2772.513140835974
 30
0.0
  0
VERTEX
  5
575
  8
回06-記事
  6
CONTINUOUS
 62
     7
 10
213.6112588294342
 20
-2664.50867296548
 30
0.0
  0
VERTEX
  5
576
  8
回06-記事
  6
CONTINUOUS
 62
     7
 10
218.0116129154144
 20
-2664.50867296548
 30
0.0
  0
SEQEND
  5
571
  8
回07-寸法
  6
CONTINUOUS
 62
     7
  0
LINE
  5
138
  8
回06-記事
  6
CONTINUOUS
 62
     7
 10
223.6151690232404
 20
-2765.961252465328
 30
0.0
 11
230.8410694977225
 21
-2765.961252465328
 31
0.0
  0
TEXT
  5
139
  8
回06-記事
  6
CONTINUOUS
 62
     7
 10
217.7864063534789
 20
-2767.291969375733
 30
0.0
 40
2.582236799999999
  1
26
  7
2MM
1001
ACAD
1000
MTEXTBEGIN
1070
    73
1070
     1
1070
    44
1040
1.0
1070
    74
1070
     0
1000
MTEXTEND
  0
LINE
  5
13A
  8
回06-記事
  6
CONTINUOUS
 62
     7
 10
223.6151690232404
 20
-2762.143710938814
 30
0.0
 11
230.8410694977225
 21
-2762.143710938814
 31
0.0
  0
TEXT
  5
13B
  8
回06-記事
  6
CONTINUOUS
 62
     7
 10
217.7864063534789
 20
-2763.474427849219
 30
0.0
 40
2.582236799999999
  1
25
  7
2MM
1001
ACAD
1000
MTEXTBEGIN
1070
    73
1070
     1
1070
    44
1040
1.0
1070
    74
1070
     0
1000
MTEXTEND
  0
LINE
  5
13C
  8
回06-記事
  6
CONTINUOUS
 62
     7
 10
223.6151690232404
 20
-2758.326169412301
 30
0.0
 11
230.8410694977225
 21
-2758.326169412301
 31
0.0
  0
TEXT
  5
13D
  8
回06-記事
  6
CONTINUOUS
 62
     7
 10
217.7864063534789
 20
-2759.656886322706
 30
0.0
 40
2.582236799999999
  1
24
  7
2MM
1001
ACAD
1000
MTEXTBEGIN
1070
    73
1070
     1
1070
    44
1040
1.0
1070
    74
1070
     0
1000
MTEXTEND
  0
LINE
  5
13E
  8
回06-記事
  6
CONTINUOUS
 62
     7
 10
223.6151690232404
 20
-2754.508627885788
 30
0.0
 11
230.8410694977225
 21
-2754.508627885788
 31
0.0
  0
TEXT
  5
13F
  8
回06-記事
  6
CONTINUOUS
 62
     7
 10
217.7864063534789
 20
-2755.839344796192
 30
0.0
 40
2.582236799999999
  1
23
  7
2MM
1001
ACAD
1000
MTEXTBEGIN
1070
    73
1070
     1
1070
    44
1040
1.0
1070
    74
1070
     0
1000
MTEXTEND
  0
LINE
  5
140
  8
回06-記事
  6
CONTINUOUS
 62
     7
 10
223.6151690232404
 20
-2750.691086359275
 30
0.0
 11
230.8410694977225
 21
-2750.691086359275
 31
0.0
  0
TEXT
  5
141
  8
回06-記事
  6
CONTINUOUS
 62
     7
 10
217.7864063534789
 20
-2752.021803269679
 30
0.0
 40
2.582236799999999
  1
22
  7
2MM
1001
ACAD
1000
MTEXTBEGIN
1070
    73
1070
     1
1070
    44
1040
1.0
1070
    74
1070
     0
1000
MTEXTEND
  0
LINE
  5
142
  8
回06-記事
  6
CONTINUOUS
 62
     7
 10
223.6151690232404
 20
-2746.873544832761
 30
0.0
 11
230.8410694977225
 21
-2746.873544832761
 31
0.0
  0
TEXT
  5
143
  8
回06-記事
  6
CONTINUOUS
 62
     7
 10
217.7864063534789
 20
-2748.204261743165
 30
0.0
 40
2.582236799999999
  1
21
  7
2MM
1001
ACAD
1000
MTEXTBEGIN
1070
    73
1070
     1
1070
    44
1040
1.0
1070
    74
1070
     0
1000
MTEXTEND
  0
LINE
  5
144
  8
回06-記事
  6
CONTINUOUS
 62
     7
 10
223.6151690232404
 20
-2743.056003306247
 30
0.0
 11
230.8410694977225
 21
-2743.056003306247
 31
0.0
  0
TEXT
  5
145
  8
回06-記事
  6
CONTINUOUS
 62
     7
 10
217.7864063534789
 20
-2744.386720216651
 30
0.0
 40
2.582236799999999
  1
20
  7
2MM
1001
ACAD
1000
MTEXTBEGIN
1070
    73
1070
     1
1070
    44
1040
1.0
1070
    74
1070
     0
1000
MTEXTEND
  0
LINE
  5
146
  8
回06-記事
  6
CONTINUOUS
 62
     7
 10
223.6151690232404
 20
-2739.238461779734
 30
0.0
 11
230.8410694977225
 21
-2739.238461779734
 31
0.0
  0
TEXT
  5
147
  8
回06-記事
  6
CONTINUOUS
 62
     7
 10
217.7864063534789
 20
-2740.569178690138
 30
0.0
 40
2.582236799999999
  1
19
  7
2MM
1001
ACAD
1000
MTEXTBEGIN
1070
    73
1070
     1
1070
    44
1040
1.0
1070
    74
1070
     0
1000
MTEXTEND
  0
LINE
  5
148
  8
回06-記事
  6
CONTINUOUS
 62
     7
 10
223.6151690232404
 20
-2735.42092025322
 30
0.0
 11
230.8410694977225
 21
-2735.42092025322
 31
0.0
  0
TEXT
  5
149
  8
回06-記事
  6
CONTINUOUS
 62
     7
 10
217.7864063534789
 20
-2736.751637163624
 30
0.0
 40
2.582236799999999
  1
18
  7
2MM
1001
ACAD
1000
MTEXTBEGIN
1070
    73
1070
     1
1070
    44
1040
1.0
1070
    74
1070
     0
1000
MTEXTEND
  0
LINE
  5
14A
  8
回06-記事
  6
CONTINUOUS
 62
     7
 10
223.6151690232404
 20
-2731.603378726707
 30
0.0
 11
230.8410694977225
 21
-2731.603378726707
 31
0.0
  0
TEXT
  5
14B
  8
回06-記事
  6
CONTINUOUS
 62
     7
 10
217.7864063534789
 20
-2732.934095637111
 30
0.0
 40
2.582236799999999
  1
17
  7
2MM
1001
ACAD
1000
MTEXTBEGIN
1070
    73
1070
     1
1070
    44
1040
1.0
1070
    74
1070
     0
1000
MTEXTEND
  0
LINE
  5
14C
  8
回06-記事
  6
CONTINUOUS
 62
     7
 10
223.6151690232404
 20
-2727.785837200193
 30
0.0
 11
230.8410694977225
 21
-2727.785837200193
 31
0.0
  0
TEXT
  5
14D
  8
回06-記事
  6
CONTINUOUS
 62
     7
 10
217.7864063534789
 20
-2729.116554110597
 30
0.0
 40
2.582236799999999
  1
16
  7
2MM
1001
ACAD
1000
MTEXTBEGIN
1070
    73
1070
     1
1070
    44
1040
1.0
1070
    74
1070
     0
1000
MTEXTEND
  0
LINE
  5
14E
  8
回06-記事
  6
CONTINUOUS
 62
     7
 10
223.6151690232404
 20
-2723.968295673679
 30
0.0
 11
230.8410694977225
 21
-2723.968295673679
 31
0.0
  0
TEXT
  5
14F
  8
回06-記事
  6
CONTINUOUS
 62
     7
 10
217.7864063534789
 20
-2725.299012584084
 30
0.0
 40
2.582236799999999
  1
15
  7
2MM
1001
ACAD
1000
MTEXTBEGIN
1070
    73
1070
     1
1070
    44
1040
1.0
1070
    74
1070
     0
1000
MTEXTEND
  0
LINE
  5
150
  8
回06-記事
  6
CONTINUOUS
 62
     7
 10
223.6151690232404
 20
-2720.150754147166
 30
0.0
 11
230.8410694977225
 21
-2720.150754147166
 31
0.0
  0
TEXT
  5
151
  8
回06-記事
  6
CONTINUOUS
 62
     7
 10
217.7864063534789
 20
-2721.48147105757
 30
0.0
 40
2.582236799999999
  1
14
  7
2MM
1001
ACAD
1000
MTEXTBEGIN
1070
    73
1070
     1
1070
    44
1040
1.0
1070
    74
1070
     0
1000
MTEXTEND
  0
LINE
  5
152
  8
回06-記事
  6
CONTINUOUS
 62
     7
 10
223.6151690232404
 20
-2716.333212620652
 30
0.0
 11
230.8410694977225
 21
-2716.333212620652
 31
0.0
  0
TEXT
  5
153
  8
回06-記事
  6
CONTINUOUS
 62
     7
 10
217.7864063534789
 20
-2717.663929531056
 30
0.0
 40
2.582236799999999
  1
13
  7
2MM
1001
ACAD
1000
MTEXTBEGIN
1070
    73
1070
     1
1070
    44
1040
1.0
1070
    74
1070
     0
1000
MTEXTEND
  0
LINE
  5
154
  8
回06-記事
  6
CONTINUOUS
 62
     7
 10
223.6151690232404
 20
-2712.515671094139
 30
0.0
 11
230.8410694977225
 21
-2712.515671094139
 31
0.0
  0
TEXT
  5
155
  8
回06-記事
  6
CONTINUOUS
 62
     7
 10
217.7864063534789
 20
-2713.846388004544
 30
0.0
 40
2.582236799999999
  1
12
  7
2MM
1001
ACAD
1000
MTEXTBEGIN
1070
    73
1070
     1
1070
    44
1040
1.0
1070
    74
1070
     0
1000
MTEXTEND
  0
LINE
  5
156
  8
回06-記事
  6
CONTINUOUS
 62
     7
 10
223.6151690232404
 20
-2708.698129567625
 30
0.0
 11
230.8410694977225
 21
-2708.698129567625
 31
0.0
  0
TEXT
  5
157
  8
回06-記事
  6
CONTINUOUS
 62
     7
 10
217.7864063534789
 20
-2710.028846478029
 30
0.0
 40
2.582236799999999
  1
11
  7
2MM
1001
ACAD
1000
MTEXTBEGIN
1070
    73
1070
     1
1070
    44
1040
1.0
1070
    74
1070
     0
1000
MTEXTEND
  0
LINE
  5
158
  8
回06-記事
  6
CONTINUOUS
 62
     7
 10
223.6151690232404
 20
-2704.880588041112
 30
0.0
 11
230.8410694977225
 21
-2704.880588041112
 31
0.0
  0
TEXT
  5
159
  8
回06-記事
  6
CONTINUOUS
 62
     7
 10
217.7864063534789
 20
-2706.211304951516
 30
0.0
 40
2.582236799999999
  1
10
  7
2MM
1001
ACAD
1000
MTEXTBEGIN
1070
    73
1070
     1
1070
    44
1040
1.0
1070
    74
1070
     0
1000
MTEXTEND
  0
LINE
  5
15A
  8
回06-記事
  6
CONTINUOUS
 62
     7
 10
223.6151690232404
 20
-2701.063046514598
 30
0.0
 11
230.8410694977225
 21
-2701.063046514598
 31
0.0
  0
TEXT
  5
15B
  8
回06-記事
  6
CONTINUOUS
 62
     7
 10
217.777083527007
 20
-2702.393763425003
 30
0.0
 40
2.582236799999999
  1
9
  7
2MM
1001
ACAD
1000
MTEXTBEGIN
1070
    73
1070
     1
1070
    44
1040
1.0
1070
    74
1070
     0
1000
MTEXTEND
  0
LINE
  5
15C
  8
回06-記事
  6
CONTINUOUS
 62
     7
 10
223.6151690232404
 20
-2697.245504988085
 30
0.0
 11
230.8410694977225
 21
-2697.245504988085
 31
0.0
  0
TEXT
  5
15D
  8
回06-記事
  6
CONTINUOUS
 62
     7
 10
217.7864063534789
 20
-2698.576221898489
 30
0.0
 40
2.582236799999999
  1
8
  7
2MM
1001
ACAD
1000
MTEXTBEGIN
1070
    73
1070
     1
1070
    44
1040
1.0
1070
    74
1070
     0
1000
MTEXTEND
  0
LINE
  5
15E
  8
回06-記事
  6
CONTINUOUS
 62
     7
 10
223.6151690232404
 20
-2693.427963461572
 30
0.0
 11
230.8410694977225
 21
-2693.427963461572
 31
0.0
  0
TEXT
  5
15F
  8
回06-記事
  6
CONTINUOUS
 62
     7
 10
217.7864063534789
 20
-2694.758680371975
 30
0.0
 40
2.582236799999999
  1
7
  7
2MM
1001
ACAD
1000
MTEXTBEGIN
1070
    73
1070
     1
1070
    44
1040
1.0
1070
    74
1070
     0
1000
MTEXTEND
  0
LINE
  5
160
  8
回06-記事
  6
CONTINUOUS
 62
     7
 10
223.6151690232404
 20
-2689.610421935058
 30
0.0
 11
230.8410694977225
 21
-2689.610421935058
 31
0.0
  0
TEXT
  5
161
  8
回06-記事
  6
CONTINUOUS
 62
     7
 10
217.7864063534789
 20
-2690.941138845462
 30
0.0
 40
2.582236799999999
  1
6
  7
2MM
1001
ACAD
1000
MTEXTBEGIN
1070
    73
1070
     1
1070
    44
1040
1.0
1070
    74
1070
     0
1000
MTEXTEND
  0
LINE
  5
162
  8
回06-記事
  6
CONTINUOUS
 62
     7
 10
223.6151690232404
 20
-2685.792880408545
 30
0.0
 11
230.8410694977225
 21
-2685.792880408545
 31
0.0
  0
TEXT
  5
163
  8
回06-記事
  6
CONTINUOUS
 62
     7
 10
217.7864063534789
 20
-2687.123597318948
 30
0.0
 40
2.582236799999999
  1
5
  7
2MM
1001
ACAD
1000
MTEXTBEGIN
1070
    73
1070
     1
1070
    44
1040
1.0
1070
    74
1070
     0
1000
MTEXTEND
  0
LINE
  5
164
  8
回06-記事
  6
CONTINUOUS
 62
     7
 10
223.6151690232404
 20
-2681.97533888203
 30
0.0
 11
230.8410694977225
 21
-2681.97533888203
 31
0.0
  0
TEXT
  5
165
  8
回06-記事
  6
CONTINUOUS
 62
     7
 10
217.7864063534789
 20
-2683.306055792434
 30
0.0
 40
2.582236799999999
  1
4
  7
2MM
1001
ACAD
1000
MTEXTBEGIN
1070
    73
1070
     1
1070
    44
1040
1.0
1070
    74
1070
     0
1000
MTEXTEND
  0
LINE
  5
166
  8
回06-記事
  6
CONTINUOUS
 62
     7
 10
223.6151690232404
 20
-2678.157797355517
 30
0.0
 11
230.8410694977225
 21
-2678.157797355517
 31
0.0
  0
TEXT
  5
167
  8
回06-記事
  6
CONTINUOUS
 62
     7
 10
217.7864063534789
 20
-2679.488514265921
 30
0.0
 40
2.582236799999999
  1
3
  7
2MM
1001
ACAD
1000
MTEXTBEGIN
1070
    73
1070
     1
1070
    44
1040
1.0
1070
    74
1070
     0
1000
MTEXTEND
  0
LINE
  5
168
  8
回06-記事
  6
CONTINUOUS
 62
     7
 10
223.6151690232404
 20
-2674.340255829003
 30
0.0
 11
230.8410694977225
 21
-2674.340255829003
 31
0.0
  0
LINE
  5
169
  8
回06-記事
  6
CONTINUOUS
 62
     7
 10
223.6151690232404
 20
-2670.52271430249
 30
0.0
 11
230.8410694977225
 21
-2670.52271430249
 31
0.0
  0
TEXT
  5
16A
  8
回06-記事
  6
CONTINUOUS
 62
     7
 10
217.7864063534789
 20
-2675.670972739407
 30
0.0
 40
2.582236799999999
  1
2
  7
2MM
1001
ACAD
1000
MTEXTBEGIN
1070
    73
1070
     1
1070
    44
1040
1.0
1070
    74
1070
     0
1000
MTEXTEND
  0
TEXT
  5
16B
  8
回06-記事
  6
CONTINUOUS
 62
     7
 10
217.7864063534789
 20
-2671.853431212894
 30
0.0
 40
2.582236799999999
  1
1
  7
2MM
1001
ACAD
1000
MTEXTBEGIN
1070
    73
1070
     1
1070
    44
1040
1.0
1070
    74
1070
     0
1000
MTEXTEND
  0
TEXT
  5
16C
  8
回06-記事
  6
CONTINUOUS
 62
     7
 10
218.2820090584581
 20
-2665.754090554236
 30
0.0
 40
2.753061696
  1
CN-1 PinOut
  0
TEXT
  5
16D
  8
回06-記事
  6
CONTINUOUS
 62
     7
 10
253.3722127855424
 20
-2665.445495305019
 30
0.0
 40
2.753061696
  1
CN-2 PinOut
  0
POLYLINE
  5
16E
  8
回06-記事
  6
CONTINUOUS
 62
     7
 66
     1
 10
0.0
 20
0.0
 30
0.0
  0
VERTEX
  5
577
  8
回06-記事
  6
CONTINUOUS
 62
     7
 10
274.2560395077195
 20
-2664.50867296548
 30
0.0
  0
VERTEX
  5
579
  8
回06-記事
  6
CONTINUOUS
 62
     7
 10
277.8973539391706
 20
-2664.50867296548
 30
0.0
  0
VERTEX
  5
57A
  8
回06-記事
  6
CONTINUOUS
 62
     7
 10
277.8973539391716
 20
-2824.69138030572
 30
0.0
  0
VERTEX
  5
57B
  8
回06-記事
  6
CONTINUOUS
 62
     7
 10
247.8393847164327
 20
-2824.69138030572
 30
0.0
  0
VERTEX
  5
57C
  8
回06-記事
  6
CONTINUOUS
 62
     7
 10
247.8393847164327
 20
-2664.50867296548
 30
0.0
  0
VERTEX
  5
57D
  8
回06-記事
  6
CONTINUOUS
 62
     7
 10
252.2397388024119
 20
-2664.50867296548
 30
0.0
  0
SEQEND
  5
578
  8
回07-寸法
  6
CONTINUOUS
 62
     7
  0
LINE
  5
16F
  8
回06-記事
  6
CONTINUOUS
 62
     7
 10
256.5484499794646
 20
-2819.406833836518
 30
0.0
 11
263.7743504539458
 21
-2819.406833836518
 31
0.0
  0
TEXT
  5
170
  8
回06-記事
  6
CONTINUOUS
 62
     7
 10
250.7196873097032
 20
-2820.737550746922
 30
0.0
 40
2.582236799999999
  1
40
  7
2MM
1001
ACAD
1000
MTEXTBEGIN
1070
    73
1070
     1
1070
    44
1040
1.0
1070
    74
1070
     0
1000
MTEXTEND
  0
LINE
  5
171
  8
回06-記事
  6
CONTINUOUS
 62
     7
 10
256.5484499794646
 20
-2815.589292310005
 30
0.0
 11
263.7743504539458
 21
-2815.589292310005
 31
0.0
  0
TEXT
  5
172
  8
回06-記事
  6
CONTINUOUS
 62
     7
 10
250.7196873097032
 20
-2816.920009220408
 30
0.0
 40
2.582236799999999
  1
39
  7
2MM
1001
ACAD
1000
MTEXTBEGIN
1070
    73
1070
     1
1070
    44
1040
1.0
1070
    74
1070
     0
1000
MTEXTEND
  0
LINE
  5
173
  8
回06-記事
  6
CONTINUOUS
 62
     7
 10
256.5484499794646
 20
-2811.771750783491
 30
0.0
 11
263.7743504539458
 21
-2811.771750783491
 31
0.0
  0
TEXT
  5
174
  8
回06-記事
  6
CONTINUOUS
 62
     7
 10
250.7196873097032
 20
-2813.102467693895
 30
0.0
 40
2.582236799999999
  1
38
  7
2MM
1001
ACAD
1000
MTEXTBEGIN
1070
    73
1070
     1
1070
    44
1040
1.0
1070
    74
1070
     0
1000
MTEXTEND
  0
LINE
  5
175
  8
回06-記事
  6
CONTINUOUS
 62
     7
 10
256.5484499794646
 20
-2807.954209256978
 30
0.0
 11
263.7743504539458
 21
-2807.954209256978
 31
0.0
  0
TEXT
  5
176
  8
回06-記事
  6
CONTINUOUS
 62
     7
 10
250.7196873097032
 20
-2809.284926167382
 30
0.0
 40
2.582236799999999
  1
37
  7
2MM
1001
ACAD
1000
MTEXTBEGIN
1070
    73
1070
     1
1070
    44
1040
1.0
1070
    74
1070
     0
1000
MTEXTEND
  0
LINE
  5
177
  8
回06-記事
  6
CONTINUOUS
 62
     7
 10
256.5484499794646
 20
-2804.136667730464
 30
0.0
 11
263.7743504539458
 21
-2804.136667730464
 31
0.0
  0
TEXT
  5
178
  8
回06-記事
  6
CONTINUOUS
 62
     7
 10
250.7196873097032
 20
-2805.467384640868
 30
0.0
 40
2.582236799999999
  1
36
  7
2MM
1001
ACAD
1000
MTEXTBEGIN
1070
    73
1070
     1
1070
    44
1040
1.0
1070
    74
1070
     0
1000
MTEXTEND
  0
LINE
  5
179
  8
回06-記事
  6
CONTINUOUS
 62
     7
 10
256.5484499794646
 20
-2800.31912620395
 30
0.0
 11
263.7743504539458
 21
-2800.31912620395
 31
0.0
  0
TEXT
  5
17A
  8
回06-記事
  6
CONTINUOUS
 62
     7
 10
250.7196873097032
 20
-2801.649843114355
 30
0.0
 40
2.582236799999999
  1
35
  7
2MM
1001
ACAD
1000
MTEXTBEGIN
1070
    73
1070
     1
1070
    44
1040
1.0
1070
    74
1070
     0
1000
MTEXTEND
  0
LINE
  5
17B
  8
回06-記事
  6
CONTINUOUS
 62
     7
 10
256.5484499794646
 20
-2796.501584677436
 30
0.0
 11
263.7743504539458
 21
-2796.501584677436
 31
0.0
  0
TEXT
  5
17C
  8
回06-記事
  6
CONTINUOUS
 62
     7
 10
250.7196873097032
 20
-2797.832301587841
 30
0.0
 40
2.582236799999999
  1
34
  7
2MM
1001
ACAD
1000
MTEXTBEGIN
1070
    73
1070
     1
1070
    44
1040
1.0
1070
    74
1070
     0
1000
MTEXTEND
  0
LINE
  5
17D
  8
回06-記事
  6
CONTINUOUS
 62
     7
 10
256.5484499794646
 20
-2792.684043150923
 30
0.0
 11
263.7743504539458
 21
-2792.684043150923
 31
0.0
  0
TEXT
  5
17E
  8
回06-記事
  6
CONTINUOUS
 62
     7
 10
250.7196873097032
 20
-2794.014760061327
 30
0.0
 40
2.582236799999999
  1
33
  7
2MM
1001
ACAD
1000
MTEXTBEGIN
1070
    73
1070
     1
1070
    44
1040
1.0
1070
    74
1070
     0
1000
MTEXTEND
  0
LINE
  5
17F
  8
回06-記事
  6
CONTINUOUS
 62
     7
 10
256.5484499794646
 20
-2788.86650162441
 30
0.0
 11
263.7743504539458
 21
-2788.86650162441
 31
0.0
  0
TEXT
  5
180
  8
回06-記事
  6
CONTINUOUS
 62
     7
 10
250.7196873097032
 20
-2790.197218534814
 30
0.0
 40
2.582236799999999
  1
32
  7
2MM
1001
ACAD
1000
MTEXTBEGIN
1070
    73
1070
     1
1070
    44
1040
1.0
1070
    74
1070
     0
1000
MTEXTEND
  0
LINE
  5
181
  8
回06-記事
  6
CONTINUOUS
 62
     7
 10
256.5484499794646
 20
-2785.048960097896
 30
0.0
 11
263.7743504539458
 21
-2785.048960097896
 31
0.0
  0
TEXT
  5
182
  8
回06-記事
  6
CONTINUOUS
 62
     7
 10
250.7196873097032
 20
-2786.379677008301
 30
0.0
 40
2.582236799999999
  1
31
  7
2MM
1001
ACAD
1000
MTEXTBEGIN
1070
    73
1070
     1
1070
    44
1040
1.0
1070
    74
1070
     0
1000
MTEXTEND
  0
LINE
  5
183
  8
回06-記事
  6
CONTINUOUS
 62
     7
 10
256.5484499794646
 20
-2781.231418571383
 30
0.0
 11
263.7743504539458
 21
-2781.231418571383
 31
0.0
  0
TEXT
  5
184
  8
回06-記事
  6
CONTINUOUS
 62
     7
 10
250.7196873097032
 20
-2782.562135481787
 30
0.0
 40
2.582236799999999
  1
30
  7
2MM
1001
ACAD
1000
MTEXTBEGIN
1070
    73
1070
     1
1070
    44
1040
1.0
1070
    74
1070
     0
1000
MTEXTEND
  0
LINE
  5
185
  8
回06-記事
  6
CONTINUOUS
 62
     7
 10
256.5484499794646
 20
-2777.413877044869
 30
0.0
 11
263.7743504539458
 21
-2777.413877044869
 31
0.0
  0
TEXT
  5
186
  8
回06-記事
  6
CONTINUOUS
 62
     7
 10
250.7196873097032
 20
-2778.744593955273
 30
0.0
 40
2.582236799999999
  1
29
  7
2MM
1001
ACAD
1000
MTEXTBEGIN
1070
    73
1070
     1
1070
    44
1040
1.0
1070
    74
1070
     0
1000
MTEXTEND
  0
LINE
  5
187
  8
回06-記事
  6
CONTINUOUS
 62
     7
 10
256.5484499794646
 20
-2773.596335518356
 30
0.0
 11
263.7743504539458
 21
-2773.596335518356
 31
0.0
  0
TEXT
  5
188
  8
回06-記事
  6
CONTINUOUS
 62
     7
 10
250.7196873097032
 20
-2774.92705242876
 30
0.0
 40
2.582236799999999
  1
28
  7
2MM
1001
ACAD
1000
MTEXTBEGIN
1070
    73
1070
     1
1070
    44
1040
1.0
1070
    74
1070
     0
1000
MTEXTEND
  0
LINE
  5
189
  8
回06-記事
  6
CONTINUOUS
 62
     7
 10
256.5484499794646
 20
-2769.778793991842
 30
0.0
 11
263.7743504539458
 21
-2769.778793991842
 31
0.0
  0
TEXT
  5
18A
  8
回06-記事
  6
CONTINUOUS
 62
     7
 10
250.7196873097032
 20
-2771.109510902246
 30
0.0
 40
2.582236799999999
  1
27
  7
2MM
1001
ACAD
1000
MTEXTBEGIN
1070
    73
1070
     1
1070
    44
1040
1.0
1070
    74
1070
     0
1000
MTEXTEND
  0
LINE
  5
18B
  8
回06-記事
  6
CONTINUOUS
 62
     7
 10
256.5484499794646
 20
-2765.961252465328
 30
0.0
 11
263.7743504539458
 21
-2765.961252465328
 31
0.0
  0
TEXT
  5
18C
  8
回06-記事
  6
CONTINUOUS
 62
     7
 10
250.7196873097032
 20
-2767.291969375733
 30
0.0
 40
2.582236799999999
  1
26
  7
2MM
1001
ACAD
1000
MTEXTBEGIN
1070
    73
1070
     1
1070
    44
1040
1.0
1070
    74
1070
     0
1000
MTEXTEND
  0
LINE
  5
18D
  8
回06-記事
  6
CONTINUOUS
 62
     7
 10
256.5484499794646
 20
-2762.143710938814
 30
0.0
 11
263.7743504539458
 21
-2762.143710938814
 31
0.0
  0
TEXT
  5
18E
  8
回06-記事
  6
CONTINUOUS
 62
     7
 10
250.7196873097032
 20
-2763.474427849219
 30
0.0
 40
2.582236799999999
  1
25
  7
2MM
1001
ACAD
1000
MTEXTBEGIN
1070
    73
1070
     1
1070
    44
1040
1.0
1070
    74
1070
     0
1000
MTEXTEND
  0
LINE
  5
18F
  8
回06-記事
  6
CONTINUOUS
 62
     7
 10
256.5484499794646
 20
-2758.326169412301
 30
0.0
 11
263.7743504539458
 21
-2758.326169412301
 31
0.0
  0
TEXT
  5
190
  8
回06-記事
  6
CONTINUOUS
 62
     7
 10
250.7196873097032
 20
-2759.656886322706
 30
0.0
 40
2.582236799999999
  1
24
  7
2MM
1001
ACAD
1000
MTEXTBEGIN
1070
    73
1070
     1
1070
    44
1040
1.0
1070
    74
1070
     0
1000
MTEXTEND
  0
LINE
  5
191
  8
回06-記事
  6
CONTINUOUS
 62
     7
 10
256.5484499794646
 20
-2754.508627885788
 30
0.0
 11
263.7743504539458
 21
-2754.508627885788
 31
0.0
  0
TEXT
  5
192
  8
回06-記事
  6
CONTINUOUS
 62
     7
 10
250.7196873097032
 20
-2755.839344796192
 30
0.0
 40
2.582236799999999
  1
23
  7
2MM
1001
ACAD
1000
MTEXTBEGIN
1070
    73
1070
     1
1070
    44
1040
1.0
1070
    74
1070
     0
1000
MTEXTEND
  0
LINE
  5
193
  8
回06-記事
  6
CONTINUOUS
 62
     7
 10
256.5484499794646
 20
-2750.691086359275
 30
0.0
 11
263.7743504539458
 21
-2750.691086359275
 31
0.0
  0
TEXT
  5
194
  8
回06-記事
  6
CONTINUOUS
 62
     7
 10
250.7196873097032
 20
-2752.021803269679
 30
0.0
 40
2.582236799999999
  1
22
  7
2MM
1001
ACAD
1000
MTEXTBEGIN
1070
    73
1070
     1
1070
    44
1040
1.0
1070
    74
1070
     0
1000
MTEXTEND
  0
LINE
  5
195
  8
回06-記事
  6
CONTINUOUS
 62
     7
 10
256.5484499794646
 20
-2746.873544832761
 30
0.0
 11
263.7743504539458
 21
-2746.873544832761
 31
0.0
  0
TEXT
  5
196
  8
回06-記事
  6
CONTINUOUS
 62
     7
 10
250.7196873097032
 20
-2748.204261743165
 30
0.0
 40
2.582236799999999
  1
21
  7
2MM
1001
ACAD
1000
MTEXTBEGIN
1070
    73
1070
     1
1070
    44
1040
1.0
1070
    74
1070
     0
1000
MTEXTEND
  0
LINE
  5
197
  8
回06-記事
  6
CONTINUOUS
 62
     7
 10
256.5484499794646
 20
-2743.056003306247
 30
0.0
 11
263.7743504539458
 21
-2743.056003306247
 31
0.0
  0
TEXT
  5
198
  8
回06-記事
  6
CONTINUOUS
 62
     7
 10
250.7196873097032
 20
-2744.386720216651
 30
0.0
 40
2.582236799999999
  1
20
  7
2MM
1001
ACAD
1000
MTEXTBEGIN
1070
    73
1070
     1
1070
    44
1040
1.0
1070
    74
1070
     0
1000
MTEXTEND
  0
LINE
  5
199
  8
回06-記事
  6
CONTINUOUS
 62
     7
 10
256.5484499794646
 20
-2739.238461779734
 30
0.0
 11
263.7743504539458
 21
-2739.238461779734
 31
0.0
  0
TEXT
  5
19A
  8
回06-記事
  6
CONTINUOUS
 62
     7
 10
250.7196873097032
 20
-2740.569178690138
 30
0.0
 40
2.582236799999999
  1
19
  7
2MM
1001
ACAD
1000
MTEXTBEGIN
1070
    73
1070
     1
1070
    44
1040
1.0
1070
    74
1070
     0
1000
MTEXTEND
  0
LINE
  5
19B
  8
回06-記事
  6
CONTINUOUS
 62
     7
 10
256.5484499794646
 20
-2735.42092025322
 30
0.0
 11
263.7743504539458
 21
-2735.42092025322
 31
0.0
  0
TEXT
  5
19C
  8
回06-記事
  6
CONTINUOUS
 62
     7
 10
250.7196873097032
 20
-2736.751637163624
 30
0.0
 40
2.582236799999999
  1
18
  7
2MM
1001
ACAD
1000
MTEXTBEGIN
1070
    73
1070
     1
1070
    44
1040
1.0
1070
    74
1070
     0
1000
MTEXTEND
  0
LINE
  5
19D
  8
回06-記事
  6
CONTINUOUS
 62
     7
 10
256.5484499794646
 20
-2731.603378726707
 30
0.0
 11
263.7743504539458
 21
-2731.603378726707
 31
0.0
  0
TEXT
  5
19E
  8
回06-記事
  6
CONTINUOUS
 62
     7
 10
250.7196873097032
 20
-2732.934095637111
 30
0.0
 40
2.582236799999999
  1
17
  7
2MM
1001
ACAD
1000
MTEXTBEGIN
1070
    73
1070
     1
1070
    44
1040
1.0
1070
    74
1070
     0
1000
MTEXTEND
  0
LINE
  5
19F
  8
回06-記事
  6
CONTINUOUS
 62
     7
 10
256.5484499794646
 20
-2727.785837200193
 30
0.0
 11
263.7743504539458
 21
-2727.785837200193
 31
0.0
  0
TEXT
  5
1A0
  8
回06-記事
  6
CONTINUOUS
 62
     7
 10
250.7196873097032
 20
-2729.116554110597
 30
0.0
 40
2.582236799999999
  1
16
  7
2MM
1001
ACAD
1000
MTEXTBEGIN
1070
    73
1070
     1
1070
    44
1040
1.0
1070
    74
1070
     0
1000
MTEXTEND
  0
LINE
  5
1A1
  8
回06-記事
  6
CONTINUOUS
 62
     7
 10
256.5484499794646
 20
-2723.968295673679
 30
0.0
 11
263.7743504539458
 21
-2723.968295673679
 31
0.0
  0
TEXT
  5
1A2
  8
回06-記事
  6
CONTINUOUS
 62
     7
 10
250.7196873097032
 20
-2725.299012584084
 30
0.0
 40
2.582236799999999
  1
15
  7
2MM
1001
ACAD
1000
MTEXTBEGIN
1070
    73
1070
     1
1070
    44
1040
1.0
1070
    74
1070
     0
1000
MTEXTEND
  0
LINE
  5
1A3
  8
回06-記事
  6
CONTINUOUS
 62
     7
 10
256.5484499794646
 20
-2720.150754147166
 30
0.0
 11
263.7743504539458
 21
-2720.150754147166
 31
0.0
  0
TEXT
  5
1A4
  8
回06-記事
  6
CONTINUOUS
 62
     7
 10
250.7196873097032
 20
-2721.48147105757
 30
0.0
 40
2.582236799999999
  1
14
  7
2MM
1001
ACAD
1000
MTEXTBEGIN
1070
    73
1070
     1
1070
    44
1040
1.0
1070
    74
1070
     0
1000
MTEXTEND
  0
LINE
  5
1A5
  8
回06-記事
  6
CONTINUOUS
 62
     7
 10
256.5484499794646
 20
-2716.333212620652
 30
0.0
 11
263.7743504539458
 21
-2716.333212620652
 31
0.0
  0
TEXT
  5
1A6
  8
回06-記事
  6
CONTINUOUS
 62
     7
 10
250.7196873097032
 20
-2717.663929531056
 30
0.0
 40
2.582236799999999
  1
13
  7
2MM
1001
ACAD
1000
MTEXTBEGIN
1070
    73
1070
     1
1070
    44
1040
1.0
1070
    74
1070
     0
1000
MTEXTEND
  0
LINE
  5
1A7
  8
回06-記事
  6
CONTINUOUS
 62
     7
 10
256.5484499794646
 20
-2712.515671094139
 30
0.0
 11
263.7743504539458
 21
-2712.515671094139
 31
0.0
  0
TEXT
  5
1A8
  8
回06-記事
  6
CONTINUOUS
 62
     7
 10
250.7196873097032
 20
-2713.846388004544
 30
0.0
 40
2.582236799999999
  1
12
  7
2MM
1001
ACAD
1000
MTEXTBEGIN
1070
    73
1070
     1
1070
    44
1040
1.0
1070
    74
1070
     0
1000
MTEXTEND
  0
LINE
  5
1A9
  8
回06-記事
  6
CONTINUOUS
 62
     7
 10
256.5484499794646
 20
-2708.698129567625
 30
0.0
 11
263.7743504539458
 21
-2708.698129567625
 31
0.0
  0
TEXT
  5
1AA
  8
回06-記事
  6
CONTINUOUS
 62
     7
 10
250.7196873097032
 20
-2710.028846478029
 30
0.0
 40
2.582236799999999
  1
11
  7
2MM
1001
ACAD
1000
MTEXTBEGIN
1070
    73
1070
     1
1070
    44
1040
1.0
1070
    74
1070
     0
1000
MTEXTEND
  0
LINE
  5
1AB
  8
回06-記事
  6
CONTINUOUS
 62
     7
 10
256.5484499794646
 20
-2704.880588041112
 30
0.0
 11
263.7743504539458
 21
-2704.880588041112
 31
0.0
  0
TEXT
  5
1AC
  8
回06-記事
  6
CONTINUOUS
 62
     7
 10
250.7196873097032
 20
-2706.211304951516
 30
0.0
 40
2.582236799999999
  1
10
  7
2MM
1001
ACAD
1000
MTEXTBEGIN
1070
    73
1070
     1
1070
    44
1040
1.0
1070
    74
1070
     0
1000
MTEXTEND
  0
LINE
  5
1AD
  8
回06-記事
  6
CONTINUOUS
 62
     7
 10
256.5484499794646
 20
-2701.063046514598
 30
0.0
 11
263.7743504539458
 21
-2701.063046514598
 31
0.0
  0
TEXT
  5
1AE
  8
回06-記事
  6
CONTINUOUS
 62
     7
 10
250.7103644832312
 20
-2702.393763425003
 30
0.0
 40
2.582236799999999
  1
9
  7
2MM
1001
ACAD
1000
MTEXTBEGIN
1070
    73
1070
     1
1070
    44
1040
1.0
1070
    74
1070
     0
1000
MTEXTEND
  0
LINE
  5
1AF
  8
回06-記事
  6
CONTINUOUS
 62
     7
 10
256.5484499794646
 20
-2697.245504988085
 30
0.0
 11
263.7743504539458
 21
-2697.245504988085
 31
0.0
  0
TEXT
  5
1B0
  8
回06-記事
  6
CONTINUOUS
 62
     7
 10
250.7196873097032
 20
-2698.576221898489
 30
0.0
 40
2.582236799999999
  1
8
  7
2MM
1001
ACAD
1000
MTEXTBEGIN
1070
    73
1070
     1
1070
    44
1040
1.0
1070
    74
1070
     0
1000
MTEXTEND
  0
LINE
  5
1B1
  8
回06-記事
  6
CONTINUOUS
 62
     7
 10
256.5484499794646
 20
-2693.427963461572
 30
0.0
 11
263.7743504539458
 21
-2693.427963461572
 31
0.0
  0
TEXT
  5
1B2
  8
回06-記事
  6
CONTINUOUS
 62
     7
 10
250.7196873097032
 20
-2694.758680371975
 30
0.0
 40
2.582236799999999
  1
7
  7
2MM
1001
ACAD
1000
MTEXTBEGIN
1070
    73
1070
     1
1070
    44
1040
1.0
1070
    74
1070
     0
1000
MTEXTEND
  0
LINE
  5
1B3
  8
回06-記事
  6
CONTINUOUS
 62
     7
 10
256.5484499794646
 20
-2689.610421935058
 30
0.0
 11
263.7743504539458
 21
-2689.610421935058
 31
0.0
  0
TEXT
  5
1B4
  8
回06-記事
  6
CONTINUOUS
 62
     7
 10
250.7196873097032
 20
-2690.941138845462
 30
0.0
 40
2.582236799999999
  1
6
  7
2MM
1001
ACAD
1000
MTEXTBEGIN
1070
    73
1070
     1
1070
    44
1040
1.0
1070
    74
1070
     0
1000
MTEXTEND
  0
LINE
  5
1B5
  8
回06-記事
  6
CONTINUOUS
 62
     7
 10
256.5484499794646
 20
-2685.792880408545
 30
0.0
 11
263.7743504539458
 21
-2685.792880408545
 31
0.0
  0
TEXT
  5
1B6
  8
回06-記事
  6
CONTINUOUS
 62
     7
 10
250.7196873097032
 20
-2687.123597318948
 30
0.0
 40
2.582236799999999
  1
5
  7
2MM
1001
ACAD
1000
MTEXTBEGIN
1070
    73
1070
     1
1070
    44
1040
1.0
1070
    74
1070
     0
1000
MTEXTEND
  0
LINE
  5
1B7
  8
回06-記事
  6
CONTINUOUS
 62
     7
 10
256.5484499794646
 20
-2681.97533888203
 30
0.0
 11
263.7743504539458
 21
-2681.97533888203
 31
0.0
  0
TEXT
  5
1B8
  8
回06-記事
  6
CONTINUOUS
 62
     7
 10
250.7196873097032
 20
-2683.306055792434
 30
0.0
 40
2.582236799999999
  1
4
  7
2MM
1001
ACAD
1000
MTEXTBEGIN
1070
    73
1070
     1
1070
    44
1040
1.0
1070
    74
1070
     0
1000
MTEXTEND
  0
LINE
  5
1B9
  8
回06-記事
  6
CONTINUOUS
 62
     7
 10
256.5484499794646
 20
-2678.157797355517
 30
0.0
 11
263.7743504539458
 21
-2678.157797355517
 31
0.0
  0
TEXT
  5
1BA
  8
回06-記事
  6
CONTINUOUS
 62
     7
 10
250.7196873097032
 20
-2679.488514265921
 30
0.0
 40
2.582236799999999
  1
3
  7
2MM
1001
ACAD
1000
MTEXTBEGIN
1070
    73
1070
     1
1070
    44
1040
1.0
1070
    74
1070
     0
1000
MTEXTEND
  0
LINE
  5
1BB
  8
回06-記事
  6
CONTINUOUS
 62
     7
 10
256.5484499794646
 20
-2674.340255829003
 30
0.0
 11
263.7743504539458
 21
-2674.340255829003
 31
0.0
  0
LINE
  5
1BC
  8
回06-記事
  6
CONTINUOUS
 62
     7
 10
256.5484499794646
 20
-2670.52271430249
 30
0.0
 11
263.7743504539458
 21
-2670.52271430249
 31
0.0
  0
TEXT
  5
1BD
  8
回06-記事
  6
CONTINUOUS
 62
     7
 10
250.7196873097032
 20
-2675.670972739407
 30
0.0
 40
2.582236799999999
  1
2
  7
2MM
1001
ACAD
1000
MTEXTBEGIN
1070
    73
1070
     1
1070
    44
1040
1.0
1070
    74
1070
     0
1000
MTEXTEND
  0
TEXT
  5
1BE
  8
回06-記事
  6
CONTINUOUS
 62
     7
 10
250.7196873097032
 20
-2671.853431212894
 30
0.0
 40
2.582236799999999
  1
1
  7
2MM
1001
ACAD
1000
MTEXTBEGIN
1070
    73
1070
     1
1070
    44
1040
1.0
1070
    74
1070
     0
1000
MTEXTEND
  0
DIMENSION
  5
1BF
  8
回07-寸法
  6
CONTINUOUS
 62
     7
  2
*D28
 10
-91.59558815449084
 20
-2799.360711440736
 30
0.0
 11
-93.59558815449084
 21
-2802.210711440736
 31
0.0
 70
    32
  3
DMC
 13
-102.3570795235609
 23
-2805.060711440735
 33
0.0
 14
-102.3570795235609
 24
-2799.360711440736
 34
0.0
 50
90.0
1001
ACAD
1000
DSTYLE
1002
{
1070
    41
1040
1.5
1070
    47
1040
0.2
1070
    48
1040
0.2
1070
   141
1040
1.5
1070
   371
1070
    13
1070
   372
1070
    13
1002
}
  0
DIMENSION
  5
1CF
  8
回07-寸法
  6
CONTINUOUS
 62
     7
  2
*D29
 10
-78.17707952356113
 20
-2815.839051277346
 30
0.0
 11
-71.52582698091028
 21
-2813.839051277346
 31
0.0
 70
    32
  3
DMC
 13
-84.03707952356127
 23
-2822.885711440735
 33
0.0
 14
-78.17707952356113
 24
-2822.885711440735
 34
0.0
1001
ACAD
1000
DSTYLE
1002
{
1070
    41
1040
1.5
1070
    47
1040
0.2
1070
    48
1040
0.2
1070
   141
1040
1.5
1070
   371
1070
    13
1070
   372
1070
    13
1002
}
  0
POLYLINE
  5
1E0
  8
回08-CG
  6
CONTINUOUS
 62
     7
 66
     1
 10
0.0
 20
0.0
 30
0.0
 70
     1
1001
ACAD
1000
ASC_BOUNDS
1002
{
1070
    19
1005
430
1002
}
  0
VERTEX
  5
57E
  8
回08-CG
  6
CONTINUOUS
 62
     7
 10
-112.507079523561
 20
-2707.710711440735
 30
0.0
  0
VERTEX
  5
580
  8
回08-CG
  6
CONTINUOUS
 62
     7
 10
67.49292047643894
 20
-2707.710711440735
 30
0.0
 42
-0.4142135623730951
  0
VERTEX
  5
581
  8
回08-CG
  6
CONTINUOUS
 62
     7
 10
70.99292047643894
 20
-2711.210711440735
 30
0.0
  0
VERTEX
  5
582
  8
回08-CG
  6
CONTINUOUS
 62
     7
 10
70.99292047643894
 20
-2836.210711440735
 30
0.0
 42
-0.4142135623730951
  0
VERTEX
  5
583
  8
回08-CG
  6
CONTINUOUS
 62
     7
 10
67.49292047643894
 20
-2839.710711440735
 30
0.0
  0
VERTEX
  5
584
  8
回08-CG
  6
CONTINUOUS
 62
     7
 10
-112.507079523561
 20
-2839.710711440735
 30
0.0
 42
-0.4142135623730951
  0
VERTEX
  5
585
  8
回08-CG
  6
CONTINUOUS
 62
     7
 10
-116.007079523561
 20
-2836.210711440735
 30
0.0
  0
VERTEX
  5
586
  8
回08-CG
  6
CONTINUOUS
 62
     7
 10
-116.007079523561
 20
-2711.210711440735
 30
0.0
 42
-0.4142135623730951
  0
SEQEND
  5
57F
  8
回07-寸法
  6
CONTINUOUS
 62
     7
  0
POLYLINE
  5
1E4
  8
回08-CG
  6
CONTINUOUS
 62
     7
 66
     1
 10
0.0
 20
0.0
 30
0.0
 70
     1
  0
VERTEX
  5
587
  8
回08-CG
  6
CONTINUOUS
 62
     7
 10
-112.507079523561
 20
-2707.210711440735
 30
0.0
  0
VERTEX
  5
589
  8
回08-CG
  6
CONTINUOUS
 62
     7
 10
67.49292047643894
 20
-2707.210711440735
 30
0.0
 42
-0.4142135623730951
  0
VERTEX
  5
58A
  8
回08-CG
  6
CONTINUOUS
 62
     7
 10
71.49292047643894
 20
-2711.210711440735
 30
0.0
  0
VERTEX
  5
58B
  8
回08-CG
  6
CONTINUOUS
 62
     7
 10
71.49292047643894
 20
-2836.210711440735
 30
0.0
 42
-0.4142135623730951
  0
VERTEX
  5
58C
  8
回08-CG
  6
CONTINUOUS
 62
     7
 10
67.49292047643894
 20
-2840.210711440735
 30
0.0
  0
VERTEX
  5
58D
  8
回08-CG
  6
CONTINUOUS
 62
     7
 10
-112.507079523561
 20
-2840.210711440735
 30
0.0
 42
-0.4142135623730951
  0
VERTEX
  5
58E
  8
回08-CG
  6
CONTINUOUS
 62
     7
 10
-116.507079523561
 20
-2836.210711440735
 30
0.0
  0
VERTEX
  5
58F
  8
回08-CG
  6
CONTINUOUS
 62
     7
 10
-116.507079523561
 20
-2711.210711440735
 30
0.0
 42
-0.4142135623730951
  0
SEQEND
  5
588
  8
回07-寸法
  6
CONTINUOUS
 62
     7
  0
DIMENSION
  5
1E5
  8
回07-寸法
  6
CONTINUOUS
  2
*D30
 10
-49.96638561416125
 20
-2909.951962366586
 30
0.0
 11
-56.71638561416194
 21
-2907.951962366586
 31
0.0
 70
    32
  3
DMC
 13
-63.46638561416262
 23
-2891.22336315874
 33
0.0
 14
-49.96638561416125
 24
-2891.22336315874
 34
0.0
1001
ACAD
1000
DSTYLE
1002
{
1070
   147
1040
0.5
1070
    72
1070
     0
1070
    71
1070
     1
1070
    41
1040
1.5
1070
    47
1040
0.1
1070
    48
1040
0.1
1070
   141
1040
1.5
1070
   371
1070
    13
1070
   372
1070
    13
1002
}
  0
DIMENSION
  5
1F4
  8
回07-寸法
  6
CONTINUOUS
  2
*D31
 10
-106.9570795235611
 20
-2925.623278192139
 30
0.0
 11
-73.46174104111288
 21
-2922.37322319214
 31
0.0
 70
    32
  1
{\H1.6667x;(<>)}
  3
DMC
 13
-39.96640255866464
 23
-2891.22336315874
 33
0.0
 14
-106.9570795235611
 24
-2831.423363158739
 34
0.0
1001
ACAD
1000
DSTYLE
1002
{
1070
   271
1070
     1
1070
    41
1040
1.5
1070
    47
1040
0.2
1070
    48
1040
0.2
1070
   141
1040
1.5
1070
   371
1070
    13
1070
   372
1070
    13
1002
}
  0
DIMENSION
  5
203
  8
回07-寸法
  6
CONTINUOUS
  2
*D32
 10
-63.46638561416262
 20
-2909.951962366586
 30
0.0
 11
-85.21173256886186
 21
-2906.701907366586
 31
0.0
 70
    32
  1
{\H1.6667x;(<>)}
  3
DMC
 13
-106.9570795235611
 23
-2831.423363158739
 33
0.0
 14
-63.46638561416262
 24
-2891.22336315874
 34
0.0
1001
ACAD
1000
DSTYLE
1002
{
1070
   271
1070
     1
1070
    41
1040
1.5
1070
    47
1040
0.2
1070
    48
1040
0.2
1070
   141
1040
1.5
1070
   371
1070
    13
1070
   372
1070
    13
1002
}
  0
DIMENSION
  5
212
  8
回07-寸法
  6
CONTINUOUS
  2
*D33
 10
-19.4664025586635
 20
-2925.623278192139
 30
0.0
 11
-29.71640255866407
 21
-2925.623278192139
 31
0.0
 70
   160
  1
{\H1.33333x;<>}
  3
DMC
 13
-39.96640255866464
 23
-2891.22336315874
 33
0.0
 14
-19.4664025586635
 24
-2891.22336315874
 34
0.0
1001
ACAD
1000
DSTYLE
1002
{
1070
    47
1040
0.1
1070
    48
1040
0.1
1070
    71
1070
     1
1070
   146
1040
1.199999999999999
1002
}
  0
INSERT
  5
221
  8
回07-寸法
  6
CONTINUOUS
 62
     7
 66
     1
  2
*X53
 10
0.0
 20
0.0
 30
0.0
1001
ACAD_MLEADERVER
1070
     2
  0
SEQEND
  5
59F
  8
回07-寸法
  6
CONTINUOUS
 62
     7
  0
DIMENSION
  5
223
  8
回07-寸法
  6
CONTINUOUS
 62
     7
  2
*D34
 10
-131.3843672721651
 20
-2840.210711440735
 30
0.0
 11
-133.3843672721651
 21
-2848.39908822059
 31
0.0
 70
    32
  3
DMC
 13
-106.9570795235611
 23
-2831.423239690663
 33
0.0
 14
-112.507079523561
 24
-2840.210711440735
 34
0.0
 50
90.0
1001
ACAD
1000
DSTYLE
1002
{
1070
   147
1040
0.5
1070
    72
1070
     0
1070
    71
1070
     1
1070
   271
1070
     1
1070
    41
1040
1.5
1070
    47
1040
0.6
1070
    48
1040
0.6
1070
   141
1040
1.5
1070
   371
1070
    13
1070
   372
1070
    13
1002
}
  0
DIMENSION
  5
234
  8
回07-寸法
  6
CONTINUOUS
 62
     7
  2
*D35
 10
-126.1145301605052
 20
-2831.423239690663
 30
0.0
 11
-128.1145301605052
 21
-2825.426975565699
 31
0.0
 70
    32
  3
DMC
 13
-98.70707952356111
 23
-2819.430711440734
 33
0.0
 14
-106.9570795235611
 24
-2831.423239690663
 34
0.0
 50
90.0
1001
ACAD
1000
DSTYLE
1002
{
1070
   271
1070
     1
1070
    41
1040
1.5
1070
    47
1040
0.2
1070
    48
1040
0.2
1070
   141
1040
1.5
1070
   371
1070
    13
1070
   372
1070
    13
1002
}
  0
DIMENSION
  5
243
  8
回07-寸法
  6
CONTINUOUS
 62
     7
  2
*D36
 10
-116.507079523561
 20
-2691.797476802317
 30
0.0
 11
-124.6954563034166
 21
-2689.797476802317
 31
0.0
 70
    32
  3
DMC
 13
-106.9570795235611
 23
-2720.023239690664
 33
0.0
 14
-116.507079523561
 24
-2711.210711440735
 34
0.0
1001
ACAD
1000
DSTYLE
1002
{
1070
   147
1040
0.5
1070
    72
1070
     0
1070
    71
1070
     1
1070
   271
1070
     1
1070
    41
1040
1.5
1070
    47
1040
0.6
1070
    48
1040
0.6
1070
   141
1040
1.5
1070
   371
1070
    13
1070
   372
1070
    13
1002
}
  0
DIMENSION
  5
254
  8
回07-寸法
  6
CONTINUOUS
 62
     7
  2
*D37
 10
-106.9570795235611
 20
-2697.700351286229
 30
0.0
 11
-102.8320795235611
 21
-2695.700351286229
 31
0.0
 70
    32
  3
DMC
 13
-98.70707952356111
 23
-2727.990711440736
 33
0.0
 14
-106.9570795235611
 24
-2720.023239690665
 34
0.0
1001
ACAD
1000
DSTYLE
1002
{
1070
   271
1070
     1
1070
    41
1040
1.5
1070
    47
1040
0.2
1070
    48
1040
0.2
1070
   141
1040
1.5
1070
   371
1070
    13
1070
   372
1070
    13
1002
}
  0
DIMENSION
  5
263
  8
回07-寸法
  6
CONTINUOUS
 62
     7
  2
*D38
 10
-137.2570674411887
 20
-2840.210711440735
 30
0.0
 11
-139.5070686911887
 21
-2773.710711440735
 31
0.0
 70
    32
  1
<>{\H0.66667x; (Cover glass)}
  3
DMC
 13
-112.5070795235608
 23
-2707.210711440735
 33
0.0
 14
-112.507079523561
 24
-2840.210711440735
 34
0.0
 50
90.0
1001
ACAD
1000
DSTYLE
1002
{
1070
   147
1040
0.5
1070
    72
1070
     0
1070
    71
1070
     1
1070
    41
1040
1.5
1070
    47
1040
0.3
1070
    48
1040
0.3
1070
   141
1040
1.5
1070
   371
1070
    13
1070
   372
1070
    13
1002
}
  0
DIMENSION
  5
272
  8
回07-寸法
  6
CONTINUOUS
 62
     7
  2
*D39
 10
-131.3843672721652
 20
-2720.023239690663
 30
0.0
 11
-133.6343685221652
 21
-2775.723239690663
 31
0.0
 70
    32
  1
<>{\H0.66667x; (Touch panel)}
  3
DMC
 13
-106.9570795235611
 23
-2831.423239690663
 33
0.0
 14
-106.9570795235611
 24
-2720.023239690663
 34
0.0
 50
90.0
1001
ACAD
1000
DSTYLE
1002
{
1070
   147
1040
0.5
1070
    72
1070
     0
1070
    71
1070
     1
1070
    41
1040
1.5
1070
    47
1040
0.5
1070
    48
1040
0.5
1070
   141
1040
1.5
1070
   371
1070
    13
1070
   372
1070
    13
1002
}
  0
DIMENSION
  5
281
  8
回07-寸法
  6
CONTINUOUS
 62
     7
  2
*D40
 10
-126.1145301605052
 20
-2819.430711440734
 30
0.0
 11
-128.164530410505
 21
-2773.710711440735
 31
0.0
 70
    32
  1
<>{\H0.66667x; (Active area)}
  3
DMC
 13
-98.70707952356111
 23
-2727.990711440735
 33
0.0
 14
-98.70707952356111
 24
-2819.430711440734
 34
0.0
 50
90.0
1001
ACAD
1000
DSTYLE
1002
{
1070
    41
1040
1.5
1070
    47
1040
0.2
1070
    48
1040
0.2
1070
   141
1040
1.5
1070
   371
1070
    13
1070
   372
1070
    13
1002
}
  0
DIMENSION
  5
290
  8
回07-寸法
  6
CONTINUOUS
 62
     7
  2
*D41
 10
-116.507079523561
 20
-2686.322187559701
 30
0.0
 11
-22.50707952356106
 21
-2684.072186309701
 31
0.0
 70
    32
  1
<>{\H0.66667x; (Cover glass)}
  3
DMC
 13
71.49292047643894
 23
-2711.210711440735
 33
0.0
 14
-116.507079523561
 24
-2711.210711440735
 34
0.0
1001
ACAD
1000
DSTYLE
1002
{
1070
   147
1040
0.5
1070
    72
1070
     0
1070
    71
1070
     1
1070
    41
1040
1.5
1070
    47
1040
0.3
1070
    48
1040
0.3
1070
   141
1040
1.5
1070
   371
1070
    13
1070
   372
1070
    13
1002
}
  0
DIMENSION
  5
29F
  8
回07-寸法
  6
CONTINUOUS
 62
     7
  2
*D42
 10
61.84292047643885
 20
-2691.797476802317
 30
0.0
 11
-22.55707952356113
 21
-2689.547475552317
 31
0.0
 70
    32
  1
<>{\H0.66667x; (Touch panel)}
  3
DMC
 13
-106.9570795235611
 23
-2720.023239690664
 33
0.0
 14
61.84292047643885
 24
-2720.023239690664
 34
0.0
1001
ACAD
1000
DSTYLE
1002
{
1070
   147
1040
0.5
1070
    72
1070
     0
1070
    71
1070
     1
1070
    41
1040
1.5
1070
    47
1040
0.5
1070
    48
1040
0.5
1070
   141
1040
1.5
1070
   371
1070
    13
1070
   372
1070
    13
1002
}
  0
DIMENSION
  5
2AE
  8
回07-寸法
  6
CONTINUOUS
 62
     7
  2
*D43
 10
53.69292047643921
 20
-2697.700351286229
 30
0.0
 11
-22.50707952356095
 21
-2695.650351036229
 31
0.0
 70
    32
  1
<>{\H0.66667x; (Active area)}
  3
DMC
 13
-98.70707952356111
 23
-2727.990711440735
 33
0.0
 14
53.69292047643921
 24
-2727.990711440736
 34
0.0
1001
ACAD
1000
DSTYLE
1002
{
1070
    41
1040
1.5
1070
    47
1040
0.2
1070
    48
1040
0.2
1070
   141
1040
1.5
1070
   371
1070
    13
1070
   372
1070
    13
1002
}
  0
INSERT
  5
2BD
  8
回07-寸法
  6
CONTINUOUS
 62
     7
 66
     1
  2
*X54
 10
0.0
 20
0.0
 30
0.0
1001
ACAD_MLEADERVER
1070
     2
  0
SEQEND
  5
5AE
  8
回07-寸法
  6
CONTINUOUS
 62
     7
  0
CIRCLE
  5
2BE
  8
回07-寸法
  6
CONTINUOUS
 62
     5
 10
-106.9570795235611
 20
-2831.423239690663
 30
0.0
 40
2.464455901028347
  0
DIMENSION
  5
2BF
  8
回07-寸法
  6
CONTINUOUS
  2
*D44
 10
-1.196581132709297
 20
-2831.423363158741
 30
0.0
 11
-1.196581132709297
 21
-2856.987597803608
 31
0.0
 70
   160
  1
{\H1.6667x;<>}
  3
DMC
 13
-19.66640255866332
 23
-2891.42336315874
 33
0.0
 14
-19.46640255866441
 24
-2831.423363158741
 34
0.0
 50
90.0
1001
ACAD
1000
DSTYLE
1002
{
1070
    47
1040
1.0
1070
    48
1040
1.0
1070
    71
1070
     1
1070
   146
1040
1.199999999999999
1002
}
  0
DIMENSION
  5
2CE
  8
回07-寸法
  6
CONTINUOUS
  2
*D45
 10
-76.20517450319062
 20
-2831.423363158739
 30
0.0
 11
-76.20517450319062
 21
-2860.656241816057
 31
0.0
 70
   160
  1
{\H1.66667x;<>}
  3
DMC
 13
-63.26638561416235
 23
-2891.42336315874
 33
0.0
 14
-63.46638561416217
 24
-2831.423363158739
 34
0.0
 50
90.0
1001
ACAD
1000
DSTYLE
1002
{
1070
    47
1040
1.0
1070
    48
1040
1.0
1070
    71
1070
     1
1070
   146
1040
1.199999999999999
1002
}
  0
LINE
  5
2DD
  8
回06-記事
  6
CONTINUOUS
 62
     7
 10
76.66073333804797
 20
-2734.520252326334
 30
0.0
 11
76.66073333804797
 21
-2813.383283204702
 31
0.0
  0
TEXT
  5
2DE
  8
回06-記事
  6
CONTINUOUS
 62
     7
 10
72.7662261112664
 20
-2817.859544818709
 30
0.0
 40
3.0
  1
Y15
  0
TEXT
  5
2DF
  8
回06-記事
  6
CONTINUOUS
 62
     7
 10
72.7662261112664
 20
-2732.428576510339
 30
0.0
 40
3.0
  1
Y00
  0
LINE
  5
2E0
  8
回06-記事
  6
CONTINUOUS
 62
     7
 10
46.78067237821051
 20
-2703.985250067183
 30
0.0
 11
-91.89901280877689
 21
-2703.985250067183
 31
0.0
  0
TEXT
  5
2E1
  8
回06-記事
  6
CONTINUOUS
 62
     7
 10
46.93030731213911
 20
-2705.416689368583
 30
0.0
 40
3.0
  1
X25
  0
TEXT
  5
2E2
  8
回06-記事
  6
CONTINUOUS
 62
     7
 10
-99.57029088797732
 20
-2705.416689368583
 30
0.0
 40
3.0
  1
X00
  0
POLYLINE
  5
2E3
  8
回06-記事
  6
CONTINUOUS
 62
     7
 66
     1
 10
0.0
 20
0.0
 30
0.0
 40
1.1
 41
1.1
  0
VERTEX
  5
5AF
  8
回06-記事
  6
CONTINUOUS
 62
     7
 10
105.6193290958001
 20
-2708.220711440735
 30
0.0
  0
VERTEX
  5
5B1
  8
回06-記事
  6
CONTINUOUS
 62
     7
 10
105.6193290958001
 20
-2727.690711440736
 30
0.0
  0
SEQEND
  5
5B0
  8
回07-寸法
  6
CONTINUOUS
 62
     7
  0
INSERT
  5
2E4
  8
回07-寸法
  6
CONTINUOUS
 62
     7
 66
     1
  2
*X55
 10
0.0
 20
0.0
 30
0.0
1001
ACAD_MLEADERVER
1070
     2
  0
SEQEND
  5
5C0
  8
回07-寸法
  6
CONTINUOUS
 62
     7
  0
INSERT
  5
2EA
  8
回07-寸法
  6
CONTINUOUS
 62
     7
 66
     1
  2
*X56
 10
0.0
 20
0.0
 30
0.0
1001
ACAD_MLEADERVER
1070
     2
  0
SEQEND
  5
5CE
  8
回07-寸法
  6
CONTINUOUS
 62
     7
  0
INSERT
  5
2EF
  8
回07-寸法
  6
CONTINUOUS
 62
     7
 66
     1
  2
*X57
 10
0.0
 20
0.0
 30
0.0
1001
ACAD_MLEADERVER
1070
     2
  0
SEQEND
  5
5DD
  8
回07-寸法
  6
CONTINUOUS
 62
     7
  0
INSERT
  5
2F0
  8
回07-寸法
  6
CONTINUOUS
 62
     7
 66
     1
  2
*X58
 10
0.0
 20
0.0
 30
0.0
1001
ACAD_MLEADERVER
1070
     2
  0
SEQEND
  5
5EB
  8
回07-寸法
  6
CONTINUOUS
 62
     7
  0
INSERT
  5
2F1
  8
回07-寸法
  6
CONTINUOUS
 62
     7
 66
     1
  2
*X59
 10
0.0
 20
0.0
 30
0.0
1001
ACAD_MLEADERVER
1070
     2
  0
SEQEND
  5
5FA
  8
回07-寸法
  6
CONTINUOUS
 62
     7
  0
INSERT
  5
2F2
  8
回07-寸法
  6
CONTINUOUS
 62
     7
 66
     1
  2
*X60
 10
0.0
 20
0.0
 30
0.0
1001
ACAD_MLEADERVER
1070
     2
  0
SEQEND
  5
608
  8
回07-寸法
  6
CONTINUOUS
 62
     7
  0
INSERT
  5
2F3
  8
回07-寸法
  6
CONTINUOUS
 62
     7
 66
     1
  2
*X61
 10
0.0
 20
0.0
 30
0.0
1001
ACAD_MLEADERVER
1070
     2
  0
SEQEND
  5
617
  8
回07-寸法
  6
CONTINUOUS
 62
     7
  0
INSERT
  5
2F4
  8
回07-寸法
  6
CONTINUOUS
 62
     7
 66
     1
  2
*X62
 10
0.0
 20
0.0
 30
0.0
1001
ACAD_MLEADERVER
1070
     2
  0
SEQEND
  5
625
  8
回07-寸法
  6
CONTINUOUS
 62
     7
  0
INSERT
  5
2F5
  8
回07-寸法
  6
CONTINUOUS
 62
     7
 66
     1
  2
*X63
 10
0.0
 20
0.0
 30
0.0
1001
ACAD_MLEADERVER
1070
     2
  0
SEQEND
  5
633
  8
回07-寸法
  6
CONTINUOUS
 62
     7
  0
INSERT
  5
2F6
  8
回07-寸法
  6
CONTINUOUS
 62
     7
 66
     1
  2
*X64
 10
0.0
 20
0.0
 30
0.0
1001
ACAD_MLEADERVER
1070
     2
  0
SEQEND
  5
642
  8
回07-寸法
  6
CONTINUOUS
 62
     7
  0
INSERT
  5
2F7
  8
回07-寸法
  6
CONTINUOUS
 62
     7
 66
     1
  2
*X65
 10
0.0
 20
0.0
 30
0.0
1001
ACAD_MLEADERVER
1070
     2
  0
SEQEND
  5
650
  8
回07-寸法
  6
CONTINUOUS
 62
     7
  0
INSERT
  5
2F8
  8
回07-寸法
  6
CONTINUOUS
 62
     7
 66
     1
  2
*X66
 10
0.0
 20
0.0
 30
0.0
1001
ACAD_MLEADERVER
1070
     2
  0
SEQEND
  5
65F
  8
回07-寸法
  6
CONTINUOUS
 62
     7
  0
INSERT
  5
2F9
  8
回07-寸法
  6
CONTINUOUS
 62
     7
 66
     1
  2
*X67
 10
0.0
 20
0.0
 30
0.0
1001
ACAD_MLEADERVER
1070
     2
  0
SEQEND
  5
66E
  8
回07-寸法
  6
CONTINUOUS
 62
     7
  0
INSERT
  5
2FA
  8
回07-寸法
  6
CONTINUOUS
 62
     7
 66
     1
  2
*X68
 10
0.0
 20
0.0
 30
0.0
1001
ACAD_MLEADERVER
1070
     2
  0
SEQEND
  5
67D
  8
回07-寸法
  6
CONTINUOUS
 62
     7
  0
LINE
  5
2FB
  8
回06-記事
  6
CONTINUOUS
 62
     7
 10
127.9355156827234
 20
-2839.423239690664
 30
0.0
 11
127.1355156827232
 21
-2839.423239690664
 31
0.0
  0
LINE
  5
2FC
  8
回06-記事
  6
CONTINUOUS
 62
     7
 10
127.9355156827234
 20
-2832.223239690664
 30
0.0
 11
127.9355156827234
 21
-2839.423239690664
 31
0.0
  0
LINE
  5
2FD
  8
回06-記事
  6
CONTINUOUS
 62
     7
 10
135.1355156827242
 20
-2832.223239690664
 30
0.0
 11
127.9355156827234
 21
-2832.223239690664
 31
0.0
  0
LINE
  5
2FE
  8
回06-記事
  6
CONTINUOUS
 62
     7
 10
135.1355156827242
 20
-2828.423239690664
 30
0.0
 11
135.1355156827242
 21
-2832.223239690664
 31
0.0
  0
LINE
  5
2FF
  8
回06-記事
  6
CONTINUOUS
 62
     7
 10
134.335515682724
 20
-2828.423239690664
 30
0.0
 11
135.1355156827242
 21
-2828.423239690664
 31
0.0
  0
LINE
  5
300
  8
回06-記事
  6
CONTINUOUS
 62
     7
 10
134.335515682724
 20
-2831.423239690665
 30
0.0
 11
134.335515682724
 21
-2828.423239690664
 31
0.0
  0
LINE
  5
301
  8
回06-記事
  6
CONTINUOUS
 62
     7
 10
127.1355156827232
 20
-2831.423239690665
 30
0.0
 11
134.335515682724
 21
-2831.423239690665
 31
0.0
  0
LINE
  5
302
  8
回06-記事
  6
CONTINUOUS
 62
     7
 10
127.1355156827232
 20
-2839.423239690664
 30
0.0
 11
127.1355156827232
 21
-2831.423239690665
 31
0.0
  0
INSERT
  5
303
  8
回06-記事
  6
CONTINUOUS
 62
     0
 66
     1
  2
*X69
 10
0.0
 20
0.0
 30
0.0
1001
GRADIENTCOLOR1ACI
1070
     5
1001
GRADIENTCOLOR2ACI
1070
     2
1001
ACAD
1010
0.0
1020
0.0
1030
0.0
  0
SEQEND
  5
68C
  8
回07-寸法
  6
CONTINUOUS
 62
     7
  0
LINE
  5
306
  8
回06-記事
  6
CONTINUOUS
 62
     7
 10
122.7774223892622
 20
-2839.423239690664
 30
0.0
 11
121.9774223892621
 21
-2839.423239690664
 31
0.0
1001
ACAD
1000
ASC_BOUNDS
1002
{
1070
    19
1005
30C
1002
}
  0
LINE
  5
307
  8
回06-記事
  6
CONTINUOUS
 62
     7
 10
122.7774223892622
 20
-2832.223239690664
 30
0.0
 11
122.7774223892622
 21
-2839.423239690664
 31
0.0
1001
ACAD
1000
ASC_BOUNDS
1002
{
1070
    19
1005
30C
1002
}
  0
LINE
  5
308
  8
回06-記事
  6
CONTINUOUS
 62
     7
 10
125.1355156827232
 20
-2832.223239690664
 30
0.0
 11
122.7774223892622
 21
-2832.223239690664
 31
0.0
1001
ACAD
1000
ASC_BOUNDS
1002
{
1070
    19
1005
30C
1002
}
  0
LINE
  5
309
  8
回06-記事
  6
CONTINUOUS
 62
     7
 10
125.1355156827232
 20
-2831.423239690665
 30
0.0
 11
125.1355156827232
 21
-2832.223239690664
 31
0.0
1001
ACAD
1000
ASC_BOUNDS
1002
{
1070
    19
1005
30C
1002
}
  0
LINE
  5
30A
  8
回06-記事
  6
CONTINUOUS
 62
     7
 10
121.9774223892621
 20
-2831.423239690665
 30
0.0
 11
125.1355156827232
 21
-2831.423239690665
 31
0.0
1001
ACAD
1000
ASC_BOUNDS
1002
{
1070
    19
1005
30C
1002
}
  0
LINE
  5
30B
  8
回06-記事
  6
CONTINUOUS
 62
     7
 10
121.9774223892621
 20
-2839.423239690664
 30
0.0
 11
121.9774223892621
 21
-2831.423239690665
 31
0.0
1001
ACAD
1000
ASC_BOUNDS
1002
{
1070
    19
1005
30C
1002
}
  0
INSERT
  5
30C
  8
回06-記事
  6
CONTINUOUS
 62
     0
 66
     1
  2
*X70
 10
0.0
 20
0.0
 30
0.0
1001
GRADIENTCOLOR1ACI
1070
     5
1001
GRADIENTCOLOR2ACI
1070
     2
1001
ACAD
1010
0.0
1020
0.0
1030
0.0
  0
SEQEND
  5
696
  8
回07-寸法
  6
CONTINUOUS
 62
     7
  0
POLYLINE
  5
30D
  8
回06-記事
  6
CONTINUOUS
 62
     7
 66
     1
 10
0.0
 20
0.0
 30
0.0
 70
     1
  0
VERTEX
  5
697
  8
回06-記事
  6
CONTINUOUS
 62
     7
 10
119.1774223892628
 20
-2831.423239690665
 30
0.0
  0
VERTEX
  5
699
  8
回06-記事
  6
CONTINUOUS
 62
     7
 10
119.9774223892621
 20
-2831.423239690665
 30
0.0
  0
VERTEX
  5
69A
  8
回06-記事
  6
CONTINUOUS
 62
     7
 10
119.9774223892621
 20
-2839.706947172907
 30
0.0
  0
VERTEX
  5
69B
  8
回06-記事
  6
CONTINUOUS
 62
     7
 10
119.1774223892628
 20
-2839.706947172907
 30
0.0
  0
SEQEND
  5
698
  8
回07-寸法
  6
CONTINUOUS
 62
     7
  0
DIMENSION
  5
30E
  8
回06-記事
  6
CONTINUOUS
 62
     7
  2
*D46
 10
121.1774223892628
 20
-2902.875754312043
 30
0.0
 11
129.9950398049691
 21
-2902.875754312043
 31
0.0
 70
   160
  1
0.3{\H0.66667x;±0.03}
  3
DMC
 13
118.3774223892617
 23
-2891.423239690664
 33
0.0
 14
121.1774223892628
 24
-2891.423239690664
 34
0.0
1001
ACAD
1000
DSTYLE
1002
{
1070
    41
1040
1.5
1070
    47
1040
0.2
1070
    48
1040
0.2
1070
   141
1040
1.5
1070
   271
1070
     3
1070
   272
1070
     3
1070
   371
1070
    13
1070
   372
1070
    13
1002
}
  0
DIMENSION
  5
31F
  8
回06-記事
  6
CONTINUOUS
 62
     7
  2
*D47
 10
126.335515682724
 20
-2897.242367714586
 30
0.0
 11
135.1531330984303
 21
-2897.242367714586
 31
0.0
 70
   160
  1
0.3{\H0.66667x;±0.03}
  3
DMC
 13
123.5355156827229
 23
-2891.423239690664
 33
0.0
 14
126.335515682724
 24
-2891.423239690664
 34
0.0
1001
ACAD
1000
DSTYLE
1002
{
1070
    41
1040
1.5
1070
    47
1040
0.2
1070
    48
1040
0.2
1070
   141
1040
1.5
1070
   271
1070
     3
1070
   272
1070
     3
1070
   371
1070
    13
1070
   372
1070
    13
1002
}
  0
DIMENSION
  5
330
  8
回06-記事
  6
CONTINUOUS
 62
     7
  2
*D48
 10
114.8566141992447
 20
-2891.423239690664
 30
0.0
 11
112.7066141992446
 21
-2886.423239690664
 31
0.0
 70
    32
  1
(<>)
  3
DMC
 13
118.3774223892617
 23
-2881.423239690663
 33
0.0
 14
118.3774223892617
 24
-2891.423239690664
 34
0.0
 50
90.0
1001
ACAD
1000
DSTYLE
1002
{
1070
    41
1040
1.5
1070
    47
1040
0.2
1070
    48
1040
0.2
1070
   141
1040
1.5
1070
   271
1070
     3
1070
   272
1070
     3
1070
   371
1070
    13
1070
   372
1070
    13
1002
}
  0
DIMENSION
  5
33F
  8
回06-記事
  6
CONTINUOUS
 62
     7
  2
*D49
 10
132.5316347197382
 20
-2886.423239690664
 30
0.0
 11
130.5316347197382
 21
-2888.923239690664
 31
0.0
 70
    32
  3
DMC
 13
126.335515682724
 23
-2891.423239690664
 33
0.0
 14
127.1355156827232
 24
-2886.423239690664
 34
0.0
 50
90.0
1001
ACAD
1000
DSTYLE
1002
{
1070
    41
1040
1.5
1070
    47
1040
0.2
1070
    48
1040
0.2
1070
   141
1040
1.5
1070
   271
1070
     3
1070
   272
1070
     3
1070
   371
1070
    13
1070
   372
1070
    13
1002
}
  0
DIMENSION
  5
34E
  8
回06-記事
  6
CONTINUOUS
 62
     7
  2
*D50
 10
134.335515682724
 20
-2698.179555443596
 30
0.0
 11
114.977422389262
 21
-2698.179555443596
 31
0.0
 70
   160
  1
{\H1.66667x;3.6}±0.2
  3
DMC
 13
95.61932909580013
 23
-2707.720711440736
 33
0.0
 14
134.335515682724
 24
-2720.023239690664
 34
0.0
1001
ACAD
1000
DSTYLE
1002
{
1070
    41
1040
1.5
1070
    47
1040
0.2
1070
    48
1040
0.2
1070
   141
1040
1.5
1070
   271
1070
     3
1070
   272
1070
     3
1070
   371
1070
    13
1070
   372
1070
    13
1002
}
  0
POLYLINE
  5
35D
  8
回06-記事
  6
CONTINUOUS
 62
     7
 66
     1
 10
0.0
 20
0.0
 30
0.0
 40
1.1
 41
1.1
  0
VERTEX
  5
69C
  8
回06-記事
  6
CONTINUOUS
 62
     7
 10
105.6193290958001
 20
-2819.730711440735
 30
0.0
  0
VERTEX
  5
69E
  8
回06-記事
  6
CONTINUOUS
 62
     7
 10
105.6193290958001
 20
-2839.220711440735
 30
0.0
  0
SEQEND
  5
69D
  8
回07-寸法
  6
CONTINUOUS
 62
     7
  0
POLYLINE
  5
35E
  8
回06-記事
  6
CONTINUOUS
 62
     7
 66
     1
 10
0.0
 20
0.0
 30
0.0
 70
     1
  0
VERTEX
  5
69F
  8
回06-記事
  6
CONTINUOUS
 62
     7
 10
105.6193290958001
 20
-2839.720711440736
 30
0.0
  0
VERTEX
  5
6A1
  8
回06-記事
  6
CONTINUOUS
 62
     7
 10
95.61932909580013
 20
-2839.720711440736
 30
0.0
  0
VERTEX
  5
6A2
  8
回06-記事
  6
CONTINUOUS
 62
     7
 10
95.61932909580013
 20
-2707.720711440736
 30
0.0
  0
VERTEX
  5
6A3
  8
回06-記事
  6
CONTINUOUS
 62
     7
 10
105.6193290958001
 20
-2707.720711440736
 30
0.0
  0
SEQEND
  5
6A0
  8
回07-寸法
  6
CONTINUOUS
 62
     7
  0
POLYLINE
  5
35F
  8
回06-記事
  6
CONTINUOUS
 62
     7
 66
     1
 10
0.0
 20
0.0
 30
0.0
 70
     1
  0
VERTEX
  5
6A4
  8
回06-記事
  6
CONTINUOUS
 62
     7
 10
105.6193290958001
 20
-2831.423239690665
 30
0.0
  0
VERTEX
  5
6A6
  8
回06-記事
  6
CONTINUOUS
 62
     7
 10
111.977422389262
 20
-2831.423239690665
 30
0.0
  0
VERTEX
  5
6A7
  8
回06-記事
  6
CONTINUOUS
 62
     7
 10
111.977422389262
 20
-2720.023239690664
 30
0.0
  0
VERTEX
  5
6A8
  8
回06-記事
  6
CONTINUOUS
 62
     7
 10
105.6193290958001
 20
-2720.023239690664
 30
0.0
  0
SEQEND
  5
6A5
  8
回07-寸法
  6
CONTINUOUS
 62
     7
  0
POLYLINE
  5
360
  8
回06-記事
  6
CONTINUOUS
 62
     7
 66
     1
 10
0.0
 20
0.0
 30
0.0
 70
     1
  0
VERTEX
  5
6A9
  8
回06-記事
  6
CONTINUOUS
 62
     7
 10
119.9774223892621
 20
-2831.423239690665
 30
0.0
  0
VERTEX
  5
6AB
  8
回06-記事
  6
CONTINUOUS
 62
     7
 10
126.335515682724
 20
-2831.423239690665
 30
0.0
  0
VERTEX
  5
6AC
  8
回06-記事
  6
CONTINUOUS
 62
     7
 10
126.335515682724
 20
-2720.023239690664
 30
0.0
  0
VERTEX
  5
6AD
  8
回06-記事
  6
CONTINUOUS
 62
     7
 10
119.9774223892621
 20
-2720.023239690664
 30
0.0
  0
SEQEND
  5
6AA
  8
回07-寸法
  6
CONTINUOUS
 62
     7
  0
POLYLINE
  5
361
  8
回06-記事
  6
CONTINUOUS
 62
     7
 66
     1
 10
0.0
 20
0.0
 30
0.0
 70
     1
  0
VERTEX
  5
6AE
  8
回06-記事
  6
CONTINUOUS
 62
     7
 10
118.3774223892617
 20
-2881.423239690663
 30
0.0
  0
VERTEX
  5
6B0
  8
回06-記事
  6
CONTINUOUS
 62
     7
 10
119.9774223892621
 20
-2881.423239690663
 30
0.0
  0
VERTEX
  5
6B1
  8
回06-記事
  6
CONTINUOUS
 62
     7
 10
119.9774223892621
 20
-2891.423239690664
 30
0.0
  0
VERTEX
  5
6B2
  8
回06-記事
  6
CONTINUOUS
 62
     7
 10
118.3774223892617
 20
-2891.423239690664
 30
0.0
  0
SEQEND
  5
6AF
  8
回07-寸法
  6
CONTINUOUS
 62
     7
  0
POLYLINE
  5
362
  8
回06-記事
  6
CONTINUOUS
 62
     7
 66
     1
 10
0.0
 20
0.0
 30
0.0
 70
     1
  0
VERTEX
  5
6B3
  8
回06-記事
  6
CONTINUOUS
 62
     7
 10
121.1774223892628
 20
-2831.423239690665
 30
0.0
  0
VERTEX
  5
6B5
  8
回06-記事
  6
CONTINUOUS
 62
     7
 10
121.9774223892621
 20
-2831.423239690665
 30
0.0
  0
VERTEX
  5
6B6
  8
回06-記事
  6
CONTINUOUS
 62
     7
 10
121.9774223892621
 20
-2886.423239690664
 30
0.0
  0
VERTEX
  5
6B7
  8
回06-記事
  6
CONTINUOUS
 62
     7
 10
121.1774223892628
 20
-2886.423239690664
 30
0.0
  0
SEQEND
  5
6B4
  8
回07-寸法
  6
CONTINUOUS
 62
     7
  0
POLYLINE
  5
363
  8
回06-記事
  6
CONTINUOUS
 62
     7
 66
     1
 10
0.0
 20
0.0
 30
0.0
 70
     1
  0
VERTEX
  5
6B8
  8
回06-記事
  6
CONTINUOUS
 62
     7
 10
119.9774223892621
 20
-2828.773239690664
 30
0.0
  0
VERTEX
  5
6BA
  8
回06-記事
  6
CONTINUOUS
 62
     7
 10
121.1774223892628
 20
-2828.773239690664
 30
0.0
  0
VERTEX
  5
6BB
  8
回06-記事
  6
CONTINUOUS
 62
     7
 10
121.1774223892628
 20
-2891.423239690664
 30
0.0
  0
VERTEX
  5
6BC
  8
回06-記事
  6
CONTINUOUS
 62
     7
 10
119.9774223892621
 20
-2891.423239690664
 30
0.0
  0
SEQEND
  5
6B9
  8
回07-寸法
  6
CONTINUOUS
 62
     7
  0
POLYLINE
  5
364
  8
回06-記事
  6
CONTINUOUS
 62
     7
 66
     1
 10
0.0
 20
0.0
 30
0.0
 70
     1
  0
VERTEX
  5
6BD
  8
回06-記事
  6
CONTINUOUS
 62
     7
 10
111.977422389262
 20
-2831.423239690665
 30
0.0
  0
VERTEX
  5
6BF
  8
回06-記事
  6
CONTINUOUS
 62
     7
 10
119.9774223892621
 20
-2831.423239690665
 30
0.0
  0
VERTEX
  5
6C0
  8
回06-記事
  6
CONTINUOUS
 62
     7
 10
119.9774223892621
 20
-2720.023239690664
 30
0.0
  0
VERTEX
  5
6C1
  8
回06-記事
  6
CONTINUOUS
 62
     7
 10
111.977422389262
 20
-2720.023239690664
 30
0.0
  0
SEQEND
  5
6BE
  8
回07-寸法
  6
CONTINUOUS
 62
     7
  0
POLYLINE
  5
365
  8
回06-記事
  6
CONTINUOUS
 62
     7
 66
     1
 10
0.0
 20
0.0
 30
0.0
 70
     1
  0
VERTEX
  5
6C2
  8
回06-記事
  6
CONTINUOUS
 62
     7
 10
123.5355156827229
 20
-2881.423239690663
 30
0.0
  0
VERTEX
  5
6C4
  8
回06-記事
  6
CONTINUOUS
 62
     7
 10
125.1355156827232
 20
-2881.423239690663
 30
0.0
  0
VERTEX
  5
6C5
  8
回06-記事
  6
CONTINUOUS
 62
     7
 10
125.1355156827232
 20
-2891.423239690664
 30
0.0
  0
VERTEX
  5
6C6
  8
回06-記事
  6
CONTINUOUS
 62
     7
 10
123.5355156827229
 20
-2891.423239690664
 30
0.0
  0
SEQEND
  5
6C3
  8
回07-寸法
  6
CONTINUOUS
 62
     7
  0
POLYLINE
  5
366
  8
回06-記事
  6
CONTINUOUS
 62
     7
 66
     1
 10
0.0
 20
0.0
 30
0.0
 70
     1
  0
VERTEX
  5
6C7
  8
回06-記事
  6
CONTINUOUS
 62
     7
 10
126.335515682724
 20
-2831.423239690665
 30
0.0
  0
VERTEX
  5
6C9
  8
回06-記事
  6
CONTINUOUS
 62
     7
 10
127.1355156827232
 20
-2831.423239690665
 30
0.0
  0
VERTEX
  5
6CA
  8
回06-記事
  6
CONTINUOUS
 62
     7
 10
127.1355156827232
 20
-2886.423239690664
 30
0.0
  0
VERTEX
  5
6CB
  8
回06-記事
  6
CONTINUOUS
 62
     7
 10
126.335515682724
 20
-2886.423239690664
 30
0.0
  0
SEQEND
  5
6C8
  8
回07-寸法
  6
CONTINUOUS
 62
     7
  0
POLYLINE
  5
367
  8
回06-記事
  6
CONTINUOUS
 62
     7
 66
     1
 10
0.0
 20
0.0
 30
0.0
 70
     1
  0
VERTEX
  5
6CC
  8
回06-記事
  6
CONTINUOUS
 62
     7
 10
125.1355156827232
 20
-2828.773239690664
 30
0.0
  0
VERTEX
  5
6CE
  8
回06-記事
  6
CONTINUOUS
 62
     7
 10
126.335515682724
 20
-2828.773239690664
 30
0.0
  0
VERTEX
  5
6CF
  8
回06-記事
  6
CONTINUOUS
 62
     7
 10
126.335515682724
 20
-2891.423239690664
 30
0.0
  0
VERTEX
  5
6D0
  8
回06-記事
  6
CONTINUOUS
 62
     7
 10
125.1355156827232
 20
-2891.423239690664
 30
0.0
  0
SEQEND
  5
6CD
  8
回07-寸法
  6
CONTINUOUS
 62
     7
  0
POLYLINE
  5
368
  8
回06-記事
  6
CONTINUOUS
 62
     7
 66
     1
 10
0.0
 20
0.0
 30
0.0
 70
     1
  0
VERTEX
  5
6D1
  8
回06-記事
  6
CONTINUOUS
 62
     7
 10
126.335515682724
 20
-2831.423239690665
 30
0.0
  0
VERTEX
  5
6D3
  8
回06-記事
  6
CONTINUOUS
 62
     7
 10
134.335515682724
 20
-2831.423239690665
 30
0.0
  0
VERTEX
  5
6D4
  8
回06-記事
  6
CONTINUOUS
 62
     7
 10
134.335515682724
 20
-2720.023239690664
 30
0.0
  0
VERTEX
  5
6D5
  8
回06-記事
  6
CONTINUOUS
 62
     7
 10
126.335515682724
 20
-2720.023239690664
 30
0.0
  0
SEQEND
  5
6D2
  8
回07-寸法
  6
CONTINUOUS
 62
     7
  0
TEXT
  5
369
  8
回06-記事
 10
-67.87378094693599
 20
-2890.471501301084
 30
0.0
 40
2.799999999999999
  1
26
  7
4MM
  0
TEXT
  5
36B
  8
回06-記事
  6
CONTINUOUS
 10
-18.12117489638444
 20
-2885.714938782749
 30
0.0
 40
2.0
  1
Contact Surface far side
  7
4MM
  0
TEXT
  5
36C
  8
回06-記事
  6
CONTINUOUS
 10
-17.71716952615793
 20
-2882.500506744782
 30
0.0
 40
2.799999999999999
  1
CN-2
  7
4MM
  0
TEXT
  5
36D
  8
回06-記事
  6
CONTINUOUS
 10
-96.23279123516908
 20
-2885.714938782749
 30
0.0
 40
2.0
  1
Contact Surface far side
  7
4MM
  0
TEXT
  5
36E
  8
回06-記事
  6
CONTINUOUS
 10
-73.44754453656856
 20
-2882.500506744782
 30
0.0
 40
2.799999999999999
  1
CN-1
  7
4MM
  0
LINE
  5
36F
  8
回90-図面枠
  6
CONTINUOUS
 62
     7
 10
265.8087030085269
 20
-2966.685560436019
 30
0.0
 11
265.8087030085269
 21
-2952.861560436019
 31
0.0
  0
POLYLINE
  5
371
  8
回90-図面枠
  6
CONTINUOUS
 62
     7
 66
     1
 10
0.0
 20
0.0
 30
0.0
 70
     1
  0
VERTEX
  5
6D6
  8
回90-図面枠
  6
CONTINUOUS
 62
     7
 10
280.5585397675756
 20
-2956.920611232384
 30
0.0
  0
VERTEX
  5
6D8
  8
回90-図面枠
  6
CONTINUOUS
 62
     7
 10
275.3634632181936
 20
-2958.243026531425
 30
0.0
  0
VERTEX
  5
6D9
  8
回90-図面枠
  6
CONTINUOUS
 62
     7
 10
275.3634632181936
 20
-2961.212732272877
 30
0.0
  0
VERTEX
  5
6DA
  8
回90-図面枠
  6
CONTINUOUS
 62
     7
 10
280.5585397675756
 20
-2962.535147571918
 30
0.0
  0
SEQEND
  5
6D7
  8
回07-寸法
  6
CONTINUOUS
 62
     7
  0
LINE
  5
372
  8
回90-図面枠
  6
CENTER2
 62
     7
 10
270.57459648287
 20
-2963.244338674165
 30
0.0
 11
270.57459648287
 21
-2956.211420130136
 31
0.0
  0
LINE
  5
374
  8
回90-図面枠
  6
CENTER2
 62
     7
 10
267.3505293289279
 20
-2959.727879402151
 30
0.0
 11
281.0189707393154
 21
-2959.727879402151
 31
0.0
  0
CIRCLE
  5
375
  8
回90-図面枠
  6
CONTINUOUS
 62
     7
 10
270.57459648287
 20
-2959.727879402151
 30
0.0
 40
1.484852870726217
  0
CIRCLE
  5
376
  8
回90-図面枠
  6
CONTINUOUS
 62
     7
 10
270.57459648287
 20
-2959.727879402151
 30
0.0
 40
2.807268169766757
  0
TEXT
  5
377
  8
回06-記事
  6
CONTINUOUS
 10
-153.9586245347176
 20
-2958.37440707847
 30
0.0
 40
1.536
  1
FPC pattern is detailed
1001
ACAD
1000
MTEXTBEGIN
1070
    73
1070
     1
1070
    44
1040
1.0
1070
    74
1070
     0
1000
MTEXTEND
  0
POLYLINE
  5
378
  8
回06-記事
  6
CONTINUOUS
 66
     1
 10
0.0
 20
0.0
 30
0.0
 70
     1
  0
VERTEX
  5
6DB
  8
回06-記事
  6
CONTINUOUS
 10
-158.2488681443856
 20
-2960.043605272936
 30
0.0
  0
VERTEX
  5
6DD
  8
回06-記事
  6
CONTINUOUS
 10
-158.2488681443856
 20
-2918.046259500961
 30
0.0
  0
VERTEX
  5
6DE
  8
回06-記事
  6
CONTINUOUS
 10
-129.0814510638081
 20
-2918.046259500961
 30
0.0
  0
VERTEX
  5
6DF
  8
回06-記事
  6
CONTINUOUS
 10
-129.0814510638081
 20
-2960.043605272936
 30
0.0
  0
SEQEND
  5
6DC
  8
回07-寸法
  6
CONTINUOUS
 62
     7
  0
DIMENSION
  5
379
  8
回06-記事
  6
CONTINUOUS
  2
*D51
 10
-147.402150901843
 20
-2951.65488841179
 30
0.0
 11
-154.0654640385612
 21
-2951.65488841179
 31
0.0
 70
   160
  1
0.5
  3
KOUSA
 13
-145.9621509018427
 23
-2942.061445147
 33
0.0
 14
-147.402150901843
 24
-2942.061445147
 34
0.0
 50
180.0
1001
ACAD
1000
DSTYLE
1002
{
1070
    71
1070
     0
1070
    78
1070
     9
1070
    79
1070
     2
1070
   285
1070
     8
1070
   288
1070
     0
1070
   341
1005
0
1002
}
  0
DIMENSION
  5
38B
  8
回06-記事
  6
CONTINUOUS
  2
*D52
 10
-147.8341509018428
 20
-2945.04110388123
 30
0.0
 11
-154.497464038561
 21
-2945.04110388123
 31
0.0
 70
   160
  1
0.3
  3
KOUSA
 13
-146.970150901843
 23
-2942.061445147
 33
0.0
 14
-147.8341509018428
 24
-2941.99511759704
 34
0.0
 50
180.0
1001
ACAD
1000
DSTYLE
1002
{
1070
    71
1070
     0
1070
    78
1070
     9
1070
    79
1070
     2
1070
   285
1070
     8
1070
   288
1070
     0
1070
   341
1005
0
1002
}
  0
LINE
  5
39C
  8
回06-記事
  6
CENTER2
 10
-145.9621509018427
 20
-2943.679722164183
 30
0.0
 11
-145.9621509018427
 21
-2937.386091586278
 31
0.0
  0
LINE
  5
39D
  8
回06-記事
  6
CENTER2
 10
-147.8341509018428
 20
-2943.679722164183
 30
0.0
 11
-147.8341509018428
 21
-2938.004143199522
 31
0.0
  0
LINE
  5
39E
  8
回06-記事
  6
CENTER2
 10
-146.970150901843
 20
-2943.679722164183
 30
0.0
 11
-146.970150901843
 21
-2937.961400527628
 31
0.0
  0
LINE
  5
39F
  8
回06-記事
  6
CENTER2
 10
-147.4021509018425
 20
-2943.679722164183
 30
0.0
 11
-147.4021509018425
 21
-2937.386091586278
 31
0.0
  0
LINE
  5
3A0
  8
回06-記事
  6
CONTINUOUS
 10
-148.8421509018426
 20
-2927.661445146999
 30
0.0
 11
-134.6620820375858
 21
-2927.661445146999
 31
0.0
  0
ARC
  5
3A1
  8
回06-記事
  6
CONTINUOUS
 10
-147.4021509018425
 20
-2940.621445146999
 30
0.0
 40
1.439999999999999
 50
180.0
 51
270.0
  0
LINE
  5
3A2
  8
回06-記事
  6
CONTINUOUS
 10
-147.4021509018425
 20
-2942.061445147
 30
0.0
 11
-134.6620820375858
 21
-2942.061445147
 31
0.0
  0
LINE
  5
3A3
  8
回06-記事
  6
CONTINUOUS
 10
-148.8421509018426
 20
-2940.621445146999
 30
0.0
 11
-148.8421509018426
 21
-2919.346234205802
 31
0.0
  0
POLYLINE
  5
3A4
  8
回06-記事
  6
CONTINUOUS
 66
     1
 10
0.0
 20
0.0
 30
0.0
 40
0.8639999999999998
 41
0.8639999999999998
  0
VERTEX
  5
6E0
  8
回06-記事
  6
CONTINUOUS
 10
-147.4021509018425
 20
-2942.061445147
 30
0.0
  0
VERTEX
  5
6E2
  8
回06-記事
  6
CONTINUOUS
 10
-147.4021509018425
 20
-2927.661445146999
 30
0.0
  0
SEQEND
  5
6E1
  8
回07-寸法
  6
CONTINUOUS
 62
     7
  0
POLYLINE
  5
3A5
  8
回06-記事
  6
CONTINUOUS
 66
     1
 10
0.0
 20
0.0
 30
0.0
 40
0.8639999999999998
 41
0.8639999999999998
  0
VERTEX
  5
6E3
  8
回06-記事
  6
CONTINUOUS
 10
-145.9621509018427
 20
-2942.061445147
 30
0.0
  0
VERTEX
  5
6E5
  8
回06-記事
  6
CONTINUOUS
 10
-145.9621509018427
 20
-2927.661445146999
 30
0.0
  0
SEQEND
  5
6E4
  8
回07-寸法
  6
CONTINUOUS
 62
     7
  0
POLYLINE
  5
3A6
  8
回06-記事
  6
CONTINUOUS
 66
     1
 10
0.0
 20
0.0
 30
0.0
 40
0.8639999999999998
 41
0.8639999999999998
  0
VERTEX
  5
6E6
  8
回06-記事
  6
CONTINUOUS
 10
-144.5221509018427
 20
-2942.061445147
 30
0.0
  0
VERTEX
  5
6E8
  8
回06-記事
  6
CONTINUOUS
 10
-144.5221509018427
 20
-2927.661445147
 30
0.0
  0
SEQEND
  5
6E7
  8
回07-寸法
  6
CONTINUOUS
 62
     7
  0
POLYLINE
  5
3A7
  8
回06-記事
  6
CONTINUOUS
 66
     1
 10
0.0
 20
0.0
 30
0.0
 40
0.8639999999999998
 41
0.8639999999999998
  0
VERTEX
  5
6E9
  8
回06-記事
  6
CONTINUOUS
 10
-143.0821509018424
 20
-2942.061445147
 30
0.0
  0
VERTEX
  5
6EB
  8
回06-記事
  6
CONTINUOUS
 10
-143.0821509018424
 20
-2927.661445147
 30
0.0
  0
SEQEND
  5
6EA
  8
回07-寸法
  6
CONTINUOUS
 62
     7
  0
POLYLINE
  5
3A8
  8
回06-記事
  6
CONTINUOUS
 66
     1
 10
0.0
 20
0.0
 30
0.0
 40
0.8639999999999998
 41
0.8639999999999998
  0
VERTEX
  5
6EC
  8
回06-記事
  6
CONTINUOUS
 10
-141.6421509018428
 20
-2942.061445147
 30
0.0
  0
VERTEX
  5
6EE
  8
回06-記事
  6
CONTINUOUS
 10
-141.6421509018428
 20
-2927.661445147
 30
0.0
  0
SEQEND
  5
6ED
  8
回07-寸法
  6
CONTINUOUS
 62
     7
  0
POLYLINE
  5
3A9
  8
回06-記事
  6
CONTINUOUS
 66
     1
 10
0.0
 20
0.0
 30
0.0
 40
0.8639999999999998
 41
0.8639999999999998
  0
VERTEX
  5
6EF
  8
回06-記事
  6
CONTINUOUS
 10
-140.2021509018425
 20
-2942.061445147
 30
0.0
  0
VERTEX
  5
6F1
  8
回06-記事
  6
CONTINUOUS
 10
-140.2021509018425
 20
-2927.661445147
 30
0.0
  0
SEQEND
  5
6F0
  8
回07-寸法
  6
CONTINUOUS
 62
     7
  0
POLYLINE
  5
3AA
  8
回06-記事
  6
CONTINUOUS
 66
     1
 10
0.0
 20
0.0
 30
0.0
 40
0.8639999999999998
 41
0.8639999999999998
  0
VERTEX
  5
6F2
  8
回06-記事
  6
CONTINUOUS
 10
-138.7621509018427
 20
-2942.061445147
 30
0.0
  0
VERTEX
  5
6F4
  8
回06-記事
  6
CONTINUOUS
 10
-138.7621509018427
 20
-2927.661445147
 30
0.0
  0
SEQEND
  5
6F3
  8
回07-寸法
  6
CONTINUOUS
 62
     7
  0
POLYLINE
  5
3AB
  8
回06-記事
  6
CONTINUOUS
 66
     1
 10
0.0
 20
0.0
 30
0.0
 40
0.8639999999999998
 41
0.8639999999999998
  0
VERTEX
  5
6F5
  8
回06-記事
  6
CONTINUOUS
 10
-135.8821509018426
 20
-2942.061445147
 30
0.0
  0
VERTEX
  5
6F7
  8
回06-記事
  6
CONTINUOUS
 10
-135.8821509018426
 20
-2927.661445147
 30
0.0
  0
SEQEND
  5
6F6
  8
回07-寸法
  6
CONTINUOUS
 62
     7
  0
POLYLINE
  5
3AC
  8
回06-記事
  6
CONTINUOUS
 66
     1
 10
0.0
 20
0.0
 30
0.0
 40
0.8639999999999998
 41
0.8639999999999998
  0
VERTEX
  5
6F8
  8
回06-記事
  6
CONTINUOUS
 10
-137.3221509018426
 20
-2942.061445147
 30
0.0
  0
VERTEX
  5
6FA
  8
回06-記事
  6
CONTINUOUS
 10
-137.3221509018426
 20
-2927.661445147
 30
0.0
  0
SEQEND
  5
6F9
  8
回07-寸法
  6
CONTINUOUS
 62
     7
  0
LINE
  5
3AD
  8
回90-図面枠
  6
PHANTOM2
 10
153.9551870722073
 20
-2939.03756043602
 30
0.0
 11
282.9791870722074
 21
-2939.03756043602
 31
0.0
  0
TEXT
  5
3AF
  8
回06-記事
  6
CONTINUOUS
 62
     5
 10
91.88197662415792
 20
-2953.708349519752
 30
0.0
 40
3.2
  1
EXCEPT WHERE INDICATED
  0
TEXT
  5
3B0
  8
回06-記事
  6
CONTINUOUS
 62
     5
 10
91.91099426373989
 20
-2959.617238385748
 30
0.0
 40
3.2
  1
UNIT=mm
  0
TEXT
  5
3B1
  8
回06-記事
  6
CONTINUOUS
 62
     5
 10
91.53338117436829
 20
-2947.606202245736
 30
0.0
 40
3.2
  1
TOLERANCE=±0.3mm
  0
TEXT
  5
3B2
  8
回90-図面枠
 10
233.4888085503928
 20
-2950.32716043602
 30
0.0
 40
4.1472
  1
Aug/5/2022
 72
     1
 11
248.4191870722073
 21
-2948.253560436019
 31
0.0
 73
     2
  0
TEXT
  5
3B3
  8
回90-図面枠
 10
243.2582270722073
 20
-2942.954360436019
 30
0.0
 40
3.2256
  1
DATE
 72
     1
 11
248.4191870722073
 21
-2941.341560436019
 31
0.0
 73
     2
  0
LINE
  5
3B4
  8
回90-図面枠
  6
CONTINUOUS
 10
153.9551870722073
 20
-2939.03756043602
 30
0.0
 11
282.9791870722074
 21
-2939.03756043602
 31
0.0
  0
TEXT
  5
3B5
  8
回90-図面枠
 10
221.5495264556565
 20
-2962.07756043602
 30
0.0
 40
4.608
  1
DMC Co., Ltd.
 72
     1
 11
239.8663264556565
 21
-2959.773560436019
 31
0.0
 73
     2
  0
LINE
  5
3B6
  8
回90-図面枠
 10
213.8591870722073
 20
-2939.03756043602
 30
0.0
 11
213.8591870722073
 21
-2966.685560436019
 31
0.0
  0
TEXT
  5
3B7
  8
回90-図面枠
 10
166.6271870722073
 20
-2961.155960436019
 30
0.0
 40
2.764800000000001
  1
Projected Capacitive
 72
     1
 11
183.9071870722073
 21
-2959.773560436019
 31
0.0
 73
     2
  0
LINE
  5
3B8
  8
回90-図面枠
 10
153.9551870722073
 20
-2939.03756043602
 30
0.0
 11
153.9551870722073
 21
-2966.685560436019
 31
0.0
  0
TEXT
  5
3B9
  8
回90-図面枠
 10
179.4835070722073
 20
-2956.547960436019
 30
0.0
 40
2.764800000000001
  1
TYPE
 72
     1
 11
183.9071870722073
 21
-2955.165560436019
 31
0.0
 73
     2
  0
LINE
  5
3BA
  8
回90-図面枠
 10
156.719987072207
 20
-2962.07756043602
 30
0.0
 11
211.0943870722076
 21
-2962.07756043602
 31
0.0
  0
TEXT
  5
3BB
  8
回90-図面枠
 10
164.6918270722073
 20
-2965.763960436019
 30
0.0
 40
2.764800000000001
  1
DIMENSIONAL DRAWING
 72
     1
 11
183.9071870722073
 21
-2964.381560436019
 31
0.0
 73
     2
  0
TEXT
  5
3BC
  8
回90-図面枠
 10
160.0043502159239
 20
-2949.918805116656
 30
0.0
 40
3.6864
  1
DUS-LA070WB060A1A
 72
     1
 11
184.1502702159239
 21
-2948.075605116656
 31
0.0
 73
     2
  0
TEXT
  5
3BD
  8
回90-図面枠
 10
174.7142270722073
 20
-2942.954360436019
 30
0.0
 40
3.2256
  1
PART No.
 72
     1
 11
183.9071870722073
 21
-2941.341560436019
 31
0.0
 73
     2
  0
LINE
  5
3BE
  8
回90-図面枠
 10
153.9551870722073
 20
-2952.861560436019
 30
0.0
 11
282.9791870722074
 21
-2952.861560436019
 31
0.0
  0
LINE
  5
3BF
  8
回90-図面枠
 10
153.9551870722073
 20
-2957.469560436019
 30
0.0
 11
213.8591870722073
 21
-2957.469560436019
 31
0.0
  0
LINE
  5
3C0
  8
回90-図面枠
 10
153.9551870722073
 20
-2943.645560436019
 30
0.0
 11
282.9791870722074
 21
-2943.645560436019
 31
0.0
  0
TEXT
  5
3C1
  8
回90-図面枠
 10
253.9626953167294
 20
-2658.387621935178
 30
0.0
 40
3.2
  1
H
  0
LINE
  5
3C2
  8
回90-図面枠
 10
226.9791870722074
 20
-2654.685560436019
 30
0.0
 11
226.9791870722074
 21
-2658.68556043602
 31
0.0
  0
LINE
  5
3C3
  8
回90-図面枠
 10
170.9791870722074
 20
-2654.685560436019
 30
0.0
 11
170.9791870722074
 21
-2658.68556043602
 31
0.0
  0
TEXT
  5
3C4
  8
回90-図面枠
 10
141.9626953167294
 20
-2658.387621935178
 30
0.0
 40
3.2
  1
F
  0
LINE
  5
3C5
  8
回90-図面枠
 10
114.9791870722074
 20
-2654.685560436019
 30
0.0
 11
114.9791870722074
 21
-2658.68556043602
 31
0.0
  0
TEXT
  5
3C6
  8
回90-図面枠
 10
85.96269531672943
 20
-2658.387621935178
 30
0.0
 40
3.2
  1
E
  0
TEXT
  5
3C7
  8
回90-図面枠
 10
197.9626953167294
 20
-2658.387621935178
 30
0.0
 40
3.2
  1
G
  0
LINE
  5
3C8
  8
回90-図面枠
 10
58.97918707220743
 20
-2654.685560436019
 30
0.0
 11
58.97918707220743
 21
-2658.68556043602
 31
0.0
  0
TEXT
  5
3C9
  8
回90-図面枠
 10
29.96269531672942
 20
-2658.387621935178
 30
0.0
 40
3.2
  1
D
  0
LINE
  5
3CA
  8
回90-図面枠
 10
2.979187072207423
 20
-2654.685560436019
 30
0.0
 11
2.979187072207423
 21
-2658.68556043602
 31
0.0
  0
TEXT
  5
3CB
  8
回90-図面枠
 10
-26.03730468327058
 20
-2658.387621935178
 30
0.0
 40
3.2
  1
C
  0
LINE
  5
3CC
  8
回90-図面枠
 10
-53.02081292779257
 20
-2654.685560436019
 30
0.0
 11
-53.02081292779257
 21
-2658.68556043602
 31
0.0
  0
TEXT
  5
3CD
  8
回90-図面枠
 10
-82.03730468327057
 20
-2658.387621935178
 30
0.0
 40
3.2
  1
B
  0
LINE
  5
3CE
  8
回90-図面枠
 10
-109.0208129277925
 20
-2654.685560436019
 30
0.0
 11
-109.0208129277925
 21
-2658.68556043602
 31
0.0
  0
TEXT
  5
3CF
  8
回90-図面枠
 10
-138.0373046832706
 20
-2658.387621935178
 30
0.0
 40
3.2
  1
A
  0
LINE
  5
3D0
  8
回90-図面枠
 10
286.9791870722074
 20
-2654.685560436019
 30
0.0
 11
-169.0208129277926
 21
-2654.685560436019
 31
0.0
  0
LINE
  5
3D1
  8
回90-図面枠
 10
-165.0208129277926
 20
-2658.68556043602
 30
0.0
 11
282.9791870722074
 21
-2658.68556043602
 31
0.0
  0
TEXT
  5
3D2
  8
回90-図面枠
 10
284.1027238751347
 20
-2691.254610599332
 30
0.0
 40
3.2
  1
1
  0
LINE
  5
3D3
  8
回90-図面枠
 10
286.9791870722074
 20
-2720.28556043602
 30
0.0
 11
282.9791870722074
 21
-2720.28556043602
 31
0.0
  0
TEXT
  5
3D4
  8
回90-図面枠
 10
283.861524912493
 20
-2752.854610599333
 30
0.0
 40
3.2
  1
2
  0
LINE
  5
3D5
  8
回90-図面枠
 10
286.9791870722074
 20
-2781.885560436019
 30
0.0
 11
282.9791870722074
 21
-2781.885560436019
 31
0.0
  0
TEXT
  5
3D6
  8
回90-図面枠
 10
283.8571402371329
 20
-2814.454610599332
 30
0.0
 40
3.2
  1
3
  0
LINE
  5
3D7
  8
回90-図面枠
 10
286.9791870722074
 20
-2843.48556043602
 30
0.0
 11
282.9791870722074
 21
-2843.48556043602
 31
0.0
  0
TEXT
  5
3D8
  8
回90-図面枠
 10
283.7986665410681
 20
-2876.054610599332
 30
0.0
 40
3.2
  1
4
  0
TEXT
  5
3D9
  8
回90-図面枠
 10
-167.8972761248653
 20
-2691.254610599332
 30
0.0
 40
3.2
  1
1
  0
LINE
  5
3DA
  8
回90-図面枠
 10
-165.0208129277926
 20
-2720.28556043602
 30
0.0
 11
-169.0208129277926
 21
-2720.28556043602
 31
0.0
  0
TEXT
  5
3DB
  8
回90-図面枠
 10
-168.138475087507
 20
-2752.854610599333
 30
0.0
 40
3.2
  1
2
  0
LINE
  5
3DC
  8
回90-図面枠
 10
-165.0208129277926
 20
-2781.885560436019
 30
0.0
 11
-169.0208129277926
 21
-2781.885560436019
 31
0.0
  0
TEXT
  5
3DD
  8
回90-図面枠
 10
-168.1428597628671
 20
-2814.454610599332
 30
0.0
 40
3.2
  1
3
  0
LINE
  5
3DE
  8
回90-図面枠
 10
-165.0208129277926
 20
-2843.48556043602
 30
0.0
 11
-169.0208129277926
 21
-2843.48556043602
 31
0.0
  0
TEXT
  5
3DF
  8
回90-図面枠
 10
-168.2013334589319
 20
-2876.054610599332
 30
0.0
 40
3.2
  1
4
  0
LINE
  5
3E0
  8
回90-図面枠
 10
286.9791870722074
 20
-2905.085560436019
 30
0.0
 11
282.9791870722074
 21
-2905.085560436019
 31
0.0
  0
TEXT
  5
3E1
  8
回90-図面枠
 10
283.7986665410681
 20
-2937.654610599332
 30
0.0
 40
3.2
  1
5
  0
TEXT
  5
3E2
  8
回90-図面枠
 10
253.9626953167294
 20
-2970.387621935179
 30
0.0
 40
3.2
  1
H
  0
LINE
  5
3E3
  8
回90-図面枠
 10
226.9791870722074
 20
-2966.685560436019
 30
0.0
 11
226.9791870722074
 21
-2970.685560436019
 31
0.0
  0
LINE
  5
3E4
  8
回90-図面枠
 10
170.9791870722074
 20
-2966.685560436019
 30
0.0
 11
170.9791870722074
 21
-2970.685560436019
 31
0.0
  0
TEXT
  5
3E5
  8
回90-図面枠
 10
141.9626953167294
 20
-2970.387621935179
 30
0.0
 40
3.2
  1
F
  0
LINE
  5
3E6
  8
回90-図面枠
 10
114.9791870722074
 20
-2966.685560436019
 30
0.0
 11
114.9791870722074
 21
-2970.685560436019
 31
0.0
  0
TEXT
  5
3E7
  8
回90-図面枠
 10
85.96269531672943
 20
-2970.387621935179
 30
0.0
 40
3.2
  1
E
  0
TEXT
  5
3E8
  8
回90-図面枠
 10
197.9626953167294
 20
-2970.387621935179
 30
0.0
 40
3.2
  1
G
  0
LINE
  5
3E9
  8
回90-図面枠
 10
58.97918707220743
 20
-2966.685560436019
 30
0.0
 11
58.97918707220743
 21
-2970.685560436019
 31
0.0
  0
TEXT
  5
3EA
  8
回90-図面枠
 10
29.96269531672942
 20
-2970.387621935179
 30
0.0
 40
3.2
  1
D
  0
LINE
  5
3EB
  8
回90-図面枠
 10
2.979187072207423
 20
-2966.685560436019
 30
0.0
 11
2.979187072207423
 21
-2970.685560436019
 31
0.0
  0
TEXT
  5
3EC
  8
回90-図面枠
 10
-26.03730468327058
 20
-2970.387621935179
 30
0.0
 40
3.2
  1
C
  0
LINE
  5
3ED
  8
回90-図面枠
 10
-53.02081292779257
 20
-2966.685560436019
 30
0.0
 11
-53.02081292779257
 21
-2970.685560436019
 31
0.0
  0
LINE
  5
3EE
  8
回90-図面枠
 10
-165.0208129277926
 20
-2905.085560436019
 30
0.0
 11
-169.0208129277926
 21
-2905.085560436019
 31
0.0
  0
TEXT
  5
3EF
  8
回90-図面枠
 10
-168.2013334589319
 20
-2937.654610599332
 30
0.0
 40
3.2
  1
5
  0
TEXT
  5
3F0
  8
回90-図面枠
 10
-82.03730468327057
 20
-2970.387621935179
 30
0.0
 40
3.2
  1
B
  0
LINE
  5
3F1
  8
回90-図面枠
 10
-109.0208129277925
 20
-2966.685560436019
 30
0.0
 11
-109.0208129277925
 21
-2970.685560436019
 31
0.0
  0
TEXT
  5
3F2
  8
回90-図面枠
 10
-138.0373046832706
 20
-2970.387621935179
 30
0.0
 40
3.2
  1
A
  0
LINE
  5
3F3
  8
回90-図面枠
 10
-165.0208129277926
 20
-2966.685560436019
 30
0.0
 11
282.9791870722074
 21
-2966.685560436019
 31
0.0
  0
LINE
  5
3F4
  8
回90-図面枠
 10
286.9791870722074
 20
-2970.685560436019
 30
0.0
 11
-169.0208129277926
 21
-2970.685560436019
 31
0.0
  0
LINE
  5
3F5
  8
回90-図面枠
 10
286.9791870722074
 20
-2970.685560436019
 30
0.0
 11
286.9791870722074
 21
-2654.685560436019
 31
0.0
  0
LINE
  5
3F6
  8
回90-図面枠
 10
282.9791870722074
 20
-2658.68556043602
 30
0.0
 11
282.9791870722074
 21
-2966.685560436019
 31
0.0
  0
LINE
  5
3F7
  8
回90-図面枠
 10
-169.0208129277926
 20
-2970.685560436019
 30
0.0
 11
-169.0208129277926
 21
-2654.685560436019
 31
0.0
  0
LINE
  5
3F8
  8
回90-図面枠
 10
-165.0208129277926
 20
-2658.68556043602
 30
0.0
 11
-165.0208129277926
 21
-2966.685560436019
 31
0.0
  0
TEXT
  5
3F9
  8
回07-寸法
 62
     7
 10
-44.8148886788465
 20
-2890.451457236862
 30
0.0
 40
2.799999999999999
  1
40
  7
4MM
  0
TEXT
  5
3FA
  8
回07-寸法
 62
     7
 10
-18.9835962039815
 20
-2890.297395064299
 30
0.0
 40
2.799999999999999
  1
1
  7
4MM
  0
TEXT
  5
3FB
  8
回07-寸法
 62
     7
 10
-49.37097669069657
 20
-2890.196673778408
 30
0.0
 40
2.799999999999999
  1
1
  7
4MM
  0
POLYLINE
  5
3FC
  8
回00-TP外形
  6
CONTINUOUS
 62
     7
 66
     1
 10
0.0
 20
0.0
 30
0.0
 70
     1
  0
VERTEX
  5
6FB
  8
回00-TP外形
  6
CONTINUOUS
 62
     7
 10
-19.66640255866332
 20
-2891.423239690664
 30
0.0
 42
0.4142135623730951
  0
VERTEX
  5
6FD
  8
回00-TP外形
  6
CONTINUOUS
 62
     7
 10
-19.4664025586635
 20
-2891.223239690664
 30
0.0
  0
VERTEX
  5
6FE
  8
回00-TP外形
  6
CONTINUOUS
 62
     7
 10
-19.4664025586635
 20
-2828.973239690665
 30
0.0
 42
0.4142135623730951
  0
VERTEX
  5
6FF
  8
回00-TP外形
  6
CONTINUOUS
 62
     7
 10
-19.66640255866423
 20
-2828.773239690665
 30
0.0
  0
VERTEX
  5
700
  8
回00-TP外形
  6
CONTINUOUS
 62
     7
 10
-39.76640255866437
 20
-2828.773239690665
 30
0.0
 42
0.4142135623730951
  0
VERTEX
  5
701
  8
回00-TP外形
  6
CONTINUOUS
 62
     7
 10
-39.96640255866464
 20
-2828.973239690665
 30
0.0
  0
VERTEX
  5
702
  8
回00-TP外形
  6
CONTINUOUS
 62
     7
 10
-39.96640255866464
 20
-2891.223239690664
 30
0.0
 42
0.4142135623730951
  0
VERTEX
  5
703
  8
回00-TP外形
  6
CONTINUOUS
 62
     7
 10
-39.76640255866437
 20
-2891.423239690664
 30
0.0
  0
SEQEND
  5
6FC
  8
回07-寸法
  6
CONTINUOUS
 62
     7
  0
POLYLINE
  5
400
  8
回00-TP外形
  6
CONTINUOUS
 62
     7
 66
     1
 10
0.0
 20
0.0
 30
0.0
 70
     1
  0
VERTEX
  5
704
  8
回00-TP外形
  6
CONTINUOUS
 62
     7
 10
-63.46638561416217
 20
-2828.973239690665
 30
0.0
 42
-0.4142135623730951
  0
VERTEX
  5
706
  8
回00-TP外形
  6
CONTINUOUS
 62
     7
 10
-63.26638561416235
 20
-2828.773239690664
 30
0.0
  0
VERTEX
  5
707
  8
回00-TP外形
  6
CONTINUOUS
 62
     7
 10
-50.16638561416153
 20
-2828.773239690664
 30
0.0
 42
-0.4142135623730951
  0
VERTEX
  5
708
  8
回00-TP外形
  6
CONTINUOUS
 62
     7
 10
-49.96638561416125
 20
-2828.973239690665
 30
0.0
  0
VERTEX
  5
709
  8
回00-TP外形
  6
CONTINUOUS
 62
     7
 10
-49.96638561416125
 20
-2891.223239690664
 30
0.0
 42
-0.4142135623730951
  0
VERTEX
  5
70A
  8
回00-TP外形
  6
CONTINUOUS
 62
     7
 10
-50.16638561416153
 20
-2891.423239690664
 30
0.0
  0
VERTEX
  5
70B
  8
回00-TP外形
  6
CONTINUOUS
 62
     7
 10
-63.26638561416235
 20
-2891.423239690664
 30
0.0
 42
-0.4142135623730951
  0
VERTEX
  5
70C
  8
回00-TP外形
  6
CONTINUOUS
 62
     7
 10
-63.46638561416262
 20
-2891.223239690664
 30
0.0
  0
SEQEND
  5
705
  8
回07-寸法
  6
CONTINUOUS
 62
     7
  0
POLYLINE
  5
401
  8
回00-TP外形
  6
CONTINUOUS
 62
     7
 66
     1
 10
0.0
 20
0.0
 30
0.0
 70
     1
  0
VERTEX
  5
70D
  8
回00-TP外形
  6
CONTINUOUS
 62
     7
 10
49.24292047643849
 20
-2821.885711440735
 30
0.0
  0
VERTEX
  5
70F
  8
回00-TP外形
  6
CONTINUOUS
 62
     7
 10
52.24292047643849
 20
-2821.885711440735
 30
0.0
  0
VERTEX
  5
710
  8
回00-TP外形
  6
CONTINUOUS
 62
     7
 10
52.24292047643849
 20
-2822.885711440735
 30
0.0
  0
VERTEX
  5
711
  8
回00-TP外形
  6
CONTINUOUS
 62
     7
 10
49.24292047643849
 20
-2822.885711440735
 30
0.0
  0
SEQEND
  5
70E
  8
回07-寸法
  6
CONTINUOUS
 62
     7
  0
POLYLINE
  5
402
  8
回00-TP外形
  6
CONTINUOUS
 62
     7
 66
     1
 10
0.0
 20
0.0
 30
0.0
 70
     1
  0
VERTEX
  5
712
  8
回00-TP外形
  6
CONTINUOUS
 62
     7
 10
43.38292047643881
 20
-2821.885711440735
 30
0.0
  0
VERTEX
  5
714
  8
回00-TP外形
  6
CONTINUOUS
 62
     7
 10
46.38292047643881
 20
-2821.885711440735
 30
0.0
  0
VERTEX
  5
715
  8
回00-TP外形
  6
CONTINUOUS
 62
     7
 10
46.38292047643881
 20
-2822.885711440735
 30
0.0
  0
VERTEX
  5
716
  8
回00-TP外形
  6
CONTINUOUS
 62
     7
 10
43.38292047643881
 20
-2822.885711440735
 30
0.0
  0
SEQEND
  5
713
  8
回07-寸法
  6
CONTINUOUS
 62
     7
  0
POLYLINE
  5
403
  8
回00-TP外形
  6
CONTINUOUS
 62
     7
 66
     1
 10
0.0
 20
0.0
 30
0.0
 70
     1
  0
VERTEX
  5
717
  8
回00-TP外形
  6
CONTINUOUS
 62
     7
 10
37.52292047643914
 20
-2821.885711440735
 30
0.0
  0
VERTEX
  5
719
  8
回00-TP外形
  6
CONTINUOUS
 62
     7
 10
40.52292047643914
 20
-2821.885711440735
 30
0.0
  0
VERTEX
  5
71A
  8
回00-TP外形
  6
CONTINUOUS
 62
     7
 10
40.52292047643914
 20
-2822.885711440735
 30
0.0
  0
VERTEX
  5
71B
  8
回00-TP外形
  6
CONTINUOUS
 62
     7
 10
37.52292047643914
 20
-2822.885711440735
 30
0.0
  0
SEQEND
  5
718
  8
回07-寸法
  6
CONTINUOUS
 62
     7
  0
POLYLINE
  5
404
  8
回00-TP外形
  6
CONTINUOUS
 62
     7
 66
     1
 10
0.0
 20
0.0
 30
0.0
 70
     1
  0
VERTEX
  5
71C
  8
回00-TP外形
  6
CONTINUOUS
 62
     7
 10
31.66292047643856
 20
-2821.885711440735
 30
0.0
  0
VERTEX
  5
71E
  8
回00-TP外形
  6
CONTINUOUS
 62
     7
 10
34.66292047643856
 20
-2821.885711440735
 30
0.0
  0
VERTEX
  5
71F
  8
回00-TP外形
  6
CONTINUOUS
 62
     7
 10
34.66292047643856
 20
-2822.885711440735
 30
0.0
  0
VERTEX
  5
720
  8
回00-TP外形
  6
CONTINUOUS
 62
     7
 10
31.66292047643856
 20
-2822.885711440735
 30
0.0
  0
SEQEND
  5
71D
  8
回07-寸法
  6
CONTINUOUS
 62
     7
  0
POLYLINE
  5
405
  8
回00-TP外形
  6
CONTINUOUS
 62
     7
 66
     1
 10
0.0
 20
0.0
 30
0.0
 70
     1
  0
VERTEX
  5
721
  8
回00-TP外形
  6
CONTINUOUS
 62
     7
 10
25.80292047643889
 20
-2821.885711440735
 30
0.0
  0
VERTEX
  5
723
  8
回00-TP外形
  6
CONTINUOUS
 62
     7
 10
28.80292047643889
 20
-2821.885711440735
 30
0.0
  0
VERTEX
  5
724
  8
回00-TP外形
  6
CONTINUOUS
 62
     7
 10
28.80292047643889
 20
-2822.885711440735
 30
0.0
  0
VERTEX
  5
725
  8
回00-TP外形
  6
CONTINUOUS
 62
     7
 10
25.80292047643889
 20
-2822.885711440735
 30
0.0
  0
SEQEND
  5
722
  8
回07-寸法
  6
CONTINUOUS
 62
     7
  0
POLYLINE
  5
406
  8
回00-TP外形
  6
CONTINUOUS
 62
     7
 66
     1
 10
0.0
 20
0.0
 30
0.0
 70
     1
  0
VERTEX
  5
726
  8
回00-TP外形
  6
CONTINUOUS
 62
     7
 10
19.94292047643921
 20
-2821.885711440735
 30
0.0
  0
VERTEX
  5
728
  8
回00-TP外形
  6
CONTINUOUS
 62
     7
 10
22.94292047643921
 20
-2821.885711440735
 30
0.0
  0
VERTEX
  5
729
  8
回00-TP外形
  6
CONTINUOUS
 62
     7
 10
22.94292047643921
 20
-2822.885711440735
 30
0.0
  0
VERTEX
  5
72A
  8
回00-TP外形
  6
CONTINUOUS
 62
     7
 10
19.94292047643921
 20
-2822.885711440735
 30
0.0
  0
SEQEND
  5
727
  8
回07-寸法
  6
CONTINUOUS
 62
     7
  0
POLYLINE
  5
407
  8
回00-TP外形
  6
CONTINUOUS
 62
     7
 66
     1
 10
0.0
 20
0.0
 30
0.0
 70
     1
  0
VERTEX
  5
72B
  8
回00-TP外形
  6
CONTINUOUS
 62
     7
 10
14.08292047643863
 20
-2821.885711440735
 30
0.0
  0
VERTEX
  5
72D
  8
回00-TP外形
  6
CONTINUOUS
 62
     7
 10
17.08292047643863
 20
-2821.885711440735
 30
0.0
  0
VERTEX
  5
72E
  8
回00-TP外形
  6
CONTINUOUS
 62
     7
 10
17.08292047643863
 20
-2822.885711440735
 30
0.0
  0
VERTEX
  5
72F
  8
回00-TP外形
  6
CONTINUOUS
 62
     7
 10
14.08292047643863
 20
-2822.885711440735
 30
0.0
  0
SEQEND
  5
72C
  8
回07-寸法
  6
CONTINUOUS
 62
     7
  0
POLYLINE
  5
408
  8
回00-TP外形
  6
CONTINUOUS
 62
     7
 66
     1
 10
0.0
 20
0.0
 30
0.0
 70
     1
  0
VERTEX
  5
730
  8
回00-TP外形
  6
CONTINUOUS
 62
     7
 10
8.222920476438957
 20
-2821.885711440735
 30
0.0
  0
VERTEX
  5
732
  8
回00-TP外形
  6
CONTINUOUS
 62
     7
 10
11.22292047643896
 20
-2821.885711440735
 30
0.0
  0
VERTEX
  5
733
  8
回00-TP外形
  6
CONTINUOUS
 62
     7
 10
11.22292047643896
 20
-2822.885711440735
 30
0.0
  0
VERTEX
  5
734
  8
回00-TP外形
  6
CONTINUOUS
 62
     7
 10
8.222920476438957
 20
-2822.885711440735
 30
0.0
  0
SEQEND
  5
731
  8
回07-寸法
  6
CONTINUOUS
 62
     7
  0
POLYLINE
  5
409
  8
回00-TP外形
  6
CONTINUOUS
 62
     7
 66
     1
 10
0.0
 20
0.0
 30
0.0
 70
     1
  0
VERTEX
  5
735
  8
回00-TP外形
  6
CONTINUOUS
 62
     7
 10
2.362920476439285
 20
-2821.885711440735
 30
0.0
  0
VERTEX
  5
737
  8
回00-TP外形
  6
CONTINUOUS
 62
     7
 10
5.362920476439285
 20
-2821.885711440735
 30
0.0
  0
VERTEX
  5
738
  8
回00-TP外形
  6
CONTINUOUS
 62
     7
 10
5.362920476439285
 20
-2822.885711440735
 30
0.0
  0
VERTEX
  5
739
  8
回00-TP外形
  6
CONTINUOUS
 62
     7
 10
2.362920476439285
 20
-2822.885711440735
 30
0.0
  0
SEQEND
  5
736
  8
回07-寸法
  6
CONTINUOUS
 62
     7
  0
POLYLINE
  5
40A
  8
回00-TP外形
  6
CONTINUOUS
 62
     7
 66
     1
 10
0.0
 20
0.0
 30
0.0
 70
     1
  0
VERTEX
  5
73A
  8
回00-TP外形
  6
CONTINUOUS
 62
     7
 10
-3.497079523561296
 20
-2821.885711440735
 30
0.0
  0
VERTEX
  5
73C
  8
回00-TP外形
  6
CONTINUOUS
 62
     7
 10
-0.4970795235612968
 20
-2821.885711440735
 30
0.0
  0
VERTEX
  5
73D
  8
回00-TP外形
  6
CONTINUOUS
 62
     7
 10
-0.4970795235612968
 20
-2822.885711440735
 30
0.0
  0
VERTEX
  5
73E
  8
回00-TP外形
  6
CONTINUOUS
 62
     7
 10
-3.497079523561296
 20
-2822.885711440735
 30
0.0
  0
SEQEND
  5
73B
  8
回07-寸法
  6
CONTINUOUS
 62
     7
  0
POLYLINE
  5
40B
  8
回00-TP外形
  6
CONTINUOUS
 62
     7
 66
     1
 10
0.0
 20
0.0
 30
0.0
 70
     1
  0
VERTEX
  5
73F
  8
回00-TP外形
  6
CONTINUOUS
 62
     7
 10
-9.357079523560969
 20
-2821.885711440735
 30
0.0
  0
VERTEX
  5
741
  8
回00-TP外形
  6
CONTINUOUS
 62
     7
 10
-6.357079523560969
 20
-2821.885711440735
 30
0.0
  0
VERTEX
  5
742
  8
回00-TP外形
  6
CONTINUOUS
 62
     7
 10
-6.357079523560969
 20
-2822.885711440735
 30
0.0
  0
VERTEX
  5
743
  8
回00-TP外形
  6
CONTINUOUS
 62
     7
 10
-9.357079523560969
 20
-2822.885711440735
 30
0.0
  0
SEQEND
  5
740
  8
回07-寸法
  6
CONTINUOUS
 62
     7
  0
POLYLINE
  5
40C
  8
回00-TP外形
  6
CONTINUOUS
 62
     7
 66
     1
 10
0.0
 20
0.0
 30
0.0
 70
     1
  0
VERTEX
  5
744
  8
回00-TP外形
  6
CONTINUOUS
 62
     7
 10
-15.21707952356064
 20
-2821.885711440735
 30
0.0
  0
VERTEX
  5
746
  8
回00-TP外形
  6
CONTINUOUS
 62
     7
 10
-12.21707952356064
 20
-2821.885711440735
 30
0.0
  0
VERTEX
  5
747
  8
回00-TP外形
  6
CONTINUOUS
 62
     7
 10
-12.21707952356064
 20
-2822.885711440735
 30
0.0
  0
VERTEX
  5
748
  8
回00-TP外形
  6
CONTINUOUS
 62
     7
 10
-15.21707952356064
 20
-2822.885711440735
 30
0.0
  0
SEQEND
  5
745
  8
回07-寸法
  6
CONTINUOUS
 62
     7
  0
POLYLINE
  5
40D
  8
回00-TP外形
  6
CONTINUOUS
 62
     7
 66
     1
 10
0.0
 20
0.0
 30
0.0
 70
     1
  0
VERTEX
  5
749
  8
回00-TP外形
  6
CONTINUOUS
 62
     7
 10
-21.07707952356122
 20
-2821.885711440735
 30
0.0
  0
VERTEX
  5
74B
  8
回00-TP外形
  6
CONTINUOUS
 62
     7
 10
-18.07707952356122
 20
-2821.885711440735
 30
0.0
  0
VERTEX
  5
74C
  8
回00-TP外形
  6
CONTINUOUS
 62
     7
 10
-18.07707952356122
 20
-2822.885711440735
 30
0.0
  0
VERTEX
  5
74D
  8
回00-TP外形
  6
CONTINUOUS
 62
     7
 10
-21.07707952356122
 20
-2822.885711440735
 30
0.0
  0
SEQEND
  5
74A
  8
回07-寸法
  6
CONTINUOUS
 62
     7
  0
POLYLINE
  5
40E
  8
回00-TP外形
  6
CONTINUOUS
 62
     7
 66
     1
 10
0.0
 20
0.0
 30
0.0
 70
     1
  0
VERTEX
  5
74E
  8
回00-TP外形
  6
CONTINUOUS
 62
     7
 10
-26.93707952356112
 20
-2821.885711440735
 30
0.0
  0
VERTEX
  5
750
  8
回00-TP外形
  6
CONTINUOUS
 62
     7
 10
-23.93707952356113
 20
-2821.885711440735
 30
0.0
  0
VERTEX
  5
751
  8
回00-TP外形
  6
CONTINUOUS
 62
     7
 10
-23.93707952356113
 20
-2822.885711440735
 30
0.0
  0
VERTEX
  5
752
  8
回00-TP外形
  6
CONTINUOUS
 62
     7
 10
-26.93707952356112
 20
-2822.885711440735
 30
0.0
  0
SEQEND
  5
74F
  8
回07-寸法
  6
CONTINUOUS
 62
     7
  0
POLYLINE
  5
40F
  8
回00-TP外形
  6
CONTINUOUS
 62
     7
 66
     1
 10
0.0
 20
0.0
 30
0.0
 70
     1
  0
VERTEX
  5
753
  8
回00-TP外形
  6
CONTINUOUS
 62
     7
 10
-32.79707952356125
 20
-2821.885711440735
 30
0.0
  0
VERTEX
  5
755
  8
回00-TP外形
  6
CONTINUOUS
 62
     7
 10
-29.79707952356125
 20
-2821.885711440735
 30
0.0
  0
VERTEX
  5
756
  8
回00-TP外形
  6
CONTINUOUS
 62
     7
 10
-29.79707952356125
 20
-2822.885711440735
 30
0.0
  0
VERTEX
  5
757
  8
回00-TP外形
  6
CONTINUOUS
 62
     7
 10
-32.79707952356125
 20
-2822.885711440735
 30
0.0
  0
SEQEND
  5
754
  8
回07-寸法
  6
CONTINUOUS
 62
     7
  0
POLYLINE
  5
410
  8
回00-TP外形
  6
CONTINUOUS
 62
     7
 66
     1
 10
0.0
 20
0.0
 30
0.0
 70
     1
  0
VERTEX
  5
758
  8
回00-TP外形
  6
CONTINUOUS
 62
     7
 10
-38.65707952356115
 20
-2821.885711440735
 30
0.0
  0
VERTEX
  5
75A
  8
回00-TP外形
  6
CONTINUOUS
 62
     7
 10
-35.65707952356115
 20
-2821.885711440735
 30
0.0
  0
VERTEX
  5
75B
  8
回00-TP外形
  6
CONTINUOUS
 62
     7
 10
-35.65707952356115
 20
-2822.885711440735
 30
0.0
  0
VERTEX
  5
75C
  8
回00-TP外形
  6
CONTINUOUS
 62
     7
 10
-38.65707952356115
 20
-2822.885711440735
 30
0.0
  0
SEQEND
  5
759
  8
回07-寸法
  6
CONTINUOUS
 62
     7
  0
POLYLINE
  5
411
  8
回00-TP外形
  6
CONTINUOUS
 62
     7
 66
     1
 10
0.0
 20
0.0
 30
0.0
 70
     1
  0
VERTEX
  5
75D
  8
回00-TP外形
  6
CONTINUOUS
 62
     7
 10
-44.51707952356104
 20
-2821.885711440735
 30
0.0
  0
VERTEX
  5
75F
  8
回00-TP外形
  6
CONTINUOUS
 62
     7
 10
-41.51707952356105
 20
-2821.885711440735
 30
0.0
  0
VERTEX
  5
760
  8
回00-TP外形
  6
CONTINUOUS
 62
     7
 10
-41.51707952356105
 20
-2822.885711440735
 30
0.0
  0
VERTEX
  5
761
  8
回00-TP外形
  6
CONTINUOUS
 62
     7
 10
-44.51707952356104
 20
-2822.885711440735
 30
0.0
  0
SEQEND
  5
75E
  8
回07-寸法
  6
CONTINUOUS
 62
     7
  0
POLYLINE
  5
412
  8
回00-TP外形
  6
CONTINUOUS
 62
     7
 66
     1
 10
0.0
 20
0.0
 30
0.0
 70
     1
  0
VERTEX
  5
762
  8
回00-TP外形
  6
CONTINUOUS
 62
     7
 10
-50.37707952356118
 20
-2821.885711440735
 30
0.0
  0
VERTEX
  5
764
  8
回00-TP外形
  6
CONTINUOUS
 62
     7
 10
-47.37707952356117
 20
-2821.885711440735
 30
0.0
  0
VERTEX
  5
765
  8
回00-TP外形
  6
CONTINUOUS
 62
     7
 10
-47.37707952356117
 20
-2822.885711440735
 30
0.0
  0
VERTEX
  5
766
  8
回00-TP外形
  6
CONTINUOUS
 62
     7
 10
-50.37707952356118
 20
-2822.885711440735
 30
0.0
  0
SEQEND
  5
763
  8
回07-寸法
  6
CONTINUOUS
 62
     7
  0
POLYLINE
  5
413
  8
回00-TP外形
  6
CONTINUOUS
 62
     7
 66
     1
 10
0.0
 20
0.0
 30
0.0
 70
     1
  0
VERTEX
  5
767
  8
回00-TP外形
  6
CONTINUOUS
 62
     7
 10
-56.23707952356108
 20
-2821.885711440735
 30
0.0
  0
VERTEX
  5
769
  8
回00-TP外形
  6
CONTINUOUS
 62
     7
 10
-53.23707952356108
 20
-2821.885711440735
 30
0.0
  0
VERTEX
  5
76A
  8
回00-TP外形
  6
CONTINUOUS
 62
     7
 10
-53.23707952356108
 20
-2822.885711440735
 30
0.0
  0
VERTEX
  5
76B
  8
回00-TP外形
  6
CONTINUOUS
 62
     7
 10
-56.23707952356108
 20
-2822.885711440735
 30
0.0
  0
SEQEND
  5
768
  8
回07-寸法
  6
CONTINUOUS
 62
     7
  0
POLYLINE
  5
414
  8
回00-TP外形
  6
CONTINUOUS
 62
     7
 66
     1
 10
0.0
 20
0.0
 30
0.0
 70
     1
  0
VERTEX
  5
76C
  8
回00-TP外形
  6
CONTINUOUS
 62
     7
 10
-62.0970795235612
 20
-2821.885711440735
 30
0.0
  0
VERTEX
  5
76E
  8
回00-TP外形
  6
CONTINUOUS
 62
     7
 10
-59.09707952356121
 20
-2821.885711440735
 30
0.0
  0
VERTEX
  5
76F
  8
回00-TP外形
  6
CONTINUOUS
 62
     7
 10
-59.09707952356121
 20
-2822.885711440735
 30
0.0
  0
VERTEX
  5
770
  8
回00-TP外形
  6
CONTINUOUS
 62
     7
 10
-62.0970795235612
 20
-2822.885711440735
 30
0.0
  0
SEQEND
  5
76D
  8
回07-寸法
  6
CONTINUOUS
 62
     7
  0
POLYLINE
  5
415
  8
回00-TP外形
  6
CONTINUOUS
 62
     7
 66
     1
 10
0.0
 20
0.0
 30
0.0
 70
     1
  0
VERTEX
  5
771
  8
回00-TP外形
  6
CONTINUOUS
 62
     7
 10
-67.9570795235611
 20
-2821.885711440735
 30
0.0
  0
VERTEX
  5
773
  8
回00-TP外形
  6
CONTINUOUS
 62
     7
 10
-64.9570795235611
 20
-2821.885711440735
 30
0.0
  0
VERTEX
  5
774
  8
回00-TP外形
  6
CONTINUOUS
 62
     7
 10
-64.9570795235611
 20
-2822.885711440735
 30
0.0
  0
VERTEX
  5
775
  8
回00-TP外形
  6
CONTINUOUS
 62
     7
 10
-67.9570795235611
 20
-2822.885711440735
 30
0.0
  0
SEQEND
  5
772
  8
回07-寸法
  6
CONTINUOUS
 62
     7
  0
POLYLINE
  5
416
  8
回00-TP外形
  6
CONTINUOUS
 62
     7
 66
     1
 10
0.0
 20
0.0
 30
0.0
 70
     1
  0
VERTEX
  5
776
  8
回00-TP外形
  6
CONTINUOUS
 62
     7
 10
-73.81707952356123
 20
-2821.885711440735
 30
0.0
  0
VERTEX
  5
778
  8
回00-TP外形
  6
CONTINUOUS
 62
     7
 10
-70.81707952356123
 20
-2821.885711440735
 30
0.0
  0
VERTEX
  5
779
  8
回00-TP外形
  6
CONTINUOUS
 62
     7
 10
-70.81707952356123
 20
-2822.885711440735
 30
0.0
  0
VERTEX
  5
77A
  8
回00-TP外形
  6
CONTINUOUS
 62
     7
 10
-73.81707952356123
 20
-2822.885711440735
 30
0.0
  0
SEQEND
  5
777
  8
回07-寸法
  6
CONTINUOUS
 62
     7
  0
POLYLINE
  5
417
  8
回00-TP外形
  6
CONTINUOUS
 62
     7
 66
     1
 10
0.0
 20
0.0
 30
0.0
 70
     1
  0
VERTEX
  5
77B
  8
回00-TP外形
  6
CONTINUOUS
 62
     7
 10
-79.67707952356113
 20
-2821.885711440735
 30
0.0
  0
VERTEX
  5
77D
  8
回00-TP外形
  6
CONTINUOUS
 62
     7
 10
-76.67707952356114
 20
-2821.885711440735
 30
0.0
  0
VERTEX
  5
77E
  8
回00-TP外形
  6
CONTINUOUS
 62
     7
 10
-76.67707952356114
 20
-2822.885711440735
 30
0.0
  0
VERTEX
  5
77F
  8
回00-TP外形
  6
CONTINUOUS
 62
     7
 10
-79.67707952356113
 20
-2822.885711440735
 30
0.0
  0
SEQEND
  5
77C
  8
回07-寸法
  6
CONTINUOUS
 62
     7
  0
POLYLINE
  5
418
  8
回00-TP外形
  6
CONTINUOUS
 62
     7
 66
     1
 10
0.0
 20
0.0
 30
0.0
 70
     1
  0
VERTEX
  5
780
  8
回00-TP外形
  6
CONTINUOUS
 62
     7
 10
-85.53707952356125
 20
-2821.885711440735
 30
0.0
  0
VERTEX
  5
782
  8
回00-TP外形
  6
CONTINUOUS
 62
     7
 10
-82.53707952356126
 20
-2821.885711440735
 30
0.0
  0
VERTEX
  5
783
  8
回00-TP外形
  6
CONTINUOUS
 62
     7
 10
-82.53707952356126
 20
-2822.885711440735
 30
0.0
  0
VERTEX
  5
784
  8
回00-TP外形
  6
CONTINUOUS
 62
     7
 10
-85.53707952356125
 20
-2822.885711440735
 30
0.0
  0
SEQEND
  5
781
  8
回07-寸法
  6
CONTINUOUS
 62
     7
  0
POLYLINE
  5
419
  8
回00-TP外形
  6
CONTINUOUS
 62
     7
 66
     1
 10
0.0
 20
0.0
 30
0.0
 70
     1
  0
VERTEX
  5
785
  8
回00-TP外形
  6
CONTINUOUS
 62
     7
 10
-91.39707952356117
 20
-2821.885711440735
 30
0.0
  0
VERTEX
  5
787
  8
回00-TP外形
  6
CONTINUOUS
 62
     7
 10
-88.39707952356116
 20
-2821.885711440735
 30
0.0
  0
VERTEX
  5
788
  8
回00-TP外形
  6
CONTINUOUS
 62
     7
 10
-88.39707952356116
 20
-2822.885711440735
 30
0.0
  0
VERTEX
  5
789
  8
回00-TP外形
  6
CONTINUOUS
 62
     7
 10
-91.39707952356117
 20
-2822.885711440735
 30
0.0
  0
SEQEND
  5
786
  8
回07-寸法
  6
CONTINUOUS
 62
     7
  0
POLYLINE
  5
41A
  8
回00-TP外形
  6
CONTINUOUS
 62
     7
 66
     1
 10
0.0
 20
0.0
 30
0.0
 70
     1
  0
VERTEX
  5
78A
  8
回00-TP外形
  6
CONTINUOUS
 62
     7
 10
-97.25707952356129
 20
-2821.885711440735
 30
0.0
  0
VERTEX
  5
78C
  8
回00-TP外形
  6
CONTINUOUS
 62
     7
 10
-94.25707952356129
 20
-2821.885711440735
 30
0.0
  0
VERTEX
  5
78D
  8
回00-TP外形
  6
CONTINUOUS
 62
     7
 10
-94.25707952356129
 20
-2822.885711440735
 30
0.0
  0
VERTEX
  5
78E
  8
回00-TP外形
  6
CONTINUOUS
 62
     7
 10
-97.25707952356129
 20
-2822.885711440735
 30
0.0
  0
SEQEND
  5
78B
  8
回07-寸法
  6
CONTINUOUS
 62
     7
  0
POLYLINE
  5
41B
  8
回00-TP外形
  6
CONTINUOUS
 62
     7
 66
     1
 10
0.0
 20
0.0
 30
0.0
 70
     1
  0
VERTEX
  5
78F
  8
回00-TP外形
  6
CONTINUOUS
 62
     7
 10
-102.3570795235609
 20
-2729.460711440736
 30
0.0
  0
VERTEX
  5
791
  8
回00-TP外形
  6
CONTINUOUS
 62
     7
 10
-101.3570795235609
 20
-2729.460711440736
 30
0.0
  0
VERTEX
  5
792
  8
回00-TP外形
  6
CONTINUOUS
 62
     7
 10
-101.3570795235609
 20
-2732.460711440735
 30
0.0
  0
VERTEX
  5
793
  8
回00-TP外形
  6
CONTINUOUS
 62
     7
 10
-102.3570795235609
 20
-2732.460711440735
 30
0.0
  0
SEQEND
  5
790
  8
回07-寸法
  6
CONTINUOUS
 62
     7
  0
POLYLINE
  5
41C
  8
回00-TP外形
  6
CONTINUOUS
 62
     7
 66
     1
 10
0.0
 20
0.0
 30
0.0
 70
     1
  0
VERTEX
  5
794
  8
回00-TP外形
  6
CONTINUOUS
 62
     7
 10
-102.3570795235609
 20
-2735.160711440736
 30
0.0
  0
VERTEX
  5
796
  8
回00-TP外形
  6
CONTINUOUS
 62
     7
 10
-101.3570795235609
 20
-2735.160711440736
 30
0.0
  0
VERTEX
  5
797
  8
回00-TP外形
  6
CONTINUOUS
 62
     7
 10
-101.3570795235609
 20
-2738.160711440736
 30
0.0
  0
VERTEX
  5
798
  8
回00-TP外形
  6
CONTINUOUS
 62
     7
 10
-102.3570795235609
 20
-2738.160711440736
 30
0.0
  0
SEQEND
  5
795
  8
回07-寸法
  6
CONTINUOUS
 62
     7
  0
POLYLINE
  5
41D
  8
回00-TP外形
  6
CONTINUOUS
 62
     7
 66
     1
 10
0.0
 20
0.0
 30
0.0
 70
     1
  0
VERTEX
  5
799
  8
回00-TP外形
  6
CONTINUOUS
 62
     7
 10
-102.3570795235609
 20
-2740.860711440736
 30
0.0
  0
VERTEX
  5
79B
  8
回00-TP外形
  6
CONTINUOUS
 62
     7
 10
-101.3570795235609
 20
-2740.860711440736
 30
0.0
  0
VERTEX
  5
79C
  8
回00-TP外形
  6
CONTINUOUS
 62
     7
 10
-101.3570795235609
 20
-2743.860711440735
 30
0.0
  0
VERTEX
  5
79D
  8
回00-TP外形
  6
CONTINUOUS
 62
     7
 10
-102.3570795235609
 20
-2743.860711440735
 30
0.0
  0
SEQEND
  5
79A
  8
回07-寸法
  6
CONTINUOUS
 62
     7
  0
POLYLINE
  5
41E
  8
回00-TP外形
  6
CONTINUOUS
 62
     7
 66
     1
 10
0.0
 20
0.0
 30
0.0
 70
     1
  0
VERTEX
  5
79E
  8
回00-TP外形
  6
CONTINUOUS
 62
     7
 10
-102.3570795235609
 20
-2746.560711440736
 30
0.0
  0
VERTEX
  5
7A0
  8
回00-TP外形
  6
CONTINUOUS
 62
     7
 10
-101.3570795235609
 20
-2746.560711440736
 30
0.0
  0
VERTEX
  5
7A1
  8
回00-TP外形
  6
CONTINUOUS
 62
     7
 10
-101.3570795235609
 20
-2749.560711440735
 30
0.0
  0
VERTEX
  5
7A2
  8
回00-TP外形
  6
CONTINUOUS
 62
     7
 10
-102.3570795235609
 20
-2749.560711440735
 30
0.0
  0
SEQEND
  5
79F
  8
回07-寸法
  6
CONTINUOUS
 62
     7
  0
POLYLINE
  5
41F
  8
回00-TP外形
  6
CONTINUOUS
 62
     7
 66
     1
 10
0.0
 20
0.0
 30
0.0
 70
     1
  0
VERTEX
  5
7A3
  8
回00-TP外形
  6
CONTINUOUS
 62
     7
 10
-102.3570795235609
 20
-2752.260711440735
 30
0.0
  0
VERTEX
  5
7A5
  8
回00-TP外形
  6
CONTINUOUS
 62
     7
 10
-101.3570795235609
 20
-2752.260711440735
 30
0.0
  0
VERTEX
  5
7A6
  8
回00-TP外形
  6
CONTINUOUS
 62
     7
 10
-101.3570795235609
 20
-2755.260711440735
 30
0.0
  0
VERTEX
  5
7A7
  8
回00-TP外形
  6
CONTINUOUS
 62
     7
 10
-102.3570795235609
 20
-2755.260711440735
 30
0.0
  0
SEQEND
  5
7A4
  8
回07-寸法
  6
CONTINUOUS
 62
     7
  0
POLYLINE
  5
420
  8
回00-TP外形
  6
CONTINUOUS
 62
     7
 66
     1
 10
0.0
 20
0.0
 30
0.0
 70
     1
  0
VERTEX
  5
7A8
  8
回00-TP外形
  6
CONTINUOUS
 62
     7
 10
-102.3570795235609
 20
-2757.960711440736
 30
0.0
  0
VERTEX
  5
7AA
  8
回00-TP外形
  6
CONTINUOUS
 62
     7
 10
-101.3570795235609
 20
-2757.960711440736
 30
0.0
  0
VERTEX
  5
7AB
  8
回00-TP外形
  6
CONTINUOUS
 62
     7
 10
-101.3570795235609
 20
-2760.960711440735
 30
0.0
  0
VERTEX
  5
7AC
  8
回00-TP外形
  6
CONTINUOUS
 62
     7
 10
-102.3570795235609
 20
-2760.960711440735
 30
0.0
  0
SEQEND
  5
7A9
  8
回07-寸法
  6
CONTINUOUS
 62
     7
  0
POLYLINE
  5
421
  8
回00-TP外形
  6
CONTINUOUS
 62
     7
 66
     1
 10
0.0
 20
0.0
 30
0.0
 70
     1
  0
VERTEX
  5
7AD
  8
回00-TP外形
  6
CONTINUOUS
 62
     7
 10
-102.3570795235609
 20
-2763.660711440736
 30
0.0
  0
VERTEX
  5
7AF
  8
回00-TP外形
  6
CONTINUOUS
 62
     7
 10
-101.3570795235609
 20
-2763.660711440736
 30
0.0
  0
VERTEX
  5
7B0
  8
回00-TP外形
  6
CONTINUOUS
 62
     7
 10
-101.3570795235609
 20
-2766.660711440735
 30
0.0
  0
VERTEX
  5
7B1
  8
回00-TP外形
  6
CONTINUOUS
 62
     7
 10
-102.3570795235609
 20
-2766.660711440735
 30
0.0
  0
SEQEND
  5
7AE
  8
回07-寸法
  6
CONTINUOUS
 62
     7
  0
POLYLINE
  5
422
  8
回00-TP外形
  6
CONTINUOUS
 62
     7
 66
     1
 10
0.0
 20
0.0
 30
0.0
 70
     1
  0
VERTEX
  5
7B2
  8
回00-TP外形
  6
CONTINUOUS
 62
     7
 10
-102.3570795235609
 20
-2769.360711440736
 30
0.0
  0
VERTEX
  5
7B4
  8
回00-TP外形
  6
CONTINUOUS
 62
     7
 10
-101.3570795235609
 20
-2769.360711440736
 30
0.0
  0
VERTEX
  5
7B5
  8
回00-TP外形
  6
CONTINUOUS
 62
     7
 10
-101.3570795235609
 20
-2772.360711440736
 30
0.0
  0
VERTEX
  5
7B6
  8
回00-TP外形
  6
CONTINUOUS
 62
     7
 10
-102.3570795235609
 20
-2772.360711440736
 30
0.0
  0
SEQEND
  5
7B3
  8
回07-寸法
  6
CONTINUOUS
 62
     7
  0
POLYLINE
  5
423
  8
回00-TP外形
  6
CONTINUOUS
 62
     7
 66
     1
 10
0.0
 20
0.0
 30
0.0
 70
     1
  0
VERTEX
  5
7B7
  8
回00-TP外形
  6
CONTINUOUS
 62
     7
 10
-102.3570795235609
 20
-2775.060711440735
 30
0.0
  0
VERTEX
  5
7B9
  8
回00-TP外形
  6
CONTINUOUS
 62
     7
 10
-101.3570795235609
 20
-2775.060711440735
 30
0.0
  0
VERTEX
  5
7BA
  8
回00-TP外形
  6
CONTINUOUS
 62
     7
 10
-101.3570795235609
 20
-2778.060711440736
 30
0.0
  0
VERTEX
  5
7BB
  8
回00-TP外形
  6
CONTINUOUS
 62
     7
 10
-102.3570795235609
 20
-2778.060711440736
 30
0.0
  0
SEQEND
  5
7B8
  8
回07-寸法
  6
CONTINUOUS
 62
     7
  0
POLYLINE
  5
424
  8
回00-TP外形
  6
CONTINUOUS
 62
     7
 66
     1
 10
0.0
 20
0.0
 30
0.0
 70
     1
  0
VERTEX
  5
7BC
  8
回00-TP外形
  6
CONTINUOUS
 62
     7
 10
-102.3570795235609
 20
-2780.760711440735
 30
0.0
  0
VERTEX
  5
7BE
  8
回00-TP外形
  6
CONTINUOUS
 62
     7
 10
-101.3570795235609
 20
-2780.760711440735
 30
0.0
  0
VERTEX
  5
7BF
  8
回00-TP外形
  6
CONTINUOUS
 62
     7
 10
-101.3570795235609
 20
-2783.760711440735
 30
0.0
  0
VERTEX
  5
7C0
  8
回00-TP外形
  6
CONTINUOUS
 62
     7
 10
-102.3570795235609
 20
-2783.760711440735
 30
0.0
  0
SEQEND
  5
7BD
  8
回07-寸法
  6
CONTINUOUS
 62
     7
  0
POLYLINE
  5
425
  8
回00-TP外形
  6
CONTINUOUS
 62
     7
 66
     1
 10
0.0
 20
0.0
 30
0.0
 70
     1
  0
VERTEX
  5
7C1
  8
回00-TP外形
  6
CONTINUOUS
 62
     7
 10
-102.3570795235609
 20
-2786.460711440736
 30
0.0
  0
VERTEX
  5
7C3
  8
回00-TP外形
  6
CONTINUOUS
 62
     7
 10
-101.3570795235609
 20
-2786.460711440736
 30
0.0
  0
VERTEX
  5
7C4
  8
回00-TP外形
  6
CONTINUOUS
 62
     7
 10
-101.3570795235609
 20
-2789.460711440736
 30
0.0
  0
VERTEX
  5
7C5
  8
回00-TP外形
  6
CONTINUOUS
 62
     7
 10
-102.3570795235609
 20
-2789.460711440736
 30
0.0
  0
SEQEND
  5
7C2
  8
回07-寸法
  6
CONTINUOUS
 62
     7
  0
POLYLINE
  5
426
  8
回00-TP外形
  6
CONTINUOUS
 62
     7
 66
     1
 10
0.0
 20
0.0
 30
0.0
 70
     1
  0
VERTEX
  5
7C6
  8
回00-TP外形
  6
CONTINUOUS
 62
     7
 10
-102.3570795235609
 20
-2792.160711440736
 30
0.0
  0
VERTEX
  5
7C8
  8
回00-TP外形
  6
CONTINUOUS
 62
     7
 10
-101.3570795235609
 20
-2792.160711440736
 30
0.0
  0
VERTEX
  5
7C9
  8
回00-TP外形
  6
CONTINUOUS
 62
     7
 10
-101.3570795235609
 20
-2795.160711440736
 30
0.0
  0
VERTEX
  5
7CA
  8
回00-TP外形
  6
CONTINUOUS
 62
     7
 10
-102.3570795235609
 20
-2795.160711440736
 30
0.0
  0
SEQEND
  5
7C7
  8
回07-寸法
  6
CONTINUOUS
 62
     7
  0
POLYLINE
  5
427
  8
回00-TP外形
  6
CONTINUOUS
 62
     7
 66
     1
 10
0.0
 20
0.0
 30
0.0
 70
     1
  0
VERTEX
  5
7CB
  8
回00-TP外形
  6
CONTINUOUS
 62
     7
 10
-102.3570795235609
 20
-2797.860711440736
 30
0.0
  0
VERTEX
  5
7CD
  8
回00-TP外形
  6
CONTINUOUS
 62
     7
 10
-101.3570795235609
 20
-2797.860711440736
 30
0.0
  0
VERTEX
  5
7CE
  8
回00-TP外形
  6
CONTINUOUS
 62
     7
 10
-101.3570795235609
 20
-2800.860711440736
 30
0.0
  0
VERTEX
  5
7CF
  8
回00-TP外形
  6
CONTINUOUS
 62
     7
 10
-102.3570795235609
 20
-2800.860711440736
 30
0.0
  0
SEQEND
  5
7CC
  8
回07-寸法
  6
CONTINUOUS
 62
     7
  0
POLYLINE
  5
428
  8
回00-TP外形
  6
CONTINUOUS
 62
     7
 66
     1
 10
0.0
 20
0.0
 30
0.0
 70
     1
  0
VERTEX
  5
7D0
  8
回00-TP外形
  6
CONTINUOUS
 62
     7
 10
-102.3570795235609
 20
-2803.560711440736
 30
0.0
  0
VERTEX
  5
7D2
  8
回00-TP外形
  6
CONTINUOUS
 62
     7
 10
-101.3570795235609
 20
-2803.560711440736
 30
0.0
  0
VERTEX
  5
7D3
  8
回00-TP外形
  6
CONTINUOUS
 62
     7
 10
-101.3570795235609
 20
-2806.560711440735
 30
0.0
  0
VERTEX
  5
7D4
  8
回00-TP外形
  6
CONTINUOUS
 62
     7
 10
-102.3570795235609
 20
-2806.560711440735
 30
0.0
  0
SEQEND
  5
7D1
  8
回07-寸法
  6
CONTINUOUS
 62
     7
  0
POLYLINE
  5
429
  8
回00-TP外形
  6
CONTINUOUS
 62
     7
 66
     1
 10
0.0
 20
0.0
 30
0.0
 70
     1
  0
VERTEX
  5
7D5
  8
回00-TP外形
  6
CONTINUOUS
 62
     7
 10
-102.3570795235609
 20
-2809.260711440735
 30
0.0
  0
VERTEX
  5
7D7
  8
回00-TP外形
  6
CONTINUOUS
 62
     7
 10
-101.3570795235609
 20
-2809.260711440735
 30
0.0
  0
VERTEX
  5
7D8
  8
回00-TP外形
  6
CONTINUOUS
 62
     7
 10
-101.3570795235609
 20
-2812.260711440735
 30
0.0
  0
VERTEX
  5
7D9
  8
回00-TP外形
  6
CONTINUOUS
 62
     7
 10
-102.3570795235609
 20
-2812.260711440735
 30
0.0
  0
SEQEND
  5
7D6
  8
回07-寸法
  6
CONTINUOUS
 62
     7
  0
POLYLINE
  5
42A
  8
回00-TP外形
  6
CONTINUOUS
 62
     7
 66
     1
 10
0.0
 20
0.0
 30
0.0
 70
     1
  0
VERTEX
  5
7DA
  8
回00-TP外形
  6
CONTINUOUS
 62
     7
 10
-102.3570795235609
 20
-2814.960711440736
 30
0.0
  0
VERTEX
  5
7DC
  8
回00-TP外形
  6
CONTINUOUS
 62
     7
 10
-101.3570795235609
 20
-2814.960711440736
 30
0.0
  0
VERTEX
  5
7DD
  8
回00-TP外形
  6
CONTINUOUS
 62
     7
 10
-101.3570795235609
 20
-2817.960711440735
 30
0.0
  0
VERTEX
  5
7DE
  8
回00-TP外形
  6
CONTINUOUS
 62
     7
 10
-102.3570795235609
 20
-2817.960711440735
 30
0.0
  0
SEQEND
  5
7DB
  8
回07-寸法
  6
CONTINUOUS
 62
     7
  0
POLYLINE
  5
42B
  8
回00-TP外形
  6
CONTINUOUS
 62
     7
 66
     1
 10
0.0
 20
0.0
 30
0.0
 70
     1
  0
VERTEX
  5
7DF
  8
回00-TP外形
  6
CONTINUOUS
 62
     7
 10
-106.9570795235611
 20
-2720.023239690664
 30
0.0
  0
VERTEX
  5
7E1
  8
回00-TP外形
  6
CONTINUOUS
 62
     7
 10
61.84292047643885
 20
-2720.023239690664
 30
0.0
  0
VERTEX
  5
7E2
  8
回00-TP外形
  6
CONTINUOUS
 62
     7
 10
61.84292047643885
 20
-2831.423239690665
 30
0.0
  0
VERTEX
  5
7E3
  8
回00-TP外形
  6
CONTINUOUS
 62
     7
 10
-106.9570795235611
 20
-2831.423239690665
 30
0.0
  0
SEQEND
  5
7E0
  8
回07-寸法
  6
CONTINUOUS
 62
     7
  0
POLYLINE
  5
42C
  8
回00-TP外形
  6
CONTINUOUS
 62
     7
 66
     1
 10
0.0
 20
0.0
 30
0.0
 70
     1
  0
VERTEX
  5
7E4
  8
回00-TP外形
  6
CONTINUOUS
 62
     7
 10
-100.8570795235612
 20
-2726.035711440735
 30
0.0
  0
VERTEX
  5
7E6
  8
回00-TP外形
  6
CONTINUOUS
 62
     7
 10
55.84292047643884
 20
-2726.035711440735
 30
0.0
  0
VERTEX
  5
7E7
  8
回00-TP外形
  6
CONTINUOUS
 62
     7
 10
55.84292047643884
 20
-2821.385711440735
 30
0.0
  0
VERTEX
  5
7E8
  8
回00-TP外形
  6
CONTINUOUS
 62
     7
 10
-100.8570795235612
 20
-2821.385711440735
 30
0.0
  0
SEQEND
  5
7E5
  8
回07-寸法
  6
CONTINUOUS
 62
     7
  0
POLYLINE
  5
42D
  8
回00-TP外形
  6
CONTINUOUS
 62
     7
 66
     1
 10
0.0
 20
0.0
 30
0.0
 70
     1
  0
VERTEX
  5
7E9
  8
回00-TP外形
  6
CONTINUOUS
 62
     7
 10
-98.70707952356111
 20
-2727.990711440736
 30
0.0
  0
VERTEX
  5
7EB
  8
回00-TP外形
  6
CONTINUOUS
 62
     7
 10
53.69292047643921
 20
-2727.990711440736
 30
0.0
  0
VERTEX
  5
7EC
  8
回00-TP外形
  6
CONTINUOUS
 62
     7
 10
53.69292047643921
 20
-2819.430711440735
 30
0.0
  0
VERTEX
  5
7ED
  8
回00-TP外形
  6
CONTINUOUS
 62
     7
 10
-98.70707952356111
 20
-2819.430711440735
 30
0.0
  0
SEQEND
  5
7EA
  8
回07-寸法
  6
CONTINUOUS
 62
     7
  0
POLYLINE
  5
42E
  8
回00-TP外形
  6
CONTINUOUS
 62
     7
 66
     1
 10
0.0
 20
0.0
 30
0.0
 70
     1
  0
VERTEX
  5
7EE
  8
回00-TP外形
  6
CONTINUOUS
 62
     7
 10
-106.9570795235611
 20
-2720.023239690664
 30
0.0
  0
VERTEX
  5
7F0
  8
回00-TP外形
  6
CONTINUOUS
 62
     7
 10
61.84292047643885
 20
-2720.023239690664
 30
0.0
  0
VERTEX
  5
7F1
  8
回00-TP外形
  6
CONTINUOUS
 62
     7
 10
61.84292047643885
 20
-2831.423239690665
 30
0.0
  0
VERTEX
  5
7F2
  8
回00-TP外形
  6
CONTINUOUS
 62
     7
 10
-106.9570795235611
 20
-2831.423239690665
 30
0.0
  0
SEQEND
  5
7EF
  8
回07-寸法
  6
CONTINUOUS
 62
     7
  0
POLYLINE
  5
42F
  8
回08-CG
  6
CONTINUOUS
 62
     7
 66
     1
 10
0.0
 20
0.0
 30
0.0
 70
     1
1001
ACAD
1000
ASC_BOUNDS
1002
{
1070
    19
1005
430
1002
}
  0
VERTEX
  5
7F3
  8
回08-CG
  6
CONTINUOUS
 62
     7
 10
-99.007079523561
 20
-2727.690711440736
 30
0.0
  0
VERTEX
  5
7F5
  8
回08-CG
  6
CONTINUOUS
 62
     7
 10
53.99292047643935
 20
-2727.690711440736
 30
0.0
  0
VERTEX
  5
7F6
  8
回08-CG
  6
CONTINUOUS
 62
     7
 10
53.99292047643935
 20
-2819.730711440735
 30
0.0
  0
VERTEX
  5
7F7
  8
回08-CG
  6
CONTINUOUS
 62
     7
 10
-99.00707952356102
 20
-2819.730711440735
 30
0.0
  0
SEQEND
  5
7F4
  8
回07-寸法
  6
CONTINUOUS
 62
     7
  0
INSERT
  5
430
  8
回08-CG
  6
CONTINUOUS
 62
     7
 66
     1
  2
*X71
 10
0.0
 20
0.0
 30
0.0
1001
GRADIENTCOLOR1ACI
1070
     5
1001
GRADIENTCOLOR2ACI
1070
     2
1001
ACAD
1010
0.0
1020
0.0
1030
0.0
  0
SEQEND
  5
897
  8
回07-寸法
  6
CONTINUOUS
 62
     7
  0
ENDSEC
  0
EOF
