  0
SECTION
  2
HEADER
  9
$ACADVER
  1
AC1009
  9
$INSBASE
 10
0.0
 20
0.0
 30
0.0
  9
$EXTMIN
 10
-159.2939520015313
 20
-2901.534251067126
 30
0.0
  9
$EXTMAX
 10
296.7060479984687
 20
-2585.534251067127
 30
0.0
  9
$LIMMIN
 10
0.0
 20
0.0
  9
$LIMMAX
 10
3000.0
 20
2500.0
  9
$ORTHOMODE
 70
     0
  9
$REGENMODE
 70
     1
  9
$FILLMODE
 70
     1
  9
$QTEXTMODE
 70
     0
  9
$MIRRTEXT
 70
     1
  9
$DRAGMODE
 70
     2
  9
$LTSCALE
 40
10.0
  9
$OSMODE
 70
   295
  9
$ATTMODE
 70
     1
  9
$TEXTSIZE
 40
3.0
  9
$TRACEWID
 40
1.0
  9
$TEXTSTYLE
  7
STANDARD
  9
$CLAYER
  8
回02-寸法
  9
$CELTYPE
  6
CONTINUOUS
  9
$CECOLOR
 62
     7
  9
$DIMSCALE
 40
1.0
  9
$DIMASZ
 40
1.5
  9
$DIMEXO
 40
0.0
  9
$DIMDLI
 40
0.0
  9
$DIMRND
 40
0.0
  9
$DIMDLE
 40
0.0
  9
$DIMEXE
 40
1.0
  9
$DIMTP
 40
0.2
  9
$DIMTM
 40
0.2
  9
$DIMTXT
 40
3.0
  9
$DIMCEN
 40
1.5
  9
$DIMTSZ
 40
0.0
  9
$DIMTOL
 70
     0
  9
$DIMLIM
 70
     0
  9
$DIMTIH
 70
     0
  9
$DIMTOH
 70
     0
  9
$DIMSE1
 70
     0
  9
$DIMSE2
 70
     0
  9
$DIMTAD
 70
     3
  9
$DIMZIN
 70
     8
  9
$DIMBLK
  1
OPEN
  9
$DIMASO
 70
     1
  9
$DIMSHO
 70
     1
  9
$DIMPOST
  1

  9
$DIMAPOST
  1

  9
$DIMALT
 70
     0
  9
$DIMALTD
 70
     3
  9
$DIMALTF
 40
0.03937007874016
  9
$DIMLFAC
 40
1.0
  9
$DIMTOFL
 70
     1
  9
$DIMTVP
 40
0.0
  9
$DIMTIX
 70
     0
  9
$DIMSOXD
 70
     0
  9
$DIMSAH
 70
     0
  9
$DIMBLK1
  1

  9
$DIMBLK2
  1

  9
$DIMSTYLE
  2
DMC
  9
$DIMCLRD
 70
     5
  9
$DIMCLRE
 70
     5
  9
$DIMCLRT
 70
     5
  9
$DIMTFAC
 40
0.7
  9
$DIMGAP
 40
0.5
  9
$LUNITS
 70
     2
  9
$LUPREC
 70
     4
  9
$SKETCHINC
 40
1.0
  9
$FILLETRAD
 40
2.0
  9
$AUNITS
 70
     0
  9
$AUPREC
 70
     0
  9
$MENU
  1
.
  9
$ELEVATION
 40
0.0
  9
$PELEVATION
 40
0.0
  9
$THICKNESS
 40
0.0
  9
$LIMCHECK
 70
     0
  9
$BLIPMODE
 70
     0
  9
$CHAMFERA
 40
1.0
  9
$CHAMFERB
 40
1.0
  9
$SKPOLY
 70
     0
  9
$TDCREATE
 40
2451810.404221065
  9
$TDUPDATE
 40
2459796.694307708
  9
$TDINDWG
 40
5.767209201
  9
$TDUSRTIMER
 40
5.767208507
  9
$USRTIMER
 70
     1
  9
$ANGBASE
 50
0.0
  9
$ANGDIR
 70
     0
  9
$PDMODE
 70
     0
  9
$PDSIZE
 40
0.0
  9
$PLINEWID
 40
3.0
  9
$COORDS
 70
     0
  9
$SPLFRAME
 70
     0
  9
$SPLINETYPE
 70
     6
  9
$SPLINESEGS
 70
     8
  9
$ATTDIA
 70
     1
  9
$ATTREQ
 70
     1
  9
$HANDLING
 70
     1
  9
$HANDSEED
  5
950
  9
$SURFTAB1
 70
     6
  9
$SURFTAB2
 70
     6
  9
$SURFTYPE
 70
     6
  9
$SURFU
 70
     6
  9
$SURFV
 70
     6
  9
$UCSNAME
  2

  9
$UCSORG
 10
0.0
 20
0.0
 30
0.0
  9
$UCSXDIR
 10
1.0
 20
0.0
 30
0.0
  9
$UCSYDIR
 10
0.0
 20
1.0
 30
0.0
  9
$PUCSNAME
  2

  9
$PUCSORG
 10
0.0
 20
0.0
 30
0.0
  9
$PUCSXDIR
 10
1.0
 20
0.0
 30
0.0
  9
$PUCSYDIR
 10
0.0
 20
1.0
 30
0.0
  9
$USERI1
 70
     0
  9
$USERI2
 70
     0
  9
$USERI3
 70
     0
  9
$USERI4
 70
     0
  9
$USERI5
 70
     0
  9
$USERR1
 40
0.0
  9
$USERR2
 40
0.0
  9
$USERR3
 40
0.0
  9
$USERR4
 40
0.0
  9
$USERR5
 40
0.0
  9
$WORLDVIEW
 70
     1
  9
$SHADEDGE
 70
     3
  9
$SHADEDIF
 70
    70
  9
$TILEMODE
 70
     1
  9
$MAXACTVP
 70
    64
  9
$PLIMCHECK
 70
     0
  9
$PEXTMIN
 10
1.000000000000000E+20
 20
1.000000000000000E+20
 30
1.000000000000000E+20
  9
$PEXTMAX
 10
-1.000000000000000E+20
 20
-1.000000000000000E+20
 30
-1.000000000000000E+20
  9
$PLIMMIN
 10
0.0
 20
0.0
  9
$PLIMMAX
 10
420.0
 20
297.0
  9
$UNITMODE
 70
     0
  9
$VISRETAIN
 70
     1
  9
$PLINEGEN
 70
     0
  9
$PSLTSCALE
 70
     1
  0
ENDSEC
  0
SECTION
  2
TABLES
  0
TABLE
  2
VPORT
 70
     1
  0
VPORT
  2
*ACTIVE
 70
     0
 10
0.0
 20
0.0
 11
1.0
 21
1.0
 12
186.5316579502137
 22
-2766.985413040753
 13
0.0
 23
0.0
 14
10.0
 24
10.0
 15
10.0
 25
10.0
 16
0.0
 26
0.0
 36
1.0
 17
0.0
 27
0.0
 37
0.0
 40
636.3556320733651
 41
2.368956743002544
 42
50.0
 43
0.0
 44
0.0
 50
0.0
 51
0.0
 71
     0
 72
   500
 73
     1
 74
     1
 75
     0
 76
     0
 77
     0
 78
     0
  0
ENDTAB
  0
TABLE
  2
LTYPE
 70
     3
  0
LTYPE
  2
CONTINUOUS
 70
     0
  3
Solid line
 72
    65
 73
     0
 40
0.0
  0
LTYPE
  2
CENTER2
 70
     0
  3
Center (.5x) ___ _ ___ _ ___ _ ___ _ ___ _ ___
 72
    65
 73
     4
 40
28.575
 49
19.05
 49
-3.174999999999999
 49
3.174999999999999
 49
-3.174999999999999
  0
LTYPE
  2
PHANTOM2
 70
     0
  3
___ _ _ ___ _ _ ___ _ _ ___ _ _ ___ _ _ ___ _ _
 72
    65
 73
     6
 40
1.25
 49
0.625
 49
-0.125
 49
0.125
 49
-0.125
 49
0.125
 49
-0.125
  0
ENDTAB
  0
TABLE
  2
LAYER
 70
     9
  0
LAYER
  2
0
 70
     0
 62
     7
  6
CONTINUOUS
  0
LAYER
  2
DEFPOINTS
 70
     0
 62
     7
  6
CONTINUOUS
  0
LAYER
  2
回00-TP外形
 70
     0
 62
     7
  6
CONTINUOUS
  0
LAYER
  2
回90-図面枠
 70
     0
 62
     7
  6
CONTINUOUS
  0
LAYER
  2
回04-CG
 70
     0
 62
     7
  6
CONTINUOUS
  0
LAYER
  2
回03-記事
 70
     0
 62
     7
  6
CONTINUOUS
  0
LAYER
  2
回02-寸法
 70
     0
 62
     7
  6
CONTINUOUS
  0
LAYER
  2
回07-記事
 70
     0
 62
     7
  6
CONTINUOUS
  0
LAYER
  2
回06-記事
 70
     0
 62
     7
  6
CONTINUOUS
  0
ENDTAB
  0
TABLE
  2
STYLE
 70
     3
  0
STYLE
  2
STANDARD
 70
     0
 40
3.0
 41
1.0
 50
0.0
 71
     0
 42
3.0
  3
isocp.shx
  4
bigfont.shx
  0
STYLE
  2
4MM
 70
     0
 40
4.0
 41
1.0
 50
0.0
 71
     0
 42
4.0
  3
isocp.shx
  4
bigfont.shx
  0
STYLE
  2
2MM
 70
     0
 40
2.0
 41
1.0
 50
0.0
 71
     0
 42
2.0
  3
isocp.shx
  4
bigfont.shx
  0
ENDTAB
  0
TABLE
  2
VIEW
 70
     0
  0
ENDTAB
  0
TABLE
  2
UCS
 70
     0
  0
ENDTAB
  0
TABLE
  2
APPID
 70
     8
  0
APPID
  2
ACAD
 70
     0
  0
APPID
  2
ACAECLAYERSTANDARD
 70
     0
  0
APPID
  2
ACAD_PSEXT
 70
     0
  0
APPID
  2
GRADIENTCOLOR1ACI
 70
     0
  0
APPID
  2
GRADIENTCOLOR2ACI
 70
     0
  0
APPID
  2
ACAD_MLEADERVER
 70
     0
  0
APPID
  2
ACCMTRANSPARENCY
 70
     0
  0
APPID
  2
ACAD_NAV_VCDISPLAY
 70
     0
  0
ENDTAB
  0
TABLE
  2
DIMSTYLE
 70
     2
  0
DIMSTYLE
  2
DMC
 70
     0
  3

  4

  5
OPEN
  6

  7

 40
1.0
 41
2.0
 42
0.0
 43
0.0
 44
1.0
 45
0.0
 46
0.0
 47
0.0
 48
0.0
140
3.0
141
2.0
142
0.0
143
0.03937007874016
144
1.0
145
0.0
146
0.7
147
0.5
 71
     0
 72
     0
 73
     0
 74
     0
 75
     0
 76
     0
 77
     3
 78
     8
170
     0
171
     3
172
     1
173
     0
174
     0
175
     0
176
     5
177
     5
178
     5
  0
DIMSTYLE
  2
KOUSA
 70
     0
  3

  4

  5

  6
OPEN
  7
OPEN
 40
1.0
 41
2.0
 42
0.0
 43
0.0
 44
1.0
 45
0.0
 46
0.0
 47
0.1
 48
0.1
140
3.0
141
2.0
142
0.0
143
25.4
144
1.0
145
0.0
146
0.7
147
0.5
 71
     1
 72
     0
 73
     0
 74
     0
 75
     0
 76
     0
 77
     3
 78
     8
170
     0
171
     2
172
     1
173
     1
174
     0
175
     0
176
     5
177
     5
178
     5
  0
ENDTAB
  0
ENDSEC
  0
SECTION
  2
BLOCKS
  0
BLOCK
  8
0
  2
$MODEL_SPACE
 70
     0
 10
0.0
 20
0.0
 30
0.0
  3
$MODEL_SPACE
  1

  0
ENDBLK
  8
0
  5
1F
  0
BLOCK
 67
     1
  8
0
  2
$PAPER_SPACE
 70
     0
 10
0.0
 20
0.0
 30
0.0
  3
$PAPER_SPACE
  1

  0
ENDBLK
  5
25
 67
     1
  8
0
  0
BLOCK
  8
0
  2
_OPEN
 70
     0
 10
0.0
 20
0.0
 30
0.0
  3
_OPEN
  1

  0
LINE
  5
13
  8
0
  6
CONTINUOUS
 62
     0
 10
-1.0
 20
0.1666666666666666
 30
0.0
 11
0.0
 21
0.0
 31
0.0
  0
LINE
  5
14
  8
0
  6
CONTINUOUS
 62
     0
 10
-1.0
 20
-0.1666666666666666
 30
0.0
 11
0.0
 21
0.0
 31
0.0
  0
LINE
  5
15
  8
0
  6
CONTINUOUS
 62
     0
 10
0.0
 20
0.0
 30
0.0
 11
-1.0
 21
0.0
 31
0.0
  0
ENDBLK
  5
16
  8
0
  0
BLOCK
  8
0
  2
_DOTSMALL
 70
     0
 10
0.0
 20
0.0
 30
0.0
  3
_DOTSMALL
  1

  0
POLYLINE
  5
2EC
  8
0
  6
BYBLOCK
 62
     0
 66
     1
 10
0.0
 20
0.0
 30
0.0
 70
     1
 40
0.5
 41
0.5
  0
VERTEX
  5
87A
  8
0
  6
BYBLOCK
 62
     0
 10
-0.0625
 20
0.0
 30
0.0
 42
1.0
  0
VERTEX
  5
87C
  8
0
  6
BYBLOCK
 62
     0
 10
0.0625
 20
0.0
 30
0.0
 42
1.0
  0
SEQEND
  5
87B
  8
回02-寸法
  6
CONTINUOUS
 62
     7
  0
ENDBLK
  5
2ED
  8
0
 62
     7
  0
BLOCK
  8
0
  2
_DOT
 70
     0
 10
0.0
 20
0.0
 30
0.0
  3
_DOT
  1

  0
POLYLINE
  5
2E6
  8
0
  6
BYBLOCK
 62
     0
 66
     1
 10
0.0
 20
0.0
 30
0.0
 70
     1
 40
0.5
 41
0.5
  0
VERTEX
  5
87D
  8
0
  6
BYBLOCK
 62
     0
 10
-0.25
 20
0.0
 30
0.0
 42
1.0
  0
VERTEX
  5
87F
  8
0
  6
BYBLOCK
 62
     0
 10
0.25
 20
0.0
 30
0.0
 42
1.0
  0
SEQEND
  5
87E
  8
回02-寸法
  6
CONTINUOUS
 62
     7
  0
LINE
  5
2E7
  8
0
  6
BYBLOCK
 62
     0
 10
-0.5
 20
0.0
 30
0.0
 11
-1.0
 21
0.0
 31
0.0
  0
ENDBLK
  5
2E8
  8
0
 62
     7
  0
BLOCK
  8
0
  2
*D3
 70
     1
 10
0.0
 20
0.0
 30
0.0
  3
*D3
  1

  0
LINE
  5
350
  8
回03-記事
  6
CONTINUOUS
 62
     5
 10
104.5996400494473
 20
-2637.478354705768
 30
0.0
 11
104.5996400494473
 21
-2626.937198708628
 31
0.0
  0
LINE
  5
351
  8
回03-記事
  6
CONTINUOUS
 62
     5
 10
143.3158266363712
 20
-2649.780882955696
 30
0.0
 11
143.3158266363712
 21
-2626.937198708628
 31
0.0
  0
LINE
  5
352
  8
回03-記事
  6
CONTINUOUS
 62
     5
 10
106.0996400494473
 20
-2627.937198708628
 30
0.0
 11
141.8158266363712
 21
-2627.937198708628
 31
0.0
  0
INSERT
  5
353
  8
回03-記事
  6
CONTINUOUS
 62
     5
 66
     1
  2
_OPEN
 10
104.5996400494473
 20
-2627.937198708628
 30
0.0
 41
1.5
 42
1.5
 43
1.5
 50
180.0
  0
SEQEND
  5
354
  8
回02-寸法
  6
CONTINUOUS
 62
     7
  0
INSERT
  5
355
  8
回03-記事
  6
CONTINUOUS
 62
     5
 66
     1
  2
_OPEN
 10
143.3158266363712
 20
-2627.937198708628
 30
0.0
 41
1.5
 42
1.5
 43
1.5
  0
SEQEND
  5
356
  8
回02-寸法
  6
CONTINUOUS
 62
     7
  0
INSERT
  5
357
  8
回03-記事
  6
CONTINUOUS
 62
     5
 66
     1
  2
*X72
 10
0.0
 20
0.0
 30
0.0
  0
SEQEND
  5
885
  8
回02-寸法
  6
CONTINUOUS
 62
     7
  0
POINT
  5
358
  8
DEFPOINTS
  6
CONTINUOUS
 62
     0
 10
104.5996400494473
 20
-2637.478354705768
 30
0.0
  0
POINT
  5
359
  8
DEFPOINTS
  6
CONTINUOUS
 62
     0
 10
143.3158266363712
 20
-2649.780882955696
 30
0.0
  0
POINT
  5
35A
  8
DEFPOINTS
  6
CONTINUOUS
 62
     0
 10
143.3158266363712
 20
-2627.937198708628
 30
0.0
  0
ENDBLK
  5
35B
  8
0
 62
     7
  0
BLOCK
  8
0
  2
*D4
 70
     1
 10
0.0
 20
0.0
 30
0.0
  3
*D4
  1

  0
LINE
  5
341
  8
回03-記事
  6
CONTINUOUS
 62
     5
 10
135.3158266363712
 20
-2821.180882955696
 30
0.0
 11
142.5119456733874
 21
-2821.180882955696
 31
0.0
  0
LINE
  5
342
  8
回03-記事
  6
CONTINUOUS
 62
     5
 10
136.1158266363704
 20
-2816.180882955697
 30
0.0
 11
142.5119456733874
 21
-2816.180882955697
 31
0.0
  0
LINE
  5
343
  8
回03-記事
  6
CONTINUOUS
 62
     5
 10
141.5119456733874
 20
-2819.680882955696
 30
0.0
 11
141.5119456733874
 21
-2817.680882955696
 31
0.0
  0
INSERT
  5
344
  8
回03-記事
  6
CONTINUOUS
 62
     5
 66
     1
  2
_OPEN
 10
141.5119456733874
 20
-2821.180882955696
 30
0.0
 41
1.5
 42
1.5
 43
1.5
 50
270.0
  0
SEQEND
  5
345
  8
回02-寸法
  6
CONTINUOUS
 62
     7
  0
INSERT
  5
346
  8
回03-記事
  6
CONTINUOUS
 62
     5
 66
     1
  2
_OPEN
 10
141.5119456733874
 20
-2816.180882955697
 30
0.0
 41
1.5
 42
1.5
 43
1.5
 50
90.0
  0
SEQEND
  5
347
  8
回02-寸法
  6
CONTINUOUS
 62
     7
  0
TEXT
  5
348
  8
回03-記事
  6
CONTINUOUS
 62
     5
 10
141.0119456733873
 20
-2819.730882955696
 30
0.0
 40
3.0
  1
5
 50
90.0
  0
POINT
  5
349
  8
DEFPOINTS
  6
CONTINUOUS
 62
     0
 10
135.3158266363712
 20
-2821.180882955696
 30
0.0
  0
POINT
  5
34A
  8
DEFPOINTS
  6
CONTINUOUS
 62
     0
 10
136.1158266363704
 20
-2816.180882955697
 30
0.0
  0
POINT
  5
34B
  8
DEFPOINTS
  6
CONTINUOUS
 62
     0
 10
141.5119456733874
 20
-2816.180882955697
 30
0.0
  0
ENDBLK
  5
34C
  8
0
 62
     7
  0
BLOCK
  8
0
  2
*D5
 70
     1
 10
0.0
 20
0.0
 30
0.0
  3
*D5
  1

  0
LINE
  5
332
  8
回03-記事
  6
CONTINUOUS
 62
     5
 10
127.3577333429089
 20
-2811.180882955696
 30
0.0
 11
122.8369251528934
 21
-2811.180882955696
 31
0.0
  0
LINE
  5
333
  8
回03-記事
  6
CONTINUOUS
 62
     5
 10
127.3577333429089
 20
-2821.180882955696
 30
0.0
 11
122.8369251528934
 21
-2821.180882955696
 31
0.0
  0
LINE
  5
334
  8
回03-記事
  6
CONTINUOUS
 62
     5
 10
123.8369251528934
 20
-2812.680882955696
 30
0.0
 11
123.8369251528934
 21
-2819.680882955696
 31
0.0
  0
INSERT
  5
335
  8
回03-記事
  6
CONTINUOUS
 62
     5
 66
     1
  2
_OPEN
 10
123.8369251528934
 20
-2811.180882955696
 30
0.0
 41
1.5
 42
1.5
 43
1.5
 50
90.0
  0
SEQEND
  5
336
  8
回02-寸法
  6
CONTINUOUS
 62
     7
  0
INSERT
  5
337
  8
回03-記事
  6
CONTINUOUS
 62
     5
 66
     1
  2
_OPEN
 10
123.8369251528934
 20
-2821.180882955696
 30
0.0
 41
1.5
 42
1.5
 43
1.5
 50
270.0
  0
SEQEND
  5
338
  8
回02-寸法
  6
CONTINUOUS
 62
     7
  0
TEXT
  5
339
  8
回03-記事
  6
CONTINUOUS
 62
     5
 10
123.1869251528933
 20
-2819.180882955696
 30
0.0
 40
3.0
  1
(10)
 50
90.0
  0
POINT
  5
33A
  8
DEFPOINTS
  6
CONTINUOUS
 62
     0
 10
127.3577333429089
 20
-2811.180882955696
 30
0.0
  0
POINT
  5
33B
  8
DEFPOINTS
  6
CONTINUOUS
 62
     0
 10
127.3577333429089
 20
-2821.180882955696
 30
0.0
  0
POINT
  5
33C
  8
DEFPOINTS
  6
CONTINUOUS
 62
     0
 10
123.8369251528934
 20
-2821.180882955696
 30
0.0
  0
ENDBLK
  5
33D
  8
0
 62
     7
  0
BLOCK
  8
0
  2
*D6
 70
     1
 10
0.0
 20
0.0
 30
0.0
  3
*D6
  1

  0
LINE
  5
321
  8
回03-記事
  6
CONTINUOUS
 62
     5
 10
132.5158266363701
 20
-2821.180882955696
 30
0.0
 11
132.5158266363701
 21
-2828.000010979618
 31
0.0
  0
LINE
  5
322
  8
回03-記事
  6
CONTINUOUS
 62
     5
 10
135.3158266363712
 20
-2821.180882955696
 30
0.0
 11
135.3158266363712
 21
-2828.000010979618
 31
0.0
  0
LINE
  5
323
  8
回03-記事
  6
CONTINUOUS
 62
     5
 10
136.8158266363712
 20
-2827.000010979618
 30
0.0
 11
149.9096399044397
 21
-2827.000010979618
 31
0.0
  0
LINE
  5
324
  8
回03-記事
  6
CONTINUOUS
 62
     5
 10
132.5158266363701
 20
-2827.000010979618
 30
0.0
 11
135.3158266363712
 21
-2827.000010979618
 31
0.0
  0
LINE
  5
325
  8
回03-記事
  6
CONTINUOUS
 62
     5
 10
131.0158266363701
 20
-2827.000010979618
 30
0.0
 11
129.5158266363701
 21
-2827.000010979618
 31
0.0
  0
INSERT
  5
326
  8
回03-記事
  6
CONTINUOUS
 62
     5
 66
     1
  2
_OPEN
 10
132.5158266363701
 20
-2827.000010979618
 30
0.0
 41
1.5
 42
1.5
 43
1.5
  0
SEQEND
  5
327
  8
回02-寸法
  6
CONTINUOUS
 62
     7
  0
INSERT
  5
328
  8
回03-記事
  6
CONTINUOUS
 62
     5
 66
     1
  2
_OPEN
 10
135.3158266363712
 20
-2827.000010979618
 30
0.0
 41
1.5
 42
1.5
 43
1.5
 50
180.0
  0
SEQEND
  5
329
  8
回02-寸法
  6
CONTINUOUS
 62
     7
  0
INSERT
  5
32A
  8
回03-記事
  6
CONTINUOUS
 62
     5
 66
     1
  2
*X73
 10
0.0
 20
0.0
 30
0.0
  0
SEQEND
  5
88B
  8
回02-寸法
  6
CONTINUOUS
 62
     7
  0
POINT
  5
32B
  8
DEFPOINTS
  6
CONTINUOUS
 62
     0
 10
132.5158266363701
 20
-2821.180882955696
 30
0.0
  0
POINT
  5
32C
  8
DEFPOINTS
  6
CONTINUOUS
 62
     0
 10
135.3158266363712
 20
-2821.180882955696
 30
0.0
  0
POINT
  5
32D
  8
DEFPOINTS
  6
CONTINUOUS
 62
     0
 10
135.3158266363712
 20
-2827.000010979618
 30
0.0
  0
ENDBLK
  5
32E
  8
0
 62
     7
  0
BLOCK
  8
0
  2
*D7
 70
     1
 10
0.0
 20
0.0
 30
0.0
  3
*D7
  1

  0
LINE
  5
310
  8
回03-記事
  6
CONTINUOUS
 62
     5
 10
127.3577333429089
 20
-2821.180882955696
 30
0.0
 11
127.3577333429089
 21
-2833.633397577075
 31
0.0
  0
LINE
  5
311
  8
回03-記事
  6
CONTINUOUS
 62
     5
 10
130.15773334291
 20
-2821.180882955696
 30
0.0
 11
130.15773334291
 21
-2833.633397577075
 31
0.0
  0
LINE
  5
312
  8
回03-記事
  6
CONTINUOUS
 62
     5
 10
131.6577333429099
 20
-2832.633397577076
 30
0.0
 11
144.7515466109785
 21
-2832.633397577076
 31
0.0
  0
LINE
  5
313
  8
回03-記事
  6
CONTINUOUS
 62
     5
 10
127.3577333429089
 20
-2832.633397577076
 30
0.0
 11
130.15773334291
 21
-2832.633397577076
 31
0.0
  0
LINE
  5
314
  8
回03-記事
  6
CONTINUOUS
 62
     5
 10
125.8577333429089
 20
-2832.633397577076
 30
0.0
 11
124.3577333429089
 21
-2832.633397577076
 31
0.0
  0
INSERT
  5
315
  8
回03-記事
  6
CONTINUOUS
 62
     5
 66
     1
  2
_OPEN
 10
127.3577333429089
 20
-2832.633397577076
 30
0.0
 41
1.5
 42
1.5
 43
1.5
  0
SEQEND
  5
316
  8
回02-寸法
  6
CONTINUOUS
 62
     7
  0
INSERT
  5
317
  8
回03-記事
  6
CONTINUOUS
 62
     5
 66
     1
  2
_OPEN
 10
130.15773334291
 20
-2832.633397577076
 30
0.0
 41
1.5
 42
1.5
 43
1.5
 50
180.0
  0
SEQEND
  5
318
  8
回02-寸法
  6
CONTINUOUS
 62
     7
  0
INSERT
  5
319
  8
回03-記事
  6
CONTINUOUS
 62
     5
 66
     1
  2
*X74
 10
0.0
 20
0.0
 30
0.0
  0
SEQEND
  5
891
  8
回02-寸法
  6
CONTINUOUS
 62
     7
  0
POINT
  5
31A
  8
DEFPOINTS
  6
CONTINUOUS
 62
     0
 10
127.3577333429089
 20
-2821.180882955696
 30
0.0
  0
POINT
  5
31B
  8
DEFPOINTS
  6
CONTINUOUS
 62
     0
 10
130.15773334291
 20
-2821.180882955696
 30
0.0
  0
POINT
  5
31C
  8
DEFPOINTS
  6
CONTINUOUS
 62
     0
 10
130.15773334291
 20
-2832.633397577076
 30
0.0
  0
ENDBLK
  5
31D
  8
0
 62
     7
  0
BLOCK
  8
0
  2
*D8
 70
     1
 10
0.0
 20
0.0
 30
0.0
  3
*D8
  1

  0
LINE
  5
38D
  8
回03-記事
  6
CONTINUOUS
 62
     5
 10
-137.2432899755817
 20
-2872.910135778107
 30
0.0
 11
-137.2432899755817
 21
-2876.889794512337
 31
0.0
  0
LINE
  5
38E
  8
回03-記事
  6
CONTINUOUS
 62
     5
 10
-138.1072899755816
 20
-2872.843808228147
 30
0.0
 11
-138.1072899755816
 21
-2876.889794512337
 31
0.0
  0
LINE
  5
38F
  8
回03-記事
  6
CONTINUOUS
 62
     5
 10
-140.1072899755815
 20
-2875.889794512337
 30
0.0
 11
-147.371784214662
 21
-2875.889794512337
 31
0.0
  0
LINE
  5
390
  8
回03-記事
  6
CONTINUOUS
 62
     5
 10
-137.2432899755817
 20
-2875.889794512337
 30
0.0
 11
-138.1072899755816
 21
-2875.889794512337
 31
0.0
  0
LINE
  5
391
  8
回03-記事
  6
CONTINUOUS
 62
     5
 10
-135.2432899755817
 20
-2875.889794512337
 30
0.0
 11
-133.2432899755817
 21
-2875.889794512337
 31
0.0
  0
INSERT
  5
392
  8
回03-記事
  6
CONTINUOUS
 62
     5
 66
     1
  2
_OPEN
 10
-137.2432899755817
 20
-2875.889794512337
 30
0.0
 41
2.0
 42
2.0
 43
2.0
 50
180.0
  0
SEQEND
  5
393
  8
回02-寸法
  6
CONTINUOUS
 62
     7
  0
INSERT
  5
394
  8
回03-記事
  6
CONTINUOUS
 62
     5
 66
     1
  2
_OPEN
 10
-138.1072899755816
 20
-2875.889794512337
 30
0.0
 41
2.0
 42
2.0
 43
2.0
  0
SEQEND
  5
395
  8
回02-寸法
  6
CONTINUOUS
 62
     7
  0
TEXT
  5
396
  8
回03-記事
  6
CONTINUOUS
 62
     5
 10
-147.3194220099376
 20
-2875.389794512337
 30
0.0
 40
3.0
  1
0.3
  0
POINT
  5
397
  8
DEFPOINTS
  6
CONTINUOUS
 62
     0
 10
-137.2432899755817
 20
-2872.910135778107
 30
0.0
  0
POINT
  5
398
  8
DEFPOINTS
  6
CONTINUOUS
 62
     0
 10
-138.1072899755816
 20
-2872.843808228147
 30
0.0
  0
POINT
  5
399
  8
DEFPOINTS
  6
CONTINUOUS
 62
     0
 10
-138.1072899755816
 20
-2875.889794512337
 30
0.0
  0
ENDBLK
  5
39A
  8
0
 62
     7
  0
BLOCK
  8
0
  2
*D9
 70
     1
 10
0.0
 20
0.0
 30
0.0
  3
*D9
  1

  0
LINE
  5
37C
  8
回03-記事
  6
CONTINUOUS
 62
     5
 10
-136.2352899755815
 20
-2872.910135778107
 30
0.0
 11
-136.2352899755815
 21
-2883.503579042896
 31
0.0
  0
LINE
  5
37D
  8
回03-記事
  6
CONTINUOUS
 62
     5
 10
-137.6752899755818
 20
-2872.910135778107
 30
0.0
 11
-137.6752899755818
 21
-2883.503579042896
 31
0.0
  0
LINE
  5
37E
  8
回03-記事
  6
CONTINUOUS
 62
     5
 10
-139.6752899755818
 20
-2882.503579042897
 30
0.0
 11
-146.9397842146622
 21
-2882.503579042897
 31
0.0
  0
LINE
  5
37F
  8
回03-記事
  6
CONTINUOUS
 62
     5
 10
-136.2352899755815
 20
-2882.503579042897
 30
0.0
 11
-137.6752899755818
 21
-2882.503579042897
 31
0.0
  0
LINE
  5
380
  8
回03-記事
  6
CONTINUOUS
 62
     5
 10
-134.2352899755815
 20
-2882.503579042897
 30
0.0
 11
-132.2352899755815
 21
-2882.503579042897
 31
0.0
  0
INSERT
  5
381
  8
回03-記事
  6
CONTINUOUS
 62
     5
 66
     1
  2
_OPEN
 10
-136.2352899755815
 20
-2882.503579042897
 30
0.0
 41
2.0
 42
2.0
 43
2.0
 50
180.0
  0
SEQEND
  5
382
  8
回02-寸法
  6
CONTINUOUS
 62
     7
  0
INSERT
  5
383
  8
回03-記事
  6
CONTINUOUS
 62
     5
 66
     1
  2
_OPEN
 10
-137.6752899755818
 20
-2882.503579042897
 30
0.0
 41
2.0
 42
2.0
 43
2.0
  0
SEQEND
  5
384
  8
回02-寸法
  6
CONTINUOUS
 62
     7
  0
TEXT
  5
385
  8
回03-記事
  6
CONTINUOUS
 62
     5
 10
-146.8874220099378
 20
-2882.003579042896
 30
0.0
 40
3.0
  1
0.5
  0
POINT
  5
386
  8
DEFPOINTS
  6
CONTINUOUS
 62
     0
 10
-136.2352899755815
 20
-2872.910135778107
 30
0.0
  0
POINT
  5
387
  8
DEFPOINTS
  6
CONTINUOUS
 62
     0
 10
-137.6752899755818
 20
-2872.910135778107
 30
0.0
  0
POINT
  5
388
  8
DEFPOINTS
  6
CONTINUOUS
 62
     0
 10
-137.6752899755818
 20
-2882.503579042897
 30
0.0
  0
ENDBLK
  5
389
  8
0
 62
     7
  0
BLOCK
  8
0
  2
*D10
 70
     1
 10
0.0
 20
0.0
 30
0.0
  3
*D10
  1

  0
LINE
  5
213
  8
回02-寸法
  6
CONTINUOUS
 62
     5
 10
-33.33126227345201
 20
-2820.981006423773
 30
0.0
 11
-33.33126227345201
 21
-2856.380921457172
 31
0.0
  0
LINE
  5
214
  8
回02-寸法
  6
CONTINUOUS
 62
     5
 10
-12.83126227345087
 20
-2820.981006423773
 30
0.0
 11
-12.83126227345087
 21
-2856.380921457172
 31
0.0
  0
LINE
  5
215
  8
回02-寸法
  6
CONTINUOUS
 62
     5
 10
-31.33126227345201
 20
-2855.380921457172
 30
0.0
 11
-14.83126227345087
 21
-2855.380921457172
 31
0.0
  0
INSERT
  5
216
  8
回02-寸法
  6
CONTINUOUS
 62
     5
 66
     1
  2
_OPEN
 10
-33.33126227345201
 20
-2855.380921457172
 30
0.0
 41
2.0
 42
2.0
 43
2.0
 50
180.0
  0
SEQEND
  5
217
  8
回02-寸法
  6
CONTINUOUS
 62
     7
  0
INSERT
  5
218
  8
回02-寸法
  6
CONTINUOUS
 62
     5
 66
     1
  2
_OPEN
 10
-12.83126227345087
 20
-2855.380921457172
 30
0.0
 41
2.0
 42
2.0
 43
2.0
  0
SEQEND
  5
219
  8
回02-寸法
  6
CONTINUOUS
 62
     7
  0
INSERT
  5
21A
  8
回02-寸法
  6
CONTINUOUS
 62
     5
 66
     1
  2
*X75
 10
0.0
 20
0.0
 30
0.0
  0
SEQEND
  5
897
  8
回02-寸法
  6
CONTINUOUS
 62
     7
  0
POINT
  5
21B
  8
DEFPOINTS
  6
CONTINUOUS
 62
     0
 10
-33.33126227345201
 20
-2820.981006423773
 30
0.0
  0
POINT
  5
21C
  8
DEFPOINTS
  6
CONTINUOUS
 62
     0
 10
-12.83126227345087
 20
-2820.981006423773
 30
0.0
  0
POINT
  5
21D
  8
DEFPOINTS
  6
CONTINUOUS
 62
     0
 10
-12.83126227345087
 20
-2855.380921457172
 30
0.0
  0
ENDBLK
  5
21E
  8
0
 62
     5
  0
BLOCK
  8
0
  2
*D11
 70
     1
 10
0.0
 20
0.0
 30
0.0
  3
*D11
  1

  0
LINE
  5
204
  8
回02-寸法
  6
CONTINUOUS
 62
     5
 10
-100.3219392383485
 20
-2761.181006423772
 30
0.0
 11
-100.3219392383485
 21
-2840.709605631618
 31
0.0
  0
LINE
  5
205
  8
回02-寸法
  6
CONTINUOUS
 62
     5
 10
-56.83124532894999
 20
-2820.981006423773
 30
0.0
 11
-56.83124532894999
 21
-2840.709605631618
 31
0.0
  0
LINE
  5
206
  8
回02-寸法
  6
CONTINUOUS
 62
     5
 10
-98.82193923834847
 20
-2839.709605631619
 30
0.0
 11
-58.33124532894998
 21
-2839.709605631619
 31
0.0
  0
INSERT
  5
207
  8
回02-寸法
  6
CONTINUOUS
 62
     5
 66
     1
  2
_OPEN
 10
-100.3219392383485
 20
-2839.709605631619
 30
0.0
 41
1.5
 42
1.5
 43
1.5
 50
180.0
  0
SEQEND
  5
208
  8
回02-寸法
  6
CONTINUOUS
 62
     7
  0
INSERT
  5
209
  8
回02-寸法
  6
CONTINUOUS
 62
     5
 66
     1
  2
_OPEN
 10
-56.83124532894999
 20
-2839.709605631619
 30
0.0
 41
1.5
 42
1.5
 43
1.5
  0
SEQEND
  5
20A
  8
回02-寸法
  6
CONTINUOUS
 62
     7
  0
TEXT
  5
20B
  8
回02-寸法
  6
CONTINUOUS
 62
     5
 10
-86.82675728364925
 20
-2838.959600631618
 30
0.0
 40
5.000099999999999
  1
(43.5)
  0
POINT
  5
20C
  8
DEFPOINTS
  6
CONTINUOUS
 62
     0
 10
-100.3219392383485
 20
-2761.181006423772
 30
0.0
  0
POINT
  5
20D
  8
DEFPOINTS
  6
CONTINUOUS
 62
     0
 10
-56.83124532894999
 20
-2820.981006423773
 30
0.0
  0
POINT
  5
20E
  8
DEFPOINTS
  6
CONTINUOUS
 62
     0
 10
-56.83124532894999
 20
-2839.709605631619
 30
0.0
  0
ENDBLK
  5
20F
  8
0
 62
     5
  0
BLOCK
  8
0
  2
*D12
 70
     1
 10
0.0
 20
0.0
 30
0.0
  3
*D12
  1

  0
LINE
  5
1F5
  8
回02-寸法
  6
CONTINUOUS
 62
     5
 10
-33.33126227345201
 20
-2820.981006423773
 30
0.0
 11
-33.33126227345201
 21
-2856.380921457172
 31
0.0
  0
LINE
  5
1F6
  8
回02-寸法
  6
CONTINUOUS
 62
     5
 10
-100.3219392383485
 20
-2761.181006423772
 30
0.0
 11
-100.3219392383485
 21
-2856.380921457172
 31
0.0
  0
LINE
  5
1F7
  8
回02-寸法
  6
CONTINUOUS
 62
     5
 10
-34.83126227345201
 20
-2855.380921457172
 30
0.0
 11
-98.82193923834847
 21
-2855.380921457172
 31
0.0
  0
INSERT
  5
1F8
  8
回02-寸法
  6
CONTINUOUS
 62
     5
 66
     1
  2
_OPEN
 10
-33.33126227345201
 20
-2855.380921457172
 30
0.0
 41
1.5
 42
1.5
 43
1.5
  0
SEQEND
  5
1F9
  8
回02-寸法
  6
CONTINUOUS
 62
     7
  0
INSERT
  5
1FA
  8
回02-寸法
  6
CONTINUOUS
 62
     5
 66
     1
  2
_OPEN
 10
-100.3219392383485
 20
-2855.380921457172
 30
0.0
 41
1.5
 42
1.5
 43
1.5
 50
180.0
  0
SEQEND
  5
1FB
  8
回02-寸法
  6
CONTINUOUS
 62
     7
  0
TEXT
  5
1FC
  8
回02-寸法
  6
CONTINUOUS
 62
     5
 10
-72.32671075590025
 20
-2854.630916457172
 30
0.0
 40
5.000099999999999
  1
(67)
  0
POINT
  5
1FD
  8
DEFPOINTS
  6
CONTINUOUS
 62
     0
 10
-33.33126227345201
 20
-2820.981006423773
 30
0.0
  0
POINT
  5
1FE
  8
DEFPOINTS
  6
CONTINUOUS
 62
     0
 10
-100.3219392383485
 20
-2761.181006423772
 30
0.0
  0
POINT
  5
1FF
  8
DEFPOINTS
  6
CONTINUOUS
 62
     0
 10
-100.3219392383485
 20
-2855.380921457172
 30
0.0
  0
ENDBLK
  5
200
  8
0
 62
     5
  0
BLOCK
  8
0
  2
*D13
 70
     1
 10
0.0
 20
0.0
 30
0.0
  3
*D13
  1

  0
LINE
  5
1E6
  8
回02-寸法
  6
CONTINUOUS
 62
     5
 10
-56.83124532894999
 20
-2820.981006423773
 30
0.0
 11
-56.83124532894999
 21
-2840.709605631618
 31
0.0
  0
LINE
  5
1E7
  8
回02-寸法
  6
CONTINUOUS
 62
     5
 10
-43.33124532894863
 20
-2820.981006423773
 30
0.0
 11
-43.33124532894863
 21
-2840.709605631618
 31
0.0
  0
LINE
  5
1E8
  8
回02-寸法
  6
CONTINUOUS
 62
     5
 10
-55.33124532894999
 20
-2839.709605631619
 30
0.0
 11
-44.83124532894862
 21
-2839.709605631619
 31
0.0
  0
INSERT
  5
1E9
  8
回02-寸法
  6
CONTINUOUS
 62
     5
 66
     1
  2
_OPEN
 10
-56.83124532894999
 20
-2839.709605631619
 30
0.0
 41
1.5
 42
1.5
 43
1.5
 50
180.0
  0
SEQEND
  5
1EA
  8
回02-寸法
  6
CONTINUOUS
 62
     7
  0
INSERT
  5
1EB
  8
回02-寸法
  6
CONTINUOUS
 62
     5
 66
     1
  2
_OPEN
 10
-43.33124532894863
 20
-2839.709605631619
 30
0.0
 41
1.5
 42
1.5
 43
1.5
  0
SEQEND
  5
1EC
  8
回02-寸法
  6
CONTINUOUS
 62
     7
  0
INSERT
  5
1ED
  8
回02-寸法
  6
CONTINUOUS
 62
     5
 66
     1
  2
*X76
 10
0.0
 20
0.0
 30
0.0
  0
SEQEND
  5
89D
  8
回02-寸法
  6
CONTINUOUS
 62
     7
  0
POINT
  5
1EE
  8
DEFPOINTS
  6
CONTINUOUS
 62
     0
 10
-56.83124532894999
 20
-2820.981006423773
 30
0.0
  0
POINT
  5
1EF
  8
DEFPOINTS
  6
CONTINUOUS
 62
     0
 10
-43.33124532894863
 20
-2820.981006423773
 30
0.0
  0
POINT
  5
1F0
  8
DEFPOINTS
  6
CONTINUOUS
 62
     0
 10
-43.33124532894863
 20
-2839.709605631619
 30
0.0
  0
ENDBLK
  5
1F1
  8
0
 62
     5
  0
BLOCK
  8
0
  2
*D14
 70
     1
 10
0.0
 20
0.0
 30
0.0
  3
*D14
  1

  0
LINE
  5
2CF
  8
回02-寸法
  6
CONTINUOUS
 62
     5
 10
-56.63124532894972
 20
-2821.181006423772
 30
0.0
 11
-70.57003421797799
 21
-2821.181006423772
 31
0.0
  0
LINE
  5
2D0
  8
回02-寸法
  6
CONTINUOUS
 62
     5
 10
-56.83124532894954
 20
-2761.181006423772
 30
0.0
 11
-70.57003421797799
 21
-2761.181006423772
 31
0.0
  0
LINE
  5
2D1
  8
回02-寸法
  6
CONTINUOUS
 62
     5
 10
-69.57003421797799
 20
-2819.181006423772
 30
0.0
 11
-69.57003421797799
 21
-2763.181006423772
 31
0.0
  0
INSERT
  5
2D2
  8
回02-寸法
  6
CONTINUOUS
 62
     5
 66
     1
  2
_OPEN
 10
-69.57003421797799
 20
-2821.181006423772
 30
0.0
 41
2.0
 42
2.0
 43
2.0
 50
270.0
  0
SEQEND
  5
2D3
  8
回02-寸法
  6
CONTINUOUS
 62
     7
  0
INSERT
  5
2D4
  8
回02-寸法
  6
CONTINUOUS
 62
     5
 66
     1
  2
_OPEN
 10
-69.57003421797799
 20
-2761.181006423772
 30
0.0
 41
2.0
 42
2.0
 43
2.0
 50
90.0
  0
SEQEND
  5
2D5
  8
回02-寸法
  6
CONTINUOUS
 62
     7
  0
INSERT
  5
2D6
  8
回02-寸法
  6
CONTINUOUS
 62
     5
 66
     1
  2
*X77
 10
0.0
 20
0.0
 30
0.0
  0
SEQEND
  5
8A3
  8
回02-寸法
  6
CONTINUOUS
 62
     7
  0
POINT
  5
2D7
  8
DEFPOINTS
  6
CONTINUOUS
 62
     0
 10
-56.63124532894972
 20
-2821.181006423772
 30
0.0
  0
POINT
  5
2D8
  8
DEFPOINTS
  6
CONTINUOUS
 62
     0
 10
-56.83124532894954
 20
-2761.181006423772
 30
0.0
  0
POINT
  5
2D9
  8
DEFPOINTS
  6
CONTINUOUS
 62
     0
 10
-69.57003421797799
 20
-2761.181006423772
 30
0.0
  0
ENDBLK
  5
2DA
  8
0
 62
     5
  0
BLOCK
  8
0
  2
*D15
 70
     1
 10
0.0
 20
0.0
 30
0.0
  3
*D15
  1

  0
LINE
  5
2C0
  8
回02-寸法
  6
CONTINUOUS
 62
     5
 10
-13.03126227345069
 20
-2821.181006423772
 30
0.0
 11
6.438559152503326
 21
-2821.181006423772
 31
0.0
  0
LINE
  5
2C1
  8
回02-寸法
  6
CONTINUOUS
 62
     5
 10
-12.83126227345178
 20
-2761.181006423774
 30
0.0
 11
6.43855915250333
 21
-2761.181006423774
 31
0.0
  0
LINE
  5
2C2
  8
回02-寸法
  6
CONTINUOUS
 62
     5
 10
5.438559152503326
 20
-2819.181006423772
 30
0.0
 11
5.43855915250333
 21
-2763.181006423774
 31
0.0
  0
INSERT
  5
2C3
  8
回02-寸法
  6
CONTINUOUS
 62
     5
 66
     1
  2
_OPEN
 10
5.438559152503326
 20
-2821.181006423772
 30
0.0
 41
2.0
 42
2.0
 43
2.0
 50
270.0
  0
SEQEND
  5
2C4
  8
回02-寸法
  6
CONTINUOUS
 62
     7
  0
INSERT
  5
2C5
  8
回02-寸法
  6
CONTINUOUS
 62
     5
 66
     1
  2
_OPEN
 10
5.43855915250333
 20
-2761.181006423774
 30
0.0
 41
2.0
 42
2.0
 43
2.0
 50
90.0
  0
SEQEND
  5
2C6
  8
回02-寸法
  6
CONTINUOUS
 62
     7
  0
INSERT
  5
2C7
  8
回02-寸法
  6
CONTINUOUS
 62
     5
 66
     1
  2
*X78
 10
0.0
 20
0.0
 30
0.0
  0
SEQEND
  5
8A9
  8
回02-寸法
  6
CONTINUOUS
 62
     7
  0
POINT
  5
2C8
  8
DEFPOINTS
  6
CONTINUOUS
 62
     0
 10
-13.03126227345069
 20
-2821.181006423772
 30
0.0
  0
POINT
  5
2C9
  8
DEFPOINTS
  6
CONTINUOUS
 62
     0
 10
-12.83126227345178
 20
-2761.181006423774
 30
0.0
  0
POINT
  5
2CA
  8
DEFPOINTS
  6
CONTINUOUS
 62
     0
 10
5.43855915250333
 20
-2761.181006423774
 30
0.0
  0
ENDBLK
  5
2CB
  8
0
 62
     5
  0
BLOCK
  8
0
  2
*D16
 70
     1
 10
0.0
 20
0.0
 30
0.0
  3
*D16
  1

  0
LINE
  5
2AF
  8
回02-寸法
  6
CONTINUOUS
 62
     5
 10
-92.07193923834848
 20
-2657.748354705768
 30
0.0
 11
-92.07193923834848
 21
-2626.457994551262
 31
0.0
  0
LINE
  5
2B0
  8
回02-寸法
  6
CONTINUOUS
 62
     5
 10
60.32806076165184
 20
-2657.748354705768
 30
0.0
 11
60.32806076165184
 21
-2626.457994551262
 31
0.0
  0
LINE
  5
2B1
  8
回02-寸法
  6
CONTINUOUS
 62
     5
 10
-90.57193923834848
 20
-2627.457994551261
 30
0.0
 11
58.82806076165184
 21
-2627.457994551261
 31
0.0
  0
INSERT
  5
2B2
  8
回02-寸法
  6
CONTINUOUS
 62
     5
 66
     1
  2
_OPEN
 10
-92.07193923834848
 20
-2627.457994551261
 30
0.0
 41
1.5
 42
1.5
 43
1.5
 50
180.0
  0
SEQEND
  5
2B3
  8
回02-寸法
  6
CONTINUOUS
 62
     7
  0
INSERT
  5
2B4
  8
回02-寸法
  6
CONTINUOUS
 62
     5
 66
     1
  2
_OPEN
 10
60.32806076165184
 20
-2627.457994551261
 30
0.0
 41
1.5
 42
1.5
 43
1.5
  0
SEQEND
  5
2B5
  8
回02-寸法
  6
CONTINUOUS
 62
     7
  0
INSERT
  5
2B6
  8
回02-寸法
  6
CONTINUOUS
 62
     5
 66
     1
  2
*X79
 10
0.0
 20
0.0
 30
0.0
  0
SEQEND
  5
8AF
  8
回02-寸法
  6
CONTINUOUS
 62
     7
  0
POINT
  5
2B7
  8
DEFPOINTS
  6
CONTINUOUS
 62
     0
 10
-92.07193923834848
 20
-2657.748354705768
 30
0.0
  0
POINT
  5
2B8
  8
DEFPOINTS
  6
CONTINUOUS
 62
     0
 10
60.32806076165184
 20
-2657.748354705768
 30
0.0
  0
POINT
  5
2B9
  8
DEFPOINTS
  6
CONTINUOUS
 62
     0
 10
60.32806076165184
 20
-2627.457994551261
 30
0.0
  0
ENDBLK
  5
2BA
  8
0
 62
     5
  0
BLOCK
  8
0
  2
*D17
 70
     1
 10
0.0
 20
0.0
 30
0.0
  3
*D17
  1

  0
LINE
  5
2A0
  8
回02-寸法
  6
CONTINUOUS
 62
     5
 10
-100.3219392383485
 20
-2649.780882955696
 30
0.0
 11
-100.3219392383485
 21
-2620.555120067349
 31
0.0
  0
LINE
  5
2A1
  8
回02-寸法
  6
CONTINUOUS
 62
     5
 10
68.47806076165148
 20
-2649.780882955696
 30
0.0
 11
68.47806076165148
 21
-2620.555120067349
 31
0.0
  0
LINE
  5
2A2
  8
回02-寸法
  6
CONTINUOUS
 62
     5
 10
-98.82193923834847
 20
-2621.55512006735
 30
0.0
 11
66.97806076165147
 21
-2621.55512006735
 31
0.0
  0
INSERT
  5
2A3
  8
回02-寸法
  6
CONTINUOUS
 62
     5
 66
     1
  2
_OPEN
 10
-100.3219392383485
 20
-2621.55512006735
 30
0.0
 41
1.5
 42
1.5
 43
1.5
 50
180.0
  0
SEQEND
  5
2A4
  8
回02-寸法
  6
CONTINUOUS
 62
     7
  0
INSERT
  5
2A5
  8
回02-寸法
  6
CONTINUOUS
 62
     5
 66
     1
  2
_OPEN
 10
68.47806076165148
 20
-2621.55512006735
 30
0.0
 41
1.5
 42
1.5
 43
1.5
  0
SEQEND
  5
2A6
  8
回02-寸法
  6
CONTINUOUS
 62
     7
  0
INSERT
  5
2A7
  8
回02-寸法
  6
CONTINUOUS
 62
     5
 66
     1
  2
*X80
 10
0.0
 20
0.0
 30
0.0
  0
SEQEND
  5
8B6
  8
回02-寸法
  6
CONTINUOUS
 62
     7
  0
POINT
  5
2A8
  8
DEFPOINTS
  6
CONTINUOUS
 62
     0
 10
-100.3219392383485
 20
-2649.780882955696
 30
0.0
  0
POINT
  5
2A9
  8
DEFPOINTS
  6
CONTINUOUS
 62
     0
 10
68.47806076165148
 20
-2649.780882955696
 30
0.0
  0
POINT
  5
2AA
  8
DEFPOINTS
  6
CONTINUOUS
 62
     0
 10
68.47806076165148
 20
-2621.55512006735
 30
0.0
  0
ENDBLK
  5
2AB
  8
0
 62
     5
  0
BLOCK
  8
0
  2
*D18
 70
     1
 10
0.0
 20
0.0
 30
0.0
  3
*D18
  1

  0
LINE
  5
291
  8
回02-寸法
  6
CONTINUOUS
 62
     5
 10
75.67806076165175
 20
-2639.478354705768
 30
0.0
 11
75.67806076165175
 21
-2615.079830824734
 31
0.0
  0
LINE
  5
292
  8
回02-寸法
  6
CONTINUOUS
 62
     5
 10
-107.4219392383484
 20
-2639.478354705768
 30
0.0
 11
-107.4219392383484
 21
-2615.079830824734
 31
0.0
  0
LINE
  5
293
  8
回02-寸法
  6
CONTINUOUS
 62
     5
 10
74.17806076165175
 20
-2616.079830824734
 30
0.0
 11
-105.9219392383484
 21
-2616.079830824734
 31
0.0
  0
INSERT
  5
294
  8
回02-寸法
  6
CONTINUOUS
 62
     5
 66
     1
  2
_OPEN
 10
75.67806076165175
 20
-2616.079830824734
 30
0.0
 41
1.5
 42
1.5
 43
1.5
  0
SEQEND
  5
295
  8
回02-寸法
  6
CONTINUOUS
 62
     7
  0
INSERT
  5
296
  8
回02-寸法
  6
CONTINUOUS
 62
     5
 66
     1
  2
_OPEN
 10
-107.4219392383484
 20
-2616.079830824734
 30
0.0
 41
1.5
 42
1.5
 43
1.5
 50
180.0
  0
SEQEND
  5
297
  8
回02-寸法
  6
CONTINUOUS
 62
     7
  0
INSERT
  5
298
  8
回02-寸法
  6
CONTINUOUS
 62
     5
 66
     1
  2
*X81
 10
0.0
 20
0.0
 30
0.0
  0
SEQEND
  5
8BD
  8
回02-寸法
  6
CONTINUOUS
 62
     7
  0
POINT
  5
299
  8
DEFPOINTS
  6
CONTINUOUS
 62
     0
 10
75.67806076165175
 20
-2639.478354705768
 30
0.0
  0
POINT
  5
29A
  8
DEFPOINTS
  6
CONTINUOUS
 62
     0
 10
-107.4219392383484
 20
-2639.478354705768
 30
0.0
  0
POINT
  5
29B
  8
DEFPOINTS
  6
CONTINUOUS
 62
     0
 10
-107.4219392383484
 20
-2616.079830824734
 30
0.0
  0
ENDBLK
  5
29C
  8
0
 62
     5
  0
BLOCK
  8
0
  2
*D19
 70
     1
 10
0.0
 20
0.0
 30
0.0
  3
*D19
  1

  0
LINE
  5
282
  8
回02-寸法
  6
CONTINUOUS
 62
     5
 10
-92.07193923834848
 20
-2657.748354705768
 30
0.0
 11
-120.4793898752934
 21
-2657.748354705768
 31
0.0
  0
LINE
  5
283
  8
回02-寸法
  6
CONTINUOUS
 62
     5
 10
-92.07193923834848
 20
-2749.188354705767
 30
0.0
 11
-120.4793898752934
 21
-2749.188354705767
 31
0.0
  0
LINE
  5
284
  8
回02-寸法
  6
CONTINUOUS
 62
     5
 10
-119.4793898752934
 20
-2659.248354705767
 30
0.0
 11
-119.4793898752934
 21
-2747.688354705767
 31
0.0
  0
INSERT
  5
285
  8
回02-寸法
  6
CONTINUOUS
 62
     5
 66
     1
  2
_OPEN
 10
-119.4793898752934
 20
-2657.748354705768
 30
0.0
 41
1.5
 42
1.5
 43
1.5
 50
90.0
  0
SEQEND
  5
286
  8
回02-寸法
  6
CONTINUOUS
 62
     7
  0
INSERT
  5
287
  8
回02-寸法
  6
CONTINUOUS
 62
     5
 66
     1
  2
_OPEN
 10
-119.4793898752934
 20
-2749.188354705767
 30
0.0
 41
1.5
 42
1.5
 43
1.5
 50
270.0
  0
SEQEND
  5
288
  8
回02-寸法
  6
CONTINUOUS
 62
     7
  0
INSERT
  5
289
  8
回02-寸法
  6
CONTINUOUS
 62
     5
 66
     1
  2
*X82
 10
0.0
 20
0.0
 30
0.0
  0
SEQEND
  5
8C3
  8
回02-寸法
  6
CONTINUOUS
 62
     7
  0
POINT
  5
28A
  8
DEFPOINTS
  6
CONTINUOUS
 62
     0
 10
-92.07193923834848
 20
-2657.748354705768
 30
0.0
  0
POINT
  5
28B
  8
DEFPOINTS
  6
CONTINUOUS
 62
     0
 10
-92.07193923834848
 20
-2749.188354705767
 30
0.0
  0
POINT
  5
28C
  8
DEFPOINTS
  6
CONTINUOUS
 62
     0
 10
-119.4793898752934
 20
-2749.188354705767
 30
0.0
  0
ENDBLK
  5
28D
  8
0
 62
     5
  0
BLOCK
  8
0
  2
*D20
 70
     1
 10
0.0
 20
0.0
 30
0.0
  3
*D20
  1

  0
LINE
  5
273
  8
回02-寸法
  6
CONTINUOUS
 62
     5
 10
-100.3219392383485
 20
-2761.180882955696
 30
0.0
 11
-125.7492269869536
 21
-2761.180882955696
 31
0.0
  0
LINE
  5
274
  8
回02-寸法
  6
CONTINUOUS
 62
     5
 10
-100.3219392383485
 20
-2649.780882955695
 30
0.0
 11
-125.7492269869536
 21
-2649.780882955695
 31
0.0
  0
LINE
  5
275
  8
回02-寸法
  6
CONTINUOUS
 62
     5
 10
-124.7492269869536
 20
-2759.680882955696
 30
0.0
 11
-124.7492269869536
 21
-2651.280882955695
 31
0.0
  0
INSERT
  5
276
  8
回02-寸法
  6
CONTINUOUS
 62
     5
 66
     1
  2
_OPEN
 10
-124.7492269869536
 20
-2761.180882955696
 30
0.0
 41
1.5
 42
1.5
 43
1.5
 50
270.0
  0
SEQEND
  5
277
  8
回02-寸法
  6
CONTINUOUS
 62
     7
  0
INSERT
  5
278
  8
回02-寸法
  6
CONTINUOUS
 62
     5
 66
     1
  2
_OPEN
 10
-124.7492269869536
 20
-2649.780882955695
 30
0.0
 41
1.5
 42
1.5
 43
1.5
 50
90.0
  0
SEQEND
  5
279
  8
回02-寸法
  6
CONTINUOUS
 62
     7
  0
INSERT
  5
27A
  8
回02-寸法
  6
CONTINUOUS
 62
     5
 66
     1
  2
*X83
 10
0.0
 20
0.0
 30
0.0
  0
SEQEND
  5
8CA
  8
回02-寸法
  6
CONTINUOUS
 62
     7
  0
POINT
  5
27B
  8
DEFPOINTS
  6
CONTINUOUS
 62
     0
 10
-100.3219392383485
 20
-2761.180882955696
 30
0.0
  0
POINT
  5
27C
  8
DEFPOINTS
  6
CONTINUOUS
 62
     0
 10
-100.3219392383485
 20
-2649.780882955695
 30
0.0
  0
POINT
  5
27D
  8
DEFPOINTS
  6
CONTINUOUS
 62
     0
 10
-124.7492269869536
 20
-2649.780882955695
 30
0.0
  0
ENDBLK
  5
27E
  8
0
 62
     5
  0
BLOCK
  8
0
  2
*D21
 70
     1
 10
0.0
 20
0.0
 30
0.0
  3
*D21
  1

  0
LINE
  5
264
  8
回02-寸法
  6
CONTINUOUS
 62
     5
 10
-105.4219392383484
 20
-2637.478354705768
 30
0.0
 11
-131.6219271559771
 21
-2637.478354705768
 31
0.0
  0
LINE
  5
265
  8
回02-寸法
  6
CONTINUOUS
 62
     5
 10
-105.4219392383484
 20
-2769.478354705768
 30
0.0
 11
-131.6219271559771
 21
-2769.478354705768
 31
0.0
  0
LINE
  5
266
  8
回02-寸法
  6
CONTINUOUS
 62
     5
 10
-130.6219271559771
 20
-2638.978354705768
 30
0.0
 11
-130.6219271559771
 21
-2767.978354705768
 31
0.0
  0
INSERT
  5
267
  8
回02-寸法
  6
CONTINUOUS
 62
     5
 66
     1
  2
_OPEN
 10
-130.6219271559771
 20
-2637.478354705768
 30
0.0
 41
1.5
 42
1.5
 43
1.5
 50
90.0
  0
SEQEND
  5
268
  8
回02-寸法
  6
CONTINUOUS
 62
     7
  0
INSERT
  5
269
  8
回02-寸法
  6
CONTINUOUS
 62
     5
 66
     1
  2
_OPEN
 10
-130.6219271559771
 20
-2769.478354705768
 30
0.0
 41
1.5
 42
1.5
 43
1.5
 50
270.0
  0
SEQEND
  5
26A
  8
回02-寸法
  6
CONTINUOUS
 62
     7
  0
INSERT
  5
26B
  8
回02-寸法
  6
CONTINUOUS
 62
     5
 66
     1
  2
*X84
 10
0.0
 20
0.0
 30
0.0
  0
SEQEND
  5
8D1
  8
回02-寸法
  6
CONTINUOUS
 62
     7
  0
POINT
  5
26C
  8
DEFPOINTS
  6
CONTINUOUS
 62
     0
 10
-105.4219392383484
 20
-2637.478354705768
 30
0.0
  0
POINT
  5
26D
  8
DEFPOINTS
  6
CONTINUOUS
 62
     0
 10
-105.4219392383484
 20
-2769.478354705768
 30
0.0
  0
POINT
  5
26E
  8
DEFPOINTS
  6
CONTINUOUS
 62
     0
 10
-130.6219271559771
 20
-2769.478354705768
 30
0.0
  0
ENDBLK
  5
26F
  8
0
 62
     5
  0
BLOCK
  8
0
  2
*D22
 70
     1
 10
0.0
 20
0.0
 30
0.0
  3
*D22
  1

  0
LINE
  5
255
  8
回02-寸法
  6
CONTINUOUS
 62
     5
 10
-92.07193923834848
 20
-2657.748354705768
 30
0.0
 11
-92.07193923834848
 21
-2626.457994551262
 31
0.0
  0
LINE
  5
256
  8
回02-寸法
  6
CONTINUOUS
 62
     5
 10
-100.3219392383485
 20
-2649.780882955697
 30
0.0
 11
-100.3219392383485
 21
-2626.457994551262
 31
0.0
  0
LINE
  5
257
  8
回02-寸法
  6
CONTINUOUS
 62
     5
 10
-93.57193923834847
 20
-2627.457994551261
 30
0.0
 11
-98.82193923834847
 21
-2627.457994551261
 31
0.0
  0
INSERT
  5
258
  8
回02-寸法
  6
CONTINUOUS
 62
     5
 66
     1
  2
_OPEN
 10
-92.07193923834848
 20
-2627.457994551261
 30
0.0
 41
1.5
 42
1.5
 43
1.5
  0
SEQEND
  5
259
  8
回02-寸法
  6
CONTINUOUS
 62
     7
  0
INSERT
  5
25A
  8
回02-寸法
  6
CONTINUOUS
 62
     5
 66
     1
  2
_OPEN
 10
-100.3219392383485
 20
-2627.457994551261
 30
0.0
 41
1.5
 42
1.5
 43
1.5
 50
180.0
  0
SEQEND
  5
25B
  8
回02-寸法
  6
CONTINUOUS
 62
     7
  0
TEXT
  5
25C
  8
回02-寸法
  6
CONTINUOUS
 62
     5
 10
-98.74693923834847
 20
-2626.957994551262
 30
0.0
 40
3.0
  1
8.3
  0
POINT
  5
25D
  8
DEFPOINTS
  6
CONTINUOUS
 62
     0
 10
-92.07193923834848
 20
-2657.748354705768
 30
0.0
  0
POINT
  5
25E
  8
DEFPOINTS
  6
CONTINUOUS
 62
     0
 10
-100.3219392383485
 20
-2649.780882955697
 30
0.0
  0
POINT
  5
25F
  8
DEFPOINTS
  6
CONTINUOUS
 62
     0
 10
-100.3219392383485
 20
-2627.457994551261
 30
0.0
  0
ENDBLK
  5
260
  8
0
 62
     5
  0
BLOCK
  8
0
  2
*D23
 70
     1
 10
0.0
 20
0.0
 30
0.0
  3
*D23
  1

  0
LINE
  5
244
  8
回02-寸法
  6
CONTINUOUS
 62
     5
 10
-100.3219392383485
 20
-2649.780882955696
 30
0.0
 11
-100.3219392383485
 21
-2620.555120067349
 31
0.0
  0
LINE
  5
245
  8
回02-寸法
  6
CONTINUOUS
 62
     5
 10
-107.4219392383484
 20
-2639.478354705768
 30
0.0
 11
-107.4219392383484
 21
-2620.555120067349
 31
0.0
  0
LINE
  5
246
  8
回02-寸法
  6
CONTINUOUS
 62
     5
 10
-108.9219392383484
 20
-2621.55512006735
 30
0.0
 11
-120.1986927980595
 21
-2621.55512006735
 31
0.0
  0
LINE
  5
247
  8
回02-寸法
  6
CONTINUOUS
 62
     5
 10
-100.3219392383485
 20
-2621.55512006735
 30
0.0
 11
-107.4219392383484
 21
-2621.55512006735
 31
0.0
  0
LINE
  5
248
  8
回02-寸法
  6
CONTINUOUS
 62
     5
 10
-98.82193923834847
 20
-2621.55512006735
 30
0.0
 11
-97.32193923834849
 21
-2621.55512006735
 31
0.0
  0
INSERT
  5
249
  8
回02-寸法
  6
CONTINUOUS
 62
     5
 66
     1
  2
_OPEN
 10
-100.3219392383485
 20
-2621.55512006735
 30
0.0
 41
1.5
 42
1.5
 43
1.5
 50
180.0
  0
SEQEND
  5
24A
  8
回02-寸法
  6
CONTINUOUS
 62
     7
  0
INSERT
  5
24B
  8
回02-寸法
  6
CONTINUOUS
 62
     5
 66
     1
  2
_OPEN
 10
-107.4219392383484
 20
-2621.55512006735
 30
0.0
 41
1.5
 42
1.5
 43
1.5
  0
SEQEND
  5
24C
  8
回02-寸法
  6
CONTINUOUS
 62
     7
  0
INSERT
  5
24D
  8
回02-寸法
  6
CONTINUOUS
 62
     5
 66
     1
  2
*X85
 10
0.0
 20
0.0
 30
0.0
  0
SEQEND
  5
8D7
  8
回02-寸法
  6
CONTINUOUS
 62
     7
  0
POINT
  5
24E
  8
DEFPOINTS
  6
CONTINUOUS
 62
     0
 10
-100.3219392383485
 20
-2649.780882955696
 30
0.0
  0
POINT
  5
24F
  8
DEFPOINTS
  6
CONTINUOUS
 62
     0
 10
-107.4219392383484
 20
-2639.478354705768
 30
0.0
  0
POINT
  5
250
  8
DEFPOINTS
  6
CONTINUOUS
 62
     0
 10
-107.4219392383484
 20
-2621.55512006735
 30
0.0
  0
ENDBLK
  5
251
  8
0
 62
     5
  0
BLOCK
  8
0
  2
*D24
 70
     1
 10
0.0
 20
0.0
 30
0.0
  3
*D24
  1

  0
LINE
  5
235
  8
回02-寸法
  6
CONTINUOUS
 62
     5
 10
-92.07193923834848
 20
-2749.188354705767
 30
0.0
 11
-120.4793898752934
 21
-2749.188354705767
 31
0.0
  0
LINE
  5
236
  8
回02-寸法
  6
CONTINUOUS
 62
     5
 10
-100.3219392383485
 20
-2761.180882955696
 30
0.0
 11
-120.4793898752934
 21
-2761.180882955696
 31
0.0
  0
LINE
  5
237
  8
回02-寸法
  6
CONTINUOUS
 62
     5
 10
-119.4793898752934
 20
-2750.688354705767
 30
0.0
 11
-119.4793898752934
 21
-2759.680882955696
 31
0.0
  0
INSERT
  5
238
  8
回02-寸法
  6
CONTINUOUS
 62
     5
 66
     1
  2
_OPEN
 10
-119.4793898752934
 20
-2749.188354705767
 30
0.0
 41
1.5
 42
1.5
 43
1.5
 50
90.0
  0
SEQEND
  5
239
  8
回02-寸法
  6
CONTINUOUS
 62
     7
  0
INSERT
  5
23A
  8
回02-寸法
  6
CONTINUOUS
 62
     5
 66
     1
  2
_OPEN
 10
-119.4793898752934
 20
-2761.180882955696
 30
0.0
 41
1.5
 42
1.5
 43
1.5
 50
270.0
  0
SEQEND
  5
23B
  8
回02-寸法
  6
CONTINUOUS
 62
     7
  0
TEXT
  5
23C
  8
回02-寸法
  6
CONTINUOUS
 62
     5
 10
-119.9793898752932
 20
-2756.984950516072
 30
0.0
 40
3.0
  1
12
 50
90.0
  0
POINT
  5
23D
  8
DEFPOINTS
  6
CONTINUOUS
 62
     0
 10
-92.07193923834848
 20
-2749.188354705767
 30
0.0
  0
POINT
  5
23E
  8
DEFPOINTS
  6
CONTINUOUS
 62
     0
 10
-100.3219392383485
 20
-2761.180882955696
 30
0.0
  0
POINT
  5
23F
  8
DEFPOINTS
  6
CONTINUOUS
 62
     0
 10
-119.4793898752934
 20
-2761.180882955696
 30
0.0
  0
ENDBLK
  5
240
  8
0
 62
     5
  0
BLOCK
  8
0
  2
*D25
 70
     1
 10
0.0
 20
0.0
 30
0.0
  3
*D25
  1

  0
LINE
  5
224
  8
回02-寸法
  6
CONTINUOUS
 62
     5
 10
-100.3219392383485
 20
-2761.180882955696
 30
0.0
 11
-125.7492269869534
 21
-2761.180882955696
 31
0.0
  0
LINE
  5
225
  8
回02-寸法
  6
CONTINUOUS
 62
     5
 10
-105.4219392383484
 20
-2769.478354705768
 30
0.0
 11
-125.7492269869534
 21
-2769.478354705768
 31
0.0
  0
LINE
  5
226
  8
回02-寸法
  6
CONTINUOUS
 62
     5
 10
-124.7492269869534
 20
-2770.978354705768
 30
0.0
 11
-124.7492269869534
 21
-2782.855108265479
 31
0.0
  0
LINE
  5
227
  8
回02-寸法
  6
CONTINUOUS
 62
     5
 10
-124.7492269869534
 20
-2761.180882955696
 30
0.0
 11
-124.7492269869534
 21
-2769.478354705768
 31
0.0
  0
LINE
  5
228
  8
回02-寸法
  6
CONTINUOUS
 62
     5
 10
-124.7492269869534
 20
-2759.680882955696
 30
0.0
 11
-124.7492269869534
 21
-2758.180882955695
 31
0.0
  0
INSERT
  5
229
  8
回02-寸法
  6
CONTINUOUS
 62
     5
 66
     1
  2
_OPEN
 10
-124.7492269869534
 20
-2761.180882955696
 30
0.0
 41
1.5
 42
1.5
 43
1.5
 50
270.0
  0
SEQEND
  5
22A
  8
回02-寸法
  6
CONTINUOUS
 62
     7
  0
INSERT
  5
22B
  8
回02-寸法
  6
CONTINUOUS
 62
     5
 66
     1
  2
_OPEN
 10
-124.7492269869534
 20
-2769.478354705768
 30
0.0
 41
1.5
 42
1.5
 43
1.5
 50
90.0
  0
SEQEND
  5
22C
  8
回02-寸法
  6
CONTINUOUS
 62
     7
  0
INSERT
  5
22D
  8
回02-寸法
  6
CONTINUOUS
 62
     5
 66
     1
  2
*X86
 10
0.0
 20
0.0
 30
0.0
  0
SEQEND
  5
8DD
  8
回02-寸法
  6
CONTINUOUS
 62
     7
  0
POINT
  5
22E
  8
DEFPOINTS
  6
CONTINUOUS
 62
     0
 10
-100.3219392383485
 20
-2761.180882955696
 30
0.0
  0
POINT
  5
22F
  8
DEFPOINTS
  6
CONTINUOUS
 62
     0
 10
-105.4219392383484
 20
-2769.478354705768
 30
0.0
  0
POINT
  5
230
  8
DEFPOINTS
  6
CONTINUOUS
 62
     0
 10
-124.7492269869534
 20
-2769.478354705768
 30
0.0
  0
ENDBLK
  5
231
  8
0
 62
     5
  0
BLOCK
  8
0
  2
*D26
 70
     1
 10
0.0
 20
0.0
 30
0.0
  3
*D26
  1

  0
LINE
  5
1D5
  8
回02-寸法
  6
CONTINUOUS
 62
     5
 10
-71.5419392383485
 20
-2752.643354705768
 30
0.0
 11
-71.5419392383485
 21
-2744.817916023609
 31
0.0
  0
LINE
  5
1D6
  8
回02-寸法
  6
CONTINUOUS
 62
     5
 10
-65.68193923834861
 20
-2752.643354705768
 30
0.0
 11
-65.68193923834861
 21
-2744.817916023609
 31
0.0
  0
LINE
  5
1D7
  8
回02-寸法
  6
CONTINUOUS
 62
     5
 10
-64.1819392383486
 20
-2745.817916023609
 30
0.0
 11
-55.3794341530469
 21
-2745.817916023609
 31
0.0
  0
LINE
  5
1D8
  8
回02-寸法
  6
CONTINUOUS
 62
     5
 10
-71.5419392383485
 20
-2745.817916023609
 30
0.0
 11
-65.68193923834861
 21
-2745.817916023609
 31
0.0
  0
LINE
  5
1D9
  8
回02-寸法
  6
CONTINUOUS
 62
     5
 10
-73.0419392383485
 20
-2745.817916023609
 30
0.0
 11
-74.5419392383485
 21
-2745.817916023609
 31
0.0
  0
INSERT
  5
1DA
  8
回02-寸法
  6
CONTINUOUS
 62
     5
 66
     1
  2
_OPEN
 10
-71.5419392383485
 20
-2745.817916023609
 30
0.0
 41
1.5
 42
1.5
 43
1.5
  0
SEQEND
  5
1DB
  8
回02-寸法
  6
CONTINUOUS
 62
     7
  0
INSERT
  5
1DC
  8
回02-寸法
  6
CONTINUOUS
 62
     5
 66
     1
  2
_OPEN
 10
-65.68193923834861
 20
-2745.817916023609
 30
0.0
 41
1.5
 42
1.5
 43
1.5
 50
180.0
  0
SEQEND
  5
1DD
  8
回02-寸法
  6
CONTINUOUS
 62
     7
  0
TEXT
  5
1DE
  8
回02-寸法
  6
CONTINUOUS
 62
     5
 10
-62.6319392383486
 20
-2745.317916023609
 30
0.0
 40
3.0
  1
5.86
  0
POINT
  5
1DF
  8
DEFPOINTS
  6
CONTINUOUS
 62
     0
 10
-71.5419392383485
 20
-2752.643354705768
 30
0.0
  0
POINT
  5
1E0
  8
DEFPOINTS
  6
CONTINUOUS
 62
     0
 10
-65.68193923834861
 20
-2752.643354705768
 30
0.0
  0
POINT
  5
1E1
  8
DEFPOINTS
  6
CONTINUOUS
 62
     0
 10
-65.68193923834861
 20
-2745.817916023609
 30
0.0
  0
ENDBLK
  5
1E2
  8
0
 62
     7
  0
BLOCK
  8
0
  2
*D27
 70
     1
 10
0.0
 20
0.0
 30
0.0
  3
*D27
  1

  0
LINE
  5
1C4
  8
回02-寸法
  6
CONTINUOUS
 62
     5
 10
-95.72193923834834
 20
-2729.118354705768
 30
0.0
 11
-81.43492333406236
 21
-2729.118354705768
 31
0.0
  0
LINE
  5
1C6
  8
回02-寸法
  6
CONTINUOUS
 62
     5
 10
-95.72193923834834
 20
-2723.418354705768
 30
0.0
 11
-81.43492333406236
 21
-2723.418354705768
 31
0.0
  0
LINE
  5
1C7
  8
回02-寸法
  6
CONTINUOUS
 62
     5
 10
-82.43492333406235
 20
-2727.618354705768
 30
0.0
 11
-82.43492333406235
 21
-2724.918354705768
 31
0.0
  0
INSERT
  5
1C8
  8
回02-寸法
  6
CONTINUOUS
 62
     5
 66
     1
  2
_OPEN
 10
-82.43492333406235
 20
-2729.118354705768
 30
0.0
 41
1.5
 42
1.5
 43
1.5
 50
270.0
  0
SEQEND
  5
1C9
  8
回02-寸法
  6
CONTINUOUS
 62
     7
  0
INSERT
  5
1CA
  8
回02-寸法
  6
CONTINUOUS
 62
     5
 66
     1
  2
_OPEN
 10
-82.43492333406235
 20
-2723.418354705768
 30
0.0
 41
1.5
 42
1.5
 43
1.5
 50
90.0
  0
SEQEND
  5
1CB
  8
回02-寸法
  6
CONTINUOUS
 62
     7
  0
TEXT
  5
1CC
  8
回02-寸法
  6
CONTINUOUS
 62
     5
 10
-82.9349233340622
 20
-2728.818354705769
 30
0.0
 40
3.0
  1
5.7
 50
90.0
  0
POINT
  5
1CD
  8
DEFPOINTS
  6
CONTINUOUS
 62
     0
 10
-95.72193923834834
 20
-2729.118354705768
 30
0.0
  0
POINT
  5
1CF
  8
DEFPOINTS
  6
CONTINUOUS
 62
     0
 10
-95.72193923834834
 20
-2723.418354705768
 30
0.0
  0
POINT
  5
1D0
  8
DEFPOINTS
  6
CONTINUOUS
 62
     0
 10
-82.43492333406235
 20
-2723.418354705768
 30
0.0
  0
ENDBLK
  5
1D1
  8
0
 62
     7
  0
BLOCK
  8
回02-寸法
  2
*D28
 70
     1
 10
0.0
 20
0.0
 30
0.0
  3
*D28
  1

  0
LINE
  5
435
  8
回02-寸法
  6
CONTINUOUS
 62
     5
 10
-105.4488001646095
 20
-2798.269664074661
 30
0.0
 11
-91.16178426032359
 21
-2798.269664074661
 31
0.0
  0
LINE
  5
436
  8
回02-寸法
  6
CONTINUOUS
 62
     5
 10
-105.4488001646095
 20
-2792.569664074662
 30
0.0
 11
-91.16178426032359
 21
-2792.569664074662
 31
0.0
  0
LINE
  5
437
  8
回02-寸法
  6
CONTINUOUS
 62
     5
 10
-92.16178426032358
 20
-2796.769664074661
 30
0.0
 11
-92.16178426032358
 21
-2794.069664074662
 31
0.0
  0
INSERT
  5
438
  8
回02-寸法
  6
CONTINUOUS
 62
     5
  2
_OPEN
 10
-92.16178426032358
 20
-2798.269664074661
 30
0.0
 41
1.5
 42
1.5
 43
1.5
 50
270.0
  0
INSERT
  5
439
  8
回02-寸法
  6
CONTINUOUS
 62
     5
  2
_OPEN
 10
-92.16178426032358
 20
-2792.569664074662
 30
0.0
 41
1.5
 42
1.5
 43
1.5
 50
90.0
  0
TEXT
  5
43A
  8
回02-寸法
  6
CONTINUOUS
 62
     5
 10
-92.66178426032366
 20
-2797.969664074661
 30
0.0
 40
3.0
  1
5.7
 50
90.0
  0
POINT
  5
43B
  8
DEFPOINTS
  6
CONTINUOUS
 62
     0
 10
-105.4488001646095
 20
-2798.269664074661
 30
0.0
  0
POINT
  5
43C
  8
DEFPOINTS
  6
CONTINUOUS
 62
     0
 10
-105.4488001646095
 20
-2792.569664074662
 30
0.0
  0
POINT
  5
43D
  8
DEFPOINTS
  6
CONTINUOUS
 62
     0
 10
-92.16178426032358
 20
-2792.569664074662
 30
0.0
  0
ENDBLK
  5
43F
  8
回02-寸法
  6
CONTINUOUS
 62
     7
  0
BLOCK
  8
回02-寸法
  2
*D29
 70
     1
 10
0.0
 20
0.0
 30
0.0
  3
*D29
  1

  0
LINE
  5
441
  8
回02-寸法
  6
CONTINUOUS
 62
     5
 10
-81.26880016460972
 20
-2821.794664074661
 30
0.0
 11
-81.26880016460972
 21
-2813.969225392502
 31
0.0
  0
LINE
  5
442
  8
回02-寸法
  6
CONTINUOUS
 62
     5
 10
-75.40880016460983
 20
-2821.794664074661
 30
0.0
 11
-75.40880016460983
 21
-2813.969225392502
 31
0.0
  0
LINE
  5
443
  8
回02-寸法
  6
CONTINUOUS
 62
     5
 10
-73.90880016460982
 20
-2814.969225392502
 30
0.0
 11
-65.10629507930812
 21
-2814.969225392502
 31
0.0
  0
LINE
  5
444
  8
回02-寸法
  6
CONTINUOUS
 62
     5
 10
-81.26880016460972
 20
-2814.969225392502
 30
0.0
 11
-75.40880016460983
 21
-2814.969225392502
 31
0.0
  0
LINE
  5
445
  8
回02-寸法
  6
CONTINUOUS
 62
     5
 10
-82.76880016460973
 20
-2814.969225392502
 30
0.0
 11
-84.26880016460973
 21
-2814.969225392502
 31
0.0
  0
INSERT
  5
446
  8
回02-寸法
  6
CONTINUOUS
 62
     5
  2
_OPEN
 10
-81.26880016460972
 20
-2814.969225392502
 30
0.0
 41
1.5
 42
1.5
 43
1.5
  0
INSERT
  5
447
  8
回02-寸法
  6
CONTINUOUS
 62
     5
  2
_OPEN
 10
-75.40880016460983
 20
-2814.969225392502
 30
0.0
 41
1.5
 42
1.5
 43
1.5
 50
180.0
  0
TEXT
  5
448
  8
回02-寸法
  6
CONTINUOUS
 62
     5
 10
-72.35880016460983
 20
-2814.469225392502
 30
0.0
 40
3.0
  1
5.86
  0
POINT
  5
449
  8
DEFPOINTS
  6
CONTINUOUS
 62
     0
 10
-81.26880016460972
 20
-2821.794664074661
 30
0.0
  0
POINT
  5
44A
  8
DEFPOINTS
  6
CONTINUOUS
 62
     0
 10
-75.40880016460983
 20
-2821.794664074661
 30
0.0
  0
POINT
  5
44B
  8
DEFPOINTS
  6
CONTINUOUS
 62
     0
 10
-75.40880016460983
 20
-2814.969225392502
 30
0.0
  0
ENDBLK
  5
44D
  8
回02-寸法
  6
CONTINUOUS
 62
     7
  0
BLOCK
  8
回02-寸法
  2
*D30
 70
     1
 10
0.0
 20
0.0
 30
0.0
  3
*D30
  1

  0
LINE
  5
44F
  8
回02-寸法
  6
CONTINUOUS
 62
     5
 10
-66.55810625521121
 20
-2890.132315792667
 30
0.0
 11
-66.55810625521121
 21
-2909.860915000511
 31
0.0
  0
LINE
  5
450
  8
回02-寸法
  6
CONTINUOUS
 62
     5
 10
-53.05810625520985
 20
-2890.132315792667
 30
0.0
 11
-53.05810625520985
 21
-2909.860915000511
 31
0.0
  0
LINE
  5
451
  8
回02-寸法
  6
CONTINUOUS
 62
     5
 10
-65.05810625521121
 20
-2908.860915000511
 30
0.0
 11
-54.55810625520985
 21
-2908.860915000511
 31
0.0
  0
INSERT
  5
452
  8
回02-寸法
  6
CONTINUOUS
 62
     5
  2
_OPEN
 10
-66.55810625521121
 20
-2908.860915000511
 30
0.0
 41
1.5
 42
1.5
 43
1.5
 50
180.0
  0
INSERT
  5
453
  8
回02-寸法
  6
CONTINUOUS
 62
     5
  2
_OPEN
 10
-53.05810625520985
 20
-2908.860915000511
 30
0.0
 41
1.5
 42
1.5
 43
1.5
  0
INSERT
  5
454
  8
回02-寸法
  6
CONTINUOUS
 62
     5
 66
     1
  2
*X87
 10
0.0
 20
0.0
 30
0.0
  0
SEQEND
  5
8E3
  8
回02-寸法
  6
CONTINUOUS
 62
     7
  0
POINT
  5
455
  8
DEFPOINTS
  6
CONTINUOUS
 62
     0
 10
-66.55810625521121
 20
-2890.132315792667
 30
0.0
  0
POINT
  5
456
  8
DEFPOINTS
  6
CONTINUOUS
 62
     0
 10
-53.05810625520985
 20
-2890.132315792667
 30
0.0
  0
POINT
  5
457
  8
DEFPOINTS
  6
CONTINUOUS
 62
     0
 10
-53.05810625520985
 20
-2908.860915000511
 30
0.0
  0
ENDBLK
  5
459
  8
回02-寸法
  6
CONTINUOUS
 62
     7
  0
BLOCK
  8
回02-寸法
  2
*D31
 70
     1
 10
0.0
 20
0.0
 30
0.0
  3
*D31
  1

  0
LINE
  5
45B
  8
回02-寸法
  6
CONTINUOUS
 62
     5
 10
-43.05812319971323
 20
-2890.132315792667
 30
0.0
 11
-43.05812319971323
 21
-2925.532230826065
 31
0.0
  0
LINE
  5
45C
  8
回02-寸法
  6
CONTINUOUS
 62
     5
 10
-110.0488001646097
 20
-2830.332315792665
 30
0.0
 11
-110.0488001646097
 21
-2925.532230826065
 31
0.0
  0
LINE
  5
45D
  8
回02-寸法
  6
CONTINUOUS
 62
     5
 10
-44.55812319971323
 20
-2924.532230826065
 30
0.0
 11
-108.5488001646097
 21
-2924.532230826065
 31
0.0
  0
INSERT
  5
45E
  8
回02-寸法
  6
CONTINUOUS
 62
     5
  2
_OPEN
 10
-43.05812319971323
 20
-2924.532230826065
 30
0.0
 41
1.5
 42
1.5
 43
1.5
  0
INSERT
  5
45F
  8
回02-寸法
  6
CONTINUOUS
 62
     5
  2
_OPEN
 10
-110.0488001646097
 20
-2924.532230826065
 30
0.0
 41
1.5
 42
1.5
 43
1.5
 50
180.0
  0
TEXT
  5
460
  8
回02-寸法
  6
CONTINUOUS
 62
     5
 10
-82.05357168216147
 20
-2923.782225826066
 30
0.0
 40
5.000099999999999
  1
(67)
  0
POINT
  5
461
  8
DEFPOINTS
  6
CONTINUOUS
 62
     0
 10
-43.05812319971323
 20
-2890.132315792667
 30
0.0
  0
POINT
  5
462
  8
DEFPOINTS
  6
CONTINUOUS
 62
     0
 10
-110.0488001646097
 20
-2830.332315792665
 30
0.0
  0
POINT
  5
463
  8
DEFPOINTS
  6
CONTINUOUS
 62
     0
 10
-110.0488001646097
 20
-2924.532230826065
 30
0.0
  0
ENDBLK
  5
465
  8
回02-寸法
  6
CONTINUOUS
 62
     7
  0
BLOCK
  8
回02-寸法
  2
*D32
 70
     1
 10
0.0
 20
0.0
 30
0.0
  3
*D32
  1

  0
LINE
  5
467
  8
回02-寸法
  6
CONTINUOUS
 62
     5
 10
-110.0488001646097
 20
-2830.332315792665
 30
0.0
 11
-110.0488001646097
 21
-2909.860915000511
 31
0.0
  0
LINE
  5
468
  8
回02-寸法
  6
CONTINUOUS
 62
     5
 10
-66.55810625521121
 20
-2890.132315792667
 30
0.0
 11
-66.55810625521121
 21
-2909.860915000511
 31
0.0
  0
LINE
  5
469
  8
回02-寸法
  6
CONTINUOUS
 62
     5
 10
-108.5488001646097
 20
-2908.860915000511
 30
0.0
 11
-68.05810625521122
 21
-2908.860915000511
 31
0.0
  0
INSERT
  5
46A
  8
回02-寸法
  6
CONTINUOUS
 62
     5
  2
_OPEN
 10
-110.0488001646097
 20
-2908.860915000511
 30
0.0
 41
1.5
 42
1.5
 43
1.5
 50
180.0
  0
INSERT
  5
46B
  8
回02-寸法
  6
CONTINUOUS
 62
     5
  2
_OPEN
 10
-66.55810625521121
 20
-2908.860915000511
 30
0.0
 41
1.5
 42
1.5
 43
1.5
  0
TEXT
  5
46C
  8
回02-寸法
  6
CONTINUOUS
 62
     5
 10
-96.55361820991046
 20
-2908.110910000512
 30
0.0
 40
5.000099999999999
  1
(43.5)
  0
POINT
  5
46D
  8
DEFPOINTS
  6
CONTINUOUS
 62
     0
 10
-110.0488001646097
 20
-2830.332315792665
 30
0.0
  0
POINT
  5
46E
  8
DEFPOINTS
  6
CONTINUOUS
 62
     0
 10
-66.55810625521121
 20
-2890.132315792667
 30
0.0
  0
POINT
  5
46F
  8
DEFPOINTS
  6
CONTINUOUS
 62
     0
 10
-66.55810625521121
 20
-2908.860915000511
 30
0.0
  0
ENDBLK
  5
471
  8
回02-寸法
  6
CONTINUOUS
 62
     7
  0
BLOCK
  8
回02-寸法
  2
*D33
 70
     1
 10
0.0
 20
0.0
 30
0.0
  3
*D33
  1

  0
LINE
  5
473
  8
回02-寸法
  6
CONTINUOUS
 62
     5
 10
-43.05812319971323
 20
-2890.132315792667
 30
0.0
 11
-43.05812319971323
 21
-2925.532230826065
 31
0.0
  0
LINE
  5
474
  8
回02-寸法
  6
CONTINUOUS
 62
     5
 10
-22.5581231997121
 20
-2890.132315792667
 30
0.0
 11
-22.5581231997121
 21
-2925.532230826065
 31
0.0
  0
LINE
  5
475
  8
回02-寸法
  6
CONTINUOUS
 62
     5
 10
-41.05812319971323
 20
-2924.532230826065
 30
0.0
 11
-24.5581231997121
 21
-2924.532230826065
 31
0.0
  0
INSERT
  5
476
  8
回02-寸法
  6
CONTINUOUS
 62
     5
  2
_OPEN
 10
-43.05812319971323
 20
-2924.532230826065
 30
0.0
 41
2.0
 42
2.0
 43
2.0
 50
180.0
  0
INSERT
  5
477
  8
回02-寸法
  6
CONTINUOUS
 62
     5
  2
_OPEN
 10
-22.5581231997121
 20
-2924.532230826065
 30
0.0
 41
2.0
 42
2.0
 43
2.0
  0
INSERT
  5
478
  8
回02-寸法
  6
CONTINUOUS
 62
     5
 66
     1
  2
*X88
 10
0.0
 20
0.0
 30
0.0
  0
SEQEND
  5
8E9
  8
回02-寸法
  6
CONTINUOUS
 62
     7
  0
POINT
  5
479
  8
DEFPOINTS
  6
CONTINUOUS
 62
     0
 10
-43.05812319971323
 20
-2890.132315792667
 30
0.0
  0
POINT
  5
47A
  8
DEFPOINTS
  6
CONTINUOUS
 62
     0
 10
-22.5581231997121
 20
-2890.132315792667
 30
0.0
  0
POINT
  5
47B
  8
DEFPOINTS
  6
CONTINUOUS
 62
     0
 10
-22.5581231997121
 20
-2924.532230826065
 30
0.0
  0
ENDBLK
  5
47D
  8
回02-寸法
  6
CONTINUOUS
 62
     7
  0
BLOCK
  8
回02-寸法
  2
*D34
 70
     1
 10
0.0
 20
0.0
 30
0.0
  3
*D34
  1

  0
LINE
  5
47F
  8
回02-寸法
  6
CONTINUOUS
 62
     5
 10
-110.0488001646097
 20
-2830.332192324588
 30
0.0
 11
-135.4760879132146
 21
-2830.332192324588
 31
0.0
  0
LINE
  5
480
  8
回02-寸法
  6
CONTINUOUS
 62
     5
 10
-115.1488001646096
 20
-2838.629664074661
 30
0.0
 11
-135.4760879132146
 21
-2838.629664074661
 31
0.0
  0
LINE
  5
481
  8
回02-寸法
  6
CONTINUOUS
 62
     5
 10
-134.4760879132146
 20
-2840.129664074661
 30
0.0
 11
-134.4760879132146
 21
-2852.006417634373
 31
0.0
  0
LINE
  5
482
  8
回02-寸法
  6
CONTINUOUS
 62
     5
 10
-134.4760879132146
 20
-2830.332192324588
 30
0.0
 11
-134.4760879132146
 21
-2838.629664074661
 31
0.0
  0
LINE
  5
483
  8
回02-寸法
  6
CONTINUOUS
 62
     5
 10
-134.4760879132146
 20
-2828.832192324588
 30
0.0
 11
-134.4760879132146
 21
-2827.332192324588
 31
0.0
  0
INSERT
  5
484
  8
回02-寸法
  6
CONTINUOUS
 62
     5
  2
_OPEN
 10
-134.4760879132146
 20
-2830.332192324588
 30
0.0
 41
1.5
 42
1.5
 43
1.5
 50
270.0
  0
INSERT
  5
485
  8
回02-寸法
  6
CONTINUOUS
 62
     5
  2
_OPEN
 10
-134.4760879132146
 20
-2838.629664074661
 30
0.0
 41
1.5
 42
1.5
 43
1.5
 50
90.0
  0
INSERT
  5
486
  8
回02-寸法
  6
CONTINUOUS
 62
     5
 66
     1
  2
*X89
 10
0.0
 20
0.0
 30
0.0
  0
SEQEND
  5
8EF
  8
回02-寸法
  6
CONTINUOUS
 62
     7
  0
POINT
  5
487
  8
DEFPOINTS
  6
CONTINUOUS
 62
     0
 10
-110.0488001646097
 20
-2830.332192324588
 30
0.0
  0
POINT
  5
488
  8
DEFPOINTS
  6
CONTINUOUS
 62
     0
 10
-115.1488001646096
 20
-2838.629664074661
 30
0.0
  0
POINT
  5
489
  8
DEFPOINTS
  6
CONTINUOUS
 62
     0
 10
-134.4760879132146
 20
-2838.629664074661
 30
0.0
  0
ENDBLK
  5
48B
  8
回02-寸法
  6
CONTINUOUS
 62
     7
  0
BLOCK
  8
回02-寸法
  2
*D35
 70
     1
 10
0.0
 20
0.0
 30
0.0
  3
*D35
  1

  0
LINE
  5
48D
  8
回02-寸法
  6
CONTINUOUS
 62
     5
 10
-101.7988001646097
 20
-2818.33966407466
 30
0.0
 11
-130.2062508015547
 21
-2818.33966407466
 31
0.0
  0
LINE
  5
48E
  8
回02-寸法
  6
CONTINUOUS
 62
     5
 10
-110.0488001646097
 20
-2830.332192324588
 30
0.0
 11
-130.2062508015547
 21
-2830.332192324588
 31
0.0
  0
LINE
  5
48F
  8
回02-寸法
  6
CONTINUOUS
 62
     5
 10
-129.2062508015547
 20
-2819.83966407466
 30
0.0
 11
-129.2062508015547
 21
-2828.832192324588
 31
0.0
  0
INSERT
  5
490
  8
回02-寸法
  6
CONTINUOUS
 62
     5
  2
_OPEN
 10
-129.2062508015547
 20
-2818.33966407466
 30
0.0
 41
1.5
 42
1.5
 43
1.5
 50
90.0
  0
INSERT
  5
491
  8
回02-寸法
  6
CONTINUOUS
 62
     5
  2
_OPEN
 10
-129.2062508015547
 20
-2830.332192324588
 30
0.0
 41
1.5
 42
1.5
 43
1.5
 50
270.0
  0
TEXT
  5
492
  8
回02-寸法
  6
CONTINUOUS
 62
     5
 10
-129.7062508015547
 20
-2826.136259884965
 30
0.0
 40
3.0
  1
12
 50
90.0
  0
POINT
  5
493
  8
DEFPOINTS
  6
CONTINUOUS
 62
     0
 10
-101.7988001646097
 20
-2818.33966407466
 30
0.0
  0
POINT
  5
494
  8
DEFPOINTS
  6
CONTINUOUS
 62
     0
 10
-110.0488001646097
 20
-2830.332192324588
 30
0.0
  0
POINT
  5
495
  8
DEFPOINTS
  6
CONTINUOUS
 62
     0
 10
-129.2062508015547
 20
-2830.332192324588
 30
0.0
  0
ENDBLK
  5
497
  8
回02-寸法
  6
CONTINUOUS
 62
     7
  0
BLOCK
  8
回02-寸法
  2
*D36
 70
     1
 10
0.0
 20
0.0
 30
0.0
  3
*D36
  1

  0
LINE
  5
499
  8
回02-寸法
  6
CONTINUOUS
 62
     5
 10
-110.0488001646097
 20
-2718.93219232459
 30
0.0
 11
-110.0488001646097
 21
-2689.706429436243
 31
0.0
  0
LINE
  5
49A
  8
回02-寸法
  6
CONTINUOUS
 62
     5
 10
-117.1488001646096
 20
-2708.629664074661
 30
0.0
 11
-117.1488001646096
 21
-2689.706429436243
 31
0.0
  0
LINE
  5
49B
  8
回02-寸法
  6
CONTINUOUS
 62
     5
 10
-118.6488001646096
 20
-2690.706429436243
 30
0.0
 11
-129.9255537243208
 21
-2690.706429436243
 31
0.0
  0
LINE
  5
49C
  8
回02-寸法
  6
CONTINUOUS
 62
     5
 10
-110.0488001646097
 20
-2690.706429436243
 30
0.0
 11
-117.1488001646096
 21
-2690.706429436243
 31
0.0
  0
LINE
  5
49D
  8
回02-寸法
  6
CONTINUOUS
 62
     5
 10
-108.5488001646097
 20
-2690.706429436243
 30
0.0
 11
-107.0488001646097
 21
-2690.706429436243
 31
0.0
  0
INSERT
  5
49E
  8
回02-寸法
  6
CONTINUOUS
 62
     5
  2
_OPEN
 10
-110.0488001646097
 20
-2690.706429436243
 30
0.0
 41
1.5
 42
1.5
 43
1.5
 50
180.0
  0
INSERT
  5
49F
  8
回02-寸法
  6
CONTINUOUS
 62
     5
  2
_OPEN
 10
-117.1488001646096
 20
-2690.706429436243
 30
0.0
 41
1.5
 42
1.5
 43
1.5
  0
INSERT
  5
4A0
  8
回02-寸法
  6
CONTINUOUS
 62
     5
 66
     1
  2
*X90
 10
0.0
 20
0.0
 30
0.0
  0
SEQEND
  5
8F5
  8
回02-寸法
  6
CONTINUOUS
 62
     7
  0
POINT
  5
4A1
  8
DEFPOINTS
  6
CONTINUOUS
 62
     0
 10
-110.0488001646097
 20
-2718.93219232459
 30
0.0
  0
POINT
  5
4A2
  8
DEFPOINTS
  6
CONTINUOUS
 62
     0
 10
-117.1488001646096
 20
-2708.629664074661
 30
0.0
  0
POINT
  5
4A3
  8
DEFPOINTS
  6
CONTINUOUS
 62
     0
 10
-117.1488001646096
 20
-2690.706429436243
 30
0.0
  0
ENDBLK
  5
4A5
  8
回02-寸法
  6
CONTINUOUS
 62
     7
  0
BLOCK
  8
回02-寸法
  2
*D37
 70
     1
 10
0.0
 20
0.0
 30
0.0
  3
*D37
  1

  0
LINE
  5
4A7
  8
回02-寸法
  6
CONTINUOUS
 62
     5
 10
-101.7988001646097
 20
-2726.899664074661
 30
0.0
 11
-101.7988001646097
 21
-2695.609303920155
 31
0.0
  0
LINE
  5
4A8
  8
回02-寸法
  6
CONTINUOUS
 62
     5
 10
-110.0488001646097
 20
-2718.932192324591
 30
0.0
 11
-110.0488001646097
 21
-2695.609303920155
 31
0.0
  0
LINE
  5
4A9
  8
回02-寸法
  6
CONTINUOUS
 62
     5
 10
-103.2988001646097
 20
-2696.609303920155
 30
0.0
 11
-108.5488001646097
 21
-2696.609303920155
 31
0.0
  0
INSERT
  5
4AA
  8
回02-寸法
  6
CONTINUOUS
 62
     5
  2
_OPEN
 10
-101.7988001646097
 20
-2696.609303920155
 30
0.0
 41
1.5
 42
1.5
 43
1.5
  0
INSERT
  5
4AB
  8
回02-寸法
  6
CONTINUOUS
 62
     5
  2
_OPEN
 10
-110.0488001646097
 20
-2696.609303920155
 30
0.0
 41
1.5
 42
1.5
 43
1.5
 50
180.0
  0
TEXT
  5
4AC
  8
回02-寸法
  6
CONTINUOUS
 62
     5
 10
-108.4738001646097
 20
-2696.109303920155
 30
0.0
 40
3.0
  1
8.3
  0
POINT
  5
4AD
  8
DEFPOINTS
  6
CONTINUOUS
 62
     0
 10
-101.7988001646097
 20
-2726.899664074661
 30
0.0
  0
POINT
  5
4AE
  8
DEFPOINTS
  6
CONTINUOUS
 62
     0
 10
-110.0488001646097
 20
-2718.932192324591
 30
0.0
  0
POINT
  5
4AF
  8
DEFPOINTS
  6
CONTINUOUS
 62
     0
 10
-110.0488001646097
 20
-2696.609303920155
 30
0.0
  0
ENDBLK
  5
4B1
  8
回02-寸法
  6
CONTINUOUS
 62
     7
  0
BLOCK
  8
回02-寸法
  2
*D38
 70
     1
 10
0.0
 20
0.0
 30
0.0
  3
*D38
  1

  0
LINE
  5
4B3
  8
回02-寸法
  6
CONTINUOUS
 62
     5
 10
-115.1488001646096
 20
-2706.629664074661
 30
0.0
 11
-141.3487880822383
 21
-2706.629664074661
 31
0.0
  0
LINE
  5
4B4
  8
回02-寸法
  6
CONTINUOUS
 62
     5
 10
-115.1488001646096
 20
-2838.629664074661
 30
0.0
 11
-141.3487880822383
 21
-2838.629664074661
 31
0.0
  0
LINE
  5
4B5
  8
回02-寸法
  6
CONTINUOUS
 62
     5
 10
-140.3487880822383
 20
-2708.129664074661
 30
0.0
 11
-140.3487880822383
 21
-2837.129664074661
 31
0.0
  0
INSERT
  5
4B6
  8
回02-寸法
  6
CONTINUOUS
 62
     5
  2
_OPEN
 10
-140.3487880822383
 20
-2706.629664074661
 30
0.0
 41
1.5
 42
1.5
 43
1.5
 50
90.0
  0
INSERT
  5
4B7
  8
回02-寸法
  6
CONTINUOUS
 62
     5
  2
_OPEN
 10
-140.3487880822383
 20
-2838.629664074661
 30
0.0
 41
1.5
 42
1.5
 43
1.5
 50
270.0
  0
INSERT
  5
4B8
  8
回02-寸法
  6
CONTINUOUS
 62
     5
 66
     1
  2
*X91
 10
0.0
 20
0.0
 30
0.0
  0
SEQEND
  5
8FC
  8
回02-寸法
  6
CONTINUOUS
 62
     7
  0
POINT
  5
4B9
  8
DEFPOINTS
  6
CONTINUOUS
 62
     0
 10
-115.1488001646096
 20
-2706.629664074661
 30
0.0
  0
POINT
  5
4BA
  8
DEFPOINTS
  6
CONTINUOUS
 62
     0
 10
-115.1488001646096
 20
-2838.629664074661
 30
0.0
  0
POINT
  5
4BB
  8
DEFPOINTS
  6
CONTINUOUS
 62
     0
 10
-140.3487880822383
 20
-2838.629664074661
 30
0.0
  0
ENDBLK
  5
4BD
  8
回02-寸法
  6
CONTINUOUS
 62
     7
  0
BLOCK
  8
回02-寸法
  2
*D39
 70
     1
 10
0.0
 20
0.0
 30
0.0
  3
*D39
  1

  0
LINE
  5
4BF
  8
回02-寸法
  6
CONTINUOUS
 62
     5
 10
-110.0488001646097
 20
-2830.332192324588
 30
0.0
 11
-135.4760879132148
 21
-2830.332192324588
 31
0.0
  0
LINE
  5
4C0
  8
回02-寸法
  6
CONTINUOUS
 62
     5
 10
-110.0488001646097
 20
-2718.932192324589
 30
0.0
 11
-135.4760879132148
 21
-2718.932192324589
 31
0.0
  0
LINE
  5
4C1
  8
回02-寸法
  6
CONTINUOUS
 62
     5
 10
-134.4760879132148
 20
-2828.832192324588
 30
0.0
 11
-134.4760879132148
 21
-2720.432192324589
 31
0.0
  0
INSERT
  5
4C2
  8
回02-寸法
  6
CONTINUOUS
 62
     5
  2
_OPEN
 10
-134.4760879132148
 20
-2830.332192324588
 30
0.0
 41
1.5
 42
1.5
 43
1.5
 50
270.0
  0
INSERT
  5
4C3
  8
回02-寸法
  6
CONTINUOUS
 62
     5
  2
_OPEN
 10
-134.4760879132148
 20
-2718.932192324589
 30
0.0
 41
1.5
 42
1.5
 43
1.5
 50
90.0
  0
INSERT
  5
4C4
  8
回02-寸法
  6
CONTINUOUS
 62
     5
 66
     1
  2
*X92
 10
0.0
 20
0.0
 30
0.0
  0
SEQEND
  5
903
  8
回02-寸法
  6
CONTINUOUS
 62
     7
  0
POINT
  5
4C5
  8
DEFPOINTS
  6
CONTINUOUS
 62
     0
 10
-110.0488001646097
 20
-2830.332192324588
 30
0.0
  0
POINT
  5
4C6
  8
DEFPOINTS
  6
CONTINUOUS
 62
     0
 10
-110.0488001646097
 20
-2718.932192324589
 30
0.0
  0
POINT
  5
4C7
  8
DEFPOINTS
  6
CONTINUOUS
 62
     0
 10
-134.4760879132148
 20
-2718.932192324589
 30
0.0
  0
ENDBLK
  5
4C9
  8
回02-寸法
  6
CONTINUOUS
 62
     7
  0
BLOCK
  8
回02-寸法
  2
*D40
 70
     1
 10
0.0
 20
0.0
 30
0.0
  3
*D40
  1

  0
LINE
  5
4CB
  8
回02-寸法
  6
CONTINUOUS
 62
     5
 10
-101.7988001646097
 20
-2726.899664074661
 30
0.0
 11
-130.2062508015547
 21
-2726.899664074661
 31
0.0
  0
LINE
  5
4CC
  8
回02-寸法
  6
CONTINUOUS
 62
     5
 10
-101.7988001646097
 20
-2818.33966407466
 30
0.0
 11
-130.2062508015547
 21
-2818.33966407466
 31
0.0
  0
LINE
  5
4CD
  8
回02-寸法
  6
CONTINUOUS
 62
     5
 10
-129.2062508015547
 20
-2728.399664074661
 30
0.0
 11
-129.2062508015547
 21
-2816.83966407466
 31
0.0
  0
INSERT
  5
4CE
  8
回02-寸法
  6
CONTINUOUS
 62
     5
  2
_OPEN
 10
-129.2062508015547
 20
-2726.899664074661
 30
0.0
 41
1.5
 42
1.5
 43
1.5
 50
90.0
  0
INSERT
  5
4CF
  8
回02-寸法
  6
CONTINUOUS
 62
     5
  2
_OPEN
 10
-129.2062508015547
 20
-2818.33966407466
 30
0.0
 41
1.5
 42
1.5
 43
1.5
 50
270.0
  0
INSERT
  5
4D0
  8
回02-寸法
  6
CONTINUOUS
 62
     5
 66
     1
  2
*X93
 10
0.0
 20
0.0
 30
0.0
  0
SEQEND
  5
909
  8
回02-寸法
  6
CONTINUOUS
 62
     7
  0
POINT
  5
4D1
  8
DEFPOINTS
  6
CONTINUOUS
 62
     0
 10
-101.7988001646097
 20
-2726.899664074661
 30
0.0
  0
POINT
  5
4D2
  8
DEFPOINTS
  6
CONTINUOUS
 62
     0
 10
-101.7988001646097
 20
-2818.33966407466
 30
0.0
  0
POINT
  5
4D3
  8
DEFPOINTS
  6
CONTINUOUS
 62
     0
 10
-129.2062508015547
 20
-2818.33966407466
 30
0.0
  0
ENDBLK
  5
4D5
  8
回02-寸法
  6
CONTINUOUS
 62
     7
  0
BLOCK
  8
回02-寸法
  2
*D41
 70
     1
 10
0.0
 20
0.0
 30
0.0
  3
*D41
  1

  0
LINE
  5
4D7
  8
回02-寸法
  6
CONTINUOUS
 62
     5
 10
65.95119983539053
 20
-2708.629664074661
 30
0.0
 11
65.95119983539053
 21
-2684.231140193627
 31
0.0
  0
LINE
  5
4D8
  8
回02-寸法
  6
CONTINUOUS
 62
     5
 10
-117.1488001646096
 20
-2708.629664074661
 30
0.0
 11
-117.1488001646096
 21
-2684.231140193627
 31
0.0
  0
LINE
  5
4D9
  8
回02-寸法
  6
CONTINUOUS
 62
     5
 10
64.45119983539052
 20
-2685.231140193627
 30
0.0
 11
-115.6488001646096
 21
-2685.231140193627
 31
0.0
  0
INSERT
  5
4DA
  8
回02-寸法
  6
CONTINUOUS
 62
     5
  2
_OPEN
 10
65.95119983539053
 20
-2685.231140193627
 30
0.0
 41
1.5
 42
1.5
 43
1.5
  0
INSERT
  5
4DB
  8
回02-寸法
  6
CONTINUOUS
 62
     5
  2
_OPEN
 10
-117.1488001646096
 20
-2685.231140193627
 30
0.0
 41
1.5
 42
1.5
 43
1.5
 50
180.0
  0
INSERT
  5
4DC
  8
回02-寸法
  6
CONTINUOUS
 62
     5
 66
     1
  2
*X94
 10
0.0
 20
0.0
 30
0.0
  0
SEQEND
  5
910
  8
回02-寸法
  6
CONTINUOUS
 62
     7
  0
POINT
  5
4DD
  8
DEFPOINTS
  6
CONTINUOUS
 62
     0
 10
65.95119983539053
 20
-2708.629664074661
 30
0.0
  0
POINT
  5
4DE
  8
DEFPOINTS
  6
CONTINUOUS
 62
     0
 10
-117.1488001646096
 20
-2708.629664074661
 30
0.0
  0
POINT
  5
4DF
  8
DEFPOINTS
  6
CONTINUOUS
 62
     0
 10
-117.1488001646096
 20
-2685.231140193627
 30
0.0
  0
ENDBLK
  5
4E1
  8
回02-寸法
  6
CONTINUOUS
 62
     7
  0
BLOCK
  8
回02-寸法
  2
*D42
 70
     1
 10
0.0
 20
0.0
 30
0.0
  3
*D42
  1

  0
LINE
  5
4E3
  8
回02-寸法
  6
CONTINUOUS
 62
     5
 10
-110.0488001646097
 20
-2718.93219232459
 30
0.0
 11
-110.0488001646097
 21
-2689.706429436243
 31
0.0
  0
LINE
  5
4E4
  8
回02-寸法
  6
CONTINUOUS
 62
     5
 10
58.75119983539025
 20
-2718.93219232459
 30
0.0
 11
58.75119983539025
 21
-2689.706429436243
 31
0.0
  0
LINE
  5
4E5
  8
回02-寸法
  6
CONTINUOUS
 62
     5
 10
-108.5488001646097
 20
-2690.706429436243
 30
0.0
 11
57.25119983539025
 21
-2690.706429436243
 31
0.0
  0
INSERT
  5
4E6
  8
回02-寸法
  6
CONTINUOUS
 62
     5
  2
_OPEN
 10
-110.0488001646097
 20
-2690.706429436243
 30
0.0
 41
1.5
 42
1.5
 43
1.5
 50
180.0
  0
INSERT
  5
4E7
  8
回02-寸法
  6
CONTINUOUS
 62
     5
  2
_OPEN
 10
58.75119983539025
 20
-2690.706429436243
 30
0.0
 41
1.5
 42
1.5
 43
1.5
  0
INSERT
  5
4E8
  8
回02-寸法
  6
CONTINUOUS
 62
     5
 66
     1
  2
*X95
 10
0.0
 20
0.0
 30
0.0
  0
SEQEND
  5
917
  8
回02-寸法
  6
CONTINUOUS
 62
     7
  0
POINT
  5
4E9
  8
DEFPOINTS
  6
CONTINUOUS
 62
     0
 10
-110.0488001646097
 20
-2718.93219232459
 30
0.0
  0
POINT
  5
4EA
  8
DEFPOINTS
  6
CONTINUOUS
 62
     0
 10
58.75119983539025
 20
-2718.93219232459
 30
0.0
  0
POINT
  5
4EB
  8
DEFPOINTS
  6
CONTINUOUS
 62
     0
 10
58.75119983539025
 20
-2690.706429436243
 30
0.0
  0
ENDBLK
  5
4ED
  8
回02-寸法
  6
CONTINUOUS
 62
     7
  0
BLOCK
  8
回02-寸法
  2
*D43
 70
     1
 10
0.0
 20
0.0
 30
0.0
  3
*D43
  1

  0
LINE
  5
4EF
  8
回02-寸法
  6
CONTINUOUS
 62
     5
 10
-101.7988001646097
 20
-2726.899664074661
 30
0.0
 11
-101.7988001646097
 21
-2695.609303920155
 31
0.0
  0
LINE
  5
4F0
  8
回02-寸法
  6
CONTINUOUS
 62
     5
 10
50.60119983539062
 20
-2726.899664074661
 30
0.0
 11
50.60119983539062
 21
-2695.609303920155
 31
0.0
  0
LINE
  5
4F1
  8
回02-寸法
  6
CONTINUOUS
 62
     5
 10
-100.2988001646097
 20
-2696.609303920155
 30
0.0
 11
49.10119983539061
 21
-2696.609303920155
 31
0.0
  0
INSERT
  5
4F2
  8
回02-寸法
  6
CONTINUOUS
 62
     5
  2
_OPEN
 10
-101.7988001646097
 20
-2696.609303920155
 30
0.0
 41
1.5
 42
1.5
 43
1.5
 50
180.0
  0
INSERT
  5
4F3
  8
回02-寸法
  6
CONTINUOUS
 62
     5
  2
_OPEN
 10
50.60119983539062
 20
-2696.609303920155
 30
0.0
 41
1.5
 42
1.5
 43
1.5
  0
INSERT
  5
4F4
  8
回02-寸法
  6
CONTINUOUS
 62
     5
 66
     1
  2
*X96
 10
0.0
 20
0.0
 30
0.0
  0
SEQEND
  5
91D
  8
回02-寸法
  6
CONTINUOUS
 62
     7
  0
POINT
  5
4F5
  8
DEFPOINTS
  6
CONTINUOUS
 62
     0
 10
-101.7988001646097
 20
-2726.899664074661
 30
0.0
  0
POINT
  5
4F6
  8
DEFPOINTS
  6
CONTINUOUS
 62
     0
 10
50.60119983539062
 20
-2726.899664074661
 30
0.0
  0
POINT
  5
4F7
  8
DEFPOINTS
  6
CONTINUOUS
 62
     0
 10
50.60119983539062
 20
-2696.609303920155
 30
0.0
  0
ENDBLK
  5
4F9
  8
回02-寸法
  6
CONTINUOUS
 62
     7
  0
BLOCK
  8
回02-寸法
  2
*D44
 70
     1
 10
0.0
 20
0.0
 30
0.0
  3
*D44
  1

  0
LINE
  5
4FB
  8
回02-寸法
  6
CONTINUOUS
 62
     5
 10
-22.75812319971192
 20
-2890.332315792666
 30
0.0
 11
-3.288301773757897
 21
-2890.332315792666
 31
0.0
  0
LINE
  5
4FC
  8
回02-寸法
  6
CONTINUOUS
 62
     5
 10
-22.55812319971301
 20
-2830.332315792667
 30
0.0
 11
-3.288301773757893
 21
-2830.332315792667
 31
0.0
  0
LINE
  5
4FD
  8
回02-寸法
  6
CONTINUOUS
 62
     5
 10
-4.288301773757897
 20
-2888.332315792665
 30
0.0
 11
-4.288301773757893
 21
-2832.332315792667
 31
0.0
  0
INSERT
  5
4FE
  8
回02-寸法
  6
CONTINUOUS
 62
     5
  2
_OPEN
 10
-4.288301773757897
 20
-2890.332315792666
 30
0.0
 41
2.0
 42
2.0
 43
2.0
 50
270.0
  0
INSERT
  5
4FF
  8
回02-寸法
  6
CONTINUOUS
 62
     5
  2
_OPEN
 10
-4.288301773757893
 20
-2830.332315792667
 30
0.0
 41
2.0
 42
2.0
 43
2.0
 50
90.0
  0
INSERT
  5
500
  8
回02-寸法
  6
CONTINUOUS
 62
     5
 66
     1
  2
*X97
 10
0.0
 20
0.0
 30
0.0
  0
SEQEND
  5
923
  8
回02-寸法
  6
CONTINUOUS
 62
     7
  0
POINT
  5
501
  8
DEFPOINTS
  6
CONTINUOUS
 62
     0
 10
-22.75812319971192
 20
-2890.332315792666
 30
0.0
  0
POINT
  5
502
  8
DEFPOINTS
  6
CONTINUOUS
 62
     0
 10
-22.55812319971301
 20
-2830.332315792667
 30
0.0
  0
POINT
  5
503
  8
DEFPOINTS
  6
CONTINUOUS
 62
     0
 10
-4.288301773757893
 20
-2830.332315792667
 30
0.0
  0
ENDBLK
  5
505
  8
回02-寸法
  6
CONTINUOUS
 62
     7
  0
BLOCK
  8
回02-寸法
  2
*D45
 70
     1
 10
0.0
 20
0.0
 30
0.0
  3
*D45
  1

  0
LINE
  5
507
  8
回02-寸法
  6
CONTINUOUS
 62
     5
 10
-66.35810625521094
 20
-2890.332315792666
 30
0.0
 11
-80.29689514423921
 21
-2890.332315792666
 31
0.0
  0
LINE
  5
508
  8
回02-寸法
  6
CONTINUOUS
 62
     5
 10
-66.55810625521076
 20
-2830.332315792665
 30
0.0
 11
-80.29689514423921
 21
-2830.332315792665
 31
0.0
  0
LINE
  5
509
  8
回02-寸法
  6
CONTINUOUS
 62
     5
 10
-79.29689514423921
 20
-2888.332315792665
 30
0.0
 11
-79.29689514423921
 21
-2832.332315792665
 31
0.0
  0
INSERT
  5
50A
  8
回02-寸法
  6
CONTINUOUS
 62
     5
  2
_OPEN
 10
-79.29689514423921
 20
-2890.332315792666
 30
0.0
 41
2.0
 42
2.0
 43
2.0
 50
270.0
  0
INSERT
  5
50B
  8
回02-寸法
  6
CONTINUOUS
 62
     5
  2
_OPEN
 10
-79.29689514423921
 20
-2830.332315792665
 30
0.0
 41
2.0
 42
2.0
 43
2.0
 50
90.0
  0
INSERT
  5
50C
  8
回02-寸法
  6
CONTINUOUS
 62
     5
 66
     1
  2
*X98
 10
0.0
 20
0.0
 30
0.0
  0
SEQEND
  5
929
  8
回02-寸法
  6
CONTINUOUS
 62
     7
  0
POINT
  5
50D
  8
DEFPOINTS
  6
CONTINUOUS
 62
     0
 10
-66.35810625521094
 20
-2890.332315792666
 30
0.0
  0
POINT
  5
50E
  8
DEFPOINTS
  6
CONTINUOUS
 62
     0
 10
-66.55810625521076
 20
-2830.332315792665
 30
0.0
  0
POINT
  5
50F
  8
DEFPOINTS
  6
CONTINUOUS
 62
     0
 10
-79.29689514423921
 20
-2830.332315792665
 30
0.0
  0
ENDBLK
  5
511
  8
回02-寸法
  6
CONTINUOUS
 62
     7
  0
BLOCK
  8
回02-寸法
  2
*D46
 70
     1
 10
0.0
 20
0.0
 30
0.0
  3
*D46
  1

  0
LINE
  5
513
  8
回03-記事
  6
CONTINUOUS
 62
     5
 10
117.6308724166476
 20
-2890.332192324589
 30
0.0
 11
117.6308724166476
 21
-2902.784706945969
 31
0.0
  0
LINE
  5
514
  8
回03-記事
  6
CONTINUOUS
 62
     5
 10
120.4308724166487
 20
-2890.332192324589
 30
0.0
 11
120.4308724166487
 21
-2902.784706945969
 31
0.0
  0
LINE
  5
515
  8
回03-記事
  6
CONTINUOUS
 62
     5
 10
121.9308724166487
 20
-2901.784706945969
 30
0.0
 11
135.0246856847173
 21
-2901.784706945969
 31
0.0
  0
LINE
  5
516
  8
回03-記事
  6
CONTINUOUS
 62
     5
 10
117.6308724166476
 20
-2901.784706945969
 30
0.0
 11
120.4308724166487
 21
-2901.784706945969
 31
0.0
  0
LINE
  5
517
  8
回03-記事
  6
CONTINUOUS
 62
     5
 10
116.1308724166476
 20
-2901.784706945969
 30
0.0
 11
114.6308724166476
 21
-2901.784706945969
 31
0.0
  0
INSERT
  5
518
  8
回03-記事
  6
CONTINUOUS
 62
     5
  2
_OPEN
 10
117.6308724166476
 20
-2901.784706945969
 30
0.0
 41
1.5
 42
1.5
 43
1.5
  0
INSERT
  5
519
  8
回03-記事
  6
CONTINUOUS
 62
     5
  2
_OPEN
 10
120.4308724166487
 20
-2901.784706945969
 30
0.0
 41
1.5
 42
1.5
 43
1.5
 50
180.0
  0
INSERT
  5
51A
  8
回03-記事
  6
CONTINUOUS
 62
     5
 66
     1
  2
*X99
 10
0.0
 20
0.0
 30
0.0
  0
SEQEND
  5
92F
  8
回02-寸法
  6
CONTINUOUS
 62
     7
  0
POINT
  5
51B
  8
DEFPOINTS
  6
CONTINUOUS
 62
     0
 10
117.6308724166476
 20
-2890.332192324589
 30
0.0
  0
POINT
  5
51C
  8
DEFPOINTS
  6
CONTINUOUS
 62
     0
 10
120.4308724166487
 20
-2890.332192324589
 30
0.0
  0
POINT
  5
51D
  8
DEFPOINTS
  6
CONTINUOUS
 62
     0
 10
120.4308724166487
 20
-2901.784706945969
 30
0.0
  0
ENDBLK
  5
51F
  8
回02-寸法
  6
CONTINUOUS
 62
     7
  0
BLOCK
  8
回02-寸法
  2
*D47
 70
     1
 10
0.0
 20
0.0
 30
0.0
  3
*D47
  1

  0
LINE
  5
521
  8
回03-記事
  6
CONTINUOUS
 62
     5
 10
122.7889657101088
 20
-2890.332192324589
 30
0.0
 11
122.7889657101088
 21
-2897.151320348512
 31
0.0
  0
LINE
  5
522
  8
回03-記事
  6
CONTINUOUS
 62
     5
 10
125.5889657101099
 20
-2890.332192324589
 30
0.0
 11
125.5889657101099
 21
-2897.151320348512
 31
0.0
  0
LINE
  5
523
  8
回03-記事
  6
CONTINUOUS
 62
     5
 10
127.0889657101099
 20
-2896.151320348512
 30
0.0
 11
140.1827789781784
 21
-2896.151320348512
 31
0.0
  0
LINE
  5
524
  8
回03-記事
  6
CONTINUOUS
 62
     5
 10
122.7889657101088
 20
-2896.151320348512
 30
0.0
 11
125.5889657101099
 21
-2896.151320348512
 31
0.0
  0
LINE
  5
525
  8
回03-記事
  6
CONTINUOUS
 62
     5
 10
121.2889657101088
 20
-2896.151320348512
 30
0.0
 11
119.7889657101088
 21
-2896.151320348512
 31
0.0
  0
INSERT
  5
526
  8
回03-記事
  6
CONTINUOUS
 62
     5
  2
_OPEN
 10
122.7889657101088
 20
-2896.151320348512
 30
0.0
 41
1.5
 42
1.5
 43
1.5
  0
INSERT
  5
527
  8
回03-記事
  6
CONTINUOUS
 62
     5
  2
_OPEN
 10
125.5889657101099
 20
-2896.151320348512
 30
0.0
 41
1.5
 42
1.5
 43
1.5
 50
180.0
  0
INSERT
  5
528
  8
回03-記事
  6
CONTINUOUS
 62
     5
 66
     1
  2
*X100
 10
0.0
 20
0.0
 30
0.0
  0
SEQEND
  5
935
  8
回02-寸法
  6
CONTINUOUS
 62
     7
  0
POINT
  5
529
  8
DEFPOINTS
  6
CONTINUOUS
 62
     0
 10
122.7889657101088
 20
-2890.332192324589
 30
0.0
  0
POINT
  5
52A
  8
DEFPOINTS
  6
CONTINUOUS
 62
     0
 10
125.5889657101099
 20
-2890.332192324589
 30
0.0
  0
POINT
  5
52B
  8
DEFPOINTS
  6
CONTINUOUS
 62
     0
 10
125.5889657101099
 20
-2896.151320348512
 30
0.0
  0
ENDBLK
  5
52D
  8
回02-寸法
  6
CONTINUOUS
 62
     7
  0
BLOCK
  8
回02-寸法
  2
*D48
 70
     1
 10
0.0
 20
0.0
 30
0.0
  3
*D48
  1

  0
LINE
  5
52F
  8
回03-記事
  6
CONTINUOUS
 62
     5
 10
117.6308724166476
 20
-2880.33219232459
 30
0.0
 11
113.1100642266321
 21
-2880.33219232459
 31
0.0
  0
LINE
  5
530
  8
回03-記事
  6
CONTINUOUS
 62
     5
 10
117.6308724166476
 20
-2890.332192324589
 30
0.0
 11
113.1100642266321
 21
-2890.332192324589
 31
0.0
  0
LINE
  5
531
  8
回03-記事
  6
CONTINUOUS
 62
     5
 10
114.1100642266321
 20
-2881.832192324589
 30
0.0
 11
114.1100642266321
 21
-2888.832192324589
 31
0.0
  0
INSERT
  5
532
  8
回03-記事
  6
CONTINUOUS
 62
     5
  2
_OPEN
 10
114.1100642266321
 20
-2880.33219232459
 30
0.0
 41
1.5
 42
1.5
 43
1.5
 50
90.0
  0
INSERT
  5
533
  8
回03-記事
  6
CONTINUOUS
 62
     5
  2
_OPEN
 10
114.1100642266321
 20
-2890.332192324589
 30
0.0
 41
1.5
 42
1.5
 43
1.5
 50
270.0
  0
TEXT
  5
534
  8
回03-記事
  6
CONTINUOUS
 62
     5
 10
113.4600642266323
 20
-2888.33219232459
 30
0.0
 40
3.0
  1
(10)
 50
90.0
  0
POINT
  5
535
  8
DEFPOINTS
  6
CONTINUOUS
 62
     0
 10
117.6308724166476
 20
-2880.33219232459
 30
0.0
  0
POINT
  5
536
  8
DEFPOINTS
  6
CONTINUOUS
 62
     0
 10
117.6308724166476
 20
-2890.332192324589
 30
0.0
  0
POINT
  5
537
  8
DEFPOINTS
  6
CONTINUOUS
 62
     0
 10
114.1100642266321
 20
-2890.332192324589
 30
0.0
  0
ENDBLK
  5
539
  8
回02-寸法
  6
CONTINUOUS
 62
     7
  0
BLOCK
  8
回02-寸法
  2
*D49
 70
     1
 10
0.0
 20
0.0
 30
0.0
  3
*D49
  1

  0
LINE
  5
53B
  8
回03-記事
  6
CONTINUOUS
 62
     5
 10
125.5889657101099
 20
-2890.332192324589
 30
0.0
 11
132.7850847471262
 21
-2890.332192324589
 31
0.0
  0
LINE
  5
53C
  8
回03-記事
  6
CONTINUOUS
 62
     5
 10
126.3889657101092
 20
-2885.33219232459
 30
0.0
 11
132.7850847471262
 21
-2885.33219232459
 31
0.0
  0
LINE
  5
53D
  8
回03-記事
  6
CONTINUOUS
 62
     5
 10
131.7850847471262
 20
-2888.832192324589
 30
0.0
 11
131.7850847471262
 21
-2886.83219232459
 31
0.0
  0
INSERT
  5
53E
  8
回03-記事
  6
CONTINUOUS
 62
     5
  2
_OPEN
 10
131.7850847471262
 20
-2890.332192324589
 30
0.0
 41
1.5
 42
1.5
 43
1.5
 50
270.0
  0
INSERT
  5
53F
  8
回03-記事
  6
CONTINUOUS
 62
     5
  2
_OPEN
 10
131.7850847471262
 20
-2885.33219232459
 30
0.0
 41
1.5
 42
1.5
 43
1.5
 50
90.0
  0
TEXT
  5
540
  8
回03-記事
  6
CONTINUOUS
 62
     5
 10
131.2850847471263
 20
-2888.88219232459
 30
0.0
 40
3.0
  1
5
 50
90.0
  0
POINT
  5
541
  8
DEFPOINTS
  6
CONTINUOUS
 62
     0
 10
125.5889657101099
 20
-2890.332192324589
 30
0.0
  0
POINT
  5
542
  8
DEFPOINTS
  6
CONTINUOUS
 62
     0
 10
126.3889657101092
 20
-2885.33219232459
 30
0.0
  0
POINT
  5
543
  8
DEFPOINTS
  6
CONTINUOUS
 62
     0
 10
131.7850847471262
 20
-2885.33219232459
 30
0.0
  0
ENDBLK
  5
545
  8
回02-寸法
  6
CONTINUOUS
 62
     7
  0
BLOCK
  8
回02-寸法
  2
*D50
 70
     1
 10
0.0
 20
0.0
 30
0.0
  3
*D50
  1

  0
LINE
  5
547
  8
回03-記事
  6
CONTINUOUS
 62
     5
 10
94.87277912318608
 20
-2706.629664074661
 30
0.0
 11
94.87277912318608
 21
-2696.088508077521
 31
0.0
  0
LINE
  5
548
  8
回03-記事
  6
CONTINUOUS
 62
     5
 10
133.5889657101099
 20
-2718.93219232459
 30
0.0
 11
133.5889657101099
 21
-2696.088508077521
 31
0.0
  0
LINE
  5
549
  8
回03-記事
  6
CONTINUOUS
 62
     5
 10
96.37277912318609
 20
-2697.088508077521
 30
0.0
 11
132.0889657101099
 21
-2697.088508077521
 31
0.0
  0
INSERT
  5
54A
  8
回03-記事
  6
CONTINUOUS
 62
     5
  2
_OPEN
 10
94.87277912318608
 20
-2697.088508077521
 30
0.0
 41
1.5
 42
1.5
 43
1.5
 50
180.0
  0
INSERT
  5
54B
  8
回03-記事
  6
CONTINUOUS
 62
     5
  2
_OPEN
 10
133.5889657101099
 20
-2697.088508077521
 30
0.0
 41
1.5
 42
1.5
 43
1.5
  0
INSERT
  5
54C
  8
回03-記事
  6
CONTINUOUS
 62
     5
 66
     1
  2
*X101
 10
0.0
 20
0.0
 30
0.0
  0
SEQEND
  5
93B
  8
回02-寸法
  6
CONTINUOUS
 62
     7
  0
POINT
  5
54D
  8
DEFPOINTS
  6
CONTINUOUS
 62
     0
 10
94.87277912318608
 20
-2706.629664074661
 30
0.0
  0
POINT
  5
54E
  8
DEFPOINTS
  6
CONTINUOUS
 62
     0
 10
133.5889657101099
 20
-2718.93219232459
 30
0.0
  0
POINT
  5
54F
  8
DEFPOINTS
  6
CONTINUOUS
 62
     0
 10
133.5889657101099
 20
-2697.088508077521
 30
0.0
  0
ENDBLK
  5
551
  8
回02-寸法
  6
CONTINUOUS
 62
     7
  0
BLOCK
  8
回02-寸法
  2
*D51
 70
     1
 10
0.0
 20
0.0
 30
0.0
  3
*D51
  1

  0
LINE
  5
553
  8
回03-記事
  6
CONTINUOUS
 62
     5
 10
-145.9621509018427
 20
-2942.061445147
 30
0.0
 11
-145.9621509018427
 21
-2952.65488841179
 31
0.0
  0
LINE
  5
554
  8
回03-記事
  6
CONTINUOUS
 62
     5
 10
-147.402150901843
 20
-2942.061445147
 30
0.0
 11
-147.402150901843
 21
-2952.65488841179
 31
0.0
  0
LINE
  5
555
  8
回03-記事
  6
CONTINUOUS
 62
     5
 10
-149.402150901843
 20
-2951.65488841179
 30
0.0
 11
-156.6666451409234
 21
-2951.65488841179
 31
0.0
  0
LINE
  5
556
  8
回03-記事
  6
CONTINUOUS
 62
     5
 10
-145.9621509018427
 20
-2951.65488841179
 30
0.0
 11
-147.402150901843
 21
-2951.65488841179
 31
0.0
  0
LINE
  5
557
  8
回03-記事
  6
CONTINUOUS
 62
     5
 10
-143.9621509018427
 20
-2951.65488841179
 30
0.0
 11
-141.9621509018427
 21
-2951.65488841179
 31
0.0
  0
INSERT
  5
558
  8
回03-記事
  6
CONTINUOUS
 62
     5
  2
_OPEN
 10
-145.9621509018427
 20
-2951.65488841179
 30
0.0
 41
2.0
 42
2.0
 43
2.0
 50
180.0
  0
INSERT
  5
559
  8
回03-記事
  6
CONTINUOUS
 62
     5
  2
_OPEN
 10
-147.402150901843
 20
-2951.65488841179
 30
0.0
 41
2.0
 42
2.0
 43
2.0
  0
TEXT
  5
55A
  8
回03-記事
  6
CONTINUOUS
 62
     5
 10
-156.614282936199
 20
-2951.15488841179
 30
0.0
 40
3.0
  1
0.5
  0
POINT
  5
55B
  8
DEFPOINTS
  6
CONTINUOUS
 62
     0
 10
-145.9621509018427
 20
-2942.061445147
 30
0.0
  0
POINT
  5
55C
  8
DEFPOINTS
  6
CONTINUOUS
 62
     0
 10
-147.402150901843
 20
-2942.061445147
 30
0.0
  0
POINT
  5
55D
  8
DEFPOINTS
  6
CONTINUOUS
 62
     0
 10
-147.402150901843
 20
-2951.65488841179
 30
0.0
  0
ENDBLK
  5
55F
  8
回02-寸法
  6
CONTINUOUS
 62
     7
  0
BLOCK
  8
回02-寸法
  2
*D52
 70
     1
 10
0.0
 20
0.0
 30
0.0
  3
*D52
  1

  0
LINE
  5
561
  8
回03-記事
  6
CONTINUOUS
 62
     5
 10
-146.970150901843
 20
-2942.061445147
 30
0.0
 11
-146.970150901843
 21
-2946.04110388123
 31
0.0
  0
LINE
  5
562
  8
回03-記事
  6
CONTINUOUS
 62
     5
 10
-147.8341509018428
 20
-2941.99511759704
 30
0.0
 11
-147.8341509018428
 21
-2946.04110388123
 31
0.0
  0
LINE
  5
563
  8
回03-記事
  6
CONTINUOUS
 62
     5
 10
-149.8341509018428
 20
-2945.04110388123
 30
0.0
 11
-157.0986451409232
 21
-2945.04110388123
 31
0.0
  0
LINE
  5
564
  8
回03-記事
  6
CONTINUOUS
 62
     5
 10
-146.970150901843
 20
-2945.04110388123
 30
0.0
 11
-147.8341509018428
 21
-2945.04110388123
 31
0.0
  0
LINE
  5
565
  8
回03-記事
  6
CONTINUOUS
 62
     5
 10
-144.970150901843
 20
-2945.04110388123
 30
0.0
 11
-142.970150901843
 21
-2945.04110388123
 31
0.0
  0
INSERT
  5
566
  8
回03-記事
  6
CONTINUOUS
 62
     5
  2
_OPEN
 10
-146.970150901843
 20
-2945.04110388123
 30
0.0
 41
2.0
 42
2.0
 43
2.0
 50
180.0
  0
INSERT
  5
567
  8
回03-記事
  6
CONTINUOUS
 62
     5
  2
_OPEN
 10
-147.8341509018428
 20
-2945.04110388123
 30
0.0
 41
2.0
 42
2.0
 43
2.0
  0
TEXT
  5
568
  8
回03-記事
  6
CONTINUOUS
 62
     5
 10
-157.0462829361988
 20
-2944.54110388123
 30
0.0
 40
3.0
  1
0.3
  0
POINT
  5
569
  8
DEFPOINTS
  6
CONTINUOUS
 62
     0
 10
-146.970150901843
 20
-2942.061445147
 30
0.0
  0
POINT
  5
56A
  8
DEFPOINTS
  6
CONTINUOUS
 62
     0
 10
-147.8341509018428
 20
-2941.99511759704
 30
0.0
  0
POINT
  5
56B
  8
DEFPOINTS
  6
CONTINUOUS
 62
     0
 10
-147.8341509018428
 20
-2945.04110388123
 30
0.0
  0
ENDBLK
  5
56D
  8
回02-寸法
  6
CONTINUOUS
 62
     7
  0
BLOCK
  8
回02-寸法
  2
*X53
 70
     1
 10
0.0
 20
0.0
 30
0.0
  3
*X53
  1

  0
TEXT
  5
581
  8
回02-寸法
  6
CONTINUOUS
 62
     5
 10
73.15401792075582
 20
-2844.198883784908
 30
0.0
 40
3.0
  1
4-R2
  7
Standard
  0
TEXT
  5
582
  8
回02-寸法
  6
CONTINUOUS
 62
     5
 10
82.15401792075581
 20
-2844.198883784908
 30
0.0
 40
2.00001
  1
±0.5
  7
Standard
  0
LINE
  5
583
  8
回02-寸法
  6
BYBLOCK
 62
     5
 10
71.24401792075582
 20
-2844.798883784907
 30
0.0
 11
71.60401792075582
 21
-2844.798883784907
 31
0.0
  0
POLYLINE
  5
584
  8
回02-寸法
  6
BYBLOCK
 62
     5
 66
     1
 10
0.0
 20
0.0
 30
0.0
  0
VERTEX
  5
585
  8
回02-寸法
  6
BYBLOCK
 62
     5
 10
67.79098797267811
 20
-2840.744894930164
 30
0.0
  0
VERTEX
  5
587
  8
回02-寸法
  6
BYBLOCK
 62
     5
 10
71.24401792075582
 20
-2844.798883784907
 30
0.0
  0
SEQEND
  5
586
  8
回02-寸法
  6
CONTINUOUS
 62
     7
  0
SOLID
  5
588
  8
回02-寸法
  6
CONTINUOUS
 62
     5
 10
67.53722885962872
 20
-2840.961037067785
 30
0.0
 11
66.49413514695038
 21
-2839.222340251868
 31
0.0
 12
68.04474708572749
 22
-2840.528752792542
 32
0.0
 13
68.04474708572749
 23
-2840.528752792542
 33
0.0
  0
POLYLINE
  5
589
  8
回02-寸法
  6
BYBLOCK
 62
     5
 66
     1
 10
0.0
 20
0.0
 30
0.0
  0
VERTEX
  5
58A
  8
回02-寸法
  6
BYBLOCK
 62
     5
 10
71.60401792075582
 20
-2844.798883784907
 30
0.0
  0
VERTEX
  5
58C
  8
回02-寸法
  6
BYBLOCK
 62
     5
 10
86.65404042075582
 20
-2844.798883784907
 30
0.0
  0
SEQEND
  5
58B
  8
回02-寸法
  6
CONTINUOUS
 62
     7
  0
ENDBLK
  5
58E
  8
回02-寸法
  6
CONTINUOUS
 62
     7
  0
BLOCK
  8
回02-寸法
  2
*X54
 70
     1
 10
0.0
 20
0.0
 30
0.0
  3
*X54
  1

  0
TEXT
  5
591
  8
回02-寸法
  6
CONTINUOUS
 62
     5
 10
-147.459754798136
 20
-2859.035879998054
 30
0.0
 40
3.0
  1
Reference point
  7
Standard
  0
LINE
  5
592
  8
回02-寸法
  6
BYBLOCK
 62
     5
 10
-116.449754798136
 20
-2859.785879998054
 30
0.0
 11
-116.809754798136
 21
-2859.785879998054
 31
0.0
  0
POLYLINE
  5
593
  8
回02-寸法
  6
BYBLOCK
 62
     5
 66
     1
 10
0.0
 20
0.0
 30
0.0
  0
VERTEX
  5
594
  8
回02-寸法
  6
BYBLOCK
 62
     5
 10
-110.898262645507
 20
-2834.24095344463
 30
0.0
  0
VERTEX
  5
596
  8
回02-寸法
  6
BYBLOCK
 62
     5
 10
-116.449754798136
 20
-2859.785879998054
 30
0.0
  0
SEQEND
  5
595
  8
回02-寸法
  6
CONTINUOUS
 62
     7
  0
SOLID
  5
597
  8
回02-寸法
  6
CONTINUOUS
 62
     5
 10
-111.5497228321806
 20
-2834.099376364481
 30
0.0
 11
-110.0488001646097
 21
-2830.332192324588
 31
0.0
 12
-110.2468024588334
 22
-2834.38253052478
 32
0.0
 13
-110.2468024588334
 23
-2834.38253052478
 33
0.0
  0
POLYLINE
  5
598
  8
回02-寸法
  6
BYBLOCK
 62
     5
 66
     1
 10
0.0
 20
0.0
 30
0.0
  0
VERTEX
  5
599
  8
回02-寸法
  6
BYBLOCK
 62
     5
 10
-147.009754798136
 20
-2859.785879998054
 30
0.0
  0
VERTEX
  5
59B
  8
回02-寸法
  6
BYBLOCK
 62
     5
 10
-116.809754798136
 20
-2859.785879998054
 30
0.0
  0
SEQEND
  5
59A
  8
回02-寸法
  6
CONTINUOUS
 62
     7
  0
ENDBLK
  5
59D
  8
回02-寸法
  6
CONTINUOUS
 62
     7
  0
BLOCK
  8
回02-寸法
  2
*X55
 70
     1
 10
0.0
 20
0.0
 30
0.0
  3
*X55
  1

  0
TEXT
  5
5A3
  8
回03-記事
  6
CONTINUOUS
 62
     5
 10
80.62456239542724
 20
-2750.564971656853
 30
0.0
 40
5.0
  1
8
  7
Standard
  0
LINE
  5
5A4
  8
回03-記事
  6
BYBLOCK
 62
     5
 10
85.73456239542725
 20
-2751.564971656853
 30
0.0
 11
85.37456239542725
 21
-2751.564971656853
 31
0.0
  0
POLYLINE
  5
5A5
  8
回03-記事
  6
BYBLOCK
 62
     5
 66
     1
 10
0.0
 20
0.0
 30
0.0
  0
VERTEX
  5
5A6
  8
回03-記事
  6
BYBLOCK
 62
     5
 10
97.49980180445959
 20
-2757.299414556027
 30
0.0
  0
VERTEX
  5
5A8
  8
回03-記事
  6
BYBLOCK
 62
     5
 10
85.73456239542725
 20
-2751.564971656853
 30
0.0
  0
SEQEND
  5
5A7
  8
回02-寸法
  6
CONTINUOUS
 62
     7
  0
INSERT
  5
5A9
  8
回03-記事
  6
CONTINUOUS
 62
     5
  2
_DOT
 10
99.29762149744806
 20
-2758.175681839168
 30
0.0
 41
2.0
 42
2.0
 43
2.0
 50
334.0151393637415
  0
POLYLINE
  5
5AA
  8
回03-記事
  6
BYBLOCK
 62
     5
 66
     1
 10
0.0
 20
0.0
 30
0.0
  0
VERTEX
  5
5AB
  8
回03-記事
  6
BYBLOCK
 62
     5
 10
81.37456239542725
 20
-2751.564971656853
 30
0.0
  0
VERTEX
  5
5AD
  8
回03-記事
  6
BYBLOCK
 62
     5
 10
85.37456239542725
 20
-2751.564971656853
 30
0.0
  0
SEQEND
  5
5AC
  8
回02-寸法
  6
CONTINUOUS
 62
     7
  0
ENDBLK
  5
5AF
  8
回02-寸法
  6
CONTINUOUS
 62
     7
  0
BLOCK
  8
回02-寸法
  2
*X56
 70
     1
 10
0.0
 20
0.0
 30
0.0
  3
*X56
  1

  0
LINE
  5
5B2
  8
回03-記事
  6
BYBLOCK
 62
     5
 10
134.7554453913801
 20
-2840.908692484735
 30
0.0
 11
135.1154453913801
 21
-2840.908692484735
 31
0.0
  0
POLYLINE
  5
5B3
  8
回03-記事
  6
BYBLOCK
 62
     5
 66
     1
 10
0.0
 20
0.0
 30
0.0
  0
VERTEX
  5
5B4
  8
回03-記事
  6
BYBLOCK
 62
     5
 10
126.819042973005
 20
-2833.594041455258
 30
0.0
  0
VERTEX
  5
5B6
  8
回03-記事
  6
BYBLOCK
 62
     5
 10
134.7554453913801
 20
-2840.908692484735
 30
0.0
  0
SEQEND
  5
5B5
  8
回02-寸法
  6
CONTINUOUS
 62
     7
  0
INSERT
  5
5B7
  8
回03-記事
  6
CONTINUOUS
 62
     5
  2
_DOTSMALL
 10
126.819042973005
 20
-2833.594041455258
 30
0.0
 41
1.5
 42
1.5
 43
1.5
 50
137.3345282077879
  0
POLYLINE
  5
5B8
  8
回03-記事
  6
BYBLOCK
 62
     5
 66
     1
 10
0.0
 20
0.0
 30
0.0
  0
VERTEX
  5
5B9
  8
回03-記事
  6
BYBLOCK
 62
     5
 10
135.1154453913801
 20
-2840.908692484735
 30
0.0
  0
VERTEX
  5
5BB
  8
回03-記事
  6
BYBLOCK
 62
     5
 10
137.1154453913801
 20
-2840.908692484735
 30
0.0
  0
SEQEND
  5
5BA
  8
回02-寸法
  6
CONTINUOUS
 62
     7
  0
ENDBLK
  5
5BD
  8
回02-寸法
  6
CONTINUOUS
 62
     7
  0
BLOCK
  8
回02-寸法
  2
*X57
 70
     1
 10
0.0
 20
0.0
 30
0.0
  3
*X57
  1

  0
TEXT
  5
5C0
  8
回03-記事
  6
CONTINUOUS
 62
     5
 10
136.3654453913801
 20
-2839.908692484736
 30
0.0
 40
5.0
  1
7
  7
Standard
  0
LINE
  5
5C1
  8
回03-記事
  6
BYBLOCK
 62
     5
 10
134.7554453913801
 20
-2840.908692484735
 30
0.0
 11
135.1154453913801
 21
-2840.908692484735
 31
0.0
  0
POLYLINE
  5
5C2
  8
回03-記事
  6
BYBLOCK
 62
     5
 66
     1
 10
0.0
 20
0.0
 30
0.0
  0
VERTEX
  5
5C3
  8
回03-記事
  6
BYBLOCK
 62
     5
 10
121.8245850288879
 20
-2835.644877484284
 30
0.0
  0
VERTEX
  5
5C5
  8
回03-記事
  6
BYBLOCK
 62
     5
 10
134.7554453913801
 20
-2840.908692484735
 30
0.0
  0
SEQEND
  5
5C4
  8
回02-寸法
  6
CONTINUOUS
 62
     7
  0
INSERT
  5
5C6
  8
回03-記事
  6
CONTINUOUS
 62
     5
  2
_DOTSMALL
 10
121.8245850288879
 20
-2835.644877484284
 30
0.0
 41
1.5
 42
1.5
 43
1.5
 50
157.8500473735716
  0
POLYLINE
  5
5C7
  8
回03-記事
  6
BYBLOCK
 62
     5
 66
     1
 10
0.0
 20
0.0
 30
0.0
  0
VERTEX
  5
5C8
  8
回03-記事
  6
BYBLOCK
 62
     5
 10
135.1154453913801
 20
-2840.908692484735
 30
0.0
  0
VERTEX
  5
5CA
  8
回03-記事
  6
BYBLOCK
 62
     5
 10
139.1154453913801
 20
-2840.908692484735
 30
0.0
  0
SEQEND
  5
5C9
  8
回02-寸法
  6
CONTINUOUS
 62
     7
  0
ENDBLK
  5
5CC
  8
回02-寸法
  6
CONTINUOUS
 62
     7
  0
BLOCK
  8
回02-寸法
  2
*X58
 70
     1
 10
0.0
 20
0.0
 30
0.0
  3
*X58
  1

  0
LINE
  5
5CF
  8
回03-記事
  6
BYBLOCK
 62
     5
 10
84.97128138841095
 20
-2786.931467663947
 30
0.0
 11
84.61128138841095
 21
-2786.931467663947
 31
0.0
  0
POLYLINE
  5
5D0
  8
回03-記事
  6
BYBLOCK
 62
     5
 66
     1
 10
0.0
 20
0.0
 30
0.0
  0
VERTEX
  5
5D1
  8
回03-記事
  6
BYBLOCK
 62
     5
 10
106.1697125883495
 20
-2800.712486593111
 30
0.0
  0
VERTEX
  5
5D3
  8
回03-記事
  6
BYBLOCK
 62
     5
 10
84.97128138841095
 20
-2786.931467663947
 30
0.0
  0
SEQEND
  5
5D2
  8
回02-寸法
  6
CONTINUOUS
 62
     7
  0
INSERT
  5
5D4
  8
回03-記事
  6
CONTINUOUS
 62
     5
  2
_DOT
 10
107.8465261311778
 20
-2801.802576654798
 30
0.0
 41
2.0
 42
2.0
 43
2.0
 50
326.9722590646785
  0
POLYLINE
  5
5D5
  8
回03-記事
  6
BYBLOCK
 62
     5
 66
     1
 10
0.0
 20
0.0
 30
0.0
  0
VERTEX
  5
5D6
  8
回03-記事
  6
BYBLOCK
 62
     5
 10
82.61128138841094
 20
-2786.931467663947
 30
0.0
  0
VERTEX
  5
5D8
  8
回03-記事
  6
BYBLOCK
 62
     5
 10
84.61128138841095
 20
-2786.931467663947
 30
0.0
  0
SEQEND
  5
5D7
  8
回02-寸法
  6
CONTINUOUS
 62
     7
  0
ENDBLK
  5
5DA
  8
回02-寸法
  6
CONTINUOUS
 62
     7
  0
BLOCK
  8
回02-寸法
  2
*X59
 70
     1
 10
0.0
 20
0.0
 30
0.0
  3
*X59
  1

  0
TEXT
  5
5DD
  8
回03-記事
  6
CONTINUOUS
 62
     5
 10
79.85710624624146
 20
-2785.931467663947
 30
0.0
 40
5.0
  1
6
  7
Standard
  0
LINE
  5
5DE
  8
回03-記事
  6
BYBLOCK
 62
     5
 10
84.97128138841095
 20
-2786.931467663947
 30
0.0
 11
84.61128138841095
 21
-2786.931467663947
 31
0.0
  0
POLYLINE
  5
5DF
  8
回03-記事
  6
BYBLOCK
 62
     5
 66
     1
 10
0.0
 20
0.0
 30
0.0
  0
VERTEX
  5
5E0
  8
回03-記事
  6
BYBLOCK
 62
     5
 10
120.2241427490926
 20
-2797.416749585883
 30
0.0
  0
VERTEX
  5
5E2
  8
回03-記事
  6
BYBLOCK
 62
     5
 10
84.97128138841095
 20
-2786.931467663947
 30
0.0
  0
SEQEND
  5
5E1
  8
回02-寸法
  6
CONTINUOUS
 62
     7
  0
INSERT
  5
5E3
  8
回03-記事
  6
CONTINUOUS
 62
     5
  2
_DOT
 10
122.1411456120279
 20
-2797.986925018096
 30
0.0
 41
2.0
 42
2.0
 43
2.0
 50
343.4359081304889
  0
POLYLINE
  5
5E4
  8
回03-記事
  6
BYBLOCK
 62
     5
 66
     1
 10
0.0
 20
0.0
 30
0.0
  0
VERTEX
  5
5E5
  8
回03-記事
  6
BYBLOCK
 62
     5
 10
80.60710624624146
 20
-2786.931467663947
 30
0.0
  0
VERTEX
  5
5E7
  8
回03-記事
  6
BYBLOCK
 62
     5
 10
84.61128138841095
 20
-2786.931467663947
 30
0.0
  0
SEQEND
  5
5E6
  8
回02-寸法
  6
CONTINUOUS
 62
     7
  0
ENDBLK
  5
5E9
  8
回02-寸法
  6
CONTINUOUS
 62
     7
  0
BLOCK
  8
回02-寸法
  2
*X60
 70
     1
 10
0.0
 20
0.0
 30
0.0
  3
*X60
  1

  0
LINE
  5
5EC
  8
回03-記事
  6
BYBLOCK
 62
     5
 10
114.6920449685733
 20
-2871.500296178253
 30
0.0
 11
114.3320449685733
 21
-2871.500296178253
 31
0.0
  0
POLYLINE
  5
5ED
  8
回03-記事
  6
BYBLOCK
 62
     5
 66
     1
 10
0.0
 20
0.0
 30
0.0
  0
VERTEX
  5
5EE
  8
回03-記事
  6
BYBLOCK
 62
     5
 10
118.4466419852344
 20
-2881.616005243048
 30
0.0
  0
VERTEX
  5
5F0
  8
回03-記事
  6
BYBLOCK
 62
     5
 10
114.6920449685733
 20
-2871.500296178253
 30
0.0
  0
SEQEND
  5
5EF
  8
回02-寸法
  6
CONTINUOUS
 62
     7
  0
INSERT
  5
5F1
  8
回03-記事
  6
CONTINUOUS
 62
     5
  2
_DOTSMALL
 10
118.4466419852344
 20
-2881.616005243048
 30
0.0
 41
2.0
 42
2.0
 43
2.0
 50
290.3631626698112
  0
POLYLINE
  5
5F2
  8
回03-記事
  6
BYBLOCK
 62
     5
 66
     1
 10
0.0
 20
0.0
 30
0.0
  0
VERTEX
  5
5F3
  8
回03-記事
  6
BYBLOCK
 62
     5
 10
112.3320449685733
 20
-2871.500296178253
 30
0.0
  0
VERTEX
  5
5F5
  8
回03-記事
  6
BYBLOCK
 62
     5
 10
114.3320449685733
 20
-2871.500296178253
 30
0.0
  0
SEQEND
  5
5F4
  8
回02-寸法
  6
CONTINUOUS
 62
     7
  0
ENDBLK
  5
5F7
  8
回02-寸法
  6
CONTINUOUS
 62
     7
  0
BLOCK
  8
回02-寸法
  2
*X61
 70
     1
 10
0.0
 20
0.0
 30
0.0
  3
*X61
  1

  0
TEXT
  5
5FA
  8
回03-記事
  6
CONTINUOUS
 62
     5
 10
109.5820449685733
 20
-2870.500296178253
 30
0.0
 40
5.0
  1
5
  7
Standard
  0
LINE
  5
5FB
  8
回03-記事
  6
BYBLOCK
 62
     5
 10
114.6920449685733
 20
-2871.500296178253
 30
0.0
 11
114.3320449685733
 21
-2871.500296178253
 31
0.0
  0
POLYLINE
  5
5FC
  8
回03-記事
  6
BYBLOCK
 62
     5
 66
     1
 10
0.0
 20
0.0
 30
0.0
  0
VERTEX
  5
5FD
  8
回03-記事
  6
BYBLOCK
 62
     5
 10
123.6762536386143
 20
-2881.616005243048
 30
0.0
  0
VERTEX
  5
5FF
  8
回03-記事
  6
BYBLOCK
 62
     5
 10
114.6920449685733
 20
-2871.500296178253
 30
0.0
  0
SEQEND
  5
5FE
  8
回02-寸法
  6
CONTINUOUS
 62
     7
  0
INSERT
  5
600
  8
回03-記事
  6
CONTINUOUS
 62
     5
  2
_DOTSMALL
 10
123.6762536386143
 20
-2881.616005243048
 30
0.0
 41
2.0
 42
2.0
 43
2.0
 50
311.6096966173753
  0
POLYLINE
  5
601
  8
回03-記事
  6
BYBLOCK
 62
     5
 66
     1
 10
0.0
 20
0.0
 30
0.0
  0
VERTEX
  5
602
  8
回03-記事
  6
BYBLOCK
 62
     5
 10
110.3320449685733
 20
-2871.500296178253
 30
0.0
  0
VERTEX
  5
604
  8
回03-記事
  6
BYBLOCK
 62
     5
 10
114.3320449685733
 20
-2871.500296178253
 30
0.0
  0
SEQEND
  5
603
  8
回02-寸法
  6
CONTINUOUS
 62
     7
  0
ENDBLK
  5
606
  8
回02-寸法
  6
CONTINUOUS
 62
     7
  0
BLOCK
  8
回02-寸法
  2
*X62
 70
     1
 10
0.0
 20
0.0
 30
0.0
  3
*X62
  1

  0
LINE
  5
609
  8
回03-記事
  6
BYBLOCK
 62
     5
 10
113.2367594122663
 20
-2843.445313971988
 30
0.0
 11
112.8767594122663
 21
-2843.445313971988
 31
0.0
  0
POLYLINE
  5
60A
  8
回03-記事
  6
BYBLOCK
 62
     5
 66
     1
 10
0.0
 20
0.0
 30
0.0
  0
VERTEX
  5
60B
  8
回03-記事
  6
BYBLOCK
 62
     5
 10
120.9571023551436
 20
-2849.829329614374
 30
0.0
  0
VERTEX
  5
60D
  8
回03-記事
  6
BYBLOCK
 62
     5
 10
113.2367594122663
 20
-2843.445313971988
 30
0.0
  0
SEQEND
  5
60C
  8
回02-寸法
  6
CONTINUOUS
 62
     7
  0
INSERT
  5
60E
  8
回03-記事
  6
CONTINUOUS
 62
     5
  2
_DOTSMALL
 10
120.9571023551436
 20
-2849.829329614374
 30
0.0
 41
2.0
 42
2.0
 43
2.0
 50
320.4123720497904
  0
POLYLINE
  5
60F
  8
回03-記事
  6
BYBLOCK
 62
     5
 66
     1
 10
0.0
 20
0.0
 30
0.0
  0
VERTEX
  5
610
  8
回03-記事
  6
BYBLOCK
 62
     5
 10
110.8767594122663
 20
-2843.445313971988
 30
0.0
  0
VERTEX
  5
612
  8
回03-記事
  6
BYBLOCK
 62
     5
 10
112.8767594122663
 20
-2843.445313971988
 30
0.0
  0
SEQEND
  5
611
  8
回02-寸法
  6
CONTINUOUS
 62
     7
  0
ENDBLK
  5
614
  8
回02-寸法
  6
CONTINUOUS
 62
     7
  0
BLOCK
  8
回02-寸法
  2
*X63
 70
     1
 10
0.0
 20
0.0
 30
0.0
  3
*X63
  1

  0
LINE
  5
617
  8
回03-記事
  6
BYBLOCK
 62
     5
 10
113.2367594122663
 20
-2843.445313971988
 30
0.0
 11
112.8767594122663
 21
-2843.445313971988
 31
0.0
  0
POLYLINE
  5
618
  8
回03-記事
  6
BYBLOCK
 62
     5
 66
     1
 10
0.0
 20
0.0
 30
0.0
  0
VERTEX
  5
619
  8
回03-記事
  6
BYBLOCK
 62
     5
 10
118.7607988327802
 20
-2836.329795770439
 30
0.0
  0
VERTEX
  5
61B
  8
回03-記事
  6
BYBLOCK
 62
     5
 10
113.2367594122663
 20
-2843.445313971988
 30
0.0
  0
SEQEND
  5
61A
  8
回02-寸法
  6
CONTINUOUS
 62
     7
  0
INSERT
  5
61C
  8
回03-記事
  6
CONTINUOUS
 62
     5
  2
_DOTSMALL
 10
118.7607988327802
 20
-2836.329795770439
 30
0.0
 41
2.0
 42
2.0
 43
2.0
 50
52.17649075912969
  0
POLYLINE
  5
61D
  8
回03-記事
  6
BYBLOCK
 62
     5
 66
     1
 10
0.0
 20
0.0
 30
0.0
  0
VERTEX
  5
61E
  8
回03-記事
  6
BYBLOCK
 62
     5
 10
110.8767594122663
 20
-2843.445313971988
 30
0.0
  0
VERTEX
  5
620
  8
回03-記事
  6
BYBLOCK
 62
     5
 10
112.8767594122663
 20
-2843.445313971988
 30
0.0
  0
SEQEND
  5
61F
  8
回02-寸法
  6
CONTINUOUS
 62
     7
  0
ENDBLK
  5
622
  8
回02-寸法
  6
CONTINUOUS
 62
     7
  0
BLOCK
  8
回02-寸法
  2
*X64
 70
     1
 10
0.0
 20
0.0
 30
0.0
  3
*X64
  1

  0
TEXT
  5
625
  8
回03-記事
  6
CONTINUOUS
 62
     5
 10
107.6267594122663
 20
-2842.445313971988
 30
0.0
 40
5.0
  1
4
  7
Standard
  0
LINE
  5
626
  8
回03-記事
  6
BYBLOCK
 62
     5
 10
113.2367594122663
 20
-2843.445313971988
 30
0.0
 11
112.8767594122663
 21
-2843.445313971988
 31
0.0
  0
POLYLINE
  5
627
  8
回03-記事
  6
BYBLOCK
 62
     5
 66
     1
 10
0.0
 20
0.0
 30
0.0
  0
VERTEX
  5
628
  8
回03-記事
  6
BYBLOCK
 62
     5
 10
126.0152565794999
 20
-2847.169323457564
 30
0.0
  0
VERTEX
  5
62A
  8
回03-記事
  6
BYBLOCK
 62
     5
 10
113.2367594122663
 20
-2843.445313971988
 30
0.0
  0
SEQEND
  5
629
  8
回02-寸法
  6
CONTINUOUS
 62
     7
  0
INSERT
  5
62B
  8
回03-記事
  6
CONTINUOUS
 62
     5
  2
_DOTSMALL
 10
126.0152565794999
 20
-2847.169323457564
 30
0.0
 41
2.0
 42
2.0
 43
2.0
 50
343.7524084690837
  0
POLYLINE
  5
62C
  8
回03-記事
  6
BYBLOCK
 62
     5
 66
     1
 10
0.0
 20
0.0
 30
0.0
  0
VERTEX
  5
62D
  8
回03-記事
  6
BYBLOCK
 62
     5
 10
108.3767594122663
 20
-2843.445313971988
 30
0.0
  0
VERTEX
  5
62F
  8
回03-記事
  6
BYBLOCK
 62
     5
 10
112.8767594122663
 20
-2843.445313971988
 30
0.0
  0
SEQEND
  5
62E
  8
回02-寸法
  6
CONTINUOUS
 62
     7
  0
ENDBLK
  5
631
  8
回02-寸法
  6
CONTINUOUS
 62
     7
  0
BLOCK
  8
回02-寸法
  2
*X65
 70
     1
 10
0.0
 20
0.0
 30
0.0
  3
*X65
  1

  0
LINE
  5
634
  8
回03-記事
  6
BYBLOCK
 62
     5
 10
115.518349169429
 20
-2857.87104841094
 30
0.0
 11
115.158349169429
 21
-2857.87104841094
 31
0.0
  0
POLYLINE
  5
635
  8
回03-記事
  6
BYBLOCK
 62
     5
 66
     1
 10
0.0
 20
0.0
 30
0.0
  0
VERTEX
  5
636
  8
回03-記事
  6
BYBLOCK
 62
     5
 10
119.843266626159
 20
-2864.7152868551
 30
0.0
  0
VERTEX
  5
638
  8
回03-記事
  6
BYBLOCK
 62
     5
 10
115.518349169429
 20
-2857.87104841094
 30
0.0
  0
SEQEND
  5
637
  8
回02-寸法
  6
CONTINUOUS
 62
     7
  0
INSERT
  5
639
  8
回03-記事
  6
CONTINUOUS
 62
     5
  2
_DOTSMALL
 10
119.843266626159
 20
-2864.7152868551
 30
0.0
 41
2.0
 42
2.0
 43
2.0
 50
302.2890504231494
  0
POLYLINE
  5
63A
  8
回03-記事
  6
BYBLOCK
 62
     5
 66
     1
 10
0.0
 20
0.0
 30
0.0
  0
VERTEX
  5
63B
  8
回03-記事
  6
BYBLOCK
 62
     5
 10
113.158349169429
 20
-2857.87104841094
 30
0.0
  0
VERTEX
  5
63D
  8
回03-記事
  6
BYBLOCK
 62
     5
 10
115.158349169429
 20
-2857.87104841094
 30
0.0
  0
SEQEND
  5
63C
  8
回02-寸法
  6
CONTINUOUS
 62
     7
  0
ENDBLK
  5
63F
  8
回02-寸法
  6
CONTINUOUS
 62
     7
  0
BLOCK
  8
回02-寸法
  2
*X66
 70
     1
 10
0.0
 20
0.0
 30
0.0
  3
*X66
  1

  0
TEXT
  5
642
  8
回03-記事
  6
CONTINUOUS
 62
     5
 10
110.7683491694287
 20
-2856.87104841094
 30
0.0
 40
5.0
  1
3
  7
Standard
  0
LINE
  5
643
  8
回03-記事
  6
BYBLOCK
 62
     5
 10
115.8783491694287
 20
-2857.87104841094
 30
0.0
 11
115.5183491694287
 21
-2857.87104841094
 31
0.0
  0
POLYLINE
  5
644
  8
回03-記事
  6
BYBLOCK
 62
     5
 66
     1
 10
0.0
 20
0.0
 30
0.0
  0
VERTEX
  5
645
  8
回03-記事
  6
BYBLOCK
 62
     5
 10
124.8393686603106
 20
-2861.277442852518
 30
0.0
  0
VERTEX
  5
647
  8
回03-記事
  6
BYBLOCK
 62
     5
 10
115.8783491694287
 20
-2857.87104841094
 30
0.0
  0
SEQEND
  5
646
  8
回02-寸法
  6
CONTINUOUS
 62
     7
  0
INSERT
  5
648
  8
回03-記事
  6
CONTINUOUS
 62
     5
  2
_DOTSMALL
 10
124.8393686603106
 20
-2861.277442852518
 30
0.0
 41
2.0
 42
2.0
 43
2.0
 50
339.1864654492164
  0
POLYLINE
  5
649
  8
回03-記事
  6
BYBLOCK
 62
     5
 66
     1
 10
0.0
 20
0.0
 30
0.0
  0
VERTEX
  5
64A
  8
回03-記事
  6
BYBLOCK
 62
     5
 10
111.5183491694287
 20
-2857.87104841094
 30
0.0
  0
VERTEX
  5
64C
  8
回03-記事
  6
BYBLOCK
 62
     5
 10
115.5183491694287
 20
-2857.87104841094
 30
0.0
  0
SEQEND
  5
64B
  8
回02-寸法
  6
CONTINUOUS
 62
     7
  0
ENDBLK
  5
64E
  8
回02-寸法
  6
CONTINUOUS
 62
     7
  0
BLOCK
  8
回02-寸法
  2
*X67
 70
     1
 10
0.0
 20
0.0
 30
0.0
  3
*X67
  1

  0
TEXT
  5
651
  8
回03-記事
  6
CONTINUOUS
 62
     5
 10
146.7894174326881
 20
-2764.469945626137
 30
0.0
 40
5.0
  1
2
  7
Standard
  0
LINE
  5
652
  8
回03-記事
  6
BYBLOCK
 62
     5
 10
145.179417432688
 20
-2765.469945626137
 30
0.0
 11
145.5394174326881
 21
-2765.469945626137
 31
0.0
  0
POLYLINE
  5
653
  8
回03-記事
  6
BYBLOCK
 62
     5
 66
     1
 10
0.0
 20
0.0
 30
0.0
  0
VERTEX
  5
654
  8
回03-記事
  6
BYBLOCK
 62
     5
 10
131.8635114297409
 20
-2773.991798715792
 30
0.0
  0
VERTEX
  5
656
  8
回03-記事
  6
BYBLOCK
 62
     5
 10
145.179417432688
 20
-2765.469945626137
 30
0.0
  0
SEQEND
  5
655
  8
回02-寸法
  6
CONTINUOUS
 62
     7
  0
INSERT
  5
657
  8
回03-記事
  6
CONTINUOUS
 62
     5
  2
_DOT
 10
130.1789498606379
 20
-2775.06987678342
 30
0.0
 41
2.0
 42
2.0
 43
2.0
 50
212.618245648096
  0
POLYLINE
  5
658
  8
回03-記事
  6
BYBLOCK
 62
     5
 66
     1
 10
0.0
 20
0.0
 30
0.0
  0
VERTEX
  5
659
  8
回03-記事
  6
BYBLOCK
 62
     5
 10
145.5394174326881
 20
-2765.469945626137
 30
0.0
  0
VERTEX
  5
65B
  8
回03-記事
  6
BYBLOCK
 62
     5
 10
149.5405230504891
 20
-2765.469945626137
 30
0.0
  0
SEQEND
  5
65A
  8
回02-寸法
  6
CONTINUOUS
 62
     7
  0
ENDBLK
  5
65D
  8
回02-寸法
  6
CONTINUOUS
 62
     7
  0
BLOCK
  8
回02-寸法
  2
*X68
 70
     1
 10
0.0
 20
0.0
 30
0.0
  3
*X68
  1

  0
TEXT
  5
660
  8
回03-記事
  6
CONTINUOUS
 62
     5
 10
144.6332757417209
 20
-2742.699543223288
 30
0.0
 40
5.0
  1
1
  7
Standard
  0
LINE
  5
661
  8
回03-記事
  6
BYBLOCK
 62
     5
 10
143.0232757417209
 20
-2743.699543223288
 30
0.0
 11
143.3832757417209
 21
-2743.699543223288
 31
0.0
  0
POLYLINE
  5
662
  8
回03-記事
  6
BYBLOCK
 62
     5
 66
     1
 10
0.0
 20
0.0
 30
0.0
  0
VERTEX
  5
663
  8
回03-記事
  6
BYBLOCK
 62
     5
 10
117.1994440602881
 20
-2757.078716242914
 30
0.0
  0
VERTEX
  5
665
  8
回03-記事
  6
BYBLOCK
 62
     5
 10
143.0232757417209
 20
-2743.699543223288
 30
0.0
  0
SEQEND
  5
664
  8
回02-寸法
  6
CONTINUOUS
 62
     7
  0
INSERT
  5
666
  8
回03-記事
  6
CONTINUOUS
 62
     5
  2
_DOT
 10
115.4236270515614
 20
-2757.998756433078
 30
0.0
 41
2.0
 42
2.0
 43
2.0
 50
207.3884042090517
  0
POLYLINE
  5
667
  8
回03-記事
  6
BYBLOCK
 62
     5
 66
     1
 10
0.0
 20
0.0
 30
0.0
  0
VERTEX
  5
668
  8
回03-記事
  6
BYBLOCK
 62
     5
 10
143.3832757417209
 20
-2743.699543223288
 30
0.0
  0
VERTEX
  5
66A
  8
回03-記事
  6
BYBLOCK
 62
     5
 10
146.3832757417209
 20
-2743.699543223288
 30
0.0
  0
SEQEND
  5
669
  8
回02-寸法
  6
CONTINUOUS
 62
     7
  0
ENDBLK
  5
66C
  8
回02-寸法
  6
CONTINUOUS
 62
     7
  0
BLOCK
  8
回02-寸法
  2
*X69
 70
     1
 10
0.0
 20
0.0
 30
0.0
  3
*X69
  1

  0
LINE
  5
66F
  8
回03-記事
  6
CONTINUOUS
 62
     0
 10
126.3889657101091
 20
-2831.884219281054
 30
0.0
 11
127.940992666574
 21
-2830.33219232459
 31
0.0
1001
GradientColor1ACI
1070
     5
1001
GradientColor2ACI
1070
     2
1001
ACAD
1010
0.0
1020
0.0
1030
0.0
  0
LINE
  5
670
  8
回03-記事
  6
CONTINUOUS
 62
     0
 10
126.3889657101096
 20
-2833.680270505268
 30
0.0
 11
127.18896571011
 21
-2832.880270505268
 31
0.0
1001
GradientColor1ACI
1070
     5
1001
GradientColor2ACI
1070
     2
1001
ACAD
1010
0.0
1020
0.0
1030
0.0
  0
LINE
  5
671
  8
回03-記事
  6
CONTINUOUS
 62
     0
 10
128.9370438907873
 20
-2831.13219232459
 30
0.0
 11
129.7370438907875
 21
-2830.33219232459
 31
0.0
1001
GradientColor1ACI
1070
     5
1001
GradientColor2ACI
1070
     2
1001
ACAD
1010
0.0
1020
0.0
1030
0.0
  0
LINE
  5
672
  8
回03-記事
  6
CONTINUOUS
 62
     0
 10
126.3889657101093
 20
-2835.476321729482
 30
0.0
 11
127.1889657101093
 21
-2834.676321729482
 31
0.0
1001
GradientColor1ACI
1070
     5
1001
GradientColor2ACI
1070
     2
1001
ACAD
1010
0.0
1020
0.0
1030
0.0
  0
LINE
  5
673
  8
回03-記事
  6
CONTINUOUS
 62
     0
 10
130.7330951150007
 20
-2831.132192324591
 30
0.0
 11
131.5330951150007
 21
-2830.33219232459
 31
0.0
1001
GradientColor1ACI
1070
     5
1001
GradientColor2ACI
1070
     2
1001
ACAD
1010
0.0
1020
0.0
1030
0.0
  0
LINE
  5
674
  8
回03-記事
  6
CONTINUOUS
 62
     0
 10
133.5889657101105
 20
-2828.276321729481
 30
0.0
 11
134.3889657101102
 21
-2827.476321729481
 31
0.0
1001
GradientColor1ACI
1070
     5
1001
GradientColor2ACI
1070
     2
1001
ACAD
1010
0.0
1020
0.0
1030
0.0
  0
LINE
  5
675
  8
回03-記事
  6
CONTINUOUS
 62
     0
 10
126.3889657101096
 20
-2837.272372953695
 30
0.0
 11
127.1889657101095
 21
-2836.472372953696
 31
0.0
1001
GradientColor1ACI
1070
     5
1001
GradientColor2ACI
1070
     2
1001
ACAD
1010
0.0
1020
0.0
1030
0.0
  0
LINE
  5
676
  8
回03-記事
  6
CONTINUOUS
 62
     0
 10
132.5291463392149
 20
-2831.13219232459
 30
0.0
 11
133.329146339215
 21
-2830.33219232459
 31
0.0
1001
GradientColor1ACI
1070
     5
1001
GradientColor2ACI
1070
     2
1001
ACAD
1010
0.0
1020
0.0
1030
0.0
  0
LINE
  5
677
  8
回03-記事
  6
CONTINUOUS
 62
     0
 10
133.5889657101107
 20
-2830.072372953694
 30
0.0
 11
134.3889657101102
 21
-2829.272372953695
 31
0.0
1001
GradientColor1ACI
1070
     5
1001
GradientColor2ACI
1070
     2
1001
ACAD
1010
0.0
1020
0.0
1030
0.0
  0
LINE
  5
678
  8
回03-記事
  6
CONTINUOUS
 62
     0
 10
127.1251975634287
 20
-2838.332192324589
 30
0.0
 11
127.1889657101095
 21
-2838.268424177909
 31
0.0
1001
GradientColor1ACI
1070
     5
1001
GradientColor2ACI
1070
     2
1001
ACAD
1010
0.0
1020
0.0
1030
0.0
  0
LINE
  5
679
  8
回03-記事
  6
CONTINUOUS
 62
     0
 10
134.3251975634283
 20
-2831.13219232459
 30
0.0
 11
134.3889657101102
 21
-2831.068424177908
 31
0.0
1001
GradientColor1ACI
1070
     5
1001
GradientColor2ACI
1070
     2
1001
ACAD
1010
0.0
1020
0.0
1030
0.0
  0
ENDBLK
  5
67B
  8
回02-寸法
  6
CONTINUOUS
 62
     7
  0
BLOCK
  8
回02-寸法
  2
*X70
 70
     1
 10
0.0
 20
0.0
 30
0.0
  3
*X70
  1

  0
LINE
  5
67E
  8
回03-記事
  6
CONTINUOUS
 62
     0
 10
121.2308724166483
 20
-2831.654158901875
 30
0.0
 11
122.5528389939328
 21
-2830.33219232459
 31
0.0
1001
GradientColor1ACI
1070
     5
1001
GradientColor2ACI
1070
     2
1001
ACAD
1010
0.0
1020
0.0
1030
0.0
  0
LINE
  5
67F
  8
回03-記事
  6
CONTINUOUS
 62
     0
 10
121.2308724166483
 20
-2833.450210126088
 30
0.0
 11
122.0308724166483
 21
-2832.650210126088
 31
0.0
1001
GradientColor1ACI
1070
     5
1001
GradientColor2ACI
1070
     2
1001
ACAD
1010
0.0
1020
0.0
1030
0.0
  0
LINE
  5
680
  8
回03-記事
  6
CONTINUOUS
 62
     0
 10
123.5488902181463
 20
-2831.13219232459
 30
0.0
 11
124.3488902181463
 21
-2830.33219232459
 31
0.0
1001
GradientColor1ACI
1070
     5
1001
GradientColor2ACI
1070
     2
1001
ACAD
1010
0.0
1020
0.0
1030
0.0
  0
LINE
  5
681
  8
回03-記事
  6
CONTINUOUS
 62
     0
 10
121.2308724166486
 20
-2835.246261350301
 30
0.0
 11
122.0308724166488
 21
-2834.446261350301
 31
0.0
1001
GradientColor1ACI
1070
     5
1001
GradientColor2ACI
1070
     2
1001
ACAD
1010
0.0
1020
0.0
1030
0.0
  0
LINE
  5
682
  8
回03-記事
  6
CONTINUOUS
 62
     0
 10
121.2308724166483
 20
-2837.042312574515
 30
0.0
 11
122.0308724166485
 21
-2836.242312574515
 31
0.0
1001
GradientColor1ACI
1070
     5
1001
GradientColor2ACI
1070
     2
1001
ACAD
1010
0.0
1020
0.0
1030
0.0
  0
LINE
  5
683
  8
回03-記事
  6
CONTINUOUS
 62
     0
 10
121.7370438907877
 20
-2838.332192324589
 30
0.0
 11
122.0308724166488
 21
-2838.038363798728
 31
0.0
1001
GradientColor1ACI
1070
     5
1001
GradientColor2ACI
1070
     2
1001
ACAD
1010
0.0
1020
0.0
1030
0.0
  0
ENDBLK
  5
685
  8
回02-寸法
  6
CONTINUOUS
 62
     7
  0
BLOCK
  8
回02-寸法
  2
*X71
 70
     1
 10
0.0
 20
0.0
 30
0.0
  3
*X71
  1

  0
LINE
  5
7F6
  8
回04-CG
  6
CONTINUOUS
 62
     7
 10
-116.6487478511303
 20
-2708.61713659681
 30
0.0
 11
-115.1613276424606
 21
-2707.12971638814
 31
0.0
1001
GradientColor1ACI
1070
     5
1001
GradientColor2ACI
1070
     2
1001
ACAD
1010
0.0
1020
0.0
1030
0.0
  0
LINE
  5
7F7
  8
回04-CG
  6
CONTINUOUS
 62
     7
 10
-116.6488001646099
 20
-2713.107316970824
 30
0.0
 11
-110.6711472684472
 21
-2707.129664074662
 31
0.0
1001
GradientColor1ACI
1070
     5
1001
GradientColor2ACI
1070
     2
1001
ACAD
1010
0.0
1020
0.0
1030
0.0
  0
LINE
  5
7F8
  8
回04-CG
  6
CONTINUOUS
 62
     7
 10
-116.6488001646097
 20
-2717.597445031359
 30
0.0
 11
-106.1810192079125
 21
-2707.129664074661
 31
0.0
1001
GradientColor1ACI
1070
     5
1001
GradientColor2ACI
1070
     2
1001
ACAD
1010
0.0
1020
0.0
1030
0.0
  0
LINE
  5
7F9
  8
回04-CG
  6
CONTINUOUS
 62
     7
 10
-116.6488001646099
 20
-2722.087573091893
 30
0.0
 11
-101.6908911473779
 21
-2707.129664074661
 31
0.0
1001
GradientColor1ACI
1070
     5
1001
GradientColor2ACI
1070
     2
1001
ACAD
1010
0.0
1020
0.0
1030
0.0
  0
LINE
  5
7FA
  8
回04-CG
  6
CONTINUOUS
 62
     7
 10
-116.6488001646098
 20
-2726.577701152427
 30
0.0
 11
-97.20076308684326
 21
-2707.129664074661
 31
0.0
1001
GradientColor1ACI
1070
     5
1001
GradientColor2ACI
1070
     2
1001
ACAD
1010
0.0
1020
0.0
1030
0.0
  0
LINE
  5
7FB
  8
回04-CG
  6
CONTINUOUS
 62
     7
 10
-116.6488001646097
 20
-2731.067829212962
 30
0.0
 11
-92.71063502630852
 21
-2707.129664074661
 31
0.0
1001
GradientColor1ACI
1070
     5
1001
GradientColor2ACI
1070
     2
1001
ACAD
1010
0.0
1020
0.0
1030
0.0
  0
LINE
  5
7FC
  8
回04-CG
  6
CONTINUOUS
 62
     7
 10
-116.6488001646097
 20
-2735.557957273496
 30
0.0
 11
-88.22050696577424
 21
-2707.129664074661
 31
0.0
1001
GradientColor1ACI
1070
     5
1001
GradientColor2ACI
1070
     2
1001
ACAD
1010
0.0
1020
0.0
1030
0.0
  0
LINE
  5
7FD
  8
回04-CG
  6
CONTINUOUS
 62
     7
 10
-116.6488001646098
 20
-2740.048085334032
 30
0.0
 11
-83.73037890523983
 21
-2707.129664074662
 31
0.0
1001
GradientColor1ACI
1070
     5
1001
GradientColor2ACI
1070
     2
1001
ACAD
1010
0.0
1020
0.0
1030
0.0
  0
LINE
  5
7FE
  8
回04-CG
  6
CONTINUOUS
 62
     7
 10
-116.6488001646096
 20
-2744.538213394566
 30
0.0
 11
-102.0988001646096
 21
-2729.988213394566
 31
0.0
1001
GradientColor1ACI
1070
     5
1001
GradientColor2ACI
1070
     2
1001
ACAD
1010
0.0
1020
0.0
1030
0.0
  0
LINE
  5
7FF
  8
回04-CG
  6
CONTINUOUS
 62
     7
 10
-98.71025084470511
 20
-2726.599664074661
 30
0.0
 11
-79.24025084470509
 21
-2707.129664074661
 31
0.0
1001
GradientColor1ACI
1070
     5
1001
GradientColor2ACI
1070
     2
1001
ACAD
1010
0.0
1020
0.0
1030
0.0
  0
LINE
  5
800
  8
回04-CG
  6
CONTINUOUS
 62
     7
 10
-116.6488001646097
 20
-2749.028341455101
 30
0.0
 11
-102.0988001646099
 21
-2734.478341455101
 31
0.0
1001
GradientColor1ACI
1070
     5
1001
GradientColor2ACI
1070
     2
1001
ACAD
1010
0.0
1020
0.0
1030
0.0
  0
LINE
  5
801
  8
回04-CG
  6
CONTINUOUS
 62
     7
 10
-94.22012278417071
 20
-2726.599664074661
 30
0.0
 11
-74.75012278417068
 21
-2707.129664074662
 31
0.0
1001
GradientColor1ACI
1070
     5
1001
GradientColor2ACI
1070
     2
1001
ACAD
1010
0.0
1020
0.0
1030
0.0
  0
LINE
  5
802
  8
回04-CG
  6
CONTINUOUS
 62
     7
 10
-116.6488001646097
 20
-2753.518469515635
 30
0.0
 11
-102.0988001646097
 21
-2738.968469515635
 31
0.0
1001
GradientColor1ACI
1070
     5
1001
GradientColor2ACI
1070
     2
1001
ACAD
1010
0.0
1020
0.0
1030
0.0
  0
LINE
  5
803
  8
回04-CG
  6
CONTINUOUS
 62
     7
 10
-89.72999472363614
 20
-2726.599664074661
 30
0.0
 11
-70.25999472363583
 21
-2707.129664074661
 31
0.0
1001
GradientColor1ACI
1070
     5
1001
GradientColor2ACI
1070
     2
1001
ACAD
1010
0.0
1020
0.0
1030
0.0
  0
LINE
  5
804
  8
回04-CG
  6
CONTINUOUS
 62
     7
 10
-116.6488001646096
 20
-2758.00859757617
 30
0.0
 11
-102.0988001646096
 21
-2743.458597576169
 31
0.0
1001
GradientColor1ACI
1070
     5
1001
GradientColor2ACI
1070
     2
1001
ACAD
1010
0.0
1020
0.0
1030
0.0
  0
LINE
  5
805
  8
回04-CG
  6
CONTINUOUS
 62
     7
 10
-85.23986666310173
 20
-2726.599664074662
 30
0.0
 11
-65.76986666310142
 21
-2707.129664074662
 31
0.0
1001
GradientColor1ACI
1070
     5
1001
GradientColor2ACI
1070
     2
1001
ACAD
1010
0.0
1020
0.0
1030
0.0
  0
LINE
  5
806
  8
回04-CG
  6
CONTINUOUS
 62
     7
 10
-116.6488001646099
 20
-2762.498725636704
 30
0.0
 11
-102.0988001646097
 21
-2747.948725636705
 31
0.0
1001
GradientColor1ACI
1070
     5
1001
GradientColor2ACI
1070
     2
1001
ACAD
1010
0.0
1020
0.0
1030
0.0
  0
LINE
  5
807
  8
回04-CG
  6
CONTINUOUS
 62
     7
 10
-80.74973860256681
 20
-2726.599664074661
 30
0.0
 11
-61.27973860256668
 21
-2707.129664074661
 31
0.0
1001
GradientColor1ACI
1070
     5
1001
GradientColor2ACI
1070
     2
1001
ACAD
1010
0.0
1020
0.0
1030
0.0
  0
LINE
  5
808
  8
回04-CG
  6
CONTINUOUS
 62
     7
 10
-116.6488001646098
 20
-2766.988853697239
 30
0.0
 11
-102.0988001646097
 21
-2752.438853697239
 31
0.0
1001
GradientColor1ACI
1070
     5
1001
GradientColor2ACI
1070
     2
1001
ACAD
1010
0.0
1020
0.0
1030
0.0
  0
LINE
  5
809
  8
回04-CG
  6
CONTINUOUS
 62
     7
 10
-76.25961054203225
 20
-2726.599664074661
 30
0.0
 11
-56.7896105420321
 21
-2707.129664074661
 31
0.0
1001
GradientColor1ACI
1070
     5
1001
GradientColor2ACI
1070
     2
1001
ACAD
1010
0.0
1020
0.0
1030
0.0
  0
LINE
  5
80A
  8
回04-CG
  6
CONTINUOUS
 62
     7
 10
-116.6488001646094
 20
-2771.478981757773
 30
0.0
 11
-102.0988001646096
 21
-2756.928981757774
 31
0.0
1001
GradientColor1ACI
1070
     5
1001
GradientColor2ACI
1070
     2
1001
ACAD
1010
0.0
1020
0.0
1030
0.0
  0
LINE
  5
80B
  8
回04-CG
  6
CONTINUOUS
 62
     7
 10
-71.76948248149784
 20
-2726.599664074661
 30
0.0
 11
-52.29948248149771
 21
-2707.129664074662
 31
0.0
1001
GradientColor1ACI
1070
     5
1001
GradientColor2ACI
1070
     2
1001
ACAD
1010
0.0
1020
0.0
1030
0.0
  0
LINE
  5
80C
  8
回04-CG
  6
CONTINUOUS
 62
     7
 10
-116.6488001646097
 20
-2775.969109818308
 30
0.0
 11
-102.0988001646096
 21
-2761.419109818308
 31
0.0
1001
GradientColor1ACI
1070
     5
1001
GradientColor2ACI
1070
     2
1001
ACAD
1010
0.0
1020
0.0
1030
0.0
  0
LINE
  5
80D
  8
回04-CG
  6
CONTINUOUS
 62
     7
 10
-67.27935442096293
 20
-2726.599664074661
 30
0.0
 11
-47.80935442096295
 21
-2707.129664074661
 31
0.0
1001
GradientColor1ACI
1070
     5
1001
GradientColor2ACI
1070
     2
1001
ACAD
1010
0.0
1020
0.0
1030
0.0
  0
LINE
  5
80E
  8
回04-CG
  6
CONTINUOUS
 62
     7
 10
-116.6488001646097
 20
-2780.459237878842
 30
0.0
 11
-102.0988001646098
 21
-2765.909237878843
 31
0.0
1001
GradientColor1ACI
1070
     5
1001
GradientColor2ACI
1070
     2
1001
ACAD
1010
0.0
1020
0.0
1030
0.0
  0
LINE
  5
80F
  8
回04-CG
  6
CONTINUOUS
 62
     7
 10
-62.78922636042853
 20
-2726.599664074661
 30
0.0
 11
-43.31922636042821
 21
-2707.129664074661
 31
0.0
1001
GradientColor1ACI
1070
     5
1001
GradientColor2ACI
1070
     2
1001
ACAD
1010
0.0
1020
0.0
1030
0.0
  0
LINE
  5
810
  8
回04-CG
  6
CONTINUOUS
 62
     7
 10
-116.6488001646101
 20
-2784.949365939378
 30
0.0
 11
-102.0988001646101
 21
-2770.399365939378
 31
0.0
1001
GradientColor1ACI
1070
     5
1001
GradientColor2ACI
1070
     2
1001
ACAD
1010
0.0
1020
0.0
1030
0.0
  0
LINE
  5
811
  8
回04-CG
  6
CONTINUOUS
 62
     7
 10
-58.29909829989396
 20
-2726.599664074661
 30
0.0
 11
-38.82909829989364
 21
-2707.129664074661
 31
0.0
1001
GradientColor1ACI
1070
     5
1001
GradientColor2ACI
1070
     2
1001
ACAD
1010
0.0
1020
0.0
1030
0.0
  0
LINE
  5
812
  8
回04-CG
  6
CONTINUOUS
 62
     7
 10
-116.6488001646095
 20
-2789.439493999911
 30
0.0
 11
-102.0988001646097
 21
-2774.889493999912
 31
0.0
1001
GradientColor1ACI
1070
     5
1001
GradientColor2ACI
1070
     2
1001
ACAD
1010
0.0
1020
0.0
1030
0.0
  0
LINE
  5
813
  8
回04-CG
  6
CONTINUOUS
 62
     7
 10
-53.80897023935955
 20
-2726.599664074661
 30
0.0
 11
-34.3389702393589
 21
-2707.129664074661
 31
0.0
1001
GradientColor1ACI
1070
     5
1001
GradientColor2ACI
1070
     2
1001
ACAD
1010
0.0
1020
0.0
1030
0.0
  0
LINE
  5
814
  8
回04-CG
  6
CONTINUOUS
 62
     7
 10
-116.6488001646099
 20
-2793.929622060447
 30
0.0
 11
-102.0988001646096
 21
-2779.379622060446
 31
0.0
1001
GradientColor1ACI
1070
     5
1001
GradientColor2ACI
1070
     2
1001
ACAD
1010
0.0
1020
0.0
1030
0.0
  0
LINE
  5
815
  8
回04-CG
  6
CONTINUOUS
 62
     7
 10
-49.31884217882469
 20
-2726.599664074661
 30
0.0
 11
-29.8488421788245
 21
-2707.129664074661
 31
0.0
1001
GradientColor1ACI
1070
     5
1001
GradientColor2ACI
1070
     2
1001
ACAD
1010
0.0
1020
0.0
1030
0.0
  0
LINE
  5
816
  8
回04-CG
  6
CONTINUOUS
 62
     7
 10
-116.6488001646094
 20
-2798.41975012098
 30
0.0
 11
-102.0988001646097
 21
-2783.869750120981
 31
0.0
1001
GradientColor1ACI
1070
     5
1001
GradientColor2ACI
1070
     2
1001
ACAD
1010
0.0
1020
0.0
1030
0.0
  0
LINE
  5
817
  8
回04-CG
  6
CONTINUOUS
 62
     7
 10
-44.82871411829023
 20
-2726.599664074661
 30
0.0
 11
-25.35871411828992
 21
-2707.129664074661
 31
0.0
1001
GradientColor1ACI
1070
     5
1001
GradientColor2ACI
1070
     2
1001
ACAD
1010
0.0
1020
0.0
1030
0.0
  0
LINE
  5
818
  8
回04-CG
  6
CONTINUOUS
 62
     7
 10
-116.6488001646098
 20
-2802.909878181516
 30
0.0
 11
-102.0988001646097
 21
-2788.359878181515
 31
0.0
1001
GradientColor1ACI
1070
     5
1001
GradientColor2ACI
1070
     2
1001
ACAD
1010
0.0
1020
0.0
1030
0.0
  0
LINE
  5
819
  8
回04-CG
  6
CONTINUOUS
 62
     7
 10
-40.33858605775555
 20
-2726.599664074661
 30
0.0
 11
-20.86858605775552
 21
-2707.129664074661
 31
0.0
1001
GradientColor1ACI
1070
     5
1001
GradientColor2ACI
1070
     2
1001
ACAD
1010
0.0
1020
0.0
1030
0.0
  0
LINE
  5
81A
  8
回04-CG
  6
CONTINUOUS
 62
     7
 10
-116.6488001646098
 20
-2807.40000624205
 30
0.0
 11
-102.0988001646098
 21
-2792.85000624205
 31
0.0
1001
GradientColor1ACI
1070
     5
1001
GradientColor2ACI
1070
     2
1001
ACAD
1010
0.0
1020
0.0
1030
0.0
  0
LINE
  5
81B
  8
回04-CG
  6
CONTINUOUS
 62
     7
 10
-35.84845799722126
 20
-2726.599664074661
 30
0.0
 11
-16.37845799722112
 21
-2707.129664074662
 31
0.0
1001
GradientColor1ACI
1070
     5
1001
GradientColor2ACI
1070
     2
1001
ACAD
1010
0.0
1020
0.0
1030
0.0
  0
LINE
  5
81C
  8
回04-CG
  6
CONTINUOUS
 62
     7
 10
-116.6488001646097
 20
-2811.890134302585
 30
0.0
 11
-102.0988001646097
 21
-2797.340134302585
 31
0.0
1001
GradientColor1ACI
1070
     5
1001
GradientColor2ACI
1070
     2
1001
ACAD
1010
0.0
1020
0.0
1030
0.0
  0
LINE
  5
81D
  8
回04-CG
  6
CONTINUOUS
 62
     7
 10
-31.3583299366864
 20
-2726.599664074661
 30
0.0
 11
-11.88832993668637
 21
-2707.129664074661
 31
0.0
1001
GradientColor1ACI
1070
     5
1001
GradientColor2ACI
1070
     2
1001
ACAD
1010
0.0
1020
0.0
1030
0.0
  0
LINE
  5
81E
  8
回04-CG
  6
CONTINUOUS
 62
     7
 10
-116.6488001646097
 20
-2816.380262363119
 30
0.0
 11
-102.0988001646097
 21
-2801.830262363119
 31
0.0
1001
GradientColor1ACI
1070
     5
1001
GradientColor2ACI
1070
     2
1001
ACAD
1010
0.0
1020
0.0
1030
0.0
  0
LINE
  5
81F
  8
回04-CG
  6
CONTINUOUS
 62
     7
 10
-26.868201876152
 20
-2726.599664074661
 30
0.0
 11
-7.398201876151802
 21
-2707.129664074661
 31
0.0
1001
GradientColor1ACI
1070
     5
1001
GradientColor2ACI
1070
     2
1001
ACAD
1010
0.0
1020
0.0
1030
0.0
  0
LINE
  5
820
  8
回04-CG
  6
CONTINUOUS
 62
     7
 10
-116.6488001646098
 20
-2820.870390423653
 30
0.0
 11
-102.0988001646101
 21
-2806.320390423654
 31
0.0
1001
GradientColor1ACI
1070
     5
1001
GradientColor2ACI
1070
     2
1001
ACAD
1010
0.0
1020
0.0
1030
0.0
  0
LINE
  5
821
  8
回04-CG
  6
CONTINUOUS
 62
     7
 10
-22.37807381561726
 20
-2726.599664074661
 30
0.0
 11
-2.908073815617058
 21
-2707.129664074661
 31
0.0
1001
GradientColor1ACI
1070
     5
1001
GradientColor2ACI
1070
     2
1001
ACAD
1010
0.0
1020
0.0
1030
0.0
  0
LINE
  5
822
  8
回04-CG
  6
CONTINUOUS
 62
     7
 10
-116.6488001646097
 20
-2825.360518484188
 30
0.0
 11
-102.0988001646097
 21
-2810.810518484188
 31
0.0
1001
GradientColor1ACI
1070
     5
1001
GradientColor2ACI
1070
     2
1001
ACAD
1010
0.0
1020
0.0
1030
0.0
  0
LINE
  5
823
  8
回04-CG
  6
CONTINUOUS
 62
     7
 10
-17.88794575508285
 20
-2726.599664074661
 30
0.0
 11
1.582054244917344
 21
-2707.129664074661
 31
0.0
1001
GradientColor1ACI
1070
     5
1001
GradientColor2ACI
1070
     2
1001
ACAD
1010
0.0
1020
0.0
1030
0.0
  0
LINE
  5
824
  8
回04-CG
  6
CONTINUOUS
 62
     7
 10
-116.6488001646096
 20
-2829.850646544723
 30
0.0
 11
-102.0988001646097
 21
-2815.300646544722
 31
0.0
1001
GradientColor1ACI
1070
     5
1001
GradientColor2ACI
1070
     2
1001
ACAD
1010
0.0
1020
0.0
1030
0.0
  0
LINE
  5
825
  8
回04-CG
  6
CONTINUOUS
 62
     7
 10
-13.39781769454811
 20
-2726.599664074661
 30
0.0
 11
6.072182305451917
 21
-2707.129664074661
 31
0.0
1001
GradientColor1ACI
1070
     5
1001
GradientColor2ACI
1070
     2
1001
ACAD
1010
0.0
1020
0.0
1030
0.0
  0
LINE
  5
826
  8
回04-CG
  6
CONTINUOUS
 62
     7
 10
-116.6488001646095
 20
-2834.340774605257
 30
0.0
 11
-100.9476896340138
 21
-2818.639664074661
 31
0.0
1001
GradientColor1ACI
1070
     5
1001
GradientColor2ACI
1070
     2
1001
ACAD
1010
0.0
1020
0.0
1030
0.0
  0
LINE
  5
827
  8
回04-CG
  6
CONTINUOUS
 62
     7
 10
-8.907689634013706
 20
-2726.599664074661
 30
0.0
 11
10.56231036598632
 21
-2707.129664074662
 31
0.0
1001
GradientColor1ACI
1070
     5
1001
GradientColor2ACI
1070
     2
1001
ACAD
1010
0.0
1020
0.0
1030
0.0
  0
LINE
  5
828
  8
回04-CG
  6
CONTINUOUS
 62
     7
 10
-115.7992133907822
 20
-2837.981315891964
 30
0.0
 11
-96.45756157347904
 21
-2818.639664074661
 31
0.0
1001
GradientColor1ACI
1070
     5
1001
GradientColor2ACI
1070
     2
1001
ACAD
1010
0.0
1020
0.0
1030
0.0
  0
LINE
  5
829
  8
回04-CG
  6
CONTINUOUS
 62
     7
 10
-4.417561573478792
 20
-2726.599664074661
 30
0.0
 11
15.05243842652106
 21
-2707.129664074661
 31
0.0
1001
GradientColor1ACI
1070
     5
1001
GradientColor2ACI
1070
     2
1001
ACAD
1010
0.0
1020
0.0
1030
0.0
  0
LINE
  5
82A
  8
回04-CG
  6
CONTINUOUS
 62
     7
 10
-111.457433512944
 20
-2838.12966407466
 30
0.0
 11
-91.96743351294463
 21
-2818.639664074661
 31
0.0
1001
GradientColor1ACI
1070
     5
1001
GradientColor2ACI
1070
     2
1001
ACAD
1010
0.0
1020
0.0
1030
0.0
  0
LINE
  5
82B
  8
回04-CG
  6
CONTINUOUS
 62
     7
 10
0.0725664870554397
 20
-2726.599664074661
 30
0.0
 11
19.54256648705547
 21
-2707.129664074662
 31
0.0
1001
GradientColor1ACI
1070
     5
1001
GradientColor2ACI
1070
     2
1001
ACAD
1010
0.0
1020
0.0
1030
0.0
  0
LINE
  5
82C
  8
回04-CG
  6
CONTINUOUS
 62
     7
 10
-106.9673054524096
 20
-2838.129664074661
 30
0.0
 11
-87.47730545240989
 21
-2818.639664074661
 31
0.0
1001
GradientColor1ACI
1070
     5
1001
GradientColor2ACI
1070
     2
1001
ACAD
1010
0.0
1020
0.0
1030
0.0
  0
LINE
  5
82D
  8
回04-CG
  6
CONTINUOUS
 62
     7
 10
4.562694547590183
 20
-2726.599664074661
 30
0.0
 11
24.03269454759032
 21
-2707.129664074661
 31
0.0
1001
GradientColor1ACI
1070
     5
1001
GradientColor2ACI
1070
     2
1001
ACAD
1010
0.0
1020
0.0
1030
0.0
  0
LINE
  5
82E
  8
回04-CG
  6
CONTINUOUS
 62
     7
 10
-102.4771773918753
 20
-2838.129664074661
 30
0.0
 11
-82.98717739187532
 21
-2818.639664074661
 31
0.0
1001
GradientColor1ACI
1070
     5
1001
GradientColor2ACI
1070
     2
1001
ACAD
1010
0.0
1020
0.0
1030
0.0
  0
LINE
  5
82F
  8
回04-CG
  6
CONTINUOUS
 62
     7
 10
9.052822608124586
 20
-2726.599664074661
 30
0.0
 11
28.52282260812478
 21
-2707.129664074661
 31
0.0
1001
GradientColor1ACI
1070
     5
1001
GradientColor2ACI
1070
     2
1001
ACAD
1010
0.0
1020
0.0
1030
0.0
  0
LINE
  5
830
  8
回04-CG
  6
CONTINUOUS
 62
     7
 10
-97.98704933134075
 20
-2838.129664074661
 30
0.0
 11
-78.49704933134074
 21
-2818.639664074661
 31
0.0
1001
GradientColor1ACI
1070
     5
1001
GradientColor2ACI
1070
     2
1001
ACAD
1010
0.0
1020
0.0
1030
0.0
  0
LINE
  5
831
  8
回04-CG
  6
CONTINUOUS
 62
     7
 10
13.5429506686595
 20
-2726.599664074661
 30
0.0
 11
33.01295066865947
 21
-2707.129664074661
 31
0.0
1001
GradientColor1ACI
1070
     5
1001
GradientColor2ACI
1070
     2
1001
ACAD
1010
0.0
1020
0.0
1030
0.0
  0
LINE
  5
832
  8
回04-CG
  6
CONTINUOUS
 62
     7
 10
-93.49692127080619
 20
-2838.129664074661
 30
0.0
 11
-74.00692127080617
 21
-2818.639664074661
 31
0.0
1001
GradientColor1ACI
1070
     5
1001
GradientColor2ACI
1070
     2
1001
ACAD
1010
0.0
1020
0.0
1030
0.0
  0
LINE
  5
833
  8
回04-CG
  6
CONTINUOUS
 62
     7
 10
18.03307872919373
 20
-2726.599664074661
 30
0.0
 11
37.50307872919393
 21
-2707.129664074661
 31
0.0
1001
GradientColor1ACI
1070
     5
1001
GradientColor2ACI
1070
     2
1001
ACAD
1010
0.0
1020
0.0
1030
0.0
  0
LINE
  5
834
  8
回04-CG
  6
CONTINUOUS
 62
     7
 10
-89.00679321027144
 20
-2838.129664074661
 30
0.0
 11
-69.5167932102716
 21
-2818.639664074661
 31
0.0
1001
GradientColor1ACI
1070
     5
1001
GradientColor2ACI
1070
     2
1001
ACAD
1010
0.0
1020
0.0
1030
0.0
  0
LINE
  5
835
  8
回04-CG
  6
CONTINUOUS
 62
     7
 10
22.52320678972848
 20
-2726.599664074661
 30
0.0
 11
41.99320678972878
 21
-2707.129664074661
 31
0.0
1001
GradientColor1ACI
1070
     5
1001
GradientColor2ACI
1070
     2
1001
ACAD
1010
0.0
1020
0.0
1030
0.0
  0
LINE
  5
836
  8
回04-CG
  6
CONTINUOUS
 62
     7
 10
-84.51666514973693
 20
-2838.129664074661
 30
0.0
 11
-65.0266651497372
 21
-2818.639664074661
 31
0.0
1001
GradientColor1ACI
1070
     5
1001
GradientColor2ACI
1070
     2
1001
ACAD
1010
0.0
1020
0.0
1030
0.0
  0
LINE
  5
837
  8
回04-CG
  6
CONTINUOUS
 62
     7
 10
27.01333485026288
 20
-2726.599664074661
 30
0.0
 11
46.48333485026319
 21
-2707.129664074661
 31
0.0
1001
GradientColor1ACI
1070
     5
1001
GradientColor2ACI
1070
     2
1001
ACAD
1010
0.0
1020
0.0
1030
0.0
  0
LINE
  5
838
  8
回04-CG
  6
CONTINUOUS
 62
     7
 10
-80.02653708920201
 20
-2838.12966407466
 30
0.0
 11
-60.53653708920234
 21
-2818.639664074661
 31
0.0
1001
GradientColor1ACI
1070
     5
1001
GradientColor2ACI
1070
     2
1001
ACAD
1010
0.0
1020
0.0
1030
0.0
  0
LINE
  5
839
  8
回04-CG
  6
CONTINUOUS
 62
     7
 10
31.5034629107978
 20
-2726.599664074661
 30
0.0
 11
50.97346291079793
 21
-2707.129664074661
 31
0.0
1001
GradientColor1ACI
1070
     5
1001
GradientColor2ACI
1070
     2
1001
ACAD
1010
0.0
1020
0.0
1030
0.0
  0
LINE
  5
83A
  8
回04-CG
  6
CONTINUOUS
 62
     7
 10
-75.53640902866778
 20
-2838.129664074661
 30
0.0
 11
-56.04640902866794
 21
-2818.639664074661
 31
0.0
1001
GradientColor1ACI
1070
     5
1001
GradientColor2ACI
1070
     2
1001
ACAD
1010
0.0
1020
0.0
1030
0.0
  0
LINE
  5
83B
  8
回04-CG
  6
CONTINUOUS
 62
     7
 10
35.99359097133203
 20
-2726.599664074661
 30
0.0
 11
55.46359097133251
 21
-2707.129664074661
 31
0.0
1001
GradientColor1ACI
1070
     5
1001
GradientColor2ACI
1070
     2
1001
ACAD
1010
0.0
1020
0.0
1030
0.0
  0
LINE
  5
83C
  8
回04-CG
  6
CONTINUOUS
 62
     7
 10
-71.04628096813303
 20
-2838.129664074661
 30
0.0
 11
-51.55628096813337
 21
-2818.639664074661
 31
0.0
1001
GradientColor1ACI
1070
     5
1001
GradientColor2ACI
1070
     2
1001
ACAD
1010
0.0
1020
0.0
1030
0.0
  0
LINE
  5
83D
  8
回04-CG
  6
CONTINUOUS
 62
     7
 10
40.48371903186676
 20
-2726.599664074661
 30
0.0
 11
59.95371903186691
 21
-2707.129664074661
 31
0.0
1001
GradientColor1ACI
1070
     5
1001
GradientColor2ACI
1070
     2
1001
ACAD
1010
0.0
1020
0.0
1030
0.0
  0
LINE
  5
83E
  8
回04-CG
  6
CONTINUOUS
 62
     7
 10
-66.55615290759863
 20
-2838.129664074661
 30
0.0
 11
-47.06615290759891
 21
-2818.639664074661
 31
0.0
1001
GradientColor1ACI
1070
     5
1001
GradientColor2ACI
1070
     2
1001
ACAD
1010
0.0
1020
0.0
1030
0.0
  0
LINE
  5
83F
  8
回04-CG
  6
CONTINUOUS
 62
     7
 10
44.97384709240117
 20
-2726.599664074661
 30
0.0
 11
64.38096339918809
 21
-2707.192547767875
 31
0.0
1001
GradientColor1ACI
1070
     5
1001
GradientColor2ACI
1070
     2
1001
ACAD
1010
0.0
1020
0.0
1030
0.0
  0
LINE
  5
840
  8
回04-CG
  6
CONTINUOUS
 62
     7
 10
-62.06602484706355
 20
-2838.12966407466
 30
0.0
 11
-42.57602484706405
 21
-2818.639664074661
 31
0.0
1001
GradientColor1ACI
1070
     5
1001
GradientColor2ACI
1070
     2
1001
ACAD
1010
0.0
1020
0.0
1030
0.0
  0
LINE
  5
841
  8
回04-CG
  6
CONTINUOUS
 62
     7
 10
49.46397515293608
 20
-2726.599664074661
 30
0.0
 11
65.45119983539024
 21
-2710.612439392207
 31
0.0
1001
GradientColor1ACI
1070
     5
1001
GradientColor2ACI
1070
     2
1001
ACAD
1010
0.0
1020
0.0
1030
0.0
  0
LINE
  5
842
  8
回04-CG
  6
CONTINUOUS
 62
     7
 10
-57.57589678652948
 20
-2838.129664074661
 30
0.0
 11
-38.08589678652964
 21
-2818.639664074661
 31
0.0
1001
GradientColor1ACI
1070
     5
1001
GradientColor2ACI
1070
     2
1001
ACAD
1010
0.0
1020
0.0
1030
0.0
  0
LINE
  5
843
  8
回04-CG
  6
CONTINUOUS
 62
     7
 10
50.90119983539096
 20
-2729.65256745274
 30
0.0
 11
65.4511998353903
 21
-2715.102567452742
 31
0.0
1001
GradientColor1ACI
1070
     5
1001
GradientColor2ACI
1070
     2
1001
ACAD
1010
0.0
1020
0.0
1030
0.0
  0
LINE
  5
844
  8
回04-CG
  6
CONTINUOUS
 62
     7
 10
-53.08576872599473
 20
-2838.129664074661
 30
0.0
 11
-33.59576872599507
 21
-2818.639664074661
 31
0.0
1001
GradientColor1ACI
1070
     5
1001
GradientColor2ACI
1070
     2
1001
ACAD
1010
0.0
1020
0.0
1030
0.0
  0
LINE
  5
845
  8
回04-CG
  6
CONTINUOUS
 62
     7
 10
50.90119983539057
 20
-2734.142695513276
 30
0.0
 11
65.45119983539052
 21
-2719.592695513276
 31
0.0
1001
GradientColor1ACI
1070
     5
1001
GradientColor2ACI
1070
     2
1001
ACAD
1010
0.0
1020
0.0
1030
0.0
  0
LINE
  5
846
  8
回04-CG
  6
CONTINUOUS
 62
     7
 10
-48.59564066546034
 20
-2838.129664074661
 30
0.0
 11
-29.10564066546067
 21
-2818.639664074661
 31
0.0
1001
GradientColor1ACI
1070
     5
1001
GradientColor2ACI
1070
     2
1001
ACAD
1010
0.0
1020
0.0
1030
0.0
  0
LINE
  5
847
  8
回04-CG
  6
CONTINUOUS
 62
     7
 10
50.90119983539029
 20
-2738.63282357381
 30
0.0
 11
65.45119983539007
 21
-2724.082823573811
 31
0.0
1001
GradientColor1ACI
1070
     5
1001
GradientColor2ACI
1070
     2
1001
ACAD
1010
0.0
1020
0.0
1030
0.0
  0
LINE
  5
848
  8
回04-CG
  6
CONTINUOUS
 62
     7
 10
-44.10551260492542
 20
-2838.12966407466
 30
0.0
 11
-24.61551260492593
 21
-2818.639664074661
 31
0.0
1001
GradientColor1ACI
1070
     5
1001
GradientColor2ACI
1070
     2
1001
ACAD
1010
0.0
1020
0.0
1030
0.0
  0
LINE
  5
849
  8
回04-CG
  6
CONTINUOUS
 62
     7
 10
50.90119983539086
 20
-2743.122951634344
 30
0.0
 11
65.4511998353903
 21
-2728.572951634345
 31
0.0
1001
GradientColor1ACI
1070
     5
1001
GradientColor2ACI
1070
     2
1001
ACAD
1010
0.0
1020
0.0
1030
0.0
  0
LINE
  5
84A
  8
回04-CG
  6
CONTINUOUS
 62
     7
 10
-39.61538454439102
 20
-2838.129664074661
 30
0.0
 11
-20.12538454439135
 21
-2818.639664074661
 31
0.0
1001
GradientColor1ACI
1070
     5
1001
GradientColor2ACI
1070
     2
1001
ACAD
1010
0.0
1020
0.0
1030
0.0
  0
LINE
  5
84B
  8
回04-CG
  6
CONTINUOUS
 62
     7
 10
50.90119983539057
 20
-2747.613079694879
 30
0.0
 11
65.45119983539052
 21
-2733.06307969488
 31
0.0
1001
GradientColor1ACI
1070
     5
1001
GradientColor2ACI
1070
     2
1001
ACAD
1010
0.0
1020
0.0
1030
0.0
  0
LINE
  5
84C
  8
回04-CG
  6
CONTINUOUS
 62
     7
 10
-35.12525648385628
 20
-2838.12966407466
 30
0.0
 11
-15.63525648385678
 21
-2818.639664074661
 31
0.0
1001
GradientColor1ACI
1070
     5
1001
GradientColor2ACI
1070
     2
1001
ACAD
1010
0.0
1020
0.0
1030
0.0
  0
LINE
  5
84D
  8
回04-CG
  6
CONTINUOUS
 62
     7
 10
50.90119983539063
 20
-2752.103207755414
 30
0.0
 11
65.45119983539024
 21
-2737.553207755414
 31
0.0
1001
GradientColor1ACI
1070
     5
1001
GradientColor2ACI
1070
     2
1001
ACAD
1010
0.0
1020
0.0
1030
0.0
  0
LINE
  5
84E
  8
回04-CG
  6
CONTINUOUS
 62
     7
 10
-30.63512842332187
 20
-2838.129664074661
 30
0.0
 11
-11.14512842332237
 21
-2818.639664074661
 31
0.0
1001
GradientColor1ACI
1070
     5
1001
GradientColor2ACI
1070
     2
1001
ACAD
1010
0.0
1020
0.0
1030
0.0
  0
LINE
  5
84F
  8
回04-CG
  6
CONTINUOUS
 62
     7
 10
50.9011998353904
 20
-2756.593335815949
 30
0.0
 11
65.45119983539018
 21
-2742.043335815949
 31
0.0
1001
GradientColor1ACI
1070
     5
1001
GradientColor2ACI
1070
     2
1001
ACAD
1010
0.0
1020
0.0
1030
0.0
  0
LINE
  5
850
  8
回04-CG
  6
CONTINUOUS
 62
     7
 10
-26.1450003627873
 20
-2838.129664074661
 30
0.0
 11
-6.655000362787632
 21
-2818.639664074661
 31
0.0
1001
GradientColor1ACI
1070
     5
1001
GradientColor2ACI
1070
     2
1001
ACAD
1010
0.0
1020
0.0
1030
0.0
  0
LINE
  5
851
  8
回04-CG
  6
CONTINUOUS
 62
     7
 10
50.90119983539057
 20
-2761.083463876483
 30
0.0
 11
65.45119983539041
 21
-2746.533463876483
 31
0.0
1001
GradientColor1ACI
1070
     5
1001
GradientColor2ACI
1070
     2
1001
ACAD
1010
0.0
1020
0.0
1030
0.0
  0
LINE
  5
852
  8
回04-CG
  6
CONTINUOUS
 62
     7
 10
-21.6548723022529
 20
-2838.129664074661
 30
0.0
 11
-2.164872302253058
 21
-2818.639664074661
 31
0.0
1001
GradientColor1ACI
1070
     5
1001
GradientColor2ACI
1070
     2
1001
ACAD
1010
0.0
1020
0.0
1030
0.0
  0
LINE
  5
853
  8
回04-CG
  6
CONTINUOUS
 62
     7
 10
50.90119983539051
 20
-2765.573591937018
 30
0.0
 11
65.4511998353903
 21
-2751.023591937018
 31
0.0
1001
GradientColor1ACI
1070
     5
1001
GradientColor2ACI
1070
     2
1001
ACAD
1010
0.0
1020
0.0
1030
0.0
  0
LINE
  5
854
  8
回04-CG
  6
CONTINUOUS
 62
     7
 10
-17.16474424171798
 20
-2838.12966407466
 30
0.0
 11
2.325255758281514
 21
-2818.639664074661
 31
0.0
1001
GradientColor1ACI
1070
     5
1001
GradientColor2ACI
1070
     2
1001
ACAD
1010
0.0
1020
0.0
1030
0.0
  0
LINE
  5
855
  8
回04-CG
  6
CONTINUOUS
 62
     7
 10
50.90119983539057
 20
-2770.063719997552
 30
0.0
 11
65.45119983539018
 21
-2755.513719997553
 31
0.0
1001
GradientColor1ACI
1070
     5
1001
GradientColor2ACI
1070
     2
1001
ACAD
1010
0.0
1020
0.0
1030
0.0
  0
LINE
  5
856
  8
回04-CG
  6
CONTINUOUS
 62
     7
 10
-12.67461618118358
 20
-2838.129664074661
 30
0.0
 11
6.815383818815917
 21
-2818.639664074661
 31
0.0
1001
GradientColor1ACI
1070
     5
1001
GradientColor2ACI
1070
     2
1001
ACAD
1010
0.0
1020
0.0
1030
0.0
  0
LINE
  5
857
  8
回04-CG
  6
CONTINUOUS
 62
     7
 10
50.9011998353908
 20
-2774.553848058086
 30
0.0
 11
65.45119983539041
 21
-2760.003848058087
 31
0.0
1001
GradientColor1ACI
1070
     5
1001
GradientColor2ACI
1070
     2
1001
ACAD
1010
0.0
1020
0.0
1030
0.0
  0
LINE
  5
858
  8
回04-CG
  6
CONTINUOUS
 62
     7
 10
-8.184488120648836
 20
-2838.12966407466
 30
0.0
 11
11.30551187935066
 21
-2818.639664074661
 31
0.0
1001
GradientColor1ACI
1070
     5
1001
GradientColor2ACI
1070
     2
1001
ACAD
1010
0.0
1020
0.0
1030
0.0
  0
LINE
  5
859
  8
回04-CG
  6
CONTINUOUS
 62
     7
 10
50.90119983539034
 20
-2779.043976118622
 30
0.0
 11
65.4511998353903
 21
-2764.493976118622
 31
0.0
1001
GradientColor1ACI
1070
     5
1001
GradientColor2ACI
1070
     2
1001
ACAD
1010
0.0
1020
0.0
1030
0.0
  0
LINE
  5
85A
  8
回04-CG
  6
CONTINUOUS
 62
     7
 10
-3.694360060114433
 20
-2838.129664074661
 30
0.0
 11
15.79563993988523
 21
-2818.639664074661
 31
0.0
1001
GradientColor1ACI
1070
     5
1001
GradientColor2ACI
1070
     2
1001
ACAD
1010
0.0
1020
0.0
1030
0.0
  0
LINE
  5
85B
  8
回04-CG
  6
CONTINUOUS
 62
     7
 10
50.90119983539074
 20
-2783.534104179156
 30
0.0
 11
65.45119983539035
 21
-2768.984104179156
 31
0.0
1001
GradientColor1ACI
1070
     5
1001
GradientColor2ACI
1070
     2
1001
ACAD
1010
0.0
1020
0.0
1030
0.0
  0
LINE
  5
85C
  8
回04-CG
  6
CONTINUOUS
 62
     7
 10
0.7957680004203099
 20
-2838.12966407466
 30
0.0
 11
20.28576800041998
 21
-2818.639664074661
 31
0.0
1001
GradientColor1ACI
1070
     5
1001
GradientColor2ACI
1070
     2
1001
ACAD
1010
0.0
1020
0.0
1030
0.0
  0
LINE
  5
85D
  8
回04-CG
  6
CONTINUOUS
 62
     7
 10
50.90119983539063
 20
-2788.024232239691
 30
0.0
 11
65.45119983539058
 21
-2773.474232239691
 31
0.0
1001
GradientColor1ACI
1070
     5
1001
GradientColor2ACI
1070
     2
1001
ACAD
1010
0.0
1020
0.0
1030
0.0
  0
LINE
  5
85E
  8
回04-CG
  6
CONTINUOUS
 62
     7
 10
5.2858960609542
 20
-2838.129664074662
 30
0.0
 11
24.77589606095421
 21
-2818.639664074661
 31
0.0
1001
GradientColor1ACI
1070
     5
1001
GradientColor2ACI
1070
     2
1001
ACAD
1010
0.0
1020
0.0
1030
0.0
  0
LINE
  5
85F
  8
回04-CG
  6
CONTINUOUS
 62
     7
 10
50.90119983539068
 20
-2792.514360300225
 30
0.0
 11
65.45119983539064
 21
-2777.964360300225
 31
0.0
1001
GradientColor1ACI
1070
     5
1001
GradientColor2ACI
1070
     2
1001
ACAD
1010
0.0
1020
0.0
1030
0.0
  0
LINE
  5
860
  8
回04-CG
  6
CONTINUOUS
 62
     7
 10
9.776024121489399
 20
-2838.12966407466
 30
0.0
 11
29.26602412148895
 21
-2818.639664074661
 31
0.0
1001
GradientColor1ACI
1070
     5
1001
GradientColor2ACI
1070
     2
1001
ACAD
1010
0.0
1020
0.0
1030
0.0
  0
LINE
  5
861
  8
回04-CG
  6
CONTINUOUS
 62
     7
 10
50.9011998353904
 20
-2797.00448836076
 30
0.0
 11
65.45119983539035
 21
-2782.45448836076
 31
0.0
1001
GradientColor1ACI
1070
     5
1001
GradientColor2ACI
1070
     2
1001
ACAD
1010
0.0
1020
0.0
1030
0.0
  0
LINE
  5
862
  8
回04-CG
  6
CONTINUOUS
 62
     7
 10
14.26615218202386
 20
-2838.129664074661
 30
0.0
 11
33.75615218202353
 21
-2818.639664074661
 31
0.0
1001
GradientColor1ACI
1070
     5
1001
GradientColor2ACI
1070
     2
1001
ACAD
1010
0.0
1020
0.0
1030
0.0
  0
LINE
  5
863
  8
回04-CG
  6
CONTINUOUS
 62
     7
 10
50.90119983539063
 20
-2801.494616421294
 30
0.0
 11
65.45119983539013
 21
-2786.944616421294
 31
0.0
1001
GradientColor1ACI
1070
     5
1001
GradientColor2ACI
1070
     2
1001
ACAD
1010
0.0
1020
0.0
1030
0.0
  0
LINE
  5
864
  8
回04-CG
  6
CONTINUOUS
 62
     7
 10
18.75628024255826
 20
-2838.129664074661
 30
0.0
 11
38.24628024255827
 21
-2818.639664074661
 31
0.0
1001
GradientColor1ACI
1070
     5
1001
GradientColor2ACI
1070
     2
1001
ACAD
1010
0.0
1020
0.0
1030
0.0
  0
LINE
  5
865
  8
回04-CG
  6
CONTINUOUS
 62
     7
 10
50.90119983539068
 20
-2805.984744481829
 30
0.0
 11
65.45119983539047
 21
-2791.434744481829
 31
0.0
1001
GradientColor1ACI
1070
     5
1001
GradientColor2ACI
1070
     2
1001
ACAD
1010
0.0
1020
0.0
1030
0.0
  0
LINE
  5
866
  8
回04-CG
  6
CONTINUOUS
 62
     7
 10
23.24640830309267
 20
-2838.129664074662
 30
0.0
 11
42.7364083030925
 21
-2818.639664074661
 31
0.0
1001
GradientColor1ACI
1070
     5
1001
GradientColor2ACI
1070
     2
1001
ACAD
1010
0.0
1020
0.0
1030
0.0
  0
LINE
  5
867
  8
回04-CG
  6
CONTINUOUS
 62
     7
 10
50.90119983539046
 20
-2810.474872542363
 30
0.0
 11
65.45119983539024
 21
-2795.924872542363
 31
0.0
1001
GradientColor1ACI
1070
     5
1001
GradientColor2ACI
1070
     2
1001
ACAD
1010
0.0
1020
0.0
1030
0.0
  0
LINE
  5
868
  8
回04-CG
  6
CONTINUOUS
 62
     7
 10
27.73653636362769
 20
-2838.12966407466
 30
0.0
 11
47.22653636362724
 21
-2818.639664074661
 31
0.0
1001
GradientColor1ACI
1070
     5
1001
GradientColor2ACI
1070
     2
1001
ACAD
1010
0.0
1020
0.0
1030
0.0
  0
LINE
  5
869
  8
回04-CG
  6
CONTINUOUS
 62
     7
 10
50.90119983539051
 20
-2814.965000602898
 30
0.0
 11
65.4511998353903
 21
-2800.415000602898
 31
0.0
1001
GradientColor1ACI
1070
     5
1001
GradientColor2ACI
1070
     2
1001
ACAD
1010
0.0
1020
0.0
1030
0.0
  0
LINE
  5
86A
  8
回04-CG
  6
CONTINUOUS
 62
     7
 10
32.22666442416227
 20
-2838.12966407466
 30
0.0
 11
65.45119983539035
 21
-2804.905128663433
 31
0.0
1001
GradientColor1ACI
1070
     5
1001
GradientColor2ACI
1070
     2
1001
ACAD
1010
0.0
1020
0.0
1030
0.0
  0
LINE
  5
86B
  8
回04-CG
  6
CONTINUOUS
 62
     7
 10
36.71679248469684
 20
-2838.12966407466
 30
0.0
 11
65.45119983539041
 21
-2809.395256723967
 31
0.0
1001
GradientColor1ACI
1070
     5
1001
GradientColor2ACI
1070
     2
1001
ACAD
1010
0.0
1020
0.0
1030
0.0
  0
LINE
  5
86C
  8
回04-CG
  6
CONTINUOUS
 62
     7
 10
41.20692054523124
 20
-2838.129664074661
 30
0.0
 11
65.45119983539064
 21
-2813.885384784502
 31
0.0
1001
GradientColor1ACI
1070
     5
1001
GradientColor2ACI
1070
     2
1001
ACAD
1010
0.0
1020
0.0
1030
0.0
  0
LINE
  5
86D
  8
回04-CG
  6
CONTINUOUS
 62
     7
 10
45.69704860576599
 20
-2838.12966407466
 30
0.0
 11
65.45119983539052
 21
-2818.375512845036
 31
0.0
1001
GradientColor1ACI
1070
     5
1001
GradientColor2ACI
1070
     2
1001
ACAD
1010
0.0
1020
0.0
1030
0.0
  0
LINE
  5
86E
  8
回04-CG
  6
CONTINUOUS
 62
     7
 10
50.18717666630038
 20
-2838.129664074661
 30
0.0
 11
65.45119983539041
 21
-2822.86564090557
 31
0.0
1001
GradientColor1ACI
1070
     5
1001
GradientColor2ACI
1070
     2
1001
ACAD
1010
0.0
1020
0.0
1030
0.0
  0
LINE
  5
86F
  8
回04-CG
  6
CONTINUOUS
 62
     7
 10
54.67730472683513
 20
-2838.12966407466
 30
0.0
 11
65.45119983539064
 21
-2827.355768966106
 31
0.0
1001
GradientColor1ACI
1070
     5
1001
GradientColor2ACI
1070
     2
1001
ACAD
1010
0.0
1020
0.0
1030
0.0
  0
LINE
  5
870
  8
回04-CG
  6
CONTINUOUS
 62
     7
 10
59.16743278736936
 20
-2838.129664074661
 30
0.0
 11
65.45119983539035
 21
-2831.84589702664
 31
0.0
1001
GradientColor1ACI
1070
     5
1001
GradientColor2ACI
1070
     2
1001
ACAD
1010
0.0
1020
0.0
1030
0.0
  0
LINE
  5
871
  8
回04-CG
  6
CONTINUOUS
 62
     7
 10
63.65756084790428
 20
-2838.12966407466
 30
0.0
 11
65.45119983539013
 21
-2836.336025087175
 31
0.0
1001
GradientColor1ACI
1070
     5
1001
GradientColor2ACI
1070
     2
1001
ACAD
1010
0.0
1020
0.0
1030
0.0
  0
ENDBLK
  5
873
  8
回02-寸法
  6
CONTINUOUS
 62
     7
  0
BLOCK
  8
回02-寸法
  2
*X72
 70
     1
 10
0.0
 20
0.0
 30
0.0
  3
*X72
  1

  0
TEXT
  5
881
  8
回03-記事
  6
CONTINUOUS
 62
     5
 10
115.7073919075689
 20
-2627.437198708629
 30
0.0
 40
5.00001
  1
4.3
  0
TEXT
  5
882
  8
回03-記事
  6
CONTINUOUS
 62
     5
 10
124.7074099075689
 20
-2627.437198708629
 30
0.0
 40
3.0
  1
±0.2
  0
ENDBLK
  5
884
  8
回02-寸法
  6
CONTINUOUS
 62
     7
  0
BLOCK
  8
回02-寸法
  2
*X73
 70
     1
 10
0.0
 20
0.0
 30
0.0
  3
*X73
  1

  0
TEXT
  5
887
  8
回03-記事
  6
CONTINUOUS
 62
     5
 10
138.4096104044397
 20
-2826.500010979618
 30
0.0
 40
3.0
  1
0.3
  0
TEXT
  5
888
  8
回03-記事
  6
CONTINUOUS
 62
     5
 10
143.5096104044396
 20
-2826.500010979618
 30
0.0
 40
2.00001
  1
±0.03
  0
ENDBLK
  5
88A
  8
回02-寸法
  6
CONTINUOUS
 62
     7
  0
BLOCK
  8
回02-寸法
  2
*X74
 70
     1
 10
0.0
 20
0.0
 30
0.0
  3
*X74
  1

  0
TEXT
  5
88D
  8
回03-記事
  6
CONTINUOUS
 62
     5
 10
133.2515171109785
 20
-2832.133397577076
 30
0.0
 40
3.0
  1
0.3
  0
TEXT
  5
88E
  8
回03-記事
  6
CONTINUOUS
 62
     5
 10
138.3515171109785
 20
-2832.133397577076
 30
0.0
 40
2.00001
  1
±0.03
  0
ENDBLK
  5
890
  8
回02-寸法
  6
CONTINUOUS
 62
     7
  0
BLOCK
  8
回02-寸法
  2
*X75
 70
     1
 10
0.0
 20
0.0
 30
0.0
  3
*X75
  1

  0
TEXT
  5
893
  8
回02-寸法
  6
CONTINUOUS
 62
     5
 10
-31.87124952345144
 20
-2854.880921457171
 30
0.0
 40
3.999989999999999
  1
20.5
  0
TEXT
  5
894
  8
回02-寸法
  6
CONTINUOUS
 62
     5
 10
-22.27127352345144
 20
-2854.880921457171
 30
0.0
 40
3.6
  1
±0.1
  0
ENDBLK
  5
896
  8
回02-寸法
  6
CONTINUOUS
 62
     7
  0
BLOCK
  8
回02-寸法
  2
*X76
 70
     1
 10
0.0
 20
0.0
 30
0.0
  3
*X76
  1

  0
TEXT
  5
899
  8
回02-寸法
  6
CONTINUOUS
 62
     5
 10
-55.75874532894931
 20
-2839.209605631618
 30
0.0
 40
3.0
  1
13.5
  0
TEXT
  5
89A
  8
回02-寸法
  6
CONTINUOUS
 62
     5
 10
-49.15874532894931
 20
-2839.209605631618
 30
0.0
 40
2.1
  1
±0.1
  0
ENDBLK
  5
89C
  8
回02-寸法
  6
CONTINUOUS
 62
     7
  0
BLOCK
  8
回02-寸法
  2
*X77
 70
     1
 10
0.0
 20
0.0
 30
0.0
  3
*X77
  1

  0
TEXT
  5
89F
  8
回02-寸法
  6
CONTINUOUS
 62
     5
 10
-70.07003421797754
 20
-2796.17889283109
 30
0.0
 40
5.00001
  1
60
 50
90.0
  0
TEXT
  5
8A0
  8
回02-寸法
  6
CONTINUOUS
 62
     5
 10
-70.07003421797754
 20
-2789.17887883109
 30
0.0
 40
3.6
  1
±1
 50
90.0
  0
ENDBLK
  5
8A2
  8
回02-寸法
  6
CONTINUOUS
 62
     7
  0
BLOCK
  8
回02-寸法
  2
*X78
 70
     1
 10
0.0
 20
0.0
 30
0.0
  3
*X78
  1

  0
TEXT
  5
8A5
  8
回02-寸法
  6
CONTINUOUS
 62
     5
 10
4.93855915250333
 20
-2792.51031856864
 30
0.0
 40
5.000099999999999
  1
60
 50
90.0
  0
TEXT
  5
8A6
  8
回02-寸法
  6
CONTINUOUS
 62
     5
 10
4.93855915250333
 20
-2785.51017856864
 30
0.0
 40
3.6
  1
±1
 50
90.0
  0
ENDBLK
  5
8A8
  8
回02-寸法
  6
CONTINUOUS
 62
     7
  0
BLOCK
  8
回02-寸法
  2
*X79
 70
     1
 10
0.0
 20
0.0
 30
0.0
  3
*X79
  1

  0
TEXT
  5
8AB
  8
回02-寸法
  6
CONTINUOUS
 62
     5
 10
-28.94658728559241
 20
-2626.857994051262
 30
0.0
 40
3.0
  1
152.4
  0
TEXT
  5
8AC
  8
回02-寸法
  6
CONTINUOUS
 62
     5
 10
-19.94658728559241
 20
-2626.857994051262
 30
0.0
 40
2.00001
  1
 (Active area)
  0
ENDBLK
  5
8AE
  8
回02-寸法
  6
CONTINUOUS
 62
     7
  0
BLOCK
  8
回02-寸法
  2
*X80
 70
     1
 10
0.0
 20
0.0
 30
0.0
  3
*X80
  1

  0
TEXT
  5
8B1
  8
回02-寸法
  6
CONTINUOUS
 62
     5
 10
-31.5665882855926
 20
-2620.55511756735
 30
0.0
 40
3.0
  1
168.8
  0
TEXT
  5
8B2
  8
回02-寸法
  6
CONTINUOUS
 62
     5
 10
-22.86658828559259
 20
-2620.55511756735
 30
0.0
 40
2.1
  1
±0.5
  0
TEXT
  5
8B3
  8
回02-寸法
  6
CONTINUOUS
 62
     5
 10
-17.82658828559259
 20
-2620.55511756735
 30
0.0
 40
2.00001
  1
 (Touch panel)
  0
ENDBLK
  5
8B5
  8
回02-寸法
  6
CONTINUOUS
 62
     7
  0
BLOCK
  8
回02-寸法
  2
*X81
 70
     1
 10
0.0
 20
0.0
 30
0.0
  3
*X81
  1

  0
TEXT
  5
8B8
  8
回02-寸法
  6
CONTINUOUS
 62
     5
 10
-31.12158781059241
 20
-2615.079828324734
 30
0.0
 40
3.0
  1
183.1
  0
TEXT
  5
8B9
  8
回02-寸法
  6
CONTINUOUS
 62
     5
 10
-23.02158781059242
 20
-2615.079828324734
 30
0.0
 40
2.1
  1
±0.3
  0
TEXT
  5
8BA
  8
回02-寸法
  6
CONTINUOUS
 62
     5
 10
-17.98158781059241
 20
-2615.079828324734
 30
0.0
 40
2.00001
  1
 (Cover glass)
  0
ENDBLK
  5
8BC
  8
回02-寸法
  6
CONTINUOUS
 62
     7
  0
BLOCK
  8
回02-寸法
  2
*X82
 70
     1
 10
0.0
 20
0.0
 30
0.0
  3
*X82
  1

  0
TEXT
  5
8BF
  8
回02-寸法
  6
CONTINUOUS
 62
     5
 10
-120.0793903752928
 20
-2716.703833858592
 30
0.0
 40
3.0
  1
91.44
 50
90.0
  0
TEXT
  5
8C0
  8
回02-寸法
  6
CONTINUOUS
 62
     5
 10
-120.0793903752928
 20
-2707.393002753012
 30
0.0
 40
2.00001
  1
 (Active area)
 50
90.0
  0
ENDBLK
  5
8C2
  8
回02-寸法
  6
CONTINUOUS
 62
     7
  0
BLOCK
  8
回02-寸法
  2
*X83
 70
     1
 10
0.0
 20
0.0
 30
0.0
  3
*X83
  1

  0
TEXT
  5
8C5
  8
回02-寸法
  6
CONTINUOUS
 62
     5
 10
-125.7492294869535
 20
-2720.675532002939
 30
0.0
 40
3.0
  1
111.4
 50
90.0
  0
TEXT
  5
8C6
  8
回02-寸法
  6
CONTINUOUS
 62
     5
 10
-125.7492294869535
 20
-2712.875532002939
 30
0.0
 40
2.1
  1
±0.5
 50
90.0
  0
TEXT
  5
8C7
  8
回02-寸法
  6
CONTINUOUS
 62
     5
 10
-125.7492294869535
 20
-2707.835532002939
 30
0.0
 40
2.00001
  1
 (Touch panel)
 50
90.0
  0
ENDBLK
  5
8C9
  8
回02-寸法
  6
CONTINUOUS
 62
     7
  0
BLOCK
  8
回02-寸法
  2
*X84
 70
     1
 10
0.0
 20
0.0
 30
0.0
  3
*X84
  1

  0
TEXT
  5
8CC
  8
回02-寸法
  6
CONTINUOUS
 62
     5
 10
-131.621929655977
 20
-2717.528003278012
 30
0.0
 40
3.0
  1
132
 50
90.0
  0
TEXT
  5
8CD
  8
回02-寸法
  6
CONTINUOUS
 62
     5
 10
-131.621929655977
 20
-2711.828003278012
 30
0.0
 40
2.1
  1
±0.3
 50
90.0
  0
TEXT
  5
8CE
  8
回02-寸法
  6
CONTINUOUS
 62
     5
 10
-131.621929655977
 20
-2706.788003278012
 30
0.0
 40
2.00001
  1
 (Cover glass)
 50
90.0
  0
ENDBLK
  5
8D0
  8
回02-寸法
  6
CONTINUOUS
 62
     7
  0
BLOCK
  8
回02-寸法
  2
*X85
 70
     1
 10
0.0
 20
0.0
 30
0.0
  3
*X85
  1

  0
TEXT
  5
8D3
  8
回02-寸法
  6
CONTINUOUS
 62
     5
 10
-120.1486927980595
 20
-2621.05512006735
 30
0.0
 40
3.0
  1
7.1
  0
TEXT
  5
8D4
  8
回02-寸法
  6
CONTINUOUS
 62
     5
 10
-115.6486927980596
 20
-2621.05512006735
 30
0.0
 40
2.1
  1
±0.6
  0
ENDBLK
  5
8D6
  8
回02-寸法
  6
CONTINUOUS
 62
     7
  0
BLOCK
  8
回02-寸法
  2
*X86
 70
     1
 10
0.0
 20
0.0
 30
0.0
  3
*X86
  1

  0
TEXT
  5
8D9
  8
回02-寸法
  6
CONTINUOUS
 62
     5
 10
-125.2492269869535
 20
-2782.805108265479
 30
0.0
 40
3.0
  1
8.3
 50
90.0
  0
TEXT
  5
8DA
  8
回02-寸法
  6
CONTINUOUS
 62
     5
 10
-125.2492269869535
 20
-2777.705108265479
 30
0.0
 40
2.1
  1
±0.6
 50
90.0
  0
ENDBLK
  5
8DC
  8
回02-寸法
  6
CONTINUOUS
 62
     7
  0
BLOCK
  8
回02-寸法
  2
*X87
 70
     1
 10
0.0
 20
0.0
 30
0.0
  3
*X87
  1

  0
TEXT
  5
8DF
  8
回02-寸法
  6
CONTINUOUS
 62
     5
 10
-65.48560625521054
 20
-2908.360915000511
 30
0.0
 40
3.0
  1
13.5
  0
TEXT
  5
8E0
  8
回02-寸法
  6
CONTINUOUS
 62
     5
 10
-58.88560625521054
 20
-2908.360915000511
 30
0.0
 40
2.1
  1
±0.1
  0
ENDBLK
  5
8E2
  8
回02-寸法
  6
CONTINUOUS
 62
     7
  0
BLOCK
  8
回02-寸法
  2
*X88
 70
     1
 10
0.0
 20
0.0
 30
0.0
  3
*X88
  1

  0
TEXT
  5
8E5
  8
回02-寸法
  6
CONTINUOUS
 62
     5
 10
-41.59811044971266
 20
-2924.032230826065
 30
0.0
 40
3.999989999999999
  1
20.5
  0
TEXT
  5
8E6
  8
回02-寸法
  6
CONTINUOUS
 62
     5
 10
-31.99813444971267
 20
-2924.032230826065
 30
0.0
 40
3.6
  1
±0.1
  0
ENDBLK
  5
8E8
  8
回02-寸法
  6
CONTINUOUS
 62
     7
  0
BLOCK
  8
回02-寸法
  2
*X89
 70
     1
 10
0.0
 20
0.0
 30
0.0
  3
*X89
  1

  0
TEXT
  5
8EB
  8
回02-寸法
  6
CONTINUOUS
 62
     5
 10
-134.9760879132145
 20
-2851.956417634372
 30
0.0
 40
3.0
  1
8.3
 50
90.0
  0
TEXT
  5
8EC
  8
回02-寸法
  6
CONTINUOUS
 62
     5
 10
-134.9760879132145
 20
-2846.856417634372
 30
0.0
 40
2.1
  1
±0.6
 50
90.0
  0
ENDBLK
  5
8EE
  8
回02-寸法
  6
CONTINUOUS
 62
     7
  0
BLOCK
  8
回02-寸法
  2
*X90
 70
     1
 10
0.0
 20
0.0
 30
0.0
  3
*X90
  1

  0
TEXT
  5
8F1
  8
回02-寸法
  6
CONTINUOUS
 62
     5
 10
-129.8755537243208
 20
-2690.206429436243
 30
0.0
 40
3.0
  1
7.1
  0
TEXT
  5
8F2
  8
回02-寸法
  6
CONTINUOUS
 62
     5
 10
-125.3755537243208
 20
-2690.206429436243
 30
0.0
 40
2.1
  1
±0.6
  0
ENDBLK
  5
8F4
  8
回02-寸法
  6
CONTINUOUS
 62
     7
  0
BLOCK
  8
回02-寸法
  2
*X91
 70
     1
 10
0.0
 20
0.0
 30
0.0
  3
*X91
  1

  0
TEXT
  5
8F7
  8
回02-寸法
  6
CONTINUOUS
 62
     5
 10
-141.3487905822385
 20
-2786.679312646905
 30
0.0
 40
3.0
  1
132
 50
90.0
  0
TEXT
  5
8F8
  8
回02-寸法
  6
CONTINUOUS
 62
     5
 10
-141.3487905822385
 20
-2780.979312646905
 30
0.0
 40
2.1
  1
±0.3
 50
90.0
  0
TEXT
  5
8F9
  8
回02-寸法
  6
CONTINUOUS
 62
     5
 10
-141.3487905822385
 20
-2775.939312646905
 30
0.0
 40
2.00001
  1
 (Cover glass)
 50
90.0
  0
ENDBLK
  5
8FB
  8
回02-寸法
  6
CONTINUOUS
 62
     7
  0
BLOCK
  8
回02-寸法
  2
*X92
 70
     1
 10
0.0
 20
0.0
 30
0.0
  3
*X92
  1

  0
TEXT
  5
8FE
  8
回02-寸法
  6
CONTINUOUS
 62
     5
 10
-135.4760904132149
 20
-2789.826841371832
 30
0.0
 40
3.0
  1
111.4
 50
90.0
  0
TEXT
  5
8FF
  8
回02-寸法
  6
CONTINUOUS
 62
     5
 10
-135.4760904132149
 20
-2782.026841371833
 30
0.0
 40
2.1
  1
±0.5
 50
90.0
  0
TEXT
  5
900
  8
回02-寸法
  6
CONTINUOUS
 62
     5
 10
-135.4760904132149
 20
-2776.986841371833
 30
0.0
 40
2.00001
  1
 (Touch panel)
 50
90.0
  0
ENDBLK
  5
902
  8
回02-寸法
  6
CONTINUOUS
 62
     7
  0
BLOCK
  8
回02-寸法
  2
*X93
 70
     1
 10
0.0
 20
0.0
 30
0.0
  3
*X93
  1

  0
TEXT
  5
905
  8
回02-寸法
  6
CONTINUOUS
 62
     5
 10
-129.8062513015543
 20
-2785.855143227486
 30
0.0
 40
3.0
  1
91.44
 50
90.0
  0
TEXT
  5
906
  8
回02-寸法
  6
CONTINUOUS
 62
     5
 10
-129.8062513015543
 20
-2776.544312121905
 30
0.0
 40
2.00001
  1
 (Active area)
 50
90.0
  0
ENDBLK
  5
908
  8
回02-寸法
  6
CONTINUOUS
 62
     7
  0
BLOCK
  8
回02-寸法
  2
*X94
 70
     1
 10
0.0
 20
0.0
 30
0.0
  3
*X94
  1

  0
TEXT
  5
90B
  8
回02-寸法
  6
CONTINUOUS
 62
     5
 10
-40.84844873685364
 20
-2684.231137693627
 30
0.0
 40
3.0
  1
183.1
  0
TEXT
  5
90C
  8
回02-寸法
  6
CONTINUOUS
 62
     5
 10
-32.74844873685364
 20
-2684.231137693627
 30
0.0
 40
2.1
  1
±0.3
  0
TEXT
  5
90D
  8
回02-寸法
  6
CONTINUOUS
 62
     5
 10
-27.70844873685364
 20
-2684.231137693627
 30
0.0
 40
2.00001
  1
 (Cover glass)
  0
ENDBLK
  5
90F
  8
回02-寸法
  6
CONTINUOUS
 62
     7
  0
BLOCK
  8
回02-寸法
  2
*X95
 70
     1
 10
0.0
 20
0.0
 30
0.0
  3
*X95
  1

  0
TEXT
  5
912
  8
回02-寸法
  6
CONTINUOUS
 62
     5
 10
-41.29344921185382
 20
-2689.706426936243
 30
0.0
 40
3.0
  1
168.8
  0
TEXT
  5
913
  8
回02-寸法
  6
CONTINUOUS
 62
     5
 10
-32.59344921185383
 20
-2689.706426936243
 30
0.0
 40
2.1
  1
±0.5
  0
TEXT
  5
914
  8
回02-寸法
  6
CONTINUOUS
 62
     5
 10
-27.55344921185383
 20
-2689.706426936243
 30
0.0
 40
2.00001
  1
 (Touch panel)
  0
ENDBLK
  5
916
  8
回02-寸法
  6
CONTINUOUS
 62
     7
  0
BLOCK
  8
回02-寸法
  2
*X96
 70
     1
 10
0.0
 20
0.0
 30
0.0
  3
*X96
  1

  0
TEXT
  5
919
  8
回02-寸法
  6
CONTINUOUS
 62
     5
 10
-38.67344821185364
 20
-2696.009303420155
 30
0.0
 40
3.0
  1
152.4
  0
TEXT
  5
91A
  8
回02-寸法
  6
CONTINUOUS
 62
     5
 10
-29.67344821185364
 20
-2696.009303420155
 30
0.0
 40
2.00001
  1
 (Active area)
  0
ENDBLK
  5
91C
  8
回02-寸法
  6
CONTINUOUS
 62
     7
  0
BLOCK
  8
回02-寸法
  2
*X97
 70
     1
 10
0.0
 20
0.0
 30
0.0
  3
*X97
  1

  0
TEXT
  5
91F
  8
回02-寸法
  6
CONTINUOUS
 62
     5
 10
-4.788301773757666
 20
-2861.661627937533
 30
0.0
 40
5.000099999999999
  1
60
 50
90.0
  0
TEXT
  5
920
  8
回02-寸法
  6
CONTINUOUS
 62
     5
 10
-4.788301773757666
 20
-2854.661487937534
 30
0.0
 40
3.6
  1
±1
 50
90.0
  0
ENDBLK
  5
922
  8
回02-寸法
  6
CONTINUOUS
 62
     7
  0
BLOCK
  8
回02-寸法
  2
*X98
 70
     1
 10
0.0
 20
0.0
 30
0.0
  3
*X98
  1

  0
TEXT
  5
925
  8
回02-寸法
  6
CONTINUOUS
 62
     5
 10
-79.79689514423899
 20
-2865.330202199983
 30
0.0
 40
5.00001
  1
60
 50
90.0
  0
TEXT
  5
926
  8
回02-寸法
  6
CONTINUOUS
 62
     5
 10
-79.79689514423899
 20
-2858.330188199982
 30
0.0
 40
3.6
  1
±1
 50
90.0
  0
ENDBLK
  5
928
  8
回02-寸法
  6
CONTINUOUS
 62
     7
  0
BLOCK
  8
回02-寸法
  2
*X99
 70
     1
 10
0.0
 20
0.0
 30
0.0
  3
*X99
  1

  0
TEXT
  5
92B
  8
回03-記事
  6
CONTINUOUS
 62
     5
 10
123.5246561847172
 20
-2901.284706945969
 30
0.0
 40
3.0
  1
0.3
  0
TEXT
  5
92C
  8
回03-記事
  6
CONTINUOUS
 62
     5
 10
128.6246561847172
 20
-2901.284706945969
 30
0.0
 40
2.00001
  1
±0.03
  0
ENDBLK
  5
92E
  8
回02-寸法
  6
CONTINUOUS
 62
     7
  0
BLOCK
  8
回02-寸法
  2
*X100
 70
     1
 10
0.0
 20
0.0
 30
0.0
  3
*X100
  1

  0
TEXT
  5
931
  8
回03-記事
  6
CONTINUOUS
 62
     5
 10
128.6827494781784
 20
-2895.651320348512
 30
0.0
 40
3.0
  1
0.3
  0
TEXT
  5
932
  8
回03-記事
  6
CONTINUOUS
 62
     5
 10
133.7827494781784
 20
-2895.651320348512
 30
0.0
 40
2.00001
  1
±0.03
  0
ENDBLK
  5
934
  8
回02-寸法
  6
CONTINUOUS
 62
     7
  0
BLOCK
  8
回02-寸法
  2
*X101
 70
     1
 10
0.0
 20
0.0
 30
0.0
  3
*X101
  1

  0
TEXT
  5
937
  8
回03-記事
  6
CONTINUOUS
 62
     5
 10
105.9805309813077
 20
-2696.588508077522
 30
0.0
 40
5.00001
  1
4.3
  0
TEXT
  5
938
  8
回03-記事
  6
CONTINUOUS
 62
     5
 10
114.9805489813077
 20
-2696.588508077522
 30
0.0
 40
3.0
  1
±0.2
  0
ENDBLK
  5
93A
  8
回02-寸法
  6
CONTINUOUS
 62
     7
  0
ENDSEC
  0
SECTION
  2
ENTITIES
  0
TEXT
  5
62
  8
回06-記事
  6
CONTINUOUS
 10
197.7191432143509
 20
-2903.555207765314
 30
0.0
 40
2.808
  1
POLYIMIDE     
  0
TEXT
  5
64
  8
回06-記事
  6
CONTINUOUS
 10
197.7191432143509
 20
-2898.875207765314
 30
0.0
 40
2.808
  1
POLYIMIDE     
  0
TEXT
  5
65
  8
回06-記事
  6
CONTINUOUS
 10
268.4942735848742
 20
-2868.327533340951
 30
0.0
 40
2.97
  1
mm
  0
TEXT
  5
66
  8
回06-記事
  6
CONTINUOUS
 10
256.7742330637297
 20
-2863.647533340951
 30
0.0
 40
2.97
  1
0.1-0.2mm
  0
TEXT
  5
67
  8
回06-記事
  6
CONTINUOUS
 10
239.3066291559203
 20
-2920.485304916415
 30
0.0
 40
1.9656
  1
Black printing
  0
TEXT
  5
68
  8
0
  6
CONTINUOUS
 10
239.0449889933698
 20
-2891.866044453141
 30
0.0
 40
1.417815322900632
  1
Electrolytic copper foil 
  0
TEXT
  5
69
  8
0
  6
CONTINUOUS
 10
239.0449889933698
 20
-2894.115015760304
 30
0.0
 40
1.417815322900632
  1
GILDING 
  0
TEXT
  5
6A
  8
回06-記事
  6
CONTINUOUS
 10
239.3066291559203
 20
-2916.661143248533
 30
0.0
 40
1.9656
  1
Clear/Chemical strengthening
  0
TEXT
  5
6B
  8
回06-記事
  6
CONTINUOUS
 10
210.0107657962355
 20
-2918.677151553611
 30
0.0
 40
2.808
  1
t=1.8mm
  0
TEXT
  5
6C
  8
回06-記事
  6
CONTINUOUS
 10
155.5537461393466
 20
-2918.954568460783
 30
0.0
 40
2.808
  1
8
  0
TEXT
  5
6D
  8
回06-記事
  6
CONTINUOUS
 10
159.4267681005192
 20
-2919.223320347916
 30
0.0
 40
2.808
  1
COVER GLASS
  0
LINE
  5
6E
  8
回06-記事
  6
CONTINUOUS
 10
154.1191237188435
 20
-2921.800377415032
 30
0.0
 11
275.8333508767896
 21
-2921.800377415032
 31
0.0
  0
TEXT
  5
6F
  8
回06-記事
  6
CONTINUOUS
 10
210.0107657962354
 20
-2884.576985684231
 30
0.0
 40
2.808
  1
t=1.1mm
  0
TEXT
  5
70
  8
回06-記事
  6
CONTINUOUS
 10
268.4942735848744
 20
-2858.967533340951
 30
0.0
 40
2.97
  1
mm
  0
TEXT
  5
71
  8
回06-記事
  6
CONTINUOUS
 10
256.0642570271998
 20
-2854.287533340951
 30
0.0
 40
2.97
  1
0.2-0.3mm
  0
TEXT
  5
72
  8
回06-記事
  6
CONTINUOUS
 10
226.0233365739755
 20
-2912.713245791378
 30
0.0
 40
2.7
  1
25μm
  0
TEXT
  5
73
  8
回06-記事
  6
CONTINUOUS
 10
225.0106219965087
 20
-2908.033245791378
 30
0.0
 40
2.7
  1
150μm
  0
TEXT
  5
74
  8
回06-記事
  6
CONTINUOUS
 10
197.7191432143509
 20
-2912.759832108688
 30
0.0
 40
2.808
  1
POLYESTER
  0
TEXT
  5
75
  8
回06-記事
  6
CONTINUOUS
 10
224.6055361655216
 20
-2903.353245791377
 30
0.0
 40
2.7
  1
225μm
  0
TEXT
  5
76
  8
回06-記事
  6
CONTINUOUS
 10
226.6309711364754
 20
-2898.673245791377
 30
0.0
 40
2.7
  1
25μm
  0
TEXT
  5
77
  8
回06-記事
  6
CONTINUOUS
 10
224.5042676157861
 20
-2893.993245791378
 30
0.0
 40
2.7
  1
12.5μm
  0
TEXT
  5
78
  8
回06-記事
  6
CONTINUOUS
 10
197.7191432143509
 20
-2894.195207765314
 30
0.0
 40
2.808
  1
POLYIMIDE     
  0
TEXT
  5
79
  8
回06-記事
  6
CONTINUOUS
 10
263.3285481126826
 20
-2849.607533340951
 30
0.0
 40
2.97
  1
0.5mm
  0
TEXT
  5
7A
  8
回06-記事
  6
CONTINUOUS
 10
155.5537461393466
 20
-2912.617431301931
 30
0.0
 40
2.808
  1
7
  0
LINE
  5
7B
  8
回06-記事
  6
CONTINUOUS
 10
154.1191237188435
 20
-2913.423688238853
 30
0.0
 11
275.8333508767895
 21
-2913.423688238853
 31
0.0
  0
TEXT
  5
7C
  8
回06-記事
  6
CONTINUOUS
 10
159.7695121601101
 20
-2907.859158362448
 30
0.0
 40
2.7
  1
ADHESIVE SHEET
  0
TEXT
  5
7D
  8
回06-記事
  6
CONTINUOUS
 10
159.6082739963047
 20
-2912.508212890309
 30
0.0
 40
2.7
  1
PROTECTION TAPE
  0
TEXT
  5
7E
  8
回06-記事
  6
CONTINUOUS
 10
155.5537461393466
 20
-2907.937431301931
 30
0.0
 40
2.808
  1
6
  0
LINE
  5
7F
  8
回06-記事
  6
CONTINUOUS
 10
154.1191237188435
 20
-2908.743688238853
 30
0.0
 11
275.8333508767896
 21
-2908.743688238853
 31
0.0
  0
TEXT
  5
80
  8
回06-記事
  6
CONTINUOUS
 10
159.4267681005191
 20
-2903.526183189063
 30
0.0
 40
2.808
  1
STIFFENER
  0
TEXT
  5
81
  8
回06-記事
  6
CONTINUOUS
 10
159.4267681005191
 20
-2898.846183189063
 30
0.0
 40
2.808
  1
REINFORCEMENT FILM
  0
LINE
  5
82
  8
回06-記事
  6
CONTINUOUS
 10
235.9186334705192
 20
-2868.822533340951
 30
0.0
 11
235.9186334705192
 21
-2845.422533340951
 31
0.0
  0
TEXT
  5
83
  8
回06-記事
  6
CONTINUOUS
 10
189.1301354245045
 20
-2849.491709826316
 30
0.0
 40
2.808
  1
FPC PATTERN PITCH
  0
TEXT
  5
84
  8
回06-記事
  6
CONTINUOUS
 10
188.9772892576656
 20
-2856.156886248879
 30
0.0
 40
2.808
  1
FPC PATTERN WIDTH
  0
TEXT
  5
85
  8
回06-記事
  6
CONTINUOUS
 10
187.660431073541
 20
-2865.723473090429
 30
0.0
 40
2.808
  1
CIRCUIT PATTERN WIDTH
  0
LINE
  5
86
  8
回06-記事
  6
CONTINUOUS
 10
230.331987072527
 20
-2868.822533340951
 30
0.0
 11
230.331987072527
 21
-2850.102533340951
 31
0.0
  0
LINE
  5
87
  8
回06-記事
  6
CONTINUOUS
 10
187.3502737615556
 20
-2873.502533340951
 30
0.0
 11
275.8333508767895
 21
-2873.502533340951
 31
0.0
  0
TEXT
  5
88
  8
回06-記事
  6
CONTINUOUS
 10
223.0139203833387
 20
-2844.988155021674
 30
0.0
 40
3.744
  1
REMARKS
  0
LINE
  5
89
  8
回06-記事
  6
CONTINUOUS
 10
230.3319870725272
 20
-2864.14253334095
 30
0.0
 11
275.8333508767895
 21
-2864.14253334095
 31
0.0
  0
LINE
  5
8A
  8
回06-記事
  6
CONTINUOUS
 10
230.3319870725272
 20
-2854.782533340951
 30
0.0
 11
275.8333508767895
 21
-2854.782533340951
 31
0.0
  0
LINE
  5
8B
  8
回06-記事
  6
CONTINUOUS
 10
187.3502737615556
 20
-2868.822533340951
 30
0.0
 11
275.8333508767895
 21
-2868.822533340951
 31
0.0
  0
LINE
  5
8C
  8
回06-記事
  6
CONTINUOUS
 10
187.3502737615556
 20
-2840.742533340951
 30
0.0
 11
275.8333508767895
 21
-2840.742533340951
 31
0.0
  0
LINE
  5
8D
  8
回06-記事
  6
CONTINUOUS
 10
187.3502737615556
 20
-2845.422533340951
 30
0.0
 11
275.8333508767895
 21
-2845.422533340951
 31
0.0
  0
LINE
  5
8E
  8
回06-記事
  6
CONTINUOUS
 10
187.3502737615556
 20
-2850.102533340951
 30
0.0
 11
275.8333508767895
 21
-2850.102533340951
 31
0.0
  0
LINE
  5
8F
  8
回06-記事
  6
CONTINUOUS
 10
187.3502737615556
 20
-2859.462533340951
 30
0.0
 11
275.8333508767895
 21
-2859.462533340951
 31
0.0
  0
TEXT
  5
90
  8
回06-記事
  6
CONTINUOUS
 10
230.7737862847452
 20
-2853.493790701384
 30
0.0
 40
2.808
  1
Cu
  0
TEXT
  5
91
  8
回06-記事
  6
CONTINUOUS
 10
230.7737862847452
 20
-2862.975150742792
 30
0.0
 40
2.808
  1
Ag
  0
TEXT
  5
92
  8
回06-記事
  6
CONTINUOUS
 10
231.7816054751651
 20
-2868.009503110956
 30
0.0
 40
2.808
  1
-
  0
TEXT
  5
93
  8
回06-記事
  6
CONTINUOUS
 10
231.7816054751651
 20
-2858.863765566815
 30
0.0
 40
2.808
  1
-
  0
TEXT
  5
94
  8
回06-記事
  6
CONTINUOUS
 10
248.7526742682985
 20
-2880.00308364254
 30
0.0
 40
2.808
  1
REMARKS
  0
LINE
  5
95
  8
回06-記事
  6
CONTINUOUS
 10
275.8333508767896
 20
-2921.800377415031
 30
0.0
 11
275.8333508767896
 21
-2875.983688238853
 31
0.0
  0
TEXT
  5
96
  8
回06-記事
  6
CONTINUOUS
 10
206.8799231424628
 20
-2880.028088922456
 30
0.0
 40
2.808
  1
MATERIAL
  0
TEXT
  5
97
  8
回06-記事
  6
CONTINUOUS
 10
170.4776987924621
 20
-2879.773848685686
 30
0.0
 40
2.808
  1
ITEM
  0
TEXT
  5
98
  8
回06-記事
  6
CONTINUOUS
 10
210.0107657962354
 20
-2888.940014394758
 30
0.0
 40
2.808
  1
t=1.1mm
  0
LINE
  5
99
  8
回06-記事
  6
CONTINUOUS
 10
197.3374441494981
 20
-2921.800377415032
 30
0.0
 11
197.3374441494981
 21
-2875.983688238853
 31
0.0
  0
LINE
  5
9A
  8
回06-記事
  6
CONTINUOUS
 10
238.2766303681511
 20
-2921.800377415032
 30
0.0
 11
238.2766303681511
 21
-2875.983688238853
 31
0.0
  0
TEXT
  5
9B
  8
回06-記事
  6
CONTINUOUS
 10
188.819975740879
 20
-2872.483253715822
 30
0.0
 40
2.5272
  1
○TOLERANCE=±0.3mm
  0
TEXT
  5
9C
  8
回06-記事
  6
CONTINUOUS
 10
155.5537461393466
 20
-2893.897431301931
 30
0.0
 40
2.808
  1
3
  0
TEXT
  5
9D
  8
回06-記事
  6
CONTINUOUS
 10
155.5537461393466
 20
-2898.57743130193
 30
0.0
 40
2.808
  1
4
  0
TEXT
  5
9E
  8
回06-記事
  6
CONTINUOUS
 10
155.5537461393466
 20
-2889.217431301931
 30
0.0
 40
2.808
  1
2
  0
TEXT
  5
9F
  8
回06-記事
  6
CONTINUOUS
 10
155.5537461393466
 20
-2903.257431301931
 30
0.0
 40
2.808
  1
5
  0
LINE
  5
A0
  8
回06-記事
  6
CONTINUOUS
 10
158.988480460163
 20
-2875.983688238853
 30
0.0
 11
158.988480460163
 21
-2921.800377415032
 31
0.0
  0
LINE
  5
A1
  8
回06-記事
  6
CONTINUOUS
 10
154.1191237188435
 20
-2875.983688238853
 30
0.0
 11
154.1191237188435
 21
-2921.800377415032
 31
0.0
  0
TEXT
  5
A2
  8
回06-記事
  6
CONTINUOUS
 10
155.5537461393466
 20
-2884.53743130193
 30
0.0
 40
2.808
  1
1
  0
LINE
  5
A3
  8
回06-記事
  6
CONTINUOUS
 10
154.1191237188435
 20
-2904.063688238853
 30
0.0
 11
275.8333508767895
 21
-2904.063688238853
 31
0.0
  0
LINE
  5
A4
  8
回06-記事
  6
CONTINUOUS
 10
154.1191237188435
 20
-2875.983688238853
 30
0.0
 11
275.8333508767893
 21
-2875.983688238853
 31
0.0
  0
LINE
  5
A5
  8
回06-記事
  6
CONTINUOUS
 10
154.1191237188435
 20
-2885.343688238853
 30
0.0
 11
275.8333508767893
 21
-2885.343688238853
 31
0.0
  0
LINE
  5
A6
  8
回06-記事
  6
CONTINUOUS
 10
154.1191237188435
 20
-2880.663688238853
 30
0.0
 11
275.8333508767893
 21
-2880.663688238853
 31
0.0
  0
LINE
  5
A7
  8
回06-記事
  6
CONTINUOUS
 10
154.1191237188435
 20
-2899.383688238853
 30
0.0
 11
275.8333508767895
 21
-2899.383688238853
 31
0.0
  0
LINE
  5
A8
  8
回06-記事
  6
CONTINUOUS
 10
154.1191237188435
 20
-2894.703688238852
 30
0.0
 11
275.8333508767894
 21
-2894.703688238852
 31
0.0
  0
LINE
  5
A9
  8
回06-記事
  6
CONTINUOUS
 10
154.1191237188435
 20
-2890.023688238853
 30
0.0
 11
275.8333508767894
 21
-2890.023688238853
 31
0.0
  0
TEXT
  5
AA
  8
回06-記事
  6
CONTINUOUS
 10
159.4267681005191
 20
-2884.806183189063
 30
0.0
 40
2.808
  1
TOP ITO GLASS
  0
TEXT
  5
AB
  8
回06-記事
  6
CONTINUOUS
 10
159.4267681005191
 20
-2889.486183189063
 30
0.0
 40
2.808
  1
BOTTOM ITO GLASS
  0
TEXT
  5
AC
  8
回06-記事
  6
CONTINUOUS
 10
159.4267681005191
 20
-2894.166183189062
 30
0.0
 40
2.808
  1
FPC
  0
LINE
  5
AD
  8
回06-記事
  6
CONTINUOUS
 10
275.8333508767893
 20
-2873.50253334095
 30
0.0
 11
275.8333508767893
 21
-2840.742533340951
 31
0.0
  0
LINE
  5
AE
  8
回06-記事
  6
CONTINUOUS
 10
187.3502737615556
 20
-2840.742533340951
 30
0.0
 11
187.3502737615556
 21
-2873.502533340951
 31
0.0
  0
LINE
  5
AF
  8
回07-記事
  6
CONTINUOUS
 62
     7
 10
254.4844469170824
 20
-2674.197493312601
 30
0.0
 11
261.7103473915636
 21
-2674.197493312601
 31
0.0
  0
TEXT
  5
B1
  8
回07-記事
  6
CONTINUOUS
 62
     7
 10
263.5376882700929
 20
-2675.528210223006
 30
0.0
 40
2.582236799999999
  1
NC
  7
2MM
1001
ACAD
1000
MTEXTBEGIN
1070
    73
1070
     1
1070
    44
1040
1.0
1070
    74
1070
     0
1000
MTEXTEND
  0
LINE
  5
B3
  8
回07-記事
  6
CONTINUOUS
 62
     7
 10
254.4844469170824
 20
-2674.197493312601
 30
0.0
 11
261.7103473915636
 21
-2674.197493312601
 31
0.0
  0
LINE
  5
B4
  8
回07-記事
  6
CONTINUOUS
 62
     7
 10
254.4844469170824
 20
-2674.197493312601
 30
0.0
 11
261.7103473915636
 21
-2674.197493312601
 31
0.0
  0
LINE
  5
B5
  8
回07-記事
  6
CONTINUOUS
 62
     7
 10
254.4844469170824
 20
-2678.015034839115
 30
0.0
 11
261.7103473915636
 21
-2678.015034839115
 31
0.0
  0
TEXT
  5
B6
  8
回07-記事
  6
CONTINUOUS
 62
     7
 10
263.5376882700929
 20
-2679.345751749519
 30
0.0
 40
2.582236799999999
  1
NC
  7
2MM
1001
ACAD
1000
MTEXTBEGIN
1070
    73
1070
     1
1070
    44
1040
1.0
1070
    74
1070
     0
1000
MTEXTEND
  0
LINE
  5
B7
  8
回07-記事
  6
CONTINUOUS
 62
     7
 10
254.4844469170824
 20
-2678.015034839114
 30
0.0
 11
261.7103473915636
 21
-2678.015034839114
 31
0.0
  0
TEXT
  5
B8
  8
回07-記事
  6
CONTINUOUS
 62
     7
 10
230.7061714315678
 20
-2675.554610242594
 30
0.0
 40
2.582236799999999
  1
Dummy
  7
2MM
1001
ACAD
1000
MTEXTBEGIN
1070
    73
1070
     1
1070
    44
1040
1.0
1070
    74
1070
     0
1000
MTEXTEND
  0
TEXT
  5
B9
  8
回07-記事
  6
CONTINUOUS
 62
     7
 10
230.7139291794369
 20
-2679.345751749519
 30
0.0
 40
2.582236799999999
  1
Y15
  7
2MM
1001
ACAD
1000
MTEXTBEGIN
1070
    73
1070
     1
1070
    44
1040
1.0
1070
    74
1070
     0
1000
MTEXTEND
  0
TEXT
  5
BA
  8
回07-記事
  6
CONTINUOUS
 62
     7
 10
230.7139291794369
 20
-2683.163293276033
 30
0.0
 40
2.582236799999999
  1
Y14
  7
2MM
1001
ACAD
1000
MTEXTBEGIN
1070
    73
1070
     1
1070
    44
1040
1.0
1070
    74
1070
     0
1000
MTEXTEND
  0
TEXT
  5
BB
  8
回07-記事
  6
CONTINUOUS
 62
     7
 10
230.7139291794369
 20
-2686.980834802545
 30
0.0
 40
2.582236799999999
  1
Y13
  7
2MM
1001
ACAD
1000
MTEXTBEGIN
1070
    73
1070
     1
1070
    44
1040
1.0
1070
    74
1070
     0
1000
MTEXTEND
  0
TEXT
  5
BC
  8
回07-記事
  6
CONTINUOUS
 62
     7
 10
230.7139291794369
 20
-2690.79837632906
 30
0.0
 40
2.582236799999999
  1
Y12
  7
2MM
1001
ACAD
1000
MTEXTBEGIN
1070
    73
1070
     1
1070
    44
1040
1.0
1070
    74
1070
     0
1000
MTEXTEND
  0
TEXT
  5
BD
  8
回07-記事
  6
CONTINUOUS
 62
     7
 10
230.7139291794369
 20
-2694.615917855573
 30
0.0
 40
2.582236799999999
  1
Y11
  7
2MM
1001
ACAD
1000
MTEXTBEGIN
1070
    73
1070
     1
1070
    44
1040
1.0
1070
    74
1070
     0
1000
MTEXTEND
  0
TEXT
  5
BE
  8
回07-記事
  6
CONTINUOUS
 62
     7
 10
230.7139291794369
 20
-2698.433459382087
 30
0.0
 40
2.582236799999999
  1
Y10
  7
2MM
1001
ACAD
1000
MTEXTBEGIN
1070
    73
1070
     1
1070
    44
1040
1.0
1070
    74
1070
     0
1000
MTEXTEND
  0
TEXT
  5
BF
  8
回07-記事
  6
CONTINUOUS
 62
     7
 10
230.7139291794369
 20
-2702.251000908601
 30
0.0
 40
2.582236799999999
  1
Y09
  7
2MM
1001
ACAD
1000
MTEXTBEGIN
1070
    73
1070
     1
1070
    44
1040
1.0
1070
    74
1070
     0
1000
MTEXTEND
  0
TEXT
  5
C0
  8
回07-記事
  6
CONTINUOUS
 62
     7
 10
230.7139291794369
 20
-2706.068542435114
 30
0.0
 40
2.582236799999999
  1
Y08
  7
2MM
1001
ACAD
1000
MTEXTBEGIN
1070
    73
1070
     1
1070
    44
1040
1.0
1070
    74
1070
     0
1000
MTEXTEND
  0
TEXT
  5
C1
  8
回07-記事
  6
CONTINUOUS
 62
     7
 10
230.7139291794369
 20
-2709.886083961627
 30
0.0
 40
2.582236799999999
  1
Y07
  7
2MM
1001
ACAD
1000
MTEXTBEGIN
1070
    73
1070
     1
1070
    44
1040
1.0
1070
    74
1070
     0
1000
MTEXTEND
  0
TEXT
  5
C2
  8
回07-記事
  6
CONTINUOUS
 62
     7
 10
230.7139291794369
 20
-2713.70362548814
 30
0.0
 40
2.582236799999999
  1
Y06
  7
2MM
1001
ACAD
1000
MTEXTBEGIN
1070
    73
1070
     1
1070
    44
1040
1.0
1070
    74
1070
     0
1000
MTEXTEND
  0
TEXT
  5
C3
  8
回07-記事
  6
CONTINUOUS
 62
     7
 10
230.7139291794369
 20
-2717.521167014653
 30
0.0
 40
2.582236799999999
  1
Y05
  7
2MM
1001
ACAD
1000
MTEXTBEGIN
1070
    73
1070
     1
1070
    44
1040
1.0
1070
    74
1070
     0
1000
MTEXTEND
  0
TEXT
  5
C4
  8
回07-記事
  6
CONTINUOUS
 62
     7
 10
230.7139291794369
 20
-2721.338708541168
 30
0.0
 40
2.582236799999999
  1
Y04
  7
2MM
1001
ACAD
1000
MTEXTBEGIN
1070
    73
1070
     1
1070
    44
1040
1.0
1070
    74
1070
     0
1000
MTEXTEND
  0
TEXT
  5
C5
  8
回07-記事
  6
CONTINUOUS
 62
     7
 10
230.7139291794369
 20
-2725.156250067681
 30
0.0
 40
2.582236799999999
  1
Y03
  7
2MM
1001
ACAD
1000
MTEXTBEGIN
1070
    73
1070
     1
1070
    44
1040
1.0
1070
    74
1070
     0
1000
MTEXTEND
  0
TEXT
  5
C6
  8
回07-記事
  6
CONTINUOUS
 62
     7
 10
230.7139291794369
 20
-2728.973791594194
 30
0.0
 40
2.582236799999999
  1
Y02
  7
2MM
1001
ACAD
1000
MTEXTBEGIN
1070
    73
1070
     1
1070
    44
1040
1.0
1070
    74
1070
     0
1000
MTEXTEND
  0
TEXT
  5
C7
  8
回07-記事
  6
CONTINUOUS
 62
     7
 10
230.7139291794369
 20
-2732.791333120708
 30
0.0
 40
2.582236799999999
  1
Y01
  7
2MM
1001
ACAD
1000
MTEXTBEGIN
1070
    73
1070
     1
1070
    44
1040
1.0
1070
    74
1070
     0
1000
MTEXTEND
  0
TEXT
  5
C8
  8
回07-記事
  6
CONTINUOUS
 62
     7
 10
230.7139291794369
 20
-2736.608874647222
 30
0.0
 40
2.582236799999999
  1
Y00
  7
2MM
1001
ACAD
1000
MTEXTBEGIN
1070
    73
1070
     1
1070
    44
1040
1.0
1070
    74
1070
     0
1000
MTEXTEND
  0
TEXT
  5
C9
  8
回07-記事
  6
CONTINUOUS
 62
     7
 10
230.7139291794369
 20
-2740.426416173736
 30
0.0
 40
2.582236799999999
  1
Dummy
  7
2MM
1001
ACAD
1000
MTEXTBEGIN
1070
    73
1070
     1
1070
    44
1040
1.0
1070
    74
1070
     0
1000
MTEXTEND
  0
TEXT
  5
CA
  8
回07-記事
  6
CONTINUOUS
 62
     7
 10
230.7139291794369
 20
-2744.24395770025
 30
0.0
 40
2.582236799999999
  1
NC
  7
2MM
1001
ACAD
1000
MTEXTBEGIN
1070
    73
1070
     1
1070
    44
1040
1.0
1070
    74
1070
     0
1000
MTEXTEND
  0
TEXT
  5
CB
  8
回07-記事
  6
CONTINUOUS
 62
     7
 10
230.7139291794369
 20
-2748.061499226762
 30
0.0
 40
2.582236799999999
  1
NC
  7
2MM
1001
ACAD
1000
MTEXTBEGIN
1070
    73
1070
     1
1070
    44
1040
1.0
1070
    74
1070
     0
1000
MTEXTEND
  0
TEXT
  5
CC
  8
回07-記事
  6
CONTINUOUS
 62
     7
 10
230.7139291794369
 20
-2751.879040753276
 30
0.0
 40
2.582236799999999
  1
NC
  7
2MM
1001
ACAD
1000
MTEXTBEGIN
1070
    73
1070
     1
1070
    44
1040
1.0
1070
    74
1070
     0
1000
MTEXTEND
  0
TEXT
  5
CD
  8
回07-記事
  6
CONTINUOUS
 62
     7
 10
230.7139291794369
 20
-2755.69658227979
 30
0.0
 40
2.582236799999999
  1
NC
  7
2MM
1001
ACAD
1000
MTEXTBEGIN
1070
    73
1070
     1
1070
    44
1040
1.0
1070
    74
1070
     0
1000
MTEXTEND
  0
TEXT
  5
CE
  8
回07-記事
  6
CONTINUOUS
 62
     7
 10
230.7139291794369
 20
-2759.514123806304
 30
0.0
 40
2.582236799999999
  1
NC
  7
2MM
1001
ACAD
1000
MTEXTBEGIN
1070
    73
1070
     1
1070
    44
1040
1.0
1070
    74
1070
     0
1000
MTEXTEND
  0
TEXT
  5
CF
  8
回07-記事
  6
CONTINUOUS
 62
     7
 10
230.7139291794369
 20
-2763.331665332817
 30
0.0
 40
2.582236799999999
  1
NC
  7
2MM
1001
ACAD
1000
MTEXTBEGIN
1070
    73
1070
     1
1070
    44
1040
1.0
1070
    74
1070
     0
1000
MTEXTEND
  0
TEXT
  5
D0
  8
回07-記事
  6
CONTINUOUS
 62
     7
 10
230.7139291794369
 20
-2767.14920685933
 30
0.0
 40
2.582236799999999
  1
NC
  7
2MM
1001
ACAD
1000
MTEXTBEGIN
1070
    73
1070
     1
1070
    44
1040
1.0
1070
    74
1070
     0
1000
MTEXTEND
  0
TEXT
  5
D1
  8
回07-記事
  6
CONTINUOUS
 62
     7
 10
230.7139291794369
 20
-2770.966748385844
 30
0.0
 40
2.582236799999999
  1
NC
  7
2MM
1001
ACAD
1000
MTEXTBEGIN
1070
    73
1070
     1
1070
    44
1040
1.0
1070
    74
1070
     0
1000
MTEXTEND
  0
LINE
  5
D2
  8
回07-記事
  6
CONTINUOUS
 62
     7
 10
221.6606878264264
 20
-2674.197493312601
 30
0.0
 11
228.8865883009086
 21
-2674.197493312601
 31
0.0
  0
LINE
  5
D3
  8
回07-記事
  6
CONTINUOUS
 62
     7
 10
221.6606878264264
 20
-2678.015034839114
 30
0.0
 11
228.8865883009086
 21
-2678.015034839114
 31
0.0
  0
LINE
  5
D4
  8
回07-記事
  6
CONTINUOUS
 62
     7
 10
221.6606878264264
 20
-2681.832576365628
 30
0.0
 11
228.8865883009086
 21
-2681.832576365628
 31
0.0
  0
LINE
  5
D5
  8
回07-記事
  6
CONTINUOUS
 62
     7
 10
221.6606878264264
 20
-2685.650117892141
 30
0.0
 11
228.8865883009086
 21
-2685.650117892141
 31
0.0
  0
LINE
  5
D6
  8
回07-記事
  6
CONTINUOUS
 62
     7
 10
221.6606878264264
 20
-2689.467659418656
 30
0.0
 11
228.8865883009086
 21
-2689.467659418656
 31
0.0
  0
LINE
  5
D7
  8
回07-記事
  6
CONTINUOUS
 62
     7
 10
221.6606878264264
 20
-2693.285200945169
 30
0.0
 11
228.8865883009086
 21
-2693.285200945169
 31
0.0
  0
LINE
  5
D8
  8
回07-記事
  6
CONTINUOUS
 62
     7
 10
221.6606878264264
 20
-2697.102742471683
 30
0.0
 11
228.8865883009086
 21
-2697.102742471683
 31
0.0
  0
LINE
  5
D9
  8
回07-記事
  6
CONTINUOUS
 62
     7
 10
221.6606878264264
 20
-2700.920283998196
 30
0.0
 11
228.8865883009086
 21
-2700.920283998196
 31
0.0
  0
LINE
  5
DA
  8
回07-記事
  6
CONTINUOUS
 62
     7
 10
221.6606878264264
 20
-2704.73782552471
 30
0.0
 11
228.8865883009086
 21
-2704.73782552471
 31
0.0
  0
LINE
  5
DB
  8
回07-記事
  6
CONTINUOUS
 62
     7
 10
221.6606878264264
 20
-2708.555367051223
 30
0.0
 11
228.8865883009086
 21
-2708.555367051223
 31
0.0
  0
LINE
  5
DC
  8
回07-記事
  6
CONTINUOUS
 62
     7
 10
221.6606878264264
 20
-2712.372908577736
 30
0.0
 11
228.8865883009086
 21
-2712.372908577736
 31
0.0
  0
LINE
  5
DD
  8
回07-記事
  6
CONTINUOUS
 62
     7
 10
221.6606878264264
 20
-2716.19045010425
 30
0.0
 11
228.8865883009086
 21
-2716.19045010425
 31
0.0
  0
LINE
  5
DE
  8
回07-記事
  6
CONTINUOUS
 62
     7
 10
221.6606878264264
 20
-2720.007991630764
 30
0.0
 11
228.8865883009086
 21
-2720.007991630764
 31
0.0
  0
LINE
  5
DF
  8
回07-記事
  6
CONTINUOUS
 62
     7
 10
221.6606878264264
 20
-2723.825533157278
 30
0.0
 11
228.8865883009086
 21
-2723.825533157278
 31
0.0
  0
LINE
  5
E0
  8
回07-記事
  6
CONTINUOUS
 62
     7
 10
221.6606878264264
 20
-2727.643074683791
 30
0.0
 11
228.8865883009086
 21
-2727.643074683791
 31
0.0
  0
LINE
  5
E1
  8
回07-記事
  6
CONTINUOUS
 62
     7
 10
221.6606878264264
 20
-2731.460616210304
 30
0.0
 11
228.8865883009086
 21
-2731.460616210304
 31
0.0
  0
LINE
  5
E2
  8
回07-記事
  6
CONTINUOUS
 62
     7
 10
221.6606878264264
 20
-2735.278157736818
 30
0.0
 11
228.8865883009086
 21
-2735.278157736818
 31
0.0
  0
LINE
  5
E3
  8
回07-記事
  6
CONTINUOUS
 62
     7
 10
221.6606878264264
 20
-2739.095699263331
 30
0.0
 11
228.8865883009086
 21
-2739.095699263331
 31
0.0
  0
LINE
  5
E4
  8
回07-記事
  6
CONTINUOUS
 62
     7
 10
221.6606878264264
 20
-2742.913240789845
 30
0.0
 11
228.8865883009086
 21
-2742.913240789845
 31
0.0
  0
LINE
  5
E5
  8
回07-記事
  6
CONTINUOUS
 62
     7
 10
221.6606878264264
 20
-2746.730782316358
 30
0.0
 11
228.8865883009086
 21
-2746.730782316358
 31
0.0
  0
LINE
  5
E6
  8
回07-記事
  6
CONTINUOUS
 62
     7
 10
221.6606878264264
 20
-2750.548323842872
 30
0.0
 11
228.8865883009086
 21
-2750.548323842872
 31
0.0
  0
LINE
  5
E7
  8
回07-記事
  6
CONTINUOUS
 62
     7
 10
221.6606878264264
 20
-2754.365865369386
 30
0.0
 11
228.8865883009086
 21
-2754.365865369386
 31
0.0
  0
LINE
  5
E8
  8
回07-記事
  6
CONTINUOUS
 62
     7
 10
221.6606878264264
 20
-2758.183406895899
 30
0.0
 11
228.8865883009086
 21
-2758.183406895899
 31
0.0
  0
LINE
  5
E9
  8
回07-記事
  6
CONTINUOUS
 62
     7
 10
221.6606878264264
 20
-2762.000948422413
 30
0.0
 11
228.8865883009086
 21
-2762.000948422413
 31
0.0
  0
LINE
  5
EA
  8
回07-記事
  6
CONTINUOUS
 62
     7
 10
221.6606878264264
 20
-2765.818489948926
 30
0.0
 11
228.8865883009086
 21
-2765.818489948926
 31
0.0
  0
LINE
  5
EB
  8
回07-記事
  6
CONTINUOUS
 62
     7
 10
221.6606878264264
 20
-2769.63603147544
 30
0.0
 11
228.8865883009086
 21
-2769.63603147544
 31
0.0
  0
TEXT
  5
EC
  8
回07-記事
  6
CONTINUOUS
 62
     7
 10
263.5376882700929
 20
-2721.338708541168
 30
0.0
 40
2.582236799999999
  1
Dummy
  7
2MM
1001
ACAD
1000
MTEXTBEGIN
1070
    73
1070
     1
1070
    44
1040
1.0
1070
    74
1070
     0
1000
MTEXTEND
  0
TEXT
  5
ED
  8
回07-記事
  6
CONTINUOUS
 62
     7
 10
263.5376882700929
 20
-2717.521167014655
 30
0.0
 40
2.582236799999999
  1
NC
  7
2MM
1001
ACAD
1000
MTEXTBEGIN
1070
    73
1070
     1
1070
    44
1040
1.0
1070
    74
1070
     0
1000
MTEXTEND
  0
LINE
  5
EE
  8
回07-記事
  6
CONTINUOUS
 62
     7
 10
254.4844469170824
 20
-2674.197493312601
 30
0.0
 11
261.7103473915636
 21
-2674.197493312601
 31
0.0
  0
LINE
  5
EF
  8
回07-記事
  6
CONTINUOUS
 62
     7
 10
254.4844469170824
 20
-2720.007991630764
 30
0.0
 11
261.7103473915636
 21
-2720.007991630764
 31
0.0
  0
LINE
  5
F0
  8
回07-記事
  6
CONTINUOUS
 62
     7
 10
254.4844469170824
 20
-2716.19045010425
 30
0.0
 11
261.7103473915636
 21
-2716.19045010425
 31
0.0
  0
LINE
  5
F1
  8
回07-記事
  6
CONTINUOUS
 62
     7
 10
254.4844469170824
 20
-2712.372908577738
 30
0.0
 11
261.7103473915636
 21
-2712.372908577738
 31
0.0
  0
TEXT
  5
F2
  8
回07-記事
  6
CONTINUOUS
 62
     7
 10
263.5376882700929
 20
-2713.703625488141
 30
0.0
 40
2.582236799999999
  1
NC
  7
2MM
1001
ACAD
1000
MTEXTBEGIN
1070
    73
1070
     1
1070
    44
1040
1.0
1070
    74
1070
     0
1000
MTEXTEND
  0
LINE
  5
F3
  8
回07-記事
  6
CONTINUOUS
 62
     7
 10
254.4844469170824
 20
-2708.555367051224
 30
0.0
 11
261.7103473915636
 21
-2708.555367051224
 31
0.0
  0
TEXT
  5
F4
  8
回07-記事
  6
CONTINUOUS
 62
     7
 10
263.5376882700929
 20
-2709.886083961627
 30
0.0
 40
2.582236799999999
  1
NC
  7
2MM
1001
ACAD
1000
MTEXTBEGIN
1070
    73
1070
     1
1070
    44
1040
1.0
1070
    74
1070
     0
1000
MTEXTEND
  0
LINE
  5
F5
  8
回07-記事
  6
CONTINUOUS
 62
     7
 10
254.4844469170824
 20
-2704.73782552471
 30
0.0
 11
261.7103473915636
 21
-2704.73782552471
 31
0.0
  0
TEXT
  5
F6
  8
回07-記事
  6
CONTINUOUS
 62
     7
 10
263.5376882700929
 20
-2706.068542435114
 30
0.0
 40
2.582236799999999
  1
NC
  7
2MM
1001
ACAD
1000
MTEXTBEGIN
1070
    73
1070
     1
1070
    44
1040
1.0
1070
    74
1070
     0
1000
MTEXTEND
  0
LINE
  5
F7
  8
回07-記事
  6
CONTINUOUS
 62
     7
 10
254.4844469170824
 20
-2700.920283998196
 30
0.0
 11
261.7103473915636
 21
-2700.920283998196
 31
0.0
  0
TEXT
  5
F8
  8
回07-記事
  6
CONTINUOUS
 62
     7
 10
263.5376882700929
 20
-2702.2510009086
 30
0.0
 40
2.582236799999999
  1
NC
  7
2MM
1001
ACAD
1000
MTEXTBEGIN
1070
    73
1070
     1
1070
    44
1040
1.0
1070
    74
1070
     0
1000
MTEXTEND
  0
LINE
  5
F9
  8
回07-記事
  6
CONTINUOUS
 62
     7
 10
254.4844469170824
 20
-2697.102742471683
 30
0.0
 11
261.7103473915636
 21
-2697.102742471683
 31
0.0
  0
TEXT
  5
FA
  8
回07-記事
  6
CONTINUOUS
 62
     7
 10
263.5376882700929
 20
-2698.433459382087
 30
0.0
 40
2.582236799999999
  1
NC
  7
2MM
1001
ACAD
1000
MTEXTBEGIN
1070
    73
1070
     1
1070
    44
1040
1.0
1070
    74
1070
     0
1000
MTEXTEND
  0
LINE
  5
FB
  8
回07-記事
  6
CONTINUOUS
 62
     7
 10
254.4844469170824
 20
-2693.285200945169
 30
0.0
 11
261.7103473915636
 21
-2693.285200945169
 31
0.0
  0
TEXT
  5
FC
  8
回07-記事
  6
CONTINUOUS
 62
     7
 10
263.5376882700929
 20
-2694.615917855573
 30
0.0
 40
2.582236799999999
  1
NC
  7
2MM
1001
ACAD
1000
MTEXTBEGIN
1070
    73
1070
     1
1070
    44
1040
1.0
1070
    74
1070
     0
1000
MTEXTEND
  0
LINE
  5
FD
  8
回07-記事
  6
CONTINUOUS
 62
     7
 10
254.4844469170824
 20
-2689.467659418655
 30
0.0
 11
261.7103473915636
 21
-2689.467659418655
 31
0.0
  0
TEXT
  5
FE
  8
回07-記事
  6
CONTINUOUS
 62
     7
 10
263.5376882700929
 20
-2690.798376329059
 30
0.0
 40
2.582236799999999
  1
NC
  7
2MM
1001
ACAD
1000
MTEXTBEGIN
1070
    73
1070
     1
1070
    44
1040
1.0
1070
    74
1070
     0
1000
MTEXTEND
  0
LINE
  5
FF
  8
回07-記事
  6
CONTINUOUS
 62
     7
 10
254.4844469170824
 20
-2685.650117892142
 30
0.0
 11
261.7103473915636
 21
-2685.650117892142
 31
0.0
  0
TEXT
  5
100
  8
回07-記事
  6
CONTINUOUS
 62
     7
 10
263.5376882700929
 20
-2686.980834802546
 30
0.0
 40
2.582236799999999
  1
NC
  7
2MM
1001
ACAD
1000
MTEXTBEGIN
1070
    73
1070
     1
1070
    44
1040
1.0
1070
    74
1070
     0
1000
MTEXTEND
  0
LINE
  5
101
  8
回07-記事
  6
CONTINUOUS
 62
     7
 10
254.4844469170824
 20
-2681.832576365629
 30
0.0
 11
261.7103473915636
 21
-2681.832576365629
 31
0.0
  0
TEXT
  5
102
  8
回07-記事
  6
CONTINUOUS
 62
     7
 10
263.5376882700929
 20
-2683.163293276033
 30
0.0
 40
2.582236799999999
  1
NC
  7
2MM
1001
ACAD
1000
MTEXTBEGIN
1070
    73
1070
     1
1070
    44
1040
1.0
1070
    74
1070
     0
1000
MTEXTEND
  0
LINE
  5
103
  8
回07-記事
  6
CONTINUOUS
 62
     7
 10
254.4844469170824
 20
-2723.825533157278
 30
0.0
 11
261.7103473915636
 21
-2723.825533157278
 31
0.0
  0
TEXT
  5
104
  8
回07-記事
  6
CONTINUOUS
 62
     7
 10
263.5376882700929
 20
-2725.156250067682
 30
0.0
 40
2.582236799999999
  1
X25
  7
2MM
1001
ACAD
1000
MTEXTBEGIN
1070
    73
1070
     1
1070
    44
1040
1.0
1070
    74
1070
     0
1000
MTEXTEND
  0
LINE
  5
105
  8
回07-記事
  6
CONTINUOUS
 62
     7
 10
254.4844469170824
 20
-2727.643074683791
 30
0.0
 11
261.7103473915636
 21
-2727.643074683791
 31
0.0
  0
TEXT
  5
106
  8
回07-記事
  6
CONTINUOUS
 62
     7
 10
263.5376882700929
 20
-2728.973791594194
 30
0.0
 40
2.582236799999999
  1
X24
  7
2MM
1001
ACAD
1000
MTEXTBEGIN
1070
    73
1070
     1
1070
    44
1040
1.0
1070
    74
1070
     0
1000
MTEXTEND
  0
LINE
  5
107
  8
回07-記事
  6
CONTINUOUS
 62
     7
 10
254.4844469170824
 20
-2731.460616210304
 30
0.0
 11
261.7103473915636
 21
-2731.460616210304
 31
0.0
  0
TEXT
  5
108
  8
回07-記事
  6
CONTINUOUS
 62
     7
 10
263.5376882700929
 20
-2732.791333120708
 30
0.0
 40
2.582236799999999
  1
X23
  7
2MM
1001
ACAD
1000
MTEXTBEGIN
1070
    73
1070
     1
1070
    44
1040
1.0
1070
    74
1070
     0
1000
MTEXTEND
  0
LINE
  5
109
  8
回07-記事
  6
CONTINUOUS
 62
     7
 10
254.4844469170824
 20
-2735.278157736818
 30
0.0
 11
261.7103473915636
 21
-2735.278157736818
 31
0.0
  0
TEXT
  5
10A
  8
回07-記事
  6
CONTINUOUS
 62
     7
 10
263.5376882700929
 20
-2736.608874647222
 30
0.0
 40
2.582236799999999
  1
X22
  7
2MM
1001
ACAD
1000
MTEXTBEGIN
1070
    73
1070
     1
1070
    44
1040
1.0
1070
    74
1070
     0
1000
MTEXTEND
  0
LINE
  5
10B
  8
回07-記事
  6
CONTINUOUS
 62
     7
 10
254.4844469170824
 20
-2739.095699263331
 30
0.0
 11
261.7103473915636
 21
-2739.095699263331
 31
0.0
  0
TEXT
  5
10C
  8
回07-記事
  6
CONTINUOUS
 62
     7
 10
263.5376882700929
 20
-2740.426416173735
 30
0.0
 40
2.582236799999999
  1
X21
  7
2MM
1001
ACAD
1000
MTEXTBEGIN
1070
    73
1070
     1
1070
    44
1040
1.0
1070
    74
1070
     0
1000
MTEXTEND
  0
LINE
  5
10D
  8
回07-記事
  6
CONTINUOUS
 62
     7
 10
254.4844469170824
 20
-2742.913240789845
 30
0.0
 11
261.7103473915636
 21
-2742.913240789845
 31
0.0
  0
TEXT
  5
10E
  8
回07-記事
  6
CONTINUOUS
 62
     7
 10
263.5376882700929
 20
-2744.243957700249
 30
0.0
 40
2.582236799999999
  1
X20
  7
2MM
1001
ACAD
1000
MTEXTBEGIN
1070
    73
1070
     1
1070
    44
1040
1.0
1070
    74
1070
     0
1000
MTEXTEND
  0
LINE
  5
10F
  8
回07-記事
  6
CONTINUOUS
 62
     7
 10
254.4844469170824
 20
-2746.730782316358
 30
0.0
 11
261.7103473915636
 21
-2746.730782316358
 31
0.0
  0
TEXT
  5
110
  8
回07-記事
  6
CONTINUOUS
 62
     7
 10
263.5376882700929
 20
-2748.061499226763
 30
0.0
 40
2.582236799999999
  1
X19
  7
2MM
1001
ACAD
1000
MTEXTBEGIN
1070
    73
1070
     1
1070
    44
1040
1.0
1070
    74
1070
     0
1000
MTEXTEND
  0
LINE
  5
111
  8
回07-記事
  6
CONTINUOUS
 62
     7
 10
254.4844469170824
 20
-2750.548323842872
 30
0.0
 11
261.7103473915636
 21
-2750.548323842872
 31
0.0
  0
TEXT
  5
112
  8
回07-記事
  6
CONTINUOUS
 62
     7
 10
263.5376882700929
 20
-2751.879040753276
 30
0.0
 40
2.582236799999999
  1
X18
  7
2MM
1001
ACAD
1000
MTEXTBEGIN
1070
    73
1070
     1
1070
    44
1040
1.0
1070
    74
1070
     0
1000
MTEXTEND
  0
LINE
  5
113
  8
回07-記事
  6
CONTINUOUS
 62
     7
 10
254.4844469170824
 20
-2754.365865369386
 30
0.0
 11
261.7103473915636
 21
-2754.365865369386
 31
0.0
  0
TEXT
  5
114
  8
回07-記事
  6
CONTINUOUS
 62
     7
 10
263.5376882700929
 20
-2755.69658227979
 30
0.0
 40
2.582236799999999
  1
X17
  7
2MM
1001
ACAD
1000
MTEXTBEGIN
1070
    73
1070
     1
1070
    44
1040
1.0
1070
    74
1070
     0
1000
MTEXTEND
  0
LINE
  5
115
  8
回07-記事
  6
CONTINUOUS
 62
     7
 10
254.4844469170824
 20
-2758.183406895899
 30
0.0
 11
261.7103473915636
 21
-2758.183406895899
 31
0.0
  0
TEXT
  5
116
  8
回07-記事
  6
CONTINUOUS
 62
     7
 10
263.5376882700929
 20
-2759.514123806303
 30
0.0
 40
2.582236799999999
  1
X16
  7
2MM
1001
ACAD
1000
MTEXTBEGIN
1070
    73
1070
     1
1070
    44
1040
1.0
1070
    74
1070
     0
1000
MTEXTEND
  0
LINE
  5
117
  8
回07-記事
  6
CONTINUOUS
 62
     7
 10
254.4844469170824
 20
-2762.000948422413
 30
0.0
 11
261.7103473915636
 21
-2762.000948422413
 31
0.0
  0
TEXT
  5
118
  8
回07-記事
  6
CONTINUOUS
 62
     7
 10
263.5376882700929
 20
-2763.331665332817
 30
0.0
 40
2.582236799999999
  1
X15
  7
2MM
1001
ACAD
1000
MTEXTBEGIN
1070
    73
1070
     1
1070
    44
1040
1.0
1070
    74
1070
     0
1000
MTEXTEND
  0
LINE
  5
119
  8
回07-記事
  6
CONTINUOUS
 62
     7
 10
254.4844469170824
 20
-2765.818489948926
 30
0.0
 11
261.7103473915636
 21
-2765.818489948926
 31
0.0
  0
TEXT
  5
11A
  8
回07-記事
  6
CONTINUOUS
 62
     7
 10
263.5376882700929
 20
-2767.14920685933
 30
0.0
 40
2.582236799999999
  1
X14
  7
2MM
1001
ACAD
1000
MTEXTBEGIN
1070
    73
1070
     1
1070
    44
1040
1.0
1070
    74
1070
     0
1000
MTEXTEND
  0
LINE
  5
11B
  8
回07-記事
  6
CONTINUOUS
 62
     7
 10
254.4844469170824
 20
-2769.63603147544
 30
0.0
 11
261.7103473915636
 21
-2769.63603147544
 31
0.0
  0
TEXT
  5
11C
  8
回07-記事
  6
CONTINUOUS
 62
     7
 10
263.5376882700929
 20
-2770.966748385844
 30
0.0
 40
2.582236799999999
  1
X13
  7
2MM
1001
ACAD
1000
MTEXTBEGIN
1070
    73
1070
     1
1070
    44
1040
1.0
1070
    74
1070
     0
1000
MTEXTEND
  0
LINE
  5
11D
  8
回07-記事
  6
CONTINUOUS
 62
     7
 10
254.4844469170824
 20
-2773.453573001953
 30
0.0
 11
261.7103473915636
 21
-2773.453573001953
 31
0.0
  0
TEXT
  5
11E
  8
回07-記事
  6
CONTINUOUS
 62
     7
 10
263.5376882700929
 20
-2774.784289912358
 30
0.0
 40
2.582236799999999
  1
X12
  7
2MM
1001
ACAD
1000
MTEXTBEGIN
1070
    73
1070
     1
1070
    44
1040
1.0
1070
    74
1070
     0
1000
MTEXTEND
  0
LINE
  5
11F
  8
回07-記事
  6
CONTINUOUS
 62
     7
 10
254.4844469170824
 20
-2777.271114528467
 30
0.0
 11
261.7103473915636
 21
-2777.271114528467
 31
0.0
  0
TEXT
  5
120
  8
回07-記事
  6
CONTINUOUS
 62
     7
 10
263.5376882700929
 20
-2778.601831438871
 30
0.0
 40
2.582236799999999
  1
X11
  7
2MM
1001
ACAD
1000
MTEXTBEGIN
1070
    73
1070
     1
1070
    44
1040
1.0
1070
    74
1070
     0
1000
MTEXTEND
  0
LINE
  5
121
  8
回07-記事
  6
CONTINUOUS
 62
     7
 10
254.4844469170824
 20
-2781.088656054981
 30
0.0
 11
261.7103473915636
 21
-2781.088656054981
 31
0.0
  0
TEXT
  5
122
  8
回07-記事
  6
CONTINUOUS
 62
     7
 10
263.5376882700929
 20
-2782.419372965384
 30
0.0
 40
2.582236799999999
  1
X10
  7
2MM
1001
ACAD
1000
MTEXTBEGIN
1070
    73
1070
     1
1070
    44
1040
1.0
1070
    74
1070
     0
1000
MTEXTEND
  0
LINE
  5
123
  8
回07-記事
  6
CONTINUOUS
 62
     7
 10
254.4844469170824
 20
-2784.906197581494
 30
0.0
 11
261.7103473915636
 21
-2784.906197581494
 31
0.0
  0
TEXT
  5
124
  8
回07-記事
  6
CONTINUOUS
 62
     7
 10
263.5376882700929
 20
-2786.236914491898
 30
0.0
 40
2.582236799999999
  1
X09
  7
2MM
1001
ACAD
1000
MTEXTBEGIN
1070
    73
1070
     1
1070
    44
1040
1.0
1070
    74
1070
     0
1000
MTEXTEND
  0
LINE
  5
125
  8
回07-記事
  6
CONTINUOUS
 62
     7
 10
254.4844469170824
 20
-2788.723739108008
 30
0.0
 11
261.7103473915636
 21
-2788.723739108008
 31
0.0
  0
TEXT
  5
126
  8
回07-記事
  6
CONTINUOUS
 62
     7
 10
263.5376882700929
 20
-2790.054456018412
 30
0.0
 40
2.582236799999999
  1
X08
  7
2MM
1001
ACAD
1000
MTEXTBEGIN
1070
    73
1070
     1
1070
    44
1040
1.0
1070
    74
1070
     0
1000
MTEXTEND
  0
LINE
  5
127
  8
回07-記事
  6
CONTINUOUS
 62
     7
 10
254.4844469170824
 20
-2792.541280634521
 30
0.0
 11
261.7103473915636
 21
-2792.541280634521
 31
0.0
  0
TEXT
  5
128
  8
回07-記事
  6
CONTINUOUS
 62
     7
 10
263.5376882700929
 20
-2793.871997544925
 30
0.0
 40
2.582236799999999
  1
X07
  7
2MM
1001
ACAD
1000
MTEXTBEGIN
1070
    73
1070
     1
1070
    44
1040
1.0
1070
    74
1070
     0
1000
MTEXTEND
  0
LINE
  5
129
  8
回07-記事
  6
CONTINUOUS
 62
     7
 10
254.4844469170824
 20
-2796.358822161034
 30
0.0
 11
261.7103473915636
 21
-2796.358822161034
 31
0.0
  0
TEXT
  5
12A
  8
回07-記事
  6
CONTINUOUS
 62
     7
 10
263.5376882700929
 20
-2797.689539071439
 30
0.0
 40
2.582236799999999
  1
X06
  7
2MM
1001
ACAD
1000
MTEXTBEGIN
1070
    73
1070
     1
1070
    44
1040
1.0
1070
    74
1070
     0
1000
MTEXTEND
  0
LINE
  5
12B
  8
回07-記事
  6
CONTINUOUS
 62
     7
 10
254.4844469170824
 20
-2800.176363687548
 30
0.0
 11
261.7103473915636
 21
-2800.176363687548
 31
0.0
  0
TEXT
  5
12C
  8
回07-記事
  6
CONTINUOUS
 62
     7
 10
263.5376882700929
 20
-2801.507080597952
 30
0.0
 40
2.582236799999999
  1
X05
  7
2MM
1001
ACAD
1000
MTEXTBEGIN
1070
    73
1070
     1
1070
    44
1040
1.0
1070
    74
1070
     0
1000
MTEXTEND
  0
LINE
  5
12D
  8
回07-記事
  6
CONTINUOUS
 62
     7
 10
254.4844469170824
 20
-2803.993905214062
 30
0.0
 11
261.7103473915636
 21
-2803.993905214062
 31
0.0
  0
TEXT
  5
12E
  8
回07-記事
  6
CONTINUOUS
 62
     7
 10
263.5376882700929
 20
-2805.324622124466
 30
0.0
 40
2.582236799999999
  1
X04
  7
2MM
1001
ACAD
1000
MTEXTBEGIN
1070
    73
1070
     1
1070
    44
1040
1.0
1070
    74
1070
     0
1000
MTEXTEND
  0
LINE
  5
12F
  8
回07-記事
  6
CONTINUOUS
 62
     7
 10
254.4844469170824
 20
-2807.811446740575
 30
0.0
 11
261.7103473915636
 21
-2807.811446740575
 31
0.0
  0
TEXT
  5
130
  8
回07-記事
  6
CONTINUOUS
 62
     7
 10
263.5376882700929
 20
-2809.142163650979
 30
0.0
 40
2.582236799999999
  1
X03
  7
2MM
1001
ACAD
1000
MTEXTBEGIN
1070
    73
1070
     1
1070
    44
1040
1.0
1070
    74
1070
     0
1000
MTEXTEND
  0
LINE
  5
131
  8
回07-記事
  6
CONTINUOUS
 62
     7
 10
254.4844469170824
 20
-2811.628988267089
 30
0.0
 11
261.7103473915636
 21
-2811.628988267089
 31
0.0
  0
TEXT
  5
132
  8
回07-記事
  6
CONTINUOUS
 62
     7
 10
263.5376882700929
 20
-2812.959705177492
 30
0.0
 40
2.582236799999999
  1
X02
  7
2MM
1001
ACAD
1000
MTEXTBEGIN
1070
    73
1070
     1
1070
    44
1040
1.0
1070
    74
1070
     0
1000
MTEXTEND
  0
LINE
  5
133
  8
回07-記事
  6
CONTINUOUS
 62
     7
 10
254.4844469170824
 20
-2815.446529793602
 30
0.0
 11
261.7103473915636
 21
-2815.446529793602
 31
0.0
  0
TEXT
  5
134
  8
回07-記事
  6
CONTINUOUS
 62
     7
 10
263.5376882700929
 20
-2816.777246704006
 30
0.0
 40
2.582236799999999
  1
X01
  7
2MM
1001
ACAD
1000
MTEXTBEGIN
1070
    73
1070
     1
1070
    44
1040
1.0
1070
    74
1070
     0
1000
MTEXTEND
  0
LINE
  5
135
  8
回07-記事
  6
CONTINUOUS
 62
     7
 10
254.4844469170824
 20
-2819.264071320116
 30
0.0
 11
261.7103473915636
 21
-2819.264071320116
 31
0.0
  0
TEXT
  5
136
  8
回07-記事
  6
CONTINUOUS
 62
     7
 10
263.5376882700929
 20
-2820.59478823052
 30
0.0
 40
2.582236799999999
  1
X00
  7
2MM
1001
ACAD
1000
MTEXTBEGIN
1070
    73
1070
     1
1070
    44
1040
1.0
1070
    74
1070
     0
1000
MTEXTEND
  0
LINE
  5
137
  8
回07-記事
  6
CONTINUOUS
 62
     7
 10
254.4844469170824
 20
-2823.081612846629
 30
0.0
 11
261.7103473915636
 21
-2823.081612846629
 31
0.0
  0
TEXT
  5
138
  8
回07-記事
  6
CONTINUOUS
 62
     7
 10
263.5376882700929
 20
-2824.412329757033
 30
0.0
 40
2.582236799999999
  1
Dummy
  7
2MM
1001
ACAD
1000
MTEXTBEGIN
1070
    73
1070
     1
1070
    44
1040
1.0
1070
    74
1070
     0
1000
MTEXTEND
  0
POLYLINE
  5
139
  8
回07-記事
  6
CONTINUOUS
 62
     7
 66
     1
 10
0.0
 20
0.0
 30
0.0
  0
VERTEX
  5
572
  8
回07-記事
  6
CONTINUOUS
 62
     7
 10
238.073432423907
 20
-2668.183451975591
 30
0.0
  0
VERTEX
  5
574
  8
回07-記事
  6
CONTINUOUS
 62
     7
 10
241.714746855358
 20
-2668.183451975591
 30
0.0
  0
VERTEX
  5
575
  8
回07-記事
  6
CONTINUOUS
 62
     7
 10
241.714746855357
 20
-2776.187919846085
 30
0.0
  0
VERTEX
  5
576
  8
回07-記事
  6
CONTINUOUS
 62
     7
 10
211.6567776326192
 20
-2776.187919846085
 30
0.0
  0
VERTEX
  5
577
  8
回07-記事
  6
CONTINUOUS
 62
     7
 10
211.6567776326202
 20
-2668.183451975591
 30
0.0
  0
VERTEX
  5
578
  8
回07-記事
  6
CONTINUOUS
 62
     7
 10
216.0571317186004
 20
-2668.183451975591
 30
0.0
  0
SEQEND
  5
573
  8
回02-寸法
  6
CONTINUOUS
 62
     7
  0
LINE
  5
13A
  8
回07-記事
  6
CONTINUOUS
 62
     7
 10
221.6606878264264
 20
-2769.63603147544
 30
0.0
 11
228.8865883009086
 21
-2769.63603147544
 31
0.0
  0
TEXT
  5
13B
  8
回07-記事
  6
CONTINUOUS
 62
     7
 10
215.8319251566649
 20
-2770.966748385844
 30
0.0
 40
2.582236799999999
  1
26
  7
2MM
1001
ACAD
1000
MTEXTBEGIN
1070
    73
1070
     1
1070
    44
1040
1.0
1070
    74
1070
     0
1000
MTEXTEND
  0
LINE
  5
13C
  8
回07-記事
  6
CONTINUOUS
 62
     7
 10
221.6606878264264
 20
-2765.818489948926
 30
0.0
 11
228.8865883009086
 21
-2765.818489948926
 31
0.0
  0
TEXT
  5
13D
  8
回07-記事
  6
CONTINUOUS
 62
     7
 10
215.8319251566649
 20
-2767.14920685933
 30
0.0
 40
2.582236799999999
  1
25
  7
2MM
1001
ACAD
1000
MTEXTBEGIN
1070
    73
1070
     1
1070
    44
1040
1.0
1070
    74
1070
     0
1000
MTEXTEND
  0
LINE
  5
13E
  8
回07-記事
  6
CONTINUOUS
 62
     7
 10
221.6606878264264
 20
-2762.000948422413
 30
0.0
 11
228.8865883009086
 21
-2762.000948422413
 31
0.0
  0
TEXT
  5
13F
  8
回07-記事
  6
CONTINUOUS
 62
     7
 10
215.8319251566649
 20
-2763.331665332817
 30
0.0
 40
2.582236799999999
  1
24
  7
2MM
1001
ACAD
1000
MTEXTBEGIN
1070
    73
1070
     1
1070
    44
1040
1.0
1070
    74
1070
     0
1000
MTEXTEND
  0
LINE
  5
140
  8
回07-記事
  6
CONTINUOUS
 62
     7
 10
221.6606878264264
 20
-2758.183406895899
 30
0.0
 11
228.8865883009086
 21
-2758.183406895899
 31
0.0
  0
TEXT
  5
141
  8
回07-記事
  6
CONTINUOUS
 62
     7
 10
215.8319251566649
 20
-2759.514123806303
 30
0.0
 40
2.582236799999999
  1
23
  7
2MM
1001
ACAD
1000
MTEXTBEGIN
1070
    73
1070
     1
1070
    44
1040
1.0
1070
    74
1070
     0
1000
MTEXTEND
  0
LINE
  5
142
  8
回07-記事
  6
CONTINUOUS
 62
     7
 10
221.6606878264264
 20
-2754.365865369386
 30
0.0
 11
228.8865883009086
 21
-2754.365865369386
 31
0.0
  0
TEXT
  5
143
  8
回07-記事
  6
CONTINUOUS
 62
     7
 10
215.8319251566649
 20
-2755.69658227979
 30
0.0
 40
2.582236799999999
  1
22
  7
2MM
1001
ACAD
1000
MTEXTBEGIN
1070
    73
1070
     1
1070
    44
1040
1.0
1070
    74
1070
     0
1000
MTEXTEND
  0
LINE
  5
144
  8
回07-記事
  6
CONTINUOUS
 62
     7
 10
221.6606878264264
 20
-2750.548323842872
 30
0.0
 11
228.8865883009086
 21
-2750.548323842872
 31
0.0
  0
TEXT
  5
145
  8
回07-記事
  6
CONTINUOUS
 62
     7
 10
215.8319251566649
 20
-2751.879040753276
 30
0.0
 40
2.582236799999999
  1
21
  7
2MM
1001
ACAD
1000
MTEXTBEGIN
1070
    73
1070
     1
1070
    44
1040
1.0
1070
    74
1070
     0
1000
MTEXTEND
  0
LINE
  5
146
  8
回07-記事
  6
CONTINUOUS
 62
     7
 10
221.6606878264264
 20
-2746.730782316358
 30
0.0
 11
228.8865883009086
 21
-2746.730782316358
 31
0.0
  0
TEXT
  5
147
  8
回07-記事
  6
CONTINUOUS
 62
     7
 10
215.8319251566649
 20
-2748.061499226763
 30
0.0
 40
2.582236799999999
  1
20
  7
2MM
1001
ACAD
1000
MTEXTBEGIN
1070
    73
1070
     1
1070
    44
1040
1.0
1070
    74
1070
     0
1000
MTEXTEND
  0
LINE
  5
148
  8
回07-記事
  6
CONTINUOUS
 62
     7
 10
221.6606878264264
 20
-2742.913240789845
 30
0.0
 11
228.8865883009086
 21
-2742.913240789845
 31
0.0
  0
TEXT
  5
149
  8
回07-記事
  6
CONTINUOUS
 62
     7
 10
215.8319251566649
 20
-2744.243957700249
 30
0.0
 40
2.582236799999999
  1
19
  7
2MM
1001
ACAD
1000
MTEXTBEGIN
1070
    73
1070
     1
1070
    44
1040
1.0
1070
    74
1070
     0
1000
MTEXTEND
  0
LINE
  5
14A
  8
回07-記事
  6
CONTINUOUS
 62
     7
 10
221.6606878264264
 20
-2739.095699263331
 30
0.0
 11
228.8865883009086
 21
-2739.095699263331
 31
0.0
  0
TEXT
  5
14B
  8
回07-記事
  6
CONTINUOUS
 62
     7
 10
215.8319251566649
 20
-2740.426416173735
 30
0.0
 40
2.582236799999999
  1
18
  7
2MM
1001
ACAD
1000
MTEXTBEGIN
1070
    73
1070
     1
1070
    44
1040
1.0
1070
    74
1070
     0
1000
MTEXTEND
  0
LINE
  5
14C
  8
回07-記事
  6
CONTINUOUS
 62
     7
 10
221.6606878264264
 20
-2735.278157736818
 30
0.0
 11
228.8865883009086
 21
-2735.278157736818
 31
0.0
  0
TEXT
  5
14D
  8
回07-記事
  6
CONTINUOUS
 62
     7
 10
215.8319251566649
 20
-2736.608874647222
 30
0.0
 40
2.582236799999999
  1
17
  7
2MM
1001
ACAD
1000
MTEXTBEGIN
1070
    73
1070
     1
1070
    44
1040
1.0
1070
    74
1070
     0
1000
MTEXTEND
  0
LINE
  5
14E
  8
回07-記事
  6
CONTINUOUS
 62
     7
 10
221.6606878264264
 20
-2731.460616210304
 30
0.0
 11
228.8865883009086
 21
-2731.460616210304
 31
0.0
  0
TEXT
  5
14F
  8
回07-記事
  6
CONTINUOUS
 62
     7
 10
215.8319251566649
 20
-2732.791333120708
 30
0.0
 40
2.582236799999999
  1
16
  7
2MM
1001
ACAD
1000
MTEXTBEGIN
1070
    73
1070
     1
1070
    44
1040
1.0
1070
    74
1070
     0
1000
MTEXTEND
  0
LINE
  5
150
  8
回07-記事
  6
CONTINUOUS
 62
     7
 10
221.6606878264264
 20
-2727.643074683791
 30
0.0
 11
228.8865883009086
 21
-2727.643074683791
 31
0.0
  0
TEXT
  5
151
  8
回07-記事
  6
CONTINUOUS
 62
     7
 10
215.8319251566649
 20
-2728.973791594194
 30
0.0
 40
2.582236799999999
  1
15
  7
2MM
1001
ACAD
1000
MTEXTBEGIN
1070
    73
1070
     1
1070
    44
1040
1.0
1070
    74
1070
     0
1000
MTEXTEND
  0
LINE
  5
152
  8
回07-記事
  6
CONTINUOUS
 62
     7
 10
221.6606878264264
 20
-2723.825533157278
 30
0.0
 11
228.8865883009086
 21
-2723.825533157278
 31
0.0
  0
TEXT
  5
153
  8
回07-記事
  6
CONTINUOUS
 62
     7
 10
215.8319251566649
 20
-2725.156250067681
 30
0.0
 40
2.582236799999999
  1
14
  7
2MM
1001
ACAD
1000
MTEXTBEGIN
1070
    73
1070
     1
1070
    44
1040
1.0
1070
    74
1070
     0
1000
MTEXTEND
  0
LINE
  5
154
  8
回07-記事
  6
CONTINUOUS
 62
     7
 10
221.6606878264264
 20
-2720.007991630764
 30
0.0
 11
228.8865883009086
 21
-2720.007991630764
 31
0.0
  0
TEXT
  5
155
  8
回07-記事
  6
CONTINUOUS
 62
     7
 10
215.8319251566649
 20
-2721.338708541168
 30
0.0
 40
2.582236799999999
  1
13
  7
2MM
1001
ACAD
1000
MTEXTBEGIN
1070
    73
1070
     1
1070
    44
1040
1.0
1070
    74
1070
     0
1000
MTEXTEND
  0
LINE
  5
156
  8
回07-記事
  6
CONTINUOUS
 62
     7
 10
221.6606878264264
 20
-2716.19045010425
 30
0.0
 11
228.8865883009086
 21
-2716.19045010425
 31
0.0
  0
TEXT
  5
157
  8
回07-記事
  6
CONTINUOUS
 62
     7
 10
215.8319251566649
 20
-2717.521167014655
 30
0.0
 40
2.582236799999999
  1
12
  7
2MM
1001
ACAD
1000
MTEXTBEGIN
1070
    73
1070
     1
1070
    44
1040
1.0
1070
    74
1070
     0
1000
MTEXTEND
  0
LINE
  5
158
  8
回07-記事
  6
CONTINUOUS
 62
     7
 10
221.6606878264264
 20
-2712.372908577736
 30
0.0
 11
228.8865883009086
 21
-2712.372908577736
 31
0.0
  0
TEXT
  5
159
  8
回07-記事
  6
CONTINUOUS
 62
     7
 10
215.8319251566649
 20
-2713.703625488141
 30
0.0
 40
2.582236799999999
  1
11
  7
2MM
1001
ACAD
1000
MTEXTBEGIN
1070
    73
1070
     1
1070
    44
1040
1.0
1070
    74
1070
     0
1000
MTEXTEND
  0
LINE
  5
15A
  8
回07-記事
  6
CONTINUOUS
 62
     7
 10
221.6606878264264
 20
-2708.555367051223
 30
0.0
 11
228.8865883009086
 21
-2708.555367051223
 31
0.0
  0
TEXT
  5
15B
  8
回07-記事
  6
CONTINUOUS
 62
     7
 10
215.8319251566649
 20
-2709.886083961627
 30
0.0
 40
2.582236799999999
  1
10
  7
2MM
1001
ACAD
1000
MTEXTBEGIN
1070
    73
1070
     1
1070
    44
1040
1.0
1070
    74
1070
     0
1000
MTEXTEND
  0
LINE
  5
15C
  8
回07-記事
  6
CONTINUOUS
 62
     7
 10
221.6606878264264
 20
-2704.73782552471
 30
0.0
 11
228.8865883009086
 21
-2704.73782552471
 31
0.0
  0
TEXT
  5
15D
  8
回07-記事
  6
CONTINUOUS
 62
     7
 10
215.822602330193
 20
-2706.068542435114
 30
0.0
 40
2.582236799999999
  1
9
  7
2MM
1001
ACAD
1000
MTEXTBEGIN
1070
    73
1070
     1
1070
    44
1040
1.0
1070
    74
1070
     0
1000
MTEXTEND
  0
LINE
  5
15E
  8
回07-記事
  6
CONTINUOUS
 62
     7
 10
221.6606878264264
 20
-2700.920283998196
 30
0.0
 11
228.8865883009086
 21
-2700.920283998196
 31
0.0
  0
TEXT
  5
15F
  8
回07-記事
  6
CONTINUOUS
 62
     7
 10
215.8319251566649
 20
-2702.2510009086
 30
0.0
 40
2.582236799999999
  1
8
  7
2MM
1001
ACAD
1000
MTEXTBEGIN
1070
    73
1070
     1
1070
    44
1040
1.0
1070
    74
1070
     0
1000
MTEXTEND
  0
LINE
  5
160
  8
回07-記事
  6
CONTINUOUS
 62
     7
 10
221.6606878264264
 20
-2697.102742471683
 30
0.0
 11
228.8865883009086
 21
-2697.102742471683
 31
0.0
  0
TEXT
  5
161
  8
回07-記事
  6
CONTINUOUS
 62
     7
 10
215.8319251566649
 20
-2698.433459382087
 30
0.0
 40
2.582236799999999
  1
7
  7
2MM
1001
ACAD
1000
MTEXTBEGIN
1070
    73
1070
     1
1070
    44
1040
1.0
1070
    74
1070
     0
1000
MTEXTEND
  0
LINE
  5
162
  8
回07-記事
  6
CONTINUOUS
 62
     7
 10
221.6606878264264
 20
-2693.285200945169
 30
0.0
 11
228.8865883009086
 21
-2693.285200945169
 31
0.0
  0
TEXT
  5
163
  8
回07-記事
  6
CONTINUOUS
 62
     7
 10
215.8319251566649
 20
-2694.615917855573
 30
0.0
 40
2.582236799999999
  1
6
  7
2MM
1001
ACAD
1000
MTEXTBEGIN
1070
    73
1070
     1
1070
    44
1040
1.0
1070
    74
1070
     0
1000
MTEXTEND
  0
LINE
  5
164
  8
回07-記事
  6
CONTINUOUS
 62
     7
 10
221.6606878264264
 20
-2689.467659418656
 30
0.0
 11
228.8865883009086
 21
-2689.467659418656
 31
0.0
  0
TEXT
  5
165
  8
回07-記事
  6
CONTINUOUS
 62
     7
 10
215.8319251566649
 20
-2690.798376329059
 30
0.0
 40
2.582236799999999
  1
5
  7
2MM
1001
ACAD
1000
MTEXTBEGIN
1070
    73
1070
     1
1070
    44
1040
1.0
1070
    74
1070
     0
1000
MTEXTEND
  0
LINE
  5
166
  8
回07-記事
  6
CONTINUOUS
 62
     7
 10
221.6606878264264
 20
-2685.650117892141
 30
0.0
 11
228.8865883009086
 21
-2685.650117892141
 31
0.0
  0
TEXT
  5
167
  8
回07-記事
  6
CONTINUOUS
 62
     7
 10
215.8319251566649
 20
-2686.980834802545
 30
0.0
 40
2.582236799999999
  1
4
  7
2MM
1001
ACAD
1000
MTEXTBEGIN
1070
    73
1070
     1
1070
    44
1040
1.0
1070
    74
1070
     0
1000
MTEXTEND
  0
LINE
  5
168
  8
回07-記事
  6
CONTINUOUS
 62
     7
 10
221.6606878264264
 20
-2681.832576365628
 30
0.0
 11
228.8865883009086
 21
-2681.832576365628
 31
0.0
  0
TEXT
  5
169
  8
回07-記事
  6
CONTINUOUS
 62
     7
 10
215.8319251566649
 20
-2683.163293276032
 30
0.0
 40
2.582236799999999
  1
3
  7
2MM
1001
ACAD
1000
MTEXTBEGIN
1070
    73
1070
     1
1070
    44
1040
1.0
1070
    74
1070
     0
1000
MTEXTEND
  0
LINE
  5
16A
  8
回07-記事
  6
CONTINUOUS
 62
     7
 10
221.6606878264264
 20
-2678.015034839114
 30
0.0
 11
228.8865883009086
 21
-2678.015034839114
 31
0.0
  0
LINE
  5
16B
  8
回07-記事
  6
CONTINUOUS
 62
     7
 10
221.6606878264264
 20
-2674.197493312601
 30
0.0
 11
228.8865883009086
 21
-2674.197493312601
 31
0.0
  0
TEXT
  5
16C
  8
回07-記事
  6
CONTINUOUS
 62
     7
 10
215.8319251566649
 20
-2679.345751749519
 30
0.0
 40
2.582236799999999
  1
2
  7
2MM
1001
ACAD
1000
MTEXTBEGIN
1070
    73
1070
     1
1070
    44
1040
1.0
1070
    74
1070
     0
1000
MTEXTEND
  0
TEXT
  5
16D
  8
回07-記事
  6
CONTINUOUS
 62
     7
 10
215.8319251566649
 20
-2675.528210223006
 30
0.0
 40
2.582236799999999
  1
1
  7
2MM
1001
ACAD
1000
MTEXTBEGIN
1070
    73
1070
     1
1070
    44
1040
1.0
1070
    74
1070
     0
1000
MTEXTEND
  0
TEXT
  5
16E
  8
回07-記事
  6
CONTINUOUS
 62
     7
 10
216.3275278616442
 20
-2669.428869564347
 30
0.0
 40
2.753061696
  1
CN-1 PinOut
  0
TEXT
  5
16F
  8
回07-記事
  6
CONTINUOUS
 62
     7
 10
251.3082097231602
 20
-2669.12027431513
 30
0.0
 40
2.753061696
  1
CN-2 PinOut
  0
POLYLINE
  5
170
  8
回07-記事
  6
CONTINUOUS
 62
     7
 66
     1
 10
0.0
 20
0.0
 30
0.0
  0
VERTEX
  5
579
  8
回07-記事
  6
CONTINUOUS
 62
     7
 10
272.1920364453373
 20
-2668.183451975591
 30
0.0
  0
VERTEX
  5
57B
  8
回07-記事
  6
CONTINUOUS
 62
     7
 10
275.8333508767884
 20
-2668.183451975591
 30
0.0
  0
VERTEX
  5
57C
  8
回07-記事
  6
CONTINUOUS
 62
     7
 10
275.8333508767894
 20
-2828.366159315832
 30
0.0
  0
VERTEX
  5
57D
  8
回07-記事
  6
CONTINUOUS
 62
     7
 10
245.7753816540505
 20
-2828.366159315832
 30
0.0
  0
VERTEX
  5
57E
  8
回07-記事
  6
CONTINUOUS
 62
     7
 10
245.7753816540505
 20
-2668.183451975591
 30
0.0
  0
VERTEX
  5
57F
  8
回07-記事
  6
CONTINUOUS
 62
     7
 10
250.1757357400297
 20
-2668.183451975591
 30
0.0
  0
SEQEND
  5
57A
  8
回02-寸法
  6
CONTINUOUS
 62
     7
  0
LINE
  5
171
  8
回07-記事
  6
CONTINUOUS
 62
     7
 10
254.4844469170824
 20
-2823.081612846629
 30
0.0
 11
261.7103473915636
 21
-2823.081612846629
 31
0.0
  0
TEXT
  5
172
  8
回07-記事
  6
CONTINUOUS
 62
     7
 10
248.655684247321
 20
-2824.412329757033
 30
0.0
 40
2.582236799999999
  1
40
  7
2MM
1001
ACAD
1000
MTEXTBEGIN
1070
    73
1070
     1
1070
    44
1040
1.0
1070
    74
1070
     0
1000
MTEXTEND
  0
LINE
  5
173
  8
回07-記事
  6
CONTINUOUS
 62
     7
 10
254.4844469170824
 20
-2819.264071320116
 30
0.0
 11
261.7103473915636
 21
-2819.264071320116
 31
0.0
  0
TEXT
  5
174
  8
回07-記事
  6
CONTINUOUS
 62
     7
 10
248.655684247321
 20
-2820.59478823052
 30
0.0
 40
2.582236799999999
  1
39
  7
2MM
1001
ACAD
1000
MTEXTBEGIN
1070
    73
1070
     1
1070
    44
1040
1.0
1070
    74
1070
     0
1000
MTEXTEND
  0
LINE
  5
175
  8
回07-記事
  6
CONTINUOUS
 62
     7
 10
254.4844469170824
 20
-2815.446529793602
 30
0.0
 11
261.7103473915636
 21
-2815.446529793602
 31
0.0
  0
TEXT
  5
176
  8
回07-記事
  6
CONTINUOUS
 62
     7
 10
248.655684247321
 20
-2816.777246704006
 30
0.0
 40
2.582236799999999
  1
38
  7
2MM
1001
ACAD
1000
MTEXTBEGIN
1070
    73
1070
     1
1070
    44
1040
1.0
1070
    74
1070
     0
1000
MTEXTEND
  0
LINE
  5
177
  8
回07-記事
  6
CONTINUOUS
 62
     7
 10
254.4844469170824
 20
-2811.628988267089
 30
0.0
 11
261.7103473915636
 21
-2811.628988267089
 31
0.0
  0
TEXT
  5
178
  8
回07-記事
  6
CONTINUOUS
 62
     7
 10
248.655684247321
 20
-2812.959705177492
 30
0.0
 40
2.582236799999999
  1
37
  7
2MM
1001
ACAD
1000
MTEXTBEGIN
1070
    73
1070
     1
1070
    44
1040
1.0
1070
    74
1070
     0
1000
MTEXTEND
  0
LINE
  5
179
  8
回07-記事
  6
CONTINUOUS
 62
     7
 10
254.4844469170824
 20
-2807.811446740575
 30
0.0
 11
261.7103473915636
 21
-2807.811446740575
 31
0.0
  0
TEXT
  5
17A
  8
回07-記事
  6
CONTINUOUS
 62
     7
 10
248.655684247321
 20
-2809.142163650979
 30
0.0
 40
2.582236799999999
  1
36
  7
2MM
1001
ACAD
1000
MTEXTBEGIN
1070
    73
1070
     1
1070
    44
1040
1.0
1070
    74
1070
     0
1000
MTEXTEND
  0
LINE
  5
17B
  8
回07-記事
  6
CONTINUOUS
 62
     7
 10
254.4844469170824
 20
-2803.993905214062
 30
0.0
 11
261.7103473915636
 21
-2803.993905214062
 31
0.0
  0
TEXT
  5
17C
  8
回07-記事
  6
CONTINUOUS
 62
     7
 10
248.655684247321
 20
-2805.324622124466
 30
0.0
 40
2.582236799999999
  1
35
  7
2MM
1001
ACAD
1000
MTEXTBEGIN
1070
    73
1070
     1
1070
    44
1040
1.0
1070
    74
1070
     0
1000
MTEXTEND
  0
LINE
  5
17D
  8
回07-記事
  6
CONTINUOUS
 62
     7
 10
254.4844469170824
 20
-2800.176363687548
 30
0.0
 11
261.7103473915636
 21
-2800.176363687548
 31
0.0
  0
TEXT
  5
17E
  8
回07-記事
  6
CONTINUOUS
 62
     7
 10
248.655684247321
 20
-2801.507080597952
 30
0.0
 40
2.582236799999999
  1
34
  7
2MM
1001
ACAD
1000
MTEXTBEGIN
1070
    73
1070
     1
1070
    44
1040
1.0
1070
    74
1070
     0
1000
MTEXTEND
  0
LINE
  5
17F
  8
回07-記事
  6
CONTINUOUS
 62
     7
 10
254.4844469170824
 20
-2796.358822161034
 30
0.0
 11
261.7103473915636
 21
-2796.358822161034
 31
0.0
  0
TEXT
  5
180
  8
回07-記事
  6
CONTINUOUS
 62
     7
 10
248.655684247321
 20
-2797.689539071439
 30
0.0
 40
2.582236799999999
  1
33
  7
2MM
1001
ACAD
1000
MTEXTBEGIN
1070
    73
1070
     1
1070
    44
1040
1.0
1070
    74
1070
     0
1000
MTEXTEND
  0
LINE
  5
181
  8
回07-記事
  6
CONTINUOUS
 62
     7
 10
254.4844469170824
 20
-2792.541280634521
 30
0.0
 11
261.7103473915636
 21
-2792.541280634521
 31
0.0
  0
TEXT
  5
182
  8
回07-記事
  6
CONTINUOUS
 62
     7
 10
248.655684247321
 20
-2793.871997544925
 30
0.0
 40
2.582236799999999
  1
32
  7
2MM
1001
ACAD
1000
MTEXTBEGIN
1070
    73
1070
     1
1070
    44
1040
1.0
1070
    74
1070
     0
1000
MTEXTEND
  0
LINE
  5
183
  8
回07-記事
  6
CONTINUOUS
 62
     7
 10
254.4844469170824
 20
-2788.723739108008
 30
0.0
 11
261.7103473915636
 21
-2788.723739108008
 31
0.0
  0
TEXT
  5
184
  8
回07-記事
  6
CONTINUOUS
 62
     7
 10
248.655684247321
 20
-2790.054456018412
 30
0.0
 40
2.582236799999999
  1
31
  7
2MM
1001
ACAD
1000
MTEXTBEGIN
1070
    73
1070
     1
1070
    44
1040
1.0
1070
    74
1070
     0
1000
MTEXTEND
  0
LINE
  5
185
  8
回07-記事
  6
CONTINUOUS
 62
     7
 10
254.4844469170824
 20
-2784.906197581494
 30
0.0
 11
261.7103473915636
 21
-2784.906197581494
 31
0.0
  0
TEXT
  5
186
  8
回07-記事
  6
CONTINUOUS
 62
     7
 10
248.655684247321
 20
-2786.236914491898
 30
0.0
 40
2.582236799999999
  1
30
  7
2MM
1001
ACAD
1000
MTEXTBEGIN
1070
    73
1070
     1
1070
    44
1040
1.0
1070
    74
1070
     0
1000
MTEXTEND
  0
LINE
  5
187
  8
回07-記事
  6
CONTINUOUS
 62
     7
 10
254.4844469170824
 20
-2781.088656054981
 30
0.0
 11
261.7103473915636
 21
-2781.088656054981
 31
0.0
  0
TEXT
  5
188
  8
回07-記事
  6
CONTINUOUS
 62
     7
 10
248.655684247321
 20
-2782.419372965384
 30
0.0
 40
2.582236799999999
  1
29
  7
2MM
1001
ACAD
1000
MTEXTBEGIN
1070
    73
1070
     1
1070
    44
1040
1.0
1070
    74
1070
     0
1000
MTEXTEND
  0
LINE
  5
189
  8
回07-記事
  6
CONTINUOUS
 62
     7
 10
254.4844469170824
 20
-2777.271114528467
 30
0.0
 11
261.7103473915636
 21
-2777.271114528467
 31
0.0
  0
TEXT
  5
18A
  8
回07-記事
  6
CONTINUOUS
 62
     7
 10
248.655684247321
 20
-2778.601831438871
 30
0.0
 40
2.582236799999999
  1
28
  7
2MM
1001
ACAD
1000
MTEXTBEGIN
1070
    73
1070
     1
1070
    44
1040
1.0
1070
    74
1070
     0
1000
MTEXTEND
  0
LINE
  5
18B
  8
回07-記事
  6
CONTINUOUS
 62
     7
 10
254.4844469170824
 20
-2773.453573001953
 30
0.0
 11
261.7103473915636
 21
-2773.453573001953
 31
0.0
  0
TEXT
  5
18C
  8
回07-記事
  6
CONTINUOUS
 62
     7
 10
248.655684247321
 20
-2774.784289912358
 30
0.0
 40
2.582236799999999
  1
27
  7
2MM
1001
ACAD
1000
MTEXTBEGIN
1070
    73
1070
     1
1070
    44
1040
1.0
1070
    74
1070
     0
1000
MTEXTEND
  0
LINE
  5
18D
  8
回07-記事
  6
CONTINUOUS
 62
     7
 10
254.4844469170824
 20
-2769.63603147544
 30
0.0
 11
261.7103473915636
 21
-2769.63603147544
 31
0.0
  0
TEXT
  5
18E
  8
回07-記事
  6
CONTINUOUS
 62
     7
 10
248.655684247321
 20
-2770.966748385844
 30
0.0
 40
2.582236799999999
  1
26
  7
2MM
1001
ACAD
1000
MTEXTBEGIN
1070
    73
1070
     1
1070
    44
1040
1.0
1070
    74
1070
     0
1000
MTEXTEND
  0
LINE
  5
18F
  8
回07-記事
  6
CONTINUOUS
 62
     7
 10
254.4844469170824
 20
-2765.818489948926
 30
0.0
 11
261.7103473915636
 21
-2765.818489948926
 31
0.0
  0
TEXT
  5
190
  8
回07-記事
  6
CONTINUOUS
 62
     7
 10
248.655684247321
 20
-2767.14920685933
 30
0.0
 40
2.582236799999999
  1
25
  7
2MM
1001
ACAD
1000
MTEXTBEGIN
1070
    73
1070
     1
1070
    44
1040
1.0
1070
    74
1070
     0
1000
MTEXTEND
  0
LINE
  5
191
  8
回07-記事
  6
CONTINUOUS
 62
     7
 10
254.4844469170824
 20
-2762.000948422413
 30
0.0
 11
261.7103473915636
 21
-2762.000948422413
 31
0.0
  0
TEXT
  5
192
  8
回07-記事
  6
CONTINUOUS
 62
     7
 10
248.655684247321
 20
-2763.331665332817
 30
0.0
 40
2.582236799999999
  1
24
  7
2MM
1001
ACAD
1000
MTEXTBEGIN
1070
    73
1070
     1
1070
    44
1040
1.0
1070
    74
1070
     0
1000
MTEXTEND
  0
LINE
  5
193
  8
回07-記事
  6
CONTINUOUS
 62
     7
 10
254.4844469170824
 20
-2758.183406895899
 30
0.0
 11
261.7103473915636
 21
-2758.183406895899
 31
0.0
  0
TEXT
  5
194
  8
回07-記事
  6
CONTINUOUS
 62
     7
 10
248.655684247321
 20
-2759.514123806303
 30
0.0
 40
2.582236799999999
  1
23
  7
2MM
1001
ACAD
1000
MTEXTBEGIN
1070
    73
1070
     1
1070
    44
1040
1.0
1070
    74
1070
     0
1000
MTEXTEND
  0
LINE
  5
195
  8
回07-記事
  6
CONTINUOUS
 62
     7
 10
254.4844469170824
 20
-2754.365865369386
 30
0.0
 11
261.7103473915636
 21
-2754.365865369386
 31
0.0
  0
TEXT
  5
196
  8
回07-記事
  6
CONTINUOUS
 62
     7
 10
248.655684247321
 20
-2755.69658227979
 30
0.0
 40
2.582236799999999
  1
22
  7
2MM
1001
ACAD
1000
MTEXTBEGIN
1070
    73
1070
     1
1070
    44
1040
1.0
1070
    74
1070
     0
1000
MTEXTEND
  0
LINE
  5
197
  8
回07-記事
  6
CONTINUOUS
 62
     7
 10
254.4844469170824
 20
-2750.548323842872
 30
0.0
 11
261.7103473915636
 21
-2750.548323842872
 31
0.0
  0
TEXT
  5
198
  8
回07-記事
  6
CONTINUOUS
 62
     7
 10
248.655684247321
 20
-2751.879040753276
 30
0.0
 40
2.582236799999999
  1
21
  7
2MM
1001
ACAD
1000
MTEXTBEGIN
1070
    73
1070
     1
1070
    44
1040
1.0
1070
    74
1070
     0
1000
MTEXTEND
  0
LINE
  5
199
  8
回07-記事
  6
CONTINUOUS
 62
     7
 10
254.4844469170824
 20
-2746.730782316358
 30
0.0
 11
261.7103473915636
 21
-2746.730782316358
 31
0.0
  0
TEXT
  5
19A
  8
回07-記事
  6
CONTINUOUS
 62
     7
 10
248.655684247321
 20
-2748.061499226763
 30
0.0
 40
2.582236799999999
  1
20
  7
2MM
1001
ACAD
1000
MTEXTBEGIN
1070
    73
1070
     1
1070
    44
1040
1.0
1070
    74
1070
     0
1000
MTEXTEND
  0
LINE
  5
19B
  8
回07-記事
  6
CONTINUOUS
 62
     7
 10
254.4844469170824
 20
-2742.913240789845
 30
0.0
 11
261.7103473915636
 21
-2742.913240789845
 31
0.0
  0
TEXT
  5
19C
  8
回07-記事
  6
CONTINUOUS
 62
     7
 10
248.655684247321
 20
-2744.243957700249
 30
0.0
 40
2.582236799999999
  1
19
  7
2MM
1001
ACAD
1000
MTEXTBEGIN
1070
    73
1070
     1
1070
    44
1040
1.0
1070
    74
1070
     0
1000
MTEXTEND
  0
LINE
  5
19D
  8
回07-記事
  6
CONTINUOUS
 62
     7
 10
254.4844469170824
 20
-2739.095699263331
 30
0.0
 11
261.7103473915636
 21
-2739.095699263331
 31
0.0
  0
TEXT
  5
19E
  8
回07-記事
  6
CONTINUOUS
 62
     7
 10
248.655684247321
 20
-2740.426416173735
 30
0.0
 40
2.582236799999999
  1
18
  7
2MM
1001
ACAD
1000
MTEXTBEGIN
1070
    73
1070
     1
1070
    44
1040
1.0
1070
    74
1070
     0
1000
MTEXTEND
  0
LINE
  5
19F
  8
回07-記事
  6
CONTINUOUS
 62
     7
 10
254.4844469170824
 20
-2735.278157736818
 30
0.0
 11
261.7103473915636
 21
-2735.278157736818
 31
0.0
  0
TEXT
  5
1A0
  8
回07-記事
  6
CONTINUOUS
 62
     7
 10
248.655684247321
 20
-2736.608874647222
 30
0.0
 40
2.582236799999999
  1
17
  7
2MM
1001
ACAD
1000
MTEXTBEGIN
1070
    73
1070
     1
1070
    44
1040
1.0
1070
    74
1070
     0
1000
MTEXTEND
  0
LINE
  5
1A1
  8
回07-記事
  6
CONTINUOUS
 62
     7
 10
254.4844469170824
 20
-2731.460616210304
 30
0.0
 11
261.7103473915636
 21
-2731.460616210304
 31
0.0
  0
TEXT
  5
1A2
  8
回07-記事
  6
CONTINUOUS
 62
     7
 10
248.655684247321
 20
-2732.791333120708
 30
0.0
 40
2.582236799999999
  1
16
  7
2MM
1001
ACAD
1000
MTEXTBEGIN
1070
    73
1070
     1
1070
    44
1040
1.0
1070
    74
1070
     0
1000
MTEXTEND
  0
LINE
  5
1A3
  8
回07-記事
  6
CONTINUOUS
 62
     7
 10
254.4844469170824
 20
-2727.643074683791
 30
0.0
 11
261.7103473915636
 21
-2727.643074683791
 31
0.0
  0
TEXT
  5
1A4
  8
回07-記事
  6
CONTINUOUS
 62
     7
 10
248.655684247321
 20
-2728.973791594194
 30
0.0
 40
2.582236799999999
  1
15
  7
2MM
1001
ACAD
1000
MTEXTBEGIN
1070
    73
1070
     1
1070
    44
1040
1.0
1070
    74
1070
     0
1000
MTEXTEND
  0
LINE
  5
1A5
  8
回07-記事
  6
CONTINUOUS
 62
     7
 10
254.4844469170824
 20
-2723.825533157278
 30
0.0
 11
261.7103473915636
 21
-2723.825533157278
 31
0.0
  0
TEXT
  5
1A6
  8
回07-記事
  6
CONTINUOUS
 62
     7
 10
248.655684247321
 20
-2725.156250067681
 30
0.0
 40
2.582236799999999
  1
14
  7
2MM
1001
ACAD
1000
MTEXTBEGIN
1070
    73
1070
     1
1070
    44
1040
1.0
1070
    74
1070
     0
1000
MTEXTEND
  0
LINE
  5
1A7
  8
回07-記事
  6
CONTINUOUS
 62
     7
 10
254.4844469170824
 20
-2720.007991630764
 30
0.0
 11
261.7103473915636
 21
-2720.007991630764
 31
0.0
  0
TEXT
  5
1A8
  8
回07-記事
  6
CONTINUOUS
 62
     7
 10
248.655684247321
 20
-2721.338708541168
 30
0.0
 40
2.582236799999999
  1
13
  7
2MM
1001
ACAD
1000
MTEXTBEGIN
1070
    73
1070
     1
1070
    44
1040
1.0
1070
    74
1070
     0
1000
MTEXTEND
  0
LINE
  5
1A9
  8
回07-記事
  6
CONTINUOUS
 62
     7
 10
254.4844469170824
 20
-2716.19045010425
 30
0.0
 11
261.7103473915636
 21
-2716.19045010425
 31
0.0
  0
TEXT
  5
1AA
  8
回07-記事
  6
CONTINUOUS
 62
     7
 10
248.655684247321
 20
-2717.521167014655
 30
0.0
 40
2.582236799999999
  1
12
  7
2MM
1001
ACAD
1000
MTEXTBEGIN
1070
    73
1070
     1
1070
    44
1040
1.0
1070
    74
1070
     0
1000
MTEXTEND
  0
LINE
  5
1AB
  8
回07-記事
  6
CONTINUOUS
 62
     7
 10
254.4844469170824
 20
-2712.372908577736
 30
0.0
 11
261.7103473915636
 21
-2712.372908577736
 31
0.0
  0
TEXT
  5
1AC
  8
回07-記事
  6
CONTINUOUS
 62
     7
 10
248.655684247321
 20
-2713.703625488141
 30
0.0
 40
2.582236799999999
  1
11
  7
2MM
1001
ACAD
1000
MTEXTBEGIN
1070
    73
1070
     1
1070
    44
1040
1.0
1070
    74
1070
     0
1000
MTEXTEND
  0
LINE
  5
1AD
  8
回07-記事
  6
CONTINUOUS
 62
     7
 10
254.4844469170824
 20
-2708.555367051223
 30
0.0
 11
261.7103473915636
 21
-2708.555367051223
 31
0.0
  0
TEXT
  5
1AE
  8
回07-記事
  6
CONTINUOUS
 62
     7
 10
248.655684247321
 20
-2709.886083961627
 30
0.0
 40
2.582236799999999
  1
10
  7
2MM
1001
ACAD
1000
MTEXTBEGIN
1070
    73
1070
     1
1070
    44
1040
1.0
1070
    74
1070
     0
1000
MTEXTEND
  0
LINE
  5
1AF
  8
回07-記事
  6
CONTINUOUS
 62
     7
 10
254.4844469170824
 20
-2704.73782552471
 30
0.0
 11
261.7103473915636
 21
-2704.73782552471
 31
0.0
  0
TEXT
  5
1B0
  8
回07-記事
  6
CONTINUOUS
 62
     7
 10
248.646361420849
 20
-2706.068542435114
 30
0.0
 40
2.582236799999999
  1
9
  7
2MM
1001
ACAD
1000
MTEXTBEGIN
1070
    73
1070
     1
1070
    44
1040
1.0
1070
    74
1070
     0
1000
MTEXTEND
  0
LINE
  5
1B1
  8
回07-記事
  6
CONTINUOUS
 62
     7
 10
254.4844469170824
 20
-2700.920283998196
 30
0.0
 11
261.7103473915636
 21
-2700.920283998196
 31
0.0
  0
TEXT
  5
1B2
  8
回07-記事
  6
CONTINUOUS
 62
     7
 10
248.655684247321
 20
-2702.2510009086
 30
0.0
 40
2.582236799999999
  1
8
  7
2MM
1001
ACAD
1000
MTEXTBEGIN
1070
    73
1070
     1
1070
    44
1040
1.0
1070
    74
1070
     0
1000
MTEXTEND
  0
LINE
  5
1B3
  8
回07-記事
  6
CONTINUOUS
 62
     7
 10
254.4844469170824
 20
-2697.102742471683
 30
0.0
 11
261.7103473915636
 21
-2697.102742471683
 31
0.0
  0
TEXT
  5
1B4
  8
回07-記事
  6
CONTINUOUS
 62
     7
 10
248.655684247321
 20
-2698.433459382087
 30
0.0
 40
2.582236799999999
  1
7
  7
2MM
1001
ACAD
1000
MTEXTBEGIN
1070
    73
1070
     1
1070
    44
1040
1.0
1070
    74
1070
     0
1000
MTEXTEND
  0
LINE
  5
1B5
  8
回07-記事
  6
CONTINUOUS
 62
     7
 10
254.4844469170824
 20
-2693.285200945169
 30
0.0
 11
261.7103473915636
 21
-2693.285200945169
 31
0.0
  0
TEXT
  5
1B6
  8
回07-記事
  6
CONTINUOUS
 62
     7
 10
248.655684247321
 20
-2694.615917855573
 30
0.0
 40
2.582236799999999
  1
6
  7
2MM
1001
ACAD
1000
MTEXTBEGIN
1070
    73
1070
     1
1070
    44
1040
1.0
1070
    74
1070
     0
1000
MTEXTEND
  0
LINE
  5
1B7
  8
回07-記事
  6
CONTINUOUS
 62
     7
 10
254.4844469170824
 20
-2689.467659418656
 30
0.0
 11
261.7103473915636
 21
-2689.467659418656
 31
0.0
  0
TEXT
  5
1B8
  8
回07-記事
  6
CONTINUOUS
 62
     7
 10
248.655684247321
 20
-2690.798376329059
 30
0.0
 40
2.582236799999999
  1
5
  7
2MM
1001
ACAD
1000
MTEXTBEGIN
1070
    73
1070
     1
1070
    44
1040
1.0
1070
    74
1070
     0
1000
MTEXTEND
  0
LINE
  5
1B9
  8
回07-記事
  6
CONTINUOUS
 62
     7
 10
254.4844469170824
 20
-2685.650117892141
 30
0.0
 11
261.7103473915636
 21
-2685.650117892141
 31
0.0
  0
TEXT
  5
1BA
  8
回07-記事
  6
CONTINUOUS
 62
     7
 10
248.655684247321
 20
-2686.980834802545
 30
0.0
 40
2.582236799999999
  1
4
  7
2MM
1001
ACAD
1000
MTEXTBEGIN
1070
    73
1070
     1
1070
    44
1040
1.0
1070
    74
1070
     0
1000
MTEXTEND
  0
LINE
  5
1BB
  8
回07-記事
  6
CONTINUOUS
 62
     7
 10
254.4844469170824
 20
-2681.832576365628
 30
0.0
 11
261.7103473915636
 21
-2681.832576365628
 31
0.0
  0
TEXT
  5
1BC
  8
回07-記事
  6
CONTINUOUS
 62
     7
 10
248.655684247321
 20
-2683.163293276032
 30
0.0
 40
2.582236799999999
  1
3
  7
2MM
1001
ACAD
1000
MTEXTBEGIN
1070
    73
1070
     1
1070
    44
1040
1.0
1070
    74
1070
     0
1000
MTEXTEND
  0
LINE
  5
1BD
  8
回07-記事
  6
CONTINUOUS
 62
     7
 10
254.4844469170824
 20
-2678.015034839114
 30
0.0
 11
261.7103473915636
 21
-2678.015034839114
 31
0.0
  0
LINE
  5
1BE
  8
回07-記事
  6
CONTINUOUS
 62
     7
 10
254.4844469170824
 20
-2674.197493312601
 30
0.0
 11
261.7103473915636
 21
-2674.197493312601
 31
0.0
  0
TEXT
  5
1BF
  8
回07-記事
  6
CONTINUOUS
 62
     7
 10
248.655684247321
 20
-2679.345751749519
 30
0.0
 40
2.582236799999999
  1
2
  7
2MM
1001
ACAD
1000
MTEXTBEGIN
1070
    73
1070
     1
1070
    44
1040
1.0
1070
    74
1070
     0
1000
MTEXTEND
  0
TEXT
  5
1C0
  8
回07-記事
  6
CONTINUOUS
 62
     7
 10
248.655684247321
 20
-2675.528210223006
 30
0.0
 40
2.582236799999999
  1
1
  7
2MM
1001
ACAD
1000
MTEXTBEGIN
1070
    73
1070
     1
1070
    44
1040
1.0
1070
    74
1070
     0
1000
MTEXTEND
  0
DIMENSION
  5
1C1
  8
回02-寸法
  6
CONTINUOUS
 62
     7
  2
*D28
 10
-92.16178426032358
 20
-2792.569664074662
 30
0.0
 11
-94.16178426032358
 21
-2795.419664074661
 31
0.0
 70
    32
  3
DMC
 13
-105.4488001646095
 23
-2798.269664074661
 33
0.0
 14
-105.4488001646095
 24
-2792.569664074662
 34
0.0
 50
90.0
1001
ACAD
1000
DSTYLE
1002
{
1070
    41
1040
1.5
1070
    47
1040
0.2
1070
    48
1040
0.2
1070
   141
1040
1.5
1070
   371
1070
    13
1070
   372
1070
    13
1002
}
  0
DIMENSION
  5
1D2
  8
回02-寸法
  6
CONTINUOUS
 62
     7
  2
*D29
 10
-75.40880016460983
 20
-2814.969225392502
 30
0.0
 11
-68.75754762195898
 21
-2812.969225392502
 31
0.0
 70
    32
  3
DMC
 13
-81.26880016460972
 23
-2821.794664074661
 33
0.0
 14
-75.40880016460983
 24
-2821.794664074661
 34
0.0
1001
ACAD
1000
DSTYLE
1002
{
1070
    41
1040
1.5
1070
    47
1040
0.2
1070
    48
1040
0.2
1070
   141
1040
1.5
1070
   371
1070
    13
1070
   372
1070
    13
1002
}
  0
DIMENSION
  5
1E3
  8
回02-寸法
  6
CONTINUOUS
  2
*D30
 10
-53.05810625520985
 20
-2908.860915000511
 30
0.0
 11
-59.80810625521053
 21
-2906.860915000511
 31
0.0
 70
    32
  3
DMC
 13
-66.55810625521121
 23
-2890.132315792667
 33
0.0
 14
-53.05810625520985
 24
-2890.132315792667
 34
0.0
1001
ACAD
1000
DSTYLE
1002
{
1070
   147
1040
0.5
1070
    72
1070
     0
1070
    71
1070
     1
1070
    41
1040
1.5
1070
    47
1040
0.1
1070
    48
1040
0.1
1070
   141
1040
1.5
1070
   371
1070
    13
1070
   372
1070
    13
1002
}
  0
DIMENSION
  5
1F2
  8
回02-寸法
  6
CONTINUOUS
  2
*D31
 10
-110.0488001646097
 20
-2924.532230826065
 30
0.0
 11
-76.55346168216147
 21
-2921.282175826065
 31
0.0
 70
    32
  1
{\H1.6667x;(<>)}
  3
DMC
 13
-43.05812319971323
 23
-2890.132315792667
 33
0.0
 14
-110.0488001646097
 24
-2830.332315792665
 34
0.0
1001
ACAD
1000
DSTYLE
1002
{
1070
   271
1070
     1
1070
    41
1040
1.5
1070
    47
1040
0.2
1070
    48
1040
0.2
1070
   141
1040
1.5
1070
   371
1070
    13
1070
   372
1070
    13
1002
}
  0
DIMENSION
  5
201
  8
回02-寸法
  6
CONTINUOUS
  2
*D32
 10
-66.55810625521121
 20
-2908.860915000511
 30
0.0
 11
-88.30345320991046
 21
-2905.610860000511
 31
0.0
 70
    32
  1
{\H1.6667x;(<>)}
  3
DMC
 13
-110.0488001646097
 23
-2830.332315792665
 33
0.0
 14
-66.55810625521121
 24
-2890.132315792667
 34
0.0
1001
ACAD
1000
DSTYLE
1002
{
1070
   271
1070
     1
1070
    41
1040
1.5
1070
    47
1040
0.2
1070
    48
1040
0.2
1070
   141
1040
1.5
1070
   371
1070
    13
1070
   372
1070
    13
1002
}
  0
DIMENSION
  5
210
  8
回02-寸法
  6
CONTINUOUS
  2
*D33
 10
-22.5581231997121
 20
-2924.532230826065
 30
0.0
 11
-32.80812319971267
 21
-2924.532230826065
 31
0.0
 70
   160
  1
{\H1.33333x;<>}
  3
DMC
 13
-43.05812319971323
 23
-2890.132315792667
 33
0.0
 14
-22.5581231997121
 24
-2890.132315792667
 34
0.0
1001
ACAD
1000
DSTYLE
1002
{
1070
    47
1040
0.1
1070
    48
1040
0.1
1070
    71
1070
     1
1070
   146
1040
1.199999999999999
1002
}
  0
INSERT
  5
21F
  8
回02-寸法
  6
CONTINUOUS
 62
     7
 66
     1
  2
*X53
 10
0.0
 20
0.0
 30
0.0
1001
ACAD_MLEADERVER
1070
     2
  0
SEQEND
  5
58F
  8
回02-寸法
  6
CONTINUOUS
 62
     7
  0
DIMENSION
  5
221
  8
回02-寸法
  6
CONTINUOUS
 62
     7
  2
*D34
 10
-134.4760879132146
 20
-2838.629664074661
 30
0.0
 11
-136.4760879132146
 21
-2846.818040854516
 31
0.0
 70
    32
  3
DMC
 13
-110.0488001646097
 23
-2830.332192324588
 33
0.0
 14
-115.1488001646096
 24
-2838.629664074661
 34
0.0
 50
90.0
1001
ACAD
1000
DSTYLE
1002
{
1070
   147
1040
0.5
1070
    72
1070
     0
1070
    71
1070
     1
1070
   271
1070
     1
1070
    41
1040
1.5
1070
    47
1040
0.6
1070
    48
1040
0.6
1070
   141
1040
1.5
1070
   371
1070
    13
1070
   372
1070
    13
1002
}
  0
DIMENSION
  5
232
  8
回02-寸法
  6
CONTINUOUS
 62
     7
  2
*D35
 10
-129.2062508015547
 20
-2830.332192324588
 30
0.0
 11
-131.2062508015547
 21
-2824.335928199625
 31
0.0
 70
    32
  3
DMC
 13
-101.7988001646097
 23
-2818.33966407466
 33
0.0
 14
-110.0488001646097
 24
-2830.332192324588
 34
0.0
 50
90.0
1001
ACAD
1000
DSTYLE
1002
{
1070
   271
1070
     1
1070
    41
1040
1.5
1070
    47
1040
0.2
1070
    48
1040
0.2
1070
   141
1040
1.5
1070
   371
1070
    13
1070
   372
1070
    13
1002
}
  0
DIMENSION
  5
241
  8
回02-寸法
  6
CONTINUOUS
 62
     7
  2
*D36
 10
-117.1488001646096
 20
-2690.706429436243
 30
0.0
 11
-125.0371769444652
 21
-2688.706429436243
 31
0.0
 70
    32
  3
DMC
 13
-110.0488001646097
 23
-2718.93219232459
 33
0.0
 14
-117.1488001646096
 24
-2708.629664074661
 34
0.0
1001
ACAD
1000
DSTYLE
1002
{
1070
   147
1040
0.5
1070
    72
1070
     0
1070
    71
1070
     1
1070
   271
1070
     1
1070
    41
1040
1.5
1070
    47
1040
0.6
1070
    48
1040
0.6
1070
   141
1040
1.5
1070
   371
1070
    13
1070
   372
1070
    13
1002
}
  0
DIMENSION
  5
252
  8
回02-寸法
  6
CONTINUOUS
 62
     7
  2
*D37
 10
-110.0488001646097
 20
-2696.609303920155
 30
0.0
 11
-105.9238001646097
 21
-2694.609303920155
 31
0.0
 70
    32
  3
DMC
 13
-101.7988001646097
 23
-2726.899664074661
 33
0.0
 14
-110.0488001646097
 24
-2718.932192324591
 34
0.0
1001
ACAD
1000
DSTYLE
1002
{
1070
   271
1070
     1
1070
    41
1040
1.5
1070
    47
1040
0.2
1070
    48
1040
0.2
1070
   141
1040
1.5
1070
   371
1070
    13
1070
   372
1070
    13
1002
}
  0
DIMENSION
  5
261
  8
回02-寸法
  6
CONTINUOUS
 62
     7
  2
*D38
 10
-140.3487880822383
 20
-2838.629664074661
 30
0.0
 11
-142.5987893322383
 21
-2772.629664074661
 31
0.0
 70
    32
  1
<>{\H0.66667x; (Cover glass)}
  3
DMC
 13
-115.1488001646096
 23
-2706.629664074661
 33
0.0
 14
-115.1488001646096
 24
-2838.629664074661
 34
0.0
 50
90.0
1001
ACAD
1000
DSTYLE
1002
{
1070
   147
1040
0.5
1070
    72
1070
     0
1070
    71
1070
     1
1070
    41
1040
1.5
1070
    47
1040
0.3
1070
    48
1040
0.3
1070
   141
1040
1.5
1070
   371
1070
    13
1070
   372
1070
    13
1002
}
  0
DIMENSION
  5
270
  8
回02-寸法
  6
CONTINUOUS
 62
     7
  2
*D39
 10
-134.4760879132148
 20
-2718.932192324589
 30
0.0
 11
-136.7260891632148
 21
-2774.632192324589
 31
0.0
 70
    32
  1
<>{\H0.66667x; (Touch panel)}
  3
DMC
 13
-110.0488001646097
 23
-2830.332192324588
 33
0.0
 14
-110.0488001646097
 24
-2718.932192324589
 34
0.0
 50
90.0
1001
ACAD
1000
DSTYLE
1002
{
1070
   147
1040
0.5
1070
    72
1070
     0
1070
    71
1070
     1
1070
    41
1040
1.5
1070
    47
1040
0.5
1070
    48
1040
0.5
1070
   141
1040
1.5
1070
   371
1070
    13
1070
   372
1070
    13
1002
}
  0
DIMENSION
  5
27F
  8
回02-寸法
  6
CONTINUOUS
 62
     7
  2
*D40
 10
-129.2062508015547
 20
-2818.33966407466
 30
0.0
 11
-131.2562510515545
 21
-2772.619664074661
 31
0.0
 70
    32
  1
<>{\H0.66667x; (Active area)}
  3
DMC
 13
-101.7988001646097
 23
-2726.899664074661
 33
0.0
 14
-101.7988001646097
 24
-2818.33966407466
 34
0.0
 50
90.0
1001
ACAD
1000
DSTYLE
1002
{
1070
    41
1040
1.5
1070
    47
1040
0.2
1070
    48
1040
0.2
1070
   141
1040
1.5
1070
   371
1070
    13
1070
   372
1070
    13
1002
}
  0
DIMENSION
  5
28E
  8
回02-寸法
  6
CONTINUOUS
 62
     7
  2
*D41
 10
-117.1488001646096
 20
-2685.231140193627
 30
0.0
 11
-25.59880016460954
 21
-2682.981138943627
 31
0.0
 70
    32
  1
<>{\H0.66667x; (Cover glass)}
  3
DMC
 13
65.95119983539053
 23
-2708.629664074661
 33
0.0
 14
-117.1488001646096
 24
-2708.629664074661
 34
0.0
1001
ACAD
1000
DSTYLE
1002
{
1070
   147
1040
0.5
1070
    72
1070
     0
1070
    71
1070
     1
1070
    41
1040
1.5
1070
    47
1040
0.3
1070
    48
1040
0.3
1070
   141
1040
1.5
1070
   371
1070
    13
1070
   372
1070
    13
1002
}
  0
DIMENSION
  5
29D
  8
回02-寸法
  6
CONTINUOUS
 62
     7
  2
*D42
 10
58.75119983539025
 20
-2690.706429436243
 30
0.0
 11
-25.64880016460973
 21
-2688.456428186243
 31
0.0
 70
    32
  1
<>{\H0.66667x; (Touch panel)}
  3
DMC
 13
-110.0488001646097
 23
-2718.93219232459
 33
0.0
 14
58.75119983539025
 24
-2718.93219232459
 34
0.0
1001
ACAD
1000
DSTYLE
1002
{
1070
   147
1040
0.5
1070
    72
1070
     0
1070
    71
1070
     1
1070
    41
1040
1.5
1070
    47
1040
0.5
1070
    48
1040
0.5
1070
   141
1040
1.5
1070
   371
1070
    13
1070
   372
1070
    13
1002
}
  0
DIMENSION
  5
2AC
  8
回02-寸法
  6
CONTINUOUS
 62
     7
  2
*D43
 10
50.60119983539062
 20
-2696.609303920155
 30
0.0
 11
-25.59880016460954
 21
-2694.559303670155
 31
0.0
 70
    32
  1
<>{\H0.66667x; (Active area)}
  3
DMC
 13
-101.7988001646097
 23
-2726.899664074661
 33
0.0
 14
50.60119983539062
 24
-2726.899664074661
 34
0.0
1001
ACAD
1000
DSTYLE
1002
{
1070
    41
1040
1.5
1070
    47
1040
0.2
1070
    48
1040
0.2
1070
   141
1040
1.5
1070
   371
1070
    13
1070
   372
1070
    13
1002
}
  0
INSERT
  5
2BB
  8
回02-寸法
  6
CONTINUOUS
 62
     7
 66
     1
  2
*X54
 10
0.0
 20
0.0
 30
0.0
1001
ACAD_MLEADERVER
1070
     2
  0
SEQEND
  5
59E
  8
回02-寸法
  6
CONTINUOUS
 62
     7
  0
CIRCLE
  5
2BC
  8
回02-寸法
  6
CONTINUOUS
 62
     5
 10
-110.0488001646097
 20
-2830.332192324588
 30
0.0
 40
2.464455901028347
  0
DIMENSION
  5
2BD
  8
回02-寸法
  6
CONTINUOUS
  2
*D44
 10
-4.288301773757893
 20
-2830.332315792667
 30
0.0
 11
-4.288301773757893
 21
-2855.896550437533
 31
0.0
 70
   160
  1
{\H1.6667x;<>}
  3
DMC
 13
-22.75812319971192
 23
-2890.332315792666
 33
0.0
 14
-22.55812319971301
 24
-2830.332315792667
 34
0.0
 50
90.0
1001
ACAD
1000
DSTYLE
1002
{
1070
    47
1040
1.0
1070
    48
1040
1.0
1070
    71
1070
     1
1070
   146
1040
1.199999999999999
1002
}
  0
DIMENSION
  5
2CC
  8
回02-寸法
  6
CONTINUOUS
  2
*D45
 10
-79.29689514423921
 20
-2830.332315792665
 30
0.0
 11
-79.29689514423921
 21
-2859.565194449983
 31
0.0
 70
   160
  1
{\H1.66667x;<>}
  3
DMC
 13
-66.35810625521094
 23
-2890.332315792666
 33
0.0
 14
-66.55810625521076
 24
-2830.332315792665
 34
0.0
 50
90.0
1001
ACAD
1000
DSTYLE
1002
{
1070
    47
1040
1.0
1070
    48
1040
1.0
1070
    71
1070
     1
1070
   146
1040
1.199999999999999
1002
}
  0
LINE
  5
2DB
  8
回03-記事
  6
CONTINUOUS
 62
     7
 10
71.24653187089553
 20
-2733.429204960259
 30
0.0
 11
71.24653187089553
 21
-2812.292235838628
 31
0.0
  0
TEXT
  5
2DD
  8
回03-記事
  6
CONTINUOUS
 62
     7
 10
67.35202464411395
 20
-2816.768497452635
 30
0.0
 40
3.0
  1
Y15
  0
TEXT
  5
2DE
  8
回03-記事
  6
CONTINUOUS
 62
     7
 10
67.35202464411395
 20
-2731.337529144265
 30
0.0
 40
3.0
  1
Y00
  0
LINE
  5
2DF
  8
回03-記事
  6
CONTINUOUS
 62
     7
 10
43.68895173716191
 20
-2702.894202701109
 30
0.0
 11
-94.99073344982548
 21
-2702.894202701109
 31
0.0
  0
TEXT
  5
2E0
  8
回03-記事
  6
CONTINUOUS
 62
     7
 10
43.83858667109052
 20
-2704.325642002508
 30
0.0
 40
3.0
  1
X25
  0
TEXT
  5
2E1
  8
回03-記事
  6
CONTINUOUS
 62
     7
 10
-102.6620115290259
 20
-2704.325642002508
 30
0.0
 40
3.0
  1
X00
  0
POLYLINE
  5
2E2
  8
回03-記事
  6
CONTINUOUS
 62
     7
 66
     1
 10
0.0
 20
0.0
 30
0.0
 40
1.1
 41
1.1
  0
VERTEX
  5
59F
  8
回03-記事
  6
CONTINUOUS
 62
     7
 10
104.8727791231861
 20
-2707.129664074661
 30
0.0
  0
VERTEX
  5
5A1
  8
回03-記事
  6
CONTINUOUS
 62
     7
 10
104.8727791231861
 20
-2726.599664074661
 30
0.0
  0
SEQEND
  5
5A0
  8
回02-寸法
  6
CONTINUOUS
 62
     7
  0
INSERT
  5
2E3
  8
回02-寸法
  6
CONTINUOUS
 62
     7
 66
     1
  2
*X55
 10
0.0
 20
0.0
 30
0.0
1001
ACAD_MLEADERVER
1070
     2
  0
SEQEND
  5
5B0
  8
回02-寸法
  6
CONTINUOUS
 62
     7
  0
INSERT
  5
2E9
  8
回02-寸法
  6
CONTINUOUS
 62
     7
 66
     1
  2
*X56
 10
0.0
 20
0.0
 30
0.0
1001
ACAD_MLEADERVER
1070
     2
  0
SEQEND
  5
5BE
  8
回02-寸法
  6
CONTINUOUS
 62
     7
  0
INSERT
  5
2EE
  8
回02-寸法
  6
CONTINUOUS
 62
     7
 66
     1
  2
*X57
 10
0.0
 20
0.0
 30
0.0
1001
ACAD_MLEADERVER
1070
     2
  0
SEQEND
  5
5CD
  8
回02-寸法
  6
CONTINUOUS
 62
     7
  0
INSERT
  5
2EF
  8
回02-寸法
  6
CONTINUOUS
 62
     7
 66
     1
  2
*X58
 10
0.0
 20
0.0
 30
0.0
1001
ACAD_MLEADERVER
1070
     2
  0
SEQEND
  5
5DB
  8
回02-寸法
  6
CONTINUOUS
 62
     7
  0
INSERT
  5
2F0
  8
回02-寸法
  6
CONTINUOUS
 62
     7
 66
     1
  2
*X59
 10
0.0
 20
0.0
 30
0.0
1001
ACAD_MLEADERVER
1070
     2
  0
SEQEND
  5
5EA
  8
回02-寸法
  6
CONTINUOUS
 62
     7
  0
INSERT
  5
2F1
  8
回02-寸法
  6
CONTINUOUS
 62
     7
 66
     1
  2
*X60
 10
0.0
 20
0.0
 30
0.0
1001
ACAD_MLEADERVER
1070
     2
  0
SEQEND
  5
5F8
  8
回02-寸法
  6
CONTINUOUS
 62
     7
  0
INSERT
  5
2F2
  8
回02-寸法
  6
CONTINUOUS
 62
     7
 66
     1
  2
*X61
 10
0.0
 20
0.0
 30
0.0
1001
ACAD_MLEADERVER
1070
     2
  0
SEQEND
  5
607
  8
回02-寸法
  6
CONTINUOUS
 62
     7
  0
INSERT
  5
2F3
  8
回02-寸法
  6
CONTINUOUS
 62
     7
 66
     1
  2
*X62
 10
0.0
 20
0.0
 30
0.0
1001
ACAD_MLEADERVER
1070
     2
  0
SEQEND
  5
615
  8
回02-寸法
  6
CONTINUOUS
 62
     7
  0
INSERT
  5
2F4
  8
回02-寸法
  6
CONTINUOUS
 62
     7
 66
     1
  2
*X63
 10
0.0
 20
0.0
 30
0.0
1001
ACAD_MLEADERVER
1070
     2
  0
SEQEND
  5
623
  8
回02-寸法
  6
CONTINUOUS
 62
     7
  0
INSERT
  5
2F5
  8
回02-寸法
  6
CONTINUOUS
 62
     7
 66
     1
  2
*X64
 10
0.0
 20
0.0
 30
0.0
1001
ACAD_MLEADERVER
1070
     2
  0
SEQEND
  5
632
  8
回02-寸法
  6
CONTINUOUS
 62
     7
  0
INSERT
  5
2F6
  8
回02-寸法
  6
CONTINUOUS
 62
     7
 66
     1
  2
*X65
 10
0.0
 20
0.0
 30
0.0
1001
ACAD_MLEADERVER
1070
     2
  0
SEQEND
  5
640
  8
回02-寸法
  6
CONTINUOUS
 62
     7
  0
INSERT
  5
2F7
  8
回02-寸法
  6
CONTINUOUS
 62
     7
 66
     1
  2
*X66
 10
0.0
 20
0.0
 30
0.0
1001
ACAD_MLEADERVER
1070
     2
  0
SEQEND
  5
64F
  8
回02-寸法
  6
CONTINUOUS
 62
     7
  0
INSERT
  5
2F8
  8
回02-寸法
  6
CONTINUOUS
 62
     7
 66
     1
  2
*X67
 10
0.0
 20
0.0
 30
0.0
1001
ACAD_MLEADERVER
1070
     2
  0
SEQEND
  5
65E
  8
回02-寸法
  6
CONTINUOUS
 62
     7
  0
INSERT
  5
2F9
  8
回02-寸法
  6
CONTINUOUS
 62
     7
 66
     1
  2
*X68
 10
0.0
 20
0.0
 30
0.0
1001
ACAD_MLEADERVER
1070
     2
  0
SEQEND
  5
66D
  8
回02-寸法
  6
CONTINUOUS
 62
     7
  0
LINE
  5
2FA
  8
回03-記事
  6
CONTINUOUS
 62
     7
 10
127.1889657101094
 20
-2838.33219232459
 30
0.0
 11
126.3889657101092
 21
-2838.33219232459
 31
0.0
  0
LINE
  5
2FB
  8
回03-記事
  6
CONTINUOUS
 62
     7
 10
127.1889657101094
 20
-2831.13219232459
 30
0.0
 11
127.1889657101094
 21
-2838.33219232459
 31
0.0
  0
LINE
  5
2FC
  8
回03-記事
  6
CONTINUOUS
 62
     7
 10
134.3889657101101
 20
-2831.13219232459
 30
0.0
 11
127.1889657101094
 21
-2831.13219232459
 31
0.0
  0
LINE
  5
2FD
  8
回03-記事
  6
CONTINUOUS
 62
     7
 10
134.3889657101101
 20
-2827.33219232459
 30
0.0
 11
134.3889657101101
 21
-2831.13219232459
 31
0.0
  0
LINE
  5
2FE
  8
回03-記事
  6
CONTINUOUS
 62
     7
 10
133.5889657101099
 20
-2827.33219232459
 30
0.0
 11
134.3889657101101
 21
-2827.33219232459
 31
0.0
  0
LINE
  5
2FF
  8
回03-記事
  6
CONTINUOUS
 62
     7
 10
133.5889657101099
 20
-2830.33219232459
 30
0.0
 11
133.5889657101099
 21
-2827.33219232459
 31
0.0
  0
LINE
  5
300
  8
回03-記事
  6
CONTINUOUS
 62
     7
 10
126.3889657101092
 20
-2830.33219232459
 30
0.0
 11
133.5889657101099
 21
-2830.33219232459
 31
0.0
  0
LINE
  5
301
  8
回03-記事
  6
CONTINUOUS
 62
     7
 10
126.3889657101092
 20
-2838.33219232459
 30
0.0
 11
126.3889657101092
 21
-2830.33219232459
 31
0.0
  0
INSERT
  5
302
  8
回03-記事
  6
CONTINUOUS
 62
     0
 66
     1
  2
*X69
 10
0.0
 20
0.0
 30
0.0
1001
GRADIENTCOLOR1ACI
1070
     5
1001
GRADIENTCOLOR2ACI
1070
     2
1001
ACAD
1010
0.0
1020
0.0
1030
0.0
  0
SEQEND
  5
67C
  8
回02-寸法
  6
CONTINUOUS
 62
     7
  0
LINE
  5
305
  8
回03-記事
  6
CONTINUOUS
 62
     7
 10
122.0308724166482
 20
-2838.33219232459
 30
0.0
 11
121.230872416648
 21
-2838.33219232459
 31
0.0
  0
LINE
  5
306
  8
回03-記事
  6
CONTINUOUS
 62
     7
 10
122.0308724166482
 20
-2831.13219232459
 30
0.0
 11
122.0308724166482
 21
-2838.33219232459
 31
0.0
  0
LINE
  5
307
  8
回03-記事
  6
CONTINUOUS
 62
     7
 10
124.3889657101092
 20
-2831.13219232459
 30
0.0
 11
122.0308724166482
 21
-2831.13219232459
 31
0.0
  0
LINE
  5
308
  8
回03-記事
  6
CONTINUOUS
 62
     7
 10
124.3889657101092
 20
-2830.33219232459
 30
0.0
 11
124.3889657101092
 21
-2831.13219232459
 31
0.0
  0
LINE
  5
309
  8
回03-記事
  6
CONTINUOUS
 62
     7
 10
121.230872416648
 20
-2830.33219232459
 30
0.0
 11
124.3889657101092
 21
-2830.33219232459
 31
0.0
  0
LINE
  5
30A
  8
回03-記事
  6
CONTINUOUS
 62
     7
 10
121.230872416648
 20
-2838.33219232459
 30
0.0
 11
121.230872416648
 21
-2830.33219232459
 31
0.0
  0
INSERT
  5
30B
  8
回03-記事
  6
CONTINUOUS
 62
     0
 66
     1
  2
*X70
 10
0.0
 20
0.0
 30
0.0
1001
GRADIENTCOLOR1ACI
1070
     5
1001
GRADIENTCOLOR2ACI
1070
     2
1001
ACAD
1010
0.0
1020
0.0
1030
0.0
  0
SEQEND
  5
686
  8
回02-寸法
  6
CONTINUOUS
 62
     7
  0
POLYLINE
  5
30C
  8
回03-記事
  6
CONTINUOUS
 62
     7
 66
     1
 10
0.0
 20
0.0
 30
0.0
 70
     1
  0
VERTEX
  5
687
  8
回03-記事
  6
CONTINUOUS
 62
     7
 10
118.4308724166487
 20
-2830.33219232459
 30
0.0
  0
VERTEX
  5
689
  8
回03-記事
  6
CONTINUOUS
 62
     7
 10
119.230872416648
 20
-2830.33219232459
 30
0.0
  0
VERTEX
  5
68A
  8
回03-記事
  6
CONTINUOUS
 62
     7
 10
119.230872416648
 20
-2838.615899806832
 30
0.0
  0
VERTEX
  5
68B
  8
回03-記事
  6
CONTINUOUS
 62
     7
 10
118.4308724166487
 20
-2838.615899806832
 30
0.0
  0
SEQEND
  5
688
  8
回02-寸法
  6
CONTINUOUS
 62
     7
  0
DIMENSION
  5
30D
  8
回03-記事
  6
CONTINUOUS
 62
     7
  2
*D46
 10
120.4308724166487
 20
-2901.784706945969
 30
0.0
 11
129.248489832355
 21
-2901.784706945969
 31
0.0
 70
   160
  1
0.3{\H0.66667x;±0.03}
  3
DMC
 13
117.6308724166476
 23
-2890.332192324589
 33
0.0
 14
120.4308724166487
 24
-2890.332192324589
 34
0.0
1001
ACAD
1000
DSTYLE
1002
{
1070
    41
1040
1.5
1070
    47
1040
0.2
1070
    48
1040
0.2
1070
   141
1040
1.5
1070
   271
1070
     3
1070
   272
1070
     3
1070
   371
1070
    13
1070
   372
1070
    13
1002
}
  0
DIMENSION
  5
31E
  8
回03-記事
  6
CONTINUOUS
 62
     7
  2
*D47
 10
125.5889657101099
 20
-2896.151320348512
 30
0.0
 11
134.4065831258163
 21
-2896.151320348512
 31
0.0
 70
   160
  1
0.3{\H0.66667x;±0.03}
  3
DMC
 13
122.7889657101088
 23
-2890.332192324589
 33
0.0
 14
125.5889657101099
 24
-2890.332192324589
 34
0.0
1001
ACAD
1000
DSTYLE
1002
{
1070
    41
1040
1.5
1070
    47
1040
0.2
1070
    48
1040
0.2
1070
   141
1040
1.5
1070
   271
1070
     3
1070
   272
1070
     3
1070
   371
1070
    13
1070
   372
1070
    13
1002
}
  0
DIMENSION
  5
32F
  8
回03-記事
  6
CONTINUOUS
 62
     7
  2
*D48
 10
114.1100642266321
 20
-2890.332192324589
 30
0.0
 11
111.9600642266321
 21
-2885.33219232459
 31
0.0
 70
    32
  1
(<>)
  3
DMC
 13
117.6308724166476
 23
-2880.33219232459
 33
0.0
 14
117.6308724166476
 24
-2890.332192324589
 34
0.0
 50
90.0
1001
ACAD
1000
DSTYLE
1002
{
1070
    41
1040
1.5
1070
    47
1040
0.2
1070
    48
1040
0.2
1070
   141
1040
1.5
1070
   271
1070
     3
1070
   272
1070
     3
1070
   371
1070
    13
1070
   372
1070
    13
1002
}
  0
DIMENSION
  5
33E
  8
回03-記事
  6
CONTINUOUS
 62
     7
  2
*D49
 10
131.7850847471262
 20
-2885.33219232459
 30
0.0
 11
129.7850847471262
 21
-2887.832192324589
 31
0.0
 70
    32
  3
DMC
 13
125.5889657101099
 23
-2890.332192324589
 33
0.0
 14
126.3889657101092
 24
-2885.33219232459
 34
0.0
 50
90.0
1001
ACAD
1000
DSTYLE
1002
{
1070
    41
1040
1.5
1070
    47
1040
0.2
1070
    48
1040
0.2
1070
   141
1040
1.5
1070
   271
1070
     3
1070
   272
1070
     3
1070
   371
1070
    13
1070
   372
1070
    13
1002
}
  0
DIMENSION
  5
34D
  8
回03-記事
  6
CONTINUOUS
 62
     7
  2
*D50
 10
133.5889657101099
 20
-2697.088508077521
 30
0.0
 11
114.230872416648
 21
-2697.088508077521
 31
0.0
 70
   160
  1
{\H1.66667x;4.3}±0.2
  3
DMC
 13
94.87277912318608
 23
-2706.629664074661
 33
0.0
 14
133.5889657101099
 24
-2718.93219232459
 34
0.0
1001
ACAD
1000
DSTYLE
1002
{
1070
    41
1040
1.5
1070
    47
1040
0.2
1070
    48
1040
0.2
1070
   141
1040
1.5
1070
   271
1070
     3
1070
   272
1070
     3
1070
   371
1070
    13
1070
   372
1070
    13
1002
}
  0
POLYLINE
  5
35C
  8
回03-記事
  6
CONTINUOUS
 62
     7
 66
     1
 10
0.0
 20
0.0
 30
0.0
 40
1.1
 41
1.1
  0
VERTEX
  5
68C
  8
回03-記事
  6
CONTINUOUS
 62
     7
 10
104.8727791231861
 20
-2818.639664074661
 30
0.0
  0
VERTEX
  5
68E
  8
回03-記事
  6
CONTINUOUS
 62
     7
 10
104.8727791231861
 20
-2838.129664074661
 30
0.0
  0
SEQEND
  5
68D
  8
回02-寸法
  6
CONTINUOUS
 62
     7
  0
POLYLINE
  5
35D
  8
回03-記事
  6
CONTINUOUS
 62
     7
 66
     1
 10
0.0
 20
0.0
 30
0.0
 70
     1
  0
VERTEX
  5
68F
  8
回03-記事
  6
CONTINUOUS
 62
     7
 10
104.8727791231861
 20
-2838.629664074661
 30
0.0
  0
VERTEX
  5
691
  8
回03-記事
  6
CONTINUOUS
 62
     7
 10
94.87277912318608
 20
-2838.629664074661
 30
0.0
  0
VERTEX
  5
692
  8
回03-記事
  6
CONTINUOUS
 62
     7
 10
94.87277912318608
 20
-2706.629664074661
 30
0.0
  0
VERTEX
  5
693
  8
回03-記事
  6
CONTINUOUS
 62
     7
 10
104.8727791231861
 20
-2706.629664074661
 30
0.0
  0
SEQEND
  5
690
  8
回02-寸法
  6
CONTINUOUS
 62
     7
  0
POLYLINE
  5
35E
  8
回03-記事
  6
CONTINUOUS
 62
     7
 66
     1
 10
0.0
 20
0.0
 30
0.0
 70
     1
  0
VERTEX
  5
694
  8
回03-記事
  6
CONTINUOUS
 62
     7
 10
104.8727791231861
 20
-2830.33219232459
 30
0.0
  0
VERTEX
  5
696
  8
回03-記事
  6
CONTINUOUS
 62
     7
 10
111.230872416648
 20
-2830.33219232459
 30
0.0
  0
VERTEX
  5
697
  8
回03-記事
  6
CONTINUOUS
 62
     7
 10
111.230872416648
 20
-2718.93219232459
 30
0.0
  0
VERTEX
  5
698
  8
回03-記事
  6
CONTINUOUS
 62
     7
 10
104.8727791231861
 20
-2718.93219232459
 30
0.0
  0
SEQEND
  5
695
  8
回02-寸法
  6
CONTINUOUS
 62
     7
  0
POLYLINE
  5
35F
  8
回03-記事
  6
CONTINUOUS
 62
     7
 66
     1
 10
0.0
 20
0.0
 30
0.0
 70
     1
  0
VERTEX
  5
699
  8
回03-記事
  6
CONTINUOUS
 62
     7
 10
119.230872416648
 20
-2830.33219232459
 30
0.0
  0
VERTEX
  5
69B
  8
回03-記事
  6
CONTINUOUS
 62
     7
 10
125.5889657101099
 20
-2830.33219232459
 30
0.0
  0
VERTEX
  5
69C
  8
回03-記事
  6
CONTINUOUS
 62
     7
 10
125.5889657101099
 20
-2718.93219232459
 30
0.0
  0
VERTEX
  5
69D
  8
回03-記事
  6
CONTINUOUS
 62
     7
 10
119.230872416648
 20
-2718.93219232459
 30
0.0
  0
SEQEND
  5
69A
  8
回02-寸法
  6
CONTINUOUS
 62
     7
  0
POLYLINE
  5
360
  8
回03-記事
  6
CONTINUOUS
 62
     7
 66
     1
 10
0.0
 20
0.0
 30
0.0
 70
     1
  0
VERTEX
  5
69E
  8
回03-記事
  6
CONTINUOUS
 62
     7
 10
117.6308724166476
 20
-2880.33219232459
 30
0.0
  0
VERTEX
  5
6A0
  8
回03-記事
  6
CONTINUOUS
 62
     7
 10
119.230872416648
 20
-2880.33219232459
 30
0.0
  0
VERTEX
  5
6A1
  8
回03-記事
  6
CONTINUOUS
 62
     7
 10
119.230872416648
 20
-2890.332192324589
 30
0.0
  0
VERTEX
  5
6A2
  8
回03-記事
  6
CONTINUOUS
 62
     7
 10
117.6308724166476
 20
-2890.332192324589
 30
0.0
  0
SEQEND
  5
69F
  8
回02-寸法
  6
CONTINUOUS
 62
     7
  0
POLYLINE
  5
361
  8
回03-記事
  6
CONTINUOUS
 62
     7
 66
     1
 10
0.0
 20
0.0
 30
0.0
 70
     1
  0
VERTEX
  5
6A3
  8
回03-記事
  6
CONTINUOUS
 62
     7
 10
120.4308724166487
 20
-2830.33219232459
 30
0.0
  0
VERTEX
  5
6A5
  8
回03-記事
  6
CONTINUOUS
 62
     7
 10
121.230872416648
 20
-2830.33219232459
 30
0.0
  0
VERTEX
  5
6A6
  8
回03-記事
  6
CONTINUOUS
 62
     7
 10
121.230872416648
 20
-2885.33219232459
 30
0.0
  0
VERTEX
  5
6A7
  8
回03-記事
  6
CONTINUOUS
 62
     7
 10
120.4308724166487
 20
-2885.33219232459
 30
0.0
  0
SEQEND
  5
6A4
  8
回02-寸法
  6
CONTINUOUS
 62
     7
  0
POLYLINE
  5
362
  8
回03-記事
  6
CONTINUOUS
 62
     7
 66
     1
 10
0.0
 20
0.0
 30
0.0
 70
     1
  0
VERTEX
  5
6A8
  8
回03-記事
  6
CONTINUOUS
 62
     7
 10
119.230872416648
 20
-2827.68219232459
 30
0.0
  0
VERTEX
  5
6AA
  8
回03-記事
  6
CONTINUOUS
 62
     7
 10
120.4308724166487
 20
-2827.68219232459
 30
0.0
  0
VERTEX
  5
6AB
  8
回03-記事
  6
CONTINUOUS
 62
     7
 10
120.4308724166487
 20
-2890.332192324589
 30
0.0
  0
VERTEX
  5
6AC
  8
回03-記事
  6
CONTINUOUS
 62
     7
 10
119.230872416648
 20
-2890.332192324589
 30
0.0
  0
SEQEND
  5
6A9
  8
回02-寸法
  6
CONTINUOUS
 62
     7
  0
POLYLINE
  5
363
  8
回03-記事
  6
CONTINUOUS
 62
     7
 66
     1
 10
0.0
 20
0.0
 30
0.0
 70
     1
  0
VERTEX
  5
6AD
  8
回03-記事
  6
CONTINUOUS
 62
     7
 10
111.230872416648
 20
-2830.33219232459
 30
0.0
  0
VERTEX
  5
6AF
  8
回03-記事
  6
CONTINUOUS
 62
     7
 10
119.230872416648
 20
-2830.33219232459
 30
0.0
  0
VERTEX
  5
6B0
  8
回03-記事
  6
CONTINUOUS
 62
     7
 10
119.230872416648
 20
-2718.93219232459
 30
0.0
  0
VERTEX
  5
6B1
  8
回03-記事
  6
CONTINUOUS
 62
     7
 10
111.230872416648
 20
-2718.93219232459
 30
0.0
  0
SEQEND
  5
6AE
  8
回02-寸法
  6
CONTINUOUS
 62
     7
  0
POLYLINE
  5
364
  8
回03-記事
  6
CONTINUOUS
 62
     7
 66
     1
 10
0.0
 20
0.0
 30
0.0
 70
     1
  0
VERTEX
  5
6B2
  8
回03-記事
  6
CONTINUOUS
 62
     7
 10
122.7889657101088
 20
-2880.33219232459
 30
0.0
  0
VERTEX
  5
6B4
  8
回03-記事
  6
CONTINUOUS
 62
     7
 10
124.3889657101092
 20
-2880.33219232459
 30
0.0
  0
VERTEX
  5
6B5
  8
回03-記事
  6
CONTINUOUS
 62
     7
 10
124.3889657101092
 20
-2890.332192324589
 30
0.0
  0
VERTEX
  5
6B6
  8
回03-記事
  6
CONTINUOUS
 62
     7
 10
122.7889657101088
 20
-2890.332192324589
 30
0.0
  0
SEQEND
  5
6B3
  8
回02-寸法
  6
CONTINUOUS
 62
     7
  0
POLYLINE
  5
365
  8
回03-記事
  6
CONTINUOUS
 62
     7
 66
     1
 10
0.0
 20
0.0
 30
0.0
 70
     1
  0
VERTEX
  5
6B7
  8
回03-記事
  6
CONTINUOUS
 62
     7
 10
125.5889657101099
 20
-2830.33219232459
 30
0.0
  0
VERTEX
  5
6B9
  8
回03-記事
  6
CONTINUOUS
 62
     7
 10
126.3889657101092
 20
-2830.33219232459
 30
0.0
  0
VERTEX
  5
6BA
  8
回03-記事
  6
CONTINUOUS
 62
     7
 10
126.3889657101092
 20
-2885.33219232459
 30
0.0
  0
VERTEX
  5
6BB
  8
回03-記事
  6
CONTINUOUS
 62
     7
 10
125.5889657101099
 20
-2885.33219232459
 30
0.0
  0
SEQEND
  5
6B8
  8
回02-寸法
  6
CONTINUOUS
 62
     7
  0
POLYLINE
  5
366
  8
回03-記事
  6
CONTINUOUS
 62
     7
 66
     1
 10
0.0
 20
0.0
 30
0.0
 70
     1
  0
VERTEX
  5
6BC
  8
回03-記事
  6
CONTINUOUS
 62
     7
 10
124.3889657101092
 20
-2827.68219232459
 30
0.0
  0
VERTEX
  5
6BE
  8
回03-記事
  6
CONTINUOUS
 62
     7
 10
125.5889657101099
 20
-2827.68219232459
 30
0.0
  0
VERTEX
  5
6BF
  8
回03-記事
  6
CONTINUOUS
 62
     7
 10
125.5889657101099
 20
-2890.332192324589
 30
0.0
  0
VERTEX
  5
6C0
  8
回03-記事
  6
CONTINUOUS
 62
     7
 10
124.3889657101092
 20
-2890.332192324589
 30
0.0
  0
SEQEND
  5
6BD
  8
回02-寸法
  6
CONTINUOUS
 62
     7
  0
POLYLINE
  5
367
  8
回03-記事
  6
CONTINUOUS
 62
     7
 66
     1
 10
0.0
 20
0.0
 30
0.0
 70
     1
  0
VERTEX
  5
6C1
  8
回03-記事
  6
CONTINUOUS
 62
     7
 10
125.5889657101099
 20
-2830.33219232459
 30
0.0
  0
VERTEX
  5
6C3
  8
回03-記事
  6
CONTINUOUS
 62
     7
 10
133.5889657101099
 20
-2830.33219232459
 30
0.0
  0
VERTEX
  5
6C4
  8
回03-記事
  6
CONTINUOUS
 62
     7
 10
133.5889657101099
 20
-2718.93219232459
 30
0.0
  0
VERTEX
  5
6C5
  8
回03-記事
  6
CONTINUOUS
 62
     7
 10
125.5889657101099
 20
-2718.93219232459
 30
0.0
  0
SEQEND
  5
6C2
  8
回02-寸法
  6
CONTINUOUS
 62
     7
  0
TEXT
  5
368
  8
回03-記事
 10
-70.96550158798459
 20
-2889.380453935009
 30
0.0
 40
2.799999999999999
  1
26
  7
4MM
  0
TEXT
  5
36A
  8
回03-記事
  6
CONTINUOUS
 10
-21.21289553743304
 20
-2884.623891416675
 30
0.0
 40
2.0
  1
Contact Surface far side
  7
4MM
  0
TEXT
  5
36B
  8
回03-記事
  6
CONTINUOUS
 10
-20.80889016720653
 20
-2881.409459378708
 30
0.0
 40
2.799999999999999
  1
CN-2
  7
4MM
  0
TEXT
  5
36C
  8
回03-記事
  6
CONTINUOUS
 10
-99.32451187621769
 20
-2884.623891416675
 30
0.0
 40
2.0
  1
Contact Surface far side
  7
4MM
  0
TEXT
  5
36D
  8
回03-記事
  6
CONTINUOUS
 10
-76.53926517761715
 20
-2881.409459378708
 30
0.0
 40
2.799999999999999
  1
CN-1
  7
4MM
  0
LINE
  5
36E
  8
回90-図面枠
  6
CONTINUOUS
 62
     7
 10
265.8087030085269
 20
-2966.685560436019
 30
0.0
 11
265.8087030085269
 21
-2952.861560436019
 31
0.0
  0
POLYLINE
  5
370
  8
回90-図面枠
  6
CONTINUOUS
 62
     7
 66
     1
 10
0.0
 20
0.0
 30
0.0
 70
     1
  0
VERTEX
  5
6C6
  8
回90-図面枠
  6
CONTINUOUS
 62
     7
 10
280.5585397675756
 20
-2956.920611232384
 30
0.0
  0
VERTEX
  5
6C8
  8
回90-図面枠
  6
CONTINUOUS
 62
     7
 10
275.3634632181936
 20
-2958.243026531425
 30
0.0
  0
VERTEX
  5
6C9
  8
回90-図面枠
  6
CONTINUOUS
 62
     7
 10
275.3634632181936
 20
-2961.212732272877
 30
0.0
  0
VERTEX
  5
6CA
  8
回90-図面枠
  6
CONTINUOUS
 62
     7
 10
280.5585397675756
 20
-2962.535147571918
 30
0.0
  0
SEQEND
  5
6C7
  8
回02-寸法
  6
CONTINUOUS
 62
     7
  0
LINE
  5
371
  8
回90-図面枠
  6
CENTER2
 62
     7
 10
270.57459648287
 20
-2963.244338674165
 30
0.0
 11
270.57459648287
 21
-2956.211420130136
 31
0.0
  0
LINE
  5
373
  8
回90-図面枠
  6
CENTER2
 62
     7
 10
267.3505293289279
 20
-2959.727879402151
 30
0.0
 11
281.0189707393154
 21
-2959.727879402151
 31
0.0
  0
CIRCLE
  5
374
  8
回90-図面枠
  6
CONTINUOUS
 62
     7
 10
270.57459648287
 20
-2959.727879402151
 30
0.0
 40
1.484852870726217
  0
CIRCLE
  5
375
  8
回90-図面枠
  6
CONTINUOUS
 62
     7
 10
270.57459648287
 20
-2959.727879402151
 30
0.0
 40
2.807268169766757
  0
TEXT
  5
376
  8
回03-記事
  6
CONTINUOUS
 10
-153.9586245347176
 20
-2958.37440707847
 30
0.0
 40
1.536
  1
FPC pattern is detailed
1001
ACAD
1000
MTEXTBEGIN
1070
    73
1070
     1
1070
    44
1040
1.0
1070
    74
1070
     0
1000
MTEXTEND
  0
POLYLINE
  5
377
  8
回03-記事
  6
CONTINUOUS
 66
     1
 10
0.0
 20
0.0
 30
0.0
 70
     1
  0
VERTEX
  5
6CB
  8
回03-記事
  6
CONTINUOUS
 10
-158.2488681443856
 20
-2960.043605272936
 30
0.0
  0
VERTEX
  5
6CD
  8
回03-記事
  6
CONTINUOUS
 10
-158.2488681443856
 20
-2918.046259500961
 30
0.0
  0
VERTEX
  5
6CE
  8
回03-記事
  6
CONTINUOUS
 10
-129.0814510638081
 20
-2918.046259500961
 30
0.0
  0
VERTEX
  5
6CF
  8
回03-記事
  6
CONTINUOUS
 10
-129.0814510638081
 20
-2960.043605272936
 30
0.0
  0
SEQEND
  5
6CC
  8
回02-寸法
  6
CONTINUOUS
 62
     7
  0
DIMENSION
  5
378
  8
回03-記事
  6
CONTINUOUS
  2
*D51
 10
-147.402150901843
 20
-2951.65488841179
 30
0.0
 11
-154.0654640385612
 21
-2951.65488841179
 31
0.0
 70
   160
  1
0.5
  3
KOUSA
 13
-145.9621509018427
 23
-2942.061445147
 33
0.0
 14
-147.402150901843
 24
-2942.061445147
 34
0.0
 50
180.0
1001
ACAD
1000
DSTYLE
1002
{
1070
    71
1070
     0
1070
    78
1070
     9
1070
    79
1070
     2
1070
   285
1070
     8
1070
   288
1070
     0
1070
   341
1005
0
1002
}
  0
DIMENSION
  5
38A
  8
回03-記事
  6
CONTINUOUS
  2
*D52
 10
-147.8341509018428
 20
-2945.04110388123
 30
0.0
 11
-154.497464038561
 21
-2945.04110388123
 31
0.0
 70
   160
  1
0.3
  3
KOUSA
 13
-146.970150901843
 23
-2942.061445147
 33
0.0
 14
-147.8341509018428
 24
-2941.99511759704
 34
0.0
 50
180.0
1001
ACAD
1000
DSTYLE
1002
{
1070
    71
1070
     0
1070
    78
1070
     9
1070
    79
1070
     2
1070
   285
1070
     8
1070
   288
1070
     0
1070
   341
1005
0
1002
}
  0
LINE
  5
39B
  8
回03-記事
  6
CENTER2
 10
-145.9621509018427
 20
-2943.679722164183
 30
0.0
 11
-145.9621509018427
 21
-2937.386091586278
 31
0.0
  0
LINE
  5
39C
  8
回03-記事
  6
CENTER2
 10
-147.8341509018428
 20
-2943.679722164183
 30
0.0
 11
-147.8341509018428
 21
-2938.004143199522
 31
0.0
  0
LINE
  5
39D
  8
回03-記事
  6
CENTER2
 10
-146.970150901843
 20
-2943.679722164183
 30
0.0
 11
-146.970150901843
 21
-2937.961400527628
 31
0.0
  0
LINE
  5
39E
  8
回03-記事
  6
CENTER2
 10
-147.4021509018425
 20
-2943.679722164183
 30
0.0
 11
-147.4021509018425
 21
-2937.386091586278
 31
0.0
  0
LINE
  5
39F
  8
回03-記事
  6
CONTINUOUS
 10
-148.8421509018426
 20
-2927.661445146999
 30
0.0
 11
-134.6620820375858
 21
-2927.661445146999
 31
0.0
  0
ARC
  5
3A0
  8
回03-記事
  6
CONTINUOUS
 10
-147.4021509018425
 20
-2940.621445146999
 30
0.0
 40
1.439999999999999
 50
180.0
 51
270.0
  0
LINE
  5
3A1
  8
回03-記事
  6
CONTINUOUS
 10
-147.4021509018425
 20
-2942.061445147
 30
0.0
 11
-134.6620820375858
 21
-2942.061445147
 31
0.0
  0
LINE
  5
3A2
  8
回03-記事
  6
CONTINUOUS
 10
-148.8421509018426
 20
-2940.621445146999
 30
0.0
 11
-148.8421509018426
 21
-2919.346234205802
 31
0.0
  0
POLYLINE
  5
3A3
  8
回03-記事
  6
CONTINUOUS
 66
     1
 10
0.0
 20
0.0
 30
0.0
 40
0.8639999999999998
 41
0.8639999999999998
  0
VERTEX
  5
6D0
  8
回03-記事
  6
CONTINUOUS
 10
-147.4021509018425
 20
-2942.061445147
 30
0.0
  0
VERTEX
  5
6D2
  8
回03-記事
  6
CONTINUOUS
 10
-147.4021509018425
 20
-2927.661445146999
 30
0.0
  0
SEQEND
  5
6D1
  8
回02-寸法
  6
CONTINUOUS
 62
     7
  0
POLYLINE
  5
3A4
  8
回03-記事
  6
CONTINUOUS
 66
     1
 10
0.0
 20
0.0
 30
0.0
 40
0.8639999999999998
 41
0.8639999999999998
  0
VERTEX
  5
6D3
  8
回03-記事
  6
CONTINUOUS
 10
-145.9621509018427
 20
-2942.061445147
 30
0.0
  0
VERTEX
  5
6D5
  8
回03-記事
  6
CONTINUOUS
 10
-145.9621509018427
 20
-2927.661445146999
 30
0.0
  0
SEQEND
  5
6D4
  8
回02-寸法
  6
CONTINUOUS
 62
     7
  0
POLYLINE
  5
3A5
  8
回03-記事
  6
CONTINUOUS
 66
     1
 10
0.0
 20
0.0
 30
0.0
 40
0.8639999999999998
 41
0.8639999999999998
  0
VERTEX
  5
6D6
  8
回03-記事
  6
CONTINUOUS
 10
-144.5221509018427
 20
-2942.061445147
 30
0.0
  0
VERTEX
  5
6D8
  8
回03-記事
  6
CONTINUOUS
 10
-144.5221509018427
 20
-2927.661445147
 30
0.0
  0
SEQEND
  5
6D7
  8
回02-寸法
  6
CONTINUOUS
 62
     7
  0
POLYLINE
  5
3A6
  8
回03-記事
  6
CONTINUOUS
 66
     1
 10
0.0
 20
0.0
 30
0.0
 40
0.8639999999999998
 41
0.8639999999999998
  0
VERTEX
  5
6D9
  8
回03-記事
  6
CONTINUOUS
 10
-143.0821509018424
 20
-2942.061445147
 30
0.0
  0
VERTEX
  5
6DB
  8
回03-記事
  6
CONTINUOUS
 10
-143.0821509018424
 20
-2927.661445147
 30
0.0
  0
SEQEND
  5
6DA
  8
回02-寸法
  6
CONTINUOUS
 62
     7
  0
POLYLINE
  5
3A7
  8
回03-記事
  6
CONTINUOUS
 66
     1
 10
0.0
 20
0.0
 30
0.0
 40
0.8639999999999998
 41
0.8639999999999998
  0
VERTEX
  5
6DC
  8
回03-記事
  6
CONTINUOUS
 10
-141.6421509018428
 20
-2942.061445147
 30
0.0
  0
VERTEX
  5
6DE
  8
回03-記事
  6
CONTINUOUS
 10
-141.6421509018428
 20
-2927.661445147
 30
0.0
  0
SEQEND
  5
6DD
  8
回02-寸法
  6
CONTINUOUS
 62
     7
  0
POLYLINE
  5
3A8
  8
回03-記事
  6
CONTINUOUS
 66
     1
 10
0.0
 20
0.0
 30
0.0
 40
0.8639999999999998
 41
0.8639999999999998
  0
VERTEX
  5
6DF
  8
回03-記事
  6
CONTINUOUS
 10
-140.2021509018425
 20
-2942.061445147
 30
0.0
  0
VERTEX
  5
6E1
  8
回03-記事
  6
CONTINUOUS
 10
-140.2021509018425
 20
-2927.661445147
 30
0.0
  0
SEQEND
  5
6E0
  8
回02-寸法
  6
CONTINUOUS
 62
     7
  0
POLYLINE
  5
3A9
  8
回03-記事
  6
CONTINUOUS
 66
     1
 10
0.0
 20
0.0
 30
0.0
 40
0.8639999999999998
 41
0.8639999999999998
  0
VERTEX
  5
6E2
  8
回03-記事
  6
CONTINUOUS
 10
-138.7621509018427
 20
-2942.061445147
 30
0.0
  0
VERTEX
  5
6E4
  8
回03-記事
  6
CONTINUOUS
 10
-138.7621509018427
 20
-2927.661445147
 30
0.0
  0
SEQEND
  5
6E3
  8
回02-寸法
  6
CONTINUOUS
 62
     7
  0
POLYLINE
  5
3AA
  8
回03-記事
  6
CONTINUOUS
 66
     1
 10
0.0
 20
0.0
 30
0.0
 40
0.8639999999999998
 41
0.8639999999999998
  0
VERTEX
  5
6E5
  8
回03-記事
  6
CONTINUOUS
 10
-135.8821509018426
 20
-2942.061445147
 30
0.0
  0
VERTEX
  5
6E7
  8
回03-記事
  6
CONTINUOUS
 10
-135.8821509018426
 20
-2927.661445147
 30
0.0
  0
SEQEND
  5
6E6
  8
回02-寸法
  6
CONTINUOUS
 62
     7
  0
POLYLINE
  5
3AB
  8
回03-記事
  6
CONTINUOUS
 66
     1
 10
0.0
 20
0.0
 30
0.0
 40
0.8639999999999998
 41
0.8639999999999998
  0
VERTEX
  5
6E8
  8
回03-記事
  6
CONTINUOUS
 10
-137.3221509018426
 20
-2942.061445147
 30
0.0
  0
VERTEX
  5
6EA
  8
回03-記事
  6
CONTINUOUS
 10
-137.3221509018426
 20
-2927.661445147
 30
0.0
  0
SEQEND
  5
6E9
  8
回02-寸法
  6
CONTINUOUS
 62
     7
  0
LINE
  5
3AC
  8
回90-図面枠
  6
PHANTOM2
 10
153.9551870722073
 20
-2939.03756043602
 30
0.0
 11
282.9791870722074
 21
-2939.03756043602
 31
0.0
  0
TEXT
  5
3AE
  8
回03-記事
  6
CONTINUOUS
 62
     5
 10
91.88197662415792
 20
-2953.708349519752
 30
0.0
 40
3.2
  1
EXCEPT WHERE INDICATED
  0
TEXT
  5
3AF
  8
回03-記事
  6
CONTINUOUS
 62
     5
 10
91.91099426373989
 20
-2959.617238385748
 30
0.0
 40
3.2
  1
UNIT=mm
  0
TEXT
  5
3B0
  8
回03-記事
  6
CONTINUOUS
 62
     5
 10
91.53338117436829
 20
-2947.606202245736
 30
0.0
 40
3.2
  1
TOLERANCE=±0.3mm
  0
TEXT
  5
3B1
  8
回90-図面枠
 10
233.4888085503928
 20
-2950.32716043602
 30
0.0
 40
4.1472
  1
Aug/5/2022
 72
     1
 11
248.4191870722073
 21
-2948.253560436019
 31
0.0
 73
     2
  0
TEXT
  5
3B2
  8
回90-図面枠
 10
243.2582270722073
 20
-2942.954360436019
 30
0.0
 40
3.2256
  1
DATE
 72
     1
 11
248.4191870722073
 21
-2941.341560436019
 31
0.0
 73
     2
  0
LINE
  5
3B3
  8
回90-図面枠
  6
CONTINUOUS
 10
153.9551870722073
 20
-2939.03756043602
 30
0.0
 11
282.9791870722074
 21
-2939.03756043602
 31
0.0
  0
TEXT
  5
3B4
  8
回90-図面枠
 10
221.5495264556565
 20
-2962.07756043602
 30
0.0
 40
4.608
  1
DMC Co., Ltd.
 72
     1
 11
239.8663264556565
 21
-2959.773560436019
 31
0.0
 73
     2
  0
LINE
  5
3B5
  8
回90-図面枠
 10
213.8591870722073
 20
-2939.03756043602
 30
0.0
 11
213.8591870722073
 21
-2966.685560436019
 31
0.0
  0
TEXT
  5
3B6
  8
回90-図面枠
 10
166.6271870722073
 20
-2961.155960436019
 30
0.0
 40
2.764800000000001
  1
Projected Capacitive
 72
     1
 11
183.9071870722073
 21
-2959.773560436019
 31
0.0
 73
     2
  0
LINE
  5
3B7
  8
回90-図面枠
 10
153.9551870722073
 20
-2939.03756043602
 30
0.0
 11
153.9551870722073
 21
-2966.685560436019
 31
0.0
  0
TEXT
  5
3B8
  8
回90-図面枠
 10
179.4835070722073
 20
-2956.547960436019
 30
0.0
 40
2.764800000000001
  1
TYPE
 72
     1
 11
183.9071870722073
 21
-2955.165560436019
 31
0.0
 73
     2
  0
LINE
  5
3B9
  8
回90-図面枠
 10
156.719987072207
 20
-2962.07756043602
 30
0.0
 11
211.0943870722076
 21
-2962.07756043602
 31
0.0
  0
TEXT
  5
3BA
  8
回90-図面枠
 10
164.6918270722073
 20
-2965.763960436019
 30
0.0
 40
2.764800000000001
  1
DIMENSIONAL DRAWING
 72
     1
 11
183.9071870722073
 21
-2964.381560436019
 31
0.0
 73
     2
  0
TEXT
  5
3BB
  8
回90-図面枠
 10
156.2201294628261
 20
-2950.265441558162
 30
0.0
 40
4.1472
  1
DUS-LA070WB060A2A
 72
     1
 11
183.7990094628261
 21
-2948.191841558162
 31
0.0
 73
     2
  0
TEXT
  5
3BC
  8
回90-図面枠
 10
174.7142270722073
 20
-2942.954360436019
 30
0.0
 40
3.2256
  1
PART No.
 72
     1
 11
183.9071870722073
 21
-2941.341560436019
 31
0.0
 73
     2
  0
LINE
  5
3BD
  8
回90-図面枠
 10
153.9551870722073
 20
-2952.861560436019
 30
0.0
 11
282.9791870722074
 21
-2952.861560436019
 31
0.0
  0
LINE
  5
3BE
  8
回90-図面枠
 10
153.9551870722073
 20
-2957.469560436019
 30
0.0
 11
213.8591870722073
 21
-2957.469560436019
 31
0.0
  0
LINE
  5
3BF
  8
回90-図面枠
 10
153.9551870722073
 20
-2943.645560436019
 30
0.0
 11
282.9791870722074
 21
-2943.645560436019
 31
0.0
  0
TEXT
  5
3C0
  8
回90-図面枠
 10
253.9626953167294
 20
-2658.387621935178
 30
0.0
 40
3.2
  1
H
  0
LINE
  5
3C1
  8
回90-図面枠
 10
226.9791870722074
 20
-2654.685560436019
 30
0.0
 11
226.9791870722074
 21
-2658.68556043602
 31
0.0
  0
LINE
  5
3C2
  8
回90-図面枠
 10
170.9791870722074
 20
-2654.685560436019
 30
0.0
 11
170.9791870722074
 21
-2658.68556043602
 31
0.0
  0
TEXT
  5
3C3
  8
回90-図面枠
 10
141.9626953167294
 20
-2658.387621935178
 30
0.0
 40
3.2
  1
F
  0
LINE
  5
3C4
  8
回90-図面枠
 10
114.9791870722074
 20
-2654.685560436019
 30
0.0
 11
114.9791870722074
 21
-2658.68556043602
 31
0.0
  0
TEXT
  5
3C5
  8
回90-図面枠
 10
85.96269531672943
 20
-2658.387621935178
 30
0.0
 40
3.2
  1
E
  0
TEXT
  5
3C6
  8
回90-図面枠
 10
197.9626953167294
 20
-2658.387621935178
 30
0.0
 40
3.2
  1
G
  0
LINE
  5
3C7
  8
回90-図面枠
 10
58.97918707220743
 20
-2654.685560436019
 30
0.0
 11
58.97918707220743
 21
-2658.68556043602
 31
0.0
  0
TEXT
  5
3C8
  8
回90-図面枠
 10
29.96269531672942
 20
-2658.387621935178
 30
0.0
 40
3.2
  1
D
  0
LINE
  5
3C9
  8
回90-図面枠
 10
2.979187072207423
 20
-2654.685560436019
 30
0.0
 11
2.979187072207423
 21
-2658.68556043602
 31
0.0
  0
TEXT
  5
3CA
  8
回90-図面枠
 10
-26.03730468327058
 20
-2658.387621935178
 30
0.0
 40
3.2
  1
C
  0
LINE
  5
3CB
  8
回90-図面枠
 10
-53.02081292779257
 20
-2654.685560436019
 30
0.0
 11
-53.02081292779257
 21
-2658.68556043602
 31
0.0
  0
TEXT
  5
3CC
  8
回90-図面枠
 10
-82.03730468327057
 20
-2658.387621935178
 30
0.0
 40
3.2
  1
B
  0
LINE
  5
3CD
  8
回90-図面枠
 10
-109.0208129277925
 20
-2654.685560436019
 30
0.0
 11
-109.0208129277925
 21
-2658.68556043602
 31
0.0
  0
TEXT
  5
3CE
  8
回90-図面枠
 10
-138.0373046832706
 20
-2658.387621935178
 30
0.0
 40
3.2
  1
A
  0
LINE
  5
3CF
  8
回90-図面枠
 10
286.9791870722074
 20
-2654.685560436019
 30
0.0
 11
-169.0208129277926
 21
-2654.685560436019
 31
0.0
  0
LINE
  5
3D0
  8
回90-図面枠
 10
-165.0208129277926
 20
-2658.68556043602
 30
0.0
 11
282.9791870722074
 21
-2658.68556043602
 31
0.0
  0
TEXT
  5
3D1
  8
回90-図面枠
 10
284.1027238751347
 20
-2691.254610599332
 30
0.0
 40
3.2
  1
1
  0
LINE
  5
3D2
  8
回90-図面枠
 10
286.9791870722074
 20
-2720.28556043602
 30
0.0
 11
282.9791870722074
 21
-2720.28556043602
 31
0.0
  0
TEXT
  5
3D3
  8
回90-図面枠
 10
283.861524912493
 20
-2752.854610599333
 30
0.0
 40
3.2
  1
2
  0
LINE
  5
3D4
  8
回90-図面枠
 10
286.9791870722074
 20
-2781.885560436019
 30
0.0
 11
282.9791870722074
 21
-2781.885560436019
 31
0.0
  0
TEXT
  5
3D5
  8
回90-図面枠
 10
283.8571402371329
 20
-2814.454610599332
 30
0.0
 40
3.2
  1
3
  0
LINE
  5
3D6
  8
回90-図面枠
 10
286.9791870722074
 20
-2843.48556043602
 30
0.0
 11
282.9791870722074
 21
-2843.48556043602
 31
0.0
  0
TEXT
  5
3D7
  8
回90-図面枠
 10
283.7986665410681
 20
-2876.054610599332
 30
0.0
 40
3.2
  1
4
  0
TEXT
  5
3D8
  8
回90-図面枠
 10
-167.8972761248653
 20
-2691.254610599332
 30
0.0
 40
3.2
  1
1
  0
LINE
  5
3D9
  8
回90-図面枠
 10
-165.0208129277926
 20
-2720.28556043602
 30
0.0
 11
-169.0208129277926
 21
-2720.28556043602
 31
0.0
  0
TEXT
  5
3DA
  8
回90-図面枠
 10
-168.138475087507
 20
-2752.854610599333
 30
0.0
 40
3.2
  1
2
  0
LINE
  5
3DB
  8
回90-図面枠
 10
-165.0208129277926
 20
-2781.885560436019
 30
0.0
 11
-169.0208129277926
 21
-2781.885560436019
 31
0.0
  0
TEXT
  5
3DC
  8
回90-図面枠
 10
-168.1428597628671
 20
-2814.454610599332
 30
0.0
 40
3.2
  1
3
  0
LINE
  5
3DD
  8
回90-図面枠
 10
-165.0208129277926
 20
-2843.48556043602
 30
0.0
 11
-169.0208129277926
 21
-2843.48556043602
 31
0.0
  0
TEXT
  5
3DE
  8
回90-図面枠
 10
-168.2013334589319
 20
-2876.054610599332
 30
0.0
 40
3.2
  1
4
  0
LINE
  5
3DF
  8
回90-図面枠
 10
286.9791870722074
 20
-2905.085560436019
 30
0.0
 11
282.9791870722074
 21
-2905.085560436019
 31
0.0
  0
TEXT
  5
3E0
  8
回90-図面枠
 10
283.7986665410681
 20
-2937.654610599332
 30
0.0
 40
3.2
  1
5
  0
TEXT
  5
3E1
  8
回90-図面枠
 10
253.9626953167294
 20
-2970.387621935179
 30
0.0
 40
3.2
  1
H
  0
LINE
  5
3E2
  8
回90-図面枠
 10
226.9791870722074
 20
-2966.685560436019
 30
0.0
 11
226.9791870722074
 21
-2970.685560436019
 31
0.0
  0
LINE
  5
3E3
  8
回90-図面枠
 10
170.9791870722074
 20
-2966.685560436019
 30
0.0
 11
170.9791870722074
 21
-2970.685560436019
 31
0.0
  0
TEXT
  5
3E4
  8
回90-図面枠
 10
141.9626953167294
 20
-2970.387621935179
 30
0.0
 40
3.2
  1
F
  0
LINE
  5
3E5
  8
回90-図面枠
 10
114.9791870722074
 20
-2966.685560436019
 30
0.0
 11
114.9791870722074
 21
-2970.685560436019
 31
0.0
  0
TEXT
  5
3E6
  8
回90-図面枠
 10
85.96269531672943
 20
-2970.387621935179
 30
0.0
 40
3.2
  1
E
  0
TEXT
  5
3E7
  8
回90-図面枠
 10
197.9626953167294
 20
-2970.387621935179
 30
0.0
 40
3.2
  1
G
  0
LINE
  5
3E8
  8
回90-図面枠
 10
58.97918707220743
 20
-2966.685560436019
 30
0.0
 11
58.97918707220743
 21
-2970.685560436019
 31
0.0
  0
TEXT
  5
3E9
  8
回90-図面枠
 10
29.96269531672942
 20
-2970.387621935179
 30
0.0
 40
3.2
  1
D
  0
LINE
  5
3EA
  8
回90-図面枠
 10
2.979187072207423
 20
-2966.685560436019
 30
0.0
 11
2.979187072207423
 21
-2970.685560436019
 31
0.0
  0
TEXT
  5
3EB
  8
回90-図面枠
 10
-26.03730468327058
 20
-2970.387621935179
 30
0.0
 40
3.2
  1
C
  0
LINE
  5
3EC
  8
回90-図面枠
 10
-53.02081292779257
 20
-2966.685560436019
 30
0.0
 11
-53.02081292779257
 21
-2970.685560436019
 31
0.0
  0
LINE
  5
3ED
  8
回90-図面枠
 10
-165.0208129277926
 20
-2905.085560436019
 30
0.0
 11
-169.0208129277926
 21
-2905.085560436019
 31
0.0
  0
TEXT
  5
3EE
  8
回90-図面枠
 10
-168.2013334589319
 20
-2937.654610599332
 30
0.0
 40
3.2
  1
5
  0
TEXT
  5
3EF
  8
回90-図面枠
 10
-82.03730468327057
 20
-2970.387621935179
 30
0.0
 40
3.2
  1
B
  0
LINE
  5
3F0
  8
回90-図面枠
 10
-109.0208129277925
 20
-2966.685560436019
 30
0.0
 11
-109.0208129277925
 21
-2970.685560436019
 31
0.0
  0
TEXT
  5
3F1
  8
回90-図面枠
 10
-138.0373046832706
 20
-2970.387621935179
 30
0.0
 40
3.2
  1
A
  0
LINE
  5
3F2
  8
回90-図面枠
 10
-165.0208129277926
 20
-2966.685560436019
 30
0.0
 11
282.9791870722074
 21
-2966.685560436019
 31
0.0
  0
LINE
  5
3F3
  8
回90-図面枠
 10
286.9791870722074
 20
-2970.685560436019
 30
0.0
 11
-169.0208129277926
 21
-2970.685560436019
 31
0.0
  0
LINE
  5
3F4
  8
回90-図面枠
 10
286.9791870722074
 20
-2970.685560436019
 30
0.0
 11
286.9791870722074
 21
-2654.685560436019
 31
0.0
  0
LINE
  5
3F5
  8
回90-図面枠
 10
282.9791870722074
 20
-2658.68556043602
 30
0.0
 11
282.9791870722074
 21
-2966.685560436019
 31
0.0
  0
LINE
  5
3F6
  8
回90-図面枠
 10
-169.0208129277926
 20
-2970.685560436019
 30
0.0
 11
-169.0208129277926
 21
-2654.685560436019
 31
0.0
  0
LINE
  5
3F7
  8
回90-図面枠
 10
-165.0208129277926
 20
-2658.68556043602
 30
0.0
 11
-165.0208129277926
 21
-2966.685560436019
 31
0.0
  0
TEXT
  5
3F8
  8
回02-寸法
 62
     7
 10
-47.90660931989509
 20
-2889.360409870788
 30
0.0
 40
2.799999999999999
  1
40
  7
4MM
  0
TEXT
  5
3F9
  8
回02-寸法
 62
     7
 10
-22.0753168450301
 20
-2889.206347698225
 30
0.0
 40
2.799999999999999
  1
1
  7
4MM
  0
TEXT
  5
3FA
  8
回02-寸法
 62
     7
 10
-52.46269733174518
 20
-2889.105626412335
 30
0.0
 40
2.799999999999999
  1
1
  7
4MM
  0
POLYLINE
  5
3FB
  8
回00-TP外形
  6
CONTINUOUS
 62
     7
 66
     1
 10
0.0
 20
0.0
 30
0.0
 70
     1
  0
VERTEX
  5
6EB
  8
回00-TP外形
  6
CONTINUOUS
 62
     7
 10
-22.75812319971192
 20
-2890.332192324589
 30
0.0
 42
0.4142135623730951
  0
VERTEX
  5
6ED
  8
回00-TP外形
  6
CONTINUOUS
 62
     7
 10
-22.5581231997121
 20
-2890.132192324589
 30
0.0
  0
VERTEX
  5
6EE
  8
回00-TP外形
  6
CONTINUOUS
 62
     7
 10
-22.5581231997121
 20
-2827.88219232459
 30
0.0
 42
0.4142135623730951
  0
VERTEX
  5
6EF
  8
回00-TP外形
  6
CONTINUOUS
 62
     7
 10
-22.75812319971283
 20
-2827.682192324591
 30
0.0
  0
VERTEX
  5
6F0
  8
回00-TP外形
  6
CONTINUOUS
 62
     7
 10
-42.85812319971296
 20
-2827.682192324591
 30
0.0
 42
0.4142135623730951
  0
VERTEX
  5
6F1
  8
回00-TP外形
  6
CONTINUOUS
 62
     7
 10
-43.05812319971323
 20
-2827.88219232459
 30
0.0
  0
VERTEX
  5
6F2
  8
回00-TP外形
  6
CONTINUOUS
 62
     7
 10
-43.05812319971323
 20
-2890.132192324589
 30
0.0
 42
0.4142135623730951
  0
VERTEX
  5
6F3
  8
回00-TP外形
  6
CONTINUOUS
 62
     7
 10
-42.85812319971296
 20
-2890.332192324589
 30
0.0
  0
SEQEND
  5
6EC
  8
回02-寸法
  6
CONTINUOUS
 62
     7
  0
POLYLINE
  5
3FF
  8
回00-TP外形
  6
CONTINUOUS
 62
     7
 66
     1
 10
0.0
 20
0.0
 30
0.0
 70
     1
  0
VERTEX
  5
6F4
  8
回00-TP外形
  6
CONTINUOUS
 62
     7
 10
-66.55810625521076
 20
-2827.88219232459
 30
0.0
 42
-0.4142135623730951
  0
VERTEX
  5
6F6
  8
回00-TP外形
  6
CONTINUOUS
 62
     7
 10
-66.35810625521094
 20
-2827.68219232459
 30
0.0
  0
VERTEX
  5
6F7
  8
回00-TP外形
  6
CONTINUOUS
 62
     7
 10
-53.25810625521012
 20
-2827.68219232459
 30
0.0
 42
-0.4142135623730951
  0
VERTEX
  5
6F8
  8
回00-TP外形
  6
CONTINUOUS
 62
     7
 10
-53.05810625520985
 20
-2827.88219232459
 30
0.0
  0
VERTEX
  5
6F9
  8
回00-TP外形
  6
CONTINUOUS
 62
     7
 10
-53.05810625520985
 20
-2890.132192324589
 30
0.0
 42
-0.4142135623730951
  0
VERTEX
  5
6FA
  8
回00-TP外形
  6
CONTINUOUS
 62
     7
 10
-53.25810625521012
 20
-2890.332192324589
 30
0.0
  0
VERTEX
  5
6FB
  8
回00-TP外形
  6
CONTINUOUS
 62
     7
 10
-66.35810625521094
 20
-2890.332192324589
 30
0.0
 42
-0.4142135623730951
  0
VERTEX
  5
6FC
  8
回00-TP外形
  6
CONTINUOUS
 62
     7
 10
-66.55810625521121
 20
-2890.132192324589
 30
0.0
  0
SEQEND
  5
6F5
  8
回02-寸法
  6
CONTINUOUS
 62
     7
  0
POLYLINE
  5
400
  8
回00-TP外形
  6
CONTINUOUS
 62
     7
 66
     1
 10
0.0
 20
0.0
 30
0.0
 70
     1
  0
VERTEX
  5
6FD
  8
回00-TP外形
  6
CONTINUOUS
 62
     7
 10
46.15119983538988
 20
-2820.794664074661
 30
0.0
  0
VERTEX
  5
6FF
  8
回00-TP外形
  6
CONTINUOUS
 62
     7
 10
49.15119983538989
 20
-2820.794664074661
 30
0.0
  0
VERTEX
  5
700
  8
回00-TP外形
  6
CONTINUOUS
 62
     7
 10
49.15119983538989
 20
-2821.794664074661
 30
0.0
  0
VERTEX
  5
701
  8
回00-TP外形
  6
CONTINUOUS
 62
     7
 10
46.15119983538988
 20
-2821.794664074661
 30
0.0
  0
SEQEND
  5
6FE
  8
回02-寸法
  6
CONTINUOUS
 62
     7
  0
POLYLINE
  5
401
  8
回00-TP外形
  6
CONTINUOUS
 62
     7
 66
     1
 10
0.0
 20
0.0
 30
0.0
 70
     1
  0
VERTEX
  5
702
  8
回00-TP外形
  6
CONTINUOUS
 62
     7
 10
40.29119983539021
 20
-2820.794664074661
 30
0.0
  0
VERTEX
  5
704
  8
回00-TP外形
  6
CONTINUOUS
 62
     7
 10
43.29119983539022
 20
-2820.794664074661
 30
0.0
  0
VERTEX
  5
705
  8
回00-TP外形
  6
CONTINUOUS
 62
     7
 10
43.29119983539022
 20
-2821.794664074661
 30
0.0
  0
VERTEX
  5
706
  8
回00-TP外形
  6
CONTINUOUS
 62
     7
 10
40.29119983539021
 20
-2821.794664074661
 30
0.0
  0
SEQEND
  5
703
  8
回02-寸法
  6
CONTINUOUS
 62
     7
  0
POLYLINE
  5
402
  8
回00-TP外形
  6
CONTINUOUS
 62
     7
 66
     1
 10
0.0
 20
0.0
 30
0.0
 70
     1
  0
VERTEX
  5
707
  8
回00-TP外形
  6
CONTINUOUS
 62
     7
 10
34.43119983539054
 20
-2820.794664074661
 30
0.0
  0
VERTEX
  5
709
  8
回00-TP外形
  6
CONTINUOUS
 62
     7
 10
37.43119983539055
 20
-2820.794664074661
 30
0.0
  0
VERTEX
  5
70A
  8
回00-TP外形
  6
CONTINUOUS
 62
     7
 10
37.43119983539055
 20
-2821.794664074661
 30
0.0
  0
VERTEX
  5
70B
  8
回00-TP外形
  6
CONTINUOUS
 62
     7
 10
34.43119983539054
 20
-2821.794664074661
 30
0.0
  0
SEQEND
  5
708
  8
回02-寸法
  6
CONTINUOUS
 62
     7
  0
POLYLINE
  5
403
  8
回00-TP外形
  6
CONTINUOUS
 62
     7
 66
     1
 10
0.0
 20
0.0
 30
0.0
 70
     1
  0
VERTEX
  5
70C
  8
回00-TP外形
  6
CONTINUOUS
 62
     7
 10
28.57119983538996
 20
-2820.794664074661
 30
0.0
  0
VERTEX
  5
70E
  8
回00-TP外形
  6
CONTINUOUS
 62
     7
 10
31.57119983538996
 20
-2820.794664074661
 30
0.0
  0
VERTEX
  5
70F
  8
回00-TP外形
  6
CONTINUOUS
 62
     7
 10
31.57119983538996
 20
-2821.794664074661
 30
0.0
  0
VERTEX
  5
710
  8
回00-TP外形
  6
CONTINUOUS
 62
     7
 10
28.57119983538996
 20
-2821.794664074661
 30
0.0
  0
SEQEND
  5
70D
  8
回02-寸法
  6
CONTINUOUS
 62
     7
  0
POLYLINE
  5
404
  8
回00-TP外形
  6
CONTINUOUS
 62
     7
 66
     1
 10
0.0
 20
0.0
 30
0.0
 70
     1
  0
VERTEX
  5
711
  8
回00-TP外形
  6
CONTINUOUS
 62
     7
 10
22.71119983539029
 20
-2820.794664074661
 30
0.0
  0
VERTEX
  5
713
  8
回00-TP外形
  6
CONTINUOUS
 62
     7
 10
25.71119983539029
 20
-2820.794664074661
 30
0.0
  0
VERTEX
  5
714
  8
回00-TP外形
  6
CONTINUOUS
 62
     7
 10
25.71119983539029
 20
-2821.794664074661
 30
0.0
  0
VERTEX
  5
715
  8
回00-TP外形
  6
CONTINUOUS
 62
     7
 10
22.71119983539029
 20
-2821.794664074661
 30
0.0
  0
SEQEND
  5
712
  8
回02-寸法
  6
CONTINUOUS
 62
     7
  0
POLYLINE
  5
405
  8
回00-TP外形
  6
CONTINUOUS
 62
     7
 66
     1
 10
0.0
 20
0.0
 30
0.0
 70
     1
  0
VERTEX
  5
716
  8
回00-TP外形
  6
CONTINUOUS
 62
     7
 10
16.85119983539062
 20
-2820.794664074661
 30
0.0
  0
VERTEX
  5
718
  8
回00-TP外形
  6
CONTINUOUS
 62
     7
 10
19.85119983539062
 20
-2820.794664074661
 30
0.0
  0
VERTEX
  5
719
  8
回00-TP外形
  6
CONTINUOUS
 62
     7
 10
19.85119983539062
 20
-2821.794664074661
 30
0.0
  0
VERTEX
  5
71A
  8
回00-TP外形
  6
CONTINUOUS
 62
     7
 10
16.85119983539062
 20
-2821.794664074661
 30
0.0
  0
SEQEND
  5
717
  8
回02-寸法
  6
CONTINUOUS
 62
     7
  0
POLYLINE
  5
406
  8
回00-TP外形
  6
CONTINUOUS
 62
     7
 66
     1
 10
0.0
 20
0.0
 30
0.0
 70
     1
  0
VERTEX
  5
71B
  8
回00-TP外形
  6
CONTINUOUS
 62
     7
 10
10.99119983539003
 20
-2820.794664074661
 30
0.0
  0
VERTEX
  5
71D
  8
回00-TP外形
  6
CONTINUOUS
 62
     7
 10
13.99119983539003
 20
-2820.794664074661
 30
0.0
  0
VERTEX
  5
71E
  8
回00-TP外形
  6
CONTINUOUS
 62
     7
 10
13.99119983539003
 20
-2821.794664074661
 30
0.0
  0
VERTEX
  5
71F
  8
回00-TP外形
  6
CONTINUOUS
 62
     7
 10
10.99119983539003
 20
-2821.794664074661
 30
0.0
  0
SEQEND
  5
71C
  8
回02-寸法
  6
CONTINUOUS
 62
     7
  0
POLYLINE
  5
407
  8
回00-TP外形
  6
CONTINUOUS
 62
     7
 66
     1
 10
0.0
 20
0.0
 30
0.0
 70
     1
  0
VERTEX
  5
720
  8
回00-TP外形
  6
CONTINUOUS
 62
     7
 10
5.131199835390361
 20
-2820.794664074661
 30
0.0
  0
VERTEX
  5
722
  8
回00-TP外形
  6
CONTINUOUS
 62
     7
 10
8.131199835390361
 20
-2820.794664074661
 30
0.0
  0
VERTEX
  5
723
  8
回00-TP外形
  6
CONTINUOUS
 62
     7
 10
8.131199835390361
 20
-2821.794664074661
 30
0.0
  0
VERTEX
  5
724
  8
回00-TP外形
  6
CONTINUOUS
 62
     7
 10
5.131199835390361
 20
-2821.794664074661
 30
0.0
  0
SEQEND
  5
721
  8
回02-寸法
  6
CONTINUOUS
 62
     7
  0
POLYLINE
  5
408
  8
回00-TP外形
  6
CONTINUOUS
 62
     7
 66
     1
 10
0.0
 20
0.0
 30
0.0
 70
     1
  0
VERTEX
  5
725
  8
回00-TP外形
  6
CONTINUOUS
 62
     7
 10
-0.7288001646093108
 20
-2820.794664074661
 30
0.0
  0
VERTEX
  5
727
  8
回00-TP外形
  6
CONTINUOUS
 62
     7
 10
2.271199835390689
 20
-2820.794664074661
 30
0.0
  0
VERTEX
  5
728
  8
回00-TP外形
  6
CONTINUOUS
 62
     7
 10
2.271199835390689
 20
-2821.794664074661
 30
0.0
  0
VERTEX
  5
729
  8
回00-TP外形
  6
CONTINUOUS
 62
     7
 10
-0.7288001646093108
 20
-2821.794664074661
 30
0.0
  0
SEQEND
  5
726
  8
回02-寸法
  6
CONTINUOUS
 62
     7
  0
POLYLINE
  5
409
  8
回00-TP外形
  6
CONTINUOUS
 62
     7
 66
     1
 10
0.0
 20
0.0
 30
0.0
 70
     1
  0
VERTEX
  5
72A
  8
回00-TP外形
  6
CONTINUOUS
 62
     7
 10
-6.588800164609892
 20
-2820.794664074661
 30
0.0
  0
VERTEX
  5
72C
  8
回00-TP外形
  6
CONTINUOUS
 62
     7
 10
-3.588800164609892
 20
-2820.794664074661
 30
0.0
  0
VERTEX
  5
72D
  8
回00-TP外形
  6
CONTINUOUS
 62
     7
 10
-3.588800164609892
 20
-2821.794664074661
 30
0.0
  0
VERTEX
  5
72E
  8
回00-TP外形
  6
CONTINUOUS
 62
     7
 10
-6.588800164609892
 20
-2821.794664074661
 30
0.0
  0
SEQEND
  5
72B
  8
回02-寸法
  6
CONTINUOUS
 62
     7
  0
POLYLINE
  5
40A
  8
回00-TP外形
  6
CONTINUOUS
 62
     7
 66
     1
 10
0.0
 20
0.0
 30
0.0
 70
     1
  0
VERTEX
  5
72F
  8
回00-TP外形
  6
CONTINUOUS
 62
     7
 10
-12.44880016460956
 20
-2820.794664074661
 30
0.0
  0
VERTEX
  5
731
  8
回00-TP外形
  6
CONTINUOUS
 62
     7
 10
-9.448800164609565
 20
-2820.794664074661
 30
0.0
  0
VERTEX
  5
732
  8
回00-TP外形
  6
CONTINUOUS
 62
     7
 10
-9.448800164609565
 20
-2821.794664074661
 30
0.0
  0
VERTEX
  5
733
  8
回00-TP外形
  6
CONTINUOUS
 62
     7
 10
-12.44880016460956
 20
-2821.794664074661
 30
0.0
  0
SEQEND
  5
730
  8
回02-寸法
  6
CONTINUOUS
 62
     7
  0
POLYLINE
  5
40B
  8
回00-TP外形
  6
CONTINUOUS
 62
     7
 66
     1
 10
0.0
 20
0.0
 30
0.0
 70
     1
  0
VERTEX
  5
734
  8
回00-TP外形
  6
CONTINUOUS
 62
     7
 10
-18.30880016460923
 20
-2820.794664074661
 30
0.0
  0
VERTEX
  5
736
  8
回00-TP外形
  6
CONTINUOUS
 62
     7
 10
-15.30880016460924
 20
-2820.794664074661
 30
0.0
  0
VERTEX
  5
737
  8
回00-TP外形
  6
CONTINUOUS
 62
     7
 10
-15.30880016460924
 20
-2821.794664074661
 30
0.0
  0
VERTEX
  5
738
  8
回00-TP外形
  6
CONTINUOUS
 62
     7
 10
-18.30880016460923
 20
-2821.794664074661
 30
0.0
  0
SEQEND
  5
735
  8
回02-寸法
  6
CONTINUOUS
 62
     7
  0
POLYLINE
  5
40C
  8
回00-TP外形
  6
CONTINUOUS
 62
     7
 66
     1
 10
0.0
 20
0.0
 30
0.0
 70
     1
  0
VERTEX
  5
739
  8
回00-TP外形
  6
CONTINUOUS
 62
     7
 10
-24.16880016460982
 20
-2820.794664074661
 30
0.0
  0
VERTEX
  5
73B
  8
回00-TP外形
  6
CONTINUOUS
 62
     7
 10
-21.16880016460982
 20
-2820.794664074661
 30
0.0
  0
VERTEX
  5
73C
  8
回00-TP外形
  6
CONTINUOUS
 62
     7
 10
-21.16880016460982
 20
-2821.794664074661
 30
0.0
  0
VERTEX
  5
73D
  8
回00-TP外形
  6
CONTINUOUS
 62
     7
 10
-24.16880016460982
 20
-2821.794664074661
 30
0.0
  0
SEQEND
  5
73A
  8
回02-寸法
  6
CONTINUOUS
 62
     7
  0
POLYLINE
  5
40D
  8
回00-TP外形
  6
CONTINUOUS
 62
     7
 66
     1
 10
0.0
 20
0.0
 30
0.0
 70
     1
  0
VERTEX
  5
73E
  8
回00-TP外形
  6
CONTINUOUS
 62
     7
 10
-30.02880016460972
 20
-2820.794664074661
 30
0.0
  0
VERTEX
  5
740
  8
回00-TP外形
  6
CONTINUOUS
 62
     7
 10
-27.02880016460972
 20
-2820.794664074661
 30
0.0
  0
VERTEX
  5
741
  8
回00-TP外形
  6
CONTINUOUS
 62
     7
 10
-27.02880016460972
 20
-2821.794664074661
 30
0.0
  0
VERTEX
  5
742
  8
回00-TP外形
  6
CONTINUOUS
 62
     7
 10
-30.02880016460972
 20
-2821.794664074661
 30
0.0
  0
SEQEND
  5
73F
  8
回02-寸法
  6
CONTINUOUS
 62
     7
  0
POLYLINE
  5
40E
  8
回00-TP外形
  6
CONTINUOUS
 62
     7
 66
     1
 10
0.0
 20
0.0
 30
0.0
 70
     1
  0
VERTEX
  5
743
  8
回00-TP外形
  6
CONTINUOUS
 62
     7
 10
-35.88880016460985
 20
-2820.794664074661
 30
0.0
  0
VERTEX
  5
745
  8
回00-TP外形
  6
CONTINUOUS
 62
     7
 10
-32.88880016460985
 20
-2820.794664074661
 30
0.0
  0
VERTEX
  5
746
  8
回00-TP外形
  6
CONTINUOUS
 62
     7
 10
-32.88880016460985
 20
-2821.794664074661
 30
0.0
  0
VERTEX
  5
747
  8
回00-TP外形
  6
CONTINUOUS
 62
     7
 10
-35.88880016460985
 20
-2821.794664074661
 30
0.0
  0
SEQEND
  5
744
  8
回02-寸法
  6
CONTINUOUS
 62
     7
  0
POLYLINE
  5
40F
  8
回00-TP外形
  6
CONTINUOUS
 62
     7
 66
     1
 10
0.0
 20
0.0
 30
0.0
 70
     1
  0
VERTEX
  5
748
  8
回00-TP外形
  6
CONTINUOUS
 62
     7
 10
-41.74880016460974
 20
-2820.794664074661
 30
0.0
  0
VERTEX
  5
74A
  8
回00-TP外形
  6
CONTINUOUS
 62
     7
 10
-38.74880016460975
 20
-2820.794664074661
 30
0.0
  0
VERTEX
  5
74B
  8
回00-TP外形
  6
CONTINUOUS
 62
     7
 10
-38.74880016460975
 20
-2821.794664074661
 30
0.0
  0
VERTEX
  5
74C
  8
回00-TP外形
  6
CONTINUOUS
 62
     7
 10
-41.74880016460974
 20
-2821.794664074661
 30
0.0
  0
SEQEND
  5
749
  8
回02-寸法
  6
CONTINUOUS
 62
     7
  0
POLYLINE
  5
410
  8
回00-TP外形
  6
CONTINUOUS
 62
     7
 66
     1
 10
0.0
 20
0.0
 30
0.0
 70
     1
  0
VERTEX
  5
74D
  8
回00-TP外形
  6
CONTINUOUS
 62
     7
 10
-47.60880016460965
 20
-2820.794664074661
 30
0.0
  0
VERTEX
  5
74F
  8
回00-TP外形
  6
CONTINUOUS
 62
     7
 10
-44.60880016460964
 20
-2820.794664074661
 30
0.0
  0
VERTEX
  5
750
  8
回00-TP外形
  6
CONTINUOUS
 62
     7
 10
-44.60880016460964
 20
-2821.794664074661
 30
0.0
  0
VERTEX
  5
751
  8
回00-TP外形
  6
CONTINUOUS
 62
     7
 10
-47.60880016460965
 20
-2821.794664074661
 30
0.0
  0
SEQEND
  5
74E
  8
回02-寸法
  6
CONTINUOUS
 62
     7
  0
POLYLINE
  5
411
  8
回00-TP外形
  6
CONTINUOUS
 62
     7
 66
     1
 10
0.0
 20
0.0
 30
0.0
 70
     1
  0
VERTEX
  5
752
  8
回00-TP外形
  6
CONTINUOUS
 62
     7
 10
-53.46880016460977
 20
-2820.794664074661
 30
0.0
  0
VERTEX
  5
754
  8
回00-TP外形
  6
CONTINUOUS
 62
     7
 10
-50.46880016460978
 20
-2820.794664074661
 30
0.0
  0
VERTEX
  5
755
  8
回00-TP外形
  6
CONTINUOUS
 62
     7
 10
-50.46880016460978
 20
-2821.794664074661
 30
0.0
  0
VERTEX
  5
756
  8
回00-TP外形
  6
CONTINUOUS
 62
     7
 10
-53.46880016460977
 20
-2821.794664074661
 30
0.0
  0
SEQEND
  5
753
  8
回02-寸法
  6
CONTINUOUS
 62
     7
  0
POLYLINE
  5
412
  8
回00-TP外形
  6
CONTINUOUS
 62
     7
 66
     1
 10
0.0
 20
0.0
 30
0.0
 70
     1
  0
VERTEX
  5
757
  8
回00-TP外形
  6
CONTINUOUS
 62
     7
 10
-59.32880016460967
 20
-2820.794664074661
 30
0.0
  0
VERTEX
  5
759
  8
回00-TP外形
  6
CONTINUOUS
 62
     7
 10
-56.32880016460967
 20
-2820.794664074661
 30
0.0
  0
VERTEX
  5
75A
  8
回00-TP外形
  6
CONTINUOUS
 62
     7
 10
-56.32880016460967
 20
-2821.794664074661
 30
0.0
  0
VERTEX
  5
75B
  8
回00-TP外形
  6
CONTINUOUS
 62
     7
 10
-59.32880016460967
 20
-2821.794664074661
 30
0.0
  0
SEQEND
  5
758
  8
回02-寸法
  6
CONTINUOUS
 62
     7
  0
POLYLINE
  5
413
  8
回00-TP外形
  6
CONTINUOUS
 62
     7
 66
     1
 10
0.0
 20
0.0
 30
0.0
 70
     1
  0
VERTEX
  5
75C
  8
回00-TP外形
  6
CONTINUOUS
 62
     7
 10
-65.1888001646098
 20
-2820.794664074661
 30
0.0
  0
VERTEX
  5
75E
  8
回00-TP外形
  6
CONTINUOUS
 62
     7
 10
-62.1888001646098
 20
-2820.794664074661
 30
0.0
  0
VERTEX
  5
75F
  8
回00-TP外形
  6
CONTINUOUS
 62
     7
 10
-62.1888001646098
 20
-2821.794664074661
 30
0.0
  0
VERTEX
  5
760
  8
回00-TP外形
  6
CONTINUOUS
 62
     7
 10
-65.1888001646098
 20
-2821.794664074661
 30
0.0
  0
SEQEND
  5
75D
  8
回02-寸法
  6
CONTINUOUS
 62
     7
  0
POLYLINE
  5
414
  8
回00-TP外形
  6
CONTINUOUS
 62
     7
 66
     1
 10
0.0
 20
0.0
 30
0.0
 70
     1
  0
VERTEX
  5
761
  8
回00-TP外形
  6
CONTINUOUS
 62
     7
 10
-71.0488001646097
 20
-2820.794664074661
 30
0.0
  0
VERTEX
  5
763
  8
回00-TP外形
  6
CONTINUOUS
 62
     7
 10
-68.0488001646097
 20
-2820.794664074661
 30
0.0
  0
VERTEX
  5
764
  8
回00-TP外形
  6
CONTINUOUS
 62
     7
 10
-68.0488001646097
 20
-2821.794664074661
 30
0.0
  0
VERTEX
  5
765
  8
回00-TP外形
  6
CONTINUOUS
 62
     7
 10
-71.0488001646097
 20
-2821.794664074661
 30
0.0
  0
SEQEND
  5
762
  8
回02-寸法
  6
CONTINUOUS
 62
     7
  0
POLYLINE
  5
415
  8
回00-TP外形
  6
CONTINUOUS
 62
     7
 66
     1
 10
0.0
 20
0.0
 30
0.0
 70
     1
  0
VERTEX
  5
766
  8
回00-TP外形
  6
CONTINUOUS
 62
     7
 10
-76.90880016460983
 20
-2820.794664074661
 30
0.0
  0
VERTEX
  5
768
  8
回00-TP外形
  6
CONTINUOUS
 62
     7
 10
-73.90880016460982
 20
-2820.794664074661
 30
0.0
  0
VERTEX
  5
769
  8
回00-TP外形
  6
CONTINUOUS
 62
     7
 10
-73.90880016460982
 20
-2821.794664074661
 30
0.0
  0
VERTEX
  5
76A
  8
回00-TP外形
  6
CONTINUOUS
 62
     7
 10
-76.90880016460983
 20
-2821.794664074661
 30
0.0
  0
SEQEND
  5
767
  8
回02-寸法
  6
CONTINUOUS
 62
     7
  0
POLYLINE
  5
416
  8
回00-TP外形
  6
CONTINUOUS
 62
     7
 66
     1
 10
0.0
 20
0.0
 30
0.0
 70
     1
  0
VERTEX
  5
76B
  8
回00-TP外形
  6
CONTINUOUS
 62
     7
 10
-82.76880016460973
 20
-2820.794664074661
 30
0.0
  0
VERTEX
  5
76D
  8
回00-TP外形
  6
CONTINUOUS
 62
     7
 10
-79.76880016460973
 20
-2820.794664074661
 30
0.0
  0
VERTEX
  5
76E
  8
回00-TP外形
  6
CONTINUOUS
 62
     7
 10
-79.76880016460973
 20
-2821.794664074661
 30
0.0
  0
VERTEX
  5
76F
  8
回00-TP外形
  6
CONTINUOUS
 62
     7
 10
-82.76880016460973
 20
-2821.794664074661
 30
0.0
  0
SEQEND
  5
76C
  8
回02-寸法
  6
CONTINUOUS
 62
     7
  0
POLYLINE
  5
417
  8
回00-TP外形
  6
CONTINUOUS
 62
     7
 66
     1
 10
0.0
 20
0.0
 30
0.0
 70
     1
  0
VERTEX
  5
770
  8
回00-TP外形
  6
CONTINUOUS
 62
     7
 10
-88.62880016460985
 20
-2820.794664074661
 30
0.0
  0
VERTEX
  5
772
  8
回00-TP外形
  6
CONTINUOUS
 62
     7
 10
-85.62880016460985
 20
-2820.794664074661
 30
0.0
  0
VERTEX
  5
773
  8
回00-TP外形
  6
CONTINUOUS
 62
     7
 10
-85.62880016460985
 20
-2821.794664074661
 30
0.0
  0
VERTEX
  5
774
  8
回00-TP外形
  6
CONTINUOUS
 62
     7
 10
-88.62880016460985
 20
-2821.794664074661
 30
0.0
  0
SEQEND
  5
771
  8
回02-寸法
  6
CONTINUOUS
 62
     7
  0
POLYLINE
  5
418
  8
回00-TP外形
  6
CONTINUOUS
 62
     7
 66
     1
 10
0.0
 20
0.0
 30
0.0
 70
     1
  0
VERTEX
  5
775
  8
回00-TP外形
  6
CONTINUOUS
 62
     7
 10
-94.48880016460975
 20
-2820.794664074661
 30
0.0
  0
VERTEX
  5
777
  8
回00-TP外形
  6
CONTINUOUS
 62
     7
 10
-91.48880016460976
 20
-2820.794664074661
 30
0.0
  0
VERTEX
  5
778
  8
回00-TP外形
  6
CONTINUOUS
 62
     7
 10
-91.48880016460976
 20
-2821.794664074661
 30
0.0
  0
VERTEX
  5
779
  8
回00-TP外形
  6
CONTINUOUS
 62
     7
 10
-94.48880016460975
 20
-2821.794664074661
 30
0.0
  0
SEQEND
  5
776
  8
回02-寸法
  6
CONTINUOUS
 62
     7
  0
POLYLINE
  5
419
  8
回00-TP外形
  6
CONTINUOUS
 62
     7
 66
     1
 10
0.0
 20
0.0
 30
0.0
 70
     1
  0
VERTEX
  5
77A
  8
回00-TP外形
  6
CONTINUOUS
 62
     7
 10
-100.3488001646098
 20
-2820.794664074661
 30
0.0
  0
VERTEX
  5
77C
  8
回00-TP外形
  6
CONTINUOUS
 62
     7
 10
-97.34880016460989
 20
-2820.794664074661
 30
0.0
  0
VERTEX
  5
77D
  8
回00-TP外形
  6
CONTINUOUS
 62
     7
 10
-97.34880016460989
 20
-2821.794664074661
 30
0.0
  0
VERTEX
  5
77E
  8
回00-TP外形
  6
CONTINUOUS
 62
     7
 10
-100.3488001646098
 20
-2821.794664074661
 30
0.0
  0
SEQEND
  5
77B
  8
回02-寸法
  6
CONTINUOUS
 62
     7
  0
POLYLINE
  5
41A
  8
回00-TP外形
  6
CONTINUOUS
 62
     7
 66
     1
 10
0.0
 20
0.0
 30
0.0
 70
     1
  0
VERTEX
  5
77F
  8
回00-TP外形
  6
CONTINUOUS
 62
     7
 10
-105.4488001646095
 20
-2728.369664074661
 30
0.0
  0
VERTEX
  5
781
  8
回00-TP外形
  6
CONTINUOUS
 62
     7
 10
-104.4488001646095
 20
-2728.369664074661
 30
0.0
  0
VERTEX
  5
782
  8
回00-TP外形
  6
CONTINUOUS
 62
     7
 10
-104.4488001646095
 20
-2731.369664074661
 30
0.0
  0
VERTEX
  5
783
  8
回00-TP外形
  6
CONTINUOUS
 62
     7
 10
-105.4488001646095
 20
-2731.369664074661
 30
0.0
  0
SEQEND
  5
780
  8
回02-寸法
  6
CONTINUOUS
 62
     7
  0
POLYLINE
  5
41B
  8
回00-TP外形
  6
CONTINUOUS
 62
     7
 66
     1
 10
0.0
 20
0.0
 30
0.0
 70
     1
  0
VERTEX
  5
784
  8
回00-TP外形
  6
CONTINUOUS
 62
     7
 10
-105.4488001646095
 20
-2734.069664074662
 30
0.0
  0
VERTEX
  5
786
  8
回00-TP外形
  6
CONTINUOUS
 62
     7
 10
-104.4488001646095
 20
-2734.069664074662
 30
0.0
  0
VERTEX
  5
787
  8
回00-TP外形
  6
CONTINUOUS
 62
     7
 10
-104.4488001646095
 20
-2737.069664074662
 30
0.0
  0
VERTEX
  5
788
  8
回00-TP外形
  6
CONTINUOUS
 62
     7
 10
-105.4488001646095
 20
-2737.069664074662
 30
0.0
  0
SEQEND
  5
785
  8
回02-寸法
  6
CONTINUOUS
 62
     7
  0
POLYLINE
  5
41C
  8
回00-TP外形
  6
CONTINUOUS
 62
     7
 66
     1
 10
0.0
 20
0.0
 30
0.0
 70
     1
  0
VERTEX
  5
789
  8
回00-TP外形
  6
CONTINUOUS
 62
     7
 10
-105.4488001646095
 20
-2739.769664074661
 30
0.0
  0
VERTEX
  5
78B
  8
回00-TP外形
  6
CONTINUOUS
 62
     7
 10
-104.4488001646095
 20
-2739.769664074661
 30
0.0
  0
VERTEX
  5
78C
  8
回00-TP外形
  6
CONTINUOUS
 62
     7
 10
-104.4488001646095
 20
-2742.769664074661
 30
0.0
  0
VERTEX
  5
78D
  8
回00-TP外形
  6
CONTINUOUS
 62
     7
 10
-105.4488001646095
 20
-2742.769664074661
 30
0.0
  0
SEQEND
  5
78A
  8
回02-寸法
  6
CONTINUOUS
 62
     7
  0
POLYLINE
  5
41D
  8
回00-TP外形
  6
CONTINUOUS
 62
     7
 66
     1
 10
0.0
 20
0.0
 30
0.0
 70
     1
  0
VERTEX
  5
78E
  8
回00-TP外形
  6
CONTINUOUS
 62
     7
 10
-105.4488001646095
 20
-2745.469664074661
 30
0.0
  0
VERTEX
  5
790
  8
回00-TP外形
  6
CONTINUOUS
 62
     7
 10
-104.4488001646095
 20
-2745.469664074661
 30
0.0
  0
VERTEX
  5
791
  8
回00-TP外形
  6
CONTINUOUS
 62
     7
 10
-104.4488001646095
 20
-2748.469664074661
 30
0.0
  0
VERTEX
  5
792
  8
回00-TP外形
  6
CONTINUOUS
 62
     7
 10
-105.4488001646095
 20
-2748.469664074661
 30
0.0
  0
SEQEND
  5
78F
  8
回02-寸法
  6
CONTINUOUS
 62
     7
  0
POLYLINE
  5
41E
  8
回00-TP外形
  6
CONTINUOUS
 62
     7
 66
     1
 10
0.0
 20
0.0
 30
0.0
 70
     1
  0
VERTEX
  5
793
  8
回00-TP外形
  6
CONTINUOUS
 62
     7
 10
-105.4488001646095
 20
-2751.169664074661
 30
0.0
  0
VERTEX
  5
795
  8
回00-TP外形
  6
CONTINUOUS
 62
     7
 10
-104.4488001646095
 20
-2751.169664074661
 30
0.0
  0
VERTEX
  5
796
  8
回00-TP外形
  6
CONTINUOUS
 62
     7
 10
-104.4488001646095
 20
-2754.169664074661
 30
0.0
  0
VERTEX
  5
797
  8
回00-TP外形
  6
CONTINUOUS
 62
     7
 10
-105.4488001646095
 20
-2754.169664074661
 30
0.0
  0
SEQEND
  5
794
  8
回02-寸法
  6
CONTINUOUS
 62
     7
  0
POLYLINE
  5
41F
  8
回00-TP外形
  6
CONTINUOUS
 62
     7
 66
     1
 10
0.0
 20
0.0
 30
0.0
 70
     1
  0
VERTEX
  5
798
  8
回00-TP外形
  6
CONTINUOUS
 62
     7
 10
-105.4488001646095
 20
-2756.869664074661
 30
0.0
  0
VERTEX
  5
79A
  8
回00-TP外形
  6
CONTINUOUS
 62
     7
 10
-104.4488001646095
 20
-2756.869664074661
 30
0.0
  0
VERTEX
  5
79B
  8
回00-TP外形
  6
CONTINUOUS
 62
     7
 10
-104.4488001646095
 20
-2759.869664074662
 30
0.0
  0
VERTEX
  5
79C
  8
回00-TP外形
  6
CONTINUOUS
 62
     7
 10
-105.4488001646095
 20
-2759.869664074662
 30
0.0
  0
SEQEND
  5
799
  8
回02-寸法
  6
CONTINUOUS
 62
     7
  0
POLYLINE
  5
420
  8
回00-TP外形
  6
CONTINUOUS
 62
     7
 66
     1
 10
0.0
 20
0.0
 30
0.0
 70
     1
  0
VERTEX
  5
79D
  8
回00-TP外形
  6
CONTINUOUS
 62
     7
 10
-105.4488001646095
 20
-2762.569664074661
 30
0.0
  0
VERTEX
  5
79F
  8
回00-TP外形
  6
CONTINUOUS
 62
     7
 10
-104.4488001646095
 20
-2762.569664074661
 30
0.0
  0
VERTEX
  5
7A0
  8
回00-TP外形
  6
CONTINUOUS
 62
     7
 10
-104.4488001646095
 20
-2765.569664074662
 30
0.0
  0
VERTEX
  5
7A1
  8
回00-TP外形
  6
CONTINUOUS
 62
     7
 10
-105.4488001646095
 20
-2765.569664074662
 30
0.0
  0
SEQEND
  5
79E
  8
回02-寸法
  6
CONTINUOUS
 62
     7
  0
POLYLINE
  5
421
  8
回00-TP外形
  6
CONTINUOUS
 62
     7
 66
     1
 10
0.0
 20
0.0
 30
0.0
 70
     1
  0
VERTEX
  5
7A2
  8
回00-TP外形
  6
CONTINUOUS
 62
     7
 10
-105.4488001646095
 20
-2768.269664074662
 30
0.0
  0
VERTEX
  5
7A4
  8
回00-TP外形
  6
CONTINUOUS
 62
     7
 10
-104.4488001646095
 20
-2768.269664074662
 30
0.0
  0
VERTEX
  5
7A5
  8
回00-TP外形
  6
CONTINUOUS
 62
     7
 10
-104.4488001646095
 20
-2771.269664074662
 30
0.0
  0
VERTEX
  5
7A6
  8
回00-TP外形
  6
CONTINUOUS
 62
     7
 10
-105.4488001646095
 20
-2771.269664074662
 30
0.0
  0
SEQEND
  5
7A3
  8
回02-寸法
  6
CONTINUOUS
 62
     7
  0
POLYLINE
  5
422
  8
回00-TP外形
  6
CONTINUOUS
 62
     7
 66
     1
 10
0.0
 20
0.0
 30
0.0
 70
     1
  0
VERTEX
  5
7A7
  8
回00-TP外形
  6
CONTINUOUS
 62
     7
 10
-105.4488001646095
 20
-2773.969664074661
 30
0.0
  0
VERTEX
  5
7A9
  8
回00-TP外形
  6
CONTINUOUS
 62
     7
 10
-104.4488001646095
 20
-2773.969664074661
 30
0.0
  0
VERTEX
  5
7AA
  8
回00-TP外形
  6
CONTINUOUS
 62
     7
 10
-104.4488001646095
 20
-2776.969664074661
 30
0.0
  0
VERTEX
  5
7AB
  8
回00-TP外形
  6
CONTINUOUS
 62
     7
 10
-105.4488001646095
 20
-2776.969664074661
 30
0.0
  0
SEQEND
  5
7A8
  8
回02-寸法
  6
CONTINUOUS
 62
     7
  0
POLYLINE
  5
423
  8
回00-TP外形
  6
CONTINUOUS
 62
     7
 66
     1
 10
0.0
 20
0.0
 30
0.0
 70
     1
  0
VERTEX
  5
7AC
  8
回00-TP外形
  6
CONTINUOUS
 62
     7
 10
-105.4488001646095
 20
-2779.669664074661
 30
0.0
  0
VERTEX
  5
7AE
  8
回00-TP外形
  6
CONTINUOUS
 62
     7
 10
-104.4488001646095
 20
-2779.669664074661
 30
0.0
  0
VERTEX
  5
7AF
  8
回00-TP外形
  6
CONTINUOUS
 62
     7
 10
-104.4488001646095
 20
-2782.669664074661
 30
0.0
  0
VERTEX
  5
7B0
  8
回00-TP外形
  6
CONTINUOUS
 62
     7
 10
-105.4488001646095
 20
-2782.669664074661
 30
0.0
  0
SEQEND
  5
7AD
  8
回02-寸法
  6
CONTINUOUS
 62
     7
  0
POLYLINE
  5
424
  8
回00-TP外形
  6
CONTINUOUS
 62
     7
 66
     1
 10
0.0
 20
0.0
 30
0.0
 70
     1
  0
VERTEX
  5
7B1
  8
回00-TP外形
  6
CONTINUOUS
 62
     7
 10
-105.4488001646095
 20
-2785.369664074661
 30
0.0
  0
VERTEX
  5
7B3
  8
回00-TP外形
  6
CONTINUOUS
 62
     7
 10
-104.4488001646095
 20
-2785.369664074661
 30
0.0
  0
VERTEX
  5
7B4
  8
回00-TP外形
  6
CONTINUOUS
 62
     7
 10
-104.4488001646095
 20
-2788.369664074661
 30
0.0
  0
VERTEX
  5
7B5
  8
回00-TP外形
  6
CONTINUOUS
 62
     7
 10
-105.4488001646095
 20
-2788.369664074661
 30
0.0
  0
SEQEND
  5
7B2
  8
回02-寸法
  6
CONTINUOUS
 62
     7
  0
POLYLINE
  5
425
  8
回00-TP外形
  6
CONTINUOUS
 62
     7
 66
     1
 10
0.0
 20
0.0
 30
0.0
 70
     1
  0
VERTEX
  5
7B6
  8
回00-TP外形
  6
CONTINUOUS
 62
     7
 10
-105.4488001646095
 20
-2791.069664074662
 30
0.0
  0
VERTEX
  5
7B8
  8
回00-TP外形
  6
CONTINUOUS
 62
     7
 10
-104.4488001646095
 20
-2791.069664074662
 30
0.0
  0
VERTEX
  5
7B9
  8
回00-TP外形
  6
CONTINUOUS
 62
     7
 10
-104.4488001646095
 20
-2794.069664074662
 30
0.0
  0
VERTEX
  5
7BA
  8
回00-TP外形
  6
CONTINUOUS
 62
     7
 10
-105.4488001646095
 20
-2794.069664074662
 30
0.0
  0
SEQEND
  5
7B7
  8
回02-寸法
  6
CONTINUOUS
 62
     7
  0
POLYLINE
  5
426
  8
回00-TP外形
  6
CONTINUOUS
 62
     7
 66
     1
 10
0.0
 20
0.0
 30
0.0
 70
     1
  0
VERTEX
  5
7BB
  8
回00-TP外形
  6
CONTINUOUS
 62
     7
 10
-105.4488001646095
 20
-2796.769664074661
 30
0.0
  0
VERTEX
  5
7BD
  8
回00-TP外形
  6
CONTINUOUS
 62
     7
 10
-104.4488001646095
 20
-2796.769664074661
 30
0.0
  0
VERTEX
  5
7BE
  8
回00-TP外形
  6
CONTINUOUS
 62
     7
 10
-104.4488001646095
 20
-2799.769664074661
 30
0.0
  0
VERTEX
  5
7BF
  8
回00-TP外形
  6
CONTINUOUS
 62
     7
 10
-105.4488001646095
 20
-2799.769664074661
 30
0.0
  0
SEQEND
  5
7BC
  8
回02-寸法
  6
CONTINUOUS
 62
     7
  0
POLYLINE
  5
427
  8
回00-TP外形
  6
CONTINUOUS
 62
     7
 66
     1
 10
0.0
 20
0.0
 30
0.0
 70
     1
  0
VERTEX
  5
7C0
  8
回00-TP外形
  6
CONTINUOUS
 62
     7
 10
-105.4488001646095
 20
-2802.469664074661
 30
0.0
  0
VERTEX
  5
7C2
  8
回00-TP外形
  6
CONTINUOUS
 62
     7
 10
-104.4488001646095
 20
-2802.469664074661
 30
0.0
  0
VERTEX
  5
7C3
  8
回00-TP外形
  6
CONTINUOUS
 62
     7
 10
-104.4488001646095
 20
-2805.469664074662
 30
0.0
  0
VERTEX
  5
7C4
  8
回00-TP外形
  6
CONTINUOUS
 62
     7
 10
-105.4488001646095
 20
-2805.469664074662
 30
0.0
  0
SEQEND
  5
7C1
  8
回02-寸法
  6
CONTINUOUS
 62
     7
  0
POLYLINE
  5
428
  8
回00-TP外形
  6
CONTINUOUS
 62
     7
 66
     1
 10
0.0
 20
0.0
 30
0.0
 70
     1
  0
VERTEX
  5
7C5
  8
回00-TP外形
  6
CONTINUOUS
 62
     7
 10
-105.4488001646095
 20
-2808.169664074661
 30
0.0
  0
VERTEX
  5
7C7
  8
回00-TP外形
  6
CONTINUOUS
 62
     7
 10
-104.4488001646095
 20
-2808.169664074661
 30
0.0
  0
VERTEX
  5
7C8
  8
回00-TP外形
  6
CONTINUOUS
 62
     7
 10
-104.4488001646095
 20
-2811.169664074661
 30
0.0
  0
VERTEX
  5
7C9
  8
回00-TP外形
  6
CONTINUOUS
 62
     7
 10
-105.4488001646095
 20
-2811.169664074661
 30
0.0
  0
SEQEND
  5
7C6
  8
回02-寸法
  6
CONTINUOUS
 62
     7
  0
POLYLINE
  5
429
  8
回00-TP外形
  6
CONTINUOUS
 62
     7
 66
     1
 10
0.0
 20
0.0
 30
0.0
 70
     1
  0
VERTEX
  5
7CA
  8
回00-TP外形
  6
CONTINUOUS
 62
     7
 10
-105.4488001646095
 20
-2813.869664074661
 30
0.0
  0
VERTEX
  5
7CC
  8
回00-TP外形
  6
CONTINUOUS
 62
     7
 10
-104.4488001646095
 20
-2813.869664074661
 30
0.0
  0
VERTEX
  5
7CD
  8
回00-TP外形
  6
CONTINUOUS
 62
     7
 10
-104.4488001646095
 20
-2816.869664074662
 30
0.0
  0
VERTEX
  5
7CE
  8
回00-TP外形
  6
CONTINUOUS
 62
     7
 10
-105.4488001646095
 20
-2816.869664074662
 30
0.0
  0
SEQEND
  5
7CB
  8
回02-寸法
  6
CONTINUOUS
 62
     7
  0
POLYLINE
  5
42A
  8
回00-TP外形
  6
CONTINUOUS
 62
     7
 66
     1
 10
0.0
 20
0.0
 30
0.0
 70
     1
  0
VERTEX
  5
7CF
  8
回00-TP外形
  6
CONTINUOUS
 62
     7
 10
-110.0488001646097
 20
-2718.93219232459
 30
0.0
  0
VERTEX
  5
7D1
  8
回00-TP外形
  6
CONTINUOUS
 62
     7
 10
58.75119983539025
 20
-2718.93219232459
 30
0.0
  0
VERTEX
  5
7D2
  8
回00-TP外形
  6
CONTINUOUS
 62
     7
 10
58.75119983539025
 20
-2830.33219232459
 30
0.0
  0
VERTEX
  5
7D3
  8
回00-TP外形
  6
CONTINUOUS
 62
     7
 10
-110.0488001646097
 20
-2830.33219232459
 30
0.0
  0
SEQEND
  5
7D0
  8
回02-寸法
  6
CONTINUOUS
 62
     7
  0
POLYLINE
  5
42B
  8
回00-TP外形
  6
CONTINUOUS
 62
     7
 66
     1
 10
0.0
 20
0.0
 30
0.0
 70
     1
  0
VERTEX
  5
7D4
  8
回00-TP外形
  6
CONTINUOUS
 62
     7
 10
-103.9488001646098
 20
-2724.944664074661
 30
0.0
  0
VERTEX
  5
7D6
  8
回00-TP外形
  6
CONTINUOUS
 62
     7
 10
52.75119983539025
 20
-2724.944664074661
 30
0.0
  0
VERTEX
  5
7D7
  8
回00-TP外形
  6
CONTINUOUS
 62
     7
 10
52.75119983539025
 20
-2820.294664074661
 30
0.0
  0
VERTEX
  5
7D8
  8
回00-TP外形
  6
CONTINUOUS
 62
     7
 10
-103.9488001646098
 20
-2820.294664074661
 30
0.0
  0
SEQEND
  5
7D5
  8
回02-寸法
  6
CONTINUOUS
 62
     7
  0
POLYLINE
  5
42C
  8
回00-TP外形
  6
CONTINUOUS
 62
     7
 66
     1
 10
0.0
 20
0.0
 30
0.0
 70
     1
  0
VERTEX
  5
7D9
  8
回00-TP外形
  6
CONTINUOUS
 62
     7
 10
-101.7988001646097
 20
-2726.899664074661
 30
0.0
  0
VERTEX
  5
7DB
  8
回00-TP外形
  6
CONTINUOUS
 62
     7
 10
50.60119983539062
 20
-2726.899664074661
 30
0.0
  0
VERTEX
  5
7DC
  8
回00-TP外形
  6
CONTINUOUS
 62
     7
 10
50.60119983539062
 20
-2818.339664074661
 30
0.0
  0
VERTEX
  5
7DD
  8
回00-TP外形
  6
CONTINUOUS
 62
     7
 10
-101.7988001646097
 20
-2818.339664074661
 30
0.0
  0
SEQEND
  5
7DA
  8
回02-寸法
  6
CONTINUOUS
 62
     7
  0
POLYLINE
  5
42D
  8
回00-TP外形
  6
CONTINUOUS
 62
     7
 66
     1
 10
0.0
 20
0.0
 30
0.0
 70
     1
  0
VERTEX
  5
7DE
  8
回00-TP外形
  6
CONTINUOUS
 62
     7
 10
-110.0488001646097
 20
-2718.93219232459
 30
0.0
  0
VERTEX
  5
7E0
  8
回00-TP外形
  6
CONTINUOUS
 62
     7
 10
58.75119983539025
 20
-2718.93219232459
 30
0.0
  0
VERTEX
  5
7E1
  8
回00-TP外形
  6
CONTINUOUS
 62
     7
 10
58.75119983539025
 20
-2830.33219232459
 30
0.0
  0
VERTEX
  5
7E2
  8
回00-TP外形
  6
CONTINUOUS
 62
     7
 10
-110.0488001646097
 20
-2830.33219232459
 30
0.0
  0
SEQEND
  5
7DF
  8
回02-寸法
  6
CONTINUOUS
 62
     7
  0
POLYLINE
  5
42E
  8
回04-CG
  6
CONTINUOUS
 62
     7
 66
     1
 10
0.0
 20
0.0
 30
0.0
 70
     1
  0
VERTEX
  5
7E3
  8
回04-CG
  6
CONTINUOUS
 62
     7
 10
-115.1488001646096
 20
-2707.129664074661
 30
0.0
  0
VERTEX
  5
7E5
  8
回04-CG
  6
CONTINUOUS
 62
     7
 10
63.95119983539053
 20
-2707.129664074661
 30
0.0
 42
-0.4142135623730951
  0
VERTEX
  5
7E6
  8
回04-CG
  6
CONTINUOUS
 62
     7
 10
65.45119983539052
 20
-2708.629664074661
 30
0.0
  0
VERTEX
  5
7E7
  8
回04-CG
  6
CONTINUOUS
 62
     7
 10
65.45119983539052
 20
-2836.629664074661
 30
0.0
 42
-0.4142135623730951
  0
VERTEX
  5
7E8
  8
回04-CG
  6
CONTINUOUS
 62
     7
 10
63.95119983539053
 20
-2838.129664074661
 30
0.0
  0
VERTEX
  5
7E9
  8
回04-CG
  6
CONTINUOUS
 62
     7
 10
-115.1488001646096
 20
-2838.129664074661
 30
0.0
 42
-0.4142135623730951
  0
VERTEX
  5
7EA
  8
回04-CG
  6
CONTINUOUS
 62
     7
 10
-116.6488001646096
 20
-2836.629664074661
 30
0.0
  0
VERTEX
  5
7EB
  8
回04-CG
  6
CONTINUOUS
 62
     7
 10
-116.6488001646096
 20
-2708.629664074661
 30
0.0
 42
-0.4142135623730951
  0
SEQEND
  5
7E4
  8
回02-寸法
  6
CONTINUOUS
 62
     7
  0
POLYLINE
  5
431
  8
回04-CG
  6
CONTINUOUS
 62
     7
 66
     1
 10
0.0
 20
0.0
 30
0.0
 70
     1
  0
VERTEX
  5
7EC
  8
回04-CG
  6
CONTINUOUS
 62
     7
 10
-115.1488001646096
 20
-2706.629664074661
 30
0.0
  0
VERTEX
  5
7EE
  8
回04-CG
  6
CONTINUOUS
 62
     7
 10
63.95119983539053
 20
-2706.629664074661
 30
0.0
 42
-0.4142135623730951
  0
VERTEX
  5
7EF
  8
回04-CG
  6
CONTINUOUS
 62
     7
 10
65.95119983539053
 20
-2708.629664074661
 30
0.0
  0
VERTEX
  5
7F0
  8
回04-CG
  6
CONTINUOUS
 62
     7
 10
65.95119983539053
 20
-2836.629664074661
 30
0.0
 42
-0.4142135623730951
  0
VERTEX
  5
7F1
  8
回04-CG
  6
CONTINUOUS
 62
     7
 10
63.95119983539053
 20
-2838.629664074661
 30
0.0
  0
VERTEX
  5
7F2
  8
回04-CG
  6
CONTINUOUS
 62
     7
 10
-115.1488001646096
 20
-2838.629664074661
 30
0.0
 42
-0.4142135623730951
  0
VERTEX
  5
7F3
  8
回04-CG
  6
CONTINUOUS
 62
     7
 10
-117.1488001646096
 20
-2836.629664074661
 30
0.0
  0
VERTEX
  5
7F4
  8
回04-CG
  6
CONTINUOUS
 62
     7
 10
-117.1488001646096
 20
-2708.629664074661
 30
0.0
 42
-0.4142135623730951
  0
SEQEND
  5
7ED
  8
回02-寸法
  6
CONTINUOUS
 62
     7
  0
INSERT
  5
432
  8
回04-CG
  6
CONTINUOUS
 62
     7
 66
     1
  2
*X71
 10
0.0
 20
0.0
 30
0.0
1001
GRADIENTCOLOR1ACI
1070
     5
1001
GRADIENTCOLOR2ACI
1070
     2
1001
ACAD
1010
0.0
1020
0.0
1030
0.0
  0
SEQEND
  5
874
  8
回02-寸法
  6
CONTINUOUS
 62
     7
  0
POLYLINE
  5
433
  8
回04-CG
  6
CONTINUOUS
 62
     7
 66
     1
 10
0.0
 20
0.0
 30
0.0
 70
     1
  0
VERTEX
  5
875
  8
回04-CG
  6
CONTINUOUS
 62
     7
 10
-102.0988001646096
 20
-2726.599664074661
 30
0.0
  0
VERTEX
  5
877
  8
回04-CG
  6
CONTINUOUS
 62
     7
 10
50.90119983539075
 20
-2726.599664074661
 30
0.0
  0
VERTEX
  5
878
  8
回04-CG
  6
CONTINUOUS
 62
     7
 10
50.90119983539075
 20
-2818.639664074661
 30
0.0
  0
VERTEX
  5
879
  8
回04-CG
  6
CONTINUOUS
 62
     7
 10
-102.0988001646096
 20
-2818.639664074661
 30
0.0
  0
SEQEND
  5
876
  8
回02-寸法
  6
CONTINUOUS
 62
     7
  0
ENDSEC
  0
EOF
