  0
SECTION
  2
HEADER
  9
$ACADVER
  1
AC1009
  9
$INSBASE
 10
0.0
 20
0.0
 30
0.0
  9
$EXTMIN
 10
-859.7123851321214
 20
-151.2218141891079
 30
0.0
  9
$EXTMAX
 10
-289.7123851321214
 20
243.7781858108921
 30
0.0
  9
$LIMMIN
 10
0.0
 20
0.0
  9
$LIMMAX
 10
3000.0
 20
2500.0
  9
$ORTHOMODE
 70
     0
  9
$REGENMODE
 70
     1
  9
$FILLMODE
 70
     1
  9
$QTEXTMODE
 70
     0
  9
$MIRRTEXT
 70
     1
  9
$DRAGMODE
 70
     2
  9
$LTSCALE
 40
1.0
  9
$OSMODE
 70
    37
  9
$ATTMODE
 70
     1
  9
$TEXTSIZE
 40
3.0
  9
$TRACEWID
 40
1.0
  9
$TEXTSTYLE
  7
2MM
  9
$CLAYER
  8
回06-GER
  9
$CELTYPE
  6
BYLAYER
  9
$CECOLOR
 62
     5
  9
$DIMSCALE
 40
1.0
  9
$DIMASZ
 40
2.0
  9
$DIMEXO
 40
0.0
  9
$DIMDLI
 40
0.0
  9
$DIMRND
 40
0.0
  9
$DIMDLE
 40
0.0
  9
$DIMEXE
 40
1.0
  9
$DIMTP
 40
0.0
  9
$DIMTM
 40
0.0
  9
$DIMTXT
 40
3.0
  9
$DIMCEN
 40
2.0
  9
$DIMTSZ
 40
0.0
  9
$DIMTOL
 70
     0
  9
$DIMLIM
 70
     0
  9
$DIMTIH
 70
     0
  9
$DIMTOH
 70
     0
  9
$DIMSE1
 70
     0
  9
$DIMSE2
 70
     0
  9
$DIMTAD
 70
     3
  9
$DIMZIN
 70
     8
  9
$DIMBLK
  1
OPEN
  9
$DIMASO
 70
     1
  9
$DIMSHO
 70
     1
  9
$DIMPOST
  1

  9
$DIMAPOST
  1

  9
$DIMALT
 70
     0
  9
$DIMALTD
 70
     3
  9
$DIMALTF
 40
0.03937007874016
  9
$DIMLFAC
 40
1.0
  9
$DIMTOFL
 70
     1
  9
$DIMTVP
 40
0.0
  9
$DIMTIX
 70
     0
  9
$DIMSOXD
 70
     0
  9
$DIMSAH
 70
     0
  9
$DIMBLK1
  1

  9
$DIMBLK2
  1

  9
$DIMSTYLE
  2
2MM
  9
$DIMCLRD
 70
     5
  9
$DIMCLRE
 70
     5
  9
$DIMCLRT
 70
     5
  9
$DIMTFAC
 40
0.7
  9
$DIMGAP
 40
0.5
  9
$LUNITS
 70
     2
  9
$LUPREC
 70
     4
  9
$SKETCHINC
 40
1.0
  9
$FILLETRAD
 40
0.5
  9
$AUNITS
 70
     0
  9
$AUPREC
 70
     0
  9
$MENU
  1
.
  9
$ELEVATION
 40
0.0
  9
$PELEVATION
 40
0.0
  9
$THICKNESS
 40
0.0
  9
$LIMCHECK
 70
     0
  9
$BLIPMODE
 70
     0
  9
$CHAMFERA
 40
10.0
  9
$CHAMFERB
 40
10.0
  9
$SKPOLY
 70
     0
  9
$TDCREATE
 40
2451810.779221065
  9
$TDUPDATE
 40
2460231.747765440
  9
$TDINDWG
 40
5.586919282
  9
$TDUSRTIMER
 40
5.586918588
  9
$USRTIMER
 70
     1
  9
$ANGBASE
 50
0.0
  9
$ANGDIR
 70
     0
  9
$PDMODE
 70
     0
  9
$PDSIZE
 40
0.0
  9
$PLINEWID
 40
0.2
  9
$COORDS
 70
     0
  9
$SPLFRAME
 70
     0
  9
$SPLINETYPE
 70
     6
  9
$SPLINESEGS
 70
     8
  9
$ATTDIA
 70
     1
  9
$ATTREQ
 70
     1
  9
$HANDLING
 70
     1
  9
$HANDSEED
  5
3C5
  9
$SURFTAB1
 70
     6
  9
$SURFTAB2
 70
     6
  9
$SURFTYPE
 70
     6
  9
$SURFU
 70
     6
  9
$SURFV
 70
     6
  9
$UCSNAME
  2

  9
$UCSORG
 10
0.0
 20
0.0
 30
0.0
  9
$UCSXDIR
 10
1.0
 20
0.0
 30
0.0
  9
$UCSYDIR
 10
0.0
 20
1.0
 30
0.0
  9
$PUCSNAME
  2

  9
$PUCSORG
 10
0.0
 20
0.0
 30
0.0
  9
$PUCSXDIR
 10
1.0
 20
0.0
 30
0.0
  9
$PUCSYDIR
 10
0.0
 20
1.0
 30
0.0
  9
$USERI1
 70
     0
  9
$USERI2
 70
     0
  9
$USERI3
 70
     0
  9
$USERI4
 70
     0
  9
$USERI5
 70
     0
  9
$USERR1
 40
0.0
  9
$USERR2
 40
0.0
  9
$USERR3
 40
0.0
  9
$USERR4
 40
0.0
  9
$USERR5
 40
0.0
  9
$WORLDVIEW
 70
     1
  9
$SHADEDGE
 70
     3
  9
$SHADEDIF
 70
    70
  9
$TILEMODE
 70
     1
  9
$MAXACTVP
 70
    64
  9
$PLIMCHECK
 70
     0
  9
$PEXTMIN
 10
1.000000000000000E+20
 20
1.000000000000000E+20
 30
1.000000000000000E+20
  9
$PEXTMAX
 10
-1.000000000000000E+20
 20
-1.000000000000000E+20
 30
-1.000000000000000E+20
  9
$PLIMMIN
 10
0.0
 20
0.0
  9
$PLIMMAX
 10
420.0
 20
297.0
  9
$UNITMODE
 70
     0
  9
$VISRETAIN
 70
     1
  9
$PLINEGEN
 70
     0
  9
$PSLTSCALE
 70
     1
  0
ENDSEC
  0
SECTION
  2
TABLES
  0
TABLE
  2
VPORT
 70
     1
  0
VPORT
  2
*ACTIVE
 70
     0
 10
0.0
 20
0.0
 11
1.0
 21
1.0
 12
-577.9496003883427
 22
53.84919606990358
 13
0.0
 23
0.0
 14
10.0
 24
10.0
 15
10.0
 25
10.0
 16
0.0
 26
0.0
 36
1.0
 17
0.0
 27
0.0
 37
0.0
 40
482.2657102180561
 41
1.853689567430025
 42
50.0
 43
0.0
 44
0.0
 50
0.0
 51
0.0
 71
     0
 72
  3000
 73
     1
 74
     1
 75
     0
 76
     0
 77
     0
 78
     0
  0
ENDTAB
  0
TABLE
  2
LTYPE
 70
     4
  0
LTYPE
  2
CONTINUOUS
 70
     0
  3
Solid line
 72
    65
 73
     0
 40
0.0
  0
LTYPE
  2
DASHED2
 70
     0
  3
Dashed (.5x) _ _ _ _ _ _ _ _ _ _ _ _ _ _ _ _ _
 72
    65
 73
     2
 40
9.524999999999998
 49
6.349999999999999
 49
-3.174999999999999
  0
LTYPE
  2
PHANTOM2
 70
     0
  3
Phantom (.5x) ___ _ _ ___ _ _ ___ _ _ ___ _ _
 72
    65
 73
     6
 40
31.75
 49
15.875
 49
-3.174999999999999
 49
3.174999999999999
 49
-3.174999999999999
 49
3.174999999999999
 49
-3.174999999999999
  0
LTYPE
  2
CENTER2
 70
     0
  3
Center (.5x) ___ _ ___ _ ___ _ ___ _ ___ _ ___
 72
    65
 73
     4
 40
28.575
 49
19.05
 49
-3.174999999999999
 49
3.174999999999999
 49
-3.174999999999999
  0
ENDTAB
  0
TABLE
  2
LAYER
 70
    12
  0
LAYER
  2
0
 70
     0
 62
     7
  6
CONTINUOUS
  0
LAYER
  2
DEFPOINTS
 70
     0
 62
     7
  6
CONTINUOUS
  0
LAYER
  2
回12-寸法
 70
     0
 62
     7
  6
CONTINUOUS
  0
LAYER
  2
回10-ﾃｰﾙ
 70
     0
 62
     7
  6
CONTINUOUS
  0
LAYER
  2
回13-記事
 70
     0
 62
     7
  6
CONTINUOUS
  0
LAYER
  2
回08-GPDL
 70
     0
 62
     7
  6
CONTINUOUS
  0
LAYER
  2
回02-G外
 70
     0
 62
     7
  6
CONTINUOUS
  0
LAYER
  2
回06-GER
 70
     0
 62
     7
  6
CONTINUOUS
  0
LAYER
  2
回90-枠2
 70
     0
 62
     7
  6
CONTINUOUS
  0
LAYER
  2
回11-記事
 70
     0
 62
     7
  6
CONTINUOUS
  0
LAYER
  2
回91-枠英1
 70
     0
 62
     7
  6
CONTINUOUS
  0
LAYER
  2
回03-記事
 70
     0
 62
     7
  6
CONTINUOUS
  0
ENDTAB
  0
TABLE
  2
STYLE
 70
     2
  0
STYLE
  2
STANDARD
 70
     0
 40
4.0
 41
1.0
 50
0.0
 71
     0
 42
4.0
  3
isocp.shx
  4
bigfont.shx
  0
STYLE
  2
2MM
 70
     0
 40
3.0
 41
1.0
 50
0.0
 71
     0
 42
3.0
  3
isocp.shx
  4
bigfont.shx
  0
ENDTAB
  0
TABLE
  2
VIEW
 70
     0
  0
ENDTAB
  0
TABLE
  2
UCS
 70
     0
  0
ENDTAB
  0
TABLE
  2
APPID
 70
     5
  0
APPID
  2
ACAD
 70
     0
  0
APPID
  2
ACAD_PSEXT
 70
     0
  0
APPID
  2
ACAECLAYERSTANDARD
 70
     0
  0
APPID
  2
ACADSTRINGINFO
 70
     0
  0
APPID
  2
ACAD_NAV_VCDISPLAY
 70
     0
  0
ENDTAB
  0
TABLE
  2
DIMSTYLE
 70
     2
  0
DIMSTYLE
  2
DMC
 70
     0
  3

  4

  5
OPEN
  6

  7

 40
1.0
 41
2.0
 42
0.0
 43
0.0
 44
1.0
 45
0.0
 46
0.0
 47
0.0
 48
0.0
140
3.0
141
2.0
142
0.0
143
0.03937007874016
144
1.0
145
0.0
146
0.7
147
0.5
 71
     0
 72
     0
 73
     0
 74
     0
 75
     0
 76
     0
 77
     3
 78
     8
170
     0
171
     3
172
     1
173
     0
174
     0
175
     0
176
     5
177
     5
178
     5
  0
DIMSTYLE
  2
2MM
 70
     0
  3

  4

  5
OPEN
  6

  7

 40
1.0
 41
2.0
 42
0.0
 43
0.0
 44
1.0
 45
0.0
 46
0.0
 47
0.0
 48
0.0
140
2.0
141
2.0
142
0.0
143
0.03937007874016
144
1.0
145
0.0
146
0.7
147
0.5
 71
     0
 72
     0
 73
     0
 74
     0
 75
     0
 76
     0
 77
     3
 78
     8
170
     0
171
     3
172
     1
173
     0
174
     0
175
     0
176
     5
177
     5
178
     5
  0
ENDTAB
  0
ENDSEC
  0
SECTION
  2
BLOCKS
  0
BLOCK
  8
0
  2
$MODEL_SPACE
 70
     0
 10
0.0
 20
0.0
 30
0.0
  3
$MODEL_SPACE
  1

  0
ENDBLK
  8
0
  5
25
  0
BLOCK
 67
     1
  8
0
  2
$PAPER_SPACE
 70
     0
 10
0.0
 20
0.0
 30
0.0
  3
$PAPER_SPACE
  1

  0
ENDBLK
  5
2E
 67
     1
  8
0
  0
BLOCK
  8
0
  2
_OPEN
 70
     0
 10
0.0
 20
0.0
 30
0.0
  3
_OPEN
  1

  0
LINE
  5
18
  8
0
  6
CONTINUOUS
 62
     0
 10
-1.0
 20
0.1666666666666666
 30
0.0
 11
0.0
 21
0.0
 31
0.0
  0
LINE
  5
19
  8
0
  6
CONTINUOUS
 62
     0
 10
-1.0
 20
-0.1666666666666666
 30
0.0
 11
0.0
 21
0.0
 31
0.0
  0
LINE
  5
1A
  8
0
  6
CONTINUOUS
 62
     0
 10
0.0
 20
0.0
 30
0.0
 11
-1.0
 21
0.0
 31
0.0
  0
ENDBLK
  5
1B
  8
0
  0
BLOCK
  8
0
  2
*D1
 70
     1
 10
0.0
 20
0.0
 30
0.0
  3
*D1
  1

  0
LINE
  5
207
  8
回12-寸法
 62
     5
 10
-701.1176066872553
 20
163.1685857424654
 30
0.0
 11
-701.1176066872553
 21
196.5765470613958
 31
0.0
  0
LINE
  5
208
  8
回12-寸法
 62
     5
 10
-717.6276066872553
 20
174.5985857424654
 30
0.0
 11
-717.6276066872553
 21
196.5765470613958
 31
0.0
  0
LINE
  5
209
  8
回12-寸法
 62
     5
 10
-699.1176066872553
 20
195.5765470613958
 30
0.0
 11
-697.1176066872553
 21
195.5765470613958
 31
0.0
  0
LINE
  5
20A
  8
回12-寸法
 62
     5
 10
-719.6276066872553
 20
195.5765470613958
 30
0.0
 11
-745.7252444825309
 21
195.5765470613958
 31
0.0
  0
LINE
  5
20B
  8
回12-寸法
 62
     5
 10
-701.1176066872553
 20
195.5765470613958
 30
0.0
 11
-717.6276066872553
 21
195.5765470613958
 31
0.0
  0
INSERT
  5
20C
  8
回12-寸法
 62
     5
  2
_OPEN
 10
-701.1176066872553
 20
195.5765470613958
 30
0.0
 41
2.0
 42
2.0
 43
2.0
 50
180.0
  0
INSERT
  5
20D
  8
回12-寸法
 62
     5
  2
_OPEN
 10
-717.6276066872553
 20
195.5765470613958
 30
0.0
 41
2.0
 42
2.0
 43
2.0
  0
TEXT
  5
20E
  8
回12-寸法
 62
     5
 10
-745.6764255848931
 20
196.2265470613958
 30
0.0
 40
3.0
  1
(16.51 [0.650])
  7
2MM
1001
ACAD
1000
MTEXTBEGIN
1070
    73
1070
     1
1070
    44
1040
1.0
1070
    74
1070
     0
1000
MTEXTEND
  0
POINT
  5
20F
  8
DEFPOINTS
 62
     0
 10
-701.1176066872553
 20
163.1685857424654
 30
0.0
  0
POINT
  5
210
  8
DEFPOINTS
 62
     0
 10
-717.6276066872553
 20
174.5985857424654
 30
0.0
  0
POINT
  5
211
  8
DEFPOINTS
 62
     0
 10
-717.6276066872553
 20
195.5765470613958
 30
0.0
  0
ENDBLK
  5
212
  8
0
 62
     5
  0
BLOCK
  8
0
  2
*D2
 70
     1
 10
0.0
 20
0.0
 30
0.0
  3
*D2
  1

  0
LINE
  5
1FA
  8
回12-寸法
 62
     5
 10
-701.1176066872553
 20
163.1685857424654
 30
0.0
 11
-701.1176066872553
 21
196.5765470613958
 31
0.0
  0
LINE
  5
1FB
  8
回12-寸法
 62
     5
 10
-485.2176066872555
 20
163.1685857424654
 30
0.0
 11
-485.2176066872555
 21
196.5765470613958
 31
0.0
  0
LINE
  5
1FC
  8
回12-寸法
 62
     5
 10
-699.1176066872553
 20
195.5765470613958
 30
0.0
 11
-487.2176066872555
 21
195.5765470613958
 31
0.0
  0
INSERT
  5
1FD
  8
回12-寸法
 62
     5
  2
_OPEN
 10
-701.1176066872553
 20
195.5765470613958
 30
0.0
 41
2.0
 42
2.0
 43
2.0
 50
180.0
  0
INSERT
  5
1FE
  8
回12-寸法
 62
     5
  2
_OPEN
 10
-485.2176066872555
 20
195.5765470613958
 30
0.0
 41
2.0
 42
2.0
 43
2.0
  0
TEXT
  5
1FF
  8
回12-寸法
 62
     5
 10
-618.6724316888649
 20
196.2265470613958
 30
0.0
 40
3.0
  1
215.9 [8.500] (ACTIVE AREA)
  7
2MM
1001
ACAD
1000
MTEXTBEGIN
1070
    73
1070
     1
1070
    44
1040
1.0
1070
    74
1070
     0
1000
MTEXTEND
  0
POINT
  5
200
  8
DEFPOINTS
 62
     0
 10
-701.1176066872553
 20
163.1685857424654
 30
0.0
  0
POINT
  5
201
  8
DEFPOINTS
 62
     0
 10
-485.2176066872555
 20
163.1685857424654
 30
0.0
  0
POINT
  5
202
  8
DEFPOINTS
 62
     0
 10
-485.2176066872555
 20
195.5765470613958
 30
0.0
  0
ENDBLK
  5
203
  8
0
 62
     5
  0
BLOCK
  8
0
  2
*D3
 70
     1
 10
0.0
 20
0.0
 30
0.0
  3
*D3
  1

  0
LINE
  5
1EB
  8
回12-寸法
 62
     5
 10
-702.2176066872555
 20
164.2685857424653
 30
0.0
 11
-702.2176066872555
 21
206.5466286795484
 31
0.0
  0
LINE
  5
1EC
  8
回12-寸法
 62
     5
 10
-717.6276066872553
 20
174.5985857424654
 30
0.0
 11
-717.6276066872553
 21
206.5466286795484
 31
0.0
  0
LINE
  5
1ED
  8
回12-寸法
 62
     5
 10
-700.2176066872555
 20
205.5466286795483
 30
0.0
 11
-698.2176066872555
 21
205.5466286795483
 31
0.0
  0
LINE
  5
1EE
  8
回12-寸法
 62
     5
 10
-719.6276066872553
 20
205.5466286795483
 30
0.0
 11
-743.6276066872554
 21
205.5466286795483
 31
0.0
  0
LINE
  5
1EF
  8
回12-寸法
 62
     5
 10
-702.2176066872555
 20
205.5466286795483
 30
0.0
 11
-717.6276066872553
 21
205.5466286795483
 31
0.0
  0
INSERT
  5
1F0
  8
回12-寸法
 62
     5
  2
_OPEN
 10
-702.2176066872555
 20
205.5466286795483
 30
0.0
 41
2.0
 42
2.0
 43
2.0
 50
180.0
  0
INSERT
  5
1F1
  8
回12-寸法
 62
     5
  2
_OPEN
 10
-717.6276066872553
 20
205.5466286795483
 30
0.0
 41
2.0
 42
2.0
 43
2.0
  0
TEXT
  5
1F2
  8
回12-寸法
 62
     5
 10
-743.5776066872554
 20
206.1966286795484
 30
0.0
 40
3.0
  1
15.41 [0.607]
  7
2MM
1001
ACAD
1000
MTEXTBEGIN
1070
    73
1070
     1
1070
    44
1040
1.0
1070
    74
1070
     0
1000
MTEXTEND
  0
POINT
  5
1F3
  8
DEFPOINTS
 62
     0
 10
-702.2176066872555
 20
164.2685857424653
 30
0.0
  0
POINT
  5
1F4
  8
DEFPOINTS
 62
     0
 10
-717.6276066872553
 20
174.5985857424654
 30
0.0
  0
POINT
  5
1F5
  8
DEFPOINTS
 62
     0
 10
-717.6276066872553
 20
205.5466286795483
 30
0.0
  0
ENDBLK
  5
1F6
  8
0
 62
     5
  0
BLOCK
  8
0
  2
*D4
 70
     1
 10
0.0
 20
0.0
 30
0.0
  3
*D4
  1

  0
LINE
  5
1DD
  8
回12-寸法
 62
     5
 10
-717.6276066872553
 20
174.5985857424654
 30
0.0
 11
-717.6276066872553
 21
216.8403803793901
 31
0.0
  0
LINE
  5
1DE
  8
回12-寸法
 62
     5
 10
-468.7076066872555
 20
174.5985857424654
 30
0.0
 11
-468.7076066872555
 21
216.8403803793901
 31
0.0
  0
LINE
  5
1DF
  8
回12-寸法
 62
     5
 10
-715.6276066872553
 20
215.8403803793901
 30
0.0
 11
-470.7076066872555
 21
215.8403803793901
 31
0.0
  0
INSERT
  5
1E0
  8
回12-寸法
 62
     5
  2
_OPEN
 10
-717.6276066872553
 20
215.8403803793901
 30
0.0
 41
2.0
 42
2.0
 43
2.0
 50
180.0
  0
INSERT
  5
1E1
  8
回12-寸法
 62
     5
  2
_OPEN
 10
-468.7076066872555
 20
215.8403803793901
 30
0.0
 41
2.0
 42
2.0
 43
2.0
  0
INSERT
  5
1E2
  8
回12-寸法
 62
     5
 66
     1
  2
*X30
 10
0.0
 20
0.0
 30
0.0
  0
SEQEND
  5
38D
  8
回06-GER
 62
     5
  0
POINT
  5
1E3
  8
DEFPOINTS
 62
     0
 10
-717.6276066872553
 20
174.5985857424654
 30
0.0
  0
POINT
  5
1E4
  8
DEFPOINTS
 62
     0
 10
-468.7076066872555
 20
174.5985857424654
 30
0.0
  0
POINT
  5
1E5
  8
DEFPOINTS
 62
     0
 10
-468.7076066872555
 20
215.8403803793901
 30
0.0
  0
ENDBLK
  5
1E6
  8
0
 62
     5
  0
BLOCK
  8
0
  2
*D5
 70
     1
 10
0.0
 20
0.0
 30
0.0
  3
*D5
  1

  0
LINE
  5
1CE
  8
回12-寸法
 62
     5
 10
-485.2176066872555
 20
163.1685857424654
 30
0.0
 11
-485.2176066872555
 21
196.5765470613958
 31
0.0
  0
LINE
  5
1CF
  8
回12-寸法
 62
     5
 10
-468.7076066872555
 20
174.5985857424654
 30
0.0
 11
-468.7076066872555
 21
196.5765470613958
 31
0.0
  0
LINE
  5
1D0
  8
回12-寸法
 62
     5
 10
-487.2176066872555
 20
195.5765470613958
 30
0.0
 11
-489.2176066872555
 21
195.5765470613958
 31
0.0
  0
LINE
  5
1D1
  8
回12-寸法
 62
     5
 10
-466.7076066872555
 20
195.5765470613958
 30
0.0
 11
-443.0076066872555
 21
195.5765470613958
 31
0.0
  0
LINE
  5
1D2
  8
回12-寸法
 62
     5
 10
-485.2176066872555
 20
195.5765470613958
 30
0.0
 11
-468.7076066872555
 21
195.5765470613958
 31
0.0
  0
INSERT
  5
1D3
  8
回12-寸法
 62
     5
  2
_OPEN
 10
-485.2176066872555
 20
195.5765470613958
 30
0.0
 41
2.0
 42
2.0
 43
2.0
  0
INSERT
  5
1D4
  8
回12-寸法
 62
     5
  2
_OPEN
 10
-468.7076066872555
 20
195.5765470613958
 30
0.0
 41
2.0
 42
2.0
 43
2.0
 50
180.0
  0
TEXT
  5
1D5
  8
回12-寸法
 62
     5
 10
-464.6576066872555
 20
196.2265470613958
 30
0.0
 40
3.0
  1
16.51 [0.650]
  7
2MM
1001
ACAD
1000
MTEXTBEGIN
1070
    73
1070
     1
1070
    44
1040
1.0
1070
    74
1070
     0
1000
MTEXTEND
  0
POINT
  5
1D6
  8
DEFPOINTS
 62
     0
 10
-485.2176066872555
 20
163.1685857424654
 30
0.0
  0
POINT
  5
1D7
  8
DEFPOINTS
 62
     0
 10
-468.7076066872555
 20
174.5985857424654
 30
0.0
  0
POINT
  5
1D8
  8
DEFPOINTS
 62
     0
 10
-468.7076066872555
 20
195.5765470613958
 30
0.0
  0
ENDBLK
  5
1D9
  8
0
 62
     5
  0
BLOCK
  8
0
  2
*D6
 70
     1
 10
0.0
 20
0.0
 30
0.0
  3
*D6
  1

  0
LINE
  5
1BF
  8
回12-寸法
 62
     5
 10
-484.1176066872556
 20
164.2685857424653
 30
0.0
 11
-484.1176066872556
 21
206.5466286795484
 31
0.0
  0
LINE
  5
1C0
  8
回12-寸法
 62
     5
 10
-468.7076066872555
 20
174.5985857424654
 30
0.0
 11
-468.7076066872555
 21
206.5466286795484
 31
0.0
  0
LINE
  5
1C1
  8
回12-寸法
 62
     5
 10
-486.1176066872555
 20
205.5466286795483
 30
0.0
 11
-488.1176066872556
 21
205.5466286795483
 31
0.0
  0
LINE
  5
1C2
  8
回12-寸法
 62
     5
 10
-466.7076066872555
 20
205.5466286795483
 30
0.0
 11
-442.7076066872555
 21
205.5466286795483
 31
0.0
  0
LINE
  5
1C3
  8
回12-寸法
 62
     5
 10
-484.1176066872556
 20
205.5466286795483
 30
0.0
 11
-468.7076066872555
 21
205.5466286795483
 31
0.0
  0
INSERT
  5
1C4
  8
回12-寸法
 62
     5
  2
_OPEN
 10
-484.1176066872556
 20
205.5466286795483
 30
0.0
 41
2.0
 42
2.0
 43
2.0
  0
INSERT
  5
1C5
  8
回12-寸法
 62
     5
  2
_OPEN
 10
-468.7076066872555
 20
205.5466286795483
 30
0.0
 41
2.0
 42
2.0
 43
2.0
 50
180.0
  0
TEXT
  5
1C6
  8
回12-寸法
 62
     5
 10
-464.6576066872555
 20
206.1966286795484
 30
0.0
 40
3.0
  1
15.41 [0.607]
  7
2MM
1001
ACAD
1000
MTEXTBEGIN
1070
    73
1070
     1
1070
    44
1040
1.0
1070
    74
1070
     0
1000
MTEXTEND
  0
POINT
  5
1C7
  8
DEFPOINTS
 62
     0
 10
-484.1176066872556
 20
164.2685857424653
 30
0.0
  0
POINT
  5
1C8
  8
DEFPOINTS
 62
     0
 10
-468.7076066872555
 20
174.5985857424654
 30
0.0
  0
POINT
  5
1C9
  8
DEFPOINTS
 62
     0
 10
-468.7076066872555
 20
205.5466286795483
 30
0.0
  0
ENDBLK
  5
1CA
  8
0
 62
     5
  0
BLOCK
  8
0
  2
*D7
 70
     1
 10
0.0
 20
0.0
 30
0.0
  3
*D7
  1

  0
LINE
  5
1B2
  8
回12-寸法
 62
     5
 10
-827.6276066872556
 20
87.52738574246519
 30
0.0
 11
-827.6276066872556
 21
106.5912460652118
 31
0.0
  0
LINE
  5
1B3
  8
回12-寸法
 62
     5
 10
-717.6276066872553
 20
89.55071008693312
 30
0.0
 11
-717.6276066872553
 21
106.5912460652118
 31
0.0
  0
LINE
  5
1B4
  8
回12-寸法
 62
     5
 10
-825.6276066872555
 20
105.5912460652118
 30
0.0
 11
-719.6276066872553
 21
105.5912460652118
 31
0.0
  0
INSERT
  5
1B5
  8
回12-寸法
 62
     5
  2
_OPEN
 10
-827.6276066872556
 20
105.5912460652118
 30
0.0
 41
2.0
 42
2.0
 43
2.0
 50
180.0
  0
INSERT
  5
1B6
  8
回12-寸法
 62
     5
  2
_OPEN
 10
-717.6276066872553
 20
105.5912460652118
 30
0.0
 41
2.0
 42
2.0
 43
2.0
  0
INSERT
  5
1B7
  8
回12-寸法
 62
     5
 66
     1
  2
*X31
 10
0.0
 20
0.0
 30
0.0
  0
SEQEND
  5
396
  8
回06-GER
 62
     5
  0
POINT
  5
1B8
  8
DEFPOINTS
 62
     0
 10
-827.6276066872556
 20
87.52738574246519
 30
0.0
  0
POINT
  5
1B9
  8
DEFPOINTS
 62
     0
 10
-717.6276066872553
 20
89.55071008693312
 30
0.0
  0
POINT
  5
1BA
  8
DEFPOINTS
 62
     0
 10
-717.6276066872553
 20
105.5912460652118
 30
0.0
  0
ENDBLK
  5
1BB
  8
0
 62
     5
  0
BLOCK
  8
0
  2
*D8
 70
     1
 10
0.0
 20
0.0
 30
0.0
  3
*D8
  1

  0
LINE
  5
1A3
  8
回12-寸法
 62
     5
 10
-818.8726066872554
 20
88.87358574246524
 30
0.0
 11
-838.5248560162606
 21
88.87358574246524
 31
0.0
  0
LINE
  5
1A4
  8
回12-寸法
 62
     5
 10
-818.8726066872554
 20
73.63358574246524
 30
0.0
 11
-838.5248560162606
 21
73.63358574246524
 31
0.0
  0
LINE
  5
1A5
  8
回12-寸法
 62
     5
 10
-837.5248560162606
 20
90.87358574246525
 30
0.0
 11
-837.5248560162606
 21
92.87358574246525
 31
0.0
  0
LINE
  5
1A6
  8
回12-寸法
 62
     5
 10
-837.5248560162606
 20
71.63358574246524
 30
0.0
 11
-837.5248560162606
 21
34.01358574246525
 31
0.0
  0
LINE
  5
1A7
  8
回12-寸法
 62
     5
 10
-837.5248560162606
 20
88.87358574246524
 30
0.0
 11
-837.5248560162606
 21
73.63358574246524
 31
0.0
  0
INSERT
  5
1A8
  8
回12-寸法
 62
     5
  2
_OPEN
 10
-837.5248560162606
 20
88.87358574246524
 30
0.0
 41
2.0
 42
2.0
 43
2.0
 50
270.0
  0
INSERT
  5
1A9
  8
回12-寸法
 62
     5
  2
_OPEN
 10
-837.5248560162606
 20
73.63358574246524
 30
0.0
 41
2.0
 42
2.0
 43
2.0
 50
90.0
  0
INSERT
  5
1AA
  8
回12-寸法
 62
     5
 66
     1
  2
*X32
 10
0.0
 20
0.0
 30
0.0
  0
SEQEND
  5
39F
  8
回06-GER
 62
     5
  0
POINT
  5
1AB
  8
DEFPOINTS
 62
     0
 10
-818.8726066872554
 20
88.87358574246524
 30
0.0
  0
POINT
  5
1AC
  8
DEFPOINTS
 62
     0
 10
-818.8726066872554
 20
73.63358574246524
 30
0.0
  0
POINT
  5
1AD
  8
DEFPOINTS
 62
     0
 10
-837.5248560162606
 20
73.63358574246524
 30
0.0
  0
ENDBLK
  5
1AE
  8
0
 62
     5
  0
BLOCK
  8
0
  2
*D9
 70
     1
 10
0.0
 20
0.0
 30
0.0
  3
*D9
  1

  0
LINE
  5
194
  8
回12-寸法
 62
     5
 10
-485.2176066872555
 20
163.1685857424654
 30
0.0
 11
-435.7830013487426
 21
163.1685857424654
 31
0.0
  0
LINE
  5
195
  8
回12-寸法
 62
     5
 10
-468.7076066872555
 20
174.5985857424654
 30
0.0
 11
-435.7830013487426
 21
174.5985857424654
 31
0.0
  0
LINE
  5
196
  8
回12-寸法
 62
     5
 10
-436.7830013487425
 20
161.1685857424654
 30
0.0
 11
-436.7830013487425
 21
159.1685857424654
 31
0.0
  0
LINE
  5
197
  8
回12-寸法
 62
     5
 10
-436.7830013487425
 20
176.5985857424653
 30
0.0
 11
-436.7830013487425
 21
203.2962235377409
 31
0.0
  0
LINE
  5
198
  8
回12-寸法
 62
     5
 10
-436.7830013487425
 20
163.1685857424654
 30
0.0
 11
-436.7830013487425
 21
174.5985857424653
 31
0.0
  0
INSERT
  5
199
  8
回12-寸法
 62
     5
  2
_OPEN
 10
-436.7830013487425
 20
163.1685857424654
 30
0.0
 41
2.0
 42
2.0
 43
2.0
 50
90.0
  0
INSERT
  5
19A
  8
回12-寸法
 62
     5
  2
_OPEN
 10
-436.7830013487425
 20
174.5985857424653
 30
0.0
 41
2.0
 42
2.0
 43
2.0
 50
270.0
  0
TEXT
  5
19B
  8
回12-寸法
 62
     5
 10
-437.4330013487425
 20
178.6474046401031
 30
0.0
 40
3.0
  1
(11.43 [0.450])
 50
90.0
  7
2MM
1001
ACAD
1000
MTEXTBEGIN
1070
    73
1070
     1
1070
    44
1040
1.0
1070
    74
1070
     0
1000
MTEXTEND
  0
POINT
  5
19C
  8
DEFPOINTS
 62
     0
 10
-485.2176066872555
 20
163.1685857424654
 30
0.0
  0
POINT
  5
19D
  8
DEFPOINTS
 62
     0
 10
-468.7076066872555
 20
174.5985857424654
 30
0.0
  0
POINT
  5
19E
  8
DEFPOINTS
 62
     0
 10
-436.7830013487425
 20
174.5985857424653
 30
0.0
  0
ENDBLK
  5
19F
  8
0
 62
     5
  0
BLOCK
  8
0
  2
*D10
 70
     1
 10
0.0
 20
0.0
 30
0.0
  3
*D10
  1

  0
LINE
  5
185
  8
回12-寸法
 62
     5
 10
-484.1176066872556
 20
164.2685857424653
 30
0.0
 11
-423.6332774707723
 21
164.2685857424653
 31
0.0
  0
LINE
  5
186
  8
回12-寸法
 62
     5
 10
-468.7076066872555
 20
174.5985857424654
 30
0.0
 11
-423.6332774707723
 21
174.5985857424654
 31
0.0
  0
LINE
  5
187
  8
回12-寸法
 62
     5
 10
-424.6332774707723
 20
162.2685857424653
 30
0.0
 11
-424.6332774707723
 21
160.2685857424653
 31
0.0
  0
LINE
  5
188
  8
回12-寸法
 62
     5
 10
-424.6332774707723
 20
176.5985857424653
 30
0.0
 11
-424.6332774707723
 21
201.1985857424654
 31
0.0
  0
LINE
  5
189
  8
回12-寸法
 62
     5
 10
-424.6332774707723
 20
164.2685857424653
 30
0.0
 11
-424.6332774707723
 21
174.5985857424653
 31
0.0
  0
INSERT
  5
18A
  8
回12-寸法
 62
     5
  2
_OPEN
 10
-424.6332774707723
 20
164.2685857424653
 30
0.0
 41
2.0
 42
2.0
 43
2.0
 50
90.0
  0
INSERT
  5
18B
  8
回12-寸法
 62
     5
  2
_OPEN
 10
-424.6332774707723
 20
174.5985857424653
 30
0.0
 41
2.0
 42
2.0
 43
2.0
 50
270.0
  0
TEXT
  5
18C
  8
回12-寸法
 62
     5
 10
-425.2832774707723
 20
178.6485857424653
 30
0.0
 40
3.0
  1
10.33 [0.407]
 50
90.0
  7
2MM
1001
ACAD
1000
MTEXTBEGIN
1070
    73
1070
     1
1070
    44
1040
1.0
1070
    74
1070
     0
1000
MTEXTEND
  0
POINT
  5
18D
  8
DEFPOINTS
 62
     0
 10
-484.1176066872556
 20
164.2685857424653
 30
0.0
  0
POINT
  5
18E
  8
DEFPOINTS
 62
     0
 10
-468.7076066872555
 20
174.5985857424654
 30
0.0
  0
POINT
  5
18F
  8
DEFPOINTS
 62
     0
 10
-424.6332774707723
 20
174.5985857424653
 30
0.0
  0
ENDBLK
  5
190
  8
0
 62
     5
  0
BLOCK
  8
0
  2
*D11
 70
     1
 10
0.0
 20
0.0
 30
0.0
  3
*D11
  1

  0
LINE
  5
176
  8
回12-寸法
 62
     5
 10
-484.1176066872556
 20
-1.761414257534624
 30
0.0
 11
-423.6332774707723
 21
-1.761414257534624
 31
0.0
  0
LINE
  5
177
  8
回12-寸法
 62
     5
 10
-468.7076066872555
 20
-12.09141425753466
 30
0.0
 11
-423.6332774707723
 21
-12.09141425753466
 31
0.0
  0
LINE
  5
178
  8
回12-寸法
 62
     5
 10
-424.6332774707723
 20
0.2385857424653583
 30
0.0
 11
-424.6332774707723
 21
2.238585742465358
 31
0.0
  0
LINE
  5
179
  8
回12-寸法
 62
     5
 10
-424.6332774707723
 20
-14.09141425753468
 30
0.0
 11
-424.6332774707723
 21
-38.69141425753468
 31
0.0
  0
LINE
  5
17A
  8
回12-寸法
 62
     5
 10
-424.6332774707723
 20
-1.761414257534641
 30
0.0
 11
-424.6332774707723
 21
-12.09141425753468
 31
0.0
  0
INSERT
  5
17B
  8
回12-寸法
 62
     5
  2
_OPEN
 10
-424.6332774707723
 20
-1.761414257534641
 30
0.0
 41
2.0
 42
2.0
 43
2.0
 50
270.0
  0
INSERT
  5
17C
  8
回12-寸法
 62
     5
  2
_OPEN
 10
-424.6332774707723
 20
-12.09141425753468
 30
0.0
 41
2.0
 42
2.0
 43
2.0
 50
90.0
  0
TEXT
  5
17D
  8
回12-寸法
 62
     5
 10
-425.2832774707723
 20
-38.64141425753473
 30
0.0
 40
3.0
  1
10.33 [0.407]
 50
90.0
  7
2MM
1001
ACAD
1000
MTEXTBEGIN
1070
    73
1070
     1
1070
    44
1040
1.0
1070
    74
1070
     0
1000
MTEXTEND
  0
POINT
  5
17E
  8
DEFPOINTS
 62
     0
 10
-484.1176066872556
 20
-1.761414257534624
 30
0.0
  0
POINT
  5
17F
  8
DEFPOINTS
 62
     0
 10
-468.7076066872555
 20
-12.09141425753466
 30
0.0
  0
POINT
  5
180
  8
DEFPOINTS
 62
     0
 10
-424.6332774707723
 20
-12.09141425753468
 30
0.0
  0
ENDBLK
  5
181
  8
0
 62
     5
  0
BLOCK
  8
0
  2
*D12
 70
     1
 10
0.0
 20
0.0
 30
0.0
  3
*D12
  1

  0
LINE
  5
169
  8
回12-寸法
 62
     5
 10
-485.2176066872555
 20
163.1685857424654
 30
0.0
 11
-435.7830013487425
 21
163.1685857424654
 31
0.0
  0
LINE
  5
16A
  8
回12-寸法
 62
     5
 10
-485.2176066872555
 20
-0.661414257534716
 30
0.0
 11
-435.7830013487426
 21
-0.661414257534716
 31
0.0
  0
LINE
  5
16B
  8
回12-寸法
 62
     5
 10
-436.7830013487425
 20
161.1685857424654
 30
0.0
 11
-436.7830013487425
 21
1.33858574246527
 31
0.0
  0
INSERT
  5
16C
  8
回12-寸法
 62
     5
  2
_OPEN
 10
-436.7830013487425
 20
163.1685857424654
 30
0.0
 41
2.0
 42
2.0
 43
2.0
 50
90.0
  0
INSERT
  5
16D
  8
回12-寸法
 62
     5
  2
_OPEN
 10
-436.7830013487425
 20
-0.6614142575347297
 30
0.0
 41
2.0
 42
2.0
 43
2.0
 50
270.0
  0
TEXT
  5
16E
  8
回12-寸法
 62
     5
 10
-437.4330013487425
 20
54.55417629364649
 30
0.0
 40
3.0
  1
163.83 [6.450] (ACTIVE AREA)
 50
90.0
  7
2MM
1001
ACAD
1000
MTEXTBEGIN
1070
    73
1070
     1
1070
    44
1040
1.0
1070
    74
1070
     0
1000
MTEXTEND
  0
POINT
  5
16F
  8
DEFPOINTS
 62
     0
 10
-485.2176066872555
 20
163.1685857424654
 30
0.0
  0
POINT
  5
170
  8
DEFPOINTS
 62
     0
 10
-485.2176066872555
 20
-0.661414257534716
 30
0.0
  0
POINT
  5
171
  8
DEFPOINTS
 62
     0
 10
-436.7830013487425
 20
-0.6614142575347297
 30
0.0
  0
ENDBLK
  5
172
  8
0
 62
     5
  0
BLOCK
  8
0
  2
*D13
 70
     1
 10
0.0
 20
0.0
 30
0.0
  3
*D13
  1

  0
LINE
  5
15C
  8
回12-寸法
 62
     5
 10
-468.7076066872555
 20
-12.09141425753466
 30
0.0
 11
-413.3104883925577
 21
-12.09141425753466
 31
0.0
  0
LINE
  5
15D
  8
回12-寸法
 62
     5
 10
-468.7076066872555
 20
174.5985857424654
 30
0.0
 11
-413.3104883925577
 21
174.5985857424654
 31
0.0
  0
LINE
  5
15E
  8
回12-寸法
 62
     5
 10
-414.3104883925578
 20
-10.09141425753468
 30
0.0
 11
-414.3104883925578
 21
172.5985857424653
 31
0.0
  0
INSERT
  5
15F
  8
回12-寸法
 62
     5
  2
_OPEN
 10
-414.3104883925578
 20
-12.09141425753468
 30
0.0
 41
2.0
 42
2.0
 43
2.0
 50
270.0
  0
INSERT
  5
160
  8
回12-寸法
 62
     5
  2
_OPEN
 10
-414.3104883925577
 20
174.5985857424653
 30
0.0
 41
2.0
 42
2.0
 43
2.0
 50
90.0
  0
INSERT
  5
161
  8
回12-寸法
 62
     5
 66
     1
  2
*X33
 10
0.0
 20
0.0
 30
0.0
  0
SEQEND
  5
3A8
  8
回06-GER
 62
     5
  0
POINT
  5
162
  8
DEFPOINTS
 62
     0
 10
-468.7076066872555
 20
-12.09141425753466
 30
0.0
  0
POINT
  5
163
  8
DEFPOINTS
 62
     0
 10
-468.7076066872555
 20
174.5985857424654
 30
0.0
  0
POINT
  5
164
  8
DEFPOINTS
 62
     0
 10
-414.3104883925577
 20
174.5985857424653
 30
0.0
  0
ENDBLK
  5
165
  8
0
 62
     5
  0
BLOCK
  8
0
  2
*D14
 70
     1
 10
0.0
 20
0.0
 30
0.0
  3
*D14
  1

  0
LINE
  5
14D
  8
回12-寸法
 62
     5
 10
-485.2176066872555
 20
-0.661414257534716
 30
0.0
 11
-435.7830013487426
 21
-0.661414257534716
 31
0.0
  0
LINE
  5
14E
  8
回12-寸法
 62
     5
 10
-468.7076066872555
 20
-12.09141425753466
 30
0.0
 11
-435.7830013487426
 21
-12.09141425753466
 31
0.0
  0
LINE
  5
14F
  8
回12-寸法
 62
     5
 10
-436.7830013487425
 20
1.33858574246527
 30
0.0
 11
-436.7830013487425
 21
3.33858574246527
 31
0.0
  0
LINE
  5
150
  8
回12-寸法
 62
     5
 10
-436.7830013487425
 20
-14.09141425753467
 30
0.0
 11
-436.7830013487425
 21
-38.39141425753466
 31
0.0
  0
LINE
  5
151
  8
回12-寸法
 62
     5
 10
-436.7830013487425
 20
-0.6614142575347297
 30
0.0
 11
-436.7830013487425
 21
-12.09141425753467
 31
0.0
  0
INSERT
  5
152
  8
回12-寸法
 62
     5
  2
_OPEN
 10
-436.7830013487425
 20
-0.6614142575347297
 30
0.0
 41
2.0
 42
2.0
 43
2.0
 50
270.0
  0
INSERT
  5
153
  8
回12-寸法
 62
     5
  2
_OPEN
 10
-436.7830013487425
 20
-12.09141425753467
 30
0.0
 41
2.0
 42
2.0
 43
2.0
 50
90.0
  0
TEXT
  5
154
  8
回12-寸法
 62
     5
 10
-437.4330013487425
 20
-38.34141425753472
 30
0.0
 40
3.0
  1
11.43 [0.450]
 50
90.0
  7
2MM
1001
ACAD
1000
MTEXTBEGIN
1070
    73
1070
     1
1070
    44
1040
1.0
1070
    74
1070
     0
1000
MTEXTEND
  0
POINT
  5
155
  8
DEFPOINTS
 62
     0
 10
-485.2176066872555
 20
-0.661414257534716
 30
0.0
  0
POINT
  5
156
  8
DEFPOINTS
 62
     0
 10
-468.7076066872555
 20
-12.09141425753466
 30
0.0
  0
POINT
  5
157
  8
DEFPOINTS
 62
     0
 10
-436.7830013487425
 20
-12.09141425753467
 30
0.0
  0
ENDBLK
  5
158
  8
0
 62
     5
  0
BLOCK
  8
0
  2
*D15
 70
     1
 10
0.0
 20
0.0
 30
0.0
  3
*D15
  1

  0
LINE
  5
13E
  8
回12-寸法
 62
     5
 10
-469.2076066872557
 20
-62.04089286472231
 30
0.0
 11
-469.2076066872557
 21
-54.92621489648922
 31
0.0
  0
LINE
  5
13F
  8
回12-寸法
 62
     5
 10
-468.7076066872557
 20
-64.54831988061664
 30
0.0
 11
-468.7076066872557
 21
-54.92621489648922
 31
0.0
  0
LINE
  5
140
  8
回12-寸法
 62
     5
 10
-471.2076066872557
 20
-55.92621489648923
 30
0.0
 11
-473.2076066872557
 21
-55.92621489648923
 31
0.0
  0
LINE
  5
141
  8
回12-寸法
 62
     5
 10
-466.7076066872557
 20
-55.92621489648923
 30
0.0
 11
-443.6099688919801
 21
-55.92621489648923
 31
0.0
  0
LINE
  5
142
  8
回12-寸法
 62
     5
 10
-469.2076066872557
 20
-55.92621489648923
 30
0.0
 11
-468.7076066872557
 21
-55.92621489648923
 31
0.0
  0
INSERT
  5
143
  8
回12-寸法
 62
     5
  2
_OPEN
 10
-469.2076066872557
 20
-55.92621489648923
 30
0.0
 41
2.0
 42
2.0
 43
2.0
  0
INSERT
  5
144
  8
回12-寸法
 62
     5
  2
_OPEN
 10
-468.7076066872557
 20
-55.92621489648923
 30
0.0
 41
2.0
 42
2.0
 43
2.0
 50
180.0
  0
TEXT
  5
145
  8
回12-寸法
 62
     5
 10
-464.6587877896179
 20
-55.27621489648922
 30
0.0
 40
3.0
  1
(0.5 [0.020])
  7
2MM
1001
ACAD
1000
MTEXTBEGIN
1070
    73
1070
     1
1070
    44
1040
1.0
1070
    74
1070
     0
1000
MTEXTEND
  0
POINT
  5
146
  8
DEFPOINTS
 62
     0
 10
-469.2076066872557
 20
-62.04089286472231
 30
0.0
  0
POINT
  5
147
  8
DEFPOINTS
 62
     0
 10
-468.7076066872557
 20
-64.54831988061664
 30
0.0
  0
POINT
  5
148
  8
DEFPOINTS
 62
     0
 10
-468.7076066872557
 20
-55.92621489648923
 30
0.0
  0
ENDBLK
  5
149
  8
0
 62
     5
  0
BLOCK
  8
0
  2
*D16
 70
     1
 10
0.0
 20
0.0
 30
0.0
  3
*D16
  1

  0
LINE
  5
12F
  8
回12-寸法
 62
     5
 10
-469.2076066872557
 20
-62.04089286472231
 30
0.0
 11
-459.5358989274662
 21
-62.04089286472231
 31
0.0
  0
LINE
  5
130
  8
回12-寸法
 62
     5
 10
-468.7076066872555
 20
-67.76424387630425
 30
0.0
 11
-459.5358989274662
 21
-67.76424387630425
 31
0.0
  0
LINE
  5
131
  8
回12-寸法
 62
     5
 10
-460.5358989274662
 20
-60.04089286472232
 30
0.0
 11
-460.5358989274662
 21
-58.04089286472231
 31
0.0
  0
LINE
  5
132
  8
回12-寸法
 62
     5
 10
-460.5358989274662
 20
-69.76424387630425
 30
0.0
 11
-460.5358989274662
 21
-102.3410449786664
 31
0.0
  0
LINE
  5
133
  8
回12-寸法
 62
     5
 10
-460.5358989274662
 20
-62.04089286472232
 30
0.0
 11
-460.5358989274662
 21
-67.76424387630425
 31
0.0
  0
INSERT
  5
134
  8
回12-寸法
 62
     5
  2
_OPEN
 10
-460.5358989274662
 20
-62.04089286472232
 30
0.0
 41
2.0
 42
2.0
 43
2.0
 50
270.0
  0
INSERT
  5
135
  8
回12-寸法
 62
     5
  2
_OPEN
 10
-460.5358989274662
 20
-67.76424387630425
 30
0.0
 41
2.0
 42
2.0
 43
2.0
 50
90.0
  0
INSERT
  5
136
  8
回12-寸法
 62
     5
 66
     1
  2
*X34
 10
0.0
 20
0.0
 30
0.0
  0
SEQEND
  5
3B1
  8
回06-GER
 62
     5
  0
POINT
  5
137
  8
DEFPOINTS
 62
     0
 10
-469.2076066872557
 20
-62.04089286472231
 30
0.0
  0
POINT
  5
138
  8
DEFPOINTS
 62
     0
 10
-468.7076066872555
 20
-67.76424387630425
 30
0.0
  0
POINT
  5
139
  8
DEFPOINTS
 62
     0
 10
-460.5358989274662
 20
-67.76424387630425
 30
0.0
  0
ENDBLK
  5
13A
  8
0
 62
     5
  0
BLOCK
  8
0
  2
*D17
 70
     1
 10
0.0
 20
0.0
 30
0.0
  3
*D17
  1

  0
LINE
  5
119
  8
回12-寸法
 62
     5
 10
-702.2176066872555
 20
164.2685857424653
 30
0.0
 11
-702.2176066872555
 21
206.5466286795484
 31
0.0
  0
LINE
  5
11A
  8
回12-寸法
 62
     5
 10
-484.1176066872556
 20
164.2685857424653
 30
0.0
 11
-484.1176066872556
 21
206.5466286795484
 31
0.0
  0
LINE
  5
11B
  8
回12-寸法
 62
     5
 10
-700.2176066872555
 20
205.5466286795483
 30
0.0
 11
-486.1176066872555
 21
205.5466286795483
 31
0.0
  0
INSERT
  5
11C
  8
回12-寸法
 62
     5
  2
_OPEN
 10
-702.2176066872555
 20
205.5466286795483
 30
0.0
 41
2.0
 42
2.0
 43
2.0
 50
180.0
  0
INSERT
  5
11D
  8
回12-寸法
 62
     5
  2
_OPEN
 10
-484.1176066872556
 20
205.5466286795483
 30
0.0
 41
2.0
 42
2.0
 43
2.0
  0
TEXT
  5
11E
  8
回12-寸法
 62
     5
 10
-603.9677042969334
 20
206.1966286795484
 30
0.0
 40
3.0
  1
218.1 [8.587]
  7
2MM
1001
ACAD
1000
MTEXTBEGIN
1070
    73
1070
     1
1070
    44
1040
1.0
1070
    74
1070
     0
1000
MTEXTEND
  0
POINT
  5
11F
  8
DEFPOINTS
 62
     0
 10
-702.2176066872555
 20
164.2685857424653
 30
0.0
  0
POINT
  5
120
  8
DEFPOINTS
 62
     0
 10
-484.1176066872556
 20
164.2685857424653
 30
0.0
  0
POINT
  5
121
  8
DEFPOINTS
 62
     0
 10
-484.1176066872556
 20
205.5466286795483
 30
0.0
  0
ENDBLK
  5
122
  8
0
 62
     5
  0
BLOCK
  8
0
  2
*D18
 70
     1
 10
0.0
 20
0.0
 30
0.0
  3
*D18
  1

  0
LINE
  5
10C
  8
回12-寸法
 62
     5
 10
-484.1176066872556
 20
164.2685857424653
 30
0.0
 11
-423.6332774707722
 21
164.2685857424653
 31
0.0
  0
LINE
  5
10D
  8
回12-寸法
 62
     5
 10
-484.1176066872556
 20
-1.761414257534624
 30
0.0
 11
-423.6332774707723
 21
-1.761414257534624
 31
0.0
  0
LINE
  5
10E
  8
回12-寸法
 62
     5
 10
-424.6332774707722
 20
162.2685857424653
 30
0.0
 11
-424.6332774707722
 21
0.2385857424653583
 31
0.0
  0
INSERT
  5
10F
  8
回12-寸法
 62
     5
  2
_OPEN
 10
-424.6332774707722
 20
164.2685857424653
 30
0.0
 41
2.0
 42
2.0
 43
2.0
 50
90.0
  0
INSERT
  5
110
  8
回12-寸法
 62
     5
  2
_OPEN
 10
-424.6332774707723
 20
-1.761414257534641
 30
0.0
 41
2.0
 42
2.0
 43
2.0
 50
270.0
  0
TEXT
  5
111
  8
回12-寸法
 62
     5
 10
-425.2832774707723
 20
69.10119553552374
 30
0.0
 40
3.0
  1
166.03 [6.537]
 50
90.0
  7
2MM
1001
ACAD
1000
MTEXTBEGIN
1070
    73
1070
     1
1070
    44
1040
1.0
1070
    74
1070
     0
1000
MTEXTEND
  0
POINT
  5
112
  8
DEFPOINTS
 62
     0
 10
-484.1176066872556
 20
164.2685857424653
 30
0.0
  0
POINT
  5
113
  8
DEFPOINTS
 62
     0
 10
-484.1176066872556
 20
-1.761414257534624
 30
0.0
  0
POINT
  5
114
  8
DEFPOINTS
 62
     0
 10
-424.6332774707723
 20
-1.761414257534641
 30
0.0
  0
ENDBLK
  5
115
  8
0
 62
     5
  0
BLOCK
  8
0
  2
*D19
 70
     1
 10
0.0
 20
0.0
 30
0.0
  3
*D19
  1

  0
LINE
  5
FC
  8
回12-寸法
 62
     5
 10
-717.6276066872556
 20
-64.54831988061664
 30
0.0
 11
-717.6276066872556
 21
-54.92621489648922
 31
0.0
  0
LINE
  5
FD
  8
回12-寸法
 62
     5
 10
-717.1276066872556
 20
-62.04089286472231
 30
0.0
 11
-717.1276066872556
 21
-54.92621489648922
 31
0.0
  0
LINE
  5
FE
  8
回12-寸法
 62
     5
 10
-719.6276066872556
 20
-55.92621489648923
 30
0.0
 11
-721.6276066872556
 21
-55.92621489648923
 31
0.0
  0
LINE
  5
FF
  8
回12-寸法
 62
     5
 10
-715.1276066872555
 20
-55.92621489648923
 30
0.0
 11
-692.02996889198
 21
-55.92621489648923
 31
0.0
  0
LINE
  5
100
  8
回12-寸法
 62
     5
 10
-717.6276066872556
 20
-55.92621489648923
 30
0.0
 11
-717.1276066872556
 21
-55.92621489648923
 31
0.0
  0
INSERT
  5
101
  8
回12-寸法
 62
     5
  2
_OPEN
 10
-717.6276066872556
 20
-55.92621489648923
 30
0.0
 41
2.0
 42
2.0
 43
2.0
  0
INSERT
  5
102
  8
回12-寸法
 62
     5
  2
_OPEN
 10
-717.1276066872556
 20
-55.92621489648923
 30
0.0
 41
2.0
 42
2.0
 43
2.0
 50
180.0
  0
TEXT
  5
103
  8
回12-寸法
 62
     5
 10
-713.0787877896177
 20
-55.27621489648922
 30
0.0
 40
3.0
  1
(0.5 [0.020])
  7
2MM
1001
ACAD
1000
MTEXTBEGIN
1070
    73
1070
     1
1070
    44
1040
1.0
1070
    74
1070
     0
1000
MTEXTEND
  0
POINT
  5
104
  8
DEFPOINTS
 62
     0
 10
-717.6276066872556
 20
-64.54831988061664
 30
0.0
  0
POINT
  5
106
  8
DEFPOINTS
 62
     0
 10
-717.1276066872556
 20
-62.04089286472231
 30
0.0
  0
POINT
  5
107
  8
DEFPOINTS
 62
     0
 10
-717.1276066872556
 20
-55.92621489648923
 30
0.0
  0
ENDBLK
  5
108
  8
0
 62
     5
  0
BLOCK
  8
回06-GER
  2
*X20
 70
     1
 10
0.0
 20
0.0
 30
0.0
  3
*X20
  1

  0
INSERT
  5
2E2
  8
回12-寸法
 62
     5
  2
_OPEN
 10
-717.8351618837344
 20
73.15988401929416
 30
0.0
 41
2.0
 42
2.0
 43
2.0
 50
55.78541541235827
  0
LINE
  5
2E3
  8
回12-寸法
 62
     5
 10
-718.959749668203
 20
71.50600907993996
 30
0.0
 11
-723.3717877280439
 21
65.01744564414241
 31
0.0
  0
LINE
  5
2E4
  8
回12-寸法
 62
     5
 10
-723.3717877280439
 20
65.01744564414241
 30
0.0
 11
-733.6724510987245
 21
65.01744564414241
 31
0.0
  0
ENDBLK
  5
2E6
  8
回06-GER
 62
     5
  0
BLOCK
  8
回06-GER
  2
*X21
 70
     1
 10
0.0
 20
0.0
 30
0.0
  3
*X21
  1

  0
INSERT
  5
2E9
  8
回12-寸法
 62
     5
  2
_OPEN
 10
-474.363772793223
 20
10.25595796630137
 30
0.0
 41
1.999999999999999
 42
1.999999999999999
 43
2.0
 50
237.748848548936
  0
LINE
  5
2EA
  8
回12-寸法
 62
     5
 10
-473.296509769079
 20
11.94739216167972
 30
0.0
 11
-469.5804809274857
 21
17.83667916169088
 31
0.0
  0
LINE
  5
2EB
  8
回12-寸法
 62
     5
 10
-469.5804809274857
 20
17.83667916169088
 30
0.0
 11
-445.4804809274857
 21
17.83667916169088
 31
0.0
  0
ENDBLK
  5
2ED
  8
回06-GER
 62
     5
  0
BLOCK
  8
回06-GER
  2
*X22
 70
     1
 10
0.0
 20
0.0
 30
0.0
  3
*X22
  1

  0
LINE
  5
2F5
  8
回13-記事
 62
     8
 10
-725.6276066872556
 20
-62.30401014107861
 30
0.0
 11
-725.0840087072345
 21
-61.76041216105739
 31
0.0
  0
LINE
  5
2F6
  8
回13-記事
 62
     8
 10
-723.7939057341126
 20
-62.71537321820289
 30
0.0
 11
-722.838944676967
 21
-61.76041216105727
 31
0.0
  0
LINE
  5
2F7
  8
回13-記事
 62
     8
 10
-721.5488417038454
 20
-62.71537321820289
 30
0.0
 11
-720.5938806466997
 21
-61.76041216105727
 31
0.0
  0
LINE
  5
2F8
  8
回13-記事
 62
     8
 10
-719.303777673578
 20
-62.71537321820279
 30
0.0
 11
-718.3488166164326
 21
-61.76041216105739
 31
0.0
  0
LINE
  5
2F9
  8
回13-記事
 62
     8
 10
-718.0825677444009
 20
-61.49416328902578
 30
0.0
 11
-717.7126178997085
 21
-61.12421344433323
 31
0.0
  0
LINE
  5
2FA
  8
回13-記事
 62
     8
 10
-716.3842332898302
 20
-62.04089286472236
 30
0.0
 11
-715.4675538694411
 21
-61.12421344433329
 31
0.0
  0
LINE
  5
2FB
  8
回13-記事
 62
     8
 10
-714.139169259563
 20
-62.04089286472243
 30
0.0
 11
-713.2224898391739
 21
-61.12421344433329
 31
0.0
  0
LINE
  5
2FC
  8
回13-記事
 62
     8
 10
-711.8941052292957
 20
-62.04089286472243
 30
0.0
 11
-710.9774258089067
 21
-61.12421344433329
 31
0.0
  0
LINE
  5
2FD
  8
回13-記事
 62
     8
 10
-709.6490411990283
 20
-62.04089286472236
 30
0.0
 11
-708.7323617786393
 21
-61.12421344433329
 31
0.0
  0
ENDBLK
  5
2FF
  8
回06-GER
 62
     5
  0
BLOCK
  8
回06-GER
  2
*X23
 70
     1
 10
0.0
 20
0.0
 30
0.0
  3
*X23
  1

  0
INSERT
  5
307
  8
回13-記事
 62
     5
  2
_OPEN
 10
-760.2930331497216
 20
-62.5153040820037
 30
0.0
 41
2.0
 42
2.0
 43
2.0
 50
261.5252583487909
  0
LINE
  5
308
  8
回13-記事
  6
CONTINUOUS
 62
     5
 10
-759.9982863543364
 20
-60.53714222648981
 30
0.0
 11
-757.6080151458906
 21
-44.49509053021825
 31
0.0
  0
LINE
  5
309
  8
回13-記事
  6
CONTINUOUS
 62
     5
 10
-757.6080151458906
 20
-44.49509053021825
 30
0.0
 11
-715.9080151458907
 21
-44.49509053021825
 31
0.0
  0
ENDBLK
  5
30B
  8
回06-GER
 62
     5
  0
BLOCK
  8
回06-GER
  2
*X24
 70
     1
 10
0.0
 20
0.0
 30
0.0
  3
*X24
  1

  0
INSERT
  5
313
  8
回13-記事
 62
     5
  2
_OPEN
 10
-749.4562978671735
 20
-66.7154388222907
 30
0.0
 41
2.0
 42
2.0
 43
2.0
 50
76.4266437270118
  0
LINE
  5
314
  8
回13-記事
  6
CONTINUOUS
 62
     5
 10
-749.9256780784742
 20
-68.65957930518781
 30
0.0
 11
-753.8701380688955
 21
-84.99726071126383
 31
0.0
  0
LINE
  5
315
  8
回13-記事
  6
CONTINUOUS
 62
     5
 10
-753.8701380688955
 20
-84.99726071126383
 30
0.0
 11
-781.9701380688956
 21
-84.99726071126383
 31
0.0
  0
ENDBLK
  5
317
  8
回06-GER
 62
     5
  0
BLOCK
  8
回06-GER
  2
*X25
 70
     1
 10
0.0
 20
0.0
 30
0.0
  3
*X25
  1

  0
TEXT
  5
342
  8
回13-記事
  6
CONTINUOUS
 62
     5
 10
-799.1498416515072
 20
63.02167243186223
 30
0.0
 40
4.0
  1
・PART No. LABEL
  0
TEXT
  5
343
  8
回13-記事
  6
CONTINUOUS
 62
     5
 10
-785.5498416515072
 20
56.35500576519556
 30
0.0
 40
4.0
  1
・LOT LABEL
  0
ENDBLK
  5
345
  8
回06-GER
 62
     5
  0
BLOCK
  8
回06-GER
  2
*X26
 70
     1
 10
0.0
 20
0.0
 30
0.0
  3
*X26
  1

  0
INSERT
  5
348
  8
回13-記事
 62
     5
  2
_OPEN
 10
-746.5525099679841
 20
81.2535857424649
 30
0.0
 41
1.999999999999999
 42
1.999999999999999
 43
2.0
 50
77.78714678582125
  0
LINE
  5
349
  8
回13-記事
  6
CONTINUOUS
 62
     5
 10
-746.9755980794444
 20
79.29884881644621
 30
0.0
 11
-752.0498416515072
 21
55.85500576519557
 31
0.0
  0
LINE
  5
34A
  8
回13-記事
  6
CONTINUOUS
 62
     5
 10
-752.0498416515072
 20
55.85500576519557
 30
0.0
 11
-797.8165083181738
 21
55.85500576519557
 31
0.0
  0
ENDBLK
  5
34C
  8
回06-GER
 62
     5
  0
BLOCK
  8
回06-GER
  2
*X27
 70
     1
 10
0.0
 20
0.0
 30
0.0
  3
*X27
  1

  0
LINE
  5
34F
  8
回13-記事
  6
CONTINUOUS
 62
     8
 10
-740.3091714748107
 20
79.50037530982616
 30
0.0
 11
-744.1454003709597
 21
83.33660420597503
 31
0.0
  0
LINE
  5
350
  8
回13-記事
  6
CONTINUOUS
 62
     8
 10
-744.6355284314943
 20
79.33660420597512
 30
0.0
 11
-748.6355284314941
 21
83.336604205975
 31
0.0
  0
LINE
  5
351
  8
回13-記事
  6
CONTINUOUS
 62
     8
 10
-749.1256564920288
 20
79.33660420597509
 30
0.0
 11
-753.1256564920288
 21
83.33660420597505
 31
0.0
  0
LINE
  5
352
  8
回13-記事
  6
CONTINUOUS
 62
     8
 10
-753.6157845525634
 20
79.33660420597515
 30
0.0
 11
-757.6157845525632
 21
83.33660420597494
 31
0.0
  0
LINE
  5
353
  8
回13-記事
  6
CONTINUOUS
 62
     8
 10
-758.105912613098
 20
79.33660420597512
 30
0.0
 11
-762.1059126130979
 21
83.33660420597507
 31
0.0
  0
LINE
  5
354
  8
回13-記事
  6
CONTINUOUS
 62
     8
 10
-762.5960406736326
 20
79.33660420597516
 30
0.0
 11
-765.8298375036041
 21
82.57040103594679
 31
0.0
  0
ENDBLK
  5
356
  8
回06-GER
 62
     5
  0
BLOCK
  8
回06-GER
  2
*U28
 70
     1
 10
0.0
 20
0.0
 30
0.0
  3
*U28
  1

  0
LINE
  5
36C
  8
回13-記事
  6
DASHED2
 62
     8
 10
-717.127606687256
 20
88.37358574246479
 30
0.0
 11
-717.127606687256
 21
95.49358574246468
 31
0.0
  0
LINE
  5
36D
  8
回13-記事
  6
DASHED2
 62
     8
 10
-717.127606687256
 20
88.37358574246479
 30
0.0
 11
-725.627606687256
 21
88.37358574246479
 31
0.0
  0
LINE
  5
36E
  8
回13-記事
  6
DASHED2
 62
     8
 10
-725.627606687256
 20
88.37358574246479
 30
0.0
 11
-725.627606687256
 21
74.13358574246434
 31
0.0
  0
LINE
  5
36F
  8
回13-記事
  6
DASHED2
 62
     8
 10
-725.627606687256
 20
74.13358574246434
 30
0.0
 11
-717.127606687256
 21
74.13358574246434
 31
0.0
  0
LINE
  5
370
  8
回13-記事
  6
DASHED2
 62
     8
 10
-717.127606687256
 20
67.01358574246444
 30
0.0
 11
-717.127606687256
 21
74.13358574246434
 31
0.0
  0
LINE
  5
371
  8
回13-記事
  6
DASHED2
 62
     8
 10
-708.0696067259489
 20
67.01358574246444
 30
0.0
 11
-717.127606687256
 21
67.01358574246444
 31
0.0
  0
LINE
  5
372
  8
回13-記事
  6
DASHED2
 62
     8
 10
-708.0696067259489
 20
95.49358574246468
 30
0.0
 11
-708.0696067259489
 21
67.01358574246444
 31
0.0
  0
LINE
  5
373
  8
回13-記事
  6
DASHED2
 62
     8
 10
-717.127606687256
 20
95.49358574246468
 30
0.0
 11
-708.0696067259489
 21
95.49358574246468
 31
0.0
  0
ENDBLK
  5
375
  8
回06-GER
 62
     5
  0
BLOCK
  8
回06-GER
  2
*X29
 70
     1
 10
0.0
 20
0.0
 30
0.0
  3
*X29
  1

  0
LINE
  5
378
  8
回13-記事
 62
     8
 10
-725.627606687256
 20
87.26265839697735
 30
0.0
 11
-724.5166793417685
 21
88.37358574246483
 31
0.0
1001
ACAD
1010
0.0
1020
0.0
1030
0.0
  0
LINE
  5
379
  8
回13-記事
 62
     8
 10
-725.6276066872559
 20
82.77253033644285
 30
0.0
 11
-720.026551281234
 21
88.37358574246479
 31
0.0
1001
ACAD
1010
0.0
1020
0.0
1030
0.0
  0
LINE
  5
37A
  8
回13-記事
 62
     8
 10
-717.127606687256
 20
91.27253033644279
 30
0.0
 11
-712.906551281234
 21
95.49358574246472
 31
0.0
1001
ACAD
1010
0.0
1020
0.0
1030
0.0
  0
LINE
  5
37B
  8
回13-記事
 62
     8
 10
-725.627606687256
 20
78.28240227590825
 30
0.0
 11
-708.4164232206996
 21
95.49358574246463
 31
0.0
1001
ACAD
1010
0.0
1020
0.0
1030
0.0
  0
LINE
  5
37C
  8
回13-記事
 62
     8
 10
-725.2862951601654
 20
74.13358574246425
 30
0.0
 11
-708.0696067259488
 21
91.35027417668089
 31
0.0
1001
ACAD
1010
0.0
1020
0.0
1030
0.0
  0
LINE
  5
37D
  8
回13-記事
 62
     8
 10
-720.7961670996308
 20
74.13358574246439
 30
0.0
 11
-708.0696067259489
 21
86.86014611614629
 31
0.0
1001
ACAD
1010
0.0
1020
0.0
1030
0.0
  0
LINE
  5
37E
  8
回13-記事
 62
     8
 10
-717.1276066872559
 20
73.31201809430467
 30
0.0
 11
-708.0696067259488
 21
82.37001805561178
 31
0.0
1001
ACAD
1010
0.0
1020
0.0
1030
0.0
  0
LINE
  5
37F
  8
回13-記事
 62
     8
 10
-717.127606687256
 20
68.82189003377004
 30
0.0
 11
-708.0696067259488
 21
77.87988999507724
 31
0.0
1001
ACAD
1010
0.0
1020
0.0
1030
0.0
  0
LINE
  5
380
  8
回13-記事
 62
     8
 10
-714.4457829180271
 20
67.01358574246436
 30
0.0
 11
-708.0696067259488
 21
73.38976193454269
 31
0.0
1001
ACAD
1010
0.0
1020
0.0
1030
0.0
  0
LINE
  5
381
  8
回13-記事
 62
     8
 10
-709.9556548574926
 20
67.01358574246441
 30
0.0
 11
-708.0696067259489
 21
68.89963387400809
 31
0.0
1001
ACAD
1010
0.0
1020
0.0
1030
0.0
  0
ENDBLK
  5
383
  8
回06-GER
 62
     5
  0
BLOCK
  8
回06-GER
  2
*X30
 70
     1
 10
0.0
 20
0.0
 30
0.0
  3
*X30
  1

  0
TEXT
  5
386
  8
回12-寸法
 62
     5
 10
-612.0784377928363
 20
216.4903803793901
 30
0.0
 40
3.0
  1
248.92
  7
2MM
  0
TEXT
  5
387
  8
回12-寸法
 62
     5
 10
-600.3676066872554
 20
216.4903803793901
 30
0.0
 40
2.1
  1
±0.3
  7
2MM
  0
TEXT
  5
388
  8
回12-寸法
 62
     5
 10
-595.3276066872554
 20
216.4903803793901
 30
0.0
 40
3.0
  1
 [9.800
  7
2MM
  0
TEXT
  5
389
  8
回12-寸法
 62
     5
 10
-583.0167755816744
 20
216.4903803793901
 30
0.0
 40
2.1
  1
±0.012
  7
2MM
  0
TEXT
  5
38A
  8
回12-寸法
 62
     5
 10
-575.4567755816744
 20
216.4903803793901
 30
0.0
 40
3.0
  1
]
  7
2MM
  0
ENDBLK
  5
38C
  8
回06-GER
 62
     5
  0
BLOCK
  8
回06-GER
  2
*X31
 70
     1
 10
0.0
 20
0.0
 30
0.0
  3
*X31
  1

  0
TEXT
  5
38F
  8
回12-寸法
 62
     5
 10
-787.0313975742089
 20
106.2412460652119
 30
0.0
 40
3.0
  1
110
  7
2MM
  0
TEXT
  5
390
  8
回12-寸法
 62
     5
 10
-781.9313975742089
 20
106.2412460652119
 30
0.0
 40
2.1
  1
±1
  7
2MM
  0
TEXT
  5
391
  8
回12-寸法
 62
     5
 10
-779.4113975742089
 20
106.2412460652119
 30
0.0
 40
3.0
  1
 [4.331
  7
2MM
  0
TEXT
  5
392
  8
回12-寸法
 62
     5
 10
-767.4113975742089
 20
106.2412460652119
 30
0.0
 40
2.1
  1
±0.039
  7
2MM
  0
TEXT
  5
393
  8
回12-寸法
 62
     5
 10
-759.4238158003022
 20
106.2412460652119
 30
0.0
 40
3.0
  1
]
  7
2MM
  0
ENDBLK
  5
395
  8
回06-GER
 62
     5
  0
BLOCK
  8
回06-GER
  2
*X32
 70
     1
 10
0.0
 20
0.0
 30
0.0
  3
*X32
  1

  0
TEXT
  5
398
  8
回12-寸法
 62
     5
 10
-838.1748560162606
 20
34.06358574246497
 30
0.0
 40
3.0
  1
15.24
 50
90.0
  7
2MM
  0
TEXT
  5
399
  8
回12-寸法
 62
     5
 10
-838.1748560162606
 20
43.06358574246496
 30
0.0
 40
2.1
  1
±0.2
 50
90.0
  7
2MM
  0
TEXT
  5
39A
  8
回12-寸法
 62
     5
 10
-838.1748560162606
 20
48.10358574246492
 30
0.0
 40
3.0
  1
 [0.600
 50
90.0
  7
2MM
  0
TEXT
  5
39B
  8
回12-寸法
 62
     5
 10
-838.1748560162606
 20
60.40358574246488
 30
0.0
 40
2.1
  1
±0.008
 50
90.0
  7
2MM
  0
TEXT
  5
39C
  8
回12-寸法
 62
     5
 10
-838.1748560162606
 20
68.3835857424649
 30
0.0
 40
3.0
  1
]
 50
90.0
  7
2MM
  0
ENDBLK
  5
39E
  8
回06-GER
 62
     5
  0
BLOCK
  8
回06-GER
  2
*X33
 70
     1
 10
0.0
 20
0.0
 30
0.0
  3
*X33
  1

  0
TEXT
  5
3A1
  8
回12-寸法
 62
     5
 10
-414.9604883925577
 20
62.79817018967492
 30
0.0
 40
3.0
  1
186.69
 50
90.0
  7
2MM
  0
TEXT
  5
3A2
  8
回12-寸法
 62
     5
 10
-414.9604883925577
 20
73.60900129525589
 30
0.0
 40
2.1
  1
±0.3
 50
90.0
  7
2MM
  0
TEXT
  5
3A3
  8
回12-寸法
 62
     5
 10
-414.9604883925577
 20
78.64900129525591
 30
0.0
 40
3.0
  1
 [7.350
 50
90.0
  7
2MM
  0
TEXT
  5
3A4
  8
回12-寸法
 62
     5
 10
-414.9604883925577
 20
90.94900129525592
 30
0.0
 40
2.1
  1
±0.012
 50
90.0
  7
2MM
  0
TEXT
  5
3A5
  8
回12-寸法
 62
     5
 10
-414.9604883925577
 20
98.50900129525593
 30
0.0
 40
3.0
  1
]
 50
90.0
  7
2MM
  0
ENDBLK
  5
3A7
  8
回06-GER
 62
     5
  0
BLOCK
  8
回06-GER
  2
*X34
 70
     1
 10
0.0
 20
0.0
 30
0.0
  3
*X34
  1

  0
TEXT
  5
3AA
  8
回12-寸法
 62
     5
 10
-461.1858989274661
 20
-102.2529544274854
 30
0.0
 40
3.0
  1
2.1
 50
90.0
  7
2MM
  0
TEXT
  5
3AB
  8
回12-寸法
 62
     5
 10
-461.1858989274661
 20
-97.75295442748547
 30
0.0
 40
2.000099999999999
  1
±0.2
 50
90.0
  7
2MM
  0
TEXT
  5
3AC
  8
回12-寸法
 62
     5
 10
-461.1858989274661
 20
-92.95271442748548
 30
0.0
 40
3.0
  1
 [0.083
 50
90.0
  7
2MM
  0
TEXT
  5
3AD
  8
回12-寸法
 62
     5
 10
-461.1858989274661
 20
-80.65271442748548
 30
0.0
 40
2.000099999999999
  1
±0.008
 50
90.0
  7
2MM
  0
TEXT
  5
3AE
  8
回12-寸法
 62
     5
 10
-461.1858989274661
 20
-73.05233442748551
 30
0.0
 40
3.0
  1
]
 50
90.0
  7
2MM
  0
ENDBLK
  5
3B0
  8
回06-GER
 62
     5
  0
ENDSEC
  0
SECTION
  2
ENTITIES
  0
TEXT
  5
6B
  8
回03-記事
  6
CONTINUOUS
 62
     5
 10
-683.6610943879911
 20
-132.5135458570229
 30
0.0
 40
6.0
  1
without affecting product specification.
  0
TEXT
  5
6D
  8
回03-記事
  6
CONTINUOUS
 62
     5
 10
-683.6610943879911
 20
-121.9889137142731
 30
0.0
 40
6.0
  1
Edges and corners of ITO glass may be chamfered 
  0
TEXT
  5
6E
  8
回03-記事
  6
CONTINUOUS
 62
     5
 10
-683.6610943879911
 20
-111.4642815715232
 30
0.0
 40
6.0
  1
Unit: mm
  0
TEXT
  5
6F
  8
回03-記事
  6
CONTINUOUS
 62
     5
 10
-683.6610943879911
 20
-100.9396494287736
 30
0.0
 40
6.0
  1
EXCEPT WHERE INDICATED
  0
TEXT
  5
70
  8
回03-記事
  6
CONTINUOUS
 62
     5
 10
-683.6610943879911
 20
-90.41501728602401
 30
0.0
 40
6.0
  1
TOLERANCE=±0.5mm
  0
TEXT
  5
71
  8
回08-GPDL
 62
     7
 10
-474.9584961521657
 20
0.1752569940806836
 30
0.0
 40
2.0
  1
FST-104C
 50
90.0
  7
2MM
  0
TEXT
  5
75
  8
回12-寸法
 62
     7
 10
-419.3637346864981
 20
-45.05435306812375
 30
0.0
 40
3.0
  1
(Insulation Area)
 50
90.0
  7
2MM
  0
TEXT
  5
79
  8
回12-寸法
 62
     7
 10
-419.6275101356393
 20
176.8260319044171
 30
0.0
 40
2.799999999999999
  1
(Insulation Area)
 50
90.0
  7
2MM
  0
TEXT
  5
7A
  8
回12-寸法
 62
     7
 10
-441.634072558463
 20
206.3764454668674
 30
0.0
 40
3.0
  1
(Insulation Area)
  7
2MM
  0
POLYLINE
  5
7B
  8
回13-記事
  6
DASHED2
 62
     7
 66
     1
 10
0.0
 20
0.0
 30
0.0
 70
     1
  0
VERTEX
  5
2DC
  8
回13-記事
  6
DASHED2
 62
     7
 10
-702.2176066872555
 20
164.2685857424653
 30
0.0
  0
VERTEX
  5
2DE
  8
回13-記事
  6
DASHED2
 62
     7
 10
-484.1176066872556
 20
164.2685857424653
 30
0.0
  0
VERTEX
  5
2DF
  8
回13-記事
  6
DASHED2
 62
     7
 10
-484.1176066872556
 20
-1.761414257534624
 30
0.0
  0
VERTEX
  5
2E0
  8
回13-記事
  6
DASHED2
 62
     7
 10
-702.2176066872555
 20
-1.761414257534624
 30
0.0
  0
SEQEND
  5
2DD
  8
回06-GER
 62
     5
  0
TEXT
  5
80
  8
回11-記事
  6
CONTINUOUS
 62
     7
 10
-347.4536449879074
 20
-96.48485670031119
 30
0.0
 40
4.999999999999999
  1
(AMP:487406-9)
  0
TEXT
  5
82
  8
回11-記事
  6
CONTINUOUS
 62
     7
 10
-389.7053102195666
 20
-96.48485670031119
 30
0.0
 40
4.999999999999999
  1
PIN CONTACT
  0
TEXT
  5
83
  8
回11-記事
  6
CONTINUOUS
 62
     7
 10
-351.7546698263938
 20
-88.15152336697781
 30
0.0
 40
4.999999999999999
  1
(AMP:487526-4)
  0
TEXT
  5
84
  8
回11-記事
  6
CONTINUOUS
 62
     7
 10
-389.7053102195666
 20
-88.15152336697781
 30
0.0
 40
4.999999999999999
  1
CONNECTOR
  0
TEXT
  5
85
  8
回11-記事
  6
CONTINUOUS
 62
     7
 10
-389.7053102195666
 20
-79.81819003364444
 30
0.0
 40
4.999999999999999
  1
ADHESIVE SHEET
  0
TEXT
  5
86
  8
回11-記事
  6
CONTINUOUS
 62
     7
 10
-401.0723564874313
 20
-92.01795495613646
 30
0.0
 40
4.999999999999999
  1
8
  0
TEXT
  5
87
  8
回11-記事
  6
CONTINUOUS
 62
     7
 10
-401.0723564874313
 20
-79.81819003364444
 30
0.0
 40
4.999999999999999
  1
7
  0
LINE
  5
88
  8
回11-記事
  6
CONTINUOUS
 62
     7
 10
-405.3224223884005
 20
-97.80156262997548
 30
0.0
 11
-298.5572279951066
 21
-97.80156262997548
 31
0.0
  0
LINE
  5
89
  8
回11-記事
  6
CONTINUOUS
 62
     7
 10
-405.3224223884005
 20
-81.13489596330873
 30
0.0
 11
-298.5572279951066
 21
-81.13489596330873
 31
0.0
  0
TEXT
  5
8A
  8
回11-記事
  6
CONTINUOUS
 62
     7
 10
-389.7053102195666
 20
-71.48485670031107
 30
0.0
 40
4.999999999999999
  1
TAIL PROTECTION TAPE
  0
TEXT
  5
8B
  8
回11-記事
  6
CONTINUOUS
 62
     7
 10
-389.7053102195666
 20
-63.1515233669777
 30
0.0
 40
4.999999999999999
  1
STIFFENER
  0
TEXT
  5
8C
  8
回11-記事
  6
CONTINUOUS
 62
     7
 10
-389.7053102195666
 20
-54.81819003364444
 30
0.0
 40
4.999999999999999
  1
REINFORCEMENT FILM
  0
TEXT
  5
8D
  8
回11-記事
  6
CONTINUOUS
 62
     7
 10
-389.7053102195666
 20
-46.48485670031107
 30
0.0
 40
4.999999999999999
  1
TAIL
  0
TEXT
  5
8E
  8
回11-記事
  6
CONTINUOUS
 62
     7
 10
-389.7053102195666
 20
-38.1515233669777
 30
0.0
 40
4.999999999999999
  1
ITO GLASS 
  0
LINE
  5
8F
  8
回11-記事
  6
CONTINUOUS
 62
     7
 10
-298.5572279951071
 20
-22.80156262997536
 30
0.0
 11
-298.5572279951071
 21
-97.80156262997548
 31
0.0
  0
TEXT
  5
90
  8
回11-記事
  6
CONTINUOUS
 62
     7
 10
-389.7053102195666
 20
-29.81819003364444
 30
0.0
 40
4.999999999999999
  1
ITO FILM (ANTI-GLARE)
  0
TEXT
  5
91
  8
回11-記事
  6
CONTINUOUS
 62
     7
 10
-401.0723564874313
 20
-71.48485670031107
 30
0.0
 40
4.999999999999999
  1
6
  0
TEXT
  5
92
  8
回11-記事
  6
CONTINUOUS
 62
     7
 10
-401.0723564874313
 20
-63.1515233669777
 30
0.0
 40
4.999999999999999
  1
5
  0
TEXT
  5
93
  8
回11-記事
  6
CONTINUOUS
 62
     7
 10
-401.0723564874313
 20
-54.81819003364444
 30
0.0
 40
4.999999999999999
  1
4
  0
TEXT
  5
94
  8
回11-記事
  6
CONTINUOUS
 62
     7
 10
-401.0723564874313
 20
-46.48485670031107
 30
0.0
 40
4.999999999999999
  1
3
  0
TEXT
  5
95
  8
回11-記事
  6
CONTINUOUS
 62
     7
 10
-401.0723564874313
 20
-38.1515233669777
 30
0.0
 40
4.999999999999999
  1
2
  0
LINE
  5
96
  8
回11-記事
  6
CONTINUOUS
 62
     7
 10
-405.3224223884005
 20
-72.80156262997536
 30
0.0
 11
-298.5572279951066
 21
-72.80156262997536
 31
0.0
  0
LINE
  5
97
  8
回11-記事
  6
CONTINUOUS
 62
     7
 10
-405.3224223884005
 20
-64.46822929664199
 30
0.0
 11
-298.5572279951068
 21
-64.46822929664199
 31
0.0
  0
LINE
  5
98
  8
回11-記事
  6
CONTINUOUS
 62
     7
 10
-405.3224223884005
 20
-56.13489596330873
 30
0.0
 11
-298.5572279951068
 21
-56.13489596330873
 31
0.0
  0
LINE
  5
99
  8
回11-記事
  6
CONTINUOUS
 62
     7
 10
-405.3224223884005
 20
-47.80156262997536
 30
0.0
 11
-298.5572279951068
 21
-47.80156262997536
 31
0.0
  0
LINE
  5
9A
  8
回11-記事
  6
CONTINUOUS
 62
     7
 10
-405.3224223884005
 20
-39.46822929664199
 30
0.0
 11
-298.5572279951068
 21
-39.46822929664199
 31
0.0
  0
LINE
  5
9B
  8
回11-記事
  6
CONTINUOUS
 62
     7
 10
-405.3224223884005
 20
-31.13489596330874
 30
0.0
 11
-298.5572279951068
 21
-31.13489596330874
 31
0.0
  0
TEXT
  5
9C
  8
回11-記事
  6
CONTINUOUS
 62
     7
 10
-401.0723564874313
 20
-29.81819003364444
 30
0.0
 40
4.999999999999999
  1
1
  0
LINE
  5
9D
  8
回11-記事
  6
CONTINUOUS
 62
     7
 10
-405.3224223884005
 20
-22.80156262997536
 30
0.0
 11
-298.5572279951071
 21
-22.80156262997536
 31
0.0
  0
LINE
  5
9E
  8
回11-記事
  6
CONTINUOUS
 62
     7
 10
-393.9553761205359
 20
-22.80156262997536
 30
0.0
 11
-393.9553761205359
 21
-97.80156262997548
 31
0.0
  0
LINE
  5
9F
  8
回11-記事
  6
CONTINUOUS
 62
     7
 10
-405.3224223884005
 20
-22.80156262997536
 30
0.0
 11
-405.3224223884005
 21
-97.80156262997548
 31
0.0
  0
TEXT
  5
A0
  8
回91-枠英1
 10
-361.3284832394295
 20
-124.3576747540263
 30
0.0
 40
5.0
  1
Oct/13/2023
  0
TEXT
  5
A2
  8
回91-枠英1
 10
-352.7105721213213
 20
-115.1866922339649
 30
0.0
 40
3.599999999999999
  1
DATE
  0
LINE
  5
A3
  8
回91-枠英1
 10
-384.7123851321214
 20
-110.2218141891079
 30
0.0
 11
-384.7123851321214
 21
-146.2218141891079
 31
0.0
  0
TEXT
  5
A4
  8
回91-枠英1
 10
-429.9354683177009
 20
-133.3294705616171
 30
0.0
 40
3.599999999999999
  1
TYPE
  0
LINE
  5
A5
  8
回91-枠英1
 10
-462.7123851321214
 20
-110.2218141891079
 30
0.0
 11
-462.7123851321214
 21
-146.2218141891079
 31
0.0
  0
TEXT
  5
A6
  8
回91-枠英1
 10
-446.6734887395562
 20
-145.2318246584635
 30
0.0
 40
3.599999999999999
  1
DIMENSIONAL DRAWING
  0
TEXT
  5
A7
  8
回91-枠英1
 10
-450.0094477519508
 20
-139.2219365731988
 30
0.0
 40
3.599999999999999
  1
STANDARD TOUCHSCREEN
  0
TEXT
  5
A8
  8
回91-枠英1
 10
-448.5679730318827
 20
-125.3950082731597
 30
0.0
 40
6.0
  1
FST-T104C110A
  0
TEXT
  5
A9
  8
回91-枠英1
 10
-429.4376850517967
 20
-115.1866922339649
 30
0.0
 40
3.599999999999999
  1
PART No.
  0
LINE
  5
AA
  8
回91-枠英1
 10
-459.112385132121
 20
-140.2218141891079
 30
0.0
 11
-388.3123851321218
 21
-140.2218141891079
 31
0.0
  0
TEXT
  5
AB
  8
回91-枠英1
 10
-361.6609595181456
 20
-139.6715865792629
 30
0.0
 40
6.0
  1
DMC Co., Ltd.
  0
LINE
  5
AC
  8
回91-枠英1
 10
-462.7123851321214
 20
-134.2218141891075
 30
0.0
 11
-384.7123851321214
 21
-134.2218141891075
 31
0.0
  0
LINE
  5
AD
  8
回91-枠英1
 10
-462.7123851321214
 20
-110.2218141891079
 30
0.0
 11
-294.7123851321214
 21
-110.2218141891079
 31
0.0
  0
LINE
  5
AE
  8
回91-枠英1
 10
-462.7123851321214
 20
-128.2218141891074
 30
0.0
 11
-294.7123851321214
 21
-128.2218141891074
 31
0.0
  0
LINE
  5
AF
  8
回91-枠英1
 10
-462.7123851321214
 20
-116.2218141891079
 30
0.0
 11
-294.7123851321214
 21
-116.2218141891079
 31
0.0
  0
TEXT
  5
B0
  8
回11-記事
  6
CONTINUOUS
 62
     5
 10
-366.1249002522602
 20
82.02099299372196
 30
0.0
 40
5.714325579689998
  1
5
  0
LINE
  5
B1
  8
回11-記事
  6
CONTINUOUS
 62
     5
 10
-359.9909008269378
 20
84.64051505514305
 30
0.0
 11
-339.3336189392499
 21
84.64051505514305
 31
0.0
  0
TEXT
  5
B2
  8
回11-記事
  6
CONTINUOUS
 62
     5
 10
-336.0039038230496
 20
82.79961564956364
 30
0.0
 40
5.000034882228748
  1
LL
  0
TEXT
  5
B3
  8
回11-記事
  6
CONTINUOUS
 62
     5
 10
-366.1249002522602
 20
96.99433467163068
 30
0.0
 40
5.714325579689998
  1
4
  0
LINE
  5
B4
  8
回11-記事
  6
CONTINUOUS
 62
     5
 10
-359.9909008269378
 20
99.61385673305176
 30
0.0
 11
-339.3336189392499
 21
99.61385673305176
 31
0.0
  0
TEXT
  5
B5
  8
回11-記事
  6
CONTINUOUS
 62
     5
 10
-336.0039038230496
 20
97.77295732747234
 30
0.0
 40
5.000034882228748
  1
UL
  0
TEXT
  5
B6
  8
回11-記事
  6
CONTINUOUS
 62
     5
 10
-366.1249002522602
 20
111.9676763495393
 30
0.0
 40
5.714325579689998
  1
3
  0
LINE
  5
B7
  8
回11-記事
  6
CONTINUOUS
 62
     5
 10
-359.9909008269378
 20
114.5871984109605
 30
0.0
 11
-339.3336189392499
 21
114.5871984109605
 31
0.0
  0
TEXT
  5
B8
  8
回11-記事
  6
CONTINUOUS
 62
     5
 10
-336.0039038230496
 20
112.746299005381
 30
0.0
 40
5.000034882228748
  1
SENSE
  0
TEXT
  5
B9
  8
回11-記事
  6
CONTINUOUS
 62
     5
 10
-366.1249002522602
 20
126.9410180274481
 30
0.0
 40
5.714325579689998
  1
2
  0
LINE
  5
BA
  8
回11-記事
  6
CONTINUOUS
 62
     5
 10
-359.9909008269378
 20
129.5605400888691
 30
0.0
 11
-339.3336189392499
 21
129.5605400888691
 31
0.0
  0
TEXT
  5
BB
  8
回11-記事
  6
CONTINUOUS
 62
     5
 10
-336.0039038230496
 20
127.7196406832897
 30
0.0
 40
5.000034882228748
  1
LR
  0
TEXT
  5
BC
  8
回11-記事
  6
CONTINUOUS
 62
     5
 10
-366.1249002522602
 20
141.9143597053567
 30
0.0
 40
5.714325579689998
  1
1
  0
LINE
  5
BD
  8
回11-記事
  6
CONTINUOUS
 62
     5
 10
-359.9909008269378
 20
144.5338817667779
 30
0.0
 11
-339.3336189392499
 21
144.5338817667779
 31
0.0
  0
TEXT
  5
BE
  8
回11-記事
  6
CONTINUOUS
 62
     5
 10
-378.1087099670801
 20
160.3134963356457
 30
0.0
 40
7.0
  1
PIN ASSIGNMENT
  0
TEXT
  5
BF
  8
回11-記事
  6
CONTINUOUS
 62
     5
 10
-336.0039038230496
 20
142.6929823611984
 30
0.0
 40
5.000034882228748
  1
UR
  0
TEXT
  5
C0
  8
回90-枠2
 10
-330.9829998264691
 20
239.1506089369433
 30
0.0
 40
4.0
  1
H
  0
LINE
  5
C2
  8
回90-枠2
 10
-364.7123851321214
 20
243.7781858108921
 30
0.0
 11
-364.7123851321214
 21
238.7781858108921
 31
0.0
  0
LINE
  5
C3
  8
回90-枠2
 10
-434.7123851321214
 20
243.7781858108921
 30
0.0
 11
-434.7123851321214
 21
238.7781858108921
 31
0.0
  0
TEXT
  5
C4
  8
回90-枠2
 10
-470.982999826469
 20
239.1506089369433
 30
0.0
 40
4.0
  1
F
  0
LINE
  5
C5
  8
回90-枠2
 10
-504.7123851321214
 20
243.7781858108921
 30
0.0
 11
-504.7123851321214
 21
238.7781858108921
 31
0.0
  0
TEXT
  5
C6
  8
回90-枠2
 10
-540.982999826469
 20
239.1506089369433
 30
0.0
 40
4.0
  1
E
  0
TEXT
  5
C7
  8
回90-枠2
 10
-400.982999826469
 20
239.1506089369433
 30
0.0
 40
4.0
  1
G
  0
LINE
  5
C8
  8
回90-枠2
 10
-574.7123851321214
 20
243.7781858108921
 30
0.0
 11
-574.7123851321214
 21
238.7781858108921
 31
0.0
  0
TEXT
  5
C9
  8
回90-枠2
 10
-610.982999826469
 20
239.1506089369433
 30
0.0
 40
4.0
  1
D
  0
LINE
  5
CA
  8
回90-枠2
 10
-644.7123851321214
 20
243.7781858108921
 30
0.0
 11
-644.7123851321214
 21
238.7781858108921
 31
0.0
  0
TEXT
  5
CB
  8
回90-枠2
 10
-680.982999826469
 20
239.1506089369433
 30
0.0
 40
4.0
  1
C
  0
LINE
  5
CC
  8
回90-枠2
 10
-714.7123851321214
 20
243.7781858108921
 30
0.0
 11
-714.7123851321214
 21
238.7781858108921
 31
0.0
  0
TEXT
  5
CD
  8
回90-枠2
 10
-750.982999826469
 20
239.1506089369433
 30
0.0
 40
4.0
  1
B
  0
LINE
  5
CE
  8
回90-枠2
 10
-784.7123851321214
 20
243.7781858108921
 30
0.0
 11
-784.7123851321214
 21
238.7781858108921
 31
0.0
  0
TEXT
  5
CF
  8
回90-枠2
 10
-820.9829998264691
 20
239.1506089369433
 30
0.0
 40
4.0
  1
A
  0
LINE
  5
D0
  8
回90-枠2
 10
-289.7123851321214
 20
243.7781858108921
 30
0.0
 11
-859.7123851321214
 21
243.7781858108921
 31
0.0
  0
LINE
  5
D1
  8
回90-枠2
 10
-854.7123851321215
 20
238.7781858108921
 30
0.0
 11
-294.7123851321214
 21
238.7781858108921
 31
0.0
  0
TEXT
  5
D2
  8
回90-枠2
 10
-293.3079641284621
 20
198.0668731067513
 30
0.0
 40
4.0
  1
1
  0
LINE
  5
D3
  8
回90-枠2
 10
-289.7123851321214
 20
161.778185810892
 30
0.0
 11
-294.7123851321214
 21
161.778185810892
 31
0.0
  0
TEXT
  5
D4
  8
回90-枠2
 10
-293.6094628317639
 20
121.0668731067513
 30
0.0
 40
4.0
  1
2
  0
LINE
  5
D5
  8
回90-枠2
 10
-289.7123851321214
 20
84.77818581089207
 30
0.0
 11
-294.7123851321214
 21
84.77818581089207
 31
0.0
  0
TEXT
  5
D6
  8
回90-枠2
 10
-293.6149436759647
 20
44.06687310675136
 30
0.0
 40
4.0
  1
3
  0
LINE
  5
D7
  8
回90-枠2
 10
-289.7123851321214
 20
7.778185810892068
 30
0.0
 11
-294.7123851321214
 21
7.778185810892068
 31
0.0
  0
TEXT
  5
D8
  8
回90-枠2
 10
-293.6880357960458
 20
-32.93312689324864
 30
0.0
 40
4.0
  1
4
  0
TEXT
  5
D9
  8
回90-枠2
 10
-858.3079641284621
 20
198.0668731067513
 30
0.0
 40
4.0
  1
1
  0
LINE
  5
DA
  8
回90-枠2
 10
-854.7123851321215
 20
161.778185810892
 30
0.0
 11
-859.7123851321214
 21
161.778185810892
 31
0.0
  0
TEXT
  5
DB
  8
回90-枠2
 10
-858.6094628317638
 20
121.0668731067513
 30
0.0
 40
4.0
  1
2
  0
LINE
  5
DC
  8
回90-枠2
 10
-854.7123851321215
 20
84.77818581089207
 30
0.0
 11
-859.7123851321214
 21
84.77818581089207
 31
0.0
  0
TEXT
  5
DD
  8
回90-枠2
 10
-858.6149436759647
 20
44.06687310675136
 30
0.0
 40
4.0
  1
3
  0
LINE
  5
DE
  8
回90-枠2
 10
-854.7123851321215
 20
7.778185810892068
 30
0.0
 11
-859.7123851321214
 21
7.778185810892068
 31
0.0
  0
TEXT
  5
DF
  8
回90-枠2
 10
-858.6880357960458
 20
-32.93312689324864
 30
0.0
 40
4.0
  1
4
  0
LINE
  5
E0
  8
回90-枠2
 10
-289.7123851321214
 20
-69.22181418910793
 30
0.0
 11
-294.7123851321214
 21
-69.22181418910793
 31
0.0
  0
TEXT
  5
E1
  8
回90-枠2
 10
-293.6880357960458
 20
-109.9331268932486
 30
0.0
 40
4.0
  1
5
  0
TEXT
  5
E2
  8
回90-枠2
 10
-330.9829998264691
 20
-150.8493910630567
 30
0.0
 40
4.0
  1
H
  0
LINE
  5
E3
  8
回90-枠2
 10
-364.7123851321214
 20
-146.2218141891079
 30
0.0
 11
-364.7123851321214
 21
-151.2218141891079
 31
0.0
  0
LINE
  5
E4
  8
回90-枠2
 10
-434.7123851321214
 20
-146.2218141891079
 30
0.0
 11
-434.7123851321214
 21
-151.2218141891079
 31
0.0
  0
TEXT
  5
E5
  8
回90-枠2
 10
-470.982999826469
 20
-150.8493910630567
 30
0.0
 40
4.0
  1
F
  0
LINE
  5
E6
  8
回90-枠2
 10
-504.7123851321214
 20
-146.2218141891079
 30
0.0
 11
-504.7123851321214
 21
-151.2218141891079
 31
0.0
  0
TEXT
  5
E7
  8
回90-枠2
 10
-540.982999826469
 20
-150.8493910630567
 30
0.0
 40
4.0
  1
E
  0
TEXT
  5
E8
  8
回90-枠2
 10
-400.982999826469
 20
-150.8493910630567
 30
0.0
 40
4.0
  1
G
  0
LINE
  5
E9
  8
回90-枠2
 10
-574.7123851321214
 20
-146.2218141891079
 30
0.0
 11
-574.7123851321214
 21
-151.2218141891079
 31
0.0
  0
TEXT
  5
EA
  8
回90-枠2
 10
-610.982999826469
 20
-150.8493910630567
 30
0.0
 40
4.0
  1
D
  0
LINE
  5
EB
  8
回90-枠2
 10
-644.7123851321214
 20
-146.2218141891079
 30
0.0
 11
-644.7123851321214
 21
-151.2218141891079
 31
0.0
  0
TEXT
  5
EC
  8
回90-枠2
 10
-680.982999826469
 20
-150.8493910630567
 30
0.0
 40
4.0
  1
C
  0
LINE
  5
ED
  8
回90-枠2
 10
-714.7123851321214
 20
-146.2218141891079
 30
0.0
 11
-714.7123851321214
 21
-151.2218141891079
 31
0.0
  0
LINE
  5
EE
  8
回90-枠2
 10
-854.7123851321215
 20
-69.22181418910793
 30
0.0
 11
-859.7123851321214
 21
-69.22181418910793
 31
0.0
  0
TEXT
  5
EF
  8
回90-枠2
 10
-858.6880357960458
 20
-109.9331268932486
 30
0.0
 40
4.0
  1
5
  0
TEXT
  5
F0
  8
回90-枠2
 10
-750.982999826469
 20
-150.8493910630567
 30
0.0
 40
4.0
  1
B
  0
LINE
  5
F1
  8
回90-枠2
 10
-784.7123851321214
 20
-146.2218141891079
 30
0.0
 11
-784.7123851321214
 21
-151.2218141891079
 31
0.0
  0
TEXT
  5
F2
  8
回90-枠2
 10
-820.9829998264691
 20
-150.8493910630567
 30
0.0
 40
4.0
  1
A
  0
LINE
  5
F3
  8
回90-枠2
 10
-854.7123851321215
 20
-146.2218141891079
 30
0.0
 11
-294.7123851321214
 21
-146.2218141891079
 31
0.0
  0
LINE
  5
F4
  8
回90-枠2
 10
-289.7123851321214
 20
-151.2218141891079
 30
0.0
 11
-859.7123851321214
 21
-151.2218141891079
 31
0.0
  0
LINE
  5
F5
  8
回90-枠2
 10
-289.7123851321214
 20
-151.2218141891079
 30
0.0
 11
-289.7123851321214
 21
243.7781858108921
 31
0.0
  0
LINE
  5
F6
  8
回90-枠2
 10
-294.7123851321214
 20
238.7781858108921
 30
0.0
 11
-294.7123851321214
 21
-146.2218141891079
 31
0.0
  0
LINE
  5
F7
  8
回90-枠2
 10
-859.7123851321214
 20
-151.2218141891079
 30
0.0
 11
-859.7123851321214
 21
243.7781858108921
 31
0.0
  0
LINE
  5
F8
  8
回90-枠2
 10
-854.7123851321215
 20
238.7781858108921
 30
0.0
 11
-854.7123851321215
 21
-146.2218141891079
 31
0.0
  0
DIMENSION
  5
F9
  8
回12-寸法
 62
     7
  2
*D19
 10
-717.1276066872556
 20
-55.92621489648923
 30
0.0
 11
-702.5787877896178
 21
-53.77621489648923
 31
0.0
 70
     0
  1
(<>)
  3
2MM
 13
-717.6276066872556
 23
-64.54831988061664
 33
0.0
 14
-717.1276066872556
 24
-62.04089286472231
 34
0.0
1001
ACAD
1000
DSTYLE
1002
{
1070
   140
1040
3.0
1070
   170
1070
     1
1070
   271
1070
     2
1070
   272
1070
     2
1002
}
  0
DIMENSION
  5
109
  8
回12-寸法
 62
     7
  2
*D18
 10
-424.6332774707723
 20
-1.761414257534641
 30
0.0
 11
-424.6332774707723
 21
81.25119553552371
 31
0.0
 70
   128
  3
2MM
 13
-484.1176066872556
 23
164.2685857424653
 33
0.0
 14
-484.1176066872556
 24
-1.761414257534624
 34
0.0
 50
90.0
1001
ACAD
1000
DSTYLE
1002
{
1070
   140
1040
3.0
1070
   170
1070
     1
1070
   271
1070
     2
1070
   272
1070
     2
1002
}
  0
DIMENSION
  5
116
  8
回12-寸法
 62
     7
  2
*D17
 10
-484.1176066872556
 20
205.5466286795483
 30
0.0
 11
-593.1677042969333
 21
205.5466286795483
 31
0.0
 70
   128
  3
2MM
 13
-702.2176066872555
 23
164.2685857424653
 33
0.0
 14
-484.1176066872556
 24
164.2685857424653
 34
0.0
1001
ACAD
1000
DSTYLE
1002
{
1070
   140
1040
3.0
1070
   170
1070
     1
1070
   271
1070
     2
1070
   272
1070
     2
1002
}
  0
CIRCLE
  5
123
  8
回13-記事
 62
     7
 10
-479.8649246238035
 20
-53.65111010748819
 30
0.0
 40
2.260432403241225
  0
CIRCLE
  5
124
  8
回13-記事
 62
     7
 10
-549.8587649180897
 20
-51.82089703881388
 30
0.0
 40
2.260432403241225
  0
CIRCLE
  5
125
  8
回13-記事
 62
     7
 10
-561.21644934366
 20
-75.72122690479523
 30
0.0
 40
2.260432403241225
  0
CIRCLE
  5
126
  8
回13-記事
 62
     7
 10
-703.4371320865218
 20
-76.98533215029534
 30
0.0
 40
2.260432403241225
  0
CIRCLE
  5
127
  8
回13-記事
 62
     7
 10
-718.1023746794688
 20
-76.63720697623398
 30
0.0
 40
2.260432403241225
  0
CIRCLE
  5
128
  8
回13-記事
 62
     7
 10
-734.5172805759355
 20
-71.64639833652177
 30
0.0
 40
2.260432403241225
  0
CIRCLE
  5
129
  8
回13-記事
 62
     7
 10
-778.328274012875
 20
-56.62850609422708
 30
0.0
 40
2.260432403241225
  0
CIRCLE
  5
12A
  8
回13-記事
 62
     7
 10
-809.9212638705155
 20
-56.44926922229638
 30
0.0
 40
2.260432403241225
  0
CIRCLE
  5
12B
  8
回13-記事
 62
     7
 10
-830.2302944535338
 20
-56.74558907216419
 30
0.0
 40
2.260432403241225
  0
DIMENSION
  5
12C
  8
回12-寸法
 62
     7
  2
*D16
 10
-460.5358989274662
 20
-67.76424387630425
 30
0.0
 11
-462.6858989274661
 21
-87.05264442748543
 31
0.0
 70
     0
  1
2.1{\H0.6667x;±0.2} [0.083{\H0.6667x;±0.008}]
  3
2MM
 13
-469.2076066872557
 23
-62.04089286472231
 33
0.0
 14
-468.7076066872555
 24
-67.76424387630425
 34
0.0
 50
90.0
1001
ACAD
1000
DSTYLE
1002
{
1070
   140
1040
3.0
1070
   170
1070
     1
1070
   271
1070
     2
1070
   272
1070
     2
1002
}
  0
DIMENSION
  5
13B
  8
回12-寸法
 62
     7
  2
*D15
 10
-468.7076066872557
 20
-55.92621489648923
 30
0.0
 11
-454.1587877896179
 21
-53.77621489648923
 31
0.0
 70
     0
  1
(<>)
  3
2MM
 13
-469.2076066872557
 23
-62.04089286472231
 33
0.0
 14
-468.7076066872557
 24
-64.54831988061664
 34
0.0
1001
ACAD
1000
DSTYLE
1002
{
1070
   140
1040
3.0
1070
   170
1070
     1
1070
   271
1070
     2
1070
   272
1070
     2
1002
}
  0
DIMENSION
  5
14A
  8
回12-寸法
 62
     7
  2
*D14
 10
-436.7830013487425
 20
-12.09141425753467
 30
0.0
 11
-438.9330013487425
 21
-27.24141425753475
 31
0.0
 70
     0
  1
<>
  3
2MM
 13
-485.2176066872555
 23
-0.661414257534716
 33
0.0
 14
-468.7076066872555
 24
-12.09141425753466
 34
0.0
 50
90.0
1001
ACAD
1000
DSTYLE
1002
{
1070
   140
1040
3.0
1070
   170
1070
     1
1070
   271
1070
     2
1070
   272
1070
     2
1002
}
  0
DIMENSION
  5
159
  8
回12-寸法
 62
     7
  2
*D13
 10
-414.3104883925577
 20
174.5985857424653
 30
0.0
 11
-414.3104883925578
 21
81.25358574246536
 31
0.0
 70
   128
  3
2MM
 13
-468.7076066872555
 23
-12.09141425753466
 33
0.0
 14
-468.7076066872555
 24
174.5985857424654
 34
0.0
 50
90.0
1001
ACAD
1000
DSTYLE
1002
{
1070
    47
1040
0.3
1070
   147
1040
0.5
1070
    48
1040
0.3
1070
    72
1070
     0
1070
    71
1070
     1
1070
   140
1040
3.0
1070
   170
1070
     1
1070
   271
1070
     2
1070
   272
1070
     2
1002
}
  0
DIMENSION
  5
166
  8
回12-寸法
 62
     7
  2
*D12
 10
-436.7830013487425
 20
-0.6614142575347297
 30
0.0
 11
-436.7830013487425
 21
81.25358574246536
 31
0.0
 70
   128
  1
<> (ACTIVE AREA)
  3
2MM
 13
-485.2176066872555
 23
163.1685857424654
 33
0.0
 14
-485.2176066872555
 24
-0.661414257534716
 34
0.0
 50
90.0
1001
ACAD
1000
DSTYLE
1002
{
1070
   140
1040
3.0
1070
   170
1070
     1
1070
   271
1070
     2
1070
   272
1070
     2
1002
}
  0
DIMENSION
  5
173
  8
回12-寸法
 62
     7
  2
*D11
 10
-424.6332774707723
 20
-12.09141425753468
 30
0.0
 11
-426.7832774707723
 21
-27.39141425753475
 31
0.0
 70
     0
  3
2MM
 13
-484.1176066872556
 23
-1.761414257534624
 33
0.0
 14
-468.7076066872555
 24
-12.09141425753466
 34
0.0
 50
90.0
1001
ACAD
1000
DSTYLE
1002
{
1070
   140
1040
3.0
1070
   170
1070
     1
1070
   271
1070
     2
1070
   272
1070
     2
1002
}
  0
DIMENSION
  5
182
  8
回12-寸法
 62
     7
  2
*D10
 10
-424.6332774707723
 20
174.5985857424653
 30
0.0
 11
-426.7832774707724
 21
189.8985857424653
 31
0.0
 70
     0
  3
2MM
 13
-484.1176066872556
 23
164.2685857424653
 33
0.0
 14
-468.7076066872555
 24
174.5985857424654
 34
0.0
 50
90.0
1001
ACAD
1000
DSTYLE
1002
{
1070
   140
1040
3.0
1070
   170
1070
     1
1070
   271
1070
     2
1070
   272
1070
     2
1002
}
  0
DIMENSION
  5
191
  8
回12-寸法
 62
     7
  2
*D9
 10
-436.7830013487425
 20
174.5985857424653
 30
0.0
 11
-438.9330013487426
 21
190.9474046401031
 31
0.0
 70
     0
  1
(<>)
  3
2MM
 13
-485.2176066872555
 23
163.1685857424654
 33
0.0
 14
-468.7076066872555
 24
174.5985857424654
 34
0.0
 50
90.0
1001
ACAD
1000
DSTYLE
1002
{
1070
   140
1040
3.0
1070
   170
1070
     1
1070
   271
1070
     2
1070
   272
1070
     2
1002
}
  0
DIMENSION
  5
1A0
  8
回12-寸法
 62
     7
  2
*D8
 10
-837.5248560162606
 20
73.63358574246524
 30
0.0
 11
-839.6748560162606
 21
51.8235857424651
 31
0.0
 70
     0
  3
2MM
 13
-818.8726066872554
 23
88.87358574246524
 33
0.0
 14
-818.8726066872554
 24
73.63358574246524
 34
0.0
 50
90.0
1001
ACAD
1000
DSTYLE
1002
{
1070
    47
1040
0.2
1070
   147
1040
0.5
1070
    48
1040
0.2
1070
    72
1070
     0
1070
    71
1070
     1
1070
   140
1040
3.0
1070
   170
1070
     1
1070
   271
1070
     2
1070
   272
1070
     2
1002
}
  0
DIMENSION
  5
1AF
  8
回12-寸法
 62
     7
  2
*D7
 10
-717.6276066872553
 20
105.5912460652118
 30
0.0
 11
-772.6276066872554
 21
107.7412460652118
 31
0.0
 70
     0
  3
2MM
 13
-827.6276066872556
 23
87.52738574246519
 33
0.0
 14
-717.6276066872553
 24
89.55071008693312
 34
0.0
1001
ACAD
1000
DSTYLE
1002
{
1070
    47
1040
1.0
1070
   147
1040
0.5
1070
    48
1040
1.0
1070
    72
1070
     0
1070
    71
1070
     1
1070
   140
1040
3.0
1070
   170
1070
     1
1070
   271
1070
     2
1070
   272
1070
     2
1002
}
  0
DIMENSION
  5
1BC
  8
回12-寸法
 62
     7
  2
*D6
 10
-468.7076066872555
 20
205.5466286795483
 30
0.0
 11
-453.7076066872555
 21
207.6966286795483
 31
0.0
 70
     0
  3
2MM
 13
-484.1176066872556
 23
164.2685857424653
 33
0.0
 14
-468.7076066872555
 24
174.5985857424654
 34
0.0
1001
ACAD
1000
DSTYLE
1002
{
1070
   140
1040
3.0
1070
   170
1070
     1
1070
   271
1070
     2
1070
   272
1070
     2
1002
}
  0
DIMENSION
  5
1CB
  8
回12-寸法
 62
     7
  2
*D5
 10
-468.7076066872555
 20
195.5765470613958
 30
0.0
 11
-453.8576066872555
 21
197.7265470613957
 31
0.0
 70
     0
  3
2MM
 13
-485.2176066872555
 23
163.1685857424654
 33
0.0
 14
-468.7076066872555
 24
174.5985857424654
 34
0.0
1001
ACAD
1000
DSTYLE
1002
{
1070
   140
1040
3.0
1070
   170
1070
     1
1070
   271
1070
     2
1070
   272
1070
     2
1002
}
  0
DIMENSION
  5
1DA
  8
回12-寸法
 62
     7
  2
*D4
 10
-468.7076066872555
 20
215.8403803793901
 30
0.0
 11
-593.1676066872553
 21
215.8403803793901
 31
0.0
 70
   128
  3
2MM
 13
-717.6276066872553
 23
174.5985857424654
 33
0.0
 14
-468.7076066872555
 24
174.5985857424654
 34
0.0
1001
ACAD
1000
DSTYLE
1002
{
1070
    47
1040
0.3
1070
   147
1040
0.5
1070
    48
1040
0.3
1070
    72
1070
     0
1070
    71
1070
     1
1070
   140
1040
3.0
1070
   170
1070
     1
1070
   271
1070
     2
1070
   272
1070
     2
1002
}
  0
TEXT
  5
1E7
  8
回12-寸法
 62
     7
 10
-775.4742343923164
 20
206.3764454668674
 30
0.0
 40
3.0
  1
(Insulation Area)
  7
2MM
  0
DIMENSION
  5
1E8
  8
回12-寸法
 62
    40
  2
*D3
 10
-717.6276066872553
 20
205.5466286795483
 30
0.0
 11
-732.6276066872553
 21
207.6966286795483
 31
0.0
 70
     0
  3
2MM
 13
-702.2176066872555
 23
164.2685857424653
 33
0.0
 14
-717.6276066872553
 24
174.5985857424654
 34
0.0
1001
ACAD
1000
DSTYLE
1002
{
1070
   140
1040
3.0
1070
   170
1070
     1
1070
   271
1070
     2
1070
   272
1070
     2
1002
}
  0
DIMENSION
  5
1F7
  8
回12-寸法
 62
    40
  2
*D2
 10
-485.2176066872555
 20
195.5765470613958
 30
0.0
 11
-593.1676066872554
 21
197.7265470613957
 31
0.0
 70
     0
  1
<> (ACTIVE AREA)
  3
2MM
 13
-701.1176066872553
 23
163.1685857424654
 33
0.0
 14
-485.2176066872555
 24
163.1685857424654
 34
0.0
1001
ACAD
1000
DSTYLE
1002
{
1070
   140
1040
3.0
1070
   170
1070
     1
1070
   271
1070
     2
1070
   272
1070
     2
1002
}
  0
DIMENSION
  5
204
  8
回12-寸法
 62
    40
  2
*D1
 10
-717.6276066872553
 20
195.5765470613958
 30
0.0
 11
-733.6764255848931
 21
197.7265470613957
 31
0.0
 70
     0
  1
(<>)
  3
2MM
 13
-701.1176066872553
 23
163.1685857424654
 33
0.0
 14
-717.6276066872553
 24
174.5985857424654
 34
0.0
1001
ACAD
1000
DSTYLE
1002
{
1070
   140
1040
3.0
1070
   170
1070
     1
1070
   271
1070
     2
1070
   272
1070
     2
1002
}
  0
LINE
  5
213
  8
回13-記事
 62
     7
 10
-818.6115004738722
 20
-60.02447930158689
 30
0.0
 11
-818.522765686648
 21
-60.81083531654383
 31
0.0
  0
LINE
  5
214
  8
回13-記事
 62
     7
 10
-819.4222186105598
 20
-60.06305267889946
 30
0.0
 11
-818.6115004738722
 21
-60.02447930158689
 31
0.0
  0
LINE
  5
215
  8
回13-記事
 62
     7
 10
-821.0874065886702
 20
-60.98553497667137
 30
0.0
 11
-819.4222186105598
 21
-60.06305267889946
 31
0.0
  0
LINE
  5
216
  8
回13-記事
 62
     7
 10
-819.4036087394335
 20
-61.62218090788894
 30
0.0
 11
-819.4554026931989
 21
-60.86183087510824
 31
0.0
  0
LINE
  5
217
  8
回13-記事
 62
     7
 10
-819.838871460192
 20
-61.66436471695499
 30
0.0
 11
-819.8906654139575
 21
-60.90401468417406
 31
0.0
  0
LINE
  5
218
  8
回13-記事
 62
     7
 10
-822.7213680088357
 20
-61.94372400559121
 30
0.0
 11
-816.1062235377814
 21
-61.30261237805768
 31
0.0
  0
ARC
  5
219
  8
回13-記事
 62
     7
 10
-822.7213680088357
 20
-62.21372400559118
 30
0.0
 40
0.2700000000000102
 50
90.0
 51
270.0
  0
ARC
  5
21A
  8
回13-記事
 62
     7
 10
-815.7870228789226
 20
-59.47527034213351
 30
0.0
 40
0.54
 50
45.00000000000921
 51
134.9999999999908
  0
LINE
  5
21B
  8
回13-記事
 62
     7
 10
-816.1688605407634
 20
-59.09343268029272
 30
0.0
 11
-817.084788832499
 21
-60.7128823955353
 31
0.0
  0
LINE
  5
21C
  8
回13-記事
 62
     7
 10
-814.4181407037203
 20
-60.08047718927912
 30
0.0
 11
-815.405185217082
 21
-59.09343268029272
 31
0.0
  0
LINE
  5
21D
  8
回13-記事
 62
     7
 10
-813.5406089403598
 20
-62.4837240055914
 30
0.0
 11
-813.5406089403598
 21
-60.08047718927912
 31
0.0
  0
LINE
  5
21E
  8
回13-記事
 62
     7
 10
-815.3995825719617
 20
-60.08047718927912
 30
0.0
 11
-813.5406089403598
 21
-60.08047718927912
 31
0.0
  0
LINE
  5
21F
  8
回13-記事
 62
     7
 10
-816.7891445999396
 20
-62.4837240055914
 30
0.0
 11
-815.3995825719617
 21
-60.08047718927912
 31
0.0
  0
LINE
  5
220
  8
回13-記事
 62
     7
 10
-823.2126183371359
 20
-61.13030135307247
 30
0.0
 11
-817.084788832499
 21
-60.7128823955353
 31
0.0
  0
LINE
  5
221
  8
回13-記事
 62
     7
 10
-823.7236409896571
 20
-61.64132400559345
 30
0.0
 11
-823.2126183371359
 21
-61.13030135307247
 31
0.0
  0
ARC
  5
222
  8
回13-記事
 62
     7
 10
-824.566040989657
 20
-61.64132400559117
 30
0.0
 40
0.8423999999999999
 50
270.0
 51
359.9999999998567
  0
TEXT
  5
223
  8
回12-寸法
 62
     5
 10
-734.1224510987245
 20
65.51744564414241
 30
0.0
 40
3.0
  1
2-R2
  7
2MM
1001
ACAD
1000
MTEXTBEGIN
1070
    73
1070
     1
1070
    44
1040
1.0
1070
    74
1070
     0
1000
MTEXTEND
  0
INSERT
  5
224
  8
回12-寸法
 62
     3
 66
     1
  2
*X20
 10
0.0
 20
0.0
 30
0.0
  0
SEQEND
  5
2E7
  8
回06-GER
 62
     5
  0
TEXT
  5
225
  8
回12-寸法
 62
     5
 10
-466.8830515978335
 20
12.66725751751892
 30
0.0
 40
4.0
  1
FST-104C
1001
ACAD
1000
MTEXTBEGIN
1070
    73
1070
     1
1070
    44
1040
1.0
1070
    74
1070
     0
1000
MTEXTEND
  0
TEXT
  5
226
  8
回12-寸法
 62
     5
 10
-467.6804809274857
 20
18.33667916169088
 30
0.0
 40
4.0
  1
PART No.
1001
ACAD
1000
MTEXTBEGIN
1070
    73
1070
     1
1070
    44
1040
1.0
1070
    74
1070
     0
1000
MTEXTEND
  0
INSERT
  5
227
  8
回12-寸法
 62
     7
 66
     1
  2
*X21
 10
0.0
 20
0.0
 30
0.0
  0
SEQEND
  5
2EE
  8
回06-GER
 62
     5
  0
LINE
  5
22A
  8
回13-記事
 62
     7
 10
-468.7076066872555
 20
-64.54831988061653
 30
0.0
 11
-468.7076066872555
 21
-67.76424387630425
 31
0.0
  0
LINE
  5
22B
  8
回13-記事
  6
CONTINUOUS
 62
     7
 10
-469.2076066872555
 20
-63.49512702763047
 30
0.0
 11
-469.2076066872555
 21
-64.54831988061653
 31
0.0
  0
LINE
  5
22C
  8
回13-記事
  6
CONTINUOUS
 62
     7
 10
-469.2076066872557
 20
-63.49512702763047
 30
0.0
 11
-469.2076066872557
 21
-64.54831988061653
 31
0.0
  0
POLYLINE
  5
22D
  8
回13-記事
  6
DASHED2
 62
     7
 66
     1
 10
0.0
 20
0.0
 30
0.0
 70
     1
  0
VERTEX
  5
2EF
  8
回13-記事
  6
DASHED2
 62
     7
 10
-825.8784066872552
 20
-62.4837240055914
 30
0.0
  0
VERTEX
  5
2F1
  8
回13-記事
  6
DASHED2
 62
     7
 10
-812.1624066872552
 20
-62.4837240055914
 30
0.0
  0
VERTEX
  5
2F2
  8
回13-記事
  6
DASHED2
 62
     7
 10
-812.1624066872552
 20
-65.6077240055913
 30
0.0
  0
VERTEX
  5
2F3
  8
回13-記事
  6
DASHED2
 62
     7
 10
-825.8784066872552
 20
-65.6077240055913
 30
0.0
  0
SEQEND
  5
2F0
  8
回06-GER
 62
     5
  0
LINE
  5
22E
  8
回13-記事
  6
CONTINUOUS
 62
     7
 10
-724.8696504721749
 20
-63.07301643341066
 30
0.0
 11
-734.7879903618436
 21
-69.14189146897047
 31
0.0
  0
TEXT
  5
22F
  8
回13-記事
  6
CONTINUOUS
 62
     5
 10
-754.9593196624741
 20
-50.81757365273438
 30
0.0
 40
4.0
  1
FST-T104C110A
1001
ACAD
1000
MTEXTBEGIN
1070
    73
1070
     1
1070
    44
1040
1.0
1070
    74
1070
     0
1000
MTEXTEND
  0
INSERT
  5
230
  8
回13-記事
 62
     8
 66
     1
  2
*X22
 10
0.0
 20
0.0
 30
0.0
1001
ACAD
1000
HATCH
1002
{
1070
    19
1000
ANSI31
1040
0.5
1040
0.0
1000
R14_HATCH_DATA
1000
230
1011
1.0
1021
0.0
1031
0.0
1011
0.0
1021
1.0
1031
0.0
1011
0.0
1021
0.0
1031
1.0
1040
0.0
1010
0.0
1020
0.0
1030
1.0
1000
ANSI31
1070
     0
1070
     1
1071
        1
1071
        7
1070
     0
1070
     1
1071
        8
1040
-708.0696067259484
1040
-61.12421344433323
1040
-718.0825677444011
1040
-61.12421344433323
1040
-718.0825677444008
1040
-61.76041216105727
1040
-725.6276066872558
1040
-61.76041216105727
1040
-725.6276066872553
1040
-62.71537321820279
1040
-717.1276066872556
1040
-62.71537321820279
1040
-717.1276066872556
1040
-62.04089286472231
1040
-708.0696067259484
1040
-62.04089286472231
1071
        0
1070
     0
1070
     1
1040
0.0
1040
0.5
1070
     0
1070
     1
1040
0.7853981633974483
1040
229.6183578697062
1040
-47.73987426611052
1040
-1.122532015133643
1040
1.122532015133644
1070
     0
1040
0.0874951090399119
1071
        1
1040
-717.7585769892933
1040
-62.00261667480049
1040
0.0
1002
}
  0
SEQEND
  5
300
  8
回06-GER
 62
     5
  0
POLYLINE
  5
231
  8
回13-記事
 62
     7
 66
     1
 10
0.0
 20
0.0
 30
0.0
 70
     1
  0
VERTEX
  5
301
  8
回13-記事
 62
     7
 10
-726.3691006406104
 20
-63.49512702763059
 30
0.0
  0
VERTEX
  5
303
  8
回13-記事
 62
     7
 10
-717.1276066872556
 20
-63.49512702763059
 30
0.0
  0
VERTEX
  5
304
  8
回13-記事
 62
     7
 10
-717.1276066872556
 20
-62.71537321820279
 30
0.0
  0
VERTEX
  5
305
  8
回13-記事
 62
     7
 10
-726.3691006406104
 20
-62.71537321820279
 30
0.0
  0
SEQEND
  5
302
  8
回06-GER
 62
     5
  0
ARC
  5
232
  8
回13-記事
  6
CONTINUOUS
 62
     7
 10
-488.3708571726859
 20
-64.54831988061664
 30
0.0
 40
0.307948428894622
 50
0.0
 51
180.0
  0
ARC
  5
233
  8
回13-記事
  6
CONTINUOUS
 62
     7
 10
-485.8708571726858
 20
-64.54831988061664
 30
0.0
 40
0.307948428894622
 50
0.0
 51
180.0
  0
ARC
  5
234
  8
回13-記事
  6
CONTINUOUS
 62
     7
 10
-490.8708571726858
 20
-64.54831988061664
 30
0.0
 40
0.307948428894622
 50
0.0
 51
180.0
  0
ARC
  5
235
  8
回13-記事
  6
CONTINUOUS
 62
     7
 10
-493.3708571726858
 20
-64.54831988061664
 30
0.0
 40
0.307948428894622
 50
0.0
 51
180.0
  0
ARC
  5
236
  8
回13-記事
  6
CONTINUOUS
 62
     7
 10
-500.8708571726859
 20
-64.54831988061664
 30
0.0
 40
0.307948428894622
 50
0.0
 51
180.0
  0
ARC
  5
237
  8
回13-記事
  6
CONTINUOUS
 62
     7
 10
-498.3708571726858
 20
-64.54831988061664
 30
0.0
 40
0.307948428894622
 50
0.0
 51
180.0
  0
ARC
  5
238
  8
回13-記事
  6
CONTINUOUS
 62
     7
 10
-495.8708571726858
 20
-64.54831988061664
 30
0.0
 40
0.307948428894622
 50
0.0
 51
180.0
  0
ARC
  5
239
  8
回13-記事
  6
CONTINUOUS
 62
     7
 10
-503.3708571726858
 20
-64.54831988061664
 30
0.0
 40
0.307948428894622
 50
0.0
 51
180.0
  0
ARC
  5
23A
  8
回13-記事
  6
CONTINUOUS
 62
     7
 10
-510.8708571726858
 20
-64.54831988061664
 30
0.0
 40
0.307948428894622
 50
0.0
 51
180.0
  0
ARC
  5
23B
  8
回13-記事
  6
CONTINUOUS
 62
     7
 10
-508.3708571726858
 20
-64.54831988061664
 30
0.0
 40
0.307948428894622
 50
0.0
 51
180.0
  0
ARC
  5
23C
  8
回13-記事
  6
CONTINUOUS
 62
     7
 10
-505.8708571726858
 20
-64.54831988061664
 30
0.0
 40
0.307948428894622
 50
0.0
 51
180.0
  0
ARC
  5
23D
  8
回13-記事
  6
CONTINUOUS
 62
     7
 10
-513.3708571726859
 20
-64.54831988061664
 30
0.0
 40
0.307948428894622
 50
0.0
 51
180.0
  0
ARC
  5
23E
  8
回13-記事
  6
CONTINUOUS
 62
     7
 10
-518.3708571726858
 20
-64.54831988061664
 30
0.0
 40
0.307948428894622
 50
0.0
 51
180.0
  0
ARC
  5
23F
  8
回13-記事
  6
CONTINUOUS
 62
     7
 10
-515.8708571726858
 20
-64.54831988061664
 30
0.0
 40
0.307948428894622
 50
0.0
 51
180.0
  0
ARC
  5
240
  8
回13-記事
  6
CONTINUOUS
 62
     7
 10
-520.8708571726858
 20
-64.54831988061664
 30
0.0
 40
0.307948428894622
 50
0.0
 51
180.0
  0
ARC
  5
241
  8
回13-記事
  6
CONTINUOUS
 62
     7
 10
-528.3708571726858
 20
-64.54831988061664
 30
0.0
 40
0.307948428894622
 50
0.0
 51
180.0
  0
ARC
  5
242
  8
回13-記事
  6
CONTINUOUS
 62
     7
 10
-525.8708571726859
 20
-64.54831988061664
 30
0.0
 40
0.307948428894622
 50
0.0
 51
180.0
  0
ARC
  5
243
  8
回13-記事
  6
CONTINUOUS
 62
     7
 10
-523.3708571726858
 20
-64.54831988061664
 30
0.0
 40
0.307948428894622
 50
0.0
 51
180.0
  0
ARC
  5
244
  8
回13-記事
  6
CONTINUOUS
 62
     7
 10
-530.8708571726858
 20
-64.54831988061664
 30
0.0
 40
0.307948428894622
 50
0.0
 51
180.0
  0
ARC
  5
245
  8
回13-記事
  6
CONTINUOUS
 62
     7
 10
-538.3708571726859
 20
-64.54831988061664
 30
0.0
 40
0.307948428894622
 50
0.0
 51
180.0
  0
ARC
  5
246
  8
回13-記事
  6
CONTINUOUS
 62
     7
 10
-535.8708571726858
 20
-64.54831988061664
 30
0.0
 40
0.307948428894622
 50
0.0
 51
180.0
  0
ARC
  5
247
  8
回13-記事
  6
CONTINUOUS
 62
     7
 10
-533.3708571726858
 20
-64.54831988061664
 30
0.0
 40
0.307948428894622
 50
0.0
 51
180.0
  0
ARC
  5
248
  8
回13-記事
  6
CONTINUOUS
 62
     7
 10
-540.8708571726858
 20
-64.54831988061664
 30
0.0
 40
0.307948428894622
 50
0.0
 51
180.0
  0
ARC
  5
249
  8
回13-記事
  6
CONTINUOUS
 62
     7
 10
-548.3708571726858
 20
-64.54831988061664
 30
0.0
 40
0.307948428894622
 50
0.0
 51
180.0
  0
ARC
  5
24A
  8
回13-記事
  6
CONTINUOUS
 62
     7
 10
-545.8708571726858
 20
-64.54831988061664
 30
0.0
 40
0.307948428894622
 50
0.0
 51
180.0
  0
ARC
  5
24B
  8
回13-記事
  6
CONTINUOUS
 62
     7
 10
-543.3708571726858
 20
-64.54831988061664
 30
0.0
 40
0.307948428894622
 50
0.0
 51
180.0
  0
ARC
  5
24C
  8
回13-記事
  6
CONTINUOUS
 62
     7
 10
-558.3708571726858
 20
-64.54831988061664
 30
0.0
 40
0.307948428894622
 50
0.0
 51
180.0
  0
ARC
  5
24D
  8
回13-記事
  6
CONTINUOUS
 62
     7
 10
-555.8708571726858
 20
-64.54831988061664
 30
0.0
 40
0.307948428894622
 50
0.0
 51
180.0
  0
ARC
  5
24E
  8
回13-記事
  6
CONTINUOUS
 62
     7
 10
-553.3708571726858
 20
-64.54831988061664
 30
0.0
 40
0.307948428894622
 50
0.0
 51
180.0
  0
ARC
  5
24F
  8
回13-記事
  6
CONTINUOUS
 62
     7
 10
-550.8708571726859
 20
-64.54831988061664
 30
0.0
 40
0.307948428894622
 50
0.0
 51
180.0
  0
ARC
  5
250
  8
回13-記事
  6
CONTINUOUS
 62
     7
 10
-560.8708571726858
 20
-64.54831988061664
 30
0.0
 40
0.307948428894622
 50
0.0
 51
180.0
  0
ARC
  5
251
  8
回13-記事
  6
CONTINUOUS
 62
     7
 10
-570.8708571726858
 20
-64.54831988061664
 30
0.0
 40
0.307948428894622
 50
0.0
 51
180.0
  0
ARC
  5
252
  8
回13-記事
  6
CONTINUOUS
 62
     7
 10
-568.3708571726858
 20
-64.54831988061664
 30
0.0
 40
0.307948428894622
 50
0.0
 51
180.0
  0
ARC
  5
253
  8
回13-記事
  6
CONTINUOUS
 62
     7
 10
-565.8708571726858
 20
-64.54831988061664
 30
0.0
 40
0.307948428894622
 50
0.0
 51
180.0
  0
ARC
  5
254
  8
回13-記事
  6
CONTINUOUS
 62
     7
 10
-563.3708571726859
 20
-64.54831988061664
 30
0.0
 40
0.307948428894622
 50
0.0
 51
180.0
  0
ARC
  5
255
  8
回13-記事
  6
CONTINUOUS
 62
     7
 10
-573.3708571726858
 20
-64.54831988061664
 30
0.0
 40
0.307948428894622
 50
0.0
 51
180.0
  0
ARC
  5
256
  8
回13-記事
  6
CONTINUOUS
 62
     7
 10
-583.3708571726858
 20
-64.54831988061664
 30
0.0
 40
0.307948428894622
 50
0.0
 51
180.0
  0
ARC
  5
257
  8
回13-記事
  6
CONTINUOUS
 62
     7
 10
-580.8708571726858
 20
-64.54831988061664
 30
0.0
 40
0.307948428894622
 50
0.0
 51
180.0
  0
ARC
  5
258
  8
回13-記事
  6
CONTINUOUS
 62
     7
 10
-578.3708571726858
 20
-64.54831988061664
 30
0.0
 40
0.307948428894622
 50
0.0
 51
180.0
  0
ARC
  5
259
  8
回13-記事
  6
CONTINUOUS
 62
     7
 10
-575.8708571726859
 20
-64.54831988061664
 30
0.0
 40
0.307948428894622
 50
0.0
 51
180.0
  0
ARC
  5
25A
  8
回13-記事
  6
CONTINUOUS
 62
     7
 10
-585.8708571726858
 20
-64.54831988061664
 30
0.0
 40
0.307948428894622
 50
0.0
 51
180.0
  0
ARC
  5
25B
  8
回13-記事
  6
CONTINUOUS
 62
     7
 10
-595.8708571726858
 20
-64.54831988061664
 30
0.0
 40
0.307948428894622
 50
0.0
 51
180.0
  0
ARC
  5
25C
  8
回13-記事
  6
CONTINUOUS
 62
     7
 10
-593.3708571726858
 20
-64.54831988061664
 30
0.0
 40
0.307948428894622
 50
0.0
 51
180.0
  0
ARC
  5
25D
  8
回13-記事
  6
CONTINUOUS
 62
     7
 10
-590.8708571726858
 20
-64.54831988061664
 30
0.0
 40
0.307948428894622
 50
0.0
 51
180.0
  0
ARC
  5
25E
  8
回13-記事
  6
CONTINUOUS
 62
     7
 10
-588.3708571726859
 20
-64.54831988061664
 30
0.0
 40
0.307948428894622
 50
0.0
 51
180.0
  0
ARC
  5
25F
  8
回13-記事
  6
CONTINUOUS
 62
     7
 10
-598.3708571726858
 20
-64.54831988061664
 30
0.0
 40
0.307948428894622
 50
0.0
 51
180.0
  0
ARC
  5
260
  8
回13-記事
  6
CONTINUOUS
 62
     7
 10
-608.3708571726859
 20
-64.54831988061664
 30
0.0
 40
0.307948428894622
 50
0.0
 51
180.0
  0
ARC
  5
261
  8
回13-記事
  6
CONTINUOUS
 62
     7
 10
-605.8708571726858
 20
-64.54831988061664
 30
0.0
 40
0.307948428894622
 50
0.0
 51
180.0
  0
ARC
  5
262
  8
回13-記事
  6
CONTINUOUS
 62
     7
 10
-603.3708571726858
 20
-64.54831988061664
 30
0.0
 40
0.307948428894622
 50
0.0
 51
180.0
  0
ARC
  5
263
  8
回13-記事
  6
CONTINUOUS
 62
     7
 10
-600.8708571726859
 20
-64.54831988061664
 30
0.0
 40
0.307948428894622
 50
0.0
 51
180.0
  0
TEXT
  5
264
  8
回13-記事
  6
CONTINUOUS
 62
     5
 10
-755.7080151458907
 20
-43.99509053021825
 30
0.0
 40
4.0
  1
PART No. LABEL
1001
ACAD
1000
MTEXTBEGIN
1070
    73
1070
     1
1070
    44
1040
1.0
1070
    74
1070
     0
1000
MTEXTEND
  0
INSERT
  5
265
  8
回13-記事
  6
CONTINUOUS
 62
     7
 66
     1
  2
*X23
 10
0.0
 20
0.0
 30
0.0
  0
SEQEND
  5
30C
  8
回06-GER
 62
     5
  0
POLYLINE
  5
266
  8
回13-記事
  6
CONTINUOUS
 62
     7
 66
     1
 10
0.0
 20
0.0
 30
0.0
 70
     1
  0
VERTEX
  5
30D
  8
回13-記事
  6
CONTINUOUS
 62
     7
 10
-765.8575520299416
 20
-63.49512702763059
 30
0.0
  0
VERTEX
  5
30F
  8
回13-記事
  6
CONTINUOUS
 62
     7
 10
-739.8575520299417
 20
-63.49512702763059
 30
0.0
  0
VERTEX
  5
310
  8
回13-記事
  6
CONTINUOUS
 62
     7
 10
-739.8575520299417
 20
-62.5153040820037
 30
0.0
  0
VERTEX
  5
311
  8
回13-記事
  6
CONTINUOUS
 62
     7
 10
-765.8575520299416
 20
-62.5153040820037
 30
0.0
  0
SEQEND
  5
30E
  8
回06-GER
 62
     5
  0
LINE
  5
267
  8
回13-記事
  6
CONTINUOUS
 62
     8
 10
-708.0696067259484
 20
-61.12421344433323
 30
0.0
 11
-718.0825677444011
 21
-61.12421344433323
 31
0.0
  0
LINE
  5
268
  8
回13-記事
  6
CONTINUOUS
 62
     8
 10
-708.0696067259484
 20
-62.04089286472231
 30
0.0
 11
-708.0696067259484
 21
-61.12421344433323
 31
0.0
  0
LINE
  5
269
  8
回13-記事
  6
CONTINUOUS
 62
     8
 10
-717.1276066872556
 20
-62.04089286472231
 30
0.0
 11
-708.0696067259484
 21
-62.04089286472231
 31
0.0
  0
LINE
  5
26A
  8
回13-記事
  6
CONTINUOUS
 62
     8
 10
-718.0825677444011
 20
-61.12421344433323
 30
0.0
 11
-718.0825677444011
 21
-61.76041216105727
 31
0.0
  0
LINE
  5
26B
  8
回13-記事
  6
CONTINUOUS
 62
     8
 10
-725.6276066872556
 20
-61.76041216105727
 30
0.0
 11
-725.6276066872556
 21
-62.71537321820279
 31
0.0
  0
LINE
  5
26C
  8
回13-記事
  6
CONTINUOUS
 62
     8
 10
-725.6276066872556
 20
-61.76041216105727
 30
0.0
 11
-718.0825677444011
 21
-61.76041216105727
 31
0.0
  0
LINE
  5
26D
  8
回13-記事
  6
CONTINUOUS
 62
     7
 10
-713.0106305299234
 20
-61.82572128232482
 30
0.0
 11
-717.5694712001274
 21
-74.02461729404876
 31
0.0
  0
TEXT
  5
26E
  8
回13-記事
  6
CONTINUOUS
 62
     7
 10
-719.6025324306849
 20
-78.66476036379935
 30
0.0
 40
4.0
  1
6
  0
LINE
  5
26F
  8
回13-記事
  6
CONTINUOUS
 62
     7
 10
-712.1029324263043
 20
-68.4838098969949
 30
0.0
 11
-717.5694712001274
 21
-74.02461729404876
 31
0.0
  0
LINE
  5
270
  8
回13-記事
  6
CONTINUOUS
 62
     7
 10
-708.0696067259484
 20
-68.71920493344976
 30
0.0
 11
-708.0696067259484
 21
-67.76424387630425
 31
0.0
  0
LINE
  5
271
  8
回13-記事
  6
CONTINUOUS
 62
     7
 10
-718.5825677444011
 20
-68.71920493344976
 30
0.0
 11
-708.0696067259484
 21
-68.71920493344976
 31
0.0
  0
LINE
  5
272
  8
回13-記事
  6
CONTINUOUS
 62
     7
 10
-718.5825677444011
 20
-66.28303474718996
 30
0.0
 11
-718.5825677444011
 21
-68.71920493344976
 31
0.0
  0
LINE
  5
273
  8
回13-記事
  6
CONTINUOUS
 62
     7
 10
-725.6276066872556
 20
-66.28303474718996
 30
0.0
 11
-718.5825677444011
 21
-66.28303474718996
 31
0.0
  0
LINE
  5
274
  8
回13-記事
  6
CONTINUOUS
 62
     7
 10
-725.6276066872556
 20
-65.32807369004444
 30
0.0
 11
-725.6276066872556
 21
-66.28303474718996
 31
0.0
  0
TEXT
  5
275
  8
回13-記事
  6
CONTINUOUS
 62
     5
 10
-782.5701380688956
 20
-84.49726071126383
 30
0.0
 40
4.0
  1
LOT LABEL
1001
ACAD
1000
MTEXTBEGIN
1070
    73
1070
     1
1070
    44
1040
1.0
1070
    74
1070
     0
1000
MTEXTEND
  0
INSERT
  5
276
  8
回13-記事
  6
CONTINUOUS
 62
     7
 66
     1
  2
*X24
 10
0.0
 20
0.0
 30
0.0
  0
SEQEND
  5
318
  8
回06-GER
 62
     5
  0
POLYLINE
  5
277
  8
回13-記事
  6
CONTINUOUS
 62
     7
 66
     1
 10
0.0
 20
0.0
 30
0.0
 70
     1
  0
VERTEX
  5
319
  8
回13-記事
  6
CONTINUOUS
 62
     7
 10
-765.8575520299416
 20
-66.30789663567134
 30
0.0
  0
VERTEX
  5
31B
  8
回13-記事
  6
CONTINUOUS
 62
     7
 10
-739.8575520299417
 20
-66.30789663567134
 30
0.0
  0
VERTEX
  5
31C
  8
回13-記事
  6
CONTINUOUS
 62
     7
 10
-739.8575520299417
 20
-65.32807369004444
 30
0.0
  0
VERTEX
  5
31D
  8
回13-記事
  6
CONTINUOUS
 62
     7
 10
-765.8575520299416
 20
-65.32807369004444
 30
0.0
  0
SEQEND
  5
31A
  8
回06-GER
 62
     5
  0
TEXT
  5
278
  8
回13-記事
  6
CONTINUOUS
 62
     7
 10
-481.333512599416
 20
-55.7914258122712
 30
0.0
 40
4.0
  1
7
  0
LINE
  5
279
  8
回13-記事
  6
CONTINUOUS
 62
     7
 10
-473.5112702164895
 20
-64.01905361384456
 30
0.0
 11
-479.9120295684913
 21
-56.40604054250002
 31
0.0
  0
TEXT
  5
27A
  8
回13-記事
  6
CONTINUOUS
 62
     7
 10
-704.8967067925377
 20
-79.0623922685345
 30
0.0
 40
4.0
  1
7
  0
LINE
  5
27B
  8
回13-記事
  6
CONTINUOUS
 62
     7
 10
-707.2102216966475
 20
-64.01905361384456
 30
0.0
 11
-704.0724615658155
 21
-74.60152099277002
 31
0.0
  0
TEXT
  5
27C
  8
回13-記事
  6
CONTINUOUS
 62
     7
 10
-831.6327935397218
 20
-58.8076397617699
 30
0.0
 40
4.0
  1
8
  0
TEXT
  5
27D
  8
回13-記事
  6
CONTINUOUS
 62
     7
 10
-811.1919266184596
 20
-58.51136372134646
 30
0.0
 40
4.0
  1
5
  0
TEXT
  5
27E
  8
回13-記事
  6
CONTINUOUS
 62
     7
 10
-736.0404065116476
 20
-73.57322361301999
 30
0.0
 40
4.0
  1
4
  0
TEXT
  5
27F
  8
回13-記事
  6
CONTINUOUS
 62
     7
 10
-779.5729285226116
 20
-58.65996645655219
 30
0.0
 40
4.0
  1
3
  0
TEXT
  5
280
  8
回13-記事
  6
CONTINUOUS
 62
     7
 10
-562.6535067971023
 20
-77.60917340804212
 30
0.0
 40
4.0
  1
2
  0
TEXT
  5
281
  8
回13-記事
  6
CONTINUOUS
 62
     7
 10
-551.3433448081475
 20
-53.89580692715412
 30
0.0
 40
4.0
  1
1
  0
LINE
  5
282
  8
回13-記事
  6
CONTINUOUS
 62
     7
 10
-822.9956199516855
 20
-64.17750989656747
 30
0.0
 11
-828.5624418829081
 21
-59.65999902068483
 31
0.0
  0
LINE
  5
283
  8
回13-記事
  6
CONTINUOUS
 62
     7
 10
-811.4699907242847
 20
-63.13827879889527
 30
0.0
 11
-809.938433287929
 21
-59.2541919199623
 31
0.0
  0
LINE
  5
284
  8
回13-記事
  6
CONTINUOUS
 62
     7
 10
-736.0666459608914
 20
-64.99023134409094
 30
0.0
 11
-734.7879903618436
 21
-69.14189146897047
 31
0.0
  0
LINE
  5
285
  8
回13-記事
  6
CONTINUOUS
 62
     7
 10
-780.442903437337
 20
-63.81070948779711
 30
0.0
 11
-778.8849466577194
 21
-59.66010923383715
 31
0.0
  0
LINE
  5
286
  8
回13-記事
  6
CONTINUOUS
 62
     7
 10
-564.4148908399045
 20
-65.78734667247068
 30
0.0
 11
-562.1166311529257
 21
-73.17651849980234
 31
0.0
  0
LINE
  5
287
  8
回13-記事
  6
CONTINUOUS
 62
     7
 10
-553.6568597122575
 20
-62.87648626559008
 30
0.0
 11
-550.5190995814253
 21
-55.26347319424553
 31
0.0
  0
ARC
  5
288
  8
回13-記事
  6
CONTINUOUS
 62
     7
 10
-700.8708571726859
 20
-64.54831988061664
 30
0.0
 40
0.307948428894622
 50
0.0
 51
180.0
  0
ARC
  5
289
  8
回13-記事
  6
CONTINUOUS
 62
     7
 10
-698.3708571726858
 20
-64.54831988061664
 30
0.0
 40
0.307948428894622
 50
0.0
 51
180.0
  0
ARC
  5
28A
  8
回13-記事
  6
CONTINUOUS
 62
     7
 10
-695.8708571726859
 20
-64.54831988061664
 30
0.0
 40
0.307948428894622
 50
0.0
 51
180.0
  0
ARC
  5
28B
  8
回13-記事
  6
CONTINUOUS
 62
     7
 10
-693.3708571726858
 20
-64.54831988061664
 30
0.0
 40
0.307948428894622
 50
0.0
 51
180.0
  0
ARC
  5
28C
  8
回13-記事
  6
CONTINUOUS
 62
     7
 10
-690.8708571726858
 20
-64.54831988061664
 30
0.0
 40
0.307948428894622
 50
0.0
 51
180.0
  0
ARC
  5
28D
  8
回13-記事
  6
CONTINUOUS
 62
     7
 10
-688.3708571726859
 20
-64.54831988061664
 30
0.0
 40
0.307948428894622
 50
0.0
 51
180.0
  0
ARC
  5
28E
  8
回13-記事
  6
CONTINUOUS
 62
     7
 10
-685.8708571726858
 20
-64.54831988061664
 30
0.0
 40
0.307948428894622
 50
0.0
 51
180.0
  0
ARC
  5
28F
  8
回13-記事
  6
CONTINUOUS
 62
     7
 10
-683.3708571726859
 20
-64.54831988061664
 30
0.0
 40
0.307948428894622
 50
0.0
 51
180.0
  0
ARC
  5
290
  8
回13-記事
  6
CONTINUOUS
 62
     7
 10
-680.8708571726858
 20
-64.54831988061664
 30
0.0
 40
0.307948428894622
 50
0.0
 51
180.0
  0
ARC
  5
291
  8
回13-記事
  6
CONTINUOUS
 62
     7
 10
-678.3708571726858
 20
-64.54831988061664
 30
0.0
 40
0.307948428894622
 50
0.0
 51
180.0
  0
ARC
  5
292
  8
回13-記事
  6
CONTINUOUS
 62
     7
 10
-675.8708571726859
 20
-64.54831988061664
 30
0.0
 40
0.307948428894622
 50
0.0
 51
180.0
  0
ARC
  5
293
  8
回13-記事
  6
CONTINUOUS
 62
     7
 10
-673.3708571726858
 20
-64.54831988061664
 30
0.0
 40
0.307948428894622
 50
0.0
 51
180.0
  0
ARC
  5
294
  8
回13-記事
  6
CONTINUOUS
 62
     7
 10
-670.8708571726859
 20
-64.54831988061664
 30
0.0
 40
0.307948428894622
 50
0.0
 51
180.0
  0
ARC
  5
295
  8
回13-記事
  6
CONTINUOUS
 62
     7
 10
-668.3708571726858
 20
-64.54831988061664
 30
0.0
 40
0.307948428894622
 50
0.0
 51
180.0
  0
ARC
  5
296
  8
回13-記事
  6
CONTINUOUS
 62
     7
 10
-665.8708571726858
 20
-64.54831988061664
 30
0.0
 40
0.307948428894622
 50
0.0
 51
180.0
  0
ARC
  5
297
  8
回13-記事
  6
CONTINUOUS
 62
     7
 10
-663.3708571726859
 20
-64.54831988061664
 30
0.0
 40
0.307948428894622
 50
0.0
 51
180.0
  0
ARC
  5
298
  8
回13-記事
  6
CONTINUOUS
 62
     7
 10
-660.8708571726858
 20
-64.54831988061664
 30
0.0
 40
0.307948428894622
 50
0.0
 51
180.0
  0
ARC
  5
299
  8
回13-記事
  6
CONTINUOUS
 62
     7
 10
-658.3708571726859
 20
-64.54831988061664
 30
0.0
 40
0.307948428894622
 50
0.0
 51
180.0
  0
ARC
  5
29A
  8
回13-記事
  6
CONTINUOUS
 62
     7
 10
-655.8708571726858
 20
-64.54831988061664
 30
0.0
 40
0.307948428894622
 50
0.0
 51
180.0
  0
ARC
  5
29B
  8
回13-記事
  6
CONTINUOUS
 62
     7
 10
-653.3708571726858
 20
-64.54831988061664
 30
0.0
 40
0.307948428894622
 50
0.0
 51
180.0
  0
ARC
  5
29C
  8
回13-記事
  6
CONTINUOUS
 62
     7
 10
-650.8708571726859
 20
-64.54831988061664
 30
0.0
 40
0.307948428894622
 50
0.0
 51
180.0
  0
ARC
  5
29D
  8
回13-記事
  6
CONTINUOUS
 62
     7
 10
-648.3708571726858
 20
-64.54831988061664
 30
0.0
 40
0.307948428894622
 50
0.0
 51
180.0
  0
ARC
  5
29E
  8
回13-記事
  6
CONTINUOUS
 62
     7
 10
-645.8708571726859
 20
-64.54831988061664
 30
0.0
 40
0.307948428894622
 50
0.0
 51
180.0
  0
ARC
  5
29F
  8
回13-記事
  6
CONTINUOUS
 62
     7
 10
-643.3708571726858
 20
-64.54831988061664
 30
0.0
 40
0.307948428894622
 50
0.0
 51
180.0
  0
ARC
  5
2A0
  8
回13-記事
  6
CONTINUOUS
 62
     7
 10
-640.8708571726858
 20
-64.54831988061664
 30
0.0
 40
0.307948428894622
 50
0.0
 51
180.0
  0
ARC
  5
2A1
  8
回13-記事
  6
CONTINUOUS
 62
     7
 10
-638.3708571726859
 20
-64.54831988061664
 30
0.0
 40
0.307948428894622
 50
0.0
 51
180.0
  0
ARC
  5
2A2
  8
回13-記事
  6
CONTINUOUS
 62
     7
 10
-635.8708571726858
 20
-64.54831988061664
 30
0.0
 40
0.307948428894622
 50
0.0
 51
180.0
  0
ARC
  5
2A3
  8
回13-記事
  6
CONTINUOUS
 62
     7
 10
-633.3708571726859
 20
-64.54831988061664
 30
0.0
 40
0.307948428894622
 50
0.0
 51
180.0
  0
ARC
  5
2A4
  8
回13-記事
  6
CONTINUOUS
 62
     7
 10
-630.8708571726858
 20
-64.54831988061664
 30
0.0
 40
0.307948428894622
 50
0.0
 51
180.0
  0
ARC
  5
2A5
  8
回13-記事
  6
CONTINUOUS
 62
     7
 10
-628.3708571726858
 20
-64.54831988061664
 30
0.0
 40
0.307948428894622
 50
0.0
 51
180.0
  0
ARC
  5
2A6
  8
回13-記事
  6
CONTINUOUS
 62
     7
 10
-625.8708571726859
 20
-64.54831988061664
 30
0.0
 40
0.307948428894622
 50
0.0
 51
180.0
  0
ARC
  5
2A7
  8
回13-記事
  6
CONTINUOUS
 62
     7
 10
-623.3708571726858
 20
-64.54831988061664
 30
0.0
 40
0.307948428894622
 50
0.0
 51
180.0
  0
ARC
  5
2A8
  8
回13-記事
  6
CONTINUOUS
 62
     7
 10
-620.8708571726859
 20
-64.54831988061664
 30
0.0
 40
0.307948428894622
 50
0.0
 51
180.0
  0
ARC
  5
2A9
  8
回13-記事
  6
CONTINUOUS
 62
     7
 10
-618.3708571726858
 20
-64.54831988061664
 30
0.0
 40
0.307948428894622
 50
0.0
 51
180.0
  0
ARC
  5
2AA
  8
回13-記事
  6
CONTINUOUS
 62
     7
 10
-615.8708571726858
 20
-64.54831988061664
 30
0.0
 40
0.307948428894622
 50
0.0
 51
180.0
  0
ARC
  5
2AB
  8
回13-記事
  6
CONTINUOUS
 62
     7
 10
-613.3708571726859
 20
-64.54831988061664
 30
0.0
 40
0.307948428894622
 50
0.0
 51
180.0
  0
ARC
  5
2AC
  8
回13-記事
  6
CONTINUOUS
 62
     7
 10
-610.8708571726858
 20
-64.54831988061664
 30
0.0
 40
0.307948428894622
 50
0.0
 51
180.0
  0
POLYLINE
  5
2AD
  8
回13-記事
  6
CONTINUOUS
 62
     7
 66
     1
 10
0.0
 20
0.0
 30
0.0
 70
     1
  0
VERTEX
  5
31E
  8
回13-記事
  6
CONTINUOUS
 62
     7
 10
-807.6234066872553
 20
-62.89512702763068
 30
0.0
  0
VERTEX
  5
320
  8
回13-記事
  6
CONTINUOUS
 62
     7
 10
-807.6234066872553
 20
-63.49512702763059
 30
0.0
  0
VERTEX
  5
321
  8
回13-記事
  6
CONTINUOUS
 62
     7
 10
-817.6234066872552
 20
-63.49512702763059
 30
0.0
  0
VERTEX
  5
322
  8
回13-記事
  6
CONTINUOUS
 62
     7
 10
-817.6234066872552
 20
-62.89512702763068
 30
0.0
  0
SEQEND
  5
31F
  8
回06-GER
 62
     5
  0
LINE
  5
2AE
  8
回13-記事
  6
CONTINUOUS
 62
     7
 10
-702.7376066872554
 20
-63.49512702763059
 30
0.0
 11
-702.7376066872554
 21
-64.54831988061664
 31
0.0
  0
LINE
  5
2AF
  8
回13-記事
  6
CONTINUOUS
 62
     7
 10
-485.2176066872555
 20
-63.49512702763059
 30
0.0
 11
-485.2176066872555
 21
-64.54831988061664
 31
0.0
  0
POLYLINE
  5
2B0
  8
回13-記事
  6
CONTINUOUS
 62
     7
 66
     1
 10
0.0
 20
0.0
 30
0.0
 70
     1
  0
VERTEX
  5
323
  8
回13-記事
  6
CONTINUOUS
 62
     7
 10
-817.6234066872552
 20
-64.54831988061664
 30
0.0
  0
VERTEX
  5
325
  8
回13-記事
  6
CONTINUOUS
 62
     7
 10
-710.0696067259484
 20
-64.54831988061664
 30
0.0
  0
VERTEX
  5
326
  8
回13-記事
  6
CONTINUOUS
 62
     7
 10
-710.0696067259484
 20
-63.49512702763059
 30
0.0
  0
VERTEX
  5
327
  8
回13-記事
  6
CONTINUOUS
 62
     7
 10
-817.6234066872552
 20
-63.49512702763059
 30
0.0
  0
SEQEND
  5
324
  8
回06-GER
 62
     5
  0
POLYLINE
  5
2B1
  8
回13-記事
  6
CONTINUOUS
 62
     7
 66
     1
 10
0.0
 20
0.0
 30
0.0
 70
     1
  0
VERTEX
  5
328
  8
回13-記事
  6
CONTINUOUS
 62
     7
 10
-817.6234066872552
 20
-64.54831988061664
 30
0.0
  0
VERTEX
  5
32A
  8
回13-記事
  6
CONTINUOUS
 62
     7
 10
-717.1276066872556
 20
-64.54831988061664
 30
0.0
  0
VERTEX
  5
32B
  8
回13-記事
  6
CONTINUOUS
 62
     7
 10
-717.1276066872556
 20
-65.32807369004444
 30
0.0
  0
VERTEX
  5
32C
  8
回13-記事
  6
CONTINUOUS
 62
     7
 10
-817.6234066872552
 20
-65.32807369004444
 30
0.0
  0
SEQEND
  5
329
  8
回06-GER
 62
     5
  0
LINE
  5
2B2
  8
回13-記事
  6
CONTINUOUS
 62
     7
 10
-469.2076066872557
 20
-63.49512702763059
 30
0.0
 11
-469.2076066872557
 21
-64.54831988061664
 31
0.0
  0
POLYLINE
  5
2B3
  8
回13-記事
  6
CONTINUOUS
 62
     7
 66
     1
 10
0.0
 20
0.0
 30
0.0
 70
     1
  0
VERTEX
  5
32D
  8
回13-記事
  6
CONTINUOUS
 62
     7
 10
-717.6276066872556
 20
-64.54831988061664
 30
0.0
  0
VERTEX
  5
32F
  8
回13-記事
  6
CONTINUOUS
 62
     7
 10
-468.7076066872557
 20
-64.54831988061664
 30
0.0
  0
VERTEX
  5
330
  8
回13-記事
  6
CONTINUOUS
 62
     7
 10
-468.7076066872557
 20
-67.76424387630425
 30
0.0
  0
VERTEX
  5
331
  8
回13-記事
  6
CONTINUOUS
 62
     7
 10
-717.6276066872556
 20
-67.76424387630425
 30
0.0
  0
SEQEND
  5
32E
  8
回06-GER
 62
     5
  0
POLYLINE
  5
2B4
  8
回13-記事
  6
CONTINUOUS
 62
     7
 66
     1
 10
0.0
 20
0.0
 30
0.0
 70
     1
  0
VERTEX
  5
332
  8
回13-記事
  6
CONTINUOUS
 62
     7
 10
-717.1276066872556
 20
-62.04089286472231
 30
0.0
  0
VERTEX
  5
334
  8
回13-記事
  6
CONTINUOUS
 62
     7
 10
-469.2076066872557
 20
-62.04089286472231
 30
0.0
  0
VERTEX
  5
335
  8
回13-記事
  6
CONTINUOUS
 62
     7
 10
-469.2076066872557
 20
-63.49512702763059
 30
0.0
  0
VERTEX
  5
336
  8
回13-記事
  6
CONTINUOUS
 62
     7
 10
-717.1276066872556
 20
-63.49512702763059
 30
0.0
  0
SEQEND
  5
333
  8
回06-GER
 62
     5
  0
POLYLINE
  5
2B5
  8
回13-記事
  6
DASHED2
 62
     7
 66
     1
 10
0.0
 20
0.0
 30
0.0
 70
     1
  0
VERTEX
  5
337
  8
回13-記事
  6
DASHED2
 62
     7
 10
-725.627606687256
 20
74.13358574246434
 30
0.0
  0
VERTEX
  5
339
  8
回13-記事
  6
DASHED2
 62
     7
 10
-708.0696067259489
 20
74.13358574246434
 30
0.0
  0
VERTEX
  5
33A
  8
回13-記事
  6
DASHED2
 62
     7
 10
-708.0696067259489
 20
88.37358574246479
 30
0.0
  0
VERTEX
  5
33B
  8
回13-記事
  6
DASHED2
 62
     7
 10
-725.627606687256
 20
88.37358574246479
 30
0.0
  0
SEQEND
  5
338
  8
回06-GER
 62
     5
  0
POLYLINE
  5
2B6
  8
回13-記事
  6
DASHED2
 62
     7
 66
     1
 10
0.0
 20
0.0
 30
0.0
 70
     1
  0
VERTEX
  5
33C
  8
回13-記事
  6
DASHED2
 62
     7
 10
-827.6276066872556
 20
74.97978574246508
 30
0.0
  0
VERTEX
  5
33E
  8
回13-記事
  6
DASHED2
 62
     7
 10
-813.9116066872555
 20
74.97978574246508
 30
0.0
  0
VERTEX
  5
33F
  8
回13-記事
  6
DASHED2
 62
     7
 10
-813.9116066872555
 20
87.52738574246519
 30
0.0
  0
VERTEX
  5
340
  8
回13-記事
  6
DASHED2
 62
     7
 10
-827.6276066872556
 20
87.52738574246519
 30
0.0
  0
SEQEND
  5
33D
  8
回06-GER
 62
     5
  0
INSERT
  5
2B7
  8
回13-記事
  6
CONTINUOUS
 62
     5
 66
     1
  2
*X25
 10
0.0
 20
0.0
 30
0.0
  0
SEQEND
  5
346
  8
回06-GER
 62
     5
  0
INSERT
  5
2B8
  8
回13-記事
  6
CONTINUOUS
 62
     7
 66
     1
  2
*X26
 10
0.0
 20
0.0
 30
0.0
  0
SEQEND
  5
34D
  8
回06-GER
 62
     5
  0
TEXT
  5
2B9
  8
回13-記事
  6
CONTINUOUS
 62
     5
 10
-821.6740003507998
 20
69.61044225045589
 30
0.0
 40
4.777499999999998
  1
5
 50
90.0
  0
TEXT
  5
2BA
  8
回13-記事
  6
CONTINUOUS
 62
     5
 10
-821.6740003507998
 20
90.10242337616489
 30
0.0
 40
4.777499999999998
  1
1
 50
90.0
  0
INSERT
  5
2BB
  8
回13-記事
  6
CONTINUOUS
 62
     8
 66
     1
  2
*X27
 10
0.0
 20
0.0
 30
0.0
1001
ACAD
1000
HATCH
1002
{
1070
    19
1000
ANSI31
1040
1.0
1040
3.141592653589793
1000
ASC_BOUNDS
1070
     1
1070
     2
1070
     1
1005
2BC
1000
ASC_SEEDPOINT
1011
-916.5523169294136
1021
107.569294766788
1031
0.0
1000
R14_HATCH_DATA
1000
2BB
1011
1.0
1021
0.0
1031
0.0
1011
0.0
1021
1.0
1031
0.0
1011
0.0
1021
0.0
1031
1.0
1040
0.0
1010
0.0
1020
0.0
1030
1.0
1000
ANSI31
1070
     0
1070
     1
1071
        1
1071
        1
1071
        8
1070
     1
1040
-765.8575520299416
1040
82.33660420597505
1040
-765.8575520299416
1040
80.33660420597504
1070
     2
1040
-764.8575520299417
1040
80.33660420597504
1040
1.0
1040
3.141592653589793
1040
4.712388980384689
1070
     1
1070
     1
1040
-764.8575520299417
1040
79.33660420597504
1040
-740.8575520299416
1040
79.33660420597504
1070
     2
1040
-740.8575520299416
1040
80.33660420597504
1040
1.0
1040
4.712388980384689
1040
6.283185307179586
1070
     1
1070
     1
1040
-739.8575520299417
1040
80.33660420597504
1040
-739.8575520299417
1040
82.33660420597505
1070
     2
1040
-740.8575520299416
1040
82.33660420597505
1040
1.0
1040
0.0
1040
1.570796326794896
1070
     1
1070
     1
1040
-740.8575520299416
1040
83.33660420597505
1040
-764.8575520299417
1040
83.33660420597505
1070
     2
1040
-764.8575520299417
1040
82.33660420597505
1040
1.0
1040
1.570796326794896
1040
3.141592653589793
1070
     1
1071
        1
1005
2BC
1070
     0
1070
     1
1040
3.141592653589793
1040
1.0
1070
     0
1070
     1
1040
2.356194490192344
1040
-916.5523169294136
1040
107.569294766788
1040
2.245064030267287
1040
2.245064030267288
1070
     0
1071
        1
1040
-916.5523169294136
1040
107.569294766788
1040
0.0
1002
}
  0
SEQEND
  5
357
  8
回06-GER
 62
     5
  0
POLYLINE
  5
2BC
  8
回13-記事
  6
PHANTOM2
 62
     8
 66
     1
 10
0.0
 20
0.0
 30
0.0
 70
     1
1001
ACAD
1000
ASC_BOUNDS
1002
{
1070
    19
1005
2BB
1002
}
  0
VERTEX
  5
358
  8
回13-記事
  6
PHANTOM2
 62
     8
 10
-765.8575520299416
 20
82.33660420597505
 30
0.0
  0
VERTEX
  5
35A
  8
回13-記事
  6
PHANTOM2
 62
     8
 10
-765.8575520299416
 20
80.33660420597504
 30
0.0
 42
0.4142135623730951
  0
VERTEX
  5
35B
  8
回13-記事
  6
PHANTOM2
 62
     8
 10
-764.8575520299417
 20
79.33660420597504
 30
0.0
  0
VERTEX
  5
35C
  8
回13-記事
  6
PHANTOM2
 62
     8
 10
-740.8575520299416
 20
79.33660420597504
 30
0.0
 42
0.4142135623730951
  0
VERTEX
  5
35D
  8
回13-記事
  6
PHANTOM2
 62
     8
 10
-739.8575520299417
 20
80.33660420597504
 30
0.0
  0
VERTEX
  5
35E
  8
回13-記事
  6
PHANTOM2
 62
     8
 10
-739.8575520299417
 20
82.33660420597505
 30
0.0
 42
0.4142135623730951
  0
VERTEX
  5
35F
  8
回13-記事
  6
PHANTOM2
 62
     8
 10
-740.8575520299416
 20
83.33660420597505
 30
0.0
  0
VERTEX
  5
360
  8
回13-記事
  6
PHANTOM2
 62
     8
 10
-764.8575520299417
 20
83.33660420597505
 30
0.0
 42
0.4142135623730951
  0
SEQEND
  5
359
  8
回06-GER
 62
     5
  0
LINE
  5
2BE
  8
回10-ﾃｰﾙ
  6
CONTINUOUS
 62
     8
 10
-717.1276066872553
 20
90.87358574246549
 30
0.0
 11
-717.1276066872553
 21
91.25358574246513
 31
0.0
  0
ARC
  5
2C2
  8
回10-ﾃｰﾙ
  6
CONTINUOUS
 62
     7
 10
-719.1276066872553
 20
90.87358574246549
 30
0.0
 40
2.0
 50
270.0
 51
0.0
  0
LINE
  5
2C3
  8
回10-ﾃｰﾙ
  6
CONTINUOUS
 62
     8
 10
-717.1276066872553
 20
71.63358574246501
 30
0.0
 11
-717.1276066872553
 21
71.25358574246513
 31
0.0
  0
ARC
  5
2C4
  8
回10-ﾃｰﾙ
  6
CONTINUOUS
 62
     7
 10
-719.1276066872553
 20
71.63358574246501
 30
0.0
 40
2.0
 50
0.0
 51
90.0
  0
ARC
  5
2C5
  8
回10-ﾃｰﾙ
 62
     7
 10
-818.8726066872554
 20
88.37358574246525
 30
0.0
 40
0.5
 50
90.0
 51
180.0
  0
ARC
  5
2C6
  8
回10-ﾃｰﾙ
 62
     7
 10
-818.8726066872554
 20
74.13358574246524
 30
0.0
 40
0.5
 50
180.0
 51
270.0
  0
LINE
  5
2C7
  8
回10-ﾃｰﾙ
 62
     7
 10
-819.3726066872555
 20
74.13358574246524
 30
0.0
 11
-819.3726066872555
 21
88.37358574246525
 31
0.0
  0
LINE
  5
2C8
  8
回10-ﾃｰﾙ
 62
     7
 10
-719.1276066872553
 20
88.87358574246547
 30
0.0
 11
-818.8726066872554
 21
88.87358574246547
 31
0.0
  0
LINE
  5
2C9
  8
回10-ﾃｰﾙ
 62
     7
 10
-719.1276066872553
 20
73.63358574246501
 30
0.0
 11
-818.8726066872554
 21
73.63358574246501
 31
0.0
  0
LINE
  5
2CA
  8
回10-ﾃｰﾙ
  6
CONTINUOUS
 62
     8
 10
-717.1276066872553
 20
90.87358574246536
 30
0.0
 11
-717.1276066872553
 21
91.25358574246513
 31
0.0
  0
TEXT
  5
2CB
  8
回13-記事
  6
CONTINUOUS
 62
     5
 10
-496.143594277759
 20
1.310657492784912
 30
0.0
 40
4.777499999999998
  1
LR
  0
TEXT
  5
2CC
  8
回13-記事
  6
CONTINUOUS
 62
     5
 10
-494.8912120514551
 20
157.1838177012885
 30
0.0
 40
4.777499999999998
  1
UR
  0
TEXT
  5
2CD
  8
回13-記事
  6
CONTINUOUS
 62
     5
 10
-698.8022156005558
 20
0.9630444810059088
 30
0.0
 40
4.777499999999998
  1
LL
  0
TEXT
  5
2CE
  8
回13-記事
  6
CONTINUOUS
 62
     5
 10
-699.0317783105163
 20
156.5331291398915
 30
0.0
 40
4.777499999999998
  1
UL
  0
POLYLINE
  5
2CF
  8
回13-記事
  6
PHANTOM2
 62
     7
 66
     1
 10
0.0
 20
0.0
 30
0.0
 70
     1
  0
VERTEX
  5
361
  8
回13-記事
  6
PHANTOM2
 62
     7
 10
-701.1176066872553
 20
163.1685857424654
 30
0.0
  0
VERTEX
  5
363
  8
回13-記事
  6
PHANTOM2
 62
     7
 10
-485.2176066872555
 20
163.1685857424654
 30
0.0
  0
VERTEX
  5
364
  8
回13-記事
  6
PHANTOM2
 62
     7
 10
-485.2176066872555
 20
-0.661414257534716
 30
0.0
  0
VERTEX
  5
365
  8
回13-記事
  6
PHANTOM2
 62
     7
 10
-701.1176066872553
 20
-0.661414257534716
 30
0.0
  0
SEQEND
  5
362
  8
回06-GER
 62
     5
  0
LINE
  5
2D0
  8
回12-寸法
  6
CENTER2
 62
     1
 10
-466.3978867242215
 20
81.2510857424653
 30
0.0
 11
-831.1708925244081
 21
81.25358574246536
 31
0.0
  0
LINE
  5
2D2
  8
回12-寸法
  6
CENTER2
 62
     1
 10
-593.1676066872557
 20
180.20834573595
 30
0.0
 11
-593.1676066872557
 21
-15.16502601201318
 31
0.0
  0
POLYLINE
  5
2D3
  8
回02-G外
  6
CONTINUOUS
 62
     7
 66
     1
 10
0.0
 20
0.0
 30
0.0
 70
     1
  0
VERTEX
  5
366
  8
回02-G外
  6
CONTINUOUS
 62
     7
 10
-717.6276066872553
 20
-12.09141425753466
 30
0.0
  0
VERTEX
  5
368
  8
回02-G外
  6
CONTINUOUS
 62
     7
 10
-468.7076066872555
 20
-12.09141425753466
 30
0.0
  0
VERTEX
  5
369
  8
回02-G外
  6
CONTINUOUS
 62
     7
 10
-468.7076066872555
 20
174.5985857424654
 30
0.0
  0
VERTEX
  5
36A
  8
回02-G外
  6
CONTINUOUS
 62
     7
 10
-717.6276066872553
 20
174.5985857424654
 30
0.0
  0
SEQEND
  5
367
  8
回06-GER
 62
     5
  0
INSERT
  5
2D7
  8
回06-GER
 62
     5
 66
     1
  2
*U28
 10
0.0
 20
0.0
 30
0.0
1001
ACAD
1000
ASC_BOUNDS
1002
{
1070
    19
1005
2D8
1002
}
  0
SEQEND
  5
376
  8
回06-GER
 62
     5
  0
INSERT
  5
2D8
  8
回13-記事
 62
     8
 66
     1
  2
*X29
 10
0.0
 20
0.0
 30
0.0
1001
ACAD
1000
HATCH
1002
{
1070
    19
1000
ANSI31
1040
1.0
1040
0.0
1000
ASC_BOUNDS
1070
     1
1070
     2
1070
     1
1005
2D7
1000
ASC_SEEDPOINT
1011
-835.9230819399734
1021
-81.40448164268923
1031
0.0
1000
R14_HATCH_DATA
1000
2D8
1011
1.0
1021
0.0
1031
0.0
1011
0.0
1021
1.0
1031
0.0
1011
0.0
1021
0.0
1031
1.0
1040
0.0
1010
0.0
1020
0.0
1030
1.0
1000
ANSI31
1070
     0
1070
     1
1071
        1
1071
        1
1071
        8
1070
     1
1040
-717.127606687256
1040
95.49358574246468
1040
-717.127606687256
1040
88.37358574246479
1070
     1
1040
-717.127606687256
1040
88.37358574246479
1040
-725.627606687256
1040
88.37358574246479
1070
     1
1040
-725.627606687256
1040
88.37358574246479
1040
-725.627606687256
1040
74.13358574246434
1070
     1
1040
-725.627606687256
1040
74.13358574246434
1040
-717.127606687256
1040
74.13358574246434
1070
     1
1040
-717.127606687256
1040
74.13358574246434
1040
-717.127606687256
1040
67.01358574246444
1070
     1
1040
-717.127606687256
1040
67.01358574246444
1040
-708.0696067259489
1040
67.01358574246444
1070
     1
1040
-708.0696067259489
1040
67.01358574246444
1040
-708.0696067259489
1040
95.49358574246468
1070
     1
1040
-708.0696067259489
1040
95.49358574246468
1040
-717.127606687256
1040
95.49358574246468
1071
        1
1005
2D7
1070
     0
1070
     1
1040
0.0
1040
1.0
1070
     0
1070
     1
1040
0.7853981633974483
1040
-835.9230819399734
1040
-81.40448164268923
1040
-2.245064030267287
1040
2.245064030267288
1070
     0
1071
        1
1040
-835.9230819399734
1040
-81.40448164268923
1040
0.0
1002
}
  0
SEQEND
  5
384
  8
回06-GER
 62
     5
  0
ENDSEC
  0
EOF
