  0
SECTION
  2
HEADER
  9
$ACADVER
  1
AC1009
  9
$INSBASE
 10
0.0
 20
0.0
 30
0.0
  9
$EXTMIN
 10
2000.57028964128
 20
-162.4092673666068
 30
0.0
  9
$EXTMAX
 10
2570.57028964128
 20
232.5907326333931
 30
0.0
  9
$LIMMIN
 10
0.0
 20
0.0
  9
$LIMMAX
 10
3000.0
 20
2500.0
  9
$ORTHOMODE
 70
     0
  9
$REGENMODE
 70
     1
  9
$FILLMODE
 70
     1
  9
$QTEXTMODE
 70
     0
  9
$MIRRTEXT
 70
     1
  9
$DRAGMODE
 70
     2
  9
$LTSCALE
 40
1.0
  9
$OSMODE
 70
    37
  9
$ATTMODE
 70
     1
  9
$TEXTSIZE
 40
3.0
  9
$TRACEWID
 40
1.0
  9
$TEXTSTYLE
  7
2MM
  9
$CLAYER
  8
回03-FAG
  9
$CELTYPE
  6
BYLAYER
  9
$CECOLOR
 62
     7
  9
$DIMSCALE
 40
1.0
  9
$DIMASZ
 40
2.0
  9
$DIMEXO
 40
0.0
  9
$DIMDLI
 40
0.0
  9
$DIMRND
 40
0.0
  9
$DIMDLE
 40
0.0
  9
$DIMEXE
 40
1.0
  9
$DIMTP
 40
0.0
  9
$DIMTM
 40
0.0
  9
$DIMTXT
 40
3.0
  9
$DIMCEN
 40
2.0
  9
$DIMTSZ
 40
0.0
  9
$DIMTOL
 70
     0
  9
$DIMLIM
 70
     0
  9
$DIMTIH
 70
     0
  9
$DIMTOH
 70
     0
  9
$DIMSE1
 70
     0
  9
$DIMSE2
 70
     0
  9
$DIMTAD
 70
     3
  9
$DIMZIN
 70
     8
  9
$DIMBLK
  1
OPEN
  9
$DIMASO
 70
     1
  9
$DIMSHO
 70
     1
  9
$DIMPOST
  1

  9
$DIMAPOST
  1

  9
$DIMALT
 70
     1
  9
$DIMALTD
 70
     3
  9
$DIMALTF
 40
0.03937007874016
  9
$DIMLFAC
 40
1.0
  9
$DIMTOFL
 70
     1
  9
$DIMTVP
 40
0.0
  9
$DIMTIX
 70
     0
  9
$DIMSOXD
 70
     0
  9
$DIMSAH
 70
     0
  9
$DIMBLK1
  1

  9
$DIMBLK2
  1

  9
$DIMSTYLE
  2
2MM
  9
$DIMCLRD
 70
     5
  9
$DIMCLRE
 70
     5
  9
$DIMCLRT
 70
     5
  9
$DIMTFAC
 40
0.7
  9
$DIMGAP
 40
0.5
  9
$LUNITS
 70
     2
  9
$LUPREC
 70
     4
  9
$SKETCHINC
 40
1.0
  9
$FILLETRAD
 40
0.5
  9
$AUNITS
 70
     0
  9
$AUPREC
 70
     0
  9
$MENU
  1
.
  9
$ELEVATION
 40
0.0
  9
$PELEVATION
 40
0.0
  9
$THICKNESS
 40
0.0
  9
$LIMCHECK
 70
     0
  9
$BLIPMODE
 70
     0
  9
$CHAMFERA
 40
10.0
  9
$CHAMFERB
 40
10.0
  9
$SKPOLY
 70
     0
  9
$TDCREATE
 40
2451810.779221065
  9
$TDUPDATE
 40
2460231.747431933
  9
$TDINDWG
 40
4.817485231
  9
$TDUSRTIMER
 40
4.817484537
  9
$USRTIMER
 70
     1
  9
$ANGBASE
 50
0.0
  9
$ANGDIR
 70
     0
  9
$PDMODE
 70
     0
  9
$PDSIZE
 40
0.0
  9
$PLINEWID
 40
0.2
  9
$COORDS
 70
     0
  9
$SPLFRAME
 70
     0
  9
$SPLINETYPE
 70
     6
  9
$SPLINESEGS
 70
     8
  9
$ATTDIA
 70
     1
  9
$ATTREQ
 70
     1
  9
$HANDLING
 70
     1
  9
$HANDSEED
  5
3C0
  9
$SURFTAB1
 70
     6
  9
$SURFTAB2
 70
     6
  9
$SURFTYPE
 70
     6
  9
$SURFU
 70
     6
  9
$SURFV
 70
     6
  9
$UCSNAME
  2

  9
$UCSORG
 10
0.0
 20
0.0
 30
0.0
  9
$UCSXDIR
 10
1.0
 20
0.0
 30
0.0
  9
$UCSYDIR
 10
0.0
 20
1.0
 30
0.0
  9
$PUCSNAME
  2

  9
$PUCSORG
 10
0.0
 20
0.0
 30
0.0
  9
$PUCSXDIR
 10
1.0
 20
0.0
 30
0.0
  9
$PUCSYDIR
 10
0.0
 20
1.0
 30
0.0
  9
$USERI1
 70
     0
  9
$USERI2
 70
     0
  9
$USERI3
 70
     0
  9
$USERI4
 70
     0
  9
$USERI5
 70
     0
  9
$USERR1
 40
0.0
  9
$USERR2
 40
0.0
  9
$USERR3
 40
0.0
  9
$USERR4
 40
0.0
  9
$USERR5
 40
0.0
  9
$WORLDVIEW
 70
     1
  9
$SHADEDGE
 70
     3
  9
$SHADEDIF
 70
    70
  9
$TILEMODE
 70
     1
  9
$MAXACTVP
 70
    64
  9
$PLIMCHECK
 70
     0
  9
$PEXTMIN
 10
1.000000000000000E+20
 20
1.000000000000000E+20
 30
1.000000000000000E+20
  9
$PEXTMAX
 10
-1.000000000000000E+20
 20
-1.000000000000000E+20
 30
-1.000000000000000E+20
  9
$PLIMMIN
 10
0.0
 20
0.0
  9
$PLIMMAX
 10
420.0
 20
297.0
  9
$UNITMODE
 70
     0
  9
$VISRETAIN
 70
     1
  9
$PLINEGEN
 70
     0
  9
$PSLTSCALE
 70
     1
  0
ENDSEC
  0
SECTION
  2
TABLES
  0
TABLE
  2
VPORT
 70
     1
  0
VPORT
  2
*ACTIVE
 70
     0
 10
0.0
 20
0.0
 11
1.0
 21
1.0
 12
2336.069851942012
 22
29.0396341892909
 13
0.0
 23
0.0
 14
10.0
 24
10.0
 15
10.0
 25
10.0
 16
0.0
 26
0.0
 36
1.0
 17
0.0
 27
0.0
 37
0.0
 40
615.7062095430858
 41
1.853689567430025
 42
50.0
 43
0.0
 44
0.0
 50
0.0
 51
0.0
 71
     0
 72
  3000
 73
     1
 74
     1
 75
     0
 76
     0
 77
     0
 78
     0
  0
ENDTAB
  0
TABLE
  2
LTYPE
 70
     4
  0
LTYPE
  2
CONTINUOUS
 70
     0
  3
Solid line
 72
    65
 73
     0
 40
0.0
  0
LTYPE
  2
DASHED2
 70
     0
  3
Dashed (.5x) _ _ _ _ _ _ _ _ _ _ _ _ _ _ _ _ _
 72
    65
 73
     2
 40
9.524999999999998
 49
6.349999999999999
 49
-3.174999999999999
  0
LTYPE
  2
PHANTOM2
 70
     0
  3
Phantom (.5x) ___ _ _ ___ _ _ ___ _ _ ___ _ _
 72
    65
 73
     6
 40
31.75
 49
15.875
 49
-3.174999999999999
 49
3.174999999999999
 49
-3.174999999999999
 49
3.174999999999999
 49
-3.174999999999999
  0
LTYPE
  2
CENTER2
 70
     0
  3
Center (.5x) ___ _ ___ _ ___ _ ___ _ ___ _ ___
 72
    65
 73
     4
 40
28.575
 49
19.05
 49
-3.174999999999999
 49
3.174999999999999
 49
-3.174999999999999
  0
ENDTAB
  0
TABLE
  2
LAYER
 70
    10
  0
LAYER
  2
0
 70
     0
 62
     7
  6
CONTINUOUS
  0
LAYER
  2
DEFPOINTS
 70
     0
 62
     7
  6
CONTINUOUS
  0
LAYER
  2
回12-寸法
 70
     0
 62
     7
  6
CONTINUOUS
  0
LAYER
  2
回03-FAG
 70
     0
 62
     7
  6
CONTINUOUS
  0
LAYER
  2
回10-ﾃｰﾙ
 70
     0
 62
     7
  6
CONTINUOUS
  0
LAYER
  2
回13-記事
 70
     0
 62
     7
  6
CONTINUOUS
  0
LAYER
  2
回08-GPDL
 70
     0
 62
     7
  6
CONTINUOUS
  0
LAYER
  2
回02-G外
 70
     0
 62
     7
  6
CONTINUOUS
  0
LAYER
  2
回90-枠2
 70
     0
 62
     7
  6
CONTINUOUS
  0
LAYER
  2
回03-記事
 70
     0
 62
     7
  6
CONTINUOUS
  0
ENDTAB
  0
TABLE
  2
STYLE
 70
     2
  0
STYLE
  2
STANDARD
 70
     0
 40
4.0
 41
1.0
 50
0.0
 71
     0
 42
4.0
  3
isocp.shx
  4
bigfont.shx
  0
STYLE
  2
2MM
 70
     0
 40
3.0
 41
1.0
 50
0.0
 71
     0
 42
3.0
  3
isocp.shx
  4
bigfont.shx
  0
ENDTAB
  0
TABLE
  2
VIEW
 70
     0
  0
ENDTAB
  0
TABLE
  2
UCS
 70
     0
  0
ENDTAB
  0
TABLE
  2
APPID
 70
     2
  0
APPID
  2
ACAD
 70
     0
  0
APPID
  2
ACAD_PSEXT
 70
     0
  0
ENDTAB
  0
TABLE
  2
DIMSTYLE
 70
     2
  0
DIMSTYLE
  2
DMC
 70
     0
  3

  4

  5
OPEN
  6

  7

 40
1.0
 41
2.0
 42
0.0
 43
0.0
 44
1.0
 45
0.0
 46
0.0
 47
0.0
 48
0.0
140
3.0
141
2.0
142
0.0
143
0.03937007874016
144
1.0
145
0.0
146
0.7
147
0.5
 71
     0
 72
     0
 73
     0
 74
     0
 75
     0
 76
     0
 77
     3
 78
     8
170
     0
171
     3
172
     1
173
     0
174
     0
175
     0
176
     5
177
     5
178
     5
  0
DIMSTYLE
  2
2MM
 70
     0
  3

  4

  5
OPEN
  6

  7

 40
1.0
 41
2.0
 42
0.0
 43
0.0
 44
1.0
 45
0.0
 46
0.0
 47
0.0
 48
0.0
140
2.0
141
2.0
142
0.0
143
0.03937007874016
144
1.0
145
0.0
146
0.7
147
0.5
 71
     0
 72
     0
 73
     0
 74
     0
 75
     0
 76
     0
 77
     3
 78
     8
170
     0
171
     3
172
     1
173
     0
174
     0
175
     0
176
     5
177
     5
178
     5
  0
ENDTAB
  0
ENDSEC
  0
SECTION
  2
BLOCKS
  0
BLOCK
  8
0
  2
$MODEL_SPACE
 70
     0
 10
0.0
 20
0.0
 30
0.0
  3
$MODEL_SPACE
  1

  0
ENDBLK
  8
0
  5
23
  0
BLOCK
 67
     1
  8
0
  2
$PAPER_SPACE
 70
     0
 10
0.0
 20
0.0
 30
0.0
  3
$PAPER_SPACE
  1

  0
ENDBLK
  5
2C
 67
     1
  8
0
  0
BLOCK
  8
0
  2
_OPEN
 70
     0
 10
0.0
 20
0.0
 30
0.0
  3
_OPEN
  1

  0
LINE
  5
16
  8
0
  6
CONTINUOUS
 62
     0
 10
-1.0
 20
0.1666666666666666
 30
0.0
 11
0.0
 21
0.0
 31
0.0
  0
LINE
  5
17
  8
0
  6
CONTINUOUS
 62
     0
 10
-1.0
 20
-0.1666666666666666
 30
0.0
 11
0.0
 21
0.0
 31
0.0
  0
LINE
  5
18
  8
0
  6
CONTINUOUS
 62
     0
 10
0.0
 20
0.0
 30
0.0
 11
-1.0
 21
0.0
 31
0.0
  0
ENDBLK
  5
19
  8
0
  0
BLOCK
  8
0
  2
*D1
 70
     1
 10
0.0
 20
0.0
 30
0.0
  3
*D1
  1

  0
LINE
  5
275
  8
回12-寸法
  6
CONTINUOUS
 62
     5
 10
2128.31911426335
 20
163.5603335061541
 30
0.0
 11
2128.31911426335
 21
216.7524947362526
 31
0.0
  0
LINE
  5
276
  8
回12-寸法
  6
CONTINUOUS
 62
     5
 10
2399.589114263349
 20
163.5603335061541
 30
0.0
 11
2399.589114263349
 21
216.7524947362526
 31
0.0
  0
LINE
  5
277
  8
回12-寸法
  6
CONTINUOUS
 62
     5
 10
2130.319114263349
 20
215.7524947362526
 30
0.0
 11
2397.589114263349
 21
215.7524947362526
 31
0.0
  0
INSERT
  5
278
  8
回12-寸法
  6
CONTINUOUS
 62
     5
  2
_OPEN
 10
2128.31911426335
 20
215.7524947362526
 30
0.0
 41
2.0
 42
2.0
 43
2.0
 50
180.0
  0
INSERT
  5
279
  8
回12-寸法
  6
CONTINUOUS
 62
     5
  2
_OPEN
 10
2399.589114263349
 20
215.7524947362526
 30
0.0
 41
2.0
 42
2.0
 43
2.0
  0
INSERT
  5
27A
  8
回12-寸法
  6
CONTINUOUS
 62
     5
 66
     1
  2
*X29
 10
0.0
 20
0.0
 30
0.0
  0
SEQEND
  5
38D
  8
回03-FAG
 62
     7
  0
POINT
  5
27B
  8
DEFPOINTS
  6
CONTINUOUS
 62
     0
 10
2128.31911426335
 20
163.5603335061541
 30
0.0
  0
POINT
  5
27C
  8
DEFPOINTS
  6
CONTINUOUS
 62
     0
 10
2399.589114263349
 20
163.5603335061541
 30
0.0
  0
POINT
  5
27D
  8
DEFPOINTS
  6
CONTINUOUS
 62
     0
 10
2399.589114263349
 20
215.7524947362526
 30
0.0
  0
ENDBLK
  5
27E
  8
0
 62
     7
  0
BLOCK
  8
0
  2
*D2
 70
     1
 10
0.0
 20
0.0
 30
0.0
  3
*D2
  1

  0
LINE
  5
268
  8
回12-寸法
  6
CONTINUOUS
 62
     5
 10
2392.199114263349
 20
154.3903335061543
 30
0.0
 11
2392.199114263349
 21
192.3934963702213
 31
0.0
  0
LINE
  5
269
  8
回12-寸法
  6
CONTINUOUS
 62
     5
 10
2143.329114263349
 20
154.3903335061543
 30
0.0
 11
2143.329114263349
 21
192.3934963702213
 31
0.0
  0
LINE
  5
26A
  8
回12-寸法
  6
CONTINUOUS
 62
     5
 10
2390.199114263349
 20
191.3934963702213
 30
0.0
 11
2145.329114263349
 21
191.3934963702213
 31
0.0
  0
INSERT
  5
26B
  8
回12-寸法
  6
CONTINUOUS
 62
     5
  2
_OPEN
 10
2392.199114263349
 20
191.3934963702213
 30
0.0
 41
2.0
 42
2.0
 43
2.0
  0
INSERT
  5
26C
  8
回12-寸法
  6
CONTINUOUS
 62
     5
  2
_OPEN
 10
2143.329114263349
 20
191.3934963702213
 30
0.0
 41
2.0
 42
2.0
 43
2.0
 50
180.0
  0
TEXT
  5
26D
  8
回12-寸法
  6
CONTINUOUS
 62
     5
 10
2241.653873708949
 20
192.0441615026485
 30
0.0
 40
3.0
  1
248.87 [9.798](ACTIVE AREA)
  7
2MM
1001
ACAD
1000
MTEXTBEGIN
1070
    73
1070
     1
1070
    44
1040
1.0
1070
    74
1070
     0
1000
MTEXTEND
  0
POINT
  5
26E
  8
DEFPOINTS
  6
CONTINUOUS
 62
     0
 10
2392.199114263349
 20
154.3903335061543
 30
0.0
  0
POINT
  5
26F
  8
DEFPOINTS
  6
CONTINUOUS
 62
     0
 10
2143.329114263349
 20
154.3903335061543
 30
0.0
  0
POINT
  5
270
  8
DEFPOINTS
  6
CONTINUOUS
 62
     0
 10
2143.329114263349
 20
191.3934963702213
 30
0.0
  0
ENDBLK
  5
271
  8
0
 62
     7
  0
BLOCK
  8
0
  2
*D3
 70
     1
 10
0.0
 20
0.0
 30
0.0
  3
*D3
  1

  0
LINE
  5
259
  8
回12-寸法
  6
CONTINUOUS
 62
     5
 10
2392.199114263349
 20
154.3903335061543
 30
0.0
 11
2392.199114263349
 21
192.3934963702213
 31
0.0
  0
LINE
  5
25A
  8
回12-寸法
  6
CONTINUOUS
 62
     5
 10
2399.589114263349
 20
163.5603335061541
 30
0.0
 11
2399.589114263349
 21
192.3934963702213
 31
0.0
  0
LINE
  5
25B
  8
回12-寸法
  6
CONTINUOUS
 62
     5
 10
2390.199114263349
 20
191.3934963702213
 30
0.0
 11
2388.199114263349
 21
191.3934963702213
 31
0.0
  0
LINE
  5
25C
  8
回12-寸法
  6
CONTINUOUS
 62
     5
 10
2401.589114263349
 20
191.3934963702213
 30
0.0
 11
2426.20771804159
 21
191.3934963702213
 31
0.0
  0
LINE
  5
25D
  8
回12-寸法
  6
CONTINUOUS
 62
     5
 10
2392.199114263349
 20
191.3934963702213
 30
0.0
 11
2399.589114263349
 21
191.3934963702213
 31
0.0
  0
INSERT
  5
25E
  8
回12-寸法
  6
CONTINUOUS
 62
     5
  2
_OPEN
 10
2392.199114263349
 20
191.3934963702213
 30
0.0
 41
2.0
 42
2.0
 43
2.0
  0
INSERT
  5
25F
  8
回12-寸法
  6
CONTINUOUS
 62
     5
  2
_OPEN
 10
2399.589114263349
 20
191.3934963702213
 30
0.0
 41
2.0
 42
2.0
 43
2.0
 50
180.0
  0
TEXT
  5
260
  8
回12-寸法
  6
CONTINUOUS
 62
     5
 10
2403.637585046889
 20
192.0441615026485
 30
0.0
 40
3.0
  1
(7.39 [0.291])
  7
2MM
1001
ACAD
1000
MTEXTBEGIN
1070
    73
1070
     1
1070
    44
1040
1.0
1070
    74
1070
     0
1000
MTEXTEND
  0
POINT
  5
261
  8
DEFPOINTS
  6
CONTINUOUS
 62
     0
 10
2392.199114263349
 20
154.3903335061543
 30
0.0
  0
POINT
  5
262
  8
DEFPOINTS
  6
CONTINUOUS
 62
     0
 10
2399.589114263349
 20
163.5603335061541
 30
0.0
  0
POINT
  5
263
  8
DEFPOINTS
  6
CONTINUOUS
 62
     0
 10
2399.589114263349
 20
191.3934963702213
 30
0.0
  0
ENDBLK
  5
264
  8
0
 62
     7
  0
BLOCK
  8
0
  2
*D4
 70
     1
 10
0.0
 20
0.0
 30
0.0
  3
*D4
  1

  0
LINE
  5
24C
  8
回12-寸法
  6
CONTINUOUS
 62
     5
 10
2399.589114263349
 20
163.5603335061541
 30
0.0
 11
2458.810755390696
 21
163.5603335061541
 31
0.0
  0
LINE
  5
24D
  8
回12-寸法
  6
CONTINUOUS
 62
     5
 10
2399.589114263349
 20
-42.17966649384584
 30
0.0
 11
2458.810755390696
 21
-42.17966649384584
 31
0.0
  0
LINE
  5
24E
  8
回12-寸法
  6
CONTINUOUS
 62
     5
 10
2457.810755390696
 20
161.5603335061542
 30
0.0
 11
2457.810755390696
 21
-40.17966649384586
 31
0.0
  0
INSERT
  5
24F
  8
回12-寸法
  6
CONTINUOUS
 62
     5
  2
_OPEN
 10
2457.810755390696
 20
163.5603335061541
 30
0.0
 41
2.0
 42
2.0
 43
2.0
 50
90.0
  0
INSERT
  5
250
  8
回12-寸法
  6
CONTINUOUS
 62
     5
  2
_OPEN
 10
2457.810755390696
 20
-42.17966649384586
 30
0.0
 41
2.0
 42
2.0
 43
2.0
 50
270.0
  0
INSERT
  5
251
  8
回12-寸法
  6
CONTINUOUS
 62
     5
 66
     1
  2
*X30
 10
0.0
 20
0.0
 30
0.0
  0
SEQEND
  5
396
  8
回03-FAG
 62
     7
  0
POINT
  5
252
  8
DEFPOINTS
  6
CONTINUOUS
 62
     0
 10
2399.589114263349
 20
163.5603335061541
 30
0.0
  0
POINT
  5
253
  8
DEFPOINTS
  6
CONTINUOUS
 62
     0
 10
2399.589114263349
 20
-42.17966649384584
 30
0.0
  0
POINT
  5
254
  8
DEFPOINTS
  6
CONTINUOUS
 62
     0
 10
2457.810755390696
 20
-42.17966649384586
 30
0.0
  0
ENDBLK
  5
255
  8
0
 62
     7
  0
BLOCK
  8
0
  2
*D5
 70
     1
 10
0.0
 20
0.0
 30
0.0
  3
*D5
  1

  0
LINE
  5
23F
  8
回12-寸法
  6
CONTINUOUS
 62
     5
 10
2392.199114263349
 20
154.3903335061543
 30
0.0
 11
2441.563650197737
 21
154.3903335061543
 31
0.0
  0
LINE
  5
240
  8
回12-寸法
  6
CONTINUOUS
 62
     5
 10
2392.199114263349
 20
-33.00966649384577
 30
0.0
 11
2441.563650197737
 21
-33.00966649384577
 31
0.0
  0
LINE
  5
241
  8
回12-寸法
  6
CONTINUOUS
 62
     5
 10
2440.563650197737
 20
152.3903335061543
 30
0.0
 11
2440.563650197737
 21
-31.00966649384578
 31
0.0
  0
INSERT
  5
242
  8
回12-寸法
  6
CONTINUOUS
 62
     5
  2
_OPEN
 10
2440.563650197737
 20
154.3903335061543
 30
0.0
 41
2.0
 42
2.0
 43
2.0
 50
90.0
  0
INSERT
  5
243
  8
回12-寸法
  6
CONTINUOUS
 62
     5
  2
_OPEN
 10
2440.563650197737
 20
-33.00966649384578
 30
0.0
 41
2.0
 42
2.0
 43
2.0
 50
270.0
  0
TEXT
  5
244
  8
回12-寸法
  6
CONTINUOUS
 62
     5
 10
2439.913650197737
 20
35.94092405733591
 30
0.0
 40
3.0
  1
187.4 [7.378](ACTIVE AREA)
 50
90.0
  7
2MM
1001
ACAD
1000
MTEXTBEGIN
1070
    73
1070
     1
1070
    44
1040
1.0
1070
    74
1070
     0
1000
MTEXTEND
  0
POINT
  5
245
  8
DEFPOINTS
  6
CONTINUOUS
 62
     0
 10
2392.199114263349
 20
154.3903335061543
 30
0.0
  0
POINT
  5
246
  8
DEFPOINTS
  6
CONTINUOUS
 62
     0
 10
2392.199114263349
 20
-33.00966649384577
 30
0.0
  0
POINT
  5
247
  8
DEFPOINTS
  6
CONTINUOUS
 62
     0
 10
2440.563650197737
 20
-33.00966649384578
 30
0.0
  0
ENDBLK
  5
248
  8
0
 62
     7
  0
BLOCK
  8
0
  2
*D6
 70
     1
 10
0.0
 20
0.0
 30
0.0
  3
*D6
  1

  0
LINE
  5
230
  8
回12-寸法
  6
CONTINUOUS
 62
     5
 10
2392.199114263349
 20
154.3903335061543
 30
0.0
 11
2441.563650197737
 21
154.3903335061543
 31
0.0
  0
LINE
  5
231
  8
回12-寸法
  6
CONTINUOUS
 62
     5
 10
2399.589114263349
 20
163.5603335061541
 30
0.0
 11
2441.563650197737
 21
163.5603335061541
 31
0.0
  0
LINE
  5
232
  8
回12-寸法
  6
CONTINUOUS
 62
     5
 10
2440.563650197737
 20
152.3903335061543
 30
0.0
 11
2440.563650197737
 21
150.3903335061543
 31
0.0
  0
LINE
  5
233
  8
回12-寸法
  6
CONTINUOUS
 62
     5
 10
2440.563650197737
 20
165.5603335061542
 30
0.0
 11
2440.563650197737
 21
189.5684542929125
 31
0.0
  0
LINE
  5
234
  8
回12-寸法
  6
CONTINUOUS
 62
     5
 10
2440.563650197737
 20
154.3903335061543
 30
0.0
 11
2440.563650197737
 21
163.5603335061541
 31
0.0
  0
INSERT
  5
235
  8
回12-寸法
  6
CONTINUOUS
 62
     5
  2
_OPEN
 10
2440.563650197737
 20
154.3903335061543
 30
0.0
 41
2.0
 42
2.0
 43
2.0
 50
90.0
  0
INSERT
  5
236
  8
回12-寸法
  6
CONTINUOUS
 62
     5
  2
_OPEN
 10
2440.563650197737
 20
163.5603335061541
 30
0.0
 41
2.0
 42
2.0
 43
2.0
 50
270.0
  0
TEXT
  5
237
  8
回12-寸法
  6
CONTINUOUS
 62
     5
 10
2439.912925159207
 20
167.6089783467432
 30
0.0
 40
3.0
  1
(9.17 [0.361])
 50
90.0
  7
2MM
1001
ACAD
1000
MTEXTBEGIN
1070
    73
1070
     1
1070
    44
1040
1.0
1070
    74
1070
     0
1000
MTEXTEND
  0
POINT
  5
238
  8
DEFPOINTS
  6
CONTINUOUS
 62
     0
 10
2392.199114263349
 20
154.3903335061543
 30
0.0
  0
POINT
  5
239
  8
DEFPOINTS
  6
CONTINUOUS
 62
     0
 10
2399.589114263349
 20
163.5603335061541
 30
0.0
  0
POINT
  5
23A
  8
DEFPOINTS
  6
CONTINUOUS
 62
     0
 10
2440.563650197737
 20
163.5603335061541
 30
0.0
  0
ENDBLK
  5
23B
  8
0
 62
     7
  0
BLOCK
  8
0
  2
*D7
 70
     1
 10
0.0
 20
0.0
 30
0.0
  3
*D7
  1

  0
LINE
  5
223
  8
回12-寸法
  6
CONTINUOUS
 62
     5
 10
2128.31911426335
 20
97.35387086100946
 30
0.0
 11
2128.31911426335
 21
103.3372966368776
 31
0.0
  0
LINE
  5
224
  8
回12-寸法
  6
CONTINUOUS
 62
     5
 10
2018.319114263348
 20
66.9641335061541
 30
0.0
 11
2018.319114263348
 21
103.3372966368776
 31
0.0
  0
LINE
  5
225
  8
回12-寸法
  6
CONTINUOUS
 62
     5
 10
2126.319114263349
 20
102.3372966368776
 30
0.0
 11
2020.319114263349
 21
102.3372966368776
 31
0.0
  0
INSERT
  5
226
  8
回12-寸法
  6
CONTINUOUS
 62
     5
  2
_OPEN
 10
2128.31911426335
 20
102.3372966368776
 30
0.0
 41
2.0
 42
2.0
 43
2.0
  0
INSERT
  5
227
  8
回12-寸法
  6
CONTINUOUS
 62
     5
  2
_OPEN
 10
2018.319114263348
 20
102.3372966368776
 30
0.0
 41
2.0
 42
2.0
 43
2.0
 50
180.0
  0
INSERT
  5
228
  8
回12-寸法
  6
CONTINUOUS
 62
     5
 66
     1
  2
*X31
 10
0.0
 20
0.0
 30
0.0
  0
SEQEND
  5
39F
  8
回03-FAG
 62
     7
  0
POINT
  5
229
  8
DEFPOINTS
  6
CONTINUOUS
 62
     0
 10
2128.31911426335
 20
97.35387086100946
 30
0.0
  0
POINT
  5
22A
  8
DEFPOINTS
  6
CONTINUOUS
 62
     0
 10
2018.319114263348
 20
66.9641335061541
 30
0.0
  0
POINT
  5
22B
  8
DEFPOINTS
  6
CONTINUOUS
 62
     0
 10
2018.319114263348
 20
102.3372966368776
 30
0.0
  0
ENDBLK
  5
22C
  8
0
 62
     7
  0
BLOCK
  8
0
  2
*D8
 70
     1
 10
0.0
 20
0.0
 30
0.0
  3
*D8
  1

  0
LINE
  5
1DA
  8
回12-寸法
  6
CONTINUOUS
 62
     5
 10
2128.319114263349
 20
-70.6292972147296
 30
0.0
 11
2128.319114263349
 21
-59.79016895023574
 31
0.0
  0
LINE
  5
1DB
  8
回12-寸法
  6
CONTINUOUS
 62
     5
 10
2128.819114263349
 20
-68.12187019883527
 30
0.0
 11
2128.819114263349
 21
-59.79016895023574
 31
0.0
  0
LINE
  5
1DC
  8
回12-寸法
  6
CONTINUOUS
 62
     5
 10
2126.319114263349
 20
-60.79016895023574
 30
0.0
 11
2124.319114263349
 21
-60.79016895023574
 31
0.0
  0
LINE
  5
1DD
  8
回12-寸法
  6
CONTINUOUS
 62
     5
 10
2130.819114263349
 20
-60.79016895023574
 30
0.0
 11
2157.266358357837
 21
-60.79016895023574
 31
0.0
  0
LINE
  5
1DE
  8
回12-寸法
  6
CONTINUOUS
 62
     5
 10
2128.319114263349
 20
-60.79016895023574
 30
0.0
 11
2128.819114263349
 21
-60.79016895023574
 31
0.0
  0
INSERT
  5
1DF
  8
回12-寸法
  6
CONTINUOUS
 62
     5
  2
_OPEN
 10
2128.319114263349
 20
-60.79016895023574
 30
0.0
 41
2.0
 42
2.0
 43
2.0
  0
INSERT
  5
1E0
  8
回12-寸法
  6
CONTINUOUS
 62
     5
  2
_OPEN
 10
2128.819114263349
 20
-60.79016895023574
 30
0.0
 41
2.0
 42
2.0
 43
2.0
 50
180.0
  0
TEXT
  5
1E1
  8
回12-寸法
  6
CONTINUOUS
 62
     5
 10
2136.217539460199
 20
-60.14016895023573
 30
0.0
 40
3.0
  1
(0.5 [0.020])
  7
2MM
1001
ACAD
1000
MTEXTBEGIN
1070
    73
1070
     1
1070
    44
1040
1.0
1070
    74
1070
     0
1000
MTEXTEND
  0
POINT
  5
1E2
  8
DEFPOINTS
  6
CONTINUOUS
 62
     0
 10
2128.319114263349
 20
-70.6292972147296
 30
0.0
  0
POINT
  5
1E3
  8
DEFPOINTS
  6
CONTINUOUS
 62
     0
 10
2128.819114263349
 20
-68.12187019883527
 30
0.0
  0
POINT
  5
1E4
  8
DEFPOINTS
  6
CONTINUOUS
 62
     0
 10
2128.819114263349
 20
-60.79016895023574
 30
0.0
  0
ENDBLK
  5
1E5
  8
0
 62
     7
  0
BLOCK
  8
0
  2
*D9
 70
     1
 10
0.0
 20
0.0
 30
0.0
  3
*D9
  1

  0
LINE
  5
1CB
  8
回12-寸法
  6
CONTINUOUS
 62
     5
 10
2399.589114263349
 20
-70.6292972147296
 30
0.0
 11
2399.589114263349
 21
-56.15393725277545
 31
0.0
  0
LINE
  5
1CC
  8
回12-寸法
  6
CONTINUOUS
 62
     5
 10
2399.089114263349
 20
-68.12187019883527
 30
0.0
 11
2399.089114263349
 21
-56.15393725277545
 31
0.0
  0
LINE
  5
1CD
  8
回12-寸法
  6
CONTINUOUS
 62
     5
 10
2401.589114263349
 20
-57.15393725277545
 30
0.0
 11
2403.589114263349
 21
-57.15393725277545
 31
0.0
  0
LINE
  5
1CE
  8
回12-寸法
  6
CONTINUOUS
 62
     5
 10
2397.089114263349
 20
-57.15393725277545
 30
0.0
 11
2370.641870168861
 21
-57.15393725277545
 31
0.0
  0
LINE
  5
1CF
  8
回12-寸法
  6
CONTINUOUS
 62
     5
 10
2399.589114263349
 20
-57.15393725277545
 30
0.0
 11
2399.089114263349
 21
-57.15393725277545
 31
0.0
  0
INSERT
  5
1D0
  8
回12-寸法
  6
CONTINUOUS
 62
     5
  2
_OPEN
 10
2399.589114263349
 20
-57.15393725277545
 30
0.0
 41
2.0
 42
2.0
 43
2.0
 50
180.0
  0
INSERT
  5
1D1
  8
回12-寸法
  6
CONTINUOUS
 62
     5
  2
_OPEN
 10
2399.089114263349
 20
-57.15393725277545
 30
0.0
 41
2.0
 42
2.0
 43
2.0
  0
TEXT
  5
1D2
  8
回12-寸法
  6
CONTINUOUS
 62
     5
 10
2370.690689066499
 20
-56.50393725277544
 30
0.0
 40
3.0
  1
(0.5 [0.020])
  7
2MM
1001
ACAD
1000
MTEXTBEGIN
1070
    73
1070
     1
1070
    44
1040
1.0
1070
    74
1070
     0
1000
MTEXTEND
  0
POINT
  5
1D3
  8
DEFPOINTS
  6
CONTINUOUS
 62
     0
 10
2399.589114263349
 20
-70.6292972147296
 30
0.0
  0
POINT
  5
1D4
  8
DEFPOINTS
  6
CONTINUOUS
 62
     0
 10
2399.089114263349
 20
-68.12187019883527
 30
0.0
  0
POINT
  5
1D5
  8
DEFPOINTS
  6
CONTINUOUS
 62
     0
 10
2399.089114263349
 20
-57.15393725277545
 30
0.0
  0
ENDBLK
  5
1D6
  8
0
 62
     7
  0
BLOCK
  8
0
  2
*D10
 70
     1
 10
0.0
 20
0.0
 30
0.0
  3
*D10
  1

  0
LINE
  5
1AD
  8
回12-寸法
 62
     5
 10
2392.199114263349
 20
-33.00966649384577
 30
0.0
 11
2441.563650197737
 21
-33.00966649384577
 31
0.0
  0
LINE
  5
1AE
  8
回12-寸法
 62
     5
 10
2399.589114263349
 20
-42.17966649384584
 30
0.0
 11
2441.563650197737
 21
-42.17966649384584
 31
0.0
  0
LINE
  5
1AF
  8
回12-寸法
 62
     5
 10
2440.563650197737
 20
-31.00966649384578
 30
0.0
 11
2440.563650197737
 21
-29.00966649384578
 31
0.0
  0
LINE
  5
1B0
  8
回12-寸法
 62
     5
 10
2440.563650197737
 20
-44.17966649384585
 30
0.0
 11
2440.563650197737
 21
-65.90393056255777
 31
0.0
  0
LINE
  5
1B1
  8
回12-寸法
 62
     5
 10
2440.563650197737
 20
-33.00966649384578
 30
0.0
 11
2440.563650197737
 21
-42.17966649384584
 31
0.0
  0
INSERT
  5
1B2
  8
回12-寸法
 62
     5
  2
_OPEN
 10
2440.563650197737
 20
-33.00966649384578
 30
0.0
 41
2.0
 42
2.0
 43
2.0
 50
270.0
  0
INSERT
  5
1B3
  8
回12-寸法
 62
     5
  2
_OPEN
 10
2440.563650197737
 20
-42.17966649384584
 30
0.0
 41
2.0
 42
2.0
 43
2.0
 50
90.0
  0
TEXT
  5
1B4
  8
回12-寸法
 62
     5
 10
2439.913650197737
 20
-65.80262963378254
 30
0.0
 40
3.0
  1
9.17 [0.361]
 50
90.0
  7
2MM
1001
ACAD
1000
MTEXTBEGIN
1070
    73
1070
     1
1070
    44
1040
1.0
1070
    74
1070
     0
1000
MTEXTEND
  0
POINT
  5
1B5
  8
DEFPOINTS
 62
     0
 10
2392.199114263349
 20
-33.00966649384577
 30
0.0
  0
POINT
  5
1B6
  8
DEFPOINTS
 62
     0
 10
2399.589114263349
 20
-42.17966649384584
 30
0.0
  0
POINT
  5
1B7
  8
DEFPOINTS
 62
     0
 10
2440.563650197737
 20
-42.17966649384584
 30
0.0
  0
ENDBLK
  5
1B8
  8
0
 62
     7
  0
BLOCK
  8
0
  2
*D11
 70
     1
 10
0.0
 20
0.0
 30
0.0
  3
*D11
  1

  0
LINE
  5
160
  8
回12-寸法
  6
CONTINUOUS
 62
     5
 10
2143.329114263349
 20
154.3903335061543
 30
0.0
 11
2143.329114263349
 21
192.3934963702213
 31
0.0
  0
LINE
  5
161
  8
回12-寸法
  6
CONTINUOUS
 62
     5
 10
2128.31911426335
 20
163.5603335061541
 30
0.0
 11
2128.31911426335
 21
192.3934963702213
 31
0.0
  0
LINE
  5
162
  8
回12-寸法
  6
CONTINUOUS
 62
     5
 10
2145.329114263349
 20
191.3934963702213
 30
0.0
 11
2147.329114263349
 21
191.3934963702213
 31
0.0
  0
LINE
  5
163
  8
回12-寸法
  6
CONTINUOUS
 62
     5
 10
2126.319114263349
 20
191.3934963702213
 30
0.0
 11
2103.208631271867
 21
191.3934963702213
 31
0.0
  0
LINE
  5
164
  8
回12-寸法
  6
CONTINUOUS
 62
     5
 10
2143.329114263349
 20
191.3934963702213
 30
0.0
 11
2128.31911426335
 21
191.3934963702213
 31
0.0
  0
INSERT
  5
165
  8
回12-寸法
  6
CONTINUOUS
 62
     5
  2
_OPEN
 10
2143.329114263349
 20
191.3934963702213
 30
0.0
 41
2.0
 42
2.0
 43
2.0
 50
180.0
  0
INSERT
  5
166
  8
回12-寸法
  6
CONTINUOUS
 62
     5
  2
_OPEN
 10
2128.31911426335
 20
191.3934963702213
 30
0.0
 41
2.0
 42
2.0
 43
2.0
  0
TEXT
  5
167
  8
回12-寸法
  6
CONTINUOUS
 62
     5
 10
2103.258457214818
 20
192.043436464119
 30
0.0
 40
3.0
  1
15.01 [0.591]
  7
2MM
1001
ACAD
1000
MTEXTBEGIN
1070
    73
1070
     1
1070
    44
1040
1.0
1070
    74
1070
     0
1000
MTEXTEND
  0
POINT
  5
168
  8
DEFPOINTS
  6
CONTINUOUS
 62
     0
 10
2143.329114263349
 20
154.3903335061543
 30
0.0
  0
POINT
  5
169
  8
DEFPOINTS
  6
CONTINUOUS
 62
     0
 10
2128.31911426335
 20
163.5603335061541
 30
0.0
  0
POINT
  5
16A
  8
DEFPOINTS
  6
CONTINUOUS
 62
     0
 10
2128.31911426335
 20
191.3934963702213
 30
0.0
  0
ENDBLK
  5
16B
  8
0
 62
     7
  0
BLOCK
  8
0
  2
*D12
 70
     1
 10
0.0
 20
0.0
 30
0.0
  3
*D12
  1

  0
LINE
  5
14C
  8
回12-寸法
 62
     5
 10
2399.089114263349
 20
-68.12187019883527
 30
0.0
 11
2407.273110978982
 21
-68.12187019883527
 31
0.0
  0
LINE
  5
14D
  8
回12-寸法
 62
     5
 10
2399.589114263349
 20
-73.84522121041732
 30
0.0
 11
2407.273110978982
 21
-73.84522121041732
 31
0.0
  0
LINE
  5
14E
  8
回12-寸法
 62
     5
 10
2406.273110978982
 20
-66.12187019883528
 30
0.0
 11
2406.273110978982
 21
-64.12187019883528
 31
0.0
  0
LINE
  5
14F
  8
回12-寸法
 62
     5
 10
2406.273110978982
 20
-75.84522121041733
 30
0.0
 11
2406.273110978982
 21
-106.4285823127795
 31
0.0
  0
LINE
  5
150
  8
回12-寸法
 62
     5
 10
2406.273110978982
 20
-68.12187019883528
 30
0.0
 11
2406.273110978982
 21
-73.84522121041733
 31
0.0
  0
INSERT
  5
151
  8
回12-寸法
 62
     5
  2
_OPEN
 10
2406.273110978982
 20
-68.12187019883528
 30
0.0
 41
2.0
 42
2.0
 43
2.0
 50
270.0
  0
INSERT
  5
152
  8
回12-寸法
 62
     5
  2
_OPEN
 10
2406.273110978982
 20
-73.84522121041733
 30
0.0
 41
2.0
 42
2.0
 43
2.0
 50
90.0
  0
INSERT
  5
153
  8
回12-寸法
 62
     5
 66
     1
  2
*X32
 10
0.0
 20
0.0
 30
0.0
  0
SEQEND
  5
3A8
  8
回03-FAG
 62
     7
  0
POINT
  5
154
  8
DEFPOINTS
 62
     0
 10
2399.089114263349
 20
-68.12187019883527
 30
0.0
  0
POINT
  5
155
  8
DEFPOINTS
 62
     0
 10
2399.589114263349
 20
-73.84522121041732
 30
0.0
  0
POINT
  5
156
  8
DEFPOINTS
 62
     0
 10
2406.273110978982
 20
-73.84522121041733
 30
0.0
  0
ENDBLK
  5
157
  8
0
 62
     7
  0
BLOCK
  8
0
  2
*D13
 70
     1
 10
0.0
 20
0.0
 30
0.0
  3
*D13
  1

  0
LINE
  5
13E
  8
回12-寸法
 62
     5
 10
2142.229114263349
 20
155.4903335061543
 30
0.0
 11
2142.229114263349
 21
205.8846579775668
 31
0.0
  0
LINE
  5
13F
  8
回12-寸法
 62
     5
 10
2393.299114263349
 20
155.4903335061543
 30
0.0
 11
2393.299114263349
 21
205.8846579775668
 31
0.0
  0
LINE
  5
140
  8
回12-寸法
 62
     5
 10
2144.22911426335
 20
204.8846579775668
 30
0.0
 11
2391.299114263349
 21
204.8846579775668
 31
0.0
  0
INSERT
  5
141
  8
回12-寸法
 62
     5
  2
_OPEN
 10
2142.229114263349
 20
204.8846579775668
 30
0.0
 41
2.0
 42
2.0
 43
2.0
 50
180.0
  0
INSERT
  5
142
  8
回12-寸法
 62
     5
  2
_OPEN
 10
2393.299114263349
 20
204.8846579775668
 30
0.0
 41
2.0
 42
2.0
 43
2.0
  0
TEXT
  5
143
  8
回12-寸法
 62
     5
 10
2255.608698710559
 20
205.5353830160963
 30
0.0
 40
3.0
  1
251.07 [9.885]
  7
2MM
1001
ACAD
1000
MTEXTBEGIN
1070
    73
1070
     1
1070
    44
1040
1.0
1070
    74
1070
     0
1000
MTEXTEND
  0
POINT
  5
144
  8
DEFPOINTS
 62
     0
 10
2142.229114263349
 20
155.4903335061543
 30
0.0
  0
POINT
  5
145
  8
DEFPOINTS
 62
     0
 10
2393.299114263349
 20
155.4903335061543
 30
0.0
  0
POINT
  5
146
  8
DEFPOINTS
 62
     0
 10
2393.299114263349
 20
204.8846579775668
 30
0.0
  0
ENDBLK
  5
147
  8
0
 62
     7
  0
BLOCK
  8
0
  2
*D14
 70
     1
 10
0.0
 20
0.0
 30
0.0
  3
*D14
  1

  0
LINE
  5
12F
  8
回12-寸法
 62
     5
 10
2142.229114263349
 20
155.4903335061543
 30
0.0
 11
2142.229114263349
 21
205.8846579775668
 31
0.0
  0
LINE
  5
130
  8
回12-寸法
 62
     5
 10
2128.31911426335
 20
163.5603335061541
 30
0.0
 11
2128.31911426335
 21
205.8846579775668
 31
0.0
  0
LINE
  5
131
  8
回12-寸法
 62
     5
 10
2144.22911426335
 20
204.8846579775668
 30
0.0
 11
2146.229114263349
 21
204.8846579775668
 31
0.0
  0
LINE
  5
132
  8
回12-寸法
 62
     5
 10
2126.319114263349
 20
204.8846579775668
 30
0.0
 11
2102.308631271867
 21
204.8846579775668
 31
0.0
  0
LINE
  5
133
  8
回12-寸法
 62
     5
 10
2142.229114263349
 20
204.8846579775668
 30
0.0
 11
2128.31911426335
 21
204.8846579775668
 31
0.0
  0
INSERT
  5
134
  8
回12-寸法
 62
     5
  2
_OPEN
 10
2142.229114263349
 20
204.8846579775668
 30
0.0
 41
2.0
 42
2.0
 43
2.0
 50
180.0
  0
INSERT
  5
135
  8
回12-寸法
 62
     5
  2
_OPEN
 10
2128.31911426335
 20
204.8846579775668
 30
0.0
 41
2.0
 42
2.0
 43
2.0
  0
TEXT
  5
136
  8
回12-寸法
 62
     5
 10
2102.358457214818
 20
205.5346579775668
 30
0.0
 40
3.0
  1
13.91 [0.548]
  7
2MM
1001
ACAD
1000
MTEXTBEGIN
1070
    73
1070
     1
1070
    44
1040
1.0
1070
    74
1070
     0
1000
MTEXTEND
  0
POINT
  5
137
  8
DEFPOINTS
 62
     0
 10
2142.229114263349
 20
155.4903335061543
 30
0.0
  0
POINT
  5
138
  8
DEFPOINTS
 62
     0
 10
2128.31911426335
 20
163.5603335061541
 30
0.0
  0
POINT
  5
139
  8
DEFPOINTS
 62
     0
 10
2128.31911426335
 20
204.8846579775668
 30
0.0
  0
ENDBLK
  5
13A
  8
0
 62
     7
  0
BLOCK
  8
0
  2
*D15
 70
     1
 10
0.0
 20
0.0
 30
0.0
  3
*D15
  1

  0
LINE
  5
120
  8
回12-寸法
 62
     5
 10
2393.299114263349
 20
155.4903335061543
 30
0.0
 11
2393.299114263349
 21
205.8846579775668
 31
0.0
  0
LINE
  5
121
  8
回12-寸法
 62
     5
 10
2399.589114263349
 20
163.5603335061541
 30
0.0
 11
2399.589114263349
 21
205.8846579775668
 31
0.0
  0
LINE
  5
122
  8
回12-寸法
 62
     5
 10
2391.299114263349
 20
204.8846579775668
 30
0.0
 11
2389.299114263349
 21
204.8846579775668
 31
0.0
  0
LINE
  5
123
  8
回12-寸法
 62
     5
 10
2401.589114263349
 20
204.8846579775668
 30
0.0
 11
2424.879124813887
 21
204.8846579775668
 31
0.0
  0
LINE
  5
124
  8
回12-寸法
 62
     5
 10
2393.299114263349
 20
204.8846579775668
 30
0.0
 11
2399.589114263349
 21
204.8846579775668
 31
0.0
  0
INSERT
  5
125
  8
回12-寸法
 62
     5
  2
_OPEN
 10
2393.299114263349
 20
204.8846579775668
 30
0.0
 41
2.0
 42
2.0
 43
2.0
  0
INSERT
  5
126
  8
回12-寸法
 62
     5
  2
_OPEN
 10
2399.589114263349
 20
204.8846579775668
 30
0.0
 41
2.0
 42
2.0
 43
2.0
 50
180.0
  0
TEXT
  5
127
  8
回12-寸法
 62
     5
 10
2403.728703985827
 20
205.5346579775668
 30
0.0
 40
3.0
  1
6.29 [0.248]
  7
2MM
1001
ACAD
1000
MTEXTBEGIN
1070
    73
1070
     1
1070
    44
1040
1.0
1070
    74
1070
     0
1000
MTEXTEND
  0
POINT
  5
128
  8
DEFPOINTS
 62
     0
 10
2393.299114263349
 20
155.4903335061543
 30
0.0
  0
POINT
  5
129
  8
DEFPOINTS
 62
     0
 10
2399.589114263349
 20
163.5603335061541
 30
0.0
  0
POINT
  5
12A
  8
DEFPOINTS
 62
     0
 10
2399.589114263349
 20
204.8846579775668
 30
0.0
  0
ENDBLK
  5
12B
  8
0
 62
     7
  0
BLOCK
  8
0
  2
*D16
 70
     1
 10
0.0
 20
0.0
 30
0.0
  3
*D16
  1

  0
LINE
  5
113
  8
回12-寸法
 62
     5
 10
2393.299114263349
 20
-34.10966649384568
 30
0.0
 11
2450.048046631088
 21
-34.10966649384568
 31
0.0
  0
LINE
  5
114
  8
回12-寸法
 62
     5
 10
2393.299114263349
 20
155.4903335061543
 30
0.0
 11
2450.048046631088
 21
155.4903335061543
 31
0.0
  0
LINE
  5
115
  8
回12-寸法
 62
     5
 10
2449.048046631089
 20
-32.1096664938457
 30
0.0
 11
2449.048046631089
 21
153.4903335061543
 31
0.0
  0
INSERT
  5
116
  8
回12-寸法
 62
     5
  2
_OPEN
 10
2449.048046631089
 20
-34.10966649384569
 30
0.0
 41
2.0
 42
2.0
 43
2.0
 50
270.0
  0
INSERT
  5
117
  8
回12-寸法
 62
     5
  2
_OPEN
 10
2449.048046631089
 20
155.4903335061543
 30
0.0
 41
2.0
 42
2.0
 43
2.0
 50
90.0
  0
TEXT
  5
118
  8
回12-寸法
 62
     5
 10
2448.398046631088
 20
49.43491795336422
 30
0.0
 40
3.0
  1
189.6 [7.465]
 50
90.0
  7
2MM
1001
ACAD
1000
MTEXTBEGIN
1070
    73
1070
     1
1070
    44
1040
1.0
1070
    74
1070
     0
1000
MTEXTEND
  0
POINT
  5
119
  8
DEFPOINTS
 62
     0
 10
2393.299114263349
 20
-34.10966649384568
 30
0.0
  0
POINT
  5
11A
  8
DEFPOINTS
 62
     0
 10
2393.299114263349
 20
155.4903335061543
 30
0.0
  0
POINT
  5
11B
  8
DEFPOINTS
 62
     0
 10
2449.048046631089
 20
155.4903335061543
 30
0.0
  0
ENDBLK
  5
11C
  8
0
 62
     7
  0
BLOCK
  8
0
  2
*D17
 70
     1
 10
0.0
 20
0.0
 30
0.0
  3
*D17
  1

  0
LINE
  5
104
  8
回12-寸法
 62
     5
 10
2393.299114263349
 20
155.4903335061543
 30
0.0
 11
2450.048046631088
 21
155.4903335061543
 31
0.0
  0
LINE
  5
105
  8
回12-寸法
 62
     5
 10
2399.589114263349
 20
163.5603335061541
 30
0.0
 11
2450.048046631088
 21
163.5603335061541
 31
0.0
  0
LINE
  5
106
  8
回12-寸法
 62
     5
 10
2449.048046631089
 20
153.4903335061543
 30
0.0
 11
2449.048046631089
 21
151.4903335061543
 31
0.0
  0
LINE
  5
107
  8
回12-寸法
 62
     5
 10
2449.048046631089
 20
165.5603335061542
 30
0.0
 11
2449.048046631089
 21
187.7603335061541
 31
0.0
  0
LINE
  5
108
  8
回12-寸法
 62
     5
 10
2449.048046631089
 20
155.4903335061543
 30
0.0
 11
2449.048046631089
 21
163.5603335061541
 31
0.0
  0
INSERT
  5
109
  8
回12-寸法
 62
     5
  2
_OPEN
 10
2449.048046631089
 20
155.4903335061543
 30
0.0
 41
2.0
 42
2.0
 43
2.0
 50
90.0
  0
INSERT
  5
10A
  8
回12-寸法
 62
     5
  2
_OPEN
 10
2449.048046631089
 20
163.5603335061541
 30
0.0
 41
2.0
 42
2.0
 43
2.0
 50
270.0
  0
TEXT
  5
10B
  8
回12-寸法
 62
     5
 10
2448.398046631088
 20
167.6103335061548
 30
0.0
 40
3.0
  1
8.07 [0.318]
 50
90.0
  7
2MM
1001
ACAD
1000
MTEXTBEGIN
1070
    73
1070
     1
1070
    44
1040
1.0
1070
    74
1070
     0
1000
MTEXTEND
  0
POINT
  5
10C
  8
DEFPOINTS
 62
     0
 10
2393.299114263349
 20
155.4903335061543
 30
0.0
  0
POINT
  5
10D
  8
DEFPOINTS
 62
     0
 10
2399.589114263349
 20
163.5603335061541
 30
0.0
  0
POINT
  5
10E
  8
DEFPOINTS
 62
     0
 10
2449.048046631089
 20
163.5603335061541
 30
0.0
  0
ENDBLK
  5
10F
  8
0
 62
     7
  0
BLOCK
  8
0
  2
*D18
 70
     1
 10
0.0
 20
0.0
 30
0.0
  3
*D18
  1

  0
LINE
  5
F5
  8
回12-寸法
 62
     5
 10
2393.299114263349
 20
-34.10966649384568
 30
0.0
 11
2450.048046631088
 21
-34.10966649384568
 31
0.0
  0
LINE
  5
F6
  8
回12-寸法
 62
     5
 10
2399.589114263349
 20
-42.17966649384584
 30
0.0
 11
2450.048046631088
 21
-42.17966649384584
 31
0.0
  0
LINE
  5
F7
  8
回12-寸法
 62
     5
 10
2449.048046631089
 20
-32.1096664938457
 30
0.0
 11
2449.048046631089
 21
-30.10966649384569
 31
0.0
  0
LINE
  5
F8
  8
回12-寸法
 62
     5
 10
2449.048046631089
 20
-44.17966649384585
 30
0.0
 11
2449.048046631089
 21
-66.37966649384583
 31
0.0
  0
LINE
  5
F9
  8
回12-寸法
 62
     5
 10
2449.048046631089
 20
-34.10966649384569
 30
0.0
 11
2449.048046631089
 21
-42.17966649384585
 31
0.0
  0
INSERT
  5
FA
  8
回12-寸法
 62
     5
  2
_OPEN
 10
2449.048046631089
 20
-34.10966649384569
 30
0.0
 41
2.0
 42
2.0
 43
2.0
 50
270.0
  0
INSERT
  5
FB
  8
回12-寸法
 62
     5
  2
_OPEN
 10
2449.048046631089
 20
-42.17966649384585
 30
0.0
 41
2.0
 42
2.0
 43
2.0
 50
90.0
  0
TEXT
  5
FC
  8
回12-寸法
 62
     5
 10
2448.398046631088
 20
-66.32966649384525
 30
0.0
 40
3.0
  1
8.07 [0.318]
 50
90.0
  7
2MM
1001
ACAD
1000
MTEXTBEGIN
1070
    73
1070
     1
1070
    44
1040
1.0
1070
    74
1070
     0
1000
MTEXTEND
  0
POINT
  5
FD
  8
DEFPOINTS
 62
     0
 10
2393.299114263349
 20
-34.10966649384568
 30
0.0
  0
POINT
  5
FE
  8
DEFPOINTS
 62
     0
 10
2399.589114263349
 20
-42.17966649384584
 30
0.0
  0
POINT
  5
FF
  8
DEFPOINTS
 62
     0
 10
2449.048046631089
 20
-42.17966649384585
 30
0.0
  0
ENDBLK
  5
100
  8
0
 62
     7
  0
BLOCK
  8
0
  2
*D19
 70
     1
 10
0.0
 20
0.0
 30
0.0
  3
*D19
  1

  0
LINE
  5
8F
  8
回12-寸法
  6
CONTINUOUS
 62
     5
 10
2027.074114263349
 20
53.07033350615427
 30
0.0
 11
2011.894772476095
 21
53.07033350615427
 31
0.0
  0
LINE
  5
90
  8
回12-寸法
  6
CONTINUOUS
 62
     5
 10
2027.074114263349
 20
68.31033350615427
 30
0.0
 11
2011.894772476095
 21
68.31033350615427
 31
0.0
  0
LINE
  5
91
  8
回12-寸法
  6
CONTINUOUS
 62
     5
 10
2012.894772476095
 20
70.31033350615429
 30
0.0
 11
2012.894772476095
 21
72.3103335061543
 31
0.0
  0
LINE
  5
92
  8
回12-寸法
  6
CONTINUOUS
 62
     5
 10
2012.894772476095
 20
51.07033350615427
 30
0.0
 11
2012.894772476095
 21
7.680333506153908
 31
0.0
  0
LINE
  5
93
  8
回12-寸法
  6
CONTINUOUS
 62
     5
 10
2012.894772476095
 20
68.31033350615429
 30
0.0
 11
2012.894772476095
 21
53.07033350615427
 31
0.0
  0
INSERT
  5
94
  8
回12-寸法
  6
CONTINUOUS
 62
     5
  2
_OPEN
 10
2012.894772476095
 20
68.31033350615429
 30
0.0
 41
2.0
 42
2.0
 43
2.0
 50
270.0
  0
INSERT
  5
95
  8
回12-寸法
  6
CONTINUOUS
 62
     5
  2
_OPEN
 10
2012.894772476095
 20
53.07033350615427
 30
0.0
 41
2.0
 42
2.0
 43
2.0
 50
90.0
  0
INSERT
  5
96
  8
回12-寸法
  6
CONTINUOUS
 62
     5
 66
     1
  2
*X33
 10
0.0
 20
0.0
 30
0.0
  0
SEQEND
  5
3B1
  8
回03-FAG
 62
     7
  0
POINT
  5
97
  8
DEFPOINTS
  6
CONTINUOUS
 62
     0
 10
2027.074114263349
 20
53.07033350615427
 30
0.0
  0
POINT
  5
99
  8
DEFPOINTS
  6
CONTINUOUS
 62
     0
 10
2027.074114263349
 20
68.31033350615427
 30
0.0
  0
POINT
  5
9A
  8
DEFPOINTS
  6
CONTINUOUS
 62
     0
 10
2012.894772476095
 20
68.31033350615429
 30
0.0
  0
ENDBLK
  5
9B
  8
0
 62
     7
  0
BLOCK
  8
回03-FAG
  2
*X20
 70
     1
 10
0.0
 20
0.0
 30
0.0
  3
*X20
  1

  0
TEXT
  5
2E0
  8
回13-記事
  6
CONTINUOUS
 62
     5
 10
2041.53300204958
 20
42.02642691473164
 30
0.0
 40
4.0
  1
・PART No. LABEL
  0
TEXT
  5
2E1
  8
回13-記事
  6
CONTINUOUS
 62
     5
 10
2055.13300204958
 20
35.35976024806499
 30
0.0
 40
4.0
  1
・LOT LABEL
  0
ENDBLK
  5
2E3
  8
回03-FAG
 62
     7
  0
BLOCK
  8
回03-FAG
  2
*X21
 70
     1
 10
0.0
 20
0.0
 30
0.0
  3
*X21
  1

  0
INSERT
  5
2E6
  8
回13-記事
 62
     5
  2
_OPEN
 10
2094.130333733103
 20
60.25834022533432
 30
0.0
 41
1.999999999999999
 42
1.999999999999999
 43
2.0
 50
77.78714678582125
  0
LINE
  5
2E7
  8
回13-記事
  6
CONTINUOUS
 62
     5
 10
2093.707245621642
 20
58.30360329931563
 30
0.0
 11
2088.63300204958
 21
34.85976024806499
 31
0.0
  0
LINE
  5
2E8
  8
回13-記事
  6
CONTINUOUS
 62
     5
 10
2088.63300204958
 20
34.85976024806499
 30
0.0
 11
2042.866335382913
 21
34.85976024806499
 31
0.0
  0
ENDBLK
  5
2EA
  8
回03-FAG
 62
     7
  0
BLOCK
  8
回03-FAG
  2
*X22
 70
     1
 10
0.0
 20
0.0
 30
0.0
  3
*X22
  1

  0
INSERT
  5
2ED
  8
回13-記事
 62
     5
  2
_OPEN
 10
2085.757743535664
 20
-72.3888739697843
 30
0.0
 41
1.999999999999999
 42
1.999999999999999
 43
2.0
 50
108.6566902434476
  0
LINE
  5
2EE
  8
回13-記事
  6
CONTINUOUS
 62
     5
 10
2086.397537345355
 20
-74.28377868535232
 30
0.0
 11
2090.395130307053
 21
-86.12362089593899
 31
0.0
  0
LINE
  5
2EF
  8
回13-記事
  6
CONTINUOUS
 62
     5
 10
2090.395130307053
 20
-86.12362089593899
 30
0.0
 11
2118.495130307053
 21
-86.12362089593899
 31
0.0
  0
ENDBLK
  5
2F1
  8
回03-FAG
 62
     7
  0
BLOCK
  8
回03-FAG
  2
*X23
 70
     1
 10
0.0
 20
0.0
 30
0.0
  3
*X23
  1

  0
INSERT
  5
2F9
  8
回12-寸法
 62
     5
  2
_OPEN
 10
2128.111559066871
 20
52.59663178298296
 30
0.0
 41
2.0
 42
2.0
 43
2.0
 50
55.78541541235571
  0
LINE
  5
2FA
  8
回12-寸法
 62
     5
 10
2126.986971282402
 20
50.9427568436288
 30
0.0
 11
2122.57493322256
 21
44.45419340783132
 31
0.0
  0
LINE
  5
2FB
  8
回12-寸法
 62
     5
 10
2122.57493322256
 20
44.45419340783132
 30
0.0
 11
2112.27426985188
 21
44.45419340783132
 31
0.0
  0
ENDBLK
  5
2FD
  8
回03-FAG
 62
     7
  0
BLOCK
  8
回03-FAG
  2
*X24
 70
     1
 10
0.0
 20
0.0
 30
0.0
  3
*X24
  1

  0
INSERT
  5
300
  8
回12-寸法
 62
     5
  2
_OPEN
 10
2398.149465773448
 20
-4.012589713144052
 30
0.0
 41
2.0
 42
2.0
 43
2.0
 50
237.7488485489335
  0
LINE
  5
301
  8
回12-寸法
 62
     5
 10
2399.216728797592
 20
-2.321155517765744
 30
0.0
 11
2402.932757639186
 21
3.568131482245462
 31
0.0
  0
LINE
  5
302
  8
回12-寸法
 62
     5
 10
2402.932757639186
 20
3.568131482245462
 30
0.0
 11
2427.032757639186
 21
3.568131482245462
 31
0.0
  0
ENDBLK
  5
304
  8
回03-FAG
 62
     7
  0
BLOCK
  8
回03-FAG
  2
*X25
 70
     1
 10
0.0
 20
0.0
 30
0.0
  3
*X25
  1

  0
LINE
  5
315
  8
回13-記事
 62
     9
 10
2120.319114263349
 20
65.41961015061429
 30
0.0
 11
2122.709837618888
 21
67.81033350615371
 31
0.0
1001
ACAD
1010
0.0
1020
0.0
1030
0.0
  0
LINE
  5
316
  8
回13-記事
 62
     9
 10
2128.819114263349
 20
73.91961015061406
 30
0.0
 11
2129.829837618888
 21
74.9303335061536
 31
0.0
1001
ACAD
1010
0.0
1020
0.0
1030
0.0
  0
LINE
  5
317
  8
回13-記事
 62
     9
 10
2120.319114263349
 20
60.92948209007977
 30
0.0
 11
2127.199965679423
 21
67.81033350615394
 31
0.0
1001
ACAD
1010
0.0
1020
0.0
1030
0.0
  0
LINE
  5
318
  8
回13-記事
 62
     9
 10
2128.819114263349
 20
69.42948209007977
 30
0.0
 11
2134.319965679424
 21
74.93033350615383
 31
0.0
1001
ACAD
1010
0.0
1020
0.0
1030
0.0
  0
LINE
  5
319
  8
回13-記事
 62
     9
 10
2120.319114263349
 20
56.43935402954525
 30
0.0
 11
2137.877114224656
 21
73.99735399085262
 31
0.0
1001
ACAD
1010
0.0
1020
0.0
1030
0.0
  0
LINE
  5
31A
  8
回13-記事
 62
     9
 10
2121.940221800492
 20
53.57033350615347
 30
0.0
 11
2137.877114224656
 21
69.5072259303181
 31
0.0
1001
ACAD
1010
0.0
1020
0.0
1030
0.0
  0
LINE
  5
31B
  8
回13-記事
 62
     9
 10
2126.430349861026
 20
53.5703335061537
 30
0.0
 11
2137.877114224656
 21
65.01709786978335
 31
0.0
1001
ACAD
1010
0.0
1020
0.0
1030
0.0
  0
LINE
  5
31C
  8
回13-記事
 62
     9
 10
2128.819114263349
 20
51.46896984794171
 30
0.0
 11
2137.877114224656
 21
60.52696980924906
 31
0.0
1001
ACAD
1010
0.0
1020
0.0
1030
0.0
  0
LINE
  5
31D
  8
回13-記事
 62
     9
 10
2128.819114263349
 20
46.97884178740696
 30
0.0
 11
2137.877114224656
 21
56.03684174871432
 31
0.0
1001
ACAD
1010
0.0
1020
0.0
1030
0.0
  0
LINE
  5
31E
  8
回13-記事
 62
     9
 10
2132.78073404263
 20
46.45033350615358
 30
0.0
 11
2137.877114224656
 21
51.54671368818004
 31
0.0
1001
ACAD
1010
0.0
1020
0.0
1030
0.0
  0
LINE
  5
31F
  8
回13-記事
 62
     9
 10
2137.270862103164
 20
46.4503335061538
 30
0.0
 11
2137.877114224656
 21
47.05658562764551
 31
0.0
1001
ACAD
1010
0.0
1020
0.0
1030
0.0
  0
ENDBLK
  5
321
  8
回03-FAG
 62
     7
  0
BLOCK
  8
回03-FAG
  2
*X26
 70
     1
 10
0.0
 20
0.0
 30
0.0
  3
*X26
  1

  0
LINE
  5
329
  8
回13-記事
  6
CONTINUOUS
 62
     7
 10
2105.637549475794
 20
58.93712307351504
 30
0.0
 11
2101.801320579645
 21
62.77335196966413
 31
0.0
  0
LINE
  5
32A
  8
回13-記事
  6
CONTINUOUS
 62
     7
 10
2101.31119251911
 20
58.77335196966439
 30
0.0
 11
2097.31119251911
 21
62.77335196966411
 31
0.0
  0
LINE
  5
32B
  8
回13-記事
  6
CONTINUOUS
 62
     7
 10
2096.821064458576
 20
58.77335196966405
 30
0.0
 11
2092.821064458576
 21
62.77335196966408
 31
0.0
  0
LINE
  5
32C
  8
回13-記事
  6
CONTINUOUS
 62
     7
 10
2092.330936398041
 20
58.77335196966417
 30
0.0
 11
2088.330936398041
 21
62.77335196966389
 31
0.0
  0
LINE
  5
32D
  8
回13-記事
  6
CONTINUOUS
 62
     7
 10
2087.840808337507
 20
58.77335196966382
 30
0.0
 11
2083.840808337507
 21
62.77335196966385
 31
0.0
  0
LINE
  5
32E
  8
回13-記事
  6
CONTINUOUS
 62
     7
 10
2083.350680276972
 20
58.77335196966395
 30
0.0
 11
2080.116883447001
 21
62.00714879963562
 31
0.0
  0
ENDBLK
  5
330
  8
回03-FAG
 62
     7
  0
BLOCK
  8
回03-FAG
  2
*X27
 70
     1
 10
0.0
 20
0.0
 30
0.0
  3
*X27
  1

  0
LINE
  5
350
  8
回13-記事
  6
CONTINUOUS
 62
     8
 10
2121.277977629982
 20
-68.79635055231574
 30
0.0
 11
2122.232938687127
 21
-67.84138949517049
 31
0.0
  0
LINE
  5
351
  8
回13-記事
  6
CONTINUOUS
 62
     8
 10
2123.523041660249
 20
-68.79635055231585
 30
0.0
 11
2124.478002717394
 21
-67.84138949517042
 31
0.0
  0
LINE
  5
352
  8
回13-記事
  6
CONTINUOUS
 62
     8
 10
2125.768105690517
 20
-68.7963505523156
 30
0.0
 11
2126.723066747662
 21
-67.84138949517052
 31
0.0
  0
LINE
  5
353
  8
回13-記事
  6
CONTINUOUS
 62
     8
 10
2128.013169720784
 20
-68.7963505523157
 30
0.0
 11
2129.604329494654
 21
-67.20519077844629
 31
0.0
  0
LINE
  5
354
  8
回13-記事
  6
CONTINUOUS
 62
     8
 10
2130.932714104532
 20
-68.12187019883535
 30
0.0
 11
2131.849393524921
 21
-67.20519077844605
 31
0.0
  0
LINE
  5
355
  8
回13-記事
  6
CONTINUOUS
 62
     8
 10
2133.1777781348
 20
-68.12187019883528
 30
0.0
 11
2134.094457555189
 21
-67.20519077844632
 31
0.0
  0
LINE
  5
356
  8
回13-記事
  6
CONTINUOUS
 62
     8
 10
2135.422842165067
 20
-68.12187019883523
 30
0.0
 11
2136.339521585456
 21
-67.20519077844642
 31
0.0
  0
LINE
  5
357
  8
回13-記事
  6
CONTINUOUS
 62
     8
 10
2137.667906195335
 20
-68.12187019883516
 30
0.0
 11
2137.877114224656
 21
-67.91266216951349
 31
0.0
  0
ENDBLK
  5
359
  8
回03-FAG
 62
     7
  0
BLOCK
  8
回03-FAG
  2
*X28
 70
     1
 10
0.0
 20
0.0
 30
0.0
  3
*X28
  1

  0
INSERT
  5
37F
  8
回13-記事
 62
     5
  2
_OPEN
 10
2093.034619967939
 20
-68.18209411678367
 30
0.0
 41
2.0
 42
2.0
 43
2.0
 50
291.9737796516225
  0
LINE
  5
380
  8
回13-記事
  6
CONTINUOUS
 62
     5
 10
2092.286255476439
 20
-66.3273837383517
 30
0.0
 11
2087.869921128148
 21
-55.38215418317494
 31
0.0
  0
LINE
  5
381
  8
回13-記事
  6
CONTINUOUS
 62
     5
 10
2087.869921128148
 20
-55.38215418317494
 30
0.0
 11
2046.169921128148
 21
-55.38215418317494
 31
0.0
  0
ENDBLK
  5
383
  8
回03-FAG
 62
     7
  0
BLOCK
  8
回03-FAG
  2
*X29
 70
     1
 10
0.0
 20
0.0
 30
0.0
  3
*X29
  1

  0
TEXT
  5
386
  8
回12-寸法
  6
CONTINUOUS
 62
     5
 10
2244.754114263349
 20
216.4024947362527
 30
0.0
 40
3.0
  1
271.27
  7
2MM
  0
TEXT
  5
387
  8
回12-寸法
  6
CONTINUOUS
 62
     5
 10
2255.55411426335
 20
216.4024947362527
 30
0.0
 40
2.1
  1
±0.3
  7
2MM
  0
TEXT
  5
388
  8
回12-寸法
  6
CONTINUOUS
 62
     5
 10
2260.59411426335
 20
216.4024947362527
 30
0.0
 40
3.0
  1
 [10.680
  7
2MM
  0
TEXT
  5
389
  8
回12-寸法
  6
CONTINUOUS
 62
     5
 10
2274.39411426335
 20
216.4024947362527
 30
0.0
 40
2.1
  1
±0.012
  7
2MM
  0
TEXT
  5
38A
  8
回12-寸法
  6
CONTINUOUS
 62
     5
 10
2281.95411426335
 20
216.4024947362527
 30
0.0
 40
3.0
  1
]
  7
2MM
  0
ENDBLK
  5
38C
  8
回03-FAG
 62
     7
  0
BLOCK
  8
回03-FAG
  2
*X30
 70
     1
 10
0.0
 20
0.0
 30
0.0
  3
*X30
  1

  0
TEXT
  5
38F
  8
回12-寸法
  6
CONTINUOUS
 62
     5
 10
2457.160755390696
 20
42.09033350615482
 30
0.0
 40
3.0
  1
205.74
 50
90.0
  7
2MM
  0
TEXT
  5
390
  8
回12-寸法
  6
CONTINUOUS
 62
     5
 10
2457.160755390696
 20
53.79033350615464
 30
0.0
 40
2.1
  1
±0.3
 50
90.0
  7
2MM
  0
TEXT
  5
391
  8
回12-寸法
  6
CONTINUOUS
 62
     5
 10
2457.160755390696
 20
58.8303335061546
 30
0.0
 40
3.0
  1
 [8.100
 50
90.0
  7
2MM
  0
TEXT
  5
392
  8
回12-寸法
  6
CONTINUOUS
 62
     5
 10
2457.160755390696
 20
70.53033350615442
 30
0.0
 40
2.1
  1
±0.012
 50
90.0
  7
2MM
  0
TEXT
  5
393
  8
回12-寸法
  6
CONTINUOUS
 62
     5
 10
2457.160755390696
 20
78.09033350615436
 30
0.0
 40
3.0
  1
]
 50
90.0
  7
2MM
  0
ENDBLK
  5
395
  8
回03-FAG
 62
     7
  0
BLOCK
  8
回03-FAG
  2
*X31
 70
     1
 10
0.0
 20
0.0
 30
0.0
  3
*X31
  1

  0
TEXT
  5
398
  8
回12-寸法
  6
CONTINUOUS
 62
     5
 10
2058.915323376396
 20
102.9872966368777
 30
0.0
 40
3.0
  1
110
  7
2MM
  0
TEXT
  5
399
  8
回12-寸法
  6
CONTINUOUS
 62
     5
 10
2064.015323376396
 20
102.9872966368777
 30
0.0
 40
2.1
  1
±1
  7
2MM
  0
TEXT
  5
39A
  8
回12-寸法
  6
CONTINUOUS
 62
     5
 10
2066.535323376396
 20
102.9872966368777
 30
0.0
 40
3.0
  1
 [4.331
  7
2MM
  0
TEXT
  5
39B
  8
回12-寸法
  6
CONTINUOUS
 62
     5
 10
2078.535323376396
 20
102.9872966368777
 30
0.0
 40
2.1
  1
±0.039
  7
2MM
  0
TEXT
  5
39C
  8
回12-寸法
  6
CONTINUOUS
 62
     5
 10
2086.522905150303
 20
102.9872966368777
 30
0.0
 40
3.0
  1
]
  7
2MM
  0
ENDBLK
  5
39E
  8
回03-FAG
 62
     7
  0
BLOCK
  8
回03-FAG
  2
*X32
 70
     1
 10
0.0
 20
0.0
 30
0.0
  3
*X32
  1

  0
TEXT
  5
3A1
  8
回12-寸法
 62
     5
 10
2405.623110978982
 20
-106.3404917615976
 30
0.0
 40
3.0
  1
2.1
 50
90.0
  7
2MM
  0
TEXT
  5
3A2
  8
回12-寸法
 62
     5
 10
2405.623110978982
 20
-101.8404917615976
 30
0.0
 40
1.9689
  1
±0.2
 50
90.0
  7
2MM
  0
TEXT
  5
3A3
  8
回12-寸法
 62
     5
 10
2405.623110978982
 20
-97.11513176159769
 30
0.0
 40
3.0
  1
[0.083
 50
90.0
  7
2MM
  0
TEXT
  5
3A4
  8
回12-寸法
 62
     5
 10
2405.623110978982
 20
-86.6151317615977
 30
0.0
 40
1.9689
  1
±0.008
 50
90.0
  7
2MM
  0
TEXT
  5
3A5
  8
回12-寸法
 62
     5
 10
2405.623110978982
 20
-79.13331176159772
 30
0.0
 40
3.0
  1
]
 50
90.0
  7
2MM
  0
ENDBLK
  5
3A7
  8
回03-FAG
 62
     7
  0
BLOCK
  8
回03-FAG
  2
*X33
 70
     1
 10
0.0
 20
0.0
 30
0.0
  3
*X33
  1

  0
TEXT
  5
3AA
  8
回12-寸法
  6
CONTINUOUS
 62
     5
 10
2012.244772476095
 20
7.730333506154238
 30
0.0
 40
3.0
  1
15.24
 50
90.0
  7
2MM
  0
TEXT
  5
3AB
  8
回12-寸法
  6
CONTINUOUS
 62
     5
 10
2012.244772476095
 20
16.73033350615424
 30
0.0
 40
2.1
  1
±0.2
 50
90.0
  7
2MM
  0
TEXT
  5
3AC
  8
回12-寸法
  6
CONTINUOUS
 62
     5
 10
2012.244772476095
 20
21.7703335061542
 30
0.0
 40
3.0
  1
 [0.600
 50
90.0
  7
2MM
  0
TEXT
  5
3AD
  8
回12-寸法
  6
CONTINUOUS
 62
     5
 10
2012.244772476095
 20
34.07033350615416
 30
0.0
 40
2.1
  1
±0.008
 50
90.0
  7
2MM
  0
TEXT
  5
3AE
  8
回12-寸法
  6
CONTINUOUS
 62
     5
 10
2012.244772476095
 20
42.05033350615417
 30
0.0
 40
3.0
  1
]
 50
90.0
  7
2MM
  0
ENDBLK
  5
3B0
  8
回03-FAG
 62
     7
  0
ENDSEC
  0
SECTION
  2
ENTITIES
  0
TEXT
  5
68
  8
回03-記事
  6
CONTINUOUS
 62
     5
 10
2188.192966813251
 20
-142.2184720494571
 30
0.0
 40
6.0
  1
without affecting product specification.
  0
TEXT
  5
6A
  8
回03-記事
  6
CONTINUOUS
 62
     5
 10
2188.192966813251
 20
-131.6938399067072
 30
0.0
 40
6.0
  1
Edges and corners of ITO glass may be chamfered 
  0
TEXT
  5
6B
  8
回03-記事
  6
CONTINUOUS
 62
     5
 10
2188.192966813251
 20
-121.1692077639574
 30
0.0
 40
6.0
  1
Unit: mm
  0
TEXT
  5
6C
  8
回03-記事
  6
CONTINUOUS
 62
     5
 10
2188.192966813251
 20
-110.6445756212077
 30
0.0
 40
6.0
  1
EXCEPT WHERE INDICATED
  0
TEXT
  5
6D
  8
回03-記事
  6
CONTINUOUS
 62
     5
 10
2188.192966813251
 20
-100.1199434784581
 30
0.0
 40
6.0
  1
TOLERANCE=±0.5mm
  0
INSERT
  5
6E
  8
回13-記事
  6
CONTINUOUS
 62
     5
 66
     1
  2
*X20
 10
0.0
 20
0.0
 30
0.0
  0
SEQEND
  5
2E4
  8
回03-FAG
 62
     7
  0
INSERT
  5
72
  8
回13-記事
  6
CONTINUOUS
 62
     7
 66
     1
  2
*X21
 10
0.0
 20
0.0
 30
0.0
  0
SEQEND
  5
2EB
  8
回03-FAG
 62
     7
  0
TEXT
  5
75
  8
回13-記事
  6
CONTINUOUS
 62
     5
 10
2092.295130307053
 20
-85.62362089593898
 30
0.0
 40
4.0
  1
LOT LABEL
1001
ACAD
1000
MTEXTBEGIN
1070
    73
1070
     1
1070
    44
1040
1.0
1070
    74
1070
     0
1000
MTEXTEND
  0
INSERT
  5
76
  8
回13-記事
  6
CONTINUOUS
 62
     7
 66
     1
  2
*X22
 10
0.0
 20
0.0
 30
0.0
  0
SEQEND
  5
2F2
  8
回03-FAG
 62
     7
  0
LINE
  5
77
  8
回13-記事
 62
     7
 10
2025.586020476732
 20
-66.10545663569985
 30
0.0
 11
2025.674755263956
 21
-66.89181265065679
 31
0.0
  0
LINE
  5
78
  8
回13-記事
 62
     7
 10
2024.775302340044
 20
-66.14403001301241
 30
0.0
 11
2025.586020476732
 21
-66.10545663569985
 31
0.0
  0
LINE
  5
79
  8
回13-記事
 62
     7
 10
2023.110114361934
 20
-67.06651231078433
 30
0.0
 11
2024.775302340044
 21
-66.14403001301241
 31
0.0
  0
LINE
  5
7A
  8
回13-記事
 62
     7
 10
2024.793912211171
 20
-67.7031582420019
 30
0.0
 11
2024.742118257405
 21
-66.9428082092212
 31
0.0
  0
LINE
  5
7B
  8
回13-記事
 62
     7
 10
2024.358649490412
 20
-67.74534205106795
 30
0.0
 11
2024.306855536647
 21
-66.98499201828702
 31
0.0
  0
LINE
  5
7C
  8
回13-記事
 62
     7
 10
2021.476152941768
 20
-68.02470133970416
 30
0.0
 11
2028.091297412823
 21
-67.38358971217064
 31
0.0
  0
ARC
  5
7D
  8
回13-記事
 62
     7
 10
2021.476152941768
 20
-68.29470133970414
 30
0.0
 40
0.2700000000000102
 50
90.0
 51
270.0
  0
ARC
  5
7E
  8
回13-記事
 62
     7
 10
2028.410498071682
 20
-65.55624767624647
 30
0.0
 40
0.54
 50
45.00000000001986
 51
134.9999999999801
  0
LINE
  5
7F
  8
回13-記事
 62
     7
 10
2028.028660409841
 20
-65.17441001440568
 30
0.0
 11
2027.112732118106
 21
-66.79385972964826
 31
0.0
  0
LINE
  5
80
  8
回13-記事
 62
     7
 10
2029.779380246884
 20
-66.16145452339208
 30
0.0
 11
2028.792335733522
 21
-65.17441001440568
 31
0.0
  0
LINE
  5
81
  8
回13-記事
 62
     7
 10
2030.656912010245
 20
-68.56470133970436
 30
0.0
 11
2030.656912010245
 21
-66.16145452339208
 31
0.0
  0
LINE
  5
82
  8
回13-記事
 62
     7
 10
2028.797938378643
 20
-66.16145452339208
 30
0.0
 11
2030.656912010245
 21
-66.16145452339208
 31
0.0
  0
LINE
  5
83
  8
回13-記事
 62
     7
 10
2027.408376350665
 20
-68.56470133970436
 30
0.0
 11
2028.797938378643
 21
-66.16145452339208
 31
0.0
  0
LINE
  5
84
  8
回13-記事
 62
     7
 10
2020.984902613468
 20
-67.21127868718543
 30
0.0
 11
2027.112732118106
 21
-66.79385972964826
 31
0.0
  0
LINE
  5
85
  8
回13-記事
 62
     7
 10
2020.473879960948
 20
-67.72230133970641
 30
0.0
 11
2020.984902613468
 21
-67.21127868718543
 31
0.0
  0
ARC
  5
86
  8
回13-記事
 62
     7
 10
2019.631479960947
 20
-67.72230133970413
 30
0.0
 40
0.8423999999999999
 50
270.0
 51
359.9999999998567
  0
POLYLINE
  5
87
  8
回13-記事
  6
DASHED2
 62
     7
 66
     1
 10
0.0
 20
0.0
 30
0.0
 70
     1
  0
VERTEX
  5
2F3
  8
回13-記事
  6
DASHED2
 62
     7
 10
2018.31911426335
 20
-68.56470133970436
 30
0.0
  0
VERTEX
  5
2F5
  8
回13-記事
  6
DASHED2
 62
     7
 10
2032.035114263349
 20
-68.56470133970436
 30
0.0
  0
VERTEX
  5
2F6
  8
回13-記事
  6
DASHED2
 62
     7
 10
2032.035114263349
 20
-71.68870133970438
 30
0.0
  0
VERTEX
  5
2F7
  8
回13-記事
  6
DASHED2
 62
     7
 10
2018.31911426335
 20
-71.68870133970438
 30
0.0
  0
SEQEND
  5
2F4
  8
回03-FAG
 62
     7
  0
DIMENSION
  5
89
  8
回12-寸法
  6
CONTINUOUS
 62
     3
  2
*D19
 10
2012.894772476095
 20
68.31033350615429
 30
0.0
 11
2012.894772476095
 21
25.49033350615423
 31
0.0
 70
   128
  3
2MM
 13
2027.074114263349
 23
53.07033350615427
 33
0.0
 14
2027.074114263349
 24
68.31033350615427
 34
0.0
 50
90.0
1001
ACAD
1000
DSTYLE
1002
{
1070
    47
1040
0.2
1070
    48
1040
0.2
1070
    71
1070
     1
1070
   140
1040
4.0
1070
   170
1070
     1
1070
   271
1070
     2
1070
   272
1070
     2
1002
}
  0
TEXT
  5
9C
  8
回12-寸法
 62
     5
 10
2111.82426985188
 20
44.95419340783132
 30
0.0
 40
3.0
  1
2-R2
  7
2MM
1001
ACAD
1000
MTEXTBEGIN
1070
    73
1070
     1
1070
    44
1040
1.0
1070
    74
1070
     0
1000
MTEXTEND
  0
INSERT
  5
9D
  8
回12-寸法
 62
     3
 66
     1
  2
*X23
 10
0.0
 20
0.0
 30
0.0
  0
SEQEND
  5
2FE
  8
回03-FAG
 62
     7
  0
TEXT
  5
9E
  8
回12-寸法
 62
     5
 10
2405.630186968839
 20
-1.601290161926498
 30
0.0
 40
4.0
  1
FST-121C
1001
ACAD
1000
MTEXTBEGIN
1070
    73
1070
     1
1070
    44
1040
1.0
1070
    74
1070
     0
1000
MTEXTEND
  0
TEXT
  5
9F
  8
回12-寸法
 62
     5
 10
2404.832757639186
 20
4.068131482245462
 30
0.0
 40
4.0
  1
PART No.
1001
ACAD
1000
MTEXTBEGIN
1070
    73
1070
     1
1070
    44
1040
1.0
1070
    74
1070
     0
1000
MTEXTEND
  0
INSERT
  5
A0
  8
回12-寸法
 62
     7
 66
     1
  2
*X24
 10
0.0
 20
0.0
 30
0.0
  0
SEQEND
  5
305
  8
回03-FAG
 62
     7
  0
TEXT
  5
A1
  8
回08-GPDL
 62
     7
 10
2398.589114263349
 20
-13.76412721625343
 30
0.0
 40
1.8
  1
FST-121C
 50
90.0
  0
TEXT
  5
A5
  8
回12-寸法
  6
CONTINUOUS
 62
     7
 10
2084.185033342614
 20
198.8648246326439
 30
0.0
 40
4.0
  1
(Insulation Area)
  0
TEXT
  5
A6
  8
回12-寸法
  6
CONTINUOUS
 62
     7
 10
2402.224765085732
 20
198.8648246326438
 30
0.0
 40
4.0
  1
(Insulation Area)
  0
TEXT
  5
A7
  8
回12-寸法
  6
CONTINUOUS
 62
     7
 10
2456.502423149316
 20
164.5680064734065
 30
0.0
 40
4.0
  1
(Insulation Area)
 50
90.0
  0
LINE
  5
A8
  8
回12-寸法
  6
CENTER2
 62
     1
 10
2401.898834226383
 20
60.69033350615405
 30
0.0
 11
2022.066599199584
 21
60.69033350615405
 31
0.0
  0
POLYLINE
  5
AA
  8
回13-記事
  6
DASHED2
 62
     7
 66
     1
 10
0.0
 20
0.0
 30
0.0
 70
     1
  0
VERTEX
  5
306
  8
回13-記事
  6
DASHED2
 62
     7
 10
2120.319114263349
 20
53.57033350615324
 30
0.0
  0
VERTEX
  5
308
  8
回13-記事
  6
DASHED2
 62
     7
 10
2137.877114224656
 20
53.57033350615324
 30
0.0
  0
VERTEX
  5
309
  8
回13-記事
  6
DASHED2
 62
     7
 10
2137.877114224656
 20
67.81033350615371
 30
0.0
  0
VERTEX
  5
30A
  8
回13-記事
  6
DASHED2
 62
     7
 10
2120.319114263349
 20
67.81033350615371
 30
0.0
  0
SEQEND
  5
307
  8
回03-FAG
 62
     7
  0
POLYLINE
  5
AB
  8
回13-記事
 62
     9
 66
     1
 10
0.0
 20
0.0
 30
0.0
 70
     1
1001
ACAD
1000
ASC_BOUNDS
1002
{
1070
    19
1005
AC
1002
}
  0
VERTEX
  5
30B
  8
回13-記事
 62
     9
 10
2120.319114263349
 20
53.57033350615324
 30
0.0
  0
VERTEX
  5
30D
  8
回13-記事
 62
     9
 10
2120.319114263349
 20
67.81033350615371
 30
0.0
  0
VERTEX
  5
30E
  8
回13-記事
 62
     9
 10
2128.819114263349
 20
67.81033350615371
 30
0.0
  0
VERTEX
  5
30F
  8
回13-記事
 62
     9
 10
2128.819114263349
 20
74.9303335061536
 30
0.0
  0
VERTEX
  5
310
  8
回13-記事
 62
     9
 10
2137.877114224656
 20
74.9303335061536
 30
0.0
  0
VERTEX
  5
311
  8
回13-記事
 62
     9
 10
2137.877114224656
 20
46.45033350615335
 30
0.0
  0
VERTEX
  5
312
  8
回13-記事
 62
     9
 10
2128.819114263349
 20
46.45033350615335
 30
0.0
  0
VERTEX
  5
313
  8
回13-記事
 62
     9
 10
2128.819114263349
 20
53.57033350615324
 30
0.0
  0
SEQEND
  5
30C
  8
回03-FAG
 62
     7
  0
INSERT
  5
AC
  8
回13-記事
 62
     9
 66
     1
  2
*X25
 10
0.0
 20
0.0
 30
0.0
1001
ACAD
1010
0.0
1020
0.0
1030
0.0
  0
SEQEND
  5
322
  8
回03-FAG
 62
     7
  0
POLYLINE
  5
AD
  8
回13-記事
  6
DASHED2
 62
     7
 66
     1
 10
0.0
 20
0.0
 30
0.0
 70
     1
  0
VERTEX
  5
323
  8
回13-記事
  6
DASHED2
 62
     7
 10
2018.319114263348
 20
54.416533506154
 30
0.0
  0
VERTEX
  5
325
  8
回13-記事
  6
DASHED2
 62
     7
 10
2032.035114263349
 20
54.416533506154
 30
0.0
  0
VERTEX
  5
326
  8
回13-記事
  6
DASHED2
 62
     7
 10
2032.035114263349
 20
66.9641335061541
 30
0.0
  0
VERTEX
  5
327
  8
回13-記事
  6
DASHED2
 62
     7
 10
2018.319114263348
 20
66.9641335061541
 30
0.0
  0
SEQEND
  5
324
  8
回03-FAG
 62
     7
  0
TEXT
  5
AE
  8
回13-記事
  6
CONTINUOUS
 62
     5
 10
2024.272720599805
 20
49.04719001414481
 30
0.0
 40
4.777499999999998
  1
5
 50
90.0
  0
TEXT
  5
AF
  8
回13-記事
  6
CONTINUOUS
 62
     5
 10
2024.272720599805
 20
69.5391711398538
 30
0.0
 40
4.777499999999998
  1
1
 50
90.0
  0
INSERT
  5
B0
  8
回13-記事
  6
CONTINUOUS
 62
     7
 66
     1
  2
*X26
 10
0.0
 20
0.0
 30
0.0
1001
ACAD
1000
HATCH
1002
{
1070
    19
1000
ANSI31
1040
1.0
1040
3.141592653589793
1000
ASC_BOUNDS
1070
     1
1070
     2
1070
     1
1005
B1
1000
ASC_SEEDPOINT
1011
1929.394404021191
1021
87.00604253047709
1031
0.0
1000
R14_HATCH_DATA
1000
B0
1011
1.0
1021
0.0
1031
0.0
1011
0.0
1021
1.0
1031
0.0
1011
0.0
1021
0.0
1031
1.0
1040
0.0
1010
0.0
1020
0.0
1030
1.0
1000
ANSI31
1070
     0
1070
     1
1071
        1
1071
        1
1071
        8
1070
     1
1040
2080.089168920663
1040
61.77335196966396
1040
2080.089168920663
1040
59.77335196966397
1070
     2
1040
2081.089168920663
1040
59.77335196966397
1040
1.0
1040
3.141592653589793
1040
4.712388980384689
1070
     1
1070
     1
1040
2081.089168920663
1040
58.77335196966396
1040
2105.089168920663
1040
58.77335196966396
1070
     2
1040
2105.089168920663
1040
59.77335196966397
1040
1.0
1040
4.712388980384689
1040
6.283185307179586
1070
     1
1070
     1
1040
2106.089168920663
1040
59.77335196966397
1040
2106.089168920663
1040
61.77335196966396
1070
     2
1040
2105.089168920663
1040
61.77335196966396
1040
1.0
1040
0.0
1040
1.570796326794896
1070
     1
1070
     1
1040
2105.089168920663
1040
62.77335196966396
1040
2081.089168920663
1040
62.77335196966396
1070
     2
1040
2081.089168920663
1040
61.77335196966396
1040
1.0
1040
1.570796326794896
1040
3.141592653589793
1070
     1
1071
        1
1005
B1
1070
     0
1070
     1
1040
3.141592653589793
1040
1.0
1070
     0
1070
     1
1040
2.356194490192344
1040
1929.394404021191
1040
87.00604253047709
1040
2.245064030267287
1040
2.245064030267288
1070
     0
1071
        1
1040
1929.394404021191
1040
87.00604253047709
1040
0.0
1002
}
  0
SEQEND
  5
331
  8
回03-FAG
 62
     7
  0
POLYLINE
  5
B1
  8
回13-記事
  6
PHANTOM2
 62
     7
 66
     1
 10
0.0
 20
0.0
 30
0.0
 70
     1
1001
ACAD
1000
ASC_BOUNDS
1002
{
1070
    19
1005
B0
1002
}
  0
VERTEX
  5
332
  8
回13-記事
  6
PHANTOM2
 62
     7
 10
2080.089168920663
 20
61.77335196966396
 30
0.0
  0
VERTEX
  5
334
  8
回13-記事
  6
PHANTOM2
 62
     7
 10
2080.089168920663
 20
59.77335196966397
 30
0.0
 42
0.4142135623730951
  0
VERTEX
  5
335
  8
回13-記事
  6
PHANTOM2
 62
     7
 10
2081.089168920663
 20
58.77335196966396
 30
0.0
  0
VERTEX
  5
336
  8
回13-記事
  6
PHANTOM2
 62
     7
 10
2105.089168920663
 20
58.77335196966396
 30
0.0
 42
0.4142135623730951
  0
VERTEX
  5
337
  8
回13-記事
  6
PHANTOM2
 62
     7
 10
2106.089168920663
 20
59.77335196966397
 30
0.0
  0
VERTEX
  5
338
  8
回13-記事
  6
PHANTOM2
 62
     7
 10
2106.089168920663
 20
61.77335196966396
 30
0.0
 42
0.4142135623730951
  0
VERTEX
  5
339
  8
回13-記事
  6
PHANTOM2
 62
     7
 10
2105.089168920663
 20
62.77335196966396
 30
0.0
  0
VERTEX
  5
33A
  8
回13-記事
  6
PHANTOM2
 62
     7
 10
2081.089168920663
 20
62.77335196966396
 30
0.0
 42
0.4142135623730951
  0
SEQEND
  5
333
  8
回03-FAG
 62
     7
  0
ARC
  5
B3
  8
回10-ﾃｰﾙ
  6
CONTINUOUS
 62
     8
 10
2126.81911426335
 20
70.31033350615439
 30
0.0
 40
2.0
 50
270.0
 51
0.0
  0
ARC
  5
B7
  8
回10-ﾃｰﾙ
  6
CONTINUOUS
 62
     8
 10
2126.81911426335
 20
51.07033350615393
 30
0.0
 40
2.0
 50
0.0
 51
90.0
  0
ARC
  5
B8
  8
回10-ﾃｰﾙ
 62
     8
 10
2027.074114263349
 20
67.81033350615416
 30
0.0
 40
0.5
 50
90.0
 51
180.0
  0
ARC
  5
B9
  8
回10-ﾃｰﾙ
 62
     8
 10
2027.074114263349
 20
53.57033350615416
 30
0.0
 40
0.5
 50
180.0
 51
270.0
  0
LINE
  5
BA
  8
回10-ﾃｰﾙ
 62
     8
 10
2026.574114263349
 20
53.57033350615416
 30
0.0
 11
2026.574114263349
 21
67.81033350615416
 31
0.0
  0
LINE
  5
BB
  8
回10-ﾃｰﾙ
 62
     8
 10
2126.81911426335
 20
68.31033350615439
 30
0.0
 11
2027.074114263349
 21
68.31033350615439
 31
0.0
  0
LINE
  5
BC
  8
回10-ﾃｰﾙ
 62
     8
 10
2126.81911426335
 20
53.07033350615393
 30
0.0
 11
2027.074114263349
 21
53.07033350615393
 31
0.0
  0
TEXT
  5
BD
  8
回13-記事
  6
CONTINUOUS
 62
     5
 10
2381.273126672845
 20
-31.03759474352637
 30
0.0
 40
4.777499999999998
  1
LR
  0
TEXT
  5
BE
  8
回13-記事
  6
CONTINUOUS
 62
     5
 10
2382.52550889915
 20
148.4055654649774
 30
0.0
 40
4.777499999999998
  1
UR
  0
TEXT
  5
BF
  8
回13-記事
  6
CONTINUOUS
 62
     5
 10
2145.644505350048
 20
-31.38520775530537
 30
0.0
 40
4.777499999999998
  1
LL
  0
TEXT
  5
C0
  8
回13-記事
  6
CONTINUOUS
 62
     5
 10
2145.414942640088
 20
147.7548769035804
 30
0.0
 40
4.777499999999998
  1
UL
  0
LINE
  5
C1
  8
回12-寸法
  6
CENTER2
 62
     1
 10
2263.954114263349
 20
169.1700934996388
 30
0.0
 11
2263.954114263349
 21
-45.25327824832447
 31
0.0
  0
POLYLINE
  5
C2
  8
回13-記事
  6
DASHED2
 62
     7
 66
     1
 10
0.0
 20
0.0
 30
0.0
 70
     1
  0
VERTEX
  5
33B
  8
回13-記事
  6
DASHED2
 62
     7
 10
2142.229114263349
 20
155.4903335061543
 30
0.0
  0
VERTEX
  5
33D
  8
回13-記事
  6
DASHED2
 62
     7
 10
2393.299114263349
 20
155.4903335061543
 30
0.0
  0
VERTEX
  5
33E
  8
回13-記事
  6
DASHED2
 62
     7
 10
2393.299114263349
 20
-34.10966649384568
 30
0.0
  0
VERTEX
  5
33F
  8
回13-記事
  6
DASHED2
 62
     7
 10
2142.229114263349
 20
-34.10966649384568
 30
0.0
  0
SEQEND
  5
33C
  8
回03-FAG
 62
     7
  0
POLYLINE
  5
C3
  8
回13-記事
  6
PHANTOM2
 62
     7
 66
     1
 10
0.0
 20
0.0
 30
0.0
 70
     1
  0
VERTEX
  5
340
  8
回13-記事
  6
PHANTOM2
 62
     7
 10
2143.329114263349
 20
154.3903335061543
 30
0.0
  0
VERTEX
  5
342
  8
回13-記事
  6
PHANTOM2
 62
     7
 10
2392.199114263349
 20
154.3903335061543
 30
0.0
  0
VERTEX
  5
343
  8
回13-記事
  6
PHANTOM2
 62
     7
 10
2392.199114263349
 20
-33.00966649384577
 30
0.0
  0
VERTEX
  5
344
  8
回13-記事
  6
PHANTOM2
 62
     7
 10
2143.329114263349
 20
-33.00966649384577
 30
0.0
  0
SEQEND
  5
341
  8
回03-FAG
 62
     7
  0
POLYLINE
  5
C4
  8
回02-G外
  6
CONTINUOUS
 62
     7
 66
     1
 10
0.0
 20
0.0
 30
0.0
 70
     1
  0
VERTEX
  5
345
  8
回02-G外
  6
CONTINUOUS
 62
     7
 10
2128.31911426335
 20
-42.17966649384584
 30
0.0
  0
VERTEX
  5
347
  8
回02-G外
  6
CONTINUOUS
 62
     7
 10
2399.589114263349
 20
-42.17966649384584
 30
0.0
  0
VERTEX
  5
348
  8
回02-G外
  6
CONTINUOUS
 62
     7
 10
2399.589114263349
 20
163.5603335061541
 30
0.0
  0
VERTEX
  5
349
  8
回02-G外
  6
CONTINUOUS
 62
     7
 10
2128.31911426335
 20
163.5603335061541
 30
0.0
  0
SEQEND
  5
346
  8
回03-FAG
 62
     7
  0
LINE
  5
C8
  8
回13-記事
 62
     7
 10
2399.089114263349
 20
-69.57610436174355
 30
0.0
 11
2399.089114263349
 21
-70.6292972147296
 31
0.0
  0
TEXT
  5
C9
  8
回13-記事
  6
CONTINUOUS
 62
     7
 10
2519.534305367648
 20
-109.7950884222941
 30
0.0
 40
3.999999999999999
  1
(AMP:487406-9)
  0
TEXT
  5
CA
  8
回13-記事
  6
CONTINUOUS
 62
     7
 10
2485.732973182321
 20
-109.7950884222941
 30
0.0
 40
3.999999999999999
  1
PIN CONTACT
  0
TEXT
  5
CB
  8
回13-記事
  6
CONTINUOUS
 62
     7
 10
2516.093485496858
 20
-103.1284217556276
 30
0.0
 40
3.999999999999999
  1
(AMP:487526-4)
  0
TEXT
  5
CC
  8
回13-記事
  6
CONTINUOUS
 62
     7
 10
2485.732973182321
 20
-103.1284217556276
 30
0.0
 40
3.999999999999999
  1
CONNECTOR
  0
TEXT
  5
CD
  8
回13-記事
  6
CONTINUOUS
 62
     7
 10
2485.732973182321
 20
-96.46175508896067
 30
0.0
 40
3.999999999999999
  1
ADHESIVE SHEET
  0
TEXT
  5
CE
  8
回13-記事
  6
CONTINUOUS
 62
     7
 10
2476.639336168029
 20
-106.2215670269543
 30
0.0
 40
3.999999999999999
  1
8
  0
TEXT
  5
CF
  8
回13-記事
  6
CONTINUOUS
 62
     7
 10
2476.639336168029
 20
-96.46175508896067
 30
0.0
 40
3.999999999999999
  1
7
  0
LINE
  5
D0
  8
回13-記事
  6
CONTINUOUS
 62
     7
 10
2473.239283447253
 20
-110.8484531660256
 30
0.0
 11
2558.651438961888
 21
-110.8484531660256
 31
0.0
  0
LINE
  5
D1
  8
回13-記事
  6
CONTINUOUS
 62
     7
 10
2473.239283447253
 20
-97.5151198326921
 30
0.0
 11
2558.651438961888
 21
-97.5151198326921
 31
0.0
  0
TEXT
  5
D2
  8
回13-記事
  6
CONTINUOUS
 62
     7
 10
2485.732973182321
 20
-89.79508842229416
 30
0.0
 40
3.999999999999999
  1
TAIL PROTECTION TAPE
  0
TEXT
  5
D3
  8
回13-記事
  6
CONTINUOUS
 62
     7
 10
2485.732973182321
 20
-83.12842175562741
 30
0.0
 40
3.999999999999999
  1
STIFFENER
  0
TEXT
  5
D4
  8
回13-記事
  6
CONTINUOUS
 62
     7
 10
2485.732973182321
 20
-76.46175508896078
 30
0.0
 40
3.999999999999999
  1
REINFORCEMENT FILM
  0
TEXT
  5
D5
  8
回13-記事
  6
CONTINUOUS
 62
     7
 10
2485.732973182321
 20
-69.79508842229416
 30
0.0
 40
3.999999999999999
  1
TAIL
  0
TEXT
  5
D6
  8
回13-記事
  6
CONTINUOUS
 62
     7
 10
2485.732973182321
 20
-63.12842175562741
 30
0.0
 40
3.999999999999999
  1
ITO GLASS 
  0
LINE
  5
D7
  8
回13-記事
  6
CONTINUOUS
 62
     7
 10
2558.651438961888
 20
-50.84845316602559
 30
0.0
 11
2558.651438961888
 21
-110.8484531660256
 31
0.0
  0
TEXT
  5
D8
  8
回13-記事
  6
CONTINUOUS
 62
     7
 10
2485.732973182321
 20
-56.4617550889609
 30
0.0
 40
3.999999999999999
  1
ITO FILM (ANTI-GLARE)
  0
TEXT
  5
D9
  8
回13-記事
  6
CONTINUOUS
 62
     7
 10
2476.639336168029
 20
-89.79508842229416
 30
0.0
 40
3.999999999999999
  1
6
  0
TEXT
  5
DA
  8
回13-記事
  6
CONTINUOUS
 62
     7
 10
2476.639336168029
 20
-83.12842175562741
 30
0.0
 40
3.999999999999999
  1
5
  0
TEXT
  5
DB
  8
回13-記事
  6
CONTINUOUS
 62
     7
 10
2476.639336168029
 20
-76.46175508896078
 30
0.0
 40
3.999999999999999
  1
4
  0
TEXT
  5
DC
  8
回13-記事
  6
CONTINUOUS
 62
     7
 10
2476.639336168029
 20
-69.79508842229416
 30
0.0
 40
3.999999999999999
  1
3
  0
TEXT
  5
DD
  8
回13-記事
  6
CONTINUOUS
 62
     7
 10
2476.639336168029
 20
-63.12842175562741
 30
0.0
 40
3.999999999999999
  1
2
  0
LINE
  5
DE
  8
回13-記事
  6
CONTINUOUS
 62
     7
 10
2473.239283447253
 20
-90.84845316602558
 30
0.0
 11
2558.651438961888
 21
-90.84845316602558
 31
0.0
  0
LINE
  5
DF
  8
回13-記事
  6
CONTINUOUS
 62
     7
 10
2473.239283447253
 20
-84.18178649935885
 30
0.0
 11
2558.651438961888
 21
-84.18178649935885
 31
0.0
  0
LINE
  5
E0
  8
回13-記事
  6
CONTINUOUS
 62
     7
 10
2473.239283447253
 20
-77.51511983269222
 30
0.0
 11
2558.651438961888
 21
-77.51511983269222
 31
0.0
  0
LINE
  5
E1
  8
回13-記事
  6
CONTINUOUS
 62
     7
 10
2473.239283447253
 20
-70.84845316602559
 30
0.0
 11
2558.651438961888
 21
-70.84845316602559
 31
0.0
  0
LINE
  5
E2
  8
回13-記事
  6
CONTINUOUS
 62
     7
 10
2473.239283447253
 20
-64.18178649935885
 30
0.0
 11
2558.651438961888
 21
-64.18178649935885
 31
0.0
  0
LINE
  5
E3
  8
回13-記事
  6
CONTINUOUS
 62
     7
 10
2473.239283447253
 20
-57.51511983269233
 30
0.0
 11
2558.651438961888
 21
-57.51511983269233
 31
0.0
  0
TEXT
  5
E4
  8
回13-記事
  6
CONTINUOUS
 62
     7
 10
2476.639336168029
 20
-56.4617550889609
 30
0.0
 40
3.999999999999999
  1
1
  0
LINE
  5
E5
  8
回13-記事
  6
CONTINUOUS
 62
     7
 10
2473.239283447253
 20
-50.84845316602559
 30
0.0
 11
2558.651438961888
 21
-50.84845316602559
 31
0.0
  0
LINE
  5
E6
  8
回13-記事
  6
CONTINUOUS
 62
     7
 10
2482.332920461545
 20
-50.84845316602559
 30
0.0
 11
2482.332920461545
 21
-110.8484531660256
 31
0.0
  0
LINE
  5
E7
  8
回13-記事
  6
CONTINUOUS
 62
     7
 10
2473.239283447253
 20
-50.84845316602559
 30
0.0
 11
2473.239283447253
 21
-110.8484531660256
 31
0.0
  0
CIRCLE
  5
E8
  8
回13-記事
 62
     7
 10
2387.361078904564
 20
-82.93553446666374
 30
0.0
 40
3.368865211638372
  0
CIRCLE
  5
E9
  8
回13-記事
 62
     7
 10
2019.993779682146
 20
-60.30960468081935
 30
0.0
 40
3.368865211638372
  0
CIRCLE
  5
EA
  8
回13-記事
 62
     7
 10
2034.779567664574
 20
-61.9823268425132
 30
0.0
 40
3.368865211638372
  0
CIRCLE
  5
EB
  8
回13-記事
 62
     7
 10
2060.662324484412
 20
-78.53989785195768
 30
0.0
 40
3.368865211638372
  0
CIRCLE
  5
EC
  8
回13-記事
 62
     7
 10
2108.639257733186
 20
-62.31493262889376
 30
0.0
 40
3.368865211638372
  0
CIRCLE
  5
ED
  8
回13-記事
 62
     7
 10
2127.570980772709
 20
-83.31135904201188
 30
0.0
 40
3.368865211638372
  0
CIRCLE
  5
EE
  8
回13-記事
 62
     7
 10
2142.74673248536
 20
-83.96109809255699
 30
0.0
 40
3.368865211638372
  0
CIRCLE
  5
EF
  8
回13-記事
 62
     7
 10
2284.695381881647
 20
-81.836104945108
 30
0.0
 40
3.368865211638372
  0
CIRCLE
  5
F0
  8
回13-記事
 62
     7
 10
2295.73657516474
 20
-58.08052064912203
 30
0.0
 40
3.368865211638372
  0
TEXT
  5
F1
  8
回12-寸法
  6
CONTINUOUS
 62
     7
 10
2456.502423149316
 20
-84.93760807994954
 30
0.0
 40
4.0
  1
(Insulation Area)
 50
90.0
  0
DIMENSION
  5
F2
  8
回12-寸法
 62
     7
  2
*D18
 10
2449.048046631089
 20
-42.17966649384585
 30
0.0
 11
2446.898046631088
 21
-56.27966649384545
 31
0.0
 70
     0
  3
2MM
 13
2393.299114263349
 23
-34.10966649384568
 33
0.0
 14
2399.589114263349
 24
-42.17966649384584
 34
0.0
 50
90.0
1001
ACAD
1000
DSTYLE
1002
{
1070
   140
1040
4.0
1070
   170
1070
     1
1070
   271
1070
     2
1070
   272
1070
     2
1002
}
  0
DIMENSION
  5
101
  8
回12-寸法
 62
     7
  2
*D17
 10
2449.048046631089
 20
163.5603335061541
 30
0.0
 11
2446.898046631088
 21
177.6603335061545
 31
0.0
 70
     0
  3
2MM
 13
2393.299114263349
 23
155.4903335061543
 33
0.0
 14
2399.589114263349
 24
163.5603335061541
 34
0.0
 50
90.0
1001
ACAD
1000
DSTYLE
1002
{
1070
   140
1040
4.0
1070
   170
1070
     1
1070
   271
1070
     2
1070
   272
1070
     2
1002
}
  0
DIMENSION
  5
110
  8
回12-寸法
 62
     7
  2
*D16
 10
2449.048046631089
 20
155.4903335061543
 30
0.0
 11
2446.898046631088
 21
60.69033350615472
 31
0.0
 70
     0
  3
2MM
 13
2393.299114263349
 23
-34.10966649384568
 33
0.0
 14
2393.299114263349
 24
155.4903335061543
 34
0.0
 50
90.0
1001
ACAD
1000
DSTYLE
1002
{
1070
   140
1040
4.0
1070
   170
1070
     1
1070
   271
1070
     2
1070
   272
1070
     2
1002
}
  0
DIMENSION
  5
11D
  8
回12-寸法
 62
     7
  2
*D15
 10
2399.589114263349
 20
204.8846579775668
 30
0.0
 11
2414.234119538618
 21
207.0346579775668
 31
0.0
 70
     0
  3
2MM
 13
2393.299114263349
 23
155.4903335061543
 33
0.0
 14
2399.589114263349
 24
163.5603335061541
 34
0.0
1001
ACAD
1000
DSTYLE
1002
{
1070
   140
1040
4.0
1070
   170
1070
     1
1070
   271
1070
     2
1070
   272
1070
     2
1002
}
  0
DIMENSION
  5
12C
  8
回12-寸法
 62
     7
  2
*D14
 10
2128.31911426335
 20
204.8846579775668
 30
0.0
 11
2113.313872767609
 21
207.0346579775668
 31
0.0
 70
     0
  3
2MM
 13
2142.229114263349
 23
155.4903335061543
 33
0.0
 14
2128.31911426335
 24
163.5603335061541
 34
0.0
1001
ACAD
1000
DSTYLE
1002
{
1070
   140
1040
4.0
1070
   170
1070
     1
1070
   271
1070
     2
1070
   272
1070
     2
1002
}
  0
DIMENSION
  5
13B
  8
回12-寸法
 62
     7
  2
*D13
 10
2393.299114263349
 20
204.8846579775668
 30
0.0
 11
2267.76411426335
 21
207.0353830160963
 31
0.0
 70
     0
  3
2MM
 13
2142.229114263349
 23
155.4903335061543
 33
0.0
 14
2393.299114263349
 24
155.4903335061543
 34
0.0
1001
ACAD
1000
DSTYLE
1002
{
1070
   140
1040
4.0
1070
   170
1070
     1
1070
   271
1070
     2
1070
   272
1070
     2
1002
}
  0
POLYLINE
  5
148
  8
回13-記事
  6
CONTINUOUS
 62
     7
 66
     1
 10
0.0
 20
0.0
 30
0.0
 70
     1
  0
VERTEX
  5
34A
  8
回13-記事
  6
CONTINUOUS
 62
     7
 10
2080.089168920663
 20
-69.57610436174355
 30
0.0
  0
VERTEX
  5
34C
  8
回13-記事
  6
CONTINUOUS
 62
     7
 10
2106.089168920663
 20
-69.57610436174355
 30
0.0
  0
VERTEX
  5
34D
  8
回13-記事
  6
CONTINUOUS
 62
     7
 10
2106.089168920663
 20
-68.59628141611665
 30
0.0
  0
VERTEX
  5
34E
  8
回13-記事
  6
CONTINUOUS
 62
     7
 10
2080.089168920663
 20
-68.59628141611665
 30
0.0
  0
SEQEND
  5
34B
  8
回03-FAG
 62
     7
  0
DIMENSION
  5
149
  8
回12-寸法
 62
     1
  2
*D12
 10
2406.273110978982
 20
-73.84522121041733
 30
0.0
 11
2404.123110978982
 21
-92.13690176159804
 31
0.0
 70
     0
  1
2.1{\H0.6563x;±0.2}[0.083{\H0.6563x;±0.008}]
  3
2MM
 13
2399.089114263349
 23
-68.12187019883527
 33
0.0
 14
2399.589114263349
 24
-73.84522121041732
 34
0.0
 50
90.0
1001
ACAD
1000
DSTYLE
1002
{
1070
   140
1040
4.0
1070
   170
1070
     1
1070
   271
1070
     2
1070
   272
1070
     2
1002
}
  0
LINE
  5
158
  8
回13-記事
  6
CONTINUOUS
 62
     7
 10
2115.819114263349
 20
-68.79635055231574
 30
0.0
 11
2108.338365129844
 21
-65.74108656795011
 31
0.0
  0
TEXT
  5
159
  8
回13-記事
  6
CONTINUOUS
 62
     7
 10
2107.134570208278
 20
-64.22513073399045
 30
0.0
 40
4.0
  1
4
  0
LINE
  5
15A
  8
回13-記事
  6
CONTINUOUS
 62
     7
 10
2109.218605179302
 20
-70.76397089510715
 30
0.0
 11
2108.338365129844
 21
-65.74108656795011
 31
0.0
  0
INSERT
  5
15B
  8
回13-記事
  6
CONTINUOUS
 62
     8
 66
     1
  2
*X27
 10
0.0
 20
0.0
 30
0.0
1001
ACAD
1000
HATCH
1002
{
1070
    19
1000
ANSI31
1040
0.5
1040
0.0
1000
R14_HATCH_DATA
1000
15B
1011
1.0
1021
0.0
1031
0.0
1011
0.0
1021
1.0
1031
0.0
1011
0.0
1021
0.0
1031
1.0
1040
0.0
1010
0.0
1020
0.0
1030
1.0
1000
ANSI31
1070
     0
1070
     1
1071
        1
1071
        7
1070
     0
1070
     1
1071
        8
1040
2120.319114263349
1040
-67.84138949517023
1040
2120.319114263349
1040
-68.79635055231574
1040
2128.819114263349
1040
-68.79635055231563
1040
2128.819114263349
1040
-68.12187019883527
1040
2137.877114224656
1040
-68.12187019883515
1040
2137.877114224656
1040
-67.20519077844619
1040
2127.864153206204
1040
-67.20519077844619
1040
2127.864153206204
1040
-67.84138949517023
1071
        0
1070
     0
1070
     1
1040
0.0
1040
0.5
1070
     0
1070
     1
1040
0.7853981633974483
1040
2964.69434672646
1040
-606.0943600702209
1040
-1.122532015133643
1040
1.122532015133644
1070
     0
1040
0.0436630606398296
1071
        1
1040
2127.382618652963
1040
-68.30038277345534
1040
0.0
1002
}
  0
SEQEND
  5
35A
  8
回03-FAG
 62
     7
  0
POLYLINE
  5
15C
  8
回13-記事
  6
CONTINUOUS
 62
     7
 66
     1
 10
0.0
 20
0.0
 30
0.0
 70
     1
  0
VERTEX
  5
35B
  8
回13-記事
  6
CONTINUOUS
 62
     7
 10
2115.819114263349
 20
-68.79635055231574
 30
0.0
  0
VERTEX
  5
35D
  8
回13-記事
  6
CONTINUOUS
 62
     7
 10
2128.819114263349
 20
-68.79635055231574
 30
0.0
  0
VERTEX
  5
35E
  8
回13-記事
  6
CONTINUOUS
 62
     7
 10
2128.819114263349
 20
-69.57610436174355
 30
0.0
  0
VERTEX
  5
35F
  8
回13-記事
  6
CONTINUOUS
 62
     7
 10
2115.819114263349
 20
-69.57610436174355
 30
0.0
  0
SEQEND
  5
35C
  8
回03-FAG
 62
     7
  0
DIMENSION
  5
15D
  8
回12-寸法
  6
CONTINUOUS
 62
    18
  2
*D11
 10
2128.31911426335
 20
191.3934963702213
 30
0.0
 11
2113.763872767608
 21
193.5442214087508
 31
0.0
 70
     0
  3
2MM
 13
2143.329114263349
 23
154.3903335061543
 33
0.0
 14
2128.31911426335
 24
163.5603335061541
 34
0.0
1001
ACAD
1000
DSTYLE
1002
{
1070
   140
1040
4.0
1070
   170
1070
     1
1070
   271
1070
     2
1070
   272
1070
     2
1002
}
  0
ARC
  5
16C
  8
回13-記事
  6
CONTINUOUS
 62
     7
 10
2385.075863777919
 20
-70.6292972147296
 30
0.0
 40
0.307948428894622
 50
0.0
 51
180.0
  0
ARC
  5
16D
  8
回13-記事
  6
CONTINUOUS
 62
     7
 10
2387.575863777919
 20
-70.6292972147296
 30
0.0
 40
0.307948428894622
 50
0.0
 51
180.0
  0
ARC
  5
16E
  8
回13-記事
  6
CONTINUOUS
 62
     7
 10
2390.075863777919
 20
-70.6292972147296
 30
0.0
 40
0.307948428894622
 50
0.0
 51
180.0
  0
ARC
  5
16F
  8
回13-記事
  6
CONTINUOUS
 62
     7
 10
2382.575863777919
 20
-70.6292972147296
 30
0.0
 40
0.307948428894622
 50
0.0
 51
180.0
  0
ARC
  5
170
  8
回13-記事
  6
CONTINUOUS
 62
     7
 10
2375.075863777919
 20
-70.6292972147296
 30
0.0
 40
0.307948428894622
 50
0.0
 51
180.0
  0
ARC
  5
171
  8
回13-記事
  6
CONTINUOUS
 62
     7
 10
2377.575863777919
 20
-70.6292972147296
 30
0.0
 40
0.307948428894622
 50
0.0
 51
180.0
  0
ARC
  5
172
  8
回13-記事
  6
CONTINUOUS
 62
     7
 10
2380.075863777919
 20
-70.6292972147296
 30
0.0
 40
0.307948428894622
 50
0.0
 51
180.0
  0
ARC
  5
173
  8
回13-記事
  6
CONTINUOUS
 62
     7
 10
2372.575863777919
 20
-70.6292972147296
 30
0.0
 40
0.307948428894622
 50
0.0
 51
180.0
  0
ARC
  5
174
  8
回13-記事
  6
CONTINUOUS
 62
     7
 10
2365.075863777919
 20
-70.6292972147296
 30
0.0
 40
0.307948428894622
 50
0.0
 51
180.0
  0
ARC
  5
175
  8
回13-記事
  6
CONTINUOUS
 62
     7
 10
2367.575863777919
 20
-70.6292972147296
 30
0.0
 40
0.307948428894622
 50
0.0
 51
180.0
  0
ARC
  5
176
  8
回13-記事
  6
CONTINUOUS
 62
     7
 10
2370.075863777919
 20
-70.6292972147296
 30
0.0
 40
0.307948428894622
 50
0.0
 51
180.0
  0
ARC
  5
177
  8
回13-記事
  6
CONTINUOUS
 62
     7
 10
2362.575863777919
 20
-70.6292972147296
 30
0.0
 40
0.307948428894622
 50
0.0
 51
180.0
  0
ARC
  5
178
  8
回13-記事
  6
CONTINUOUS
 62
     7
 10
2355.075863777919
 20
-70.6292972147296
 30
0.0
 40
0.307948428894622
 50
0.0
 51
180.0
  0
ARC
  5
179
  8
回13-記事
  6
CONTINUOUS
 62
     7
 10
2357.575863777919
 20
-70.6292972147296
 30
0.0
 40
0.307948428894622
 50
0.0
 51
180.0
  0
ARC
  5
17A
  8
回13-記事
  6
CONTINUOUS
 62
     7
 10
2360.075863777919
 20
-70.6292972147296
 30
0.0
 40
0.307948428894622
 50
0.0
 51
180.0
  0
ARC
  5
17B
  8
回13-記事
  6
CONTINUOUS
 62
     7
 10
2352.575863777919
 20
-70.6292972147296
 30
0.0
 40
0.307948428894622
 50
0.0
 51
180.0
  0
ARC
  5
17C
  8
回13-記事
  6
CONTINUOUS
 62
     7
 10
2350.075863777919
 20
-70.6292972147296
 30
0.0
 40
0.307948428894622
 50
0.0
 51
180.0
  0
ARC
  5
17D
  8
回13-記事
  6
CONTINUOUS
 62
     7
 10
2347.575863777919
 20
-70.6292972147296
 30
0.0
 40
0.307948428894622
 50
0.0
 51
180.0
  0
ARC
  5
17E
  8
回13-記事
  6
CONTINUOUS
 62
     7
 10
2340.075863777919
 20
-70.6292972147296
 30
0.0
 40
0.307948428894622
 50
0.0
 51
180.0
  0
ARC
  5
17F
  8
回13-記事
  6
CONTINUOUS
 62
     7
 10
2342.575863777919
 20
-70.6292972147296
 30
0.0
 40
0.307948428894622
 50
0.0
 51
180.0
  0
ARC
  5
180
  8
回13-記事
  6
CONTINUOUS
 62
     7
 10
2345.075863777919
 20
-70.6292972147296
 30
0.0
 40
0.307948428894622
 50
0.0
 51
180.0
  0
ARC
  5
181
  8
回13-記事
  6
CONTINUOUS
 62
     7
 10
2337.575863777919
 20
-70.6292972147296
 30
0.0
 40
0.307948428894622
 50
0.0
 51
180.0
  0
ARC
  5
182
  8
回13-記事
  6
CONTINUOUS
 62
     7
 10
2330.075863777919
 20
-70.6292972147296
 30
0.0
 40
0.307948428894622
 50
0.0
 51
180.0
  0
ARC
  5
183
  8
回13-記事
  6
CONTINUOUS
 62
     7
 10
2332.575863777919
 20
-70.6292972147296
 30
0.0
 40
0.307948428894622
 50
0.0
 51
180.0
  0
ARC
  5
184
  8
回13-記事
  6
CONTINUOUS
 62
     7
 10
2335.075863777919
 20
-70.6292972147296
 30
0.0
 40
0.307948428894622
 50
0.0
 51
180.0
  0
ARC
  5
185
  8
回13-記事
  6
CONTINUOUS
 62
     7
 10
2327.575863777919
 20
-70.6292972147296
 30
0.0
 40
0.307948428894622
 50
0.0
 51
180.0
  0
ARC
  5
186
  8
回13-記事
  6
CONTINUOUS
 62
     7
 10
2325.075863777919
 20
-70.6292972147296
 30
0.0
 40
0.307948428894622
 50
0.0
 51
180.0
  0
ARC
  5
187
  8
回13-記事
  6
CONTINUOUS
 62
     7
 10
2317.575863777919
 20
-70.6292972147296
 30
0.0
 40
0.307948428894622
 50
0.0
 51
180.0
  0
ARC
  5
188
  8
回13-記事
  6
CONTINUOUS
 62
     7
 10
2320.075863777919
 20
-70.6292972147296
 30
0.0
 40
0.307948428894622
 50
0.0
 51
180.0
  0
ARC
  5
189
  8
回13-記事
  6
CONTINUOUS
 62
     7
 10
2322.575863777919
 20
-70.6292972147296
 30
0.0
 40
0.307948428894622
 50
0.0
 51
180.0
  0
ARC
  5
18A
  8
回13-記事
  6
CONTINUOUS
 62
     7
 10
2315.075863777919
 20
-70.6292972147296
 30
0.0
 40
0.307948428894622
 50
0.0
 51
180.0
  0
ARC
  5
18B
  8
回13-記事
  6
CONTINUOUS
 62
     7
 10
2307.575863777919
 20
-70.6292972147296
 30
0.0
 40
0.307948428894622
 50
0.0
 51
180.0
  0
ARC
  5
18C
  8
回13-記事
  6
CONTINUOUS
 62
     7
 10
2310.075863777919
 20
-70.6292972147296
 30
0.0
 40
0.307948428894622
 50
0.0
 51
180.0
  0
ARC
  5
18D
  8
回13-記事
  6
CONTINUOUS
 62
     7
 10
2312.575863777919
 20
-70.6292972147296
 30
0.0
 40
0.307948428894622
 50
0.0
 51
180.0
  0
ARC
  5
18E
  8
回13-記事
  6
CONTINUOUS
 62
     7
 10
2305.075863777919
 20
-70.6292972147296
 30
0.0
 40
0.307948428894622
 50
0.0
 51
180.0
  0
ARC
  5
18F
  8
回13-記事
  6
CONTINUOUS
 62
     7
 10
2297.575863777919
 20
-70.6292972147296
 30
0.0
 40
0.307948428894622
 50
0.0
 51
180.0
  0
ARC
  5
190
  8
回13-記事
  6
CONTINUOUS
 62
     7
 10
2300.075863777919
 20
-70.6292972147296
 30
0.0
 40
0.307948428894622
 50
0.0
 51
180.0
  0
ARC
  5
191
  8
回13-記事
  6
CONTINUOUS
 62
     7
 10
2302.575863777919
 20
-70.6292972147296
 30
0.0
 40
0.307948428894622
 50
0.0
 51
180.0
  0
ARC
  5
192
  8
回13-記事
  6
CONTINUOUS
 62
     7
 10
2287.575863777919
 20
-70.6292972147296
 30
0.0
 40
0.307948428894622
 50
0.0
 51
180.0
  0
ARC
  5
193
  8
回13-記事
  6
CONTINUOUS
 62
     7
 10
2290.075863777919
 20
-70.6292972147296
 30
0.0
 40
0.307948428894622
 50
0.0
 51
180.0
  0
ARC
  5
194
  8
回13-記事
  6
CONTINUOUS
 62
     7
 10
2292.575863777919
 20
-70.6292972147296
 30
0.0
 40
0.307948428894622
 50
0.0
 51
180.0
  0
ARC
  5
195
  8
回13-記事
  6
CONTINUOUS
 62
     7
 10
2295.075863777919
 20
-70.6292972147296
 30
0.0
 40
0.307948428894622
 50
0.0
 51
180.0
  0
ARC
  5
196
  8
回13-記事
  6
CONTINUOUS
 62
     7
 10
2285.075863777919
 20
-70.6292972147296
 30
0.0
 40
0.307948428894622
 50
0.0
 51
180.0
  0
ARC
  5
197
  8
回13-記事
  6
CONTINUOUS
 62
     7
 10
2275.075863777919
 20
-70.6292972147296
 30
0.0
 40
0.307948428894622
 50
0.0
 51
180.0
  0
ARC
  5
198
  8
回13-記事
  6
CONTINUOUS
 62
     7
 10
2277.575863777919
 20
-70.6292972147296
 30
0.0
 40
0.307948428894622
 50
0.0
 51
180.0
  0
ARC
  5
199
  8
回13-記事
  6
CONTINUOUS
 62
     7
 10
2280.075863777919
 20
-70.6292972147296
 30
0.0
 40
0.307948428894622
 50
0.0
 51
180.0
  0
ARC
  5
19A
  8
回13-記事
  6
CONTINUOUS
 62
     7
 10
2282.575863777919
 20
-70.6292972147296
 30
0.0
 40
0.307948428894622
 50
0.0
 51
180.0
  0
ARC
  5
19B
  8
回13-記事
  6
CONTINUOUS
 62
     7
 10
2272.575863777919
 20
-70.6292972147296
 30
0.0
 40
0.307948428894622
 50
0.0
 51
180.0
  0
ARC
  5
19C
  8
回13-記事
  6
CONTINUOUS
 62
     7
 10
2262.575863777919
 20
-70.6292972147296
 30
0.0
 40
0.307948428894622
 50
0.0
 51
180.0
  0
ARC
  5
19D
  8
回13-記事
  6
CONTINUOUS
 62
     7
 10
2265.075863777919
 20
-70.6292972147296
 30
0.0
 40
0.307948428894622
 50
0.0
 51
180.0
  0
ARC
  5
19E
  8
回13-記事
  6
CONTINUOUS
 62
     7
 10
2267.575863777919
 20
-70.6292972147296
 30
0.0
 40
0.307948428894622
 50
0.0
 51
180.0
  0
ARC
  5
19F
  8
回13-記事
  6
CONTINUOUS
 62
     7
 10
2270.075863777919
 20
-70.6292972147296
 30
0.0
 40
0.307948428894622
 50
0.0
 51
180.0
  0
ARC
  5
1A0
  8
回13-記事
  6
CONTINUOUS
 62
     7
 10
2260.075863777919
 20
-70.6292972147296
 30
0.0
 40
0.307948428894622
 50
0.0
 51
180.0
  0
ARC
  5
1A1
  8
回13-記事
  6
CONTINUOUS
 62
     7
 10
2250.075863777919
 20
-70.6292972147296
 30
0.0
 40
0.307948428894622
 50
0.0
 51
180.0
  0
ARC
  5
1A2
  8
回13-記事
  6
CONTINUOUS
 62
     7
 10
2252.575863777919
 20
-70.6292972147296
 30
0.0
 40
0.307948428894622
 50
0.0
 51
180.0
  0
ARC
  5
1A3
  8
回13-記事
  6
CONTINUOUS
 62
     7
 10
2255.075863777919
 20
-70.6292972147296
 30
0.0
 40
0.307948428894622
 50
0.0
 51
180.0
  0
ARC
  5
1A4
  8
回13-記事
  6
CONTINUOUS
 62
     7
 10
2257.575863777919
 20
-70.6292972147296
 30
0.0
 40
0.307948428894622
 50
0.0
 51
180.0
  0
ARC
  5
1A5
  8
回13-記事
  6
CONTINUOUS
 62
     7
 10
2247.575863777919
 20
-70.6292972147296
 30
0.0
 40
0.307948428894622
 50
0.0
 51
180.0
  0
ARC
  5
1A6
  8
回13-記事
  6
CONTINUOUS
 62
     7
 10
2237.575863777919
 20
-70.6292972147296
 30
0.0
 40
0.307948428894622
 50
0.0
 51
180.0
  0
ARC
  5
1A7
  8
回13-記事
  6
CONTINUOUS
 62
     7
 10
2240.075863777919
 20
-70.6292972147296
 30
0.0
 40
0.307948428894622
 50
0.0
 51
180.0
  0
ARC
  5
1A8
  8
回13-記事
  6
CONTINUOUS
 62
     7
 10
2242.575863777919
 20
-70.6292972147296
 30
0.0
 40
0.307948428894622
 50
0.0
 51
180.0
  0
ARC
  5
1A9
  8
回13-記事
  6
CONTINUOUS
 62
     7
 10
2245.075863777919
 20
-70.6292972147296
 30
0.0
 40
0.307948428894622
 50
0.0
 51
180.0
  0
DIMENSION
  5
1AA
  8
回12-寸法
 62
    18
  2
*D10
 10
2440.563650197737
 20
-42.17966649384584
 30
0.0
 11
2438.413650197737
 21
-56.04179852820141
 31
0.0
 70
     0
  3
2MM
 13
2392.199114263349
 23
-33.00966649384577
 33
0.0
 14
2399.589114263349
 24
-42.17966649384584
 34
0.0
 50
90.0
1001
ACAD
1000
DSTYLE
1002
{
1070
   140
1040
4.0
1070
   170
1070
     1
1070
   271
1070
     2
1070
   272
1070
     2
1002
}
  0
LINE
  5
1B9
  8
回13-記事
  6
CONTINUOUS
 62
     8
 10
2137.877114224656
 20
-67.20519077844619
 30
0.0
 11
2127.864153206204
 21
-67.20519077844619
 31
0.0
  0
LINE
  5
1BA
  8
回13-記事
  6
CONTINUOUS
 62
     8
 10
2137.877114224656
 20
-68.12187019883527
 30
0.0
 11
2137.877114224656
 21
-67.20519077844619
 31
0.0
  0
LINE
  5
1BB
  8
回13-記事
  6
CONTINUOUS
 62
     8
 10
2128.819114263349
 20
-68.12187019883527
 30
0.0
 11
2137.877114224656
 21
-68.12187019883527
 31
0.0
  0
LINE
  5
1BC
  8
回13-記事
  6
CONTINUOUS
 62
     8
 10
2127.864153206204
 20
-67.20519077844619
 30
0.0
 11
2127.864153206204
 21
-67.84138949517023
 31
0.0
  0
LINE
  5
1BD
  8
回13-記事
  6
CONTINUOUS
 62
     8
 10
2120.319114263349
 20
-67.84138949517023
 30
0.0
 11
2120.319114263349
 21
-68.79635055231574
 31
0.0
  0
LINE
  5
1BE
  8
回13-記事
  6
CONTINUOUS
 62
     8
 10
2120.319114263349
 20
-67.84138949517023
 30
0.0
 11
2127.864153206204
 21
-67.84138949517023
 31
0.0
  0
LINE
  5
1BF
  8
回13-記事
  6
CONTINUOUS
 62
     7
 10
2132.936090420681
 20
-67.90669861643777
 30
0.0
 11
2128.377249750478
 21
-80.10559462816173
 31
0.0
  0
TEXT
  5
1C0
  8
回13-記事
  6
CONTINUOUS
 62
     7
 10
2126.178361419365
 20
-84.91156479846688
 30
0.0
 40
4.0
  1
6
  0
LINE
  5
1C1
  8
回13-記事
  6
CONTINUOUS
 62
     7
 10
2133.843788524301
 20
-74.56478723110786
 30
0.0
 11
2128.377249750478
 21
-80.10559462816173
 31
0.0
  0
LINE
  5
1C2
  8
回13-記事
  6
CONTINUOUS
 62
     7
 10
2137.877114224656
 20
-74.80018226756261
 30
0.0
 11
2137.877114224656
 21
-73.84522121041732
 31
0.0
  0
LINE
  5
1C3
  8
回13-記事
  6
CONTINUOUS
 62
     7
 10
2127.364153206204
 20
-74.80018226756261
 30
0.0
 11
2137.877114224656
 21
-74.80018226756261
 31
0.0
  0
LINE
  5
1C4
  8
回13-記事
  6
CONTINUOUS
 62
     7
 10
2127.364153206204
 20
-72.36401208130292
 30
0.0
 11
2127.364153206204
 21
-74.80018226756261
 31
0.0
  0
LINE
  5
1C5
  8
回13-記事
  6
CONTINUOUS
 62
     7
 10
2120.319114263349
 20
-72.36401208130292
 30
0.0
 11
2127.364153206204
 21
-72.36401208130292
 31
0.0
  0
LINE
  5
1C6
  8
回13-記事
  6
CONTINUOUS
 62
     7
 10
2120.319114263349
 20
-71.4090510241574
 30
0.0
 11
2120.319114263349
 21
-72.36401208130292
 31
0.0
  0
POLYLINE
  5
1C7
  8
回13-記事
  6
CONTINUOUS
 62
     7
 66
     1
 10
0.0
 20
0.0
 30
0.0
 70
     1
  0
VERTEX
  5
360
  8
回13-記事
  6
CONTINUOUS
 62
     7
 10
2080.089168920663
 20
-72.3888739697843
 30
0.0
  0
VERTEX
  5
362
  8
回13-記事
  6
CONTINUOUS
 62
     7
 10
2106.089168920663
 20
-72.3888739697843
 30
0.0
  0
VERTEX
  5
363
  8
回13-記事
  6
CONTINUOUS
 62
     7
 10
2106.089168920663
 20
-71.4090510241574
 30
0.0
  0
VERTEX
  5
364
  8
回13-記事
  6
CONTINUOUS
 62
     7
 10
2080.089168920663
 20
-71.4090510241574
 30
0.0
  0
SEQEND
  5
361
  8
回03-FAG
 62
     7
  0
DIMENSION
  5
1C8
  8
回12-寸法
  6
CONTINUOUS
 62
     1
  2
*D9
 10
2399.089114263349
 20
-57.15393725277545
 30
0.0
 11
2381.190689066499
 21
-57.15393725277545
 31
0.0
 70
   128
  1
(<>)
  3
2MM
 13
2399.589114263349
 23
-70.6292972147296
 33
0.0
 14
2399.089114263349
 24
-68.12187019883527
 34
0.0
1001
ACAD
1000
DSTYLE
1002
{
1070
   140
1040
4.0
1070
   170
1070
     1
1070
   271
1070
     2
1070
   272
1070
     2
1002
}
  0
DIMENSION
  5
1D7
  8
回12-寸法
  6
CONTINUOUS
 62
     1
  2
*D8
 10
2128.819114263349
 20
-60.79016895023574
 30
0.0
 11
2146.717539460199
 21
-60.79016895023574
 31
0.0
 70
   128
  1
(<>)
  3
2MM
 13
2128.319114263349
 23
-70.6292972147296
 33
0.0
 14
2128.819114263349
 24
-68.12187019883527
 34
0.0
1001
ACAD
1000
DSTYLE
1002
{
1070
   140
1040
4.0
1070
   170
1070
     1
1070
   271
1070
     2
1070
   272
1070
     2
1002
}
  0
TEXT
  5
1E6
  8
回13-記事
  6
CONTINUOUS
 62
     7
 10
2385.980325361153
 20
-84.94204141273348
 30
0.0
 40
4.0
  1
7
  0
LINE
  5
1E7
  8
回13-記事
  6
CONTINUOUS
 62
     7
 10
2394.785450734115
 20
-70.10003094795752
 30
0.0
 11
2388.384691382114
 21
-79.7259441018366
 31
0.0
  0
TEXT
  5
1E8
  8
回13-記事
  6
CONTINUOUS
 62
     7
 10
2141.386195202436
 20
-85.99910225177495
 30
0.0
 40
4.0
  1
7
  0
LINE
  5
1E9
  8
回13-記事
  6
CONTINUOUS
 62
     7
 10
2138.736499253957
 20
-70.10003094795752
 30
0.0
 11
2141.874259384789
 21
-80.68249832688298
 31
0.0
  0
TEXT
  5
1EA
  8
回13-記事
  6
CONTINUOUS
 62
     7
 10
2018.310414967941
 20
-62.57117484308697
 30
0.0
 40
4.0
  1
8
  0
TEXT
  5
1EB
  8
回13-記事
  6
CONTINUOUS
 62
     7
 10
2033.471326216782
 20
-64.2103038763214
 30
0.0
 40
4.0
  1
5
  0
TEXT
  5
1EC
  8
回13-記事
  6
CONTINUOUS
 62
     7
 10
2059.057639845813
 20
-80.48491350126074
 30
0.0
 40
4.0
  1
3
  0
TEXT
  5
1ED
  8
回13-記事
  6
CONTINUOUS
 62
     7
 10
2283.293214153502
 20
-83.69015074215509
 30
0.0
 40
4.0
  1
2
  0
TEXT
  5
1EE
  8
回13-記事
  6
CONTINUOUS
 62
     7
 10
2294.603376142457
 20
-59.97678426126708
 30
0.0
 40
4.0
  1
1
  0
LINE
  5
1EF
  8
回13-記事
  6
CONTINUOUS
 62
     7
 10
2021.667632883556
 20
-70.01403326474656
 30
0.0
 11
2020.483339999192
 21
-63.67491106464218
 31
0.0
  0
LINE
  5
1F0
  8
回13-記事
  6
CONTINUOUS
 62
     7
 10
2033.193262110956
 20
-69.21925613300823
 30
0.0
 11
2034.724819547312
 21
-65.33516925407525
 31
0.0
  0
LINE
  5
1F1
  8
回13-記事
  6
CONTINUOUS
 62
     7
 10
2058.12221002249
 20
-70.16201830412478
 30
0.0
 11
2060.310055995618
 21
-75.22286880308342
 31
0.0
  0
LINE
  5
1F2
  8
回13-記事
  6
CONTINUOUS
 62
     7
 10
2281.5318301107
 20
-71.86832400658364
 30
0.0
 11
2283.605496381616
 21
-78.64840947486505
 31
0.0
  0
LINE
  5
1F3
  8
回13-記事
  6
CONTINUOUS
 62
     7
 10
2292.289861238347
 20
-68.95746359970303
 30
0.0
 11
2295.427621369179
 21
-61.34445052835849
 31
0.0
  0
ARC
  5
1F4
  8
回13-記事
  6
CONTINUOUS
 62
     7
 10
2145.075863777919
 20
-70.6292972147296
 30
0.0
 40
0.307948428894622
 50
0.0
 51
180.0
  0
ARC
  5
1F5
  8
回13-記事
  6
CONTINUOUS
 62
     7
 10
2147.575863777919
 20
-70.6292972147296
 30
0.0
 40
0.307948428894622
 50
0.0
 51
180.0
  0
ARC
  5
1F6
  8
回13-記事
  6
CONTINUOUS
 62
     7
 10
2150.075863777919
 20
-70.6292972147296
 30
0.0
 40
0.307948428894622
 50
0.0
 51
180.0
  0
ARC
  5
1F7
  8
回13-記事
  6
CONTINUOUS
 62
     7
 10
2152.575863777919
 20
-70.6292972147296
 30
0.0
 40
0.307948428894622
 50
0.0
 51
180.0
  0
ARC
  5
1F8
  8
回13-記事
  6
CONTINUOUS
 62
     7
 10
2155.075863777919
 20
-70.6292972147296
 30
0.0
 40
0.307948428894622
 50
0.0
 51
180.0
  0
ARC
  5
1F9
  8
回13-記事
  6
CONTINUOUS
 62
     7
 10
2157.575863777919
 20
-70.6292972147296
 30
0.0
 40
0.307948428894622
 50
0.0
 51
180.0
  0
ARC
  5
1FA
  8
回13-記事
  6
CONTINUOUS
 62
     7
 10
2160.075863777919
 20
-70.6292972147296
 30
0.0
 40
0.307948428894622
 50
0.0
 51
180.0
  0
ARC
  5
1FB
  8
回13-記事
  6
CONTINUOUS
 62
     7
 10
2162.575863777919
 20
-70.6292972147296
 30
0.0
 40
0.307948428894622
 50
0.0
 51
180.0
  0
ARC
  5
1FC
  8
回13-記事
  6
CONTINUOUS
 62
     7
 10
2165.075863777919
 20
-70.6292972147296
 30
0.0
 40
0.307948428894622
 50
0.0
 51
180.0
  0
ARC
  5
1FD
  8
回13-記事
  6
CONTINUOUS
 62
     7
 10
2167.575863777919
 20
-70.6292972147296
 30
0.0
 40
0.307948428894622
 50
0.0
 51
180.0
  0
ARC
  5
1FE
  8
回13-記事
  6
CONTINUOUS
 62
     7
 10
2170.075863777919
 20
-70.6292972147296
 30
0.0
 40
0.307948428894622
 50
0.0
 51
180.0
  0
ARC
  5
1FF
  8
回13-記事
  6
CONTINUOUS
 62
     7
 10
2172.575863777919
 20
-70.6292972147296
 30
0.0
 40
0.307948428894622
 50
0.0
 51
180.0
  0
ARC
  5
200
  8
回13-記事
  6
CONTINUOUS
 62
     7
 10
2175.075863777919
 20
-70.6292972147296
 30
0.0
 40
0.307948428894622
 50
0.0
 51
180.0
  0
ARC
  5
201
  8
回13-記事
  6
CONTINUOUS
 62
     7
 10
2177.575863777919
 20
-70.6292972147296
 30
0.0
 40
0.307948428894622
 50
0.0
 51
180.0
  0
ARC
  5
202
  8
回13-記事
  6
CONTINUOUS
 62
     7
 10
2180.075863777919
 20
-70.6292972147296
 30
0.0
 40
0.307948428894622
 50
0.0
 51
180.0
  0
ARC
  5
203
  8
回13-記事
  6
CONTINUOUS
 62
     7
 10
2182.575863777919
 20
-70.6292972147296
 30
0.0
 40
0.307948428894622
 50
0.0
 51
180.0
  0
ARC
  5
204
  8
回13-記事
  6
CONTINUOUS
 62
     7
 10
2185.075863777919
 20
-70.6292972147296
 30
0.0
 40
0.307948428894622
 50
0.0
 51
180.0
  0
ARC
  5
205
  8
回13-記事
  6
CONTINUOUS
 62
     7
 10
2187.575863777919
 20
-70.6292972147296
 30
0.0
 40
0.307948428894622
 50
0.0
 51
180.0
  0
ARC
  5
206
  8
回13-記事
  6
CONTINUOUS
 62
     7
 10
2190.075863777919
 20
-70.6292972147296
 30
0.0
 40
0.307948428894622
 50
0.0
 51
180.0
  0
ARC
  5
207
  8
回13-記事
  6
CONTINUOUS
 62
     7
 10
2192.575863777919
 20
-70.6292972147296
 30
0.0
 40
0.307948428894622
 50
0.0
 51
180.0
  0
ARC
  5
208
  8
回13-記事
  6
CONTINUOUS
 62
     7
 10
2195.075863777919
 20
-70.6292972147296
 30
0.0
 40
0.307948428894622
 50
0.0
 51
180.0
  0
ARC
  5
209
  8
回13-記事
  6
CONTINUOUS
 62
     7
 10
2197.575863777919
 20
-70.6292972147296
 30
0.0
 40
0.307948428894622
 50
0.0
 51
180.0
  0
ARC
  5
20A
  8
回13-記事
  6
CONTINUOUS
 62
     7
 10
2200.075863777919
 20
-70.6292972147296
 30
0.0
 40
0.307948428894622
 50
0.0
 51
180.0
  0
ARC
  5
20B
  8
回13-記事
  6
CONTINUOUS
 62
     7
 10
2202.575863777919
 20
-70.6292972147296
 30
0.0
 40
0.307948428894622
 50
0.0
 51
180.0
  0
ARC
  5
20C
  8
回13-記事
  6
CONTINUOUS
 62
     7
 10
2205.075863777919
 20
-70.6292972147296
 30
0.0
 40
0.307948428894622
 50
0.0
 51
180.0
  0
ARC
  5
20D
  8
回13-記事
  6
CONTINUOUS
 62
     7
 10
2207.575863777919
 20
-70.6292972147296
 30
0.0
 40
0.307948428894622
 50
0.0
 51
180.0
  0
ARC
  5
20E
  8
回13-記事
  6
CONTINUOUS
 62
     7
 10
2210.075863777919
 20
-70.6292972147296
 30
0.0
 40
0.307948428894622
 50
0.0
 51
180.0
  0
ARC
  5
20F
  8
回13-記事
  6
CONTINUOUS
 62
     7
 10
2212.575863777919
 20
-70.6292972147296
 30
0.0
 40
0.307948428894622
 50
0.0
 51
180.0
  0
ARC
  5
210
  8
回13-記事
  6
CONTINUOUS
 62
     7
 10
2215.075863777919
 20
-70.6292972147296
 30
0.0
 40
0.307948428894622
 50
0.0
 51
180.0
  0
ARC
  5
211
  8
回13-記事
  6
CONTINUOUS
 62
     7
 10
2217.575863777919
 20
-70.6292972147296
 30
0.0
 40
0.307948428894622
 50
0.0
 51
180.0
  0
ARC
  5
212
  8
回13-記事
  6
CONTINUOUS
 62
     7
 10
2220.075863777919
 20
-70.6292972147296
 30
0.0
 40
0.307948428894622
 50
0.0
 51
180.0
  0
ARC
  5
213
  8
回13-記事
  6
CONTINUOUS
 62
     7
 10
2222.575863777919
 20
-70.6292972147296
 30
0.0
 40
0.307948428894622
 50
0.0
 51
180.0
  0
ARC
  5
214
  8
回13-記事
  6
CONTINUOUS
 62
     7
 10
2225.075863777919
 20
-70.6292972147296
 30
0.0
 40
0.307948428894622
 50
0.0
 51
180.0
  0
ARC
  5
215
  8
回13-記事
  6
CONTINUOUS
 62
     7
 10
2227.575863777919
 20
-70.6292972147296
 30
0.0
 40
0.307948428894622
 50
0.0
 51
180.0
  0
ARC
  5
216
  8
回13-記事
  6
CONTINUOUS
 62
     7
 10
2230.075863777919
 20
-70.6292972147296
 30
0.0
 40
0.307948428894622
 50
0.0
 51
180.0
  0
ARC
  5
217
  8
回13-記事
  6
CONTINUOUS
 62
     7
 10
2232.575863777919
 20
-70.6292972147296
 30
0.0
 40
0.307948428894622
 50
0.0
 51
180.0
  0
ARC
  5
218
  8
回13-記事
  6
CONTINUOUS
 62
     7
 10
2235.075863777919
 20
-70.6292972147296
 30
0.0
 40
0.307948428894622
 50
0.0
 51
180.0
  0
POLYLINE
  5
219
  8
回13-記事
  6
CONTINUOUS
 62
     7
 66
     1
 10
0.0
 20
0.0
 30
0.0
 70
     1
  0
VERTEX
  5
365
  8
回13-記事
  6
CONTINUOUS
 62
     7
 10
2036.574114263349
 20
-68.97610436174364
 30
0.0
  0
VERTEX
  5
367
  8
回13-記事
  6
CONTINUOUS
 62
     7
 10
2036.574114263349
 20
-69.57610436174355
 30
0.0
  0
VERTEX
  5
368
  8
回13-記事
  6
CONTINUOUS
 62
     7
 10
2026.574114263349
 20
-69.57610436174355
 30
0.0
  0
VERTEX
  5
369
  8
回13-記事
  6
CONTINUOUS
 62
     7
 10
2026.574114263349
 20
-68.97610436174364
 30
0.0
  0
SEQEND
  5
366
  8
回03-FAG
 62
     7
  0
LINE
  5
21A
  8
回13-記事
  6
CONTINUOUS
 62
     7
 10
2143.209114263349
 20
-69.57610436174355
 30
0.0
 11
2143.209114263349
 21
-70.6292972147296
 31
0.0
  0
LINE
  5
21B
  8
回13-記事
  6
CONTINUOUS
 62
     7
 10
2392.709114263349
 20
-69.57610436174355
 30
0.0
 11
2392.709114263349
 21
-70.6292972147296
 31
0.0
  0
POLYLINE
  5
21C
  8
回13-記事
  6
CONTINUOUS
 62
     7
 66
     1
 10
0.0
 20
0.0
 30
0.0
 70
     1
  0
VERTEX
  5
36A
  8
回13-記事
  6
CONTINUOUS
 62
     7
 10
2026.574114263349
 20
-70.6292972147296
 30
0.0
  0
VERTEX
  5
36C
  8
回13-記事
  6
CONTINUOUS
 62
     7
 10
2135.877114224657
 20
-70.6292972147296
 30
0.0
  0
VERTEX
  5
36D
  8
回13-記事
  6
CONTINUOUS
 62
     7
 10
2135.877114224657
 20
-69.57610436174355
 30
0.0
  0
VERTEX
  5
36E
  8
回13-記事
  6
CONTINUOUS
 62
     7
 10
2026.574114263349
 20
-69.57610436174355
 30
0.0
  0
SEQEND
  5
36B
  8
回03-FAG
 62
     7
  0
POLYLINE
  5
21D
  8
回13-記事
  6
CONTINUOUS
 62
     7
 66
     1
 10
0.0
 20
0.0
 30
0.0
 70
     1
  0
VERTEX
  5
36F
  8
回13-記事
  6
CONTINUOUS
 62
     7
 10
2026.574114263349
 20
-70.6292972147296
 30
0.0
  0
VERTEX
  5
371
  8
回13-記事
  6
CONTINUOUS
 62
     7
 10
2128.819114263349
 20
-70.6292972147296
 30
0.0
  0
VERTEX
  5
372
  8
回13-記事
  6
CONTINUOUS
 62
     7
 10
2128.819114263349
 20
-71.4090510241574
 30
0.0
  0
VERTEX
  5
373
  8
回13-記事
  6
CONTINUOUS
 62
     7
 10
2026.574114263349
 20
-71.4090510241574
 30
0.0
  0
SEQEND
  5
370
  8
回03-FAG
 62
     7
  0
POLYLINE
  5
21E
  8
回13-記事
  6
CONTINUOUS
 62
     7
 66
     1
 10
0.0
 20
0.0
 30
0.0
 70
     1
  0
VERTEX
  5
374
  8
回13-記事
  6
CONTINUOUS
 62
     7
 10
2128.319114263349
 20
-70.6292972147296
 30
0.0
  0
VERTEX
  5
376
  8
回13-記事
  6
CONTINUOUS
 62
     7
 10
2399.589114263349
 20
-70.6292972147296
 30
0.0
  0
VERTEX
  5
377
  8
回13-記事
  6
CONTINUOUS
 62
     7
 10
2399.589114263349
 20
-73.84522121041732
 30
0.0
  0
VERTEX
  5
378
  8
回13-記事
  6
CONTINUOUS
 62
     7
 10
2128.319114263349
 20
-73.84522121041732
 30
0.0
  0
SEQEND
  5
375
  8
回03-FAG
 62
     7
  0
POLYLINE
  5
21F
  8
回13-記事
  6
CONTINUOUS
 62
     7
 66
     1
 10
0.0
 20
0.0
 30
0.0
 70
     1
  0
VERTEX
  5
379
  8
回13-記事
  6
CONTINUOUS
 62
     7
 10
2128.819114263349
 20
-68.12187019883527
 30
0.0
  0
VERTEX
  5
37B
  8
回13-記事
  6
CONTINUOUS
 62
     7
 10
2399.089114263349
 20
-68.12187019883527
 30
0.0
  0
VERTEX
  5
37C
  8
回13-記事
  6
CONTINUOUS
 62
     7
 10
2399.089114263349
 20
-69.57610436174355
 30
0.0
  0
VERTEX
  5
37D
  8
回13-記事
  6
CONTINUOUS
 62
     7
 10
2128.819114263349
 20
-69.57610436174355
 30
0.0
  0
SEQEND
  5
37A
  8
回03-FAG
 62
     7
  0
DIMENSION
  5
220
  8
回12-寸法
  6
CONTINUOUS
 62
     3
  2
*D7
 10
2018.319114263348
 20
102.3372966368776
 30
0.0
 11
2073.319114263349
 21
104.4872966368777
 31
0.0
 70
     0
  3
2MM
 13
2128.31911426335
 23
97.35387086100946
 33
0.0
 14
2018.319114263348
 24
66.9641335061541
 34
0.0
1001
ACAD
1000
DSTYLE
1002
{
1070
    47
1040
1.0
1070
   147
1040
0.5
1070
    48
1040
1.0
1070
    72
1070
     0
1070
    71
1070
     1
1070
   140
1040
4.0
1070
   170
1070
     1
1070
   271
1070
     2
1070
   272
1070
     2
1002
}
  0
DIMENSION
  5
22D
  8
回12-寸法
  6
CONTINUOUS
 62
     7
  2
*D6
 10
2440.563650197737
 20
163.5603335061541
 30
0.0
 11
2438.412925159207
 21
178.5643938995337
 31
0.0
 70
     0
  1
(<>)
  3
2MM
 13
2392.199114263349
 23
154.3903335061543
 33
0.0
 14
2399.589114263349
 24
163.5603335061541
 34
0.0
 50
90.0
1001
ACAD
1000
DSTYLE
1002
{
1070
   140
1040
4.0
1070
   170
1070
     1
1070
   271
1070
     2
1070
   272
1070
     2
1002
}
  0
DIMENSION
  5
23C
  8
回12-寸法
  6
CONTINUOUS
 62
     7
  2
*D5
 10
2440.563650197737
 20
-33.00966649384578
 30
0.0
 11
2438.413650197737
 21
60.69033350615466
 31
0.0
 70
     0
  1
<>(ACTIVE AREA)
  3
2MM
 13
2392.199114263349
 23
154.3903335061543
 33
0.0
 14
2392.199114263349
 24
-33.00966649384577
 34
0.0
 50
90.0
1001
ACAD
1000
DSTYLE
1002
{
1070
   140
1040
4.0
1070
   170
1070
     1
1070
   271
1070
     2
1070
   272
1070
     2
1002
}
  0
DIMENSION
  5
249
  8
回12-寸法
  6
CONTINUOUS
 62
     7
  2
*D4
 10
2457.810755390696
 20
-42.17966649384586
 30
0.0
 11
2455.660755390696
 21
60.69033350615455
 31
0.0
 70
     0
  3
2MM
 13
2399.589114263349
 23
163.5603335061541
 33
0.0
 14
2399.589114263349
 24
-42.17966649384584
 34
0.0
 50
90.0
1001
ACAD
1000
DSTYLE
1002
{
1070
    47
1040
0.3
1070
   147
1040
0.5
1070
    48
1040
0.3
1070
    72
1070
     0
1070
    71
1070
     1
1070
   140
1040
4.0
1070
   170
1070
     1
1070
   271
1070
     2
1070
   272
1070
     2
1002
}
  0
DIMENSION
  5
256
  8
回12-寸法
  6
CONTINUOUS
 62
     7
  2
*D3
 10
2399.589114263349
 20
191.3934963702213
 30
0.0
 11
2414.89841615247
 21
193.5449464472804
 31
0.0
 70
     0
  1
(<>)
  3
2MM
 13
2392.199114263349
 23
154.3903335061543
 33
0.0
 14
2399.589114263349
 24
163.5603335061541
 34
0.0
1001
ACAD
1000
DSTYLE
1002
{
1070
   140
1040
4.0
1070
   170
1070
     1
1070
   271
1070
     2
1070
   272
1070
     2
1002
}
  0
DIMENSION
  5
265
  8
回12-寸法
  6
CONTINUOUS
 62
     7
  2
*D2
 10
2143.329114263349
 20
191.3934963702213
 30
0.0
 11
2267.76411426335
 21
193.5449464472804
 31
0.0
 70
     0
  1
<>(ACTIVE AREA)
  3
2MM
 13
2392.199114263349
 23
154.3903335061543
 33
0.0
 14
2143.329114263349
 24
154.3903335061543
 34
0.0
1001
ACAD
1000
DSTYLE
1002
{
1070
   140
1040
4.0
1070
   170
1070
     1
1070
   271
1070
     2
1070
   272
1070
     2
1002
}
  0
DIMENSION
  5
272
  8
回12-寸法
  6
CONTINUOUS
 62
     7
  2
*D1
 10
2399.589114263349
 20
215.7524947362526
 30
0.0
 11
2263.954114263349
 21
217.9024947362526
 31
0.0
 70
     0
  3
2MM
 13
2128.31911426335
 23
163.5603335061541
 33
0.0
 14
2399.589114263349
 24
163.5603335061541
 34
0.0
1001
ACAD
1000
DSTYLE
1002
{
1070
    47
1040
0.3
1070
   147
1040
0.5
1070
    48
1040
0.3
1070
    72
1070
     0
1070
    71
1070
     1
1070
   140
1040
4.0
1070
   170
1070
     1
1070
   271
1070
     2
1070
   272
1070
     2
1002
}
  0
TEXT
  5
27F
  8
回90-枠2
 10
2498.954191533972
 20
-135.5451279315252
 30
0.0
 40
5.0
  1
Oct/13/2023
  0
TEXT
  5
283
  8
回90-枠2
 10
2507.57210265208
 20
-126.3741454114638
 30
0.0
 40
3.599999999999999
  1
DATE
  0
LINE
  5
284
  8
回90-枠2
 10
2475.57028964128
 20
-121.4092673666068
 30
0.0
 11
2475.57028964128
 21
-157.4092673666068
 31
0.0
  0
TEXT
  5
285
  8
回90-枠2
 10
2430.3472064557
 20
-144.516923739116
 30
0.0
 40
3.599999999999999
  1
TYPE
  0
LINE
  5
286
  8
回90-枠2
 10
2397.570289641279
 20
-121.4092673666068
 30
0.0
 11
2397.570289641279
 21
-157.4092673666068
 31
0.0
  0
TEXT
  5
287
  8
回90-枠2
 10
2413.609186033845
 20
-156.4192778359625
 30
0.0
 40
3.599999999999999
  1
DIMENSIONAL DRAWING
  0
TEXT
  5
288
  8
回90-枠2
 10
2410.273227021451
 20
-150.4093897506977
 30
0.0
 40
3.599999999999999
  1
STANDARD TOUCHSCREEN
  0
TEXT
  5
289
  8
回90-枠2
 10
2411.714701741518
 20
-136.5824614506587
 30
0.0
 40
6.0
  1
FST-T121C110A
  0
TEXT
  5
28A
  8
回90-枠2
 10
2430.844989721605
 20
-126.3741454114638
 30
0.0
 40
3.599999999999999
  1
PART No.
  0
LINE
  5
28B
  8
回90-枠2
 10
2401.17028964128
 20
-151.4092673666068
 30
0.0
 11
2471.970289641279
 21
-151.4092673666068
 31
0.0
  0
TEXT
  5
28C
  8
回90-枠2
 10
2498.621715255256
 20
-150.8590397567618
 30
0.0
 40
6.0
  1
DMC Co., Ltd.
  0
LINE
  5
28D
  8
回90-枠2
 10
2397.570289641279
 20
-145.4092673666064
 30
0.0
 11
2475.57028964128
 21
-145.4092673666064
 31
0.0
  0
LINE
  5
28E
  8
回90-枠2
 10
2397.570289641279
 20
-121.4092673666068
 30
0.0
 11
2565.570289641279
 21
-121.4092673666068
 31
0.0
  0
LINE
  5
28F
  8
回90-枠2
 10
2397.570289641279
 20
-139.4092673666064
 30
0.0
 11
2565.570289641279
 21
-139.4092673666064
 31
0.0
  0
LINE
  5
290
  8
回90-枠2
 10
2397.570289641279
 20
-127.4092673666068
 30
0.0
 11
2565.570289641279
 21
-127.4092673666068
 31
0.0
  0
TEXT
  5
291
  8
回13-記事
  6
CONTINUOUS
 62
     5
 10
2503.664564166111
 20
53.96290419939441
 30
0.0
 40
5.714325579689998
  1
5
  0
LINE
  5
292
  8
回13-記事
  6
CONTINUOUS
 62
     5
 10
2509.798563591433
 20
56.58242626081551
 30
0.0
 11
2530.455845479121
 21
56.58242626081551
 31
0.0
  0
TEXT
  5
293
  8
回13-記事
  6
CONTINUOUS
 62
     5
 10
2533.785560595321
 20
54.74152685523609
 30
0.0
 40
5.000034882228748
  1
LL
  0
TEXT
  5
294
  8
回13-記事
  6
CONTINUOUS
 62
     5
 10
2503.664564166111
 20
68.93624587730312
 30
0.0
 40
5.714325579689998
  1
4
  0
LINE
  5
295
  8
回13-記事
  6
CONTINUOUS
 62
     5
 10
2509.798563591433
 20
71.55576793872421
 30
0.0
 11
2530.455845479121
 21
71.55576793872421
 31
0.0
  0
TEXT
  5
296
  8
回13-記事
  6
CONTINUOUS
 62
     5
 10
2533.785560595321
 20
69.7148685331448
 30
0.0
 40
5.000034882228748
  1
UL
  0
TEXT
  5
297
  8
回13-記事
  6
CONTINUOUS
 62
     5
 10
2503.664564166111
 20
83.90958755521182
 30
0.0
 40
5.714325579689998
  1
3
  0
LINE
  5
298
  8
回13-記事
  6
CONTINUOUS
 62
     5
 10
2509.798563591433
 20
86.52910961663293
 30
0.0
 11
2530.455845479121
 21
86.52910961663293
 31
0.0
  0
TEXT
  5
299
  8
回13-記事
  6
CONTINUOUS
 62
     5
 10
2533.785560595321
 20
84.6882102110535
 30
0.0
 40
5.000034882228748
  1
SENSE
  0
TEXT
  5
29A
  8
回13-記事
  6
CONTINUOUS
 62
     5
 10
2503.664564166111
 20
98.88292923312054
 30
0.0
 40
5.714325579689998
  1
2
  0
LINE
  5
29B
  8
回13-記事
  6
CONTINUOUS
 62
     5
 10
2509.798563591433
 20
101.5024512945416
 30
0.0
 11
2530.455845479121
 21
101.5024512945416
 31
0.0
  0
TEXT
  5
29C
  8
回13-記事
  6
CONTINUOUS
 62
     5
 10
2533.785560595321
 20
99.66155188896221
 30
0.0
 40
5.000034882228748
  1
LR
  0
TEXT
  5
29D
  8
回13-記事
  6
CONTINUOUS
 62
     5
 10
2503.664564166111
 20
113.8562709110291
 30
0.0
 40
5.714325579689998
  1
1
  0
LINE
  5
29E
  8
回13-記事
  6
CONTINUOUS
 62
     5
 10
2509.798563591433
 20
116.4757929724503
 30
0.0
 11
2530.455845479121
 21
116.4757929724503
 31
0.0
  0
TEXT
  5
29F
  8
回13-記事
  6
CONTINUOUS
 62
     5
 10
2491.68075445129
 20
132.2554075413181
 30
0.0
 40
7.0
  1
PIN ASSIGNMENT
  0
TEXT
  5
2A0
  8
回13-記事
  6
CONTINUOUS
 62
     5
 10
2533.785560595321
 20
114.6348935668709
 30
0.0
 40
5.000034882228748
  1
UR
  0
TEXT
  5
2A1
  8
回90-枠2
 10
2529.299674946932
 20
227.9631557594444
 30
0.0
 40
4.0
  1
H
  0
LINE
  5
2A2
  8
回90-枠2
 10
2495.57028964128
 20
232.5907326333931
 30
0.0
 11
2495.57028964128
 21
227.5907326333932
 31
0.0
  0
LINE
  5
2A3
  8
回90-枠2
 10
2425.57028964128
 20
232.5907326333931
 30
0.0
 11
2425.57028964128
 21
227.5907326333932
 31
0.0
  0
TEXT
  5
2A4
  8
回90-枠2
 10
2389.299674946932
 20
227.9631557594444
 30
0.0
 40
4.0
  1
F
  0
LINE
  5
2A5
  8
回90-枠2
 10
2355.57028964128
 20
232.5907326333931
 30
0.0
 11
2355.57028964128
 21
227.5907326333932
 31
0.0
  0
TEXT
  5
2A6
  8
回90-枠2
 10
2319.299674946933
 20
227.9631557594444
 30
0.0
 40
4.0
  1
E
  0
TEXT
  5
2A7
  8
回90-枠2
 10
2459.299674946932
 20
227.9631557594444
 30
0.0
 40
4.0
  1
G
  0
LINE
  5
2A8
  8
回90-枠2
 10
2285.570289641279
 20
232.5907326333931
 30
0.0
 11
2285.570289641279
 21
227.5907326333932
 31
0.0
  0
TEXT
  5
2A9
  8
回90-枠2
 10
2249.299674946932
 20
227.9631557594444
 30
0.0
 40
4.0
  1
D
  0
LINE
  5
2AA
  8
回90-枠2
 10
2215.570289641279
 20
232.5907326333931
 30
0.0
 11
2215.570289641279
 21
227.5907326333932
 31
0.0
  0
TEXT
  5
2AB
  8
回90-枠2
 10
2179.299674946932
 20
227.9631557594444
 30
0.0
 40
4.0
  1
C
  0
LINE
  5
2AC
  8
回90-枠2
 10
2145.57028964128
 20
232.5907326333931
 30
0.0
 11
2145.57028964128
 21
227.5907326333932
 31
0.0
  0
TEXT
  5
2AD
  8
回90-枠2
 10
2109.299674946932
 20
227.9631557594444
 30
0.0
 40
4.0
  1
B
  0
LINE
  5
2AE
  8
回90-枠2
 10
2075.57028964128
 20
232.5907326333931
 30
0.0
 11
2075.57028964128
 21
227.5907326333932
 31
0.0
  0
TEXT
  5
2AF
  8
回90-枠2
 10
2039.299674946932
 20
227.9631557594444
 30
0.0
 40
4.0
  1
A
  0
LINE
  5
2B0
  8
回90-枠2
 10
2570.57028964128
 20
232.5907326333931
 30
0.0
 11
2000.57028964128
 21
232.5907326333931
 31
0.0
  0
LINE
  5
2B1
  8
回90-枠2
 10
2005.57028964128
 20
227.5907326333932
 30
0.0
 11
2565.570289641279
 21
227.5907326333932
 31
0.0
  0
TEXT
  5
2B2
  8
回90-枠2
 10
2566.974710644938
 20
186.8794199292524
 30
0.0
 40
4.0
  1
1
  0
LINE
  5
2B3
  8
回90-枠2
 10
2570.57028964128
 20
150.5907326333931
 30
0.0
 11
2565.570289641279
 21
150.5907326333931
 31
0.0
  0
TEXT
  5
2B4
  8
回90-枠2
 10
2566.673211941637
 20
109.8794199292524
 30
0.0
 40
4.0
  1
2
  0
LINE
  5
2B5
  8
回90-枠2
 10
2570.57028964128
 20
73.59073263339315
 30
0.0
 11
2565.570289641279
 21
73.59073263339315
 31
0.0
  0
TEXT
  5
2B6
  8
回90-枠2
 10
2566.667731097437
 20
32.87941992925244
 30
0.0
 40
4.0
  1
3
  0
LINE
  5
2B7
  8
回90-枠2
 10
2570.57028964128
 20
-3.409267366606854
 30
0.0
 11
2565.570289641279
 21
-3.409267366606854
 31
0.0
  0
TEXT
  5
2B8
  8
回90-枠2
 10
2566.594638977355
 20
-44.12058007074756
 30
0.0
 40
4.0
  1
4
  0
TEXT
  5
2B9
  8
回90-枠2
 10
2001.974710644939
 20
186.8794199292524
 30
0.0
 40
4.0
  1
1
  0
LINE
  5
2BA
  8
回90-枠2
 10
2005.57028964128
 20
150.5907326333931
 30
0.0
 11
2000.57028964128
 21
150.5907326333931
 31
0.0
  0
TEXT
  5
2BB
  8
回90-枠2
 10
2001.673211941637
 20
109.8794199292524
 30
0.0
 40
4.0
  1
2
  0
LINE
  5
2BC
  8
回90-枠2
 10
2005.57028964128
 20
73.59073263339315
 30
0.0
 11
2000.57028964128
 21
73.59073263339315
 31
0.0
  0
TEXT
  5
2BD
  8
回90-枠2
 10
2001.667731097437
 20
32.87941992925244
 30
0.0
 40
4.0
  1
3
  0
LINE
  5
2BE
  8
回90-枠2
 10
2005.57028964128
 20
-3.409267366606854
 30
0.0
 11
2000.57028964128
 21
-3.409267366606854
 31
0.0
  0
TEXT
  5
2BF
  8
回90-枠2
 10
2001.594638977355
 20
-44.12058007074756
 30
0.0
 40
4.0
  1
4
  0
LINE
  5
2C0
  8
回90-枠2
 10
2570.57028964128
 20
-80.40926736660685
 30
0.0
 11
2565.570289641279
 21
-80.40926736660685
 31
0.0
  0
TEXT
  5
2C1
  8
回90-枠2
 10
2566.594638977355
 20
-121.1205800707475
 30
0.0
 40
4.0
  1
5
  0
TEXT
  5
2C2
  8
回90-枠2
 10
2529.299674946932
 20
-162.0368442405556
 30
0.0
 40
4.0
  1
H
  0
LINE
  5
2C3
  8
回90-枠2
 10
2495.57028964128
 20
-157.4092673666068
 30
0.0
 11
2495.57028964128
 21
-162.4092673666068
 31
0.0
  0
LINE
  5
2C4
  8
回90-枠2
 10
2425.57028964128
 20
-157.4092673666068
 30
0.0
 11
2425.57028964128
 21
-162.4092673666068
 31
0.0
  0
TEXT
  5
2C5
  8
回90-枠2
 10
2389.299674946932
 20
-162.0368442405556
 30
0.0
 40
4.0
  1
F
  0
LINE
  5
2C6
  8
回90-枠2
 10
2355.57028964128
 20
-157.4092673666068
 30
0.0
 11
2355.57028964128
 21
-162.4092673666068
 31
0.0
  0
TEXT
  5
2C7
  8
回90-枠2
 10
2319.299674946933
 20
-162.0368442405556
 30
0.0
 40
4.0
  1
E
  0
TEXT
  5
2C8
  8
回90-枠2
 10
2459.299674946932
 20
-162.0368442405556
 30
0.0
 40
4.0
  1
G
  0
LINE
  5
2C9
  8
回90-枠2
 10
2285.570289641279
 20
-157.4092673666068
 30
0.0
 11
2285.570289641279
 21
-162.4092673666068
 31
0.0
  0
TEXT
  5
2CA
  8
回90-枠2
 10
2249.299674946932
 20
-162.0368442405556
 30
0.0
 40
4.0
  1
D
  0
LINE
  5
2CB
  8
回90-枠2
 10
2215.570289641279
 20
-157.4092673666068
 30
0.0
 11
2215.570289641279
 21
-162.4092673666068
 31
0.0
  0
TEXT
  5
2CC
  8
回90-枠2
 10
2179.299674946932
 20
-162.0368442405556
 30
0.0
 40
4.0
  1
C
  0
LINE
  5
2CD
  8
回90-枠2
 10
2145.57028964128
 20
-157.4092673666068
 30
0.0
 11
2145.57028964128
 21
-162.4092673666068
 31
0.0
  0
LINE
  5
2CE
  8
回90-枠2
 10
2005.57028964128
 20
-80.40926736660685
 30
0.0
 11
2000.57028964128
 21
-80.40926736660685
 31
0.0
  0
TEXT
  5
2CF
  8
回90-枠2
 10
2001.594638977355
 20
-121.1205800707475
 30
0.0
 40
4.0
  1
5
  0
TEXT
  5
2D0
  8
回90-枠2
 10
2109.299674946932
 20
-162.0368442405556
 30
0.0
 40
4.0
  1
B
  0
LINE
  5
2D1
  8
回90-枠2
 10
2075.57028964128
 20
-157.4092673666068
 30
0.0
 11
2075.57028964128
 21
-162.4092673666068
 31
0.0
  0
TEXT
  5
2D2
  8
回90-枠2
 10
2039.299674946932
 20
-162.0368442405556
 30
0.0
 40
4.0
  1
A
  0
LINE
  5
2D3
  8
回90-枠2
 10
2005.57028964128
 20
-157.4092673666068
 30
0.0
 11
2565.570289641279
 21
-157.4092673666068
 31
0.0
  0
LINE
  5
2D4
  8
回90-枠2
 10
2570.57028964128
 20
-162.4092673666068
 30
0.0
 11
2000.57028964128
 21
-162.4092673666068
 31
0.0
  0
LINE
  5
2D5
  8
回90-枠2
 10
2570.57028964128
 20
-162.4092673666068
 30
0.0
 11
2570.57028964128
 21
232.5907326333931
 31
0.0
  0
LINE
  5
2D6
  8
回90-枠2
 10
2565.570289641279
 20
227.5907326333932
 30
0.0
 11
2565.570289641279
 21
-157.4092673666068
 31
0.0
  0
LINE
  5
2D7
  8
回90-枠2
 10
2000.57028964128
 20
-162.4092673666068
 30
0.0
 11
2000.57028964128
 21
232.5907326333931
 31
0.0
  0
LINE
  5
2D8
  8
回90-枠2
 10
2005.57028964128
 20
227.5907326333932
 30
0.0
 11
2005.57028964128
 21
-157.4092673666068
 31
0.0
  0
TEXT
  5
2D9
  8
回13-記事
  6
CONTINUOUS
 62
     5
 10
2051.530384534297
 20
-60.63137174983831
 30
0.0
 40
4.0
  1
FST-T121C110A
1001
ACAD
1000
MTEXTBEGIN
1070
    73
1070
     1
1070
    44
1040
1.0
1070
    74
1070
     0
1000
MTEXTEND
  0
TEXT
  5
2DA
  8
回13-記事
  6
CONTINUOUS
 62
     5
 10
2045.569921128148
 20
-54.88215418317494
 30
0.0
 40
4.0
  1
PART No. LABEL
1001
ACAD
1000
MTEXTBEGIN
1070
    73
1070
     1
1070
    44
1040
1.0
1070
    74
1070
     0
1000
MTEXTEND
  0
INSERT
  5
2DB
  8
回13-記事
  6
CONTINUOUS
 62
     7
 66
     1
  2
*X28
 10
0.0
 20
0.0
 30
0.0
  0
SEQEND
  5
384
  8
回03-FAG
 62
     7
  0
ENDSEC
  0
EOF
