  0
SECTION
  2
HEADER
  9
$ACADVER
  1
AC1009
  9
$INSBASE
 10
0.0
 20
0.0
 30
0.0
  9
$EXTMIN
 10
3382.094888373085
 20
534.323873760268
 30
0.0
  9
$EXTMAX
 10
4192.094888373085
 20
1084.323873760268
 30
0.0
  9
$LIMMIN
 10
0.0
 20
0.0
  9
$LIMMAX
 10
3000.0
 20
2500.0
  9
$ORTHOMODE
 70
     0
  9
$REGENMODE
 70
     1
  9
$FILLMODE
 70
     1
  9
$QTEXTMODE
 70
     0
  9
$MIRRTEXT
 70
     1
  9
$DRAGMODE
 70
     2
  9
$LTSCALE
 40
1.0
  9
$OSMODE
 70
    37
  9
$ATTMODE
 70
     1
  9
$TEXTSIZE
 40
4.0
  9
$TRACEWID
 40
1.0
  9
$TEXTSTYLE
  7
STANDARD
  9
$CLAYER
  8
回91-枠英1
  9
$CELTYPE
  6
CONTINUOUS
  9
$CECOLOR
 62
     7
  9
$DIMSCALE
 40
1.0
  9
$DIMASZ
 40
2.0
  9
$DIMEXO
 40
0.0
  9
$DIMDLI
 40
0.0
  9
$DIMRND
 40
0.0
  9
$DIMDLE
 40
0.0
  9
$DIMEXE
 40
1.0
  9
$DIMTP
 40
0.0
  9
$DIMTM
 40
0.0
  9
$DIMTXT
 40
4.0
  9
$DIMCEN
 40
2.0
  9
$DIMTSZ
 40
0.0
  9
$DIMTOL
 70
     0
  9
$DIMLIM
 70
     0
  9
$DIMTIH
 70
     0
  9
$DIMTOH
 70
     0
  9
$DIMSE1
 70
     0
  9
$DIMSE2
 70
     0
  9
$DIMTAD
 70
     3
  9
$DIMZIN
 70
     8
  9
$DIMBLK
  1
OPEN
  9
$DIMASO
 70
     1
  9
$DIMSHO
 70
     1
  9
$DIMPOST
  1

  9
$DIMAPOST
  1

  9
$DIMALT
 70
     1
  9
$DIMALTD
 70
     3
  9
$DIMALTF
 40
0.03937007874016
  9
$DIMLFAC
 40
1.0
  9
$DIMTOFL
 70
     1
  9
$DIMTVP
 40
0.0
  9
$DIMTIX
 70
     0
  9
$DIMSOXD
 70
     0
  9
$DIMSAH
 70
     0
  9
$DIMBLK1
  1

  9
$DIMBLK2
  1

  9
$DIMSTYLE
  2
DMC
  9
$DIMCLRD
 70
     5
  9
$DIMCLRE
 70
     5
  9
$DIMCLRT
 70
     5
  9
$DIMTFAC
 40
0.7
  9
$DIMGAP
 40
0.5
  9
$LUNITS
 70
     2
  9
$LUPREC
 70
     4
  9
$SKETCHINC
 40
1.0
  9
$FILLETRAD
 40
0.5
  9
$AUNITS
 70
     0
  9
$AUPREC
 70
     0
  9
$MENU
  1
.
  9
$ELEVATION
 40
0.0
  9
$PELEVATION
 40
0.0
  9
$THICKNESS
 40
0.0
  9
$LIMCHECK
 70
     0
  9
$BLIPMODE
 70
     0
  9
$CHAMFERA
 40
0.5
  9
$CHAMFERB
 40
0.5
  9
$SKPOLY
 70
     0
  9
$TDCREATE
 40
2451810.779221065
  9
$TDUPDATE
 40
2460231.746193415
  9
$TDINDWG
 40
4.422170301
  9
$TDUSRTIMER
 40
4.422169606
  9
$USRTIMER
 70
     1
  9
$ANGBASE
 50
0.0
  9
$ANGDIR
 70
     0
  9
$PDMODE
 70
     0
  9
$PDSIZE
 40
0.0
  9
$PLINEWID
 40
0.2
  9
$COORDS
 70
     0
  9
$SPLFRAME
 70
     0
  9
$SPLINETYPE
 70
     6
  9
$SPLINESEGS
 70
     8
  9
$ATTDIA
 70
     1
  9
$ATTREQ
 70
     1
  9
$HANDLING
 70
     1
  9
$HANDSEED
  5
3F1
  9
$SURFTAB1
 70
     6
  9
$SURFTAB2
 70
     6
  9
$SURFTYPE
 70
     6
  9
$SURFU
 70
     6
  9
$SURFV
 70
     6
  9
$UCSNAME
  2

  9
$UCSORG
 10
0.0
 20
0.0
 30
0.0
  9
$UCSXDIR
 10
1.0
 20
0.0
 30
0.0
  9
$UCSYDIR
 10
0.0
 20
1.0
 30
0.0
  9
$PUCSNAME
  2

  9
$PUCSORG
 10
0.0
 20
0.0
 30
0.0
  9
$PUCSXDIR
 10
1.0
 20
0.0
 30
0.0
  9
$PUCSYDIR
 10
0.0
 20
1.0
 30
0.0
  9
$USERI1
 70
     0
  9
$USERI2
 70
     0
  9
$USERI3
 70
     0
  9
$USERI4
 70
     0
  9
$USERI5
 70
     0
  9
$USERR1
 40
0.0
  9
$USERR2
 40
0.0
  9
$USERR3
 40
0.0
  9
$USERR4
 40
0.0
  9
$USERR5
 40
0.0
  9
$WORLDVIEW
 70
     1
  9
$SHADEDGE
 70
     3
  9
$SHADEDIF
 70
    70
  9
$TILEMODE
 70
     1
  9
$MAXACTVP
 70
    64
  9
$PLIMCHECK
 70
     0
  9
$PEXTMIN
 10
1.000000000000000E+20
 20
1.000000000000000E+20
 30
1.000000000000000E+20
  9
$PEXTMAX
 10
-1.000000000000000E+20
 20
-1.000000000000000E+20
 30
-1.000000000000000E+20
  9
$PLIMMIN
 10
0.0
 20
0.0
  9
$PLIMMAX
 10
420.0
 20
297.0
  9
$UNITMODE
 70
     0
  9
$VISRETAIN
 70
     1
  9
$PLINEGEN
 70
     0
  9
$PSLTSCALE
 70
     1
  0
ENDSEC
  0
SECTION
  2
TABLES
  0
TABLE
  2
VPORT
 70
     1
  0
VPORT
  2
*ACTIVE
 70
     0
 10
0.0
 20
0.0
 11
1.0
 21
1.0
 12
3864.236001846649
 22
785.3448085469204
 13
0.0
 23
0.0
 14
10.0
 24
10.0
 15
10.0
 25
10.0
 16
0.0
 26
0.0
 36
1.0
 17
0.0
 27
0.0
 37
0.0
 40
644.3499627872506
 41
1.853689567430025
 42
50.0
 43
0.0
 44
0.0
 50
0.0
 51
0.0
 71
     0
 72
 10000
 73
     1
 74
     1
 75
     0
 76
     0
 77
     0
 78
     0
  0
ENDTAB
  0
TABLE
  2
LTYPE
 70
     4
  0
LTYPE
  2
CONTINUOUS
 70
     0
  3
Solid line
 72
    65
 73
     0
 40
0.0
  0
LTYPE
  2
DASHED2
 70
     0
  3
Dashed (.5x) _ _ _ _ _ _ _ _ _ _ _ _ _ _ _ _ _
 72
    65
 73
     2
 40
9.524999999999998
 49
6.349999999999999
 49
-3.174999999999999
  0
LTYPE
  2
PHANTOM2
 70
     0
  3
Phantom (.5x) ___ _ _ ___ _ _ ___ _ _ ___ _ _
 72
    65
 73
     6
 40
31.75
 49
15.875
 49
-3.174999999999999
 49
3.174999999999999
 49
-3.174999999999999
 49
3.174999999999999
 49
-3.174999999999999
  0
LTYPE
  2
CENTER2
 70
     0
  3
Center (.5x) ___ _ ___ _ ___ _ ___ _ ___ _ ___
 72
    65
 73
     4
 40
28.575
 49
19.05
 49
-3.174999999999999
 49
3.174999999999999
 49
-3.174999999999999
  0
ENDTAB
  0
TABLE
  2
LAYER
 70
     9
  0
LAYER
  2
0
 70
     0
 62
     7
  6
CONTINUOUS
  0
LAYER
  2
DEFPOINTS
 70
     0
 62
     7
  6
CONTINUOUS
  0
LAYER
  2
回12-寸法
 70
     0
 62
     7
  6
CONTINUOUS
  0
LAYER
  2
回10-ﾃｰﾙ
 70
     0
 62
     7
  6
CONTINUOUS
  0
LAYER
  2
回91-枠英1
 70
     0
 62
     7
  6
CONTINUOUS
  0
LAYER
  2
回13-記事
 70
     0
 62
     7
  6
CONTINUOUS
  0
LAYER
  2
回08-GPDL
 70
     0
 62
     7
  6
CONTINUOUS
  0
LAYER
  2
回02-G外
 70
     0
 62
     7
  6
CONTINUOUS
  0
LAYER
  2
回03-記事
 70
     0
 62
     7
  6
CONTINUOUS
  0
ENDTAB
  0
TABLE
  2
STYLE
 70
     1
  0
STYLE
  2
STANDARD
 70
     0
 40
4.0
 41
1.0
 50
0.0
 71
     0
 42
4.0
  3
isocp.shx
  4
bigfont.shx
  0
ENDTAB
  0
TABLE
  2
VIEW
 70
     0
  0
ENDTAB
  0
TABLE
  2
UCS
 70
     0
  0
ENDTAB
  0
TABLE
  2
APPID
 70
     3
  0
APPID
  2
ACAD
 70
     0
  0
APPID
  2
ACAD_PSEXT
 70
     0
  0
APPID
  2
ACAECLAYERSTANDARD
 70
     0
  0
ENDTAB
  0
TABLE
  2
DIMSTYLE
 70
     1
  0
DIMSTYLE
  2
DMC
 70
     0
  3

  4

  5
OPEN
  6

  7

 40
1.0
 41
2.0
 42
0.0
 43
0.0
 44
1.0
 45
0.0
 46
0.0
 47
0.0
 48
0.0
140
3.0
141
2.0
142
0.0
143
0.03937007874016
144
1.0
145
0.0
146
0.7
147
0.5
 71
     0
 72
     0
 73
     0
 74
     0
 75
     0
 76
     0
 77
     3
 78
     8
170
     0
171
     3
172
     1
173
     0
174
     0
175
     0
176
     5
177
     5
178
     5
  0
ENDTAB
  0
ENDSEC
  0
SECTION
  2
BLOCKS
  0
BLOCK
  8
0
  2
$MODEL_SPACE
 70
     0
 10
0.0
 20
0.0
 30
0.0
  3
$MODEL_SPACE
  1

  0
ENDBLK
  8
0
  5
23
  0
BLOCK
 67
     1
  8
0
  2
$PAPER_SPACE
 70
     0
 10
0.0
 20
0.0
 30
0.0
  3
$PAPER_SPACE
  1

  0
ENDBLK
  5
2C
 67
     1
  8
0
  0
BLOCK
  8
0
  2
_OPEN
 70
     0
 10
0.0
 20
0.0
 30
0.0
  3
_OPEN
  1

  0
LINE
  5
16
  8
0
  6
CONTINUOUS
 62
     0
 10
-1.0
 20
0.1666666666666666
 30
0.0
 11
0.0
 21
0.0
 31
0.0
  0
LINE
  5
17
  8
0
  6
CONTINUOUS
 62
     0
 10
-1.0
 20
-0.1666666666666666
 30
0.0
 11
0.0
 21
0.0
 31
0.0
  0
LINE
  5
18
  8
0
  6
CONTINUOUS
 62
     0
 10
0.0
 20
0.0
 30
0.0
 11
-1.0
 21
0.0
 31
0.0
  0
ENDBLK
  5
19
  8
0
  0
BLOCK
  8
0
  2
*D1
 70
     1
 10
0.0
 20
0.0
 30
0.0
  3
*D1
  1

  0
LINE
  5
218
  8
回12-寸法
  6
CONTINUOUS
 62
     5
 10
3524.096656612706
 20
825.7839846484458
 30
0.0
 11
3496.249643361327
 21
825.7839846484458
 31
0.0
  0
LINE
  5
219
  8
回12-寸法
  6
CONTINUOUS
 62
     5
 10
3625.993601414548
 20
942.6039846484455
 30
0.0
 11
3496.249643361327
 21
942.6039846484455
 31
0.0
  0
LINE
  5
21A
  8
回12-寸法
  6
CONTINUOUS
 62
     5
 10
3497.249643361327
 20
827.7839846484457
 30
0.0
 11
3497.249643361327
 21
940.6039846484455
 31
0.0
  0
INSERT
  5
21B
  8
回12-寸法
  6
CONTINUOUS
 62
     5
  2
_OPEN
 10
3497.249643361327
 20
825.7839846484458
 30
0.0
 41
2.0
 42
2.0
 43
2.0
 50
270.0
  0
INSERT
  5
21C
  8
回12-寸法
  6
CONTINUOUS
 62
     5
  2
_OPEN
 10
3497.249643361327
 20
942.6039846484455
 30
0.0
 41
2.0
 42
2.0
 43
2.0
 50
90.0
  0
TEXT
  5
21D
  8
回12-寸法
  6
CONTINUOUS
 62
     5
 10
3496.549803110934
 20
866.5795431743381
 30
0.0
 40
4.0
  1
(116.82 [4.599])
 50
90.0
1001
ACAD
1000
MTEXTBEGIN
1070
    73
1070
     1
1070
    44
1040
1.0
1070
    74
1070
     0
1000
MTEXTEND
  0
POINT
  5
21E
  8
DEFPOINTS
  6
CONTINUOUS
 62
     0
 10
3524.096656612706
 20
825.7839846484458
 30
0.0
  0
POINT
  5
21F
  8
DEFPOINTS
  6
CONTINUOUS
 62
     0
 10
3625.993601414548
 20
942.6039846484455
 30
0.0
  0
POINT
  5
220
  8
DEFPOINTS
  6
CONTINUOUS
 62
     0
 10
3497.249643361327
 20
942.6039846484455
 30
0.0
  0
ENDBLK
  5
221
  8
0
 62
     7
  0
BLOCK
  8
0
  2
*D2
 70
     1
 10
0.0
 20
0.0
 30
0.0
  3
*D2
  1

  0
LINE
  5
209
  8
回12-寸法
  6
CONTINUOUS
 62
     5
 10
3524.096656612706
 20
825.7839846484458
 30
0.0
 11
3496.249643361327
 21
825.7839846484458
 31
0.0
  0
LINE
  5
20A
  8
回12-寸法
  6
CONTINUOUS
 62
     5
 10
3524.096656612706
 20
810.5439846484456
 30
0.0
 11
3496.249643361327
 21
810.5439846484456
 31
0.0
  0
LINE
  5
20B
  8
回12-寸法
  6
CONTINUOUS
 62
     5
 10
3497.249643361327
 20
827.7839846484457
 30
0.0
 11
3497.249643361327
 21
829.7839846484457
 31
0.0
  0
LINE
  5
20C
  8
回12-寸法
  6
CONTINUOUS
 62
     5
 10
3497.249643361327
 20
808.5439846484456
 30
0.0
 11
3497.249643361327
 21
759.3839846484456
 31
0.0
  0
LINE
  5
20D
  8
回12-寸法
  6
CONTINUOUS
 62
     5
 10
3497.249643361327
 20
825.7839846484458
 30
0.0
 11
3497.249643361327
 21
810.5439846484456
 31
0.0
  0
INSERT
  5
20E
  8
回12-寸法
  6
CONTINUOUS
 62
     5
  2
_OPEN
 10
3497.249643361327
 20
825.7839846484458
 30
0.0
 41
2.0
 42
2.0
 43
2.0
 50
270.0
  0
INSERT
  5
20F
  8
回12-寸法
  6
CONTINUOUS
 62
     5
  2
_OPEN
 10
3497.249643361327
 20
810.5439846484456
 30
0.0
 41
2.0
 42
2.0
 43
2.0
 50
90.0
  0
INSERT
  5
210
  8
回12-寸法
  6
CONTINUOUS
 62
     5
 66
     1
  2
*X31
 10
0.0
 20
0.0
 30
0.0
  0
SEQEND
  5
3C0
  8
回91-枠英1
  6
CONTINUOUS
 62
     7
  0
POINT
  5
211
  8
DEFPOINTS
  6
CONTINUOUS
 62
     0
 10
3524.096656612706
 20
825.7839846484458
 30
0.0
  0
POINT
  5
212
  8
DEFPOINTS
  6
CONTINUOUS
 62
     0
 10
3524.096656612706
 20
810.5439846484456
 30
0.0
  0
POINT
  5
213
  8
DEFPOINTS
  6
CONTINUOUS
 62
     0
 10
3497.249643361327
 20
810.5439846484456
 30
0.0
  0
ENDBLK
  5
214
  8
0
 62
     7
  0
BLOCK
  8
0
  2
*D3
 70
     1
 10
0.0
 20
0.0
 30
0.0
  3
*D3
  1

  0
LINE
  5
1FC
  8
回12-寸法
  6
CONTINUOUS
 62
     5
 10
3514.993601414548
 20
811.8901846484455
 30
0.0
 11
3514.993601414548
 21
774.4487720957845
 31
0.0
  0
LINE
  5
1FD
  8
回12-寸法
  6
CONTINUOUS
 62
     5
 10
3624.993601414548
 20
782.8788110408534
 30
0.0
 11
3624.993601414548
 21
774.4487720957845
 31
0.0
  0
LINE
  5
1FE
  8
回12-寸法
  6
CONTINUOUS
 62
     5
 10
3516.993601414548
 20
775.4487720957845
 30
0.0
 11
3622.993601414548
 21
775.4487720957845
 31
0.0
  0
INSERT
  5
1FF
  8
回12-寸法
  6
CONTINUOUS
 62
     5
  2
_OPEN
 10
3514.993601414548
 20
775.4487720957845
 30
0.0
 41
2.0
 42
2.0
 43
2.0
 50
180.0
  0
INSERT
  5
200
  8
回12-寸法
  6
CONTINUOUS
 62
     5
  2
_OPEN
 10
3624.993601414548
 20
775.4487720957845
 30
0.0
 41
2.0
 42
2.0
 43
2.0
  0
INSERT
  5
201
  8
回12-寸法
  6
CONTINUOUS
 62
     5
 66
     1
  2
*X32
 10
0.0
 20
0.0
 30
0.0
  0
SEQEND
  5
3C9
  8
回91-枠英1
  6
CONTINUOUS
 62
     7
  0
POINT
  5
202
  8
DEFPOINTS
  6
CONTINUOUS
 62
     0
 10
3514.993601414548
 20
811.8901846484455
 30
0.0
  0
POINT
  5
203
  8
DEFPOINTS
  6
CONTINUOUS
 62
     0
 10
3624.993601414548
 20
782.8788110408534
 30
0.0
  0
POINT
  5
204
  8
DEFPOINTS
  6
CONTINUOUS
 62
     0
 10
3624.993601414548
 20
775.4487720957845
 30
0.0
  0
ENDBLK
  5
205
  8
0
 62
     7
  0
BLOCK
  8
0
  2
*D4
 70
     1
 10
0.0
 20
0.0
 30
0.0
  3
*D4
  1

  0
LINE
  5
1ED
  8
回12-寸法
  6
CONTINUOUS
 62
     5
 10
3624.993601414548
 20
638.2573579593058
 30
0.0
 11
3624.993601414548
 21
649.8762400332275
 31
0.0
  0
LINE
  5
1EE
  8
回12-寸法
  6
CONTINUOUS
 62
     5
 10
3625.493601414548
 20
641.544538784628
 30
0.0
 11
3625.493601414548
 21
649.8762400332275
 31
0.0
  0
LINE
  5
1EF
  8
回12-寸法
  6
CONTINUOUS
 62
     5
 10
3622.993601414548
 20
648.8762400332275
 30
0.0
 11
3620.993601414548
 21
648.8762400332275
 31
0.0
  0
LINE
  5
1F0
  8
回12-寸法
  6
CONTINUOUS
 62
     5
 10
3627.493601414548
 20
648.8762400332275
 30
0.0
 11
3657.290451808249
 21
648.8762400332275
 31
0.0
  0
LINE
  5
1F1
  8
回12-寸法
  6
CONTINUOUS
 62
     5
 10
3624.993601414548
 20
648.8762400332275
 30
0.0
 11
3625.493601414548
 21
648.8762400332275
 31
0.0
  0
INSERT
  5
1F2
  8
回12-寸法
  6
CONTINUOUS
 62
     5
  2
_OPEN
 10
3624.993601414548
 20
648.8762400332275
 30
0.0
 41
2.0
 42
2.0
 43
2.0
  0
INSERT
  5
1F3
  8
回12-寸法
  6
CONTINUOUS
 62
     5
  2
_OPEN
 10
3625.493601414548
 20
648.8762400332275
 30
0.0
 41
2.0
 42
2.0
 43
2.0
 50
180.0
  0
TEXT
  5
1F4
  8
回12-寸法
  6
CONTINUOUS
 62
     5
 10
3629.392026611399
 20
649.5762400332275
 30
0.0
 40
4.0
  1
(0.5 [0.020])
1001
ACAD
1000
MTEXTBEGIN
1070
    73
1070
     1
1070
    44
1040
1.0
1070
    74
1070
     0
1000
MTEXTEND
  0
POINT
  5
1F5
  8
DEFPOINTS
  6
CONTINUOUS
 62
     0
 10
3624.993601414548
 20
638.2573579593058
 30
0.0
  0
POINT
  5
1F6
  8
DEFPOINTS
  6
CONTINUOUS
 62
     0
 10
3625.493601414548
 20
641.544538784628
 30
0.0
  0
POINT
  5
1F7
  8
DEFPOINTS
  6
CONTINUOUS
 62
     0
 10
3625.493601414548
 20
648.8762400332275
 30
0.0
  0
ENDBLK
  5
1F8
  8
0
 62
     7
  0
BLOCK
  8
0
  2
*D5
 70
     1
 10
0.0
 20
0.0
 30
0.0
  3
*D5
  1

  0
LINE
  5
1DE
  8
回12-寸法
  6
CONTINUOUS
 62
     5
 10
3957.873601414548
 20
639.0371117687338
 30
0.0
 11
3957.873601414548
 21
648.6592167528611
 31
0.0
  0
LINE
  5
1DF
  8
回12-寸法
  6
CONTINUOUS
 62
     5
 10
3957.373601414547
 20
641.5445387846281
 30
0.0
 11
3957.373601414547
 21
648.6592167528611
 31
0.0
  0
LINE
  5
1E0
  8
回12-寸法
  6
CONTINUOUS
 62
     5
 10
3955.373601414548
 20
647.659216752861
 30
0.0
 11
3953.373601414547
 21
647.659216752861
 31
0.0
  0
LINE
  5
1E1
  8
回12-寸法
  6
CONTINUOUS
 62
     5
 10
3959.873601414548
 20
647.659216752861
 30
0.0
 11
3989.670451808249
 21
647.659216752861
 31
0.0
  0
LINE
  5
1E2
  8
回12-寸法
  6
CONTINUOUS
 62
     5
 10
3957.373601414547
 20
647.659216752861
 30
0.0
 11
3957.873601414548
 21
647.659216752861
 31
0.0
  0
INSERT
  5
1E3
  8
回12-寸法
  6
CONTINUOUS
 62
     5
  2
_OPEN
 10
3957.373601414547
 20
647.659216752861
 30
0.0
 41
2.0
 42
2.0
 43
2.0
  0
INSERT
  5
1E4
  8
回12-寸法
  6
CONTINUOUS
 62
     5
  2
_OPEN
 10
3957.873601414548
 20
647.659216752861
 30
0.0
 41
2.0
 42
2.0
 43
2.0
 50
180.0
  0
TEXT
  5
1E5
  8
回12-寸法
  6
CONTINUOUS
 62
     5
 10
3961.772026611398
 20
648.3592167528611
 30
0.0
 40
4.0
  1
(0.5 [0.020])
1001
ACAD
1000
MTEXTBEGIN
1070
    73
1070
     1
1070
    44
1040
1.0
1070
    74
1070
     0
1000
MTEXTEND
  0
POINT
  5
1E6
  8
DEFPOINTS
  6
CONTINUOUS
 62
     0
 10
3957.873601414548
 20
639.0371117687338
 30
0.0
  0
POINT
  5
1E7
  8
DEFPOINTS
  6
CONTINUOUS
 62
     0
 10
3957.373601414547
 20
641.5445387846281
 30
0.0
  0
POINT
  5
1E8
  8
DEFPOINTS
  6
CONTINUOUS
 62
     0
 10
3957.373601414547
 20
647.659216752861
 30
0.0
  0
ENDBLK
  5
1E9
  8
0
 62
     7
  0
BLOCK
  8
0
  2
*D6
 70
     1
 10
0.0
 20
0.0
 30
0.0
  3
*D6
  1

  0
LINE
  5
1CF
  8
回12-寸法
  6
CONTINUOUS
 62
     5
 10
3957.373601414547
 20
641.544538784628
 30
0.0
 11
3967.594125984884
 21
641.544538784628
 31
0.0
  0
LINE
  5
1D0
  8
回12-寸法
  6
CONTINUOUS
 62
     5
 10
3957.873601414548
 20
635.821187773046
 30
0.0
 11
3967.594125984884
 21
635.821187773046
 31
0.0
  0
LINE
  5
1D1
  8
回12-寸法
  6
CONTINUOUS
 62
     5
 10
3966.594125984885
 20
643.544538784628
 30
0.0
 11
3966.594125984885
 21
645.544538784628
 31
0.0
  0
LINE
  5
1D2
  8
回12-寸法
  6
CONTINUOUS
 62
     5
 10
3966.594125984885
 20
633.8211877730461
 30
0.0
 11
3966.594125984885
 21
587.9196129698964
 31
0.0
  0
LINE
  5
1D3
  8
回12-寸法
  6
CONTINUOUS
 62
     5
 10
3966.594125984885
 20
641.544538784628
 30
0.0
 11
3966.594125984885
 21
635.821187773046
 31
0.0
  0
INSERT
  5
1D4
  8
回12-寸法
  6
CONTINUOUS
 62
     5
  2
_OPEN
 10
3966.594125984885
 20
641.544538784628
 30
0.0
 41
2.0
 42
2.0
 43
2.0
 50
270.0
  0
INSERT
  5
1D5
  8
回12-寸法
  6
CONTINUOUS
 62
     5
  2
_OPEN
 10
3966.594125984885
 20
635.821187773046
 30
0.0
 41
2.0
 42
2.0
 43
2.0
 50
90.0
  0
INSERT
  5
1D6
  8
回12-寸法
  6
CONTINUOUS
 62
     5
 66
     1
  2
*X33
 10
0.0
 20
0.0
 30
0.0
  0
SEQEND
  5
3D2
  8
回91-枠英1
  6
CONTINUOUS
 62
     7
  0
POINT
  5
1D7
  8
DEFPOINTS
  6
CONTINUOUS
 62
     0
 10
3957.373601414547
 20
641.544538784628
 30
0.0
  0
POINT
  5
1D8
  8
DEFPOINTS
  6
CONTINUOUS
 62
     0
 10
3957.873601414548
 20
635.821187773046
 30
0.0
  0
POINT
  5
1D9
  8
DEFPOINTS
  6
CONTINUOUS
 62
     0
 10
3966.594125984885
 20
635.821187773046
 30
0.0
  0
ENDBLK
  5
1DA
  8
0
 62
     7
  0
BLOCK
  8
0
  2
*D7
 70
     1
 10
0.0
 20
0.0
 30
0.0
  3
*D7
  1

  0
LINE
  5
1C0
  8
回12-寸法
  6
CONTINUOUS
 62
     5
 10
3950.093601414548
 20
701.5239846484455
 30
0.0
 11
4013.682007743406
 21
701.5239846484455
 31
0.0
  0
LINE
  5
1C1
  8
回12-寸法
  6
CONTINUOUS
 62
     5
 10
3957.873601414548
 20
693.7239846484454
 30
0.0
 11
4013.682007743406
 21
693.7239846484454
 31
0.0
  0
LINE
  5
1C2
  8
回12-寸法
  6
CONTINUOUS
 62
     5
 10
4012.682007743406
 20
703.5239846484455
 30
0.0
 11
4012.682007743406
 21
705.5239846484455
 31
0.0
  0
LINE
  5
1C3
  8
回12-寸法
  6
CONTINUOUS
 62
     5
 10
4012.682007743406
 20
691.7239846484455
 30
0.0
 11
4012.682007743406
 21
665.1239846484454
 31
0.0
  0
LINE
  5
1C4
  8
回12-寸法
  6
CONTINUOUS
 62
     5
 10
4012.682007743406
 20
701.5239846484455
 30
0.0
 11
4012.682007743406
 21
693.7239846484454
 31
0.0
  0
INSERT
  5
1C5
  8
回12-寸法
  6
CONTINUOUS
 62
     5
  2
_OPEN
 10
4012.682007743406
 20
701.5239846484455
 30
0.0
 41
2.0
 42
2.0
 43
2.0
 50
270.0
  0
INSERT
  5
1C6
  8
回12-寸法
  6
CONTINUOUS
 62
     5
  2
_OPEN
 10
4012.682007743406
 20
693.7239846484454
 30
0.0
 41
2.0
 42
2.0
 43
2.0
 50
90.0
  0
TEXT
  5
1C7
  8
回12-寸法
  6
CONTINUOUS
 62
     5
 10
4011.982007743406
 20
665.023984648446
 30
0.0
 40
4.0
  1
7.8 [0.307]
 50
90.0
1001
ACAD
1000
MTEXTBEGIN
1070
    73
1070
     1
1070
    44
1040
1.0
1070
    74
1070
     0
1000
MTEXTEND
  0
POINT
  5
1C8
  8
DEFPOINTS
  6
CONTINUOUS
 62
     0
 10
3950.093601414548
 20
701.5239846484455
 30
0.0
  0
POINT
  5
1C9
  8
DEFPOINTS
  6
CONTINUOUS
 62
     0
 10
3957.873601414548
 20
693.7239846484454
 30
0.0
  0
POINT
  5
1CA
  8
DEFPOINTS
  6
CONTINUOUS
 62
     0
 10
4012.682007743406
 20
693.7239846484454
 30
0.0
  0
ENDBLK
  5
1CB
  8
0
 62
     7
  0
BLOCK
  8
0
  2
*D8
 70
     1
 10
0.0
 20
0.0
 30
0.0
  3
*D8
  1

  0
LINE
  5
1B1
  8
回12-寸法
  6
CONTINUOUS
 62
     5
 10
3948.993601414548
 20
702.6239846484454
 30
0.0
 11
3999.070426699
 21
702.6239846484454
 31
0.0
  0
LINE
  5
1B2
  8
回12-寸法
  6
CONTINUOUS
 62
     5
 10
3957.873601414548
 20
693.7239846484454
 30
0.0
 11
3999.070426699
 21
693.7239846484454
 31
0.0
  0
LINE
  5
1B3
  8
回12-寸法
  6
CONTINUOUS
 62
     5
 10
3998.070426699
 20
704.6239846484454
 30
0.0
 11
3998.070426699
 21
706.6239846484454
 31
0.0
  0
LINE
  5
1B4
  8
回12-寸法
  6
CONTINUOUS
 62
     5
 10
3998.070426699
 20
691.7239846484455
 30
0.0
 11
3998.070426699
 21
661.9131569327675
 31
0.0
  0
LINE
  5
1B5
  8
回12-寸法
  6
CONTINUOUS
 62
     5
 10
3998.070426699
 20
702.6239846484454
 30
0.0
 11
3998.070426699
 21
693.7239846484454
 31
0.0
  0
INSERT
  5
1B6
  8
回12-寸法
  6
CONTINUOUS
 62
     5
  2
_OPEN
 10
3998.070426699
 20
702.6239846484454
 30
0.0
 41
2.0
 42
2.0
 43
2.0
 50
270.0
  0
INSERT
  5
1B7
  8
回12-寸法
  6
CONTINUOUS
 62
     5
  2
_OPEN
 10
3998.070426699
 20
693.7239846484454
 30
0.0
 41
2.0
 42
2.0
 43
2.0
 50
90.0
  0
TEXT
  5
1B8
  8
回12-寸法
  6
CONTINUOUS
 62
     5
 10
3997.369459980961
 20
661.8113500535533
 30
0.0
 40
4.0
  1
(8.9 [0.350])
 50
90.0
1001
ACAD
1000
MTEXTBEGIN
1070
    73
1070
     1
1070
    44
1040
1.0
1070
    74
1070
     0
1000
MTEXTEND
  0
POINT
  5
1B9
  8
DEFPOINTS
  6
CONTINUOUS
 62
     0
 10
3948.993601414548
 20
702.6239846484454
 30
0.0
  0
POINT
  5
1BA
  8
DEFPOINTS
  6
CONTINUOUS
 62
     0
 10
3957.873601414548
 20
693.7239846484454
 30
0.0
  0
POINT
  5
1BB
  8
DEFPOINTS
  6
CONTINUOUS
 62
     0
 10
3998.070426699
 20
693.7239846484454
 30
0.0
  0
ENDBLK
  5
1BC
  8
0
 62
     7
  0
BLOCK
  8
0
  2
*D9
 70
     1
 10
0.0
 20
0.0
 30
0.0
  3
*D9
  1

  0
LINE
  5
1A4
  8
回12-寸法
  6
CONTINUOUS
 62
     5
 10
3948.993601414548
 20
702.6239846484454
 30
0.0
 11
3999.070426699
 21
702.6239846484454
 31
0.0
  0
LINE
  5
1A5
  8
回12-寸法
  6
CONTINUOUS
 62
     5
 10
3948.993601414548
 20
933.7139846484454
 30
0.0
 11
3999.070426699
 21
933.7139846484454
 31
0.0
  0
LINE
  5
1A6
  8
回12-寸法
  6
CONTINUOUS
 62
     5
 10
3998.070426699
 20
704.6239846484454
 30
0.0
 11
3998.070426699
 21
931.7139846484455
 31
0.0
  0
INSERT
  5
1A7
  8
回12-寸法
  6
CONTINUOUS
 62
     5
  2
_OPEN
 10
3998.070426699
 20
702.6239846484454
 30
0.0
 41
2.0
 42
2.0
 43
2.0
 50
270.0
  0
INSERT
  5
1A8
  8
回12-寸法
  6
CONTINUOUS
 62
     5
  2
_OPEN
 10
3998.070426699
 20
933.7139846484454
 30
0.0
 41
2.0
 42
2.0
 43
2.0
 50
90.0
  0
TEXT
  5
1A9
  8
回12-寸法
  6
CONTINUOUS
 62
     5
 10
3997.369539855763
 20
782.7481098388593
 30
0.0
 40
4.0
  1
231.09 [9.098] (ACTIVE AREA)
 50
90.0
1001
ACAD
1000
MTEXTBEGIN
1070
    73
1070
     1
1070
    44
1040
1.0
1070
    74
1070
     0
1000
MTEXTEND
  0
POINT
  5
1AA
  8
DEFPOINTS
  6
CONTINUOUS
 62
     0
 10
3948.993601414548
 20
702.6239846484454
 30
0.0
  0
POINT
  5
1AB
  8
DEFPOINTS
  6
CONTINUOUS
 62
     0
 10
3948.993601414548
 20
933.7139846484454
 30
0.0
  0
POINT
  5
1AC
  8
DEFPOINTS
  6
CONTINUOUS
 62
     0
 10
3998.070426699
 20
933.7139846484454
 30
0.0
  0
ENDBLK
  5
1AD
  8
0
 62
     7
  0
BLOCK
  8
0
  2
*D10
 70
     1
 10
0.0
 20
0.0
 30
0.0
  3
*D10
  1

  0
LINE
  5
197
  8
回12-寸法
  6
CONTINUOUS
 62
     5
 10
3950.093601414548
 20
701.5239846484455
 30
0.0
 11
4013.682007743406
 21
701.5239846484455
 31
0.0
  0
LINE
  5
198
  8
回12-寸法
  6
CONTINUOUS
 62
     5
 10
3950.093601414548
 20
934.8139846484455
 30
0.0
 11
4013.682007743406
 21
934.8139846484455
 31
0.0
  0
LINE
  5
199
  8
回12-寸法
  6
CONTINUOUS
 62
     5
 10
4012.682007743406
 20
703.5239846484455
 30
0.0
 11
4012.682007743406
 21
932.8139846484456
 31
0.0
  0
INSERT
  5
19A
  8
回12-寸法
  6
CONTINUOUS
 62
     5
  2
_OPEN
 10
4012.682007743406
 20
701.5239846484455
 30
0.0
 41
2.0
 42
2.0
 43
2.0
 50
270.0
  0
INSERT
  5
19B
  8
回12-寸法
  6
CONTINUOUS
 62
     5
  2
_OPEN
 10
4012.682007743406
 20
934.8139846484455
 30
0.0
 41
2.0
 42
2.0
 43
2.0
 50
90.0
  0
TEXT
  5
19C
  8
回12-寸法
  6
CONTINUOUS
 62
     5
 10
4011.981041025367
 20
801.9545431743386
 30
0.0
 40
4.0
  1
233.29 [9.185]
 50
90.0
1001
ACAD
1000
MTEXTBEGIN
1070
    73
1070
     1
1070
    44
1040
1.0
1070
    74
1070
     0
1000
MTEXTEND
  0
POINT
  5
19D
  8
DEFPOINTS
  6
CONTINUOUS
 62
     0
 10
3950.093601414548
 20
701.5239846484455
 30
0.0
  0
POINT
  5
19E
  8
DEFPOINTS
  6
CONTINUOUS
 62
     0
 10
3950.093601414548
 20
934.8139846484455
 30
0.0
  0
POINT
  5
19F
  8
DEFPOINTS
  6
CONTINUOUS
 62
     0
 10
4012.682007743406
 20
934.8139846484455
 30
0.0
  0
ENDBLK
  5
1A0
  8
0
 62
     7
  0
BLOCK
  8
0
  2
*D11
 70
     1
 10
0.0
 20
0.0
 30
0.0
  3
*D11
  1

  0
LINE
  5
188
  8
回12-寸法
  6
CONTINUOUS
 62
     5
 10
3948.993601414548
 20
933.7139846484454
 30
0.0
 11
3999.043399671972
 21
933.7139846484454
 31
0.0
  0
LINE
  5
189
  8
回12-寸法
  6
CONTINUOUS
 62
     5
 10
3957.873601414548
 20
942.6039846484455
 30
0.0
 11
3999.043399671972
 21
942.6039846484455
 31
0.0
  0
LINE
  5
18A
  8
回12-寸法
  6
CONTINUOUS
 62
     5
 10
3998.043399671973
 20
931.7139846484455
 30
0.0
 11
3998.043399671973
 21
929.7139846484455
 31
0.0
  0
LINE
  5
18B
  8
回12-寸法
  6
CONTINUOUS
 62
     5
 10
3998.043399671973
 20
944.6039846484454
 30
0.0
 11
3998.043399671973
 21
974.0179619704225
 31
0.0
  0
LINE
  5
18C
  8
回12-寸法
  6
CONTINUOUS
 62
     5
 10
3998.043399671973
 20
933.7139846484454
 30
0.0
 11
3998.043399671973
 21
942.6039846484455
 31
0.0
  0
INSERT
  5
18D
  8
回12-寸法
  6
CONTINUOUS
 62
     5
  2
_OPEN
 10
3998.043399671973
 20
933.7139846484454
 30
0.0
 41
2.0
 42
2.0
 43
2.0
 50
90.0
  0
INSERT
  5
18E
  8
回12-寸法
  6
CONTINUOUS
 62
     5
  2
_OPEN
 10
3998.043399671973
 20
942.6039846484455
 30
0.0
 41
2.0
 42
2.0
 43
2.0
 50
270.0
  0
TEXT
  5
18F
  8
回12-寸法
  6
CONTINUOUS
 62
     5
 10
3997.343399671974
 20
946.5037525723809
 30
0.0
 40
4.0
  1
8.89 [0.350]
 50
90.0
1001
ACAD
1000
MTEXTBEGIN
1070
    73
1070
     1
1070
    44
1040
1.0
1070
    74
1070
     0
1000
MTEXTEND
  0
POINT
  5
190
  8
DEFPOINTS
  6
CONTINUOUS
 62
     0
 10
3948.993601414548
 20
933.7139846484454
 30
0.0
  0
POINT
  5
191
  8
DEFPOINTS
  6
CONTINUOUS
 62
     0
 10
3957.873601414548
 20
942.6039846484455
 30
0.0
  0
POINT
  5
192
  8
DEFPOINTS
  6
CONTINUOUS
 62
     0
 10
3998.043399671973
 20
942.6039846484455
 30
0.0
  0
ENDBLK
  5
193
  8
0
 62
     7
  0
BLOCK
  8
0
  2
*D12
 70
     1
 10
0.0
 20
0.0
 30
0.0
  3
*D12
  1

  0
LINE
  5
179
  8
回12-寸法
  6
CONTINUOUS
 62
     5
 10
3950.093601414548
 20
934.8139846484455
 30
0.0
 11
4013.682007743406
 21
934.8139846484455
 31
0.0
  0
LINE
  5
17A
  8
回12-寸法
  6
CONTINUOUS
 62
     5
 10
3957.873601414548
 20
942.6039846484455
 30
0.0
 11
4013.682007743406
 21
942.6039846484455
 31
0.0
  0
LINE
  5
17B
  8
回12-寸法
  6
CONTINUOUS
 62
     5
 10
4012.682007743406
 20
932.8139846484456
 30
0.0
 11
4012.682007743406
 21
930.8139846484454
 31
0.0
  0
LINE
  5
17C
  8
回12-寸法
  6
CONTINUOUS
 62
     5
 10
4012.682007743406
 20
944.6039846484454
 30
0.0
 11
4012.682007743406
 21
974.0179619704225
 31
0.0
  0
LINE
  5
17D
  8
回12-寸法
  6
CONTINUOUS
 62
     5
 10
4012.682007743406
 20
934.8139846484455
 30
0.0
 11
4012.682007743406
 21
942.6039846484455
 31
0.0
  0
INSERT
  5
17E
  8
回12-寸法
  6
CONTINUOUS
 62
     5
  2
_OPEN
 10
4012.682007743406
 20
934.8139846484455
 30
0.0
 41
2.0
 42
2.0
 43
2.0
 50
90.0
  0
INSERT
  5
17F
  8
回12-寸法
  6
CONTINUOUS
 62
     5
  2
_OPEN
 10
4012.682007743406
 20
942.6039846484455
 30
0.0
 41
2.0
 42
2.0
 43
2.0
 50
270.0
  0
TEXT
  5
180
  8
回12-寸法
  6
CONTINUOUS
 62
     5
 10
4011.982007743406
 20
946.5037525723809
 30
0.0
 40
4.0
  1
7.79 [0.307]
 50
90.0
1001
ACAD
1000
MTEXTBEGIN
1070
    73
1070
     1
1070
    44
1040
1.0
1070
    74
1070
     0
1000
MTEXTEND
  0
POINT
  5
181
  8
DEFPOINTS
  6
CONTINUOUS
 62
     0
 10
3950.093601414548
 20
934.8139846484455
 30
0.0
  0
POINT
  5
182
  8
DEFPOINTS
  6
CONTINUOUS
 62
     0
 10
3957.873601414548
 20
942.6039846484455
 30
0.0
  0
POINT
  5
183
  8
DEFPOINTS
  6
CONTINUOUS
 62
     0
 10
4012.682007743406
 20
942.6039846484455
 30
0.0
  0
ENDBLK
  5
184
  8
0
 62
     7
  0
BLOCK
  8
0
  2
*D13
 70
     1
 10
0.0
 20
0.0
 30
0.0
  3
*D13
  1

  0
LINE
  5
16C
  8
回12-寸法
  6
CONTINUOUS
 62
     5
 10
3957.873601414548
 20
942.6039846484455
 30
0.0
 11
4030.509208552721
 21
942.6039846484455
 31
0.0
  0
LINE
  5
16D
  8
回12-寸法
  6
CONTINUOUS
 62
     5
 10
3957.873601414548
 20
693.7239846484454
 30
0.0
 11
4030.509208552721
 21
693.7239846484454
 31
0.0
  0
LINE
  5
16E
  8
回12-寸法
  6
CONTINUOUS
 62
     5
 10
4029.509208552721
 20
940.6039846484455
 30
0.0
 11
4029.509208552721
 21
695.7239846484455
 31
0.0
  0
INSERT
  5
16F
  8
回12-寸法
  6
CONTINUOUS
 62
     5
  2
_OPEN
 10
4029.509208552721
 20
942.6039846484455
 30
0.0
 41
2.0
 42
2.0
 43
2.0
 50
90.0
  0
INSERT
  5
170
  8
回12-寸法
  6
CONTINUOUS
 62
     5
  2
_OPEN
 10
4029.509208552721
 20
693.7239846484454
 30
0.0
 41
2.0
 42
2.0
 43
2.0
 50
270.0
  0
INSERT
  5
171
  8
回12-寸法
  6
CONTINUOUS
 62
     5
 66
     1
  2
*X34
 10
0.0
 20
0.0
 30
0.0
  0
SEQEND
  5
3DB
  8
回91-枠英1
  6
CONTINUOUS
 62
     7
  0
POINT
  5
172
  8
DEFPOINTS
  6
CONTINUOUS
 62
     0
 10
3957.873601414548
 20
942.6039846484455
 30
0.0
  0
POINT
  5
173
  8
DEFPOINTS
  6
CONTINUOUS
 62
     0
 10
3957.873601414548
 20
693.7239846484454
 30
0.0
  0
POINT
  5
174
  8
DEFPOINTS
  6
CONTINUOUS
 62
     0
 10
4029.509208552721
 20
693.7239846484454
 30
0.0
  0
ENDBLK
  5
175
  8
0
 62
     7
  0
BLOCK
  8
0
  2
*D14
 70
     1
 10
0.0
 20
0.0
 30
0.0
  3
*D14
  1

  0
LINE
  5
15D
  8
回12-寸法
  6
CONTINUOUS
 62
     5
 10
3641.883601414548
 20
933.7139846484454
 30
0.0
 11
3641.883601414548
 21
964.5819459673758
 31
0.0
  0
LINE
  5
15E
  8
回12-寸法
  6
CONTINUOUS
 62
     5
 10
3624.993601414548
 20
942.6039846484455
 30
0.0
 11
3624.993601414548
 21
964.5819459673758
 31
0.0
  0
LINE
  5
15F
  8
回12-寸法
  6
CONTINUOUS
 62
     5
 10
3643.883601414548
 20
963.5819459673758
 30
0.0
 11
3645.883601414548
 21
963.5819459673758
 31
0.0
  0
LINE
  5
160
  8
回12-寸法
  6
CONTINUOUS
 62
     5
 10
3622.993601414548
 20
963.5819459673758
 30
0.0
 11
3588.38277369887
 21
963.5819459673758
 31
0.0
  0
LINE
  5
161
  8
回12-寸法
  6
CONTINUOUS
 62
     5
 10
3641.883601414548
 20
963.5819459673758
 30
0.0
 11
3624.993601414548
 21
963.5819459673758
 31
0.0
  0
INSERT
  5
162
  8
回12-寸法
  6
CONTINUOUS
 62
     5
  2
_OPEN
 10
3641.883601414548
 20
963.5819459673758
 30
0.0
 41
2.0
 42
2.0
 43
2.0
 50
180.0
  0
INSERT
  5
163
  8
回12-寸法
  6
CONTINUOUS
 62
     5
  2
_OPEN
 10
3624.993601414548
 20
963.5819459673758
 30
0.0
 41
2.0
 42
2.0
 43
2.0
  0
TEXT
  5
164
  8
回12-寸法
  6
CONTINUOUS
 62
     5
 10
3588.280966819655
 20
964.2829126854152
 30
0.0
 40
4.0
  1
(16.89 [0.665])
1001
ACAD
1000
MTEXTBEGIN
1070
    73
1070
     1
1070
    44
1040
1.0
1070
    74
1070
     0
1000
MTEXTEND
  0
POINT
  5
165
  8
DEFPOINTS
  6
CONTINUOUS
 62
     0
 10
3641.883601414548
 20
933.7139846484454
 30
0.0
  0
POINT
  5
166
  8
DEFPOINTS
  6
CONTINUOUS
 62
     0
 10
3624.993601414548
 20
942.6039846484455
 30
0.0
  0
POINT
  5
167
  8
DEFPOINTS
  6
CONTINUOUS
 62
     0
 10
3624.993601414548
 20
963.5819459673758
 30
0.0
  0
ENDBLK
  5
168
  8
0
 62
     7
  0
BLOCK
  8
0
  2
*D15
 70
     1
 10
0.0
 20
0.0
 30
0.0
  3
*D15
  1

  0
LINE
  5
14E
  8
回12-寸法
  6
CONTINUOUS
 62
     5
 10
3640.783601414548
 20
934.8139846484455
 30
0.0
 11
3640.783601414548
 21
978.227332370896
 31
0.0
  0
LINE
  5
14F
  8
回12-寸法
  6
CONTINUOUS
 62
     5
 10
3624.993601414548
 20
942.6039846484455
 30
0.0
 11
3624.993601414548
 21
978.227332370896
 31
0.0
  0
LINE
  5
150
  8
回12-寸法
  6
CONTINUOUS
 62
     5
 10
3642.783601414548
 20
977.227332370896
 30
0.0
 11
3644.783601414548
 21
977.227332370896
 31
0.0
  0
LINE
  5
151
  8
回12-寸法
  6
CONTINUOUS
 62
     5
 10
3622.993601414548
 20
977.227332370896
 30
0.0
 11
3591.579624092571
 21
977.227332370896
 31
0.0
  0
LINE
  5
152
  8
回12-寸法
  6
CONTINUOUS
 62
     5
 10
3640.783601414548
 20
977.227332370896
 30
0.0
 11
3624.993601414548
 21
977.227332370896
 31
0.0
  0
INSERT
  5
153
  8
回12-寸法
  6
CONTINUOUS
 62
     5
  2
_OPEN
 10
3640.783601414548
 20
977.227332370896
 30
0.0
 41
2.0
 42
2.0
 43
2.0
 50
180.0
  0
INSERT
  5
154
  8
回12-寸法
  6
CONTINUOUS
 62
     5
  2
_OPEN
 10
3624.993601414548
 20
977.227332370896
 30
0.0
 41
2.0
 42
2.0
 43
2.0
  0
TEXT
  5
155
  8
回12-寸法
  6
CONTINUOUS
 62
     5
 10
3591.479392016506
 20
977.9273323708959
 30
0.0
 40
4.0
  1
15.79 [0.622]
1001
ACAD
1000
MTEXTBEGIN
1070
    73
1070
     1
1070
    44
1040
1.0
1070
    74
1070
     0
1000
MTEXTEND
  0
POINT
  5
156
  8
DEFPOINTS
  6
CONTINUOUS
 62
     0
 10
3640.783601414548
 20
934.8139846484455
 30
0.0
  0
POINT
  5
157
  8
DEFPOINTS
  6
CONTINUOUS
 62
     0
 10
3624.993601414548
 20
942.6039846484455
 30
0.0
  0
POINT
  5
158
  8
DEFPOINTS
  6
CONTINUOUS
 62
     0
 10
3624.993601414548
 20
977.227332370896
 30
0.0
  0
ENDBLK
  5
159
  8
0
 62
     7
  0
BLOCK
  8
0
  2
*D16
 70
     1
 10
0.0
 20
0.0
 30
0.0
  3
*D16
  1

  0
LINE
  5
141
  8
回12-寸法
  6
CONTINUOUS
 62
     5
 10
3641.883601414548
 20
933.7139846484454
 30
0.0
 11
3641.883601414548
 21
964.5819459673758
 31
0.0
  0
LINE
  5
142
  8
回12-寸法
  6
CONTINUOUS
 62
     5
 10
3948.993601414548
 20
933.7139846484454
 30
0.0
 11
3948.993601414548
 21
964.5819459673758
 31
0.0
  0
LINE
  5
143
  8
回12-寸法
  6
CONTINUOUS
 62
     5
 10
3643.883601414548
 20
963.5819459673758
 30
0.0
 11
3946.993601414548
 21
963.5819459673758
 31
0.0
  0
INSERT
  5
144
  8
回12-寸法
  6
CONTINUOUS
 62
     5
  2
_OPEN
 10
3641.883601414548
 20
963.5819459673758
 30
0.0
 41
2.0
 42
2.0
 43
2.0
 50
180.0
  0
INSERT
  5
145
  8
回12-寸法
  6
CONTINUOUS
 62
     5
  2
_OPEN
 10
3948.993601414548
 20
963.5819459673758
 30
0.0
 41
2.0
 42
2.0
 43
2.0
  0
TEXT
  5
146
  8
回12-寸法
  6
CONTINUOUS
 62
     5
 10
3759.832168079069
 20
964.2818660925726
 30
0.0
 40
4.0
  1
307.11 [12.091] (ACTIVE AREA)
1001
ACAD
1000
MTEXTBEGIN
1070
    73
1070
     1
1070
    44
1040
1.0
1070
    74
1070
     0
1000
MTEXTEND
  0
POINT
  5
147
  8
DEFPOINTS
  6
CONTINUOUS
 62
     0
 10
3641.883601414548
 20
933.7139846484454
 30
0.0
  0
POINT
  5
148
  8
DEFPOINTS
  6
CONTINUOUS
 62
     0
 10
3948.993601414548
 20
933.7139846484454
 30
0.0
  0
POINT
  5
149
  8
DEFPOINTS
  6
CONTINUOUS
 62
     0
 10
3948.993601414548
 20
963.5819459673758
 30
0.0
  0
ENDBLK
  5
14A
  8
0
 62
     7
  0
BLOCK
  8
0
  2
*D17
 70
     1
 10
0.0
 20
0.0
 30
0.0
  3
*D17
  1

  0
LINE
  5
134
  8
回12-寸法
  6
CONTINUOUS
 62
     5
 10
3950.093601414548
 20
934.8139846484455
 30
0.0
 11
3950.093601414548
 21
978.227332370896
 31
0.0
  0
LINE
  5
135
  8
回12-寸法
  6
CONTINUOUS
 62
     5
 10
3640.783601414548
 20
934.8139846484455
 30
0.0
 11
3640.783601414548
 21
978.227332370896
 31
0.0
  0
LINE
  5
136
  8
回12-寸法
  6
CONTINUOUS
 62
     5
 10
3948.093601414548
 20
977.227332370896
 30
0.0
 11
3642.783601414548
 21
977.227332370896
 31
0.0
  0
INSERT
  5
137
  8
回12-寸法
  6
CONTINUOUS
 62
     5
  2
_OPEN
 10
3950.093601414548
 20
977.227332370896
 30
0.0
 41
2.0
 42
2.0
 43
2.0
  0
INSERT
  5
138
  8
回12-寸法
  6
CONTINUOUS
 62
     5
  2
_OPEN
 10
3640.783601414548
 20
977.227332370896
 30
0.0
 41
2.0
 42
2.0
 43
2.0
 50
180.0
  0
TEXT
  5
139
  8
回12-寸法
  6
CONTINUOUS
 62
     5
 10
3778.631380677494
 20
977.9273323708959
 30
0.0
 40
4.0
  1
309.31 [12.178]
1001
ACAD
1000
MTEXTBEGIN
1070
    73
1070
     1
1070
    44
1040
1.0
1070
    74
1070
     0
1000
MTEXTEND
  0
POINT
  5
13A
  8
DEFPOINTS
  6
CONTINUOUS
 62
     0
 10
3950.093601414548
 20
934.8139846484455
 30
0.0
  0
POINT
  5
13B
  8
DEFPOINTS
  6
CONTINUOUS
 62
     0
 10
3640.783601414548
 20
934.8139846484455
 30
0.0
  0
POINT
  5
13C
  8
DEFPOINTS
  6
CONTINUOUS
 62
     0
 10
3640.783601414548
 20
977.227332370896
 30
0.0
  0
ENDBLK
  5
13D
  8
0
 62
     7
  0
BLOCK
  8
0
  2
*D18
 70
     1
 10
0.0
 20
0.0
 30
0.0
  3
*D18
  1

  0
LINE
  5
125
  8
回12-寸法
  6
CONTINUOUS
 62
     5
 10
3948.993601414548
 20
933.7139846484454
 30
0.0
 11
3948.993601414548
 21
964.5819459673758
 31
0.0
  0
LINE
  5
126
  8
回12-寸法
  6
CONTINUOUS
 62
     5
 10
3957.873601414548
 20
942.6039846484455
 30
0.0
 11
3957.873601414548
 21
964.5819459673758
 31
0.0
  0
LINE
  5
127
  8
回12-寸法
  6
CONTINUOUS
 62
     5
 10
3946.993601414548
 20
963.5819459673758
 30
0.0
 11
3944.993601414548
 21
963.5819459673758
 31
0.0
  0
LINE
  5
128
  8
回12-寸法
  6
CONTINUOUS
 62
     5
 10
3959.873601414548
 20
963.5819459673758
 30
0.0
 11
3989.273601414548
 21
963.5819459673758
 31
0.0
  0
LINE
  5
129
  8
回12-寸法
  6
CONTINUOUS
 62
     5
 10
3948.993601414548
 20
963.5819459673758
 30
0.0
 11
3957.873601414548
 21
963.5819459673758
 31
0.0
  0
INSERT
  5
12A
  8
回12-寸法
  6
CONTINUOUS
 62
     5
  2
_OPEN
 10
3948.993601414548
 20
963.5819459673758
 30
0.0
 41
2.0
 42
2.0
 43
2.0
  0
INSERT
  5
12B
  8
回12-寸法
  6
CONTINUOUS
 62
     5
  2
_OPEN
 10
3957.873601414548
 20
963.5819459673758
 30
0.0
 41
2.0
 42
2.0
 43
2.0
 50
180.0
  0
TEXT
  5
12C
  8
回12-寸法
  6
CONTINUOUS
 62
     5
 10
3961.773601414548
 20
964.2819459673759
 30
0.0
 40
4.0
  1
8.88 [0.350]
1001
ACAD
1000
MTEXTBEGIN
1070
    73
1070
     1
1070
    44
1040
1.0
1070
    74
1070
     0
1000
MTEXTEND
  0
POINT
  5
12D
  8
DEFPOINTS
  6
CONTINUOUS
 62
     0
 10
3948.993601414548
 20
933.7139846484454
 30
0.0
  0
POINT
  5
12E
  8
DEFPOINTS
  6
CONTINUOUS
 62
     0
 10
3957.873601414548
 20
942.6039846484455
 30
0.0
  0
POINT
  5
12F
  8
DEFPOINTS
  6
CONTINUOUS
 62
     0
 10
3957.873601414548
 20
963.5819459673758
 30
0.0
  0
ENDBLK
  5
130
  8
0
 62
     7
  0
BLOCK
  8
0
  2
*D19
 70
     1
 10
0.0
 20
0.0
 30
0.0
  3
*D19
  1

  0
LINE
  5
116
  8
回12-寸法
  6
CONTINUOUS
 62
     5
 10
3957.873601414548
 20
942.6039846484455
 30
0.0
 11
3957.873601414548
 21
978.227332370896
 31
0.0
  0
LINE
  5
117
  8
回12-寸法
  6
CONTINUOUS
 62
     5
 10
3950.093601414548
 20
934.8139846484455
 30
0.0
 11
3950.093601414548
 21
978.227332370896
 31
0.0
  0
LINE
  5
118
  8
回12-寸法
  6
CONTINUOUS
 62
     5
 10
3948.093601414548
 20
977.227332370896
 30
0.0
 11
3946.093601414548
 21
977.227332370896
 31
0.0
  0
LINE
  5
119
  8
回12-寸法
  6
CONTINUOUS
 62
     5
 10
3959.873601414548
 20
977.227332370896
 30
0.0
 11
3989.400275114907
 21
977.227332370896
 31
0.0
  0
LINE
  5
11A
  8
回12-寸法
  6
CONTINUOUS
 62
     5
 10
3950.093601414548
 20
977.227332370896
 30
0.0
 11
3957.873601414548
 21
977.227332370896
 31
0.0
  0
INSERT
  5
11B
  8
回12-寸法
  6
CONTINUOUS
 62
     5
  2
_OPEN
 10
3950.093601414548
 20
977.227332370896
 30
0.0
 41
2.0
 42
2.0
 43
2.0
  0
INSERT
  5
11C
  8
回12-寸法
  6
CONTINUOUS
 62
     5
  2
_OPEN
 10
3957.873601414548
 20
977.227332370896
 30
0.0
 41
2.0
 42
2.0
 43
2.0
 50
180.0
  0
TEXT
  5
11D
  8
回12-寸法
  6
CONTINUOUS
 62
     5
 10
3961.900275114907
 20
977.9273323708959
 30
0.0
 40
4.0
  1
7.78 [0.306]
1001
ACAD
1000
MTEXTBEGIN
1070
    73
1070
     1
1070
    44
1040
1.0
1070
    74
1070
     0
1000
MTEXTEND
  0
POINT
  5
11E
  8
DEFPOINTS
  6
CONTINUOUS
 62
     0
 10
3957.873601414548
 20
942.6039846484455
 30
0.0
  0
POINT
  5
11F
  8
DEFPOINTS
  6
CONTINUOUS
 62
     0
 10
3950.093601414548
 20
934.8139846484455
 30
0.0
  0
POINT
  5
120
  8
DEFPOINTS
  6
CONTINUOUS
 62
     0
 10
3950.093601414548
 20
977.227332370896
 30
0.0
  0
ENDBLK
  5
121
  8
0
 62
     7
  0
BLOCK
  8
0
  2
*D20
 70
     1
 10
0.0
 20
0.0
 30
0.0
  3
*D20
  1

  0
LINE
  5
108
  8
回12-寸法
  6
CONTINUOUS
 62
     5
 10
3957.873601414548
 20
942.6039846484455
 30
0.0
 11
3957.873601414548
 21
990.6963106444218
 31
0.0
  0
LINE
  5
109
  8
回12-寸法
  6
CONTINUOUS
 62
     5
 10
3624.993601414548
 20
942.6039846484455
 30
0.0
 11
3624.993601414548
 21
990.6963106444218
 31
0.0
  0
LINE
  5
10A
  8
回12-寸法
  6
CONTINUOUS
 62
     5
 10
3955.873601414547
 20
989.6963106444218
 30
0.0
 11
3626.993601414548
 21
989.6963106444218
 31
0.0
  0
INSERT
  5
10B
  8
回12-寸法
  6
CONTINUOUS
 62
     5
  2
_OPEN
 10
3957.873601414548
 20
989.6963106444218
 30
0.0
 41
2.0
 42
2.0
 43
2.0
  0
INSERT
  5
10C
  8
回12-寸法
  6
CONTINUOUS
 62
     5
  2
_OPEN
 10
3624.993601414548
 20
989.6963106444218
 30
0.0
 41
2.0
 42
2.0
 43
2.0
 50
180.0
  0
INSERT
  5
10D
  8
回12-寸法
  6
CONTINUOUS
 62
     5
 66
     1
  2
*X35
 10
0.0
 20
0.0
 30
0.0
  0
SEQEND
  5
3E4
  8
回91-枠英1
  6
CONTINUOUS
 62
     7
  0
POINT
  5
10E
  8
DEFPOINTS
  6
CONTINUOUS
 62
     0
 10
3957.873601414548
 20
942.6039846484455
 30
0.0
  0
POINT
  5
110
  8
DEFPOINTS
  6
CONTINUOUS
 62
     0
 10
3624.993601414548
 20
942.6039846484455
 30
0.0
  0
POINT
  5
111
  8
DEFPOINTS
  6
CONTINUOUS
 62
     0
 10
3624.993601414548
 20
989.6963106444218
 30
0.0
  0
ENDBLK
  5
112
  8
0
 62
     7
  0
BLOCK
  8
回91-枠英1
  2
*U21
 70
     1
 10
0.0
 20
0.0
 30
0.0
  3
*U21
  1

  0
LINE
  5
324
  8
回13-記事
  6
CONTINUOUS
 62
     8
 10
3616.993601414547
 20
825.2839846484452
 30
0.0
 11
3616.993601414547
 21
811.0439846484448
 31
0.0
  0
LINE
  5
325
  8
回13-記事
  6
CONTINUOUS
 62
     8
 10
3616.993601414547
 20
811.0439846484448
 30
0.0
 11
3625.493601414547
 21
811.0439846484448
 31
0.0
  0
LINE
  5
326
  8
回13-記事
  6
CONTINUOUS
 62
     8
 10
3625.493601414547
 20
803.9239846484449
 30
0.0
 11
3625.493601414547
 21
811.0439846484448
 31
0.0
  0
LINE
  5
327
  8
回13-記事
  6
CONTINUOUS
 62
     8
 10
3634.551601375854
 20
803.9239846484449
 30
0.0
 11
3625.493601414547
 21
803.9239846484449
 31
0.0
  0
LINE
  5
328
  8
回13-記事
  6
CONTINUOUS
 62
     8
 10
3634.551601375854
 20
832.4039846484451
 30
0.0
 11
3634.551601375854
 21
803.9239846484449
 31
0.0
  0
LINE
  5
329
  8
回13-記事
  6
CONTINUOUS
 62
     8
 10
3625.493601414547
 20
832.4039846484451
 30
0.0
 11
3634.551601375854
 21
832.4039846484451
 31
0.0
  0
LINE
  5
32A
  8
回13-記事
  6
CONTINUOUS
 62
     8
 10
3625.493601414547
 20
825.2839846484452
 30
0.0
 11
3625.493601414547
 21
832.4039846484451
 31
0.0
  0
LINE
  5
32B
  8
回13-記事
  6
CONTINUOUS
 62
     8
 10
3625.493601414547
 20
825.2839846484452
 30
0.0
 11
3616.993601414547
 21
825.2839846484452
 31
0.0
  0
ENDBLK
  5
32D
  8
回91-枠英1
  6
CONTINUOUS
 62
     7
  0
BLOCK
  8
回91-枠英1
  2
*X22
 70
     1
 10
0.0
 20
0.0
 30
0.0
  3
*X22
  1

  0
LINE
  5
330
  8
回13-記事
  6
CONTINUOUS
 62
     8
 10
3616.993601414548
 20
822.1212097321943
 30
0.0
 11
3620.156376330798
 21
825.2839846484452
 31
0.0
1001
ACAD
1010
0.0
1020
0.0
1030
0.0
  0
LINE
  5
331
  8
回13-記事
  6
CONTINUOUS
 62
     8
 10
3625.493601414547
 20
830.6212097321944
 30
0.0
 11
3627.276376330799
 21
832.4039846484454
 31
0.0
1001
ACAD
1010
0.0
1020
0.0
1030
0.0
  0
LINE
  5
332
  8
回13-記事
  6
CONTINUOUS
 62
     8
 10
3616.993601414548
 20
817.6310816716599
 30
0.0
 11
3624.646504391333
 21
825.2839846484453
 31
0.0
1001
ACAD
1010
0.0
1020
0.0
1030
0.0
  0
LINE
  5
333
  8
回13-記事
  6
CONTINUOUS
 62
     8
 10
3625.493601414547
 20
826.1310816716594
 30
0.0
 11
3631.766504391333
 21
832.4039846484454
 31
0.0
1001
ACAD
1010
0.0
1020
0.0
1030
0.0
  0
LINE
  5
334
  8
回13-記事
  6
CONTINUOUS
 62
     8
 10
3616.993601414548
 20
813.1409536111254
 30
0.0
 11
3634.551601375855
 21
830.6989535724326
 31
0.0
1001
ACAD
1010
0.0
1020
0.0
1030
0.0
  0
LINE
  5
335
  8
回13-記事
  6
CONTINUOUS
 62
     8
 10
3619.386760512401
 20
811.0439846484448
 30
0.0
 11
3634.551601375855
 21
826.2088255118982
 31
0.0
1001
ACAD
1010
0.0
1020
0.0
1030
0.0
  0
LINE
  5
336
  8
回13-記事
  6
CONTINUOUS
 62
     8
 10
3623.876888572937
 20
811.0439846484451
 30
0.0
 11
3634.551601375856
 21
821.7186974513641
 31
0.0
1001
ACAD
1010
0.0
1020
0.0
1030
0.0
  0
LINE
  5
337
  8
回13-記事
  6
CONTINUOUS
 62
     8
 10
3625.493601414548
 20
808.1705694295219
 30
0.0
 11
3634.551601375854
 21
817.2285693908287
 31
0.0
1001
ACAD
1010
0.0
1020
0.0
1030
0.0
  0
LINE
  5
338
  8
回13-記事
  6
CONTINUOUS
 62
     8
 10
3625.737144694005
 20
803.9239846484452
 30
0.0
 11
3634.551601375855
 21
812.7384413302946
 31
0.0
1001
ACAD
1010
0.0
1020
0.0
1030
0.0
  0
LINE
  5
339
  8
回13-記事
  6
CONTINUOUS
 62
     8
 10
3630.22727275454
 20
803.923984648445
 30
0.0
 11
3634.551601375855
 21
808.2483132697602
 31
0.0
1001
ACAD
1010
0.0
1020
0.0
1030
0.0
  0
ENDBLK
  5
33B
  8
回91-枠英1
  6
CONTINUOUS
 62
     7
  0
BLOCK
  8
回91-枠英1
  2
*X23
 70
     1
 10
0.0
 20
0.0
 30
0.0
  3
*X23
  1

  0
INSERT
  5
33E
  8
回12-寸法
  6
CONTINUOUS
 62
     5
  2
_OPEN
 10
3624.740402422164
 20
810.107790022335
 30
0.0
 41
2.0
 42
2.0
 43
2.0
 50
54.63682172400681
  0
LINE
  5
33F
  8
回12-寸法
 62
     5
 10
3623.582888017238
 20
808.4767902055395
 30
0.0
 11
3619.851067393411
 21
803.2184549935807
 31
0.0
  0
LINE
  5
340
  8
回12-寸法
 62
     5
 10
3619.851067393411
 20
803.2184549935807
 30
0.0
 11
3606.950182899169
 21
803.2184549935807
 31
0.0
  0
ENDBLK
  5
342
  8
回91-枠英1
  6
CONTINUOUS
 62
     7
  0
BLOCK
  8
回91-枠英1
  2
*X24
 70
     1
 10
0.0
 20
0.0
 30
0.0
  3
*X24
  1

  0
LINE
  5
345
  8
回13-記事
 62
     8
 10
3616.993601414547
 20
641.3848409357773
 30
0.0
 11
3617.608987214781
 21
642.0002267360108
 31
0.0
  0
LINE
  5
346
  8
回13-記事
 62
     8
 10
3618.899090187902
 20
641.0452656788653
 30
0.0
 11
3619.854051245047
 21
642.0002267360106
 31
0.0
  0
LINE
  5
347
  8
回13-記事
 62
     8
 10
3621.14415421817
 20
641.0452656788661
 30
0.0
 11
3622.099115275315
 21
642.000226736011
 31
0.0
  0
LINE
  5
348
  8
回13-記事
 62
     8
 10
3623.389218248437
 20
641.0452656788659
 30
0.0
 11
3624.344179305582
 21
642.0002267360111
 31
0.0
  0
LINE
  5
349
  8
回13-記事
 62
     8
 10
3624.538640357402
 20
642.1946877878308
 30
0.0
 11
3624.805170774589
 21
642.4612182050175
 31
0.0
  0
LINE
  5
34A
  8
回13-記事
 62
     8
 10
3626.133555384466
 20
641.544538784628
 30
0.0
 11
3627.050234804855
 21
642.4612182050171
 31
0.0
  0
LINE
  5
34B
  8
回13-記事
 62
     8
 10
3628.378619414732
 20
641.544538784627
 30
0.0
 11
3629.295298835122
 21
642.4612182050168
 31
0.0
  0
LINE
  5
34C
  8
回13-記事
 62
     8
 10
3630.623683445
 20
641.5445387846282
 30
0.0
 11
3631.540362865389
 21
642.4612182050172
 31
0.0
  0
LINE
  5
34D
  8
回13-記事
 62
     8
 10
3632.868747475267
 20
641.544538784628
 30
0.0
 11
3633.785426895656
 21
642.4612182050169
 31
0.0
  0
ENDBLK
  5
34F
  8
回91-枠英1
  6
CONTINUOUS
 62
     7
  0
BLOCK
  8
回91-枠英1
  2
*X25
 70
     1
 10
0.0
 20
0.0
 30
0.0
  3
*X25
  1

  0
INSERT
  5
35C
  8
回13-記事
  6
CONTINUOUS
 62
     5
  2
_OPEN
 10
3955.866880784437
 20
715.9985570013254
 30
0.0
 41
1.999999999999999
 42
1.999999999999999
 43
2.0
 50
252.9782220728754
  0
LINE
  5
35D
  8
回13-記事
 62
     5
 10
3956.452351127868
 20
717.9109441161537
 30
0.0
 11
3958.07301140262
 21
723.2046876195079
 31
0.0
  0
LINE
  5
35E
  8
回13-記事
 62
     5
 10
3958.07301140262
 20
723.2046876195079
 30
0.0
 11
3982.17301140262
 21
723.2046876195079
 31
0.0
  0
ENDBLK
  5
360
  8
回91-枠英1
  6
CONTINUOUS
 62
     7
  0
BLOCK
  8
回91-枠英1
  2
*X26
 70
     1
 10
0.0
 20
0.0
 30
0.0
  3
*X26
  1

  0
TEXT
  5
363
  8
回13-記事
  6
CONTINUOUS
 62
     5
 10
3543.471366450296
 20
799.9320713378426
 30
0.0
 40
4.0
  1
・PART No. LABEL
  0
TEXT
  5
364
  8
回13-記事
  6
CONTINUOUS
 62
     5
 10
3557.071366450296
 20
793.265404671176
 30
0.0
 40
4.0
  1
・LOT LABEL
  0
ENDBLK
  5
366
  8
回91-枠英1
  6
CONTINUOUS
 62
     7
  0
BLOCK
  8
回91-枠英1
  2
*X27
 70
     1
 10
0.0
 20
0.0
 30
0.0
  3
*X27
  1

  0
INSERT
  5
369
  8
回13-記事
  6
CONTINUOUS
 62
     5
  2
_OPEN
 10
3596.068698133819
 20
818.1639846484452
 30
0.0
 41
2.0
 42
2.0
 43
2.0
 50
77.78714678582122
  0
LINE
  5
36A
  8
回13-記事
  6
CONTINUOUS
 62
     5
 10
3595.645610022359
 20
816.2092477224266
 30
0.0
 11
3590.571366450296
 21
792.765404671176
 31
0.0
  0
LINE
  5
36B
  8
回13-記事
  6
CONTINUOUS
 62
     5
 10
3590.571366450296
 20
792.765404671176
 30
0.0
 11
3544.804699783629
 21
792.765404671176
 31
0.0
  0
ENDBLK
  5
36D
  8
回91-枠英1
  6
CONTINUOUS
 62
     7
  0
BLOCK
  8
回91-枠英1
  2
*X28
 70
     1
 10
0.0
 20
0.0
 30
0.0
  3
*X28
  1

  0
LINE
  5
370
  8
回13-記事
  6
CONTINUOUS
 62
     8
 10
3602.312036626992
 20
816.4107742158066
 30
0.0
 11
3598.475807730844
 21
820.2470031119558
 31
0.0
  0
LINE
  5
371
  8
回13-記事
  6
CONTINUOUS
 62
     8
 10
3597.98567967031
 20
816.2470031119552
 30
0.0
 11
3593.985679670309
 21
820.2470031119556
 31
0.0
  0
LINE
  5
372
  8
回13-記事
  6
CONTINUOUS
 62
     8
 10
3593.495551609775
 20
816.2470031119557
 30
0.0
 11
3589.495551609775
 21
820.2470031119556
 31
0.0
  0
LINE
  5
373
  8
回13-記事
  6
CONTINUOUS
 62
     8
 10
3589.00542354924
 20
816.2470031119557
 30
0.0
 11
3585.00542354924
 21
820.2470031119553
 31
0.0
  0
LINE
  5
374
  8
回13-記事
  6
CONTINUOUS
 62
     8
 10
3584.515295488706
 20
816.2470031119553
 30
0.0
 11
3580.515295488706
 21
820.2470031119556
 31
0.0
  0
LINE
  5
375
  8
回13-記事
  6
CONTINUOUS
 62
     8
 10
3580.025167428171
 20
816.2470031119552
 30
0.0
 11
3576.791370598199
 21
819.4807999419273
 31
0.0
  0
ENDBLK
  5
377
  8
回91-枠英1
  6
CONTINUOUS
 62
     7
  0
BLOCK
  8
回91-枠英1
  2
*X29
 70
     1
 10
0.0
 20
0.0
 30
0.0
  3
*X29
  1

  0
INSERT
  5
383
  8
回13-記事
  6
CONTINUOUS
 62
     5
  2
_OPEN
 10
3572.055914767191
 20
641.0701275673466
 30
0.0
 41
2.0
 42
2.0
 43
2.0
 50
251.8357085321016
  0
LINE
  5
384
  8
回13-記事
  6
CONTINUOUS
 62
     5
 10
3572.679400378046
 20
642.9704606152771
 30
0.0
 11
3575.552815425325
 21
651.7283942062075
 31
0.0
  0
LINE
  5
385
  8
回13-記事
  6
CONTINUOUS
 62
     5
 10
3575.552815425325
 20
651.7283942062075
 30
0.0
 11
3617.252815425325
 21
651.7283942062075
 31
0.0
  0
ENDBLK
  5
387
  8
回91-枠英1
  6
CONTINUOUS
 62
     7
  0
BLOCK
  8
回91-枠英1
  2
*X30
 70
     1
 10
0.0
 20
0.0
 30
0.0
  3
*X30
  1

  0
INSERT
  5
38F
  8
回13-記事
  6
CONTINUOUS
 62
     5
  2
_OPEN
 10
3575.572647716831
 20
637.3400838436643
 30
0.0
 41
2.0
 42
2.0
 43
2.0
 50
104.2855292362276
  0
LINE
  5
390
  8
回13-記事
  6
CONTINUOUS
 62
     5
 10
3576.066156252507
 20
635.4019276773003
 30
0.0
 11
3579.069548374965
 21
623.606705221465
 31
0.0
  0
LINE
  5
391
  8
回13-記事
  6
CONTINUOUS
 62
     5
 10
3579.069548374965
 20
623.606705221465
 30
0.0
 11
3607.169548374965
 21
623.606705221465
 31
0.0
  0
ENDBLK
  5
393
  8
回91-枠英1
  6
CONTINUOUS
 62
     7
  0
BLOCK
  8
回91-枠英1
  2
*X31
 70
     1
 10
0.0
 20
0.0
 30
0.0
  3
*X31
  1

  0
TEXT
  5
3B9
  8
回12-寸法
  6
CONTINUOUS
 62
     5
 10
3496.549643361328
 20
759.2839846484462
 30
0.0
 40
4.0
  1
15.24
 50
90.0
  0
TEXT
  5
3BA
  8
回12-寸法
  6
CONTINUOUS
 62
     5
 10
3496.549643361328
 20
771.2839846484462
 30
0.0
 40
2.799999999999999
  1
±0.2
 50
90.0
  0
TEXT
  5
3BB
  8
回12-寸法
  6
CONTINUOUS
 62
     5
 10
3496.549643361328
 20
778.003984648446
 30
0.0
 40
4.0
  1
 [0.600
 50
90.0
  0
TEXT
  5
3BC
  8
回12-寸法
  6
CONTINUOUS
 62
     5
 10
3496.549643361328
 20
794.4039846484461
 30
0.0
 40
2.799999999999999
  1
±0.008
 50
90.0
  0
TEXT
  5
3BD
  8
回12-寸法
  6
CONTINUOUS
 62
     5
 10
3496.549643361328
 20
805.043984648446
 30
0.0
 40
4.0
  1
]
 50
90.0
  0
ENDBLK
  5
3BF
  8
回91-枠英1
  6
CONTINUOUS
 62
     7
  0
BLOCK
  8
回91-枠英1
  2
*X32
 70
     1
 10
0.0
 20
0.0
 30
0.0
  3
*X32
  1

  0
TEXT
  5
3C2
  8
回12-寸法
  6
CONTINUOUS
 62
     5
 10
3550.788546898611
 20
776.1487720957846
 30
0.0
 40
4.0
  1
110
  0
TEXT
  5
3C3
  8
回12-寸法
  6
CONTINUOUS
 62
     5
 10
3557.58854689861
 20
776.1487720957846
 30
0.0
 40
2.799999999999999
  1
±1
  0
TEXT
  5
3C4
  8
回12-寸法
  6
CONTINUOUS
 62
     5
 10
3560.948546898611
 20
776.1487720957846
 30
0.0
 40
4.0
  1
 [4.331
  0
TEXT
  5
3C5
  8
回12-寸法
  6
CONTINUOUS
 62
     5
 10
3576.948546898611
 20
776.1487720957846
 30
0.0
 40
2.799999999999999
  1
±0.039
  0
TEXT
  5
3C6
  8
回12-寸法
  6
CONTINUOUS
 62
     5
 10
3587.598655930487
 20
776.1487720957846
 30
0.0
 40
4.0
  1
]
  0
ENDBLK
  5
3C8
  8
回91-枠英1
  6
CONTINUOUS
 62
     7
  0
BLOCK
  8
回91-枠英1
  2
*X33
 70
     1
 10
0.0
 20
0.0
 30
0.0
  3
*X33
  1

  0
TEXT
  5
3CB
  8
回12-寸法
  6
CONTINUOUS
 62
     5
 10
3965.894125984885
 20
587.870400371472
 30
0.0
 40
4.0
  1
2.1±
 50
90.0
  0
TEXT
  5
3CC
  8
回12-寸法
  6
CONTINUOUS
 62
     5
 10
3965.894125984885
 20
596.6704003714721
 30
0.0
 40
3.0
  1
0.2
 50
90.0
  0
TEXT
  5
3CD
  8
回12-寸法
  6
CONTINUOUS
 62
     5
 10
3965.894125984885
 20
601.7704003714721
 30
0.0
 40
4.0
  1
 [0.083±
 50
90.0
  0
TEXT
  5
3CE
  8
回12-寸法
  6
CONTINUOUS
 62
     5
 10
3965.894125984885
 20
620.9704003714719
 30
0.0
 40
3.0
  1
0.008
 50
90.0
  0
TEXT
  5
3CF
  8
回12-寸法
  6
CONTINUOUS
 62
     5
 10
3965.894125984885
 20
630.2704003714721
 30
0.0
 40
4.0
  1
]
 50
90.0
  0
ENDBLK
  5
3D1
  8
回91-枠英1
  6
CONTINUOUS
 62
     7
  0
BLOCK
  8
回91-枠英1
  2
*X34
 70
     1
 10
0.0
 20
0.0
 30
0.0
  3
*X34
  1

  0
TEXT
  5
3D4
  8
回12-寸法
  6
CONTINUOUS
 62
     5
 10
4028.809208552721
 20
792.949543174338
 30
0.0
 40
4.0
  1
248.88
 50
90.0
  0
TEXT
  5
3D5
  8
回12-寸法
  6
CONTINUOUS
 62
     5
 10
4028.809208552721
 20
808.5495431743378
 30
0.0
 40
2.799999999999999
  1
±0.3
 50
90.0
  0
TEXT
  5
3D6
  8
回12-寸法
  6
CONTINUOUS
 62
     5
 10
4028.809208552721
 20
815.2695431743378
 30
0.0
 40
4.0
  1
 [9.798
 50
90.0
  0
TEXT
  5
3D7
  8
回12-寸法
  6
CONTINUOUS
 62
     5
 10
4028.809208552721
 20
831.6984261225535
 30
0.0
 40
2.799999999999999
  1
±0.012
 50
90.0
  0
TEXT
  5
3D8
  8
回12-寸法
  6
CONTINUOUS
 62
     5
 10
4028.809208552721
 20
841.7784261225532
 30
0.0
 40
4.0
  1
]
 50
90.0
  0
ENDBLK
  5
3DA
  8
回91-枠英1
  6
CONTINUOUS
 62
     7
  0
BLOCK
  8
回91-枠英1
  2
*X35
 70
     1
 10
0.0
 20
0.0
 30
0.0
  3
*X35
  1

  0
TEXT
  5
3DD
  8
回12-寸法
  6
CONTINUOUS
 62
     5
 10
3765.833601414548
 20
990.3963106444219
 30
0.0
 40
4.0
  1
332.88
  0
TEXT
  5
3DE
  8
回12-寸法
  6
CONTINUOUS
 62
     5
 10
3781.033601414548
 20
990.3963106444219
 30
0.0
 40
2.799999999999999
  1
±0.3
  0
TEXT
  5
3DF
  8
回12-寸法
  6
CONTINUOUS
 62
     5
 10
3787.753601414547
 20
990.3963106444219
 30
0.0
 40
4.0
  1
 [13.106
  0
TEXT
  5
3E0
  8
回12-寸法
  6
CONTINUOUS
 62
     5
 10
3805.353601414547
 20
990.3963106444219
 30
0.0
 40
2.799999999999999
  1
±0.012
  0
TEXT
  5
3E1
  8
回12-寸法
  6
CONTINUOUS
 62
     5
 10
3815.433601414547
 20
990.3963106444219
 30
0.0
 40
4.0
  1
]
  0
ENDBLK
  5
3E3
  8
回91-枠英1
  6
CONTINUOUS
 62
     7
  0
ENDSEC
  0
SECTION
  2
ENTITIES
  0
TEXT
  5
67
  8
回03-記事
  6
CONTINUOUS
 62
     5
 10
3706.462911708945
 20
554.4138278781217
 30
0.0
 40
6.0
  1
without affecting product specification.
  0
TEXT
  5
69
  8
回03-記事
  6
CONTINUOUS
 62
     5
 10
3706.462911708945
 20
564.9384600208716
 30
0.0
 40
6.0
  1
Edges and corners of ITO glass may be chamfered 
  0
TEXT
  5
6A
  8
回03-記事
  6
CONTINUOUS
 62
     5
 10
3706.462911708945
 20
575.4630921636215
 30
0.0
 40
6.0
  1
Unit: mm
  0
TEXT
  5
6B
  8
回03-記事
  6
CONTINUOUS
 62
     5
 10
3706.462911708945
 20
585.9877243063711
 30
0.0
 40
6.0
  1
EXCEPT WHERE INDICATED
  0
TEXT
  5
6C
  8
回03-記事
  6
CONTINUOUS
 62
     5
 10
3706.462911708945
 20
596.5123564491206
 30
0.0
 40
6.0
  1
TOLERANCE=±0.5mm
  0
TEXT
  5
6D
  8
回13-記事
 62
     5
 10
3958.653772135883
 20
717.6109024086233
 30
0.0
 40
4.0
  1
FST-150C
1001
ACAD
1000
MTEXTBEGIN
1070
    73
1070
     1
1070
    44
1040
1.0
1070
    74
1070
     0
1000
MTEXTEND
  0
TEXT
  5
72
  8
回08-GPDL
 62
     7
 10
3956.681910258118
 20
705.3183775916095
 30
0.0
 40
2.0
  1
FST-150C
 50
90.0
  0
POLYLINE
  5
76
  8
回02-G外
  6
CONTINUOUS
 62
     7
 66
     1
 10
0.0
 20
0.0
 30
0.0
 70
     1
  0
VERTEX
  5
314
  8
回02-G外
  6
CONTINUOUS
 62
     7
 10
3624.993601414548
 20
693.7239846484454
 30
0.0
  0
VERTEX
  5
316
  8
回02-G外
  6
CONTINUOUS
 62
     7
 10
3957.873601414548
 20
693.7239846484454
 30
0.0
  0
VERTEX
  5
317
  8
回02-G外
  6
CONTINUOUS
 62
     7
 10
3957.873601414548
 20
942.6039846484455
 30
0.0
  0
VERTEX
  5
318
  8
回02-G外
  6
CONTINUOUS
 62
     7
 10
3624.993601414548
 20
942.6039846484455
 30
0.0
  0
SEQEND
  5
315
  8
回91-枠英1
  6
CONTINUOUS
 62
     7
  0
TEXT
  5
7A
  8
回12-寸法
  6
CONTINUOUS
 62
     7
 10
3991.526310755182
 20
978.0693404024667
 30
0.0
 40
4.0
  1
(Insulation Area)
1001
ACAD
1000
MTEXTBEGIN
1070
    73
1070
     1
1070
    44
1040
1.0
1070
    74
1070
     0
1000
MTEXTEND
  0
TEXT
  5
7E
  8
回12-寸法
  6
CONTINUOUS
 62
     7
 10
4024.196705174925
 20
952.920332899796
 30
0.0
 40
4.0
  1
Area)
 50
90.0
1001
ACAD
1000
MTEXTBEGIN
1070
    73
1070
     1
1070
    44
1040
1.0
1070
    74
1070
     0
1000
MTEXTEND
  0
TEXT
  5
7F
  8
回12-寸法
  6
CONTINUOUS
 62
     7
 10
4018.765536525587
 20
945.916986719828
 30
0.0
 40
4.0
  1
(Insulation 
 50
90.0
1001
ACAD
1000
MTEXTBEGIN
1070
    73
1070
     1
1070
    44
1040
1.0
1070
    74
1070
     0
1000
MTEXTEND
  0
TEXT
  5
80
  8
回12-寸法
  6
CONTINUOUS
 62
     7
 10
4019.184020326472
 20
650.5346029032048
 30
0.0
 40
4.0
  1
(Insulation Area)
 50
90.0
1001
ACAD
1000
MTEXTBEGIN
1070
    73
1070
     1
1070
    44
1040
1.0
1070
    74
1070
     0
1000
MTEXTEND
  0
POLYLINE
  5
81
  8
回13-記事
  6
DASHED2
 62
     7
 66
     1
 10
0.0
 20
0.0
 30
0.0
 70
     1
  0
VERTEX
  5
319
  8
回13-記事
  6
DASHED2
 62
     7
 10
3640.783601414548
 20
934.8139846484455
 30
0.0
  0
VERTEX
  5
31B
  8
回13-記事
  6
DASHED2
 62
     7
 10
3950.093601414548
 20
934.8139846484455
 30
0.0
  0
VERTEX
  5
31C
  8
回13-記事
  6
DASHED2
 62
     7
 10
3950.093601414548
 20
701.5239846484455
 30
0.0
  0
VERTEX
  5
31D
  8
回13-記事
  6
DASHED2
 62
     7
 10
3640.783601414548
 20
701.5239846484455
 30
0.0
  0
SEQEND
  5
31A
  8
回91-枠英1
  6
CONTINUOUS
 62
     7
  0
TEXT
  5
83
  8
回13-記事
  6
CONTINUOUS
 62
     7
 10
4124.693067502646
 20
597.2468642757984
 30
0.0
 40
4.999999999999999
  1
(AMP:487406-9)
  0
TEXT
  5
84
  8
回13-記事
  6
CONTINUOUS
 62
     7
 10
4082.441402270988
 20
597.2468642757984
 30
0.0
 40
4.999999999999999
  1
PIN CONTACT
  0
TEXT
  5
85
  8
回13-記事
  6
CONTINUOUS
 62
     7
 10
4120.39204266416
 20
605.5801976091317
 30
0.0
 40
4.999999999999999
  1
(AMP:487526-4)
  0
TEXT
  5
86
  8
回13-記事
  6
CONTINUOUS
 62
     7
 10
4082.441402270988
 20
605.5801976091317
 30
0.0
 40
4.999999999999999
  1
CONNECTOR
  0
TEXT
  5
87
  8
回13-記事
  6
CONTINUOUS
 62
     7
 10
4082.441402270988
 20
613.9135309424651
 30
0.0
 40
4.999999999999999
  1
ADHESIVE SHEET
  0
TEXT
  5
88
  8
回13-記事
  6
CONTINUOUS
 62
     7
 10
4071.074356003123
 20
601.7137660199731
 30
0.0
 40
4.999999999999999
  1
8
  0
TEXT
  5
89
  8
回13-記事
  6
CONTINUOUS
 62
     7
 10
4071.074356003123
 20
613.9135309424651
 30
0.0
 40
4.999999999999999
  1
7
  0
LINE
  5
8A
  8
回13-記事
  6
CONTINUOUS
 62
     7
 10
4066.824290102154
 20
595.9301583461341
 30
0.0
 11
4173.589484495447
 21
595.9301583461341
 31
0.0
  0
LINE
  5
8B
  8
回13-記事
  6
CONTINUOUS
 62
     7
 10
4066.824290102154
 20
612.5968250128009
 30
0.0
 11
4173.589484495447
 21
612.5968250128009
 31
0.0
  0
TEXT
  5
8C
  8
回13-記事
  6
CONTINUOUS
 62
     7
 10
4082.441402270988
 20
622.2468642757985
 30
0.0
 40
4.999999999999999
  1
TAIL PROTECTION TAPE
  0
TEXT
  5
8D
  8
回13-記事
  6
CONTINUOUS
 62
     7
 10
4082.441402270988
 20
630.5801976091319
 30
0.0
 40
4.999999999999999
  1
STIFFENER
  0
TEXT
  5
8E
  8
回13-記事
  6
CONTINUOUS
 62
     7
 10
4082.441402270988
 20
638.9135309424652
 30
0.0
 40
4.999999999999999
  1
REINFORCEMENT FILM
  0
TEXT
  5
8F
  8
回13-記事
  6
CONTINUOUS
 62
     7
 10
4082.441402270988
 20
647.2468642757985
 30
0.0
 40
4.999999999999999
  1
TAIL
  0
TEXT
  5
90
  8
回13-記事
  6
CONTINUOUS
 62
     7
 10
4082.441402270988
 20
655.5801976091317
 30
0.0
 40
4.999999999999999
  1
ITO GLASS 
  0
LINE
  5
91
  8
回13-記事
  6
CONTINUOUS
 62
     7
 10
4173.589484495447
 20
670.9301583461342
 30
0.0
 11
4173.589484495447
 21
595.9301583461341
 31
0.0
  0
TEXT
  5
92
  8
回13-記事
  6
CONTINUOUS
 62
     7
 10
4082.441402270988
 20
663.9135309424651
 30
0.0
 40
4.999999999999999
  1
ITO FILM (ANTI-GLARE)
  0
TEXT
  5
93
  8
回13-記事
  6
CONTINUOUS
 62
     7
 10
4071.074356003123
 20
622.2468642757985
 30
0.0
 40
4.999999999999999
  1
6
  0
TEXT
  5
94
  8
回13-記事
  6
CONTINUOUS
 62
     7
 10
4071.074356003123
 20
630.5801976091319
 30
0.0
 40
4.999999999999999
  1
5
  0
TEXT
  5
95
  8
回13-記事
  6
CONTINUOUS
 62
     7
 10
4071.074356003123
 20
638.9135309424652
 30
0.0
 40
4.999999999999999
  1
4
  0
TEXT
  5
96
  8
回13-記事
  6
CONTINUOUS
 62
     7
 10
4071.074356003123
 20
647.2468642757985
 30
0.0
 40
4.999999999999999
  1
3
  0
TEXT
  5
97
  8
回13-記事
  6
CONTINUOUS
 62
     7
 10
4071.074356003123
 20
655.5801976091317
 30
0.0
 40
4.999999999999999
  1
2
  0
LINE
  5
98
  8
回13-記事
  6
CONTINUOUS
 62
     7
 10
4066.824290102154
 20
620.9301583461342
 30
0.0
 11
4173.589484495447
 21
620.9301583461342
 31
0.0
  0
LINE
  5
99
  8
回13-記事
  6
CONTINUOUS
 62
     7
 10
4066.824290102154
 20
629.2634916794676
 30
0.0
 11
4173.589484495447
 21
629.2634916794676
 31
0.0
  0
LINE
  5
9A
  8
回13-記事
  6
CONTINUOUS
 62
     7
 10
4066.824290102154
 20
637.596825012801
 30
0.0
 11
4173.589484495447
 21
637.596825012801
 31
0.0
  0
LINE
  5
9B
  8
回13-記事
  6
CONTINUOUS
 62
     7
 10
4066.824290102154
 20
645.9301583461342
 30
0.0
 11
4173.589484495447
 21
645.9301583461342
 31
0.0
  0
LINE
  5
9C
  8
回13-記事
  6
CONTINUOUS
 62
     7
 10
4066.824290102154
 20
654.2634916794675
 30
0.0
 11
4173.589484495447
 21
654.2634916794675
 31
0.0
  0
LINE
  5
9D
  8
回13-記事
  6
CONTINUOUS
 62
     7
 10
4066.824290102154
 20
662.5968250128009
 30
0.0
 11
4173.589484495447
 21
662.5968250128009
 31
0.0
  0
TEXT
  5
9E
  8
回13-記事
  6
CONTINUOUS
 62
     7
 10
4071.074356003123
 20
663.9135309424651
 30
0.0
 40
4.999999999999999
  1
1
  0
LINE
  5
9F
  8
回13-記事
  6
CONTINUOUS
 62
     7
 10
4066.824290102154
 20
670.9301583461342
 30
0.0
 11
4173.589484495447
 21
670.9301583461342
 31
0.0
  0
LINE
  5
A0
  8
回13-記事
  6
CONTINUOUS
 62
     7
 10
4078.191336370019
 20
670.9301583461342
 30
0.0
 11
4078.191336370019
 21
595.9301583461341
 31
0.0
  0
LINE
  5
A1
  8
回13-記事
  6
CONTINUOUS
 62
     7
 10
4066.824290102154
 20
670.9301583461342
 30
0.0
 11
4066.824290102154
 21
595.9301583461341
 31
0.0
  0
TEXT
  5
A2
  8
回91-枠英1
 10
4120.478790265777
 20
561.1880131953496
 30
0.0
 40
5.0
  1
Oct/13/2023
  0
TEXT
  5
A3
  8
回91-枠英1
 10
4129.096701383885
 20
570.358995715411
 30
0.0
 40
3.599999999999999
  1
DATE
  0
LINE
  5
A4
  8
回91-枠英1
 10
4097.094888373085
 20
575.323873760268
 30
0.0
 11
4097.094888373085
 21
539.323873760268
 31
0.0
  0
TEXT
  5
A5
  8
回91-枠英1
 10
4051.871805187505
 20
552.2162173877588
 30
0.0
 40
3.599999999999999
  1
TYPE
  0
LINE
  5
A6
  8
回91-枠英1
 10
4019.094888373085
 20
575.323873760268
 30
0.0
 11
4019.094888373085
 21
539.323873760268
 31
0.0
  0
TEXT
  5
A7
  8
回91-枠英1
 10
4035.13378476565
 20
540.3138632909124
 30
0.0
 40
3.599999999999999
  1
DIMENSIONAL DRAWING
  0
TEXT
  5
A8
  8
回91-枠英1
 10
4031.797825753256
 20
546.3237513761771
 30
0.0
 40
3.599999999999999
  1
STANDARD TOUCHSCREEN
  0
TEXT
  5
A9
  8
回91-枠英1
 10
4033.239300473324
 20
560.1506796762162
 30
0.0
 40
6.0
  1
FST-T150C110A
  0
TEXT
  5
AA
  8
回91-枠英1
 10
4052.36958845341
 20
570.358995715411
 30
0.0
 40
3.599999999999999
  1
PART No.
  0
LINE
  5
AB
  8
回91-枠英1
 10
4022.694888373085
 20
545.323873760268
 30
0.0
 11
4093.494888373085
 21
545.323873760268
 31
0.0
  0
TEXT
  5
AC
  8
回91-枠英1
 10
4120.146313987061
 20
545.874101370113
 30
0.0
 40
6.0
  1
DMC Co., Ltd.
  0
LINE
  5
AD
  8
回91-枠英1
 10
4019.094888373085
 20
551.3238737602685
 30
0.0
 11
4097.094888373085
 21
551.3238737602685
 31
0.0
  0
LINE
  5
AE
  8
回91-枠英1
 10
4019.094888373085
 20
575.323873760268
 30
0.0
 11
4187.094888373085
 21
575.323873760268
 31
0.0
  0
LINE
  5
AF
  8
回91-枠英1
 10
4019.094888373085
 20
557.3238737602685
 30
0.0
 11
4187.094888373085
 21
557.3238737602685
 31
0.0
  0
LINE
  5
B0
  8
回91-枠英1
 10
4019.094888373085
 20
569.323873760268
 30
0.0
 11
4187.094888373085
 21
569.323873760268
 31
0.0
  0
TEXT
  5
B1
  8
回91-枠英1
 10
4188.499309376743
 20
1032.112561056127
 30
0.0
 40
4.0
  1
1
  0
TEXT
  5
B2
  8
回91-枠英1
 10
4145.824273678737
 20
1079.696296886319
 30
0.0
 40
4.0
  1
J
  0
LINE
  5
B3
  8
回91-枠英1
 10
4192.094888373085
 20
989.3238737602681
 30
0.0
 11
4187.094888373085
 21
989.3238737602681
 31
0.0
  0
TEXT
  5
B4
  8
回91-枠英1
 10
4188.197810673442
 20
942.1125610561274
 30
0.0
 40
4.0
  1
2
  0
LINE
  5
B5
  8
回91-枠英1
 10
4192.094888373085
 20
899.323873760268
 30
0.0
 11
4187.094888373085
 21
899.323873760268
 31
0.0
  0
TEXT
  5
B6
  8
回91-枠英1
 10
4188.192329829242
 20
852.1125610561274
 30
0.0
 40
4.0
  1
3
  0
LINE
  5
B7
  8
回91-枠英1
 10
4192.094888373085
 20
809.323873760268
 30
0.0
 11
4187.094888373085
 21
809.323873760268
 31
0.0
  0
TEXT
  5
B8
  8
回91-枠英1
 10
4188.119237709162
 20
762.1125610561273
 30
0.0
 40
4.0
  1
4
  0
LINE
  5
B9
  8
回91-枠英1
 10
4107.094888373086
 20
1084.323873760268
 30
0.0
 11
4107.094888373086
 21
1079.323873760268
 31
0.0
  0
TEXT
  5
BA
  8
回91-枠英1
 10
4065.824273678737
 20
1079.696296886319
 30
0.0
 40
4.0
  1
I
  0
LINE
  5
BB
  8
回91-枠英1
 10
4027.094888373085
 20
1084.323873760268
 30
0.0
 11
4027.094888373085
 21
1079.323873760268
 31
0.0
  0
TEXT
  5
BC
  8
回91-枠英1
 10
3985.824273678737
 20
1079.696296886319
 30
0.0
 40
4.0
  1
H
  0
LINE
  5
BD
  8
回91-枠英1
 10
3947.094888373086
 20
1084.323873760268
 30
0.0
 11
3947.094888373086
 21
1079.323873760268
 31
0.0
  0
TEXT
  5
BE
  8
回91-枠英1
 10
3905.824273678738
 20
1079.696296886319
 30
0.0
 40
4.0
  1
G
  0
LINE
  5
BF
  8
回91-枠英1
 10
4192.094888373085
 20
719.323873760268
 30
0.0
 11
4187.094888373085
 21
719.323873760268
 31
0.0
  0
TEXT
  5
C0
  8
回91-枠英1
 10
4188.119237709162
 20
672.1125610561273
 30
0.0
 40
4.0
  1
5
  0
LINE
  5
C1
  8
回91-枠英1
 10
4192.094888373085
 20
629.323873760268
 30
0.0
 11
4187.094888373085
 21
629.323873760268
 31
0.0
  0
TEXT
  5
C2
  8
回91-枠英1
 10
4188.119237709162
 20
582.1125610561273
 30
0.0
 40
4.0
  1
6
  0
TEXT
  5
C3
  8
回91-枠英1
 10
4145.824273678737
 20
534.6962968863192
 30
0.0
 40
4.0
  1
J
  0
LINE
  5
C4
  8
回91-枠英1
 10
4107.094888373086
 20
539.323873760268
 30
0.0
 11
4107.094888373086
 21
534.323873760268
 31
0.0
  0
TEXT
  5
C5
  8
回91-枠英1
 10
4065.824273678737
 20
534.6962968863192
 30
0.0
 40
4.0
  1
I
  0
LINE
  5
C6
  8
回91-枠英1
 10
4027.094888373085
 20
539.323873760268
 30
0.0
 11
4027.094888373085
 21
534.323873760268
 31
0.0
  0
TEXT
  5
C7
  8
回91-枠英1
 10
3985.824273678737
 20
534.6962968863192
 30
0.0
 40
4.0
  1
H
  0
LINE
  5
C8
  8
回91-枠英1
 10
3947.094888373086
 20
539.323873760268
 30
0.0
 11
3947.094888373086
 21
534.323873760268
 31
0.0
  0
TEXT
  5
C9
  8
回91-枠英1
 10
3905.824273678738
 20
534.6962968863192
 30
0.0
 40
4.0
  1
G
  0
LINE
  5
CA
  8
回91-枠英1
 10
4187.094888373085
 20
1079.323873760268
 30
0.0
 11
4187.094888373085
 21
539.323873760268
 31
0.0
  0
LINE
  5
CB
  8
回91-枠英1
 10
4192.094888373085
 20
534.323873760268
 30
0.0
 11
4192.094888373085
 21
1084.323873760268
 31
0.0
  0
LINE
  5
CC
  8
回91-枠英1
 10
3867.094888373085
 20
1084.323873760268
 30
0.0
 11
3867.094888373085
 21
1079.323873760268
 31
0.0
  0
TEXT
  5
CD
  8
回91-枠英1
 10
3825.824273678737
 20
1079.696296886319
 30
0.0
 40
4.0
  1
F
  0
LINE
  5
CE
  8
回91-枠英1
 10
3787.094888373085
 20
1084.323873760268
 30
0.0
 11
3787.094888373085
 21
1079.323873760268
 31
0.0
  0
TEXT
  5
CF
  8
回91-枠英1
 10
3745.824273678738
 20
1079.696296886319
 30
0.0
 40
4.0
  1
E
  0
LINE
  5
D0
  8
回91-枠英1
 10
3707.094888373086
 20
1084.323873760268
 30
0.0
 11
3707.094888373086
 21
1079.323873760268
 31
0.0
  0
TEXT
  5
D1
  8
回91-枠英1
 10
3665.824273678737
 20
1079.696296886319
 30
0.0
 40
4.0
  1
D
  0
LINE
  5
D2
  8
回91-枠英1
 10
3627.094888373085
 20
1084.323873760268
 30
0.0
 11
3627.094888373085
 21
1079.323873760268
 31
0.0
  0
TEXT
  5
D3
  8
回91-枠英1
 10
3585.824273678738
 20
1079.696296886319
 30
0.0
 40
4.0
  1
C
  0
LINE
  5
D4
  8
回91-枠英1
 10
3547.094888373086
 20
1084.323873760268
 30
0.0
 11
3547.094888373086
 21
1079.323873760268
 31
0.0
  0
TEXT
  5
D5
  8
回91-枠英1
 10
3505.824273678738
 20
1079.696296886319
 30
0.0
 40
4.0
  1
B
  0
LINE
  5
D6
  8
回91-枠英1
 10
3467.094888373085
 20
1084.323873760268
 30
0.0
 11
3467.094888373085
 21
1079.323873760268
 31
0.0
  0
TEXT
  5
D7
  8
回91-枠英1
 10
3425.824273678737
 20
1079.696296886319
 30
0.0
 40
4.0
  1
A
  0
TEXT
  5
D8
  8
回91-枠英1
 10
3383.499309376745
 20
1032.112561056127
 30
0.0
 40
4.0
  1
1
  0
LINE
  5
D9
  8
回91-枠英1
 10
3387.094888373086
 20
989.3238737602681
 30
0.0
 11
3382.094888373085
 21
989.3238737602681
 31
0.0
  0
TEXT
  5
DA
  8
回91-枠英1
 10
3383.197810673443
 20
942.1125610561274
 30
0.0
 40
4.0
  1
2
  0
LINE
  5
DB
  8
回91-枠英1
 10
3387.094888373086
 20
899.323873760268
 30
0.0
 11
3382.094888373085
 21
899.323873760268
 31
0.0
  0
TEXT
  5
DC
  8
回91-枠英1
 10
3383.192329829242
 20
852.1125610561274
 30
0.0
 40
4.0
  1
3
  0
LINE
  5
DD
  8
回91-枠英1
 10
3387.094888373086
 20
809.323873760268
 30
0.0
 11
3382.094888373085
 21
809.323873760268
 31
0.0
  0
TEXT
  5
DE
  8
回91-枠英1
 10
3383.119237709161
 20
762.1125610561273
 30
0.0
 40
4.0
  1
4
  0
LINE
  5
DF
  8
回91-枠英1
 10
3867.094888373085
 20
539.323873760268
 30
0.0
 11
3867.094888373085
 21
534.323873760268
 31
0.0
  0
TEXT
  5
E0
  8
回91-枠英1
 10
3825.824273678737
 20
534.6962968863192
 30
0.0
 40
4.0
  1
F
  0
LINE
  5
E1
  8
回91-枠英1
 10
3787.094888373085
 20
539.323873760268
 30
0.0
 11
3787.094888373085
 21
534.323873760268
 31
0.0
  0
TEXT
  5
E2
  8
回91-枠英1
 10
3745.824273678738
 20
534.6962968863192
 30
0.0
 40
4.0
  1
E
  0
LINE
  5
E3
  8
回91-枠英1
 10
3707.094888373086
 20
539.323873760268
 30
0.0
 11
3707.094888373086
 21
534.323873760268
 31
0.0
  0
TEXT
  5
E4
  8
回91-枠英1
 10
3665.824273678737
 20
534.6962968863192
 30
0.0
 40
4.0
  1
D
  0
LINE
  5
E5
  8
回91-枠英1
 10
3627.094888373085
 20
539.323873760268
 30
0.0
 11
3627.094888373085
 21
534.323873760268
 31
0.0
  0
TEXT
  5
E6
  8
回91-枠英1
 10
3585.824273678738
 20
534.6962968863192
 30
0.0
 40
4.0
  1
C
  0
LINE
  5
E7
  8
回91-枠英1
 10
3547.094888373086
 20
539.323873760268
 30
0.0
 11
3547.094888373086
 21
534.323873760268
 31
0.0
  0
TEXT
  5
E8
  8
回91-枠英1
 10
3505.824273678738
 20
534.6962968863192
 30
0.0
 40
4.0
  1
B
  0
LINE
  5
E9
  8
回91-枠英1
 10
3387.094888373086
 20
719.323873760268
 30
0.0
 11
3382.094888373085
 21
719.323873760268
 31
0.0
  0
TEXT
  5
EA
  8
回91-枠英1
 10
3383.119237709161
 20
672.1125610561273
 30
0.0
 40
4.0
  1
5
  0
LINE
  5
EB
  8
回91-枠英1
 10
3387.094888373086
 20
629.323873760268
 30
0.0
 11
3382.094888373085
 21
629.323873760268
 31
0.0
  0
LINE
  5
EC
  8
回91-枠英1
 10
3467.094888373085
 20
539.323873760268
 30
0.0
 11
3467.094888373085
 21
534.323873760268
 31
0.0
  0
TEXT
  5
ED
  8
回91-枠英1
 10
3425.824273678737
 20
534.6962968863192
 30
0.0
 40
4.0
  1
A
  0
TEXT
  5
EE
  8
回91-枠英1
 10
3383.119237709161
 20
582.1125610561273
 30
0.0
 40
4.0
  1
6
  0
LINE
  5
EF
  8
回91-枠英1
 10
3387.094888373086
 20
1079.323873760268
 30
0.0
 11
3387.094888373086
 21
539.323873760268
 31
0.0
  0
LINE
  5
F0
  8
回91-枠英1
 10
3382.094888373085
 20
534.323873760268
 30
0.0
 11
3382.094888373085
 21
1084.323873760268
 31
0.0
  0
LINE
  5
F1
  8
回91-枠英1
 10
3387.094888373086
 20
539.323873760268
 30
0.0
 11
4187.094888373085
 21
539.323873760268
 31
0.0
  0
LINE
  5
F2
  8
回91-枠英1
 10
4192.094888373085
 20
534.323873760268
 30
0.0
 11
3382.094888373085
 21
534.323873760268
 31
0.0
  0
LINE
  5
F3
  8
回91-枠英1
 10
3387.094888373086
 20
1079.323873760268
 30
0.0
 11
4187.094888373085
 21
1079.323873760268
 31
0.0
  0
LINE
  5
F4
  8
回91-枠英1
 10
4192.094888373085
 20
1084.323873760268
 30
0.0
 11
3382.094888373085
 21
1084.323873760268
 31
0.0
  0
TEXT
  5
F5
  8
回13-記事
  6
CONTINUOUS
 62
     5
 10
4082.833810761303
 20
793.9518390441739
 30
0.0
 40
8.189999999999999
  1
5
  0
LINE
  5
F6
  8
回13-記事
  6
CONTINUOUS
 62
     5
 10
4091.625304104269
 20
797.7062428463113
 30
0.0
 11
4121.232146819266
 21
797.7062428463113
 31
0.0
  0
TEXT
  5
F7
  8
回13-記事
  6
CONTINUOUS
 62
     5
 10
4126.004427716001
 20
795.0677921802726
 30
0.0
 40
7.166249999999998
  1
LL
  0
TEXT
  5
F8
  8
回13-記事
  6
CONTINUOUS
 62
     5
 10
4082.833810761303
 20
815.4122312867743
 30
0.0
 40
8.189999999999999
  1
4
  0
LINE
  5
F9
  8
回13-記事
  6
CONTINUOUS
 62
     5
 10
4091.625304104269
 20
819.1666350889118
 30
0.0
 11
4121.232146819266
 21
819.1666350889118
 31
0.0
  0
TEXT
  5
FA
  8
回13-記事
  6
CONTINUOUS
 62
     5
 10
4126.004427716001
 20
816.5281844228729
 30
0.0
 40
7.166249999999998
  1
UL
  0
TEXT
  5
FB
  8
回13-記事
  6
CONTINUOUS
 62
     5
 10
4082.833810761303
 20
836.8726235293747
 30
0.0
 40
8.189999999999999
  1
3
  0
LINE
  5
FC
  8
回13-記事
  6
CONTINUOUS
 62
     5
 10
4091.625304104269
 20
840.6270273315122
 30
0.0
 11
4121.232146819266
 21
840.6270273315122
 31
0.0
  0
TEXT
  5
FD
  8
回13-記事
  6
CONTINUOUS
 62
     5
 10
4126.004427716001
 20
837.9885766654734
 30
0.0
 40
7.166249999999998
  1
SENSE
  0
TEXT
  5
FE
  8
回13-記事
  6
CONTINUOUS
 62
     5
 10
4082.833810761303
 20
858.3330157719752
 30
0.0
 40
8.189999999999999
  1
2
  0
LINE
  5
FF
  8
回13-記事
  6
CONTINUOUS
 62
     5
 10
4091.625304104269
 20
862.0874195741125
 30
0.0
 11
4121.232146819266
 21
862.0874195741125
 31
0.0
  0
TEXT
  5
100
  8
回13-記事
  6
CONTINUOUS
 62
     5
 10
4126.004427716001
 20
859.4489689080738
 30
0.0
 40
7.166249999999998
  1
LR
  0
TEXT
  5
101
  8
回13-記事
  6
CONTINUOUS
 62
     5
 10
4082.833810761303
 20
879.7934080145756
 30
0.0
 40
8.189999999999999
  1
1
  0
LINE
  5
102
  8
回13-記事
  6
CONTINUOUS
 62
     5
 10
4091.625304104269
 20
883.5478118167129
 30
0.0
 11
4121.232146819266
 21
883.5478118167129
 31
0.0
  0
TEXT
  5
103
  8
回13-記事
  6
CONTINUOUS
 62
     5
 10
4057.946322877767
 20
925.6698394087347
 30
0.0
 40
10.5
  1
PIN ASSIGNMENT
  0
TEXT
  5
104
  8
回13-記事
  6
CONTINUOUS
 62
     5
 10
4126.004427716001
 20
880.9093611506741
 30
0.0
 40
7.166249999999998
  1
UR
  0
DIMENSION
  5
105
  8
回12-寸法
  6
CONTINUOUS
 62
     7
  2
*D20
 10
3624.993601414548
 20
989.6963106444218
 30
0.0
 11
3791.433601414548
 21
992.3963106444219
 31
0.0
 70
     0
  3
DMC
 13
3957.873601414548
 23
942.6039846484455
 33
0.0
 14
3624.993601414548
 24
942.6039846484455
 34
0.0
1001
ACAD
1000
DSTYLE
1002
{
1070
    47
1040
0.3
1070
   147
1040
0.5
1070
    48
1040
0.3
1070
    72
1070
     0
1070
    71
1070
     1
1070
   140
1040
4.0
1070
   170
1070
     1
1070
   371
1070
     9
1070
   372
1070
     9
1002
}
  0
DIMENSION
  5
113
  8
回12-寸法
  6
CONTINUOUS
 62
     7
  2
*D19
 10
3950.093601414548
 20
977.227332370896
 30
0.0
 11
3975.700275114906
 21
977.227332370896
 31
0.0
 70
   128
  3
DMC
 13
3957.873601414548
 23
942.6039846484455
 33
0.0
 14
3950.093601414548
 24
934.8139846484455
 34
0.0
1001
ACAD
1000
DSTYLE
1002
{
1070
   140
1040
4.0
1070
   170
1070
     1
1070
   371
1070
     9
1070
   372
1070
     9
1002
}
  0
DIMENSION
  5
122
  8
回12-寸法
  6
CONTINUOUS
 62
     7
  2
*D18
 10
3957.873601414548
 20
963.5819459673758
 30
0.0
 11
3975.573601414548
 21
966.2819459673759
 31
0.0
 70
     0
  3
DMC
 13
3948.993601414548
 23
933.7139846484454
 33
0.0
 14
3957.873601414548
 24
942.6039846484455
 34
0.0
1001
ACAD
1000
DSTYLE
1002
{
1070
   140
1040
4.0
1070
   170
1070
     1
1070
   371
1070
     9
1070
   372
1070
     9
1002
}
  0
DIMENSION
  5
131
  8
回12-寸法
  6
CONTINUOUS
 62
     7
  2
*D17
 10
3640.783601414548
 20
977.227332370896
 30
0.0
 11
3795.438601414548
 21
979.9273323708959
 31
0.0
 70
     0
  3
DMC
 13
3950.093601414548
 23
934.8139846484455
 33
0.0
 14
3640.783601414548
 24
934.8139846484455
 34
0.0
1001
ACAD
1000
DSTYLE
1002
{
1070
   140
1040
4.0
1070
   170
1070
     1
1070
   371
1070
     9
1070
   372
1070
     9
1002
}
  0
DIMENSION
  5
13E
  8
回12-寸法
  6
CONTINUOUS
 62
     7
  2
*D16
 10
3948.993601414548
 20
963.5819459673758
 30
0.0
 11
3795.438601414548
 21
966.2829126854152
 31
0.0
 70
     0
  1
<> (ACTIVE AREA)
  3
DMC
 13
3641.883601414548
 23
933.7139846484454
 33
0.0
 14
3948.993601414548
 24
933.7139846484454
 34
0.0
1001
ACAD
1000
DSTYLE
1002
{
1070
   140
1040
4.0
1070
   170
1070
     1
1070
   371
1070
     9
1070
   372
1070
     9
1002
}
  0
DIMENSION
  5
14B
  8
回12-寸法
  6
CONTINUOUS
 62
     7
  2
*D15
 10
3624.993601414548
 20
977.227332370896
 30
0.0
 11
3606.286612753559
 21
979.9273323708959
 31
0.0
 70
     0
  3
DMC
 13
3640.783601414548
 23
934.8139846484455
 33
0.0
 14
3624.993601414548
 24
942.6039846484455
 34
0.0
1001
ACAD
1000
DSTYLE
1002
{
1070
   140
1040
4.0
1070
   170
1070
     1
1070
   371
1070
     9
1070
   372
1070
     9
1002
}
  0
DIMENSION
  5
15A
  8
回12-寸法
  6
CONTINUOUS
 62
     7
  2
*D14
 10
3624.993601414548
 20
963.5819459673758
 30
0.0
 11
3604.688187556709
 21
966.2829126854152
 31
0.0
 70
     0
  1
(<>)
  3
DMC
 13
3641.883601414548
 23
933.7139846484454
 33
0.0
 14
3624.993601414548
 24
942.6039846484455
 34
0.0
1001
ACAD
1000
DSTYLE
1002
{
1070
   140
1040
4.0
1070
   170
1070
     1
1070
   371
1070
     9
1070
   372
1070
     9
1002
}
  0
DIMENSION
  5
169
  8
回12-寸法
  6
CONTINUOUS
 62
     7
  2
*D13
 10
4029.509208552721
 20
693.7239846484454
 30
0.0
 11
4026.809208552721
 21
818.1639846484461
 31
0.0
 70
     0
  3
DMC
 13
3957.873601414548
 23
942.6039846484455
 33
0.0
 14
3957.873601414548
 24
693.7239846484454
 34
0.0
 50
90.0
1001
ACAD
1000
DSTYLE
1002
{
1070
    47
1040
0.3
1070
   147
1040
0.5
1070
    48
1040
0.3
1070
    72
1070
     0
1070
    71
1070
     1
1070
   140
1040
4.0
1070
   170
1070
     1
1070
   371
1070
     9
1070
   372
1070
     9
1002
}
  0
DIMENSION
  5
176
  8
回12-寸法
  6
CONTINUOUS
 62
     7
  2
*D12
 10
4012.682007743406
 20
942.6039846484455
 30
0.0
 11
4009.982007743405
 21
960.3109733094347
 31
0.0
 70
     0
  3
DMC
 13
3950.093601414548
 23
934.8139846484455
 33
0.0
 14
3957.873601414548
 24
942.6039846484455
 34
0.0
 50
90.0
1001
ACAD
1000
DSTYLE
1002
{
1070
   140
1040
4.0
1070
   170
1070
     1
1070
   371
1070
     9
1070
   372
1070
     9
1002
}
  0
DIMENSION
  5
185
  8
回12-寸法
  6
CONTINUOUS
 62
     7
  2
*D11
 10
3998.043399671973
 20
942.6039846484455
 30
0.0
 11
3995.343399671973
 21
960.3109733094347
 31
0.0
 70
     0
  3
DMC
 13
3948.993601414548
 23
933.7139846484454
 33
0.0
 14
3957.873601414548
 24
942.6039846484455
 34
0.0
 50
90.0
1001
ACAD
1000
DSTYLE
1002
{
1070
   140
1040
4.0
1070
   170
1070
     1
1070
   371
1070
     9
1070
   372
1070
     9
1002
}
  0
DIMENSION
  5
194
  8
回12-寸法
  6
CONTINUOUS
 62
     7
  2
*D10
 10
4012.682007743406
 20
934.8139846484455
 30
0.0
 11
4009.981041025366
 21
818.1689846484461
 31
0.0
 70
     0
  3
DMC
 13
3950.093601414548
 23
701.5239846484455
 33
0.0
 14
3950.093601414548
 24
934.8139846484455
 34
0.0
 50
90.0
1001
ACAD
1000
DSTYLE
1002
{
1070
   140
1040
4.0
1070
   170
1070
     1
1070
   371
1070
     9
1070
   372
1070
     9
1002
}
  0
DIMENSION
  5
1A1
  8
回12-寸法
  6
CONTINUOUS
 62
     7
  2
*D9
 10
3998.070426699
 20
933.7139846484454
 30
0.0
 11
3995.368493262921
 21
818.1689846484461
 31
0.0
 70
     0
  1
<> (ACTIVE AREA)
  3
DMC
 13
3948.993601414548
 23
702.6239846484454
 33
0.0
 14
3948.993601414548
 24
933.7139846484454
 34
0.0
 50
90.0
1001
ACAD
1000
DSTYLE
1002
{
1070
   140
1040
4.0
1070
   170
1070
     1
1070
   371
1070
     9
1070
   372
1070
     9
1002
}
  0
DIMENSION
  5
1AE
  8
回12-寸法
  6
CONTINUOUS
 62
     7
  2
*D8
 10
3998.070426699
 20
693.7239846484454
 30
0.0
 11
3995.36945998096
 21
675.8185707906071
 31
0.0
 70
     0
  1
(<>)
  3
DMC
 13
3948.993601414548
 23
702.6239846484454
 33
0.0
 14
3957.873601414548
 24
693.7239846484454
 34
0.0
 50
90.0
1001
ACAD
1000
DSTYLE
1002
{
1070
   140
1040
4.0
1070
   170
1070
     1
1070
   371
1070
     9
1070
   372
1070
     9
1002
}
  0
DIMENSION
  5
1BD
  8
回12-寸法
  6
CONTINUOUS
 62
     7
  2
*D7
 10
4012.682007743406
 20
693.7239846484454
 30
0.0
 11
4009.982007743405
 21
677.4239846484462
 31
0.0
 70
     0
  3
DMC
 13
3950.093601414548
 23
701.5239846484455
 33
0.0
 14
3957.873601414548
 24
693.7239846484454
 34
0.0
 50
90.0
1001
ACAD
1000
DSTYLE
1002
{
1070
   140
1040
4.0
1070
   170
1070
     1
1070
   371
1070
     9
1070
   372
1070
     9
1002
}
  0
DIMENSION
  5
1CC
  8
回12-寸法
  6
CONTINUOUS
 62
     7
  2
*D6
 10
3966.594125984885
 20
635.821187773046
 30
0.0
 11
3963.894125984884
 21
609.8704003714719
 31
0.0
 70
     0
  1
2.1±{\H0.75x;0.2} [0.083±{\H0.75x;0.008}]
  3
DMC
 13
3957.373601414547
 23
641.544538784628
 33
0.0
 14
3957.873601414548
 24
635.821187773046
 34
0.0
 50
90.0
1001
ACAD
1000
DSTYLE
1002
{
1070
   140
1040
4.0
1070
   170
1070
     1
1070
   371
1070
     9
1070
   372
1070
     9
1002
}
  0
DIMENSION
  5
1DB
  8
回12-寸法
  6
CONTINUOUS
 62
     7
  2
*D5
 10
3957.373601414547
 20
647.659216752861
 30
0.0
 11
3975.772026611398
 21
647.659216752861
 31
0.0
 70
   128
  1
(<>)
  3
DMC
 13
3957.873601414548
 23
639.0371117687338
 33
0.0
 14
3957.373601414547
 24
641.5445387846281
 34
0.0
1001
ACAD
1000
DSTYLE
1002
{
1070
   140
1040
4.0
1070
   170
1070
     1
1070
   371
1070
     9
1070
   372
1070
     9
1002
}
  0
DIMENSION
  5
1EA
  8
回12-寸法
  6
CONTINUOUS
 62
     7
  2
*D4
 10
3625.493601414548
 20
648.8762400332275
 30
0.0
 11
3643.392026611399
 21
651.5762400332276
 31
0.0
 70
     0
  1
(<>)
  3
DMC
 13
3624.993601414548
 23
638.2573579593058
 33
0.0
 14
3625.493601414548
 24
641.544538784628
 34
0.0
1001
ACAD
1000
DSTYLE
1002
{
1070
   140
1040
4.0
1070
   170
1070
     1
1070
   371
1070
     9
1070
   372
1070
     9
1002
}
  0
DIMENSION
  5
1F9
  8
回12-寸法
  6
CONTINUOUS
 62
     7
  2
*D3
 10
3624.993601414548
 20
775.4487720957845
 30
0.0
 11
3569.993601414548
 21
778.1487720957845
 31
0.0
 70
     0
  3
DMC
 13
3514.993601414548
 23
811.8901846484455
 33
0.0
 14
3624.993601414548
 24
782.8788110408534
 34
0.0
1001
ACAD
1000
DSTYLE
1002
{
1070
    47
1040
1.0
1070
   147
1040
0.5
1070
    48
1040
1.0
1070
    72
1070
     0
1070
    71
1070
     1
1070
   140
1040
4.0
1070
   170
1070
     1
1070
   371
1070
     9
1070
   372
1070
     9
1002
}
  0
DIMENSION
  5
206
  8
回12-寸法
  6
CONTINUOUS
 62
     7
  2
*D2
 10
3497.249643361327
 20
810.5439846484456
 30
0.0
 11
3494.549643361327
 21
782.9639846484462
 31
0.0
 70
     0
  3
DMC
 13
3524.096656612706
 23
825.7839846484458
 33
0.0
 14
3524.096656612706
 24
810.5439846484456
 34
0.0
 50
90.0
1001
ACAD
1000
DSTYLE
1002
{
1070
    47
1040
0.2
1070
   147
1040
0.5
1070
    48
1040
0.2
1070
    72
1070
     0
1070
    71
1070
     1
1070
   140
1040
4.0
1070
   170
1070
     1
1070
   371
1070
     9
1070
   372
1070
     9
1002
}
  0
DIMENSION
  5
215
  8
回12-寸法
  6
CONTINUOUS
 62
     7
  2
*D1
 10
3497.249643361327
 20
942.6039846484455
 30
0.0
 11
3494.547709925248
 21
884.1939846484462
 31
0.0
 70
     0
  1
(<>)
  3
DMC
 13
3524.096656612706
 23
825.7839846484458
 33
0.0
 14
3625.993601414548
 24
942.6039846484455
 34
0.0
 50
90.0
1001
ACAD
1000
DSTYLE
1002
{
1070
   140
1040
4.0
1070
   170
1070
     1
1070
   371
1070
     9
1070
   372
1070
     9
1002
}
  0
CIRCLE
  5
222
  8
回13-記事
  6
CONTINUOUS
 62
     7
 10
3946.738088326876
 20
650.0339251638852
 30
0.0
 40
2.595111608462588
  0
CIRCLE
  5
223
  8
回13-記事
  6
CONTINUOUS
 62
     7
 10
3823.488828851552
 20
651.7002667351762
 30
0.0
 40
2.595111608462588
  0
CIRCLE
  5
224
  8
回13-記事
  6
CONTINUOUS
 62
     7
 10
3812.171592312576
 20
627.8937276792467
 30
0.0
 40
2.595111608462588
  0
CIRCLE
  5
225
  8
回13-記事
  6
CONTINUOUS
 62
     7
 10
3639.191872743477
 20
626.6744649115126
 30
0.0
 40
2.595111608462588
  0
CIRCLE
  5
226
  8
回13-記事
  6
CONTINUOUS
 62
     7
 10
3624.580706435465
 20
626.9138546484018
 30
0.0
 40
2.595111608462588
  0
CIRCLE
  5
227
  8
回13-記事
  6
CONTINUOUS
 62
     7
 10
3609.20808719828
 20
631.977204920513
 30
0.0
 40
2.595111608462588
  0
CIRCLE
  5
228
  8
回13-記事
  6
CONTINUOUS
 62
     7
 10
3564.205136692923
 20
646.8699695317273
 30
0.0
 40
2.595111608462588
  0
CIRCLE
  5
229
  8
回13-記事
  6
CONTINUOUS
 62
     7
 10
3533.157846461521
 20
647.1301599452708
 30
0.0
 40
2.595111608462588
  0
CIRCLE
  5
22A
  8
回13-記事
  6
CONTINUOUS
 62
     7
 10
3513.226377729496
 20
632.0984276364933
 30
0.0
 40
2.595111608462588
  0
POLYLINE
  5
22B
  8
回13-記事
  6
DASHED2
 62
     7
 66
     1
 10
0.0
 20
0.0
 30
0.0
 70
     1
  0
VERTEX
  5
31E
  8
回13-記事
  6
DASHED2
 62
     7
 10
3616.993601414547
 20
811.0439846484448
 30
0.0
  0
VERTEX
  5
320
  8
回13-記事
  6
DASHED2
 62
     7
 10
3634.551601375854
 20
811.0439846484448
 30
0.0
  0
VERTEX
  5
321
  8
回13-記事
  6
DASHED2
 62
     7
 10
3634.551601375854
 20
825.2839846484452
 30
0.0
  0
VERTEX
  5
322
  8
回13-記事
  6
DASHED2
 62
     7
 10
3616.993601414547
 20
825.2839846484452
 30
0.0
  0
SEQEND
  5
31F
  8
回91-枠英1
  6
CONTINUOUS
 62
     7
  0
INSERT
  5
22C
  8
回91-枠英1
  6
CONTINUOUS
 62
     7
 66
     1
  2
*U21
 10
0.0
 20
0.0
 30
0.0
1001
ACAD
1000
ASC_BOUNDS
1002
{
1070
    19
1005
22D
1002
}
  0
SEQEND
  5
32E
  8
回91-枠英1
  6
CONTINUOUS
 62
     7
  0
INSERT
  5
22D
  8
回13-記事
  6
CONTINUOUS
 62
     8
 66
     1
  2
*X22
 10
0.0
 20
0.0
 30
0.0
1001
ACAD
1000
HATCH
1002
{
1070
    19
1000
ANSI31
1040
1.0
1040
0.0
1000
ASC_BOUNDS
1070
     1
1070
     2
1070
     1
1005
22C
1000
ASC_SEEDPOINT
1011
999.9411906975419
1021
-57.25164155792936
1031
0.0
1000
R14_HATCH_DATA
1000
22D
1011
1.0
1021
0.0
1031
0.0
1011
0.0
1021
1.0
1031
0.0
1011
0.0
1021
0.0
1031
1.0
1040
0.0
1010
0.0
1020
0.0
1030
1.0
1000
ANSI31
1070
     0
1070
     1
1071
        1
1071
        1
1071
        8
1070
     1
1040
3616.993601414547
1040
825.2839846484452
1040
3616.993601414547
1040
811.0439846484448
1070
     1
1040
3616.993601414547
1040
811.0439846484448
1040
3625.493601414547
1040
811.0439846484448
1070
     1
1040
3625.493601414547
1040
811.0439846484448
1040
3625.493601414547
1040
803.9239846484449
1070
     1
1040
3625.493601414547
1040
803.9239846484449
1040
3634.551601375854
1040
803.9239846484449
1070
     1
1040
3634.551601375854
1040
803.9239846484449
1040
3634.551601375854
1040
832.4039846484451
1070
     1
1040
3634.551601375854
1040
832.4039846484451
1040
3625.493601414547
1040
832.4039846484451
1070
     1
1040
3625.493601414547
1040
832.4039846484451
1040
3625.493601414547
1040
825.2839846484452
1070
     1
1040
3625.493601414547
1040
825.2839846484452
1040
3616.993601414547
1040
825.2839846484452
1071
        1
1005
22C
1070
     0
1070
     1
1040
0.0
1040
1.0
1070
     0
1070
     1
1040
0.7853981633974483
1040
999.9411906975419
1040
-57.25164155792936
1040
-2.245064030267287
1040
2.245064030267288
1070
     0
1071
        1
1040
999.9411906975419
1040
-57.25164155792936
1040
0.0
1002
}
  0
SEQEND
  5
33C
  8
回91-枠英1
  6
CONTINUOUS
 62
     7
  0
TEXT
  5
22E
  8
回12-寸法
  6
CONTINUOUS
 62
     7
 10
3549.32037938455
 20
978.0693404024667
 30
0.0
 40
4.0
  1
(Insulation Area)
1001
ACAD
1000
MTEXTBEGIN
1070
    73
1070
     1
1070
    44
1040
1.0
1070
    74
1070
     0
1000
MTEXTEND
  0
TEXT
  5
22F
  8
回12-寸法
 62
     5
 10
3606.35018289917
 20
803.7184549935808
 30
0.0
 40
4.0
  1
2-R2
1001
ACAD
1000
MTEXTBEGIN
1070
    73
1070
     1
1070
    44
1040
1.0
1070
    74
1070
     0
1000
MTEXTEND
  0
INSERT
  5
230
  8
回12-寸法
 62
     3
 66
     1
  2
*X23
 10
0.0
 20
0.0
 30
0.0
  0
SEQEND
  5
343
  8
回91-枠英1
  6
CONTINUOUS
 62
     7
  0
LINE
  5
231
  8
回13-記事
 62
     7
 10
3524.005507627931
 20
643.5609523477634
 30
0.0
 11
3524.094242415155
 21
642.7745963328065
 31
0.0
  0
LINE
  5
232
  8
回13-記事
 62
     7
 10
3523.194789491243
 20
643.5223789704508
 30
0.0
 11
3524.005507627931
 21
643.5609523477634
 31
0.0
  0
LINE
  5
233
  8
回13-記事
 62
     7
 10
3521.529601513133
 20
642.5998966726789
 30
0.0
 11
3523.194789491243
 21
643.5223789704508
 31
0.0
  0
LINE
  5
234
  8
回13-記事
 62
     7
 10
3523.213399362369
 20
641.9632507414613
 30
0.0
 11
3523.161605408603
 21
642.723600774242
 31
0.0
  0
LINE
  5
235
  8
回13-記事
 62
     7
 10
3522.778136641611
 20
641.9210669323953
 30
0.0
 11
3522.726342687845
 21
642.6814169651763
 31
0.0
  0
LINE
  5
236
  8
回13-記事
 62
     7
 10
3519.895640092967
 20
641.6417076437591
 30
0.0
 11
3526.510784564022
 21
642.2828192712926
 31
0.0
  0
ARC
  5
237
  8
回13-記事
 62
     7
 10
3519.895640092967
 20
641.3717076437591
 30
0.0
 40
0.2700000000000102
 50
90.0
 51
270.0
  0
ARC
  5
238
  8
回13-記事
 62
     7
 10
3526.82998522288
 20
644.1101613072167
 30
0.0
 40
0.54
 50
45.00000000000892
 51
134.9999999999911
  0
LINE
  5
239
  8
回13-記事
 62
     7
 10
3526.44814756104
 20
644.4919989690576
 30
0.0
 11
3525.532219269304
 21
642.8725492538149
 31
0.0
  0
LINE
  5
23A
  8
回13-記事
 62
     7
 10
3528.198867398083
 20
643.5049544600712
 30
0.0
 11
3527.211822884721
 21
644.4919989690576
 31
0.0
  0
LINE
  5
23B
  8
回13-記事
 62
     7
 10
3529.076399161443
 20
641.1017076437588
 30
0.0
 11
3529.076399161443
 21
643.5049544600712
 31
0.0
  0
LINE
  5
23C
  8
回13-記事
 62
     7
 10
3527.217425529841
 20
643.5049544600712
 30
0.0
 11
3529.076399161443
 21
643.5049544600712
 31
0.0
  0
LINE
  5
23D
  8
回13-記事
 62
     7
 10
3525.827863501863
 20
641.1017076437588
 30
0.0
 11
3527.217425529841
 21
643.5049544600712
 31
0.0
  0
LINE
  5
23E
  8
回13-記事
 62
     7
 10
3519.404389764666
 20
642.4551302962778
 30
0.0
 11
3525.532219269304
 21
642.8725492538149
 31
0.0
  0
LINE
  5
23F
  8
回13-記事
 62
     7
 10
3518.893367112146
 20
641.9441076437569
 30
0.0
 11
3519.404389764666
 21
642.4551302962778
 31
0.0
  0
ARC
  5
240
  8
回13-記事
 62
     7
 10
3518.050967112146
 20
641.9441076437591
 30
0.0
 40
0.8423999999999999
 50
270.0
 51
359.9999999998567
  0
LINE
  5
241
  8
回13-記事
 62
     7
 10
3957.373601414548
 20
639.0371117687338
 30
0.0
 11
3957.873601414548
 21
639.0371117687338
 31
0.0
  0
LINE
  5
242
  8
回13-記事
  6
CONTINUOUS
 62
     7
 10
3957.373601414548
 20
640.0903046217198
 30
0.0
 11
3957.373601414548
 21
639.0371117687338
 31
0.0
  0
LINE
  5
243
  8
回13-記事
  6
CONTINUOUS
 62
     7
 10
3618.08201934046
 20
640.5069161474211
 30
0.0
 11
3609.062683115553
 21
634.6544314527328
 31
0.0
  0
INSERT
  5
244
  8
回13-記事
 62
     8
 66
     1
  2
*X24
 10
0.0
 20
0.0
 30
0.0
1001
ACAD
1000
HATCH
1002
{
1070
    19
1000
ANSI31
1040
0.5
1040
0.0
1000
R14_HATCH_DATA
1000
244
1011
1.0
1021
0.0
1031
0.0
1011
0.0
1021
1.0
1031
0.0
1011
0.0
1021
0.0
1031
1.0
1040
0.0
1010
0.0
1020
0.0
1030
1.0
1000
ANSI31
1070
     0
1070
     1
1071
        1
1071
        7
1070
     0
1070
     1
1071
        8
1040
3634.551601375855
1040
642.4612182050171
1040
3624.538640357402
1040
642.4612182050171
1040
3624.538640357402
1040
642.0002267360107
1040
3616.993601414548
1040
642.0002267360107
1040
3616.993601414548
1040
641.0452656788652
1040
3625.493601414548
1040
641.0452656788652
1040
3625.493601414547
1040
641.544538784628
1040
3634.551601375856
1040
641.544538784628
1071
        0
1070
     0
1070
     1
1040
0.0
1040
0.5
1070
     0
1070
     1
1040
0.7853981633974483
1040
4628.262747300683
1040
655.8455573832397
1040
-1.122532015133643
1040
1.122532015133644
1070
     0
1040
0.0571158395912281
1071
        1
1040
3628.900509980427
1040
641.9770035991096
1040
0.0
1002
}
  0
SEQEND
  5
350
  8
回91-枠英1
  6
CONTINUOUS
 62
     7
  0
LINE
  5
245
  8
回13-記事
 62
     7
 10
3616.093601414548
 20
641.0452656788652
 30
0.0
 11
3616.093601414548
 21
640.0903046217197
 31
0.0
  0
LINE
  5
246
  8
回13-記事
 62
     8
 10
3625.493601414548
 20
641.0452656788652
 30
0.0
 11
3616.093601414548
 21
641.0452656788652
 31
0.0
  0
POLYLINE
  5
247
  8
回13-記事
  6
DASHED2
 62
     7
 66
     1
 10
0.0
 20
0.0
 30
0.0
 70
     1
  0
VERTEX
  5
351
  8
回13-記事
  6
DASHED2
 62
     7
 10
3514.993601414548
 20
811.8901846484455
 30
0.0
  0
VERTEX
  5
353
  8
回13-記事
  6
DASHED2
 62
     7
 10
3528.709601414548
 20
811.8901846484455
 30
0.0
  0
VERTEX
  5
354
  8
回13-記事
  6
DASHED2
 62
     7
 10
3528.709601414548
 20
824.4377846484455
 30
0.0
  0
VERTEX
  5
355
  8
回13-記事
  6
DASHED2
 62
     7
 10
3514.993601414548
 20
824.4377846484455
 30
0.0
  0
SEQEND
  5
352
  8
回91-枠英1
  6
CONTINUOUS
 62
     7
  0
POLYLINE
  5
248
  8
回13-記事
  6
DASHED2
 62
     7
 66
     1
 10
0.0
 20
0.0
 30
0.0
 70
     1
  0
VERTEX
  5
356
  8
回13-記事
  6
DASHED2
 62
     7
 10
3516.738601414548
 20
641.1017076437588
 30
0.0
  0
VERTEX
  5
358
  8
回13-記事
  6
DASHED2
 62
     7
 10
3530.454601414547
 20
641.1017076437588
 30
0.0
  0
VERTEX
  5
359
  8
回13-記事
  6
DASHED2
 62
     7
 10
3530.454601414547
 20
637.9777076437589
 30
0.0
  0
VERTEX
  5
35A
  8
回13-記事
  6
DASHED2
 62
     7
 10
3516.738601414548
 20
637.9777076437589
 30
0.0
  0
SEQEND
  5
357
  8
回91-枠英1
  6
CONTINUOUS
 62
     7
  0
TEXT
  5
249
  8
回13-記事
 62
     5
 10
3959.97301140262
 20
723.7046876195079
 30
0.0
 40
4.0
  1
PART No.
1001
ACAD
1000
MTEXTBEGIN
1070
    73
1070
     1
1070
    44
1040
1.0
1070
    74
1070
     0
1000
MTEXTEND
  0
INSERT
  5
24A
  8
回13-記事
 62
     3
 66
     1
  2
*X25
 10
0.0
 20
0.0
 30
0.0
  0
SEQEND
  5
361
  8
回91-枠英1
  6
CONTINUOUS
 62
     7
  0
INSERT
  5
24B
  8
回13-記事
  6
CONTINUOUS
 62
     5
 66
     1
  2
*X26
 10
0.0
 20
0.0
 30
0.0
  0
SEQEND
  5
367
  8
回91-枠英1
  6
CONTINUOUS
 62
     7
  0
INSERT
  5
24C
  8
回13-記事
  6
CONTINUOUS
 62
     7
 66
     1
  2
*X27
 10
0.0
 20
0.0
 30
0.0
  0
SEQEND
  5
36E
  8
回91-枠英1
  6
CONTINUOUS
 62
     7
  0
TEXT
  5
24D
  8
回13-記事
  6
CONTINUOUS
 62
     5
 10
3520.947207751004
 20
806.5208411564363
 30
0.0
 40
4.777499999999998
  1
5
 50
90.0
  0
TEXT
  5
24E
  8
回13-記事
  6
CONTINUOUS
 62
     5
 10
3520.947207751004
 20
827.0128222821453
 30
0.0
 40
4.777499999999998
  1
1
 50
90.0
  0
INSERT
  5
24F
  8
回13-記事
  6
CONTINUOUS
 62
     8
 66
     1
  2
*X28
 10
0.0
 20
0.0
 30
0.0
1001
ACAD
1000
HATCH
1002
{
1070
    19
1000
ANSI31
1040
1.0
1040
3.141592653589793
1000
ASC_BOUNDS
1070
     1
1070
     2
1070
     1
1005
250
1000
ASC_SEEDPOINT
1011
3426.06889117239
1021
844.4796936727685
1031
0.0
1000
R14_HATCH_DATA
1000
24F
1011
1.0
1021
0.0
1031
0.0
1011
0.0
1021
1.0
1031
0.0
1011
0.0
1021
0.0
1031
1.0
1040
0.0
1010
0.0
1020
0.0
1030
1.0
1000
ANSI31
1070
     0
1070
     1
1071
        1
1071
        1
1071
        8
1070
     1
1040
3576.763656071861
1040
819.2470031119555
1040
3576.763656071861
1040
817.2470031119555
1070
     2
1040
3577.763656071862
1040
817.2470031119555
1040
1.0
1040
3.141592653589793
1040
4.712388980384689
1070
     1
1070
     1
1040
3577.763656071862
1040
816.2470031119553
1040
3601.763656071862
1040
816.2470031119553
1070
     2
1040
3601.763656071862
1040
817.2470031119555
1040
1.0
1040
4.712388980384689
1040
6.283185307179586
1070
     1
1070
     1
1040
3602.763656071862
1040
817.2470031119555
1040
3602.763656071862
1040
819.2470031119555
1070
     2
1040
3601.763656071862
1040
819.2470031119555
1040
1.0
1040
0.0
1040
1.570796326794896
1070
     1
1070
     1
1040
3601.763656071862
1040
820.2470031119554
1040
3577.763656071862
1040
820.2470031119554
1070
     2
1040
3577.763656071862
1040
819.2470031119555
1040
1.0
1040
1.570796326794896
1040
3.141592653589793
1070
     1
1071
        1
1005
250
1070
     0
1070
     1
1040
3.141592653589793
1040
1.0
1070
     0
1070
     1
1040
2.356194490192344
1040
3426.06889117239
1040
844.4796936727685
1040
2.245064030267287
1040
2.245064030267288
1070
     0
1071
        1
1040
3426.06889117239
1040
844.4796936727685
1040
0.0
1002
}
  0
SEQEND
  5
378
  8
回91-枠英1
  6
CONTINUOUS
 62
     7
  0
POLYLINE
  5
250
  8
回13-記事
  6
PHANTOM2
 62
     8
 66
     1
 10
0.0
 20
0.0
 30
0.0
 70
     1
  0
VERTEX
  5
379
  8
回13-記事
  6
PHANTOM2
 62
     8
 10
3576.763656071861
 20
819.2470031119555
 30
0.0
  0
VERTEX
  5
37B
  8
回13-記事
  6
PHANTOM2
 62
     8
 10
3576.763656071861
 20
817.2470031119555
 30
0.0
 42
0.4142135623730951
  0
VERTEX
  5
37C
  8
回13-記事
  6
PHANTOM2
 62
     8
 10
3577.763656071862
 20
816.2470031119553
 30
0.0
  0
VERTEX
  5
37D
  8
回13-記事
  6
PHANTOM2
 62
     8
 10
3601.763656071862
 20
816.2470031119553
 30
0.0
 42
0.4142135623730951
  0
VERTEX
  5
37E
  8
回13-記事
  6
PHANTOM2
 62
     8
 10
3602.763656071862
 20
817.2470031119555
 30
0.0
  0
VERTEX
  5
37F
  8
回13-記事
  6
PHANTOM2
 62
     8
 10
3602.763656071862
 20
819.2470031119555
 30
0.0
 42
0.4142135623730951
  0
VERTEX
  5
380
  8
回13-記事
  6
PHANTOM2
 62
     8
 10
3601.763656071862
 20
820.2470031119554
 30
0.0
  0
VERTEX
  5
381
  8
回13-記事
  6
PHANTOM2
 62
     8
 10
3577.763656071862
 20
820.2470031119554
 30
0.0
 42
0.4142135623730951
  0
SEQEND
  5
37A
  8
回91-枠英1
  6
CONTINUOUS
 62
     7
  0
LINE
  5
252
  8
回10-ﾃｰﾙ
  6
CONTINUOUS
 62
     8
 10
3625.493601414548
 20
827.7839846484459
 30
0.0
 11
3625.493601414548
 21
828.1639846484456
 31
0.0
  0
ARC
  5
256
  8
回10-ﾃｰﾙ
  6
CONTINUOUS
 62
     7
 10
3623.493601414548
 20
827.7839846484459
 30
0.0
 40
2.0
 50
270.0
 51
0.0
  0
LINE
  5
257
  8
回10-ﾃｰﾙ
  6
CONTINUOUS
 62
     8
 10
3625.493601414548
 20
808.5439846484455
 30
0.0
 11
3625.493601414548
 21
808.1639846484454
 31
0.0
  0
ARC
  5
258
  8
回10-ﾃｰﾙ
  6
CONTINUOUS
 62
     7
 10
3623.493601414548
 20
808.5439846484455
 30
0.0
 40
2.0
 50
0.0
 51
90.0
  0
ARC
  5
259
  8
回10-ﾃｰﾙ
 62
     7
 10
3523.748601414548
 20
825.2839846484457
 30
0.0
 40
0.5
 50
90.0
 51
180.0
  0
ARC
  5
25A
  8
回10-ﾃｰﾙ
 62
     7
 10
3523.748601414548
 20
811.0439846484457
 30
0.0
 40
0.5
 50
180.0
 51
270.0
  0
LINE
  5
25B
  8
回10-ﾃｰﾙ
 62
     7
 10
3523.248601414548
 20
811.0439846484457
 30
0.0
 11
3523.248601414548
 21
825.2839846484457
 31
0.0
  0
LINE
  5
25C
  8
回10-ﾃｰﾙ
 62
     7
 10
3623.493601414548
 20
825.7839846484458
 30
0.0
 11
3523.748601414548
 21
825.7839846484458
 31
0.0
  0
LINE
  5
25D
  8
回10-ﾃｰﾙ
 62
     7
 10
3623.493601414548
 20
810.5439846484454
 30
0.0
 11
3523.748601414548
 21
810.5439846484454
 31
0.0
  0
LINE
  5
25E
  8
回12-寸法
  6
CENTER2
 62
     1
 10
3960.183321377582
 20
818.1639846484454
 30
0.0
 11
3509.197057342402
 21
818.1639846484454
 31
0.0
  0
TEXT
  5
260
  8
回13-記事
  6
CONTINUOUS
 62
     5
 10
3578.244320343977
 20
645.8409000267529
 30
0.0
 40
4.0
  1
FST-T150C110A
1001
ACAD
1000
MTEXTBEGIN
1070
    73
1070
     1
1070
    44
1040
1.0
1070
    74
1070
     0
1000
MTEXTEND
  0
TEXT
  5
261
  8
回13-記事
  6
CONTINUOUS
 62
     5
 10
3577.452815425326
 20
652.2283942062075
 30
0.0
 40
4.0
  1
PART No. LABEL
1001
ACAD
1000
MTEXTBEGIN
1070
    73
1070
     1
1070
    44
1040
1.0
1070
    74
1070
     0
1000
MTEXTEND
  0
INSERT
  5
262
  8
回13-記事
  6
CONTINUOUS
 62
     7
 66
     1
  2
*X29
 10
0.0
 20
0.0
 30
0.0
  0
SEQEND
  5
388
  8
回91-枠英1
  6
CONTINUOUS
 62
     7
  0
POLYLINE
  5
263
  8
回13-記事
  6
CONTINUOUS
 62
     7
 66
     1
 10
0.0
 20
0.0
 30
0.0
 70
     1
  0
VERTEX
  5
389
  8
回13-記事
  6
CONTINUOUS
 62
     7
 10
3568.713656110554
 20
640.0903046217197
 30
0.0
  0
VERTEX
  5
38B
  8
回13-記事
  6
CONTINUOUS
 62
     7
 10
3594.713656110554
 20
640.0903046217197
 30
0.0
  0
VERTEX
  5
38C
  8
回13-記事
  6
CONTINUOUS
 62
     7
 10
3594.713656110554
 20
641.0701275673466
 30
0.0
  0
VERTEX
  5
38D
  8
回13-記事
  6
CONTINUOUS
 62
     7
 10
3568.713656110554
 20
641.0701275673466
 30
0.0
  0
SEQEND
  5
38A
  8
回91-枠英1
  6
CONTINUOUS
 62
     7
  0
LINE
  5
264
  8
回13-記事
  6
CONTINUOUS
 62
     8
 10
3634.551601375855
 20
642.4612182050171
 30
0.0
 11
3624.538640357402
 21
642.4612182050171
 31
0.0
  0
LINE
  5
265
  8
回13-記事
  6
CONTINUOUS
 62
     8
 10
3634.551601375855
 20
641.544538784628
 30
0.0
 11
3634.551601375855
 21
642.4612182050171
 31
0.0
  0
LINE
  5
266
  8
回13-記事
  6
CONTINUOUS
 62
     8
 10
3625.493601414548
 20
641.544538784628
 30
0.0
 11
3634.551601375855
 21
641.544538784628
 31
0.0
  0
LINE
  5
267
  8
回13-記事
  6
CONTINUOUS
 62
     8
 10
3624.538640357402
 20
642.4612182050171
 30
0.0
 11
3624.538640357402
 21
642.0002267360107
 31
0.0
  0
LINE
  5
268
  8
回13-記事
  6
CONTINUOUS
 62
     8
 10
3616.993601414548
 20
642.0002267360107
 30
0.0
 11
3616.993601414548
 21
641.0452656788652
 31
0.0
  0
LINE
  5
269
  8
回13-記事
  6
CONTINUOUS
 62
     8
 10
3616.993601414548
 20
642.0002267360107
 30
0.0
 11
3624.538640357402
 21
642.0002267360107
 31
0.0
  0
LINE
  5
26A
  8
回13-記事
  6
CONTINUOUS
 62
     7
 10
3629.61057757188
 20
641.7597103670255
 30
0.0
 11
3625.206180140132
 21
629.6190804421179
 31
0.0
  0
ARC
  5
26B
  8
回13-記事
  6
CONTINUOUS
 62
     7
 10
3949.250350929118
 20
639.0371117687337
 30
0.0
 40
0.307948428894622
 50
0.0
 51
180.0
  0
ARC
  5
26C
  8
回13-記事
  6
CONTINUOUS
 62
     7
 10
3946.750350929118
 20
639.0371117687337
 30
0.0
 40
0.307948428894622
 50
0.0
 51
180.0
  0
TEXT
  5
26D
  8
回13-記事
  6
CONTINUOUS
 62
     7
 10
3623.018675671119
 20
624.9206712855509
 30
0.0
 40
4.0
  1
6
  0
LINE
  5
26E
  8
回13-記事
  6
CONTINUOUS
 62
     7
 10
3630.518275675499
 20
635.1016217523554
 30
0.0
 11
3625.206180140132
 21
629.6190804421179
 31
0.0
  0
LINE
  5
26F
  8
回13-記事
  6
CONTINUOUS
 62
     7
 10
3634.551601375855
 20
634.8662267159006
 30
0.0
 11
3634.551601375855
 21
635.821187773046
 31
0.0
  0
LINE
  5
270
  8
回13-記事
  6
CONTINUOUS
 62
     7
 10
3624.038640357402
 20
634.8662267159006
 30
0.0
 11
3634.551601375855
 21
634.8662267159006
 31
0.0
  0
LINE
  5
271
  8
回13-記事
  6
CONTINUOUS
 62
     7
 10
3624.038640357402
 20
637.3023969021603
 30
0.0
 11
3624.038640357402
 21
634.8662267159006
 31
0.0
  0
LINE
  5
272
  8
回13-記事
  6
CONTINUOUS
 62
     7
 10
3616.993601414548
 20
637.3023969021603
 30
0.0
 11
3624.038640357402
 21
637.3023969021603
 31
0.0
  0
LINE
  5
273
  8
回13-記事
  6
CONTINUOUS
 62
     7
 10
3616.993601414548
 20
638.2573579593058
 30
0.0
 11
3616.993601414548
 21
637.3023969021603
 31
0.0
  0
TEXT
  5
274
  8
回13-記事
  6
CONTINUOUS
 62
     5
 10
3580.969548374965
 20
624.106705221465
 30
0.0
 40
4.0
  1
LOT LABEL
1001
ACAD
1000
MTEXTBEGIN
1070
    73
1070
     1
1070
    44
1040
1.0
1070
    74
1070
     0
1000
MTEXTEND
  0
INSERT
  5
275
  8
回13-記事
  6
CONTINUOUS
 62
     7
 66
     1
  2
*X30
 10
0.0
 20
0.0
 30
0.0
  0
SEQEND
  5
394
  8
回91-枠英1
  6
CONTINUOUS
 62
     7
  0
POLYLINE
  5
276
  8
回13-記事
  6
CONTINUOUS
 62
     7
 66
     1
 10
0.0
 20
0.0
 30
0.0
 70
     1
  0
VERTEX
  5
395
  8
回13-記事
  6
CONTINUOUS
 62
     7
 10
3568.713656110554
 20
637.2775350136789
 30
0.0
  0
VERTEX
  5
397
  8
回13-記事
  6
CONTINUOUS
 62
     7
 10
3594.713656110554
 20
637.2775350136789
 30
0.0
  0
VERTEX
  5
398
  8
回13-記事
  6
CONTINUOUS
 62
     7
 10
3594.713656110554
 20
638.2573579593058
 30
0.0
  0
VERTEX
  5
399
  8
回13-記事
  6
CONTINUOUS
 62
     7
 10
3568.713656110554
 20
638.2573579593058
 30
0.0
  0
SEQEND
  5
396
  8
回91-枠英1
  6
CONTINUOUS
 62
     7
  0
TEXT
  5
277
  8
回13-記事
  6
CONTINUOUS
 62
     7
 10
3945.247695502388
 20
647.7940058370791
 30
0.0
 40
4.0
  1
7
  0
LINE
  5
278
  8
回13-記事
  6
CONTINUOUS
 62
     7
 10
3953.069937885313
 20
639.5663780355057
 30
0.0
 11
3947.72412637095
 21
647.0610862181338
 31
0.0
  0
TEXT
  5
279
  8
回13-記事
  6
CONTINUOUS
 62
     7
 10
3637.724501309266
 20
624.5230393808157
 30
0.0
 40
4.0
  1
7
  0
LINE
  5
27A
  8
回13-記事
  6
CONTINUOUS
 62
     7
 10
3635.410986405156
 20
639.5663780355057
 30
0.0
 11
3638.363635479617
 21
629.3970141268045
 31
0.0
  0
TEXT
  5
27B
  8
回13-記事
  6
CONTINUOUS
 62
     7
 10
3511.803763294317
 20
630.1712114442661
 30
0.0
 40
4.0
  1
8
  0
TEXT
  5
27C
  8
回13-記事
  6
CONTINUOUS
 62
     7
 10
3531.890813367979
 20
645.0740679280038
 30
0.0
 40
4.0
  1
5
  0
TEXT
  5
27D
  8
回13-記事
  6
CONTINUOUS
 62
     7
 10
3607.670091137082
 20
630.0122080363303
 30
0.0
 40
4.0
  1
4
  0
TEXT
  5
27E
  8
回13-記事
  6
CONTINUOUS
 62
     7
 10
3563.048279579192
 20
644.9254651927981
 30
0.0
 40
4.0
  1
3
  0
TEXT
  5
27F
  8
回13-記事
  6
CONTINUOUS
 62
     7
 10
3810.772701304701
 20
625.9762582413081
 30
0.0
 40
4.0
  1
2
  0
TEXT
  5
280
  8
回13-記事
  6
CONTINUOUS
 62
     7
 10
3822.082863293655
 20
649.6896247221961
 30
0.0
 40
4.0
  1
1
  0
LINE
  5
281
  8
回13-記事
  6
CONTINUOUS
 62
     7
 10
3520.087120034753
 20
639.6745216698218
 30
0.0
 11
3515.218623642552
 21
633.983860811446
 31
0.0
  0
LINE
  5
282
  8
回13-記事
  6
CONTINUOUS
 62
     7
 10
3531.612749262154
 20
640.447152850455
 30
0.0
 11
3533.089210605373
 21
644.3854844324699
 31
0.0
  0
LINE
  5
283
  8
回13-記事
  6
CONTINUOUS
 62
     7
 10
3607.643851687838
 20
638.5952003052594
 30
0.0
 11
3609.062683115553
 21
634.6544314527328
 31
0.0
  0
LINE
  5
284
  8
回13-記事
  6
CONTINUOUS
 62
     7
 10
3562.178304664466
 20
639.7747221615531
 30
0.0
 11
3563.72836006104
 21
644.1147912029032
 31
0.0
  0
LINE
  5
285
  8
回13-記事
  6
CONTINUOUS
 62
     7
 10
3809.011317261898
 20
637.7980849768796
 30
0.0
 11
3811.129546256624
 21
630.8722966631755
 31
0.0
  0
LINE
  5
286
  8
回13-記事
  6
CONTINUOUS
 62
     7
 10
3819.769348389545
 20
640.7089453837602
 30
0.0
 11
3822.907108520378
 21
648.3219584551047
 31
0.0
  0
ARC
  5
287
  8
回13-記事
  6
CONTINUOUS
 62
     7
 10
3641.750350929117
 20
639.0371117687337
 30
0.0
 40
0.307948428894622
 50
0.0
 51
180.0
  0
ARC
  5
288
  8
回13-記事
  6
CONTINUOUS
 62
     7
 10
3644.250350929117
 20
639.0371117687337
 30
0.0
 40
0.307948428894622
 50
0.0
 51
180.0
  0
ARC
  5
289
  8
回13-記事
  6
CONTINUOUS
 62
     7
 10
3646.750350929118
 20
639.0371117687337
 30
0.0
 40
0.307948428894622
 50
0.0
 51
180.0
  0
ARC
  5
28A
  8
回13-記事
  6
CONTINUOUS
 62
     7
 10
3649.250350929118
 20
639.0371117687337
 30
0.0
 40
0.307948428894622
 50
0.0
 51
180.0
  0
ARC
  5
28B
  8
回13-記事
  6
CONTINUOUS
 62
     7
 10
3651.750350929118
 20
639.0371117687337
 30
0.0
 40
0.307948428894622
 50
0.0
 51
180.0
  0
ARC
  5
28C
  8
回13-記事
  6
CONTINUOUS
 62
     7
 10
3654.250350929117
 20
639.0371117687337
 30
0.0
 40
0.307948428894622
 50
0.0
 51
180.0
  0
ARC
  5
28D
  8
回13-記事
  6
CONTINUOUS
 62
     7
 10
3656.750350929117
 20
639.0371117687337
 30
0.0
 40
0.307948428894622
 50
0.0
 51
180.0
  0
ARC
  5
28E
  8
回13-記事
  6
CONTINUOUS
 62
     7
 10
3659.250350929118
 20
639.0371117687337
 30
0.0
 40
0.307948428894622
 50
0.0
 51
180.0
  0
ARC
  5
28F
  8
回13-記事
  6
CONTINUOUS
 62
     7
 10
3661.750350929118
 20
639.0371117687337
 30
0.0
 40
0.307948428894622
 50
0.0
 51
180.0
  0
ARC
  5
290
  8
回13-記事
  6
CONTINUOUS
 62
     7
 10
3664.250350929118
 20
639.0371117687337
 30
0.0
 40
0.307948428894622
 50
0.0
 51
180.0
  0
ARC
  5
291
  8
回13-記事
  6
CONTINUOUS
 62
     7
 10
3666.750350929117
 20
639.0371117687337
 30
0.0
 40
0.307948428894622
 50
0.0
 51
180.0
  0
ARC
  5
292
  8
回13-記事
  6
CONTINUOUS
 62
     7
 10
3669.250350929117
 20
639.0371117687337
 30
0.0
 40
0.307948428894622
 50
0.0
 51
180.0
  0
ARC
  5
293
  8
回13-記事
  6
CONTINUOUS
 62
     7
 10
3671.750350929118
 20
639.0371117687337
 30
0.0
 40
0.307948428894622
 50
0.0
 51
180.0
  0
ARC
  5
294
  8
回13-記事
  6
CONTINUOUS
 62
     7
 10
3674.250350929118
 20
639.0371117687337
 30
0.0
 40
0.307948428894622
 50
0.0
 51
180.0
  0
ARC
  5
295
  8
回13-記事
  6
CONTINUOUS
 62
     7
 10
3676.750350929117
 20
639.0371117687337
 30
0.0
 40
0.307948428894622
 50
0.0
 51
180.0
  0
ARC
  5
296
  8
回13-記事
  6
CONTINUOUS
 62
     7
 10
3679.250350929117
 20
639.0371117687337
 30
0.0
 40
0.307948428894622
 50
0.0
 51
180.0
  0
ARC
  5
297
  8
回13-記事
  6
CONTINUOUS
 62
     7
 10
3681.750350929117
 20
639.0371117687337
 30
0.0
 40
0.307948428894622
 50
0.0
 51
180.0
  0
ARC
  5
298
  8
回13-記事
  6
CONTINUOUS
 62
     7
 10
3684.250350929118
 20
639.0371117687337
 30
0.0
 40
0.307948428894622
 50
0.0
 51
180.0
  0
ARC
  5
299
  8
回13-記事
  6
CONTINUOUS
 62
     7
 10
3686.750350929118
 20
639.0371117687337
 30
0.0
 40
0.307948428894622
 50
0.0
 51
180.0
  0
ARC
  5
29A
  8
回13-記事
  6
CONTINUOUS
 62
     7
 10
3689.250350929118
 20
639.0371117687337
 30
0.0
 40
0.307948428894622
 50
0.0
 51
180.0
  0
ARC
  5
29B
  8
回13-記事
  6
CONTINUOUS
 62
     7
 10
3691.750350929118
 20
639.0371117687337
 30
0.0
 40
0.307948428894622
 50
0.0
 51
180.0
  0
ARC
  5
29C
  8
回13-記事
  6
CONTINUOUS
 62
     7
 10
3694.250350929117
 20
639.0371117687337
 30
0.0
 40
0.307948428894622
 50
0.0
 51
180.0
  0
ARC
  5
29D
  8
回13-記事
  6
CONTINUOUS
 62
     7
 10
3696.750350929118
 20
639.0371117687337
 30
0.0
 40
0.307948428894622
 50
0.0
 51
180.0
  0
ARC
  5
29E
  8
回13-記事
  6
CONTINUOUS
 62
     7
 10
3699.250350929118
 20
639.0371117687337
 30
0.0
 40
0.307948428894622
 50
0.0
 51
180.0
  0
ARC
  5
29F
  8
回13-記事
  6
CONTINUOUS
 62
     7
 10
3701.750350929117
 20
639.0371117687337
 30
0.0
 40
0.307948428894622
 50
0.0
 51
180.0
  0
ARC
  5
2A0
  8
回13-記事
  6
CONTINUOUS
 62
     7
 10
3704.250350929117
 20
639.0371117687337
 30
0.0
 40
0.307948428894622
 50
0.0
 51
180.0
  0
ARC
  5
2A1
  8
回13-記事
  6
CONTINUOUS
 62
     7
 10
3706.750350929117
 20
639.0371117687337
 30
0.0
 40
0.307948428894622
 50
0.0
 51
180.0
  0
ARC
  5
2A2
  8
回13-記事
  6
CONTINUOUS
 62
     7
 10
3709.250350929118
 20
639.0371117687337
 30
0.0
 40
0.307948428894622
 50
0.0
 51
180.0
  0
ARC
  5
2A3
  8
回13-記事
  6
CONTINUOUS
 62
     7
 10
3711.750350929118
 20
639.0371117687337
 30
0.0
 40
0.307948428894622
 50
0.0
 51
180.0
  0
ARC
  5
2A4
  8
回13-記事
  6
CONTINUOUS
 62
     7
 10
3714.250350929118
 20
639.0371117687337
 30
0.0
 40
0.307948428894622
 50
0.0
 51
180.0
  0
ARC
  5
2A5
  8
回13-記事
  6
CONTINUOUS
 62
     7
 10
3716.750350929117
 20
639.0371117687337
 30
0.0
 40
0.307948428894622
 50
0.0
 51
180.0
  0
ARC
  5
2A6
  8
回13-記事
  6
CONTINUOUS
 62
     7
 10
3719.250350929117
 20
639.0371117687337
 30
0.0
 40
0.307948428894622
 50
0.0
 51
180.0
  0
ARC
  5
2A7
  8
回13-記事
  6
CONTINUOUS
 62
     7
 10
3721.750350929118
 20
639.0371117687337
 30
0.0
 40
0.307948428894622
 50
0.0
 51
180.0
  0
ARC
  5
2A8
  8
回13-記事
  6
CONTINUOUS
 62
     7
 10
3724.250350929118
 20
639.0371117687337
 30
0.0
 40
0.307948428894622
 50
0.0
 51
180.0
  0
ARC
  5
2A9
  8
回13-記事
  6
CONTINUOUS
 62
     7
 10
3726.750350929118
 20
639.0371117687337
 30
0.0
 40
0.307948428894622
 50
0.0
 51
180.0
  0
ARC
  5
2AA
  8
回13-記事
  6
CONTINUOUS
 62
     7
 10
3729.250350929117
 20
639.0371117687337
 30
0.0
 40
0.307948428894622
 50
0.0
 51
180.0
  0
ARC
  5
2AB
  8
回13-記事
  6
CONTINUOUS
 62
     7
 10
3731.750350929117
 20
639.0371117687337
 30
0.0
 40
0.307948428894622
 50
0.0
 51
180.0
  0
ARC
  5
2AC
  8
回13-記事
  6
CONTINUOUS
 62
     7
 10
3734.250350929118
 20
639.0371117687337
 30
0.0
 40
0.307948428894622
 50
0.0
 51
180.0
  0
ARC
  5
2AD
  8
回13-記事
  6
CONTINUOUS
 62
     7
 10
3736.750350929118
 20
639.0371117687337
 30
0.0
 40
0.307948428894622
 50
0.0
 51
180.0
  0
ARC
  5
2AE
  8
回13-記事
  6
CONTINUOUS
 62
     7
 10
3739.250350929117
 20
639.0371117687337
 30
0.0
 40
0.307948428894622
 50
0.0
 51
180.0
  0
ARC
  5
2AF
  8
回13-記事
  6
CONTINUOUS
 62
     7
 10
3741.750350929117
 20
639.0371117687337
 30
0.0
 40
0.307948428894622
 50
0.0
 51
180.0
  0
ARC
  5
2B0
  8
回13-記事
  6
CONTINUOUS
 62
     7
 10
3744.250350929117
 20
639.0371117687337
 30
0.0
 40
0.307948428894622
 50
0.0
 51
180.0
  0
ARC
  5
2B1
  8
回13-記事
  6
CONTINUOUS
 62
     7
 10
3746.750350929118
 20
639.0371117687337
 30
0.0
 40
0.307948428894622
 50
0.0
 51
180.0
  0
ARC
  5
2B2
  8
回13-記事
  6
CONTINUOUS
 62
     7
 10
3749.250350929118
 20
639.0371117687337
 30
0.0
 40
0.307948428894622
 50
0.0
 51
180.0
  0
ARC
  5
2B3
  8
回13-記事
  6
CONTINUOUS
 62
     7
 10
3751.750350929118
 20
639.0371117687337
 30
0.0
 40
0.307948428894622
 50
0.0
 51
180.0
  0
ARC
  5
2B4
  8
回13-記事
  6
CONTINUOUS
 62
     7
 10
3754.250350929118
 20
639.0371117687337
 30
0.0
 40
0.307948428894622
 50
0.0
 51
180.0
  0
ARC
  5
2B5
  8
回13-記事
  6
CONTINUOUS
 62
     7
 10
3756.750350929117
 20
639.0371117687337
 30
0.0
 40
0.307948428894622
 50
0.0
 51
180.0
  0
ARC
  5
2B6
  8
回13-記事
  6
CONTINUOUS
 62
     7
 10
3759.250350929118
 20
639.0371117687337
 30
0.0
 40
0.307948428894622
 50
0.0
 51
180.0
  0
ARC
  5
2B7
  8
回13-記事
  6
CONTINUOUS
 62
     7
 10
3761.750350929118
 20
639.0371117687337
 30
0.0
 40
0.307948428894622
 50
0.0
 51
180.0
  0
ARC
  5
2B8
  8
回13-記事
  6
CONTINUOUS
 62
     7
 10
3764.250350929117
 20
639.0371117687337
 30
0.0
 40
0.307948428894622
 50
0.0
 51
180.0
  0
ARC
  5
2B9
  8
回13-記事
  6
CONTINUOUS
 62
     7
 10
3766.750350929117
 20
639.0371117687337
 30
0.0
 40
0.307948428894622
 50
0.0
 51
180.0
  0
ARC
  5
2BA
  8
回13-記事
  6
CONTINUOUS
 62
     7
 10
3769.250350929117
 20
639.0371117687337
 30
0.0
 40
0.307948428894622
 50
0.0
 51
180.0
  0
ARC
  5
2BB
  8
回13-記事
  6
CONTINUOUS
 62
     7
 10
3771.750350929118
 20
639.0371117687337
 30
0.0
 40
0.307948428894622
 50
0.0
 51
180.0
  0
ARC
  5
2BC
  8
回13-記事
  6
CONTINUOUS
 62
     7
 10
3774.250350929118
 20
639.0371117687337
 30
0.0
 40
0.307948428894622
 50
0.0
 51
180.0
  0
ARC
  5
2BD
  8
回13-記事
  6
CONTINUOUS
 62
     7
 10
3776.750350929118
 20
639.0371117687337
 30
0.0
 40
0.307948428894622
 50
0.0
 51
180.0
  0
ARC
  5
2BE
  8
回13-記事
  6
CONTINUOUS
 62
     7
 10
3779.250350929117
 20
639.0371117687337
 30
0.0
 40
0.307948428894622
 50
0.0
 51
180.0
  0
ARC
  5
2BF
  8
回13-記事
  6
CONTINUOUS
 62
     7
 10
3781.750350929117
 20
639.0371117687337
 30
0.0
 40
0.307948428894622
 50
0.0
 51
180.0
  0
ARC
  5
2C0
  8
回13-記事
  6
CONTINUOUS
 62
     7
 10
3784.250350929118
 20
639.0371117687337
 30
0.0
 40
0.307948428894622
 50
0.0
 51
180.0
  0
ARC
  5
2C1
  8
回13-記事
  6
CONTINUOUS
 62
     7
 10
3786.750350929118
 20
639.0371117687337
 30
0.0
 40
0.307948428894622
 50
0.0
 51
180.0
  0
ARC
  5
2C2
  8
回13-記事
  6
CONTINUOUS
 62
     7
 10
3789.250350929118
 20
639.0371117687337
 30
0.0
 40
0.307948428894622
 50
0.0
 51
180.0
  0
ARC
  5
2C3
  8
回13-記事
  6
CONTINUOUS
 62
     7
 10
3791.750350929117
 20
639.0371117687337
 30
0.0
 40
0.307948428894622
 50
0.0
 51
180.0
  0
ARC
  5
2C4
  8
回13-記事
  6
CONTINUOUS
 62
     7
 10
3794.250350929117
 20
639.0371117687337
 30
0.0
 40
0.307948428894622
 50
0.0
 51
180.0
  0
ARC
  5
2C5
  8
回13-記事
  6
CONTINUOUS
 62
     7
 10
3796.750350929118
 20
639.0371117687337
 30
0.0
 40
0.307948428894622
 50
0.0
 51
180.0
  0
ARC
  5
2C6
  8
回13-記事
  6
CONTINUOUS
 62
     7
 10
3799.250350929118
 20
639.0371117687337
 30
0.0
 40
0.307948428894622
 50
0.0
 51
180.0
  0
ARC
  5
2C7
  8
回13-記事
  6
CONTINUOUS
 62
     7
 10
3801.750350929117
 20
639.0371117687337
 30
0.0
 40
0.307948428894622
 50
0.0
 51
180.0
  0
ARC
  5
2C8
  8
回13-記事
  6
CONTINUOUS
 62
     7
 10
3804.250350929117
 20
639.0371117687337
 30
0.0
 40
0.307948428894622
 50
0.0
 51
180.0
  0
ARC
  5
2C9
  8
回13-記事
  6
CONTINUOUS
 62
     7
 10
3944.250350929117
 20
639.0371117687337
 30
0.0
 40
0.307948428894622
 50
0.0
 51
180.0
  0
ARC
  5
2CA
  8
回13-記事
  6
CONTINUOUS
 62
     7
 10
3941.750350929117
 20
639.0371117687337
 30
0.0
 40
0.307948428894622
 50
0.0
 51
180.0
  0
ARC
  5
2CB
  8
回13-記事
  6
CONTINUOUS
 62
     7
 10
3939.250350929118
 20
639.0371117687337
 30
0.0
 40
0.307948428894622
 50
0.0
 51
180.0
  0
ARC
  5
2CC
  8
回13-記事
  6
CONTINUOUS
 62
     7
 10
3936.750350929118
 20
639.0371117687337
 30
0.0
 40
0.307948428894622
 50
0.0
 51
180.0
  0
ARC
  5
2CD
  8
回13-記事
  6
CONTINUOUS
 62
     7
 10
3934.250350929118
 20
639.0371117687337
 30
0.0
 40
0.307948428894622
 50
0.0
 51
180.0
  0
ARC
  5
2CE
  8
回13-記事
  6
CONTINUOUS
 62
     7
 10
3931.750350929117
 20
639.0371117687337
 30
0.0
 40
0.307948428894622
 50
0.0
 51
180.0
  0
ARC
  5
2CF
  8
回13-記事
  6
CONTINUOUS
 62
     7
 10
3929.250350929117
 20
639.0371117687337
 30
0.0
 40
0.307948428894622
 50
0.0
 51
180.0
  0
ARC
  5
2D0
  8
回13-記事
  6
CONTINUOUS
 62
     7
 10
3926.750350929117
 20
639.0371117687337
 30
0.0
 40
0.307948428894622
 50
0.0
 51
180.0
  0
ARC
  5
2D1
  8
回13-記事
  6
CONTINUOUS
 62
     7
 10
3924.250350929117
 20
639.0371117687337
 30
0.0
 40
0.307948428894622
 50
0.0
 51
180.0
  0
ARC
  5
2D2
  8
回13-記事
  6
CONTINUOUS
 62
     7
 10
3921.750350929118
 20
639.0371117687337
 30
0.0
 40
0.307948428894622
 50
0.0
 51
180.0
  0
ARC
  5
2D3
  8
回13-記事
  6
CONTINUOUS
 62
     7
 10
3919.250350929117
 20
639.0371117687337
 30
0.0
 40
0.307948428894622
 50
0.0
 51
180.0
  0
ARC
  5
2D4
  8
回13-記事
  6
CONTINUOUS
 62
     7
 10
3916.750350929117
 20
639.0371117687337
 30
0.0
 40
0.307948428894622
 50
0.0
 51
180.0
  0
ARC
  5
2D5
  8
回13-記事
  6
CONTINUOUS
 62
     7
 10
3914.250350929118
 20
639.0371117687337
 30
0.0
 40
0.307948428894622
 50
0.0
 51
180.0
  0
ARC
  5
2D6
  8
回13-記事
  6
CONTINUOUS
 62
     7
 10
3911.750350929118
 20
639.0371117687337
 30
0.0
 40
0.307948428894622
 50
0.0
 51
180.0
  0
ARC
  5
2D7
  8
回13-記事
  6
CONTINUOUS
 62
     7
 10
3909.250350929118
 20
639.0371117687337
 30
0.0
 40
0.307948428894622
 50
0.0
 51
180.0
  0
ARC
  5
2D8
  8
回13-記事
  6
CONTINUOUS
 62
     7
 10
3906.750350929117
 20
639.0371117687337
 30
0.0
 40
0.307948428894622
 50
0.0
 51
180.0
  0
ARC
  5
2D9
  8
回13-記事
  6
CONTINUOUS
 62
     7
 10
3904.250350929117
 20
639.0371117687337
 30
0.0
 40
0.307948428894622
 50
0.0
 51
180.0
  0
ARC
  5
2DA
  8
回13-記事
  6
CONTINUOUS
 62
     7
 10
3901.750350929118
 20
639.0371117687337
 30
0.0
 40
0.307948428894622
 50
0.0
 51
180.0
  0
ARC
  5
2DB
  8
回13-記事
  6
CONTINUOUS
 62
     7
 10
3899.250350929118
 20
639.0371117687337
 30
0.0
 40
0.307948428894622
 50
0.0
 51
180.0
  0
ARC
  5
2DC
  8
回13-記事
  6
CONTINUOUS
 62
     7
 10
3896.750350929118
 20
639.0371117687337
 30
0.0
 40
0.307948428894622
 50
0.0
 51
180.0
  0
ARC
  5
2DD
  8
回13-記事
  6
CONTINUOUS
 62
     7
 10
3894.250350929117
 20
639.0371117687337
 30
0.0
 40
0.307948428894622
 50
0.0
 51
180.0
  0
ARC
  5
2DE
  8
回13-記事
  6
CONTINUOUS
 62
     7
 10
3891.750350929117
 20
639.0371117687337
 30
0.0
 40
0.307948428894622
 50
0.0
 51
180.0
  0
ARC
  5
2DF
  8
回13-記事
  6
CONTINUOUS
 62
     7
 10
3889.250350929117
 20
639.0371117687337
 30
0.0
 40
0.307948428894622
 50
0.0
 51
180.0
  0
ARC
  5
2E0
  8
回13-記事
  6
CONTINUOUS
 62
     7
 10
3886.750350929118
 20
639.0371117687337
 30
0.0
 40
0.307948428894622
 50
0.0
 51
180.0
  0
ARC
  5
2E1
  8
回13-記事
  6
CONTINUOUS
 62
     7
 10
3884.250350929118
 20
639.0371117687337
 30
0.0
 40
0.307948428894622
 50
0.0
 51
180.0
  0
ARC
  5
2E2
  8
回13-記事
  6
CONTINUOUS
 62
     7
 10
3881.750350929117
 20
639.0371117687337
 30
0.0
 40
0.307948428894622
 50
0.0
 51
180.0
  0
ARC
  5
2E3
  8
回13-記事
  6
CONTINUOUS
 62
     7
 10
3879.250350929117
 20
639.0371117687337
 30
0.0
 40
0.307948428894622
 50
0.0
 51
180.0
  0
ARC
  5
2E4
  8
回13-記事
  6
CONTINUOUS
 62
     7
 10
3876.750350929118
 20
639.0371117687337
 30
0.0
 40
0.307948428894622
 50
0.0
 51
180.0
  0
ARC
  5
2E5
  8
回13-記事
  6
CONTINUOUS
 62
     7
 10
3874.250350929118
 20
639.0371117687337
 30
0.0
 40
0.307948428894622
 50
0.0
 51
180.0
  0
ARC
  5
2E6
  8
回13-記事
  6
CONTINUOUS
 62
     7
 10
3871.750350929118
 20
639.0371117687337
 30
0.0
 40
0.307948428894622
 50
0.0
 51
180.0
  0
ARC
  5
2E7
  8
回13-記事
  6
CONTINUOUS
 62
     7
 10
3869.250350929117
 20
639.0371117687337
 30
0.0
 40
0.307948428894622
 50
0.0
 51
180.0
  0
ARC
  5
2E8
  8
回13-記事
  6
CONTINUOUS
 62
     7
 10
3866.750350929117
 20
639.0371117687337
 30
0.0
 40
0.307948428894622
 50
0.0
 51
180.0
  0
ARC
  5
2E9
  8
回13-記事
  6
CONTINUOUS
 62
     7
 10
3864.250350929117
 20
639.0371117687337
 30
0.0
 40
0.307948428894622
 50
0.0
 51
180.0
  0
ARC
  5
2EA
  8
回13-記事
  6
CONTINUOUS
 62
     7
 10
3861.750350929117
 20
639.0371117687337
 30
0.0
 40
0.307948428894622
 50
0.0
 51
180.0
  0
ARC
  5
2EB
  8
回13-記事
  6
CONTINUOUS
 62
     7
 10
3859.250350929118
 20
639.0371117687337
 30
0.0
 40
0.307948428894622
 50
0.0
 51
180.0
  0
ARC
  5
2EC
  8
回13-記事
  6
CONTINUOUS
 62
     7
 10
3856.750350929117
 20
639.0371117687337
 30
0.0
 40
0.307948428894622
 50
0.0
 51
180.0
  0
ARC
  5
2ED
  8
回13-記事
  6
CONTINUOUS
 62
     7
 10
3854.250350929117
 20
639.0371117687337
 30
0.0
 40
0.307948428894622
 50
0.0
 51
180.0
  0
ARC
  5
2EE
  8
回13-記事
  6
CONTINUOUS
 62
     7
 10
3851.750350929118
 20
639.0371117687337
 30
0.0
 40
0.307948428894622
 50
0.0
 51
180.0
  0
ARC
  5
2EF
  8
回13-記事
  6
CONTINUOUS
 62
     7
 10
3849.250350929118
 20
639.0371117687337
 30
0.0
 40
0.307948428894622
 50
0.0
 51
180.0
  0
ARC
  5
2F0
  8
回13-記事
  6
CONTINUOUS
 62
     7
 10
3846.750350929118
 20
639.0371117687337
 30
0.0
 40
0.307948428894622
 50
0.0
 51
180.0
  0
ARC
  5
2F1
  8
回13-記事
  6
CONTINUOUS
 62
     7
 10
3844.250350929117
 20
639.0371117687337
 30
0.0
 40
0.307948428894622
 50
0.0
 51
180.0
  0
ARC
  5
2F2
  8
回13-記事
  6
CONTINUOUS
 62
     7
 10
3841.750350929117
 20
639.0371117687337
 30
0.0
 40
0.307948428894622
 50
0.0
 51
180.0
  0
ARC
  5
2F3
  8
回13-記事
  6
CONTINUOUS
 62
     7
 10
3839.250350929118
 20
639.0371117687337
 30
0.0
 40
0.307948428894622
 50
0.0
 51
180.0
  0
ARC
  5
2F4
  8
回13-記事
  6
CONTINUOUS
 62
     7
 10
3836.750350929118
 20
639.0371117687337
 30
0.0
 40
0.307948428894622
 50
0.0
 51
180.0
  0
ARC
  5
2F5
  8
回13-記事
  6
CONTINUOUS
 62
     7
 10
3834.250350929118
 20
639.0371117687337
 30
0.0
 40
0.307948428894622
 50
0.0
 51
180.0
  0
ARC
  5
2F6
  8
回13-記事
  6
CONTINUOUS
 62
     7
 10
3831.750350929117
 20
639.0371117687337
 30
0.0
 40
0.307948428894622
 50
0.0
 51
180.0
  0
ARC
  5
2F7
  8
回13-記事
  6
CONTINUOUS
 62
     7
 10
3829.250350929117
 20
639.0371117687337
 30
0.0
 40
0.307948428894622
 50
0.0
 51
180.0
  0
ARC
  5
2F8
  8
回13-記事
  6
CONTINUOUS
 62
     7
 10
3826.750350929117
 20
639.0371117687337
 30
0.0
 40
0.307948428894622
 50
0.0
 51
180.0
  0
ARC
  5
2F9
  8
回13-記事
  6
CONTINUOUS
 62
     7
 10
3824.250350929118
 20
639.0371117687337
 30
0.0
 40
0.307948428894622
 50
0.0
 51
180.0
  0
ARC
  5
2FA
  8
回13-記事
  6
CONTINUOUS
 62
     7
 10
3821.750350929118
 20
639.0371117687337
 30
0.0
 40
0.307948428894622
 50
0.0
 51
180.0
  0
ARC
  5
2FB
  8
回13-記事
  6
CONTINUOUS
 62
     7
 10
3819.250350929117
 20
639.0371117687337
 30
0.0
 40
0.307948428894622
 50
0.0
 51
180.0
  0
ARC
  5
2FC
  8
回13-記事
  6
CONTINUOUS
 62
     7
 10
3816.750350929117
 20
639.0371117687337
 30
0.0
 40
0.307948428894622
 50
0.0
 51
180.0
  0
ARC
  5
2FD
  8
回13-記事
  6
CONTINUOUS
 62
     7
 10
3814.250350929118
 20
639.0371117687337
 30
0.0
 40
0.307948428894622
 50
0.0
 51
180.0
  0
ARC
  5
2FE
  8
回13-記事
  6
CONTINUOUS
 62
     7
 10
3811.750350929118
 20
639.0371117687337
 30
0.0
 40
0.307948428894622
 50
0.0
 51
180.0
  0
ARC
  5
2FF
  8
回13-記事
  6
CONTINUOUS
 62
     7
 10
3809.250350929118
 20
639.0371117687337
 30
0.0
 40
0.307948428894622
 50
0.0
 51
180.0
  0
ARC
  5
300
  8
回13-記事
  6
CONTINUOUS
 62
     7
 10
3806.750350929117
 20
639.0371117687337
 30
0.0
 40
0.307948428894622
 50
0.0
 51
180.0
  0
ARC
  5
301
  8
回13-記事
  6
CONTINUOUS
 62
     7
 10
3804.250350929117
 20
639.0371117687337
 30
0.0
 40
0.307948428894622
 50
0.0
 51
180.0
  0
POLYLINE
  5
302
  8
回13-記事
  6
CONTINUOUS
 62
     7
 66
     1
 10
0.0
 20
0.0
 30
0.0
 70
     1
  0
VERTEX
  5
39A
  8
回13-記事
  6
CONTINUOUS
 62
     7
 10
3534.993601414547
 20
640.6903046217196
 30
0.0
  0
VERTEX
  5
39C
  8
回13-記事
  6
CONTINUOUS
 62
     7
 10
3534.993601414547
 20
640.0903046217197
 30
0.0
  0
VERTEX
  5
39D
  8
回13-記事
  6
CONTINUOUS
 62
     7
 10
3524.993601414546
 20
640.0903046217197
 30
0.0
  0
VERTEX
  5
39E
  8
回13-記事
  6
CONTINUOUS
 62
     7
 10
3524.993601414546
 20
640.6903046217196
 30
0.0
  0
SEQEND
  5
39B
  8
回91-枠英1
  6
CONTINUOUS
 62
     7
  0
LINE
  5
303
  8
回13-記事
  6
CONTINUOUS
 62
     7
 10
3639.883601414548
 20
640.0903046217197
 30
0.0
 11
3639.883601414548
 21
639.0371117687337
 31
0.0
  0
LINE
  5
304
  8
回13-記事
  6
CONTINUOUS
 62
     7
 10
3950.993601414548
 20
640.0903046217197
 30
0.0
 11
3950.993601414548
 21
639.0371117687337
 31
0.0
  0
POLYLINE
  5
305
  8
回13-記事
  6
CONTINUOUS
 62
     7
 66
     1
 10
0.0
 20
0.0
 30
0.0
 70
     1
  0
VERTEX
  5
39F
  8
回13-記事
  6
CONTINUOUS
 62
     7
 10
3524.993601414546
 20
639.0371117687337
 30
0.0
  0
VERTEX
  5
3A1
  8
回13-記事
  6
CONTINUOUS
 62
     7
 10
3632.551601375855
 20
639.0371117687337
 30
0.0
  0
VERTEX
  5
3A2
  8
回13-記事
  6
CONTINUOUS
 62
     7
 10
3632.551601375855
 20
640.0903046217197
 30
0.0
  0
VERTEX
  5
3A3
  8
回13-記事
  6
CONTINUOUS
 62
     7
 10
3524.993601414546
 20
640.0903046217197
 30
0.0
  0
SEQEND
  5
3A0
  8
回91-枠英1
  6
CONTINUOUS
 62
     7
  0
POLYLINE
  5
306
  8
回13-記事
  6
CONTINUOUS
 62
     7
 66
     1
 10
0.0
 20
0.0
 30
0.0
 70
     1
  0
VERTEX
  5
3A4
  8
回13-記事
  6
CONTINUOUS
 62
     7
 10
3524.993601414546
 20
639.0371117687337
 30
0.0
  0
VERTEX
  5
3A6
  8
回13-記事
  6
CONTINUOUS
 62
     7
 10
3625.493601414548
 20
639.0371117687337
 30
0.0
  0
VERTEX
  5
3A7
  8
回13-記事
  6
CONTINUOUS
 62
     7
 10
3625.493601414548
 20
638.2573579593058
 30
0.0
  0
VERTEX
  5
3A8
  8
回13-記事
  6
CONTINUOUS
 62
     7
 10
3524.993601414546
 20
638.2573579593058
 30
0.0
  0
SEQEND
  5
3A5
  8
回91-枠英1
  6
CONTINUOUS
 62
     7
  0
LINE
  5
307
  8
回13-記事
  6
CONTINUOUS
 62
     7
 10
3957.373601414547
 20
640.0903046217197
 30
0.0
 11
3957.373601414547
 21
639.0371117687337
 31
0.0
  0
POLYLINE
  5
308
  8
回13-記事
  6
CONTINUOUS
 62
     7
 66
     1
 10
0.0
 20
0.0
 30
0.0
 70
     1
  0
VERTEX
  5
3A9
  8
回13-記事
  6
CONTINUOUS
 62
     7
 10
3624.993601414548
 20
639.0371117687337
 30
0.0
  0
VERTEX
  5
3AB
  8
回13-記事
  6
CONTINUOUS
 62
     7
 10
3957.873601414548
 20
639.0371117687337
 30
0.0
  0
VERTEX
  5
3AC
  8
回13-記事
  6
CONTINUOUS
 62
     7
 10
3957.873601414548
 20
635.821187773046
 30
0.0
  0
VERTEX
  5
3AD
  8
回13-記事
  6
CONTINUOUS
 62
     7
 10
3624.993601414548
 20
635.821187773046
 30
0.0
  0
SEQEND
  5
3AA
  8
回91-枠英1
  6
CONTINUOUS
 62
     7
  0
POLYLINE
  5
309
  8
回13-記事
  6
CONTINUOUS
 62
     7
 66
     1
 10
0.0
 20
0.0
 30
0.0
 70
     1
  0
VERTEX
  5
3AE
  8
回13-記事
  6
CONTINUOUS
 62
     7
 10
3625.493601414548
 20
641.544538784628
 30
0.0
  0
VERTEX
  5
3B0
  8
回13-記事
  6
CONTINUOUS
 62
     7
 10
3957.373601414547
 20
641.544538784628
 30
0.0
  0
VERTEX
  5
3B1
  8
回13-記事
  6
CONTINUOUS
 62
     7
 10
3957.373601414547
 20
640.0903046217197
 30
0.0
  0
VERTEX
  5
3B2
  8
回13-記事
  6
CONTINUOUS
 62
     7
 10
3625.493601414548
 20
640.0903046217197
 30
0.0
  0
SEQEND
  5
3AF
  8
回91-枠英1
  6
CONTINUOUS
 62
     7
  0
LINE
  5
30A
  8
回12-寸法
  6
CENTER2
 62
     1
 10
3791.433601414548
 20
948.2137446419301
 30
0.0
 11
3791.433601414548
 21
690.6503728939669
 31
0.0
  0
TEXT
  5
30B
  8
回13-記事
  6
CONTINUOUS
 62
     5
 10
3938.067613824045
 20
704.5960563987651
 30
0.0
 40
4.777499999999998
  1
LR
  0
TEXT
  5
30C
  8
回13-記事
  6
CONTINUOUS
 62
     5
 10
3939.319996050348
 20
927.7292166072687
 30
0.0
 40
4.777499999999998
  1
UR
  0
TEXT
  5
30D
  8
回13-記事
  6
CONTINUOUS
 62
     5
 10
3644.198992501247
 20
704.248443386986
 30
0.0
 40
4.777499999999998
  1
LL
  0
TEXT
  5
30E
  8
回13-記事
  6
CONTINUOUS
 62
     5
 10
3643.969429791287
 20
927.0785280458717
 30
0.0
 40
4.777499999999998
  1
UL
  0
LINE
  5
30F
  8
回10-ﾃｰﾙ
  6
CONTINUOUS
 62
     8
 10
3625.493601414548
 20
827.7839846484457
 30
0.0
 11
3625.493601414548
 21
828.1639846484456
 31
0.0
  0
POLYLINE
  5
310
  8
回13-記事
  6
PHANTOM2
 62
     7
 66
     1
 10
0.0
 20
0.0
 30
0.0
 70
     1
  0
VERTEX
  5
3B3
  8
回13-記事
  6
PHANTOM2
 62
     7
 10
3641.883601414548
 20
933.7139846484454
 30
0.0
  0
VERTEX
  5
3B5
  8
回13-記事
  6
PHANTOM2
 62
     7
 10
3948.993601414548
 20
933.7139846484454
 30
0.0
  0
VERTEX
  5
3B6
  8
回13-記事
  6
PHANTOM2
 62
     7
 10
3948.993601414548
 20
702.6239846484454
 30
0.0
  0
VERTEX
  5
3B7
  8
回13-記事
  6
PHANTOM2
 62
     7
 10
3641.883601414548
 20
702.6239846484454
 30
0.0
  0
SEQEND
  5
3B4
  8
回91-枠英1
  6
CONTINUOUS
 62
     7
  0
ENDSEC
  0
EOF
