  0
SECTION
  2
HEADER
  9
$ACADVER
  1
AC1009
  9
$INSBASE
 10
0.0
 20
0.0
 30
0.0
  9
$EXTMIN
 10
3649.659908252157
 20
-185.25643607264
 30
0.0
  9
$EXTMAX
 10
4459.659908252157
 20
364.74356392736
 30
0.0
  9
$LIMMIN
 10
0.0
 20
0.0
  9
$LIMMAX
 10
3000.0
 20
2500.0
  9
$ORTHOMODE
 70
     0
  9
$REGENMODE
 70
     1
  9
$FILLMODE
 70
     1
  9
$QTEXTMODE
 70
     0
  9
$MIRRTEXT
 70
     1
  9
$DRAGMODE
 70
     2
  9
$LTSCALE
 40
1.0
  9
$OSMODE
 70
    37
  9
$ATTMODE
 70
     1
  9
$TEXTSIZE
 40
4.0
  9
$TRACEWID
 40
1.0
  9
$TEXTSTYLE
  7
STANDARD
  9
$CLAYER
  8
0
  9
$CELTYPE
  6
BYLAYER
  9
$CECOLOR
 62
     7
  9
$DIMSCALE
 40
1.0
  9
$DIMASZ
 40
2.0
  9
$DIMEXO
 40
0.0
  9
$DIMDLI
 40
0.0
  9
$DIMRND
 40
0.0
  9
$DIMDLE
 40
0.0
  9
$DIMEXE
 40
1.0
  9
$DIMTP
 40
0.0
  9
$DIMTM
 40
0.0
  9
$DIMTXT
 40
4.0
  9
$DIMCEN
 40
2.0
  9
$DIMTSZ
 40
0.0
  9
$DIMTOL
 70
     0
  9
$DIMLIM
 70
     0
  9
$DIMTIH
 70
     0
  9
$DIMTOH
 70
     0
  9
$DIMSE1
 70
     0
  9
$DIMSE2
 70
     0
  9
$DIMTAD
 70
     3
  9
$DIMZIN
 70
     8
  9
$DIMBLK
  1
OPEN
  9
$DIMASO
 70
     1
  9
$DIMSHO
 70
     1
  9
$DIMPOST
  1

  9
$DIMAPOST
  1

  9
$DIMALT
 70
     1
  9
$DIMALTD
 70
     3
  9
$DIMALTF
 40
0.03937007874016
  9
$DIMLFAC
 40
1.0
  9
$DIMTOFL
 70
     1
  9
$DIMTVP
 40
0.0
  9
$DIMTIX
 70
     0
  9
$DIMSOXD
 70
     0
  9
$DIMSAH
 70
     0
  9
$DIMBLK1
  1

  9
$DIMBLK2
  1

  9
$DIMSTYLE
  2
DMC
  9
$DIMCLRD
 70
     5
  9
$DIMCLRE
 70
     5
  9
$DIMCLRT
 70
     5
  9
$DIMTFAC
 40
0.7
  9
$DIMGAP
 40
0.5
  9
$LUNITS
 70
     2
  9
$LUPREC
 70
     4
  9
$SKETCHINC
 40
1.0
  9
$FILLETRAD
 40
0.5
  9
$AUNITS
 70
     0
  9
$AUPREC
 70
     0
  9
$MENU
  1
.
  9
$ELEVATION
 40
0.0
  9
$PELEVATION
 40
0.0
  9
$THICKNESS
 40
0.0
  9
$LIMCHECK
 70
     0
  9
$BLIPMODE
 70
     0
  9
$CHAMFERA
 40
2.5
  9
$CHAMFERB
 40
2.5
  9
$SKPOLY
 70
     0
  9
$TDCREATE
 40
2451810.779221065
  9
$TDUPDATE
 40
2460231.377143495
  9
$TDINDWG
 40
3.995761458
  9
$TDUSRTIMER
 40
3.995760764
  9
$USRTIMER
 70
     1
  9
$ANGBASE
 50
0.0
  9
$ANGDIR
 70
     0
  9
$PDMODE
 70
     0
  9
$PDSIZE
 40
0.0
  9
$PLINEWID
 40
0.2
  9
$COORDS
 70
     0
  9
$SPLFRAME
 70
     0
  9
$SPLINETYPE
 70
     6
  9
$SPLINESEGS
 70
     8
  9
$ATTDIA
 70
     1
  9
$ATTREQ
 70
     1
  9
$HANDLING
 70
     1
  9
$HANDSEED
  5
3E1
  9
$SURFTAB1
 70
     6
  9
$SURFTAB2
 70
     6
  9
$SURFTYPE
 70
     6
  9
$SURFU
 70
     6
  9
$SURFV
 70
     6
  9
$UCSNAME
  2

  9
$UCSORG
 10
0.0
 20
0.0
 30
0.0
  9
$UCSXDIR
 10
1.0
 20
0.0
 30
0.0
  9
$UCSYDIR
 10
0.0
 20
1.0
 30
0.0
  9
$PUCSNAME
  2

  9
$PUCSORG
 10
0.0
 20
0.0
 30
0.0
  9
$PUCSXDIR
 10
1.0
 20
0.0
 30
0.0
  9
$PUCSYDIR
 10
0.0
 20
1.0
 30
0.0
  9
$USERI1
 70
     0
  9
$USERI2
 70
     0
  9
$USERI3
 70
     0
  9
$USERI4
 70
     0
  9
$USERI5
 70
     0
  9
$USERR1
 40
0.0
  9
$USERR2
 40
0.0
  9
$USERR3
 40
0.0
  9
$USERR4
 40
0.0
  9
$USERR5
 40
0.0
  9
$WORLDVIEW
 70
     1
  9
$SHADEDGE
 70
     3
  9
$SHADEDIF
 70
    70
  9
$TILEMODE
 70
     1
  9
$MAXACTVP
 70
    64
  9
$PLIMCHECK
 70
     0
  9
$PEXTMIN
 10
1.000000000000000E+20
 20
1.000000000000000E+20
 30
1.000000000000000E+20
  9
$PEXTMAX
 10
-1.000000000000000E+20
 20
-1.000000000000000E+20
 30
-1.000000000000000E+20
  9
$PLIMMIN
 10
0.0
 20
0.0
  9
$PLIMMAX
 10
420.0
 20
297.0
  9
$UNITMODE
 70
     0
  9
$VISRETAIN
 70
     1
  9
$PLINEGEN
 70
     0
  9
$PSLTSCALE
 70
     1
  0
ENDSEC
  0
SECTION
  2
TABLES
  0
TABLE
  2
VPORT
 70
     1
  0
VPORT
  2
*ACTIVE
 70
     0
 10
0.0
 20
0.0
 11
1.0
 21
1.0
 12
4171.530040167382
 22
65.62016155866809
 13
0.0
 23
0.0
 14
10.0
 24
10.0
 15
10.0
 25
10.0
 16
0.0
 26
0.0
 36
1.0
 17
0.0
 27
0.0
 37
0.0
 40
774.1302133576372
 41
1.853689567430025
 42
50.0
 43
0.0
 44
0.0
 50
0.0
 51
0.0
 71
     0
 72
  2000
 73
     1
 74
     1
 75
     0
 76
     0
 77
     0
 78
     0
  0
ENDTAB
  0
TABLE
  2
LTYPE
 70
     4
  0
LTYPE
  2
CONTINUOUS
 70
     0
  3
Solid line
 72
    65
 73
     0
 40
0.0
  0
LTYPE
  2
DASHED2
 70
     0
  3
Dashed (.5x) _ _ _ _ _ _ _ _ _ _ _ _ _ _ _ _ _
 72
    65
 73
     2
 40
9.524999999999998
 49
6.349999999999999
 49
-3.174999999999999
  0
LTYPE
  2
PHANTOM2
 70
     0
  3
Phantom (.5x) ___ _ _ ___ _ _ ___ _ _ ___ _ _
 72
    65
 73
     6
 40
31.75
 49
15.875
 49
-3.174999999999999
 49
3.174999999999999
 49
-3.174999999999999
 49
3.174999999999999
 49
-3.174999999999999
  0
LTYPE
  2
CENTER2
 70
     0
  3
Center (.5x) ___ _ ___ _ ___ _ ___ _ ___ _ ___
 72
    65
 73
     4
 40
28.575
 49
19.05
 49
-3.174999999999999
 49
3.174999999999999
 49
-3.174999999999999
  0
ENDTAB
  0
TABLE
  2
LAYER
 70
     9
  0
LAYER
  2
0
 70
     0
 62
     7
  6
CONTINUOUS
  0
LAYER
  2
DEFPOINTS
 70
     0
 62
     7
  6
CONTINUOUS
  0
LAYER
  2
回12-寸法
 70
     0
 62
     7
  6
CONTINUOUS
  0
LAYER
  2
回10-ﾃｰﾙ
 70
     0
 62
     7
  6
CONTINUOUS
  0
LAYER
  2
回13-記事
 70
     0
 62
     7
  6
CONTINUOUS
  0
LAYER
  2
回08-GPDL
 70
     0
 62
     7
  6
CONTINUOUS
  0
LAYER
  2
回02-G外
 70
     0
 62
     7
  6
CONTINUOUS
  0
LAYER
  2
回91-枠英1
 70
     0
 62
     7
  6
CONTINUOUS
  0
LAYER
  2
回03-記事
 70
     0
 62
     7
  6
CONTINUOUS
  0
ENDTAB
  0
TABLE
  2
STYLE
 70
     1
  0
STYLE
  2
STANDARD
 70
     0
 40
4.0
 41
1.0
 50
0.0
 71
     0
 42
4.0
  3
isocp.shx
  4
bigfont.shx
  0
ENDTAB
  0
TABLE
  2
VIEW
 70
     0
  0
ENDTAB
  0
TABLE
  2
UCS
 70
     0
  0
ENDTAB
  0
TABLE
  2
APPID
 70
     2
  0
APPID
  2
ACAD
 70
     0
  0
APPID
  2
ACAD_PSEXT
 70
     0
  0
ENDTAB
  0
TABLE
  2
DIMSTYLE
 70
     1
  0
DIMSTYLE
  2
DMC
 70
     0
  3

  4

  5
OPEN
  6

  7

 40
1.0
 41
2.0
 42
0.0
 43
0.0
 44
1.0
 45
0.0
 46
0.0
 47
0.0
 48
0.0
140
3.0
141
2.0
142
0.0
143
0.03937007874016
144
1.0
145
0.0
146
0.7
147
0.5
 71
     0
 72
     0
 73
     0
 74
     0
 75
     0
 76
     0
 77
     3
 78
     8
170
     0
171
     3
172
     1
173
     0
174
     0
175
     0
176
     5
177
     5
178
     5
  0
ENDTAB
  0
ENDSEC
  0
SECTION
  2
BLOCKS
  0
BLOCK
  8
0
  2
$MODEL_SPACE
 70
     0
 10
0.0
 20
0.0
 30
0.0
  3
$MODEL_SPACE
  1

  0
ENDBLK
  8
0
  5
20
  0
BLOCK
 67
     1
  8
0
  2
$PAPER_SPACE
 70
     0
 10
0.0
 20
0.0
 30
0.0
  3
$PAPER_SPACE
  1

  0
ENDBLK
  5
29
 67
     1
  8
0
  0
BLOCK
  8
0
  2
_OPEN
 70
     0
 10
0.0
 20
0.0
 30
0.0
  3
_OPEN
  1

  0
LINE
  5
13
  8
0
  6
CONTINUOUS
 62
     0
 10
-1.0
 20
0.1666666666666666
 30
0.0
 11
0.0
 21
0.0
 31
0.0
  0
LINE
  5
14
  8
0
  6
CONTINUOUS
 62
     0
 10
-1.0
 20
-0.1666666666666666
 30
0.0
 11
0.0
 21
0.0
 31
0.0
  0
LINE
  5
15
  8
0
  6
CONTINUOUS
 62
     0
 10
0.0
 20
0.0
 30
0.0
 11
-1.0
 21
0.0
 31
0.0
  0
ENDBLK
  5
16
  8
0
  0
BLOCK
  8
0
  2
*D1
 70
     1
 10
0.0
 20
0.0
 30
0.0
  3
*D1
  1

  0
LINE
  5
214
  8
回12-寸法
 62
     5
 10
3865.008590593717
 20
-75.16908584582177
 30
0.0
 11
3865.008590593717
 21
-63.5502037719001
 31
0.0
  0
LINE
  5
215
  8
回12-寸法
 62
     5
 10
3865.508590593717
 20
-71.88190502049963
 30
0.0
 11
3865.508590593717
 21
-63.5502037719001
 31
0.0
  0
LINE
  5
216
  8
回12-寸法
 62
     5
 10
3863.008590593717
 20
-64.5502037719001
 30
0.0
 11
3861.008590593717
 21
-64.5502037719001
 31
0.0
  0
LINE
  5
217
  8
回12-寸法
 62
     5
 10
3867.508590593717
 20
-64.5502037719001
 30
0.0
 11
3897.305440987418
 21
-64.5502037719001
 31
0.0
  0
LINE
  5
218
  8
回12-寸法
 62
     5
 10
3865.008590593717
 20
-64.5502037719001
 30
0.0
 11
3865.508590593717
 21
-64.5502037719001
 31
0.0
  0
INSERT
  5
219
  8
回12-寸法
 62
     5
  2
_OPEN
 10
3865.008590593717
 20
-64.5502037719001
 30
0.0
 41
2.0
 42
2.0
 43
2.0
  0
INSERT
  5
21A
  8
回12-寸法
 62
     5
  2
_OPEN
 10
3865.508590593717
 20
-64.5502037719001
 30
0.0
 41
2.0
 42
2.0
 43
2.0
 50
180.0
  0
TEXT
  5
21B
  8
回12-寸法
 62
     5
 10
3869.407015790567
 20
-63.85020377190009
 30
0.0
 40
4.0
  1
(0.5 [0.020])
1001
ACAD
1000
MTEXTBEGIN
1070
    73
1070
     1
1070
    44
1040
1.0
1070
    74
1070
     0
1000
MTEXTEND
  0
POINT
  5
21C
  8
DEFPOINTS
 62
     0
 10
3865.008590593717
 20
-75.16908584582177
 30
0.0
  0
POINT
  5
21D
  8
DEFPOINTS
 62
     0
 10
3865.508590593717
 20
-71.88190502049963
 30
0.0
  0
POINT
  5
21E
  8
DEFPOINTS
 62
     0
 10
3865.508590593717
 20
-64.5502037719001
 30
0.0
  0
ENDBLK
  5
21F
  8
0
 62
     7
  0
BLOCK
  8
0
  2
*D2
 70
     1
 10
0.0
 20
0.0
 30
0.0
  3
*D2
  1

  0
LINE
  5
205
  8
回12-寸法
 62
     5
 10
4230.408590593716
 20
-74.38933203639397
 30
0.0
 11
4230.408590593716
 21
-63.5502037719001
 31
0.0
  0
LINE
  5
206
  8
回12-寸法
 62
     5
 10
4229.908590593716
 20
-71.88190502049952
 30
0.0
 11
4229.908590593716
 21
-63.5502037719001
 31
0.0
  0
LINE
  5
207
  8
回12-寸法
 62
     5
 10
4232.408590593716
 20
-64.5502037719001
 30
0.0
 11
4234.408590593716
 21
-64.5502037719001
 31
0.0
  0
LINE
  5
208
  8
回12-寸法
 62
     5
 10
4227.908590593716
 20
-64.5502037719001
 30
0.0
 11
4198.111740200015
 21
-64.5502037719001
 31
0.0
  0
LINE
  5
209
  8
回12-寸法
 62
     5
 10
4230.408590593716
 20
-64.5502037719001
 30
0.0
 11
4229.908590593716
 21
-64.5502037719001
 31
0.0
  0
INSERT
  5
20A
  8
回12-寸法
 62
     5
  2
_OPEN
 10
4230.408590593716
 20
-64.5502037719001
 30
0.0
 41
2.0
 42
2.0
 43
2.0
 50
180.0
  0
INSERT
  5
20B
  8
回12-寸法
 62
     5
  2
_OPEN
 10
4229.908590593716
 20
-64.5502037719001
 30
0.0
 41
2.0
 42
2.0
 43
2.0
  0
TEXT
  5
20C
  8
回12-寸法
 62
     5
 10
4198.010165396866
 20
-63.85020377190009
 30
0.0
 40
4.0
  1
(0.5 [0.020])
1001
ACAD
1000
MTEXTBEGIN
1070
    73
1070
     1
1070
    44
1040
1.0
1070
    74
1070
     0
1000
MTEXTEND
  0
POINT
  5
20D
  8
DEFPOINTS
 62
     0
 10
4230.408590593716
 20
-74.38933203639397
 30
0.0
  0
POINT
  5
20E
  8
DEFPOINTS
 62
     0
 10
4229.908590593716
 20
-71.88190502049952
 30
0.0
  0
POINT
  5
20F
  8
DEFPOINTS
 62
     0
 10
4229.908590593716
 20
-64.5502037719001
 30
0.0
  0
ENDBLK
  5
210
  8
0
 62
     7
  0
BLOCK
  8
0
  2
*D3
 70
     1
 10
0.0
 20
0.0
 30
0.0
  3
*D3
  1

  0
LINE
  5
1F6
  8
回12-寸法
 62
     5
 10
4230.408590593716
 20
-77.60525603208157
 30
0.0
 11
4238.092587309349
 21
-77.60525603208157
 31
0.0
  0
LINE
  5
1F7
  8
回12-寸法
 62
     5
 10
4229.908590593716
 20
-71.88190502049952
 30
0.0
 11
4238.092587309349
 21
-71.88190502049952
 31
0.0
  0
LINE
  5
1F8
  8
回12-寸法
 62
     5
 10
4237.092587309349
 20
-69.88190502049952
 30
0.0
 11
4237.092587309349
 21
-67.88190502049952
 31
0.0
  0
LINE
  5
1F9
  8
回12-寸法
 62
     5
 10
4237.092587309349
 20
-79.60525603208157
 30
0.0
 11
4237.092587309349
 21
-129.9068308352313
 31
0.0
  0
LINE
  5
1FA
  8
回12-寸法
 62
     5
 10
4237.092587309349
 20
-71.88190502049952
 30
0.0
 11
4237.092587309349
 21
-77.60525603208157
 31
0.0
  0
INSERT
  5
1FB
  8
回12-寸法
 62
     5
  2
_OPEN
 10
4237.092587309349
 20
-71.88190502049952
 30
0.0
 41
2.0
 42
2.0
 43
2.0
 50
270.0
  0
INSERT
  5
1FC
  8
回12-寸法
 62
     5
  2
_OPEN
 10
4237.092587309349
 20
-77.60525603208157
 30
0.0
 41
2.0
 42
2.0
 43
2.0
 50
90.0
  0
INSERT
  5
1FD
  8
回12-寸法
 62
     5
 66
     1
  2
*X30
 10
0.0
 20
0.0
 30
0.0
  0
SEQEND
  5
3B0
  8
0
 62
     7
  0
POINT
  5
1FE
  8
DEFPOINTS
 62
     0
 10
4230.408590593716
 20
-77.60525603208157
 30
0.0
  0
POINT
  5
1FF
  8
DEFPOINTS
 62
     0
 10
4229.908590593716
 20
-71.88190502049952
 30
0.0
  0
POINT
  5
200
  8
DEFPOINTS
 62
     0
 10
4237.092587309349
 20
-71.88190502049952
 30
0.0
  0
ENDBLK
  5
201
  8
0
 62
     7
  0
BLOCK
  8
0
  2
*D4
 70
     1
 10
0.0
 20
0.0
 30
0.0
  3
*D4
  1

  0
LINE
  5
1E7
  8
回12-寸法
 62
     5
 10
3881.518590593716
 20
251.0380604919971
 30
0.0
 11
3881.518590593716
 21
287.2121492225066
 31
0.0
  0
LINE
  5
1E8
  8
回12-寸法
 62
     5
 10
3865.008590593717
 20
258.9280604919971
 30
0.0
 11
3865.008590593717
 21
287.2121492225066
 31
0.0
  0
LINE
  5
1E9
  8
回12-寸法
 62
     5
 10
3883.518590593716
 20
286.2121492225066
 30
0.0
 11
3885.518590593716
 21
286.2121492225066
 31
0.0
  0
LINE
  5
1EA
  8
回12-寸法
 62
     5
 10
3863.008590593717
 20
286.2121492225066
 30
0.0
 11
3829.211740200016
 21
286.2121492225066
 31
0.0
  0
LINE
  5
1EB
  8
回12-寸法
 62
     5
 10
3881.518590593716
 20
286.2121492225066
 30
0.0
 11
3865.008590593717
 21
286.2121492225066
 31
0.0
  0
INSERT
  5
1EC
  8
回12-寸法
 62
     5
  2
_OPEN
 10
3881.518590593716
 20
286.2121492225066
 30
0.0
 41
2.0
 42
2.0
 43
2.0
 50
180.0
  0
INSERT
  5
1ED
  8
回12-寸法
 62
     5
  2
_OPEN
 10
3865.008590593717
 20
286.2121492225066
 30
0.0
 41
2.0
 42
2.0
 43
2.0
  0
TEXT
  5
1EE
  8
回12-寸法
 62
     5
 10
3829.110165396866
 20
286.9121492225066
 30
0.0
 40
4.0
  1
(16.51 [0.650])
1001
ACAD
1000
MTEXTBEGIN
1070
    73
1070
     1
1070
    44
1040
1.0
1070
    74
1070
     0
1000
MTEXTEND
  0
POINT
  5
1EF
  8
DEFPOINTS
 62
     0
 10
3881.518590593716
 20
251.0380604919971
 30
0.0
  0
POINT
  5
1F0
  8
DEFPOINTS
 62
     0
 10
3865.008590593717
 20
258.9280604919971
 30
0.0
  0
POINT
  5
1F1
  8
DEFPOINTS
 62
     0
 10
3865.008590593717
 20
286.2121492225066
 30
0.0
  0
ENDBLK
  5
1F2
  8
0
 62
     7
  0
BLOCK
  8
0
  2
*D5
 70
     1
 10
0.0
 20
0.0
 30
0.0
  3
*D5
  1

  0
LINE
  5
1D8
  8
回12-寸法
 62
     5
 10
3880.418590593717
 20
252.1380604919971
 30
0.0
 11
3880.418590593717
 21
298.4864637187599
 31
0.0
  0
LINE
  5
1D9
  8
回12-寸法
 62
     5
 10
3865.008590593717
 20
258.9280604919971
 30
0.0
 11
3865.008590593717
 21
298.4864637187599
 31
0.0
  0
LINE
  5
1DA
  8
回12-寸法
 62
     5
 10
3882.418590593717
 20
297.4864637187599
 30
0.0
 11
3884.418590593717
 21
297.4864637187599
 31
0.0
  0
LINE
  5
1DB
  8
回12-寸法
 62
     5
 10
3863.008590593717
 20
297.4864637187599
 30
0.0
 11
3832.008590593717
 21
297.4864637187599
 31
0.0
  0
LINE
  5
1DC
  8
回12-寸法
 62
     5
 10
3880.418590593717
 20
297.4864637187599
 30
0.0
 11
3865.008590593717
 21
297.4864637187599
 31
0.0
  0
INSERT
  5
1DD
  8
回12-寸法
 62
     5
  2
_OPEN
 10
3880.418590593717
 20
297.4864637187599
 30
0.0
 41
2.0
 42
2.0
 43
2.0
 50
180.0
  0
INSERT
  5
1DE
  8
回12-寸法
 62
     5
  2
_OPEN
 10
3865.008590593717
 20
297.4864637187599
 30
0.0
 41
2.0
 42
2.0
 43
2.0
  0
TEXT
  5
1DF
  8
回12-寸法
 62
     5
 10
3831.908590593717
 20
298.1864637187598
 30
0.0
 40
4.0
  1
15.41 [0.607]
1001
ACAD
1000
MTEXTBEGIN
1070
    73
1070
     1
1070
    44
1040
1.0
1070
    74
1070
     0
1000
MTEXTEND
  0
POINT
  5
1E0
  8
DEFPOINTS
 62
     0
 10
3880.418590593717
 20
252.1380604919971
 30
0.0
  0
POINT
  5
1E1
  8
DEFPOINTS
 62
     0
 10
3865.008590593717
 20
258.9280604919971
 30
0.0
  0
POINT
  5
1E2
  8
DEFPOINTS
 62
     0
 10
3865.008590593717
 20
297.4864637187599
 30
0.0
  0
ENDBLK
  5
1E3
  8
0
 62
     7
  0
BLOCK
  8
0
  2
*D6
 70
     1
 10
0.0
 20
0.0
 30
0.0
  3
*D6
  1

  0
LINE
  5
1CB
  8
回12-寸法
 62
     5
 10
3880.418590593717
 20
252.1380604919971
 30
0.0
 11
3880.418590593717
 21
298.4864637187599
 31
0.0
  0
LINE
  5
1CC
  8
回12-寸法
 62
     5
 10
4222.618590593716
 20
252.1380604919971
 30
0.0
 11
4222.618590593716
 21
298.4864637187599
 31
0.0
  0
LINE
  5
1CD
  8
回12-寸法
 62
     5
 10
3882.418590593717
 20
297.4864637187599
 30
0.0
 11
4220.618590593716
 21
297.4864637187599
 31
0.0
  0
INSERT
  5
1CE
  8
回12-寸法
 62
     5
  2
_OPEN
 10
3880.418590593717
 20
297.4864637187599
 30
0.0
 41
2.0
 42
2.0
 43
2.0
 50
180.0
  0
INSERT
  5
1CF
  8
回12-寸法
 62
     5
  2
_OPEN
 10
4222.618590593716
 20
297.4864637187599
 30
0.0
 41
2.0
 42
2.0
 43
2.0
  0
TEXT
  5
1D0
  8
回12-寸法
 62
     5
 10
4034.918590593717
 20
298.1864637187598
 30
0.0
 40
4.0
  1
342.2 [13.472]
1001
ACAD
1000
MTEXTBEGIN
1070
    73
1070
     1
1070
    44
1040
1.0
1070
    74
1070
     0
1000
MTEXTEND
  0
POINT
  5
1D1
  8
DEFPOINTS
 62
     0
 10
3880.418590593717
 20
252.1380604919971
 30
0.0
  0
POINT
  5
1D2
  8
DEFPOINTS
 62
     0
 10
4222.618590593716
 20
252.1380604919971
 30
0.0
  0
POINT
  5
1D3
  8
DEFPOINTS
 62
     0
 10
4222.618590593716
 20
297.4864637187599
 30
0.0
  0
ENDBLK
  5
1D4
  8
0
 62
     7
  0
BLOCK
  8
0
  2
*D7
 70
     1
 10
0.0
 20
0.0
 30
0.0
  3
*D7
  1

  0
LINE
  5
1BE
  8
回12-寸法
 62
     5
 10
3865.008590593717
 20
258.9280604919971
 30
0.0
 11
3865.008590593717
 21
311.0451902098672
 31
0.0
  0
LINE
  5
1BF
  8
回12-寸法
 62
     5
 10
4230.408590593716
 20
256.9280604919971
 30
0.0
 11
4230.408590593716
 21
311.0451902098672
 31
0.0
  0
LINE
  5
1C0
  8
回12-寸法
 62
     5
 10
3867.008590593717
 20
310.0451902098672
 30
0.0
 11
4228.408590593716
 21
310.0451902098672
 31
0.0
  0
INSERT
  5
1C1
  8
回12-寸法
 62
     5
  2
_OPEN
 10
3865.008590593717
 20
310.0451902098672
 30
0.0
 41
2.0
 42
2.0
 43
2.0
 50
180.0
  0
INSERT
  5
1C2
  8
回12-寸法
 62
     5
  2
_OPEN
 10
4230.408590593716
 20
310.0451902098672
 30
0.0
 41
2.0
 42
2.0
 43
2.0
  0
INSERT
  5
1C3
  8
回12-寸法
 62
     5
 66
     1
  2
*X31
 10
0.0
 20
0.0
 30
0.0
  0
SEQEND
  5
3B9
  8
0
 62
     7
  0
POINT
  5
1C4
  8
DEFPOINTS
 62
     0
 10
3865.008590593717
 20
258.9280604919971
 30
0.0
  0
POINT
  5
1C5
  8
DEFPOINTS
 62
     0
 10
4230.408590593716
 20
256.9280604919971
 30
0.0
  0
POINT
  5
1C6
  8
DEFPOINTS
 62
     0
 10
4230.408590593716
 20
310.0451902098672
 30
0.0
  0
ENDBLK
  5
1C7
  8
0
 62
     7
  0
BLOCK
  8
0
  2
*D8
 70
     1
 10
0.0
 20
0.0
 30
0.0
  3
*D8
  1

  0
LINE
  5
1B1
  8
回12-寸法
 62
     5
 10
3881.518590593716
 20
251.0380604919971
 30
0.0
 11
3881.518590593716
 21
287.2121492225066
 31
0.0
  0
LINE
  5
1B2
  8
回12-寸法
 62
     5
 10
4221.518590593716
 20
251.0380604919971
 30
0.0
 11
4221.518590593716
 21
287.2121492225066
 31
0.0
  0
LINE
  5
1B3
  8
回12-寸法
 62
     5
 10
3883.518590593716
 20
286.2121492225066
 30
0.0
 11
4219.518590593716
 21
286.2121492225066
 31
0.0
  0
INSERT
  5
1B4
  8
回12-寸法
 62
     5
  2
_OPEN
 10
3881.518590593716
 20
286.2121492225066
 30
0.0
 41
2.0
 42
2.0
 43
2.0
 50
180.0
  0
INSERT
  5
1B5
  8
回12-寸法
 62
     5
  2
_OPEN
 10
4221.518590593716
 20
286.2121492225066
 30
0.0
 41
2.0
 42
2.0
 43
2.0
  0
TEXT
  5
1B6
  8
回12-寸法
 62
     5
 10
4017.919377995291
 20
286.9121492225066
 30
0.0
 40
4.0
  1
340 [13.386] (ACTIVE AREA)
1001
ACAD
1000
MTEXTBEGIN
1070
    73
1070
     1
1070
    44
1040
1.0
1070
    74
1070
     0
1000
MTEXTEND
  0
POINT
  5
1B7
  8
DEFPOINTS
 62
     0
 10
3881.518590593716
 20
251.0380604919971
 30
0.0
  0
POINT
  5
1B8
  8
DEFPOINTS
 62
     0
 10
4221.518590593716
 20
251.0380604919971
 30
0.0
  0
POINT
  5
1B9
  8
DEFPOINTS
 62
     0
 10
4221.518590593716
 20
286.2121492225066
 30
0.0
  0
ENDBLK
  5
1BA
  8
0
 62
     7
  0
BLOCK
  8
0
  2
*D9
 70
     1
 10
0.0
 20
0.0
 30
0.0
  3
*D9
  1

  0
LINE
  5
1A2
  8
回12-寸法
 62
     5
 10
4221.518590593716
 20
251.0380604919971
 30
0.0
 11
4221.518590593716
 21
287.2121492225066
 31
0.0
  0
LINE
  5
1A3
  8
回12-寸法
 62
     5
 10
4230.408590593716
 20
256.9280604919971
 30
0.0
 11
4230.408590593716
 21
287.2121492225066
 31
0.0
  0
LINE
  5
1A4
  8
回12-寸法
 62
     5
 10
4219.518590593716
 20
286.2121492225066
 30
0.0
 11
4217.518590593716
 21
286.2121492225066
 31
0.0
  0
LINE
  5
1A5
  8
回12-寸法
 62
     5
 10
4232.408590593716
 20
286.2121492225066
 30
0.0
 11
4261.822567915692
 21
286.2121492225066
 31
0.0
  0
LINE
  5
1A6
  8
回12-寸法
 62
     5
 10
4221.518590593716
 20
286.2121492225066
 30
0.0
 11
4230.408590593716
 21
286.2121492225066
 31
0.0
  0
INSERT
  5
1A7
  8
回12-寸法
 62
     5
  2
_OPEN
 10
4221.518590593716
 20
286.2121492225066
 30
0.0
 41
2.0
 42
2.0
 43
2.0
  0
INSERT
  5
1A8
  8
回12-寸法
 62
     5
  2
_OPEN
 10
4230.408590593716
 20
286.2121492225066
 30
0.0
 41
2.0
 42
2.0
 43
2.0
 50
180.0
  0
TEXT
  5
1A9
  8
回12-寸法
 62
     5
 10
4234.30835851765
 20
286.9121492225066
 30
0.0
 40
4.0
  1
8.89 [0.350]
1001
ACAD
1000
MTEXTBEGIN
1070
    73
1070
     1
1070
    44
1040
1.0
1070
    74
1070
     0
1000
MTEXTEND
  0
POINT
  5
1AA
  8
DEFPOINTS
 62
     0
 10
4221.518590593716
 20
251.0380604919971
 30
0.0
  0
POINT
  5
1AB
  8
DEFPOINTS
 62
     0
 10
4230.408590593716
 20
256.9280604919971
 30
0.0
  0
POINT
  5
1AC
  8
DEFPOINTS
 62
     0
 10
4230.408590593716
 20
286.2121492225066
 30
0.0
  0
ENDBLK
  5
1AD
  8
0
 62
     7
  0
BLOCK
  8
0
  2
*D10
 70
     1
 10
0.0
 20
0.0
 30
0.0
  3
*D10
  1

  0
LINE
  5
193
  8
回12-寸法
 62
     5
 10
4222.618590593716
 20
252.1380604919969
 30
0.0
 11
4222.618590593716
 21
298.4864637187599
 31
0.0
  0
LINE
  5
194
  8
回12-寸法
 62
     5
 10
4230.408590593716
 20
256.9280604919971
 30
0.0
 11
4230.408590593716
 21
298.4864637187599
 31
0.0
  0
LINE
  5
195
  8
回12-寸法
 62
     5
 10
4220.618590593716
 20
297.4864637187599
 30
0.0
 11
4218.618590593716
 21
297.4864637187599
 31
0.0
  0
LINE
  5
196
  8
回12-寸法
 62
     5
 10
4232.408590593716
 20
297.4864637187599
 30
0.0
 11
4261.822567915692
 21
297.4864637187599
 31
0.0
  0
LINE
  5
197
  8
回12-寸法
 62
     5
 10
4222.618590593716
 20
297.4864637187599
 30
0.0
 11
4230.408590593716
 21
297.4864637187599
 31
0.0
  0
INSERT
  5
198
  8
回12-寸法
 62
     5
  2
_OPEN
 10
4222.618590593716
 20
297.4864637187599
 30
0.0
 41
2.0
 42
2.0
 43
2.0
  0
INSERT
  5
199
  8
回12-寸法
 62
     5
  2
_OPEN
 10
4230.408590593716
 20
297.4864637187599
 30
0.0
 41
2.0
 42
2.0
 43
2.0
 50
180.0
  0
TEXT
  5
19A
  8
回12-寸法
 62
     5
 10
4234.30835851765
 20
298.1864637187598
 30
0.0
 40
4.0
  1
7.79 [0.307]
1001
ACAD
1000
MTEXTBEGIN
1070
    73
1070
     1
1070
    44
1040
1.0
1070
    74
1070
     0
1000
MTEXTEND
  0
POINT
  5
19B
  8
DEFPOINTS
 62
     0
 10
4222.618590593716
 20
252.1380604919969
 30
0.0
  0
POINT
  5
19C
  8
DEFPOINTS
 62
     0
 10
4230.408590593716
 20
256.9280604919971
 30
0.0
  0
POINT
  5
19D
  8
DEFPOINTS
 62
     0
 10
4230.408590593716
 20
297.4864637187599
 30
0.0
  0
ENDBLK
  5
19E
  8
0
 62
     7
  0
BLOCK
  8
0
  2
*D11
 70
     1
 10
0.0
 20
0.0
 30
0.0
  3
*D11
  1

  0
LINE
  5
184
  8
回12-寸法
 62
     5
 10
4221.518590593716
 20
251.0380604919971
 30
0.0
 11
4274.059316596031
 21
251.0380604919971
 31
0.0
  0
LINE
  5
185
  8
回12-寸法
 62
     5
 10
4227.408590593716
 20
259.9280604919971
 30
0.0
 11
4274.059316596031
 21
259.9280604919971
 31
0.0
  0
LINE
  5
186
  8
回12-寸法
 62
     5
 10
4273.059316596031
 20
249.0380604919971
 30
0.0
 11
4273.059316596031
 21
247.0380604919971
 31
0.0
  0
LINE
  5
187
  8
回12-寸法
 62
     5
 10
4273.059316596031
 20
261.9280604919971
 30
0.0
 11
4273.059316596031
 21
291.3420378139742
 31
0.0
  0
LINE
  5
188
  8
回12-寸法
 62
     5
 10
4273.059316596031
 20
251.0380604919971
 30
0.0
 11
4273.059316596031
 21
259.9280604919971
 31
0.0
  0
INSERT
  5
189
  8
回12-寸法
 62
     5
  2
_OPEN
 10
4273.059316596031
 20
251.0380604919971
 30
0.0
 41
2.0
 42
2.0
 43
2.0
 50
90.0
  0
INSERT
  5
18A
  8
回12-寸法
 62
     5
  2
_OPEN
 10
4273.059316596031
 20
259.9280604919971
 30
0.0
 41
2.0
 42
2.0
 43
2.0
 50
270.0
  0
TEXT
  5
18B
  8
回12-寸法
 62
     5
 10
4272.35931659603
 20
263.8278284159323
 30
0.0
 40
4.0
  1
8.89 [0.350]
 50
90.0
1001
ACAD
1000
MTEXTBEGIN
1070
    73
1070
     1
1070
    44
1040
1.0
1070
    74
1070
     0
1000
MTEXTEND
  0
POINT
  5
18C
  8
DEFPOINTS
 62
     0
 10
4221.518590593716
 20
251.0380604919971
 30
0.0
  0
POINT
  5
18D
  8
DEFPOINTS
 62
     0
 10
4227.408590593716
 20
259.9280604919971
 30
0.0
  0
POINT
  5
18E
  8
DEFPOINTS
 62
     0
 10
4273.059316596031
 20
259.9280604919971
 30
0.0
  0
ENDBLK
  5
18F
  8
0
 62
     7
  0
BLOCK
  8
0
  2
*D12
 70
     1
 10
0.0
 20
0.0
 30
0.0
  3
*D12
  1

  0
LINE
  5
175
  8
回12-寸法
 62
     5
 10
4222.618590593716
 20
252.1380604919969
 30
0.0
 11
4283.169088549434
 21
252.1380604919969
 31
0.0
  0
LINE
  5
176
  8
回12-寸法
 62
     5
 10
4227.408590593716
 20
259.9280604919971
 30
0.0
 11
4283.169088549434
 21
259.9280604919971
 31
0.0
  0
LINE
  5
177
  8
回12-寸法
 62
     5
 10
4282.169088549433
 20
250.1380604919969
 30
0.0
 11
4282.169088549433
 21
248.1380604919969
 31
0.0
  0
LINE
  5
178
  8
回12-寸法
 62
     5
 10
4282.169088549433
 20
261.9280604919971
 30
0.0
 11
4282.169088549433
 21
291.3420378139742
 31
0.0
  0
LINE
  5
179
  8
回12-寸法
 62
     5
 10
4282.169088549433
 20
252.1380604919969
 30
0.0
 11
4282.169088549433
 21
259.9280604919971
 31
0.0
  0
INSERT
  5
17A
  8
回12-寸法
 62
     5
  2
_OPEN
 10
4282.169088549433
 20
252.1380604919969
 30
0.0
 41
2.0
 42
2.0
 43
2.0
 50
90.0
  0
INSERT
  5
17B
  8
回12-寸法
 62
     5
  2
_OPEN
 10
4282.169088549433
 20
259.9280604919971
 30
0.0
 41
2.0
 42
2.0
 43
2.0
 50
270.0
  0
TEXT
  5
17C
  8
回12-寸法
 62
     5
 10
4281.469088549433
 20
263.8278284159323
 30
0.0
 40
4.0
  1
7.79 [0.307]
 50
90.0
1001
ACAD
1000
MTEXTBEGIN
1070
    73
1070
     1
1070
    44
1040
1.0
1070
    74
1070
     0
1000
MTEXTEND
  0
POINT
  5
17D
  8
DEFPOINTS
 62
     0
 10
4222.618590593716
 20
252.1380604919969
 30
0.0
  0
POINT
  5
17E
  8
DEFPOINTS
 62
     0
 10
4227.408590593716
 20
259.9280604919971
 30
0.0
  0
POINT
  5
17F
  8
DEFPOINTS
 62
     0
 10
4282.169088549433
 20
259.9280604919971
 30
0.0
  0
ENDBLK
  5
180
  8
0
 62
     7
  0
BLOCK
  8
0
  2
*D13
 70
     1
 10
0.0
 20
0.0
 30
0.0
  3
*D13
  1

  0
LINE
  5
168
  8
回12-寸法
 62
     5
 10
4227.408590593716
 20
259.9280604919971
 30
0.0
 11
4292.686755926506
 21
259.9280604919971
 31
0.0
  0
LINE
  5
169
  8
回12-寸法
 62
     5
 10
4229.408590593716
 20
-30.25193950800298
 30
0.0
 11
4292.686755926506
 21
-30.25193950800298
 31
0.0
  0
LINE
  5
16A
  8
回12-寸法
 62
     5
 10
4291.686755926506
 20
257.9280604919971
 30
0.0
 11
4291.686755926506
 21
-28.25193950800299
 31
0.0
  0
INSERT
  5
16B
  8
回12-寸法
 62
     5
  2
_OPEN
 10
4291.686755926506
 20
259.9280604919971
 30
0.0
 41
2.0
 42
2.0
 43
2.0
 50
90.0
  0
INSERT
  5
16C
  8
回12-寸法
 62
     5
  2
_OPEN
 10
4291.686755926506
 20
-30.251939508003
 30
0.0
 41
2.0
 42
2.0
 43
2.0
 50
270.0
  0
INSERT
  5
16D
  8
回12-寸法
 62
     5
 66
     1
  2
*X32
 10
0.0
 20
0.0
 30
0.0
  0
SEQEND
  5
3C2
  8
0
 62
     7
  0
POINT
  5
16E
  8
DEFPOINTS
 62
     0
 10
4227.408590593716
 20
259.9280604919971
 30
0.0
  0
POINT
  5
16F
  8
DEFPOINTS
 62
     0
 10
4229.408590593716
 20
-30.25193950800298
 30
0.0
  0
POINT
  5
170
  8
DEFPOINTS
 62
     0
 10
4291.686755926506
 20
-30.251939508003
 30
0.0
  0
ENDBLK
  5
171
  8
0
 62
     7
  0
BLOCK
  8
0
  2
*D14
 70
     1
 10
0.0
 20
0.0
 30
0.0
  3
*D14
  1

  0
LINE
  5
15B
  8
回12-寸法
 62
     5
 10
4222.618590593716
 20
252.1380604919969
 30
0.0
 11
4283.169088549434
 21
252.1380604919969
 31
0.0
  0
LINE
  5
15C
  8
回12-寸法
 62
     5
 10
4222.618590593716
 20
-22.46193950800304
 30
0.0
 11
4283.169088549434
 21
-22.46193950800304
 31
0.0
  0
LINE
  5
15D
  8
回12-寸法
 62
     5
 10
4282.169088549433
 20
250.1380604919969
 30
0.0
 11
4282.169088549433
 21
-20.46193950800306
 31
0.0
  0
INSERT
  5
15E
  8
回12-寸法
 62
     5
  2
_OPEN
 10
4282.169088549433
 20
252.1380604919969
 30
0.0
 41
2.0
 42
2.0
 43
2.0
 50
90.0
  0
INSERT
  5
15F
  8
回12-寸法
 62
     5
  2
_OPEN
 10
4282.169088549433
 20
-22.46193950800306
 30
0.0
 41
2.0
 42
2.0
 43
2.0
 50
270.0
  0
TEXT
  5
160
  8
回12-寸法
 62
     5
 10
4281.469088549433
 20
99.2380604919972
 30
0.0
 40
4.0
  1
274.6 [10.811]
 50
90.0
1001
ACAD
1000
MTEXTBEGIN
1070
    73
1070
     1
1070
    44
1040
1.0
1070
    74
1070
     0
1000
MTEXTEND
  0
POINT
  5
161
  8
DEFPOINTS
 62
     0
 10
4222.618590593716
 20
252.1380604919969
 30
0.0
  0
POINT
  5
162
  8
DEFPOINTS
 62
     0
 10
4222.618590593716
 20
-22.46193950800304
 30
0.0
  0
POINT
  5
163
  8
DEFPOINTS
 62
     0
 10
4282.169088549433
 20
-22.46193950800306
 30
0.0
  0
ENDBLK
  5
164
  8
0
 62
     7
  0
BLOCK
  8
0
  2
*D15
 70
     1
 10
0.0
 20
0.0
 30
0.0
  3
*D15
  1

  0
LINE
  5
14C
  8
回12-寸法
 62
     5
 10
4222.618590593716
 20
-22.46193950800304
 30
0.0
 11
4283.169088549434
 21
-22.46193950800304
 31
0.0
  0
LINE
  5
14D
  8
回12-寸法
 62
     5
 10
4229.408590593716
 20
-30.25193950800298
 30
0.0
 11
4283.169088549434
 21
-30.25193950800298
 31
0.0
  0
LINE
  5
14E
  8
回12-寸法
 62
     5
 10
4282.169088549433
 20
-20.46193950800306
 30
0.0
 11
4282.169088549433
 21
-18.46193950800306
 31
0.0
  0
LINE
  5
14F
  8
回12-寸法
 62
     5
 10
4282.169088549433
 20
-32.25193950800299
 30
0.0
 11
4282.169088549433
 21
-61.6659168299801
 31
0.0
  0
LINE
  5
150
  8
回12-寸法
 62
     5
 10
4282.169088549433
 20
-22.46193950800306
 30
0.0
 11
4282.169088549433
 21
-30.251939508003
 31
0.0
  0
INSERT
  5
151
  8
回12-寸法
 62
     5
  2
_OPEN
 10
4282.169088549433
 20
-22.46193950800306
 30
0.0
 41
2.0
 42
2.0
 43
2.0
 50
270.0
  0
INSERT
  5
152
  8
回12-寸法
 62
     5
  2
_OPEN
 10
4282.169088549433
 20
-30.251939508003
 30
0.0
 41
2.0
 42
2.0
 43
2.0
 50
90.0
  0
TEXT
  5
153
  8
回12-寸法
 62
     5
 10
4281.469088549433
 20
-61.76614890604469
 30
0.0
 40
4.0
  1
7.79 [0.307]
 50
90.0
1001
ACAD
1000
MTEXTBEGIN
1070
    73
1070
     1
1070
    44
1040
1.0
1070
    74
1070
     0
1000
MTEXTEND
  0
POINT
  5
154
  8
DEFPOINTS
 62
     0
 10
4222.618590593716
 20
-22.46193950800304
 30
0.0
  0
POINT
  5
155
  8
DEFPOINTS
 62
     0
 10
4229.408590593716
 20
-30.25193950800298
 30
0.0
  0
POINT
  5
156
  8
DEFPOINTS
 62
     0
 10
4282.169088549433
 20
-30.251939508003
 30
0.0
  0
ENDBLK
  5
157
  8
0
 62
     7
  0
BLOCK
  8
0
  2
*D16
 70
     1
 10
0.0
 20
0.0
 30
0.0
  3
*D16
  1

  0
LINE
  5
13D
  8
回12-寸法
 62
     5
 10
4221.518590593716
 20
-21.36193950800288
 30
0.0
 11
4274.059316596031
 21
-21.36193950800288
 31
0.0
  0
LINE
  5
13E
  8
回12-寸法
 62
     5
 10
4229.408590593716
 20
-30.25193950800298
 30
0.0
 11
4274.059316596031
 21
-30.25193950800298
 31
0.0
  0
LINE
  5
13F
  8
回12-寸法
 62
     5
 10
4273.059316596031
 20
-19.36193950800289
 30
0.0
 11
4273.059316596031
 21
-17.36193950800289
 31
0.0
  0
LINE
  5
140
  8
回12-寸法
 62
     5
 10
4273.059316596031
 20
-32.25193950800299
 30
0.0
 11
4273.059316596031
 21
-64.86276722368089
 31
0.0
  0
LINE
  5
141
  8
回12-寸法
 62
     5
 10
4273.059316596031
 20
-21.36193950800289
 30
0.0
 11
4273.059316596031
 21
-30.25193950800299
 31
0.0
  0
INSERT
  5
142
  8
回12-寸法
 62
     5
  2
_OPEN
 10
4273.059316596031
 20
-21.36193950800289
 30
0.0
 41
2.0
 42
2.0
 43
2.0
 50
270.0
  0
INSERT
  5
143
  8
回12-寸法
 62
     5
  2
_OPEN
 10
4273.059316596031
 20
-30.25193950800299
 30
0.0
 41
2.0
 42
2.0
 43
2.0
 50
90.0
  0
TEXT
  5
144
  8
回12-寸法
 62
     5
 10
4272.358349877992
 20
-64.96457410289531
 30
0.0
 40
4.0
  1
(8.89 [0.350])
 50
90.0
1001
ACAD
1000
MTEXTBEGIN
1070
    73
1070
     1
1070
    44
1040
1.0
1070
    74
1070
     0
1000
MTEXTEND
  0
POINT
  5
145
  8
DEFPOINTS
 62
     0
 10
4221.518590593716
 20
-21.36193950800288
 30
0.0
  0
POINT
  5
146
  8
DEFPOINTS
 62
     0
 10
4229.408590593716
 20
-30.25193950800298
 30
0.0
  0
POINT
  5
147
  8
DEFPOINTS
 62
     0
 10
4273.059316596031
 20
-30.25193950800299
 30
0.0
  0
ENDBLK
  5
148
  8
0
 62
     7
  0
BLOCK
  8
0
  2
*D17
 70
     1
 10
0.0
 20
0.0
 30
0.0
  3
*D17
  1

  0
LINE
  5
130
  8
回12-寸法
 62
     5
 10
4221.518590593716
 20
251.0380604919971
 30
0.0
 11
4274.059316596031
 21
251.0380604919971
 31
0.0
  0
LINE
  5
131
  8
回12-寸法
 62
     5
 10
4221.518590593716
 20
-21.36193950800288
 30
0.0
 11
4274.059316596031
 21
-21.36193950800288
 31
0.0
  0
LINE
  5
132
  8
回12-寸法
 62
     5
 10
4273.059316596031
 20
249.0380604919971
 30
0.0
 11
4273.059316596031
 21
-19.36193950800289
 31
0.0
  0
INSERT
  5
133
  8
回12-寸法
 62
     5
  2
_OPEN
 10
4273.059316596031
 20
251.0380604919971
 30
0.0
 41
2.0
 42
2.0
 43
2.0
 50
90.0
  0
INSERT
  5
134
  8
回12-寸法
 62
     5
  2
_OPEN
 10
4273.059316596031
 20
-21.36193950800289
 30
0.0
 41
2.0
 42
2.0
 43
2.0
 50
270.0
  0
TEXT
  5
135
  8
回12-寸法
 62
     5
 10
4272.35931659603
 20
79.03884789357198
 30
0.0
 40
4.0
  1
272.4 [10.724] (ACTIVE AREA)
 50
90.0
1001
ACAD
1000
MTEXTBEGIN
1070
    73
1070
     1
1070
    44
1040
1.0
1070
    74
1070
     0
1000
MTEXTEND
  0
POINT
  5
136
  8
DEFPOINTS
 62
     0
 10
4221.518590593716
 20
251.0380604919971
 30
0.0
  0
POINT
  5
137
  8
DEFPOINTS
 62
     0
 10
4221.518590593716
 20
-21.36193950800288
 30
0.0
  0
POINT
  5
138
  8
DEFPOINTS
 62
     0
 10
4273.059316596031
 20
-21.36193950800289
 30
0.0
  0
ENDBLK
  5
139
  8
0
 62
     7
  0
BLOCK
  8
0
  2
*D18
 70
     1
 10
0.0
 20
0.0
 30
0.0
  3
*D18
  1

  0
LINE
  5
123
  8
回12-寸法
 62
     5
 10
3755.008590593717
 20
108.5642604919971
 30
0.0
 11
3755.008590593717
 21
76.57450398981985
 31
0.0
  0
LINE
  5
124
  8
回12-寸法
 62
     5
 10
3865.008590593716
 20
80.48277933731709
 30
0.0
 11
3865.008590593716
 21
76.57450398981985
 31
0.0
  0
LINE
  5
125
  8
回12-寸法
 62
     5
 10
3757.008590593716
 20
77.57450398981984
 30
0.0
 11
3863.008590593717
 21
77.57450398981984
 31
0.0
  0
INSERT
  5
126
  8
回12-寸法
 62
     5
  2
_OPEN
 10
3755.008590593717
 20
77.57450398981984
 30
0.0
 41
2.0
 42
2.0
 43
2.0
 50
180.0
  0
INSERT
  5
127
  8
回12-寸法
 62
     5
  2
_OPEN
 10
3865.008590593716
 20
77.57450398981984
 30
0.0
 41
2.0
 42
2.0
 43
2.0
  0
INSERT
  5
128
  8
回12-寸法
 62
     5
 66
     1
  2
*X33
 10
0.0
 20
0.0
 30
0.0
  0
SEQEND
  5
3CB
  8
0
 62
     7
  0
POINT
  5
129
  8
DEFPOINTS
 62
     0
 10
3755.008590593717
 20
108.5642604919971
 30
0.0
  0
POINT
  5
12A
  8
DEFPOINTS
 62
     0
 10
3865.008590593716
 20
80.48277933731709
 30
0.0
  0
POINT
  5
12B
  8
DEFPOINTS
 62
     0
 10
3865.008590593716
 20
77.57450398981984
 30
0.0
  0
ENDBLK
  5
12C
  8
0
 62
     7
  0
BLOCK
  8
0
  2
*D19
 70
     1
 10
0.0
 20
0.0
 30
0.0
  3
*D19
  1

  0
LINE
  5
114
  8
回12-寸法
 62
     5
 10
3763.763590593717
 20
122.4580604919974
 30
0.0
 11
3731.920048763202
 21
122.4580604919974
 31
0.0
  0
LINE
  5
115
  8
回12-寸法
 62
     5
 10
3763.763590593717
 20
107.2180604919972
 30
0.0
 11
3731.920048763202
 21
107.2180604919972
 31
0.0
  0
LINE
  5
116
  8
回12-寸法
 62
     5
 10
3732.920048763201
 20
124.4580604919975
 30
0.0
 11
3732.920048763201
 21
126.4580604919975
 31
0.0
  0
LINE
  5
117
  8
回12-寸法
 62
     5
 10
3732.920048763201
 20
105.2180604919972
 30
0.0
 11
3732.920048763201
 21
56.05806049199723
 31
0.0
  0
LINE
  5
118
  8
回12-寸法
 62
     5
 10
3732.920048763201
 20
122.4580604919975
 30
0.0
 11
3732.920048763201
 21
107.2180604919972
 31
0.0
  0
INSERT
  5
119
  8
回12-寸法
 62
     5
  2
_OPEN
 10
3732.920048763201
 20
122.4580604919975
 30
0.0
 41
2.0
 42
2.0
 43
2.0
 50
270.0
  0
INSERT
  5
11A
  8
回12-寸法
 62
     5
  2
_OPEN
 10
3732.920048763201
 20
107.2180604919972
 30
0.0
 41
2.0
 42
2.0
 43
2.0
 50
90.0
  0
INSERT
  5
11B
  8
回12-寸法
 62
     5
 66
     1
  2
*X34
 10
0.0
 20
0.0
 30
0.0
  0
SEQEND
  5
3D4
  8
0
 62
     7
  0
POINT
  5
11C
  8
DEFPOINTS
 62
     0
 10
3763.763590593717
 20
122.4580604919974
 30
0.0
  0
POINT
  5
11D
  8
DEFPOINTS
 62
     0
 10
3763.763590593717
 20
107.2180604919972
 30
0.0
  0
POINT
  5
11E
  8
DEFPOINTS
 62
     0
 10
3732.920048763201
 20
107.2180604919972
 30
0.0
  0
ENDBLK
  5
11F
  8
0
 62
     7
  0
BLOCK
  8
0
  2
*D20
 70
     1
 10
0.0
 20
0.0
 30
0.0
  3
*D20
  1

  0
LINE
  5
106
  8
回12-寸法
 62
     5
 10
3866.008590593717
 20
259.9280604919971
 30
0.0
 11
3731.920048763202
 21
259.9280604919971
 31
0.0
  0
LINE
  5
107
  8
回12-寸法
 62
     5
 10
3763.763590593717
 20
122.4580604919974
 30
0.0
 11
3731.920048763202
 21
122.4580604919974
 31
0.0
  0
LINE
  5
108
  8
回12-寸法
 62
     5
 10
3732.920048763201
 20
257.9280604919971
 30
0.0
 11
3732.920048763201
 21
124.4580604919975
 31
0.0
  0
INSERT
  5
109
  8
回12-寸法
 62
     5
  2
_OPEN
 10
3732.920048763201
 20
259.9280604919971
 30
0.0
 41
2.0
 42
2.0
 43
2.0
 50
90.0
  0
INSERT
  5
10A
  8
回12-寸法
 62
     5
  2
_OPEN
 10
3732.920048763201
 20
122.4580604919975
 30
0.0
 41
2.0
 42
2.0
 43
2.0
 50
270.0
  0
TEXT
  5
10B
  8
回12-寸法
 62
     5
 10
3732.220048763202
 20
173.3930604919978
 30
0.0
 40
4.0
  1
(137.47 [5.412])
 50
90.0
1001
ACAD
1000
MTEXTBEGIN
1070
    73
1070
     1
1070
    44
1040
1.0
1070
    74
1070
     0
1000
MTEXTEND
  0
POINT
  5
10C
  8
DEFPOINTS
 62
     0
 10
3866.008590593717
 20
259.9280604919971
 30
0.0
  0
POINT
  5
10E
  8
DEFPOINTS
 62
     0
 10
3763.763590593717
 20
122.4580604919974
 30
0.0
  0
POINT
  5
10F
  8
DEFPOINTS
 62
     0
 10
3732.920048763201
 20
122.4580604919975
 30
0.0
  0
ENDBLK
  5
110
  8
0
 62
     7
  0
BLOCK
  8
0
  2
*X21
 70
     1
 10
0.0
 20
0.0
 30
0.0
  3
*X21
  1

  0
INSERT
  5
313
  8
回13-記事
 62
     5
  2
_OPEN
 10
4228.462960812453
 20
-7.977367155122806
 30
0.0
 41
1.999999999999999
 42
1.999999999999999
 43
2.0
 50
252.9782220728719
  0
LINE
  5
314
  8
回13-記事
 62
     5
 10
4229.048431155884
 20
-6.064980040294374
 30
0.0
 11
4230.669091430636
 21
-0.7712365369403642
 31
0.0
  0
LINE
  5
315
  8
回13-記事
 62
     5
 10
4230.669091430636
 20
-0.7712365369403642
 30
0.0
 11
4254.769091430635
 21
-0.7712365369403642
 31
0.0
  0
ENDBLK
  5
317
  8
0
 62
     7
  0
BLOCK
  8
0
  2
*X22
 70
     1
 10
0.0
 20
0.0
 30
0.0
  3
*X22
  1

  0
LINE
  5
31A
  8
回13-記事
 62
     8
 10
3857.008590593717
 20
-71.99928212668959
 30
0.0
 11
3857.58165565129
 21
-71.42621706911717
 31
0.0
  0
LINE
  5
31B
  8
回13-記事
 62
     8
 10
3858.39446154711
 20
-72.38117812626277
 30
0.0
 11
3859.349422604257
 21
-71.42621706911686
 31
0.0
  0
LINE
  5
31C
  8
回13-記事
 62
     8
 10
3860.162228500077
 20
-72.38117812626277
 30
0.0
 11
3861.117189557223
 21
-71.4262170691172
 31
0.0
  0
LINE
  5
31D
  8
回13-記事
 62
     8
 10
3861.929995453044
 20
-72.38117812626246
 30
0.0
 11
3862.884956510189
 21
-71.42621706911689
 31
0.0
  0
LINE
  5
31E
  8
回13-記事
 62
     8
 10
3863.697762406011
 20
-72.38117812626246
 30
0.0
 11
3865.113714932162
 21
-70.96522560011104
 31
0.0
  0
LINE
  5
31F
  8
回13-記事
 62
     8
 10
3865.465529358977
 20
-72.38117812626279
 30
0.0
 11
3865.508590593717
 21
-72.33811689152261
 31
0.0
  0
LINE
  5
320
  8
回13-記事
 62
     8
 10
3865.96480246474
 20
-71.88190502049969
 30
0.0
 11
3866.881481885129
 21
-70.96522560011073
 31
0.0
  0
LINE
  5
321
  8
回13-記事
 62
     8
 10
3867.732569417706
 20
-71.88190502049969
 30
0.0
 11
3868.649248838096
 21
-70.96522560011073
 31
0.0
  0
LINE
  5
322
  8
回13-記事
 62
     8
 10
3869.500336370673
 20
-71.88190502049971
 30
0.0
 11
3870.417015791062
 21
-70.96522560011073
 31
0.0
  0
LINE
  5
323
  8
回13-記事
 62
     8
 10
3871.26810332364
 20
-71.88190502050002
 30
0.0
 11
3872.184782744028
 21
-70.96522560011107
 31
0.0
  0
LINE
  5
324
  8
回13-記事
 62
     8
 10
3873.035870276606
 20
-71.88190502049971
 30
0.0
 11
3873.952549696996
 21
-70.96522560011075
 31
0.0
  0
ENDBLK
  5
326
  8
0
 62
     7
  0
BLOCK
  8
0
  2
*X23
 70
     1
 10
0.0
 20
0.0
 30
0.0
  3
*X23
  1

  0
INSERT
  5
32E
  8
回13-記事
 62
     5
  2
_OPEN
 10
3807.208849465396
 20
-72.35631623778101
 30
0.0
 41
2.0
 42
2.0
 43
2.0
 50
251.5910413324891
  0
LINE
  5
32F
  8
回13-記事
  6
CONTINUOUS
 62
     5
 10
3807.840444260748
 20
-70.45866294634834
 30
0.0
 11
3810.70575012353
 21
-61.84973022319638
 31
0.0
  0
LINE
  5
330
  8
回13-記事
  6
CONTINUOUS
 62
     5
 10
3810.70575012353
 20
-61.84973022319638
 30
0.0
 11
3852.40575012353
 21
-61.84973022319638
 31
0.0
  0
ENDBLK
  5
332
  8
0
 62
     7
  0
BLOCK
  8
0
  2
*X24
 70
     1
 10
0.0
 20
0.0
 30
0.0
  3
*X24
  1

  0
INSERT
  5
33A
  8
回13-記事
 62
     5
  2
_OPEN
 10
3807.42931822603
 20
-76.55645097806803
 30
0.0
 41
2.0
 42
2.0
 43
2.0
 50
104.2855292362276
  0
LINE
  5
33B
  8
回13-記事
  6
CONTINUOUS
 62
     5
 10
3807.922826761706
 20
-78.49460714443207
 30
0.0
 11
3810.926218884164
 21
-90.28982960026736
 31
0.0
  0
LINE
  5
33C
  8
回13-記事
  6
CONTINUOUS
 62
     5
 10
3810.926218884164
 20
-90.28982960026736
 30
0.0
 11
3835.426218884164
 21
-90.28982960026736
 31
0.0
  0
ENDBLK
  5
33E
  8
0
 62
     7
  0
BLOCK
  8
0
  2
*X25
 70
     1
 10
0.0
 20
0.0
 30
0.0
  3
*X25
  1

  0
INSERT
  5
35F
  8
回12-寸法
 62
     5
  2
_OPEN
 10
3864.755391601333
 20
106.7818658658866
 30
0.0
 41
1.999999999999999
 42
1.999999999999999
 43
2.0
 50
54.63682172401227
  0
LINE
  5
360
  8
回12-寸法
 62
     5
 10
3863.597877196406
 20
105.150866049091
 30
0.0
 11
3859.86605657258
 21
99.89253083713244
 31
0.0
  0
LINE
  5
361
  8
回12-寸法
 62
     5
 10
3859.86605657258
 20
99.89253083713244
 30
0.0
 11
3846.965172078339
 21
99.89253083713244
 31
0.0
  0
ENDBLK
  5
363
  8
0
 62
     7
  0
BLOCK
  8
0
  2
*X26
 70
     1
 10
0.0
 20
0.0
 30
0.0
  3
*X26
  1

  0
LINE
  5
36B
  8
回13-記事
 62
     8
 10
3857.008590593716
 20
117.8114678725506
 30
0.0
 11
3861.155183213163
 21
121.9580604919974
 31
0.0
  0
LINE
  5
36C
  8
回13-記事
 62
     8
 10
3865.508590593716
 20
126.3114678725501
 30
0.0
 11
3868.275183213163
 21
129.078060491997
 31
0.0
  0
LINE
  5
36D
  8
回13-記事
 62
     8
 10
3857.008590593716
 20
113.3213398120159
 30
0.0
 11
3872.765311273697
 21
129.0780604919965
 31
0.0
  0
LINE
  5
36E
  8
回13-記事
 62
     8
 10
3857.008590593716
 20
108.8312117514812
 30
0.0
 11
3874.566590555023
 21
126.389211712788
 31
0.0
  0
LINE
  5
36F
  8
回13-記事
 62
     8
 10
3860.385567394766
 20
107.7180604919961
 30
0.0
 11
3874.566590555023
 21
121.8990836522539
 31
0.0
  0
LINE
  5
370
  8
回13-記事
 62
     8
 10
3864.8756954553
 20
107.7180604919963
 30
0.0
 11
3874.566590555023
 21
117.4089555917196
 31
0.0
  0
LINE
  5
371
  8
回13-記事
 62
     8
 10
3865.508590593716
 20
103.8608275698772
 30
0.0
 11
3874.566590555023
 21
112.9188275311849
 31
0.0
  0
LINE
  5
372
  8
回13-記事
 62
     8
 10
3866.73595157637
 20
100.5980604919966
 30
0.0
 11
3874.566590555023
 21
108.4286994706502
 31
0.0
  0
LINE
  5
373
  8
回13-記事
 62
     8
 10
3871.226079636904
 20
100.5980604919964
 30
0.0
 11
3874.566590555024
 21
103.9385714101161
 31
0.0
  0
ENDBLK
  5
375
  8
0
 62
     7
  0
BLOCK
  8
0
  2
*X27
 70
     1
 10
0.0
 20
0.0
 30
0.0
  3
*X27
  1

  0
TEXT
  5
384
  8
回13-記事
  6
CONTINUOUS
 62
     5
 10
3783.486355629464
 20
96.60614718139443
 30
0.0
 40
4.0
  1
・PART No. LABEL
  0
TEXT
  5
385
  8
回13-記事
  6
CONTINUOUS
 62
     5
 10
3797.086355629465
 20
89.93948051472775
 30
0.0
 40
4.0
  1
・LOT LABEL
  0
ENDBLK
  5
387
  8
0
 62
     7
  0
BLOCK
  8
0
  2
*X28
 70
     1
 10
0.0
 20
0.0
 30
0.0
  3
*X28
  1

  0
INSERT
  5
38A
  8
回13-記事
 62
     5
  2
_OPEN
 10
3836.083687312988
 20
114.8380604919971
 30
0.0
 41
1.999999999999999
 42
1.999999999999999
 43
2.0
 50
77.78714678582125
  0
LINE
  5
38B
  8
回13-記事
  6
CONTINUOUS
 62
     5
 10
3835.660599201527
 20
112.8833235659784
 30
0.0
 11
3830.586355629465
 21
89.43948051472778
 31
0.0
  0
LINE
  5
38C
  8
回13-記事
  6
CONTINUOUS
 62
     5
 10
3830.586355629465
 20
89.43948051472778
 30
0.0
 11
3784.819688962798
 21
89.43948051472778
 31
0.0
  0
ENDBLK
  5
38E
  8
0
 62
     7
  0
BLOCK
  8
0
  2
*X29
 70
     1
 10
0.0
 20
0.0
 30
0.0
  3
*X29
  1

  0
LINE
  5
391
  8
回13-記事
  6
CONTINUOUS
 62
     8
 10
3842.327025806161
 20
113.0848500593583
 30
0.0
 11
3838.490796910011
 21
116.9210789555076
 31
0.0
  0
LINE
  5
392
  8
回13-記事
  6
CONTINUOUS
 62
     8
 10
3838.000668849478
 20
112.9210789555071
 30
0.0
 11
3834.000668849478
 21
116.9210789555071
 31
0.0
  0
LINE
  5
393
  8
回13-記事
  6
CONTINUOUS
 62
     8
 10
3833.510540788944
 20
112.9210789555069
 30
0.0
 11
3829.510540788943
 21
116.9210789555073
 31
0.0
  0
LINE
  5
394
  8
回13-記事
  6
CONTINUOUS
 62
     8
 10
3829.020412728409
 20
112.9210789555074
 30
0.0
 11
3825.020412728409
 21
116.9210789555074
 31
0.0
  0
LINE
  5
395
  8
回13-記事
  6
CONTINUOUS
 62
     8
 10
3824.530284667874
 20
112.9210789555072
 30
0.0
 11
3820.530284667873
 21
116.9210789555075
 31
0.0
  0
LINE
  5
396
  8
回13-記事
  6
CONTINUOUS
 62
     8
 10
3820.040156607339
 20
112.9210789555076
 30
0.0
 11
3816.806359777368
 21
116.1548757854789
 31
0.0
  0
ENDBLK
  5
398
  8
0
 62
     7
  0
BLOCK
  8
0
  2
*X30
 70
     1
 10
0.0
 20
0.0
 30
0.0
  3
*X30
  1

  0
TEXT
  5
3A9
  8
回12-寸法
 62
     5
 10
4236.392587309349
 20
-129.9560434336563
 30
0.0
 40
4.0
  1
2.1±
 50
90.0
  0
TEXT
  5
3AA
  8
回12-寸法
 62
     5
 10
4236.392587309349
 20
-121.1560434336561
 30
0.0
 40
3.0
  1
±0.2
 50
90.0
  0
TEXT
  5
3AB
  8
回12-寸法
 62
     5
 10
4236.392587309349
 20
-113.9560434336563
 30
0.0
 40
4.0
  1
 [0.083±
 50
90.0
  0
TEXT
  5
3AC
  8
回12-寸法
 62
     5
 10
4236.392587309349
 20
-94.75604343365649
 30
0.0
 40
3.0
  1
±0.008
 50
90.0
  0
TEXT
  5
3AD
  8
回12-寸法
 62
     5
 10
4236.392587309349
 20
-83.35604343365686
 30
0.0
 40
4.0
  1
]
 50
90.0
  0
ENDBLK
  5
3AF
  8
0
 62
     7
  0
BLOCK
  8
0
  2
*X31
 70
     1
 10
0.0
 20
0.0
 30
0.0
  3
*X31
  1

  0
TEXT
  5
3B2
  8
回12-寸法
 62
     5
 10
4022.708590593716
 20
310.7451902098672
 30
0.0
 40
4.0
  1
365.4
  0
TEXT
  5
3B3
  8
回12-寸法
 62
     5
 10
4035.508590593717
 20
310.7451902098672
 30
0.0
 40
2.799999999999999
  1
±0.3
  0
TEXT
  5
3B4
  8
回12-寸法
 62
     5
 10
4042.228590593716
 20
310.7451902098672
 30
0.0
 40
4.0
  1
 [14.386
  0
TEXT
  5
3B5
  8
回12-寸法
 62
     5
 10
4061.028590593717
 20
310.7451902098672
 30
0.0
 40
2.799999999999999
  1
±0.012
  0
TEXT
  5
3B6
  8
回12-寸法
 62
     5
 10
4071.108590593716
 20
310.7451902098672
 30
0.0
 40
4.0
  1
]
  0
ENDBLK
  5
3B8
  8
0
 62
     7
  0
BLOCK
  8
0
  2
*X32
 70
     1
 10
0.0
 20
0.0
 30
0.0
  3
*X32
  1

  0
TEXT
  5
3BB
  8
回12-寸法
 62
     5
 10
4290.986755926506
 20
89.2308397549432
 30
0.0
 40
4.0
  1
290.18
 50
90.0
  0
TEXT
  5
3BC
  8
回12-寸法
 62
     5
 10
4290.986755926506
 20
103.6452812290508
 30
0.0
 40
2.799999999999999
  1
±0.3
 50
90.0
  0
TEXT
  5
3BD
  8
回12-寸法
 62
     5
 10
4290.986755926506
 20
110.3652812290511
 30
0.0
 40
4.0
  1
 [11.424
 50
90.0
  0
TEXT
  5
3BE
  8
回12-寸法
 62
     5
 10
4290.986755926506
 20
128.7652812290507
 30
0.0
 40
2.799999999999999
  1
±0.012
 50
90.0
  0
TEXT
  5
3BF
  8
回12-寸法
 62
     5
 10
4290.986755926506
 20
138.8452812290506
 30
0.0
 40
4.0
  1
]
 50
90.0
  0
ENDBLK
  5
3C1
  8
0
 62
     7
  0
BLOCK
  8
0
  2
*X33
 70
     1
 10
0.0
 20
0.0
 30
0.0
  3
*X33
  1

  0
TEXT
  5
3C4
  8
回12-寸法
 62
     5
 10
3790.803536077779
 20
78.27450398981985
 30
0.0
 40
4.0
  1
110
  0
TEXT
  5
3C5
  8
回12-寸法
 62
     5
 10
3797.603536077779
 20
78.27450398981985
 30
0.0
 40
2.799999999999999
  1
±1
  0
TEXT
  5
3C6
  8
回12-寸法
 62
     5
 10
3800.963536077779
 20
78.27450398981985
 30
0.0
 40
4.0
  1
 [4.331
  0
TEXT
  5
3C7
  8
回12-寸法
 62
     5
 10
3816.963536077779
 20
78.27450398981985
 30
0.0
 40
2.799999999999999
  1
±0.039
  0
TEXT
  5
3C8
  8
回12-寸法
 62
     5
 10
3827.613645109655
 20
78.27450398981985
 30
0.0
 40
4.0
  1
]
  0
ENDBLK
  5
3CA
  8
0
 62
     7
  0
BLOCK
  8
0
  2
*X34
 70
     1
 10
0.0
 20
0.0
 30
0.0
  3
*X34
  1

  0
TEXT
  5
3CD
  8
回12-寸法
 62
     5
 10
3732.220048763202
 20
55.95806049199791
 30
0.0
 40
4.0
  1
15.24
 50
90.0
  0
TEXT
  5
3CE
  8
回12-寸法
 62
     5
 10
3732.220048763202
 20
67.95806049199791
 30
0.0
 40
2.799999999999999
  1
±0.2
 50
90.0
  0
TEXT
  5
3CF
  8
回12-寸法
 62
     5
 10
3732.220048763202
 20
74.67806049199771
 30
0.0
 40
4.0
  1
 [0.600
 50
90.0
  0
TEXT
  5
3D0
  8
回12-寸法
 62
     5
 10
3732.220048763202
 20
91.0780604919978
 30
0.0
 40
2.799999999999999
  1
±0.008
 50
90.0
  0
TEXT
  5
3D1
  8
回12-寸法
 62
     5
 10
3732.220048763202
 20
101.7180604919976
 30
0.0
 40
4.0
  1
]
 50
90.0
  0
ENDBLK
  5
3D3
  8
0
 62
     7
  0
ENDSEC
  0
SECTION
  2
ENTITIES
  0
TEXT
  5
64
  8
回03-記事
  6
CONTINUOUS
 62
     5
 10
3991.701684754111
 20
-162.1118361547496
 30
0.0
 40
6.0
  1
without affecting product specification.
  0
TEXT
  5
66
  8
回03-記事
  6
CONTINUOUS
 62
     5
 10
3991.701684754111
 20
-151.5872040119998
 30
0.0
 40
6.0
  1
Edges and corners of ITO glass may be chamfered 
  0
TEXT
  5
67
  8
回03-記事
  6
CONTINUOUS
 62
     5
 10
3991.701684754111
 20
-141.0625718692499
 30
0.0
 40
6.0
  1
Unit: mm
  0
TEXT
  5
68
  8
回03-記事
  6
CONTINUOUS
 62
     5
 10
3991.701684754111
 20
-130.5379397265003
 30
0.0
 40
6.0
  1
EXCEPT WHERE INDICATED
  0
TEXT
  5
69
  8
回03-記事
  6
CONTINUOUS
 62
     5
 10
3991.701684754111
 20
-120.0133075837507
 30
0.0
 40
6.0
  1
TOLERANCE=±0.5mm
  0
TEXT
  5
6A
  8
回12-寸法
 62
     7
 10
4288.028375765585
 20
-71.93503973731186
 30
0.0
 40
4.0
  1
(Insulation Area)
 50
90.0
1001
ACAD
1000
MTEXTBEGIN
1070
    73
1070
     1
1070
    44
1040
1.0
1070
    74
1070
     0
1000
MTEXTEND
  0
TEXT
  5
6E
  8
回12-寸法
 62
     7
 10
4294.739866488716
 20
269.7432822430064
 30
0.0
 40
4.0
  1
Area)
 50
90.0
1001
ACAD
1000
MTEXTBEGIN
1070
    73
1070
     1
1070
    44
1040
1.0
1070
    74
1070
     0
1000
MTEXTEND
  0
TEXT
  5
6F
  8
回12-寸法
 62
     7
 10
4288.439277557232
 20
263.0489425877549
 30
0.0
 40
4.0
  1
(Insulation
 50
90.0
1001
ACAD
1000
MTEXTBEGIN
1070
    73
1070
     1
1070
    44
1040
1.0
1070
    74
1070
     0
1000
MTEXTEND
  0
TEXT
  5
70
  8
回12-寸法
 62
     7
 10
4263.655144002086
 20
298.2012582620614
 30
0.0
 40
4.0
  1
(Insulation Area)
1001
ACAD
1000
MTEXTBEGIN
1070
    73
1070
     1
1070
    44
1040
1.0
1070
    74
1070
     0
1000
MTEXTEND
  0
POLYLINE
  5
71
  8
回13-記事
  6
DASHED2
 62
     7
 66
     1
 10
0.0
 20
0.0
 30
0.0
 70
     1
  0
VERTEX
  5
308
  8
回13-記事
  6
DASHED2
 62
     7
 10
3880.418590593717
 20
252.1380604919971
 30
0.0
  0
VERTEX
  5
30A
  8
回13-記事
  6
DASHED2
 62
     7
 10
4222.618590593716
 20
252.1380604919971
 30
0.0
  0
VERTEX
  5
30B
  8
回13-記事
  6
DASHED2
 62
     7
 10
4222.618590593716
 20
-22.46193950800304
 30
0.0
  0
VERTEX
  5
30C
  8
回13-記事
  6
DASHED2
 62
     7
 10
3880.418590593717
 20
-22.46193950800304
 30
0.0
  0
SEQEND
  5
309
  8
0
 62
     7
  0
POLYLINE
  5
76
  8
回02-G外
 62
     7
 66
     1
 10
0.0
 20
0.0
 30
0.0
 70
     1
  0
VERTEX
  5
30D
  8
回02-G外
 62
     7
 10
3865.008590593717
 20
-30.25193950800298
 30
0.0
  0
VERTEX
  5
30F
  8
回02-G外
 62
     7
 10
4230.408590593716
 20
-30.25193950800298
 30
0.0
  0
VERTEX
  5
310
  8
回02-G外
 62
     7
 10
4230.408590593716
 20
259.928060491997
 30
0.0
  0
VERTEX
  5
311
  8
回02-G外
 62
     7
 10
3865.008590593717
 20
259.928060491997
 30
0.0
  0
SEQEND
  5
30E
  8
0
 62
     7
  0
TEXT
  5
7A
  8
回08-GPDL
 62
     7
 10
4229.216899437285
 20
-18.65754656483881
 30
0.0
 40
2.0
  1
FST-170C
 50
90.0
  0
TEXT
  5
7E
  8
回13-記事
  6
CONTINUOUS
 62
     7
 10
4402.125707118609
 20
-117.6703388392338
 30
0.0
 40
4.999999999999999
  1
(AMP:487406-9)
  0
TEXT
  5
7F
  8
回13-記事
  6
CONTINUOUS
 62
     7
 10
4359.874041886951
 20
-117.6703388392338
 30
0.0
 40
4.999999999999999
  1
PIN CONTACT
  0
TEXT
  5
80
  8
回13-記事
  6
CONTINUOUS
 62
     7
 10
4397.824682280123
 20
-109.3370055059005
 30
0.0
 40
4.999999999999999
  1
(AMP:487526-4)
  0
TEXT
  5
81
  8
回13-記事
  6
CONTINUOUS
 62
     7
 10
4359.874041886951
 20
-109.3370055059005
 30
0.0
 40
4.999999999999999
  1
CONNECTOR
  0
TEXT
  5
82
  8
回13-記事
  6
CONTINUOUS
 62
     7
 10
4359.874041886951
 20
-101.0036721725671
 30
0.0
 40
4.999999999999999
  1
ADHESIVE SHEET
  0
TEXT
  5
83
  8
回13-記事
  6
CONTINUOUS
 62
     7
 10
4348.506995619086
 20
-113.2034370950591
 30
0.0
 40
4.999999999999999
  1
8
  0
TEXT
  5
84
  8
回13-記事
  6
CONTINUOUS
 62
     7
 10
4348.506995619086
 20
-101.0036721725671
 30
0.0
 40
4.999999999999999
  1
7
  0
LINE
  5
85
  8
回13-記事
  6
CONTINUOUS
 62
     7
 10
4344.256929718117
 20
-118.9870447688981
 30
0.0
 11
4451.022124111411
 21
-118.9870447688981
 31
0.0
  0
LINE
  5
86
  8
回13-記事
  6
CONTINUOUS
 62
     7
 10
4344.256929718117
 20
-102.3203781022314
 30
0.0
 11
4451.022124111411
 21
-102.3203781022314
 31
0.0
  0
TEXT
  5
87
  8
回13-記事
  6
CONTINUOUS
 62
     7
 10
4359.874041886951
 20
-92.67033883923375
 30
0.0
 40
4.999999999999999
  1
TAIL PROTECTION TAPE
  0
TEXT
  5
88
  8
回13-記事
  6
CONTINUOUS
 62
     7
 10
4359.874041886951
 20
-84.33700550590037
 30
0.0
 40
4.999999999999999
  1
STIFFENER
  0
TEXT
  5
89
  8
回13-記事
  6
CONTINUOUS
 62
     7
 10
4359.874041886951
 20
-76.00367217256707
 30
0.0
 40
4.999999999999999
  1
REINFORCEMENT FILM
  0
TEXT
  5
8A
  8
回13-記事
  6
CONTINUOUS
 62
     7
 10
4359.874041886951
 20
-67.67033883923375
 30
0.0
 40
4.999999999999999
  1
TAIL
  0
TEXT
  5
8B
  8
回13-記事
  6
CONTINUOUS
 62
     7
 10
4359.874041886951
 20
-59.33700550590043
 30
0.0
 40
4.999999999999999
  1
ITO GLASS 
  0
LINE
  5
8C
  8
回13-記事
  6
CONTINUOUS
 62
     7
 10
4451.02212411141
 20
-43.98704476889804
 30
0.0
 11
4451.02212411141
 21
-118.9870447688981
 31
0.0
  0
TEXT
  5
8D
  8
回13-記事
  6
CONTINUOUS
 62
     7
 10
4359.874041886951
 20
-51.00367217256712
 30
0.0
 40
4.999999999999999
  1
ITO FILM (ANTI-GLARE)
  0
TEXT
  5
8E
  8
回13-記事
  6
CONTINUOUS
 62
     7
 10
4348.506995619086
 20
-92.67033883923375
 30
0.0
 40
4.999999999999999
  1
6
  0
TEXT
  5
8F
  8
回13-記事
  6
CONTINUOUS
 62
     7
 10
4348.506995619086
 20
-84.33700550590037
 30
0.0
 40
4.999999999999999
  1
5
  0
TEXT
  5
90
  8
回13-記事
  6
CONTINUOUS
 62
     7
 10
4348.506995619086
 20
-76.00367217256707
 30
0.0
 40
4.999999999999999
  1
4
  0
TEXT
  5
91
  8
回13-記事
  6
CONTINUOUS
 62
     7
 10
4348.506995619086
 20
-67.67033883923375
 30
0.0
 40
4.999999999999999
  1
3
  0
TEXT
  5
92
  8
回13-記事
  6
CONTINUOUS
 62
     7
 10
4348.506995619086
 20
-59.33700550590043
 30
0.0
 40
4.999999999999999
  1
2
  0
LINE
  5
93
  8
回13-記事
  6
CONTINUOUS
 62
     7
 10
4344.256929718117
 20
-93.98704476889804
 30
0.0
 11
4451.022124111411
 21
-93.98704476889804
 31
0.0
  0
LINE
  5
94
  8
回13-記事
  6
CONTINUOUS
 62
     7
 10
4344.256929718117
 20
-85.65371143556467
 30
0.0
 11
4451.02212411141
 21
-85.65371143556467
 31
0.0
  0
LINE
  5
95
  8
回13-記事
  6
CONTINUOUS
 62
     7
 10
4344.256929718117
 20
-77.32037810223136
 30
0.0
 11
4451.02212411141
 21
-77.32037810223136
 31
0.0
  0
LINE
  5
96
  8
回13-記事
  6
CONTINUOUS
 62
     7
 10
4344.256929718117
 20
-68.98704476889804
 30
0.0
 11
4451.02212411141
 21
-68.98704476889804
 31
0.0
  0
LINE
  5
97
  8
回13-記事
  6
CONTINUOUS
 62
     7
 10
4344.256929718117
 20
-60.65371143556473
 30
0.0
 11
4451.02212411141
 21
-60.65371143556473
 31
0.0
  0
LINE
  5
98
  8
回13-記事
  6
CONTINUOUS
 62
     7
 10
4344.256929718117
 20
-52.32037810223141
 30
0.0
 11
4451.02212411141
 21
-52.32037810223141
 31
0.0
  0
TEXT
  5
99
  8
回13-記事
  6
CONTINUOUS
 62
     7
 10
4348.506995619086
 20
-51.00367217256712
 30
0.0
 40
4.999999999999999
  1
1
  0
LINE
  5
9A
  8
回13-記事
  6
CONTINUOUS
 62
     7
 10
4344.256929718117
 20
-43.98704476889804
 30
0.0
 11
4451.02212411141
 21
-43.98704476889804
 31
0.0
  0
LINE
  5
9B
  8
回13-記事
  6
CONTINUOUS
 62
     7
 10
4355.623975985982
 20
-43.98704476889804
 30
0.0
 11
4355.623975985982
 21
-118.9870447688981
 31
0.0
  0
LINE
  5
9C
  8
回13-記事
  6
CONTINUOUS
 62
     7
 10
4344.256929718117
 20
-43.98704476889804
 30
0.0
 11
4344.256929718117
 21
-118.9870447688981
 31
0.0
  0
TEXT
  5
9D
  8
回91-枠英1
 10
4388.043810144849
 20
-158.3922966375584
 30
0.0
 40
5.0
  1
Oct/13/2023
  0
TEXT
  5
A1
  8
回91-枠英1
 10
4396.661721262957
 20
-149.2213141174969
 30
0.0
 40
3.599999999999999
  1
DATE
  0
LINE
  5
A2
  8
回91-枠英1
 10
4364.659908252156
 20
-144.2564360726399
 30
0.0
 11
4364.659908252156
 21
-180.25643607264
 31
0.0
  0
TEXT
  5
A3
  8
回91-枠英1
 10
4319.436825066577
 20
-167.3640924451491
 30
0.0
 40
3.599999999999999
  1
TYPE
  0
LINE
  5
A4
  8
回91-枠英1
 10
4286.659908252157
 20
-144.2564360726399
 30
0.0
 11
4286.659908252157
 21
-180.25643607264
 31
0.0
  0
TEXT
  5
A5
  8
回91-枠英1
 10
4302.698804644722
 20
-179.2664465419956
 30
0.0
 40
3.599999999999999
  1
DIMENSIONAL DRAWING
  0
TEXT
  5
A6
  8
回91-枠英1
 10
4299.362845632328
 20
-173.2565584567309
 30
0.0
 40
3.599999999999999
  1
STANDARD TOUCHSCREEN
  0
TEXT
  5
A7
  8
回91-枠英1
 10
4300.804320352396
 20
-159.4296301566918
 30
0.0
 40
6.0
  1
FST-T170C110A
  0
TEXT
  5
A8
  8
回91-枠英1
 10
4319.934608332482
 20
-149.2213141174969
 30
0.0
 40
3.599999999999999
  1
PART No.
  0
LINE
  5
A9
  8
回91-枠英1
 10
4290.259908252157
 20
-174.25643607264
 30
0.0
 11
4361.059908252157
 21
-174.25643607264
 31
0.0
  0
TEXT
  5
AA
  8
回91-枠英1
 10
4387.711333866133
 20
-173.7062084627949
 30
0.0
 40
6.0
  1
DMC Co., Ltd.
  0
LINE
  5
AB
  8
回91-枠英1
 10
4286.659908252157
 20
-168.2564360726395
 30
0.0
 11
4364.659908252156
 21
-168.2564360726395
 31
0.0
  0
LINE
  5
AC
  8
回91-枠英1
 10
4286.659908252157
 20
-144.2564360726399
 30
0.0
 11
4454.659908252157
 21
-144.2564360726399
 31
0.0
  0
LINE
  5
AD
  8
回91-枠英1
 10
4286.659908252157
 20
-162.2564360726395
 30
0.0
 11
4454.659908252157
 21
-162.2564360726395
 31
0.0
  0
LINE
  5
AE
  8
回91-枠英1
 10
4286.659908252157
 20
-150.25643607264
 30
0.0
 11
4454.659908252157
 21
-150.25643607264
 31
0.0
  0
TEXT
  5
AF
  8
回91-枠英1
 10
4456.064329255815
 20
312.5322512232193
 30
0.0
 40
4.0
  1
1
  0
TEXT
  5
B0
  8
回91-枠英1
 10
4413.389293557809
 20
360.1159870534112
 30
0.0
 40
4.0
  1
J
  0
LINE
  5
B1
  8
回91-枠英1
 10
4459.659908252157
 20
269.74356392736
 30
0.0
 11
4454.659908252157
 21
269.74356392736
 31
0.0
  0
TEXT
  5
B2
  8
回91-枠英1
 10
4455.762830552514
 20
222.5322512232193
 30
0.0
 40
4.0
  1
2
  0
LINE
  5
B3
  8
回91-枠英1
 10
4459.659908252157
 20
179.74356392736
 30
0.0
 11
4454.659908252157
 21
179.74356392736
 31
0.0
  0
TEXT
  5
B4
  8
回91-枠英1
 10
4455.757349708314
 20
132.5322512232193
 30
0.0
 40
4.0
  1
3
  0
LINE
  5
B5
  8
回91-枠英1
 10
4459.659908252157
 20
89.74356392736002
 30
0.0
 11
4454.659908252157
 21
89.74356392736002
 31
0.0
  0
TEXT
  5
B6
  8
回91-枠英1
 10
4455.684257588233
 20
42.5322512232193
 30
0.0
 40
4.0
  1
4
  0
LINE
  5
B7
  8
回91-枠英1
 10
4374.659908252157
 20
364.74356392736
 30
0.0
 11
4374.659908252157
 21
359.74356392736
 31
0.0
  0
TEXT
  5
B8
  8
回91-枠英1
 10
4333.38929355781
 20
360.1159870534112
 30
0.0
 40
4.0
  1
I
  0
LINE
  5
B9
  8
回91-枠英1
 10
4294.659908252157
 20
364.74356392736
 30
0.0
 11
4294.659908252157
 21
359.74356392736
 31
0.0
  0
TEXT
  5
BA
  8
回91-枠英1
 10
4253.389293557809
 20
360.1159870534112
 30
0.0
 40
4.0
  1
H
  0
LINE
  5
BB
  8
回91-枠英1
 10
4214.659908252157
 20
364.74356392736
 30
0.0
 11
4214.659908252157
 21
359.74356392736
 31
0.0
  0
TEXT
  5
BC
  8
回91-枠英1
 10
4173.38929355781
 20
360.1159870534112
 30
0.0
 40
4.0
  1
G
  0
LINE
  5
BD
  8
回91-枠英1
 10
4459.659908252157
 20
-0.2564360726399855
 30
0.0
 11
4454.659908252157
 21
-0.2564360726399855
 31
0.0
  0
TEXT
  5
BE
  8
回91-枠英1
 10
4455.684257588233
 20
-47.4677487767807
 30
0.0
 40
4.0
  1
5
  0
LINE
  5
BF
  8
回91-枠英1
 10
4459.659908252157
 20
-90.25643607263999
 30
0.0
 11
4454.659908252157
 21
-90.25643607263999
 31
0.0
  0
TEXT
  5
C0
  8
回91-枠英1
 10
4455.684257588233
 20
-137.4677487767807
 30
0.0
 40
4.0
  1
6
  0
TEXT
  5
C1
  8
回91-枠英1
 10
4413.389293557809
 20
-184.8840129465888
 30
0.0
 40
4.0
  1
J
  0
LINE
  5
C2
  8
回91-枠英1
 10
4374.659908252157
 20
-180.25643607264
 30
0.0
 11
4374.659908252157
 21
-185.25643607264
 31
0.0
  0
TEXT
  5
C3
  8
回91-枠英1
 10
4333.38929355781
 20
-184.8840129465888
 30
0.0
 40
4.0
  1
I
  0
LINE
  5
C4
  8
回91-枠英1
 10
4294.659908252157
 20
-180.25643607264
 30
0.0
 11
4294.659908252157
 21
-185.25643607264
 31
0.0
  0
TEXT
  5
C5
  8
回91-枠英1
 10
4253.389293557809
 20
-184.8840129465888
 30
0.0
 40
4.0
  1
H
  0
LINE
  5
C6
  8
回91-枠英1
 10
4214.659908252157
 20
-180.25643607264
 30
0.0
 11
4214.659908252157
 21
-185.25643607264
 31
0.0
  0
TEXT
  5
C7
  8
回91-枠英1
 10
4173.38929355781
 20
-184.8840129465888
 30
0.0
 40
4.0
  1
G
  0
LINE
  5
C8
  8
回91-枠英1
 10
4454.659908252157
 20
359.74356392736
 30
0.0
 11
4454.659908252157
 21
-180.25643607264
 31
0.0
  0
LINE
  5
C9
  8
回91-枠英1
 10
4459.659908252157
 20
-185.25643607264
 30
0.0
 11
4459.659908252157
 21
364.74356392736
 31
0.0
  0
LINE
  5
CA
  8
回91-枠英1
 10
4134.659908252157
 20
364.74356392736
 30
0.0
 11
4134.659908252157
 21
359.74356392736
 31
0.0
  0
TEXT
  5
CB
  8
回91-枠英1
 10
4093.38929355781
 20
360.1159870534112
 30
0.0
 40
4.0
  1
F
  0
LINE
  5
CC
  8
回91-枠英1
 10
4054.659908252157
 20
364.74356392736
 30
0.0
 11
4054.659908252157
 21
359.74356392736
 31
0.0
  0
TEXT
  5
CD
  8
回91-枠英1
 10
4013.38929355781
 20
360.1159870534112
 30
0.0
 40
4.0
  1
E
  0
LINE
  5
CE
  8
回91-枠英1
 10
3974.659908252157
 20
364.74356392736
 30
0.0
 11
3974.659908252157
 21
359.74356392736
 31
0.0
  0
TEXT
  5
CF
  8
回91-枠英1
 10
3933.38929355781
 20
360.1159870534112
 30
0.0
 40
4.0
  1
D
  0
LINE
  5
D0
  8
回91-枠英1
 10
3894.659908252157
 20
364.74356392736
 30
0.0
 11
3894.659908252157
 21
359.74356392736
 31
0.0
  0
TEXT
  5
D1
  8
回91-枠英1
 10
3853.38929355781
 20
360.1159870534112
 30
0.0
 40
4.0
  1
C
  0
LINE
  5
D2
  8
回91-枠英1
 10
3814.659908252157
 20
364.74356392736
 30
0.0
 11
3814.659908252157
 21
359.74356392736
 31
0.0
  0
TEXT
  5
D3
  8
回91-枠英1
 10
3773.38929355781
 20
360.1159870534112
 30
0.0
 40
4.0
  1
B
  0
LINE
  5
D4
  8
回91-枠英1
 10
3734.659908252157
 20
364.74356392736
 30
0.0
 11
3734.659908252157
 21
359.74356392736
 31
0.0
  0
TEXT
  5
D5
  8
回91-枠英1
 10
3693.38929355781
 20
360.1159870534112
 30
0.0
 40
4.0
  1
A
  0
TEXT
  5
D6
  8
回91-枠英1
 10
3651.064329255817
 20
312.5322512232193
 30
0.0
 40
4.0
  1
1
  0
LINE
  5
D7
  8
回91-枠英1
 10
3654.659908252158
 20
269.74356392736
 30
0.0
 11
3649.659908252157
 21
269.74356392736
 31
0.0
  0
TEXT
  5
D8
  8
回91-枠英1
 10
3650.762830552515
 20
222.5322512232193
 30
0.0
 40
4.0
  1
2
  0
LINE
  5
D9
  8
回91-枠英1
 10
3654.659908252158
 20
179.74356392736
 30
0.0
 11
3649.659908252157
 21
179.74356392736
 31
0.0
  0
TEXT
  5
DA
  8
回91-枠英1
 10
3650.757349708314
 20
132.5322512232193
 30
0.0
 40
4.0
  1
3
  0
LINE
  5
DB
  8
回91-枠英1
 10
3654.659908252158
 20
89.74356392736002
 30
0.0
 11
3649.659908252157
 21
89.74356392736002
 31
0.0
  0
TEXT
  5
DC
  8
回91-枠英1
 10
3650.684257588233
 20
42.5322512232193
 30
0.0
 40
4.0
  1
4
  0
LINE
  5
DD
  8
回91-枠英1
 10
4134.659908252157
 20
-180.25643607264
 30
0.0
 11
4134.659908252157
 21
-185.25643607264
 31
0.0
  0
TEXT
  5
DE
  8
回91-枠英1
 10
4093.38929355781
 20
-184.8840129465888
 30
0.0
 40
4.0
  1
F
  0
LINE
  5
DF
  8
回91-枠英1
 10
4054.659908252157
 20
-180.25643607264
 30
0.0
 11
4054.659908252157
 21
-185.25643607264
 31
0.0
  0
TEXT
  5
E0
  8
回91-枠英1
 10
4013.38929355781
 20
-184.8840129465888
 30
0.0
 40
4.0
  1
E
  0
LINE
  5
E1
  8
回91-枠英1
 10
3974.659908252157
 20
-180.25643607264
 30
0.0
 11
3974.659908252157
 21
-185.25643607264
 31
0.0
  0
TEXT
  5
E2
  8
回91-枠英1
 10
3933.38929355781
 20
-184.8840129465888
 30
0.0
 40
4.0
  1
D
  0
LINE
  5
E3
  8
回91-枠英1
 10
3894.659908252157
 20
-180.25643607264
 30
0.0
 11
3894.659908252157
 21
-185.25643607264
 31
0.0
  0
TEXT
  5
E4
  8
回91-枠英1
 10
3853.38929355781
 20
-184.8840129465888
 30
0.0
 40
4.0
  1
C
  0
LINE
  5
E5
  8
回91-枠英1
 10
3814.659908252157
 20
-180.25643607264
 30
0.0
 11
3814.659908252157
 21
-185.25643607264
 31
0.0
  0
TEXT
  5
E6
  8
回91-枠英1
 10
3773.38929355781
 20
-184.8840129465888
 30
0.0
 40
4.0
  1
B
  0
LINE
  5
E7
  8
回91-枠英1
 10
3654.659908252158
 20
-0.2564360726399855
 30
0.0
 11
3649.659908252157
 21
-0.2564360726399855
 31
0.0
  0
TEXT
  5
E8
  8
回91-枠英1
 10
3650.684257588233
 20
-47.4677487767807
 30
0.0
 40
4.0
  1
5
  0
LINE
  5
E9
  8
回91-枠英1
 10
3654.659908252158
 20
-90.25643607263999
 30
0.0
 11
3649.659908252157
 21
-90.25643607263999
 31
0.0
  0
LINE
  5
EA
  8
回91-枠英1
 10
3734.659908252157
 20
-180.25643607264
 30
0.0
 11
3734.659908252157
 21
-185.25643607264
 31
0.0
  0
TEXT
  5
EB
  8
回91-枠英1
 10
3693.38929355781
 20
-184.8840129465888
 30
0.0
 40
4.0
  1
A
  0
TEXT
  5
EC
  8
回91-枠英1
 10
3650.684257588233
 20
-137.4677487767807
 30
0.0
 40
4.0
  1
6
  0
LINE
  5
ED
  8
回91-枠英1
 10
3654.659908252158
 20
359.74356392736
 30
0.0
 11
3654.659908252158
 21
-180.25643607264
 31
0.0
  0
LINE
  5
EE
  8
回91-枠英1
 10
3649.659908252157
 20
-185.25643607264
 30
0.0
 11
3649.659908252157
 21
364.74356392736
 31
0.0
  0
LINE
  5
EF
  8
回91-枠英1
 10
3654.659908252158
 20
-180.25643607264
 30
0.0
 11
4454.659908252157
 21
-180.25643607264
 31
0.0
  0
LINE
  5
F0
  8
回91-枠英1
 10
4459.659908252157
 20
-185.25643607264
 30
0.0
 11
3649.659908252157
 21
-185.25643607264
 31
0.0
  0
LINE
  5
F1
  8
回91-枠英1
 10
3654.659908252158
 20
359.74356392736
 30
0.0
 11
4454.659908252157
 21
359.74356392736
 31
0.0
  0
LINE
  5
F2
  8
回91-枠英1
 10
4459.659908252157
 20
364.74356392736
 30
0.0
 11
3649.659908252157
 21
364.74356392736
 31
0.0
  0
TEXT
  5
F3
  8
回13-記事
  6
CONTINUOUS
 62
     5
 10
4363.233745502383
 20
74.37152921126596
 30
0.0
 40
8.189999999999999
  1
5
  0
LINE
  5
F4
  8
回13-記事
  6
CONTINUOUS
 62
     5
 10
4372.025238845351
 20
78.12593301340337
 30
0.0
 11
4401.632081560348
 21
78.12593301340337
 31
0.0
  0
TEXT
  5
F5
  8
回13-記事
  6
CONTINUOUS
 62
     5
 10
4406.404362457084
 20
75.48748234736456
 30
0.0
 40
7.166249999999998
  1
LL
  0
TEXT
  5
F6
  8
回13-記事
  6
CONTINUOUS
 62
     5
 10
4363.233745502383
 20
95.83192145386636
 30
0.0
 40
8.189999999999999
  1
4
  0
LINE
  5
F7
  8
回13-記事
  6
CONTINUOUS
 62
     5
 10
4372.025238845351
 20
99.58632525600377
 30
0.0
 11
4401.632081560348
 21
99.58632525600377
 31
0.0
  0
TEXT
  5
F8
  8
回13-記事
  6
CONTINUOUS
 62
     5
 10
4406.404362457084
 20
96.94787458996495
 30
0.0
 40
7.166249999999998
  1
UL
  0
TEXT
  5
F9
  8
回13-記事
  6
CONTINUOUS
 62
     5
 10
4363.233745502383
 20
117.2923136964667
 30
0.0
 40
8.189999999999999
  1
3
  0
LINE
  5
FA
  8
回13-記事
  6
CONTINUOUS
 62
     5
 10
4372.025238845351
 20
121.0467174986041
 30
0.0
 11
4401.632081560348
 21
121.0467174986041
 31
0.0
  0
TEXT
  5
FB
  8
回13-記事
  6
CONTINUOUS
 62
     5
 10
4406.404362457084
 20
118.4082668325653
 30
0.0
 40
7.166249999999998
  1
SENSE
  0
TEXT
  5
FC
  8
回13-記事
  6
CONTINUOUS
 62
     5
 10
4363.233745502383
 20
138.7527059390671
 30
0.0
 40
8.189999999999999
  1
2
  0
LINE
  5
FD
  8
回13-記事
  6
CONTINUOUS
 62
     5
 10
4372.025238845351
 20
142.5071097412045
 30
0.0
 11
4401.632081560348
 21
142.5071097412045
 31
0.0
  0
TEXT
  5
FE
  8
回13-記事
  6
CONTINUOUS
 62
     5
 10
4406.404362457084
 20
139.8686590751657
 30
0.0
 40
7.166249999999998
  1
LR
  0
TEXT
  5
FF
  8
回13-記事
  6
CONTINUOUS
 62
     5
 10
4363.233745502383
 20
160.2130981816675
 30
0.0
 40
8.189999999999999
  1
1
  0
LINE
  5
100
  8
回13-記事
  6
CONTINUOUS
 62
     5
 10
4372.025238845351
 20
163.9675019838049
 30
0.0
 11
4401.632081560348
 21
163.9675019838049
 31
0.0
  0
TEXT
  5
101
  8
回13-記事
  6
CONTINUOUS
 62
     5
 10
4338.346257618848
 20
206.0895295758268
 30
0.0
 40
10.5
  1
PIN ASSIGNMENT
  0
TEXT
  5
102
  8
回13-記事
  6
CONTINUOUS
 62
     5
 10
4406.404362457084
 20
161.3290513177661
 30
0.0
 40
7.166249999999998
  1
UR
  0
DIMENSION
  5
103
  8
回12-寸法
 62
     7
  2
*D20
 10
3732.920048763201
 20
122.4580604919975
 30
0.0
 11
3730.220048763202
 21
191.1930604919979
 31
0.0
 70
     0
  1
(<>)
  3
DMC
 13
3866.008590593717
 23
259.9280604919971
 33
0.0
 14
3763.763590593717
 24
122.4580604919974
 34
0.0
 50
90.0
1001
ACAD
1000
DSTYLE
1002
{
1070
   140
1040
4.0
1070
   170
1070
     1
1070
   371
1070
     9
1070
   372
1070
     9
1002
}
  0
DIMENSION
  5
111
  8
回12-寸法
 62
     7
  2
*D19
 10
3732.920048763201
 20
107.2180604919972
 30
0.0
 11
3730.220048763202
 21
79.63806049199783
 31
0.0
 70
     0
  3
DMC
 13
3763.763590593717
 23
122.4580604919974
 33
0.0
 14
3763.763590593717
 24
107.2180604919972
 34
0.0
 50
90.0
1001
ACAD
1000
DSTYLE
1002
{
1070
    47
1040
0.2
1070
   147
1040
0.5
1070
    48
1040
0.2
1070
    72
1070
     0
1070
    71
1070
     1
1070
   140
1040
4.0
1070
   170
1070
     1
1070
   371
1070
     9
1070
   372
1070
     9
1002
}
  0
DIMENSION
  5
120
  8
回12-寸法
 62
     7
  2
*D18
 10
3865.008590593716
 20
77.57450398981984
 30
0.0
 11
3810.008590593716
 21
80.27450398981985
 31
0.0
 70
     0
  3
DMC
 13
3755.008590593717
 23
108.5642604919971
 33
0.0
 14
3865.008590593716
 24
80.48277933731709
 34
0.0
1001
ACAD
1000
DSTYLE
1002
{
1070
    47
1040
1.0
1070
   147
1040
0.5
1070
    48
1040
1.0
1070
    72
1070
     0
1070
    71
1070
     1
1070
   140
1040
4.0
1070
   170
1070
     1
1070
   371
1070
     9
1070
   372
1070
     9
1002
}
  0
DIMENSION
  5
12D
  8
回12-寸法
 62
     7
  2
*D17
 10
4273.059316596031
 20
-21.36193950800289
 30
0.0
 11
4270.359316596031
 21
114.8380604919978
 31
0.0
 70
     0
  1
<> (ACTIVE AREA)
  3
DMC
 13
4221.518590593716
 23
251.0380604919971
 33
0.0
 14
4221.518590593716
 24
-21.36193950800288
 34
0.0
 50
90.0
1001
ACAD
1000
DSTYLE
1002
{
1070
   140
1040
4.0
1070
   170
1070
     1
1070
   371
1070
     9
1070
   372
1070
     9
1002
}
  0
DIMENSION
  5
13A
  8
回12-寸法
 62
     7
  2
*D16
 10
4273.059316596031
 20
-30.25193950800299
 30
0.0
 11
4270.358349877992
 21
-49.55735336584126
 31
0.0
 70
     0
  1
(<>)
  3
DMC
 13
4221.518590593716
 23
-21.36193950800288
 33
0.0
 14
4229.408590593716
 24
-30.25193950800298
 34
0.0
 50
90.0
1001
ACAD
1000
DSTYLE
1002
{
1070
   140
1040
4.0
1070
   170
1070
     1
1070
   371
1070
     9
1070
   372
1070
     9
1002
}
  0
DIMENSION
  5
149
  8
回12-寸法
 62
     7
  2
*D15
 10
4282.169088549433
 20
-30.251939508003
 30
0.0
 11
4279.469088549434
 21
-47.95892816899086
 31
0.0
 70
     0
  3
DMC
 13
4222.618590593716
 23
-22.46193950800304
 33
0.0
 14
4229.408590593716
 24
-30.25193950800298
 34
0.0
 50
90.0
1001
ACAD
1000
DSTYLE
1002
{
1070
   140
1040
4.0
1070
   170
1070
     1
1070
   371
1070
     9
1070
   372
1070
     9
1002
}
  0
DIMENSION
  5
158
  8
回12-寸法
 62
     7
  2
*D14
 10
4282.169088549433
 20
-22.46193950800306
 30
0.0
 11
4279.469088549434
 21
114.8380604919976
 31
0.0
 70
     0
  3
DMC
 13
4222.618590593716
 23
252.1380604919969
 33
0.0
 14
4222.618590593716
 24
-22.46193950800304
 34
0.0
 50
90.0
1001
ACAD
1000
DSTYLE
1002
{
1070
   140
1040
4.0
1070
   170
1070
     1
1070
   371
1070
     9
1070
   372
1070
     9
1002
}
  0
DIMENSION
  5
165
  8
回12-寸法
 62
     7
  2
*D13
 10
4291.686755926506
 20
-30.251939508003
 30
0.0
 11
4288.986755926507
 21
114.8380604919977
 31
0.0
 70
     0
  3
DMC
 13
4227.408590593716
 23
259.9280604919971
 33
0.0
 14
4229.408590593716
 24
-30.25193950800298
 34
0.0
 50
90.0
1001
ACAD
1000
DSTYLE
1002
{
1070
    47
1040
0.3
1070
   147
1040
0.5
1070
    48
1040
0.3
1070
    72
1070
     0
1070
    71
1070
     1
1070
   140
1040
4.0
1070
   170
1070
     1
1070
   371
1070
     9
1070
   372
1070
     9
1002
}
  0
DIMENSION
  5
172
  8
回12-寸法
 62
     7
  2
*D12
 10
4282.169088549433
 20
259.9280604919971
 30
0.0
 11
4279.469088549434
 21
277.6350491529863
 31
0.0
 70
     0
  3
DMC
 13
4222.618590593716
 23
252.1380604919969
 33
0.0
 14
4227.408590593716
 24
259.9280604919971
 34
0.0
 50
90.0
1001
ACAD
1000
DSTYLE
1002
{
1070
   140
1040
4.0
1070
   170
1070
     1
1070
   371
1070
     9
1070
   372
1070
     9
1002
}
  0
DIMENSION
  5
181
  8
回12-寸法
 62
     7
  2
*D11
 10
4273.059316596031
 20
259.9280604919971
 30
0.0
 11
4270.359316596031
 21
277.6350491529863
 31
0.0
 70
     0
  3
DMC
 13
4221.518590593716
 23
251.0380604919971
 33
0.0
 14
4227.408590593716
 24
259.9280604919971
 34
0.0
 50
90.0
1001
ACAD
1000
DSTYLE
1002
{
1070
   140
1040
4.0
1070
   170
1070
     1
1070
   371
1070
     9
1070
   372
1070
     9
1002
}
  0
DIMENSION
  5
190
  8
回12-寸法
 62
     7
  2
*D10
 10
4230.408590593716
 20
297.4864637187599
 30
0.0
 11
4248.115579254704
 21
300.1864637187598
 31
0.0
 70
     0
  3
DMC
 13
4222.618590593716
 23
252.1380604919969
 33
0.0
 14
4230.408590593716
 24
256.9280604919971
 34
0.0
1001
ACAD
1000
DSTYLE
1002
{
1070
   140
1040
4.0
1070
   170
1070
     1
1070
   371
1070
     9
1070
   372
1070
     9
1002
}
  0
DIMENSION
  5
19F
  8
回12-寸法
 62
     7
  2
*D9
 10
4230.408590593716
 20
286.2121492225066
 30
0.0
 11
4248.115579254704
 21
288.9121492225066
 31
0.0
 70
     0
  3
DMC
 13
4221.518590593716
 23
251.0380604919971
 33
0.0
 14
4230.408590593716
 24
256.9280604919971
 34
0.0
1001
ACAD
1000
DSTYLE
1002
{
1070
   140
1040
4.0
1070
   170
1070
     1
1070
   371
1070
     9
1070
   372
1070
     9
1002
}
  0
DIMENSION
  5
1AE
  8
回12-寸法
 62
     7
  2
*D8
 10
4221.518590593716
 20
286.2121492225066
 30
0.0
 11
4051.518590593715
 21
288.9121492225066
 31
0.0
 70
     0
  1
<> (ACTIVE AREA)
  3
DMC
 13
3881.518590593716
 23
251.0380604919971
 33
0.0
 14
4221.518590593716
 24
251.0380604919971
 34
0.0
1001
ACAD
1000
DSTYLE
1002
{
1070
   140
1040
4.0
1070
   170
1070
     1
1070
   371
1070
     9
1070
   372
1070
     9
1002
}
  0
DIMENSION
  5
1BB
  8
回12-寸法
 62
     7
  2
*D7
 10
4230.408590593716
 20
310.0451902098672
 30
0.0
 11
4047.708590593717
 21
312.7451902098672
 31
0.0
 70
     0
  3
DMC
 13
3865.008590593717
 23
258.9280604919971
 33
0.0
 14
4230.408590593716
 24
256.9280604919971
 34
0.0
1001
ACAD
1000
DSTYLE
1002
{
1070
    47
1040
0.3
1070
   147
1040
0.5
1070
    48
1040
0.3
1070
    72
1070
     0
1070
    71
1070
     1
1070
   140
1040
4.0
1070
   170
1070
     1
1070
   371
1070
     9
1070
   372
1070
     9
1002
}
  0
DIMENSION
  5
1C8
  8
回12-寸法
 62
     7
  2
*D6
 10
4222.618590593716
 20
297.4864637187599
 30
0.0
 11
4051.518590593716
 21
300.1864637187598
 31
0.0
 70
     0
  3
DMC
 13
3880.418590593717
 23
252.1380604919971
 33
0.0
 14
4222.618590593716
 24
252.1380604919971
 34
0.0
1001
ACAD
1000
DSTYLE
1002
{
1070
   140
1040
4.0
1070
   170
1070
     1
1070
   371
1070
     9
1070
   372
1070
     9
1002
}
  0
DIMENSION
  5
1D5
  8
回12-寸法
 62
     7
  2
*D5
 10
3865.008590593717
 20
297.4864637187599
 30
0.0
 11
3846.508590593717
 21
300.1864637187598
 31
0.0
 70
     0
  3
DMC
 13
3880.418590593717
 23
252.1380604919971
 33
0.0
 14
3865.008590593717
 24
258.9280604919971
 34
0.0
1001
ACAD
1000
DSTYLE
1002
{
1070
   140
1040
4.0
1070
   170
1070
     1
1070
   371
1070
     9
1070
   372
1070
     9
1002
}
  0
DIMENSION
  5
1E4
  8
回12-寸法
 62
     7
  2
*D4
 10
3865.008590593717
 20
286.2121492225066
 30
0.0
 11
3845.110165396866
 21
288.9121492225066
 31
0.0
 70
     0
  1
(<>)
  3
DMC
 13
3881.518590593716
 23
251.0380604919971
 33
0.0
 14
3865.008590593717
 24
258.9280604919971
 34
0.0
1001
ACAD
1000
DSTYLE
1002
{
1070
   140
1040
4.0
1070
   170
1070
     1
1070
   371
1070
     9
1070
   372
1070
     9
1002
}
  0
DIMENSION
  5
1F3
  8
回12-寸法
 62
     7
  2
*D3
 10
4237.092587309349
 20
-71.88190502049952
 30
0.0
 11
4237.092587309349
 21
-105.8560434336558
 31
0.0
 70
   128
  1
2.1±{\H0.75x;±0.2} [0.083±{\H0.75x;±0.008}]
  3
DMC
 13
4230.408590593716
 23
-77.60525603208157
 33
0.0
 14
4229.908590593716
 24
-71.88190502049952
 34
0.0
 50
90.0
1001
ACAD
1000
DSTYLE
1002
{
1070
   140
1040
4.0
1070
   170
1070
     1
1070
   371
1070
     9
1070
   372
1070
     9
1002
}
  0
DIMENSION
  5
202
  8
回12-寸法
 62
     7
  2
*D2
 10
4229.908590593716
 20
-64.5502037719001
 30
0.0
 11
4212.010165396866
 21
-61.8502037719001
 31
0.0
 70
     0
  1
(<>)
  3
DMC
 13
4230.408590593716
 23
-74.38933203639397
 33
0.0
 14
4229.908590593716
 24
-71.88190502049952
 34
0.0
1001
ACAD
1000
DSTYLE
1002
{
1070
   140
1040
4.0
1070
   170
1070
     1
1070
   371
1070
     9
1070
   372
1070
     9
1002
}
  0
DIMENSION
  5
211
  8
回12-寸法
 62
     7
  2
*D1
 10
3865.508590593717
 20
-64.5502037719001
 30
0.0
 11
3883.407015790567
 21
-61.8502037719001
 31
0.0
 70
     0
  1
(<>)
  3
DMC
 13
3865.008590593717
 23
-75.16908584582177
 33
0.0
 14
3865.508590593717
 24
-71.88190502049963
 34
0.0
1001
ACAD
1000
DSTYLE
1002
{
1070
   140
1040
4.0
1070
   170
1070
     1
1070
   371
1070
     9
1070
   372
1070
     9
1002
}
  0
CIRCLE
  5
220
  8
回13-記事
 62
     7
 10
4219.143795521787
 20
-83.66163754765466
 30
0.0
 40
2.401510029706783
  0
CIRCLE
  5
221
  8
回13-記事
 62
     7
 10
4063.463145142401
 20
-61.79400897830737
 30
0.0
 40
2.401510029706783
  0
CIRCLE
  5
222
  8
回13-記事
 62
     7
 10
4052.106812403933
 20
-85.62316517994213
 30
0.0
 40
2.401510029706783
  0
CIRCLE
  5
223
  8
回13-記事
 62
     7
 10
3879.13756926365
 20
-86.76073478881926
 30
0.0
 40
2.401510029706783
  0
CIRCLE
  5
224
  8
回13-記事
 62
     7
 10
3864.531825518643
 20
-86.61509304049969
 30
0.0
 40
2.401510029706783
  0
CIRCLE
  5
225
  8
回13-記事
 62
     7
 10
3850.545286265124
 20
-81.33561895181491
 30
0.0
 40
2.401510029706783
  0
CIRCLE
  5
226
  8
回13-記事
 62
     7
 10
3790.719341844504
 20
-66.61062153416833
 30
0.0
 40
2.401510029706783
  0
CIRCLE
  5
227
  8
回13-記事
 62
     7
 10
3773.068627169531
 20
-66.19476087976863
 30
0.0
 40
2.401510029706783
  0
CIRCLE
  5
228
  8
回13-記事
 62
     7
 10
3753.23309663157
 20
-79.96740747718786
 30
0.0
 40
2.401510029706783
  0
TEXT
  5
229
  8
回12-寸法
 62
     7
 10
3789.269859582596
 20
298.2012582620614
 30
0.0
 40
4.0
  1
(Insulation Area)
1001
ACAD
1000
MTEXTBEGIN
1070
    73
1070
     1
1070
    44
1040
1.0
1070
    74
1070
     0
1000
MTEXTEND
  0
TEXT
  5
22A
  8
回13-記事
 62
     5
 10
4232.569091430635
 20
-5.922649199455576
 30
0.0
 40
4.0
  1
FST-170C
1001
ACAD
1000
MTEXTBEGIN
1070
    73
1070
     1
1070
    44
1040
1.0
1070
    74
1070
     0
1000
MTEXTEND
  0
TEXT
  5
22B
  8
回13-記事
 62
     5
 10
4232.569091430635
 20
-0.2712365369403642
 30
0.0
 40
4.0
  1
PART No.
1001
ACAD
1000
MTEXTBEGIN
1070
    73
1070
     1
1070
    44
1040
1.0
1070
    74
1070
     0
1000
MTEXTEND
  0
INSERT
  5
22C
  8
回13-記事
 62
     3
 66
     1
  2
*X21
 10
0.0
 20
0.0
 30
0.0
  0
SEQEND
  5
318
  8
0
 62
     7
  0
LINE
  5
22D
  8
回13-記事
 62
     7
 10
3764.0204968071
 20
-69.86549145736422
 30
0.0
 11
3764.109231594324
 21
-70.65184747232092
 31
0.0
  0
LINE
  5
22E
  8
回13-記事
 62
     7
 10
3763.209778670411
 20
-69.90406483467655
 30
0.0
 11
3764.0204968071
 21
-69.86549145736422
 31
0.0
  0
LINE
  5
22F
  8
回13-記事
 62
     7
 10
3761.544590692301
 20
-70.8265471324487
 30
0.0
 11
3763.209778670411
 21
-69.90406483467655
 31
0.0
  0
LINE
  5
230
  8
回13-記事
 62
     7
 10
3763.228388541538
 20
-71.46319306366627
 30
0.0
 11
3763.176594587773
 21
-70.70284303088533
 31
0.0
  0
LINE
  5
231
  8
回13-記事
 62
     7
 10
3762.79312582078
 20
-71.50537687273232
 30
0.0
 11
3762.741331867014
 21
-70.74502683995138
 31
0.0
  0
LINE
  5
232
  8
回13-記事
 62
     7
 10
3759.910629272136
 20
-71.7847361613683
 30
0.0
 11
3766.52577374319
 21
-71.14362453383478
 31
0.0
  0
ARC
  5
233
  8
回13-記事
 62
     7
 10
3759.910629272136
 20
-72.05473616136828
 30
0.0
 40
0.2700000000000102
 50
90.0
 51
270.0
  0
ARC
  5
234
  8
回13-記事
 62
     7
 10
3766.84497440205
 20
-69.3162824979106
 30
0.0
 40
0.54
 50
45.00000000000878
 51
134.9999999999912
  0
LINE
  5
235
  8
回13-記事
 62
     7
 10
3766.463136740208
 20
-68.93444483607004
 30
0.0
 11
3765.547208448473
 21
-70.5538945513124
 31
0.0
  0
LINE
  5
236
  8
回13-記事
 62
     7
 10
3768.213856577251
 20
-69.92148934505644
 30
0.0
 11
3767.22681206389
 21
-68.93444483607004
 31
0.0
  0
LINE
  5
237
  8
回13-記事
 62
     7
 10
3769.091388340612
 20
-72.32473616136871
 30
0.0
 11
3769.091388340612
 21
-69.92148934505644
 31
0.0
  0
LINE
  5
238
  8
回13-記事
 62
     7
 10
3767.23241470901
 20
-69.92148934505644
 30
0.0
 11
3769.091388340612
 21
-69.92148934505644
 31
0.0
  0
LINE
  5
239
  8
回13-記事
 62
     7
 10
3765.842852681032
 20
-72.32473616136871
 30
0.0
 11
3767.23241470901
 21
-69.92148934505644
 31
0.0
  0
LINE
  5
23A
  8
回13-記事
 62
     7
 10
3759.419378943836
 20
-70.97131350884978
 30
0.0
 11
3765.547208448473
 21
-70.5538945513124
 31
0.0
  0
LINE
  5
23B
  8
回13-記事
 62
     7
 10
3758.908356291315
 20
-71.48233616137054
 30
0.0
 11
3759.419378943836
 21
-70.97131350884978
 31
0.0
  0
ARC
  5
23C
  8
回13-記事
 62
     7
 10
3758.065956291315
 20
-71.48233616136827
 30
0.0
 40
0.8423999999999999
 50
270.0
 51
359.9999999998567
  0
INSERT
  5
23D
  8
回13-記事
 62
     8
 66
     1
  2
*X22
 10
0.0
 20
0.0
 30
0.0
1001
ACAD
1000
HATCH
1002
{
1070
    19
1000
ANSI31
1040
10.0
1040
0.0
1000
R14_HATCH_DATA
1000
23D
1011
1.0
1021
0.0
1031
0.0
1011
0.0
1021
1.0
1031
0.0
1011
0.0
1021
0.0
1031
1.0
1040
0.0
1010
0.0
1020
0.0
1030
1.0
1000
ANSI31
1070
     0
1070
     1
1071
        1
1071
        7
1070
     0
1070
     1
1071
        8
1040
3865.508590593717
1040
-72.38117812626239
1040
3865.508590593717
1040
-71.88190502049963
1040
3874.566590555024
1040
-71.88190502049963
1040
3874.566590555024
1040
-70.96522560011056
1040
3864.553629536571
1040
-70.96522560011056
1040
3864.553629536571
1040
-71.42621706911689
1040
3857.008590593717
1040
-71.42621706911689
1040
3857.008590593717
1040
-72.38117812626239
1071
        0
1070
     0
1070
     1
1040
0.0
1040
10.0
1070
     0
1070
     1
1040
0.7853981633974483
1040
4185.684069479959
1040
-15.55991399726997
1040
-0.8838834764831842
1040
0.8838834764831844
1070
     0
1040
0.0858245785438369
1071
        1
1040
3864.060991968047
1040
-71.9908136258008
1040
0.0
1002
}
  0
SEQEND
  5
327
  8
0
 62
     7
  0
LINE
  5
23E
  8
回13-記事
  6
CONTINUOUS
 62
     7
 10
3857.199743079043
 20
-72.93789535614258
 30
0.0
 11
3850.272422635795
 21
-78.92573801559183
 31
0.0
  0
LINE
  5
23F
  8
回13-記事
 62
     7
 10
3856.108590593717
 20
-72.38117812626239
 30
0.0
 11
3856.108590593717
 21
-73.33613918340791
 31
0.0
  0
LINE
  5
240
  8
回13-記事
 62
     7
 10
3865.508590593717
 20
-72.38117812626239
 30
0.0
 11
3856.108590593717
 21
-72.38117812626239
 31
0.0
  0
ARC
  5
241
  8
回13-記事
  6
CONTINUOUS
 62
     7
 10
3913.765340108287
 20
-74.38933203639397
 30
0.0
 40
0.307948428894622
 50
0.0
 51
180.0
  0
ARC
  5
242
  8
回13-記事
  6
CONTINUOUS
 62
     7
 10
3916.765340108287
 20
-74.38933203639397
 30
0.0
 40
0.307948428894622
 50
0.0
 51
180.0
  0
ARC
  5
243
  8
回13-記事
  6
CONTINUOUS
 62
     7
 10
3919.765340108286
 20
-74.38933203639397
 30
0.0
 40
0.307948428894622
 50
0.0
 51
180.0
  0
ARC
  5
244
  8
回13-記事
  6
CONTINUOUS
 62
     7
 10
3910.765340108286
 20
-74.38933203639397
 30
0.0
 40
0.307948428894622
 50
0.0
 51
180.0
  0
ARC
  5
245
  8
回13-記事
  6
CONTINUOUS
 62
     7
 10
3907.765340108286
 20
-74.38933203639397
 30
0.0
 40
0.307948428894622
 50
0.0
 51
180.0
  0
ARC
  5
246
  8
回13-記事
  6
CONTINUOUS
 62
     7
 10
3904.765340108286
 20
-74.38933203639397
 30
0.0
 40
0.307948428894622
 50
0.0
 51
180.0
  0
ARC
  5
247
  8
回13-記事
  6
CONTINUOUS
 62
     7
 10
3901.765340108286
 20
-74.38933203639397
 30
0.0
 40
0.307948428894622
 50
0.0
 51
180.0
  0
ARC
  5
248
  8
回13-記事
  6
CONTINUOUS
 62
     7
 10
3898.765340108286
 20
-74.38933203639397
 30
0.0
 40
0.307948428894622
 50
0.0
 51
180.0
  0
ARC
  5
249
  8
回13-記事
  6
CONTINUOUS
 62
     7
 10
3895.765340108287
 20
-74.38933203639397
 30
0.0
 40
0.307948428894622
 50
0.0
 51
180.0
  0
ARC
  5
24A
  8
回13-記事
  6
CONTINUOUS
 62
     7
 10
3892.765340108287
 20
-74.38933203639397
 30
0.0
 40
0.307948428894622
 50
0.0
 51
180.0
  0
ARC
  5
24B
  8
回13-記事
  6
CONTINUOUS
 62
     7
 10
3889.765340108287
 20
-74.38933203639397
 30
0.0
 40
0.307948428894622
 50
0.0
 51
180.0
  0
ARC
  5
24C
  8
回13-記事
  6
CONTINUOUS
 62
     7
 10
3886.765340108286
 20
-74.38933203639397
 30
0.0
 40
0.307948428894622
 50
0.0
 51
180.0
  0
ARC
  5
24D
  8
回13-記事
  6
CONTINUOUS
 62
     7
 10
3883.765340108286
 20
-74.38933203639397
 30
0.0
 40
0.307948428894622
 50
0.0
 51
180.0
  0
ARC
  5
24E
  8
回13-記事
  6
CONTINUOUS
 62
     7
 10
3931.765340108287
 20
-74.38933203639397
 30
0.0
 40
0.307948428894622
 50
0.0
 51
180.0
  0
ARC
  5
24F
  8
回13-記事
  6
CONTINUOUS
 62
     7
 10
3928.765340108287
 20
-74.38933203639397
 30
0.0
 40
0.307948428894622
 50
0.0
 51
180.0
  0
ARC
  5
250
  8
回13-記事
  6
CONTINUOUS
 62
     7
 10
3925.765340108286
 20
-74.38933203639397
 30
0.0
 40
0.307948428894622
 50
0.0
 51
180.0
  0
ARC
  5
251
  8
回13-記事
  6
CONTINUOUS
 62
     7
 10
3922.765340108286
 20
-74.38933203639397
 30
0.0
 40
0.307948428894622
 50
0.0
 51
180.0
  0
ARC
  5
252
  8
回13-記事
  6
CONTINUOUS
 62
     7
 10
3934.765340108287
 20
-74.38933203639397
 30
0.0
 40
0.307948428894622
 50
0.0
 51
180.0
  0
ARC
  5
253
  8
回13-記事
  6
CONTINUOUS
 62
     7
 10
3937.765340108286
 20
-74.38933203639397
 30
0.0
 40
0.307948428894622
 50
0.0
 51
180.0
  0
ARC
  5
254
  8
回13-記事
  6
CONTINUOUS
 62
     7
 10
3940.765340108286
 20
-74.38933203639397
 30
0.0
 40
0.307948428894622
 50
0.0
 51
180.0
  0
ARC
  5
255
  8
回13-記事
  6
CONTINUOUS
 62
     7
 10
3943.765340108286
 20
-74.38933203639397
 30
0.0
 40
0.307948428894622
 50
0.0
 51
180.0
  0
ARC
  5
256
  8
回13-記事
  6
CONTINUOUS
 62
     7
 10
3946.765340108287
 20
-74.38933203639397
 30
0.0
 40
0.307948428894622
 50
0.0
 51
180.0
  0
ARC
  5
257
  8
回13-記事
  6
CONTINUOUS
 62
     7
 10
3949.765340108287
 20
-74.38933203639397
 30
0.0
 40
0.307948428894622
 50
0.0
 51
180.0
  0
ARC
  5
258
  8
回13-記事
  6
CONTINUOUS
 62
     7
 10
3952.765340108287
 20
-74.38933203639397
 30
0.0
 40
0.307948428894622
 50
0.0
 51
180.0
  0
ARC
  5
259
  8
回13-記事
  6
CONTINUOUS
 62
     7
 10
3955.765340108286
 20
-74.38933203639397
 30
0.0
 40
0.307948428894622
 50
0.0
 51
180.0
  0
ARC
  5
25A
  8
回13-記事
  6
CONTINUOUS
 62
     7
 10
3958.765340108286
 20
-74.38933203639397
 30
0.0
 40
0.307948428894622
 50
0.0
 51
180.0
  0
ARC
  5
25B
  8
回13-記事
  6
CONTINUOUS
 62
     7
 10
3961.765340108286
 20
-74.38933203639397
 30
0.0
 40
0.307948428894622
 50
0.0
 51
180.0
  0
ARC
  5
25C
  8
回13-記事
  6
CONTINUOUS
 62
     7
 10
3964.765340108286
 20
-74.38933203639397
 30
0.0
 40
0.307948428894622
 50
0.0
 51
180.0
  0
ARC
  5
25D
  8
回13-記事
  6
CONTINUOUS
 62
     7
 10
3967.765340108286
 20
-74.38933203639397
 30
0.0
 40
0.307948428894622
 50
0.0
 51
180.0
  0
ARC
  5
25E
  8
回13-記事
  6
CONTINUOUS
 62
     7
 10
3970.765340108286
 20
-74.38933203639397
 30
0.0
 40
0.307948428894622
 50
0.0
 51
180.0
  0
ARC
  5
25F
  8
回13-記事
  6
CONTINUOUS
 62
     7
 10
3973.765340108286
 20
-74.38933203639397
 30
0.0
 40
0.307948428894622
 50
0.0
 51
180.0
  0
ARC
  5
260
  8
回13-記事
  6
CONTINUOUS
 62
     7
 10
3976.765340108286
 20
-74.38933203639397
 30
0.0
 40
0.307948428894622
 50
0.0
 51
180.0
  0
ARC
  5
261
  8
回13-記事
  6
CONTINUOUS
 62
     7
 10
3979.765340108286
 20
-74.38933203639397
 30
0.0
 40
0.307948428894622
 50
0.0
 51
180.0
  0
ARC
  5
262
  8
回13-記事
  6
CONTINUOUS
 62
     7
 10
3982.765340108286
 20
-74.38933203639397
 30
0.0
 40
0.307948428894622
 50
0.0
 51
180.0
  0
ARC
  5
263
  8
回13-記事
  6
CONTINUOUS
 62
     7
 10
3985.765340108287
 20
-74.38933203639397
 30
0.0
 40
0.307948428894622
 50
0.0
 51
180.0
  0
ARC
  5
264
  8
回13-記事
  6
CONTINUOUS
 62
     7
 10
3988.765340108287
 20
-74.38933203639397
 30
0.0
 40
0.307948428894622
 50
0.0
 51
180.0
  0
ARC
  5
265
  8
回13-記事
  6
CONTINUOUS
 62
     7
 10
3991.765340108287
 20
-74.38933203639397
 30
0.0
 40
0.307948428894622
 50
0.0
 51
180.0
  0
ARC
  5
266
  8
回13-記事
  6
CONTINUOUS
 62
     7
 10
3994.765340108286
 20
-74.38933203639397
 30
0.0
 40
0.307948428894622
 50
0.0
 51
180.0
  0
ARC
  5
267
  8
回13-記事
  6
CONTINUOUS
 62
     7
 10
3997.765340108286
 20
-74.38933203639397
 30
0.0
 40
0.307948428894622
 50
0.0
 51
180.0
  0
ARC
  5
268
  8
回13-記事
  6
CONTINUOUS
 62
     7
 10
4000.765340108286
 20
-74.38933203639397
 30
0.0
 40
0.307948428894622
 50
0.0
 51
180.0
  0
ARC
  5
269
  8
回13-記事
  6
CONTINUOUS
 62
     7
 10
4003.765340108286
 20
-74.38933203639397
 30
0.0
 40
0.307948428894622
 50
0.0
 51
180.0
  0
ARC
  5
26A
  8
回13-記事
  6
CONTINUOUS
 62
     7
 10
4006.765340108286
 20
-74.38933203639397
 30
0.0
 40
0.307948428894622
 50
0.0
 51
180.0
  0
ARC
  5
26B
  8
回13-記事
  6
CONTINUOUS
 62
     7
 10
4009.765340108287
 20
-74.38933203639397
 30
0.0
 40
0.307948428894622
 50
0.0
 51
180.0
  0
ARC
  5
26C
  8
回13-記事
  6
CONTINUOUS
 62
     7
 10
4012.765340108286
 20
-74.38933203639397
 30
0.0
 40
0.307948428894622
 50
0.0
 51
180.0
  0
ARC
  5
26D
  8
回13-記事
  6
CONTINUOUS
 62
     7
 10
4015.765340108286
 20
-74.38933203639397
 30
0.0
 40
0.307948428894622
 50
0.0
 51
180.0
  0
ARC
  5
26E
  8
回13-記事
  6
CONTINUOUS
 62
     7
 10
4018.765340108286
 20
-74.38933203639397
 30
0.0
 40
0.307948428894622
 50
0.0
 51
180.0
  0
ARC
  5
26F
  8
回13-記事
  6
CONTINUOUS
 62
     7
 10
4021.765340108286
 20
-74.38933203639397
 30
0.0
 40
0.307948428894622
 50
0.0
 51
180.0
  0
ARC
  5
270
  8
回13-記事
  6
CONTINUOUS
 62
     7
 10
4024.765340108286
 20
-74.38933203639397
 30
0.0
 40
0.307948428894622
 50
0.0
 51
180.0
  0
ARC
  5
271
  8
回13-記事
  6
CONTINUOUS
 62
     7
 10
4027.765340108286
 20
-74.38933203639397
 30
0.0
 40
0.307948428894622
 50
0.0
 51
180.0
  0
ARC
  5
272
  8
回13-記事
  6
CONTINUOUS
 62
     7
 10
4030.765340108286
 20
-74.38933203639397
 30
0.0
 40
0.307948428894622
 50
0.0
 51
180.0
  0
ARC
  5
273
  8
回13-記事
  6
CONTINUOUS
 62
     7
 10
4033.765340108286
 20
-74.38933203639397
 30
0.0
 40
0.307948428894622
 50
0.0
 51
180.0
  0
ARC
  5
274
  8
回13-記事
  6
CONTINUOUS
 62
     7
 10
4036.765340108286
 20
-74.38933203639397
 30
0.0
 40
0.307948428894622
 50
0.0
 51
180.0
  0
ARC
  5
275
  8
回13-記事
  6
CONTINUOUS
 62
     7
 10
4039.765340108286
 20
-74.38933203639397
 30
0.0
 40
0.307948428894622
 50
0.0
 51
180.0
  0
ARC
  5
276
  8
回13-記事
  6
CONTINUOUS
 62
     7
 10
4042.765340108286
 20
-74.38933203639397
 30
0.0
 40
0.307948428894622
 50
0.0
 51
180.0
  0
ARC
  5
277
  8
回13-記事
  6
CONTINUOUS
 62
     7
 10
4045.765340108286
 20
-74.38933203639397
 30
0.0
 40
0.307948428894622
 50
0.0
 51
180.0
  0
ARC
  5
278
  8
回13-記事
  6
CONTINUOUS
 62
     7
 10
4048.765340108285
 20
-74.38933203639397
 30
0.0
 40
0.307948428894622
 50
0.0
 51
180.0
  0
ARC
  5
279
  8
回13-記事
  6
CONTINUOUS
 62
     7
 10
4171.765340108286
 20
-74.38933203639397
 30
0.0
 40
0.307948428894622
 50
0.0
 51
180.0
  0
ARC
  5
27A
  8
回13-記事
  6
CONTINUOUS
 62
     7
 10
4174.765340108286
 20
-74.38933203639397
 30
0.0
 40
0.307948428894622
 50
0.0
 51
180.0
  0
ARC
  5
27B
  8
回13-記事
  6
CONTINUOUS
 62
     7
 10
4177.765340108286
 20
-74.38933203639397
 30
0.0
 40
0.307948428894622
 50
0.0
 51
180.0
  0
ARC
  5
27C
  8
回13-記事
  6
CONTINUOUS
 62
     7
 10
4180.765340108286
 20
-74.38933203639397
 30
0.0
 40
0.307948428894622
 50
0.0
 51
180.0
  0
ARC
  5
27D
  8
回13-記事
  6
CONTINUOUS
 62
     7
 10
4183.765340108286
 20
-74.38933203639397
 30
0.0
 40
0.307948428894622
 50
0.0
 51
180.0
  0
ARC
  5
27E
  8
回13-記事
  6
CONTINUOUS
 62
     7
 10
4186.765340108286
 20
-74.38933203639397
 30
0.0
 40
0.307948428894622
 50
0.0
 51
180.0
  0
ARC
  5
27F
  8
回13-記事
  6
CONTINUOUS
 62
     7
 10
4189.765340108286
 20
-74.38933203639397
 30
0.0
 40
0.307948428894622
 50
0.0
 51
180.0
  0
ARC
  5
280
  8
回13-記事
  6
CONTINUOUS
 62
     7
 10
4192.765340108286
 20
-74.38933203639397
 30
0.0
 40
0.307948428894622
 50
0.0
 51
180.0
  0
ARC
  5
281
  8
回13-記事
  6
CONTINUOUS
 62
     7
 10
4195.765340108287
 20
-74.38933203639397
 30
0.0
 40
0.307948428894622
 50
0.0
 51
180.0
  0
ARC
  5
282
  8
回13-記事
  6
CONTINUOUS
 62
     7
 10
4198.765340108286
 20
-74.38933203639397
 30
0.0
 40
0.307948428894622
 50
0.0
 51
180.0
  0
ARC
  5
283
  8
回13-記事
  6
CONTINUOUS
 62
     7
 10
4201.765340108286
 20
-74.38933203639397
 30
0.0
 40
0.307948428894622
 50
0.0
 51
180.0
  0
ARC
  5
284
  8
回13-記事
  6
CONTINUOUS
 62
     7
 10
4204.765340108286
 20
-74.38933203639397
 30
0.0
 40
0.307948428894622
 50
0.0
 51
180.0
  0
ARC
  5
285
  8
回13-記事
  6
CONTINUOUS
 62
     7
 10
4207.765340108286
 20
-74.38933203639397
 30
0.0
 40
0.307948428894622
 50
0.0
 51
180.0
  0
ARC
  5
286
  8
回13-記事
  6
CONTINUOUS
 62
     7
 10
4210.765340108286
 20
-74.38933203639397
 30
0.0
 40
0.307948428894622
 50
0.0
 51
180.0
  0
ARC
  5
287
  8
回13-記事
  6
CONTINUOUS
 62
     7
 10
4213.765340108286
 20
-74.38933203639397
 30
0.0
 40
0.307948428894622
 50
0.0
 51
180.0
  0
ARC
  5
288
  8
回13-記事
  6
CONTINUOUS
 62
     7
 10
4216.765340108286
 20
-74.38933203639397
 30
0.0
 40
0.307948428894622
 50
0.0
 51
180.0
  0
ARC
  5
289
  8
回13-記事
  6
CONTINUOUS
 62
     7
 10
4219.765340108286
 20
-74.38933203639397
 30
0.0
 40
0.307948428894622
 50
0.0
 51
180.0
  0
ARC
  5
28A
  8
回13-記事
  6
CONTINUOUS
 62
     7
 10
4168.765340108286
 20
-74.38933203639397
 30
0.0
 40
0.307948428894622
 50
0.0
 51
180.0
  0
ARC
  5
28B
  8
回13-記事
  6
CONTINUOUS
 62
     7
 10
4165.765340108285
 20
-74.38933203639397
 30
0.0
 40
0.307948428894622
 50
0.0
 51
180.0
  0
ARC
  5
28C
  8
回13-記事
  6
CONTINUOUS
 62
     7
 10
4162.765340108285
 20
-74.38933203639397
 30
0.0
 40
0.307948428894622
 50
0.0
 51
180.0
  0
ARC
  5
28D
  8
回13-記事
  6
CONTINUOUS
 62
     7
 10
4159.765340108286
 20
-74.38933203639397
 30
0.0
 40
0.307948428894622
 50
0.0
 51
180.0
  0
ARC
  5
28E
  8
回13-記事
  6
CONTINUOUS
 62
     7
 10
4156.765340108286
 20
-74.38933203639397
 30
0.0
 40
0.307948428894622
 50
0.0
 51
180.0
  0
ARC
  5
28F
  8
回13-記事
  6
CONTINUOUS
 62
     7
 10
4153.765340108286
 20
-74.38933203639397
 30
0.0
 40
0.307948428894622
 50
0.0
 51
180.0
  0
ARC
  5
290
  8
回13-記事
  6
CONTINUOUS
 62
     7
 10
4150.765340108286
 20
-74.38933203639397
 30
0.0
 40
0.307948428894622
 50
0.0
 51
180.0
  0
ARC
  5
291
  8
回13-記事
  6
CONTINUOUS
 62
     7
 10
4147.765340108286
 20
-74.38933203639397
 30
0.0
 40
0.307948428894622
 50
0.0
 51
180.0
  0
ARC
  5
292
  8
回13-記事
  6
CONTINUOUS
 62
     7
 10
4144.765340108286
 20
-74.38933203639397
 30
0.0
 40
0.307948428894622
 50
0.0
 51
180.0
  0
ARC
  5
293
  8
回13-記事
  6
CONTINUOUS
 62
     7
 10
4141.765340108286
 20
-74.38933203639397
 30
0.0
 40
0.307948428894622
 50
0.0
 51
180.0
  0
ARC
  5
294
  8
回13-記事
  6
CONTINUOUS
 62
     7
 10
4138.765340108286
 20
-74.38933203639397
 30
0.0
 40
0.307948428894622
 50
0.0
 51
180.0
  0
ARC
  5
295
  8
回13-記事
  6
CONTINUOUS
 62
     7
 10
4135.765340108286
 20
-74.38933203639397
 30
0.0
 40
0.307948428894622
 50
0.0
 51
180.0
  0
ARC
  5
296
  8
回13-記事
  6
CONTINUOUS
 62
     7
 10
4132.765340108286
 20
-74.38933203639397
 30
0.0
 40
0.307948428894622
 50
0.0
 51
180.0
  0
ARC
  5
297
  8
回13-記事
  6
CONTINUOUS
 62
     7
 10
4129.765340108286
 20
-74.38933203639397
 30
0.0
 40
0.307948428894622
 50
0.0
 51
180.0
  0
ARC
  5
298
  8
回13-記事
  6
CONTINUOUS
 62
     7
 10
4126.765340108286
 20
-74.38933203639397
 30
0.0
 40
0.307948428894622
 50
0.0
 51
180.0
  0
ARC
  5
299
  8
回13-記事
  6
CONTINUOUS
 62
     7
 10
4123.765340108286
 20
-74.38933203639397
 30
0.0
 40
0.307948428894622
 50
0.0
 51
180.0
  0
ARC
  5
29A
  8
回13-記事
  6
CONTINUOUS
 62
     7
 10
4120.765340108286
 20
-74.38933203639397
 30
0.0
 40
0.307948428894622
 50
0.0
 51
180.0
  0
ARC
  5
29B
  8
回13-記事
  6
CONTINUOUS
 62
     7
 10
4117.765340108286
 20
-74.38933203639397
 30
0.0
 40
0.307948428894622
 50
0.0
 51
180.0
  0
ARC
  5
29C
  8
回13-記事
  6
CONTINUOUS
 62
     7
 10
4114.765340108286
 20
-74.38933203639397
 30
0.0
 40
0.307948428894622
 50
0.0
 51
180.0
  0
ARC
  5
29D
  8
回13-記事
  6
CONTINUOUS
 62
     7
 10
4111.765340108286
 20
-74.38933203639397
 30
0.0
 40
0.307948428894622
 50
0.0
 51
180.0
  0
ARC
  5
29E
  8
回13-記事
  6
CONTINUOUS
 62
     7
 10
4108.765340108286
 20
-74.38933203639397
 30
0.0
 40
0.307948428894622
 50
0.0
 51
180.0
  0
ARC
  5
29F
  8
回13-記事
  6
CONTINUOUS
 62
     7
 10
4105.765340108286
 20
-74.38933203639397
 30
0.0
 40
0.307948428894622
 50
0.0
 51
180.0
  0
ARC
  5
2A0
  8
回13-記事
  6
CONTINUOUS
 62
     7
 10
4102.765340108287
 20
-74.38933203639397
 30
0.0
 40
0.307948428894622
 50
0.0
 51
180.0
  0
ARC
  5
2A1
  8
回13-記事
  6
CONTINUOUS
 62
     7
 10
4099.765340108286
 20
-74.38933203639397
 30
0.0
 40
0.307948428894622
 50
0.0
 51
180.0
  0
ARC
  5
2A2
  8
回13-記事
  6
CONTINUOUS
 62
     7
 10
4096.765340108286
 20
-74.38933203639397
 30
0.0
 40
0.307948428894622
 50
0.0
 51
180.0
  0
ARC
  5
2A3
  8
回13-記事
  6
CONTINUOUS
 62
     7
 10
4093.765340108286
 20
-74.38933203639397
 30
0.0
 40
0.307948428894622
 50
0.0
 51
180.0
  0
ARC
  5
2A4
  8
回13-記事
  6
CONTINUOUS
 62
     7
 10
4090.765340108286
 20
-74.38933203639397
 30
0.0
 40
0.307948428894622
 50
0.0
 51
180.0
  0
ARC
  5
2A5
  8
回13-記事
  6
CONTINUOUS
 62
     7
 10
4087.765340108286
 20
-74.38933203639397
 30
0.0
 40
0.307948428894622
 50
0.0
 51
180.0
  0
ARC
  5
2A6
  8
回13-記事
  6
CONTINUOUS
 62
     7
 10
4084.765340108286
 20
-74.38933203639397
 30
0.0
 40
0.307948428894622
 50
0.0
 51
180.0
  0
ARC
  5
2A7
  8
回13-記事
  6
CONTINUOUS
 62
     7
 10
4081.765340108286
 20
-74.38933203639397
 30
0.0
 40
0.307948428894622
 50
0.0
 51
180.0
  0
ARC
  5
2A8
  8
回13-記事
  6
CONTINUOUS
 62
     7
 10
4078.765340108286
 20
-74.38933203639397
 30
0.0
 40
0.307948428894622
 50
0.0
 51
180.0
  0
ARC
  5
2A9
  8
回13-記事
  6
CONTINUOUS
 62
     7
 10
4075.765340108286
 20
-74.38933203639397
 30
0.0
 40
0.307948428894622
 50
0.0
 51
180.0
  0
ARC
  5
2AA
  8
回13-記事
  6
CONTINUOUS
 62
     7
 10
4072.765340108285
 20
-74.38933203639397
 30
0.0
 40
0.307948428894622
 50
0.0
 51
180.0
  0
ARC
  5
2AB
  8
回13-記事
  6
CONTINUOUS
 62
     7
 10
4069.765340108285
 20
-74.38933203639397
 30
0.0
 40
0.307948428894622
 50
0.0
 51
180.0
  0
ARC
  5
2AC
  8
回13-記事
  6
CONTINUOUS
 62
     7
 10
4066.765340108286
 20
-74.38933203639397
 30
0.0
 40
0.307948428894622
 50
0.0
 51
180.0
  0
ARC
  5
2AD
  8
回13-記事
  6
CONTINUOUS
 62
     7
 10
4063.765340108286
 20
-74.38933203639397
 30
0.0
 40
0.307948428894622
 50
0.0
 51
180.0
  0
ARC
  5
2AE
  8
回13-記事
  6
CONTINUOUS
 62
     7
 10
4060.765340108286
 20
-74.38933203639397
 30
0.0
 40
0.307948428894622
 50
0.0
 51
180.0
  0
ARC
  5
2AF
  8
回13-記事
  6
CONTINUOUS
 62
     7
 10
4057.765340108286
 20
-74.38933203639397
 30
0.0
 40
0.307948428894622
 50
0.0
 51
180.0
  0
ARC
  5
2B0
  8
回13-記事
  6
CONTINUOUS
 62
     7
 10
4054.765340108286
 20
-74.38933203639397
 30
0.0
 40
0.307948428894622
 50
0.0
 51
180.0
  0
POLYLINE
  5
2B1
  8
回13-記事
  6
DASHED2
 62
     7
 66
     1
 10
0.0
 20
0.0
 30
0.0
 70
     1
  0
VERTEX
  5
328
  8
回13-記事
  6
DASHED2
 62
     7
 10
3756.753590593717
 20
-72.32473616136871
 30
0.0
  0
VERTEX
  5
32A
  8
回13-記事
  6
DASHED2
 62
     7
 10
3770.469590593716
 20
-72.32473616136871
 30
0.0
  0
VERTEX
  5
32B
  8
回13-記事
  6
DASHED2
 62
     7
 10
3770.469590593716
 20
-75.44873616136872
 30
0.0
  0
VERTEX
  5
32C
  8
回13-記事
  6
DASHED2
 62
     7
 10
3756.753590593717
 20
-75.44873616136872
 30
0.0
  0
SEQEND
  5
329
  8
0
 62
     7
  0
TEXT
  5
2B2
  8
回13-記事
  6
CONTINUOUS
 62
     5
 10
3812.826218884164
 20
-68.54558433124669
 30
0.0
 40
4.0
  1
FST-T170C110A
1001
ACAD
1000
MTEXTBEGIN
1070
    73
1070
     1
1070
    44
1040
1.0
1070
    74
1070
     0
1000
MTEXTEND
  0
TEXT
  5
2B3
  8
回13-記事
  6
CONTINUOUS
 62
     5
 10
3812.605750123531
 20
-61.34973022319639
 30
0.0
 40
4.0
  1
PART No. LABEL
1001
ACAD
1000
MTEXTBEGIN
1070
    73
1070
     1
1070
    44
1040
1.0
1070
    74
1070
     0
1000
MTEXTEND
  0
INSERT
  5
2B4
  8
回13-記事
  6
CONTINUOUS
 62
     7
 66
     1
  2
*X23
 10
0.0
 20
0.0
 30
0.0
  0
SEQEND
  5
333
  8
0
 62
     7
  0
POLYLINE
  5
2B5
  8
回13-記事
  6
CONTINUOUS
 62
     7
 66
     1
 10
0.0
 20
0.0
 30
0.0
 70
     1
  0
VERTEX
  5
334
  8
回13-記事
  6
CONTINUOUS
 62
     7
 10
3801.501062534565
 20
-73.33613918340792
 30
0.0
  0
VERTEX
  5
336
  8
回13-記事
  6
CONTINUOUS
 62
     7
 10
3827.501062534564
 20
-73.33613918340792
 30
0.0
  0
VERTEX
  5
337
  8
回13-記事
  6
CONTINUOUS
 62
     7
 10
3827.501062534564
 20
-72.35631623778103
 30
0.0
  0
VERTEX
  5
338
  8
回13-記事
  6
CONTINUOUS
 62
     7
 10
3801.501062534565
 20
-72.35631623778103
 30
0.0
  0
SEQEND
  5
335
  8
0
 62
     7
  0
LINE
  5
2B6
  8
回13-記事
  6
CONTINUOUS
 62
     8
 10
3874.566590555024
 20
-70.96522560011056
 30
0.0
 11
3864.553629536571
 21
-70.96522560011056
 31
0.0
  0
LINE
  5
2B7
  8
回13-記事
  6
CONTINUOUS
 62
     8
 10
3874.566590555024
 20
-71.88190502049963
 30
0.0
 11
3874.566590555024
 21
-70.96522560011056
 31
0.0
  0
LINE
  5
2B8
  8
回13-記事
  6
CONTINUOUS
 62
     8
 10
3865.508590593717
 20
-71.88190502049963
 30
0.0
 11
3874.566590555024
 21
-71.88190502049963
 31
0.0
  0
LINE
  5
2B9
  8
回13-記事
  6
CONTINUOUS
 62
     8
 10
3864.553629536571
 20
-70.96522560011056
 30
0.0
 11
3864.553629536571
 21
-71.42621706911689
 31
0.0
  0
LINE
  5
2BA
  8
回13-記事
  6
CONTINUOUS
 62
     8
 10
3857.008590593717
 20
-71.42621706911689
 30
0.0
 11
3857.008590593717
 21
-72.38117812626239
 31
0.0
  0
LINE
  5
2BB
  8
回13-記事
  6
CONTINUOUS
 62
     8
 10
3857.008590593717
 20
-71.42621706911689
 30
0.0
 11
3864.553629536571
 21
-71.42621706911689
 31
0.0
  0
LINE
  5
2BC
  8
回13-記事
  6
CONTINUOUS
 62
     7
 10
3869.625566751049
 20
-71.66673343810214
 30
0.0
 11
3865.066726080845
 21
-83.86562944982609
 31
0.0
  0
TEXT
  5
2BD
  8
回13-記事
  6
CONTINUOUS
 62
     7
 10
3863.033664850287
 20
-88.50577251957668
 30
0.0
 40
4.0
  1
6
  0
LINE
  5
2BE
  8
回13-記事
  6
CONTINUOUS
 62
     7
 10
3870.533264854668
 20
-78.32482205277222
 30
0.0
 11
3865.066726080845
 21
-83.86562944982609
 31
0.0
  0
LINE
  5
2BF
  8
回13-記事
  6
CONTINUOUS
 62
     7
 10
3874.566590555024
 20
-78.56021708922708
 30
0.0
 11
3874.566590555024
 21
-77.60525603208157
 31
0.0
  0
LINE
  5
2C0
  8
回13-記事
  6
CONTINUOUS
 62
     7
 10
3864.053629536572
 20
-78.56021708922708
 30
0.0
 11
3874.566590555024
 21
-78.56021708922708
 31
0.0
  0
LINE
  5
2C1
  8
回13-記事
  6
CONTINUOUS
 62
     7
 10
3864.053629536572
 20
-76.12404690296727
 30
0.0
 11
3864.053629536572
 21
-78.56021708922708
 31
0.0
  0
LINE
  5
2C2
  8
回13-記事
  6
CONTINUOUS
 62
     7
 10
3857.008590593717
 20
-76.12404690296727
 30
0.0
 11
3864.053629536572
 21
-76.12404690296727
 31
0.0
  0
LINE
  5
2C3
  8
回13-記事
  6
CONTINUOUS
 62
     7
 10
3857.008590593717
 20
-75.16908584582177
 30
0.0
 11
3857.008590593717
 21
-76.12404690296727
 31
0.0
  0
TEXT
  5
2C4
  8
回13-記事
  6
CONTINUOUS
 62
     5
 10
3812.826218884164
 20
-89.78982960026735
 30
0.0
 40
4.0
  1
Lot Label
1001
ACAD
1000
MTEXTBEGIN
1070
    73
1070
     1
1070
    44
1040
1.0
1070
    74
1070
     0
1000
MTEXTEND
  0
INSERT
  5
2C5
  8
回13-記事
  6
CONTINUOUS
 62
     7
 66
     1
  2
*X24
 10
0.0
 20
0.0
 30
0.0
  0
SEQEND
  5
33F
  8
0
 62
     7
  0
POLYLINE
  5
2C6
  8
回13-記事
  6
CONTINUOUS
 62
     7
 66
     1
 10
0.0
 20
0.0
 30
0.0
 70
     1
  0
VERTEX
  5
340
  8
回13-記事
  6
CONTINUOUS
 62
     7
 10
3801.501062534565
 20
-76.14890879144867
 30
0.0
  0
VERTEX
  5
342
  8
回13-記事
  6
CONTINUOUS
 62
     7
 10
3827.501062534564
 20
-76.14890879144867
 30
0.0
  0
VERTEX
  5
343
  8
回13-記事
  6
CONTINUOUS
 62
     7
 10
3827.501062534564
 20
-75.16908584582179
 30
0.0
  0
VERTEX
  5
344
  8
回13-記事
  6
CONTINUOUS
 62
     7
 10
3801.501062534565
 20
-75.16908584582179
 30
0.0
  0
SEQEND
  5
341
  8
0
 62
     7
  0
TEXT
  5
2C7
  8
回13-記事
  6
CONTINUOUS
 62
     7
 10
4217.782684681556
 20
-85.75669665362637
 30
0.0
 40
4.0
  1
7
  0
LINE
  5
2C8
  8
回13-記事
  6
CONTINUOUS
 62
     7
 10
4227.629639534931
 20
-73.86006576962188
 30
0.0
 11
4220.657524784133
 21
-81.36170610514501
 31
0.0
  0
TEXT
  5
2C9
  8
回13-記事
  6
CONTINUOUS
 62
     7
 10
3877.739490488434
 20
-88.90340442431181
 30
0.0
 40
4.0
  1
7
  0
LINE
  5
2CA
  8
回13-記事
  6
CONTINUOUS
 62
     7
 10
3875.425975584324
 20
-73.86006576962188
 30
0.0
 11
3878.505835856962
 21
-84.33967723605974
 31
0.0
  0
TEXT
  5
2CB
  8
回13-記事
  6
CONTINUOUS
 62
     7
 10
3751.795303779382
 20
-81.97299028460873
 30
0.0
 40
4.0
  1
8
  0
TEXT
  5
2CC
  8
回13-記事
  6
CONTINUOUS
 62
     7
 10
3771.905802547149
 20
-68.35237587712379
 30
0.0
 40
4.0
  1
5
  0
TEXT
  5
2CD
  8
回13-記事
  6
CONTINUOUS
 62
     7
 10
3848.981539482998
 20
-83.41423576879732
 30
0.0
 40
4.0
  1
4
  0
TEXT
  5
2CE
  8
回13-記事
  6
CONTINUOUS
 62
     7
 10
3789.49544551709
 20
-68.5009786123295
 30
0.0
 40
4.0
  1
3
  0
TEXT
  5
2CF
  8
回13-記事
  6
CONTINUOUS
 62
     7
 10
4050.787690483869
 20
-87.45018556381944
 30
0.0
 40
4.0
  1
2
  0
TEXT
  5
2D0
  8
回13-記事
  6
CONTINUOUS
 62
     7
 10
4062.097852472824
 20
-63.73681908293145
 30
0.0
 40
4.0
  1
1
  0
LINE
  5
2D1
  8
回13-記事
  6
CONTINUOUS
 62
     7
 10
3760.102109213923
 20
-73.68504143456664
 30
0.0
 11
3755.634448195961
 21
-78.46895758475429
 31
0.0
  0
LINE
  5
2D2
  8
回13-記事
  6
CONTINUOUS
 62
     7
 10
3771.627738441324
 20
-72.97929095467259
 30
0.0
 11
3773.159295877679
 21
-69.09520407573961
 31
0.0
  0
LINE
  5
2D3
  8
回13-記事
  6
CONTINUOUS
 62
     7
 10
3848.955300033754
 20
-74.83124349986827
 30
0.0
 11
3850.272422635795
 21
-78.92573801559183
 31
0.0
  0
LINE
  5
2D4
  8
回13-記事
  6
CONTINUOUS
 62
     7
 10
3788.625470602365
 20
-73.65172164357443
 30
0.0
 11
3790.183427381982
 21
-69.50112138961447
 31
0.0
  0
LINE
  5
2D5
  8
回13-記事
  6
CONTINUOUS
 62
     7
 10
4049.026306441067
 20
-75.62835882824799
 30
0.0
 11
4051.297720562767
 21
-82.98306983011981
 31
0.0
  0
LINE
  5
2D6
  8
回13-記事
  6
CONTINUOUS
 62
     7
 10
4059.784337568713
 20
-72.71749842136739
 30
0.0
 11
4062.922097699547
 21
-65.10448535002286
 31
0.0
  0
ARC
  5
2D7
  8
回13-記事
  6
CONTINUOUS
 62
     7
 10
4051.765340108286
 20
-74.38933203639397
 30
0.0
 40
0.307948428894622
 50
0.0
 51
180.0
  0
POLYLINE
  5
2D8
  8
回13-記事
  6
CONTINUOUS
 62
     7
 66
     1
 10
0.0
 20
0.0
 30
0.0
 70
     1
  0
VERTEX
  5
345
  8
回13-記事
  6
CONTINUOUS
 62
     7
 10
3775.008590593717
 20
-72.73613918340803
 30
0.0
  0
VERTEX
  5
347
  8
回13-記事
  6
CONTINUOUS
 62
     7
 10
3775.008590593717
 20
-73.33613918340794
 30
0.0
  0
VERTEX
  5
348
  8
回13-記事
  6
CONTINUOUS
 62
     7
 10
3765.008590593717
 20
-73.33613918340794
 30
0.0
  0
VERTEX
  5
349
  8
回13-記事
  6
CONTINUOUS
 62
     7
 10
3765.008590593717
 20
-72.73613918340803
 30
0.0
  0
SEQEND
  5
346
  8
0
 62
     7
  0
LINE
  5
2D9
  8
回13-記事
  6
CONTINUOUS
 62
     7
 10
3881.518590593716
 20
-73.33613918340791
 30
0.0
 11
3881.518590593716
 21
-74.38933203639397
 31
0.0
  0
LINE
  5
2DA
  8
回13-記事
  6
CONTINUOUS
 62
     7
 10
4221.518590593716
 20
-73.33613918340791
 30
0.0
 11
4221.518590593716
 21
-74.38933203639397
 31
0.0
  0
POLYLINE
  5
2DB
  8
回13-記事
  6
CONTINUOUS
 62
     7
 66
     1
 10
0.0
 20
0.0
 30
0.0
 70
     1
  0
VERTEX
  5
34A
  8
回13-記事
  6
CONTINUOUS
 62
     7
 10
3765.008590593717
 20
-74.38933203639397
 30
0.0
  0
VERTEX
  5
34C
  8
回13-記事
  6
CONTINUOUS
 62
     7
 10
3872.566590555024
 20
-74.38933203639397
 30
0.0
  0
VERTEX
  5
34D
  8
回13-記事
  6
CONTINUOUS
 62
     7
 10
3872.566590555024
 20
-73.33613918340791
 30
0.0
  0
VERTEX
  5
34E
  8
回13-記事
  6
CONTINUOUS
 62
     7
 10
3765.008590593717
 20
-73.33613918340791
 30
0.0
  0
SEQEND
  5
34B
  8
0
 62
     7
  0
POLYLINE
  5
2DC
  8
回13-記事
  6
CONTINUOUS
 62
     7
 66
     1
 10
0.0
 20
0.0
 30
0.0
 70
     1
  0
VERTEX
  5
34F
  8
回13-記事
  6
CONTINUOUS
 62
     7
 10
3765.008590593717
 20
-74.38933203639397
 30
0.0
  0
VERTEX
  5
351
  8
回13-記事
  6
CONTINUOUS
 62
     7
 10
3865.508590593717
 20
-74.38933203639397
 30
0.0
  0
VERTEX
  5
352
  8
回13-記事
  6
CONTINUOUS
 62
     7
 10
3865.508590593717
 20
-75.16908584582177
 30
0.0
  0
VERTEX
  5
353
  8
回13-記事
  6
CONTINUOUS
 62
     7
 10
3765.008590593717
 20
-75.16908584582177
 30
0.0
  0
SEQEND
  5
350
  8
0
 62
     7
  0
LINE
  5
2DD
  8
回13-記事
  6
CONTINUOUS
 62
     7
 10
4229.908590593716
 20
-73.33613918340791
 30
0.0
 11
4229.908590593716
 21
-74.38933203639397
 31
0.0
  0
POLYLINE
  5
2DE
  8
回13-記事
  6
CONTINUOUS
 62
     7
 66
     1
 10
0.0
 20
0.0
 30
0.0
 70
     1
  0
VERTEX
  5
354
  8
回13-記事
  6
CONTINUOUS
 62
     7
 10
3865.008590593717
 20
-74.38933203639397
 30
0.0
  0
VERTEX
  5
356
  8
回13-記事
  6
CONTINUOUS
 62
     7
 10
4230.408590593716
 20
-74.38933203639397
 30
0.0
  0
VERTEX
  5
357
  8
回13-記事
  6
CONTINUOUS
 62
     7
 10
4230.408590593716
 20
-77.60525603208157
 30
0.0
  0
VERTEX
  5
358
  8
回13-記事
  6
CONTINUOUS
 62
     7
 10
3865.008590593717
 20
-77.60525603208157
 30
0.0
  0
SEQEND
  5
355
  8
0
 62
     7
  0
POLYLINE
  5
2DF
  8
回13-記事
  6
CONTINUOUS
 62
     7
 66
     1
 10
0.0
 20
0.0
 30
0.0
 70
     1
  0
VERTEX
  5
359
  8
回13-記事
  6
CONTINUOUS
 62
     7
 10
3865.508590593717
 20
-71.88190502049963
 30
0.0
  0
VERTEX
  5
35B
  8
回13-記事
  6
CONTINUOUS
 62
     7
 10
4229.908590593716
 20
-71.88190502049963
 30
0.0
  0
VERTEX
  5
35C
  8
回13-記事
  6
CONTINUOUS
 62
     7
 10
4229.908590593716
 20
-73.33613918340791
 30
0.0
  0
VERTEX
  5
35D
  8
回13-記事
  6
CONTINUOUS
 62
     7
 10
3865.508590593717
 20
-73.33613918340791
 30
0.0
  0
SEQEND
  5
35A
  8
0
 62
     7
  0
TEXT
  5
2E0
  8
回13-記事
  6
CONTINUOUS
 62
     5
 10
4210.592603003213
 20
-19.3898677576833
 30
0.0
 40
4.777499999999998
  1
LR
  0
TEXT
  5
2E1
  8
回13-記事
  6
CONTINUOUS
 62
     5
 10
3883.833981680416
 20
-19.73748076946231
 30
0.0
 40
4.777499999999998
  1
LL
  0
TEXT
  5
2E2
  8
回13-記事
  6
CONTINUOUS
 62
     5
 10
3883.604418970456
 20
244.4026038894233
 30
0.0
 40
4.777499999999998
  1
UL
  0
TEXT
  5
2E3
  8
回13-記事
  6
CONTINUOUS
 62
     5
 10
4211.844985229517
 20
245.0532924508202
 30
0.0
 40
4.777499999999998
  1
UR
  0
TEXT
  5
2E4
  8
回12-寸法
 62
     5
 10
3846.365172078339
 20
100.3925308371324
 30
0.0
 40
4.0
  1
2-R2
1001
ACAD
1000
MTEXTBEGIN
1070
    73
1070
     1
1070
    44
1040
1.0
1070
    74
1070
     0
1000
MTEXTEND
  0
INSERT
  5
2E5
  8
回12-寸法
 62
     3
 66
     1
  2
*X25
 10
0.0
 20
0.0
 30
0.0
  0
SEQEND
  5
364
  8
0
 62
     7
  0
POLYLINE
  5
2E6
  8
回13-記事
  6
DASHED2
 62
     7
 66
     1
 10
0.0
 20
0.0
 30
0.0
 70
     1
  0
VERTEX
  5
365
  8
回13-記事
  6
DASHED2
 62
     7
 10
3857.008590593716
 20
107.7180604919963
 30
0.0
  0
VERTEX
  5
367
  8
回13-記事
  6
DASHED2
 62
     7
 10
3874.566590555023
 20
107.7180604919963
 30
0.0
  0
VERTEX
  5
368
  8
回13-記事
  6
DASHED2
 62
     7
 10
3874.566590555023
 20
121.958060491997
 30
0.0
  0
VERTEX
  5
369
  8
回13-記事
  6
DASHED2
 62
     7
 10
3857.008590593716
 20
121.958060491997
 30
0.0
  0
SEQEND
  5
366
  8
0
 62
     7
  0
INSERT
  5
2E7
  8
回13-記事
 62
     8
 66
     1
  2
*X26
 10
0.0
 20
0.0
 30
0.0
1001
ACAD
1000
HATCH
1002
{
1070
    19
1000
ANSI31
1040
1.0
1040
0.0
1000
R14_HATCH_DATA
1000
2E7
1011
1.0
1021
0.0
1031
0.0
1011
0.0
1021
1.0
1031
0.0
1011
0.0
1021
0.0
1031
1.0
1040
0.0
1010
0.0
1020
0.0
1030
1.0
1000
ANSI31
1070
     0
1070
     1
1071
        1
1071
        1
1071
        8
1070
     1
1040
3865.508590593716
1040
121.958060491997
1040
3865.508590593716
1040
129.0780604919969
1070
     1
1040
3865.508590593716
1040
129.0780604919969
1040
3874.566590555023
1040
129.0780604919969
1070
     1
1040
3874.566590555023
1040
129.0780604919969
1040
3874.566590555023
1040
100.5980604919966
1070
     1
1040
3874.566590555023
1040
100.5980604919964
1040
3865.508590593716
1040
100.5980604919964
1070
     1
1040
3865.508590593716
1040
100.5980604919964
1040
3865.508590593716
1040
107.7180604919963
1070
     1
1040
3865.508590593716
1040
107.7180604919963
1040
3857.008590593716
1040
107.7180604919963
1070
     1
1040
3857.008590593716
1040
107.7180604919963
1040
3857.008590593716
1040
121.9580604919968
1070
     1
1040
3857.008590593716
1040
121.958060491997
1040
3865.508590593716
1040
121.958060491997
1071
        0
1070
     0
1070
     1
1040
0.0
1040
1.0
1070
     0
1070
     1
1040
0.7853981633974483
1040
3978.74531170222
1040
-47.82000689315782
1040
-2.245064030267287
1040
2.245064030267288
1070
     0
1071
        1
1040
3978.74531170222
1040
-47.82000689315782
1040
0.0
1002
}
  0
SEQEND
  5
376
  8
0
 62
     7
  0
LINE
  5
2E8
  8
回13-記事
 62
    40
 10
3857.008590593716
 20
107.7180604919963
 30
0.0
 11
3865.508590593716
 21
107.7180604919963
 31
0.0
  0
LINE
  5
2E9
  8
回13-記事
 62
     8
 10
3865.508590593716
 20
121.958060491997
 30
0.0
 11
3857.008590593716
 21
121.958060491997
 31
0.0
  0
POLYLINE
  5
2EA
  8
回13-記事
 62
     8
 66
     1
 10
0.0
 20
0.0
 30
0.0
  0
VERTEX
  5
377
  8
回13-記事
 62
     8
 10
3865.508590593716
 20
121.958060491997
 30
0.0
  0
VERTEX
  5
379
  8
回13-記事
 62
     8
 10
3865.508590593716
 20
129.0780604919969
 30
0.0
  0
VERTEX
  5
37A
  8
回13-記事
 62
     8
 10
3874.566590555023
 20
129.0780604919969
 30
0.0
  0
VERTEX
  5
37B
  8
回13-記事
 62
     8
 10
3874.566590555023
 20
100.5980604919964
 30
0.0
  0
VERTEX
  5
37C
  8
回13-記事
 62
     8
 10
3865.508590593716
 20
100.5980604919964
 30
0.0
  0
VERTEX
  5
37D
  8
回13-記事
 62
     8
 10
3865.508590593716
 20
107.7180604919963
 30
0.0
  0
SEQEND
  5
378
  8
0
 62
     7
  0
POLYLINE
  5
2EB
  8
回13-記事
  6
DASHED2
 62
     7
 66
     1
 10
0.0
 20
0.0
 30
0.0
 70
     1
  0
VERTEX
  5
37E
  8
回13-記事
  6
DASHED2
 62
     7
 10
3755.008590593717
 20
108.5642604919971
 30
0.0
  0
VERTEX
  5
380
  8
回13-記事
  6
DASHED2
 62
     7
 10
3768.724590593717
 20
108.5642604919971
 30
0.0
  0
VERTEX
  5
381
  8
回13-記事
  6
DASHED2
 62
     7
 10
3768.724590593717
 20
121.1118604919972
 30
0.0
  0
VERTEX
  5
382
  8
回13-記事
  6
DASHED2
 62
     7
 10
3755.008590593717
 20
121.1118604919972
 30
0.0
  0
SEQEND
  5
37F
  8
0
 62
     7
  0
INSERT
  5
2EC
  8
回13-記事
  6
CONTINUOUS
 62
     5
 66
     1
  2
*X27
 10
0.0
 20
0.0
 30
0.0
  0
SEQEND
  5
388
  8
0
 62
     7
  0
INSERT
  5
2ED
  8
回13-記事
  6
CONTINUOUS
 62
     7
 66
     1
  2
*X28
 10
0.0
 20
0.0
 30
0.0
  0
SEQEND
  5
38F
  8
0
 62
     7
  0
TEXT
  5
2EE
  8
回13-記事
  6
CONTINUOUS
 62
     5
 10
3760.962196930172
 20
103.1949169999879
 30
0.0
 40
4.777499999999998
  1
5
 50
90.0
  0
TEXT
  5
2EF
  8
回13-記事
  6
CONTINUOUS
 62
     5
 10
3760.962196930172
 20
123.6868981256971
 30
0.0
 40
4.777499999999998
  1
1
 50
90.0
  0
INSERT
  5
2F0
  8
回13-記事
  6
CONTINUOUS
 62
     8
 66
     1
  2
*X29
 10
0.0
 20
0.0
 30
0.0
1001
ACAD
1000
HATCH
1002
{
1070
    19
1000
ANSI31
1040
1.0
1040
3.141592653589793
1000
ASC_BOUNDS
1070
     1
1070
     2
1070
     1
1005
2F1
1000
ASC_SEEDPOINT
1011
3666.083880351558
1021
141.1537695163201
1031
0.0
1000
R14_HATCH_DATA
1000
2F0
1011
1.0
1021
0.0
1031
0.0
1011
0.0
1021
1.0
1031
0.0
1011
0.0
1021
0.0
1031
1.0
1040
0.0
1010
0.0
1020
0.0
1030
1.0
1000
ANSI31
1070
     0
1070
     1
1071
        1
1071
        1
1071
        8
1070
     1
1040
3816.77864525103
1040
115.9210789555072
1040
3816.77864525103
1040
113.9210789555072
1070
     2
1040
3817.77864525103
1040
113.9210789555072
1040
1.0
1040
3.141592653589793
1040
4.712388980384689
1070
     1
1070
     1
1040
3817.77864525103
1040
112.9210789555072
1040
3841.77864525103
1040
112.9210789555072
1070
     2
1040
3841.77864525103
1040
113.9210789555072
1040
1.0
1040
4.712388980384689
1040
6.283185307179586
1070
     1
1070
     1
1040
3842.77864525103
1040
113.9210789555072
1040
3842.77864525103
1040
115.9210789555072
1070
     2
1040
3841.77864525103
1040
115.9210789555072
1040
1.0
1040
0.0
1040
1.570796326794896
1070
     1
1070
     1
1040
3841.77864525103
1040
116.9210789555072
1040
3817.77864525103
1040
116.9210789555072
1070
     2
1040
3817.77864525103
1040
115.9210789555072
1040
1.0
1040
1.570796326794896
1040
3.141592653589793
1070
     1
1071
        1
1005
2F1
1070
     0
1070
     1
1040
3.141592653589793
1040
1.0
1070
     0
1070
     1
1040
2.356194490192344
1040
3666.083880351558
1040
141.1537695163201
1040
2.245064030267287
1040
2.245064030267288
1070
     0
1071
        1
1040
3666.083880351558
1040
141.1537695163201
1040
0.0
1002
}
  0
SEQEND
  5
399
  8
0
 62
     7
  0
POLYLINE
  5
2F1
  8
回13-記事
  6
PHANTOM2
 62
     8
 66
     1
 10
0.0
 20
0.0
 30
0.0
 70
     1
1001
ACAD
1000
ASC_BOUNDS
1002
{
1070
    19
1005
2F0
1002
}
  0
VERTEX
  5
39A
  8
回13-記事
  6
PHANTOM2
 62
     8
 10
3816.77864525103
 20
115.9210789555072
 30
0.0
  0
VERTEX
  5
39C
  8
回13-記事
  6
PHANTOM2
 62
     8
 10
3816.77864525103
 20
113.9210789555072
 30
0.0
 42
0.4142135623730951
  0
VERTEX
  5
39D
  8
回13-記事
  6
PHANTOM2
 62
     8
 10
3817.77864525103
 20
112.9210789555072
 30
0.0
  0
VERTEX
  5
39E
  8
回13-記事
  6
PHANTOM2
 62
     8
 10
3841.77864525103
 20
112.9210789555072
 30
0.0
 42
0.4142135623730951
  0
VERTEX
  5
39F
  8
回13-記事
  6
PHANTOM2
 62
     8
 10
3842.77864525103
 20
113.9210789555072
 30
0.0
  0
VERTEX
  5
3A0
  8
回13-記事
  6
PHANTOM2
 62
     8
 10
3842.77864525103
 20
115.9210789555072
 30
0.0
 42
0.4142135623730951
  0
VERTEX
  5
3A1
  8
回13-記事
  6
PHANTOM2
 62
     8
 10
3841.77864525103
 20
116.9210789555072
 30
0.0
  0
VERTEX
  5
3A2
  8
回13-記事
  6
PHANTOM2
 62
     8
 10
3817.77864525103
 20
116.9210789555072
 30
0.0
 42
0.4142135623730951
  0
SEQEND
  5
39B
  8
0
 62
     7
  0
LINE
  5
2F3
  8
回10-ﾃｰﾙ
  6
CONTINUOUS
 62
     8
 10
3865.508590593717
 20
124.4580604919974
 30
0.0
 11
3865.508590593717
 21
124.8380604919971
 31
0.0
  0
ARC
  5
2F7
  8
回10-ﾃｰﾙ
  6
CONTINUOUS
 62
     8
 10
3863.508590593717
 20
124.4580604919974
 30
0.0
 40
2.0
 50
270.0
 51
0.0
  0
LINE
  5
2F8
  8
回10-ﾃｰﾙ
  6
CONTINUOUS
 62
     8
 10
3865.508590593717
 20
105.2180604919972
 30
0.0
 11
3865.508590593717
 21
104.8380604919971
 31
0.0
  0
ARC
  5
2F9
  8
回10-ﾃｰﾙ
  6
CONTINUOUS
 62
     8
 10
3863.508590593717
 20
105.2180604919972
 30
0.0
 40
2.0
 50
0.0
 51
90.0
  0
ARC
  5
2FA
  8
回10-ﾃｰﾙ
 62
     8
 10
3763.763590593717
 20
121.9580604919974
 30
0.0
 40
0.5
 50
90.0
 51
180.0
  0
ARC
  5
2FB
  8
回10-ﾃｰﾙ
 62
     8
 10
3763.763590593717
 20
107.7180604919972
 30
0.0
 40
0.5
 50
180.0
 51
270.0
  0
LINE
  5
2FC
  8
回10-ﾃｰﾙ
 62
     8
 10
3763.263590593716
 20
107.7180604919972
 30
0.0
 11
3763.263590593716
 21
121.9580604919974
 31
0.0
  0
LINE
  5
2FD
  8
回10-ﾃｰﾙ
 62
     8
 10
3863.508590593717
 20
122.4580604919974
 30
0.0
 11
3763.763590593717
 21
122.4580604919974
 31
0.0
  0
LINE
  5
2FE
  8
回10-ﾃｰﾙ
 62
     8
 10
3863.508590593717
 20
107.2180604919972
 30
0.0
 11
3763.763590593717
 21
107.2180604919972
 31
0.0
  0
LINE
  5
2FF
  8
回10-ﾃｰﾙ
  6
CONTINUOUS
 62
     8
 10
3865.508590593717
 20
124.4580604919974
 30
0.0
 11
3865.508590593717
 21
124.8380604919971
 31
0.0
  0
LINE
  5
300
  8
回12-寸法
  6
CENTER2
 62
     1
 10
4051.518590593716
 20
254.4200851551041
 30
0.0
 11
4051.518590593716
 21
-24.75778070885775
 31
0.0
  0
LINE
  5
302
  8
回12-寸法
  6
CENTER2
 62
     1
 10
4233.408590593716
 20
114.8380604919971
 30
0.0
 11
3744.247084508915
 21
114.8380604919971
 31
0.0
  0
POLYLINE
  5
303
  8
回13-記事
  6
PHANTOM2
 62
     7
 66
     1
 10
0.0
 20
0.0
 30
0.0
 70
     1
  0
VERTEX
  5
3A3
  8
回13-記事
  6
PHANTOM2
 62
     7
 10
3881.518590593716
 20
251.0380604919971
 30
0.0
  0
VERTEX
  5
3A5
  8
回13-記事
  6
PHANTOM2
 62
     7
 10
4221.518590593716
 20
251.0380604919971
 30
0.0
  0
VERTEX
  5
3A6
  8
回13-記事
  6
PHANTOM2
 62
     7
 10
4221.518590593716
 20
-21.36193950800288
 30
0.0
  0
VERTEX
  5
3A7
  8
回13-記事
  6
PHANTOM2
 62
     7
 10
3881.518590593716
 20
-21.36193950800288
 30
0.0
  0
SEQEND
  5
3A4
  8
0
 62
     7
  0
LINE
  5
304
  8
回13-記事
 62
     8
 10
3857.008590593716
 20
121.958060491997
 30
0.0
 11
3857.008590593716
 21
107.7180604919963
 31
0.0
  0
ENDSEC
  0
EOF
