  0
SECTION
  2
HEADER
  9
$ACADVER
  1
AC1009
  9
$INSBASE
 10
0.0
 20
0.0
 30
0.0
  9
$EXTMIN
 10
3895.428012087079
 20
-590.1357278432254
 30
0.0
  9
$EXTMAX
 10
4705.428012087079
 20
-40.13572784322548
 30
0.0
  9
$LIMMIN
 10
0.0
 20
0.0
  9
$LIMMAX
 10
3000.0
 20
2500.0
  9
$ORTHOMODE
 70
     0
  9
$REGENMODE
 70
     1
  9
$FILLMODE
 70
     1
  9
$QTEXTMODE
 70
     0
  9
$MIRRTEXT
 70
     1
  9
$DRAGMODE
 70
     2
  9
$LTSCALE
 40
1.0
  9
$OSMODE
 70
    37
  9
$ATTMODE
 70
     1
  9
$TEXTSIZE
 40
4.0
  9
$TRACEWID
 40
1.0
  9
$TEXTSTYLE
  7
STANDARD
  9
$CLAYER
  8
回13-記事
  9
$CELTYPE
  6
BYLAYER
  9
$CECOLOR
 62
     7
  9
$DIMSCALE
 40
1.0
  9
$DIMASZ
 40
2.0
  9
$DIMEXO
 40
0.0
  9
$DIMDLI
 40
0.0
  9
$DIMRND
 40
0.0
  9
$DIMDLE
 40
0.0
  9
$DIMEXE
 40
1.0
  9
$DIMTP
 40
0.0
  9
$DIMTM
 40
0.0
  9
$DIMTXT
 40
4.0
  9
$DIMCEN
 40
2.0
  9
$DIMTSZ
 40
0.0
  9
$DIMTOL
 70
     0
  9
$DIMLIM
 70
     0
  9
$DIMTIH
 70
     0
  9
$DIMTOH
 70
     0
  9
$DIMSE1
 70
     0
  9
$DIMSE2
 70
     0
  9
$DIMTAD
 70
     3
  9
$DIMZIN
 70
     8
  9
$DIMBLK
  1
OPEN
  9
$DIMASO
 70
     1
  9
$DIMSHO
 70
     1
  9
$DIMPOST
  1

  9
$DIMAPOST
  1

  9
$DIMALT
 70
     1
  9
$DIMALTD
 70
     3
  9
$DIMALTF
 40
0.03937007874016
  9
$DIMLFAC
 40
1.0
  9
$DIMTOFL
 70
     1
  9
$DIMTVP
 40
0.0
  9
$DIMTIX
 70
     0
  9
$DIMSOXD
 70
     0
  9
$DIMSAH
 70
     0
  9
$DIMBLK1
  1

  9
$DIMBLK2
  1

  9
$DIMSTYLE
  2
DMC
  9
$DIMCLRD
 70
     5
  9
$DIMCLRE
 70
     5
  9
$DIMCLRT
 70
     5
  9
$DIMTFAC
 40
0.7
  9
$DIMGAP
 40
0.5
  9
$LUNITS
 70
     2
  9
$LUPREC
 70
     4
  9
$SKETCHINC
 40
1.0
  9
$FILLETRAD
 40
0.5
  9
$AUNITS
 70
     0
  9
$AUPREC
 70
     0
  9
$MENU
  1
.
  9
$ELEVATION
 40
0.0
  9
$PELEVATION
 40
0.0
  9
$THICKNESS
 40
0.0
  9
$LIMCHECK
 70
     0
  9
$BLIPMODE
 70
     0
  9
$CHAMFERA
 40
2.5
  9
$CHAMFERB
 40
2.5
  9
$SKPOLY
 70
     0
  9
$TDCREATE
 40
2451810.779221065
  9
$TDUPDATE
 40
2460231.745480856
  9
$TDINDWG
 40
3.926128623
  9
$TDUSRTIMER
 40
3.926127928
  9
$USRTIMER
 70
     1
  9
$ANGBASE
 50
0.0
  9
$ANGDIR
 70
     0
  9
$PDMODE
 70
     0
  9
$PDSIZE
 40
0.0
  9
$PLINEWID
 40
0.2
  9
$COORDS
 70
     0
  9
$SPLFRAME
 70
     0
  9
$SPLINETYPE
 70
     6
  9
$SPLINESEGS
 70
     8
  9
$ATTDIA
 70
     1
  9
$ATTREQ
 70
     1
  9
$HANDLING
 70
     1
  9
$HANDSEED
  5
3F3
  9
$SURFTAB1
 70
     6
  9
$SURFTAB2
 70
     6
  9
$SURFTYPE
 70
     6
  9
$SURFU
 70
     6
  9
$SURFV
 70
     6
  9
$UCSNAME
  2

  9
$UCSORG
 10
0.0
 20
0.0
 30
0.0
  9
$UCSXDIR
 10
1.0
 20
0.0
 30
0.0
  9
$UCSYDIR
 10
0.0
 20
1.0
 30
0.0
  9
$PUCSNAME
  2

  9
$PUCSORG
 10
0.0
 20
0.0
 30
0.0
  9
$PUCSXDIR
 10
1.0
 20
0.0
 30
0.0
  9
$PUCSYDIR
 10
0.0
 20
1.0
 30
0.0
  9
$USERI1
 70
     0
  9
$USERI2
 70
     0
  9
$USERI3
 70
     0
  9
$USERI4
 70
     0
  9
$USERI5
 70
     0
  9
$USERR1
 40
0.0
  9
$USERR2
 40
0.0
  9
$USERR3
 40
0.0
  9
$USERR4
 40
0.0
  9
$USERR5
 40
0.0
  9
$WORLDVIEW
 70
     1
  9
$SHADEDGE
 70
     3
  9
$SHADEDIF
 70
    70
  9
$TILEMODE
 70
     1
  9
$MAXACTVP
 70
    64
  9
$PLIMCHECK
 70
     0
  9
$PEXTMIN
 10
1.000000000000000E+20
 20
1.000000000000000E+20
 30
1.000000000000000E+20
  9
$PEXTMAX
 10
-1.000000000000000E+20
 20
-1.000000000000000E+20
 30
-1.000000000000000E+20
  9
$PLIMMIN
 10
0.0
 20
0.0
  9
$PLIMMAX
 10
420.0
 20
297.0
  9
$UNITMODE
 70
     0
  9
$VISRETAIN
 70
     1
  9
$PLINEGEN
 70
     0
  9
$PSLTSCALE
 70
     1
  0
ENDSEC
  0
SECTION
  2
TABLES
  0
TABLE
  2
VPORT
 70
     1
  0
VPORT
  2
*ACTIVE
 70
     0
 10
0.0
 20
0.0
 11
1.0
 21
1.0
 12
4278.626345552098
 22
-375.0043058703921
 13
0.0
 23
0.0
 14
10.0
 24
10.0
 15
10.0
 25
10.0
 16
0.0
 26
0.0
 36
1.0
 17
0.0
 27
0.0
 37
0.0
 40
886.2559075094413
 41
1.853689567430025
 42
50.0
 43
0.0
 44
0.0
 50
0.0
 51
0.0
 71
     0
 72
  2000
 73
     1
 74
     1
 75
     0
 76
     0
 77
     0
 78
     0
  0
ENDTAB
  0
TABLE
  2
LTYPE
 70
     4
  0
LTYPE
  2
CONTINUOUS
 70
     0
  3
Solid line
 72
    65
 73
     0
 40
0.0
  0
LTYPE
  2
DASHED2
 70
     0
  3
Dashed (.5x) _ _ _ _ _ _ _ _ _ _ _ _ _ _ _ _ _
 72
    65
 73
     2
 40
9.524999999999998
 49
6.349999999999999
 49
-3.174999999999999
  0
LTYPE
  2
PHANTOM2
 70
     0
  3
Phantom (.5x) ___ _ _ ___ _ _ ___ _ _ ___ _ _
 72
    65
 73
     6
 40
31.75
 49
15.875
 49
-3.174999999999999
 49
3.174999999999999
 49
-3.174999999999999
 49
3.174999999999999
 49
-3.174999999999999
  0
LTYPE
  2
CENTER2
 70
     0
  3
Center (.5x) ___ _ ___ _ ___ _ ___ _ ___ _ ___
 72
    65
 73
     4
 40
28.575
 49
19.05
 49
-3.174999999999999
 49
3.174999999999999
 49
-3.174999999999999
  0
ENDTAB
  0
TABLE
  2
LAYER
 70
     9
  0
LAYER
  2
0
 70
     0
 62
     7
  6
CONTINUOUS
  0
LAYER
  2
DEFPOINTS
 70
     0
 62
     7
  6
CONTINUOUS
  0
LAYER
  2
回12-寸法
 70
     0
 62
     7
  6
CONTINUOUS
  0
LAYER
  2
回10-ﾃｰﾙ
 70
     0
 62
     7
  6
CONTINUOUS
  0
LAYER
  2
回13-記事
 70
     0
 62
     7
  6
CONTINUOUS
  0
LAYER
  2
回08-GPDL
 70
     0
 62
     7
  6
CONTINUOUS
  0
LAYER
  2
回02-G外
 70
     0
 62
     7
  6
CONTINUOUS
  0
LAYER
  2
回91-枠英1
 70
     0
 62
     7
  6
CONTINUOUS
  0
LAYER
  2
回03-記事
 70
     0
 62
     7
  6
CONTINUOUS
  0
ENDTAB
  0
TABLE
  2
STYLE
 70
     1
  0
STYLE
  2
STANDARD
 70
     0
 40
4.0
 41
1.0
 50
0.0
 71
     0
 42
4.0
  3
isocp.shx
  4
bigfont.shx
  0
ENDTAB
  0
TABLE
  2
VIEW
 70
     0
  0
ENDTAB
  0
TABLE
  2
UCS
 70
     0
  0
ENDTAB
  0
TABLE
  2
APPID
 70
     2
  0
APPID
  2
ACAD
 70
     0
  0
APPID
  2
ACAD_PSEXT
 70
     0
  0
ENDTAB
  0
TABLE
  2
DIMSTYLE
 70
     1
  0
DIMSTYLE
  2
DMC
 70
     0
  3

  4

  5
OPEN
  6

  7

 40
1.0
 41
2.0
 42
0.0
 43
0.0
 44
1.0
 45
0.0
 46
0.0
 47
0.0
 48
0.0
140
3.0
141
2.0
142
0.0
143
0.03937007874016
144
1.0
145
0.0
146
0.7
147
0.5
 71
     0
 72
     0
 73
     0
 74
     0
 75
     0
 76
     0
 77
     3
 78
     8
170
     0
171
     3
172
     1
173
     0
174
     0
175
     0
176
     5
177
     5
178
     5
  0
ENDTAB
  0
ENDSEC
  0
SECTION
  2
BLOCKS
  0
BLOCK
  8
0
  2
$MODEL_SPACE
 70
     0
 10
0.0
 20
0.0
 30
0.0
  3
$MODEL_SPACE
  1

  0
ENDBLK
  8
0
  5
23
  0
BLOCK
 67
     1
  8
0
  2
$PAPER_SPACE
 70
     0
 10
0.0
 20
0.0
 30
0.0
  3
$PAPER_SPACE
  1

  0
ENDBLK
  5
2C
 67
     1
  8
0
  0
BLOCK
  8
0
  2
_OPEN
 70
     0
 10
0.0
 20
0.0
 30
0.0
  3
_OPEN
  1

  0
LINE
  5
16
  8
0
  6
CONTINUOUS
 62
     0
 10
-1.0
 20
0.1666666666666666
 30
0.0
 11
0.0
 21
0.0
 31
0.0
  0
LINE
  5
17
  8
0
  6
CONTINUOUS
 62
     0
 10
-1.0
 20
-0.1666666666666666
 30
0.0
 11
0.0
 21
0.0
 31
0.0
  0
LINE
  5
18
  8
0
  6
CONTINUOUS
 62
     0
 10
0.0
 20
0.0
 30
0.0
 11
-1.0
 21
0.0
 31
0.0
  0
ENDBLK
  5
19
  8
0
  0
BLOCK
  8
0
  2
*D1
 70
     1
 10
0.0
 20
0.0
 30
0.0
  3
*D1
  1

  0
LINE
  5
219
  8
回12-寸法
 62
     5
 10
4076.473271002401
 20
-136.0158273776608
 30
0.0
 11
4076.473271002401
 21
-88.78343238635158
 31
0.0
  0
LINE
  5
21A
  8
回12-寸法
 62
     5
 10
4061.063271002402
 20
-127.2258273776607
 30
0.0
 11
4061.063271002402
 21
-88.78343238635158
 31
0.0
  0
LINE
  5
21B
  8
回12-寸法
 62
     5
 10
4078.473271002401
 20
-89.7834323863516
 30
0.0
 11
4080.473271002402
 21
-89.7834323863516
 31
0.0
  0
LINE
  5
21C
  8
回12-寸法
 62
     5
 10
4059.063271002401
 20
-89.7834323863516
 30
0.0
 11
4024.866420608701
 21
-89.7834323863516
 31
0.0
  0
LINE
  5
21D
  8
回12-寸法
 62
     5
 10
4076.473271002401
 20
-89.7834323863516
 30
0.0
 11
4061.063271002402
 21
-89.7834323863516
 31
0.0
  0
INSERT
  5
21E
  8
回12-寸法
 62
     5
  2
_OPEN
 10
4076.473271002401
 20
-89.7834323863516
 30
0.0
 41
2.0
 42
2.0
 43
2.0
 50
180.0
  0
INSERT
  5
21F
  8
回12-寸法
 62
     5
  2
_OPEN
 10
4061.063271002402
 20
-89.7834323863516
 30
0.0
 41
2.0
 42
2.0
 43
2.0
  0
TEXT
  5
220
  8
回12-寸法
 62
     5
 10
4024.764845805552
 20
-89.08343238635159
 30
0.0
 40
4.0
  1
(15.41 [0.607])
1001
ACAD
1000
MTEXTBEGIN
1070
    73
1070
     1
1070
    44
1040
1.0
1070
    74
1070
     0
1000
MTEXTEND
  0
POINT
  5
221
  8
DEFPOINTS
 62
     0
 10
4076.473271002401
 20
-136.0158273776608
 30
0.0
  0
POINT
  5
222
  8
DEFPOINTS
 62
     0
 10
4061.063271002402
 20
-127.2258273776607
 30
0.0
  0
POINT
  5
223
  8
DEFPOINTS
 62
     0
 10
4061.063271002402
 20
-89.7834323863516
 30
0.0
  0
ENDBLK
  5
224
  8
0
 62
     7
  0
BLOCK
  8
0
  2
*D2
 70
     1
 10
0.0
 20
0.0
 30
0.0
  3
*D2
  1

  0
LINE
  5
20A
  8
回12-寸法
 62
     5
 10
4077.573271002401
 20
-137.1158273776608
 30
0.0
 11
4077.573271002401
 21
-101.0820120381876
 31
0.0
  0
LINE
  5
20B
  8
回12-寸法
 62
     5
 10
4061.063271002402
 20
-127.2258273776607
 30
0.0
 11
4061.063271002402
 21
-101.0820120381876
 31
0.0
  0
LINE
  5
20C
  8
回12-寸法
 62
     5
 10
4079.573271002401
 20
-102.0820120381876
 30
0.0
 11
4081.573271002401
 21
-102.0820120381876
 31
0.0
  0
LINE
  5
20D
  8
回12-寸法
 62
     5
 10
4059.063271002401
 20
-102.0820120381876
 30
0.0
 11
4025.2664206087
 21
-102.0820120381876
 31
0.0
  0
LINE
  5
20E
  8
回12-寸法
 62
     5
 10
4077.573271002401
 20
-102.0820120381876
 30
0.0
 11
4061.063271002402
 21
-102.0820120381876
 31
0.0
  0
INSERT
  5
20F
  8
回12-寸法
 62
     5
  2
_OPEN
 10
4077.573271002401
 20
-102.0820120381876
 30
0.0
 41
2.0
 42
2.0
 43
2.0
 50
180.0
  0
INSERT
  5
210
  8
回12-寸法
 62
     5
  2
_OPEN
 10
4061.063271002402
 20
-102.0820120381876
 30
0.0
 41
2.0
 42
2.0
 43
2.0
  0
TEXT
  5
211
  8
回12-寸法
 62
     5
 10
4025.164845805551
 20
-101.3820120381876
 30
0.0
 40
4.0
  1
(16.51 [0.650])
1001
ACAD
1000
MTEXTBEGIN
1070
    73
1070
     1
1070
    44
1040
1.0
1070
    74
1070
     0
1000
MTEXTEND
  0
POINT
  5
212
  8
DEFPOINTS
 62
     0
 10
4077.573271002401
 20
-137.1158273776608
 30
0.0
  0
POINT
  5
213
  8
DEFPOINTS
 62
     0
 10
4061.063271002402
 20
-127.2258273776607
 30
0.0
  0
POINT
  5
214
  8
DEFPOINTS
 62
     0
 10
4061.063271002402
 20
-102.0820120381876
 30
0.0
  0
ENDBLK
  5
215
  8
0
 62
     7
  0
BLOCK
  8
0
  2
*D3
 70
     1
 10
0.0
 20
0.0
 30
0.0
  3
*D3
  1

  0
LINE
  5
1FD
  8
回12-寸法
 62
     5
 10
4061.063271002402
 20
-127.2258273776607
 30
0.0
 11
4061.063271002402
 21
-76.56700993709444
 31
0.0
  0
LINE
  5
1FE
  8
回12-寸法
 62
     5
 10
4467.343271002401
 20
-127.2258273776607
 30
0.0
 11
4467.343271002401
 21
-76.56700993709444
 31
0.0
  0
LINE
  5
1FF
  8
回12-寸法
 62
     5
 10
4063.063271002402
 20
-77.56700993709443
 30
0.0
 11
4465.343271002402
 21
-77.56700993709443
 31
0.0
  0
INSERT
  5
200
  8
回12-寸法
 62
     5
  2
_OPEN
 10
4061.063271002402
 20
-77.56700993709443
 30
0.0
 41
2.0
 42
2.0
 43
2.0
 50
180.0
  0
INSERT
  5
201
  8
回12-寸法
 62
     5
  2
_OPEN
 10
4467.343271002401
 20
-77.56700993709443
 30
0.0
 41
2.0
 42
2.0
 43
2.0
  0
INSERT
  5
202
  8
回12-寸法
 62
     5
 66
     1
  2
*X31
 10
0.0
 20
0.0
 30
0.0
  0
SEQEND
  5
3C2
  8
回13-記事
 62
     7
  0
POINT
  5
203
  8
DEFPOINTS
 62
     0
 10
4061.063271002402
 20
-127.2258273776607
 30
0.0
  0
POINT
  5
204
  8
DEFPOINTS
 62
     0
 10
4467.343271002401
 20
-127.2258273776607
 30
0.0
  0
POINT
  5
205
  8
DEFPOINTS
 62
     0
 10
4467.343271002401
 20
-77.56700993709443
 30
0.0
  0
ENDBLK
  5
206
  8
0
 62
     7
  0
BLOCK
  8
0
  2
*D4
 70
     1
 10
0.0
 20
0.0
 30
0.0
  3
*D4
  1

  0
LINE
  5
1F0
  8
回12-寸法
 62
     5
 10
4459.553271002401
 20
-136.0158273776608
 30
0.0
 11
4459.553271002401
 21
-88.78343238635158
 31
0.0
  0
LINE
  5
1F1
  8
回12-寸法
 62
     5
 10
4076.473271002401
 20
-136.0158273776608
 30
0.0
 11
4076.473271002401
 21
-88.78343238635158
 31
0.0
  0
LINE
  5
1F2
  8
回12-寸法
 62
     5
 10
4457.553271002402
 20
-89.7834323863516
 30
0.0
 11
4078.473271002401
 21
-89.7834323863516
 31
0.0
  0
INSERT
  5
1F3
  8
回12-寸法
 62
     5
  2
_OPEN
 10
4459.553271002401
 20
-89.7834323863516
 30
0.0
 41
2.0
 42
2.0
 43
2.0
  0
INSERT
  5
1F4
  8
回12-寸法
 62
     5
  2
_OPEN
 10
4076.473271002401
 20
-89.7834323863516
 30
0.0
 41
2.0
 42
2.0
 43
2.0
 50
180.0
  0
TEXT
  5
1F5
  8
回12-寸法
 62
     5
 10
4250.413271002401
 20
-89.08343238635159
 30
0.0
 40
4.0
  1
383.08 [15.082]
1001
ACAD
1000
MTEXTBEGIN
1070
    73
1070
     1
1070
    44
1040
1.0
1070
    74
1070
     0
1000
MTEXTEND
  0
POINT
  5
1F6
  8
DEFPOINTS
 62
     0
 10
4459.553271002401
 20
-136.0158273776608
 30
0.0
  0
POINT
  5
1F7
  8
DEFPOINTS
 62
     0
 10
4076.473271002401
 20
-136.0158273776608
 30
0.0
  0
POINT
  5
1F8
  8
DEFPOINTS
 62
     0
 10
4076.473271002401
 20
-89.7834323863516
 30
0.0
  0
ENDBLK
  5
1F9
  8
0
 62
     7
  0
BLOCK
  8
0
  2
*D5
 70
     1
 10
0.0
 20
0.0
 30
0.0
  3
*D5
  1

  0
LINE
  5
1E3
  8
回12-寸法
 62
     5
 10
4077.573271002401
 20
-137.1158273776608
 30
0.0
 11
4077.573271002401
 21
-101.0820120381876
 31
0.0
  0
LINE
  5
1E4
  8
回12-寸法
 62
     5
 10
4458.453271002401
 20
-137.1158273776608
 30
0.0
 11
4458.453271002401
 21
-101.0820120381876
 31
0.0
  0
LINE
  5
1E5
  8
回12-寸法
 62
     5
 10
4079.573271002401
 20
-102.0820120381876
 30
0.0
 11
4456.453271002401
 21
-102.0820120381876
 31
0.0
  0
INSERT
  5
1E6
  8
回12-寸法
 62
     5
  2
_OPEN
 10
4077.573271002401
 20
-102.0820120381876
 30
0.0
 41
2.0
 42
2.0
 43
2.0
 50
180.0
  0
INSERT
  5
1E7
  8
回12-寸法
 62
     5
  2
_OPEN
 10
4458.453271002401
 20
-102.0820120381876
 30
0.0
 41
2.0
 42
2.0
 43
2.0
  0
TEXT
  5
1E8
  8
回12-寸法
 62
     5
 10
4230.999616929868
 20
-101.3821717877937
 30
0.0
 40
4.0
  1
380.88 [14.995] (ACTIVE AREA)
1001
ACAD
1000
MTEXTBEGIN
1070
    73
1070
     1
1070
    44
1040
1.0
1070
    74
1070
     0
1000
MTEXTEND
  0
POINT
  5
1E9
  8
DEFPOINTS
 62
     0
 10
4077.573271002401
 20
-137.1158273776608
 30
0.0
  0
POINT
  5
1EA
  8
DEFPOINTS
 62
     0
 10
4458.453271002401
 20
-137.1158273776608
 30
0.0
  0
POINT
  5
1EB
  8
DEFPOINTS
 62
     0
 10
4458.453271002401
 20
-102.0820120381876
 30
0.0
  0
ENDBLK
  5
1EC
  8
0
 62
     7
  0
BLOCK
  8
0
  2
*D6
 70
     1
 10
0.0
 20
0.0
 30
0.0
  3
*D6
  1

  0
LINE
  5
1D4
  8
回12-寸法
 62
     5
 10
4458.453271002401
 20
-137.1158273776608
 30
0.0
 11
4458.453271002401
 21
-101.0820120381876
 31
0.0
  0
LINE
  5
1D5
  8
回12-寸法
 62
     5
 10
4467.343271002401
 20
-127.2258273776607
 30
0.0
 11
4467.343271002401
 21
-101.0820120381876
 31
0.0
  0
LINE
  5
1D6
  8
回12-寸法
 62
     5
 10
4456.453271002401
 20
-102.0820120381876
 30
0.0
 11
4454.453271002401
 21
-102.0820120381876
 31
0.0
  0
LINE
  5
1D7
  8
回12-寸法
 62
     5
 10
4469.343271002402
 20
-102.0820120381876
 30
0.0
 11
4498.757248324379
 21
-102.0820120381876
 31
0.0
  0
LINE
  5
1D8
  8
回12-寸法
 62
     5
 10
4458.453271002401
 20
-102.0820120381876
 30
0.0
 11
4467.343271002401
 21
-102.0820120381876
 31
0.0
  0
INSERT
  5
1D9
  8
回12-寸法
 62
     5
  2
_OPEN
 10
4458.453271002401
 20
-102.0820120381876
 30
0.0
 41
2.0
 42
2.0
 43
2.0
  0
INSERT
  5
1DA
  8
回12-寸法
 62
     5
  2
_OPEN
 10
4467.343271002401
 20
-102.0820120381876
 30
0.0
 41
2.0
 42
2.0
 43
2.0
 50
180.0
  0
TEXT
  5
1DB
  8
回12-寸法
 62
     5
 10
4471.243038926337
 20
-101.3820120381876
 30
0.0
 40
4.0
  1
8.89 [0.350]
1001
ACAD
1000
MTEXTBEGIN
1070
    73
1070
     1
1070
    44
1040
1.0
1070
    74
1070
     0
1000
MTEXTEND
  0
POINT
  5
1DC
  8
DEFPOINTS
 62
     0
 10
4458.453271002401
 20
-137.1158273776608
 30
0.0
  0
POINT
  5
1DD
  8
DEFPOINTS
 62
     0
 10
4467.343271002401
 20
-127.2258273776607
 30
0.0
  0
POINT
  5
1DE
  8
DEFPOINTS
 62
     0
 10
4467.343271002401
 20
-102.0820120381876
 30
0.0
  0
ENDBLK
  5
1DF
  8
0
 62
     7
  0
BLOCK
  8
0
  2
*D7
 70
     1
 10
0.0
 20
0.0
 30
0.0
  3
*D7
  1

  0
LINE
  5
1C5
  8
回12-寸法
 62
     5
 10
4459.553271002401
 20
-136.0158273776608
 30
0.0
 11
4459.553271002401
 21
-88.78343238635158
 31
0.0
  0
LINE
  5
1C6
  8
回12-寸法
 62
     5
 10
4467.343271002401
 20
-127.2258273776607
 30
0.0
 11
4467.343271002401
 21
-88.78343238635158
 31
0.0
  0
LINE
  5
1C7
  8
回12-寸法
 62
     5
 10
4457.553271002402
 20
-89.7834323863516
 30
0.0
 11
4455.553271002401
 21
-89.7834323863516
 31
0.0
  0
LINE
  5
1C8
  8
回12-寸法
 62
     5
 10
4469.343271002402
 20
-89.7834323863516
 30
0.0
 11
4498.757248324379
 21
-89.7834323863516
 31
0.0
  0
LINE
  5
1C9
  8
回12-寸法
 62
     5
 10
4459.553271002401
 20
-89.7834323863516
 30
0.0
 11
4467.343271002401
 21
-89.7834323863516
 31
0.0
  0
INSERT
  5
1CA
  8
回12-寸法
 62
     5
  2
_OPEN
 10
4459.553271002401
 20
-89.7834323863516
 30
0.0
 41
2.0
 42
2.0
 43
2.0
  0
INSERT
  5
1CB
  8
回12-寸法
 62
     5
  2
_OPEN
 10
4467.343271002401
 20
-89.7834323863516
 30
0.0
 41
2.0
 42
2.0
 43
2.0
 50
180.0
  0
TEXT
  5
1CC
  8
回12-寸法
 62
     5
 10
4471.243038926337
 20
-89.08343238635159
 30
0.0
 40
4.0
  1
7.79 [0.307]
1001
ACAD
1000
MTEXTBEGIN
1070
    73
1070
     1
1070
    44
1040
1.0
1070
    74
1070
     0
1000
MTEXTEND
  0
POINT
  5
1CD
  8
DEFPOINTS
 62
     0
 10
4459.553271002401
 20
-136.0158273776608
 30
0.0
  0
POINT
  5
1CE
  8
DEFPOINTS
 62
     0
 10
4467.343271002401
 20
-127.2258273776607
 30
0.0
  0
POINT
  5
1CF
  8
DEFPOINTS
 62
     0
 10
4467.343271002401
 20
-89.7834323863516
 30
0.0
  0
ENDBLK
  5
1D0
  8
0
 62
     7
  0
BLOCK
  8
0
  2
*D8
 70
     1
 10
0.0
 20
0.0
 30
0.0
  3
*D8
  1

  0
LINE
  5
1B6
  8
回12-寸法
 62
     5
 10
4459.553271002401
 20
-136.0158273776608
 30
0.0
 11
4519.099369766636
 21
-136.0158273776608
 31
0.0
  0
LINE
  5
1B7
  8
回12-寸法
 62
     5
 10
4467.343271002401
 20
-127.2258273776607
 30
0.0
 11
4519.099369766636
 21
-127.2258273776607
 31
0.0
  0
LINE
  5
1B8
  8
回12-寸法
 62
     5
 10
4518.099369766637
 20
-138.0158273776608
 30
0.0
 11
4518.099369766637
 21
-140.0158273776608
 31
0.0
  0
LINE
  5
1B9
  8
回12-寸法
 62
     5
 10
4518.099369766637
 20
-125.2258273776607
 30
0.0
 11
4518.099369766637
 21
-95.41185005568364
 31
0.0
  0
LINE
  5
1BA
  8
回12-寸法
 62
     5
 10
4518.099369766637
 20
-136.0158273776608
 30
0.0
 11
4518.099369766637
 21
-127.2258273776607
 31
0.0
  0
INSERT
  5
1BB
  8
回12-寸法
 62
     5
  2
_OPEN
 10
4518.099369766637
 20
-136.0158273776608
 30
0.0
 41
2.0
 42
2.0
 43
2.0
 50
90.0
  0
INSERT
  5
1BC
  8
回12-寸法
 62
     5
  2
_OPEN
 10
4518.099369766637
 20
-127.2258273776607
 30
0.0
 41
2.0
 42
2.0
 43
2.0
 50
270.0
  0
TEXT
  5
1BD
  8
回12-寸法
 62
     5
 10
4517.399369766637
 20
-123.3260594537251
 30
0.0
 40
4.0
  1
8.79 [0.346]
 50
90.0
1001
ACAD
1000
MTEXTBEGIN
1070
    73
1070
     1
1070
    44
1040
1.0
1070
    74
1070
     0
1000
MTEXTEND
  0
POINT
  5
1BE
  8
DEFPOINTS
 62
     0
 10
4459.553271002401
 20
-136.0158273776608
 30
0.0
  0
POINT
  5
1BF
  8
DEFPOINTS
 62
     0
 10
4467.343271002401
 20
-127.2258273776607
 30
0.0
  0
POINT
  5
1C0
  8
DEFPOINTS
 62
     0
 10
4518.099369766637
 20
-127.2258273776607
 30
0.0
  0
ENDBLK
  5
1C1
  8
0
 62
     7
  0
BLOCK
  8
0
  2
*D9
 70
     1
 10
0.0
 20
0.0
 30
0.0
  3
*D9
  1

  0
LINE
  5
1A7
  8
回12-寸法
 62
     5
 10
4458.453271002401
 20
-137.1158273776608
 30
0.0
 11
4511.045630163283
 21
-137.1158273776608
 31
0.0
  0
LINE
  5
1A8
  8
回12-寸法
 62
     5
 10
4467.343271002401
 20
-127.2258273776607
 30
0.0
 11
4511.045630163283
 21
-127.2258273776607
 31
0.0
  0
LINE
  5
1A9
  8
回12-寸法
 62
     5
 10
4510.045630163284
 20
-139.1158273776608
 30
0.0
 11
4510.045630163284
 21
-141.1158273776608
 31
0.0
  0
LINE
  5
1AA
  8
回12-寸法
 62
     5
 10
4510.045630163284
 20
-125.2258273776607
 30
0.0
 11
4510.045630163284
 21
-95.6321873087573
 31
0.0
  0
LINE
  5
1AB
  8
回12-寸法
 62
     5
 10
4510.045630163284
 20
-137.1158273776608
 30
0.0
 11
4510.045630163284
 21
-127.2258273776607
 31
0.0
  0
INSERT
  5
1AC
  8
回12-寸法
 62
     5
  2
_OPEN
 10
4510.045630163284
 20
-137.1158273776608
 30
0.0
 41
2.0
 42
2.0
 43
2.0
 50
90.0
  0
INSERT
  5
1AD
  8
回12-寸法
 62
     5
  2
_OPEN
 10
4510.045630163284
 20
-127.2258273776607
 30
0.0
 41
2.0
 42
2.0
 43
2.0
 50
270.0
  0
TEXT
  5
1AE
  8
回12-寸法
 62
     5
 10
4509.345710038087
 20
-123.2578902914238
 30
0.0
 40
4.0
  1
9.89 [0.389]
 50
90.0
1001
ACAD
1000
MTEXTBEGIN
1070
    73
1070
     1
1070
    44
1040
1.0
1070
    74
1070
     0
1000
MTEXTEND
  0
POINT
  5
1AF
  8
DEFPOINTS
 62
     0
 10
4458.453271002401
 20
-137.1158273776608
 30
0.0
  0
POINT
  5
1B0
  8
DEFPOINTS
 62
     0
 10
4467.343271002401
 20
-127.2258273776607
 30
0.0
  0
POINT
  5
1B1
  8
DEFPOINTS
 62
     0
 10
4510.045630163284
 20
-127.2258273776607
 30
0.0
  0
ENDBLK
  5
1B2
  8
0
 62
     7
  0
BLOCK
  8
0
  2
*D10
 70
     1
 10
0.0
 20
0.0
 30
0.0
  3
*D10
  1

  0
LINE
  5
19A
  8
回12-寸法
 62
     5
 10
4458.453271002401
 20
-137.1158273776608
 30
0.0
 11
4511.045630163283
 21
-137.1158273776608
 31
0.0
  0
LINE
  5
19B
  8
回12-寸法
 62
     5
 10
4458.453271002401
 20
-442.7358273776609
 30
0.0
 11
4511.045630163283
 21
-442.7358273776609
 31
0.0
  0
LINE
  5
19C
  8
回12-寸法
 62
     5
 10
4510.045630163284
 20
-139.1158273776608
 30
0.0
 11
4510.045630163284
 21
-440.7358273776609
 31
0.0
  0
INSERT
  5
19D
  8
回12-寸法
 62
     5
  2
_OPEN
 10
4510.045630163284
 20
-137.1158273776608
 30
0.0
 41
2.0
 42
2.0
 43
2.0
 50
90.0
  0
INSERT
  5
19E
  8
回12-寸法
 62
     5
  2
_OPEN
 10
4510.045630163284
 20
-442.735827377661
 30
0.0
 41
2.0
 42
2.0
 43
2.0
 50
270.0
  0
TEXT
  5
19F
  8
回12-寸法
 62
     5
 10
4509.345630163283
 20
-326.725039976086
 30
0.0
 40
4.0
  1
305.62 [12.032] (ACTIVE AREA)
 50
90.0
1001
ACAD
1000
MTEXTBEGIN
1070
    73
1070
     1
1070
    44
1040
1.0
1070
    74
1070
     0
1000
MTEXTEND
  0
POINT
  5
1A0
  8
DEFPOINTS
 62
     0
 10
4458.453271002401
 20
-137.1158273776608
 30
0.0
  0
POINT
  5
1A1
  8
DEFPOINTS
 62
     0
 10
4458.453271002401
 20
-442.7358273776609
 30
0.0
  0
POINT
  5
1A2
  8
DEFPOINTS
 62
     0
 10
4510.045630163284
 20
-442.735827377661
 30
0.0
  0
ENDBLK
  5
1A3
  8
0
 62
     7
  0
BLOCK
  8
0
  2
*D11
 70
     1
 10
0.0
 20
0.0
 30
0.0
  3
*D11
  1

  0
LINE
  5
18B
  8
回12-寸法
 62
     5
 10
4458.453271002401
 20
-442.7358273776609
 30
0.0
 11
4511.045630163283
 21
-442.7358273776609
 31
0.0
  0
LINE
  5
18C
  8
回12-寸法
 62
     5
 10
4467.343271002401
 20
-452.6258273776608
 30
0.0
 11
4511.045630163283
 21
-452.6258273776608
 31
0.0
  0
LINE
  5
18D
  8
回12-寸法
 62
     5
 10
4510.045630163284
 20
-440.7358273776609
 30
0.0
 11
4510.045630163284
 21
-438.735827377661
 31
0.0
  0
LINE
  5
18E
  8
回12-寸法
 62
     5
 10
4510.045630163284
 20
-454.6258273776609
 30
0.0
 11
4510.045630163284
 21
-487.264609737293
 31
0.0
  0
LINE
  5
18F
  8
回12-寸法
 62
     5
 10
4510.045630163284
 20
-442.735827377661
 30
0.0
 11
4510.045630163284
 21
-452.6258273776609
 31
0.0
  0
INSERT
  5
190
  8
回12-寸法
 62
     5
  2
_OPEN
 10
4510.045630163284
 20
-442.735827377661
 30
0.0
 41
2.0
 42
2.0
 43
2.0
 50
270.0
  0
INSERT
  5
191
  8
回12-寸法
 62
     5
  2
_OPEN
 10
4510.045630163284
 20
-452.6258273776609
 30
0.0
 41
2.0
 42
2.0
 43
2.0
 50
90.0
  0
TEXT
  5
192
  8
回12-寸法
 62
     5
 10
4509.343776602008
 20
-487.3668807686381
 30
0.0
 40
4.0
  1
(9.89 [0.389])
 50
90.0
1001
ACAD
1000
MTEXTBEGIN
1070
    73
1070
     1
1070
    44
1040
1.0
1070
    74
1070
     0
1000
MTEXTEND
  0
POINT
  5
193
  8
DEFPOINTS
 62
     0
 10
4458.453271002401
 20
-442.7358273776609
 30
0.0
  0
POINT
  5
194
  8
DEFPOINTS
 62
     0
 10
4467.343271002401
 20
-452.6258273776608
 30
0.0
  0
POINT
  5
195
  8
DEFPOINTS
 62
     0
 10
4510.045630163284
 20
-452.6258273776609
 30
0.0
  0
ENDBLK
  5
196
  8
0
 62
     7
  0
BLOCK
  8
0
  2
*D12
 70
     1
 10
0.0
 20
0.0
 30
0.0
  3
*D12
  1

  0
LINE
  5
17E
  8
回12-寸法
 62
     5
 10
4459.553271002401
 20
-136.0158273776608
 30
0.0
 11
4519.099369766636
 21
-136.0158273776608
 31
0.0
  0
LINE
  5
17F
  8
回12-寸法
 62
     5
 10
4459.553271002401
 20
-443.8358273776609
 30
0.0
 11
4519.099369766636
 21
-443.8358273776609
 31
0.0
  0
LINE
  5
180
  8
回12-寸法
 62
     5
 10
4518.099369766637
 20
-138.0158273776608
 30
0.0
 11
4518.099369766637
 21
-441.835827377661
 31
0.0
  0
INSERT
  5
181
  8
回12-寸法
 62
     5
  2
_OPEN
 10
4518.099369766637
 20
-136.0158273776608
 30
0.0
 41
2.0
 42
2.0
 43
2.0
 50
90.0
  0
INSERT
  5
182
  8
回12-寸法
 62
     5
  2
_OPEN
 10
4518.099369766637
 20
-443.835827377661
 30
0.0
 41
2.0
 42
2.0
 43
2.0
 50
270.0
  0
TEXT
  5
183
  8
回12-寸法
 62
     5
 10
4517.39944964144
 20
-306.7330481147146
 30
0.0
 40
4.0
  1
307.82 [12.119]
 50
90.0
1001
ACAD
1000
MTEXTBEGIN
1070
    73
1070
     1
1070
    44
1040
1.0
1070
    74
1070
     0
1000
MTEXTEND
  0
POINT
  5
184
  8
DEFPOINTS
 62
     0
 10
4459.553271002401
 20
-136.0158273776608
 30
0.0
  0
POINT
  5
185
  8
DEFPOINTS
 62
     0
 10
4459.553271002401
 20
-443.8358273776609
 30
0.0
  0
POINT
  5
186
  8
DEFPOINTS
 62
     0
 10
4518.099369766637
 20
-443.835827377661
 30
0.0
  0
ENDBLK
  5
187
  8
0
 62
     7
  0
BLOCK
  8
0
  2
*D13
 70
     1
 10
0.0
 20
0.0
 30
0.0
  3
*D13
  1

  0
LINE
  5
16F
  8
回12-寸法
 62
     5
 10
4459.553271002401
 20
-443.8358273776609
 30
0.0
 11
4519.099369766636
 21
-443.8358273776609
 31
0.0
  0
LINE
  5
170
  8
回12-寸法
 62
     5
 10
4467.343271002401
 20
-452.6258273776608
 30
0.0
 11
4519.099369766636
 21
-452.6258273776608
 31
0.0
  0
LINE
  5
171
  8
回12-寸法
 62
     5
 10
4518.099369766637
 20
-441.835827377661
 30
0.0
 11
4518.099369766637
 21
-439.835827377661
 31
0.0
  0
LINE
  5
172
  8
回12-寸法
 62
     5
 10
4518.099369766637
 20
-454.6258273776609
 30
0.0
 11
4518.099369766637
 21
-487.6366550933387
 31
0.0
  0
LINE
  5
173
  8
回12-寸法
 62
     5
 10
4518.099369766637
 20
-443.835827377661
 30
0.0
 11
4518.099369766637
 21
-452.6258273776609
 31
0.0
  0
INSERT
  5
174
  8
回12-寸法
 62
     5
  2
_OPEN
 10
4518.099369766637
 20
-443.835827377661
 30
0.0
 41
2.0
 42
2.0
 43
2.0
 50
270.0
  0
INSERT
  5
175
  8
回12-寸法
 62
     5
  2
_OPEN
 10
4518.099369766637
 20
-452.6258273776609
 30
0.0
 41
2.0
 42
2.0
 43
2.0
 50
90.0
  0
TEXT
  5
176
  8
回12-寸法
 62
     5
 10
4517.398403048598
 20
-487.7384619725526
 30
0.0
 40
4.0
  1
(8.79 [0.346])
 50
90.0
1001
ACAD
1000
MTEXTBEGIN
1070
    73
1070
     1
1070
    44
1040
1.0
1070
    74
1070
     0
1000
MTEXTEND
  0
POINT
  5
177
  8
DEFPOINTS
 62
     0
 10
4459.553271002401
 20
-443.8358273776609
 30
0.0
  0
POINT
  5
178
  8
DEFPOINTS
 62
     0
 10
4467.343271002401
 20
-452.6258273776608
 30
0.0
  0
POINT
  5
179
  8
DEFPOINTS
 62
     0
 10
4518.099369766637
 20
-452.6258273776609
 30
0.0
  0
ENDBLK
  5
17A
  8
0
 62
     7
  0
BLOCK
  8
0
  2
*D14
 70
     1
 10
0.0
 20
0.0
 30
0.0
  3
*D14
  1

  0
LINE
  5
162
  8
回12-寸法
 62
     5
 10
4467.343271002401
 20
-452.6258273776608
 30
0.0
 11
4528.524961311631
 21
-452.6258273776608
 31
0.0
  0
LINE
  5
163
  8
回12-寸法
 62
     5
 10
4467.343271002401
 20
-127.2258273776607
 30
0.0
 11
4528.524961311631
 21
-127.2258273776607
 31
0.0
  0
LINE
  5
164
  8
回12-寸法
 62
     5
 10
4527.524961311629
 20
-450.6258273776609
 30
0.0
 11
4527.524961311629
 21
-129.2258273776607
 31
0.0
  0
INSERT
  5
165
  8
回12-寸法
 62
     5
  2
_OPEN
 10
4527.524961311629
 20
-452.6258273776609
 30
0.0
 41
2.0
 42
2.0
 43
2.0
 50
270.0
  0
INSERT
  5
166
  8
回12-寸法
 62
     5
  2
_OPEN
 10
4527.524961311629
 20
-127.2258273776607
 30
0.0
 41
2.0
 42
2.0
 43
2.0
 50
90.0
  0
INSERT
  5
167
  8
回12-寸法
 62
     5
 66
     1
  2
*X32
 10
0.0
 20
0.0
 30
0.0
  0
SEQEND
  5
3CB
  8
回13-記事
 62
     7
  0
POINT
  5
168
  8
DEFPOINTS
 62
     0
 10
4467.343271002401
 20
-452.6258273776608
 30
0.0
  0
POINT
  5
169
  8
DEFPOINTS
 62
     0
 10
4467.343271002401
 20
-127.2258273776607
 30
0.0
  0
POINT
  5
16A
  8
DEFPOINTS
 62
     0
 10
4527.524961311629
 20
-127.2258273776607
 30
0.0
  0
ENDBLK
  5
16B
  8
0
 62
     7
  0
BLOCK
  8
0
  2
*D15
 70
     1
 10
0.0
 20
0.0
 30
0.0
  3
*D15
  1

  0
LINE
  5
155
  8
回12-寸法
 62
     5
 10
3951.063271002402
 20
-296.1996273776609
 30
0.0
 11
3951.063271002402
 21
-333.6410399303218
 31
0.0
  0
LINE
  5
156
  8
回12-寸法
 62
     5
 10
4061.063271002402
 20
-298.2229517221286
 30
0.0
 11
4061.063271002402
 21
-333.6410399303218
 31
0.0
  0
LINE
  5
157
  8
回12-寸法
 62
     5
 10
3953.063271002402
 20
-332.6410399303218
 30
0.0
 11
4059.063271002401
 21
-332.6410399303218
 31
0.0
  0
INSERT
  5
158
  8
回12-寸法
 62
     5
  2
_OPEN
 10
3951.063271002402
 20
-332.6410399303218
 30
0.0
 41
2.0
 42
2.0
 43
2.0
 50
180.0
  0
INSERT
  5
159
  8
回12-寸法
 62
     5
  2
_OPEN
 10
4061.063271002402
 20
-332.6410399303218
 30
0.0
 41
2.0
 42
2.0
 43
2.0
  0
INSERT
  5
15A
  8
回12-寸法
 62
     5
 66
     1
  2
*X33
 10
0.0
 20
0.0
 30
0.0
  0
SEQEND
  5
3D4
  8
回13-記事
 62
     7
  0
POINT
  5
15B
  8
DEFPOINTS
 62
     0
 10
3951.063271002402
 20
-296.1996273776609
 30
0.0
  0
POINT
  5
15C
  8
DEFPOINTS
 62
     0
 10
4061.063271002402
 20
-298.2229517221286
 30
0.0
  0
POINT
  5
15D
  8
DEFPOINTS
 62
     0
 10
4061.063271002402
 20
-332.6410399303218
 30
0.0
  0
ENDBLK
  5
15E
  8
0
 62
     7
  0
BLOCK
  8
0
  2
*D16
 70
     1
 10
0.0
 20
0.0
 30
0.0
  3
*D16
  1

  0
LINE
  5
146
  8
回12-寸法
 62
     5
 10
3959.818271002402
 20
-282.3058273776606
 30
0.0
 11
3936.543698402289
 21
-282.3058273776606
 31
0.0
  0
LINE
  5
147
  8
回12-寸法
 62
     5
 10
3959.818271002402
 20
-297.5458273776607
 30
0.0
 11
3936.543698402289
 21
-297.5458273776607
 31
0.0
  0
LINE
  5
148
  8
回12-寸法
 62
     5
 10
3937.543698402289
 20
-280.3058273776606
 30
0.0
 11
3937.543698402289
 21
-278.3058273776607
 31
0.0
  0
LINE
  5
149
  8
回12-寸法
 62
     5
 10
3937.543698402289
 20
-299.5458273776607
 30
0.0
 11
3937.543698402289
 21
-348.7058273776607
 31
0.0
  0
LINE
  5
14A
  8
回12-寸法
 62
     5
 10
3937.543698402289
 20
-282.3058273776606
 30
0.0
 11
3937.543698402289
 21
-297.5458273776607
 31
0.0
  0
INSERT
  5
14B
  8
回12-寸法
 62
     5
  2
_OPEN
 10
3937.543698402289
 20
-282.3058273776606
 30
0.0
 41
2.0
 42
2.0
 43
2.0
 50
270.0
  0
INSERT
  5
14C
  8
回12-寸法
 62
     5
  2
_OPEN
 10
3937.543698402289
 20
-297.5458273776607
 30
0.0
 41
2.0
 42
2.0
 43
2.0
 50
90.0
  0
INSERT
  5
14D
  8
回12-寸法
 62
     5
 66
     1
  2
*X34
 10
0.0
 20
0.0
 30
0.0
  0
SEQEND
  5
3DD
  8
回13-記事
 62
     7
  0
POINT
  5
14E
  8
DEFPOINTS
 62
     0
 10
3959.818271002402
 20
-282.3058273776606
 30
0.0
  0
POINT
  5
14F
  8
DEFPOINTS
 62
     0
 10
3959.818271002402
 20
-297.5458273776607
 30
0.0
  0
POINT
  5
150
  8
DEFPOINTS
 62
     0
 10
3937.543698402289
 20
-297.5458273776607
 30
0.0
  0
ENDBLK
  5
151
  8
0
 62
     7
  0
BLOCK
  8
0
  2
*D17
 70
     1
 10
0.0
 20
0.0
 30
0.0
  3
*D17
  1

  0
LINE
  5
139
  8
回12-寸法
 62
     5
 10
3959.818271002402
 20
-282.3058273776606
 30
0.0
 11
3936.543698402289
 21
-282.3058273776606
 31
0.0
  0
LINE
  5
13A
  8
回12-寸法
 62
     5
 10
4061.063271002402
 20
-127.2258273776607
 30
0.0
 11
3936.543698402289
 21
-127.2258273776607
 31
0.0
  0
LINE
  5
13B
  8
回12-寸法
 62
     5
 10
3937.543698402289
 20
-280.3058273776606
 30
0.0
 11
3937.543698402289
 21
-129.2258273776607
 31
0.0
  0
INSERT
  5
13C
  8
回12-寸法
 62
     5
  2
_OPEN
 10
3937.543698402289
 20
-282.3058273776606
 30
0.0
 41
2.0
 42
2.0
 43
2.0
 50
270.0
  0
INSERT
  5
13D
  8
回12-寸法
 62
     5
  2
_OPEN
 10
3937.543698402289
 20
-127.2258273776607
 30
0.0
 41
2.0
 42
2.0
 43
2.0
 50
90.0
  0
TEXT
  5
13E
  8
回12-寸法
 62
     5
 10
3936.843698402289
 20
-222.1658273776597
 30
0.0
 40
4.0
  1
(155.08 [6.106])
 50
90.0
1001
ACAD
1000
MTEXTBEGIN
1070
    73
1070
     1
1070
    44
1040
1.0
1070
    74
1070
     0
1000
MTEXTEND
  0
POINT
  5
13F
  8
DEFPOINTS
 62
     0
 10
3959.818271002402
 20
-282.3058273776606
 30
0.0
  0
POINT
  5
140
  8
DEFPOINTS
 62
     0
 10
4061.063271002402
 20
-127.2258273776607
 30
0.0
  0
POINT
  5
141
  8
DEFPOINTS
 62
     0
 10
3937.543698402289
 20
-127.2258273776607
 30
0.0
  0
ENDBLK
  5
142
  8
0
 62
     7
  0
BLOCK
  8
0
  2
*D18
 70
     1
 10
0.0
 20
0.0
 30
0.0
  3
*D18
  1

  0
LINE
  5
12A
  8
回12-寸法
 62
     5
 10
4466.843271002402
 20
-489.9756329233618
 30
0.0
 11
4466.843271002402
 21
-476.4342333934422
 31
0.0
  0
LINE
  5
12B
  8
回12-寸法
 62
     5
 10
4467.343271002401
 20
-492.4830599392561
 30
0.0
 11
4467.343271002401
 21
-476.4342333934422
 31
0.0
  0
LINE
  5
12C
  8
回12-寸法
 62
     5
 10
4469.343271002402
 20
-477.4342333934422
 30
0.0
 11
4471.343271002401
 21
-477.4342333934422
 31
0.0
  0
LINE
  5
12D
  8
回12-寸法
 62
     5
 10
4464.843271002401
 20
-477.4342333934422
 30
0.0
 11
4435.046420608701
 21
-477.4342333934422
 31
0.0
  0
LINE
  5
12E
  8
回12-寸法
 62
     5
 10
4467.343271002401
 20
-477.4342333934422
 30
0.0
 11
4466.843271002402
 21
-477.4342333934422
 31
0.0
  0
INSERT
  5
12F
  8
回12-寸法
 62
     5
  2
_OPEN
 10
4467.343271002401
 20
-477.4342333934422
 30
0.0
 41
2.0
 42
2.0
 43
2.0
 50
180.0
  0
INSERT
  5
130
  8
回12-寸法
 62
     5
  2
_OPEN
 10
4466.843271002402
 20
-477.4342333934422
 30
0.0
 41
2.0
 42
2.0
 43
2.0
  0
TEXT
  5
131
  8
回12-寸法
 62
     5
 10
4434.944845805551
 20
-476.7342333934422
 30
0.0
 40
4.0
  1
(0.5 [0.020])
1001
ACAD
1000
MTEXTBEGIN
1070
    73
1070
     1
1070
    44
1040
1.0
1070
    74
1070
     0
1000
MTEXTEND
  0
POINT
  5
132
  8
DEFPOINTS
 62
     0
 10
4466.843271002402
 20
-489.9756329233618
 30
0.0
  0
POINT
  5
133
  8
DEFPOINTS
 62
     0
 10
4467.343271002401
 20
-492.4830599392561
 30
0.0
  0
POINT
  5
134
  8
DEFPOINTS
 62
     0
 10
4467.343271002401
 20
-477.4342333934422
 30
0.0
  0
ENDBLK
  5
135
  8
0
 62
     7
  0
BLOCK
  8
0
  2
*D19
 70
     1
 10
0.0
 20
0.0
 30
0.0
  3
*D19
  1

  0
LINE
  5
11B
  8
回12-寸法
 62
     5
 10
4061.063271002402
 20
-492.4830599392561
 30
0.0
 11
4061.063271002402
 21
-481.6439316747622
 31
0.0
  0
LINE
  5
11C
  8
回12-寸法
 62
     5
 10
4061.563271002402
 20
-489.9756329233618
 30
0.0
 11
4061.563271002402
 21
-481.6439316747622
 31
0.0
  0
LINE
  5
11D
  8
回12-寸法
 62
     5
 10
4059.063271002401
 20
-482.6439316747622
 30
0.0
 11
4057.063271002402
 21
-482.6439316747622
 31
0.0
  0
LINE
  5
11E
  8
回12-寸法
 62
     5
 10
4063.563271002402
 20
-482.6439316747622
 30
0.0
 11
4093.360121396102
 21
-482.6439316747622
 31
0.0
  0
LINE
  5
11F
  8
回12-寸法
 62
     5
 10
4061.063271002402
 20
-482.6439316747622
 30
0.0
 11
4061.563271002402
 21
-482.6439316747622
 31
0.0
  0
INSERT
  5
120
  8
回12-寸法
 62
     5
  2
_OPEN
 10
4061.063271002402
 20
-482.6439316747622
 30
0.0
 41
2.0
 42
2.0
 43
2.0
  0
INSERT
  5
121
  8
回12-寸法
 62
     5
  2
_OPEN
 10
4061.563271002402
 20
-482.6439316747622
 30
0.0
 41
2.0
 42
2.0
 43
2.0
 50
180.0
  0
TEXT
  5
122
  8
回12-寸法
 62
     5
 10
4065.461696199252
 20
-481.9439316747622
 30
0.0
 40
4.0
  1
(0.5 [0.020])
1001
ACAD
1000
MTEXTBEGIN
1070
    73
1070
     1
1070
    44
1040
1.0
1070
    74
1070
     0
1000
MTEXTEND
  0
POINT
  5
123
  8
DEFPOINTS
 62
     0
 10
4061.063271002402
 20
-492.4830599392561
 30
0.0
  0
POINT
  5
124
  8
DEFPOINTS
 62
     0
 10
4061.563271002402
 20
-489.9756329233618
 30
0.0
  0
POINT
  5
125
  8
DEFPOINTS
 62
     0
 10
4061.563271002402
 20
-482.6439316747622
 30
0.0
  0
ENDBLK
  5
126
  8
0
 62
     7
  0
BLOCK
  8
0
  2
*D20
 70
     1
 10
0.0
 20
0.0
 30
0.0
  3
*D20
  1

  0
LINE
  5
102
  8
回12-寸法
 62
     5
 10
4466.843271002402
 20
-489.9756329233618
 30
0.0
 11
4481.183311063184
 21
-489.9756329233618
 31
0.0
  0
LINE
  5
103
  8
回12-寸法
 62
     5
 10
4467.343271002401
 20
-495.6989839349438
 30
0.0
 11
4481.183311063184
 21
-495.6989839349438
 31
0.0
  0
LINE
  5
104
  8
回12-寸法
 62
     5
 10
4480.183311063184
 20
-487.9756329233618
 30
0.0
 11
4480.183311063184
 21
-485.9756329233618
 31
0.0
  0
LINE
  5
105
  8
回12-寸法
 62
     5
 10
4480.183311063184
 20
-497.6989839349439
 30
0.0
 11
4480.183311063184
 21
-543.6005587380934
 31
0.0
  0
LINE
  5
106
  8
回12-寸法
 62
     5
 10
4480.183311063184
 20
-489.9756329233618
 30
0.0
 11
4480.183311063184
 21
-495.6989839349438
 31
0.0
  0
INSERT
  5
107
  8
回12-寸法
 62
     5
  2
_OPEN
 10
4480.183311063184
 20
-489.9756329233618
 30
0.0
 41
2.0
 42
2.0
 43
2.0
 50
270.0
  0
INSERT
  5
108
  8
回12-寸法
 62
     5
  2
_OPEN
 10
4480.183311063184
 20
-495.6989839349438
 30
0.0
 41
2.0
 42
2.0
 43
2.0
 50
90.0
  0
INSERT
  5
109
  8
回12-寸法
 62
     5
 66
     1
  2
*X35
 10
0.0
 20
0.0
 30
0.0
  0
SEQEND
  5
3E6
  8
回13-記事
 62
     7
  0
POINT
  5
10A
  8
DEFPOINTS
 62
     0
 10
4466.843271002402
 20
-489.9756329233618
 30
0.0
  0
POINT
  5
10C
  8
DEFPOINTS
 62
     0
 10
4467.343271002401
 20
-495.6989839349438
 30
0.0
  0
POINT
  5
10D
  8
DEFPOINTS
 62
     0
 10
4480.183311063184
 20
-495.6989839349438
 30
0.0
  0
ENDBLK
  5
10E
  8
0
 62
     7
  0
BLOCK
  8
回13-記事
  2
*X21
 70
     1
 10
0.0
 20
0.0
 30
0.0
  3
*X21
  1

  0
INSERT
  5
31C
  8
回13-記事
 62
     5
  2
_OPEN
 10
4465.397641221137
 20
-430.3512550247806
 30
0.0
 41
2.0
 42
2.0
 43
2.0
 50
249.3964767136322
  0
LINE
  5
31D
  8
回13-記事
 62
     5
 10
4466.101439638737
 20
-428.4791792284024
 30
0.0
 11
4468.106753392716
 21
-423.1451244065982
 31
0.0
  0
LINE
  5
31E
  8
回13-記事
 62
     5
 10
4468.106753392716
 20
-423.1451244065982
 30
0.0
 11
4492.206753392717
 21
-423.1451244065982
 31
0.0
  0
ENDBLK
  5
320
  8
回13-記事
 62
     7
  0
BLOCK
  8
回13-記事
  2
*X22
 70
     1
 10
0.0
 20
0.0
 30
0.0
  3
*X22
  1

  0
INSERT
  5
328
  8
回13-記事
 62
     5
  2
_OPEN
 10
4025.691266189147
 20
-490.4500441406431
 30
0.0
 41
2.0
 42
2.0
 43
2.0
 50
297.2592463237701
  0
LINE
  5
329
  8
回13-記事
  6
CONTINUOUS
 62
     5
 10
4024.775231433811
 20
-488.6721576631038
 30
0.0
 11
4019.947876286102
 21
-479.3029831973939
 31
0.0
  0
LINE
  5
32A
  8
回13-記事
  6
CONTINUOUS
 62
     5
 10
4019.947876286102
 20
-479.3029831973939
 30
0.0
 11
3978.247876286102
 21
-479.3029831973939
 31
0.0
  0
ENDBLK
  5
32C
  8
回13-記事
 62
     7
  0
BLOCK
  8
回13-記事
  2
*X23
 70
     1
 10
0.0
 20
0.0
 30
0.0
  3
*X23
  1

  0
LINE
  5
334
  8
回13-記事
  6
CONTINUOUS
 62
     8
 10
4054.022134369037
 20
-490.6501132768428
 30
0.0
 11
4054.977095426184
 21
-489.6951522196972
 31
0.0
  0
LINE
  5
335
  8
回13-記事
  6
CONTINUOUS
 62
     8
 10
4056.267198399305
 20
-490.650113276842
 30
0.0
 11
4057.222159456451
 21
-489.6951522196968
 31
0.0
  0
LINE
  5
336
  8
回13-記事
  6
CONTINUOUS
 62
     8
 10
4058.512262429572
 20
-490.6501132768423
 30
0.0
 11
4059.467223486717
 21
-489.695152219697
 31
0.0
  0
LINE
  5
337
  8
回13-記事
  6
CONTINUOUS
 62
     8
 10
4060.757326459839
 20
-490.6501132768418
 30
0.0
 11
4062.348486233709
 21
-489.0589535029724
 31
0.0
  0
LINE
  5
338
  8
回13-記事
  6
CONTINUOUS
 62
     8
 10
4063.676870843587
 20
-489.9756329233617
 30
0.0
 11
4064.593550263975
 21
-489.0589535029731
 31
0.0
  0
LINE
  5
339
  8
回13-記事
  6
CONTINUOUS
 62
     8
 10
4065.921934873853
 20
-489.9756329233623
 30
0.0
 11
4066.838614294242
 21
-489.0589535029732
 31
0.0
  0
LINE
  5
33A
  8
回13-記事
  6
CONTINUOUS
 62
     8
 10
4068.16699890412
 20
-489.9756329233615
 30
0.0
 11
4069.08367832451
 21
-489.0589535029729
 31
0.0
  0
LINE
  5
33B
  8
回13-記事
  6
CONTINUOUS
 62
     8
 10
4070.412062934388
 20
-489.9756329233615
 30
0.0
 11
4070.62127096371
 21
-489.7664248940399
 31
0.0
  0
ENDBLK
  5
33D
  8
回13-記事
 62
     7
  0
BLOCK
  8
回13-記事
  2
*X24
 70
     1
 10
0.0
 20
0.0
 30
0.0
  3
*X24
  1

  0
INSERT
  5
345
  8
回13-記事
 62
     5
  2
_OPEN
 10
4014.332038560006
 20
-494.6501788809301
 30
0.0
 41
2.0
 42
2.0
 43
2.0
 50
106.2888139463644
  0
LINE
  5
346
  8
回13-記事
  6
CONTINUOUS
 62
     5
 10
4014.892997194924
 20
-496.5698990193646
 30
0.0
 11
4018.345049191338
 21
-508.3835575031295
 31
0.0
  0
LINE
  5
347
  8
回13-記事
  6
CONTINUOUS
 62
     5
 10
4018.345049191338
 20
-508.3835575031295
 30
0.0
 11
4046.445049191338
 21
-508.3835575031295
 31
0.0
  0
ENDBLK
  5
349
  8
回13-記事
 62
     7
  0
BLOCK
  8
回13-記事
  2
*X25
 70
     1
 10
0.0
 20
0.0
 30
0.0
  3
*X25
  1

  0
INSERT
  5
36A
  8
回12-寸法
 62
     5
  2
_OPEN
 10
4060.810072010018
 20
-297.9820220037714
 30
0.0
 41
2.0
 42
2.0
 43
2.0
 50
54.63682172400703
  0
LINE
  5
36B
  8
回12-寸法
 62
     5
 10
4059.652557605091
 20
-299.6130218205669
 30
0.0
 11
4055.920736981263
 21
-304.8713570325256
 31
0.0
  0
LINE
  5
36C
  8
回12-寸法
 62
     5
 10
4055.920736981263
 20
-304.8713570325256
 30
0.0
 11
4043.019852487023
 21
-304.8713570325256
 31
0.0
  0
ENDBLK
  5
36E
  8
回13-記事
 62
     7
  0
BLOCK
  8
回13-記事
  2
*X26
 70
     1
 10
0.0
 20
0.0
 30
0.0
  3
*X26
  1

  0
TEXT
  5
37B
  8
回13-記事
  6
CONTINUOUS
 62
     5
 10
3979.101557586162
 20
-308.1577406882638
 30
0.0
 40
4.0
  1
・PART No. LABEL
  0
TEXT
  5
37C
  8
回13-記事
  6
CONTINUOUS
 62
     5
 10
3992.701557586162
 20
-314.8244073549304
 30
0.0
 40
4.0
  1
・LOT LABEL
  0
ENDBLK
  5
37E
  8
回13-記事
 62
     7
  0
BLOCK
  8
回13-記事
  2
*X27
 70
     1
 10
0.0
 20
0.0
 30
0.0
  3
*X27
  1

  0
INSERT
  5
381
  8
回13-記事
 62
     5
  2
_OPEN
 10
4031.698889269685
 20
-289.925827377661
 30
0.0
 41
1.999999999999999
 42
1.999999999999999
 43
2.0
 50
77.78714678582128
  0
LINE
  5
382
  8
回13-記事
  6
CONTINUOUS
 62
     5
 10
4031.275801158224
 20
-291.8805643036797
 30
0.0
 11
4026.201557586161
 21
-315.3244073549304
 31
0.0
  0
LINE
  5
383
  8
回13-記事
  6
CONTINUOUS
 62
     5
 10
4026.201557586161
 20
-315.3244073549304
 30
0.0
 11
3980.434890919495
 21
-315.3244073549304
 31
0.0
  0
ENDBLK
  5
385
  8
回13-記事
 62
     7
  0
BLOCK
  8
回13-記事
  2
*X28
 70
     1
 10
0.0
 20
0.0
 30
0.0
  3
*X28
  1

  0
LINE
  5
388
  8
回13-記事
  6
CONTINUOUS
 62
     8
 10
4038.381706214845
 20
-291.6790378102998
 30
0.0
 11
4034.545477318697
 21
-287.8428089141509
 31
0.0
  0
LINE
  5
389
  8
回13-記事
  6
CONTINUOUS
 62
     8
 10
4034.055349258163
 20
-291.8428089141508
 30
0.0
 11
4030.055349258162
 21
-287.8428089141507
 31
0.0
  0
LINE
  5
38A
  8
回13-記事
  6
CONTINUOUS
 62
     8
 10
4029.565221197628
 20
-291.842808914151
 30
0.0
 11
4025.565221197628
 21
-287.8428089141513
 31
0.0
  0
LINE
  5
38B
  8
回13-記事
  6
CONTINUOUS
 62
     8
 10
4025.075093137093
 20
-291.8428089141512
 30
0.0
 11
4021.075093137094
 21
-287.8428089141508
 31
0.0
  0
LINE
  5
38C
  8
回13-記事
  6
CONTINUOUS
 62
     8
 10
4020.584965076559
 20
-291.8428089141507
 30
0.0
 11
4016.584965076559
 21
-287.842808914151
 31
0.0
  0
LINE
  5
38D
  8
回13-記事
  6
CONTINUOUS
 62
     8
 10
4016.094837016025
 20
-291.8428089141506
 30
0.0
 11
4012.861040186052
 21
-288.609012084179
 31
0.0
  0
ENDBLK
  5
38F
  8
回13-記事
 62
     7
  0
BLOCK
  8
回13-記事
  2
*U29
 70
     1
 10
0.0
 20
0.0
 30
0.0
  3
*U29
  1

  0
LINE
  5
3A0
  8
回13-記事
 62
     8
 10
4053.0632710024
 20
-282.8058273776612
 30
0.0
 11
4053.0632710024
 21
-297.0458273776616
 31
0.0
  0
LINE
  5
3A1
  8
回13-記事
 62
     8
 10
4053.0632710024
 20
-297.0458273776616
 30
0.0
 11
4061.563271002401
 21
-297.0458273776616
 31
0.0
  0
LINE
  5
3A2
  8
回13-記事
 62
     8
 10
4061.563271002401
 20
-304.1658273776615
 30
0.0
 11
4061.563271002401
 21
-297.0458273776616
 31
0.0
  0
LINE
  5
3A3
  8
回13-記事
 62
     8
 10
4070.621270963708
 20
-304.1658273776615
 30
0.0
 11
4061.563271002401
 21
-304.1658273776615
 31
0.0
  0
LINE
  5
3A4
  8
回13-記事
 62
     8
 10
4070.621270963708
 20
-275.6858273776613
 30
0.0
 11
4070.621270963708
 21
-304.1658273776615
 31
0.0
  0
LINE
  5
3A5
  8
回13-記事
 62
     8
 10
4061.563271002401
 20
-275.6858273776613
 30
0.0
 11
4070.621270963708
 21
-275.6858273776613
 31
0.0
  0
LINE
  5
3A6
  8
回13-記事
 62
     8
 10
4061.563271002401
 20
-282.8058273776612
 30
0.0
 11
4061.563271002401
 21
-275.6858273776613
 31
0.0
  0
LINE
  5
3A7
  8
回13-記事
 62
     8
 10
4061.563271002401
 20
-282.8058273776612
 30
0.0
 11
4053.0632710024
 21
-282.8058273776612
 31
0.0
  0
ENDBLK
  5
3A9
  8
回13-記事
 62
     7
  0
BLOCK
  8
回13-記事
  2
*X30
 70
     1
 10
0.0
 20
0.0
 30
0.0
  3
*X30
  1

  0
LINE
  5
3AC
  8
回13-記事
 62
     8
 10
4053.0632710024
 20
-284.3209486066917
 30
0.0
 11
4054.578392231432
 21
-282.805827377661
 31
0.0
1001
ACAD
1010
0.0
1020
0.0
1030
0.0
  0
LINE
  5
3AD
  8
回13-記事
 62
     8
 10
4061.563271002401
 20
-275.8209486066915
 30
0.0
 11
4061.698392231432
 21
-275.6858273776606
 31
0.0
1001
ACAD
1010
0.0
1020
0.0
1030
0.0
  0
LINE
  5
3AE
  8
回13-記事
 62
     8
 10
4053.0632710024
 20
-288.7403659891074
 30
0.0
 11
4058.997809613847
 21
-282.8058273776612
 31
0.0
1001
ACAD
1010
0.0
1020
0.0
1030
0.0
  0
LINE
  5
3AF
  8
回13-記事
 62
     8
 10
4061.563271002401
 20
-280.2403659891074
 30
0.0
 11
4066.117809613849
 21
-275.6858273776606
 31
0.0
1001
ACAD
1010
0.0
1020
0.0
1030
0.0
  0
LINE
  5
3B0
  8
回13-記事
 62
     8
 10
4053.0632710024
 20
-293.1597833715239
 30
0.0
 11
4070.537226996264
 21
-275.6858273776606
 31
0.0
1001
ACAD
1010
0.0
1020
0.0
1030
0.0
  0
LINE
  5
3B1
  8
回13-記事
 62
     8
 10
4053.596644378679
 20
-297.0458273776617
 30
0.0
 11
4070.621270963708
 21
-280.0212007926323
 31
0.0
1001
ACAD
1010
0.0
1020
0.0
1030
0.0
  0
LINE
  5
3B2
  8
回13-記事
 62
     8
 10
4058.016061761095
 20
-297.0458273776617
 30
0.0
 11
4070.621270963708
 21
-284.4406181750482
 31
0.0
1001
ACAD
1010
0.0
1020
0.0
1030
0.0
  0
LINE
  5
3B3
  8
回13-記事
 62
     8
 10
4061.563271002401
 20
-297.9180355187716
 30
0.0
 11
4070.621270963708
 21
-288.8600355574645
 31
0.0
1001
ACAD
1010
0.0
1020
0.0
1030
0.0
  0
LINE
  5
3B4
  8
回13-記事
 62
     8
 10
4061.563271002401
 20
-302.3374529011874
 30
0.0
 11
4070.621270963708
 21
-293.2794529398805
 31
0.0
1001
ACAD
1010
0.0
1020
0.0
1030
0.0
  0
LINE
  5
3B5
  8
回13-記事
 62
     8
 10
4064.154313908343
 20
-304.1658273776613
 30
0.0
 11
4070.621270963708
 21
-297.6988703222964
 31
0.0
1001
ACAD
1010
0.0
1020
0.0
1030
0.0
  0
LINE
  5
3B6
  8
回13-記事
 62
     8
 10
4068.57373129076
 20
-304.1658273776613
 30
0.0
 11
4070.621270963708
 21
-302.1182877047124
 31
0.0
1001
ACAD
1010
0.0
1020
0.0
1030
0.0
  0
ENDBLK
  5
3B8
  8
回13-記事
 62
     7
  0
BLOCK
  8
回13-記事
  2
*X31
 70
     1
 10
0.0
 20
0.0
 30
0.0
  3
*X31
  1

  0
TEXT
  5
3BB
  8
回12-寸法
 62
     5
 10
4237.988829528293
 20
-76.86700993709443
 30
0.0
 40
4.0
  1
406.28
  0
TEXT
  5
3BC
  8
回12-寸法
 62
     5
 10
4253.588829528293
 20
-76.86700993709443
 30
0.0
 40
2.799999999999999
  1
±0.3
  0
TEXT
  5
3BD
  8
回12-寸法
 62
     5
 10
4260.308829528294
 20
-76.86700993709443
 30
0.0
 40
4.0
  1
 [15.995
  0
TEXT
  5
3BE
  8
回12-寸法
 62
     5
 10
4278.73771247651
 20
-76.86700993709443
 30
0.0
 40
2.799999999999999
  1
±0.012
  0
TEXT
  5
3BF
  8
回12-寸法
 62
     5
 10
4288.81771247651
 20
-76.86700993709443
 30
0.0
 40
4.0
  1
]
  0
ENDBLK
  5
3C1
  8
回13-記事
 62
     7
  0
BLOCK
  8
回13-記事
  2
*X32
 70
     1
 10
0.0
 20
0.0
 30
0.0
  3
*X32
  1

  0
TEXT
  5
3C4
  8
回12-寸法
 62
     5
 10
4526.82496131163
 20
-313.9258273776604
 30
0.0
 40
4.0
  1
325.4
 50
90.0
  0
TEXT
  5
3C5
  8
回12-寸法
 62
     5
 10
4526.82496131163
 20
-301.1258273776602
 30
0.0
 40
2.799999999999999
  1
±0.3
 50
90.0
  0
TEXT
  5
3C6
  8
回12-寸法
 62
     5
 10
4526.82496131163
 20
-294.40582737766
 30
0.0
 40
4.0
  1
 [12.811
 50
90.0
  0
TEXT
  5
3C7
  8
回12-寸法
 62
     5
 10
4526.82496131163
 20
-277.6058273776598
 30
0.0
 40
2.799999999999999
  1
±0.012
 50
90.0
  0
TEXT
  5
3C8
  8
回12-寸法
 62
     5
 10
4526.82496131163
 20
-267.5258273776599
 30
0.0
 40
4.0
  1
]
 50
90.0
  0
ENDBLK
  5
3CA
  8
回13-記事
 62
     7
  0
BLOCK
  8
回13-記事
  2
*X33
 70
     1
 10
0.0
 20
0.0
 30
0.0
  3
*X33
  1

  0
TEXT
  5
3CD
  8
回12-寸法
 62
     5
 10
3986.858216486464
 20
-331.9410399303218
 30
0.0
 40
4.0
  1
110
  0
TEXT
  5
3CE
  8
回12-寸法
 62
     5
 10
3993.658216486465
 20
-331.9410399303218
 30
0.0
 40
2.799999999999999
  1
±1
  0
TEXT
  5
3CF
  8
回12-寸法
 62
     5
 10
3997.018216486465
 20
-331.9410399303218
 30
0.0
 40
4.0
  1
 [4.331
  0
TEXT
  5
3D0
  8
回12-寸法
 62
     5
 10
4013.018216486464
 20
-331.9410399303218
 30
0.0
 40
2.799999999999999
  1
±0.039
  0
TEXT
  5
3D1
  8
回12-寸法
 62
     5
 10
4023.66832551834
 20
-331.9410399303218
 30
0.0
 40
4.0
  1
]
  0
ENDBLK
  5
3D3
  8
回13-記事
 62
     7
  0
BLOCK
  8
回13-記事
  2
*X34
 70
     1
 10
0.0
 20
0.0
 30
0.0
  3
*X34
  1

  0
TEXT
  5
3D6
  8
回12-寸法
 62
     5
 10
3936.843698402289
 20
-348.8058273776601
 30
0.0
 40
4.0
  1
15.24
 50
90.0
  0
TEXT
  5
3D7
  8
回12-寸法
 62
     5
 10
3936.843698402289
 20
-336.8058273776601
 30
0.0
 40
2.799999999999999
  1
±0.2
 50
90.0
  0
TEXT
  5
3D8
  8
回12-寸法
 62
     5
 10
3936.843698402289
 20
-330.0858273776603
 30
0.0
 40
4.0
  1
 [0.600
 50
90.0
  0
TEXT
  5
3D9
  8
回12-寸法
 62
     5
 10
3936.843698402289
 20
-313.6858273776602
 30
0.0
 40
2.799999999999999
  1
±0.008
 50
90.0
  0
TEXT
  5
3DA
  8
回12-寸法
 62
     5
 10
3936.843698402289
 20
-303.0458273776603
 30
0.0
 40
4.0
  1
]
 50
90.0
  0
ENDBLK
  5
3DC
  8
回13-記事
 62
     7
  0
BLOCK
  8
回13-記事
  2
*X35
 70
     1
 10
0.0
 20
0.0
 30
0.0
  3
*X35
  1

  0
TEXT
  5
3DF
  8
回12-寸法
 62
     5
 10
4479.483311063184
 20
-543.6497713365179
 30
0.0
 40
4.0
  1
2.1±
 50
90.0
  0
TEXT
  5
3E0
  8
回12-寸法
 62
     5
 10
4479.483311063184
 20
-534.8497713365177
 30
0.0
 40
3.0
  1
0.2
 50
90.0
  0
TEXT
  5
3E1
  8
回12-寸法
 62
     5
 10
4479.483311063184
 20
-529.7497713365173
 30
0.0
 40
4.0
  1
 [0.083±
 50
90.0
  0
TEXT
  5
3E2
  8
回12-寸法
 62
     5
 10
4479.483311063184
 20
-510.5497713365175
 30
0.0
 40
3.0
  1
0.008
 50
90.0
  0
TEXT
  5
3E3
  8
回12-寸法
 62
     5
 10
4479.483311063184
 20
-501.2497713365173
 30
0.0
 40
4.0
  1
]
 50
90.0
  0
ENDBLK
  5
3E5
  8
回13-記事
 62
     7
  0
ENDSEC
  0
SECTION
  2
ENTITIES
  0
TEXT
  5
65
  8
回03-記事
  6
CONTINUOUS
 62
     5
 10
4174.50327773191
 20
-571.5177988158745
 30
0.0
 40
6.0
  1
without affecting product specification.
  0
TEXT
  5
67
  8
回03-記事
  6
CONTINUOUS
 62
     5
 10
4174.50327773191
 20
-560.9931666731247
 30
0.0
 40
6.0
  1
Edges and corners of ITO glass may be chamfered 
  0
TEXT
  5
68
  8
回03-記事
  6
CONTINUOUS
 62
     5
 10
4174.50327773191
 20
-550.4685345303748
 30
0.0
 40
6.0
  1
Unit: mm
  0
TEXT
  5
69
  8
回03-記事
  6
CONTINUOUS
 62
     5
 10
4174.50327773191
 20
-539.9439023876253
 30
0.0
 40
6.0
  1
EXCEPT WHERE INDICATED
  0
TEXT
  5
6A
  8
回03-記事
  6
CONTINUOUS
 62
     5
 10
4174.50327773191
 20
-529.4192702448756
 30
0.0
 40
6.0
  1
TOLERANCE=±0.5mm
  0
TEXT
  5
6B
  8
回08-GPDL
 62
     7
 10
4466.142461766003
 20
-441.0314344344966
 30
0.0
 40
2.0
  1
FST-190C
 50
90.0
  0
TEXT
  5
6F
  8
回12-寸法
 62
     7
 10
4523.959742372865
 20
-494.9403753794976
 30
0.0
 40
4.0
  1
(Insulation Area)
 50
90.0
1001
ACAD
1000
MTEXTBEGIN
1070
    73
1070
     1
1070
    44
1040
1.0
1070
    74
1070
     0
1000
MTEXTEND
  0
TEXT
  5
73
  8
回12-寸法
 62
     7
 10
4530.205245117826
 20
-119.2360981518322
 30
0.0
 40
4.0
  1
Area)
 50
90.0
1001
ACAD
1000
MTEXTBEGIN
1070
    73
1070
     1
1070
    44
1040
1.0
1070
    74
1070
     0
1000
MTEXTEND
  0
POLYLINE
  5
74
  8
回02-G外
 62
     7
 66
     1
 10
0.0
 20
0.0
 30
0.0
 70
     1
  0
VERTEX
  5
311
  8
回02-G外
 62
     7
 10
4061.063271002402
 20
-452.6258273776607
 30
0.0
  0
VERTEX
  5
313
  8
回02-G外
 62
     7
 10
4467.343271002401
 20
-452.6258273776607
 30
0.0
  0
VERTEX
  5
314
  8
回02-G外
 62
     7
 10
4467.343271002401
 20
-127.2258273776607
 30
0.0
  0
VERTEX
  5
315
  8
回02-G外
 62
     7
 10
4061.063271002402
 20
-127.2258273776607
 30
0.0
  0
SEQEND
  5
312
  8
回13-記事
 62
     7
  0
POLYLINE
  5
78
  8
回13-記事
  6
DASHED2
 62
     7
 66
     1
 10
0.0
 20
0.0
 30
0.0
 70
     1
  0
VERTEX
  5
316
  8
回13-記事
  6
DASHED2
 62
     7
 10
4076.473271002401
 20
-136.0158273776608
 30
0.0
  0
VERTEX
  5
318
  8
回13-記事
  6
DASHED2
 62
     7
 10
4459.553271002401
 20
-136.0158273776608
 30
0.0
  0
VERTEX
  5
319
  8
回13-記事
  6
DASHED2
 62
     7
 10
4459.553271002401
 20
-443.8358273776609
 30
0.0
  0
VERTEX
  5
31A
  8
回13-記事
  6
DASHED2
 62
     7
 10
4076.473271002401
 20
-443.8358273776609
 30
0.0
  0
SEQEND
  5
317
  8
回13-記事
 62
     7
  0
TEXT
  5
7A
  8
回13-記事
  6
CONTINUOUS
 62
     7
 10
4647.893810953532
 20
-522.5496306098193
 30
0.0
 40
4.999999999999999
  1
(AMP:487406-9)
  0
TEXT
  5
7B
  8
回13-記事
  6
CONTINUOUS
 62
     7
 10
4605.642145721871
 20
-522.5496306098193
 30
0.0
 40
4.999999999999999
  1
PIN CONTACT
  0
TEXT
  5
7C
  8
回13-記事
  6
CONTINUOUS
 62
     7
 10
4643.592786115045
 20
-514.2162972764859
 30
0.0
 40
4.999999999999999
  1
(AMP:487526-4)
  0
TEXT
  5
7D
  8
回13-記事
  6
CONTINUOUS
 62
     7
 10
4605.642145721871
 20
-514.2162972764859
 30
0.0
 40
4.999999999999999
  1
CONNECTOR
  0
TEXT
  5
7E
  8
回13-記事
  6
CONTINUOUS
 62
     7
 10
4605.642145721871
 20
-505.8829639431526
 30
0.0
 40
4.999999999999999
  1
ADHESIVE SHEET
  0
TEXT
  5
7F
  8
回13-記事
  6
CONTINUOUS
 62
     7
 10
4594.275099454008
 20
-518.0827288656446
 30
0.0
 40
4.999999999999999
  1
8
  0
TEXT
  5
80
  8
回13-記事
  6
CONTINUOUS
 62
     7
 10
4594.275099454008
 20
-505.8829639431526
 30
0.0
 40
4.999999999999999
  1
7
  0
LINE
  5
81
  8
回13-記事
  6
CONTINUOUS
 62
     7
 10
4590.025033553038
 20
-523.8663365394836
 30
0.0
 11
4696.790227946332
 21
-523.8663365394836
 31
0.0
  0
LINE
  5
82
  8
回13-記事
  6
CONTINUOUS
 62
     7
 10
4590.025033553038
 20
-507.1996698728169
 30
0.0
 11
4696.790227946332
 21
-507.1996698728169
 31
0.0
  0
TEXT
  5
83
  8
回13-記事
  6
CONTINUOUS
 62
     7
 10
4605.642145721871
 20
-497.5496306098192
 30
0.0
 40
4.999999999999999
  1
TAIL PROTECTION TAPE
  0
TEXT
  5
84
  8
回13-記事
  6
CONTINUOUS
 62
     7
 10
4605.642145721871
 20
-489.2162972764858
 30
0.0
 40
4.999999999999999
  1
STIFFENER
  0
TEXT
  5
85
  8
回13-記事
  6
CONTINUOUS
 62
     7
 10
4605.642145721871
 20
-480.8829639431526
 30
0.0
 40
4.999999999999999
  1
REINFORCEMENT FILM
  0
TEXT
  5
86
  8
回13-記事
  6
CONTINUOUS
 62
     7
 10
4605.642145721871
 20
-472.5496306098192
 30
0.0
 40
4.999999999999999
  1
TAIL
  0
TEXT
  5
87
  8
回13-記事
  6
CONTINUOUS
 62
     7
 10
4605.642145721871
 20
-464.2162972764858
 30
0.0
 40
4.999999999999999
  1
ITO GLASS 
  0
LINE
  5
88
  8
回13-記事
  6
CONTINUOUS
 62
     7
 10
4696.790227946332
 20
-448.8663365394835
 30
0.0
 11
4696.790227946332
 21
-523.8663365394836
 31
0.0
  0
TEXT
  5
89
  8
回13-記事
  6
CONTINUOUS
 62
     7
 10
4605.642145721871
 20
-455.8829639431526
 30
0.0
 40
4.999999999999999
  1
ITO FILM (ANTI-GLARE)
  0
TEXT
  5
8A
  8
回13-記事
  6
CONTINUOUS
 62
     7
 10
4594.275099454008
 20
-497.5496306098192
 30
0.0
 40
4.999999999999999
  1
6
  0
TEXT
  5
8B
  8
回13-記事
  6
CONTINUOUS
 62
     7
 10
4594.275099454008
 20
-489.2162972764858
 30
0.0
 40
4.999999999999999
  1
5
  0
TEXT
  5
8C
  8
回13-記事
  6
CONTINUOUS
 62
     7
 10
4594.275099454008
 20
-480.8829639431526
 30
0.0
 40
4.999999999999999
  1
4
  0
TEXT
  5
8D
  8
回13-記事
  6
CONTINUOUS
 62
     7
 10
4594.275099454008
 20
-472.5496306098192
 30
0.0
 40
4.999999999999999
  1
3
  0
TEXT
  5
8E
  8
回13-記事
  6
CONTINUOUS
 62
     7
 10
4594.275099454008
 20
-464.2162972764858
 30
0.0
 40
4.999999999999999
  1
2
  0
LINE
  5
8F
  8
回13-記事
  6
CONTINUOUS
 62
     7
 10
4590.025033553038
 20
-498.8663365394835
 30
0.0
 11
4696.790227946332
 21
-498.8663365394835
 31
0.0
  0
LINE
  5
90
  8
回13-記事
  6
CONTINUOUS
 62
     7
 10
4590.025033553038
 20
-490.5330032061502
 30
0.0
 11
4696.790227946332
 21
-490.5330032061502
 31
0.0
  0
LINE
  5
91
  8
回13-記事
  6
CONTINUOUS
 62
     7
 10
4590.025033553038
 20
-482.1996698728169
 30
0.0
 11
4696.790227946332
 21
-482.1996698728169
 31
0.0
  0
LINE
  5
92
  8
回13-記事
  6
CONTINUOUS
 62
     7
 10
4590.025033553038
 20
-473.8663365394835
 30
0.0
 11
4696.790227946332
 21
-473.8663365394835
 31
0.0
  0
LINE
  5
93
  8
回13-記事
  6
CONTINUOUS
 62
     7
 10
4590.025033553038
 20
-465.5330032061502
 30
0.0
 11
4696.790227946332
 21
-465.5330032061502
 31
0.0
  0
LINE
  5
94
  8
回13-記事
  6
CONTINUOUS
 62
     7
 10
4590.025033553038
 20
-457.1996698728169
 30
0.0
 11
4696.790227946332
 21
-457.1996698728169
 31
0.0
  0
TEXT
  5
95
  8
回13-記事
  6
CONTINUOUS
 62
     7
 10
4594.275099454008
 20
-455.8829639431526
 30
0.0
 40
4.999999999999999
  1
1
  0
LINE
  5
96
  8
回13-記事
  6
CONTINUOUS
 62
     7
 10
4590.025033553038
 20
-448.8663365394835
 30
0.0
 11
4696.790227946332
 21
-448.8663365394835
 31
0.0
  0
LINE
  5
97
  8
回13-記事
  6
CONTINUOUS
 62
     7
 10
4601.392079820902
 20
-448.8663365394835
 30
0.0
 11
4601.392079820905
 21
-523.8663365394836
 31
0.0
  0
LINE
  5
98
  8
回13-記事
  6
CONTINUOUS
 62
     7
 10
4590.025033553038
 20
-448.8663365394835
 30
0.0
 11
4590.025033553038
 21
-523.8663365394836
 31
0.0
  0
TEXT
  5
99
  8
回91-枠英1
 10
4633.811913979771
 20
-563.2715884081439
 30
0.0
 40
5.0
  1
Oct/13/2023
  0
TEXT
  5
9D
  8
回91-枠英1
 10
4642.429825097879
 20
-554.1006058880824
 30
0.0
 40
3.599999999999999
  1
DATE
  0
LINE
  5
9E
  8
回91-枠英1
 10
4610.428012087079
 20
-549.1357278432254
 30
0.0
 11
4610.428012087079
 21
-585.1357278432255
 31
0.0
  0
TEXT
  5
9F
  8
回91-枠英1
 10
4565.2049289015
 20
-572.2433842157346
 30
0.0
 40
3.599999999999999
  1
TYPE
  0
LINE
  5
A0
  8
回91-枠英1
 10
4532.428012087079
 20
-549.1357278432254
 30
0.0
 11
4532.428012087079
 21
-585.1357278432255
 31
0.0
  0
TEXT
  5
A1
  8
回91-枠英1
 10
4548.466908479644
 20
-584.1457383125811
 30
0.0
 40
3.599999999999999
  1
DIMENSIONAL DRAWING
  0
TEXT
  5
A2
  8
回91-枠英1
 10
4545.130949467249
 20
-578.1358502273163
 30
0.0
 40
3.599999999999999
  1
STANDARD TOUCHSCREEN
  0
TEXT
  5
A3
  8
回91-枠英1
 10
4546.572424187317
 20
-564.3089219272773
 30
0.0
 40
6.0
  1
FST-T190C110A
  0
TEXT
  5
A4
  8
回91-枠英1
 10
4565.702712167404
 20
-554.1006058880824
 30
0.0
 40
3.599999999999999
  1
PART No.
  0
LINE
  5
A5
  8
回91-枠英1
 10
4536.028012087079
 20
-579.1357278432254
 30
0.0
 11
4606.828012087079
 21
-579.1357278432254
 31
0.0
  0
TEXT
  5
A6
  8
回91-枠英1
 10
4633.479437701054
 20
-578.5855002333804
 30
0.0
 40
6.0
  1
DMC Co., Ltd.
  0
LINE
  5
A7
  8
回91-枠英1
 10
4532.428012087079
 20
-573.135727843225
 30
0.0
 11
4610.428012087079
 21
-573.135727843225
 31
0.0
  0
LINE
  5
A8
  8
回91-枠英1
 10
4532.428012087079
 20
-549.1357278432254
 30
0.0
 11
4700.428012087079
 21
-549.1357278432254
 31
0.0
  0
LINE
  5
A9
  8
回91-枠英1
 10
4532.428012087079
 20
-567.135727843225
 30
0.0
 11
4700.428012087079
 21
-567.135727843225
 31
0.0
  0
LINE
  5
AA
  8
回91-枠英1
 10
4532.428012087079
 20
-555.1357278432255
 30
0.0
 11
4700.428012087079
 21
-555.1357278432255
 31
0.0
  0
TEXT
  5
AB
  8
回91-枠英1
 10
4701.832433090738
 20
-92.34704054736619
 30
0.0
 40
4.0
  1
1
  0
TEXT
  5
AC
  8
回91-枠英1
 10
4659.157397392729
 20
-44.76330471717426
 30
0.0
 40
4.0
  1
J
  0
LINE
  5
AD
  8
回91-枠英1
 10
4705.428012087079
 20
-135.1357278432255
 30
0.0
 11
4700.428012087079
 21
-135.1357278432255
 31
0.0
  0
TEXT
  5
AE
  8
回91-枠英1
 10
4701.530934387436
 20
-182.3470405473662
 30
0.0
 40
4.0
  1
2
  0
LINE
  5
AF
  8
回91-枠英1
 10
4705.428012087079
 20
-225.1357278432255
 30
0.0
 11
4700.428012087079
 21
-225.1357278432255
 31
0.0
  0
TEXT
  5
B0
  8
回91-枠英1
 10
4701.525453543234
 20
-272.3470405473662
 30
0.0
 40
4.0
  1
3
  0
LINE
  5
B1
  8
回91-枠英1
 10
4705.428012087079
 20
-315.1357278432255
 30
0.0
 11
4700.428012087079
 21
-315.1357278432255
 31
0.0
  0
TEXT
  5
B2
  8
回91-枠英1
 10
4701.452361423153
 20
-362.3470405473662
 30
0.0
 40
4.0
  1
4
  0
LINE
  5
B3
  8
回91-枠英1
 10
4620.428012087079
 20
-40.13572784322548
 30
0.0
 11
4620.428012087079
 21
-45.13572784322548
 31
0.0
  0
TEXT
  5
B4
  8
回91-枠英1
 10
4579.157397392729
 20
-44.76330471717426
 30
0.0
 40
4.0
  1
I
  0
LINE
  5
B5
  8
回91-枠英1
 10
4540.428012087079
 20
-40.13572784322548
 30
0.0
 11
4540.428012087079
 21
-45.13572784322548
 31
0.0
  0
TEXT
  5
B6
  8
回91-枠英1
 10
4499.157397392729
 20
-44.76330471717426
 30
0.0
 40
4.0
  1
H
  0
LINE
  5
B7
  8
回91-枠英1
 10
4460.428012087079
 20
-40.13572784322548
 30
0.0
 11
4460.428012087079
 21
-45.13572784322548
 31
0.0
  0
TEXT
  5
B8
  8
回91-枠英1
 10
4419.157397392729
 20
-44.76330471717426
 30
0.0
 40
4.0
  1
G
  0
LINE
  5
B9
  8
回91-枠英1
 10
4705.428012087079
 20
-405.1357278432254
 30
0.0
 11
4700.428012087079
 21
-405.1357278432254
 31
0.0
  0
TEXT
  5
BA
  8
回91-枠英1
 10
4701.452361423153
 20
-452.3470405473662
 30
0.0
 40
4.0
  1
5
  0
LINE
  5
BB
  8
回91-枠英1
 10
4705.428012087079
 20
-495.1357278432254
 30
0.0
 11
4700.428012087079
 21
-495.1357278432254
 31
0.0
  0
TEXT
  5
BC
  8
回91-枠英1
 10
4701.452361423153
 20
-542.3470405473661
 30
0.0
 40
4.0
  1
6
  0
TEXT
  5
BD
  8
回91-枠英1
 10
4659.157397392729
 20
-589.7633047171742
 30
0.0
 40
4.0
  1
J
  0
LINE
  5
BE
  8
回91-枠英1
 10
4620.428012087079
 20
-585.1357278432255
 30
0.0
 11
4620.428012087079
 21
-590.1357278432254
 31
0.0
  0
TEXT
  5
BF
  8
回91-枠英1
 10
4579.157397392729
 20
-589.7633047171742
 30
0.0
 40
4.0
  1
I
  0
LINE
  5
C0
  8
回91-枠英1
 10
4540.428012087079
 20
-585.1357278432255
 30
0.0
 11
4540.428012087079
 21
-590.1357278432254
 31
0.0
  0
TEXT
  5
C1
  8
回91-枠英1
 10
4499.157397392729
 20
-589.7633047171742
 30
0.0
 40
4.0
  1
H
  0
LINE
  5
C2
  8
回91-枠英1
 10
4460.428012087079
 20
-585.1357278432255
 30
0.0
 11
4460.428012087079
 21
-590.1357278432254
 31
0.0
  0
TEXT
  5
C3
  8
回91-枠英1
 10
4419.157397392729
 20
-589.7633047171742
 30
0.0
 40
4.0
  1
G
  0
LINE
  5
C4
  8
回91-枠英1
 10
4700.428012087079
 20
-45.13572784322548
 30
0.0
 11
4700.428012087079
 21
-585.1357278432255
 31
0.0
  0
LINE
  5
C5
  8
回91-枠英1
 10
4705.428012087079
 20
-590.1357278432254
 30
0.0
 11
4705.428012087079
 21
-40.13572784322548
 31
0.0
  0
LINE
  5
C6
  8
回91-枠英1
 10
4380.428012087079
 20
-40.13572784322548
 30
0.0
 11
4380.428012087079
 21
-45.13572784322548
 31
0.0
  0
TEXT
  5
C7
  8
回91-枠英1
 10
4339.15739739273
 20
-44.76330471717426
 30
0.0
 40
4.0
  1
F
  0
LINE
  5
C8
  8
回91-枠英1
 10
4300.428012087079
 20
-40.13572784322548
 30
0.0
 11
4300.428012087079
 21
-45.13572784322548
 31
0.0
  0
TEXT
  5
C9
  8
回91-枠英1
 10
4259.157397392729
 20
-44.76330471717426
 30
0.0
 40
4.0
  1
E
  0
LINE
  5
CA
  8
回91-枠英1
 10
4220.428012087078
 20
-40.13572784322548
 30
0.0
 11
4220.428012087078
 21
-45.13572784322548
 31
0.0
  0
TEXT
  5
CB
  8
回91-枠英1
 10
4179.15739739273
 20
-44.76330471717426
 30
0.0
 40
4.0
  1
D
  0
LINE
  5
CC
  8
回91-枠英1
 10
4140.428012087078
 20
-40.13572784322548
 30
0.0
 11
4140.428012087078
 21
-45.13572784322548
 31
0.0
  0
TEXT
  5
CD
  8
回91-枠英1
 10
4099.157397392729
 20
-44.76330471717426
 30
0.0
 40
4.0
  1
C
  0
LINE
  5
CE
  8
回91-枠英1
 10
4060.428012087078
 20
-40.13572784322548
 30
0.0
 11
4060.428012087078
 21
-45.13572784322548
 31
0.0
  0
TEXT
  5
CF
  8
回91-枠英1
 10
4019.157397392731
 20
-44.76330471717426
 30
0.0
 40
4.0
  1
B
  0
LINE
  5
D0
  8
回91-枠英1
 10
3980.428012087078
 20
-40.13572784322548
 30
0.0
 11
3980.428012087078
 21
-45.13572784322548
 31
0.0
  0
TEXT
  5
D1
  8
回91-枠英1
 10
3939.15739739273
 20
-44.76330471717426
 30
0.0
 40
4.0
  1
A
  0
TEXT
  5
D2
  8
回91-枠英1
 10
3896.832433090738
 20
-92.34704054736619
 30
0.0
 40
4.0
  1
1
  0
LINE
  5
D3
  8
回91-枠英1
 10
3900.428012087078
 20
-135.1357278432255
 30
0.0
 11
3895.428012087079
 21
-135.1357278432255
 31
0.0
  0
TEXT
  5
D4
  8
回91-枠英1
 10
3896.530934387436
 20
-182.3470405473662
 30
0.0
 40
4.0
  1
2
  0
LINE
  5
D5
  8
回91-枠英1
 10
3900.428012087078
 20
-225.1357278432255
 30
0.0
 11
3895.428012087079
 21
-225.1357278432255
 31
0.0
  0
TEXT
  5
D6
  8
回91-枠英1
 10
3896.525453543235
 20
-272.3470405473662
 30
0.0
 40
4.0
  1
3
  0
LINE
  5
D7
  8
回91-枠英1
 10
3900.428012087078
 20
-315.1357278432255
 30
0.0
 11
3895.428012087079
 21
-315.1357278432255
 31
0.0
  0
TEXT
  5
D8
  8
回91-枠英1
 10
3896.452361423154
 20
-362.3470405473662
 30
0.0
 40
4.0
  1
4
  0
LINE
  5
D9
  8
回91-枠英1
 10
4380.428012087079
 20
-585.1357278432255
 30
0.0
 11
4380.428012087079
 21
-590.1357278432254
 31
0.0
  0
TEXT
  5
DA
  8
回91-枠英1
 10
4339.15739739273
 20
-589.7633047171742
 30
0.0
 40
4.0
  1
F
  0
LINE
  5
DB
  8
回91-枠英1
 10
4300.428012087079
 20
-585.1357278432255
 30
0.0
 11
4300.428012087079
 21
-590.1357278432254
 31
0.0
  0
TEXT
  5
DC
  8
回91-枠英1
 10
4259.157397392729
 20
-589.7633047171742
 30
0.0
 40
4.0
  1
E
  0
LINE
  5
DD
  8
回91-枠英1
 10
4220.428012087078
 20
-585.1357278432255
 30
0.0
 11
4220.428012087078
 21
-590.1357278432254
 31
0.0
  0
TEXT
  5
DE
  8
回91-枠英1
 10
4179.15739739273
 20
-589.7633047171742
 30
0.0
 40
4.0
  1
D
  0
LINE
  5
DF
  8
回91-枠英1
 10
4140.428012087078
 20
-585.1357278432255
 30
0.0
 11
4140.428012087078
 21
-590.1357278432254
 31
0.0
  0
TEXT
  5
E0
  8
回91-枠英1
 10
4099.157397392729
 20
-589.7633047171742
 30
0.0
 40
4.0
  1
C
  0
LINE
  5
E1
  8
回91-枠英1
 10
4060.428012087078
 20
-585.1357278432255
 30
0.0
 11
4060.428012087078
 21
-590.1357278432254
 31
0.0
  0
TEXT
  5
E2
  8
回91-枠英1
 10
4019.157397392731
 20
-589.7633047171742
 30
0.0
 40
4.0
  1
B
  0
LINE
  5
E3
  8
回91-枠英1
 10
3900.428012087078
 20
-405.1357278432254
 30
0.0
 11
3895.428012087079
 21
-405.1357278432254
 31
0.0
  0
TEXT
  5
E4
  8
回91-枠英1
 10
3896.452361423154
 20
-452.3470405473662
 30
0.0
 40
4.0
  1
5
  0
LINE
  5
E5
  8
回91-枠英1
 10
3900.428012087078
 20
-495.1357278432254
 30
0.0
 11
3895.428012087079
 21
-495.1357278432254
 31
0.0
  0
LINE
  5
E6
  8
回91-枠英1
 10
3980.428012087078
 20
-585.1357278432255
 30
0.0
 11
3980.428012087078
 21
-590.1357278432254
 31
0.0
  0
TEXT
  5
E7
  8
回91-枠英1
 10
3939.15739739273
 20
-589.7633047171742
 30
0.0
 40
4.0
  1
A
  0
TEXT
  5
E8
  8
回91-枠英1
 10
3896.452361423154
 20
-542.3470405473661
 30
0.0
 40
4.0
  1
6
  0
LINE
  5
E9
  8
回91-枠英1
 10
3900.428012087078
 20
-45.13572784322548
 30
0.0
 11
3900.428012087078
 21
-585.1357278432255
 31
0.0
  0
LINE
  5
EA
  8
回91-枠英1
 10
3895.428012087079
 20
-590.1357278432254
 30
0.0
 11
3895.428012087079
 21
-40.13572784322548
 31
0.0
  0
LINE
  5
EB
  8
回91-枠英1
 10
3900.428012087078
 20
-585.1357278432255
 30
0.0
 11
4700.428012087079
 21
-585.1357278432255
 31
0.0
  0
LINE
  5
EC
  8
回91-枠英1
 10
4705.428012087079
 20
-590.1357278432254
 30
0.0
 11
3895.428012087079
 21
-590.1357278432254
 31
0.0
  0
LINE
  5
ED
  8
回91-枠英1
 10
3900.428012087078
 20
-45.13572784322548
 30
0.0
 11
4700.428012087079
 21
-45.13572784322548
 31
0.0
  0
LINE
  5
EE
  8
回91-枠英1
 10
4705.428012087079
 20
-40.13572784322548
 30
0.0
 11
3895.428012087079
 21
-40.13572784322548
 31
0.0
  0
TEXT
  5
EF
  8
回13-記事
  6
CONTINUOUS
 62
     5
 10
4609.001849337304
 20
-330.5077625593195
 30
0.0
 40
8.189999999999999
  1
5
  0
LINE
  5
F0
  8
回13-記事
  6
CONTINUOUS
 62
     5
 10
4617.793342680271
 20
-326.7533587571821
 30
0.0
 11
4647.400185395269
 21
-326.7533587571821
 31
0.0
  0
TEXT
  5
F1
  8
回13-記事
  6
CONTINUOUS
 62
     5
 10
4652.172466292004
 20
-329.3918094232209
 30
0.0
 40
7.166249999999998
  1
LL
  0
TEXT
  5
F2
  8
回13-記事
  6
CONTINUOUS
 62
     5
 10
4609.001849337304
 20
-309.0473703167191
 30
0.0
 40
8.189999999999999
  1
4
  0
LINE
  5
F3
  8
回13-記事
  6
CONTINUOUS
 62
     5
 10
4617.793342680271
 20
-305.2929665145817
 30
0.0
 11
4647.400185395269
 21
-305.2929665145817
 31
0.0
  0
TEXT
  5
F4
  8
回13-記事
  6
CONTINUOUS
 62
     5
 10
4652.172466292004
 20
-307.9314171806205
 30
0.0
 40
7.166249999999998
  1
UL
  0
TEXT
  5
F5
  8
回13-記事
  6
CONTINUOUS
 62
     5
 10
4609.001849337304
 20
-287.5869780741187
 30
0.0
 40
8.189999999999999
  1
3
  0
LINE
  5
F6
  8
回13-記事
  6
CONTINUOUS
 62
     5
 10
4617.793342680271
 20
-283.8325742719813
 30
0.0
 11
4647.400185395269
 21
-283.8325742719813
 31
0.0
  0
TEXT
  5
F7
  8
回13-記事
  6
CONTINUOUS
 62
     5
 10
4652.172466292004
 20
-286.4710249380202
 30
0.0
 40
7.166249999999998
  1
SENSE
  0
TEXT
  5
F8
  8
回13-記事
  6
CONTINUOUS
 62
     5
 10
4609.001849337304
 20
-266.1265858315184
 30
0.0
 40
8.189999999999999
  1
2
  0
LINE
  5
F9
  8
回13-記事
  6
CONTINUOUS
 62
     5
 10
4617.793342680271
 20
-262.3721820293809
 30
0.0
 11
4647.400185395269
 21
-262.3721820293809
 31
0.0
  0
TEXT
  5
FA
  8
回13-記事
  6
CONTINUOUS
 62
     5
 10
4652.172466292004
 20
-265.0106326954198
 30
0.0
 40
7.166249999999998
  1
LR
  0
TEXT
  5
FB
  8
回13-記事
  6
CONTINUOUS
 62
     5
 10
4609.001849337304
 20
-244.666193588918
 30
0.0
 40
8.189999999999999
  1
1
  0
LINE
  5
FC
  8
回13-記事
  6
CONTINUOUS
 62
     5
 10
4617.793342680271
 20
-240.9117897867806
 30
0.0
 11
4647.400185395269
 21
-240.9117897867806
 31
0.0
  0
TEXT
  5
FD
  8
回13-記事
  6
CONTINUOUS
 62
     5
 10
4584.11436145377
 20
-198.7897621947587
 30
0.0
 40
10.5
  1
PIN ASSIGNMENT
  0
TEXT
  5
FE
  8
回13-記事
  6
CONTINUOUS
 62
     5
 10
4652.172466292004
 20
-243.5502404528194
 30
0.0
 40
7.166249999999998
  1
UR
  0
DIMENSION
  5
FF
  8
回12-寸法
 62
     7
  2
*D20
 10
4480.183311063184
 20
-495.6989839349438
 30
0.0
 11
4477.483311063184
 21
-521.6497713365178
 31
0.0
 70
     0
  1
2.1±{\H0.75x;0.2} [0.083±{\H0.75x;0.008}]
  3
DMC
 13
4466.843271002402
 23
-489.9756329233618
 33
0.0
 14
4467.343271002401
 24
-495.6989839349438
 34
0.0
 50
90.0
1001
ACAD
1000
DSTYLE
1002
{
1070
   140
1040
4.0
1070
   170
1070
     1
1070
   371
1070
     9
1070
   372
1070
     9
1002
}
  0
CIRCLE
  5
10F
  8
回13-記事
 62
     7
 10
4454.137511052824
 20
-481.6478762509413
 30
0.0
 40
2.205687167359428
  0
CIRCLE
  5
110
  8
回13-記事
 62
     7
 10
4273.162957442928
 20
-503.6541648070178
 30
0.0
 40
2.205687167359428
  0
CIRCLE
  5
111
  8
回13-記事
 62
     7
 10
4284.441574071941
 20
-479.8296676034023
 30
0.0
 40
2.205687167359428
  0
CIRCLE
  5
112
  8
回13-記事
 62
     7
 10
4074.620570200346
 20
-504.7935570862255
 30
0.0
 40
2.205687167359428
  0
CIRCLE
  5
113
  8
回13-記事
 62
     7
 10
4059.953891545872
 20
-504.6395027758926
 30
0.0
 40
2.205687167359428
  0
CIRCLE
  5
114
  8
回13-記事
 62
     7
 10
4041.980405567072
 20
-484.7112911144968
 30
0.0
 40
2.205687167359428
  0
CIRCLE
  5
115
  8
回13-記事
 62
     7
 10
3992.981734624995
 20
-499.483438142418
 30
0.0
 40
2.205687167359428
  0
CIRCLE
  5
116
  8
回13-記事
 62
     7
 10
3970.166661553763
 20
-484.4532429023356
 30
0.0
 40
2.205687167359428
  0
CIRCLE
  5
117
  8
回13-記事
 62
     7
 10
3948.356612914426
 20
-500.466937183216
 30
0.0
 40
2.205687167359428
  0
DIMENSION
  5
118
  8
回12-寸法
 62
     7
  2
*D19
 10
4061.563271002402
 20
-482.6439316747622
 30
0.0
 11
4079.461696199252
 21
-479.9439316747622
 31
0.0
 70
     0
  1
(<>)
  3
DMC
 13
4061.063271002402
 23
-492.4830599392561
 33
0.0
 14
4061.563271002402
 24
-489.9756329233618
 34
0.0
1001
ACAD
1000
DSTYLE
1002
{
1070
   140
1040
4.0
1070
   170
1070
     1
1070
   371
1070
     9
1070
   372
1070
     9
1002
}
  0
DIMENSION
  5
127
  8
回12-寸法
 62
     7
  2
*D18
 10
4467.343271002401
 20
-477.4342333934422
 30
0.0
 11
4448.944845805551
 21
-477.4342333934422
 31
0.0
 70
   128
  1
(<>)
  3
DMC
 13
4466.843271002402
 23
-489.9756329233618
 33
0.0
 14
4467.343271002401
 24
-492.4830599392561
 34
0.0
1001
ACAD
1000
DSTYLE
1002
{
1070
   140
1040
4.0
1070
   170
1070
     1
1070
   371
1070
     9
1070
   372
1070
     9
1002
}
  0
DIMENSION
  5
136
  8
回12-寸法
 62
     7
  2
*D17
 10
3937.543698402289
 20
-127.2258273776607
 30
0.0
 11
3934.843698402289
 21
-204.76582737766
 31
0.0
 70
     0
  1
(<>)
  3
DMC
 13
3959.818271002402
 23
-282.3058273776606
 33
0.0
 14
4061.063271002402
 24
-127.2258273776607
 34
0.0
 50
90.0
1001
ACAD
1000
DSTYLE
1002
{
1070
   140
1040
4.0
1070
   170
1070
     1
1070
   371
1070
     9
1070
   372
1070
     9
1002
}
  0
DIMENSION
  5
143
  8
回12-寸法
 62
     7
  2
*D16
 10
3937.543698402289
 20
-297.5458273776607
 30
0.0
 11
3934.843698402289
 21
-325.1258273776601
 31
0.0
 70
     0
  3
DMC
 13
3959.818271002402
 23
-282.3058273776606
 33
0.0
 14
3959.818271002402
 24
-297.5458273776607
 34
0.0
 50
90.0
1001
ACAD
1000
DSTYLE
1002
{
1070
    47
1040
0.2
1070
   147
1040
0.5
1070
    48
1040
0.2
1070
    72
1070
     0
1070
    71
1070
     1
1070
   140
1040
4.0
1070
   170
1070
     1
1070
   371
1070
     9
1070
   372
1070
     9
1002
}
  0
DIMENSION
  5
152
  8
回12-寸法
 62
     7
  2
*D15
 10
4061.063271002402
 20
-332.6410399303218
 30
0.0
 11
4006.063271002402
 21
-329.9410399303218
 31
0.0
 70
     0
  3
DMC
 13
3951.063271002402
 23
-296.1996273776609
 33
0.0
 14
4061.063271002402
 24
-298.2229517221286
 34
0.0
1001
ACAD
1000
DSTYLE
1002
{
1070
    47
1040
1.0
1070
   147
1040
0.5
1070
    48
1040
1.0
1070
    72
1070
     0
1070
    71
1070
     1
1070
   140
1040
4.0
1070
   170
1070
     1
1070
   371
1070
     9
1070
   372
1070
     9
1002
}
  0
DIMENSION
  5
15F
  8
回12-寸法
 62
     7
  2
*D14
 10
4527.524961311629
 20
-127.2258273776607
 30
0.0
 11
4524.82496131163
 21
-289.9258273776601
 31
0.0
 70
     0
  3
DMC
 13
4467.343271002401
 23
-452.6258273776608
 33
0.0
 14
4467.343271002401
 24
-127.2258273776607
 34
0.0
 50
90.0
1001
ACAD
1000
DSTYLE
1002
{
1070
    47
1040
0.3
1070
   147
1040
0.5
1070
    48
1040
0.3
1070
    72
1070
     0
1070
    71
1070
     1
1070
   140
1040
4.0
1070
   170
1070
     1
1070
   371
1070
     9
1070
   372
1070
     9
1002
}
  0
DIMENSION
  5
16C
  8
回12-寸法
 62
     7
  2
*D13
 10
4518.099369766637
 20
-452.6258273776609
 30
0.0
 11
4515.398403048597
 21
-472.1312412354991
 31
0.0
 70
     0
  1
(<>)
  3
DMC
 13
4459.553271002401
 23
-443.8358273776609
 33
0.0
 14
4467.343271002401
 24
-452.6258273776608
 34
0.0
 50
90.0
1001
ACAD
1000
DSTYLE
1002
{
1070
   140
1040
4.0
1070
   170
1070
     1
1070
   371
1070
     9
1070
   372
1070
     9
1002
}
  0
DIMENSION
  5
17B
  8
回12-寸法
 62
     7
  2
*D12
 10
4518.099369766637
 20
-443.835827377661
 30
0.0
 11
4515.398403048597
 21
-289.9258273776602
 31
0.0
 70
     0
  3
DMC
 13
4459.553271002401
 23
-136.0158273776608
 33
0.0
 14
4459.553271002401
 24
-443.8358273776609
 34
0.0
 50
90.0
1001
ACAD
1000
DSTYLE
1002
{
1070
   140
1040
4.0
1070
   170
1070
     1
1070
   371
1070
     9
1070
   372
1070
     9
1002
}
  0
DIMENSION
  5
188
  8
回12-寸法
 62
     7
  2
*D11
 10
4510.045630163284
 20
-452.6258273776609
 30
0.0
 11
4507.342730009166
 21
-471.9452185574762
 31
0.0
 70
     0
  1
(<>)
  3
DMC
 13
4458.453271002401
 23
-442.7358273776609
 33
0.0
 14
4467.343271002401
 24
-452.6258273776608
 34
0.0
 50
90.0
1001
ACAD
1000
DSTYLE
1002
{
1070
   140
1040
4.0
1070
   170
1070
     1
1070
   371
1070
     9
1070
   372
1070
     9
1002
}
  0
DIMENSION
  5
197
  8
回12-寸法
 62
     7
  2
*D10
 10
4510.045630163284
 20
-442.735827377661
 30
0.0
 11
4507.345630163285
 21
-289.9258273776602
 31
0.0
 70
     0
  1
<> (ACTIVE AREA)
  3
DMC
 13
4458.453271002401
 23
-137.1158273776608
 33
0.0
 14
4458.453271002401
 24
-442.7358273776609
 34
0.0
 50
90.0
1001
ACAD
1000
DSTYLE
1002
{
1070
   140
1040
4.0
1070
   170
1070
     1
1070
   371
1070
     9
1070
   372
1070
     9
1002
}
  0
DIMENSION
  5
1A4
  8
回12-寸法
 62
     7
  2
*D9
 10
4510.045630163284
 20
-127.2258273776607
 30
0.0
 11
4507.344663445245
 21
-109.4290073432083
 31
0.0
 70
     0
  3
DMC
 13
4458.453271002401
 23
-137.1158273776608
 33
0.0
 14
4467.343271002401
 24
-127.2258273776607
 34
0.0
 50
90.0
1001
ACAD
1000
DSTYLE
1002
{
1070
   140
1040
4.0
1070
   170
1070
     1
1070
   371
1070
     9
1070
   372
1070
     9
1002
}
  0
DIMENSION
  5
1B3
  8
回12-寸法
 62
     7
  2
*D8
 10
4518.099369766637
 20
-127.2258273776607
 30
0.0
 11
4515.399369766636
 21
-109.3188387166714
 31
0.0
 70
     0
  3
DMC
 13
4459.553271002401
 23
-136.0158273776608
 33
0.0
 14
4467.343271002401
 24
-127.2258273776607
 34
0.0
 50
90.0
1001
ACAD
1000
DSTYLE
1002
{
1070
   140
1040
4.0
1070
   170
1070
     1
1070
   371
1070
     9
1070
   372
1070
     9
1002
}
  0
DIMENSION
  5
1C2
  8
回12-寸法
 62
     7
  2
*D7
 10
4467.343271002401
 20
-89.7834323863516
 30
0.0
 11
4485.050259663391
 21
-87.08343238635158
 31
0.0
 70
     0
  3
DMC
 13
4459.553271002401
 23
-136.0158273776608
 33
0.0
 14
4467.343271002401
 24
-127.2258273776607
 34
0.0
1001
ACAD
1000
DSTYLE
1002
{
1070
   140
1040
4.0
1070
   170
1070
     1
1070
   371
1070
     9
1070
   372
1070
     9
1002
}
  0
DIMENSION
  5
1D1
  8
回12-寸法
 62
     7
  2
*D6
 10
4467.343271002401
 20
-102.0820120381876
 30
0.0
 11
4485.050259663391
 21
-99.3820120381876
 31
0.0
 70
     0
  3
DMC
 13
4458.453271002401
 23
-137.1158273776608
 33
0.0
 14
4467.343271002401
 24
-127.2258273776607
 34
0.0
1001
ACAD
1000
DSTYLE
1002
{
1070
   140
1040
4.0
1070
   170
1070
     1
1070
   371
1070
     9
1070
   372
1070
     9
1002
}
  0
DIMENSION
  5
1E0
  8
回12-寸法
 62
     7
  2
*D5
 10
4458.453271002401
 20
-102.0820120381876
 30
0.0
 11
4268.013271002401
 21
-99.38007860210884
 31
0.0
 70
     0
  1
<> (ACTIVE AREA)
  3
DMC
 13
4077.573271002401
 23
-137.1158273776608
 33
0.0
 14
4458.453271002401
 24
-137.1158273776608
 34
0.0
1001
ACAD
1000
DSTYLE
1002
{
1070
   140
1040
4.0
1070
   170
1070
     1
1070
   371
1070
     9
1070
   372
1070
     9
1002
}
  0
DIMENSION
  5
1ED
  8
回12-寸法
 62
     7
  2
*D4
 10
4076.473271002401
 20
-89.7834323863516
 30
0.0
 11
4268.013271002401
 21
-87.08343238635158
 31
0.0
 70
     0
  3
DMC
 13
4459.553271002401
 23
-136.0158273776608
 33
0.0
 14
4076.473271002401
 24
-136.0158273776608
 34
0.0
1001
ACAD
1000
DSTYLE
1002
{
1070
   140
1040
4.0
1070
   170
1070
     1
1070
   371
1070
     9
1070
   372
1070
     9
1002
}
  0
DIMENSION
  5
1FA
  8
回12-寸法
 62
     7
  2
*D3
 10
4467.343271002401
 20
-77.56700993709443
 30
0.0
 11
4264.203271002401
 21
-74.86700993709444
 31
0.0
 70
     0
  3
DMC
 13
4061.063271002402
 23
-127.2258273776607
 33
0.0
 14
4467.343271002401
 24
-127.2258273776607
 34
0.0
1001
ACAD
1000
DSTYLE
1002
{
1070
    47
1040
0.3
1070
   147
1040
0.5
1070
    48
1040
0.3
1070
    72
1070
     0
1070
    71
1070
     1
1070
   140
1040
4.0
1070
   170
1070
     1
1070
   371
1070
     9
1070
   372
1070
     9
1002
}
  0
DIMENSION
  5
207
  8
回12-寸法
 62
     7
  2
*D2
 10
4061.063271002402
 20
-102.0820120381876
 30
0.0
 11
4041.164845805552
 21
-99.3820120381876
 31
0.0
 70
     0
  1
(<>)
  3
DMC
 13
4077.573271002401
 23
-137.1158273776608
 33
0.0
 14
4061.063271002402
 24
-127.2258273776607
 34
0.0
1001
ACAD
1000
DSTYLE
1002
{
1070
   140
1040
4.0
1070
   170
1070
     1
1070
   371
1070
     9
1070
   372
1070
     9
1002
}
  0
DIMENSION
  5
216
  8
回12-寸法
 62
     7
  2
*D1
 10
4061.063271002402
 20
-89.7834323863516
 30
0.0
 11
4040.964845805552
 21
-87.08343238635158
 31
0.0
 70
     0
  1
(<>)
  3
DMC
 13
4076.473271002401
 23
-136.0158273776608
 33
0.0
 14
4061.063271002402
 24
-127.2258273776607
 34
0.0
1001
ACAD
1000
DSTYLE
1002
{
1070
   140
1040
4.0
1070
   170
1070
     1
1070
   371
1070
     9
1070
   372
1070
     9
1002
}
  0
TEXT
  5
225
  8
回12-寸法
 62
     7
 10
4523.908287438064
 20
-123.6106556522245
 30
0.0
 40
4.0
  1
(Insulation
 50
90.0
1001
ACAD
1000
MTEXTBEGIN
1070
    73
1070
     1
1070
    44
1040
1.0
1070
    74
1070
     0
1000
MTEXTEND
  0
TEXT
  5
226
  8
回12-寸法
 62
     7
 10
4500.185269720643
 20
-89.16272434102763
 30
0.0
 40
4.0
  1
(Insulation Area)
1001
ACAD
1000
MTEXTBEGIN
1070
    73
1070
     1
1070
    44
1040
1.0
1070
    74
1070
     0
1000
MTEXTEND
  0
TEXT
  5
227
  8
回12-寸法
 62
     7
 10
3984.327002996903
 20
-89.09200488865561
 30
0.0
 40
4.0
  1
(Insulation Area)
1001
ACAD
1000
MTEXTBEGIN
1070
    73
1070
     1
1070
    44
1040
1.0
1070
    74
1070
     0
1000
MTEXTEND
  0
TEXT
  5
228
  8
回13-記事
 62
     5
 10
4469.50377183932
 20
-428.2965370691134
 30
0.0
 40
4.0
  1
FST-190C
1001
ACAD
1000
MTEXTBEGIN
1070
    73
1070
     1
1070
    44
1040
1.0
1070
    74
1070
     0
1000
MTEXTEND
  0
TEXT
  5
229
  8
回13-記事
 62
     5
 10
4470.006753392716
 20
-422.6451244065982
 30
0.0
 40
4.0
  1
PART No.
1001
ACAD
1000
MTEXTBEGIN
1070
    73
1070
     1
1070
    44
1040
1.0
1070
    74
1070
     0
1000
MTEXTEND
  0
INSERT
  5
22A
  8
回13-記事
 62
     3
 66
     1
  2
*X21
 10
0.0
 20
0.0
 30
0.0
  0
SEQEND
  5
321
  8
回13-記事
 62
     7
  0
LINE
  5
22B
  8
回13-記事
 62
     7
 10
3961.017177254478
 20
-487.9592193602262
 30
0.0
 11
3961.105912041702
 21
-488.7455753751832
 31
0.0
  0
LINE
  5
22C
  8
回13-記事
 62
     7
 10
3960.20645911779
 20
-487.9977927375389
 30
0.0
 11
3961.017177254478
 21
-487.9592193602262
 31
0.0
  0
LINE
  5
22D
  8
回13-記事
 62
     7
 10
3958.541271139679
 20
-488.9202750353107
 30
0.0
 11
3960.20645911779
 21
-487.9977927375389
 31
0.0
  0
LINE
  5
22E
  8
回13-記事
 62
     7
 10
3960.225068988916
 20
-489.5569209665283
 30
0.0
 11
3960.173275035151
 21
-488.7965709337477
 31
0.0
  0
LINE
  5
22F
  8
回13-記事
 62
     7
 10
3959.789806268158
 20
-489.5991047755944
 30
0.0
 11
3959.738012314392
 21
-488.8387547428134
 31
0.0
  0
LINE
  5
230
  8
回13-記事
 62
     7
 10
3956.907309719515
 20
-489.8784640642306
 30
0.0
 11
3963.522454190569
 21
-489.2373524366971
 31
0.0
  0
ARC
  5
231
  8
回13-記事
 62
     7
 10
3956.907309719515
 20
-490.1484640642306
 30
0.0
 40
0.2700000000000102
 50
90.0
 51
270.0
  0
ARC
  5
232
  8
回13-記事
 62
     7
 10
3963.841654849427
 20
-487.4100104007729
 30
0.0
 40
0.54
 50
45.00000000000881
 51
134.9999999999912
  0
LINE
  5
233
  8
回13-記事
 62
     7
 10
3963.459817187587
 20
-487.0281727389321
 30
0.0
 11
3962.543888895851
 21
-488.6476224541747
 31
0.0
  0
LINE
  5
234
  8
回13-記事
 62
     7
 10
3965.21053702463
 20
-488.0152172479185
 30
0.0
 11
3964.223492511268
 21
-487.0281727389321
 31
0.0
  0
LINE
  5
235
  8
回13-記事
 62
     7
 10
3966.088068787991
 20
-490.4184640642307
 30
0.0
 11
3966.088068787991
 21
-488.0152172479185
 31
0.0
  0
LINE
  5
236
  8
回13-記事
 62
     7
 10
3964.229095156389
 20
-488.0152172479185
 30
0.0
 11
3966.088068787991
 21
-488.0152172479185
 31
0.0
  0
LINE
  5
237
  8
回13-記事
 62
     7
 10
3962.839533128411
 20
-490.4184640642307
 30
0.0
 11
3964.229095156389
 21
-488.0152172479185
 31
0.0
  0
LINE
  5
238
  8
回13-記事
 62
     7
 10
3956.416059391214
 20
-489.0650414117119
 30
0.0
 11
3962.543888895851
 21
-488.6476224541747
 31
0.0
  0
LINE
  5
239
  8
回13-記事
 62
     7
 10
3955.905036738693
 20
-489.5760640642328
 30
0.0
 11
3956.416059391214
 21
-489.0650414117119
 31
0.0
  0
ARC
  5
23A
  8
回13-記事
 62
     7
 10
3955.062636738693
 20
-489.5760640642306
 30
0.0
 40
0.8423999999999999
 50
270.0
 51
359.9999999998567
  0
LINE
  5
23B
  8
回13-記事
 62
     7
 10
4467.343271002401
 20
-495.6989839349438
 30
0.0
 11
4464.343271002401
 21
-495.6989839349438
 31
0.0
  0
LINE
  5
23C
  8
回13-記事
 62
     7
 10
4467.343271002401
 20
-492.4830599392561
 30
0.0
 11
4467.343271002401
 21
-495.6989839349438
 31
0.0
  0
ARC
  5
23D
  8
回13-記事
  6
CONTINUOUS
 62
     7
 10
4455.320020516971
 20
-492.4830599392561
 30
0.0
 40
0.307948428894622
 50
0.0
 51
180.0
  0
ARC
  5
23E
  8
回13-記事
  6
CONTINUOUS
 62
     7
 10
4452.320020516971
 20
-492.4830599392561
 30
0.0
 40
0.307948428894622
 50
0.0
 51
180.0
  0
ARC
  5
23F
  8
回13-記事
  6
CONTINUOUS
 62
     7
 10
4449.320020516971
 20
-492.4830599392561
 30
0.0
 40
0.307948428894622
 50
0.0
 51
180.0
  0
ARC
  5
240
  8
回13-記事
  6
CONTINUOUS
 62
     7
 10
4446.320020516971
 20
-492.4830599392561
 30
0.0
 40
0.307948428894622
 50
0.0
 51
180.0
  0
ARC
  5
241
  8
回13-記事
  6
CONTINUOUS
 62
     7
 10
4443.320020516972
 20
-492.4830599392561
 30
0.0
 40
0.307948428894622
 50
0.0
 51
180.0
  0
ARC
  5
242
  8
回13-記事
  6
CONTINUOUS
 62
     7
 10
4440.320020516971
 20
-492.4830599392561
 30
0.0
 40
0.307948428894622
 50
0.0
 51
180.0
  0
ARC
  5
243
  8
回13-記事
  6
CONTINUOUS
 62
     7
 10
4437.320020516971
 20
-492.4830599392561
 30
0.0
 40
0.307948428894622
 50
0.0
 51
180.0
  0
ARC
  5
244
  8
回13-記事
  6
CONTINUOUS
 62
     7
 10
4434.320020516971
 20
-492.4830599392561
 30
0.0
 40
0.307948428894622
 50
0.0
 51
180.0
  0
ARC
  5
245
  8
回13-記事
  6
CONTINUOUS
 62
     7
 10
4431.320020516971
 20
-492.4830599392561
 30
0.0
 40
0.307948428894622
 50
0.0
 51
180.0
  0
ARC
  5
246
  8
回13-記事
  6
CONTINUOUS
 62
     7
 10
4428.320020516971
 20
-492.4830599392561
 30
0.0
 40
0.307948428894622
 50
0.0
 51
180.0
  0
ARC
  5
247
  8
回13-記事
  6
CONTINUOUS
 62
     7
 10
4425.320020516971
 20
-492.4830599392561
 30
0.0
 40
0.307948428894622
 50
0.0
 51
180.0
  0
ARC
  5
248
  8
回13-記事
  6
CONTINUOUS
 62
     7
 10
4422.320020516972
 20
-492.4830599392561
 30
0.0
 40
0.307948428894622
 50
0.0
 51
180.0
  0
ARC
  5
249
  8
回13-記事
  6
CONTINUOUS
 62
     7
 10
4419.320020516972
 20
-492.4830599392561
 30
0.0
 40
0.307948428894622
 50
0.0
 51
180.0
  0
ARC
  5
24A
  8
回13-記事
  6
CONTINUOUS
 62
     7
 10
4416.320020516971
 20
-492.4830599392561
 30
0.0
 40
0.307948428894622
 50
0.0
 51
180.0
  0
ARC
  5
24B
  8
回13-記事
  6
CONTINUOUS
 62
     7
 10
4413.320020516971
 20
-492.4830599392561
 30
0.0
 40
0.307948428894622
 50
0.0
 51
180.0
  0
ARC
  5
24C
  8
回13-記事
  6
CONTINUOUS
 62
     7
 10
4410.320020516971
 20
-492.4830599392561
 30
0.0
 40
0.307948428894622
 50
0.0
 51
180.0
  0
ARC
  5
24D
  8
回13-記事
  6
CONTINUOUS
 62
     7
 10
4407.320020516971
 20
-492.4830599392561
 30
0.0
 40
0.307948428894622
 50
0.0
 51
180.0
  0
ARC
  5
24E
  8
回13-記事
  6
CONTINUOUS
 62
     7
 10
4404.320020516972
 20
-492.4830599392561
 30
0.0
 40
0.307948428894622
 50
0.0
 51
180.0
  0
ARC
  5
24F
  8
回13-記事
  6
CONTINUOUS
 62
     7
 10
4401.320020516972
 20
-492.4830599392561
 30
0.0
 40
0.307948428894622
 50
0.0
 51
180.0
  0
ARC
  5
250
  8
回13-記事
  6
CONTINUOUS
 62
     7
 10
4398.320020516972
 20
-492.4830599392561
 30
0.0
 40
0.307948428894622
 50
0.0
 51
180.0
  0
ARC
  5
251
  8
回13-記事
  6
CONTINUOUS
 62
     7
 10
4395.320020516972
 20
-492.4830599392561
 30
0.0
 40
0.307948428894622
 50
0.0
 51
180.0
  0
ARC
  5
252
  8
回13-記事
  6
CONTINUOUS
 62
     7
 10
4392.320020516971
 20
-492.4830599392561
 30
0.0
 40
0.307948428894622
 50
0.0
 51
180.0
  0
ARC
  5
253
  8
回13-記事
  6
CONTINUOUS
 62
     7
 10
4389.320020516971
 20
-492.4830599392561
 30
0.0
 40
0.307948428894622
 50
0.0
 51
180.0
  0
ARC
  5
254
  8
回13-記事
  6
CONTINUOUS
 62
     7
 10
4386.320020516971
 20
-492.4830599392561
 30
0.0
 40
0.307948428894622
 50
0.0
 51
180.0
  0
ARC
  5
255
  8
回13-記事
  6
CONTINUOUS
 62
     7
 10
4383.320020516971
 20
-492.4830599392561
 30
0.0
 40
0.307948428894622
 50
0.0
 51
180.0
  0
ARC
  5
256
  8
回13-記事
  6
CONTINUOUS
 62
     7
 10
4380.320020516971
 20
-492.4830599392561
 30
0.0
 40
0.307948428894622
 50
0.0
 51
180.0
  0
ARC
  5
257
  8
回13-記事
  6
CONTINUOUS
 62
     7
 10
4377.320020516971
 20
-492.4830599392561
 30
0.0
 40
0.307948428894622
 50
0.0
 51
180.0
  0
ARC
  5
258
  8
回13-記事
  6
CONTINUOUS
 62
     7
 10
4374.320020516971
 20
-492.4830599392561
 30
0.0
 40
0.307948428894622
 50
0.0
 51
180.0
  0
ARC
  5
259
  8
回13-記事
  6
CONTINUOUS
 62
     7
 10
4371.320020516971
 20
-492.4830599392561
 30
0.0
 40
0.307948428894622
 50
0.0
 51
180.0
  0
ARC
  5
25A
  8
回13-記事
  6
CONTINUOUS
 62
     7
 10
4368.320020516971
 20
-492.4830599392561
 30
0.0
 40
0.307948428894622
 50
0.0
 51
180.0
  0
ARC
  5
25B
  8
回13-記事
  6
CONTINUOUS
 62
     7
 10
4365.320020516971
 20
-492.4830599392561
 30
0.0
 40
0.307948428894622
 50
0.0
 51
180.0
  0
ARC
  5
25C
  8
回13-記事
  6
CONTINUOUS
 62
     7
 10
4362.320020516971
 20
-492.4830599392561
 30
0.0
 40
0.307948428894622
 50
0.0
 51
180.0
  0
ARC
  5
25D
  8
回13-記事
  6
CONTINUOUS
 62
     7
 10
4359.320020516971
 20
-492.4830599392561
 30
0.0
 40
0.307948428894622
 50
0.0
 51
180.0
  0
ARC
  5
25E
  8
回13-記事
  6
CONTINUOUS
 62
     7
 10
4356.320020516971
 20
-492.4830599392561
 30
0.0
 40
0.307948428894622
 50
0.0
 51
180.0
  0
ARC
  5
25F
  8
回13-記事
  6
CONTINUOUS
 62
     7
 10
4353.320020516971
 20
-492.4830599392561
 30
0.0
 40
0.307948428894622
 50
0.0
 51
180.0
  0
ARC
  5
260
  8
回13-記事
  6
CONTINUOUS
 62
     7
 10
4350.320020516971
 20
-492.4830599392561
 30
0.0
 40
0.307948428894622
 50
0.0
 51
180.0
  0
ARC
  5
261
  8
回13-記事
  6
CONTINUOUS
 62
     7
 10
4347.320020516971
 20
-492.4830599392561
 30
0.0
 40
0.307948428894622
 50
0.0
 51
180.0
  0
ARC
  5
262
  8
回13-記事
  6
CONTINUOUS
 62
     7
 10
4344.320020516971
 20
-492.4830599392561
 30
0.0
 40
0.307948428894622
 50
0.0
 51
180.0
  0
ARC
  5
263
  8
回13-記事
  6
CONTINUOUS
 62
     7
 10
4341.320020516971
 20
-492.4830599392561
 30
0.0
 40
0.307948428894622
 50
0.0
 51
180.0
  0
ARC
  5
264
  8
回13-記事
  6
CONTINUOUS
 62
     7
 10
4338.320020516971
 20
-492.4830599392561
 30
0.0
 40
0.307948428894622
 50
0.0
 51
180.0
  0
ARC
  5
265
  8
回13-記事
  6
CONTINUOUS
 62
     7
 10
4335.320020516971
 20
-492.4830599392561
 30
0.0
 40
0.307948428894622
 50
0.0
 51
180.0
  0
ARC
  5
266
  8
回13-記事
  6
CONTINUOUS
 62
     7
 10
4332.320020516971
 20
-492.4830599392561
 30
0.0
 40
0.307948428894622
 50
0.0
 51
180.0
  0
ARC
  5
267
  8
回13-記事
  6
CONTINUOUS
 62
     7
 10
4329.320020516972
 20
-492.4830599392561
 30
0.0
 40
0.307948428894622
 50
0.0
 51
180.0
  0
ARC
  5
268
  8
回13-記事
  6
CONTINUOUS
 62
     7
 10
4326.320020516972
 20
-492.4830599392561
 30
0.0
 40
0.307948428894622
 50
0.0
 51
180.0
  0
ARC
  5
269
  8
回13-記事
  6
CONTINUOUS
 62
     7
 10
4323.320020516971
 20
-492.4830599392561
 30
0.0
 40
0.307948428894622
 50
0.0
 51
180.0
  0
ARC
  5
26A
  8
回13-記事
  6
CONTINUOUS
 62
     7
 10
4320.320020516971
 20
-492.4830599392561
 30
0.0
 40
0.307948428894622
 50
0.0
 51
180.0
  0
ARC
  5
26B
  8
回13-記事
  6
CONTINUOUS
 62
     7
 10
4317.320020516971
 20
-492.4830599392561
 30
0.0
 40
0.307948428894622
 50
0.0
 51
180.0
  0
ARC
  5
26C
  8
回13-記事
  6
CONTINUOUS
 62
     7
 10
4314.320020516971
 20
-492.4830599392561
 30
0.0
 40
0.307948428894622
 50
0.0
 51
180.0
  0
ARC
  5
26D
  8
回13-記事
  6
CONTINUOUS
 62
     7
 10
4311.320020516972
 20
-492.4830599392561
 30
0.0
 40
0.307948428894622
 50
0.0
 51
180.0
  0
ARC
  5
26E
  8
回13-記事
  6
CONTINUOUS
 62
     7
 10
4308.320020516972
 20
-492.4830599392561
 30
0.0
 40
0.307948428894622
 50
0.0
 51
180.0
  0
ARC
  5
26F
  8
回13-記事
  6
CONTINUOUS
 62
     7
 10
4305.320020516972
 20
-492.4830599392561
 30
0.0
 40
0.307948428894622
 50
0.0
 51
180.0
  0
ARC
  5
270
  8
回13-記事
  6
CONTINUOUS
 62
     7
 10
4302.320020516972
 20
-492.4830599392561
 30
0.0
 40
0.307948428894622
 50
0.0
 51
180.0
  0
ARC
  5
271
  8
回13-記事
  6
CONTINUOUS
 62
     7
 10
4299.320020516971
 20
-492.4830599392561
 30
0.0
 40
0.307948428894622
 50
0.0
 51
180.0
  0
ARC
  5
272
  8
回13-記事
  6
CONTINUOUS
 62
     7
 10
4296.320020516971
 20
-492.4830599392561
 30
0.0
 40
0.307948428894622
 50
0.0
 51
180.0
  0
ARC
  5
273
  8
回13-記事
  6
CONTINUOUS
 62
     7
 10
4293.320020516971
 20
-492.4830599392561
 30
0.0
 40
0.307948428894622
 50
0.0
 51
180.0
  0
ARC
  5
274
  8
回13-記事
  6
CONTINUOUS
 62
     7
 10
4290.320020516971
 20
-492.4830599392561
 30
0.0
 40
0.307948428894622
 50
0.0
 51
180.0
  0
ARC
  5
275
  8
回13-記事
  6
CONTINUOUS
 62
     7
 10
4287.320020516971
 20
-492.4830599392561
 30
0.0
 40
0.307948428894622
 50
0.0
 51
180.0
  0
ARC
  5
276
  8
回13-記事
  6
CONTINUOUS
 62
     7
 10
4284.320020516971
 20
-492.4830599392561
 30
0.0
 40
0.307948428894622
 50
0.0
 51
180.0
  0
ARC
  5
277
  8
回13-記事
  6
CONTINUOUS
 62
     7
 10
4281.320020516971
 20
-492.4830599392561
 30
0.0
 40
0.307948428894622
 50
0.0
 51
180.0
  0
ARC
  5
278
  8
回13-記事
  6
CONTINUOUS
 62
     7
 10
4278.320020516971
 20
-492.4830599392561
 30
0.0
 40
0.307948428894622
 50
0.0
 51
180.0
  0
ARC
  5
279
  8
回13-記事
  6
CONTINUOUS
 62
     7
 10
4275.320020516971
 20
-492.4830599392561
 30
0.0
 40
0.307948428894622
 50
0.0
 51
180.0
  0
ARC
  5
27A
  8
回13-記事
  6
CONTINUOUS
 62
     7
 10
4272.320020516971
 20
-492.4830599392561
 30
0.0
 40
0.307948428894622
 50
0.0
 51
180.0
  0
ARC
  5
27B
  8
回13-記事
  6
CONTINUOUS
 62
     7
 10
4269.320020516971
 20
-492.4830599392561
 30
0.0
 40
0.307948428894622
 50
0.0
 51
180.0
  0
ARC
  5
27C
  8
回13-記事
  6
CONTINUOUS
 62
     7
 10
4266.320020516971
 20
-492.4830599392561
 30
0.0
 40
0.307948428894622
 50
0.0
 51
180.0
  0
ARC
  5
27D
  8
回13-記事
  6
CONTINUOUS
 62
     7
 10
4263.320020516971
 20
-492.4830599392561
 30
0.0
 40
0.307948428894622
 50
0.0
 51
180.0
  0
ARC
  5
27E
  8
回13-記事
  6
CONTINUOUS
 62
     7
 10
4260.320020516971
 20
-492.4830599392561
 30
0.0
 40
0.307948428894622
 50
0.0
 51
180.0
  0
ARC
  5
27F
  8
回13-記事
  6
CONTINUOUS
 62
     7
 10
4257.320020516971
 20
-492.4830599392561
 30
0.0
 40
0.307948428894622
 50
0.0
 51
180.0
  0
ARC
  5
280
  8
回13-記事
  6
CONTINUOUS
 62
     7
 10
4170.320020516971
 20
-492.4830599392561
 30
0.0
 40
0.307948428894622
 50
0.0
 51
180.0
  0
ARC
  5
281
  8
回13-記事
  6
CONTINUOUS
 62
     7
 10
4173.320020516971
 20
-492.4830599392561
 30
0.0
 40
0.307948428894622
 50
0.0
 51
180.0
  0
ARC
  5
282
  8
回13-記事
  6
CONTINUOUS
 62
     7
 10
4176.320020516971
 20
-492.4830599392561
 30
0.0
 40
0.307948428894622
 50
0.0
 51
180.0
  0
ARC
  5
283
  8
回13-記事
  6
CONTINUOUS
 62
     7
 10
4179.320020516971
 20
-492.4830599392561
 30
0.0
 40
0.307948428894622
 50
0.0
 51
180.0
  0
ARC
  5
284
  8
回13-記事
  6
CONTINUOUS
 62
     7
 10
4182.320020516971
 20
-492.4830599392561
 30
0.0
 40
0.307948428894622
 50
0.0
 51
180.0
  0
ARC
  5
285
  8
回13-記事
  6
CONTINUOUS
 62
     7
 10
4185.320020516971
 20
-492.4830599392561
 30
0.0
 40
0.307948428894622
 50
0.0
 51
180.0
  0
ARC
  5
286
  8
回13-記事
  6
CONTINUOUS
 62
     7
 10
4188.320020516971
 20
-492.4830599392561
 30
0.0
 40
0.307948428894622
 50
0.0
 51
180.0
  0
ARC
  5
287
  8
回13-記事
  6
CONTINUOUS
 62
     7
 10
4191.320020516971
 20
-492.4830599392561
 30
0.0
 40
0.307948428894622
 50
0.0
 51
180.0
  0
ARC
  5
288
  8
回13-記事
  6
CONTINUOUS
 62
     7
 10
4194.320020516971
 20
-492.4830599392561
 30
0.0
 40
0.307948428894622
 50
0.0
 51
180.0
  0
ARC
  5
289
  8
回13-記事
  6
CONTINUOUS
 62
     7
 10
4197.320020516971
 20
-492.4830599392561
 30
0.0
 40
0.307948428894622
 50
0.0
 51
180.0
  0
ARC
  5
28A
  8
回13-記事
  6
CONTINUOUS
 62
     7
 10
4200.320020516971
 20
-492.4830599392561
 30
0.0
 40
0.307948428894622
 50
0.0
 51
180.0
  0
ARC
  5
28B
  8
回13-記事
  6
CONTINUOUS
 62
     7
 10
4203.320020516971
 20
-492.4830599392561
 30
0.0
 40
0.307948428894622
 50
0.0
 51
180.0
  0
ARC
  5
28C
  8
回13-記事
  6
CONTINUOUS
 62
     7
 10
4206.320020516971
 20
-492.4830599392561
 30
0.0
 40
0.307948428894622
 50
0.0
 51
180.0
  0
ARC
  5
28D
  8
回13-記事
  6
CONTINUOUS
 62
     7
 10
4209.320020516972
 20
-492.4830599392561
 30
0.0
 40
0.307948428894622
 50
0.0
 51
180.0
  0
ARC
  5
28E
  8
回13-記事
  6
CONTINUOUS
 62
     7
 10
4212.320020516972
 20
-492.4830599392561
 30
0.0
 40
0.307948428894622
 50
0.0
 51
180.0
  0
ARC
  5
28F
  8
回13-記事
  6
CONTINUOUS
 62
     7
 10
4215.320020516972
 20
-492.4830599392561
 30
0.0
 40
0.307948428894622
 50
0.0
 51
180.0
  0
ARC
  5
290
  8
回13-記事
  6
CONTINUOUS
 62
     7
 10
4218.320020516972
 20
-492.4830599392561
 30
0.0
 40
0.307948428894622
 50
0.0
 51
180.0
  0
ARC
  5
291
  8
回13-記事
  6
CONTINUOUS
 62
     7
 10
4221.320020516971
 20
-492.4830599392561
 30
0.0
 40
0.307948428894622
 50
0.0
 51
180.0
  0
ARC
  5
292
  8
回13-記事
  6
CONTINUOUS
 62
     7
 10
4224.320020516971
 20
-492.4830599392561
 30
0.0
 40
0.307948428894622
 50
0.0
 51
180.0
  0
ARC
  5
293
  8
回13-記事
  6
CONTINUOUS
 62
     7
 10
4227.320020516971
 20
-492.4830599392561
 30
0.0
 40
0.307948428894622
 50
0.0
 51
180.0
  0
ARC
  5
294
  8
回13-記事
  6
CONTINUOUS
 62
     7
 10
4230.320020516971
 20
-492.4830599392561
 30
0.0
 40
0.307948428894622
 50
0.0
 51
180.0
  0
ARC
  5
295
  8
回13-記事
  6
CONTINUOUS
 62
     7
 10
4233.320020516972
 20
-492.4830599392561
 30
0.0
 40
0.307948428894622
 50
0.0
 51
180.0
  0
ARC
  5
296
  8
回13-記事
  6
CONTINUOUS
 62
     7
 10
4236.320020516972
 20
-492.4830599392561
 30
0.0
 40
0.307948428894622
 50
0.0
 51
180.0
  0
ARC
  5
297
  8
回13-記事
  6
CONTINUOUS
 62
     7
 10
4239.320020516971
 20
-492.4830599392561
 30
0.0
 40
0.307948428894622
 50
0.0
 51
180.0
  0
ARC
  5
298
  8
回13-記事
  6
CONTINUOUS
 62
     7
 10
4242.320020516971
 20
-492.4830599392561
 30
0.0
 40
0.307948428894622
 50
0.0
 51
180.0
  0
ARC
  5
299
  8
回13-記事
  6
CONTINUOUS
 62
     7
 10
4245.320020516971
 20
-492.4830599392561
 30
0.0
 40
0.307948428894622
 50
0.0
 51
180.0
  0
ARC
  5
29A
  8
回13-記事
  6
CONTINUOUS
 62
     7
 10
4248.320020516971
 20
-492.4830599392561
 30
0.0
 40
0.307948428894622
 50
0.0
 51
180.0
  0
ARC
  5
29B
  8
回13-記事
  6
CONTINUOUS
 62
     7
 10
4251.320020516971
 20
-492.4830599392561
 30
0.0
 40
0.307948428894622
 50
0.0
 51
180.0
  0
ARC
  5
29C
  8
回13-記事
  6
CONTINUOUS
 62
     7
 10
4254.320020516972
 20
-492.4830599392561
 30
0.0
 40
0.307948428894622
 50
0.0
 51
180.0
  0
ARC
  5
29D
  8
回13-記事
  6
CONTINUOUS
 62
     7
 10
4167.320020516971
 20
-492.4830599392561
 30
0.0
 40
0.307948428894622
 50
0.0
 51
180.0
  0
ARC
  5
29E
  8
回13-記事
  6
CONTINUOUS
 62
     7
 10
4164.320020516971
 20
-492.4830599392561
 30
0.0
 40
0.307948428894622
 50
0.0
 51
180.0
  0
ARC
  5
29F
  8
回13-記事
  6
CONTINUOUS
 62
     7
 10
4161.320020516972
 20
-492.4830599392561
 30
0.0
 40
0.307948428894622
 50
0.0
 51
180.0
  0
ARC
  5
2A0
  8
回13-記事
  6
CONTINUOUS
 62
     7
 10
4158.320020516971
 20
-492.4830599392561
 30
0.0
 40
0.307948428894622
 50
0.0
 51
180.0
  0
ARC
  5
2A1
  8
回13-記事
  6
CONTINUOUS
 62
     7
 10
4155.320020516971
 20
-492.4830599392561
 30
0.0
 40
0.307948428894622
 50
0.0
 51
180.0
  0
ARC
  5
2A2
  8
回13-記事
  6
CONTINUOUS
 62
     7
 10
4152.320020516971
 20
-492.4830599392561
 30
0.0
 40
0.307948428894622
 50
0.0
 51
180.0
  0
ARC
  5
2A3
  8
回13-記事
  6
CONTINUOUS
 62
     7
 10
4149.320020516971
 20
-492.4830599392561
 30
0.0
 40
0.307948428894622
 50
0.0
 51
180.0
  0
ARC
  5
2A4
  8
回13-記事
  6
CONTINUOUS
 62
     7
 10
4146.320020516971
 20
-492.4830599392561
 30
0.0
 40
0.307948428894622
 50
0.0
 51
180.0
  0
ARC
  5
2A5
  8
回13-記事
  6
CONTINUOUS
 62
     7
 10
4143.320020516972
 20
-492.4830599392561
 30
0.0
 40
0.307948428894622
 50
0.0
 51
180.0
  0
ARC
  5
2A6
  8
回13-記事
  6
CONTINUOUS
 62
     7
 10
4140.320020516972
 20
-492.4830599392561
 30
0.0
 40
0.307948428894622
 50
0.0
 51
180.0
  0
ARC
  5
2A7
  8
回13-記事
  6
CONTINUOUS
 62
     7
 10
4137.320020516972
 20
-492.4830599392561
 30
0.0
 40
0.307948428894622
 50
0.0
 51
180.0
  0
ARC
  5
2A8
  8
回13-記事
  6
CONTINUOUS
 62
     7
 10
4134.320020516971
 20
-492.4830599392561
 30
0.0
 40
0.307948428894622
 50
0.0
 51
180.0
  0
ARC
  5
2A9
  8
回13-記事
  6
CONTINUOUS
 62
     7
 10
4131.320020516971
 20
-492.4830599392561
 30
0.0
 40
0.307948428894622
 50
0.0
 51
180.0
  0
ARC
  5
2AA
  8
回13-記事
  6
CONTINUOUS
 62
     7
 10
4128.320020516971
 20
-492.4830599392561
 30
0.0
 40
0.307948428894622
 50
0.0
 51
180.0
  0
ARC
  5
2AB
  8
回13-記事
  6
CONTINUOUS
 62
     7
 10
4125.320020516971
 20
-492.4830599392561
 30
0.0
 40
0.307948428894622
 50
0.0
 51
180.0
  0
ARC
  5
2AC
  8
回13-記事
  6
CONTINUOUS
 62
     7
 10
4122.320020516972
 20
-492.4830599392561
 30
0.0
 40
0.307948428894622
 50
0.0
 51
180.0
  0
ARC
  5
2AD
  8
回13-記事
  6
CONTINUOUS
 62
     7
 10
4119.320020516972
 20
-492.4830599392561
 30
0.0
 40
0.307948428894622
 50
0.0
 51
180.0
  0
ARC
  5
2AE
  8
回13-記事
  6
CONTINUOUS
 62
     7
 10
4116.320020516972
 20
-492.4830599392561
 30
0.0
 40
0.307948428894622
 50
0.0
 51
180.0
  0
ARC
  5
2AF
  8
回13-記事
  6
CONTINUOUS
 62
     7
 10
4113.320020516971
 20
-492.4830599392561
 30
0.0
 40
0.307948428894622
 50
0.0
 51
180.0
  0
ARC
  5
2B0
  8
回13-記事
  6
CONTINUOUS
 62
     7
 10
4110.320020516971
 20
-492.4830599392561
 30
0.0
 40
0.307948428894622
 50
0.0
 51
180.0
  0
ARC
  5
2B1
  8
回13-記事
  6
CONTINUOUS
 62
     7
 10
4107.320020516971
 20
-492.4830599392561
 30
0.0
 40
0.307948428894622
 50
0.0
 51
180.0
  0
ARC
  5
2B2
  8
回13-記事
  6
CONTINUOUS
 62
     7
 10
4104.320020516971
 20
-492.4830599392561
 30
0.0
 40
0.307948428894622
 50
0.0
 51
180.0
  0
ARC
  5
2B3
  8
回13-記事
  6
CONTINUOUS
 62
     7
 10
4101.320020516971
 20
-492.4830599392561
 30
0.0
 40
0.307948428894622
 50
0.0
 51
180.0
  0
ARC
  5
2B4
  8
回13-記事
  6
CONTINUOUS
 62
     7
 10
4098.320020516971
 20
-492.4830599392561
 30
0.0
 40
0.307948428894622
 50
0.0
 51
180.0
  0
ARC
  5
2B5
  8
回13-記事
  6
CONTINUOUS
 62
     7
 10
4095.320020516971
 20
-492.4830599392561
 30
0.0
 40
0.307948428894622
 50
0.0
 51
180.0
  0
ARC
  5
2B6
  8
回13-記事
  6
CONTINUOUS
 62
     7
 10
4092.320020516971
 20
-492.4830599392561
 30
0.0
 40
0.307948428894622
 50
0.0
 51
180.0
  0
ARC
  5
2B7
  8
回13-記事
  6
CONTINUOUS
 62
     7
 10
4089.320020516971
 20
-492.4830599392561
 30
0.0
 40
0.307948428894622
 50
0.0
 51
180.0
  0
ARC
  5
2B8
  8
回13-記事
  6
CONTINUOUS
 62
     7
 10
4086.320020516971
 20
-492.4830599392561
 30
0.0
 40
0.307948428894622
 50
0.0
 51
180.0
  0
ARC
  5
2B9
  8
回13-記事
  6
CONTINUOUS
 62
     7
 10
4083.320020516971
 20
-492.4830599392561
 30
0.0
 40
0.307948428894622
 50
0.0
 51
180.0
  0
POLYLINE
  5
2BA
  8
回13-記事
  6
DASHED2
 62
     7
 66
     1
 10
0.0
 20
0.0
 30
0.0
 70
     1
  0
VERTEX
  5
322
  8
回13-記事
  6
DASHED2
 62
     7
 10
3953.750271041095
 20
-490.4184640642308
 30
0.0
  0
VERTEX
  5
324
  8
回13-記事
  6
DASHED2
 62
     7
 10
3967.466271041094
 20
-490.4184640642308
 30
0.0
  0
VERTEX
  5
325
  8
回13-記事
  6
DASHED2
 62
     7
 10
3967.466271041094
 20
-493.5424640642309
 30
0.0
  0
VERTEX
  5
326
  8
回13-記事
  6
DASHED2
 62
     7
 10
3953.750271041095
 20
-493.5424640642309
 30
0.0
  0
SEQEND
  5
323
  8
回13-記事
 62
     7
  0
TEXT
  5
2BB
  8
回13-記事
 62
     5
 10
3983.606176019823
 20
-485.5366749394728
 30
0.0
 40
4.0
  1
FST-T190C110A
1001
ACAD
1000
MTEXTBEGIN
1070
    73
1070
     1
1070
    44
1040
1.0
1070
    74
1070
     0
1000
MTEXTEND
  0
TEXT
  5
2BC
  8
回13-記事
  6
CONTINUOUS
 62
     5
 10
3977.647876286102
 20
-478.8029831973939
 30
0.0
 40
4.0
  1
PART No. LABEL
1001
ACAD
1000
MTEXTBEGIN
1070
    73
1070
     1
1070
    44
1040
1.0
1070
    74
1070
     0
1000
MTEXTEND
  0
INSERT
  5
2BD
  8
回13-記事
  6
CONTINUOUS
 62
     7
 66
     1
  2
*X22
 10
0.0
 20
0.0
 30
0.0
  0
SEQEND
  5
32D
  8
回13-記事
 62
     7
  0
POLYLINE
  5
2BE
  8
回13-記事
  6
CONTINUOUS
 62
     7
 66
     1
 10
0.0
 20
0.0
 30
0.0
 70
     1
  0
VERTEX
  5
32E
  8
回13-記事
  6
CONTINUOUS
 62
     7
 10
4004.783325698408
 20
-491.4298670862701
 30
0.0
  0
VERTEX
  5
330
  8
回13-記事
  6
CONTINUOUS
 62
     7
 10
4030.783325698408
 20
-491.4298670862701
 30
0.0
  0
VERTEX
  5
331
  8
回13-記事
  6
CONTINUOUS
 62
     7
 10
4030.783325698408
 20
-490.4500441406431
 30
0.0
  0
VERTEX
  5
332
  8
回13-記事
  6
CONTINUOUS
 62
     7
 10
4004.783325698408
 20
-490.4500441406431
 30
0.0
  0
SEQEND
  5
32F
  8
回13-記事
 62
     7
  0
LINE
  5
2BF
  8
回13-記事
  6
CONTINUOUS
 62
     7
 10
4049.72760423526
 20
-491.0636861014971
 30
0.0
 11
4041.082521868897
 21
-487.5948492924766
 31
0.0
  0
TEXT
  5
2C0
  8
回13-記事
  6
CONTINUOUS
 62
     7
 10
4040.394540004005
 20
-486.5947065151916
 30
0.0
 40
4.0
  1
4
  0
LINE
  5
2C1
  8
回13-記事
  6
CONTINUOUS
 62
     7
 10
4038.652281016083
 20
-493.2628137486839
 30
0.0
 11
4041.082521868897
 21
-487.5948492924766
 31
0.0
  0
INSERT
  5
2C2
  8
回13-記事
  6
CONTINUOUS
 62
     8
 66
     1
  2
*X23
 10
0.0
 20
0.0
 30
0.0
1001
ACAD
1000
HATCH
1002
{
1070
    19
1000
ANSI31
1040
0.5
1040
0.0
1000
R14_HATCH_DATA
1000
2C2
1011
1.0
1021
0.0
1031
0.0
1011
0.0
1021
1.0
1031
0.0
1011
0.0
1021
0.0
1031
1.0
1040
0.0
1010
0.0
1020
0.0
1030
1.0
1000
ANSI31
1070
     0
1070
     1
1071
        1
1071
        7
1070
     0
1070
     1
1071
        8
1040
4053.063271002402
1040
-489.6951522196967
1040
4053.063271002402
1040
-490.6501132768422
1040
4061.563271002402
1040
-490.6501132768421
1040
4061.563271002402
1040
-489.9756329233618
1040
4070.621270963709
1040
-489.9756329233617
1040
4070.621270963709
1040
-489.0589535029727
1040
4060.608309945256
1040
-489.0589535029727
1040
4060.608309945256
1040
-489.6951522196967
1071
        0
1070
     0
1070
     1
1040
0.0
1040
0.5
1070
     0
1070
     1
1040
0.7853981633974483
1040
4897.438503465513
1040
-1027.948122794748
1040
-1.122532015133643
1040
1.122532015133644
1070
     0
1040
0.0436630606398296
1071
        1
1040
4060.126775392016
1040
-490.1541454979819
1040
0.0
1002
}
  0
SEQEND
  5
33E
  8
回13-記事
 62
     7
  0
POLYLINE
  5
2C3
  8
回13-記事
  6
CONTINUOUS
 62
     7
 66
     1
 10
0.0
 20
0.0
 30
0.0
 70
     1
  0
VERTEX
  5
33F
  8
回13-記事
  6
CONTINUOUS
 62
     7
 10
4049.563271002401
 20
-490.6501132768422
 30
0.0
  0
VERTEX
  5
341
  8
回13-記事
  6
CONTINUOUS
 62
     7
 10
4061.563271002402
 20
-490.6501132768422
 30
0.0
  0
VERTEX
  5
342
  8
回13-記事
  6
CONTINUOUS
 62
     7
 10
4061.563271002402
 20
-491.4298670862701
 30
0.0
  0
VERTEX
  5
343
  8
回13-記事
  6
CONTINUOUS
 62
     7
 10
4049.563271002401
 20
-491.4298670862701
 30
0.0
  0
SEQEND
  5
340
  8
回13-記事
 62
     7
  0
LINE
  5
2C4
  8
回13-記事
  6
CONTINUOUS
 62
     8
 10
4070.621270963709
 20
-489.0589535029727
 30
0.0
 11
4060.608309945257
 21
-489.0589535029727
 31
0.0
  0
LINE
  5
2C5
  8
回13-記事
  6
CONTINUOUS
 62
     8
 10
4070.621270963709
 20
-489.9756329233618
 30
0.0
 11
4070.621270963709
 21
-489.0589535029727
 31
0.0
  0
LINE
  5
2C6
  8
回13-記事
  6
CONTINUOUS
 62
     8
 10
4061.563271002402
 20
-489.9756329233618
 30
0.0
 11
4070.621270963709
 21
-489.9756329233618
 31
0.0
  0
LINE
  5
2C7
  8
回13-記事
  6
CONTINUOUS
 62
     8
 10
4060.608309945257
 20
-489.0589535029727
 30
0.0
 11
4060.608309945257
 21
-489.6951522196967
 31
0.0
  0
LINE
  5
2C8
  8
回13-記事
  6
CONTINUOUS
 62
     8
 10
4053.063271002402
 20
-489.6951522196967
 30
0.0
 11
4053.063271002402
 21
-490.6501132768422
 31
0.0
  0
LINE
  5
2C9
  8
回13-記事
  6
CONTINUOUS
 62
     8
 10
4053.063271002402
 20
-489.6951522196967
 30
0.0
 11
4060.608309945257
 21
-489.6951522196967
 31
0.0
  0
LINE
  5
2CA
  8
回13-記事
  6
CONTINUOUS
 62
     7
 10
4065.680247159733
 20
-489.7604613409643
 30
0.0
 11
4061.12140648953
 21
-501.9593573526882
 31
0.0
  0
TEXT
  5
2CB
  8
回13-記事
  6
CONTINUOUS
 62
     7
 10
4058.507409420147
 20
-506.5995004224388
 30
0.0
 40
4.0
  1
6
  0
LINE
  5
2CC
  8
回13-記事
  6
CONTINUOUS
 62
     7
 10
4066.587945263353
 20
-496.4185499556343
 30
0.0
 11
4061.12140648953
 21
-501.9593573526882
 31
0.0
  0
LINE
  5
2CD
  8
回13-記事
  6
CONTINUOUS
 62
     7
 10
4070.621270963709
 20
-496.6539449920891
 30
0.0
 11
4070.621270963709
 21
-495.6989839349438
 31
0.0
  0
LINE
  5
2CE
  8
回13-記事
  6
CONTINUOUS
 62
     7
 10
4060.108309945256
 20
-496.6539449920891
 30
0.0
 11
4070.621270963709
 21
-496.6539449920891
 31
0.0
  0
LINE
  5
2CF
  8
回13-記事
  6
CONTINUOUS
 62
     7
 10
4060.108309945256
 20
-494.2177748058294
 30
0.0
 11
4060.108309945256
 21
-496.6539449920891
 31
0.0
  0
LINE
  5
2D0
  8
回13-記事
  6
CONTINUOUS
 62
     7
 10
4053.063271002402
 20
-494.2177748058294
 30
0.0
 11
4060.108309945256
 21
-494.2177748058294
 31
0.0
  0
LINE
  5
2D1
  8
回13-記事
  6
CONTINUOUS
 62
     7
 10
4053.063271002402
 20
-493.2628137486839
 30
0.0
 11
4053.063271002402
 21
-494.2177748058294
 31
0.0
  0
TEXT
  5
2D2
  8
回13-記事
  6
CONTINUOUS
 62
     5
 10
4020.245049191338
 20
-507.8835575031295
 30
0.0
 40
4.0
  1
LOT LABEL
1001
ACAD
1000
MTEXTBEGIN
1070
    73
1070
     1
1070
    44
1040
1.0
1070
    74
1070
     0
1000
MTEXTEND
  0
INSERT
  5
2D3
  8
回13-記事
  6
CONTINUOUS
 62
     7
 66
     1
  2
*X24
 10
0.0
 20
0.0
 30
0.0
  0
SEQEND
  5
34A
  8
回13-記事
 62
     7
  0
POLYLINE
  5
2D4
  8
回13-記事
  6
CONTINUOUS
 62
     7
 66
     1
 10
0.0
 20
0.0
 30
0.0
 70
     1
  0
VERTEX
  5
34B
  8
回13-記事
  6
CONTINUOUS
 62
     7
 10
4004.783325698408
 20
-494.2426366943108
 30
0.0
  0
VERTEX
  5
34D
  8
回13-記事
  6
CONTINUOUS
 62
     7
 10
4030.783325698408
 20
-494.2426366943108
 30
0.0
  0
VERTEX
  5
34E
  8
回13-記事
  6
CONTINUOUS
 62
     7
 10
4030.783325698408
 20
-493.2628137486839
 30
0.0
  0
VERTEX
  5
34F
  8
回13-記事
  6
CONTINUOUS
 62
     7
 10
4004.783325698408
 20
-493.2628137486839
 30
0.0
  0
SEQEND
  5
34C
  8
回13-記事
 62
     7
  0
TEXT
  5
2D5
  8
回13-記事
  6
CONTINUOUS
 62
     7
 10
4452.707365090242
 20
-483.7261658709106
 30
0.0
 40
4.0
  1
7
  0
LINE
  5
2D6
  8
回13-記事
  6
CONTINUOUS
 62
     7
 10
4460.529607473168
 20
-491.953793672484
 30
0.0
 11
4454.128848121166
 21
-484.3407806011395
 31
0.0
  0
TEXT
  5
2D7
  8
回13-記事
  6
CONTINUOUS
 62
     7
 10
4073.213235058295
 20
-506.9971323271739
 30
0.0
 40
4.0
  1
7
  0
LINE
  5
2D8
  8
回13-記事
  6
CONTINUOUS
 62
     7
 10
4071.480655993009
 20
-491.953793672484
 30
0.0
 11
4074.618416123843
 21
-502.5362610514094
 31
0.0
  0
TEXT
  5
2D9
  8
回13-記事
  6
CONTINUOUS
 62
     7
 10
3946.943548426432
 20
-502.4565372712157
 30
0.0
 40
4.0
  1
8
  0
TEXT
  5
2DA
  8
回13-記事
  6
CONTINUOUS
 62
     7
 10
3968.902482994527
 20
-486.4461037799859
 30
0.0
 40
4.0
  1
5
  0
TEXT
  5
2DB
  8
回13-記事
  6
CONTINUOUS
 62
     7
 10
3991.801796584866
 20
-501.5079636716595
 30
0.0
 40
4.0
  1
3
  0
TEXT
  5
2DC
  8
回13-記事
  6
CONTINUOUS
 62
     7
 10
4271.821919330687
 20
-505.5439134666816
 30
0.0
 40
4.0
  1
2
  0
TEXT
  5
2DD
  8
回13-記事
  6
CONTINUOUS
 62
     7
 10
4283.132081319641
 20
-481.8305469857936
 30
0.0
 40
4.0
  1
1
  0
LINE
  5
2DE
  8
回13-記事
  6
CONTINUOUS
 62
     7
 10
3955.951745905285
 20
-492.0530140354766
 30
0.0
 11
3950.586212041127
 21
-499.4277104390938
 31
0.0
  0
LINE
  5
2DF
  8
回13-記事
  6
CONTINUOUS
 62
     7
 10
3968.624418888702
 20
-491.0730188575347
 30
0.0
 11
3970.155976325058
 21
-487.1889319786017
 31
0.0
  0
LINE
  5
2E0
  8
回13-記事
  6
CONTINUOUS
 62
     7
 10
3990.866366761544
 20
-492.0157810286513
 30
0.0
 11
3993.054212734671
 21
-497.0766315276099
 31
0.0
  0
LINE
  5
2E1
  8
回13-記事
  6
CONTINUOUS
 62
     7
 10
4270.060535287885
 20
-493.7220867311101
 30
0.0
 11
4272.525915843401
 21
-501.1522842652993
 31
0.0
  0
LINE
  5
2E2
  8
回13-記事
  6
CONTINUOUS
 62
     7
 10
4280.818566415532
 20
-490.8112263242295
 30
0.0
 11
4283.956326546364
 21
-483.198213252885
 31
0.0
  0
ARC
  5
2E3
  8
回13-記事
  6
CONTINUOUS
 62
     7
 10
4080.320020516971
 20
-492.4830599392561
 30
0.0
 40
0.307948428894622
 50
0.0
 51
180.0
  0
POLYLINE
  5
2E4
  8
回13-記事
  6
CONTINUOUS
 62
     7
 66
     1
 10
0.0
 20
0.0
 30
0.0
 70
     1
  0
VERTEX
  5
350
  8
回13-記事
  6
CONTINUOUS
 62
     7
 10
3972.005271041095
 20
-490.8298670862701
 30
0.0
  0
VERTEX
  5
352
  8
回13-記事
  6
CONTINUOUS
 62
     7
 10
3972.005271041095
 20
-491.4298670862701
 30
0.0
  0
VERTEX
  5
353
  8
回13-記事
  6
CONTINUOUS
 62
     7
 10
3962.005271041095
 20
-491.4298670862701
 30
0.0
  0
VERTEX
  5
354
  8
回13-記事
  6
CONTINUOUS
 62
     7
 10
3962.005271041095
 20
-490.8298670862701
 30
0.0
  0
SEQEND
  5
351
  8
回13-記事
 62
     7
  0
LINE
  5
2E5
  8
回13-記事
  6
CONTINUOUS
 62
     7
 10
4077.573271002401
 20
-491.4298670862701
 30
0.0
 11
4077.573271002401
 21
-492.4830599392561
 31
0.0
  0
LINE
  5
2E6
  8
回13-記事
  6
CONTINUOUS
 62
     7
 10
4458.453271002401
 20
-491.4298670862701
 30
0.0
 11
4458.453271002401
 21
-492.4830599392561
 31
0.0
  0
POLYLINE
  5
2E7
  8
回13-記事
  6
CONTINUOUS
 62
     7
 66
     1
 10
0.0
 20
0.0
 30
0.0
 70
     1
  0
VERTEX
  5
355
  8
回13-記事
  6
CONTINUOUS
 62
     7
 10
3962.005271041095
 20
-492.4830599392561
 30
0.0
  0
VERTEX
  5
357
  8
回13-記事
  6
CONTINUOUS
 62
     7
 10
4069.563271002402
 20
-492.4830599392561
 30
0.0
  0
VERTEX
  5
358
  8
回13-記事
  6
CONTINUOUS
 62
     7
 10
4069.563271002402
 20
-491.4298670862701
 30
0.0
  0
VERTEX
  5
359
  8
回13-記事
  6
CONTINUOUS
 62
     7
 10
3962.005271041095
 20
-491.4298670862701
 30
0.0
  0
SEQEND
  5
356
  8
回13-記事
 62
     7
  0
POLYLINE
  5
2E8
  8
回13-記事
  6
CONTINUOUS
 62
     7
 66
     1
 10
0.0
 20
0.0
 30
0.0
 70
     1
  0
VERTEX
  5
35A
  8
回13-記事
  6
CONTINUOUS
 62
     7
 10
3962.005271041095
 20
-492.4830599392561
 30
0.0
  0
VERTEX
  5
35C
  8
回13-記事
  6
CONTINUOUS
 62
     7
 10
4062.563271002402
 20
-492.4830599392561
 30
0.0
  0
VERTEX
  5
35D
  8
回13-記事
  6
CONTINUOUS
 62
     7
 10
4062.563271002402
 20
-493.2628137486839
 30
0.0
  0
VERTEX
  5
35E
  8
回13-記事
  6
CONTINUOUS
 62
     7
 10
3962.005271041095
 20
-493.2628137486839
 30
0.0
  0
SEQEND
  5
35B
  8
回13-記事
 62
     7
  0
LINE
  5
2E9
  8
回13-記事
  6
CONTINUOUS
 62
     7
 10
4466.843271002402
 20
-491.4298670862701
 30
0.0
 11
4466.843271002402
 21
-492.4830599392561
 31
0.0
  0
POLYLINE
  5
2EA
  8
回13-記事
  6
CONTINUOUS
 62
     7
 66
     1
 10
0.0
 20
0.0
 30
0.0
 70
     1
  0
VERTEX
  5
35F
  8
回13-記事
  6
CONTINUOUS
 62
     7
 10
4061.063271002402
 20
-492.4830599392561
 30
0.0
  0
VERTEX
  5
361
  8
回13-記事
  6
CONTINUOUS
 62
     7
 10
4467.343271002401
 20
-492.4830599392561
 30
0.0
  0
VERTEX
  5
362
  8
回13-記事
  6
CONTINUOUS
 62
     7
 10
4467.343271002401
 20
-495.6989839349438
 30
0.0
  0
VERTEX
  5
363
  8
回13-記事
  6
CONTINUOUS
 62
     7
 10
4061.063271002402
 20
-495.6989839349438
 30
0.0
  0
SEQEND
  5
360
  8
回13-記事
 62
     7
  0
POLYLINE
  5
2EB
  8
回13-記事
  6
CONTINUOUS
 62
     7
 66
     1
 10
0.0
 20
0.0
 30
0.0
 70
     1
  0
VERTEX
  5
364
  8
回13-記事
  6
CONTINUOUS
 62
     7
 10
4061.563271002402
 20
-489.9756329233618
 30
0.0
  0
VERTEX
  5
366
  8
回13-記事
  6
CONTINUOUS
 62
     7
 10
4466.843271002402
 20
-489.9756329233618
 30
0.0
  0
VERTEX
  5
367
  8
回13-記事
  6
CONTINUOUS
 62
     7
 10
4466.843271002402
 20
-491.4298670862701
 30
0.0
  0
VERTEX
  5
368
  8
回13-記事
  6
CONTINUOUS
 62
     7
 10
4061.563271002402
 20
-491.4298670862701
 30
0.0
  0
SEQEND
  5
365
  8
回13-記事
 62
     7
  0
TEXT
  5
2EC
  8
回12-寸法
 62
     5
 10
4042.419852487022
 20
-304.3713570325256
 30
0.0
 40
4.0
  1
2-R2
1001
ACAD
1000
MTEXTBEGIN
1070
    73
1070
     1
1070
    44
1040
1.0
1070
    74
1070
     0
1000
MTEXTEND
  0
INSERT
  5
2ED
  8
回12-寸法
 62
     3
 66
     1
  2
*X25
 10
0.0
 20
0.0
 30
0.0
  0
SEQEND
  5
36F
  8
回13-記事
 62
     7
  0
POLYLINE
  5
2EE
  8
回13-記事
  6
DASHED2
 62
     7
 66
     1
 10
0.0
 20
0.0
 30
0.0
 70
     1
  0
VERTEX
  5
370
  8
回13-記事
  6
DASHED2
 62
     7
 10
4053.0632710024
 20
-297.0458273776616
 30
0.0
  0
VERTEX
  5
372
  8
回13-記事
  6
DASHED2
 62
     7
 10
4070.621270963708
 20
-297.0458273776616
 30
0.0
  0
VERTEX
  5
373
  8
回13-記事
  6
DASHED2
 62
     7
 10
4070.621270963708
 20
-282.8058273776612
 30
0.0
  0
VERTEX
  5
374
  8
回13-記事
  6
DASHED2
 62
     7
 10
4053.0632710024
 20
-282.8058273776612
 30
0.0
  0
SEQEND
  5
371
  8
回13-記事
 62
     7
  0
POLYLINE
  5
2EF
  8
回13-記事
  6
DASHED2
 62
     7
 66
     1
 10
0.0
 20
0.0
 30
0.0
 70
     1
  0
VERTEX
  5
375
  8
回13-記事
  6
DASHED2
 62
     7
 10
3951.063271002402
 20
-296.1996273776609
 30
0.0
  0
VERTEX
  5
377
  8
回13-記事
  6
DASHED2
 62
     7
 10
3964.779271002401
 20
-296.1996273776609
 30
0.0
  0
VERTEX
  5
378
  8
回13-記事
  6
DASHED2
 62
     7
 10
3964.779271002401
 20
-283.6520273776608
 30
0.0
  0
VERTEX
  5
379
  8
回13-記事
  6
DASHED2
 62
     7
 10
3951.063271002402
 20
-283.6520273776608
 30
0.0
  0
SEQEND
  5
376
  8
回13-記事
 62
     7
  0
INSERT
  5
2F0
  8
回13-記事
  6
CONTINUOUS
 62
     5
 66
     1
  2
*X26
 10
0.0
 20
0.0
 30
0.0
  0
SEQEND
  5
37F
  8
回13-記事
 62
     7
  0
INSERT
  5
2F1
  8
回13-記事
  6
CONTINUOUS
 62
     7
 66
     1
  2
*X27
 10
0.0
 20
0.0
 30
0.0
  0
SEQEND
  5
386
  8
回13-記事
 62
     7
  0
TEXT
  5
2F2
  8
回13-記事
  6
CONTINUOUS
 62
     5
 10
3957.016877338857
 20
-301.5689708696701
 30
0.0
 40
4.777499999999998
  1
5
 50
90.0
  0
TEXT
  5
2F3
  8
回13-記事
  6
CONTINUOUS
 62
     5
 10
3957.016877338857
 20
-281.0769897439611
 30
0.0
 40
4.777499999999998
  1
1
 50
90.0
  0
INSERT
  5
2F4
  8
回13-記事
  6
CONTINUOUS
 62
     8
 66
     1
  2
*X28
 10
0.0
 20
0.0
 30
0.0
1001
ACAD
1000
HATCH
1002
{
1070
    19
1000
ANSI31
1040
1.0
1040
3.141592653589793
1000
ASC_BOUNDS
1070
     1
1070
     2
1070
     1
1005
2F5
1000
ASC_SEEDPOINT
1011
3862.138560760243
1021
-263.6101183533378
1031
0.0
1000
R14_HATCH_DATA
1000
2F4
1011
1.0
1021
0.0
1031
0.0
1011
0.0
1021
1.0
1031
0.0
1011
0.0
1021
0.0
1031
1.0
1040
0.0
1010
0.0
1020
0.0
1030
1.0
1000
ANSI31
1070
     0
1070
     1
1071
        1
1071
        1
1071
        8
1070
     1
1040
4012.833325659715
1040
-288.8428089141509
1040
4012.833325659715
1040
-290.8428089141509
1070
     2
1040
4013.833325659715
1040
-290.8428089141509
1040
1.0
1040
3.141592653589793
1040
4.712388980384689
1070
     1
1070
     1
1040
4013.833325659715
1040
-291.8428089141509
1040
4037.833325659715
1040
-291.8428089141509
1070
     2
1040
4037.833325659715
1040
-290.8428089141509
1040
1.0
1040
4.712388980384689
1040
6.283185307179586
1070
     1
1070
     1
1040
4038.833325659715
1040
-290.8428089141509
1040
4038.833325659715
1040
-288.8428089141509
1070
     2
1040
4037.833325659715
1040
-288.8428089141509
1040
1.0
1040
0.0
1040
1.570796326794896
1070
     1
1070
     1
1040
4037.833325659715
1040
-287.8428089141509
1040
4013.833325659715
1040
-287.8428089141509
1070
     2
1040
4013.833325659715
1040
-288.8428089141509
1040
1.0
1040
1.570796326794896
1040
3.141592653589793
1070
     1
1071
        1
1005
2F5
1070
     0
1070
     1
1040
3.141592653589793
1040
1.0
1070
     0
1070
     1
1040
2.356194490192344
1040
3862.138560760243
1040
-263.6101183533378
1040
2.245064030267287
1040
2.245064030267288
1070
     0
1071
        1
1040
3862.138560760243
1040
-263.6101183533378
1040
0.0
1002
}
  0
SEQEND
  5
390
  8
回13-記事
 62
     7
  0
POLYLINE
  5
2F5
  8
回13-記事
  6
PHANTOM2
 62
     8
 66
     1
 10
0.0
 20
0.0
 30
0.0
 70
     1
1001
ACAD
1000
ASC_BOUNDS
1002
{
1070
    19
1005
2F4
1002
}
  0
VERTEX
  5
391
  8
回13-記事
  6
PHANTOM2
 62
     8
 10
4012.833325659715
 20
-288.8428089141509
 30
0.0
  0
VERTEX
  5
393
  8
回13-記事
  6
PHANTOM2
 62
     8
 10
4012.833325659715
 20
-290.8428089141509
 30
0.0
 42
0.4142135623730951
  0
VERTEX
  5
394
  8
回13-記事
  6
PHANTOM2
 62
     8
 10
4013.833325659715
 20
-291.8428089141509
 30
0.0
  0
VERTEX
  5
395
  8
回13-記事
  6
PHANTOM2
 62
     8
 10
4037.833325659715
 20
-291.8428089141509
 30
0.0
 42
0.4142135623730951
  0
VERTEX
  5
396
  8
回13-記事
  6
PHANTOM2
 62
     8
 10
4038.833325659715
 20
-290.8428089141509
 30
0.0
  0
VERTEX
  5
397
  8
回13-記事
  6
PHANTOM2
 62
     8
 10
4038.833325659715
 20
-288.8428089141509
 30
0.0
 42
0.4142135623730951
  0
VERTEX
  5
398
  8
回13-記事
  6
PHANTOM2
 62
     8
 10
4037.833325659715
 20
-287.8428089141509
 30
0.0
  0
VERTEX
  5
399
  8
回13-記事
  6
PHANTOM2
 62
     8
 10
4013.833325659715
 20
-287.8428089141509
 30
0.0
 42
0.4142135623730951
  0
SEQEND
  5
392
  8
回13-記事
 62
     7
  0
LINE
  5
2F7
  8
回10-ﾃｰﾙ
  6
CONTINUOUS
 62
     7
 10
4061.563271002402
 20
-280.3058273776605
 30
0.0
 11
4061.563271002402
 21
-279.9258273776608
 31
0.0
  0
ARC
  5
2FB
  8
回10-ﾃｰﾙ
  6
CONTINUOUS
 62
     7
 10
4059.563271002402
 20
-280.3058273776605
 30
0.0
 40
2.0
 50
270.0
 51
0.0
  0
LINE
  5
2FC
  8
回10-ﾃｰﾙ
  6
CONTINUOUS
 62
     7
 10
4061.563271002402
 20
-299.5458273776609
 30
0.0
 11
4061.563271002402
 21
-299.9258273776608
 31
0.0
  0
ARC
  5
2FD
  8
回10-ﾃｰﾙ
  6
CONTINUOUS
 62
     7
 10
4059.563271002402
 20
-299.5458273776609
 30
0.0
 40
2.0
 50
0.0
 51
90.0
  0
ARC
  5
2FE
  8
回10-ﾃｰﾙ
 62
     7
 10
3959.818271002402
 20
-282.8058273776607
 30
0.0
 40
0.5
 50
90.0
 51
180.0
  0
ARC
  5
2FF
  8
回10-ﾃｰﾙ
 62
     7
 10
3959.818271002402
 20
-297.0458273776607
 30
0.0
 40
0.5
 50
180.0
 51
270.0
  0
LINE
  5
300
  8
回10-ﾃｰﾙ
 62
     7
 10
3959.318271002402
 20
-297.0458273776607
 30
0.0
 11
3959.318271002402
 21
-282.8058273776607
 31
0.0
  0
LINE
  5
301
  8
回10-ﾃｰﾙ
 62
     7
 10
4059.563271002402
 20
-282.3058273776605
 30
0.0
 11
3959.818271002402
 21
-282.3058273776605
 31
0.0
  0
LINE
  5
302
  8
回10-ﾃｰﾙ
 62
     7
 10
4059.563271002402
 20
-297.5458273776609
 30
0.0
 11
3959.818271002402
 21
-297.5458273776609
 31
0.0
  0
LINE
  5
303
  8
回10-ﾃｰﾙ
  6
CONTINUOUS
 62
     7
 10
4061.563271002402
 20
-280.3058273776606
 30
0.0
 11
4061.563271002402
 21
-279.9258273776608
 31
0.0
  0
TEXT
  5
304
  8
回13-記事
  6
CONTINUOUS
 62
     5
 10
4447.313464544912
 20
-440.2270234119375
 30
0.0
 40
4.777499999999998
  1
LR
  0
TEXT
  5
305
  8
回13-記事
  6
CONTINUOUS
 62
     5
 10
4448.565846771216
 20
-143.3708751485247
 30
0.0
 40
4.777499999999998
  1
UR
  0
TEXT
  5
306
  8
回13-記事
  6
CONTINUOUS
 62
     5
 10
4079.741642642065
 20
-440.5746364237164
 30
0.0
 40
4.777499999999998
  1
LL
  0
TEXT
  5
307
  8
回13-記事
  6
CONTINUOUS
 62
     5
 10
4079.512079932105
 20
-144.0215637099217
 30
0.0
 40
4.777499999999998
  1
UL
  0
POLYLINE
  5
308
  8
回13-記事
  6
PHANTOM2
 62
     7
 66
     1
 10
0.0
 20
0.0
 30
0.0
 70
     1
  0
VERTEX
  5
39A
  8
回13-記事
  6
PHANTOM2
 62
     7
 10
4077.573271002401
 20
-137.1158273776608
 30
0.0
  0
VERTEX
  5
39C
  8
回13-記事
  6
PHANTOM2
 62
     7
 10
4458.453271002401
 20
-137.1158273776608
 30
0.0
  0
VERTEX
  5
39D
  8
回13-記事
  6
PHANTOM2
 62
     7
 10
4458.453271002401
 20
-442.7358273776609
 30
0.0
  0
VERTEX
  5
39E
  8
回13-記事
  6
PHANTOM2
 62
     7
 10
4077.573271002401
 20
-442.7358273776609
 30
0.0
  0
SEQEND
  5
39B
  8
回13-記事
 62
     7
  0
LINE
  5
309
  8
回12-寸法
  6
CENTER2
 62
     1
 10
4473.856824750083
 20
-289.9258273776608
 30
0.0
 11
3957.046326627341
 21
-289.9258273776608
 31
0.0
  0
LINE
  5
30B
  8
回12-寸法
  6
CENTER2
 62
     1
 10
4264.203271002401
 20
-118.3994187286486
 30
0.0
 11
4264.203271002401
 21
-457.2049316631306
 31
0.0
  0
INSERT
  5
30C
  8
回13-記事
 62
     7
 66
     1
  2
*U29
 10
0.0
 20
0.0
 30
0.0
1001
ACAD
1000
ASC_BOUNDS
1002
{
1070
    19
1005
30D
1002
}
  0
SEQEND
  5
3AA
  8
回13-記事
 62
     7
  0
INSERT
  5
30D
  8
回13-記事
 62
     8
 66
     1
  2
*X30
 10
0.0
 20
0.0
 30
0.0
1001
ACAD
1000
HATCH
1002
{
1070
    19
1000
ANSI31
1040
25.0
1040
0.0
1000
ASC_BOUNDS
1070
     1
1070
     2
1070
     1
1005
30C
1000
ASC_SEEDPOINT
1011
941.5587340102865
1021
-14.97118805062655
1031
0.0
1000
R14_HATCH_DATA
1000
30D
1011
1.0
1021
0.0
1031
0.0
1011
0.0
1021
1.0
1031
0.0
1011
0.0
1021
0.0
1031
1.0
1040
0.0
1010
0.0
1020
0.0
1030
1.0
1000
ANSI31
1070
     0
1070
     1
1071
        1
1071
        1
1071
        8
1070
     1
1040
4053.0632710024
1040
-282.8058273776612
1040
4053.0632710024
1040
-297.0458273776616
1070
     1
1040
4053.0632710024
1040
-297.0458273776616
1040
4061.563271002401
1040
-297.0458273776616
1070
     1
1040
4061.563271002401
1040
-297.0458273776616
1040
4061.563271002401
1040
-304.1658273776615
1070
     1
1040
4061.563271002401
1040
-304.1658273776615
1040
4070.621270963708
1040
-304.1658273776615
1070
     1
1040
4070.621270963708
1040
-304.1658273776615
1040
4070.621270963708
1040
-275.6858273776613
1070
     1
1040
4070.621270963708
1040
-275.6858273776613
1040
4061.563271002401
1040
-275.6858273776613
1070
     1
1040
4061.563271002401
1040
-275.6858273776613
1040
4061.563271002401
1040
-282.8058273776612
1070
     1
1040
4061.563271002401
1040
-282.8058273776612
1040
4053.0632710024
1040
-282.8058273776612
1071
        1
1005
30C
1070
     0
1070
     1
1040
0.0
1040
25.0
1070
     0
1070
     1
1040
0.7853981633974483
1040
941.5587340102865
1040
-14.97118805062655
1040
-2.20970869120796
1040
2.209708691207961
1070
     0
1071
        1
1040
941.5587340102865
1040
-14.97118805062655
1040
0.0
1002
}
  0
SEQEND
  5
3B9
  8
回13-記事
 62
     7
  0
ENDSEC
  0
EOF
