  0
SECTION
  2
HEADER
  9
$ACADVER
  1
AC1009
  9
$INSBASE
 10
0.0
 20
0.0
 30
0.0
  9
$EXTMIN
 10
3146.32278576567
 20
-1226.159654644776
 30
0.0
  9
$EXTMAX
 10
3525.209542904752
 20
-968.8908689330551
 30
0.0
  9
$LIMMIN
 10
0.0
 20
0.0
  9
$LIMMAX
 10
3000.0
 20
2500.0
  9
$ORTHOMODE
 70
     0
  9
$REGENMODE
 70
     1
  9
$FILLMODE
 70
     1
  9
$QTEXTMODE
 70
     0
  9
$MIRRTEXT
 70
     0
  9
$DRAGMODE
 70
     2
  9
$LTSCALE
 40
1.0
  9
$OSMODE
 70
    37
  9
$ATTMODE
 70
     1
  9
$TEXTSIZE
 40
2.0
  9
$TRACEWID
 40
1.0
  9
$TEXTSTYLE
  7
STANDARD
  9
$CLAYER
  8
回08-記事
  9
$CELTYPE
  6
CONTINUOUS
  9
$CECOLOR
 62
     5
  9
$DIMSCALE
 40
1.0
  9
$DIMASZ
 40
2.0
  9
$DIMEXO
 40
0.0
  9
$DIMDLI
 40
0.0
  9
$DIMRND
 40
0.0
  9
$DIMDLE
 40
0.0
  9
$DIMEXE
 40
1.0
  9
$DIMTP
 40
0.0
  9
$DIMTM
 40
0.0
  9
$DIMTXT
 40
2.0
  9
$DIMCEN
 40
2.0
  9
$DIMTSZ
 40
0.0
  9
$DIMTOL
 70
     0
  9
$DIMLIM
 70
     0
  9
$DIMTIH
 70
     0
  9
$DIMTOH
 70
     0
  9
$DIMSE1
 70
     0
  9
$DIMSE2
 70
     0
  9
$DIMTAD
 70
     3
  9
$DIMZIN
 70
     8
  9
$DIMBLK
  1
OPEN
  9
$DIMASO
 70
     1
  9
$DIMSHO
 70
     1
  9
$DIMPOST
  1

  9
$DIMAPOST
  1

  9
$DIMALT
 70
     0
  9
$DIMALTD
 70
     3
  9
$DIMALTF
 40
0.03937007874016
  9
$DIMLFAC
 40
1.0
  9
$DIMTOFL
 70
     1
  9
$DIMTVP
 40
0.0
  9
$DIMTIX
 70
     0
  9
$DIMSOXD
 70
     0
  9
$DIMSAH
 70
     0
  9
$DIMBLK1
  1

  9
$DIMBLK2
  1

  9
$DIMSTYLE
  2
DMC
  9
$DIMCLRD
 70
     5
  9
$DIMCLRE
 70
     5
  9
$DIMCLRT
 70
     5
  9
$DIMTFAC
 40
0.7
  9
$DIMGAP
 40
0.5
  9
$LUNITS
 70
     2
  9
$LUPREC
 70
     4
  9
$SKETCHINC
 40
1.0
  9
$FILLETRAD
 40
0.0
  9
$AUNITS
 70
     0
  9
$AUPREC
 70
     0
  9
$MENU
  1
.
  9
$ELEVATION
 40
0.0
  9
$PELEVATION
 40
0.0
  9
$THICKNESS
 40
0.0
  9
$LIMCHECK
 70
     0
  9
$BLIPMODE
 70
     0
  9
$CHAMFERA
 40
1.0
  9
$CHAMFERB
 40
1.0
  9
$SKPOLY
 70
     0
  9
$TDCREATE
 40
2451810.404221065
  9
$TDUPDATE
 40
2458936.670868055
  9
$TDINDWG
 40
3.687101481
  9
$TDUSRTIMER
 40
2458362.220577268
  9
$USRTIMER
 70
     1
  9
$ANGBASE
 50
0.0
  9
$ANGDIR
 70
     0
  9
$PDMODE
 70
     0
  9
$PDSIZE
 40
0.0
  9
$PLINEWID
 40
0.2
  9
$COORDS
 70
     0
  9
$SPLFRAME
 70
     0
  9
$SPLINETYPE
 70
     6
  9
$SPLINESEGS
 70
     8
  9
$ATTDIA
 70
     1
  9
$ATTREQ
 70
     1
  9
$HANDLING
 70
     1
  9
$HANDSEED
  5
4F0
  9
$SURFTAB1
 70
     6
  9
$SURFTAB2
 70
     6
  9
$SURFTYPE
 70
     6
  9
$SURFU
 70
     6
  9
$SURFV
 70
     6
  9
$UCSNAME
  2

  9
$UCSORG
 10
0.0
 20
0.0
 30
0.0
  9
$UCSXDIR
 10
1.0
 20
0.0
 30
0.0
  9
$UCSYDIR
 10
0.0
 20
1.0
 30
0.0
  9
$PUCSNAME
  2

  9
$PUCSORG
 10
0.0
 20
0.0
 30
0.0
  9
$PUCSXDIR
 10
1.0
 20
0.0
 30
0.0
  9
$PUCSYDIR
 10
0.0
 20
1.0
 30
0.0
  9
$USERI1
 70
     0
  9
$USERI2
 70
     0
  9
$USERI3
 70
     0
  9
$USERI4
 70
     0
  9
$USERI5
 70
     0
  9
$USERR1
 40
0.0
  9
$USERR2
 40
0.0
  9
$USERR3
 40
0.0
  9
$USERR4
 40
0.0
  9
$USERR5
 40
0.0
  9
$WORLDVIEW
 70
     1
  9
$SHADEDGE
 70
     3
  9
$SHADEDIF
 70
    70
  9
$TILEMODE
 70
     1
  9
$MAXACTVP
 70
    64
  9
$PLIMCHECK
 70
     0
  9
$PEXTMIN
 10
1.000000000000000E+20
 20
1.000000000000000E+20
 30
1.000000000000000E+20
  9
$PEXTMAX
 10
-1.000000000000000E+20
 20
-1.000000000000000E+20
 30
-1.000000000000000E+20
  9
$PLIMMIN
 10
0.0
 20
0.0
  9
$PLIMMAX
 10
420.0
 20
297.0
  9
$UNITMODE
 70
     0
  9
$VISRETAIN
 70
     1
  9
$PLINEGEN
 70
     0
  9
$PSLTSCALE
 70
     1
  0
ENDSEC
  0
SECTION
  2
TABLES
  0
TABLE
  2
VPORT
 70
     1
  0
VPORT
  2
*ACTIVE
 70
     0
 10
0.0
 20
0.0
 11
1.0
 21
1.0
 12
3343.742055870939
 22
-1102.490613783203
 13
0.0
 23
0.0
 14
10.0
 24
10.0
 15
10.0
 25
10.0
 16
0.0
 26
0.0
 36
1.0
 17
0.0
 27
0.0
 37
0.0
 40
291.0866793400515
 41
2.16030534351145
 42
50.0
 43
0.0
 44
0.0
 50
0.0
 51
0.0
 71
    16
 72
 20000
 73
     1
 74
     1
 75
     0
 76
     0
 77
     0
 78
     0
  0
ENDTAB
  0
TABLE
  2
LTYPE
 70
     4
  0
LTYPE
  2
CONTINUOUS
 70
     0
  3
Solid line
 72
    65
 73
     0
 40
0.0
  0
LTYPE
  2
CENTER
 70
     0
  3
Center ____ _ ____ _ ____ _ ____ _ ____ _ ____
 72
    65
 73
     4
 40
50.8
 49
31.75
 49
-6.349999999999999
 49
6.349999999999999
 49
-6.349999999999999
  0
LTYPE
  2
CENTER2
 70
     0
  3
___ _ ___ _ ___ _ ___ _ ___ _ ___ _ ___ _ ___ _
 72
    65
 73
     4
 40
1.125
 49
0.75
 49
-0.125
 49
0.125
 49
-0.125
  0
LTYPE
  2
PHANTOM2
 70
     0
  3
___ _ _ ___ _ _ ___ _ _ ___ _ _ ___ _ _ ___ _ _
 72
    65
 73
     6
 40
1.25
 49
0.625
 49
-0.125
 49
0.125
 49
-0.125
 49
0.125
 49
-0.125
  0
ENDTAB
  0
TABLE
  2
LAYER
 70
    11
  0
LAYER
  2
0
 70
     0
 62
     7
  6
CONTINUOUS
  0
LAYER
  2
DEFPOINTS
 70
     0
 62
     7
  6
CONTINUOUS
  0
LAYER
  2
回04-下接
 70
     0
 62
     7
  6
CONTINUOUS
  0
LAYER
  2
回05-ﾃｰﾙ
 70
     0
 62
     7
  6
CONTINUOUS
  0
LAYER
  2
回07-寸法
 70
     0
 62
     7
  6
CONTINUOUS
  0
LAYER
  2
回08-記事
 70
     0
 62
     7
  6
CONTINUOUS
  0
LAYER
  2
REF
 70
     0
 62
     7
  6
CONTINUOUS
  0
LAYER
  2
回90-枠2
 70
     0
 62
     7
  6
CONTINUOUS
  0
LAYER
  2
回04-図面枠
 70
     0
 62
     7
  6
CONTINUOUS
  0
LAYER
  2
回02-寸法
 70
     0
 62
     7
  6
CONTINUOUS
  0
LAYER
  2
回03-記事
 70
     0
 62
     7
  6
CONTINUOUS
  0
ENDTAB
  0
TABLE
  2
STYLE
 70
     1
  0
STYLE
  2
STANDARD
 70
     0
 40
2.0
 41
1.0
 50
0.0
 71
     0
 42
2.0
  3
isocp.shx
  4
bigfont.shx
  0
ENDTAB
  0
TABLE
  2
VIEW
 70
     0
  0
ENDTAB
  0
TABLE
  2
UCS
 70
     0
  0
ENDTAB
  0
TABLE
  2
APPID
 70
    11
  0
APPID
  2
ACAD
 70
     0
  0
APPID
  2
ACAD_PSEXT
 70
     0
  0
APPID
  2
ACAECLAYERSTANDARD
 70
     0
  0
APPID
  2
ACADSTRINGINFO
 70
     0
  0
APPID
  2
ACAD_NAV_VCDISPLAY
 70
     0
  0
APPID
  2
ACAD_MLEADERVER
 70
     0
  0
APPID
  2
ACAD_DSTYLE_DIMJAG
 70
     0
  0
APPID
  2
ACAD_DSTYLE_DIMTALN
 70
     0
  0
APPID
  2
ACCMTRANSPARENCY
 70
     0
  0
APPID
  2
GRADIENTCOLOR1ACI
 70
     0
  0
APPID
  2
GRADIENTCOLOR2ACI
 70
     0
  0
ENDTAB
  0
TABLE
  2
DIMSTYLE
 70
     1
  0
DIMSTYLE
  2
DMC
 70
     0
  3

  4

  5
OPEN
  6

  7

 40
1.0
 41
2.0
 42
0.0
 43
0.0
 44
1.0
 45
0.0
 46
0.0
 47
0.0
 48
0.0
140
2.0
141
2.0
142
0.0
143
0.03937007874016
144
1.0
145
0.0
146
0.7
147
0.5
 71
     0
 72
     0
 73
     0
 74
     0
 75
     0
 76
     0
 77
     3
 78
     8
170
     0
171
     3
172
     1
173
     0
174
     0
175
     0
176
     5
177
     5
178
     5
  0
ENDTAB
  0
ENDSEC
  0
SECTION
  2
BLOCKS
  0
BLOCK
  8
0
  2
$MODEL_SPACE
 70
     0
 10
0.0
 20
0.0
 30
0.0
  3
$MODEL_SPACE
  1

  0
ENDBLK
  8
0
  5
23
  0
BLOCK
 67
     1
  8
0
  2
$PAPER_SPACE
 70
     0
 10
0.0
 20
0.0
 30
0.0
  3
$PAPER_SPACE
  1

  0
ENDBLK
  5
29
 67
     1
  8
0
  0
BLOCK
  8
0
  2
_OPEN
 70
     0
 10
0.0
 20
0.0
 30
0.0
  3
_OPEN
  1

  0
LINE
  5
15
  8
0
  6
CONTINUOUS
 62
     0
 10
-1.0
 20
0.1666666666666666
 30
0.0
 11
0.0
 21
0.0
 31
0.0
  0
LINE
  5
16
  8
0
  6
CONTINUOUS
 62
     0
 10
-1.0
 20
-0.1666666666666666
 30
0.0
 11
0.0
 21
0.0
 31
0.0
  0
LINE
  5
17
  8
0
  6
CONTINUOUS
 62
     0
 10
0.0
 20
0.0
 30
0.0
 11
-1.0
 21
0.0
 31
0.0
  0
ENDBLK
  5
18
  8
0
  0
BLOCK
  8
0
  2
*D1
 70
     1
 10
0.0
 20
0.0
 30
0.0
  3
*D1
  1

  0
LINE
  5
211
  8
回07-寸法
  6
CONTINUOUS
 62
     5
 10
3368.903963680944
 20
-1071.725786713719
 30
0.0
 11
3368.903963680944
 21
-1066.533027168943
 31
0.0
  0
LINE
  5
212
  8
回07-寸法
  6
CONTINUOUS
 62
     5
 10
3364.903963680944
 20
-1071.725786713719
 30
0.0
 11
3364.903963680944
 21
-1066.533027168943
 31
0.0
  0
LINE
  5
213
  8
回07-寸法
  6
CONTINUOUS
 62
     5
 10
3370.903963680944
 20
-1067.533027168943
 30
0.0
 11
3372.903963680944
 21
-1067.533027168943
 31
0.0
  0
LINE
  5
214
  8
回07-寸法
  6
CONTINUOUS
 62
     5
 10
3362.903963680944
 20
-1067.533027168943
 30
0.0
 11
3358.903963680944
 21
-1067.533027168943
 31
0.0
  0
LINE
  5
215
  8
回07-寸法
  6
CONTINUOUS
 62
     5
 10
3368.903963680944
 20
-1067.533027168943
 30
0.0
 11
3364.903963680944
 21
-1067.533027168943
 31
0.0
  0
INSERT
  5
216
  8
回07-寸法
  6
CONTINUOUS
 62
     5
  2
_OPEN
 10
3368.903963680944
 20
-1067.533027168943
 30
0.0
 41
2.0
 42
2.0
 43
2.0
 50
180.0
  0
INSERT
  5
217
  8
回07-寸法
  6
CONTINUOUS
 62
     5
  2
_OPEN
 10
3364.903963680944
 20
-1067.533027168943
 30
0.0
 41
2.0
 42
2.0
 43
2.0
  0
TEXT
  5
218
  8
回07-寸法
  6
CONTINUOUS
 62
     5
 10
3359.103963680944
 20
-1067.033027168943
 30
0.0
 40
2.0
  1
4
1001
ACAD
1000
MTEXTBEGIN
1070
    73
1070
     1
1070
    44
1040
1.0
1070
    74
1070
     0
1000
MTEXTEND
  0
POINT
  5
219
  8
DEFPOINTS
  6
CONTINUOUS
 62
     0
 10
3368.903963680944
 20
-1071.725786713719
 30
0.0
  0
POINT
  5
21A
  8
DEFPOINTS
  6
CONTINUOUS
 62
     0
 10
3364.903963680944
 20
-1071.725786713719
 30
0.0
  0
POINT
  5
21B
  8
DEFPOINTS
  6
CONTINUOUS
 62
     0
 10
3364.903963680944
 20
-1067.533027168943
 30
0.0
  0
ENDBLK
  5
21C
  8
0
  0
BLOCK
  8
0
  2
*D2
 70
     1
 10
0.0
 20
0.0
 30
0.0
  3
*D2
  1

  0
LINE
  5
202
  8
回07-寸法
  6
CONTINUOUS
 62
     5
 10
3372.903963680946
 20
-1075.72578671372
 30
0.0
 11
3380.245712619137
 21
-1075.72578671372
 31
0.0
  0
LINE
  5
203
  8
回07-寸法
  6
CONTINUOUS
 62
     5
 10
3372.903963680946
 20
-1079.725786713719
 30
0.0
 11
3380.245712619137
 21
-1079.725786713719
 31
0.0
  0
LINE
  5
204
  8
回07-寸法
  6
CONTINUOUS
 62
     5
 10
3379.245712619137
 20
-1073.72578671372
 30
0.0
 11
3379.245712619137
 21
-1071.725786713719
 31
0.0
  0
LINE
  5
205
  8
回07-寸法
  6
CONTINUOUS
 62
     5
 10
3379.245712619137
 20
-1081.72578671372
 30
0.0
 11
3379.245712619137
 21
-1085.725786713719
 31
0.0
  0
LINE
  5
206
  8
回07-寸法
  6
CONTINUOUS
 62
     5
 10
3379.245712619137
 20
-1075.72578671372
 30
0.0
 11
3379.245712619137
 21
-1079.725786713719
 31
0.0
  0
INSERT
  5
207
  8
回07-寸法
  6
CONTINUOUS
 62
     5
  2
_OPEN
 10
3379.245712619137
 20
-1075.72578671372
 30
0.0
 41
2.0
 42
2.0
 43
2.0
 50
270.0
  0
INSERT
  5
208
  8
回07-寸法
  6
CONTINUOUS
 62
     5
  2
_OPEN
 10
3379.245712619137
 20
-1079.725786713719
 30
0.0
 41
2.0
 42
2.0
 43
2.0
 50
90.0
  0
TEXT
  5
209
  8
回07-寸法
  6
CONTINUOUS
 62
     5
 10
3378.745712619136
 20
-1085.52578671372
 30
0.0
 40
2.0
  1
4
 50
90.0
1001
ACAD
1000
MTEXTBEGIN
1070
    73
1070
     1
1070
    44
1040
1.0
1070
    74
1070
     0
1000
MTEXTEND
  0
POINT
  5
20A
  8
DEFPOINTS
  6
CONTINUOUS
 62
     0
 10
3372.903963680946
 20
-1075.72578671372
 30
0.0
  0
POINT
  5
20B
  8
DEFPOINTS
  6
CONTINUOUS
 62
     0
 10
3372.903963680946
 20
-1079.725786713719
 30
0.0
  0
POINT
  5
20C
  8
DEFPOINTS
  6
CONTINUOUS
 62
     0
 10
3379.245712619137
 20
-1079.725786713719
 30
0.0
  0
ENDBLK
  5
20D
  8
0
  0
BLOCK
  8
0
  2
*D3
 70
     1
 10
0.0
 20
0.0
 30
0.0
  3
*D3
  1

  0
LINE
  5
3AF
  8
回07-寸法
  6
CONTINUOUS
 62
     5
 10
3198.503920170178
 20
-1074.850786713719
 30
0.0
 11
3185.869770914962
 21
-1074.850786713719
 31
0.0
  0
LINE
  5
3B0
  8
回07-寸法
  6
CONTINUOUS
 62
     5
 10
3198.503920170178
 20
-1068.600786713719
 30
0.0
 11
3185.869770914962
 21
-1068.600786713719
 31
0.0
  0
LINE
  5
3B1
  8
回07-寸法
  6
CONTINUOUS
 62
     5
 10
3186.869770914962
 20
-1076.850786713719
 30
0.0
 11
3186.869770914962
 21
-1078.85078671372
 31
0.0
  0
LINE
  5
3B2
  8
回07-寸法
  6
CONTINUOUS
 62
     5
 10
3186.869770914962
 20
-1066.600786713719
 30
0.0
 11
3186.869770914962
 21
-1054.822995375137
 31
0.0
  0
LINE
  5
3B3
  8
回07-寸法
  6
CONTINUOUS
 62
     5
 10
3186.869770914962
 20
-1074.850786713719
 30
0.0
 11
3186.869770914962
 21
-1068.600786713719
 31
0.0
  0
INSERT
  5
3B4
  8
回07-寸法
  6
CONTINUOUS
 62
     5
  2
_OPEN
 10
3186.869770914962
 20
-1074.850786713719
 30
0.0
 41
2.0
 42
2.0
 43
2.0
 50
90.0
  0
INSERT
  5
3B5
  8
回07-寸法
  6
CONTINUOUS
 62
     5
  2
_OPEN
 10
3186.869770914962
 20
-1068.600786713719
 30
0.0
 41
2.0
 42
2.0
 43
2.0
 50
270.0
  0
INSERT
  5
3B6
  8
回07-寸法
  6
CONTINUOUS
 62
     5
 66
     1
  2
*X47
 10
0.0
 20
0.0
 30
0.0
  0
SEQEND
  5
4A6
  8
回08-記事
  6
CONTINUOUS
 62
     5
  0
POINT
  5
3B7
  8
DEFPOINTS
  6
CONTINUOUS
 62
     0
 10
3198.503920170178
 20
-1074.850786713719
 30
0.0
  0
POINT
  5
3B8
  8
DEFPOINTS
  6
CONTINUOUS
 62
     0
 10
3198.503920170178
 20
-1068.600786713719
 30
0.0
  0
POINT
  5
3B9
  8
DEFPOINTS
  6
CONTINUOUS
 62
     0
 10
3186.869770914962
 20
-1068.600786713719
 30
0.0
  0
ENDBLK
  5
3BA
  8
0
  0
BLOCK
  8
0
  2
*D4
 70
     1
 10
0.0
 20
0.0
 30
0.0
  3
*D4
  1

  0
LINE
  5
3A0
  8
回07-寸法
  6
CONTINUOUS
 62
     5
 10
3273.81203377258
 20
-1063.726989747991
 30
0.0
 11
3254.507415889987
 21
-1063.726989747991
 31
0.0
  0
LINE
  5
3A1
  8
回07-寸法
  6
CONTINUOUS
 62
     5
 10
3273.816207358286
 20
-1079.725786713719
 30
0.0
 11
3254.507415889987
 21
-1079.725786713719
 31
0.0
  0
LINE
  5
3A2
  8
回07-寸法
  6
CONTINUOUS
 62
     5
 10
3255.507415889987
 20
-1081.725786713719
 30
0.0
 11
3255.507415889987
 21
-1083.725786713719
 31
0.0
  0
LINE
  5
3A3
  8
回07-寸法
  6
CONTINUOUS
 62
     5
 10
3255.507415889987
 20
-1061.726989747991
 30
0.0
 11
3255.507415889987
 21
-1055.878170850352
 31
0.0
  0
LINE
  5
3A4
  8
回07-寸法
  6
CONTINUOUS
 62
     5
 10
3255.507415889987
 20
-1079.725786713719
 30
0.0
 11
3255.507415889987
 21
-1063.726989747991
 31
0.0
  0
INSERT
  5
3A5
  8
回07-寸法
  6
CONTINUOUS
 62
     5
  2
_OPEN
 10
3255.507415889987
 20
-1079.725786713719
 30
0.0
 41
2.0
 42
2.0
 43
2.0
 50
90.0
  0
INSERT
  5
3A6
  8
回07-寸法
  6
CONTINUOUS
 62
     5
  2
_OPEN
 10
3255.507415889987
 20
-1063.726989747991
 30
0.0
 41
2.0
 42
2.0
 43
2.0
 50
270.0
  0
TEXT
  5
3A7
  8
回07-寸法
  6
CONTINUOUS
 62
     5
 10
3255.007415889985
 20
-1058.528612178
 30
0.0
 40
2.0
  1
16
 50
90.0
1001
ACAD
1000
MTEXTBEGIN
1070
    73
1070
     1
1070
    44
1040
1.0
1070
    74
1070
     0
1000
MTEXTEND
  0
POINT
  5
3A8
  8
DEFPOINTS
  6
CONTINUOUS
 62
     0
 10
3273.81203377258
 20
-1063.726989747991
 30
0.0
  0
POINT
  5
3A9
  8
DEFPOINTS
  6
CONTINUOUS
 62
     0
 10
3273.816207358286
 20
-1079.725786713719
 30
0.0
  0
POINT
  5
3AA
  8
DEFPOINTS
  6
CONTINUOUS
 62
     0
 10
3255.507415889987
 20
-1079.725786713719
 30
0.0
  0
ENDBLK
  5
3AB
  8
0
  0
BLOCK
  8
0
  2
*D5
 70
     1
 10
0.0
 20
0.0
 30
0.0
  3
*D5
  1

  0
LINE
  5
391
  8
回07-寸法
  6
CONTINUOUS
 62
     5
 10
3277.453963680944
 20
-1080.672221338435
 30
0.0
 11
3277.453963680944
 21
-1089.608306886073
 31
0.0
  0
LINE
  5
392
  8
回07-寸法
  6
CONTINUOUS
 62
     5
 10
3272.684681967438
 20
-1079.650145072874
 30
0.0
 11
3272.684681967438
 21
-1089.608306886073
 31
0.0
  0
LINE
  5
393
  8
回07-寸法
  6
CONTINUOUS
 62
     5
 10
3279.453963680944
 20
-1088.608306886073
 30
0.0
 11
3281.453963680944
 21
-1088.608306886073
 31
0.0
  0
LINE
  5
394
  8
回07-寸法
  6
CONTINUOUS
 62
     5
 10
3270.684681967438
 20
-1088.608306886073
 30
0.0
 11
3262.217348496214
 21
-1088.608306886073
 31
0.0
  0
LINE
  5
395
  8
回07-寸法
  6
CONTINUOUS
 62
     5
 10
3277.453963680944
 20
-1088.608306886073
 30
0.0
 11
3272.684681967438
 21
-1088.608306886073
 31
0.0
  0
INSERT
  5
396
  8
回07-寸法
  6
CONTINUOUS
 62
     5
  2
_OPEN
 10
3277.453963680944
 20
-1088.608306886073
 30
0.0
 41
2.0
 42
2.0
 43
2.0
 50
180.0
  0
INSERT
  5
397
  8
回07-寸法
  6
CONTINUOUS
 62
     5
  2
_OPEN
 10
3272.684681967438
 20
-1088.608306886073
 30
0.0
 41
2.0
 42
2.0
 43
2.0
  0
TEXT
  5
398
  8
回07-寸法
  6
CONTINUOUS
 62
     5
 10
3262.417348496214
 20
-1088.108306886073
 30
0.0
 40
2.0
  1
4.77
1001
ACAD
1000
MTEXTBEGIN
1070
    73
1070
     1
1070
    44
1040
1.0
1070
    74
1070
     0
1000
MTEXTEND
  0
POINT
  5
399
  8
DEFPOINTS
  6
CONTINUOUS
 62
     0
 10
3277.453963680944
 20
-1080.672221338435
 30
0.0
  0
POINT
  5
39A
  8
DEFPOINTS
  6
CONTINUOUS
 62
     0
 10
3272.684681967438
 20
-1079.650145072874
 30
0.0
  0
POINT
  5
39B
  8
DEFPOINTS
  6
CONTINUOUS
 62
     0
 10
3272.684681967438
 20
-1088.608306886073
 30
0.0
  0
ENDBLK
  5
39C
  8
0
  0
BLOCK
  8
0
  2
*D6
 70
     1
 10
0.0
 20
0.0
 30
0.0
  3
*D6
  1

  0
LINE
  5
384
  8
回07-寸法
  6
CONTINUOUS
 62
     5
 10
3277.453963680944
 20
-1080.672221338435
 30
0.0
 11
3277.453963680944
 21
-1095.32856439629
 31
0.0
  0
LINE
  5
385
  8
回07-寸法
  6
CONTINUOUS
 62
     5
 10
3267.726814500902
 20
-1074.930464052883
 30
0.0
 11
3267.726814500902
 21
-1095.32856439629
 31
0.0
  0
LINE
  5
386
  8
回07-寸法
  6
CONTINUOUS
 62
     5
 10
3275.453963680944
 20
-1094.32856439629
 30
0.0
 11
3269.726814500902
 21
-1094.32856439629
 31
0.0
  0
INSERT
  5
387
  8
回07-寸法
  6
CONTINUOUS
 62
     5
  2
_OPEN
 10
3277.453963680944
 20
-1094.32856439629
 30
0.0
 41
2.0
 42
2.0
 43
2.0
  0
INSERT
  5
388
  8
回07-寸法
  6
CONTINUOUS
 62
     5
  2
_OPEN
 10
3267.726814500902
 20
-1094.32856439629
 30
0.0
 41
2.0
 42
2.0
 43
2.0
 50
180.0
  0
TEXT
  5
389
  8
回07-寸法
  6
CONTINUOUS
 62
     5
 10
3270.642421210384
 20
-1093.82856439629
 30
0.0
 40
2.0
  1
9.73
1001
ACAD
1000
MTEXTBEGIN
1070
    73
1070
     1
1070
    44
1040
1.0
1070
    74
1070
     0
1000
MTEXTEND
  0
POINT
  5
38A
  8
DEFPOINTS
  6
CONTINUOUS
 62
     0
 10
3277.453963680944
 20
-1080.672221338435
 30
0.0
  0
POINT
  5
38B
  8
DEFPOINTS
  6
CONTINUOUS
 62
     0
 10
3267.726814500902
 20
-1074.930464052883
 30
0.0
  0
POINT
  5
38C
  8
DEFPOINTS
  6
CONTINUOUS
 62
     0
 10
3267.726814500902
 20
-1094.32856439629
 30
0.0
  0
ENDBLK
  5
38D
  8
0
  0
BLOCK
  8
0
  2
*D7
 70
     1
 10
0.0
 20
0.0
 30
0.0
  3
*D7
  1

  0
LINE
  5
1F5
  8
回07-寸法
  6
CONTINUOUS
 62
     5
 10
3277.453963680944
 20
-1062.779351889281
 30
0.0
 11
3277.453963680944
 21
-1039.518240850387
 31
0.0
  0
LINE
  5
1F6
  8
回07-寸法
  6
CONTINUOUS
 62
     5
 10
3197.253920170176
 20
-1071.725786713719
 30
0.0
 11
3197.253920170176
 21
-1039.518240850387
 31
0.0
  0
LINE
  5
1F7
  8
回07-寸法
  6
CONTINUOUS
 62
     5
 10
3275.453963680944
 20
-1040.518240850387
 30
0.0
 11
3199.253920170176
 21
-1040.518240850387
 31
0.0
  0
INSERT
  5
1F8
  8
回07-寸法
  6
CONTINUOUS
 62
     5
  2
_OPEN
 10
3277.453963680944
 20
-1040.518240850387
 30
0.0
 41
2.0
 42
2.0
 43
2.0
  0
INSERT
  5
1F9
  8
回07-寸法
  6
CONTINUOUS
 62
     5
  2
_OPEN
 10
3197.253920170176
 20
-1040.518240850387
 30
0.0
 41
2.0
 42
2.0
 43
2.0
 50
180.0
  0
INSERT
  5
1FA
  8
回07-寸法
  6
CONTINUOUS
 62
     5
 66
     1
  2
*X48
 10
0.0
 20
0.0
 30
0.0
  0
SEQEND
  5
4AC
  8
回08-記事
  6
CONTINUOUS
 62
     5
  0
POINT
  5
1FB
  8
DEFPOINTS
  6
CONTINUOUS
 62
     0
 10
3277.453963680944
 20
-1062.779351889281
 30
0.0
  0
POINT
  5
1FC
  8
DEFPOINTS
  6
CONTINUOUS
 62
     0
 10
3197.253920170176
 20
-1071.725786713719
 30
0.0
  0
POINT
  5
1FD
  8
DEFPOINTS
  6
CONTINUOUS
 62
     0
 10
3197.253920170176
 20
-1040.518240850387
 30
0.0
  0
ENDBLK
  5
1FE
  8
0
  0
BLOCK
  8
0
  2
*D8
 70
     1
 10
0.0
 20
0.0
 30
0.0
  3
*D8
  1

  0
LINE
  5
331
  8
回07-寸法
  6
CONTINUOUS
 62
     5
 10
3287.303963680944
 20
-1028.275786713719
 30
0.0
 11
3287.303963680944
 21
-1001.798171454446
 31
0.0
  0
LINE
  5
332
  8
回07-寸法
  6
CONTINUOUS
 62
     5
 10
3403.003963680945
 20
-1028.27578671372
 30
0.0
 11
3403.003963680945
 21
-1001.798171454446
 31
0.0
  0
LINE
  5
333
  8
回07-寸法
  6
CONTINUOUS
 62
     5
 10
3289.303963680945
 20
-1002.798171454446
 30
0.0
 11
3401.003963680945
 21
-1002.798171454446
 31
0.0
  0
INSERT
  5
334
  8
回07-寸法
  6
CONTINUOUS
 62
     5
  2
_OPEN
 10
3287.303963680944
 20
-1002.798171454446
 30
0.0
 41
2.0
 42
2.0
 43
2.0
 50
180.0
  0
INSERT
  5
335
  8
回07-寸法
  6
CONTINUOUS
 62
     5
  2
_OPEN
 10
3403.003963680945
 20
-1002.798171454446
 30
0.0
 41
2.0
 42
2.0
 43
2.0
  0
TEXT
  5
336
  8
回07-寸法
  6
CONTINUOUS
 62
     5
 10
3333.754357381732
 20
-1002.198171454446
 30
0.0
 40
2.0
  1
115.7 (Active Area)
1001
ACAD
1000
MTEXTBEGIN
1070
    73
1070
     1
1070
    44
1040
1.0
1070
    74
1070
     0
1000
MTEXTEND
  0
POINT
  5
337
  8
DEFPOINTS
  6
CONTINUOUS
 62
     0
 10
3287.303963680944
 20
-1028.275786713719
 30
0.0
  0
POINT
  5
338
  8
DEFPOINTS
  6
CONTINUOUS
 62
     0
 10
3403.003963680945
 20
-1028.27578671372
 30
0.0
  0
POINT
  5
339
  8
DEFPOINTS
  6
CONTINUOUS
 62
     0
 10
3403.003963680945
 20
-1002.798171454446
 30
0.0
  0
ENDBLK
  5
33A
  8
0
  0
BLOCK
  8
0
  2
*D9
 70
     1
 10
0.0
 20
0.0
 30
0.0
  3
*D9
  1

  0
LINE
  5
324
  8
回07-寸法
  6
CONTINUOUS
 62
     5
 10
3285.303963680946
 20
-1026.27578671372
 30
0.0
 11
3285.303963680946
 21
-996.3849727176286
 31
0.0
  0
LINE
  5
325
  8
回07-寸法
  6
CONTINUOUS
 62
     5
 10
3405.003963680945
 20
-1026.275786713721
 30
0.0
 11
3405.003963680945
 21
-996.3849727176286
 31
0.0
  0
LINE
  5
326
  8
回07-寸法
  6
CONTINUOUS
 62
     5
 10
3287.303963680945
 20
-997.3849727176286
 30
0.0
 11
3403.003963680945
 21
-997.3849727176286
 31
0.0
  0
INSERT
  5
327
  8
回07-寸法
  6
CONTINUOUS
 62
     5
  2
_OPEN
 10
3285.303963680946
 20
-997.3849727176286
 30
0.0
 41
2.0
 42
2.0
 43
2.0
 50
180.0
  0
INSERT
  5
328
  8
回07-寸法
  6
CONTINUOUS
 62
     5
  2
_OPEN
 10
3405.003963680945
 20
-997.3849727176286
 30
0.0
 41
2.0
 42
2.0
 43
2.0
  0
TEXT
  5
329
  8
回07-寸法
  6
CONTINUOUS
 62
     5
 10
3333.050747013206
 20
-996.348729030921
 30
0.0
 40
2.0
  1
119.7 (Viewing Area)
1001
ACAD
1000
MTEXTBEGIN
1070
    73
1070
     1
1070
    44
1040
1.0
1070
    74
1070
     0
1000
MTEXTEND
  0
POINT
  5
32A
  8
DEFPOINTS
  6
CONTINUOUS
 62
     0
 10
3285.303963680946
 20
-1026.27578671372
 30
0.0
  0
POINT
  5
32B
  8
DEFPOINTS
  6
CONTINUOUS
 62
     0
 10
3405.003963680945
 20
-1026.275786713721
 30
0.0
  0
POINT
  5
32C
  8
DEFPOINTS
  6
CONTINUOUS
 62
     0
 10
3405.003963680945
 20
-997.3849727176286
 30
0.0
  0
ENDBLK
  5
32D
  8
0
  0
BLOCK
  8
0
  2
*D10
 70
     1
 10
0.0
 20
0.0
 30
0.0
  3
*D10
  1

  0
LINE
  5
317
  8
回07-寸法
  6
CONTINUOUS
 62
     5
 10
3277.453963680944
 20
-1020.225786713719
 30
0.0
 11
3277.453963680944
 21
-985.9442912639481
 31
0.0
  0
LINE
  5
318
  8
回07-寸法
  6
CONTINUOUS
 62
     5
 10
3408.853963680944
 20
-1020.225786713719
 30
0.0
 11
3408.853963680944
 21
-985.9442912639481
 31
0.0
  0
LINE
  5
319
  8
回07-寸法
  6
CONTINUOUS
 62
     5
 10
3279.453963680944
 20
-986.9442912639481
 30
0.0
 11
3406.853963680944
 21
-986.9442912639481
 31
0.0
  0
INSERT
  5
31A
  8
回07-寸法
  6
CONTINUOUS
 62
     5
  2
_OPEN
 10
3277.453963680944
 20
-986.9442912639481
 30
0.0
 41
2.0
 42
2.0
 43
2.0
 50
180.0
  0
INSERT
  5
31B
  8
回07-寸法
  6
CONTINUOUS
 62
     5
  2
_OPEN
 10
3408.853963680944
 20
-986.9442912639481
 30
0.0
 41
2.0
 42
2.0
 43
2.0
  0
INSERT
  5
31C
  8
回07-寸法
  6
CONTINUOUS
 62
     5
 66
     1
  2
*X49
 10
0.0
 20
0.0
 30
0.0
  0
SEQEND
  5
4B2
  8
回08-記事
  6
CONTINUOUS
 62
     5
  0
POINT
  5
31D
  8
DEFPOINTS
  6
CONTINUOUS
 62
     0
 10
3277.453963680944
 20
-1020.225786713719
 30
0.0
  0
POINT
  5
31E
  8
DEFPOINTS
  6
CONTINUOUS
 62
     0
 10
3408.853963680944
 20
-1020.225786713719
 30
0.0
  0
POINT
  5
31F
  8
DEFPOINTS
  6
CONTINUOUS
 62
     0
 10
3408.853963680944
 20
-986.9442912639481
 30
0.0
  0
ENDBLK
  5
320
  8
0
  0
BLOCK
  8
0
  2
*D11
 70
     1
 10
0.0
 20
0.0
 30
0.0
  3
*D11
  1

  0
LINE
  5
308
  8
回07-寸法
  6
CONTINUOUS
 62
     5
 10
3287.303963680944
 20
-1028.275786713719
 30
0.0
 11
3287.303963680944
 21
-1001.798171454446
 31
0.0
  0
LINE
  5
309
  8
回07-寸法
  6
CONTINUOUS
 62
     5
 10
3277.453963680944
 20
-1020.225786713719
 30
0.0
 11
3277.453963680944
 21
-1001.798171454446
 31
0.0
  0
LINE
  5
30A
  8
回07-寸法
  6
CONTINUOUS
 62
     5
 10
3289.303963680945
 20
-1002.798171454446
 30
0.0
 11
3291.303963680944
 21
-1002.798171454446
 31
0.0
  0
LINE
  5
30B
  8
回07-寸法
  6
CONTINUOUS
 62
     5
 10
3275.453963680944
 20
-1002.798171454446
 30
0.0
 11
3268.088278255995
 21
-1002.798171454446
 31
0.0
  0
LINE
  5
30C
  8
回07-寸法
  6
CONTINUOUS
 62
     5
 10
3287.303963680944
 20
-1002.798171454446
 30
0.0
 11
3277.453963680944
 21
-1002.798171454446
 31
0.0
  0
INSERT
  5
30D
  8
回07-寸法
  6
CONTINUOUS
 62
     5
  2
_OPEN
 10
3287.303963680944
 20
-1002.798171454446
 30
0.0
 41
2.0
 42
2.0
 43
2.0
 50
180.0
  0
INSERT
  5
30E
  8
回07-寸法
  6
CONTINUOUS
 62
     5
  2
_OPEN
 10
3277.453963680944
 20
-1002.798171454446
 30
0.0
 41
2.0
 42
2.0
 43
2.0
  0
TEXT
  5
30F
  8
回07-寸法
  6
CONTINUOUS
 62
     5
 10
3268.363900231416
 20
-1002.298171454446
 30
0.0
 40
2.0
  1
9.85
1001
ACAD
1000
MTEXTBEGIN
1070
    73
1070
     1
1070
    44
1040
1.0
1070
    74
1070
     0
1000
MTEXTEND
  0
POINT
  5
310
  8
DEFPOINTS
  6
CONTINUOUS
 62
     0
 10
3287.303963680944
 20
-1028.275786713719
 30
0.0
  0
POINT
  5
311
  8
DEFPOINTS
  6
CONTINUOUS
 62
     0
 10
3277.453963680944
 20
-1020.225786713719
 30
0.0
  0
POINT
  5
312
  8
DEFPOINTS
  6
CONTINUOUS
 62
     0
 10
3277.453963680944
 20
-1002.798171454446
 30
0.0
  0
ENDBLK
  5
313
  8
0
  0
BLOCK
  8
0
  2
*D12
 70
     1
 10
0.0
 20
0.0
 30
0.0
  3
*D12
  1

  0
LINE
  5
2F9
  8
回07-寸法
  6
CONTINUOUS
 62
     5
 10
3285.303963680946
 20
-1026.27578671372
 30
0.0
 11
3285.303963680946
 21
-996.3849727176286
 31
0.0
  0
LINE
  5
2FA
  8
回07-寸法
  6
CONTINUOUS
 62
     5
 10
3277.453963680944
 20
-1020.225786713719
 30
0.0
 11
3277.453963680944
 21
-996.3849727176286
 31
0.0
  0
LINE
  5
2FB
  8
回07-寸法
  6
CONTINUOUS
 62
     5
 10
3287.303963680945
 20
-997.3849727176286
 30
0.0
 11
3289.303963680946
 21
-997.3849727176286
 31
0.0
  0
LINE
  5
2FC
  8
回07-寸法
  6
CONTINUOUS
 62
     5
 10
3275.453963680944
 20
-997.3849727176286
 30
0.0
 11
3268.17112096847
 21
-997.3849727176286
 31
0.0
  0
LINE
  5
2FD
  8
回07-寸法
  6
CONTINUOUS
 62
     5
 10
3285.303963680946
 20
-997.3849727176286
 30
0.0
 11
3277.453963680944
 21
-997.3849727176286
 31
0.0
  0
INSERT
  5
2FE
  8
回07-寸法
  6
CONTINUOUS
 62
     5
  2
_OPEN
 10
3285.303963680946
 20
-997.3849727176286
 30
0.0
 41
2.0
 42
2.0
 43
2.0
 50
180.0
  0
INSERT
  5
2FF
  8
回07-寸法
  6
CONTINUOUS
 62
     5
  2
_OPEN
 10
3277.453963680944
 20
-997.3849727176286
 30
0.0
 41
2.0
 42
2.0
 43
2.0
  0
TEXT
  5
300
  8
回07-寸法
  6
CONTINUOUS
 62
     5
 10
3268.412542324707
 20
-996.8849727176287
 30
0.0
 40
2.0
  1
7.85
1001
ACAD
1000
MTEXTBEGIN
1070
    73
1070
     1
1070
    44
1040
1.0
1070
    74
1070
     0
1000
MTEXTEND
  0
POINT
  5
301
  8
DEFPOINTS
  6
CONTINUOUS
 62
     0
 10
3285.303963680946
 20
-1026.27578671372
 30
0.0
  0
POINT
  5
302
  8
DEFPOINTS
  6
CONTINUOUS
 62
     0
 10
3277.453963680944
 20
-1020.225786713719
 30
0.0
  0
POINT
  5
303
  8
DEFPOINTS
  6
CONTINUOUS
 62
     0
 10
3277.453963680944
 20
-997.3849727176286
 30
0.0
  0
ENDBLK
  5
304
  8
0
  0
BLOCK
  8
0
  2
*D13
 70
     1
 10
0.0
 20
0.0
 30
0.0
  3
*D13
  1

  0
LINE
  5
2EC
  8
回07-寸法
  6
CONTINUOUS
 62
     5
 10
3284.803963680945
 20
-1025.475786713719
 30
0.0
 11
3284.803963680945
 21
-991.0973855388476
 31
0.0
  0
LINE
  5
2ED
  8
回07-寸法
  6
CONTINUOUS
 62
     5
 10
3405.503963680945
 20
-1025.47578671372
 30
0.0
 11
3405.503963680945
 21
-991.0973855388476
 31
0.0
  0
LINE
  5
2EE
  8
回07-寸法
  6
CONTINUOUS
 62
     5
 10
3286.803963680944
 20
-992.0973855388476
 30
0.0
 11
3403.503963680945
 21
-992.0973855388476
 31
0.0
  0
INSERT
  5
2EF
  8
回07-寸法
  6
CONTINUOUS
 62
     5
  2
_OPEN
 10
3284.803963680945
 20
-992.0973855388476
 30
0.0
 41
2.0
 42
2.0
 43
2.0
 50
180.0
  0
INSERT
  5
2F0
  8
回07-寸法
  6
CONTINUOUS
 62
     5
  2
_OPEN
 10
3405.503963680945
 20
-992.0973855388476
 30
0.0
 41
2.0
 42
2.0
 43
2.0
  0
TEXT
  5
2F1
  8
回07-寸法
  6
CONTINUOUS
 62
     5
 10
3342.253963680945
 20
-991.5971886884539
 30
0.0
 40
2.0
  1
120.7
1001
ACAD
1000
MTEXTBEGIN
1070
    73
1070
     1
1070
    44
1040
1.0
1070
    74
1070
     0
1000
MTEXTEND
  0
POINT
  5
2F2
  8
DEFPOINTS
  6
CONTINUOUS
 62
     0
 10
3284.803963680945
 20
-1025.475786713719
 30
0.0
  0
POINT
  5
2F3
  8
DEFPOINTS
  6
CONTINUOUS
 62
     0
 10
3405.503963680945
 20
-1025.47578671372
 30
0.0
  0
POINT
  5
2F4
  8
DEFPOINTS
  6
CONTINUOUS
 62
     0
 10
3405.503963680945
 20
-992.0973855388476
 30
0.0
  0
ENDBLK
  5
2F5
  8
0
  0
BLOCK
  8
0
  2
*D14
 70
     1
 10
0.0
 20
0.0
 30
0.0
  3
*D14
  1

  0
LINE
  5
2DD
  8
回07-寸法
  6
CONTINUOUS
 62
     5
 10
3284.803963680945
 20
-1025.475786713719
 30
0.0
 11
3284.803963680945
 21
-991.0973855388476
 31
0.0
  0
LINE
  5
2DE
  8
回07-寸法
  6
CONTINUOUS
 62
     5
 10
3277.453963680944
 20
-1020.225786713719
 30
0.0
 11
3277.453963680944
 21
-991.0973855388476
 31
0.0
  0
LINE
  5
2DF
  8
回07-寸法
  6
CONTINUOUS
 62
     5
 10
3286.803963680944
 20
-992.0973855388476
 30
0.0
 11
3288.803963680944
 21
-992.0973855388476
 31
0.0
  0
LINE
  5
2E0
  8
回07-寸法
  6
CONTINUOUS
 62
     5
 10
3275.453963680944
 20
-992.0973855388476
 30
0.0
 11
3246.548963680944
 21
-992.0973855388476
 31
0.0
  0
LINE
  5
2E1
  8
回07-寸法
  6
CONTINUOUS
 62
     5
 10
3284.803963680945
 20
-992.0973855388476
 30
0.0
 11
3277.453963680944
 21
-992.0973855388476
 31
0.0
  0
INSERT
  5
2E2
  8
回07-寸法
  6
CONTINUOUS
 62
     5
  2
_OPEN
 10
3284.803963680945
 20
-992.0973855388476
 30
0.0
 41
2.0
 42
2.0
 43
2.0
 50
180.0
  0
INSERT
  5
2E3
  8
回07-寸法
  6
CONTINUOUS
 62
     5
  2
_OPEN
 10
3277.453963680944
 20
-992.0973855388476
 30
0.0
 41
2.0
 42
2.0
 43
2.0
  0
TEXT
  5
2E4
  8
回07-寸法
  6
CONTINUOUS
 62
     5
 10
3246.748963680944
 20
-991.4973855388476
 30
0.0
 40
2.0
  1
7.35 (Insulation Area）
1001
ACAD
1000
MTEXTBEGIN
1070
    73
1070
     1
1070
    44
1040
1.0
1070
    74
1070
     0
1000
MTEXTEND
  0
POINT
  5
2E5
  8
DEFPOINTS
  6
CONTINUOUS
 62
     0
 10
3284.803963680945
 20
-1025.475786713719
 30
0.0
  0
POINT
  5
2E6
  8
DEFPOINTS
  6
CONTINUOUS
 62
     0
 10
3277.453963680944
 20
-1020.225786713719
 30
0.0
  0
POINT
  5
2E7
  8
DEFPOINTS
  6
CONTINUOUS
 62
     0
 10
3277.453963680944
 20
-992.0973855388476
 30
0.0
  0
ENDBLK
  5
2E8
  8
0
  0
BLOCK
  8
0
  2
*D15
 70
     1
 10
0.0
 20
0.0
 30
0.0
  3
*D15
  1

  0
LINE
  5
2CE
  8
回07-寸法
  6
CONTINUOUS
 62
     5
 10
3408.853963680944
 20
-1020.225786713719
 30
0.0
 11
3408.853963680944
 21
-991.0973855388476
 31
0.0
  0
LINE
  5
2CF
  8
回07-寸法
  6
CONTINUOUS
 62
     5
 10
3405.503963680945
 20
-1025.47578671372
 30
0.0
 11
3405.503963680945
 21
-991.0973855388476
 31
0.0
  0
LINE
  5
2D0
  8
回07-寸法
  6
CONTINUOUS
 62
     5
 10
3403.503963680945
 20
-992.0973855388476
 30
0.0
 11
3401.503963680945
 21
-992.0973855388476
 31
0.0
  0
LINE
  5
2D1
  8
回07-寸法
  6
CONTINUOUS
 62
     5
 10
3410.853963680944
 20
-992.0973855388476
 30
0.0
 11
3419.652388877795
 21
-992.0973855388476
 31
0.0
  0
LINE
  5
2D2
  8
回07-寸法
  6
CONTINUOUS
 62
     5
 10
3405.503963680945
 20
-992.0973855388476
 30
0.0
 11
3408.853963680944
 21
-992.0973855388476
 31
0.0
  0
INSERT
  5
2D3
  8
回07-寸法
  6
CONTINUOUS
 62
     5
  2
_OPEN
 10
3405.503963680945
 20
-992.0973855388476
 30
0.0
 41
2.0
 42
2.0
 43
2.0
  0
INSERT
  5
2D4
  8
回07-寸法
  6
CONTINUOUS
 62
     5
  2
_OPEN
 10
3408.853963680944
 20
-992.0973855388476
 30
0.0
 41
2.0
 42
2.0
 43
2.0
 50
180.0
  0
TEXT
  5
2D5
  8
回07-寸法
  6
CONTINUOUS
 62
     5
 10
3413.053176279369
 20
-991.4973855388476
 30
0.0
 40
2.0
  1
(3.35)
1001
ACAD
1000
MTEXTBEGIN
1070
    73
1070
     1
1070
    44
1040
1.0
1070
    74
1070
     0
1000
MTEXTEND
  0
POINT
  5
2D6
  8
DEFPOINTS
  6
CONTINUOUS
 62
     0
 10
3408.853963680944
 20
-1020.225786713719
 30
0.0
  0
POINT
  5
2D7
  8
DEFPOINTS
  6
CONTINUOUS
 62
     0
 10
3405.503963680945
 20
-1025.47578671372
 30
0.0
  0
POINT
  5
2D8
  8
DEFPOINTS
  6
CONTINUOUS
 62
     0
 10
3405.503963680945
 20
-992.0973855388476
 30
0.0
  0
ENDBLK
  5
2D9
  8
0
  0
BLOCK
  8
0
  2
*D16
 70
     1
 10
0.0
 20
0.0
 30
0.0
  3
*D16
  1

  0
LINE
  5
2BF
  8
回07-寸法
  6
CONTINUOUS
 62
     5
 10
3403.003963680945
 20
-1028.275786713721
 30
0.0
 11
3403.003963680945
 21
-1001.798171454446
 31
0.0
  0
LINE
  5
2C0
  8
回07-寸法
  6
CONTINUOUS
 62
     5
 10
3408.853963680944
 20
-1020.225786713719
 30
0.0
 11
3408.853963680944
 21
-1001.798171454446
 31
0.0
  0
LINE
  5
2C1
  8
回07-寸法
  6
CONTINUOUS
 62
     5
 10
3401.003963680945
 20
-1002.798171454446
 30
0.0
 11
3399.003963680945
 21
-1002.798171454446
 31
0.0
  0
LINE
  5
2C2
  8
回07-寸法
  6
CONTINUOUS
 62
     5
 10
3410.853963680944
 20
-1002.798171454446
 30
0.0
 11
3419.652388877795
 21
-1002.798171454446
 31
0.0
  0
LINE
  5
2C3
  8
回07-寸法
  6
CONTINUOUS
 62
     5
 10
3403.003963680945
 20
-1002.798171454446
 30
0.0
 11
3408.853963680944
 21
-1002.798171454446
 31
0.0
  0
INSERT
  5
2C4
  8
回07-寸法
  6
CONTINUOUS
 62
     5
  2
_OPEN
 10
3403.003963680945
 20
-1002.798171454446
 30
0.0
 41
2.0
 42
2.0
 43
2.0
  0
INSERT
  5
2C5
  8
回07-寸法
  6
CONTINUOUS
 62
     5
  2
_OPEN
 10
3408.853963680944
 20
-1002.798171454446
 30
0.0
 41
2.0
 42
2.0
 43
2.0
 50
180.0
  0
TEXT
  5
2C6
  8
回07-寸法
  6
CONTINUOUS
 62
     5
 10
3413.053176279369
 20
-1002.198171454446
 30
0.0
 40
2.0
  1
(5.85)
1001
ACAD
1000
MTEXTBEGIN
1070
    73
1070
     1
1070
    44
1040
1.0
1070
    74
1070
     0
1000
MTEXTEND
  0
POINT
  5
2C7
  8
DEFPOINTS
  6
CONTINUOUS
 62
     0
 10
3403.003963680945
 20
-1028.275786713721
 30
0.0
  0
POINT
  5
2C8
  8
DEFPOINTS
  6
CONTINUOUS
 62
     0
 10
3408.853963680944
 20
-1020.225786713719
 30
0.0
  0
POINT
  5
2C9
  8
DEFPOINTS
  6
CONTINUOUS
 62
     0
 10
3408.853963680944
 20
-1002.798171454446
 30
0.0
  0
ENDBLK
  5
2CA
  8
0
  0
BLOCK
  8
0
  2
*D17
 70
     1
 10
0.0
 20
0.0
 30
0.0
  3
*D17
  1

  0
LINE
  5
2B0
  8
回07-寸法
  6
CONTINUOUS
 62
     5
 10
3405.003963680945
 20
-1026.275786713721
 30
0.0
 11
3405.003963680945
 21
-996.3849727176286
 31
0.0
  0
LINE
  5
2B1
  8
回07-寸法
  6
CONTINUOUS
 62
     5
 10
3408.853963680944
 20
-1020.225786713719
 30
0.0
 11
3408.853963680944
 21
-996.3849727176286
 31
0.0
  0
LINE
  5
2B2
  8
回07-寸法
  6
CONTINUOUS
 62
     5
 10
3403.003963680945
 20
-997.3849727176286
 30
0.0
 11
3401.003963680945
 21
-997.3849727176286
 31
0.0
  0
LINE
  5
2B3
  8
回07-寸法
  6
CONTINUOUS
 62
     5
 10
3410.853963680944
 20
-997.3849727176286
 30
0.0
 11
3419.652388877795
 21
-997.3849727176286
 31
0.0
  0
LINE
  5
2B4
  8
回07-寸法
  6
CONTINUOUS
 62
     5
 10
3405.003963680945
 20
-997.3849727176286
 30
0.0
 11
3408.853963680944
 21
-997.3849727176286
 31
0.0
  0
INSERT
  5
2B5
  8
回07-寸法
  6
CONTINUOUS
 62
     5
  2
_OPEN
 10
3405.003963680945
 20
-997.3849727176286
 30
0.0
 41
2.0
 42
2.0
 43
2.0
  0
INSERT
  5
2B6
  8
回07-寸法
  6
CONTINUOUS
 62
     5
  2
_OPEN
 10
3408.853963680944
 20
-997.3849727176286
 30
0.0
 41
2.0
 42
2.0
 43
2.0
 50
180.0
  0
TEXT
  5
2B7
  8
回07-寸法
  6
CONTINUOUS
 62
     5
 10
3413.053176279369
 20
-996.7849727176286
 30
0.0
 40
2.0
  1
(3.85)
1001
ACAD
1000
MTEXTBEGIN
1070
    73
1070
     1
1070
    44
1040
1.0
1070
    74
1070
     0
1000
MTEXTEND
  0
POINT
  5
2B8
  8
DEFPOINTS
  6
CONTINUOUS
 62
     0
 10
3405.003963680945
 20
-1026.275786713721
 30
0.0
  0
POINT
  5
2B9
  8
DEFPOINTS
  6
CONTINUOUS
 62
     0
 10
3408.853963680944
 20
-1020.225786713719
 30
0.0
  0
POINT
  5
2BA
  8
DEFPOINTS
  6
CONTINUOUS
 62
     0
 10
3408.853963680944
 20
-997.3849727176286
 30
0.0
  0
ENDBLK
  5
2BB
  8
0
  0
BLOCK
  8
0
  2
*D18
 70
     1
 10
0.0
 20
0.0
 30
0.0
  3
*D18
  1

  0
LINE
  5
2A3
  8
回07-寸法
  6
CONTINUOUS
 62
     5
 10
3403.003963680947
 20
-1028.275786713721
 30
0.0
 11
3421.793850871438
 21
-1028.275786713721
 31
0.0
  0
LINE
  5
2A4
  8
回07-寸法
  6
CONTINUOUS
 62
     5
 10
3403.003963680945
 20
-1115.17578671372
 30
0.0
 11
3421.793850871438
 21
-1115.17578671372
 31
0.0
  0
LINE
  5
2A5
  8
回07-寸法
  6
CONTINUOUS
 62
     5
 10
3420.793850871438
 20
-1030.275786713721
 30
0.0
 11
3420.793850871438
 21
-1113.17578671372
 31
0.0
  0
INSERT
  5
2A6
  8
回07-寸法
  6
CONTINUOUS
 62
     5
  2
_OPEN
 10
3420.793850871438
 20
-1028.275786713721
 30
0.0
 41
2.0
 42
2.0
 43
2.0
 50
90.0
  0
INSERT
  5
2A7
  8
回07-寸法
  6
CONTINUOUS
 62
     5
  2
_OPEN
 10
3420.793850871438
 20
-1115.17578671372
 30
0.0
 41
2.0
 42
2.0
 43
2.0
 50
270.0
  0
TEXT
  5
2A8
  8
回07-寸法
  6
CONTINUOUS
 62
     5
 10
3420.193850871437
 20
-1082.829003381461
 30
0.0
 40
2.0
  1
86.9 (Active Area)
 50
90.0
1001
ACAD
1000
MTEXTBEGIN
1070
    73
1070
     1
1070
    44
1040
1.0
1070
    74
1070
     0
1000
MTEXTEND
  0
POINT
  5
2A9
  8
DEFPOINTS
  6
CONTINUOUS
 62
     0
 10
3403.003963680947
 20
-1028.275786713721
 30
0.0
  0
POINT
  5
2AA
  8
DEFPOINTS
  6
CONTINUOUS
 62
     0
 10
3403.003963680945
 20
-1115.17578671372
 30
0.0
  0
POINT
  5
2AB
  8
DEFPOINTS
  6
CONTINUOUS
 62
     0
 10
3420.793850871438
 20
-1115.17578671372
 30
0.0
  0
ENDBLK
  5
2AC
  8
0
  0
BLOCK
  8
0
  2
*D19
 70
     1
 10
0.0
 20
0.0
 30
0.0
  3
*D19
  1

  0
LINE
  5
296
  8
回07-寸法
  6
CONTINUOUS
 62
     5
 10
3405.003963680946
 20
-1117.175786713721
 30
0.0
 11
3426.344684884277
 21
-1117.175786713721
 31
0.0
  0
LINE
  5
297
  8
回07-寸法
  6
CONTINUOUS
 62
     5
 10
3405.003963680947
 20
-1026.275786713721
 30
0.0
 11
3426.344684884277
 21
-1026.275786713721
 31
0.0
  0
LINE
  5
298
  8
回07-寸法
  6
CONTINUOUS
 62
     5
 10
3425.344684884277
 20
-1115.175786713721
 30
0.0
 11
3425.344684884277
 21
-1028.275786713722
 31
0.0
  0
INSERT
  5
299
  8
回07-寸法
  6
CONTINUOUS
 62
     5
  2
_OPEN
 10
3425.344684884277
 20
-1117.175786713721
 30
0.0
 41
2.0
 42
2.0
 43
2.0
 50
270.0
  0
INSERT
  5
29A
  8
回07-寸法
  6
CONTINUOUS
 62
     5
  2
_OPEN
 10
3425.344684884277
 20
-1026.275786713721
 30
0.0
 41
2.0
 42
2.0
 43
2.0
 50
90.0
  0
TEXT
  5
29B
  8
回07-寸法
  6
CONTINUOUS
 62
     5
 10
3424.308441197568
 20
-1083.536224118516
 30
0.0
 40
2.0
  1
90.9 (Viewing Area)
 50
90.0
1001
ACAD
1000
MTEXTBEGIN
1070
    73
1070
     1
1070
    44
1040
1.0
1070
    74
1070
     0
1000
MTEXTEND
  0
POINT
  5
29C
  8
DEFPOINTS
  6
CONTINUOUS
 62
     0
 10
3405.003963680946
 20
-1117.175786713721
 30
0.0
  0
POINT
  5
29D
  8
DEFPOINTS
  6
CONTINUOUS
 62
     0
 10
3405.003963680947
 20
-1026.275786713721
 30
0.0
  0
POINT
  5
29E
  8
DEFPOINTS
  6
CONTINUOUS
 62
     0
 10
3425.344684884277
 20
-1026.275786713721
 30
0.0
  0
ENDBLK
  5
29F
  8
0
  0
BLOCK
  8
0
  2
*D20
 70
     1
 10
0.0
 20
0.0
 30
0.0
  3
*D20
  1

  0
LINE
  5
289
  8
回07-寸法
  6
CONTINUOUS
 62
     5
 10
3405.503963680947
 20
-1025.47578671372
 30
0.0
 11
3431.310278902844
 21
-1025.47578671372
 31
0.0
  0
LINE
  5
28A
  8
回07-寸法
  6
CONTINUOUS
 62
     5
 10
3405.503963680945
 20
-1117.97578671372
 30
0.0
 11
3431.310278902844
 21
-1117.97578671372
 31
0.0
  0
LINE
  5
28B
  8
回07-寸法
  6
CONTINUOUS
 62
     5
 10
3430.310278902844
 20
-1027.47578671372
 30
0.0
 11
3430.310278902844
 21
-1115.97578671372
 31
0.0
  0
INSERT
  5
28C
  8
回07-寸法
  6
CONTINUOUS
 62
     5
  2
_OPEN
 10
3430.310278902844
 20
-1025.47578671372
 30
0.0
 41
2.0
 42
2.0
 43
2.0
 50
90.0
  0
INSERT
  5
28D
  8
回07-寸法
  6
CONTINUOUS
 62
     5
  2
_OPEN
 10
3430.310278902844
 20
-1117.97578671372
 30
0.0
 41
2.0
 42
2.0
 43
2.0
 50
270.0
  0
TEXT
  5
28E
  8
回07-寸法
  6
CONTINUOUS
 62
     5
 10
3429.80959869343
 20
-1074.133007450775
 30
0.0
 40
2.0
  1
92.5
 50
90.0
1001
ACAD
1000
MTEXTBEGIN
1070
    73
1070
     1
1070
    44
1040
1.0
1070
    74
1070
     0
1000
MTEXTEND
  0
POINT
  5
28F
  8
DEFPOINTS
  6
CONTINUOUS
 62
     0
 10
3405.503963680947
 20
-1025.47578671372
 30
0.0
  0
POINT
  5
290
  8
DEFPOINTS
  6
CONTINUOUS
 62
     0
 10
3405.503963680945
 20
-1117.97578671372
 30
0.0
  0
POINT
  5
291
  8
DEFPOINTS
  6
CONTINUOUS
 62
     0
 10
3430.310278902844
 20
-1117.97578671372
 30
0.0
  0
ENDBLK
  5
292
  8
0
  0
BLOCK
  8
0
  2
*D21
 70
     1
 10
0.0
 20
0.0
 30
0.0
  3
*D21
  1

  0
LINE
  5
27C
  8
回07-寸法
  6
CONTINUOUS
 62
     5
 10
3408.853963680944
 20
-1123.225786713721
 30
0.0
 11
3436.376851211691
 21
-1123.225786713721
 31
0.0
  0
LINE
  5
27D
  8
回07-寸法
  6
CONTINUOUS
 62
     5
 10
3408.853963680946
 20
-1020.22578671372
 30
0.0
 11
3436.376851211691
 21
-1020.22578671372
 31
0.0
  0
LINE
  5
27E
  8
回07-寸法
  6
CONTINUOUS
 62
     5
 10
3435.376851211691
 20
-1121.225786713721
 30
0.0
 11
3435.376851211691
 21
-1022.22578671372
 31
0.0
  0
INSERT
  5
27F
  8
回07-寸法
  6
CONTINUOUS
 62
     5
  2
_OPEN
 10
3435.376851211691
 20
-1123.225786713721
 30
0.0
 41
2.0
 42
2.0
 43
2.0
 50
270.0
  0
INSERT
  5
280
  8
回07-寸法
  6
CONTINUOUS
 62
     5
  2
_OPEN
 10
3435.376851211691
 20
-1020.22578671372
 30
0.0
 41
2.0
 42
2.0
 43
2.0
 50
90.0
  0
INSERT
  5
281
  8
回07-寸法
  6
CONTINUOUS
 62
     5
 66
     1
  2
*X50
 10
0.0
 20
0.0
 30
0.0
  0
SEQEND
  5
4B8
  8
回08-記事
  6
CONTINUOUS
 62
     5
  0
POINT
  5
282
  8
DEFPOINTS
  6
CONTINUOUS
 62
     0
 10
3408.853963680944
 20
-1123.225786713721
 30
0.0
  0
POINT
  5
283
  8
DEFPOINTS
  6
CONTINUOUS
 62
     0
 10
3408.853963680946
 20
-1020.22578671372
 30
0.0
  0
POINT
  5
284
  8
DEFPOINTS
  6
CONTINUOUS
 62
     0
 10
3435.376851211691
 20
-1020.22578671372
 30
0.0
  0
ENDBLK
  5
285
  8
0
  0
BLOCK
  8
0
  2
*D22
 70
     1
 10
0.0
 20
0.0
 30
0.0
  3
*D22
  1

  0
LINE
  5
26D
  8
回07-寸法
  6
CONTINUOUS
 62
     5
 10
3408.853963680946
 20
-1020.22578671372
 30
0.0
 11
3421.793850871436
 21
-1020.22578671372
 31
0.0
  0
LINE
  5
26E
  8
回07-寸法
  6
CONTINUOUS
 62
     5
 10
3403.003963680947
 20
-1028.275786713721
 30
0.0
 11
3421.793850871436
 21
-1028.275786713721
 31
0.0
  0
LINE
  5
26F
  8
回07-寸法
  6
CONTINUOUS
 62
     5
 10
3420.793850871437
 20
-1030.275786713721
 30
0.0
 11
3420.793850871437
 21
-1032.275786713721
 31
0.0
  0
LINE
  5
270
  8
回07-寸法
  6
CONTINUOUS
 62
     5
 10
3420.793850871436
 20
-1018.22578671372
 30
0.0
 11
3420.793850871436
 21
-1009.427361516868
 31
0.0
  0
LINE
  5
271
  8
回07-寸法
  6
CONTINUOUS
 62
     5
 10
3420.793850871437
 20
-1028.275786713721
 30
0.0
 11
3420.793850871437
 21
-1020.22578671372
 31
0.0
  0
INSERT
  5
272
  8
回07-寸法
  6
CONTINUOUS
 62
     5
  2
_OPEN
 10
3420.793850871437
 20
-1028.275786713721
 30
0.0
 41
2.0
 42
2.0
 43
2.0
 50
90.0
  0
INSERT
  5
273
  8
回07-寸法
  6
CONTINUOUS
 62
     5
  2
_OPEN
 10
3420.793850871436
 20
-1020.22578671372
 30
0.0
 41
2.0
 42
2.0
 43
2.0
 50
270.0
  0
TEXT
  5
274
  8
回07-寸法
  6
CONTINUOUS
 62
     5
 10
3420.193850871435
 20
-1016.026574115293
 30
0.0
 40
2.0
  1
(8.05)
 50
90.0
1001
ACAD
1000
MTEXTBEGIN
1070
    73
1070
     1
1070
    44
1040
1.0
1070
    74
1070
     0
1000
MTEXTEND
  0
POINT
  5
275
  8
DEFPOINTS
  6
CONTINUOUS
 62
     0
 10
3408.853963680946
 20
-1020.22578671372
 30
0.0
  0
POINT
  5
276
  8
DEFPOINTS
  6
CONTINUOUS
 62
     0
 10
3403.003963680947
 20
-1028.275786713721
 30
0.0
  0
POINT
  5
277
  8
DEFPOINTS
  6
CONTINUOUS
 62
     0
 10
3420.793850871437
 20
-1028.275786713721
 30
0.0
  0
ENDBLK
  5
278
  8
0
  0
BLOCK
  8
0
  2
*D23
 70
     1
 10
0.0
 20
0.0
 30
0.0
  3
*D23
  1

  0
LINE
  5
25E
  8
回07-寸法
  6
CONTINUOUS
 62
     5
 10
3408.853963680946
 20
-1020.22578671372
 30
0.0
 11
3426.344684884271
 21
-1020.22578671372
 31
0.0
  0
LINE
  5
25F
  8
回07-寸法
  6
CONTINUOUS
 62
     5
 10
3405.003963680947
 20
-1026.275786713721
 30
0.0
 11
3426.344684884271
 21
-1026.275786713721
 31
0.0
  0
LINE
  5
260
  8
回07-寸法
  6
CONTINUOUS
 62
     5
 10
3425.344684884271
 20
-1028.275786713722
 30
0.0
 11
3425.344684884271
 21
-1030.275786713722
 31
0.0
  0
LINE
  5
261
  8
回07-寸法
  6
CONTINUOUS
 62
     5
 10
3425.344684884271
 20
-1018.22578671372
 30
0.0
 11
3425.344684884271
 21
-1009.427361516868
 31
0.0
  0
LINE
  5
262
  8
回07-寸法
  6
CONTINUOUS
 62
     5
 10
3425.344684884271
 20
-1026.275786713721
 30
0.0
 11
3425.344684884271
 21
-1020.22578671372
 31
0.0
  0
INSERT
  5
263
  8
回07-寸法
  6
CONTINUOUS
 62
     5
  2
_OPEN
 10
3425.344684884271
 20
-1026.275786713721
 30
0.0
 41
2.0
 42
2.0
 43
2.0
 50
90.0
  0
INSERT
  5
264
  8
回07-寸法
  6
CONTINUOUS
 62
     5
  2
_OPEN
 10
3425.344684884271
 20
-1020.22578671372
 30
0.0
 41
2.0
 42
2.0
 43
2.0
 50
270.0
  0
TEXT
  5
265
  8
回07-寸法
  6
CONTINUOUS
 62
     5
 10
3424.74468488427
 20
-1016.026574115293
 30
0.0
 40
2.0
  1
(6.05)
 50
90.0
1001
ACAD
1000
MTEXTBEGIN
1070
    73
1070
     1
1070
    44
1040
1.0
1070
    74
1070
     0
1000
MTEXTEND
  0
POINT
  5
266
  8
DEFPOINTS
  6
CONTINUOUS
 62
     0
 10
3408.853963680946
 20
-1020.22578671372
 30
0.0
  0
POINT
  5
267
  8
DEFPOINTS
  6
CONTINUOUS
 62
     0
 10
3405.003963680947
 20
-1026.275786713721
 30
0.0
  0
POINT
  5
268
  8
DEFPOINTS
  6
CONTINUOUS
 62
     0
 10
3425.344684884271
 20
-1026.275786713721
 30
0.0
  0
ENDBLK
  5
269
  8
0
  0
BLOCK
  8
0
  2
*D24
 70
     1
 10
0.0
 20
0.0
 30
0.0
  3
*D24
  1

  0
LINE
  5
24F
  8
回07-寸法
  6
CONTINUOUS
 62
     5
 10
3408.853963680946
 20
-1020.22578671372
 30
0.0
 11
3431.310278902842
 21
-1020.22578671372
 31
0.0
  0
LINE
  5
250
  8
回07-寸法
  6
CONTINUOUS
 62
     5
 10
3405.503963680947
 20
-1025.47578671372
 30
0.0
 11
3431.310278902843
 21
-1025.47578671372
 31
0.0
  0
LINE
  5
251
  8
回07-寸法
  6
CONTINUOUS
 62
     5
 10
3430.310278902843
 20
-1027.47578671372
 30
0.0
 11
3430.310278902843
 21
-1029.47578671372
 31
0.0
  0
LINE
  5
252
  8
回07-寸法
  6
CONTINUOUS
 62
     5
 10
3430.310278902843
 20
-1018.22578671372
 30
0.0
 11
3430.310278902843
 21
-1009.427361516869
 31
0.0
  0
LINE
  5
253
  8
回07-寸法
  6
CONTINUOUS
 62
     5
 10
3430.310278902843
 20
-1025.47578671372
 30
0.0
 11
3430.310278902843
 21
-1020.22578671372
 31
0.0
  0
INSERT
  5
254
  8
回07-寸法
  6
CONTINUOUS
 62
     5
  2
_OPEN
 10
3430.310278902843
 20
-1025.47578671372
 30
0.0
 41
2.0
 42
2.0
 43
2.0
 50
90.0
  0
INSERT
  5
255
  8
回07-寸法
  6
CONTINUOUS
 62
     5
  2
_OPEN
 10
3430.310278902843
 20
-1020.22578671372
 30
0.0
 41
2.0
 42
2.0
 43
2.0
 50
270.0
  0
TEXT
  5
256
  8
回07-寸法
  6
CONTINUOUS
 62
     5
 10
3429.710278902842
 20
-1016.026574115295
 30
0.0
 40
2.0
  1
(5.25) 
 50
90.0
1001
ACAD
1000
MTEXTBEGIN
1070
    73
1070
     1
1070
    44
1040
1.0
1070
    74
1070
     0
1000
MTEXTEND
  0
POINT
  5
257
  8
DEFPOINTS
  6
CONTINUOUS
 62
     0
 10
3408.853963680946
 20
-1020.22578671372
 30
0.0
  0
POINT
  5
258
  8
DEFPOINTS
  6
CONTINUOUS
 62
     0
 10
3405.503963680947
 20
-1025.47578671372
 30
0.0
  0
POINT
  5
259
  8
DEFPOINTS
  6
CONTINUOUS
 62
     0
 10
3430.310278902843
 20
-1025.47578671372
 30
0.0
  0
ENDBLK
  5
25A
  8
0
  0
BLOCK
  8
0
  2
*D25
 70
     1
 10
0.0
 20
0.0
 30
0.0
  3
*D25
  1

  0
LINE
  5
240
  8
回07-寸法
  6
CONTINUOUS
 62
     5
 10
3403.003963680945
 20
-1115.17578671372
 30
0.0
 11
3421.793850871434
 21
-1115.17578671372
 31
0.0
  0
LINE
  5
241
  8
回07-寸法
  6
CONTINUOUS
 62
     5
 10
3409.103963680945
 20
-1123.225786713721
 30
0.0
 11
3421.793850871434
 21
-1123.225786713721
 31
0.0
  0
LINE
  5
242
  8
回07-寸法
  6
CONTINUOUS
 62
     5
 10
3420.793850871433
 20
-1113.17578671372
 30
0.0
 11
3420.793850871433
 21
-1111.17578671372
 31
0.0
  0
LINE
  5
243
  8
回07-寸法
  6
CONTINUOUS
 62
     5
 10
3420.793850871433
 20
-1125.225786713721
 30
0.0
 11
3420.793850871433
 21
-1132.508629426195
 31
0.0
  0
LINE
  5
244
  8
回07-寸法
  6
CONTINUOUS
 62
     5
 10
3420.793850871433
 20
-1115.17578671372
 30
0.0
 11
3420.793850871433
 21
-1123.225786713721
 31
0.0
  0
INSERT
  5
245
  8
回07-寸法
  6
CONTINUOUS
 62
     5
  2
_OPEN
 10
3420.793850871433
 20
-1115.17578671372
 30
0.0
 41
2.0
 42
2.0
 43
2.0
 50
270.0
  0
INSERT
  5
246
  8
回07-寸法
  6
CONTINUOUS
 62
     5
  2
_OPEN
 10
3420.793850871433
 20
-1123.225786713721
 30
0.0
 41
2.0
 42
2.0
 43
2.0
 50
90.0
  0
TEXT
  5
247
  8
回07-寸法
  6
CONTINUOUS
 62
     5
 10
3420.293850871433
 20
-1132.267208069959
 30
0.0
 40
2.0
  1
8.05
 50
90.0
1001
ACAD
1000
MTEXTBEGIN
1070
    73
1070
     1
1070
    44
1040
1.0
1070
    74
1070
     0
1000
MTEXTEND
  0
POINT
  5
248
  8
DEFPOINTS
  6
CONTINUOUS
 62
     0
 10
3403.003963680945
 20
-1115.17578671372
 30
0.0
  0
POINT
  5
249
  8
DEFPOINTS
  6
CONTINUOUS
 62
     0
 10
3409.103963680945
 20
-1123.225786713721
 30
0.0
  0
POINT
  5
24A
  8
DEFPOINTS
  6
CONTINUOUS
 62
     0
 10
3420.793850871433
 20
-1123.225786713721
 30
0.0
  0
ENDBLK
  5
24B
  8
0
  0
BLOCK
  8
0
  2
*D26
 70
     1
 10
0.0
 20
0.0
 30
0.0
  3
*D26
  1

  0
LINE
  5
231
  8
回07-寸法
  6
CONTINUOUS
 62
     5
 10
3405.003963680946
 20
-1117.175786713721
 30
0.0
 11
3426.344684884271
 21
-1117.175786713721
 31
0.0
  0
LINE
  5
232
  8
回07-寸法
  6
CONTINUOUS
 62
     5
 10
3408.853963680944
 20
-1123.225786713721
 30
0.0
 11
3426.344684884271
 21
-1123.225786713721
 31
0.0
  0
LINE
  5
233
  8
回07-寸法
  6
CONTINUOUS
 62
     5
 10
3425.344684884271
 20
-1115.175786713721
 30
0.0
 11
3425.344684884271
 21
-1113.175786713721
 31
0.0
  0
LINE
  5
234
  8
回07-寸法
  6
CONTINUOUS
 62
     5
 10
3425.344684884271
 20
-1125.225786713721
 30
0.0
 11
3425.344684884271
 21
-1132.628314465565
 31
0.0
  0
LINE
  5
235
  8
回07-寸法
  6
CONTINUOUS
 62
     5
 10
3425.344684884271
 20
-1117.175786713721
 30
0.0
 11
3425.344684884271
 21
-1123.225786713721
 31
0.0
  0
INSERT
  5
236
  8
回07-寸法
  6
CONTINUOUS
 62
     5
  2
_OPEN
 10
3425.344684884271
 20
-1117.175786713721
 30
0.0
 41
2.0
 42
2.0
 43
2.0
 50
270.0
  0
INSERT
  5
237
  8
回07-寸法
  6
CONTINUOUS
 62
     5
  2
_OPEN
 10
3425.344684884271
 20
-1123.225786713721
 30
0.0
 41
2.0
 42
2.0
 43
2.0
 50
90.0
  0
TEXT
  5
238
  8
回07-寸法
  6
CONTINUOUS
 62
     5
 10
3424.84468488427
 20
-1132.327050589644
 30
0.0
 40
2.0
  1
6.05
 50
90.0
1001
ACAD
1000
MTEXTBEGIN
1070
    73
1070
     1
1070
    44
1040
1.0
1070
    74
1070
     0
1000
MTEXTEND
  0
POINT
  5
239
  8
DEFPOINTS
  6
CONTINUOUS
 62
     0
 10
3405.003963680946
 20
-1117.175786713721
 30
0.0
  0
POINT
  5
23A
  8
DEFPOINTS
  6
CONTINUOUS
 62
     0
 10
3408.853963680944
 20
-1123.225786713721
 30
0.0
  0
POINT
  5
23B
  8
DEFPOINTS
  6
CONTINUOUS
 62
     0
 10
3425.344684884271
 20
-1123.225786713721
 30
0.0
  0
ENDBLK
  5
23C
  8
0
  0
BLOCK
  8
0
  2
*D27
 70
     1
 10
0.0
 20
0.0
 30
0.0
  3
*D27
  1

  0
LINE
  5
222
  8
回07-寸法
  6
CONTINUOUS
 62
     5
 10
3405.503963680945
 20
-1117.97578671372
 30
0.0
 11
3431.310278902849
 21
-1117.97578671372
 31
0.0
  0
LINE
  5
223
  8
回07-寸法
  6
CONTINUOUS
 62
     5
 10
3408.853963680944
 20
-1123.225786713721
 30
0.0
 11
3431.310278902849
 21
-1123.225786713721
 31
0.0
  0
LINE
  5
224
  8
回07-寸法
  6
CONTINUOUS
 62
     5
 10
3430.310278902848
 20
-1115.97578671372
 30
0.0
 11
3430.310278902848
 21
-1113.97578671372
 31
0.0
  0
LINE
  5
225
  8
回07-寸法
  6
CONTINUOUS
 62
     5
 10
3430.310278902848
 20
-1125.225786713721
 30
0.0
 11
3430.310278902848
 21
-1153.829999312146
 31
0.0
  0
LINE
  5
226
  8
回07-寸法
  6
CONTINUOUS
 62
     5
 10
3430.310278902848
 20
-1117.97578671372
 30
0.0
 11
3430.310278902848
 21
-1123.225786713721
 31
0.0
  0
INSERT
  5
227
  8
回07-寸法
  6
CONTINUOUS
 62
     5
  2
_OPEN
 10
3430.310278902848
 20
-1117.97578671372
 30
0.0
 41
2.0
 42
2.0
 43
2.0
 50
270.0
  0
INSERT
  5
228
  8
回07-寸法
  6
CONTINUOUS
 62
     5
  2
_OPEN
 10
3430.310278902848
 20
-1123.225786713721
 30
0.0
 41
2.0
 42
2.0
 43
2.0
 50
90.0
  0
TEXT
  5
229
  8
回07-寸法
  6
CONTINUOUS
 62
     5
 10
3429.707778902847
 20
-1153.629999312147
 30
0.0
 40
2.0
  1
5.25 (Insulation Area)
 50
90.0
1001
ACAD
1000
MTEXTBEGIN
1070
    73
1070
     1
1070
    44
1040
1.0
1070
    74
1070
     0
1000
MTEXTEND
  0
POINT
  5
22A
  8
DEFPOINTS
  6
CONTINUOUS
 62
     0
 10
3405.503963680945
 20
-1117.97578671372
 30
0.0
  0
POINT
  5
22B
  8
DEFPOINTS
  6
CONTINUOUS
 62
     0
 10
3408.853963680944
 20
-1123.225786713721
 30
0.0
  0
POINT
  5
22C
  8
DEFPOINTS
  6
CONTINUOUS
 62
     0
 10
3430.310278902848
 20
-1123.225786713721
 30
0.0
  0
ENDBLK
  5
22D
  8
0
  0
BLOCK
  8
0
  2
*D28
 70
     1
 10
0.0
 20
0.0
 30
0.0
  3
*D28
  1

  0
LINE
  5
1C7
  8
回07-寸法
  6
CONTINUOUS
 62
     5
 10
3408.353963680945
 20
-1158.143964682997
 30
0.0
 11
3415.26769913591
 21
-1158.143964682997
 31
0.0
  0
LINE
  5
1C8
  8
回07-寸法
  6
CONTINUOUS
 62
     5
 10
3408.853963680944
 20
-1163.143964682997
 30
0.0
 11
3415.26769913591
 21
-1163.143964682997
 31
0.0
  0
LINE
  5
1C9
  8
回07-寸法
  6
CONTINUOUS
 62
     5
 10
3414.267699135911
 20
-1156.143964682997
 30
0.0
 11
3414.267699135911
 21
-1154.143964682997
 31
0.0
  0
LINE
  5
1CA
  8
回07-寸法
  6
CONTINUOUS
 62
     5
 10
3414.267699135911
 20
-1165.143964682997
 30
0.0
 11
3414.267699135911
 21
-1175.654058450806
 31
0.0
  0
LINE
  5
1CB
  8
回07-寸法
  6
CONTINUOUS
 62
     5
 10
3414.267699135911
 20
-1158.143964682997
 30
0.0
 11
3414.267699135911
 21
-1163.143964682997
 31
0.0
  0
INSERT
  5
1CC
  8
回07-寸法
  6
CONTINUOUS
 62
     5
  2
_OPEN
 10
3414.267699135911
 20
-1158.143964682997
 30
0.0
 41
2.0
 42
2.0
 43
2.0
 50
270.0
  0
INSERT
  5
1CD
  8
回07-寸法
  6
CONTINUOUS
 62
     5
  2
_OPEN
 10
3414.267699135911
 20
-1163.143964682997
 30
0.0
 41
2.0
 42
2.0
 43
2.0
 50
90.0
  0
INSERT
  5
1CE
  8
回07-寸法
  6
CONTINUOUS
 62
     5
 66
     1
  2
*X51
 10
0.0
 20
0.0
 30
0.0
  0
SEQEND
  5
4BE
  8
回08-記事
  6
CONTINUOUS
 62
     5
  0
POINT
  5
1CF
  8
DEFPOINTS
  6
CONTINUOUS
 62
     0
 10
3408.353963680945
 20
-1158.143964682997
 30
0.0
  0
POINT
  5
1D0
  8
DEFPOINTS
  6
CONTINUOUS
 62
     0
 10
3408.853963680944
 20
-1163.143964682997
 30
0.0
  0
POINT
  5
1D1
  8
DEFPOINTS
  6
CONTINUOUS
 62
     0
 10
3414.267699135911
 20
-1163.143964682997
 30
0.0
  0
ENDBLK
  5
1D2
  8
0
  0
BLOCK
  8
0
  2
*D29
 70
     1
 10
0.0
 20
0.0
 30
0.0
  3
*D29
  1

  0
LINE
  5
1B8
  8
回07-寸法
  6
CONTINUOUS
 62
     5
 10
3408.853963680943
 20
-1160.643964682997
 30
0.0
 11
3408.853963680943
 21
-1152.605990111907
 31
0.0
  0
LINE
  5
1B9
  8
回07-寸法
  6
CONTINUOUS
 62
     5
 10
3408.353963680943
 20
-1158.143964682997
 30
0.0
 11
3408.353963680943
 21
-1152.605990111907
 31
0.0
  0
LINE
  5
1BA
  8
回07-寸法
  6
CONTINUOUS
 62
     5
 10
3410.853963680942
 20
-1153.605990111907
 30
0.0
 11
3412.853963680943
 21
-1153.605990111907
 31
0.0
  0
LINE
  5
1BB
  8
回07-寸法
  6
CONTINUOUS
 62
     5
 10
3406.353963680943
 20
-1153.605990111907
 30
0.0
 11
3398.955538484093
 21
-1153.605990111907
 31
0.0
  0
LINE
  5
1BC
  8
回07-寸法
  6
CONTINUOUS
 62
     5
 10
3408.853963680943
 20
-1153.605990111907
 30
0.0
 11
3408.353963680943
 21
-1153.605990111907
 31
0.0
  0
INSERT
  5
1BD
  8
回07-寸法
  6
CONTINUOUS
 62
     5
  2
_OPEN
 10
3408.853963680943
 20
-1153.605990111907
 30
0.0
 41
2.0
 42
2.0
 43
2.0
 50
180.0
  0
INSERT
  5
1BE
  8
回07-寸法
  6
CONTINUOUS
 62
     5
  2
_OPEN
 10
3408.353963680943
 20
-1153.605990111907
 30
0.0
 41
2.0
 42
2.0
 43
2.0
  0
TEXT
  5
1BF
  8
回07-寸法
  6
CONTINUOUS
 62
     5
 10
3399.154751082518
 20
-1153.005990111907
 30
0.0
 40
2.0
  1
(0.5)
1001
ACAD
1000
MTEXTBEGIN
1070
    73
1070
     1
1070
    44
1040
1.0
1070
    74
1070
     0
1000
MTEXTEND
  0
POINT
  5
1C0
  8
DEFPOINTS
  6
CONTINUOUS
 62
     0
 10
3408.853963680943
 20
-1160.643964682997
 30
0.0
  0
POINT
  5
1C1
  8
DEFPOINTS
  6
CONTINUOUS
 62
     0
 10
3408.353963680943
 20
-1158.143964682997
 30
0.0
  0
POINT
  5
1C2
  8
DEFPOINTS
  6
CONTINUOUS
 62
     0
 10
3408.353963680943
 20
-1153.605990111907
 30
0.0
  0
ENDBLK
  5
1C3
  8
0
  0
BLOCK
  8
0
  2
*D30
 70
     1
 10
0.0
 20
0.0
 30
0.0
  3
*D30
  1

  0
LINE
  5
1A9
  8
回07-寸法
  6
CONTINUOUS
 62
     5
 10
3277.453963680943
 20
-1160.643964682997
 30
0.0
 11
3277.453963680943
 21
-1152.129071977195
 31
0.0
  0
LINE
  5
1AA
  8
回07-寸法
  6
CONTINUOUS
 62
     5
 10
3277.953963680943
 20
-1159.643964682997
 30
0.0
 11
3277.953963680943
 21
-1152.129071977195
 31
0.0
  0
LINE
  5
1AB
  8
回07-寸法
  6
CONTINUOUS
 62
     5
 10
3275.453963680944
 20
-1153.129071977195
 30
0.0
 11
3273.453963680943
 21
-1153.129071977195
 31
0.0
  0
LINE
  5
1AC
  8
回07-寸法
  6
CONTINUOUS
 62
     5
 10
3279.953963680944
 20
-1153.129071977195
 30
0.0
 11
3289.351601476219
 21
-1153.129071977195
 31
0.0
  0
LINE
  5
1AD
  8
回07-寸法
  6
CONTINUOUS
 62
     5
 10
3277.453963680943
 20
-1153.129071977195
 30
0.0
 11
3277.953963680943
 21
-1153.129071977195
 31
0.0
  0
INSERT
  5
1AE
  8
回07-寸法
  6
CONTINUOUS
 62
     5
  2
_OPEN
 10
3277.453963680943
 20
-1153.129071977195
 30
0.0
 41
2.0
 42
2.0
 43
2.0
  0
INSERT
  5
1AF
  8
回07-寸法
  6
CONTINUOUS
 62
     5
  2
_OPEN
 10
3277.953963680943
 20
-1153.129071977195
 30
0.0
 41
2.0
 42
2.0
 43
2.0
 50
180.0
  0
TEXT
  5
1B0
  8
回07-寸法
  6
CONTINUOUS
 62
     5
 10
3284.152388877794
 20
-1152.529071977195
 30
0.0
 40
2.0
  1
(0.5)
1001
ACAD
1000
MTEXTBEGIN
1070
    73
1070
     1
1070
    44
1040
1.0
1070
    74
1070
     0
1000
MTEXTEND
  0
POINT
  5
1B1
  8
DEFPOINTS
  6
CONTINUOUS
 62
     0
 10
3277.453963680943
 20
-1160.643964682997
 30
0.0
  0
POINT
  5
1B2
  8
DEFPOINTS
  6
CONTINUOUS
 62
     0
 10
3277.953963680943
 20
-1159.643964682997
 30
0.0
  0
POINT
  5
1B3
  8
DEFPOINTS
  6
CONTINUOUS
 62
     0
 10
3277.953963680943
 20
-1153.129071977195
 30
0.0
  0
ENDBLK
  5
1B4
  8
0
  0
BLOCK
  8
0
  2
*D31
 70
     1
 10
0.0
 20
0.0
 30
0.0
  3
*D31
  1

  0
LINE
  5
19C
  8
回07-寸法
  6
CONTINUOUS
 62
     5
 10
3197.253920170175
 20
-1161.843964682997
 30
0.0
 11
3197.253920170175
 21
-1172.060886863976
 31
0.0
  0
LINE
  5
19D
  8
回07-寸法
  6
CONTINUOUS
 62
     5
 10
3207.253920170175
 20
-1161.843964682997
 30
0.0
 11
3207.253920170175
 21
-1172.060886863976
 31
0.0
  0
LINE
  5
19E
  8
回07-寸法
  6
CONTINUOUS
 62
     5
 10
3199.253920170175
 20
-1171.060886863976
 30
0.0
 11
3205.253920170175
 21
-1171.060886863976
 31
0.0
  0
INSERT
  5
19F
  8
回07-寸法
  6
CONTINUOUS
 62
     5
  2
_OPEN
 10
3197.253920170175
 20
-1171.060886863976
 30
0.0
 41
2.0
 42
2.0
 43
2.0
 50
180.0
  0
INSERT
  5
1A0
  8
回07-寸法
  6
CONTINUOUS
 62
     5
  2
_OPEN
 10
3207.253920170175
 20
-1171.060886863976
 30
0.0
 41
2.0
 42
2.0
 43
2.0
  0
TEXT
  5
1A1
  8
回07-寸法
  6
CONTINUOUS
 62
     5
 10
3200.253920170175
 20
-1170.460886863976
 30
0.0
 40
2.0
  1
(10)
1001
ACAD
1000
MTEXTBEGIN
1070
    73
1070
     1
1070
    44
1040
1.0
1070
    74
1070
     0
1000
MTEXTEND
  0
POINT
  5
1A2
  8
DEFPOINTS
  6
CONTINUOUS
 62
     0
 10
3197.253920170175
 20
-1161.843964682997
 30
0.0
  0
POINT
  5
1A3
  8
DEFPOINTS
  6
CONTINUOUS
 62
     0
 10
3207.253920170175
 20
-1161.843964682997
 30
0.0
  0
POINT
  5
1A4
  8
DEFPOINTS
  6
CONTINUOUS
 62
     0
 10
3207.253920170175
 20
-1171.060886863976
 30
0.0
  0
ENDBLK
  5
1A5
  8
0
  0
BLOCK
  8
0
  2
*D32
 70
     1
 10
0.0
 20
0.0
 30
0.0
  3
*D32
  1

  0
LINE
  5
18D
  8
回07-寸法
  6
CONTINUOUS
 62
     5
 10
3202.253920170175
 20
-1159.143964682996
 30
0.0
 11
3202.253920170175
 21
-1154.298168447709
 31
0.0
  0
LINE
  5
18E
  8
回07-寸法
  6
CONTINUOUS
 62
     5
 10
3197.253920170175
 20
-1159.643964682997
 30
0.0
 11
3197.253920170175
 21
-1154.298168447709
 31
0.0
  0
LINE
  5
18F
  8
回07-寸法
  6
CONTINUOUS
 62
     5
 10
3195.253920170176
 20
-1155.298168447709
 30
0.0
 11
3193.253920170175
 21
-1155.298168447709
 31
0.0
  0
LINE
  5
190
  8
回07-寸法
  6
CONTINUOUS
 62
     5
 10
3204.253920170175
 20
-1155.298168447709
 30
0.0
 11
3210.265341526412
 21
-1155.298168447709
 31
0.0
  0
LINE
  5
191
  8
回07-寸法
  6
CONTINUOUS
 62
     5
 10
3197.253920170175
 20
-1155.298168447709
 30
0.0
 11
3202.253920170175
 21
-1155.298168447709
 31
0.0
  0
INSERT
  5
192
  8
回07-寸法
  6
CONTINUOUS
 62
     5
  2
_OPEN
 10
3197.253920170175
 20
-1155.298168447709
 30
0.0
 41
2.0
 42
2.0
 43
2.0
  0
INSERT
  5
193
  8
回07-寸法
  6
CONTINUOUS
 62
     5
  2
_OPEN
 10
3202.253920170175
 20
-1155.298168447709
 30
0.0
 41
2.0
 42
2.0
 43
2.0
 50
180.0
  0
TEXT
  5
194
  8
回07-寸法
  6
CONTINUOUS
 62
     5
 10
3208.623920170174
 20
-1154.798168447709
 30
0.0
 40
2.0
  1
5
1001
ACAD
1000
MTEXTBEGIN
1070
    73
1070
     1
1070
    44
1040
1.0
1070
    74
1070
     0
1000
MTEXTEND
  0
POINT
  5
195
  8
DEFPOINTS
  6
CONTINUOUS
 62
     0
 10
3202.253920170175
 20
-1159.143964682996
 30
0.0
  0
POINT
  5
196
  8
DEFPOINTS
  6
CONTINUOUS
 62
     0
 10
3197.253920170175
 20
-1159.643964682997
 30
0.0
  0
POINT
  5
197
  8
DEFPOINTS
  6
CONTINUOUS
 62
     0
 10
3197.253920170175
 20
-1155.298168447709
 30
0.0
  0
ENDBLK
  5
198
  8
0
  0
BLOCK
  8
0
  2
*D33
 70
     1
 10
0.0
 20
0.0
 30
0.0
  3
*D33
  1

  0
LINE
  5
17E
  8
回07-寸法
  6
CONTINUOUS
 62
     5
 10
3197.253920170177
 20
-1159.643964682997
 30
0.0
 11
3189.129547150772
 21
-1159.643964682997
 31
0.0
  0
LINE
  5
17F
  8
回07-寸法
  6
CONTINUOUS
 62
     5
 10
3197.253920170177
 20
-1161.843964682997
 30
0.0
 11
3189.129547150772
 21
-1161.843964682997
 31
0.0
  0
LINE
  5
180
  8
回07-寸法
  6
CONTINUOUS
 62
     5
 10
3190.129547150772
 20
-1157.643964682997
 30
0.0
 11
3190.129547150772
 21
-1155.643964682997
 31
0.0
  0
LINE
  5
181
  8
回07-寸法
  6
CONTINUOUS
 62
     5
 10
3190.129547150772
 20
-1163.843964682997
 30
0.0
 11
3190.129547150772
 21
-1175.330097927374
 31
0.0
  0
LINE
  5
182
  8
回07-寸法
  6
CONTINUOUS
 62
     5
 10
3190.129547150772
 20
-1159.643964682997
 30
0.0
 11
3190.129547150772
 21
-1161.843964682997
 31
0.0
  0
INSERT
  5
183
  8
回07-寸法
  6
CONTINUOUS
 62
     5
  2
_OPEN
 10
3190.129547150772
 20
-1159.643964682997
 30
0.0
 41
2.0
 42
2.0
 43
2.0
 50
270.0
  0
INSERT
  5
184
  8
回07-寸法
  6
CONTINUOUS
 62
     5
  2
_OPEN
 10
3190.129547150772
 20
-1161.843964682997
 30
0.0
 41
2.0
 42
2.0
 43
2.0
 50
90.0
  0
INSERT
  5
185
  8
回07-寸法
  6
CONTINUOUS
 62
     5
 66
     1
  2
*X52
 10
0.0
 20
0.0
 30
0.0
  0
SEQEND
  5
4C4
  8
回08-記事
  6
CONTINUOUS
 62
     5
  0
POINT
  5
186
  8
DEFPOINTS
  6
CONTINUOUS
 62
     0
 10
3197.253920170177
 20
-1159.643964682997
 30
0.0
  0
POINT
  5
187
  8
DEFPOINTS
  6
CONTINUOUS
 62
     0
 10
3197.253920170177
 20
-1161.843964682997
 30
0.0
  0
POINT
  5
188
  8
DEFPOINTS
  6
CONTINUOUS
 62
     0
 10
3190.129547150772
 20
-1161.843964682997
 30
0.0
  0
ENDBLK
  5
189
  8
0
  0
BLOCK
  8
0
  2
*D34
 70
     1
 10
0.0
 20
0.0
 30
0.0
  3
*D34
  1

  0
LINE
  5
108
  8
回07-寸法
  6
CONTINUOUS
 62
     5
 10
3197.753920170178
 20
-1074.850786713719
 30
0.0
 11
3185.869770914966
 21
-1074.850786713719
 31
0.0
  0
LINE
  5
109
  8
回07-寸法
  6
CONTINUOUS
 62
     5
 10
3277.453963680946
 20
-1123.22578671372
 30
0.0
 11
3185.869770914966
 21
-1123.22578671372
 31
0.0
  0
LINE
  5
10A
  8
回07-寸法
  6
CONTINUOUS
 62
     5
 10
3186.869770914966
 20
-1076.850786713719
 30
0.0
 11
3186.869770914966
 21
-1121.22578671372
 31
0.0
  0
INSERT
  5
10B
  8
回07-寸法
  6
CONTINUOUS
 62
     5
  2
_OPEN
 10
3186.869770914966
 20
-1074.850786713719
 30
0.0
 41
2.0
 42
2.0
 43
2.0
 50
90.0
  0
INSERT
  5
10C
  8
回07-寸法
  6
CONTINUOUS
 62
     5
  2
_OPEN
 10
3186.869770914966
 20
-1123.22578671372
 30
0.0
 41
2.0
 42
2.0
 43
2.0
 50
270.0
  0
TEXT
  5
10D
  8
回07-寸法
  6
CONTINUOUS
 62
     5
 10
3186.269770914964
 20
-1102.43828671372
 30
0.0
 40
2.0
  1
(48.4)
 50
90.0
1001
ACAD
1000
MTEXTBEGIN
1070
    73
1070
     1
1070
    44
1040
1.0
1070
    74
1070
     0
1000
MTEXTEND
  0
POINT
  5
10E
  8
DEFPOINTS
  6
CONTINUOUS
 62
     0
 10
3197.753920170178
 20
-1074.850786713719
 30
0.0
  0
POINT
  5
10F
  8
DEFPOINTS
  6
CONTINUOUS
 62
     0
 10
3277.453963680946
 20
-1123.22578671372
 30
0.0
  0
POINT
  5
110
  8
DEFPOINTS
  6
CONTINUOUS
 62
     0
 10
3186.869770914966
 20
-1123.22578671372
 30
0.0
  0
ENDBLK
  5
111
  8
0
  0
BLOCK
  8
0
  2
*D35
 70
     1
 10
0.0
 20
0.0
 30
0.0
  3
*D35
  1

  0
LINE
  5
BA
  8
回02-寸法
  6
CONTINUOUS
 62
     5
 10
3217.078248566782
 20
-1010.34184531235
 30
0.0
 11
3186.659048461568
 21
-1010.34184531235
 31
0.0
  0
LINE
  5
BB
  8
回02-寸法
  6
CONTINUOUS
 62
     5
 10
3217.078248566782
 20
-1022.841845312349
 30
0.0
 11
3186.659048461568
 21
-1022.841845312349
 31
0.0
  0
LINE
  5
BC
  8
回02-寸法
  6
CONTINUOUS
 62
     5
 10
3187.659048461569
 20
-1012.34184531235
 30
0.0
 11
3187.659048461569
 21
-1020.841845312349
 31
0.0
  0
INSERT
  5
BD
  8
回02-寸法
  6
CONTINUOUS
 62
     5
 66
     1
  2
_OPEN
 10
3187.659048461569
 20
-1010.34184531235
 30
0.0
 41
2.0
 42
2.0
 43
2.0
 50
90.0
  0
SEQEND
  5
BE
  8
回08-記事
  6
CONTINUOUS
 62
     5
  0
INSERT
  5
BF
  8
回02-寸法
  6
CONTINUOUS
 62
     5
 66
     1
  2
_OPEN
 10
3187.659048461569
 20
-1022.841845312349
 30
0.0
 41
2.0
 42
2.0
 43
2.0
 50
270.0
  0
SEQEND
  5
C0
  8
回08-記事
  6
CONTINUOUS
 62
     5
  0
INSERT
  5
C1
  8
回02-寸法
  6
CONTINUOUS
 62
     5
 66
     1
  2
*X53
 10
0.0
 20
0.0
 30
0.0
  0
SEQEND
  5
4CA
  8
回08-記事
  6
CONTINUOUS
 62
     5
  0
POINT
  5
C2
  8
DEFPOINTS
  6
CONTINUOUS
 62
     0
 10
3217.078248566782
 20
-1010.34184531235
 30
0.0
  0
POINT
  5
C3
  8
DEFPOINTS
  6
CONTINUOUS
 62
     0
 10
3217.078248566782
 20
-1022.841845312349
 30
0.0
  0
POINT
  5
C4
  8
DEFPOINTS
  6
CONTINUOUS
 62
     0
 10
3187.659048461569
 20
-1022.841845312349
 30
0.0
  0
ENDBLK
  5
C5
  8
0
 62
     5
  0
BLOCK
  8
0
  2
*D36
 70
     1
 10
0.0
 20
0.0
 30
0.0
  3
*D36
  1

  0
LINE
  5
A0
  8
回02-寸法
  6
CONTINUOUS
 62
     5
 10
3213.178719476972
 20
-1017.841845312355
 30
0.0
 11
3200.113735748092
 21
-1017.841845312355
 31
0.0
  0
LINE
  5
A1
  8
回02-寸法
  6
CONTINUOUS
 62
     5
 10
3213.178719476972
 20
-1020.341845312355
 30
0.0
 11
3200.113735748092
 21
-1020.341845312355
 31
0.0
  0
LINE
  5
A2
  8
回02-寸法
  6
CONTINUOUS
 62
     5
 10
3201.113735748091
 20
-1015.841845312355
 30
0.0
 11
3201.113735748091
 21
-1013.841845312355
 31
0.0
  0
LINE
  5
A3
  8
回02-寸法
  6
CONTINUOUS
 62
     5
 10
3201.113735748091
 20
-1022.341845312355
 30
0.0
 11
3201.113735748091
 21
-1033.291928337158
 31
0.0
  0
LINE
  5
A4
  8
回02-寸法
  6
CONTINUOUS
 62
     5
 10
3201.113735748091
 20
-1017.841845312355
 30
0.0
 11
3201.113735748091
 21
-1020.341845312355
 31
0.0
  0
INSERT
  5
A5
  8
回02-寸法
  6
CONTINUOUS
 62
     5
 66
     1
  2
_OPEN
 10
3201.113735748091
 20
-1017.841845312355
 30
0.0
 41
2.0
 42
2.0
 43
2.0
 50
270.0
  0
SEQEND
  5
A6
  8
回08-記事
  6
CONTINUOUS
 62
     5
  0
INSERT
  5
A7
  8
回02-寸法
  6
CONTINUOUS
 62
     5
 66
     1
  2
_OPEN
 10
3201.113735748091
 20
-1020.341845312355
 30
0.0
 41
2.0
 42
2.0
 43
2.0
 50
90.0
  0
SEQEND
  5
A8
  8
回08-記事
  6
CONTINUOUS
 62
     5
  0
INSERT
  5
A9
  8
回02-寸法
  6
CONTINUOUS
 62
     5
 66
     1
  2
*X54
 10
0.0
 20
0.0
 30
0.0
  0
SEQEND
  5
4D0
  8
回08-記事
  6
CONTINUOUS
 62
     5
  0
POINT
  5
AA
  8
DEFPOINTS
  6
CONTINUOUS
 62
     0
 10
3213.178719476972
 20
-1017.841845312355
 30
0.0
  0
POINT
  5
AB
  8
DEFPOINTS
  6
CONTINUOUS
 62
     0
 10
3213.178719476972
 20
-1020.341845312355
 30
0.0
  0
POINT
  5
AC
  8
DEFPOINTS
  6
CONTINUOUS
 62
     0
 10
3201.113735748091
 20
-1020.341845312355
 30
0.0
  0
ENDBLK
  5
AD
  8
0
 62
     5
  0
BLOCK
  8
0
  2
*D37
 70
     1
 10
0.0
 20
0.0
 30
0.0
  3
*D37
  1

  0
LINE
  5
8F
  8
回02-寸法
  6
CONTINUOUS
 62
     5
 10
3216.078161545247
 20
-1019.641845312355
 30
0.0
 11
3206.878373340944
 21
-1019.641845312355
 31
0.0
  0
LINE
  5
90
  8
回02-寸法
  6
CONTINUOUS
 62
     5
 10
3216.078161545247
 20
-1021.041845312355
 30
0.0
 11
3206.878373340944
 21
-1021.041845312355
 31
0.0
  0
LINE
  5
91
  8
回02-寸法
  6
CONTINUOUS
 62
     5
 10
3207.878373340944
 20
-1017.641845312355
 30
0.0
 11
3207.878373340944
 21
-1015.641845312355
 31
0.0
  0
LINE
  5
92
  8
回02-寸法
  6
CONTINUOUS
 62
     5
 10
3207.878373340944
 20
-1023.041845312355
 30
0.0
 11
3207.878373340944
 21
-1035.558498312355
 31
0.0
  0
LINE
  5
93
  8
回02-寸法
  6
CONTINUOUS
 62
     5
 10
3207.878373340944
 20
-1019.641845312355
 30
0.0
 11
3207.878373340944
 21
-1021.041845312355
 31
0.0
  0
INSERT
  5
94
  8
回02-寸法
  6
CONTINUOUS
 62
     5
 66
     1
  2
_OPEN
 10
3207.878373340944
 20
-1019.641845312355
 30
0.0
 41
2.0
 42
2.0
 43
2.0
 50
270.0
  0
SEQEND
  5
95
  8
回08-記事
  6
CONTINUOUS
 62
     5
  0
INSERT
  5
96
  8
回02-寸法
  6
CONTINUOUS
 62
     5
 66
     1
  2
_OPEN
 10
3207.878373340944
 20
-1021.041845312355
 30
0.0
 41
2.0
 42
2.0
 43
2.0
 50
90.0
  0
SEQEND
  5
97
  8
回08-記事
  6
CONTINUOUS
 62
     5
  0
INSERT
  5
98
  8
回02-寸法
  6
CONTINUOUS
 62
     5
 66
     1
  2
*X55
 10
0.0
 20
0.0
 30
0.0
  0
SEQEND
  5
4D6
  8
回08-記事
  6
CONTINUOUS
 62
     5
  0
POINT
  5
99
  8
DEFPOINTS
  6
CONTINUOUS
 62
     0
 10
3216.078161545247
 20
-1019.641845312355
 30
0.0
  0
POINT
  5
9A
  8
DEFPOINTS
  6
CONTINUOUS
 62
     0
 10
3216.078161545247
 20
-1021.041845312355
 30
0.0
  0
POINT
  5
9B
  8
DEFPOINTS
  6
CONTINUOUS
 62
     0
 10
3207.878373340944
 20
-1021.041845312355
 30
0.0
  0
ENDBLK
  5
9C
  8
0
 62
     5
  0
BLOCK
  8
0
  2
*D38
 70
     1
 10
0.0
 20
0.0
 30
0.0
  3
*D38
  1

  0
LINE
  5
7D
  8
回02-寸法
  6
CONTINUOUS
 62
     5
 10
3213.178719476972
 20
-1020.341845312355
 30
0.0
 11
3193.69899772189
 21
-1020.341845312355
 31
0.0
  0
LINE
  5
7E
  8
回02-寸法
  6
CONTINUOUS
 62
     5
 10
3213.178632455437
 20
-1012.841845312355
 30
0.0
 11
3193.69899772189
 21
-1012.841845312355
 31
0.0
  0
LINE
  5
7F
  8
回02-寸法
  6
CONTINUOUS
 62
     5
 10
3194.698997721891
 20
-1010.841845312355
 30
0.0
 11
3194.698997721891
 21
-1008.841845312355
 31
0.0
  0
LINE
  5
80
  8
回02-寸法
  6
CONTINUOUS
 62
     5
 10
3194.698997721891
 20
-1022.341845312355
 30
0.0
 11
3194.698997721891
 21
-1035.629681034395
 31
0.0
  0
LINE
  5
81
  8
回02-寸法
  6
CONTINUOUS
 62
     5
 10
3194.698997721891
 20
-1012.841845312355
 30
0.0
 11
3194.698997721891
 21
-1020.341845312355
 31
0.0
  0
INSERT
  5
82
  8
回02-寸法
  6
CONTINUOUS
 62
     5
 66
     1
  2
_OPEN
 10
3194.698997721891
 20
-1012.841845312355
 30
0.0
 41
2.0
 42
2.0
 43
2.0
 50
270.0
  0
SEQEND
  5
83
  8
回08-記事
  6
CONTINUOUS
 62
     5
  0
INSERT
  5
84
  8
回02-寸法
  6
CONTINUOUS
 62
     5
 66
     1
  2
_OPEN
 10
3194.698997721891
 20
-1020.341845312355
 30
0.0
 41
2.0
 42
2.0
 43
2.0
 50
90.0
  0
SEQEND
  5
85
  8
回08-記事
  6
CONTINUOUS
 62
     5
  0
INSERT
  5
86
  8
回02-寸法
  6
CONTINUOUS
 62
     5
 66
     1
  2
*X56
 10
0.0
 20
0.0
 30
0.0
  0
SEQEND
  5
4DC
  8
回08-記事
  6
CONTINUOUS
 62
     5
  0
POINT
  5
87
  8
DEFPOINTS
  6
CONTINUOUS
 62
     0
 10
3213.178719476972
 20
-1020.341845312355
 30
0.0
  0
POINT
  5
89
  8
DEFPOINTS
  6
CONTINUOUS
 62
     0
 10
3213.178632455437
 20
-1012.841845312355
 30
0.0
  0
POINT
  5
8A
  8
DEFPOINTS
  6
CONTINUOUS
 62
     0
 10
3194.698997721891
 20
-1012.841845312355
 30
0.0
  0
ENDBLK
  5
8B
  8
0
 62
     5
  0
BLOCK
  8
回08-記事
  2
*X39
 70
     1
 10
0.0
 20
0.0
 30
0.0
  3
*X39
  1

  0
INSERT
  5
3D3
  8
回03-記事
  6
CONTINUOUS
 62
     5
  2
_OPEN
 10
3199.67408302184
 20
-1159.643964682997
 30
0.0
 41
2.0
 42
2.0
 43
2.0
 50
324.3887742357533
  0
LINE
  5
3D4
  8
回03-記事
  6
CONTINUOUS
 62
     5
 10
3198.048109637644
 20
-1158.479400148981
 30
0.0
 11
3191.209518623592
 21
-1153.581422952667
 31
0.0
  0
LINE
  5
3D5
  8
回03-記事
  6
CONTINUOUS
 62
     5
 10
3191.209518623592
 20
-1153.581422952667
 30
0.0
 11
3165.002018623592
 21
-1153.581422952667
 31
0.0
  0
ENDBLK
  5
3D7
  8
回08-記事
  6
CONTINUOUS
 62
     5
  0
BLOCK
  8
回08-記事
  2
*X40
 70
     1
 10
0.0
 20
0.0
 30
0.0
  3
*X40
  1

  0
INSERT
  5
3DA
  8
回03-記事
  6
CONTINUOUS
 62
     5
  2
_OPEN
 10
3199.867925002065
 20
-1068.609897475457
 30
0.0
 41
2.0
 42
2.0
 43
2.0
 50
236.6265780747948
  0
LINE
  5
3DB
  8
回03-記事
  6
CONTINUOUS
 62
     5
 10
3200.968111833849
 20
-1066.939691220179
 30
0.0
 11
3203.728098134553
 21
-1062.749724342968
 31
0.0
  0
LINE
  5
3DC
  8
回03-記事
  6
CONTINUOUS
 62
     5
 10
3203.728098134553
 20
-1062.749724342968
 30
0.0
 11
3206.228098134553
 21
-1062.749724342968
 31
0.0
  0
ENDBLK
  5
3DE
  8
回08-記事
  6
CONTINUOUS
 62
     5
  0
BLOCK
  8
回08-記事
  2
*X41
 70
     1
 10
0.0
 20
0.0
 30
0.0
  3
*X41
  1

  0
INSERT
  5
3E1
  8
回02-寸法
  6
CONTINUOUS
 62
     5
  2
_OPEN
 10
3216.364947440334
 20
-1010.615237000008
 30
0.0
 41
2.0
 42
2.0
 43
2.0
 50
294.1578552206892
  0
LINE
  5
3E2
  8
回02-寸法
 62
     5
 10
3215.546443441882
 20
-1008.790394211021
 30
0.0
 11
3214.367215641998
 21
-1006.161322940434
 31
0.0
  0
LINE
  5
3E3
  8
回02-寸法
 62
     5
 10
3214.367215641998
 20
-1006.161322940434
 30
0.0
 11
3204.667215641999
 21
-1006.161322940434
 31
0.0
  0
ENDBLK
  5
3E5
  8
回08-記事
  6
CONTINUOUS
 62
     5
  0
BLOCK
  8
回08-記事
  2
*X42
 70
     1
 10
0.0
 20
0.0
 30
0.0
  3
*X42
  1

  0
INSERT
  5
3F4
  8
回03-記事
  6
CONTINUOUS
 62
     5
  2
_OPEN
 10
3277.340496867215
 20
-1077.372460807855
 30
0.0
 41
2.0
 42
2.0
 43
2.0
 50
52.59188692827045
  0
LINE
  5
3F5
  8
回03-記事
  6
CONTINUOUS
 62
     5
 10
3276.125520222023
 20
-1078.961118024386
 30
0.0
 11
3261.690300134323
 21
-1097.836062374362
 31
0.0
  0
LINE
  5
3F6
  8
回03-記事
  6
CONTINUOUS
 62
     5
 10
3261.690300134323
 20
-1097.836062374362
 30
0.0
 11
3237.590300134324
 21
-1097.836062374362
 31
0.0
  0
ENDBLK
  5
3F8
  8
回08-記事
  6
CONTINUOUS
 62
     5
  0
BLOCK
  8
回08-記事
  2
*X43
 70
     1
 10
0.0
 20
0.0
 30
0.0
  3
*X43
  1

  0
TEXT
  5
3FB
  8
回07-寸法
  6
CONTINUOUS
 62
     5
 10
3378.575503197218
 20
-1092.518754165521
 30
0.0
 40
2.0
  1
φ0.05
  7
Standard
  0
LINE
  5
3FC
  8
回07-寸法
  6
BYBLOCK
 62
     5
 10
3376.615503197218
 20
-1092.918754165521
 30
0.0
 11
3376.975503197217
 21
-1092.918754165521
 31
0.0
  0
POLYLINE
  5
3FD
  8
回07-寸法
  6
BYBLOCK
 62
     5
 66
     1
 10
0.0
 20
0.0
 30
0.0
  0
VERTEX
  5
3FE
  8
回07-寸法
  6
BYBLOCK
 62
     5
 10
3374.066912456027
 20
-1089.352916132829
 30
0.0
  0
VERTEX
  5
400
  8
回07-寸法
  6
BYBLOCK
 62
     5
 10
3376.615503197218
 20
-1092.918754165521
 30
0.0
  0
SEQEND
  5
3FF
  8
回08-記事
  6
CONTINUOUS
 62
     5
  0
INSERT
  5
401
  8
回07-寸法
  6
CONTINUOUS
 62
     5
  2
_OPEN
 10
3372.903963680944
 20
-1087.725786713719
 30
0.0
 41
2.0
 42
2.0
 43
2.0
 50
125.5543101574913
  0
POLYLINE
  5
402
  8
回07-寸法
  6
BYBLOCK
 62
     5
 66
     1
 10
0.0
 20
0.0
 30
0.0
  0
VERTEX
  5
403
  8
回07-寸法
  6
BYBLOCK
 62
     5
 10
3376.975503197217
 20
-1092.918754165521
 30
0.0
  0
VERTEX
  5
405
  8
回07-寸法
  6
BYBLOCK
 62
     5
 10
3385.475503197218
 20
-1092.918754165521
 30
0.0
  0
SEQEND
  5
404
  8
回08-記事
  6
CONTINUOUS
 62
     5
  0
ENDBLK
  5
407
  8
回08-記事
  6
CONTINUOUS
 62
     5
  0
BLOCK
  8
回08-記事
  2
*X44
 70
     1
 10
0.0
 20
0.0
 30
0.0
  3
*X44
  1

  0
TEXT
  5
40A
  8
回07-寸法
  6
CONTINUOUS
 62
     5
 10
3266.487022333548
 20
-1055.562153324265
 30
0.0
 40
2.0
  1
2-R2
  7
Standard
  0
LINE
  5
40B
  8
回07-寸法
  6
BYBLOCK
 62
     5
 10
3274.347464580669
 20
-1055.962153324265
 30
0.0
 11
3273.987464580669
 21
-1055.962153324265
 31
0.0
  0
POLYLINE
  5
40C
  8
回07-寸法
  6
BYBLOCK
 62
     5
 66
     1
 10
0.0
 20
0.0
 30
0.0
  0
VERTEX
  5
40D
  8
回07-寸法
  6
BYBLOCK
 62
     5
 10
3276.436899918231
 20
-1061.278294431575
 30
0.0
  0
VERTEX
  5
40F
  8
回07-寸法
  6
BYBLOCK
 62
     5
 10
3274.347464580669
 20
-1055.962153324265
 30
0.0
  0
SEQEND
  5
40E
  8
回08-記事
  6
CONTINUOUS
 62
     5
  0
INSERT
  5
410
  8
回07-寸法
  6
CONTINUOUS
 62
     5
  2
_OPEN
 10
3277.168493216843
 20
-1063.13968403223
 30
0.0
 41
2.0
 42
2.0
 43
2.0
 50
291.4566180836965
  0
POLYLINE
  5
411
  8
回07-寸法
  6
BYBLOCK
 62
     5
 66
     1
 10
0.0
 20
0.0
 30
0.0
  0
VERTEX
  5
412
  8
回07-寸法
  6
BYBLOCK
 62
     5
 10
3266.616559068858
 20
-1055.762153324265
 30
0.0
  0
VERTEX
  5
414
  8
回07-寸法
  6
BYBLOCK
 62
     5
 10
3273.817001315978
 20
-1055.762153324265
 30
0.0
  0
SEQEND
  5
413
  8
回08-記事
  6
CONTINUOUS
 62
     5
  0
ENDBLK
  5
416
  8
回08-記事
  6
CONTINUOUS
 62
     5
  0
BLOCK
  8
回08-記事
  2
*X45
 70
     1
 10
0.0
 20
0.0
 30
0.0
  3
*X45
  1

  0
TEXT
  5
419
  8
回07-寸法
  6
CONTINUOUS
 62
     5
 10
3257.243412354473
 20
-1060.947525806828
 30
0.0
 40
2.0
  1
4-R1
  7
Standard
  0
LINE
  5
41A
  8
回07-寸法
  6
BYBLOCK
 62
     5
 10
3264.903412354473
 20
-1061.347525806828
 30
0.0
 11
3264.543412354472
 21
-1061.347525806828
 31
0.0
  0
POLYLINE
  5
41B
  8
回07-寸法
  6
BYBLOCK
 62
     5
 66
     1
 10
0.0
 20
0.0
 30
0.0
  0
VERTEX
  5
41C
  8
回07-寸法
  6
BYBLOCK
 62
     5
 10
3266.992847692035
 20
-1066.663666914138
 30
0.0
  0
VERTEX
  5
41E
  8
回07-寸法
  6
BYBLOCK
 62
     5
 10
3264.903412354473
 20
-1061.347525806828
 30
0.0
  0
SEQEND
  5
41D
  8
回08-記事
  6
CONTINUOUS
 62
     5
  0
INSERT
  5
41F
  8
回07-寸法
  6
CONTINUOUS
 62
     5
  2
_OPEN
 10
3267.724440990646
 20
-1068.525056514793
 30
0.0
 41
2.0
 42
2.0
 43
2.0
 50
291.4566180836965
  0
POLYLINE
  5
420
  8
回07-寸法
  6
BYBLOCK
 62
     5
 66
     1
 10
0.0
 20
0.0
 30
0.0
  0
VERTEX
  5
421
  8
回07-寸法
  6
BYBLOCK
 62
     5
 10
3257.543412354472
 20
-1061.147525806828
 30
0.0
  0
VERTEX
  5
423
  8
回07-寸法
  6
BYBLOCK
 62
     5
 10
3264.543412354472
 20
-1061.147525806828
 30
0.0
  0
SEQEND
  5
422
  8
回08-記事
  6
CONTINUOUS
 62
     5
  0
ENDBLK
  5
425
  8
回08-記事
  6
CONTINUOUS
 62
     5
  0
BLOCK
  8
回08-記事
  2
*X46
 70
     1
 10
0.0
 20
0.0
 30
0.0
  3
*X46
  1

  0
LINE
  5
497
  8
回08-記事
  6
CONTINUOUS
 62
     7
 10
3282.222016374967
 20
-1073.099069210906
 30
0.0
 11
3282.882235627948
 21
-1073.759288463886
 31
0.0
1001
GradientColor1ACI
1070
     5
1001
GradientColor2ACI
1070
     2
1001
ACAD
1010
0.0
1020
0.0
1030
0.0
  0
LINE
  5
498
  8
回08-記事
  6
CONTINUOUS
 62
     7
 10
3279.976952344699
 20
-1073.099069210905
 30
0.0
 11
3282.882235627948
 21
-1076.004352494154
 31
0.0
1001
GradientColor1ACI
1070
     5
1001
GradientColor2ACI
1070
     2
1001
ACAD
1010
0.0
1020
0.0
1030
0.0
  0
LINE
  5
499
  8
回08-記事
  6
CONTINUOUS
 62
     7
 10
3277.731888314432
 20
-1073.099069210905
 30
0.0
 11
3282.882235627947
 21
-1078.249416524421
 31
0.0
1001
GradientColor1ACI
1070
     5
1001
GradientColor2ACI
1070
     2
1001
ACAD
1010
0.0
1020
0.0
1030
0.0
  0
LINE
  5
49A
  8
回08-記事
  6
CONTINUOUS
 62
     7
 10
3275.486824284164
 20
-1073.099069210906
 30
0.0
 11
3281.486824284164
 21
-1079.099069210905
 31
0.0
1001
GradientColor1ACI
1070
     5
1001
GradientColor2ACI
1070
     2
1001
ACAD
1010
0.0
1020
0.0
1030
0.0
  0
LINE
  5
49B
  8
回08-記事
  6
CONTINUOUS
 62
     7
 10
3273.882235627946
 20
-1073.739544584955
 30
0.0
 11
3279.241760253897
 21
-1079.099069210906
 31
0.0
1001
GradientColor1ACI
1070
     5
1001
GradientColor2ACI
1070
     2
1001
ACAD
1010
0.0
1020
0.0
1030
0.0
  0
LINE
  5
49C
  8
回08-記事
  6
CONTINUOUS
 62
     7
 10
3273.882235627946
 20
-1075.984608615223
 30
0.0
 11
3276.996696223629
 21
-1079.099069210905
 31
0.0
1001
GradientColor1ACI
1070
     5
1001
GradientColor2ACI
1070
     2
1001
ACAD
1010
0.0
1020
0.0
1030
0.0
  0
LINE
  5
49D
  8
回08-記事
  6
CONTINUOUS
 62
     7
 10
3273.882235627947
 20
-1078.229672645491
 30
0.0
 11
3274.751632193362
 21
-1079.099069210905
 31
0.0
1001
GradientColor1ACI
1070
     5
1001
GradientColor2ACI
1070
     2
1001
ACAD
1010
0.0
1020
0.0
1030
0.0
  0
ENDBLK
  5
49F
  8
回08-記事
  6
CONTINUOUS
 62
     5
  0
BLOCK
  8
回08-記事
  2
*X47
 70
     1
 10
0.0
 20
0.0
 30
0.0
  3
*X47
  1

  0
TEXT
  5
4A2
  8
回07-寸法
  6
CONTINUOUS
 62
     5
 10
3186.369574064567
 20
-1064.287090055633
 30
0.0
 40
2.0
  1
6.25
 50
90.0
  0
TEXT
  5
4A3
  8
回07-寸法
  6
CONTINUOUS
 62
     5
 10
3186.369574064567
 20
-1059.487090055633
 30
0.0
 40
1.8
  1
±0.2
 50
90.0
  0
ENDBLK
  5
4A5
  8
回08-記事
  6
CONTINUOUS
 62
     5
  0
BLOCK
  8
回08-記事
  2
*X48
 70
     1
 10
0.0
 20
0.0
 30
0.0
  3
*X48
  1

  0
TEXT
  5
4A8
  8
回07-寸法
  6
CONTINUOUS
 62
     5
 10
3238.864924160532
 20
-1040.018240850387
 30
0.0
 40
2.0
  1
80
  0
TEXT
  5
4A9
  8
回07-寸法
  6
CONTINUOUS
 62
     5
 10
3241.664924160533
 20
-1040.018240850387
 30
0.0
 40
1.8
  1
±1
  0
ENDBLK
  5
4AB
  8
回08-記事
  6
CONTINUOUS
 62
     5
  0
BLOCK
  8
回08-記事
  2
*X49
 70
     1
 10
0.0
 20
0.0
 30
0.0
  3
*X49
  1

  0
TEXT
  5
4AE
  8
回07-寸法
  6
CONTINUOUS
 62
     5
 10
3338.178963680944
 20
-986.444291263948
 30
0.0
 40
2.0
  1
131.4
  0
TEXT
  5
4AF
  8
回07-寸法
  6
CONTINUOUS
 62
     5
 10
3343.778963680943
 20
-986.444291263948
 30
0.0
 40
1.8
  1
±0.3
  0
ENDBLK
  5
4B1
  8
回08-記事
  6
CONTINUOUS
 62
     5
  0
BLOCK
  8
回08-記事
  2
*X50
 70
     1
 10
0.0
 20
0.0
 30
0.0
  3
*X50
  1

  0
TEXT
  5
4B4
  8
回07-寸法
  6
CONTINUOUS
 62
     5
 10
3434.87685121169
 20
-1075.800786713721
 30
0.0
 40
2.0
  1
103
 50
90.0
  0
TEXT
  5
4B5
  8
回07-寸法
  6
CONTINUOUS
 62
     5
 10
3434.87685121169
 20
-1072.000786713721
 30
0.0
 40
1.8
  1
±0.3
 50
90.0
  0
ENDBLK
  5
4B7
  8
回08-記事
  6
CONTINUOUS
 62
     5
  0
BLOCK
  8
回08-記事
  2
*X51
 70
     1
 10
0.0
 20
0.0
 30
0.0
  3
*X51
  1

  0
TEXT
  5
4BA
  8
回07-寸法
  6
CONTINUOUS
 62
     5
 10
3413.767699135909
 20
-1175.400204312404
 30
0.0
 40
2.0
  1
1.4±
 50
90.0
  0
TEXT
  5
4BB
  8
回07-寸法
  6
CONTINUOUS
 62
     5
 10
3413.767699135909
 20
-1170.800204312404
 30
0.0
 40
1.8
  1
0.2
 50
90.0
  0
ENDBLK
  5
4BD
  8
回08-記事
  6
CONTINUOUS
 62
     5
  0
BLOCK
  8
回08-記事
  2
*X52
 70
     1
 10
0.0
 20
0.0
 30
0.0
  3
*X52
  1

  0
TEXT
  5
4C0
  8
回07-寸法
  6
CONTINUOUS
 62
     5
 10
3189.629547150771
 20
-1175.091243903611
 30
0.0
 40
2.0
  1
0.3
 50
90.0
  0
TEXT
  5
4C1
  8
回07-寸法
  6
CONTINUOUS
 62
     5
 10
3189.629547150771
 20
-1171.691243903611
 30
0.0
 40
1.8
  1
±0.05
 50
90.0
  0
ENDBLK
  5
4C3
  8
回08-記事
  6
CONTINUOUS
 62
     5
  0
BLOCK
  8
回08-記事
  2
*X53
 70
     1
 10
0.0
 20
0.0
 30
0.0
  3
*X53
  1

  0
TEXT
  5
4C6
  8
回02-寸法
  6
CONTINUOUS
 62
     5
 10
3187.158851611173
 20
-1020.642067735428
 30
0.0
 40
2.0
  1
6.25
 50
90.0
  0
TEXT
  5
4C7
  8
回02-寸法
  6
CONTINUOUS
 62
     5
 10
3187.158851611173
 20
-1015.842067735428
 30
0.0
 40
1.333399999999999
  1
±0.2
 50
90.0
  0
ENDBLK
  5
4C9
  8
回08-記事
  6
CONTINUOUS
 62
     5
  0
BLOCK
  8
回08-記事
  2
*X54
 70
     1
 10
0.0
 20
0.0
 30
0.0
  3
*X54
  1

  0
TEXT
  5
4CC
  8
回02-寸法
  6
CONTINUOUS
 62
     5
 10
3200.613538897697
 20
-1033.042063593654
 30
0.0
 40
2.0
  1
1.25
 50
90.0
  0
TEXT
  5
4CD
  8
回02-寸法
  6
CONTINUOUS
 62
     5
 10
3200.613538897697
 20
-1028.642063593654
 30
0.0
 40
1.66666
  1
±0.2
 50
90.0
  0
ENDBLK
  5
4CF
  8
回08-記事
  6
CONTINUOUS
 62
     5
  0
BLOCK
  8
回08-記事
  2
*X55
 70
     1
 10
0.0
 20
0.0
 30
0.0
  3
*X55
  1

  0
TEXT
  5
4D2
  8
回02-寸法
  6
CONTINUOUS
 62
     5
 10
3207.378373340943
 20
-1035.358498312356
 30
0.0
 40
2.0
  1
4-0.7
 50
90.0
  0
TEXT
  5
4D3
  8
回02-寸法
  6
CONTINUOUS
 62
     5
 10
3207.378373340943
 20
-1028.958498312356
 30
0.0
 40
1.66666
  1
±0.1
 50
90.0
  0
ENDBLK
  5
4D5
  8
回08-記事
  6
CONTINUOUS
 62
     5
  0
BLOCK
  8
回08-記事
  2
*X56
 70
     1
 10
0.0
 20
0.0
 30
0.0
  3
*X56
  1

  0
TEXT
  5
4D8
  8
回02-寸法
  6
CONTINUOUS
 62
     5
 10
3194.19899772189
 20
-1035.429681034396
 30
0.0
 40
2.0
  1
3.75
 50
90.0
  0
TEXT
  5
4D9
  8
回02-寸法
  6
CONTINUOUS
 62
     5
 10
3194.19899772189
 20
-1030.629681034396
 30
0.0
 40
1.333339999999999
  1
±0.1
 50
90.0
  0
ENDBLK
  5
4DB
  8
回08-記事
  6
CONTINUOUS
 62
     5
  0
ENDSEC
  0
SECTION
  2
ENTITIES
  0
TEXT
  5
65
  8
回03-記事
  6
CONTINUOUS
 62
     5
 10
3249.341138589774
 20
-1213.120101217792
 30
0.0
 40
4.0
  1
without affecting product specification.
  0
TEXT
  5
67
  8
回03-記事
  6
CONTINUOUS
 62
     5
 10
3249.341138589774
 20
-1206.103679789292
 30
0.0
 40
4.0
  1
Edges and corners of ITO glass may be chamfered 
  0
TEXT
  5
68
  8
回03-記事
  6
CONTINUOUS
 62
     5
 10
3249.341138589774
 20
-1199.087258360792
 30
0.0
 40
4.0
  1
Unit: mm
  0
TEXT
  5
69
  8
回03-記事
  6
CONTINUOUS
 62
     5
 10
3249.341138589774
 20
-1192.070836932292
 30
0.0
 40
4.0
  1
EXCEPT WHERE INDICATED
  0
TEXT
  5
6A
  8
回03-記事
  6
CONTINUOUS
 62
     5
 10
3249.341138589774
 20
-1185.054415503792
 30
0.0
 40
4.0
  1
TOLERANCE=±0.5mm
  0
TEXT
  5
6B
  8
回03-記事
  6
CONTINUOUS
 62
     7
 10
3458.143993215204
 20
-1070.814905315158
 30
0.0
 40
5.0
  1
Pin Assignment
  0
TEXT
  5
6C
  8
回03-記事
  6
CONTINUOUS
 62
     5
 10
3164.552018623592
 20
-1152.331422952667
 30
0.0
 40
3.0
  1
Trace Expose
1001
ACAD
1000
MTEXTBEGIN
1070
    73
1070
     1
1070
    44
1040
1.0
1070
    74
1070
     0
1000
MTEXTEND
  0
INSERT
  5
6D
  8
回03-記事
  6
CONTINUOUS
 62
     8
 66
     1
  2
*X39
 10
0.0
 20
0.0
 30
0.0
  0
SEQEND
  5
3D8
  8
回08-記事
  6
CONTINUOUS
 62
     5
  0
TEXT
  5
6E
  8
回03-記事
  6
CONTINUOUS
 62
     5
 10
3205.778098134553
 20
-1062.249724342968
 30
0.0
 40
3.0
  1
A
1001
ACAD
1000
MTEXTBEGIN
1070
    73
1070
     1
1070
    44
1040
1.0
1070
    74
1070
     0
1000
MTEXTEND
  0
INSERT
  5
6F
  8
回03-記事
  6
CONTINUOUS
 62
     7
 66
     1
  2
*X40
 10
0.0
 20
0.0
 30
0.0
  0
SEQEND
  5
3DF
  8
回08-記事
  6
CONTINUOUS
 62
     5
  0
CIRCLE
  5
70
  8
回03-記事
  6
CONTINUOUS
 62
     5
 10
3199.06138767346
 20
-1071.979712485642
 30
0.0
 40
7.742816109002717
  0
TEXT
  5
71
  8
回02-寸法
 62
     5
 10
3204.367215641999
 20
-1005.661322940434
 30
0.0
 40
2.0
  1
2-R0.5
1001
ACAD
1000
MTEXTBEGIN
1070
    73
1070
     1
1070
    44
1040
1.0
1070
    74
1070
     0
1000
MTEXTEND
  0
INSERT
  5
74
  8
回02-寸法
 62
     1
 66
     1
  2
*X41
 10
0.0
 20
0.0
 30
0.0
  0
SEQEND
  5
3E6
  8
回08-記事
  6
CONTINUOUS
 62
     5
  0
TEXT
  5
75
  8
回03-記事
  6
CONTINUOUS
 62
     5
 10
3209.043463204836
 20
-1001.123442311559
 30
0.0
 40
4.0
  1
SECTION A
  0
LINE
  5
76
  8
回03-記事
  6
CONTINUOUS
 62
     8
 10
3226.078248566781
 20
-1010.34184531235
 30
0.0
 11
3226.078248566781
 21
-1022.841845312349
 31
0.0
  0
LINE
  5
77
  8
回03-記事
  6
CONTINUOUS
 62
     7
 10
3213.178632455435
 20
-1020.341845312354
 30
0.0
 11
3229.690074394817
 21
-1020.341845312354
 31
0.0
  0
LINE
  5
78
  8
回03-記事
  6
CONTINUOUS
 62
     7
 10
3213.178719476971
 20
-1017.841845312354
 30
0.0
 11
3229.690074394817
 21
-1017.841845312354
 31
0.0
  0
LINE
  5
79
  8
回03-記事
  6
CONTINUOUS
 62
     7
 10
3213.178632455435
 20
-1012.841845312354
 30
0.0
 11
3229.690074394817
 21
-1012.841845312354
 31
0.0
  0
DIMENSION
  5
7A
  8
回02-寸法
  6
CONTINUOUS
 62
     5
  2
*D38
 10
3194.698997721891
 20
-1012.841845312355
 30
0.0
 11
3194.69899772189
 21
-1031.513007534395
 31
0.0
 70
   128
  1
3.75{\H0.66667x;±0.1}
  3
DMC
 13
3213.178719476971
 23
-1020.341845312354
 33
0.0
 14
3213.178632455435
 24
-1012.841845312354
 34
0.0
 50
90.0
1001
ACAD
1000
DSTYLE
1002
{
1070
   170
1070
     1
1070
   271
1070
     3
1070
   272
1070
     3
1070
   371
1070
     9
1070
   372
1070
     9
1002
}
  0
DIMENSION
  5
8C
  8
回02-寸法
  6
CONTINUOUS
 62
     5
  2
*D37
 10
3207.878373340944
 20
-1021.041845312355
 30
0.0
 11
3206.378373340943
 21
-1030.300171812355
 31
0.0
 70
     0
  1
4-0.7{\H0.83333x;±0.1}
  3
DMC
 13
3216.078161545245
 23
-1019.641845312354
 33
0.0
 14
3216.078161545245
 24
-1021.041845312354
 34
0.0
 50
90.0
1001
ACAD
1000
DSTYLE
1002
{
1070
   170
1070
     1
1070
   271
1070
     3
1070
   272
1070
     3
1070
   371
1070
     9
1070
   372
1070
     9
1002
}
  0
DIMENSION
  5
9D
  8
回02-寸法
  6
CONTINUOUS
 62
     5
  2
*D36
 10
3201.113735748091
 20
-1020.341845312355
 30
0.0
 11
3199.613538897696
 21
-1028.816886824757
 31
0.0
 70
     0
  1
1.25{\H0.83333x;±0.2}
  3
DMC
 13
3213.178719476971
 23
-1017.841845312354
 33
0.0
 14
3213.178719476971
 24
-1020.341845312354
 34
0.0
 50
90.0
1001
ACAD
1000
DSTYLE
1002
{
1070
   170
1070
     1
1070
   271
1070
     3
1070
   272
1070
     3
1070
   371
1070
     9
1070
   372
1070
     9
1002
}
  0
POLYLINE
  5
AE
  8
回03-記事
  6
CONTINUOUS
 62
     8
 66
     1
 10
0.0
 20
0.0
 30
0.0
 40
1.399999999999999
 41
1.399999999999999
  0
VERTEX
  5
3E7
  8
回03-記事
  6
CONTINUOUS
 62
     8
 10
3216.078161545245
 20
-1015.341845312354
 30
0.0
  0
VERTEX
  5
3E9
  8
回03-記事
  6
CONTINUOUS
 62
     8
 10
3226.078248566781
 20
-1015.341845312354
 30
0.0
  0
SEQEND
  5
3E8
  8
回08-記事
  6
CONTINUOUS
 62
     5
  0
POLYLINE
  5
AF
  8
回03-記事
  6
CONTINUOUS
 62
     8
 66
     1
 10
0.0
 20
0.0
 30
0.0
 40
1.399999999999999
 41
1.399999999999999
  0
VERTEX
  5
3EA
  8
回03-記事
  6
CONTINUOUS
 62
     8
 10
3216.078161545245
 20
-1012.841845312354
 30
0.0
  0
VERTEX
  5
3EC
  8
回03-記事
  6
CONTINUOUS
 62
     8
 10
3226.078248566781
 20
-1012.841845312354
 30
0.0
  0
SEQEND
  5
3EB
  8
回08-記事
  6
CONTINUOUS
 62
     5
  0
POLYLINE
  5
B0
  8
回03-記事
  6
CONTINUOUS
 62
     8
 66
     1
 10
0.0
 20
0.0
 30
0.0
 40
1.399999999999999
 41
1.399999999999999
  0
VERTEX
  5
3ED
  8
回03-記事
  6
CONTINUOUS
 62
     8
 10
3216.078161545245
 20
-1020.341845312354
 30
0.0
  0
VERTEX
  5
3EF
  8
回03-記事
  6
CONTINUOUS
 62
     8
 10
3226.078248566781
 20
-1020.341845312354
 30
0.0
  0
SEQEND
  5
3EE
  8
回08-記事
  6
CONTINUOUS
 62
     5
  0
POLYLINE
  5
B1
  8
回03-記事
  6
CONTINUOUS
 62
     8
 66
     1
 10
0.0
 20
0.0
 30
0.0
 40
1.399999999999999
 41
1.399999999999999
  0
VERTEX
  5
3F0
  8
回03-記事
  6
CONTINUOUS
 62
     8
 10
3216.078161545245
 20
-1017.841845312354
 30
0.0
  0
VERTEX
  5
3F2
  8
回03-記事
  6
CONTINUOUS
 62
     8
 10
3226.078248566781
 20
-1017.841845312354
 30
0.0
  0
SEQEND
  5
3F1
  8
回08-記事
  6
CONTINUOUS
 62
     5
  0
LINE
  5
B2
  8
回03-記事
  6
CONTINUOUS
 62
     8
 10
3217.078248566781
 20
-1022.841845312349
 30
0.0
 11
3240.828911472572
 21
-1022.841845312349
 31
0.0
  0
LINE
  5
B3
  8
回03-記事
  6
CONTINUOUS
 62
     8
 10
3216.078248566781
 20
-1011.341845312349
 30
0.0
 11
3216.078248566781
 21
-1021.841845312349
 31
0.0
  0
ARC
  5
B4
  8
回03-記事
  6
CONTINUOUS
 62
     8
 10
3217.078248566781
 20
-1021.841845312349
 30
0.0
 40
1.0
 50
180.0
 51
270.0
  0
ARC
  5
B5
  8
回03-記事
  6
CONTINUOUS
 62
     8
 10
3217.078248566781
 20
-1011.341845312349
 30
0.0
 40
1.0
 50
90.0
 51
180.0
  0
LINE
  5
B6
  8
回03-記事
  6
CONTINUOUS
 62
     8
 10
3217.078248566781
 20
-1010.34184531235
 30
0.0
 11
3240.828911472572
 21
-1010.34184531235
 31
0.0
  0
DIMENSION
  5
B7
  8
回02-寸法
  6
CONTINUOUS
 62
     5
  2
*D35
 10
3187.659048461569
 20
-1022.841845312349
 30
0.0
 11
3186.158851611173
 21
-1016.59184531235
 31
0.0
 70
     0
  1
6.25{\H0.6667x;±0.2}
  3
DMC
 13
3217.078248566781
 23
-1010.34184531235
 33
0.0
 14
3217.078248566781
 24
-1022.841845312349
 34
0.0
 50
90.0
1001
ACAD
1000
DSTYLE
1002
{
1070
   170
1070
     1
1070
   271
1070
     3
1070
   272
1070
     3
1070
   371
1070
     9
1070
   372
1070
     9
1002
}
  0
TEXT
  5
C6
  8
回03-記事
  6
CONTINUOUS
 62
     5
 10
3237.290300134323
 20
-1097.336062374362
 30
0.0
 40
2.0
  1
PROTECTION TAPE
1001
ACAD
1000
MTEXTBEGIN
1070
    73
1070
     1
1070
    44
1040
1.0
1070
    74
1070
     0
1000
MTEXTEND
  0
INSERT
  5
C7
  8
回03-記事
  6
CONTINUOUS
 62
     5
 66
     1
  2
*X42
 10
0.0
 20
0.0
 30
0.0
  0
SEQEND
  5
3F9
  8
回08-記事
  6
CONTINUOUS
 62
     5
  0
TEXT
  5
C8
  8
回02-寸法
  6
CONTINUOUS
 62
     5
 10
3411.550781640442
 20
-987.6231386818544
 30
0.0
 40
2.0
  1
(Insulation Area)
  0
TEXT
  5
C9
  8
回02-寸法
  6
CONTINUOUS
 62
     5
 10
3434.90467394321
 20
-1019.160791874081
 30
0.0
 40
2.0
  1
(Insulation Area)
 50
90.0
  0
TEXT
  5
CA
  8
回03-記事
  6
CONTINUOUS
 10
3472.24322892776
 20
-1183.349420560884
 30
0.0
 40
3.372171263999999
  1
PROTECTION TAPE
  0
TEXT
  5
CB
  8
回03-記事
  6
CONTINUOUS
 10
3466.977938175548
 20
-1183.367236094752
 30
0.0
 40
3.507058114560001
  1
6
  0
LINE
  5
CC
  8
回03-記事
  6
CONTINUOUS
 10
3465.186163175138
 20
-1184.374212566637
 30
0.0
 11
3517.430320372054
 21
-1184.374212566637
 31
0.0
  0
TEXT
  5
CD
  8
回03-記事
  6
CONTINUOUS
 10
3471.815157939364
 20
-1177.650316343702
 30
0.0
 40
3.507058114560001
  1
STIFFENER
  0
TEXT
  5
CE
  8
回03-記事
  6
CONTINUOUS
 10
3471.815157939364
 20
-1171.805219486101
 30
0.0
 40
3.507058114560001
  1
REINFORCEMENT FILM
  0
TEXT
  5
CF
  8
回03-記事
  6
CONTINUOUS
 10
3485.617243465226
 20
-1148.192264246681
 30
0.0
 40
3.507058114560001
  1
ITEM
  0
LINE
  5
D0
  8
回03-記事
  6
CONTINUOUS
 10
3517.430320372054
 20
-1184.374212566637
 30
0.0
 11
3517.430320372054
 21
-1143.458534563437
 31
0.0
  0
TEXT
  5
D1
  8
回03-記事
  6
CONTINUOUS
 10
3466.977938175548
 20
-1165.831945521954
 30
0.0
 40
3.507058114560001
  1
3
  0
TEXT
  5
D2
  8
回03-記事
  6
CONTINUOUS
 10
3466.977938175548
 20
-1171.677042379552
 30
0.0
 40
3.507058114560001
  1
4
  0
TEXT
  5
D3
  8
回03-記事
  6
CONTINUOUS
 10
3466.977938175548
 20
-1159.98684866435
 30
0.0
 40
3.507058114560001
  1
2
  0
TEXT
  5
D4
  8
回03-記事
  6
CONTINUOUS
 10
3466.977938175548
 20
-1177.522139237152
 30
0.0
 40
3.507058114560001
  1
5
  0
LINE
  5
D5
  8
回03-記事
  6
CONTINUOUS
 10
3471.267757574122
 20
-1143.458534563437
 30
0.0
 11
3471.267757574122
 21
-1184.374212566637
 31
0.0
  0
LINE
  5
D6
  8
回03-記事
  6
CONTINUOUS
 10
3465.186163175138
 20
-1143.458534563437
 30
0.0
 11
3465.186163175138
 21
-1184.374212566637
 31
0.0
  0
TEXT
  5
D7
  8
回03-記事
  6
CONTINUOUS
 10
3466.977938175548
 20
-1154.141751806752
 30
0.0
 40
3.507058114560001
  1
1
  0
LINE
  5
D8
  8
回03-記事
  6
CONTINUOUS
 10
3465.186163175138
 20
-1178.529115709037
 30
0.0
 11
3517.430320372054
 21
-1178.529115709037
 31
0.0
  0
LINE
  5
D9
  8
回03-記事
  6
CONTINUOUS
 10
3465.186163175138
 20
-1143.458534563437
 30
0.0
 11
3517.430320372054
 21
-1143.458534563437
 31
0.0
  0
LINE
  5
DA
  8
回03-記事
  6
CONTINUOUS
 10
3465.186163175138
 20
-1155.148728278636
 30
0.0
 11
3517.430320372054
 21
-1155.148728278639
 31
0.0
  0
LINE
  5
DB
  8
回03-記事
  6
CONTINUOUS
 10
3465.186163175138
 20
-1149.303631421036
 30
0.0
 11
3517.430320372054
 21
-1149.303631421036
 31
0.0
  0
LINE
  5
DC
  8
回03-記事
  6
CONTINUOUS
 10
3465.186163175138
 20
-1172.684018851436
 30
0.0
 11
3517.430320372054
 21
-1172.684018851436
 31
0.0
  0
LINE
  5
DD
  8
回03-記事
  6
CONTINUOUS
 10
3465.186163175138
 20
-1166.838921993837
 30
0.0
 11
3517.430320372054
 21
-1166.838921993837
 31
0.0
  0
LINE
  5
DE
  8
回03-記事
  6
CONTINUOUS
 10
3465.186163175138
 20
-1160.993825136237
 30
0.0
 11
3517.430320372054
 21
-1160.993825136237
 31
0.0
  0
TEXT
  5
DF
  8
回03-記事
  6
CONTINUOUS
 10
3471.815157939364
 20
-1154.216984596447
 30
0.0
 40
3.507058114560001
  1
ITO FILM
  0
TEXT
  5
E0
  8
回03-記事
  6
CONTINUOUS
 10
3471.815157939364
 20
-1160.062081454048
 30
0.0
 40
3.507058114560001
  1
ITO GLASS
  0
TEXT
  5
E1
  8
回03-記事
  6
CONTINUOUS
 10
3471.815157939364
 20
-1165.90717831165
 30
0.0
 40
3.507058114560001
  1
TAIL
  0
LINE
  5
E2
  8
回04-図面枠
  6
CONTINUOUS
 62
     7
 10
3506.235654280113
 20
-1223.820847501943
 30
0.0
 11
3506.235654280113
 21
-1213.820847501943
 31
0.0
  0
LINE
  5
E4
  8
回04-図面枠
  6
CENTER2
 62
     7
 10
3511.453062259119
 20
-1222.411873075023
 30
0.0
 11
3511.453062259119
 21
-1215.411812326431
 31
0.0
  0
LINE
  5
E6
  8
回04-図面枠
  6
CONTINUOUS
 62
     7
 10
3516.219555409055
 20
-1220.389758338841
 30
0.0
 11
3521.390360560796
 21
-1221.705995313605
 31
0.0
  0
LINE
  5
E7
  8
回04-図面枠
  6
CONTINUOUS
 62
     7
 10
3516.219555409055
 20
-1217.433927062613
 30
0.0
 11
3521.390360560796
 21
-1216.117690087849
 31
0.0
  0
LINE
  5
E8
  8
回04-図面枠
  6
CONTINUOUS
 62
     7
 10
3521.390360560796
 20
-1216.117690087849
 30
0.0
 11
3521.390360560796
 21
-1221.705995313605
 31
0.0
  0
LINE
  5
E9
  8
回04-図面枠
  6
CONTINUOUS
 62
     7
 10
3516.219555409055
 20
-1217.433927062613
 30
0.0
 11
3516.219555409055
 21
-1220.389758338841
 31
0.0
  0
LINE
  5
EA
  8
回04-図面枠
  6
CENTER2
 62
     7
 10
3508.24405794692
 20
-1218.911842700727
 30
0.0
 11
3521.84864039904
 21
-1218.911842700727
 31
0.0
  0
CIRCLE
  5
EB
  8
回04-図面枠
  6
CONTINUOUS
 62
     7
 10
3511.453062259119
 20
-1218.911842700727
 30
0.0
 40
1.477915638114184
  0
CIRCLE
  5
EC
  8
回04-図面枠
  6
CONTINUOUS
 62
     7
 10
3511.453062259119
 20
-1218.911842700727
 30
0.0
 40
2.794152612877607
  0
TEXT
  5
ED
  8
回04-図面枠
 62
     7
 10
3465.870735761916
 20
-1209.063538265636
 30
0.0
 40
5.0
  1
Sep/08/2023
 72
     1
 11
3485.370735761917
 21
-1209.063538265636
 31
0.0
  0
TEXT
  5
EE
  8
回04-図面枠
  6
CONTINUOUS
 62
     7
 10
3480.321465867149
 20
-1198.124101350013
 30
0.0
 40
3.0
  1
DATE
  0
TEXT
  5
EF
  8
回04-図面枠
 62
     7
 10
3457.422417167261
 20
-1221.283139664751
 30
0.0
 40
5.0
  1
DMC Co., Ltd.
 72
     1
 11
3477.297417167261
 21
-1221.283139664751
 31
0.0
  0
TEXT
  5
F0
  8
回04-図面枠
 62
     7
 10
3393.120735761917
 20
-1206.328965306711
 30
0.0
 40
5.0
  1
LST-057B080A
 72
     1
 11
3415.370735761916
 21
-1206.328965306711
 31
0.0
  0
TEXT
  5
F1
  8
回04-図面枠
 62
     7
 10
3405.920735761917
 20
-1197.87359458258
 30
0.0
 40
3.0
  1
PART　No.
 72
     1
 11
3415.370735761916
 21
-1197.87359458258
 31
0.0
  0
LINE
  5
F2
  8
回04-図面枠
 62
     7
 10
3385.870735761917
 20
-1218.820847501943
 30
0.0
 11
3444.870735761917
 21
-1218.820847501943
 31
0.0
  0
TEXT
  5
F3
  8
回04-図面枠
 62
     7
 10
3392.030145210735
 20
-1217.670816770557
 30
0.0
 40
3.0
  1
STANDARD TOUCHSCREEN
 72
     1
 11
3415.370735761916
 21
-1217.670816770557
 31
0.0
  0
TEXT
  5
F4
  8
回04-図面枠
 62
     7
 10
3398.790634300567
 20
-1222.670816770557
 30
0.0
 40
3.0
  1
CIRCUIT　DRAWING
 72
     1
 11
3415.370735761916
 21
-1222.670816770557
 31
0.0
  0
LINE
  5
F5
  8
回04-図面枠
 62
     7
 10
3447.870735761917
 20
-1193.820847501943
 30
0.0
 11
3447.870735761917
 21
-1223.820847501943
 31
0.0
  0
TEXT
  5
F6
  8
回04-図面枠
 62
     7
 10
3410.570735761916
 20
-1213.077227812368
 30
0.0
 40
3.0
  1
TYPE
 72
     1
 11
3415.370735761916
 21
-1213.077227812368
 31
0.0
  0
LINE
  5
F7
  8
回04-図面枠
 62
     7
 10
3382.870735761917
 20
-1193.820847501943
 30
0.0
 11
3382.870735761917
 21
-1223.820847501943
 31
0.0
  0
LINE
  5
F8
  8
回04-図面枠
 62
     7
 10
3382.870735761917
 20
-1208.820847501943
 30
0.0
 11
3447.870735761917
 21
-1208.820847501943
 31
0.0
  0
LINE
  5
F9
  8
回04-図面枠
 62
     7
 10
3382.870735761917
 20
-1213.820847501943
 30
0.0
 11
3522.870735761916
 21
-1213.820847501943
 31
0.0
  0
LINE
  5
FA
  8
回04-図面枠
 62
     7
 10
3382.870735761917
 20
-1193.820847501943
 30
0.0
 11
3522.870735761916
 21
-1193.820847501943
 31
0.0
  0
LINE
  5
FB
  8
回04-図面枠
 62
     7
 10
3382.870735761917
 20
-1198.820847501943
 30
0.0
 11
3522.870735761916
 21
-1198.820847501943
 31
0.0
  0
TEXT
  5
FC
  8
回08-記事
  6
CONTINUOUS
 62
     7
 10
3218.500958885269
 20
-1153.468638451407
 30
0.0
 40
3.0
  1
3
  0
LINE
  5
FD
  8
回08-記事
  6
CONTINUOUS
 62
     7
 10
3218.00449573335
 20
-1160.294320852933
 30
0.0
 11
3219.45231105262
 21
-1154.54629854978
 31
0.0
  0
INSERT
  5
FE
  8
回08-記事
  6
CONTINUOUS
 62
     5
 66
     1
  2
*X43
 10
0.0
 20
0.0
 30
0.0
1001
ACAD_MLEADERVER
1070
     2
  0
SEQEND
  5
408
  8
回08-記事
  6
CONTINUOUS
 62
     5
  0
INSERT
  5
103
  8
回08-記事
  6
CONTINUOUS
 62
     5
 66
     1
  2
*X44
 10
0.0
 20
0.0
 30
0.0
1001
ACAD_MLEADERVER
1070
     2
  0
SEQEND
  5
417
  8
回08-記事
  6
CONTINUOUS
 62
     5
  0
INSERT
  5
104
  8
回08-記事
  6
CONTINUOUS
 62
     5
 66
     1
  2
*X45
 10
0.0
 20
0.0
 30
0.0
1001
ACAD_MLEADERVER
1070
     2
  0
SEQEND
  5
426
  8
回08-記事
  6
CONTINUOUS
 62
     5
  0
DIMENSION
  5
105
  8
回07-寸法
  6
CONTINUOUS
  2
*D34
 10
3186.869770914966
 20
-1123.22578671372
 30
0.0
 11
3185.269770914965
 21
-1099.03828671372
 31
0.0
 70
     0
  1
(<>)
  3
DMC
 13
3197.753920170176
 23
-1074.850786713719
 33
0.0
 14
3277.453963680944
 24
-1123.225786713719
 34
0.0
 50
90.0
1001
ACAD
1000
DSTYLE
1002
{
1070
    47
1040
1.0
1070
    48
1040
1.0
1070
   146
1040
0.9
1070
   271
1070
     1
1070
   371
1070
     9
1070
   372
1070
     9
1002
}
  0
LINE
  5
112
  8
回08-記事
  6
CONTINUOUS
 62
     7
 10
3514.92420379906
 20
-1007.829837330562
 30
0.0
 11
3463.022497326045
 21
-1007.829837330564
 31
0.0
  0
LINE
  5
113
  8
回08-記事
  6
CONTINUOUS
 62
     7
 10
3514.92420379906
 20
-1058.935545451814
 30
0.0
 11
3514.92420379906
 21
-1007.829837330562
 31
0.0
  0
LINE
  5
114
  8
回08-記事
  6
CONTINUOUS
 62
     7
 10
3486.493034175705
 20
-1058.935545451814
 30
0.0
 11
3514.92420379906
 21
-1058.935545451814
 31
0.0
  0
TEXT
  5
115
  8
回08-記事
  6
CONTINUOUS
 62
     7
 10
3488.773030024729
 20
-1056.70787590232
 30
0.0
 40
3.125
  1
YD
  0
TEXT
  5
116
  8
回08-記事
  6
CONTINUOUS
 62
     7
 10
3488.847749367741
 20
-1031.767963546328
 30
0.0
 40
3.125
  1
YU
  0
TEXT
  5
117
  8
回08-記事
  6
CONTINUOUS
 62
     7
 10
3499.980722568996
 20
-1048.016820239756
 30
0.0
 40
3.125
  1
XR
  0
TEXT
  5
118
  8
回08-記事
  6
CONTINUOUS
 62
     7
 10
3471.329600792034
 20
-1048.966747331933
 30
0.0
 40
3.125
  1
XL
  0
TEXT
  5
119
  8
回08-記事
  6
CONTINUOUS
 62
     7
 10
3459.403726772477
 20
-1029.990436254601
 30
0.0
 40
3.0
  1
2
  0
TEXT
  5
11A
  8
回08-記事
  6
CONTINUOUS
 62
     7
 10
3459.287782964354
 20
-1019.975604717662
 30
0.0
 40
3.0
  1
3
  0
TEXT
  5
11B
  8
回08-記事
  6
CONTINUOUS
 62
     7
 10
3458.904010700358
 20
-1009.196823903175
 30
0.0
 40
3.0
  1
4
  0
TEXT
  5
11C
  8
回08-記事
  6
CONTINUOUS
 62
     7
 10
3459.53735867129
 20
-1044.705861633296
 30
0.0
 40
3.0
  1
1
  0
POLYLINE
  5
11D
  8
回08-記事
  6
CONTINUOUS
 62
     7
 66
     1
 10
0.0
 20
0.0
 30
0.0
  0
VERTEX
  5
427
  8
回08-記事
  6
CONTINUOUS
 62
     7
 10
3504.648875333501
 20
-1041.789124869957
 30
0.0
  0
VERTEX
  5
429
  8
回08-記事
  6
CONTINUOUS
 62
     7
 10
3504.648875333501
 20
-1018.374683229342
 30
0.0
  0
VERTEX
  5
42A
  8
回08-記事
  6
CONTINUOUS
 62
     7
 10
3463.022497326045
 20
-1018.374683229342
 30
0.0
  0
SEQEND
  5
428
  8
回08-記事
  6
CONTINUOUS
 62
     5
  0
LINE
  5
11E
  8
回08-記事
  6
CONTINUOUS
 62
     7
 10
3486.493034175705
 20
-1029.271516851399
 30
0.0
 11
3463.022497326045
 21
-1029.271516851399
 31
0.0
  0
POLYLINE
  5
11F
  8
回08-記事
  6
CONTINUOUS
 62
     7
 66
     1
 10
0.0
 20
0.0
 30
0.0
  0
VERTEX
  5
42B
  8
回08-記事
  6
CONTINUOUS
 62
     7
 10
3486.493034175705
 20
-1058.935545451814
 30
0.0
  0
VERTEX
  5
42D
  8
回08-記事
  6
CONTINUOUS
 62
     7
 10
3486.493034175705
 20
-1052.936153619958
 30
0.0
  0
VERTEX
  5
42E
  8
回08-記事
  6
CONTINUOUS
 62
     7
 10
3484.535507175704
 20
-1051.957390119956
 30
0.0
  0
VERTEX
  5
42F
  8
回08-記事
  6
CONTINUOUS
 62
     7
 10
3488.450561175704
 20
-1049.999863119957
 30
0.0
  0
VERTEX
  5
430
  8
回08-記事
  6
CONTINUOUS
 62
     7
 10
3484.535507175704
 20
-1048.042336119956
 30
0.0
  0
VERTEX
  5
431
  8
回08-記事
  6
CONTINUOUS
 62
     7
 10
3488.450561175704
 20
-1046.084809119956
 30
0.0
  0
VERTEX
  5
432
  8
回08-記事
  6
CONTINUOUS
 62
     7
 10
3484.535507175704
 20
-1044.127282119957
 30
0.0
  0
VERTEX
  5
433
  8
回08-記事
  6
CONTINUOUS
 62
     7
 10
3488.450561175704
 20
-1042.169755119957
 30
0.0
  0
VERTEX
  5
434
  8
回08-記事
  6
CONTINUOUS
 62
     7
 10
3484.535507175704
 20
-1040.212228119956
 30
0.0
  0
VERTEX
  5
435
  8
回08-記事
  6
CONTINUOUS
 62
     7
 10
3488.450561175704
 20
-1038.254701119957
 30
0.0
  0
VERTEX
  5
436
  8
回08-記事
  6
CONTINUOUS
 62
     7
 10
3484.535507175704
 20
-1036.297174119957
 30
0.0
  0
VERTEX
  5
437
  8
回08-記事
  6
CONTINUOUS
 62
     7
 10
3488.450561175704
 20
-1034.339647119957
 30
0.0
  0
VERTEX
  5
438
  8
回08-記事
  6
CONTINUOUS
 62
     7
 10
3486.493034175705
 20
-1033.360883619956
 30
0.0
  0
VERTEX
  5
439
  8
回08-記事
  6
CONTINUOUS
 62
     7
 10
3486.493034175705
 20
-1029.271516851399
 30
0.0
  0
SEQEND
  5
42C
  8
回08-記事
  6
CONTINUOUS
 62
     5
  0
POLYLINE
  5
120
  8
回08-記事
  6
CONTINUOUS
 62
     7
 66
     1
 10
0.0
 20
0.0
 30
0.0
  0
VERTEX
  5
43A
  8
回08-記事
  6
CONTINUOUS
 62
     7
 10
3463.022497326045
 20
-1042.876639869958
 30
0.0
  0
VERTEX
  5
43C
  8
回08-記事
  6
CONTINUOUS
 62
     7
 10
3475.781011425706
 20
-1042.876639869958
 30
0.0
  0
VERTEX
  5
43D
  8
回08-記事
  6
CONTINUOUS
 62
     7
 10
3477.031653675704
 20
-1040.375355369956
 30
0.0
  0
VERTEX
  5
43E
  8
回08-記事
  6
CONTINUOUS
 62
     7
 10
3478.989180675705
 20
-1044.290409369957
 30
0.0
  0
VERTEX
  5
43F
  8
回08-記事
  6
CONTINUOUS
 62
     7
 10
3480.946707675704
 20
-1040.375355369956
 30
0.0
  0
VERTEX
  5
440
  8
回08-記事
  6
CONTINUOUS
 62
     7
 10
3482.904234675705
 20
-1044.290409369957
 30
0.0
  0
VERTEX
  5
441
  8
回08-記事
  6
CONTINUOUS
 62
     7
 10
3484.861761675705
 20
-1040.375355369956
 30
0.0
  0
VERTEX
  5
442
  8
回08-記事
  6
CONTINUOUS
 62
     7
 10
3486.819288675705
 20
-1044.290409369957
 30
0.0
  0
VERTEX
  5
443
  8
回08-記事
  6
CONTINUOUS
 62
     7
 10
3488.776815675705
 20
-1040.375355369956
 30
0.0
  0
VERTEX
  5
444
  8
回08-記事
  6
CONTINUOUS
 62
     7
 10
3490.734342675705
 20
-1044.290409369957
 30
0.0
  0
VERTEX
  5
445
  8
回08-記事
  6
CONTINUOUS
 62
     7
 10
3492.691869675704
 20
-1040.375355369956
 30
0.0
  0
VERTEX
  5
446
  8
回08-記事
  6
CONTINUOUS
 62
     7
 10
3494.649396675705
 20
-1044.290409369957
 30
0.0
  0
VERTEX
  5
447
  8
回08-記事
  6
CONTINUOUS
 62
     7
 10
3496.606923675705
 20
-1040.375355369956
 30
0.0
  0
VERTEX
  5
448
  8
回08-記事
  6
CONTINUOUS
 62
     7
 10
3498.564450675705
 20
-1044.290409369957
 30
0.0
  0
VERTEX
  5
449
  8
回08-記事
  6
CONTINUOUS
 62
     7
 10
3499.815092925704
 20
-1041.789124869957
 30
0.0
  0
VERTEX
  5
44A
  8
回08-記事
  6
CONTINUOUS
 62
     7
 10
3504.648875333501
 20
-1041.789124869957
 30
0.0
  0
SEQEND
  5
43B
  8
回08-記事
  6
CONTINUOUS
 62
     5
  0
LINE
  5
121
  8
回90-枠2
 10
3148.661592908505
 20
-1223.820847501943
 30
0.0
 11
3522.870735761916
 21
-1223.820847501943
 31
0.0
  0
LINE
  5
123
  8
回90-枠2
 10
3525.209542904752
 20
-1226.159654644776
 30
0.0
 11
3146.32278576567
 21
-1226.159654644776
 31
0.0
  0
LINE
  5
124
  8
回90-枠2
 10
3148.661592908505
 20
-971.2296760758889
 30
0.0
 11
3522.870735761916
 21
-971.2296760758889
 31
0.0
  0
LINE
  5
125
  8
回90-枠2
 10
3525.209542904752
 20
-968.8908689330551
 30
0.0
 11
3146.32278576567
 21
-968.8908689330551
 31
0.0
  0
LINE
  5
126
  8
回90-枠2
 10
3148.661592908505
 20
-971.2296760758889
 30
0.0
 11
3148.661592908505
 21
-1223.820847501943
 31
0.0
  0
LINE
  5
127
  8
回90-枠2
 10
3146.32278576567
 20
-1226.159654644776
 30
0.0
 11
3146.32278576567
 21
-968.8908689330551
 31
0.0
  0
TEXT
  5
128
  8
回90-枠2
 10
3158.428470296535
 20
-1225.985449471303
 30
0.0
 40
1.871045714267065
  1
A
  0
LINE
  5
129
  8
回90-枠2
 10
3148.661592908505
 20
-1181.722318930933
 30
0.0
 11
3146.32278576567
 21
-1181.722318930933
 31
0.0
  0
TEXT
  5
12A
  8
回90-枠2
 10
3146.801936874464
 20
-1203.805950005935
 30
0.0
 40
1.871045714267065
  1
6
  0
TEXT
  5
12B
  8
回90-枠2
 10
3146.801936874464
 20
-1161.707421434926
 30
0.0
 40
1.871045714267065
  1
5
  0
LINE
  5
12C
  8
回90-枠2
 10
3177.733271983792
 20
-1223.820847501943
 30
0.0
 11
3177.733271983792
 21
-1226.159654644776
 31
0.0
  0
TEXT
  5
12D
  8
回90-枠2
 10
3195.849384581877
 20
-1225.985449471303
 30
0.0
 40
1.871045714267065
  1
B
  0
LINE
  5
12E
  8
回90-枠2
 10
3215.154186269133
 20
-1223.820847501943
 30
0.0
 11
3215.154186269133
 21
-1226.159654644776
 31
0.0
  0
TEXT
  5
12F
  8
回90-枠2
 10
3233.270298867218
 20
-1225.985449471303
 30
0.0
 40
1.871045714267065
  1
C
  0
LINE
  5
130
  8
回90-枠2
 10
3252.575100554474
 20
-1223.820847501943
 30
0.0
 11
3252.575100554474
 21
-1226.159654644776
 31
0.0
  0
TEXT
  5
131
  8
回90-枠2
 10
3279.040448362612
 20
-1225.985449471303
 30
0.0
 40
1.871045714267065
  1
D
  0
LINE
  5
132
  8
回90-枠2
 10
3298.345250049871
 20
-1223.820847501943
 30
0.0
 11
3298.345250049871
 21
-1226.159654644776
 31
0.0
  0
TEXT
  5
133
  8
回90-枠2
 10
3146.801936874464
 20
-1119.608892863917
 30
0.0
 40
1.871045714267065
  1
4
  0
LINE
  5
134
  8
回90-枠2
 10
3148.661592908505
 20
-1139.623790359924
 30
0.0
 11
3146.32278576567
 21
-1139.623790359924
 31
0.0
  0
LINE
  5
135
  8
回90-枠2
 10
3148.661592908505
 20
-1097.525261788915
 30
0.0
 11
3146.32278576567
 21
-1097.525261788915
 31
0.0
  0
TEXT
  5
136
  8
回90-枠2
 10
3146.836126548971
 20
-1077.510364292908
 30
0.0
 40
1.871045714267065
  1
3
  0
LINE
  5
137
  8
回90-枠2
 10
3148.661592908505
 20
-1055.426733217906
 30
0.0
 11
3146.32278576567
 21
-1055.426733217906
 31
0.0
  0
LINE
  5
138
  8
回90-枠2
 10
3148.661592908505
 20
-1013.328204646897
 30
0.0
 11
3146.32278576567
 21
-1013.328204646897
 31
0.0
  0
TEXT
  5
139
  8
回90-枠2
 10
3146.838690276484
 20
-1035.411835721899
 30
0.0
 40
1.871045714267065
  1
2
  0
TEXT
  5
13A
  8
回90-枠2
 10
3146.979719740651
 20
-993.3133071508901
 30
0.0
 40
1.871045714267065
  1
1
  0
TEXT
  5
13B
  8
回90-枠2
 10
3166.777705506589
 20
-971.0554709024155
 30
0.0
 40
1.871045714267065
  1
A
  0
LINE
  5
13C
  8
回90-枠2
 10
3186.082507193846
 20
-968.8908689330551
 30
0.0
 11
3186.082507193846
 21
-971.2296760758889
 31
0.0
  0
TEXT
  5
13D
  8
回90-枠2
 10
3204.198619791931
 20
-971.0554709024155
 30
0.0
 40
1.871045714267065
  1
B
  0
LINE
  5
13E
  8
回90-枠2
 10
3223.503421479188
 20
-968.8908689330551
 30
0.0
 11
3223.503421479188
 21
-971.2296760758889
 31
0.0
  0
TEXT
  5
13F
  8
回90-枠2
 10
3241.619534077273
 20
-971.0554709024155
 30
0.0
 40
1.871045714267065
  1
C
  0
LINE
  5
140
  8
回90-枠2
 10
3260.924335764529
 20
-968.8908689330551
 30
0.0
 11
3260.924335764529
 21
-971.2296760758889
 31
0.0
  0
TEXT
  5
141
  8
回90-枠2
 10
3279.040448362612
 20
-971.0554709024155
 30
0.0
 40
1.871045714267065
  1
D
  0
LINE
  5
142
  8
回90-枠2
 10
3298.345250049871
 20
-968.8908689330551
 30
0.0
 11
3298.345250049871
 21
-971.2296760758889
 31
0.0
  0
LINE
  5
143
  8
回90-枠2
 10
3522.870735761916
 20
-971.2296760758889
 30
0.0
 11
3522.870735761916
 21
-1223.820847501943
 31
0.0
  0
LINE
  5
144
  8
回90-枠2
 10
3525.209542904752
 20
-1226.159654644776
 30
0.0
 11
3525.209542904752
 21
-968.8908689330551
 31
0.0
  0
TEXT
  5
145
  8
回90-枠2
 10
3316.461362647954
 20
-1225.985449471303
 30
0.0
 40
1.871045714267065
  1
E
  0
LINE
  5
146
  8
回90-枠2
 10
3335.76616433521
 20
-1223.820847501943
 30
0.0
 11
3335.76616433521
 21
-1226.159654644776
 31
0.0
  0
TEXT
  5
147
  8
回90-枠2
 10
3353.882276933296
 20
-1225.985449471303
 30
0.0
 40
1.871045714267065
  1
F
  0
LINE
  5
148
  8
回90-枠2
 10
3373.187078620553
 20
-1223.820847501943
 30
0.0
 11
3373.187078620553
 21
-1226.159654644776
 31
0.0
  0
TEXT
  5
149
  8
回90-枠2
 10
3391.303191218637
 20
-1225.985449471303
 30
0.0
 40
1.871045714267065
  1
G
  0
LINE
  5
14A
  8
回90-枠2
 10
3410.607992905894
 20
-1223.820847501943
 30
0.0
 11
3410.607992905894
 21
-1226.159654644776
 31
0.0
  0
TEXT
  5
14B
  8
回90-枠2
 10
3428.72410550398
 20
-1225.985449471303
 30
0.0
 40
1.871045714267065
  1
H
  0
LINE
  5
14C
  8
回90-枠2
 10
3448.028907191236
 20
-1223.820847501943
 30
0.0
 11
3448.028907191236
 21
-1226.159654644776
 31
0.0
  0
TEXT
  5
14D
  8
回90-枠2
 10
3466.145019789319
 20
-1225.985449471303
 30
0.0
 40
1.871045714267065
  1
I
  0
LINE
  5
14E
  8
回90-枠2
 10
3485.449821476577
 20
-1223.820847501943
 30
0.0
 11
3485.449821476577
 21
-1226.159654644776
 31
0.0
  0
TEXT
  5
14F
  8
回90-枠2
 10
3503.565934074661
 20
-1225.985449471303
 30
0.0
 40
1.871045714267065
  1
J
  0
LINE
  5
150
  8
回90-枠2
 10
3525.209542904752
 20
-1181.722318930933
 30
0.0
 11
3522.870735761916
 21
-1181.722318930933
 31
0.0
  0
TEXT
  5
151
  8
回90-枠2
 10
3523.349886870711
 20
-1203.805950005935
 30
0.0
 40
1.871045714267065
  1
6
  0
TEXT
  5
152
  8
回90-枠2
 10
3523.349886870711
 20
-1161.707421434926
 30
0.0
 40
1.871045714267065
  1
5
  0
TEXT
  5
153
  8
回90-枠2
 10
3316.461362647954
 20
-971.0554709024155
 30
0.0
 40
1.871045714267065
  1
E
  0
LINE
  5
154
  8
回90-枠2
 10
3335.76616433521
 20
-968.8908689330551
 30
0.0
 11
3335.76616433521
 21
-971.2296760758889
 31
0.0
  0
TEXT
  5
155
  8
回90-枠2
 10
3353.882276933296
 20
-971.0554709024155
 30
0.0
 40
1.871045714267065
  1
F
  0
LINE
  5
156
  8
回90-枠2
 10
3373.187078620553
 20
-968.8908689330551
 30
0.0
 11
3373.187078620553
 21
-971.2296760758889
 31
0.0
  0
TEXT
  5
157
  8
回90-枠2
 10
3391.303191218637
 20
-971.0554709024155
 30
0.0
 40
1.871045714267065
  1
G
  0
LINE
  5
158
  8
回90-枠2
 10
3410.607992905894
 20
-968.8908689330551
 30
0.0
 11
3410.607992905894
 21
-971.2296760758889
 31
0.0
  0
TEXT
  5
159
  8
回90-枠2
 10
3428.72410550398
 20
-971.0554709024155
 30
0.0
 40
1.871045714267065
  1
H
  0
LINE
  5
15A
  8
回90-枠2
 10
3448.028907191236
 20
-968.8908689330551
 30
0.0
 11
3448.028907191236
 21
-971.2296760758889
 31
0.0
  0
TEXT
  5
15B
  8
回90-枠2
 10
3466.145019789319
 20
-971.0554709024155
 30
0.0
 40
1.871045714267065
  1
I
  0
LINE
  5
15C
  8
回90-枠2
 10
3485.449821476577
 20
-968.8908689330551
 30
0.0
 11
3485.449821476577
 21
-971.2296760758889
 31
0.0
  0
TEXT
  5
15D
  8
回90-枠2
 10
3503.565934074661
 20
-971.0554709024155
 30
0.0
 40
1.871045714267065
  1
J
  0
TEXT
  5
15E
  8
回90-枠2
 10
3523.349886870711
 20
-1119.608892863917
 30
0.0
 40
1.871045714267065
  1
4
  0
LINE
  5
15F
  8
回90-枠2
 10
3525.209542904752
 20
-1139.623790359924
 30
0.0
 11
3522.870735761916
 21
-1139.623790359924
 31
0.0
  0
TEXT
  5
160
  8
回90-枠2
 10
3523.384076545219
 20
-1077.510364292908
 30
0.0
 40
1.871045714267065
  1
3
  0
LINE
  5
161
  8
回90-枠2
 10
3525.209542904752
 20
-1097.525261788915
 30
0.0
 11
3522.870735761916
 21
-1097.525261788915
 31
0.0
  0
ARC
  5
162
  8
回08-記事
  6
CONTINUOUS
 62
     7
 10
3287.704773941842
 20
-1160.643964682996
 30
0.0
 40
0.2
 50
0.0
 51
180.0
  0
ARC
  5
163
  8
回08-記事
  6
CONTINUOUS
 62
     7
 10
3291.704773941841
 20
-1160.643964682996
 30
0.0
 40
0.2
 50
0.0
 51
180.0
  0
ARC
  5
164
  8
回08-記事
  6
CONTINUOUS
 62
     7
 10
3295.704773941841
 20
-1160.643964682996
 30
0.0
 40
0.2
 50
0.0
 51
180.0
  0
ARC
  5
165
  8
回08-記事
  6
CONTINUOUS
 62
     7
 10
3299.704773941841
 20
-1160.643964682996
 30
0.0
 40
0.2
 50
0.0
 51
180.0
  0
ARC
  5
166
  8
回08-記事
  6
CONTINUOUS
 62
     7
 10
3303.704773941841
 20
-1160.643964682996
 30
0.0
 40
0.2
 50
0.0
 51
180.0
  0
ARC
  5
167
  8
回08-記事
  6
CONTINUOUS
 62
     7
 10
3307.704773941841
 20
-1160.643964682996
 30
0.0
 40
0.2
 50
0.0
 51
180.0
  0
ARC
  5
168
  8
回08-記事
  6
CONTINUOUS
 62
     7
 10
3311.704773941841
 20
-1160.643964682996
 30
0.0
 40
0.2
 50
0.0
 51
180.0
  0
ARC
  5
169
  8
回08-記事
  6
CONTINUOUS
 62
     7
 10
3315.704773941842
 20
-1160.643964682996
 30
0.0
 40
0.2
 50
0.0
 51
180.0
  0
ARC
  5
16A
  8
回08-記事
  6
CONTINUOUS
 62
     7
 10
3319.704773941842
 20
-1160.643964682996
 30
0.0
 40
0.2
 50
0.0
 51
180.0
  0
ARC
  5
16B
  8
回08-記事
  6
CONTINUOUS
 62
     7
 10
3323.704773941841
 20
-1160.643964682996
 30
0.0
 40
0.2
 50
0.0
 51
180.0
  0
ARC
  5
16C
  8
回08-記事
  6
CONTINUOUS
 62
     7
 10
3327.704773941841
 20
-1160.643964682996
 30
0.0
 40
0.2
 50
0.0
 51
180.0
  0
ARC
  5
16D
  8
回08-記事
  6
CONTINUOUS
 62
     7
 10
3331.704773941841
 20
-1160.643964682996
 30
0.0
 40
0.2
 50
0.0
 51
180.0
  0
LINE
  5
16E
  8
回08-記事
  6
CONTINUOUS
 62
     7
 10
3283.599372798202
 20
-1166.766848591275
 30
0.0
 11
3279.239724235474
 21
-1163.643964682997
 31
0.0
  0
TEXT
  5
16F
  8
回08-記事
  6
CONTINUOUS
 62
     7
 10
3283.738328905581
 20
-1168.984659737374
 30
0.0
 40
3.0
  1
6
  0
LINE
  5
170
  8
回08-記事
  6
CONTINUOUS
 62
     7
 10
3264.683006012319
 20
-1166.263727468161
 30
0.0
 11
3269.778463798429
 21
-1160.913725493885
 31
0.0
  0
LINE
  5
171
  8
回08-記事
  6
CONTINUOUS
 62
     7
 10
3268.007702877098
 20
-1161.143964682997
 30
0.0
 11
3268.007702877098
 21
-1160.643964682997
 31
0.0
  0
LINE
  5
172
  8
回08-記事
  6
CONTINUOUS
 62
     7
 10
3268.007702877098
 20
-1161.143964682997
 30
0.0
 11
3277.453963680943
 21
-1161.143964682997
 31
0.0
  0
LINE
  5
173
  8
回08-記事
  6
CONTINUOUS
 62
     7
 10
3205.920568383834
 20
-1161.337512458
 30
0.0
 11
3209.944672543226
 21
-1166.467307958131
 31
0.0
  0
LINE
  5
174
  8
回08-記事
  6
CONTINUOUS
 62
     7
 10
3264.683006012319
 20
-1166.263727468161
 30
0.0
 11
3266.288021959759
 21
-1159.187670197194
 31
0.0
  0
LINE
  5
175
  8
回08-記事
  6
CONTINUOUS
 62
     7
 10
3377.851530984464
 20
-1166.831093608024
 30
0.0
 11
3375.033122349362
 21
-1162.274132931261
 31
0.0
  0
LINE
  5
176
  8
回08-記事
  6
CONTINUOUS
 62
     7
 10
3392.769774381533
 20
-1152.242094981696
 30
0.0
 11
3387.881758326145
 21
-1158.628565403098
 31
0.0
  0
TEXT
  5
177
  8
回08-記事
  6
CONTINUOUS
 62
     7
 10
3378.461031881822
 20
-1169.339554109202
 30
0.0
 40
3.0
  1
2
  0
TEXT
  5
178
  8
回08-記事
  6
CONTINUOUS
 62
     7
 10
3393.694789832953
 20
-1151.414197101919
 30
0.0
 40
3.0
  1
1
  0
TEXT
  5
179
  8
回08-記事
  6
CONTINUOUS
 62
     7
 10
3210.87482704527
 20
-1169.440755335602
 30
0.0
 40
3.0
  1
5
  0
TEXT
  5
17A
  8
回08-記事
  6
CONTINUOUS
 62
     7
 10
3262.890385098368
 20
-1168.749343832902
 30
0.0
 40
3.0
  1
4
  0
DIMENSION
  5
17B
  8
回07-寸法
  6
CONTINUOUS
 62
     7
  2
*D33
 10
3190.129547150772
 20
-1161.843964682997
 30
0.0
 11
3188.629547150771
 21
-1170.587031305186
 31
0.0
 70
     0
  1
0.3{\H0.9x;±0.05}
  3
DMC
 13
3197.253920170175
 23
-1159.643964682997
 33
0.0
 14
3197.253920170175
 24
-1161.843964682997
 34
0.0
 50
90.0
  0
DIMENSION
  5
18A
  8
回07-寸法
  6
CONTINUOUS
 62
     7
  2
*D32
 10
3197.253920170175
 20
-1155.298168447709
 30
0.0
 11
3209.323920170175
 21
-1155.298168447709
 31
0.0
 70
   128
  3
DMC
 13
3202.253920170175
 23
-1159.143964682996
 33
0.0
 14
3197.253920170175
 24
-1159.643964682997
 34
0.0
1001
ACAD
1000
DSTYLE
1002
{
1070
    47
1040
1.0
1070
   147
1040
0.5
1070
    48
1040
1.0
1070
    72
1070
     0
1070
    71
1070
     0
1002
}
  0
DIMENSION
  5
199
  8
回07-寸法
  6
CONTINUOUS
 62
     7
  2
*D31
 10
3207.253920170175
 20
-1171.060886863976
 30
0.0
 11
3202.253920170175
 21
-1169.460886863976
 31
0.0
 70
     0
  1
(<>)
  3
DMC
 13
3197.253920170175
 23
-1161.843964682997
 33
0.0
 14
3207.253920170175
 24
-1161.843964682997
 34
0.0
1001
ACAD
1000
DSTYLE
1002
{
1070
    47
1040
1.0
1070
   147
1040
0.5
1070
    48
1040
1.0
1070
    72
1070
     0
1070
    71
1070
     0
1002
}
  0
DIMENSION
  5
1A6
  8
回07-寸法
  6
CONTINUOUS
 62
     7
  2
*D30
 10
3277.953963680943
 20
-1153.129071977195
 30
0.0
 11
3286.652388877794
 21
-1153.129071977195
 31
0.0
 70
   128
  1
(<>)
  3
DMC
 13
3277.453963680943
 23
-1160.643964682997
 33
0.0
 14
3277.953963680943
 24
-1159.643964682997
 34
0.0
  0
DIMENSION
  5
1B5
  8
回07-寸法
  6
CONTINUOUS
 62
     7
  2
*D29
 10
3408.353963680943
 20
-1153.605990111907
 30
0.0
 11
3401.654751082518
 21
-1152.005990111907
 31
0.0
 70
     0
  1
(<>)
  3
DMC
 13
3408.853963680943
 23
-1160.643964682997
 33
0.0
 14
3408.353963680943
 24
-1158.143964682997
 34
0.0
  0
DIMENSION
  5
1C4
  8
回07-寸法
  6
CONTINUOUS
 62
     7
  2
*D28
 10
3414.267699135911
 20
-1163.143964682997
 30
0.0
 11
3414.267699135909
 21
-1171.5550053012
 31
0.0
 70
   128
  1
1.4±{\H0.9x;0.2}
  3
DMC
 13
3408.353963680943
 23
-1158.143964682997
 33
0.0
 14
3408.853963680943
 24
-1163.143964682997
 34
0.0
 50
90.0
  0
ARC
  5
1D3
  8
回08-記事
  6
CONTINUOUS
 62
     7
 10
3335.704773941841
 20
-1160.643964682996
 30
0.0
 40
0.2
 50
0.0
 51
180.0
  0
ARC
  5
1D4
  8
回08-記事
  6
CONTINUOUS
 62
     7
 10
3339.704773941841
 20
-1160.643964682996
 30
0.0
 40
0.2
 50
0.0
 51
180.0
  0
ARC
  5
1D5
  8
回08-記事
  6
CONTINUOUS
 62
     7
 10
3343.704773941841
 20
-1160.643964682996
 30
0.0
 40
0.2
 50
0.0
 51
180.0
  0
ARC
  5
1D6
  8
回08-記事
  6
CONTINUOUS
 62
     7
 10
3347.704773941841
 20
-1160.643964682996
 30
0.0
 40
0.2
 50
0.0
 51
180.0
  0
ARC
  5
1D7
  8
回08-記事
  6
CONTINUOUS
 62
     7
 10
3351.704773941842
 20
-1160.643964682996
 30
0.0
 40
0.2
 50
0.0
 51
180.0
  0
ARC
  5
1D8
  8
回08-記事
  6
CONTINUOUS
 62
     7
 10
3355.704773941841
 20
-1160.643964682996
 30
0.0
 40
0.2
 50
0.0
 51
180.0
  0
ARC
  5
1D9
  8
回08-記事
  6
CONTINUOUS
 62
     7
 10
3359.704773941841
 20
-1160.643964682996
 30
0.0
 40
0.2
 50
0.0
 51
180.0
  0
ARC
  5
1DA
  8
回08-記事
  6
CONTINUOUS
 62
     7
 10
3363.704773941841
 20
-1160.643964682996
 30
0.0
 40
0.2
 50
0.0
 51
180.0
  0
ARC
  5
1DB
  8
回08-記事
  6
CONTINUOUS
 62
     7
 10
3367.704773941841
 20
-1160.643964682996
 30
0.0
 40
0.2
 50
0.0
 51
180.0
  0
ARC
  5
1DC
  8
回08-記事
  6
CONTINUOUS
 62
     7
 10
3371.704773941841
 20
-1160.643964682996
 30
0.0
 40
0.2
 50
0.0
 51
180.0
  0
ARC
  5
1DD
  8
回08-記事
  6
CONTINUOUS
 62
     7
 10
3375.704773941841
 20
-1160.643964682996
 30
0.0
 40
0.2
 50
0.0
 51
180.0
  0
ARC
  5
1DE
  8
回08-記事
  6
CONTINUOUS
 62
     7
 10
3379.704773941841
 20
-1160.643964682996
 30
0.0
 40
0.2
 50
0.0
 51
180.0
  0
ARC
  5
1DF
  8
回08-記事
  6
CONTINUOUS
 62
     7
 10
3383.704773941842
 20
-1160.643964682996
 30
0.0
 40
0.2
 50
0.0
 51
180.0
  0
ARC
  5
1E0
  8
回08-記事
  6
CONTINUOUS
 62
     7
 10
3387.704773941841
 20
-1160.643964682996
 30
0.0
 40
0.2
 50
0.0
 51
180.0
  0
ARC
  5
1E1
  8
回08-記事
  6
CONTINUOUS
 62
     7
 10
3391.704773941841
 20
-1160.643964682996
 30
0.0
 40
0.2
 50
0.0
 51
180.0
  0
ARC
  5
1E2
  8
回08-記事
  6
CONTINUOUS
 62
     7
 10
3395.704773941842
 20
-1160.643964682996
 30
0.0
 40
0.2
 50
0.0
 51
180.0
  0
ARC
  5
1E3
  8
回08-記事
  6
CONTINUOUS
 62
     7
 10
3399.704773941842
 20
-1160.643964682996
 30
0.0
 40
0.2
 50
0.0
 51
180.0
  0
ARC
  5
1E4
  8
回08-記事
  6
CONTINUOUS
 62
     7
 10
3403.704773941842
 20
-1160.643964682996
 30
0.0
 40
0.2
 50
0.0
 51
180.0
  0
LINE
  5
1E5
  8
回08-記事
  6
CONTINUOUS
 62
     7
 10
3280.753963680944
 20
-1163.643964682997
 30
0.0
 11
3280.753963680944
 21
-1163.143964682997
 31
0.0
  0
LINE
  5
1E6
  8
回08-記事
  6
CONTINUOUS
 62
     7
 10
3276.953963680944
 20
-1163.643964682997
 30
0.0
 11
3280.753963680944
 21
-1163.643964682997
 31
0.0
  0
LINE
  5
1E7
  8
回08-記事
  6
CONTINUOUS
 62
     7
 10
3276.953963680944
 20
-1161.643964682997
 30
0.0
 11
3276.953963680944
 21
-1163.643964682997
 31
0.0
  0
LINE
  5
1E8
  8
回08-記事
  6
CONTINUOUS
 62
     7
 10
3273.066207358283
 20
-1161.643964682997
 30
0.0
 11
3276.953963680944
 21
-1161.643964682997
 31
0.0
  0
LINE
  5
1E9
  8
回08-記事
  6
CONTINUOUS
 62
     7
 10
3273.066207358283
 20
-1161.143964682997
 30
0.0
 11
3273.066207358283
 21
-1161.643964682997
 31
0.0
  0
POLYLINE
  5
1EA
  8
回08-記事
  6
CONTINUOUS
 62
     7
 66
     1
 10
0.0
 20
0.0
 30
0.0
 70
     1
  0
VERTEX
  5
44B
  8
回08-記事
  6
CONTINUOUS
 62
     7
 10
3202.253920170175
 20
-1159.643964682997
 30
0.0
  0
VERTEX
  5
44D
  8
回08-記事
  6
CONTINUOUS
 62
     7
 10
3277.953963680943
 20
-1159.643964682997
 30
0.0
  0
VERTEX
  5
44E
  8
回08-記事
  6
CONTINUOUS
 62
     7
 10
3277.953963680943
 20
-1159.143964682997
 30
0.0
  0
VERTEX
  5
44F
  8
回08-記事
  6
CONTINUOUS
 62
     7
 10
3202.253920170175
 20
-1159.143964682997
 30
0.0
  0
SEQEND
  5
44C
  8
回08-記事
  6
CONTINUOUS
 62
     5
  0
POLYLINE
  5
1EB
  8
回08-記事
  6
CONTINUOUS
 62
     7
 66
     1
 10
0.0
 20
0.0
 30
0.0
 70
     1
  0
VERTEX
  5
450
  8
回08-記事
  6
CONTINUOUS
 62
     7
 10
3197.253920170175
 20
-1160.643964682996
 30
0.0
  0
VERTEX
  5
452
  8
回08-記事
  6
CONTINUOUS
 62
     7
 10
3207.253920170175
 20
-1160.643964682996
 30
0.0
  0
VERTEX
  5
453
  8
回08-記事
  6
CONTINUOUS
 62
     7
 10
3207.253920170175
 20
-1161.843964682997
 30
0.0
  0
VERTEX
  5
454
  8
回08-記事
  6
CONTINUOUS
 62
     7
 10
3197.253920170175
 20
-1161.843964682997
 30
0.0
  0
SEQEND
  5
451
  8
回08-記事
  6
CONTINUOUS
 62
     5
  0
LINE
  5
1EC
  8
回08-記事
  6
CONTINUOUS
 62
     7
 10
3285.253963680943
 20
-1159.643964682997
 30
0.0
 11
3285.253963680943
 21
-1160.643964682997
 31
0.0
  0
LINE
  5
1ED
  8
回08-記事
  6
CONTINUOUS
 62
     7
 10
3408.353963680943
 20
-1159.643964682997
 30
0.0
 11
3408.353963680943
 21
-1160.643964682997
 31
0.0
  0
LINE
  5
1EE
  8
回08-記事
  6
CONTINUOUS
 62
     7
 10
3405.453963680943
 20
-1159.643964682997
 30
0.0
 11
3405.453963680943
 21
-1160.643964682997
 31
0.0
  0
POLYLINE
  5
1EF
  8
回08-記事
  6
CONTINUOUS
 62
     7
 66
     1
 10
0.0
 20
0.0
 30
0.0
 70
     1
  0
VERTEX
  5
455
  8
回08-記事
  6
CONTINUOUS
 62
     7
 10
3197.253920170175
 20
-1160.643964682996
 30
0.0
  0
VERTEX
  5
457
  8
回08-記事
  6
CONTINUOUS
 62
     7
 10
3280.753963680944
 20
-1160.643964682996
 30
0.0
  0
VERTEX
  5
458
  8
回08-記事
  6
CONTINUOUS
 62
     7
 10
3280.753963680944
 20
-1159.643964682997
 30
0.0
  0
VERTEX
  5
459
  8
回08-記事
  6
CONTINUOUS
 62
     7
 10
3197.253920170175
 20
-1159.643964682997
 30
0.0
  0
SEQEND
  5
456
  8
回08-記事
  6
CONTINUOUS
 62
     5
  0
POLYLINE
  5
1F0
  8
回08-記事
  6
CONTINUOUS
 62
     7
 66
     1
 10
0.0
 20
0.0
 30
0.0
 70
     1
  0
VERTEX
  5
45A
  8
回08-記事
  6
CONTINUOUS
 62
     7
 10
3277.453963680943
 20
-1163.143964682997
 30
0.0
  0
VERTEX
  5
45C
  8
回08-記事
  6
CONTINUOUS
 62
     7
 10
3408.853963680943
 20
-1163.143964682997
 30
0.0
  0
VERTEX
  5
45D
  8
回08-記事
  6
CONTINUOUS
 62
     7
 10
3408.853963680943
 20
-1160.643964682997
 30
0.0
  0
VERTEX
  5
45E
  8
回08-記事
  6
CONTINUOUS
 62
     7
 10
3277.453963680943
 20
-1160.643964682997
 30
0.0
  0
SEQEND
  5
45B
  8
回08-記事
  6
CONTINUOUS
 62
     5
  0
POLYLINE
  5
1F1
  8
回08-記事
  6
CONTINUOUS
 62
     7
 66
     1
 10
0.0
 20
0.0
 30
0.0
 70
     1
  0
VERTEX
  5
45F
  8
回08-記事
  6
CONTINUOUS
 62
     7
 10
3277.953963680943
 20
-1158.143964682997
 30
0.0
  0
VERTEX
  5
461
  8
回08-記事
  6
CONTINUOUS
 62
     7
 10
3408.353963680943
 20
-1158.143964682997
 30
0.0
  0
VERTEX
  5
462
  8
回08-記事
  6
CONTINUOUS
 62
     7
 10
3408.353963680943
 20
-1159.643964682997
 30
0.0
  0
VERTEX
  5
463
  8
回08-記事
  6
CONTINUOUS
 62
     7
 10
3277.953963680943
 20
-1159.643964682997
 30
0.0
  0
SEQEND
  5
460
  8
回08-記事
  6
CONTINUOUS
 62
     5
  0
DIMENSION
  5
1F2
  8
回07-寸法
  6
CONTINUOUS
  2
*D7
 10
3197.253920170176
 20
-1040.518240850387
 30
0.0
 11
3241.359924160533
 21
-1040.518240850387
 31
0.0
 70
   128
  3
DMC
 13
3277.453963680944
 23
-1062.779351889281
 33
0.0
 14
3197.253920170176
 24
-1071.725786713719
 34
0.0
 50
180.0
1001
ACAD
1000
DSTYLE
1002
{
1070
    47
1040
1.0
1070
    48
1040
1.0
1070
    71
1070
     1
1070
   146
1040
0.9
1070
   271
1070
     0
1070
   371
1070
     9
1070
   372
1070
     9
1002
}
  0
DIMENSION
  5
1FF
  8
回07-寸法
  6
CONTINUOUS
  2
*D2
 10
3379.245712619137
 20
-1079.725786713719
 30
0.0
 11
3377.745712619136
 21
-1084.72578671372
 31
0.0
 70
     0
  3
DMC
 13
3372.903963680944
 23
-1075.725786713719
 33
0.0
 14
3372.903963680944
 24
-1079.725786713719
 34
0.0
 50
90.0
1001
ACAD
1000
DSTYLE
1002
{
1070
   371
1070
     9
1070
   372
1070
     9
1002
}
  0
DIMENSION
  5
20E
  8
回07-寸法
  6
CONTINUOUS
  2
*D1
 10
3364.903963680944
 20
-1067.533027168943
 30
0.0
 11
3359.903963680944
 21
-1066.033027168943
 31
0.0
 70
     0
  3
DMC
 13
3368.903963680944
 23
-1071.725786713719
 33
0.0
 14
3364.903963680944
 24
-1071.725786713719
 34
0.0
 50
180.0
1001
ACAD
1000
DSTYLE
1002
{
1070
   371
1070
     9
1070
   372
1070
     9
1002
}
  0
TEXT
  5
21D
  8
回08-記事
  6
CONTINUOUS
 62
     7
 10
3346.478220051079
 20
-1033.449945225753
 30
0.0
 40
3.0
  1
YU
 50
359.999999999974
  0
TEXT
  5
21E
  8
回08-記事
  6
CONTINUOUS
 62
     7
 10
3346.414363448562
 20
-1113.850386759523
 30
0.0
 40
3.0
  1
YD
  0
DIMENSION
  5
21F
  8
回07-寸法
  6
CONTINUOUS
  2
*D27
 10
3430.310278902848
 20
-1123.225786713721
 30
0.0
 11
3428.707778902847
 21
-1140.527893012934
 31
0.0
 70
     0
  1
<> (Insulation Area)
  3
DMC
 13
3405.503963680943
 23
-1117.97578671372
 33
0.0
 14
3408.853963680943
 24
-1123.22578671372
 34
0.0
 50
90.0
1001
ACAD
1000
DSTYLE
1002
{
1070
   371
1070
     9
1070
   372
1070
     9
1002
}
1001
ACADSTRINGINFO
1000
MIFCodePage
1070
     1
  0
DIMENSION
  5
22E
  8
回07-寸法
  6
CONTINUOUS
  2
*D26
 10
3425.344684884271
 20
-1123.225786713721
 30
0.0
 11
3425.34468488427
 21
-1129.927050589644
 31
0.0
 70
   128
  3
DMC
 13
3405.003963680944
 23
-1117.175786713721
 33
0.0
 14
3408.853963680943
 24
-1123.22578671372
 34
0.0
 50
90.0
1001
ACAD
1000
DSTYLE
1002
{
1070
   371
1070
     9
1070
   372
1070
     9
1002
}
  0
DIMENSION
  5
23D
  8
回07-寸法
  6
CONTINUOUS
  2
*D25
 10
3420.793850871433
 20
-1123.225786713721
 30
0.0
 11
3420.793850871433
 21
-1129.867208069959
 31
0.0
 70
   128
  3
DMC
 13
3403.003963680943
 23
-1115.175786713719
 33
0.0
 14
3409.103963680943
 24
-1123.22578671372
 34
0.0
 50
90.0
1001
ACAD
1000
DSTYLE
1002
{
1070
   371
1070
     9
1070
   372
1070
     9
1002
}
  0
DIMENSION
  5
24C
  8
回07-寸法
  6
CONTINUOUS
  2
*D24
 10
3430.310278902843
 20
-1025.47578671372
 30
0.0
 11
3430.310278902842
 21
-1012.826574115295
 31
0.0
 70
   128
  1
(<>) 
  3
DMC
 13
3408.853963680944
 23
-1020.225786713719
 33
0.0
 14
3405.503963680945
 24
-1025.47578671372
 34
0.0
 50
90.0
1001
ACADSTRINGINFO
1000
MIFCodePage
1070
     1
1001
ACAD
1000
DSTYLE
1002
{
1070
   371
1070
     9
1070
   372
1070
     9
1002
}
  0
DIMENSION
  5
25B
  8
回07-寸法
  6
CONTINUOUS
  2
*D23
 10
3425.344684884271
 20
-1026.275786713721
 30
0.0
 11
3425.34468488427
 21
-1012.826574115294
 31
0.0
 70
   128
  1
(<>)
  3
DMC
 13
3408.853963680944
 23
-1020.225786713719
 33
0.0
 14
3405.003963680945
 24
-1026.275786713721
 34
0.0
 50
90.0
1001
ACAD
1000
DSTYLE
1002
{
1070
   371
1070
     9
1070
   372
1070
     9
1002
}
  0
DIMENSION
  5
26A
  8
回07-寸法
  6
CONTINUOUS
  2
*D22
 10
3420.793850871437
 20
-1028.275786713721
 30
0.0
 11
3420.793850871435
 21
-1012.826574115294
 31
0.0
 70
   128
  1
(<>)
  3
DMC
 13
3408.853963680944
 23
-1020.225786713719
 33
0.0
 14
3403.003963680945
 24
-1028.27578671372
 34
0.0
 50
90.0
1001
ACAD
1000
DSTYLE
1002
{
1070
   371
1070
     9
1070
   372
1070
     9
1002
}
  0
DIMENSION
  5
279
  8
回07-寸法
  6
CONTINUOUS
  2
*D21
 10
3435.376851211691
 20
-1020.22578671372
 30
0.0
 11
3433.876851211689
 21
-1071.725786713721
 31
0.0
 70
     0
  3
DMC
 13
3408.853963680943
 23
-1123.22578671372
 33
0.0
 14
3408.853963680944
 24
-1020.225786713719
 34
0.0
 50
90.0
1001
ACAD
1000
DSTYLE
1002
{
1070
    47
1040
0.3
1070
    48
1040
0.3
1070
    71
1070
     1
1070
   146
1040
0.9
1070
   371
1070
     9
1070
   372
1070
     9
1002
}
  0
DIMENSION
  5
286
  8
回07-寸法
  6
CONTINUOUS
  2
*D20
 10
3430.310278902844
 20
-1117.97578671372
 30
0.0
 11
3428.80959869343
 21
-1071.725786713721
 31
0.0
 70
     0
  3
DMC
 13
3405.503963680945
 23
-1025.47578671372
 33
0.0
 14
3405.503963680943
 24
-1117.97578671372
 34
0.0
 50
90.0
1001
ACAD
1000
DSTYLE
1002
{
1070
   371
1070
     9
1070
   372
1070
     9
1002
}
  0
DIMENSION
  5
293
  8
回07-寸法
  6
CONTINUOUS
  2
*D19
 10
3425.344684884277
 20
-1026.275786713721
 30
0.0
 11
3423.508441197568
 21
-1071.725786713722
 31
0.0
 70
     0
  1
<> (Viewing Area)
  3
DMC
 13
3405.003963680944
 23
-1117.175786713721
 33
0.0
 14
3405.003963680945
 24
-1026.275786713721
 34
0.0
 50
90.0
1001
ACAD
1000
DSTYLE
1002
{
1070
   371
1070
     9
1070
   372
1070
     9
1002
}
  0
DIMENSION
  5
2A0
  8
回07-寸法
  6
CONTINUOUS
  2
*D18
 10
3420.793850871438
 20
-1115.17578671372
 30
0.0
 11
3419.193850871437
 21
-1071.725786713721
 31
0.0
 70
     0
  1
<> (Active Area)
  3
DMC
 13
3403.003963680945
 23
-1028.27578671372
 33
0.0
 14
3403.003963680943
 24
-1115.175786713719
 34
0.0
 50
90.0
1001
ACAD
1000
DSTYLE
1002
{
1070
   371
1070
     9
1070
   372
1070
     9
1002
}
  0
DIMENSION
  5
2AD
  8
回07-寸法
  6
CONTINUOUS
  2
*D17
 10
3408.853963680944
 20
-997.3849727176286
 30
0.0
 11
3416.253176279369
 21
-995.7849727176286
 31
0.0
 70
     0
  1
(<>)
  3
DMC
 13
3405.003963680945
 23
-1026.275786713721
 33
0.0
 14
3408.853963680944
 24
-1020.225786713719
 34
0.0
 50
180.0
1001
ACAD
1000
DSTYLE
1002
{
1070
   371
1070
     9
1070
   372
1070
     9
1002
}
  0
DIMENSION
  5
2BC
  8
回07-寸法
  6
CONTINUOUS
  2
*D16
 10
3408.853963680944
 20
-1002.798171454446
 30
0.0
 11
3416.253176279369
 21
-1002.798171454446
 31
0.0
 70
   128
  1
(<>)
  3
DMC
 13
3403.003963680945
 23
-1028.275786713721
 33
0.0
 14
3408.853963680944
 24
-1020.225786713719
 34
0.0
 50
180.0
1001
ACAD
1000
DSTYLE
1002
{
1070
   371
1070
     9
1070
   372
1070
     9
1002
}
  0
DIMENSION
  5
2CB
  8
回07-寸法
  6
CONTINUOUS
  2
*D15
 10
3405.503963680945
 20
-992.0973855388476
 30
0.0
 11
3416.253176279369
 21
-992.0973855388476
 31
0.0
 70
   128
  1
(<>)
  3
DMC
 13
3408.853963680944
 23
-1020.225786713719
 33
0.0
 14
3405.503963680945
 24
-1025.47578671372
 34
0.0
 50
180.0
1001
ACADSTRINGINFO
1000
MIFCodePage
1070
     1
1001
ACAD
1000
DSTYLE
1002
{
1070
   371
1070
     9
1070
   372
1070
     9
1002
}
  0
DIMENSION
  5
2DA
  8
回07-寸法
  6
CONTINUOUS
  2
*D14
 10
3277.453963680944
 20
-992.0973855388476
 30
0.0
 11
3260.001463680944
 21
-992.0973855388476
 31
0.0
 70
   128
  1
<> (Insulation Area）
  3
DMC
 13
3284.803963680945
 23
-1025.475786713719
 33
0.0
 14
3277.453963680944
 24
-1020.225786713719
 34
0.0
 50
180.0
1001
ACAD
1000
DSTYLE
1002
{
1070
   371
1070
     9
1070
   372
1070
     9
1002
}
1001
ACADSTRINGINFO
1000
MIFCodePage
1070
     1
  0
DIMENSION
  5
2E9
  8
回07-寸法
  6
CONTINUOUS
  2
*D13
 10
3405.503963680945
 20
-992.0973855388476
 30
0.0
 11
3345.153963680945
 21
-990.597188688454
 31
0.0
 70
     0
  3
DMC
 13
3284.803963680945
 23
-1025.475786713719
 33
0.0
 14
3405.503963680945
 24
-1025.47578671372
 34
0.0
 50
180.0
1001
ACAD
1000
DSTYLE
1002
{
1070
   371
1070
     9
1070
   372
1070
     9
1002
}
  0
DIMENSION
  5
2F6
  8
回07-寸法
  6
CONTINUOUS
  2
*D12
 10
3277.453963680944
 20
-997.3849727176286
 30
0.0
 11
3270.812542324707
 21
-997.3849727176286
 31
0.0
 70
   128
  3
DMC
 13
3285.303963680946
 23
-1026.27578671372
 33
0.0
 14
3277.453963680944
 24
-1020.225786713719
 34
0.0
 50
180.0
1001
ACAD
1000
DSTYLE
1002
{
1070
   371
1070
     9
1070
   372
1070
     9
1002
}
  0
DIMENSION
  5
305
  8
回07-寸法
  6
CONTINUOUS
  2
*D11
 10
3277.453963680944
 20
-1002.798171454446
 30
0.0
 11
3270.77112096847
 21
-1002.798171454446
 31
0.0
 70
   128
  3
DMC
 13
3287.303963680944
 23
-1028.275786713719
 33
0.0
 14
3277.453963680944
 24
-1020.225786713719
 34
0.0
 50
180.0
1001
ACAD
1000
DSTYLE
1002
{
1070
   371
1070
     9
1070
   372
1070
     9
1002
}
  0
DIMENSION
  5
314
  8
回07-寸法
  6
CONTINUOUS
  2
*D10
 10
3408.853963680944
 20
-986.9442912639481
 30
0.0
 11
3343.153963680944
 21
-985.4442912639481
 31
0.0
 70
     0
  3
DMC
 13
3277.453963680944
 23
-1020.225786713719
 33
0.0
 14
3408.853963680944
 24
-1020.225786713719
 34
0.0
 50
180.0
1001
ACAD
1000
DSTYLE
1002
{
1070
    47
1040
0.3
1070
    48
1040
0.3
1070
    71
1070
     1
1070
   146
1040
0.9
1070
   371
1070
     9
1070
   372
1070
     9
1002
}
  0
DIMENSION
  5
321
  8
回07-寸法
  6
CONTINUOUS
  2
*D9
 10
3405.003963680945
 20
-997.3849727176286
 30
0.0
 11
3345.153963680945
 21
-995.5487290309209
 31
0.0
 70
     0
  1
<> (Viewing Area)
  3
DMC
 13
3285.303963680946
 23
-1026.27578671372
 33
0.0
 14
3405.003963680945
 24
-1026.275786713721
 34
0.0
 50
180.0
1001
ACAD
1000
DSTYLE
1002
{
1070
   371
1070
     9
1070
   372
1070
     9
1002
}
  0
DIMENSION
  5
32E
  8
回07-寸法
  6
CONTINUOUS
  2
*D8
 10
3403.003963680945
 20
-1002.798171454446
 30
0.0
 11
3345.153963680945
 21
-1001.198171454446
 31
0.0
 70
     0
  1
<> (Active Area)
  3
DMC
 13
3287.303963680944
 23
-1028.275786713719
 33
0.0
 14
3403.003963680945
 24
-1028.27578671372
 34
0.0
 50
180.0
1001
ACAD
1000
DSTYLE
1002
{
1070
   371
1070
     9
1070
   372
1070
     9
1002
}
  0
CIRCLE
  5
33B
  8
回08-記事
  6
CONTINUOUS
 10
3372.903963680944
 20
-1071.725786713719
 30
0.0
 40
0.025
  0
CIRCLE
  5
33C
  8
回08-記事
  6
CONTINUOUS
 10
3372.903963680944
 20
-1075.725786713719
 30
0.0
 40
0.025
  0
CIRCLE
  5
33D
  8
回08-記事
  6
CONTINUOUS
 10
3372.903963680944
 20
-1079.725786713719
 30
0.0
 40
0.025
  0
CIRCLE
  5
33E
  8
回08-記事
  6
CONTINUOUS
 10
3372.903963680944
 20
-1083.725786713719
 30
0.0
 40
0.025
  0
CIRCLE
  5
33F
  8
回08-記事
  6
CONTINUOUS
 10
3372.903963680944
 20
-1087.725786713719
 30
0.0
 40
0.025
  0
CIRCLE
  5
340
  8
回08-記事
  6
CONTINUOUS
 10
3372.903963680944
 20
-1091.725786713719
 30
0.0
 40
0.025
  0
CIRCLE
  5
341
  8
回08-記事
  6
CONTINUOUS
 10
3372.903963680944
 20
-1095.725786713719
 30
0.0
 40
0.025
  0
CIRCLE
  5
342
  8
回08-記事
  6
CONTINUOUS
 10
3372.903963680944
 20
-1099.725786713719
 30
0.0
 40
0.025
  0
CIRCLE
  5
343
  8
回08-記事
  6
CONTINUOUS
 10
3368.903963680944
 20
-1071.725786713719
 30
0.0
 40
0.025
  0
CIRCLE
  5
344
  8
回08-記事
  6
CONTINUOUS
 10
3368.903963680944
 20
-1075.725786713719
 30
0.0
 40
0.025
  0
CIRCLE
  5
345
  8
回08-記事
  6
CONTINUOUS
 10
3368.903963680944
 20
-1079.725786713719
 30
0.0
 40
0.025
  0
CIRCLE
  5
346
  8
回08-記事
  6
CONTINUOUS
 10
3368.903963680944
 20
-1083.725786713719
 30
0.0
 40
0.025
  0
CIRCLE
  5
347
  8
回08-記事
  6
CONTINUOUS
 10
3368.903963680944
 20
-1087.725786713719
 30
0.0
 40
0.025
  0
CIRCLE
  5
348
  8
回08-記事
  6
CONTINUOUS
 10
3368.903963680944
 20
-1091.725786713719
 30
0.0
 40
0.025
  0
CIRCLE
  5
349
  8
回08-記事
  6
CONTINUOUS
 10
3368.903963680944
 20
-1095.725786713719
 30
0.0
 40
0.025
  0
CIRCLE
  5
34A
  8
回08-記事
  6
CONTINUOUS
 10
3368.903963680944
 20
-1099.725786713719
 30
0.0
 40
0.025
  0
CIRCLE
  5
34B
  8
回08-記事
  6
CONTINUOUS
 10
3364.903963680944
 20
-1071.725786713719
 30
0.0
 40
0.025
  0
CIRCLE
  5
34C
  8
回08-記事
  6
CONTINUOUS
 10
3364.903963680944
 20
-1075.725786713719
 30
0.0
 40
0.025
  0
CIRCLE
  5
34D
  8
回08-記事
  6
CONTINUOUS
 10
3364.903963680944
 20
-1079.725786713719
 30
0.0
 40
0.025
  0
CIRCLE
  5
34E
  8
回08-記事
  6
CONTINUOUS
 10
3364.903963680944
 20
-1083.725786713719
 30
0.0
 40
0.025
  0
CIRCLE
  5
34F
  8
回08-記事
  6
CONTINUOUS
 10
3364.903963680944
 20
-1087.725786713719
 30
0.0
 40
0.025
  0
CIRCLE
  5
350
  8
回08-記事
  6
CONTINUOUS
 10
3364.903963680944
 20
-1091.725786713719
 30
0.0
 40
0.025
  0
CIRCLE
  5
351
  8
回08-記事
  6
CONTINUOUS
 10
3364.903963680944
 20
-1095.725786713719
 30
0.0
 40
0.025
  0
CIRCLE
  5
352
  8
回08-記事
  6
CONTINUOUS
 10
3364.903963680944
 20
-1099.725786713719
 30
0.0
 40
0.025
  0
CIRCLE
  5
353
  8
回08-記事
  6
CONTINUOUS
 10
3360.903963680944
 20
-1071.725786713719
 30
0.0
 40
0.025
  0
CIRCLE
  5
354
  8
回08-記事
  6
CONTINUOUS
 10
3360.903963680944
 20
-1075.725786713719
 30
0.0
 40
0.025
  0
CIRCLE
  5
355
  8
回08-記事
  6
CONTINUOUS
 10
3360.903963680944
 20
-1079.725786713719
 30
0.0
 40
0.025
  0
CIRCLE
  5
356
  8
回08-記事
  6
CONTINUOUS
 10
3360.903963680944
 20
-1083.725786713719
 30
0.0
 40
0.025
  0
CIRCLE
  5
357
  8
回08-記事
  6
CONTINUOUS
 10
3360.903963680944
 20
-1087.725786713719
 30
0.0
 40
0.025
  0
CIRCLE
  5
358
  8
回08-記事
  6
CONTINUOUS
 10
3360.903963680944
 20
-1091.725786713719
 30
0.0
 40
0.025
  0
CIRCLE
  5
359
  8
回08-記事
  6
CONTINUOUS
 10
3360.903963680944
 20
-1095.725786713719
 30
0.0
 40
0.025
  0
CIRCLE
  5
35A
  8
回08-記事
  6
CONTINUOUS
 10
3360.903963680944
 20
-1099.725786713719
 30
0.0
 40
0.025
  0
CIRCLE
  5
35B
  8
回08-記事
  6
CONTINUOUS
 10
3356.903963680944
 20
-1071.725786713719
 30
0.0
 40
0.025
  0
CIRCLE
  5
35C
  8
回08-記事
  6
CONTINUOUS
 10
3356.903963680944
 20
-1075.725786713719
 30
0.0
 40
0.025
  0
CIRCLE
  5
35D
  8
回08-記事
  6
CONTINUOUS
 10
3356.903963680944
 20
-1079.725786713719
 30
0.0
 40
0.025
  0
CIRCLE
  5
35E
  8
回08-記事
  6
CONTINUOUS
 10
3356.903963680944
 20
-1083.725786713719
 30
0.0
 40
0.025
  0
CIRCLE
  5
35F
  8
回08-記事
  6
CONTINUOUS
 10
3356.903963680944
 20
-1087.725786713719
 30
0.0
 40
0.025
  0
CIRCLE
  5
360
  8
回08-記事
  6
CONTINUOUS
 10
3356.903963680944
 20
-1091.725786713719
 30
0.0
 40
0.025
  0
CIRCLE
  5
361
  8
回08-記事
  6
CONTINUOUS
 10
3356.903963680944
 20
-1095.725786713719
 30
0.0
 40
0.025
  0
CIRCLE
  5
362
  8
回08-記事
  6
CONTINUOUS
 10
3356.903963680944
 20
-1099.725786713719
 30
0.0
 40
0.025
  0
CIRCLE
  5
363
  8
回08-記事
  6
CONTINUOUS
 10
3352.903963680944
 20
-1071.725786713719
 30
0.0
 40
0.025
  0
CIRCLE
  5
364
  8
回08-記事
  6
CONTINUOUS
 10
3352.903963680944
 20
-1075.725786713719
 30
0.0
 40
0.025
  0
CIRCLE
  5
365
  8
回08-記事
  6
CONTINUOUS
 10
3352.903963680944
 20
-1079.725786713719
 30
0.0
 40
0.025
  0
CIRCLE
  5
366
  8
回08-記事
  6
CONTINUOUS
 10
3352.903963680944
 20
-1083.725786713719
 30
0.0
 40
0.025
  0
CIRCLE
  5
367
  8
回08-記事
  6
CONTINUOUS
 10
3352.903963680944
 20
-1087.725786713719
 30
0.0
 40
0.025
  0
CIRCLE
  5
368
  8
回08-記事
  6
CONTINUOUS
 10
3352.903963680944
 20
-1091.725786713719
 30
0.0
 40
0.025
  0
CIRCLE
  5
369
  8
回08-記事
  6
CONTINUOUS
 10
3352.903963680944
 20
-1095.725786713719
 30
0.0
 40
0.025
  0
CIRCLE
  5
36A
  8
回08-記事
  6
CONTINUOUS
 10
3352.903963680944
 20
-1099.725786713719
 30
0.0
 40
0.025
  0
CIRCLE
  5
36B
  8
回08-記事
  6
CONTINUOUS
 10
3348.903963680944
 20
-1071.725786713719
 30
0.0
 40
0.025
  0
CIRCLE
  5
36C
  8
回08-記事
  6
CONTINUOUS
 10
3348.903963680944
 20
-1075.725786713719
 30
0.0
 40
0.025
  0
CIRCLE
  5
36D
  8
回08-記事
  6
CONTINUOUS
 10
3348.903963680944
 20
-1079.725786713719
 30
0.0
 40
0.025
  0
CIRCLE
  5
36E
  8
回08-記事
  6
CONTINUOUS
 10
3348.903963680944
 20
-1083.725786713719
 30
0.0
 40
0.025
  0
CIRCLE
  5
36F
  8
回08-記事
  6
CONTINUOUS
 10
3348.903963680944
 20
-1087.725786713719
 30
0.0
 40
0.025
  0
CIRCLE
  5
370
  8
回08-記事
  6
CONTINUOUS
 10
3348.903963680944
 20
-1091.725786713719
 30
0.0
 40
0.025
  0
CIRCLE
  5
371
  8
回08-記事
  6
CONTINUOUS
 10
3348.903963680944
 20
-1095.725786713719
 30
0.0
 40
0.025
  0
CIRCLE
  5
372
  8
回08-記事
  6
CONTINUOUS
 10
3348.903963680944
 20
-1099.725786713719
 30
0.0
 40
0.025
  0
CIRCLE
  5
373
  8
回08-記事
  6
CONTINUOUS
 10
3344.903963680944
 20
-1071.725786713719
 30
0.0
 40
0.025
  0
CIRCLE
  5
374
  8
回08-記事
  6
CONTINUOUS
 10
3344.903963680944
 20
-1075.725786713719
 30
0.0
 40
0.025
  0
CIRCLE
  5
375
  8
回08-記事
  6
CONTINUOUS
 10
3344.903963680944
 20
-1079.725786713719
 30
0.0
 40
0.025
  0
CIRCLE
  5
376
  8
回08-記事
  6
CONTINUOUS
 10
3344.903963680944
 20
-1083.725786713719
 30
0.0
 40
0.025
  0
CIRCLE
  5
377
  8
回08-記事
  6
CONTINUOUS
 10
3344.903963680944
 20
-1087.725786713719
 30
0.0
 40
0.025
  0
CIRCLE
  5
378
  8
回08-記事
  6
CONTINUOUS
 10
3344.903963680944
 20
-1091.725786713719
 30
0.0
 40
0.025
  0
CIRCLE
  5
379
  8
回08-記事
  6
CONTINUOUS
 10
3344.903963680944
 20
-1095.725786713719
 30
0.0
 40
0.025
  0
CIRCLE
  5
37A
  8
回08-記事
  6
CONTINUOUS
 10
3344.903963680944
 20
-1099.725786713719
 30
0.0
 40
0.025
  0
LINE
  5
37B
  8
回08-記事
  6
CENTER
 62
     7
 10
3344.903963680944
 20
-1115.175786713719
 30
0.0
 11
3344.903963680944
 21
-1028.275786713719
 31
0.0
  0
TEXT
  5
37D
  8
REF
  6
CONTINUOUS
 62
     7
 10
3197.393251400654
 20
-1070.530534529891
 30
0.0
 40
2.0
  1
4
 50
90.0
  0
TEXT
  5
380
  8
REF
  6
CONTINUOUS
 62
     7
 10
3197.393251400654
 20
-1074.267800402372
 30
0.0
 40
2.0
  1
1
 50
90.0
  0
DIMENSION
  5
381
  8
回07-寸法
  6
CONTINUOUS
  2
*D6
 10
3267.726814500902
 20
-1094.32856439629
 30
0.0
 11
3273.049641947438
 21
-1094.32856439629
 31
0.0
 70
   128
  3
DMC
 13
3277.453963680944
 23
-1080.672221338435
 33
0.0
 14
3267.726814500902
 24
-1074.930464052883
 34
0.0
1001
ACAD
1000
DSTYLE
1002
{
1070
   371
1070
     9
1070
   372
1070
     9
1002
}
  0
DIMENSION
  5
38E
  8
回07-寸法
  6
CONTINUOUS
  2
*D5
 10
3272.684681967438
 20
-1088.608306886073
 30
0.0
 11
3264.917348496214
 21
-1088.608306886073
 31
0.0
 70
   128
  3
DMC
 13
3277.453963680944
 23
-1080.672221338435
 33
0.0
 14
3272.684681967438
 24
-1079.650145072874
 34
0.0
1001
ACAD
1000
DSTYLE
1002
{
1070
   371
1070
     9
1070
   372
1070
     9
1002
}
  0
DIMENSION
  5
39D
  8
回07-寸法
  6
CONTINUOUS
  2
*D4
 10
3255.507415889987
 20
-1079.725786713719
 30
0.0
 11
3255.507415889985
 21
-1057.327777149565
 31
0.0
 70
   128
  3
DMC
 13
3273.812033772578
 23
-1063.726989747991
 33
0.0
 14
3273.816207358283
 24
-1079.725786713719
 34
0.0
 50
270.0
1001
ACAD
1000
DSTYLE
1002
{
1070
   371
1070
     9
1070
   372
1070
     9
1002
}
  0
DIMENSION
  5
3AC
  8
回07-寸法
  6
CONTINUOUS
  2
*D3
 10
3186.869770914962
 20
-1068.600786713719
 30
0.0
 11
3186.869770914961
 21
-1059.711891044429
 31
0.0
 70
   128
  3
DMC
 13
3198.503920170177
 23
-1074.850786713719
 33
0.0
 14
3198.503920170177
 24
-1068.600786713719
 34
0.0
 50
270.0
1001
ACAD
1000
DSTYLE
1002
{
1070
    47
1040
0.2
1070
    48
1040
0.2
1070
    71
1070
     1
1070
   146
1040
0.9
1070
   272
1070
     1
1070
   371
1070
     9
1070
   372
1070
     9
1002
}
  0
POLYLINE
  5
3BB
  8
回08-記事
  6
PHANTOM2
 62
     7
 66
     1
 10
0.0
 20
0.0
 30
0.0
 70
     1
  0
VERTEX
  5
464
  8
回08-記事
  6
PHANTOM2
 62
     7
 10
3405.503963680945
 20
-1025.47578671372
 30
0.0
  0
VERTEX
  5
466
  8
回08-記事
  6
PHANTOM2
 62
     7
 10
3405.503963680943
 20
-1117.97578671372
 30
0.0
  0
VERTEX
  5
467
  8
回08-記事
  6
PHANTOM2
 62
     7
 10
3284.803963680943
 20
-1117.97578671372
 30
0.0
  0
VERTEX
  5
468
  8
回08-記事
  6
PHANTOM2
 62
     7
 10
3284.803963680945
 20
-1025.475786713719
 30
0.0
  0
SEQEND
  5
465
  8
回08-記事
  6
CONTINUOUS
 62
     5
  0
TEXT
  5
3BD
  8
回08-記事
  6
CONTINUOUS
 62
     7
 10
3397.41823253919
 20
-1076.336929737167
 30
0.0
 40
3.0
  1
XR
  0
TEXT
  5
3BE
  8
回08-記事
  6
CONTINUOUS
 62
     7
 10
3288.750081752933
 20
-1075.457774305599
 30
0.0
 40
3.0
  1
XL
  0
LINE
  5
3BF
  8
回08-記事
  6
CENTER
 62
     7
 10
3402.753963680944
 20
-1071.72578671372
 30
0.0
 11
3287.053963680943
 21
-1071.72578671372
 31
0.0
  0
POLYLINE
  5
3C0
  8
回04-下接
  6
CONTINUOUS
 62
     7
 66
     1
 10
0.0
 20
0.0
 30
0.0
 70
     1
  0
VERTEX
  5
469
  8
回04-下接
  6
CONTINUOUS
 62
     7
 10
3277.453963680943
 20
-1123.225786713719
 30
0.0
  0
VERTEX
  5
46B
  8
回04-下接
  6
CONTINUOUS
 62
     7
 10
3277.453963680943
 20
-1020.225786713718
 30
0.0
  0
VERTEX
  5
46C
  8
回04-下接
  6
CONTINUOUS
 62
     7
 10
3408.853963680944
 20
-1020.225786713718
 30
0.0
  0
VERTEX
  5
46D
  8
回04-下接
  6
CONTINUOUS
 62
     7
 10
3408.853963680943
 20
-1123.22578671372
 30
0.0
  0
SEQEND
  5
46A
  8
回08-記事
  6
CONTINUOUS
 62
     5
  0
POLYLINE
  5
3C4
  8
回05-ﾃｰﾙ
  6
BYBLOCK
 62
     7
 66
     1
 10
0.0
 20
0.0
 30
0.0
  0
VERTEX
  5
46E
  8
回05-ﾃｰﾙ
  6
BYBLOCK
 62
     7
 10
3275.27568817795
 20
-1072.225314536998
 30
0.0
 42
-1.021970931653832
  0
VERTEX
  5
470
  8
回05-ﾃｰﾙ
  6
BYBLOCK
 62
     7
 10
3275.253963680943
 20
-1071.225786713719
 30
0.0
  0
VERTEX
  5
471
  8
回05-ﾃｰﾙ
  6
BYBLOCK
 62
     7
 10
3280.753963680944
 20
-1071.225786713719
 30
0.0
  0
VERTEX
  5
472
  8
回05-ﾃｰﾙ
  6
BYBLOCK
 62
     7
 10
3280.753963680944
 20
-1061.725786713719
 30
0.0
  0
VERTEX
  5
473
  8
回05-ﾃｰﾙ
  6
BYBLOCK
 62
     7
 10
3277.753963680944
 20
-1061.725786513996
 30
0.0
 42
-0.4140826732844626
  0
VERTEX
  5
474
  8
回05-ﾃｰﾙ
  6
BYBLOCK
 62
     7
 10
3275.754857488875
 20
-1063.725786314273
 30
0.0
  0
VERTEX
  5
475
  8
回05-ﾃｰﾙ
  6
BYBLOCK
 62
     7
 10
3273.062033772577
 20
-1063.726989747991
 30
0.0
 42
0.1982655609048594
  0
VERTEX
  5
476
  8
回05-ﾃｰﾙ
  6
BYBLOCK
 62
     7
 10
3272.356819393453
 20
-1064.018440317775
 30
0.0
  0
VERTEX
  5
477
  8
回05-ﾃｰﾙ
  6
BYBLOCK
 62
     7
 10
3268.048362395257
 20
-1068.309336044074
 30
0.0
 42
-0.1983816813359043
  0
VERTEX
  5
478
  8
回05-ﾃｰﾙ
  6
BYBLOCK
 62
     7
 10
3267.342701112166
 20
-1068.600786713719
 30
0.0
  0
VERTEX
  5
479
  8
回05-ﾃｰﾙ
  6
BYBLOCK
 62
     7
 10
3197.753920170176
 20
-1068.600786713719
 30
0.0
 42
0.4142135623730951
  0
VERTEX
  5
47A
  8
回05-ﾃｰﾙ
  6
BYBLOCK
 62
     7
 10
3197.253920170176
 20
-1069.100786713719
 30
0.0
  0
VERTEX
  5
47B
  8
回05-ﾃｰﾙ
  6
BYBLOCK
 62
     7
 10
3197.253920170176
 20
-1074.350786713719
 30
0.0
 42
0.4142135623730951
  0
VERTEX
  5
47C
  8
回05-ﾃｰﾙ
  6
BYBLOCK
 62
     7
 10
3197.753920170176
 20
-1074.850786713719
 30
0.0
  0
VERTEX
  5
47D
  8
回05-ﾃｰﾙ
  6
BYBLOCK
 62
     7
 10
3267.345320213932
 20
-1074.854811380971
 30
0.0
 42
-0.1982460661155194
  0
VERTEX
  5
47E
  8
回05-ﾃｰﾙ
  6
BYBLOCK
 62
     7
 10
3268.050594749587
 20
-1075.14593462702
 30
0.0
  0
VERTEX
  5
47F
  8
回05-ﾃｰﾙ
  6
BYBLOCK
 62
     7
 10
3272.360874989767
 20
-1079.434663465998
 30
0.0
 42
0.1982610926034028
  0
VERTEX
  5
480
  8
回05-ﾃｰﾙ
  6
BYBLOCK
 62
     7
 10
3273.066207358283
 20
-1079.725786713719
 30
0.0
  0
VERTEX
  5
481
  8
回05-ﾃｰﾙ
  6
BYBLOCK
 62
     7
 10
3275.753963680943
 20
-1079.725786713719
 30
0.0
 42
-0.4142135623730951
  0
VERTEX
  5
482
  8
回05-ﾃｰﾙ
  6
BYBLOCK
 62
     7
 10
3277.753963680944
 20
-1081.725786713719
 30
0.0
  0
VERTEX
  5
483
  8
回05-ﾃｰﾙ
  6
BYBLOCK
 62
     7
 10
3277.753963680944
 20
-1081.725786713719
 30
0.0
  0
VERTEX
  5
484
  8
回05-ﾃｰﾙ
  6
BYBLOCK
 62
     7
 10
3280.753963680944
 20
-1081.725786713719
 30
0.0
  0
VERTEX
  5
485
  8
回05-ﾃｰﾙ
  6
BYBLOCK
 62
     7
 10
3280.753963680944
 20
-1072.225786713719
 30
0.0
  0
VERTEX
  5
486
  8
回05-ﾃｰﾙ
  6
BYBLOCK
 62
     7
 10
3275.253963680943
 20
-1072.225786713719
 30
0.0
  0
SEQEND
  5
46F
  8
回08-記事
  6
CONTINUOUS
 62
     5
  0
POLYLINE
  5
3C8
  8
回08-記事
  6
CONTINUOUS
 62
     7
 66
     1
 10
0.0
 20
0.0
 30
0.0
 70
     1
  0
VERTEX
  5
487
  8
回08-記事
  6
CONTINUOUS
 62
     7
 10
3403.003963680945
 20
-1028.275786713721
 30
0.0
  0
VERTEX
  5
489
  8
回08-記事
  6
CONTINUOUS
 62
     7
 10
3403.003963680945
 20
-1115.175786713721
 30
0.0
  0
VERTEX
  5
48A
  8
回08-記事
  6
CONTINUOUS
 62
     7
 10
3287.303963680944
 20
-1115.175786713721
 30
0.0
  0
VERTEX
  5
48B
  8
回08-記事
  6
CONTINUOUS
 62
     7
 10
3287.303963680945
 20
-1028.27578671372
 30
0.0
  0
SEQEND
  5
488
  8
回08-記事
  6
CONTINUOUS
 62
     5
  0
POLYLINE
  5
3C9
  8
回08-記事
  6
CONTINUOUS
 62
     7
 66
     1
 10
0.0
 20
0.0
 30
0.0
 70
     1
  0
VERTEX
  5
48C
  8
回08-記事
  6
CONTINUOUS
 62
     7
 10
3405.003963680945
 20
-1026.275786713721
 30
0.0
  0
VERTEX
  5
48E
  8
回08-記事
  6
CONTINUOUS
 62
     7
 10
3405.003963680945
 20
-1117.175786713721
 30
0.0
  0
VERTEX
  5
48F
  8
回08-記事
  6
CONTINUOUS
 62
     7
 10
3285.303963680944
 20
-1117.175786713721
 30
0.0
  0
VERTEX
  5
490
  8
回08-記事
  6
CONTINUOUS
 62
     7
 10
3285.303963680946
 20
-1026.27578671372
 30
0.0
  0
SEQEND
  5
48D
  8
回08-記事
  6
CONTINUOUS
 62
     5
  0
POLYLINE
  5
3CA
  8
回08-記事
  6
CONTINUOUS
 62
     7
 66
     1
 10
0.0
 20
0.0
 30
0.0
 70
     1
1001
ACAD
1000
ASC_BOUNDS
1002
{
1070
    19
1005
3CB
1002
}
  0
VERTEX
  5
491
  8
回08-記事
  6
CONTINUOUS
 62
     7
 10
3282.882235627947
 20
-1073.099069210906
 30
0.0
  0
VERTEX
  5
493
  8
回08-記事
  6
CONTINUOUS
 62
     7
 10
3282.882235627947
 20
-1079.099069210906
 30
0.0
  0
VERTEX
  5
494
  8
回08-記事
  6
CONTINUOUS
 62
     7
 10
3273.882235627946
 20
-1079.099069210906
 30
0.0
  0
VERTEX
  5
495
  8
回08-記事
  6
CONTINUOUS
 62
     7
 10
3273.882235627946
 20
-1073.099069210906
 30
0.0
  0
SEQEND
  5
492
  8
回08-記事
  6
CONTINUOUS
 62
     5
  0
INSERT
  5
3CB
  8
回08-記事
  6
CONTINUOUS
 62
     7
 66
     1
  2
*X46
 10
0.0
 20
0.0
 30
0.0
1001
GRADIENTCOLOR1ACI
1070
     5
1001
GRADIENTCOLOR2ACI
1070
     2
1001
ACAD
1010
0.0
1020
0.0
1030
0.0
  0
SEQEND
  5
4A0
  8
回08-記事
  6
CONTINUOUS
 62
     5
  0
ENDSEC
  0
EOF
