  0
SECTION
  2
HEADER
  9
$ACADVER
  1
AC1009
  9
$INSBASE
 10
0.0
 20
0.0
 30
0.0
  9
$EXTMIN
 10
3190.095691797219
 20
276.3882001559459
 30
0.0
  9
$EXTMAX
 10
3703.095691797219
 20
631.8882001559459
 30
0.0
  9
$LIMMIN
 10
0.0
 20
0.0
  9
$LIMMAX
 10
3000.0
 20
2500.0
  9
$ORTHOMODE
 70
     0
  9
$REGENMODE
 70
     1
  9
$FILLMODE
 70
     1
  9
$QTEXTMODE
 70
     0
  9
$MIRRTEXT
 70
     1
  9
$DRAGMODE
 70
     2
  9
$LTSCALE
 40
10.0
  9
$OSMODE
 70
    37
  9
$ATTMODE
 70
     1
  9
$TEXTSIZE
 40
3.0
  9
$TRACEWID
 40
1.0
  9
$TEXTSTYLE
  7
STANDARD
  9
$CLAYER
  8
0
  9
$CELTYPE
  6
CONTINUOUS
  9
$CECOLOR
 62
     5
  9
$DIMSCALE
 40
1.0
  9
$DIMASZ
 40
2.0
  9
$DIMEXO
 40
0.0
  9
$DIMDLI
 40
0.0
  9
$DIMRND
 40
0.0
  9
$DIMDLE
 40
0.0
  9
$DIMEXE
 40
1.0
  9
$DIMTP
 40
0.2
  9
$DIMTM
 40
0.2
  9
$DIMTXT
 40
3.0
  9
$DIMCEN
 40
2.0
  9
$DIMTSZ
 40
0.0
  9
$DIMTOL
 70
     0
  9
$DIMLIM
 70
     0
  9
$DIMTIH
 70
     0
  9
$DIMTOH
 70
     0
  9
$DIMSE1
 70
     0
  9
$DIMSE2
 70
     0
  9
$DIMTAD
 70
     3
  9
$DIMZIN
 70
     8
  9
$DIMBLK
  1
OPEN
  9
$DIMASO
 70
     1
  9
$DIMSHO
 70
     1
  9
$DIMPOST
  1

  9
$DIMAPOST
  1

  9
$DIMALT
 70
     0
  9
$DIMALTD
 70
     3
  9
$DIMALTF
 40
0.03937007874016
  9
$DIMLFAC
 40
1.0
  9
$DIMTOFL
 70
     1
  9
$DIMTVP
 40
0.0
  9
$DIMTIX
 70
     0
  9
$DIMSOXD
 70
     0
  9
$DIMSAH
 70
     0
  9
$DIMBLK1
  1

  9
$DIMBLK2
  1

  9
$DIMSTYLE
  2
DMC
  9
$DIMCLRD
 70
     5
  9
$DIMCLRE
 70
     5
  9
$DIMCLRT
 70
     5
  9
$DIMTFAC
 40
0.7
  9
$DIMGAP
 40
0.5
  9
$LUNITS
 70
     2
  9
$LUPREC
 70
     4
  9
$SKETCHINC
 40
1.0
  9
$FILLETRAD
 40
0.4999999999995319
  9
$AUNITS
 70
     0
  9
$AUPREC
 70
     0
  9
$MENU
  1
.
  9
$ELEVATION
 40
0.0
  9
$PELEVATION
 40
0.0
  9
$THICKNESS
 40
0.0
  9
$LIMCHECK
 70
     0
  9
$BLIPMODE
 70
     0
  9
$CHAMFERA
 40
10.0
  9
$CHAMFERB
 40
10.0
  9
$SKPOLY
 70
     0
  9
$TDCREATE
 40
2451810.404221065
  9
$TDUPDATE
 40
2460199.712105775
  9
$TDINDWG
 40
4.965911528
  9
$TDUSRTIMER
 40
2458367.768250671
  9
$USRTIMER
 70
     1
  9
$ANGBASE
 50
0.0
  9
$ANGDIR
 70
     0
  9
$PDMODE
 70
     0
  9
$PDSIZE
 40
0.0
  9
$PLINEWID
 40
1.199999999999999
  9
$COORDS
 70
     0
  9
$SPLFRAME
 70
     0
  9
$SPLINETYPE
 70
     6
  9
$SPLINESEGS
 70
     8
  9
$ATTDIA
 70
     1
  9
$ATTREQ
 70
     1
  9
$HANDLING
 70
     1
  9
$HANDSEED
  5
45D17
  9
$SURFTAB1
 70
     6
  9
$SURFTAB2
 70
     6
  9
$SURFTYPE
 70
     6
  9
$SURFU
 70
     6
  9
$SURFV
 70
     6
  9
$UCSNAME
  2

  9
$UCSORG
 10
9.726860926261224
 20
69.15130936889301
 30
0.0
  9
$UCSXDIR
 10
1.0
 20
0.0
 30
0.0
  9
$UCSYDIR
 10
0.0
 20
1.0
 30
0.0
  9
$PUCSNAME
  2

  9
$PUCSORG
 10
0.0
 20
0.0
 30
0.0
  9
$PUCSXDIR
 10
1.0
 20
0.0
 30
0.0
  9
$PUCSYDIR
 10
0.0
 20
1.0
 30
0.0
  9
$USERI1
 70
     0
  9
$USERI2
 70
     0
  9
$USERI3
 70
     0
  9
$USERI4
 70
     0
  9
$USERI5
 70
     0
  9
$USERR1
 40
0.0
  9
$USERR2
 40
0.0
  9
$USERR3
 40
0.0
  9
$USERR4
 40
0.0
  9
$USERR5
 40
0.0
  9
$WORLDVIEW
 70
     1
  9
$SHADEDGE
 70
     3
  9
$SHADEDIF
 70
    70
  9
$TILEMODE
 70
     1
  9
$MAXACTVP
 70
    64
  9
$PLIMCHECK
 70
     0
  9
$PEXTMIN
 10
1.000000000000000E+20
 20
1.000000000000000E+20
 30
1.000000000000000E+20
  9
$PEXTMAX
 10
-1.000000000000000E+20
 20
-1.000000000000000E+20
 30
-1.000000000000000E+20
  9
$PLIMMIN
 10
0.0
 20
0.0
  9
$PLIMMAX
 10
420.0
 20
297.0
  9
$UNITMODE
 70
     0
  9
$VISRETAIN
 70
     1
  9
$PLINEGEN
 70
     0
  9
$PSLTSCALE
 70
     1
  0
ENDSEC
  0
SECTION
  2
TABLES
  0
TABLE
  2
VPORT
 70
     1
  0
VPORT
  2
*ACTIVE
 70
     0
 10
0.0
 20
0.0
 11
1.0
 21
1.0
 12
3490.614652289827
 22
443.0414247023199
 13
0.0
 23
0.0
 14
10.0
 24
10.0
 15
10.0
 25
10.0
 16
0.0
 26
0.0
 36
1.0
 17
0.0
 27
0.0
 37
0.0
 40
505.8746457399572
 41
2.16030534351145
 42
50.0
 43
0.0
 44
0.0
 50
0.0
 51
0.0
 71
    16
 72
 20000
 73
     1
 74
     1
 75
     0
 76
     0
 77
     0
 78
     0
  0
ENDTAB
  0
TABLE
  2
LTYPE
 70
     3
  0
LTYPE
  2
CONTINUOUS
 70
     0
  3
Solid line
 72
    65
 73
     0
 40
0.0
  0
LTYPE
  2
CENTER2
 70
     0
  3
Center (.5x) ___ _ ___ _ ___ _ ___ _ ___ _ ___
 72
    65
 73
     4
 40
28.575
 49
19.05
 49
-3.174999999999999
 49
3.174999999999999
 49
-3.174999999999999
  0
LTYPE
  2
PHANTOM2
 70
     0
  3
___ _ _ ___ _ _ ___ _ _ ___ _ _ ___ _ _ ___ _ _
 72
    65
 73
     6
 40
1.25
 49
0.625
 49
-0.125
 49
0.125
 49
-0.125
 49
0.125
 49
-0.125
  0
ENDTAB
  0
TABLE
  2
LAYER
 70
    15
  0
LAYER
  2
0
 70
     0
 62
     7
  6
CONTINUOUS
  0
LAYER
  2
DEFPOINTS
 70
     0
 62
     7
  6
CONTINUOUS
  0
LAYER
  2
回04-下接
 70
     0
 62
     7
  6
CONTINUOUS
  0
LAYER
  2
回07-寸法
 70
     0
 62
     7
  6
CONTINUOUS
  0
LAYER
  2
回90-枠2
 70
     0
 62
     7
  6
CONTINUOUS
  0
LAYER
  2
回02-上接
 70
     0
 62
     7
  6
CONTINUOUS
  0
LAYER
  2
回03-下ER
 70
     0
 62
     7
  6
CONTINUOUS
  0
LAYER
  2
回01-上ER
 70
     0
 62
     7
  6
CONTINUOUS
  0
LAYER
  2
回08-記事
 70
     0
 62
     7
  6
CONTINUOUS
  0
LAYER
  2
回06-TH
 70
     0
 62
     7
  6
CONTINUOUS
  0
LAYER
  2
回05-ﾃｰﾙ
 70
     0
 62
     7
  6
CONTINUOUS
  0
LAYER
  2
回04-図面枠
 70
     0
 62
     7
  6
CONTINUOUS
  0
LAYER
  2
回01-TP外形
 70
     0
 62
     7
  6
CONTINUOUS
  0
LAYER
  2
回02-寸法
 70
     0
 62
     7
  6
CONTINUOUS
  0
LAYER
  2
回03-記事
 70
     0
 62
     7
  6
CONTINUOUS
  0
ENDTAB
  0
TABLE
  2
STYLE
 70
     1
  0
STYLE
  2
STANDARD
 70
     0
 40
3.0
 41
1.0
 50
0.0
 71
     0
 42
3.0
  3
isocp.shx
  4
bigfont.shx
  0
ENDTAB
  0
TABLE
  2
VIEW
 70
     0
  0
ENDTAB
  0
TABLE
  2
UCS
 70
     0
  0
ENDTAB
  0
TABLE
  2
APPID
 70
    13
  0
APPID
  2
ACAD
 70
     0
  0
APPID
  2
ACAECLAYERSTANDARD
 70
     0
  0
APPID
  2
ACAD_EXEMPT_FROM_CAD_STAND
 70
     0
  0
APPID
  2
ACAD_PSEXT
 70
     0
  0
APPID
  2
ACAD_NAV_VCDISPLAY
 70
     0
  0
APPID
  2
ACAD_MLEADERVER
 70
     0
  0
APPID
  2
ACCMTRANSPARENCY
 70
     0
  0
APPID
  2
ACADSTRINGINFO
 70
     0
  0
APPID
  2
ACAD_DSTYLE_DIMRADIAL_EXTE
 70
     0
  0
APPID
  2
GRADIENTCOLOR1ACI
 70
     0
  0
APPID
  2
GRADIENTCOLOR2ACI
 70
     0
  0
APPID
  2
ACADANNOMONITORALERTICONDI
 70
     0
  0
APPID
  2
ACAD_DSTYLE_DIMJOGGED_JOGA
 70
     0
  0
ENDTAB
  0
TABLE
  2
DIMSTYLE
 70
     4
  0
DIMSTYLE
  2
DMC
 70
     0
  3

  4

  5
OPEN
  6

  7

 40
1.0
 41
2.0
 42
0.0
 43
0.0
 44
1.0
 45
0.0
 46
0.0
 47
0.0
 48
0.0
140
3.0
141
2.0
142
0.0
143
0.03937007874016
144
1.0
145
0.0
146
0.7
147
0.5
 71
     0
 72
     0
 73
     0
 74
     0
 75
     0
 76
     0
 77
     3
 78
     8
170
     0
171
     3
172
     1
173
     0
174
     0
175
     0
176
     5
177
     5
178
     5
  0
DIMSTYLE
  2
STANDARD
 70
     0
  3

  4

  5

  6

  7

 40
1.0
 41
0.18
 42
0.0625
 43
0.38
 44
0.18
 45
0.0
 46
0.0
 47
0.0
 48
0.0
140
0.18
141
0.09
142
0.0
143
25.4
144
1.0
145
0.0
146
1.0
147
0.09
 71
     0
 72
     0
 73
     1
 74
     1
 75
     0
 76
     0
 77
     0
 78
     0
170
     0
171
     2
172
     0
173
     0
174
     0
175
     0
176
     0
177
     0
178
     0
  0
DIMSTYLE
  2
RUISIN
 70
     0
  3

  4

  5

  6
OPEN
  7
OPEN
 40
1.0
 41
2.0
 42
0.0
 43
0.0
 44
1.0
 45
0.0
 46
0.0
 47
0.0
 48
0.0
140
3.0
141
2.0
142
0.0
143
25.4
144
1.0
145
0.0
146
1.0
147
0.5
 71
     0
 72
     0
 73
     0
 74
     0
 75
     0
 76
     0
 77
     3
 78
     8
170
     0
171
     2
172
     1
173
     1
174
     0
175
     0
176
     5
177
     5
178
     5
  0
DIMSTYLE
  2
KOUSA
 70
     0
  3

  4

  5

  6
OPEN
  7
OPEN
 40
1.0
 41
2.0
 42
0.0
 43
0.0
 44
1.0
 45
0.0
 46
0.0
 47
0.1
 48
0.1
140
3.0
141
2.0
142
0.0
143
25.4
144
1.0
145
0.0
146
0.7
147
0.5
 71
     1
 72
     0
 73
     0
 74
     0
 75
     0
 76
     0
 77
     3
 78
     8
170
     0
171
     2
172
     1
173
     1
174
     0
175
     0
176
     5
177
     5
178
     5
  0
ENDTAB
  0
ENDSEC
  0
SECTION
  2
BLOCKS
  0
BLOCK
  8
0
  2
$MODEL_SPACE
 70
     0
 10
0.0
 20
0.0
 30
0.0
  3
$MODEL_SPACE
  1

  0
ENDBLK
  8
0
  5
21
  0
BLOCK
 67
     1
  8
0
  2
$PAPER_SPACE
 70
     0
 10
0.0
 20
0.0
 30
0.0
  3
$PAPER_SPACE
  1

  0
ENDBLK
  5
1D
 67
     1
  8
0
  0
BLOCK
  8
0
  2
_OPEN
 70
     0
 10
0.0
 20
0.0
 30
0.0
  3
_OPEN
  1

  0
LINE
  5
4A
  8
0
  6
CONTINUOUS
 62
     0
 10
-1.0
 20
0.1666666666666666
 30
0.0
 11
0.0
 21
0.0
 31
0.0
  0
LINE
  5
4B
  8
0
  6
CONTINUOUS
 62
     0
 10
-1.0
 20
-0.1666666666666666
 30
0.0
 11
0.0
 21
0.0
 31
0.0
  0
LINE
  5
4C
  8
0
  6
CONTINUOUS
 62
     0
 10
0.0
 20
0.0
 30
0.0
 11
-1.0
 21
0.0
 31
0.0
  0
ENDBLK
  5
4E
  8
0
  0
BLOCK
  8
0
  2
_DOTSMALL
 70
     0
 10
0.0
 20
0.0
 30
0.0
  3
_DOTSMALL
  1

  0
POLYLINE
  5
41EA7
  8
0
  6
BYBLOCK
 62
     0
 66
     1
 10
0.0
 20
0.0
 30
0.0
 70
     1
 40
0.5
 41
0.5
  0
VERTEX
  5
45CC0
  8
0
  6
BYBLOCK
 62
     0
 10
-0.0625
 20
0.0
 30
0.0
 42
1.0
  0
VERTEX
  5
45CC2
  8
0
  6
BYBLOCK
 62
     0
 10
0.0625
 20
0.0
 30
0.0
 42
1.0
  0
SEQEND
  5
45CC1
  8
0
  6
CONTINUOUS
 62
     5
  0
ENDBLK
  5
41EA9
  8
0
 62
     7
  0
BLOCK
  8
0
  2
*D5
 70
     1
 10
0.0
 20
0.0
 30
0.0
  3
*D5
  1

  0
LINE
  5
458FB
  8
回07-寸法
  6
CONTINUOUS
 62
     5
 10
3511.327008008866
 20
438.5616923408639
 30
0.0
 11
3556.710422431482
 21
438.5616923408639
 31
0.0
  0
LINE
  5
458FC
  8
回07-寸法
  6
CONTINUOUS
 62
     5
 10
3511.327008008866
 20
535.101692340864
 30
0.0
 11
3556.710422431482
 21
535.101692340864
 31
0.0
  0
LINE
  5
458FD
  8
回07-寸法
  6
CONTINUOUS
 62
     5
 10
3555.710422431483
 20
440.561692340864
 30
0.0
 11
3555.710422431483
 21
533.101692340864
 31
0.0
  0
INSERT
  5
458FE
  8
回07-寸法
  6
CONTINUOUS
 62
     5
  2
_OPEN
 10
3555.710422431483
 20
438.5616923408639
 30
0.0
 41
2.0
 42
2.0
 43
2.0
 50
270.0
  0
INSERT
  5
458FF
  8
回07-寸法
  6
CONTINUOUS
 62
     5
  2
_OPEN
 10
3555.710422431483
 20
535.101692340864
 30
0.0
 41
2.0
 42
2.0
 43
2.0
 50
90.0
  0
TEXT
  5
45900
  8
回07-寸法
  6
CONTINUOUS
 62
     5
 10
3555.210422431482
 20
482.0208612352821
 30
0.0
 40
3.0
  1
96.54
 50
90.0
1001
ACAD
1000
MTEXTBEGIN
1070
    73
1070
     1
1070
    44
1040
1.0
1070
    74
1070
     0
1000
MTEXTEND
  0
POINT
  5
45901
  8
DEFPOINTS
  6
CONTINUOUS
 62
     0
 10
3511.327008008866
 20
438.5616923408639
 30
0.0
  0
POINT
  5
45902
  8
DEFPOINTS
  6
CONTINUOUS
 62
     0
 10
3511.327008008866
 20
535.101692340864
 30
0.0
  0
POINT
  5
45903
  8
DEFPOINTS
  6
CONTINUOUS
 62
     0
 10
3555.710422431483
 20
535.101692340864
 30
0.0
  0
ENDBLK
  5
456B6
  8
0
 62
     5
  0
BLOCK
  8
0
  2
*D6
 70
     1
 10
0.0
 20
0.0
 30
0.0
  3
*D6
  1

  0
LINE
  5
45904
  8
回07-寸法
  6
CONTINUOUS
 62
     5
 10
3354.427008008864
 20
535.1016923408637
 30
0.0
 11
3354.427008008864
 21
563.188093656292
 31
0.0
  0
LINE
  5
45905
  8
回07-寸法
  6
CONTINUOUS
 62
     5
 10
3511.327008008863
 20
535.1016923408637
 30
0.0
 11
3511.327008008863
 21
563.188093656292
 31
0.0
  0
LINE
  5
45906
  8
回07-寸法
  6
CONTINUOUS
 62
     5
 10
3356.427008008863
 20
562.188093656292
 30
0.0
 11
3509.327008008864
 21
562.188093656292
 31
0.0
  0
INSERT
  5
45907
  8
回07-寸法
  6
CONTINUOUS
 62
     5
  2
_OPEN
 10
3354.427008008864
 20
562.188093656292
 30
0.0
 41
2.0
 42
2.0
 43
2.0
 50
180.0
  0
INSERT
  5
45908
  8
回07-寸法
  6
CONTINUOUS
 62
     5
  2
_OPEN
 10
3511.327008008863
 20
562.188093656292
 30
0.0
 41
2.0
 42
2.0
 43
2.0
  0
TEXT
  5
45909
  8
回07-寸法
  6
CONTINUOUS
 62
     5
 10
3428.521592456073
 20
562.688093656292
 30
0.0
 40
3.0
  1
156.9
1001
ACAD
1000
MTEXTBEGIN
1070
    73
1070
     1
1070
    44
1040
1.0
1070
    74
1070
     0
1000
MTEXTEND
  0
POINT
  5
4590A
  8
DEFPOINTS
  6
CONTINUOUS
 62
     0
 10
3354.427008008864
 20
535.1016923408637
 30
0.0
  0
POINT
  5
4590B
  8
DEFPOINTS
  6
CONTINUOUS
 62
     0
 10
3511.327008008863
 20
535.1016923408637
 30
0.0
  0
POINT
  5
4590C
  8
DEFPOINTS
  6
CONTINUOUS
 62
     0
 10
3511.327008008863
 20
562.188093656292
 30
0.0
  0
ENDBLK
  5
456C2
  8
0
 62
     5
  0
BLOCK
  8
0
  2
*D7
 70
     1
 10
0.0
 20
0.0
 30
0.0
  3
*D7
  1

  0
LINE
  5
4590D
  8
回07-寸法
  6
CONTINUOUS
 62
     5
 10
3356.427008008863
 20
532.8016923408638
 30
0.0
 11
3356.427008008863
 21
548.7503293231618
 31
0.0
  0
LINE
  5
4590E
  8
回07-寸法
  6
CONTINUOUS
 62
     5
 10
3349.127008008863
 20
538.8316923408638
 30
0.0
 11
3349.127008008863
 21
548.7503293231618
 31
0.0
  0
LINE
  5
4590F
  8
回07-寸法
  6
CONTINUOUS
 62
     5
 10
3358.427008008864
 20
547.7503293231618
 30
0.0
 11
3360.427008008864
 21
547.7503293231618
 31
0.0
  0
LINE
  5
45910
  8
回07-寸法
  6
CONTINUOUS
 62
     5
 10
3347.127008008864
 20
547.7503293231618
 30
0.0
 11
3339.802743940152
 21
547.7503293231618
 31
0.0
  0
LINE
  5
45911
  8
回07-寸法
  6
CONTINUOUS
 62
     5
 10
3356.427008008863
 20
547.7503293231618
 30
0.0
 11
3349.127008008863
 21
547.7503293231618
 31
0.0
  0
INSERT
  5
45912
  8
回07-寸法
  6
CONTINUOUS
 62
     5
  2
_OPEN
 10
3356.427008008863
 20
547.7503293231618
 30
0.0
 41
2.0
 42
2.0
 43
2.0
 50
180.0
  0
INSERT
  5
45913
  8
回07-寸法
  6
CONTINUOUS
 62
     5
  2
_OPEN
 10
3349.127008008863
 20
547.7503293231618
 30
0.0
 41
2.0
 42
2.0
 43
2.0
  0
TEXT
  5
45914
  8
回07-寸法
  6
CONTINUOUS
 62
     5
 10
3339.914875974507
 20
548.2503293231618
 30
0.0
 40
3.0
  1
7.3
1001
ACAD
1000
MTEXTBEGIN
1070
    73
1070
     1
1070
    44
1040
1.0
1070
    74
1070
     0
1000
MTEXTEND
  0
POINT
  5
45915
  8
DEFPOINTS
  6
CONTINUOUS
 62
     0
 10
3356.427008008863
 20
532.8016923408638
 30
0.0
  0
POINT
  5
45916
  8
DEFPOINTS
  6
CONTINUOUS
 62
     0
 10
3349.127008008863
 20
538.8316923408638
 30
0.0
  0
POINT
  5
45917
  8
DEFPOINTS
  6
CONTINUOUS
 62
     0
 10
3349.127008008863
 20
547.7503293231618
 30
0.0
  0
ENDBLK
  5
456CE
  8
0
 62
     5
  0
BLOCK
  8
0
  2
*D8
 70
     1
 10
0.0
 20
0.0
 30
0.0
  3
*D8
  1

  0
LINE
  5
45918
  8
回07-寸法
  6
CONTINUOUS
 62
     5
 10
3354.927008008864
 20
534.3016923408638
 30
0.0
 11
3354.927008008864
 21
555.6371976121904
 31
0.0
  0
LINE
  5
45919
  8
回07-寸法
  6
CONTINUOUS
 62
     5
 10
3349.127008008863
 20
538.8316923408638
 30
0.0
 11
3349.127008008863
 21
555.6371976121904
 31
0.0
  0
LINE
  5
4591A
  8
回07-寸法
  6
CONTINUOUS
 62
     5
 10
3356.927008008864
 20
554.6371976121904
 30
0.0
 11
3358.927008008864
 21
554.6371976121904
 31
0.0
  0
LINE
  5
4591B
  8
回07-寸法
  6
CONTINUOUS
 62
     5
 10
3347.127008008864
 20
554.6371976121904
 30
0.0
 11
3339.927008008864
 21
554.6371976121904
 31
0.0
  0
LINE
  5
4591C
  8
回07-寸法
  6
CONTINUOUS
 62
     5
 10
3354.927008008864
 20
554.6371976121904
 30
0.0
 11
3349.127008008863
 21
554.6371976121904
 31
0.0
  0
INSERT
  5
4591D
  8
回07-寸法
  6
CONTINUOUS
 62
     5
  2
_OPEN
 10
3354.927008008864
 20
554.6371976121904
 30
0.0
 41
2.0
 42
2.0
 43
2.0
 50
180.0
  0
INSERT
  5
4591E
  8
回07-寸法
  6
CONTINUOUS
 62
     5
  2
_OPEN
 10
3349.127008008863
 20
554.6371976121904
 30
0.0
 41
2.0
 42
2.0
 43
2.0
  0
TEXT
  5
4591F
  8
回07-寸法
  6
CONTINUOUS
 62
     5
 10
3339.977008008864
 20
555.1371976121904
 30
0.0
 40
3.0
  1
5.8
1001
ACAD
1000
MTEXTBEGIN
1070
    73
1070
     1
1070
    44
1040
1.0
1070
    74
1070
     0
1000
MTEXTEND
  0
POINT
  5
45920
  8
DEFPOINTS
  6
CONTINUOUS
 62
     0
 10
3354.927008008864
 20
534.3016923408638
 30
0.0
  0
POINT
  5
45921
  8
DEFPOINTS
  6
CONTINUOUS
 62
     0
 10
3349.127008008863
 20
538.8316923408638
 30
0.0
  0
POINT
  5
45922
  8
DEFPOINTS
  6
CONTINUOUS
 62
     0
 10
3349.127008008863
 20
554.6371976121904
 30
0.0
  0
ENDBLK
  5
456DC
  8
0
 62
     5
  0
BLOCK
  8
0
  2
*D9
 70
     1
 10
0.0
 20
0.0
 30
0.0
  3
*D9
  1

  0
LINE
  5
45A40
  8
回07-寸法
  6
CONTINUOUS
 62
     5
 10
3354.427008008864
 20
535.1016923408637
 30
0.0
 11
3354.427008008864
 21
563.188093656292
 31
0.0
  0
LINE
  5
45A41
  8
回07-寸法
  6
CONTINUOUS
 62
     5
 10
3349.127008008863
 20
538.8316923408638
 30
0.0
 11
3349.127008008863
 21
563.188093656292
 31
0.0
  0
LINE
  5
45A42
  8
回07-寸法
  6
CONTINUOUS
 62
     5
 10
3356.427008008863
 20
562.188093656292
 30
0.0
 11
3358.427008008864
 21
562.188093656292
 31
0.0
  0
LINE
  5
45A43
  8
回07-寸法
  6
CONTINUOUS
 62
     5
 10
3347.127008008864
 20
562.188093656292
 30
0.0
 11
3307.820689111226
 21
562.188093656292
 31
0.0
  0
LINE
  5
45A44
  8
回07-寸法
  6
CONTINUOUS
 62
     5
 10
3354.427008008864
 20
562.188093656292
 30
0.0
 11
3349.127008008863
 21
562.188093656292
 31
0.0
  0
INSERT
  5
45A45
  8
回07-寸法
  6
CONTINUOUS
 62
     5
  2
_OPEN
 10
3354.427008008864
 20
562.188093656292
 30
0.0
 41
2.0
 42
2.0
 43
2.0
 50
180.0
  0
INSERT
  5
45A46
  8
回07-寸法
  6
CONTINUOUS
 62
     5
  2
_OPEN
 10
3349.127008008863
 20
562.188093656292
 30
0.0
 41
2.0
 42
2.0
 43
2.0
  0
TEXT
  5
45A47
  8
回07-寸法
  6
CONTINUOUS
 62
     5
 10
3307.870689111226
 20
562.8418436562919
 30
0.0
 40
3.0
  1
5.3 (Insulation Area)
1001
ACAD
1000
MTEXTBEGIN
1070
    73
1070
     1
1070
    44
1040
1.0
1070
    74
1070
     0
1000
MTEXTEND
  0
POINT
  5
45A48
  8
DEFPOINTS
  6
CONTINUOUS
 62
     0
 10
3354.427008008864
 20
535.1016923408637
 30
0.0
  0
POINT
  5
45A49
  8
DEFPOINTS
  6
CONTINUOUS
 62
     0
 10
3349.127008008863
 20
538.8316923408638
 30
0.0
  0
POINT
  5
45A4A
  8
DEFPOINTS
  6
CONTINUOUS
 62
     0
 10
3349.127008008863
 20
562.188093656292
 30
0.0
  0
ENDBLK
  5
456EA
  8
0
 62
     5
  0
BLOCK
  8
0
  2
*D10
 70
     1
 10
0.0
 20
0.0
 30
0.0
  3
*D10
  1

  0
LINE
  5
4592E
  8
回07-寸法
  6
CONTINUOUS
 62
     5
 10
3509.327008008864
 20
532.8016923408638
 30
0.0
 11
3509.327008008864
 21
548.7503293231618
 31
0.0
  0
LINE
  5
4592F
  8
回07-寸法
  6
CONTINUOUS
 62
     5
 10
3514.127008008864
 20
538.8316923408638
 30
0.0
 11
3514.127008008864
 21
548.7503293231618
 31
0.0
  0
LINE
  5
45930
  8
回07-寸法
  6
CONTINUOUS
 62
     5
 10
3507.327008008863
 20
547.7503293231618
 30
0.0
 11
3505.327008008863
 21
547.7503293231618
 31
0.0
  0
LINE
  5
45931
  8
回07-寸法
  6
CONTINUOUS
 62
     5
 10
3516.127008008864
 20
547.7503293231618
 30
0.0
 11
3526.024645804139
 21
547.7503293231618
 31
0.0
  0
LINE
  5
45932
  8
回07-寸法
  6
CONTINUOUS
 62
     5
 10
3509.327008008864
 20
547.7503293231618
 30
0.0
 11
3514.127008008864
 21
547.7503293231618
 31
0.0
  0
INSERT
  5
45933
  8
回07-寸法
  6
CONTINUOUS
 62
     5
  2
_OPEN
 10
3509.327008008864
 20
547.7503293231618
 30
0.0
 41
2.0
 42
2.0
 43
2.0
  0
INSERT
  5
45934
  8
回07-寸法
  6
CONTINUOUS
 62
     5
  2
_OPEN
 10
3514.127008008864
 20
547.7503293231618
 30
0.0
 41
2.0
 42
2.0
 43
2.0
 50
180.0
  0
TEXT
  5
45935
  8
回07-寸法
  6
CONTINUOUS
 62
     5
 10
3518.175826906502
 20
548.4003293231618
 30
0.0
 40
3.0
  1
(4.8)
1001
ACAD
1000
MTEXTBEGIN
1070
    73
1070
     1
1070
    44
1040
1.0
1070
    74
1070
     0
1000
MTEXTEND
  0
POINT
  5
45936
  8
DEFPOINTS
  6
CONTINUOUS
 62
     0
 10
3509.327008008864
 20
532.8016923408638
 30
0.0
  0
POINT
  5
45937
  8
DEFPOINTS
  6
CONTINUOUS
 62
     0
 10
3514.127008008864
 20
538.8316923408638
 30
0.0
  0
POINT
  5
45938
  8
DEFPOINTS
  6
CONTINUOUS
 62
     0
 10
3514.127008008864
 20
547.7503293231618
 30
0.0
  0
ENDBLK
  5
456F8
  8
0
 62
     5
  0
BLOCK
  8
0
  2
*D11
 70
     1
 10
0.0
 20
0.0
 30
0.0
  3
*D11
  1

  0
LINE
  5
45939
  8
回07-寸法
  6
CONTINUOUS
 62
     5
 10
3510.827008008863
 20
534.3016923408638
 30
0.0
 11
3510.827008008863
 21
555.6371976121904
 31
0.0
  0
LINE
  5
4593A
  8
回07-寸法
  6
CONTINUOUS
 62
     5
 10
3514.127008008864
 20
538.8316923408638
 30
0.0
 11
3514.127008008864
 21
555.6371976121904
 31
0.0
  0
LINE
  5
4593B
  8
回07-寸法
  6
CONTINUOUS
 62
     5
 10
3508.827008008863
 20
554.6371976121904
 30
0.0
 11
3506.827008008863
 21
554.6371976121904
 31
0.0
  0
LINE
  5
4593C
  8
回07-寸法
  6
CONTINUOUS
 62
     5
 10
3516.127008008864
 20
554.6371976121904
 30
0.0
 11
3525.724645804139
 21
554.6371976121904
 31
0.0
  0
LINE
  5
4593D
  8
回07-寸法
  6
CONTINUOUS
 62
     5
 10
3510.827008008863
 20
554.6371976121904
 30
0.0
 11
3514.127008008864
 21
554.6371976121904
 31
0.0
  0
INSERT
  5
4593E
  8
回07-寸法
  6
CONTINUOUS
 62
     5
  2
_OPEN
 10
3510.827008008863
 20
554.6371976121904
 30
0.0
 41
2.0
 42
2.0
 43
2.0
  0
INSERT
  5
4593F
  8
回07-寸法
  6
CONTINUOUS
 62
     5
  2
_OPEN
 10
3514.127008008864
 20
554.6371976121904
 30
0.0
 41
2.0
 42
2.0
 43
2.0
 50
180.0
  0
TEXT
  5
45940
  8
回07-寸法
  6
CONTINUOUS
 62
     5
 10
3518.175826906502
 20
555.2871976121904
 30
0.0
 40
3.0
  1
(3.3)
1001
ACAD
1000
MTEXTBEGIN
1070
    73
1070
     1
1070
    44
1040
1.0
1070
    74
1070
     0
1000
MTEXTEND
  0
POINT
  5
45941
  8
DEFPOINTS
  6
CONTINUOUS
 62
     0
 10
3510.827008008863
 20
534.3016923408638
 30
0.0
  0
POINT
  5
45942
  8
DEFPOINTS
  6
CONTINUOUS
 62
     0
 10
3514.127008008864
 20
538.8316923408638
 30
0.0
  0
POINT
  5
45943
  8
DEFPOINTS
  6
CONTINUOUS
 62
     0
 10
3514.127008008864
 20
554.6371976121904
 30
0.0
  0
ENDBLK
  5
45706
  8
0
 62
     5
  0
BLOCK
  8
0
  2
*D12
 70
     1
 10
0.0
 20
0.0
 30
0.0
  3
*D12
  1

  0
LINE
  5
45A56
  8
回07-寸法
  6
CONTINUOUS
 62
     5
 10
3511.327008008863
 20
535.1016923408637
 30
0.0
 11
3511.327008008863
 21
563.188093656292
 31
0.0
  0
LINE
  5
45A57
  8
回07-寸法
  6
CONTINUOUS
 62
     5
 10
3514.127008008864
 20
538.8316923408638
 30
0.0
 11
3514.127008008864
 21
563.188093656292
 31
0.0
  0
LINE
  5
45A58
  8
回07-寸法
  6
CONTINUOUS
 62
     5
 10
3509.327008008864
 20
562.188093656292
 30
0.0
 11
3507.327008008863
 21
562.188093656292
 31
0.0
  0
LINE
  5
45A59
  8
回07-寸法
  6
CONTINUOUS
 62
     5
 10
3516.127008008864
 20
562.188093656292
 30
0.0
 11
3525.724645804139
 21
562.188093656292
 31
0.0
  0
LINE
  5
45A5A
  8
回07-寸法
  6
CONTINUOUS
 62
     5
 10
3511.327008008863
 20
562.188093656292
 30
0.0
 11
3514.127008008864
 21
562.188093656292
 31
0.0
  0
INSERT
  5
45A5B
  8
回07-寸法
  6
CONTINUOUS
 62
     5
  2
_OPEN
 10
3511.327008008863
 20
562.188093656292
 30
0.0
 41
2.0
 42
2.0
 43
2.0
  0
INSERT
  5
45A5C
  8
回07-寸法
  6
CONTINUOUS
 62
     5
  2
_OPEN
 10
3514.127008008864
 20
562.188093656292
 30
0.0
 41
2.0
 42
2.0
 43
2.0
 50
180.0
  0
TEXT
  5
45A5D
  8
回07-寸法
  6
CONTINUOUS
 62
     5
 10
3518.175826906502
 20
562.838093656292
 30
0.0
 40
3.0
  1
(2.8)
1001
ACAD
1000
MTEXTBEGIN
1070
    73
1070
     1
1070
    44
1040
1.0
1070
    74
1070
     0
1000
MTEXTEND
  0
POINT
  5
45A5E
  8
DEFPOINTS
  6
CONTINUOUS
 62
     0
 10
3511.327008008863
 20
535.1016923408637
 30
0.0
  0
POINT
  5
45A5F
  8
DEFPOINTS
  6
CONTINUOUS
 62
     0
 10
3514.127008008864
 20
538.8316923408638
 30
0.0
  0
POINT
  5
45A60
  8
DEFPOINTS
  6
CONTINUOUS
 62
     0
 10
3514.127008008864
 20
562.188093656292
 30
0.0
  0
ENDBLK
  5
45714
  8
0
 62
     5
  0
BLOCK
  8
0
  2
*D13
 70
     1
 10
0.0
 20
0.0
 30
0.0
  3
*D13
  1

  0
LINE
  5
4594F
  8
回07-寸法
  6
CONTINUOUS
 62
     5
 10
3509.327008008865
 20
532.801692340864
 30
0.0
 11
3540.870631612297
 21
532.801692340864
 31
0.0
  0
LINE
  5
45950
  8
回07-寸法
  6
CONTINUOUS
 62
     5
 10
3514.127008008865
 20
538.831692340864
 30
0.0
 11
3540.870631612297
 21
538.831692340864
 31
0.0
  0
LINE
  5
45951
  8
回07-寸法
  6
CONTINUOUS
 62
     5
 10
3539.870631612297
 20
530.801692340864
 30
0.0
 11
3539.870631612297
 21
528.801692340864
 31
0.0
  0
LINE
  5
45952
  8
回07-寸法
  6
CONTINUOUS
 62
     5
 10
3539.870631612297
 20
540.831692340864
 30
0.0
 11
3539.870631612297
 21
552.5293301361395
 31
0.0
  0
LINE
  5
45953
  8
回07-寸法
  6
CONTINUOUS
 62
     5
 10
3539.870631612297
 20
532.801692340864
 30
0.0
 11
3539.870631612297
 21
538.831692340864
 31
0.0
  0
INSERT
  5
45954
  8
回07-寸法
  6
CONTINUOUS
 62
     5
  2
_OPEN
 10
3539.870631612297
 20
532.801692340864
 30
0.0
 41
2.0
 42
2.0
 43
2.0
 50
90.0
  0
INSERT
  5
45955
  8
回07-寸法
  6
CONTINUOUS
 62
     5
  2
_OPEN
 10
3539.870631612297
 20
538.831692340864
 30
0.0
 41
2.0
 42
2.0
 43
2.0
 50
270.0
  0
TEXT
  5
45956
  8
回07-寸法
  6
CONTINUOUS
 62
     5
 10
3539.220631612296
 20
542.8805112385003
 30
0.0
 40
3.0
  1
(6.03)
 50
90.0
1001
ACAD
1000
MTEXTBEGIN
1070
    73
1070
     1
1070
    44
1040
1.0
1070
    74
1070
     0
1000
MTEXTEND
  0
POINT
  5
45957
  8
DEFPOINTS
  6
CONTINUOUS
 62
     0
 10
3509.327008008865
 20
532.801692340864
 30
0.0
  0
POINT
  5
45958
  8
DEFPOINTS
  6
CONTINUOUS
 62
     0
 10
3514.127008008865
 20
538.831692340864
 30
0.0
  0
POINT
  5
45959
  8
DEFPOINTS
  6
CONTINUOUS
 62
     0
 10
3539.870631612297
 20
538.831692340864
 30
0.0
  0
ENDBLK
  5
45722
  8
0
 62
     5
  0
BLOCK
  8
0
  2
*D14
 70
     1
 10
0.0
 20
0.0
 30
0.0
  3
*D14
  1

  0
LINE
  5
4595A
  8
回07-寸法
  6
CONTINUOUS
 62
     5
 10
3510.827008008865
 20
534.301692340864
 30
0.0
 11
3548.547675812227
 21
534.301692340864
 31
0.0
  0
LINE
  5
4595B
  8
回07-寸法
  6
CONTINUOUS
 62
     5
 10
3514.127008008865
 20
538.831692340864
 30
0.0
 11
3548.547675812227
 21
538.831692340864
 31
0.0
  0
LINE
  5
4595C
  8
回07-寸法
  6
CONTINUOUS
 62
     5
 10
3547.547675812227
 20
532.3016923408641
 30
0.0
 11
3547.547675812227
 21
530.301692340864
 31
0.0
  0
LINE
  5
4595D
  8
回07-寸法
  6
CONTINUOUS
 62
     5
 10
3547.547675812227
 20
540.831692340864
 30
0.0
 11
3547.547675812227
 21
552.8293301361396
 31
0.0
  0
LINE
  5
4595E
  8
回07-寸法
  6
CONTINUOUS
 62
     5
 10
3547.547675812227
 20
534.301692340864
 30
0.0
 11
3547.547675812227
 21
538.831692340864
 31
0.0
  0
INSERT
  5
4595F
  8
回07-寸法
  6
CONTINUOUS
 62
     5
  2
_OPEN
 10
3547.547675812227
 20
534.301692340864
 30
0.0
 41
2.0
 42
2.0
 43
2.0
 50
90.0
  0
INSERT
  5
45960
  8
回07-寸法
  6
CONTINUOUS
 62
     5
  2
_OPEN
 10
3547.547675812227
 20
538.831692340864
 30
0.0
 41
2.0
 42
2.0
 43
2.0
 50
270.0
  0
TEXT
  5
45961
  8
回07-寸法
  6
CONTINUOUS
 62
     5
 10
3546.897675812226
 20
542.8805112385007
 30
0.0
 40
3.0
  1
(4.53)
 50
90.0
1001
ACAD
1000
MTEXTBEGIN
1070
    73
1070
     1
1070
    44
1040
1.0
1070
    74
1070
     0
1000
MTEXTEND
  0
POINT
  5
45962
  8
DEFPOINTS
  6
CONTINUOUS
 62
     0
 10
3510.827008008865
 20
534.301692340864
 30
0.0
  0
POINT
  5
45963
  8
DEFPOINTS
  6
CONTINUOUS
 62
     0
 10
3514.127008008865
 20
538.831692340864
 30
0.0
  0
POINT
  5
45964
  8
DEFPOINTS
  6
CONTINUOUS
 62
     0
 10
3547.547675812227
 20
538.831692340864
 30
0.0
  0
ENDBLK
  5
45730
  8
0
 62
     5
  0
BLOCK
  8
0
  2
*D15
 70
     1
 10
0.0
 20
0.0
 30
0.0
  3
*D15
  1

  0
LINE
  5
45A6C
  8
回07-寸法
  6
CONTINUOUS
 62
     5
 10
3511.327008008866
 20
535.101692340864
 30
0.0
 11
3556.710422431486
 21
535.101692340864
 31
0.0
  0
LINE
  5
45A6D
  8
回07-寸法
  6
CONTINUOUS
 62
     5
 10
3514.127008008865
 20
538.831692340864
 30
0.0
 11
3556.710422431486
 21
538.831692340864
 31
0.0
  0
LINE
  5
45A6E
  8
回07-寸法
  6
CONTINUOUS
 62
     5
 10
3555.710422431487
 20
533.101692340864
 30
0.0
 11
3555.710422431487
 21
531.101692340864
 31
0.0
  0
LINE
  5
45A6F
  8
回07-寸法
  6
CONTINUOUS
 62
     5
 10
3555.710422431487
 20
540.831692340864
 30
0.0
 11
3555.710422431487
 21
552.5293301361395
 31
0.0
  0
LINE
  5
45A70
  8
回07-寸法
  6
CONTINUOUS
 62
     5
 10
3555.710422431487
 20
535.101692340864
 30
0.0
 11
3555.710422431487
 21
538.831692340864
 31
0.0
  0
INSERT
  5
45A71
  8
回07-寸法
  6
CONTINUOUS
 62
     5
  2
_OPEN
 10
3555.710422431487
 20
535.101692340864
 30
0.0
 41
2.0
 42
2.0
 43
2.0
 50
90.0
  0
INSERT
  5
45A72
  8
回07-寸法
  6
CONTINUOUS
 62
     5
  2
_OPEN
 10
3555.710422431487
 20
538.831692340864
 30
0.0
 41
2.0
 42
2.0
 43
2.0
 50
270.0
  0
TEXT
  5
45A73
  8
回07-寸法
  6
CONTINUOUS
 62
     5
 10
3555.060422431485
 20
542.8805112385003
 30
0.0
 40
3.0
  1
(3.73)
 50
90.0
1001
ACAD
1000
MTEXTBEGIN
1070
    73
1070
     1
1070
    44
1040
1.0
1070
    74
1070
     0
1000
MTEXTEND
  0
POINT
  5
45A74
  8
DEFPOINTS
  6
CONTINUOUS
 62
     0
 10
3511.327008008866
 20
535.101692340864
 30
0.0
  0
POINT
  5
45A75
  8
DEFPOINTS
  6
CONTINUOUS
 62
     0
 10
3514.127008008865
 20
538.831692340864
 30
0.0
  0
POINT
  5
45A76
  8
DEFPOINTS
  6
CONTINUOUS
 62
     0
 10
3555.710422431487
 20
538.831692340864
 30
0.0
  0
ENDBLK
  5
4573E
  8
0
 62
     5
  0
BLOCK
  8
0
  2
*D16
 70
     1
 10
0.0
 20
0.0
 30
0.0
  3
*D16
  1

  0
LINE
  5
45970
  8
回07-寸法
  6
CONTINUOUS
 62
     5
 10
3509.327008008865
 20
440.861692340864
 30
0.0
 11
3540.870631612297
 21
440.861692340864
 31
0.0
  0
LINE
  5
45971
  8
回07-寸法
  6
CONTINUOUS
 62
     5
 10
3514.127008008865
 20
434.831692340864
 30
0.0
 11
3540.870631612297
 21
434.831692340864
 31
0.0
  0
LINE
  5
45972
  8
回07-寸法
  6
CONTINUOUS
 62
     5
 10
3539.870631612297
 20
442.861692340864
 30
0.0
 11
3539.870631612297
 21
444.861692340864
 31
0.0
  0
LINE
  5
45973
  8
回07-寸法
  6
CONTINUOUS
 62
     5
 10
3539.870631612297
 20
432.831692340864
 30
0.0
 11
3539.870631612297
 21
423.2279007130969
 31
0.0
  0
LINE
  5
45974
  8
回07-寸法
  6
CONTINUOUS
 62
     5
 10
3539.870631612297
 20
440.861692340864
 30
0.0
 11
3539.870631612297
 21
434.831692340864
 31
0.0
  0
INSERT
  5
45975
  8
回07-寸法
  6
CONTINUOUS
 62
     5
  2
_OPEN
 10
3539.870631612297
 20
440.861692340864
 30
0.0
 41
2.0
 42
2.0
 43
2.0
 50
270.0
  0
INSERT
  5
45976
  8
回07-寸法
  6
CONTINUOUS
 62
     5
  2
_OPEN
 10
3539.870631612297
 20
434.831692340864
 30
0.0
 41
2.0
 42
2.0
 43
2.0
 50
90.0
  0
TEXT
  5
45977
  8
回07-寸法
  6
CONTINUOUS
 62
     5
 10
3539.370631612297
 20
423.4297965269793
 30
0.0
 40
3.0
  1
6.03
 50
90.0
1001
ACAD
1000
MTEXTBEGIN
1070
    73
1070
     1
1070
    44
1040
1.0
1070
    74
1070
     0
1000
MTEXTEND
  0
POINT
  5
45978
  8
DEFPOINTS
  6
CONTINUOUS
 62
     0
 10
3509.327008008865
 20
440.861692340864
 30
0.0
  0
POINT
  5
45979
  8
DEFPOINTS
  6
CONTINUOUS
 62
     0
 10
3514.127008008865
 20
434.831692340864
 30
0.0
  0
POINT
  5
4597A
  8
DEFPOINTS
  6
CONTINUOUS
 62
     0
 10
3539.870631612297
 20
434.831692340864
 30
0.0
  0
ENDBLK
  5
4574C
  8
0
 62
     5
  0
BLOCK
  8
0
  2
*D17
 70
     1
 10
0.0
 20
0.0
 30
0.0
  3
*D17
  1

  0
LINE
  5
4597B
  8
回07-寸法
  6
CONTINUOUS
 62
     5
 10
3510.827008008865
 20
439.3616923408639
 30
0.0
 11
3548.547675812227
 21
439.3616923408639
 31
0.0
  0
LINE
  5
4597C
  8
回07-寸法
  6
CONTINUOUS
 62
     5
 10
3514.127008008865
 20
434.831692340864
 30
0.0
 11
3548.547675812227
 21
434.831692340864
 31
0.0
  0
LINE
  5
4597D
  8
回07-寸法
  6
CONTINUOUS
 62
     5
 10
3547.547675812227
 20
441.361692340864
 30
0.0
 11
3547.547675812227
 21
443.3616923408639
 31
0.0
  0
LINE
  5
4597E
  8
回07-寸法
  6
CONTINUOUS
 62
     5
 10
3547.547675812227
 20
432.831692340864
 30
0.0
 11
3547.547675812227
 21
423.1074282721521
 31
0.0
  0
LINE
  5
4597F
  8
回07-寸法
  6
CONTINUOUS
 62
     5
 10
3547.547675812227
 20
439.3616923408639
 30
0.0
 11
3547.547675812227
 21
434.831692340864
 31
0.0
  0
INSERT
  5
45980
  8
回07-寸法
  6
CONTINUOUS
 62
     5
  2
_OPEN
 10
3547.547675812227
 20
439.3616923408639
 30
0.0
 41
2.0
 42
2.0
 43
2.0
 50
270.0
  0
INSERT
  5
45981
  8
回07-寸法
  6
CONTINUOUS
 62
     5
  2
_OPEN
 10
3547.547675812227
 20
434.831692340864
 30
0.0
 41
2.0
 42
2.0
 43
2.0
 50
90.0
  0
TEXT
  5
45982
  8
回07-寸法
  6
CONTINUOUS
 62
     5
 10
3547.047675812226
 20
423.2195603065069
 30
0.0
 40
3.0
  1
4.53
 50
90.0
1001
ACAD
1000
MTEXTBEGIN
1070
    73
1070
     1
1070
    44
1040
1.0
1070
    74
1070
     0
1000
MTEXTEND
  0
POINT
  5
45983
  8
DEFPOINTS
  6
CONTINUOUS
 62
     0
 10
3510.827008008865
 20
439.3616923408639
 30
0.0
  0
POINT
  5
45984
  8
DEFPOINTS
  6
CONTINUOUS
 62
     0
 10
3514.127008008865
 20
434.831692340864
 30
0.0
  0
POINT
  5
45985
  8
DEFPOINTS
  6
CONTINUOUS
 62
     0
 10
3547.547675812227
 20
434.831692340864
 30
0.0
  0
ENDBLK
  5
4575A
  8
0
 62
     5
  0
BLOCK
  8
0
  2
*D18
 70
     1
 10
0.0
 20
0.0
 30
0.0
  3
*D18
  1

  0
LINE
  5
45A2A
  8
回07-寸法
  6
CONTINUOUS
 62
     5
 10
3511.327008008866
 20
438.5616923408639
 30
0.0
 11
3556.710422431486
 21
438.5616923408639
 31
0.0
  0
LINE
  5
45A2B
  8
回07-寸法
  6
CONTINUOUS
 62
     5
 10
3514.127008008865
 20
434.831692340864
 30
0.0
 11
3556.710422431486
 21
434.831692340864
 31
0.0
  0
LINE
  5
45A2C
  8
回07-寸法
  6
CONTINUOUS
 62
     5
 10
3555.710422431487
 20
440.561692340864
 30
0.0
 11
3555.710422431487
 21
442.5616923408639
 31
0.0
  0
LINE
  5
45A2D
  8
回07-寸法
  6
CONTINUOUS
 62
     5
 10
3555.710422431487
 20
432.831692340864
 30
0.0
 11
3555.710422431487
 21
391.4253734432263
 31
0.0
  0
LINE
  5
45A2E
  8
回07-寸法
  6
CONTINUOUS
 62
     5
 10
3555.710422431487
 20
438.5616923408639
 30
0.0
 11
3555.710422431487
 21
434.831692340864
 31
0.0
  0
INSERT
  5
45A2F
  8
回07-寸法
  6
CONTINUOUS
 62
     5
  2
_OPEN
 10
3555.710422431487
 20
438.5616923408639
 30
0.0
 41
2.0
 42
2.0
 43
2.0
 50
270.0
  0
INSERT
  5
45A30
  8
回07-寸法
  6
CONTINUOUS
 62
     5
  2
_OPEN
 10
3555.710422431487
 20
434.831692340864
 30
0.0
 41
2.0
 42
2.0
 43
2.0
 50
90.0
  0
TEXT
  5
45A31
  8
回07-寸法
  6
CONTINUOUS
 62
     5
 10
3555.056672431486
 20
391.4753734432252
 30
0.0
 40
3.0
  1
3.73 (Insulation Area)
 50
90.0
1001
ACAD
1000
MTEXTBEGIN
1070
    73
1070
     1
1070
    44
1040
1.0
1070
    74
1070
     0
1000
MTEXTEND
  0
POINT
  5
45A32
  8
DEFPOINTS
  6
CONTINUOUS
 62
     0
 10
3511.327008008866
 20
438.5616923408639
 30
0.0
  0
POINT
  5
45A33
  8
DEFPOINTS
  6
CONTINUOUS
 62
     0
 10
3514.127008008865
 20
434.831692340864
 30
0.0
  0
POINT
  5
45A34
  8
DEFPOINTS
  6
CONTINUOUS
 62
     0
 10
3555.710422431487
 20
434.831692340864
 30
0.0
  0
ENDBLK
  5
45768
  8
0
 62
     5
  0
BLOCK
  8
0
  2
*D19
 70
     1
 10
0.0
 20
0.0
 30
0.0
  3
*D19
  1

  0
LINE
  5
45991
  8
回07-寸法
  6
CONTINUOUS
 62
     5
 10
3464.877008008863
 20
486.8316923408638
 30
0.0
 11
3464.877008008863
 21
492.4307338550834
 31
0.0
  0
LINE
  5
45992
  8
回07-寸法
  6
CONTINUOUS
 62
     5
 10
3460.877008008863
 20
486.8316923408638
 30
0.0
 11
3460.877008008863
 21
492.4307338550834
 31
0.0
  0
LINE
  5
45993
  8
回07-寸法
  6
CONTINUOUS
 62
     5
 10
3466.877008008864
 20
491.4307338550834
 30
0.0
 11
3468.877008008864
 21
491.4307338550834
 31
0.0
  0
LINE
  5
45994
  8
回07-寸法
  6
CONTINUOUS
 62
     5
 10
3458.877008008864
 20
491.4307338550834
 30
0.0
 11
3454.377008008864
 21
491.4307338550834
 31
0.0
  0
LINE
  5
45995
  8
回07-寸法
  6
CONTINUOUS
 62
     5
 10
3464.877008008863
 20
491.4307338550834
 30
0.0
 11
3460.877008008863
 21
491.4307338550834
 31
0.0
  0
INSERT
  5
45996
  8
回07-寸法
  6
CONTINUOUS
 62
     5
  2
_OPEN
 10
3464.877008008863
 20
491.4307338550834
 30
0.0
 41
2.0
 42
2.0
 43
2.0
 50
180.0
  0
INSERT
  5
45997
  8
回07-寸法
  6
CONTINUOUS
 62
     5
  2
_OPEN
 10
3460.877008008863
 20
491.4307338550834
 30
0.0
 41
2.0
 42
2.0
 43
2.0
  0
TEXT
  5
45998
  8
回07-寸法
  6
CONTINUOUS
 62
     5
 10
3454.427008008864
 20
491.9307338550834
 30
0.0
 40
3.0
  1
4
1001
ACAD
1000
MTEXTBEGIN
1070
    73
1070
     1
1070
    44
1040
1.0
1070
    74
1070
     0
1000
MTEXTEND
  0
POINT
  5
45999
  8
DEFPOINTS
  6
CONTINUOUS
 62
     0
 10
3464.877008008863
 20
486.8316923408638
 30
0.0
  0
POINT
  5
4599A
  8
DEFPOINTS
  6
CONTINUOUS
 62
     0
 10
3460.877008008863
 20
486.8316923408638
 30
0.0
  0
POINT
  5
4599B
  8
DEFPOINTS
  6
CONTINUOUS
 62
     0
 10
3460.877008008863
 20
491.4307338550834
 30
0.0
  0
ENDBLK
  5
45776
  8
0
 62
     5
  0
BLOCK
  8
0
  2
*D20
 70
     1
 10
0.0
 20
0.0
 30
0.0
  3
*D20
  1

  0
LINE
  5
4599C
  8
回07-寸法
  6
CONTINUOUS
 62
     5
 10
3468.877008008866
 20
478.831692340864
 30
0.0
 11
3477.504456662567
 21
478.831692340864
 31
0.0
  0
LINE
  5
4599D
  8
回07-寸法
  6
CONTINUOUS
 62
     5
 10
3468.877008008866
 20
474.831692340864
 30
0.0
 11
3477.504456662567
 21
474.831692340864
 31
0.0
  0
LINE
  5
4599E
  8
回07-寸法
  6
CONTINUOUS
 62
     5
 10
3476.504456662568
 20
480.831692340864
 30
0.0
 11
3476.504456662568
 21
482.831692340864
 31
0.0
  0
LINE
  5
4599F
  8
回07-寸法
  6
CONTINUOUS
 62
     5
 10
3476.504456662568
 20
472.831692340864
 30
0.0
 11
3476.504456662568
 21
468.331692340864
 31
0.0
  0
LINE
  5
459A0
  8
回07-寸法
  6
CONTINUOUS
 62
     5
 10
3476.504456662568
 20
478.831692340864
 30
0.0
 11
3476.504456662568
 21
474.831692340864
 31
0.0
  0
INSERT
  5
459A1
  8
回07-寸法
  6
CONTINUOUS
 62
     5
  2
_OPEN
 10
3476.504456662568
 20
478.831692340864
 30
0.0
 41
2.0
 42
2.0
 43
2.0
 50
270.0
  0
INSERT
  5
459A2
  8
回07-寸法
  6
CONTINUOUS
 62
     5
  2
_OPEN
 10
3476.504456662568
 20
474.831692340864
 30
0.0
 41
2.0
 42
2.0
 43
2.0
 50
90.0
  0
TEXT
  5
459A3
  8
回07-寸法
  6
CONTINUOUS
 62
     5
 10
3476.004456662567
 20
468.381692340863
 30
0.0
 40
3.0
  1
4
 50
90.0
1001
ACAD
1000
MTEXTBEGIN
1070
    73
1070
     1
1070
    44
1040
1.0
1070
    74
1070
     0
1000
MTEXTEND
  0
POINT
  5
459A4
  8
DEFPOINTS
  6
CONTINUOUS
 62
     0
 10
3468.877008008866
 20
478.831692340864
 30
0.0
  0
POINT
  5
459A5
  8
DEFPOINTS
  6
CONTINUOUS
 62
     0
 10
3468.877008008866
 20
474.831692340864
 30
0.0
  0
POINT
  5
459A6
  8
DEFPOINTS
  6
CONTINUOUS
 62
     0
 10
3476.504456662568
 20
474.831692340864
 30
0.0
  0
ENDBLK
  5
45784
  8
0
 62
     5
  0
BLOCK
  8
0
  2
*D21
 70
     1
 10
0.0
 20
0.0
 30
0.0
  3
*D21
  1

  0
LINE
  5
459A7
  8
回07-寸法
  6
CONTINUOUS
 62
     5
 10
3514.127008008865
 20
370.1822763799665
 30
0.0
 11
3522.078040471806
 21
370.1822763799665
 31
0.0
  0
LINE
  5
459A8
  8
回07-寸法
  6
CONTINUOUS
 62
     5
 10
3513.827008008866
 20
383.1822763799665
 30
0.0
 11
3522.078040471806
 21
383.1822763799665
 31
0.0
  0
LINE
  5
459A9
  8
回07-寸法
  6
CONTINUOUS
 62
     5
 10
3521.078040471805
 20
385.1822763799665
 30
0.0
 11
3521.078040471805
 21
387.1822763799666
 31
0.0
  0
LINE
  5
459AA
  8
回07-寸法
  6
CONTINUOUS
 62
     5
 10
3521.078040471805
 20
368.1822763799665
 30
0.0
 11
3521.078040471805
 21
354.7071448427618
 31
0.0
  0
LINE
  5
459AB
  8
回07-寸法
  6
CONTINUOUS
 62
     5
 10
3521.078040471805
 20
383.1822763799665
 30
0.0
 11
3521.078040471805
 21
370.1822763799665
 31
0.0
  0
INSERT
  5
459AC
  8
回07-寸法
  6
CONTINUOUS
 62
     5
  2
_OPEN
 10
3521.078040471805
 20
383.1822763799665
 30
0.0
 41
2.0
 42
2.0
 43
2.0
 50
270.0
  0
INSERT
  5
459AD
  8
回07-寸法
  6
CONTINUOUS
 62
     5
  2
_OPEN
 10
3521.078040471805
 20
370.1822763799665
 30
0.0
 41
2.0
 42
2.0
 43
2.0
 50
90.0
  0
INSERT
  5
459AE
  8
回07-寸法
  6
CONTINUOUS
 62
     5
 66
     1
  2
*X52
 10
0.0
 20
0.0
 30
0.0
  0
SEQEND
  5
45CC8
  8
0
  6
CONTINUOUS
 62
     5
  0
POINT
  5
459AF
  8
DEFPOINTS
  6
CONTINUOUS
 62
     0
 10
3514.127008008865
 20
370.1822763799665
 30
0.0
  0
POINT
  5
459B0
  8
DEFPOINTS
  6
CONTINUOUS
 62
     0
 10
3513.827008008866
 20
383.1822763799665
 30
0.0
  0
POINT
  5
459B1
  8
DEFPOINTS
  6
CONTINUOUS
 62
     0
 10
3521.078040471805
 20
383.1822763799665
 30
0.0
  0
ENDBLK
  5
45792
  8
0
 62
     5
  0
BLOCK
  8
0
  2
*D22
 70
     1
 10
0.0
 20
0.0
 30
0.0
  3
*D22
  1

  0
LINE
  5
459B2
  8
回07-寸法
  6
CONTINUOUS
 62
     5
 10
3514.127008008864
 20
376.1822763799664
 30
0.0
 11
3514.127008008864
 21
386.8275413921822
 31
0.0
  0
LINE
  5
459B3
  8
回07-寸法
  6
CONTINUOUS
 62
     5
 10
3513.827008008863
 20
383.1822763799664
 30
0.0
 11
3513.827008008863
 21
386.8275413921822
 31
0.0
  0
LINE
  5
459B4
  8
回07-寸法
  6
CONTINUOUS
 62
     5
 10
3516.127008008864
 20
385.8275413921822
 30
0.0
 11
3518.127008008864
 21
385.8275413921822
 31
0.0
  0
LINE
  5
459B5
  8
回07-寸法
  6
CONTINUOUS
 62
     5
 10
3511.827008008864
 20
385.8275413921822
 30
0.0
 11
3502.229370213588
 21
385.8275413921822
 31
0.0
  0
LINE
  5
459B6
  8
回07-寸法
  6
CONTINUOUS
 62
     5
 10
3514.127008008864
 20
385.8275413921822
 30
0.0
 11
3513.827008008863
 21
385.8275413921822
 31
0.0
  0
INSERT
  5
459B7
  8
回07-寸法
  6
CONTINUOUS
 62
     5
  2
_OPEN
 10
3514.127008008864
 20
385.8275413921822
 30
0.0
 41
2.0
 42
2.0
 43
2.0
 50
180.0
  0
INSERT
  5
459B8
  8
回07-寸法
  6
CONTINUOUS
 62
     5
  2
_OPEN
 10
3513.827008008863
 20
385.8275413921822
 30
0.0
 41
2.0
 42
2.0
 43
2.0
  0
TEXT
  5
459B9
  8
回07-寸法
  6
CONTINUOUS
 62
     5
 10
3502.278189111225
 20
386.4775413921822
 30
0.0
 40
3.0
  1
(0.3)
1001
ACAD
1000
MTEXTBEGIN
1070
    73
1070
     1
1070
    44
1040
1.0
1070
    74
1070
     0
1000
MTEXTEND
  0
POINT
  5
459BA
  8
DEFPOINTS
  6
CONTINUOUS
 62
     0
 10
3514.127008008864
 20
376.1822763799664
 30
0.0
  0
POINT
  5
459BB
  8
DEFPOINTS
  6
CONTINUOUS
 62
     0
 10
3513.827008008863
 20
383.1822763799664
 30
0.0
  0
POINT
  5
459BC
  8
DEFPOINTS
  6
CONTINUOUS
 62
     0
 10
3513.827008008863
 20
385.8275413921822
 30
0.0
  0
ENDBLK
  5
457A0
  8
0
 62
     5
  0
BLOCK
  8
0
  2
*D23
 70
     1
 10
0.0
 20
0.0
 30
0.0
  3
*D23
  1

  0
LINE
  5
459BD
  8
回07-寸法
  6
CONTINUOUS
 62
     5
 10
3349.127008008863
 20
376.1822763799664
 30
0.0
 11
3349.127008008863
 21
386.8623322958811
 31
0.0
  0
LINE
  5
459BE
  8
回07-寸法
  6
CONTINUOUS
 62
     5
 10
3349.427008008864
 20
383.1822763799666
 30
0.0
 11
3349.427008008864
 21
386.8623322958811
 31
0.0
  0
LINE
  5
459BF
  8
回07-寸法
  6
CONTINUOUS
 62
     5
 10
3347.127008008864
 20
385.8623322958811
 30
0.0
 11
3345.127008008863
 21
385.8623322958811
 31
0.0
  0
LINE
  5
459C0
  8
回07-寸法
  6
CONTINUOUS
 62
     5
 10
3351.427008008864
 20
385.8623322958811
 30
0.0
 11
3361.024645804139
 21
385.8623322958811
 31
0.0
  0
LINE
  5
459C1
  8
回07-寸法
  6
CONTINUOUS
 62
     5
 10
3349.127008008863
 20
385.8623322958811
 30
0.0
 11
3349.427008008864
 21
385.8623322958811
 31
0.0
  0
INSERT
  5
459C2
  8
回07-寸法
  6
CONTINUOUS
 62
     5
  2
_OPEN
 10
3349.127008008863
 20
385.8623322958811
 30
0.0
 41
2.0
 42
2.0
 43
2.0
  0
INSERT
  5
459C3
  8
回07-寸法
  6
CONTINUOUS
 62
     5
  2
_OPEN
 10
3349.427008008864
 20
385.8623322958811
 30
0.0
 41
2.0
 42
2.0
 43
2.0
 50
180.0
  0
TEXT
  5
459C4
  8
回07-寸法
  6
CONTINUOUS
 62
     5
 10
3353.475826906502
 20
386.512332295881
 30
0.0
 40
3.0
  1
(0.3)
1001
ACAD
1000
MTEXTBEGIN
1070
    73
1070
     1
1070
    44
1040
1.0
1070
    74
1070
     0
1000
MTEXTEND
  0
POINT
  5
459C5
  8
DEFPOINTS
  6
CONTINUOUS
 62
     0
 10
3349.127008008863
 20
376.1822763799664
 30
0.0
  0
POINT
  5
459C6
  8
DEFPOINTS
  6
CONTINUOUS
 62
     0
 10
3349.427008008864
 20
383.1822763799666
 30
0.0
  0
POINT
  5
459C7
  8
DEFPOINTS
  6
CONTINUOUS
 62
     0
 10
3349.427008008864
 20
385.8623322958811
 30
0.0
  0
ENDBLK
  5
457AE
  8
0
 62
     5
  0
BLOCK
  8
0
  2
*D24
 70
     1
 10
0.0
 20
0.0
 30
0.0
  3
*D24
  1

  0
LINE
  5
459C8
  8
回07-寸法
  6
CONTINUOUS
 62
     5
 10
3268.926964498098
 20
379.1822763799674
 30
0.0
 11
3260.711047550919
 21
379.1822763799674
 31
0.0
  0
LINE
  5
459C9
  8
回07-寸法
  6
CONTINUOUS
 62
     5
 10
3268.926964498098
 20
371.1822763799665
 30
0.0
 11
3260.711047550919
 21
371.1822763799665
 31
0.0
  0
LINE
  5
459CA
  8
回07-寸法
  6
CONTINUOUS
 62
     5
 10
3261.71104755092
 20
381.1822763799674
 30
0.0
 11
3261.71104755092
 21
383.1822763799674
 31
0.0
  0
LINE
  5
459CB
  8
回07-寸法
  6
CONTINUOUS
 62
     5
 10
3261.71104755092
 20
369.1822763799665
 30
0.0
 11
3261.71104755092
 21
353.7013836988624
 31
0.0
  0
LINE
  5
459CC
  8
回07-寸法
  6
CONTINUOUS
 62
     5
 10
3261.71104755092
 20
379.1822763799674
 30
0.0
 11
3261.71104755092
 21
371.1822763799665
 31
0.0
  0
INSERT
  5
459CD
  8
回07-寸法
  6
CONTINUOUS
 62
     5
  2
_OPEN
 10
3261.71104755092
 20
379.1822763799674
 30
0.0
 41
2.0
 42
2.0
 43
2.0
 50
270.0
  0
INSERT
  5
459CE
  8
回07-寸法
  6
CONTINUOUS
 62
     5
  2
_OPEN
 10
3261.71104755092
 20
371.1822763799665
 30
0.0
 41
2.0
 42
2.0
 43
2.0
 50
90.0
  0
INSERT
  5
459CF
  8
回07-寸法
  6
CONTINUOUS
 62
     5
 66
     1
  2
*X53
 10
0.0
 20
0.0
 30
0.0
  0
SEQEND
  5
45CCE
  8
0
  6
CONTINUOUS
 62
     5
  0
POINT
  5
459D0
  8
DEFPOINTS
  6
CONTINUOUS
 62
     0
 10
3268.926964498098
 20
379.1822763799674
 30
0.0
  0
POINT
  5
459D1
  8
DEFPOINTS
  6
CONTINUOUS
 62
     0
 10
3268.926964498098
 20
371.1822763799665
 30
0.0
  0
POINT
  5
459D2
  8
DEFPOINTS
  6
CONTINUOUS
 62
     0
 10
3261.71104755092
 20
371.1822763799665
 30
0.0
  0
ENDBLK
  5
457BC
  8
0
 62
     5
  0
BLOCK
  8
0
  2
*D25
 70
     1
 10
0.0
 20
0.0
 30
0.0
  3
*D25
  1

  0
LINE
  5
459F9
  8
回07-寸法
  6
CONTINUOUS
 62
     5
 10
3268.926964498096
 20
379.1822763799673
 30
0.0
 11
3268.926964498096
 21
388.7546951239419
 31
0.0
  0
LINE
  5
459FA
  8
回07-寸法
  6
CONTINUOUS
 62
     5
 10
3273.926964498096
 20
380.1822763799663
 30
0.0
 11
3273.926964498096
 21
388.7546951239419
 31
0.0
  0
LINE
  5
459FB
  8
回07-寸法
  6
CONTINUOUS
 62
     5
 10
3266.926964498096
 20
387.7546951239419
 30
0.0
 11
3264.926964498096
 21
387.7546951239419
 31
0.0
  0
LINE
  5
459FC
  8
回07-寸法
  6
CONTINUOUS
 62
     5
 10
3275.926964498096
 20
387.7546951239419
 30
0.0
 11
3280.251228566808
 21
387.7546951239419
 31
0.0
  0
LINE
  5
459FD
  8
回07-寸法
  6
CONTINUOUS
 62
     5
 10
3268.926964498096
 20
387.7546951239419
 30
0.0
 11
3273.926964498096
 21
387.7546951239419
 31
0.0
  0
INSERT
  5
459FE
  8
回07-寸法
  6
CONTINUOUS
 62
     5
  2
_OPEN
 10
3268.926964498096
 20
387.7546951239419
 30
0.0
 41
2.0
 42
2.0
 43
2.0
  0
INSERT
  5
459FF
  8
回07-寸法
  6
CONTINUOUS
 62
     5
  2
_OPEN
 10
3273.926964498096
 20
387.7546951239419
 30
0.0
 41
2.0
 42
2.0
 43
2.0
 50
180.0
  0
TEXT
  5
45A00
  8
回07-寸法
  6
CONTINUOUS
 62
     5
 10
3278.039096532452
 20
388.2546951239419
 30
0.0
 40
3.0
  1
5
1001
ACAD
1000
MTEXTBEGIN
1070
    73
1070
     1
1070
    44
1040
1.0
1070
    74
1070
     0
1000
MTEXTEND
  0
POINT
  5
45A01
  8
DEFPOINTS
  6
CONTINUOUS
 62
     0
 10
3268.926964498096
 20
379.1822763799673
 30
0.0
  0
POINT
  5
45A02
  8
DEFPOINTS
  6
CONTINUOUS
 62
     0
 10
3273.926964498096
 20
380.1822763799663
 30
0.0
  0
POINT
  5
45A03
  8
DEFPOINTS
  6
CONTINUOUS
 62
     0
 10
3273.926964498096
 20
387.7546951239419
 30
0.0
  0
ENDBLK
  5
457CA
  8
0
 62
     5
  0
BLOCK
  8
0
  2
*D26
 70
     1
 10
0.0
 20
0.0
 30
0.0
  3
*D26
  1

  0
LINE
  5
45A0F
  8
回07-寸法
  6
CONTINUOUS
 62
     5
 10
3268.926964498096
 20
371.1822763799664
 30
0.0
 11
3268.926964498096
 21
358.0971908661541
 31
0.0
  0
LINE
  5
45A10
  8
回07-寸法
  6
CONTINUOUS
 62
     5
 10
3278.926964498096
 20
371.1822763799664
 30
0.0
 11
3278.926964498096
 21
358.0971908661541
 31
0.0
  0
LINE
  5
45A11
  8
回07-寸法
  6
CONTINUOUS
 62
     5
 10
3266.926964498096
 20
359.097190866154
 30
0.0
 11
3264.926964498096
 21
359.097190866154
 31
0.0
  0
LINE
  5
45A12
  8
回07-寸法
  6
CONTINUOUS
 62
     5
 10
3280.926964498096
 20
359.097190866154
 30
0.0
 11
3289.024602293372
 21
359.097190866154
 31
0.0
  0
LINE
  5
45A13
  8
回07-寸法
  6
CONTINUOUS
 62
     5
 10
3268.926964498096
 20
359.097190866154
 30
0.0
 11
3278.926964498096
 21
359.097190866154
 31
0.0
  0
INSERT
  5
45A14
  8
回07-寸法
  6
CONTINUOUS
 62
     5
  2
_OPEN
 10
3268.926964498096
 20
359.097190866154
 30
0.0
 41
2.0
 42
2.0
 43
2.0
  0
INSERT
  5
45A15
  8
回07-寸法
  6
CONTINUOUS
 62
     5
  2
_OPEN
 10
3278.926964498096
 20
359.097190866154
 30
0.0
 41
2.0
 42
2.0
 43
2.0
 50
180.0
  0
TEXT
  5
45A16
  8
回07-寸法
  6
CONTINUOUS
 62
     5
 10
3282.975783395734
 20
359.747190866154
 30
0.0
 40
3.0
  1
(10)
1001
ACAD
1000
MTEXTBEGIN
1070
    73
1070
     1
1070
    44
1040
1.0
1070
    74
1070
     0
1000
MTEXTEND
  0
POINT
  5
45A17
  8
DEFPOINTS
  6
CONTINUOUS
 62
     0
 10
3268.926964498096
 20
371.1822763799664
 30
0.0
  0
POINT
  5
45A18
  8
DEFPOINTS
  6
CONTINUOUS
 62
     0
 10
3278.926964498096
 20
371.1822763799664
 30
0.0
  0
POINT
  5
45A19
  8
DEFPOINTS
  6
CONTINUOUS
 62
     0
 10
3278.926964498096
 20
359.097190866154
 30
0.0
  0
ENDBLK
  5
457D8
  8
0
 62
     5
  0
BLOCK
  8
0
  2
*D27
 70
     1
 10
0.0
 20
0.0
 30
0.0
  3
*D27
  1

  0
LINE
  5
459E7
  8
回07-寸法
  6
CONTINUOUS
 62
     5
 10
3349.127008008866
 20
434.831692340864
 30
0.0
 11
3260.266378667718
 21
434.831692340864
 31
0.0
  0
LINE
  5
459E8
  8
回07-寸法
  6
CONTINUOUS
 62
     5
 10
3269.426964498098
 20
483.7066923408644
 30
0.0
 11
3260.266378667718
 21
483.7066923408644
 31
0.0
  0
LINE
  5
459E9
  8
回07-寸法
  6
CONTINUOUS
 62
     5
 10
3261.266378667718
 20
436.831692340864
 30
0.0
 11
3261.266378667718
 21
481.7066923408645
 31
0.0
  0
INSERT
  5
459EA
  8
回07-寸法
  6
CONTINUOUS
 62
     5
  2
_OPEN
 10
3261.266378667718
 20
434.831692340864
 30
0.0
 41
2.0
 42
2.0
 43
2.0
 50
270.0
  0
INSERT
  5
459EB
  8
回07-寸法
  6
CONTINUOUS
 62
     5
  2
_OPEN
 10
3261.266378667718
 20
483.7066923408644
 30
0.0
 41
2.0
 42
2.0
 43
2.0
 50
90.0
  0
TEXT
  5
459EC
  8
回07-寸法
  6
CONTINUOUS
 62
     5
 10
3260.616378667716
 20
453.2691923408633
 30
0.0
 40
3.0
  1
(48.88)
 50
90.0
1001
ACAD
1000
MTEXTBEGIN
1070
    73
1070
     1
1070
    44
1040
1.0
1070
    74
1070
     0
1000
MTEXTEND
  0
POINT
  5
459ED
  8
DEFPOINTS
  6
CONTINUOUS
 62
     0
 10
3349.127008008866
 20
434.831692340864
 30
0.0
  0
POINT
  5
459EE
  8
DEFPOINTS
  6
CONTINUOUS
 62
     0
 10
3269.426964498098
 20
483.7066923408644
 30
0.0
  0
POINT
  5
459EF
  8
DEFPOINTS
  6
CONTINUOUS
 62
     0
 10
3261.266378667718
 20
483.7066923408644
 30
0.0
  0
ENDBLK
  5
457E4
  8
0
 62
     5
  0
BLOCK
  8
0
  2
*D28
 70
     1
 10
0.0
 20
0.0
 30
0.0
  3
*D28
  1

  0
LINE
  5
4587A
  8
回07-寸法
  6
CONTINUOUS
 62
     5
 10
3344.739251686207
 20
478.8316923408642
 30
0.0
 11
3322.766143717353
 21
478.8316923408642
 31
0.0
  0
LINE
  5
4587B
  8
回07-寸法
  6
CONTINUOUS
 62
     5
 10
3344.7350781005
 20
494.8304893065924
 30
0.0
 11
3322.766143717353
 21
494.8304893065924
 31
0.0
  0
LINE
  5
4587C
  8
回07-寸法
  6
CONTINUOUS
 62
     5
 10
3323.766143717353
 20
496.8304893065924
 30
0.0
 11
3323.766143717353
 21
498.8304893065924
 31
0.0
  0
LINE
  5
4587D
  8
回07-寸法
  6
CONTINUOUS
 62
     5
 10
3323.766143717353
 20
476.8316923408642
 30
0.0
 11
3323.766143717353
 21
469.693732708907
 31
0.0
  0
LINE
  5
4587E
  8
回07-寸法
  6
CONTINUOUS
 62
     5
 10
3323.766143717353
 20
494.8304893065924
 30
0.0
 11
3323.766143717353
 21
478.8316923408642
 31
0.0
  0
INSERT
  5
4587F
  8
回07-寸法
  6
CONTINUOUS
 62
     5
  2
_OPEN
 10
3323.766143717353
 20
494.8304893065924
 30
0.0
 41
2.0
 42
2.0
 43
2.0
 50
270.0
  0
INSERT
  5
45880
  8
回07-寸法
  6
CONTINUOUS
 62
     5
  2
_OPEN
 10
3323.766143717353
 20
478.8316923408642
 30
0.0
 41
2.0
 42
2.0
 43
2.0
 50
90.0
  0
TEXT
  5
45881
  8
回07-寸法
  6
CONTINUOUS
 62
     5
 10
3323.266143717352
 20
469.8168896150741
 30
0.0
 40
3.0
  1
16
 50
90.0
1001
ACAD
1000
MTEXTBEGIN
1070
    73
1070
     1
1070
    44
1040
1.0
1070
    74
1070
     0
1000
MTEXTEND
  0
POINT
  5
45882
  8
DEFPOINTS
  6
CONTINUOUS
 62
     0
 10
3344.739251686207
 20
478.8316923408642
 30
0.0
  0
POINT
  5
45883
  8
DEFPOINTS
  6
CONTINUOUS
 62
     0
 10
3344.7350781005
 20
494.8304893065924
 30
0.0
  0
POINT
  5
45884
  8
DEFPOINTS
  6
CONTINUOUS
 62
     0
 10
3323.766143717353
 20
494.8304893065924
 30
0.0
  0
ENDBLK
  5
457F0
  8
0
 62
     5
  0
BLOCK
  8
0
  2
*D29
 70
     1
 10
0.0
 20
0.0
 30
0.0
  3
*D29
  1

  0
LINE
  5
45885
  8
回07-寸法
  6
CONTINUOUS
 62
     5
 10
3349.127008008863
 20
477.8852577161495
 30
0.0
 11
3349.127008008863
 21
462.835386252967
 31
0.0
  0
LINE
  5
45886
  8
回07-寸法
  6
CONTINUOUS
 62
     5
 10
3339.399858828822
 20
483.6270150017003
 30
0.0
 11
3339.399858828822
 21
462.835386252967
 31
0.0
  0
LINE
  5
45887
  8
回07-寸法
  6
CONTINUOUS
 62
     5
 10
3351.127008008864
 20
463.835386252967
 30
0.0
 11
3353.127008008863
 21
463.835386252967
 31
0.0
  0
LINE
  5
45888
  8
回07-寸法
  6
CONTINUOUS
 62
     5
 10
3337.399858828822
 20
463.835386252967
 30
0.0
 11
3327.449706038938
 21
463.835386252967
 31
0.0
  0
LINE
  5
45889
  8
回07-寸法
  6
CONTINUOUS
 62
     5
 10
3349.127008008863
 20
463.835386252967
 30
0.0
 11
3339.399858828822
 21
463.835386252967
 31
0.0
  0
INSERT
  5
4588A
  8
回07-寸法
  6
CONTINUOUS
 62
     5
  2
_OPEN
 10
3349.127008008863
 20
463.835386252967
 30
0.0
 41
2.0
 42
2.0
 43
2.0
 50
180.0
  0
INSERT
  5
4588B
  8
回07-寸法
  6
CONTINUOUS
 62
     5
  2
_OPEN
 10
3339.399858828822
 20
463.835386252967
 30
0.0
 41
2.0
 42
2.0
 43
2.0
  0
TEXT
  5
4588C
  8
回07-寸法
  6
CONTINUOUS
 62
     5
 10
3327.613139002069
 20
464.3353862529671
 30
0.0
 40
3.0
  1
9.73
1001
ACAD
1000
MTEXTBEGIN
1070
    73
1070
     1
1070
    44
1040
1.0
1070
    74
1070
     0
1000
MTEXTEND
  0
POINT
  5
4588D
  8
DEFPOINTS
  6
CONTINUOUS
 62
     0
 10
3349.127008008863
 20
477.8852577161495
 30
0.0
  0
POINT
  5
4588E
  8
DEFPOINTS
  6
CONTINUOUS
 62
     0
 10
3339.399858828822
 20
483.6270150017003
 30
0.0
  0
POINT
  5
4588F
  8
DEFPOINTS
  6
CONTINUOUS
 62
     0
 10
3339.399858828822
 20
463.835386252967
 30
0.0
  0
ENDBLK
  5
457FE
  8
0
 62
     5
  0
BLOCK
  8
0
  2
*D30
 70
     1
 10
0.0
 20
0.0
 30
0.0
  3
*D30
  1

  0
LINE
  5
45890
  8
回07-寸法
  6
CONTINUOUS
 62
     5
 10
3349.127008008863
 20
477.8852577161497
 30
0.0
 11
3349.127008008863
 21
470.4984161899537
 31
0.0
  0
LINE
  5
45891
  8
回07-寸法
  6
CONTINUOUS
 62
     5
 10
3344.357726295357
 20
478.9073339817094
 30
0.0
 11
3344.357726295357
 21
470.4984161899537
 31
0.0
  0
LINE
  5
45892
  8
回07-寸法
  6
CONTINUOUS
 62
     5
 10
3351.127008008864
 20
471.4984161899537
 30
0.0
 11
3353.127008008863
 21
471.4984161899537
 31
0.0
  0
LINE
  5
45893
  8
回07-寸法
  6
CONTINUOUS
 62
     5
 10
3342.357726295357
 20
471.4984161899537
 30
0.0
 11
3330.39215519109
 21
471.4984161899537
 31
0.0
  0
LINE
  5
45894
  8
回07-寸法
  6
CONTINUOUS
 62
     5
 10
3349.127008008863
 20
471.4984161899537
 30
0.0
 11
3344.357726295357
 21
471.4984161899537
 31
0.0
  0
INSERT
  5
45895
  8
回07-寸法
  6
CONTINUOUS
 62
     5
  2
_OPEN
 10
3349.127008008863
 20
471.4984161899537
 30
0.0
 41
2.0
 42
2.0
 43
2.0
 50
180.0
  0
INSERT
  5
45896
  8
回07-寸法
  6
CONTINUOUS
 62
     5
  2
_OPEN
 10
3344.357726295357
 20
471.4984161899537
 30
0.0
 41
2.0
 42
2.0
 43
2.0
  0
TEXT
  5
45897
  8
回07-寸法
  6
CONTINUOUS
 62
     5
 10
3330.442155191089
 20
471.9984161899538
 30
0.0
 40
3.0
  1
4.77
1001
ACAD
1000
MTEXTBEGIN
1070
    73
1070
     1
1070
    44
1040
1.0
1070
    74
1070
     0
1000
MTEXTEND
  0
POINT
  5
45898
  8
DEFPOINTS
  6
CONTINUOUS
 62
     0
 10
3349.127008008863
 20
477.8852577161497
 30
0.0
  0
POINT
  5
45899
  8
DEFPOINTS
  6
CONTINUOUS
 62
     0
 10
3344.357726295357
 20
478.9073339817094
 30
0.0
  0
POINT
  5
4589A
  8
DEFPOINTS
  6
CONTINUOUS
 62
     0
 10
3344.357726295357
 20
471.4984161899537
 30
0.0
  0
ENDBLK
  5
4580C
  8
0
 62
     5
  0
BLOCK
  8
0
  2
*D31
 70
     1
 10
0.0
 20
0.0
 30
0.0
  3
*D31
  1

  0
LINE
  5
4589B
  8
回07-寸法
  6
CONTINUOUS
 62
     5
 10
3268.926964498096
 20
489.4566923408636
 30
0.0
 11
3268.926964498096
 21
512.3922372157435
 31
0.0
  0
LINE
  5
4589C
  8
回07-寸法
  6
CONTINUOUS
 62
     5
 10
3349.127008008863
 20
495.7781271653023
 30
0.0
 11
3349.127008008863
 21
512.3922372157435
 31
0.0
  0
LINE
  5
4589D
  8
回07-寸法
  6
CONTINUOUS
 62
     5
 10
3270.926964498096
 20
511.3922372157435
 30
0.0
 11
3347.127008008864
 21
511.3922372157435
 31
0.0
  0
INSERT
  5
4589E
  8
回07-寸法
  6
CONTINUOUS
 62
     5
  2
_OPEN
 10
3268.926964498096
 20
511.3922372157435
 30
0.0
 41
2.0
 42
2.0
 43
2.0
 50
180.0
  0
INSERT
  5
4589F
  8
回07-寸法
  6
CONTINUOUS
 62
     5
  2
_OPEN
 10
3349.127008008863
 20
511.3922372157435
 30
0.0
 41
2.0
 42
2.0
 43
2.0
  0
INSERT
  5
458A0
  8
回07-寸法
  6
CONTINUOUS
 62
     5
 66
     1
  2
*X54
 10
0.0
 20
0.0
 30
0.0
  0
SEQEND
  5
45CD4
  8
0
  6
CONTINUOUS
 62
     5
  0
POINT
  5
458A1
  8
DEFPOINTS
  6
CONTINUOUS
 62
     0
 10
3268.926964498096
 20
489.4566923408636
 30
0.0
  0
POINT
  5
458A2
  8
DEFPOINTS
  6
CONTINUOUS
 62
     0
 10
3349.127008008863
 20
495.7781271653023
 30
0.0
  0
POINT
  5
458A3
  8
DEFPOINTS
  6
CONTINUOUS
 62
     0
 10
3349.127008008863
 20
511.3922372157435
 30
0.0
  0
ENDBLK
  5
4581A
  8
0
 62
     5
  0
BLOCK
  8
0
  2
*D32
 70
     1
 10
0.0
 20
0.0
 30
0.0
  3
*D32
  1

  0
LINE
  5
458A4
  8
回07-寸法
  6
CONTINUOUS
 62
     5
 10
3269.426964499002
 20
483.7066923408643
 30
0.0
 11
3260.266378667714
 21
483.7066923408643
 31
0.0
  0
LINE
  5
458A5
  8
回07-寸法
  6
CONTINUOUS
 62
     5
 10
3269.426964498098
 20
489.9566923408642
 30
0.0
 11
3260.266378667714
 21
489.9566923408642
 31
0.0
  0
LINE
  5
458A6
  8
回07-寸法
  6
CONTINUOUS
 62
     5
 10
3261.266378667714
 20
481.7066923408644
 30
0.0
 11
3261.266378667714
 21
479.7066923408643
 31
0.0
  0
LINE
  5
458A7
  8
回07-寸法
  6
CONTINUOUS
 62
     5
 10
3261.266378667714
 20
491.9566923408642
 30
0.0
 11
3261.266378667714
 21
506.7373439156676
 31
0.0
  0
LINE
  5
458A8
  8
回07-寸法
  6
CONTINUOUS
 62
     5
 10
3261.266378667714
 20
483.7066923408643
 30
0.0
 11
3261.266378667714
 21
489.9566923408642
 31
0.0
  0
INSERT
  5
458A9
  8
回07-寸法
  6
CONTINUOUS
 62
     5
  2
_OPEN
 10
3261.266378667714
 20
483.7066923408643
 30
0.0
 41
2.0
 42
2.0
 43
2.0
 50
90.0
  0
INSERT
  5
458AA
  8
回07-寸法
  6
CONTINUOUS
 62
     5
  2
_OPEN
 10
3261.266378667714
 20
489.9566923408642
 30
0.0
 41
2.0
 42
2.0
 43
2.0
 50
270.0
  0
INSERT
  5
458AB
  8
回07-寸法
  6
CONTINUOUS
 62
     5
 66
     1
  2
*X55
 10
0.0
 20
0.0
 30
0.0
  0
SEQEND
  5
45CDA
  8
0
  6
CONTINUOUS
 62
     5
  0
POINT
  5
458AC
  8
DEFPOINTS
  6
CONTINUOUS
 62
     0
 10
3269.426964499002
 20
483.7066923408643
 30
0.0
  0
POINT
  5
458AD
  8
DEFPOINTS
  6
CONTINUOUS
 62
     0
 10
3269.426964498098
 20
489.9566923408642
 30
0.0
  0
POINT
  5
458AE
  8
DEFPOINTS
  6
CONTINUOUS
 62
     0
 10
3261.266378667714
 20
489.9566923408642
 30
0.0
  0
ENDBLK
  5
45826
  8
0
 62
     5
  0
BLOCK
  8
0
  2
*D33
 70
     1
 10
0.0
 20
0.0
 30
0.0
  3
*D33
  1

  0
LINE
  5
458AF
  8
回07-寸法
  6
CONTINUOUS
 62
     5
 10
3354.927008008864
 20
534.3016923408638
 30
0.0
 11
3354.927008008864
 21
555.6371976121904
 31
0.0
  0
LINE
  5
458B0
  8
回07-寸法
  6
CONTINUOUS
 62
     5
 10
3510.827008008863
 20
534.3016923408638
 30
0.0
 11
3510.827008008863
 21
555.6371976121904
 31
0.0
  0
LINE
  5
458B1
  8
回07-寸法
  6
CONTINUOUS
 62
     5
 10
3356.927008008864
 20
554.6371976121904
 30
0.0
 11
3508.827008008863
 21
554.6371976121904
 31
0.0
  0
INSERT
  5
458B2
  8
回07-寸法
  6
CONTINUOUS
 62
     5
  2
_OPEN
 10
3354.927008008864
 20
554.6371976121904
 30
0.0
 41
2.0
 42
2.0
 43
2.0
 50
180.0
  0
INSERT
  5
458B3
  8
回07-寸法
  6
CONTINUOUS
 62
     5
  2
_OPEN
 10
3510.827008008863
 20
554.6371976121904
 30
0.0
 41
2.0
 42
2.0
 43
2.0
  0
TEXT
  5
458B4
  8
回07-寸法
  6
CONTINUOUS
 62
     5
 10
3414.122183007254
 20
555.2871976121904
 30
0.0
 40
3.0
  1
155.9(VIEWING AREA)
1001
ACAD
1000
MTEXTBEGIN
1070
    73
1070
     1
1070
    44
1040
1.0
1070
    74
1070
     0
1000
MTEXTEND
  0
POINT
  5
458B5
  8
DEFPOINTS
  6
CONTINUOUS
 62
     0
 10
3354.927008008864
 20
534.3016923408638
 30
0.0
  0
POINT
  5
458B6
  8
DEFPOINTS
  6
CONTINUOUS
 62
     0
 10
3510.827008008863
 20
534.3016923408638
 30
0.0
  0
POINT
  5
458B7
  8
DEFPOINTS
  6
CONTINUOUS
 62
     0
 10
3510.827008008863
 20
554.6371976121904
 30
0.0
  0
ENDBLK
  5
45834
  8
0
 62
     5
  0
BLOCK
  8
0
  2
*D34
 70
     1
 10
0.0
 20
0.0
 30
0.0
  3
*D34
  1

  0
LINE
  5
458B8
  8
回07-寸法
  6
CONTINUOUS
 62
     5
 10
3356.427008008863
 20
532.8016923408638
 30
0.0
 11
3356.427008008863
 21
548.7503293231618
 31
0.0
  0
LINE
  5
458B9
  8
回07-寸法
  6
CONTINUOUS
 62
     5
 10
3509.327008008864
 20
532.8016923408638
 30
0.0
 11
3509.327008008864
 21
548.7503293231618
 31
0.0
  0
LINE
  5
458BA
  8
回07-寸法
  6
CONTINUOUS
 62
     5
 10
3358.427008008864
 20
547.7503293231618
 30
0.0
 11
3507.327008008863
 21
547.7503293231618
 31
0.0
  0
INSERT
  5
458BB
  8
回07-寸法
  6
CONTINUOUS
 62
     5
  2
_OPEN
 10
3356.427008008863
 20
547.7503293231618
 30
0.0
 41
2.0
 42
2.0
 43
2.0
 50
180.0
  0
INSERT
  5
458BC
  8
回07-寸法
  6
CONTINUOUS
 62
     5
  2
_OPEN
 10
3509.327008008864
 20
547.7503293231618
 30
0.0
 41
2.0
 42
2.0
 43
2.0
  0
TEXT
  5
458BD
  8
回07-寸法
  6
CONTINUOUS
 62
     5
 10
3415.022183007255
 20
548.4003293231618
 30
0.0
 40
3.0
  1
152.9(ACTIVE AREA)
1001
ACAD
1000
MTEXTBEGIN
1070
    73
1070
     1
1070
    44
1040
1.0
1070
    74
1070
     0
1000
MTEXTEND
  0
POINT
  5
458BE
  8
DEFPOINTS
  6
CONTINUOUS
 62
     0
 10
3356.427008008863
 20
532.8016923408638
 30
0.0
  0
POINT
  5
458BF
  8
DEFPOINTS
  6
CONTINUOUS
 62
     0
 10
3509.327008008864
 20
532.8016923408638
 30
0.0
  0
POINT
  5
458C0
  8
DEFPOINTS
  6
CONTINUOUS
 62
     0
 10
3509.327008008864
 20
547.7503293231618
 30
0.0
  0
ENDBLK
  5
45840
  8
0
 62
     5
  0
BLOCK
  8
0
  2
*D35
 70
     1
 10
0.0
 20
0.0
 30
0.0
  3
*D35
  1

  0
LINE
  5
458C1
  8
回07-寸法
  6
CONTINUOUS
 62
     5
 10
3510.827008008865
 20
534.301692340864
 30
0.0
 11
3548.547675812223
 21
534.301692340864
 31
0.0
  0
LINE
  5
458C2
  8
回07-寸法
  6
CONTINUOUS
 62
     5
 10
3510.827008008865
 20
439.3616923408639
 30
0.0
 11
3548.547675812223
 21
439.3616923408639
 31
0.0
  0
LINE
  5
458C3
  8
回07-寸法
  6
CONTINUOUS
 62
     5
 10
3547.547675812224
 20
532.3016923408641
 30
0.0
 11
3547.547675812224
 21
441.361692340864
 31
0.0
  0
INSERT
  5
458C4
  8
回07-寸法
  6
CONTINUOUS
 62
     5
  2
_OPEN
 10
3547.547675812224
 20
534.301692340864
 30
0.0
 41
2.0
 42
2.0
 43
2.0
 50
90.0
  0
INSERT
  5
458C5
  8
回07-寸法
  6
CONTINUOUS
 62
     5
  2
_OPEN
 10
3547.547675812224
 20
439.3616923408639
 30
0.0
 41
2.0
 42
2.0
 43
2.0
 50
270.0
  0
TEXT
  5
458C6
  8
回07-寸法
  6
CONTINUOUS
 62
     5
 10
3546.897675812223
 20
467.466036233674
 30
0.0
 40
3.0
  1
94.94(VIEWING AREA)
 50
90.0
1001
ACAD
1000
MTEXTBEGIN
1070
    73
1070
     1
1070
    44
1040
1.0
1070
    74
1070
     0
1000
MTEXTEND
  0
POINT
  5
458C7
  8
DEFPOINTS
  6
CONTINUOUS
 62
     0
 10
3510.827008008865
 20
534.301692340864
 30
0.0
  0
POINT
  5
458C8
  8
DEFPOINTS
  6
CONTINUOUS
 62
     0
 10
3510.827008008865
 20
439.3616923408639
 30
0.0
  0
POINT
  5
458C9
  8
DEFPOINTS
  6
CONTINUOUS
 62
     0
 10
3547.547675812224
 20
439.3616923408639
 30
0.0
  0
ENDBLK
  5
4584C
  8
0
 62
     5
  0
BLOCK
  8
0
  2
*D36
 70
     1
 10
0.0
 20
0.0
 30
0.0
  3
*D36
  1

  0
LINE
  5
458CA
  8
回07-寸法
  6
CONTINUOUS
 62
     5
 10
3509.327008008865
 20
440.861692340864
 30
0.0
 11
3540.870631612294
 21
440.861692340864
 31
0.0
  0
LINE
  5
458CB
  8
回07-寸法
  6
CONTINUOUS
 62
     5
 10
3509.327008008865
 20
532.801692340864
 30
0.0
 11
3540.870631612294
 21
532.801692340864
 31
0.0
  0
LINE
  5
458CC
  8
回07-寸法
  6
CONTINUOUS
 62
     5
 10
3539.870631612294
 20
442.861692340864
 30
0.0
 11
3539.870631612294
 21
530.801692340864
 31
0.0
  0
INSERT
  5
458CD
  8
回07-寸法
  6
CONTINUOUS
 62
     5
  2
_OPEN
 10
3539.870631612294
 20
440.861692340864
 30
0.0
 41
2.0
 42
2.0
 43
2.0
 50
270.0
  0
INSERT
  5
458CE
  8
回07-寸法
  6
CONTINUOUS
 62
     5
  2
_OPEN
 10
3539.870631612294
 20
532.801692340864
 30
0.0
 41
2.0
 42
2.0
 43
2.0
 50
90.0
  0
TEXT
  5
458CF
  8
回07-寸法
  6
CONTINUOUS
 62
     5
 10
3539.220631612292
 20
468.8160362336739
 30
0.0
 40
3.0
  1
91.94(ACTIVE AREA)
 50
90.0
1001
ACAD
1000
MTEXTBEGIN
1070
    73
1070
     1
1070
    44
1040
1.0
1070
    74
1070
     0
1000
MTEXTEND
  0
POINT
  5
458D0
  8
DEFPOINTS
  6
CONTINUOUS
 62
     0
 10
3509.327008008865
 20
440.861692340864
 30
0.0
  0
POINT
  5
458D1
  8
DEFPOINTS
  6
CONTINUOUS
 62
     0
 10
3509.327008008865
 20
532.801692340864
 30
0.0
  0
POINT
  5
458D2
  8
DEFPOINTS
  6
CONTINUOUS
 62
     0
 10
3539.870631612294
 20
532.801692340864
 30
0.0
  0
ENDBLK
  5
45858
  8
0
 62
     5
  0
BLOCK
  8
0
  2
*D37
 70
     1
 10
0.0
 20
0.0
 30
0.0
  3
*D37
  1

  0
LINE
  5
458D3
  8
回07-寸法
  6
CONTINUOUS
 62
     5
 10
3349.127008008863
 20
538.8316923408638
 30
0.0
 11
3349.127008008863
 21
569.1596574723749
 31
0.0
  0
LINE
  5
458D4
  8
回07-寸法
  6
CONTINUOUS
 62
     5
 10
3514.127008008864
 20
538.8316923408638
 30
0.0
 11
3514.127008008864
 21
569.1596574723749
 31
0.0
  0
LINE
  5
458D5
  8
回07-寸法
  6
CONTINUOUS
 62
     5
 10
3351.127008008864
 20
568.1596574723748
 30
0.0
 11
3512.127008008864
 21
568.1596574723748
 31
0.0
  0
INSERT
  5
458D6
  8
回07-寸法
  6
CONTINUOUS
 62
     5
  2
_OPEN
 10
3349.127008008863
 20
568.1596574723748
 30
0.0
 41
2.0
 42
2.0
 43
2.0
 50
180.0
  0
INSERT
  5
458D7
  8
回07-寸法
  6
CONTINUOUS
 62
     5
  2
_OPEN
 10
3514.127008008864
 20
568.1596574723748
 30
0.0
 41
2.0
 42
2.0
 43
2.0
  0
INSERT
  5
458D8
  8
回07-寸法
  6
CONTINUOUS
 62
     5
 66
     1
  2
*X56
 10
0.0
 20
0.0
 30
0.0
  0
SEQEND
  5
45CE0
  8
0
  6
CONTINUOUS
 62
     5
  0
POINT
  5
458D9
  8
DEFPOINTS
  6
CONTINUOUS
 62
     0
 10
3349.127008008863
 20
538.8316923408638
 30
0.0
  0
POINT
  5
458DA
  8
DEFPOINTS
  6
CONTINUOUS
 62
     0
 10
3514.127008008864
 20
538.8316923408638
 30
0.0
  0
POINT
  5
458DB
  8
DEFPOINTS
  6
CONTINUOUS
 62
     0
 10
3514.127008008864
 20
568.1596574723748
 30
0.0
  0
ENDBLK
  5
45864
  8
0
 62
     5
  0
BLOCK
  8
0
  2
*D38
 70
     1
 10
0.0
 20
0.0
 30
0.0
  3
*D38
  1

  0
LINE
  5
458DC
  8
回07-寸法
  6
CONTINUOUS
 62
     5
 10
3514.127008008865
 20
538.831692340864
 30
0.0
 11
3563.857466411411
 21
538.831692340864
 31
0.0
  0
LINE
  5
458DD
  8
回07-寸法
  6
CONTINUOUS
 62
     5
 10
3514.127008008865
 20
434.831692340864
 30
0.0
 11
3563.857466411411
 21
434.831692340864
 31
0.0
  0
LINE
  5
458DE
  8
回07-寸法
  6
CONTINUOUS
 62
     5
 10
3562.857466411411
 20
536.831692340864
 30
0.0
 11
3562.857466411411
 21
436.831692340864
 31
0.0
  0
INSERT
  5
458DF
  8
回07-寸法
  6
CONTINUOUS
 62
     5
  2
_OPEN
 10
3562.857466411411
 20
538.831692340864
 30
0.0
 41
2.0
 42
2.0
 43
2.0
 50
90.0
  0
INSERT
  5
458E0
  8
回07-寸法
  6
CONTINUOUS
 62
     5
  2
_OPEN
 10
3562.857466411411
 20
434.831692340864
 30
0.0
 41
2.0
 42
2.0
 43
2.0
 50
270.0
  0
INSERT
  5
458E1
  8
回07-寸法
  6
CONTINUOUS
 62
     5
 66
     1
  2
*X57
 10
0.0
 20
0.0
 30
0.0
  0
SEQEND
  5
45CE6
  8
0
  6
CONTINUOUS
 62
     5
  0
POINT
  5
458E2
  8
DEFPOINTS
  6
CONTINUOUS
 62
     0
 10
3514.127008008865
 20
538.831692340864
 30
0.0
  0
POINT
  5
458E3
  8
DEFPOINTS
  6
CONTINUOUS
 62
     0
 10
3514.127008008865
 20
434.831692340864
 30
0.0
  0
POINT
  5
458E4
  8
DEFPOINTS
  6
CONTINUOUS
 62
     0
 10
3562.857466411411
 20
434.831692340864
 30
0.0
  0
ENDBLK
  5
45870
  8
0
 62
     5
  0
BLOCK
  8
0
  2
*D39
 70
     1
 10
0.0
 20
0.0
 30
0.0
  3
*D39
  1

  0
LINE
  5
45AC5
  8
回02-寸法
  6
CONTINUOUS
 62
     5
 10
3250.961619339935
 20
554.7819458719779
 30
0.0
 11
3220.542419234722
 21
554.7819458719779
 31
0.0
  0
LINE
  5
45AC6
  8
回02-寸法
  6
CONTINUOUS
 62
     5
 10
3250.961619339935
 20
542.2819458719788
 30
0.0
 11
3220.542419234722
 21
542.2819458719788
 31
0.0
  0
LINE
  5
45AC7
  8
回02-寸法
  6
CONTINUOUS
 62
     5
 10
3221.542419234722
 20
556.781945871978
 30
0.0
 11
3221.542419234722
 21
558.781945871978
 31
0.0
  0
LINE
  5
45AC8
  8
回02-寸法
  6
CONTINUOUS
 62
     5
 10
3221.542419234722
 20
540.2819458719789
 30
0.0
 11
3221.542419234722
 21
525.732069196782
 31
0.0
  0
LINE
  5
45AC9
  8
回02-寸法
  6
CONTINUOUS
 62
     5
 10
3221.542419234722
 20
554.7819458719779
 30
0.0
 11
3221.542419234722
 21
542.2819458719788
 31
0.0
  0
INSERT
  5
45ACA
  8
回02-寸法
  6
CONTINUOUS
 62
     5
  2
_OPEN
 10
3221.542419234722
 20
554.7819458719779
 30
0.0
 41
2.0
 42
2.0
 43
2.0
 50
270.0
  0
INSERT
  5
45ACB
  8
回02-寸法
  6
CONTINUOUS
 62
     5
  2
_OPEN
 10
3221.542419234722
 20
542.2819458719788
 30
0.0
 41
2.0
 42
2.0
 43
2.0
 50
90.0
  0
INSERT
  5
45ACC
  8
回02-寸法
  6
CONTINUOUS
 62
     5
 66
     1
  2
*X58
 10
0.0
 20
0.0
 30
0.0
  0
SEQEND
  5
45CEC
  8
0
  6
CONTINUOUS
 62
     5
  0
POINT
  5
45ACD
  8
DEFPOINTS
  6
CONTINUOUS
 62
     0
 10
3250.961619339935
 20
554.7819458719779
 30
0.0
  0
POINT
  5
45ACE
  8
DEFPOINTS
  6
CONTINUOUS
 62
     0
 10
3250.961619339935
 20
542.2819458719788
 30
0.0
  0
POINT
  5
45ACF
  8
DEFPOINTS
  6
CONTINUOUS
 62
     0
 10
3221.542419234722
 20
542.2819458719788
 30
0.0
  0
ENDBLK
  5
45A8F
  8
0
 62
     5
  0
BLOCK
  8
0
  2
*D40
 70
     1
 10
0.0
 20
0.0
 30
0.0
  3
*D40
  1

  0
LINE
  5
45AD0
  8
回02-寸法
  6
CONTINUOUS
 62
     5
 10
3247.062090250125
 20
547.2819458719733
 30
0.0
 11
3233.997106521246
 21
547.2819458719733
 31
0.0
  0
LINE
  5
45AD1
  8
回02-寸法
  6
CONTINUOUS
 62
     5
 10
3247.062090250125
 20
544.7819458719733
 30
0.0
 11
3233.997106521246
 21
544.7819458719733
 31
0.0
  0
LINE
  5
45AD2
  8
回02-寸法
  6
CONTINUOUS
 62
     5
 10
3234.997106521245
 20
549.2819458719733
 30
0.0
 11
3234.997106521245
 21
551.2819458719733
 31
0.0
  0
LINE
  5
45AD3
  8
回02-寸法
  6
CONTINUOUS
 62
     5
 10
3234.997106521245
 20
542.7819458719733
 30
0.0
 11
3234.997106521245
 21
527.8568213347686
 31
0.0
  0
LINE
  5
45AD4
  8
回02-寸法
  6
CONTINUOUS
 62
     5
 10
3234.997106521245
 20
547.2819458719733
 30
0.0
 11
3234.997106521245
 21
544.7819458719733
 31
0.0
  0
INSERT
  5
45AD5
  8
回02-寸法
  6
CONTINUOUS
 62
     5
  2
_OPEN
 10
3234.997106521245
 20
547.2819458719733
 30
0.0
 41
2.0
 42
2.0
 43
2.0
 50
270.0
  0
INSERT
  5
45AD6
  8
回02-寸法
  6
CONTINUOUS
 62
     5
  2
_OPEN
 10
3234.997106521245
 20
544.7819458719733
 30
0.0
 41
2.0
 42
2.0
 43
2.0
 50
90.0
  0
INSERT
  5
45AD7
  8
回02-寸法
  6
CONTINUOUS
 62
     5
 66
     1
  2
*X59
 10
0.0
 20
0.0
 30
0.0
  0
SEQEND
  5
45CF2
  8
0
  6
CONTINUOUS
 62
     5
  0
POINT
  5
45AD8
  8
DEFPOINTS
  6
CONTINUOUS
 62
     0
 10
3247.062090250125
 20
547.2819458719733
 30
0.0
  0
POINT
  5
45AD9
  8
DEFPOINTS
  6
CONTINUOUS
 62
     0
 10
3247.062090250125
 20
544.7819458719733
 30
0.0
  0
POINT
  5
45ADA
  8
DEFPOINTS
  6
CONTINUOUS
 62
     0
 10
3234.997106521245
 20
544.7819458719733
 30
0.0
  0
ENDBLK
  5
45A9D
  8
0
 62
     5
  0
BLOCK
  8
0
  2
*D41
 70
     1
 10
0.0
 20
0.0
 30
0.0
  3
*D41
  1

  0
LINE
  5
45ADB
  8
回02-寸法
  6
CONTINUOUS
 62
     5
 10
3249.9615323184
 20
545.4819458719733
 30
0.0
 11
3240.761744114097
 21
545.4819458719733
 31
0.0
  0
LINE
  5
45ADC
  8
回02-寸法
  6
CONTINUOUS
 62
     5
 10
3249.9615323184
 20
544.0819458719734
 30
0.0
 11
3240.761744114097
 21
544.0819458719734
 31
0.0
  0
LINE
  5
45ADD
  8
回02-寸法
  6
CONTINUOUS
 62
     5
 10
3241.761744114098
 20
547.4819458719734
 30
0.0
 11
3241.761744114098
 21
549.4819458719733
 31
0.0
  0
LINE
  5
45ADE
  8
回02-寸法
  6
CONTINUOUS
 62
     5
 10
3241.761744114098
 20
542.0819458719734
 30
0.0
 11
3241.761744114098
 21
524.8069663719734
 31
0.0
  0
LINE
  5
45ADF
  8
回02-寸法
  6
CONTINUOUS
 62
     5
 10
3241.761744114098
 20
545.4819458719733
 30
0.0
 11
3241.761744114098
 21
544.0819458719734
 31
0.0
  0
INSERT
  5
45AE0
  8
回02-寸法
  6
CONTINUOUS
 62
     5
  2
_OPEN
 10
3241.761744114098
 20
545.4819458719733
 30
0.0
 41
2.0
 42
2.0
 43
2.0
 50
270.0
  0
INSERT
  5
45AE1
  8
回02-寸法
  6
CONTINUOUS
 62
     5
  2
_OPEN
 10
3241.761744114098
 20
544.0819458719734
 30
0.0
 41
2.0
 42
2.0
 43
2.0
 50
90.0
  0
INSERT
  5
45AE2
  8
回02-寸法
  6
CONTINUOUS
 62
     5
 66
     1
  2
*X60
 10
0.0
 20
0.0
 30
0.0
  0
SEQEND
  5
45CF8
  8
0
  6
CONTINUOUS
 62
     5
  0
POINT
  5
45AE3
  8
DEFPOINTS
  6
CONTINUOUS
 62
     0
 10
3249.9615323184
 20
545.4819458719733
 30
0.0
  0
POINT
  5
45AE4
  8
DEFPOINTS
  6
CONTINUOUS
 62
     0
 10
3249.9615323184
 20
544.0819458719734
 30
0.0
  0
POINT
  5
45AE5
  8
DEFPOINTS
  6
CONTINUOUS
 62
     0
 10
3241.761744114098
 20
544.0819458719734
 30
0.0
  0
ENDBLK
  5
45AAB
  8
0
 62
     5
  0
BLOCK
  8
0
  2
*D42
 70
     1
 10
0.0
 20
0.0
 30
0.0
  3
*D42
  1

  0
LINE
  5
45AE6
  8
回02-寸法
  6
CONTINUOUS
 62
     5
 10
3247.062090250125
 20
544.7819458719733
 30
0.0
 11
3227.582368495043
 21
544.7819458719733
 31
0.0
  0
LINE
  5
45AE7
  8
回02-寸法
  6
CONTINUOUS
 62
     5
 10
3247.06200322859
 20
552.2819458719733
 30
0.0
 11
3227.582368495043
 21
552.2819458719733
 31
0.0
  0
LINE
  5
45AE8
  8
回02-寸法
  6
CONTINUOUS
 62
     5
 10
3228.582368495043
 20
554.2819458719733
 30
0.0
 11
3228.582368495043
 21
556.2819458719733
 31
0.0
  0
LINE
  5
45AE9
  8
回02-寸法
  6
CONTINUOUS
 62
     5
 10
3228.582368495043
 20
542.7819458719733
 30
0.0
 11
3228.582368495043
 21
527.6857733999332
 31
0.0
  0
LINE
  5
45AEA
  8
回02-寸法
  6
CONTINUOUS
 62
     5
 10
3228.582368495043
 20
552.2819458719733
 30
0.0
 11
3228.582368495043
 21
544.7819458719733
 31
0.0
  0
INSERT
  5
45AEB
  8
回02-寸法
  6
CONTINUOUS
 62
     5
  2
_OPEN
 10
3228.582368495043
 20
552.2819458719733
 30
0.0
 41
2.0
 42
2.0
 43
2.0
 50
270.0
  0
INSERT
  5
45AEC
  8
回02-寸法
  6
CONTINUOUS
 62
     5
  2
_OPEN
 10
3228.582368495043
 20
544.7819458719733
 30
0.0
 41
2.0
 42
2.0
 43
2.0
 50
90.0
  0
INSERT
  5
45AED
  8
回02-寸法
  6
CONTINUOUS
 62
     5
 66
     1
  2
*X61
 10
0.0
 20
0.0
 30
0.0
  0
SEQEND
  5
45CFE
  8
0
  6
CONTINUOUS
 62
     5
  0
POINT
  5
45AEE
  8
DEFPOINTS
  6
CONTINUOUS
 62
     0
 10
3247.062090250125
 20
544.7819458719733
 30
0.0
  0
POINT
  5
45AEF
  8
DEFPOINTS
  6
CONTINUOUS
 62
     0
 10
3247.06200322859
 20
552.2819458719733
 30
0.0
  0
POINT
  5
45AF0
  8
DEFPOINTS
  6
CONTINUOUS
 62
     0
 10
3228.582368495043
 20
552.2819458719733
 30
0.0
  0
ENDBLK
  5
45AB9
  8
0
 62
     5
  0
BLOCK
  8
0
  2
*X44
 70
     1
 10
0.0
 20
0.0
 30
0.0
  3
*X44
  1

  0
INSERT
  5
45C5F
  8
回07-寸法
  6
CONTINUOUS
 62
     5
  2
_OPEN
 10
3348.841537544763
 20
495.4177950223535
 30
0.0
 41
1.999999999999999
 42
1.999999999999999
 43
2.0
 50
303.1116301219789
  0
LINE
  5
45C60
  8
回07-寸法
  6
CONTINUOUS
 62
     5
 10
3347.748993558378
 20
497.0930107212452
 30
0.0
 11
3345.18777180813
 21
501.0201742385279
 31
0.0
  0
LINE
  5
45C61
  8
回07-寸法
  6
CONTINUOUS
 62
     5
 10
3345.18777180813
 20
501.0201742385279
 30
0.0
 11
3342.68777180813
 21
501.0201742385279
 31
0.0
  0
ENDBLK
  5
45C63
  8
0
  6
CONTINUOUS
 62
     5
  0
BLOCK
  8
0
  2
*X45
 70
     1
 10
0.0
 20
0.0
 30
0.0
  3
*X45
  1

  0
INSERT
  5
45C66
  8
回07-寸法
  6
CONTINUOUS
 62
     5
  2
_OPEN
 10
3339.397485318567
 20
490.0324225397906
 30
0.0
 41
1.999999999999999
 42
1.999999999999999
 43
2.0
 50
283.6461872616317
  0
LINE
  5
45C67
  8
回07-寸法
  6
CONTINUOUS
 62
     5
 10
3338.925634211343
 20
491.9759648039594
 30
0.0
 11
3337.772308408122
 21
496.7264833649962
 31
0.0
  0
LINE
  5
45C68
  8
回07-寸法
  6
CONTINUOUS
 62
     5
 10
3337.772308408122
 20
496.7264833649962
 30
0.0
 11
3335.272308408122
 21
496.7264833649962
 31
0.0
  0
ENDBLK
  5
45C6A
  8
0
  6
CONTINUOUS
 62
     5
  0
BLOCK
  8
0
  2
*X46
 70
     1
 10
0.0
 20
0.0
 30
0.0
  3
*X46
  1

  0
LINE
  5
45C72
  8
回08-記事
  6
CONTINUOUS
 62
     7
 10
3344.827008008864
 20
483.4231530737522
 30
0.0
 11
3346.985547275976
 21
485.5816923408635
 31
0.0
  0
LINE
  5
45C73
  8
回08-記事
  6
CONTINUOUS
 62
     7
 10
3344.827008008864
 20
481.1780890434852
 30
0.0
 11
3349.230611306242
 21
485.5816923408633
 31
0.0
  0
LINE
  5
45C74
  8
回08-記事
  6
CONTINUOUS
 62
     7
 10
3345.475675336509
 20
479.5816923408633
 30
0.0
 11
3351.47567533651
 21
485.5816923408635
 31
0.0
  0
LINE
  5
45C75
  8
回08-記事
  6
CONTINUOUS
 62
     7
 10
3347.720739366777
 20
479.5816923408636
 30
0.0
 11
3353.027008008864
 21
484.8879609829507
 31
0.0
  0
LINE
  5
45C76
  8
回08-記事
  6
CONTINUOUS
 62
     7
 10
3349.965803397044
 20
479.5816923408633
 30
0.0
 11
3353.027008008864
 21
482.6428969526832
 31
0.0
  0
LINE
  5
45C77
  8
回08-記事
  6
CONTINUOUS
 62
     7
 10
3352.210867427312
 20
479.5816923408637
 30
0.0
 11
3353.027008008864
 21
480.3978329224159
 31
0.0
  0
ENDBLK
  5
45C79
  8
0
  6
CONTINUOUS
 62
     5
  0
BLOCK
  8
0
  2
*X47
 70
     1
 10
0.0
 20
0.0
 30
0.0
  3
*X47
  1

  0
TEXT
  5
45C8B
  8
回08-記事
  6
CONTINUOUS
 62
     5
 10
3472.851349106901
 20
463.5560334389006
 30
0.0
 40
3.0
  1
φ0.05
  0
POLYLINE
  5
45C8C
  8
回08-記事
  6
BYBLOCK
 62
     5
 66
     1
 10
0.0
 20
0.0
 30
0.0
  0
VERTEX
  5
45C8D
  8
回08-記事
  6
BYBLOCK
 62
     5
 10
3470.349074915669
 20
460.1855826694684
 30
0.0
  0
VERTEX
  5
45C8F
  8
回08-記事
  6
BYBLOCK
 62
     5
 10
3473.361349106901
 20
462.9560334389006
 30
0.0
  0
SEQEND
  5
45C8E
  8
0
  6
CONTINUOUS
 62
     5
  0
INSERT
  5
45C90
  8
回08-記事
  6
CONTINUOUS
 62
     5
  2
_OPEN
 10
3468.877008008864
 20
458.8316923408638
 30
0.0
 41
2.0
 42
2.0
 43
2.0
 50
222.6053861523265
  0
POLYLINE
  5
45C91
  8
回08-記事
  6
BYBLOCK
 62
     5
 66
     1
 10
0.0
 20
0.0
 30
0.0
  0
VERTEX
  5
45C92
  8
回08-記事
  6
BYBLOCK
 62
     5
 10
3473.361349106901
 20
462.9560334389006
 30
0.0
  0
VERTEX
  5
45C94
  8
回08-記事
  6
BYBLOCK
 62
     5
 10
3483.201349106901
 20
462.9560334389006
 30
0.0
  0
SEQEND
  5
45C93
  8
0
  6
CONTINUOUS
 62
     5
  0
ENDBLK
  5
45C96
  8
0
  6
CONTINUOUS
 62
     5
  0
BLOCK
  8
0
  2
*X48
 70
     1
 10
0.0
 20
0.0
 30
0.0
  3
*X48
  1

  0
INSERT
  5
45C99
  8
回03-記事
  6
CONTINUOUS
 62
     5
  2
_OPEN
 10
3271.347127349761
 20
379.1822763799674
 30
0.0
 41
2.0
 42
2.0
 43
2.0
 50
324.3887742357533
  0
LINE
  5
45C9A
  8
回03-記事
  6
CONTINUOUS
 62
     5
 10
3269.721153965565
 20
380.3468409139831
 30
0.0
 11
3262.882562951514
 21
385.2448181102965
 31
0.0
  0
LINE
  5
45C9B
  8
回03-記事
  6
CONTINUOUS
 62
     5
 10
3262.882562951514
 20
385.2448181102965
 30
0.0
 11
3236.675062951513
 21
385.2448181102965
 31
0.0
  0
ENDBLK
  5
45C9D
  8
0
  6
CONTINUOUS
 62
     5
  0
BLOCK
  8
0
  2
*X49
 70
     1
 10
0.0
 20
0.0
 30
0.0
  3
*X49
  1

  0
INSERT
  5
45CA0
  8
回03-記事
  6
CONTINUOUS
 62
     5
  2
_OPEN
 10
3347.485269248133
 20
481.3083007439139
 30
0.0
 41
2.0
 42
2.0
 43
2.0
 50
70.22821374870611
  0
LINE
  5
45CA1
  8
回03-記事
  6
CONTINUOUS
 62
     5
 10
3346.808720112045
 20
479.4262058296074
 30
0.0
 11
3337.59391814896
 21
453.7915091225071
 31
0.0
  0
LINE
  5
45CA2
  8
回03-記事
  6
CONTINUOUS
 62
     5
 10
3337.59391814896
 20
453.7915091225071
 30
0.0
 11
3302.69391814896
 21
453.7915091225071
 31
0.0
  0
ENDBLK
  5
45CA4
  8
0
  6
CONTINUOUS
 62
     5
  0
BLOCK
  8
0
  2
*X50
 70
     1
 10
0.0
 20
0.0
 30
0.0
  3
*X50
  1

  0
INSERT
  5
45CB3
  8
回02-寸法
  6
CONTINUOUS
 62
     5
  2
_OPEN
 10
3250.248318213486
 20
554.5085541843195
 30
0.0
 41
2.0
 42
2.0
 43
2.0
 50
294.1578552206892
  0
LINE
  5
45CB4
  8
回02-寸法
 62
     5
 10
3249.429814215034
 20
556.3333969733068
 30
0.0
 11
3248.250586415151
 21
558.9624682438938
 31
0.0
  0
LINE
  5
45CB5
  8
回02-寸法
 62
     5
 10
3248.250586415151
 20
558.9624682438938
 30
0.0
 11
3234.950586415151
 21
558.9624682438938
 31
0.0
  0
ENDBLK
  5
45CB7
  8
0
  6
CONTINUOUS
 62
     5
  0
BLOCK
  8
0
  2
*X51
 70
     1
 10
0.0
 20
0.0
 30
0.0
  3
*X51
  1

  0
INSERT
  5
45CBA
  8
回03-記事
  6
CONTINUOUS
 62
     5
  2
_OPEN
 10
3271.540969329985
 20
489.9475815791261
 30
0.0
 41
2.0
 42
2.0
 43
2.0
 50
236.6265780747945
  0
LINE
  5
45CBB
  8
回03-記事
  6
CONTINUOUS
 62
     5
 10
3272.64115616177
 20
491.617787834404
 30
0.0
 11
3275.401142462474
 21
495.8077547116146
 31
0.0
  0
LINE
  5
45CBC
  8
回03-記事
  6
CONTINUOUS
 62
     5
 10
3275.401142462474
 20
495.8077547116146
 30
0.0
 11
3277.901142462474
 21
495.8077547116146
 31
0.0
  0
ENDBLK
  5
45CBE
  8
0
  6
CONTINUOUS
 62
     5
  0
BLOCK
  8
0
  2
*X52
 70
     1
 10
0.0
 20
0.0
 30
0.0
  3
*X52
  1

  0
TEXT
  5
45CC4
  8
回07-寸法
  6
CONTINUOUS
 62
     5
 10
3520.578040471804
 20
354.8319419580185
 30
0.0
 40
3.0
  1
1.4±
 50
90.0
  0
TEXT
  5
45CC5
  8
回07-寸法
  6
CONTINUOUS
 62
     5
 10
3520.578040471804
 20
361.7319419580185
 30
0.0
 40
2.499989999999999
  1
0.2
 50
90.0
  0
ENDBLK
  5
45CC7
  8
0
  6
CONTINUOUS
 62
     5
  0
BLOCK
  8
0
  2
*X53
 70
     1
 10
0.0
 20
0.0
 30
0.0
  3
*X53
  1

  0
TEXT
  5
45CCA
  8
回07-寸法
  6
CONTINUOUS
 62
     5
 10
3261.211047550919
 20
353.8055223917759
 30
0.0
 40
3.0
  1
0.3±
 50
90.0
  0
TEXT
  5
45CCB
  8
回07-寸法
  6
CONTINUOUS
 62
     5
 10
3261.211047550919
 20
361.0055223917757
 30
0.0
 40
2.499989999999999
  1
0.05
 50
90.0
  0
ENDBLK
  5
45CCD
  8
0
  6
CONTINUOUS
 62
     5
  0
BLOCK
  8
0
  2
*X54
 70
     1
 10
0.0
 20
0.0
 30
0.0
  3
*X54
  1

  0
TEXT
  5
45CD0
  8
回07-寸法
  6
CONTINUOUS
 62
     5
 10
3307.741070338773
 20
511.8922372157435
 30
0.0
 40
3.0
  1
80
  0
TEXT
  5
45CD1
  8
回07-寸法
  6
CONTINUOUS
 62
     5
 10
3311.941070338774
 20
511.8922372157435
 30
0.0
 40
2.1
  1
±1
  0
ENDBLK
  5
45CD3
  8
0
  6
CONTINUOUS
 62
     5
  0
BLOCK
  8
0
  2
*X55
 70
     1
 10
0.0
 20
0.0
 30
0.0
  3
*X55
  1

  0
TEXT
  5
45CD6
  8
回07-寸法
  6
CONTINUOUS
 62
     5
 10
3260.766083392123
 20
494.1592859485272
 30
0.0
 40
3.0
  1
6.25
 50
90.0
  0
TEXT
  5
45CD7
  8
回07-寸法
  6
CONTINUOUS
 62
     5
 10
3260.766083392123
 20
501.359285948527
 30
0.0
 40
2.1
  1
±0.2
 50
90.0
  0
ENDBLK
  5
45CD9
  8
0
  6
CONTINUOUS
 62
     5
  0
BLOCK
  8
0
  2
*X56
 70
     1
 10
0.0
 20
0.0
 30
0.0
  3
*X56
  1

  0
TEXT
  5
45CDC
  8
回07-寸法
  6
CONTINUOUS
 62
     5
 10
3426.189508008864
 20
568.6596574723749
 30
0.0
 40
3.0
  1
165
  0
TEXT
  5
45CDD
  8
回07-寸法
  6
CONTINUOUS
 62
     5
 10
3431.889508008863
 20
568.6596574723749
 30
0.0
 40
2.1
  1
±0.3
  0
ENDBLK
  5
45CDF
  8
0
  6
CONTINUOUS
 62
     5
  0
BLOCK
  8
0
  2
*X57
 70
     1
 10
0.0
 20
0.0
 30
0.0
  3
*X57
  1

  0
TEXT
  5
45CE2
  8
回07-寸法
  6
CONTINUOUS
 62
     5
 10
3562.35746641141
 20
481.2441923408646
 30
0.0
 40
3.0
  1
104
 50
90.0
  0
TEXT
  5
45CE3
  8
回07-寸法
  6
CONTINUOUS
 62
     5
 10
3562.35746641141
 20
487.2441923408646
 30
0.0
 40
2.1
  1
±0.3
 50
90.0
  0
ENDBLK
  5
45CE5
  8
0
  6
CONTINUOUS
 62
     5
  0
BLOCK
  8
0
  2
*X58
 70
     1
 10
0.0
 20
0.0
 30
0.0
  3
*X58
  1

  0
TEXT
  5
45CE8
  8
回02-寸法
  6
CONTINUOUS
 62
     5
 10
3221.042123959131
 20
525.9316738997632
 30
0.0
 40
3.0
  1
6.25
 50
90.0
  0
TEXT
  5
45CE9
  8
回02-寸法
  6
CONTINUOUS
 62
     5
 10
3221.042123959131
 20
533.1316738997629
 30
0.0
 40
2.000099999999999
  1
±0.2
 50
90.0
  0
ENDBLK
  5
45CEB
  8
0
  6
CONTINUOUS
 62
     5
  0
BLOCK
  8
0
  2
*X59
 70
     1
 10
0.0
 20
0.0
 30
0.0
  3
*X59
  1

  0
TEXT
  5
45CEE
  8
回02-寸法
  6
CONTINUOUS
 62
     5
 10
3234.496811245654
 20
527.981618450025
 30
0.0
 40
3.0
  1
1.25
 50
90.0
  0
TEXT
  5
45CEF
  8
回02-寸法
  6
CONTINUOUS
 62
     5
 10
3234.496811245654
 20
534.5816184500249
 30
0.0
 40
2.499989999999999
  1
±0.2
 50
90.0
  0
ENDBLK
  5
45CF1
  8
0
  6
CONTINUOUS
 62
     5
  0
BLOCK
  8
0
  2
*X60
 70
     1
 10
0.0
 20
0.0
 30
0.0
  3
*X60
  1

  0
TEXT
  5
45CF4
  8
回02-寸法
  6
CONTINUOUS
 62
     5
 10
3241.261744114097
 20
524.8569663719726
 30
0.0
 40
3.0
  1
4-0.7
 50
90.0
  0
TEXT
  5
45CF5
  8
回02-寸法
  6
CONTINUOUS
 62
     5
 10
3241.261744114097
 20
534.4569663719726
 30
0.0
 40
2.499989999999999
  1
±0.1
 50
90.0
  0
ENDBLK
  5
45CF7
  8
0
  6
CONTINUOUS
 62
     5
  0
BLOCK
  8
0
  2
*X61
 70
     1
 10
0.0
 20
0.0
 30
0.0
  3
*X61
  1

  0
TEXT
  5
45CFA
  8
回02-寸法
  6
CONTINUOUS
 62
     5
 10
3228.082368495042
 20
527.7357733999324
 30
0.0
 40
3.0
  1
3.75
 50
90.0
  0
TEXT
  5
45CFB
  8
回02-寸法
  6
CONTINUOUS
 62
     5
 10
3228.082368495042
 20
534.9357733999323
 30
0.0
 40
2.00001
  1
±0.1
 50
90.0
  0
ENDBLK
  5
45CFD
  8
0
  6
CONTINUOUS
 62
     5
  0
ENDSEC
  0
SECTION
  2
ENTITIES
  0
TEXT
  5
44A2F
  8
回03-記事
  6
CONTINUOUS
 62
     7
 10
3661.529236284042
 20
534.3517785967137
 30
0.0
 40
5.459999999999999
  1
XR
  0
LINE
  5
44A30
  8
回03-記事
  6
CONTINUOUS
 62
     7
 10
3661.23261810574
 20
542.314983673996
 30
0.0
 11
3666.30261810574
 21
542.314983673996
 31
0.0
  0
LINE
  5
44A31
  8
回03-記事
  6
CONTINUOUS
 62
     7
 10
3609.36261810574
 20
581.314983673996
 30
0.0
 11
3666.30261810574
 21
581.314983673996
 31
0.0
  0
LINE
  5
44A32
  8
回03-記事
  6
CONTINUOUS
 62
     7
 10
3609.36261810574
 20
602.7649836739961
 30
0.0
 11
3687.752618105739
 21
602.7649836739961
 31
0.0
  0
LINE
  5
44A33
  8
回03-記事
  6
CONTINUOUS
 62
     7
 10
3642.12261810574
 20
520.864983673996
 30
0.0
 11
3687.752618105739
 21
520.864983673996
 31
0.0
  0
TEXT
  5
44A34
  8
回03-記事
  6
CONTINUOUS
 62
     7
 10
3612.501975238262
 20
502.55996245215
 30
0.0
 40
8.0
  1
Pin Assignment
  0
LINE
  5
44A35
  8
回03-記事
  6
CONTINUOUS
 62
     7
 10
3609.36261810574
 20
540.7549836739958
 30
0.0
 11
3626.756618105741
 21
540.7549836739958
 31
0.0
  0
LINE
  5
44A36
  8
回03-記事
  6
CONTINUOUS
 62
     7
 10
3609.36261810574
 20
559.0849836739957
 30
0.0
 11
3642.12261810574
 21
559.0849836739957
 31
0.0
  0
TEXT
  5
44A37
  8
回03-記事
  6
CONTINUOUS
 62
     7
 10
3602.784402122402
 20
556.7120388927248
 30
0.0
 40
6.240000000000001
  1
2
  0
TEXT
  5
44A38
  8
回03-記事
  6
CONTINUOUS
 62
     7
 10
3603.262893417124
 20
537.662783393808
 30
0.0
 40
6.240000000000001
  1
1
  0
TEXT
  5
44A39
  8
回03-記事
  6
CONTINUOUS
 62
     7
 10
3615.949684930683
 20
543.0421430042408
 30
0.0
 40
5.459999999999999
  1
XL
  0
TEXT
  5
44A3A
  8
回03-記事
  6
CONTINUOUS
 62
     7
 10
3627.7794899404
 20
523.0890615326543
 30
0.0
 40
5.459999999999999
  1
YD
  0
LINE
  5
44A3B
  8
回03-記事
  6
CONTINUOUS
 62
     7
 10
3639.31461810574
 20
527.728983673996
 30
0.0
 11
3642.12261810574
 21
526.3249836739958
 31
0.0
  0
LINE
  5
44A3C
  8
回03-記事
  6
CONTINUOUS
 62
     7
 10
3642.12261810574
 20
520.864983673996
 30
0.0
 11
3642.12261810574
 21
526.3249836739958
 31
0.0
  0
LINE
  5
44A3D
  8
回03-記事
  6
CONTINUOUS
 62
     7
 10
3645.39861810574
 20
544.3429836739958
 30
0.0
 11
3648.206618105741
 21
538.7269836739956
 31
0.0
  0
TEXT
  5
44A3E
  8
回03-記事
  6
CONTINUOUS
 62
     7
 10
3643.654878003868
 20
560.1134376204752
 30
0.0
 40
5.459999999999999
  1
YU
  0
LINE
  5
44A3F
  8
回03-記事
  6
CONTINUOUS
 62
     7
 10
3642.12261810574
 20
554.4049836739954
 30
0.0
 11
3644.93061810574
 21
553.0009836739952
 31
0.0
  0
LINE
  5
44A40
  8
回03-記事
  6
CONTINUOUS
 62
     7
 10
3642.59061810574
 20
538.7269836739956
 30
0.0
 11
3645.39861810574
 21
544.3429836739958
 31
0.0
  0
LINE
  5
44A41
  8
回03-記事
  6
CONTINUOUS
 62
     7
 10
3642.12261810574
 20
554.4049836739954
 30
0.0
 11
3642.12261810574
 21
559.0849836739957
 31
0.0
  0
LINE
  5
44A42
  8
回03-記事
  6
CONTINUOUS
 62
     7
 10
3636.97461810574
 20
538.7269836739956
 30
0.0
 11
3639.78261810574
 21
544.3429836739958
 31
0.0
  0
LINE
  5
44A43
  8
回03-記事
  6
CONTINUOUS
 62
     7
 10
3628.55061810574
 20
544.3429836739958
 30
0.0
 11
3631.35861810574
 21
538.7269836739956
 31
0.0
  0
LINE
  5
44A44
  8
回03-記事
  6
CONTINUOUS
 62
     7
 10
3626.756618105741
 20
540.7549836739958
 30
0.0
 11
3628.55061810574
 21
544.3429836739958
 31
0.0
  0
LINE
  5
44A45
  8
回03-記事
  6
CONTINUOUS
 62
     7
 10
3631.35861810574
 20
538.7269836739956
 30
0.0
 11
3634.16661810574
 21
544.3429836739958
 31
0.0
  0
LINE
  5
44A46
  8
回03-記事
  6
CONTINUOUS
 62
     7
 10
3634.16661810574
 20
544.3429836739958
 30
0.0
 11
3636.97461810574
 21
538.7269836739956
 31
0.0
  0
LINE
  5
44A47
  8
回03-記事
  6
CONTINUOUS
 62
     7
 10
3639.31461810574
 20
544.5769836739954
 30
0.0
 11
3644.93061810574
 21
541.7689836739961
 31
0.0
  0
LINE
  5
44A48
  8
回03-記事
  6
CONTINUOUS
 62
     7
 10
3639.31461810574
 20
550.1929836739959
 30
0.0
 11
3644.93061810574
 21
547.3849836739957
 31
0.0
  0
LINE
  5
44A49
  8
回03-記事
  6
CONTINUOUS
 62
     7
 10
3639.31461810574
 20
550.1929836739959
 30
0.0
 11
3644.93061810574
 21
553.0009836739952
 31
0.0
  0
LINE
  5
44A4A
  8
回03-記事
  6
CONTINUOUS
 62
     7
 10
3639.31461810574
 20
544.5769836739954
 30
0.0
 11
3644.93061810574
 21
547.3849836739957
 31
0.0
  0
LINE
  5
44A4B
  8
回03-記事
  6
CONTINUOUS
 62
     7
 10
3639.31461810574
 20
533.3449836739955
 30
0.0
 11
3644.93061810574
 21
530.5369836739962
 31
0.0
  0
LINE
  5
44A4C
  8
回03-記事
  6
CONTINUOUS
 62
     7
 10
3639.31461810574
 20
527.728983673996
 30
0.0
 11
3644.93061810574
 21
530.5369836739962
 31
0.0
  0
LINE
  5
44A4D
  8
回03-記事
  6
CONTINUOUS
 62
     7
 10
3639.31461810574
 20
533.3449836739955
 30
0.0
 11
3644.93061810574
 21
536.1529836739964
 31
0.0
  0
LINE
  5
44A4E
  8
回03-記事
  6
CONTINUOUS
 62
     7
 10
3639.31461810574
 20
538.960983673996
 30
0.0
 11
3644.93061810574
 21
536.1529836739964
 31
0.0
  0
LINE
  5
44A4F
  8
回03-記事
  6
CONTINUOUS
 62
     7
 10
3639.31461810574
 20
538.960983673996
 30
0.0
 11
3644.93061810574
 21
541.7689836739961
 31
0.0
  0
LINE
  5
44A50
  8
回03-記事
  6
CONTINUOUS
 62
     7
 10
3639.78261810574
 20
544.3429836739958
 30
0.0
 11
3642.59061810574
 21
538.7269836739956
 31
0.0
  0
LINE
  5
44A51
  8
回03-記事
  6
CONTINUOUS
 62
     7
 10
3653.82261810574
 20
538.7269836739956
 30
0.0
 11
3656.63061810574
 21
544.3429836739958
 31
0.0
  0
LINE
  5
44A52
  8
回03-記事
  6
CONTINUOUS
 62
     7
 10
3648.206618105741
 20
538.7269836739956
 30
0.0
 11
3651.01461810574
 21
544.3429836739958
 31
0.0
  0
LINE
  5
44A53
  8
回03-記事
  6
CONTINUOUS
 62
     7
 10
3651.01461810574
 20
544.3429836739958
 30
0.0
 11
3653.82261810574
 21
538.7269836739956
 31
0.0
  0
LINE
  5
44A54
  8
回03-記事
  6
CONTINUOUS
 62
     7
 10
3659.438618105741
 20
538.7269836739956
 30
0.0
 11
3661.23261810574
 21
542.314983673996
 31
0.0
  0
LINE
  5
44A55
  8
回03-記事
  6
CONTINUOUS
 62
     7
 10
3656.63061810574
 20
544.3429836739958
 30
0.0
 11
3659.438618105741
 21
538.7269836739956
 31
0.0
  0
TEXT
  5
44A56
  8
回03-記事
  6
CONTINUOUS
 62
     7
 10
3602.664337463479
 20
599.9044855390345
 30
0.0
 40
6.240000000000001
  1
4
  0
TEXT
  5
44A57
  8
回03-記事
  6
CONTINUOUS
 62
     7
 10
3603.020907173533
 20
578.2530844551745
 30
0.0
 40
6.240000000000001
  1
3
  0
LINE
  5
44A58
  8
回03-記事
  6
CONTINUOUS
 62
     7
 10
3687.752618105739
 20
520.864983673996
 30
0.0
 11
3687.752618105739
 21
602.7649836739961
 31
0.0
  0
LINE
  5
44A59
  8
回03-記事
  6
CONTINUOUS
 62
     7
 10
3666.30261810574
 20
542.314983673996
 30
0.0
 11
3666.30261810574
 21
581.314983673996
 31
0.0
  0
LINE
  5
44A5A
  8
回04-図面枠
 62
     7
 10
3558.595691797219
 20
305.8882001559459
 30
0.0
 11
3698.595691797219
 21
305.8882001559459
 31
0.0
  0
LINE
  5
44A5B
  8
回04-図面枠
 62
     7
 10
3558.595691797219
 20
310.8882001559459
 30
0.0
 11
3698.595691797219
 21
310.8882001559459
 31
0.0
  0
LINE
  5
44A5C
  8
回04-図面枠
 62
     7
 10
3558.595691797219
 20
290.8882001559459
 30
0.0
 11
3698.595691797219
 21
290.8882001559459
 31
0.0
  0
LINE
  5
44A5D
  8
回04-図面枠
 62
     7
 10
3194.595691797219
 20
627.3882001559459
 30
0.0
 11
3698.595691797219
 21
627.3882001559459
 31
0.0
  0
LINE
  5
44A5E
  8
回04-図面枠
 62
     7
 10
3703.095691797219
 20
631.8882001559459
 30
0.0
 11
3190.095691797219
 21
631.8882001559459
 31
0.0
  0
LINE
  5
44A5F
  8
回04-図面枠
 62
     7
 10
3703.095691797219
 20
276.3882001559459
 30
0.0
 11
3190.095691797219
 21
276.3882001559459
 31
0.0
  0
LINE
  5
44A60
  8
回04-図面枠
 62
     7
 10
3194.595691797219
 20
280.8882001559459
 30
0.0
 11
3698.595691797219
 21
280.8882001559459
 31
0.0
  0
LINE
  5
44A61
  8
回04-図面枠
 62
     7
 10
3194.595691797219
 20
627.3882001559459
 30
0.0
 11
3194.595691797219
 21
280.8882001559459
 31
0.0
  0
LINE
  5
44A62
  8
回04-図面枠
 62
     7
 10
3190.095691797219
 20
276.3882001559459
 30
0.0
 11
3190.095691797219
 21
631.8882001559459
 31
0.0
  0
TEXT
  5
44A63
  8
回04-図面枠
 62
     7
 10
3191.017606199687
 20
313.5480187222193
 30
0.0
 40
3.6
  1
5
  0
LINE
  5
44A64
  8
回04-図面枠
 62
     7
 10
3194.595691797219
 20
350.1882001559457
 30
0.0
 11
3190.095691797219
 21
350.1882001559457
 31
0.0
  0
TEXT
  5
44A65
  8
回04-図面枠
 62
     7
 10
3224.952138572306
 20
276.7233809693916
 30
0.0
 40
3.6
  1
A
  0
LINE
  5
44A66
  8
回04-図面枠
 62
     7
 10
3257.595691797219
 20
280.8882001559459
 30
0.0
 11
3257.595691797219
 21
276.3882001559459
 31
0.0
  0
TEXT
  5
44A67
  8
回04-図面枠
 62
     7
 10
3191.017606199687
 20
382.848018722219
 30
0.0
 40
3.6
  1
4
  0
LINE
  5
44A68
  8
回04-図面枠
 62
     7
 10
3194.595691797219
 20
419.4882001559458
 30
0.0
 11
3190.095691797219
 21
419.4882001559458
 31
0.0
  0
TEXT
  5
44A69
  8
回04-図面枠
 62
     7
 10
3191.08338910776
 20
452.1480187222191
 30
0.0
 40
3.6
  1
3
  0
TEXT
  5
44A6A
  8
回04-図面枠
 62
     7
 10
3287.952138572306
 20
276.7233809693916
 30
0.0
 40
3.6
  1
B
  0
LINE
  5
44A6B
  8
回04-図面枠
 62
     7
 10
3320.595691797219
 20
280.8882001559459
 30
0.0
 11
3320.595691797219
 21
276.3882001559459
 31
0.0
  0
TEXT
  5
44A6C
  8
回04-図面枠
 62
     7
 10
3350.952138572306
 20
276.7233809693916
 30
0.0
 40
3.6
  1
C
  0
LINE
  5
44A6D
  8
回04-図面枠
 62
     7
 10
3383.595691797219
 20
280.8882001559459
 30
0.0
 11
3383.595691797219
 21
276.3882001559459
 31
0.0
  0
LINE
  5
44A6E
  8
回04-図面枠
 62
     7
 10
3558.595691797219
 20
295.8882001559459
 30
0.0
 11
3623.595691797219
 21
295.8882001559459
 31
0.0
  0
TEXT
  5
44A6F
  8
回04-図面枠
 62
     7
 10
3413.952138572306
 20
276.7233809693916
 30
0.0
 40
3.6
  1
D
  0
LINE
  5
44A70
  8
回04-図面枠
 62
     7
 10
3446.595691797219
 20
280.8882001559459
 30
0.0
 11
3446.595691797219
 21
276.3882001559459
 31
0.0
  0
TEXT
  5
44A71
  8
回04-図面枠
 62
     7
 10
3476.952138572306
 20
276.7233809693916
 30
0.0
 40
3.6
  1
E
  0
LINE
  5
44A72
  8
回04-図面枠
 62
     7
 10
3509.595691797219
 20
280.8882001559459
 30
0.0
 11
3509.595691797219
 21
276.3882001559459
 31
0.0
  0
LINE
  5
44A73
  8
回04-図面枠
 62
     7
 10
3558.595691797219
 20
310.8882001559459
 30
0.0
 11
3558.595691797219
 21
280.8882001559459
 31
0.0
  0
TEXT
  5
44A74
  8
回04-図面枠
 62
     7
 10
3539.952138572306
 20
276.7233809693916
 30
0.0
 40
3.6
  1
F
  0
LINE
  5
44A75
  8
回04-図面枠
 62
     7
 10
3572.595691797219
 20
280.8882001559459
 30
0.0
 11
3572.595691797219
 21
276.3882001559459
 31
0.0
  0
TEXT
  5
44A76
  8
回04-図面枠
 62
     7
 10
3586.295691797219
 20
291.631819845521
 30
0.0
 40
3.0
  1
TYPE
 72
     1
 11
3591.09569179722
 21
291.631819845521
 31
0.0
  0
LINE
  5
44A77
  8
回04-図面枠
 62
     7
 10
3623.595691797219
 20
310.8882001559459
 30
0.0
 11
3623.595691797219
 21
280.8882001559459
 31
0.0
  0
TEXT
  5
44A78
  8
回04-図面枠
 62
     7
 10
3574.515590335869
 20
282.0382308873318
 30
0.0
 40
3.0
  1
CIRCUIT　DRAWING
 72
     1
 11
3591.09569179722
 21
282.0382308873318
 31
0.0
  0
TEXT
  5
44A79
  8
回04-図面枠
 62
     7
 10
3567.755101246038
 20
287.0382308873318
 30
0.0
 40
3.0
  1
STANDARD TOUCHSCREEN
 72
     1
 11
3591.09569179722
 21
287.0382308873318
 31
0.0
  0
LINE
  5
44A7A
  8
回04-図面枠
 62
     7
 10
3561.595691797219
 20
285.8882001559459
 30
0.0
 11
3620.595691797219
 21
285.8882001559459
 31
0.0
  0
TEXT
  5
44A7B
  8
回04-図面枠
 62
     7
 10
3602.952138572306
 20
276.7233809693916
 30
0.0
 40
3.6
  1
G
  0
TEXT
  5
44A7C
  8
回04-図面枠
 62
     7
 10
3581.645691797219
 20
306.8354530753091
 30
0.0
 40
3.0
  1
PART　No.
 72
     1
 11
3591.09569179722
 21
306.8354530753091
 31
0.0
  0
TEXT
  5
44A7D
  8
回04-図面枠
 62
     7
 10
3566.095691797219
 20
298.3800823511779
 30
0.0
 40
5.0
  1
LST-070WB080A
 72
     1
 11
3591.09569179722
 21
298.3800823511779
 31
0.0
  0
TEXT
  5
44A7E
  8
回04-図面枠
 62
     7
 10
3191.359670700512
 20
590.748018722219
 30
0.0
 40
3.6
  1
1
  0
LINE
  5
44A7F
  8
回04-図面枠
 62
     7
 10
3194.595691797219
 20
488.7882001559455
 30
0.0
 11
3190.095691797219
 21
488.7882001559455
 31
0.0
  0
TEXT
  5
44A80
  8
回04-図面枠
 62
     7
 10
3191.088321867541
 20
521.4480187222193
 30
0.0
 40
3.6
  1
2
  0
LINE
  5
44A81
  8
回04-図面枠
 62
     7
 10
3194.595691797219
 20
558.0882001559457
 30
0.0
 11
3190.095691797219
 21
558.0882001559457
 31
0.0
  0
TEXT
  5
44A82
  8
回04-図面枠
 62
     7
 10
3224.952138572306
 20
627.7233809693917
 30
0.0
 40
3.6
  1
A
  0
LINE
  5
44A83
  8
回04-図面枠
 62
     7
 10
3257.595691797219
 20
631.8882001559459
 30
0.0
 11
3257.595691797219
 21
627.3882001559459
 31
0.0
  0
TEXT
  5
44A84
  8
回04-図面枠
 62
     7
 10
3287.952138572306
 20
627.7233809693917
 30
0.0
 40
3.6
  1
B
  0
LINE
  5
44A85
  8
回04-図面枠
 62
     7
 10
3320.595691797219
 20
631.8882001559459
 30
0.0
 11
3320.595691797219
 21
627.3882001559459
 31
0.0
  0
TEXT
  5
44A86
  8
回04-図面枠
 62
     7
 10
3350.952138572306
 20
627.7233809693917
 30
0.0
 40
3.6
  1
C
  0
LINE
  5
44A87
  8
回04-図面枠
 62
     7
 10
3383.595691797219
 20
631.8882001559459
 30
0.0
 11
3383.595691797219
 21
627.3882001559459
 31
0.0
  0
TEXT
  5
44A88
  8
回04-図面枠
 62
     7
 10
3413.952138572306
 20
627.7233809693917
 30
0.0
 40
3.6
  1
D
  0
LINE
  5
44A89
  8
回04-図面枠
 62
     7
 10
3446.595691797219
 20
631.8882001559459
 30
0.0
 11
3446.595691797219
 21
627.3882001559459
 31
0.0
  0
TEXT
  5
44A8A
  8
回04-図面枠
 62
     7
 10
3476.952138572306
 20
627.7233809693917
 30
0.0
 40
3.6
  1
E
  0
LINE
  5
44A8B
  8
回04-図面枠
 62
     7
 10
3509.595691797219
 20
631.8882001559459
 30
0.0
 11
3509.595691797219
 21
627.3882001559459
 31
0.0
  0
TEXT
  5
44A8C
  8
回04-図面枠
 62
     7
 10
3539.952138572306
 20
627.7233809693917
 30
0.0
 40
3.6
  1
F
  0
LINE
  5
44A8D
  8
回04-図面枠
 62
     7
 10
3572.595691797219
 20
631.8882001559459
 30
0.0
 11
3572.595691797219
 21
627.3882001559459
 31
0.0
  0
TEXT
  5
44A8E
  8
回04-図面枠
 62
     7
 10
3602.952138572306
 20
627.7233809693917
 30
0.0
 40
3.6
  1
G
  0
LINE
  5
44A8F
  8
回04-図面枠
 62
     7
 10
3698.595691797219
 20
627.3882001559459
 30
0.0
 11
3698.595691797219
 21
280.8882001559459
 31
0.0
  0
LINE
  5
44A90
  8
回04-図面枠
 62
     7
 10
3703.095691797219
 20
276.3882001559459
 30
0.0
 11
3703.095691797219
 21
631.8882001559459
 31
0.0
  0
TEXT
  5
44A91
  8
回04-図面枠
 62
     7
 10
3633.147373202564
 20
283.425907993138
 30
0.0
 40
5.0
  1
DMC Co., Ltd.
 72
     1
 11
3653.022373202563
 21
283.425907993138
 31
0.0
  0
LINE
  5
44A92
  8
回04-図面枠
 62
     7
 10
3635.595691797219
 20
280.8882001559459
 30
0.0
 11
3635.595691797219
 21
276.3882001559459
 31
0.0
  0
TEXT
  5
44A93
  8
回04-図面枠
 62
     7
 10
3665.952138572305
 20
276.7233809693916
 30
0.0
 40
3.6
  1
H
  0
TEXT
  5
44A94
  8
回04-図面枠
 62
     7
 10
3699.517606199687
 20
313.5480187222193
 30
0.0
 40
3.6
  1
5
  0
LINE
  5
44A95
  8
回04-図面枠
 62
     7
 10
3703.095691797219
 20
350.1882001559457
 30
0.0
 11
3698.595691797219
 21
350.1882001559457
 31
0.0
  0
TEXT
  5
44A96
  8
回04-図面枠
 62
     7
 10
3699.517606199687
 20
382.848018722219
 30
0.0
 40
3.6
  1
4
  0
LINE
  5
44A97
  8
回04-図面枠
 62
     7
 10
3703.095691797219
 20
419.4882001559458
 30
0.0
 11
3698.595691797219
 21
419.4882001559458
 31
0.0
  0
TEXT
  5
44A98
  8
回04-図面枠
 62
     7
 10
3699.58338910776
 20
452.1480187222191
 30
0.0
 40
3.6
  1
3
  0
TEXT
  5
44A99
  8
回04-図面枠
 62
     7
 10
3699.859670700512
 20
590.748018722219
 30
0.0
 40
3.6
  1
1
  0
LINE
  5
44A9A
  8
回04-図面枠
 62
     7
 10
3703.095691797219
 20
488.7882001559455
 30
0.0
 11
3698.595691797219
 21
488.7882001559455
 31
0.0
  0
TEXT
  5
44A9B
  8
回04-図面枠
 62
     7
 10
3699.588321867541
 20
521.4480187222193
 30
0.0
 40
3.6
  1
2
  0
LINE
  5
44A9C
  8
回04-図面枠
 62
     7
 10
3703.095691797219
 20
558.0882001559457
 30
0.0
 11
3698.595691797219
 21
558.0882001559457
 31
0.0
  0
LINE
  5
44A9D
  8
回04-図面枠
 62
     7
 10
3635.595691797219
 20
631.8882001559459
 30
0.0
 11
3635.595691797219
 21
627.3882001559459
 31
0.0
  0
TEXT
  5
44A9E
  8
回04-図面枠
 62
     7
 10
3665.952138572305
 20
627.7233809693917
 30
0.0
 40
3.6
  1
H
  0
TEXT
  5
44A9F
  8
回04-図面枠
  6
CONTINUOUS
 62
     7
 10
3656.046421902452
 20
306.5849463078757
 30
0.0
 40
3.0
  1
DATE
  0
TEXT
  5
44AA0
  8
回04-図面枠
 62
     7
 10
3641.595691797219
 20
295.6455093922532
 30
0.0
 40
5.0
  1
Sep/08/2023
 72
     1
 11
3661.095691797219
 21
295.6455093922532
 31
0.0
  0
TEXT
  5
44BB8
  8
回03-記事
  6
CONTINUOUS
 10
3647.540113974667
 20
341.2678477253985
 30
0.0
 40
3.507058114560001
  1
TAIL
  0
TEXT
  5
44BB9
  8
回03-記事
  6
CONTINUOUS
 10
3647.540113974667
 20
347.1129445830002
 30
0.0
 40
3.507058114560001
  1
ITO GLASS
  0
TEXT
  5
44BBA
  8
回03-記事
  6
CONTINUOUS
 10
3647.540113974667
 20
352.9580414406009
 30
0.0
 40
3.507058114560001
  1
ITO FILM
  0
LINE
  5
44BBB
  8
回03-記事
  6
CONTINUOUS
 10
3640.911119210441
 20
346.1812009008117
 30
0.0
 11
3693.155276407356
 21
346.1812009008117
 31
0.0
  0
LINE
  5
44BBC
  8
回03-記事
  6
CONTINUOUS
 10
3640.911119210441
 20
340.3361040432119
 30
0.0
 11
3693.155276407356
 21
340.3361040432119
 31
0.0
  0
LINE
  5
44BBD
  8
回03-記事
  6
CONTINUOUS
 10
3640.911119210441
 20
334.491007185612
 30
0.0
 11
3693.155276407356
 21
334.491007185612
 31
0.0
  0
LINE
  5
44BBE
  8
回03-記事
  6
CONTINUOUS
 10
3640.911119210441
 20
357.8713946160124
 30
0.0
 11
3693.155276407356
 21
357.8713946160124
 31
0.0
  0
LINE
  5
44BBF
  8
回03-記事
  6
CONTINUOUS
 10
3640.911119210441
 20
352.0262977584125
 30
0.0
 11
3693.155276407356
 21
352.0262977584089
 31
0.0
  0
LINE
  5
44BC0
  8
回03-記事
  6
CONTINUOUS
 10
3640.911119210441
 20
363.7164914736113
 30
0.0
 11
3693.155276407356
 21
363.7164914736113
 31
0.0
  0
LINE
  5
44BC1
  8
回03-記事
  6
CONTINUOUS
 10
3640.911119210441
 20
328.6459103280113
 30
0.0
 11
3693.155276407356
 21
328.6459103280113
 31
0.0
  0
TEXT
  5
44BC2
  8
回03-記事
  6
CONTINUOUS
 10
3642.702894210851
 20
353.0332742302962
 30
0.0
 40
3.507058114560001
  1
1
  0
LINE
  5
44BC3
  8
回03-記事
  6
CONTINUOUS
 10
3640.911119210441
 20
363.7164914736113
 30
0.0
 11
3640.911119210441
 21
322.8008134704114
 31
0.0
  0
LINE
  5
44BC4
  8
回03-記事
  6
CONTINUOUS
 10
3646.992713609424
 20
363.7164914736113
 30
0.0
 11
3646.992713609424
 21
322.8008134704114
 31
0.0
  0
TEXT
  5
44BC5
  8
回03-記事
  6
CONTINUOUS
 10
3642.702894210851
 20
329.6528867998968
 30
0.0
 40
3.507058114560001
  1
5
  0
TEXT
  5
44BC6
  8
回03-記事
  6
CONTINUOUS
 10
3642.702894210851
 20
347.1881773726982
 30
0.0
 40
3.507058114560001
  1
2
  0
TEXT
  5
44BC7
  8
回03-記事
  6
CONTINUOUS
 10
3642.702894210851
 20
335.4979836574967
 30
0.0
 40
3.507058114560001
  1
4
  0
TEXT
  5
44BC8
  8
回03-記事
  6
CONTINUOUS
 10
3642.702894210851
 20
341.3430805150947
 30
0.0
 40
3.507058114560001
  1
3
  0
LINE
  5
44BC9
  8
回03-記事
  6
CONTINUOUS
 10
3693.155276407356
 20
322.8008134704114
 30
0.0
 11
3693.155276407356
 21
363.7164914736113
 31
0.0
  0
TEXT
  5
44BCA
  8
回03-記事
  6
CONTINUOUS
 10
3661.342199500528
 20
358.9827617903675
 30
0.0
 40
3.507058114560001
  1
ITEM
  0
TEXT
  5
44BCB
  8
回03-記事
  6
CONTINUOUS
 10
3647.540113974667
 20
335.369806550947
 30
0.0
 40
3.507058114560001
  1
REINFORCEMENT FILM
  0
TEXT
  5
44BCC
  8
回03-記事
  6
CONTINUOUS
 10
3647.540113974667
 20
329.5247096933463
 30
0.0
 40
3.507058114560001
  1
STIFFENER
  0
LINE
  5
44BCD
  8
回03-記事
  6
CONTINUOUS
 10
3640.911119210441
 20
322.8008134704114
 30
0.0
 11
3693.155276407356
 21
322.8008134704114
 31
0.0
  0
TEXT
  5
44BCE
  8
回03-記事
  6
CONTINUOUS
 10
3642.702894210851
 20
323.8077899422969
 30
0.0
 40
3.507058114560001
  1
6
  0
TEXT
  5
44BCF
  8
回03-記事
  6
CONTINUOUS
 10
3647.968184963062
 20
323.8256054761641
 30
0.0
 40
3.372171263999999
  1
PROTECTION TAPE
  0
CIRCLE
  5
44BD0
  8
回04-図面枠
  6
CONTINUOUS
 62
     7
 10
3687.178018294421
 20
285.7972049571622
 30
0.0
 40
2.794152612877607
  0
CIRCLE
  5
44BD1
  8
回04-図面枠
  6
CONTINUOUS
 62
     7
 10
3687.178018294421
 20
285.7972049571622
 30
0.0
 40
1.477915638114184
  0
LINE
  5
44BD2
  8
回04-図面枠
  6
CENTER2
 62
     7
 10
3683.969013982222
 20
285.7972049571622
 30
0.0
 11
3697.573596434342
 21
285.7972049571622
 31
0.0
  0
LINE
  5
44BD3
  8
回04-図面枠
  6
CONTINUOUS
 62
     7
 10
3691.944511444358
 20
287.2751205952759
 30
0.0
 11
3691.944511444358
 21
284.3192893190476
 31
0.0
  0
LINE
  5
44BD4
  8
回04-図面枠
  6
CONTINUOUS
 62
     7
 10
3697.115316596099
 20
288.5913575700401
 30
0.0
 11
3697.115316596099
 21
283.0030523442843
 31
0.0
  0
LINE
  5
44BD5
  8
回04-図面枠
  6
CONTINUOUS
 62
     7
 10
3691.944511444358
 20
287.2751205952759
 30
0.0
 11
3697.115316596099
 21
288.5913575700401
 31
0.0
  0
LINE
  5
44BD6
  8
回04-図面枠
  6
CONTINUOUS
 62
     7
 10
3691.944511444358
 20
284.3192893190476
 30
0.0
 11
3697.115316596099
 21
283.0030523442843
 31
0.0
  0
LINE
  5
44BD7
  8
回04-図面枠
  6
CENTER2
 62
     7
 10
3687.178018294421
 20
282.2971745828659
 30
0.0
 11
3687.178018294421
 21
289.2972353314576
 31
0.0
  0
LINE
  5
44BD8
  8
回04-図面枠
  6
CONTINUOUS
 62
     7
 10
3681.960610315416
 20
280.8882001559459
 30
0.0
 11
3681.960610315416
 21
290.8882001559459
 31
0.0
  0
POLYLINE
  5
45507
  8
回08-記事
  6
CONTINUOUS
 62
     7
 66
     1
 10
0.0
 20
0.0
 30
0.0
 70
     1
  0
VERTEX
  5
45C4F
  8
回08-記事
  6
CONTINUOUS
 62
     7
 10
3356.427008008863
 20
440.8616923408637
 30
0.0
  0
VERTEX
  5
45C51
  8
回08-記事
  6
CONTINUOUS
 62
     7
 10
3509.327008008864
 20
440.8616923408637
 30
0.0
  0
VERTEX
  5
45C52
  8
回08-記事
  6
CONTINUOUS
 62
     7
 10
3509.327008008864
 20
532.8016923408638
 30
0.0
  0
VERTEX
  5
45C53
  8
回08-記事
  6
CONTINUOUS
 62
     7
 10
3356.427008008863
 20
532.8016923408638
 30
0.0
  0
SEQEND
  5
45C50
  8
0
  6
CONTINUOUS
 62
     5
  0
POLYLINE
  5
45508
  8
回08-記事
  6
CONTINUOUS
 62
     7
 66
     1
 10
0.0
 20
0.0
 30
0.0
 70
     1
  0
VERTEX
  5
45C54
  8
回08-記事
  6
CONTINUOUS
 62
     7
 10
3354.927008008864
 20
439.3616923408638
 30
0.0
  0
VERTEX
  5
45C56
  8
回08-記事
  6
CONTINUOUS
 62
     7
 10
3510.827008008863
 20
439.3616923408638
 30
0.0
  0
VERTEX
  5
45C57
  8
回08-記事
  6
CONTINUOUS
 62
     7
 10
3510.827008008863
 20
534.3016923408638
 30
0.0
  0
VERTEX
  5
45C58
  8
回08-記事
  6
CONTINUOUS
 62
     7
 10
3354.927008008864
 20
534.3016923408638
 30
0.0
  0
SEQEND
  5
45C55
  8
0
  6
CONTINUOUS
 62
     5
  0
POLYLINE
  5
45509
  8
回04-下接
  6
CONTINUOUS
 62
     7
 66
     1
 10
0.0
 20
0.0
 30
0.0
 70
     1
  0
VERTEX
  5
45C59
  8
回04-下接
  6
CONTINUOUS
 62
     7
 10
3349.127008008863
 20
434.8316923408638
 30
0.0
  0
VERTEX
  5
45C5B
  8
回04-下接
  6
CONTINUOUS
 62
     7
 10
3514.127008008864
 20
434.8316923408638
 30
0.0
  0
VERTEX
  5
45C5C
  8
回04-下接
  6
CONTINUOUS
 62
     7
 10
3514.127008008864
 20
538.8316923408638
 30
0.0
  0
VERTEX
  5
45C5D
  8
回04-下接
  6
CONTINUOUS
 62
     7
 10
3349.127008008863
 20
538.8316923408638
 30
0.0
  0
SEQEND
  5
45C5A
  8
0
  6
CONTINUOUS
 62
     5
  0
LINE
  5
45517
  8
回05-ﾃｰﾙ
  6
BYBLOCK
 62
     7
 10
3269.426964498097
 20
489.9566923408642
 30
0.0
 11
3339.015745440086
 21
489.9566923408642
 31
0.0
  0
LINE
  5
45518
  8
回05-ﾃｰﾙ
  6
BYBLOCK
 62
     7
 10
3269.426964498097
 20
483.7066923408642
 30
0.0
 11
3339.018364541851
 21
483.7026676736118
 31
0.0
  0
ARC
  5
45519
  8
回05-ﾃｰﾙ
  6
BYBLOCK
 62
     7
 10
3269.426964498097
 20
489.4566923408643
 30
0.0
 40
0.5
 50
90.0
 51
180.0
  0
ARC
  5
4551A
  8
回05-ﾃｰﾙ
  6
BYBLOCK
 62
     7
 10
3269.426964498097
 20
484.2066923408642
 30
0.0
 40
0.5
 50
180.0
 51
270.0
  0
LINE
  5
4551B
  8
回05-ﾃｰﾙ
  6
BYBLOCK
 62
     7
 10
3268.926964498096
 20
489.4566923408638
 30
0.0
 11
3268.926964498096
 21
484.2066923408638
 31
0.0
  0
LINE
  5
4551C
  8
回05-ﾃｰﾙ
  6
BYBLOCK
 62
     7
 10
3344.735078100498
 20
494.830489306592
 30
0.0
 11
3347.427901816796
 21
494.8316927403102
 31
0.0
  0
LINE
  5
4551D
  8
回05-ﾃｰﾙ
  6
BYBLOCK
 62
     7
 10
3344.739251686204
 20
478.8316923408638
 30
0.0
 11
3347.427008008864
 21
478.8316923408638
 31
0.0
  0
LINE
  5
4551E
  8
回05-ﾃｰﾙ
  6
BYBLOCK
 62
     7
 10
3352.427008008863
 20
496.8316923408638
 30
0.0
 11
3349.427008008864
 21
496.8316923408638
 31
0.0
  0
LINE
  5
4551F
  8
回05-ﾃｰﾙ
  6
BYBLOCK
 62
     7
 10
3349.427008008864
 20
476.8316923408637
 30
0.0
 11
3352.427008008863
 21
476.8316923408637
 31
0.0
  0
LINE
  5
45520
  8
回05-ﾃｰﾙ
  6
BYBLOCK
 62
     7
 10
3352.427008008863
 20
496.8316923408638
 30
0.0
 11
3352.427008008863
 21
487.3316923408638
 31
0.0
  0
LINE
  5
45521
  8
回05-ﾃｰﾙ
  6
BYBLOCK
 62
     7
 10
3339.721406723177
 20
490.2481430105094
 30
0.0
 11
3344.029863721373
 21
494.5390387368084
 31
0.0
  0
LINE
  5
45522
  8
回05-ﾃｰﾙ
  6
BYBLOCK
 62
     7
 10
3339.723639077508
 20
483.4115444275625
 30
0.0
 11
3344.033919317686
 21
479.1228155885851
 31
0.0
  0
LINE
  5
45523
  8
回05-ﾃｰﾙ
  6
BYBLOCK
 62
     7
 10
3352.427008008863
 20
486.3316923408638
 30
0.0
 11
3352.427008008863
 21
476.8316923408637
 31
0.0
  0
LINE
  5
45524
  8
回05-ﾃｰﾙ
  6
BYBLOCK
 62
     7
 10
3346.927008008864
 20
487.3316923408638
 30
0.0
 11
3352.427008008863
 21
487.3316923408638
 31
0.0
  0
LINE
  5
45525
  8
回05-ﾃｰﾙ
  6
BYBLOCK
 62
     7
 10
3352.427008008863
 20
486.3316923408638
 30
0.0
 11
3346.927008008864
 21
486.3316923408638
 31
0.0
  0
ARC
  5
45526
  8
回05-ﾃｰﾙ
  6
BYBLOCK
 62
     7
 10
3346.927008008864
 20
486.8316923408642
 30
0.0
 40
0.5
 50
90.0
 51
272.4902279154731
  0
ARC
  5
4552A
  8
回05-ﾃｰﾙ
  6
BYBLOCK
 62
     7
 10
3347.427008008864
 20
496.8316925405875
 30
0.0
 40
2.0
 50
270.0256057119457
 51
0.0
  0
ARC
  5
4552B
  8
回05-ﾃｰﾙ
  6
BYBLOCK
 62
     7
 10
3347.427008008864
 20
476.8316923408642
 30
0.0
 40
2.0
 50
0.0
 51
90.0
  0
ARC
  5
4552C
  8
回05-ﾃｰﾙ
  6
BYBLOCK
 62
     7
 10
3344.739251686204
 20
479.8316923408642
 30
0.0
 40
1.0
 50
225.1435981442163
 51
270.0
  0
ARC
  5
4552D
  8
回05-ﾃｰﾙ
  6
BYBLOCK
 62
     7
 10
3344.735525004464
 20
493.830489406454
 30
0.0
 40
1.0
 50
90.02560571194575
 51
134.8829928953721
  0
ARC
  5
4552E
  8
回05-ﾃｰﾙ
  6
BYBLOCK
 62
     7
 10
3339.015745440086
 20
490.9566923408642
 30
0.0
 40
1.0
 50
270.0
 51
314.8829928953721
  0
ARC
  5
4552F
  8
回05-ﾃｰﾙ
  6
BYBLOCK
 62
     7
 10
3339.01830670899
 20
482.7026676752844
 30
0.0
 40
1.0
 50
45.14359814421636
 51
89.99668642115283
  0
LINE
  5
45530
  8
回05-ﾃｰﾙ
  6
BYBLOCK
 62
     8
 10
3349.427008008864
 20
476.8316923408637
 30
0.0
 11
3349.427008008864
 21
476.8316923408637
 31
0.0
  0
TEXT
  5
4557E
  8
回08-記事
  6
CONTINUOUS
 62
     7
 10
3268.409992549873
 20
487.6212015328849
 30
0.0
 40
3.0
  1
4
 50
90.0
  0
TEXT
  5
4557F
  8
回08-記事
  6
CONTINUOUS
 62
     7
 10
3268.432885505662
 20
484.169092162687
 30
0.0
 40
3.0
  1
1
 50
90.0
  0
DIMENSION
  5
45580
  8
回07-寸法
  6
CONTINUOUS
 62
     5
  2
*D28
 10
3323.766143717353
 20
494.8304893065924
 30
0.0
 11
3323.766143717352
 21
471.6181421577248
 31
0.0
 70
   160
  3
KOUSA
 13
3344.739251686205
 23
478.831692340864
 33
0.0
 14
3344.735078100498
 24
494.8304893065921
 34
0.0
 50
90.0
1001
ACAD
1000
DSTYLE
1002
{
1070
    71
1070
     0
1070
   288
1070
     0
1070
   341
1005
0
1002
}
  0
DIMENSION
  5
45581
  8
回07-寸法
  6
CONTINUOUS
 62
     5
  2
*D29
 10
3339.399858828822
 20
463.835386252967
 30
0.0
 11
3331.22397010765
 21
463.835386252967
 31
0.0
 70
   160
  3
KOUSA
 13
3349.127008008863
 23
477.8852577161495
 33
0.0
 14
3339.399858828822
 24
483.6270150017003
 34
0.0
1001
ACAD
1000
DSTYLE
1002
{
1070
    71
1070
     0
1070
   288
1070
     0
1070
   341
1005
0
1002
}
  0
INSERT
  5
45585
  8
回07-寸法
  6
CONTINUOUS
 62
     7
 66
     1
  2
*X44
 10
0.0
 20
0.0
 30
0.0
  0
SEQEND
  5
45C64
  8
0
  6
CONTINUOUS
 62
     5
  0
TEXT
  5
45586
  8
回07-寸法
  6
CONTINUOUS
 62
     5
 10
3334.43710843745
 20
501.5201742385279
 30
0.0
 40
3.0
  1
2-R2
1001
ACAD
1000
MTEXTBEGIN
1070
    73
1070
     1
1070
    44
1040
1.0
1070
    74
1070
     0
1000
MTEXTEND
  0
DIMENSION
  5
45587
  8
回07-寸法
  6
CONTINUOUS
 62
     3
  2
*D30
 10
3344.357726295357
 20
471.4984161899537
 30
0.0
 11
3334.19215519109
 21
471.4984161899537
 31
0.0
 70
   160
  3
KOUSA
 13
3349.127008008863
 23
477.8852577161497
 33
0.0
 14
3344.357726295357
 24
478.9073339817094
 34
0.0
1001
ACAD
1000
DSTYLE
1002
{
1070
    71
1070
     0
1070
   288
1070
     0
1070
   341
1005
0
1002
}
  0
INSERT
  5
45588
  8
回07-寸法
  6
CONTINUOUS
 62
     7
 66
     1
  2
*X45
 10
0.0
 20
0.0
 30
0.0
  0
SEQEND
  5
45C6B
  8
0
  6
CONTINUOUS
 62
     5
  0
TEXT
  5
45589
  8
回07-寸法
  6
CONTINUOUS
 62
     5
 10
3327.322308408122
 20
497.2264833649963
 30
0.0
 40
3.0
  1
4-R1
1001
ACAD
1000
MTEXTBEGIN
1070
    73
1070
     1
1070
    44
1040
1.0
1070
    74
1070
     0
1000
MTEXTEND
  0
POLYLINE
  5
4558B
  8
回08-記事
  6
CONTINUOUS
 62
     7
 66
     1
 10
0.0
 20
0.0
 30
0.0
 70
     1
1001
ACAD
1000
ASC_BOUNDS
1002
{
1070
    19
1005
4558C
1002
}
  0
VERTEX
  5
45C6C
  8
回08-記事
  6
CONTINUOUS
 62
     7
 10
3353.027008008864
 20
485.5816923408637
 30
0.0
  0
VERTEX
  5
45C6E
  8
回08-記事
  6
CONTINUOUS
 62
     7
 10
3344.827008008864
 20
485.5816923408637
 30
0.0
  0
VERTEX
  5
45C6F
  8
回08-記事
  6
CONTINUOUS
 62
     7
 10
3344.827008008864
 20
479.5816923408636
 30
0.0
  0
VERTEX
  5
45C70
  8
回08-記事
  6
CONTINUOUS
 62
     7
 10
3353.027008008864
 20
479.5816923408636
 30
0.0
  0
SEQEND
  5
45C6D
  8
0
  6
CONTINUOUS
 62
     5
  0
INSERT
  5
4558C
  8
回08-記事
  6
CONTINUOUS
 62
     7
 66
     1
  2
*X46
 10
0.0
 20
0.0
 30
0.0
1001
ACAD
1000
HATCH
1002
{
1070
    19
1000
ANSI31
1040
0.5
1040
-0.0000000000000002
1000
ASC_BOUNDS
1070
     1
1070
     2
1070
     1
1005
4558B
1000
ASC_SEEDPOINT
1011
3598.131815050753
1021
269.8320242596937
1031
0.0
1000
R14_HATCH_DATA
1000
4558C
1011
1.0
1021
0.0
1031
0.0
1011
0.0
1021
1.0
1031
0.0
1011
0.0
1021
0.0
1031
1.0
1040
0.0
1010
0.0
1020
0.0
1030
1.0
1000
ANSI31
1070
     0
1070
     1
1071
        1
1071
        1
1071
        4
1070
     1
1040
3353.027008008864
1040
485.5816923408637
1040
3344.827008008864
1040
485.5816923408637
1070
     1
1040
3344.827008008864
1040
485.5816923408637
1040
3344.827008008864
1040
479.5816923408636
1070
     1
1040
3344.827008008864
1040
479.5816923408636
1040
3353.027008008864
1040
479.5816923408636
1070
     1
1040
3353.027008008864
1040
479.5816923408636
1040
3353.027008008864
1040
485.5816923408637
1071
        1
1005
4558B
1070
     0
1070
     1
1040
-0.0000000000000002
1040
0.5
1070
     0
1070
     1
1040
0.7853981633974481
1040
9.726860926261224
1040
69.15130936889301
1040
-1.122532015133643
1040
1.122532015133644
1070
     0
1071
        1
1040
3598.131815050753
1040
269.8320242596937
1040
0.0
1002
}
  0
SEQEND
  5
45C7A
  8
0
  6
CONTINUOUS
 62
     5
  0
DIMENSION
  5
45594
  8
回07-寸法
  6
CONTINUOUS
 62
     5
  2
*D31
 10
3349.127008008863
 20
511.3922372157435
 30
0.0
 11
3311.168570338774
 21
511.3922372157435
 31
0.0
 70
   160
  3
DMC
 13
3268.926964498096
 23
489.4566923408636
 33
0.0
 14
3349.127008008863
 24
495.7781271653023
 34
0.0
1001
ACAD
1000
DSTYLE
1002
{
1070
   271
1070
     0
1070
   147
1040
0.5
1070
    72
1070
     0
1070
    71
1070
     1
1070
    47
1040
1.0
1070
    48
1040
1.0
1070
   371
1070
     9
1070
   372
1070
     9
1002
}
  0
DIMENSION
  5
45595
  8
回07-寸法
  6
CONTINUOUS
 62
     5
  2
*D32
 10
3261.266378667714
 20
489.9566923408642
 30
0.0
 11
3261.266378667713
 21
500.347018128265
 31
0.0
 70
   160
  3
DMC
 13
3269.426964498999
 23
483.7066923408641
 33
0.0
 14
3269.426964498097
 24
489.956692340864
 34
0.0
 50
90.0
1001
ACAD
1000
DSTYLE
1002
{
1070
    47
1040
0.2
1070
    48
1040
0.2
1070
    71
1070
     1
1070
   371
1070
     9
1070
   372
1070
     9
1002
}
  0
POLYLINE
  5
4559F
  8
回08-記事
  6
CENTER2
 62
     7
 66
     1
 10
0.0
 20
0.0
 30
0.0
 70
     1
  0
VERTEX
  5
45C7B
  8
回08-記事
  6
CENTER2
 62
     7
 10
3511.327008008863
 20
438.5616923408638
 30
0.0
  0
VERTEX
  5
45C7D
  8
回08-記事
  6
CENTER2
 62
     7
 10
3354.427008008864
 20
438.5616923408638
 30
0.0
  0
VERTEX
  5
45C7E
  8
回08-記事
  6
CENTER2
 62
     7
 10
3354.427008008864
 20
535.1016923408637
 30
0.0
  0
VERTEX
  5
45C7F
  8
回08-記事
  6
CENTER2
 62
     7
 10
3511.327008008863
 20
535.1016923408637
 30
0.0
  0
SEQEND
  5
45C7C
  8
0
  6
CONTINUOUS
 62
     5
  0
DIMENSION
  5
455A1
  8
回07-寸法
  6
CONTINUOUS
 62
     5
  2
*D33
 10
3510.827008008863
 20
554.6371976121904
 30
0.0
 11
3432.877008008864
 21
554.6371976121904
 31
0.0
 70
   160
  1
<>(VIEWING AREA)
  3
DMC
 13
3354.927008008864
 23
534.3016923408638
 33
0.0
 14
3510.827008008863
 24
534.3016923408638
 34
0.0
1001
ACAD
1000
DSTYLE
1002
{
1070
    47
1040
0.2
1070
    48
1040
0.2
1070
   371
1070
     9
1070
   372
1070
     9
1002
}
  0
DIMENSION
  5
455A2
  8
回07-寸法
  6
CONTINUOUS
 62
     5
  2
*D34
 10
3509.327008008864
 20
547.7503293231618
 30
0.0
 11
3432.877008008864
 21
547.7503293231618
 31
0.0
 70
   160
  1
<>(ACTIVE AREA)
  3
DMC
 13
3356.427008008863
 23
532.8016923408638
 33
0.0
 14
3509.327008008864
 24
532.8016923408638
 34
0.0
1001
ACAD
1000
DSTYLE
1002
{
1070
    47
1040
0.2
1070
    48
1040
0.2
1070
   371
1070
     9
1070
   372
1070
     9
1002
}
  0
DIMENSION
  5
455A3
  8
回07-寸法
  6
CONTINUOUS
 62
     5
  2
*D35
 10
3547.547675812224
 20
439.3616923408639
 30
0.0
 11
3547.547675812222
 21
486.8316923408641
 31
0.0
 70
   160
  1
<>(VIEWING AREA)
  3
DMC
 13
3510.827008008863
 23
534.3016923408638
 33
0.0
 14
3510.827008008863
 24
439.3616923408638
 34
0.0
 50
90.0
1001
ACAD
1000
DSTYLE
1002
{
1070
    47
1040
0.2
1070
    48
1040
0.2
1070
   371
1070
     9
1070
   372
1070
     9
1002
}
  0
DIMENSION
  5
455A4
  8
回07-寸法
  6
CONTINUOUS
 62
     5
  2
*D36
 10
3539.870631612294
 20
532.801692340864
 30
0.0
 11
3539.870631612293
 21
486.8316923408641
 31
0.0
 70
   160
  1
<>(ACTIVE AREA)
  3
DMC
 13
3509.327008008864
 23
440.8616923408637
 33
0.0
 14
3509.327008008864
 24
532.8016923408638
 34
0.0
 50
90.0
1001
ACAD
1000
DSTYLE
1002
{
1070
    47
1040
0.2
1070
    48
1040
0.2
1070
   371
1070
     9
1070
   372
1070
     9
1002
}
  0
DIMENSION
  5
455A5
  8
回07-寸法
  6
CONTINUOUS
 62
     5
  2
*D37
 10
3514.127008008864
 20
568.1596574723748
 30
0.0
 11
3431.627008008863
 21
568.1596574723748
 31
0.0
 70
   160
  3
DMC
 13
3349.127008008863
 23
538.8316923408638
 33
0.0
 14
3514.127008008864
 24
538.8316923408638
 34
0.0
1001
ACAD
1000
DSTYLE
1002
{
1070
    47
1040
0.3
1070
    48
1040
0.3
1070
    71
1070
     1
1070
   371
1070
     9
1070
   372
1070
     9
1002
}
  0
DIMENSION
  5
455A6
  8
回07-寸法
  6
CONTINUOUS
 62
     5
  2
*D38
 10
3562.857466411411
 20
434.831692340864
 30
0.0
 11
3562.85746641141
 21
486.8316923408641
 31
0.0
 70
   160
  3
DMC
 13
3514.127008008864
 23
538.8316923408638
 33
0.0
 14
3514.127008008864
 24
434.8316923408638
 34
0.0
 50
90.0
1001
ACAD
1000
DSTYLE
1002
{
1070
    47
1040
0.3
1070
    48
1040
0.3
1070
    71
1070
     1
1070
   371
1070
     9
1070
   372
1070
     9
1002
}
  0
LINE
  5
455AE
  8
回08-記事
  6
CONTINUOUS
 62
     7
 10
3349.427008008864
 20
383.1822763799664
 30
0.0
 11
3513.827008008864
 21
383.1822763799664
 31
0.0
  0
LINE
  5
455AF
  8
回08-記事
  6
CONTINUOUS
 62
     7
 10
3349.127008008863
 20
370.1822763799664
 30
0.0
 11
3514.127008008864
 21
370.1822763799664
 31
0.0
  0
LINE
  5
455B0
  8
回08-記事
  6
CONTINUOUS
 62
     7
 10
3268.926964498096
 20
379.1822763799664
 30
0.0
 11
3513.827008008864
 21
379.1822763799664
 31
0.0
  0
LINE
  5
455B1
  8
回08-記事
  6
CONTINUOUS
 62
     7
 10
3268.926964498096
 20
376.1822763799664
 30
0.0
 11
3514.127008008864
 21
376.1822763799664
 31
0.0
  0
LINE
  5
455B2
  8
回08-記事
  6
CONTINUOUS
 62
     7
 10
3268.926964498096
 20
371.1822763799664
 30
0.0
 11
3278.926964498096
 21
371.1822763799664
 31
0.0
  0
TEXT
  5
455B3
  8
回08-記事
  6
CONTINUOUS
 62
     7
 10
3286.759199129175
 20
367.649084983173
 30
0.0
 40
5.0
  1
5
  0
LINE
  5
455B4
  8
回08-記事
  6
CONTINUOUS
 62
     7
 10
3278.926964498096
 20
371.1822763799664
 30
0.0
 11
3278.927008008864
 21
376.1822763799664
 31
0.0
  0
TEXT
  5
455B5
  8
回08-記事
  6
CONTINUOUS
 62
     7
 10
3335.242653323537
 20
365.6462400907717
 30
0.0
 40
5.0
  1
4
  0
LINE
  5
455B8
  8
回08-記事
  6
CONTINUOUS
 62
     7
 10
3352.627008008865
 20
376.1822763799664
 30
0.0
 11
3352.627008008865
 21
379.1822763799664
 31
0.0
  0
LINE
  5
455B9
  8
回08-記事
  6
CONTINUOUS
 62
     7
 10
3349.127008008863
 20
370.1822763799659
 30
0.0
 11
3349.127008008863
 21
376.1822763799664
 31
0.0
  0
LINE
  5
455BA
  8
回08-記事
  6
CONTINUOUS
 62
     7
 10
3349.427008008864
 20
379.1822763799665
 30
0.0
 11
3349.427008008864
 21
383.1822763799666
 31
0.0
  0
ARC
  5
455BB
  8
回08-記事
  6
CONTINUOUS
 62
     7
 10
3368.071657746647
 20
376.1822763799664
 30
0.0
 40
0.5
 50
0.0
 51
180.0
  0
ARC
  5
455BC
  8
回08-記事
  6
CONTINUOUS
 62
     7
 10
3360.071657746647
 20
376.1822763799664
 30
0.0
 40
0.5
 50
0.0
 51
180.0
  0
ARC
  5
455BD
  8
回08-記事
  6
CONTINUOUS
 62
     7
 10
3364.071657746647
 20
376.1822763799664
 30
0.0
 40
0.5
 50
0.0
 51
180.0
  0
LINE
  5
455BE
  8
回08-記事
  6
CONTINUOUS
 62
     7
 10
3380.490039198091
 20
381.4970039382728
 30
0.0
 11
3375.179760972718
 21
387.3669255975551
 31
0.0
  0
ARC
  5
455BF
  8
回08-記事
  6
CONTINUOUS
 62
     7
 10
3380.071657746647
 20
376.1822763799664
 30
0.0
 40
0.5
 50
0.0
 51
180.0
  0
ARC
  5
455C0
  8
回08-記事
  6
CONTINUOUS
 62
     7
 10
3376.071657746647
 20
376.1822763799664
 30
0.0
 40
0.5
 50
0.0
 51
180.0
  0
ARC
  5
455C1
  8
回08-記事
  6
CONTINUOUS
 62
     7
 10
3384.071657746647
 20
376.1822763799664
 30
0.0
 40
0.5
 50
0.0
 51
180.0
  0
TEXT
  5
455C2
  8
回08-記事
  6
CONTINUOUS
 62
     7
 10
3371.294821999423
 20
388.5131224738493
 30
0.0
 40
5.0
  1
1
  0
ARC
  5
455C3
  8
回08-記事
  6
CONTINUOUS
 62
     7
 10
3372.071657746647
 20
376.1822763799664
 30
0.0
 40
0.5
 50
0.0
 51
180.0
  0
ARC
  5
455C4
  8
回08-記事
  6
CONTINUOUS
 62
     7
 10
3400.071657746647
 20
376.1822763799664
 30
0.0
 40
0.5
 50
0.0
 51
180.0
  0
ARC
  5
455C5
  8
回08-記事
  6
CONTINUOUS
 62
     7
 10
3396.071657746647
 20
376.1822763799664
 30
0.0
 40
0.5
 50
0.0
 51
180.0
  0
ARC
  5
455C6
  8
回08-記事
  6
CONTINUOUS
 62
     7
 10
3404.071657746647
 20
376.1822763799664
 30
0.0
 40
0.5
 50
0.0
 51
180.0
  0
ARC
  5
455C7
  8
回08-記事
  6
CONTINUOUS
 62
     7
 10
3392.071657746647
 20
376.1822763799664
 30
0.0
 40
0.5
 50
0.0
 51
180.0
  0
ARC
  5
455C8
  8
回08-記事
  6
CONTINUOUS
 62
     7
 10
3388.071657746647
 20
376.1822763799664
 30
0.0
 40
0.5
 50
0.0
 51
180.0
  0
ARC
  5
455C9
  8
回08-記事
  6
CONTINUOUS
 62
     7
 10
3420.071657746647
 20
376.1822763799664
 30
0.0
 40
0.5
 50
0.0
 51
180.0
  0
ARC
  5
455CA
  8
回08-記事
  6
CONTINUOUS
 62
     7
 10
3416.071657746647
 20
376.1822763799664
 30
0.0
 40
0.5
 50
0.0
 51
180.0
  0
ARC
  5
455CB
  8
回08-記事
  6
CONTINUOUS
 62
     7
 10
3408.071657746647
 20
376.1822763799664
 30
0.0
 40
0.5
 50
0.0
 51
180.0
  0
ARC
  5
455CC
  8
回08-記事
  6
CONTINUOUS
 62
     7
 10
3412.071657746647
 20
376.1822763799664
 30
0.0
 40
0.5
 50
0.0
 51
180.0
  0
ARC
  5
455CD
  8
回08-記事
  6
CONTINUOUS
 62
     7
 10
3440.071657746647
 20
376.1822763799664
 30
0.0
 40
0.5
 50
0.0
 51
180.0
  0
ARC
  5
455CE
  8
回08-記事
  6
CONTINUOUS
 62
     7
 10
3436.071657746647
 20
376.1822763799664
 30
0.0
 40
0.5
 50
0.0
 51
180.0
  0
TEXT
  5
455CF
  8
回08-記事
  6
CONTINUOUS
 62
     7
 10
3436.22003828233
 20
360.8188759584572
 30
0.0
 40
5.0
  1
2
  0
ARC
  5
455D0
  8
回08-記事
  6
CONTINUOUS
 62
     7
 10
3428.071657746647
 20
376.1822763799664
 30
0.0
 40
0.5
 50
0.0
 51
180.0
  0
ARC
  5
455D1
  8
回08-記事
  6
CONTINUOUS
 62
     7
 10
3424.071657746647
 20
376.1822763799664
 30
0.0
 40
0.5
 50
0.0
 51
180.0
  0
ARC
  5
455D2
  8
回08-記事
  6
CONTINUOUS
 62
     7
 10
3432.071657746647
 20
376.1822763799664
 30
0.0
 40
0.5
 50
0.0
 51
180.0
  0
LINE
  5
455D3
  8
回08-記事
  6
CONTINUOUS
 62
     7
 10
3429.545252857917
 20
372.0464039587863
 30
0.0
 11
3435.533438063188
 21
365.1605343200135
 31
0.0
  0
ARC
  5
455D4
  8
回08-記事
  6
CONTINUOUS
 62
     7
 10
3456.071657746647
 20
376.1822763799664
 30
0.0
 40
0.5
 50
0.0
 51
180.0
  0
ARC
  5
455D5
  8
回08-記事
  6
CONTINUOUS
 62
     7
 10
3448.071657746647
 20
376.1822763799664
 30
0.0
 40
0.5
 50
0.0
 51
180.0
  0
ARC
  5
455D6
  8
回08-記事
  6
CONTINUOUS
 62
     7
 10
3444.071657746647
 20
376.1822763799664
 30
0.0
 40
0.5
 50
0.0
 51
180.0
  0
ARC
  5
455D7
  8
回08-記事
  6
CONTINUOUS
 62
     7
 10
3452.071657746647
 20
376.1822763799664
 30
0.0
 40
0.5
 50
0.0
 51
180.0
  0
ARC
  5
455D8
  8
回08-記事
  6
CONTINUOUS
 62
     7
 10
3476.071657746647
 20
376.1822763799664
 30
0.0
 40
0.5
 50
0.0
 51
180.0
  0
ARC
  5
455D9
  8
回08-記事
  6
CONTINUOUS
 62
     7
 10
3472.071657746647
 20
376.1822763799664
 30
0.0
 40
0.5
 50
0.0
 51
180.0
  0
ARC
  5
455DA
  8
回08-記事
  6
CONTINUOUS
 62
     7
 10
3468.071657746647
 20
376.1822763799664
 30
0.0
 40
0.5
 50
0.0
 51
180.0
  0
ARC
  5
455DB
  8
回08-記事
  6
CONTINUOUS
 62
     7
 10
3464.071657746647
 20
376.1822763799664
 30
0.0
 40
0.5
 50
0.0
 51
180.0
  0
ARC
  5
455DC
  8
回08-記事
  6
CONTINUOUS
 62
     7
 10
3460.071657746647
 20
376.1822763799664
 30
0.0
 40
0.5
 50
0.0
 51
180.0
  0
ARC
  5
455DD
  8
回08-記事
  6
CONTINUOUS
 62
     7
 10
3492.071657746647
 20
376.1822763799664
 30
0.0
 40
0.5
 50
0.0
 51
180.0
  0
ARC
  5
455DE
  8
回08-記事
  6
CONTINUOUS
 62
     7
 10
3488.071657746647
 20
376.1822763799664
 30
0.0
 40
0.5
 50
0.0
 51
180.0
  0
ARC
  5
455DF
  8
回08-記事
  6
CONTINUOUS
 62
     7
 10
3484.071657746647
 20
376.1822763799664
 30
0.0
 40
0.5
 50
0.0
 51
180.0
  0
ARC
  5
455E0
  8
回08-記事
  6
CONTINUOUS
 62
     7
 10
3480.071657746647
 20
376.1822763799664
 30
0.0
 40
0.5
 50
0.0
 51
180.0
  0
ARC
  5
455E1
  8
回08-記事
  6
CONTINUOUS
 62
     7
 10
3504.071657746647
 20
376.1822763799664
 30
0.0
 40
0.5
 50
0.0
 51
180.0
  0
ARC
  5
455E2
  8
回08-記事
  6
CONTINUOUS
 62
     7
 10
3508.071657746647
 20
376.1822763799664
 30
0.0
 40
0.5
 50
0.0
 51
180.0
  0
ARC
  5
455E3
  8
回08-記事
  6
CONTINUOUS
 62
     7
 10
3496.071657746647
 20
376.1822763799664
 30
0.0
 40
0.5
 50
0.0
 51
180.0
  0
ARC
  5
455E4
  8
回08-記事
  6
CONTINUOUS
 62
     7
 10
3500.071657746647
 20
376.1822763799664
 30
0.0
 40
0.5
 50
0.0
 51
180.0
  0
LINE
  5
455E5
  8
回08-記事
  6
CONTINUOUS
 62
     7
 10
3514.127008008864
 20
370.1822763799659
 30
0.0
 11
3514.127008008864
 21
376.1822763799664
 31
0.0
  0
LINE
  5
455E6
  8
回08-記事
  6
CONTINUOUS
 62
     7
 10
3511.327008008864
 20
376.1822763799659
 30
0.0
 11
3511.327008008864
 21
379.1822763799659
 31
0.0
  0
LINE
  5
455E8
  8
回08-記事
  6
CONTINUOUS
 62
     7
 10
3344.935525004463
 20
375.1822763799664
 30
0.0
 11
3344.935525004463
 21
373.1822763799664
 31
0.0
  0
LINE
  5
455E9
  8
回08-記事
  6
CONTINUOUS
 62
     7
 10
3344.935525004463
 20
373.1822763799664
 30
0.0
 11
3347.627008008863
 21
373.1822763799664
 31
0.0
  0
LINE
  5
455EA
  8
回08-記事
  6
CONTINUOUS
 62
     7
 10
3352.627008008864
 20
370.1822763799664
 30
0.0
 11
3352.627008008864
 21
368.6822763799664
 31
0.0
  0
LINE
  5
455EB
  8
回08-記事
  6
CONTINUOUS
 62
     7
 10
3352.627008008864
 20
368.6822763799664
 30
0.0
 11
3347.627008008863
 21
368.6822763799664
 31
0.0
  0
LINE
  5
455EC
  8
回08-記事
  6
CONTINUOUS
 62
     7
 10
3347.627008008863
 20
368.6822763799664
 30
0.0
 11
3347.627008008863
 21
373.1822763799664
 31
0.0
  0
TEXT
  5
455ED
  8
回08-記事
  6
CONTINUOUS
 62
     7
 10
3352.827607409193
 20
357.1149315006796
 30
0.0
 40
5.0
  1
6
  0
LINE
  5
455EE
  8
回08-記事
  6
CONTINUOUS
 62
     7
 10
3349.852962400027
 20
368.7596585959199
 30
0.0
 11
3352.857499593417
 21
362.8989335117166
 31
0.0
  0
LINE
  5
455EF
  8
回08-記事
  6
CONTINUOUS
 62
     7
 10
3356.527008008864
 20
379.1822763799664
 30
0.0
 11
3356.527008008864
 21
376.1822763799664
 31
0.0
  0
LINE
  5
455F0
  8
回08-記事
  6
CONTINUOUS
 62
     7
 10
3277.976287674578
 20
373.6169582917095
 30
0.0
 11
3286.711920124926
 21
369.6335003840836
 31
0.0
  0
LINE
  5
455F1
  8
回08-記事
  6
CONTINUOUS
 62
     7
 10
3341.498308884823
 20
375.6057125557458
 30
0.0
 11
3338.738238464055
 21
368.790152101616
 31
0.0
  0
LINE
  5
455F2
  8
回08-記事
  6
CONTINUOUS
 62
     7
 10
3336.563962991873
 20
379.9099399160409
 30
0.0
 11
3338.738238464055
 21
368.790152101616
 31
0.0
  0
LINE
  5
455F3
  8
回08-記事
  6
CONTINUOUS
 62
     7
 10
3268.926964498096
 20
371.1822763799664
 30
0.0
 11
3268.926964498096
 21
379.1822763799673
 31
0.0
  0
LINE
  5
455F4
  8
回08-記事
  6
CONTINUOUS
 62
     7
 10
3513.827008008864
 20
376.1822763799664
 30
0.0
 11
3513.827008008864
 21
383.1822763799664
 31
0.0
  0
POLYLINE
  5
455F5
  8
回08-記事
  6
CONTINUOUS
 62
     7
 66
     1
 10
0.0
 20
0.0
 30
0.0
 70
     1
  0
VERTEX
  5
45C80
  8
回08-記事
  6
CONTINUOUS
 62
     7
 10
3340.147008008864
 20
376.1822763799664
 30
0.0
  0
VERTEX
  5
45C82
  8
回08-記事
  6
CONTINUOUS
 62
     7
 10
3349.127008008863
 20
376.1822763799664
 30
0.0
  0
VERTEX
  5
45C83
  8
回08-記事
  6
CONTINUOUS
 62
     7
 10
3349.127008008863
 20
375.1822763799664
 30
0.0
  0
VERTEX
  5
45C84
  8
回08-記事
  6
CONTINUOUS
 62
     7
 10
3340.147008008864
 20
375.1822763799664
 30
0.0
  0
SEQEND
  5
45C81
  8
0
  6
CONTINUOUS
 62
     5
  0
POLYLINE
  5
455F6
  8
回08-記事
  6
CONTINUOUS
 62
     7
 66
     1
 10
0.0
 20
0.0
 30
0.0
 70
     1
  0
VERTEX
  5
45C85
  8
回08-記事
  6
CONTINUOUS
 62
     7
 10
3273.926964498096
 20
379.1822763799664
 30
0.0
  0
VERTEX
  5
45C87
  8
回08-記事
  6
CONTINUOUS
 62
     7
 10
3349.427008008864
 20
379.1822763799664
 30
0.0
  0
VERTEX
  5
45C88
  8
回08-記事
  6
CONTINUOUS
 62
     7
 10
3349.427008008864
 20
380.1822763799665
 30
0.0
  0
VERTEX
  5
45C89
  8
回08-記事
  6
CONTINUOUS
 62
     7
 10
3273.926964498096
 20
380.1822763799665
 30
0.0
  0
SEQEND
  5
45C86
  8
0
  6
CONTINUOUS
 62
     5
  0
DIMENSION
  5
455FC
  8
回07-寸法
  6
CONTINUOUS
 62
     7
  2
*D5
 10
3555.710422431483
 20
535.101692340864
 30
0.0
 11
3553.710422431482
 21
486.8316923408628
 31
0.0
 70
    32
  3
DMC
 13
3511.327008008863
 23
438.5616923408638
 33
0.0
 14
3511.327008008863
 24
535.1016923408637
 34
0.0
 50
90.0
1001
ACAD
1000
DSTYLE
1002
{
1070
    47
1040
0.2
1070
    48
1040
0.2
1070
   371
1070
     9
1070
   372
1070
     9
1002
}
  0
DIMENSION
  5
455FD
  8
回07-寸法
  6
CONTINUOUS
 62
     7
  2
*D6
 10
3511.327008008863
 20
562.188093656292
 30
0.0
 11
3432.877008008864
 21
564.188093656292
 31
0.0
 70
    32
  3
DMC
 13
3354.427008008864
 23
535.1016923408637
 33
0.0
 14
3511.327008008863
 24
535.1016923408637
 34
0.0
1001
ACAD
1000
DSTYLE
1002
{
1070
    47
1040
0.2
1070
    48
1040
0.2
1070
   371
1070
     9
1070
   372
1070
     9
1002
}
  0
DIMENSION
  5
455FE
  8
回07-寸法
  6
CONTINUOUS
 62
     7
  2
*D7
 10
3349.127008008863
 20
547.7503293231618
 30
0.0
 11
3342.464875974508
 21
547.7503293231618
 31
0.0
 70
   160
  3
DMC
 13
3356.427008008863
 23
532.8016923408638
 33
0.0
 14
3349.127008008863
 24
538.8316923408638
 34
0.0
1001
ACAD
1000
DSTYLE
1002
{
1070
    47
1040
0.2
1070
    48
1040
0.2
1070
   371
1070
     9
1070
   372
1070
     9
1002
}
  0
DIMENSION
  5
455FF
  8
回07-寸法
  6
CONTINUOUS
 62
     7
  2
*D8
 10
3349.127008008863
 20
554.6371976121904
 30
0.0
 11
3342.527008008864
 21
554.6371976121904
 31
0.0
 70
   160
  3
DMC
 13
3354.927008008864
 23
534.3016923408638
 33
0.0
 14
3349.127008008863
 24
538.8316923408638
 34
0.0
1001
ACAD
1000
DSTYLE
1002
{
1070
    47
1040
0.2
1070
    48
1040
0.2
1070
   371
1070
     9
1070
   372
1070
     9
1002
}
  0
DIMENSION
  5
45600
  8
回07-寸法
  6
CONTINUOUS
 62
     7
  2
*D9
 10
3349.127008008863
 20
562.188093656292
 30
0.0
 11
3326.473848560045
 21
564.3418436562919
 31
0.0
 70
    32
  1
<> (Insulation Area)
  3
DMC
 13
3354.427008008864
 23
535.1016923408637
 33
0.0
 14
3349.127008008863
 24
538.8316923408638
 34
0.0
1001
ACAD
1000
DSTYLE
1002
{
1070
    47
1040
0.2
1070
    48
1040
0.2
1070
   371
1070
     9
1070
   372
1070
     9
1002
}
  0
DIMENSION
  5
45601
  8
回07-寸法
  6
CONTINUOUS
 62
     7
  2
*D10
 10
3514.127008008864
 20
547.7503293231618
 30
0.0
 11
3522.075826906502
 21
549.9003293231618
 31
0.0
 70
    32
  3
DMC
 13
3509.327008008864
 23
532.8016923408638
 33
0.0
 14
3514.127008008864
 24
538.8316923408638
 34
0.0
1001
ACAD
1000
DSTYLE
1002
{
1070
     3
1000
(<>)
1070
    47
1040
0.2
1070
    48
1040
0.2
1070
   371
1070
     9
1070
   372
1070
     9
1002
}
  0
DIMENSION
  5
45602
  8
回07-寸法
  6
CONTINUOUS
 62
     7
  2
*D11
 10
3514.127008008864
 20
554.6371976121904
 30
0.0
 11
3521.925826906502
 21
556.7871976121904
 31
0.0
 70
    32
  3
DMC
 13
3510.827008008863
 23
534.3016923408638
 33
0.0
 14
3514.127008008864
 24
538.8316923408638
 34
0.0
1001
ACAD
1000
DSTYLE
1002
{
1070
     3
1000
(<>)
1070
    47
1040
0.2
1070
    48
1040
0.2
1070
   371
1070
     9
1070
   372
1070
     9
1002
}
  0
DIMENSION
  5
45603
  8
回07-寸法
  6
CONTINUOUS
 62
     7
  2
*D12
 10
3514.127008008864
 20
562.188093656292
 30
0.0
 11
3521.925826906502
 21
564.338093656292
 31
0.0
 70
    32
  3
DMC
 13
3511.327008008863
 23
535.1016923408637
 33
0.0
 14
3514.127008008864
 24
538.8316923408638
 34
0.0
1001
ACAD
1000
DSTYLE
1002
{
1070
     3
1000
(<>)
1070
    47
1040
0.2
1070
    48
1040
0.2
1070
   371
1070
     9
1070
   372
1070
     9
1002
}
  0
DIMENSION
  5
45604
  8
回07-寸法
  6
CONTINUOUS
 62
     7
  2
*D13
 10
3539.870631612297
 20
538.831692340864
 30
0.0
 11
3537.720631612296
 21
547.6805112385006
 31
0.0
 70
    32
  3
DMC
 13
3509.327008008864
 23
532.8016923408638
 33
0.0
 14
3514.127008008864
 24
538.8316923408638
 34
0.0
 50
90.0
1001
ACAD
1000
DSTYLE
1002
{
1070
     3
1000
(<>)
1070
    47
1040
0.2
1070
    48
1040
0.2
1070
   371
1070
     9
1070
   372
1070
     9
1002
}
  0
DIMENSION
  5
45605
  8
回07-寸法
  6
CONTINUOUS
 62
     7
  2
*D14
 10
3547.547675812227
 20
538.831692340864
 30
0.0
 11
3545.397675812226
 21
547.8305112385006
 31
0.0
 70
    32
  3
DMC
 13
3510.827008008863
 23
534.3016923408638
 33
0.0
 14
3514.127008008864
 24
538.8316923408638
 34
0.0
 50
90.0
1001
ACAD
1000
DSTYLE
1002
{
1070
     3
1000
(<>)
1070
    47
1040
0.2
1070
    48
1040
0.2
1070
   371
1070
     9
1070
   372
1070
     9
1002
}
  0
DIMENSION
  5
45606
  8
回07-寸法
  6
CONTINUOUS
 62
     7
  2
*D15
 10
3555.710422431487
 20
538.831692340864
 30
0.0
 11
3553.560422431485
 21
547.6805112385006
 31
0.0
 70
    32
  3
DMC
 13
3511.327008008863
 23
535.1016923408637
 33
0.0
 14
3514.127008008864
 24
538.8316923408638
 34
0.0
 50
90.0
1001
ACAD
1000
DSTYLE
1002
{
1070
     3
1000
(<>)
1070
    47
1040
0.2
1070
    48
1040
0.2
1070
   371
1070
     9
1070
   372
1070
     9
1002
}
  0
DIMENSION
  5
45607
  8
回07-寸法
  6
CONTINUOUS
 62
     7
  2
*D16
 10
3539.870631612297
 20
434.831692340864
 30
0.0
 11
3537.870631612296
 21
427.0297965269794
 31
0.0
 70
    32
  3
DMC
 13
3509.327008008864
 23
440.8616923408637
 33
0.0
 14
3514.127008008864
 24
434.8316923408638
 34
0.0
 50
90.0
1001
ACAD
1000
DSTYLE
1002
{
1070
    47
1040
0.2
1070
    48
1040
0.2
1070
   371
1070
     9
1070
   372
1070
     9
1002
}
  0
DIMENSION
  5
45608
  8
回07-寸法
  6
CONTINUOUS
 62
     7
  2
*D17
 10
3547.547675812227
 20
434.831692340864
 30
0.0
 11
3545.547675812226
 21
426.9695603065069
 31
0.0
 70
    32
  3
DMC
 13
3510.827008008863
 23
439.3616923408638
 33
0.0
 14
3514.127008008864
 24
434.8316923408638
 34
0.0
 50
90.0
1001
ACAD
1000
DSTYLE
1002
{
1070
    47
1040
0.2
1070
    48
1040
0.2
1070
   371
1070
     9
1070
   372
1070
     9
1002
}
  0
DIMENSION
  5
45609
  8
回07-寸法
  6
CONTINUOUS
 62
     7
  2
*D18
 10
3555.710422431487
 20
434.831692340864
 30
0.0
 11
3553.556672431485
 21
411.1285328920439
 31
0.0
 70
    32
  1
<> (Insulation Area)
  3
DMC
 13
3511.327008008863
 23
438.5616923408638
 33
0.0
 14
3514.127008008864
 24
434.8316923408638
 34
0.0
 50
90.0
1001
ACAD
1000
DSTYLE
1002
{
1070
    47
1040
0.2
1070
    48
1040
0.2
1070
   371
1070
     9
1070
   372
1070
     9
1002
}
  0
LINE
  5
4560A
  8
回08-記事
  6
CENTER2
 62
     7
 10
3348.127008008864
 20
486.8316923408638
 30
0.0
 11
3515.127008008864
 21
486.8316923408638
 31
0.0
  0
LINE
  5
4560B
  8
回08-記事
  6
CENTER2
 62
     7
 10
3432.877008008864
 20
535.3016923408638
 30
0.0
 11
3432.877008008864
 21
438.3616923408637
 31
0.0
  0
CIRCLE
  5
4560C
  8
回08-記事
  6
CONTINUOUS
 62
     7
 10
3432.877008008864
 20
450.8316923408638
 30
0.0
 40
0.025
  0
CIRCLE
  5
4560D
  8
回08-記事
  6
CONTINUOUS
 62
     7
 10
3432.877008008864
 20
454.8316923408638
 30
0.0
 40
0.025
  0
CIRCLE
  5
4560E
  8
回08-記事
  6
CONTINUOUS
 62
     7
 10
3432.877008008864
 20
458.8316923408638
 30
0.0
 40
0.025
  0
CIRCLE
  5
4560F
  8
回08-記事
  6
CONTINUOUS
 62
     7
 10
3432.877008008864
 20
462.8316923408638
 30
0.0
 40
0.025
  0
CIRCLE
  5
45610
  8
回08-記事
  6
CONTINUOUS
 62
     7
 10
3432.877008008864
 20
466.8316923408638
 30
0.0
 40
0.025
  0
CIRCLE
  5
45611
  8
回08-記事
  6
CONTINUOUS
 62
     7
 10
3432.877008008864
 20
470.8316923408638
 30
0.0
 40
0.025
  0
CIRCLE
  5
45612
  8
回08-記事
  6
CONTINUOUS
 62
     7
 10
3432.877008008864
 20
474.8316923408638
 30
0.0
 40
0.025
  0
CIRCLE
  5
45613
  8
回08-記事
  6
CONTINUOUS
 62
     7
 10
3432.877008008864
 20
478.8316923408638
 30
0.0
 40
0.025
  0
CIRCLE
  5
45614
  8
回08-記事
  6
CONTINUOUS
 62
     7
 10
3432.877008008864
 20
482.8316923408638
 30
0.0
 40
0.025
  0
CIRCLE
  5
45615
  8
回08-記事
  6
CONTINUOUS
 62
     7
 10
3432.877008008864
 20
486.8316923408638
 30
0.0
 40
0.025
  0
CIRCLE
  5
45616
  8
回08-記事
  6
CONTINUOUS
 62
     7
 10
3436.877008008864
 20
450.8316923408638
 30
0.0
 40
0.025
  0
CIRCLE
  5
45617
  8
回08-記事
  6
CONTINUOUS
 62
     7
 10
3436.877008008864
 20
454.8316923408638
 30
0.0
 40
0.025
  0
CIRCLE
  5
45618
  8
回08-記事
  6
CONTINUOUS
 62
     7
 10
3436.877008008864
 20
458.8316923408638
 30
0.0
 40
0.025
  0
CIRCLE
  5
45619
  8
回08-記事
  6
CONTINUOUS
 62
     7
 10
3436.877008008864
 20
462.8316923408638
 30
0.0
 40
0.025
  0
CIRCLE
  5
4561A
  8
回08-記事
  6
CONTINUOUS
 62
     7
 10
3436.877008008864
 20
466.8316923408638
 30
0.0
 40
0.025
  0
CIRCLE
  5
4561B
  8
回08-記事
  6
CONTINUOUS
 62
     7
 10
3436.877008008864
 20
470.8316923408638
 30
0.0
 40
0.025
  0
CIRCLE
  5
4561C
  8
回08-記事
  6
CONTINUOUS
 62
     7
 10
3436.877008008864
 20
474.8316923408638
 30
0.0
 40
0.025
  0
CIRCLE
  5
4561D
  8
回08-記事
  6
CONTINUOUS
 62
     7
 10
3436.877008008864
 20
478.8316923408638
 30
0.0
 40
0.025
  0
CIRCLE
  5
4561E
  8
回08-記事
  6
CONTINUOUS
 62
     7
 10
3436.877008008864
 20
482.8316923408638
 30
0.0
 40
0.025
  0
CIRCLE
  5
4561F
  8
回08-記事
  6
CONTINUOUS
 62
     7
 10
3436.877008008864
 20
486.8316923408638
 30
0.0
 40
0.025
  0
CIRCLE
  5
45620
  8
回08-記事
  6
CONTINUOUS
 62
     7
 10
3440.877008008864
 20
450.8316923408638
 30
0.0
 40
0.025
  0
CIRCLE
  5
45621
  8
回08-記事
  6
CONTINUOUS
 62
     7
 10
3440.877008008864
 20
454.8316923408638
 30
0.0
 40
0.025
  0
CIRCLE
  5
45622
  8
回08-記事
  6
CONTINUOUS
 62
     7
 10
3440.877008008864
 20
458.8316923408638
 30
0.0
 40
0.025
  0
CIRCLE
  5
45623
  8
回08-記事
  6
CONTINUOUS
 62
     7
 10
3440.877008008864
 20
462.8316923408638
 30
0.0
 40
0.025
  0
CIRCLE
  5
45624
  8
回08-記事
  6
CONTINUOUS
 62
     7
 10
3440.877008008864
 20
466.8316923408638
 30
0.0
 40
0.025
  0
CIRCLE
  5
45625
  8
回08-記事
  6
CONTINUOUS
 62
     7
 10
3440.877008008864
 20
470.8316923408638
 30
0.0
 40
0.025
  0
CIRCLE
  5
45626
  8
回08-記事
  6
CONTINUOUS
 62
     7
 10
3440.877008008864
 20
474.8316923408638
 30
0.0
 40
0.025
  0
CIRCLE
  5
45627
  8
回08-記事
  6
CONTINUOUS
 62
     7
 10
3440.877008008864
 20
478.8316923408638
 30
0.0
 40
0.025
  0
CIRCLE
  5
45628
  8
回08-記事
  6
CONTINUOUS
 62
     7
 10
3440.877008008864
 20
482.8316923408638
 30
0.0
 40
0.025
  0
CIRCLE
  5
45629
  8
回08-記事
  6
CONTINUOUS
 62
     7
 10
3440.877008008864
 20
486.8316923408638
 30
0.0
 40
0.025
  0
CIRCLE
  5
4562A
  8
回08-記事
  6
CONTINUOUS
 62
     7
 10
3444.877008008865
 20
450.8316923408638
 30
0.0
 40
0.025
  0
CIRCLE
  5
4562B
  8
回08-記事
  6
CONTINUOUS
 62
     7
 10
3444.877008008865
 20
454.8316923408638
 30
0.0
 40
0.025
  0
CIRCLE
  5
4562C
  8
回08-記事
  6
CONTINUOUS
 62
     7
 10
3444.877008008865
 20
458.8316923408638
 30
0.0
 40
0.025
  0
CIRCLE
  5
4562D
  8
回08-記事
  6
CONTINUOUS
 62
     7
 10
3444.877008008865
 20
462.8316923408638
 30
0.0
 40
0.025
  0
CIRCLE
  5
4562E
  8
回08-記事
  6
CONTINUOUS
 62
     7
 10
3444.877008008865
 20
466.8316923408638
 30
0.0
 40
0.025
  0
CIRCLE
  5
4562F
  8
回08-記事
  6
CONTINUOUS
 62
     7
 10
3444.877008008865
 20
470.8316923408638
 30
0.0
 40
0.025
  0
CIRCLE
  5
45630
  8
回08-記事
  6
CONTINUOUS
 62
     7
 10
3444.877008008865
 20
474.8316923408638
 30
0.0
 40
0.025
  0
CIRCLE
  5
45631
  8
回08-記事
  6
CONTINUOUS
 62
     7
 10
3444.877008008865
 20
478.8316923408638
 30
0.0
 40
0.025
  0
CIRCLE
  5
45632
  8
回08-記事
  6
CONTINUOUS
 62
     7
 10
3444.877008008865
 20
482.8316923408638
 30
0.0
 40
0.025
  0
CIRCLE
  5
45633
  8
回08-記事
  6
CONTINUOUS
 62
     7
 10
3444.877008008865
 20
486.8316923408638
 30
0.0
 40
0.025
  0
CIRCLE
  5
45634
  8
回08-記事
  6
CONTINUOUS
 62
     7
 10
3448.877008008864
 20
450.8316923408638
 30
0.0
 40
0.025
  0
CIRCLE
  5
45635
  8
回08-記事
  6
CONTINUOUS
 62
     7
 10
3448.877008008864
 20
454.8316923408638
 30
0.0
 40
0.025
  0
CIRCLE
  5
45636
  8
回08-記事
  6
CONTINUOUS
 62
     7
 10
3448.877008008864
 20
458.8316923408638
 30
0.0
 40
0.025
  0
CIRCLE
  5
45637
  8
回08-記事
  6
CONTINUOUS
 62
     7
 10
3448.877008008864
 20
462.8316923408638
 30
0.0
 40
0.025
  0
CIRCLE
  5
45638
  8
回08-記事
  6
CONTINUOUS
 62
     7
 10
3448.877008008864
 20
466.8316923408638
 30
0.0
 40
0.025
  0
CIRCLE
  5
45639
  8
回08-記事
  6
CONTINUOUS
 62
     7
 10
3448.877008008864
 20
470.8316923408638
 30
0.0
 40
0.025
  0
CIRCLE
  5
4563A
  8
回08-記事
  6
CONTINUOUS
 62
     7
 10
3448.877008008864
 20
474.8316923408638
 30
0.0
 40
0.025
  0
CIRCLE
  5
4563B
  8
回08-記事
  6
CONTINUOUS
 62
     7
 10
3448.877008008864
 20
478.8316923408638
 30
0.0
 40
0.025
  0
CIRCLE
  5
4563C
  8
回08-記事
  6
CONTINUOUS
 62
     7
 10
3448.877008008864
 20
482.8316923408638
 30
0.0
 40
0.025
  0
CIRCLE
  5
4563D
  8
回08-記事
  6
CONTINUOUS
 62
     7
 10
3448.877008008864
 20
486.8316923408638
 30
0.0
 40
0.025
  0
CIRCLE
  5
4563E
  8
回08-記事
  6
CONTINUOUS
 62
     7
 10
3452.877008008864
 20
450.8316923408638
 30
0.0
 40
0.025
  0
CIRCLE
  5
4563F
  8
回08-記事
  6
CONTINUOUS
 62
     7
 10
3452.877008008864
 20
454.8316923408638
 30
0.0
 40
0.025
  0
CIRCLE
  5
45640
  8
回08-記事
  6
CONTINUOUS
 62
     7
 10
3452.877008008864
 20
458.8316923408638
 30
0.0
 40
0.025
  0
CIRCLE
  5
45641
  8
回08-記事
  6
CONTINUOUS
 62
     7
 10
3452.877008008864
 20
462.8316923408638
 30
0.0
 40
0.025
  0
CIRCLE
  5
45642
  8
回08-記事
  6
CONTINUOUS
 62
     7
 10
3452.877008008864
 20
466.8316923408638
 30
0.0
 40
0.025
  0
CIRCLE
  5
45643
  8
回08-記事
  6
CONTINUOUS
 62
     7
 10
3452.877008008864
 20
470.8316923408638
 30
0.0
 40
0.025
  0
CIRCLE
  5
45644
  8
回08-記事
  6
CONTINUOUS
 62
     7
 10
3452.877008008864
 20
474.8316923408638
 30
0.0
 40
0.025
  0
CIRCLE
  5
45645
  8
回08-記事
  6
CONTINUOUS
 62
     7
 10
3452.877008008864
 20
478.8316923408638
 30
0.0
 40
0.025
  0
CIRCLE
  5
45646
  8
回08-記事
  6
CONTINUOUS
 62
     7
 10
3452.877008008864
 20
482.8316923408638
 30
0.0
 40
0.025
  0
CIRCLE
  5
45647
  8
回08-記事
  6
CONTINUOUS
 62
     7
 10
3452.877008008864
 20
486.8316923408638
 30
0.0
 40
0.025
  0
CIRCLE
  5
45648
  8
回08-記事
  6
CONTINUOUS
 62
     7
 10
3456.877008008864
 20
450.8316923408638
 30
0.0
 40
0.025
  0
CIRCLE
  5
45649
  8
回08-記事
  6
CONTINUOUS
 62
     7
 10
3456.877008008864
 20
454.8316923408638
 30
0.0
 40
0.025
  0
CIRCLE
  5
4564A
  8
回08-記事
  6
CONTINUOUS
 62
     7
 10
3456.877008008864
 20
458.8316923408638
 30
0.0
 40
0.025
  0
CIRCLE
  5
4564B
  8
回08-記事
  6
CONTINUOUS
 62
     7
 10
3456.877008008864
 20
462.8316923408638
 30
0.0
 40
0.025
  0
CIRCLE
  5
4564C
  8
回08-記事
  6
CONTINUOUS
 62
     7
 10
3456.877008008864
 20
466.8316923408638
 30
0.0
 40
0.025
  0
CIRCLE
  5
4564D
  8
回08-記事
  6
CONTINUOUS
 62
     7
 10
3456.877008008864
 20
470.8316923408638
 30
0.0
 40
0.025
  0
CIRCLE
  5
4564E
  8
回08-記事
  6
CONTINUOUS
 62
     7
 10
3456.877008008864
 20
474.8316923408638
 30
0.0
 40
0.025
  0
CIRCLE
  5
4564F
  8
回08-記事
  6
CONTINUOUS
 62
     7
 10
3456.877008008864
 20
478.8316923408638
 30
0.0
 40
0.025
  0
CIRCLE
  5
45650
  8
回08-記事
  6
CONTINUOUS
 62
     7
 10
3456.877008008864
 20
482.8316923408638
 30
0.0
 40
0.025
  0
CIRCLE
  5
45651
  8
回08-記事
  6
CONTINUOUS
 62
     7
 10
3456.877008008864
 20
486.8316923408638
 30
0.0
 40
0.025
  0
CIRCLE
  5
45652
  8
回08-記事
  6
CONTINUOUS
 62
     7
 10
3460.877008008864
 20
450.8316923408638
 30
0.0
 40
0.025
  0
CIRCLE
  5
45653
  8
回08-記事
  6
CONTINUOUS
 62
     7
 10
3460.877008008864
 20
454.8316923408638
 30
0.0
 40
0.025
  0
CIRCLE
  5
45654
  8
回08-記事
  6
CONTINUOUS
 62
     7
 10
3460.877008008864
 20
458.8316923408638
 30
0.0
 40
0.025
  0
CIRCLE
  5
45655
  8
回08-記事
  6
CONTINUOUS
 62
     7
 10
3460.877008008864
 20
462.8316923408638
 30
0.0
 40
0.025
  0
CIRCLE
  5
45656
  8
回08-記事
  6
CONTINUOUS
 62
     7
 10
3460.877008008864
 20
466.8316923408638
 30
0.0
 40
0.025
  0
CIRCLE
  5
45657
  8
回08-記事
  6
CONTINUOUS
 62
     7
 10
3460.877008008864
 20
470.8316923408638
 30
0.0
 40
0.025
  0
CIRCLE
  5
45658
  8
回08-記事
  6
CONTINUOUS
 62
     7
 10
3460.877008008864
 20
474.8316923408638
 30
0.0
 40
0.025
  0
CIRCLE
  5
45659
  8
回08-記事
  6
CONTINUOUS
 62
     7
 10
3460.877008008864
 20
478.8316923408638
 30
0.0
 40
0.025
  0
CIRCLE
  5
4565A
  8
回08-記事
  6
CONTINUOUS
 62
     7
 10
3460.877008008864
 20
482.8316923408638
 30
0.0
 40
0.025
  0
CIRCLE
  5
4565B
  8
回08-記事
  6
CONTINUOUS
 62
     7
 10
3460.877008008864
 20
486.8316923408638
 30
0.0
 40
0.025
  0
CIRCLE
  5
4565C
  8
回08-記事
  6
CONTINUOUS
 62
     7
 10
3464.877008008864
 20
450.8316923408638
 30
0.0
 40
0.025
  0
CIRCLE
  5
4565D
  8
回08-記事
  6
CONTINUOUS
 62
     7
 10
3464.877008008864
 20
454.8316923408638
 30
0.0
 40
0.025
  0
CIRCLE
  5
4565E
  8
回08-記事
  6
CONTINUOUS
 62
     7
 10
3464.877008008864
 20
458.8316923408638
 30
0.0
 40
0.025
  0
CIRCLE
  5
4565F
  8
回08-記事
  6
CONTINUOUS
 62
     7
 10
3464.877008008864
 20
462.8316923408638
 30
0.0
 40
0.025
  0
CIRCLE
  5
45660
  8
回08-記事
  6
CONTINUOUS
 62
     7
 10
3464.877008008864
 20
466.8316923408638
 30
0.0
 40
0.025
  0
CIRCLE
  5
45661
  8
回08-記事
  6
CONTINUOUS
 62
     7
 10
3464.877008008864
 20
470.8316923408638
 30
0.0
 40
0.025
  0
CIRCLE
  5
45662
  8
回08-記事
  6
CONTINUOUS
 62
     7
 10
3464.877008008864
 20
474.8316923408638
 30
0.0
 40
0.025
  0
CIRCLE
  5
45663
  8
回08-記事
  6
CONTINUOUS
 62
     7
 10
3464.877008008864
 20
478.8316923408638
 30
0.0
 40
0.025
  0
CIRCLE
  5
45664
  8
回08-記事
  6
CONTINUOUS
 62
     7
 10
3464.877008008864
 20
482.8316923408638
 30
0.0
 40
0.025
  0
CIRCLE
  5
45665
  8
回08-記事
  6
CONTINUOUS
 62
     7
 10
3464.877008008864
 20
486.8316923408638
 30
0.0
 40
0.025
  0
CIRCLE
  5
45666
  8
回08-記事
  6
CONTINUOUS
 62
     7
 10
3468.877008008864
 20
450.8316923408638
 30
0.0
 40
0.025
  0
CIRCLE
  5
45667
  8
回08-記事
  6
CONTINUOUS
 62
     7
 10
3468.877008008864
 20
454.8316923408638
 30
0.0
 40
0.025
  0
CIRCLE
  5
45668
  8
回08-記事
  6
CONTINUOUS
 62
     7
 10
3468.877008008864
 20
458.8316923408638
 30
0.0
 40
0.025
  0
CIRCLE
  5
45669
  8
回08-記事
  6
CONTINUOUS
 62
     7
 10
3468.877008008864
 20
462.8316923408638
 30
0.0
 40
0.025
  0
CIRCLE
  5
4566A
  8
回08-記事
  6
CONTINUOUS
 62
     7
 10
3468.877008008864
 20
466.8316923408638
 30
0.0
 40
0.025
  0
CIRCLE
  5
4566B
  8
回08-記事
  6
CONTINUOUS
 62
     7
 10
3468.877008008864
 20
470.8316923408638
 30
0.0
 40
0.025
  0
CIRCLE
  5
4566C
  8
回08-記事
  6
CONTINUOUS
 62
     7
 10
3468.877008008864
 20
474.8316923408638
 30
0.0
 40
0.025
  0
CIRCLE
  5
4566D
  8
回08-記事
  6
CONTINUOUS
 62
     7
 10
3468.877008008864
 20
478.8316923408638
 30
0.0
 40
0.025
  0
CIRCLE
  5
4566E
  8
回08-記事
  6
CONTINUOUS
 62
     7
 10
3468.877008008864
 20
482.8316923408638
 30
0.0
 40
0.025
  0
CIRCLE
  5
4566F
  8
回08-記事
  6
CONTINUOUS
 62
     7
 10
3468.877008008864
 20
486.8316923408638
 30
0.0
 40
0.025
  0
INSERT
  5
45670
  8
0
  6
CONTINUOUS
 62
     5
 66
     1
  2
*X47
 10
0.0
 20
0.0
 30
0.0
1001
ACADSTRINGINFO
1000
MIFCodePage
1070
     1
1001
ACAD_MLEADERVER
1070
     2
  0
SEQEND
  5
45C97
  8
0
  6
CONTINUOUS
 62
     5
  0
TEXT
  5
45671
  8
回08-記事
  6
CONTINUOUS
 62
     7
 10
3357.619781810192
 20
488.3036375747365
 30
0.0
 40
5.0
  1
XL
  0
TEXT
  5
45672
  8
回08-記事
  6
CONTINUOUS
 62
     7
 10
3421.973495117536
 20
443.7810146504525
 30
0.0
 40
5.0
  1
YD
  0
TEXT
  5
45673
  8
回08-記事
  6
CONTINUOUS
 62
     7
 10
3421.661261416258
 20
525.2146887038111
 30
0.0
 40
5.0
  1
YU
  0
TEXT
  5
45674
  8
回08-記事
  6
CONTINUOUS
 62
     7
 10
3499.40955708262
 20
487.5586280848701
 30
0.0
 40
5.0
  1
XR
  0
DIMENSION
  5
45675
  8
回07-寸法
  6
CONTINUOUS
 62
     7
  2
*D19
 10
3460.877008008863
 20
491.4307338550834
 30
0.0
 11
3455.627008008864
 21
493.4307338550834
 31
0.0
 70
    32
  3
DMC
 13
3464.877008008863
 23
486.8316923408638
 33
0.0
 14
3460.877008008863
 24
486.8316923408638
 34
0.0
1001
ACAD
1000
DSTYLE
1002
{
1070
    47
1040
0.2
1070
    48
1040
0.2
1070
   371
1070
     9
1070
   372
1070
     9
1002
}
  0
DIMENSION
  5
45676
  8
回07-寸法
  6
CONTINUOUS
 62
     7
  2
*D20
 10
3476.504456662568
 20
474.831692340864
 30
0.0
 11
3474.504456662567
 21
469.5816923408629
 31
0.0
 70
    32
  3
DMC
 13
3468.877008008864
 23
478.8316923408638
 33
0.0
 14
3468.877008008864
 24
474.8316923408638
 34
0.0
 50
90.0
1001
ACAD
1000
DSTYLE
1002
{
1070
    47
1040
0.2
1070
    48
1040
0.2
1070
   371
1070
     9
1070
   372
1070
     9
1002
}
  0
DIMENSION
  5
45677
  8
回07-寸法
  6
CONTINUOUS
 62
     7
  2
*D21
 10
3521.078040471805
 20
383.1822763799665
 30
0.0
 11
3521.078040471805
 21
360.4447106113631
 31
0.0
 70
   160
  1
1.4%%P{\H0.83333x;0.2}
  3
DMC
 13
3514.127008008864
 23
370.1822763799664
 33
0.0
 14
3513.827008008863
 24
383.1822763799664
 34
0.0
 50
90.0
1001
ACAD
1000
DSTYLE
1002
{
1070
    47
1040
0.2
1070
    48
1040
0.2
1070
    71
1070
     1
1070
   371
1070
     9
1070
   372
1070
     9
1002
}
  0
DIMENSION
  5
45678
  8
回07-寸法
  6
CONTINUOUS
 62
     7
  2
*D22
 10
3513.827008008863
 20
385.8275413921822
 30
0.0
 11
3506.028189111225
 21
387.9775413921822
 31
0.0
 70
    32
  3
DMC
 13
3514.127008008864
 23
376.1822763799664
 33
0.0
 14
3513.827008008863
 24
383.1822763799664
 34
0.0
1001
ACAD
1000
DSTYLE
1002
{
1070
     3
1000
(<>)
1070
    47
1040
0.2
1070
    48
1040
0.2
1070
   371
1070
     9
1070
   372
1070
     9
1002
}
  0
DIMENSION
  5
45679
  8
回07-寸法
  6
CONTINUOUS
 62
     7
  2
*D23
 10
3349.427008008864
 20
385.8623322958811
 30
0.0
 11
3357.225826906502
 21
388.0123322958811
 31
0.0
 70
    32
  3
DMC
 13
3349.127008008863
 23
376.1822763799664
 33
0.0
 14
3349.427008008864
 24
383.1822763799666
 34
0.0
1001
ACAD
1000
DSTYLE
1002
{
1070
     3
1000
(<>)
1070
    47
1040
0.2
1070
    48
1040
0.2
1070
   371
1070
     9
1070
   372
1070
     9
1002
}
  0
DIMENSION
  5
4567A
  8
回07-寸法
  6
CONTINUOUS
 62
     7
  2
*D24
 10
3261.71104755092
 20
371.1822763799665
 30
0.0
 11
3259.711047550919
 21
360.4418300394134
 31
0.0
 70
    32
  1
0.3%%P{\H0.83333x;0.05}
  3
DMC
 13
3268.926964498096
 23
379.1822763799673
 33
0.0
 14
3268.926964498096
 24
371.1822763799664
 34
0.0
 50
90.0
1001
ACAD
1000
DSTYLE
1002
{
1070
    47
1040
0.2
1070
    48
1040
0.2
1070
   371
1070
     9
1070
   372
1070
     9
1002
}
  0
DIMENSION
  5
4567B
  8
回07-寸法
  6
CONTINUOUS
 62
     7
  2
*D25
 10
3273.926964498096
 20
387.7546951239419
 30
0.0
 11
3279.089096532452
 21
389.7546951239419
 31
0.0
 70
    32
  3
DMC
 13
3268.926964498096
 23
379.1822763799673
 33
0.0
 14
3273.926964498096
 24
380.1822763799663
 34
0.0
1001
ACAD
1000
DSTYLE
1002
{
1070
    47
1040
0.2
1070
    48
1040
0.2
1070
   371
1070
     9
1070
   372
1070
     9
1002
}
  0
DIMENSION
  5
4567C
  8
回07-寸法
  6
CONTINUOUS
 62
     7
  2
*D26
 10
3278.926964498096
 20
359.097190866154
 30
0.0
 11
3285.975783395734
 21
359.097190866154
 31
0.0
 70
   160
  3
DMC
 13
3268.926964498096
 23
371.1822763799664
 33
0.0
 14
3278.926964498096
 24
371.1822763799664
 34
0.0
1001
ACAD
1000
DSTYLE
1002
{
1070
     3
1000
(<>)
1070
    47
1040
0.2
1070
    48
1040
0.2
1070
   371
1070
     9
1070
   372
1070
     9
1002
}
  0
DIMENSION
  5
4567D
  8
回07-寸法
  6
CONTINUOUS
 62
     7
  2
*D27
 10
3261.266378667718
 20
483.7066923408644
 30
0.0
 11
3259.116378667716
 21
459.2691923408631
 31
0.0
 70
    32
  1
(<>)
  3
DMC
 13
3349.127008008863
 23
434.8316923408638
 33
0.0
 14
3269.426964498097
 24
483.7066923408642
 34
0.0
 50
90.0
1001
ACAD
1000
DSTYLE
1002
{
1070
    47
1040
0.2
1070
    48
1040
0.2
1070
   371
1070
     9
1070
   372
1070
     9
1002
}
  0
LINE
  5
459F7
  8
回03-記事
  6
CONTINUOUS
 62
     7
 10
3289.309018874127
 20
378.6633990228872
 30
0.0
 11
3291.125355380541
 21
384.7799425131825
 31
0.0
  0
TEXT
  5
459F8
  8
回03-記事
  6
CONTINUOUS
 62
     7
 10
3290.17400321319
 20
385.857602611556
 30
0.0
 40
5.0
  1
3
  0
INSERT
  5
45A1A
  8
回03-記事
  6
CONTINUOUS
 62
     8
 66
     1
  2
*X48
 10
0.0
 20
0.0
 30
0.0
  0
SEQEND
  5
45C9E
  8
0
  6
CONTINUOUS
 62
     5
  0
TEXT
  5
45A1B
  8
回03-記事
  6
CONTINUOUS
 62
     5
 10
3236.225062951513
 20
386.4948181102965
 30
0.0
 40
3.0
  1
Trace Expose
1001
ACAD
1000
MTEXTBEGIN
1070
    73
1070
     1
1070
    44
1040
1.0
1070
    74
1070
     0
1000
MTEXTEND
  0
INSERT
  5
45A1C
  8
回03-記事
  6
CONTINUOUS
 62
     5
 66
     1
  2
*X49
 10
0.0
 20
0.0
 30
0.0
  0
SEQEND
  5
45CA5
  8
0
  6
CONTINUOUS
 62
     5
  0
TEXT
  5
45A1D
  8
回03-記事
  6
CONTINUOUS
 62
     5
 10
3302.24391814896
 20
454.2915091225071
 30
0.0
 40
3.0
  1
PROTECTION TAPE
1001
ACAD
1000
MTEXTBEGIN
1070
    73
1070
     1
1070
    44
1040
1.0
1070
    74
1070
     0
1000
MTEXTEND
  0
TEXT
  5
45A77
  8
回02-寸法
  6
CONTINUOUS
 62
     5
 10
3560.513797895182
 20
542.6075128146581
 30
0.0
 40
3.0
  1
(Insulation Area)
 50
90.0
  0
TEXT
  5
45A78
  8
回02-寸法
  6
CONTINUOUS
 62
     5
 10
3517.680123722301
 20
567.7778622812013
 30
0.0
 40
3.0
  1
(Insulation Area)
  0
DIMENSION
  5
45A79
  8
回02-寸法
  6
CONTINUOUS
 62
     5
  2
*D39
 10
3221.542419234722
 20
542.2819458719788
 30
0.0
 11
3219.542123959131
 21
532.0070075343794
 31
0.0
 70
    32
  1
6.25{\H0.6667x;±0.2}
  3
DMC
 13
3250.961619339933
 23
554.7819458719778
 33
0.0
 14
3250.961619339933
 24
542.2819458719787
 34
0.0
 50
90.0
1001
ACAD
1000
DSTYLE
1002
{
1070
   170
1070
     1
1070
   271
1070
     3
1070
   272
1070
     3
1070
   371
1070
     9
1070
   372
1070
     9
1002
}
  0
LINE
  5
45A7A
  8
回03-記事
  6
CONTINUOUS
 62
     8
 10
3250.961619339933
 20
554.7819458719778
 30
0.0
 11
3274.712282245725
 21
554.7819458719778
 31
0.0
  0
ARC
  5
45A7B
  8
回03-記事
  6
CONTINUOUS
 62
     8
 10
3250.961619339933
 20
553.7819458719781
 30
0.0
 40
1.0
 50
90.0
 51
180.0
  0
ARC
  5
45A7C
  8
回03-記事
  6
CONTINUOUS
 62
     8
 10
3250.961619339933
 20
543.2819458719786
 30
0.0
 40
1.0
 50
180.0
 51
270.0
  0
LINE
  5
45A7D
  8
回03-記事
  6
CONTINUOUS
 62
     8
 10
3249.961619339933
 20
553.7819458719781
 30
0.0
 11
3249.961619339933
 21
543.2819458719786
 31
0.0
  0
LINE
  5
45A7E
  8
回03-記事
  6
CONTINUOUS
 62
     8
 10
3250.961619339933
 20
542.2819458719782
 30
0.0
 11
3274.712282245725
 21
542.2819458719782
 31
0.0
  0
POLYLINE
  5
45A7F
  8
回03-記事
  6
CONTINUOUS
 62
     8
 66
     1
 10
0.0
 20
0.0
 30
0.0
 40
1.399999999999999
 41
1.399999999999999
  0
VERTEX
  5
45CA6
  8
回03-記事
  6
CONTINUOUS
 62
     8
 10
3249.961532318398
 20
547.281945871973
 30
0.0
  0
VERTEX
  5
45CA8
  8
回03-記事
  6
CONTINUOUS
 62
     8
 10
3259.961619339934
 20
547.281945871973
 30
0.0
  0
SEQEND
  5
45CA7
  8
0
  6
CONTINUOUS
 62
     5
  0
POLYLINE
  5
45A80
  8
回03-記事
  6
CONTINUOUS
 62
     8
 66
     1
 10
0.0
 20
0.0
 30
0.0
 40
1.399999999999999
 41
1.399999999999999
  0
VERTEX
  5
45CA9
  8
回03-記事
  6
CONTINUOUS
 62
     8
 10
3249.961532318398
 20
544.7819458719731
 30
0.0
  0
VERTEX
  5
45CAB
  8
回03-記事
  6
CONTINUOUS
 62
     8
 10
3259.961619339934
 20
544.7819458719731
 30
0.0
  0
SEQEND
  5
45CAA
  8
0
  6
CONTINUOUS
 62
     5
  0
POLYLINE
  5
45A81
  8
回03-記事
  6
CONTINUOUS
 62
     8
 66
     1
 10
0.0
 20
0.0
 30
0.0
 40
1.399999999999999
 41
1.399999999999999
  0
VERTEX
  5
45CAC
  8
回03-記事
  6
CONTINUOUS
 62
     8
 10
3249.961532318398
 20
552.281945871973
 30
0.0
  0
VERTEX
  5
45CAE
  8
回03-記事
  6
CONTINUOUS
 62
     8
 10
3259.961619339934
 20
552.281945871973
 30
0.0
  0
SEQEND
  5
45CAD
  8
0
  6
CONTINUOUS
 62
     5
  0
POLYLINE
  5
45A82
  8
回03-記事
  6
CONTINUOUS
 62
     8
 66
     1
 10
0.0
 20
0.0
 30
0.0
 40
1.399999999999999
 41
1.399999999999999
  0
VERTEX
  5
45CAF
  8
回03-記事
  6
CONTINUOUS
 62
     8
 10
3249.961532318398
 20
549.7819458719731
 30
0.0
  0
VERTEX
  5
45CB1
  8
回03-記事
  6
CONTINUOUS
 62
     8
 10
3259.961619339934
 20
549.7819458719731
 30
0.0
  0
SEQEND
  5
45CB0
  8
0
  6
CONTINUOUS
 62
     5
  0
DIMENSION
  5
45A83
  8
回02-寸法
  6
CONTINUOUS
 62
     5
  2
*D40
 10
3234.997106521245
 20
544.7819458719733
 30
0.0
 11
3232.996811245654
 21
534.3193836033699
 31
0.0
 70
    32
  1
1.25{\H0.83333x;±0.2}
  3
DMC
 13
3247.062090250123
 23
547.281945871973
 33
0.0
 14
3247.062090250123
 24
544.7819458719731
 34
0.0
 50
90.0
1001
ACAD
1000
DSTYLE
1002
{
1070
   170
1070
     1
1070
   271
1070
     3
1070
   272
1070
     3
1070
   371
1070
     9
1070
   372
1070
     9
1002
}
  0
DIMENSION
  5
45A84
  8
回02-寸法
  6
CONTINUOUS
 62
     5
  2
*D41
 10
3241.761744114098
 20
544.0819458719734
 30
0.0
 11
3239.761744114097
 21
532.4444561219723
 31
0.0
 70
    32
  1
4-0.7{\H0.83333x;±0.1}
  3
DMC
 13
3249.961532318398
 23
545.4819458719732
 33
0.0
 14
3249.961532318398
 24
544.0819458719731
 34
0.0
 50
90.0
1001
ACAD
1000
DSTYLE
1002
{
1070
   170
1070
     1
1070
   271
1070
     3
1070
   272
1070
     3
1070
   371
1070
     9
1070
   372
1070
     9
1002
}
  0
DIMENSION
  5
45A85
  8
回02-寸法
  6
CONTINUOUS
 62
     5
  2
*D42
 10
3228.582368495043
 20
552.2819458719733
 30
0.0
 11
3228.582368495042
 21
533.6107836499321
 31
0.0
 70
   160
  1
3.75{\H0.66667x;±0.1}
  3
DMC
 13
3247.062090250123
 23
544.7819458719731
 33
0.0
 14
3247.062003228588
 24
552.281945871973
 34
0.0
 50
90.0
1001
ACAD
1000
DSTYLE
1002
{
1070
   170
1070
     1
1070
   271
1070
     3
1070
   272
1070
     3
1070
   371
1070
     9
1070
   372
1070
     9
1002
}
  0
LINE
  5
45A86
  8
回03-記事
  6
CONTINUOUS
 62
     7
 10
3247.062003228588
 20
552.281945871973
 30
0.0
 11
3263.573445167969
 21
552.281945871973
 31
0.0
  0
LINE
  5
45A87
  8
回03-記事
  6
CONTINUOUS
 62
     7
 10
3247.062090250123
 20
547.281945871973
 30
0.0
 11
3263.573445167969
 21
547.281945871973
 31
0.0
  0
LINE
  5
45A88
  8
回03-記事
  6
CONTINUOUS
 62
     7
 10
3247.062003228588
 20
544.7819458719731
 30
0.0
 11
3263.573445167969
 21
544.7819458719731
 31
0.0
  0
LINE
  5
45A89
  8
回03-記事
  6
CONTINUOUS
 62
     8
 10
3259.961619339934
 20
554.7819458719776
 30
0.0
 11
3259.961619339934
 21
542.2819458719782
 31
0.0
  0
TEXT
  5
45A8A
  8
回03-記事
  6
CONTINUOUS
 62
     5
 10
3239.877692921482
 20
567.0494899292752
 30
0.0
 40
5.0
  1
SECTION A
  0
INSERT
  5
45A8B
  8
回02-寸法
 62
     1
 66
     1
  2
*X50
 10
0.0
 20
0.0
 30
0.0
  0
SEQEND
  5
45CB8
  8
0
  6
CONTINUOUS
 62
     5
  0
TEXT
  5
45A8C
  8
回02-寸法
 62
     5
 10
3234.500586415151
 20
559.4624682438939
 30
0.0
 40
3.0
  1
2-R0.5
1001
ACAD
1000
MTEXTBEGIN
1070
    73
1070
     1
1070
    44
1040
1.0
1070
    74
1070
     0
1000
MTEXTEND
  0
CIRCLE
  5
45AF1
  8
回03-記事
  6
CONTINUOUS
 62
     5
 10
3270.73443200138
 20
486.5777665689404
 30
0.0
 40
7.742816109002717
  0
INSERT
  5
45AF2
  8
回03-記事
  6
CONTINUOUS
 62
     7
 66
     1
  2
*X51
 10
0.0
 20
0.0
 30
0.0
  0
SEQEND
  5
45CBF
  8
0
  6
CONTINUOUS
 62
     5
  0
TEXT
  5
45AF3
  8
回03-記事
  6
CONTINUOUS
 62
     5
 10
3277.451142462473
 20
496.3077547116147
 30
0.0
 40
3.0
  1
A
1001
ACAD
1000
MTEXTBEGIN
1070
    73
1070
     1
1070
    44
1040
1.0
1070
    74
1070
     0
1000
MTEXTEND
  0
TEXT
  5
45C44
  8
回03-記事
  6
CONTINUOUS
 62
     5
 10
3357.777221854629
 20
331.3125519421337
 30
0.0
 40
6.0
  1
TOLERANCE=±0.5mm
  0
TEXT
  5
45C45
  8
回03-記事
  6
CONTINUOUS
 62
     5
 10
3357.777221854629
 20
320.787919799384
 30
0.0
 40
6.0
  1
EXCEPT WHERE INDICATED
  0
TEXT
  5
45C46
  8
回03-記事
  6
CONTINUOUS
 62
     5
 10
3357.777221854629
 20
310.2632876566342
 30
0.0
 40
6.0
  1
Unit: mm
  0
TEXT
  5
45C47
  8
回03-記事
  6
CONTINUOUS
 62
     5
 10
3357.777221854629
 20
299.7386555138845
 30
0.0
 40
6.0
  1
Edges and corners of ITO glass may be chamfered 
  0
TEXT
  5
45C48
  8
回03-記事
  6
CONTINUOUS
 62
     5
 10
3357.777221854629
 20
289.2140233711348
 30
0.0
 40
6.0
  1
without affecting product specification.
  0
ENDSEC
  0
EOF
