  0
SECTION
  2
HEADER
  9
$ACADVER
  1
AC1009
  9
$INSBASE
 10
0.0
 20
0.0
 30
0.0
  9
$EXTMIN
 10
-438.9382120578775
 20
-2658.108042269928
 30
0.0
  9
$EXTMAX
 10
2973.665386109568
 20
-2245.473791354266
 30
0.0
  9
$LIMMIN
 10
0.0
 20
0.0
  9
$LIMMAX
 10
880.0
 20
620.0
  9
$ORTHOMODE
 70
     0
  9
$REGENMODE
 70
     1
  9
$FILLMODE
 70
     1
  9
$QTEXTMODE
 70
     0
  9
$MIRRTEXT
 70
     1
  9
$DRAGMODE
 70
     2
  9
$LTSCALE
 40
2.087542087542087
  9
$OSMODE
 70
    37
  9
$ATTMODE
 70
     1
  9
$TEXTSIZE
 40
4.0
  9
$TRACEWID
 40
1.0
  9
$TEXTSTYLE
  7
STANDARD
  9
$CLAYER
  8
0
  9
$CELTYPE
  6
CONTINUOUS
  9
$CECOLOR
 62
     7
  9
$DIMSCALE
 40
1.0
  9
$DIMASZ
 40
1.5
  9
$DIMEXO
 40
0.0
  9
$DIMDLI
 40
0.0
  9
$DIMRND
 40
0.0
  9
$DIMDLE
 40
0.0
  9
$DIMEXE
 40
1.0
  9
$DIMTP
 40
0.3
  9
$DIMTM
 40
0.3
  9
$DIMTXT
 40
4.0
  9
$DIMCEN
 40
1.5
  9
$DIMTSZ
 40
0.0
  9
$DIMTOL
 70
     0
  9
$DIMLIM
 70
     0
  9
$DIMTIH
 70
     0
  9
$DIMTOH
 70
     0
  9
$DIMSE1
 70
     0
  9
$DIMSE2
 70
     0
  9
$DIMTAD
 70
     3
  9
$DIMZIN
 70
     8
  9
$DIMBLK
  1

  9
$DIMASO
 70
     1
  9
$DIMSHO
 70
     1
  9
$DIMPOST
  1

  9
$DIMAPOST
  1

  9
$DIMALT
 70
     0
  9
$DIMALTD
 70
     2
  9
$DIMALTF
 40
25.4
  9
$DIMLFAC
 40
1.0
  9
$DIMTOFL
 70
     1
  9
$DIMTVP
 40
0.0
  9
$DIMTIX
 70
     0
  9
$DIMSOXD
 70
     0
  9
$DIMSAH
 70
     1
  9
$DIMBLK1
  1
OPEN
  9
$DIMBLK2
  1
OPEN
  9
$DIMSTYLE
  2
STANDARD
  9
$DIMCLRD
 70
     5
  9
$DIMCLRE
 70
     5
  9
$DIMCLRT
 70
     5
  9
$DIMTFAC
 40
0.7
  9
$DIMGAP
 40
0.5
  9
$LUNITS
 70
     2
  9
$LUPREC
 70
     4
  9
$SKETCHINC
 40
1.0
  9
$FILLETRAD
 40
0.5
  9
$AUNITS
 70
     0
  9
$AUPREC
 70
     0
  9
$MENU
  1
.
  9
$ELEVATION
 40
0.0
  9
$PELEVATION
 40
0.0
  9
$THICKNESS
 40
0.0
  9
$LIMCHECK
 70
     0
  9
$BLIPMODE
 70
     0
  9
$CHAMFERA
 40
1.7
  9
$CHAMFERB
 40
1.7
  9
$SKPOLY
 70
     0
  9
$TDCREATE
 40
2450431.727493866
  9
$TDUPDATE
 40
2460200.387786377
  9
$TDINDWG
 40
6.339807025
  9
$TDUSRTIMER
 40
6.339804861
  9
$USRTIMER
 70
     1
  9
$ANGBASE
 50
0.0
  9
$ANGDIR
 70
     0
  9
$PDMODE
 70
    34
  9
$PDSIZE
 40
0.0
  9
$PLINEWID
 40
2.0
  9
$COORDS
 70
     0
  9
$SPLFRAME
 70
     0
  9
$SPLINETYPE
 70
     6
  9
$SPLINESEGS
 70
     8
  9
$ATTDIA
 70
     1
  9
$ATTREQ
 70
     1
  9
$HANDLING
 70
     1
  9
$HANDSEED
  5
330CA
  9
$SURFTAB1
 70
     6
  9
$SURFTAB2
 70
     6
  9
$SURFTYPE
 70
     6
  9
$SURFU
 70
     6
  9
$SURFV
 70
     6
  9
$UCSNAME
  2

  9
$UCSORG
 10
-1808.084941971789
 20
-2985.51326375724
 30
0.0
  9
$UCSXDIR
 10
1.0
 20
0.0
 30
0.0
  9
$UCSYDIR
 10
0.0
 20
1.0
 30
0.0
  9
$PUCSNAME
  2

  9
$PUCSORG
 10
0.0
 20
0.0
 30
0.0
  9
$PUCSXDIR
 10
1.0
 20
0.0
 30
0.0
  9
$PUCSYDIR
 10
0.0
 20
1.0
 30
0.0
  9
$USERI1
 70
     0
  9
$USERI2
 70
     0
  9
$USERI3
 70
     0
  9
$USERI4
 70
     0
  9
$USERI5
 70
     0
  9
$USERR1
 40
0.0
  9
$USERR2
 40
0.0
  9
$USERR3
 40
0.0
  9
$USERR4
 40
0.0
  9
$USERR5
 40
0.0
  9
$WORLDVIEW
 70
     1
  9
$SHADEDGE
 70
     3
  9
$SHADEDIF
 70
    70
  9
$TILEMODE
 70
     1
  9
$MAXACTVP
 70
    16
  9
$PLIMCHECK
 70
     0
  9
$PEXTMIN
 10
1.000000000000000E+20
 20
1.000000000000000E+20
 30
1.000000000000000E+20
  9
$PEXTMAX
 10
-1.000000000000000E+20
 20
-1.000000000000000E+20
 30
-1.000000000000000E+20
  9
$PLIMMIN
 10
0.0
 20
0.0
  9
$PLIMMAX
 10
420.0
 20
297.0
  9
$UNITMODE
 70
     0
  9
$VISRETAIN
 70
     0
  9
$PLINEGEN
 70
     0
  9
$PSLTSCALE
 70
     1
  0
ENDSEC
  0
SECTION
  2
TABLES
  0
TABLE
  2
VPORT
 70
     1
  0
VPORT
  2
*ACTIVE
 70
     0
 10
0.0
 20
0.0
 11
1.0
 21
1.0
 12
-208.4997371184615
 22
-2498.758301430142
 13
0.0
 23
0.0
 14
1.0
 24
1.0
 15
5.0
 25
5.0
 16
0.0
 26
0.0
 36
1.0
 17
0.0
 27
0.0
 37
0.0
 40
811.7087654086136
 41
0.9460154241645245
 42
50.0
 43
0.0
 44
0.0
 50
0.0
 51
0.0
 71
     0
 72
   100
 73
     1
 74
     0
 75
     0
 76
     0
 77
     0
 78
     0
  0
ENDTAB
  0
TABLE
  2
LTYPE
 70
     3
  0
LTYPE
  2
CONTINUOUS
 70
     0
  3
Solid line
 72
    65
 73
     0
 40
0.0
  0
LTYPE
  2
CENTER2
 70
     0
  3
___ _ ___ _ ___ _ ___ _ ___ _ ___ _ ___ _ ___ _
 72
    65
 73
     4
 40
1.125
 49
0.75
 49
-0.125
 49
0.125
 49
-0.125
  0
LTYPE
  2
PHANTOM2
 70
     0
  3
Phantom (.5x) ___ _ _ ___ _ _ ___ _ _ ___ _ _
 72
    65
 73
     6
 40
1.25
 49
0.625
 49
-0.125
 49
0.125
 49
-0.125
 49
0.125
 49
-0.125
  0
ENDTAB
  0
TABLE
  2
LAYER
 70
     7
  0
LAYER
  2
0
 70
     0
 62
     7
  6
CONTINUOUS
  0
LAYER
  2
DEFPOINTS
 70
     0
 62
     7
  6
CONTINUOUS
  0
LAYER
  2
回07-寸法
 70
     0
 62
     7
  6
CONTINUOUS
  0
LAYER
  2
回04-図面枠
 70
     0
 62
     7
  6
CONTINUOUS
  0
LAYER
  2
回01-TP外形
 70
     0
 62
     7
  6
CONTINUOUS
  0
LAYER
  2
回02-寸法
 70
     0
 62
     7
  6
CONTINUOUS
  0
LAYER
  2
回03-記事
 70
     0
 62
     7
  6
CONTINUOUS
  0
ENDTAB
  0
TABLE
  2
STYLE
 70
     1
  0
STYLE
  2
STANDARD
 70
     0
 40
4.0
 41
1.0
 50
0.0
 71
     0
 42
4.0
  3
isocp.shx
  4
bigfont.shx
  0
ENDTAB
  0
TABLE
  2
VIEW
 70
     0
  0
ENDTAB
  0
TABLE
  2
UCS
 70
     0
  0
ENDTAB
  0
TABLE
  2
APPID
 70
    20
  0
APPID
  2
ACAD
 70
     0
  0
APPID
  2
DRAWINGVARIABLESXDATA
 70
     0
  0
APPID
  2
ACAD_PSEXT
 70
     0
  0
APPID
  2
ACAD_EXEMPT_FROM_CAD_STAND
 70
     0
  0
APPID
  2
ACAECLAYERSTANDARD
 70
     0
  0
APPID
  2
ACADSTRINGINFO
 70
     0
  0
APPID
  2
ACAD_DSTYLE_DIMTEXT_FILL
 70
     0
  0
APPID
  2
ACAD_DSTYLE_DIMEXT_LENGTH
 70
     0
  0
APPID
  2
ACAD_DSTYLE_DIMEXT_ENABLED
 70
     0
  0
APPID
  2
ACAD_DSTYLE_DIM_LINETYPE
 70
     0
  0
APPID
  2
ACAD_DSTYLE_DIM_EXT1_LINET
 70
     0
  0
APPID
  2
ACAD_DSTYLE_DIM_EXT2_LINET
 70
     0
  0
APPID
  2
ACAD_DSTYLE_DIMJOGGED_JOGA
 70
     0
  0
APPID
  2
ACAD_DSTYLE_DIMARC_LENGTH_
 70
     0
  0
APPID
  2
ACAD_MLEADERVER
 70
     0
  0
APPID
  2
ACAD_NAV_VCDISPLAY
 70
     0
  0
APPID
  2
ACADANNOMONITORALERTICONDI
 70
     0
  0
APPID
  2
ACCMTRANSPARENCY
 70
     0
  0
APPID
  2
ACAD_DSTYLE_DIMJAG
 70
     0
  0
APPID
  2
ACAD_DSTYLE_DIMTALN
 70
     0
  0
ENDTAB
  0
TABLE
  2
DIMSTYLE
 70
     4
  0
DIMSTYLE
  2
STANDARD
 70
     0
  3

  4

  5

  6
OPEN
  7
OPEN
 40
1.0
 41
2.0
 42
0.0
 43
0.0
 44
1.0
 45
0.0
 46
0.0
 47
0.0
 48
0.0
140
3.0
141
2.0
142
0.0
143
25.4
144
1.0
145
0.0
146
1.0
147
0.5
 71
     0
 72
     0
 73
     0
 74
     0
 75
     0
 76
     0
 77
     3
 78
     8
170
     0
171
     2
172
     1
173
     1
174
     0
175
     0
176
     5
177
     5
178
     5
  0
DIMSTYLE
  2
RUISIN
 70
     0
  3

  4

  5

  6
OPEN
  7
OPEN
 40
1.0
 41
2.0
 42
0.0
 43
0.0
 44
1.0
 45
0.0
 46
0.0
 47
0.0
 48
0.0
140
3.0
141
2.0
142
0.0
143
25.4
144
1.0
145
0.0
146
1.0
147
0.5
 71
     0
 72
     0
 73
     0
 74
     0
 75
     0
 76
     0
 77
     3
 78
     8
170
     0
171
     2
172
     1
173
     1
174
     0
175
     0
176
     5
177
     5
178
     5
  0
DIMSTYLE
  2
KOUSA
 70
     0
  3

  4

  5

  6
OPEN
  7
OPEN
 40
1.0
 41
2.0
 42
0.0
 43
0.0
 44
1.0
 45
0.0
 46
0.0
 47
0.1
 48
0.1
140
3.0
141
2.0
142
0.0
143
25.4
144
1.0
145
0.0
146
0.7
147
0.5
 71
     1
 72
     0
 73
     0
 74
     0
 75
     0
 76
     0
 77
     3
 78
     8
170
     0
171
     2
172
     1
173
     1
174
     0
175
     0
176
     5
177
     5
178
     5
  0
DIMSTYLE
  2
DMC
 70
     0
  3

  4

  5
OPEN
  6

  7

 40
1.0
 41
2.0
 42
0.0
 43
0.0
 44
1.0
 45
0.0
 46
0.0
 47
0.0
 48
0.0
140
3.0
141
2.0
142
0.0
143
0.03937007874016
144
1.0
145
0.0
146
0.7
147
0.5
 71
     0
 72
     0
 73
     0
 74
     0
 75
     0
 76
     0
 77
     3
 78
     8
170
     0
171
     3
172
     1
173
     0
174
     0
175
     0
176
     5
177
     5
178
     5
  0
ENDTAB
  0
ENDSEC
  0
SECTION
  2
BLOCKS
  0
BLOCK
  8
0
  2
$MODEL_SPACE
 70
     0
 10
0.0
 20
0.0
 30
0.0
  3
$MODEL_SPACE
  1

  0
ENDBLK
  8
0
  5
1C
  0
BLOCK
 67
     1
  8
0
  2
$PAPER_SPACE
 70
     0
 10
0.0
 20
0.0
 30
0.0
  3
$PAPER_SPACE
  1

  0
ENDBLK
  5
19
 67
     1
  8
0
  0
BLOCK
  8
0
  2
_OPEN
 70
     0
 10
0.0
 20
0.0
 30
0.0
  3
_OPEN
  1

  0
LINE
  5
6E
  8
0
  6
BYBLOCK
 62
     0
 10
-1.0
 20
0.1666666666666666
 30
0.0
 11
0.0
 21
0.0
 31
0.0
  0
LINE
  5
6F
  8
0
  6
BYBLOCK
 62
     0
 10
0.0
 20
0.0
 30
0.0
 11
-1.0
 21
-0.1666666666666666
 31
0.0
  0
LINE
  5
70
  8
0
  6
BYBLOCK
 62
     0
 10
0.0
 20
0.0
 30
0.0
 11
-1.0
 21
0.0
 31
0.0
  0
ENDBLK
  5
71
  8
0
  0
BLOCK
  8
0
  2
*D1
 70
     1
 10
0.0
 20
0.0
 30
0.0
  3
*D1
  1

  0
LINE
  5
329C8
  8
回02-寸法
  6
CONTINUOUS
 62
     5
 10
-284.4031140740621
 20
-2359.365274188004
 30
0.0
 11
-284.4031140740621
 21
-2324.094615319133
 31
0.0
  0
LINE
  5
329C9
  8
回02-寸法
  6
CONTINUOUS
 62
     5
 10
-66.94311407406212
 20
-2359.365274188004
 30
0.0
 11
-66.94311407406212
 21
-2324.094615319133
 31
0.0
  0
LINE
  5
329CA
  8
回02-寸法
  6
CONTINUOUS
 62
     5
 10
-282.9031140740621
 20
-2325.094615319133
 30
0.0
 11
-68.44311407406213
 21
-2325.094615319133
 31
0.0
  0
INSERT
  5
329CB
  8
回02-寸法
  6
CONTINUOUS
 62
     5
  2
_OPEN
 10
-284.4031140740621
 20
-2325.094615319133
 30
0.0
 41
1.5
 42
1.5
 43
1.5
 50
180.0
  0
INSERT
  5
329CC
  8
回02-寸法
  6
CONTINUOUS
 62
     5
  2
_OPEN
 10
-66.94311407406212
 20
-2325.094615319133
 30
0.0
 41
1.5
 42
1.5
 43
1.5
  0
INSERT
  5
329CD
  8
回02-寸法
  6
CONTINUOUS
 62
     5
 66
     1
  2
*X48
 10
0.0
 20
0.0
 30
0.0
  0
SEQEND
  5
33071
  8
0
  6
CONTINUOUS
 62
     7
  0
POINT
  5
329CE
  8
DEFPOINTS
  6
CONTINUOUS
 62
     0
 10
-284.4031140740621
 20
-2359.365274188004
 30
0.0
  0
POINT
  5
329CF
  8
DEFPOINTS
  6
CONTINUOUS
 62
     0
 10
-66.94311407406212
 20
-2359.365274188004
 30
0.0
  0
POINT
  5
329D0
  8
DEFPOINTS
  6
CONTINUOUS
 62
     0
 10
-66.94311407406212
 20
-2325.094615319133
 30
0.0
  0
ENDBLK
  5
305B7
  8
0
 62
     7
  0
BLOCK
  8
0
  2
*D2
 70
     1
 10
0.0
 20
0.0
 30
0.0
  3
*D2
  1

  0
LINE
  5
329BF
  8
回02-寸法
  6
CONTINUOUS
 62
     5
 10
-286.4031140740621
 20
-2357.365274188004
 30
0.0
 11
-286.4031140740621
 21
-2316.647987062442
 31
0.0
  0
LINE
  5
329C0
  8
回02-寸法
  6
CONTINUOUS
 62
     5
 10
-64.94311407406212
 20
-2357.365274188004
 30
0.0
 11
-64.94311407406212
 21
-2316.647987062442
 31
0.0
  0
LINE
  5
329C1
  8
回02-寸法
  6
CONTINUOUS
 62
     5
 10
-284.9031140740621
 20
-2317.647987062442
 30
0.0
 11
-66.44311407406212
 21
-2317.647987062442
 31
0.0
  0
INSERT
  5
329C2
  8
回02-寸法
  6
CONTINUOUS
 62
     5
  2
_OPEN
 10
-286.4031140740621
 20
-2317.647987062442
 30
0.0
 41
1.5
 42
1.5
 43
1.5
 50
180.0
  0
INSERT
  5
329C3
  8
回02-寸法
  6
CONTINUOUS
 62
     5
  2
_OPEN
 10
-64.94311407406212
 20
-2317.647987062442
 30
0.0
 41
1.5
 42
1.5
 43
1.5
  0
INSERT
  5
329C4
  8
回02-寸法
  6
CONTINUOUS
 62
     5
 66
     1
  2
*X49
 10
0.0
 20
0.0
 30
0.0
  0
SEQEND
  5
33077
  8
0
  6
CONTINUOUS
 62
     7
  0
POINT
  5
329C5
  8
DEFPOINTS
  6
CONTINUOUS
 62
     0
 10
-286.4031140740621
 20
-2357.365274188004
 30
0.0
  0
POINT
  5
329C6
  8
DEFPOINTS
  6
CONTINUOUS
 62
     0
 10
-64.94311407406212
 20
-2357.365274188004
 30
0.0
  0
POINT
  5
329C7
  8
DEFPOINTS
  6
CONTINUOUS
 62
     0
 10
-64.94311407406212
 20
-2317.647987062442
 30
0.0
  0
ENDBLK
  5
305C3
  8
0
 62
     7
  0
BLOCK
  8
0
  2
*D3
 70
     1
 10
0.0
 20
0.0
 30
0.0
  3
*D3
  1

  0
LINE
  5
329B6
  8
回02-寸法
  6
CONTINUOUS
 62
     5
 10
-294.663114074062
 20
-2350.915274188003
 30
0.0
 11
-294.663114074062
 21
-2303.466788750462
 31
0.0
  0
LINE
  5
329B7
  8
回02-寸法
  6
CONTINUOUS
 62
     5
 10
-59.9631140740621
 20
-2350.915274188004
 30
0.0
 11
-59.9631140740621
 21
-2303.466788750462
 31
0.0
  0
LINE
  5
329B8
  8
回02-寸法
  6
CONTINUOUS
 62
     5
 10
-293.163114074062
 20
-2304.466788750462
 30
0.0
 11
-61.4631140740621
 21
-2304.466788750462
 31
0.0
  0
INSERT
  5
329B9
  8
回02-寸法
  6
CONTINUOUS
 62
     5
  2
_OPEN
 10
-294.663114074062
 20
-2304.466788750462
 30
0.0
 41
1.5
 42
1.5
 43
1.5
 50
180.0
  0
INSERT
  5
329BA
  8
回02-寸法
  6
CONTINUOUS
 62
     5
  2
_OPEN
 10
-59.9631140740621
 20
-2304.466788750462
 30
0.0
 41
1.5
 42
1.5
 43
1.5
  0
INSERT
  5
329BB
  8
回02-寸法
  6
CONTINUOUS
 62
     5
 66
     1
  2
*X50
 10
0.0
 20
0.0
 30
0.0
  0
SEQEND
  5
3307D
  8
0
  6
CONTINUOUS
 62
     7
  0
POINT
  5
329BC
  8
DEFPOINTS
  6
CONTINUOUS
 62
     0
 10
-294.663114074062
 20
-2350.915274188003
 30
0.0
  0
POINT
  5
329BD
  8
DEFPOINTS
  6
CONTINUOUS
 62
     0
 10
-59.9631140740621
 20
-2350.915274188004
 30
0.0
  0
POINT
  5
329BE
  8
DEFPOINTS
  6
CONTINUOUS
 62
     0
 10
-59.9631140740621
 20
-2304.466788750462
 30
0.0
  0
ENDBLK
  5
305CF
  8
0
 62
     7
  0
BLOCK
  8
0
  2
*D4
 70
     1
 10
0.0
 20
0.0
 30
0.0
  3
*D4
  1

  0
LINE
  5
32B88
  8
回02-寸法
  6
CONTINUOUS
 62
     5
 10
-66.94311407406215
 20
-2495.465274188005
 30
0.0
 11
-40.98972256250099
 21
-2495.465274188005
 31
0.0
  0
LINE
  5
32B89
  8
回02-寸法
  6
CONTINUOUS
 62
     5
 10
-66.94311407406215
 20
-2359.365274188005
 30
0.0
 11
-40.98972256250101
 21
-2359.365274188005
 31
0.0
  0
LINE
  5
32B8A
  8
回02-寸法
  6
CONTINUOUS
 62
     5
 10
-41.98972256250098
 20
-2493.965274188005
 30
0.0
 11
-41.98972256250098
 21
-2360.865274188005
 31
0.0
  0
INSERT
  5
32B8B
  8
回02-寸法
  6
CONTINUOUS
 62
     5
  2
_OPEN
 10
-41.98972256250098
 20
-2495.465274188005
 30
0.0
 41
1.5
 42
1.5
 43
1.5
 50
270.0
  0
INSERT
  5
32B8C
  8
回02-寸法
  6
CONTINUOUS
 62
     5
  2
_OPEN
 10
-41.98972256250101
 20
-2359.365274188005
 30
0.0
 41
1.5
 42
1.5
 43
1.5
 50
90.0
  0
INSERT
  5
32B8D
  8
回02-寸法
  6
CONTINUOUS
 62
     5
 66
     1
  2
*X51
 10
0.0
 20
0.0
 30
0.0
  0
SEQEND
  5
33083
  8
0
  6
CONTINUOUS
 62
     7
  0
POINT
  5
32B8E
  8
DEFPOINTS
  6
CONTINUOUS
 62
     0
 10
-66.94311407406215
 20
-2495.465274188005
 30
0.0
  0
POINT
  5
32B8F
  8
DEFPOINTS
  6
CONTINUOUS
 62
     0
 10
-66.94311407406215
 20
-2359.365274188005
 30
0.0
  0
POINT
  5
32B90
  8
DEFPOINTS
  6
CONTINUOUS
 62
     0
 10
-41.98972256250101
 20
-2359.365274188005
 30
0.0
  0
ENDBLK
  5
305DB
  8
0
 62
     7
  0
BLOCK
  8
0
  2
*D5
 70
     1
 10
0.0
 20
0.0
 30
0.0
  3
*D5
  1

  0
LINE
  5
32B7F
  8
回02-寸法
  6
CONTINUOUS
 62
     5
 10
-64.94311407406215
 20
-2357.365274188005
 30
0.0
 11
-32.63849610238377
 21
-2357.365274188005
 31
0.0
  0
LINE
  5
32B80
  8
回02-寸法
  6
CONTINUOUS
 62
     5
 10
-64.94311407406215
 20
-2497.465274188005
 30
0.0
 11
-32.63849610238374
 21
-2497.465274188005
 31
0.0
  0
LINE
  5
32B81
  8
回02-寸法
  6
CONTINUOUS
 62
     5
 10
-33.63849610238377
 20
-2358.865274188005
 30
0.0
 11
-33.63849610238377
 21
-2495.965274188005
 31
0.0
  0
INSERT
  5
32B82
  8
回02-寸法
  6
CONTINUOUS
 62
     5
  2
_OPEN
 10
-33.63849610238377
 20
-2357.365274188005
 30
0.0
 41
1.5
 42
1.5
 43
1.5
 50
90.0
  0
INSERT
  5
32B83
  8
回02-寸法
  6
CONTINUOUS
 62
     5
  2
_OPEN
 10
-33.63849610238374
 20
-2497.465274188005
 30
0.0
 41
1.5
 42
1.5
 43
1.5
 50
270.0
  0
INSERT
  5
32B84
  8
回02-寸法
  6
CONTINUOUS
 62
     5
 66
     1
  2
*X52
 10
0.0
 20
0.0
 30
0.0
  0
SEQEND
  5
33089
  8
0
  6
CONTINUOUS
 62
     7
  0
POINT
  5
32B85
  8
DEFPOINTS
  6
CONTINUOUS
 62
     0
 10
-64.94311407406215
 20
-2357.365274188005
 30
0.0
  0
POINT
  5
32B86
  8
DEFPOINTS
  6
CONTINUOUS
 62
     0
 10
-64.94311407406215
 20
-2497.465274188005
 30
0.0
  0
POINT
  5
32B87
  8
DEFPOINTS
  6
CONTINUOUS
 62
     0
 10
-33.63849610238374
 20
-2497.465274188005
 30
0.0
  0
ENDBLK
  5
305E7
  8
0
 62
     7
  0
BLOCK
  8
0
  2
*D6
 70
     1
 10
0.0
 20
0.0
 30
0.0
  3
*D6
  1

  0
LINE
  5
32B76
  8
回02-寸法
  6
CONTINUOUS
 62
     5
 10
-59.96311407406214
 20
-2503.915274188005
 30
0.0
 11
-18.52540387204702
 21
-2503.915274188005
 31
0.0
  0
LINE
  5
32B77
  8
回02-寸法
  6
CONTINUOUS
 62
     5
 10
-59.96311407406214
 20
-2350.915274188006
 30
0.0
 11
-18.52540387204705
 21
-2350.915274188006
 31
0.0
  0
LINE
  5
32B78
  8
回02-寸法
  6
CONTINUOUS
 62
     5
 10
-19.52540387204702
 20
-2502.415274188005
 30
0.0
 11
-19.52540387204702
 21
-2352.415274188005
 31
0.0
  0
INSERT
  5
32B79
  8
回02-寸法
  6
CONTINUOUS
 62
     5
  2
_OPEN
 10
-19.52540387204702
 20
-2503.915274188005
 30
0.0
 41
1.5
 42
1.5
 43
1.5
 50
270.0
  0
INSERT
  5
32B7A
  8
回02-寸法
  6
CONTINUOUS
 62
     5
  2
_OPEN
 10
-19.52540387204705
 20
-2350.915274188006
 30
0.0
 41
1.5
 42
1.5
 43
1.5
 50
90.0
  0
INSERT
  5
32B7B
  8
回02-寸法
  6
CONTINUOUS
 62
     5
 66
     1
  2
*X53
 10
0.0
 20
0.0
 30
0.0
  0
SEQEND
  5
3308F
  8
0
  6
CONTINUOUS
 62
     7
  0
POINT
  5
32B7C
  8
DEFPOINTS
  6
CONTINUOUS
 62
     0
 10
-59.96311407406214
 20
-2503.915274188005
 30
0.0
  0
POINT
  5
32B7D
  8
DEFPOINTS
  6
CONTINUOUS
 62
     0
 10
-59.96311407406214
 20
-2350.915274188006
 30
0.0
  0
POINT
  5
32B7E
  8
DEFPOINTS
  6
CONTINUOUS
 62
     0
 10
-19.52540387204705
 20
-2350.915274188006
 30
0.0
  0
ENDBLK
  5
305F3
  8
0
 62
     7
  0
BLOCK
  8
0
  2
*D7
 70
     1
 10
0.0
 20
0.0
 30
0.0
  3
*D7
  1

  0
LINE
  5
329E7
  8
回02-寸法
  6
CONTINUOUS
 62
     5
 10
-284.4031140740621
 20
-2359.365274188004
 30
0.0
 11
-284.4031140740621
 21
-2324.094615319133
 31
0.0
  0
LINE
  5
329E8
  8
回02-寸法
  6
CONTINUOUS
 62
     5
 10
-294.663114074062
 20
-2350.915274188003
 30
0.0
 11
-294.663114074062
 21
-2324.094615319133
 31
0.0
  0
LINE
  5
329E9
  8
回02-寸法
  6
CONTINUOUS
 62
     5
 10
-282.9031140740621
 20
-2325.094615319133
 30
0.0
 11
-281.403114074062
 21
-2325.094615319133
 31
0.0
  0
LINE
  5
329EA
  8
回02-寸法
  6
CONTINUOUS
 62
     5
 10
-296.1631140740621
 20
-2325.094615319133
 30
0.0
 11
-309.2615392709125
 21
-2325.094615319133
 31
0.0
  0
LINE
  5
329EB
  8
回02-寸法
  6
CONTINUOUS
 62
     5
 10
-284.4031140740621
 20
-2325.094615319133
 30
0.0
 11
-294.663114074062
 21
-2325.094615319133
 31
0.0
  0
INSERT
  5
329EC
  8
回02-寸法
  6
CONTINUOUS
 62
     5
  2
_OPEN
 10
-284.4031140740621
 20
-2325.094615319133
 30
0.0
 41
1.5
 42
1.5
 43
1.5
 50
180.0
  0
INSERT
  5
329ED
  8
回02-寸法
  6
CONTINUOUS
 62
     5
  2
_OPEN
 10
-294.663114074062
 20
-2325.094615319133
 30
0.0
 41
1.5
 42
1.5
 43
1.5
  0
TEXT
  5
329EE
  8
回02-寸法
  6
CONTINUOUS
 62
     5
 10
-309.2639967293551
 20
-2324.594221618346
 30
0.0
 40
4.0
  1
10.26
1001
ACAD
1000
MTEXTBEGIN
1070
    73
1070
     1
1070
    44
1040
1.0
1070
    74
1070
     0
1000
MTEXTEND
  0
POINT
  5
329EF
  8
DEFPOINTS
  6
CONTINUOUS
 62
     0
 10
-284.4031140740621
 20
-2359.365274188004
 30
0.0
  0
POINT
  5
329F0
  8
DEFPOINTS
  6
CONTINUOUS
 62
     0
 10
-294.663114074062
 20
-2350.915274188003
 30
0.0
  0
POINT
  5
329F1
  8
DEFPOINTS
  6
CONTINUOUS
 62
     0
 10
-294.663114074062
 20
-2325.094615319133
 30
0.0
  0
ENDBLK
  5
305FF
  8
0
 62
     7
  0
BLOCK
  8
0
  2
*D8
 70
     1
 10
0.0
 20
0.0
 30
0.0
  3
*D8
  1

  0
LINE
  5
329DC
  8
回02-寸法
  6
CONTINUOUS
 62
     5
 10
-286.4031140740621
 20
-2357.365274188004
 30
0.0
 11
-286.4031140740621
 21
-2316.647987062442
 31
0.0
  0
LINE
  5
329DD
  8
回02-寸法
  6
CONTINUOUS
 62
     5
 10
-294.663114074062
 20
-2350.915274188003
 30
0.0
 11
-294.663114074062
 21
-2316.647987062442
 31
0.0
  0
LINE
  5
329DE
  8
回02-寸法
  6
CONTINUOUS
 62
     5
 10
-284.9031140740621
 20
-2317.647987062442
 30
0.0
 11
-283.403114074062
 21
-2317.647987062442
 31
0.0
  0
LINE
  5
329DF
  8
回02-寸法
  6
CONTINUOUS
 62
     5
 10
-296.1631140740621
 20
-2317.647987062442
 30
0.0
 11
-307.2615392709125
 21
-2317.647987062442
 31
0.0
  0
LINE
  5
329E0
  8
回02-寸法
  6
CONTINUOUS
 62
     5
 10
-286.4031140740621
 20
-2317.647987062442
 30
0.0
 11
-294.663114074062
 21
-2317.647987062442
 31
0.0
  0
INSERT
  5
329E1
  8
回02-寸法
  6
CONTINUOUS
 62
     5
  2
_OPEN
 10
-286.4031140740621
 20
-2317.647987062442
 30
0.0
 41
1.5
 42
1.5
 43
1.5
 50
180.0
  0
INSERT
  5
329E2
  8
回02-寸法
  6
CONTINUOUS
 62
     5
  2
_OPEN
 10
-294.663114074062
 20
-2317.647987062442
 30
0.0
 41
1.5
 42
1.5
 43
1.5
  0
TEXT
  5
329E3
  8
回02-寸法
  6
CONTINUOUS
 62
     5
 10
-307.2639967293551
 20
-2317.147593361655
 30
0.0
 40
4.0
  1
8.26
1001
ACAD
1000
MTEXTBEGIN
1070
    73
1070
     1
1070
    44
1040
1.0
1070
    74
1070
     0
1000
MTEXTEND
  0
POINT
  5
329E4
  8
DEFPOINTS
  6
CONTINUOUS
 62
     0
 10
-286.4031140740621
 20
-2357.365274188004
 30
0.0
  0
POINT
  5
329E5
  8
DEFPOINTS
  6
CONTINUOUS
 62
     0
 10
-294.663114074062
 20
-2350.915274188003
 30
0.0
  0
POINT
  5
329E6
  8
DEFPOINTS
  6
CONTINUOUS
 62
     0
 10
-294.663114074062
 20
-2317.647987062442
 30
0.0
  0
ENDBLK
  5
3060D
  8
0
 62
     7
  0
BLOCK
  8
0
  2
*D9
 70
     1
 10
0.0
 20
0.0
 30
0.0
  3
*D9
  1

  0
LINE
  5
32A7D
  8
回02-寸法
  6
CONTINUOUS
 62
     5
 10
-66.94311407406215
 20
-2495.465274188005
 30
0.0
 11
-40.98972256250065
 21
-2495.465274188005
 31
0.0
  0
LINE
  5
32A7E
  8
回02-寸法
  6
CONTINUOUS
 62
     5
 10
-59.96311407406214
 20
-2503.915274188005
 30
0.0
 11
-40.98972256250065
 21
-2503.915274188005
 31
0.0
  0
LINE
  5
32A7F
  8
回02-寸法
  6
CONTINUOUS
 62
     5
 10
-41.98972256250065
 20
-2493.965274188005
 30
0.0
 11
-41.98972256250065
 21
-2492.465274188005
 31
0.0
  0
LINE
  5
32A80
  8
回02-寸法
  6
CONTINUOUS
 62
     5
 10
-41.98972256250065
 20
-2505.415274188005
 30
0.0
 11
-41.98972256250065
 21
-2517.19811690048
 31
0.0
  0
LINE
  5
32A81
  8
回02-寸法
  6
CONTINUOUS
 62
     5
 10
-41.98972256250065
 20
-2495.465274188005
 30
0.0
 11
-41.98972256250065
 21
-2503.915274188005
 31
0.0
  0
INSERT
  5
32A82
  8
回02-寸法
  6
CONTINUOUS
 62
     5
  2
_OPEN
 10
-41.98972256250065
 20
-2495.465274188005
 30
0.0
 41
1.5
 42
1.5
 43
1.5
 50
270.0
  0
INSERT
  5
32A83
  8
回02-寸法
  6
CONTINUOUS
 62
     5
  2
_OPEN
 10
-41.98972256250065
 20
-2503.915274188005
 30
0.0
 41
1.5
 42
1.5
 43
1.5
 50
90.0
  0
TEXT
  5
32A84
  8
回02-寸法
  6
CONTINUOUS
 62
     5
 10
-42.48972256250135
 20
-2517.215274188004
 30
0.0
 40
4.0
  1
8.45
 50
90.0
1001
ACAD
1000
MTEXTBEGIN
1070
    73
1070
     1
1070
    44
1040
1.0
1070
    74
1070
     0
1000
MTEXTEND
  0
POINT
  5
32A85
  8
DEFPOINTS
  6
CONTINUOUS
 62
     0
 10
-66.94311407406215
 20
-2495.465274188005
 30
0.0
  0
POINT
  5
32A86
  8
DEFPOINTS
  6
CONTINUOUS
 62
     0
 10
-59.96311407406214
 20
-2503.915274188005
 30
0.0
  0
POINT
  5
32A87
  8
DEFPOINTS
  6
CONTINUOUS
 62
     0
 10
-41.98972256250065
 20
-2503.915274188005
 30
0.0
  0
ENDBLK
  5
3061B
  8
0
 62
     7
  0
BLOCK
  8
0
  2
*D10
 70
     1
 10
0.0
 20
0.0
 30
0.0
  3
*D10
  1

  0
LINE
  5
32A72
  8
回02-寸法
  6
CONTINUOUS
 62
     5
 10
-64.94311407406215
 20
-2497.465274188005
 30
0.0
 11
-32.63849610238488
 21
-2497.465274188005
 31
0.0
  0
LINE
  5
32A73
  8
回02-寸法
  6
CONTINUOUS
 62
     5
 10
-59.96311407406214
 20
-2503.915274188005
 30
0.0
 11
-32.63849610238488
 21
-2503.915274188005
 31
0.0
  0
LINE
  5
32A74
  8
回02-寸法
  6
CONTINUOUS
 62
     5
 10
-33.63849610238488
 20
-2495.965274188005
 30
0.0
 11
-33.63849610238488
 21
-2494.465274188005
 31
0.0
  0
LINE
  5
32A75
  8
回02-寸法
  6
CONTINUOUS
 62
     5
 10
-33.63849610238488
 20
-2505.415274188005
 30
0.0
 11
-33.63849610238488
 21
-2517.120329691694
 31
0.0
  0
LINE
  5
32A76
  8
回02-寸法
  6
CONTINUOUS
 62
     5
 10
-33.63849610238488
 20
-2497.465274188005
 30
0.0
 11
-33.63849610238488
 21
-2503.915274188005
 31
0.0
  0
INSERT
  5
32A77
  8
回02-寸法
  6
CONTINUOUS
 62
     5
  2
_OPEN
 10
-33.63849610238488
 20
-2497.465274188005
 30
0.0
 41
1.5
 42
1.5
 43
1.5
 50
270.0
  0
INSERT
  5
32A78
  8
回02-寸法
  6
CONTINUOUS
 62
     5
  2
_OPEN
 10
-33.63849610238488
 20
-2503.915274188005
 30
0.0
 41
1.5
 42
1.5
 43
1.5
 50
90.0
  0
TEXT
  5
32A79
  8
回02-寸法
  6
CONTINUOUS
 62
     5
 10
-34.13849610238549
 20
-2517.017801939849
 30
0.0
 40
4.0
  1
6.45
 50
90.0
1001
ACAD
1000
MTEXTBEGIN
1070
    73
1070
     1
1070
    44
1040
1.0
1070
    74
1070
     0
1000
MTEXTEND
  0
POINT
  5
32A7A
  8
DEFPOINTS
  6
CONTINUOUS
 62
     0
 10
-64.94311407406215
 20
-2497.465274188005
 30
0.0
  0
POINT
  5
32A7B
  8
DEFPOINTS
  6
CONTINUOUS
 62
     0
 10
-59.96311407406214
 20
-2503.915274188005
 30
0.0
  0
POINT
  5
32A7C
  8
DEFPOINTS
  6
CONTINUOUS
 62
     0
 10
-33.63849610238488
 20
-2503.915274188005
 30
0.0
  0
ENDBLK
  5
30629
  8
0
 62
     7
  0
BLOCK
  8
0
  2
*D11
 70
     1
 10
0.0
 20
0.0
 30
0.0
  3
*D11
  1

  0
LINE
  5
329AD
  8
回02-寸法
  6
CONTINUOUS
 62
     5
 10
-64.44311407406212
 20
-2356.565274188004
 30
0.0
 11
-64.44311407406212
 21
-2309.62280026981
 31
0.0
  0
LINE
  5
329AE
  8
回02-寸法
  6
CONTINUOUS
 62
     5
 10
-286.903114074062
 20
-2356.565274188004
 30
0.0
 11
-286.903114074062
 21
-2309.62280026981
 31
0.0
  0
LINE
  5
329AF
  8
回02-寸法
  6
CONTINUOUS
 62
     5
 10
-65.94311407406213
 20
-2310.62280026981
 30
0.0
 11
-285.403114074062
 21
-2310.62280026981
 31
0.0
  0
INSERT
  5
329B0
  8
回02-寸法
  6
CONTINUOUS
 62
     5
  2
_OPEN
 10
-64.44311407406212
 20
-2310.62280026981
 30
0.0
 41
1.5
 42
1.5
 43
1.5
  0
INSERT
  5
329B1
  8
回02-寸法
  6
CONTINUOUS
 62
     5
  2
_OPEN
 10
-286.903114074062
 20
-2310.62280026981
 30
0.0
 41
1.5
 42
1.5
 43
1.5
 50
180.0
  0
TEXT
  5
329B2
  8
回02-寸法
  6
CONTINUOUS
 62
     5
 10
-183.4747841309298
 20
-2310.122406569023
 30
0.0
 40
4.0
  1
222.46
1001
ACAD
1000
MTEXTBEGIN
1070
    73
1070
     1
1070
    44
1040
1.0
1070
    74
1070
     0
1000
MTEXTEND
  0
POINT
  5
329B3
  8
DEFPOINTS
  6
CONTINUOUS
 62
     0
 10
-64.44311407406212
 20
-2356.565274188004
 30
0.0
  0
POINT
  5
329B4
  8
DEFPOINTS
  6
CONTINUOUS
 62
     0
 10
-286.903114074062
 20
-2356.565274188004
 30
0.0
  0
POINT
  5
329B5
  8
DEFPOINTS
  6
CONTINUOUS
 62
     0
 10
-286.903114074062
 20
-2310.62280026981
 30
0.0
  0
ENDBLK
  5
30637
  8
0
 62
     7
  0
BLOCK
  8
0
  2
*D12
 70
     1
 10
0.0
 20
0.0
 30
0.0
  3
*D12
  1

  0
LINE
  5
32B6D
  8
回02-寸法
  6
CONTINUOUS
 62
     5
 10
-64.44311407406215
 20
-2356.565274188004
 30
0.0
 11
-25.64943241994739
 21
-2356.565274188004
 31
0.0
  0
LINE
  5
32B6E
  8
回02-寸法
  6
CONTINUOUS
 62
     5
 10
-64.44311407406215
 20
-2498.265274188005
 30
0.0
 11
-25.64943241994736
 21
-2498.265274188005
 31
0.0
  0
LINE
  5
32B6F
  8
回02-寸法
  6
CONTINUOUS
 62
     5
 10
-26.64943241994739
 20
-2358.065274188005
 30
0.0
 11
-26.64943241994739
 21
-2496.765274188005
 31
0.0
  0
INSERT
  5
32B70
  8
回02-寸法
  6
CONTINUOUS
 62
     5
  2
_OPEN
 10
-26.64943241994739
 20
-2356.565274188004
 30
0.0
 41
1.5
 42
1.5
 43
1.5
 50
90.0
  0
INSERT
  5
32B71
  8
回02-寸法
  6
CONTINUOUS
 62
     5
  2
_OPEN
 10
-26.64943241994736
 20
-2498.265274188005
 30
0.0
 41
1.5
 42
1.5
 43
1.5
 50
270.0
  0
TEXT
  5
32B72
  8
回02-寸法
  6
CONTINUOUS
 62
     5
 10
-27.14943241994797
 20
-2433.015274188004
 30
0.0
 40
4.0
  1
141.7
 50
90.0
1001
ACAD
1000
MTEXTBEGIN
1070
    73
1070
     1
1070
    44
1040
1.0
1070
    74
1070
     0
1000
MTEXTEND
  0
POINT
  5
32B73
  8
DEFPOINTS
  6
CONTINUOUS
 62
     0
 10
-64.44311407406215
 20
-2356.565274188004
 30
0.0
  0
POINT
  5
32B74
  8
DEFPOINTS
  6
CONTINUOUS
 62
     0
 10
-64.44311407406215
 20
-2498.265274188005
 30
0.0
  0
POINT
  5
32B75
  8
DEFPOINTS
  6
CONTINUOUS
 62
     0
 10
-26.64943241994736
 20
-2498.265274188005
 30
0.0
  0
ENDBLK
  5
30643
  8
0
 62
     7
  0
BLOCK
  8
0
  2
*D13
 70
     1
 10
0.0
 20
0.0
 30
0.0
  3
*D13
  1

  0
LINE
  5
329A2
  8
回02-寸法
  6
CONTINUOUS
 62
     5
 10
-64.44311407406215
 20
-2356.565274188004
 30
0.0
 11
-25.6494324199474
 21
-2356.565274188004
 31
0.0
  0
LINE
  5
329A3
  8
回02-寸法
  6
CONTINUOUS
 62
     5
 10
-59.96311407406214
 20
-2350.915274188006
 30
0.0
 11
-25.64943241994741
 21
-2350.915274188006
 31
0.0
  0
LINE
  5
329A4
  8
回02-寸法
  6
CONTINUOUS
 62
     5
 10
-26.6494324199474
 20
-2358.065274188005
 30
0.0
 11
-26.6494324199474
 21
-2359.565274188005
 31
0.0
  0
LINE
  5
329A5
  8
回02-寸法
  6
CONTINUOUS
 62
     5
 10
-26.6494324199474
 20
-2349.415274188006
 30
0.0
 11
-26.6494324199474
 21
-2335.318423794305
 31
0.0
  0
LINE
  5
329A6
  8
回02-寸法
  6
CONTINUOUS
 62
     5
 10
-26.6494324199474
 20
-2356.565274188004
 30
0.0
 11
-26.6494324199474
 21
-2350.915274188006
 31
0.0
  0
INSERT
  5
329A7
  8
回02-寸法
  6
CONTINUOUS
 62
     5
  2
_OPEN
 10
-26.6494324199474
 20
-2356.565274188004
 30
0.0
 41
1.5
 42
1.5
 43
1.5
 50
90.0
  0
INSERT
  5
329A8
  8
回02-寸法
  6
CONTINUOUS
 62
     5
  2
_OPEN
 10
-26.6494324199474
 20
-2350.915274188006
 30
0.0
 41
1.5
 42
1.5
 43
1.5
 50
270.0
  0
TEXT
  5
329A9
  8
回02-寸法
  6
CONTINUOUS
 62
     5
 10
-27.34943241994824
 20
-2348.016848991155
 30
0.0
 40
4.0
  1
(5.65)
 50
90.0
1001
ACAD
1000
MTEXTBEGIN
1070
    73
1070
     1
1070
    44
1040
1.0
1070
    74
1070
     0
1000
MTEXTEND
  0
POINT
  5
329AA
  8
DEFPOINTS
  6
CONTINUOUS
 62
     0
 10
-64.44311407406215
 20
-2356.565274188004
 30
0.0
  0
POINT
  5
329AB
  8
DEFPOINTS
  6
CONTINUOUS
 62
     0
 10
-59.96311407406214
 20
-2350.915274188006
 30
0.0
  0
POINT
  5
329AC
  8
DEFPOINTS
  6
CONTINUOUS
 62
     0
 10
-26.6494324199474
 20
-2350.915274188006
 30
0.0
  0
ENDBLK
  5
3064F
  8
0
 62
     7
  0
BLOCK
  8
0
  2
*D14
 70
     1
 10
0.0
 20
0.0
 30
0.0
  3
*D14
  1

  0
LINE
  5
32997
  8
回02-寸法
  6
CONTINUOUS
 62
     5
 10
-64.94311407406215
 20
-2357.365274188005
 30
0.0
 11
-32.63849610238465
 21
-2357.365274188005
 31
0.0
  0
LINE
  5
32998
  8
回02-寸法
  6
CONTINUOUS
 62
     5
 10
-59.96311407406214
 20
-2350.915274188006
 30
0.0
 11
-32.63849610238465
 21
-2350.915274188006
 31
0.0
  0
LINE
  5
32999
  8
回02-寸法
  6
CONTINUOUS
 62
     5
 10
-33.63849610238464
 20
-2358.865274188005
 30
0.0
 11
-33.63849610238464
 21
-2360.365274188005
 31
0.0
  0
LINE
  5
3299A
  8
回02-寸法
  6
CONTINUOUS
 62
     5
 10
-33.63849610238465
 20
-2349.415274188006
 30
0.0
 11
-33.63849610238465
 21
-2334.918423794305
 31
0.0
  0
LINE
  5
3299B
  8
回02-寸法
  6
CONTINUOUS
 62
     5
 10
-33.63849610238464
 20
-2357.365274188005
 30
0.0
 11
-33.63849610238464
 21
-2350.915274188006
 31
0.0
  0
INSERT
  5
3299C
  8
回02-寸法
  6
CONTINUOUS
 62
     5
  2
_OPEN
 10
-33.63849610238464
 20
-2357.365274188005
 30
0.0
 41
1.5
 42
1.5
 43
1.5
 50
90.0
  0
INSERT
  5
3299D
  8
回02-寸法
  6
CONTINUOUS
 62
     5
  2
_OPEN
 10
-33.63849610238465
 20
-2350.915274188006
 30
0.0
 41
1.5
 42
1.5
 43
1.5
 50
270.0
  0
TEXT
  5
3299E
  8
回02-寸法
  6
CONTINUOUS
 62
     5
 10
-34.33849610238531
 20
-2348.016848991155
 30
0.0
 40
4.0
  1
(6.45)
 50
90.0
1001
ACAD
1000
MTEXTBEGIN
1070
    73
1070
     1
1070
    44
1040
1.0
1070
    74
1070
     0
1000
MTEXTEND
  0
POINT
  5
3299F
  8
DEFPOINTS
  6
CONTINUOUS
 62
     0
 10
-64.94311407406215
 20
-2357.365274188005
 30
0.0
  0
POINT
  5
329A0
  8
DEFPOINTS
  6
CONTINUOUS
 62
     0
 10
-59.96311407406214
 20
-2350.915274188006
 30
0.0
  0
POINT
  5
329A1
  8
DEFPOINTS
  6
CONTINUOUS
 62
     0
 10
-33.63849610238465
 20
-2350.915274188006
 30
0.0
  0
ENDBLK
  5
3065D
  8
0
 62
     7
  0
BLOCK
  8
0
  2
*D15
 70
     1
 10
0.0
 20
0.0
 30
0.0
  3
*D15
  1

  0
LINE
  5
3298C
  8
回02-寸法
  6
CONTINUOUS
 62
     5
 10
-66.94311407406215
 20
-2359.365274188005
 30
0.0
 11
-40.98972256250092
 21
-2359.365274188005
 31
0.0
  0
LINE
  5
3298D
  8
回02-寸法
  6
CONTINUOUS
 62
     5
 10
-59.96311407406214
 20
-2350.915274188006
 30
0.0
 11
-40.98972256250092
 21
-2350.915274188006
 31
0.0
  0
LINE
  5
3298E
  8
回02-寸法
  6
CONTINUOUS
 62
     5
 10
-41.98972256250092
 20
-2360.865274188005
 30
0.0
 11
-41.98972256250092
 21
-2362.365274188005
 31
0.0
  0
LINE
  5
3298F
  8
回02-寸法
  6
CONTINUOUS
 62
     5
 10
-41.98972256250093
 20
-2349.415274188006
 30
0.0
 11
-41.98972256250093
 21
-2334.518423794304
 31
0.0
  0
LINE
  5
32990
  8
回02-寸法
  6
CONTINUOUS
 62
     5
 10
-41.98972256250092
 20
-2359.365274188005
 30
0.0
 11
-41.98972256250092
 21
-2350.915274188006
 31
0.0
  0
INSERT
  5
32991
  8
回02-寸法
  6
CONTINUOUS
 62
     5
  2
_OPEN
 10
-41.98972256250092
 20
-2359.365274188005
 30
0.0
 41
1.5
 42
1.5
 43
1.5
 50
90.0
  0
INSERT
  5
32992
  8
回02-寸法
  6
CONTINUOUS
 62
     5
  2
_OPEN
 10
-41.98972256250093
 20
-2350.915274188006
 30
0.0
 41
1.5
 42
1.5
 43
1.5
 50
270.0
  0
TEXT
  5
32993
  8
回02-寸法
  6
CONTINUOUS
 62
     5
 10
-42.68972256250163
 20
-2347.616848991153
 30
0.0
 40
4.0
  1
(8.45)
 50
90.0
1001
ACAD
1000
MTEXTBEGIN
1070
    73
1070
     1
1070
    44
1040
1.0
1070
    74
1070
     0
1000
MTEXTEND
  0
POINT
  5
32994
  8
DEFPOINTS
  6
CONTINUOUS
 62
     0
 10
-66.94311407406215
 20
-2359.365274188005
 30
0.0
  0
POINT
  5
32995
  8
DEFPOINTS
  6
CONTINUOUS
 62
     0
 10
-59.96311407406214
 20
-2350.915274188006
 30
0.0
  0
POINT
  5
32996
  8
DEFPOINTS
  6
CONTINUOUS
 62
     0
 10
-41.98972256250093
 20
-2350.915274188006
 30
0.0
  0
ENDBLK
  5
3066B
  8
0
 62
     7
  0
BLOCK
  8
0
  2
*D16
 70
     1
 10
0.0
 20
0.0
 30
0.0
  3
*D16
  1

  0
LINE
  5
32B9C
  8
回02-寸法
  6
CONTINUOUS
 62
     5
 10
-64.44311407406215
 20
-2498.265274188005
 30
0.0
 11
-25.64943241994761
 21
-2498.265274188005
 31
0.0
  0
LINE
  5
32B9D
  8
回02-寸法
  6
CONTINUOUS
 62
     5
 10
-59.96311407406214
 20
-2503.915274188005
 30
0.0
 11
-25.64943241994761
 21
-2503.915274188005
 31
0.0
  0
LINE
  5
32B9E
  8
回02-寸法
  6
CONTINUOUS
 62
     5
 10
-26.64943241994762
 20
-2496.765274188005
 30
0.0
 11
-26.64943241994762
 21
-2495.265274188005
 31
0.0
  0
LINE
  5
32B9F
  8
回02-寸法
  6
CONTINUOUS
 62
     5
 10
-26.64943241994761
 20
-2505.415274188005
 30
0.0
 11
-26.64943241994761
 21
-2556.723699384855
 31
0.0
  0
LINE
  5
32BA0
  8
回02-寸法
  6
CONTINUOUS
 62
     5
 10
-26.64943241994762
 20
-2498.265274188005
 30
0.0
 11
-26.64943241994762
 21
-2503.915274188005
 31
0.0
  0
INSERT
  5
32BA1
  8
回02-寸法
  6
CONTINUOUS
 62
     5
  2
_OPEN
 10
-26.64943241994762
 20
-2498.265274188005
 30
0.0
 41
1.5
 42
1.5
 43
1.5
 50
270.0
  0
INSERT
  5
32BA2
  8
回02-寸法
  6
CONTINUOUS
 62
     5
  2
_OPEN
 10
-26.64943241994762
 20
-2503.915274188005
 30
0.0
 41
1.5
 42
1.5
 43
1.5
 50
90.0
  0
TEXT
  5
32BA3
  8
回02-寸法
  6
CONTINUOUS
 62
     5
 10
-27.35443241994835
 20
-2556.823699384855
 30
0.0
 40
4.0
  1
5.65(Insulation Area)
 50
90.0
1001
ACAD
1000
MTEXTBEGIN
1070
    73
1070
     1
1070
    44
1040
1.0
1070
    74
1070
     0
1000
MTEXTEND
  0
POINT
  5
32BA4
  8
DEFPOINTS
  6
CONTINUOUS
 62
     0
 10
-64.44311407406215
 20
-2498.265274188005
 30
0.0
  0
POINT
  5
32BA5
  8
DEFPOINTS
  6
CONTINUOUS
 62
     0
 10
-59.96311407406214
 20
-2503.915274188005
 30
0.0
  0
POINT
  5
32BA6
  8
DEFPOINTS
  6
CONTINUOUS
 62
     0
 10
-26.64943241994762
 20
-2503.915274188005
 30
0.0
  0
ENDBLK
  5
30679
  8
0
 62
     7
  0
BLOCK
  8
0
  2
*D17
 70
     1
 10
0.0
 20
0.0
 30
0.0
  3
*D17
  1

  0
LINE
  5
32981
  8
回02-寸法
  6
CONTINUOUS
 62
     5
 10
-66.94311407406212
 20
-2359.365274188004
 30
0.0
 11
-66.94311407406212
 21
-2324.094615319133
 31
0.0
  0
LINE
  5
32982
  8
回02-寸法
  6
CONTINUOUS
 62
     5
 10
-59.9631140740621
 20
-2350.915274188004
 30
0.0
 11
-59.9631140740621
 21
-2324.094615319133
 31
0.0
  0
LINE
  5
32983
  8
回02-寸法
  6
CONTINUOUS
 62
     5
 10
-68.44311407406213
 20
-2325.094615319133
 30
0.0
 11
-69.94311407406212
 21
-2325.094615319133
 31
0.0
  0
LINE
  5
32984
  8
回02-寸法
  6
CONTINUOUS
 62
     5
 10
-58.46311407406211
 20
-2325.094615319133
 30
0.0
 11
-44.35228635838419
 21
-2325.094615319133
 31
0.0
  0
LINE
  5
32985
  8
回02-寸法
  6
CONTINUOUS
 62
     5
 10
-66.94311407406212
 20
-2325.094615319133
 30
0.0
 11
-59.9631140740621
 21
-2325.094615319133
 31
0.0
  0
INSERT
  5
32986
  8
回02-寸法
  6
CONTINUOUS
 62
     5
  2
_OPEN
 10
-66.94311407406212
 20
-2325.094615319133
 30
0.0
 41
1.5
 42
1.5
 43
1.5
  0
INSERT
  5
32987
  8
回02-寸法
  6
CONTINUOUS
 62
     5
  2
_OPEN
 10
-59.9631140740621
 20
-2325.094615319133
 30
0.0
 41
1.5
 42
1.5
 43
1.5
 50
180.0
  0
TEXT
  5
32988
  8
回02-寸法
  6
CONTINUOUS
 62
     5
 10
-57.0649209532771
 20
-2324.394695193936
 30
0.0
 40
4.0
  1
(6.98)
1001
ACAD
1000
MTEXTBEGIN
1070
    73
1070
     1
1070
    44
1040
1.0
1070
    74
1070
     0
1000
MTEXTEND
  0
POINT
  5
32989
  8
DEFPOINTS
  6
CONTINUOUS
 62
     0
 10
-66.94311407406212
 20
-2359.365274188004
 30
0.0
  0
POINT
  5
3298A
  8
DEFPOINTS
  6
CONTINUOUS
 62
     0
 10
-59.9631140740621
 20
-2350.915274188004
 30
0.0
  0
POINT
  5
3298B
  8
DEFPOINTS
  6
CONTINUOUS
 62
     0
 10
-59.9631140740621
 20
-2325.094615319133
 30
0.0
  0
ENDBLK
  5
30687
  8
0
 62
     7
  0
BLOCK
  8
0
  2
*D18
 70
     1
 10
0.0
 20
0.0
 30
0.0
  3
*D18
  1

  0
LINE
  5
32976
  8
回02-寸法
  6
CONTINUOUS
 62
     5
 10
-64.94311407406212
 20
-2357.365274188004
 30
0.0
 11
-64.94311407406212
 21
-2316.647987062442
 31
0.0
  0
LINE
  5
32977
  8
回02-寸法
  6
CONTINUOUS
 62
     5
 10
-59.9631140740621
 20
-2350.915274188004
 30
0.0
 11
-59.9631140740621
 21
-2316.647987062442
 31
0.0
  0
LINE
  5
32978
  8
回02-寸法
  6
CONTINUOUS
 62
     5
 10
-66.44311407406212
 20
-2317.647987062442
 30
0.0
 11
-67.94311407406212
 21
-2317.647987062442
 31
0.0
  0
LINE
  5
32979
  8
回02-寸法
  6
CONTINUOUS
 62
     5
 10
-58.46311407406211
 20
-2317.647987062442
 30
0.0
 11
-43.95228635838421
 21
-2317.647987062442
 31
0.0
  0
LINE
  5
3297A
  8
回02-寸法
  6
CONTINUOUS
 62
     5
 10
-64.94311407406212
 20
-2317.647987062442
 30
0.0
 11
-59.9631140740621
 21
-2317.647987062442
 31
0.0
  0
INSERT
  5
3297B
  8
回02-寸法
  6
CONTINUOUS
 62
     5
  2
_OPEN
 10
-64.94311407406212
 20
-2317.647987062442
 30
0.0
 41
1.5
 42
1.5
 43
1.5
  0
INSERT
  5
3297C
  8
回02-寸法
  6
CONTINUOUS
 62
     5
  2
_OPEN
 10
-59.9631140740621
 20
-2317.647987062442
 30
0.0
 41
1.5
 42
1.5
 43
1.5
 50
180.0
  0
TEXT
  5
3297D
  8
回02-寸法
  6
CONTINUOUS
 62
     5
 10
-57.06492095327713
 20
-2316.948066937245
 30
0.0
 40
4.0
  1
(4.98)
1001
ACAD
1000
MTEXTBEGIN
1070
    73
1070
     1
1070
    44
1040
1.0
1070
    74
1070
     0
1000
MTEXTEND
  0
POINT
  5
3297E
  8
DEFPOINTS
  6
CONTINUOUS
 62
     0
 10
-64.94311407406212
 20
-2357.365274188004
 30
0.0
  0
POINT
  5
3297F
  8
DEFPOINTS
  6
CONTINUOUS
 62
     0
 10
-59.9631140740621
 20
-2350.915274188004
 30
0.0
  0
POINT
  5
32980
  8
DEFPOINTS
  6
CONTINUOUS
 62
     0
 10
-59.9631140740621
 20
-2317.647987062442
 30
0.0
  0
ENDBLK
  5
30695
  8
0
 62
     7
  0
BLOCK
  8
0
  2
*D19
 70
     1
 10
0.0
 20
0.0
 30
0.0
  3
*D19
  1

  0
LINE
  5
3296B
  8
回02-寸法
  6
CONTINUOUS
 62
     5
 10
-64.44311407406212
 20
-2356.565274188004
 30
0.0
 11
-64.44311407406212
 21
-2309.62280026981
 31
0.0
  0
LINE
  5
3296C
  8
回02-寸法
  6
CONTINUOUS
 62
     5
 10
-59.9631140740621
 20
-2350.915274188004
 30
0.0
 11
-59.9631140740621
 21
-2309.62280026981
 31
0.0
  0
LINE
  5
3296D
  8
回02-寸法
  6
CONTINUOUS
 62
     5
 10
-65.94311407406213
 20
-2310.62280026981
 30
0.0
 11
-67.44311407406212
 21
-2310.62280026981
 31
0.0
  0
LINE
  5
3296E
  8
回02-寸法
  6
CONTINUOUS
 62
     5
 10
-58.46311407406211
 20
-2310.62280026981
 30
0.0
 11
-43.56626368036131
 21
-2310.62280026981
 31
0.0
  0
LINE
  5
3296F
  8
回02-寸法
  6
CONTINUOUS
 62
     5
 10
-64.44311407406212
 20
-2310.62280026981
 30
0.0
 11
-59.9631140740621
 21
-2310.62280026981
 31
0.0
  0
INSERT
  5
32970
  8
回02-寸法
  6
CONTINUOUS
 62
     5
  2
_OPEN
 10
-64.44311407406212
 20
-2310.62280026981
 30
0.0
 41
1.5
 42
1.5
 43
1.5
  0
INSERT
  5
32971
  8
回02-寸法
  6
CONTINUOUS
 62
     5
  2
_OPEN
 10
-59.9631140740621
 20
-2310.62280026981
 30
0.0
 41
1.5
 42
1.5
 43
1.5
 50
180.0
  0
TEXT
  5
32972
  8
回02-寸法
  6
CONTINUOUS
 62
     5
 10
-57.06468887721172
 20
-2309.92280026981
 30
0.0
 40
4.0
  1
(4.48)
1001
ACAD
1000
MTEXTBEGIN
1070
    73
1070
     1
1070
    44
1040
1.0
1070
    74
1070
     0
1000
MTEXTEND
  0
POINT
  5
32973
  8
DEFPOINTS
  6
CONTINUOUS
 62
     0
 10
-64.44311407406212
 20
-2356.565274188004
 30
0.0
  0
POINT
  5
32974
  8
DEFPOINTS
  6
CONTINUOUS
 62
     0
 10
-59.9631140740621
 20
-2350.915274188004
 30
0.0
  0
POINT
  5
32975
  8
DEFPOINTS
  6
CONTINUOUS
 62
     0
 10
-59.9631140740621
 20
-2310.62280026981
 30
0.0
  0
ENDBLK
  5
306A3
  8
0
 62
     7
  0
BLOCK
  8
0
  2
*D20
 70
     1
 10
0.0
 20
0.0
 30
0.0
  3
*D20
  1

  0
LINE
  5
329D1
  8
回02-寸法
  6
CONTINUOUS
 62
     5
 10
-286.903114074062
 20
-2356.565274188004
 30
0.0
 11
-286.903114074062
 21
-2309.62280026981
 31
0.0
  0
LINE
  5
329D2
  8
回02-寸法
  6
CONTINUOUS
 62
     5
 10
-294.663114074062
 20
-2350.915274188003
 30
0.0
 11
-294.663114074062
 21
-2309.62280026981
 31
0.0
  0
LINE
  5
329D3
  8
回02-寸法
  6
CONTINUOUS
 62
     5
 10
-285.403114074062
 20
-2310.62280026981
 30
0.0
 11
-283.903114074062
 21
-2310.62280026981
 31
0.0
  0
LINE
  5
329D4
  8
回02-寸法
  6
CONTINUOUS
 62
     5
 10
-296.1631140740621
 20
-2310.62280026981
 30
0.0
 11
-347.4715392709124
 21
-2310.62280026981
 31
0.0
  0
LINE
  5
329D5
  8
回02-寸法
  6
CONTINUOUS
 62
     5
 10
-286.903114074062
 20
-2310.62280026981
 30
0.0
 11
-294.663114074062
 21
-2310.62280026981
 31
0.0
  0
INSERT
  5
329D6
  8
回02-寸法
  6
CONTINUOUS
 62
     5
  2
_OPEN
 10
-286.903114074062
 20
-2310.62280026981
 30
0.0
 41
1.5
 42
1.5
 43
1.5
 50
180.0
  0
INSERT
  5
329D7
  8
回02-寸法
  6
CONTINUOUS
 62
     5
  2
_OPEN
 10
-294.663114074062
 20
-2310.62280026981
 30
0.0
 41
1.5
 42
1.5
 43
1.5
  0
TEXT
  5
329D8
  8
回02-寸法
  6
CONTINUOUS
 62
     5
 10
-347.5715392709125
 20
-2309.91780026981
 30
0.0
 40
4.0
  1
7.76(Insulation Area)
1001
ACAD
1000
MTEXTBEGIN
1070
    73
1070
     1
1070
    44
1040
1.0
1070
    74
1070
     0
1000
MTEXTEND
  0
POINT
  5
329D9
  8
DEFPOINTS
  6
CONTINUOUS
 62
     0
 10
-286.903114074062
 20
-2356.565274188004
 30
0.0
  0
POINT
  5
329DA
  8
DEFPOINTS
  6
CONTINUOUS
 62
     0
 10
-294.663114074062
 20
-2350.915274188003
 30
0.0
  0
POINT
  5
329DB
  8
DEFPOINTS
  6
CONTINUOUS
 62
     0
 10
-294.663114074062
 20
-2310.62280026981
 30
0.0
  0
ENDBLK
  5
306B1
  8
0
 62
     7
  0
BLOCK
  8
0
  2
*D21
 70
     1
 10
0.0
 20
0.0
 30
0.0
  3
*D21
  1

  0
LINE
  5
32A25
  8
回02-寸法
  6
CONTINUOUS
 62
     5
 10
-298.8550439824271
 20
-2419.405612608129
 30
0.0
 11
-323.2248019098649
 21
-2419.405612608129
 31
0.0
  0
LINE
  5
32A26
  8
回02-寸法
  6
CONTINUOUS
 62
     5
 10
-298.8508703967213
 20
-2435.404409573858
 30
0.0
 11
-323.2248019098648
 21
-2435.404409573858
 31
0.0
  0
LINE
  5
32A27
  8
回02-寸法
  6
CONTINUOUS
 62
     5
 10
-322.2248019098649
 20
-2417.40561260813
 30
0.0
 11
-322.2248019098649
 21
-2415.405612608129
 31
0.0
  0
LINE
  5
32A28
  8
回02-寸法
  6
CONTINUOUS
 62
     5
 10
-322.2248019098648
 20
-2437.404409573858
 30
0.0
 11
-322.2248019098648
 21
-2447.114486986146
 31
0.0
  0
LINE
  5
32A29
  8
回02-寸法
  6
CONTINUOUS
 62
     5
 10
-322.2248019098649
 20
-2419.405612608129
 30
0.0
 11
-322.2248019098649
 21
-2435.404409573858
 31
0.0
  0
INSERT
  5
32A2A
  8
回02-寸法
  6
CONTINUOUS
 62
     5
  2
_OPEN
 10
-322.2248019098649
 20
-2419.405612608129
 30
0.0
 41
2.0
 42
2.0
 43
2.0
 50
270.0
  0
INSERT
  5
32A2B
  8
回02-寸法
  6
CONTINUOUS
 62
     5
  2
_OPEN
 10
-322.2248019098648
 20
-2435.404409573858
 30
0.0
 41
2.0
 42
2.0
 43
2.0
 50
90.0
  0
TEXT
  5
32A2C
  8
回02-寸法
  6
CONTINUOUS
 62
     5
 10
-322.7248019098656
 20
-2447.116944444588
 30
0.0
 40
4.0
  1
16
 50
90.0
1001
ACAD
1000
MTEXTBEGIN
1070
    73
1070
     1
1070
    44
1040
1.0
1070
    74
1070
     0
1000
MTEXTEND
  0
POINT
  5
32A2D
  8
DEFPOINTS
  6
CONTINUOUS
 62
     0
 10
-298.8550439824271
 20
-2419.405612608129
 30
0.0
  0
POINT
  5
32A2E
  8
DEFPOINTS
  6
CONTINUOUS
 62
     0
 10
-298.8508703967213
 20
-2435.404409573858
 30
0.0
  0
POINT
  5
32A2F
  8
DEFPOINTS
  6
CONTINUOUS
 62
     0
 10
-322.2248019098648
 20
-2435.404409573858
 30
0.0
  0
ENDBLK
  5
306BF
  8
0
 62
     7
  0
BLOCK
  8
0
  2
*D22
 70
     1
 10
0.0
 20
0.0
 30
0.0
  3
*D22
  1

  0
LINE
  5
32A06
  8
回02-寸法
  6
CONTINUOUS
 62
     5
 10
-374.1631575612406
 20
-2430.529409573859
 30
0.0
 11
-386.106202633004
 21
-2430.529409573859
 31
0.0
  0
LINE
  5
32A07
  8
回02-寸法
  6
CONTINUOUS
 62
     5
 10
-294.6631140740621
 20
-2503.915274188005
 30
0.0
 11
-386.1062026330039
 21
-2503.915274188005
 31
0.0
  0
LINE
  5
32A08
  8
回02-寸法
  6
CONTINUOUS
 62
     5
 10
-385.1062026330039
 20
-2432.029409573859
 30
0.0
 11
-385.1062026330039
 21
-2502.415274188005
 31
0.0
  0
INSERT
  5
32A09
  8
回02-寸法
  6
CONTINUOUS
 62
     5
  2
_OPEN
 10
-385.106202633004
 20
-2430.529409573859
 30
0.0
 41
1.5
 42
1.5
 43
1.5
 50
90.0
  0
INSERT
  5
32A0A
  8
回02-寸法
  6
CONTINUOUS
 62
     5
  2
_OPEN
 10
-385.1062026330039
 20
-2503.915274188005
 30
0.0
 41
1.5
 42
1.5
 43
1.5
 50
270.0
  0
TEXT
  5
32A0B
  8
回02-寸法
  6
CONTINUOUS
 62
     5
 10
-385.8061227582011
 20
-2475.029562617985
 30
0.0
 40
4.0
  1
(73.39)
 50
90.0
1001
ACAD
1000
MTEXTBEGIN
1070
    73
1070
     1
1070
    44
1040
1.0
1070
    74
1070
     0
1000
MTEXTEND
  0
POINT
  5
32A0C
  8
DEFPOINTS
  6
CONTINUOUS
 62
     0
 10
-374.1631575612406
 20
-2430.529409573859
 30
0.0
  0
POINT
  5
32A0D
  8
DEFPOINTS
  6
CONTINUOUS
 62
     0
 10
-294.6631140740621
 20
-2503.915274188005
 30
0.0
  0
POINT
  5
32A0E
  8
DEFPOINTS
  6
CONTINUOUS
 62
     0
 10
-385.1062026330039
 20
-2503.915274188005
 30
0.0
  0
ENDBLK
  5
306CD
  8
0
 62
     7
  0
BLOCK
  8
0
  2
*D23
 70
     1
 10
0.0
 20
0.0
 30
0.0
  3
*D23
  1

  0
LINE
  5
329F2
  8
回02-寸法
  6
CONTINUOUS
 62
     5
 10
-294.6631140740627
 20
-2418.727285029666
 30
0.0
 11
-294.6631140740627
 21
-2396.499028718876
 31
0.0
  0
LINE
  5
329F3
  8
回02-寸法
  6
CONTINUOUS
 62
     5
 10
-374.6631575848301
 20
-2424.779409573857
 30
0.0
 11
-374.6631575848301
 21
-2396.499028718876
 31
0.0
  0
LINE
  5
329F4
  8
回02-寸法
  6
CONTINUOUS
 62
     5
 10
-296.1631140740627
 20
-2397.499028718877
 30
0.0
 11
-373.1631575848301
 21
-2397.499028718877
 31
0.0
  0
INSERT
  5
329F5
  8
回02-寸法
  6
CONTINUOUS
 62
     5
  2
_OPEN
 10
-294.6631140740627
 20
-2397.499028718877
 30
0.0
 41
1.5
 42
1.5
 43
1.5
  0
INSERT
  5
329F6
  8
回02-寸法
  6
CONTINUOUS
 62
     5
  2
_OPEN
 10
-374.6631575848301
 20
-2397.499028718877
 30
0.0
 41
1.5
 42
1.5
 43
1.5
 50
180.0
  0
INSERT
  5
329F7
  8
回02-寸法
  6
CONTINUOUS
 62
     5
 66
     1
  2
*X54
 10
0.0
 20
0.0
 30
0.0
  0
SEQEND
  5
33095
  8
0
  6
CONTINUOUS
 62
     7
  0
POINT
  5
329F8
  8
DEFPOINTS
  6
CONTINUOUS
 62
     0
 10
-294.6631140740627
 20
-2418.727285029666
 30
0.0
  0
POINT
  5
329F9
  8
DEFPOINTS
  6
CONTINUOUS
 62
     0
 10
-374.6631575848301
 20
-2424.779409573857
 30
0.0
  0
POINT
  5
329FA
  8
DEFPOINTS
  6
CONTINUOUS
 62
     0
 10
-374.6631575848301
 20
-2397.499028718877
 30
0.0
  0
ENDBLK
  5
306D9
  8
0
 62
     7
  0
BLOCK
  8
0
  2
*D24
 70
     1
 10
0.0
 20
0.0
 30
0.0
  3
*D24
  1

  0
LINE
  5
32A1A
  8
回02-寸法
  6
CONTINUOUS
 62
     5
 10
-294.6631575848309
 20
-2438.275477385723
 30
0.0
 11
-294.6631575848309
 21
-2451.400715661754
 31
0.0
  0
LINE
  5
32A1B
  8
回02-寸法
  6
CONTINUOUS
 62
     5
 10
-304.1590451940896
 20
-2430.622599030066
 30
0.0
 11
-304.1590451940896
 21
-2451.400715661754
 31
0.0
  0
LINE
  5
32A1C
  8
回02-寸法
  6
CONTINUOUS
 62
     5
 10
-292.6631575848309
 20
-2450.400715661754
 30
0.0
 11
-290.6631575848308
 21
-2450.400715661754
 31
0.0
  0
LINE
  5
32A1D
  8
回02-寸法
  6
CONTINUOUS
 62
     5
 10
-306.1590451940896
 20
-2450.400715661754
 30
0.0
 11
-315.8318374002255
 21
-2450.400715661754
 31
0.0
  0
LINE
  5
32A1E
  8
回02-寸法
  6
CONTINUOUS
 62
     5
 10
-294.6631575848309
 20
-2450.400715661754
 30
0.0
 11
-304.1590451940896
 21
-2450.400715661754
 31
0.0
  0
INSERT
  5
32A1F
  8
回02-寸法
  6
CONTINUOUS
 62
     5
  2
_OPEN
 10
-294.6631575848309
 20
-2450.400715661754
 30
0.0
 41
2.0
 42
2.0
 43
2.0
 50
180.0
  0
INSERT
  5
32A20
  8
回02-寸法
  6
CONTINUOUS
 62
     5
  2
_OPEN
 10
-304.1590451940896
 20
-2450.400715661754
 30
0.0
 41
2.0
 42
2.0
 43
2.0
  0
TEXT
  5
32A21
  8
回02-寸法
  6
CONTINUOUS
 62
     5
 10
-315.7805934493842
 20
-2449.900715661754
 30
0.0
 40
4.0
  1
9.5
1001
ACAD
1000
MTEXTBEGIN
1070
    73
1070
     1
1070
    44
1040
1.0
1070
    74
1070
     0
1000
MTEXTEND
  0
POINT
  5
32A22
  8
DEFPOINTS
  6
CONTINUOUS
 62
     0
 10
-294.6631575848309
 20
-2438.275477385723
 30
0.0
  0
POINT
  5
32A23
  8
DEFPOINTS
  6
CONTINUOUS
 62
     0
 10
-304.1590451940896
 20
-2430.622599030066
 30
0.0
  0
POINT
  5
32A24
  8
DEFPOINTS
  6
CONTINUOUS
 62
     0
 10
-304.1590451940896
 20
-2450.400715661754
 30
0.0
  0
ENDBLK
  5
306E5
  8
0
 62
     7
  0
BLOCK
  8
0
  2
*D25
 70
     1
 10
0.0
 20
0.0
 30
0.0
  3
*D25
  1

  0
LINE
  5
329FB
  8
回02-寸法
 62
     5
 10
-374.1631575848292
 20
-2424.279409573858
 30
0.0
 11
-386.1062026329999
 21
-2424.279409573858
 31
0.0
  0
LINE
  5
329FC
  8
回02-寸法
 62
     5
 10
-374.1631575848292
 20
-2430.529409573858
 30
0.0
 11
-386.1062026329999
 21
-2430.529409573858
 31
0.0
  0
LINE
  5
329FD
  8
回02-寸法
 62
     5
 10
-385.1062026329999
 20
-2432.529409573858
 30
0.0
 11
-385.1062026329999
 21
-2434.529409573858
 31
0.0
  0
LINE
  5
329FE
  8
回02-寸法
 62
     5
 10
-385.106202633
 20
-2422.279409573858
 30
0.0
 11
-385.106202633
 21
-2401.608432211651
 31
0.0
  0
LINE
  5
329FF
  8
回02-寸法
 62
     5
 10
-385.106202633
 20
-2430.529409573858
 30
0.0
 11
-385.106202633
 21
-2424.279409573858
 31
0.0
  0
INSERT
  5
32A00
  8
回02-寸法
 62
     5
  2
_OPEN
 10
-385.106202633
 20
-2430.529409573858
 30
0.0
 41
2.0
 42
2.0
 43
2.0
 50
90.0
  0
INSERT
  5
32A01
  8
回02-寸法
 62
     5
  2
_OPEN
 10
-385.106202633
 20
-2424.279409573858
 30
0.0
 41
2.0
 42
2.0
 43
2.0
 50
270.0
  0
INSERT
  5
32A02
  8
回02-寸法
 62
     5
 66
     1
  2
*X55
 10
0.0
 20
0.0
 30
0.0
  0
SEQEND
  5
3309B
  8
0
  6
CONTINUOUS
 62
     7
  0
POINT
  5
32A03
  8
DEFPOINTS
 62
     0
 10
-374.1631575848292
 20
-2424.279409573858
 30
0.0
  0
POINT
  5
32A04
  8
DEFPOINTS
 62
     0
 10
-374.1631575848292
 20
-2430.529409573858
 30
0.0
  0
POINT
  5
32A05
  8
DEFPOINTS
 62
     0
 10
-385.106202633
 20
-2430.529409573858
 30
0.0
  0
ENDBLK
  5
306F3
  8
0
 62
     7
  0
BLOCK
  8
0
  2
*D26
 70
     1
 10
0.0
 20
0.0
 30
0.0
  3
*D26
  1

  0
LINE
  5
32A0F
  8
回02-寸法
  6
CONTINUOUS
 62
     5
 10
-294.6631140740623
 20
-2436.081533918324
 30
0.0
 11
-294.6631140740623
 21
-2443.737685724768
 31
0.0
  0
LINE
  5
32A10
  8
回02-寸法
  6
CONTINUOUS
 62
     5
 10
-299.2636165866246
 20
-2435.315255654554
 30
0.0
 11
-299.2636165866246
 21
-2443.737685724768
 31
0.0
  0
LINE
  5
32A11
  8
回02-寸法
  6
CONTINUOUS
 62
     5
 10
-292.6631140740623
 20
-2442.737685724767
 30
0.0
 11
-290.6631140740623
 21
-2442.737685724767
 31
0.0
  0
LINE
  5
32A12
  8
回02-寸法
  6
CONTINUOUS
 62
     5
 10
-301.2636165866246
 20
-2442.737685724767
 30
0.0
 11
-312.997179490262
 21
-2442.737685724767
 31
0.0
  0
LINE
  5
32A13
  8
回02-寸法
  6
CONTINUOUS
 62
     5
 10
-294.6631140740623
 20
-2442.737685724767
 30
0.0
 11
-299.2636165866246
 21
-2442.737685724767
 31
0.0
  0
INSERT
  5
32A14
  8
回02-寸法
  6
CONTINUOUS
 62
     5
  2
_OPEN
 10
-294.6631140740623
 20
-2442.737685724767
 30
0.0
 41
2.0
 42
2.0
 43
2.0
 50
180.0
  0
INSERT
  5
32A15
  8
回02-寸法
  6
CONTINUOUS
 62
     5
  2
_OPEN
 10
-299.2636165866246
 20
-2442.737685724767
 30
0.0
 41
2.0
 42
2.0
 43
2.0
  0
TEXT
  5
32A16
  8
回02-寸法
  6
CONTINUOUS
 62
     5
 10
-312.9996369487046
 20
-2442.237685724768
 30
0.0
 40
4.0
  1
4.6
1001
ACAD
1000
MTEXTBEGIN
1070
    73
1070
     1
1070
    44
1040
1.0
1070
    74
1070
     0
1000
MTEXTEND
  0
POINT
  5
32A17
  8
DEFPOINTS
  6
CONTINUOUS
 62
     0
 10
-294.6631140740623
 20
-2436.081533918324
 30
0.0
  0
POINT
  5
32A18
  8
DEFPOINTS
  6
CONTINUOUS
 62
     0
 10
-299.2636165866246
 20
-2435.315255654554
 30
0.0
  0
POINT
  5
32A19
  8
DEFPOINTS
  6
CONTINUOUS
 62
     0
 10
-299.2636165866246
 20
-2442.737685724767
 30
0.0
  0
ENDBLK
  5
30701
  8
0
 62
     7
  0
BLOCK
  8
0
  2
*D27
 70
     1
 10
0.0
 20
0.0
 30
0.0
  3
*D27
  1

  0
LINE
  5
32A9E
  8
回02-寸法
  6
CONTINUOUS
 62
     5
 10
-60.46311407406259
 20
-2534.197353058603
 30
0.0
 11
-50.58338803906824
 21
-2534.197353058603
 31
0.0
  0
LINE
  5
32A9F
  8
回02-寸法
  6
CONTINUOUS
 62
     5
 10
-59.96311407406202
 20
-2547.197353058604
 30
0.0
 11
-50.58338803906824
 21
-2547.197353058604
 31
0.0
  0
LINE
  5
32AA0
  8
回02-寸法
  6
CONTINUOUS
 62
     5
 10
-51.58338803906825
 20
-2532.197353058603
 30
0.0
 11
-51.58338803906825
 21
-2530.197353058603
 31
0.0
  0
LINE
  5
32AA1
  8
回02-寸法
  6
CONTINUOUS
 62
     5
 10
-51.58338803906824
 20
-2549.197353058604
 30
0.0
 11
-51.58338803906824
 21
-2567.939164082226
 31
0.0
  0
LINE
  5
32AA2
  8
回02-寸法
  6
CONTINUOUS
 62
     5
 10
-51.58338803906825
 20
-2534.197353058603
 30
0.0
 11
-51.58338803906825
 21
-2547.197353058604
 31
0.0
  0
INSERT
  5
32AA3
  8
回02-寸法
  6
CONTINUOUS
 62
     5
  2
_OPEN
 10
-51.58338803906825
 20
-2534.197353058603
 30
0.0
 41
2.0
 42
2.0
 43
2.0
 50
270.0
  0
INSERT
  5
32AA4
  8
回02-寸法
  6
CONTINUOUS
 62
     5
  2
_OPEN
 10
-51.58338803906824
 20
-2547.197353058604
 30
0.0
 41
2.0
 42
2.0
 43
2.0
 50
90.0
  0
TEXT
  5
32AA5
  8
回02-寸法
  6
CONTINUOUS
 62
     5
 10
-52.08378173985647
 20
-2567.868700817534
 30
0.0
 40
4.0
  1
2.1±0.2
 50
90.0
1001
ACAD
1000
MTEXTBEGIN
1070
    73
1070
     1
1070
    44
1040
1.0
1070
    74
1070
     0
1000
MTEXTEND
  0
POINT
  5
32AA6
  8
DEFPOINTS
  6
CONTINUOUS
 62
     0
 10
-60.46311407406259
 20
-2534.197353058603
 30
0.0
  0
POINT
  5
32AA7
  8
DEFPOINTS
  6
CONTINUOUS
 62
     0
 10
-59.96311407406202
 20
-2547.197353058604
 30
0.0
  0
POINT
  5
32AA8
  8
DEFPOINTS
  6
CONTINUOUS
 62
     0
 10
-51.58338803906824
 20
-2547.197353058604
 30
0.0
  0
ENDBLK
  5
3070F
  8
0
 62
     7
  0
BLOCK
  8
0
  2
*D28
 70
     1
 10
0.0
 20
0.0
 30
0.0
  3
*D28
  1

  0
LINE
  5
32A93
  8
回02-寸法
  6
CONTINUOUS
 62
     5
 10
-60.46311407406211
 20
-2534.197353058602
 30
0.0
 11
-60.46311407406211
 21
-2525.018981976975
 31
0.0
  0
LINE
  5
32A94
  8
回02-寸法
  6
CONTINUOUS
 62
     5
 10
-59.9631140740621
 20
-2541.197353058601
 30
0.0
 11
-59.9631140740621
 21
-2525.018981976975
 31
0.0
  0
LINE
  5
32A95
  8
回02-寸法
  6
CONTINUOUS
 62
     5
 10
-62.4631140740621
 20
-2526.018981976975
 30
0.0
 11
-64.4631140740621
 21
-2526.018981976975
 31
0.0
  0
LINE
  5
32A96
  8
回02-寸法
  6
CONTINUOUS
 62
     5
 10
-57.96311407406211
 20
-2526.018981976975
 30
0.0
 11
-46.16626368036132
 21
-2526.018981976975
 31
0.0
  0
LINE
  5
32A97
  8
回02-寸法
  6
CONTINUOUS
 62
     5
 10
-60.46311407406211
 20
-2526.018981976975
 30
0.0
 11
-59.9631140740621
 21
-2526.018981976975
 31
0.0
  0
INSERT
  5
32A98
  8
回02-寸法
  6
CONTINUOUS
 62
     5
  2
_OPEN
 10
-60.46311407406211
 20
-2526.018981976975
 30
0.0
 41
2.0
 42
2.0
 43
2.0
  0
INSERT
  5
32A99
  8
回02-寸法
  6
CONTINUOUS
 62
     5
  2
_OPEN
 10
-59.9631140740621
 20
-2526.018981976975
 30
0.0
 41
2.0
 42
2.0
 43
2.0
 50
180.0
  0
TEXT
  5
32A9A
  8
回02-寸法
  6
CONTINUOUS
 62
     5
 10
-56.06468887721171
 20
-2525.318981976975
 30
0.0
 40
4.0
  1
(0.5)
1001
ACAD
1000
MTEXTBEGIN
1070
    73
1070
     1
1070
    44
1040
1.0
1070
    74
1070
     0
1000
MTEXTEND
  0
POINT
  5
32A9B
  8
DEFPOINTS
  6
CONTINUOUS
 62
     0
 10
-60.46311407406211
 20
-2534.197353058602
 30
0.0
  0
POINT
  5
32A9C
  8
DEFPOINTS
  6
CONTINUOUS
 62
     0
 10
-59.9631140740621
 20
-2541.197353058601
 30
0.0
  0
POINT
  5
32A9D
  8
DEFPOINTS
  6
CONTINUOUS
 62
     0
 10
-59.9631140740621
 20
-2526.018981976975
 30
0.0
  0
ENDBLK
  5
3071D
  8
0
 62
     7
  0
BLOCK
  8
0
  2
*D29
 70
     1
 10
0.0
 20
0.0
 30
0.0
  3
*D29
  1

  0
LINE
  5
32A51
  8
回02-寸法
  6
CONTINUOUS
 62
     5
 10
-294.6631140740624
 20
-2541.197353058601
 30
0.0
 11
-294.6631140740624
 21
-2528.602252000443
 31
0.0
  0
LINE
  5
32A52
  8
回02-寸法
  6
CONTINUOUS
 62
     5
 10
-294.1631140740624
 20
-2534.197353058602
 30
0.0
 11
-294.1631140740624
 21
-2528.602252000443
 31
0.0
  0
LINE
  5
32A53
  8
回02-寸法
  6
CONTINUOUS
 62
     5
 10
-296.6631140740624
 20
-2529.602252000443
 30
0.0
 11
-298.6631140740623
 21
-2529.602252000443
 31
0.0
  0
LINE
  5
32A54
  8
回02-寸法
  6
CONTINUOUS
 62
     5
 10
-292.1631140740624
 20
-2529.602252000443
 30
0.0
 11
-280.3662636803616
 21
-2529.602252000443
 31
0.0
  0
LINE
  5
32A55
  8
回02-寸法
  6
CONTINUOUS
 62
     5
 10
-294.6631140740624
 20
-2529.602252000443
 30
0.0
 11
-294.1631140740624
 21
-2529.602252000443
 31
0.0
  0
INSERT
  5
32A56
  8
回02-寸法
  6
CONTINUOUS
 62
     5
  2
_OPEN
 10
-294.6631140740624
 20
-2529.602252000443
 30
0.0
 41
2.0
 42
2.0
 43
2.0
  0
INSERT
  5
32A57
  8
回02-寸法
  6
CONTINUOUS
 62
     5
  2
_OPEN
 10
-294.1631140740624
 20
-2529.602252000443
 30
0.0
 41
2.0
 42
2.0
 43
2.0
 50
180.0
  0
TEXT
  5
32A58
  8
回02-寸法
  6
CONTINUOUS
 62
     5
 10
-290.264688877212
 20
-2528.902252000443
 30
0.0
 40
4.0
  1
(0.5)
1001
ACAD
1000
MTEXTBEGIN
1070
    73
1070
     1
1070
    44
1040
1.0
1070
    74
1070
     0
1000
MTEXTEND
  0
POINT
  5
32A59
  8
DEFPOINTS
  6
CONTINUOUS
 62
     0
 10
-294.6631140740624
 20
-2541.197353058601
 30
0.0
  0
POINT
  5
32A5A
  8
DEFPOINTS
  6
CONTINUOUS
 62
     0
 10
-294.1631140740624
 20
-2534.197353058602
 30
0.0
  0
POINT
  5
32A5B
  8
DEFPOINTS
  6
CONTINUOUS
 62
     0
 10
-294.1631140740624
 20
-2529.602252000443
 30
0.0
  0
ENDBLK
  5
3072B
  8
0
 62
     7
  0
BLOCK
  8
0
  2
*D30
 70
     1
 10
0.0
 20
0.0
 30
0.0
  3
*D30
  1

  0
LINE
  5
32A46
  8
回02-寸法
  6
CONTINUOUS
 62
     5
 10
-374.6631575848296
 20
-2545.197353058601
 30
0.0
 11
-374.6631575848296
 21
-2555.151159200048
 31
0.0
  0
LINE
  5
32A47
  8
回02-寸法
  6
CONTINUOUS
 62
     5
 10
-364.6631140740624
 20
-2545.197353058602
 30
0.0
 11
-364.6631140740624
 21
-2555.151159200048
 31
0.0
  0
LINE
  5
32A48
  8
回02-寸法
  6
CONTINUOUS
 62
     5
 10
-376.6631575848296
 20
-2554.151159200048
 30
0.0
 11
-378.6631575848296
 21
-2554.151159200048
 31
0.0
  0
LINE
  5
32A49
  8
回02-寸法
  6
CONTINUOUS
 62
     5
 10
-362.6631140740624
 20
-2554.151159200048
 30
0.0
 11
-352.8662636803616
 21
-2554.151159200048
 31
0.0
  0
LINE
  5
32A4A
  8
回02-寸法
  6
CONTINUOUS
 62
     5
 10
-374.6631575848296
 20
-2554.151159200048
 30
0.0
 11
-364.6631140740624
 21
-2554.151159200048
 31
0.0
  0
INSERT
  5
32A4B
  8
回02-寸法
  6
CONTINUOUS
 62
     5
  2
_OPEN
 10
-374.6631575848296
 20
-2554.151159200048
 30
0.0
 41
2.0
 42
2.0
 43
2.0
  0
INSERT
  5
32A4C
  8
回02-寸法
  6
CONTINUOUS
 62
     5
  2
_OPEN
 10
-364.6631140740624
 20
-2554.151159200048
 30
0.0
 41
2.0
 42
2.0
 43
2.0
 50
180.0
  0
TEXT
  5
32A4D
  8
回02-寸法
  6
CONTINUOUS
 62
     5
 10
-360.764688877212
 20
-2553.351159200048
 30
0.0
 40
4.0
  1
(10)
1001
ACAD
1000
MTEXTBEGIN
1070
    73
1070
     1
1070
    44
1040
1.0
1070
    74
1070
     0
1000
MTEXTEND
  0
POINT
  5
32A4E
  8
DEFPOINTS
  6
CONTINUOUS
 62
     0
 10
-374.6631575848296
 20
-2545.197353058601
 30
0.0
  0
POINT
  5
32A4F
  8
DEFPOINTS
  6
CONTINUOUS
 62
     0
 10
-364.6631140740624
 20
-2545.197353058602
 30
0.0
  0
POINT
  5
32A50
  8
DEFPOINTS
  6
CONTINUOUS
 62
     0
 10
-364.6631140740624
 20
-2554.151159200048
 30
0.0
  0
ENDBLK
  5
30739
  8
0
 62
     7
  0
BLOCK
  8
0
  2
*D31
 70
     1
 10
0.0
 20
0.0
 30
0.0
  3
*D31
  1

  0
LINE
  5
32A30
  8
回02-寸法
  6
CONTINUOUS
 62
     5
 10
-374.6631140740624
 20
-2538.197353058602
 30
0.0
 11
-374.6631140740624
 21
-2529.916169168979
 31
0.0
  0
LINE
  5
32A31
  8
回02-寸法
  6
CONTINUOUS
 62
     5
 10
-369.6631140740624
 20
-2538.197353058602
 30
0.0
 11
-369.6631140740624
 21
-2529.916169168979
 31
0.0
  0
LINE
  5
32A32
  8
回02-寸法
  6
CONTINUOUS
 62
     5
 10
-376.6631140740624
 20
-2530.916169168979
 30
0.0
 11
-378.6631140740624
 21
-2530.916169168979
 31
0.0
  0
LINE
  5
32A33
  8
回02-寸法
  6
CONTINUOUS
 62
     5
 10
-367.6631140740624
 20
-2530.916169168979
 30
0.0
 11
-360.397428649113
 21
-2530.916169168979
 31
0.0
  0
LINE
  5
32A34
  8
回02-寸法
  6
CONTINUOUS
 62
     5
 10
-374.6631140740624
 20
-2530.916169168979
 30
0.0
 11
-369.6631140740624
 21
-2530.916169168979
 31
0.0
  0
INSERT
  5
32A35
  8
回02-寸法
  6
CONTINUOUS
 62
     5
  2
_OPEN
 10
-374.6631140740624
 20
-2530.916169168979
 30
0.0
 41
2.0
 42
2.0
 43
2.0
  0
INSERT
  5
32A36
  8
回02-寸法
  6
CONTINUOUS
 62
     5
  2
_OPEN
 10
-369.6631140740624
 20
-2530.916169168979
 30
0.0
 41
2.0
 42
2.0
 43
2.0
 50
180.0
  0
TEXT
  5
32A37
  8
回02-寸法
  6
CONTINUOUS
 62
     5
 10
-363.1802713615877
 20
-2530.416169168979
 30
0.0
 40
4.0
  1
5
1001
ACAD
1000
MTEXTBEGIN
1070
    73
1070
     1
1070
    44
1040
1.0
1070
    74
1070
     0
1000
MTEXTEND
  0
POINT
  5
32A38
  8
DEFPOINTS
  6
CONTINUOUS
 62
     0
 10
-374.6631140740624
 20
-2538.197353058602
 30
0.0
  0
POINT
  5
32A39
  8
DEFPOINTS
  6
CONTINUOUS
 62
     0
 10
-369.6631140740624
 20
-2538.197353058602
 30
0.0
  0
POINT
  5
32A3A
  8
DEFPOINTS
  6
CONTINUOUS
 62
     0
 10
-369.6631140740624
 20
-2530.916169168979
 30
0.0
  0
ENDBLK
  5
30747
  8
0
 62
     7
  0
BLOCK
  8
0
  2
*D32
 70
     1
 10
0.0
 20
0.0
 30
0.0
  3
*D32
  1

  0
LINE
  5
32D3D
  8
回02-寸法
  6
CONTINUOUS
 62
     5
 10
-374.6631140740625
 20
-2538.197353058603
 30
0.0
 11
-383.1692398510545
 21
-2538.197353058603
 31
0.0
  0
LINE
  5
32D3E
  8
回02-寸法
  6
CONTINUOUS
 62
     5
 10
-374.6631575848297
 20
-2545.197353058602
 30
0.0
 11
-383.1692398510545
 21
-2545.197353058602
 31
0.0
  0
LINE
  5
32D3F
  8
回02-寸法
  6
CONTINUOUS
 62
     5
 10
-382.1692398510545
 20
-2536.197353058602
 30
0.0
 11
-382.1692398510545
 21
-2534.197353058603
 31
0.0
  0
LINE
  5
32D40
  8
回02-寸法
  6
CONTINUOUS
 62
     5
 10
-382.1692398510545
 20
-2547.197353058602
 30
0.0
 11
-382.1692398510545
 21
-2564.776482462365
 31
0.0
  0
LINE
  5
32D41
  8
回02-寸法
  6
CONTINUOUS
 62
     5
 10
-382.1692398510545
 20
-2538.197353058603
 30
0.0
 11
-382.1692398510545
 21
-2545.197353058602
 31
0.0
  0
INSERT
  5
32D42
  8
回02-寸法
  6
CONTINUOUS
 62
     5
  2
_OPEN
 10
-382.1692398510545
 20
-2538.197353058603
 30
0.0
 41
2.0
 42
2.0
 43
2.0
 50
270.0
  0
INSERT
  5
32D43
  8
回02-寸法
  6
CONTINUOUS
 62
     5
  2
_OPEN
 10
-382.1692398510545
 20
-2545.197353058602
 30
0.0
 41
2.0
 42
2.0
 43
2.0
 50
90.0
  0
INSERT
  5
32D44
  8
回02-寸法
  6
CONTINUOUS
 62
     5
 66
     1
  2
*X56
 10
0.0
 20
0.0
 30
0.0
  0
SEQEND
  5
330A1
  8
0
  6
CONTINUOUS
 62
     7
  0
POINT
  5
32D45
  8
DEFPOINTS
  6
CONTINUOUS
 62
     0
 10
-374.6631140740625
 20
-2538.197353058603
 30
0.0
  0
POINT
  5
32D46
  8
DEFPOINTS
  6
CONTINUOUS
 62
     0
 10
-374.6631575848297
 20
-2545.197353058602
 30
0.0
  0
POINT
  5
32D47
  8
DEFPOINTS
  6
CONTINUOUS
 62
     0
 10
-382.1692398510545
 20
-2545.197353058602
 30
0.0
  0
ENDBLK
  5
30755
  8
0
 62
     7
  0
BLOCK
  8
0
  2
*D33
 70
     1
 10
0.0
 20
0.0
 30
0.0
  3
*D33
  1

  0
LINE
  5
32AEB
  8
回03-記事
  6
CONTINUOUS
 62
     5
 10
-139.6481140740621
 20
-2451.415274188005
 30
0.0
 11
-128.5214784582766
 21
-2451.415274188005
 31
0.0
  0
LINE
  5
32AEC
  8
回03-記事
  6
CONTINUOUS
 62
     5
 10
-139.6481140740621
 20
-2455.415274188005
 30
0.0
 11
-128.5214784582766
 21
-2455.415274188005
 31
0.0
  0
LINE
  5
32AED
  8
回03-記事
  6
CONTINUOUS
 62
     5
 10
-129.5214784582766
 20
-2449.915274188005
 30
0.0
 11
-129.5214784582766
 21
-2448.415274188004
 31
0.0
  0
LINE
  5
32AEE
  8
回03-記事
  6
CONTINUOUS
 62
     5
 10
-129.5214784582766
 20
-2456.915274188004
 30
0.0
 11
-129.5214784582766
 21
-2461.415274188004
 31
0.0
  0
LINE
  5
32AEF
  8
回03-記事
  6
CONTINUOUS
 62
     5
 10
-129.5214784582766
 20
-2451.415274188005
 30
0.0
 11
-129.5214784582766
 21
-2455.415274188005
 31
0.0
  0
INSERT
  5
32AF0
  8
回03-記事
  6
CONTINUOUS
 62
     5
  2
_OPEN
 10
-129.5214784582766
 20
-2451.415274188005
 30
0.0
 41
1.5
 42
1.5
 43
1.5
 50
270.0
  0
INSERT
  5
32AF1
  8
回03-記事
  6
CONTINUOUS
 62
     5
  2
_OPEN
 10
-129.5214784582766
 20
-2455.415274188005
 30
0.0
 41
1.5
 42
1.5
 43
1.5
 50
90.0
  0
TEXT
  5
32AF2
  8
回03-記事
  6
CONTINUOUS
 62
     5
 10
-130.0214784582772
 20
-2461.515274188004
 30
0.0
 40
4.0
  1
4
 50
90.0
1001
ACAD
1000
MTEXTBEGIN
1070
    73
1070
     1
1070
    44
1040
1.0
1070
    74
1070
     0
1000
MTEXTEND
  0
POINT
  5
32AF3
  8
DEFPOINTS
  6
CONTINUOUS
 62
     0
 10
-139.6481140740621
 20
-2451.415274188005
 30
0.0
  0
POINT
  5
32AF4
  8
DEFPOINTS
  6
CONTINUOUS
 62
     0
 10
-139.6481140740621
 20
-2455.415274188005
 30
0.0
  0
POINT
  5
32AF5
  8
DEFPOINTS
  6
CONTINUOUS
 62
     0
 10
-129.5214784582766
 20
-2455.415274188005
 30
0.0
  0
ENDBLK
  5
30763
  8
0
 62
     7
  0
BLOCK
  8
0
  2
*D34
 70
     1
 10
0.0
 20
0.0
 30
0.0
  3
*D34
  1

  0
LINE
  5
32AF6
  8
回03-記事
  6
CONTINUOUS
 62
     5
 10
-147.648114074062
 20
-2463.415274188003
 30
0.0
 11
-147.648114074062
 21
-2472.590497668657
 31
0.0
  0
LINE
  5
32AF7
  8
回03-記事
  6
CONTINUOUS
 62
     5
 10
-143.648114074062
 20
-2463.415274188003
 30
0.0
 11
-143.648114074062
 21
-2472.590497668657
 31
0.0
  0
LINE
  5
32AF8
  8
回03-記事
  6
CONTINUOUS
 62
     5
 10
-149.148114074062
 20
-2471.590497668657
 30
0.0
 11
-150.648114074062
 21
-2471.590497668657
 31
0.0
  0
LINE
  5
32AF9
  8
回03-記事
  6
CONTINUOUS
 62
     5
 10
-142.148114074062
 20
-2471.590497668657
 30
0.0
 11
-137.648114074062
 21
-2471.590497668657
 31
0.0
  0
LINE
  5
32AFA
  8
回03-記事
  6
CONTINUOUS
 62
     5
 10
-147.648114074062
 20
-2471.590497668657
 30
0.0
 11
-143.648114074062
 21
-2471.590497668657
 31
0.0
  0
INSERT
  5
32AFB
  8
回03-記事
  6
CONTINUOUS
 62
     5
  2
_OPEN
 10
-147.648114074062
 20
-2471.590497668657
 30
0.0
 41
1.5
 42
1.5
 43
1.5
  0
INSERT
  5
32AFC
  8
回03-記事
  6
CONTINUOUS
 62
     5
  2
_OPEN
 10
-143.648114074062
 20
-2471.590497668657
 30
0.0
 41
1.5
 42
1.5
 43
1.5
 50
180.0
  0
TEXT
  5
32AFD
  8
回03-記事
  6
CONTINUOUS
 62
     5
 10
-140.748114074062
 20
-2471.090497668657
 30
0.0
 40
4.0
  1
4
1001
ACAD
1000
MTEXTBEGIN
1070
    73
1070
     1
1070
    44
1040
1.0
1070
    74
1070
     0
1000
MTEXTEND
  0
POINT
  5
32AFE
  8
DEFPOINTS
  6
CONTINUOUS
 62
     0
 10
-147.648114074062
 20
-2463.415274188003
 30
0.0
  0
POINT
  5
32AFF
  8
DEFPOINTS
  6
CONTINUOUS
 62
     0
 10
-143.648114074062
 20
-2463.415274188003
 30
0.0
  0
POINT
  5
32B00
  8
DEFPOINTS
  6
CONTINUOUS
 62
     0
 10
-143.648114074062
 20
-2471.590497668657
 30
0.0
  0
ENDBLK
  5
30771
  8
0
 62
     7
  0
BLOCK
  8
0
  2
*D35
 70
     1
 10
0.0
 20
0.0
 30
0.0
  3
*D35
  1

  0
LINE
  5
323BD
  8
回02-寸法
  6
CONTINUOUS
 62
     5
 10
-362.0259990977789
 20
-2342.362772070256
 30
0.0
 11
-395.3871192135222
 21
-2342.362772070256
 31
0.0
  0
LINE
  5
323BE
  8
回02-寸法
  6
CONTINUOUS
 62
     5
 10
-362.0259990977789
 20
-2356.112772070255
 30
0.0
 11
-395.3871192135222
 21
-2356.112772070255
 31
0.0
  0
LINE
  5
323BF
  8
回02-寸法
  6
CONTINUOUS
 62
     5
 10
-394.3871192135222
 20
-2340.362772070256
 30
0.0
 11
-394.3871192135222
 21
-2338.362772070256
 31
0.0
  0
LINE
  5
323C0
  8
回02-寸法
  6
CONTINUOUS
 62
     5
 10
-394.3871192135222
 20
-2358.112772070255
 30
0.0
 11
-394.3871192135222
 21
-2376.512607637184
 31
0.0
  0
LINE
  5
323C1
  8
回02-寸法
  6
CONTINUOUS
 62
     5
 10
-394.3871192135222
 20
-2342.362772070256
 30
0.0
 11
-394.3871192135222
 21
-2356.112772070255
 31
0.0
  0
INSERT
  5
323C2
  8
回02-寸法
  6
CONTINUOUS
 62
     5
  2
_OPEN
 10
-394.3871192135222
 20
-2342.362772070256
 30
0.0
 41
2.0
 42
2.0
 43
2.0
 50
270.0
  0
INSERT
  5
323C3
  8
回02-寸法
  6
CONTINUOUS
 62
     5
  2
_OPEN
 10
-394.3871192135222
 20
-2356.112772070255
 30
0.0
 41
2.0
 42
2.0
 43
2.0
 50
90.0
  0
INSERT
  5
323C4
  8
回02-寸法
  6
CONTINUOUS
 62
     5
 66
     1
  2
*X57
 10
0.0
 20
0.0
 30
0.0
  0
SEQEND
  5
330A7
  8
0
  6
CONTINUOUS
 62
     7
  0
POINT
  5
323C5
  8
DEFPOINTS
  6
CONTINUOUS
 62
     0
 10
-362.0259990977789
 20
-2342.362772070256
 30
0.0
  0
POINT
  5
323C6
  8
DEFPOINTS
  6
CONTINUOUS
 62
     0
 10
-362.0259990977789
 20
-2356.112772070255
 30
0.0
  0
POINT
  5
323C7
  8
DEFPOINTS
  6
CONTINUOUS
 62
     0
 10
-394.3871192135222
 20
-2356.112772070255
 30
0.0
  0
ENDBLK
  5
3212E
  8
0
 62
     7
  0
BLOCK
  8
0
  2
*D36
 70
     1
 10
0.0
 20
0.0
 30
0.0
  3
*D36
  1

  0
LINE
  5
323C8
  8
回02-寸法
  6
CONTINUOUS
 62
     5
 10
-366.31548109657
 20
-2350.612772070261
 30
0.0
 11
-380.5869631983467
 21
-2350.612772070261
 31
0.0
  0
LINE
  5
323C9
  8
回02-寸法
  6
CONTINUOUS
 62
     5
 10
-366.31548109657
 20
-2353.362772070261
 30
0.0
 11
-380.5869631983467
 21
-2353.362772070261
 31
0.0
  0
LINE
  5
323CA
  8
回02-寸法
  6
CONTINUOUS
 62
     5
 10
-379.5869631983467
 20
-2348.612772070261
 30
0.0
 11
-379.5869631983467
 21
-2346.612772070261
 31
0.0
  0
LINE
  5
323CB
  8
回02-寸法
  6
CONTINUOUS
 62
     5
 10
-379.5869631983467
 20
-2355.362772070261
 30
0.0
 11
-379.5869631983467
 21
-2374.262938119867
 31
0.0
  0
LINE
  5
323CC
  8
回02-寸法
  6
CONTINUOUS
 62
     5
 10
-379.5869631983467
 20
-2350.612772070261
 30
0.0
 11
-379.5869631983467
 21
-2353.362772070261
 31
0.0
  0
INSERT
  5
323CD
  8
回02-寸法
  6
CONTINUOUS
 62
     5
  2
_OPEN
 10
-379.5869631983467
 20
-2350.612772070261
 30
0.0
 41
2.0
 42
2.0
 43
2.0
 50
270.0
  0
INSERT
  5
323CE
  8
回02-寸法
  6
CONTINUOUS
 62
     5
  2
_OPEN
 10
-379.5869631983467
 20
-2353.362772070261
 30
0.0
 41
2.0
 42
2.0
 43
2.0
 50
90.0
  0
INSERT
  5
323CF
  8
回02-寸法
  6
CONTINUOUS
 62
     5
 66
     1
  2
*X58
 10
0.0
 20
0.0
 30
0.0
  0
SEQEND
  5
330AD
  8
0
  6
CONTINUOUS
 62
     7
  0
POINT
  5
323D0
  8
DEFPOINTS
  6
CONTINUOUS
 62
     0
 10
-366.31548109657
 20
-2350.612772070261
 30
0.0
  0
POINT
  5
323D1
  8
DEFPOINTS
  6
CONTINUOUS
 62
     0
 10
-366.31548109657
 20
-2353.362772070261
 30
0.0
  0
POINT
  5
323D2
  8
DEFPOINTS
  6
CONTINUOUS
 62
     0
 10
-379.5869631983467
 20
-2353.362772070261
 30
0.0
  0
ENDBLK
  5
3213C
  8
0
 62
     7
  0
BLOCK
  8
0
  2
*D37
 70
     1
 10
0.0
 20
0.0
 30
0.0
  3
*D37
  1

  0
LINE
  5
323D3
  8
回02-寸法
  6
CONTINUOUS
 62
     5
 10
-363.1260948214678
 20
-2352.592772070261
 30
0.0
 11
-373.1458618462087
 21
-2352.592772070261
 31
0.0
  0
LINE
  5
323D4
  8
回02-寸法
  6
CONTINUOUS
 62
     5
 10
-363.1260948214678
 20
-2354.13277207026
 30
0.0
 11
-373.1458618462087
 21
-2354.13277207026
 31
0.0
  0
LINE
  5
323D5
  8
回02-寸法
  6
CONTINUOUS
 62
     5
 10
-372.1458618462087
 20
-2350.592772070261
 30
0.0
 11
-372.1458618462087
 21
-2348.592772070261
 31
0.0
  0
LINE
  5
323D6
  8
回02-寸法
  6
CONTINUOUS
 62
     5
 10
-372.1458618462087
 20
-2356.13277207026
 30
0.0
 11
-372.1458618462087
 21
-2378.16607807026
 31
0.0
  0
LINE
  5
323D7
  8
回02-寸法
  6
CONTINUOUS
 62
     5
 10
-372.1458618462087
 20
-2352.592772070261
 30
0.0
 11
-372.1458618462087
 21
-2354.13277207026
 31
0.0
  0
INSERT
  5
323D8
  8
回02-寸法
  6
CONTINUOUS
 62
     5
  2
_OPEN
 10
-372.1458618462087
 20
-2352.592772070261
 30
0.0
 41
2.0
 42
2.0
 43
2.0
 50
270.0
  0
INSERT
  5
323D9
  8
回02-寸法
  6
CONTINUOUS
 62
     5
  2
_OPEN
 10
-372.1458618462087
 20
-2354.13277207026
 30
0.0
 41
2.0
 42
2.0
 43
2.0
 50
90.0
  0
INSERT
  5
323DA
  8
回02-寸法
  6
CONTINUOUS
 62
     5
 66
     1
  2
*X59
 10
0.0
 20
0.0
 30
0.0
  0
SEQEND
  5
330B3
  8
0
  6
CONTINUOUS
 62
     7
  0
POINT
  5
323DB
  8
DEFPOINTS
  6
CONTINUOUS
 62
     0
 10
-363.1260948214678
 20
-2352.592772070261
 30
0.0
  0
POINT
  5
323DC
  8
DEFPOINTS
  6
CONTINUOUS
 62
     0
 10
-363.1260948214678
 20
-2354.13277207026
 30
0.0
  0
POINT
  5
323DD
  8
DEFPOINTS
  6
CONTINUOUS
 62
     0
 10
-372.1458618462087
 20
-2354.13277207026
 30
0.0
  0
ENDBLK
  5
3214A
  8
0
 62
     7
  0
BLOCK
  8
0
  2
*D38
 70
     1
 10
0.0
 20
0.0
 30
0.0
  3
*D38
  1

  0
LINE
  5
323DE
  8
回02-寸法
  6
CONTINUOUS
 62
     5
 10
-366.31548109657
 20
-2353.362772070261
 30
0.0
 11
-387.6431750271582
 21
-2353.362772070261
 31
0.0
  0
LINE
  5
323DF
  8
回02-寸法
  6
CONTINUOUS
 62
     5
 10
-366.3155768202589
 20
-2345.112772070261
 30
0.0
 11
-387.6431750271582
 21
-2345.112772070261
 31
0.0
  0
LINE
  5
323E0
  8
回02-寸法
  6
CONTINUOUS
 62
     5
 10
-386.6431750271583
 20
-2343.112772070261
 30
0.0
 11
-386.6431750271583
 21
-2341.11277207026
 31
0.0
  0
LINE
  5
323E1
  8
回02-寸法
  6
CONTINUOUS
 62
     5
 10
-386.6431750271583
 20
-2355.362772070261
 30
0.0
 11
-386.6431750271583
 21
-2374.002800770261
 31
0.0
  0
LINE
  5
323E2
  8
回02-寸法
  6
CONTINUOUS
 62
     5
 10
-386.6431750271583
 20
-2345.112772070261
 30
0.0
 11
-386.6431750271583
 21
-2353.362772070261
 31
0.0
  0
INSERT
  5
323E3
  8
回02-寸法
  6
CONTINUOUS
 62
     5
  2
_OPEN
 10
-386.6431750271583
 20
-2345.112772070261
 30
0.0
 41
2.0
 42
2.0
 43
2.0
 50
270.0
  0
INSERT
  5
323E4
  8
回02-寸法
  6
CONTINUOUS
 62
     5
  2
_OPEN
 10
-386.6431750271583
 20
-2353.362772070261
 30
0.0
 41
2.0
 42
2.0
 43
2.0
 50
90.0
  0
INSERT
  5
323E5
  8
回02-寸法
  6
CONTINUOUS
 62
     5
 66
     1
  2
*X60
 10
0.0
 20
0.0
 30
0.0
  0
SEQEND
  5
330B9
  8
0
  6
CONTINUOUS
 62
     7
  0
POINT
  5
323E6
  8
DEFPOINTS
  6
CONTINUOUS
 62
     0
 10
-366.31548109657
 20
-2353.362772070261
 30
0.0
  0
POINT
  5
323E7
  8
DEFPOINTS
  6
CONTINUOUS
 62
     0
 10
-366.3155768202589
 20
-2345.112772070261
 30
0.0
  0
POINT
  5
323E8
  8
DEFPOINTS
  6
CONTINUOUS
 62
     0
 10
-386.6431750271583
 20
-2345.112772070261
 30
0.0
  0
ENDBLK
  5
32158
  8
0
 62
     7
  0
BLOCK
  8
0
  2
*X40
 70
     1
 10
0.0
 20
0.0
 30
0.0
  3
*X40
  1

  0
SOLID
  5
3300F
  8
回02-寸法
  6
CONTINUOUS
 62
     5
 10
-304.631285675722
 20
-2422.224109158022
 30
0.0
 11
-304.192636764359
 21
-2424.203679374931
 31
0.0
 12
-305.2495976968078
 22
-2422.473377465324
 32
0.0
 13
-305.2495976968078
 23
-2422.473377465324
 33
0.0
  0
LINE
  5
33010
  8
回02-寸法
  6
CONTINUOUS
 62
     5
 10
-304.9404416862649
 20
-2422.348743311673
 30
0.0
 11
-306.5939399500797
 21
-2418.247227702139
 31
0.0
  0
LINE
  5
33011
  8
回02-寸法
  6
CONTINUOUS
 62
     5
 10
-306.5939399500797
 20
-2418.247227702139
 30
0.0
 11
-309.0939399500797
 21
-2418.247227702139
 31
0.0
  0
ENDBLK
  5
33013
  8
0
  6
CONTINUOUS
 62
     7
  0
BLOCK
  8
0
  2
*X41
 70
     1
 10
0.0
 20
0.0
 30
0.0
  3
*X41
  1

  0
LINE
  5
3301B
  8
回03-記事
  6
CONTINUOUS
 62
     7
 10
-298.7631140740618
 20
-2430.735566201596
 30
0.0
 11
-296.681957246599
 21
-2428.654409374133
 31
0.0
  0
LINE
  5
3301C
  8
回03-記事
  6
CONTINUOUS
 62
     7
 10
-298.7631140740615
 20
-2432.980630231863
 30
0.0
 11
-294.4368932163316
 21
-2428.654409374133
 31
0.0
  0
LINE
  5
3301D
  8
回03-記事
  6
CONTINUOUS
 62
     7
 10
-298.1918291860644
 20
-2434.654409374133
 30
0.0
 11
-292.1918291860645
 21
-2428.654409374133
 31
0.0
  0
LINE
  5
3301E
  8
回03-記事
  6
CONTINUOUS
 62
     7
 10
-295.9467651557968
 20
-2434.654409374133
 30
0.0
 11
-290.563114074062
 21
-2429.270758292398
 31
0.0
  0
LINE
  5
3301F
  8
回03-記事
  6
CONTINUOUS
 62
     7
 10
-293.7017011255295
 20
-2434.654409374133
 30
0.0
 11
-290.563114074062
 21
-2431.515822322666
 31
0.0
  0
LINE
  5
33020
  8
回03-記事
  6
CONTINUOUS
 62
     7
 10
-291.456637095262
 20
-2434.654409374133
 30
0.0
 11
-290.563114074062
 21
-2433.760886352934
 31
0.0
  0
ENDBLK
  5
33022
  8
0
  6
CONTINUOUS
 62
     7
  0
BLOCK
  8
0
  2
*X42
 70
     1
 10
0.0
 20
0.0
 30
0.0
  3
*X42
  1

  0
TEXT
  5
33025
  8
回03-記事
  6
CONTINUOUS
 62
     5
 10
-135.6737729760251
 20
-2442.690933089967
 30
0.0
 40
3.0
  1
φ0.05
  0
POLYLINE
  5
33026
  8
回03-記事
  6
BYBLOCK
 62
     5
 66
     1
 10
0.0
 20
0.0
 30
0.0
  0
VERTEX
  5
33027
  8
回03-記事
  6
BYBLOCK
 62
     5
 10
-138.1760471672569
 20
-2446.061383859399
 30
0.0
  0
VERTEX
  5
33029
  8
回03-記事
  6
BYBLOCK
 62
     5
 10
-135.1637729760251
 20
-2443.290933089967
 30
0.0
  0
SEQEND
  5
33028
  8
0
  6
CONTINUOUS
 62
     7
  0
SOLID
  5
3302A
  8
回03-記事
  6
CONTINUOUS
 62
     5
 10
-137.9503987791561
 20
-2446.306728343867
 30
0.0
 11
-139.648114074062
 21
-2447.415274188003
 31
0.0
 12
-138.4016955553577
 22
-2445.816039374931
 32
0.0
 13
-138.4016955553577
 23
-2445.816039374931
 33
0.0
  0
POLYLINE
  5
3302B
  8
回03-記事
  6
BYBLOCK
 62
     5
 66
     1
 10
0.0
 20
0.0
 30
0.0
  0
VERTEX
  5
3302C
  8
回03-記事
  6
BYBLOCK
 62
     5
 10
-135.1637729760251
 20
-2443.290933089967
 30
0.0
  0
VERTEX
  5
3302E
  8
回03-記事
  6
BYBLOCK
 62
     5
 10
-125.3237729760251
 20
-2443.290933089967
 30
0.0
  0
SEQEND
  5
3302D
  8
0
  6
CONTINUOUS
 62
     7
  0
ENDBLK
  5
33030
  8
0
  6
CONTINUOUS
 62
     7
  0
BLOCK
  8
0
  2
*X43
 70
     1
 10
0.0
 20
0.0
 30
0.0
  3
*X43
  1

  0
INSERT
  5
33049
  8
回02-寸法
  6
CONTINUOUS
 62
     5
  2
_OPEN
 10
-362.8106303368708
 20
-2342.663502926679
 30
0.0
 41
2.0
 42
2.0
 43
2.0
 50
296.3130785331265
  0
LINE
  5
3304A
  8
回02-寸法
 62
     5
 10
-363.6971819656265
 20
-2340.870732386551
 30
0.0
 11
-365.2581353150391
 21
-2337.714197461147
 31
0.0
  0
LINE
  5
3304B
  8
回02-寸法
 62
     5
 10
-365.2581353150391
 20
-2337.714197461147
 30
0.0
 11
-379.638135315039
 21
-2337.714197461147
 31
0.0
  0
ENDBLK
  5
3304D
  8
0
  6
CONTINUOUS
 62
     7
  0
BLOCK
  8
0
  2
*X44
 70
     1
 10
0.0
 20
0.0
 30
0.0
  3
*X44
  1

  0
SOLID
  5
33050
  8
回02-寸法
  6
CONTINUOUS
 62
     5
 10
-295.4448550396051
 20
-2416.76732064922
 30
0.0
 11
-294.5500394558758
 21
-2418.586775562711
 31
0.0
 12
-295.9865801151303
 22
-2417.155880023051
 32
0.0
 13
-295.9865801151303
 23
-2417.155880023051
 33
0.0
  0
LINE
  5
33051
  8
回02-寸法
  6
CONTINUOUS
 62
     5
 10
-295.7157175773677
 20
-2416.961600336135
 30
0.0
 11
-298.4023502747959
 21
-2413.215927476478
 31
0.0
  0
LINE
  5
33052
  8
回02-寸法
  6
CONTINUOUS
 62
     5
 10
-298.4023502747959
 20
-2413.215927476478
 30
0.0
 11
-300.9023502747959
 21
-2413.215927476478
 31
0.0
  0
ENDBLK
  5
33054
  8
0
  6
CONTINUOUS
 62
     7
  0
BLOCK
  8
0
  2
*X45
 70
     1
 10
0.0
 20
0.0
 30
0.0
  3
*X45
  1

  0
INSERT
  5
33057
  8
回03-記事
  6
CONTINUOUS
 62
     5
  2
_OPEN
 10
-296.1048528347928
 20
-2432.927499303437
 30
0.0
 41
2.0
 42
2.0
 43
2.0
 50
70.22821374870611
  0
LINE
  5
33058
  8
回03-記事
  6
CONTINUOUS
 62
     5
 10
-296.7814019708808
 20
-2434.809594217743
 30
0.0
 11
-305.9962039339662
 21
-2460.444290924844
 31
0.0
  0
LINE
  5
33059
  8
回03-記事
  6
CONTINUOUS
 62
     5
 10
-305.9962039339662
 20
-2460.444290924844
 30
0.0
 11
-351.6962039339662
 21
-2460.444290924844
 31
0.0
  0
ENDBLK
  5
3305B
  8
0
  6
CONTINUOUS
 62
     7
  0
BLOCK
  8
0
  2
*X46
 70
     1
 10
0.0
 20
0.0
 30
0.0
  3
*X46
  1

  0
INSERT
  5
3305E
  8
回03-記事
  6
CONTINUOUS
 62
     5
  2
_OPEN
 10
-372.0491527529402
 20
-2424.288218468225
 30
0.0
 41
2.0
 42
2.0
 43
2.0
 50
236.6265780747958
  0
LINE
  5
3305F
  8
回03-記事
  6
CONTINUOUS
 62
     5
 10
-370.9489659211564
 20
-2422.618012212947
 30
0.0
 11
-368.1889796204523
 21
-2418.428045335736
 31
0.0
  0
LINE
  5
33060
  8
回03-記事
  6
CONTINUOUS
 62
     5
 10
-368.1889796204523
 20
-2418.428045335736
 30
0.0
 11
-365.6889796204523
 21
-2418.428045335736
 31
0.0
  0
ENDBLK
  5
33062
  8
0
  6
CONTINUOUS
 62
     7
  0
BLOCK
  8
0
  2
*X47
 70
     1
 10
0.0
 20
0.0
 30
0.0
  3
*X47
  1

  0
INSERT
  5
33065
  8
回03-記事
  6
CONTINUOUS
 62
     5
  2
_OPEN
 10
-372.2429947331652
 20
-2538.197353058601
 30
0.0
 41
2.0
 42
2.0
 43
2.0
 50
327.2837633123714
  0
LINE
  5
33066
  8
回03-記事
  6
CONTINUOUS
 62
     5
 10
-373.9257100389241
 20
-2537.116395520228
 30
0.0
 11
-380.7075591314129
 21
-2532.759811328272
 31
0.0
  0
LINE
  5
33067
  8
回03-記事
  6
CONTINUOUS
 62
     5
 10
-380.7075591314129
 20
-2532.759811328272
 30
0.0
 11
-414.8175591314128
 21
-2532.759811328272
 31
0.0
  0
ENDBLK
  5
33069
  8
0
  6
CONTINUOUS
 62
     7
  0
BLOCK
  8
0
  2
*X48
 70
     1
 10
0.0
 20
0.0
 30
0.0
  3
*X48
  1

  0
TEXT
  5
3306D
  8
回02-寸法
  6
CONTINUOUS
 62
     5
 10
-197.847523522881
 20
-2324.444221618346
 30
0.0
 40
4.0
  1
217.46 
  0
TEXT
  5
3306E
  8
回02-寸法
  6
CONTINUOUS
 62
     5
 10
-180.6475235228809
 20
-2324.444221618346
 30
0.0
 40
3.0
  1
(ACTIVE AREA)
  0
ENDBLK
  5
33070
  8
0
  6
CONTINUOUS
 62
     7
  0
BLOCK
  8
0
  2
*X49
 70
     1
 10
0.0
 20
0.0
 30
0.0
  3
*X49
  1

  0
TEXT
  5
33073
  8
回02-寸法
  6
CONTINUOUS
 62
     5
 10
-198.747523522881
 20
-2316.997593361655
 30
0.0
 40
4.0
  1
221.46 
  0
TEXT
  5
33074
  8
回02-寸法
  6
CONTINUOUS
 62
     5
 10
-181.5475235228809
 20
-2316.997593361655
 30
0.0
 40
3.0
  1
(VIEWING AREA)
  0
ENDBLK
  5
33076
  8
0
  6
CONTINUOUS
 62
     7
  0
BLOCK
  8
0
  2
*X50
 70
     1
 10
0.0
 20
0.0
 30
0.0
  3
*X50
  1

  0
TEXT
  5
33079
  8
回02-寸法
  6
CONTINUOUS
 62
     5
 10
-185.523114074062
 20
-2303.966395049675
 30
0.0
 40
4.0
  1
234.7
  0
TEXT
  5
3307A
  8
回02-寸法
  6
CONTINUOUS
 62
     5
 10
-172.723114074062
 20
-2303.966395049675
 30
0.0
 40
2.799999999999999
  1
±0.3
  0
ENDBLK
  5
3307C
  8
0
  6
CONTINUOUS
 62
     7
  0
BLOCK
  8
0
  2
*X51
 70
     1
 10
0.0
 20
0.0
 30
0.0
  3
*X51
  1

  0
TEXT
  5
3307F
  8
回02-寸法
  6
CONTINUOUS
 62
     5
 10
-42.63972256250144
 20
-2447.589683636824
 30
0.0
 40
4.0
  1
136.1 
 50
90.0
  0
TEXT
  5
33080
  8
回02-寸法
  6
CONTINUOUS
 62
     5
 10
-42.63972256250144
 20
-2434.389683636823
 30
0.0
 40
3.0
  1
(ACTIVE AREA)
 50
90.0
  0
ENDBLK
  5
33082
  8
0
  6
CONTINUOUS
 62
     7
  0
BLOCK
  8
0
  2
*X52
 70
     1
 10
0.0
 20
0.0
 30
0.0
  3
*X52
  1

  0
TEXT
  5
33085
  8
回02-寸法
  6
CONTINUOUS
 62
     5
 10
-34.28849610238422
 20
-2448.689683636823
 30
0.0
 40
4.0
  1
140.1 
 50
90.0
  0
TEXT
  5
33086
  8
回02-寸法
  6
CONTINUOUS
 62
     5
 10
-34.28849610238422
 20
-2435.089683636824
 30
0.0
 40
3.0
  1
(VIEWING AREA)
 50
90.0
  0
ENDBLK
  5
33088
  8
0
  6
CONTINUOUS
 62
     7
  0
BLOCK
  8
0
  2
*X53
 70
     1
 10
0.0
 20
0.0
 30
0.0
  3
*X53
  1

  0
TEXT
  5
3308B
  8
回02-寸法
  6
CONTINUOUS
 62
     5
 10
-20.02540387204772
 20
-2434.665274387729
 30
0.0
 40
4.0
  1
153
 50
90.0
  0
TEXT
  5
3308C
  8
回02-寸法
  6
CONTINUOUS
 62
     5
 10
-20.02540387204772
 20
-2427.065274387729
 30
0.0
 40
2.799999999999999
  1
±0.3
 50
90.0
  0
ENDBLK
  5
3308E
  8
0
  6
CONTINUOUS
 62
     7
  0
BLOCK
  8
0
  2
*X54
 70
     1
 10
0.0
 20
0.0
 30
0.0
  3
*X54
  1

  0
TEXT
  5
33091
  8
回02-寸法
  6
CONTINUOUS
 62
     5
 10
-339.2331358294464
 20
-2396.999028718877
 30
0.0
 40
4.0
  1
80
  0
TEXT
  5
33092
  8
回02-寸法
  6
CONTINUOUS
 62
     5
 10
-333.6331358294464
 20
-2396.999028718877
 30
0.0
 40
2.799999999999999
  1
±1
  0
ENDBLK
  5
33094
  8
0
  6
CONTINUOUS
 62
     7
  0
BLOCK
  8
0
  2
*X55
 70
     1
 10
0.0
 20
0.0
 30
0.0
  3
*X55
  1

  0
TEXT
  5
33097
  8
回02-寸法
 62
     5
 10
-385.6065963337878
 20
-2418.212509501171
 30
0.0
 40
4.0
  1
6.25
 50
90.0
  0
TEXT
  5
33098
  8
回02-寸法
 62
     5
 10
-385.6065963337878
 20
-2408.61250950117
 30
0.0
 40
2.799999999999999
  1
±0.2
 50
90.0
  0
ENDBLK
  5
3309A
  8
0
  6
CONTINUOUS
 62
     7
  0
BLOCK
  8
0
  2
*X56
 70
     1
 10
0.0
 20
0.0
 30
0.0
  3
*X56
  1

  0
TEXT
  5
3309D
  8
回02-寸法
  6
CONTINUOUS
 62
     5
 10
-382.6692398510554
 20
-2564.815342957333
 30
0.0
 40
4.0
  1
0.3
 50
90.0
  0
TEXT
  5
3309E
  8
回02-寸法
  6
CONTINUOUS
 62
     5
 10
-383.2692398510553
 20
-2558.015342957333
 30
0.0
 40
2.799999999999999
  1
±0.05
 50
90.0
  0
ENDBLK
  5
330A0
  8
0
  6
CONTINUOUS
 62
     7
  0
BLOCK
  8
0
  2
*X57
 70
     1
 10
0.0
 20
0.0
 30
0.0
  3
*X57
  1

  0
TEXT
  5
330A3
  8
回02-寸法
  6
CONTINUOUS
 62
     5
 10
-394.8875129143102
 20
-2376.413134699874
 30
0.0
 40
4.0
  1
6.25
 50
90.0
  0
TEXT
  5
330A4
  8
回02-寸法
  6
CONTINUOUS
 62
     5
 10
-394.8875129143102
 20
-2366.813134699874
 30
0.0
 40
2.666799999999999
  1
±0.2
 50
90.0
  0
ENDBLK
  5
330A6
  8
0
  6
CONTINUOUS
 62
     7
  0
BLOCK
  8
0
  2
*X58
 70
     1
 10
0.0
 20
0.0
 30
0.0
  3
*X58
  1

  0
TEXT
  5
330A9
  8
回02-寸法
  6
CONTINUOUS
 62
     5
 10
-380.0873568991347
 20
-2374.263208632856
 30
0.0
 40
4.0
  1
1.25
 50
90.0
  0
TEXT
  5
330AA
  8
回02-寸法
  6
CONTINUOUS
 62
     5
 10
-380.0873568991347
 20
-2365.463208632856
 30
0.0
 40
3.33332
  1
±0.2
 50
90.0
  0
ENDBLK
  5
330AC
  8
0
  6
CONTINUOUS
 62
     7
  0
BLOCK
  8
0
  2
*X59
 70
     1
 10
0.0
 20
0.0
 30
0.0
  3
*X59
  1

  0
TEXT
  5
330AF
  8
回02-寸法
  6
CONTINUOUS
 62
     5
 10
-372.6458618462093
 20
-2378.26607807026
 30
0.0
 40
4.0
  1
4-0.7
 50
90.0
  0
TEXT
  5
330B0
  8
回02-寸法
  6
CONTINUOUS
 62
     5
 10
-372.6458618462093
 20
-2365.46607807026
 30
0.0
 40
3.33332
  1
±0.1
 50
90.0
  0
ENDBLK
  5
330B2
  8
0
  6
CONTINUOUS
 62
     7
  0
BLOCK
  8
0
  2
*X60
 70
     1
 10
0.0
 20
0.0
 30
0.0
  3
*X60
  1

  0
TEXT
  5
330B5
  8
回02-寸法
  6
CONTINUOUS
 62
     5
 10
-387.1431750271586
 20
-2374.10280077026
 30
0.0
 40
4.0
  1
3.75
 50
90.0
  0
TEXT
  5
330B6
  8
回02-寸法
  6
CONTINUOUS
 62
     5
 10
-387.1431750271586
 20
-2364.50280077026
 30
0.0
 40
2.666679999999999
  1
±0.1
 50
90.0
  0
ENDBLK
  5
330B8
  8
0
  6
CONTINUOUS
 62
     7
  0
ENDSEC
  0
SECTION
  2
ENTITIES
  0
POLYLINE
  5
3034E
  8
回01-TP外形
  6
BYBLOCK
 62
     7
 66
     1
 10
0.0
 20
0.0
 30
0.0
  0
VERTEX
  5
32FE2
  8
回01-TP外形
  6
BYBLOCK
 62
     7
 10
-294.1631140740619
 20
-2417.404409374142
 30
0.0
  0
VERTEX
  5
32FE4
  8
回01-TP外形
  6
BYBLOCK
 62
     7
 10
-291.1631140740619
 20
-2417.404409374142
 30
0.0
  0
VERTEX
  5
32FE5
  8
回01-TP外形
  6
BYBLOCK
 62
     7
 10
-291.1631140740619
 20
-2426.904409374142
 30
0.0
  0
VERTEX
  5
32FE6
  8
回01-TP外形
  6
BYBLOCK
 62
     7
 10
-296.6631140740619
 20
-2426.904409374142
 30
0.0
 42
1.021970931653833
  0
VERTEX
  5
32FE7
  8
回01-TP外形
  6
BYBLOCK
 62
     7
 10
-296.6413895770557
 20
-2427.903937197421
 30
0.0
  0
VERTEX
  5
32FE8
  8
回01-TP外形
  6
BYBLOCK
 62
     7
 10
-291.1631140740619
 20
-2427.904409374142
 30
0.0
  0
VERTEX
  5
32FE9
  8
回01-TP外形
  6
BYBLOCK
 62
     7
 10
-291.1631140740619
 20
-2437.404409374142
 30
0.0
  0
VERTEX
  5
32FEA
  8
回01-TP外形
  6
BYBLOCK
 62
     7
 10
-294.1631140740619
 20
-2437.404409374142
 30
0.0
 42
0.4142135623730951
  0
VERTEX
  5
32FEB
  8
回01-TP外形
  6
BYBLOCK
 62
     7
 10
-296.1631140740619
 20
-2435.404409374142
 30
0.0
  0
VERTEX
  5
32FEC
  8
回01-TP外形
  6
BYBLOCK
 62
     7
 10
-298.8508703967218
 20
-2435.404409374142
 30
0.0
 42
-0.1982610926034393
  0
VERTEX
  5
32FED
  8
回01-TP外形
  6
BYBLOCK
 62
     7
 10
-299.5562027652395
 20
-2435.11328612642
 30
0.0
  0
VERTEX
  5
32FEE
  8
回01-TP外形
  6
BYBLOCK
 62
     7
 10
-303.8664830054177
 20
-2430.824557287443
 30
0.0
 42
0.1982460661155559
  0
VERTEX
  5
32FEF
  8
回01-TP外形
  6
BYBLOCK
 62
     7
 10
-304.5717575410745
 20
-2430.533434041393
 30
0.0
  0
VERTEX
  5
32FF0
  8
回01-TP外形
  6
BYBLOCK
 62
     7
 10
-374.1631575848296
 20
-2430.529409374142
 30
0.0
 42
-0.4142135623730951
  0
VERTEX
  5
32FF1
  8
回01-TP外形
  6
BYBLOCK
 62
     7
 10
-374.6631575848296
 20
-2430.029409374141
 30
0.0
  0
VERTEX
  5
32FF2
  8
回01-TP外形
  6
BYBLOCK
 62
     7
 10
-374.6631575848296
 20
-2424.779409374142
 30
0.0
 42
-0.4142135623730951
  0
VERTEX
  5
32FF3
  8
回01-TP外形
  6
BYBLOCK
 62
     7
 10
-374.1631575848296
 20
-2424.279409374141
 30
0.0
  0
VERTEX
  5
32FF4
  8
回01-TP外形
  6
BYBLOCK
 62
     7
 10
-304.5743766428395
 20
-2424.279409374141
 30
0.0
 42
0.1983816813358623
  0
VERTEX
  5
32FF5
  8
回01-TP外形
  6
BYBLOCK
 62
     7
 10
-303.8687153597484
 20
-2423.987958704496
 30
0.0
  0
VERTEX
  5
32FF6
  8
回01-TP外形
  6
BYBLOCK
 62
     7
 10
-299.5602583615528
 20
-2419.697062978197
 30
0.0
 42
-0.1982655609048175
  0
VERTEX
  5
32FF7
  8
回01-TP外形
  6
BYBLOCK
 62
     7
 10
-298.8550439824276
 20
-2419.405612408413
 30
0.0
  0
VERTEX
  5
32FF8
  8
回01-TP外形
  6
BYBLOCK
 62
     7
 10
-296.1622202661301
 20
-2419.404408974695
 30
0.0
 42
0.4140826732844626
  0
VERTEX
  5
32FF9
  8
回01-TP外形
  6
BYBLOCK
 62
     7
 10
-294.1631140740619
 20
-2417.404409174418
 30
0.0
  0
SEQEND
  5
32FE3
  8
0
  6
CONTINUOUS
 62
     7
  0
DIMENSION
  5
3034F
  8
回02-寸法
  6
CONTINUOUS
 62
     7
  2
*D1
 10
-66.94311407406212
 20
-2325.094615319133
 30
0.0
 11
-175.6731140740621
 21
-2322.519221618346
 31
0.0
 70
    32
  1
<> {\H0.75x;(ACTIVE AREA)}
  3
STANDARD
 13
-284.4031140740621
 23
-2359.365274188004
 33
0.0
 14
-66.94311407406212
 24
-2359.365274188004
 34
0.0
1001
ACAD
1000
DSTYLE
1002
{
1070
    41
1040
1.5
1070
    47
1040
0.3
1070
    48
1040
0.3
1070
   140
1040
4.0
1070
   141
1040
1.5
1070
   146
1040
0.7
1070
   283
1070
     0
1070
   288
1070
     0
1070
   341
1005
0
1070
   371
1070
    13
1070
   372
1070
    13
1002
}
  0
DIMENSION
  5
30350
  8
回02-寸法
  6
CONTINUOUS
 62
     7
  2
*D2
 10
-64.94311407406212
 20
-2317.647987062442
 30
0.0
 11
-175.6731140740621
 21
-2315.072593361655
 31
0.0
 70
    32
  1
<> {\H0.75x;(VIEWING AREA)}
  3
STANDARD
 13
-286.4031140740621
 23
-2357.365274188004
 33
0.0
 14
-64.94311407406212
 24
-2357.365274188004
 34
0.0
1001
ACAD
1000
DSTYLE
1002
{
1070
    41
1040
1.5
1070
    47
1040
0.3
1070
    48
1040
0.3
1070
   140
1040
4.0
1070
   141
1040
1.5
1070
   146
1040
0.7
1070
   283
1070
     0
1070
   288
1070
     0
1070
   341
1005
0
1070
   371
1070
    13
1070
   372
1070
    13
1002
}
  0
DIMENSION
  5
30351
  8
回02-寸法
  6
CONTINUOUS
 62
     7
  2
*D3
 10
-59.9631140740621
 20
-2304.466788750462
 30
0.0
 11
-175.673114074062
 21
-2304.466788750462
 31
0.0
 70
   160
  3
STANDARD
 13
-294.663114074062
 23
-2350.915274188003
 33
0.0
 14
-59.9631140740621
 24
-2350.915274188004
 34
0.0
1001
ACAD
1000
DSTYLE
1002
{
1070
    41
1040
1.5
1070
    47
1040
0.3
1070
    48
1040
0.3
1070
    71
1070
     1
1070
   140
1040
4.0
1070
   141
1040
1.5
1070
   146
1040
0.7
1070
   283
1070
     0
1070
   288
1070
     0
1070
   341
1005
0
1070
   371
1070
    13
1070
   372
1070
    13
1002
}
  0
DIMENSION
  5
30352
  8
回02-寸法
  6
CONTINUOUS
 62
     7
  2
*D4
 10
-41.98972256250101
 20
-2359.365274188005
 30
0.0
 11
-44.56472256250168
 21
-2427.415274188005
 31
0.0
 70
    32
  1
<> {\H0.75x;(ACTIVE AREA)}
  3
STANDARD
 13
-66.94311407406212
 23
-2495.465274188004
 33
0.0
 14
-66.94311407406212
 24
-2359.365274188004
 34
0.0
 50
90.0
1001
ACAD
1000
DSTYLE
1002
{
1070
    41
1040
1.5
1070
    47
1040
0.3
1070
    48
1040
0.3
1070
   140
1040
4.0
1070
   141
1040
1.5
1070
   146
1040
0.7
1070
   283
1070
     0
1070
   288
1070
     0
1070
   341
1005
0
1070
   371
1070
    13
1070
   372
1070
    13
1002
}
  0
DIMENSION
  5
30353
  8
回02-寸法
  6
CONTINUOUS
 62
     7
  2
*D5
 10
-33.63849610238374
 20
-2497.465274188005
 30
0.0
 11
-36.21349610238444
 21
-2427.415274188005
 31
0.0
 70
    32
  1
<> {\H0.75x;(VIEWING AREA)}
  3
STANDARD
 13
-64.94311407406212
 23
-2357.365274188004
 33
0.0
 14
-64.94311407406212
 24
-2497.465274188004
 34
0.0
 50
90.0
1001
ACAD
1000
DSTYLE
1002
{
1070
    41
1040
1.5
1070
    47
1040
0.3
1070
    48
1040
0.3
1070
   140
1040
4.0
1070
   141
1040
1.5
1070
   146
1040
0.7
1070
   283
1070
     0
1070
   288
1070
     0
1070
   341
1005
0
1070
   371
1070
    13
1070
   372
1070
    13
1002
}
  0
DIMENSION
  5
30354
  8
回02-寸法
  6
CONTINUOUS
 62
     7
  2
*D6
 10
-19.52540387204705
 20
-2350.915274188006
 30
0.0
 11
-19.52540387204772
 21
-2427.415274387728
 31
0.0
 70
   160
  3
STANDARD
 13
-59.9631140740621
 23
-2503.915274188003
 33
0.0
 14
-59.9631140740621
 24
-2350.915274188004
 34
0.0
 50
90.0
1001
ACAD
1000
DSTYLE
1002
{
1070
   147
1040
0.5
1070
    72
1070
     0
1070
    71
1070
     1
1070
    41
1040
1.5
1070
    47
1040
0.3
1070
    48
1040
0.3
1070
   140
1040
4.0
1070
   141
1040
1.5
1070
   146
1040
0.7
1070
   283
1070
     0
1070
   288
1070
     0
1070
   341
1005
0
1070
   371
1070
    13
1070
   372
1070
    13
1002
}
  0
DIMENSION
  5
30355
  8
回02-寸法
  6
CONTINUOUS
 62
     7
  2
*D7
 10
-294.663114074062
 20
-2325.094615319133
 30
0.0
 11
-303.4623266724873
 21
-2325.094615319133
 31
0.0
 70
   160
  3
STANDARD
 13
-284.4031140740621
 23
-2359.365274188004
 33
0.0
 14
-294.663114074062
 24
-2350.915274188003
 34
0.0
1001
ACAD
1000
DSTYLE
1002
{
1070
    41
1040
1.5
1070
    47
1040
0.3
1070
    48
1040
0.3
1070
   140
1040
4.0
1070
   141
1040
1.5
1070
   146
1040
0.7
1070
   283
1070
     0
1070
   288
1070
     0
1070
   341
1005
0
1070
   371
1070
    13
1070
   372
1070
    13
1002
}
  0
DIMENSION
  5
30356
  8
回02-寸法
  6
CONTINUOUS
 62
     7
  2
*D8
 10
-294.663114074062
 20
-2317.647987062442
 30
0.0
 11
-302.4623266724873
 21
-2317.647987062442
 31
0.0
 70
   160
  3
STANDARD
 13
-286.4031140740621
 23
-2357.365274188004
 33
0.0
 14
-294.663114074062
 24
-2350.915274188003
 34
0.0
1001
ACAD
1000
DSTYLE
1002
{
1070
    41
1040
1.5
1070
    47
1040
0.3
1070
    48
1040
0.3
1070
   140
1040
4.0
1070
   141
1040
1.5
1070
   146
1040
0.7
1070
   283
1070
     0
1070
   288
1070
     0
1070
   341
1005
0
1070
   371
1070
    13
1070
   372
1070
    13
1002
}
  0
DIMENSION
  5
30357
  8
回02-寸法
  6
CONTINUOUS
 62
     7
  2
*D9
 10
-41.98972256250065
 20
-2503.915274188005
 30
0.0
 11
-41.98972256250136
 21
-2512.215274188004
 31
0.0
 70
   160
  3
STANDARD
 13
-66.94311407406212
 23
-2495.465274188004
 33
0.0
 14
-59.9631140740621
 24
-2503.915274188003
 34
0.0
 50
90.0
1001
ACAD
1000
DSTYLE
1002
{
1070
    41
1040
1.5
1070
    47
1040
0.3
1070
    48
1040
0.3
1070
   140
1040
4.0
1070
   141
1040
1.5
1070
   146
1040
0.7
1070
   283
1070
     0
1070
   288
1070
     0
1070
   341
1005
0
1070
   371
1070
    13
1070
   372
1070
    13
1002
}
  0
DIMENSION
  5
30358
  8
回02-寸法
  6
CONTINUOUS
 62
     7
  2
*D10
 10
-33.63849610238488
 20
-2503.915274188005
 30
0.0
 11
-36.13849610238558
 21
-2512.017801939849
 31
0.0
 70
    32
  3
STANDARD
 13
-64.94311407406212
 23
-2497.465274188004
 33
0.0
 14
-59.9631140740621
 24
-2503.915274188003
 34
0.0
 50
90.0
1001
ACAD
1000
DSTYLE
1002
{
1070
    41
1040
1.5
1070
    47
1040
0.3
1070
    48
1040
0.3
1070
   140
1040
4.0
1070
   141
1040
1.5
1070
   146
1040
0.7
1070
   283
1070
     0
1070
   288
1070
     0
1070
   341
1005
0
1070
   371
1070
    13
1070
   372
1070
    13
1002
}
  0
DIMENSION
  5
30359
  8
回02-寸法
  6
CONTINUOUS
 62
     7
  2
*D11
 10
-286.903114074062
 20
-2310.62280026981
 30
0.0
 11
-175.6731140740621
 21
-2308.122406569022
 31
0.0
 70
    32
  3
STANDARD
 13
-64.44311407406212
 23
-2356.565274188004
 33
0.0
 14
-286.903114074062
 24
-2356.565274188004
 34
0.0
1001
ACAD
1000
DSTYLE
1002
{
1070
    41
1040
1.5
1070
    47
1040
0.3
1070
    48
1040
0.3
1070
   140
1040
4.0
1070
   141
1040
1.5
1070
   146
1040
0.7
1070
   283
1070
     0
1070
   288
1070
     0
1070
   341
1005
0
1070
   371
1070
    13
1070
   372
1070
    13
1002
}
  0
DIMENSION
  5
3035A
  8
回02-寸法
  6
CONTINUOUS
 62
     7
  2
*D12
 10
-26.64943241994736
 20
-2498.265274188005
 30
0.0
 11
-29.14943241994805
 21
-2427.415274188005
 31
0.0
 70
    32
  3
STANDARD
 13
-64.44311407406212
 23
-2356.565274188004
 33
0.0
 14
-64.44311407406212
 24
-2498.265274188004
 34
0.0
 50
90.0
1001
ACAD
1000
DSTYLE
1002
{
1070
    41
1040
1.5
1070
    47
1040
0.3
1070
    48
1040
0.3
1070
   140
1040
4.0
1070
   141
1040
1.5
1070
   146
1040
0.7
1070
   283
1070
     0
1070
   288
1070
     0
1070
   341
1005
0
1070
   371
1070
    13
1070
   372
1070
    13
1002
}
  0
DIMENSION
  5
3035B
  8
回02-寸法
  6
CONTINUOUS
 62
     7
  2
*D13
 10
-26.6494324199474
 20
-2350.915274188006
 30
0.0
 11
-29.34943241994806
 21
-2341.616848991154
 31
0.0
 70
    32
  1
(<>)
  3
STANDARD
 13
-64.44311407406212
 23
-2356.565274188004
 33
0.0
 14
-59.9631140740621
 24
-2350.915274188004
 34
0.0
 50
90.0
1001
ACAD
1000
DSTYLE
1002
{
1070
    41
1040
1.5
1070
    47
1040
0.3
1070
    48
1040
0.3
1070
   140
1040
4.0
1070
   141
1040
1.5
1070
   146
1040
0.7
1070
   283
1070
     0
1070
   288
1070
     0
1070
   341
1005
0
1070
   371
1070
    13
1070
   372
1070
    13
1002
}
1001
ACADSTRINGINFO
1000
MIFCodePage
1070
     1
  0
DIMENSION
  5
3035C
  8
回02-寸法
  6
CONTINUOUS
 62
     7
  2
*D14
 10
-33.63849610238465
 20
-2350.915274188006
 30
0.0
 11
-36.33849610238531
 21
-2341.416848991155
 31
0.0
 70
    32
  1
(<>)
  3
STANDARD
 13
-64.94311407406212
 23
-2357.365274188004
 33
0.0
 14
-59.9631140740621
 24
-2350.915274188004
 34
0.0
 50
90.0
1001
ACAD
1000
DSTYLE
1002
{
1070
    41
1040
1.5
1070
    47
1040
0.3
1070
    48
1040
0.3
1070
   140
1040
4.0
1070
   141
1040
1.5
1070
   146
1040
0.7
1070
   283
1070
     0
1070
   288
1070
     0
1070
   341
1005
0
1070
   371
1070
    13
1070
   372
1070
    13
1002
}
  0
DIMENSION
  5
3035D
  8
回02-寸法
  6
CONTINUOUS
 62
     7
  2
*D15
 10
-41.98972256250093
 20
-2350.915274188006
 30
0.0
 11
-41.98972256250158
 21
-2341.016848991154
 31
0.0
 70
   160
  1
(<>)
  3
STANDARD
 13
-66.94311407406212
 23
-2359.365274188004
 33
0.0
 14
-59.9631140740621
 24
-2350.915274188004
 34
0.0
 50
90.0
1001
ACAD
1000
DSTYLE
1002
{
1070
    41
1040
1.5
1070
    47
1040
0.3
1070
    48
1040
0.3
1070
   140
1040
4.0
1070
   141
1040
1.5
1070
   146
1040
0.7
1070
   283
1070
     0
1070
   288
1070
     0
1070
   341
1005
0
1070
   371
1070
    13
1070
   372
1070
    13
1002
}
  0
DIMENSION
  5
3035E
  8
回02-寸法
  6
CONTINUOUS
 62
     7
  2
*D16
 10
-26.64943241994762
 20
-2503.915274188005
 30
0.0
 11
-29.35443241994832
 21
-2531.819486786429
 31
0.0
 70
    32
  1
<>(Insulation Area)
  3
STANDARD
 13
-64.44311407406212
 23
-2498.265274188004
 33
0.0
 14
-59.9631140740621
 24
-2503.915274188003
 34
0.0
 50
90.0
1001
ACAD
1000
DSTYLE
1002
{
1070
    41
1040
1.5
1070
    47
1040
0.3
1070
    48
1040
0.3
1070
   140
1040
4.0
1070
   141
1040
1.5
1070
   146
1040
0.7
1070
   283
1070
     0
1070
   288
1070
     0
1070
   341
1005
0
1070
   371
1070
    13
1070
   372
1070
    13
1002
}
1001
ACADSTRINGINFO
1000
MIFCodePage
1070
     1
  0
DIMENSION
  5
3035F
  8
回02-寸法
  6
CONTINUOUS
 62
     7
  2
*D17
 10
-59.9631140740621
 20
-2325.094615319133
 30
0.0
 11
-50.65770021622313
 21
-2325.094615319133
 31
0.0
 70
   160
  1
(<>)
  3
STANDARD
 13
-66.94311407406212
 23
-2359.365274188004
 33
0.0
 14
-59.9631140740621
 24
-2350.915274188004
 34
0.0
1001
ACAD
1000
DSTYLE
1002
{
1070
    41
1040
1.5
1070
    47
1040
0.3
1070
    48
1040
0.3
1070
   140
1040
4.0
1070
   141
1040
1.5
1070
   146
1040
0.7
1070
   283
1070
     0
1070
   288
1070
     0
1070
   341
1005
0
1070
   371
1070
    13
1070
   372
1070
    13
1002
}
  0
DIMENSION
  5
30360
  8
回02-寸法
  6
CONTINUOUS
 62
     7
  2
*D18
 10
-59.9631140740621
 20
-2317.647987062442
 30
0.0
 11
-50.45770021622316
 21
-2314.947020344403
 31
0.0
 70
    32
  1
(<>)
  3
STANDARD
 13
-64.94311407406212
 23
-2357.365274188004
 33
0.0
 14
-59.9631140740621
 24
-2350.915274188004
 34
0.0
1001
ACAD
1000
DSTYLE
1002
{
1070
    41
1040
1.5
1070
    47
1040
0.3
1070
    48
1040
0.3
1070
   140
1040
4.0
1070
   141
1040
1.5
1070
   146
1040
0.7
1070
   283
1070
     0
1070
   288
1070
     0
1070
   341
1005
0
1070
   371
1070
    13
1070
   372
1070
    13
1002
}
  0
DIMENSION
  5
30361
  8
回02-寸法
  6
CONTINUOUS
 62
     7
  2
*D19
 10
-59.9631140740621
 20
-2310.62280026981
 30
0.0
 11
-50.26468887721171
 21
-2307.92280026981
 31
0.0
 70
    32
  1
(<>)
  3
STANDARD
 13
-64.44311407406212
 23
-2356.565274188004
 33
0.0
 14
-59.9631140740621
 24
-2350.915274188004
 34
0.0
1001
ACAD
1000
DSTYLE
1002
{
1070
    41
1040
1.5
1070
    47
1040
0.3
1070
    48
1040
0.3
1070
   140
1040
4.0
1070
   141
1040
1.5
1070
   146
1040
0.7
1070
   283
1070
     0
1070
   288
1070
     0
1070
   341
1005
0
1070
   371
1070
    13
1070
   372
1070
    13
1002
}
1001
ACADSTRINGINFO
1000
MIFCodePage
1070
     1
  0
DIMENSION
  5
30362
  8
回02-寸法
  6
CONTINUOUS
 62
     7
  2
*D20
 10
-294.663114074062
 20
-2310.62280026981
 30
0.0
 11
-322.5673266724872
 21
-2307.91780026981
 31
0.0
 70
    32
  1
<>(Insulation Area)
  3
STANDARD
 13
-286.903114074062
 23
-2356.565274188004
 33
0.0
 14
-294.663114074062
 24
-2350.915274188003
 34
0.0
1001
ACAD
1000
DSTYLE
1002
{
1070
    41
1040
1.5
1070
    47
1040
0.3
1070
    48
1040
0.3
1070
   140
1040
4.0
1070
   141
1040
1.5
1070
   146
1040
0.7
1070
   283
1070
     0
1070
   288
1070
     0
1070
   341
1005
0
1070
   371
1070
    13
1070
   372
1070
    13
1002
}
1001
ACADSTRINGINFO
1000
MIFCodePage
1070
     1
  0
LINE
  5
30363
  8
回01-TP外形
  6
CONTINUOUS
 62
     7
 10
-294.1631140740624
 20
-2534.197353058602
 30
0.0
 11
-60.46311407406211
 21
-2534.197353058602
 31
0.0
  0
LINE
  5
30364
  8
回01-TP外形
  6
CONTINUOUS
 62
     7
 10
-294.6631140740624
 20
-2547.197353058602
 30
0.0
 11
-59.9631140740621
 21
-2547.197353058602
 31
0.0
  0
LINE
  5
30365
  8
回01-TP外形
  6
CONTINUOUS
 62
     7
 10
-374.6631140740624
 20
-2538.197353058602
 30
0.0
 11
-60.46311407406199
 21
-2538.197353058602
 31
0.0
  0
LINE
  5
30366
  8
回01-TP外形
  6
CONTINUOUS
 62
     7
 10
-374.6631140740624
 20
-2541.197353058601
 30
0.0
 11
-59.9631140740621
 21
-2541.197353058601
 31
0.0
  0
DIMENSION
  5
30367
  8
回02-寸法
  6
CONTINUOUS
 62
     7
  2
*D30
 10
-364.6631140740624
 20
-2554.151159200048
 30
0.0
 11
-356.764688877212
 21
-2554.151159200048
 31
0.0
 70
   160
  1
(<>)
  3
STANDARD
 13
-374.6631575848296
 23
-2545.197353058601
 33
0.0
 14
-364.6631140740624
 24
-2545.197353058602
 34
0.0
1001
ACAD
1000
DSTYLE
1002
{
1070
   140
1040
4.0
1070
   371
1070
    13
1070
   372
1070
    13
1002
}
  0
LINE
  5
30368
  8
回01-TP外形
  6
CONTINUOUS
 62
     7
 10
-374.6631140740624
 20
-2545.197353058602
 30
0.0
 11
-364.6631140740624
 21
-2545.197353058602
 31
0.0
  0
DIMENSION
  5
30369
  8
回02-寸法
  6
CONTINUOUS
 62
     7
  2
*D31
 10
-369.6631140740624
 20
-2530.916169168979
 30
0.0
 11
-361.7802713615877
 21
-2530.916169168979
 31
0.0
 70
   160
  3
STANDARD
 13
-374.6631140740624
 23
-2538.197353058602
 33
0.0
 14
-369.6631140740624
 24
-2538.197353058602
 34
0.0
1001
ACAD
1000
DSTYLE
1002
{
1070
   140
1040
4.0
1070
   371
1070
    13
1070
   372
1070
    13
1002
}
  0
DIMENSION
  5
3036A
  8
回02-寸法
  6
CONTINUOUS
 62
     7
  2
*D32
 10
-382.1692398510545
 20
-2545.197353058602
 30
0.0
 11
-382.1692398510552
 21
-2556.986917760483
 31
0.0
 70
   160
  1
0.3{\H0.7x;±0.05}
  3
STANDARD
 13
-374.6631140740624
 23
-2538.197353058602
 33
0.0
 14
-374.6631575848296
 24
-2545.197353058601
 34
0.0
 50
90.0
1001
ACADSTRINGINFO
1000
MIFCodePage
1070
     1
1001
ACAD
1000
DSTYLE
1002
{
1070
   140
1040
4.0
1070
   371
1070
    13
1070
   372
1070
    13
1002
}
  0
TEXT
  5
3036B
  8
回03-記事
  6
CONTINUOUS
 62
     7
 10
-359.915128354412
 20
-2547.587899337078
 30
0.0
 40
5.0
  1
4
  0
LINE
  5
3036C
  8
回01-TP外形
  6
CONTINUOUS
 62
     7
 10
-364.6631140740624
 20
-2545.197353058602
 30
0.0
 11
-364.6631140740624
 21
-2541.197353058601
 31
0.0
  0
TEXT
  5
3036D
  8
回03-記事
  6
CONTINUOUS
 62
     7
 10
-306.6375901091469
 20
-2533.761197479157
 30
0.0
 40
5.0
  1
5
  0
TEXT
  5
3036E
  8
回03-記事
  6
CONTINUOUS
 62
     7
 10
-308.7429831412994
 20
-2551.504025623199
 30
0.0
 40
5.0
  1
3
  0
LINE
  5
3036F
  8
回03-記事
  6
CONTINUOUS
 62
     7
 10
-311.7176281504655
 20
-2539.859298527958
 30
0.0
 11
-308.7130909570753
 21
-2545.720023612161
 31
0.0
  0
ARC
  5
30370
  8
回01-TP外形
  6
CONTINUOUS
 62
     7
 10
-280.1631140740624
 20
-2541.197353058601
 30
0.0
 40
0.5
 50
0.0
 51
180.0
  0
LINE
  5
30371
  8
回01-TP外形
  6
CONTINUOUS
 62
     7
 10
-291.1631140740619
 20
-2541.197353058601
 30
0.0
 11
-291.1631140740619
 21
-2538.197353058602
 31
0.0
  0
ARC
  5
30372
  8
回01-TP外形
  6
CONTINUOUS
 62
     7
 10
-284.1631140740624
 20
-2541.197353058601
 30
0.0
 40
0.5
 50
0.0
 51
180.0
  0
LINE
  5
30373
  8
回01-TP外形
  6
CONTINUOUS
 62
     7
 10
-294.6631140740624
 20
-2547.197353058602
 30
0.0
 11
-294.6631140740624
 21
-2541.197353058601
 31
0.0
  0
LINE
  5
30374
  8
回01-TP外形
  6
CONTINUOUS
 62
     7
 10
-294.1631140740624
 20
-2538.197353058602
 30
0.0
 11
-294.1631140740624
 21
-2534.197353058602
 31
0.0
  0
ARC
  5
30375
  8
回01-TP外形
  6
CONTINUOUS
 62
     7
 10
-260.1631140740624
 20
-2541.197353058601
 30
0.0
 40
0.5
 50
0.0
 51
180.0
  0
ARC
  5
30376
  8
回01-TP外形
  6
CONTINUOUS
 62
     7
 10
-268.1631140740624
 20
-2541.197353058601
 30
0.0
 40
0.5
 50
0.0
 51
180.0
  0
ARC
  5
30377
  8
回01-TP外形
  6
CONTINUOUS
 62
     7
 10
-264.1631140740624
 20
-2541.197353058601
 30
0.0
 40
0.5
 50
0.0
 51
180.0
  0
ARC
  5
30378
  8
回01-TP外形
  6
CONTINUOUS
 62
     7
 10
-276.1631140740624
 20
-2541.197353058601
 30
0.0
 40
0.5
 50
0.0
 51
180.0
  0
ARC
  5
30379
  8
回01-TP外形
  6
CONTINUOUS
 62
     7
 10
-272.1631140740624
 20
-2541.197353058601
 30
0.0
 40
0.5
 50
0.0
 51
180.0
  0
LINE
  5
3037A
  8
回03-記事
  6
CONTINUOUS
 62
     7
 10
-247.7447326226188
 20
-2535.882625500295
 30
0.0
 11
-253.0550108479915
 21
-2530.012703841013
 31
0.0
  0
ARC
  5
3037B
  8
回01-TP外形
  6
CONTINUOUS
 62
     7
 10
-248.1631140740624
 20
-2541.197353058601
 30
0.0
 40
0.5
 50
0.0
 51
180.0
  0
ARC
  5
3037C
  8
回01-TP外形
  6
CONTINUOUS
 62
     7
 10
-252.1631140740624
 20
-2541.197353058601
 30
0.0
 40
0.5
 50
0.0
 51
180.0
  0
ARC
  5
3037D
  8
回01-TP外形
  6
CONTINUOUS
 62
     7
 10
-244.1631140740624
 20
-2541.197353058601
 30
0.0
 40
0.5
 50
0.0
 51
180.0
  0
TEXT
  5
3037E
  8
回03-記事
  6
CONTINUOUS
 62
     7
 10
-256.939949821286
 20
-2528.866506964719
 30
0.0
 40
5.0
  1
1
  0
ARC
  5
3037F
  8
回01-TP外形
  6
CONTINUOUS
 62
     7
 10
-256.1631140740624
 20
-2541.197353058601
 30
0.0
 40
0.5
 50
0.0
 51
180.0
  0
ARC
  5
30380
  8
回01-TP外形
  6
CONTINUOUS
 62
     7
 10
-228.1631140740624
 20
-2541.197353058601
 30
0.0
 40
0.5
 50
0.0
 51
180.0
  0
ARC
  5
30381
  8
回01-TP外形
  6
CONTINUOUS
 62
     7
 10
-232.1631140740624
 20
-2541.197353058601
 30
0.0
 40
0.5
 50
0.0
 51
180.0
  0
ARC
  5
30382
  8
回01-TP外形
  6
CONTINUOUS
 62
     7
 10
-224.1631140740624
 20
-2541.197353058601
 30
0.0
 40
0.5
 50
0.0
 51
180.0
  0
ARC
  5
30383
  8
回01-TP外形
  6
CONTINUOUS
 62
     7
 10
-236.1631140740624
 20
-2541.197353058601
 30
0.0
 40
0.5
 50
0.0
 51
180.0
  0
ARC
  5
30384
  8
回01-TP外形
  6
CONTINUOUS
 62
     7
 10
-240.1631140740624
 20
-2541.197353058601
 30
0.0
 40
0.5
 50
0.0
 51
180.0
  0
ARC
  5
30385
  8
回01-TP外形
  6
CONTINUOUS
 62
     7
 10
-208.1631140740624
 20
-2541.197353058601
 30
0.0
 40
0.5
 50
0.0
 51
180.0
  0
ARC
  5
30386
  8
回01-TP外形
  6
CONTINUOUS
 62
     7
 10
-212.1631140740624
 20
-2541.197353058601
 30
0.0
 40
0.5
 50
0.0
 51
180.0
  0
ARC
  5
30387
  8
回01-TP外形
  6
CONTINUOUS
 62
     7
 10
-220.1631140740624
 20
-2541.197353058601
 30
0.0
 40
0.5
 50
0.0
 51
180.0
  0
ARC
  5
30388
  8
回01-TP外形
  6
CONTINUOUS
 62
     7
 10
-216.1631140740624
 20
-2541.197353058601
 30
0.0
 40
0.5
 50
0.0
 51
180.0
  0
ARC
  5
30389
  8
回01-TP外形
  6
CONTINUOUS
 62
     7
 10
-188.1631140740624
 20
-2541.197353058601
 30
0.0
 40
0.5
 50
0.0
 51
180.0
  0
ARC
  5
3038A
  8
回01-TP外形
  6
CONTINUOUS
 62
     7
 10
-192.1631140740624
 20
-2541.197353058601
 30
0.0
 40
0.5
 50
0.0
 51
180.0
  0
TEXT
  5
3038B
  8
回03-記事
  6
CONTINUOUS
 62
     7
 10
-192.0147335383794
 20
-2556.560753480111
 30
0.0
 40
5.0
  1
2
  0
ARC
  5
3038C
  8
回01-TP外形
  6
CONTINUOUS
 62
     7
 10
-200.1631140740624
 20
-2541.197353058601
 30
0.0
 40
0.5
 50
0.0
 51
180.0
  0
ARC
  5
3038D
  8
回01-TP外形
  6
CONTINUOUS
 62
     7
 10
-204.1631140740624
 20
-2541.197353058601
 30
0.0
 40
0.5
 50
0.0
 51
180.0
  0
ARC
  5
3038E
  8
回01-TP外形
  6
CONTINUOUS
 62
     7
 10
-196.1631140740623
 20
-2541.197353058601
 30
0.0
 40
0.5
 50
0.0
 51
180.0
  0
LINE
  5
3038F
  8
回03-記事
  6
CONTINUOUS
 62
     7
 10
-198.6895189627921
 20
-2545.333225479782
 30
0.0
 11
-192.7013337575213
 21
-2552.219095118554
 31
0.0
  0
ARC
  5
30390
  8
回01-TP外形
  6
CONTINUOUS
 62
     7
 10
-172.1631140740623
 20
-2541.197353058601
 30
0.0
 40
0.5
 50
0.0
 51
180.0
  0
ARC
  5
30391
  8
回01-TP外形
  6
CONTINUOUS
 62
     7
 10
-180.1631140740624
 20
-2541.197353058601
 30
0.0
 40
0.5
 50
0.0
 51
180.0
  0
ARC
  5
30392
  8
回01-TP外形
  6
CONTINUOUS
 62
     7
 10
-184.1631140740624
 20
-2541.197353058601
 30
0.0
 40
0.5
 50
0.0
 51
180.0
  0
ARC
  5
30393
  8
回01-TP外形
  6
CONTINUOUS
 62
     7
 10
-176.1631140740623
 20
-2541.197353058601
 30
0.0
 40
0.5
 50
0.0
 51
180.0
  0
ARC
  5
30394
  8
回01-TP外形
  6
CONTINUOUS
 62
     7
 10
-152.1631140740623
 20
-2541.197353058601
 30
0.0
 40
0.5
 50
0.0
 51
180.0
  0
ARC
  5
30395
  8
回01-TP外形
  6
CONTINUOUS
 62
     7
 10
-156.1631140740623
 20
-2541.197353058601
 30
0.0
 40
0.5
 50
0.0
 51
180.0
  0
ARC
  5
30396
  8
回01-TP外形
  6
CONTINUOUS
 62
     7
 10
-160.1631140740624
 20
-2541.197353058601
 30
0.0
 40
0.5
 50
0.0
 51
180.0
  0
ARC
  5
30397
  8
回01-TP外形
  6
CONTINUOUS
 62
     7
 10
-164.1631140740624
 20
-2541.197353058601
 30
0.0
 40
0.5
 50
0.0
 51
180.0
  0
ARC
  5
30398
  8
回01-TP外形
  6
CONTINUOUS
 62
     7
 10
-168.1631140740624
 20
-2541.197353058601
 30
0.0
 40
0.5
 50
0.0
 51
180.0
  0
ARC
  5
30399
  8
回01-TP外形
  6
CONTINUOUS
 62
     7
 10
-136.1631140740624
 20
-2541.197353058601
 30
0.0
 40
0.5
 50
0.0
 51
180.0
  0
ARC
  5
3039A
  8
回01-TP外形
  6
CONTINUOUS
 62
     7
 10
-140.1631140740624
 20
-2541.197353058601
 30
0.0
 40
0.5
 50
0.0
 51
180.0
  0
ARC
  5
3039B
  8
回01-TP外形
  6
CONTINUOUS
 62
     7
 10
-144.1631140740623
 20
-2541.197353058601
 30
0.0
 40
0.5
 50
0.0
 51
180.0
  0
ARC
  5
3039C
  8
回01-TP外形
  6
CONTINUOUS
 62
     7
 10
-148.1631140740623
 20
-2541.197353058601
 30
0.0
 40
0.5
 50
0.0
 51
180.0
  0
ARC
  5
3039D
  8
回01-TP外形
  6
CONTINUOUS
 62
     7
 10
-116.1631140740624
 20
-2541.197353058601
 30
0.0
 40
0.5
 50
0.0
 51
180.0
  0
ARC
  5
3039E
  8
回01-TP外形
  6
CONTINUOUS
 62
     7
 10
-124.1631140740623
 20
-2541.197353058601
 30
0.0
 40
0.5
 50
0.0
 51
180.0
  0
ARC
  5
3039F
  8
回01-TP外形
  6
CONTINUOUS
 62
     7
 10
-120.1631140740623
 20
-2541.197353058601
 30
0.0
 40
0.5
 50
0.0
 51
180.0
  0
ARC
  5
303A0
  8
回01-TP外形
  6
CONTINUOUS
 62
     7
 10
-132.1631140740624
 20
-2541.197353058601
 30
0.0
 40
0.5
 50
0.0
 51
180.0
  0
ARC
  5
303A1
  8
回01-TP外形
  6
CONTINUOUS
 62
     7
 10
-128.1631140740624
 20
-2541.197353058601
 30
0.0
 40
0.5
 50
0.0
 51
180.0
  0
ARC
  5
303A2
  8
回01-TP外形
  6
CONTINUOUS
 62
     7
 10
-104.1631140740624
 20
-2541.197353058601
 30
0.0
 40
0.5
 50
0.0
 51
180.0
  0
ARC
  5
303A3
  8
回01-TP外形
  6
CONTINUOUS
 62
     7
 10
-108.1631140740624
 20
-2541.197353058601
 30
0.0
 40
0.5
 50
0.0
 51
180.0
  0
ARC
  5
303A4
  8
回01-TP外形
  6
CONTINUOUS
 62
     7
 10
-100.1631140740623
 20
-2541.197353058601
 30
0.0
 40
0.5
 50
0.0
 51
180.0
  0
ARC
  5
303A5
  8
回01-TP外形
  6
CONTINUOUS
 62
     7
 10
-112.1631140740624
 20
-2541.197353058601
 30
0.0
 40
0.5
 50
0.0
 51
180.0
  0
ARC
  5
303A6
  8
回01-TP外形
  6
CONTINUOUS
 62
     7
 10
-88.16311407406237
 20
-2541.197353058601
 30
0.0
 40
0.5
 50
0.0
 51
180.0
  0
ARC
  5
303A7
  8
回01-TP外形
  6
CONTINUOUS
 62
     7
 10
-96.16311407406238
 20
-2541.197353058601
 30
0.0
 40
0.5
 50
0.0
 51
180.0
  0
ARC
  5
303A8
  8
回01-TP外形
  6
CONTINUOUS
 62
     7
 10
-92.16311407406237
 20
-2541.197353058601
 30
0.0
 40
0.5
 50
0.0
 51
180.0
  0
DIMENSION
  5
303A9
  8
回02-寸法
  6
CONTINUOUS
 62
     7
  2
*D27
 10
-51.58338803906824
 20
-2547.197353058604
 30
0.0
 11
-51.58338803906895
 21
-2560.068258570414
 31
0.0
 70
   160
  1
2.1±0.2
  3
STANDARD
 13
-60.46311407406256
 23
-2534.197353058602
 33
0.0
 14
-59.96311407406199
 24
-2547.197353058603
 34
0.0
 50
90.0
1001
ACAD
1000
DSTYLE
1002
{
1070
   372
1070
    13
1070
   371
1070
    13
1070
   140
1040
4.0
1002
}
1001
ACADSTRINGINFO
1000
MIFCodePage
1070
     1
  0
LINE
  5
303AA
  8
回01-TP外形
  6
CONTINUOUS
 62
     7
 10
-59.96311407406222
 20
-2547.197353058602
 30
0.0
 11
-59.96311407406222
 21
-2541.197353058601
 31
0.0
  0
LINE
  5
303AB
  8
回01-TP外形
  6
CONTINUOUS
 62
     7
 10
-64.44311407406212
 20
-2541.197353058601
 30
0.0
 11
-64.44311407406212
 21
-2538.197353058602
 31
0.0
  0
LINE
  5
303AF
  8
回01-TP外形
  6
CONTINUOUS
 62
     7
 10
-298.854597078463
 20
-2542.697353058601
 30
0.0
 11
-298.854597078463
 21
-2544.197353058601
 31
0.0
  0
LINE
  5
303B0
  8
回01-TP外形
  6
CONTINUOUS
 62
     7
 10
-298.854597078463
 20
-2544.197353058601
 30
0.0
 11
-296.1631140740624
 21
-2544.197353058601
 31
0.0
  0
LINE
  5
303B1
  8
回01-TP外形
  6
CONTINUOUS
 62
     7
 10
-291.1631140740624
 20
-2547.197353058602
 30
0.0
 11
-291.1631140740624
 21
-2548.697353058602
 31
0.0
  0
LINE
  5
303B2
  8
回01-TP外形
  6
CONTINUOUS
 62
     7
 10
-291.1631140740624
 20
-2548.697353058602
 30
0.0
 11
-296.1631140740624
 21
-2548.697353058602
 31
0.0
  0
LINE
  5
303B3
  8
回01-TP外形
  6
CONTINUOUS
 62
     7
 10
-296.1631140740624
 20
-2548.697353058602
 30
0.0
 11
-296.1631140740624
 21
-2544.197353058601
 31
0.0
  0
TEXT
  5
303B4
  8
回03-記事
  6
CONTINUOUS
 62
     7
 10
-290.9625146737328
 20
-2560.264697937888
 30
0.0
 40
5.0
  1
6
  0
LINE
  5
303B5
  8
回03-記事
  6
CONTINUOUS
 62
     7
 10
-293.9371596828989
 20
-2548.619970842648
 30
0.0
 11
-290.9326224895087
 21
-2554.480695926852
 31
0.0
  0
DIMENSION
  5
303B6
  8
回02-寸法
  6
CONTINUOUS
 62
     7
  2
*D28
 10
-59.9631140740621
 20
-2526.018981976975
 30
0.0
 11
-51.0646888772117
 21
-2523.318981976975
 31
0.0
 70
    32
  1
(<>)
  3
STANDARD
 13
-60.46311407406211
 23
-2534.197353058602
 33
0.0
 14
-59.9631140740621
 24
-2541.197353058601
 34
0.0
1001
ACAD
1000
DSTYLE
1002
{
1070
    47
1040
0.3
1070
    48
1040
0.3
1070
   140
1040
4.0
1070
   146
1040
0.7
1070
   283
1070
     0
1070
   288
1070
     0
1070
   341
1005
0
1070
   371
1070
    13
1070
   372
1070
    13
1002
}
  0
DIMENSION
  5
303B7
  8
回02-寸法
  6
CONTINUOUS
 62
     7
  2
*D29
 10
-294.1631140740624
 20
-2529.602252000443
 30
0.0
 11
-285.264688877212
 21
-2526.902252000443
 31
0.0
 70
    32
  1
(<>)
  3
STANDARD
 13
-294.6631140740624
 23
-2541.197353058601
 33
0.0
 14
-294.1631140740624
 24
-2534.197353058602
 34
0.0
1001
ACAD
1000
DSTYLE
1002
{
1070
    47
1040
0.3
1070
    48
1040
0.3
1070
   140
1040
4.0
1070
   146
1040
0.7
1070
   283
1070
     0
1070
   288
1070
     0
1070
   341
1005
0
1070
   371
1070
    13
1070
   372
1070
    13
1002
}
  0
LINE
  5
303B8
  8
回01-TP外形
  6
CONTINUOUS
 62
     7
 10
-286.903114074062
 20
-2538.197353058602
 30
0.0
 11
-286.903114074062
 21
-2541.197353058601
 31
0.0
  0
POLYLINE
  5
303B9
  8
回01-TP外形
  6
CONTINUOUS
 62
     7
 66
     1
 10
0.0
 20
0.0
 30
0.0
 70
     1
  0
VERTEX
  5
32FFA
  8
回01-TP外形
  6
CONTINUOUS
 62
     7
 10
-369.6631140740624
 20
-2538.197353058602
 30
0.0
  0
VERTEX
  5
32FFC
  8
回01-TP外形
  6
CONTINUOUS
 62
     7
 10
-294.1631140740624
 20
-2538.197353058602
 30
0.0
  0
VERTEX
  5
32FFD
  8
回01-TP外形
  6
CONTINUOUS
 62
     7
 10
-294.1631140740624
 20
-2536.697353058602
 30
0.0
  0
VERTEX
  5
32FFE
  8
回01-TP外形
  6
CONTINUOUS
 62
     7
 10
-369.6631140740624
 20
-2536.697353058602
 30
0.0
  0
SEQEND
  5
32FFB
  8
0
  6
CONTINUOUS
 62
     7
  0
LINE
  5
303BA
  8
回04-図面枠
 62
     7
 10
-433.9382120578775
 20
-2250.473791354266
 30
0.0
 11
-433.9382120578775
 21
-2635.473791354267
 31
0.0
  0
LINE
  5
303BB
  8
回04-図面枠
 62
     7
 10
-438.9382120578775
 20
-2640.473791354267
 30
0.0
 11
-438.9382120578775
 21
-2245.473791354266
 31
0.0
  0
LINE
  5
303BC
  8
回04-図面枠
 62
     7
 10
126.0617879421224
 20
-2250.473791354266
 30
0.0
 11
126.0617879421224
 21
-2635.473791354267
 31
0.0
  0
LINE
  5
303BD
  8
回04-図面枠
 62
     7
 10
131.0617879421224
 20
-2640.473791354267
 30
0.0
 11
131.0617879421224
 21
-2245.473791354266
 31
0.0
  0
LINE
  5
303BE
  8
回04-図面枠
 62
     7
 10
131.0617879421224
 20
-2640.473791354267
 30
0.0
 11
-438.9382120578775
 21
-2640.473791354267
 31
0.0
  0
LINE
  5
303BF
  8
回04-図面枠
 62
     7
 10
-433.9382120578775
 20
-2635.473791354267
 30
0.0
 11
126.0617879421224
 21
-2635.473791354267
 31
0.0
  0
TEXT
  5
303C0
  8
回04-図面枠
 62
     7
 10
-400.2088267522251
 20
-2640.101368228215
 30
0.0
 40
4.0
  1
A
  0
LINE
  5
303C1
  8
回04-図面枠
 62
     7
 10
-363.9382120578775
 20
-2635.473791354267
 30
0.0
 11
-363.9382120578775
 21
-2640.473791354267
 31
0.0
  0
TEXT
  5
303C2
  8
回04-図面枠
 62
     7
 10
-330.2088267522251
 20
-2640.101368228215
 30
0.0
 40
4.0
  1
B
  0
TEXT
  5
303C3
  8
回04-図面枠
 62
     7
 10
-437.9138627218019
 20
-2599.185104058407
 30
0.0
 40
4.0
  1
5
  0
LINE
  5
303C4
  8
回04-図面枠
 62
     7
 10
-433.9382120578775
 20
-2558.473791354267
 30
0.0
 11
-438.9382120578775
 21
-2558.473791354267
 31
0.0
  0
LINE
  5
303C5
  8
回04-図面枠
 62
     7
 10
-293.9382120578775
 20
-2635.473791354267
 30
0.0
 11
-293.9382120578775
 21
-2640.473791354267
 31
0.0
  0
TEXT
  5
303C6
  8
回04-図面枠
 62
     7
 10
-260.2088267522252
 20
-2640.101368228215
 30
0.0
 40
4.0
  1
C
  0
LINE
  5
303C7
  8
回04-図面枠
 62
     7
 10
-223.9382120578775
 20
-2635.473791354267
 30
0.0
 11
-223.9382120578775
 21
-2640.473791354267
 31
0.0
  0
TEXT
  5
303C8
  8
回04-図面枠
 62
     7
 10
-190.2088267522251
 20
-2640.101368228215
 30
0.0
 40
4.0
  1
D
  0
LINE
  5
303C9
  8
回04-図面枠
 62
     7
 10
-153.9382120578775
 20
-2635.473791354267
 30
0.0
 11
-153.9382120578775
 21
-2640.473791354267
 31
0.0
  0
TEXT
  5
303CC
  8
回04-図面枠
 62
     7
 10
19.79117324777485
 20
-2640.101368228215
 30
0.0
 40
4.0
  1
G
  0
TEXT
  5
303D9
  8
回04-図面枠
 62
     7
 10
-120.2088267522251
 20
-2640.101368228215
 30
0.0
 40
4.0
  1
E
  0
LINE
  5
303DA
  8
回04-図面枠
 62
     7
 10
-83.93821205787753
 20
-2635.473791354267
 30
0.0
 11
-83.93821205787753
 21
-2640.473791354267
 31
0.0
  0
TEXT
  5
303E0
  8
回04-図面枠
 62
     7
 10
-50.20882675222515
 20
-2640.101368228215
 30
0.0
 40
4.0
  1
F
  0
LINE
  5
303E1
  8
回04-図面枠
 62
     7
 10
-13.93821205787753
 20
-2635.473791354267
 30
0.0
 11
-13.93821205787753
 21
-2640.473791354267
 31
0.0
  0
LINE
  5
303EB
  8
回04-図面枠
 62
     7
 10
56.06178794212246
 20
-2635.473791354267
 30
0.0
 11
56.06178794212246
 21
-2640.473791354267
 31
0.0
  0
TEXT
  5
303EC
  8
回04-図面枠
 62
     7
 10
89.79117324777485
 20
-2640.101368228215
 30
0.0
 40
4.0
  1
H
  0
TEXT
  5
303F6
  8
回04-図面枠
 62
     7
 10
127.086137278198
 20
-2599.185104058407
 30
0.0
 40
4.0
  1
5
  0
LINE
  5
303F7
  8
回04-図面枠
 62
     7
 10
131.0617879421224
 20
-2558.473791354267
 30
0.0
 11
126.0617879421224
 21
-2558.473791354267
 31
0.0
  0
TEXT
  5
303FD
  8
回04-図面枠
 62
     7
 10
-437.9138627218019
 20
-2522.185104058407
 30
0.0
 40
4.0
  1
4
  0
LINE
  5
303FE
  8
回04-図面枠
 62
     7
 10
-433.9382120578775
 20
-2481.473791354267
 30
0.0
 11
-438.9382120578775
 21
-2481.473791354267
 31
0.0
  0
TEXT
  5
303FF
  8
回04-図面枠
 62
     7
 10
-437.8407706017208
 20
-2445.185104058407
 30
0.0
 40
4.0
  1
3
  0
LINE
  5
30400
  8
回04-図面枠
 62
     7
 10
-433.9382120578775
 20
-2404.473791354266
 30
0.0
 11
-438.9382120578775
 21
-2404.473791354266
 31
0.0
  0
TEXT
  5
30401
  8
回04-図面枠
 62
     7
 10
-437.83528975752
 20
-2368.185104058407
 30
0.0
 40
4.0
  1
2
  0
LINE
  5
30402
  8
回04-図面枠
 62
     7
 10
-433.9382120578775
 20
-2327.473791354266
 30
0.0
 11
-438.9382120578775
 21
-2327.473791354266
 31
0.0
  0
TEXT
  5
30403
  8
回04-図面枠
 62
     7
 10
-437.5337910542182
 20
-2291.185104058407
 30
0.0
 40
4.0
  1
1
  0
TEXT
  5
30404
  8
回04-図面枠
 62
     7
 10
127.086137278198
 20
-2522.185104058407
 30
0.0
 40
4.0
  1
4
  0
LINE
  5
30405
  8
回04-図面枠
 62
     7
 10
131.0617879421224
 20
-2481.473791354267
 30
0.0
 11
126.0617879421224
 21
-2481.473791354267
 31
0.0
  0
TEXT
  5
30406
  8
回04-図面枠
 62
     7
 10
127.1592293982792
 20
-2445.185104058407
 30
0.0
 40
4.0
  1
3
  0
LINE
  5
30407
  8
回04-図面枠
 62
     7
 10
131.0617879421224
 20
-2404.473791354266
 30
0.0
 11
126.0617879421224
 21
-2404.473791354266
 31
0.0
  0
TEXT
  5
30408
  8
回04-図面枠
 62
     7
 10
127.1647102424799
 20
-2368.185104058407
 30
0.0
 40
4.0
  1
2
  0
LINE
  5
30409
  8
回04-図面枠
 62
     7
 10
131.0617879421224
 20
-2327.473791354266
 30
0.0
 11
126.0617879421224
 21
-2327.473791354266
 31
0.0
  0
TEXT
  5
3040A
  8
回04-図面枠
 62
     7
 10
127.4662089457818
 20
-2291.185104058407
 30
0.0
 40
4.0
  1
1
  0
LINE
  5
3040B
  8
回04-図面枠
 62
     7
 10
-433.9382120578775
 20
-2250.473791354266
 30
0.0
 11
126.0617879421224
 21
-2250.473791354266
 31
0.0
  0
LINE
  5
3040C
  8
回04-図面枠
 62
     7
 10
131.0617879421224
 20
-2245.473791354266
 30
0.0
 11
-438.9382120578775
 21
-2245.473791354266
 31
0.0
  0
TEXT
  5
3040D
  8
回04-図面枠
 62
     7
 10
-400.2088267522251
 20
-2250.101368228215
 30
0.0
 40
4.0
  1
A
  0
LINE
  5
3040E
  8
回04-図面枠
 62
     7
 10
-363.9382120578775
 20
-2245.473791354266
 30
0.0
 11
-363.9382120578775
 21
-2250.473791354266
 31
0.0
  0
TEXT
  5
3040F
  8
回04-図面枠
 62
     7
 10
-330.2088267522251
 20
-2250.101368228215
 30
0.0
 40
4.0
  1
B
  0
LINE
  5
30410
  8
回04-図面枠
 62
     7
 10
-293.9382120578775
 20
-2245.473791354266
 30
0.0
 11
-293.9382120578775
 21
-2250.473791354266
 31
0.0
  0
TEXT
  5
30411
  8
回04-図面枠
 62
     7
 10
-260.2088267522252
 20
-2250.101368228215
 30
0.0
 40
4.0
  1
C
  0
LINE
  5
30412
  8
回04-図面枠
 62
     7
 10
-223.9382120578775
 20
-2245.473791354266
 30
0.0
 11
-223.9382120578775
 21
-2250.473791354266
 31
0.0
  0
TEXT
  5
30413
  8
回04-図面枠
 62
     7
 10
-190.2088267522251
 20
-2250.101368228215
 30
0.0
 40
4.0
  1
D
  0
LINE
  5
30414
  8
回04-図面枠
 62
     7
 10
-153.9382120578775
 20
-2245.473791354266
 30
0.0
 11
-153.9382120578775
 21
-2250.473791354266
 31
0.0
  0
TEXT
  5
30415
  8
回04-図面枠
 62
     7
 10
19.79117324777485
 20
-2250.101368228215
 30
0.0
 40
4.0
  1
G
  0
TEXT
  5
30416
  8
回04-図面枠
 62
     7
 10
-120.2088267522251
 20
-2250.101368228215
 30
0.0
 40
4.0
  1
E
  0
LINE
  5
30417
  8
回04-図面枠
 62
     7
 10
-83.93821205787753
 20
-2245.473791354266
 30
0.0
 11
-83.93821205787753
 21
-2250.473791354266
 31
0.0
  0
TEXT
  5
30418
  8
回04-図面枠
 62
     7
 10
-50.20882675222515
 20
-2250.101368228215
 30
0.0
 40
4.0
  1
F
  0
LINE
  5
30419
  8
回04-図面枠
 62
     7
 10
-13.93821205787753
 20
-2245.473791354266
 30
0.0
 11
-13.93821205787753
 21
-2250.473791354266
 31
0.0
  0
LINE
  5
3041A
  8
回04-図面枠
 62
     7
 10
56.06178794212246
 20
-2245.473791354266
 30
0.0
 11
56.06178794212246
 21
-2250.473791354266
 31
0.0
  0
TEXT
  5
3041B
  8
回04-図面枠
 62
     7
 10
89.79117324777485
 20
-2250.101368228215
 30
0.0
 40
4.0
  1
H
  0
LINE
  5
3041C
  8
回03-記事
  6
CONTINUOUS
 62
     7
 10
-365.6213198381588
 20
-2543.248792261826
 30
0.0
 11
-359.2765949757909
 21
-2545.403320021478
 31
0.0
  0
LINE
  5
3041D
  8
回03-記事
  6
CONTINUOUS
 62
     7
 10
-302.486852774136
 20
-2541.773916882822
 30
0.0
 11
-304.542119485026
 21
-2534.311550199384
 31
0.0
  0
LINE
  5
3041E
  8
回03-記事
  6
CONTINUOUS
 62
     7
 10
-302.4094373242583
 20
-2537.197353058602
 30
0.0
 11
-304.542119485026
 21
-2534.311550199384
 31
0.0
  0
TEXT
  5
3041F
  8
回03-記事
  6
CONTINUOUS
 62
     7
 10
78.4775567852098
 20
-2341.096466633183
 30
0.0
 40
5.459999999999999
  1
XR
  0
LINE
  5
30420
  8
回03-記事
  6
CONTINUOUS
 62
     7
 10
78.18093860690783
 20
-2333.1332615559
 30
0.0
 11
83.25093860690754
 21
-2333.1332615559
 31
0.0
  0
LINE
  5
30421
  8
回03-記事
  6
CONTINUOUS
 62
     7
 10
26.31093860690726
 20
-2294.1332615559
 30
0.0
 11
83.25093860690754
 21
-2294.1332615559
 31
0.0
  0
LINE
  5
30422
  8
回03-記事
  6
CONTINUOUS
 62
     7
 10
26.31093860690726
 20
-2272.683261555901
 30
0.0
 11
104.7009386069076
 21
-2272.683261555901
 31
0.0
  0
LINE
  5
30423
  8
回03-記事
  6
CONTINUOUS
 62
     7
 10
59.07093860690793
 20
-2354.5832615559
 30
0.0
 11
104.7009386069076
 21
-2354.5832615559
 31
0.0
  0
LINE
  5
30425
  8
回03-記事
  6
CONTINUOUS
 62
     7
 10
26.31093860690726
 20
-2334.693261555901
 30
0.0
 11
43.7049386069084
 21
-2334.693261555901
 31
0.0
  0
LINE
  5
30426
  8
回03-記事
  6
CONTINUOUS
 62
     7
 10
26.31093860690726
 20
-2316.363261555901
 30
0.0
 11
59.07093860690793
 21
-2316.363261555901
 31
0.0
  0
TEXT
  5
30427
  8
回03-記事
  6
CONTINUOUS
 62
     7
 10
19.73272262356977
 20
-2318.736206337172
 30
0.0
 40
6.240000000000001
  1
2
  0
TEXT
  5
30428
  8
回03-記事
  6
CONTINUOUS
 62
     7
 10
20.21121391829206
 20
-2337.785461836089
 30
0.0
 40
6.240000000000001
  1
1
  0
TEXT
  5
30429
  8
回03-記事
  6
CONTINUOUS
 62
     7
 10
32.89800543185038
 20
-2332.406102225656
 30
0.0
 40
5.459999999999999
  1
XL
  0
TEXT
  5
3042A
  8
回03-記事
  6
CONTINUOUS
 62
     7
 10
44.72781044156795
 20
-2352.359183697242
 30
0.0
 40
5.459999999999999
  1
YD
  0
LINE
  5
3042B
  8
回03-記事
  6
CONTINUOUS
 62
     7
 10
56.26293860690771
 20
-2347.719261555901
 30
0.0
 11
59.07093860690793
 21
-2349.123261555901
 31
0.0
  0
LINE
  5
3042C
  8
回03-記事
  6
CONTINUOUS
 62
     7
 10
59.07093860690793
 20
-2354.5832615559
 30
0.0
 11
59.07093860690793
 21
-2349.123261555901
 31
0.0
  0
LINE
  5
3042D
  8
回03-記事
  6
CONTINUOUS
 62
     7
 10
62.34693860690822
 20
-2331.105261555901
 30
0.0
 11
65.15493860690821
 21
-2336.721261555901
 31
0.0
  0
TEXT
  5
3042E
  8
回03-記事
  6
CONTINUOUS
 62
     7
 10
60.60319850503652
 20
-2315.334807609421
 30
0.0
 40
5.459999999999999
  1
YU
  0
LINE
  5
3042F
  8
回03-記事
  6
CONTINUOUS
 62
     7
 10
59.07093860690793
 20
-2321.043261555901
 30
0.0
 11
61.87893860690815
 21
-2322.447261555901
 31
0.0
  0
LINE
  5
30430
  8
回03-記事
  6
CONTINUOUS
 62
     7
 10
59.53893860690801
 20
-2336.721261555901
 30
0.0
 11
62.34693860690822
 21
-2331.105261555901
 31
0.0
  0
LINE
  5
30431
  8
回03-記事
  6
CONTINUOUS
 62
     7
 10
59.07093860690793
 20
-2321.043261555901
 30
0.0
 11
59.07093860690793
 21
-2316.363261555901
 31
0.0
  0
LINE
  5
30432
  8
回03-記事
  6
CONTINUOUS
 62
     7
 10
53.92293860690756
 20
-2336.721261555901
 30
0.0
 11
56.73093860690778
 21
-2331.105261555901
 31
0.0
  0
LINE
  5
30433
  8
回03-記事
  6
CONTINUOUS
 62
     7
 10
45.49893860690781
 20
-2331.105261555901
 30
0.0
 11
48.30693860690804
 21
-2336.721261555901
 31
0.0
  0
LINE
  5
30434
  8
回03-記事
  6
CONTINUOUS
 62
     7
 10
43.7049386069084
 20
-2334.693261555901
 30
0.0
 11
45.49893860690781
 21
-2331.105261555901
 31
0.0
  0
LINE
  5
30435
  8
回03-記事
  6
CONTINUOUS
 62
     7
 10
48.30693860690804
 20
-2336.721261555901
 30
0.0
 11
51.11493860690734
 21
-2331.105261555901
 31
0.0
  0
LINE
  5
30436
  8
回03-記事
  6
CONTINUOUS
 62
     7
 10
51.11493860690734
 20
-2331.105261555901
 30
0.0
 11
53.92293860690756
 21
-2336.721261555901
 31
0.0
  0
LINE
  5
30437
  8
回03-記事
  6
CONTINUOUS
 62
     7
 10
56.26293860690771
 20
-2330.871261555901
 30
0.0
 11
61.87893860690815
 21
-2333.6792615559
 31
0.0
  0
LINE
  5
30438
  8
回03-記事
  6
CONTINUOUS
 62
     7
 10
56.26293860690771
 20
-2325.255261555901
 30
0.0
 11
61.87893860690815
 21
-2328.063261555901
 31
0.0
  0
LINE
  5
30439
  8
回03-記事
  6
CONTINUOUS
 62
     7
 10
56.26293860690771
 20
-2325.255261555901
 30
0.0
 11
61.87893860690815
 21
-2322.447261555901
 31
0.0
  0
LINE
  5
3043A
  8
回03-記事
  6
CONTINUOUS
 62
     7
 10
56.26293860690771
 20
-2330.871261555901
 30
0.0
 11
61.87893860690815
 21
-2328.063261555901
 31
0.0
  0
LINE
  5
3043B
  8
回03-記事
  6
CONTINUOUS
 62
     7
 10
56.26293860690771
 20
-2342.103261555901
 30
0.0
 11
61.87893860690815
 21
-2344.9112615559
 31
0.0
  0
LINE
  5
3043C
  8
回03-記事
  6
CONTINUOUS
 62
     7
 10
56.26293860690771
 20
-2347.719261555901
 30
0.0
 11
61.87893860690815
 21
-2344.9112615559
 31
0.0
  0
LINE
  5
3043D
  8
回03-記事
  6
CONTINUOUS
 62
     7
 10
56.26293860690771
 20
-2342.103261555901
 30
0.0
 11
61.87893860690815
 21
-2339.2952615559
 31
0.0
  0
LINE
  5
3043E
  8
回03-記事
  6
CONTINUOUS
 62
     7
 10
56.26293860690771
 20
-2336.487261555901
 30
0.0
 11
61.87893860690815
 21
-2339.2952615559
 31
0.0
  0
LINE
  5
3043F
  8
回03-記事
  6
CONTINUOUS
 62
     7
 10
56.26293860690771
 20
-2336.487261555901
 30
0.0
 11
61.87893860690815
 21
-2333.6792615559
 31
0.0
  0
LINE
  5
30440
  8
回03-記事
  6
CONTINUOUS
 62
     7
 10
56.73093860690778
 20
-2331.105261555901
 30
0.0
 11
59.53893860690801
 21
-2336.721261555901
 31
0.0
  0
LINE
  5
30441
  8
回03-記事
  6
CONTINUOUS
 62
     7
 10
70.77093860690798
 20
-2336.721261555901
 30
0.0
 11
73.57893860690819
 21
-2331.105261555901
 31
0.0
  0
LINE
  5
30442
  8
回03-記事
  6
CONTINUOUS
 62
     7
 10
65.15493860690821
 20
-2336.721261555901
 30
0.0
 11
67.96293860690775
 21
-2331.105261555901
 31
0.0
  0
LINE
  5
30443
  8
回03-記事
  6
CONTINUOUS
 62
     7
 10
67.96293860690775
 20
-2331.105261555901
 30
0.0
 11
70.77093860690798
 21
-2336.721261555901
 31
0.0
  0
LINE
  5
30444
  8
回03-記事
  6
CONTINUOUS
 62
     7
 10
76.38693860690819
 20
-2336.721261555901
 30
0.0
 11
78.18093860690783
 21
-2333.1332615559
 31
0.0
  0
LINE
  5
30445
  8
回03-記事
  6
CONTINUOUS
 62
     7
 10
73.57893860690819
 20
-2331.105261555901
 30
0.0
 11
76.38693860690819
 21
-2336.721261555901
 31
0.0
  0
TEXT
  5
30446
  8
回03-記事
  6
CONTINUOUS
 62
     7
 10
19.61265796464636
 20
-2275.543759690862
 30
0.0
 40
6.240000000000001
  1
4
  0
TEXT
  5
30447
  8
回03-記事
  6
CONTINUOUS
 62
     7
 10
19.96922767470164
 20
-2297.195160774722
 30
0.0
 40
6.240000000000001
  1
3
  0
LINE
  5
30448
  8
回03-記事
  6
CONTINUOUS
 62
     7
 10
104.7009386069076
 20
-2354.5832615559
 30
0.0
 11
104.7009386069076
 21
-2272.683261555901
 31
0.0
  0
LINE
  5
30449
  8
回03-記事
  6
CONTINUOUS
 62
     7
 10
83.25093860690754
 20
-2333.1332615559
 30
0.0
 11
83.25093860690754
 21
-2294.1332615559
 31
0.0
  0
LINE
  5
3049B
  8
回01-TP外形
  6
CONTINUOUS
 62
     7
 10
-374.6631575848296
 20
-2545.197353058601
 30
0.0
 11
-374.6631575848296
 21
-2538.197353058601
 31
0.0
  0
LINE
  5
304A4
  8
回01-TP外形
  6
CONTINUOUS
 62
     7
 10
-60.46311407406199
 20
-2541.197353058601
 30
0.0
 11
-60.46311407406199
 21
-2534.197353058602
 31
0.0
  0
POLYLINE
  5
304A6
  8
回01-TP外形
  6
CONTINUOUS
 62
     7
 66
     1
 10
0.0
 20
0.0
 30
0.0
 70
     1
  0
VERTEX
  5
32FFF
  8
回01-TP外形
  6
CONTINUOUS
 62
     7
 10
-284.4031140740621
 20
-2495.465274188004
 30
0.0
  0
VERTEX
  5
33001
  8
回01-TP外形
  6
CONTINUOUS
 62
     7
 10
-66.94311407406201
 20
-2495.465274188004
 30
0.0
  0
VERTEX
  5
33002
  8
回01-TP外形
  6
CONTINUOUS
 62
     7
 10
-66.94311407406201
 20
-2359.365274188004
 30
0.0
  0
VERTEX
  5
33003
  8
回01-TP外形
  6
CONTINUOUS
 62
     7
 10
-284.4031140740621
 20
-2359.365274188004
 30
0.0
  0
SEQEND
  5
33000
  8
0
  6
CONTINUOUS
 62
     7
  0
POLYLINE
  5
304A7
  8
回01-TP外形
  6
CONTINUOUS
 62
     7
 66
     1
 10
0.0
 20
0.0
 30
0.0
 70
     1
  0
VERTEX
  5
33004
  8
回01-TP外形
  6
CONTINUOUS
 62
     7
 10
-286.4031140740621
 20
-2497.465274188004
 30
0.0
  0
VERTEX
  5
33006
  8
回01-TP外形
  6
CONTINUOUS
 62
     7
 10
-64.943114074062
 20
-2497.465274188004
 30
0.0
  0
VERTEX
  5
33007
  8
回01-TP外形
  6
CONTINUOUS
 62
     7
 10
-64.943114074062
 20
-2357.365274188004
 30
0.0
  0
VERTEX
  5
33008
  8
回01-TP外形
  6
CONTINUOUS
 62
     7
 10
-286.4031140740621
 20
-2357.365274188004
 30
0.0
  0
SEQEND
  5
33005
  8
0
  6
CONTINUOUS
 62
     7
  0
POLYLINE
  5
304AA
  8
回01-TP外形
  6
CONTINUOUS
 62
     7
 66
     1
 10
0.0
 20
0.0
 30
0.0
 70
     1
  0
VERTEX
  5
33009
  8
回01-TP外形
  6
CONTINUOUS
 62
     7
 10
-294.663114074062
 20
-2503.915274188003
 30
0.0
  0
VERTEX
  5
3300B
  8
回01-TP外形
  6
CONTINUOUS
 62
     7
 10
-59.9631140740621
 20
-2503.915274188003
 30
0.0
  0
VERTEX
  5
3300C
  8
回01-TP外形
  6
CONTINUOUS
 62
     7
 10
-59.9631140740621
 20
-2350.915274188003
 30
0.0
  0
VERTEX
  5
3300D
  8
回01-TP外形
  6
CONTINUOUS
 62
     7
 10
-294.663114074062
 20
-2350.915274188003
 30
0.0
  0
SEQEND
  5
3300A
  8
0
  6
CONTINUOUS
 62
     7
  0
INSERT
  5
304B8
  8
回02-寸法
  6
CONTINUOUS
 62
     5
 66
     1
  2
*X40
 10
0.0
 20
0.0
 30
0.0
  0
SEQEND
  5
33014
  8
0
  6
CONTINUOUS
 62
     7
  0
TEXT
  5
304B9
  8
回02-寸法
  6
CONTINUOUS
 62
     5
 10
-319.6939399500798
 20
-2417.747227702139
 30
0.0
 40
4.0
  1
4-R1
1001
ACAD
1000
MTEXTBEGIN
1070
    73
1070
     1
1070
    44
1040
1.0
1070
    74
1070
     0
1000
MTEXTEND
  0
DIMENSION
  5
304BA
  8
回02-寸法
  6
CONTINUOUS
 62
     7
  2
*D21
 10
-322.2248019098648
 20
-2435.404409573858
 30
0.0
 11
-322.2248019098655
 21
-2444.71527438772
 31
0.0
 70
   160
  3
RUISIN
 13
-298.855043982427
 23
-2419.405612608128
 33
0.0
 14
-298.8508703967212
 24
-2435.404409573857
 34
0.0
 50
90.0
1001
ACAD
1000
DSTYLE
1002
{
1070
    47
1040
0.1
1070
    48
1040
0.1
1070
   140
1040
4.0
1070
   146
1040
0.7
1070
   283
1070
     0
1070
   341
1005
0
1070
   371
1070
     9
1070
   372
1070
     9
1002
}
  0
DIMENSION
  5
304BB
  8
回02-寸法
  6
CONTINUOUS
 62
     7
  2
*D22
 10
-385.1062026330039
 20
-2503.915274188005
 30
0.0
 11
-387.8071693510439
 21
-2467.222341880931
 31
0.0
 70
    32
  3
STANDARD
 13
-374.1631575612405
 23
-2430.529409573858
 33
0.0
 14
-294.663114074062
 24
-2503.915274188003
 34
0.0
 50
90.0
1001
ACAD
1000
DSTYLE
1002
{
1070
     3
1000
(<>)
1070
    41
1040
1.5
1070
    47
1040
0.3
1070
    48
1040
0.3
1070
   140
1040
4.0
1070
   141
1040
1.5
1070
   146
1040
0.7
1070
   283
1070
     0
1070
   288
1070
     0
1070
   341
1005
0
1070
   371
1070
    13
1070
   372
1070
    13
1002
}
  0
DIMENSION
  5
304BC
  8
回02-寸法
  6
CONTINUOUS
 62
     7
  2
*D23
 10
-374.6631575848301
 20
-2397.499028718877
 30
0.0
 11
-334.6631358294464
 21
-2394.999028718877
 31
0.0
 70
    32
  3
STANDARD
 13
-294.6631140740627
 23
-2418.727285029666
 33
0.0
 14
-374.6631575848301
 24
-2424.779409573857
 34
0.0
1001
ACAD
1000
DSTYLE
1002
{
1070
   147
1040
0.5
1070
    72
1070
     0
1070
    71
1070
     1
1070
    41
1040
1.5
1070
    47
1040
1.0
1070
    48
1040
1.0
1070
   140
1040
4.0
1070
   141
1040
1.5
1070
   146
1040
0.7
1070
   283
1070
     0
1070
   288
1070
     0
1070
   341
1005
0
1070
   371
1070
    13
1070
   372
1070
    13
1002
}
  0
DIMENSION
  5
304BD
  8
回02-寸法
  6
CONTINUOUS
 62
     7
  2
*D24
 10
-304.1590451940896
 20
-2450.400715661754
 30
0.0
 11
-312.3661519752762
 21
-2450.400715661754
 31
0.0
 70
   160
  3
KOUSA
 13
-294.6631575848309
 23
-2438.275477385723
 33
0.0
 14
-304.1590451940896
 24
-2430.622599030066
 34
0.0
1001
ACAD
1000
DSTYLE
1002
{
1070
    71
1070
     0
1070
   288
1070
     0
1070
   341
1005
0
1002
}
  0
DIMENSION
  5
304BE
  8
回02-寸法
 62
     7
  2
*D25
 10
-385.106202633
 20
-2430.529409573858
 30
0.0
 11
-385.1062026330005
 21
-2409.962199928186
 31
0.0
 70
   160
  1
<>
  3
KOUSA
 13
-374.1631575848292
 23
-2424.279409573857
 33
0.0
 14
-374.1631575848292
 24
-2430.529409573857
 34
0.0
 50
90.0
1001
ACAD
1000
DSTYLE
1002
{
1070
    47
1040
0.2
1070
   147
1040
0.5
1070
    48
1040
0.2
1070
    72
1070
     0
1070
    71
1070
     1
1070
   288
1070
     0
1070
   341
1005
0
1002
}
  0
DIMENSION
  5
304C3
  8
回02-寸法
  6
CONTINUOUS
 62
     7
  2
*D26
 10
-299.2636165866246
 20
-2442.737685724767
 30
0.0
 11
-309.3979668918367
 21
-2442.737685724767
 31
0.0
 70
   160
  3
KOUSA
 13
-294.6631140740623
 23
-2436.081533918324
 33
0.0
 14
-299.2636165866246
 24
-2435.315255654554
 34
0.0
1001
ACAD
1000
DSTYLE
1002
{
1070
    71
1070
     0
1070
   288
1070
     0
1070
   341
1005
0
1002
}
  0
POLYLINE
  5
3051C
  8
回03-記事
  6
CONTINUOUS
 62
     7
 66
     1
 10
0.0
 20
0.0
 30
0.0
 70
     1
1001
ACAD
1000
ASC_BOUNDS
1002
{
1070
    19
1005
3051D
1002
}
  0
VERTEX
  5
33015
  8
回03-記事
  6
CONTINUOUS
 62
     7
 10
-290.5631140740619
 20
-2428.654409374133
 30
0.0
  0
VERTEX
  5
33017
  8
回03-記事
  6
CONTINUOUS
 62
     7
 10
-298.7631140740617
 20
-2428.654409374133
 30
0.0
  0
VERTEX
  5
33018
  8
回03-記事
  6
CONTINUOUS
 62
     7
 10
-298.7631140740617
 20
-2434.654409374133
 30
0.0
  0
VERTEX
  5
33019
  8
回03-記事
  6
CONTINUOUS
 62
     7
 10
-290.5631140740619
 20
-2434.654409374133
 30
0.0
  0
SEQEND
  5
33016
  8
0
  6
CONTINUOUS
 62
     7
  0
INSERT
  5
3051D
  8
回03-記事
  6
CONTINUOUS
 62
     7
 66
     1
  2
*X41
 10
0.0
 20
0.0
 30
0.0
1001
ACAD
1000
HATCH
1002
{
1070
    19
1000
ANSI31
1040
0.5
1040
-0.0000000000000002
1000
ASC_BOUNDS
1070
     1
1070
     2
1070
     1
1005
3051C
1000
ASC_SEEDPOINT
1011
-45.45830703217268
1021
-2644.404077455303
1031
0.0
1000
R14_HATCH_DATA
1000
3051D
1011
1.0
1021
0.0
1031
0.0
1011
0.0
1021
1.0
1031
0.0
1011
0.0
1021
0.0
1031
1.0
1040
0.0
1010
0.0
1020
0.0
1030
1.0
1000
ANSI31
1070
     0
1070
     1
1071
        1
1071
        1
1071
        4
1070
     1
1040
-290.5631140740619
1040
-2428.654409374133
1040
-298.7631140740617
1040
-2428.654409374133
1070
     1
1040
-298.7631140740617
1040
-2428.654409374133
1040
-298.7631140740617
1040
-2434.654409374133
1070
     1
1040
-298.7631140740617
1040
-2434.654409374133
1040
-290.5631140740619
1040
-2434.654409374133
1070
     1
1040
-290.5631140740619
1040
-2434.654409374133
1040
-290.5631140740619
1040
-2428.654409374133
1071
        1
1005
3051C
1070
     0
1070
     1
1040
-0.0000000000000002
1040
0.5
1070
     0
1070
     1
1040
0.7853981633974481
1040
-45.45830703217268
1040
-2644.404077455303
1040
-1.122532015133643
1040
1.122532015133644
1070
     0
1071
        1
1040
-45.45830703217268
1040
-2644.404077455303
1040
0.0
1002
}
  0
SEQEND
  5
33023
  8
0
  6
CONTINUOUS
 62
     7
  0
TEXT
  5
30520
  8
回03-記事
  6
CONTINUOUS
 62
     7
 10
-375.1801295330529
 20
-2426.614900182113
 30
0.0
 40
3.0
  1
4
 50
90.0
  0
TEXT
  5
30521
  8
回03-記事
  6
CONTINUOUS
 62
     7
 10
-375.157236577264
 20
-2430.06700955231
 30
0.0
 40
3.0
  1
1
 50
90.0
  0
LINE
  5
30529
  8
回01-TP外形
  6
CENTER2
 62
     7
 10
-302.9770423345098
 20
-2427.415274188004
 30
0.0
 11
-57.94311407406201
 21
-2427.415274188004
 31
0.0
  0
LINE
  5
3052E
  8
回01-TP外形
  6
CENTER2
 62
     7
 10
-175.673114074062
 20
-2355.365274188004
 30
0.0
 11
-175.673114074062
 21
-2499.465274188004
 31
0.0
  0
CIRCLE
  5
30530
  8
回03-記事
  6
CONTINUOUS
 62
     7
 10
-175.648114074062
 20
-2463.415274188003
 30
0.0
 40
0.025
  0
CIRCLE
  5
30531
  8
回03-記事
  6
CONTINUOUS
 62
     7
 10
-175.648114074062
 20
-2459.415274188004
 30
0.0
 40
0.025
  0
CIRCLE
  5
30532
  8
回03-記事
  6
CONTINUOUS
 62
     7
 10
-175.648114074062
 20
-2455.415274188004
 30
0.0
 40
0.025
  0
CIRCLE
  5
30533
  8
回03-記事
  6
CONTINUOUS
 62
     7
 10
-175.648114074062
 20
-2451.415274188004
 30
0.0
 40
0.025
  0
CIRCLE
  5
30534
  8
回03-記事
  6
CONTINUOUS
 62
     7
 10
-175.648114074062
 20
-2447.415274188003
 30
0.0
 40
0.025
  0
CIRCLE
  5
30535
  8
回03-記事
  6
CONTINUOUS
 62
     7
 10
-175.648114074062
 20
-2443.415274188004
 30
0.0
 40
0.025
  0
CIRCLE
  5
30536
  8
回03-記事
  6
CONTINUOUS
 62
     7
 10
-175.648114074062
 20
-2439.415274188004
 30
0.0
 40
0.025
  0
CIRCLE
  5
30537
  8
回03-記事
  6
CONTINUOUS
 62
     7
 10
-175.648114074062
 20
-2435.415274188004
 30
0.0
 40
0.025
  0
CIRCLE
  5
30538
  8
回03-記事
  6
CONTINUOUS
 62
     7
 10
-175.648114074062
 20
-2431.415274188004
 30
0.0
 40
0.025
  0
CIRCLE
  5
30539
  8
回03-記事
  6
CONTINUOUS
 62
     7
 10
-175.648114074062
 20
-2427.415274188004
 30
0.0
 40
0.025
  0
CIRCLE
  5
3053A
  8
回03-記事
  6
CONTINUOUS
 62
     7
 10
-171.648114074062
 20
-2463.415274188003
 30
0.0
 40
0.025
  0
CIRCLE
  5
3053B
  8
回03-記事
  6
CONTINUOUS
 62
     7
 10
-171.648114074062
 20
-2459.415274188004
 30
0.0
 40
0.025
  0
CIRCLE
  5
3053C
  8
回03-記事
  6
CONTINUOUS
 62
     7
 10
-171.648114074062
 20
-2455.415274188004
 30
0.0
 40
0.025
  0
CIRCLE
  5
3053D
  8
回03-記事
  6
CONTINUOUS
 62
     7
 10
-171.648114074062
 20
-2451.415274188004
 30
0.0
 40
0.025
  0
CIRCLE
  5
3053E
  8
回03-記事
  6
CONTINUOUS
 62
     7
 10
-171.648114074062
 20
-2447.415274188003
 30
0.0
 40
0.025
  0
CIRCLE
  5
3053F
  8
回03-記事
  6
CONTINUOUS
 62
     7
 10
-171.648114074062
 20
-2443.415274188004
 30
0.0
 40
0.025
  0
CIRCLE
  5
30540
  8
回03-記事
  6
CONTINUOUS
 62
     7
 10
-171.648114074062
 20
-2439.415274188004
 30
0.0
 40
0.025
  0
CIRCLE
  5
30541
  8
回03-記事
  6
CONTINUOUS
 62
     7
 10
-171.648114074062
 20
-2435.415274188004
 30
0.0
 40
0.025
  0
CIRCLE
  5
30542
  8
回03-記事
  6
CONTINUOUS
 62
     7
 10
-171.648114074062
 20
-2431.415274188004
 30
0.0
 40
0.025
  0
CIRCLE
  5
30543
  8
回03-記事
  6
CONTINUOUS
 62
     7
 10
-171.648114074062
 20
-2427.415274188004
 30
0.0
 40
0.025
  0
CIRCLE
  5
30544
  8
回03-記事
  6
CONTINUOUS
 62
     7
 10
-167.648114074062
 20
-2463.415274188003
 30
0.0
 40
0.025
  0
CIRCLE
  5
30545
  8
回03-記事
  6
CONTINUOUS
 62
     7
 10
-167.648114074062
 20
-2459.415274188004
 30
0.0
 40
0.025
  0
CIRCLE
  5
30546
  8
回03-記事
  6
CONTINUOUS
 62
     7
 10
-167.648114074062
 20
-2455.415274188004
 30
0.0
 40
0.025
  0
CIRCLE
  5
30547
  8
回03-記事
  6
CONTINUOUS
 62
     7
 10
-167.648114074062
 20
-2451.415274188004
 30
0.0
 40
0.025
  0
CIRCLE
  5
30548
  8
回03-記事
  6
CONTINUOUS
 62
     7
 10
-167.648114074062
 20
-2447.415274188003
 30
0.0
 40
0.025
  0
CIRCLE
  5
30549
  8
回03-記事
  6
CONTINUOUS
 62
     7
 10
-167.648114074062
 20
-2443.415274188004
 30
0.0
 40
0.025
  0
CIRCLE
  5
3054A
  8
回03-記事
  6
CONTINUOUS
 62
     7
 10
-167.648114074062
 20
-2439.415274188004
 30
0.0
 40
0.025
  0
CIRCLE
  5
3054B
  8
回03-記事
  6
CONTINUOUS
 62
     7
 10
-167.648114074062
 20
-2435.415274188004
 30
0.0
 40
0.025
  0
CIRCLE
  5
3054C
  8
回03-記事
  6
CONTINUOUS
 62
     7
 10
-167.648114074062
 20
-2431.415274188004
 30
0.0
 40
0.025
  0
CIRCLE
  5
3054D
  8
回03-記事
  6
CONTINUOUS
 62
     7
 10
-167.648114074062
 20
-2427.415274188004
 30
0.0
 40
0.025
  0
CIRCLE
  5
3054E
  8
回03-記事
  6
CONTINUOUS
 62
     7
 10
-163.648114074062
 20
-2463.415274188003
 30
0.0
 40
0.025
  0
CIRCLE
  5
3054F
  8
回03-記事
  6
CONTINUOUS
 62
     7
 10
-163.648114074062
 20
-2459.415274188004
 30
0.0
 40
0.025
  0
CIRCLE
  5
30550
  8
回03-記事
  6
CONTINUOUS
 62
     7
 10
-163.648114074062
 20
-2455.415274188004
 30
0.0
 40
0.025
  0
CIRCLE
  5
30551
  8
回03-記事
  6
CONTINUOUS
 62
     7
 10
-163.648114074062
 20
-2451.415274188004
 30
0.0
 40
0.025
  0
CIRCLE
  5
30552
  8
回03-記事
  6
CONTINUOUS
 62
     7
 10
-163.648114074062
 20
-2447.415274188003
 30
0.0
 40
0.025
  0
CIRCLE
  5
30553
  8
回03-記事
  6
CONTINUOUS
 62
     7
 10
-163.648114074062
 20
-2443.415274188004
 30
0.0
 40
0.025
  0
CIRCLE
  5
30554
  8
回03-記事
  6
CONTINUOUS
 62
     7
 10
-163.648114074062
 20
-2439.415274188004
 30
0.0
 40
0.025
  0
CIRCLE
  5
30555
  8
回03-記事
  6
CONTINUOUS
 62
     7
 10
-163.648114074062
 20
-2435.415274188004
 30
0.0
 40
0.025
  0
CIRCLE
  5
30556
  8
回03-記事
  6
CONTINUOUS
 62
     7
 10
-163.648114074062
 20
-2431.415274188004
 30
0.0
 40
0.025
  0
CIRCLE
  5
30557
  8
回03-記事
  6
CONTINUOUS
 62
     7
 10
-163.648114074062
 20
-2427.415274188004
 30
0.0
 40
0.025
  0
CIRCLE
  5
30558
  8
回03-記事
  6
CONTINUOUS
 62
     7
 10
-159.648114074062
 20
-2463.415274188003
 30
0.0
 40
0.025
  0
CIRCLE
  5
30559
  8
回03-記事
  6
CONTINUOUS
 62
     7
 10
-159.648114074062
 20
-2459.415274188004
 30
0.0
 40
0.025
  0
CIRCLE
  5
3055A
  8
回03-記事
  6
CONTINUOUS
 62
     7
 10
-159.648114074062
 20
-2455.415274188004
 30
0.0
 40
0.025
  0
CIRCLE
  5
3055B
  8
回03-記事
  6
CONTINUOUS
 62
     7
 10
-159.648114074062
 20
-2451.415274188004
 30
0.0
 40
0.025
  0
CIRCLE
  5
3055C
  8
回03-記事
  6
CONTINUOUS
 62
     7
 10
-159.648114074062
 20
-2447.415274188003
 30
0.0
 40
0.025
  0
CIRCLE
  5
3055D
  8
回03-記事
  6
CONTINUOUS
 62
     7
 10
-159.648114074062
 20
-2443.415274188004
 30
0.0
 40
0.025
  0
CIRCLE
  5
3055E
  8
回03-記事
  6
CONTINUOUS
 62
     7
 10
-159.648114074062
 20
-2439.415274188004
 30
0.0
 40
0.025
  0
CIRCLE
  5
3055F
  8
回03-記事
  6
CONTINUOUS
 62
     7
 10
-159.648114074062
 20
-2435.415274188004
 30
0.0
 40
0.025
  0
CIRCLE
  5
30560
  8
回03-記事
  6
CONTINUOUS
 62
     7
 10
-159.648114074062
 20
-2431.415274188004
 30
0.0
 40
0.025
  0
CIRCLE
  5
30561
  8
回03-記事
  6
CONTINUOUS
 62
     7
 10
-159.648114074062
 20
-2427.415274188004
 30
0.0
 40
0.025
  0
CIRCLE
  5
30562
  8
回03-記事
  6
CONTINUOUS
 62
     7
 10
-155.648114074062
 20
-2463.415274188003
 30
0.0
 40
0.025
  0
CIRCLE
  5
30563
  8
回03-記事
  6
CONTINUOUS
 62
     7
 10
-155.648114074062
 20
-2459.415274188004
 30
0.0
 40
0.025
  0
CIRCLE
  5
30564
  8
回03-記事
  6
CONTINUOUS
 62
     7
 10
-155.648114074062
 20
-2455.415274188004
 30
0.0
 40
0.025
  0
CIRCLE
  5
30565
  8
回03-記事
  6
CONTINUOUS
 62
     7
 10
-155.648114074062
 20
-2451.415274188004
 30
0.0
 40
0.025
  0
CIRCLE
  5
30566
  8
回03-記事
  6
CONTINUOUS
 62
     7
 10
-155.648114074062
 20
-2447.415274188003
 30
0.0
 40
0.025
  0
CIRCLE
  5
30567
  8
回03-記事
  6
CONTINUOUS
 62
     7
 10
-155.648114074062
 20
-2443.415274188004
 30
0.0
 40
0.025
  0
CIRCLE
  5
30568
  8
回03-記事
  6
CONTINUOUS
 62
     7
 10
-155.648114074062
 20
-2439.415274188004
 30
0.0
 40
0.025
  0
CIRCLE
  5
30569
  8
回03-記事
  6
CONTINUOUS
 62
     7
 10
-155.648114074062
 20
-2435.415274188004
 30
0.0
 40
0.025
  0
CIRCLE
  5
3056A
  8
回03-記事
  6
CONTINUOUS
 62
     7
 10
-155.648114074062
 20
-2431.415274188004
 30
0.0
 40
0.025
  0
CIRCLE
  5
3056B
  8
回03-記事
  6
CONTINUOUS
 62
     7
 10
-155.648114074062
 20
-2427.415274188004
 30
0.0
 40
0.025
  0
CIRCLE
  5
3056C
  8
回03-記事
  6
CONTINUOUS
 62
     7
 10
-151.648114074062
 20
-2463.415274188003
 30
0.0
 40
0.025
  0
CIRCLE
  5
3056D
  8
回03-記事
  6
CONTINUOUS
 62
     7
 10
-151.648114074062
 20
-2459.415274188004
 30
0.0
 40
0.025
  0
CIRCLE
  5
3056E
  8
回03-記事
  6
CONTINUOUS
 62
     7
 10
-151.648114074062
 20
-2455.415274188004
 30
0.0
 40
0.025
  0
CIRCLE
  5
3056F
  8
回03-記事
  6
CONTINUOUS
 62
     7
 10
-151.648114074062
 20
-2451.415274188004
 30
0.0
 40
0.025
  0
CIRCLE
  5
30570
  8
回03-記事
  6
CONTINUOUS
 62
     7
 10
-151.648114074062
 20
-2447.415274188003
 30
0.0
 40
0.025
  0
CIRCLE
  5
30571
  8
回03-記事
  6
CONTINUOUS
 62
     7
 10
-151.648114074062
 20
-2443.415274188004
 30
0.0
 40
0.025
  0
CIRCLE
  5
30572
  8
回03-記事
  6
CONTINUOUS
 62
     7
 10
-151.648114074062
 20
-2439.415274188004
 30
0.0
 40
0.025
  0
CIRCLE
  5
30573
  8
回03-記事
  6
CONTINUOUS
 62
     7
 10
-151.648114074062
 20
-2435.415274188004
 30
0.0
 40
0.025
  0
CIRCLE
  5
30574
  8
回03-記事
  6
CONTINUOUS
 62
     7
 10
-151.648114074062
 20
-2431.415274188004
 30
0.0
 40
0.025
  0
CIRCLE
  5
30575
  8
回03-記事
  6
CONTINUOUS
 62
     7
 10
-151.648114074062
 20
-2427.415274188004
 30
0.0
 40
0.025
  0
CIRCLE
  5
30576
  8
回03-記事
  6
CONTINUOUS
 62
     7
 10
-147.648114074062
 20
-2463.415274188003
 30
0.0
 40
0.025
  0
CIRCLE
  5
30577
  8
回03-記事
  6
CONTINUOUS
 62
     7
 10
-147.648114074062
 20
-2459.415274188004
 30
0.0
 40
0.025
  0
CIRCLE
  5
30578
  8
回03-記事
  6
CONTINUOUS
 62
     7
 10
-147.648114074062
 20
-2455.415274188004
 30
0.0
 40
0.025
  0
CIRCLE
  5
30579
  8
回03-記事
  6
CONTINUOUS
 62
     7
 10
-147.648114074062
 20
-2451.415274188004
 30
0.0
 40
0.025
  0
CIRCLE
  5
3057A
  8
回03-記事
  6
CONTINUOUS
 62
     7
 10
-147.648114074062
 20
-2447.415274188003
 30
0.0
 40
0.025
  0
CIRCLE
  5
3057B
  8
回03-記事
  6
CONTINUOUS
 62
     7
 10
-147.648114074062
 20
-2443.415274188004
 30
0.0
 40
0.025
  0
CIRCLE
  5
3057C
  8
回03-記事
  6
CONTINUOUS
 62
     7
 10
-147.648114074062
 20
-2439.415274188004
 30
0.0
 40
0.025
  0
CIRCLE
  5
3057D
  8
回03-記事
  6
CONTINUOUS
 62
     7
 10
-147.648114074062
 20
-2435.415274188004
 30
0.0
 40
0.025
  0
CIRCLE
  5
3057E
  8
回03-記事
  6
CONTINUOUS
 62
     7
 10
-147.648114074062
 20
-2431.415274188004
 30
0.0
 40
0.025
  0
CIRCLE
  5
3057F
  8
回03-記事
  6
CONTINUOUS
 62
     7
 10
-147.648114074062
 20
-2427.415274188004
 30
0.0
 40
0.025
  0
CIRCLE
  5
30580
  8
回03-記事
  6
CONTINUOUS
 62
     7
 10
-143.648114074062
 20
-2463.415274188003
 30
0.0
 40
0.025
  0
CIRCLE
  5
30581
  8
回03-記事
  6
CONTINUOUS
 62
     7
 10
-143.648114074062
 20
-2459.415274188004
 30
0.0
 40
0.025
  0
CIRCLE
  5
30582
  8
回03-記事
  6
CONTINUOUS
 62
     7
 10
-143.648114074062
 20
-2455.415274188004
 30
0.0
 40
0.025
  0
CIRCLE
  5
30583
  8
回03-記事
  6
CONTINUOUS
 62
     7
 10
-143.648114074062
 20
-2451.415274188004
 30
0.0
 40
0.025
  0
CIRCLE
  5
30584
  8
回03-記事
  6
CONTINUOUS
 62
     7
 10
-143.648114074062
 20
-2447.415274188003
 30
0.0
 40
0.025
  0
CIRCLE
  5
30585
  8
回03-記事
  6
CONTINUOUS
 62
     7
 10
-143.648114074062
 20
-2443.415274188004
 30
0.0
 40
0.025
  0
CIRCLE
  5
30586
  8
回03-記事
  6
CONTINUOUS
 62
     7
 10
-143.648114074062
 20
-2439.415274188004
 30
0.0
 40
0.025
  0
CIRCLE
  5
30587
  8
回03-記事
  6
CONTINUOUS
 62
     7
 10
-143.648114074062
 20
-2435.415274188004
 30
0.0
 40
0.025
  0
CIRCLE
  5
30588
  8
回03-記事
  6
CONTINUOUS
 62
     7
 10
-143.648114074062
 20
-2431.415274188004
 30
0.0
 40
0.025
  0
CIRCLE
  5
30589
  8
回03-記事
  6
CONTINUOUS
 62
     7
 10
-143.648114074062
 20
-2427.415274188004
 30
0.0
 40
0.025
  0
CIRCLE
  5
3058A
  8
回03-記事
  6
CONTINUOUS
 62
     7
 10
-139.648114074062
 20
-2463.415274188003
 30
0.0
 40
0.025
  0
CIRCLE
  5
3058B
  8
回03-記事
  6
CONTINUOUS
 62
     7
 10
-139.648114074062
 20
-2459.415274188004
 30
0.0
 40
0.025
  0
CIRCLE
  5
3058C
  8
回03-記事
  6
CONTINUOUS
 62
     7
 10
-139.648114074062
 20
-2455.415274188004
 30
0.0
 40
0.025
  0
CIRCLE
  5
3058D
  8
回03-記事
  6
CONTINUOUS
 62
     7
 10
-139.648114074062
 20
-2451.415274188004
 30
0.0
 40
0.025
  0
CIRCLE
  5
3058E
  8
回03-記事
  6
CONTINUOUS
 62
     7
 10
-139.648114074062
 20
-2447.415274188003
 30
0.0
 40
0.025
  0
CIRCLE
  5
3058F
  8
回03-記事
  6
CONTINUOUS
 62
     7
 10
-139.648114074062
 20
-2443.415274188004
 30
0.0
 40
0.025
  0
CIRCLE
  5
30590
  8
回03-記事
  6
CONTINUOUS
 62
     7
 10
-139.648114074062
 20
-2439.415274188004
 30
0.0
 40
0.025
  0
CIRCLE
  5
30591
  8
回03-記事
  6
CONTINUOUS
 62
     7
 10
-139.648114074062
 20
-2435.415274188004
 30
0.0
 40
0.025
  0
CIRCLE
  5
30592
  8
回03-記事
  6
CONTINUOUS
 62
     7
 10
-139.648114074062
 20
-2431.415274188004
 30
0.0
 40
0.025
  0
CIRCLE
  5
30593
  8
回03-記事
  6
CONTINUOUS
 62
     7
 10
-139.648114074062
 20
-2427.415274188004
 30
0.0
 40
0.025
  0
DIMENSION
  5
30594
  8
回03-記事
  6
CONTINUOUS
 62
     7
  2
*D33
 10
-129.5214784582766
 20
-2455.415274188005
 30
0.0
 11
-132.0214784582772
 21
-2459.915274188004
 31
0.0
 70
    32
  3
STANDARD
 13
-139.648114074062
 23
-2451.415274188004
 33
0.0
 14
-139.648114074062
 24
-2455.415274188004
 34
0.0
 50
90.0
1001
ACAD
1000
DSTYLE
1002
{
1070
    41
1040
1.5
1070
    47
1040
0.3
1070
    48
1040
0.3
1070
   140
1040
4.0
1070
   141
1040
1.5
1070
   146
1040
0.7
1070
   271
1070
     1
1070
   272
1070
     1
1070
   283
1070
     0
1070
   288
1070
     0
1070
   341
1005
0
1070
   371
1070
    13
1070
   372
1070
    13
1002
}
  0
DIMENSION
  5
30595
  8
回03-記事
  6
CONTINUOUS
 62
     7
  2
*D34
 10
-143.648114074062
 20
-2471.590497668657
 30
0.0
 11
-139.148114074062
 21
-2469.090497668657
 31
0.0
 70
    32
  3
STANDARD
 13
-147.648114074062
 23
-2463.415274188003
 33
0.0
 14
-143.648114074062
 24
-2463.415274188003
 34
0.0
1001
ACAD
1000
DSTYLE
1002
{
1070
    41
1040
1.5
1070
    47
1040
0.3
1070
    48
1040
0.3
1070
   140
1040
4.0
1070
   141
1040
1.5
1070
   146
1040
0.7
1070
   271
1070
     1
1070
   272
1070
     1
1070
   283
1070
     0
1070
   288
1070
     0
1070
   341
1005
0
1070
   371
1070
    13
1070
   372
1070
    13
1002
}
  0
INSERT
  5
30596
  8
0
  6
CONTINUOUS
 62
     7
 66
     1
  2
*X42
 10
0.0
 20
0.0
 30
0.0
1001
ACADSTRINGINFO
1000
MIFCodePage
1070
     1
1001
ACAD_MLEADERVER
1070
     2
  0
SEQEND
  5
33031
  8
0
  6
CONTINUOUS
 62
     7
  0
TEXT
  5
30597
  8
回03-記事
  6
CONTINUOUS
 62
     7
 10
-279.5664649820241
 20
-2421.544062840667
 30
0.0
 40
5.0
  1
XL
  0
TEXT
  5
30598
  8
回03-記事
  6
CONTINUOUS
 62
     7
 10
-186.55162696539
 20
-2492.17041534618
 30
0.0
 40
5.0
  1
YD
  0
TEXT
  5
30599
  8
回03-記事
  6
CONTINUOUS
 62
     7
 10
-186.8638606666683
 20
-2369.521177009512
 30
0.0
 40
5.0
  1
YU
  0
TEXT
  5
3059A
  8
回03-記事
  6
CONTINUOUS
 62
     7
 10
-78.91972979280343
 20
-2422.289072330534
 30
0.0
 40
5.0
  1
XR
  0
ARC
  5
305A6
  8
回01-TP外形
  6
CONTINUOUS
 62
     7
 10
-80.16311407406238
 20
-2541.197353058601
 30
0.0
 40
0.5
 50
0.0
 51
180.0
  0
ARC
  5
305A7
  8
回01-TP外形
  6
CONTINUOUS
 62
     7
 10
-84.16311407406238
 20
-2541.197353058601
 30
0.0
 40
0.5
 50
0.0
 51
180.0
  0
ARC
  5
305A8
  8
回01-TP外形
  6
CONTINUOUS
 62
     7
 10
-76.16311407406238
 20
-2541.197353058601
 30
0.0
 40
0.5
 50
0.0
 51
180.0
  0
ARC
  5
305A9
  8
回01-TP外形
  6
CONTINUOUS
 62
     7
 10
-72.16311407406237
 20
-2541.197353058601
 30
0.0
 40
0.5
 50
0.0
 51
180.0
  0
ARC
  5
305AA
  8
回01-TP外形
  6
CONTINUOUS
 62
     7
 10
-68.16311407406238
 20
-2541.197353058601
 30
0.0
 40
0.5
 50
0.0
 51
180.0
  0
POLYLINE
  5
305AB
  8
回01-TP外形
  6
CONTINUOUS
 62
     7
 66
     1
 10
0.0
 20
0.0
 30
0.0
 70
     1
  0
VERTEX
  5
33032
  8
回01-TP外形
  6
CONTINUOUS
 62
     7
 10
-303.6431140740624
 20
-2541.197353058601
 30
0.0
  0
VERTEX
  5
33034
  8
回01-TP外形
  6
CONTINUOUS
 62
     7
 10
-294.6631140740624
 20
-2541.197353058601
 30
0.0
  0
VERTEX
  5
33035
  8
回01-TP外形
  6
CONTINUOUS
 62
     7
 10
-294.6631140740624
 20
-2542.697353058601
 30
0.0
  0
VERTEX
  5
33036
  8
回01-TP外形
  6
CONTINUOUS
 62
     7
 10
-303.6431140740624
 20
-2542.697353058601
 30
0.0
  0
SEQEND
  5
33033
  8
0
  6
CONTINUOUS
 62
     7
  0
POLYLINE
  5
305AF
  8
回01-TP外形
  6
PHANTOM2
 62
     7
 66
     1
 10
0.0
 20
0.0
 30
0.0
 70
     1
  0
VERTEX
  5
33037
  8
回01-TP外形
  6
PHANTOM2
 62
     7
 10
-286.903114074062
 20
-2498.265274188004
 30
0.0
  0
VERTEX
  5
33039
  8
回01-TP外形
  6
PHANTOM2
 62
     7
 10
-64.44311407406201
 20
-2498.265274188004
 30
0.0
  0
VERTEX
  5
3303A
  8
回01-TP外形
  6
PHANTOM2
 62
     7
 10
-64.44311407406201
 20
-2356.565274188004
 30
0.0
  0
VERTEX
  5
3303B
  8
回01-TP外形
  6
PHANTOM2
 62
     7
 10
-286.903114074062
 20
-2356.565274188004
 30
0.0
  0
SEQEND
  5
33038
  8
0
  6
CONTINUOUS
 62
     7
  0
LINE
  5
3169C
  8
回04-図面枠
 62
     7
 10
-58.73821205787755
 20
-2602.473791354266
 30
0.0
 11
126.0617879421225
 21
-2602.473791354266
 31
0.0
  0
LINE
  5
3169D
  8
回04-図面枠
 62
     7
 10
-58.73821205787755
 20
-2595.873791354267
 30
0.0
 11
126.0617879421225
 21
-2595.873791354267
 31
0.0
  0
LINE
  5
3169E
  8
回04-図面枠
 62
     7
 10
-58.73821205787755
 20
-2622.273791354267
 30
0.0
 11
126.0617879421225
 21
-2622.273791354267
 31
0.0
  0
LINE
  5
3169F
  8
回04-図面枠
 62
     7
 10
-58.73821205787755
 20
-2615.673791354266
 30
0.0
 11
27.06178794212245
 21
-2615.673791354266
 31
0.0
  0
LINE
  5
316A0
  8
回04-図面枠
 62
     7
 10
-58.73821205787755
 20
-2595.873791354267
 30
0.0
 11
-58.73821205787755
 21
-2635.473791354267
 31
0.0
  0
TEXT
  5
316A1
  8
回04-図面枠
 62
     7
 10
-22.17421205787755
 20
-2621.292213364027
 30
0.0
 40
3.959999999999999
  1
TYPE
 72
     1
 11
-15.83821205787754
 21
-2621.292213364027
 31
0.0
  0
LINE
  5
316A2
  8
回04-図面枠
 62
     7
 10
27.06178794212245
 20
-2595.873791354267
 30
0.0
 11
27.06178794212245
 21
-2635.473791354267
 31
0.0
  0
TEXT
  5
316A3
  8
回04-図面枠
 62
     7
 10
-37.72394598685895
 20
-2633.955750788837
 30
0.0
 40
3.959999999999999
  1
CIRCUIT　DRAWING
 72
     1
 11
-15.83821205787754
 21
-2633.955750788837
 31
0.0
  0
TEXT
  5
316A4
  8
回04-図面枠
 62
     7
 10
-46.64779158543661
 20
-2627.355750788837
 30
0.0
 40
3.959999999999999
  1
STANDARD TOUCHSCREEN
 72
     1
 11
-15.83821205787754
 21
-2627.355750788837
 31
0.0
  0
LINE
  5
316A5
  8
回04-図面枠
 62
     7
 10
-54.77821205787755
 20
-2628.873791354267
 30
0.0
 11
23.10178794212246
 21
-2628.873791354267
 31
0.0
  0
TEXT
  5
316A6
  8
回04-図面枠
 62
     7
 10
-28.31221205787755
 20
-2601.223417500707
 30
0.0
 40
3.959999999999999
  1
PART　No.
 72
     1
 11
-15.83821205787754
 21
-2601.223417500707
 31
0.0
  0
TEXT
  5
316A7
  8
回04-図面枠
 62
     7
 10
-47.51821205787753
 20
-2612.38450685656
 30
0.0
 40
6.599999999999999
  1
LST-101WB080A
 72
     1
 11
-15.83821205787754
 21
-2612.38450685656
 31
0.0
  0
TEXT
  5
316A8
  8
回04-図面枠
 62
     7
 10
39.67000739717709
 20
-2632.124017009172
 30
0.0
 40
6.599999999999999
  1
DMC Co., Ltd.
 72
     1
 11
65.90500739717708
 21
-2632.124017009172
 31
0.0
  0
TEXT
  5
316A9
  8
回04-図面枠
  6
CONTINUOUS
 62
     7
 10
69.89675168102957
 20
-2601.554086433719
 30
0.0
 40
3.959999999999999
  1
DATE
  0
TEXT
  5
316AA
  8
回04-図面枠
 62
     7
 10
50.82178794212246
 20
-2615.99414316234
 30
0.0
 40
6.599999999999999
  1
Sep/08/2023
 72
     1
 11
76.56178794212246
 21
-2615.99414316234
 31
0.0
  0
TEXT
  5
316AB
  8
回03-記事
  6
CONTINUOUS
 62
     7
 10
58.66842521635309
 20
-2555.772656562589
 30
0.0
 40
4.629316711219201
  1
TAIL
  0
TEXT
  5
316AC
  8
回03-記事
  6
CONTINUOUS
 62
     7
 10
58.66842521635309
 20
-2548.057128710555
 30
0.0
 40
4.629316711219201
  1
ITO GLASS
  0
TEXT
  5
316AD
  8
回03-記事
  6
CONTINUOUS
 62
     7
 10
58.66842521635309
 20
-2540.341600858522
 30
0.0
 40
4.629316711219201
  1
ITO FILM
  0
LINE
  5
316AE
  8
回03-記事
  6
CONTINUOUS
 62
     7
 10
49.91815212757442
 20
-2549.287030371043
 30
0.0
 11
118.8804396275043
 21
-2549.287030371043
 31
0.0
  0
LINE
  5
316AF
  8
回03-記事
  6
CONTINUOUS
 62
     7
 10
49.91815212757442
 20
-2557.002558223075
 30
0.0
 11
118.8804396275043
 21
-2557.002558223075
 31
0.0
  0
LINE
  5
316B0
  8
回03-記事
  6
CONTINUOUS
 62
     7
 10
49.91815212757442
 20
-2564.718086075107
 30
0.0
 11
118.8804396275043
 21
-2564.718086075107
 31
0.0
  0
LINE
  5
316B1
  8
回03-記事
  6
CONTINUOUS
 62
     7
 10
49.91815212757442
 20
-2533.855974666979
 30
0.0
 11
118.8804396275043
 21
-2533.855974666979
 31
0.0
  0
LINE
  5
316B2
  8
回03-記事
  6
CONTINUOUS
 62
     7
 10
49.91815212757442
 20
-2541.57150251901
 30
0.0
 11
118.8804396275043
 21
-2541.571502519015
 31
0.0
  0
LINE
  5
316B3
  8
回03-記事
  6
CONTINUOUS
 62
     7
 10
49.91815212757442
 20
-2526.140446814947
 30
0.0
 11
118.8804396275043
 21
-2526.140446814947
 31
0.0
  0
LINE
  5
316B4
  8
回03-記事
  6
CONTINUOUS
 62
     7
 10
49.91815212757442
 20
-2572.43361392714
 30
0.0
 11
118.8804396275043
 21
-2572.43361392714
 31
0.0
  0
TEXT
  5
316B5
  8
回03-記事
  6
CONTINUOUS
 62
     7
 10
52.28329512811665
 20
-2540.242293576124
 30
0.0
 40
4.629316711219201
  1
1
  0
LINE
  5
316B6
  8
回03-記事
  6
CONTINUOUS
 62
     7
 10
49.91815212757442
 20
-2526.140446814947
 30
0.0
 11
49.91815212757442
 21
-2580.149141779172
 31
0.0
  0
LINE
  5
316B7
  8
回03-記事
  6
CONTINUOUS
 62
     7
 10
57.94585673423294
 20
-2526.140446814947
 30
0.0
 11
57.94585673423294
 21
-2580.149141779172
 31
0.0
  0
TEXT
  5
316B8
  8
回03-記事
  6
CONTINUOUS
 62
     7
 10
52.28329512811665
 20
-2571.104404984251
 30
0.0
 40
4.629316711219201
  1
5
  0
TEXT
  5
316B9
  8
回03-記事
  6
CONTINUOUS
 62
     7
 10
52.28329512811665
 20
-2547.957821428153
 30
0.0
 40
4.629316711219201
  1
2
  0
TEXT
  5
316BA
  8
回03-記事
  6
CONTINUOUS
 62
     7
 10
52.28329512811665
 20
-2563.388877132219
 30
0.0
 40
4.629316711219201
  1
4
  0
TEXT
  5
316BB
  8
回03-記事
  6
CONTINUOUS
 62
     7
 10
52.28329512811665
 20
-2555.67334928019
 30
0.0
 40
4.629316711219201
  1
3
  0
LINE
  5
316BC
  8
回03-記事
  6
CONTINUOUS
 62
     7
 10
118.8804396275043
 20
-2580.149141779172
 30
0.0
 11
118.8804396275043
 21
-2526.140446814947
 31
0.0
  0
TEXT
  5
316BD
  8
回03-記事
  6
CONTINUOUS
 62
     7
 10
76.88717811049082
 20
-2532.38896999683
 30
0.0
 40
4.629316711219201
  1
ITEM
  0
TEXT
  5
316BE
  8
回03-記事
  6
CONTINUOUS
 62
     7
 10
58.66842521635309
 20
-2571.273598764896
 30
0.0
 40
4.629316711219201
  1
REINFORCEMENT FILM
  0
TEXT
  5
316BF
  8
回03-記事
  6
CONTINUOUS
 62
     7
 10
58.66842521635309
 20
-2563.558070912865
 30
0.0
 40
4.629316711219201
  1
STIFFENER
  0
LINE
  5
316C0
  8
回03-記事
  6
CONTINUOUS
 62
     7
 10
49.91815212757442
 20
-2580.149141779172
 30
0.0
 11
118.8804396275043
 21
-2580.149141779172
 31
0.0
  0
TEXT
  5
316C1
  8
回03-記事
  6
CONTINUOUS
 62
     7
 10
52.28329512811665
 20
-2578.819932836283
 30
0.0
 40
4.629316711219201
  1
6
  0
TEXT
  5
316C2
  8
回03-記事
  6
CONTINUOUS
 62
     7
 10
59.23347892103585
 20
-2578.796416331578
 30
0.0
 40
4.451266068479998
  1
PROTECTION TAPE
  0
CIRCLE
  5
316C3
  8
回04-図面枠
  6
CONTINUOUS
 62
     7
 10
110.9904589184295
 20
-2628.993905016661
 30
0.0
 40
3.688281448998441
  0
CIRCLE
  5
316C4
  8
回04-図面枠
  6
CONTINUOUS
 62
     7
 10
110.9904589184295
 20
-2628.993905016661
 30
0.0
 40
1.950848642310723
  0
LINE
  5
316C5
  8
回04-図面枠
  6
CENTER2
 62
     7
 10
106.7545732263258
 20
-2628.993905016661
 30
0.0
 11
124.7126220631251
 21
-2628.993905016661
 31
0.0
  0
LINE
  5
316C6
  8
回04-図面枠
  6
CONTINUOUS
 62
     7
 10
117.2822298763458
 20
-2627.043056374351
 30
0.0
 11
117.2822298763458
 21
-2630.944753658972
 31
0.0
  0
LINE
  5
316C7
  8
回04-図面枠
  6
CONTINUOUS
 62
     7
 10
124.1076926766437
 20
-2625.305623567662
 30
0.0
 11
124.1076926766437
 21
-2632.68218646566
 31
0.0
  0
LINE
  5
316C8
  8
回04-図面枠
  6
CONTINUOUS
 62
     7
 10
117.2822298763458
 20
-2627.043056374351
 30
0.0
 11
124.1076926766437
 21
-2625.305623567662
 31
0.0
  0
LINE
  5
316C9
  8
回04-図面枠
  6
CONTINUOUS
 62
     7
 10
117.2822298763458
 20
-2630.944753658972
 30
0.0
 11
124.1076926766437
 21
-2632.68218646566
 31
0.0
  0
LINE
  5
316CA
  8
回04-図面枠
  6
CENTER2
 62
     7
 10
110.9904589184295
 20
-2633.613945110731
 30
0.0
 11
110.9904589184295
 21
-2624.373864922591
 31
0.0
  0
LINE
  5
316CB
  8
回04-図面枠
  6
CONTINUOUS
 62
     7
 10
104.103480386142
 20
-2635.473791354267
 30
0.0
 11
104.103480386142
 21
-2622.273791354267
 31
0.0
  0
DIMENSION
  5
32118
  8
回02-寸法
  6
CONTINUOUS
 62
     5
  2
*D35
 10
-394.3871192135222
 20
-2356.112772070255
 30
0.0
 11
-396.8875129143102
 21
-2368.312689853719
 31
0.0
 70
    32
  1
6.25{\H0.6667x;±0.2}
  3
DMC
 13
-362.0259990977788
 23
-2342.362772070255
 33
0.0
 14
-362.0259990977788
 24
-2356.112772070254
 34
0.0
 50
90.0
1001
ACAD
1000
DSTYLE
1002
{
1070
   170
1070
     1
1070
   271
1070
     3
1070
   272
1070
     3
1070
   371
1070
     9
1070
   372
1070
     9
1002
}
  0
LINE
  5
32119
  8
回03-記事
  6
CONTINUOUS
 62
     8
 10
-362.0259990977788
 20
-2342.362772070255
 30
0.0
 11
-335.900269901408
 21
-2342.362772070255
 31
0.0
  0
ARC
  5
3211A
  8
回03-記事
  6
CONTINUOUS
 62
     8
 10
-362.0259990977788
 20
-2343.462772070254
 30
0.0
 40
1.1
 50
90.0
 51
180.0
  0
ARC
  5
3211B
  8
回03-記事
  6
CONTINUOUS
 62
     8
 10
-362.0259990977788
 20
-2355.012772070253
 30
0.0
 40
1.1
 50
180.0
 51
270.0
  0
LINE
  5
3211C
  8
回03-記事
  6
CONTINUOUS
 62
     8
 10
-363.1259990977787
 20
-2343.462772070254
 30
0.0
 11
-363.1259990977787
 21
-2355.012772070253
 31
0.0
  0
LINE
  5
3211D
  8
回03-記事
  6
CONTINUOUS
 62
     8
 10
-362.0259990977788
 20
-2356.112772070254
 30
0.0
 11
-335.900269901408
 21
-2356.112772070254
 31
0.0
  0
POLYLINE
  5
3211E
  8
回03-記事
  6
CONTINUOUS
 62
     8
 66
     1
 10
0.0
 20
0.0
 30
0.0
 40
1.54
 41
1.54
  0
VERTEX
  5
3303C
  8
回03-記事
  6
CONTINUOUS
 62
     8
 10
-363.1260948214676
 20
-2350.61277207026
 30
0.0
  0
VERTEX
  5
3303E
  8
回03-記事
  6
CONTINUOUS
 62
     8
 10
-352.1259990977787
 20
-2350.61277207026
 30
0.0
  0
SEQEND
  5
3303D
  8
0
  6
CONTINUOUS
 62
     7
  0
POLYLINE
  5
3211F
  8
回03-記事
  6
CONTINUOUS
 62
     8
 66
     1
 10
0.0
 20
0.0
 30
0.0
 40
1.54
 41
1.54
  0
VERTEX
  5
3303F
  8
回03-記事
  6
CONTINUOUS
 62
     8
 10
-363.1260948214676
 20
-2353.36277207026
 30
0.0
  0
VERTEX
  5
33041
  8
回03-記事
  6
CONTINUOUS
 62
     8
 10
-352.1259990977787
 20
-2353.36277207026
 30
0.0
  0
SEQEND
  5
33040
  8
0
  6
CONTINUOUS
 62
     7
  0
POLYLINE
  5
32120
  8
回03-記事
  6
CONTINUOUS
 62
     8
 66
     1
 10
0.0
 20
0.0
 30
0.0
 40
1.54
 41
1.54
  0
VERTEX
  5
33042
  8
回03-記事
  6
CONTINUOUS
 62
     8
 10
-363.1260948214676
 20
-2345.11277207026
 30
0.0
  0
VERTEX
  5
33044
  8
回03-記事
  6
CONTINUOUS
 62
     8
 10
-352.1259990977787
 20
-2345.11277207026
 30
0.0
  0
SEQEND
  5
33043
  8
0
  6
CONTINUOUS
 62
     7
  0
POLYLINE
  5
32121
  8
回03-記事
  6
CONTINUOUS
 62
     8
 66
     1
 10
0.0
 20
0.0
 30
0.0
 40
1.54
 41
1.54
  0
VERTEX
  5
33045
  8
回03-記事
  6
CONTINUOUS
 62
     8
 10
-363.1260948214676
 20
-2347.86277207026
 30
0.0
  0
VERTEX
  5
33047
  8
回03-記事
  6
CONTINUOUS
 62
     8
 10
-352.1259990977787
 20
-2347.86277207026
 30
0.0
  0
SEQEND
  5
33046
  8
0
  6
CONTINUOUS
 62
     7
  0
DIMENSION
  5
32122
  8
回02-寸法
  6
CONTINUOUS
 62
     5
  2
*D36
 10
-379.5869631983467
 20
-2353.362772070261
 30
0.0
 11
-382.0873568991347
 21
-2365.812855095063
 31
0.0
 70
    32
  1
1.25{\H0.83333x;±0.2}
  3
DMC
 13
-366.3154810965699
 23
-2350.61277207026
 33
0.0
 14
-366.3154810965699
 24
-2353.36277207026
 34
0.0
 50
90.0
1001
ACAD
1000
DSTYLE
1002
{
1070
   170
1070
     1
1070
   271
1070
     3
1070
   272
1070
     3
1070
   371
1070
     9
1070
   372
1070
     9
1002
}
  0
DIMENSION
  5
32123
  8
回02-寸法
  6
CONTINUOUS
 62
     5
  2
*D37
 10
-372.1458618462087
 20
-2354.13277207026
 30
0.0
 11
-374.6458618462093
 21
-2368.14942507026
 31
0.0
 70
    32
  1
4-0.7{\H0.83333x;±0.1}
  3
DMC
 13
-363.1260948214676
 23
-2352.59277207026
 33
0.0
 14
-363.1260948214676
 24
-2354.13277207026
 34
0.0
 50
90.0
1001
ACAD
1000
DSTYLE
1002
{
1070
   170
1070
     1
1070
   271
1070
     3
1070
   272
1070
     3
1070
   371
1070
     9
1070
   372
1070
     9
1002
}
  0
DIMENSION
  5
32124
  8
回02-寸法
  6
CONTINUOUS
 62
     5
  2
*D38
 10
-386.6431750271583
 20
-2345.112772070261
 30
0.0
 11
-386.6431750271588
 21
-2366.26945377026
 31
0.0
 70
   160
  1
3.75{\H0.66667x;±0.1}
  3
DMC
 13
-366.3154810965699
 23
-2353.36277207026
 33
0.0
 14
-366.3155768202588
 24
-2345.11277207026
 34
0.0
 50
90.0
1001
ACAD
1000
DSTYLE
1002
{
1070
   170
1070
     1
1070
   271
1070
     3
1070
   272
1070
     3
1070
   371
1070
     9
1070
   372
1070
     9
1002
}
  0
LINE
  5
32125
  8
回03-記事
  6
CONTINUOUS
 62
     7
 10
-366.3155768202588
 20
-2345.11277207026
 30
0.0
 11
-348.1529906869394
 21
-2345.11277207026
 31
0.0
  0
LINE
  5
32126
  8
回03-記事
  6
CONTINUOUS
 62
     7
 10
-366.3154810965699
 20
-2350.61277207026
 30
0.0
 11
-348.1529906869394
 21
-2350.61277207026
 31
0.0
  0
LINE
  5
32127
  8
回03-記事
  6
CONTINUOUS
 62
     7
 10
-366.3155768202588
 20
-2353.36277207026
 30
0.0
 11
-348.1529906869394
 21
-2353.36277207026
 31
0.0
  0
LINE
  5
32128
  8
回03-記事
  6
CONTINUOUS
 62
     8
 10
-352.1259990977787
 20
-2342.362772070255
 30
0.0
 11
-352.1259990977787
 21
-2356.112772070254
 31
0.0
  0
TEXT
  5
32129
  8
回03-記事
  6
CONTINUOUS
 62
     5
 10
-374.2183181580749
 20
-2328.868473607228
 30
0.0
 40
5.5
  1
SECTION A
  0
INSERT
  5
3212A
  8
回02-寸法
 62
     1
 66
     1
  2
*X43
 10
0.0
 20
0.0
 30
0.0
  0
SEQEND
  5
3304E
  8
0
  6
CONTINUOUS
 62
     7
  0
TEXT
  5
3212B
  8
回02-寸法
 62
     5
 10
-380.133135315039
 20
-2337.214197461147
 30
0.0
 40
3.3
  1
2-R0.5
1001
ACAD
1000
MTEXTBEGIN
1070
    73
1070
     1
1070
    44
1040
1.0
1070
    74
1070
     0
1000
MTEXTEND
  0
INSERT
  5
321BC
  8
回02-寸法
  6
CONTINUOUS
 62
     5
 66
     1
  2
*X44
 10
0.0
 20
0.0
 30
0.0
  0
SEQEND
  5
33055
  8
0
  6
CONTINUOUS
 62
     7
  0
TEXT
  5
321BD
  8
回02-寸法
  6
CONTINUOUS
 62
     5
 10
-311.9032347690367
 20
-2412.715927476478
 30
0.0
 40
4.0
  1
2-R2
1001
ACAD
1000
MTEXTBEGIN
1070
    73
1070
     1
1070
    44
1040
1.0
1070
    74
1070
     0
1000
MTEXTEND
  0
INSERT
  5
321BE
  8
回03-記事
  6
CONTINUOUS
 62
     5
 66
     1
  2
*X45
 10
0.0
 20
0.0
 30
0.0
  0
SEQEND
  5
3305C
  8
0
  6
CONTINUOUS
 62
     7
  0
TEXT
  5
321BF
  8
回03-記事
  6
CONTINUOUS
 62
     5
 10
-352.2962039339662
 20
-2459.944290924844
 30
0.0
 40
4.0
  1
PROTECTION TAPE
1001
ACAD
1000
MTEXTBEGIN
1070
    73
1070
     1
1070
    44
1040
1.0
1070
    74
1070
     0
1000
MTEXTEND
  0
CIRCLE
  5
321C1
  8
回03-記事
  6
CONTINUOUS
 62
     5
 10
-372.8556900815456
 20
-2427.65803347841
 30
0.0
 40
7.742816109002717
  0
INSERT
  5
321C2
  8
回03-記事
  6
CONTINUOUS
 62
     7
 66
     1
  2
*X46
 10
0.0
 20
0.0
 30
0.0
  0
SEQEND
  5
33063
  8
0
  6
CONTINUOUS
 62
     7
  0
TEXT
  5
321C3
  8
回03-記事
  6
CONTINUOUS
 62
     5
 10
-366.1389796204523
 20
-2417.928045335736
 30
0.0
 40
3.0
  1
A
1001
ACAD
1000
MTEXTBEGIN
1070
    73
1070
     1
1070
    44
1040
1.0
1070
    74
1070
     0
1000
MTEXTEND
  0
INSERT
  5
321DA
  8
回03-記事
  6
CONTINUOUS
 62
     8
 66
     1
  2
*X47
 10
0.0
 20
0.0
 30
0.0
  0
SEQEND
  5
3306A
  8
0
  6
CONTINUOUS
 62
     7
  0
TEXT
  5
321DB
  8
回03-記事
  6
CONTINUOUS
 62
     5
 10
-415.4175591314128
 20
-2531.259811328272
 30
0.0
 40
4.0
  1
Trace Expose
1001
ACAD
1000
MTEXTBEGIN
1070
    73
1070
     1
1070
    44
1040
1.0
1070
    74
1070
     0
1000
MTEXTEND
  0
TEXT
  5
3222A
  8
回02-寸法
  6
CONTINUOUS
 62
     5
 10
-57.4158642496036
 20
-2303.07423132165
 30
0.0
 40
4.0
  1
(Insulation Area)
  0
TEXT
  5
32244
  8
回02-寸法
  6
CONTINUOUS
 62
     5
 10
-21.20178641082544
 20
-2349.422952567725
 30
0.0
 40
4.0
  1
(Insulation Area)
 50
90.0
  0
TEXT
  5
323E9
  8
回03-記事
  6
CONTINUOUS
 62
     7
 10
29.64716942656196
 20
-2371.411018824802
 30
0.0
 40
8.0
  1
Pin Assignment
  0
TEXT
  5
32DE7
  8
回03-記事
  6
CONTINUOUS
 62
     5
 10
-268.211387842911
 20
-2580.917920944218
 30
0.0
 40
6.0
  1
TOLERANCE=±0.5mm
  0
TEXT
  5
32DE8
  8
回03-記事
  6
CONTINUOUS
 62
     5
 10
-268.211387842911
 20
-2591.442553086968
 30
0.0
 40
6.0
  1
EXCEPT WHERE INDICATED
  0
TEXT
  5
32DE9
  8
回03-記事
  6
CONTINUOUS
 62
     5
 10
-268.211387842911
 20
-2601.967185229718
 30
0.0
 40
6.0
  1
Unit: mm
  0
TEXT
  5
32DEA
  8
回03-記事
  6
CONTINUOUS
 62
     5
 10
-268.211387842911
 20
-2612.491817372468
 30
0.0
 40
6.0
  1
Edges and corners of ITO glass may be chamfered 
  0
TEXT
  5
32DEB
  8
回03-記事
  6
CONTINUOUS
 62
     5
 10
-268.211387842911
 20
-2623.016449515217
 30
0.0
 40
6.0
  1
without affecting product specification.
  0
VIEWPORT
  5
22
 67
     1
  8
0
 10
261.5176991150442
 20
154.7242978687078
 30
0.0
 40
523.0353982300885
 41
309.4485957374157
 68
     1
 69
    -1
1001
ACAD
1000
MVIEW
1002
{
1070
    16
1010
0.0
1020
0.0
1030
0.0
1010
0.0
1020
0.0
1030
1.0
1040
0.0
1040
309.4485957374157
1040
261.5176991150442
1040
154.7242978687078
1040
50.0
1040
0.0
1040
0.0
1070
     0
1070
   100
1070
     0
1070
     0
1070
     0
1070
     0
1070
     0
1070
     0
1040
0.0
1040
0.0
1040
0.0
1040
1.0
1040
1.0
1040
10.0
1040
10.0
1070
     0
1002
{
1002
}
1002
}
1000
MVIEW
1002
{
1070
    16
1010
0.0
1020
0.0
1030
0.0
1010
0.0
1020
0.0
1030
1.0
1040
0.0
1040
309.4485957374157
1040
261.5176991150442
1040
154.7242978687078
1040
50.0
1040
0.0
1040
0.0
1070
     0
1070
   100
1070
     1
1070
     0
1070
     0
1070
     0
1070
     0
1070
     0
1040
0.0
1040
0.0
1040
0.0
1040
1.0
1040
1.0
1040
10.0
1040
10.0
1070
     0
1002
{
1002
}
1002
}
  0
ENDSEC
  0
EOF
