  0
SECTION
  2
HEADER
  9
$ACADVER
  1
AC1009
  9
$INSBASE
 10
0.0
 20
0.0
 30
0.0
  9
$EXTMIN
 10
2530.593022171399
 20
274.6752248068428
 30
0.0
  9
$EXTMAX
 10
3100.593022171399
 20
669.6752248068427
 30
0.0
  9
$LIMMIN
 10
0.0
 20
0.0
  9
$LIMMAX
 10
880.0
 20
620.0
  9
$ORTHOMODE
 70
     0
  9
$REGENMODE
 70
     1
  9
$FILLMODE
 70
     1
  9
$QTEXTMODE
 70
     0
  9
$MIRRTEXT
 70
     1
  9
$DRAGMODE
 70
     2
  9
$LTSCALE
 40
2.087542087542086
  9
$OSMODE
 70
    37
  9
$ATTMODE
 70
     1
  9
$TEXTSIZE
 40
4.0
  9
$TRACEWID
 40
1.0
  9
$TEXTSTYLE
  7
STANDARD
  9
$CLAYER
  8
回07-寸法
  9
$CELTYPE
  6
CONTINUOUS
  9
$CECOLOR
 62
     7
  9
$DIMSCALE
 40
1.0
  9
$DIMASZ
 40
1.5
  9
$DIMEXO
 40
0.0
  9
$DIMDLI
 40
0.0
  9
$DIMRND
 40
0.0
  9
$DIMDLE
 40
0.0
  9
$DIMEXE
 40
1.0
  9
$DIMTP
 40
0.3
  9
$DIMTM
 40
0.3
  9
$DIMTXT
 40
4.0
  9
$DIMCEN
 40
1.5
  9
$DIMTSZ
 40
0.0
  9
$DIMTOL
 70
     0
  9
$DIMLIM
 70
     0
  9
$DIMTIH
 70
     0
  9
$DIMTOH
 70
     0
  9
$DIMSE1
 70
     0
  9
$DIMSE2
 70
     0
  9
$DIMTAD
 70
     3
  9
$DIMZIN
 70
     8
  9
$DIMBLK
  1

  9
$DIMASO
 70
     1
  9
$DIMSHO
 70
     1
  9
$DIMPOST
  1

  9
$DIMAPOST
  1

  9
$DIMALT
 70
     0
  9
$DIMALTD
 70
     2
  9
$DIMALTF
 40
25.4
  9
$DIMLFAC
 40
1.0
  9
$DIMTOFL
 70
     1
  9
$DIMTVP
 40
0.0
  9
$DIMTIX
 70
     0
  9
$DIMSOXD
 70
     0
  9
$DIMSAH
 70
     1
  9
$DIMBLK1
  1
OPEN
  9
$DIMBLK2
  1
OPEN
  9
$DIMSTYLE
  2
STANDARD
  9
$DIMCLRD
 70
     5
  9
$DIMCLRE
 70
     5
  9
$DIMCLRT
 70
     5
  9
$DIMTFAC
 40
0.7
  9
$DIMGAP
 40
0.5
  9
$LUNITS
 70
     2
  9
$LUPREC
 70
     4
  9
$SKETCHINC
 40
1.0
  9
$FILLETRAD
 40
0.5
  9
$AUNITS
 70
     0
  9
$AUPREC
 70
     0
  9
$MENU
  1
.
  9
$ELEVATION
 40
0.0
  9
$PELEVATION
 40
0.0
  9
$THICKNESS
 40
0.0
  9
$LIMCHECK
 70
     0
  9
$BLIPMODE
 70
     0
  9
$CHAMFERA
 40
1.7
  9
$CHAMFERB
 40
1.7
  9
$SKPOLY
 70
     0
  9
$TDCREATE
 40
2450431.727493866
  9
$TDUPDATE
 40
2460200.403310127
  9
$TDINDWG
 40
6.510756343
  9
$TDUSRTIMER
 40
6.510753623
  9
$USRTIMER
 70
     1
  9
$ANGBASE
 50
0.0
  9
$ANGDIR
 70
     0
  9
$PDMODE
 70
    34
  9
$PDSIZE
 40
0.0
  9
$PLINEWID
 40
0.1
  9
$COORDS
 70
     0
  9
$SPLFRAME
 70
     0
  9
$SPLINETYPE
 70
     6
  9
$SPLINESEGS
 70
     8
  9
$ATTDIA
 70
     1
  9
$ATTREQ
 70
     1
  9
$HANDLING
 70
     1
  9
$HANDSEED
  5
A29
  9
$SURFTAB1
 70
     6
  9
$SURFTAB2
 70
     6
  9
$SURFTYPE
 70
     6
  9
$SURFU
 70
     6
  9
$SURFV
 70
     6
  9
$UCSNAME
  2

  9
$UCSORG
 10
0.0
 20
0.0
 30
0.0
  9
$UCSXDIR
 10
1.0
 20
0.0
 30
0.0
  9
$UCSYDIR
 10
0.0
 20
1.0
 30
0.0
  9
$PUCSNAME
  2

  9
$PUCSORG
 10
0.0
 20
0.0
 30
0.0
  9
$PUCSXDIR
 10
1.0
 20
0.0
 30
0.0
  9
$PUCSYDIR
 10
0.0
 20
1.0
 30
0.0
  9
$USERI1
 70
     0
  9
$USERI2
 70
     0
  9
$USERI3
 70
     0
  9
$USERI4
 70
     0
  9
$USERI5
 70
     0
  9
$USERR1
 40
0.0
  9
$USERR2
 40
0.0
  9
$USERR3
 40
0.0
  9
$USERR4
 40
0.0
  9
$USERR5
 40
0.0
  9
$WORLDVIEW
 70
     1
  9
$SHADEDGE
 70
     3
  9
$SHADEDIF
 70
    70
  9
$TILEMODE
 70
     1
  9
$MAXACTVP
 70
    16
  9
$PLIMCHECK
 70
     0
  9
$PEXTMIN
 10
1.000000000000000E+20
 20
1.000000000000000E+20
 30
1.000000000000000E+20
  9
$PEXTMAX
 10
-1.000000000000000E+20
 20
-1.000000000000000E+20
 30
-1.000000000000000E+20
  9
$PLIMMIN
 10
0.0
 20
0.0
  9
$PLIMMAX
 10
420.0
 20
297.0
  9
$UNITMODE
 70
     0
  9
$VISRETAIN
 70
     0
  9
$PLINEGEN
 70
     0
  9
$PSLTSCALE
 70
     1
  0
ENDSEC
  0
SECTION
  2
TABLES
  0
TABLE
  2
VPORT
 70
     1
  0
VPORT
  2
*ACTIVE
 70
     0
 10
0.0
 20
0.0
 11
1.0
 21
1.0
 12
2961.585986938506
 22
469.7606589497909
 13
0.0
 23
0.0
 14
1.0
 24
1.0
 15
5.0
 25
5.0
 16
0.0
 26
0.0
 36
1.0
 17
0.0
 27
0.0
 37
0.0
 40
680.9022618482218
 41
2.16030534351145
 42
50.0
 43
0.0
 44
0.0
 50
0.0
 51
0.0
 71
     0
 72
   100
 73
     1
 74
     0
 75
     0
 76
     0
 77
     0
 78
     0
  0
ENDTAB
  0
TABLE
  2
LTYPE
 70
     3
  0
LTYPE
  2
CONTINUOUS
 70
     0
  3
Solid line
 72
    65
 73
     0
 40
0.0
  0
LTYPE
  2
CENTER2
 70
     0
  3
___ _ ___ _ ___ _ ___ _ ___ _ ___ _ ___ _ ___ _
 72
    65
 73
     4
 40
1.125
 49
0.75
 49
-0.125
 49
0.125
 49
-0.125
  0
LTYPE
  2
PHANTOM2
 70
     0
  3
Phantom (.5x) ___ _ _ ___ _ _ ___ _ _ ___ _ _
 72
    65
 73
     6
 40
1.25
 49
0.625
 49
-0.125
 49
0.125
 49
-0.125
 49
0.125
 49
-0.125
  0
ENDTAB
  0
TABLE
  2
LAYER
 70
    10
  0
LAYER
  2
0
 70
     0
 62
     7
  6
CONTINUOUS
  0
LAYER
  2
DEFPOINTS
 70
     0
 62
     7
  6
CONTINUOUS
  0
LAYER
  2
回08-記事
 70
     0
 62
     7
  6
CONTINUOUS
  0
LAYER
  2
回07-寸法
 70
     0
 62
     7
  6
CONTINUOUS
  0
LAYER
  2
回04-下接
 70
     0
 62
     7
  6
CONTINUOUS
  0
LAYER
  2
回05-ﾃｰﾙ
 70
     0
 62
     7
  6
CONTINUOUS
  0
LAYER
  2
回04-図面枠
 70
     0
 62
     7
  6
CONTINUOUS
  0
LAYER
  2
回01-TP外形
 70
     0
 62
     7
  6
CONTINUOUS
  0
LAYER
  2
回02-寸法
 70
     0
 62
     7
  6
CONTINUOUS
  0
LAYER
  2
回03-記事
 70
     0
 62
     7
  6
CONTINUOUS
  0
ENDTAB
  0
TABLE
  2
STYLE
 70
     2
  0
STYLE
  2
STANDARD
 70
     0
 40
4.0
 41
1.0
 50
0.0
 71
     0
 42
4.0
  3
isocp.shx
  4
bigfont.shx
  0
STYLE
  2
ANNOTATIVE
 70
     0
 40
0.0
 41
1.0
 50
0.0
 71
     0
 42
0.2
  3
txt.shx
  4

  0
ENDTAB
  0
TABLE
  2
VIEW
 70
     0
  0
ENDTAB
  0
TABLE
  2
UCS
 70
     0
  0
ENDTAB
  0
TABLE
  2
APPID
 70
     7
  0
APPID
  2
ACAD
 70
     0
  0
APPID
  2
ACADANNOTATIVE
 70
     0
  0
APPID
  2
ACAD_PSEXT
 70
     0
  0
APPID
  2
ACAECLAYERSTANDARD
 70
     0
  0
APPID
  2
ACADSTRINGINFO
 70
     0
  0
APPID
  2
ACAD_MLEADERVER
 70
     0
  0
APPID
  2
ACAD_NAV_VCDISPLAY
 70
     0
  0
ENDTAB
  0
TABLE
  2
DIMSTYLE
 70
     4
  0
DIMSTYLE
  2
STANDARD
 70
     0
  3

  4

  5

  6
OPEN
  7
OPEN
 40
1.0
 41
2.0
 42
0.0
 43
0.0
 44
1.0
 45
0.0
 46
0.0
 47
0.0
 48
0.0
140
3.0
141
2.0
142
0.0
143
25.4
144
1.0
145
0.0
146
1.0
147
0.5
 71
     0
 72
     0
 73
     0
 74
     0
 75
     0
 76
     0
 77
     3
 78
     8
170
     0
171
     2
172
     1
173
     1
174
     0
175
     0
176
     5
177
     5
178
     5
  0
DIMSTYLE
  2
RUISIN
 70
     0
  3

  4

  5

  6
OPEN
  7
OPEN
 40
1.0
 41
2.0
 42
0.0
 43
0.0
 44
1.0
 45
0.0
 46
0.0
 47
0.0
 48
0.0
140
3.0
141
2.0
142
0.0
143
25.4
144
1.0
145
0.0
146
1.0
147
0.5
 71
     0
 72
     0
 73
     0
 74
     0
 75
     0
 76
     0
 77
     3
 78
     8
170
     0
171
     2
172
     1
173
     1
174
     0
175
     0
176
     5
177
     5
178
     5
  0
DIMSTYLE
  2
KOUSA
 70
     0
  3

  4

  5

  6
OPEN
  7
OPEN
 40
1.0
 41
2.0
 42
0.0
 43
0.0
 44
1.0
 45
0.0
 46
0.0
 47
0.1
 48
0.1
140
3.0
141
2.0
142
0.0
143
25.4
144
1.0
145
0.0
146
0.7
147
0.5
 71
     1
 72
     0
 73
     0
 74
     0
 75
     0
 76
     0
 77
     3
 78
     8
170
     0
171
     2
172
     1
173
     1
174
     0
175
     0
176
     5
177
     5
178
     5
  0
DIMSTYLE
  2
DMC
 70
     0
  3

  4

  5
OPEN
  6

  7

 40
1.0
 41
2.0
 42
0.0
 43
0.0
 44
1.0
 45
0.0
 46
0.0
 47
0.0
 48
0.0
140
3.0
141
2.0
142
0.0
143
0.03937007874016
144
1.0
145
0.0
146
0.7
147
0.5
 71
     0
 72
     0
 73
     0
 74
     0
 75
     0
 76
     0
 77
     3
 78
     8
170
     0
171
     3
172
     1
173
     0
174
     0
175
     0
176
     5
177
     5
178
     5
  0
ENDTAB
  0
ENDSEC
  0
SECTION
  2
BLOCKS
  0
BLOCK
  8
0
  2
$MODEL_SPACE
 70
     0
 10
0.0
 20
0.0
 30
0.0
  3
$MODEL_SPACE
  1

  0
ENDBLK
  8
0
  5
23
  0
BLOCK
 67
     1
  8
0
  2
$PAPER_SPACE
 70
     0
 10
0.0
 20
0.0
 30
0.0
  3
$PAPER_SPACE
  1

  0
ENDBLK
  5
29
 67
     1
  8
0
  0
BLOCK
  8
0
  2
_OPEN
 70
     0
 10
0.0
 20
0.0
 30
0.0
  3
_OPEN
  1

  0
LINE
  5
7E2
  8
0
  6
BYBLOCK
 62
     0
 10
-1.0
 20
0.166667
 30
0.0
 11
0.0
 21
0.0
 31
0.0
  0
LINE
  5
7E3
  8
0
  6
BYBLOCK
 62
     0
 10
-1.0
 20
-0.166667
 30
0.0
 11
0.0
 21
0.0
 31
0.0
  0
LINE
  5
7E4
  8
0
  6
BYBLOCK
 62
     0
 10
0.0
 20
0.0
 30
0.0
 11
-1.0
 21
0.0
 31
0.0
  0
LINE
  5
16
  8
0
  6
BYBLOCK
 62
     0
 10
-1.0
 20
0.1666666666666666
 30
0.0
 11
0.0
 21
0.0
 31
0.0
  0
LINE
  5
18
  8
0
  6
BYBLOCK
 62
     0
 10
0.0
 20
0.0
 30
0.0
 11
-1.0
 21
-0.1666666666666666
 31
0.0
  0
LINE
  5
19
  8
0
  6
BYBLOCK
 62
     0
 10
0.0
 20
0.0
 30
0.0
 11
-1.0
 21
0.0
 31
0.0
  0
ENDBLK
  5
1A
  8
0
  0
BLOCK
  8
0
  2
*D11
 70
     1
 10
0.0
 20
0.0
 30
0.0
  3
*D11
  1

  0
LINE
  5
44F
  8
回02-寸法
  6
CONTINUOUS
 62
     5
 10
874.1831781834248
 20
-2429.889521784136
 30
0.0
 11
874.1831781834248
 21
-2394.458862915264
 31
0.0
  0
LINE
  5
450
  8
回02-寸法
  6
CONTINUOUS
 62
     5
 10
1097.403178183425
 20
-2429.889521784136
 30
0.0
 11
1097.403178183425
 21
-2394.458862915264
 31
0.0
  0
LINE
  5
451
  8
回02-寸法
  6
CONTINUOUS
 62
     5
 10
875.6831781834247
 20
-2395.458862915264
 30
0.0
 11
1095.903178183424
 21
-2395.458862915264
 31
0.0
  0
INSERT
  5
452
  8
回02-寸法
  6
CONTINUOUS
 62
     5
 66
     1
  2
_OPEN
 10
874.1831781834248
 20
-2395.458862915264
 30
0.0
 41
1.5
 42
1.5
 43
1.5
 50
180.0
  0
SEQEND
  5
453
  8
回07-寸法
  6
CONTINUOUS
 62
     7
  0
INSERT
  5
454
  8
回02-寸法
  6
CONTINUOUS
 62
     5
 66
     1
  2
_OPEN
 10
1097.403178183425
 20
-2395.458862915264
 30
0.0
 41
1.5
 42
1.5
 43
1.5
  0
SEQEND
  5
455
  8
回07-寸法
  6
CONTINUOUS
 62
     7
  0
INSERT
  5
456
  8
回02-寸法
  6
CONTINUOUS
 62
     5
 66
     1
  2
*X8383
 10
0.0
 20
0.0
 30
0.0
  0
SEQEND
  5
6E0
  8
回07-寸法
  6
CONTINUOUS
 62
     7
  0
POINT
  5
457
  8
DEFPOINTS
  6
CONTINUOUS
 62
     0
 10
874.1831781834248
 20
-2429.889521784136
 30
0.0
  0
POINT
  5
458
  8
DEFPOINTS
  6
CONTINUOUS
 62
     0
 10
1097.403178183425
 20
-2429.889521784136
 30
0.0
  0
POINT
  5
459
  8
DEFPOINTS
  6
CONTINUOUS
 62
     0
 10
1097.403178183425
 20
-2395.458862915264
 30
0.0
  0
ENDBLK
  5
45A
  8
0
 62
     7
  0
BLOCK
  8
0
  2
*D22
 70
     1
 10
0.0
 20
0.0
 30
0.0
  3
*D22
  1

  0
LINE
  5
440
  8
回02-寸法
  6
CONTINUOUS
 62
     5
 10
872.1831781834247
 20
-2427.889521784136
 30
0.0
 11
872.1831781834247
 21
-2387.012234658573
 31
0.0
  0
LINE
  5
441
  8
回02-寸法
  6
CONTINUOUS
 62
     5
 10
1099.403178183425
 20
-2427.889521784136
 30
0.0
 11
1099.403178183425
 21
-2387.012234658573
 31
0.0
  0
LINE
  5
442
  8
回02-寸法
  6
CONTINUOUS
 62
     5
 10
873.6831781834249
 20
-2388.012234658573
 30
0.0
 11
1097.903178183424
 21
-2388.012234658573
 31
0.0
  0
INSERT
  5
443
  8
回02-寸法
  6
CONTINUOUS
 62
     5
 66
     1
  2
_OPEN
 10
872.1831781834247
 20
-2388.012234658573
 30
0.0
 41
1.5
 42
1.5
 43
1.5
 50
180.0
  0
SEQEND
  5
444
  8
回07-寸法
  6
CONTINUOUS
 62
     7
  0
INSERT
  5
445
  8
回02-寸法
  6
CONTINUOUS
 62
     5
 66
     1
  2
_OPEN
 10
1099.403178183425
 20
-2388.012234658573
 30
0.0
 41
1.5
 42
1.5
 43
1.5
  0
SEQEND
  5
446
  8
回07-寸法
  6
CONTINUOUS
 62
     7
  0
INSERT
  5
447
  8
回02-寸法
  6
CONTINUOUS
 62
     5
 66
     1
  2
*X8484
 10
0.0
 20
0.0
 30
0.0
  0
SEQEND
  5
6E6
  8
回07-寸法
  6
CONTINUOUS
 62
     7
  0
POINT
  5
448
  8
DEFPOINTS
  6
CONTINUOUS
 62
     0
 10
872.1831781834247
 20
-2427.889521784136
 30
0.0
  0
POINT
  5
449
  8
DEFPOINTS
  6
CONTINUOUS
 62
     0
 10
1099.403178183425
 20
-2427.889521784136
 30
0.0
  0
POINT
  5
44A
  8
DEFPOINTS
  6
CONTINUOUS
 62
     0
 10
1099.403178183425
 20
-2388.012234658573
 30
0.0
  0
ENDBLK
  5
44B
  8
0
 62
     7
  0
BLOCK
  8
0
  2
*D33
 70
     1
 10
0.0
 20
0.0
 30
0.0
  3
*D33
  1

  0
LINE
  5
431
  8
回02-寸法
  6
CONTINUOUS
 62
     5
 10
866.4831781834255
 20
-2421.279521784134
 30
0.0
 11
866.4831781834255
 21
-2373.831036346592
 31
0.0
  0
LINE
  5
432
  8
回02-寸法
  6
CONTINUOUS
 62
     5
 10
1101.483178183425
 20
-2421.279521784136
 30
0.0
 11
1101.483178183425
 21
-2373.831036346592
 31
0.0
  0
LINE
  5
433
  8
回02-寸法
  6
CONTINUOUS
 62
     5
 10
867.9831781834254
 20
-2374.831036346593
 30
0.0
 11
1099.983178183425
 21
-2374.831036346593
 31
0.0
  0
INSERT
  5
434
  8
回02-寸法
  6
CONTINUOUS
 62
     5
 66
     1
  2
_OPEN
 10
866.4831781834255
 20
-2374.831036346593
 30
0.0
 41
1.5
 42
1.5
 43
1.5
 50
180.0
  0
SEQEND
  5
435
  8
回07-寸法
  6
CONTINUOUS
 62
     7
  0
INSERT
  5
436
  8
回02-寸法
  6
CONTINUOUS
 62
     5
 66
     1
  2
_OPEN
 10
1101.483178183425
 20
-2374.831036346593
 30
0.0
 41
1.5
 42
1.5
 43
1.5
  0
SEQEND
  5
437
  8
回07-寸法
  6
CONTINUOUS
 62
     7
  0
INSERT
  5
438
  8
回02-寸法
  6
CONTINUOUS
 62
     5
 66
     1
  2
*X8585
 10
0.0
 20
0.0
 30
0.0
  0
SEQEND
  5
6EC
  8
回07-寸法
  6
CONTINUOUS
 62
     7
  0
POINT
  5
439
  8
DEFPOINTS
  6
CONTINUOUS
 62
     0
 10
866.4831781834255
 20
-2421.279521784134
 30
0.0
  0
POINT
  5
43A
  8
DEFPOINTS
  6
CONTINUOUS
 62
     0
 10
1101.483178183425
 20
-2421.279521784136
 30
0.0
  0
POINT
  5
43B
  8
DEFPOINTS
  6
CONTINUOUS
 62
     0
 10
1101.483178183425
 20
-2374.831036346593
 30
0.0
  0
ENDBLK
  5
43C
  8
0
 62
     7
  0
BLOCK
  8
0
  2
*D44
 70
     1
 10
0.0
 20
0.0
 30
0.0
  3
*D44
  1

  0
LINE
  5
422
  8
回02-寸法
  6
CONTINUOUS
 62
     5
 10
1097.403178183425
 20
-2555.669521784137
 30
0.0
 11
1120.456569694988
 21
-2555.669521784137
 31
0.0
  0
LINE
  5
423
  8
回02-寸法
  6
CONTINUOUS
 62
     5
 10
1097.403178183425
 20
-2429.889521784137
 30
0.0
 11
1120.456569694988
 21
-2429.889521784137
 31
0.0
  0
LINE
  5
424
  8
回02-寸法
  6
CONTINUOUS
 62
     5
 10
1119.456569694988
 20
-2554.169521784138
 30
0.0
 11
1119.456569694988
 21
-2431.389521784137
 31
0.0
  0
INSERT
  5
425
  8
回02-寸法
  6
CONTINUOUS
 62
     5
 66
     1
  2
_OPEN
 10
1119.456569694988
 20
-2555.669521784137
 30
0.0
 41
1.5
 42
1.5
 43
1.5
 50
270.0
  0
SEQEND
  5
426
  8
回07-寸法
  6
CONTINUOUS
 62
     7
  0
INSERT
  5
427
  8
回02-寸法
  6
CONTINUOUS
 62
     5
 66
     1
  2
_OPEN
 10
1119.456569694988
 20
-2429.889521784137
 30
0.0
 41
1.5
 42
1.5
 43
1.5
 50
90.0
  0
SEQEND
  5
428
  8
回07-寸法
  6
CONTINUOUS
 62
     7
  0
INSERT
  5
429
  8
回02-寸法
  6
CONTINUOUS
 62
     5
 66
     1
  2
*X8686
 10
0.0
 20
0.0
 30
0.0
  0
SEQEND
  5
6F2
  8
回07-寸法
  6
CONTINUOUS
 62
     7
  0
POINT
  5
42A
  8
DEFPOINTS
  6
CONTINUOUS
 62
     0
 10
1097.403178183425
 20
-2555.669521784137
 30
0.0
  0
POINT
  5
42B
  8
DEFPOINTS
  6
CONTINUOUS
 62
     0
 10
1097.403178183425
 20
-2429.889521784137
 30
0.0
  0
POINT
  5
42C
  8
DEFPOINTS
  6
CONTINUOUS
 62
     0
 10
1119.456569694988
 20
-2429.889521784137
 30
0.0
  0
ENDBLK
  5
42D
  8
0
 62
     7
  0
BLOCK
  8
0
  2
*D55
 70
     1
 10
0.0
 20
0.0
 30
0.0
  3
*D55
  1

  0
LINE
  5
413
  8
回02-寸法
  6
CONTINUOUS
 62
     5
 10
1099.403178183425
 20
-2427.889521784137
 30
0.0
 11
1128.807796155105
 21
-2427.889521784137
 31
0.0
  0
LINE
  5
414
  8
回02-寸法
  6
CONTINUOUS
 62
     5
 10
1099.403178183425
 20
-2557.669521784137
 30
0.0
 11
1128.807796155105
 21
-2557.669521784137
 31
0.0
  0
LINE
  5
415
  8
回02-寸法
  6
CONTINUOUS
 62
     5
 10
1127.807796155105
 20
-2429.389521784137
 30
0.0
 11
1127.807796155105
 21
-2556.169521784137
 31
0.0
  0
INSERT
  5
416
  8
回02-寸法
  6
CONTINUOUS
 62
     5
 66
     1
  2
_OPEN
 10
1127.807796155105
 20
-2427.889521784137
 30
0.0
 41
1.5
 42
1.5
 43
1.5
 50
90.0
  0
SEQEND
  5
417
  8
回07-寸法
  6
CONTINUOUS
 62
     7
  0
INSERT
  5
418
  8
回02-寸法
  6
CONTINUOUS
 62
     5
 66
     1
  2
_OPEN
 10
1127.807796155105
 20
-2557.669521784137
 30
0.0
 41
1.5
 42
1.5
 43
1.5
 50
270.0
  0
SEQEND
  5
419
  8
回07-寸法
  6
CONTINUOUS
 62
     7
  0
INSERT
  5
41A
  8
回02-寸法
  6
CONTINUOUS
 62
     5
 66
     1
  2
*X8787
 10
0.0
 20
0.0
 30
0.0
  0
SEQEND
  5
6F8
  8
回07-寸法
  6
CONTINUOUS
 62
     7
  0
POINT
  5
41B
  8
DEFPOINTS
  6
CONTINUOUS
 62
     0
 10
1099.403178183425
 20
-2427.889521784137
 30
0.0
  0
POINT
  5
41C
  8
DEFPOINTS
  6
CONTINUOUS
 62
     0
 10
1099.403178183425
 20
-2557.669521784137
 30
0.0
  0
POINT
  5
41D
  8
DEFPOINTS
  6
CONTINUOUS
 62
     0
 10
1127.807796155105
 20
-2557.669521784137
 30
0.0
  0
ENDBLK
  5
41E
  8
0
 62
     7
  0
BLOCK
  8
0
  2
*D66
 70
     1
 10
0.0
 20
0.0
 30
0.0
  3
*D66
  1

  0
LINE
  5
404
  8
回02-寸法
  6
CONTINUOUS
 62
     5
 10
1101.483178183426
 20
-2564.279521784137
 30
0.0
 11
1142.92088838544
 21
-2564.279521784137
 31
0.0
  0
LINE
  5
405
  8
回02-寸法
  6
CONTINUOUS
 62
     5
 10
1101.483178183425
 20
-2421.279521784136
 30
0.0
 11
1142.92088838544
 21
-2421.279521784136
 31
0.0
  0
LINE
  5
406
  8
回02-寸法
  6
CONTINUOUS
 62
     5
 10
1141.92088838544
 20
-2562.779521784137
 30
0.0
 11
1141.92088838544
 21
-2422.779521784136
 31
0.0
  0
INSERT
  5
407
  8
回02-寸法
  6
CONTINUOUS
 62
     5
 66
     1
  2
_OPEN
 10
1141.92088838544
 20
-2564.279521784137
 30
0.0
 41
1.5
 42
1.5
 43
1.5
 50
270.0
  0
SEQEND
  5
408
  8
回07-寸法
  6
CONTINUOUS
 62
     7
  0
INSERT
  5
409
  8
回02-寸法
  6
CONTINUOUS
 62
     5
 66
     1
  2
_OPEN
 10
1141.92088838544
 20
-2421.279521784136
 30
0.0
 41
1.5
 42
1.5
 43
1.5
 50
90.0
  0
SEQEND
  5
40A
  8
回07-寸法
  6
CONTINUOUS
 62
     7
  0
INSERT
  5
40B
  8
回02-寸法
  6
CONTINUOUS
 62
     5
 66
     1
  2
*X8888
 10
0.0
 20
0.0
 30
0.0
  0
SEQEND
  5
6FE
  8
回07-寸法
  6
CONTINUOUS
 62
     7
  0
POINT
  5
40C
  8
DEFPOINTS
  6
CONTINUOUS
 62
     0
 10
1101.483178183426
 20
-2564.279521784137
 30
0.0
  0
POINT
  5
40D
  8
DEFPOINTS
  6
CONTINUOUS
 62
     0
 10
1101.483178183425
 20
-2421.279521784136
 30
0.0
  0
POINT
  5
40E
  8
DEFPOINTS
  6
CONTINUOUS
 62
     0
 10
1141.92088838544
 20
-2421.279521784136
 30
0.0
  0
ENDBLK
  5
40F
  8
0
 62
     7
  0
BLOCK
  8
0
  2
*D77
 70
     1
 10
0.0
 20
0.0
 30
0.0
  3
*D77
  1

  0
LINE
  5
3F3
  8
回02-寸法
  6
CONTINUOUS
 62
     5
 10
874.1831781834248
 20
-2429.889521784136
 30
0.0
 11
874.1831781834248
 21
-2394.458862915264
 31
0.0
  0
LINE
  5
3F4
  8
回02-寸法
  6
CONTINUOUS
 62
     5
 10
866.4831781834255
 20
-2421.279521784134
 30
0.0
 11
866.4831781834255
 21
-2394.458862915264
 31
0.0
  0
LINE
  5
3F5
  8
回02-寸法
  6
CONTINUOUS
 62
     5
 10
875.6831781834247
 20
-2395.458862915264
 30
0.0
 11
877.1831781834249
 21
-2395.458862915264
 31
0.0
  0
LINE
  5
3F6
  8
回02-寸法
  6
CONTINUOUS
 62
     5
 10
864.9831781834254
 20
-2395.458862915264
 30
0.0
 11
854.3839655850003
 21
-2395.458862915264
 31
0.0
  0
LINE
  5
3F7
  8
回02-寸法
  6
CONTINUOUS
 62
     5
 10
874.1831781834248
 20
-2395.458862915264
 30
0.0
 11
866.4831781834255
 21
-2395.458862915264
 31
0.0
  0
INSERT
  5
3F8
  8
回02-寸法
  6
CONTINUOUS
 62
     5
 66
     1
  2
_OPEN
 10
874.1831781834248
 20
-2395.458862915264
 30
0.0
 41
1.5
 42
1.5
 43
1.5
 50
180.0
  0
SEQEND
  5
3F9
  8
回07-寸法
  6
CONTINUOUS
 62
     7
  0
INSERT
  5
3FA
  8
回02-寸法
  6
CONTINUOUS
 62
     5
 66
     1
  2
_OPEN
 10
866.4831781834255
 20
-2395.458862915264
 30
0.0
 41
1.5
 42
1.5
 43
1.5
  0
SEQEND
  5
3FB
  8
回07-寸法
  6
CONTINUOUS
 62
     7
  0
TEXT
  5
3FC
  8
回02-寸法
  6
CONTINUOUS
 62
     5
 10
854.2839655850002
 20
-2394.958862915264
 30
0.0
 40
4.0
  1
7.7
1001
ACAD
1000
MTEXTBEGIN
1070
    73
1070
     1
1070
    44
1040
1.0
1070
    74
1070
     0
1000
MTEXTEND
  0
POINT
  5
3FD
  8
DEFPOINTS
  6
CONTINUOUS
 62
     0
 10
874.1831781834248
 20
-2429.889521784136
 30
0.0
  0
POINT
  5
3FE
  8
DEFPOINTS
  6
CONTINUOUS
 62
     0
 10
866.4831781834255
 20
-2421.279521784134
 30
0.0
  0
POINT
  5
3FF
  8
DEFPOINTS
  6
CONTINUOUS
 62
     0
 10
866.4831781834255
 20
-2395.458862915264
 30
0.0
  0
ENDBLK
  5
400
  8
0
 62
     7
  0
BLOCK
  8
0
  2
*D88
 70
     1
 10
0.0
 20
0.0
 30
0.0
  3
*D88
  1

  0
LINE
  5
3E2
  8
回02-寸法
  6
CONTINUOUS
 62
     5
 10
872.1831781834247
 20
-2427.889521784136
 30
0.0
 11
872.1831781834247
 21
-2387.012234658573
 31
0.0
  0
LINE
  5
3E3
  8
回02-寸法
  6
CONTINUOUS
 62
     5
 10
866.4831781834255
 20
-2421.279521784134
 30
0.0
 11
866.4831781834255
 21
-2387.012234658573
 31
0.0
  0
LINE
  5
3E4
  8
回02-寸法
  6
CONTINUOUS
 62
     5
 10
873.6831781834249
 20
-2388.012234658573
 30
0.0
 11
875.1831781834248
 21
-2388.012234658573
 31
0.0
  0
LINE
  5
3E5
  8
回02-寸法
  6
CONTINUOUS
 62
     5
 10
864.9831781834254
 20
-2388.012234658573
 30
0.0
 11
855.3839655850001
 21
-2388.012234658573
 31
0.0
  0
LINE
  5
3E6
  8
回02-寸法
  6
CONTINUOUS
 62
     5
 10
872.1831781834247
 20
-2388.012234658573
 30
0.0
 11
866.4831781834255
 21
-2388.012234658573
 31
0.0
  0
INSERT
  5
3E7
  8
回02-寸法
  6
CONTINUOUS
 62
     5
 66
     1
  2
_OPEN
 10
872.1831781834247
 20
-2388.012234658573
 30
0.0
 41
1.5
 42
1.5
 43
1.5
 50
180.0
  0
SEQEND
  5
3E8
  8
回07-寸法
  6
CONTINUOUS
 62
     7
  0
INSERT
  5
3E9
  8
回02-寸法
  6
CONTINUOUS
 62
     5
 66
     1
  2
_OPEN
 10
866.4831781834255
 20
-2388.012234658573
 30
0.0
 41
1.5
 42
1.5
 43
1.5
  0
SEQEND
  5
3EA
  8
回07-寸法
  6
CONTINUOUS
 62
     7
  0
TEXT
  5
3EB
  8
回02-寸法
  6
CONTINUOUS
 62
     5
 10
855.2839655850002
 20
-2387.512234658573
 30
0.0
 40
4.0
  1
5.7
1001
ACAD
1000
MTEXTBEGIN
1070
    73
1070
     1
1070
    44
1040
1.0
1070
    74
1070
     0
1000
MTEXTEND
  0
POINT
  5
3EC
  8
DEFPOINTS
  6
CONTINUOUS
 62
     0
 10
872.1831781834247
 20
-2427.889521784136
 30
0.0
  0
POINT
  5
3ED
  8
DEFPOINTS
  6
CONTINUOUS
 62
     0
 10
866.4831781834255
 20
-2421.279521784134
 30
0.0
  0
POINT
  5
3EE
  8
DEFPOINTS
  6
CONTINUOUS
 62
     0
 10
866.4831781834255
 20
-2388.012234658573
 30
0.0
  0
ENDBLK
  5
3EF
  8
0
 62
     7
  0
BLOCK
  8
0
  2
*D99
 70
     1
 10
0.0
 20
0.0
 30
0.0
  3
*D99
  1

  0
LINE
  5
3D1
  8
回02-寸法
  6
CONTINUOUS
 62
     5
 10
1097.403178183425
 20
-2555.669521784137
 30
0.0
 11
1120.456569694987
 21
-2555.669521784137
 31
0.0
  0
LINE
  5
3D2
  8
回02-寸法
  6
CONTINUOUS
 62
     5
 10
1101.483178183426
 20
-2564.279521784137
 30
0.0
 11
1120.456569694987
 21
-2564.279521784137
 31
0.0
  0
LINE
  5
3D3
  8
回02-寸法
  6
CONTINUOUS
 62
     5
 10
1119.456569694986
 20
-2554.169521784138
 30
0.0
 11
1119.456569694986
 21
-2552.669521784137
 31
0.0
  0
LINE
  5
3D4
  8
回02-寸法
  6
CONTINUOUS
 62
     5
 10
1119.456569694987
 20
-2565.779521784137
 30
0.0
 11
1119.456569694987
 21
-2577.29924627032
 31
0.0
  0
LINE
  5
3D5
  8
回02-寸法
  6
CONTINUOUS
 62
     5
 10
1119.456569694986
 20
-2555.669521784137
 30
0.0
 11
1119.456569694986
 21
-2564.279521784137
 31
0.0
  0
INSERT
  5
3D6
  8
回02-寸法
  6
CONTINUOUS
 62
     5
 66
     1
  2
_OPEN
 10
1119.456569694986
 20
-2555.669521784137
 30
0.0
 41
1.5
 42
1.5
 43
1.5
 50
270.0
  0
SEQEND
  5
3D7
  8
回07-寸法
  6
CONTINUOUS
 62
     7
  0
INSERT
  5
3D8
  8
回02-寸法
  6
CONTINUOUS
 62
     5
 66
     1
  2
_OPEN
 10
1119.456569694987
 20
-2564.279521784137
 30
0.0
 41
1.5
 42
1.5
 43
1.5
 50
90.0
  0
SEQEND
  5
3D9
  8
回07-寸法
  6
CONTINUOUS
 62
     7
  0
TEXT
  5
3DA
  8
回02-寸法
  6
CONTINUOUS
 62
     5
 10
1118.956569694986
 20
-2577.399246270321
 30
0.0
 40
4.0
  1
8.61
 50
90.0
1001
ACAD
1000
MTEXTBEGIN
1070
    73
1070
     1
1070
    44
1040
1.0
1070
    74
1070
     0
1000
MTEXTEND
  0
POINT
  5
3DB
  8
DEFPOINTS
  6
CONTINUOUS
 62
     0
 10
1097.403178183425
 20
-2555.669521784137
 30
0.0
  0
POINT
  5
3DC
  8
DEFPOINTS
  6
CONTINUOUS
 62
     0
 10
1101.483178183426
 20
-2564.279521784137
 30
0.0
  0
POINT
  5
3DD
  8
DEFPOINTS
  6
CONTINUOUS
 62
     0
 10
1119.456569694987
 20
-2564.279521784137
 30
0.0
  0
ENDBLK
  5
3DE
  8
0
 62
     7
  0
BLOCK
  8
0
  2
*D1010
 70
     1
 10
0.0
 20
0.0
 30
0.0
  3
*D1010
  1

  0
LINE
  5
3C0
  8
回02-寸法
  6
CONTINUOUS
 62
     5
 10
1099.403178183425
 20
-2557.669521784137
 30
0.0
 11
1128.807796155104
 21
-2557.669521784137
 31
0.0
  0
LINE
  5
3C1
  8
回02-寸法
  6
CONTINUOUS
 62
     5
 10
1101.483178183426
 20
-2564.279521784137
 30
0.0
 11
1128.807796155104
 21
-2564.279521784137
 31
0.0
  0
LINE
  5
3C2
  8
回02-寸法
  6
CONTINUOUS
 62
     5
 10
1127.807796155104
 20
-2556.169521784137
 30
0.0
 11
1127.807796155104
 21
-2554.669521784137
 31
0.0
  0
LINE
  5
3C3
  8
回02-寸法
  6
CONTINUOUS
 62
     5
 10
1127.807796155104
 20
-2565.779521784137
 30
0.0
 11
1127.807796155104
 21
-2576.118891862877
 31
0.0
  0
LINE
  5
3C4
  8
回02-寸法
  6
CONTINUOUS
 62
     5
 10
1127.807796155104
 20
-2557.669521784137
 30
0.0
 11
1127.807796155104
 21
-2564.279521784137
 31
0.0
  0
INSERT
  5
3C5
  8
回02-寸法
  6
CONTINUOUS
 62
     5
 66
     1
  2
_OPEN
 10
1127.807796155104
 20
-2557.669521784137
 30
0.0
 41
1.5
 42
1.5
 43
1.5
 50
270.0
  0
SEQEND
  5
3C6
  8
回07-寸法
  6
CONTINUOUS
 62
     7
  0
INSERT
  5
3C7
  8
回02-寸法
  6
CONTINUOUS
 62
     5
 66
     1
  2
_OPEN
 10
1127.807796155104
 20
-2564.279521784137
 30
0.0
 41
1.5
 42
1.5
 43
1.5
 50
90.0
  0
SEQEND
  5
3C8
  8
回07-寸法
  6
CONTINUOUS
 62
     7
  0
TEXT
  5
3C9
  8
回02-寸法
  6
CONTINUOUS
 62
     5
 10
1127.307796155103
 20
-2576.099206823507
 30
0.0
 40
4.0
  1
6.61
 50
90.0
1001
ACAD
1000
MTEXTBEGIN
1070
    73
1070
     1
1070
    44
1040
1.0
1070
    74
1070
     0
1000
MTEXTEND
  0
POINT
  5
3CA
  8
DEFPOINTS
  6
CONTINUOUS
 62
     0
 10
1099.403178183425
 20
-2557.669521784137
 30
0.0
  0
POINT
  5
3CB
  8
DEFPOINTS
  6
CONTINUOUS
 62
     0
 10
1101.483178183426
 20
-2564.279521784137
 30
0.0
  0
POINT
  5
3CC
  8
DEFPOINTS
  6
CONTINUOUS
 62
     0
 10
1127.807796155104
 20
-2564.279521784137
 30
0.0
  0
ENDBLK
  5
3CD
  8
0
 62
     7
  0
BLOCK
  8
0
  2
*D1111
 70
     1
 10
0.0
 20
0.0
 30
0.0
  3
*D1111
  1

  0
LINE
  5
3B1
  8
回02-寸法
  6
CONTINUOUS
 62
     5
 10
1099.703178183424
 20
-2427.089521784136
 30
0.0
 11
1099.703178183424
 21
-2379.98704786594
 31
0.0
  0
LINE
  5
3B2
  8
回02-寸法
  6
CONTINUOUS
 62
     5
 10
871.6831781834248
 20
-2427.089521784136
 30
0.0
 11
871.6831781834248
 21
-2379.98704786594
 31
0.0
  0
LINE
  5
3B3
  8
回02-寸法
  6
CONTINUOUS
 62
     5
 10
1098.203178183424
 20
-2380.987047865941
 30
0.0
 11
873.1831781834246
 21
-2380.987047865941
 31
0.0
  0
INSERT
  5
3B4
  8
回02-寸法
  6
CONTINUOUS
 62
     5
 66
     1
  2
_OPEN
 10
1099.703178183424
 20
-2380.987047865941
 30
0.0
 41
1.5
 42
1.5
 43
1.5
  0
SEQEND
  5
3B5
  8
回07-寸法
  6
CONTINUOUS
 62
     7
  0
INSERT
  5
3B6
  8
回02-寸法
  6
CONTINUOUS
 62
     5
 66
     1
  2
_OPEN
 10
871.6831781834248
 20
-2380.987047865941
 30
0.0
 41
1.5
 42
1.5
 43
1.5
 50
180.0
  0
SEQEND
  5
3B7
  8
回07-寸法
  6
CONTINUOUS
 62
     7
  0
TEXT
  5
3B8
  8
回02-寸法
  6
CONTINUOUS
 62
     5
 10
978.0927359363042
 20
-2380.486654165153
 30
0.0
 40
4.0
  1
228.02
1001
ACAD
1000
MTEXTBEGIN
1070
    73
1070
     1
1070
    44
1040
1.0
1070
    74
1070
     0
1000
MTEXTEND
  0
POINT
  5
3B9
  8
DEFPOINTS
  6
CONTINUOUS
 62
     0
 10
1099.703178183424
 20
-2427.089521784136
 30
0.0
  0
POINT
  5
3BA
  8
DEFPOINTS
  6
CONTINUOUS
 62
     0
 10
871.6831781834248
 20
-2427.089521784136
 30
0.0
  0
POINT
  5
3BB
  8
DEFPOINTS
  6
CONTINUOUS
 62
     0
 10
871.6831781834248
 20
-2380.987047865941
 30
0.0
  0
ENDBLK
  5
3BC
  8
0
 62
     7
  0
BLOCK
  8
0
  2
*D1212
 70
     1
 10
0.0
 20
0.0
 30
0.0
  3
*D1212
  1

  0
LINE
  5
3A2
  8
回02-寸法
  6
CONTINUOUS
 62
     5
 10
1099.703178183425
 20
-2427.089521784137
 30
0.0
 11
1135.796859837541
 21
-2427.089521784137
 31
0.0
  0
LINE
  5
3A3
  8
回02-寸法
  6
CONTINUOUS
 62
     5
 10
1099.703178183425
 20
-2558.469521784137
 30
0.0
 11
1135.796859837541
 21
-2558.469521784137
 31
0.0
  0
LINE
  5
3A4
  8
回02-寸法
  6
CONTINUOUS
 62
     5
 10
1134.796859837541
 20
-2428.589521784137
 30
0.0
 11
1134.796859837541
 21
-2556.969521784137
 31
0.0
  0
INSERT
  5
3A5
  8
回02-寸法
  6
CONTINUOUS
 62
     5
 66
     1
  2
_OPEN
 10
1134.796859837541
 20
-2427.089521784137
 30
0.0
 41
1.5
 42
1.5
 43
1.5
 50
90.0
  0
SEQEND
  5
3A6
  8
回07-寸法
  6
CONTINUOUS
 62
     7
  0
INSERT
  5
3A7
  8
回02-寸法
  6
CONTINUOUS
 62
     5
 66
     1
  2
_OPEN
 10
1134.796859837541
 20
-2558.469521784137
 30
0.0
 41
1.5
 42
1.5
 43
1.5
 50
270.0
  0
SEQEND
  5
3A8
  8
回07-寸法
  6
CONTINUOUS
 62
     7
  0
TEXT
  5
3A9
  8
回02-寸法
  6
CONTINUOUS
 62
     5
 10
1134.29685983754
 20
-2499.579521784137
 30
0.0
 40
4.0
  1
131.38
 50
90.0
1001
ACAD
1000
MTEXTBEGIN
1070
    73
1070
     1
1070
    44
1040
1.0
1070
    74
1070
     0
1000
MTEXTEND
  0
POINT
  5
3AA
  8
DEFPOINTS
  6
CONTINUOUS
 62
     0
 10
1099.703178183425
 20
-2427.089521784137
 30
0.0
  0
POINT
  5
3AB
  8
DEFPOINTS
  6
CONTINUOUS
 62
     0
 10
1099.703178183425
 20
-2558.469521784137
 30
0.0
  0
POINT
  5
3AC
  8
DEFPOINTS
  6
CONTINUOUS
 62
     0
 10
1134.796859837541
 20
-2558.469521784137
 30
0.0
  0
ENDBLK
  5
3AD
  8
0
 62
     7
  0
BLOCK
  8
0
  2
*D1313
 70
     1
 10
0.0
 20
0.0
 30
0.0
  3
*D1313
  1

  0
LINE
  5
391
  8
回02-寸法
  6
CONTINUOUS
 62
     5
 10
1099.703178183425
 20
-2427.089521784137
 30
0.0
 11
1135.796859837541
 21
-2427.089521784137
 31
0.0
  0
LINE
  5
392
  8
回02-寸法
  6
CONTINUOUS
 62
     5
 10
1101.483178183425
 20
-2421.279521784136
 30
0.0
 11
1135.796859837541
 21
-2421.279521784136
 31
0.0
  0
LINE
  5
393
  8
回02-寸法
  6
CONTINUOUS
 62
     5
 10
1134.796859837541
 20
-2428.589521784137
 30
0.0
 11
1134.796859837541
 21
-2430.089521784137
 31
0.0
  0
LINE
  5
394
  8
回02-寸法
  6
CONTINUOUS
 62
     5
 10
1134.796859837541
 20
-2419.779521784136
 30
0.0
 11
1134.796859837541
 21
-2406.482671390435
 31
0.0
  0
LINE
  5
395
  8
回02-寸法
  6
CONTINUOUS
 62
     5
 10
1134.796859837541
 20
-2427.089521784137
 30
0.0
 11
1134.796859837541
 21
-2421.279521784136
 31
0.0
  0
INSERT
  5
396
  8
回02-寸法
  6
CONTINUOUS
 62
     5
 66
     1
  2
_OPEN
 10
1134.796859837541
 20
-2427.089521784137
 30
0.0
 41
1.5
 42
1.5
 43
1.5
 50
90.0
  0
SEQEND
  5
397
  8
回07-寸法
  6
CONTINUOUS
 62
     7
  0
INSERT
  5
398
  8
回02-寸法
  6
CONTINUOUS
 62
     5
 66
     1
  2
_OPEN
 10
1134.796859837541
 20
-2421.279521784136
 30
0.0
 41
1.5
 42
1.5
 43
1.5
 50
270.0
  0
SEQEND
  5
399
  8
回07-寸法
  6
CONTINUOUS
 62
     7
  0
TEXT
  5
39A
  8
回02-寸法
  6
CONTINUOUS
 62
     5
 10
1134.09685983754
 20
-2418.381096587286
 30
0.0
 40
4.0
  1
(5.81)
 50
90.0
1001
ACAD
1000
MTEXTBEGIN
1070
    73
1070
     1
1070
    44
1040
1.0
1070
    74
1070
     0
1000
MTEXTEND
  0
POINT
  5
39B
  8
DEFPOINTS
  6
CONTINUOUS
 62
     0
 10
1099.703178183425
 20
-2427.089521784137
 30
0.0
  0
POINT
  5
39C
  8
DEFPOINTS
  6
CONTINUOUS
 62
     0
 10
1101.483178183425
 20
-2421.279521784136
 30
0.0
  0
POINT
  5
39D
  8
DEFPOINTS
  6
CONTINUOUS
 62
     0
 10
1134.796859837541
 20
-2421.279521784136
 30
0.0
  0
ENDBLK
  5
39E
  8
0
 62
     7
  0
BLOCK
  8
0
  2
*D1414
 70
     1
 10
0.0
 20
0.0
 30
0.0
  3
*D1414
  1

  0
LINE
  5
380
  8
回02-寸法
  6
CONTINUOUS
 62
     5
 10
1099.403178183425
 20
-2427.889521784137
 30
0.0
 11
1128.807796155104
 21
-2427.889521784137
 31
0.0
  0
LINE
  5
381
  8
回02-寸法
  6
CONTINUOUS
 62
     5
 10
1101.483178183425
 20
-2421.279521784136
 30
0.0
 11
1128.807796155104
 21
-2421.279521784136
 31
0.0
  0
LINE
  5
382
  8
回02-寸法
  6
CONTINUOUS
 62
     5
 10
1127.807796155104
 20
-2429.389521784137
 30
0.0
 11
1127.807796155104
 21
-2430.889521784137
 31
0.0
  0
LINE
  5
383
  8
回02-寸法
  6
CONTINUOUS
 62
     5
 10
1127.807796155104
 20
-2419.779521784136
 30
0.0
 11
1127.807796155104
 21
-2406.482671390435
 31
0.0
  0
LINE
  5
384
  8
回02-寸法
  6
CONTINUOUS
 62
     5
 10
1127.807796155104
 20
-2427.889521784137
 30
0.0
 11
1127.807796155104
 21
-2421.279521784136
 31
0.0
  0
INSERT
  5
385
  8
回02-寸法
  6
CONTINUOUS
 62
     5
 66
     1
  2
_OPEN
 10
1127.807796155104
 20
-2427.889521784137
 30
0.0
 41
1.5
 42
1.5
 43
1.5
 50
90.0
  0
SEQEND
  5
386
  8
回07-寸法
  6
CONTINUOUS
 62
     7
  0
INSERT
  5
387
  8
回02-寸法
  6
CONTINUOUS
 62
     5
 66
     1
  2
_OPEN
 10
1127.807796155104
 20
-2421.279521784136
 30
0.0
 41
1.5
 42
1.5
 43
1.5
 50
270.0
  0
SEQEND
  5
388
  8
回07-寸法
  6
CONTINUOUS
 62
     7
  0
TEXT
  5
389
  8
回02-寸法
  6
CONTINUOUS
 62
     5
 10
1127.107796155103
 20
-2418.381096587286
 30
0.0
 40
4.0
  1
(6.61)
 50
90.0
1001
ACAD
1000
MTEXTBEGIN
1070
    73
1070
     1
1070
    44
1040
1.0
1070
    74
1070
     0
1000
MTEXTEND
  0
POINT
  5
38A
  8
DEFPOINTS
  6
CONTINUOUS
 62
     0
 10
1099.403178183425
 20
-2427.889521784137
 30
0.0
  0
POINT
  5
38B
  8
DEFPOINTS
  6
CONTINUOUS
 62
     0
 10
1101.483178183425
 20
-2421.279521784136
 30
0.0
  0
POINT
  5
38C
  8
DEFPOINTS
  6
CONTINUOUS
 62
     0
 10
1127.807796155104
 20
-2421.279521784136
 30
0.0
  0
ENDBLK
  5
38D
  8
0
 62
     7
  0
BLOCK
  8
0
  2
*D1515
 70
     1
 10
0.0
 20
0.0
 30
0.0
  3
*D1515
  1

  0
LINE
  5
36F
  8
回02-寸法
  6
CONTINUOUS
 62
     5
 10
1097.403178183425
 20
-2429.889521784137
 30
0.0
 11
1120.456569694986
 21
-2429.889521784137
 31
0.0
  0
LINE
  5
370
  8
回02-寸法
  6
CONTINUOUS
 62
     5
 10
1101.483178183425
 20
-2421.279521784136
 30
0.0
 11
1120.456569694986
 21
-2421.279521784136
 31
0.0
  0
LINE
  5
371
  8
回02-寸法
  6
CONTINUOUS
 62
     5
 10
1119.456569694986
 20
-2431.389521784137
 30
0.0
 11
1119.456569694986
 21
-2432.889521784137
 31
0.0
  0
LINE
  5
372
  8
回02-寸法
  6
CONTINUOUS
 62
     5
 10
1119.456569694986
 20
-2419.779521784136
 30
0.0
 11
1119.456569694986
 21
-2405.482671390434
 31
0.0
  0
LINE
  5
373
  8
回02-寸法
  6
CONTINUOUS
 62
     5
 10
1119.456569694986
 20
-2429.889521784137
 30
0.0
 11
1119.456569694986
 21
-2421.279521784136
 31
0.0
  0
INSERT
  5
374
  8
回02-寸法
  6
CONTINUOUS
 62
     5
 66
     1
  2
_OPEN
 10
1119.456569694986
 20
-2429.889521784137
 30
0.0
 41
1.5
 42
1.5
 43
1.5
 50
90.0
  0
SEQEND
  5
375
  8
回07-寸法
  6
CONTINUOUS
 62
     7
  0
INSERT
  5
376
  8
回02-寸法
  6
CONTINUOUS
 62
     5
 66
     1
  2
_OPEN
 10
1119.456569694986
 20
-2421.279521784136
 30
0.0
 41
1.5
 42
1.5
 43
1.5
 50
270.0
  0
SEQEND
  5
377
  8
回07-寸法
  6
CONTINUOUS
 62
     7
  0
TEXT
  5
378
  8
回02-寸法
  6
CONTINUOUS
 62
     5
 10
1118.756569694985
 20
-2417.381096587285
 30
0.0
 40
4.0
  1
(8.61)
 50
90.0
1001
ACAD
1000
MTEXTBEGIN
1070
    73
1070
     1
1070
    44
1040
1.0
1070
    74
1070
     0
1000
MTEXTEND
  0
POINT
  5
379
  8
DEFPOINTS
  6
CONTINUOUS
 62
     0
 10
1097.403178183425
 20
-2429.889521784137
 30
0.0
  0
POINT
  5
37A
  8
DEFPOINTS
  6
CONTINUOUS
 62
     0
 10
1101.483178183425
 20
-2421.279521784136
 30
0.0
  0
POINT
  5
37B
  8
DEFPOINTS
  6
CONTINUOUS
 62
     0
 10
1119.456569694986
 20
-2421.279521784136
 30
0.0
  0
ENDBLK
  5
37C
  8
0
 62
     7
  0
BLOCK
  8
0
  2
*D1616
 70
     1
 10
0.0
 20
0.0
 30
0.0
  3
*D1616
  1

  0
LINE
  5
35E
  8
回02-寸法
  6
CONTINUOUS
 62
     5
 10
1099.703178183425
 20
-2558.469521784137
 30
0.0
 11
1135.796859837541
 21
-2558.469521784137
 31
0.0
  0
LINE
  5
35F
  8
回02-寸法
  6
CONTINUOUS
 62
     5
 10
1101.483178183426
 20
-2564.279521784137
 30
0.0
 11
1135.796859837541
 21
-2564.279521784137
 31
0.0
  0
LINE
  5
360
  8
回02-寸法
  6
CONTINUOUS
 62
     5
 10
1134.796859837541
 20
-2556.969521784137
 30
0.0
 11
1134.796859837541
 21
-2555.469521784138
 31
0.0
  0
LINE
  5
361
  8
回02-寸法
  6
CONTINUOUS
 62
     5
 10
1134.796859837541
 20
-2565.779521784137
 30
0.0
 11
1134.796859837541
 21
-2616.287946980988
 31
0.0
  0
LINE
  5
362
  8
回02-寸法
  6
CONTINUOUS
 62
     5
 10
1134.796859837541
 20
-2558.469521784137
 30
0.0
 11
1134.796859837541
 21
-2564.279521784137
 31
0.0
  0
INSERT
  5
363
  8
回02-寸法
  6
CONTINUOUS
 62
     5
 66
     1
  2
_OPEN
 10
1134.796859837541
 20
-2558.469521784137
 30
0.0
 41
1.5
 42
1.5
 43
1.5
 50
270.0
  0
SEQEND
  5
364
  8
回07-寸法
  6
CONTINUOUS
 62
     7
  0
INSERT
  5
365
  8
回02-寸法
  6
CONTINUOUS
 62
     5
 66
     1
  2
_OPEN
 10
1134.796859837541
 20
-2564.279521784137
 30
0.0
 41
1.5
 42
1.5
 43
1.5
 50
90.0
  0
SEQEND
  5
366
  8
回07-寸法
  6
CONTINUOUS
 62
     7
  0
TEXT
  5
367
  8
回02-寸法
  6
CONTINUOUS
 62
     5
 10
1134.09185983754
 20
-2616.387946980987
 30
0.0
 40
4.0
  1
5.81(Insulation Area)
 50
90.0
1001
ACAD
1000
MTEXTBEGIN
1070
    73
1070
     1
1070
    44
1040
1.0
1070
    74
1070
     0
1000
MTEXTEND
  0
POINT
  5
368
  8
DEFPOINTS
  6
CONTINUOUS
 62
     0
 10
1099.703178183425
 20
-2558.469521784137
 30
0.0
  0
POINT
  5
369
  8
DEFPOINTS
  6
CONTINUOUS
 62
     0
 10
1101.483178183426
 20
-2564.279521784137
 30
0.0
  0
POINT
  5
36A
  8
DEFPOINTS
  6
CONTINUOUS
 62
     0
 10
1134.796859837541
 20
-2564.279521784137
 30
0.0
  0
ENDBLK
  5
36B
  8
0
 62
     7
  0
BLOCK
  8
0
  2
*D1717
 70
     1
 10
0.0
 20
0.0
 30
0.0
  3
*D1717
  1

  0
LINE
  5
34D
  8
回02-寸法
  6
CONTINUOUS
 62
     5
 10
1097.403178183425
 20
-2429.889521784136
 30
0.0
 11
1097.403178183425
 21
-2394.458862915264
 31
0.0
  0
LINE
  5
34E
  8
回02-寸法
  6
CONTINUOUS
 62
     5
 10
1101.483178183425
 20
-2421.279521784136
 30
0.0
 11
1101.483178183425
 21
-2394.458862915264
 31
0.0
  0
LINE
  5
34F
  8
回02-寸法
  6
CONTINUOUS
 62
     5
 10
1095.903178183424
 20
-2395.458862915264
 30
0.0
 11
1094.403178183424
 21
-2395.458862915264
 31
0.0
  0
LINE
  5
350
  8
回02-寸法
  6
CONTINUOUS
 62
     5
 10
1102.983178183425
 20
-2395.458862915264
 30
0.0
 11
1117.480028577126
 21
-2395.458862915264
 31
0.0
  0
LINE
  5
351
  8
回02-寸法
  6
CONTINUOUS
 62
     5
 10
1097.403178183425
 20
-2395.458862915264
 30
0.0
 11
1101.483178183425
 21
-2395.458862915264
 31
0.0
  0
INSERT
  5
352
  8
回02-寸法
  6
CONTINUOUS
 62
     5
 66
     1
  2
_OPEN
 10
1097.403178183425
 20
-2395.458862915264
 30
0.0
 41
1.5
 42
1.5
 43
1.5
  0
SEQEND
  5
353
  8
回07-寸法
  6
CONTINUOUS
 62
     7
  0
INSERT
  5
354
  8
回02-寸法
  6
CONTINUOUS
 62
     5
 66
     1
  2
_OPEN
 10
1101.483178183425
 20
-2395.458862915264
 30
0.0
 41
1.5
 42
1.5
 43
1.5
 50
180.0
  0
SEQEND
  5
355
  8
回07-寸法
  6
CONTINUOUS
 62
     7
  0
TEXT
  5
356
  8
回02-寸法
  6
CONTINUOUS
 62
     5
 10
1104.381603380275
 20
-2394.758862915264
 30
0.0
 40
4.0
  1
(4.08)
1001
ACAD
1000
MTEXTBEGIN
1070
    73
1070
     1
1070
    44
1040
1.0
1070
    74
1070
     0
1000
MTEXTEND
  0
POINT
  5
357
  8
DEFPOINTS
  6
CONTINUOUS
 62
     0
 10
1097.403178183425
 20
-2429.889521784136
 30
0.0
  0
POINT
  5
358
  8
DEFPOINTS
  6
CONTINUOUS
 62
     0
 10
1101.483178183425
 20
-2421.279521784136
 30
0.0
  0
POINT
  5
359
  8
DEFPOINTS
  6
CONTINUOUS
 62
     0
 10
1101.483178183425
 20
-2395.458862915264
 30
0.0
  0
ENDBLK
  5
35A
  8
0
 62
     7
  0
BLOCK
  8
0
  2
*D1818
 70
     1
 10
0.0
 20
0.0
 30
0.0
  3
*D1818
  1

  0
LINE
  5
33C
  8
回02-寸法
  6
CONTINUOUS
 62
     5
 10
1099.403178183425
 20
-2427.889521784136
 30
0.0
 11
1099.403178183425
 21
-2387.012234658573
 31
0.0
  0
LINE
  5
33D
  8
回02-寸法
  6
CONTINUOUS
 62
     5
 10
1101.483178183425
 20
-2421.279521784136
 30
0.0
 11
1101.483178183425
 21
-2387.012234658573
 31
0.0
  0
LINE
  5
33E
  8
回02-寸法
  6
CONTINUOUS
 62
     5
 10
1097.903178183424
 20
-2388.012234658573
 30
0.0
 11
1096.403178183424
 21
-2388.012234658573
 31
0.0
  0
LINE
  5
33F
  8
回02-寸法
  6
CONTINUOUS
 62
     5
 10
1102.983178183425
 20
-2388.012234658573
 30
0.0
 11
1117.080028577126
 21
-2388.012234658573
 31
0.0
  0
LINE
  5
340
  8
回02-寸法
  6
CONTINUOUS
 62
     5
 10
1099.403178183425
 20
-2388.012234658573
 30
0.0
 11
1101.483178183425
 21
-2388.012234658573
 31
0.0
  0
INSERT
  5
341
  8
回02-寸法
  6
CONTINUOUS
 62
     5
 66
     1
  2
_OPEN
 10
1099.403178183425
 20
-2388.012234658573
 30
0.0
 41
1.5
 42
1.5
 43
1.5
  0
SEQEND
  5
342
  8
回07-寸法
  6
CONTINUOUS
 62
     7
  0
INSERT
  5
343
  8
回02-寸法
  6
CONTINUOUS
 62
     5
 66
     1
  2
_OPEN
 10
1101.483178183425
 20
-2388.012234658573
 30
0.0
 41
1.5
 42
1.5
 43
1.5
 50
180.0
  0
SEQEND
  5
344
  8
回07-寸法
  6
CONTINUOUS
 62
     7
  0
TEXT
  5
345
  8
回02-寸法
  6
CONTINUOUS
 62
     5
 10
1104.381603380275
 20
-2387.312234658573
 30
0.0
 40
4.0
  1
(2.08)
1001
ACAD
1000
MTEXTBEGIN
1070
    73
1070
     1
1070
    44
1040
1.0
1070
    74
1070
     0
1000
MTEXTEND
  0
POINT
  5
346
  8
DEFPOINTS
  6
CONTINUOUS
 62
     0
 10
1099.403178183425
 20
-2427.889521784136
 30
0.0
  0
POINT
  5
347
  8
DEFPOINTS
  6
CONTINUOUS
 62
     0
 10
1101.483178183425
 20
-2421.279521784136
 30
0.0
  0
POINT
  5
348
  8
DEFPOINTS
  6
CONTINUOUS
 62
     0
 10
1101.483178183425
 20
-2388.012234658573
 30
0.0
  0
ENDBLK
  5
349
  8
0
 62
     7
  0
BLOCK
  8
0
  2
*D1919
 70
     1
 10
0.0
 20
0.0
 30
0.0
  3
*D1919
  1

  0
LINE
  5
32B
  8
回02-寸法
  6
CONTINUOUS
 62
     5
 10
1099.703178183424
 20
-2427.089521784136
 30
0.0
 11
1099.703178183424
 21
-2379.98704786594
 31
0.0
  0
LINE
  5
32C
  8
回02-寸法
  6
CONTINUOUS
 62
     5
 10
1101.483178183425
 20
-2421.279521784136
 30
0.0
 11
1101.483178183425
 21
-2379.98704786594
 31
0.0
  0
LINE
  5
32D
  8
回02-寸法
  6
CONTINUOUS
 62
     5
 10
1098.203178183424
 20
-2380.987047865941
 30
0.0
 11
1096.703178183424
 21
-2380.987047865941
 31
0.0
  0
LINE
  5
32E
  8
回02-寸法
  6
CONTINUOUS
 62
     5
 10
1102.983178183425
 20
-2380.987047865941
 30
0.0
 11
1116.280028577126
 21
-2380.987047865941
 31
0.0
  0
LINE
  5
32F
  8
回02-寸法
  6
CONTINUOUS
 62
     5
 10
1099.703178183424
 20
-2380.987047865941
 30
0.0
 11
1101.483178183425
 21
-2380.987047865941
 31
0.0
  0
INSERT
  5
330
  8
回02-寸法
  6
CONTINUOUS
 62
     5
 66
     1
  2
_OPEN
 10
1099.703178183424
 20
-2380.987047865941
 30
0.0
 41
1.5
 42
1.5
 43
1.5
  0
SEQEND
  5
331
  8
回07-寸法
  6
CONTINUOUS
 62
     7
  0
INSERT
  5
332
  8
回02-寸法
  6
CONTINUOUS
 62
     5
 66
     1
  2
_OPEN
 10
1101.483178183425
 20
-2380.987047865941
 30
0.0
 41
1.5
 42
1.5
 43
1.5
 50
180.0
  0
SEQEND
  5
333
  8
回07-寸法
  6
CONTINUOUS
 62
     7
  0
TEXT
  5
334
  8
回02-寸法
  6
CONTINUOUS
 62
     5
 10
1104.381603380275
 20
-2380.287047865941
 30
0.0
 40
4.0
  1
(1.78)
1001
ACAD
1000
MTEXTBEGIN
1070
    73
1070
     1
1070
    44
1040
1.0
1070
    74
1070
     0
1000
MTEXTEND
  0
POINT
  5
335
  8
DEFPOINTS
  6
CONTINUOUS
 62
     0
 10
1099.703178183424
 20
-2427.089521784136
 30
0.0
  0
POINT
  5
336
  8
DEFPOINTS
  6
CONTINUOUS
 62
     0
 10
1101.483178183425
 20
-2421.279521784136
 30
0.0
  0
POINT
  5
337
  8
DEFPOINTS
  6
CONTINUOUS
 62
     0
 10
1101.483178183425
 20
-2380.987047865941
 30
0.0
  0
ENDBLK
  5
338
  8
0
 62
     7
  0
BLOCK
  8
0
  2
*D2020
 70
     1
 10
0.0
 20
0.0
 30
0.0
  3
*D2020
  1

  0
LINE
  5
31A
  8
回02-寸法
  6
CONTINUOUS
 62
     5
 10
871.6831781834248
 20
-2427.089521784136
 30
0.0
 11
871.6831781834248
 21
-2379.98704786594
 31
0.0
  0
LINE
  5
31B
  8
回02-寸法
  6
CONTINUOUS
 62
     5
 10
866.4831781834255
 20
-2421.279521784134
 30
0.0
 11
866.4831781834255
 21
-2379.98704786594
 31
0.0
  0
LINE
  5
31C
  8
回02-寸法
  6
CONTINUOUS
 62
     5
 10
873.1831781834246
 20
-2380.987047865941
 30
0.0
 11
874.6831781834249
 21
-2380.987047865941
 31
0.0
  0
LINE
  5
31D
  8
回02-寸法
  6
CONTINUOUS
 62
     5
 10
864.9831781834254
 20
-2380.987047865941
 30
0.0
 11
816.4747529865749
 21
-2380.987047865941
 31
0.0
  0
LINE
  5
31E
  8
回02-寸法
  6
CONTINUOUS
 62
     5
 10
871.6831781834248
 20
-2380.987047865941
 30
0.0
 11
866.4831781834255
 21
-2380.987047865941
 31
0.0
  0
INSERT
  5
31F
  8
回02-寸法
  6
CONTINUOUS
 62
     5
 66
     1
  2
_OPEN
 10
871.6831781834248
 20
-2380.987047865941
 30
0.0
 41
1.5
 42
1.5
 43
1.5
 50
180.0
  0
SEQEND
  5
320
  8
回07-寸法
  6
CONTINUOUS
 62
     7
  0
INSERT
  5
321
  8
回02-寸法
  6
CONTINUOUS
 62
     5
 66
     1
  2
_OPEN
 10
866.4831781834255
 20
-2380.987047865941
 30
0.0
 41
1.5
 42
1.5
 43
1.5
  0
SEQEND
  5
322
  8
回07-寸法
  6
CONTINUOUS
 62
     7
  0
TEXT
  5
323
  8
回02-寸法
  6
CONTINUOUS
 62
     5
 10
816.3747529865753
 20
-2380.282047865941
 30
0.0
 40
4.0
  1
5.2(Insulation Area)
1001
ACAD
1000
MTEXTBEGIN
1070
    73
1070
     1
1070
    44
1040
1.0
1070
    74
1070
     0
1000
MTEXTEND
  0
POINT
  5
324
  8
DEFPOINTS
  6
CONTINUOUS
 62
     0
 10
871.6831781834248
 20
-2427.089521784136
 30
0.0
  0
POINT
  5
325
  8
DEFPOINTS
  6
CONTINUOUS
 62
     0
 10
866.4831781834255
 20
-2421.279521784134
 30
0.0
  0
POINT
  5
326
  8
DEFPOINTS
  6
CONTINUOUS
 62
     0
 10
866.4831781834255
 20
-2380.987047865941
 30
0.0
  0
ENDBLK
  5
327
  8
0
 62
     7
  0
BLOCK
  8
0
  2
*D2121
 70
     1
 10
0.0
 20
0.0
 30
0.0
  3
*D2121
  1

  0
LINE
  5
305
  8
回02-寸法
  6
CONTINUOUS
 62
     5
 10
786.4831346726577
 20
-2615.561600654731
 30
0.0
 11
786.4831346726577
 21
-2625.515406796178
 31
0.0
  0
LINE
  5
306
  8
回02-寸法
  6
CONTINUOUS
 62
     5
 10
796.483178183425
 20
-2615.561600654732
 30
0.0
 11
796.483178183425
 21
-2625.515406796178
 31
0.0
  0
LINE
  5
307
  8
回02-寸法
  6
CONTINUOUS
 62
     5
 10
784.4831346726578
 20
-2624.515406796178
 30
0.0
 11
782.4831346726577
 21
-2624.515406796178
 31
0.0
  0
LINE
  5
308
  8
回02-寸法
  6
CONTINUOUS
 62
     5
 10
798.483178183425
 20
-2624.515406796178
 30
0.0
 11
808.2800285771256
 21
-2624.515406796178
 31
0.0
  0
LINE
  5
309
  8
回02-寸法
  6
CONTINUOUS
 62
     5
 10
786.4831346726577
 20
-2624.515406796178
 30
0.0
 11
796.483178183425
 21
-2624.515406796178
 31
0.0
  0
INSERT
  5
30A
  8
回02-寸法
  6
CONTINUOUS
 62
     5
 66
     1
  2
_OPEN
 10
786.4831346726577
 20
-2624.515406796178
 30
0.0
 41
2.0
 42
2.0
 43
2.0
  0
SEQEND
  5
30B
  8
回07-寸法
  6
CONTINUOUS
 62
     7
  0
INSERT
  5
30C
  8
回02-寸法
  6
CONTINUOUS
 62
     5
 66
     1
  2
_OPEN
 10
796.483178183425
 20
-2624.515406796178
 30
0.0
 41
2.0
 42
2.0
 43
2.0
 50
180.0
  0
SEQEND
  5
30D
  8
回07-寸法
  6
CONTINUOUS
 62
     7
  0
TEXT
  5
30E
  8
回02-寸法
  6
CONTINUOUS
 62
     5
 10
800.3816033802754
 20
-2623.715406796178
 30
0.0
 40
4.0
  1
(10)
1001
ACAD
1000
MTEXTBEGIN
1070
    73
1070
     1
1070
    44
1040
1.0
1070
    74
1070
     0
1000
MTEXTEND
  0
POINT
  5
30F
  8
DEFPOINTS
  6
CONTINUOUS
 62
     0
 10
786.4831346726577
 20
-2615.561600654731
 30
0.0
  0
POINT
  5
310
  8
DEFPOINTS
  6
CONTINUOUS
 62
     0
 10
796.483178183425
 20
-2615.561600654732
 30
0.0
  0
POINT
  5
311
  8
DEFPOINTS
  6
CONTINUOUS
 62
     0
 10
796.483178183425
 20
-2624.515406796178
 30
0.0
  0
ENDBLK
  5
312
  8
0
 62
     7
  0
BLOCK
  8
0
  2
*D2222
 70
     1
 10
0.0
 20
0.0
 30
0.0
  3
*D2222
  1

  0
LINE
  5
2F3
  8
回02-寸法
  6
CONTINUOUS
 62
     5
 10
786.4831346726577
 20
-2608.561600654732
 30
0.0
 11
786.4831346726577
 21
-2600.280416765111
 31
0.0
  0
LINE
  5
2F4
  8
回02-寸法
  6
CONTINUOUS
 62
     5
 10
791.4831346726578
 20
-2608.561600654732
 30
0.0
 11
791.4831346726578
 21
-2600.280416765111
 31
0.0
  0
LINE
  5
2F5
  8
回02-寸法
  6
CONTINUOUS
 62
     5
 10
784.4831346726578
 20
-2601.28041676511
 30
0.0
 11
782.4831346726577
 21
-2601.28041676511
 31
0.0
  0
LINE
  5
2F6
  8
回02-寸法
  6
CONTINUOUS
 62
     5
 10
793.4831346726578
 20
-2601.28041676511
 30
0.0
 11
801.048863608374
 21
-2601.28041676511
 31
0.0
  0
LINE
  5
2F7
  8
回02-寸法
  6
CONTINUOUS
 62
     5
 10
786.4831346726577
 20
-2601.28041676511
 30
0.0
 11
791.4831346726578
 21
-2601.28041676511
 31
0.0
  0
INSERT
  5
2F8
  8
回02-寸法
  6
CONTINUOUS
 62
     5
 66
     1
  2
_OPEN
 10
786.4831346726577
 20
-2601.28041676511
 30
0.0
 41
2.0
 42
2.0
 43
2.0
  0
SEQEND
  5
2F9
  8
回07-寸法
  6
CONTINUOUS
 62
     7
  0
INSERT
  5
2FA
  8
回02-寸法
  6
CONTINUOUS
 62
     5
 66
     1
  2
_OPEN
 10
791.4831346726578
 20
-2601.28041676511
 30
0.0
 41
2.0
 42
2.0
 43
2.0
 50
180.0
  0
SEQEND
  5
2FB
  8
回07-寸法
  6
CONTINUOUS
 62
     7
  0
TEXT
  5
2FC
  8
回02-寸法
  6
CONTINUOUS
 62
     5
 10
798.2660208958995
 20
-2600.78041676511
 30
0.0
 40
4.0
  1
5
1001
ACAD
1000
MTEXTBEGIN
1070
    73
1070
     1
1070
    44
1040
1.0
1070
    74
1070
     0
1000
MTEXTEND
  0
POINT
  5
2FD
  8
DEFPOINTS
  6
CONTINUOUS
 62
     0
 10
786.4831346726577
 20
-2608.561600654732
 30
0.0
  0
POINT
  5
2FE
  8
DEFPOINTS
  6
CONTINUOUS
 62
     0
 10
791.4831346726578
 20
-2608.561600654732
 30
0.0
  0
POINT
  5
2FF
  8
DEFPOINTS
  6
CONTINUOUS
 62
     0
 10
791.4831346726578
 20
-2601.28041676511
 30
0.0
  0
ENDBLK
  5
300
  8
0
 62
     7
  0
BLOCK
  8
0
  2
*D2323
 70
     1
 10
0.0
 20
0.0
 30
0.0
  3
*D2323
  1

  0
LINE
  5
2E2
  8
回02-寸法
  6
CONTINUOUS
 62
     5
 10
786.4831346726583
 20
-2608.561600654732
 30
0.0
 11
778.2770524064327
 21
-2608.561600654732
 31
0.0
  0
LINE
  5
2E3
  8
回02-寸法
  6
CONTINUOUS
 62
     5
 10
786.4831346726583
 20
-2615.561600654732
 30
0.0
 11
778.2770524064327
 21
-2615.561600654732
 31
0.0
  0
LINE
  5
2E4
  8
回02-寸法
  6
CONTINUOUS
 62
     5
 10
779.2770524064327
 20
-2606.561600654732
 30
0.0
 11
779.2770524064327
 21
-2604.561600654732
 31
0.0
  0
LINE
  5
2E5
  8
回02-寸法
  6
CONTINUOUS
 62
     5
 10
779.2770524064327
 20
-2617.561600654732
 30
0.0
 11
779.2770524064327
 21
-2635.140730058496
 31
0.0
  0
LINE
  5
2E6
  8
回02-寸法
  6
CONTINUOUS
 62
     5
 10
779.2770524064327
 20
-2608.561600654732
 30
0.0
 11
779.2770524064327
 21
-2615.561600654732
 31
0.0
  0
INSERT
  5
2E7
  8
回02-寸法
  6
CONTINUOUS
 62
     5
 66
     1
  2
_OPEN
 10
779.2770524064327
 20
-2608.561600654732
 30
0.0
 41
2.0
 42
2.0
 43
2.0
 50
270.0
  0
SEQEND
  5
2E8
  8
回07-寸法
  6
CONTINUOUS
 62
     7
  0
INSERT
  5
2E9
  8
回02-寸法
  6
CONTINUOUS
 62
     5
 66
     1
  2
_OPEN
 10
779.2770524064327
 20
-2615.561600654732
 30
0.0
 41
2.0
 42
2.0
 43
2.0
 50
90.0
  0
SEQEND
  5
2EA
  8
回07-寸法
  6
CONTINUOUS
 62
     7
  0
INSERT
  5
2EB
  8
回02-寸法
  6
CONTINUOUS
 62
     5
 66
     1
  2
*X8989
 10
0.0
 20
0.0
 30
0.0
  0
SEQEND
  5
704
  8
回07-寸法
  6
CONTINUOUS
 62
     7
  0
POINT
  5
2EC
  8
DEFPOINTS
  6
CONTINUOUS
 62
     0
 10
786.4831346726583
 20
-2608.561600654732
 30
0.0
  0
POINT
  5
2ED
  8
DEFPOINTS
  6
CONTINUOUS
 62
     0
 10
786.4831346726583
 20
-2615.561600654732
 30
0.0
  0
POINT
  5
2EE
  8
DEFPOINTS
  6
CONTINUOUS
 62
     0
 10
779.2770524064327
 20
-2615.561600654732
 30
0.0
  0
ENDBLK
  5
2EF
  8
0
 62
     7
  0
BLOCK
  8
0
  2
*D2424
 70
     1
 10
0.0
 20
0.0
 30
0.0
  3
*D2424
  1

  0
LINE
  5
1FD
  8
回02-寸法
  6
CONTINUOUS
 62
     5
 10
862.5912482750605
 20
-2484.769725933344
 30
0.0
 11
838.2214903476224
 21
-2484.769725933344
 31
0.0
  0
LINE
  5
1FE
  8
回02-寸法
  6
CONTINUOUS
 62
     5
 10
862.5954218607661
 20
-2500.768656970275
 30
0.0
 11
838.2214903476224
 21
-2500.768656970275
 31
0.0
  0
LINE
  5
1FF
  8
回02-寸法
  6
CONTINUOUS
 62
     5
 10
839.2214903476224
 20
-2482.769725933344
 30
0.0
 11
839.2214903476224
 21
-2480.769725933344
 31
0.0
  0
LINE
  5
200
  8
回02-寸法
  6
CONTINUOUS
 62
     5
 10
839.2214903476224
 20
-2502.768656970275
 30
0.0
 11
839.2214903476224
 21
-2509.567082167126
 31
0.0
  0
LINE
  5
201
  8
回02-寸法
  6
CONTINUOUS
 62
     5
 10
839.2214903476224
 20
-2484.769725933344
 30
0.0
 11
839.2214903476224
 21
-2500.768656970275
 31
0.0
  0
INSERT
  5
202
  8
回02-寸法
  6
CONTINUOUS
 62
     5
 66
     1
  2
_OPEN
 10
839.2214903476224
 20
-2484.769725933344
 30
0.0
 41
2.0
 42
2.0
 43
2.0
 50
270.0
  0
SEQEND
  5
203
  8
回07-寸法
  6
CONTINUOUS
 62
     7
  0
INSERT
  5
204
  8
回02-寸法
  6
CONTINUOUS
 62
     5
 66
     1
  2
_OPEN
 10
839.2214903476224
 20
-2500.768656970275
 30
0.0
 41
2.0
 42
2.0
 43
2.0
 50
90.0
  0
SEQEND
  5
205
  8
回07-寸法
  6
CONTINUOUS
 62
     7
  0
TEXT
  5
206
  8
回02-寸法
  6
CONTINUOUS
 62
     5
 10
838.7214903476213
 20
-2509.569539625568
 30
0.0
 40
4.0
  1
16
 50
90.0
1001
ACAD
1000
MTEXTBEGIN
1070
    73
1070
     1
1070
    44
1040
1.0
1070
    74
1070
     0
1000
MTEXTEND
  0
POINT
  5
207
  8
DEFPOINTS
  6
CONTINUOUS
 62
     0
 10
862.5912482750605
 20
-2484.769725933344
 30
0.0
  0
POINT
  5
208
  8
DEFPOINTS
  6
CONTINUOUS
 62
     0
 10
862.5954218607661
 20
-2500.768656970275
 30
0.0
  0
POINT
  5
209
  8
DEFPOINTS
  6
CONTINUOUS
 62
     0
 10
839.2214903476224
 20
-2500.768656970275
 30
0.0
  0
ENDBLK
  5
20A
  8
0
 62
     7
  0
BLOCK
  8
0
  2
*D2525
 70
     1
 10
0.0
 20
0.0
 30
0.0
  3
*D2525
  1

  0
LINE
  5
1ED
  8
回02-寸法
  6
CONTINUOUS
 62
     5
 10
786.9831346883842
 20
-2495.893656970276
 30
0.0
 11
775.3400896244847
 21
-2495.893656970276
 31
0.0
  0
LINE
  5
1EE
  8
回02-寸法
  6
CONTINUOUS
 62
     5
 10
866.4831781834259
 20
-2564.279521784137
 30
0.0
 11
775.3400896244847
 21
-2564.279521784137
 31
0.0
  0
LINE
  5
1EF
  8
回02-寸法
  6
CONTINUOUS
 62
     5
 10
776.3400896244847
 20
-2497.393656970276
 30
0.0
 11
776.3400896244847
 21
-2562.779521784137
 31
0.0
  0
INSERT
  5
1F0
  8
回02-寸法
  6
CONTINUOUS
 62
     5
 66
     1
  2
_OPEN
 10
776.3400896244847
 20
-2495.893656970276
 30
0.0
 41
1.5
 42
1.5
 43
1.5
 50
90.0
  0
SEQEND
  5
1F1
  8
回07-寸法
  6
CONTINUOUS
 62
     7
  0
INSERT
  5
1F2
  8
回02-寸法
  6
CONTINUOUS
 62
     5
 66
     1
  2
_OPEN
 10
776.3400896244847
 20
-2564.279521784137
 30
0.0
 41
1.5
 42
1.5
 43
1.5
 50
270.0
  0
SEQEND
  5
1F3
  8
回07-寸法
  6
CONTINUOUS
 62
     7
  0
TEXT
  5
1F4
  8
回02-寸法
  6
CONTINUOUS
 62
     5
 10
775.6401694992871
 20
-2537.89381011426
 30
0.0
 40
4.0
  1
(68.39)
 50
90.0
1001
ACAD
1000
MTEXTBEGIN
1070
    73
1070
     1
1070
    44
1040
1.0
1070
    74
1070
     0
1000
MTEXTEND
  0
POINT
  5
1F5
  8
DEFPOINTS
  6
CONTINUOUS
 62
     0
 10
786.9831346883842
 20
-2495.893656970276
 30
0.0
  0
POINT
  5
1F6
  8
DEFPOINTS
  6
CONTINUOUS
 62
     0
 10
866.4831781834259
 20
-2564.279521784137
 30
0.0
  0
POINT
  5
1F7
  8
DEFPOINTS
  6
CONTINUOUS
 62
     0
 10
776.3400896244847
 20
-2564.279521784137
 30
0.0
  0
ENDBLK
  5
1F8
  8
0
 62
     7
  0
BLOCK
  8
0
  2
*D2626
 70
     1
 10
0.0
 20
0.0
 30
0.0
  3
*D2626
  1

  0
LINE
  5
1DE
  8
回02-寸法
  6
CONTINUOUS
 62
     5
 10
866.4831781834255
 20
-2484.091532426083
 30
0.0
 11
866.4831781834255
 21
-2466.863276315007
 31
0.0
  0
LINE
  5
1DF
  8
回02-寸法
  6
CONTINUOUS
 62
     5
 10
786.4831346726577
 20
-2490.143656970274
 30
0.0
 11
786.4831346726577
 21
-2466.863276315007
 31
0.0
  0
LINE
  5
1E0
  8
回02-寸法
  6
CONTINUOUS
 62
     5
 10
864.9831781834254
 20
-2467.863276315008
 30
0.0
 11
787.9831346726578
 21
-2467.863276315008
 31
0.0
  0
INSERT
  5
1E1
  8
回02-寸法
  6
CONTINUOUS
 62
     5
 66
     1
  2
_OPEN
 10
866.4831781834255
 20
-2467.863276315008
 30
0.0
 41
1.5
 42
1.5
 43
1.5
  0
SEQEND
  5
1E2
  8
回07-寸法
  6
CONTINUOUS
 62
     7
  0
INSERT
  5
1E3
  8
回02-寸法
  6
CONTINUOUS
 62
     5
 66
     1
  2
_OPEN
 10
786.4831346726577
 20
-2467.863276315008
 30
0.0
 41
1.5
 42
1.5
 43
1.5
 50
180.0
  0
SEQEND
  5
1E4
  8
回07-寸法
  6
CONTINUOUS
 62
     7
  0
INSERT
  5
1E5
  8
回02-寸法
  6
CONTINUOUS
 62
     5
 66
     1
  2
*X9090
 10
0.0
 20
0.0
 30
0.0
  0
SEQEND
  5
70A
  8
回07-寸法
  6
CONTINUOUS
 62
     7
  0
POINT
  5
1E6
  8
DEFPOINTS
  6
CONTINUOUS
 62
     0
 10
866.4831781834255
 20
-2484.091532426083
 30
0.0
  0
POINT
  5
1E7
  8
DEFPOINTS
  6
CONTINUOUS
 62
     0
 10
786.4831346726577
 20
-2490.143656970274
 30
0.0
  0
POINT
  5
1E8
  8
DEFPOINTS
  6
CONTINUOUS
 62
     0
 10
786.4831346726577
 20
-2467.863276315008
 30
0.0
  0
ENDBLK
  5
1E9
  8
0
 62
     7
  0
BLOCK
  8
0
  2
*D2727
 70
     1
 10
0.0
 20
0.0
 30
0.0
  3
*D2727
  1

  0
LINE
  5
1CD
  8
回02-寸法
  6
CONTINUOUS
 62
     5
 10
866.4831781834255
 20
-2501.445781314742
 30
0.0
 11
866.4831781834255
 21
-2512.93688715495
 31
0.0
  0
LINE
  5
1CE
  8
回02-寸法
  6
CONTINUOUS
 62
     5
 10
856.9872470633981
 20
-2495.986846426483
 30
0.0
 11
856.9872470633981
 21
-2512.93688715495
 31
0.0
  0
LINE
  5
1CF
  8
回02-寸法
  6
CONTINUOUS
 62
     5
 10
868.4831781834255
 20
-2511.93688715495
 30
0.0
 11
870.4831781834254
 21
-2511.93688715495
 31
0.0
  0
LINE
  5
1D0
  8
回02-寸法
  6
CONTINUOUS
 62
     5
 10
854.9872470633983
 20
-2511.93688715495
 30
0.0
 11
845.3144548572621
 21
-2511.93688715495
 31
0.0
  0
LINE
  5
1D1
  8
回02-寸法
  6
CONTINUOUS
 62
     5
 10
866.4831781834255
 20
-2511.93688715495
 30
0.0
 11
856.9872470633981
 21
-2511.93688715495
 31
0.0
  0
INSERT
  5
1D2
  8
回02-寸法
  6
CONTINUOUS
 62
     5
 66
     1
  2
_OPEN
 10
866.4831781834255
 20
-2511.93688715495
 30
0.0
 41
2.0
 42
2.0
 43
2.0
 50
180.0
  0
SEQEND
  5
1D3
  8
回07-寸法
  6
CONTINUOUS
 62
     7
  0
INSERT
  5
1D4
  8
回02-寸法
  6
CONTINUOUS
 62
     5
 66
     1
  2
_OPEN
 10
856.9872470633981
 20
-2511.93688715495
 30
0.0
 41
2.0
 42
2.0
 43
2.0
  0
SEQEND
  5
1D5
  8
回07-寸法
  6
CONTINUOUS
 62
     7
  0
TEXT
  5
1D6
  8
回02-寸法
  6
CONTINUOUS
 62
     5
 10
845.3656988081036
 20
-2511.43688715495
 30
0.0
 40
4.0
  1
9.5
1001
ACAD
1000
MTEXTBEGIN
1070
    73
1070
     1
1070
    44
1040
1.0
1070
    74
1070
     0
1000
MTEXTEND
  0
POINT
  5
1D7
  8
DEFPOINTS
  6
CONTINUOUS
 62
     0
 10
866.4831781834255
 20
-2501.445781314742
 30
0.0
  0
POINT
  5
1D8
  8
DEFPOINTS
  6
CONTINUOUS
 62
     0
 10
856.9872470633981
 20
-2495.986846426483
 30
0.0
  0
POINT
  5
1D9
  8
DEFPOINTS
  6
CONTINUOUS
 62
     0
 10
856.9872470633981
 20
-2511.93688715495
 30
0.0
  0
ENDBLK
  5
1DA
  8
0
 62
     7
  0
BLOCK
  8
0
  2
*D2828
 70
     1
 10
0.0
 20
0.0
 30
0.0
  3
*D2828
  1

  0
LINE
  5
1BC
  8
回02-寸法
 62
     5
 10
786.9831346726583
 20
-2489.643656970275
 30
0.0
 11
775.3400896244873
 21
-2489.643656970275
 31
0.0
  0
LINE
  5
1BD
  8
回02-寸法
 62
     5
 10
786.9831346726583
 20
-2495.893656970275
 30
0.0
 11
775.3400896244873
 21
-2495.893656970275
 31
0.0
  0
LINE
  5
1BE
  8
回02-寸法
 62
     5
 10
776.3400896244874
 20
-2497.893656970275
 30
0.0
 11
776.3400896244874
 21
-2499.893656970275
 31
0.0
  0
LINE
  5
1BF
  8
回02-寸法
 62
     5
 10
776.3400896244874
 20
-2487.643656970275
 30
0.0
 11
776.3400896244874
 21
-2468.455806576574
 31
0.0
  0
LINE
  5
1C0
  8
回02-寸法
 62
     5
 10
776.3400896244874
 20
-2495.893656970275
 30
0.0
 11
776.3400896244874
 21
-2489.643656970275
 31
0.0
  0
INSERT
  5
1C1
  8
回02-寸法
 62
     5
 66
     1
  2
_OPEN
 10
776.3400896244874
 20
-2495.893656970275
 30
0.0
 41
2.0
 42
2.0
 43
2.0
 50
90.0
  0
SEQEND
  5
1C2
  8
回07-寸法
  6
CONTINUOUS
 62
     7
  0
INSERT
  5
1C3
  8
回02-寸法
 62
     5
 66
     1
  2
_OPEN
 10
776.3400896244874
 20
-2489.643656970275
 30
0.0
 41
2.0
 42
2.0
 43
2.0
 50
270.0
  0
SEQEND
  5
1C4
  8
回07-寸法
  6
CONTINUOUS
 62
     7
  0
INSERT
  5
1C5
  8
回02-寸法
 62
     5
 66
     1
  2
*X9191
 10
0.0
 20
0.0
 30
0.0
  0
SEQEND
  5
710
  8
回07-寸法
  6
CONTINUOUS
 62
     7
  0
POINT
  5
1C6
  8
DEFPOINTS
 62
     0
 10
786.9831346726583
 20
-2489.643656970275
 30
0.0
  0
POINT
  5
1C7
  8
DEFPOINTS
 62
     0
 10
786.9831346726583
 20
-2495.893656970275
 30
0.0
  0
POINT
  5
1C8
  8
DEFPOINTS
 62
     0
 10
776.3400896244874
 20
-2495.893656970275
 30
0.0
  0
ENDBLK
  5
1C9
  8
0
 62
     7
  0
BLOCK
  8
0
  2
*D2929
 70
     1
 10
0.0
 20
0.0
 30
0.0
  3
*D2929
  1

  0
LINE
  5
1AB
  8
回02-寸法
  6
CONTINUOUS
 62
     5
 10
866.4831781834255
 20
-2501.445781314742
 30
0.0
 11
866.4831781834255
 21
-2505.273857217963
 31
0.0
  0
LINE
  5
1AC
  8
回02-寸法
  6
CONTINUOUS
 62
     5
 10
861.8826756708632
 20
-2500.679503050971
 30
0.0
 11
861.8826756708632
 21
-2505.273857217963
 31
0.0
  0
LINE
  5
1AD
  8
回02-寸法
  6
CONTINUOUS
 62
     5
 10
868.4831781834255
 20
-2504.273857217963
 30
0.0
 11
870.4831781834254
 21
-2504.273857217963
 31
0.0
  0
LINE
  5
1AE
  8
回02-寸法
  6
CONTINUOUS
 62
     5
 10
859.882675670863
 20
-2504.273857217963
 30
0.0
 11
848.1491127672258
 21
-2504.273857217963
 31
0.0
  0
LINE
  5
1AF
  8
回02-寸法
  6
CONTINUOUS
 62
     5
 10
866.4831781834255
 20
-2504.273857217963
 30
0.0
 11
861.8826756708632
 21
-2504.273857217963
 31
0.0
  0
INSERT
  5
1B0
  8
回02-寸法
  6
CONTINUOUS
 62
     5
 66
     1
  2
_OPEN
 10
866.4831781834255
 20
-2504.273857217963
 30
0.0
 41
2.0
 42
2.0
 43
2.0
 50
180.0
  0
SEQEND
  5
1B1
  8
回07-寸法
  6
CONTINUOUS
 62
     7
  0
INSERT
  5
1B2
  8
回02-寸法
  6
CONTINUOUS
 62
     5
 66
     1
  2
_OPEN
 10
861.8826756708632
 20
-2504.273857217963
 30
0.0
 41
2.0
 42
2.0
 43
2.0
  0
SEQEND
  5
1B3
  8
回07-寸法
  6
CONTINUOUS
 62
     7
  0
TEXT
  5
1B4
  8
回02-寸法
  6
CONTINUOUS
 62
     5
 10
848.146655308783
 20
-2503.773857217963
 30
0.0
 40
4.0
  1
4.6
1001
ACAD
1000
MTEXTBEGIN
1070
    73
1070
     1
1070
    44
1040
1.0
1070
    74
1070
     0
1000
MTEXTEND
  0
POINT
  5
1B5
  8
DEFPOINTS
  6
CONTINUOUS
 62
     0
 10
866.4831781834255
 20
-2501.445781314742
 30
0.0
  0
POINT
  5
1B6
  8
DEFPOINTS
  6
CONTINUOUS
 62
     0
 10
861.8826756708632
 20
-2500.679503050971
 30
0.0
  0
POINT
  5
1B7
  8
DEFPOINTS
  6
CONTINUOUS
 62
     0
 10
861.8826756708632
 20
-2504.273857217963
 30
0.0
  0
ENDBLK
  5
1B8
  8
0
 62
     7
  0
BLOCK
  8
0
  2
*D3030
 70
     1
 10
0.0
 20
0.0
 30
0.0
  3
*D3030
  1

  0
LINE
  5
293
  8
回02-寸法
  6
CONTINUOUS
 62
     5
 10
1100.983178183425
 20
-2604.561600654733
 30
0.0
 11
1110.862904218419
 21
-2604.561600654733
 31
0.0
  0
LINE
  5
294
  8
回02-寸法
  6
CONTINUOUS
 62
     5
 10
1101.483178183425
 20
-2617.561600654735
 30
0.0
 11
1110.862904218419
 21
-2617.561600654735
 31
0.0
  0
LINE
  5
295
  8
回02-寸法
  6
CONTINUOUS
 62
     5
 10
1109.862904218419
 20
-2602.561600654734
 30
0.0
 11
1109.862904218419
 21
-2600.561600654734
 31
0.0
  0
LINE
  5
296
  8
回02-寸法
  6
CONTINUOUS
 62
     5
 10
1109.862904218419
 20
-2619.561600654736
 30
0.0
 11
1109.862904218419
 21
-2638.303411678356
 31
0.0
  0
LINE
  5
297
  8
回02-寸法
  6
CONTINUOUS
 62
     5
 10
1109.862904218419
 20
-2604.561600654733
 30
0.0
 11
1109.862904218419
 21
-2617.561600654735
 31
0.0
  0
INSERT
  5
298
  8
回02-寸法
  6
CONTINUOUS
 62
     5
 66
     1
  2
_OPEN
 10
1109.862904218419
 20
-2604.561600654733
 30
0.0
 41
2.0
 42
2.0
 43
2.0
 50
270.0
  0
SEQEND
  5
299
  8
回07-寸法
  6
CONTINUOUS
 62
     7
  0
INSERT
  5
29A
  8
回02-寸法
  6
CONTINUOUS
 62
     5
 66
     1
  2
_OPEN
 10
1109.862904218419
 20
-2617.561600654735
 30
0.0
 41
2.0
 42
2.0
 43
2.0
 50
90.0
  0
SEQEND
  5
29B
  8
回07-寸法
  6
CONTINUOUS
 62
     7
  0
TEXT
  5
29C
  8
回02-寸法
  6
CONTINUOUS
 62
     5
 10
1109.362510517631
 20
-2638.232948413665
 30
0.0
 40
4.0
  1
2.1±0.2
 50
90.0
1001
ACAD
1000
MTEXTBEGIN
1070
    73
1070
     1
1070
    44
1040
1.0
1070
    74
1070
     0
1000
MTEXTEND
  0
POINT
  5
29D
  8
DEFPOINTS
  6
CONTINUOUS
 62
     0
 10
1100.983178183425
 20
-2604.561600654733
 30
0.0
  0
POINT
  5
29E
  8
DEFPOINTS
  6
CONTINUOUS
 62
     0
 10
1101.483178183425
 20
-2617.561600654735
 30
0.0
  0
POINT
  5
29F
  8
DEFPOINTS
  6
CONTINUOUS
 62
     0
 10
1109.862904218419
 20
-2617.561600654735
 30
0.0
  0
ENDBLK
  5
2A0
  8
0
 62
     7
  0
BLOCK
  8
0
  2
*D3131
 70
     1
 10
0.0
 20
0.0
 30
0.0
  3
*D3131
  1

  0
LINE
  5
279
  8
回02-寸法
  6
CONTINUOUS
 62
     5
 10
866.4831781834255
 20
-2611.561600654732
 30
0.0
 11
866.4831781834255
 21
-2598.966499596573
 31
0.0
  0
LINE
  5
27A
  8
回02-寸法
  6
CONTINUOUS
 62
     5
 10
867.083178183425
 20
-2604.561600654732
 30
0.0
 11
867.083178183425
 21
-2598.966499596573
 31
0.0
  0
LINE
  5
27B
  8
回02-寸法
  6
CONTINUOUS
 62
     5
 10
864.4831781834254
 20
-2599.966499596573
 30
0.0
 11
862.4831781834254
 21
-2599.966499596573
 31
0.0
  0
LINE
  5
27C
  8
回02-寸法
  6
CONTINUOUS
 62
     5
 10
869.0831781834248
 20
-2599.966499596573
 30
0.0
 11
880.8800285771257
 21
-2599.966499596573
 31
0.0
  0
LINE
  5
27D
  8
回02-寸法
  6
CONTINUOUS
 62
     5
 10
866.4831781834255
 20
-2599.966499596573
 30
0.0
 11
867.083178183425
 21
-2599.966499596573
 31
0.0
  0
INSERT
  5
27E
  8
回02-寸法
  6
CONTINUOUS
 62
     5
 66
     1
  2
_OPEN
 10
866.4831781834255
 20
-2599.966499596573
 30
0.0
 41
2.0
 42
2.0
 43
2.0
  0
SEQEND
  5
27F
  8
回07-寸法
  6
CONTINUOUS
 62
     7
  0
INSERT
  5
280
  8
回02-寸法
  6
CONTINUOUS
 62
     5
 66
     1
  2
_OPEN
 10
867.083178183425
 20
-2599.966499596573
 30
0.0
 41
2.0
 42
2.0
 43
2.0
 50
180.0
  0
SEQEND
  5
281
  8
回07-寸法
  6
CONTINUOUS
 62
     7
  0
TEXT
  5
282
  8
回02-寸法
  6
CONTINUOUS
 62
     5
 10
870.9816033802754
 20
-2599.266499596573
 30
0.0
 40
4.0
  1
(0.6)
1001
ACAD
1000
MTEXTBEGIN
1070
    73
1070
     1
1070
    44
1040
1.0
1070
    74
1070
     0
1000
MTEXTEND
  0
POINT
  5
283
  8
DEFPOINTS
  6
CONTINUOUS
 62
     0
 10
866.4831781834255
 20
-2611.561600654732
 30
0.0
  0
POINT
  5
284
  8
DEFPOINTS
  6
CONTINUOUS
 62
     0
 10
867.083178183425
 20
-2604.561600654732
 30
0.0
  0
POINT
  5
285
  8
DEFPOINTS
  6
CONTINUOUS
 62
     0
 10
867.083178183425
 20
-2599.966499596573
 30
0.0
  0
ENDBLK
  5
286
  8
0
 62
     7
  0
BLOCK
  8
0
  2
*D3232
 70
     1
 10
0.0
 20
0.0
 30
0.0
  3
*D3232
  1

  0
LINE
  5
162
  8
回02-寸法
  6
CONTINUOUS
 62
     5
 10
799.4202931597087
 20
-2412.727019666386
 30
0.0
 11
766.0591730439652
 21
-2412.727019666386
 31
0.0
  0
LINE
  5
163
  8
回02-寸法
  6
CONTINUOUS
 62
     5
 10
799.4202931597087
 20
-2426.477019666386
 30
0.0
 11
766.0591730439652
 21
-2426.477019666386
 31
0.0
  0
LINE
  5
164
  8
回02-寸法
  6
CONTINUOUS
 62
     5
 10
767.0591730439653
 20
-2410.727019666386
 30
0.0
 11
767.0591730439653
 21
-2408.727019666387
 31
0.0
  0
LINE
  5
165
  8
回02-寸法
  6
CONTINUOUS
 62
     5
 10
767.0591730439653
 20
-2428.477019666385
 30
0.0
 11
767.0591730439653
 21
-2446.876855233315
 31
0.0
  0
LINE
  5
166
  8
回02-寸法
  6
CONTINUOUS
 62
     5
 10
767.0591730439653
 20
-2412.727019666386
 30
0.0
 11
767.0591730439653
 21
-2426.477019666386
 31
0.0
  0
INSERT
  5
167
  8
回02-寸法
  6
CONTINUOUS
 62
     5
 66
     1
  2
_OPEN
 10
767.0591730439653
 20
-2412.727019666386
 30
0.0
 41
2.0
 42
2.0
 43
2.0
 50
270.0
  0
SEQEND
  5
168
  8
回07-寸法
  6
CONTINUOUS
 62
     7
  0
INSERT
  5
169
  8
回02-寸法
  6
CONTINUOUS
 62
     5
 66
     1
  2
_OPEN
 10
767.0591730439653
 20
-2426.477019666386
 30
0.0
 41
2.0
 42
2.0
 43
2.0
 50
90.0
  0
SEQEND
  5
16A
  8
回07-寸法
  6
CONTINUOUS
 62
     7
  0
INSERT
  5
16B
  8
回02-寸法
  6
CONTINUOUS
 62
     5
 66
     1
  2
*X9292
 10
0.0
 20
0.0
 30
0.0
  0
SEQEND
  5
716
  8
回07-寸法
  6
CONTINUOUS
 62
     7
  0
POINT
  5
16C
  8
DEFPOINTS
  6
CONTINUOUS
 62
     0
 10
799.4202931597087
 20
-2412.727019666386
 30
0.0
  0
POINT
  5
16D
  8
DEFPOINTS
  6
CONTINUOUS
 62
     0
 10
799.4202931597087
 20
-2426.477019666386
 30
0.0
  0
POINT
  5
16E
  8
DEFPOINTS
  6
CONTINUOUS
 62
     0
 10
767.0591730439653
 20
-2426.477019666386
 30
0.0
  0
ENDBLK
  5
16F
  8
0
 62
     7
  0
BLOCK
  8
0
  2
*D3333
 70
     1
 10
0.0
 20
0.0
 30
0.0
  3
*D3333
  1

  0
LINE
  5
148
  8
回02-寸法
  6
CONTINUOUS
 62
     5
 10
795.1308111609177
 20
-2420.977019666392
 30
0.0
 11
780.859329059141
 21
-2420.977019666392
 31
0.0
  0
LINE
  5
149
  8
回02-寸法
  6
CONTINUOUS
 62
     5
 10
795.1308111609177
 20
-2423.727019666392
 30
0.0
 11
780.859329059141
 21
-2423.727019666392
 31
0.0
  0
LINE
  5
14A
  8
回02-寸法
  6
CONTINUOUS
 62
     5
 10
781.859329059141
 20
-2418.977019666392
 30
0.0
 11
781.859329059141
 21
-2416.977019666391
 31
0.0
  0
LINE
  5
14B
  8
回02-寸法
  6
CONTINUOUS
 62
     5
 10
781.859329059141
 20
-2425.727019666391
 30
0.0
 11
781.859329059141
 21
-2444.627185715998
 31
0.0
  0
LINE
  5
14C
  8
回02-寸法
  6
CONTINUOUS
 62
     5
 10
781.859329059141
 20
-2420.977019666392
 30
0.0
 11
781.859329059141
 21
-2423.727019666392
 31
0.0
  0
INSERT
  5
14D
  8
回02-寸法
  6
CONTINUOUS
 62
     5
 66
     1
  2
_OPEN
 10
781.859329059141
 20
-2420.977019666392
 30
0.0
 41
2.0
 42
2.0
 43
2.0
 50
270.0
  0
SEQEND
  5
14E
  8
回07-寸法
  6
CONTINUOUS
 62
     7
  0
INSERT
  5
14F
  8
回02-寸法
  6
CONTINUOUS
 62
     5
 66
     1
  2
_OPEN
 10
781.859329059141
 20
-2423.727019666392
 30
0.0
 41
2.0
 42
2.0
 43
2.0
 50
90.0
  0
SEQEND
  5
150
  8
回07-寸法
  6
CONTINUOUS
 62
     7
  0
INSERT
  5
151
  8
回02-寸法
  6
CONTINUOUS
 62
     5
 66
     1
  2
*X9393
 10
0.0
 20
0.0
 30
0.0
  0
SEQEND
  5
71C
  8
回07-寸法
  6
CONTINUOUS
 62
     7
  0
POINT
  5
152
  8
DEFPOINTS
  6
CONTINUOUS
 62
     0
 10
795.1308111609177
 20
-2420.977019666392
 30
0.0
  0
POINT
  5
153
  8
DEFPOINTS
  6
CONTINUOUS
 62
     0
 10
795.1308111609177
 20
-2423.727019666392
 30
0.0
  0
POINT
  5
154
  8
DEFPOINTS
  6
CONTINUOUS
 62
     0
 10
781.859329059141
 20
-2423.727019666392
 30
0.0
  0
ENDBLK
  5
155
  8
0
 62
     7
  0
BLOCK
  8
0
  2
*D3434
 70
     1
 10
0.0
 20
0.0
 30
0.0
  3
*D3434
  1

  0
LINE
  5
137
  8
回02-寸法
  6
CONTINUOUS
 62
     5
 10
798.3201974360199
 20
-2422.957019666391
 30
0.0
 11
788.3004304112793
 21
-2422.957019666391
 31
0.0
  0
LINE
  5
138
  8
回02-寸法
  6
CONTINUOUS
 62
     5
 10
798.3201974360199
 20
-2424.497019666391
 30
0.0
 11
788.3004304112793
 21
-2424.497019666391
 31
0.0
  0
LINE
  5
139
  8
回02-寸法
  6
CONTINUOUS
 62
     5
 10
789.3004304112793
 20
-2420.957019666392
 30
0.0
 11
789.3004304112793
 21
-2418.957019666391
 31
0.0
  0
LINE
  5
13A
  8
回02-寸法
  6
CONTINUOUS
 62
     5
 10
789.3004304112793
 20
-2426.497019666391
 30
0.0
 11
789.3004304112793
 21
-2448.530325666391
 31
0.0
  0
LINE
  5
13B
  8
回02-寸法
  6
CONTINUOUS
 62
     5
 10
789.3004304112793
 20
-2422.957019666391
 30
0.0
 11
789.3004304112793
 21
-2424.497019666391
 31
0.0
  0
INSERT
  5
13C
  8
回02-寸法
  6
CONTINUOUS
 62
     5
 66
     1
  2
_OPEN
 10
789.3004304112793
 20
-2422.957019666391
 30
0.0
 41
2.0
 42
2.0
 43
2.0
 50
270.0
  0
SEQEND
  5
13D
  8
回07-寸法
  6
CONTINUOUS
 62
     7
  0
INSERT
  5
13E
  8
回02-寸法
  6
CONTINUOUS
 62
     5
 66
     1
  2
_OPEN
 10
789.3004304112793
 20
-2424.497019666391
 30
0.0
 41
2.0
 42
2.0
 43
2.0
 50
90.0
  0
SEQEND
  5
13F
  8
回07-寸法
  6
CONTINUOUS
 62
     7
  0
INSERT
  5
140
  8
回02-寸法
  6
CONTINUOUS
 62
     5
 66
     1
  2
*X9494
 10
0.0
 20
0.0
 30
0.0
  0
SEQEND
  5
722
  8
回07-寸法
  6
CONTINUOUS
 62
     7
  0
POINT
  5
141
  8
DEFPOINTS
  6
CONTINUOUS
 62
     0
 10
798.3201974360199
 20
-2422.957019666391
 30
0.0
  0
POINT
  5
142
  8
DEFPOINTS
  6
CONTINUOUS
 62
     0
 10
798.3201974360199
 20
-2424.497019666391
 30
0.0
  0
POINT
  5
143
  8
DEFPOINTS
  6
CONTINUOUS
 62
     0
 10
789.3004304112793
 20
-2424.497019666391
 30
0.0
  0
ENDBLK
  5
144
  8
0
 62
     7
  0
BLOCK
  8
0
  2
*D3535
 70
     1
 10
0.0
 20
0.0
 30
0.0
  3
*D3535
  1

  0
LINE
  5
126
  8
回02-寸法
  6
CONTINUOUS
 62
     5
 10
795.1308111609177
 20
-2423.727019666392
 30
0.0
 11
773.8031172303292
 21
-2423.727019666392
 31
0.0
  0
LINE
  5
127
  8
回02-寸法
  6
CONTINUOUS
 62
     5
 10
795.1307154372289
 20
-2415.477019666392
 30
0.0
 11
773.8031172303292
 21
-2415.477019666392
 31
0.0
  0
LINE
  5
128
  8
回02-寸法
  6
CONTINUOUS
 62
     5
 10
774.8031172303292
 20
-2413.477019666391
 30
0.0
 11
774.8031172303292
 21
-2411.477019666391
 31
0.0
  0
LINE
  5
129
  8
回02-寸法
  6
CONTINUOUS
 62
     5
 10
774.8031172303292
 20
-2425.727019666391
 30
0.0
 11
774.8031172303292
 21
-2444.367048366391
 31
0.0
  0
LINE
  5
12A
  8
回02-寸法
  6
CONTINUOUS
 62
     5
 10
774.8031172303292
 20
-2415.477019666392
 30
0.0
 11
774.8031172303292
 21
-2423.727019666392
 31
0.0
  0
INSERT
  5
12B
  8
回02-寸法
  6
CONTINUOUS
 62
     5
 66
     1
  2
_OPEN
 10
774.8031172303292
 20
-2415.477019666392
 30
0.0
 41
2.0
 42
2.0
 43
2.0
 50
270.0
  0
SEQEND
  5
12C
  8
回07-寸法
  6
CONTINUOUS
 62
     7
  0
INSERT
  5
12D
  8
回02-寸法
  6
CONTINUOUS
 62
     5
 66
     1
  2
_OPEN
 10
774.8031172303292
 20
-2423.727019666392
 30
0.0
 41
2.0
 42
2.0
 43
2.0
 50
90.0
  0
SEQEND
  5
12E
  8
回07-寸法
  6
CONTINUOUS
 62
     7
  0
INSERT
  5
12F
  8
回02-寸法
  6
CONTINUOUS
 62
     5
 66
     1
  2
*X9595
 10
0.0
 20
0.0
 30
0.0
  0
SEQEND
  5
728
  8
回07-寸法
  6
CONTINUOUS
 62
     7
  0
POINT
  5
130
  8
DEFPOINTS
  6
CONTINUOUS
 62
     0
 10
795.1308111609177
 20
-2423.727019666392
 30
0.0
  0
POINT
  5
131
  8
DEFPOINTS
  6
CONTINUOUS
 62
     0
 10
795.1307154372289
 20
-2415.477019666392
 30
0.0
  0
POINT
  5
132
  8
DEFPOINTS
  6
CONTINUOUS
 62
     0
 10
774.8031172303292
 20
-2415.477019666392
 30
0.0
  0
ENDBLK
  5
133
  8
0
 62
     7
  0
BLOCK
  8
0
  2
*D3636
 70
     1
 10
0.0
 20
0.0
 30
0.0
  3
*D3636
  1

  0
LINE
  5
89
  8
回07-寸法
  6
CONTINUOUS
 62
     5
 10
1021.793178183425
 20
-2516.779521784137
 30
0.0
 11
1032.919813799213
 21
-2516.779521784137
 31
0.0
  0
LINE
  5
8A
  8
回07-寸法
  6
CONTINUOUS
 62
     5
 10
1021.793178183425
 20
-2520.779521784137
 30
0.0
 11
1032.919813799213
 21
-2520.779521784137
 31
0.0
  0
LINE
  5
8B
  8
回07-寸法
  6
CONTINUOUS
 62
     5
 10
1031.919813799213
 20
-2513.779521784136
 30
0.0
 11
1031.919813799213
 21
-2510.779521784137
 31
0.0
  0
LINE
  5
8C
  8
回07-寸法
  6
CONTINUOUS
 62
     5
 10
1031.919813799213
 20
-2523.779521784137
 30
0.0
 11
1031.919813799213
 21
-2529.779521784136
 31
0.0
  0
LINE
  5
8D
  8
回07-寸法
  6
CONTINUOUS
 62
     5
 10
1031.919813799213
 20
-2516.779521784136
 30
0.0
 11
1031.919813799213
 21
-2520.779521784136
 31
0.0
  0
INSERT
  5
8E
  8
回07-寸法
  6
CONTINUOUS
 62
     5
 66
     1
  2
_OPEN
 10
1031.919813799213
 20
-2516.779521784136
 30
0.0
 41
3.0
 42
3.0
 43
3.0
 50
270.0
  0
SEQEND
  5
8F
  8
回07-寸法
  6
CONTINUOUS
 62
     7
  0
INSERT
  5
90
  8
回07-寸法
  6
CONTINUOUS
 62
     5
 66
     1
  2
_OPEN
 10
1031.919813799213
 20
-2520.779521784136
 30
0.0
 41
3.0
 42
3.0
 43
3.0
 50
90.0
  0
SEQEND
  5
91
  8
回07-寸法
  6
CONTINUOUS
 62
     7
  0
TEXT
  5
92
  8
回07-寸法
  6
CONTINUOUS
 62
     5
 10
1031.419813799212
 20
-2529.879521784136
 30
0.0
 40
4.0
  1
4
 50
90.0
1001
ACAD
1000
MTEXTBEGIN
1070
    73
1070
     1
1070
    44
1040
1.0
1070
    74
1070
     0
1000
MTEXTEND
  0
POINT
  5
93
  8
DEFPOINTS
  6
CONTINUOUS
 62
     0
 10
1021.793178183425
 20
-2516.779521784137
 30
0.0
  0
POINT
  5
94
  8
DEFPOINTS
  6
CONTINUOUS
 62
     0
 10
1021.793178183425
 20
-2520.779521784137
 30
0.0
  0
POINT
  5
95
  8
DEFPOINTS
  6
CONTINUOUS
 62
     0
 10
1031.919813799213
 20
-2520.779521784136
 30
0.0
  0
ENDBLK
  5
96
  8
0
 62
     7
  0
BLOCK
  8
0
  2
*D3737
 70
     1
 10
0.0
 20
0.0
 30
0.0
  3
*D3737
  1

  0
LINE
  5
77
  8
回07-寸法
  6
CONTINUOUS
 62
     5
 10
1013.793178183425
 20
-2528.779521784136
 30
0.0
 11
1013.793178183425
 21
-2537.954745264789
 31
0.0
  0
LINE
  5
78
  8
回07-寸法
  6
CONTINUOUS
 62
     5
 10
1017.793178183425
 20
-2528.779521784136
 30
0.0
 11
1017.793178183425
 21
-2537.954745264789
 31
0.0
  0
LINE
  5
79
  8
回07-寸法
  6
CONTINUOUS
 62
     5
 10
1010.793178183424
 20
-2536.954745264789
 30
0.0
 11
1007.793178183425
 21
-2536.954745264789
 31
0.0
  0
LINE
  5
7A
  8
回07-寸法
  6
CONTINUOUS
 62
     5
 10
1020.793178183424
 20
-2536.954745264789
 30
0.0
 11
1026.793178183424
 21
-2536.954745264789
 31
0.0
  0
LINE
  5
7B
  8
回07-寸法
  6
CONTINUOUS
 62
     5
 10
1013.793178183425
 20
-2536.954745264789
 30
0.0
 11
1017.793178183425
 21
-2536.954745264789
 31
0.0
  0
INSERT
  5
7C
  8
回07-寸法
  6
CONTINUOUS
 62
     5
 66
     1
  2
_OPEN
 10
1013.793178183425
 20
-2536.954745264789
 30
0.0
 41
3.0
 42
3.0
 43
3.0
  0
SEQEND
  5
7D
  8
回07-寸法
  6
CONTINUOUS
 62
     7
  0
INSERT
  5
7E
  8
回07-寸法
  6
CONTINUOUS
 62
     5
 66
     1
  2
_OPEN
 10
1017.793178183425
 20
-2536.954745264789
 30
0.0
 41
3.0
 42
3.0
 43
3.0
 50
180.0
  0
SEQEND
  5
7F
  8
回07-寸法
  6
CONTINUOUS
 62
     7
  0
TEXT
  5
80
  8
回07-寸法
  6
CONTINUOUS
 62
     5
 10
1023.693178183425
 20
-2536.454745264789
 30
0.0
 40
4.0
  1
4
1001
ACAD
1000
MTEXTBEGIN
1070
    73
1070
     1
1070
    44
1040
1.0
1070
    74
1070
     0
1000
MTEXTEND
  0
POINT
  5
81
  8
DEFPOINTS
  6
CONTINUOUS
 62
     0
 10
1013.793178183425
 20
-2528.779521784136
 30
0.0
  0
POINT
  5
83
  8
DEFPOINTS
  6
CONTINUOUS
 62
     0
 10
1017.793178183425
 20
-2528.779521784136
 30
0.0
  0
POINT
  5
84
  8
DEFPOINTS
  6
CONTINUOUS
 62
     0
 10
1017.793178183425
 20
-2536.954745264789
 30
0.0
  0
ENDBLK
  5
85
  8
0
 62
     7
  0
BLOCK
  8
回07-寸法
  2
*D3838
 70
     1
 10
0.0
 20
0.0
 30
0.0
  3
*D3838
  1

  0
LINE
  5
45C
  8
回07-寸法
  6
CONTINUOUS
 62
     5
 10
2821.878120155215
 20
456.7337419731038
 30
0.0
 11
2821.878120155215
 21
447.5585184924507
 31
0.0
  0
LINE
  5
45E
  8
回07-寸法
  6
CONTINUOUS
 62
     5
 10
2825.878120155215
 20
456.7337419731038
 30
0.0
 11
2825.878120155215
 21
447.5585184924507
 31
0.0
  0
LINE
  5
45F
  8
回07-寸法
  6
CONTINUOUS
 62
     5
 10
2828.878120155215
 20
448.5585184924507
 30
0.0
 11
2834.878120155214
 21
448.5585184924507
 31
0.0
  0
LINE
  5
460
  8
回07-寸法
  6
CONTINUOUS
 62
     5
 10
2821.878120155215
 20
448.5585184924507
 30
0.0
 11
2825.878120155215
 21
448.5585184924507
 31
0.0
  0
LINE
  5
461
  8
回07-寸法
  6
CONTINUOUS
 62
     5
 10
2818.878120155214
 20
448.5585184924507
 30
0.0
 11
2815.878120155214
 21
448.5585184924507
 31
0.0
  0
INSERT
  5
462
  8
回07-寸法
  6
CONTINUOUS
 62
     5
  2
_OPEN
 10
2821.878120155215
 20
448.5585184924507
 30
0.0
 41
3.0
 42
3.0
 43
3.0
  0
INSERT
  5
463
  8
回07-寸法
  6
CONTINUOUS
 62
     5
  2
_OPEN
 10
2825.878120155215
 20
448.5585184924507
 30
0.0
 41
3.0
 42
3.0
 43
3.0
 50
180.0
  0
TEXT
  5
464
  8
回07-寸法
  6
CONTINUOUS
 62
     5
 10
2831.778120155215
 20
449.0585184924507
 30
0.0
 40
4.0
  1
4
  0
POINT
  5
465
  8
DEFPOINTS
  6
CONTINUOUS
 62
     0
 10
2821.878120155215
 20
456.7337419731038
 30
0.0
  0
POINT
  5
466
  8
DEFPOINTS
  6
CONTINUOUS
 62
     0
 10
2825.878120155215
 20
456.7337419731038
 30
0.0
  0
POINT
  5
467
  8
DEFPOINTS
  6
CONTINUOUS
 62
     0
 10
2825.878120155215
 20
448.5585184924507
 30
0.0
  0
ENDBLK
  5
469
  8
回07-寸法
  6
CONTINUOUS
 62
     7
  0
BLOCK
  8
回07-寸法
  2
*D3939
 70
     1
 10
0.0
 20
0.0
 30
0.0
  3
*D3939
  1

  0
LINE
  5
46B
  8
回07-寸法
  6
CONTINUOUS
 62
     5
 10
2829.878120155214
 20
468.7337419731037
 30
0.0
 11
2841.004755771002
 21
468.7337419731037
 31
0.0
  0
LINE
  5
46C
  8
回07-寸法
  6
CONTINUOUS
 62
     5
 10
2829.878120155214
 20
464.7337419731037
 30
0.0
 11
2841.004755771002
 21
464.7337419731037
 31
0.0
  0
LINE
  5
46D
  8
回07-寸法
  6
CONTINUOUS
 62
     5
 10
2840.004755771003
 20
461.7337419731038
 30
0.0
 11
2840.004755771003
 21
455.7337419731037
 31
0.0
  0
LINE
  5
46E
  8
回07-寸法
  6
CONTINUOUS
 62
     5
 10
2840.004755771003
 20
468.7337419731037
 30
0.0
 11
2840.004755771003
 21
464.7337419731037
 31
0.0
  0
LINE
  5
46F
  8
回07-寸法
  6
CONTINUOUS
 62
     5
 10
2840.004755771003
 20
471.7337419731038
 30
0.0
 11
2840.004755771003
 21
474.7337419731038
 31
0.0
  0
INSERT
  5
470
  8
回07-寸法
  6
CONTINUOUS
 62
     5
  2
_OPEN
 10
2840.004755771003
 20
468.7337419731037
 30
0.0
 41
3.0
 42
3.0
 43
3.0
 50
270.0
  0
INSERT
  5
471
  8
回07-寸法
  6
CONTINUOUS
 62
     5
  2
_OPEN
 10
2840.004755771003
 20
464.7337419731037
 30
0.0
 41
3.0
 42
3.0
 43
3.0
 50
90.0
  0
TEXT
  5
472
  8
回07-寸法
  6
CONTINUOUS
 62
     5
 10
2839.504755771002
 20
455.6337419731039
 30
0.0
 40
4.0
  1
4
 50
90.0
  0
POINT
  5
473
  8
DEFPOINTS
  6
CONTINUOUS
 62
     0
 10
2829.878120155214
 20
468.7337419731037
 30
0.0
  0
POINT
  5
474
  8
DEFPOINTS
  6
CONTINUOUS
 62
     0
 10
2829.878120155214
 20
464.7337419731037
 30
0.0
  0
POINT
  5
475
  8
DEFPOINTS
  6
CONTINUOUS
 62
     0
 10
2840.004755771003
 20
464.7337419731037
 30
0.0
  0
ENDBLK
  5
477
  8
回07-寸法
  6
CONTINUOUS
 62
     7
  0
BLOCK
  8
回07-寸法
  2
*D4040
 70
     1
 10
0.0
 20
0.0
 30
0.0
  3
*D4040
  1

  0
LINE
  5
479
  8
回02-寸法
  6
CONTINUOUS
 62
     5
 10
2603.215753132706
 20
561.7862440908493
 30
0.0
 11
2581.888059202117
 21
561.7862440908493
 31
0.0
  0
LINE
  5
47B
  8
回02-寸法
  6
CONTINUOUS
 62
     5
 10
2603.215657409017
 20
570.0362440908492
 30
0.0
 11
2581.888059202117
 21
570.0362440908492
 31
0.0
  0
LINE
  5
47C
  8
回02-寸法
  6
CONTINUOUS
 62
     5
 10
2582.888059202117
 20
559.7862440908491
 30
0.0
 11
2582.888059202117
 21
541.1462153908492
 31
0.0
  0
LINE
  5
47D
  8
回02-寸法
  6
CONTINUOUS
 62
     5
 10
2582.888059202117
 20
561.7862440908493
 30
0.0
 11
2582.888059202117
 21
570.0362440908492
 31
0.0
  0
LINE
  5
47E
  8
回02-寸法
  6
CONTINUOUS
 62
     5
 10
2582.888059202117
 20
572.0362440908492
 30
0.0
 11
2582.888059202117
 21
574.0362440908492
 31
0.0
  0
INSERT
  5
47F
  8
回02-寸法
  6
CONTINUOUS
 62
     5
  2
_OPEN
 10
2582.888059202117
 20
561.7862440908493
 30
0.0
 41
2.0
 42
2.0
 43
2.0
 50
90.0
  0
INSERT
  5
480
  8
回02-寸法
  6
CONTINUOUS
 62
     5
  2
_OPEN
 10
2582.888059202117
 20
570.0362440908492
 30
0.0
 41
2.0
 42
2.0
 43
2.0
 50
270.0
  0
INSERT
  5
481
  8
回02-寸法
  6
CONTINUOUS
 62
     5
 66
     1
  2
*X9696
 10
0.0
 20
0.0
 30
0.0
  0
SEQEND
  5
72E
  8
回07-寸法
  6
CONTINUOUS
 62
     7
  0
POINT
  5
482
  8
DEFPOINTS
  6
CONTINUOUS
 62
     0
 10
2603.215753132706
 20
561.7862440908493
 30
0.0
  0
POINT
  5
483
  8
DEFPOINTS
  6
CONTINUOUS
 62
     0
 10
2603.215657409017
 20
570.0362440908492
 30
0.0
  0
POINT
  5
484
  8
DEFPOINTS
  6
CONTINUOUS
 62
     0
 10
2582.888059202117
 20
570.0362440908492
 30
0.0
  0
ENDBLK
  5
486
  8
回07-寸法
  6
CONTINUOUS
 62
     7
  0
BLOCK
  8
回07-寸法
  2
*D4141
 70
     1
 10
0.0
 20
0.0
 30
0.0
  3
*D4141
  1

  0
LINE
  5
488
  8
回02-寸法
  6
CONTINUOUS
 62
     5
 10
2606.405139407808
 20
562.5562440908493
 30
0.0
 11
2596.385372383068
 21
562.5562440908493
 31
0.0
  0
LINE
  5
489
  8
回02-寸法
  6
CONTINUOUS
 62
     5
 10
2606.405139407808
 20
561.0162440908498
 30
0.0
 11
2596.385372383068
 21
561.0162440908498
 31
0.0
  0
LINE
  5
48A
  8
回02-寸法
  6
CONTINUOUS
 62
     5
 10
2597.385372383068
 20
559.0162440908498
 30
0.0
 11
2597.385372383068
 21
536.9829380908495
 31
0.0
  0
LINE
  5
48B
  8
回02-寸法
  6
CONTINUOUS
 62
     5
 10
2597.385372383068
 20
562.5562440908493
 30
0.0
 11
2597.385372383068
 21
561.0162440908498
 31
0.0
  0
LINE
  5
48C
  8
回02-寸法
  6
CONTINUOUS
 62
     5
 10
2597.385372383068
 20
564.5562440908491
 30
0.0
 11
2597.385372383068
 21
566.5562440908492
 31
0.0
  0
INSERT
  5
48D
  8
回02-寸法
  6
CONTINUOUS
 62
     5
  2
_OPEN
 10
2597.385372383068
 20
562.5562440908493
 30
0.0
 41
2.0
 42
2.0
 43
2.0
 50
270.0
  0
INSERT
  5
48E
  8
回02-寸法
  6
CONTINUOUS
 62
     5
  2
_OPEN
 10
2597.385372383068
 20
561.0162440908498
 30
0.0
 41
2.0
 42
2.0
 43
2.0
 50
90.0
  0
INSERT
  5
48F
  8
回02-寸法
  6
CONTINUOUS
 62
     5
 66
     1
  2
*X9797
 10
0.0
 20
0.0
 30
0.0
  0
SEQEND
  5
734
  8
回07-寸法
  6
CONTINUOUS
 62
     7
  0
POINT
  5
490
  8
DEFPOINTS
  6
CONTINUOUS
 62
     0
 10
2606.405139407808
 20
562.5562440908493
 30
0.0
  0
POINT
  5
491
  8
DEFPOINTS
  6
CONTINUOUS
 62
     0
 10
2606.405139407808
 20
561.0162440908498
 30
0.0
  0
POINT
  5
492
  8
DEFPOINTS
  6
CONTINUOUS
 62
     0
 10
2597.385372383068
 20
561.0162440908498
 30
0.0
  0
ENDBLK
  5
494
  8
回07-寸法
  6
CONTINUOUS
 62
     7
  0
BLOCK
  8
回07-寸法
  2
*D4242
 70
     1
 10
0.0
 20
0.0
 30
0.0
  3
*D4242
  1

  0
LINE
  5
496
  8
回02-寸法
  6
CONTINUOUS
 62
     5
 10
2603.215753132706
 20
564.5362440908492
 30
0.0
 11
2588.944271030931
 21
564.5362440908492
 31
0.0
  0
LINE
  5
497
  8
回02-寸法
  6
CONTINUOUS
 62
     5
 10
2603.215753132706
 20
561.7862440908493
 30
0.0
 11
2588.944271030931
 21
561.7862440908493
 31
0.0
  0
LINE
  5
498
  8
回02-寸法
  6
CONTINUOUS
 62
     5
 10
2589.944271030931
 20
559.7862440908491
 30
0.0
 11
2589.944271030931
 21
541.0855370152638
 31
0.0
  0
LINE
  5
499
  8
回02-寸法
  6
CONTINUOUS
 62
     5
 10
2589.944271030931
 20
564.5362440908492
 30
0.0
 11
2589.944271030931
 21
561.7862440908493
 31
0.0
  0
LINE
  5
49A
  8
回02-寸法
  6
CONTINUOUS
 62
     5
 10
2589.944271030931
 20
566.5362440908491
 30
0.0
 11
2589.944271030931
 21
568.5362440908492
 31
0.0
  0
INSERT
  5
49B
  8
回02-寸法
  6
CONTINUOUS
 62
     5
  2
_OPEN
 10
2589.944271030931
 20
564.5362440908492
 30
0.0
 41
2.0
 42
2.0
 43
2.0
 50
270.0
  0
INSERT
  5
49C
  8
回02-寸法
  6
CONTINUOUS
 62
     5
  2
_OPEN
 10
2589.944271030931
 20
561.7862440908493
 30
0.0
 41
2.0
 42
2.0
 43
2.0
 50
90.0
  0
INSERT
  5
49D
  8
回02-寸法
  6
CONTINUOUS
 62
     5
 66
     1
  2
*X9898
 10
0.0
 20
0.0
 30
0.0
  0
SEQEND
  5
73A
  8
回07-寸法
  6
CONTINUOUS
 62
     7
  0
POINT
  5
49E
  8
DEFPOINTS
  6
CONTINUOUS
 62
     0
 10
2603.215753132706
 20
564.5362440908492
 30
0.0
  0
POINT
  5
49F
  8
DEFPOINTS
  6
CONTINUOUS
 62
     0
 10
2603.215753132706
 20
561.7862440908493
 30
0.0
  0
POINT
  5
4A0
  8
DEFPOINTS
  6
CONTINUOUS
 62
     0
 10
2589.944271030931
 20
561.7862440908493
 30
0.0
  0
ENDBLK
  5
4A2
  8
回07-寸法
  6
CONTINUOUS
 62
     7
  0
BLOCK
  8
回07-寸法
  2
*D4343
 70
     1
 10
0.0
 20
0.0
 30
0.0
  3
*D4343
  1

  0
LINE
  5
4A4
  8
回02-寸法
  6
CONTINUOUS
 62
     5
 10
2607.505235131498
 20
572.7862440908542
 30
0.0
 11
2574.144115015755
 21
572.7862440908542
 31
0.0
  0
LINE
  5
4A5
  8
回02-寸法
  6
CONTINUOUS
 62
     5
 10
2607.505235131498
 20
559.0362440908552
 30
0.0
 11
2574.144115015755
 21
559.0362440908552
 31
0.0
  0
LINE
  5
4A6
  8
回02-寸法
  6
CONTINUOUS
 62
     5
 10
2575.144115015755
 20
557.0362440908552
 30
0.0
 11
2575.144115015755
 21
539.0353543985451
 31
0.0
  0
LINE
  5
4A7
  8
回02-寸法
  6
CONTINUOUS
 62
     5
 10
2575.144115015755
 20
572.7862440908542
 30
0.0
 11
2575.144115015755
 21
559.0362440908552
 31
0.0
  0
LINE
  5
4A8
  8
回02-寸法
  6
CONTINUOUS
 62
     5
 10
2575.144115015755
 20
574.7862440908542
 30
0.0
 11
2575.144115015755
 21
576.7862440908542
 31
0.0
  0
INSERT
  5
4A9
  8
回02-寸法
  6
CONTINUOUS
 62
     5
  2
_OPEN
 10
2575.144115015755
 20
572.7862440908542
 30
0.0
 41
2.0
 42
2.0
 43
2.0
 50
270.0
  0
INSERT
  5
4AA
  8
回02-寸法
  6
CONTINUOUS
 62
     5
  2
_OPEN
 10
2575.144115015755
 20
559.0362440908552
 30
0.0
 41
2.0
 42
2.0
 43
2.0
 50
90.0
  0
INSERT
  5
4AB
  8
回02-寸法
  6
CONTINUOUS
 62
     5
 66
     1
  2
*X9999
 10
0.0
 20
0.0
 30
0.0
  0
SEQEND
  5
740
  8
回07-寸法
  6
CONTINUOUS
 62
     7
  0
POINT
  5
4AC
  8
DEFPOINTS
  6
CONTINUOUS
 62
     0
 10
2607.505235131498
 20
572.7862440908542
 30
0.0
  0
POINT
  5
4AD
  8
DEFPOINTS
  6
CONTINUOUS
 62
     0
 10
2607.505235131498
 20
559.0362440908552
 30
0.0
  0
POINT
  5
4AE
  8
DEFPOINTS
  6
CONTINUOUS
 62
     0
 10
2575.144115015755
 20
559.0362440908552
 30
0.0
  0
ENDBLK
  5
4B0
  8
回07-寸法
  6
CONTINUOUS
 62
     7
  0
BLOCK
  8
回07-寸法
  2
*D4444
 70
     1
 10
0.0
 20
0.0
 30
0.0
  3
*D4444
  1

  0
LINE
  5
4B2
  8
回02-寸法
  6
CONTINUOUS
 62
     5
 10
2674.568120155214
 20
484.0674824424981
 30
0.0
 11
2674.568120155214
 21
480.2394065392768
 31
0.0
  0
LINE
  5
4B3
  8
回02-寸法
  6
CONTINUOUS
 62
     5
 10
2669.967617642652
 20
484.8337607062688
 30
0.0
 11
2669.967617642652
 21
480.2394065392768
 31
0.0
  0
LINE
  5
4B4
  8
回02-寸法
  6
CONTINUOUS
 62
     5
 10
2667.967617642652
 20
481.2394065392767
 30
0.0
 11
2656.331597280572
 21
481.2394065392767
 31
0.0
  0
LINE
  5
4B5
  8
回02-寸法
  6
CONTINUOUS
 62
     5
 10
2674.568120155214
 20
481.2394065392767
 30
0.0
 11
2669.967617642652
 21
481.2394065392767
 31
0.0
  0
LINE
  5
4B6
  8
回02-寸法
  6
CONTINUOUS
 62
     5
 10
2676.568120155215
 20
481.2394065392767
 30
0.0
 11
2678.568120155214
 21
481.2394065392767
 31
0.0
  0
INSERT
  5
4B7
  8
回02-寸法
  6
CONTINUOUS
 62
     5
  2
_OPEN
 10
2674.568120155214
 20
481.2394065392767
 30
0.0
 41
2.0
 42
2.0
 43
2.0
 50
180.0
  0
INSERT
  5
4B8
  8
回02-寸法
  6
CONTINUOUS
 62
     5
  2
_OPEN
 10
2669.967617642652
 20
481.2394065392767
 30
0.0
 41
2.0
 42
2.0
 43
2.0
  0
TEXT
  5
4B9
  8
回02-寸法
  6
CONTINUOUS
 62
     5
 10
2656.231597280573
 20
481.7394065392767
 30
0.0
 40
4.0
  1
4.6
  0
POINT
  5
4BA
  8
DEFPOINTS
  6
CONTINUOUS
 62
     0
 10
2674.568120155214
 20
484.0674824424981
 30
0.0
  0
POINT
  5
4BB
  8
DEFPOINTS
  6
CONTINUOUS
 62
     0
 10
2669.967617642652
 20
484.8337607062688
 30
0.0
  0
POINT
  5
4BC
  8
DEFPOINTS
  6
CONTINUOUS
 62
     0
 10
2669.967617642652
 20
481.2394065392767
 30
0.0
  0
ENDBLK
  5
4BE
  8
回07-寸法
  6
CONTINUOUS
 62
     7
  0
BLOCK
  8
回07-寸法
  2
*D4545
 70
     1
 10
0.0
 20
0.0
 30
0.0
  3
*D4545
  1

  0
LINE
  5
4C0
  8
回02-寸法
 62
     5
 10
2595.068076644447
 20
495.8696067869658
 30
0.0
 11
2583.425031596276
 21
495.8696067869658
 31
0.0
  0
LINE
  5
4C1
  8
回02-寸法
 62
     5
 10
2595.068076644447
 20
489.6196067869658
 30
0.0
 11
2583.425031596276
 21
489.6196067869658
 31
0.0
  0
LINE
  5
4C2
  8
回02-寸法
 62
     5
 10
2584.425031596275
 20
497.8696067869658
 30
0.0
 11
2584.425031596275
 21
516.8539990371153
 31
0.0
  0
LINE
  5
4C3
  8
回02-寸法
 62
     5
 10
2584.425031596275
 20
495.8696067869658
 30
0.0
 11
2584.425031596275
 21
489.6196067869658
 31
0.0
  0
LINE
  5
4C4
  8
回02-寸法
 62
     5
 10
2584.425031596275
 20
487.6196067869658
 30
0.0
 11
2584.425031596275
 21
485.6196067869658
 31
0.0
  0
INSERT
  5
4C5
  8
回02-寸法
  6
CONTINUOUS
 62
     5
  2
_OPEN
 10
2584.425031596275
 20
495.8696067869658
 30
0.0
 41
2.0
 42
2.0
 43
2.0
 50
270.0
  0
INSERT
  5
4C6
  8
回02-寸法
  6
CONTINUOUS
 62
     5
  2
_OPEN
 10
2584.425031596275
 20
489.6196067869658
 30
0.0
 41
2.0
 42
2.0
 43
2.0
 50
90.0
  0
INSERT
  5
4C7
  8
回02-寸法
  6
CONTINUOUS
 62
     5
 66
     1
  2
*X100100
 10
0.0
 20
0.0
 30
0.0
  0
SEQEND
  5
746
  8
回07-寸法
  6
CONTINUOUS
 62
     7
  0
POINT
  5
4C8
  8
DEFPOINTS
  6
CONTINUOUS
 62
     0
 10
2595.068076644447
 20
495.8696067869658
 30
0.0
  0
POINT
  5
4C9
  8
DEFPOINTS
  6
CONTINUOUS
 62
     0
 10
2595.068076644447
 20
489.6196067869658
 30
0.0
  0
POINT
  5
4CA
  8
DEFPOINTS
  6
CONTINUOUS
 62
     0
 10
2584.425031596275
 20
489.6196067869658
 30
0.0
  0
ENDBLK
  5
4CC
  8
回07-寸法
  6
CONTINUOUS
 62
     7
  0
BLOCK
  8
回07-寸法
  2
*D4646
 70
     1
 10
0.0
 20
0.0
 30
0.0
  3
*D4646
  1

  0
LINE
  5
4CE
  8
回02-寸法
  6
CONTINUOUS
 62
     5
 10
2674.568120155214
 20
484.0674824424981
 30
0.0
 11
2674.568120155214
 21
472.57637660229
 31
0.0
  0
LINE
  5
4CF
  8
回02-寸法
  6
CONTINUOUS
 62
     5
 10
2665.072189035187
 20
489.5264173307569
 30
0.0
 11
2665.072189035187
 21
472.57637660229
 31
0.0
  0
LINE
  5
4D0
  8
回02-寸法
  6
CONTINUOUS
 62
     5
 10
2663.072189035187
 20
473.5763766022901
 30
0.0
 11
2653.565082254
 21
473.5763766022901
 31
0.0
  0
LINE
  5
4D1
  8
回02-寸法
  6
CONTINUOUS
 62
     5
 10
2674.568120155214
 20
473.5763766022901
 30
0.0
 11
2665.072189035187
 21
473.5763766022901
 31
0.0
  0
LINE
  5
4D2
  8
回02-寸法
  6
CONTINUOUS
 62
     5
 10
2676.568120155215
 20
473.5763766022901
 30
0.0
 11
2678.568120155214
 21
473.5763766022901
 31
0.0
  0
INSERT
  5
4D3
  8
回02-寸法
  6
CONTINUOUS
 62
     5
  2
_OPEN
 10
2674.568120155214
 20
473.5763766022901
 30
0.0
 41
2.0
 42
2.0
 43
2.0
 50
180.0
  0
INSERT
  5
4D4
  8
回02-寸法
  6
CONTINUOUS
 62
     5
  2
_OPEN
 10
2665.072189035187
 20
473.5763766022901
 30
0.0
 41
2.0
 42
2.0
 43
2.0
  0
TEXT
  5
4D5
  8
回02-寸法
  6
CONTINUOUS
 62
     5
 10
2653.450640779893
 20
474.0763766022901
 30
0.0
 40
4.0
  1
9.5
  0
POINT
  5
4D6
  8
DEFPOINTS
  6
CONTINUOUS
 62
     0
 10
2674.568120155214
 20
484.0674824424981
 30
0.0
  0
POINT
  5
4D7
  8
DEFPOINTS
  6
CONTINUOUS
 62
     0
 10
2665.072189035187
 20
489.5264173307569
 30
0.0
  0
POINT
  5
4D8
  8
DEFPOINTS
  6
CONTINUOUS
 62
     0
 10
2665.072189035187
 20
473.5763766022901
 30
0.0
  0
ENDBLK
  5
4DA
  8
回07-寸法
  6
CONTINUOUS
 62
     7
  0
BLOCK
  8
回07-寸法
  2
*D4747
 70
     1
 10
0.0
 20
0.0
 30
0.0
  3
*D4747
  1

  0
LINE
  5
4DC
  8
回02-寸法
  6
CONTINUOUS
 62
     5
 10
2674.568120155214
 20
501.4217313311563
 30
0.0
 11
2674.568120155214
 21
518.6499874422325
 31
0.0
  0
LINE
  5
4DD
  8
回02-寸法
  6
CONTINUOUS
 62
     5
 10
2594.568076644447
 20
495.3696067869655
 30
0.0
 11
2594.568076644447
 21
518.6499874422325
 31
0.0
  0
LINE
  5
4DE
  8
回02-寸法
  6
CONTINUOUS
 62
     5
 10
2673.068120155214
 20
517.6499874422325
 30
0.0
 11
2596.068076644447
 21
517.6499874422325
 31
0.0
  0
INSERT
  5
4DF
  8
回02-寸法
  6
CONTINUOUS
 62
     5
  2
_OPEN
 10
2674.568120155214
 20
517.6499874422325
 30
0.0
 41
1.5
 42
1.5
 43
1.5
  0
INSERT
  5
4E0
  8
回02-寸法
  6
CONTINUOUS
 62
     5
  2
_OPEN
 10
2594.568076644447
 20
517.6499874422325
 30
0.0
 41
1.5
 42
1.5
 43
1.5
 50
180.0
  0
INSERT
  5
4E1
  8
回02-寸法
  6
CONTINUOUS
 62
     5
 66
     1
  2
*X101101
 10
0.0
 20
0.0
 30
0.0
  0
SEQEND
  5
74C
  8
回07-寸法
  6
CONTINUOUS
 62
     7
  0
POINT
  5
4E2
  8
DEFPOINTS
  6
CONTINUOUS
 62
     0
 10
2674.568120155214
 20
501.4217313311563
 30
0.0
  0
POINT
  5
4E3
  8
DEFPOINTS
  6
CONTINUOUS
 62
     0
 10
2594.568076644447
 20
495.3696067869655
 30
0.0
  0
POINT
  5
4E4
  8
DEFPOINTS
  6
CONTINUOUS
 62
     0
 10
2594.568076644447
 20
517.6499874422325
 30
0.0
  0
ENDBLK
  5
4E6
  8
回07-寸法
  6
CONTINUOUS
 62
     7
  0
BLOCK
  8
回07-寸法
  2
*D4848
 70
     1
 10
0.0
 20
0.0
 30
0.0
  3
*D4848
  1

  0
LINE
  5
4E8
  8
回02-寸法
  6
CONTINUOUS
 62
     5
 10
2595.068076660173
 20
489.6196067869651
 30
0.0
 11
2583.425031596274
 21
489.6196067869651
 31
0.0
  0
LINE
  5
4E9
  8
回02-寸法
  6
CONTINUOUS
 62
     5
 10
2674.568120155214
 20
421.2337419731039
 30
0.0
 11
2583.425031596274
 21
421.2337419731039
 31
0.0
  0
LINE
  5
4EA
  8
回02-寸法
  6
CONTINUOUS
 62
     5
 10
2584.425031596274
 20
488.119606786965
 30
0.0
 11
2584.425031596274
 21
422.7337419731037
 31
0.0
  0
INSERT
  5
4EB
  8
回02-寸法
  6
CONTINUOUS
 62
     5
  2
_OPEN
 10
2584.425031596274
 20
489.6196067869651
 30
0.0
 41
1.5
 42
1.5
 43
1.5
 50
90.0
  0
INSERT
  5
4EC
  8
回02-寸法
  6
CONTINUOUS
 62
     5
  2
_OPEN
 10
2584.425031596274
 20
421.2337419731039
 30
0.0
 41
1.5
 42
1.5
 43
1.5
 50
270.0
  0
TEXT
  5
4ED
  8
回02-寸法
  6
CONTINUOUS
 62
     5
 10
2583.725031596274
 20
447.6194536429806
 30
0.0
 40
4.0
  1
(68.39)
 50
90.0
  0
POINT
  5
4EE
  8
DEFPOINTS
  6
CONTINUOUS
 62
     0
 10
2595.068076660173
 20
489.6196067869651
 30
0.0
  0
POINT
  5
4EF
  8
DEFPOINTS
  6
CONTINUOUS
 62
     0
 10
2674.568120155214
 20
421.2337419731039
 30
0.0
  0
POINT
  5
4F0
  8
DEFPOINTS
  6
CONTINUOUS
 62
     0
 10
2584.425031596274
 20
421.2337419731039
 30
0.0
  0
ENDBLK
  5
4F2
  8
回07-寸法
  6
CONTINUOUS
 62
     7
  0
BLOCK
  8
回07-寸法
  2
*D4949
 70
     1
 10
0.0
 20
0.0
 30
0.0
  3
*D4949
  1

  0
LINE
  5
4F4
  8
回02-寸法
  6
CONTINUOUS
 62
     5
 10
2670.67619024685
 20
500.743537823897
 30
0.0
 11
2646.30643231941
 21
500.743537823897
 31
0.0
  0
LINE
  5
4F5
  8
回02-寸法
  6
CONTINUOUS
 62
     5
 10
2670.680363832555
 20
484.7446067869655
 30
0.0
 11
2646.30643231941
 21
484.7446067869655
 31
0.0
  0
LINE
  5
4F6
  8
回02-寸法
  6
CONTINUOUS
 62
     5
 10
2647.306432319411
 20
482.7446067869654
 30
0.0
 11
2647.306432319411
 21
476.0437241316721
 31
0.0
  0
LINE
  5
4F7
  8
回02-寸法
  6
CONTINUOUS
 62
     5
 10
2647.306432319411
 20
500.743537823897
 30
0.0
 11
2647.306432319411
 21
484.7446067869655
 31
0.0
  0
LINE
  5
4F8
  8
回02-寸法
  6
CONTINUOUS
 62
     5
 10
2647.306432319411
 20
502.7435378238968
 30
0.0
 11
2647.306432319411
 21
504.743537823897
 31
0.0
  0
INSERT
  5
4F9
  8
回02-寸法
  6
CONTINUOUS
 62
     5
  2
_OPEN
 10
2647.306432319411
 20
500.743537823897
 30
0.0
 41
2.0
 42
2.0
 43
2.0
 50
270.0
  0
INSERT
  5
4FA
  8
回02-寸法
  6
CONTINUOUS
 62
     5
  2
_OPEN
 10
2647.306432319411
 20
484.7446067869655
 30
0.0
 41
2.0
 42
2.0
 43
2.0
 50
90.0
  0
TEXT
  5
4FB
  8
回02-寸法
  6
CONTINUOUS
 62
     5
 10
2646.80643231941
 20
475.9437241316723
 30
0.0
 40
4.0
  1
16
 50
90.0
  0
POINT
  5
4FC
  8
DEFPOINTS
  6
CONTINUOUS
 62
     0
 10
2670.67619024685
 20
500.743537823897
 30
0.0
  0
POINT
  5
4FD
  8
DEFPOINTS
  6
CONTINUOUS
 62
     0
 10
2670.680363832555
 20
484.7446067869655
 30
0.0
  0
POINT
  5
4FE
  8
DEFPOINTS
  6
CONTINUOUS
 62
     0
 10
2647.306432319411
 20
484.7446067869655
 30
0.0
  0
ENDBLK
  5
500
  8
回07-寸法
  6
CONTINUOUS
 62
     7
  0
BLOCK
  8
回07-寸法
  2
*D5050
 70
     1
 10
0.0
 20
0.0
 30
0.0
  3
*D5050
  1

  0
LINE
  5
502
  8
回02-寸法
  6
CONTINUOUS
 62
     5
 10
2674.568120155214
 20
373.9516631025076
 30
0.0
 11
2674.568120155214
 21
386.5467641606665
 31
0.0
  0
LINE
  5
503
  8
回02-寸法
  6
CONTINUOUS
 62
     5
 10
2675.168120155214
 20
380.9516631025076
 30
0.0
 11
2675.168120155214
 21
386.5467641606665
 31
0.0
  0
LINE
  5
504
  8
回02-寸法
  6
CONTINUOUS
 62
     5
 10
2677.168120155214
 20
385.5467641606665
 30
0.0
 11
2688.964970548915
 21
385.5467641606665
 31
0.0
  0
LINE
  5
505
  8
回02-寸法
  6
CONTINUOUS
 62
     5
 10
2674.568120155214
 20
385.5467641606665
 30
0.0
 11
2675.168120155214
 21
385.5467641606665
 31
0.0
  0
LINE
  5
506
  8
回02-寸法
  6
CONTINUOUS
 62
     5
 10
2672.568120155214
 20
385.5467641606665
 30
0.0
 11
2670.568120155214
 21
385.5467641606665
 31
0.0
  0
INSERT
  5
507
  8
回02-寸法
  6
CONTINUOUS
 62
     5
  2
_OPEN
 10
2674.568120155214
 20
385.5467641606665
 30
0.0
 41
2.0
 42
2.0
 43
2.0
  0
INSERT
  5
508
  8
回02-寸法
  6
CONTINUOUS
 62
     5
  2
_OPEN
 10
2675.168120155214
 20
385.5467641606665
 30
0.0
 41
2.0
 42
2.0
 43
2.0
 50
180.0
  0
TEXT
  5
509
  8
回02-寸法
  6
CONTINUOUS
 62
     5
 10
2679.066545352065
 20
386.2467641606665
 30
0.0
 40
4.0
  1
(0.6)
  0
POINT
  5
50A
  8
DEFPOINTS
  6
CONTINUOUS
 62
     0
 10
2674.568120155214
 20
373.9516631025076
 30
0.0
  0
POINT
  5
50B
  8
DEFPOINTS
  6
CONTINUOUS
 62
     0
 10
2675.168120155214
 20
380.9516631025076
 30
0.0
  0
POINT
  5
50C
  8
DEFPOINTS
  6
CONTINUOUS
 62
     0
 10
2675.168120155214
 20
385.5467641606665
 30
0.0
  0
ENDBLK
  5
50E
  8
回07-寸法
  6
CONTINUOUS
 62
     7
  0
BLOCK
  8
回07-寸法
  2
*D5151
 70
     1
 10
0.0
 20
0.0
 30
0.0
  3
*D5151
  1

  0
LINE
  5
510
  8
回02-寸法
  6
CONTINUOUS
 62
     5
 10
2909.068120155213
 20
380.9516631025072
 30
0.0
 11
2918.947846190207
 21
380.9516631025072
 31
0.0
  0
LINE
  5
511
  8
回02-寸法
  6
CONTINUOUS
 62
     5
 10
2909.568120155214
 20
367.9516631025058
 30
0.0
 11
2918.947846190207
 21
367.9516631025058
 31
0.0
  0
LINE
  5
512
  8
回02-寸法
  6
CONTINUOUS
 62
     5
 10
2917.947846190207
 20
365.9516631025058
 30
0.0
 11
2917.947846190207
 21
347.3803153435747
 31
0.0
  0
LINE
  5
513
  8
回02-寸法
  6
CONTINUOUS
 62
     5
 10
2917.947846190207
 20
380.9516631025072
 30
0.0
 11
2917.947846190207
 21
367.9516631025058
 31
0.0
  0
LINE
  5
514
  8
回02-寸法
  6
CONTINUOUS
 62
     5
 10
2917.947846190207
 20
382.9516631025072
 30
0.0
 11
2917.947846190207
 21
384.9516631025072
 31
0.0
  0
INSERT
  5
515
  8
回02-寸法
  6
CONTINUOUS
 62
     5
  2
_OPEN
 10
2917.947846190207
 20
380.9516631025072
 30
0.0
 41
2.0
 42
2.0
 43
2.0
 50
270.0
  0
INSERT
  5
516
  8
回02-寸法
  6
CONTINUOUS
 62
     5
  2
_OPEN
 10
2917.947846190207
 20
367.9516631025058
 30
0.0
 41
2.0
 42
2.0
 43
2.0
 50
90.0
  0
TEXT
  5
517
  8
回02-寸法
  6
CONTINUOUS
 62
     5
 10
2917.447846190207
 20
347.2803153435748
 30
0.0
 40
4.0
  1
2.1±0.2
 50
90.0
  0
POINT
  5
518
  8
DEFPOINTS
  6
CONTINUOUS
 62
     0
 10
2909.068120155213
 20
380.9516631025072
 30
0.0
  0
POINT
  5
519
  8
DEFPOINTS
  6
CONTINUOUS
 62
     0
 10
2909.568120155214
 20
367.9516631025058
 30
0.0
  0
POINT
  5
51A
  8
DEFPOINTS
  6
CONTINUOUS
 62
     0
 10
2917.947846190207
 20
367.9516631025058
 30
0.0
  0
ENDBLK
  5
51C
  8
回07-寸法
  6
CONTINUOUS
 62
     7
  0
BLOCK
  8
回07-寸法
  2
*D5252
 70
     1
 10
0.0
 20
0.0
 30
0.0
  3
*D5252
  1

  0
LINE
  5
51E
  8
回02-寸法
  6
CONTINUOUS
 62
     5
 10
2594.568076644447
 20
376.9516631025084
 30
0.0
 11
2586.361994378221
 21
376.9516631025084
 31
0.0
  0
LINE
  5
51F
  8
回02-寸法
  6
CONTINUOUS
 62
     5
 10
2594.568076644447
 20
369.9516631025085
 30
0.0
 11
2586.361994378221
 21
369.9516631025085
 31
0.0
  0
LINE
  5
520
  8
回02-寸法
  6
CONTINUOUS
 62
     5
 10
2587.361994378221
 20
367.9516631025085
 30
0.0
 11
2587.361994378221
 21
350.4305235974767
 31
0.0
  0
LINE
  5
521
  8
回02-寸法
  6
CONTINUOUS
 62
     5
 10
2587.361994378221
 20
376.9516631025084
 30
0.0
 11
2587.361994378221
 21
369.9516631025085
 31
0.0
  0
LINE
  5
522
  8
回02-寸法
  6
CONTINUOUS
 62
     5
 10
2587.361994378221
 20
378.9516631025084
 30
0.0
 11
2587.361994378221
 21
380.9516631025084
 31
0.0
  0
INSERT
  5
523
  8
回02-寸法
  6
CONTINUOUS
 62
     5
  2
_OPEN
 10
2587.361994378221
 20
376.9516631025084
 30
0.0
 41
2.0
 42
2.0
 43
2.0
 50
270.0
  0
INSERT
  5
524
  8
回02-寸法
  6
CONTINUOUS
 62
     5
  2
_OPEN
 10
2587.361994378221
 20
369.9516631025085
 30
0.0
 41
2.0
 42
2.0
 43
2.0
 50
90.0
  0
INSERT
  5
525
  8
回02-寸法
  6
CONTINUOUS
 62
     5
 66
     1
  2
*X102102
 10
0.0
 20
0.0
 30
0.0
  0
SEQEND
  5
752
  8
回07-寸法
  6
CONTINUOUS
 62
     7
  0
POINT
  5
526
  8
DEFPOINTS
  6
CONTINUOUS
 62
     0
 10
2594.568076644447
 20
376.9516631025084
 30
0.0
  0
POINT
  5
527
  8
DEFPOINTS
  6
CONTINUOUS
 62
     0
 10
2594.568076644447
 20
369.9516631025085
 30
0.0
  0
POINT
  5
528
  8
DEFPOINTS
  6
CONTINUOUS
 62
     0
 10
2587.361994378221
 20
369.9516631025085
 30
0.0
  0
ENDBLK
  5
52A
  8
回07-寸法
  6
CONTINUOUS
 62
     7
  0
BLOCK
  8
回07-寸法
  2
*D5353
 70
     1
 10
0.0
 20
0.0
 30
0.0
  3
*D5353
  1

  0
LINE
  5
52C
  8
回02-寸法
  6
CONTINUOUS
 62
     5
 10
2594.568076644447
 20
376.9516631025076
 30
0.0
 11
2594.568076644447
 21
385.2328469921299
 31
0.0
  0
LINE
  5
52D
  8
回02-寸法
  6
CONTINUOUS
 62
     5
 10
2599.568076644447
 20
376.9516631025076
 30
0.0
 11
2599.568076644447
 21
385.2328469921299
 31
0.0
  0
LINE
  5
52E
  8
回02-寸法
  6
CONTINUOUS
 62
     5
 10
2601.568076644448
 20
384.2328469921299
 30
0.0
 11
2609.050962867689
 21
384.2328469921299
 31
0.0
  0
LINE
  5
52F
  8
回02-寸法
  6
CONTINUOUS
 62
     5
 10
2594.568076644447
 20
384.2328469921299
 30
0.0
 11
2599.568076644447
 21
384.2328469921299
 31
0.0
  0
LINE
  5
530
  8
回02-寸法
  6
CONTINUOUS
 62
     5
 10
2592.568076644447
 20
384.2328469921299
 30
0.0
 11
2590.568076644446
 21
384.2328469921299
 31
0.0
  0
INSERT
  5
531
  8
回02-寸法
  6
CONTINUOUS
 62
     5
  2
_OPEN
 10
2594.568076644447
 20
384.2328469921299
 30
0.0
 41
2.0
 42
2.0
 43
2.0
  0
INSERT
  5
532
  8
回02-寸法
  6
CONTINUOUS
 62
     5
  2
_OPEN
 10
2599.568076644447
 20
384.2328469921299
 30
0.0
 41
2.0
 42
2.0
 43
2.0
 50
180.0
  0
TEXT
  5
533
  8
回02-寸法
  6
CONTINUOUS
 62
     5
 10
2606.350962867688
 20
384.7328469921299
 30
0.0
 40
4.0
  1
5
  0
POINT
  5
534
  8
DEFPOINTS
  6
CONTINUOUS
 62
     0
 10
2594.568076644447
 20
376.9516631025076
 30
0.0
  0
POINT
  5
535
  8
DEFPOINTS
  6
CONTINUOUS
 62
     0
 10
2599.568076644447
 20
376.9516631025076
 30
0.0
  0
POINT
  5
536
  8
DEFPOINTS
  6
CONTINUOUS
 62
     0
 10
2599.568076644447
 20
384.2328469921299
 30
0.0
  0
ENDBLK
  5
538
  8
回07-寸法
  6
CONTINUOUS
 62
     7
  0
BLOCK
  8
回07-寸法
  2
*D5454
 70
     1
 10
0.0
 20
0.0
 30
0.0
  3
*D5454
  1

  0
LINE
  5
53A
  8
回02-寸法
  6
CONTINUOUS
 62
     5
 10
2594.568076644447
 20
369.9516631025085
 30
0.0
 11
2594.568076644447
 21
359.9978569610617
 31
0.0
  0
LINE
  5
53B
  8
回02-寸法
  6
CONTINUOUS
 62
     5
 10
2604.568120155214
 20
369.9516631025076
 30
0.0
 11
2604.568120155214
 21
359.9978569610617
 31
0.0
  0
LINE
  5
53C
  8
回02-寸法
  6
CONTINUOUS
 62
     5
 10
2606.568120155214
 20
360.9978569610616
 30
0.0
 11
2616.364970548915
 21
360.9978569610616
 31
0.0
  0
LINE
  5
53D
  8
回02-寸法
  6
CONTINUOUS
 62
     5
 10
2594.568076644447
 20
360.9978569610616
 30
0.0
 11
2604.568120155214
 21
360.9978569610616
 31
0.0
  0
LINE
  5
53E
  8
回02-寸法
  6
CONTINUOUS
 62
     5
 10
2592.568076644447
 20
360.9978569610616
 30
0.0
 11
2590.568076644446
 21
360.9978569610616
 31
0.0
  0
INSERT
  5
53F
  8
回02-寸法
  6
CONTINUOUS
 62
     5
  2
_OPEN
 10
2594.568076644447
 20
360.9978569610616
 30
0.0
 41
2.0
 42
2.0
 43
2.0
  0
INSERT
  5
540
  8
回02-寸法
  6
CONTINUOUS
 62
     5
  2
_OPEN
 10
2604.568120155214
 20
360.9978569610616
 30
0.0
 41
2.0
 42
2.0
 43
2.0
 50
180.0
  0
TEXT
  5
541
  8
回02-寸法
  6
CONTINUOUS
 62
     5
 10
2608.466545352064
 20
361.7978569610617
 30
0.0
 40
4.0
  1
(10)
  0
POINT
  5
542
  8
DEFPOINTS
  6
CONTINUOUS
 62
     0
 10
2594.568076644447
 20
369.9516631025085
 30
0.0
  0
POINT
  5
543
  8
DEFPOINTS
  6
CONTINUOUS
 62
     0
 10
2604.568120155214
 20
369.9516631025076
 30
0.0
  0
POINT
  5
544
  8
DEFPOINTS
  6
CONTINUOUS
 62
     0
 10
2604.568120155214
 20
360.9978569610616
 30
0.0
  0
ENDBLK
  5
546
  8
回07-寸法
  6
CONTINUOUS
 62
     7
  0
BLOCK
  8
回07-寸法
  2
*D5555
 70
     1
 10
0.0
 20
0.0
 30
0.0
  3
*D5555
  1

  0
LINE
  5
548
  8
回02-寸法
  6
CONTINUOUS
 62
     5
 10
2679.768120155214
 20
558.4237419731039
 30
0.0
 11
2679.768120155214
 21
605.5262158912993
 31
0.0
  0
LINE
  5
549
  8
回02-寸法
  6
CONTINUOUS
 62
     5
 10
2674.568120155214
 20
564.2337419731055
 30
0.0
 11
2674.568120155214
 21
605.5262158912993
 31
0.0
  0
LINE
  5
54A
  8
回02-寸法
  6
CONTINUOUS
 62
     5
 10
2673.068120155214
 20
604.5262158912993
 30
0.0
 11
2624.559694958364
 21
604.5262158912993
 31
0.0
  0
LINE
  5
54B
  8
回02-寸法
  6
CONTINUOUS
 62
     5
 10
2679.768120155214
 20
604.5262158912993
 30
0.0
 11
2674.568120155214
 21
604.5262158912993
 31
0.0
  0
LINE
  5
54C
  8
回02-寸法
  6
CONTINUOUS
 62
     5
 10
2681.268120155214
 20
604.5262158912993
 30
0.0
 11
2682.768120155214
 21
604.5262158912993
 31
0.0
  0
INSERT
  5
54D
  8
回02-寸法
  6
CONTINUOUS
 62
     5
  2
_OPEN
 10
2679.768120155214
 20
604.5262158912993
 30
0.0
 41
1.5
 42
1.5
 43
1.5
 50
180.0
  0
INSERT
  5
54E
  8
回02-寸法
  6
CONTINUOUS
 62
     5
  2
_OPEN
 10
2674.568120155214
 20
604.5262158912993
 30
0.0
 41
1.5
 42
1.5
 43
1.5
  0
TEXT
  5
54F
  8
回02-寸法
  6
CONTINUOUS
 62
     5
 10
2624.459694958364
 20
605.2262158912992
 30
0.0
 40
4.0
  1
5.2(Insulation Area)
  0
POINT
  5
550
  8
DEFPOINTS
  6
CONTINUOUS
 62
     0
 10
2679.768120155214
 20
558.4237419731039
 30
0.0
  0
POINT
  5
551
  8
DEFPOINTS
  6
CONTINUOUS
 62
     0
 10
2674.568120155214
 20
564.2337419731055
 30
0.0
  0
POINT
  5
552
  8
DEFPOINTS
  6
CONTINUOUS
 62
     0
 10
2674.568120155214
 20
604.5262158912993
 30
0.0
  0
ENDBLK
  5
554
  8
回07-寸法
  6
CONTINUOUS
 62
     7
  0
BLOCK
  8
回07-寸法
  2
*D5656
 70
     1
 10
0.0
 20
0.0
 30
0.0
  3
*D5656
  1

  0
LINE
  5
556
  8
回02-寸法
  6
CONTINUOUS
 62
     5
 10
2907.788120155213
 20
558.4237419731039
 30
0.0
 11
2907.788120155213
 21
605.5262158912993
 31
0.0
  0
LINE
  5
557
  8
回02-寸法
  6
CONTINUOUS
 62
     5
 10
2909.568120155214
 20
564.2337419731047
 30
0.0
 11
2909.568120155214
 21
605.5262158912993
 31
0.0
  0
LINE
  5
558
  8
回02-寸法
  6
CONTINUOUS
 62
     5
 10
2911.068120155214
 20
604.5262158912993
 30
0.0
 11
2924.364970548915
 21
604.5262158912993
 31
0.0
  0
LINE
  5
559
  8
回02-寸法
  6
CONTINUOUS
 62
     5
 10
2907.788120155213
 20
604.5262158912993
 30
0.0
 11
2909.568120155214
 21
604.5262158912993
 31
0.0
  0
LINE
  5
55A
  8
回02-寸法
  6
CONTINUOUS
 62
     5
 10
2906.288120155213
 20
604.5262158912993
 30
0.0
 11
2904.788120155214
 21
604.5262158912993
 31
0.0
  0
INSERT
  5
55B
  8
回02-寸法
  6
CONTINUOUS
 62
     5
  2
_OPEN
 10
2907.788120155213
 20
604.5262158912993
 30
0.0
 41
1.5
 42
1.5
 43
1.5
  0
INSERT
  5
55C
  8
回02-寸法
  6
CONTINUOUS
 62
     5
  2
_OPEN
 10
2909.568120155214
 20
604.5262158912993
 30
0.0
 41
1.5
 42
1.5
 43
1.5
 50
180.0
  0
TEXT
  5
55D
  8
回02-寸法
  6
CONTINUOUS
 62
     5
 10
2912.466545352064
 20
605.2262158912992
 30
0.0
 40
4.0
  1
(1.78)
  0
POINT
  5
55E
  8
DEFPOINTS
  6
CONTINUOUS
 62
     0
 10
2907.788120155213
 20
558.4237419731039
 30
0.0
  0
POINT
  5
55F
  8
DEFPOINTS
  6
CONTINUOUS
 62
     0
 10
2909.568120155214
 20
564.2337419731047
 30
0.0
  0
POINT
  5
560
  8
DEFPOINTS
  6
CONTINUOUS
 62
     0
 10
2909.568120155214
 20
604.5262158912993
 30
0.0
  0
ENDBLK
  5
562
  8
回07-寸法
  6
CONTINUOUS
 62
     7
  0
BLOCK
  8
回07-寸法
  2
*D5757
 70
     1
 10
0.0
 20
0.0
 30
0.0
  3
*D5757
  1

  0
LINE
  5
564
  8
回02-寸法
  6
CONTINUOUS
 62
     5
 10
2907.488120155214
 20
557.6237419731037
 30
0.0
 11
2907.488120155214
 21
598.501029098667
 31
0.0
  0
LINE
  5
565
  8
回02-寸法
  6
CONTINUOUS
 62
     5
 10
2909.568120155214
 20
564.2337419731047
 30
0.0
 11
2909.568120155214
 21
598.501029098667
 31
0.0
  0
LINE
  5
566
  8
回02-寸法
  6
CONTINUOUS
 62
     5
 10
2911.068120155214
 20
597.501029098667
 30
0.0
 11
2925.164970548915
 21
597.501029098667
 31
0.0
  0
LINE
  5
567
  8
回02-寸法
  6
CONTINUOUS
 62
     5
 10
2907.488120155214
 20
597.501029098667
 30
0.0
 11
2909.568120155214
 21
597.501029098667
 31
0.0
  0
LINE
  5
568
  8
回02-寸法
  6
CONTINUOUS
 62
     5
 10
2905.988120155214
 20
597.501029098667
 30
0.0
 11
2904.488120155214
 21
597.501029098667
 31
0.0
  0
INSERT
  5
569
  8
回02-寸法
  6
CONTINUOUS
 62
     5
  2
_OPEN
 10
2907.488120155214
 20
597.501029098667
 30
0.0
 41
1.5
 42
1.5
 43
1.5
  0
INSERT
  5
56A
  8
回02-寸法
  6
CONTINUOUS
 62
     5
  2
_OPEN
 10
2909.568120155214
 20
597.501029098667
 30
0.0
 41
1.5
 42
1.5
 43
1.5
 50
180.0
  0
TEXT
  5
56B
  8
回02-寸法
  6
CONTINUOUS
 62
     5
 10
2912.466545352064
 20
598.2010290986671
 30
0.0
 40
4.0
  1
(2.08)
  0
POINT
  5
56C
  8
DEFPOINTS
  6
CONTINUOUS
 62
     0
 10
2907.488120155214
 20
557.6237419731037
 30
0.0
  0
POINT
  5
56D
  8
DEFPOINTS
  6
CONTINUOUS
 62
     0
 10
2909.568120155214
 20
564.2337419731047
 30
0.0
  0
POINT
  5
56E
  8
DEFPOINTS
  6
CONTINUOUS
 62
     0
 10
2909.568120155214
 20
597.501029098667
 30
0.0
  0
ENDBLK
  5
570
  8
回07-寸法
  6
CONTINUOUS
 62
     7
  0
BLOCK
  8
回07-寸法
  2
*D5858
 70
     1
 10
0.0
 20
0.0
 30
0.0
  3
*D5858
  1

  0
LINE
  5
572
  8
回02-寸法
  6
CONTINUOUS
 62
     5
 10
2905.488120155215
 20
555.6237419731037
 30
0.0
 11
2905.488120155215
 21
591.0544008419759
 31
0.0
  0
LINE
  5
573
  8
回02-寸法
  6
CONTINUOUS
 62
     5
 10
2909.568120155214
 20
564.2337419731047
 30
0.0
 11
2909.568120155214
 21
591.0544008419759
 31
0.0
  0
LINE
  5
574
  8
回02-寸法
  6
CONTINUOUS
 62
     5
 10
2911.068120155214
 20
590.054400841976
 30
0.0
 11
2925.564970548915
 21
590.054400841976
 31
0.0
  0
LINE
  5
575
  8
回02-寸法
  6
CONTINUOUS
 62
     5
 10
2905.488120155215
 20
590.054400841976
 30
0.0
 11
2909.568120155214
 21
590.054400841976
 31
0.0
  0
LINE
  5
576
  8
回02-寸法
  6
CONTINUOUS
 62
     5
 10
2903.988120155215
 20
590.054400841976
 30
0.0
 11
2902.488120155215
 21
590.054400841976
 31
0.0
  0
INSERT
  5
577
  8
回02-寸法
  6
CONTINUOUS
 62
     5
  2
_OPEN
 10
2905.488120155215
 20
590.054400841976
 30
0.0
 41
1.5
 42
1.5
 43
1.5
  0
INSERT
  5
578
  8
回02-寸法
  6
CONTINUOUS
 62
     5
  2
_OPEN
 10
2909.568120155214
 20
590.054400841976
 30
0.0
 41
1.5
 42
1.5
 43
1.5
 50
180.0
  0
TEXT
  5
579
  8
回02-寸法
  6
CONTINUOUS
 62
     5
 10
2912.466545352064
 20
590.7544008419761
 30
0.0
 40
4.0
  1
(4.08)
  0
POINT
  5
57A
  8
DEFPOINTS
  6
CONTINUOUS
 62
     0
 10
2905.488120155215
 20
555.6237419731037
 30
0.0
  0
POINT
  5
57B
  8
DEFPOINTS
  6
CONTINUOUS
 62
     0
 10
2909.568120155214
 20
564.2337419731047
 30
0.0
  0
POINT
  5
57C
  8
DEFPOINTS
  6
CONTINUOUS
 62
     0
 10
2909.568120155214
 20
590.054400841976
 30
0.0
  0
ENDBLK
  5
57E
  8
回07-寸法
  6
CONTINUOUS
 62
     7
  0
BLOCK
  8
回07-寸法
  2
*D5959
 70
     1
 10
0.0
 20
0.0
 30
0.0
  3
*D5959
  1

  0
LINE
  5
580
  8
回02-寸法
  6
CONTINUOUS
 62
     5
 10
2907.788120155213
 20
427.0437419731033
 30
0.0
 11
2943.881801809331
 21
427.0437419731033
 31
0.0
  0
LINE
  5
581
  8
回02-寸法
  6
CONTINUOUS
 62
     5
 10
2909.568120155214
 20
421.2337419731039
 30
0.0
 11
2943.881801809331
 21
421.2337419731039
 31
0.0
  0
LINE
  5
582
  8
回02-寸法
  6
CONTINUOUS
 62
     5
 10
2942.88180180933
 20
419.7337419731038
 30
0.0
 11
2942.88180180933
 21
369.2253167762538
 31
0.0
  0
LINE
  5
583
  8
回02-寸法
  6
CONTINUOUS
 62
     5
 10
2942.88180180933
 20
427.0437419731033
 30
0.0
 11
2942.88180180933
 21
421.2337419731039
 31
0.0
  0
LINE
  5
584
  8
回02-寸法
  6
CONTINUOUS
 62
     5
 10
2942.88180180933
 20
428.5437419731033
 30
0.0
 11
2942.88180180933
 21
430.0437419731033
 31
0.0
  0
INSERT
  5
585
  8
回02-寸法
  6
CONTINUOUS
 62
     5
  2
_OPEN
 10
2942.88180180933
 20
427.0437419731033
 30
0.0
 41
1.5
 42
1.5
 43
1.5
 50
270.0
  0
INSERT
  5
586
  8
回02-寸法
  6
CONTINUOUS
 62
     5
  2
_OPEN
 10
2942.88180180933
 20
421.2337419731039
 30
0.0
 41
1.5
 42
1.5
 43
1.5
 50
90.0
  0
TEXT
  5
587
  8
回02-寸法
  6
CONTINUOUS
 62
     5
 10
2942.181801809331
 20
369.1253167762539
 30
0.0
 40
4.0
  1
5.81(Insulation Area)
 50
90.0
  0
POINT
  5
588
  8
DEFPOINTS
  6
CONTINUOUS
 62
     0
 10
2907.788120155213
 20
427.0437419731033
 30
0.0
  0
POINT
  5
589
  8
DEFPOINTS
  6
CONTINUOUS
 62
     0
 10
2909.568120155214
 20
421.2337419731039
 30
0.0
  0
POINT
  5
58A
  8
DEFPOINTS
  6
CONTINUOUS
 62
     0
 10
2942.88180180933
 20
421.2337419731039
 30
0.0
  0
ENDBLK
  5
58C
  8
回07-寸法
  6
CONTINUOUS
 62
     7
  0
BLOCK
  8
回07-寸法
  2
*D6060
 70
     1
 10
0.0
 20
0.0
 30
0.0
  3
*D6060
  1

  0
LINE
  5
58E
  8
回02-寸法
  6
CONTINUOUS
 62
     5
 10
2905.488120155215
 20
555.6237419731037
 30
0.0
 11
2928.541511666775
 21
555.6237419731037
 31
0.0
  0
LINE
  5
58F
  8
回02-寸法
  6
CONTINUOUS
 62
     5
 10
2909.568120155214
 20
564.2337419731047
 30
0.0
 11
2928.541511666775
 21
564.2337419731047
 31
0.0
  0
LINE
  5
590
  8
回02-寸法
  6
CONTINUOUS
 62
     5
 10
2927.541511666774
 20
565.7337419731048
 30
0.0
 11
2927.541511666774
 21
580.030592366806
 31
0.0
  0
LINE
  5
591
  8
回02-寸法
  6
CONTINUOUS
 62
     5
 10
2927.541511666774
 20
555.6237419731037
 30
0.0
 11
2927.541511666774
 21
564.2337419731047
 31
0.0
  0
LINE
  5
592
  8
回02-寸法
  6
CONTINUOUS
 62
     5
 10
2927.541511666774
 20
554.1237419731037
 30
0.0
 11
2927.541511666774
 21
552.6237419731037
 31
0.0
  0
INSERT
  5
593
  8
回02-寸法
  6
CONTINUOUS
 62
     5
  2
_OPEN
 10
2927.541511666774
 20
555.6237419731037
 30
0.0
 41
1.5
 42
1.5
 43
1.5
 50
90.0
  0
INSERT
  5
594
  8
回02-寸法
  6
CONTINUOUS
 62
     5
  2
_OPEN
 10
2927.541511666774
 20
564.2337419731047
 30
0.0
 41
1.5
 42
1.5
 43
1.5
 50
270.0
  0
TEXT
  5
595
  8
回02-寸法
  6
CONTINUOUS
 62
     5
 10
2926.841511666775
 20
568.1321671699556
 30
0.0
 40
4.0
  1
(8.61)
 50
90.0
  0
POINT
  5
596
  8
DEFPOINTS
  6
CONTINUOUS
 62
     0
 10
2905.488120155215
 20
555.6237419731037
 30
0.0
  0
POINT
  5
597
  8
DEFPOINTS
  6
CONTINUOUS
 62
     0
 10
2909.568120155214
 20
564.2337419731047
 30
0.0
  0
POINT
  5
598
  8
DEFPOINTS
  6
CONTINUOUS
 62
     0
 10
2927.541511666774
 20
564.2337419731047
 30
0.0
  0
ENDBLK
  5
59A
  8
回07-寸法
  6
CONTINUOUS
 62
     7
  0
BLOCK
  8
回07-寸法
  2
*D6161
 70
     1
 10
0.0
 20
0.0
 30
0.0
  3
*D6161
  1

  0
LINE
  5
59C
  8
回02-寸法
  6
CONTINUOUS
 62
     5
 10
2907.488120155214
 20
557.6237419731037
 30
0.0
 11
2936.892738126893
 21
557.6237419731037
 31
0.0
  0
LINE
  5
59D
  8
回02-寸法
  6
CONTINUOUS
 62
     5
 10
2909.568120155214
 20
564.2337419731047
 30
0.0
 11
2936.892738126893
 21
564.2337419731047
 31
0.0
  0
LINE
  5
59E
  8
回02-寸法
  6
CONTINUOUS
 62
     5
 10
2935.892738126893
 20
565.7337419731048
 30
0.0
 11
2935.892738126893
 21
579.0305923668056
 31
0.0
  0
LINE
  5
59F
  8
回02-寸法
  6
CONTINUOUS
 62
     5
 10
2935.892738126893
 20
557.6237419731037
 30
0.0
 11
2935.892738126893
 21
564.2337419731047
 31
0.0
  0
LINE
  5
5A0
  8
回02-寸法
  6
CONTINUOUS
 62
     5
 10
2935.892738126893
 20
556.1237419731037
 30
0.0
 11
2935.892738126893
 21
554.6237419731037
 31
0.0
  0
INSERT
  5
5A1
  8
回02-寸法
  6
CONTINUOUS
 62
     5
  2
_OPEN
 10
2935.892738126893
 20
557.6237419731037
 30
0.0
 41
1.5
 42
1.5
 43
1.5
 50
90.0
  0
INSERT
  5
5A2
  8
回02-寸法
  6
CONTINUOUS
 62
     5
  2
_OPEN
 10
2935.892738126893
 20
564.2337419731047
 30
0.0
 41
1.5
 42
1.5
 43
1.5
 50
270.0
  0
TEXT
  5
5A3
  8
回02-寸法
  6
CONTINUOUS
 62
     5
 10
2935.192738126893
 20
567.132167169955
 30
0.0
 40
4.0
  1
(6.61)
 50
90.0
  0
POINT
  5
5A4
  8
DEFPOINTS
  6
CONTINUOUS
 62
     0
 10
2907.488120155214
 20
557.6237419731037
 30
0.0
  0
POINT
  5
5A5
  8
DEFPOINTS
  6
CONTINUOUS
 62
     0
 10
2909.568120155214
 20
564.2337419731047
 30
0.0
  0
POINT
  5
5A6
  8
DEFPOINTS
  6
CONTINUOUS
 62
     0
 10
2935.892738126893
 20
564.2337419731047
 30
0.0
  0
ENDBLK
  5
5A8
  8
回07-寸法
  6
CONTINUOUS
 62
     7
  0
BLOCK
  8
回07-寸法
  2
*D6262
 70
     1
 10
0.0
 20
0.0
 30
0.0
  3
*D6262
  1

  0
LINE
  5
5AA
  8
回02-寸法
  6
CONTINUOUS
 62
     5
 10
2907.788120155213
 20
558.4237419731039
 30
0.0
 11
2943.88180180933
 21
558.4237419731039
 31
0.0
  0
LINE
  5
5AB
  8
回02-寸法
  6
CONTINUOUS
 62
     5
 10
2909.568120155214
 20
564.2337419731047
 30
0.0
 11
2943.88180180933
 21
564.2337419731047
 31
0.0
  0
LINE
  5
5AC
  8
回02-寸法
  6
CONTINUOUS
 62
     5
 10
2942.88180180933
 20
565.7337419731048
 30
0.0
 11
2942.88180180933
 21
579.0305923668056
 31
0.0
  0
LINE
  5
5AD
  8
回02-寸法
  6
CONTINUOUS
 62
     5
 10
2942.88180180933
 20
558.4237419731039
 30
0.0
 11
2942.88180180933
 21
564.2337419731047
 31
0.0
  0
LINE
  5
5AE
  8
回02-寸法
  6
CONTINUOUS
 62
     5
 10
2942.88180180933
 20
556.9237419731039
 30
0.0
 11
2942.88180180933
 21
555.4237419731038
 31
0.0
  0
INSERT
  5
5AF
  8
回02-寸法
  6
CONTINUOUS
 62
     5
  2
_OPEN
 10
2942.88180180933
 20
558.4237419731039
 30
0.0
 41
1.5
 42
1.5
 43
1.5
 50
90.0
  0
INSERT
  5
5B0
  8
回02-寸法
  6
CONTINUOUS
 62
     5
  2
_OPEN
 10
2942.88180180933
 20
564.2337419731047
 30
0.0
 41
1.5
 42
1.5
 43
1.5
 50
270.0
  0
TEXT
  5
5B1
  8
回02-寸法
  6
CONTINUOUS
 62
     5
 10
2942.18180180933
 20
567.132167169955
 30
0.0
 40
4.0
  1
(5.81)
 50
90.0
  0
POINT
  5
5B2
  8
DEFPOINTS
  6
CONTINUOUS
 62
     0
 10
2907.788120155213
 20
558.4237419731039
 30
0.0
  0
POINT
  5
5B3
  8
DEFPOINTS
  6
CONTINUOUS
 62
     0
 10
2909.568120155214
 20
564.2337419731047
 30
0.0
  0
POINT
  5
5B4
  8
DEFPOINTS
  6
CONTINUOUS
 62
     0
 10
2942.88180180933
 20
564.2337419731047
 30
0.0
  0
ENDBLK
  5
5B6
  8
回07-寸法
  6
CONTINUOUS
 62
     7
  0
BLOCK
  8
回07-寸法
  2
*D6363
 70
     1
 10
0.0
 20
0.0
 30
0.0
  3
*D6363
  1

  0
LINE
  5
5B8
  8
回02-寸法
  6
CONTINUOUS
 62
     5
 10
2907.788120155213
 20
558.4237419731039
 30
0.0
 11
2943.881801809331
 21
558.4237419731039
 31
0.0
  0
LINE
  5
5B9
  8
回02-寸法
  6
CONTINUOUS
 62
     5
 10
2907.788120155213
 20
427.0437419731033
 30
0.0
 11
2943.881801809331
 21
427.0437419731033
 31
0.0
  0
LINE
  5
5BA
  8
回02-寸法
  6
CONTINUOUS
 62
     5
 10
2942.88180180933
 20
556.9237419731039
 30
0.0
 11
2942.88180180933
 21
428.5437419731033
 31
0.0
  0
INSERT
  5
5BB
  8
回02-寸法
  6
CONTINUOUS
 62
     5
  2
_OPEN
 10
2942.88180180933
 20
558.4237419731039
 30
0.0
 41
1.5
 42
1.5
 43
1.5
 50
90.0
  0
INSERT
  5
5BC
  8
回02-寸法
  6
CONTINUOUS
 62
     5
  2
_OPEN
 10
2942.88180180933
 20
427.0437419731033
 30
0.0
 41
1.5
 42
1.5
 43
1.5
 50
270.0
  0
TEXT
  5
5BD
  8
回02-寸法
  6
CONTINUOUS
 62
     5
 10
2942.38180180933
 20
485.9337419731036
 30
0.0
 40
4.0
  1
131.38
 50
90.0
  0
POINT
  5
5BE
  8
DEFPOINTS
  6
CONTINUOUS
 62
     0
 10
2907.788120155213
 20
558.4237419731039
 30
0.0
  0
POINT
  5
5BF
  8
DEFPOINTS
  6
CONTINUOUS
 62
     0
 10
2907.788120155213
 20
427.0437419731033
 30
0.0
  0
POINT
  5
5C0
  8
DEFPOINTS
  6
CONTINUOUS
 62
     0
 10
2942.88180180933
 20
427.0437419731033
 30
0.0
  0
ENDBLK
  5
5C2
  8
回07-寸法
  6
CONTINUOUS
 62
     7
  0
BLOCK
  8
回07-寸法
  2
*D6464
 70
     1
 10
0.0
 20
0.0
 30
0.0
  3
*D6464
  1

  0
LINE
  5
5C4
  8
回02-寸法
  6
CONTINUOUS
 62
     5
 10
2907.788120155213
 20
558.4237419731039
 30
0.0
 11
2907.788120155213
 21
605.5262158912993
 31
0.0
  0
LINE
  5
5C5
  8
回02-寸法
  6
CONTINUOUS
 62
     5
 10
2679.768120155214
 20
558.4237419731039
 30
0.0
 11
2679.768120155214
 21
605.5262158912993
 31
0.0
  0
LINE
  5
5C6
  8
回02-寸法
  6
CONTINUOUS
 62
     5
 10
2906.288120155213
 20
604.5262158912993
 30
0.0
 11
2681.268120155214
 21
604.5262158912993
 31
0.0
  0
INSERT
  5
5C7
  8
回02-寸法
  6
CONTINUOUS
 62
     5
  2
_OPEN
 10
2907.788120155213
 20
604.5262158912993
 30
0.0
 41
1.5
 42
1.5
 43
1.5
  0
INSERT
  5
5C8
  8
回02-寸法
  6
CONTINUOUS
 62
     5
  2
_OPEN
 10
2679.768120155214
 20
604.5262158912993
 30
0.0
 41
1.5
 42
1.5
 43
1.5
 50
180.0
  0
TEXT
  5
5C9
  8
回02-寸法
  6
CONTINUOUS
 62
     5
 10
2786.177677908094
 20
605.0262158912993
 30
0.0
 40
4.0
  1
228.02
  0
POINT
  5
5CA
  8
DEFPOINTS
  6
CONTINUOUS
 62
     0
 10
2907.788120155213
 20
558.4237419731039
 30
0.0
  0
POINT
  5
5CB
  8
DEFPOINTS
  6
CONTINUOUS
 62
     0
 10
2679.768120155214
 20
558.4237419731039
 30
0.0
  0
POINT
  5
5CC
  8
DEFPOINTS
  6
CONTINUOUS
 62
     0
 10
2679.768120155214
 20
604.5262158912993
 30
0.0
  0
ENDBLK
  5
5CE
  8
回07-寸法
  6
CONTINUOUS
 62
     7
  0
BLOCK
  8
回07-寸法
  2
*D6565
 70
     1
 10
0.0
 20
0.0
 30
0.0
  3
*D6565
  1

  0
LINE
  5
5D0
  8
回02-寸法
  6
CONTINUOUS
 62
     5
 10
2907.488120155214
 20
427.8437419731035
 30
0.0
 11
2936.892738126893
 21
427.8437419731035
 31
0.0
  0
LINE
  5
5D1
  8
回02-寸法
  6
CONTINUOUS
 62
     5
 10
2909.568120155214
 20
421.2337419731039
 30
0.0
 11
2936.892738126893
 21
421.2337419731039
 31
0.0
  0
LINE
  5
5D2
  8
回02-寸法
  6
CONTINUOUS
 62
     5
 10
2935.892738126893
 20
419.7337419731038
 30
0.0
 11
2935.892738126893
 21
409.6337419731034
 31
0.0
  0
LINE
  5
5D3
  8
回02-寸法
  6
CONTINUOUS
 62
     5
 10
2935.892738126893
 20
427.8437419731035
 30
0.0
 11
2935.892738126893
 21
421.2337419731039
 31
0.0
  0
LINE
  5
5D4
  8
回02-寸法
  6
CONTINUOUS
 62
     5
 10
2935.892738126893
 20
429.3437419731034
 30
0.0
 11
2935.892738126893
 21
430.8437419731034
 31
0.0
  0
INSERT
  5
5D5
  8
回02-寸法
  6
CONTINUOUS
 62
     5
  2
_OPEN
 10
2935.892738126893
 20
427.8437419731035
 30
0.0
 41
1.5
 42
1.5
 43
1.5
 50
270.0
  0
INSERT
  5
5D6
  8
回02-寸法
  6
CONTINUOUS
 62
     5
  2
_OPEN
 10
2935.892738126893
 20
421.2337419731039
 30
0.0
 41
1.5
 42
1.5
 43
1.5
 50
90.0
  0
TEXT
  5
5D7
  8
回02-寸法
  6
CONTINUOUS
 62
     5
 10
2935.392738126893
 20
409.5337419731036
 30
0.0
 40
4.0
  1
6.61
 50
90.0
  0
POINT
  5
5D8
  8
DEFPOINTS
  6
CONTINUOUS
 62
     0
 10
2907.488120155214
 20
427.8437419731035
 30
0.0
  0
POINT
  5
5D9
  8
DEFPOINTS
  6
CONTINUOUS
 62
     0
 10
2909.568120155214
 20
421.2337419731039
 30
0.0
  0
POINT
  5
5DA
  8
DEFPOINTS
  6
CONTINUOUS
 62
     0
 10
2935.892738126893
 20
421.2337419731039
 30
0.0
  0
ENDBLK
  5
5DC
  8
回07-寸法
  6
CONTINUOUS
 62
     7
  0
BLOCK
  8
回07-寸法
  2
*D6666
 70
     1
 10
0.0
 20
0.0
 30
0.0
  3
*D6666
  1

  0
LINE
  5
5DE
  8
回02-寸法
  6
CONTINUOUS
 62
     5
 10
2905.488120155215
 20
429.8437419731034
 30
0.0
 11
2928.541511666775
 21
429.8437419731034
 31
0.0
  0
LINE
  5
5DF
  8
回02-寸法
  6
CONTINUOUS
 62
     5
 10
2909.568120155214
 20
421.2337419731039
 30
0.0
 11
2928.541511666775
 21
421.2337419731039
 31
0.0
  0
LINE
  5
5E0
  8
回02-寸法
  6
CONTINUOUS
 62
     5
 10
2927.541511666774
 20
419.7337419731038
 30
0.0
 11
2927.541511666774
 21
408.2140174869191
 31
0.0
  0
LINE
  5
5E1
  8
回02-寸法
  6
CONTINUOUS
 62
     5
 10
2927.541511666774
 20
429.8437419731034
 30
0.0
 11
2927.541511666774
 21
421.2337419731039
 31
0.0
  0
LINE
  5
5E2
  8
回02-寸法
  6
CONTINUOUS
 62
     5
 10
2927.541511666774
 20
431.3437419731035
 30
0.0
 11
2927.541511666774
 21
432.8437419731034
 31
0.0
  0
INSERT
  5
5E3
  8
回02-寸法
  6
CONTINUOUS
 62
     5
  2
_OPEN
 10
2927.541511666774
 20
429.8437419731034
 30
0.0
 41
1.5
 42
1.5
 43
1.5
 50
270.0
  0
INSERT
  5
5E4
  8
回02-寸法
  6
CONTINUOUS
 62
     5
  2
_OPEN
 10
2927.541511666774
 20
421.2337419731039
 30
0.0
 41
1.5
 42
1.5
 43
1.5
 50
90.0
  0
TEXT
  5
5E5
  8
回02-寸法
  6
CONTINUOUS
 62
     5
 10
2927.041511666775
 20
408.1140174869191
 30
0.0
 40
4.0
  1
8.61
 50
90.0
  0
POINT
  5
5E6
  8
DEFPOINTS
  6
CONTINUOUS
 62
     0
 10
2905.488120155215
 20
429.8437419731034
 30
0.0
  0
POINT
  5
5E7
  8
DEFPOINTS
  6
CONTINUOUS
 62
     0
 10
2909.568120155214
 20
421.2337419731039
 30
0.0
  0
POINT
  5
5E8
  8
DEFPOINTS
  6
CONTINUOUS
 62
     0
 10
2927.541511666774
 20
421.2337419731039
 30
0.0
  0
ENDBLK
  5
5EA
  8
回07-寸法
  6
CONTINUOUS
 62
     7
  0
BLOCK
  8
回07-寸法
  2
*D6767
 70
     1
 10
0.0
 20
0.0
 30
0.0
  3
*D6767
  1

  0
LINE
  5
5EC
  8
回02-寸法
  6
CONTINUOUS
 62
     5
 10
2680.268120155214
 20
557.6237419731037
 30
0.0
 11
2680.268120155214
 21
598.501029098667
 31
0.0
  0
LINE
  5
5ED
  8
回02-寸法
  6
CONTINUOUS
 62
     5
 10
2674.568120155214
 20
564.2337419731055
 30
0.0
 11
2674.568120155214
 21
598.501029098667
 31
0.0
  0
LINE
  5
5EE
  8
回02-寸法
  6
CONTINUOUS
 62
     5
 10
2673.068120155214
 20
597.501029098667
 30
0.0
 11
2663.468907556789
 21
597.501029098667
 31
0.0
  0
LINE
  5
5EF
  8
回02-寸法
  6
CONTINUOUS
 62
     5
 10
2680.268120155214
 20
597.501029098667
 30
0.0
 11
2674.568120155214
 21
597.501029098667
 31
0.0
  0
LINE
  5
5F0
  8
回02-寸法
  6
CONTINUOUS
 62
     5
 10
2681.768120155214
 20
597.501029098667
 30
0.0
 11
2683.268120155214
 21
597.501029098667
 31
0.0
  0
INSERT
  5
5F1
  8
回02-寸法
  6
CONTINUOUS
 62
     5
  2
_OPEN
 10
2680.268120155214
 20
597.501029098667
 30
0.0
 41
1.5
 42
1.5
 43
1.5
 50
180.0
  0
INSERT
  5
5F2
  8
回02-寸法
  6
CONTINUOUS
 62
     5
  2
_OPEN
 10
2674.568120155214
 20
597.501029098667
 30
0.0
 41
1.5
 42
1.5
 43
1.5
  0
TEXT
  5
5F3
  8
回02-寸法
  6
CONTINUOUS
 62
     5
 10
2663.368907556789
 20
598.001029098667
 30
0.0
 40
4.0
  1
5.7
  0
POINT
  5
5F4
  8
DEFPOINTS
  6
CONTINUOUS
 62
     0
 10
2680.268120155214
 20
557.6237419731037
 30
0.0
  0
POINT
  5
5F5
  8
DEFPOINTS
  6
CONTINUOUS
 62
     0
 10
2674.568120155214
 20
564.2337419731055
 30
0.0
  0
POINT
  5
5F6
  8
DEFPOINTS
  6
CONTINUOUS
 62
     0
 10
2674.568120155214
 20
597.501029098667
 30
0.0
  0
ENDBLK
  5
5F8
  8
回07-寸法
  6
CONTINUOUS
 62
     7
  0
BLOCK
  8
回07-寸法
  2
*D6868
 70
     1
 10
0.0
 20
0.0
 30
0.0
  3
*D6868
  1

  0
LINE
  5
5FA
  8
回02-寸法
  6
CONTINUOUS
 62
     5
 10
2682.268120155214
 20
555.6237419731037
 30
0.0
 11
2682.268120155214
 21
591.0544008419759
 31
0.0
  0
LINE
  5
5FB
  8
回02-寸法
  6
CONTINUOUS
 62
     5
 10
2674.568120155214
 20
564.2337419731055
 30
0.0
 11
2674.568120155214
 21
591.0544008419759
 31
0.0
  0
LINE
  5
5FC
  8
回02-寸法
  6
CONTINUOUS
 62
     5
 10
2673.068120155214
 20
590.054400841976
 30
0.0
 11
2662.468907556789
 21
590.054400841976
 31
0.0
  0
LINE
  5
5FD
  8
回02-寸法
  6
CONTINUOUS
 62
     5
 10
2682.268120155214
 20
590.054400841976
 30
0.0
 11
2674.568120155214
 21
590.054400841976
 31
0.0
  0
LINE
  5
5FE
  8
回02-寸法
  6
CONTINUOUS
 62
     5
 10
2683.768120155214
 20
590.054400841976
 30
0.0
 11
2685.268120155214
 21
590.054400841976
 31
0.0
  0
INSERT
  5
5FF
  8
回02-寸法
  6
CONTINUOUS
 62
     5
  2
_OPEN
 10
2682.268120155214
 20
590.054400841976
 30
0.0
 41
1.5
 42
1.5
 43
1.5
 50
180.0
  0
INSERT
  5
600
  8
回02-寸法
  6
CONTINUOUS
 62
     5
  2
_OPEN
 10
2674.568120155214
 20
590.054400841976
 30
0.0
 41
1.5
 42
1.5
 43
1.5
  0
TEXT
  5
601
  8
回02-寸法
  6
CONTINUOUS
 62
     5
 10
2662.36890755679
 20
590.5544008419759
 30
0.0
 40
4.0
  1
7.7
  0
POINT
  5
602
  8
DEFPOINTS
  6
CONTINUOUS
 62
     0
 10
2682.268120155214
 20
555.6237419731037
 30
0.0
  0
POINT
  5
603
  8
DEFPOINTS
  6
CONTINUOUS
 62
     0
 10
2674.568120155214
 20
564.2337419731055
 30
0.0
  0
POINT
  5
604
  8
DEFPOINTS
  6
CONTINUOUS
 62
     0
 10
2674.568120155214
 20
590.054400841976
 30
0.0
  0
ENDBLK
  5
606
  8
回07-寸法
  6
CONTINUOUS
 62
     7
  0
BLOCK
  8
回07-寸法
  2
*D6969
 70
     1
 10
0.0
 20
0.0
 30
0.0
  3
*D6969
  1

  0
LINE
  5
608
  8
回02-寸法
  6
CONTINUOUS
 62
     5
 10
2909.568120155214
 20
421.2337419731039
 30
0.0
 11
2951.005830357228
 21
421.2337419731039
 31
0.0
  0
LINE
  5
609
  8
回02-寸法
  6
CONTINUOUS
 62
     5
 10
2909.568120155214
 20
564.2337419731047
 30
0.0
 11
2951.005830357228
 21
564.2337419731047
 31
0.0
  0
LINE
  5
60A
  8
回02-寸法
  6
CONTINUOUS
 62
     5
 10
2950.005830357228
 20
422.7337419731037
 30
0.0
 11
2950.005830357228
 21
562.7337419731047
 31
0.0
  0
INSERT
  5
60B
  8
回02-寸法
  6
CONTINUOUS
 62
     5
  2
_OPEN
 10
2950.005830357228
 20
421.2337419731039
 30
0.0
 41
1.5
 42
1.5
 43
1.5
 50
270.0
  0
INSERT
  5
60C
  8
回02-寸法
  6
CONTINUOUS
 62
     5
  2
_OPEN
 10
2950.005830357228
 20
564.2337419731047
 30
0.0
 41
1.5
 42
1.5
 43
1.5
 50
90.0
  0
INSERT
  5
60D
  8
回02-寸法
  6
CONTINUOUS
 62
     5
 66
     1
  2
*X103103
 10
0.0
 20
0.0
 30
0.0
  0
SEQEND
  5
758
  8
回07-寸法
  6
CONTINUOUS
 62
     7
  0
POINT
  5
60E
  8
DEFPOINTS
  6
CONTINUOUS
 62
     0
 10
2909.568120155214
 20
421.2337419731039
 30
0.0
  0
POINT
  5
60F
  8
DEFPOINTS
  6
CONTINUOUS
 62
     0
 10
2909.568120155214
 20
564.2337419731047
 30
0.0
  0
POINT
  5
610
  8
DEFPOINTS
  6
CONTINUOUS
 62
     0
 10
2950.005830357228
 20
564.2337419731047
 30
0.0
  0
ENDBLK
  5
612
  8
回07-寸法
  6
CONTINUOUS
 62
     7
  0
BLOCK
  8
回07-寸法
  2
*D7070
 70
     1
 10
0.0
 20
0.0
 30
0.0
  3
*D7070
  1

  0
LINE
  5
614
  8
回02-寸法
  6
CONTINUOUS
 62
     5
 10
2907.488120155214
 20
557.6237419731037
 30
0.0
 11
2936.892738126894
 21
557.6237419731037
 31
0.0
  0
LINE
  5
615
  8
回02-寸法
  6
CONTINUOUS
 62
     5
 10
2907.488120155214
 20
427.8437419731035
 30
0.0
 11
2936.892738126894
 21
427.8437419731035
 31
0.0
  0
LINE
  5
616
  8
回02-寸法
  6
CONTINUOUS
 62
     5
 10
2935.892738126894
 20
556.1237419731037
 30
0.0
 11
2935.892738126894
 21
429.3437419731034
 31
0.0
  0
INSERT
  5
617
  8
回02-寸法
  6
CONTINUOUS
 62
     5
  2
_OPEN
 10
2935.892738126894
 20
557.6237419731037
 30
0.0
 41
1.5
 42
1.5
 43
1.5
 50
90.0
  0
INSERT
  5
618
  8
回02-寸法
  6
CONTINUOUS
 62
     5
  2
_OPEN
 10
2935.892738126894
 20
427.8437419731035
 30
0.0
 41
1.5
 42
1.5
 43
1.5
 50
270.0
  0
INSERT
  5
619
  8
回02-寸法
  6
CONTINUOUS
 62
     5
 66
     1
  2
*X104104
 10
0.0
 20
0.0
 30
0.0
  0
SEQEND
  5
75E
  8
回07-寸法
  6
CONTINUOUS
 62
     7
  0
POINT
  5
61A
  8
DEFPOINTS
  6
CONTINUOUS
 62
     0
 10
2907.488120155214
 20
557.6237419731037
 30
0.0
  0
POINT
  5
61B
  8
DEFPOINTS
  6
CONTINUOUS
 62
     0
 10
2907.488120155214
 20
427.8437419731035
 30
0.0
  0
POINT
  5
61C
  8
DEFPOINTS
  6
CONTINUOUS
 62
     0
 10
2935.892738126894
 20
427.8437419731035
 30
0.0
  0
ENDBLK
  5
61E
  8
回07-寸法
  6
CONTINUOUS
 62
     7
  0
BLOCK
  8
回07-寸法
  2
*D7171
 70
     1
 10
0.0
 20
0.0
 30
0.0
  3
*D7171
  1

  0
LINE
  5
620
  8
回02-寸法
  6
CONTINUOUS
 62
     5
 10
2905.488120155215
 20
429.8437419731034
 30
0.0
 11
2928.541511666777
 21
429.8437419731034
 31
0.0
  0
LINE
  5
621
  8
回02-寸法
  6
CONTINUOUS
 62
     5
 10
2905.488120155215
 20
555.6237419731037
 30
0.0
 11
2928.541511666777
 21
555.6237419731037
 31
0.0
  0
LINE
  5
622
  8
回02-寸法
  6
CONTINUOUS
 62
     5
 10
2927.541511666777
 20
431.3437419731035
 30
0.0
 11
2927.541511666777
 21
554.1237419731037
 31
0.0
  0
INSERT
  5
623
  8
回02-寸法
  6
CONTINUOUS
 62
     5
  2
_OPEN
 10
2927.541511666777
 20
429.8437419731034
 30
0.0
 41
1.5
 42
1.5
 43
1.5
 50
270.0
  0
INSERT
  5
624
  8
回02-寸法
  6
CONTINUOUS
 62
     5
  2
_OPEN
 10
2927.541511666777
 20
555.6237419731037
 30
0.0
 41
1.5
 42
1.5
 43
1.5
 50
90.0
  0
INSERT
  5
625
  8
回02-寸法
  6
CONTINUOUS
 62
     5
 66
     1
  2
*X105105
 10
0.0
 20
0.0
 30
0.0
  0
SEQEND
  5
764
  8
回07-寸法
  6
CONTINUOUS
 62
     7
  0
POINT
  5
626
  8
DEFPOINTS
  6
CONTINUOUS
 62
     0
 10
2905.488120155215
 20
429.8437419731034
 30
0.0
  0
POINT
  5
627
  8
DEFPOINTS
  6
CONTINUOUS
 62
     0
 10
2905.488120155215
 20
555.6237419731037
 30
0.0
  0
POINT
  5
628
  8
DEFPOINTS
  6
CONTINUOUS
 62
     0
 10
2927.541511666777
 20
555.6237419731037
 30
0.0
  0
ENDBLK
  5
62A
  8
回07-寸法
  6
CONTINUOUS
 62
     7
  0
BLOCK
  8
回07-寸法
  2
*D7272
 70
     1
 10
0.0
 20
0.0
 30
0.0
  3
*D7272
  1

  0
LINE
  5
62C
  8
回02-寸法
  6
CONTINUOUS
 62
     5
 10
2674.568120155214
 20
564.2337419731055
 30
0.0
 11
2674.568120155214
 21
611.6822274106469
 31
0.0
  0
LINE
  5
62D
  8
回02-寸法
  6
CONTINUOUS
 62
     5
 10
2909.568120155214
 20
564.2337419731047
 30
0.0
 11
2909.568120155214
 21
611.6822274106469
 31
0.0
  0
LINE
  5
62E
  8
回02-寸法
  6
CONTINUOUS
 62
     5
 10
2676.068120155215
 20
610.6822274106471
 30
0.0
 11
2908.068120155214
 21
610.6822274106471
 31
0.0
  0
INSERT
  5
62F
  8
回02-寸法
  6
CONTINUOUS
 62
     5
  2
_OPEN
 10
2674.568120155214
 20
610.6822274106471
 30
0.0
 41
1.5
 42
1.5
 43
1.5
 50
180.0
  0
INSERT
  5
630
  8
回02-寸法
  6
CONTINUOUS
 62
     5
  2
_OPEN
 10
2909.568120155214
 20
610.6822274106471
 30
0.0
 41
1.5
 42
1.5
 43
1.5
  0
INSERT
  5
631
  8
回02-寸法
  6
CONTINUOUS
 62
     5
 66
     1
  2
*X106106
 10
0.0
 20
0.0
 30
0.0
  0
SEQEND
  5
76A
  8
回07-寸法
  6
CONTINUOUS
 62
     7
  0
POINT
  5
632
  8
DEFPOINTS
  6
CONTINUOUS
 62
     0
 10
2674.568120155214
 20
564.2337419731055
 30
0.0
  0
POINT
  5
633
  8
DEFPOINTS
  6
CONTINUOUS
 62
     0
 10
2909.568120155214
 20
564.2337419731047
 30
0.0
  0
POINT
  5
634
  8
DEFPOINTS
  6
CONTINUOUS
 62
     0
 10
2909.568120155214
 20
610.6822274106471
 30
0.0
  0
ENDBLK
  5
636
  8
回07-寸法
  6
CONTINUOUS
 62
     7
  0
BLOCK
  8
回07-寸法
  2
*D7373
 70
     1
 10
0.0
 20
0.0
 30
0.0
  3
*D7373
  1

  0
LINE
  5
638
  8
回02-寸法
  6
CONTINUOUS
 62
     5
 10
2680.268120155214
 20
557.6237419731037
 30
0.0
 11
2680.268120155214
 21
598.501029098667
 31
0.0
  0
LINE
  5
639
  8
回02-寸法
  6
CONTINUOUS
 62
     5
 10
2907.488120155214
 20
557.6237419731037
 30
0.0
 11
2907.488120155214
 21
598.501029098667
 31
0.0
  0
LINE
  5
63A
  8
回02-寸法
  6
CONTINUOUS
 62
     5
 10
2681.768120155214
 20
597.501029098667
 30
0.0
 11
2905.988120155214
 21
597.501029098667
 31
0.0
  0
INSERT
  5
63B
  8
回02-寸法
  6
CONTINUOUS
 62
     5
  2
_OPEN
 10
2680.268120155214
 20
597.501029098667
 30
0.0
 41
1.5
 42
1.5
 43
1.5
 50
180.0
  0
INSERT
  5
63C
  8
回02-寸法
  6
CONTINUOUS
 62
     5
  2
_OPEN
 10
2907.488120155214
 20
597.501029098667
 30
0.0
 41
1.5
 42
1.5
 43
1.5
  0
INSERT
  5
63D
  8
回02-寸法
  6
CONTINUOUS
 62
     5
 66
     1
  2
*X107107
 10
0.0
 20
0.0
 30
0.0
  0
SEQEND
  5
770
  8
回07-寸法
  6
CONTINUOUS
 62
     7
  0
POINT
  5
63E
  8
DEFPOINTS
  6
CONTINUOUS
 62
     0
 10
2680.268120155214
 20
557.6237419731037
 30
0.0
  0
POINT
  5
63F
  8
DEFPOINTS
  6
CONTINUOUS
 62
     0
 10
2907.488120155214
 20
557.6237419731037
 30
0.0
  0
POINT
  5
640
  8
DEFPOINTS
  6
CONTINUOUS
 62
     0
 10
2907.488120155214
 20
597.501029098667
 30
0.0
  0
ENDBLK
  5
642
  8
回07-寸法
  6
CONTINUOUS
 62
     7
  0
BLOCK
  8
回07-寸法
  2
*D7474
 70
     1
 10
0.0
 20
0.0
 30
0.0
  3
*D7474
  1

  0
LINE
  5
644
  8
回02-寸法
  6
CONTINUOUS
 62
     5
 10
2682.268120155214
 20
555.6237419731037
 30
0.0
 11
2682.268120155214
 21
591.0544008419759
 31
0.0
  0
LINE
  5
645
  8
回02-寸法
  6
CONTINUOUS
 62
     5
 10
2905.488120155215
 20
555.6237419731037
 30
0.0
 11
2905.488120155215
 21
591.0544008419759
 31
0.0
  0
LINE
  5
646
  8
回02-寸法
  6
CONTINUOUS
 62
     5
 10
2683.768120155214
 20
590.054400841976
 30
0.0
 11
2903.988120155215
 21
590.054400841976
 31
0.0
  0
INSERT
  5
647
  8
回02-寸法
  6
CONTINUOUS
 62
     5
  2
_OPEN
 10
2682.268120155214
 20
590.054400841976
 30
0.0
 41
1.5
 42
1.5
 43
1.5
 50
180.0
  0
INSERT
  5
648
  8
回02-寸法
  6
CONTINUOUS
 62
     5
  2
_OPEN
 10
2905.488120155215
 20
590.054400841976
 30
0.0
 41
1.5
 42
1.5
 43
1.5
  0
INSERT
  5
649
  8
回02-寸法
  6
CONTINUOUS
 62
     5
 66
     1
  2
*X108108
 10
0.0
 20
0.0
 30
0.0
  0
SEQEND
  5
776
  8
回07-寸法
  6
CONTINUOUS
 62
     7
  0
POINT
  5
64A
  8
DEFPOINTS
  6
CONTINUOUS
 62
     0
 10
2682.268120155214
 20
555.6237419731037
 30
0.0
  0
POINT
  5
64B
  8
DEFPOINTS
  6
CONTINUOUS
 62
     0
 10
2905.488120155215
 20
555.6237419731037
 30
0.0
  0
POINT
  5
64C
  8
DEFPOINTS
  6
CONTINUOUS
 62
     0
 10
2905.488120155215
 20
590.054400841976
 30
0.0
  0
ENDBLK
  5
64E
  8
回07-寸法
  6
CONTINUOUS
 62
     7
  0
BLOCK
  8
回07-寸法
  2
*X7575
 70
     1
 10
0.0
 20
0.0
 30
0.0
  3
*X7575
  1

  0
TEXT
  5
653
  8
回07-寸法
  6
CONTINUOUS
 62
     5
 10
2833.852461253251
 20
477.4580830711406
 30
0.0
 40
3.0
  1
φ0.05
  0
POLYLINE
  5
654
  8
回07-寸法
  6
BYBLOCK
 62
     5
 66
     1
 10
0.0
 20
0.0
 30
0.0
  0
VERTEX
  5
A07
  8
回07-寸法
  6
BYBLOCK
 62
     5
 10
2831.350187062019
 20
474.0876323017085
 30
0.0
  0
VERTEX
  5
A09
  8
回07-寸法
  6
BYBLOCK
 62
     5
 10
2834.362461253251
 20
476.8580830711407
 30
0.0
  0
SEQEND
  5
A08
  8
回07-寸法
  6
CONTINUOUS
 62
     7
  0
SOLID
  5
658
  8
回07-寸法
  6
CONTINUOUS
 62
     5
 10
2831.57583545012
 20
473.8422878172409
 30
0.0
 11
2829.878120155214
 21
472.7337419731037
 31
0.0
 12
2831.124538673919
 22
474.332976786176
 32
0.0
 13
2831.124538673919
 23
474.332976786176
 33
0.0
  0
POLYLINE
  5
659
  8
回07-寸法
  6
BYBLOCK
 62
     5
 66
     1
 10
0.0
 20
0.0
 30
0.0
  0
VERTEX
  5
A0A
  8
回07-寸法
  6
BYBLOCK
 62
     5
 10
2834.362461253251
 20
476.8580830711407
 30
0.0
  0
VERTEX
  5
A0C
  8
回07-寸法
  6
BYBLOCK
 62
     5
 10
2844.202461253251
 20
476.8580830711407
 30
0.0
  0
SEQEND
  5
A0B
  8
回07-寸法
  6
CONTINUOUS
 62
     7
  0
ENDBLK
  5
65E
  8
回07-寸法
  6
CONTINUOUS
 62
     7
  0
BLOCK
  8
回07-寸法
  2
*X7676
 70
     1
 10
0.0
 20
0.0
 30
0.0
  3
*X7676
  1

  0
LINE
  5
666
  8
回08-記事
  6
CONTINUOUS
 62
     7
 10
2670.468120155215
 20
489.4134499595118
 30
0.0
 11
2672.549276982677
 21
491.4946067869744
 31
0.0
  0
LINE
  5
667
  8
回08-記事
  6
CONTINUOUS
 62
     7
 10
2670.468120155215
 20
487.1683859292448
 30
0.0
 11
2674.794341012944
 21
491.4946067869737
 31
0.0
  0
LINE
  5
668
  8
回08-記事
  6
CONTINUOUS
 62
     7
 10
2671.039405043212
 20
485.494606786974
 30
0.0
 11
2677.039405043212
 21
491.4946067869738
 31
0.0
  0
LINE
  5
669
  8
回08-記事
  6
CONTINUOUS
 62
     7
 10
2673.284469073479
 20
485.4946067869741
 30
0.0
 11
2678.668120155216
 21
490.8782578687098
 31
0.0
  0
LINE
  5
66A
  8
回08-記事
  6
CONTINUOUS
 62
     7
 10
2675.529533103747
 20
485.494606786974
 30
0.0
 11
2678.668120155214
 21
488.6331938384418
 31
0.0
  0
LINE
  5
66B
  8
回08-記事
  6
CONTINUOUS
 62
     7
 10
2677.774597134014
 20
485.494606786974
 30
0.0
 11
2678.668120155214
 21
486.3881298081746
 31
0.0
  0
ENDBLK
  5
66D
  8
回07-寸法
  6
CONTINUOUS
 62
     7
  0
BLOCK
  8
回07-寸法
  2
*X7777
 70
     1
 10
0.0
 20
0.0
 30
0.0
  3
*X7777
  1

  0
INSERT
  5
69C
  8
回03-記事
  6
CONTINUOUS
 62
     5
  2
_OPEN
 10
2597.288239496111
 20
376.9516631025084
 30
0.0
 41
2.0
 42
2.0
 43
2.0
 50
327.2837633123714
  0
LINE
  5
69D
  8
回03-記事
  6
CONTINUOUS
 62
     5
 10
2595.605524190352
 20
378.0326206408812
 30
0.0
 11
2588.823675097863
 21
382.3892048328375
 31
0.0
  0
LINE
  5
69E
  8
回03-記事
  6
CONTINUOUS
 62
     5
 10
2588.823675097863
 20
382.3892048328375
 30
0.0
 11
2554.713675097863
 21
382.3892048328375
 31
0.0
  0
ENDBLK
  5
6A0
  8
回07-寸法
  6
CONTINUOUS
 62
     7
  0
BLOCK
  8
回07-寸法
  2
*X7878
 70
     1
 10
0.0
 20
0.0
 30
0.0
  3
*X7878
  1

  0
INSERT
  5
6A3
  8
回03-記事
  6
CONTINUOUS
 62
     5
  2
_OPEN
 10
2595.374613973052
 20
496.1144217971514
 30
0.0
 41
2.0
 42
2.0
 43
2.0
 50
236.6265780747958
  0
LINE
  5
6A4
  8
回03-記事
  6
CONTINUOUS
 62
     5
 10
2596.474800804836
 20
497.7846280524294
 30
0.0
 11
2599.23478710554
 21
501.9745949296401
 31
0.0
  0
LINE
  5
6A5
  8
回03-記事
  6
CONTINUOUS
 62
     5
 10
2599.23478710554
 20
501.9745949296401
 30
0.0
 11
2601.73478710554
 21
501.9745949296401
 31
0.0
  0
ENDBLK
  5
6A7
  8
回07-寸法
  6
CONTINUOUS
 62
     7
  0
BLOCK
  8
回07-寸法
  2
*X7979
 70
     1
 10
0.0
 20
0.0
 30
0.0
  3
*X7979
  1

  0
INSERT
  5
6AA
  8
回03-記事
  6
CONTINUOUS
 62
     5
  2
_OPEN
 10
2673.426381394483
 20
486.6653488574146
 30
0.0
 41
2.0
 42
2.0
 43
2.0
 50
72.80345938896333
  0
LINE
  5
6AB
  8
回03-記事
  6
CONTINUOUS
 62
     5
 10
2672.835080650547
 20
484.7547564282923
 30
0.0
 11
2663.535030295311
 21
454.7047252362654
 31
0.0
  0
LINE
  5
6AC
  8
回03-記事
  6
CONTINUOUS
 62
     5
 10
2663.535030295311
 20
454.7047252362654
 30
0.0
 11
2617.83503029531
 21
454.7047252362654
 31
0.0
  0
ENDBLK
  5
6AE
  8
回07-寸法
  6
CONTINUOUS
 62
     7
  0
BLOCK
  8
回07-寸法
  2
*X8080
 70
     1
 10
0.0
 20
0.0
 30
0.0
  3
*X8080
  1

  0
SOLID
  5
6B1
  8
回02-寸法
  6
CONTINUOUS
 62
     5
 10
2673.672129338396
 20
503.1892486445126
 30
0.0
 11
2674.482649691114
 21
501.3307094684551
 31
0.0
 12
2673.113171786849
 22
502.8259156016821
 32
0.0
 13
2673.113171786849
 23
502.8259156016821
 33
0.0
  0
LINE
  5
6B2
  8
回02-寸法
  6
CONTINUOUS
 62
     5
 10
2673.392650562622
 20
503.0075821230973
 30
0.0
 11
2670.888253602675
 21
506.8603877526916
 31
0.0
  0
LINE
  5
6B3
  8
回02-寸法
  6
CONTINUOUS
 62
     5
 10
2670.888253602675
 20
506.8603877526916
 30
0.0
 11
2668.388253602674
 21
506.8603877526916
 31
0.0
  0
ENDBLK
  5
6B5
  8
回07-寸法
  6
CONTINUOUS
 62
     7
  0
BLOCK
  8
回07-寸法
  2
*X8181
 70
     1
 10
0.0
 20
0.0
 30
0.0
  3
*X8181
  1

  0
INSERT
  5
6B8
  8
回02-寸法
  6
CONTINUOUS
 62
     5
  2
_OPEN
 10
2606.720603892406
 20
572.4855132344304
 30
0.0
 41
2.0
 42
2.0
 43
2.0
 50
296.3130785331249
  0
LINE
  5
6B9
  8
回02-寸法
 62
     5
 10
2605.83405226365
 20
574.2782837745585
 30
0.0
 11
2604.273098914237
 21
577.4348186999621
 31
0.0
  0
LINE
  5
6BA
  8
回02-寸法
 62
     5
 10
2604.273098914237
 20
577.4348186999621
 30
0.0
 11
2589.893098914237
 21
577.4348186999621
 31
0.0
  0
ENDBLK
  5
6BC
  8
回07-寸法
  6
CONTINUOUS
 62
     7
  0
BLOCK
  8
回07-寸法
  2
*X8282
 70
     1
 10
0.0
 20
0.0
 30
0.0
  3
*X8282
  1

  0
SOLID
  5
6D0
  8
回02-寸法
  6
CONTINUOUS
 62
     5
 10
2664.608668043202
 20
497.9268192097467
 30
0.0
 11
2665.038597464918
 21
495.9453369858914
 31
0.0
 12
2663.989264587991
 22
497.6802754933065
 32
0.0
 13
2663.989264587991
 23
497.6802754933065
 33
0.0
  0
LINE
  5
6D1
  8
回02-寸法
  6
CONTINUOUS
 62
     5
 10
2664.298966315596
 20
497.8035473515267
 30
0.0
 11
2662.69666392739
 21
501.8290875270309
 31
0.0
  0
LINE
  5
6D2
  8
回02-寸法
  6
CONTINUOUS
 62
     5
 10
2662.69666392739
 20
501.8290875270309
 30
0.0
 11
2660.19666392739
 21
501.8290875270309
 31
0.0
  0
ENDBLK
  5
6D4
  8
回07-寸法
  6
CONTINUOUS
 62
     7
  0
BLOCK
  8
回07-寸法
  2
*X8383
 70
     1
 10
0.0
 20
0.0
 30
0.0
  3
*X8383
  1

  0
TEXT
  5
6DC
  8
回02-寸法
  6
CONTINUOUS
 62
     5
 10
963.4187687346056
 20
-2394.808469214476
 30
0.0
 40
4.0
  1
223.22 
  0
TEXT
  5
6DD
  8
回02-寸法
  6
CONTINUOUS
 62
     5
 10
981.0187687346056
 20
-2394.808469214476
 30
0.0
 40
3.0
  1
(ACTIVE AREA)
  0
ENDBLK
  5
6DF
  8
回07-寸法
  6
CONTINUOUS
 62
     7
  0
BLOCK
  8
回07-寸法
  2
*X8484
 70
     1
 10
0.0
 20
0.0
 30
0.0
  3
*X8484
  1

  0
TEXT
  5
6E2
  8
回02-寸法
  6
CONTINUOUS
 62
     5
 10
962.5187687346056
 20
-2387.361840957785
 30
0.0
 40
4.0
  1
227.22 
  0
TEXT
  5
6E3
  8
回02-寸法
  6
CONTINUOUS
 62
     5
 10
980.1187687346056
 20
-2387.361840957785
 30
0.0
 40
3.0
  1
(VIEWING AREA)
  0
ENDBLK
  5
6E5
  8
回07-寸法
  6
CONTINUOUS
 62
     7
  0
BLOCK
  8
回07-寸法
  2
*X8585
 70
     1
 10
0.0
 20
0.0
 30
0.0
  3
*X8585
  1

  0
TEXT
  5
6E8
  8
回02-寸法
  6
CONTINUOUS
 62
     5
 10
978.123178183425
 20
-2374.330642645805
 30
0.0
 40
4.0
  1
235
  0
TEXT
  5
6E9
  8
回02-寸法
  6
CONTINUOUS
 62
     5
 10
986.523178183425
 20
-2374.330642645805
 30
0.0
 40
2.799999999999998
  1
±0.3
  0
ENDBLK
  5
6EB
  8
回07-寸法
  6
CONTINUOUS
 62
     7
  0
BLOCK
  8
回07-寸法
  2
*X8686
 70
     1
 10
0.0
 20
0.0
 30
0.0
  3
*X8686
  1

  0
TEXT
  5
6EE
  8
回02-寸法
  6
CONTINUOUS
 62
     5
 10
1118.8061759942
 20
-2514.753931232956
 30
0.0
 40
4.0
  1
125.78 
 50
90.0
  0
TEXT
  5
6EF
  8
回02-寸法
  6
CONTINUOUS
 62
     5
 10
1118.8061759942
 20
-2497.953931232955
 30
0.0
 40
3.0
  1
(ACTIVE AREA)
 50
90.0
  0
ENDBLK
  5
6F1
  8
回07-寸法
  6
CONTINUOUS
 62
     7
  0
BLOCK
  8
回07-寸法
  2
*X8787
 70
     1
 10
0.0
 20
0.0
 30
0.0
  3
*X8787
  1

  0
TEXT
  5
6F4
  8
回02-寸法
  6
CONTINUOUS
 62
     5
 10
1127.157402454317
 20
-2515.66115197001
 30
0.0
 40
4.0
  1
129.78 
 50
90.0
  0
TEXT
  5
6F5
  8
回02-寸法
  6
CONTINUOUS
 62
     5
 10
1127.157402454317
 20
-2498.846710495902
 30
0.0
 40
3.0
  1
(VIEWING AREA)
 50
90.0
  0
ENDBLK
  5
6F7
  8
回07-寸法
  6
CONTINUOUS
 62
     7
  0
BLOCK
  8
回07-寸法
  2
*X8888
 70
     1
 10
0.0
 20
0.0
 30
0.0
  3
*X8888
  1

  0
TEXT
  5
6FA
  8
回02-寸法
  6
CONTINUOUS
 62
     5
 10
1141.420888385439
 20
-2505.229521983859
 30
0.0
 40
4.0
  1
143
 50
90.0
  0
TEXT
  5
6FB
  8
回02-寸法
  6
CONTINUOUS
 62
     5
 10
1141.420888385439
 20
-2497.229521983859
 30
0.0
 40
2.799999999999998
  1
±0.3
 50
90.0
  0
ENDBLK
  5
6FD
  8
回07-寸法
  6
CONTINUOUS
 62
     7
  0
BLOCK
  8
回07-寸法
  2
*X8989
 70
     1
 10
0.0
 20
0.0
 30
0.0
  3
*X8989
  1

  0
TEXT
  5
700
  8
回02-寸法
  6
CONTINUOUS
 62
     5
 10
778.777052406432
 20
-2635.179590553464
 30
0.0
 40
4.0
  1
0.3
 50
90.0
  0
TEXT
  5
701
  8
回02-寸法
  6
CONTINUOUS
 62
     5
 10
778.177052406432
 20
-2628.379590553464
 30
0.0
 40
2.799999999999998
  1
±0.05
 50
90.0
  0
ENDBLK
  5
703
  8
回07-寸法
  6
CONTINUOUS
 62
     7
  0
BLOCK
  8
回07-寸法
  2
*X9090
 70
     1
 10
0.0
 20
0.0
 30
0.0
  3
*X9090
  1

  0
TEXT
  5
706
  8
回02-寸法
  6
CONTINUOUS
 62
     5
 10
821.9131564280415
 20
-2467.363276315007
 30
0.0
 40
4.0
  1
80
  0
TEXT
  5
707
  8
回02-寸法
  6
CONTINUOUS
 62
     5
 10
827.5131564280417
 20
-2467.363276315007
 30
0.0
 40
2.799999999999998
  1
±1
  0
ENDBLK
  5
709
  8
回07-寸法
  6
CONTINUOUS
 62
     7
  0
BLOCK
  8
回07-寸法
  2
*X9191
 70
     1
 10
0.0
 20
0.0
 30
0.0
  3
*X9191
  1

  0
TEXT
  5
70C
  8
回02-寸法
 62
     5
 10
775.8396959236992
 20
-2485.059883866093
 30
0.0
 40
4.0
  1
6.25
 50
90.0
  0
TEXT
  5
70D
  8
回02-寸法
 62
     5
 10
775.8396959236992
 20
-2475.459883866093
 30
0.0
 40
2.799999999999998
  1
±0.2
 50
90.0
  0
ENDBLK
  5
70F
  8
回07-寸法
  6
CONTINUOUS
 62
     7
  0
BLOCK
  8
回07-寸法
  2
*X9292
 70
     1
 10
0.0
 20
0.0
 30
0.0
  3
*X9292
  1

  0
TEXT
  5
712
  8
回02-寸法
  6
CONTINUOUS
 62
     5
 10
766.5587793431772
 20
-2446.777382296005
 30
0.0
 40
4.0
  1
6.25
 50
90.0
  0
TEXT
  5
713
  8
回02-寸法
  6
CONTINUOUS
 62
     5
 10
766.5587793431772
 20
-2437.177382296005
 30
0.0
 40
2.666799999999998
  1
±0.2
 50
90.0
  0
ENDBLK
  5
715
  8
回07-寸法
  6
CONTINUOUS
 62
     7
  0
BLOCK
  8
回07-寸法
  2
*X9393
 70
     1
 10
0.0
 20
0.0
 30
0.0
  3
*X9393
  1

  0
TEXT
  5
718
  8
回02-寸法
  6
CONTINUOUS
 62
     5
 10
781.3589353583528
 20
-2444.627456228988
 30
0.0
 40
4.0
  1
1.25
 50
90.0
  0
TEXT
  5
719
  8
回02-寸法
  6
CONTINUOUS
 62
     5
 10
781.3589353583528
 20
-2435.827456228987
 30
0.0
 40
3.333319999999999
  1
±0.2
 50
90.0
  0
ENDBLK
  5
71B
  8
回07-寸法
  6
CONTINUOUS
 62
     7
  0
BLOCK
  8
回07-寸法
  2
*X9494
 70
     1
 10
0.0
 20
0.0
 30
0.0
  3
*X9494
  1

  0
TEXT
  5
71E
  8
回02-寸法
  6
CONTINUOUS
 62
     5
 10
788.8004304112783
 20
-2448.630325666391
 30
0.0
 40
4.0
  1
4-0.7
 50
90.0
  0
TEXT
  5
71F
  8
回02-寸法
  6
CONTINUOUS
 62
     5
 10
788.8004304112783
 20
-2435.830325666391
 30
0.0
 40
3.333319999999999
  1
±0.1
 50
90.0
  0
ENDBLK
  5
721
  8
回07-寸法
  6
CONTINUOUS
 62
     7
  0
BLOCK
  8
回07-寸法
  2
*X9595
 70
     1
 10
0.0
 20
0.0
 30
0.0
  3
*X9595
  1

  0
TEXT
  5
724
  8
回02-寸法
  6
CONTINUOUS
 62
     5
 10
774.3031172303282
 20
-2444.467048366391
 30
0.0
 40
4.0
  1
3.75
 50
90.0
  0
TEXT
  5
725
  8
回02-寸法
  6
CONTINUOUS
 62
     5
 10
774.3031172303282
 20
-2434.867048366391
 30
0.0
 40
2.666679999999999
  1
±0.1
 50
90.0
  0
ENDBLK
  5
727
  8
回07-寸法
  6
CONTINUOUS
 62
     7
  0
BLOCK
  8
回07-寸法
  2
*X9696
 70
     1
 10
0.0
 20
0.0
 30
0.0
  3
*X9696
  1

  0
TEXT
  5
72A
  8
回02-寸法
  6
CONTINUOUS
 62
     5
 10
2582.388059202117
 20
541.0462153908492
 30
0.0
 40
4.0
  1
3.75
 50
90.0
  0
TEXT
  5
72B
  8
回02-寸法
  6
CONTINUOUS
 62
     5
 10
2582.388059202117
 20
550.6462153908492
 30
0.0
 40
2.666679999999999
  1
±0.1
 50
90.0
  0
ENDBLK
  5
72D
  8
回07-寸法
  6
CONTINUOUS
 62
     7
  0
BLOCK
  8
回07-寸法
  2
*X9797
 70
     1
 10
0.0
 20
0.0
 30
0.0
  3
*X9797
  1

  0
TEXT
  5
730
  8
回02-寸法
  6
CONTINUOUS
 62
     5
 10
2596.885372383068
 20
536.8829380908496
 30
0.0
 40
4.0
  1
4-0.7
 50
90.0
  0
TEXT
  5
731
  8
回02-寸法
  6
CONTINUOUS
 62
     5
 10
2596.885372383068
 20
549.6829380908498
 30
0.0
 40
3.333319999999999
  1
±0.1
 50
90.0
  0
ENDBLK
  5
733
  8
回07-寸法
  6
CONTINUOUS
 62
     7
  0
BLOCK
  8
回07-寸法
  2
*X9898
 70
     1
 10
0.0
 20
0.0
 30
0.0
  3
*X9898
  1

  0
TEXT
  5
736
  8
回02-寸法
  6
CONTINUOUS
 62
     5
 10
2589.444271030931
 20
540.9855370152639
 30
0.0
 40
4.0
  1
1.25
 50
90.0
  0
TEXT
  5
737
  8
回02-寸法
  6
CONTINUOUS
 62
     5
 10
2589.444271030931
 20
549.7855370152642
 30
0.0
 40
3.333319999999999
  1
±0.2
 50
90.0
  0
ENDBLK
  5
739
  8
回07-寸法
  6
CONTINUOUS
 62
     7
  0
BLOCK
  8
回07-寸法
  2
*X9999
 70
     1
 10
0.0
 20
0.0
 30
0.0
  3
*X9999
  1

  0
TEXT
  5
73C
  8
回02-寸法
  6
CONTINUOUS
 62
     5
 10
2574.644115015754
 20
538.9353543985452
 30
0.0
 40
4.0
  1
6.25
 50
90.0
  0
TEXT
  5
73D
  8
回02-寸法
  6
CONTINUOUS
 62
     5
 10
2574.644115015754
 20
548.5353543985451
 30
0.0
 40
2.666799999999998
  1
±0.2
 50
90.0
  0
ENDBLK
  5
73F
  8
回07-寸法
  6
CONTINUOUS
 62
     7
  0
BLOCK
  8
回07-寸法
  2
*X100100
 70
     1
 10
0.0
 20
0.0
 30
0.0
  3
*X100100
  1

  0
TEXT
  5
742
  8
回02-寸法
  6
CONTINUOUS
 62
     5
 10
2583.925031596276
 20
500.4533798911466
 30
0.0
 40
4.0
  1
6.25
 50
90.0
  0
TEXT
  5
743
  8
回02-寸法
  6
CONTINUOUS
 62
     5
 10
2583.925031596276
 20
510.0533798911464
 30
0.0
 40
2.799999999999998
  1
±0.2
 50
90.0
  0
ENDBLK
  5
745
  8
回07-寸法
  6
CONTINUOUS
 62
     7
  0
BLOCK
  8
回07-寸法
  2
*X101101
 70
     1
 10
0.0
 20
0.0
 30
0.0
  3
*X101101
  1

  0
TEXT
  5
748
  8
回02-寸法
  6
CONTINUOUS
 62
     5
 10
2629.998098399831
 20
518.1499874422325
 30
0.0
 40
4.0
  1
80
  0
TEXT
  5
749
  8
回02-寸法
  6
CONTINUOUS
 62
     5
 10
2635.598098399831
 20
518.1499874422325
 30
0.0
 40
2.799999999999998
  1
±1
  0
ENDBLK
  5
74B
  8
回07-寸法
  6
CONTINUOUS
 62
     7
  0
BLOCK
  8
回07-寸法
  2
*X102102
 70
     1
 10
0.0
 20
0.0
 30
0.0
  3
*X102102
  1

  0
TEXT
  5
74E
  8
回02-寸法
  6
CONTINUOUS
 62
     5
 10
2586.861994378221
 20
350.333673203776
 30
0.0
 40
4.0
  1
0.3
 50
90.0
  0
TEXT
  5
74F
  8
回02-寸法
  6
CONTINUOUS
 62
     5
 10
2586.261994378221
 20
357.1336732037762
 30
0.0
 40
2.799999999999998
  1
±0.05
 50
90.0
  0
ENDBLK
  5
751
  8
回07-寸法
  6
CONTINUOUS
 62
     7
  0
BLOCK
  8
回07-寸法
  2
*X103103
 70
     1
 10
0.0
 20
0.0
 30
0.0
  3
*X103103
  1

  0
TEXT
  5
754
  8
回02-寸法
  6
CONTINUOUS
 62
     5
 10
2949.505830357228
 20
480.2837417733808
 30
0.0
 40
4.0
  1
143
 50
90.0
  0
TEXT
  5
755
  8
回02-寸法
  6
CONTINUOUS
 62
     5
 10
2949.505830357228
 20
488.2837417733808
 30
0.0
 40
2.799999999999998
  1
±0.3
 50
90.0
  0
ENDBLK
  5
757
  8
回07-寸法
  6
CONTINUOUS
 62
     7
  0
BLOCK
  8
回07-寸法
  2
*X104104
 70
     1
 10
0.0
 20
0.0
 30
0.0
  3
*X104104
  1

  0
TEXT
  5
75A
  8
回02-寸法
  6
CONTINUOUS
 62
     5
 10
2935.242738126895
 20
469.8521117872309
 30
0.0
 40
4.0
  1
129.78 
 50
90.0
  0
TEXT
  5
75B
  8
回02-寸法
  6
CONTINUOUS
 62
     5
 10
2935.242738126895
 20
486.6665532613388
 30
0.0
 40
3.0
  1
(VIEWING AREA)
 50
90.0
  0
ENDBLK
  5
75D
  8
回07-寸法
  6
CONTINUOUS
 62
     7
  0
BLOCK
  8
回07-寸法
  2
*X105105
 70
     1
 10
0.0
 20
0.0
 30
0.0
  3
*X105105
  1

  0
TEXT
  5
760
  8
回02-寸法
  6
CONTINUOUS
 62
     5
 10
2926.891511666777
 20
470.7593325242847
 30
0.0
 40
4.0
  1
125.78 
 50
90.0
  0
TEXT
  5
761
  8
回02-寸法
  6
CONTINUOUS
 62
     5
 10
2926.891511666777
 20
487.5593325242848
 30
0.0
 40
3.0
  1
(ACTIVE AREA)
 50
90.0
  0
ENDBLK
  5
763
  8
回07-寸法
  6
CONTINUOUS
 62
     7
  0
BLOCK
  8
回07-寸法
  2
*X106106
 70
     1
 10
0.0
 20
0.0
 30
0.0
  3
*X106106
  1

  0
TEXT
  5
766
  8
回02-寸法
  6
CONTINUOUS
 62
     5
 10
2786.208120155214
 20
611.182227410647
 30
0.0
 40
4.0
  1
235
  0
TEXT
  5
767
  8
回02-寸法
  6
CONTINUOUS
 62
     5
 10
2794.608120155214
 20
611.182227410647
 30
0.0
 40
2.799999999999998
  1
±0.3
  0
ENDBLK
  5
769
  8
回07-寸法
  6
CONTINUOUS
 62
     7
  0
BLOCK
  8
回07-寸法
  2
*X107107
 70
     1
 10
0.0
 20
0.0
 30
0.0
  3
*X107107
  1

  0
TEXT
  5
76C
  8
回02-寸法
  6
CONTINUOUS
 62
     5
 10
2770.603710706395
 20
598.1510290986671
 30
0.0
 40
4.0
  1
227.22 
  0
TEXT
  5
76D
  8
回02-寸法
  6
CONTINUOUS
 62
     5
 10
2788.203710706395
 20
598.1510290986671
 30
0.0
 40
3.0
  1
(VIEWING AREA)
  0
ENDBLK
  5
76F
  8
回07-寸法
  6
CONTINUOUS
 62
     7
  0
BLOCK
  8
回07-寸法
  2
*X108108
 70
     1
 10
0.0
 20
0.0
 30
0.0
  3
*X108108
  1

  0
TEXT
  5
772
  8
回02-寸法
  6
CONTINUOUS
 62
     5
 10
2771.503710706396
 20
590.704400841976
 30
0.0
 40
4.0
  1
223.22 
  0
TEXT
  5
773
  8
回02-寸法
  6
CONTINUOUS
 62
     5
 10
2789.103710706396
 20
590.704400841976
 30
0.0
 40
3.0
  1
(ACTIVE AREA)
  0
ENDBLK
  5
775
  8
回07-寸法
  6
CONTINUOUS
 62
     7
  0
ENDSEC
  0
SECTION
  2
ENTITIES
  0
TEXT
  5
65
  8
回03-記事
  6
CONTINUOUS
 62
     5
 10
2714.975236711746
 20
291.2627501529305
 30
0.0
 40
6.0
  1
without affecting product specification.
  0
TEXT
  5
67
  8
回03-記事
  6
CONTINUOUS
 62
     5
 10
2714.975236711746
 20
301.7873822956799
 30
0.0
 40
6.0
  1
Edges and corners of ITO glass may be chamfered 
  0
TEXT
  5
68
  8
回03-記事
  6
CONTINUOUS
 62
     5
 10
2714.975236711746
 20
312.3120144384302
 30
0.0
 40
6.0
  1
Unit: mm
  0
TEXT
  5
69
  8
回03-記事
  6
CONTINUOUS
 62
     5
 10
2714.975236711746
 20
322.8366465811799
 30
0.0
 40
6.0
  1
EXCEPT WHERE INDICATED
  0
TEXT
  5
6A
  8
回03-記事
  6
CONTINUOUS
 62
     5
 10
2714.975236711746
 20
333.3612787239295
 30
0.0
 40
6.0
  1
TOLERANCE=±0.5mm
  0
TEXT
  5
6B
  8
回08-記事
  6
CONTINUOUS
 62
     7
 10
2890.631504436472
 20
493.5097855824538
 30
0.0
 40
5.0
  1
XR
  0
TEXT
  5
6F
  8
回08-記事
  6
CONTINUOUS
 62
     7
 10
2782.687373562607
 20
545.7794509399564
 30
0.0
 40
5.0
  1
YU
  0
TEXT
  5
70
  8
回08-記事
  6
CONTINUOUS
 62
     7
 10
2782.999607263886
 20
432.826989026566
 30
0.0
 40
5.0
  1
YD
  0
TEXT
  5
71
  8
回08-記事
  6
CONTINUOUS
 62
     7
 10
2689.984769247252
 20
494.2547950723201
 30
0.0
 40
5.0
  1
XL
  0
INSERT
  5
72
  8
回07-寸法
  6
CONTINUOUS
 62
     7
 66
     1
  2
*X7575
 10
0.0
 20
0.0
 30
0.0
1001
ACADSTRINGINFO
1000
MIFCodePage
1070
     1
1001
ACAD_MLEADERVER
1070
     2
  0
SEQEND
  5
65F
  8
回07-寸法
  6
CONTINUOUS
 62
     7
  0
DIMENSION
  5
74
  8
回07-寸法
  6
CONTINUOUS
 62
     7
  2
*D3838
 10
2825.878120155215
 20
448.5585184924507
 30
0.0
 11
2833.378120155214
 21
451.0585184924507
 31
0.0
 70
    32
  3
STANDARD
 13
2821.878120155215
 23
456.7337419731038
 33
0.0
 14
2825.878120155215
 24
456.7337419731038
 34
0.0
1001
ACAD
1000
DSTYLE
1002
{
1070
    41
1040
3.0
1070
    47
1040
0.3
1070
    48
1040
0.3
1070
   140
1040
4.0
1070
   141
1040
1.5
1070
   146
1040
0.7
1070
   271
1070
     1
1070
   272
1070
     1
1070
   283
1070
     0
1070
   288
1070
     0
1070
   341
1005
0
1070
   371
1070
    13
1070
   372
1070
    13
1002
}
  0
DIMENSION
  5
86
  8
回07-寸法
  6
CONTINUOUS
 62
     7
  2
*D3939
 10
2840.004755771003
 20
464.7337419731037
 30
0.0
 11
2837.504755771002
 21
457.2337419731038
 31
0.0
 70
    32
  3
STANDARD
 13
2829.878120155214
 23
468.7337419731037
 33
0.0
 14
2829.878120155214
 24
464.7337419731037
 34
0.0
 50
90.0
1001
ACAD
1000
DSTYLE
1002
{
1070
    41
1040
3.0
1070
    47
1040
0.3
1070
    48
1040
0.3
1070
   140
1040
4.0
1070
   141
1040
1.5
1070
   146
1040
0.7
1070
   271
1070
     1
1070
   272
1070
     1
1070
   283
1070
     0
1070
   288
1070
     0
1070
   341
1005
0
1070
   371
1070
    13
1070
   372
1070
    13
1002
}
  0
CIRCLE
  5
97
  8
回08-記事
  6
CONTINUOUS
 62
     7
 10
2829.878120155214
 20
492.7337419731038
 30
0.0
 40
0.025
  0
CIRCLE
  5
98
  8
回08-記事
  6
CONTINUOUS
 62
     7
 10
2829.878120155214
 20
488.7337419731037
 30
0.0
 40
0.025
  0
CIRCLE
  5
99
  8
回08-記事
  6
CONTINUOUS
 62
     7
 10
2829.878120155214
 20
484.7337419731037
 30
0.0
 40
0.025
  0
CIRCLE
  5
9A
  8
回08-記事
  6
CONTINUOUS
 62
     7
 10
2829.878120155214
 20
480.7337419731037
 30
0.0
 40
0.025
  0
CIRCLE
  5
9B
  8
回08-記事
  6
CONTINUOUS
 62
     7
 10
2829.878120155214
 20
476.7337419731037
 30
0.0
 40
0.025
  0
CIRCLE
  5
9C
  8
回08-記事
  6
CONTINUOUS
 62
     7
 10
2829.878120155214
 20
472.7337419731037
 30
0.0
 40
0.025
  0
CIRCLE
  5
9D
  8
回08-記事
  6
CONTINUOUS
 62
     7
 10
2829.878120155214
 20
468.7337419731037
 30
0.0
 40
0.025
  0
CIRCLE
  5
9E
  8
回08-記事
  6
CONTINUOUS
 62
     7
 10
2829.878120155214
 20
464.7337419731037
 30
0.0
 40
0.025
  0
CIRCLE
  5
9F
  8
回08-記事
  6
CONTINUOUS
 62
     7
 10
2829.878120155214
 20
460.7337419731037
 30
0.0
 40
0.025
  0
CIRCLE
  5
A0
  8
回08-記事
  6
CONTINUOUS
 62
     7
 10
2829.878120155214
 20
456.7337419731038
 30
0.0
 40
0.025
  0
CIRCLE
  5
A1
  8
回08-記事
  6
CONTINUOUS
 62
     7
 10
2825.878120155215
 20
492.7337419731038
 30
0.0
 40
0.025
  0
CIRCLE
  5
A2
  8
回08-記事
  6
CONTINUOUS
 62
     7
 10
2825.878120155215
 20
488.7337419731037
 30
0.0
 40
0.025
  0
CIRCLE
  5
A3
  8
回08-記事
  6
CONTINUOUS
 62
     7
 10
2825.878120155215
 20
484.7337419731037
 30
0.0
 40
0.025
  0
CIRCLE
  5
A4
  8
回08-記事
  6
CONTINUOUS
 62
     7
 10
2825.878120155215
 20
480.7337419731037
 30
0.0
 40
0.025
  0
CIRCLE
  5
A5
  8
回08-記事
  6
CONTINUOUS
 62
     7
 10
2825.878120155215
 20
476.7337419731037
 30
0.0
 40
0.025
  0
CIRCLE
  5
A6
  8
回08-記事
  6
CONTINUOUS
 62
     7
 10
2825.878120155215
 20
472.7337419731037
 30
0.0
 40
0.025
  0
CIRCLE
  5
A7
  8
回08-記事
  6
CONTINUOUS
 62
     7
 10
2825.878120155215
 20
468.7337419731037
 30
0.0
 40
0.025
  0
CIRCLE
  5
A8
  8
回08-記事
  6
CONTINUOUS
 62
     7
 10
2825.878120155215
 20
464.7337419731037
 30
0.0
 40
0.025
  0
CIRCLE
  5
A9
  8
回08-記事
  6
CONTINUOUS
 62
     7
 10
2825.878120155215
 20
460.7337419731037
 30
0.0
 40
0.025
  0
CIRCLE
  5
AA
  8
回08-記事
  6
CONTINUOUS
 62
     7
 10
2825.878120155215
 20
456.7337419731038
 30
0.0
 40
0.025
  0
CIRCLE
  5
AB
  8
回08-記事
  6
CONTINUOUS
 62
     7
 10
2821.878120155215
 20
492.7337419731038
 30
0.0
 40
0.025
  0
CIRCLE
  5
AC
  8
回08-記事
  6
CONTINUOUS
 62
     7
 10
2821.878120155215
 20
488.7337419731037
 30
0.0
 40
0.025
  0
CIRCLE
  5
AD
  8
回08-記事
  6
CONTINUOUS
 62
     7
 10
2821.878120155215
 20
484.7337419731037
 30
0.0
 40
0.025
  0
CIRCLE
  5
AE
  8
回08-記事
  6
CONTINUOUS
 62
     7
 10
2821.878120155215
 20
480.7337419731037
 30
0.0
 40
0.025
  0
CIRCLE
  5
AF
  8
回08-記事
  6
CONTINUOUS
 62
     7
 10
2821.878120155215
 20
476.7337419731037
 30
0.0
 40
0.025
  0
CIRCLE
  5
B0
  8
回08-記事
  6
CONTINUOUS
 62
     7
 10
2821.878120155215
 20
472.7337419731037
 30
0.0
 40
0.025
  0
CIRCLE
  5
B1
  8
回08-記事
  6
CONTINUOUS
 62
     7
 10
2821.878120155215
 20
468.7337419731037
 30
0.0
 40
0.025
  0
CIRCLE
  5
B2
  8
回08-記事
  6
CONTINUOUS
 62
     7
 10
2821.878120155215
 20
464.7337419731037
 30
0.0
 40
0.025
  0
CIRCLE
  5
B3
  8
回08-記事
  6
CONTINUOUS
 62
     7
 10
2821.878120155215
 20
460.7337419731037
 30
0.0
 40
0.025
  0
CIRCLE
  5
B4
  8
回08-記事
  6
CONTINUOUS
 62
     7
 10
2821.878120155215
 20
456.7337419731038
 30
0.0
 40
0.025
  0
CIRCLE
  5
B5
  8
回08-記事
  6
CONTINUOUS
 62
     7
 10
2817.878120155214
 20
492.7337419731038
 30
0.0
 40
0.025
  0
CIRCLE
  5
B6
  8
回08-記事
  6
CONTINUOUS
 62
     7
 10
2817.878120155214
 20
488.7337419731037
 30
0.0
 40
0.025
  0
CIRCLE
  5
B7
  8
回08-記事
  6
CONTINUOUS
 62
     7
 10
2817.878120155214
 20
484.7337419731037
 30
0.0
 40
0.025
  0
CIRCLE
  5
B8
  8
回08-記事
  6
CONTINUOUS
 62
     7
 10
2817.878120155214
 20
480.7337419731037
 30
0.0
 40
0.025
  0
CIRCLE
  5
B9
  8
回08-記事
  6
CONTINUOUS
 62
     7
 10
2817.878120155214
 20
476.7337419731037
 30
0.0
 40
0.025
  0
CIRCLE
  5
BA
  8
回08-記事
  6
CONTINUOUS
 62
     7
 10
2817.878120155214
 20
472.7337419731037
 30
0.0
 40
0.025
  0
CIRCLE
  5
BB
  8
回08-記事
  6
CONTINUOUS
 62
     7
 10
2817.878120155214
 20
468.7337419731037
 30
0.0
 40
0.025
  0
CIRCLE
  5
BC
  8
回08-記事
  6
CONTINUOUS
 62
     7
 10
2817.878120155214
 20
464.7337419731037
 30
0.0
 40
0.025
  0
CIRCLE
  5
BD
  8
回08-記事
  6
CONTINUOUS
 62
     7
 10
2817.878120155214
 20
460.7337419731037
 30
0.0
 40
0.025
  0
CIRCLE
  5
BE
  8
回08-記事
  6
CONTINUOUS
 62
     7
 10
2817.878120155214
 20
456.7337419731038
 30
0.0
 40
0.025
  0
CIRCLE
  5
BF
  8
回08-記事
  6
CONTINUOUS
 62
     7
 10
2813.878120155214
 20
492.7337419731038
 30
0.0
 40
0.025
  0
CIRCLE
  5
C0
  8
回08-記事
  6
CONTINUOUS
 62
     7
 10
2813.878120155214
 20
488.7337419731037
 30
0.0
 40
0.025
  0
CIRCLE
  5
C1
  8
回08-記事
  6
CONTINUOUS
 62
     7
 10
2813.878120155214
 20
484.7337419731037
 30
0.0
 40
0.025
  0
CIRCLE
  5
C2
  8
回08-記事
  6
CONTINUOUS
 62
     7
 10
2813.878120155214
 20
480.7337419731037
 30
0.0
 40
0.025
  0
CIRCLE
  5
C3
  8
回08-記事
  6
CONTINUOUS
 62
     7
 10
2813.878120155214
 20
476.7337419731037
 30
0.0
 40
0.025
  0
CIRCLE
  5
C4
  8
回08-記事
  6
CONTINUOUS
 62
     7
 10
2813.878120155214
 20
472.7337419731037
 30
0.0
 40
0.025
  0
CIRCLE
  5
C5
  8
回08-記事
  6
CONTINUOUS
 62
     7
 10
2813.878120155214
 20
468.7337419731037
 30
0.0
 40
0.025
  0
CIRCLE
  5
C6
  8
回08-記事
  6
CONTINUOUS
 62
     7
 10
2813.878120155214
 20
464.7337419731037
 30
0.0
 40
0.025
  0
CIRCLE
  5
C7
  8
回08-記事
  6
CONTINUOUS
 62
     7
 10
2813.878120155214
 20
460.7337419731037
 30
0.0
 40
0.025
  0
CIRCLE
  5
C8
  8
回08-記事
  6
CONTINUOUS
 62
     7
 10
2813.878120155214
 20
456.7337419731038
 30
0.0
 40
0.025
  0
CIRCLE
  5
C9
  8
回08-記事
  6
CONTINUOUS
 62
     7
 10
2809.878120155214
 20
492.7337419731038
 30
0.0
 40
0.025
  0
CIRCLE
  5
CA
  8
回08-記事
  6
CONTINUOUS
 62
     7
 10
2809.878120155214
 20
488.7337419731037
 30
0.0
 40
0.025
  0
CIRCLE
  5
CB
  8
回08-記事
  6
CONTINUOUS
 62
     7
 10
2809.878120155214
 20
484.7337419731037
 30
0.0
 40
0.025
  0
CIRCLE
  5
CC
  8
回08-記事
  6
CONTINUOUS
 62
     7
 10
2809.878120155214
 20
480.7337419731037
 30
0.0
 40
0.025
  0
CIRCLE
  5
CD
  8
回08-記事
  6
CONTINUOUS
 62
     7
 10
2809.878120155214
 20
476.7337419731037
 30
0.0
 40
0.025
  0
CIRCLE
  5
CE
  8
回08-記事
  6
CONTINUOUS
 62
     7
 10
2809.878120155214
 20
472.7337419731037
 30
0.0
 40
0.025
  0
CIRCLE
  5
CF
  8
回08-記事
  6
CONTINUOUS
 62
     7
 10
2809.878120155214
 20
468.7337419731037
 30
0.0
 40
0.025
  0
CIRCLE
  5
D0
  8
回08-記事
  6
CONTINUOUS
 62
     7
 10
2809.878120155214
 20
464.7337419731037
 30
0.0
 40
0.025
  0
CIRCLE
  5
D1
  8
回08-記事
  6
CONTINUOUS
 62
     7
 10
2809.878120155214
 20
460.7337419731037
 30
0.0
 40
0.025
  0
CIRCLE
  5
D2
  8
回08-記事
  6
CONTINUOUS
 62
     7
 10
2809.878120155214
 20
456.7337419731038
 30
0.0
 40
0.025
  0
CIRCLE
  5
D3
  8
回08-記事
  6
CONTINUOUS
 62
     7
 10
2805.878120155215
 20
492.7337419731038
 30
0.0
 40
0.025
  0
CIRCLE
  5
D4
  8
回08-記事
  6
CONTINUOUS
 62
     7
 10
2805.878120155215
 20
488.7337419731037
 30
0.0
 40
0.025
  0
CIRCLE
  5
D5
  8
回08-記事
  6
CONTINUOUS
 62
     7
 10
2805.878120155215
 20
484.7337419731037
 30
0.0
 40
0.025
  0
CIRCLE
  5
D6
  8
回08-記事
  6
CONTINUOUS
 62
     7
 10
2805.878120155215
 20
480.7337419731037
 30
0.0
 40
0.025
  0
CIRCLE
  5
D7
  8
回08-記事
  6
CONTINUOUS
 62
     7
 10
2805.878120155215
 20
476.7337419731037
 30
0.0
 40
0.025
  0
CIRCLE
  5
D8
  8
回08-記事
  6
CONTINUOUS
 62
     7
 10
2805.878120155215
 20
472.7337419731037
 30
0.0
 40
0.025
  0
CIRCLE
  5
D9
  8
回08-記事
  6
CONTINUOUS
 62
     7
 10
2805.878120155215
 20
468.7337419731037
 30
0.0
 40
0.025
  0
CIRCLE
  5
DA
  8
回08-記事
  6
CONTINUOUS
 62
     7
 10
2805.878120155215
 20
464.7337419731037
 30
0.0
 40
0.025
  0
CIRCLE
  5
DB
  8
回08-記事
  6
CONTINUOUS
 62
     7
 10
2805.878120155215
 20
460.7337419731037
 30
0.0
 40
0.025
  0
CIRCLE
  5
DC
  8
回08-記事
  6
CONTINUOUS
 62
     7
 10
2805.878120155215
 20
456.7337419731038
 30
0.0
 40
0.025
  0
CIRCLE
  5
DD
  8
回08-記事
  6
CONTINUOUS
 62
     7
 10
2801.878120155214
 20
492.7337419731038
 30
0.0
 40
0.025
  0
CIRCLE
  5
DE
  8
回08-記事
  6
CONTINUOUS
 62
     7
 10
2801.878120155214
 20
488.7337419731037
 30
0.0
 40
0.025
  0
CIRCLE
  5
DF
  8
回08-記事
  6
CONTINUOUS
 62
     7
 10
2801.878120155214
 20
484.7337419731037
 30
0.0
 40
0.025
  0
CIRCLE
  5
E0
  8
回08-記事
  6
CONTINUOUS
 62
     7
 10
2801.878120155214
 20
480.7337419731037
 30
0.0
 40
0.025
  0
CIRCLE
  5
E1
  8
回08-記事
  6
CONTINUOUS
 62
     7
 10
2801.878120155214
 20
476.7337419731037
 30
0.0
 40
0.025
  0
CIRCLE
  5
E2
  8
回08-記事
  6
CONTINUOUS
 62
     7
 10
2801.878120155214
 20
472.7337419731037
 30
0.0
 40
0.025
  0
CIRCLE
  5
E3
  8
回08-記事
  6
CONTINUOUS
 62
     7
 10
2801.878120155214
 20
468.7337419731037
 30
0.0
 40
0.025
  0
CIRCLE
  5
E4
  8
回08-記事
  6
CONTINUOUS
 62
     7
 10
2801.878120155214
 20
464.7337419731037
 30
0.0
 40
0.025
  0
CIRCLE
  5
E5
  8
回08-記事
  6
CONTINUOUS
 62
     7
 10
2801.878120155214
 20
460.7337419731037
 30
0.0
 40
0.025
  0
CIRCLE
  5
E6
  8
回08-記事
  6
CONTINUOUS
 62
     7
 10
2801.878120155214
 20
456.7337419731038
 30
0.0
 40
0.025
  0
CIRCLE
  5
E7
  8
回08-記事
  6
CONTINUOUS
 62
     7
 10
2797.878120155214
 20
492.7337419731038
 30
0.0
 40
0.025
  0
CIRCLE
  5
E8
  8
回08-記事
  6
CONTINUOUS
 62
     7
 10
2797.878120155214
 20
488.7337419731037
 30
0.0
 40
0.025
  0
CIRCLE
  5
E9
  8
回08-記事
  6
CONTINUOUS
 62
     7
 10
2797.878120155214
 20
484.7337419731037
 30
0.0
 40
0.025
  0
CIRCLE
  5
EA
  8
回08-記事
  6
CONTINUOUS
 62
     7
 10
2797.878120155214
 20
480.7337419731037
 30
0.0
 40
0.025
  0
CIRCLE
  5
EB
  8
回08-記事
  6
CONTINUOUS
 62
     7
 10
2797.878120155214
 20
476.7337419731037
 30
0.0
 40
0.025
  0
CIRCLE
  5
EC
  8
回08-記事
  6
CONTINUOUS
 62
     7
 10
2797.878120155214
 20
472.7337419731037
 30
0.0
 40
0.025
  0
CIRCLE
  5
ED
  8
回08-記事
  6
CONTINUOUS
 62
     7
 10
2797.878120155214
 20
468.7337419731037
 30
0.0
 40
0.025
  0
CIRCLE
  5
EE
  8
回08-記事
  6
CONTINUOUS
 62
     7
 10
2797.878120155214
 20
464.7337419731037
 30
0.0
 40
0.025
  0
CIRCLE
  5
EF
  8
回08-記事
  6
CONTINUOUS
 62
     7
 10
2797.878120155214
 20
460.7337419731037
 30
0.0
 40
0.025
  0
CIRCLE
  5
F0
  8
回08-記事
  6
CONTINUOUS
 62
     7
 10
2797.878120155214
 20
456.7337419731038
 30
0.0
 40
0.025
  0
CIRCLE
  5
F1
  8
回08-記事
  6
CONTINUOUS
 62
     7
 10
2793.878120155214
 20
492.7337419731038
 30
0.0
 40
0.025
  0
CIRCLE
  5
F2
  8
回08-記事
  6
CONTINUOUS
 62
     7
 10
2793.878120155214
 20
488.7337419731037
 30
0.0
 40
0.025
  0
CIRCLE
  5
F3
  8
回08-記事
  6
CONTINUOUS
 62
     7
 10
2793.878120155214
 20
484.7337419731037
 30
0.0
 40
0.025
  0
CIRCLE
  5
F4
  8
回08-記事
  6
CONTINUOUS
 62
     7
 10
2793.878120155214
 20
480.7337419731037
 30
0.0
 40
0.025
  0
CIRCLE
  5
F5
  8
回08-記事
  6
CONTINUOUS
 62
     7
 10
2793.878120155214
 20
476.7337419731037
 30
0.0
 40
0.025
  0
CIRCLE
  5
F6
  8
回08-記事
  6
CONTINUOUS
 62
     7
 10
2793.878120155214
 20
472.7337419731037
 30
0.0
 40
0.025
  0
CIRCLE
  5
F7
  8
回08-記事
  6
CONTINUOUS
 62
     7
 10
2793.878120155214
 20
468.7337419731037
 30
0.0
 40
0.025
  0
CIRCLE
  5
F8
  8
回08-記事
  6
CONTINUOUS
 62
     7
 10
2793.878120155214
 20
464.7337419731037
 30
0.0
 40
0.025
  0
CIRCLE
  5
F9
  8
回08-記事
  6
CONTINUOUS
 62
     7
 10
2793.878120155214
 20
460.7337419731037
 30
0.0
 40
0.025
  0
CIRCLE
  5
FA
  8
回08-記事
  6
CONTINUOUS
 62
     7
 10
2793.878120155214
 20
456.7337419731038
 30
0.0
 40
0.025
  0
LINE
  5
FB
  8
回08-記事
  6
CENTER2
 62
     7
 10
2793.878120155214
 20
558.6237419731037
 30
0.0
 11
2793.878120155214
 21
426.8437419731035
 31
0.0
  0
LINE
  5
FD
  8
回08-記事
  6
CENTER2
 62
     7
 10
2679.268120155214
 20
492.7337419731038
 30
0.0
 11
2908.488120155214
 21
492.7337419731038
 31
0.0
  0
POLYLINE
  5
FE
  8
回08-記事
  6
PHANTOM2
 62
     7
 66
     1
 10
0.0
 20
0.0
 30
0.0
 70
     1
  0
VERTEX
  5
9C0
  8
回08-記事
  6
PHANTOM2
 62
     7
 10
2679.768120155214
 20
427.0437419731033
 30
0.0
  0
VERTEX
  5
9C2
  8
回08-記事
  6
PHANTOM2
 62
     7
 10
2907.788120155213
 20
427.0437419731033
 30
0.0
  0
VERTEX
  5
9C3
  8
回08-記事
  6
PHANTOM2
 62
     7
 10
2907.788120155213
 20
558.4237419731039
 30
0.0
  0
VERTEX
  5
9C4
  8
回08-記事
  6
PHANTOM2
 62
     7
 10
2679.768120155214
 20
558.4237419731039
 30
0.0
  0
SEQEND
  5
9C1
  8
回07-寸法
  6
CONTINUOUS
 62
     7
  0
INSERT
  5
100
  8
回08-記事
  6
CONTINUOUS
 62
     7
 66
     1
  2
*X7676
 10
0.0
 20
0.0
 30
0.0
1001
ACAD
1000
HATCH
1002
{
1070
    19
1000
ANSI31
1040
0.5
1040
6.283185307179585
1000
ASC_BOUNDS
1070
     1
1070
     2
1070
     1
1005
101
1000
ASC_SEEDPOINT
1011
2923.772927197104
1021
275.7449387058041
1031
0.0
1000
R14_HATCH_DATA
1000
100
1011
1.0
1021
0.0
1031
0.0
1011
0.0
1021
1.0
1031
0.0
1011
0.0
1021
0.0
1031
1.0
1040
0.0
1010
0.0
1020
0.0
1030
1.0
1000
ANSI31
1070
     0
1070
     1
1071
        1
1071
        1
1071
        4
1070
     1
1040
2678.668120155214
1040
491.4946067869741
1040
2670.468120155215
1040
491.4946067869741
1070
     1
1040
2670.468120155215
1040
491.4946067869741
1040
2670.468120155215
1040
485.494606786974
1070
     1
1040
2670.468120155215
1040
485.494606786974
1040
2678.668120155214
1040
485.494606786974
1070
     1
1040
2678.668120155214
1040
485.494606786974
1040
2678.668120155214
1040
491.4946067869741
1071
        1
1005
101
1070
     0
1070
     1
1040
6.283185307179585
1040
0.5
1070
     0
1070
     1
1040
0.7853981633974481
1040
2923.772927197104
1040
275.7449387058041
1040
-1.122532015133643
1040
1.122532015133643
1070
     0
1071
        1
1040
2923.772927197104
1040
275.7449387058041
1040
0.0
1002
}
  0
SEQEND
  5
66E
  8
回07-寸法
  6
CONTINUOUS
 62
     7
  0
POLYLINE
  5
101
  8
回08-記事
  6
CONTINUOUS
 62
     7
 66
     1
 10
0.0
 20
0.0
 30
0.0
 70
     1
1001
ACAD
1000
ASC_BOUNDS
1002
{
1070
    19
1005
100
1002
}
  0
VERTEX
  5
9C5
  8
回08-記事
  6
CONTINUOUS
 62
     7
 10
2678.668120155214
 20
491.4946067869741
 30
0.0
  0
VERTEX
  5
9C7
  8
回08-記事
  6
CONTINUOUS
 62
     7
 10
2670.468120155215
 20
491.4946067869741
 30
0.0
  0
VERTEX
  5
9C8
  8
回08-記事
  6
CONTINUOUS
 62
     7
 10
2670.468120155215
 20
485.494606786974
 30
0.0
  0
VERTEX
  5
9C9
  8
回08-記事
  6
CONTINUOUS
 62
     7
 10
2678.668120155214
 20
485.494606786974
 30
0.0
  0
SEQEND
  5
9C6
  8
回07-寸法
  6
CONTINUOUS
 62
     7
  0
POLYLINE
  5
102
  8
回05-ﾃｰﾙ
  6
BYBLOCK
 62
     7
 66
     1
 10
0.0
 20
0.0
 30
0.0
  0
VERTEX
  5
9CA
  8
回05-ﾃｰﾙ
  6
BYBLOCK
 62
     7
 10
2675.068120155215
 20
502.7446067869655
 30
0.0
  0
VERTEX
  5
9CC
  8
回05-ﾃｰﾙ
  6
BYBLOCK
 62
     7
 10
2678.068120155214
 20
502.7446067869655
 30
0.0
  0
VERTEX
  5
9CD
  8
回05-ﾃｰﾙ
  6
BYBLOCK
 62
     7
 10
2678.068120155214
 20
493.2446067869655
 30
0.0
  0
VERTEX
  5
9CE
  8
回05-ﾃｰﾙ
  6
BYBLOCK
 62
     7
 10
2672.568120155214
 20
493.2446067869655
 30
0.0
 42
1.021970931653833
  0
VERTEX
  5
9CF
  8
回05-ﾃｰﾙ
  6
BYBLOCK
 62
     7
 10
2672.58984465222
 20
492.2450789636868
 30
0.0
  0
VERTEX
  5
9D0
  8
回05-ﾃｰﾙ
  6
BYBLOCK
 62
     7
 10
2678.068120155214
 20
492.2446067869655
 30
0.0
  0
VERTEX
  5
9D1
  8
回05-ﾃｰﾙ
  6
BYBLOCK
 62
     7
 10
2678.068120155214
 20
482.7446067869654
 30
0.0
  0
VERTEX
  5
9D2
  8
回05-ﾃｰﾙ
  6
BYBLOCK
 62
     7
 10
2675.068120155215
 20
482.7446067869654
 30
0.0
 42
0.4142135623730951
  0
VERTEX
  5
9D3
  8
回05-ﾃｰﾙ
  6
BYBLOCK
 62
     7
 10
2673.068120155214
 20
484.7446067869658
 30
0.0
  0
VERTEX
  5
9D4
  8
回05-ﾃｰﾙ
  6
BYBLOCK
 62
     7
 10
2670.380363832555
 20
484.7446067869658
 30
0.0
 42
-0.1982610926034393
  0
VERTEX
  5
9D5
  8
回05-ﾃｰﾙ
  6
BYBLOCK
 62
     7
 10
2669.675031464037
 20
485.0357300346872
 30
0.0
  0
VERTEX
  5
9D6
  8
回05-ﾃｰﾙ
  6
BYBLOCK
 62
     7
 10
2665.364751223858
 20
489.3244588736641
 30
0.0
 42
0.1982460661155559
  0
VERTEX
  5
9D7
  8
回05-ﾃｰﾙ
  6
BYBLOCK
 62
     7
 10
2664.659476688202
 20
489.6155821197138
 30
0.0
  0
VERTEX
  5
9D8
  8
回05-ﾃｰﾙ
  6
BYBLOCK
 62
     7
 10
2595.068076644447
 20
489.6196067869658
 30
0.0
 42
-0.4142135623730951
  0
VERTEX
  5
9D9
  8
回05-ﾃｰﾙ
  6
BYBLOCK
 62
     7
 10
2594.568076644447
 20
490.1196067869658
 30
0.0
  0
VERTEX
  5
9DA
  8
回05-ﾃｰﾙ
  6
BYBLOCK
 62
     7
 10
2594.568076644447
 20
495.3696067869655
 30
0.0
 42
-0.4142135623730951
  0
VERTEX
  5
9DB
  8
回05-ﾃｰﾙ
  6
BYBLOCK
 62
     7
 10
2595.068076644447
 20
495.8696067869658
 30
0.0
  0
VERTEX
  5
9DC
  8
回05-ﾃｰﾙ
  6
BYBLOCK
 62
     7
 10
2664.656857586437
 20
495.8696067869658
 30
0.0
 42
0.1983816813358623
  0
VERTEX
  5
9DD
  8
回05-ﾃｰﾙ
  6
BYBLOCK
 62
     7
 10
2665.362518869528
 20
496.1610574566111
 30
0.0
  0
VERTEX
  5
9DE
  8
回05-ﾃｰﾙ
  6
BYBLOCK
 62
     7
 10
2669.670975867723
 20
500.4519531829099
 30
0.0
 42
-0.1982655609048175
  0
VERTEX
  5
9DF
  8
回05-ﾃｰﾙ
  6
BYBLOCK
 62
     7
 10
2670.376190246849
 20
500.743403752694
 30
0.0
  0
VERTEX
  5
9E0
  8
回05-ﾃｰﾙ
  6
BYBLOCK
 62
     7
 10
2673.069013963147
 20
500.7446071864118
 30
0.0
 42
0.4140826732844626
  0
VERTEX
  5
9E1
  8
回05-ﾃｰﾙ
  6
BYBLOCK
 62
     7
 10
2675.068120155215
 20
502.7446069866892
 30
0.0
  0
SEQEND
  5
9CB
  8
回07-寸法
  6
CONTINUOUS
 62
     7
  0
POLYLINE
  5
106
  8
回08-記事
  6
CONTINUOUS
 62
     7
 66
     1
 10
0.0
 20
0.0
 30
0.0
 70
     1
  0
VERTEX
  5
9E2
  8
回08-記事
  6
CONTINUOUS
 62
     7
 10
2682.268120155214
 20
429.8437419731034
 30
0.0
  0
VERTEX
  5
9E4
  8
回08-記事
  6
CONTINUOUS
 62
     7
 10
2905.488120155215
 20
429.8437419731034
 30
0.0
  0
VERTEX
  5
9E5
  8
回08-記事
  6
CONTINUOUS
 62
     7
 10
2905.488120155215
 20
555.6237419731037
 30
0.0
  0
VERTEX
  5
9E6
  8
回08-記事
  6
CONTINUOUS
 62
     7
 10
2682.268120155214
 20
555.6237419731037
 30
0.0
  0
SEQEND
  5
9E3
  8
回07-寸法
  6
CONTINUOUS
 62
     7
  0
POLYLINE
  5
107
  8
回08-記事
  6
CONTINUOUS
 62
     7
 66
     1
 10
0.0
 20
0.0
 30
0.0
 70
     1
  0
VERTEX
  5
9E7
  8
回08-記事
  6
CONTINUOUS
 62
     7
 10
2680.268120155214
 20
427.8437419731035
 30
0.0
  0
VERTEX
  5
9E9
  8
回08-記事
  6
CONTINUOUS
 62
     7
 10
2907.488120155214
 20
427.8437419731035
 30
0.0
  0
VERTEX
  5
9EA
  8
回08-記事
  6
CONTINUOUS
 62
     7
 10
2907.488120155214
 20
557.6237419731037
 30
0.0
  0
VERTEX
  5
9EB
  8
回08-記事
  6
CONTINUOUS
 62
     7
 10
2680.268120155214
 20
557.6237419731037
 30
0.0
  0
SEQEND
  5
9E8
  8
回07-寸法
  6
CONTINUOUS
 62
     7
  0
POLYLINE
  5
108
  8
回04-下接
  6
CONTINUOUS
 62
     7
 66
     1
 10
0.0
 20
0.0
 30
0.0
 70
     1
  0
VERTEX
  5
9EC
  8
回04-下接
  6
CONTINUOUS
 62
     7
 10
2674.568120155214
 20
421.2337419731039
 30
0.0
  0
VERTEX
  5
9EE
  8
回04-下接
  6
CONTINUOUS
 62
     7
 10
2909.568120155214
 20
421.2337419731039
 30
0.0
  0
VERTEX
  5
9EF
  8
回04-下接
  6
CONTINUOUS
 62
     7
 10
2909.568120155214
 20
564.2337419731037
 30
0.0
  0
VERTEX
  5
9F0
  8
回04-下接
  6
CONTINUOUS
 62
     7
 10
2674.568120155214
 20
564.2337419731037
 30
0.0
  0
SEQEND
  5
9ED
  8
回07-寸法
  6
CONTINUOUS
 62
     7
  0
TEXT
  5
10C
  8
回03-記事
  6
CONTINUOUS
 62
     7
 10
2999.178403655838
 20
543.737997336307
 30
0.0
 40
8.0
  1
Pin Assignment
  0
TEXT
  5
10D
  8
回02-寸法
  6
CONTINUOUS
 62
     5
 10
2948.329447818451
 20
565.7260635933844
 30
0.0
 40
4.0
  1
(Insulation Area)
 50
90.0
  0
TEXT
  5
110
  8
回02-寸法
  6
CONTINUOUS
 62
     5
 10
2912.115369979673
 20
612.0747848394594
 30
0.0
 40
4.0
  1
(Insulation Area)
  0
TEXT
  5
111
  8
回03-記事
  6
CONTINUOUS
 62
     5
 10
2554.113675097863
 20
383.8892048328375
 30
0.0
 40
4.0
  1
Trace Expose
1001
ACAD
1000
MTEXTBEGIN
1070
    73
1070
     1
1070
    44
1040
1.0
1070
    74
1070
     0
1000
MTEXTEND
  0
INSERT
  5
112
  8
回03-記事
  6
CONTINUOUS
 62
     8
 66
     1
  2
*X7777
 10
0.0
 20
0.0
 30
0.0
  0
SEQEND
  5
6A1
  8
回07-寸法
  6
CONTINUOUS
 62
     7
  0
TEXT
  5
114
  8
回03-記事
  6
CONTINUOUS
 62
     5
 10
2602.087539291254
 20
501.9932149004339
 30
0.0
 40
3.0
  1
A
1001
ACAD
1000
MTEXTBEGIN
1070
    73
1070
     1
1070
    44
1040
1.0
1070
    74
1070
     0
1000
MTEXTEND
  0
INSERT
  5
115
  8
回03-記事
  6
CONTINUOUS
 62
     7
 66
     1
  2
*X7878
 10
0.0
 20
0.0
 30
0.0
  0
SEQEND
  5
6A8
  8
回07-寸法
  6
CONTINUOUS
 62
     7
  0
CIRCLE
  5
116
  8
回03-記事
  6
CONTINUOUS
 62
     5
 10
2594.568076644447
 20
492.7446067869658
 30
0.0
 40
7.742816109002717
  0
TEXT
  5
117
  8
回03-記事
  6
CONTINUOUS
 62
     5
 10
2617.23503029531
 20
455.2047252362654
 30
0.0
 40
4.0
  1
PROTECTION TAPE
1001
ACAD
1000
MTEXTBEGIN
1070
    73
1070
     1
1070
    44
1040
1.0
1070
    74
1070
     0
1000
MTEXTEND
  0
INSERT
  5
118
  8
回03-記事
  6
CONTINUOUS
 62
     5
 66
     1
  2
*X7979
 10
0.0
 20
0.0
 30
0.0
  0
SEQEND
  5
6AF
  8
回07-寸法
  6
CONTINUOUS
 62
     7
  0
TEXT
  5
119
  8
回02-寸法
  6
CONTINUOUS
 62
     5
 10
2657.387369108433
 20
507.3603877526916
 30
0.0
 40
4.0
  1
2-R2
1001
ACAD
1000
MTEXTBEGIN
1070
    73
1070
     1
1070
    44
1040
1.0
1070
    74
1070
     0
1000
MTEXTEND
  0
INSERT
  5
11A
  8
回02-寸法
  6
CONTINUOUS
 62
     5
 66
     1
  2
*X8080
 10
0.0
 20
0.0
 30
0.0
  0
SEQEND
  5
6B6
  8
回07-寸法
  6
CONTINUOUS
 62
     7
  0
TEXT
  5
11C
  8
回02-寸法
 62
     5
 10
2589.398098914237
 20
577.9348186999621
 30
0.0
 40
3.299999999999999
  1
2-R0.5
1001
ACAD
1000
MTEXTBEGIN
1070
    73
1070
     1
1070
    44
1040
1.0
1070
    74
1070
     0
1000
MTEXTEND
  0
INSERT
  5
11D
  8
回02-寸法
 62
     1
 66
     1
  2
*X8181
 10
0.0
 20
0.0
 30
0.0
  0
SEQEND
  5
6BD
  8
回07-寸法
  6
CONTINUOUS
 62
     7
  0
TEXT
  5
11E
  8
回03-記事
  6
CONTINUOUS
 62
     5
 10
2595.312916071201
 20
586.2805425538818
 30
0.0
 40
5.5
  1
SECTION A
  0
LINE
  5
11F
  8
回03-記事
  6
CONTINUOUS
 62
     8
 10
2617.405235131498
 20
572.7862440908542
 30
0.0
 11
2617.405235131498
 21
559.0362440908546
 31
0.0
  0
LINE
  5
120
  8
回03-記事
  6
CONTINUOUS
 62
     7
 10
2603.215657409017
 20
561.7862440908493
 30
0.0
 11
2621.378243542336
 21
561.7862440908493
 31
0.0
  0
LINE
  5
121
  8
回03-記事
  6
CONTINUOUS
 62
     7
 10
2603.215753132706
 20
564.5362440908492
 30
0.0
 11
2621.378243542336
 21
564.5362440908492
 31
0.0
  0
LINE
  5
122
  8
回03-記事
  6
CONTINUOUS
 62
     7
 10
2603.215657409017
 20
570.0362440908492
 30
0.0
 11
2621.378243542336
 21
570.0362440908492
 31
0.0
  0
DIMENSION
  5
123
  8
回02-寸法
  6
CONTINUOUS
 62
     5
  2
*D4040
 10
2582.888059202117
 20
570.0362440908492
 30
0.0
 11
2582.888059202117
 21
548.8795623908489
 31
0.0
 70
   160
  1
3.75{\H0.66667x;±0.1}
  3
DMC
 13
2603.215753132706
 23
561.7862440908493
 33
0.0
 14
2603.215657409017
 24
570.0362440908492
 34
0.0
 50
90.0
1001
ACAD
1000
DSTYLE
1002
{
1070
   170
1070
     1
1070
   271
1070
     3
1070
   272
1070
     3
1070
   371
1070
     9
1070
   372
1070
     9
1002
}
  0
DIMENSION
  5
134
  8
回02-寸法
  6
CONTINUOUS
 62
     5
  2
*D4141
 10
2597.385372383068
 20
561.0162440908498
 30
0.0
 11
2594.885372383068
 21
546.9995910908497
 31
0.0
 70
    32
  1
4-0.7{\H0.83333x;±0.1}
  3
DMC
 13
2606.405139407808
 23
562.5562440908493
 33
0.0
 14
2606.405139407808
 24
561.0162440908498
 34
0.0
 50
90.0
1001
ACAD
1000
DSTYLE
1002
{
1070
   170
1070
     1
1070
   271
1070
     3
1070
   272
1070
     3
1070
   371
1070
     9
1070
   372
1070
     9
1002
}
  0
DIMENSION
  5
145
  8
回02-寸法
  6
CONTINUOUS
 62
     5
  2
*D4242
 10
2589.944271030931
 20
561.7862440908493
 30
0.0
 11
2587.444271030931
 21
549.4358905530567
 31
0.0
 70
    32
  1
1.25{\H0.83333x;±0.2}
  3
DMC
 13
2603.215753132706
 23
564.5362440908492
 33
0.0
 14
2603.215753132706
 24
561.7862440908493
 34
0.0
 50
90.0
1001
ACAD
1000
DSTYLE
1002
{
1070
   170
1070
     1
1070
   271
1070
     3
1070
   272
1070
     3
1070
   371
1070
     9
1070
   372
1070
     9
1002
}
  0
POLYLINE
  5
156
  8
回03-記事
  6
CONTINUOUS
 62
     8
 66
     1
 10
0.0
 20
0.0
 30
0.0
 40
1.54
 41
1.54
  0
VERTEX
  5
9F1
  8
回03-記事
  6
CONTINUOUS
 62
     8
 10
2606.405139407808
 20
567.2862440908492
 30
0.0
  0
VERTEX
  5
9F3
  8
回03-記事
  6
CONTINUOUS
 62
     8
 10
2617.405235131498
 20
567.2862440908492
 30
0.0
  0
SEQEND
  5
9F2
  8
回07-寸法
  6
CONTINUOUS
 62
     7
  0
POLYLINE
  5
157
  8
回03-記事
  6
CONTINUOUS
 62
     8
 66
     1
 10
0.0
 20
0.0
 30
0.0
 40
1.54
 41
1.54
  0
VERTEX
  5
9F4
  8
回03-記事
  6
CONTINUOUS
 62
     8
 10
2606.405139407808
 20
570.0362440908492
 30
0.0
  0
VERTEX
  5
9F6
  8
回03-記事
  6
CONTINUOUS
 62
     8
 10
2617.405235131498
 20
570.0362440908492
 30
0.0
  0
SEQEND
  5
9F5
  8
回07-寸法
  6
CONTINUOUS
 62
     7
  0
POLYLINE
  5
158
  8
回03-記事
  6
CONTINUOUS
 62
     8
 66
     1
 10
0.0
 20
0.0
 30
0.0
 40
1.54
 41
1.54
  0
VERTEX
  5
9F7
  8
回03-記事
  6
CONTINUOUS
 62
     8
 10
2606.405139407808
 20
561.7862440908493
 30
0.0
  0
VERTEX
  5
9F9
  8
回03-記事
  6
CONTINUOUS
 62
     8
 10
2617.405235131498
 20
561.7862440908493
 30
0.0
  0
SEQEND
  5
9F8
  8
回07-寸法
  6
CONTINUOUS
 62
     7
  0
POLYLINE
  5
159
  8
回03-記事
  6
CONTINUOUS
 62
     8
 66
     1
 10
0.0
 20
0.0
 30
0.0
 40
1.54
 41
1.54
  0
VERTEX
  5
9FA
  8
回03-記事
  6
CONTINUOUS
 62
     8
 10
2606.405139407808
 20
564.5362440908492
 30
0.0
  0
VERTEX
  5
9FC
  8
回03-記事
  6
CONTINUOUS
 62
     8
 10
2617.405235131498
 20
564.5362440908492
 30
0.0
  0
SEQEND
  5
9FB
  8
回07-寸法
  6
CONTINUOUS
 62
     7
  0
LINE
  5
15A
  8
回03-記事
  6
CONTINUOUS
 62
     8
 10
2607.505235131498
 20
559.0362440908546
 30
0.0
 11
2633.630964327868
 21
559.0362440908546
 31
0.0
  0
LINE
  5
15B
  8
回03-記事
  6
CONTINUOUS
 62
     8
 10
2606.405235131497
 20
571.6862440908547
 30
0.0
 11
2606.405235131497
 21
560.1362440908554
 31
0.0
  0
ARC
  5
15C
  8
回03-記事
  6
CONTINUOUS
 62
     8
 10
2607.505235131498
 20
560.1362440908554
 30
0.0
 40
1.1
 50
180.0
 51
270.0
  0
ARC
  5
15D
  8
回03-記事
  6
CONTINUOUS
 62
     8
 10
2607.505235131498
 20
571.6862440908547
 30
0.0
 40
1.1
 50
90.0
 51
180.0
  0
LINE
  5
15E
  8
回03-記事
  6
CONTINUOUS
 62
     8
 10
2607.505235131498
 20
572.7862440908542
 30
0.0
 11
2633.630964327868
 21
572.7862440908542
 31
0.0
  0
DIMENSION
  5
15F
  8
回02-寸法
  6
CONTINUOUS
 62
     5
  2
*D4343
 10
2575.144115015755
 20
559.0362440908552
 30
0.0
 11
2572.644115015755
 21
547.0357992447
 31
0.0
 70
    32
  1
6.25{\H0.6667x;±0.2}
  3
DMC
 13
2607.505235131498
 23
572.7862440908542
 33
0.0
 14
2607.505235131498
 24
559.0362440908552
 34
0.0
 50
90.0
1001
ACAD
1000
DSTYLE
1002
{
1070
   170
1070
     1
1070
   271
1070
     3
1070
   272
1070
     3
1070
   371
1070
     9
1070
   372
1070
     9
1002
}
  0
LINE
  5
170
  8
回04-図面枠
  6
CONTINUOUS
 62
     7
 10
3073.634714615418
 20
279.6752248068429
 30
0.0
 11
3073.634714615418
 21
292.8752248068427
 31
0.0
  0
LINE
  5
172
  8
回04-図面枠
  6
CENTER2
 62
     7
 10
3080.521693147705
 20
281.5350710503776
 30
0.0
 11
3080.521693147705
 21
290.7751512385185
 31
0.0
  0
LINE
  5
173
  8
回04-図面枠
  6
CONTINUOUS
 62
     7
 10
3086.813464105622
 20
284.2042625021372
 30
0.0
 11
3093.638926905919
 21
282.4668296954492
 31
0.0
  0
LINE
  5
174
  8
回04-図面枠
  6
CONTINUOUS
 62
     7
 10
3086.813464105622
 20
288.1059597867584
 30
0.0
 11
3093.638926905919
 21
289.8433925934473
 31
0.0
  0
LINE
  5
175
  8
回04-図面枠
  6
CONTINUOUS
 62
     7
 10
3093.638926905919
 20
289.8433925934473
 30
0.0
 11
3093.638926905919
 21
282.4668296954492
 31
0.0
  0
LINE
  5
176
  8
回04-図面枠
  6
CONTINUOUS
 62
     7
 10
3086.813464105622
 20
288.1059597867584
 30
0.0
 11
3086.813464105622
 21
284.2042625021372
 31
0.0
  0
LINE
  5
177
  8
回04-図面枠
  6
CENTER2
 62
     7
 10
3076.285807455602
 20
286.1551111444482
 30
0.0
 11
3094.243856292401
 21
286.1551111444482
 31
0.0
  0
CIRCLE
  5
178
  8
回04-図面枠
  6
CONTINUOUS
 62
     7
 10
3080.521693147705
 20
286.1551111444482
 30
0.0
 40
1.950848642310722
  0
CIRCLE
  5
179
  8
回04-図面枠
  6
CONTINUOUS
 62
     7
 10
3080.521693147705
 20
286.1551111444482
 30
0.0
 40
3.688281448998441
  0
TEXT
  5
17A
  8
回03-記事
  6
CONTINUOUS
 62
     7
 10
3028.764713150312
 20
336.3525998295313
 30
0.0
 40
4.451266068479998
  1
PROTECTION TAPE
  0
TEXT
  5
17B
  8
回03-記事
  6
CONTINUOUS
 62
     7
 10
3021.814529357393
 20
336.3290833248261
 30
0.0
 40
4.629316711219201
  1
6
  0
LINE
  5
17C
  8
回03-記事
  6
CONTINUOUS
 62
     7
 10
3019.449386356852
 20
334.9998743819374
 30
0.0
 11
3088.41167385678
 21
334.9998743819374
 31
0.0
  0
TEXT
  5
17D
  8
回03-記事
  6
CONTINUOUS
 62
     7
 10
3028.199659445629
 20
351.5909452482442
 30
0.0
 40
4.629316711219201
  1
STIFFENER
  0
TEXT
  5
17E
  8
回03-記事
  6
CONTINUOUS
 62
     7
 10
3028.199659445629
 20
343.8754173962129
 30
0.0
 40
4.629316711219201
  1
REINFORCEMENT FILM
  0
TEXT
  5
17F
  8
回03-記事
  6
CONTINUOUS
 62
     7
 10
3046.418412339767
 20
382.7600461642796
 30
0.0
 40
4.629316711219201
  1
ITEM
  0
LINE
  5
180
  8
回03-記事
  6
CONTINUOUS
 62
     7
 10
3088.41167385678
 20
334.9998743819374
 30
0.0
 11
3088.41167385678
 21
389.0085693461615
 31
0.0
  0
TEXT
  5
181
  8
回03-記事
  6
CONTINUOUS
 62
     7
 10
3021.814529357393
 20
359.4756668809197
 30
0.0
 40
4.629316711219201
  1
3
  0
TEXT
  5
182
  8
回03-記事
  6
CONTINUOUS
 62
     7
 10
3021.814529357393
 20
351.7601390288896
 30
0.0
 40
4.629316711219201
  1
4
  0
TEXT
  5
183
  8
回03-記事
  6
CONTINUOUS
 62
     7
 10
3021.814529357393
 20
367.1911947329558
 30
0.0
 40
4.629316711219201
  1
2
  0
TEXT
  5
184
  8
回03-記事
  6
CONTINUOUS
 62
     7
 10
3021.814529357393
 20
344.0446111768583
 30
0.0
 40
4.629316711219201
  1
5
  0
LINE
  5
185
  8
回03-記事
  6
CONTINUOUS
 62
     7
 10
3027.477090963509
 20
389.0085693461615
 30
0.0
 11
3027.477090963509
 21
334.9998743819374
 31
0.0
  0
LINE
  5
186
  8
回03-記事
  6
CONTINUOUS
 62
     7
 10
3019.449386356852
 20
389.0085693461615
 30
0.0
 11
3019.449386356852
 21
334.9998743819374
 31
0.0
  0
TEXT
  5
187
  8
回03-記事
  6
CONTINUOUS
 62
     7
 10
3021.814529357393
 20
374.9067225849854
 30
0.0
 40
4.629316711219201
  1
1
  0
LINE
  5
188
  8
回03-記事
  6
CONTINUOUS
 62
     7
 10
3019.449386356852
 20
342.7154022339696
 30
0.0
 11
3088.41167385678
 21
342.7154022339696
 31
0.0
  0
LINE
  5
189
  8
回03-記事
  6
CONTINUOUS
 62
     7
 10
3019.449386356852
 20
389.0085693461615
 30
0.0
 11
3088.41167385678
 21
389.0085693461615
 31
0.0
  0
LINE
  5
18A
  8
回03-記事
  6
CONTINUOUS
 62
     7
 10
3019.449386356852
 20
373.5775136420993
 30
0.0
 11
3088.41167385678
 21
373.5775136420944
 31
0.0
  0
LINE
  5
18B
  8
回03-記事
  6
CONTINUOUS
 62
     7
 10
3019.449386356852
 20
381.2930414941306
 30
0.0
 11
3088.41167385678
 21
381.2930414941306
 31
0.0
  0
LINE
  5
18C
  8
回03-記事
  6
CONTINUOUS
 62
     7
 10
3019.449386356852
 20
350.4309300860027
 30
0.0
 11
3088.41167385678
 21
350.4309300860027
 31
0.0
  0
LINE
  5
18D
  8
回03-記事
  6
CONTINUOUS
 62
     7
 10
3019.449386356852
 20
358.146457938034
 30
0.0
 11
3088.41167385678
 21
358.146457938034
 31
0.0
  0
LINE
  5
18E
  8
回03-記事
  6
CONTINUOUS
 62
     7
 10
3019.449386356852
 20
365.8619857900662
 30
0.0
 11
3088.41167385678
 21
365.8619857900662
 31
0.0
  0
TEXT
  5
18F
  8
回03-記事
  6
CONTINUOUS
 62
     7
 10
3028.199659445629
 20
374.8074153025878
 30
0.0
 40
4.629316711219201
  1
ITO FILM
  0
TEXT
  5
190
  8
回03-記事
  6
CONTINUOUS
 62
     7
 10
3028.199659445629
 20
367.0918874505547
 30
0.0
 40
4.629316711219201
  1
ITO GLASS
  0
TEXT
  5
191
  8
回03-記事
  6
CONTINUOUS
 62
     7
 10
3028.199659445629
 20
359.3763595985202
 30
0.0
 40
4.629316711219201
  1
TAIL
  0
TEXT
  5
192
  8
回04-図面枠
 62
     7
 10
3020.353022171398
 20
299.154872998769
 30
0.0
 40
6.599999999999998
  1
Sep/08/2023
 72
     1
 11
3046.093022171398
 21
299.154872998769
 31
0.0
  0
TEXT
  5
193
  8
回04-図面枠
  6
CONTINUOUS
 62
     7
 10
3039.427985910306
 20
313.5949297273902
 30
0.0
 40
3.959999999999998
  1
DATE
  0
TEXT
  5
194
  8
回04-図面枠
 62
     7
 10
3009.201241626453
 20
283.0249991519368
 30
0.0
 40
6.599999999999998
  1
DMC Co., Ltd.
 72
     1
 11
3035.436241626454
 21
283.0249991519368
 31
0.0
  0
TEXT
  5
195
  8
回04-図面枠
 62
     7
 10
2913.436352473661
 20
302.7645093045489
 30
0.0
 40
6.599999999999998
  1
LST-101WB080A/WS
 72
     1
 11
2953.693022171398
 21
302.7645093045489
 31
0.0
  0
TEXT
  5
196
  8
回04-図面枠
 62
     7
 10
2941.219022171398
 20
313.9255986604021
 30
0.0
 40
3.959999999999998
  1
PART　No.
 72
     1
 11
2953.693022171398
 21
313.9255986604021
 31
0.0
  0
LINE
  5
197
  8
回04-図面枠
 62
     7
 10
2914.753022171399
 20
286.2752248068428
 30
0.0
 11
2992.633022171398
 21
286.2752248068428
 31
0.0
  0
TEXT
  5
198
  8
回04-図面枠
 62
     7
 10
2922.805022171398
 20
287.7932653722723
 30
0.0
 40
3.959999999999998
  1
STANDARD TOUCHSCREEN
 72
     1
 11
2953.693022171398
 21
287.7932653722723
 31
0.0
  0
TEXT
  5
199
  8
回04-図面枠
 62
     7
 10
2931.715022171398
 20
281.1932653722724
 30
0.0
 40
3.959999999999998
  1
CIRCUIT　DRAWING
 72
     1
 11
2953.693022171398
 21
281.1932653722724
 31
0.0
  0
LINE
  5
19A
  8
回04-図面枠
 62
     7
 10
2996.593022171399
 20
319.2752248068428
 30
0.0
 11
2996.593022171399
 21
279.6752248068429
 31
0.0
  0
TEXT
  5
19B
  8
回04-図面枠
 62
     7
 10
2947.357022171398
 20
293.8568027970823
 30
0.0
 40
3.959999999999998
  1
TYPE
 72
     1
 11
2953.693022171398
 21
293.8568027970823
 31
0.0
  0
LINE
  5
19C
  8
回04-図面枠
 62
     7
 10
2910.793022171399
 20
319.2752248068428
 30
0.0
 11
2910.793022171399
 21
279.6752248068429
 31
0.0
  0
LINE
  5
19D
  8
回04-図面枠
 62
     7
 10
2910.793022171399
 20
299.475224806843
 30
0.0
 11
2996.593022171399
 21
299.475224806843
 31
0.0
  0
LINE
  5
19E
  8
回04-図面枠
 62
     7
 10
2910.793022171399
 20
292.8752248068427
 30
0.0
 11
3095.593022171398
 21
292.8752248068427
 31
0.0
  0
LINE
  5
19F
  8
回04-図面枠
 62
     7
 10
2910.793022171399
 20
319.2752248068428
 30
0.0
 11
3095.593022171398
 21
319.2752248068428
 31
0.0
  0
LINE
  5
1A0
  8
回04-図面枠
 62
     7
 10
2910.793022171399
 20
312.6752248068428
 30
0.0
 11
3095.593022171398
 21
312.6752248068428
 31
0.0
  0
POLYLINE
  5
1A1
  8
回01-TP外形
  6
CONTINUOUS
 62
     7
 66
     1
 10
0.0
 20
0.0
 30
0.0
 70
     1
  0
VERTEX
  5
9FD
  8
回01-TP外形
  6
CONTINUOUS
 62
     7
 10
2665.588120155215
 20
373.9516631025076
 30
0.0
  0
VERTEX
  5
9FF
  8
回01-TP外形
  6
CONTINUOUS
 62
     7
 10
2674.568120155214
 20
373.9516631025076
 30
0.0
  0
VERTEX
  5
A00
  8
回01-TP外形
  6
CONTINUOUS
 62
     7
 10
2674.568120155214
 20
372.4516631025076
 30
0.0
  0
VERTEX
  5
A01
  8
回01-TP外形
  6
CONTINUOUS
 62
     7
 10
2665.588120155215
 20
372.4516631025076
 30
0.0
  0
SEQEND
  5
9FE
  8
回07-寸法
  6
CONTINUOUS
 62
     7
  0
ARC
  5
1A3
  8
回01-TP外形
  6
CONTINUOUS
 62
     7
 10
2901.368120155213
 20
373.9516631025076
 30
0.0
 40
0.5
 50
0.0
 51
180.0
  0
ARC
  5
1A4
  8
回01-TP外形
  6
CONTINUOUS
 62
     7
 10
2897.368120155215
 20
373.9516631025076
 30
0.0
 40
0.5
 50
0.0
 51
180.0
  0
ARC
  5
1A5
  8
回01-TP外形
  6
CONTINUOUS
 62
     7
 10
2893.368120155214
 20
373.9516631025076
 30
0.0
 40
0.5
 50
0.0
 51
180.0
  0
ARC
  5
1A6
  8
回01-TP外形
  6
CONTINUOUS
 62
     7
 10
2885.368120155213
 20
373.9516631025076
 30
0.0
 40
0.5
 50
0.0
 51
180.0
  0
ARC
  5
1A7
  8
回01-TP外形
  6
CONTINUOUS
 62
     7
 10
2889.368120155215
 20
373.9516631025076
 30
0.0
 40
0.5
 50
0.0
 51
180.0
  0
DIMENSION
  5
1A8
  8
回02-寸法
  6
CONTINUOUS
 62
     7
  2
*D4444
 10
2669.967617642652
 20
481.2394065392767
 30
0.0
 11
2659.83326733744
 21
481.2394065392767
 31
0.0
 70
   160
  3
KOUSA
 13
2674.568120155214
 23
484.0674824424981
 33
0.0
 14
2669.967617642652
 24
484.8337607062688
 34
0.0
1001
ACAD
1000
DSTYLE
1002
{
1070
    71
1070
     0
1070
   288
1070
     0
1070
   341
1005
0
1002
}
  0
DIMENSION
  5
1B9
  8
回02-寸法
 62
     7
  2
*D4545
 10
2584.425031596275
 20
489.6196067869658
 30
0.0
 11
2584.425031596275
 21
508.7036894641308
 31
0.0
 70
   160
  1
<>
  3
KOUSA
 13
2595.068076644447
 23
495.8696067869658
 33
0.0
 14
2595.068076644447
 24
489.6196067869658
 34
0.0
 50
90.0
1001
ACAD
1000
DSTYLE
1002
{
1070
    47
1040
0.2
1070
   147
1040
0.5
1070
    48
1040
0.2
1070
    72
1070
     0
1070
    71
1070
     1
1070
   288
1070
     0
1070
   341
1005
0
1002
}
  0
DIMENSION
  5
1CA
  8
回02-寸法
  6
CONTINUOUS
 62
     7
  2
*D4646
 10
2665.072189035187
 20
473.5763766022901
 30
0.0
 11
2656.865082254001
 21
473.5763766022901
 31
0.0
 70
   160
  3
KOUSA
 13
2674.568120155214
 23
484.0674824424981
 33
0.0
 14
2665.072189035187
 24
489.5264173307569
 34
0.0
1001
ACAD
1000
DSTYLE
1002
{
1070
    71
1070
     0
1070
   288
1070
     0
1070
   341
1005
0
1002
}
  0
DIMENSION
  5
1DB
  8
回02-寸法
  6
CONTINUOUS
 62
     7
  2
*D4747
 10
2594.568076644447
 20
517.6499874422325
 30
0.0
 11
2634.568098399831
 21
520.1499874422323
 31
0.0
 70
    32
  3
STANDARD
 13
2674.568120155214
 23
501.4217313311563
 33
0.0
 14
2594.568076644447
 24
495.3696067869655
 34
0.0
1001
ACAD
1000
DSTYLE
1002
{
1070
   147
1040
0.5
1070
    72
1070
     0
1070
    71
1070
     1
1070
    41
1040
1.5
1070
    47
1040
1.0
1070
    48
1040
1.0
1070
   140
1040
4.0
1070
   141
1040
1.5
1070
   146
1040
0.7
1070
   283
1070
     0
1070
   288
1070
     0
1070
   341
1005
0
1070
   371
1070
    13
1070
   372
1070
    13
1002
}
  0
DIMENSION
  5
1EA
  8
回02-寸法
  6
CONTINUOUS
 62
     7
  2
*D4848
 10
2584.425031596274
 20
421.2337419731039
 30
0.0
 11
2581.723985003431
 21
455.4266743800345
 31
0.0
 70
    32
  3
STANDARD
 13
2595.068076660173
 23
489.6196067869651
 33
0.0
 14
2674.568120155214
 24
421.2337419731039
 34
0.0
 50
90.0
1001
ACAD
1000
DSTYLE
1002
{
1070
     3
1000
(<>)
1070
    41
1040
1.5
1070
    47
1040
0.3
1070
    48
1040
0.3
1070
   140
1040
4.0
1070
   141
1040
1.5
1070
   146
1040
0.7
1070
   283
1070
     0
1070
   288
1070
     0
1070
   341
1005
0
1070
   371
1070
    13
1070
   372
1070
    13
1002
}
  0
DIMENSION
  5
1F9
  8
回02-寸法
  6
CONTINUOUS
 62
     7
  2
*D4949
 10
2647.306432319411
 20
484.7446067869655
 30
0.0
 11
2647.306432319411
 21
478.34539418854
 31
0.0
 70
   160
  3
RUISIN
 13
2670.67619024685
 23
500.743537823897
 33
0.0
 14
2670.680363832555
 24
484.7446067869655
 34
0.0
 50
90.0
1001
ACAD
1000
DSTYLE
1002
{
1070
    47
1040
0.1
1070
    48
1040
0.1
1070
   140
1040
4.0
1070
   146
1040
0.7
1070
   283
1070
     0
1070
   341
1005
0
1070
   371
1070
     9
1070
   372
1070
     9
1002
}
  0
TEXT
  5
20B
  8
回02-寸法
  6
CONTINUOUS
 62
     5
 10
2649.59666392739
 20
502.3290875270308
 30
0.0
 40
4.0
  1
4-R1
1001
ACAD
1000
MTEXTBEGIN
1070
    73
1070
     1
1070
    44
1040
1.0
1070
    74
1070
     0
1000
MTEXTEND
  0
INSERT
  5
20C
  8
回02-寸法
  6
CONTINUOUS
 62
     5
 66
     1
  2
*X8282
 10
0.0
 20
0.0
 30
0.0
  0
SEQEND
  5
6D5
  8
回07-寸法
  6
CONTINUOUS
 62
     7
  0
LINE
  5
20D
  8
回01-TP外形
  6
CONTINUOUS
 62
     7
 10
2909.568120155214
 20
373.9516631025076
 30
0.0
 11
2909.568120155214
 21
380.9516631025076
 31
0.0
  0
LINE
  5
20E
  8
回01-TP外形
  6
CONTINUOUS
 62
     7
 10
2594.568076644447
 20
369.9516631025085
 30
0.0
 11
2594.568076644447
 21
376.9516631025084
 31
0.0
  0
LINE
  5
20F
  8
回03-記事
  6
CONTINUOUS
 62
     7
 10
3052.782172836183
 20
582.0157546052087
 30
0.0
 11
3052.782172836183
 21
621.0157546052087
 31
0.0
  0
LINE
  5
210
  8
回03-記事
  6
CONTINUOUS
 62
     7
 10
3074.232172836184
 20
560.5657546052087
 30
0.0
 11
3074.232172836184
 21
642.4657546052085
 31
0.0
  0
TEXT
  5
211
  8
回03-記事
  6
CONTINUOUS
 62
     7
 10
2989.500461903978
 20
617.9538553863872
 30
0.0
 40
6.240000000000001
  1
3
  0
TEXT
  5
212
  8
回03-記事
  6
CONTINUOUS
 62
     7
 10
2989.143892193922
 20
639.6052564702472
 30
0.0
 40
6.240000000000001
  1
4
  0
LINE
  5
213
  8
回03-記事
  6
CONTINUOUS
 62
     7
 10
3043.110172836184
 20
584.0437546052084
 30
0.0
 11
3045.918172836184
 21
578.4277546052079
 31
0.0
  0
LINE
  5
214
  8
回03-記事
  6
CONTINUOUS
 62
     7
 10
3045.918172836184
 20
578.4277546052079
 30
0.0
 11
3047.712172836184
 21
582.0157546052087
 31
0.0
  0
LINE
  5
215
  8
回03-記事
  6
CONTINUOUS
 62
     7
 10
3037.494172836185
 20
584.0437546052084
 30
0.0
 11
3040.302172836184
 21
578.4277546052079
 31
0.0
  0
LINE
  5
216
  8
回03-記事
  6
CONTINUOUS
 62
     7
 10
3034.686172836184
 20
578.4277546052079
 30
0.0
 11
3037.494172836185
 21
584.0437546052084
 31
0.0
  0
LINE
  5
217
  8
回03-記事
  6
CONTINUOUS
 62
     7
 10
3040.302172836184
 20
578.4277546052079
 30
0.0
 11
3043.110172836184
 21
584.0437546052084
 31
0.0
  0
LINE
  5
218
  8
回03-記事
  6
CONTINUOUS
 62
     7
 10
3026.262172836184
 20
584.0437546052084
 30
0.0
 11
3029.070172836184
 21
578.4277546052079
 31
0.0
  0
LINE
  5
219
  8
回03-記事
  6
CONTINUOUS
 62
     7
 10
3025.794172836184
 20
578.6617546052083
 30
0.0
 11
3031.410172836185
 21
581.4697546052087
 31
0.0
  0
LINE
  5
21A
  8
回03-記事
  6
CONTINUOUS
 62
     7
 10
3025.794172836184
 20
578.6617546052083
 30
0.0
 11
3031.410172836185
 21
575.8537546052092
 31
0.0
  0
LINE
  5
21B
  8
回03-記事
  6
CONTINUOUS
 62
     7
 10
3025.794172836184
 20
573.0457546052083
 30
0.0
 11
3031.410172836185
 21
575.8537546052092
 31
0.0
  0
LINE
  5
21C
  8
回03-記事
  6
CONTINUOUS
 62
     7
 10
3025.794172836184
 20
567.4297546052083
 30
0.0
 11
3031.410172836185
 21
570.2377546052089
 31
0.0
  0
LINE
  5
21D
  8
回03-記事
  6
CONTINUOUS
 62
     7
 10
3025.794172836184
 20
573.0457546052083
 30
0.0
 11
3031.410172836185
 21
570.2377546052089
 31
0.0
  0
LINE
  5
21E
  8
回03-記事
  6
CONTINUOUS
 62
     7
 10
3025.794172836184
 20
584.2777546052083
 30
0.0
 11
3031.410172836185
 21
587.0857546052083
 31
0.0
  0
LINE
  5
21F
  8
回03-記事
  6
CONTINUOUS
 62
     7
 10
3025.794172836184
 20
589.8937546052084
 30
0.0
 11
3031.410172836185
 21
592.7017546052079
 31
0.0
  0
LINE
  5
220
  8
回03-記事
  6
CONTINUOUS
 62
     7
 10
3025.794172836184
 20
589.8937546052084
 30
0.0
 11
3031.410172836185
 21
587.0857546052083
 31
0.0
  0
LINE
  5
221
  8
回03-記事
  6
CONTINUOUS
 62
     7
 10
3025.794172836184
 20
584.2777546052083
 30
0.0
 11
3031.410172836185
 21
581.4697546052087
 31
0.0
  0
LINE
  5
222
  8
回03-記事
  6
CONTINUOUS
 62
     7
 10
3020.646172836184
 20
584.0437546052084
 30
0.0
 11
3023.454172836185
 21
578.4277546052079
 31
0.0
  0
LINE
  5
223
  8
回03-記事
  6
CONTINUOUS
 62
     7
 10
3017.838172836184
 20
578.4277546052079
 30
0.0
 11
3020.646172836184
 21
584.0437546052084
 31
0.0
  0
LINE
  5
224
  8
回03-記事
  6
CONTINUOUS
 62
     7
 10
3013.236172836184
 20
580.4557546052083
 30
0.0
 11
3015.030172836184
 21
584.0437546052084
 31
0.0
  0
LINE
  5
225
  8
回03-記事
  6
CONTINUOUS
 62
     7
 10
3015.030172836184
 20
584.0437546052084
 30
0.0
 11
3017.838172836184
 21
578.4277546052079
 31
0.0
  0
LINE
  5
226
  8
回03-記事
  6
CONTINUOUS
 62
     7
 10
3023.454172836185
 20
578.4277546052079
 30
0.0
 11
3026.262172836184
 21
584.0437546052084
 31
0.0
  0
LINE
  5
227
  8
回03-記事
  6
CONTINUOUS
 62
     7
 10
3028.602172836185
 20
594.1057546052079
 30
0.0
 11
3028.602172836185
 21
598.7857546052082
 31
0.0
  0
LINE
  5
228
  8
回03-記事
  6
CONTINUOUS
 62
     7
 10
3029.070172836184
 20
578.4277546052079
 30
0.0
 11
3031.878172836184
 21
584.0437546052084
 31
0.0
  0
LINE
  5
229
  8
回03-記事
  6
CONTINUOUS
 62
     7
 10
3028.602172836185
 20
594.1057546052079
 30
0.0
 11
3031.410172836185
 21
592.7017546052079
 31
0.0
  0
TEXT
  5
22A
  8
回03-記事
  6
CONTINUOUS
 62
     7
 10
3030.134432734313
 20
599.8142085516879
 30
0.0
 40
5.459999999999999
  1
YU
  0
LINE
  5
22B
  8
回03-記事
  6
CONTINUOUS
 62
     7
 10
3031.878172836184
 20
584.0437546052084
 30
0.0
 11
3034.686172836184
 21
578.4277546052079
 31
0.0
  0
LINE
  5
22C
  8
回03-記事
  6
CONTINUOUS
 62
     7
 10
3028.602172836185
 20
560.5657546052087
 30
0.0
 11
3028.602172836185
 21
566.0257546052084
 31
0.0
  0
LINE
  5
22D
  8
回03-記事
  6
CONTINUOUS
 62
     7
 10
3025.794172836184
 20
567.4297546052083
 30
0.0
 11
3028.602172836185
 21
566.0257546052084
 31
0.0
  0
TEXT
  5
22E
  8
回03-記事
  6
CONTINUOUS
 62
     7
 10
3014.259044670844
 20
562.7898324638672
 30
0.0
 40
5.459999999999999
  1
YD
  0
TEXT
  5
22F
  8
回03-記事
  6
CONTINUOUS
 62
     7
 10
3002.429239661126
 20
582.7429139354535
 30
0.0
 40
5.459999999999999
  1
XL
  0
TEXT
  5
230
  8
回03-記事
  6
CONTINUOUS
 62
     7
 10
2989.742448147568
 20
577.3635543250208
 30
0.0
 40
6.240000000000001
  1
1
  0
TEXT
  5
231
  8
回03-記事
  6
CONTINUOUS
 62
     7
 10
2989.263956852846
 20
596.4128098239375
 30
0.0
 40
6.240000000000001
  1
2
  0
LINE
  5
232
  8
回03-記事
  6
CONTINUOUS
 62
     7
 10
2995.842172836183
 20
598.7857546052082
 30
0.0
 11
3028.602172836185
 21
598.7857546052082
 31
0.0
  0
LINE
  5
233
  8
回03-記事
  6
CONTINUOUS
 62
     7
 10
2995.842172836183
 20
580.4557546052083
 30
0.0
 11
3013.236172836184
 21
580.4557546052083
 31
0.0
  0
LINE
  5
234
  8
回03-記事
  6
CONTINUOUS
 62
     7
 10
3028.602172836185
 20
560.5657546052087
 30
0.0
 11
3074.232172836184
 21
560.5657546052087
 31
0.0
  0
LINE
  5
235
  8
回03-記事
  6
CONTINUOUS
 62
     7
 10
2995.842172836183
 20
642.4657546052085
 30
0.0
 11
3074.232172836184
 21
642.4657546052085
 31
0.0
  0
LINE
  5
236
  8
回03-記事
  6
CONTINUOUS
 62
     7
 10
2995.842172836183
 20
621.0157546052087
 30
0.0
 11
3052.782172836183
 21
621.0157546052087
 31
0.0
  0
LINE
  5
237
  8
回03-記事
  6
CONTINUOUS
 62
     7
 10
3047.712172836184
 20
582.0157546052087
 30
0.0
 11
3052.782172836183
 21
582.0157546052087
 31
0.0
  0
TEXT
  5
238
  8
回03-記事
  6
CONTINUOUS
 62
     7
 10
3048.008791014487
 20
574.0525495279261
 30
0.0
 40
5.459999999999999
  1
XR
  0
LINE
  5
239
  8
回03-記事
  6
CONTINUOUS
 62
     7
 10
2667.121796905018
 20
377.9516631025076
 30
0.0
 11
2664.98911474425
 21
380.8374659617257
 31
0.0
  0
LINE
  5
23A
  8
回03-記事
  6
CONTINUOUS
 62
     7
 10
2667.04438145514
 20
373.3750992782871
 30
0.0
 11
2664.98911474425
 21
380.8374659617257
 31
0.0
  0
LINE
  5
23B
  8
回03-記事
  6
CONTINUOUS
 62
     7
 10
2603.609914391117
 20
371.9002238992825
 30
0.0
 11
2609.954639253486
 21
369.7456961396321
 31
0.0
  0
TEXT
  5
23C
  8
回04-図面枠
 62
     7
 10
3059.322407477051
 20
665.0476479328939
 30
0.0
 40
4.0
  1
H
  0
LINE
  5
23D
  8
回04-図面枠
 62
     7
 10
3025.593022171399
 20
669.6752248068427
 30
0.0
 11
3025.593022171399
 21
664.6752248068427
 31
0.0
  0
LINE
  5
23E
  8
回04-図面枠
 62
     7
 10
2955.593022171399
 20
669.6752248068427
 30
0.0
 11
2955.593022171399
 21
664.6752248068427
 31
0.0
  0
TEXT
  5
23F
  8
回04-図面枠
 62
     7
 10
2919.32240747705
 20
665.0476479328939
 30
0.0
 40
4.0
  1
F
  0
LINE
  5
240
  8
回04-図面枠
 62
     7
 10
2885.593022171399
 20
669.6752248068427
 30
0.0
 11
2885.593022171399
 21
664.6752248068427
 31
0.0
  0
TEXT
  5
241
  8
回04-図面枠
 62
     7
 10
2849.322407477051
 20
665.0476479328939
 30
0.0
 40
4.0
  1
E
  0
TEXT
  5
242
  8
回04-図面枠
 62
     7
 10
2989.322407477051
 20
665.0476479328939
 30
0.0
 40
4.0
  1
G
  0
LINE
  5
243
  8
回04-図面枠
 62
     7
 10
2815.593022171399
 20
669.6752248068427
 30
0.0
 11
2815.593022171399
 21
664.6752248068427
 31
0.0
  0
TEXT
  5
244
  8
回04-図面枠
 62
     7
 10
2779.322407477051
 20
665.0476479328939
 30
0.0
 40
4.0
  1
D
  0
LINE
  5
245
  8
回04-図面枠
 62
     7
 10
2745.593022171398
 20
669.6752248068427
 30
0.0
 11
2745.593022171398
 21
664.6752248068427
 31
0.0
  0
TEXT
  5
246
  8
回04-図面枠
 62
     7
 10
2709.322407477051
 20
665.0476479328939
 30
0.0
 40
4.0
  1
C
  0
LINE
  5
247
  8
回04-図面枠
 62
     7
 10
2675.593022171399
 20
669.6752248068427
 30
0.0
 11
2675.593022171399
 21
664.6752248068427
 31
0.0
  0
TEXT
  5
248
  8
回04-図面枠
 62
     7
 10
2639.322407477051
 20
665.0476479328939
 30
0.0
 40
4.0
  1
B
  0
LINE
  5
249
  8
回04-図面枠
 62
     7
 10
2605.593022171399
 20
669.6752248068427
 30
0.0
 11
2605.593022171399
 21
664.6752248068427
 31
0.0
  0
TEXT
  5
24A
  8
回04-図面枠
 62
     7
 10
2569.322407477051
 20
665.0476479328939
 30
0.0
 40
4.0
  1
A
  0
LINE
  5
24B
  8
回04-図面枠
 62
     7
 10
3100.593022171399
 20
669.6752248068427
 30
0.0
 11
2530.593022171399
 21
669.6752248068427
 31
0.0
  0
LINE
  5
24C
  8
回04-図面枠
 62
     7
 10
2535.593022171398
 20
664.6752248068427
 30
0.0
 11
3095.593022171398
 21
664.6752248068427
 31
0.0
  0
TEXT
  5
24D
  8
回04-図面枠
 62
     7
 10
3096.997443175058
 20
623.9639121027021
 30
0.0
 40
4.0
  1
1
  0
LINE
  5
24E
  8
回04-図面枠
 62
     7
 10
3100.593022171399
 20
587.6752248068426
 30
0.0
 11
3095.593022171398
 21
587.6752248068426
 31
0.0
  0
TEXT
  5
24F
  8
回04-図面枠
 62
     7
 10
3096.695944471756
 20
546.9639121027021
 30
0.0
 40
4.0
  1
2
  0
LINE
  5
250
  8
回04-図面枠
 62
     7
 10
3100.593022171399
 20
510.6752248068428
 30
0.0
 11
3095.593022171398
 21
510.6752248068428
 31
0.0
  0
TEXT
  5
251
  8
回04-図面枠
 62
     7
 10
3096.690463627555
 20
469.9639121027021
 30
0.0
 40
4.0
  1
3
  0
LINE
  5
252
  8
回04-図面枠
 62
     7
 10
3100.593022171399
 20
433.6752248068427
 30
0.0
 11
3095.593022171398
 21
433.6752248068427
 31
0.0
  0
TEXT
  5
253
  8
回04-図面枠
 62
     7
 10
3096.617371507474
 20
392.9639121027021
 30
0.0
 40
4.0
  1
4
  0
TEXT
  5
254
  8
回04-図面枠
 62
     7
 10
2531.997443175058
 20
623.9639121027021
 30
0.0
 40
4.0
  1
1
  0
LINE
  5
255
  8
回04-図面枠
 62
     7
 10
2535.593022171398
 20
587.6752248068426
 30
0.0
 11
2530.593022171399
 21
587.6752248068426
 31
0.0
  0
TEXT
  5
256
  8
回04-図面枠
 62
     7
 10
2531.695944471756
 20
546.9639121027021
 30
0.0
 40
4.0
  1
2
  0
LINE
  5
257
  8
回04-図面枠
 62
     7
 10
2535.593022171398
 20
510.6752248068428
 30
0.0
 11
2530.593022171399
 21
510.6752248068428
 31
0.0
  0
TEXT
  5
258
  8
回04-図面枠
 62
     7
 10
2531.690463627555
 20
469.9639121027021
 30
0.0
 40
4.0
  1
3
  0
LINE
  5
259
  8
回04-図面枠
 62
     7
 10
2535.593022171398
 20
433.6752248068427
 30
0.0
 11
2530.593022171399
 21
433.6752248068427
 31
0.0
  0
TEXT
  5
25A
  8
回04-図面枠
 62
     7
 10
2531.617371507474
 20
392.9639121027021
 30
0.0
 40
4.0
  1
4
  0
LINE
  5
25B
  8
回04-図面枠
 62
     7
 10
3100.593022171399
 20
356.6752248068429
 30
0.0
 11
3095.593022171398
 21
356.6752248068429
 31
0.0
  0
TEXT
  5
25C
  8
回04-図面枠
 62
     7
 10
3096.617371507474
 20
315.9639121027021
 30
0.0
 40
4.0
  1
5
  0
TEXT
  5
25D
  8
回04-図面枠
 62
     7
 10
3059.322407477051
 20
275.047647932894
 30
0.0
 40
4.0
  1
H
  0
LINE
  5
25E
  8
回04-図面枠
 62
     7
 10
3025.593022171399
 20
279.6752248068429
 30
0.0
 11
3025.593022171399
 21
274.6752248068428
 31
0.0
  0
LINE
  5
25F
  8
回04-図面枠
 62
     7
 10
2955.593022171399
 20
279.6752248068429
 30
0.0
 11
2955.593022171399
 21
274.6752248068428
 31
0.0
  0
TEXT
  5
260
  8
回04-図面枠
 62
     7
 10
2919.32240747705
 20
275.047647932894
 30
0.0
 40
4.0
  1
F
  0
LINE
  5
261
  8
回04-図面枠
 62
     7
 10
2885.593022171399
 20
279.6752248068429
 30
0.0
 11
2885.593022171399
 21
274.6752248068428
 31
0.0
  0
TEXT
  5
262
  8
回04-図面枠
 62
     7
 10
2849.322407477051
 20
275.047647932894
 30
0.0
 40
4.0
  1
E
  0
TEXT
  5
263
  8
回04-図面枠
 62
     7
 10
2989.322407477051
 20
275.047647932894
 30
0.0
 40
4.0
  1
G
  0
LINE
  5
264
  8
回04-図面枠
 62
     7
 10
2815.593022171399
 20
279.6752248068429
 30
0.0
 11
2815.593022171399
 21
274.6752248068428
 31
0.0
  0
TEXT
  5
265
  8
回04-図面枠
 62
     7
 10
2779.322407477051
 20
275.047647932894
 30
0.0
 40
4.0
  1
D
  0
LINE
  5
266
  8
回04-図面枠
 62
     7
 10
2745.593022171398
 20
279.6752248068429
 30
0.0
 11
2745.593022171398
 21
274.6752248068428
 31
0.0
  0
TEXT
  5
267
  8
回04-図面枠
 62
     7
 10
2709.322407477051
 20
275.047647932894
 30
0.0
 40
4.0
  1
C
  0
LINE
  5
268
  8
回04-図面枠
 62
     7
 10
2675.593022171399
 20
279.6752248068429
 30
0.0
 11
2675.593022171399
 21
274.6752248068428
 31
0.0
  0
LINE
  5
269
  8
回04-図面枠
 62
     7
 10
2535.593022171398
 20
356.6752248068429
 30
0.0
 11
2530.593022171399
 21
356.6752248068429
 31
0.0
  0
TEXT
  5
26A
  8
回04-図面枠
 62
     7
 10
2531.617371507474
 20
315.9639121027021
 30
0.0
 40
4.0
  1
5
  0
TEXT
  5
26B
  8
回04-図面枠
 62
     7
 10
2639.322407477051
 20
275.047647932894
 30
0.0
 40
4.0
  1
B
  0
LINE
  5
26C
  8
回04-図面枠
 62
     7
 10
2605.593022171399
 20
279.6752248068429
 30
0.0
 11
2605.593022171399
 21
274.6752248068428
 31
0.0
  0
TEXT
  5
26D
  8
回04-図面枠
 62
     7
 10
2569.322407477051
 20
275.047647932894
 30
0.0
 40
4.0
  1
A
  0
LINE
  5
26E
  8
回04-図面枠
 62
     7
 10
2535.593022171398
 20
279.6752248068429
 30
0.0
 11
3095.593022171398
 21
279.6752248068429
 31
0.0
  0
LINE
  5
26F
  8
回04-図面枠
 62
     7
 10
3100.593022171399
 20
274.6752248068428
 30
0.0
 11
2530.593022171399
 21
274.6752248068428
 31
0.0
  0
LINE
  5
270
  8
回04-図面枠
 62
     7
 10
3100.593022171399
 20
274.6752248068428
 30
0.0
 11
3100.593022171399
 21
669.6752248068427
 31
0.0
  0
LINE
  5
271
  8
回04-図面枠
 62
     7
 10
3095.593022171398
 20
664.6752248068427
 30
0.0
 11
3095.593022171398
 21
279.6752248068429
 31
0.0
  0
LINE
  5
272
  8
回04-図面枠
 62
     7
 10
2530.593022171399
 20
274.6752248068428
 30
0.0
 11
2530.593022171399
 21
669.6752248068427
 31
0.0
  0
LINE
  5
273
  8
回04-図面枠
 62
     7
 10
2535.593022171398
 20
664.6752248068427
 30
0.0
 11
2535.593022171398
 21
279.6752248068429
 31
0.0
  0
POLYLINE
  5
274
  8
回01-TP外形
  6
CONTINUOUS
 62
     7
 66
     1
 10
0.0
 20
0.0
 30
0.0
 70
     1
  0
VERTEX
  5
A02
  8
回01-TP外形
  6
CONTINUOUS
 62
     7
 10
2599.568076644447
 20
376.9516631025076
 30
0.0
  0
VERTEX
  5
A04
  8
回01-TP外形
  6
CONTINUOUS
 62
     7
 10
2674.868120155216
 20
376.9516631025076
 30
0.0
  0
VERTEX
  5
A05
  8
回01-TP外形
  6
CONTINUOUS
 62
     7
 10
2674.868120155216
 20
378.4516631025076
 30
0.0
  0
VERTEX
  5
A06
  8
回01-TP外形
  6
CONTINUOUS
 62
     7
 10
2599.568076644447
 20
378.4516631025076
 30
0.0
  0
SEQEND
  5
A03
  8
回07-寸法
  6
CONTINUOUS
 62
     7
  0
LINE
  5
275
  8
回01-TP外形
  6
CONTINUOUS
 62
     7
 10
2682.628120155214
 20
376.9516631025076
 30
0.0
 11
2682.628120155214
 21
373.9516631025076
 31
0.0
  0
DIMENSION
  5
276
  8
回02-寸法
  6
CONTINUOUS
 62
     7
  2
*D5050
 10
2675.168120155214
 20
385.5467641606665
 30
0.0
 11
2684.066545352064
 21
388.2467641606665
 31
0.0
 70
    32
  1
(<>)
  3
STANDARD
 13
2674.568120155214
 23
373.9516631025076
 33
0.0
 14
2675.168120155214
 24
380.9516631025076
 34
0.0
1001
ACAD
1000
DSTYLE
1002
{
1070
    47
1040
0.3
1070
    48
1040
0.3
1070
   140
1040
4.0
1070
   146
1040
0.7
1070
   283
1070
     0
1070
   288
1070
     0
1070
   341
1005
0
1070
   371
1070
    13
1070
   372
1070
    13
1002
}
  0
LINE
  5
287
  8
回03-記事
  6
CONTINUOUS
 62
     7
 10
2675.594074546377
 20
366.5290453184612
 30
0.0
 11
2678.598611739767
 21
360.6683202342578
 31
0.0
  0
TEXT
  5
288
  8
回03-記事
  6
CONTINUOUS
 62
     7
 10
2678.568719555543
 20
354.8843182232208
 30
0.0
 40
5.0
  1
6
  0
LINE
  5
289
  8
回01-TP外形
  6
CONTINUOUS
 62
     7
 10
2673.068120155214
 20
366.4516631025076
 30
0.0
 11
2673.068120155214
 21
370.9516631025076
 31
0.0
  0
LINE
  5
28A
  8
回01-TP外形
  6
CONTINUOUS
 62
     7
 10
2678.068120155214
 20
366.4516631025076
 30
0.0
 11
2673.068120155214
 21
366.4516631025076
 31
0.0
  0
LINE
  5
28B
  8
回01-TP外形
  6
CONTINUOUS
 62
     7
 10
2678.068120155214
 20
367.9516631025076
 30
0.0
 11
2678.068120155214
 21
366.4516631025076
 31
0.0
  0
LINE
  5
28C
  8
回01-TP外形
  6
CONTINUOUS
 62
     7
 10
2670.376637150814
 20
370.9516631025076
 30
0.0
 11
2673.068120155214
 21
370.9516631025076
 31
0.0
  0
LINE
  5
28D
  8
回01-TP外形
  6
CONTINUOUS
 62
     7
 10
2670.376637150814
 20
372.4516631025076
 30
0.0
 11
2670.376637150814
 21
370.9516631025076
 31
0.0
  0
LINE
  5
28E
  8
回01-TP外形
  6
CONTINUOUS
 62
     7
 10
2905.088120155215
 20
373.9516631025076
 30
0.0
 11
2905.088120155215
 21
376.9516631025076
 31
0.0
  0
LINE
  5
28F
  8
回01-TP外形
  6
CONTINUOUS
 62
     7
 10
2909.568120155214
 20
367.9516631025072
 30
0.0
 11
2909.568120155214
 21
373.9516631025076
 31
0.0
  0
DIMENSION
  5
290
  8
回02-寸法
  6
CONTINUOUS
 62
     7
  2
*D5151
 10
2917.947846190207
 20
367.9516631025058
 30
0.0
 11
2917.947846190207
 21
355.0807575906952
 31
0.0
 70
   160
  1
2.1±0.2
  3
STANDARD
 13
2909.068120155213
 23
380.9516631025072
 33
0.0
 14
2909.568120155214
 24
367.9516631025058
 34
0.0
 50
90.0
1001
ACAD
1000
DSTYLE
1002
{
1070
   372
1070
    13
1070
   371
1070
    13
1070
   140
1040
4.0
1002
}
1001
ACADSTRINGINFO
1000
MIFCodePage
1070
     1
  0
ARC
  5
2A1
  8
回01-TP外形
  6
CONTINUOUS
 62
     7
 10
2877.368120155214
 20
373.9516631025076
 30
0.0
 40
0.5
 50
0.0
 51
180.0
  0
ARC
  5
2A2
  8
回01-TP外形
  6
CONTINUOUS
 62
     7
 10
2873.368120155215
 20
373.9516631025076
 30
0.0
 40
0.5
 50
0.0
 51
180.0
  0
ARC
  5
2A3
  8
回01-TP外形
  6
CONTINUOUS
 62
     7
 10
2881.368120155215
 20
373.9516631025076
 30
0.0
 40
0.5
 50
0.0
 51
180.0
  0
ARC
  5
2A4
  8
回01-TP外形
  6
CONTINUOUS
 62
     7
 10
2857.368120155215
 20
373.9516631025076
 30
0.0
 40
0.5
 50
0.0
 51
180.0
  0
ARC
  5
2A5
  8
回01-TP外形
  6
CONTINUOUS
 62
     7
 10
2869.368120155213
 20
373.9516631025076
 30
0.0
 40
0.5
 50
0.0
 51
180.0
  0
ARC
  5
2A6
  8
回01-TP外形
  6
CONTINUOUS
 62
     7
 10
2861.368120155214
 20
373.9516631025076
 30
0.0
 40
0.5
 50
0.0
 51
180.0
  0
ARC
  5
2A7
  8
回01-TP外形
  6
CONTINUOUS
 62
     7
 10
2865.368120155215
 20
373.9516631025076
 30
0.0
 40
0.5
 50
0.0
 51
180.0
  0
ARC
  5
2A8
  8
回01-TP外形
  6
CONTINUOUS
 62
     7
 10
2841.368120155215
 20
373.9516631025076
 30
0.0
 40
0.5
 50
0.0
 51
180.0
  0
ARC
  5
2A9
  8
回01-TP外形
  6
CONTINUOUS
 62
     7
 10
2837.368120155213
 20
373.9516631025076
 30
0.0
 40
0.5
 50
0.0
 51
180.0
  0
ARC
  5
2AA
  8
回01-TP外形
  6
CONTINUOUS
 62
     7
 10
2849.368120155215
 20
373.9516631025076
 30
0.0
 40
0.5
 50
0.0
 51
180.0
  0
ARC
  5
2AB
  8
回01-TP外形
  6
CONTINUOUS
 62
     7
 10
2845.368120155214
 20
373.9516631025076
 30
0.0
 40
0.5
 50
0.0
 51
180.0
  0
ARC
  5
2AC
  8
回01-TP外形
  6
CONTINUOUS
 62
     7
 10
2853.368120155213
 20
373.9516631025076
 30
0.0
 40
0.5
 50
0.0
 51
180.0
  0
ARC
  5
2AD
  8
回01-TP外形
  6
CONTINUOUS
 62
     7
 10
2821.368120155213
 20
373.9516631025076
 30
0.0
 40
0.5
 50
0.0
 51
180.0
  0
ARC
  5
2AE
  8
回01-TP外形
  6
CONTINUOUS
 62
     7
 10
2825.368120155215
 20
373.9516631025076
 30
0.0
 40
0.5
 50
0.0
 51
180.0
  0
ARC
  5
2AF
  8
回01-TP外形
  6
CONTINUOUS
 62
     7
 10
2829.368120155215
 20
373.9516631025076
 30
0.0
 40
0.5
 50
0.0
 51
180.0
  0
ARC
  5
2B0
  8
回01-TP外形
  6
CONTINUOUS
 62
     7
 10
2833.368120155215
 20
373.9516631025076
 30
0.0
 40
0.5
 50
0.0
 51
180.0
  0
ARC
  5
2B1
  8
回01-TP外形
  6
CONTINUOUS
 62
     7
 10
2801.368120155215
 20
373.9516631025076
 30
0.0
 40
0.5
 50
0.0
 51
180.0
  0
ARC
  5
2B2
  8
回01-TP外形
  6
CONTINUOUS
 62
     7
 10
2805.368120155215
 20
373.9516631025076
 30
0.0
 40
0.5
 50
0.0
 51
180.0
  0
ARC
  5
2B3
  8
回01-TP外形
  6
CONTINUOUS
 62
     7
 10
2809.368120155215
 20
373.9516631025076
 30
0.0
 40
0.5
 50
0.0
 51
180.0
  0
ARC
  5
2B4
  8
回01-TP外形
  6
CONTINUOUS
 62
     7
 10
2813.368120155215
 20
373.9516631025076
 30
0.0
 40
0.5
 50
0.0
 51
180.0
  0
ARC
  5
2B5
  8
回01-TP外形
  6
CONTINUOUS
 62
     7
 10
2817.368120155215
 20
373.9516631025076
 30
0.0
 40
0.5
 50
0.0
 51
180.0
  0
ARC
  5
2B6
  8
回01-TP外形
  6
CONTINUOUS
 62
     7
 10
2793.368120155215
 20
373.9516631025076
 30
0.0
 40
0.5
 50
0.0
 51
180.0
  0
ARC
  5
2B7
  8
回01-TP外形
  6
CONTINUOUS
 62
     7
 10
2785.368120155215
 20
373.9516631025076
 30
0.0
 40
0.5
 50
0.0
 51
180.0
  0
ARC
  5
2B8
  8
回01-TP外形
  6
CONTINUOUS
 62
     7
 10
2789.368120155215
 20
373.9516631025076
 30
0.0
 40
0.5
 50
0.0
 51
180.0
  0
ARC
  5
2B9
  8
回01-TP外形
  6
CONTINUOUS
 62
     7
 10
2797.368120155215
 20
373.9516631025076
 30
0.0
 40
0.5
 50
0.0
 51
180.0
  0
LINE
  5
2BA
  8
回03-記事
  6
CONTINUOUS
 62
     7
 10
2770.841715266484
 20
369.8157906813276
 30
0.0
 11
2776.829900471755
 21
362.9299210425547
 31
0.0
  0
ARC
  5
2BB
  8
回01-TP外形
  6
CONTINUOUS
 62
     7
 10
2773.368120155215
 20
373.9516631025076
 30
0.0
 40
0.5
 50
0.0
 51
180.0
  0
ARC
  5
2BC
  8
回01-TP外形
  6
CONTINUOUS
 62
     7
 10
2765.368120155215
 20
373.9516631025076
 30
0.0
 40
0.5
 50
0.0
 51
180.0
  0
ARC
  5
2BD
  8
回01-TP外形
  6
CONTINUOUS
 62
     7
 10
2769.368120155215
 20
373.9516631025076
 30
0.0
 40
0.5
 50
0.0
 51
180.0
  0
TEXT
  5
2BE
  8
回03-記事
  6
CONTINUOUS
 62
     7
 10
2777.516500690897
 20
358.5882626809985
 30
0.0
 40
5.0
  1
2
  0
ARC
  5
2BF
  8
回01-TP外形
  6
CONTINUOUS
 62
     7
 10
2777.368120155215
 20
373.9516631025076
 30
0.0
 40
0.5
 50
0.0
 51
180.0
  0
ARC
  5
2C0
  8
回01-TP外形
  6
CONTINUOUS
 62
     7
 10
2781.368120155215
 20
373.9516631025076
 30
0.0
 40
0.5
 50
0.0
 51
180.0
  0
ARC
  5
2C1
  8
回01-TP外形
  6
CONTINUOUS
 62
     7
 10
2753.368120155215
 20
373.9516631025076
 30
0.0
 40
0.5
 50
0.0
 51
180.0
  0
ARC
  5
2C2
  8
回01-TP外形
  6
CONTINUOUS
 62
     7
 10
2749.368120155215
 20
373.9516631025076
 30
0.0
 40
0.5
 50
0.0
 51
180.0
  0
ARC
  5
2C3
  8
回01-TP外形
  6
CONTINUOUS
 62
     7
 10
2757.368120155215
 20
373.9516631025076
 30
0.0
 40
0.5
 50
0.0
 51
180.0
  0
ARC
  5
2C4
  8
回01-TP外形
  6
CONTINUOUS
 62
     7
 10
2761.368120155215
 20
373.9516631025076
 30
0.0
 40
0.5
 50
0.0
 51
180.0
  0
ARC
  5
2C5
  8
回01-TP外形
  6
CONTINUOUS
 62
     7
 10
2729.368120155214
 20
373.9516631025076
 30
0.0
 40
0.5
 50
0.0
 51
180.0
  0
ARC
  5
2C6
  8
回01-TP外形
  6
CONTINUOUS
 62
     7
 10
2733.368120155214
 20
373.9516631025076
 30
0.0
 40
0.5
 50
0.0
 51
180.0
  0
ARC
  5
2C7
  8
回01-TP外形
  6
CONTINUOUS
 62
     7
 10
2745.368120155214
 20
373.9516631025076
 30
0.0
 40
0.5
 50
0.0
 51
180.0
  0
ARC
  5
2C8
  8
回01-TP外形
  6
CONTINUOUS
 62
     7
 10
2737.368120155214
 20
373.9516631025076
 30
0.0
 40
0.5
 50
0.0
 51
180.0
  0
ARC
  5
2C9
  8
回01-TP外形
  6
CONTINUOUS
 62
     7
 10
2741.368120155214
 20
373.9516631025076
 30
0.0
 40
0.5
 50
0.0
 51
180.0
  0
ARC
  5
2CA
  8
回01-TP外形
  6
CONTINUOUS
 62
     7
 10
2713.368120155214
 20
373.9516631025076
 30
0.0
 40
0.5
 50
0.0
 51
180.0
  0
TEXT
  5
2CB
  8
回03-記事
  6
CONTINUOUS
 62
     7
 10
2712.59128440799
 20
386.2825091963906
 30
0.0
 40
5.0
  1
1
  0
ARC
  5
2CC
  8
回01-TP外形
  6
CONTINUOUS
 62
     7
 10
2725.368120155214
 20
373.9516631025076
 30
0.0
 40
0.5
 50
0.0
 51
180.0
  0
ARC
  5
2CD
  8
回01-TP外形
  6
CONTINUOUS
 62
     7
 10
2717.368120155214
 20
373.9516631025076
 30
0.0
 40
0.5
 50
0.0
 51
180.0
  0
ARC
  5
2CE
  8
回01-TP外形
  6
CONTINUOUS
 62
     7
 10
2721.368120155214
 20
373.9516631025076
 30
0.0
 40
0.5
 50
0.0
 51
180.0
  0
LINE
  5
2CF
  8
回03-記事
  6
CONTINUOUS
 62
     7
 10
2721.786501606657
 20
379.2663906608141
 30
0.0
 11
2716.476223381286
 21
385.1363123200963
 31
0.0
  0
ARC
  5
2D0
  8
回01-TP外形
  6
CONTINUOUS
 62
     7
 10
2697.368120155214
 20
373.9516631025076
 30
0.0
 40
0.5
 50
0.0
 51
180.0
  0
ARC
  5
2D1
  8
回01-TP外形
  6
CONTINUOUS
 62
     7
 10
2693.368120155214
 20
373.9516631025076
 30
0.0
 40
0.5
 50
0.0
 51
180.0
  0
ARC
  5
2D2
  8
回01-TP外形
  6
CONTINUOUS
 62
     7
 10
2705.368120155214
 20
373.9516631025076
 30
0.0
 40
0.5
 50
0.0
 51
180.0
  0
ARC
  5
2D3
  8
回01-TP外形
  6
CONTINUOUS
 62
     7
 10
2701.368120155214
 20
373.9516631025076
 30
0.0
 40
0.5
 50
0.0
 51
180.0
  0
ARC
  5
2D4
  8
回01-TP外形
  6
CONTINUOUS
 62
     7
 10
2709.368120155214
 20
373.9516631025076
 30
0.0
 40
0.5
 50
0.0
 51
180.0
  0
LINE
  5
2D5
  8
回01-TP外形
  6
CONTINUOUS
 62
     7
 10
2674.868120155216
 20
376.9516631025076
 30
0.0
 11
2674.868120155216
 21
380.9516631025076
 31
0.0
  0
LINE
  5
2D6
  8
回01-TP外形
  6
CONTINUOUS
 62
     7
 10
2674.568120155214
 20
367.9516631025072
 30
0.0
 11
2674.568120155214
 21
373.9516631025076
 31
0.0
  0
ARC
  5
2D7
  8
回01-TP外形
  6
CONTINUOUS
 62
     7
 10
2685.368120155214
 20
373.9516631025076
 30
0.0
 40
0.5
 50
0.0
 51
180.0
  0
LINE
  5
2D8
  8
回01-TP外形
  6
CONTINUOUS
 62
     7
 10
2678.368120155214
 20
373.9516631025076
 30
0.0
 11
2678.368120155214
 21
376.9516631025076
 31
0.0
  0
ARC
  5
2D9
  8
回01-TP外形
  6
CONTINUOUS
 62
     7
 10
2689.368120155214
 20
373.9516631025076
 30
0.0
 40
0.5
 50
0.0
 51
180.0
  0
LINE
  5
2DA
  8
回03-記事
  6
CONTINUOUS
 62
     7
 10
2657.81360607881
 20
375.2897176331511
 30
0.0
 11
2660.818143272201
 21
369.4289925489479
 31
0.0
  0
TEXT
  5
2DB
  8
回03-記事
  6
CONTINUOUS
 62
     7
 10
2660.788251087976
 20
363.6449905379108
 30
0.0
 40
5.0
  1
3
  0
TEXT
  5
2DC
  8
回03-記事
  6
CONTINUOUS
 62
     7
 10
2662.893644120129
 20
381.3878186819525
 30
0.0
 40
5.0
  1
5
  0
LINE
  5
2DD
  8
回01-TP外形
  6
CONTINUOUS
 62
     7
 10
2604.568120155214
 20
369.9516631025076
 30
0.0
 11
2604.568120155214
 21
373.9516631025076
 31
0.0
  0
TEXT
  5
2DE
  8
回03-記事
  6
CONTINUOUS
 62
     7
 10
2609.316105874864
 20
367.5611168240316
 30
0.0
 40
5.0
  1
4
  0
DIMENSION
  5
2DF
  8
回02-寸法
  6
CONTINUOUS
 62
     7
  2
*D5252
 10
2587.361994378221
 20
369.9516631025085
 30
0.0
 11
2587.361994378221
 21
358.1620984006263
 31
0.0
 70
   160
  1
0.3{\H0.7x;±0.05}
  3
STANDARD
 13
2594.568076644447
 23
376.9516631025084
 33
0.0
 14
2594.568076644447
 24
369.9516631025085
 34
0.0
 50
90.0
1001
ACADSTRINGINFO
1000
MIFCodePage
1070
     1
1001
ACAD
1000
DSTYLE
1002
{
1070
   140
1040
4.0
1070
   371
1070
    13
1070
   372
1070
    13
1002
}
  0
DIMENSION
  5
2F0
  8
回02-寸法
  6
CONTINUOUS
 62
     7
  2
*D5353
 10
2599.568076644447
 20
384.2328469921299
 30
0.0
 11
2607.750962867688
 21
384.2328469921299
 31
0.0
 70
   160
  3
STANDARD
 13
2594.568076644447
 23
376.9516631025076
 33
0.0
 14
2599.568076644447
 24
376.9516631025076
 34
0.0
1001
ACAD
1000
DSTYLE
1002
{
1070
   140
1040
4.0
1070
   371
1070
    13
1070
   372
1070
    13
1002
}
  0
LINE
  5
301
  8
回01-TP外形
  6
CONTINUOUS
 62
     7
 10
2594.568120155214
 20
369.9516631025076
 30
0.0
 11
2604.568120155214
 21
369.9516631025076
 31
0.0
  0
DIMENSION
  5
302
  8
回02-寸法
  6
CONTINUOUS
 62
     7
  2
*D5454
 10
2604.568120155214
 20
360.9978569610616
 30
0.0
 11
2612.466545352064
 21
360.9978569610616
 31
0.0
 70
   160
  1
(<>)
  3
STANDARD
 13
2594.568076644447
 23
369.9516631025085
 33
0.0
 14
2604.568120155214
 24
369.9516631025076
 34
0.0
1001
ACAD
1000
DSTYLE
1002
{
1070
   140
1040
4.0
1070
   371
1070
    13
1070
   372
1070
    13
1002
}
  0
LINE
  5
313
  8
回01-TP外形
  6
CONTINUOUS
 62
     7
 10
2594.868120155214
 20
373.9516631025076
 30
0.0
 11
2909.568120155214
 21
373.9516631025076
 31
0.0
  0
LINE
  5
314
  8
回01-TP外形
  6
CONTINUOUS
 62
     7
 10
2594.568076644447
 20
376.9516631025084
 30
0.0
 11
2909.568120155214
 21
376.9516631025072
 31
0.0
  0
LINE
  5
315
  8
回01-TP外形
  6
CONTINUOUS
 62
     7
 10
2674.568120155214
 20
367.9516631025072
 30
0.0
 11
2909.568120155214
 21
367.9516631025072
 31
0.0
  0
LINE
  5
316
  8
回01-TP外形
  6
CONTINUOUS
 62
     7
 10
2674.868120155216
 20
380.9516631025076
 30
0.0
 11
2909.568120155214
 21
380.9516631025076
 31
0.0
  0
DIMENSION
  5
317
  8
回02-寸法
  6
CONTINUOUS
 62
     7
  2
*D5555
 10
2674.568120155214
 20
604.5262158912993
 30
0.0
 11
2648.063907556789
 21
607.2262158912992
 31
0.0
 70
    32
  1
<>(Insulation Area)
  3
STANDARD
 13
2679.768120155214
 23
558.4237419731039
 33
0.0
 14
2674.568120155214
 24
564.2337419731055
 34
0.0
1001
ACAD
1000
DSTYLE
1002
{
1070
    41
1040
1.5
1070
    47
1040
0.3
1070
    48
1040
0.3
1070
   140
1040
4.0
1070
   141
1040
1.5
1070
   146
1040
0.7
1070
   283
1070
     0
1070
   288
1070
     0
1070
   341
1005
0
1070
   371
1070
    13
1070
   372
1070
    13
1002
}
1001
ACADSTRINGINFO
1000
MIFCodePage
1070
     1
  0
DIMENSION
  5
328
  8
回02-寸法
  6
CONTINUOUS
 62
     7
  2
*D5656
 10
2909.568120155214
 20
604.5262158912993
 30
0.0
 11
2918.466545352064
 21
607.2262158912992
 31
0.0
 70
    32
  1
(<>)
  3
STANDARD
 13
2907.788120155213
 23
558.4237419731039
 33
0.0
 14
2909.568120155214
 24
564.2337419731047
 34
0.0
1001
ACAD
1000
DSTYLE
1002
{
1070
    41
1040
1.5
1070
    47
1040
0.3
1070
    48
1040
0.3
1070
   140
1040
4.0
1070
   141
1040
1.5
1070
   146
1040
0.7
1070
   283
1070
     0
1070
   288
1070
     0
1070
   341
1005
0
1070
   371
1070
    13
1070
   372
1070
    13
1002
}
1001
ACADSTRINGINFO
1000
MIFCodePage
1070
     1
  0
DIMENSION
  5
339
  8
回02-寸法
  6
CONTINUOUS
 62
     7
  2
*D5757
 10
2909.568120155214
 20
597.501029098667
 30
0.0
 11
2918.866545352065
 21
600.2010290986669
 31
0.0
 70
    32
  1
(<>)
  3
STANDARD
 13
2907.488120155214
 23
557.6237419731037
 33
0.0
 14
2909.568120155214
 24
564.2337419731047
 34
0.0
1001
ACAD
1000
DSTYLE
1002
{
1070
    41
1040
1.5
1070
    47
1040
0.3
1070
    48
1040
0.3
1070
   140
1040
4.0
1070
   141
1040
1.5
1070
   146
1040
0.7
1070
   283
1070
     0
1070
   288
1070
     0
1070
   341
1005
0
1070
   371
1070
    13
1070
   372
1070
    13
1002
}
  0
DIMENSION
  5
34A
  8
回02-寸法
  6
CONTINUOUS
 62
     7
  2
*D5858
 10
2909.568120155214
 20
590.054400841976
 30
0.0
 11
2919.066545352064
 21
590.054400841976
 31
0.0
 70
   160
  1
(<>)
  3
STANDARD
 13
2905.488120155215
 23
555.6237419731037
 33
0.0
 14
2909.568120155214
 24
564.2337419731047
 34
0.0
1001
ACAD
1000
DSTYLE
1002
{
1070
    41
1040
1.5
1070
    47
1040
0.3
1070
    48
1040
0.3
1070
   140
1040
4.0
1070
   141
1040
1.5
1070
   146
1040
0.7
1070
   283
1070
     0
1070
   288
1070
     0
1070
   341
1005
0
1070
   371
1070
    13
1070
   372
1070
    13
1002
}
  0
DIMENSION
  5
35B
  8
回02-寸法
  6
CONTINUOUS
 62
     7
  2
*D5959
 10
2942.88180180933
 20
421.2337419731039
 30
0.0
 11
2940.181801809331
 21
393.7295293746788
 31
0.0
 70
    32
  1
<>(Insulation Area)
  3
STANDARD
 13
2907.788120155213
 23
427.0437419731033
 33
0.0
 14
2909.568120155214
 24
421.2337419731039
 34
0.0
 50
90.0
1001
ACAD
1000
DSTYLE
1002
{
1070
    41
1040
1.5
1070
    47
1040
0.3
1070
    48
1040
0.3
1070
   140
1040
4.0
1070
   141
1040
1.5
1070
   146
1040
0.7
1070
   283
1070
     0
1070
   288
1070
     0
1070
   341
1005
0
1070
   371
1070
    13
1070
   372
1070
    13
1002
}
1001
ACADSTRINGINFO
1000
MIFCodePage
1070
     1
  0
DIMENSION
  5
36C
  8
回02-寸法
  6
CONTINUOUS
 62
     7
  2
*D6060
 10
2927.541511666774
 20
564.2337419731047
 30
0.0
 11
2927.541511666774
 21
574.1321671699555
 31
0.0
 70
   160
  1
(<>)
  3
STANDARD
 13
2905.488120155215
 23
555.6237419731037
 33
0.0
 14
2909.568120155214
 24
564.2337419731047
 34
0.0
 50
90.0
1001
ACAD
1000
DSTYLE
1002
{
1070
    41
1040
1.5
1070
    47
1040
0.3
1070
    48
1040
0.3
1070
   140
1040
4.0
1070
   141
1040
1.5
1070
   146
1040
0.7
1070
   283
1070
     0
1070
   288
1070
     0
1070
   341
1005
0
1070
   371
1070
    13
1070
   372
1070
    13
1002
}
  0
DIMENSION
  5
37D
  8
回02-寸法
  6
CONTINUOUS
 62
     7
  2
*D6161
 10
2935.892738126893
 20
564.2337419731047
 30
0.0
 11
2933.192738126893
 21
573.1321671699552
 31
0.0
 70
    32
  1
(<>)
  3
STANDARD
 13
2907.488120155214
 23
557.6237419731037
 33
0.0
 14
2909.568120155214
 24
564.2337419731047
 34
0.0
 50
90.0
1001
ACAD
1000
DSTYLE
1002
{
1070
    41
1040
1.5
1070
    47
1040
0.3
1070
    48
1040
0.3
1070
   140
1040
4.0
1070
   141
1040
1.5
1070
   146
1040
0.7
1070
   283
1070
     0
1070
   288
1070
     0
1070
   341
1005
0
1070
   371
1070
    13
1070
   372
1070
    13
1002
}
  0
DIMENSION
  5
38E
  8
回02-寸法
  6
CONTINUOUS
 62
     7
  2
*D6262
 10
2942.88180180933
 20
564.2337419731047
 30
0.0
 11
2940.18180180933
 21
573.1321671699552
 31
0.0
 70
    32
  1
(<>)
  3
STANDARD
 13
2907.788120155213
 23
558.4237419731039
 33
0.0
 14
2909.568120155214
 24
564.2337419731047
 34
0.0
 50
90.0
1001
ACAD
1000
DSTYLE
1002
{
1070
    41
1040
1.5
1070
    47
1040
0.3
1070
    48
1040
0.3
1070
   140
1040
4.0
1070
   141
1040
1.5
1070
   146
1040
0.7
1070
   283
1070
     0
1070
   288
1070
     0
1070
   341
1005
0
1070
   371
1070
    13
1070
   372
1070
    13
1002
}
1001
ACADSTRINGINFO
1000
MIFCodePage
1070
     1
  0
DIMENSION
  5
39F
  8
回02-寸法
  6
CONTINUOUS
 62
     7
  2
*D6363
 10
2942.88180180933
 20
427.0437419731033
 30
0.0
 11
2940.38180180933
 21
492.7337419731036
 31
0.0
 70
    32
  3
STANDARD
 13
2907.788120155213
 23
558.4237419731039
 33
0.0
 14
2907.788120155213
 24
427.0437419731033
 34
0.0
 50
90.0
1001
ACAD
1000
DSTYLE
1002
{
1070
    41
1040
1.5
1070
    47
1040
0.3
1070
    48
1040
0.3
1070
   140
1040
4.0
1070
   141
1040
1.5
1070
   146
1040
0.7
1070
   283
1070
     0
1070
   288
1070
     0
1070
   341
1005
0
1070
   371
1070
    13
1070
   372
1070
    13
1002
}
  0
DIMENSION
  5
3AE
  8
回02-寸法
  6
CONTINUOUS
 62
     7
  2
*D6464
 10
2679.768120155214
 20
604.5262158912993
 30
0.0
 11
2793.778120155213
 21
607.0262158912993
 31
0.0
 70
    32
  3
STANDARD
 13
2907.788120155213
 23
558.4237419731039
 33
0.0
 14
2679.768120155214
 24
558.4237419731039
 34
0.0
1001
ACAD
1000
DSTYLE
1002
{
1070
    41
1040
1.5
1070
    47
1040
0.3
1070
    48
1040
0.3
1070
   140
1040
4.0
1070
   141
1040
1.5
1070
   146
1040
0.7
1070
   283
1070
     0
1070
   288
1070
     0
1070
   341
1005
0
1070
   371
1070
    13
1070
   372
1070
    13
1002
}
  0
DIMENSION
  5
3BD
  8
回02-寸法
  6
CONTINUOUS
 62
     7
  2
*D6565
 10
2935.892738126893
 20
421.2337419731039
 30
0.0
 11
2933.392738126893
 21
413.9337419731035
 31
0.0
 70
    32
  3
STANDARD
 13
2907.488120155214
 23
427.8437419731035
 33
0.0
 14
2909.568120155214
 24
421.2337419731039
 34
0.0
 50
90.0
1001
ACAD
1000
DSTYLE
1002
{
1070
    41
1040
1.5
1070
    47
1040
0.3
1070
    48
1040
0.3
1070
   140
1040
4.0
1070
   141
1040
1.5
1070
   146
1040
0.7
1070
   283
1070
     0
1070
   288
1070
     0
1070
   341
1005
0
1070
   371
1070
    13
1070
   372
1070
    13
1002
}
  0
DIMENSION
  5
3CE
  8
回02-寸法
  6
CONTINUOUS
 62
     7
  2
*D6666
 10
2927.541511666774
 20
421.2337419731039
 30
0.0
 11
2927.541511666774
 21
412.5140174869192
 31
0.0
 70
   160
  3
STANDARD
 13
2905.488120155215
 23
429.8437419731034
 33
0.0
 14
2909.568120155214
 24
421.2337419731039
 34
0.0
 50
90.0
1001
ACAD
1000
DSTYLE
1002
{
1070
    41
1040
1.5
1070
    47
1040
0.3
1070
    48
1040
0.3
1070
   140
1040
4.0
1070
   141
1040
1.5
1070
   146
1040
0.7
1070
   283
1070
     0
1070
   288
1070
     0
1070
   341
1005
0
1070
   371
1070
    13
1070
   372
1070
    13
1002
}
  0
DIMENSION
  5
3DF
  8
回02-寸法
  6
CONTINUOUS
 62
     7
  2
*D6767
 10
2674.568120155214
 20
597.501029098667
 30
0.0
 11
2666.768907556789
 21
597.501029098667
 31
0.0
 70
   160
  3
STANDARD
 13
2680.268120155214
 23
557.6237419731037
 33
0.0
 14
2674.568120155214
 24
564.2337419731055
 34
0.0
1001
ACAD
1000
DSTYLE
1002
{
1070
    41
1040
1.5
1070
    47
1040
0.3
1070
    48
1040
0.3
1070
   140
1040
4.0
1070
   141
1040
1.5
1070
   146
1040
0.7
1070
   283
1070
     0
1070
   288
1070
     0
1070
   341
1005
0
1070
   371
1070
    13
1070
   372
1070
    13
1002
}
  0
DIMENSION
  5
3F0
  8
回02-寸法
  6
CONTINUOUS
 62
     7
  2
*D6868
 10
2674.568120155214
 20
590.054400841976
 30
0.0
 11
2665.768907556789
 21
590.054400841976
 31
0.0
 70
   160
  3
STANDARD
 13
2682.268120155214
 23
555.6237419731037
 33
0.0
 14
2674.568120155214
 24
564.2337419731055
 34
0.0
1001
ACAD
1000
DSTYLE
1002
{
1070
    41
1040
1.5
1070
    47
1040
0.3
1070
    48
1040
0.3
1070
   140
1040
4.0
1070
   141
1040
1.5
1070
   146
1040
0.7
1070
   283
1070
     0
1070
   288
1070
     0
1070
   341
1005
0
1070
   371
1070
    13
1070
   372
1070
    13
1002
}
  0
DIMENSION
  5
401
  8
回02-寸法
  6
CONTINUOUS
 62
     7
  2
*D6969
 10
2950.005830357228
 20
564.2337419731047
 30
0.0
 11
2950.005830357228
 21
487.7337417733806
 31
0.0
 70
   160
  3
STANDARD
 13
2909.568120155214
 23
421.2337419731039
 33
0.0
 14
2909.568120155214
 24
564.2337419731047
 34
0.0
 50
90.0
1001
ACAD
1000
DSTYLE
1002
{
1070
   147
1040
0.5
1070
    72
1070
     0
1070
    71
1070
     1
1070
    41
1040
1.5
1070
    47
1040
0.3
1070
    48
1040
0.3
1070
   140
1040
4.0
1070
   141
1040
1.5
1070
   146
1040
0.7
1070
   283
1070
     0
1070
   288
1070
     0
1070
   341
1005
0
1070
   371
1070
    13
1070
   372
1070
    13
1002
}
  0
DIMENSION
  5
410
  8
回02-寸法
  6
CONTINUOUS
 62
     7
  2
*D7070
 10
2935.892738126894
 20
427.8437419731035
 30
0.0
 11
2933.317738126894
 21
492.7337419731036
 31
0.0
 70
    32
  1
<> {\H0.75x;(VIEWING AREA)}
  3
STANDARD
 13
2907.488120155214
 23
557.6237419731037
 33
0.0
 14
2907.488120155214
 24
427.8437419731035
 34
0.0
 50
90.0
1001
ACAD
1000
DSTYLE
1002
{
1070
    41
1040
1.5
1070
    47
1040
0.3
1070
    48
1040
0.3
1070
   140
1040
4.0
1070
   141
1040
1.5
1070
   146
1040
0.7
1070
   283
1070
     0
1070
   288
1070
     0
1070
   341
1005
0
1070
   371
1070
    13
1070
   372
1070
    13
1002
}
  0
DIMENSION
  5
41F
  8
回02-寸法
  6
CONTINUOUS
 62
     7
  2
*D7171
 10
2927.541511666777
 20
555.6237419731037
 30
0.0
 11
2924.966511666777
 21
492.7337419731036
 31
0.0
 70
    32
  1
<> {\H0.75x;(ACTIVE AREA)}
  3
STANDARD
 13
2905.488120155215
 23
429.8437419731034
 33
0.0
 14
2905.488120155215
 24
555.6237419731037
 34
0.0
 50
90.0
1001
ACAD
1000
DSTYLE
1002
{
1070
    41
1040
1.5
1070
    47
1040
0.3
1070
    48
1040
0.3
1070
   140
1040
4.0
1070
   141
1040
1.5
1070
   146
1040
0.7
1070
   283
1070
     0
1070
   288
1070
     0
1070
   341
1005
0
1070
   371
1070
    13
1070
   372
1070
    13
1002
}
  0
DIMENSION
  5
42E
  8
回02-寸法
  6
CONTINUOUS
 62
     7
  2
*D7272
 10
2909.568120155214
 20
610.6822274106471
 30
0.0
 11
2793.858120155214
 21
610.6822274106471
 31
0.0
 70
   160
  3
STANDARD
 13
2674.568120155214
 23
564.2337419731055
 33
0.0
 14
2909.568120155214
 24
564.2337419731047
 34
0.0
1001
ACAD
1000
DSTYLE
1002
{
1070
    41
1040
1.5
1070
    47
1040
0.3
1070
    48
1040
0.3
1070
    71
1070
     1
1070
   140
1040
4.0
1070
   141
1040
1.5
1070
   146
1040
0.7
1070
   283
1070
     0
1070
   288
1070
     0
1070
   341
1005
0
1070
   371
1070
    13
1070
   372
1070
    13
1002
}
  0
DIMENSION
  5
43D
  8
回02-寸法
  6
CONTINUOUS
 62
     7
  2
*D7373
 10
2907.488120155214
 20
597.501029098667
 30
0.0
 11
2793.878120155214
 21
600.0760290986669
 31
0.0
 70
    32
  1
<> {\H0.75x;(VIEWING AREA)}
  3
STANDARD
 13
2680.268120155214
 23
557.6237419731037
 33
0.0
 14
2907.488120155214
 24
557.6237419731037
 34
0.0
1001
ACAD
1000
DSTYLE
1002
{
1070
    41
1040
1.5
1070
    47
1040
0.3
1070
    48
1040
0.3
1070
   140
1040
4.0
1070
   141
1040
1.5
1070
   146
1040
0.7
1070
   283
1070
     0
1070
   288
1070
     0
1070
   341
1005
0
1070
   371
1070
    13
1070
   372
1070
    13
1002
}
  0
DIMENSION
  5
44C
  8
回02-寸法
  6
CONTINUOUS
 62
     7
  2
*D7474
 10
2905.488120155215
 20
590.054400841976
 30
0.0
 11
2793.878120155214
 21
592.6294008419761
 31
0.0
 70
    32
  1
<> {\H0.75x;(ACTIVE AREA)}
  3
STANDARD
 13
2682.268120155214
 23
555.6237419731037
 33
0.0
 14
2905.488120155215
 24
555.6237419731037
 34
0.0
1001
ACAD
1000
DSTYLE
1002
{
1070
    41
1040
1.5
1070
    47
1040
0.3
1070
    48
1040
0.3
1070
   140
1040
4.0
1070
   141
1040
1.5
1070
   146
1040
0.7
1070
   283
1070
     0
1070
   288
1070
     0
1070
   341
1005
0
1070
   371
1070
    13
1070
   372
1070
    13
1002
}
  0
ENDSEC
  0
EOF
