  0
SECTION
  2
HEADER
  9
$ACADVER
  1
AC1009
  9
$INSBASE
 10
0.0
 20
0.0
 30
0.0
  9
$EXTMIN
 10
1334.761586189623
 20
271.3626083287072
 30
0.0
  9
$EXTMAX
 10
1904.761586189623
 20
666.3626083287073
 30
0.0
  9
$LIMMIN
 10
0.0
 20
0.0
  9
$LIMMAX
 10
880.0
 20
620.0
  9
$ORTHOMODE
 70
     0
  9
$REGENMODE
 70
     1
  9
$FILLMODE
 70
     1
  9
$QTEXTMODE
 70
     0
  9
$MIRRTEXT
 70
     1
  9
$DRAGMODE
 70
     2
  9
$LTSCALE
 40
2.087542087542086
  9
$OSMODE
 70
    37
  9
$ATTMODE
 70
     1
  9
$TEXTSIZE
 40
4.0
  9
$TRACEWID
 40
1.0
  9
$TEXTSTYLE
  7
STANDARD
  9
$CLAYER
  8
0
  9
$CELTYPE
  6
CONTINUOUS
  9
$CECOLOR
 62
     7
  9
$DIMSCALE
 40
1.0
  9
$DIMASZ
 40
1.5
  9
$DIMEXO
 40
0.0
  9
$DIMDLI
 40
0.0
  9
$DIMRND
 40
0.0
  9
$DIMDLE
 40
0.0
  9
$DIMEXE
 40
1.0
  9
$DIMTP
 40
0.3
  9
$DIMTM
 40
0.3
  9
$DIMTXT
 40
4.0
  9
$DIMCEN
 40
1.5
  9
$DIMTSZ
 40
0.0
  9
$DIMTOL
 70
     0
  9
$DIMLIM
 70
     0
  9
$DIMTIH
 70
     0
  9
$DIMTOH
 70
     0
  9
$DIMSE1
 70
     0
  9
$DIMSE2
 70
     0
  9
$DIMTAD
 70
     3
  9
$DIMZIN
 70
     8
  9
$DIMBLK
  1

  9
$DIMASO
 70
     1
  9
$DIMSHO
 70
     1
  9
$DIMPOST
  1

  9
$DIMAPOST
  1

  9
$DIMALT
 70
     0
  9
$DIMALTD
 70
     2
  9
$DIMALTF
 40
25.4
  9
$DIMLFAC
 40
1.0
  9
$DIMTOFL
 70
     1
  9
$DIMTVP
 40
0.0
  9
$DIMTIX
 70
     0
  9
$DIMSOXD
 70
     0
  9
$DIMSAH
 70
     1
  9
$DIMBLK1
  1
OPEN
  9
$DIMBLK2
  1
OPEN
  9
$DIMSTYLE
  2
STANDARD
  9
$DIMCLRD
 70
     5
  9
$DIMCLRE
 70
     5
  9
$DIMCLRT
 70
     5
  9
$DIMTFAC
 40
0.7
  9
$DIMGAP
 40
0.5
  9
$LUNITS
 70
     2
  9
$LUPREC
 70
     4
  9
$SKETCHINC
 40
1.0
  9
$FILLETRAD
 40
0.5
  9
$AUNITS
 70
     0
  9
$AUPREC
 70
     0
  9
$MENU
  1
.
  9
$ELEVATION
 40
0.0
  9
$PELEVATION
 40
0.0
  9
$THICKNESS
 40
0.0
  9
$LIMCHECK
 70
     0
  9
$BLIPMODE
 70
     0
  9
$CHAMFERA
 40
1.7
  9
$CHAMFERB
 40
1.7
  9
$SKPOLY
 70
     0
  9
$TDCREATE
 40
2450431.727493866
  9
$TDUPDATE
 40
2460200.407495359
  9
$TDINDWG
 40
6.623837824
  9
$TDUSRTIMER
 40
2458404.052362697
  9
$USRTIMER
 70
     1
  9
$ANGBASE
 50
0.0
  9
$ANGDIR
 70
     0
  9
$PDMODE
 70
    34
  9
$PDSIZE
 40
0.0
  9
$PLINEWID
 40
0.2
  9
$COORDS
 70
     0
  9
$SPLFRAME
 70
     0
  9
$SPLINETYPE
 70
     6
  9
$SPLINESEGS
 70
     8
  9
$ATTDIA
 70
     1
  9
$ATTREQ
 70
     1
  9
$HANDLING
 70
     1
  9
$HANDSEED
  5
A36
  9
$SURFTAB1
 70
     6
  9
$SURFTAB2
 70
     6
  9
$SURFTYPE
 70
     6
  9
$SURFU
 70
     6
  9
$SURFV
 70
     6
  9
$UCSNAME
  2

  9
$UCSORG
 10
0.0
 20
0.0
 30
0.0
  9
$UCSXDIR
 10
1.0
 20
0.0
 30
0.0
  9
$UCSYDIR
 10
0.0
 20
1.0
 30
0.0
  9
$PUCSNAME
  2

  9
$PUCSORG
 10
0.0
 20
0.0
 30
0.0
  9
$PUCSXDIR
 10
1.0
 20
0.0
 30
0.0
  9
$PUCSYDIR
 10
0.0
 20
1.0
 30
0.0
  9
$USERI1
 70
     0
  9
$USERI2
 70
     0
  9
$USERI3
 70
     0
  9
$USERI4
 70
     0
  9
$USERI5
 70
     0
  9
$USERR1
 40
0.0
  9
$USERR2
 40
0.0
  9
$USERR3
 40
0.0
  9
$USERR4
 40
0.0
  9
$USERR5
 40
0.0
  9
$WORLDVIEW
 70
     1
  9
$SHADEDGE
 70
     3
  9
$SHADEDIF
 70
    70
  9
$TILEMODE
 70
     1
  9
$MAXACTVP
 70
    16
  9
$PLIMCHECK
 70
     0
  9
$PEXTMIN
 10
1.000000000000000E+20
 20
1.000000000000000E+20
 30
1.000000000000000E+20
  9
$PEXTMAX
 10
-1.000000000000000E+20
 20
-1.000000000000000E+20
 30
-1.000000000000000E+20
  9
$PLIMMIN
 10
0.0
 20
0.0
  9
$PLIMMAX
 10
420.0
 20
297.0
  9
$UNITMODE
 70
     0
  9
$VISRETAIN
 70
     0
  9
$PLINEGEN
 70
     0
  9
$PSLTSCALE
 70
     1
  0
ENDSEC
  0
SECTION
  2
TABLES
  0
TABLE
  2
VPORT
 70
     1
  0
VPORT
  2
*ACTIVE
 70
     0
 10
0.0
 20
0.0
 11
1.0
 21
1.0
 12
1588.869985299521
 22
473.6028035938192
 13
0.0
 23
0.0
 14
1.0
 24
1.0
 15
5.0
 25
5.0
 16
0.0
 26
0.0
 36
1.0
 17
0.0
 27
0.0
 37
0.0
 40
787.0284866748934
 41
0.9460154241645245
 42
50.0
 43
0.0
 44
0.0
 50
0.0
 51
0.0
 71
    16
 72
   100
 73
     1
 74
     0
 75
     0
 76
     0
 77
     0
 78
     0
  0
ENDTAB
  0
TABLE
  2
LTYPE
 70
     3
  0
LTYPE
  2
CONTINUOUS
 70
     0
  3
Solid line
 72
    65
 73
     0
 40
0.0
  0
LTYPE
  2
CENTER2
 70
     0
  3
___ _ ___ _ ___ _ ___ _ ___ _ ___ _ ___ _ ___ _
 72
    65
 73
     4
 40
1.125
 49
0.75
 49
-0.125
 49
0.125
 49
-0.125
  0
LTYPE
  2
PHANTOM2
 70
     0
  3
Phantom (.5x) ___ _ _ ___ _ _ ___ _ _ ___ _ _
 72
    65
 73
     6
 40
1.25
 49
0.625
 49
-0.125
 49
0.125
 49
-0.125
 49
0.125
 49
-0.125
  0
ENDTAB
  0
TABLE
  2
LAYER
 70
     6
  0
LAYER
  2
0
 70
     0
 62
     7
  6
CONTINUOUS
  0
LAYER
  2
DEFPOINTS
 70
     0
 62
     7
  6
CONTINUOUS
  0
LAYER
  2
回04-図面枠
 70
     0
 62
     7
  6
CONTINUOUS
  0
LAYER
  2
回01-TP外形
 70
     0
 62
     7
  6
CONTINUOUS
  0
LAYER
  2
回02-寸法
 70
     0
 62
     7
  6
CONTINUOUS
  0
LAYER
  2
回03-記事
 70
     0
 62
     7
  6
CONTINUOUS
  0
ENDTAB
  0
TABLE
  2
STYLE
 70
     2
  0
STYLE
  2
STANDARD
 70
     0
 40
4.0
 41
1.0
 50
0.0
 71
     0
 42
4.0
  3
isocp.shx
  4
bigfont.shx
  0
STYLE
  2
ANNOTATIVE
 70
     0
 40
0.0
 41
1.0
 50
0.0
 71
     0
 42
0.2
  3
txt.shx
  4

  0
ENDTAB
  0
TABLE
  2
VIEW
 70
     0
  0
ENDTAB
  0
TABLE
  2
UCS
 70
     0
  0
ENDTAB
  0
TABLE
  2
APPID
 70
     7
  0
APPID
  2
ACAD
 70
     0
  0
APPID
  2
ACADANNOTATIVE
 70
     0
  0
APPID
  2
ACAD_PSEXT
 70
     0
  0
APPID
  2
ACAECLAYERSTANDARD
 70
     0
  0
APPID
  2
ACADSTRINGINFO
 70
     0
  0
APPID
  2
ACAD_MLEADERVER
 70
     0
  0
APPID
  2
ACAD_NAV_VCDISPLAY
 70
     0
  0
ENDTAB
  0
TABLE
  2
DIMSTYLE
 70
     4
  0
DIMSTYLE
  2
STANDARD
 70
     0
  3

  4

  5

  6
OPEN
  7
OPEN
 40
1.0
 41
2.0
 42
0.0
 43
0.0
 44
1.0
 45
0.0
 46
0.0
 47
0.0
 48
0.0
140
3.0
141
2.0
142
0.0
143
25.4
144
1.0
145
0.0
146
1.0
147
0.5
 71
     0
 72
     0
 73
     0
 74
     0
 75
     0
 76
     0
 77
     3
 78
     8
170
     0
171
     2
172
     1
173
     1
174
     0
175
     0
176
     5
177
     5
178
     5
  0
DIMSTYLE
  2
RUISIN
 70
     0
  3

  4

  5

  6
OPEN
  7
OPEN
 40
1.0
 41
2.0
 42
0.0
 43
0.0
 44
1.0
 45
0.0
 46
0.0
 47
0.0
 48
0.0
140
3.0
141
2.0
142
0.0
143
25.4
144
1.0
145
0.0
146
1.0
147
0.5
 71
     0
 72
     0
 73
     0
 74
     0
 75
     0
 76
     0
 77
     3
 78
     8
170
     0
171
     2
172
     1
173
     1
174
     0
175
     0
176
     5
177
     5
178
     5
  0
DIMSTYLE
  2
KOUSA
 70
     0
  3

  4

  5

  6
OPEN
  7
OPEN
 40
1.0
 41
2.0
 42
0.0
 43
0.0
 44
1.0
 45
0.0
 46
0.0
 47
0.1
 48
0.1
140
3.0
141
2.0
142
0.0
143
25.4
144
1.0
145
0.0
146
0.7
147
0.5
 71
     1
 72
     0
 73
     0
 74
     0
 75
     0
 76
     0
 77
     3
 78
     8
170
     0
171
     2
172
     1
173
     1
174
     0
175
     0
176
     5
177
     5
178
     5
  0
DIMSTYLE
  2
DMC
 70
     0
  3

  4

  5

  6

  7

 40
1.0
 41
2.0
 42
0.0
 43
0.0
 44
1.0
 45
0.0
 46
0.0
 47
0.0
 48
0.0
140
3.0
141
2.0
142
0.0
143
0.03937007874016
144
1.0
145
0.0
146
0.7
147
0.5
 71
     0
 72
     0
 73
     0
 74
     0
 75
     0
 76
     0
 77
     3
 78
     8
170
     0
171
     3
172
     1
173
     0
174
     0
175
     0
176
     5
177
     5
178
     5
  0
ENDTAB
  0
ENDSEC
  0
SECTION
  2
BLOCKS
  0
BLOCK
  8
0
  2
$MODEL_SPACE
 70
     0
 10
0.0
 20
0.0
 30
0.0
  3
$MODEL_SPACE
  1

  0
ENDBLK
  8
0
  5
1F
  0
BLOCK
 67
     1
  8
0
  2
$PAPER_SPACE
 70
     0
 10
0.0
 20
0.0
 30
0.0
  3
$PAPER_SPACE
  1

  0
ENDBLK
  5
26
 67
     1
  8
0
  0
BLOCK
  8
0
  2
_OPEN
 70
     0
 10
0.0
 20
0.0
 30
0.0
  3
_OPEN
  1

  0
LINE
  5
7EC
  8
0
  6
BYBLOCK
 62
     0
 10
-1.0
 20
0.166667
 30
0.0
 11
0.0
 21
0.0
 31
0.0
  0
LINE
  5
7ED
  8
0
  6
BYBLOCK
 62
     0
 10
-1.0
 20
-0.166667
 30
0.0
 11
0.0
 21
0.0
 31
0.0
  0
LINE
  5
7EE
  8
0
  6
BYBLOCK
 62
     0
 10
0.0
 20
0.0
 30
0.0
 11
-1.0
 21
0.0
 31
0.0
  0
LINE
  5
12
  8
0
  6
BYBLOCK
 62
     0
 10
-1.0
 20
0.1666666666666667
 30
0.0
 11
0.0
 21
0.0
 31
0.0
  0
LINE
  5
14
  8
0
  6
BYBLOCK
 62
     0
 10
0.0
 20
0.0
 30
0.0
 11
-1.0
 21
-0.1666666666666667
 31
0.0
  0
LINE
  5
15
  8
0
  6
BYBLOCK
 62
     0
 10
0.0
 20
0.0
 30
0.0
 11
-1.0
 21
0.0
 31
0.0
  0
ENDBLK
  5
16
  8
0
  0
BLOCK
  8
0
  2
*D11
 70
     1
 10
0.0
 20
0.0
 30
0.0
  3
*D11
  1

  0
LINE
  5
3E4
  8
回02-寸法
  6
CONTINUOUS
 62
     5
 10
-159.5327128186778
 20
-2526.453117527764
 30
0.0
 11
-148.4060772028894
 21
-2526.453117527764
 31
0.0
  0
LINE
  5
3E5
  8
回02-寸法
  6
CONTINUOUS
 62
     5
 10
-159.5327128186778
 20
-2530.453117527765
 30
0.0
 11
-148.4060772028894
 21
-2530.453117527765
 31
0.0
  0
LINE
  5
3E6
  8
回02-寸法
  6
CONTINUOUS
 62
     5
 10
-149.4060772028894
 20
-2524.953117527764
 30
0.0
 11
-149.4060772028894
 21
-2523.453117527765
 31
0.0
  0
LINE
  5
3E7
  8
回02-寸法
  6
CONTINUOUS
 62
     5
 10
-149.4060772028894
 20
-2531.953117527764
 30
0.0
 11
-149.4060772028894
 21
-2536.453117527765
 31
0.0
  0
LINE
  5
3E8
  8
回02-寸法
  6
CONTINUOUS
 62
     5
 10
-149.4060772028894
 20
-2526.453117527764
 30
0.0
 11
-149.4060772028894
 21
-2530.453117527765
 31
0.0
  0
INSERT
  5
3E9
  8
回02-寸法
  6
CONTINUOUS
 62
     5
 66
     1
  2
_OPEN
 10
-149.4060772028894
 20
-2526.453117527764
 30
0.0
 41
1.5
 42
1.5
 43
1.5
 50
270.0
  0
SEQEND
  5
3EA
  8
0
  6
CONTINUOUS
 62
     7
  0
INSERT
  5
3EB
  8
回02-寸法
  6
CONTINUOUS
 62
     5
 66
     1
  2
_OPEN
 10
-149.4060772028894
 20
-2530.453117527765
 30
0.0
 41
1.5
 42
1.5
 43
1.5
 50
90.0
  0
SEQEND
  5
3EC
  8
0
  6
CONTINUOUS
 62
     7
  0
TEXT
  5
3ED
  8
回02-寸法
  6
CONTINUOUS
 62
     5
 10
-149.9060772028902
 20
-2536.553117527764
 30
0.0
 40
4.0
  1
4
 50
90.0
1001
ACAD
1000
MTEXTBEGIN
1070
    73
1070
     1
1070
    44
1040
1.0
1070
    74
1070
     0
1000
MTEXTEND
  0
POINT
  5
3EE
  8
DEFPOINTS
  6
CONTINUOUS
 62
     0
 10
-159.5327128186778
 20
-2526.453117527764
 30
0.0
  0
POINT
  5
3EF
  8
DEFPOINTS
  6
CONTINUOUS
 62
     0
 10
-159.5327128186778
 20
-2530.453117527765
 30
0.0
  0
POINT
  5
3F0
  8
DEFPOINTS
  6
CONTINUOUS
 62
     0
 10
-149.4060772028894
 20
-2530.453117527765
 30
0.0
  0
ENDBLK
  5
3F1
  8
0
 62
     7
  0
BLOCK
  8
0
  2
*D22
 70
     1
 10
0.0
 20
0.0
 30
0.0
  3
*D22
  1

  0
LINE
  5
3D3
  8
回02-寸法
  6
CONTINUOUS
 62
     5
 10
-167.5327128186776
 20
-2538.453117527764
 30
0.0
 11
-167.5327128186776
 21
-2547.628341008417
 31
0.0
  0
LINE
  5
3D4
  8
回02-寸法
  6
CONTINUOUS
 62
     5
 10
-163.5327128186777
 20
-2538.453117527764
 30
0.0
 11
-163.5327128186777
 21
-2547.628341008417
 31
0.0
  0
LINE
  5
3D5
  8
回02-寸法
  6
CONTINUOUS
 62
     5
 10
-169.0327128186777
 20
-2546.628341008417
 30
0.0
 11
-170.5327128186777
 21
-2546.628341008417
 31
0.0
  0
LINE
  5
3D6
  8
回02-寸法
  6
CONTINUOUS
 62
     5
 10
-162.0327128186777
 20
-2546.628341008417
 30
0.0
 11
-157.5327128186777
 21
-2546.628341008417
 31
0.0
  0
LINE
  5
3D7
  8
回02-寸法
  6
CONTINUOUS
 62
     5
 10
-167.5327128186776
 20
-2546.628341008417
 30
0.0
 11
-163.5327128186777
 21
-2546.628341008417
 31
0.0
  0
INSERT
  5
3D8
  8
回02-寸法
  6
CONTINUOUS
 62
     5
 66
     1
  2
_OPEN
 10
-167.5327128186776
 20
-2546.628341008417
 30
0.0
 41
1.5
 42
1.5
 43
1.5
  0
SEQEND
  5
3D9
  8
0
  6
CONTINUOUS
 62
     7
  0
INSERT
  5
3DA
  8
回02-寸法
  6
CONTINUOUS
 62
     5
 66
     1
  2
_OPEN
 10
-163.5327128186777
 20
-2546.628341008417
 30
0.0
 41
1.5
 42
1.5
 43
1.5
 50
180.0
  0
SEQEND
  5
3DB
  8
0
  6
CONTINUOUS
 62
     7
  0
TEXT
  5
3DC
  8
回02-寸法
  6
CONTINUOUS
 62
     5
 10
-160.6327128186777
 20
-2546.128341008417
 30
0.0
 40
4.0
  1
4
1001
ACAD
1000
MTEXTBEGIN
1070
    73
1070
     1
1070
    44
1040
1.0
1070
    74
1070
     0
1000
MTEXTEND
  0
POINT
  5
3DD
  8
DEFPOINTS
  6
CONTINUOUS
 62
     0
 10
-167.5327128186776
 20
-2538.453117527764
 30
0.0
  0
POINT
  5
3DE
  8
DEFPOINTS
  6
CONTINUOUS
 62
     0
 10
-163.5327128186777
 20
-2538.453117527764
 30
0.0
  0
POINT
  5
3DF
  8
DEFPOINTS
  6
CONTINUOUS
 62
     0
 10
-163.5327128186777
 20
-2546.628341008417
 30
0.0
  0
ENDBLK
  5
3E0
  8
0
 62
     7
  0
BLOCK
  8
0
  2
*D33
 70
     1
 10
0.0
 20
0.0
 30
0.0
  3
*D33
  1

  0
LINE
  5
3BC
  8
回02-寸法
  6
CONTINUOUS
 62
     5
 10
-301.3827128186778
 20
-2423.003117527771
 30
0.0
 11
-301.3827128186778
 21
-2399.132458459169
 31
0.0
  0
LINE
  5
3BD
  8
回02-寸法
  6
CONTINUOUS
 62
     5
 10
-89.68271281867794
 20
-2423.003117527771
 30
0.0
 11
-89.68271281867794
 21
-2399.132458459169
 31
0.0
  0
LINE
  5
3BE
  8
回02-寸法
  6
CONTINUOUS
 62
     5
 10
-299.8827128186777
 20
-2400.132458459169
 30
0.0
 11
-91.18271281867794
 21
-2400.132458459169
 31
0.0
  0
INSERT
  5
3BF
  8
回02-寸法
  6
CONTINUOUS
 62
     5
 66
     1
  2
_OPEN
 10
-301.3827128186778
 20
-2400.132458459169
 30
0.0
 41
1.5
 42
1.5
 43
1.5
 50
180.0
  0
SEQEND
  5
3C0
  8
0
  6
CONTINUOUS
 62
     7
  0
INSERT
  5
3C1
  8
回02-寸法
  6
CONTINUOUS
 62
     5
 66
     1
  2
_OPEN
 10
-89.68271281867794
 20
-2400.132458459169
 30
0.0
 41
1.5
 42
1.5
 43
1.5
  0
SEQEND
  5
3C2
  8
0
  6
CONTINUOUS
 62
     7
  0
INSERT
  5
3C3
  8
回02-寸法
  6
CONTINUOUS
 62
     5
 66
     1
  2
*X8585
 10
0.0
 20
0.0
 30
0.0
  0
SEQEND
  5
6E6
  8
0
  6
CONTINUOUS
 62
     7
  0
POINT
  5
3C4
  8
DEFPOINTS
  6
CONTINUOUS
 62
     0
 10
-301.3827128186778
 20
-2423.003117527771
 30
0.0
  0
POINT
  5
3C5
  8
DEFPOINTS
  6
CONTINUOUS
 62
     0
 10
-89.68271281867794
 20
-2423.003117527771
 30
0.0
  0
POINT
  5
3C6
  8
DEFPOINTS
  6
CONTINUOUS
 62
     0
 10
-89.68271281867794
 20
-2400.132458459169
 30
0.0
  0
ENDBLK
  5
3C7
  8
0
 62
     7
  0
BLOCK
  8
0
  2
*D44
 70
     1
 10
0.0
 20
0.0
 30
0.0
  3
*D44
  1

  0
LINE
  5
3AD
  8
回02-寸法
  6
CONTINUOUS
 62
     5
 10
-303.3827128186778
 20
-2421.003117527771
 30
0.0
 11
-303.3827128186778
 21
-2391.685830202479
 31
0.0
  0
LINE
  5
3AE
  8
回02-寸法
  6
CONTINUOUS
 62
     5
 10
-87.68271281867795
 20
-2421.003117527771
 30
0.0
 11
-87.68271281867795
 21
-2391.685830202479
 31
0.0
  0
LINE
  5
3AF
  8
回02-寸法
  6
CONTINUOUS
 62
     5
 10
-301.8827128186778
 20
-2392.685830202478
 30
0.0
 11
-89.18271281867793
 21
-2392.685830202478
 31
0.0
  0
INSERT
  5
3B0
  8
回02-寸法
  6
CONTINUOUS
 62
     5
 66
     1
  2
_OPEN
 10
-303.3827128186778
 20
-2392.685830202478
 30
0.0
 41
1.5
 42
1.5
 43
1.5
 50
180.0
  0
SEQEND
  5
3B1
  8
0
  6
CONTINUOUS
 62
     7
  0
INSERT
  5
3B2
  8
回02-寸法
  6
CONTINUOUS
 62
     5
 66
     1
  2
_OPEN
 10
-87.68271281867795
 20
-2392.685830202478
 30
0.0
 41
1.5
 42
1.5
 43
1.5
  0
SEQEND
  5
3B3
  8
0
  6
CONTINUOUS
 62
     7
  0
INSERT
  5
3B4
  8
回02-寸法
  6
CONTINUOUS
 62
     5
 66
     1
  2
*X8686
 10
0.0
 20
0.0
 30
0.0
  0
SEQEND
  5
6EC
  8
0
  6
CONTINUOUS
 62
     7
  0
POINT
  5
3B5
  8
DEFPOINTS
  6
CONTINUOUS
 62
     0
 10
-303.3827128186778
 20
-2421.003117527771
 30
0.0
  0
POINT
  5
3B6
  8
DEFPOINTS
  6
CONTINUOUS
 62
     0
 10
-87.68271281867795
 20
-2421.003117527771
 30
0.0
  0
POINT
  5
3B7
  8
DEFPOINTS
  6
CONTINUOUS
 62
     0
 10
-87.68271281867795
 20
-2392.685830202478
 30
0.0
  0
ENDBLK
  5
3B8
  8
0
 62
     7
  0
BLOCK
  8
0
  2
*D55
 70
     1
 10
0.0
 20
0.0
 30
0.0
  3
*D55
  1

  0
LINE
  5
39E
  8
回02-寸法
  6
CONTINUOUS
 62
     5
 10
-311.2827128186777
 20
-2414.753117527765
 30
0.0
 11
-311.2827128186777
 21
-2378.504631890498
 31
0.0
  0
LINE
  5
39F
  8
回02-寸法
  6
CONTINUOUS
 62
     5
 10
-83.68271281867794
 20
-2414.753117527765
 30
0.0
 11
-83.68271281867794
 21
-2378.504631890498
 31
0.0
  0
LINE
  5
3A0
  8
回02-寸法
  6
CONTINUOUS
 62
     5
 10
-309.7827128186777
 20
-2379.504631890497
 30
0.0
 11
-85.18271281867795
 21
-2379.504631890497
 31
0.0
  0
INSERT
  5
3A1
  8
回02-寸法
  6
CONTINUOUS
 62
     5
 66
     1
  2
_OPEN
 10
-311.2827128186777
 20
-2379.504631890497
 30
0.0
 41
1.5
 42
1.5
 43
1.5
 50
180.0
  0
SEQEND
  5
3A2
  8
0
  6
CONTINUOUS
 62
     7
  0
INSERT
  5
3A3
  8
回02-寸法
  6
CONTINUOUS
 62
     5
 66
     1
  2
_OPEN
 10
-83.68271281867794
 20
-2379.504631890497
 30
0.0
 41
1.5
 42
1.5
 43
1.5
  0
SEQEND
  5
3A4
  8
0
  6
CONTINUOUS
 62
     7
  0
INSERT
  5
3A5
  8
回02-寸法
  6
CONTINUOUS
 62
     5
 66
     1
  2
*X8787
 10
0.0
 20
0.0
 30
0.0
  0
SEQEND
  5
6F2
  8
0
  6
CONTINUOUS
 62
     7
  0
POINT
  5
3A6
  8
DEFPOINTS
  6
CONTINUOUS
 62
     0
 10
-311.2827128186777
 20
-2414.753117527765
 30
0.0
  0
POINT
  5
3A7
  8
DEFPOINTS
  6
CONTINUOUS
 62
     0
 10
-83.68271281867794
 20
-2414.753117527765
 30
0.0
  0
POINT
  5
3A8
  8
DEFPOINTS
  6
CONTINUOUS
 62
     0
 10
-83.68271281867794
 20
-2379.504631890497
 30
0.0
  0
ENDBLK
  5
3A9
  8
0
 62
     7
  0
BLOCK
  8
0
  2
*D66
 70
     1
 10
0.0
 20
0.0
 30
0.0
  3
*D66
  1

  0
LINE
  5
38F
  8
回02-寸法
  6
CONTINUOUS
 62
     5
 10
-89.68271281867798
 20
-2581.903117527773
 30
0.0
 11
-57.60932130711605
 21
-2581.903117527773
 31
0.0
  0
LINE
  5
390
  8
回02-寸法
  6
CONTINUOUS
 62
     5
 10
-89.68271281867798
 20
-2423.003117527772
 30
0.0
 11
-57.60932130711609
 21
-2423.003117527772
 31
0.0
  0
LINE
  5
391
  8
回02-寸法
  6
CONTINUOUS
 62
     5
 10
-58.60932130711606
 20
-2580.403117527773
 30
0.0
 11
-58.60932130711606
 21
-2424.503117527772
 31
0.0
  0
INSERT
  5
392
  8
回02-寸法
  6
CONTINUOUS
 62
     5
 66
     1
  2
_OPEN
 10
-58.60932130711606
 20
-2581.903117527773
 30
0.0
 41
1.5
 42
1.5
 43
1.5
 50
270.0
  0
SEQEND
  5
393
  8
0
  6
CONTINUOUS
 62
     7
  0
INSERT
  5
394
  8
回02-寸法
  6
CONTINUOUS
 62
     5
 66
     1
  2
_OPEN
 10
-58.6093213071161
 20
-2423.003117527772
 30
0.0
 41
1.5
 42
1.5
 43
1.5
 50
90.0
  0
SEQEND
  5
395
  8
0
  6
CONTINUOUS
 62
     7
  0
INSERT
  5
396
  8
回02-寸法
  6
CONTINUOUS
 62
     5
 66
     1
  2
*X8888
 10
0.0
 20
0.0
 30
0.0
  0
SEQEND
  5
6F8
  8
0
  6
CONTINUOUS
 62
     7
  0
POINT
  5
397
  8
DEFPOINTS
  6
CONTINUOUS
 62
     0
 10
-89.68271281867798
 20
-2581.903117527773
 30
0.0
  0
POINT
  5
398
  8
DEFPOINTS
  6
CONTINUOUS
 62
     0
 10
-89.68271281867798
 20
-2423.003117527772
 30
0.0
  0
POINT
  5
399
  8
DEFPOINTS
  6
CONTINUOUS
 62
     0
 10
-58.6093213071161
 20
-2423.003117527772
 30
0.0
  0
ENDBLK
  5
39A
  8
0
 62
     7
  0
BLOCK
  8
0
  2
*D77
 70
     1
 10
0.0
 20
0.0
 30
0.0
  3
*D77
  1

  0
LINE
  5
380
  8
回02-寸法
  6
CONTINUOUS
 62
     5
 10
-87.68271281867795
 20
-2421.003117527773
 30
0.0
 11
-49.25809484699912
 21
-2421.003117527773
 31
0.0
  0
LINE
  5
381
  8
回02-寸法
  6
CONTINUOUS
 62
     5
 10
-87.68271281867795
 20
-2583.903117527774
 30
0.0
 11
-49.25809484699908
 21
-2583.903117527774
 31
0.0
  0
LINE
  5
382
  8
回02-寸法
  6
CONTINUOUS
 62
     5
 10
-50.25809484699912
 20
-2422.503117527773
 30
0.0
 11
-50.25809484699912
 21
-2582.403117527773
 31
0.0
  0
INSERT
  5
383
  8
回02-寸法
  6
CONTINUOUS
 62
     5
 66
     1
  2
_OPEN
 10
-50.25809484699912
 20
-2421.003117527773
 30
0.0
 41
1.5
 42
1.5
 43
1.5
 50
90.0
  0
SEQEND
  5
384
  8
0
  6
CONTINUOUS
 62
     7
  0
INSERT
  5
385
  8
回02-寸法
  6
CONTINUOUS
 62
     5
 66
     1
  2
_OPEN
 10
-50.25809484699909
 20
-2583.903117527774
 30
0.0
 41
1.5
 42
1.5
 43
1.5
 50
270.0
  0
SEQEND
  5
386
  8
0
  6
CONTINUOUS
 62
     7
  0
INSERT
  5
387
  8
回02-寸法
  6
CONTINUOUS
 62
     5
 66
     1
  2
*X8989
 10
0.0
 20
0.0
 30
0.0
  0
SEQEND
  5
6FE
  8
0
  6
CONTINUOUS
 62
     7
  0
POINT
  5
388
  8
DEFPOINTS
  6
CONTINUOUS
 62
     0
 10
-87.68271281867795
 20
-2421.003117527773
 30
0.0
  0
POINT
  5
389
  8
DEFPOINTS
  6
CONTINUOUS
 62
     0
 10
-87.68271281867795
 20
-2583.903117527774
 30
0.0
  0
POINT
  5
38A
  8
DEFPOINTS
  6
CONTINUOUS
 62
     0
 10
-50.25809484699909
 20
-2583.903117527774
 30
0.0
  0
ENDBLK
  5
38B
  8
0
 62
     7
  0
BLOCK
  8
0
  2
*D88
 70
     1
 10
0.0
 20
0.0
 30
0.0
  3
*D88
  1

  0
LINE
  5
371
  8
回02-寸法
  6
CONTINUOUS
 62
     5
 10
-83.68271281867796
 20
-2590.153117527764
 30
0.0
 11
-35.14500261666269
 21
-2590.153117527764
 31
0.0
  0
LINE
  5
372
  8
回02-寸法
  6
CONTINUOUS
 62
     5
 10
-83.68271281867796
 20
-2414.753117527766
 30
0.0
 11
-35.14500261666274
 21
-2414.753117527766
 31
0.0
  0
LINE
  5
373
  8
回02-寸法
  6
CONTINUOUS
 62
     5
 10
-36.1450026166627
 20
-2588.653117527764
 30
0.0
 11
-36.1450026166627
 21
-2416.253117527765
 31
0.0
  0
INSERT
  5
374
  8
回02-寸法
  6
CONTINUOUS
 62
     5
 66
     1
  2
_OPEN
 10
-36.1450026166627
 20
-2590.153117527764
 30
0.0
 41
1.5
 42
1.5
 43
1.5
 50
270.0
  0
SEQEND
  5
375
  8
0
  6
CONTINUOUS
 62
     7
  0
INSERT
  5
376
  8
回02-寸法
  6
CONTINUOUS
 62
     5
 66
     1
  2
_OPEN
 10
-36.14500261666274
 20
-2414.753117527766
 30
0.0
 41
1.5
 42
1.5
 43
1.5
 50
90.0
  0
SEQEND
  5
377
  8
0
  6
CONTINUOUS
 62
     7
  0
INSERT
  5
378
  8
回02-寸法
  6
CONTINUOUS
 62
     5
 66
     1
  2
*X9090
 10
0.0
 20
0.0
 30
0.0
  0
SEQEND
  5
704
  8
0
  6
CONTINUOUS
 62
     7
  0
POINT
  5
379
  8
DEFPOINTS
  6
CONTINUOUS
 62
     0
 10
-83.68271281867796
 20
-2590.153117527764
 30
0.0
  0
POINT
  5
37A
  8
DEFPOINTS
  6
CONTINUOUS
 62
     0
 10
-83.68271281867796
 20
-2414.753117527766
 30
0.0
  0
POINT
  5
37B
  8
DEFPOINTS
  6
CONTINUOUS
 62
     0
 10
-36.14500261666274
 20
-2414.753117527766
 30
0.0
  0
ENDBLK
  5
37C
  8
0
 62
     7
  0
BLOCK
  8
0
  2
*D99
 70
     1
 10
0.0
 20
0.0
 30
0.0
  3
*D99
  1

  0
LINE
  5
360
  8
回02-寸法
  6
CONTINUOUS
 62
     5
 10
-301.3827128186778
 20
-2423.003117527771
 30
0.0
 11
-301.3827128186778
 21
-2399.132458459169
 31
0.0
  0
LINE
  5
361
  8
回02-寸法
  6
CONTINUOUS
 62
     5
 10
-311.2827128186777
 20
-2414.753117527765
 30
0.0
 11
-311.2827128186777
 21
-2399.132458459169
 31
0.0
  0
LINE
  5
362
  8
回02-寸法
  6
CONTINUOUS
 62
     5
 10
-299.8827128186777
 20
-2400.132458459169
 30
0.0
 11
-298.3827128186778
 21
-2400.132458459169
 31
0.0
  0
LINE
  5
363
  8
回02-寸法
  6
CONTINUOUS
 62
     5
 10
-312.7827128186777
 20
-2400.132458459169
 30
0.0
 11
-321.3347721596341
 21
-2400.132458459169
 31
0.0
  0
LINE
  5
364
  8
回02-寸法
  6
CONTINUOUS
 62
     5
 10
-301.3827128186778
 20
-2400.132458459169
 30
0.0
 11
-311.2827128186777
 21
-2400.132458459169
 31
0.0
  0
INSERT
  5
365
  8
回02-寸法
  6
CONTINUOUS
 62
     5
 66
     1
  2
_OPEN
 10
-301.3827128186778
 20
-2400.132458459169
 30
0.0
 41
1.5
 42
1.5
 43
1.5
 50
180.0
  0
SEQEND
  5
366
  8
0
  6
CONTINUOUS
 62
     7
  0
INSERT
  5
367
  8
回02-寸法
  6
CONTINUOUS
 62
     5
 66
     1
  2
_OPEN
 10
-311.2827128186777
 20
-2400.132458459169
 30
0.0
 41
1.5
 42
1.5
 43
1.5
  0
SEQEND
  5
368
  8
0
  6
CONTINUOUS
 62
     7
  0
TEXT
  5
369
  8
回02-寸法
  6
CONTINUOUS
 62
     5
 10
-321.2304047003179
 20
-2399.632458459169
 30
0.0
 40
4.0
  1
9.9
1001
ACAD
1000
MTEXTBEGIN
1070
    73
1070
     1
1070
    44
1040
1.0
1070
    74
1070
     0
1000
MTEXTEND
  0
POINT
  5
36A
  8
DEFPOINTS
  6
CONTINUOUS
 62
     0
 10
-301.3827128186778
 20
-2423.003117527771
 30
0.0
  0
POINT
  5
36B
  8
DEFPOINTS
  6
CONTINUOUS
 62
     0
 10
-311.2827128186777
 20
-2414.753117527765
 30
0.0
  0
POINT
  5
36C
  8
DEFPOINTS
  6
CONTINUOUS
 62
     0
 10
-311.2827128186777
 20
-2400.132458459169
 30
0.0
  0
ENDBLK
  5
36D
  8
0
 62
     7
  0
BLOCK
  8
0
  2
*D1010
 70
     1
 10
0.0
 20
0.0
 30
0.0
  3
*D1010
  1

  0
LINE
  5
34F
  8
回02-寸法
  6
CONTINUOUS
 62
     5
 10
-303.3827128186778
 20
-2421.003117527771
 30
0.0
 11
-303.3827128186778
 21
-2391.685830202479
 31
0.0
  0
LINE
  5
350
  8
回02-寸法
  6
CONTINUOUS
 62
     5
 10
-311.2827128186777
 20
-2414.753117527765
 30
0.0
 11
-311.2827128186777
 21
-2391.685830202479
 31
0.0
  0
LINE
  5
351
  8
回02-寸法
  6
CONTINUOUS
 62
     5
 10
-301.8827128186778
 20
-2392.685830202478
 30
0.0
 11
-300.3827128186778
 21
-2392.685830202478
 31
0.0
  0
LINE
  5
352
  8
回02-寸法
  6
CONTINUOUS
 62
     5
 10
-312.7827128186777
 20
-2392.685830202478
 30
0.0
 11
-321.1690867346848
 21
-2392.685830202478
 31
0.0
  0
LINE
  5
353
  8
回02-寸法
  6
CONTINUOUS
 62
     5
 10
-303.3827128186778
 20
-2392.685830202478
 30
0.0
 11
-311.2827128186777
 21
-2392.685830202478
 31
0.0
  0
INSERT
  5
354
  8
回02-寸法
  6
CONTINUOUS
 62
     5
 66
     1
  2
_OPEN
 10
-303.3827128186778
 20
-2392.685830202478
 30
0.0
 41
1.5
 42
1.5
 43
1.5
 50
180.0
  0
SEQEND
  5
355
  8
0
  6
CONTINUOUS
 62
     7
  0
INSERT
  5
356
  8
回02-寸法
  6
CONTINUOUS
 62
     5
 66
     1
  2
_OPEN
 10
-311.2827128186777
 20
-2392.685830202478
 30
0.0
 41
1.5
 42
1.5
 43
1.5
  0
SEQEND
  5
357
  8
0
  6
CONTINUOUS
 62
     7
  0
TEXT
  5
358
  8
回02-寸法
  6
CONTINUOUS
 62
     5
 10
-321.1331205137353
 20
-2392.185830202478
 30
0.0
 40
4.0
  1
7.9
1001
ACAD
1000
MTEXTBEGIN
1070
    73
1070
     1
1070
    44
1040
1.0
1070
    74
1070
     0
1000
MTEXTEND
  0
POINT
  5
359
  8
DEFPOINTS
  6
CONTINUOUS
 62
     0
 10
-303.3827128186778
 20
-2421.003117527771
 30
0.0
  0
POINT
  5
35A
  8
DEFPOINTS
  6
CONTINUOUS
 62
     0
 10
-311.2827128186777
 20
-2414.753117527765
 30
0.0
  0
POINT
  5
35B
  8
DEFPOINTS
  6
CONTINUOUS
 62
     0
 10
-311.2827128186777
 20
-2392.685830202478
 30
0.0
  0
ENDBLK
  5
35C
  8
0
 62
     7
  0
BLOCK
  8
0
  2
*D1111
 70
     1
 10
0.0
 20
0.0
 30
0.0
  3
*D1111
  1

  0
LINE
  5
33E
  8
回02-寸法
  6
CONTINUOUS
 62
     5
 10
-89.68271281867798
 20
-2581.903117527773
 30
0.0
 11
-57.60932130711645
 21
-2581.903117527773
 31
0.0
  0
LINE
  5
33F
  8
回02-寸法
  6
CONTINUOUS
 62
     5
 10
-83.68271281867796
 20
-2590.153117527764
 30
0.0
 11
-57.60932130711645
 21
-2590.153117527764
 31
0.0
  0
LINE
  5
340
  8
回02-寸法
  6
CONTINUOUS
 62
     5
 10
-58.60932130711645
 20
-2580.403117527773
 30
0.0
 11
-58.60932130711645
 21
-2578.903117527773
 31
0.0
  0
LINE
  5
341
  8
回02-寸法
  6
CONTINUOUS
 62
     5
 10
-58.60932130711645
 20
-2591.653117527764
 30
0.0
 11
-58.60932130711645
 21
-2602.718802952714
 31
0.0
  0
LINE
  5
342
  8
回02-寸法
  6
CONTINUOUS
 62
     5
 10
-58.60932130711645
 20
-2581.903117527773
 30
0.0
 11
-58.60932130711645
 21
-2590.153117527764
 31
0.0
  0
INSERT
  5
343
  8
回02-寸法
  6
CONTINUOUS
 62
     5
 66
     1
  2
_OPEN
 10
-58.60932130711645
 20
-2581.903117527773
 30
0.0
 41
1.5
 42
1.5
 43
1.5
 50
270.0
  0
SEQEND
  5
344
  8
0
  6
CONTINUOUS
 62
     7
  0
INSERT
  5
345
  8
回02-寸法
  6
CONTINUOUS
 62
     5
 66
     1
  2
_OPEN
 10
-58.60932130711645
 20
-2590.153117527764
 30
0.0
 41
1.5
 42
1.5
 43
1.5
 50
90.0
  0
SEQEND
  5
346
  8
0
  6
CONTINUOUS
 62
     7
  0
TEXT
  5
347
  8
回02-寸法
  6
CONTINUOUS
 62
     5
 10
-59.10971500790447
 20
-2602.735960240239
 30
0.0
 40
4.0
  1
8.25
 50
90.0
1001
ACAD
1000
MTEXTBEGIN
1070
    73
1070
     1
1070
    44
1040
1.0
1070
    74
1070
     0
1000
MTEXTEND
  0
POINT
  5
348
  8
DEFPOINTS
  6
CONTINUOUS
 62
     0
 10
-89.68271281867798
 20
-2581.903117527773
 30
0.0
  0
POINT
  5
349
  8
DEFPOINTS
  6
CONTINUOUS
 62
     0
 10
-83.68271281867796
 20
-2590.153117527764
 30
0.0
  0
POINT
  5
34A
  8
DEFPOINTS
  6
CONTINUOUS
 62
     0
 10
-58.60932130711645
 20
-2590.153117527764
 30
0.0
  0
ENDBLK
  5
34B
  8
0
 62
     7
  0
BLOCK
  8
0
  2
*D1212
 70
     1
 10
0.0
 20
0.0
 30
0.0
  3
*D1212
  1

  0
LINE
  5
32D
  8
回02-寸法
  6
CONTINUOUS
 62
     5
 10
-87.68271281867795
 20
-2583.903117527774
 30
0.0
 11
-49.25809484699964
 21
-2583.903117527774
 31
0.0
  0
LINE
  5
32E
  8
回02-寸法
  6
CONTINUOUS
 62
     5
 10
-83.68271281867796
 20
-2590.153117527764
 30
0.0
 11
-49.25809484699964
 21
-2590.153117527764
 31
0.0
  0
LINE
  5
32F
  8
回02-寸法
  6
CONTINUOUS
 62
     5
 10
-50.25809484699966
 20
-2582.403117527773
 30
0.0
 11
-50.25809484699966
 21
-2580.903117527773
 31
0.0
  0
LINE
  5
330
  8
回02-寸法
  6
CONTINUOUS
 62
     5
 10
-50.25809484699966
 20
-2591.653117527764
 30
0.0
 11
-50.25809484699966
 21
-2602.958173031454
 31
0.0
  0
LINE
  5
331
  8
回02-寸法
  6
CONTINUOUS
 62
     5
 10
-50.25809484699966
 20
-2583.903117527774
 30
0.0
 11
-50.25809484699966
 21
-2590.153117527764
 31
0.0
  0
INSERT
  5
332
  8
回02-寸法
  6
CONTINUOUS
 62
     5
 66
     1
  2
_OPEN
 10
-50.25809484699966
 20
-2583.903117527774
 30
0.0
 41
1.5
 42
1.5
 43
1.5
 50
270.0
  0
SEQEND
  5
333
  8
0
  6
CONTINUOUS
 62
     7
  0
INSERT
  5
334
  8
回02-寸法
  6
CONTINUOUS
 62
     5
 66
     1
  2
_OPEN
 10
-50.25809484699966
 20
-2590.153117527764
 30
0.0
 41
1.5
 42
1.5
 43
1.5
 50
90.0
  0
SEQEND
  5
335
  8
0
  6
CONTINUOUS
 62
     7
  0
TEXT
  5
336
  8
回02-寸法
  6
CONTINUOUS
 62
     5
 10
-50.75848854778769
 20
-2602.855645279609
 30
0.0
 40
4.0
  1
6.25
 50
90.0
1001
ACAD
1000
MTEXTBEGIN
1070
    73
1070
     1
1070
    44
1040
1.0
1070
    74
1070
     0
1000
MTEXTEND
  0
POINT
  5
337
  8
DEFPOINTS
  6
CONTINUOUS
 62
     0
 10
-87.68271281867795
 20
-2583.903117527774
 30
0.0
  0
POINT
  5
338
  8
DEFPOINTS
  6
CONTINUOUS
 62
     0
 10
-83.68271281867796
 20
-2590.153117527764
 30
0.0
  0
POINT
  5
339
  8
DEFPOINTS
  6
CONTINUOUS
 62
     0
 10
-50.25809484699966
 20
-2590.153117527764
 30
0.0
  0
ENDBLK
  5
33A
  8
0
 62
     7
  0
BLOCK
  8
0
  2
*D1313
 70
     1
 10
0.0
 20
0.0
 30
0.0
  3
*D1313
  1

  0
LINE
  5
31E
  8
回02-寸法
  6
CONTINUOUS
 62
     5
 10
-87.18271281867794
 20
-2420.203117527771
 30
0.0
 11
-87.18271281867794
 21
-2384.660643409846
 31
0.0
  0
LINE
  5
31F
  8
回02-寸法
  6
CONTINUOUS
 62
     5
 10
-303.8827128186778
 20
-2420.203117527771
 30
0.0
 11
-303.8827128186778
 21
-2384.660643409846
 31
0.0
  0
LINE
  5
320
  8
回02-寸法
  6
CONTINUOUS
 62
     5
 10
-88.68271281867794
 20
-2385.660643409845
 30
0.0
 11
-302.3827128186777
 21
-2385.660643409845
 31
0.0
  0
INSERT
  5
321
  8
回02-寸法
  6
CONTINUOUS
 62
     5
 66
     1
  2
_OPEN
 10
-87.18271281867794
 20
-2385.660643409845
 30
0.0
 41
1.5
 42
1.5
 43
1.5
  0
SEQEND
  5
322
  8
0
  6
CONTINUOUS
 62
     7
  0
INSERT
  5
323
  8
回02-寸法
  6
CONTINUOUS
 62
     5
 66
     1
  2
_OPEN
 10
-303.8827128186778
 20
-2385.660643409845
 30
0.0
 41
1.5
 42
1.5
 43
1.5
 50
180.0
  0
SEQEND
  5
324
  8
0
  6
CONTINUOUS
 62
     7
  0
TEXT
  5
325
  8
回02-寸法
  6
CONTINUOUS
 62
     5
 10
-201.3327128186778
 20
-2385.160249709058
 30
0.0
 40
4.0
  1
216.7
1001
ACAD
1000
MTEXTBEGIN
1070
    73
1070
     1
1070
    44
1040
1.0
1070
    74
1070
     0
1000
MTEXTEND
  0
POINT
  5
326
  8
DEFPOINTS
  6
CONTINUOUS
 62
     0
 10
-87.18271281867794
 20
-2420.203117527771
 30
0.0
  0
POINT
  5
327
  8
DEFPOINTS
  6
CONTINUOUS
 62
     0
 10
-303.8827128186778
 20
-2420.203117527771
 30
0.0
  0
POINT
  5
328
  8
DEFPOINTS
  6
CONTINUOUS
 62
     0
 10
-303.8827128186778
 20
-2385.660643409845
 30
0.0
  0
ENDBLK
  5
329
  8
0
 62
     7
  0
BLOCK
  8
0
  2
*D1414
 70
     1
 10
0.0
 20
0.0
 30
0.0
  3
*D1414
  1

  0
LINE
  5
30F
  8
回02-寸法
  6
CONTINUOUS
 62
     5
 10
-87.18271281867798
 20
-2420.203117527772
 30
0.0
 11
-42.26903116456266
 21
-2420.203117527772
 31
0.0
  0
LINE
  5
310
  8
回02-寸法
  6
CONTINUOUS
 62
     5
 10
-87.18271281867798
 20
-2584.703117527772
 30
0.0
 11
-42.26903116456263
 21
-2584.703117527772
 31
0.0
  0
LINE
  5
311
  8
回02-寸法
  6
CONTINUOUS
 62
     5
 10
-43.26903116456267
 20
-2421.703117527772
 30
0.0
 11
-43.26903116456267
 21
-2583.203117527772
 31
0.0
  0
INSERT
  5
312
  8
回02-寸法
  6
CONTINUOUS
 62
     5
 66
     1
  2
_OPEN
 10
-43.26903116456267
 20
-2420.203117527772
 30
0.0
 41
1.5
 42
1.5
 43
1.5
 50
90.0
  0
SEQEND
  5
313
  8
0
  6
CONTINUOUS
 62
     7
  0
INSERT
  5
314
  8
回02-寸法
  6
CONTINUOUS
 62
     5
 66
     1
  2
_OPEN
 10
-43.26903116456263
 20
-2584.703117527772
 30
0.0
 41
1.5
 42
1.5
 43
1.5
 50
270.0
  0
SEQEND
  5
315
  8
0
  6
CONTINUOUS
 62
     7
  0
TEXT
  5
316
  8
回02-寸法
  6
CONTINUOUS
 62
     5
 10
-43.76903116456333
 20
-2508.453117527772
 30
0.0
 40
4.0
  1
164.5
 50
90.0
1001
ACAD
1000
MTEXTBEGIN
1070
    73
1070
     1
1070
    44
1040
1.0
1070
    74
1070
     0
1000
MTEXTEND
  0
POINT
  5
317
  8
DEFPOINTS
  6
CONTINUOUS
 62
     0
 10
-87.18271281867798
 20
-2420.203117527772
 30
0.0
  0
POINT
  5
318
  8
DEFPOINTS
  6
CONTINUOUS
 62
     0
 10
-87.18271281867798
 20
-2584.703117527772
 30
0.0
  0
POINT
  5
319
  8
DEFPOINTS
  6
CONTINUOUS
 62
     0
 10
-43.26903116456263
 20
-2584.703117527772
 30
0.0
  0
ENDBLK
  5
31A
  8
0
 62
     7
  0
BLOCK
  8
0
  2
*D1515
 70
     1
 10
0.0
 20
0.0
 30
0.0
  3
*D1515
  1

  0
LINE
  5
2FE
  8
回02-寸法
  6
CONTINUOUS
 62
     5
 10
-87.18271281867798
 20
-2420.203117527772
 30
0.0
 11
-42.26903116456274
 21
-2420.203117527772
 31
0.0
  0
LINE
  5
2FF
  8
回02-寸法
  6
CONTINUOUS
 62
     5
 10
-83.68271281867796
 20
-2414.753117527766
 30
0.0
 11
-42.26903116456276
 21
-2414.753117527766
 31
0.0
  0
LINE
  5
300
  8
回02-寸法
  6
CONTINUOUS
 62
     5
 10
-43.26903116456274
 20
-2421.703117527772
 30
0.0
 11
-43.26903116456274
 21
-2423.203117527772
 31
0.0
  0
LINE
  5
301
  8
回02-寸法
  6
CONTINUOUS
 62
     5
 10
-43.26903116456276
 20
-2413.253117527766
 30
0.0
 11
-43.26903116456276
 21
-2398.756267134065
 31
0.0
  0
LINE
  5
302
  8
回02-寸法
  6
CONTINUOUS
 62
     5
 10
-43.26903116456274
 20
-2420.203117527772
 30
0.0
 11
-43.26903116456274
 21
-2414.753117527766
 31
0.0
  0
INSERT
  5
303
  8
回02-寸法
  6
CONTINUOUS
 62
     5
 66
     1
  2
_OPEN
 10
-43.26903116456274
 20
-2420.203117527772
 30
0.0
 41
1.5
 42
1.5
 43
1.5
 50
90.0
  0
SEQEND
  5
304
  8
0
  6
CONTINUOUS
 62
     7
  0
INSERT
  5
305
  8
回02-寸法
  6
CONTINUOUS
 62
     5
 66
     1
  2
_OPEN
 10
-43.26903116456276
 20
-2414.753117527766
 30
0.0
 41
1.5
 42
1.5
 43
1.5
 50
270.0
  0
SEQEND
  5
306
  8
0
  6
CONTINUOUS
 62
     7
  0
TEXT
  5
307
  8
回02-寸法
  6
CONTINUOUS
 62
     5
 10
-43.9690311645636
 20
-2411.854692330915
 30
0.0
 40
4.0
  1
(5.45) 
 50
90.0
1001
ACAD
1000
MTEXTBEGIN
1070
    73
1070
     1
1070
    44
1040
1.0
1070
    74
1070
     0
1000
MTEXTEND
  0
POINT
  5
308
  8
DEFPOINTS
  6
CONTINUOUS
 62
     0
 10
-87.18271281867798
 20
-2420.203117527772
 30
0.0
  0
POINT
  5
309
  8
DEFPOINTS
  6
CONTINUOUS
 62
     0
 10
-83.68271281867796
 20
-2414.753117527766
 30
0.0
  0
POINT
  5
30A
  8
DEFPOINTS
  6
CONTINUOUS
 62
     0
 10
-43.26903116456276
 20
-2414.753117527766
 30
0.0
  0
ENDBLK
  5
30B
  8
0
 62
     7
  0
BLOCK
  8
0
  2
*D1616
 70
     1
 10
0.0
 20
0.0
 30
0.0
  3
*D1616
  1

  0
LINE
  5
2ED
  8
回02-寸法
  6
CONTINUOUS
 62
     5
 10
-87.68271281867795
 20
-2421.003117527773
 30
0.0
 11
-49.25809484699962
 21
-2421.003117527773
 31
0.0
  0
LINE
  5
2EE
  8
回02-寸法
  6
CONTINUOUS
 62
     5
 10
-83.68271281867796
 20
-2414.753117527766
 30
0.0
 11
-49.25809484699962
 21
-2414.753117527766
 31
0.0
  0
LINE
  5
2EF
  8
回02-寸法
  6
CONTINUOUS
 62
     5
 10
-50.25809484699962
 20
-2422.503117527773
 30
0.0
 11
-50.25809484699962
 21
-2424.003117527772
 31
0.0
  0
LINE
  5
2F0
  8
回02-寸法
  6
CONTINUOUS
 62
     5
 10
-50.25809484699962
 20
-2413.253117527766
 30
0.0
 11
-50.25809484699962
 21
-2399.156267134065
 31
0.0
  0
LINE
  5
2F1
  8
回02-寸法
  6
CONTINUOUS
 62
     5
 10
-50.25809484699962
 20
-2421.003117527773
 30
0.0
 11
-50.25809484699962
 21
-2414.753117527766
 31
0.0
  0
INSERT
  5
2F2
  8
回02-寸法
  6
CONTINUOUS
 62
     5
 66
     1
  2
_OPEN
 10
-50.25809484699962
 20
-2421.003117527773
 30
0.0
 41
1.5
 42
1.5
 43
1.5
 50
90.0
  0
SEQEND
  5
2F3
  8
0
  6
CONTINUOUS
 62
     7
  0
INSERT
  5
2F4
  8
回02-寸法
  6
CONTINUOUS
 62
     5
 66
     1
  2
_OPEN
 10
-50.25809484699962
 20
-2414.753117527766
 30
0.0
 41
1.5
 42
1.5
 43
1.5
 50
270.0
  0
SEQEND
  5
2F5
  8
0
  6
CONTINUOUS
 62
     7
  0
TEXT
  5
2F6
  8
回02-寸法
  6
CONTINUOUS
 62
     5
 10
-50.95809484700021
 20
-2411.854692330914
 30
0.0
 40
4.0
  1
(6.25)
 50
90.0
1001
ACAD
1000
MTEXTBEGIN
1070
    73
1070
     1
1070
    44
1040
1.0
1070
    74
1070
     0
1000
MTEXTEND
  0
POINT
  5
2F7
  8
DEFPOINTS
  6
CONTINUOUS
 62
     0
 10
-87.68271281867795
 20
-2421.003117527773
 30
0.0
  0
POINT
  5
2F8
  8
DEFPOINTS
  6
CONTINUOUS
 62
     0
 10
-83.68271281867796
 20
-2414.753117527766
 30
0.0
  0
POINT
  5
2F9
  8
DEFPOINTS
  6
CONTINUOUS
 62
     0
 10
-50.25809484699962
 20
-2414.753117527766
 30
0.0
  0
ENDBLK
  5
2FA
  8
0
 62
     7
  0
BLOCK
  8
0
  2
*D1717
 70
     1
 10
0.0
 20
0.0
 30
0.0
  3
*D1717
  1

  0
LINE
  5
2DC
  8
回02-寸法
  6
CONTINUOUS
 62
     5
 10
-89.68271281867798
 20
-2423.003117527772
 30
0.0
 11
-57.60932130711672
 21
-2423.003117527772
 31
0.0
  0
LINE
  5
2DD
  8
回02-寸法
  6
CONTINUOUS
 62
     5
 10
-83.68271281867796
 20
-2414.753117527766
 30
0.0
 11
-57.60932130711672
 21
-2414.753117527766
 31
0.0
  0
LINE
  5
2DE
  8
回02-寸法
  6
CONTINUOUS
 62
     5
 10
-58.60932130711671
 20
-2424.503117527772
 30
0.0
 11
-58.60932130711671
 21
-2426.003117527772
 31
0.0
  0
LINE
  5
2DF
  8
回02-寸法
  6
CONTINUOUS
 62
     5
 10
-58.60932130711673
 20
-2413.253117527766
 30
0.0
 11
-58.60932130711673
 21
-2399.156267134065
 31
0.0
  0
LINE
  5
2E0
  8
回02-寸法
  6
CONTINUOUS
 62
     5
 10
-58.60932130711671
 20
-2423.003117527772
 30
0.0
 11
-58.60932130711671
 21
-2414.753117527766
 31
0.0
  0
INSERT
  5
2E1
  8
回02-寸法
  6
CONTINUOUS
 62
     5
 66
     1
  2
_OPEN
 10
-58.60932130711671
 20
-2423.003117527772
 30
0.0
 41
1.5
 42
1.5
 43
1.5
 50
90.0
  0
SEQEND
  5
2E2
  8
0
  6
CONTINUOUS
 62
     7
  0
INSERT
  5
2E3
  8
回02-寸法
  6
CONTINUOUS
 62
     5
 66
     1
  2
_OPEN
 10
-58.60932130711673
 20
-2414.753117527766
 30
0.0
 41
1.5
 42
1.5
 43
1.5
 50
270.0
  0
SEQEND
  5
2E4
  8
0
  6
CONTINUOUS
 62
     7
  0
TEXT
  5
2E5
  8
回02-寸法
  6
CONTINUOUS
 62
     5
 10
-59.30932130711743
 20
-2411.854692330914
 30
0.0
 40
4.0
  1
(8.25)
 50
90.0
1001
ACAD
1000
MTEXTBEGIN
1070
    73
1070
     1
1070
    44
1040
1.0
1070
    74
1070
     0
1000
MTEXTEND
  0
POINT
  5
2E6
  8
DEFPOINTS
  6
CONTINUOUS
 62
     0
 10
-89.68271281867798
 20
-2423.003117527772
 30
0.0
  0
POINT
  5
2E7
  8
DEFPOINTS
  6
CONTINUOUS
 62
     0
 10
-83.68271281867796
 20
-2414.753117527766
 30
0.0
  0
POINT
  5
2E8
  8
DEFPOINTS
  6
CONTINUOUS
 62
     0
 10
-58.60932130711673
 20
-2414.753117527766
 30
0.0
  0
ENDBLK
  5
2E9
  8
0
 62
     7
  0
BLOCK
  8
0
  2
*D1818
 70
     1
 10
0.0
 20
0.0
 30
0.0
  3
*D1818
  1

  0
LINE
  5
2CB
  8
回02-寸法
  6
CONTINUOUS
 62
     5
 10
-87.18271281867798
 20
-2584.703117527772
 30
0.0
 11
-42.26903116456277
 21
-2584.703117527772
 31
0.0
  0
LINE
  5
2CC
  8
回02-寸法
  6
CONTINUOUS
 62
     5
 10
-83.68271281867796
 20
-2590.153117527764
 30
0.0
 11
-42.26903116456277
 21
-2590.153117527764
 31
0.0
  0
LINE
  5
2CD
  8
回02-寸法
  6
CONTINUOUS
 62
     5
 10
-43.26903116456278
 20
-2583.203117527772
 30
0.0
 11
-43.26903116456278
 21
-2581.703117527772
 31
0.0
  0
LINE
  5
2CE
  8
回02-寸法
  6
CONTINUOUS
 62
     5
 10
-43.26903116456278
 20
-2591.653117527764
 30
0.0
 11
-43.26903116456278
 21
-2643.361542724615
 31
0.0
  0
LINE
  5
2CF
  8
回02-寸法
  6
CONTINUOUS
 62
     5
 10
-43.26903116456278
 20
-2584.703117527772
 30
0.0
 11
-43.26903116456278
 21
-2590.153117527764
 31
0.0
  0
INSERT
  5
2D0
  8
回02-寸法
  6
CONTINUOUS
 62
     5
 66
     1
  2
_OPEN
 10
-43.26903116456278
 20
-2584.703117527772
 30
0.0
 41
1.5
 42
1.5
 43
1.5
 50
270.0
  0
SEQEND
  5
2D1
  8
0
  6
CONTINUOUS
 62
     7
  0
INSERT
  5
2D2
  8
回02-寸法
  6
CONTINUOUS
 62
     5
 66
     1
  2
_OPEN
 10
-43.26903116456278
 20
-2590.153117527764
 30
0.0
 41
1.5
 42
1.5
 43
1.5
 50
90.0
  0
SEQEND
  5
2D3
  8
0
  6
CONTINUOUS
 62
     7
  0
TEXT
  5
2D4
  8
回02-寸法
  6
CONTINUOUS
 62
     5
 10
-43.97403116456371
 20
-2643.461542724614
 30
0.0
 40
4.0
  1
5.45(Insulation Area)
 50
90.0
1001
ACAD
1000
MTEXTBEGIN
1070
    73
1070
     1
1070
    44
1040
1.0
1070
    74
1070
     0
1000
MTEXTEND
  0
POINT
  5
2D5
  8
DEFPOINTS
  6
CONTINUOUS
 62
     0
 10
-87.18271281867798
 20
-2584.703117527772
 30
0.0
  0
POINT
  5
2D6
  8
DEFPOINTS
  6
CONTINUOUS
 62
     0
 10
-83.68271281867796
 20
-2590.153117527764
 30
0.0
  0
POINT
  5
2D7
  8
DEFPOINTS
  6
CONTINUOUS
 62
     0
 10
-43.26903116456278
 20
-2590.153117527764
 30
0.0
  0
ENDBLK
  5
2D8
  8
0
 62
     7
  0
BLOCK
  8
0
  2
*D1919
 70
     1
 10
0.0
 20
0.0
 30
0.0
  3
*D1919
  1

  0
LINE
  5
2BA
  8
回02-寸法
  6
CONTINUOUS
 62
     5
 10
-89.68271281867794
 20
-2423.003117527771
 30
0.0
 11
-89.68271281867794
 21
-2399.132458459169
 31
0.0
  0
LINE
  5
2BB
  8
回02-寸法
  6
CONTINUOUS
 62
     5
 10
-83.68271281867794
 20
-2414.753117527765
 30
0.0
 11
-83.68271281867794
 21
-2399.132458459169
 31
0.0
  0
LINE
  5
2BC
  8
回02-寸法
  6
CONTINUOUS
 62
     5
 10
-91.18271281867794
 20
-2400.132458459169
 30
0.0
 11
-92.68271281867795
 21
-2400.132458459169
 31
0.0
  0
LINE
  5
2BD
  8
回02-寸法
  6
CONTINUOUS
 62
     5
 10
-82.18271281867794
 20
-2400.132458459169
 30
0.0
 11
-74.88586242497699
 21
-2400.132458459169
 31
0.0
  0
LINE
  5
2BE
  8
回02-寸法
  6
CONTINUOUS
 62
     5
 10
-89.68271281867794
 20
-2400.132458459169
 30
0.0
 11
-83.68271281867794
 21
-2400.132458459169
 31
0.0
  0
INSERT
  5
2BF
  8
回02-寸法
  6
CONTINUOUS
 62
     5
 66
     1
  2
_OPEN
 10
-89.68271281867794
 20
-2400.132458459169
 30
0.0
 41
1.5
 42
1.5
 43
1.5
  0
SEQEND
  5
2C0
  8
0
  6
CONTINUOUS
 62
     7
  0
INSERT
  5
2C1
  8
回02-寸法
  6
CONTINUOUS
 62
     5
 66
     1
  2
_OPEN
 10
-83.68271281867794
 20
-2400.132458459169
 30
0.0
 41
1.5
 42
1.5
 43
1.5
 50
180.0
  0
SEQEND
  5
2C2
  8
0
  6
CONTINUOUS
 62
     7
  0
TEXT
  5
2C3
  8
回02-寸法
  6
CONTINUOUS
 62
     5
 10
-80.78428762182737
 20
-2399.432458459169
 30
0.0
 40
4.0
  1
(6)
1001
ACAD
1000
MTEXTBEGIN
1070
    73
1070
     1
1070
    44
1040
1.0
1070
    74
1070
     0
1000
MTEXTEND
  0
POINT
  5
2C4
  8
DEFPOINTS
  6
CONTINUOUS
 62
     0
 10
-89.68271281867794
 20
-2423.003117527771
 30
0.0
  0
POINT
  5
2C5
  8
DEFPOINTS
  6
CONTINUOUS
 62
     0
 10
-83.68271281867794
 20
-2414.753117527765
 30
0.0
  0
POINT
  5
2C6
  8
DEFPOINTS
  6
CONTINUOUS
 62
     0
 10
-83.68271281867794
 20
-2400.132458459169
 30
0.0
  0
ENDBLK
  5
2C7
  8
0
 62
     7
  0
BLOCK
  8
0
  2
*D2020
 70
     1
 10
0.0
 20
0.0
 30
0.0
  3
*D2020
  1

  0
LINE
  5
2A9
  8
回02-寸法
  6
CONTINUOUS
 62
     5
 10
-87.68271281867795
 20
-2421.003117527771
 30
0.0
 11
-87.68271281867795
 21
-2391.685830202479
 31
0.0
  0
LINE
  5
2AA
  8
回02-寸法
  6
CONTINUOUS
 62
     5
 10
-83.68271281867794
 20
-2414.753117527765
 30
0.0
 11
-83.68271281867794
 21
-2391.685830202479
 31
0.0
  0
LINE
  5
2AB
  8
回02-寸法
  6
CONTINUOUS
 62
     5
 10
-89.18271281867793
 20
-2392.685830202478
 30
0.0
 11
-90.68271281867794
 21
-2392.685830202478
 31
0.0
  0
LINE
  5
2AC
  8
回02-寸法
  6
CONTINUOUS
 62
     5
 10
-82.18271281867794
 20
-2392.685830202478
 30
0.0
 11
-74.48586242497715
 21
-2392.685830202478
 31
0.0
  0
LINE
  5
2AD
  8
回02-寸法
  6
CONTINUOUS
 62
     5
 10
-87.68271281867795
 20
-2392.685830202478
 30
0.0
 11
-83.68271281867794
 21
-2392.685830202478
 31
0.0
  0
INSERT
  5
2AE
  8
回02-寸法
  6
CONTINUOUS
 62
     5
 66
     1
  2
_OPEN
 10
-87.68271281867795
 20
-2392.685830202478
 30
0.0
 41
1.5
 42
1.5
 43
1.5
  0
SEQEND
  5
2AF
  8
0
  6
CONTINUOUS
 62
     7
  0
INSERT
  5
2B0
  8
回02-寸法
  6
CONTINUOUS
 62
     5
 66
     1
  2
_OPEN
 10
-83.68271281867794
 20
-2392.685830202478
 30
0.0
 41
1.5
 42
1.5
 43
1.5
 50
180.0
  0
SEQEND
  5
2B1
  8
0
  6
CONTINUOUS
 62
     7
  0
TEXT
  5
2B2
  8
回02-寸法
  6
CONTINUOUS
 62
     5
 10
-80.78428762182754
 20
-2391.985830202479
 30
0.0
 40
4.0
  1
(4)
1001
ACAD
1000
MTEXTBEGIN
1070
    73
1070
     1
1070
    44
1040
1.0
1070
    74
1070
     0
1000
MTEXTEND
  0
POINT
  5
2B3
  8
DEFPOINTS
  6
CONTINUOUS
 62
     0
 10
-87.68271281867795
 20
-2421.003117527771
 30
0.0
  0
POINT
  5
2B4
  8
DEFPOINTS
  6
CONTINUOUS
 62
     0
 10
-83.68271281867794
 20
-2414.753117527765
 30
0.0
  0
POINT
  5
2B5
  8
DEFPOINTS
  6
CONTINUOUS
 62
     0
 10
-83.68271281867794
 20
-2392.685830202478
 30
0.0
  0
ENDBLK
  5
2B6
  8
0
 62
     7
  0
BLOCK
  8
0
  2
*D2121
 70
     1
 10
0.0
 20
0.0
 30
0.0
  3
*D2121
  1

  0
LINE
  5
298
  8
回02-寸法
  6
CONTINUOUS
 62
     5
 10
-87.18271281867794
 20
-2420.203117527771
 30
0.0
 11
-87.18271281867794
 21
-2384.660643409846
 31
0.0
  0
LINE
  5
299
  8
回02-寸法
  6
CONTINUOUS
 62
     5
 10
-83.68271281867794
 20
-2414.753117527765
 30
0.0
 11
-83.68271281867794
 21
-2384.660643409846
 31
0.0
  0
LINE
  5
29A
  8
回02-寸法
  6
CONTINUOUS
 62
     5
 10
-88.68271281867794
 20
-2385.660643409845
 30
0.0
 11
-90.18271281867795
 21
-2385.660643409845
 31
0.0
  0
LINE
  5
29B
  8
回02-寸法
  6
CONTINUOUS
 62
     5
 10
-82.18271281867794
 20
-2385.660643409845
 30
0.0
 11
-70.88586242497716
 21
-2385.660643409845
 31
0.0
  0
LINE
  5
29C
  8
回02-寸法
  6
CONTINUOUS
 62
     5
 10
-87.18271281867794
 20
-2385.660643409845
 30
0.0
 11
-83.68271281867794
 21
-2385.660643409845
 31
0.0
  0
INSERT
  5
29D
  8
回02-寸法
  6
CONTINUOUS
 62
     5
 66
     1
  2
_OPEN
 10
-87.18271281867794
 20
-2385.660643409845
 30
0.0
 41
1.5
 42
1.5
 43
1.5
  0
SEQEND
  5
29E
  8
0
  6
CONTINUOUS
 62
     7
  0
INSERT
  5
29F
  8
回02-寸法
  6
CONTINUOUS
 62
     5
 66
     1
  2
_OPEN
 10
-83.68271281867794
 20
-2385.660643409845
 30
0.0
 41
1.5
 42
1.5
 43
1.5
 50
180.0
  0
SEQEND
  5
2A0
  8
0
  6
CONTINUOUS
 62
     7
  0
TEXT
  5
2A1
  8
回02-寸法
  6
CONTINUOUS
 62
     5
 10
-80.78428762182754
 20
-2384.960643409845
 30
0.0
 40
4.0
  1
(3.5)
1001
ACAD
1000
MTEXTBEGIN
1070
    73
1070
     1
1070
    44
1040
1.0
1070
    74
1070
     0
1000
MTEXTEND
  0
POINT
  5
2A2
  8
DEFPOINTS
  6
CONTINUOUS
 62
     0
 10
-87.18271281867794
 20
-2420.203117527771
 30
0.0
  0
POINT
  5
2A3
  8
DEFPOINTS
  6
CONTINUOUS
 62
     0
 10
-83.68271281867794
 20
-2414.753117527765
 30
0.0
  0
POINT
  5
2A4
  8
DEFPOINTS
  6
CONTINUOUS
 62
     0
 10
-83.68271281867794
 20
-2385.660643409845
 30
0.0
  0
ENDBLK
  5
2A5
  8
0
 62
     7
  0
BLOCK
  8
0
  2
*D2222
 70
     1
 10
0.0
 20
0.0
 30
0.0
  3
*D2222
  1

  0
LINE
  5
287
  8
回02-寸法
  6
CONTINUOUS
 62
     5
 10
-303.8827128186778
 20
-2420.203117527771
 30
0.0
 11
-303.8827128186778
 21
-2384.660643409846
 31
0.0
  0
LINE
  5
288
  8
回02-寸法
  6
CONTINUOUS
 62
     5
 10
-311.2827128186777
 20
-2414.753117527765
 30
0.0
 11
-311.2827128186777
 21
-2384.660643409846
 31
0.0
  0
LINE
  5
289
  8
回02-寸法
  6
CONTINUOUS
 62
     5
 10
-302.3827128186777
 20
-2385.660643409845
 30
0.0
 11
-300.8827128186778
 21
-2385.660643409845
 31
0.0
  0
LINE
  5
28A
  8
回02-寸法
  6
CONTINUOUS
 62
     5
 10
-312.7827128186777
 20
-2385.660643409845
 30
0.0
 11
-361.6911380155282
 21
-2385.660643409845
 31
0.0
  0
LINE
  5
28B
  8
回02-寸法
  6
CONTINUOUS
 62
     5
 10
-303.8827128186778
 20
-2385.660643409845
 30
0.0
 11
-311.2827128186777
 21
-2385.660643409845
 31
0.0
  0
INSERT
  5
28C
  8
回02-寸法
  6
CONTINUOUS
 62
     5
 66
     1
  2
_OPEN
 10
-303.8827128186778
 20
-2385.660643409845
 30
0.0
 41
1.5
 42
1.5
 43
1.5
 50
180.0
  0
SEQEND
  5
28D
  8
0
  6
CONTINUOUS
 62
     7
  0
INSERT
  5
28E
  8
回02-寸法
  6
CONTINUOUS
 62
     5
 66
     1
  2
_OPEN
 10
-311.2827128186777
 20
-2385.660643409845
 30
0.0
 41
1.5
 42
1.5
 43
1.5
  0
SEQEND
  5
28F
  8
0
  6
CONTINUOUS
 62
     7
  0
TEXT
  5
290
  8
回02-寸法
  6
CONTINUOUS
 62
     5
 10
-361.7911380155282
 20
-2384.955643409846
 30
0.0
 40
4.0
  1
7.4(Insulation Area)
1001
ACAD
1000
MTEXTBEGIN
1070
    73
1070
     1
1070
    44
1040
1.0
1070
    74
1070
     0
1000
MTEXTEND
  0
POINT
  5
291
  8
DEFPOINTS
  6
CONTINUOUS
 62
     0
 10
-303.8827128186778
 20
-2420.203117527771
 30
0.0
  0
POINT
  5
292
  8
DEFPOINTS
  6
CONTINUOUS
 62
     0
 10
-311.2827128186777
 20
-2414.753117527765
 30
0.0
  0
POINT
  5
293
  8
DEFPOINTS
  6
CONTINUOUS
 62
     0
 10
-311.2827128186777
 20
-2385.660643409845
 30
0.0
  0
ENDBLK
  5
294
  8
0
 62
     7
  0
BLOCK
  8
0
  2
*D2323
 70
     1
 10
0.0
 20
0.0
 30
0.0
  3
*D2323
  1

  0
LINE
  5
276
  8
回02-寸法
  6
CONTINUOUS
 62
     5
 10
-315.4746427270426
 20
-2494.443455748173
 30
0.0
 11
-339.8444006544801
 21
-2494.443455748173
 31
0.0
  0
LINE
  5
277
  8
回02-寸法
  6
CONTINUOUS
 62
     5
 10
-315.4704691413369
 20
-2510.442252713902
 30
0.0
 11
-339.8444006544801
 21
-2510.442252713902
 31
0.0
  0
LINE
  5
278
  8
回02-寸法
  6
CONTINUOUS
 62
     5
 10
-338.8444006544801
 20
-2492.443455748173
 30
0.0
 11
-338.8444006544801
 21
-2490.443455748173
 31
0.0
  0
LINE
  5
279
  8
回02-寸法
  6
CONTINUOUS
 62
     5
 10
-338.8444006544801
 20
-2512.442252713902
 30
0.0
 11
-338.8444006544801
 21
-2522.15233012619
 31
0.0
  0
LINE
  5
27A
  8
回02-寸法
  6
CONTINUOUS
 62
     5
 10
-338.8444006544801
 20
-2494.443455748173
 30
0.0
 11
-338.8444006544801
 21
-2510.442252713902
 31
0.0
  0
INSERT
  5
27B
  8
回02-寸法
  6
CONTINUOUS
 62
     5
 66
     1
  2
_OPEN
 10
-338.8444006544801
 20
-2494.443455748173
 30
0.0
 41
2.0
 42
2.0
 43
2.0
 50
270.0
  0
SEQEND
  5
27C
  8
0
  6
CONTINUOUS
 62
     7
  0
INSERT
  5
27D
  8
回02-寸法
  6
CONTINUOUS
 62
     5
 66
     1
  2
_OPEN
 10
-338.8444006544801
 20
-2510.442252713902
 30
0.0
 41
2.0
 42
2.0
 43
2.0
 50
90.0
  0
SEQEND
  5
27E
  8
0
  6
CONTINUOUS
 62
     7
  0
TEXT
  5
27F
  8
回02-寸法
  6
CONTINUOUS
 62
     5
 10
-339.3444006544805
 20
-2522.154787584633
 30
0.0
 40
4.0
  1
16
 50
90.0
1001
ACAD
1000
MTEXTBEGIN
1070
    73
1070
     1
1070
    44
1040
1.0
1070
    74
1070
     0
1000
MTEXTEND
  0
POINT
  5
280
  8
DEFPOINTS
  6
CONTINUOUS
 62
     0
 10
-315.4746427270426
 20
-2494.443455748173
 30
0.0
  0
POINT
  5
281
  8
DEFPOINTS
  6
CONTINUOUS
 62
     0
 10
-315.4704691413369
 20
-2510.442252713902
 30
0.0
  0
POINT
  5
282
  8
DEFPOINTS
  6
CONTINUOUS
 62
     0
 10
-338.8444006544801
 20
-2510.442252713902
 30
0.0
  0
ENDBLK
  5
283
  8
0
 62
     7
  0
BLOCK
  8
0
  2
*D2424
 70
     1
 10
0.0
 20
0.0
 30
0.0
  3
*D2424
  1

  0
LINE
  5
267
  8
回02-寸法
  6
CONTINUOUS
 62
     5
 10
-390.7827563058559
 20
-2505.567252713903
 30
0.0
 11
-402.7258013776166
 21
-2505.567252713903
 31
0.0
  0
LINE
  5
268
  8
回02-寸法
  6
CONTINUOUS
 62
     5
 10
-311.2827128186779
 20
-2590.153117527764
 30
0.0
 11
-402.7258013776166
 21
-2590.153117527764
 31
0.0
  0
LINE
  5
269
  8
回02-寸法
  6
CONTINUOUS
 62
     5
 10
-401.7258013776166
 20
-2507.067252713903
 30
0.0
 11
-401.7258013776166
 21
-2588.653117527764
 31
0.0
  0
INSERT
  5
26A
  8
回02-寸法
  6
CONTINUOUS
 62
     5
 66
     1
  2
_OPEN
 10
-401.7258013776166
 20
-2505.567252713903
 30
0.0
 41
1.5
 42
1.5
 43
1.5
 50
90.0
  0
SEQEND
  5
26B
  8
0
  6
CONTINUOUS
 62
     7
  0
INSERT
  5
26C
  8
回02-寸法
  6
CONTINUOUS
 62
     5
 66
     1
  2
_OPEN
 10
-401.7258013776166
 20
-2590.153117527764
 30
0.0
 41
1.5
 42
1.5
 43
1.5
 50
270.0
  0
SEQEND
  5
26D
  8
0
  6
CONTINUOUS
 62
     7
  0
TEXT
  5
26E
  8
回02-寸法
  6
CONTINUOUS
 62
     5
 10
-402.4257215028141
 20
-2555.867405857887
 30
0.0
 40
4.0
  1
(84.59)
 50
90.0
1001
ACAD
1000
MTEXTBEGIN
1070
    73
1070
     1
1070
    44
1040
1.0
1070
    74
1070
     0
1000
MTEXTEND
  0
POINT
  5
26F
  8
DEFPOINTS
  6
CONTINUOUS
 62
     0
 10
-390.7827563058559
 20
-2505.567252713903
 30
0.0
  0
POINT
  5
270
  8
DEFPOINTS
  6
CONTINUOUS
 62
     0
 10
-311.2827128186779
 20
-2590.153117527764
 30
0.0
  0
POINT
  5
271
  8
DEFPOINTS
  6
CONTINUOUS
 62
     0
 10
-401.7258013776166
 20
-2590.153117527764
 30
0.0
  0
ENDBLK
  5
272
  8
0
 62
     7
  0
BLOCK
  8
0
  2
*D2525
 70
     1
 10
0.0
 20
0.0
 30
0.0
  3
*D2525
  1

  0
LINE
  5
258
  8
回02-寸法
  6
CONTINUOUS
 62
     5
 10
-311.2827128186781
 20
-2493.765128169711
 30
0.0
 11
-311.2827128186781
 21
-2471.536871858922
 31
0.0
  0
LINE
  5
259
  8
回02-寸法
  6
CONTINUOUS
 62
     5
 10
-391.2827563294459
 20
-2499.817252713901
 30
0.0
 11
-391.2827563294459
 21
-2471.536871858922
 31
0.0
  0
LINE
  5
25A
  8
回02-寸法
  6
CONTINUOUS
 62
     5
 10
-312.7827128186781
 20
-2472.536871858922
 30
0.0
 11
-389.7827563294459
 21
-2472.536871858922
 31
0.0
  0
INSERT
  5
25B
  8
回02-寸法
  6
CONTINUOUS
 62
     5
 66
     1
  2
_OPEN
 10
-311.2827128186781
 20
-2472.536871858922
 30
0.0
 41
1.5
 42
1.5
 43
1.5
  0
SEQEND
  5
25C
  8
0
  6
CONTINUOUS
 62
     7
  0
INSERT
  5
25D
  8
回02-寸法
  6
CONTINUOUS
 62
     5
 66
     1
  2
_OPEN
 10
-391.2827563294459
 20
-2472.536871858922
 30
0.0
 41
1.5
 42
1.5
 43
1.5
 50
180.0
  0
SEQEND
  5
25E
  8
0
  6
CONTINUOUS
 62
     7
  0
INSERT
  5
25F
  8
回02-寸法
  6
CONTINUOUS
 62
     5
 66
     1
  2
*X9191
 10
0.0
 20
0.0
 30
0.0
  0
SEQEND
  5
70A
  8
0
  6
CONTINUOUS
 62
     7
  0
POINT
  5
260
  8
DEFPOINTS
  6
CONTINUOUS
 62
     0
 10
-311.2827128186781
 20
-2493.765128169711
 30
0.0
  0
POINT
  5
261
  8
DEFPOINTS
  6
CONTINUOUS
 62
     0
 10
-391.2827563294459
 20
-2499.817252713901
 30
0.0
  0
POINT
  5
262
  8
DEFPOINTS
  6
CONTINUOUS
 62
     0
 10
-391.2827563294459
 20
-2472.536871858922
 30
0.0
  0
ENDBLK
  5
263
  8
0
 62
     7
  0
BLOCK
  8
0
  2
*D2626
 70
     1
 10
0.0
 20
0.0
 30
0.0
  3
*D2626
  1

  0
LINE
  5
245
  8
回02-寸法
  6
CONTINUOUS
 62
     5
 10
-311.2827563294463
 20
-2513.313320525768
 30
0.0
 11
-311.2827563294463
 21
-2526.438558801799
 31
0.0
  0
LINE
  5
246
  8
回02-寸法
  6
CONTINUOUS
 62
     5
 10
-320.7786439387049
 20
-2505.660442170111
 30
0.0
 11
-320.7786439387049
 21
-2526.438558801799
 31
0.0
  0
LINE
  5
247
  8
回02-寸法
  6
CONTINUOUS
 62
     5
 10
-309.2827563294463
 20
-2525.438558801799
 30
0.0
 11
-307.2827563294463
 21
-2525.438558801799
 31
0.0
  0
LINE
  5
248
  8
回02-寸法
  6
CONTINUOUS
 62
     5
 10
-322.7786439387049
 20
-2525.438558801799
 30
0.0
 11
-332.4514361448411
 21
-2525.438558801799
 31
0.0
  0
LINE
  5
249
  8
回02-寸法
  6
CONTINUOUS
 62
     5
 10
-311.2827563294463
 20
-2525.438558801799
 30
0.0
 11
-320.7786439387049
 21
-2525.438558801799
 31
0.0
  0
INSERT
  5
24A
  8
回02-寸法
  6
CONTINUOUS
 62
     5
 66
     1
  2
_OPEN
 10
-311.2827563294463
 20
-2525.438558801799
 30
0.0
 41
2.0
 42
2.0
 43
2.0
 50
180.0
  0
SEQEND
  5
24B
  8
0
  6
CONTINUOUS
 62
     7
  0
INSERT
  5
24C
  8
回02-寸法
  6
CONTINUOUS
 62
     5
 66
     1
  2
_OPEN
 10
-320.7786439387049
 20
-2525.438558801799
 30
0.0
 41
2.0
 42
2.0
 43
2.0
  0
SEQEND
  5
24D
  8
0
  6
CONTINUOUS
 62
     7
  0
TEXT
  5
24E
  8
回02-寸法
  6
CONTINUOUS
 62
     5
 10
-332.4001921939998
 20
-2524.938558801799
 30
0.0
 40
4.0
  1
9.5
1001
ACAD
1000
MTEXTBEGIN
1070
    73
1070
     1
1070
    44
1040
1.0
1070
    74
1070
     0
1000
MTEXTEND
  0
POINT
  5
24F
  8
DEFPOINTS
  6
CONTINUOUS
 62
     0
 10
-311.2827563294463
 20
-2513.313320525768
 30
0.0
  0
POINT
  5
250
  8
DEFPOINTS
  6
CONTINUOUS
 62
     0
 10
-320.7786439387049
 20
-2505.660442170111
 30
0.0
  0
POINT
  5
251
  8
DEFPOINTS
  6
CONTINUOUS
 62
     0
 10
-320.7786439387049
 20
-2525.438558801799
 30
0.0
  0
ENDBLK
  5
252
  8
0
 62
     7
  0
BLOCK
  8
0
  2
*D2727
 70
     1
 10
0.0
 20
0.0
 30
0.0
  3
*D2727
  1

  0
LINE
  5
234
  8
回02-寸法
 62
     5
 10
-390.782756329445
 20
-2499.317252713903
 30
0.0
 11
-402.7258013776152
 21
-2499.317252713903
 31
0.0
  0
LINE
  5
235
  8
回02-寸法
 62
     5
 10
-390.782756329445
 20
-2505.567252713902
 30
0.0
 11
-402.7258013776152
 21
-2505.567252713902
 31
0.0
  0
LINE
  5
236
  8
回02-寸法
 62
     5
 10
-401.7258013776151
 20
-2507.567252713903
 30
0.0
 11
-401.7258013776151
 21
-2509.567252713902
 31
0.0
  0
LINE
  5
237
  8
回02-寸法
 62
     5
 10
-401.7258013776151
 20
-2497.317252713902
 30
0.0
 11
-401.7258013776151
 21
-2476.646275351696
 31
0.0
  0
LINE
  5
238
  8
回02-寸法
 62
     5
 10
-401.7258013776151
 20
-2505.567252713902
 30
0.0
 11
-401.7258013776151
 21
-2499.317252713903
 31
0.0
  0
INSERT
  5
239
  8
回02-寸法
 62
     5
 66
     1
  2
_OPEN
 10
-401.7258013776151
 20
-2505.567252713902
 30
0.0
 41
2.0
 42
2.0
 43
2.0
 50
90.0
  0
SEQEND
  5
23A
  8
0
  6
CONTINUOUS
 62
     7
  0
INSERT
  5
23B
  8
回02-寸法
 62
     5
 66
     1
  2
_OPEN
 10
-401.7258013776151
 20
-2499.317252713903
 30
0.0
 41
2.0
 42
2.0
 43
2.0
 50
270.0
  0
SEQEND
  5
23C
  8
0
  6
CONTINUOUS
 62
     7
  0
INSERT
  5
23D
  8
回02-寸法
 62
     5
 66
     1
  2
*X9292
 10
0.0
 20
0.0
 30
0.0
  0
SEQEND
  5
710
  8
0
  6
CONTINUOUS
 62
     7
  0
POINT
  5
23E
  8
DEFPOINTS
 62
     0
 10
-390.782756329445
 20
-2499.317252713903
 30
0.0
  0
POINT
  5
23F
  8
DEFPOINTS
 62
     0
 10
-390.782756329445
 20
-2505.567252713902
 30
0.0
  0
POINT
  5
240
  8
DEFPOINTS
 62
     0
 10
-401.7258013776151
 20
-2505.567252713902
 30
0.0
  0
ENDBLK
  5
241
  8
0
 62
     7
  0
BLOCK
  8
0
  2
*D2828
 70
     1
 10
0.0
 20
0.0
 30
0.0
  3
*D2828
  1

  0
LINE
  5
223
  8
回02-寸法
  6
CONTINUOUS
 62
     5
 10
-311.2827128186777
 20
-2511.119377058368
 30
0.0
 11
-311.2827128186777
 21
-2518.775528864811
 31
0.0
  0
LINE
  5
224
  8
回02-寸法
  6
CONTINUOUS
 62
     5
 10
-315.8832153312401
 20
-2510.353098794599
 30
0.0
 11
-315.8832153312401
 21
-2518.775528864811
 31
0.0
  0
LINE
  5
225
  8
回02-寸法
  6
CONTINUOUS
 62
     5
 10
-309.2827128186777
 20
-2517.775528864812
 30
0.0
 11
-307.2827128186777
 21
-2517.775528864812
 31
0.0
  0
LINE
  5
226
  8
回02-寸法
  6
CONTINUOUS
 62
     5
 10
-317.8832153312401
 20
-2517.775528864812
 30
0.0
 11
-329.6167782348768
 21
-2517.775528864812
 31
0.0
  0
LINE
  5
227
  8
回02-寸法
  6
CONTINUOUS
 62
     5
 10
-311.2827128186777
 20
-2517.775528864812
 30
0.0
 11
-315.8832153312401
 21
-2517.775528864812
 31
0.0
  0
INSERT
  5
228
  8
回02-寸法
  6
CONTINUOUS
 62
     5
 66
     1
  2
_OPEN
 10
-311.2827128186777
 20
-2517.775528864812
 30
0.0
 41
2.0
 42
2.0
 43
2.0
 50
180.0
  0
SEQEND
  5
229
  8
0
  6
CONTINUOUS
 62
     7
  0
INSERT
  5
22A
  8
回02-寸法
  6
CONTINUOUS
 62
     5
 66
     1
  2
_OPEN
 10
-315.8832153312401
 20
-2517.775528864812
 30
0.0
 41
2.0
 42
2.0
 43
2.0
  0
SEQEND
  5
22B
  8
0
  6
CONTINUOUS
 62
     7
  0
TEXT
  5
22C
  8
回02-寸法
  6
CONTINUOUS
 62
     5
 10
-329.6192356933195
 20
-2517.275528864812
 30
0.0
 40
4.0
  1
4.6
1001
ACAD
1000
MTEXTBEGIN
1070
    73
1070
     1
1070
    44
1040
1.0
1070
    74
1070
     0
1000
MTEXTEND
  0
POINT
  5
22D
  8
DEFPOINTS
  6
CONTINUOUS
 62
     0
 10
-311.2827128186777
 20
-2511.119377058368
 30
0.0
  0
POINT
  5
22E
  8
DEFPOINTS
  6
CONTINUOUS
 62
     0
 10
-315.8832153312401
 20
-2510.353098794599
 30
0.0
  0
POINT
  5
22F
  8
DEFPOINTS
  6
CONTINUOUS
 62
     0
 10
-315.8832153312401
 20
-2517.775528864812
 30
0.0
  0
ENDBLK
  5
230
  8
0
 62
     7
  0
BLOCK
  8
0
  2
*D2929
 70
     1
 10
0.0
 20
0.0
 30
0.0
  3
*D2929
  1

  0
LINE
  5
20D
  8
回02-寸法
  6
CONTINUOUS
 62
     5
 10
-391.2827128186777
 20
-2613.235196198637
 30
0.0
 11
-391.2827128186777
 21
-2604.583698911072
 31
0.0
  0
LINE
  5
20E
  8
回02-寸法
  6
CONTINUOUS
 62
     5
 10
-386.2827128186777
 20
-2613.235196198637
 30
0.0
 11
-386.2827128186777
 21
-2604.583698911072
 31
0.0
  0
LINE
  5
20F
  8
回02-寸法
  6
CONTINUOUS
 62
     5
 10
-393.2827128186777
 20
-2605.583698911072
 30
0.0
 11
-395.2827128186777
 21
-2605.583698911072
 31
0.0
  0
LINE
  5
210
  8
回02-寸法
  6
CONTINUOUS
 62
     5
 10
-384.2827128186777
 20
-2605.583698911072
 30
0.0
 11
-376.8315921771506
 21
-2605.583698911072
 31
0.0
  0
LINE
  5
211
  8
回02-寸法
  6
CONTINUOUS
 62
     5
 10
-391.2827128186777
 20
-2605.583698911072
 30
0.0
 11
-386.2827128186777
 21
-2605.583698911072
 31
0.0
  0
INSERT
  5
212
  8
回02-寸法
  6
CONTINUOUS
 62
     5
 66
     1
  2
_OPEN
 10
-391.2827128186777
 20
-2605.583698911072
 30
0.0
 41
2.0
 42
2.0
 43
2.0
  0
SEQEND
  5
213
  8
0
  6
CONTINUOUS
 62
     7
  0
INSERT
  5
214
  8
回02-寸法
  6
CONTINUOUS
 62
     5
 66
     1
  2
_OPEN
 10
-386.2827128186777
 20
-2605.583698911072
 30
0.0
 41
2.0
 42
2.0
 43
2.0
 50
180.0
  0
SEQEND
  5
215
  8
0
  6
CONTINUOUS
 62
     7
  0
TEXT
  5
216
  8
回02-寸法
  6
CONTINUOUS
 62
     5
 10
-379.6144348896254
 20
-2605.083698911072
 30
0.0
 40
4.0
  1
5
1001
ACAD
1000
MTEXTBEGIN
1070
    73
1070
     1
1070
    44
1040
1.0
1070
    74
1070
     0
1000
MTEXTEND
  0
POINT
  5
217
  8
DEFPOINTS
  6
CONTINUOUS
 62
     0
 10
-391.2827128186777
 20
-2613.235196198637
 30
0.0
  0
POINT
  5
218
  8
DEFPOINTS
  6
CONTINUOUS
 62
     0
 10
-386.2827128186777
 20
-2613.235196198637
 30
0.0
  0
POINT
  5
219
  8
DEFPOINTS
  6
CONTINUOUS
 62
     0
 10
-386.2827128186777
 20
-2605.583698911072
 30
0.0
  0
ENDBLK
  5
21A
  8
0
 62
     7
  0
BLOCK
  8
0
  2
*D3030
 70
     1
 10
0.0
 20
0.0
 30
0.0
  3
*D3030
  1

  0
LINE
  5
1FB
  8
回02-寸法
  6
CONTINUOUS
 62
     5
 10
-391.2827128186777
 20
-2616.235196198637
 30
0.0
 11
-391.2827128186777
 21
-2627.329261019906
 31
0.0
  0
LINE
  5
1FC
  8
回02-寸法
  6
CONTINUOUS
 62
     5
 10
-381.2827128186778
 20
-2616.235196198637
 30
0.0
 11
-381.2827128186778
 21
-2627.329261019906
 31
0.0
  0
LINE
  5
1FD
  8
回02-寸法
  6
CONTINUOUS
 62
     5
 10
-393.2827128186777
 20
-2626.329261019906
 30
0.0
 11
-395.2827128186777
 21
-2626.329261019906
 31
0.0
  0
LINE
  5
1FE
  8
回02-寸法
  6
CONTINUOUS
 62
     5
 10
-379.2827128186778
 20
-2626.329261019906
 30
0.0
 11
-369.4858624249769
 21
-2626.329261019906
 31
0.0
  0
LINE
  5
1FF
  8
回02-寸法
  6
CONTINUOUS
 62
     5
 10
-391.2827128186777
 20
-2626.329261019906
 30
0.0
 11
-381.2827128186778
 21
-2626.329261019906
 31
0.0
  0
INSERT
  5
200
  8
回02-寸法
  6
CONTINUOUS
 62
     5
 66
     1
  2
_OPEN
 10
-391.2827128186777
 20
-2626.329261019906
 30
0.0
 41
2.0
 42
2.0
 43
2.0
  0
SEQEND
  5
201
  8
0
  6
CONTINUOUS
 62
     7
  0
INSERT
  5
202
  8
回02-寸法
  6
CONTINUOUS
 62
     5
 66
     1
  2
_OPEN
 10
-381.2827128186778
 20
-2626.329261019906
 30
0.0
 41
2.0
 42
2.0
 43
2.0
 50
180.0
  0
SEQEND
  5
203
  8
0
  6
CONTINUOUS
 62
     7
  0
TEXT
  5
204
  8
回02-寸法
  6
CONTINUOUS
 62
     5
 10
-377.3842876218273
 20
-2625.529261019906
 30
0.0
 40
4.0
  1
(10)
1001
ACAD
1000
MTEXTBEGIN
1070
    73
1070
     1
1070
    44
1040
1.0
1070
    74
1070
     0
1000
MTEXTEND
  0
POINT
  5
205
  8
DEFPOINTS
  6
CONTINUOUS
 62
     0
 10
-391.2827128186777
 20
-2616.235196198637
 30
0.0
  0
POINT
  5
206
  8
DEFPOINTS
  6
CONTINUOUS
 62
     0
 10
-381.2827128186778
 20
-2616.235196198637
 30
0.0
  0
POINT
  5
207
  8
DEFPOINTS
  6
CONTINUOUS
 62
     0
 10
-381.2827128186778
 20
-2626.329261019906
 30
0.0
  0
ENDBLK
  5
208
  8
0
 62
     7
  0
BLOCK
  8
0
  2
*D3131
 70
     1
 10
0.0
 20
0.0
 30
0.0
  3
*D3131
  1

  0
LINE
  5
1EA
  8
回02-寸法
  6
CONTINUOUS
 62
     5
 10
-391.282712818678
 20
-2613.235196198638
 30
0.0
 11
-399.7888385956713
 21
-2613.235196198638
 31
0.0
  0
LINE
  5
1EB
  8
回02-寸法
  6
CONTINUOUS
 62
     5
 10
-391.282712818678
 20
-2620.235196198638
 30
0.0
 11
-399.7888385956713
 21
-2620.235196198638
 31
0.0
  0
LINE
  5
1EC
  8
回02-寸法
  6
CONTINUOUS
 62
     5
 10
-398.7888385956713
 20
-2611.235196198638
 30
0.0
 11
-398.7888385956713
 21
-2609.235196198638
 31
0.0
  0
LINE
  5
1ED
  8
回02-寸法
  6
CONTINUOUS
 62
     5
 10
-398.7888385956713
 20
-2622.235196198638
 30
0.0
 11
-398.7888385956713
 21
-2639.814325602401
 31
0.0
  0
LINE
  5
1EE
  8
回02-寸法
  6
CONTINUOUS
 62
     5
 10
-398.7888385956713
 20
-2613.235196198638
 30
0.0
 11
-398.7888385956713
 21
-2620.235196198638
 31
0.0
  0
INSERT
  5
1EF
  8
回02-寸法
  6
CONTINUOUS
 62
     5
 66
     1
  2
_OPEN
 10
-398.7888385956713
 20
-2613.235196198638
 30
0.0
 41
2.0
 42
2.0
 43
2.0
 50
270.0
  0
SEQEND
  5
1F0
  8
0
  6
CONTINUOUS
 62
     7
  0
INSERT
  5
1F1
  8
回02-寸法
  6
CONTINUOUS
 62
     5
 66
     1
  2
_OPEN
 10
-398.7888385956713
 20
-2620.235196198638
 30
0.0
 41
2.0
 42
2.0
 43
2.0
 50
90.0
  0
SEQEND
  5
1F2
  8
0
  6
CONTINUOUS
 62
     7
  0
INSERT
  5
1F3
  8
回02-寸法
  6
CONTINUOUS
 62
     5
 66
     1
  2
*X9393
 10
0.0
 20
0.0
 30
0.0
  0
SEQEND
  5
716
  8
0
  6
CONTINUOUS
 62
     7
  0
POINT
  5
1F4
  8
DEFPOINTS
  6
CONTINUOUS
 62
     0
 10
-391.282712818678
 20
-2613.235196198638
 30
0.0
  0
POINT
  5
1F5
  8
DEFPOINTS
  6
CONTINUOUS
 62
     0
 10
-391.282712818678
 20
-2620.235196198638
 30
0.0
  0
POINT
  5
1F6
  8
DEFPOINTS
  6
CONTINUOUS
 62
     0
 10
-398.7888385956713
 20
-2620.235196198638
 30
0.0
  0
ENDBLK
  5
1F7
  8
0
 62
     7
  0
BLOCK
  8
0
  2
*D3232
 70
     1
 10
0.0
 20
0.0
 30
0.0
  3
*D3232
  1

  0
LINE
  5
199
  8
回02-寸法
  6
CONTINUOUS
 62
     5
 10
-84.18271281867877
 20
-2609.235196198638
 30
0.0
 11
-74.32298678368439
 21
-2609.235196198638
 31
0.0
  0
LINE
  5
19A
  8
回02-寸法
  6
CONTINUOUS
 62
     5
 10
-83.68271281867832
 20
-2622.235196198639
 30
0.0
 11
-74.32298678368439
 21
-2622.235196198639
 31
0.0
  0
LINE
  5
19B
  8
回02-寸法
  6
CONTINUOUS
 62
     5
 10
-75.32298678368437
 20
-2607.235196198638
 30
0.0
 11
-75.32298678368437
 21
-2605.235196198638
 31
0.0
  0
LINE
  5
19C
  8
回02-寸法
  6
CONTINUOUS
 62
     5
 10
-75.32298678368437
 20
-2624.23519619864
 30
0.0
 11
-75.32298678368437
 21
-2641.821977694702
 31
0.0
  0
LINE
  5
19D
  8
回02-寸法
  6
CONTINUOUS
 62
     5
 10
-75.32298678368437
 20
-2609.235196198638
 30
0.0
 11
-75.32298678368437
 21
-2622.235196198639
 31
0.0
  0
INSERT
  5
19E
  8
回02-寸法
  6
CONTINUOUS
 62
     5
 66
     1
  2
_OPEN
 10
-75.32298678368437
 20
-2609.235196198638
 30
0.0
 41
2.0
 42
2.0
 43
2.0
 50
270.0
  0
SEQEND
  5
19F
  8
0
  6
CONTINUOUS
 62
     7
  0
INSERT
  5
1A0
  8
回02-寸法
  6
CONTINUOUS
 62
     5
 66
     1
  2
_OPEN
 10
-75.32298678368437
 20
-2622.235196198639
 30
0.0
 41
2.0
 42
2.0
 43
2.0
 50
90.0
  0
SEQEND
  5
1A1
  8
0
  6
CONTINUOUS
 62
     7
  0
INSERT
  5
1A2
  8
回02-寸法
  6
CONTINUOUS
 62
     5
 66
     1
  2
*X9494
 10
0.0
 20
0.0
 30
0.0
  0
SEQEND
  5
71C
  8
0
  6
CONTINUOUS
 62
     7
  0
POINT
  5
1A3
  8
DEFPOINTS
  6
CONTINUOUS
 62
     0
 10
-84.18271281867877
 20
-2609.235196198638
 30
0.0
  0
POINT
  5
1A4
  8
DEFPOINTS
  6
CONTINUOUS
 62
     0
 10
-83.68271281867832
 20
-2622.235196198639
 30
0.0
  0
POINT
  5
1A5
  8
DEFPOINTS
  6
CONTINUOUS
 62
     0
 10
-75.32298678368437
 20
-2622.235196198639
 30
0.0
  0
ENDBLK
  5
1A6
  8
0
 62
     7
  0
BLOCK
  8
0
  2
*D3333
 70
     1
 10
0.0
 20
0.0
 30
0.0
  3
*D3333
  1

  0
LINE
  5
17C
  8
回02-寸法
  6
CONTINUOUS
 62
     5
 10
-84.18271281867829
 20
-2609.235196198637
 30
0.0
 11
-84.18271281867829
 21
-2603.015114965001
 31
0.0
  0
LINE
  5
17D
  8
回02-寸法
  6
CONTINUOUS
 62
     5
 10
-83.68271281867828
 20
-2616.235196198637
 30
0.0
 11
-83.68271281867828
 21
-2603.015114965001
 31
0.0
  0
LINE
  5
17E
  8
回02-寸法
  6
CONTINUOUS
 62
     5
 10
-81.68271281867829
 20
-2604.015114965001
 30
0.0
 11
-79.68271281867828
 21
-2604.015114965001
 31
0.0
  0
LINE
  5
17F
  8
回02-寸法
  6
CONTINUOUS
 62
     5
 10
-86.18271281867828
 20
-2604.015114965001
 30
0.0
 11
-97.97956321237908
 21
-2604.015114965001
 31
0.0
  0
LINE
  5
180
  8
回02-寸法
  6
CONTINUOUS
 62
     5
 10
-83.68271281867828
 20
-2604.015114965001
 30
0.0
 11
-84.18271281867829
 21
-2604.015114965001
 31
0.0
  0
INSERT
  5
181
  8
回02-寸法
  6
CONTINUOUS
 62
     5
 66
     1
  2
_OPEN
 10
-83.68271281867828
 20
-2604.015114965001
 30
0.0
 41
2.0
 42
2.0
 43
2.0
 50
180.0
  0
SEQEND
  5
182
  8
0
  6
CONTINUOUS
 62
     7
  0
INSERT
  5
183
  8
回02-寸法
  6
CONTINUOUS
 62
     5
 66
     1
  2
_OPEN
 10
-84.18271281867829
 20
-2604.015114965001
 30
0.0
 41
2.0
 42
2.0
 43
2.0
  0
SEQEND
  5
184
  8
0
  6
CONTINUOUS
 62
     7
  0
TEXT
  5
185
  8
回02-寸法
  6
CONTINUOUS
 62
     5
 10
-98.08113801552869
 20
-2603.315114965001
 30
0.0
 40
4.0
  1
(0.5)
1001
ACAD
1000
MTEXTBEGIN
1070
    73
1070
     1
1070
    44
1040
1.0
1070
    74
1070
     0
1000
MTEXTEND
  0
POINT
  5
186
  8
DEFPOINTS
  6
CONTINUOUS
 62
     0
 10
-84.18271281867829
 20
-2609.235196198637
 30
0.0
  0
POINT
  5
187
  8
DEFPOINTS
  6
CONTINUOUS
 62
     0
 10
-83.68271281867828
 20
-2616.235196198637
 30
0.0
  0
POINT
  5
188
  8
DEFPOINTS
  6
CONTINUOUS
 62
     0
 10
-83.68271281867828
 20
-2604.015114965001
 30
0.0
  0
ENDBLK
  5
189
  8
0
 62
     7
  0
BLOCK
  8
0
  2
*D3434
 70
     1
 10
0.0
 20
0.0
 30
0.0
  3
*D3434
  1

  0
LINE
  5
16B
  8
回02-寸法
  6
CONTINUOUS
 62
     5
 10
-311.2827128186781
 20
-2616.235196198637
 30
0.0
 11
-311.2827128186781
 21
-2603.640095140479
 31
0.0
  0
LINE
  5
16C
  8
回02-寸法
  6
CONTINUOUS
 62
     5
 10
-310.7827128186781
 20
-2609.235196198637
 30
0.0
 11
-310.7827128186781
 21
-2603.640095140479
 31
0.0
  0
LINE
  5
16D
  8
回02-寸法
  6
CONTINUOUS
 62
     5
 10
-313.2827128186781
 20
-2604.640095140478
 30
0.0
 11
-315.2827128186781
 21
-2604.640095140478
 31
0.0
  0
LINE
  5
16E
  8
回02-寸法
  6
CONTINUOUS
 62
     5
 10
-308.7827128186781
 20
-2604.640095140478
 30
0.0
 11
-296.9858624249773
 21
-2604.640095140478
 31
0.0
  0
LINE
  5
16F
  8
回02-寸法
  6
CONTINUOUS
 62
     5
 10
-311.2827128186781
 20
-2604.640095140478
 30
0.0
 11
-310.7827128186781
 21
-2604.640095140478
 31
0.0
  0
INSERT
  5
170
  8
回02-寸法
  6
CONTINUOUS
 62
     5
 66
     1
  2
_OPEN
 10
-311.2827128186781
 20
-2604.640095140478
 30
0.0
 41
2.0
 42
2.0
 43
2.0
  0
SEQEND
  5
171
  8
0
  6
CONTINUOUS
 62
     7
  0
INSERT
  5
172
  8
回02-寸法
  6
CONTINUOUS
 62
     5
 66
     1
  2
_OPEN
 10
-310.7827128186781
 20
-2604.640095140478
 30
0.0
 41
2.0
 42
2.0
 43
2.0
 50
180.0
  0
SEQEND
  5
173
  8
0
  6
CONTINUOUS
 62
     7
  0
TEXT
  5
174
  8
回02-寸法
  6
CONTINUOUS
 62
     5
 10
-306.8842876218277
 20
-2603.940095140479
 30
0.0
 40
4.0
  1
(0.5)
1001
ACAD
1000
MTEXTBEGIN
1070
    73
1070
     1
1070
    44
1040
1.0
1070
    74
1070
     0
1000
MTEXTEND
  0
POINT
  5
175
  8
DEFPOINTS
  6
CONTINUOUS
 62
     0
 10
-311.2827128186781
 20
-2616.235196198637
 30
0.0
  0
POINT
  5
176
  8
DEFPOINTS
  6
CONTINUOUS
 62
     0
 10
-310.7827128186781
 20
-2609.235196198637
 30
0.0
  0
POINT
  5
177
  8
DEFPOINTS
  6
CONTINUOUS
 62
     0
 10
-310.7827128186781
 20
-2604.640095140478
 30
0.0
  0
ENDBLK
  5
178
  8
0
 62
     7
  0
BLOCK
  8
0
  2
*D3535
 70
     1
 10
0.0
 20
0.0
 30
0.0
  3
*D3535
  1

  0
LINE
  5
B1
  8
回02-寸法
  6
CONTINUOUS
 62
     5
 10
-392.6176334674238
 20
-2423.420860109426
 30
0.0
 11
-432.4509776063165
 21
-2423.420860109426
 31
0.0
  0
LINE
  5
B2
  8
回02-寸法
  6
CONTINUOUS
 62
     5
 10
-392.6176334674238
 20
-2439.920860109424
 30
0.0
 11
-432.4509776063165
 21
-2439.920860109424
 31
0.0
  0
LINE
  5
B3
  8
回02-寸法
  6
CONTINUOUS
 62
     5
 10
-431.4509776063165
 20
-2424.920860109426
 30
0.0
 11
-431.4509776063165
 21
-2438.420860109424
 31
0.0
  0
INSERT
  5
B4
  8
回02-寸法
  6
CONTINUOUS
 62
     5
 66
     1
  2
_OPEN
 10
-431.4509776063165
 20
-2423.420860109426
 30
0.0
 41
1.5
 42
1.5
 43
1.5
 50
90.0
  0
SEQEND
  5
B5
  8
0
  6
CONTINUOUS
 62
     7
  0
INSERT
  5
B6
  8
回02-寸法
  6
CONTINUOUS
 62
     5
 66
     1
  2
_OPEN
 10
-431.4509776063165
 20
-2439.920860109424
 30
0.0
 41
1.5
 42
1.5
 43
1.5
 50
270.0
  0
SEQEND
  5
B7
  8
0
  6
CONTINUOUS
 62
     7
  0
INSERT
  5
B8
  8
回02-寸法
  6
CONTINUOUS
 62
     5
 66
     1
  2
*X9595
 10
0.0
 20
0.0
 30
0.0
  0
SEQEND
  5
722
  8
0
  6
CONTINUOUS
 62
     7
  0
POINT
  5
B9
  8
DEFPOINTS
  6
CONTINUOUS
 62
     0
 10
-392.6176334674238
 20
-2423.420860109426
 30
0.0
  0
POINT
  5
BA
  8
DEFPOINTS
  6
CONTINUOUS
 62
     0
 10
-392.6176334674238
 20
-2439.920860109424
 30
0.0
  0
POINT
  5
BB
  8
DEFPOINTS
  6
CONTINUOUS
 62
     0
 10
-431.4509776063165
 20
-2439.920860109424
 30
0.0
  0
ENDBLK
  5
BC
  8
0
 62
     7
  0
BLOCK
  8
0
  2
*D3636
 70
     1
 10
0.0
 20
0.0
 30
0.0
  3
*D3636
  1

  0
LINE
  5
97
  8
回02-寸法
  6
CONTINUOUS
 62
     5
 10
-397.7650118659729
 20
-2433.320860109431
 30
0.0
 11
-414.6907903881051
 21
-2433.320860109431
 31
0.0
  0
LINE
  5
98
  8
回02-寸法
  6
CONTINUOUS
 62
     5
 10
-397.7650118659729
 20
-2436.620860109432
 30
0.0
 11
-414.6907903881051
 21
-2436.620860109432
 31
0.0
  0
LINE
  5
99
  8
回02-寸法
  6
CONTINUOUS
 62
     5
 10
-413.6907903881051
 20
-2431.820860109431
 30
0.0
 11
-413.6907903881051
 21
-2430.320860109431
 31
0.0
  0
LINE
  5
9A
  8
回02-寸法
  6
CONTINUOUS
 62
     5
 10
-413.690790388105
 20
-2438.120860109432
 30
0.0
 11
-413.690790388105
 21
-2459.021419859826
 31
0.0
  0
LINE
  5
9B
  8
回02-寸法
  6
CONTINUOUS
 62
     5
 10
-413.690790388105
 20
-2433.320860109431
 30
0.0
 11
-413.690790388105
 21
-2436.620860109432
 31
0.0
  0
INSERT
  5
9C
  8
回02-寸法
  6
CONTINUOUS
 62
     5
 66
     1
  2
_OPEN
 10
-413.690790388105
 20
-2433.320860109431
 30
0.0
 41
1.5
 42
1.5
 43
1.5
 50
270.0
  0
SEQEND
  5
9D
  8
0
  6
CONTINUOUS
 62
     7
  0
INSERT
  5
9E
  8
回02-寸法
  6
CONTINUOUS
 62
     5
 66
     1
  2
_OPEN
 10
-413.690790388105
 20
-2436.620860109432
 30
0.0
 41
1.5
 42
1.5
 43
1.5
 50
90.0
  0
SEQEND
  5
9F
  8
0
  6
CONTINUOUS
 62
     7
  0
INSERT
  5
A0
  8
回02-寸法
  6
CONTINUOUS
 62
     5
 66
     1
  2
*X9696
 10
0.0
 20
0.0
 30
0.0
  0
SEQEND
  5
728
  8
0
  6
CONTINUOUS
 62
     7
  0
POINT
  5
A1
  8
DEFPOINTS
  6
CONTINUOUS
 62
     0
 10
-397.7650118659729
 20
-2433.320860109431
 30
0.0
  0
POINT
  5
A2
  8
DEFPOINTS
  6
CONTINUOUS
 62
     0
 10
-397.7650118659729
 20
-2436.620860109432
 30
0.0
  0
POINT
  5
A3
  8
DEFPOINTS
  6
CONTINUOUS
 62
     0
 10
-413.690790388105
 20
-2436.620860109432
 30
0.0
  0
ENDBLK
  5
A4
  8
0
 62
     7
  0
BLOCK
  8
0
  2
*D3737
 70
     1
 10
0.0
 20
0.0
 30
0.0
  3
*D3737
  1

  0
LINE
  5
86
  8
回02-寸法
  6
CONTINUOUS
 62
     5
 10
-397.7650118659729
 20
-2436.620860109432
 30
0.0
 11
-423.1582445826789
 21
-2436.620860109432
 31
0.0
  0
LINE
  5
87
  8
回02-寸法
  6
CONTINUOUS
 62
     5
 10
-397.7651267343997
 20
-2426.720860109432
 30
0.0
 11
-423.1582445826789
 21
-2426.720860109432
 31
0.0
  0
LINE
  5
88
  8
回02-寸法
  6
CONTINUOUS
 62
     5
 10
-422.1582445826788
 20
-2425.220860109432
 30
0.0
 11
-422.1582445826788
 21
-2423.720860109431
 31
0.0
  0
LINE
  5
89
  8
回02-寸法
  6
CONTINUOUS
 62
     5
 10
-422.1582445826788
 20
-2438.120860109432
 30
0.0
 11
-422.1582445826788
 21
-2459.842225149432
 31
0.0
  0
LINE
  5
8A
  8
回02-寸法
  6
CONTINUOUS
 62
     5
 10
-422.1582445826788
 20
-2426.720860109432
 30
0.0
 11
-422.1582445826788
 21
-2436.620860109432
 31
0.0
  0
INSERT
  5
8B
  8
回02-寸法
  6
CONTINUOUS
 62
     5
 66
     1
  2
_OPEN
 10
-422.1582445826788
 20
-2426.720860109432
 30
0.0
 41
1.5
 42
1.5
 43
1.5
 50
270.0
  0
SEQEND
  5
8C
  8
0
  6
CONTINUOUS
 62
     7
  0
INSERT
  5
8D
  8
回02-寸法
  6
CONTINUOUS
 62
     5
 66
     1
  2
_OPEN
 10
-422.1582445826788
 20
-2436.620860109432
 30
0.0
 41
1.5
 42
1.5
 43
1.5
 50
90.0
  0
SEQEND
  5
8E
  8
0
  6
CONTINUOUS
 62
     7
  0
INSERT
  5
8F
  8
回02-寸法
  6
CONTINUOUS
 62
     5
 66
     1
  2
*X9797
 10
0.0
 20
0.0
 30
0.0
  0
SEQEND
  5
72E
  8
0
  6
CONTINUOUS
 62
     7
  0
POINT
  5
90
  8
DEFPOINTS
  6
CONTINUOUS
 62
     0
 10
-397.7650118659729
 20
-2436.620860109432
 30
0.0
  0
POINT
  5
91
  8
DEFPOINTS
  6
CONTINUOUS
 62
     0
 10
-397.7651267343997
 20
-2426.720860109432
 30
0.0
  0
POINT
  5
92
  8
DEFPOINTS
  6
CONTINUOUS
 62
     0
 10
-422.1582445826788
 20
-2426.720860109432
 30
0.0
  0
ENDBLK
  5
93
  8
0
 62
     7
  0
BLOCK
  8
0
  2
*D3838
 70
     1
 10
0.0
 20
0.0
 30
0.0
  3
*D3838
  1

  0
LINE
  5
6E
  8
回02-寸法
  6
CONTINUOUS
 62
     5
 10
-393.9376334674236
 20
-2437.544860109432
 30
0.0
 11
-405.3208289848456
 21
-2437.544860109432
 31
0.0
  0
LINE
  5
6F
  8
回02-寸法
  6
CONTINUOUS
 62
     5
 10
-393.9376334674236
 20
-2435.696860109431
 30
0.0
 11
-405.3208289848456
 21
-2435.696860109431
 31
0.0
  0
LINE
  5
70
  8
回02-寸法
  6
CONTINUOUS
 62
     5
 10
-404.3208289848456
 20
-2434.196860109432
 30
0.0
 11
-404.3208289848456
 21
-2432.696860109432
 31
0.0
  0
LINE
  5
71
  8
回02-寸法
  6
CONTINUOUS
 62
     5
 10
-404.3208289848456
 20
-2439.044860109432
 30
0.0
 11
-404.3208289848456
 21
-2459.894860109431
 31
0.0
  0
LINE
  5
72
  8
回02-寸法
  6
CONTINUOUS
 62
     5
 10
-404.3208289848456
 20
-2435.696860109431
 30
0.0
 11
-404.3208289848456
 21
-2437.544860109432
 31
0.0
  0
INSERT
  5
73
  8
回02-寸法
  6
CONTINUOUS
 62
     5
 66
     1
  2
_OPEN
 10
-404.3208289848456
 20
-2435.696860109431
 30
0.0
 41
1.5
 42
1.5
 43
1.5
 50
270.0
  0
SEQEND
  5
74
  8
0
  6
CONTINUOUS
 62
     7
  0
INSERT
  5
75
  8
回02-寸法
  6
CONTINUOUS
 62
     5
 66
     1
  2
_OPEN
 10
-404.3208289848456
 20
-2437.544860109432
 30
0.0
 41
1.5
 42
1.5
 43
1.5
 50
90.0
  0
SEQEND
  5
76
  8
0
  6
CONTINUOUS
 62
     7
  0
INSERT
  5
77
  8
回02-寸法
  6
CONTINUOUS
 62
     5
 66
     1
  2
*X9898
 10
0.0
 20
0.0
 30
0.0
  0
SEQEND
  5
734
  8
0
  6
CONTINUOUS
 62
     7
  0
POINT
  5
78
  8
DEFPOINTS
  6
CONTINUOUS
 62
     0
 10
-393.9376334674236
 20
-2437.544860109432
 30
0.0
  0
POINT
  5
7A
  8
DEFPOINTS
  6
CONTINUOUS
 62
     0
 10
-393.9376334674236
 20
-2435.696860109431
 30
0.0
  0
POINT
  5
7B
  8
DEFPOINTS
  6
CONTINUOUS
 62
     0
 10
-404.3208289848456
 20
-2435.696860109431
 30
0.0
  0
ENDBLK
  5
7C
  8
0
 62
     7
  0
BLOCK
  8
0
  2
*D3939
 70
     1
 10
0.0
 20
0.0
 30
0.0
  3
*D3939
  1

  0
LINE
  5
45F
  8
回02-寸法
  6
CONTINUOUS
 62
     5
 10
1414.147308504366
 20
547.9684036478102
 30
0.0
 11
1402.764112986942
 21
547.9684036478102
 31
0.0
  0
LINE
  5
461
  8
回02-寸法
  6
CONTINUOUS
 62
     5
 10
1414.147308504366
 20
549.8164036478101
 30
0.0
 11
1402.764112986942
 21
549.8164036478101
 31
0.0
  0
LINE
  5
462
  8
回02-寸法
  6
CONTINUOUS
 62
     5
 10
1403.764112986943
 20
546.4684036478102
 30
0.0
 11
1403.764112986943
 21
525.6184036478096
 31
0.0
  0
LINE
  5
463
  8
回02-寸法
  6
CONTINUOUS
 62
     5
 10
1403.764112986943
 20
547.9684036478102
 30
0.0
 11
1403.764112986943
 21
549.8164036478101
 31
0.0
  0
LINE
  5
464
  8
回02-寸法
  6
CONTINUOUS
 62
     5
 10
1403.764112986943
 20
551.3164036478101
 30
0.0
 11
1403.764112986943
 21
552.8164036478101
 31
0.0
  0
INSERT
  5
465
  8
回02-寸法
  6
CONTINUOUS
 62
     5
  2
_OPEN
 10
1403.764112986943
 20
547.9684036478102
 30
0.0
 41
1.5
 42
1.5
 43
1.5
 50
90.0
  0
INSERT
  5
466
  8
回02-寸法
  6
CONTINUOUS
 62
     5
  2
_OPEN
 10
1403.764112986943
 20
549.8164036478101
 30
0.0
 41
1.5
 42
1.5
 43
1.5
 50
270.0
  0
INSERT
  5
467
  8
回02-寸法
  6
CONTINUOUS
 62
     5
 66
     1
  2
*X9999
 10
0.0
 20
0.0
 30
0.0
  0
SEQEND
  5
73A
  8
0
  6
CONTINUOUS
 62
     7
  0
POINT
  5
468
  8
DEFPOINTS
  6
CONTINUOUS
 62
     0
 10
1414.147308504366
 20
547.9684036478102
 30
0.0
  0
POINT
  5
469
  8
DEFPOINTS
  6
CONTINUOUS
 62
     0
 10
1414.147308504366
 20
549.8164036478101
 30
0.0
  0
POINT
  5
46A
  8
DEFPOINTS
  6
CONTINUOUS
 62
     0
 10
1403.764112986943
 20
549.8164036478101
 30
0.0
  0
ENDBLK
  5
46C
  8
0
  6
CONTINUOUS
 62
     7
  0
BLOCK
  8
0
  2
*D4040
 70
     1
 10
0.0
 20
0.0
 30
0.0
  3
*D4040
  1

  0
LINE
  5
46E
  8
回02-寸法
  6
CONTINUOUS
 62
     5
 10
1410.319930105816
 20
548.8924036478102
 30
0.0
 11
1384.926697389109
 21
548.8924036478102
 31
0.0
  0
LINE
  5
470
  8
回02-寸法
  6
CONTINUOUS
 62
     5
 10
1410.31981523739
 20
558.7924036478097
 30
0.0
 11
1384.926697389109
 21
558.7924036478097
 31
0.0
  0
LINE
  5
471
  8
回02-寸法
  6
CONTINUOUS
 62
     5
 10
1385.926697389109
 20
547.3924036478101
 30
0.0
 11
1385.926697389109
 21
525.6710386078095
 31
0.0
  0
LINE
  5
472
  8
回02-寸法
  6
CONTINUOUS
 62
     5
 10
1385.926697389109
 20
548.8924036478102
 30
0.0
 11
1385.926697389109
 21
558.7924036478097
 31
0.0
  0
LINE
  5
473
  8
回02-寸法
  6
CONTINUOUS
 62
     5
 10
1385.926697389109
 20
560.2924036478098
 30
0.0
 11
1385.926697389109
 21
561.7924036478098
 31
0.0
  0
INSERT
  5
474
  8
回02-寸法
  6
CONTINUOUS
 62
     5
  2
_OPEN
 10
1385.926697389109
 20
548.8924036478102
 30
0.0
 41
1.5
 42
1.5
 43
1.5
 50
90.0
  0
INSERT
  5
475
  8
回02-寸法
  6
CONTINUOUS
 62
     5
  2
_OPEN
 10
1385.926697389109
 20
558.7924036478097
 30
0.0
 41
1.5
 42
1.5
 43
1.5
 50
270.0
  0
INSERT
  5
476
  8
回02-寸法
  6
CONTINUOUS
 62
     5
 66
     1
  2
*X100100
 10
0.0
 20
0.0
 30
0.0
  0
SEQEND
  5
740
  8
0
  6
CONTINUOUS
 62
     7
  0
POINT
  5
477
  8
DEFPOINTS
  6
CONTINUOUS
 62
     0
 10
1410.319930105816
 20
548.8924036478102
 30
0.0
  0
POINT
  5
478
  8
DEFPOINTS
  6
CONTINUOUS
 62
     0
 10
1410.31981523739
 20
558.7924036478097
 30
0.0
  0
POINT
  5
479
  8
DEFPOINTS
  6
CONTINUOUS
 62
     0
 10
1385.926697389109
 20
558.7924036478097
 30
0.0
  0
ENDBLK
  5
47B
  8
0
  6
CONTINUOUS
 62
     7
  0
BLOCK
  8
0
  2
*D4141
 70
     1
 10
0.0
 20
0.0
 30
0.0
  3
*D4141
  1

  0
LINE
  5
47D
  8
回02-寸法
  6
CONTINUOUS
 62
     5
 10
1410.319930105816
 20
552.1924036478099
 30
0.0
 11
1393.394151583683
 21
552.1924036478099
 31
0.0
  0
LINE
  5
47E
  8
回02-寸法
  6
CONTINUOUS
 62
     5
 10
1410.319930105816
 20
548.8924036478102
 30
0.0
 11
1393.394151583683
 21
548.8924036478102
 31
0.0
  0
LINE
  5
47F
  8
回02-寸法
  6
CONTINUOUS
 62
     5
 10
1394.394151583683
 20
547.3924036478101
 30
0.0
 11
1394.394151583683
 21
526.5915733844257
 31
0.0
  0
LINE
  5
480
  8
回02-寸法
  6
CONTINUOUS
 62
     5
 10
1394.394151583683
 20
552.1924036478099
 30
0.0
 11
1394.394151583683
 21
548.8924036478102
 31
0.0
  0
LINE
  5
481
  8
回02-寸法
  6
CONTINUOUS
 62
     5
 10
1394.394151583683
 20
553.6924036478097
 30
0.0
 11
1394.394151583683
 21
555.1924036478099
 31
0.0
  0
INSERT
  5
482
  8
回02-寸法
  6
CONTINUOUS
 62
     5
  2
_OPEN
 10
1394.394151583683
 20
552.1924036478099
 30
0.0
 41
1.5
 42
1.5
 43
1.5
 50
270.0
  0
INSERT
  5
483
  8
回02-寸法
  6
CONTINUOUS
 62
     5
  2
_OPEN
 10
1394.394151583683
 20
548.8924036478102
 30
0.0
 41
1.5
 42
1.5
 43
1.5
 50
90.0
  0
INSERT
  5
484
  8
回02-寸法
  6
CONTINUOUS
 62
     5
 66
     1
  2
*X101101
 10
0.0
 20
0.0
 30
0.0
  0
SEQEND
  5
746
  8
0
  6
CONTINUOUS
 62
     7
  0
POINT
  5
485
  8
DEFPOINTS
  6
CONTINUOUS
 62
     0
 10
1410.319930105816
 20
552.1924036478099
 30
0.0
  0
POINT
  5
486
  8
DEFPOINTS
  6
CONTINUOUS
 62
     0
 10
1410.319930105816
 20
548.8924036478102
 30
0.0
  0
POINT
  5
487
  8
DEFPOINTS
  6
CONTINUOUS
 62
     0
 10
1394.394151583683
 20
548.8924036478102
 30
0.0
  0
ENDBLK
  5
489
  8
0
  6
CONTINUOUS
 62
     7
  0
BLOCK
  8
0
  2
*D4242
 70
     1
 10
0.0
 20
0.0
 30
0.0
  3
*D4242
  1

  0
LINE
  5
48B
  8
回02-寸法
  6
CONTINUOUS
 62
     5
 10
1415.467308504365
 20
562.0924036478157
 30
0.0
 11
1375.633964365472
 21
562.0924036478157
 31
0.0
  0
LINE
  5
48C
  8
回02-寸法
  6
CONTINUOUS
 62
     5
 10
1415.467308504365
 20
545.5924036478172
 30
0.0
 11
1375.633964365472
 21
545.5924036478172
 31
0.0
  0
LINE
  5
48D
  8
回02-寸法
  6
CONTINUOUS
 62
     5
 10
1376.633964365472
 20
560.5924036478159
 30
0.0
 11
1376.633964365472
 21
547.0924036478171
 31
0.0
  0
INSERT
  5
48E
  8
回02-寸法
  6
CONTINUOUS
 62
     5
  2
_OPEN
 10
1376.633964365472
 20
562.0924036478157
 30
0.0
 41
1.5
 42
1.5
 43
1.5
 50
90.0
  0
INSERT
  5
48F
  8
回02-寸法
  6
CONTINUOUS
 62
     5
  2
_OPEN
 10
1376.633964365472
 20
545.5924036478172
 30
0.0
 41
1.5
 42
1.5
 43
1.5
 50
270.0
  0
INSERT
  5
490
  8
回02-寸法
  6
CONTINUOUS
 62
     5
 66
     1
  2
*X102102
 10
0.0
 20
0.0
 30
0.0
  0
SEQEND
  5
74C
  8
0
  6
CONTINUOUS
 62
     7
  0
POINT
  5
491
  8
DEFPOINTS
  6
CONTINUOUS
 62
     0
 10
1415.467308504365
 20
562.0924036478157
 30
0.0
  0
POINT
  5
492
  8
DEFPOINTS
  6
CONTINUOUS
 62
     0
 10
1415.467308504365
 20
545.5924036478172
 30
0.0
  0
POINT
  5
493
  8
DEFPOINTS
  6
CONTINUOUS
 62
     0
 10
1376.633964365472
 20
545.5924036478172
 30
0.0
  0
ENDBLK
  5
495
  8
0
  6
CONTINUOUS
 62
     7
  0
BLOCK
  8
0
  2
*D4343
 70
     1
 10
0.0
 20
0.0
 30
0.0
  3
*D4343
  1

  0
LINE
  5
497
  8
回02-寸法
  6
CONTINUOUS
 62
     5
 10
1496.802229153111
 20
369.2780675586032
 30
0.0
 11
1496.802229153111
 21
381.8731686167616
 31
0.0
  0
LINE
  5
498
  8
回02-寸法
  6
CONTINUOUS
 62
     5
 10
1497.302229153111
 20
376.2780675586032
 30
0.0
 11
1497.302229153111
 21
381.8731686167616
 31
0.0
  0
LINE
  5
499
  8
回02-寸法
  6
CONTINUOUS
 62
     5
 10
1499.302229153111
 20
380.8731686167616
 30
0.0
 11
1511.099079546812
 21
380.8731686167616
 31
0.0
  0
LINE
  5
49A
  8
回02-寸法
  6
CONTINUOUS
 62
     5
 10
1496.802229153111
 20
380.8731686167616
 30
0.0
 11
1497.302229153111
 21
380.8731686167616
 31
0.0
  0
LINE
  5
49B
  8
回02-寸法
  6
CONTINUOUS
 62
     5
 10
1494.802229153111
 20
380.8731686167616
 30
0.0
 11
1492.802229153111
 21
380.8731686167616
 31
0.0
  0
INSERT
  5
49C
  8
回02-寸法
  6
CONTINUOUS
 62
     5
  2
_OPEN
 10
1496.802229153111
 20
380.8731686167616
 30
0.0
 41
2.0
 42
2.0
 43
2.0
  0
INSERT
  5
49D
  8
回02-寸法
  6
CONTINUOUS
 62
     5
  2
_OPEN
 10
1497.302229153111
 20
380.8731686167616
 30
0.0
 41
2.0
 42
2.0
 43
2.0
 50
180.0
  0
TEXT
  5
49E
  8
回02-寸法
  6
CONTINUOUS
 62
     5
 10
1501.200654349961
 20
381.5731686167616
 30
0.0
 40
4.0
  1
(0.5)
  0
POINT
  5
49F
  8
DEFPOINTS
  6
CONTINUOUS
 62
     0
 10
1496.802229153111
 20
369.2780675586032
 30
0.0
  0
POINT
  5
4A0
  8
DEFPOINTS
  6
CONTINUOUS
 62
     0
 10
1497.302229153111
 20
376.2780675586032
 30
0.0
  0
POINT
  5
4A1
  8
DEFPOINTS
  6
CONTINUOUS
 62
     0
 10
1497.302229153111
 20
380.8731686167616
 30
0.0
  0
ENDBLK
  5
4A3
  8
0
  6
CONTINUOUS
 62
     7
  0
BLOCK
  8
0
  2
*D4444
 70
     1
 10
0.0
 20
0.0
 30
0.0
  3
*D4444
  1

  0
LINE
  5
4A5
  8
回02-寸法
  6
CONTINUOUS
 62
     5
 10
1723.90222915311
 20
376.2780675586032
 30
0.0
 11
1723.90222915311
 21
382.4981487922391
 31
0.0
  0
LINE
  5
4A6
  8
回02-寸法
  6
CONTINUOUS
 62
     5
 10
1724.40222915311
 20
369.2780675586032
 30
0.0
 11
1724.40222915311
 21
382.4981487922391
 31
0.0
  0
LINE
  5
4A7
  8
回02-寸法
  6
CONTINUOUS
 62
     5
 10
1721.90222915311
 20
381.4981487922391
 30
0.0
 11
1710.10537875941
 21
381.4981487922391
 31
0.0
  0
LINE
  5
4A8
  8
回02-寸法
  6
CONTINUOUS
 62
     5
 10
1723.90222915311
 20
381.4981487922391
 30
0.0
 11
1724.40222915311
 21
381.4981487922391
 31
0.0
  0
LINE
  5
4A9
  8
回02-寸法
  6
CONTINUOUS
 62
     5
 10
1726.402229153111
 20
381.4981487922391
 30
0.0
 11
1728.402229153111
 21
381.4981487922391
 31
0.0
  0
INSERT
  5
4AA
  8
回02-寸法
  6
CONTINUOUS
 62
     5
  2
_OPEN
 10
1723.90222915311
 20
381.4981487922391
 30
0.0
 41
2.0
 42
2.0
 43
2.0
  0
INSERT
  5
4AB
  8
回02-寸法
  6
CONTINUOUS
 62
     5
  2
_OPEN
 10
1724.40222915311
 20
381.4981487922391
 30
0.0
 41
2.0
 42
2.0
 43
2.0
 50
180.0
  0
TEXT
  5
4AC
  8
回02-寸法
  6
CONTINUOUS
 62
     5
 10
1710.00380395626
 20
382.1981487922391
 30
0.0
 40
4.0
  1
(0.5)
  0
POINT
  5
4AD
  8
DEFPOINTS
  6
CONTINUOUS
 62
     0
 10
1723.90222915311
 20
376.2780675586032
 30
0.0
  0
POINT
  5
4AE
  8
DEFPOINTS
  6
CONTINUOUS
 62
     0
 10
1724.40222915311
 20
369.2780675586032
 30
0.0
  0
POINT
  5
4AF
  8
DEFPOINTS
  6
CONTINUOUS
 62
     0
 10
1724.40222915311
 20
381.4981487922391
 30
0.0
  0
ENDBLK
  5
4B1
  8
0
  6
CONTINUOUS
 62
     7
  0
BLOCK
  8
0
  2
*D4545
 70
     1
 10
0.0
 20
0.0
 30
0.0
  3
*D4545
  1

  0
LINE
  5
4B3
  8
回02-寸法
  6
CONTINUOUS
 62
     5
 10
1723.90222915311
 20
376.2780675586032
 30
0.0
 11
1733.761955188104
 21
376.2780675586032
 31
0.0
  0
LINE
  5
4B4
  8
回02-寸法
  6
CONTINUOUS
 62
     5
 10
1724.40222915311
 20
363.2780675586019
 30
0.0
 11
1733.761955188104
 21
363.2780675586019
 31
0.0
  0
LINE
  5
4B5
  8
回02-寸法
  6
CONTINUOUS
 62
     5
 10
1732.761955188104
 20
361.2780675586019
 30
0.0
 11
1732.761955188104
 21
343.8318303614507
 31
0.0
  0
LINE
  5
4B6
  8
回02-寸法
  6
CONTINUOUS
 62
     5
 10
1732.761955188104
 20
376.2780675586032
 30
0.0
 11
1732.761955188104
 21
363.2780675586019
 31
0.0
  0
LINE
  5
4B7
  8
回02-寸法
  6
CONTINUOUS
 62
     5
 10
1732.761955188104
 20
378.2780675586032
 30
0.0
 11
1732.761955188104
 21
380.2780675586032
 31
0.0
  0
INSERT
  5
4B8
  8
回02-寸法
  6
CONTINUOUS
 62
     5
  2
_OPEN
 10
1732.761955188104
 20
376.2780675586032
 30
0.0
 41
2.0
 42
2.0
 43
2.0
 50
270.0
  0
INSERT
  5
4B9
  8
回02-寸法
  6
CONTINUOUS
 62
     5
  2
_OPEN
 10
1732.761955188104
 20
363.2780675586019
 30
0.0
 41
2.0
 42
2.0
 43
2.0
 50
90.0
  0
INSERT
  5
4BA
  8
回02-寸法
  6
CONTINUOUS
 62
     5
 66
     1
  2
*X103103
 10
0.0
 20
0.0
 30
0.0
  0
SEQEND
  5
752
  8
0
  6
CONTINUOUS
 62
     7
  0
POINT
  5
4BB
  8
DEFPOINTS
  6
CONTINUOUS
 62
     0
 10
1723.90222915311
 20
376.2780675586032
 30
0.0
  0
POINT
  5
4BC
  8
DEFPOINTS
  6
CONTINUOUS
 62
     0
 10
1724.40222915311
 20
363.2780675586019
 30
0.0
  0
POINT
  5
4BD
  8
DEFPOINTS
  6
CONTINUOUS
 62
     0
 10
1732.761955188104
 20
363.2780675586019
 30
0.0
  0
ENDBLK
  5
4BF
  8
0
  6
CONTINUOUS
 62
     7
  0
BLOCK
  8
0
  2
*D4646
 70
     1
 10
0.0
 20
0.0
 30
0.0
  3
*D4646
  1

  0
LINE
  5
4C1
  8
回02-寸法
  6
CONTINUOUS
 62
     5
 10
1416.802229153111
 20
372.2780675586032
 30
0.0
 11
1408.296103376117
 21
372.2780675586032
 31
0.0
  0
LINE
  5
4C2
  8
回02-寸法
  6
CONTINUOUS
 62
     5
 10
1416.802229153111
 20
365.2780675586032
 30
0.0
 11
1408.296103376117
 21
365.2780675586032
 31
0.0
  0
LINE
  5
4C3
  8
回02-寸法
  6
CONTINUOUS
 62
     5
 10
1409.296103376117
 20
363.2780675586032
 30
0.0
 11
1409.296103376117
 21
345.7569280535713
 31
0.0
  0
LINE
  5
4C4
  8
回02-寸法
  6
CONTINUOUS
 62
     5
 10
1409.296103376117
 20
372.2780675586032
 30
0.0
 11
1409.296103376117
 21
365.2780675586032
 31
0.0
  0
LINE
  5
4C5
  8
回02-寸法
  6
CONTINUOUS
 62
     5
 10
1409.296103376117
 20
374.2780675586032
 30
0.0
 11
1409.296103376117
 21
376.2780675586032
 31
0.0
  0
INSERT
  5
4C6
  8
回02-寸法
  6
CONTINUOUS
 62
     5
  2
_OPEN
 10
1409.296103376117
 20
372.2780675586032
 30
0.0
 41
2.0
 42
2.0
 43
2.0
 50
270.0
  0
INSERT
  5
4C7
  8
回02-寸法
  6
CONTINUOUS
 62
     5
  2
_OPEN
 10
1409.296103376117
 20
365.2780675586032
 30
0.0
 41
2.0
 42
2.0
 43
2.0
 50
90.0
  0
INSERT
  5
4C8
  8
回02-寸法
  6
CONTINUOUS
 62
     5
 66
     1
  2
*X104104
 10
0.0
 20
0.0
 30
0.0
  0
SEQEND
  5
758
  8
0
  6
CONTINUOUS
 62
     7
  0
POINT
  5
4C9
  8
DEFPOINTS
  6
CONTINUOUS
 62
     0
 10
1416.802229153111
 20
372.2780675586032
 30
0.0
  0
POINT
  5
4CA
  8
DEFPOINTS
  6
CONTINUOUS
 62
     0
 10
1416.802229153111
 20
365.2780675586032
 30
0.0
  0
POINT
  5
4CB
  8
DEFPOINTS
  6
CONTINUOUS
 62
     0
 10
1409.296103376117
 20
365.2780675586032
 30
0.0
  0
ENDBLK
  5
4CD
  8
0
  6
CONTINUOUS
 62
     7
  0
BLOCK
  8
0
  2
*D4747
 70
     1
 10
0.0
 20
0.0
 30
0.0
  3
*D4747
  1

  0
LINE
  5
4CF
  8
回02-寸法
  6
CONTINUOUS
 62
     5
 10
1416.802229153111
 20
369.2780675586032
 30
0.0
 11
1416.802229153111
 21
358.1840027373346
 31
0.0
  0
LINE
  5
4D0
  8
回02-寸法
  6
CONTINUOUS
 62
     5
 10
1426.802229153111
 20
369.2780675586032
 30
0.0
 11
1426.802229153111
 21
358.1840027373346
 31
0.0
  0
LINE
  5
4D1
  8
回02-寸法
  6
CONTINUOUS
 62
     5
 10
1428.802229153111
 20
359.1840027373346
 30
0.0
 11
1438.599079546812
 21
359.1840027373346
 31
0.0
  0
LINE
  5
4D2
  8
回02-寸法
  6
CONTINUOUS
 62
     5
 10
1416.802229153111
 20
359.1840027373346
 30
0.0
 11
1426.802229153111
 21
359.1840027373346
 31
0.0
  0
LINE
  5
4D3
  8
回02-寸法
  6
CONTINUOUS
 62
     5
 10
1414.802229153111
 20
359.1840027373346
 30
0.0
 11
1412.802229153111
 21
359.1840027373346
 31
0.0
  0
INSERT
  5
4D4
  8
回02-寸法
  6
CONTINUOUS
 62
     5
  2
_OPEN
 10
1416.802229153111
 20
359.1840027373346
 30
0.0
 41
2.0
 42
2.0
 43
2.0
  0
INSERT
  5
4D5
  8
回02-寸法
  6
CONTINUOUS
 62
     5
  2
_OPEN
 10
1426.802229153111
 20
359.1840027373346
 30
0.0
 41
2.0
 42
2.0
 43
2.0
 50
180.0
  0
TEXT
  5
4D6
  8
回02-寸法
  6
CONTINUOUS
 62
     5
 10
1430.700654349962
 20
359.9840027373346
 30
0.0
 40
4.0
  1
(10)
  0
POINT
  5
4D7
  8
DEFPOINTS
  6
CONTINUOUS
 62
     0
 10
1416.802229153111
 20
369.2780675586032
 30
0.0
  0
POINT
  5
4D8
  8
DEFPOINTS
  6
CONTINUOUS
 62
     0
 10
1426.802229153111
 20
369.2780675586032
 30
0.0
  0
POINT
  5
4D9
  8
DEFPOINTS
  6
CONTINUOUS
 62
     0
 10
1426.802229153111
 20
359.1840027373346
 30
0.0
  0
ENDBLK
  5
4DB
  8
0
  6
CONTINUOUS
 62
     7
  0
BLOCK
  8
0
  2
*D4848
 70
     1
 10
0.0
 20
0.0
 30
0.0
  3
*D4848
  1

  0
LINE
  5
4DD
  8
回02-寸法
  6
CONTINUOUS
 62
     5
 10
1416.802229153111
 20
372.2780675586032
 30
0.0
 11
1416.802229153111
 21
380.929564846168
 31
0.0
  0
LINE
  5
4DE
  8
回02-寸法
  6
CONTINUOUS
 62
     5
 10
1421.802229153111
 20
372.2780675586032
 30
0.0
 11
1421.802229153111
 21
380.929564846168
 31
0.0
  0
LINE
  5
4DF
  8
回02-寸法
  6
CONTINUOUS
 62
     5
 10
1423.802229153111
 20
379.929564846168
 30
0.0
 11
1431.170507082163
 21
379.929564846168
 31
0.0
  0
LINE
  5
4E0
  8
回02-寸法
  6
CONTINUOUS
 62
     5
 10
1416.802229153111
 20
379.929564846168
 30
0.0
 11
1421.802229153111
 21
379.929564846168
 31
0.0
  0
LINE
  5
4E1
  8
回02-寸法
  6
CONTINUOUS
 62
     5
 10
1414.802229153111
 20
379.929564846168
 30
0.0
 11
1412.802229153111
 21
379.929564846168
 31
0.0
  0
INSERT
  5
4E2
  8
回02-寸法
  6
CONTINUOUS
 62
     5
  2
_OPEN
 10
1416.802229153111
 20
379.929564846168
 30
0.0
 41
2.0
 42
2.0
 43
2.0
  0
INSERT
  5
4E3
  8
回02-寸法
  6
CONTINUOUS
 62
     5
  2
_OPEN
 10
1421.802229153111
 20
379.929564846168
 30
0.0
 41
2.0
 42
2.0
 43
2.0
 50
180.0
  0
TEXT
  5
4E4
  8
回02-寸法
  6
CONTINUOUS
 62
     5
 10
1428.470507082163
 20
380.429564846168
 30
0.0
 40
4.0
  1
5
  0
POINT
  5
4E5
  8
DEFPOINTS
  6
CONTINUOUS
 62
     0
 10
1416.802229153111
 20
372.2780675586032
 30
0.0
  0
POINT
  5
4E6
  8
DEFPOINTS
  6
CONTINUOUS
 62
     0
 10
1421.802229153111
 20
372.2780675586032
 30
0.0
  0
POINT
  5
4E7
  8
DEFPOINTS
  6
CONTINUOUS
 62
     0
 10
1421.802229153111
 20
379.929564846168
 30
0.0
  0
ENDBLK
  5
4E9
  8
0
  6
CONTINUOUS
 62
     7
  0
BLOCK
  8
0
  2
*D4949
 70
     1
 10
0.0
 20
0.0
 30
0.0
  3
*D4949
  1

  0
LINE
  5
4EB
  8
回02-寸法
  6
CONTINUOUS
 62
     5
 10
1496.802229153111
 20
474.3938866988718
 30
0.0
 11
1496.802229153111
 21
466.7377348924286
 31
0.0
  0
LINE
  5
4EC
  8
回02-寸法
  6
CONTINUOUS
 62
     5
 10
1492.201726640549
 20
475.1601649626427
 30
0.0
 11
1492.201726640549
 21
466.7377348924286
 31
0.0
  0
LINE
  5
4ED
  8
回02-寸法
  6
CONTINUOUS
 62
     5
 10
1490.201726640549
 20
467.7377348924286
 30
0.0
 11
1478.56570627847
 21
467.7377348924286
 31
0.0
  0
LINE
  5
4EE
  8
回02-寸法
  6
CONTINUOUS
 62
     5
 10
1496.802229153111
 20
467.7377348924286
 30
0.0
 11
1492.201726640549
 21
467.7377348924286
 31
0.0
  0
LINE
  5
4EF
  8
回02-寸法
  6
CONTINUOUS
 62
     5
 10
1498.802229153111
 20
467.7377348924286
 30
0.0
 11
1500.802229153111
 21
467.7377348924286
 31
0.0
  0
INSERT
  5
4F0
  8
回02-寸法
  6
CONTINUOUS
 62
     5
  2
_OPEN
 10
1496.802229153111
 20
467.7377348924286
 30
0.0
 41
2.0
 42
2.0
 43
2.0
 50
180.0
  0
INSERT
  5
4F1
  8
回02-寸法
  6
CONTINUOUS
 62
     5
  2
_OPEN
 10
1492.201726640549
 20
467.7377348924286
 30
0.0
 41
2.0
 42
2.0
 43
2.0
  0
TEXT
  5
4F2
  8
回02-寸法
  6
CONTINUOUS
 62
     5
 10
1478.46570627847
 20
468.2377348924286
 30
0.0
 40
4.0
  1
4.6
  0
POINT
  5
4F3
  8
DEFPOINTS
  6
CONTINUOUS
 62
     0
 10
1496.802229153111
 20
474.3938866988718
 30
0.0
  0
POINT
  5
4F4
  8
DEFPOINTS
  6
CONTINUOUS
 62
     0
 10
1492.201726640549
 20
475.1601649626427
 30
0.0
  0
POINT
  5
4F5
  8
DEFPOINTS
  6
CONTINUOUS
 62
     0
 10
1492.201726640549
 20
467.7377348924286
 30
0.0
  0
ENDBLK
  5
4F7
  8
0
  6
CONTINUOUS
 62
     7
  0
BLOCK
  8
0
  2
*D5050
 70
     1
 10
0.0
 20
0.0
 30
0.0
  3
*D5050
  1

  0
LINE
  5
4F9
  8
回02-寸法
 62
     5
 10
1417.302185642344
 20
486.1960110433386
 30
0.0
 11
1405.359140594173
 21
486.1960110433386
 31
0.0
  0
LINE
  5
4FA
  8
回02-寸法
 62
     5
 10
1417.302185642344
 20
479.9460110433386
 30
0.0
 11
1405.359140594173
 21
479.9460110433386
 31
0.0
  0
LINE
  5
4FB
  8
回02-寸法
 62
     5
 10
1406.359140594173
 20
488.1960110433388
 30
0.0
 11
1406.359140594173
 21
508.663530261994
 31
0.0
  0
LINE
  5
4FC
  8
回02-寸法
 62
     5
 10
1406.359140594173
 20
486.1960110433386
 30
0.0
 11
1406.359140594173
 21
479.9460110433386
 31
0.0
  0
LINE
  5
4FD
  8
回02-寸法
 62
     5
 10
1406.359140594173
 20
477.9460110433388
 30
0.0
 11
1406.359140594173
 21
475.9460110433386
 31
0.0
  0
INSERT
  5
4FE
  8
回02-寸法
  6
CONTINUOUS
 62
     5
  2
_OPEN
 10
1406.359140594173
 20
486.1960110433386
 30
0.0
 41
2.0
 42
2.0
 43
2.0
 50
270.0
  0
INSERT
  5
4FF
  8
回02-寸法
  6
CONTINUOUS
 62
     5
  2
_OPEN
 10
1406.359140594173
 20
479.9460110433386
 30
0.0
 41
2.0
 42
2.0
 43
2.0
 50
90.0
  0
INSERT
  5
500
  8
回02-寸法
  6
CONTINUOUS
 62
     5
 66
     1
  2
*X105105
 10
0.0
 20
0.0
 30
0.0
  0
SEQEND
  5
75E
  8
0
  6
CONTINUOUS
 62
     7
  0
POINT
  5
501
  8
DEFPOINTS
  6
CONTINUOUS
 62
     0
 10
1417.302185642344
 20
486.1960110433386
 30
0.0
  0
POINT
  5
502
  8
DEFPOINTS
  6
CONTINUOUS
 62
     0
 10
1417.302185642344
 20
479.9460110433386
 30
0.0
  0
POINT
  5
503
  8
DEFPOINTS
  6
CONTINUOUS
 62
     0
 10
1406.359140594173
 20
479.9460110433386
 30
0.0
  0
ENDBLK
  5
505
  8
0
  6
CONTINUOUS
 62
     7
  0
BLOCK
  8
0
  2
*D5151
 70
     1
 10
0.0
 20
0.0
 30
0.0
  3
*D5151
  1

  0
LINE
  5
507
  8
回02-寸法
  6
CONTINUOUS
 62
     5
 10
1496.802185642343
 20
472.1999432314728
 30
0.0
 11
1496.802185642343
 21
459.0747049554416
 31
0.0
  0
LINE
  5
508
  8
回02-寸法
  6
CONTINUOUS
 62
     5
 10
1487.306298033084
 20
479.8528215871296
 30
0.0
 11
1487.306298033084
 21
459.0747049554416
 31
0.0
  0
LINE
  5
509
  8
回02-寸法
  6
CONTINUOUS
 62
     5
 10
1485.306298033084
 20
460.0747049554414
 30
0.0
 11
1475.799191251897
 21
460.0747049554414
 31
0.0
  0
LINE
  5
50A
  8
回02-寸法
  6
CONTINUOUS
 62
     5
 10
1496.802185642343
 20
460.0747049554414
 30
0.0
 11
1487.306298033084
 21
460.0747049554414
 31
0.0
  0
LINE
  5
50B
  8
回02-寸法
  6
CONTINUOUS
 62
     5
 10
1498.802185642342
 20
460.0747049554414
 30
0.0
 11
1500.802185642343
 21
460.0747049554414
 31
0.0
  0
INSERT
  5
50C
  8
回02-寸法
  6
CONTINUOUS
 62
     5
  2
_OPEN
 10
1496.802185642343
 20
460.0747049554414
 30
0.0
 41
2.0
 42
2.0
 43
2.0
 50
180.0
  0
INSERT
  5
50D
  8
回02-寸法
  6
CONTINUOUS
 62
     5
  2
_OPEN
 10
1487.306298033084
 20
460.0747049554414
 30
0.0
 41
2.0
 42
2.0
 43
2.0
  0
TEXT
  5
50E
  8
回02-寸法
  6
CONTINUOUS
 62
     5
 10
1475.684749777789
 20
460.5747049554415
 30
0.0
 40
4.0
  1
9.5
  0
POINT
  5
50F
  8
DEFPOINTS
  6
CONTINUOUS
 62
     0
 10
1496.802185642343
 20
472.1999432314728
 30
0.0
  0
POINT
  5
510
  8
DEFPOINTS
  6
CONTINUOUS
 62
     0
 10
1487.306298033084
 20
479.8528215871296
 30
0.0
  0
POINT
  5
511
  8
DEFPOINTS
  6
CONTINUOUS
 62
     0
 10
1487.306298033084
 20
460.0747049554414
 30
0.0
  0
ENDBLK
  5
513
  8
0
  6
CONTINUOUS
 62
     7
  0
BLOCK
  8
0
  2
*D5252
 70
     1
 10
0.0
 20
0.0
 30
0.0
  3
*D5252
  1

  0
LINE
  5
515
  8
回02-寸法
  6
CONTINUOUS
 62
     5
 10
1496.802229153111
 20
491.7481355875296
 30
0.0
 11
1496.802229153111
 21
513.9763918983184
 31
0.0
  0
LINE
  5
516
  8
回02-寸法
  6
CONTINUOUS
 62
     5
 10
1416.802185642343
 20
485.6960110433386
 30
0.0
 11
1416.802185642343
 21
513.9763918983184
 31
0.0
  0
LINE
  5
517
  8
回02-寸法
  6
CONTINUOUS
 62
     5
 10
1495.302229153111
 20
512.9763918983185
 30
0.0
 11
1418.302185642343
 21
512.9763918983185
 31
0.0
  0
INSERT
  5
518
  8
回02-寸法
  6
CONTINUOUS
 62
     5
  2
_OPEN
 10
1496.802229153111
 20
512.9763918983185
 30
0.0
 41
1.5
 42
1.5
 43
1.5
  0
INSERT
  5
519
  8
回02-寸法
  6
CONTINUOUS
 62
     5
  2
_OPEN
 10
1416.802185642343
 20
512.9763918983185
 30
0.0
 41
1.5
 42
1.5
 43
1.5
 50
180.0
  0
INSERT
  5
51A
  8
回02-寸法
  6
CONTINUOUS
 62
     5
 66
     1
  2
*X106106
 10
0.0
 20
0.0
 30
0.0
  0
SEQEND
  5
764
  8
0
  6
CONTINUOUS
 62
     7
  0
POINT
  5
51B
  8
DEFPOINTS
  6
CONTINUOUS
 62
     0
 10
1496.802229153111
 20
491.7481355875296
 30
0.0
  0
POINT
  5
51C
  8
DEFPOINTS
  6
CONTINUOUS
 62
     0
 10
1416.802185642343
 20
485.6960110433386
 30
0.0
  0
POINT
  5
51D
  8
DEFPOINTS
  6
CONTINUOUS
 62
     0
 10
1416.802185642343
 20
512.9763918983185
 30
0.0
  0
ENDBLK
  5
51F
  8
0
  6
CONTINUOUS
 62
     7
  0
BLOCK
  8
0
  2
*D5353
 70
     1
 10
0.0
 20
0.0
 30
0.0
  3
*D5353
  1

  0
LINE
  5
521
  8
回02-寸法
  6
CONTINUOUS
 62
     5
 10
1417.302185665933
 20
479.9460110433377
 30
0.0
 11
1405.359140594172
 21
479.9460110433377
 31
0.0
  0
LINE
  5
522
  8
回02-寸法
  6
CONTINUOUS
 62
     5
 10
1496.802229153111
 20
395.3601462294768
 30
0.0
 11
1405.359140594172
 21
395.3601462294768
 31
0.0
  0
LINE
  5
523
  8
回02-寸法
  6
CONTINUOUS
 62
     5
 10
1406.359140594172
 20
478.4460110433379
 30
0.0
 11
1406.359140594172
 21
396.8601462294769
 31
0.0
  0
INSERT
  5
524
  8
回02-寸法
  6
CONTINUOUS
 62
     5
  2
_OPEN
 10
1406.359140594172
 20
479.9460110433377
 30
0.0
 41
1.5
 42
1.5
 43
1.5
 50
90.0
  0
INSERT
  5
525
  8
回02-寸法
  6
CONTINUOUS
 62
     5
  2
_OPEN
 10
1406.359140594172
 20
395.3601462294768
 30
0.0
 41
1.5
 42
1.5
 43
1.5
 50
270.0
  0
TEXT
  5
526
  8
回02-寸法
  6
CONTINUOUS
 62
     5
 10
1405.659140594172
 20
429.6458578993533
 30
0.0
 40
4.0
  1
(84.59)
 50
90.0
  0
POINT
  5
527
  8
DEFPOINTS
  6
CONTINUOUS
 62
     0
 10
1417.302185665933
 20
479.9460110433377
 30
0.0
  0
POINT
  5
528
  8
DEFPOINTS
  6
CONTINUOUS
 62
     0
 10
1496.802229153111
 20
395.3601462294768
 30
0.0
  0
POINT
  5
529
  8
DEFPOINTS
  6
CONTINUOUS
 62
     0
 10
1406.359140594172
 20
395.3601462294768
 30
0.0
  0
ENDBLK
  5
52B
  8
0
  6
CONTINUOUS
 62
     7
  0
BLOCK
  8
0
  2
*D5454
 70
     1
 10
0.0
 20
0.0
 30
0.0
  3
*D5454
  1

  0
LINE
  5
52D
  8
回02-寸法
  6
CONTINUOUS
 62
     5
 10
1492.610299244747
 20
491.0698080090678
 30
0.0
 11
1468.240541317308
 21
491.0698080090678
 31
0.0
  0
LINE
  5
52E
  8
回02-寸法
  6
CONTINUOUS
 62
     5
 10
1492.614472830452
 20
475.0710110433386
 30
0.0
 11
1468.240541317308
 21
475.0710110433386
 31
0.0
  0
LINE
  5
52F
  8
回02-寸法
  6
CONTINUOUS
 62
     5
 10
1469.240541317308
 20
473.0710110433387
 30
0.0
 11
1469.240541317308
 21
463.4584761726078
 31
0.0
  0
LINE
  5
530
  8
回02-寸法
  6
CONTINUOUS
 62
     5
 10
1469.240541317308
 20
491.0698080090678
 30
0.0
 11
1469.240541317308
 21
475.0710110433386
 31
0.0
  0
LINE
  5
531
  8
回02-寸法
  6
CONTINUOUS
 62
     5
 10
1469.240541317308
 20
493.0698080090678
 30
0.0
 11
1469.240541317308
 21
495.0698080090679
 31
0.0
  0
INSERT
  5
532
  8
回02-寸法
  6
CONTINUOUS
 62
     5
  2
_OPEN
 10
1469.240541317308
 20
491.0698080090678
 30
0.0
 41
2.0
 42
2.0
 43
2.0
 50
270.0
  0
INSERT
  5
533
  8
回02-寸法
  6
CONTINUOUS
 62
     5
  2
_OPEN
 10
1469.240541317308
 20
475.0710110433386
 30
0.0
 41
2.0
 42
2.0
 43
2.0
 50
90.0
  0
TEXT
  5
534
  8
回02-寸法
  6
CONTINUOUS
 62
     5
 10
1468.740541317308
 20
463.3584761726078
 30
0.0
 40
4.0
  1
16
 50
90.0
  0
POINT
  5
535
  8
DEFPOINTS
  6
CONTINUOUS
 62
     0
 10
1492.610299244747
 20
491.0698080090678
 30
0.0
  0
POINT
  5
536
  8
DEFPOINTS
  6
CONTINUOUS
 62
     0
 10
1492.614472830452
 20
475.0710110433386
 30
0.0
  0
POINT
  5
537
  8
DEFPOINTS
  6
CONTINUOUS
 62
     0
 10
1469.240541317308
 20
475.0710110433386
 30
0.0
  0
ENDBLK
  5
539
  8
0
  6
CONTINUOUS
 62
     7
  0
BLOCK
  8
0
  2
*D5555
 70
     1
 10
0.0
 20
0.0
 30
0.0
  3
*D5555
  1

  0
LINE
  5
53B
  8
回02-寸法
  6
CONTINUOUS
 62
     5
 10
1504.202229153111
 20
565.310146229469
 30
0.0
 11
1504.202229153111
 21
600.8526203473946
 31
0.0
  0
LINE
  5
53C
  8
回02-寸法
  6
CONTINUOUS
 62
     5
 10
1496.802229153111
 20
570.7601462294754
 30
0.0
 11
1496.802229153111
 21
600.8526203473946
 31
0.0
  0
LINE
  5
53D
  8
回02-寸法
  6
CONTINUOUS
 62
     5
 10
1495.302229153111
 20
599.8526203473947
 30
0.0
 11
1446.393803956261
 21
599.8526203473947
 31
0.0
  0
LINE
  5
53E
  8
回02-寸法
  6
CONTINUOUS
 62
     5
 10
1504.202229153111
 20
599.8526203473947
 30
0.0
 11
1496.802229153111
 21
599.8526203473947
 31
0.0
  0
LINE
  5
53F
  8
回02-寸法
  6
CONTINUOUS
 62
     5
 10
1505.702229153111
 20
599.8526203473947
 30
0.0
 11
1507.202229153111
 21
599.8526203473947
 31
0.0
  0
INSERT
  5
540
  8
回02-寸法
  6
CONTINUOUS
 62
     5
  2
_OPEN
 10
1504.202229153111
 20
599.8526203473947
 30
0.0
 41
1.5
 42
1.5
 43
1.5
 50
180.0
  0
INSERT
  5
541
  8
回02-寸法
  6
CONTINUOUS
 62
     5
  2
_OPEN
 10
1496.802229153111
 20
599.8526203473947
 30
0.0
 41
1.5
 42
1.5
 43
1.5
  0
TEXT
  5
542
  8
回02-寸法
  6
CONTINUOUS
 62
     5
 10
1446.293803956261
 20
600.5526203473947
 30
0.0
 40
4.0
  1
7.4(Insulation Area)
  0
POINT
  5
543
  8
DEFPOINTS
  6
CONTINUOUS
 62
     0
 10
1504.202229153111
 20
565.310146229469
 30
0.0
  0
POINT
  5
544
  8
DEFPOINTS
  6
CONTINUOUS
 62
     0
 10
1496.802229153111
 20
570.7601462294754
 30
0.0
  0
POINT
  5
545
  8
DEFPOINTS
  6
CONTINUOUS
 62
     0
 10
1496.802229153111
 20
599.8526203473947
 30
0.0
  0
ENDBLK
  5
547
  8
0
  6
CONTINUOUS
 62
     7
  0
BLOCK
  8
0
  2
*D5656
 70
     1
 10
0.0
 20
0.0
 30
0.0
  3
*D5656
  1

  0
LINE
  5
549
  8
回02-寸法
  6
CONTINUOUS
 62
     5
 10
1720.902229153111
 20
565.310146229469
 30
0.0
 11
1720.902229153111
 21
600.8526203473946
 31
0.0
  0
LINE
  5
54A
  8
回02-寸法
  6
CONTINUOUS
 62
     5
 10
1724.402229153111
 20
570.7601462294754
 30
0.0
 11
1724.402229153111
 21
600.8526203473946
 31
0.0
  0
LINE
  5
54B
  8
回02-寸法
  6
CONTINUOUS
 62
     5
 10
1725.902229153111
 20
599.8526203473947
 30
0.0
 11
1737.199079546812
 21
599.8526203473947
 31
0.0
  0
LINE
  5
54C
  8
回02-寸法
  6
CONTINUOUS
 62
     5
 10
1720.902229153111
 20
599.8526203473947
 30
0.0
 11
1724.402229153111
 21
599.8526203473947
 31
0.0
  0
LINE
  5
54D
  8
回02-寸法
  6
CONTINUOUS
 62
     5
 10
1719.402229153111
 20
599.8526203473947
 30
0.0
 11
1717.902229153111
 21
599.8526203473947
 31
0.0
  0
INSERT
  5
54E
  8
回02-寸法
  6
CONTINUOUS
 62
     5
  2
_OPEN
 10
1720.902229153111
 20
599.8526203473947
 30
0.0
 41
1.5
 42
1.5
 43
1.5
  0
INSERT
  5
54F
  8
回02-寸法
  6
CONTINUOUS
 62
     5
  2
_OPEN
 10
1724.402229153111
 20
599.8526203473947
 30
0.0
 41
1.5
 42
1.5
 43
1.5
 50
180.0
  0
TEXT
  5
550
  8
回02-寸法
  6
CONTINUOUS
 62
     5
 10
1727.300654349961
 20
600.5526203473947
 30
0.0
 40
4.0
  1
(3.5)
  0
POINT
  5
551
  8
DEFPOINTS
  6
CONTINUOUS
 62
     0
 10
1720.902229153111
 20
565.310146229469
 30
0.0
  0
POINT
  5
552
  8
DEFPOINTS
  6
CONTINUOUS
 62
     0
 10
1724.402229153111
 20
570.7601462294754
 30
0.0
  0
POINT
  5
553
  8
DEFPOINTS
  6
CONTINUOUS
 62
     0
 10
1724.402229153111
 20
599.8526203473947
 30
0.0
  0
ENDBLK
  5
555
  8
0
  6
CONTINUOUS
 62
     7
  0
BLOCK
  8
0
  2
*D5757
 70
     1
 10
0.0
 20
0.0
 30
0.0
  3
*D5757
  1

  0
LINE
  5
557
  8
回02-寸法
  6
CONTINUOUS
 62
     5
 10
1720.402229153111
 20
564.5101462294688
 30
0.0
 11
1720.402229153111
 21
593.8274335547617
 31
0.0
  0
LINE
  5
558
  8
回02-寸法
  6
CONTINUOUS
 62
     5
 10
1724.402229153111
 20
570.7601462294754
 30
0.0
 11
1724.402229153111
 21
593.8274335547617
 31
0.0
  0
LINE
  5
559
  8
回02-寸法
  6
CONTINUOUS
 62
     5
 10
1725.902229153111
 20
592.8274335547617
 30
0.0
 11
1733.599079546812
 21
592.8274335547617
 31
0.0
  0
LINE
  5
55A
  8
回02-寸法
  6
CONTINUOUS
 62
     5
 10
1720.402229153111
 20
592.8274335547617
 30
0.0
 11
1724.402229153111
 21
592.8274335547617
 31
0.0
  0
LINE
  5
55B
  8
回02-寸法
  6
CONTINUOUS
 62
     5
 10
1718.902229153111
 20
592.8274335547617
 30
0.0
 11
1717.402229153111
 21
592.8274335547617
 31
0.0
  0
INSERT
  5
55C
  8
回02-寸法
  6
CONTINUOUS
 62
     5
  2
_OPEN
 10
1720.402229153111
 20
592.8274335547617
 30
0.0
 41
1.5
 42
1.5
 43
1.5
  0
INSERT
  5
55D
  8
回02-寸法
  6
CONTINUOUS
 62
     5
  2
_OPEN
 10
1724.402229153111
 20
592.8274335547617
 30
0.0
 41
1.5
 42
1.5
 43
1.5
 50
180.0
  0
TEXT
  5
55E
  8
回02-寸法
  6
CONTINUOUS
 62
     5
 10
1727.300654349961
 20
593.5274335547616
 30
0.0
 40
4.0
  1
(4)
  0
POINT
  5
55F
  8
DEFPOINTS
  6
CONTINUOUS
 62
     0
 10
1720.402229153111
 20
564.5101462294688
 30
0.0
  0
POINT
  5
560
  8
DEFPOINTS
  6
CONTINUOUS
 62
     0
 10
1724.402229153111
 20
570.7601462294754
 30
0.0
  0
POINT
  5
561
  8
DEFPOINTS
  6
CONTINUOUS
 62
     0
 10
1724.402229153111
 20
592.8274335547617
 30
0.0
  0
ENDBLK
  5
563
  8
0
  6
CONTINUOUS
 62
     7
  0
BLOCK
  8
0
  2
*D5858
 70
     1
 10
0.0
 20
0.0
 30
0.0
  3
*D5858
  1

  0
LINE
  5
565
  8
回02-寸法
  6
CONTINUOUS
 62
     5
 10
1718.402229153111
 20
562.5101462294686
 30
0.0
 11
1718.402229153111
 21
586.3808052980715
 31
0.0
  0
LINE
  5
566
  8
回02-寸法
  6
CONTINUOUS
 62
     5
 10
1724.402229153111
 20
570.7601462294754
 30
0.0
 11
1724.402229153111
 21
586.3808052980715
 31
0.0
  0
LINE
  5
567
  8
回02-寸法
  6
CONTINUOUS
 62
     5
 10
1725.902229153111
 20
585.3808052980715
 30
0.0
 11
1733.199079546812
 21
585.3808052980715
 31
0.0
  0
LINE
  5
568
  8
回02-寸法
  6
CONTINUOUS
 62
     5
 10
1718.402229153111
 20
585.3808052980715
 30
0.0
 11
1724.402229153111
 21
585.3808052980715
 31
0.0
  0
LINE
  5
569
  8
回02-寸法
  6
CONTINUOUS
 62
     5
 10
1716.902229153111
 20
585.3808052980715
 30
0.0
 11
1715.402229153111
 21
585.3808052980715
 31
0.0
  0
INSERT
  5
56A
  8
回02-寸法
  6
CONTINUOUS
 62
     5
  2
_OPEN
 10
1718.402229153111
 20
585.3808052980715
 30
0.0
 41
1.5
 42
1.5
 43
1.5
  0
INSERT
  5
56B
  8
回02-寸法
  6
CONTINUOUS
 62
     5
  2
_OPEN
 10
1724.402229153111
 20
585.3808052980715
 30
0.0
 41
1.5
 42
1.5
 43
1.5
 50
180.0
  0
TEXT
  5
56C
  8
回02-寸法
  6
CONTINUOUS
 62
     5
 10
1727.300654349961
 20
586.0808052980717
 30
0.0
 40
4.0
  1
(6)
  0
POINT
  5
56D
  8
DEFPOINTS
  6
CONTINUOUS
 62
     0
 10
1718.402229153111
 20
562.5101462294686
 30
0.0
  0
POINT
  5
56E
  8
DEFPOINTS
  6
CONTINUOUS
 62
     0
 10
1724.402229153111
 20
570.7601462294754
 30
0.0
  0
POINT
  5
56F
  8
DEFPOINTS
  6
CONTINUOUS
 62
     0
 10
1724.402229153111
 20
585.3808052980715
 30
0.0
  0
ENDBLK
  5
571
  8
0
  6
CONTINUOUS
 62
     7
  0
BLOCK
  8
0
  2
*D5959
 70
     1
 10
0.0
 20
0.0
 30
0.0
  3
*D5959
  1

  0
LINE
  5
573
  8
回02-寸法
  6
CONTINUOUS
 62
     5
 10
1720.902229153111
 20
400.8101462294688
 30
0.0
 11
1765.815910807226
 21
400.8101462294688
 31
0.0
  0
LINE
  5
574
  8
回02-寸法
  6
CONTINUOUS
 62
     5
 10
1724.402229153111
 20
395.3601462294768
 30
0.0
 11
1765.815910807226
 21
395.3601462294768
 31
0.0
  0
LINE
  5
575
  8
回02-寸法
  6
CONTINUOUS
 62
     5
 10
1764.815910807226
 20
393.8601462294769
 30
0.0
 11
1764.815910807226
 21
342.1517210326265
 31
0.0
  0
LINE
  5
576
  8
回02-寸法
  6
CONTINUOUS
 62
     5
 10
1764.815910807226
 20
400.8101462294688
 30
0.0
 11
1764.815910807226
 21
395.3601462294768
 31
0.0
  0
LINE
  5
577
  8
回02-寸法
  6
CONTINUOUS
 62
     5
 10
1764.815910807226
 20
402.3101462294688
 30
0.0
 11
1764.815910807226
 21
403.8101462294688
 31
0.0
  0
INSERT
  5
578
  8
回02-寸法
  6
CONTINUOUS
 62
     5
  2
_OPEN
 10
1764.815910807226
 20
400.8101462294688
 30
0.0
 41
1.5
 42
1.5
 43
1.5
 50
270.0
  0
INSERT
  5
579
  8
回02-寸法
  6
CONTINUOUS
 62
     5
  2
_OPEN
 10
1764.815910807226
 20
395.3601462294768
 30
0.0
 41
1.5
 42
1.5
 43
1.5
 50
90.0
  0
TEXT
  5
57A
  8
回02-寸法
  6
CONTINUOUS
 62
     5
 10
1764.115910807226
 20
342.0517210326266
 30
0.0
 40
4.0
  1
5.45(Insulation Area)
 50
90.0
  0
POINT
  5
57B
  8
DEFPOINTS
  6
CONTINUOUS
 62
     0
 10
1720.902229153111
 20
400.8101462294688
 30
0.0
  0
POINT
  5
57C
  8
DEFPOINTS
  6
CONTINUOUS
 62
     0
 10
1724.402229153111
 20
395.3601462294768
 30
0.0
  0
POINT
  5
57D
  8
DEFPOINTS
  6
CONTINUOUS
 62
     0
 10
1764.815910807226
 20
395.3601462294768
 30
0.0
  0
ENDBLK
  5
57F
  8
0
  6
CONTINUOUS
 62
     7
  0
BLOCK
  8
0
  2
*D6060
 70
     1
 10
0.0
 20
0.0
 30
0.0
  3
*D6060
  1

  0
LINE
  5
581
  8
回02-寸法
  6
CONTINUOUS
 62
     5
 10
1718.402229153111
 20
562.5101462294686
 30
0.0
 11
1750.475620664672
 21
562.5101462294686
 31
0.0
  0
LINE
  5
582
  8
回02-寸法
  6
CONTINUOUS
 62
     5
 10
1724.402229153111
 20
570.7601462294754
 30
0.0
 11
1750.475620664672
 21
570.7601462294754
 31
0.0
  0
LINE
  5
583
  8
回02-寸法
  6
CONTINUOUS
 62
     5
 10
1749.475620664671
 20
572.2601462294756
 30
0.0
 11
1749.475620664671
 21
586.3569966231763
 31
0.0
  0
LINE
  5
584
  8
回02-寸法
  6
CONTINUOUS
 62
     5
 10
1749.475620664671
 20
562.5101462294686
 30
0.0
 11
1749.475620664671
 21
570.7601462294754
 31
0.0
  0
LINE
  5
585
  8
回02-寸法
  6
CONTINUOUS
 62
     5
 10
1749.475620664671
 20
561.0101462294688
 30
0.0
 11
1749.475620664671
 21
559.5101462294686
 31
0.0
  0
INSERT
  5
586
  8
回02-寸法
  6
CONTINUOUS
 62
     5
  2
_OPEN
 10
1749.475620664671
 20
562.5101462294686
 30
0.0
 41
1.5
 42
1.5
 43
1.5
 50
90.0
  0
INSERT
  5
587
  8
回02-寸法
  6
CONTINUOUS
 62
     5
  2
_OPEN
 10
1749.475620664671
 20
570.7601462294754
 30
0.0
 41
1.5
 42
1.5
 43
1.5
 50
270.0
  0
TEXT
  5
588
  8
回02-寸法
  6
CONTINUOUS
 62
     5
 10
1748.775620664672
 20
573.6585714263262
 30
0.0
 40
4.0
  1
(8.25)
 50
90.0
  0
POINT
  5
589
  8
DEFPOINTS
  6
CONTINUOUS
 62
     0
 10
1718.402229153111
 20
562.5101462294686
 30
0.0
  0
POINT
  5
58A
  8
DEFPOINTS
  6
CONTINUOUS
 62
     0
 10
1724.402229153111
 20
570.7601462294754
 30
0.0
  0
POINT
  5
58B
  8
DEFPOINTS
  6
CONTINUOUS
 62
     0
 10
1749.475620664671
 20
570.7601462294754
 30
0.0
  0
ENDBLK
  5
58D
  8
0
  6
CONTINUOUS
 62
     7
  0
BLOCK
  8
0
  2
*D6161
 70
     1
 10
0.0
 20
0.0
 30
0.0
  3
*D6161
  1

  0
LINE
  5
58F
  8
回02-寸法
  6
CONTINUOUS
 62
     5
 10
1720.402229153111
 20
564.5101462294688
 30
0.0
 11
1758.826847124789
 21
564.5101462294688
 31
0.0
  0
LINE
  5
590
  8
回02-寸法
  6
CONTINUOUS
 62
     5
 10
1724.402229153111
 20
570.7601462294754
 30
0.0
 11
1758.826847124789
 21
570.7601462294754
 31
0.0
  0
LINE
  5
591
  8
回02-寸法
  6
CONTINUOUS
 62
     5
 10
1757.826847124789
 20
572.2601462294756
 30
0.0
 11
1757.826847124789
 21
586.3569966231763
 31
0.0
  0
LINE
  5
592
  8
回02-寸法
  6
CONTINUOUS
 62
     5
 10
1757.826847124789
 20
564.5101462294688
 30
0.0
 11
1757.826847124789
 21
570.7601462294754
 31
0.0
  0
LINE
  5
593
  8
回02-寸法
  6
CONTINUOUS
 62
     5
 10
1757.826847124789
 20
563.0101462294687
 30
0.0
 11
1757.826847124789
 21
561.5101462294687
 31
0.0
  0
INSERT
  5
594
  8
回02-寸法
  6
CONTINUOUS
 62
     5
  2
_OPEN
 10
1757.826847124789
 20
564.5101462294688
 30
0.0
 41
1.5
 42
1.5
 43
1.5
 50
90.0
  0
INSERT
  5
595
  8
回02-寸法
  6
CONTINUOUS
 62
     5
  2
_OPEN
 10
1757.826847124789
 20
570.7601462294754
 30
0.0
 41
1.5
 42
1.5
 43
1.5
 50
270.0
  0
TEXT
  5
596
  8
回02-寸法
  6
CONTINUOUS
 62
     5
 10
1757.126847124789
 20
573.658571426326
 30
0.0
 40
4.0
  1
(6.25)
 50
90.0
  0
POINT
  5
597
  8
DEFPOINTS
  6
CONTINUOUS
 62
     0
 10
1720.402229153111
 20
564.5101462294688
 30
0.0
  0
POINT
  5
598
  8
DEFPOINTS
  6
CONTINUOUS
 62
     0
 10
1724.402229153111
 20
570.7601462294754
 30
0.0
  0
POINT
  5
599
  8
DEFPOINTS
  6
CONTINUOUS
 62
     0
 10
1757.826847124789
 20
570.7601462294754
 30
0.0
  0
ENDBLK
  5
59B
  8
0
  6
CONTINUOUS
 62
     7
  0
BLOCK
  8
0
  2
*D6262
 70
     1
 10
0.0
 20
0.0
 30
0.0
  3
*D6262
  1

  0
LINE
  5
59D
  8
回02-寸法
  6
CONTINUOUS
 62
     5
 10
1720.902229153111
 20
565.310146229469
 30
0.0
 11
1765.815910807226
 21
565.310146229469
 31
0.0
  0
LINE
  5
59E
  8
回02-寸法
  6
CONTINUOUS
 62
     5
 10
1724.402229153111
 20
570.7601462294754
 30
0.0
 11
1765.815910807226
 21
570.7601462294754
 31
0.0
  0
LINE
  5
59F
  8
回02-寸法
  6
CONTINUOUS
 62
     5
 10
1764.815910807226
 20
572.2601462294756
 30
0.0
 11
1764.815910807226
 21
586.7569966231762
 31
0.0
  0
LINE
  5
5A0
  8
回02-寸法
  6
CONTINUOUS
 62
     5
 10
1764.815910807226
 20
565.310146229469
 30
0.0
 11
1764.815910807226
 21
570.7601462294754
 31
0.0
  0
LINE
  5
5A1
  8
回02-寸法
  6
CONTINUOUS
 62
     5
 10
1764.815910807226
 20
563.8101462294688
 30
0.0
 11
1764.815910807226
 21
562.3101462294688
 31
0.0
  0
INSERT
  5
5A2
  8
回02-寸法
  6
CONTINUOUS
 62
     5
  2
_OPEN
 10
1764.815910807226
 20
565.310146229469
 30
0.0
 41
1.5
 42
1.5
 43
1.5
 50
90.0
  0
INSERT
  5
5A3
  8
回02-寸法
  6
CONTINUOUS
 62
     5
  2
_OPEN
 10
1764.815910807226
 20
570.7601462294754
 30
0.0
 41
1.5
 42
1.5
 43
1.5
 50
270.0
  0
TEXT
  5
5A4
  8
回02-寸法
  6
CONTINUOUS
 62
     5
 10
1764.115910807226
 20
573.658571426326
 30
0.0
 40
4.0
  1
(5.45) 
 50
90.0
  0
POINT
  5
5A5
  8
DEFPOINTS
  6
CONTINUOUS
 62
     0
 10
1720.902229153111
 20
565.310146229469
 30
0.0
  0
POINT
  5
5A6
  8
DEFPOINTS
  6
CONTINUOUS
 62
     0
 10
1724.402229153111
 20
570.7601462294754
 30
0.0
  0
POINT
  5
5A7
  8
DEFPOINTS
  6
CONTINUOUS
 62
     0
 10
1764.815910807226
 20
570.7601462294754
 30
0.0
  0
ENDBLK
  5
5A9
  8
0
  6
CONTINUOUS
 62
     7
  0
BLOCK
  8
0
  2
*D6363
 70
     1
 10
0.0
 20
0.0
 30
0.0
  3
*D6363
  1

  0
LINE
  5
5AB
  8
回02-寸法
  6
CONTINUOUS
 62
     5
 10
1720.902229153111
 20
565.310146229469
 30
0.0
 11
1765.815910807226
 21
565.310146229469
 31
0.0
  0
LINE
  5
5AC
  8
回02-寸法
  6
CONTINUOUS
 62
     5
 10
1720.902229153111
 20
400.8101462294688
 30
0.0
 11
1765.815910807226
 21
400.8101462294688
 31
0.0
  0
LINE
  5
5AD
  8
回02-寸法
  6
CONTINUOUS
 62
     5
 10
1764.815910807226
 20
563.8101462294688
 30
0.0
 11
1764.815910807226
 21
402.3101462294688
 31
0.0
  0
INSERT
  5
5AE
  8
回02-寸法
  6
CONTINUOUS
 62
     5
  2
_OPEN
 10
1764.815910807226
 20
565.310146229469
 30
0.0
 41
1.5
 42
1.5
 43
1.5
 50
90.0
  0
INSERT
  5
5AF
  8
回02-寸法
  6
CONTINUOUS
 62
     5
  2
_OPEN
 10
1764.815910807226
 20
400.8101462294688
 30
0.0
 41
1.5
 42
1.5
 43
1.5
 50
270.0
  0
TEXT
  5
5B0
  8
回02-寸法
  6
CONTINUOUS
 62
     5
 10
1764.315910807226
 20
477.0601462294688
 30
0.0
 40
4.0
  1
164.5
 50
90.0
  0
POINT
  5
5B1
  8
DEFPOINTS
  6
CONTINUOUS
 62
     0
 10
1720.902229153111
 20
565.310146229469
 30
0.0
  0
POINT
  5
5B2
  8
DEFPOINTS
  6
CONTINUOUS
 62
     0
 10
1720.902229153111
 20
400.8101462294688
 30
0.0
  0
POINT
  5
5B3
  8
DEFPOINTS
  6
CONTINUOUS
 62
     0
 10
1764.815910807226
 20
400.8101462294688
 30
0.0
  0
ENDBLK
  5
5B5
  8
0
  6
CONTINUOUS
 62
     7
  0
BLOCK
  8
0
  2
*D6464
 70
     1
 10
0.0
 20
0.0
 30
0.0
  3
*D6464
  1

  0
LINE
  5
5B7
  8
回02-寸法
  6
CONTINUOUS
 62
     5
 10
1720.902229153111
 20
565.310146229469
 30
0.0
 11
1720.902229153111
 21
600.8526203473946
 31
0.0
  0
LINE
  5
5B8
  8
回02-寸法
  6
CONTINUOUS
 62
     5
 10
1504.202229153111
 20
565.310146229469
 30
0.0
 11
1504.202229153111
 21
600.8526203473946
 31
0.0
  0
LINE
  5
5B9
  8
回02-寸法
  6
CONTINUOUS
 62
     5
 10
1719.402229153111
 20
599.8526203473947
 30
0.0
 11
1505.702229153111
 21
599.8526203473947
 31
0.0
  0
INSERT
  5
5BA
  8
回02-寸法
  6
CONTINUOUS
 62
     5
  2
_OPEN
 10
1720.902229153111
 20
599.8526203473947
 30
0.0
 41
1.5
 42
1.5
 43
1.5
  0
INSERT
  5
5BB
  8
回02-寸法
  6
CONTINUOUS
 62
     5
  2
_OPEN
 10
1504.202229153111
 20
599.8526203473947
 30
0.0
 41
1.5
 42
1.5
 43
1.5
 50
180.0
  0
TEXT
  5
5BC
  8
回02-寸法
  6
CONTINUOUS
 62
     5
 10
1606.752229153111
 20
600.3526203473946
 30
0.0
 40
4.0
  1
216.7
  0
POINT
  5
5BD
  8
DEFPOINTS
  6
CONTINUOUS
 62
     0
 10
1720.902229153111
 20
565.310146229469
 30
0.0
  0
POINT
  5
5BE
  8
DEFPOINTS
  6
CONTINUOUS
 62
     0
 10
1504.202229153111
 20
565.310146229469
 30
0.0
  0
POINT
  5
5BF
  8
DEFPOINTS
  6
CONTINUOUS
 62
     0
 10
1504.202229153111
 20
599.8526203473947
 30
0.0
  0
ENDBLK
  5
5C1
  8
0
  6
CONTINUOUS
 62
     7
  0
BLOCK
  8
0
  2
*D6565
 70
     1
 10
0.0
 20
0.0
 30
0.0
  3
*D6565
  1

  0
LINE
  5
5C3
  8
回02-寸法
  6
CONTINUOUS
 62
     5
 10
1720.402229153111
 20
401.6101462294686
 30
0.0
 11
1758.826847124789
 21
401.6101462294686
 31
0.0
  0
LINE
  5
5C4
  8
回02-寸法
  6
CONTINUOUS
 62
     5
 10
1724.402229153111
 20
395.3601462294768
 30
0.0
 11
1758.826847124789
 21
395.3601462294768
 31
0.0
  0
LINE
  5
5C5
  8
回02-寸法
  6
CONTINUOUS
 62
     5
 10
1757.826847124789
 20
393.8601462294769
 30
0.0
 11
1757.826847124789
 21
382.9601462294768
 31
0.0
  0
LINE
  5
5C6
  8
回02-寸法
  6
CONTINUOUS
 62
     5
 10
1757.826847124789
 20
401.6101462294686
 30
0.0
 11
1757.826847124789
 21
395.3601462294768
 31
0.0
  0
LINE
  5
5C7
  8
回02-寸法
  6
CONTINUOUS
 62
     5
 10
1757.826847124789
 20
403.1101462294686
 30
0.0
 11
1757.826847124789
 21
404.6101462294687
 31
0.0
  0
INSERT
  5
5C8
  8
回02-寸法
  6
CONTINUOUS
 62
     5
  2
_OPEN
 10
1757.826847124789
 20
401.6101462294686
 30
0.0
 41
1.5
 42
1.5
 43
1.5
 50
270.0
  0
INSERT
  5
5C9
  8
回02-寸法
  6
CONTINUOUS
 62
     5
  2
_OPEN
 10
1757.826847124789
 20
395.3601462294768
 30
0.0
 41
1.5
 42
1.5
 43
1.5
 50
90.0
  0
TEXT
  5
5CA
  8
回02-寸法
  6
CONTINUOUS
 62
     5
 10
1757.326847124789
 20
382.8601462294768
 30
0.0
 40
4.0
  1
6.25
 50
90.0
  0
POINT
  5
5CB
  8
DEFPOINTS
  6
CONTINUOUS
 62
     0
 10
1720.402229153111
 20
401.6101462294686
 30
0.0
  0
POINT
  5
5CC
  8
DEFPOINTS
  6
CONTINUOUS
 62
     0
 10
1724.402229153111
 20
395.3601462294768
 30
0.0
  0
POINT
  5
5CD
  8
DEFPOINTS
  6
CONTINUOUS
 62
     0
 10
1757.826847124789
 20
395.3601462294768
 30
0.0
  0
ENDBLK
  5
5CF
  8
0
  6
CONTINUOUS
 62
     7
  0
BLOCK
  8
0
  2
*D6666
 70
     1
 10
0.0
 20
0.0
 30
0.0
  3
*D6666
  1

  0
LINE
  5
5D1
  8
回02-寸法
  6
CONTINUOUS
 62
     5
 10
1718.402229153111
 20
403.6101462294686
 30
0.0
 11
1750.475620664672
 21
403.6101462294686
 31
0.0
  0
LINE
  5
5D2
  8
回02-寸法
  6
CONTINUOUS
 62
     5
 10
1724.402229153111
 20
395.3601462294768
 30
0.0
 11
1750.475620664672
 21
395.3601462294768
 31
0.0
  0
LINE
  5
5D3
  8
回02-寸法
  6
CONTINUOUS
 62
     5
 10
1749.475620664672
 20
393.8601462294769
 30
0.0
 11
1749.475620664672
 21
382.8773035170009
 31
0.0
  0
LINE
  5
5D4
  8
回02-寸法
  6
CONTINUOUS
 62
     5
 10
1749.475620664672
 20
403.6101462294686
 30
0.0
 11
1749.475620664672
 21
395.3601462294768
 31
0.0
  0
LINE
  5
5D5
  8
回02-寸法
  6
CONTINUOUS
 62
     5
 10
1749.475620664672
 20
405.1101462294687
 30
0.0
 11
1749.475620664672
 21
406.6101462294686
 31
0.0
  0
INSERT
  5
5D6
  8
回02-寸法
  6
CONTINUOUS
 62
     5
  2
_OPEN
 10
1749.475620664672
 20
403.6101462294686
 30
0.0
 41
1.5
 42
1.5
 43
1.5
 50
270.0
  0
INSERT
  5
5D7
  8
回02-寸法
  6
CONTINUOUS
 62
     5
  2
_OPEN
 10
1749.475620664672
 20
395.3601462294768
 30
0.0
 41
1.5
 42
1.5
 43
1.5
 50
90.0
  0
TEXT
  5
5D8
  8
回02-寸法
  6
CONTINUOUS
 62
     5
 10
1748.975620664672
 20
382.7773035170011
 30
0.0
 40
4.0
  1
8.25
 50
90.0
  0
POINT
  5
5D9
  8
DEFPOINTS
  6
CONTINUOUS
 62
     0
 10
1718.402229153111
 20
403.6101462294686
 30
0.0
  0
POINT
  5
5DA
  8
DEFPOINTS
  6
CONTINUOUS
 62
     0
 10
1724.402229153111
 20
395.3601462294768
 30
0.0
  0
POINT
  5
5DB
  8
DEFPOINTS
  6
CONTINUOUS
 62
     0
 10
1749.475620664672
 20
395.3601462294768
 30
0.0
  0
ENDBLK
  5
5DD
  8
0
  6
CONTINUOUS
 62
     7
  0
BLOCK
  8
0
  2
*D6767
 70
     1
 10
0.0
 20
0.0
 30
0.0
  3
*D6767
  1

  0
LINE
  5
5DF
  8
回02-寸法
  6
CONTINUOUS
 62
     5
 10
1504.702229153111
 20
564.5101462294688
 30
0.0
 11
1504.702229153111
 21
593.8274335547617
 31
0.0
  0
LINE
  5
5E0
  8
回02-寸法
  6
CONTINUOUS
 62
     5
 10
1496.802229153111
 20
570.7601462294754
 30
0.0
 11
1496.802229153111
 21
593.8274335547617
 31
0.0
  0
LINE
  5
5E1
  8
回02-寸法
  6
CONTINUOUS
 62
     5
 10
1495.302229153111
 20
592.8274335547617
 30
0.0
 11
1487.051821458053
 21
592.8274335547617
 31
0.0
  0
LINE
  5
5E2
  8
回02-寸法
  6
CONTINUOUS
 62
     5
 10
1504.702229153111
 20
592.8274335547617
 30
0.0
 11
1496.802229153111
 21
592.8274335547617
 31
0.0
  0
LINE
  5
5E3
  8
回02-寸法
  6
CONTINUOUS
 62
     5
 10
1506.202229153111
 20
592.8274335547617
 30
0.0
 11
1507.702229153111
 21
592.8274335547617
 31
0.0
  0
INSERT
  5
5E4
  8
回02-寸法
  6
CONTINUOUS
 62
     5
  2
_OPEN
 10
1504.702229153111
 20
592.8274335547617
 30
0.0
 41
1.5
 42
1.5
 43
1.5
 50
180.0
  0
INSERT
  5
5E5
  8
回02-寸法
  6
CONTINUOUS
 62
     5
  2
_OPEN
 10
1496.802229153111
 20
592.8274335547617
 30
0.0
 41
1.5
 42
1.5
 43
1.5
  0
TEXT
  5
5E6
  8
回02-寸法
  6
CONTINUOUS
 62
     5
 10
1486.951821458054
 20
593.3274335547617
 30
0.0
 40
4.0
  1
7.9
  0
POINT
  5
5E7
  8
DEFPOINTS
  6
CONTINUOUS
 62
     0
 10
1504.702229153111
 20
564.5101462294688
 30
0.0
  0
POINT
  5
5E8
  8
DEFPOINTS
  6
CONTINUOUS
 62
     0
 10
1496.802229153111
 20
570.7601462294754
 30
0.0
  0
POINT
  5
5E9
  8
DEFPOINTS
  6
CONTINUOUS
 62
     0
 10
1496.802229153111
 20
592.8274335547617
 30
0.0
  0
ENDBLK
  5
5EB
  8
0
  6
CONTINUOUS
 62
     7
  0
BLOCK
  8
0
  2
*D6868
 70
     1
 10
0.0
 20
0.0
 30
0.0
  3
*D6868
  1

  0
LINE
  5
5ED
  8
回02-寸法
  6
CONTINUOUS
 62
     5
 10
1506.702229153111
 20
562.5101462294686
 30
0.0
 11
1506.702229153111
 21
586.3808052980715
 31
0.0
  0
LINE
  5
5EE
  8
回02-寸法
  6
CONTINUOUS
 62
     5
 10
1496.802229153111
 20
570.7601462294754
 30
0.0
 11
1496.802229153111
 21
586.3808052980715
 31
0.0
  0
LINE
  5
5EF
  8
回02-寸法
  6
CONTINUOUS
 62
     5
 10
1495.302229153111
 20
585.3808052980715
 30
0.0
 11
1486.968978745579
 21
585.3808052980715
 31
0.0
  0
LINE
  5
5F0
  8
回02-寸法
  6
CONTINUOUS
 62
     5
 10
1506.702229153111
 20
585.3808052980715
 30
0.0
 11
1496.802229153111
 21
585.3808052980715
 31
0.0
  0
LINE
  5
5F1
  8
回02-寸法
  6
CONTINUOUS
 62
     5
 10
1508.202229153111
 20
585.3808052980715
 30
0.0
 11
1509.702229153111
 21
585.3808052980715
 31
0.0
  0
INSERT
  5
5F2
  8
回02-寸法
  6
CONTINUOUS
 62
     5
  2
_OPEN
 10
1506.702229153111
 20
585.3808052980715
 30
0.0
 41
1.5
 42
1.5
 43
1.5
 50
180.0
  0
INSERT
  5
5F3
  8
回02-寸法
  6
CONTINUOUS
 62
     5
  2
_OPEN
 10
1496.802229153111
 20
585.3808052980715
 30
0.0
 41
1.5
 42
1.5
 43
1.5
  0
TEXT
  5
5F4
  8
回02-寸法
  6
CONTINUOUS
 62
     5
 10
1486.854537271471
 20
585.8808052980715
 30
0.0
 40
4.0
  1
9.9
  0
POINT
  5
5F5
  8
DEFPOINTS
  6
CONTINUOUS
 62
     0
 10
1506.702229153111
 20
562.5101462294686
 30
0.0
  0
POINT
  5
5F6
  8
DEFPOINTS
  6
CONTINUOUS
 62
     0
 10
1496.802229153111
 20
570.7601462294754
 30
0.0
  0
POINT
  5
5F7
  8
DEFPOINTS
  6
CONTINUOUS
 62
     0
 10
1496.802229153111
 20
585.3808052980715
 30
0.0
  0
ENDBLK
  5
5F9
  8
0
  6
CONTINUOUS
 62
     7
  0
BLOCK
  8
0
  2
*D6969
 70
     1
 10
0.0
 20
0.0
 30
0.0
  3
*D6969
  1

  0
LINE
  5
5FB
  8
回02-寸法
  6
CONTINUOUS
 62
     5
 10
1724.402229153111
 20
395.3601462294768
 30
0.0
 11
1772.939939355126
 21
395.3601462294768
 31
0.0
  0
LINE
  5
5FC
  8
回02-寸法
  6
CONTINUOUS
 62
     5
 10
1724.402229153111
 20
570.7601462294754
 30
0.0
 11
1772.939939355126
 21
570.7601462294754
 31
0.0
  0
LINE
  5
5FD
  8
回02-寸法
  6
CONTINUOUS
 62
     5
 10
1771.939939355126
 20
396.8601462294769
 30
0.0
 11
1771.939939355126
 21
569.2601462294756
 31
0.0
  0
INSERT
  5
5FE
  8
回02-寸法
  6
CONTINUOUS
 62
     5
  2
_OPEN
 10
1771.939939355126
 20
395.3601462294768
 30
0.0
 41
1.5
 42
1.5
 43
1.5
 50
270.0
  0
INSERT
  5
5FF
  8
回02-寸法
  6
CONTINUOUS
 62
     5
  2
_OPEN
 10
1771.939939355126
 20
570.7601462294754
 30
0.0
 41
1.5
 42
1.5
 43
1.5
 50
90.0
  0
INSERT
  5
600
  8
回02-寸法
  6
CONTINUOUS
 62
     5
 66
     1
  2
*X107107
 10
0.0
 20
0.0
 30
0.0
  0
SEQEND
  5
76A
  8
0
  6
CONTINUOUS
 62
     7
  0
POINT
  5
601
  8
DEFPOINTS
  6
CONTINUOUS
 62
     0
 10
1724.402229153111
 20
395.3601462294768
 30
0.0
  0
POINT
  5
602
  8
DEFPOINTS
  6
CONTINUOUS
 62
     0
 10
1724.402229153111
 20
570.7601462294754
 30
0.0
  0
POINT
  5
603
  8
DEFPOINTS
  6
CONTINUOUS
 62
     0
 10
1771.939939355126
 20
570.7601462294754
 30
0.0
  0
ENDBLK
  5
605
  8
0
  6
CONTINUOUS
 62
     7
  0
BLOCK
  8
0
  2
*D7070
 70
     1
 10
0.0
 20
0.0
 30
0.0
  3
*D7070
  1

  0
LINE
  5
607
  8
回02-寸法
  6
CONTINUOUS
 62
     5
 10
1720.402229153111
 20
564.5101462294688
 30
0.0
 11
1758.82684712479
 21
564.5101462294688
 31
0.0
  0
LINE
  5
608
  8
回02-寸法
  6
CONTINUOUS
 62
     5
 10
1720.402229153111
 20
401.6101462294686
 30
0.0
 11
1758.82684712479
 21
401.6101462294686
 31
0.0
  0
LINE
  5
609
  8
回02-寸法
  6
CONTINUOUS
 62
     5
 10
1757.82684712479
 20
563.0101462294687
 30
0.0
 11
1757.82684712479
 21
403.1101462294686
 31
0.0
  0
INSERT
  5
60A
  8
回02-寸法
  6
CONTINUOUS
 62
     5
  2
_OPEN
 10
1757.82684712479
 20
564.5101462294688
 30
0.0
 41
1.5
 42
1.5
 43
1.5
 50
90.0
  0
INSERT
  5
60B
  8
回02-寸法
  6
CONTINUOUS
 62
     5
  2
_OPEN
 10
1757.82684712479
 20
401.6101462294686
 30
0.0
 41
1.5
 42
1.5
 43
1.5
 50
270.0
  0
INSERT
  5
60C
  8
回02-寸法
  6
CONTINUOUS
 62
     5
 66
     1
  2
*X108108
 10
0.0
 20
0.0
 30
0.0
  0
SEQEND
  5
770
  8
0
  6
CONTINUOUS
 62
     7
  0
POINT
  5
60D
  8
DEFPOINTS
  6
CONTINUOUS
 62
     0
 10
1720.402229153111
 20
564.5101462294688
 30
0.0
  0
POINT
  5
60E
  8
DEFPOINTS
  6
CONTINUOUS
 62
     0
 10
1720.402229153111
 20
401.6101462294686
 30
0.0
  0
POINT
  5
60F
  8
DEFPOINTS
  6
CONTINUOUS
 62
     0
 10
1757.82684712479
 20
401.6101462294686
 30
0.0
  0
ENDBLK
  5
611
  8
0
  6
CONTINUOUS
 62
     7
  0
BLOCK
  8
0
  2
*D7171
 70
     1
 10
0.0
 20
0.0
 30
0.0
  3
*D7171
  1

  0
LINE
  5
613
  8
回02-寸法
  6
CONTINUOUS
 62
     5
 10
1718.402229153111
 20
403.6101462294686
 30
0.0
 11
1750.475620664673
 21
403.6101462294686
 31
0.0
  0
LINE
  5
614
  8
回02-寸法
  6
CONTINUOUS
 62
     5
 10
1718.402229153111
 20
562.5101462294686
 30
0.0
 11
1750.475620664673
 21
562.5101462294686
 31
0.0
  0
LINE
  5
615
  8
回02-寸法
  6
CONTINUOUS
 62
     5
 10
1749.475620664673
 20
405.1101462294687
 30
0.0
 11
1749.475620664673
 21
561.0101462294688
 31
0.0
  0
INSERT
  5
616
  8
回02-寸法
  6
CONTINUOUS
 62
     5
  2
_OPEN
 10
1749.475620664673
 20
403.6101462294686
 30
0.0
 41
1.5
 42
1.5
 43
1.5
 50
270.0
  0
INSERT
  5
617
  8
回02-寸法
  6
CONTINUOUS
 62
     5
  2
_OPEN
 10
1749.475620664673
 20
562.5101462294686
 30
0.0
 41
1.5
 42
1.5
 43
1.5
 50
90.0
  0
INSERT
  5
618
  8
回02-寸法
  6
CONTINUOUS
 62
     5
 66
     1
  2
*X109109
 10
0.0
 20
0.0
 30
0.0
  0
SEQEND
  5
776
  8
0
  6
CONTINUOUS
 62
     7
  0
POINT
  5
619
  8
DEFPOINTS
  6
CONTINUOUS
 62
     0
 10
1718.402229153111
 20
403.6101462294686
 30
0.0
  0
POINT
  5
61A
  8
DEFPOINTS
  6
CONTINUOUS
 62
     0
 10
1718.402229153111
 20
562.5101462294686
 30
0.0
  0
POINT
  5
61B
  8
DEFPOINTS
  6
CONTINUOUS
 62
     0
 10
1749.475620664673
 20
562.5101462294686
 30
0.0
  0
ENDBLK
  5
61D
  8
0
  6
CONTINUOUS
 62
     7
  0
BLOCK
  8
0
  2
*D7272
 70
     1
 10
0.0
 20
0.0
 30
0.0
  3
*D7272
  1

  0
LINE
  5
61F
  8
回02-寸法
  6
CONTINUOUS
 62
     5
 10
1496.802229153111
 20
570.7601462294754
 30
0.0
 11
1496.802229153111
 21
607.0086318667428
 31
0.0
  0
LINE
  5
620
  8
回02-寸法
  6
CONTINUOUS
 62
     5
 10
1724.402229153111
 20
570.7601462294754
 30
0.0
 11
1724.402229153111
 21
607.0086318667428
 31
0.0
  0
LINE
  5
621
  8
回02-寸法
  6
CONTINUOUS
 62
     5
 10
1498.302229153111
 20
606.0086318667425
 30
0.0
 11
1722.902229153111
 21
606.0086318667425
 31
0.0
  0
INSERT
  5
622
  8
回02-寸法
  6
CONTINUOUS
 62
     5
  2
_OPEN
 10
1496.802229153111
 20
606.0086318667425
 30
0.0
 41
1.5
 42
1.5
 43
1.5
 50
180.0
  0
INSERT
  5
623
  8
回02-寸法
  6
CONTINUOUS
 62
     5
  2
_OPEN
 10
1724.402229153111
 20
606.0086318667425
 30
0.0
 41
1.5
 42
1.5
 43
1.5
  0
INSERT
  5
624
  8
回02-寸法
  6
CONTINUOUS
 62
     5
 66
     1
  2
*X110110
 10
0.0
 20
0.0
 30
0.0
  0
SEQEND
  5
77C
  8
0
  6
CONTINUOUS
 62
     7
  0
POINT
  5
625
  8
DEFPOINTS
  6
CONTINUOUS
 62
     0
 10
1496.802229153111
 20
570.7601462294754
 30
0.0
  0
POINT
  5
626
  8
DEFPOINTS
  6
CONTINUOUS
 62
     0
 10
1724.402229153111
 20
570.7601462294754
 30
0.0
  0
POINT
  5
627
  8
DEFPOINTS
  6
CONTINUOUS
 62
     0
 10
1724.402229153111
 20
606.0086318667425
 30
0.0
  0
ENDBLK
  5
629
  8
0
  6
CONTINUOUS
 62
     7
  0
BLOCK
  8
0
  2
*D7373
 70
     1
 10
0.0
 20
0.0
 30
0.0
  3
*D7373
  1

  0
LINE
  5
62B
  8
回02-寸法
  6
CONTINUOUS
 62
     5
 10
1504.702229153111
 20
564.5101462294688
 30
0.0
 11
1504.702229153111
 21
593.8274335547617
 31
0.0
  0
LINE
  5
62C
  8
回02-寸法
  6
CONTINUOUS
 62
     5
 10
1720.402229153111
 20
564.5101462294688
 30
0.0
 11
1720.402229153111
 21
593.8274335547617
 31
0.0
  0
LINE
  5
62D
  8
回02-寸法
  6
CONTINUOUS
 62
     5
 10
1506.202229153111
 20
592.8274335547617
 30
0.0
 11
1718.902229153111
 21
592.8274335547617
 31
0.0
  0
INSERT
  5
62E
  8
回02-寸法
  6
CONTINUOUS
 62
     5
  2
_OPEN
 10
1504.702229153111
 20
592.8274335547617
 30
0.0
 41
1.5
 42
1.5
 43
1.5
 50
180.0
  0
INSERT
  5
62F
  8
回02-寸法
  6
CONTINUOUS
 62
     5
  2
_OPEN
 10
1720.402229153111
 20
592.8274335547617
 30
0.0
 41
1.5
 42
1.5
 43
1.5
  0
INSERT
  5
630
  8
回02-寸法
  6
CONTINUOUS
 62
     5
 66
     1
  2
*X111111
 10
0.0
 20
0.0
 30
0.0
  0
SEQEND
  5
782
  8
0
  6
CONTINUOUS
 62
     7
  0
POINT
  5
631
  8
DEFPOINTS
  6
CONTINUOUS
 62
     0
 10
1504.702229153111
 20
564.5101462294688
 30
0.0
  0
POINT
  5
632
  8
DEFPOINTS
  6
CONTINUOUS
 62
     0
 10
1720.402229153111
 20
564.5101462294688
 30
0.0
  0
POINT
  5
633
  8
DEFPOINTS
  6
CONTINUOUS
 62
     0
 10
1720.402229153111
 20
592.8274335547617
 30
0.0
  0
ENDBLK
  5
635
  8
0
  6
CONTINUOUS
 62
     7
  0
BLOCK
  8
0
  2
*D7474
 70
     1
 10
0.0
 20
0.0
 30
0.0
  3
*D7474
  1

  0
LINE
  5
637
  8
回02-寸法
  6
CONTINUOUS
 62
     5
 10
1506.702229153111
 20
562.5101462294686
 30
0.0
 11
1506.702229153111
 21
586.3808052980715
 31
0.0
  0
LINE
  5
638
  8
回02-寸法
  6
CONTINUOUS
 62
     5
 10
1718.402229153111
 20
562.5101462294686
 30
0.0
 11
1718.402229153111
 21
586.3808052980715
 31
0.0
  0
LINE
  5
639
  8
回02-寸法
  6
CONTINUOUS
 62
     5
 10
1508.202229153111
 20
585.3808052980715
 30
0.0
 11
1716.902229153111
 21
585.3808052980715
 31
0.0
  0
INSERT
  5
63A
  8
回02-寸法
  6
CONTINUOUS
 62
     5
  2
_OPEN
 10
1506.702229153111
 20
585.3808052980715
 30
0.0
 41
1.5
 42
1.5
 43
1.5
 50
180.0
  0
INSERT
  5
63B
  8
回02-寸法
  6
CONTINUOUS
 62
     5
  2
_OPEN
 10
1718.402229153111
 20
585.3808052980715
 30
0.0
 41
1.5
 42
1.5
 43
1.5
  0
INSERT
  5
63C
  8
回02-寸法
  6
CONTINUOUS
 62
     5
 66
     1
  2
*X112112
 10
0.0
 20
0.0
 30
0.0
  0
SEQEND
  5
788
  8
0
  6
CONTINUOUS
 62
     7
  0
POINT
  5
63D
  8
DEFPOINTS
  6
CONTINUOUS
 62
     0
 10
1506.702229153111
 20
562.5101462294686
 30
0.0
  0
POINT
  5
63E
  8
DEFPOINTS
  6
CONTINUOUS
 62
     0
 10
1718.402229153111
 20
562.5101462294686
 30
0.0
  0
POINT
  5
63F
  8
DEFPOINTS
  6
CONTINUOUS
 62
     0
 10
1718.402229153111
 20
585.3808052980715
 30
0.0
  0
ENDBLK
  5
641
  8
0
  6
CONTINUOUS
 62
     7
  0
BLOCK
  8
0
  2
*D7575
 70
     1
 10
0.0
 20
0.0
 30
0.0
  3
*D7575
  1

  0
LINE
  5
643
  8
回02-寸法
  6
CONTINUOUS
 62
     5
 10
1640.552229153111
 20
447.0601462294767
 30
0.0
 11
1640.552229153111
 21
437.8849227488236
 31
0.0
  0
LINE
  5
644
  8
回02-寸法
  6
CONTINUOUS
 62
     5
 10
1644.552229153111
 20
447.0601462294767
 30
0.0
 11
1644.552229153111
 21
437.8849227488236
 31
0.0
  0
LINE
  5
645
  8
回02-寸法
  6
CONTINUOUS
 62
     5
 10
1642.052229153111
 20
438.8849227488234
 30
0.0
 11
1643.052229153111
 21
438.8849227488234
 31
0.0
  0
INSERT
  5
646
  8
回02-寸法
  6
CONTINUOUS
 62
     5
  2
_OPEN
 10
1640.552229153111
 20
438.8849227488234
 30
0.0
 41
1.5
 42
1.5
 43
1.5
 50
180.0
  0
INSERT
  5
647
  8
回02-寸法
  6
CONTINUOUS
 62
     5
  2
_OPEN
 10
1644.552229153111
 20
438.8849227488234
 30
0.0
 41
1.5
 42
1.5
 43
1.5
  0
TEXT
  5
648
  8
回02-寸法
  6
CONTINUOUS
 62
     5
 10
1640.952229153111
 20
439.3849227488234
 30
0.0
 40
4.0
  1
4
  0
POINT
  5
649
  8
DEFPOINTS
  6
CONTINUOUS
 62
     0
 10
1640.552229153111
 20
447.0601462294767
 30
0.0
  0
POINT
  5
64A
  8
DEFPOINTS
  6
CONTINUOUS
 62
     0
 10
1644.552229153111
 20
447.0601462294767
 30
0.0
  0
POINT
  5
64B
  8
DEFPOINTS
  6
CONTINUOUS
 62
     0
 10
1644.552229153111
 20
438.8849227488234
 30
0.0
  0
ENDBLK
  5
64D
  8
0
  6
CONTINUOUS
 62
     7
  0
BLOCK
  8
0
  2
*D7676
 70
     1
 10
0.0
 20
0.0
 30
0.0
  3
*D7676
  1

  0
LINE
  5
64F
  8
回02-寸法
  6
CONTINUOUS
 62
     5
 10
1648.552229153111
 20
459.0601462294767
 30
0.0
 11
1659.678864768899
 21
459.0601462294767
 31
0.0
  0
LINE
  5
650
  8
回02-寸法
  6
CONTINUOUS
 62
     5
 10
1648.552229153111
 20
455.0601462294767
 30
0.0
 11
1659.678864768899
 21
455.0601462294767
 31
0.0
  0
LINE
  5
651
  8
回02-寸法
  6
CONTINUOUS
 62
     5
 10
1658.678864768899
 20
457.5601462294766
 30
0.0
 11
1658.678864768899
 21
456.5601462294766
 31
0.0
  0
INSERT
  5
652
  8
回02-寸法
  6
CONTINUOUS
 62
     5
  2
_OPEN
 10
1658.678864768899
 20
459.0601462294767
 30
0.0
 41
1.5
 42
1.5
 43
1.5
 50
90.0
  0
INSERT
  5
653
  8
回02-寸法
  6
CONTINUOUS
 62
     5
  2
_OPEN
 10
1658.678864768899
 20
455.0601462294767
 30
0.0
 41
1.5
 42
1.5
 43
1.5
 50
270.0
  0
TEXT
  5
654
  8
回02-寸法
  6
CONTINUOUS
 62
     5
 10
1658.178864768899
 20
455.4601462294767
 30
0.0
 40
4.0
  1
4
 50
90.0
  0
POINT
  5
655
  8
DEFPOINTS
  6
CONTINUOUS
 62
     0
 10
1648.552229153111
 20
459.0601462294767
 30
0.0
  0
POINT
  5
656
  8
DEFPOINTS
  6
CONTINUOUS
 62
     0
 10
1648.552229153111
 20
455.0601462294767
 30
0.0
  0
POINT
  5
657
  8
DEFPOINTS
  6
CONTINUOUS
 62
     0
 10
1658.678864768899
 20
455.0601462294767
 30
0.0
  0
ENDBLK
  5
659
  8
0
  6
CONTINUOUS
 62
     7
  0
BLOCK
  8
0
  2
*X7777
 70
     1
 10
0.0
 20
0.0
 30
0.0
  3
*X7777
  1

  0
SOLID
  5
65E
  8
回02-寸法
 62
     5
 10
1413.916007872305
 20
563.1246214829732
 30
0.0
 11
1414.525751017455
 21
561.7315266201075
 31
0.0
 12
1413.497152411114
 22
562.8515645243915
 32
0.0
 13
1413.497152411114
 23
562.8515645243915
 33
0.0
  0
LINE
  5
65F
  8
回02-寸法
 62
     5
 10
1413.706580141709
 20
562.9880930036825
 30
0.0
 11
1410.588745043653
 21
567.7706931787456
 31
0.0
  0
LINE
  5
660
  8
回02-寸法
 62
     5
 10
1410.588745043653
 20
567.7706931787456
 30
0.0
 11
1394.332745043653
 21
567.7706931787456
 31
0.0
  0
ENDBLK
  5
662
  8
0
  6
CONTINUOUS
 62
     7
  0
BLOCK
  8
0
  2
*X7878
 70
     1
 10
0.0
 20
0.0
 30
0.0
  3
*X7878
  1

  0
SOLID
  5
671
  8
回03-記事
  6
CONTINUOUS
 62
     5
 10
1417.71974926721
 20
373.6394776479357
 30
0.0
 11
1419.22230498324
 21
372.2780675586032
 31
0.0
 12
1417.359430087752
 22
373.0785725460162
 32
0.0
 13
1417.359430087752
 23
373.0785725460162
 33
0.0
  0
LINE
  5
672
  8
回03-記事
  6
CONTINUOUS
 62
     5
 10
1417.539589677481
 20
373.3590250969759
 30
0.0
 11
1410.757740584992
 21
377.7156092889322
 31
0.0
  0
LINE
  5
673
  8
回03-記事
  6
CONTINUOUS
 62
     5
 10
1410.757740584992
 20
377.7156092889322
 30
0.0
 11
1376.647740584993
 21
377.7156092889322
 31
0.0
  0
ENDBLK
  5
675
  8
0
  6
CONTINUOUS
 62
     7
  0
BLOCK
  8
0
  2
*X7979
 70
     1
 10
0.0
 20
0.0
 30
0.0
  3
*X7979
  1

  0
SOLID
  5
678
  8
回03-記事
  6
CONTINUOUS
 62
     5
 10
1420.79474501523
 20
487.67404373257
 30
0.0
 11
1419.416190474233
 21
486.1872019492562
 31
0.0
 12
1420.238009596804
 22
488.040772676498
 32
0.0
 13
1420.238009596804
 23
488.040772676498
 33
0.0
  0
LINE
  5
679
  8
回03-記事
  6
CONTINUOUS
 62
     5
 10
1420.516377306016
 20
487.8574082045341
 30
0.0
 11
1423.276363606721
 21
492.0473750817449
 31
0.0
  0
LINE
  5
67A
  8
回03-記事
  6
CONTINUOUS
 62
     5
 10
1423.276363606721
 20
492.0473750817449
 30
0.0
 11
1425.776363606721
 21
492.0473750817449
 31
0.0
  0
ENDBLK
  5
67C
  8
0
  6
CONTINUOUS
 62
     7
  0
BLOCK
  8
0
  2
*X8080
 70
     1
 10
0.0
 20
0.0
 30
0.0
  3
*X8080
  1

  0
SOLID
  5
67F
  8
回03-記事
  6
CONTINUOUS
 62
     5
 10
1494.370258770574
 20
475.7785843890849
 30
0.0
 11
1495.36049039238
 21
477.5479211140436
 31
0.0
 12
1494.99762374201
 22
475.553068010389
 32
0.0
 13
1494.99762374201
 23
475.553068010389
 33
0.0
  0
LINE
  5
680
  8
回03-記事
  6
CONTINUOUS
 62
     5
 10
1494.683941256292
 20
475.6658261997371
 30
0.0
 11
1485.469139293207
 21
450.0311294926368
 31
0.0
  0
LINE
  5
681
  8
回03-記事
  6
CONTINUOUS
 62
     5
 10
1485.469139293207
 20
450.0311294926368
 30
0.0
 11
1439.769139293207
 21
450.0311294926368
 31
0.0
  0
ENDBLK
  5
683
  8
0
  6
CONTINUOUS
 62
     7
  0
BLOCK
  8
0
  2
*X8181
 70
     1
 10
0.0
 20
0.0
 30
0.0
  3
*X8181
  1

  0
SOLID
  5
686
  8
回02-寸法
  6
CONTINUOUS
 62
     5
 10
1496.020488187568
 20
493.7080997682605
 30
0.0
 11
1496.915303771297
 21
491.8886448547696
 31
0.0
 12
1495.478763112043
 22
493.3195403944298
 32
0.0
 13
1495.478763112043
 23
493.3195403944298
 33
0.0
  0
LINE
  5
687
  8
回02-寸法
  6
CONTINUOUS
 62
     5
 10
1495.749625649805
 20
493.5138200813452
 30
0.0
 11
1493.062992952377
 21
497.2594929410023
 31
0.0
  0
LINE
  5
688
  8
回02-寸法
  6
CONTINUOUS
 62
     5
 10
1493.062992952377
 20
497.2594929410023
 30
0.0
 11
1490.562992952377
 21
497.2594929410023
 31
0.0
  0
ENDBLK
  5
68A
  8
0
  6
CONTINUOUS
 62
     7
  0
BLOCK
  8
0
  2
*X8282
 70
     1
 10
0.0
 20
0.0
 30
0.0
  3
*X8282
  1

  0
SOLID
  5
68D
  8
回02-寸法
  6
CONTINUOUS
 62
     5
 10
1486.834057551451
 20
488.2513112594581
 30
0.0
 11
1487.272706462814
 21
486.2717410425496
 31
0.0
 12
1486.215745530365
 22
488.0020429521563
 32
0.0
 13
1486.215745530365
 23
488.0020429521563
 33
0.0
  0
LINE
  5
68E
  8
回02-寸法
  6
CONTINUOUS
 62
     5
 10
1486.524901540908
 20
488.1266771058073
 30
0.0
 11
1484.871403277093
 21
492.2281927153417
 31
0.0
  0
LINE
  5
68F
  8
回02-寸法
  6
CONTINUOUS
 62
     5
 10
1484.871403277093
 20
492.2281927153417
 30
0.0
 11
1482.371403277093
 21
492.2281927153417
 31
0.0
  0
ENDBLK
  5
691
  8
0
  6
CONTINUOUS
 62
     7
  0
BLOCK
  8
0
  2
*X8383
 70
     1
 10
0.0
 20
0.0
 30
0.0
  3
*X8383
  1

  0
TEXT
  5
69E
  8
回02-寸法
  6
CONTINUOUS
 62
     5
 10
1652.526570251148
 20
467.784487327514
 30
0.0
 40
3.0
  1
φ0.05
  0
POLYLINE
  5
69F
  8
回02-寸法
  6
BYBLOCK
 62
     5
 66
     1
 10
0.0
 20
0.0
 30
0.0
  0
VERTEX
  5
A1C
  8
回02-寸法
  6
BYBLOCK
 62
     5
 10
1650.024296059916
 20
464.4140365580813
 30
0.0
  0
VERTEX
  5
A1E
  8
回02-寸法
  6
BYBLOCK
 62
     5
 10
1653.036570251148
 20
467.184487327514
 30
0.0
  0
SEQEND
  5
A1D
  8
0
  6
CONTINUOUS
 62
     7
  0
SOLID
  5
6A3
  8
回02-寸法
  6
CONTINUOUS
 62
     5
 10
1650.249944448017
 20
464.1686920736138
 30
0.0
 11
1648.552229153111
 21
463.0601462294767
 31
0.0
 12
1649.798647671816
 22
464.6593810425488
 32
0.0
 13
1649.798647671816
 23
464.6593810425488
 33
0.0
  0
POLYLINE
  5
6A4
  8
回02-寸法
  6
BYBLOCK
 62
     5
 66
     1
 10
0.0
 20
0.0
 30
0.0
  0
VERTEX
  5
A1F
  8
回02-寸法
  6
BYBLOCK
 62
     5
 10
1653.036570251148
 20
467.184487327514
 30
0.0
  0
VERTEX
  5
A21
  8
回02-寸法
  6
BYBLOCK
 62
     5
 10
1662.876570251148
 20
467.184487327514
 30
0.0
  0
SEQEND
  5
A20
  8
0
  6
CONTINUOUS
 62
     7
  0
ENDBLK
  5
6A9
  8
0
  6
CONTINUOUS
 62
     7
  0
BLOCK
  8
0
  2
*X8484
 70
     1
 10
0.0
 20
0.0
 30
0.0
  3
*X8484
  1

  0
LINE
  5
6C4
  8
回03-記事
  6
CONTINUOUS
 62
     7
 10
1492.702229153112
 20
479.7398542158751
 30
0.0
 11
1494.783385980575
 21
481.8210110433388
 31
0.0
  0
LINE
  5
6C5
  8
回03-記事
  6
CONTINUOUS
 62
     7
 10
1492.702229153112
 20
477.4947901856078
 30
0.0
 11
1497.028450010842
 21
481.8210110433388
 31
0.0
  0
LINE
  5
6C6
  8
回03-記事
  6
CONTINUOUS
 62
     7
 10
1493.273514041109
 20
475.8210110433386
 30
0.0
 11
1499.27351404111
 21
481.8210110433388
 31
0.0
  0
LINE
  5
6C7
  8
回03-記事
  6
CONTINUOUS
 62
     7
 10
1495.518578071377
 20
475.8210110433386
 30
0.0
 11
1500.902229153112
 21
481.2046621250736
 31
0.0
  0
LINE
  5
6C8
  8
回03-記事
  6
CONTINUOUS
 62
     7
 10
1497.763642101644
 20
475.8210110433386
 30
0.0
 11
1500.902229153111
 21
478.9595980948061
 31
0.0
  0
LINE
  5
6C9
  8
回03-記事
  6
CONTINUOUS
 62
     7
 10
1500.008706131911
 20
475.8210110433386
 30
0.0
 11
1500.902229153111
 21
476.7145340645389
 31
0.0
  0
ENDBLK
  5
6CB
  8
0
  6
CONTINUOUS
 62
     7
  0
BLOCK
  8
0
  2
*X8585
 70
     1
 10
0.0
 20
0.0
 30
0.0
  3
*X8585
  1

  0
TEXT
  5
6E2
  8
回02-寸法
  6
CONTINUOUS
 62
     5
 10
-215.7071222674967
 20
-2399.482064758381
 30
0.0
 40
4.0
  1
211.7 
  0
TEXT
  5
6E3
  8
回02-寸法
  6
CONTINUOUS
 62
     5
 10
-202.5071222674966
 20
-2399.482064758381
 30
0.0
 40
3.0
  1
(ACTIVE AREA)
  0
ENDBLK
  5
6E5
  8
0
  6
CONTINUOUS
 62
     7
  0
BLOCK
  8
0
  2
*X8686
 70
     1
 10
0.0
 20
0.0
 30
0.0
  3
*X8686
  1

  0
TEXT
  5
6E8
  8
回02-寸法
  6
CONTINUOUS
 62
     5
 10
-217.0071222674966
 20
-2392.035436501691
 30
0.0
 40
4.0
  1
215.7 
  0
TEXT
  5
6E9
  8
回02-寸法
  6
CONTINUOUS
 62
     5
 10
-203.0071222674967
 20
-2392.035436501691
 30
0.0
 40
3.0
  1
(VIEWING AREA)
  0
ENDBLK
  5
6EB
  8
0
  6
CONTINUOUS
 62
     7
  0
BLOCK
  8
0
  2
*X8787
 70
     1
 10
0.0
 20
0.0
 30
0.0
  3
*X8787
  1

  0
TEXT
  5
6EE
  8
回02-寸法
  6
CONTINUOUS
 62
     5
 10
-207.1327128186778
 20
-2379.00423818971
 30
0.0
 40
4.0
  1
227.6
  0
TEXT
  5
6EF
  8
回02-寸法
  6
CONTINUOUS
 62
     5
 10
-194.7327128186778
 20
-2379.00423818971
 30
0.0
 40
2.799999999999998
  1
±0.3
  0
ENDBLK
  5
6F1
  8
0
  6
CONTINUOUS
 62
     7
  0
BLOCK
  8
0
  2
*X8888
 70
     1
 10
0.0
 20
0.0
 30
0.0
  3
*X8888
  1

  0
TEXT
  5
6F4
  8
回02-寸法
  6
CONTINUOUS
 62
     5
 10
-59.25932130711681
 20
-2523.034747713645
 30
0.0
 40
4.0
  1
158.9 
 50
90.0
  0
TEXT
  5
6F5
  8
回02-寸法
  6
CONTINUOUS
 62
     5
 10
-59.25932130711681
 20
-2509.020306239537
 30
0.0
 40
3.0
  1
(ACTIVE AREA)
 50
90.0
  0
ENDBLK
  5
6F7
  8
0
  6
CONTINUOUS
 62
     7
  0
BLOCK
  8
0
  2
*X8989
 70
     1
 10
0.0
 20
0.0
 30
0.0
  3
*X8989
  1

  0
TEXT
  5
6FA
  8
回02-寸法
  6
CONTINUOUS
 62
     5
 10
-50.90848854778688
 20
-2523.934747713644
 30
0.0
 40
4.0
  1
162.9 
 50
90.0
  0
TEXT
  5
6FB
  8
回02-寸法
  6
CONTINUOUS
 62
     5
 10
-50.90848854778688
 20
-2509.920306239536
 30
0.0
 40
3.0
  1
(VIEWING AREA)
 50
90.0
  0
ENDBLK
  5
6FD
  8
0
  6
CONTINUOUS
 62
     7
  0
BLOCK
  8
0
  2
*X9090
 70
     1
 10
0.0
 20
0.0
 30
0.0
  3
*X9090
  1

  0
TEXT
  5
700
  8
回02-寸法
  6
CONTINUOUS
 62
     5
 10
-36.64500261666353
 20
-2511.903117527764
 30
0.0
 40
4.0
  1
175.4
 50
90.0
  0
TEXT
  5
701
  8
回02-寸法
  6
CONTINUOUS
 62
     5
 10
-36.64500261666353
 20
-2499.903117527765
 30
0.0
 40
2.799999999999998
  1
±0.3
 50
90.0
  0
ENDBLK
  5
703
  8
0
  6
CONTINUOUS
 62
     7
  0
BLOCK
  8
0
  2
*X9191
 70
     1
 10
0.0
 20
0.0
 30
0.0
  3
*X9191
  1

  0
TEXT
  5
706
  8
回02-寸法
  6
CONTINUOUS
 62
     5
 10
-355.852734574062
 20
-2472.036871858922
 30
0.0
 40
4.0
  1
80
  0
TEXT
  5
707
  8
回02-寸法
  6
CONTINUOUS
 62
     5
 10
-350.2527345740619
 20
-2472.036871858922
 30
0.0
 40
2.799999999999998
  1
±1
  0
ENDBLK
  5
709
  8
0
  6
CONTINUOUS
 62
     7
  0
BLOCK
  8
0
  2
*X9292
 70
     1
 10
0.0
 20
0.0
 30
0.0
  3
*X9292
  1

  0
TEXT
  5
70C
  8
回02-寸法
 62
     5
 10
-402.2261950784032
 20
-2493.250352641215
 30
0.0
 40
4.0
  1
6.25
 50
90.0
  0
TEXT
  5
70D
  8
回02-寸法
 62
     5
 10
-402.2261950784032
 20
-2483.650352641215
 30
0.0
 40
2.799999999999998
  1
±0.2
 50
90.0
  0
ENDBLK
  5
70F
  8
0
  6
CONTINUOUS
 62
     7
  0
BLOCK
  8
0
  2
*X9393
 70
     1
 10
0.0
 20
0.0
 30
0.0
  3
*X9393
  1

  0
TEXT
  5
712
  8
回02-寸法
  6
CONTINUOUS
 62
     5
 10
-399.2888385956721
 20
-2639.853186097369
 30
0.0
 40
4.0
  1
0.3
 50
90.0
  0
TEXT
  5
713
  8
回02-寸法
  6
CONTINUOUS
 62
     5
 10
-399.888838595672
 20
-2633.053186097371
 30
0.0
 40
2.799999999999998
  1
±0.05
 50
90.0
  0
ENDBLK
  5
715
  8
0
  6
CONTINUOUS
 62
     7
  0
BLOCK
  8
0
  2
*X9494
 70
     1
 10
0.0
 20
0.0
 30
0.0
  3
*X9494
  1

  0
TEXT
  5
718
  8
回02-寸法
  6
CONTINUOUS
 62
     5
 10
-75.82338048447264
 20
-2641.78143339579
 30
0.0
 40
4.0
  1
2.1
 50
90.0
  0
TEXT
  5
719
  8
回02-寸法
  6
CONTINUOUS
 62
     5
 10
-76.32338048447262
 20
-2635.78143339579
 30
0.0
 40
3.0
  1
±0.2
 50
90.0
  0
ENDBLK
  5
71B
  8
0
  6
CONTINUOUS
 62
     7
  0
BLOCK
  8
0
  2
*X9595
 70
     1
 10
0.0
 20
0.0
 30
0.0
  3
*X9595
  1

  0
TEXT
  5
71E
  8
回02-寸法
  6
CONTINUOUS
 62
     5
 10
-431.9513713071046
 20
-2439.77130495558
 30
0.0
 40
4.0
  1
6.25
 50
90.0
  0
TEXT
  5
71F
  8
回02-寸法
  6
CONTINUOUS
 62
     5
 10
-431.9513713071046
 20
-2430.17130495558
 30
0.0
 40
2.666799999999998
  1
±0.2
 50
90.0
  0
ENDBLK
  5
721
  8
0
  6
CONTINUOUS
 62
     7
  0
BLOCK
  8
0
  2
*X9696
 70
     1
 10
0.0
 20
0.0
 30
0.0
  3
*X9696
  1

  0
TEXT
  5
724
  8
回02-寸法
  6
CONTINUOUS
 62
     5
 10
-414.1911840888933
 20
-2459.021690372815
 30
0.0
 40
4.0
  1
1.25
 50
90.0
  0
TEXT
  5
725
  8
回02-寸法
  6
CONTINUOUS
 62
     5
 10
-414.1911840888933
 20
-2450.221690372814
 30
0.0
 40
3.333319999999999
  1
±0.2
 50
90.0
  0
ENDBLK
  5
727
  8
0
  6
CONTINUOUS
 62
     7
  0
BLOCK
  8
0
  2
*X9797
 70
     1
 10
0.0
 20
0.0
 30
0.0
  3
*X9797
  1

  0
TEXT
  5
72A
  8
回02-寸法
  6
CONTINUOUS
 62
     5
 10
-422.6582445826792
 20
-2459.94222514943
 30
0.0
 40
4.0
  1
3.75
 50
90.0
  0
TEXT
  5
72B
  8
回02-寸法
  6
CONTINUOUS
 62
     5
 10
-422.6582445826792
 20
-2450.342225149432
 30
0.0
 40
2.666679999999999
  1
±0.1
 50
90.0
  0
ENDBLK
  5
72D
  8
0
  6
CONTINUOUS
 62
     7
  0
BLOCK
  8
0
  2
*X9898
 70
     1
 10
0.0
 20
0.0
 30
0.0
  3
*X9898
  1

  0
TEXT
  5
730
  8
回02-寸法
  6
CONTINUOUS
 62
     5
 10
-404.8208289848461
 20
-2459.994860109431
 30
0.0
 40
4.0
  1
4-0.7
 50
90.0
  0
TEXT
  5
731
  8
回02-寸法
  6
CONTINUOUS
 62
     5
 10
-404.8208289848461
 20
-2447.19486010943
 30
0.0
 40
3.0
  1
±0.1
 50
90.0
  0
ENDBLK
  5
733
  8
0
  6
CONTINUOUS
 62
     7
  0
BLOCK
  8
0
  2
*X9999
 70
     1
 10
0.0
 20
0.0
 30
0.0
  3
*X9999
  1

  0
TEXT
  5
736
  8
回02-寸法
  6
CONTINUOUS
 62
     5
 10
1403.264112986943
 20
525.5184036478095
 30
0.0
 40
4.0
  1
4-0.7
 50
90.0
  0
TEXT
  5
737
  8
回02-寸法
  6
CONTINUOUS
 62
     5
 10
1403.264112986943
 20
538.3184036478096
 30
0.0
 40
3.0
  1
±0.1
 50
90.0
  0
ENDBLK
  5
739
  8
0
  6
CONTINUOUS
 62
     7
  0
BLOCK
  8
0
  2
*X100100
 70
     1
 10
0.0
 20
0.0
 30
0.0
  3
*X100100
  1

  0
TEXT
  5
73C
  8
回02-寸法
  6
CONTINUOUS
 62
     5
 10
1385.426697389109
 20
525.5710386078097
 30
0.0
 40
4.0
  1
3.75
 50
90.0
  0
TEXT
  5
73D
  8
回02-寸法
  6
CONTINUOUS
 62
     5
 10
1385.426697389109
 20
535.1710386078095
 30
0.0
 40
2.666679999999999
  1
±0.1
 50
90.0
  0
ENDBLK
  5
73F
  8
0
  6
CONTINUOUS
 62
     7
  0
BLOCK
  8
0
  2
*X101101
 70
     1
 10
0.0
 20
0.0
 30
0.0
  3
*X101101
  1

  0
TEXT
  5
742
  8
回02-寸法
  6
CONTINUOUS
 62
     5
 10
1393.894151583683
 20
526.4915733844256
 30
0.0
 40
4.0
  1
1.25
 50
90.0
  0
TEXT
  5
743
  8
回02-寸法
  6
CONTINUOUS
 62
     5
 10
1393.894151583683
 20
535.2915733844256
 30
0.0
 40
3.333319999999999
  1
±0.2
 50
90.0
  0
ENDBLK
  5
745
  8
0
  6
CONTINUOUS
 62
     7
  0
BLOCK
  8
0
  2
*X102102
 70
     1
 10
0.0
 20
0.0
 30
0.0
  3
*X102102
  1

  0
TEXT
  5
748
  8
回02-寸法
  6
CONTINUOUS
 62
     5
 10
1376.133964365472
 20
545.7419588016612
 30
0.0
 40
4.0
  1
6.25
 50
90.0
  0
TEXT
  5
749
  8
回02-寸法
  6
CONTINUOUS
 62
     5
 10
1376.133964365472
 20
555.3419588016613
 30
0.0
 40
2.666799999999998
  1
±0.2
 50
90.0
  0
ENDBLK
  5
74B
  8
0
  6
CONTINUOUS
 62
     7
  0
BLOCK
  8
0
  2
*X103103
 70
     1
 10
0.0
 20
0.0
 30
0.0
  3
*X103103
  1

  0
TEXT
  5
74E
  8
回02-寸法
  6
CONTINUOUS
 62
     5
 10
1732.261955188104
 20
343.7318303614507
 30
0.0
 40
4.0
  1
2.1
 50
90.0
  0
TEXT
  5
74F
  8
回02-寸法
  6
CONTINUOUS
 62
     5
 10
1731.761955188104
 20
349.7318303614506
 30
0.0
 40
3.0
  1
±0.2
 50
90.0
  0
ENDBLK
  5
751
  8
0
  6
CONTINUOUS
 62
     7
  0
BLOCK
  8
0
  2
*X104104
 70
     1
 10
0.0
 20
0.0
 30
0.0
  3
*X104104
  1

  0
TEXT
  5
754
  8
回02-寸法
  6
CONTINUOUS
 62
     5
 10
1408.796103376117
 20
345.6600776598705
 30
0.0
 40
4.0
  1
0.3
 50
90.0
  0
TEXT
  5
755
  8
回02-寸法
  6
CONTINUOUS
 62
     5
 10
1408.196103376117
 20
352.4600776598703
 30
0.0
 40
2.799999999999998
  1
±0.05
 50
90.0
  0
ENDBLK
  5
757
  8
0
  6
CONTINUOUS
 62
     7
  0
BLOCK
  8
0
  2
*X105105
 70
     1
 10
0.0
 20
0.0
 30
0.0
  3
*X105105
  1

  0
TEXT
  5
75A
  8
回02-寸法
  6
CONTINUOUS
 62
     5
 10
1405.859140594173
 20
492.2629111160256
 30
0.0
 40
4.0
  1
6.25
 50
90.0
  0
TEXT
  5
75B
  8
回02-寸法
  6
CONTINUOUS
 62
     5
 10
1405.859140594173
 20
501.8629111160255
 30
0.0
 40
2.799999999999998
  1
±0.2
 50
90.0
  0
ENDBLK
  5
75D
  8
0
  6
CONTINUOUS
 62
     7
  0
BLOCK
  8
0
  2
*X106106
 70
     1
 10
0.0
 20
0.0
 30
0.0
  3
*X106106
  1

  0
TEXT
  5
760
  8
回02-寸法
  6
CONTINUOUS
 62
     5
 10
1452.232207397727
 20
513.4763918983185
 30
0.0
 40
4.0
  1
80
  0
TEXT
  5
761
  8
回02-寸法
  6
CONTINUOUS
 62
     5
 10
1457.832207397727
 20
513.4763918983185
 30
0.0
 40
2.799999999999998
  1
±1
  0
ENDBLK
  5
763
  8
0
  6
CONTINUOUS
 62
     7
  0
BLOCK
  8
0
  2
*X107107
 70
     1
 10
0.0
 20
0.0
 30
0.0
  3
*X107107
  1

  0
TEXT
  5
766
  8
回02-寸法
  6
CONTINUOUS
 62
     5
 10
1771.439939355126
 20
473.6101462294758
 30
0.0
 40
4.0
  1
175.4
 50
90.0
  0
TEXT
  5
767
  8
回02-寸法
  6
CONTINUOUS
 62
     5
 10
1771.439939355126
 20
485.6101462294758
 30
0.0
 40
2.799999999999998
  1
±0.3
 50
90.0
  0
ENDBLK
  5
769
  8
0
  6
CONTINUOUS
 62
     7
  0
BLOCK
  8
0
  2
*X108108
 70
     1
 10
0.0
 20
0.0
 30
0.0
  3
*X108108
  1

  0
TEXT
  5
76C
  8
回02-寸法
  6
CONTINUOUS
 62
     5
 10
1757.176847124789
 20
461.578516043596
 30
0.0
 40
4.0
  1
162.9 
 50
90.0
  0
TEXT
  5
76D
  8
回02-寸法
  6
CONTINUOUS
 62
     5
 10
1757.176847124789
 20
475.592957517704
 30
0.0
 40
3.0
  1
(VIEWING AREA)
 50
90.0
  0
ENDBLK
  5
76F
  8
0
  6
CONTINUOUS
 62
     7
  0
BLOCK
  8
0
  2
*X109109
 70
     1
 10
0.0
 20
0.0
 30
0.0
  3
*X109109
  1

  0
TEXT
  5
772
  8
回02-寸法
  6
CONTINUOUS
 62
     5
 10
1748.825620664673
 20
462.4785160435957
 30
0.0
 40
4.0
  1
158.9 
 50
90.0
  0
TEXT
  5
773
  8
回02-寸法
  6
CONTINUOUS
 62
     5
 10
1748.825620664673
 20
476.4929575177037
 30
0.0
 40
3.0
  1
(ACTIVE AREA)
 50
90.0
  0
ENDBLK
  5
775
  8
0
  6
CONTINUOUS
 62
     7
  0
BLOCK
  8
0
  2
*X110110
 70
     1
 10
0.0
 20
0.0
 30
0.0
  3
*X110110
  1

  0
TEXT
  5
778
  8
回02-寸法
  6
CONTINUOUS
 62
     5
 10
1600.952229153111
 20
606.5086318667425
 30
0.0
 40
4.0
  1
227.6
  0
TEXT
  5
779
  8
回02-寸法
  6
CONTINUOUS
 62
     5
 10
1613.352229153111
 20
606.5086318667425
 30
0.0
 40
2.799999999999998
  1
±0.3
  0
ENDBLK
  5
77B
  8
0
  6
CONTINUOUS
 62
     7
  0
BLOCK
  8
0
  2
*X111111
 70
     1
 10
0.0
 20
0.0
 30
0.0
  3
*X111111
  1

  0
TEXT
  5
77E
  8
回02-寸法
  6
CONTINUOUS
 62
     5
 10
1591.077819704292
 20
593.4774335547618
 30
0.0
 40
4.0
  1
215.7 
  0
TEXT
  5
77F
  8
回02-寸法
  6
CONTINUOUS
 62
     5
 10
1605.077819704292
 20
593.4774335547618
 30
0.0
 40
3.0
  1
(VIEWING AREA)
  0
ENDBLK
  5
781
  8
0
  6
CONTINUOUS
 62
     7
  0
BLOCK
  8
0
  2
*X112112
 70
     1
 10
0.0
 20
0.0
 30
0.0
  3
*X112112
  1

  0
TEXT
  5
784
  8
回02-寸法
  6
CONTINUOUS
 62
     5
 10
1592.377819704292
 20
586.0308052980717
 30
0.0
 40
4.0
  1
211.7 
  0
TEXT
  5
785
  8
回02-寸法
  6
CONTINUOUS
 62
     5
 10
1605.577819704292
 20
586.0308052980717
 30
0.0
 40
3.0
  1
(ACTIVE AREA)
  0
ENDBLK
  5
787
  8
0
  6
CONTINUOUS
 62
     7
  0
ENDSEC
  0
SECTION
  2
ENTITIES
  0
TEXT
  5
61
  8
回03-記事
  6
CONTINUOUS
 62
     5
 10
1509.325317396038
 20
285.3119029306613
 30
0.0
 40
6.0
  1
without affecting product specification.
  0
TEXT
  5
63
  8
回03-記事
  6
CONTINUOUS
 62
     5
 10
1509.325317396038
 20
295.8365350734107
 30
0.0
 40
6.0
  1
Edges and corners of ITO glass may be chamfered 
  0
TEXT
  5
64
  8
回03-記事
  6
CONTINUOUS
 62
     5
 10
1509.325317396038
 20
306.361167216161
 30
0.0
 40
6.0
  1
Unit: mm
  0
TEXT
  5
65
  8
回03-記事
  6
CONTINUOUS
 62
     5
 10
1509.325317396038
 20
316.8857993589108
 30
0.0
 40
6.0
  1
EXCEPT WHERE INDICATED
  0
TEXT
  5
66
  8
回03-記事
  6
CONTINUOUS
 62
     5
 10
1509.325317396038
 20
327.4104315016602
 30
0.0
 40
6.0
  1
TOLERANCE=±0.5mm
  0
TEXT
  5
67
  8
回02-寸法
  6
CONTINUOUS
 62
     5
 10
1770.746014645754
 20
571.4809228888062
 30
0.0
 40
4.0
  1
(Insulation Area)
 50
90.0
  0
TEXT
  5
6A
  8
回02-寸法
  6
CONTINUOUS
 62
     5
 10
1724.402229153111
 20
607.0086318667428
 30
0.0
 40
4.0
  1
(Insulation Area)
  0
DIMENSION
  5
6B
  8
回02-寸法
  6
CONTINUOUS
 62
     7
  2
*D3939
 10
1403.764112986943
 20
549.8164036478101
 30
0.0
 11
1403.764112986943
 21
535.2934036478095
 31
0.0
 70
   160
  1
4-0.7{\H0.75x;±0.1}
  3
STANDARD
 13
1414.147308504366
 23
547.9684036478102
 33
0.0
 14
1414.147308504366
 24
549.8164036478101
 34
0.0
 50
90.0
1001
ACAD
1000
DSTYLE
1002
{
1070
    41
1040
1.5
1070
    47
1040
0.3
1070
    48
1040
0.3
1070
   140
1040
4.0
1070
   141
1040
1.5
1070
   146
1040
0.7
1070
   271
1070
     1
1070
   272
1070
     1
1070
   283
1070
     0
1070
   288
1070
     0
1070
   341
1005
0
1070
   371
1070
    13
1070
   372
1070
    13
1002
}
  0
TEXT
  5
7D
  8
回02-寸法
 62
     5
 10
1393.738745043653
 20
568.2706931787456
 30
0.0
 40
3.959999999999998
  1
2-R0.5
1001
ACAD
1000
MTEXTBEGIN
1070
    73
1070
     1
1070
    44
1040
1.0
1070
    74
1070
     0
1000
MTEXTEND
  0
INSERT
  5
7E
  8
回02-寸法
 62
     1
 66
     1
  2
*X7777
 10
0.0
 20
0.0
 30
0.0
  0
SEQEND
  5
663
  8
0
  6
CONTINUOUS
 62
     7
  0
TEXT
  5
7F
  8
回03-記事
  6
CONTINUOUS
 62
     5
 10
1400.83652563201
 20
578.2855618034491
 30
0.0
 40
6.599999999999998
  1
SECTION A
  0
LINE
  5
80
  8
回03-記事
  6
CONTINUOUS
 62
     7
 10
1410.31981523739
 20
548.8924036478102
 30
0.0
 11
1432.114918597373
 21
548.8924036478102
 31
0.0
  0
LINE
  5
81
  8
回03-記事
  6
CONTINUOUS
 62
     7
 10
1410.319930105816
 20
552.1924036478099
 30
0.0
 11
1432.114918597373
 21
552.1924036478099
 31
0.0
  0
LINE
  5
82
  8
回03-記事
  6
CONTINUOUS
 62
     7
 10
1410.31981523739
 20
558.7924036478097
 30
0.0
 11
1432.114918597373
 21
558.7924036478097
 31
0.0
  0
DIMENSION
  5
83
  8
回02-寸法
  6
CONTINUOUS
 62
     5
  2
*D4040
 10
1385.926697389109
 20
558.7924036478097
 30
0.0
 11
1385.926697389109
 21
533.4043856078095
 31
0.0
 70
   160
  1
3.75{\H0.66667x;±0.1}
  3
STANDARD
 13
1410.319930105816
 23
548.8924036478102
 33
0.0
 14
1410.31981523739
 24
558.7924036478097
 34
0.0
 50
90.0
1001
ACAD
1000
DSTYLE
1002
{
1070
    41
1040
1.5
1070
    47
1040
0.3
1070
    48
1040
0.3
1070
   140
1040
4.0
1070
   141
1040
1.5
1070
   146
1040
0.7
1070
   271
1070
     1
1070
   272
1070
     1
1070
   283
1070
     0
1070
   288
1070
     0
1070
   341
1005
0
1070
   371
1070
    13
1070
   372
1070
    13
1002
}
  0
DIMENSION
  5
94
  8
回02-寸法
  6
CONTINUOUS
 62
     5
  2
*D4141
 10
1394.394151583683
 20
548.8924036478102
 30
0.0
 11
1394.394151583683
 21
534.9419269222185
 31
0.0
 70
   160
  1
1.25{\H0.83333x;±0.2}
  3
STANDARD
 13
1410.319930105816
 23
552.1924036478099
 33
0.0
 14
1410.319930105816
 24
548.8924036478102
 34
0.0
 50
90.0
1001
ACAD
1000
DSTYLE
1002
{
1070
    41
1040
1.5
1070
    47
1040
0.3
1070
    48
1040
0.3
1070
   140
1040
4.0
1070
   141
1040
1.5
1070
   146
1040
0.7
1070
   271
1070
     1
1070
   272
1070
     1
1070
   283
1070
     0
1070
   288
1070
     0
1070
   341
1005
0
1070
   371
1070
    13
1070
   372
1070
    13
1002
}
  0
POLYLINE
  5
A5
  8
回03-記事
  6
CONTINUOUS
 62
     8
 66
     1
 10
0.0
 20
0.0
 30
0.0
 40
1.847999999999999
 41
1.847999999999999
  0
VERTEX
  5
9DA
  8
回03-記事
  6
CONTINUOUS
 62
     8
 10
1414.147193635939
 20
555.4924036478101
 30
0.0
  0
VERTEX
  5
9DC
  8
回03-記事
  6
CONTINUOUS
 62
     8
 10
1427.347308504366
 20
555.4924036478101
 30
0.0
  0
SEQEND
  5
9DB
  8
0
  6
CONTINUOUS
 62
     7
  0
POLYLINE
  5
A6
  8
回03-記事
  6
CONTINUOUS
 62
     8
 66
     1
 10
0.0
 20
0.0
 30
0.0
 40
1.847999999999999
 41
1.847999999999999
  0
VERTEX
  5
9DD
  8
回03-記事
  6
CONTINUOUS
 62
     8
 10
1414.147193635939
 20
558.7924036478097
 30
0.0
  0
VERTEX
  5
9DF
  8
回03-記事
  6
CONTINUOUS
 62
     8
 10
1427.347308504366
 20
558.7924036478097
 30
0.0
  0
SEQEND
  5
9DE
  8
0
  6
CONTINUOUS
 62
     7
  0
POLYLINE
  5
A7
  8
回03-記事
  6
CONTINUOUS
 62
     8
 66
     1
 10
0.0
 20
0.0
 30
0.0
 40
1.847999999999999
 41
1.847999999999999
  0
VERTEX
  5
9E0
  8
回03-記事
  6
CONTINUOUS
 62
     8
 10
1414.147193635939
 20
548.8924036478102
 30
0.0
  0
VERTEX
  5
9E2
  8
回03-記事
  6
CONTINUOUS
 62
     8
 10
1427.347308504366
 20
548.8924036478102
 30
0.0
  0
SEQEND
  5
9E1
  8
0
  6
CONTINUOUS
 62
     7
  0
POLYLINE
  5
A8
  8
回03-記事
  6
CONTINUOUS
 62
     8
 66
     1
 10
0.0
 20
0.0
 30
0.0
 40
1.847999999999999
 41
1.847999999999999
  0
VERTEX
  5
9E3
  8
回03-記事
  6
CONTINUOUS
 62
     8
 10
1414.147193635939
 20
552.1924036478099
 30
0.0
  0
VERTEX
  5
9E5
  8
回03-記事
  6
CONTINUOUS
 62
     8
 10
1427.347308504366
 20
552.1924036478099
 30
0.0
  0
SEQEND
  5
9E4
  8
0
  6
CONTINUOUS
 62
     7
  0
LINE
  5
A9
  8
回03-記事
  6
CONTINUOUS
 62
     8
 10
1415.467308504365
 20
545.5924036478164
 30
0.0
 11
1446.81818354001
 21
545.5924036478164
 31
0.0
  0
LINE
  5
AA
  8
回03-記事
  6
CONTINUOUS
 62
     8
 10
1414.147308504366
 20
560.7724036478166
 30
0.0
 11
1414.147308504366
 21
546.9124036478174
 31
0.0
  0
ARC
  5
AB
  8
回03-記事
  6
CONTINUOUS
 62
     8
 10
1415.467308504365
 20
546.9124036478174
 30
0.0
 40
1.32
 50
180.0
 51
270.0
  0
ARC
  5
AC
  8
回03-記事
  6
CONTINUOUS
 62
     8
 10
1415.467308504365
 20
560.7724036478166
 30
0.0
 40
1.32
 50
90.0
 51
180.0
  0
LINE
  5
AD
  8
回03-記事
  6
CONTINUOUS
 62
     8
 10
1415.467308504365
 20
562.0924036478157
 30
0.0
 11
1446.81818354001
 21
562.0924036478157
 31
0.0
  0
DIMENSION
  5
AE
  8
回02-寸法
  6
CONTINUOUS
 62
     5
  2
*D4242
 10
1376.633964365472
 20
545.5924036478172
 30
0.0
 11
1374.133964365472
 21
553.8424036478166
 31
0.0
 70
    32
  1
6.25{\H0.6667x;±0.2}
  3
STANDARD
 13
1415.467308504365
 23
562.0924036478157
 33
0.0
 14
1415.467308504365
 24
545.5924036478172
 34
0.0
 50
90.0
1001
ACAD
1000
DSTYLE
1002
{
1070
    41
1040
1.5
1070
    47
1040
0.3
1070
    48
1040
0.3
1070
   140
1040
4.0
1070
   141
1040
1.5
1070
   146
1040
0.7
1070
   271
1070
     1
1070
   272
1070
     1
1070
   283
1070
     0
1070
   288
1070
     0
1070
   341
1005
0
1070
   371
1070
    13
1070
   372
1070
    13
1002
}
  0
TEXT
  5
BD
  8
回03-記事
  6
CONTINUOUS
 62
     5
 10
1376.047740584993
 20
379.2156092889322
 30
0.0
 40
4.0
  1
Trace Expose
1001
ACAD
1000
MTEXTBEGIN
1070
    73
1070
     1
1070
    44
1040
1.0
1070
    74
1070
     0
1000
MTEXTEND
  0
INSERT
  5
BE
  8
回03-記事
  6
CONTINUOUS
 62
     5
 66
     1
  2
*X7878
 10
0.0
 20
0.0
 30
0.0
  0
SEQEND
  5
676
  8
0
  6
CONTINUOUS
 62
     7
  0
TEXT
  5
C0
  8
回03-記事
  6
CONTINUOUS
 62
     5
 10
1425.326363606721
 20
492.547375081745
 30
0.0
 40
3.0
  1
A
1001
ACAD
1000
MTEXTBEGIN
1070
    73
1070
     1
1070
    44
1040
1.0
1070
    74
1070
     0
1000
MTEXTEND
  0
INSERT
  5
C1
  8
回03-記事
  6
CONTINUOUS
 62
     5
 66
     1
  2
*X7979
 10
0.0
 20
0.0
 30
0.0
  0
SEQEND
  5
67D
  8
0
  6
CONTINUOUS
 62
     7
  0
CIRCLE
  5
C2
  8
回03-記事
  6
CONTINUOUS
 62
     5
 10
1418.609653145627
 20
482.8173869390706
 30
0.0
 40
7.742816109002717
  0
TEXT
  5
C3
  8
回03-記事
  6
CONTINUOUS
 62
     5
 10
1439.169139293207
 20
450.5311294926368
 30
0.0
 40
4.0
  1
PROTECTION TAPE
1001
ACAD
1000
MTEXTBEGIN
1070
    73
1070
     1
1070
    44
1040
1.0
1070
    74
1070
     0
1000
MTEXTEND
  0
INSERT
  5
C4
  8
回03-記事
  6
CONTINUOUS
 62
     5
 66
     1
  2
*X8080
 10
0.0
 20
0.0
 30
0.0
  0
SEQEND
  5
684
  8
0
  6
CONTINUOUS
 62
     7
  0
TEXT
  5
C5
  8
回02-寸法
  6
CONTINUOUS
 62
     5
 10
1479.562108458137
 20
497.7594929410023
 30
0.0
 40
4.0
  1
2-R2
1001
ACAD
1000
MTEXTBEGIN
1070
    73
1070
     1
1070
    44
1040
1.0
1070
    74
1070
     0
1000
MTEXTEND
  0
INSERT
  5
C6
  8
回02-寸法
  6
CONTINUOUS
 62
     5
 66
     1
  2
*X8181
 10
0.0
 20
0.0
 30
0.0
  0
SEQEND
  5
68B
  8
0
  6
CONTINUOUS
 62
     7
  0
TEXT
  5
C8
  8
回02-寸法
  6
CONTINUOUS
 62
     5
 10
1471.771403277093
 20
492.7281927153416
 30
0.0
 40
4.0
  1
4-R1
1001
ACAD
1000
MTEXTBEGIN
1070
    73
1070
     1
1070
    44
1040
1.0
1070
    74
1070
     0
1000
MTEXTEND
  0
INSERT
  5
C9
  8
回02-寸法
  6
CONTINUOUS
 62
     5
 66
     1
  2
*X8282
 10
0.0
 20
0.0
 30
0.0
  0
SEQEND
  5
692
  8
0
  6
CONTINUOUS
 62
     7
  0
TEXT
  5
CB
  8
回03-記事
  6
CONTINUOUS
 62
     7
 10
1805.984842381366
 20
539.3978219556315
 30
0.0
 40
8.0
  1
Pin Assignment
  0
LINE
  5
CC
  8
回03-記事
  6
CONTINUOUS
 62
     7
 10
1859.588611561712
 20
577.6755792245332
 30
0.0
 11
1859.588611561712
 21
616.6755792245329
 31
0.0
  0
LINE
  5
CD
  8
回03-記事
  6
CONTINUOUS
 62
     7
 10
1881.038611561712
 20
556.2255792245331
 30
0.0
 11
1881.038611561712
 21
638.1255792245329
 31
0.0
  0
TEXT
  5
CE
  8
回03-記事
  6
CONTINUOUS
 62
     7
 10
1796.306900629506
 20
613.6136800057116
 30
0.0
 40
6.240000000000001
  1
3
  0
TEXT
  5
CF
  8
回03-記事
  6
CONTINUOUS
 62
     7
 10
1795.950330919451
 20
635.2650810895716
 30
0.0
 40
6.240000000000001
  1
4
  0
LINE
  5
D0
  8
回03-記事
  6
CONTINUOUS
 62
     7
 10
1849.916611561713
 20
579.7035792245329
 30
0.0
 11
1852.724611561713
 21
574.0875792245324
 31
0.0
  0
LINE
  5
D1
  8
回03-記事
  6
CONTINUOUS
 62
     7
 10
1852.724611561713
 20
574.0875792245324
 30
0.0
 11
1854.518611561712
 21
577.6755792245332
 31
0.0
  0
LINE
  5
D2
  8
回03-記事
  6
CONTINUOUS
 62
     7
 10
1844.300611561712
 20
579.7035792245329
 30
0.0
 11
1847.108611561712
 21
574.0875792245324
 31
0.0
  0
LINE
  5
D3
  8
回03-記事
  6
CONTINUOUS
 62
     7
 10
1841.492611561713
 20
574.0875792245324
 30
0.0
 11
1844.300611561712
 21
579.7035792245329
 31
0.0
  0
LINE
  5
D4
  8
回03-記事
  6
CONTINUOUS
 62
     7
 10
1847.108611561712
 20
574.0875792245324
 30
0.0
 11
1849.916611561713
 21
579.7035792245329
 31
0.0
  0
LINE
  5
D5
  8
回03-記事
  6
CONTINUOUS
 62
     7
 10
1833.068611561713
 20
579.7035792245329
 30
0.0
 11
1835.876611561712
 21
574.0875792245324
 31
0.0
  0
LINE
  5
D6
  8
回03-記事
  6
CONTINUOUS
 62
     7
 10
1832.600611561712
 20
574.3215792245328
 30
0.0
 11
1838.216611561713
 21
577.1295792245332
 31
0.0
  0
LINE
  5
D7
  8
回03-記事
  6
CONTINUOUS
 62
     7
 10
1832.600611561712
 20
574.3215792245328
 30
0.0
 11
1838.216611561713
 21
571.5135792245336
 31
0.0
  0
LINE
  5
D8
  8
回03-記事
  6
CONTINUOUS
 62
     7
 10
1832.600611561712
 20
568.7055792245327
 30
0.0
 11
1838.216611561713
 21
571.5135792245336
 31
0.0
  0
LINE
  5
D9
  8
回03-記事
  6
CONTINUOUS
 62
     7
 10
1832.600611561712
 20
563.0895792245328
 30
0.0
 11
1838.216611561713
 21
565.8975792245333
 31
0.0
  0
LINE
  5
DA
  8
回03-記事
  6
CONTINUOUS
 62
     7
 10
1832.600611561712
 20
568.7055792245327
 30
0.0
 11
1838.216611561713
 21
565.8975792245333
 31
0.0
  0
LINE
  5
DB
  8
回03-記事
  6
CONTINUOUS
 62
     7
 10
1832.600611561712
 20
579.9375792245327
 30
0.0
 11
1838.216611561713
 21
582.7455792245327
 31
0.0
  0
LINE
  5
DC
  8
回03-記事
  6
CONTINUOUS
 62
     7
 10
1832.600611561712
 20
585.5535792245327
 30
0.0
 11
1838.216611561713
 21
588.3615792245321
 31
0.0
  0
LINE
  5
DD
  8
回03-記事
  6
CONTINUOUS
 62
     7
 10
1832.600611561712
 20
585.5535792245327
 30
0.0
 11
1838.216611561713
 21
582.7455792245327
 31
0.0
  0
LINE
  5
DE
  8
回03-記事
  6
CONTINUOUS
 62
     7
 10
1832.600611561712
 20
579.9375792245327
 30
0.0
 11
1838.216611561713
 21
577.1295792245332
 31
0.0
  0
LINE
  5
DF
  8
回03-記事
  6
CONTINUOUS
 62
     7
 10
1827.452611561712
 20
579.7035792245329
 30
0.0
 11
1830.260611561712
 21
574.0875792245324
 31
0.0
  0
LINE
  5
E0
  8
回03-記事
  6
CONTINUOUS
 62
     7
 10
1824.644611561713
 20
574.0875792245324
 30
0.0
 11
1827.452611561712
 21
579.7035792245329
 31
0.0
  0
LINE
  5
E1
  8
回03-記事
  6
CONTINUOUS
 62
     7
 10
1820.042611561713
 20
576.1155792245326
 30
0.0
 11
1821.836611561712
 21
579.7035792245329
 31
0.0
  0
LINE
  5
E2
  8
回03-記事
  6
CONTINUOUS
 62
     7
 10
1821.836611561712
 20
579.7035792245329
 30
0.0
 11
1824.644611561713
 21
574.0875792245324
 31
0.0
  0
LINE
  5
E3
  8
回03-記事
  6
CONTINUOUS
 62
     7
 10
1830.260611561712
 20
574.0875792245324
 30
0.0
 11
1833.068611561713
 21
579.7035792245329
 31
0.0
  0
LINE
  5
E4
  8
回03-記事
  6
CONTINUOUS
 62
     7
 10
1835.408611561712
 20
589.7655792245322
 30
0.0
 11
1835.408611561712
 21
594.4455792245324
 31
0.0
  0
LINE
  5
E5
  8
回03-記事
  6
CONTINUOUS
 62
     7
 10
1835.876611561712
 20
574.0875792245324
 30
0.0
 11
1838.684611561713
 21
579.7035792245329
 31
0.0
  0
LINE
  5
E6
  8
回03-記事
  6
CONTINUOUS
 62
     7
 10
1835.408611561712
 20
589.7655792245322
 30
0.0
 11
1838.216611561713
 21
588.3615792245321
 31
0.0
  0
TEXT
  5
E7
  8
回03-記事
  6
CONTINUOUS
 62
     7
 10
1836.940871459841
 20
595.4740331710122
 30
0.0
 40
5.459999999999999
  1
YU
  0
LINE
  5
E8
  8
回03-記事
  6
CONTINUOUS
 62
     7
 10
1838.684611561713
 20
579.7035792245329
 30
0.0
 11
1841.492611561713
 21
574.0875792245324
 31
0.0
  0
LINE
  5
E9
  8
回03-記事
  6
CONTINUOUS
 62
     7
 10
1835.408611561712
 20
556.2255792245331
 30
0.0
 11
1835.408611561712
 21
561.6855792245328
 31
0.0
  0
LINE
  5
EA
  8
回03-記事
  6
CONTINUOUS
 62
     7
 10
1832.600611561712
 20
563.0895792245328
 30
0.0
 11
1835.408611561712
 21
561.6855792245328
 31
0.0
  0
TEXT
  5
EB
  8
回03-記事
  6
CONTINUOUS
 62
     7
 10
1821.065483396372
 20
558.4496570831914
 30
0.0
 40
5.459999999999999
  1
YD
  0
TEXT
  5
EC
  8
回03-記事
  6
CONTINUOUS
 62
     7
 10
1809.235678386655
 20
578.4027385547779
 30
0.0
 40
5.459999999999999
  1
XL
  0
TEXT
  5
ED
  8
回03-記事
  6
CONTINUOUS
 62
     7
 10
1796.548886873097
 20
573.023378944345
 30
0.0
 40
6.240000000000001
  1
1
  0
TEXT
  5
EE
  8
回03-記事
  6
CONTINUOUS
 62
     7
 10
1796.070395578374
 20
592.0726344432619
 30
0.0
 40
6.240000000000001
  1
2
  0
LINE
  5
EF
  8
回03-記事
  6
CONTINUOUS
 62
     7
 10
1802.648611561712
 20
594.4455792245324
 30
0.0
 11
1835.408611561712
 21
594.4455792245324
 31
0.0
  0
LINE
  5
F0
  8
回03-記事
  6
CONTINUOUS
 62
     7
 10
1802.648611561712
 20
576.1155792245326
 30
0.0
 11
1820.042611561713
 21
576.1155792245326
 31
0.0
  0
LINE
  5
F1
  8
回03-記事
  6
CONTINUOUS
 62
     7
 10
1835.408611561712
 20
556.2255792245331
 30
0.0
 11
1881.038611561712
 21
556.2255792245331
 31
0.0
  0
LINE
  5
F2
  8
回03-記事
  6
CONTINUOUS
 62
     7
 10
1802.648611561712
 20
638.1255792245329
 30
0.0
 11
1881.038611561712
 21
638.1255792245329
 31
0.0
  0
LINE
  5
F3
  8
回03-記事
  6
CONTINUOUS
 62
     7
 10
1802.648611561712
 20
616.6755792245329
 30
0.0
 11
1859.588611561712
 21
616.6755792245329
 31
0.0
  0
LINE
  5
F4
  8
回03-記事
  6
CONTINUOUS
 62
     7
 10
1854.518611561712
 20
577.6755792245332
 30
0.0
 11
1859.588611561712
 21
577.6755792245332
 31
0.0
  0
TEXT
  5
F5
  8
回03-記事
  6
CONTINUOUS
 62
     7
 10
1854.815229740015
 20
569.7123741472505
 30
0.0
 40
5.459999999999999
  1
XR
  0
LINE
  5
F6
  8
回04-図面枠
  6
CONTINUOUS
 62
     7
 10
1877.803278633643
 20
276.3626083287072
 30
0.0
 11
1877.803278633643
 21
289.562608328707
 31
0.0
  0
LINE
  5
F8
  8
回04-図面枠
  6
CENTER2
 62
     7
 10
1884.69025716593
 20
278.222454572242
 30
0.0
 11
1884.69025716593
 21
287.4625347603828
 31
0.0
  0
LINE
  5
FA
  8
回04-図面枠
  6
CONTINUOUS
 62
     7
 10
1890.982028123846
 20
280.8916460240016
 30
0.0
 11
1897.807490924144
 21
279.1542132173136
 31
0.0
  0
LINE
  5
FB
  8
回04-図面枠
  6
CONTINUOUS
 62
     7
 10
1890.982028123846
 20
284.7933433086227
 30
0.0
 11
1897.807490924144
 21
286.5307761153117
 31
0.0
  0
LINE
  5
FC
  8
回04-図面枠
  6
CONTINUOUS
 62
     7
 10
1897.807490924144
 20
286.5307761153117
 30
0.0
 11
1897.807490924144
 21
279.1542132173136
 31
0.0
  0
LINE
  5
FD
  8
回04-図面枠
  6
CONTINUOUS
 62
     7
 10
1890.982028123846
 20
284.7933433086227
 30
0.0
 11
1890.982028123846
 21
280.8916460240016
 31
0.0
  0
LINE
  5
FE
  8
回04-図面枠
  6
CENTER2
 62
     7
 10
1880.454371473826
 20
282.8424946663126
 30
0.0
 11
1898.412420310626
 21
282.8424946663126
 31
0.0
  0
CIRCLE
  5
FF
  8
回04-図面枠
  6
CONTINUOUS
 62
     7
 10
1884.69025716593
 20
282.8424946663126
 30
0.0
 40
1.950848642310722
  0
CIRCLE
  5
100
  8
回04-図面枠
  6
CONTINUOUS
 62
     7
 10
1884.69025716593
 20
282.8424946663126
 30
0.0
 40
3.688281448998441
  0
TEXT
  5
101
  8
回03-記事
  6
CONTINUOUS
 62
     7
 10
1832.933277168536
 20
333.0399833513957
 30
0.0
 40
4.451266068479998
  1
PROTECTION TAPE
  0
TEXT
  5
102
  8
回03-記事
  6
CONTINUOUS
 62
     7
 10
1825.983093375617
 20
333.0164668466905
 30
0.0
 40
4.629316711219201
  1
6
  0
LINE
  5
103
  8
回03-記事
  6
CONTINUOUS
 62
     7
 10
1823.617950375075
 20
331.6872579038018
 30
0.0
 11
1892.580237875005
 21
331.6872579038018
 31
0.0
  0
TEXT
  5
104
  8
回03-記事
  6
CONTINUOUS
 62
     7
 10
1832.368223463854
 20
348.2783287701086
 30
0.0
 40
4.629316711219201
  1
STIFFENER
  0
TEXT
  5
105
  8
回03-記事
  6
CONTINUOUS
 62
     7
 10
1832.368223463854
 20
340.5628009180773
 30
0.0
 40
4.629316711219201
  1
REINFORCEMENT FILM
  0
TEXT
  5
106
  8
回03-記事
  6
CONTINUOUS
 62
     7
 10
1850.586976357991
 20
379.447429686144
 30
0.0
 40
4.629316711219201
  1
ITEM
  0
LINE
  5
107
  8
回03-記事
  6
CONTINUOUS
 62
     7
 10
1892.580237875005
 20
331.6872579038018
 30
0.0
 11
1892.580237875005
 21
385.6959528680259
 31
0.0
  0
TEXT
  5
108
  8
回03-記事
  6
CONTINUOUS
 62
     7
 10
1825.983093375617
 20
356.1630504027839
 30
0.0
 40
4.629316711219201
  1
3
  0
TEXT
  5
109
  8
回03-記事
  6
CONTINUOUS
 62
     7
 10
1825.983093375617
 20
348.447522550754
 30
0.0
 40
4.629316711219201
  1
4
  0
TEXT
  5
10A
  8
回03-記事
  6
CONTINUOUS
 62
     7
 10
1825.983093375617
 20
363.8785782548203
 30
0.0
 40
4.629316711219201
  1
2
  0
TEXT
  5
10B
  8
回03-記事
  6
CONTINUOUS
 62
     7
 10
1825.983093375617
 20
340.7319946987227
 30
0.0
 40
4.629316711219201
  1
5
  0
LINE
  5
10C
  8
回03-記事
  6
CONTINUOUS
 62
     7
 10
1831.645654981733
 20
385.6959528680259
 30
0.0
 11
1831.645654981733
 21
331.6872579038018
 31
0.0
  0
LINE
  5
10D
  8
回03-記事
  6
CONTINUOUS
 62
     7
 10
1823.617950375075
 20
385.6959528680259
 30
0.0
 11
1823.617950375075
 21
331.6872579038018
 31
0.0
  0
TEXT
  5
10E
  8
回03-記事
  6
CONTINUOUS
 62
     7
 10
1825.983093375617
 20
371.5941061068497
 30
0.0
 40
4.629316711219201
  1
1
  0
LINE
  5
10F
  8
回03-記事
  6
CONTINUOUS
 62
     7
 10
1823.617950375075
 20
339.402785755834
 30
0.0
 11
1892.580237875005
 21
339.402785755834
 31
0.0
  0
LINE
  5
110
  8
回03-記事
  6
CONTINUOUS
 62
     7
 10
1823.617950375075
 20
385.6959528680259
 30
0.0
 11
1892.580237875005
 21
385.6959528680259
 31
0.0
  0
LINE
  5
111
  8
回03-記事
  6
CONTINUOUS
 62
     7
 10
1823.617950375075
 20
370.2648971639637
 30
0.0
 11
1892.580237875005
 21
370.2648971639586
 31
0.0
  0
LINE
  5
112
  8
回03-記事
  6
CONTINUOUS
 62
     7
 10
1823.617950375075
 20
377.980425015995
 30
0.0
 11
1892.580237875005
 21
377.980425015995
 31
0.0
  0
LINE
  5
113
  8
回03-記事
  6
CONTINUOUS
 62
     7
 10
1823.617950375075
 20
347.1183136078672
 30
0.0
 11
1892.580237875005
 21
347.1183136078672
 31
0.0
  0
LINE
  5
114
  8
回03-記事
  6
CONTINUOUS
 62
     7
 10
1823.617950375075
 20
354.8338414598984
 30
0.0
 11
1892.580237875005
 21
354.8338414598984
 31
0.0
  0
LINE
  5
115
  8
回03-記事
  6
CONTINUOUS
 62
     7
 10
1823.617950375075
 20
362.5493693119306
 30
0.0
 11
1892.580237875005
 21
362.5493693119306
 31
0.0
  0
TEXT
  5
116
  8
回03-記事
  6
CONTINUOUS
 62
     7
 10
1832.368223463854
 20
371.4947988244521
 30
0.0
 40
4.629316711219201
  1
ITO FILM
  0
TEXT
  5
117
  8
回03-記事
  6
CONTINUOUS
 62
     7
 10
1832.368223463854
 20
363.779270972419
 30
0.0
 40
4.629316711219201
  1
ITO GLASS
  0
TEXT
  5
118
  8
回03-記事
  6
CONTINUOUS
 62
     7
 10
1832.368223463854
 20
356.0637431203845
 30
0.0
 40
4.629316711219201
  1
TAIL
  0
TEXT
  5
119
  8
回04-図面枠
 62
     7
 10
1824.521586189623
 20
295.8422565206333
 30
0.0
 40
6.599999999999998
  1
Sep/08/2023
 72
     1
 11
1850.261586189623
 21
295.8422565206333
 31
0.0
  0
TEXT
  5
11A
  8
回04-図面枠
  6
CONTINUOUS
 62
     7
 10
1843.59654992853
 20
310.2823132492545
 30
0.0
 40
3.959999999999998
  1
DATE
  0
TEXT
  5
11B
  8
回04-図面枠
 62
     7
 10
1813.369805644677
 20
279.7123826738011
 30
0.0
 40
6.599999999999998
  1
DMC Co., Ltd.
 72
     1
 11
1839.604805644677
 21
279.7123826738011
 31
0.0
  0
TEXT
  5
11C
  8
回04-図面枠
 62
     7
 10
1728.821586189623
 20
299.4518928264133
 30
0.0
 40
6.599999999999998
  1
LST-104B080A
 72
     1
 11
1757.861586189623
 21
299.4518928264133
 31
0.0
  0
TEXT
  5
11D
  8
回04-図面枠
 62
     7
 10
1745.387586189623
 20
310.6129821822665
 30
0.0
 40
3.959999999999998
  1
PART　No.
 72
     1
 11
1757.861586189623
 21
310.6129821822665
 31
0.0
  0
LINE
  5
11E
  8
回04-図面枠
 62
     7
 10
1718.921586189623
 20
282.9626083287071
 30
0.0
 11
1796.801586189623
 21
282.9626083287071
 31
0.0
  0
TEXT
  5
11F
  8
回04-図面枠
 62
     7
 10
1726.973586189623
 20
284.4806488941367
 30
0.0
 40
3.959999999999998
  1
STANDARD TOUCHSCREEN
 72
     1
 11
1757.861586189623
 21
284.4806488941367
 31
0.0
  0
TEXT
  5
120
  8
回04-図面枠
 62
     7
 10
1735.883586189623
 20
277.8806488941368
 30
0.0
 40
3.959999999999998
  1
CIRCUIT　DRAWING
 72
     1
 11
1757.861586189623
 21
277.8806488941368
 31
0.0
  0
LINE
  5
121
  8
回04-図面枠
 62
     7
 10
1800.761586189623
 20
315.9626083287071
 30
0.0
 11
1800.761586189623
 21
276.3626083287072
 31
0.0
  0
TEXT
  5
122
  8
回04-図面枠
 62
     7
 10
1751.525586189623
 20
290.5441863189467
 30
0.0
 40
3.959999999999998
  1
TYPE
 72
     1
 11
1757.861586189623
 21
290.5441863189467
 31
0.0
  0
LINE
  5
123
  8
回04-図面枠
 62
     7
 10
1714.961586189623
 20
315.9626083287071
 30
0.0
 11
1714.961586189623
 21
276.3626083287072
 31
0.0
  0
LINE
  5
124
  8
回04-図面枠
 62
     7
 10
1714.961586189623
 20
296.1626083287074
 30
0.0
 11
1800.761586189623
 21
296.1626083287074
 31
0.0
  0
LINE
  5
125
  8
回04-図面枠
 62
     7
 10
1714.961586189623
 20
289.562608328707
 30
0.0
 11
1899.761586189623
 21
289.562608328707
 31
0.0
  0
LINE
  5
126
  8
回04-図面枠
 62
     7
 10
1714.961586189623
 20
315.9626083287071
 30
0.0
 11
1899.761586189623
 21
315.9626083287071
 31
0.0
  0
LINE
  5
127
  8
回04-図面枠
 62
     7
 10
1714.961586189623
 20
309.3626083287072
 30
0.0
 11
1899.761586189623
 21
309.3626083287072
 31
0.0
  0
LINE
  5
128
  8
回01-TP外形
  6
CONTINUOUS
 62
     7
 10
1416.802185642343
 20
365.2780675586032
 30
0.0
 11
1416.802185642343
 21
372.2780675586032
 31
0.0
  0
LINE
  5
12A
  8
回03-記事
  6
CONTINUOUS
 62
     7
 10
1479.535220785618
 20
372.8863770497114
 30
0.0
 11
1486.03972396716
 21
379.7642878731898
 31
0.0
  0
LINE
  5
12B
  8
回03-記事
  6
CONTINUOUS
 62
     7
 10
1488.82066755059
 20
368.4314521400751
 30
0.0
 11
1486.03972396716
 21
379.7642878731898
 31
0.0
  0
LINE
  5
12C
  8
回03-記事
  6
CONTINUOUS
 62
     7
 10
1419.895048314893
 20
366.6038354193493
 30
0.0
 11
1424.854612358637
 21
352.8447083608335
 31
0.0
  0
LINE
  5
12D
  8
回01-TP外形
  6
CONTINUOUS
 62
     7
 10
1487.822229153111
 20
369.2780675586032
 30
0.0
 11
1487.822229153111
 21
367.7780675586032
 31
0.0
  0
TEXT
  5
12E
  8
回04-図面枠
 62
     7
 10
1863.490971495275
 20
661.7350314547584
 30
0.0
 40
4.0
  1
H
  0
LINE
  5
12F
  8
回04-図面枠
 62
     7
 10
1829.761586189623
 20
666.3626083287073
 30
0.0
 11
1829.761586189623
 21
661.3626083287073
 31
0.0
  0
LINE
  5
130
  8
回04-図面枠
 62
     7
 10
1759.761586189623
 20
666.3626083287073
 30
0.0
 11
1759.761586189623
 21
661.3626083287073
 31
0.0
  0
TEXT
  5
131
  8
回04-図面枠
 62
     7
 10
1723.490971495276
 20
661.7350314547584
 30
0.0
 40
4.0
  1
F
  0
LINE
  5
132
  8
回04-図面枠
 62
     7
 10
1689.761586189623
 20
666.3626083287073
 30
0.0
 11
1689.761586189623
 21
661.3626083287073
 31
0.0
  0
TEXT
  5
133
  8
回04-図面枠
 62
     7
 10
1653.490971495275
 20
661.7350314547584
 30
0.0
 40
4.0
  1
E
  0
TEXT
  5
134
  8
回04-図面枠
 62
     7
 10
1793.490971495275
 20
661.7350314547584
 30
0.0
 40
4.0
  1
G
  0
LINE
  5
135
  8
回04-図面枠
 62
     7
 10
1619.761586189623
 20
666.3626083287073
 30
0.0
 11
1619.761586189623
 21
661.3626083287073
 31
0.0
  0
TEXT
  5
136
  8
回04-図面枠
 62
     7
 10
1583.490971495275
 20
661.7350314547584
 30
0.0
 40
4.0
  1
D
  0
LINE
  5
137
  8
回04-図面枠
 62
     7
 10
1549.761586189623
 20
666.3626083287073
 30
0.0
 11
1549.761586189623
 21
661.3626083287073
 31
0.0
  0
TEXT
  5
138
  8
回04-図面枠
 62
     7
 10
1513.490971495275
 20
661.7350314547584
 30
0.0
 40
4.0
  1
C
  0
LINE
  5
139
  8
回04-図面枠
 62
     7
 10
1479.761586189623
 20
666.3626083287073
 30
0.0
 11
1479.761586189623
 21
661.3626083287073
 31
0.0
  0
TEXT
  5
13A
  8
回04-図面枠
 62
     7
 10
1443.490971495275
 20
661.7350314547584
 30
0.0
 40
4.0
  1
B
  0
LINE
  5
13B
  8
回04-図面枠
 62
     7
 10
1409.761586189623
 20
666.3626083287073
 30
0.0
 11
1409.761586189623
 21
661.3626083287073
 31
0.0
  0
TEXT
  5
13C
  8
回04-図面枠
 62
     7
 10
1373.490971495275
 20
661.7350314547584
 30
0.0
 40
4.0
  1
A
  0
LINE
  5
13D
  8
回04-図面枠
 62
     7
 10
1904.761586189623
 20
666.3626083287073
 30
0.0
 11
1334.761586189623
 21
666.3626083287073
 31
0.0
  0
LINE
  5
13E
  8
回04-図面枠
 62
     7
 10
1339.761586189623
 20
661.3626083287073
 30
0.0
 11
1899.761586189623
 21
661.3626083287073
 31
0.0
  0
TEXT
  5
13F
  8
回04-図面枠
 62
     7
 10
1901.166007193282
 20
620.6512956245664
 30
0.0
 40
4.0
  1
1
  0
LINE
  5
140
  8
回04-図面枠
 62
     7
 10
1904.761586189623
 20
584.3626083287071
 30
0.0
 11
1899.761586189623
 21
584.3626083287071
 31
0.0
  0
TEXT
  5
141
  8
回04-図面枠
 62
     7
 10
1900.864508489981
 20
543.6512956245665
 30
0.0
 40
4.0
  1
2
  0
LINE
  5
142
  8
回04-図面枠
 62
     7
 10
1904.761586189623
 20
507.3626083287072
 30
0.0
 11
1899.761586189623
 21
507.3626083287072
 31
0.0
  0
TEXT
  5
143
  8
回04-図面枠
 62
     7
 10
1900.85902764578
 20
466.6512956245663
 30
0.0
 40
4.0
  1
3
  0
LINE
  5
144
  8
回04-図面枠
 62
     7
 10
1904.761586189623
 20
430.362608328707
 30
0.0
 11
1899.761586189623
 21
430.362608328707
 31
0.0
  0
TEXT
  5
145
  8
回04-図面枠
 62
     7
 10
1900.785935525698
 20
389.6512956245665
 30
0.0
 40
4.0
  1
4
  0
TEXT
  5
146
  8
回04-図面枠
 62
     7
 10
1336.166007193282
 20
620.6512956245664
 30
0.0
 40
4.0
  1
1
  0
LINE
  5
147
  8
回04-図面枠
 62
     7
 10
1339.761586189623
 20
584.3626083287071
 30
0.0
 11
1334.761586189623
 21
584.3626083287071
 31
0.0
  0
TEXT
  5
148
  8
回04-図面枠
 62
     7
 10
1335.86450848998
 20
543.6512956245665
 30
0.0
 40
4.0
  1
2
  0
LINE
  5
149
  8
回04-図面枠
 62
     7
 10
1339.761586189623
 20
507.3626083287072
 30
0.0
 11
1334.761586189623
 21
507.3626083287072
 31
0.0
  0
TEXT
  5
14A
  8
回04-図面枠
 62
     7
 10
1335.859027645779
 20
466.6512956245663
 30
0.0
 40
4.0
  1
3
  0
LINE
  5
14B
  8
回04-図面枠
 62
     7
 10
1339.761586189623
 20
430.362608328707
 30
0.0
 11
1334.761586189623
 21
430.362608328707
 31
0.0
  0
TEXT
  5
14C
  8
回04-図面枠
 62
     7
 10
1335.785935525698
 20
389.6512956245665
 30
0.0
 40
4.0
  1
4
  0
LINE
  5
14D
  8
回04-図面枠
 62
     7
 10
1904.761586189623
 20
353.3626083287072
 30
0.0
 11
1899.761586189623
 21
353.3626083287072
 31
0.0
  0
TEXT
  5
14E
  8
回04-図面枠
 62
     7
 10
1900.785935525698
 20
312.6512956245665
 30
0.0
 40
4.0
  1
5
  0
TEXT
  5
14F
  8
回04-図面枠
 62
     7
 10
1863.490971495275
 20
271.7350314547584
 30
0.0
 40
4.0
  1
H
  0
LINE
  5
150
  8
回04-図面枠
 62
     7
 10
1829.761586189623
 20
276.3626083287072
 30
0.0
 11
1829.761586189623
 21
271.3626083287072
 31
0.0
  0
LINE
  5
151
  8
回04-図面枠
 62
     7
 10
1759.761586189623
 20
276.3626083287072
 30
0.0
 11
1759.761586189623
 21
271.3626083287072
 31
0.0
  0
TEXT
  5
152
  8
回04-図面枠
 62
     7
 10
1723.490971495276
 20
271.7350314547584
 30
0.0
 40
4.0
  1
F
  0
LINE
  5
153
  8
回04-図面枠
 62
     7
 10
1689.761586189623
 20
276.3626083287072
 30
0.0
 11
1689.761586189623
 21
271.3626083287072
 31
0.0
  0
TEXT
  5
154
  8
回04-図面枠
 62
     7
 10
1653.490971495275
 20
271.7350314547584
 30
0.0
 40
4.0
  1
E
  0
TEXT
  5
155
  8
回04-図面枠
 62
     7
 10
1793.490971495275
 20
271.7350314547584
 30
0.0
 40
4.0
  1
G
  0
LINE
  5
156
  8
回04-図面枠
 62
     7
 10
1619.761586189623
 20
276.3626083287072
 30
0.0
 11
1619.761586189623
 21
271.3626083287072
 31
0.0
  0
TEXT
  5
157
  8
回04-図面枠
 62
     7
 10
1583.490971495275
 20
271.7350314547584
 30
0.0
 40
4.0
  1
D
  0
LINE
  5
158
  8
回04-図面枠
 62
     7
 10
1549.761586189623
 20
276.3626083287072
 30
0.0
 11
1549.761586189623
 21
271.3626083287072
 31
0.0
  0
TEXT
  5
159
  8
回04-図面枠
 62
     7
 10
1513.490971495275
 20
271.7350314547584
 30
0.0
 40
4.0
  1
C
  0
LINE
  5
15A
  8
回04-図面枠
 62
     7
 10
1479.761586189623
 20
276.3626083287072
 30
0.0
 11
1479.761586189623
 21
271.3626083287072
 31
0.0
  0
LINE
  5
15B
  8
回04-図面枠
 62
     7
 10
1339.761586189623
 20
353.3626083287072
 30
0.0
 11
1334.761586189623
 21
353.3626083287072
 31
0.0
  0
TEXT
  5
15C
  8
回04-図面枠
 62
     7
 10
1335.785935525698
 20
312.6512956245665
 30
0.0
 40
4.0
  1
5
  0
TEXT
  5
15D
  8
回04-図面枠
 62
     7
 10
1443.490971495275
 20
271.7350314547584
 30
0.0
 40
4.0
  1
B
  0
LINE
  5
15E
  8
回04-図面枠
 62
     7
 10
1409.761586189623
 20
276.3626083287072
 30
0.0
 11
1409.761586189623
 21
271.3626083287072
 31
0.0
  0
TEXT
  5
15F
  8
回04-図面枠
 62
     7
 10
1373.490971495275
 20
271.7350314547584
 30
0.0
 40
4.0
  1
A
  0
LINE
  5
160
  8
回04-図面枠
 62
     7
 10
1339.761586189623
 20
276.3626083287072
 30
0.0
 11
1899.761586189623
 21
276.3626083287072
 31
0.0
  0
LINE
  5
161
  8
回04-図面枠
 62
     7
 10
1904.761586189623
 20
271.3626083287072
 30
0.0
 11
1334.761586189623
 21
271.3626083287072
 31
0.0
  0
LINE
  5
162
  8
回04-図面枠
 62
     7
 10
1904.761586189623
 20
271.3626083287072
 30
0.0
 11
1904.761586189623
 21
666.3626083287073
 31
0.0
  0
LINE
  5
163
  8
回04-図面枠
 62
     7
 10
1899.761586189623
 20
661.3626083287073
 30
0.0
 11
1899.761586189623
 21
276.3626083287072
 31
0.0
  0
LINE
  5
164
  8
回04-図面枠
 62
     7
 10
1334.761586189623
 20
271.3626083287072
 30
0.0
 11
1334.761586189623
 21
666.3626083287073
 31
0.0
  0
LINE
  5
165
  8
回04-図面枠
 62
     7
 10
1339.761586189623
 20
661.3626083287073
 30
0.0
 11
1339.761586189623
 21
276.3626083287072
 31
0.0
  0
POLYLINE
  5
166
  8
回01-TP外形
  6
CONTINUOUS
 62
     7
 66
     1
 10
0.0
 20
0.0
 30
0.0
 70
     1
  0
VERTEX
  5
9E6
  8
回01-TP外形
  6
CONTINUOUS
 62
     7
 10
1421.802229153111
 20
372.2780675586032
 30
0.0
  0
VERTEX
  5
9E8
  8
回01-TP外形
  6
CONTINUOUS
 62
     7
 10
1497.302229153111
 20
372.2780675586032
 30
0.0
  0
VERTEX
  5
9E9
  8
回01-TP外形
  6
CONTINUOUS
 62
     7
 10
1497.302229153111
 20
373.7780675586032
 30
0.0
  0
VERTEX
  5
9EA
  8
回01-TP外形
  6
CONTINUOUS
 62
     7
 10
1421.802229153111
 20
373.7780675586032
 30
0.0
  0
SEQEND
  5
9E7
  8
0
  6
CONTINUOUS
 62
     7
  0
LINE
  5
167
  8
回01-TP外形
  6
CONTINUOUS
 62
     7
 10
1504.202229153111
 20
372.2780675586032
 30
0.0
 11
1504.202229153111
 21
369.2780675586032
 31
0.0
  0
DIMENSION
  5
168
  8
回02-寸法
  6
CONTINUOUS
 62
     7
  2
*D4343
 10
1497.302229153111
 20
380.8731686167616
 30
0.0
 11
1506.200654349961
 21
383.5731686167616
 31
0.0
 70
    32
  1
(<>)
  3
STANDARD
 13
1496.802229153111
 23
369.2780675586032
 33
0.0
 14
1497.302229153111
 24
376.2780675586032
 34
0.0
1001
ACAD
1000
DSTYLE
1002
{
1070
    47
1040
0.3
1070
    48
1040
0.3
1070
   140
1040
4.0
1070
   146
1040
0.7
1070
   283
1070
     0
1070
   288
1070
     0
1070
   341
1005
0
1070
   371
1070
    13
1070
   372
1070
    13
1002
}
  0
DIMENSION
  5
179
  8
回02-寸法
  6
CONTINUOUS
 62
     7
  2
*D4444
 10
1724.40222915311
 20
381.4981487922391
 30
0.0
 11
1715.00380395626
 21
381.4981487922391
 31
0.0
 70
   160
  1
(<>)
  3
STANDARD
 13
1723.90222915311
 23
376.2780675586032
 33
0.0
 14
1724.40222915311
 24
369.2780675586032
 34
0.0
1001
ACAD
1000
DSTYLE
1002
{
1070
    47
1040
0.3
1070
    48
1040
0.3
1070
   140
1040
4.0
1070
   146
1040
0.7
1070
   283
1070
     0
1070
   288
1070
     0
1070
   341
1005
0
1070
   371
1070
    13
1070
   372
1070
    13
1002
}
  0
LINE
  5
18A
  8
回01-TP外形
  6
CONTINUOUS
 62
     7
 10
1723.90222915311
 20
369.2780675586032
 30
0.0
 11
1723.90222915311
 21
376.2780675586032
 31
0.0
  0
LINE
  5
18B
  8
回03-記事
  6
CONTINUOUS
 62
     7
 10
1497.528183544274
 20
361.8554497745567
 30
0.0
 11
1500.532720737664
 21
355.994724690353
 31
0.0
  0
TEXT
  5
18C
  8
回03-記事
  6
CONTINUOUS
 62
     7
 10
1500.50282855344
 20
350.2107226793155
 30
0.0
 40
5.0
  1
6
  0
LINE
  5
18D
  8
回01-TP外形
  6
CONTINUOUS
 62
     7
 10
1495.302229153111
 20
361.7780675586032
 30
0.0
 11
1495.302229153111
 21
366.2780675586032
 31
0.0
  0
LINE
  5
18E
  8
回01-TP外形
  6
CONTINUOUS
 62
     7
 10
1500.302229153111
 20
361.7780675586032
 30
0.0
 11
1495.302229153111
 21
361.7780675586032
 31
0.0
  0
LINE
  5
18F
  8
回01-TP外形
  6
CONTINUOUS
 62
     7
 10
1500.302229153111
 20
363.2780675586032
 30
0.0
 11
1500.302229153111
 21
361.7780675586032
 31
0.0
  0
LINE
  5
190
  8
回01-TP外形
  6
CONTINUOUS
 62
     7
 10
1492.61074614871
 20
366.2780675586032
 30
0.0
 11
1495.302229153111
 21
366.2780675586032
 31
0.0
  0
LINE
  5
191
  8
回01-TP外形
  6
CONTINUOUS
 62
     7
 10
1492.61074614871
 20
367.7780675586032
 30
0.0
 11
1492.61074614871
 21
366.2780675586032
 31
0.0
  0
ARC
  5
192
  8
回01-TP外形
  6
CONTINUOUS
 62
     7
 10
1719.302229153111
 20
369.2780675586032
 30
0.0
 40
0.5
 50
0.0
 51
180.0
  0
LINE
  5
193
  8
回01-TP外形
  6
CONTINUOUS
 62
     7
 10
1720.902229153111
 20
369.2780675586032
 30
0.0
 11
1720.902229153111
 21
372.2780675586032
 31
0.0
  0
ARC
  5
194
  8
回01-TP外形
  6
CONTINUOUS
 62
     7
 10
1715.302229153111
 20
369.2780675586032
 30
0.0
 40
0.5
 50
0.0
 51
180.0
  0
LINE
  5
195
  8
回01-TP外形
  6
CONTINUOUS
 62
     7
 10
1724.40222915311
 20
363.2780675586032
 30
0.0
 11
1724.40222915311
 21
369.2780675586032
 31
0.0
  0
DIMENSION
  5
196
  8
回02-寸法
  6
CONTINUOUS
 62
     7
  2
*D4545
 10
1732.761955188104
 20
363.2780675586019
 30
0.0
 11
1732.761955188104
 21
350.4071620467907
 31
0.0
 70
   160
  1
2.1{\H0.75x;±0.2}
  3
STANDARD
 13
1723.90222915311
 23
376.2780675586032
 33
0.0
 14
1724.40222915311
 24
363.2780675586019
 34
0.0
 50
90.0
1001
ACAD
1000
DSTYLE
1002
{
1070
   372
1070
    13
1070
   371
1070
    13
1070
   140
1040
4.0
1002
}
1001
ACADSTRINGINFO
1000
MIFCodePage
1070
     1
  0
ARC
  5
1A7
  8
回01-TP外形
  6
CONTINUOUS
 62
     7
 10
1711.302229153111
 20
369.2780675586032
 30
0.0
 40
0.5
 50
0.0
 51
180.0
  0
ARC
  5
1A8
  8
回01-TP外形
  6
CONTINUOUS
 62
     7
 10
1699.302229153111
 20
369.2780675586032
 30
0.0
 40
0.5
 50
0.0
 51
180.0
  0
ARC
  5
1A9
  8
回01-TP外形
  6
CONTINUOUS
 62
     7
 10
1695.302229153111
 20
369.2780675586032
 30
0.0
 40
0.5
 50
0.0
 51
180.0
  0
ARC
  5
1AA
  8
回01-TP外形
  6
CONTINUOUS
 62
     7
 10
1703.302229153111
 20
369.2780675586032
 30
0.0
 40
0.5
 50
0.0
 51
180.0
  0
ARC
  5
1AB
  8
回01-TP外形
  6
CONTINUOUS
 62
     7
 10
1707.302229153111
 20
369.2780675586032
 30
0.0
 40
0.5
 50
0.0
 51
180.0
  0
ARC
  5
1AC
  8
回01-TP外形
  6
CONTINUOUS
 62
     7
 10
1679.302229153111
 20
369.2780675586032
 30
0.0
 40
0.5
 50
0.0
 51
180.0
  0
ARC
  5
1AD
  8
回01-TP外形
  6
CONTINUOUS
 62
     7
 10
1691.302229153111
 20
369.2780675586032
 30
0.0
 40
0.5
 50
0.0
 51
180.0
  0
ARC
  5
1AE
  8
回01-TP外形
  6
CONTINUOUS
 62
     7
 10
1683.302229153111
 20
369.2780675586032
 30
0.0
 40
0.5
 50
0.0
 51
180.0
  0
ARC
  5
1AF
  8
回01-TP外形
  6
CONTINUOUS
 62
     7
 10
1687.302229153111
 20
369.2780675586032
 30
0.0
 40
0.5
 50
0.0
 51
180.0
  0
ARC
  5
1B0
  8
回01-TP外形
  6
CONTINUOUS
 62
     7
 10
1663.302229153111
 20
369.2780675586032
 30
0.0
 40
0.5
 50
0.0
 51
180.0
  0
ARC
  5
1B1
  8
回01-TP外形
  6
CONTINUOUS
 62
     7
 10
1659.302229153111
 20
369.2780675586032
 30
0.0
 40
0.5
 50
0.0
 51
180.0
  0
ARC
  5
1B2
  8
回01-TP外形
  6
CONTINUOUS
 62
     7
 10
1671.30222915311
 20
369.2780675586032
 30
0.0
 40
0.5
 50
0.0
 51
180.0
  0
ARC
  5
1B3
  8
回01-TP外形
  6
CONTINUOUS
 62
     7
 10
1667.302229153111
 20
369.2780675586032
 30
0.0
 40
0.5
 50
0.0
 51
180.0
  0
ARC
  5
1B4
  8
回01-TP外形
  6
CONTINUOUS
 62
     7
 10
1675.302229153111
 20
369.2780675586032
 30
0.0
 40
0.5
 50
0.0
 51
180.0
  0
ARC
  5
1B5
  8
回01-TP外形
  6
CONTINUOUS
 62
     7
 10
1643.302229153111
 20
369.2780675586032
 30
0.0
 40
0.5
 50
0.0
 51
180.0
  0
ARC
  5
1B6
  8
回01-TP外形
  6
CONTINUOUS
 62
     7
 10
1647.302229153111
 20
369.2780675586032
 30
0.0
 40
0.5
 50
0.0
 51
180.0
  0
ARC
  5
1B7
  8
回01-TP外形
  6
CONTINUOUS
 62
     7
 10
1651.302229153111
 20
369.2780675586032
 30
0.0
 40
0.5
 50
0.0
 51
180.0
  0
ARC
  5
1B8
  8
回01-TP外形
  6
CONTINUOUS
 62
     7
 10
1655.30222915311
 20
369.2780675586032
 30
0.0
 40
0.5
 50
0.0
 51
180.0
  0
ARC
  5
1B9
  8
回01-TP外形
  6
CONTINUOUS
 62
     7
 10
1623.30222915311
 20
369.2780675586032
 30
0.0
 40
0.5
 50
0.0
 51
180.0
  0
ARC
  5
1BA
  8
回01-TP外形
  6
CONTINUOUS
 62
     7
 10
1627.302229153111
 20
369.2780675586032
 30
0.0
 40
0.5
 50
0.0
 51
180.0
  0
ARC
  5
1BB
  8
回01-TP外形
  6
CONTINUOUS
 62
     7
 10
1631.302229153111
 20
369.2780675586032
 30
0.0
 40
0.5
 50
0.0
 51
180.0
  0
ARC
  5
1BC
  8
回01-TP外形
  6
CONTINUOUS
 62
     7
 10
1635.302229153111
 20
369.2780675586032
 30
0.0
 40
0.5
 50
0.0
 51
180.0
  0
ARC
  5
1BD
  8
回01-TP外形
  6
CONTINUOUS
 62
     7
 10
1639.30222915311
 20
369.2780675586032
 30
0.0
 40
0.5
 50
0.0
 51
180.0
  0
ARC
  5
1BE
  8
回01-TP外形
  6
CONTINUOUS
 62
     7
 10
1615.302229153111
 20
369.2780675586032
 30
0.0
 40
0.5
 50
0.0
 51
180.0
  0
ARC
  5
1BF
  8
回01-TP外形
  6
CONTINUOUS
 62
     7
 10
1607.302229153111
 20
369.2780675586032
 30
0.0
 40
0.5
 50
0.0
 51
180.0
  0
ARC
  5
1C0
  8
回01-TP外形
  6
CONTINUOUS
 62
     7
 10
1611.302229153111
 20
369.2780675586032
 30
0.0
 40
0.5
 50
0.0
 51
180.0
  0
ARC
  5
1C1
  8
回01-TP外形
  6
CONTINUOUS
 62
     7
 10
1619.302229153111
 20
369.2780675586032
 30
0.0
 40
0.5
 50
0.0
 51
180.0
  0
LINE
  5
1C2
  8
回03-記事
  6
CONTINUOUS
 62
     7
 10
1592.775824264381
 20
365.1421951374227
 30
0.0
 11
1598.764009469652
 21
358.2563254986498
 31
0.0
  0
ARC
  5
1C3
  8
回01-TP外形
  6
CONTINUOUS
 62
     7
 10
1595.302229153111
 20
369.2780675586032
 30
0.0
 40
0.5
 50
0.0
 51
180.0
  0
ARC
  5
1C4
  8
回01-TP外形
  6
CONTINUOUS
 62
     7
 10
1587.302229153111
 20
369.2780675586032
 30
0.0
 40
0.5
 50
0.0
 51
180.0
  0
ARC
  5
1C5
  8
回01-TP外形
  6
CONTINUOUS
 62
     7
 10
1591.302229153111
 20
369.2780675586032
 30
0.0
 40
0.5
 50
0.0
 51
180.0
  0
TEXT
  5
1C6
  8
回03-記事
  6
CONTINUOUS
 62
     7
 10
1599.450609688793
 20
353.9146671370937
 30
0.0
 40
5.0
  1
2
  0
ARC
  5
1C7
  8
回01-TP外形
  6
CONTINUOUS
 62
     7
 10
1599.302229153111
 20
369.2780675586032
 30
0.0
 40
0.5
 50
0.0
 51
180.0
  0
ARC
  5
1C8
  8
回01-TP外形
  6
CONTINUOUS
 62
     7
 10
1603.302229153111
 20
369.2780675586032
 30
0.0
 40
0.5
 50
0.0
 51
180.0
  0
ARC
  5
1C9
  8
回01-TP外形
  6
CONTINUOUS
 62
     7
 10
1575.302229153111
 20
369.2780675586032
 30
0.0
 40
0.5
 50
0.0
 51
180.0
  0
ARC
  5
1CA
  8
回01-TP外形
  6
CONTINUOUS
 62
     7
 10
1571.302229153111
 20
369.2780675586032
 30
0.0
 40
0.5
 50
0.0
 51
180.0
  0
ARC
  5
1CB
  8
回01-TP外形
  6
CONTINUOUS
 62
     7
 10
1579.302229153111
 20
369.2780675586032
 30
0.0
 40
0.5
 50
0.0
 51
180.0
  0
ARC
  5
1CC
  8
回01-TP外形
  6
CONTINUOUS
 62
     7
 10
1583.302229153111
 20
369.2780675586032
 30
0.0
 40
0.5
 50
0.0
 51
180.0
  0
ARC
  5
1CD
  8
回01-TP外形
  6
CONTINUOUS
 62
     7
 10
1551.302229153111
 20
369.2780675586032
 30
0.0
 40
0.5
 50
0.0
 51
180.0
  0
ARC
  5
1CE
  8
回01-TP外形
  6
CONTINUOUS
 62
     7
 10
1555.302229153111
 20
369.2780675586032
 30
0.0
 40
0.5
 50
0.0
 51
180.0
  0
ARC
  5
1CF
  8
回01-TP外形
  6
CONTINUOUS
 62
     7
 10
1567.302229153111
 20
369.2780675586032
 30
0.0
 40
0.5
 50
0.0
 51
180.0
  0
ARC
  5
1D0
  8
回01-TP外形
  6
CONTINUOUS
 62
     7
 10
1559.302229153111
 20
369.2780675586032
 30
0.0
 40
0.5
 50
0.0
 51
180.0
  0
ARC
  5
1D1
  8
回01-TP外形
  6
CONTINUOUS
 62
     7
 10
1563.302229153111
 20
369.2780675586032
 30
0.0
 40
0.5
 50
0.0
 51
180.0
  0
ARC
  5
1D2
  8
回01-TP外形
  6
CONTINUOUS
 62
     7
 10
1535.302229153111
 20
369.2780675586032
 30
0.0
 40
0.5
 50
0.0
 51
180.0
  0
TEXT
  5
1D3
  8
回03-記事
  6
CONTINUOUS
 62
     7
 10
1534.525393405887
 20
381.6089136524857
 30
0.0
 40
5.0
  1
1
  0
ARC
  5
1D4
  8
回01-TP外形
  6
CONTINUOUS
 62
     7
 10
1547.302229153111
 20
369.2780675586032
 30
0.0
 40
0.5
 50
0.0
 51
180.0
  0
ARC
  5
1D5
  8
回01-TP外形
  6
CONTINUOUS
 62
     7
 10
1539.302229153111
 20
369.2780675586032
 30
0.0
 40
0.5
 50
0.0
 51
180.0
  0
ARC
  5
1D6
  8
回01-TP外形
  6
CONTINUOUS
 62
     7
 10
1543.302229153111
 20
369.2780675586032
 30
0.0
 40
0.5
 50
0.0
 51
180.0
  0
LINE
  5
1D7
  8
回03-記事
  6
CONTINUOUS
 62
     7
 10
1543.720610604555
 20
374.5927951169097
 30
0.0
 11
1538.410332379181
 21
380.4627167761919
 31
0.0
  0
ARC
  5
1D8
  8
回01-TP外形
  6
CONTINUOUS
 62
     7
 10
1519.302229153111
 20
369.2780675586032
 30
0.0
 40
0.5
 50
0.0
 51
180.0
  0
ARC
  5
1D9
  8
回01-TP外形
  6
CONTINUOUS
 62
     7
 10
1515.302229153111
 20
369.2780675586032
 30
0.0
 40
0.5
 50
0.0
 51
180.0
  0
ARC
  5
1DA
  8
回01-TP外形
  6
CONTINUOUS
 62
     7
 10
1527.302229153111
 20
369.2780675586032
 30
0.0
 40
0.5
 50
0.0
 51
180.0
  0
ARC
  5
1DB
  8
回01-TP外形
  6
CONTINUOUS
 62
     7
 10
1523.302229153111
 20
369.2780675586032
 30
0.0
 40
0.5
 50
0.0
 51
180.0
  0
ARC
  5
1DC
  8
回01-TP外形
  6
CONTINUOUS
 62
     7
 10
1531.302229153111
 20
369.2780675586032
 30
0.0
 40
0.5
 50
0.0
 51
180.0
  0
LINE
  5
1DD
  8
回01-TP外形
  6
CONTINUOUS
 62
     7
 10
1497.302229153111
 20
372.2780675586032
 30
0.0
 11
1497.302229153111
 21
376.2780675586032
 31
0.0
  0
LINE
  5
1DE
  8
回01-TP外形
  6
CONTINUOUS
 62
     7
 10
1496.802229153111
 20
363.2780675586032
 30
0.0
 11
1496.802229153111
 21
369.2780675586032
 31
0.0
  0
ARC
  5
1DF
  8
回01-TP外形
  6
CONTINUOUS
 62
     7
 10
1507.302229153111
 20
369.2780675586032
 30
0.0
 40
0.5
 50
0.0
 51
180.0
  0
LINE
  5
1E0
  8
回01-TP外形
  6
CONTINUOUS
 62
     7
 10
1500.302229153111
 20
369.2780675586032
 30
0.0
 11
1500.302229153111
 21
372.2780675586032
 31
0.0
  0
ARC
  5
1E1
  8
回01-TP外形
  6
CONTINUOUS
 62
     7
 10
1511.302229153111
 20
369.2780675586032
 30
0.0
 40
0.5
 50
0.0
 51
180.0
  0
LINE
  5
1E2
  8
回03-記事
  6
CONTINUOUS
 62
     7
 10
1479.747715076707
 20
370.6161220892468
 30
0.0
 11
1482.752252270098
 21
364.7553970050426
 31
0.0
  0
TEXT
  5
1E3
  8
回03-記事
  6
CONTINUOUS
 62
     7
 10
1482.722360085874
 20
358.971394994006
 30
0.0
 40
5.0
  1
3
  0
TEXT
  5
1E4
  8
回03-記事
  6
CONTINUOUS
 62
     7
 10
1486.03972396716
 20
379.7642878731898
 30
0.0
 40
5.0
  1
5
  0
LINE
  5
1E5
  8
回01-TP外形
  6
CONTINUOUS
 62
     7
 10
1426.802229153111
 20
365.2780675586032
 30
0.0
 11
1426.802229153111
 21
369.2780675586032
 31
0.0
  0
TEXT
  5
1E6
  8
回03-記事
  6
CONTINUOUS
 62
     7
 10
1424.216078980016
 20
350.6601290452322
 30
0.0
 40
5.0
  1
4
  0
DIMENSION
  5
1E7
  8
回02-寸法
  6
CONTINUOUS
 62
     7
  2
*D4646
 10
1409.296103376117
 20
365.2780675586032
 30
0.0
 11
1409.296103376117
 21
353.488502856721
 31
0.0
 70
   160
  1
0.3{\H0.7x;±0.05}
  3
STANDARD
 13
1416.802229153111
 23
372.2780675586032
 33
0.0
 14
1416.802229153111
 24
365.2780675586032
 34
0.0
 50
90.0
1001
ACAD
1000
DSTYLE
1002
{
1070
   372
1070
    13
1070
   371
1070
    13
1070
   140
1040
4.0
1002
}
1001
ACADSTRINGINFO
1000
MIFCodePage
1070
     1
  0
DIMENSION
  5
1F8
  8
回02-寸法
  6
CONTINUOUS
 62
     7
  2
*D4747
 10
1426.802229153111
 20
359.1840027373346
 30
0.0
 11
1434.700654349962
 21
359.1840027373346
 31
0.0
 70
   160
  1
(<>)
  3
STANDARD
 13
1416.802229153111
 23
369.2780675586032
 33
0.0
 14
1426.802229153111
 24
369.2780675586032
 34
0.0
1001
ACAD
1000
DSTYLE
1002
{
1070
   372
1070
    13
1070
   371
1070
    13
1070
   140
1040
4.0
1002
}
  0
LINE
  5
209
  8
回01-TP外形
  6
CONTINUOUS
 62
     7
 10
1416.802229153111
 20
365.2780675586032
 30
0.0
 11
1426.802229153111
 21
365.2780675586032
 31
0.0
  0
DIMENSION
  5
20A
  8
回02-寸法
  6
CONTINUOUS
 62
     7
  2
*D4848
 10
1421.802229153111
 20
379.929564846168
 30
0.0
 11
1429.870507082164
 21
379.929564846168
 31
0.0
 70
   160
  3
STANDARD
 13
1416.802229153111
 23
372.2780675586032
 33
0.0
 14
1421.802229153111
 24
372.2780675586032
 34
0.0
1001
ACAD
1000
DSTYLE
1002
{
1070
   140
1040
4.0
1070
   371
1070
    13
1070
   372
1070
    13
1002
}
  0
LINE
  5
21B
  8
回01-TP外形
  6
CONTINUOUS
 62
     7
 10
1487.822229153111
 20
367.7780675586032
 30
0.0
 11
1496.802229153111
 21
367.7780675586032
 31
0.0
  0
LINE
  5
21C
  8
回01-TP外形
  6
CONTINUOUS
 62
     7
 10
1416.802229153111
 20
369.2780675586032
 30
0.0
 11
1724.40222915311
 21
369.2780675586032
 31
0.0
  0
LINE
  5
21D
  8
回01-TP外形
  6
CONTINUOUS
 62
     7
 10
1416.802229153111
 20
372.2780675586032
 30
0.0
 11
1723.90222915311
 21
372.2780675586032
 31
0.0
  0
LINE
  5
21E
  8
回01-TP外形
  6
CONTINUOUS
 62
     7
 10
1496.802229153111
 20
363.2780675586032
 30
0.0
 11
1724.402229153111
 21
363.2780675586032
 31
0.0
  0
LINE
  5
21F
  8
回01-TP外形
  6
CONTINUOUS
 62
     7
 10
1497.302229153111
 20
376.2780675586032
 30
0.0
 11
1723.90222915311
 21
376.2780675586032
 31
0.0
  0
DIMENSION
  5
220
  8
回02-寸法
  6
CONTINUOUS
 62
     7
  2
*D4949
 10
1492.201726640549
 20
467.7377348924286
 30
0.0
 11
1482.067376335337
 21
467.7377348924286
 31
0.0
 70
   160
  3
KOUSA
 13
1496.802229153111
 23
474.3938866988718
 33
0.0
 14
1492.201726640549
 24
475.1601649626427
 34
0.0
1001
ACAD
1000
DSTYLE
1002
{
1070
    71
1070
     0
1070
   288
1070
     0
1070
   341
1005
0
1002
}
  0
DIMENSION
  5
231
  8
回02-寸法
 62
     7
  2
*D5050
 10
1406.359140594173
 20
479.9460110433386
 30
0.0
 11
1406.359140594173
 21
500.5132206890097
 31
0.0
 70
   160
  1
<>
  3
KOUSA
 13
1417.302185642344
 23
486.1960110433386
 33
0.0
 14
1417.302185642344
 24
479.9460110433386
 34
0.0
 50
90.0
1001
ACAD
1000
DSTYLE
1002
{
1070
    47
1040
0.2
1070
   147
1040
0.5
1070
    48
1040
0.2
1070
    72
1070
     0
1070
    71
1070
     1
1070
   288
1070
     0
1070
   341
1005
0
1002
}
  0
DIMENSION
  5
242
  8
回02-寸法
  6
CONTINUOUS
 62
     7
  2
*D5151
 10
1487.306298033084
 20
460.0747049554414
 30
0.0
 11
1479.099191251897
 21
460.0747049554414
 31
0.0
 70
   160
  3
KOUSA
 13
1496.802185642343
 23
472.1999432314728
 33
0.0
 14
1487.306298033084
 24
479.8528215871296
 34
0.0
1001
ACAD
1000
DSTYLE
1002
{
1070
    71
1070
     0
1070
   288
1070
     0
1070
   341
1005
0
1002
}
  0
TEXT
  5
253
  8
回03-記事
  6
CONTINUOUS
 62
     5
 10
1416.308106649909
 20
480.4084108651618
 30
0.0
 40
3.0
  1
1
 50
90.0
  0
TEXT
  5
254
  8
回03-記事
  6
CONTINUOUS
 62
     5
 10
1416.285213694121
 20
483.8605202353597
 30
0.0
 40
3.0
  1
4
 50
90.0
  0
DIMENSION
  5
255
  8
回02-寸法
  6
CONTINUOUS
 62
     7
  2
*D5252
 10
1416.802185642343
 20
512.9763918983185
 30
0.0
 11
1456.802207397727
 21
515.4763918983185
 31
0.0
 70
    32
  3
STANDARD
 13
1496.802229153111
 23
491.7481355875296
 33
0.0
 14
1416.802185642343
 24
485.6960110433386
 34
0.0
1001
ACAD
1000
DSTYLE
1002
{
1070
   147
1040
0.5
1070
    72
1070
     0
1070
    71
1070
     1
1070
    41
1040
1.5
1070
    47
1040
1.0
1070
    48
1040
1.0
1070
   140
1040
4.0
1070
   141
1040
1.5
1070
   146
1040
0.7
1070
   283
1070
     0
1070
   288
1070
     0
1070
   341
1005
0
1070
   371
1070
    13
1070
   372
1070
    13
1002
}
  0
DIMENSION
  5
264
  8
回02-寸法
  6
CONTINUOUS
 62
     7
  2
*D5353
 10
1406.359140594172
 20
395.3601462294768
 30
0.0
 11
1403.65809400133
 21
437.6530786364074
 31
0.0
 70
    32
  3
STANDARD
 13
1417.302185665933
 23
479.9460110433377
 33
0.0
 14
1496.802229153111
 24
395.3601462294768
 34
0.0
 50
90.0
1001
ACAD
1000
DSTYLE
1002
{
1070
     3
1000
(<>)
1070
    41
1040
1.5
1070
    47
1040
0.3
1070
    48
1040
0.3
1070
   140
1040
4.0
1070
   141
1040
1.5
1070
   146
1040
0.7
1070
   283
1070
     0
1070
   288
1070
     0
1070
   341
1005
0
1070
   371
1070
    13
1070
   372
1070
    13
1002
}
  0
DIMENSION
  5
273
  8
回02-寸法
  6
CONTINUOUS
 62
     5
  2
*D5454
 10
1469.240541317308
 20
475.0710110433386
 30
0.0
 11
1469.240541317308
 21
465.7601462294755
 31
0.0
 70
   160
  3
RUISIN
 13
1492.610299244747
 23
491.0698080090678
 33
0.0
 14
1492.614472830452
 24
475.0710110433386
 34
0.0
 50
90.0
1001
ACAD
1000
DSTYLE
1002
{
1070
    47
1040
0.1
1070
    48
1040
0.1
1070
   140
1040
4.0
1070
   146
1040
0.7
1070
   283
1070
     0
1070
   341
1005
0
1070
   371
1070
     9
1070
   372
1070
     9
1002
}
  0
DIMENSION
  5
284
  8
回02-寸法
  6
CONTINUOUS
 62
     7
  2
*D5555
 10
1496.802229153111
 20
599.8526203473947
 30
0.0
 11
1470.098016554686
 21
602.5526203473947
 31
0.0
 70
    32
  1
<>(Insulation Area)
  3
STANDARD
 13
1504.202229153111
 23
565.310146229469
 33
0.0
 14
1496.802229153111
 24
570.7601462294754
 34
0.0
1001
ACAD
1000
DSTYLE
1002
{
1070
    41
1040
1.5
1070
    47
1040
0.3
1070
    48
1040
0.3
1070
   140
1040
4.0
1070
   141
1040
1.5
1070
   146
1040
0.7
1070
   283
1070
     0
1070
   288
1070
     0
1070
   341
1005
0
1070
   371
1070
    13
1070
   372
1070
    13
1002
}
1001
ACADSTRINGINFO
1000
MIFCodePage
1070
     1
  0
DIMENSION
  5
295
  8
回02-寸法
  6
CONTINUOUS
 62
     7
  2
*D5656
 10
1724.402229153111
 20
599.8526203473947
 30
0.0
 11
1732.300654349961
 21
602.5526203473947
 31
0.0
 70
    32
  1
(<>)
  3
STANDARD
 13
1720.902229153111
 23
565.310146229469
 33
0.0
 14
1724.402229153111
 24
570.7601462294754
 34
0.0
1001
ACAD
1000
DSTYLE
1002
{
1070
    41
1040
1.5
1070
    47
1040
0.3
1070
    48
1040
0.3
1070
   140
1040
4.0
1070
   141
1040
1.5
1070
   146
1040
0.7
1070
   283
1070
     0
1070
   288
1070
     0
1070
   341
1005
0
1070
   371
1070
    13
1070
   372
1070
    13
1002
}
1001
ACADSTRINGINFO
1000
MIFCodePage
1070
     1
  0
DIMENSION
  5
2A6
  8
回02-寸法
  6
CONTINUOUS
 62
     7
  2
*D5757
 10
1724.402229153111
 20
592.8274335547617
 30
0.0
 11
1730.500654349961
 21
595.5274335547617
 31
0.0
 70
    32
  1
(<>)
  3
STANDARD
 13
1720.402229153111
 23
564.5101462294688
 33
0.0
 14
1724.402229153111
 24
570.7601462294754
 34
0.0
1001
ACAD
1000
DSTYLE
1002
{
1070
    41
1040
1.5
1070
    47
1040
0.3
1070
    48
1040
0.3
1070
   140
1040
4.0
1070
   141
1040
1.5
1070
   146
1040
0.7
1070
   283
1070
     0
1070
   288
1070
     0
1070
   341
1005
0
1070
   371
1070
    13
1070
   372
1070
    13
1002
}
  0
DIMENSION
  5
2B7
  8
回02-寸法
  6
CONTINUOUS
 62
     7
  2
*D5858
 10
1724.402229153111
 20
585.3808052980715
 30
0.0
 11
1730.300654349961
 21
585.3808052980715
 31
0.0
 70
   160
  1
(<>)
  3
STANDARD
 13
1718.402229153111
 23
562.5101462294686
 33
0.0
 14
1724.402229153111
 24
570.7601462294754
 34
0.0
1001
ACAD
1000
DSTYLE
1002
{
1070
    41
1040
1.5
1070
    47
1040
0.3
1070
    48
1040
0.3
1070
   140
1040
4.0
1070
   141
1040
1.5
1070
   146
1040
0.7
1070
   283
1070
     0
1070
   288
1070
     0
1070
   341
1005
0
1070
   371
1070
    13
1070
   372
1070
    13
1002
}
  0
DIMENSION
  5
2C8
  8
回02-寸法
  6
CONTINUOUS
 62
     7
  2
*D5959
 10
1764.815910807226
 20
395.3601462294768
 30
0.0
 11
1762.115910807226
 21
367.2559336310517
 31
0.0
 70
    32
  1
<>(Insulation Area)
  3
STANDARD
 13
1720.902229153111
 23
400.8101462294688
 33
0.0
 14
1724.402229153111
 24
395.3601462294768
 34
0.0
 50
90.0
1001
ACAD
1000
DSTYLE
1002
{
1070
    41
1040
1.5
1070
    47
1040
0.3
1070
    48
1040
0.3
1070
   140
1040
4.0
1070
   141
1040
1.5
1070
   146
1040
0.7
1070
   283
1070
     0
1070
   288
1070
     0
1070
   341
1005
0
1070
   371
1070
    13
1070
   372
1070
    13
1002
}
1001
ACADSTRINGINFO
1000
MIFCodePage
1070
     1
  0
DIMENSION
  5
2D9
  8
回02-寸法
  6
CONTINUOUS
 62
     7
  2
*D6060
 10
1749.475620664671
 20
570.7601462294754
 30
0.0
 11
1749.475620664671
 21
580.0585714263261
 31
0.0
 70
   160
  1
(<>)
  3
STANDARD
 13
1718.402229153111
 23
562.5101462294686
 33
0.0
 14
1724.402229153111
 24
570.7601462294754
 34
0.0
 50
90.0
1001
ACAD
1000
DSTYLE
1002
{
1070
    41
1040
1.5
1070
    47
1040
0.3
1070
    48
1040
0.3
1070
   140
1040
4.0
1070
   141
1040
1.5
1070
   146
1040
0.7
1070
   283
1070
     0
1070
   288
1070
     0
1070
   341
1005
0
1070
   371
1070
    13
1070
   372
1070
    13
1002
}
  0
DIMENSION
  5
2EA
  8
回02-寸法
  6
CONTINUOUS
 62
     7
  2
*D6161
 10
1757.826847124789
 20
570.7601462294754
 30
0.0
 11
1755.126847124789
 21
580.0585714263259
 31
0.0
 70
    32
  1
(<>)
  3
STANDARD
 13
1720.402229153111
 23
564.5101462294688
 33
0.0
 14
1724.402229153111
 24
570.7601462294754
 34
0.0
 50
90.0
1001
ACAD
1000
DSTYLE
1002
{
1070
    41
1040
1.5
1070
    47
1040
0.3
1070
    48
1040
0.3
1070
   140
1040
4.0
1070
   141
1040
1.5
1070
   146
1040
0.7
1070
   283
1070
     0
1070
   288
1070
     0
1070
   341
1005
0
1070
   371
1070
    13
1070
   372
1070
    13
1002
}
  0
DIMENSION
  5
2FB
  8
回02-寸法
  6
CONTINUOUS
 62
     7
  2
*D6262
 10
1764.815910807226
 20
570.7601462294754
 30
0.0
 11
1762.115910807226
 21
580.2585714263259
 31
0.0
 70
    32
  1
(<>) 
  3
STANDARD
 13
1720.902229153111
 23
565.310146229469
 33
0.0
 14
1724.402229153111
 24
570.7601462294754
 34
0.0
 50
90.0
1001
ACAD
1000
DSTYLE
1002
{
1070
    41
1040
1.5
1070
    47
1040
0.3
1070
    48
1040
0.3
1070
   140
1040
4.0
1070
   141
1040
1.5
1070
   146
1040
0.7
1070
   283
1070
     0
1070
   288
1070
     0
1070
   341
1005
0
1070
   371
1070
    13
1070
   372
1070
    13
1002
}
1001
ACADSTRINGINFO
1000
MIFCodePage
1070
     1
  0
DIMENSION
  5
30C
  8
回02-寸法
  6
CONTINUOUS
 62
     7
  2
*D6363
 10
1764.815910807226
 20
400.8101462294688
 30
0.0
 11
1762.315910807226
 21
483.0601462294688
 31
0.0
 70
    32
  3
STANDARD
 13
1720.902229153111
 23
565.310146229469
 33
0.0
 14
1720.902229153111
 24
400.8101462294688
 34
0.0
 50
90.0
1001
ACAD
1000
DSTYLE
1002
{
1070
    41
1040
1.5
1070
    47
1040
0.3
1070
    48
1040
0.3
1070
   140
1040
4.0
1070
   141
1040
1.5
1070
   146
1040
0.7
1070
   283
1070
     0
1070
   288
1070
     0
1070
   341
1005
0
1070
   371
1070
    13
1070
   372
1070
    13
1002
}
  0
DIMENSION
  5
31B
  8
回02-寸法
  6
CONTINUOUS
 62
     7
  2
*D6464
 10
1504.202229153111
 20
599.8526203473947
 30
0.0
 11
1612.552229153111
 21
602.3526203473947
 31
0.0
 70
    32
  3
STANDARD
 13
1720.902229153111
 23
565.310146229469
 33
0.0
 14
1504.202229153111
 24
565.310146229469
 34
0.0
1001
ACAD
1000
DSTYLE
1002
{
1070
    41
1040
1.5
1070
    47
1040
0.3
1070
    48
1040
0.3
1070
   140
1040
4.0
1070
   141
1040
1.5
1070
   146
1040
0.7
1070
   283
1070
     0
1070
   288
1070
     0
1070
   341
1005
0
1070
   371
1070
    13
1070
   372
1070
    13
1002
}
  0
DIMENSION
  5
32A
  8
回02-寸法
  6
CONTINUOUS
 62
     7
  2
*D6565
 10
1757.826847124789
 20
395.3601462294768
 30
0.0
 11
1755.326847124789
 21
387.6601462294768
 31
0.0
 70
    32
  3
STANDARD
 13
1720.402229153111
 23
401.6101462294686
 33
0.0
 14
1724.402229153111
 24
395.3601462294768
 34
0.0
 50
90.0
1001
ACAD
1000
DSTYLE
1002
{
1070
    41
1040
1.5
1070
    47
1040
0.3
1070
    48
1040
0.3
1070
   140
1040
4.0
1070
   141
1040
1.5
1070
   146
1040
0.7
1070
   283
1070
     0
1070
   288
1070
     0
1070
   341
1005
0
1070
   371
1070
    13
1070
   372
1070
    13
1002
}
  0
DIMENSION
  5
33B
  8
回02-寸法
  6
CONTINUOUS
 62
     7
  2
*D6666
 10
1749.475620664672
 20
395.3601462294768
 30
0.0
 11
1749.475620664672
 21
387.5773035170009
 31
0.0
 70
   160
  3
STANDARD
 13
1718.402229153111
 23
403.6101462294686
 33
0.0
 14
1724.402229153111
 24
395.3601462294768
 34
0.0
 50
90.0
1001
ACAD
1000
DSTYLE
1002
{
1070
    41
1040
1.5
1070
    47
1040
0.3
1070
    48
1040
0.3
1070
   140
1040
4.0
1070
   141
1040
1.5
1070
   146
1040
0.7
1070
   283
1070
     0
1070
   288
1070
     0
1070
   341
1005
0
1070
   371
1070
    13
1070
   372
1070
    13
1002
}
  0
DIMENSION
  5
34C
  8
回02-寸法
  6
CONTINUOUS
 62
     7
  2
*D6767
 10
1496.802229153111
 20
592.8274335547617
 30
0.0
 11
1490.359042195107
 21
592.8274335547617
 31
0.0
 70
   160
  3
STANDARD
 13
1504.702229153111
 23
564.5101462294688
 33
0.0
 14
1496.802229153111
 24
570.7601462294754
 34
0.0
1001
ACAD
1000
DSTYLE
1002
{
1070
    41
1040
1.5
1070
    47
1040
0.3
1070
    48
1040
0.3
1070
   140
1040
4.0
1070
   141
1040
1.5
1070
   146
1040
0.7
1070
   283
1070
     0
1070
   288
1070
     0
1070
   341
1005
0
1070
   371
1070
    13
1070
   372
1070
    13
1002
}
  0
DIMENSION
  5
35D
  8
回02-寸法
  6
CONTINUOUS
 62
     7
  2
*D6868
 10
1496.802229153111
 20
585.3808052980715
 30
0.0
 11
1490.276199482633
 21
585.3808052980715
 31
0.0
 70
   160
  3
STANDARD
 13
1506.702229153111
 23
562.5101462294686
 33
0.0
 14
1496.802229153111
 24
570.7601462294754
 34
0.0
1001
ACAD
1000
DSTYLE
1002
{
1070
    41
1040
1.5
1070
    47
1040
0.3
1070
    48
1040
0.3
1070
   140
1040
4.0
1070
   141
1040
1.5
1070
   146
1040
0.7
1070
   283
1070
     0
1070
   288
1070
     0
1070
   341
1005
0
1070
   371
1070
    13
1070
   372
1070
    13
1002
}
  0
DIMENSION
  5
36E
  8
回02-寸法
  6
CONTINUOUS
 62
     7
  2
*D6969
 10
1771.939939355126
 20
570.7601462294754
 30
0.0
 11
1771.939939355126
 21
483.0601462294757
 31
0.0
 70
   160
  3
STANDARD
 13
1724.402229153111
 23
395.3601462294768
 33
0.0
 14
1724.402229153111
 24
570.7601462294754
 34
0.0
 50
90.0
1001
ACAD
1000
DSTYLE
1002
{
1070
   147
1040
0.5
1070
    72
1070
     0
1070
    71
1070
     1
1070
    41
1040
1.5
1070
    47
1040
0.3
1070
    48
1040
0.3
1070
   140
1040
4.0
1070
   141
1040
1.5
1070
   146
1040
0.7
1070
   283
1070
     0
1070
   288
1070
     0
1070
   341
1005
0
1070
   371
1070
    13
1070
   372
1070
    13
1002
}
  0
DIMENSION
  5
37D
  8
回02-寸法
  6
CONTINUOUS
 62
     7
  2
*D7070
 10
1757.82684712479
 20
401.6101462294686
 30
0.0
 11
1755.25184712479
 21
483.0601462294686
 31
0.0
 70
    32
  1
<> {\H0.75x;(VIEWING AREA)}
  3
STANDARD
 13
1720.402229153111
 23
564.5101462294688
 33
0.0
 14
1720.402229153111
 24
401.6101462294686
 34
0.0
 50
90.0
1001
ACAD
1000
DSTYLE
1002
{
1070
    41
1040
1.5
1070
    47
1040
0.3
1070
    48
1040
0.3
1070
   140
1040
4.0
1070
   141
1040
1.5
1070
   146
1040
0.7
1070
   283
1070
     0
1070
   288
1070
     0
1070
   341
1005
0
1070
   371
1070
    13
1070
   372
1070
    13
1002
}
  0
DIMENSION
  5
38C
  8
回02-寸法
  6
CONTINUOUS
 62
     7
  2
*D7171
 10
1749.475620664673
 20
562.5101462294686
 30
0.0
 11
1746.900620664673
 21
483.0601462294686
 31
0.0
 70
    32
  1
<> {\H0.75x;(ACTIVE AREA)}
  3
STANDARD
 13
1718.402229153111
 23
403.6101462294686
 33
0.0
 14
1718.402229153111
 24
562.5101462294686
 34
0.0
 50
90.0
1001
ACAD
1000
DSTYLE
1002
{
1070
    41
1040
1.5
1070
    47
1040
0.3
1070
    48
1040
0.3
1070
   140
1040
4.0
1070
   141
1040
1.5
1070
   146
1040
0.7
1070
   283
1070
     0
1070
   288
1070
     0
1070
   341
1005
0
1070
   371
1070
    13
1070
   372
1070
    13
1002
}
  0
DIMENSION
  5
39B
  8
回02-寸法
  6
CONTINUOUS
 62
     7
  2
*D7272
 10
1724.402229153111
 20
606.0086318667425
 30
0.0
 11
1610.602229153111
 21
606.0086318667425
 31
0.0
 70
   160
  3
STANDARD
 13
1496.802229153111
 23
570.7601462294754
 33
0.0
 14
1724.402229153111
 24
570.7601462294754
 34
0.0
1001
ACAD
1000
DSTYLE
1002
{
1070
   147
1040
0.5
1070
    72
1070
     0
1070
    71
1070
     1
1070
    41
1040
1.5
1070
    47
1040
0.3
1070
    48
1040
0.3
1070
   140
1040
4.0
1070
   141
1040
1.5
1070
   146
1040
0.7
1070
   283
1070
     0
1070
   288
1070
     0
1070
   341
1005
0
1070
   371
1070
    13
1070
   372
1070
    13
1002
}
  0
DIMENSION
  5
3AA
  8
回02-寸法
  6
CONTINUOUS
 62
     7
  2
*D7373
 10
1720.402229153111
 20
592.8274335547617
 30
0.0
 11
1612.552229153111
 21
595.4024335547617
 31
0.0
 70
    32
  1
<> {\H0.75x;(VIEWING AREA)}
  3
STANDARD
 13
1504.702229153111
 23
564.5101462294688
 33
0.0
 14
1720.402229153111
 24
564.5101462294688
 34
0.0
1001
ACAD
1000
DSTYLE
1002
{
1070
    41
1040
1.5
1070
    47
1040
0.3
1070
    48
1040
0.3
1070
   140
1040
4.0
1070
   141
1040
1.5
1070
   146
1040
0.7
1070
   283
1070
     0
1070
   288
1070
     0
1070
   341
1005
0
1070
   371
1070
    13
1070
   372
1070
    13
1002
}
  0
DIMENSION
  5
3B9
  8
回02-寸法
  6
CONTINUOUS
 62
     7
  2
*D7474
 10
1718.402229153111
 20
585.3808052980715
 30
0.0
 11
1612.552229153111
 21
587.9558052980716
 31
0.0
 70
    32
  1
<> {\H0.75x;(ACTIVE AREA)}
  3
STANDARD
 13
1506.702229153111
 23
562.5101462294686
 33
0.0
 14
1718.402229153111
 24
562.5101462294686
 34
0.0
1001
ACAD
1000
DSTYLE
1002
{
1070
    41
1040
1.5
1070
    47
1040
0.3
1070
    48
1040
0.3
1070
   140
1040
4.0
1070
   141
1040
1.5
1070
   146
1040
0.7
1070
   283
1070
     0
1070
   288
1070
     0
1070
   341
1005
0
1070
   371
1070
    13
1070
   372
1070
    13
1002
}
  0
POLYLINE
  5
3C8
  8
回01-TP外形
  6
PHANTOM2
 62
     7
 66
     1
 10
0.0
 20
0.0
 30
0.0
 70
     1
  0
VERTEX
  5
9EB
  8
回01-TP外形
  6
PHANTOM2
 62
     7
 10
1504.202229153111
 20
400.8101462294688
 30
0.0
  0
VERTEX
  5
9ED
  8
回01-TP外形
  6
PHANTOM2
 62
     7
 10
1720.902229153111
 20
400.8101462294688
 30
0.0
  0
VERTEX
  5
9EE
  8
回01-TP外形
  6
PHANTOM2
 62
     7
 10
1720.902229153111
 20
565.310146229469
 30
0.0
  0
VERTEX
  5
9EF
  8
回01-TP外形
  6
PHANTOM2
 62
     7
 10
1504.202229153111
 20
565.310146229469
 30
0.0
  0
SEQEND
  5
9EC
  8
0
  6
CONTINUOUS
 62
     7
  0
TEXT
  5
3CA
  8
回03-記事
  6
CONTINUOUS
 62
     7
 10
1708.694694595216
 20
485.2424708744696
 30
0.0
 40
5.0
  1
XR
  0
TEXT
  5
3CB
  8
回03-記事
  6
CONTINUOUS
 62
     7
 10
1613.336482560505
 20
554.9141995911268
 30
0.0
 40
5.0
  1
YU
  0
TEXT
  5
3CC
  8
回03-記事
  6
CONTINUOUS
 62
     7
 10
1615.546607752196
 20
406.1165941306916
 30
0.0
 40
5.0
  1
YD
  0
TEXT
  5
3CD
  8
回03-記事
  6
CONTINUOUS
 62
     7
 10
1509.166455568747
 20
485.9874803643356
 30
0.0
 40
5.0
  1
XL
  0
INSERT
  5
3CE
  8
0
  6
CONTINUOUS
 62
     7
 66
     1
  2
*X8383
 10
0.0
 20
0.0
 30
0.0
1001
ACADSTRINGINFO
1000
MIFCodePage
1070
     1
1001
ACAD_MLEADERVER
1070
     2
  0
SEQEND
  5
6AA
  8
0
  6
CONTINUOUS
 62
     7
  0
DIMENSION
  5
3D0
  8
回02-寸法
  6
CONTINUOUS
 62
     7
  2
*D7575
 10
1644.552229153111
 20
438.8849227488234
 30
0.0
 11
1642.552229153111
 21
441.3849227488235
 31
0.0
 70
    32
  3
STANDARD
 13
1640.552229153111
 23
447.0601462294767
 33
0.0
 14
1644.552229153111
 24
447.0601462294767
 34
0.0
1001
ACAD
1000
DSTYLE
1002
{
1070
    41
1040
1.5
1070
    47
1040
0.3
1070
    48
1040
0.3
1070
   140
1040
4.0
1070
   141
1040
1.5
1070
   146
1040
0.7
1070
   271
1070
     1
1070
   272
1070
     1
1070
   283
1070
     0
1070
   288
1070
     0
1070
   341
1005
0
1070
   371
1070
    13
1070
   372
1070
    13
1002
}
  0
DIMENSION
  5
3E1
  8
回02-寸法
  6
CONTINUOUS
 62
     7
  2
*D7676
 10
1658.678864768899
 20
455.0601462294767
 30
0.0
 11
1656.178864768899
 21
457.0601462294766
 31
0.0
 70
    32
  3
STANDARD
 13
1648.552229153111
 23
459.0601462294767
 33
0.0
 14
1648.552229153111
 24
455.0601462294767
 34
0.0
 50
90.0
1001
ACAD
1000
DSTYLE
1002
{
1070
    41
1040
1.5
1070
    47
1040
0.3
1070
    48
1040
0.3
1070
   140
1040
4.0
1070
   141
1040
1.5
1070
   146
1040
0.7
1070
   271
1070
     1
1070
   272
1070
     1
1070
   283
1070
     0
1070
   288
1070
     0
1070
   341
1005
0
1070
   371
1070
    13
1070
   372
1070
    13
1002
}
  0
CIRCLE
  5
3F2
  8
回03-記事
  6
CONTINUOUS
 62
     7
 10
1648.552229153111
 20
483.0601462294766
 30
0.0
 40
0.025
  0
CIRCLE
  5
3F3
  8
回03-記事
  6
CONTINUOUS
 62
     7
 10
1648.552229153111
 20
479.0601462294766
 30
0.0
 40
0.025
  0
CIRCLE
  5
3F4
  8
回03-記事
  6
CONTINUOUS
 62
     7
 10
1648.552229153111
 20
475.0601462294766
 30
0.0
 40
0.025
  0
CIRCLE
  5
3F5
  8
回03-記事
  6
CONTINUOUS
 62
     7
 10
1648.552229153111
 20
471.0601462294767
 30
0.0
 40
0.025
  0
CIRCLE
  5
3F6
  8
回03-記事
  6
CONTINUOUS
 62
     7
 10
1648.552229153111
 20
467.0601462294767
 30
0.0
 40
0.025
  0
CIRCLE
  5
3F7
  8
回03-記事
  6
CONTINUOUS
 62
     7
 10
1648.552229153111
 20
463.0601462294767
 30
0.0
 40
0.025
  0
CIRCLE
  5
3F8
  8
回03-記事
  6
CONTINUOUS
 62
     7
 10
1648.552229153111
 20
459.0601462294767
 30
0.0
 40
0.025
  0
CIRCLE
  5
3F9
  8
回03-記事
  6
CONTINUOUS
 62
     7
 10
1648.552229153111
 20
455.0601462294767
 30
0.0
 40
0.025
  0
CIRCLE
  5
3FA
  8
回03-記事
  6
CONTINUOUS
 62
     7
 10
1648.552229153111
 20
451.0601462294767
 30
0.0
 40
0.025
  0
CIRCLE
  5
3FB
  8
回03-記事
  6
CONTINUOUS
 62
     7
 10
1648.552229153111
 20
447.0601462294767
 30
0.0
 40
0.025
  0
CIRCLE
  5
3FC
  8
回03-記事
  6
CONTINUOUS
 62
     7
 10
1644.552229153111
 20
483.0601462294766
 30
0.0
 40
0.025
  0
CIRCLE
  5
3FD
  8
回03-記事
  6
CONTINUOUS
 62
     7
 10
1644.552229153111
 20
479.0601462294766
 30
0.0
 40
0.025
  0
CIRCLE
  5
3FE
  8
回03-記事
  6
CONTINUOUS
 62
     7
 10
1644.552229153111
 20
475.0601462294766
 30
0.0
 40
0.025
  0
CIRCLE
  5
3FF
  8
回03-記事
  6
CONTINUOUS
 62
     7
 10
1644.552229153111
 20
471.0601462294767
 30
0.0
 40
0.025
  0
CIRCLE
  5
400
  8
回03-記事
  6
CONTINUOUS
 62
     7
 10
1644.552229153111
 20
467.0601462294767
 30
0.0
 40
0.025
  0
CIRCLE
  5
401
  8
回03-記事
  6
CONTINUOUS
 62
     7
 10
1644.552229153111
 20
463.0601462294767
 30
0.0
 40
0.025
  0
CIRCLE
  5
402
  8
回03-記事
  6
CONTINUOUS
 62
     7
 10
1644.552229153111
 20
459.0601462294767
 30
0.0
 40
0.025
  0
CIRCLE
  5
403
  8
回03-記事
  6
CONTINUOUS
 62
     7
 10
1644.552229153111
 20
455.0601462294767
 30
0.0
 40
0.025
  0
CIRCLE
  5
404
  8
回03-記事
  6
CONTINUOUS
 62
     7
 10
1644.552229153111
 20
451.0601462294767
 30
0.0
 40
0.025
  0
CIRCLE
  5
405
  8
回03-記事
  6
CONTINUOUS
 62
     7
 10
1644.552229153111
 20
447.0601462294767
 30
0.0
 40
0.025
  0
CIRCLE
  5
406
  8
回03-記事
  6
CONTINUOUS
 62
     7
 10
1640.552229153111
 20
483.0601462294766
 30
0.0
 40
0.025
  0
CIRCLE
  5
407
  8
回03-記事
  6
CONTINUOUS
 62
     7
 10
1640.552229153111
 20
479.0601462294766
 30
0.0
 40
0.025
  0
CIRCLE
  5
408
  8
回03-記事
  6
CONTINUOUS
 62
     7
 10
1640.552229153111
 20
475.0601462294766
 30
0.0
 40
0.025
  0
CIRCLE
  5
409
  8
回03-記事
  6
CONTINUOUS
 62
     7
 10
1640.552229153111
 20
471.0601462294767
 30
0.0
 40
0.025
  0
CIRCLE
  5
40A
  8
回03-記事
  6
CONTINUOUS
 62
     7
 10
1640.552229153111
 20
467.0601462294767
 30
0.0
 40
0.025
  0
CIRCLE
  5
40B
  8
回03-記事
  6
CONTINUOUS
 62
     7
 10
1640.552229153111
 20
463.0601462294767
 30
0.0
 40
0.025
  0
CIRCLE
  5
40C
  8
回03-記事
  6
CONTINUOUS
 62
     7
 10
1640.552229153111
 20
459.0601462294767
 30
0.0
 40
0.025
  0
CIRCLE
  5
40D
  8
回03-記事
  6
CONTINUOUS
 62
     7
 10
1640.552229153111
 20
455.0601462294767
 30
0.0
 40
0.025
  0
CIRCLE
  5
40E
  8
回03-記事
  6
CONTINUOUS
 62
     7
 10
1640.552229153111
 20
451.0601462294767
 30
0.0
 40
0.025
  0
CIRCLE
  5
40F
  8
回03-記事
  6
CONTINUOUS
 62
     7
 10
1640.552229153111
 20
447.0601462294767
 30
0.0
 40
0.025
  0
CIRCLE
  5
410
  8
回03-記事
  6
CONTINUOUS
 62
     7
 10
1636.552229153111
 20
483.0601462294766
 30
0.0
 40
0.025
  0
CIRCLE
  5
411
  8
回03-記事
  6
CONTINUOUS
 62
     7
 10
1636.552229153111
 20
479.0601462294766
 30
0.0
 40
0.025
  0
CIRCLE
  5
412
  8
回03-記事
  6
CONTINUOUS
 62
     7
 10
1636.552229153111
 20
475.0601462294766
 30
0.0
 40
0.025
  0
CIRCLE
  5
413
  8
回03-記事
  6
CONTINUOUS
 62
     7
 10
1636.552229153111
 20
471.0601462294767
 30
0.0
 40
0.025
  0
CIRCLE
  5
414
  8
回03-記事
  6
CONTINUOUS
 62
     7
 10
1636.552229153111
 20
467.0601462294767
 30
0.0
 40
0.025
  0
CIRCLE
  5
415
  8
回03-記事
  6
CONTINUOUS
 62
     7
 10
1636.552229153111
 20
463.0601462294767
 30
0.0
 40
0.025
  0
CIRCLE
  5
416
  8
回03-記事
  6
CONTINUOUS
 62
     7
 10
1636.552229153111
 20
459.0601462294767
 30
0.0
 40
0.025
  0
CIRCLE
  5
417
  8
回03-記事
  6
CONTINUOUS
 62
     7
 10
1636.552229153111
 20
455.0601462294767
 30
0.0
 40
0.025
  0
CIRCLE
  5
418
  8
回03-記事
  6
CONTINUOUS
 62
     7
 10
1636.552229153111
 20
451.0601462294767
 30
0.0
 40
0.025
  0
CIRCLE
  5
419
  8
回03-記事
  6
CONTINUOUS
 62
     7
 10
1636.552229153111
 20
447.0601462294767
 30
0.0
 40
0.025
  0
CIRCLE
  5
41A
  8
回03-記事
  6
CONTINUOUS
 62
     7
 10
1632.552229153111
 20
483.0601462294766
 30
0.0
 40
0.025
  0
CIRCLE
  5
41B
  8
回03-記事
  6
CONTINUOUS
 62
     7
 10
1632.552229153111
 20
479.0601462294766
 30
0.0
 40
0.025
  0
CIRCLE
  5
41C
  8
回03-記事
  6
CONTINUOUS
 62
     7
 10
1632.552229153111
 20
475.0601462294766
 30
0.0
 40
0.025
  0
CIRCLE
  5
41D
  8
回03-記事
  6
CONTINUOUS
 62
     7
 10
1632.552229153111
 20
471.0601462294767
 30
0.0
 40
0.025
  0
CIRCLE
  5
41E
  8
回03-記事
  6
CONTINUOUS
 62
     7
 10
1632.552229153111
 20
467.0601462294767
 30
0.0
 40
0.025
  0
CIRCLE
  5
41F
  8
回03-記事
  6
CONTINUOUS
 62
     7
 10
1632.552229153111
 20
463.0601462294767
 30
0.0
 40
0.025
  0
CIRCLE
  5
420
  8
回03-記事
  6
CONTINUOUS
 62
     7
 10
1632.552229153111
 20
459.0601462294767
 30
0.0
 40
0.025
  0
CIRCLE
  5
421
  8
回03-記事
  6
CONTINUOUS
 62
     7
 10
1632.552229153111
 20
455.0601462294767
 30
0.0
 40
0.025
  0
CIRCLE
  5
422
  8
回03-記事
  6
CONTINUOUS
 62
     7
 10
1632.552229153111
 20
451.0601462294767
 30
0.0
 40
0.025
  0
CIRCLE
  5
423
  8
回03-記事
  6
CONTINUOUS
 62
     7
 10
1632.552229153111
 20
447.0601462294767
 30
0.0
 40
0.025
  0
CIRCLE
  5
424
  8
回03-記事
  6
CONTINUOUS
 62
     7
 10
1628.552229153111
 20
483.0601462294766
 30
0.0
 40
0.025
  0
CIRCLE
  5
425
  8
回03-記事
  6
CONTINUOUS
 62
     7
 10
1628.552229153111
 20
479.0601462294766
 30
0.0
 40
0.025
  0
CIRCLE
  5
426
  8
回03-記事
  6
CONTINUOUS
 62
     7
 10
1628.552229153111
 20
475.0601462294766
 30
0.0
 40
0.025
  0
CIRCLE
  5
427
  8
回03-記事
  6
CONTINUOUS
 62
     7
 10
1628.552229153111
 20
471.0601462294767
 30
0.0
 40
0.025
  0
CIRCLE
  5
428
  8
回03-記事
  6
CONTINUOUS
 62
     7
 10
1628.552229153111
 20
467.0601462294767
 30
0.0
 40
0.025
  0
CIRCLE
  5
429
  8
回03-記事
  6
CONTINUOUS
 62
     7
 10
1628.552229153111
 20
463.0601462294767
 30
0.0
 40
0.025
  0
CIRCLE
  5
42A
  8
回03-記事
  6
CONTINUOUS
 62
     7
 10
1628.552229153111
 20
459.0601462294767
 30
0.0
 40
0.025
  0
CIRCLE
  5
42B
  8
回03-記事
  6
CONTINUOUS
 62
     7
 10
1628.552229153111
 20
455.0601462294767
 30
0.0
 40
0.025
  0
CIRCLE
  5
42C
  8
回03-記事
  6
CONTINUOUS
 62
     7
 10
1628.552229153111
 20
451.0601462294767
 30
0.0
 40
0.025
  0
CIRCLE
  5
42D
  8
回03-記事
  6
CONTINUOUS
 62
     7
 10
1628.552229153111
 20
447.0601462294767
 30
0.0
 40
0.025
  0
CIRCLE
  5
42E
  8
回03-記事
  6
CONTINUOUS
 62
     7
 10
1624.552229153111
 20
483.0601462294766
 30
0.0
 40
0.025
  0
CIRCLE
  5
42F
  8
回03-記事
  6
CONTINUOUS
 62
     7
 10
1624.552229153111
 20
479.0601462294766
 30
0.0
 40
0.025
  0
CIRCLE
  5
430
  8
回03-記事
  6
CONTINUOUS
 62
     7
 10
1624.552229153111
 20
475.0601462294766
 30
0.0
 40
0.025
  0
CIRCLE
  5
431
  8
回03-記事
  6
CONTINUOUS
 62
     7
 10
1624.552229153111
 20
471.0601462294767
 30
0.0
 40
0.025
  0
CIRCLE
  5
432
  8
回03-記事
  6
CONTINUOUS
 62
     7
 10
1624.552229153111
 20
467.0601462294767
 30
0.0
 40
0.025
  0
CIRCLE
  5
433
  8
回03-記事
  6
CONTINUOUS
 62
     7
 10
1624.552229153111
 20
463.0601462294767
 30
0.0
 40
0.025
  0
CIRCLE
  5
434
  8
回03-記事
  6
CONTINUOUS
 62
     7
 10
1624.552229153111
 20
459.0601462294767
 30
0.0
 40
0.025
  0
CIRCLE
  5
435
  8
回03-記事
  6
CONTINUOUS
 62
     7
 10
1624.552229153111
 20
455.0601462294767
 30
0.0
 40
0.025
  0
CIRCLE
  5
436
  8
回03-記事
  6
CONTINUOUS
 62
     7
 10
1624.552229153111
 20
451.0601462294767
 30
0.0
 40
0.025
  0
CIRCLE
  5
437
  8
回03-記事
  6
CONTINUOUS
 62
     7
 10
1624.552229153111
 20
447.0601462294767
 30
0.0
 40
0.025
  0
CIRCLE
  5
438
  8
回03-記事
  6
CONTINUOUS
 62
     7
 10
1620.552229153111
 20
483.0601462294766
 30
0.0
 40
0.025
  0
CIRCLE
  5
439
  8
回03-記事
  6
CONTINUOUS
 62
     7
 10
1620.552229153111
 20
479.0601462294766
 30
0.0
 40
0.025
  0
CIRCLE
  5
43A
  8
回03-記事
  6
CONTINUOUS
 62
     7
 10
1620.552229153111
 20
475.0601462294766
 30
0.0
 40
0.025
  0
CIRCLE
  5
43B
  8
回03-記事
  6
CONTINUOUS
 62
     7
 10
1620.552229153111
 20
471.0601462294767
 30
0.0
 40
0.025
  0
CIRCLE
  5
43C
  8
回03-記事
  6
CONTINUOUS
 62
     7
 10
1620.552229153111
 20
467.0601462294767
 30
0.0
 40
0.025
  0
CIRCLE
  5
43D
  8
回03-記事
  6
CONTINUOUS
 62
     7
 10
1620.552229153111
 20
463.0601462294767
 30
0.0
 40
0.025
  0
CIRCLE
  5
43E
  8
回03-記事
  6
CONTINUOUS
 62
     7
 10
1620.552229153111
 20
459.0601462294767
 30
0.0
 40
0.025
  0
CIRCLE
  5
43F
  8
回03-記事
  6
CONTINUOUS
 62
     7
 10
1620.552229153111
 20
455.0601462294767
 30
0.0
 40
0.025
  0
CIRCLE
  5
440
  8
回03-記事
  6
CONTINUOUS
 62
     7
 10
1620.552229153111
 20
451.0601462294767
 30
0.0
 40
0.025
  0
CIRCLE
  5
441
  8
回03-記事
  6
CONTINUOUS
 62
     7
 10
1620.552229153111
 20
447.0601462294767
 30
0.0
 40
0.025
  0
CIRCLE
  5
442
  8
回03-記事
  6
CONTINUOUS
 62
     7
 10
1616.552229153111
 20
483.0601462294766
 30
0.0
 40
0.025
  0
CIRCLE
  5
443
  8
回03-記事
  6
CONTINUOUS
 62
     7
 10
1616.552229153111
 20
479.0601462294766
 30
0.0
 40
0.025
  0
CIRCLE
  5
444
  8
回03-記事
  6
CONTINUOUS
 62
     7
 10
1616.552229153111
 20
475.0601462294766
 30
0.0
 40
0.025
  0
CIRCLE
  5
445
  8
回03-記事
  6
CONTINUOUS
 62
     7
 10
1616.552229153111
 20
471.0601462294767
 30
0.0
 40
0.025
  0
CIRCLE
  5
446
  8
回03-記事
  6
CONTINUOUS
 62
     7
 10
1616.552229153111
 20
467.0601462294767
 30
0.0
 40
0.025
  0
CIRCLE
  5
447
  8
回03-記事
  6
CONTINUOUS
 62
     7
 10
1616.552229153111
 20
463.0601462294767
 30
0.0
 40
0.025
  0
CIRCLE
  5
448
  8
回03-記事
  6
CONTINUOUS
 62
     7
 10
1616.552229153111
 20
459.0601462294767
 30
0.0
 40
0.025
  0
CIRCLE
  5
449
  8
回03-記事
  6
CONTINUOUS
 62
     7
 10
1616.552229153111
 20
455.0601462294767
 30
0.0
 40
0.025
  0
CIRCLE
  5
44A
  8
回03-記事
  6
CONTINUOUS
 62
     7
 10
1616.552229153111
 20
451.0601462294767
 30
0.0
 40
0.025
  0
CIRCLE
  5
44B
  8
回03-記事
  6
CONTINUOUS
 62
     7
 10
1616.552229153111
 20
447.0601462294767
 30
0.0
 40
0.025
  0
CIRCLE
  5
44C
  8
回03-記事
  6
CONTINUOUS
 62
     7
 10
1612.552229153111
 20
483.0601462294766
 30
0.0
 40
0.025
  0
CIRCLE
  5
44D
  8
回03-記事
  6
CONTINUOUS
 62
     7
 10
1612.552229153111
 20
479.0601462294766
 30
0.0
 40
0.025
  0
CIRCLE
  5
44E
  8
回03-記事
  6
CONTINUOUS
 62
     7
 10
1612.552229153111
 20
475.0601462294766
 30
0.0
 40
0.025
  0
CIRCLE
  5
44F
  8
回03-記事
  6
CONTINUOUS
 62
     7
 10
1612.552229153111
 20
471.0601462294767
 30
0.0
 40
0.025
  0
CIRCLE
  5
450
  8
回03-記事
  6
CONTINUOUS
 62
     7
 10
1612.552229153111
 20
467.0601462294767
 30
0.0
 40
0.025
  0
CIRCLE
  5
451
  8
回03-記事
  6
CONTINUOUS
 62
     7
 10
1612.552229153111
 20
463.0601462294767
 30
0.0
 40
0.025
  0
CIRCLE
  5
452
  8
回03-記事
  6
CONTINUOUS
 62
     7
 10
1612.552229153111
 20
459.0601462294767
 30
0.0
 40
0.025
  0
CIRCLE
  5
453
  8
回03-記事
  6
CONTINUOUS
 62
     7
 10
1612.552229153111
 20
455.0601462294767
 30
0.0
 40
0.025
  0
CIRCLE
  5
454
  8
回03-記事
  6
CONTINUOUS
 62
     7
 10
1612.552229153111
 20
451.0601462294767
 30
0.0
 40
0.025
  0
CIRCLE
  5
455
  8
回03-記事
  6
CONTINUOUS
 62
     7
 10
1612.552229153111
 20
447.0601462294767
 30
0.0
 40
0.025
  0
LINE
  5
456
  8
回01-TP外形
  6
CENTER2
 62
     7
 10
1612.552229153111
 20
565.5101462294688
 30
0.0
 11
1612.552229153111
 21
400.6101462294687
 31
0.0
  0
LINE
  5
457
  8
回01-TP外形
  6
CENTER2
 62
     7
 10
1495.338300892663
 20
483.0601462294766
 30
0.0
 11
1725.402229153111
 21
483.0601462294766
 31
0.0
  0
POLYLINE
  5
458
  8
回01-TP外形
  6
BYBLOCK
 62
     7
 66
     1
 10
0.0
 20
0.0
 30
0.0
  0
VERTEX
  5
9F0
  8
回01-TP外形
  6
BYBLOCK
 62
     7
 10
1497.302229153111
 20
493.0710110433388
 30
0.0
  0
VERTEX
  5
9F2
  8
回01-TP外形
  6
BYBLOCK
 62
     7
 10
1500.302229153111
 20
493.0710110433388
 30
0.0
  0
VERTEX
  5
9F3
  8
回01-TP外形
  6
BYBLOCK
 62
     7
 10
1500.302229153111
 20
483.5710110433388
 30
0.0
  0
VERTEX
  5
9F4
  8
回01-TP外形
  6
BYBLOCK
 62
     7
 10
1494.802229153111
 20
483.5710110433388
 30
0.0
 42
1.021970931653833
  0
VERTEX
  5
9F5
  8
回01-TP外形
  6
BYBLOCK
 62
     7
 10
1494.823953650118
 20
482.5714832200596
 30
0.0
  0
VERTEX
  5
9F6
  8
回01-TP外形
  6
BYBLOCK
 62
     7
 10
1500.302229153111
 20
482.5710110433386
 30
0.0
  0
VERTEX
  5
9F7
  8
回01-TP外形
  6
BYBLOCK
 62
     7
 10
1500.302229153111
 20
473.0710110433387
 30
0.0
  0
VERTEX
  5
9F8
  8
回01-TP外形
  6
BYBLOCK
 62
     7
 10
1497.302229153111
 20
473.0710110433387
 30
0.0
 42
0.4142135623730951
  0
VERTEX
  5
9F9
  8
回01-TP外形
  6
BYBLOCK
 62
     7
 10
1495.302229153111
 20
475.0710110433397
 30
0.0
  0
VERTEX
  5
9FA
  8
回01-TP外形
  6
BYBLOCK
 62
     7
 10
1492.614472830451
 20
475.0710110433397
 30
0.0
 42
-0.1982610926034392
  0
VERTEX
  5
9FB
  8
回01-TP外形
  6
BYBLOCK
 62
     7
 10
1491.909140461934
 20
475.3621342910604
 30
0.0
  0
VERTEX
  5
9FC
  8
回01-TP外形
  6
BYBLOCK
 62
     7
 10
1487.598860221756
 20
479.6508631300375
 30
0.0
 42
0.1982460661155559
  0
VERTEX
  5
9FD
  8
回01-TP外形
  6
BYBLOCK
 62
     7
 10
1486.893585686098
 20
479.9419863760877
 30
0.0
  0
VERTEX
  5
9FE
  8
回01-TP外形
  6
BYBLOCK
 62
     7
 10
1417.302185642343
 20
479.9460110433397
 30
0.0
 42
-0.4142135623730951
  0
VERTEX
  5
9FF
  8
回01-TP外形
  6
BYBLOCK
 62
     7
 10
1416.802185642343
 20
480.4460110433397
 30
0.0
  0
VERTEX
  5
A00
  8
回01-TP外形
  6
BYBLOCK
 62
     7
 10
1416.802185642343
 20
485.6960110433386
 30
0.0
 42
-0.4142135623730951
  0
VERTEX
  5
A01
  8
回01-TP外形
  6
BYBLOCK
 62
     7
 10
1417.302185642343
 20
486.1960110433397
 30
0.0
  0
VERTEX
  5
A02
  8
回01-TP外形
  6
BYBLOCK
 62
     7
 10
1486.890966584333
 20
486.1960110433397
 30
0.0
 42
0.1983816813358623
  0
VERTEX
  5
A03
  8
回01-TP外形
  6
BYBLOCK
 62
     7
 10
1487.596627867425
 20
486.4874617129848
 30
0.0
  0
VERTEX
  5
A04
  8
回01-TP外形
  6
BYBLOCK
 62
     7
 10
1491.905084865621
 20
490.7783574392838
 30
0.0
 42
-0.1982655609048175
  0
VERTEX
  5
A05
  8
回01-TP外形
  6
BYBLOCK
 62
     7
 10
1492.610299244745
 20
491.0698080090678
 30
0.0
  0
VERTEX
  5
A06
  8
回01-TP外形
  6
BYBLOCK
 62
     7
 10
1495.303122961043
 20
491.0710114427856
 30
0.0
 42
0.4140826732844626
  0
VERTEX
  5
A07
  8
回01-TP外形
  6
BYBLOCK
 62
     7
 10
1497.302229153111
 20
493.0710112430623
 30
0.0
  0
SEQEND
  5
9F1
  8
0
  6
CONTINUOUS
 62
     7
  0
INSERT
  5
459
  8
回03-記事
  6
CONTINUOUS
 62
     7
 66
     1
  2
*X8484
 10
0.0
 20
0.0
 30
0.0
1001
ACAD
1000
HATCH
1002
{
1070
    19
1000
ANSI31
1040
0.5
1040
6.283185307179585
1000
ASC_BOUNDS
1070
     1
1070
     2
1070
     1
1005
45A
1000
ASC_SEEDPOINT
1011
1746.007036195001
1021
266.0713429621686
1031
0.0
1000
R14_HATCH_DATA
1000
459
1011
1.0
1021
0.0
1031
0.0
1011
0.0
1021
1.0
1031
0.0
1011
0.0
1021
0.0
1031
1.0
1040
0.0
1010
0.0
1020
0.0
1030
1.0
1000
ANSI31
1070
     0
1070
     1
1071
        1
1071
        1
1071
        4
1070
     1
1040
1500.902229153111
1040
481.8210110433388
1040
1492.702229153112
1040
481.8210110433388
1070
     1
1040
1492.702229153112
1040
481.8210110433388
1040
1492.702229153112
1040
475.8210110433386
1070
     1
1040
1492.702229153112
1040
475.8210110433386
1040
1500.902229153111
1040
475.8210110433386
1070
     1
1040
1500.902229153111
1040
475.8210110433386
1040
1500.902229153111
1040
481.8210110433388
1071
        1
1005
45A
1070
     0
1070
     1
1040
6.283185307179585
1040
0.5
1070
     0
1070
     1
1040
0.7853981633974483
1040
1746.007036195001
1040
266.0713429621686
1040
-1.122532015133643
1040
1.122532015133643
1070
     0
1071
        1
1040
1746.007036195001
1040
266.0713429621686
1040
0.0
1002
}
  0
SEQEND
  5
6CC
  8
0
  6
CONTINUOUS
 62
     7
  0
POLYLINE
  5
45A
  8
回03-記事
  6
CONTINUOUS
 62
     7
 66
     1
 10
0.0
 20
0.0
 30
0.0
 70
     1
1001
ACAD
1000
ASC_BOUNDS
1002
{
1070
    19
1005
459
1002
}
  0
VERTEX
  5
A08
  8
回03-記事
  6
CONTINUOUS
 62
     7
 10
1500.902229153111
 20
481.8210110433388
 30
0.0
  0
VERTEX
  5
A0A
  8
回03-記事
  6
CONTINUOUS
 62
     7
 10
1492.702229153112
 20
481.8210110433388
 30
0.0
  0
VERTEX
  5
A0B
  8
回03-記事
  6
CONTINUOUS
 62
     7
 10
1492.702229153112
 20
475.8210110433386
 30
0.0
  0
VERTEX
  5
A0C
  8
回03-記事
  6
CONTINUOUS
 62
     7
 10
1500.902229153111
 20
475.8210110433386
 30
0.0
  0
SEQEND
  5
A09
  8
0
  6
CONTINUOUS
 62
     7
  0
POLYLINE
  5
45B
  8
回01-TP外形
  6
CONTINUOUS
 62
     7
 66
     1
 10
0.0
 20
0.0
 30
0.0
 70
     1
  0
VERTEX
  5
A0D
  8
回01-TP外形
  6
CONTINUOUS
 62
     7
 10
1496.802229153111
 20
570.7601462294765
 30
0.0
  0
VERTEX
  5
A0F
  8
回01-TP外形
  6
CONTINUOUS
 62
     7
 10
1724.402229153111
 20
570.7601462294765
 30
0.0
  0
VERTEX
  5
A10
  8
回01-TP外形
  6
CONTINUOUS
 62
     7
 10
1724.402229153111
 20
395.3601462294768
 30
0.0
  0
VERTEX
  5
A11
  8
回01-TP外形
  6
CONTINUOUS
 62
     7
 10
1496.802229153111
 20
395.3601462294768
 30
0.0
  0
SEQEND
  5
A0E
  8
0
  6
CONTINUOUS
 62
     7
  0
POLYLINE
  5
45C
  8
回01-TP外形
  6
CONTINUOUS
 62
     7
 66
     1
 10
0.0
 20
0.0
 30
0.0
 70
     1
  0
VERTEX
  5
A12
  8
回01-TP外形
  6
CONTINUOUS
 62
     7
 10
1504.702229153111
 20
401.6101462294686
 30
0.0
  0
VERTEX
  5
A14
  8
回01-TP外形
  6
CONTINUOUS
 62
     7
 10
1720.402229153111
 20
401.6101462294686
 30
0.0
  0
VERTEX
  5
A15
  8
回01-TP外形
  6
CONTINUOUS
 62
     7
 10
1720.402229153111
 20
564.5101462294688
 30
0.0
  0
VERTEX
  5
A16
  8
回01-TP外形
  6
CONTINUOUS
 62
     7
 10
1504.702229153111
 20
564.5101462294688
 30
0.0
  0
SEQEND
  5
A13
  8
0
  6
CONTINUOUS
 62
     7
  0
POLYLINE
  5
45D
  8
回01-TP外形
  6
CONTINUOUS
 62
     7
 66
     1
 10
0.0
 20
0.0
 30
0.0
 70
     1
  0
VERTEX
  5
A17
  8
回01-TP外形
  6
CONTINUOUS
 62
     7
 10
1506.702229153111
 20
403.6101462294686
 30
0.0
  0
VERTEX
  5
A19
  8
回01-TP外形
  6
CONTINUOUS
 62
     7
 10
1718.402229153111
 20
403.6101462294686
 30
0.0
  0
VERTEX
  5
A1A
  8
回01-TP外形
  6
CONTINUOUS
 62
     7
 10
1718.402229153111
 20
562.5101462294686
 30
0.0
  0
VERTEX
  5
A1B
  8
回01-TP外形
  6
CONTINUOUS
 62
     7
 10
1506.702229153111
 20
562.5101462294686
 30
0.0
  0
SEQEND
  5
A18
  8
0
  6
CONTINUOUS
 62
     7
  0
ENDSEC
  0
EOF
