  0
SECTION
  2
HEADER
  9
$ACADVER
  1
AC1009
  9
$INSBASE
 10
0.0
 20
0.0
 30
0.0
  9
$EXTMIN
 10
3389.689682232372
 20
1042.395621288704
 30
0.0
  9
$EXTMAX
 10
4199.689682232373
 20
1592.395621288704
 30
0.0
  9
$LIMMIN
 10
0.0
 20
0.0
  9
$LIMMAX
 10
880.0
 20
620.0
  9
$ORTHOMODE
 70
     0
  9
$REGENMODE
 70
     1
  9
$FILLMODE
 70
     1
  9
$QTEXTMODE
 70
     0
  9
$MIRRTEXT
 70
     1
  9
$DRAGMODE
 70
     2
  9
$LTSCALE
 40
2.087542087542086
  9
$OSMODE
 70
    37
  9
$ATTMODE
 70
     1
  9
$TEXTSIZE
 40
8.0
  9
$TRACEWID
 40
1.0
  9
$TEXTSTYLE
  7
STANDARD
  9
$CLAYER
  8
回07-寸法
  9
$CELTYPE
  6
CONTINUOUS
  9
$CECOLOR
 62
     7
  9
$DIMSCALE
 40
1.0
  9
$DIMASZ
 40
1.5
  9
$DIMEXO
 40
0.0
  9
$DIMDLI
 40
0.0
  9
$DIMRND
 40
0.0
  9
$DIMDLE
 40
0.0
  9
$DIMEXE
 40
1.0
  9
$DIMTP
 40
0.3
  9
$DIMTM
 40
0.3
  9
$DIMTXT
 40
8.0
  9
$DIMCEN
 40
1.5
  9
$DIMTSZ
 40
0.0
  9
$DIMTOL
 70
     0
  9
$DIMLIM
 70
     0
  9
$DIMTIH
 70
     0
  9
$DIMTOH
 70
     0
  9
$DIMSE1
 70
     0
  9
$DIMSE2
 70
     0
  9
$DIMTAD
 70
     3
  9
$DIMZIN
 70
     8
  9
$DIMBLK
  1

  9
$DIMASO
 70
     1
  9
$DIMSHO
 70
     1
  9
$DIMPOST
  1

  9
$DIMAPOST
  1

  9
$DIMALT
 70
     0
  9
$DIMALTD
 70
     2
  9
$DIMALTF
 40
25.4
  9
$DIMLFAC
 40
1.0
  9
$DIMTOFL
 70
     1
  9
$DIMTVP
 40
0.0
  9
$DIMTIX
 70
     0
  9
$DIMSOXD
 70
     0
  9
$DIMSAH
 70
     1
  9
$DIMBLK1
  1
OPEN
  9
$DIMBLK2
  1
OPEN
  9
$DIMSTYLE
  2
STANDARD
  9
$DIMCLRD
 70
     5
  9
$DIMCLRE
 70
     5
  9
$DIMCLRT
 70
     5
  9
$DIMTFAC
 40
0.7
  9
$DIMGAP
 40
0.5
  9
$LUNITS
 70
     2
  9
$LUPREC
 70
     4
  9
$SKETCHINC
 40
1.0
  9
$FILLETRAD
 40
0.5
  9
$AUNITS
 70
     0
  9
$AUPREC
 70
     0
  9
$MENU
  1
.
  9
$ELEVATION
 40
0.0
  9
$PELEVATION
 40
0.0
  9
$THICKNESS
 40
0.0
  9
$LIMCHECK
 70
     0
  9
$BLIPMODE
 70
     0
  9
$CHAMFERA
 40
1.7
  9
$CHAMFERB
 40
1.7
  9
$SKPOLY
 70
     0
  9
$TDCREATE
 40
2450431.727493866
  9
$TDUPDATE
 40
2460207.366322639
  9
$TDINDWG
 40
6.598217928
  9
$TDUSRTIMER
 40
6.598214838
  9
$USRTIMER
 70
     1
  9
$ANGBASE
 50
0.0
  9
$ANGDIR
 70
     0
  9
$PDMODE
 70
    34
  9
$PDSIZE
 40
0.0
  9
$PLINEWID
 40
2.0
  9
$COORDS
 70
     0
  9
$SPLFRAME
 70
     0
  9
$SPLINETYPE
 70
     6
  9
$SPLINESEGS
 70
     8
  9
$ATTDIA
 70
     1
  9
$ATTREQ
 70
     1
  9
$HANDLING
 70
     1
  9
$HANDSEED
  5
AC0
  9
$SURFTAB1
 70
     6
  9
$SURFTAB2
 70
     6
  9
$SURFTYPE
 70
     6
  9
$SURFU
 70
     6
  9
$SURFV
 70
     6
  9
$UCSNAME
  2

  9
$UCSORG
 10
0.0
 20
0.0
 30
0.0
  9
$UCSXDIR
 10
1.0
 20
0.0
 30
0.0
  9
$UCSYDIR
 10
0.0
 20
1.0
 30
0.0
  9
$PUCSNAME
  2

  9
$PUCSORG
 10
0.0
 20
0.0
 30
0.0
  9
$PUCSXDIR
 10
1.0
 20
0.0
 30
0.0
  9
$PUCSYDIR
 10
0.0
 20
1.0
 30
0.0
  9
$USERI1
 70
     0
  9
$USERI2
 70
     0
  9
$USERI3
 70
     0
  9
$USERI4
 70
     0
  9
$USERI5
 70
     0
  9
$USERR1
 40
0.0
  9
$USERR2
 40
0.0
  9
$USERR3
 40
0.0
  9
$USERR4
 40
0.0
  9
$USERR5
 40
0.0
  9
$WORLDVIEW
 70
     1
  9
$SHADEDGE
 70
     3
  9
$SHADEDIF
 70
    70
  9
$TILEMODE
 70
     1
  9
$MAXACTVP
 70
    16
  9
$PLIMCHECK
 70
     0
  9
$PEXTMIN
 10
1.000000000000000E+20
 20
1.000000000000000E+20
 30
1.000000000000000E+20
  9
$PEXTMAX
 10
-1.000000000000000E+20
 20
-1.000000000000000E+20
 30
-1.000000000000000E+20
  9
$PLIMMIN
 10
0.0
 20
0.0
  9
$PLIMMAX
 10
420.0
 20
297.0
  9
$UNITMODE
 70
     0
  9
$VISRETAIN
 70
     0
  9
$PLINEGEN
 70
     0
  9
$PSLTSCALE
 70
     1
  0
ENDSEC
  0
SECTION
  2
TABLES
  0
TABLE
  2
VPORT
 70
     1
  0
VPORT
  2
*ACTIVE
 70
     0
 10
0.0
 20
0.0
 11
1.0
 21
1.0
 12
3795.378239704016
 22
1280.121900185061
 13
0.0
 23
0.0
 14
1.0
 24
1.0
 15
5.0
 25
5.0
 16
0.0
 26
0.0
 36
1.0
 17
0.0
 27
0.0
 37
0.0
 40
851.8307009032445
 41
2.16030534351145
 42
50.0
 43
0.0
 44
0.0
 50
0.0
 51
0.0
 71
     0
 72
   100
 73
     1
 74
     0
 75
     0
 76
     0
 77
     0
 78
     0
  0
ENDTAB
  0
TABLE
  2
LTYPE
 70
     3
  0
LTYPE
  2
CONTINUOUS
 70
     0
  3
Solid line
 72
    65
 73
     0
 40
0.0
  0
LTYPE
  2
CENTER2
 70
     0
  3
___ _ ___ _ ___ _ ___ _ ___ _ ___ _ ___ _ ___ _
 72
    65
 73
     4
 40
1.125
 49
0.75
 49
-0.125
 49
0.125
 49
-0.125
  0
LTYPE
  2
PHANTOM2
 70
     0
  3
Phantom (.5x) ___ _ _ ___ _ _ ___ _ _ ___ _ _
 72
    65
 73
     6
 40
1.25
 49
0.625
 49
-0.125
 49
0.125
 49
-0.125
 49
0.125
 49
-0.125
  0
ENDTAB
  0
TABLE
  2
LAYER
 70
     9
  0
LAYER
  2
0
 70
     0
 62
     7
  6
CONTINUOUS
  0
LAYER
  2
DEFPOINTS
 70
     0
 62
     7
  6
CONTINUOUS
  0
LAYER
  2
回08-記事
 70
     0
 62
     7
  6
CONTINUOUS
  0
LAYER
  2
回07-寸法
 70
     0
 62
     7
  6
CONTINUOUS
  0
LAYER
  2
回04-下接
 70
     0
 62
     7
  6
CONTINUOUS
  0
LAYER
  2
回05-ﾃｰﾙ
 70
     0
 62
     7
  6
CONTINUOUS
  0
LAYER
  2
回04-図面枠
 70
     0
 62
     7
  6
CONTINUOUS
  0
LAYER
  2
回02-寸法
 70
     0
 62
     7
  6
CONTINUOUS
  0
LAYER
  2
回03-記事
 70
     0
 62
     7
  6
CONTINUOUS
  0
ENDTAB
  0
TABLE
  2
STYLE
 70
     2
  0
STYLE
  2
STANDARD
 70
     0
 40
8.0
 41
1.0
 50
0.0
 71
     0
 42
8.0
  3
isocp.shx
  4
bigfont.shx
  0
STYLE
  2
ANNOTATIVE
 70
     0
 40
0.0
 41
1.0
 50
0.0
 71
     0
 42
0.2
  3
txt.shx
  4

  0
ENDTAB
  0
TABLE
  2
VIEW
 70
     0
  0
ENDTAB
  0
TABLE
  2
UCS
 70
     0
  0
ENDTAB
  0
TABLE
  2
APPID
 70
     7
  0
APPID
  2
ACAD
 70
     0
  0
APPID
  2
ACADANNOTATIVE
 70
     0
  0
APPID
  2
ACAD_PSEXT
 70
     0
  0
APPID
  2
ACAECLAYERSTANDARD
 70
     0
  0
APPID
  2
ACADSTRINGINFO
 70
     0
  0
APPID
  2
ACAD_MLEADERVER
 70
     0
  0
APPID
  2
ACAD_NAV_VCDISPLAY
 70
     0
  0
ENDTAB
  0
TABLE
  2
DIMSTYLE
 70
     2
  0
DIMSTYLE
  2
STANDARD
 70
     0
  3

  4

  5

  6
OPEN
  7
OPEN
 40
1.0
 41
2.0
 42
0.0
 43
0.0
 44
1.0
 45
0.0
 46
0.0
 47
0.0
 48
0.0
140
3.0
141
2.0
142
0.0
143
25.4
144
1.0
145
0.0
146
1.0
147
0.5
 71
     0
 72
     0
 73
     0
 74
     0
 75
     0
 76
     0
 77
     3
 78
     8
170
     0
171
     2
172
     1
173
     1
174
     0
175
     0
176
     5
177
     5
178
     5
  0
DIMSTYLE
  2
DMC
 70
     0
  3

  4

  5
OPEN
  6

  7

 40
1.0
 41
2.0
 42
0.0
 43
0.0
 44
1.0
 45
0.0
 46
0.0
 47
0.0
 48
0.0
140
3.0
141
2.0
142
0.0
143
0.03937007874016
144
1.0
145
0.0
146
0.7
147
0.5
 71
     0
 72
     0
 73
     0
 74
     0
 75
     0
 76
     0
 77
     3
 78
     8
170
     0
171
     3
172
     1
173
     0
174
     0
175
     0
176
     5
177
     5
178
     5
  0
ENDTAB
  0
ENDSEC
  0
SECTION
  2
BLOCKS
  0
BLOCK
  8
0
  2
$MODEL_SPACE
 70
     0
 10
0.0
 20
0.0
 30
0.0
  3
$MODEL_SPACE
  1

  0
ENDBLK
  8
0
  5
23
  0
BLOCK
 67
     1
  8
0
  2
$PAPER_SPACE
 70
     0
 10
0.0
 20
0.0
 30
0.0
  3
$PAPER_SPACE
  1

  0
ENDBLK
  5
29
 67
     1
  8
0
  0
BLOCK
  8
0
  2
_OPEN
 70
     0
 10
0.0
 20
0.0
 30
0.0
  3
_OPEN
  1

  0
LINE
  5
85D
  8
0
  6
BYBLOCK
 62
     0
 10
-1.0
 20
0.166667
 30
0.0
 11
0.0
 21
0.0
 31
0.0
  0
LINE
  5
85E
  8
0
  6
BYBLOCK
 62
     0
 10
-1.0
 20
-0.166667
 30
0.0
 11
0.0
 21
0.0
 31
0.0
  0
LINE
  5
85F
  8
0
  6
BYBLOCK
 62
     0
 10
0.0
 20
0.0
 30
0.0
 11
-1.0
 21
0.0
 31
0.0
  0
LINE
  5
16
  8
0
  6
BYBLOCK
 62
     0
 10
-1.0
 20
0.1666666666666666
 30
0.0
 11
0.0
 21
0.0
 31
0.0
  0
LINE
  5
18
  8
0
  6
BYBLOCK
 62
     0
 10
0.0
 20
0.0
 30
0.0
 11
-1.0
 21
-0.1666666666666666
 31
0.0
  0
LINE
  5
19
  8
0
  6
BYBLOCK
 62
     0
 10
0.0
 20
0.0
 30
0.0
 11
-1.0
 21
0.0
 31
0.0
  0
ENDBLK
  5
1A
  8
0
  0
BLOCK
  8
0
  2
*D11
 70
     1
 10
0.0
 20
0.0
 30
0.0
  3
*D11
  1

  0
LINE
  5
138
  8
回08-記事
  6
CONTINUOUS
 62
     5
 10
2166.127301159562
 20
-1814.343163539768
 30
0.0
 11
2176.007027194555
 21
-1814.343163539768
 31
0.0
  0
LINE
  5
139
  8
回08-記事
  6
CONTINUOUS
 62
     5
 10
2166.627301159562
 20
-1827.34316353977
 30
0.0
 11
2176.007027194555
 21
-1827.34316353977
 31
0.0
  0
LINE
  5
13A
  8
回08-記事
  6
CONTINUOUS
 62
     5
 10
2175.007027194555
 20
-1812.843163539769
 30
0.0
 11
2175.007027194555
 21
-1811.343163539769
 31
0.0
  0
LINE
  5
13B
  8
回08-記事
  6
CONTINUOUS
 62
     5
 10
2175.007027194555
 20
-1828.84316353977
 30
0.0
 11
2175.007027194555
 21
-1857.361697004337
 31
0.0
  0
LINE
  5
13C
  8
回08-記事
  6
CONTINUOUS
 62
     5
 10
2175.007027194555
 20
-1814.343163539768
 30
0.0
 11
2175.007027194555
 21
-1827.34316353977
 31
0.0
  0
INSERT
  5
13D
  8
回08-記事
  6
CONTINUOUS
 62
     5
 66
     1
  2
_OPEN
 10
2175.007027194555
 20
-1814.343163539768
 30
0.0
 41
1.5
 42
1.5
 43
1.5
 50
270.0
  0
SEQEND
  5
13E
  8
回07-寸法
  6
CONTINUOUS
 62
     7
  0
INSERT
  5
13F
  8
回08-記事
  6
CONTINUOUS
 62
     5
 66
     1
  2
_OPEN
 10
2175.007027194555
 20
-1827.34316353977
 30
0.0
 41
1.5
 42
1.5
 43
1.5
 50
90.0
  0
SEQEND
  5
140
  8
回07-寸法
  6
CONTINUOUS
 62
     7
  0
INSERT
  5
141
  8
回08-記事
  6
CONTINUOUS
 62
     5
 66
     1
  2
*X8484
 10
0.0
 20
0.0
 30
0.0
  0
SEQEND
  5
732
  8
回07-寸法
  6
CONTINUOUS
 62
     7
  0
POINT
  5
142
  8
DEFPOINTS
  6
CONTINUOUS
 62
     0
 10
2166.127301159562
 20
-1814.343163539768
 30
0.0
  0
POINT
  5
143
  8
DEFPOINTS
  6
CONTINUOUS
 62
     0
 10
2166.627301159562
 20
-1827.34316353977
 30
0.0
  0
POINT
  5
144
  8
DEFPOINTS
  6
CONTINUOUS
 62
     0
 10
2175.007027194555
 20
-1827.34316353977
 30
0.0
  0
ENDBLK
  5
145
  8
0
 62
     7
  0
BLOCK
  8
0
  2
*D22
 70
     1
 10
0.0
 20
0.0
 30
0.0
  3
*D22
  1

  0
LINE
  5
11E
  8
回08-記事
  6
CONTINUOUS
 62
     5
 10
2166.127301159562
 20
-1814.343163539767
 30
0.0
 11
2166.127301159562
 21
-1805.16479245814
 31
0.0
  0
LINE
  5
11F
  8
回08-記事
  6
CONTINUOUS
 62
     5
 10
2166.627301159561
 20
-1821.343163539767
 30
0.0
 11
2166.627301159561
 21
-1805.16479245814
 31
0.0
  0
LINE
  5
120
  8
回08-記事
  6
CONTINUOUS
 62
     5
 10
2164.627301159562
 20
-1806.16479245814
 30
0.0
 11
2163.127301159561
 21
-1806.16479245814
 31
0.0
  0
LINE
  5
121
  8
回08-記事
  6
CONTINUOUS
 62
     5
 10
2168.127301159561
 20
-1806.16479245814
 30
0.0
 11
2188.221001946963
 21
-1806.16479245814
 31
0.0
  0
LINE
  5
122
  8
回08-記事
  6
CONTINUOUS
 62
     5
 10
2166.127301159562
 20
-1806.16479245814
 30
0.0
 11
2166.627301159561
 21
-1806.16479245814
 31
0.0
  0
INSERT
  5
123
  8
回08-記事
  6
CONTINUOUS
 62
     5
 66
     1
  2
_OPEN
 10
2166.127301159562
 20
-1806.16479245814
 30
0.0
 41
1.5
 42
1.5
 43
1.5
  0
SEQEND
  5
124
  8
回07-寸法
  6
CONTINUOUS
 62
     7
  0
INSERT
  5
125
  8
回08-記事
  6
CONTINUOUS
 62
     5
 66
     1
  2
_OPEN
 10
2166.627301159561
 20
-1806.16479245814
 30
0.0
 41
1.5
 42
1.5
 43
1.5
 50
180.0
  0
SEQEND
  5
126
  8
回07-寸法
  6
CONTINUOUS
 62
     7
  0
TEXT
  5
127
  8
回08-記事
  6
CONTINUOUS
 62
     5
 10
2168.924151553262
 20
-1805.26479245814
 30
0.0
 40
8.0
  1
(0.5)
1001
ACAD
1000
MTEXTBEGIN
1070
    73
1070
     1
1070
    44
1040
1.0
1070
    74
1070
     0
1000
MTEXTEND
  0
POINT
  5
128
  8
DEFPOINTS
  6
CONTINUOUS
 62
     0
 10
2166.127301159562
 20
-1814.343163539767
 30
0.0
  0
POINT
  5
129
  8
DEFPOINTS
  6
CONTINUOUS
 62
     0
 10
2166.627301159561
 20
-1821.343163539767
 30
0.0
  0
POINT
  5
12A
  8
DEFPOINTS
  6
CONTINUOUS
 62
     0
 10
2166.627301159561
 20
-1806.16479245814
 30
0.0
  0
ENDBLK
  5
12B
  8
0
 62
     7
  0
BLOCK
  8
0
  2
*D33
 70
     1
 10
0.0
 20
0.0
 30
0.0
  3
*D33
  1

  0
LINE
  5
10D
  8
回08-記事
  6
CONTINUOUS
 62
     5
 10
1738.127301159561
 20
-1821.343163539767
 30
0.0
 11
1738.127301159561
 21
-1808.748062481608
 31
0.0
  0
LINE
  5
10E
  8
回08-記事
  6
CONTINUOUS
 62
     5
 10
1738.627301159561
 20
-1814.343163539767
 30
0.0
 11
1738.627301159561
 21
-1808.748062481608
 31
0.0
  0
LINE
  5
10F
  8
回08-記事
  6
CONTINUOUS
 62
     5
 10
1736.627301159561
 20
-1809.748062481608
 30
0.0
 11
1735.127301159561
 21
-1809.748062481608
 31
0.0
  0
LINE
  5
110
  8
回08-記事
  6
CONTINUOUS
 62
     5
 10
1740.127301159561
 20
-1809.748062481608
 30
0.0
 11
1760.221001946962
 21
-1809.748062481608
 31
0.0
  0
LINE
  5
111
  8
回08-記事
  6
CONTINUOUS
 62
     5
 10
1738.127301159561
 20
-1809.748062481608
 30
0.0
 11
1738.627301159561
 21
-1809.748062481608
 31
0.0
  0
INSERT
  5
112
  8
回08-記事
  6
CONTINUOUS
 62
     5
 66
     1
  2
_OPEN
 10
1738.127301159561
 20
-1809.748062481608
 30
0.0
 41
1.5
 42
1.5
 43
1.5
  0
SEQEND
  5
113
  8
回07-寸法
  6
CONTINUOUS
 62
     7
  0
INSERT
  5
114
  8
回08-記事
  6
CONTINUOUS
 62
     5
 66
     1
  2
_OPEN
 10
1738.627301159561
 20
-1809.748062481608
 30
0.0
 41
1.5
 42
1.5
 43
1.5
 50
180.0
  0
SEQEND
  5
115
  8
回07-寸法
  6
CONTINUOUS
 62
     7
  0
TEXT
  5
116
  8
回08-記事
  6
CONTINUOUS
 62
     5
 10
1740.924151553262
 20
-1808.848062481608
 30
0.0
 40
8.0
  1
(0.5)
1001
ACAD
1000
MTEXTBEGIN
1070
    73
1070
     1
1070
    44
1040
1.0
1070
    74
1070
     0
1000
MTEXTEND
  0
POINT
  5
117
  8
DEFPOINTS
  6
CONTINUOUS
 62
     0
 10
1738.127301159561
 20
-1821.343163539767
 30
0.0
  0
POINT
  5
118
  8
DEFPOINTS
  6
CONTINUOUS
 62
     0
 10
1738.627301159561
 20
-1814.343163539767
 30
0.0
  0
POINT
  5
119
  8
DEFPOINTS
  6
CONTINUOUS
 62
     0
 10
1738.627301159561
 20
-1809.748062481608
 30
0.0
  0
ENDBLK
  5
11A
  8
0
 62
     7
  0
BLOCK
  8
0
  2
*D44
 70
     1
 10
0.0
 20
0.0
 30
0.0
  3
*D44
  1

  0
LINE
  5
210
  8
回07-寸法
  6
CONTINUOUS
 62
     5
 10
1733.935371251197
 20
-1633.272018693167
 30
0.0
 11
1709.565613323759
 21
-1633.272018693167
 31
0.0
  0
LINE
  5
211
  8
回07-寸法
  6
CONTINUOUS
 62
     5
 10
1733.939544836903
 20
-1649.270815658895
 30
0.0
 11
1709.565613323759
 21
-1649.270815658895
 31
0.0
  0
LINE
  5
212
  8
回07-寸法
  6
CONTINUOUS
 62
     5
 10
1710.565613323759
 20
-1631.772018693167
 30
0.0
 11
1710.565613323759
 21
-1630.272018693167
 31
0.0
  0
LINE
  5
213
  8
回07-寸法
  6
CONTINUOUS
 62
     5
 10
1710.565613323759
 20
-1650.770815658896
 30
0.0
 11
1710.565613323759
 21
-1662.880105669608
 31
0.0
  0
LINE
  5
214
  8
回07-寸法
  6
CONTINUOUS
 62
     5
 10
1710.565613323759
 20
-1633.272018693167
 30
0.0
 11
1710.565613323759
 21
-1649.270815658895
 31
0.0
  0
INSERT
  5
215
  8
回07-寸法
  6
CONTINUOUS
 62
     5
 66
     1
  2
_OPEN
 10
1710.565613323759
 20
-1633.272018693167
 30
0.0
 41
1.5
 42
1.5
 43
1.5
 50
270.0
  0
SEQEND
  5
216
  8
回07-寸法
  6
CONTINUOUS
 62
     7
  0
INSERT
  5
217
  8
回07-寸法
  6
CONTINUOUS
 62
     5
 66
     1
  2
_OPEN
 10
1710.565613323759
 20
-1649.270815658895
 30
0.0
 41
1.5
 42
1.5
 43
1.5
 50
90.0
  0
SEQEND
  5
218
  8
回07-寸法
  6
CONTINUOUS
 62
     7
  0
TEXT
  5
219
  8
回07-寸法
  6
CONTINUOUS
 62
     5
 10
1710.065613323758
 20
-1663.385020586494
 30
0.0
 40
8.0
  1
16
 50
90.0
1001
ACAD
1000
MTEXTBEGIN
1070
    73
1070
     1
1070
    44
1040
1.0
1070
    74
1070
     0
1000
MTEXTEND
  0
POINT
  5
21A
  8
DEFPOINTS
  6
CONTINUOUS
 62
     0
 10
1733.935371251197
 20
-1633.272018693167
 30
0.0
  0
POINT
  5
21B
  8
DEFPOINTS
  6
CONTINUOUS
 62
     0
 10
1733.939544836903
 20
-1649.270815658895
 30
0.0
  0
POINT
  5
21C
  8
DEFPOINTS
  6
CONTINUOUS
 62
     0
 10
1710.565613323759
 20
-1649.270815658895
 30
0.0
  0
ENDBLK
  5
21D
  8
0
 62
     7
  0
BLOCK
  8
0
  2
*D55
 70
     1
 10
0.0
 20
0.0
 30
0.0
  3
*D55
  1

  0
LINE
  5
201
  8
回07-寸法
  6
CONTINUOUS
 62
     5
 10
1738.127301159561
 20
-1632.593691114704
 30
0.0
 11
1738.127301159561
 21
-1610.365434803915
 31
0.0
  0
LINE
  5
202
  8
回07-寸法
  6
CONTINUOUS
 62
     5
 10
1658.127257648794
 20
-1638.645815658895
 30
0.0
 11
1658.127257648794
 21
-1610.365434803915
 31
0.0
  0
LINE
  5
203
  8
回07-寸法
  6
CONTINUOUS
 62
     5
 10
1736.627301159561
 20
-1611.365434803914
 30
0.0
 11
1659.627257648794
 21
-1611.365434803914
 31
0.0
  0
INSERT
  5
204
  8
回07-寸法
  6
CONTINUOUS
 62
     5
 66
     1
  2
_OPEN
 10
1738.127301159561
 20
-1611.365434803914
 30
0.0
 41
1.5
 42
1.5
 43
1.5
  0
SEQEND
  5
205
  8
回07-寸法
  6
CONTINUOUS
 62
     7
  0
INSERT
  5
206
  8
回07-寸法
  6
CONTINUOUS
 62
     5
 66
     1
  2
_OPEN
 10
1658.127257648794
 20
-1611.365434803914
 30
0.0
 41
1.5
 42
1.5
 43
1.5
 50
180.0
  0
SEQEND
  5
207
  8
回07-寸法
  6
CONTINUOUS
 62
     7
  0
INSERT
  5
208
  8
回07-寸法
  6
CONTINUOUS
 62
     5
 66
     1
  2
*X8585
 10
0.0
 20
0.0
 30
0.0
  0
SEQEND
  5
738
  8
回07-寸法
  6
CONTINUOUS
 62
     7
  0
POINT
  5
209
  8
DEFPOINTS
  6
CONTINUOUS
 62
     0
 10
1738.127301159561
 20
-1632.593691114704
 30
0.0
  0
POINT
  5
20A
  8
DEFPOINTS
  6
CONTINUOUS
 62
     0
 10
1658.127257648794
 20
-1638.645815658895
 30
0.0
  0
POINT
  5
20B
  8
DEFPOINTS
  6
CONTINUOUS
 62
     0
 10
1658.127257648794
 20
-1611.365434803914
 30
0.0
  0
ENDBLK
  5
20C
  8
0
 62
     7
  0
BLOCK
  8
0
  2
*D66
 70
     1
 10
0.0
 20
0.0
 30
0.0
  3
*D66
  1

  0
LINE
  5
1F0
  8
回07-寸法
  6
CONTINUOUS
 62
     5
 10
1738.127301159561
 20
-1649.947939803646
 30
0.0
 11
1738.127301159561
 21
-1679.175817710235
 31
0.0
  0
LINE
  5
1F1
  8
回07-寸法
  6
CONTINUOUS
 62
     5
 10
1728.631370039534
 20
-1644.489005115104
 30
0.0
 11
1728.631370039534
 21
-1679.175817710235
 31
0.0
  0
LINE
  5
1F2
  8
回07-寸法
  6
CONTINUOUS
 62
     5
 10
1739.627301159561
 20
-1678.175817710236
 30
0.0
 11
1741.127301159561
 21
-1678.175817710236
 31
0.0
  0
LINE
  5
1F3
  8
回07-寸法
  6
CONTINUOUS
 62
     5
 10
1727.131370039534
 20
-1678.175817710236
 30
0.0
 11
1712.768628339737
 21
-1678.175817710236
 31
0.0
  0
LINE
  5
1F4
  8
回07-寸法
  6
CONTINUOUS
 62
     5
 10
1738.127301159561
 20
-1678.175817710236
 30
0.0
 11
1728.631370039534
 21
-1678.175817710236
 31
0.0
  0
INSERT
  5
1F5
  8
回07-寸法
  6
CONTINUOUS
 62
     5
 66
     1
  2
_OPEN
 10
1738.127301159561
 20
-1678.175817710236
 30
0.0
 41
1.5
 42
1.5
 43
1.5
 50
180.0
  0
SEQEND
  5
1F6
  8
回07-寸法
  6
CONTINUOUS
 62
     7
  0
INSERT
  5
1F7
  8
回07-寸法
  6
CONTINUOUS
 62
     5
 66
     1
  2
_OPEN
 10
1728.631370039534
 20
-1678.175817710236
 30
0.0
 41
1.5
 42
1.5
 43
1.5
  0
SEQEND
  5
1F8
  8
回07-寸法
  6
CONTINUOUS
 62
     7
  0
TEXT
  5
1F9
  8
回07-寸法
  6
CONTINUOUS
 62
     5
 10
1712.371116241419
 20
-1677.675817710235
 30
0.0
 40
8.0
  1
9.5
1001
ACAD
1000
MTEXTBEGIN
1070
    73
1070
     1
1070
    44
1040
1.0
1070
    74
1070
     0
1000
MTEXTEND
  0
POINT
  5
1FA
  8
DEFPOINTS
  6
CONTINUOUS
 62
     0
 10
1738.127301159561
 20
-1649.947939803646
 30
0.0
  0
POINT
  5
1FB
  8
DEFPOINTS
  6
CONTINUOUS
 62
     0
 10
1728.631370039534
 20
-1644.489005115104
 30
0.0
  0
POINT
  5
1FC
  8
DEFPOINTS
  6
CONTINUOUS
 62
     0
 10
1728.631370039534
 20
-1678.175817710236
 30
0.0
  0
ENDBLK
  5
1FD
  8
0
 62
     7
  0
BLOCK
  8
0
  2
*D77
 70
     1
 10
0.0
 20
0.0
 30
0.0
  3
*D77
  1

  0
LINE
  5
1DF
  8
回07-寸法
 62
     5
 10
1658.627257648795
 20
-1638.145815658896
 30
0.0
 11
1646.684212600624
 21
-1638.145815658896
 31
0.0
  0
LINE
  5
1E0
  8
回07-寸法
 62
     5
 10
1658.627257648795
 20
-1644.395815658896
 30
0.0
 11
1646.684212600624
 21
-1644.395815658896
 31
0.0
  0
LINE
  5
1E1
  8
回07-寸法
 62
     5
 10
1647.684212600624
 20
-1645.895815658896
 30
0.0
 11
1647.684212600624
 21
-1647.395815658895
 31
0.0
  0
LINE
  5
1E2
  8
回07-寸法
 62
     5
 10
1647.684212600624
 20
-1636.645815658896
 30
0.0
 11
1647.684212600624
 21
-1602.730744792754
 31
0.0
  0
LINE
  5
1E3
  8
回07-寸法
 62
     5
 10
1647.684212600624
 20
-1644.395815658896
 30
0.0
 11
1647.684212600624
 21
-1638.145815658896
 31
0.0
  0
INSERT
  5
1E4
  8
回07-寸法
 62
     5
 66
     1
  2
_OPEN
 10
1647.684212600624
 20
-1644.395815658896
 30
0.0
 41
1.5
 42
1.5
 43
1.5
 50
90.0
  0
SEQEND
  5
1E5
  8
回07-寸法
  6
CONTINUOUS
 62
     7
  0
INSERT
  5
1E6
  8
回07-寸法
 62
     5
 66
     1
  2
_OPEN
 10
1647.684212600624
 20
-1638.145815658896
 30
0.0
 41
1.5
 42
1.5
 43
1.5
 50
270.0
  0
SEQEND
  5
1E7
  8
回07-寸法
  6
CONTINUOUS
 62
     7
  0
INSERT
  5
1E8
  8
回07-寸法
 62
     5
 66
     1
  2
*X8686
 10
0.0
 20
0.0
 30
0.0
  0
SEQEND
  5
73E
  8
回07-寸法
  6
CONTINUOUS
 62
     7
  0
POINT
  5
1E9
  8
DEFPOINTS
 62
     0
 10
1658.627257648795
 20
-1638.145815658896
 30
0.0
  0
POINT
  5
1EA
  8
DEFPOINTS
 62
     0
 10
1658.627257648795
 20
-1644.395815658896
 30
0.0
  0
POINT
  5
1EB
  8
DEFPOINTS
 62
     0
 10
1647.684212600624
 20
-1644.395815658896
 30
0.0
  0
ENDBLK
  5
1EC
  8
0
 62
     7
  0
BLOCK
  8
0
  2
*D88
 70
     1
 10
0.0
 20
0.0
 30
0.0
  3
*D88
  1

  0
LINE
  5
1CD
  8
回07-寸法
  6
CONTINUOUS
 62
     5
 10
1738.127301159561
 20
-1649.947940003362
 30
0.0
 11
1738.127301159561
 21
-1668.56734168945
 31
0.0
  0
LINE
  5
1CE
  8
回07-寸法
  6
CONTINUOUS
 62
     5
 10
1733.526798646999
 20
-1649.181661739591
 30
0.0
 11
1733.526798646999
 21
-1668.56734168945
 31
0.0
  0
LINE
  5
1CF
  8
回07-寸法
  6
CONTINUOUS
 62
     5
 10
1739.627301159561
 20
-1667.56734168945
 30
0.0
 11
1741.127301159561
 21
-1667.56734168945
 31
0.0
  0
LINE
  5
1D0
  8
回07-寸法
  6
CONTINUOUS
 62
     5
 10
1732.026798646999
 20
-1667.56734168945
 30
0.0
 11
1712.808181907645
 21
-1667.56734168945
 31
0.0
  0
LINE
  5
1D1
  8
回07-寸法
  6
CONTINUOUS
 62
     5
 10
1738.127301159561
 20
-1667.56734168945
 30
0.0
 11
1733.526798646999
 21
-1667.56734168945
 31
0.0
  0
INSERT
  5
1D2
  8
回07-寸法
  6
CONTINUOUS
 62
     5
 66
     1
  2
_OPEN
 10
1738.127301159561
 20
-1667.56734168945
 30
0.0
 41
1.5
 42
1.5
 43
1.5
 50
180.0
  0
SEQEND
  5
1D3
  8
回07-寸法
  6
CONTINUOUS
 62
     7
  0
INSERT
  5
1D4
  8
回07-寸法
  6
CONTINUOUS
 62
     5
 66
     1
  2
_OPEN
 10
1733.526798646999
 20
-1667.56734168945
 30
0.0
 41
1.5
 42
1.5
 43
1.5
  0
SEQEND
  5
1D5
  8
回07-寸法
  6
CONTINUOUS
 62
     7
  0
TEXT
  5
1D6
  8
回07-寸法
  6
CONTINUOUS
 62
     5
 10
1712.303266990759
 20
-1667.06734168945
 30
0.0
 40
8.0
  1
4.6
1001
ACAD
1000
MTEXTBEGIN
1070
    73
1070
     1
1070
    44
1040
1.0
1070
    74
1070
     0
1000
MTEXTEND
  0
POINT
  5
1D7
  8
DEFPOINTS
  6
CONTINUOUS
 62
     0
 10
1738.127301159561
 20
-1649.947940003362
 30
0.0
  0
POINT
  5
1D8
  8
DEFPOINTS
  6
CONTINUOUS
 62
     0
 10
1733.526798646999
 20
-1649.181661739591
 30
0.0
  0
POINT
  5
1D9
  8
DEFPOINTS
  6
CONTINUOUS
 62
     0
 10
1733.526798646999
 20
-1667.56734168945
 30
0.0
  0
ENDBLK
  5
1DA
  8
0
 62
     7
  0
BLOCK
  8
0
  2
*D99
 70
     1
 10
0.0
 20
0.0
 30
0.0
  3
*D99
  1

  0
LINE
  5
1BE
  8
回07-寸法
  6
CONTINUOUS
 62
     5
 10
1658.627257649053
 20
-1644.39581545918
 30
0.0
 11
1646.684212600622
 21
-1644.39581545918
 31
0.0
  0
LINE
  5
1BF
  8
回07-寸法
  6
CONTINUOUS
 62
     5
 10
1738.127301159561
 20
-1766.281674583732
 30
0.0
 11
1646.684212600622
 21
-1766.281674583732
 31
0.0
  0
LINE
  5
1C0
  8
回07-寸法
  6
CONTINUOUS
 62
     5
 10
1647.684212600622
 20
-1645.89581545918
 30
0.0
 11
1647.684212600622
 21
-1764.781674583733
 31
0.0
  0
INSERT
  5
1C1
  8
回07-寸法
  6
CONTINUOUS
 62
     5
 66
     1
  2
_OPEN
 10
1647.684212600622
 20
-1644.39581545918
 30
0.0
 41
1.5
 42
1.5
 43
1.5
 50
90.0
  0
SEQEND
  5
1C2
  8
回07-寸法
  6
CONTINUOUS
 62
     7
  0
INSERT
  5
1C3
  8
回07-寸法
  6
CONTINUOUS
 62
     5
 66
     1
  2
_OPEN
 10
1647.684212600622
 20
-1766.281674583732
 30
0.0
 41
1.5
 42
1.5
 43
1.5
 50
270.0
  0
SEQEND
  5
1C4
  8
回07-寸法
  6
CONTINUOUS
 62
     7
  0
TEXT
  5
1C5
  8
回07-寸法
  6
CONTINUOUS
 62
     5
 10
1646.784372350227
 20
-1719.353186495564
 30
0.0
 40
8.0
  1
(121.9)
 50
90.0
1001
ACAD
1000
MTEXTBEGIN
1070
    73
1070
     1
1070
    44
1040
1.0
1070
    74
1070
     0
1000
MTEXTEND
  0
POINT
  5
1C6
  8
DEFPOINTS
  6
CONTINUOUS
 62
     0
 10
1658.627257649053
 20
-1644.39581545918
 30
0.0
  0
POINT
  5
1C7
  8
DEFPOINTS
  6
CONTINUOUS
 62
     0
 10
1738.127301159561
 20
-1766.281674583732
 30
0.0
  0
POINT
  5
1C8
  8
DEFPOINTS
  6
CONTINUOUS
 62
     0
 10
1647.684212600622
 20
-1766.281674583732
 30
0.0
  0
ENDBLK
  5
1C9
  8
0
 62
     7
  0
BLOCK
  8
0
  2
*D1010
 70
     1
 10
0.0
 20
0.0
 30
0.0
  3
*D1010
  1

  0
LINE
  5
1A8
  8
回08-記事
  6
CONTINUOUS
 62
     5
 10
1658.127257648794
 20
-1825.343163539766
 30
0.0
 11
1658.127257648794
 21
-1841.231825000874
 31
0.0
  0
LINE
  5
1A9
  8
回08-記事
  6
CONTINUOUS
 62
     5
 10
1668.12730115956
 20
-1825.343163539767
 30
0.0
 11
1668.12730115956
 21
-1841.231825000874
 31
0.0
  0
LINE
  5
1AA
  8
回08-記事
  6
CONTINUOUS
 62
     5
 10
1669.627301159561
 20
-1840.231825000874
 30
0.0
 11
1671.127301159561
 21
-1840.231825000874
 31
0.0
  0
LINE
  5
1AB
  8
回08-記事
  6
CONTINUOUS
 62
     5
 10
1656.627257648793
 20
-1840.231825000874
 30
0.0
 11
1640.533556861392
 21
-1840.231825000874
 31
0.0
  0
LINE
  5
1AC
  8
回08-記事
  6
CONTINUOUS
 62
     5
 10
1668.12730115956
 20
-1840.231825000874
 30
0.0
 11
1658.127257648794
 21
-1840.231825000874
 31
0.0
  0
INSERT
  5
1AD
  8
回08-記事
  6
CONTINUOUS
 62
     5
 66
     1
  2
_OPEN
 10
1668.12730115956
 20
-1840.231825000874
 30
0.0
 41
1.5
 42
1.5
 43
1.5
 50
180.0
  0
SEQEND
  5
1AE
  8
回07-寸法
  6
CONTINUOUS
 62
     7
  0
INSERT
  5
1AF
  8
回08-記事
  6
CONTINUOUS
 62
     5
 66
     1
  2
_OPEN
 10
1658.127257648794
 20
-1840.231825000874
 30
0.0
 41
1.5
 42
1.5
 43
1.5
  0
SEQEND
  5
1B0
  8
回07-寸法
  6
CONTINUOUS
 62
     7
  0
TEXT
  5
1B1
  8
回08-記事
  6
CONTINUOUS
 62
     5
 10
1639.830407255093
 20
-1839.331825000874
 30
0.0
 40
8.0
  1
(10)
1001
ACAD
1000
MTEXTBEGIN
1070
    73
1070
     1
1070
    44
1040
1.0
1070
    74
1070
     0
1000
MTEXTEND
  0
POINT
  5
1B2
  8
DEFPOINTS
  6
CONTINUOUS
 62
     0
 10
1658.127257648794
 20
-1825.343163539766
 30
0.0
  0
POINT
  5
1B3
  8
DEFPOINTS
  6
CONTINUOUS
 62
     0
 10
1668.12730115956
 20
-1825.343163539767
 30
0.0
  0
POINT
  5
1B4
  8
DEFPOINTS
  6
CONTINUOUS
 62
     0
 10
1668.12730115956
 20
-1840.231825000874
 30
0.0
  0
ENDBLK
  5
1B5
  8
0
 62
     7
  0
BLOCK
  8
0
  2
*D1111
 70
     1
 10
0.0
 20
0.0
 30
0.0
  3
*D1111
  1

  0
LINE
  5
196
  8
回08-記事
  6
CONTINUOUS
 62
     5
 10
1658.127301159561
 20
-1818.343163539767
 30
0.0
 11
1658.127301159561
 21
-1810.061979650145
 31
0.0
  0
LINE
  5
197
  8
回08-記事
  6
CONTINUOUS
 62
     5
 10
1663.127301159561
 20
-1818.343163539767
 30
0.0
 11
1663.127301159561
 21
-1810.061979650145
 31
0.0
  0
LINE
  5
198
  8
回08-記事
  6
CONTINUOUS
 62
     5
 10
1656.627301159561
 20
-1811.061979650145
 30
0.0
 11
1655.127301159561
 21
-1811.061979650145
 31
0.0
  0
LINE
  5
199
  8
回08-記事
  6
CONTINUOUS
 62
     5
 10
1664.62730115956
 20
-1811.061979650145
 30
0.0
 11
1673.275829296985
 21
-1811.061979650145
 31
0.0
  0
LINE
  5
19A
  8
回08-記事
  6
CONTINUOUS
 62
     5
 10
1658.127301159561
 20
-1811.061979650145
 30
0.0
 11
1663.127301159561
 21
-1811.061979650145
 31
0.0
  0
INSERT
  5
19B
  8
回08-記事
  6
CONTINUOUS
 62
     5
 66
     1
  2
_OPEN
 10
1658.127301159561
 20
-1811.061979650145
 30
0.0
 41
1.5
 42
1.5
 43
1.5
  0
SEQEND
  5
19C
  8
回07-寸法
  6
CONTINUOUS
 62
     7
  0
INSERT
  5
19D
  8
回08-記事
  6
CONTINUOUS
 62
     5
 66
     1
  2
_OPEN
 10
1663.127301159561
 20
-1811.061979650145
 30
0.0
 41
1.5
 42
1.5
 43
1.5
 50
180.0
  0
SEQEND
  5
19E
  8
回07-寸法
  6
CONTINUOUS
 62
     7
  0
TEXT
  5
19F
  8
回08-記事
  6
CONTINUOUS
 62
     5
 10
1668.210143872035
 20
-1810.561979650145
 30
0.0
 40
8.0
  1
5
1001
ACAD
1000
MTEXTBEGIN
1070
    73
1070
     1
1070
    44
1040
1.0
1070
    74
1070
     0
1000
MTEXTEND
  0
POINT
  5
1A0
  8
DEFPOINTS
  6
CONTINUOUS
 62
     0
 10
1658.127301159561
 20
-1818.343163539767
 30
0.0
  0
POINT
  5
1A1
  8
DEFPOINTS
  6
CONTINUOUS
 62
     0
 10
1663.127301159561
 20
-1818.343163539767
 30
0.0
  0
POINT
  5
1A2
  8
DEFPOINTS
  6
CONTINUOUS
 62
     0
 10
1663.127301159561
 20
-1811.061979650145
 30
0.0
  0
ENDBLK
  5
1A3
  8
0
 62
     7
  0
BLOCK
  8
0
  2
*D1212
 70
     1
 10
0.0
 20
0.0
 30
0.0
  3
*D1212
  1

  0
LINE
  5
185
  8
回08-記事
  6
CONTINUOUS
 62
     5
 10
1658.127301159561
 20
-1818.343163539768
 30
0.0
 11
1649.621175382569
 21
-1818.343163539768
 31
0.0
  0
LINE
  5
186
  8
回08-記事
  6
CONTINUOUS
 62
     5
 10
1658.127301159561
 20
-1825.343163539768
 30
0.0
 11
1649.621175382569
 21
-1825.343163539768
 31
0.0
  0
LINE
  5
187
  8
回08-記事
  6
CONTINUOUS
 62
     5
 10
1650.621175382569
 20
-1826.843163539768
 30
0.0
 11
1650.621175382569
 21
-1828.343163539768
 31
0.0
  0
LINE
  5
188
  8
回08-記事
  6
CONTINUOUS
 62
     5
 10
1650.621175382569
 20
-1816.843163539768
 30
0.0
 11
1650.621175382569
 21
-1775.806000696652
 31
0.0
  0
LINE
  5
189
  8
回08-記事
  6
CONTINUOUS
 62
     5
 10
1650.621175382569
 20
-1825.343163539768
 30
0.0
 11
1650.621175382569
 21
-1818.343163539768
 31
0.0
  0
INSERT
  5
18A
  8
回08-記事
  6
CONTINUOUS
 62
     5
 66
     1
  2
_OPEN
 10
1650.621175382569
 20
-1825.343163539768
 30
0.0
 41
1.5
 42
1.5
 43
1.5
 50
90.0
  0
SEQEND
  5
18B
  8
回07-寸法
  6
CONTINUOUS
 62
     7
  0
INSERT
  5
18C
  8
回08-記事
  6
CONTINUOUS
 62
     5
 66
     1
  2
_OPEN
 10
1650.621175382569
 20
-1818.343163539768
 30
0.0
 41
1.5
 42
1.5
 43
1.5
 50
270.0
  0
SEQEND
  5
18D
  8
回07-寸法
  6
CONTINUOUS
 62
     7
  0
INSERT
  5
18E
  8
回08-記事
  6
CONTINUOUS
 62
     5
 66
     1
  2
*X8787
 10
0.0
 20
0.0
 30
0.0
  0
SEQEND
  5
744
  8
回07-寸法
  6
CONTINUOUS
 62
     7
  0
POINT
  5
18F
  8
DEFPOINTS
  6
CONTINUOUS
 62
     0
 10
1658.127301159561
 20
-1818.343163539768
 30
0.0
  0
POINT
  5
190
  8
DEFPOINTS
  6
CONTINUOUS
 62
     0
 10
1658.127301159561
 20
-1825.343163539768
 30
0.0
  0
POINT
  5
191
  8
DEFPOINTS
  6
CONTINUOUS
 62
     0
 10
1650.621175382569
 20
-1825.343163539768
 30
0.0
  0
ENDBLK
  5
192
  8
0
 62
     7
  0
BLOCK
  8
0
  2
*D1313
 70
     1
 10
0.0
 20
0.0
 30
0.0
  3
*D1313
  1

  0
LINE
  5
381
  8
回08-記事
  6
CONTINUOUS
 62
     5
 10
1989.477301159562
 20
-1665.281674583733
 30
0.0
 11
2004.511159452356
 21
-1665.281674583733
 31
0.0
  0
LINE
  5
382
  8
回08-記事
  6
CONTINUOUS
 62
     5
 10
1989.477301159562
 20
-1669.281674583732
 30
0.0
 11
2004.511159452356
 21
-1669.281674583732
 31
0.0
  0
LINE
  5
383
  8
回08-記事
  6
CONTINUOUS
 62
     5
 10
2003.511159452356
 20
-1663.781674583733
 30
0.0
 11
2003.511159452356
 21
-1662.281674583732
 31
0.0
  0
LINE
  5
384
  8
回08-記事
  6
CONTINUOUS
 62
     5
 10
2003.511159452356
 20
-1670.781674583732
 30
0.0
 11
2003.511159452356
 21
-1677.281674583732
 31
0.0
  0
LINE
  5
385
  8
回08-記事
  6
CONTINUOUS
 62
     5
 10
2003.511159452356
 20
-1665.281674583733
 30
0.0
 11
2003.511159452356
 21
-1669.281674583732
 31
0.0
  0
INSERT
  5
386
  8
回08-記事
  6
CONTINUOUS
 62
     5
 66
     1
  2
_OPEN
 10
2003.511159452356
 20
-1665.281674583733
 30
0.0
 41
1.5
 42
1.5
 43
1.5
 50
270.0
  0
SEQEND
  5
387
  8
回07-寸法
  6
CONTINUOUS
 62
     7
  0
INSERT
  5
388
  8
回08-記事
  6
CONTINUOUS
 62
     5
 66
     1
  2
_OPEN
 10
2003.511159452356
 20
-1669.281674583732
 30
0.0
 41
1.5
 42
1.5
 43
1.5
 50
90.0
  0
SEQEND
  5
389
  8
回07-寸法
  6
CONTINUOUS
 62
     7
  0
TEXT
  5
38A
  8
回08-記事
  6
CONTINUOUS
 62
     5
 10
2003.011159452355
 20
-1677.981674583732
 30
0.0
 40
8.0
  1
4
 50
90.0
1001
ACAD
1000
MTEXTBEGIN
1070
    73
1070
     1
1070
    44
1040
1.0
1070
    74
1070
     0
1000
MTEXTEND
  0
POINT
  5
38B
  8
DEFPOINTS
  6
CONTINUOUS
 62
     0
 10
1989.477301159562
 20
-1665.281674583733
 30
0.0
  0
POINT
  5
38C
  8
DEFPOINTS
  6
CONTINUOUS
 62
     0
 10
1989.477301159562
 20
-1669.281674583732
 30
0.0
  0
POINT
  5
38D
  8
DEFPOINTS
  6
CONTINUOUS
 62
     0
 10
2003.511159452356
 20
-1669.281674583732
 30
0.0
  0
ENDBLK
  5
38E
  8
0
 62
     7
  0
BLOCK
  8
0
  2
*D1414
 70
     1
 10
0.0
 20
0.0
 30
0.0
  3
*D1414
  1

  0
LINE
  5
370
  8
回08-記事
  6
CONTINUOUS
 62
     5
 10
1981.477301159561
 20
-1677.281674583731
 30
0.0
 11
1981.477301159561
 21
-1693.606521207887
 31
0.0
  0
LINE
  5
371
  8
回08-記事
  6
CONTINUOUS
 62
     5
 10
1985.47730115956
 20
-1677.281674583731
 30
0.0
 11
1985.47730115956
 21
-1693.606521207887
 31
0.0
  0
LINE
  5
372
  8
回08-記事
  6
CONTINUOUS
 62
     5
 10
1979.977301159561
 20
-1692.606521207887
 30
0.0
 11
1978.477301159561
 21
-1692.606521207887
 31
0.0
  0
LINE
  5
373
  8
回08-記事
  6
CONTINUOUS
 62
     5
 10
1986.977301159561
 20
-1692.606521207887
 30
0.0
 11
1993.47730115956
 21
-1692.606521207887
 31
0.0
  0
LINE
  5
374
  8
回08-記事
  6
CONTINUOUS
 62
     5
 10
1981.477301159561
 20
-1692.606521207887
 30
0.0
 11
1985.47730115956
 21
-1692.606521207887
 31
0.0
  0
INSERT
  5
375
  8
回08-記事
  6
CONTINUOUS
 62
     5
 66
     1
  2
_OPEN
 10
1981.477301159561
 20
-1692.606521207887
 30
0.0
 41
1.5
 42
1.5
 43
1.5
  0
SEQEND
  5
376
  8
回07-寸法
  6
CONTINUOUS
 62
     7
  0
INSERT
  5
377
  8
回08-記事
  6
CONTINUOUS
 62
     5
 66
     1
  2
_OPEN
 10
1985.47730115956
 20
-1692.606521207887
 30
0.0
 41
1.5
 42
1.5
 43
1.5
 50
180.0
  0
SEQEND
  5
378
  8
回07-寸法
  6
CONTINUOUS
 62
     7
  0
TEXT
  5
379
  8
回08-記事
  6
CONTINUOUS
 62
     5
 10
1987.77730115956
 20
-1692.106521207887
 30
0.0
 40
8.0
  1
4
1001
ACAD
1000
MTEXTBEGIN
1070
    73
1070
     1
1070
    44
1040
1.0
1070
    74
1070
     0
1000
MTEXTEND
  0
POINT
  5
37A
  8
DEFPOINTS
  6
CONTINUOUS
 62
     0
 10
1981.477301159561
 20
-1677.281674583731
 30
0.0
  0
POINT
  5
37B
  8
DEFPOINTS
  6
CONTINUOUS
 62
     0
 10
1985.47730115956
 20
-1677.281674583731
 30
0.0
  0
POINT
  5
37C
  8
DEFPOINTS
  6
CONTINUOUS
 62
     0
 10
1985.47730115956
 20
-1692.606521207887
 30
0.0
  0
ENDBLK
  5
37D
  8
0
 62
     7
  0
BLOCK
  8
0
  2
*D1515
 70
     1
 10
0.0
 20
0.0
 30
0.0
  3
*D1515
  1

  0
LINE
  5
356
  8
回07-寸法
  6
CONTINUOUS
 62
     5
 10
1748.32730115956
 20
-1525.831674583731
 30
0.0
 11
1748.32730115956
 21
-1479.511015714858
 31
0.0
  0
LINE
  5
357
  8
回07-寸法
  6
CONTINUOUS
 62
     5
 10
1738.127301159561
 20
-1516.281674583733
 30
0.0
 11
1738.127301159561
 21
-1479.511015714858
 31
0.0
  0
LINE
  5
358
  8
回07-寸法
  6
CONTINUOUS
 62
     5
 10
1749.82730115956
 20
-1480.511015714858
 30
0.0
 11
1751.32730115956
 21
-1480.511015714858
 31
0.0
  0
LINE
  5
359
  8
回07-寸法
  6
CONTINUOUS
 62
     5
 10
1736.627301159561
 20
-1480.511015714858
 30
0.0
 11
1718.446828718616
 21
-1480.511015714858
 31
0.0
  0
LINE
  5
35A
  8
回07-寸法
  6
CONTINUOUS
 62
     5
 10
1748.32730115956
 20
-1480.511015714858
 30
0.0
 11
1738.127301159561
 21
-1480.511015714858
 31
0.0
  0
INSERT
  5
35B
  8
回07-寸法
  6
CONTINUOUS
 62
     5
 66
     1
  2
_OPEN
 10
1748.32730115956
 20
-1480.511015714858
 30
0.0
 41
1.5
 42
1.5
 43
1.5
 50
180.0
  0
SEQEND
  5
35C
  8
回07-寸法
  6
CONTINUOUS
 62
     7
  0
INSERT
  5
35D
  8
回07-寸法
  6
CONTINUOUS
 62
     5
 66
     1
  2
_OPEN
 10
1738.127301159561
 20
-1480.511015714858
 30
0.0
 41
1.5
 42
1.5
 43
1.5
  0
SEQEND
  5
35E
  8
回07-寸法
  6
CONTINUOUS
 62
     7
  0
TEXT
  5
35F
  8
回07-寸法
  6
CONTINUOUS
 62
     5
 10
1717.986180444847
 20
-1480.010228313283
 30
0.0
 40
8.0
  1
10.2
1001
ACAD
1000
MTEXTBEGIN
1070
    73
1070
     1
1070
    44
1040
1.0
1070
    74
1070
     0
1000
MTEXTEND
  0
POINT
  5
360
  8
DEFPOINTS
  6
CONTINUOUS
 62
     0
 10
1748.32730115956
 20
-1525.831674583731
 30
0.0
  0
POINT
  5
361
  8
DEFPOINTS
  6
CONTINUOUS
 62
     0
 10
1738.127301159561
 20
-1516.281674583733
 30
0.0
  0
POINT
  5
362
  8
DEFPOINTS
  6
CONTINUOUS
 62
     0
 10
1738.127301159561
 20
-1480.511015714858
 30
0.0
  0
ENDBLK
  5
363
  8
0
 62
     7
  0
BLOCK
  8
0
  2
*D1616
 70
     1
 10
0.0
 20
0.0
 30
0.0
  3
*D1616
  1

  0
LINE
  5
345
  8
回07-寸法
  6
CONTINUOUS
 62
     5
 10
1746.32730115956
 20
-1523.831674583731
 30
0.0
 11
1746.32730115956
 21
-1469.511015714858
 31
0.0
  0
LINE
  5
346
  8
回07-寸法
  6
CONTINUOUS
 62
     5
 10
1738.127301159561
 20
-1516.281674583733
 30
0.0
 11
1738.127301159561
 21
-1469.511015714858
 31
0.0
  0
LINE
  5
347
  8
回07-寸法
  6
CONTINUOUS
 62
     5
 10
1747.82730115956
 20
-1470.511015714858
 30
0.0
 11
1749.32730115956
 21
-1470.511015714858
 31
0.0
  0
LINE
  5
348
  8
回07-寸法
  6
CONTINUOUS
 62
     5
 10
1736.627301159561
 20
-1470.511015714858
 30
0.0
 11
1722.446828718616
 21
-1470.511015714858
 31
0.0
  0
LINE
  5
349
  8
回07-寸法
  6
CONTINUOUS
 62
     5
 10
1746.32730115956
 20
-1470.511015714858
 30
0.0
 11
1738.127301159561
 21
-1470.511015714858
 31
0.0
  0
INSERT
  5
34A
  8
回07-寸法
  6
CONTINUOUS
 62
     5
 66
     1
  2
_OPEN
 10
1746.32730115956
 20
-1470.511015714858
 30
0.0
 41
1.5
 42
1.5
 43
1.5
 50
180.0
  0
SEQEND
  5
34B
  8
回07-寸法
  6
CONTINUOUS
 62
     7
  0
INSERT
  5
34C
  8
回07-寸法
  6
CONTINUOUS
 62
     5
 66
     1
  2
_OPEN
 10
1738.127301159561
 20
-1470.511015714858
 30
0.0
 41
1.5
 42
1.5
 43
1.5
  0
SEQEND
  5
34D
  8
回07-寸法
  6
CONTINUOUS
 62
     7
  0
TEXT
  5
34E
  8
回07-寸法
  6
CONTINUOUS
 62
     5
 10
1721.986180444847
 20
-1470.010228313283
 30
0.0
 40
8.0
  1
8.2
1001
ACAD
1000
MTEXTBEGIN
1070
    73
1070
     1
1070
    44
1040
1.0
1070
    74
1070
     0
1000
MTEXTEND
  0
POINT
  5
34F
  8
DEFPOINTS
  6
CONTINUOUS
 62
     0
 10
1746.32730115956
 20
-1523.831674583731
 30
0.0
  0
POINT
  5
350
  8
DEFPOINTS
  6
CONTINUOUS
 62
     0
 10
1738.127301159561
 20
-1516.281674583733
 30
0.0
  0
POINT
  5
351
  8
DEFPOINTS
  6
CONTINUOUS
 62
     0
 10
1738.127301159561
 20
-1470.511015714858
 30
0.0
  0
ENDBLK
  5
352
  8
0
 62
     7
  0
BLOCK
  8
0
  2
*D1717
 70
     1
 10
0.0
 20
0.0
 30
0.0
  3
*D1717
  1

  0
LINE
  5
334
  8
回07-寸法
  6
CONTINUOUS
 62
     5
 10
1745.827301159561
 20
-1523.031674583731
 30
0.0
 11
1745.827301159561
 21
-1459.511015714858
 31
0.0
  0
LINE
  5
335
  8
回07-寸法
  6
CONTINUOUS
 62
     5
 10
1738.127301159561
 20
-1516.281674583733
 30
0.0
 11
1738.127301159561
 21
-1459.511015714858
 31
0.0
  0
LINE
  5
336
  8
回07-寸法
  6
CONTINUOUS
 62
     5
 10
1747.32730115956
 20
-1460.511015714858
 30
0.0
 11
1748.82730115956
 21
-1460.511015714858
 31
0.0
  0
LINE
  5
337
  8
回07-寸法
  6
CONTINUOUS
 62
     5
 10
1736.627301159561
 20
-1460.511015714858
 30
0.0
 11
1668.166769663498
 21
-1460.511015714858
 31
0.0
  0
LINE
  5
338
  8
回07-寸法
  6
CONTINUOUS
 62
     5
 10
1745.827301159561
 20
-1460.511015714858
 30
0.0
 11
1738.127301159561
 21
-1460.511015714858
 31
0.0
  0
INSERT
  5
339
  8
回07-寸法
  6
CONTINUOUS
 62
     5
 66
     1
  2
_OPEN
 10
1745.827301159561
 20
-1460.511015714858
 30
0.0
 41
1.5
 42
1.5
 43
1.5
 50
180.0
  0
SEQEND
  5
33A
  8
回07-寸法
  6
CONTINUOUS
 62
     7
  0
INSERT
  5
33B
  8
回07-寸法
  6
CONTINUOUS
 62
     5
 66
     1
  2
_OPEN
 10
1738.127301159561
 20
-1460.511015714858
 30
0.0
 41
1.5
 42
1.5
 43
1.5
  0
SEQEND
  5
33C
  8
回07-寸法
  6
CONTINUOUS
 62
     7
  0
INSERT
  5
33D
  8
回07-寸法
  6
CONTINUOUS
 62
     5
 66
     1
  2
*X8888
 10
0.0
 20
0.0
 30
0.0
  0
SEQEND
  5
74A
  8
回07-寸法
  6
CONTINUOUS
 62
     7
  0
POINT
  5
33E
  8
DEFPOINTS
  6
CONTINUOUS
 62
     0
 10
1745.827301159561
 20
-1523.031674583731
 30
0.0
  0
POINT
  5
33F
  8
DEFPOINTS
  6
CONTINUOUS
 62
     0
 10
1738.127301159561
 20
-1516.281674583733
 30
0.0
  0
POINT
  5
340
  8
DEFPOINTS
  6
CONTINUOUS
 62
     0
 10
1738.127301159561
 20
-1460.511015714858
 30
0.0
  0
ENDBLK
  5
341
  8
0
 62
     7
  0
BLOCK
  8
0
  2
*D1818
 70
     1
 10
0.0
 20
0.0
 30
0.0
  3
*D1818
  1

  0
LINE
  5
325
  8
回07-寸法
  6
CONTINUOUS
 62
     5
 10
1748.327301159561
 20
-1525.831674583731
 30
0.0
 11
1748.327301159561
 21
-1479.511015714858
 31
0.0
  0
LINE
  5
326
  8
回07-寸法
  6
CONTINUOUS
 62
     5
 10
2158.627301159561
 20
-1525.831674583731
 30
0.0
 11
2158.627301159561
 21
-1479.511015714858
 31
0.0
  0
LINE
  5
327
  8
回07-寸法
  6
CONTINUOUS
 62
     5
 10
1749.827301159561
 20
-1480.511015714858
 30
0.0
 11
2157.127301159561
 21
-1480.511015714858
 31
0.0
  0
INSERT
  5
328
  8
回07-寸法
  6
CONTINUOUS
 62
     5
 66
     1
  2
_OPEN
 10
1748.327301159561
 20
-1480.511015714858
 30
0.0
 41
1.5
 42
1.5
 43
1.5
 50
180.0
  0
SEQEND
  5
329
  8
回07-寸法
  6
CONTINUOUS
 62
     7
  0
INSERT
  5
32A
  8
回07-寸法
  6
CONTINUOUS
 62
     5
 66
     1
  2
_OPEN
 10
2158.627301159561
 20
-1480.511015714858
 30
0.0
 41
1.5
 42
1.5
 43
1.5
  0
SEQEND
  5
32B
  8
回07-寸法
  6
CONTINUOUS
 62
     7
  0
INSERT
  5
32C
  8
回07-寸法
  6
CONTINUOUS
 62
     5
 66
     1
  2
*X8989
 10
0.0
 20
0.0
 30
0.0
  0
SEQEND
  5
750
  8
回07-寸法
  6
CONTINUOUS
 62
     7
  0
POINT
  5
32D
  8
DEFPOINTS
  6
CONTINUOUS
 62
     0
 10
1748.327301159561
 20
-1525.831674583731
 30
0.0
  0
POINT
  5
32E
  8
DEFPOINTS
  6
CONTINUOUS
 62
     0
 10
2158.627301159561
 20
-1525.831674583731
 30
0.0
  0
POINT
  5
32F
  8
DEFPOINTS
  6
CONTINUOUS
 62
     0
 10
2158.627301159561
 20
-1480.511015714858
 30
0.0
  0
ENDBLK
  5
330
  8
0
 62
     7
  0
BLOCK
  8
0
  2
*D1919
 70
     1
 10
0.0
 20
0.0
 30
0.0
  3
*D1919
  1

  0
LINE
  5
316
  8
回07-寸法
  6
CONTINUOUS
 62
     5
 10
1746.327301159561
 20
-1523.831674583731
 30
0.0
 11
1746.327301159561
 21
-1469.511015714858
 31
0.0
  0
LINE
  5
317
  8
回07-寸法
  6
CONTINUOUS
 62
     5
 10
2160.627301159561
 20
-1523.831674583731
 30
0.0
 11
2160.627301159561
 21
-1469.511015714858
 31
0.0
  0
LINE
  5
318
  8
回07-寸法
  6
CONTINUOUS
 62
     5
 10
1747.827301159561
 20
-1470.511015714858
 30
0.0
 11
2159.127301159561
 21
-1470.511015714858
 31
0.0
  0
INSERT
  5
319
  8
回07-寸法
  6
CONTINUOUS
 62
     5
 66
     1
  2
_OPEN
 10
1746.327301159561
 20
-1470.511015714858
 30
0.0
 41
1.5
 42
1.5
 43
1.5
 50
180.0
  0
SEQEND
  5
31A
  8
回07-寸法
  6
CONTINUOUS
 62
     7
  0
INSERT
  5
31B
  8
回07-寸法
  6
CONTINUOUS
 62
     5
 66
     1
  2
_OPEN
 10
2160.627301159561
 20
-1470.511015714858
 30
0.0
 41
1.5
 42
1.5
 43
1.5
  0
SEQEND
  5
31C
  8
回07-寸法
  6
CONTINUOUS
 62
     7
  0
INSERT
  5
31D
  8
回07-寸法
  6
CONTINUOUS
 62
     5
 66
     1
  2
*X9090
 10
0.0
 20
0.0
 30
0.0
  0
SEQEND
  5
756
  8
回07-寸法
  6
CONTINUOUS
 62
     7
  0
POINT
  5
31E
  8
DEFPOINTS
  6
CONTINUOUS
 62
     0
 10
1746.327301159561
 20
-1523.831674583731
 30
0.0
  0
POINT
  5
31F
  8
DEFPOINTS
  6
CONTINUOUS
 62
     0
 10
2160.627301159561
 20
-1523.831674583731
 30
0.0
  0
POINT
  5
320
  8
DEFPOINTS
  6
CONTINUOUS
 62
     0
 10
2160.627301159561
 20
-1470.511015714858
 30
0.0
  0
ENDBLK
  5
321
  8
0
 62
     7
  0
BLOCK
  8
0
  2
*D2020
 70
     1
 10
0.0
 20
0.0
 30
0.0
  3
*D2020
  1

  0
LINE
  5
307
  8
回07-寸法
  6
CONTINUOUS
 62
     5
 10
1738.127301159561
 20
-1516.281674583731
 30
0.0
 11
1738.127301159561
 21
-1449.511015714858
 31
0.0
  0
LINE
  5
308
  8
回07-寸法
  6
CONTINUOUS
 62
     5
 10
2166.627301159561
 20
-1516.281674583731
 30
0.0
 11
2166.627301159561
 21
-1449.511015714858
 31
0.0
  0
LINE
  5
309
  8
回07-寸法
  6
CONTINUOUS
 62
     5
 10
1739.627301159561
 20
-1450.511015714858
 30
0.0
 11
2165.127301159561
 21
-1450.511015714858
 31
0.0
  0
INSERT
  5
30A
  8
回07-寸法
  6
CONTINUOUS
 62
     5
 66
     1
  2
_OPEN
 10
1738.127301159561
 20
-1450.511015714858
 30
0.0
 41
1.5
 42
1.5
 43
1.5
 50
180.0
  0
SEQEND
  5
30B
  8
回07-寸法
  6
CONTINUOUS
 62
     7
  0
INSERT
  5
30C
  8
回07-寸法
  6
CONTINUOUS
 62
     5
 66
     1
  2
_OPEN
 10
2166.627301159561
 20
-1450.511015714858
 30
0.0
 41
1.5
 42
1.5
 43
1.5
  0
SEQEND
  5
30D
  8
回07-寸法
  6
CONTINUOUS
 62
     7
  0
INSERT
  5
30E
  8
回07-寸法
  6
CONTINUOUS
 62
     5
 66
     1
  2
*X9191
 10
0.0
 20
0.0
 30
0.0
  0
SEQEND
  5
75C
  8
回07-寸法
  6
CONTINUOUS
 62
     7
  0
POINT
  5
30F
  8
DEFPOINTS
  6
CONTINUOUS
 62
     0
 10
1738.127301159561
 20
-1516.281674583731
 30
0.0
  0
POINT
  5
310
  8
DEFPOINTS
  6
CONTINUOUS
 62
     0
 10
2166.627301159561
 20
-1516.281674583731
 30
0.0
  0
POINT
  5
311
  8
DEFPOINTS
  6
CONTINUOUS
 62
     0
 10
2166.627301159561
 20
-1450.511015714858
 30
0.0
  0
ENDBLK
  5
312
  8
0
 62
     7
  0
BLOCK
  8
0
  2
*D2121
 70
     1
 10
0.0
 20
0.0
 30
0.0
  3
*D2121
  1

  0
LINE
  5
2F8
  8
回07-寸法
  6
CONTINUOUS
 62
     5
 10
2158.627301159562
 20
-1756.731674583732
 30
0.0
 11
2195.600692671124
 21
-1756.731674583732
 31
0.0
  0
LINE
  5
2F9
  8
回07-寸法
  6
CONTINUOUS
 62
     5
 10
2158.627301159562
 20
-1525.831674583732
 30
0.0
 11
2195.600692671124
 21
-1525.831674583732
 31
0.0
  0
LINE
  5
2FA
  8
回07-寸法
  6
CONTINUOUS
 62
     5
 10
2194.600692671123
 20
-1755.231674583732
 30
0.0
 11
2194.600692671123
 21
-1527.331674583732
 31
0.0
  0
INSERT
  5
2FB
  8
回07-寸法
  6
CONTINUOUS
 62
     5
 66
     1
  2
_OPEN
 10
2194.600692671123
 20
-1756.731674583732
 30
0.0
 41
1.5
 42
1.5
 43
1.5
 50
270.0
  0
SEQEND
  5
2FC
  8
回07-寸法
  6
CONTINUOUS
 62
     7
  0
INSERT
  5
2FD
  8
回07-寸法
  6
CONTINUOUS
 62
     5
 66
     1
  2
_OPEN
 10
2194.600692671123
 20
-1525.831674583732
 30
0.0
 41
1.5
 42
1.5
 43
1.5
 50
90.0
  0
SEQEND
  5
2FE
  8
回07-寸法
  6
CONTINUOUS
 62
     7
  0
INSERT
  5
2FF
  8
回07-寸法
  6
CONTINUOUS
 62
     5
 66
     1
  2
*X9292
 10
0.0
 20
0.0
 30
0.0
  0
SEQEND
  5
762
  8
回07-寸法
  6
CONTINUOUS
 62
     7
  0
POINT
  5
300
  8
DEFPOINTS
  6
CONTINUOUS
 62
     0
 10
2158.627301159562
 20
-1756.731674583732
 30
0.0
  0
POINT
  5
301
  8
DEFPOINTS
  6
CONTINUOUS
 62
     0
 10
2158.627301159562
 20
-1525.831674583732
 30
0.0
  0
POINT
  5
302
  8
DEFPOINTS
  6
CONTINUOUS
 62
     0
 10
2194.600692671123
 20
-1525.831674583732
 30
0.0
  0
ENDBLK
  5
303
  8
0
 62
     7
  0
BLOCK
  8
0
  2
*D2222
 70
     1
 10
0.0
 20
0.0
 30
0.0
  3
*D2222
  1

  0
LINE
  5
2E9
  8
回07-寸法
  6
CONTINUOUS
 62
     5
 10
2160.627301159562
 20
-1523.831674583733
 30
0.0
 11
2205.600692671124
 21
-1523.831674583733
 31
0.0
  0
LINE
  5
2EA
  8
回07-寸法
  6
CONTINUOUS
 62
     5
 10
2160.627301159562
 20
-1758.731674583732
 30
0.0
 11
2205.600692671124
 21
-1758.731674583732
 31
0.0
  0
LINE
  5
2EB
  8
回07-寸法
  6
CONTINUOUS
 62
     5
 10
2204.600692671124
 20
-1525.331674583733
 30
0.0
 11
2204.600692671124
 21
-1757.231674583732
 31
0.0
  0
INSERT
  5
2EC
  8
回07-寸法
  6
CONTINUOUS
 62
     5
 66
     1
  2
_OPEN
 10
2204.600692671124
 20
-1523.831674583733
 30
0.0
 41
1.5
 42
1.5
 43
1.5
 50
90.0
  0
SEQEND
  5
2ED
  8
回07-寸法
  6
CONTINUOUS
 62
     7
  0
INSERT
  5
2EE
  8
回07-寸法
  6
CONTINUOUS
 62
     5
 66
     1
  2
_OPEN
 10
2204.600692671124
 20
-1758.731674583732
 30
0.0
 41
1.5
 42
1.5
 43
1.5
 50
270.0
  0
SEQEND
  5
2EF
  8
回07-寸法
  6
CONTINUOUS
 62
     7
  0
INSERT
  5
2F0
  8
回07-寸法
  6
CONTINUOUS
 62
     5
 66
     1
  2
*X9393
 10
0.0
 20
0.0
 30
0.0
  0
SEQEND
  5
768
  8
回07-寸法
  6
CONTINUOUS
 62
     7
  0
POINT
  5
2F1
  8
DEFPOINTS
  6
CONTINUOUS
 62
     0
 10
2160.627301159562
 20
-1523.831674583733
 30
0.0
  0
POINT
  5
2F2
  8
DEFPOINTS
  6
CONTINUOUS
 62
     0
 10
2160.627301159562
 20
-1758.731674583732
 30
0.0
  0
POINT
  5
2F3
  8
DEFPOINTS
  6
CONTINUOUS
 62
     0
 10
2204.600692671124
 20
-1758.731674583732
 30
0.0
  0
ENDBLK
  5
2F4
  8
0
 62
     7
  0
BLOCK
  8
0
  2
*D2323
 70
     1
 10
0.0
 20
0.0
 30
0.0
  3
*D2323
  1

  0
LINE
  5
2DA
  8
回07-寸法
  6
CONTINUOUS
 62
     5
 10
2166.627301159562
 20
-1766.281674583732
 30
0.0
 11
2225.600692671124
 21
-1766.281674583732
 31
0.0
  0
LINE
  5
2DB
  8
回07-寸法
  6
CONTINUOUS
 62
     5
 10
2166.627301159562
 20
-1516.281674583733
 30
0.0
 11
2225.600692671124
 21
-1516.281674583733
 31
0.0
  0
LINE
  5
2DC
  8
回07-寸法
  6
CONTINUOUS
 62
     5
 10
2224.600692671124
 20
-1764.781674583732
 30
0.0
 11
2224.600692671124
 21
-1517.781674583732
 31
0.0
  0
INSERT
  5
2DD
  8
回07-寸法
  6
CONTINUOUS
 62
     5
 66
     1
  2
_OPEN
 10
2224.600692671124
 20
-1766.281674583732
 30
0.0
 41
1.5
 42
1.5
 43
1.5
 50
270.0
  0
SEQEND
  5
2DE
  8
回07-寸法
  6
CONTINUOUS
 62
     7
  0
INSERT
  5
2DF
  8
回07-寸法
  6
CONTINUOUS
 62
     5
 66
     1
  2
_OPEN
 10
2224.600692671124
 20
-1516.281674583733
 30
0.0
 41
1.5
 42
1.5
 43
1.5
 50
90.0
  0
SEQEND
  5
2E0
  8
回07-寸法
  6
CONTINUOUS
 62
     7
  0
INSERT
  5
2E1
  8
回07-寸法
  6
CONTINUOUS
 62
     5
 66
     1
  2
*X9494
 10
0.0
 20
0.0
 30
0.0
  0
SEQEND
  5
76E
  8
回07-寸法
  6
CONTINUOUS
 62
     7
  0
POINT
  5
2E2
  8
DEFPOINTS
  6
CONTINUOUS
 62
     0
 10
2166.627301159562
 20
-1766.281674583732
 30
0.0
  0
POINT
  5
2E3
  8
DEFPOINTS
  6
CONTINUOUS
 62
     0
 10
2166.627301159562
 20
-1516.281674583733
 30
0.0
  0
POINT
  5
2E4
  8
DEFPOINTS
  6
CONTINUOUS
 62
     0
 10
2224.600692671124
 20
-1516.281674583733
 30
0.0
  0
ENDBLK
  5
2E5
  8
0
 62
     7
  0
BLOCK
  8
0
  2
*D2424
 70
     1
 10
0.0
 20
0.0
 30
0.0
  3
*D2424
  1

  0
LINE
  5
2C9
  8
回07-寸法
  6
CONTINUOUS
 62
     5
 10
2158.627301159562
 20
-1756.731674583732
 30
0.0
 11
2195.600692671122
 21
-1756.731674583732
 31
0.0
  0
LINE
  5
2CA
  8
回07-寸法
  6
CONTINUOUS
 62
     5
 10
2166.627301159562
 20
-1766.281674583732
 30
0.0
 11
2195.600692671122
 21
-1766.281674583732
 31
0.0
  0
LINE
  5
2CB
  8
回07-寸法
  6
CONTINUOUS
 62
     5
 10
2194.600692671123
 20
-1755.231674583732
 30
0.0
 11
2194.600692671123
 21
-1753.731674583733
 31
0.0
  0
LINE
  5
2CC
  8
回07-寸法
  6
CONTINUOUS
 62
     5
 10
2194.600692671123
 20
-1767.781674583732
 30
0.0
 11
2194.600692671123
 21
-1782.209895827331
 31
0.0
  0
LINE
  5
2CD
  8
回07-寸法
  6
CONTINUOUS
 62
     5
 10
2194.600692671123
 20
-1756.731674583732
 30
0.0
 11
2194.600692671123
 21
-1766.281674583732
 31
0.0
  0
INSERT
  5
2CE
  8
回07-寸法
  6
CONTINUOUS
 62
     5
 66
     1
  2
_OPEN
 10
2194.600692671123
 20
-1756.731674583732
 30
0.0
 41
1.5
 42
1.5
 43
1.5
 50
270.0
  0
SEQEND
  5
2CF
  8
回07-寸法
  6
CONTINUOUS
 62
     7
  0
INSERT
  5
2D0
  8
回07-寸法
  6
CONTINUOUS
 62
     5
 66
     1
  2
_OPEN
 10
2194.600692671123
 20
-1766.281674583732
 30
0.0
 41
1.5
 42
1.5
 43
1.5
 50
90.0
  0
SEQEND
  5
2D1
  8
回07-寸法
  6
CONTINUOUS
 62
     7
  0
TEXT
  5
2D2
  8
回07-寸法
  6
CONTINUOUS
 62
     5
 10
2194.100692671122
 20
-1782.578008267483
 30
0.0
 40
8.0
  1
9.6
 50
90.0
1001
ACAD
1000
MTEXTBEGIN
1070
    73
1070
     1
1070
    44
1040
1.0
1070
    74
1070
     0
1000
MTEXTEND
  0
POINT
  5
2D3
  8
DEFPOINTS
  6
CONTINUOUS
 62
     0
 10
2158.627301159562
 20
-1756.731674583732
 30
0.0
  0
POINT
  5
2D4
  8
DEFPOINTS
  6
CONTINUOUS
 62
     0
 10
2166.627301159562
 20
-1766.281674583732
 30
0.0
  0
POINT
  5
2D5
  8
DEFPOINTS
  6
CONTINUOUS
 62
     0
 10
2194.600692671123
 20
-1766.281674583732
 30
0.0
  0
ENDBLK
  5
2D6
  8
0
 62
     7
  0
BLOCK
  8
0
  2
*D2525
 70
     1
 10
0.0
 20
0.0
 30
0.0
  3
*D2525
  1

  0
LINE
  5
2B8
  8
回07-寸法
  6
CONTINUOUS
 62
     5
 10
2160.627301159562
 20
-1758.731674583732
 30
0.0
 11
2205.600692671123
 21
-1758.731674583732
 31
0.0
  0
LINE
  5
2B9
  8
回07-寸法
  6
CONTINUOUS
 62
     5
 10
2166.627301159562
 20
-1766.281674583732
 30
0.0
 11
2205.600692671123
 21
-1766.281674583732
 31
0.0
  0
LINE
  5
2BA
  8
回07-寸法
  6
CONTINUOUS
 62
     5
 10
2204.600692671123
 20
-1757.231674583732
 30
0.0
 11
2204.600692671123
 21
-1755.731674583732
 31
0.0
  0
LINE
  5
2BB
  8
回07-寸法
  6
CONTINUOUS
 62
     5
 10
2204.600692671123
 20
-1767.781674583732
 30
0.0
 11
2204.600692671123
 21
-1781.878524977438
 31
0.0
  0
LINE
  5
2BC
  8
回07-寸法
  6
CONTINUOUS
 62
     5
 10
2204.600692671123
 20
-1758.731674583732
 30
0.0
 11
2204.600692671123
 21
-1766.281674583732
 31
0.0
  0
INSERT
  5
2BD
  8
回07-寸法
  6
CONTINUOUS
 62
     5
 66
     1
  2
_OPEN
 10
2204.600692671123
 20
-1758.731674583732
 30
0.0
 41
1.5
 42
1.5
 43
1.5
 50
270.0
  0
SEQEND
  5
2BE
  8
回07-寸法
  6
CONTINUOUS
 62
     7
  0
INSERT
  5
2BF
  8
回07-寸法
  6
CONTINUOUS
 62
     5
 66
     1
  2
_OPEN
 10
2204.600692671123
 20
-1766.281674583732
 30
0.0
 41
1.5
 42
1.5
 43
1.5
 50
90.0
  0
SEQEND
  5
2C0
  8
回07-寸法
  6
CONTINUOUS
 62
     7
  0
TEXT
  5
2C1
  8
回07-寸法
  6
CONTINUOUS
 62
     5
 10
2204.100692671122
 20
-1782.383439894323
 30
0.0
 40
8.0
  1
7.6
 50
90.0
1001
ACAD
1000
MTEXTBEGIN
1070
    73
1070
     1
1070
    44
1040
1.0
1070
    74
1070
     0
1000
MTEXTEND
  0
POINT
  5
2C2
  8
DEFPOINTS
  6
CONTINUOUS
 62
     0
 10
2160.627301159562
 20
-1758.731674583732
 30
0.0
  0
POINT
  5
2C3
  8
DEFPOINTS
  6
CONTINUOUS
 62
     0
 10
2166.627301159562
 20
-1766.281674583732
 30
0.0
  0
POINT
  5
2C4
  8
DEFPOINTS
  6
CONTINUOUS
 62
     0
 10
2204.600692671123
 20
-1766.281674583732
 30
0.0
  0
ENDBLK
  5
2C5
  8
0
 62
     7
  0
BLOCK
  8
0
  2
*D2626
 70
     1
 10
0.0
 20
0.0
 30
0.0
  3
*D2626
  1

  0
LINE
  5
2A9
  8
回07-寸法
  6
CONTINUOUS
 62
     5
 10
2161.127301159561
 20
-1523.031674583731
 30
0.0
 11
2161.127301159561
 21
-1459.511015714858
 31
0.0
  0
LINE
  5
2AA
  8
回07-寸法
  6
CONTINUOUS
 62
     5
 10
1745.827301159561
 20
-1523.031674583731
 30
0.0
 11
1745.827301159561
 21
-1459.511015714858
 31
0.0
  0
LINE
  5
2AB
  8
回07-寸法
  6
CONTINUOUS
 62
     5
 10
2159.627301159561
 20
-1460.511015714858
 30
0.0
 11
1747.32730115956
 21
-1460.511015714858
 31
0.0
  0
INSERT
  5
2AC
  8
回07-寸法
  6
CONTINUOUS
 62
     5
 66
     1
  2
_OPEN
 10
2161.127301159561
 20
-1460.511015714858
 30
0.0
 41
1.5
 42
1.5
 43
1.5
  0
SEQEND
  5
2AD
  8
回07-寸法
  6
CONTINUOUS
 62
     7
  0
INSERT
  5
2AE
  8
回07-寸法
  6
CONTINUOUS
 62
     5
 66
     1
  2
_OPEN
 10
1745.827301159561
 20
-1460.511015714858
 30
0.0
 41
1.5
 42
1.5
 43
1.5
 50
180.0
  0
SEQEND
  5
2AF
  8
回07-寸法
  6
CONTINUOUS
 62
     7
  0
TEXT
  5
2B0
  8
回07-寸法
  6
CONTINUOUS
 62
     5
 10
1941.477301159561
 20
-1460.011015714858
 30
0.0
 40
8.0
  1
415.3
1001
ACAD
1000
MTEXTBEGIN
1070
    73
1070
     1
1070
    44
1040
1.0
1070
    74
1070
     0
1000
MTEXTEND
  0
POINT
  5
2B1
  8
DEFPOINTS
  6
CONTINUOUS
 62
     0
 10
2161.127301159561
 20
-1523.031674583731
 30
0.0
  0
POINT
  5
2B2
  8
DEFPOINTS
  6
CONTINUOUS
 62
     0
 10
1745.827301159561
 20
-1523.031674583731
 30
0.0
  0
POINT
  5
2B3
  8
DEFPOINTS
  6
CONTINUOUS
 62
     0
 10
1745.827301159561
 20
-1460.511015714858
 30
0.0
  0
ENDBLK
  5
2B4
  8
0
 62
     7
  0
BLOCK
  8
0
  2
*D2727
 70
     1
 10
0.0
 20
0.0
 30
0.0
  3
*D2727
  1

  0
LINE
  5
29A
  8
回07-寸法
  6
CONTINUOUS
 62
     5
 10
2161.127301159562
 20
-1523.031674583732
 30
0.0
 11
2215.600692671124
 21
-1523.031674583732
 31
0.0
  0
LINE
  5
29B
  8
回07-寸法
  6
CONTINUOUS
 62
     5
 10
2161.127301159562
 20
-1759.531674583733
 30
0.0
 11
2215.600692671124
 21
-1759.531674583733
 31
0.0
  0
LINE
  5
29C
  8
回07-寸法
  6
CONTINUOUS
 62
     5
 10
2214.600692671123
 20
-1524.531674583732
 30
0.0
 11
2214.600692671123
 21
-1758.031674583732
 31
0.0
  0
INSERT
  5
29D
  8
回07-寸法
  6
CONTINUOUS
 62
     5
 66
     1
  2
_OPEN
 10
2214.600692671123
 20
-1523.031674583732
 30
0.0
 41
1.5
 42
1.5
 43
1.5
 50
90.0
  0
SEQEND
  5
29E
  8
回07-寸法
  6
CONTINUOUS
 62
     7
  0
INSERT
  5
29F
  8
回07-寸法
  6
CONTINUOUS
 62
     5
 66
     1
  2
_OPEN
 10
2214.600692671123
 20
-1759.531674583733
 30
0.0
 41
1.5
 42
1.5
 43
1.5
 50
270.0
  0
SEQEND
  5
2A0
  8
回07-寸法
  6
CONTINUOUS
 62
     7
  0
TEXT
  5
2A1
  8
回07-寸法
  6
CONTINUOUS
 62
     5
 10
2214.099905269548
 20
-1653.681674583731
 30
0.0
 40
8.0
  1
236.5
 50
90.0
1001
ACAD
1000
MTEXTBEGIN
1070
    73
1070
     1
1070
    44
1040
1.0
1070
    74
1070
     0
1000
MTEXTEND
  0
POINT
  5
2A2
  8
DEFPOINTS
  6
CONTINUOUS
 62
     0
 10
2161.127301159562
 20
-1523.031674583732
 30
0.0
  0
POINT
  5
2A3
  8
DEFPOINTS
  6
CONTINUOUS
 62
     0
 10
2161.127301159562
 20
-1759.531674583733
 30
0.0
  0
POINT
  5
2A4
  8
DEFPOINTS
  6
CONTINUOUS
 62
     0
 10
2214.600692671123
 20
-1759.531674583733
 30
0.0
  0
ENDBLK
  5
2A5
  8
0
 62
     7
  0
BLOCK
  8
0
  2
*D2828
 70
     1
 10
0.0
 20
0.0
 30
0.0
  3
*D2828
  1

  0
LINE
  5
289
  8
回07-寸法
  6
CONTINUOUS
 62
     5
 10
2161.127301159562
 20
-1523.031674583732
 30
0.0
 11
2215.600692671127
 21
-1523.031674583732
 31
0.0
  0
LINE
  5
28A
  8
回07-寸法
  6
CONTINUOUS
 62
     5
 10
2166.627301159562
 20
-1516.281674583732
 30
0.0
 11
2215.600692671127
 21
-1516.281674583732
 31
0.0
  0
LINE
  5
28B
  8
回07-寸法
  6
CONTINUOUS
 62
     5
 10
2214.600692671127
 20
-1524.531674583732
 30
0.0
 11
2214.600692671127
 21
-1526.031674583731
 31
0.0
  0
LINE
  5
28C
  8
回07-寸法
  6
CONTINUOUS
 62
     5
 10
2214.600692671127
 20
-1514.781674583732
 30
0.0
 11
2214.600692671127
 21
-1494.68797379633
 31
0.0
  0
LINE
  5
28D
  8
回07-寸法
  6
CONTINUOUS
 62
     5
 10
2214.600692671127
 20
-1523.031674583732
 30
0.0
 11
2214.600692671127
 21
-1516.281674583732
 31
0.0
  0
INSERT
  5
28E
  8
回07-寸法
  6
CONTINUOUS
 62
     5
 66
     1
  2
_OPEN
 10
2214.600692671127
 20
-1523.031674583732
 30
0.0
 41
1.5
 42
1.5
 43
1.5
 50
90.0
  0
SEQEND
  5
28F
  8
回07-寸法
  6
CONTINUOUS
 62
     7
  0
INSERT
  5
290
  8
回07-寸法
  6
CONTINUOUS
 62
     5
 66
     1
  2
_OPEN
 10
2214.600692671127
 20
-1516.281674583732
 30
0.0
 41
1.5
 42
1.5
 43
1.5
 50
270.0
  0
SEQEND
  5
291
  8
回07-寸法
  6
CONTINUOUS
 62
     7
  0
TEXT
  5
292
  8
回07-寸法
  6
CONTINUOUS
 62
     5
 10
2213.700692671126
 20
-1513.984824190031
 30
0.0
 40
8.0
  1
(6.8)
 50
90.0
1001
ACAD
1000
MTEXTBEGIN
1070
    73
1070
     1
1070
    44
1040
1.0
1070
    74
1070
     0
1000
MTEXTEND
  0
POINT
  5
293
  8
DEFPOINTS
  6
CONTINUOUS
 62
     0
 10
2161.127301159562
 20
-1523.031674583732
 30
0.0
  0
POINT
  5
294
  8
DEFPOINTS
  6
CONTINUOUS
 62
     0
 10
2166.627301159562
 20
-1516.281674583732
 30
0.0
  0
POINT
  5
295
  8
DEFPOINTS
  6
CONTINUOUS
 62
     0
 10
2214.600692671127
 20
-1516.281674583732
 30
0.0
  0
ENDBLK
  5
296
  8
0
 62
     7
  0
BLOCK
  8
0
  2
*D2929
 70
     1
 10
0.0
 20
0.0
 30
0.0
  3
*D2929
  1

  0
LINE
  5
278
  8
回07-寸法
  6
CONTINUOUS
 62
     5
 10
2160.627301159562
 20
-1523.831674583732
 30
0.0
 11
2205.600692671125
 21
-1523.831674583732
 31
0.0
  0
LINE
  5
279
  8
回07-寸法
  6
CONTINUOUS
 62
     5
 10
2166.627301159562
 20
-1516.281674583732
 30
0.0
 11
2205.600692671125
 21
-1516.281674583732
 31
0.0
  0
LINE
  5
27A
  8
回07-寸法
  6
CONTINUOUS
 62
     5
 10
2204.600692671125
 20
-1525.331674583732
 30
0.0
 11
2204.600692671125
 21
-1526.831674583732
 31
0.0
  0
LINE
  5
27B
  8
回07-寸法
  6
CONTINUOUS
 62
     5
 10
2204.600692671125
 20
-1514.781674583732
 30
0.0
 11
2204.600692671125
 21
-1494.68797379633
 31
0.0
  0
LINE
  5
27C
  8
回07-寸法
  6
CONTINUOUS
 62
     5
 10
2204.600692671125
 20
-1523.831674583732
 30
0.0
 11
2204.600692671125
 21
-1516.281674583732
 31
0.0
  0
INSERT
  5
27D
  8
回07-寸法
  6
CONTINUOUS
 62
     5
 66
     1
  2
_OPEN
 10
2204.600692671125
 20
-1523.831674583732
 30
0.0
 41
1.5
 42
1.5
 43
1.5
 50
90.0
  0
SEQEND
  5
27E
  8
回07-寸法
  6
CONTINUOUS
 62
     7
  0
INSERT
  5
27F
  8
回07-寸法
  6
CONTINUOUS
 62
     5
 66
     1
  2
_OPEN
 10
2204.600692671125
 20
-1516.281674583732
 30
0.0
 41
1.5
 42
1.5
 43
1.5
 50
270.0
  0
SEQEND
  5
280
  8
回07-寸法
  6
CONTINUOUS
 62
     7
  0
TEXT
  5
281
  8
回07-寸法
  6
CONTINUOUS
 62
     5
 10
2203.700692671124
 20
-1513.984824190031
 30
0.0
 40
8.0
  1
(7.6)
 50
90.0
1001
ACAD
1000
MTEXTBEGIN
1070
    73
1070
     1
1070
    44
1040
1.0
1070
    74
1070
     0
1000
MTEXTEND
  0
POINT
  5
282
  8
DEFPOINTS
  6
CONTINUOUS
 62
     0
 10
2160.627301159562
 20
-1523.831674583732
 30
0.0
  0
POINT
  5
283
  8
DEFPOINTS
  6
CONTINUOUS
 62
     0
 10
2166.627301159562
 20
-1516.281674583732
 30
0.0
  0
POINT
  5
284
  8
DEFPOINTS
  6
CONTINUOUS
 62
     0
 10
2204.600692671125
 20
-1516.281674583732
 30
0.0
  0
ENDBLK
  5
285
  8
0
 62
     7
  0
BLOCK
  8
0
  2
*D3030
 70
     1
 10
0.0
 20
0.0
 30
0.0
  3
*D3030
  1

  0
LINE
  5
267
  8
回07-寸法
  6
CONTINUOUS
 62
     5
 10
2158.627301159562
 20
-1525.831674583732
 30
0.0
 11
2195.600692671122
 21
-1525.831674583732
 31
0.0
  0
LINE
  5
268
  8
回07-寸法
  6
CONTINUOUS
 62
     5
 10
2166.627301159562
 20
-1516.281674583732
 30
0.0
 11
2195.600692671122
 21
-1516.281674583732
 31
0.0
  0
LINE
  5
269
  8
回07-寸法
  6
CONTINUOUS
 62
     5
 10
2194.600692671123
 20
-1527.331674583732
 30
0.0
 11
2194.600692671123
 21
-1528.831674583732
 31
0.0
  0
LINE
  5
26A
  8
回07-寸法
  6
CONTINUOUS
 62
     5
 10
2194.600692671123
 20
-1514.781674583732
 30
0.0
 11
2194.600692671123
 21
-1494.660019152375
 31
0.0
  0
LINE
  5
26B
  8
回07-寸法
  6
CONTINUOUS
 62
     5
 10
2194.600692671123
 20
-1525.831674583732
 30
0.0
 11
2194.600692671123
 21
-1516.281674583732
 31
0.0
  0
INSERT
  5
26C
  8
回07-寸法
  6
CONTINUOUS
 62
     5
 66
     1
  2
_OPEN
 10
2194.600692671123
 20
-1525.831674583732
 30
0.0
 41
1.5
 42
1.5
 43
1.5
 50
90.0
  0
SEQEND
  5
26D
  8
回07-寸法
  6
CONTINUOUS
 62
     7
  0
INSERT
  5
26E
  8
回07-寸法
  6
CONTINUOUS
 62
     5
 66
     1
  2
_OPEN
 10
2194.600692671123
 20
-1516.281674583732
 30
0.0
 41
1.5
 42
1.5
 43
1.5
 50
270.0
  0
SEQEND
  5
26F
  8
回07-寸法
  6
CONTINUOUS
 62
     7
  0
TEXT
  5
270
  8
回07-寸法
  6
CONTINUOUS
 62
     5
 10
2193.698759235043
 20
-1513.985288342162
 30
0.0
 40
8.0
  1
(9.6)
 50
90.0
1001
ACAD
1000
MTEXTBEGIN
1070
    73
1070
     1
1070
    44
1040
1.0
1070
    74
1070
     0
1000
MTEXTEND
  0
POINT
  5
271
  8
DEFPOINTS
  6
CONTINUOUS
 62
     0
 10
2158.627301159562
 20
-1525.831674583732
 30
0.0
  0
POINT
  5
272
  8
DEFPOINTS
  6
CONTINUOUS
 62
     0
 10
2166.627301159562
 20
-1516.281674583732
 30
0.0
  0
POINT
  5
273
  8
DEFPOINTS
  6
CONTINUOUS
 62
     0
 10
2194.600692671123
 20
-1516.281674583732
 30
0.0
  0
ENDBLK
  5
274
  8
0
 62
     7
  0
BLOCK
  8
0
  2
*D3131
 70
     1
 10
0.0
 20
0.0
 30
0.0
  3
*D3131
  1

  0
LINE
  5
256
  8
回07-寸法
  6
CONTINUOUS
 62
     5
 10
2161.127301159562
 20
-1759.531674583733
 30
0.0
 11
2215.600692671122
 21
-1759.531674583733
 31
0.0
  0
LINE
  5
257
  8
回07-寸法
  6
CONTINUOUS
 62
     5
 10
2166.627301159562
 20
-1766.281674583732
 30
0.0
 11
2215.600692671122
 21
-1766.281674583732
 31
0.0
  0
LINE
  5
258
  8
回07-寸法
  6
CONTINUOUS
 62
     5
 10
2214.600692671123
 20
-1758.031674583732
 30
0.0
 11
2214.600692671123
 21
-1756.531674583732
 31
0.0
  0
LINE
  5
259
  8
回07-寸法
  6
CONTINUOUS
 62
     5
 10
2214.600692671123
 20
-1767.781674583732
 30
0.0
 11
2214.600692671123
 21
-1846.473052536487
 31
0.0
  0
LINE
  5
25A
  8
回07-寸法
  6
CONTINUOUS
 62
     5
 10
2214.600692671123
 20
-1759.531674583733
 30
0.0
 11
2214.600692671123
 21
-1766.281674583732
 31
0.0
  0
INSERT
  5
25B
  8
回07-寸法
  6
CONTINUOUS
 62
     5
 66
     1
  2
_OPEN
 10
2214.600692671123
 20
-1759.531674583733
 30
0.0
 41
1.5
 42
1.5
 43
1.5
 50
270.0
  0
SEQEND
  5
25C
  8
回07-寸法
  6
CONTINUOUS
 62
     7
  0
INSERT
  5
25D
  8
回07-寸法
  6
CONTINUOUS
 62
     5
 66
     1
  2
_OPEN
 10
2214.600692671123
 20
-1766.281674583732
 30
0.0
 41
1.5
 42
1.5
 43
1.5
 50
90.0
  0
SEQEND
  5
25E
  8
回07-寸法
  6
CONTINUOUS
 62
     7
  0
INSERT
  5
25F
  8
回07-寸法
  6
CONTINUOUS
 62
     5
 66
     1
  2
*X9595
 10
0.0
 20
0.0
 30
0.0
  0
SEQEND
  5
774
  8
回07-寸法
  6
CONTINUOUS
 62
     7
  0
POINT
  5
260
  8
DEFPOINTS
  6
CONTINUOUS
 62
     0
 10
2161.127301159562
 20
-1759.531674583733
 30
0.0
  0
POINT
  5
261
  8
DEFPOINTS
  6
CONTINUOUS
 62
     0
 10
2166.627301159562
 20
-1766.281674583732
 30
0.0
  0
POINT
  5
262
  8
DEFPOINTS
  6
CONTINUOUS
 62
     0
 10
2214.600692671123
 20
-1766.281674583732
 30
0.0
  0
ENDBLK
  5
263
  8
0
 62
     7
  0
BLOCK
  8
0
  2
*D3232
 70
     1
 10
0.0
 20
0.0
 30
0.0
  3
*D3232
  1

  0
LINE
  5
245
  8
回07-寸法
  6
CONTINUOUS
 62
     5
 10
2158.627301159561
 20
-1525.831674583731
 30
0.0
 11
2158.627301159561
 21
-1479.511015714858
 31
0.0
  0
LINE
  5
246
  8
回07-寸法
  6
CONTINUOUS
 62
     5
 10
2166.627301159561
 20
-1516.281674583731
 30
0.0
 11
2166.627301159561
 21
-1479.511015714858
 31
0.0
  0
LINE
  5
247
  8
回07-寸法
  6
CONTINUOUS
 62
     5
 10
2157.127301159561
 20
-1480.511015714858
 30
0.0
 11
2155.627301159561
 21
-1480.511015714858
 31
0.0
  0
LINE
  5
248
  8
回07-寸法
  6
CONTINUOUS
 62
     5
 10
2168.127301159561
 20
-1480.511015714858
 30
0.0
 11
2181.229565411101
 21
-1480.511015714858
 31
0.0
  0
LINE
  5
249
  8
回07-寸法
  6
CONTINUOUS
 62
     5
 10
2158.627301159561
 20
-1480.511015714858
 30
0.0
 11
2166.627301159561
 21
-1480.511015714858
 31
0.0
  0
INSERT
  5
24A
  8
回07-寸法
  6
CONTINUOUS
 62
     5
 66
     1
  2
_OPEN
 10
2158.627301159561
 20
-1480.511015714858
 30
0.0
 41
1.5
 42
1.5
 43
1.5
  0
SEQEND
  5
24B
  8
回07-寸法
  6
CONTINUOUS
 62
     7
  0
INSERT
  5
24C
  8
回07-寸法
  6
CONTINUOUS
 62
     5
 66
     1
  2
_OPEN
 10
2166.627301159561
 20
-1480.511015714858
 30
0.0
 41
1.5
 42
1.5
 43
1.5
 50
180.0
  0
SEQEND
  5
24D
  8
回07-寸法
  6
CONTINUOUS
 62
     7
  0
TEXT
  5
24E
  8
回07-寸法
  6
CONTINUOUS
 62
     5
 10
2169.9327150174
 20
-1479.611015714858
 30
0.0
 40
8.0
  1
(8)
1001
ACAD
1000
MTEXTBEGIN
1070
    73
1070
     1
1070
    44
1040
1.0
1070
    74
1070
     0
1000
MTEXTEND
  0
POINT
  5
24F
  8
DEFPOINTS
  6
CONTINUOUS
 62
     0
 10
2158.627301159561
 20
-1525.831674583731
 30
0.0
  0
POINT
  5
250
  8
DEFPOINTS
  6
CONTINUOUS
 62
     0
 10
2166.627301159561
 20
-1516.281674583731
 30
0.0
  0
POINT
  5
251
  8
DEFPOINTS
  6
CONTINUOUS
 62
     0
 10
2166.627301159561
 20
-1480.511015714858
 30
0.0
  0
ENDBLK
  5
252
  8
0
 62
     7
  0
BLOCK
  8
0
  2
*D3333
 70
     1
 10
0.0
 20
0.0
 30
0.0
  3
*D3333
  1

  0
LINE
  5
234
  8
回07-寸法
  6
CONTINUOUS
 62
     5
 10
2160.627301159561
 20
-1523.831674583731
 30
0.0
 11
2160.627301159561
 21
-1469.511015714858
 31
0.0
  0
LINE
  5
235
  8
回07-寸法
  6
CONTINUOUS
 62
     5
 10
2166.627301159561
 20
-1516.281674583731
 30
0.0
 11
2166.627301159561
 21
-1469.511015714858
 31
0.0
  0
LINE
  5
236
  8
回07-寸法
  6
CONTINUOUS
 62
     5
 10
2159.127301159561
 20
-1470.511015714858
 30
0.0
 11
2157.627301159561
 21
-1470.511015714858
 31
0.0
  0
LINE
  5
237
  8
回07-寸法
  6
CONTINUOUS
 62
     5
 10
2168.127301159561
 20
-1470.511015714858
 30
0.0
 11
2180.721001946963
 21
-1470.511015714858
 31
0.0
  0
LINE
  5
238
  8
回07-寸法
  6
CONTINUOUS
 62
     5
 10
2160.627301159561
 20
-1470.511015714858
 30
0.0
 11
2166.627301159561
 21
-1470.511015714858
 31
0.0
  0
INSERT
  5
239
  8
回07-寸法
  6
CONTINUOUS
 62
     5
 66
     1
  2
_OPEN
 10
2160.627301159561
 20
-1470.511015714858
 30
0.0
 41
1.5
 42
1.5
 43
1.5
  0
SEQEND
  5
23A
  8
回07-寸法
  6
CONTINUOUS
 62
     7
  0
INSERT
  5
23B
  8
回07-寸法
  6
CONTINUOUS
 62
     5
 66
     1
  2
_OPEN
 10
2166.627301159561
 20
-1470.511015714858
 30
0.0
 41
1.5
 42
1.5
 43
1.5
 50
180.0
  0
SEQEND
  5
23C
  8
回07-寸法
  6
CONTINUOUS
 62
     7
  0
TEXT
  5
23D
  8
回07-寸法
  6
CONTINUOUS
 62
     5
 10
2169.424151553262
 20
-1469.611015714858
 30
0.0
 40
8.0
  1
(6)
1001
ACAD
1000
MTEXTBEGIN
1070
    73
1070
     1
1070
    44
1040
1.0
1070
    74
1070
     0
1000
MTEXTEND
  0
POINT
  5
23E
  8
DEFPOINTS
  6
CONTINUOUS
 62
     0
 10
2160.627301159561
 20
-1523.831674583731
 30
0.0
  0
POINT
  5
23F
  8
DEFPOINTS
  6
CONTINUOUS
 62
     0
 10
2166.627301159561
 20
-1516.281674583731
 30
0.0
  0
POINT
  5
240
  8
DEFPOINTS
  6
CONTINUOUS
 62
     0
 10
2166.627301159561
 20
-1470.511015714858
 30
0.0
  0
ENDBLK
  5
241
  8
0
 62
     7
  0
BLOCK
  8
0
  2
*D3434
 70
     1
 10
0.0
 20
0.0
 30
0.0
  3
*D3434
  1

  0
LINE
  5
223
  8
回07-寸法
  6
CONTINUOUS
 62
     5
 10
2161.127301159561
 20
-1523.031674583731
 30
0.0
 11
2161.127301159561
 21
-1459.511015714858
 31
0.0
  0
LINE
  5
224
  8
回07-寸法
  6
CONTINUOUS
 62
     5
 10
2166.627301159561
 20
-1516.281674583731
 30
0.0
 11
2166.627301159561
 21
-1459.511015714858
 31
0.0
  0
LINE
  5
225
  8
回07-寸法
  6
CONTINUOUS
 62
     5
 10
2159.627301159561
 20
-1460.511015714858
 30
0.0
 11
2158.127301159561
 21
-1460.511015714858
 31
0.0
  0
LINE
  5
226
  8
回07-寸法
  6
CONTINUOUS
 62
     5
 10
2168.127301159561
 20
-1460.511015714858
 30
0.0
 11
2238.184683049325
 21
-1460.511015714858
 31
0.0
  0
LINE
  5
227
  8
回07-寸法
  6
CONTINUOUS
 62
     5
 10
2161.127301159561
 20
-1460.511015714858
 30
0.0
 11
2166.627301159561
 21
-1460.511015714858
 31
0.0
  0
INSERT
  5
228
  8
回07-寸法
  6
CONTINUOUS
 62
     5
 66
     1
  2
_OPEN
 10
2161.127301159561
 20
-1460.511015714858
 30
0.0
 41
1.5
 42
1.5
 43
1.5
  0
SEQEND
  5
229
  8
回07-寸法
  6
CONTINUOUS
 62
     7
  0
INSERT
  5
22A
  8
回07-寸法
  6
CONTINUOUS
 62
     5
 66
     1
  2
_OPEN
 10
2166.627301159561
 20
-1460.511015714858
 30
0.0
 41
1.5
 42
1.5
 43
1.5
 50
180.0
  0
SEQEND
  5
22B
  8
回07-寸法
  6
CONTINUOUS
 62
     7
  0
INSERT
  5
22C
  8
回07-寸法
  6
CONTINUOUS
 62
     5
 66
     1
  2
*X9696
 10
0.0
 20
0.0
 30
0.0
  0
SEQEND
  5
77A
  8
回07-寸法
  6
CONTINUOUS
 62
     7
  0
POINT
  5
22D
  8
DEFPOINTS
  6
CONTINUOUS
 62
     0
 10
2161.127301159561
 20
-1523.031674583731
 30
0.0
  0
POINT
  5
22E
  8
DEFPOINTS
  6
CONTINUOUS
 62
     0
 10
2166.627301159561
 20
-1516.281674583731
 30
0.0
  0
POINT
  5
22F
  8
DEFPOINTS
  6
CONTINUOUS
 62
     0
 10
2166.627301159561
 20
-1460.511015714858
 30
0.0
  0
ENDBLK
  5
230
  8
0
 62
     7
  0
BLOCK
  8
0
  2
*D3535
 70
     1
 10
0.0
 20
0.0
 30
0.0
  3
*D3535
  1

  0
LINE
  5
B6
  8
回02-寸法
  6
CONTINUOUS
 62
     5
 10
1664.994285005555
 20
-1527.329754950341
 30
0.0
 11
1625.160940866668
 21
-1527.329754950341
 31
0.0
  0
LINE
  5
B7
  8
回02-寸法
  6
CONTINUOUS
 62
     5
 10
1664.994285005555
 20
-1543.829754950339
 30
0.0
 11
1625.160940866668
 21
-1543.829754950339
 31
0.0
  0
LINE
  5
B8
  8
回02-寸法
  6
CONTINUOUS
 62
     5
 10
1626.160940866668
 20
-1524.329754950341
 30
0.0
 11
1626.160940866668
 21
-1521.329754950341
 31
0.0
  0
LINE
  5
B9
  8
回02-寸法
  6
CONTINUOUS
 62
     5
 10
1626.160940866668
 20
-1546.829754950339
 30
0.0
 11
1626.160940866668
 21
-1569.309144714119
 31
0.0
  0
LINE
  5
BA
  8
回02-寸法
  6
CONTINUOUS
 62
     5
 10
1626.160940866668
 20
-1527.329754950341
 30
0.0
 11
1626.160940866668
 21
-1543.829754950339
 31
0.0
  0
INSERT
  5
BB
  8
回02-寸法
  6
CONTINUOUS
 62
     5
 66
     1
  2
_OPEN
 10
1626.160940866668
 20
-1527.329754950341
 30
0.0
 41
3.0
 42
3.0
 43
3.0
 50
270.0
  0
SEQEND
  5
BC
  8
回07-寸法
  6
CONTINUOUS
 62
     7
  0
INSERT
  5
BD
  8
回02-寸法
  6
CONTINUOUS
 62
     5
 66
     1
  2
_OPEN
 10
1626.160940866668
 20
-1543.829754950339
 30
0.0
 41
3.0
 42
3.0
 43
3.0
 50
90.0
  0
SEQEND
  5
BE
  8
回07-寸法
  6
CONTINUOUS
 62
     7
  0
INSERT
  5
BF
  8
回02-寸法
  6
CONTINUOUS
 62
     5
 66
     1
  2
*X9797
 10
0.0
 20
0.0
 30
0.0
  0
SEQEND
  5
780
  8
回07-寸法
  6
CONTINUOUS
 62
     7
  0
POINT
  5
C0
  8
DEFPOINTS
  6
CONTINUOUS
 62
     0
 10
1664.994285005555
 20
-1527.329754950341
 30
0.0
  0
POINT
  5
C1
  8
DEFPOINTS
  6
CONTINUOUS
 62
     0
 10
1664.994285005555
 20
-1543.829754950339
 30
0.0
  0
POINT
  5
C2
  8
DEFPOINTS
  6
CONTINUOUS
 62
     0
 10
1626.160940866668
 20
-1543.829754950339
 30
0.0
  0
ENDBLK
  5
C3
  8
0
 62
     7
  0
BLOCK
  8
0
  2
*D3636
 70
     1
 10
0.0
 20
0.0
 30
0.0
  3
*D3636
  1

  0
LINE
  5
9C
  8
回02-寸法
  6
CONTINUOUS
 62
     5
 10
1659.846906607005
 20
-1537.229754950347
 30
0.0
 11
1642.921128084873
 21
-1537.229754950347
 31
0.0
  0
LINE
  5
9D
  8
回02-寸法
  6
CONTINUOUS
 62
     5
 10
1659.846906607005
 20
-1540.529754950346
 30
0.0
 11
1642.921128084873
 21
-1540.529754950346
 31
0.0
  0
LINE
  5
9E
  8
回02-寸法
  6
CONTINUOUS
 62
     5
 10
1643.921128084873
 20
-1534.229754950347
 30
0.0
 11
1643.921128084873
 21
-1531.229754950347
 31
0.0
  0
LINE
  5
9F
  8
回02-寸法
  6
CONTINUOUS
 62
     5
 10
1643.921128084873
 20
-1543.529754950347
 30
0.0
 11
1643.921128084873
 21
-1572.02000958263
 31
0.0
  0
LINE
  5
A0
  8
回02-寸法
  6
CONTINUOUS
 62
     5
 10
1643.921128084873
 20
-1537.229754950347
 30
0.0
 11
1643.921128084873
 21
-1540.529754950346
 31
0.0
  0
INSERT
  5
A1
  8
回02-寸法
  6
CONTINUOUS
 62
     5
 66
     1
  2
_OPEN
 10
1643.921128084873
 20
-1537.229754950347
 30
0.0
 41
3.0
 42
3.0
 43
3.0
 50
270.0
  0
SEQEND
  5
A2
  8
回07-寸法
  6
CONTINUOUS
 62
     7
  0
INSERT
  5
A3
  8
回02-寸法
  6
CONTINUOUS
 62
     5
 66
     1
  2
_OPEN
 10
1643.921128084873
 20
-1540.529754950346
 30
0.0
 41
3.0
 42
3.0
 43
3.0
 50
90.0
  0
SEQEND
  5
A4
  8
回07-寸法
  6
CONTINUOUS
 62
     7
  0
INSERT
  5
A5
  8
回02-寸法
  6
CONTINUOUS
 62
     5
 66
     1
  2
*X9898
 10
0.0
 20
0.0
 30
0.0
  0
SEQEND
  5
786
  8
回07-寸法
  6
CONTINUOUS
 62
     7
  0
POINT
  5
A6
  8
DEFPOINTS
  6
CONTINUOUS
 62
     0
 10
1659.846906607005
 20
-1537.229754950347
 30
0.0
  0
POINT
  5
A7
  8
DEFPOINTS
  6
CONTINUOUS
 62
     0
 10
1659.846906607005
 20
-1540.529754950346
 30
0.0
  0
POINT
  5
A8
  8
DEFPOINTS
  6
CONTINUOUS
 62
     0
 10
1643.921128084873
 20
-1540.529754950346
 30
0.0
  0
ENDBLK
  5
A9
  8
0
 62
     7
  0
BLOCK
  8
0
  2
*D3737
 70
     1
 10
0.0
 20
0.0
 30
0.0
  3
*D3737
  1

  0
LINE
  5
8B
  8
回02-寸法
  6
CONTINUOUS
 62
     5
 10
1659.846906607005
 20
-1540.529754950346
 30
0.0
 11
1634.453673890299
 21
-1540.529754950346
 31
0.0
  0
LINE
  5
8C
  8
回02-寸法
  6
CONTINUOUS
 62
     5
 10
1659.846791738579
 20
-1530.629754950346
 30
0.0
 11
1634.453673890299
 21
-1530.629754950346
 31
0.0
  0
LINE
  5
8D
  8
回02-寸法
  6
CONTINUOUS
 62
     5
 10
1635.453673890298
 20
-1527.629754950346
 30
0.0
 11
1635.453673890298
 21
-1524.629754950346
 31
0.0
  0
LINE
  5
8E
  8
回02-寸法
  6
CONTINUOUS
 62
     5
 10
1635.453673890299
 20
-1543.529754950347
 30
0.0
 11
1635.453673890299
 21
-1570.696448950347
 31
0.0
  0
LINE
  5
8F
  8
回02-寸法
  6
CONTINUOUS
 62
     5
 10
1635.453673890298
 20
-1530.629754950346
 30
0.0
 11
1635.453673890298
 21
-1540.529754950346
 31
0.0
  0
INSERT
  5
90
  8
回02-寸法
  6
CONTINUOUS
 62
     5
 66
     1
  2
_OPEN
 10
1635.453673890298
 20
-1530.629754950346
 30
0.0
 41
3.0
 42
3.0
 43
3.0
 50
270.0
  0
SEQEND
  5
91
  8
回07-寸法
  6
CONTINUOUS
 62
     7
  0
INSERT
  5
92
  8
回02-寸法
  6
CONTINUOUS
 62
     5
 66
     1
  2
_OPEN
 10
1635.453673890299
 20
-1540.529754950346
 30
0.0
 41
3.0
 42
3.0
 43
3.0
 50
90.0
  0
SEQEND
  5
93
  8
回07-寸法
  6
CONTINUOUS
 62
     7
  0
INSERT
  5
94
  8
回02-寸法
  6
CONTINUOUS
 62
     5
 66
     1
  2
*X9999
 10
0.0
 20
0.0
 30
0.0
  0
SEQEND
  5
78C
  8
回07-寸法
  6
CONTINUOUS
 62
     7
  0
POINT
  5
95
  8
DEFPOINTS
  6
CONTINUOUS
 62
     0
 10
1659.846906607005
 20
-1540.529754950346
 30
0.0
  0
POINT
  5
96
  8
DEFPOINTS
  6
CONTINUOUS
 62
     0
 10
1659.846791738579
 20
-1530.629754950346
 30
0.0
  0
POINT
  5
97
  8
DEFPOINTS
  6
CONTINUOUS
 62
     0
 10
1635.453673890298
 20
-1530.629754950346
 30
0.0
  0
ENDBLK
  5
98
  8
0
 62
     7
  0
BLOCK
  8
0
  2
*D3838
 70
     1
 10
0.0
 20
0.0
 30
0.0
  3
*D3838
  1

  0
LINE
  5
73
  8
回02-寸法
  6
CONTINUOUS
 62
     5
 10
1663.674285005555
 20
-1541.453754950346
 30
0.0
 11
1652.291089488132
 21
-1541.453754950346
 31
0.0
  0
LINE
  5
74
  8
回02-寸法
  6
CONTINUOUS
 62
     5
 10
1663.674285005555
 20
-1539.605754950347
 30
0.0
 11
1652.291089488132
 21
-1539.605754950347
 31
0.0
  0
LINE
  5
75
  8
回02-寸法
  6
CONTINUOUS
 62
     5
 10
1653.291089488132
 20
-1536.605754950346
 30
0.0
 11
1653.291089488132
 21
-1533.605754950346
 31
0.0
  0
LINE
  5
76
  8
回02-寸法
  6
CONTINUOUS
 62
     5
 10
1653.291089488132
 20
-1544.453754950346
 30
0.0
 11
1653.291089488132
 21
-1577.503754950347
 31
0.0
  0
LINE
  5
77
  8
回02-寸法
  6
CONTINUOUS
 62
     5
 10
1653.291089488132
 20
-1539.605754950347
 30
0.0
 11
1653.291089488132
 21
-1541.453754950346
 31
0.0
  0
INSERT
  5
78
  8
回02-寸法
  6
CONTINUOUS
 62
     5
 66
     1
  2
_OPEN
 10
1653.291089488132
 20
-1539.605754950347
 30
0.0
 41
3.0
 42
3.0
 43
3.0
 50
270.0
  0
SEQEND
  5
79
  8
回07-寸法
  6
CONTINUOUS
 62
     7
  0
INSERT
  5
7A
  8
回02-寸法
  6
CONTINUOUS
 62
     5
 66
     1
  2
_OPEN
 10
1653.291089488132
 20
-1541.453754950346
 30
0.0
 41
3.0
 42
3.0
 43
3.0
 50
90.0
  0
SEQEND
  5
7B
  8
回07-寸法
  6
CONTINUOUS
 62
     7
  0
INSERT
  5
7C
  8
回02-寸法
  6
CONTINUOUS
 62
     5
 66
     1
  2
*X100100
 10
0.0
 20
0.0
 30
0.0
  0
SEQEND
  5
792
  8
回07-寸法
  6
CONTINUOUS
 62
     7
  0
POINT
  5
7D
  8
DEFPOINTS
  6
CONTINUOUS
 62
     0
 10
1663.674285005555
 20
-1541.453754950346
 30
0.0
  0
POINT
  5
7F
  8
DEFPOINTS
  6
CONTINUOUS
 62
     0
 10
1663.674285005555
 20
-1539.605754950347
 30
0.0
  0
POINT
  5
80
  8
DEFPOINTS
  6
CONTINUOUS
 62
     0
 10
1653.291089488132
 20
-1539.605754950347
 30
0.0
  0
ENDBLK
  5
81
  8
0
 62
     7
  0
BLOCK
  8
回07-寸法
  2
*D3939
 70
     1
 10
0.0
 20
0.0
 30
0.0
  3
*D3939
  1

  0
LINE
  5
4A5
  8
回02-寸法
  6
CONTINUOUS
 62
     5
 10
3471.759226977344
 20
1444.059508806894
 30
0.0
 11
3460.376031459921
 21
1444.059508806894
 31
0.0
  0
LINE
  5
4A7
  8
回02-寸法
  6
CONTINUOUS
 62
     5
 10
3471.759226977344
 20
1445.907508806894
 30
0.0
 11
3460.376031459921
 21
1445.907508806894
 31
0.0
  0
LINE
  5
4A8
  8
回02-寸法
  6
CONTINUOUS
 62
     5
 10
3461.37603145992
 20
1441.059508806894
 30
0.0
 11
3461.37603145992
 21
1408.009508806893
 31
0.0
  0
LINE
  5
4A9
  8
回02-寸法
  6
CONTINUOUS
 62
     5
 10
3461.37603145992
 20
1444.059508806894
 30
0.0
 11
3461.37603145992
 21
1445.907508806894
 31
0.0
  0
LINE
  5
4AA
  8
回02-寸法
  6
CONTINUOUS
 62
     5
 10
3461.37603145992
 20
1448.907508806894
 30
0.0
 11
3461.37603145992
 21
1451.907508806894
 31
0.0
  0
INSERT
  5
4AB
  8
回02-寸法
  6
CONTINUOUS
 62
     5
  2
_OPEN
 10
3461.37603145992
 20
1444.059508806894
 30
0.0
 41
3.0
 42
3.0
 43
3.0
 50
90.0
  0
INSERT
  5
4AC
  8
回02-寸法
  6
CONTINUOUS
 62
     5
  2
_OPEN
 10
3461.37603145992
 20
1445.907508806894
 30
0.0
 41
3.0
 42
3.0
 43
3.0
 50
270.0
  0
INSERT
  5
4AD
  8
回02-寸法
  6
CONTINUOUS
 62
     5
 66
     1
  2
*X101101
 10
0.0
 20
0.0
 30
0.0
  0
SEQEND
  5
798
  8
回07-寸法
  6
CONTINUOUS
 62
     7
  0
POINT
  5
4AE
  8
DEFPOINTS
  6
CONTINUOUS
 62
     0
 10
3471.759226977344
 20
1444.059508806894
 30
0.0
  0
POINT
  5
4AF
  8
DEFPOINTS
  6
CONTINUOUS
 62
     0
 10
3471.759226977344
 20
1445.907508806894
 30
0.0
  0
POINT
  5
4B0
  8
DEFPOINTS
  6
CONTINUOUS
 62
     0
 10
3461.37603145992
 20
1445.907508806894
 30
0.0
  0
ENDBLK
  5
4B2
  8
回07-寸法
  6
CONTINUOUS
 62
     7
  0
BLOCK
  8
回07-寸法
  2
*D4040
 70
     1
 10
0.0
 20
0.0
 30
0.0
  3
*D4040
  1

  0
LINE
  5
4B4
  8
回02-寸法
  6
CONTINUOUS
 62
     5
 10
3467.931848578794
 20
1444.983508806894
 30
0.0
 11
3442.538615862087
 21
1444.983508806894
 31
0.0
  0
LINE
  5
4B6
  8
回02-寸法
  6
CONTINUOUS
 62
     5
 10
3467.931733710369
 20
1454.883508806893
 30
0.0
 11
3442.538615862087
 21
1454.883508806893
 31
0.0
  0
LINE
  5
4B7
  8
回02-寸法
  6
CONTINUOUS
 62
     5
 10
3443.538615862087
 20
1441.983508806894
 30
0.0
 11
3443.538615862087
 21
1414.816814806893
 31
0.0
  0
LINE
  5
4B8
  8
回02-寸法
  6
CONTINUOUS
 62
     5
 10
3443.538615862087
 20
1444.983508806894
 30
0.0
 11
3443.538615862087
 21
1454.883508806893
 31
0.0
  0
LINE
  5
4B9
  8
回02-寸法
  6
CONTINUOUS
 62
     5
 10
3443.538615862087
 20
1457.883508806894
 30
0.0
 11
3443.538615862087
 21
1460.883508806893
 31
0.0
  0
INSERT
  5
4BA
  8
回02-寸法
  6
CONTINUOUS
 62
     5
  2
_OPEN
 10
3443.538615862087
 20
1444.983508806894
 30
0.0
 41
3.0
 42
3.0
 43
3.0
 50
90.0
  0
INSERT
  5
4BB
  8
回02-寸法
  6
CONTINUOUS
 62
     5
  2
_OPEN
 10
3443.538615862087
 20
1454.883508806893
 30
0.0
 41
3.0
 42
3.0
 43
3.0
 50
270.0
  0
INSERT
  5
4BC
  8
回02-寸法
  6
CONTINUOUS
 62
     5
 66
     1
  2
*X102102
 10
0.0
 20
0.0
 30
0.0
  0
SEQEND
  5
79E
  8
回07-寸法
  6
CONTINUOUS
 62
     7
  0
POINT
  5
4BD
  8
DEFPOINTS
  6
CONTINUOUS
 62
     0
 10
3467.931848578794
 20
1444.983508806894
 30
0.0
  0
POINT
  5
4BE
  8
DEFPOINTS
  6
CONTINUOUS
 62
     0
 10
3467.931733710369
 20
1454.883508806893
 30
0.0
  0
POINT
  5
4BF
  8
DEFPOINTS
  6
CONTINUOUS
 62
     0
 10
3443.538615862087
 20
1454.883508806893
 30
0.0
  0
ENDBLK
  5
4C1
  8
回07-寸法
  6
CONTINUOUS
 62
     7
  0
BLOCK
  8
回07-寸法
  2
*D4141
 70
     1
 10
0.0
 20
0.0
 30
0.0
  3
*D4141
  1

  0
LINE
  5
4C3
  8
回02-寸法
  6
CONTINUOUS
 62
     5
 10
3467.931848578794
 20
1448.283508806893
 30
0.0
 11
3451.006070056661
 21
1448.283508806893
 31
0.0
  0
LINE
  5
4C4
  8
回02-寸法
  6
CONTINUOUS
 62
     5
 10
3467.931848578794
 20
1444.983508806894
 30
0.0
 11
3451.006070056661
 21
1444.983508806894
 31
0.0
  0
LINE
  5
4C5
  8
回02-寸法
  6
CONTINUOUS
 62
     5
 10
3452.006070056661
 20
1441.983508806894
 30
0.0
 11
3452.006070056661
 21
1413.583011071946
 31
0.0
  0
LINE
  5
4C6
  8
回02-寸法
  6
CONTINUOUS
 62
     5
 10
3452.006070056661
 20
1448.283508806893
 30
0.0
 11
3452.006070056661
 21
1444.983508806894
 31
0.0
  0
LINE
  5
4C7
  8
回02-寸法
  6
CONTINUOUS
 62
     5
 10
3452.006070056661
 20
1451.283508806893
 30
0.0
 11
3452.006070056661
 21
1454.283508806893
 31
0.0
  0
INSERT
  5
4C8
  8
回02-寸法
  6
CONTINUOUS
 62
     5
  2
_OPEN
 10
3452.006070056661
 20
1448.283508806893
 30
0.0
 41
3.0
 42
3.0
 43
3.0
 50
270.0
  0
INSERT
  5
4C9
  8
回02-寸法
  6
CONTINUOUS
 62
     5
  2
_OPEN
 10
3452.006070056661
 20
1444.983508806894
 30
0.0
 41
3.0
 42
3.0
 43
3.0
 50
90.0
  0
INSERT
  5
4CA
  8
回02-寸法
  6
CONTINUOUS
 62
     5
 66
     1
  2
*X103103
 10
0.0
 20
0.0
 30
0.0
  0
SEQEND
  5
7A4
  8
回07-寸法
  6
CONTINUOUS
 62
     7
  0
POINT
  5
4CB
  8
DEFPOINTS
  6
CONTINUOUS
 62
     0
 10
3467.931848578794
 20
1448.283508806893
 30
0.0
  0
POINT
  5
4CC
  8
DEFPOINTS
  6
CONTINUOUS
 62
     0
 10
3467.931848578794
 20
1444.983508806894
 30
0.0
  0
POINT
  5
4CD
  8
DEFPOINTS
  6
CONTINUOUS
 62
     0
 10
3452.006070056661
 20
1444.983508806894
 30
0.0
  0
ENDBLK
  5
4CF
  8
回07-寸法
  6
CONTINUOUS
 62
     7
  0
BLOCK
  8
回07-寸法
  2
*D4242
 70
     1
 10
0.0
 20
0.0
 30
0.0
  3
*D4242
  1

  0
LINE
  5
4D1
  8
回02-寸法
  6
CONTINUOUS
 62
     5
 10
3473.079226977343
 20
1458.183508806899
 30
0.0
 11
3433.245882838457
 21
1458.183508806899
 31
0.0
  0
LINE
  5
4D2
  8
回02-寸法
  6
CONTINUOUS
 62
     5
 10
3473.079226977343
 20
1441.683508806901
 30
0.0
 11
3433.245882838457
 21
1441.683508806901
 31
0.0
  0
LINE
  5
4D3
  8
回02-寸法
  6
CONTINUOUS
 62
     5
 10
3434.245882838457
 20
1438.683508806901
 30
0.0
 11
3434.245882838457
 21
1416.68284543622
 31
0.0
  0
LINE
  5
4D4
  8
回02-寸法
  6
CONTINUOUS
 62
     5
 10
3434.245882838457
 20
1458.183508806899
 30
0.0
 11
3434.245882838457
 21
1441.683508806901
 31
0.0
  0
LINE
  5
4D5
  8
回02-寸法
  6
CONTINUOUS
 62
     5
 10
3434.245882838457
 20
1461.183508806899
 30
0.0
 11
3434.245882838457
 21
1464.183508806899
 31
0.0
  0
INSERT
  5
4D6
  8
回02-寸法
  6
CONTINUOUS
 62
     5
  2
_OPEN
 10
3434.245882838457
 20
1458.183508806899
 30
0.0
 41
3.0
 42
3.0
 43
3.0
 50
270.0
  0
INSERT
  5
4D7
  8
回02-寸法
  6
CONTINUOUS
 62
     5
  2
_OPEN
 10
3434.245882838457
 20
1441.683508806901
 30
0.0
 41
3.0
 42
3.0
 43
3.0
 50
90.0
  0
INSERT
  5
4D8
  8
回02-寸法
  6
CONTINUOUS
 62
     5
 66
     1
  2
*X104104
 10
0.0
 20
0.0
 30
0.0
  0
SEQEND
  5
7AA
  8
回07-寸法
  6
CONTINUOUS
 62
     7
  0
POINT
  5
4D9
  8
DEFPOINTS
  6
CONTINUOUS
 62
     0
 10
3473.079226977343
 20
1458.183508806899
 30
0.0
  0
POINT
  5
4DA
  8
DEFPOINTS
  6
CONTINUOUS
 62
     0
 10
3473.079226977343
 20
1441.683508806901
 30
0.0
  0
POINT
  5
4DB
  8
DEFPOINTS
  6
CONTINUOUS
 62
     0
 10
3434.245882838457
 20
1441.683508806901
 30
0.0
  0
ENDBLK
  5
4DD
  8
回07-寸法
  6
CONTINUOUS
 62
     7
  0
BLOCK
  8
回07-寸法
  2
*D4343
 70
     1
 10
0.0
 20
0.0
 30
0.0
  3
*D4343
  1

  0
LINE
  5
4DF
  8
回08-記事
  6
CONTINUOUS
 62
     5
 10
3546.21224313135
 20
1164.170100217472
 30
0.0
 11
3546.21224313135
 21
1176.765201275631
 31
0.0
  0
LINE
  5
4E0
  8
回08-記事
  6
CONTINUOUS
 62
     5
 10
3546.71224313135
 20
1171.170100217472
 30
0.0
 11
3546.71224313135
 21
1176.765201275631
 31
0.0
  0
LINE
  5
4E1
  8
回08-記事
  6
CONTINUOUS
 62
     5
 10
3548.21224313135
 20
1175.765201275631
 30
0.0
 11
3568.305943918752
 21
1175.765201275631
 31
0.0
  0
LINE
  5
4E2
  8
回08-記事
  6
CONTINUOUS
 62
     5
 10
3546.21224313135
 20
1175.765201275631
 30
0.0
 11
3546.71224313135
 21
1175.765201275631
 31
0.0
  0
LINE
  5
4E3
  8
回08-記事
  6
CONTINUOUS
 62
     5
 10
3544.71224313135
 20
1175.765201275631
 30
0.0
 11
3543.21224313135
 21
1175.765201275631
 31
0.0
  0
INSERT
  5
4E4
  8
回08-記事
  6
CONTINUOUS
 62
     5
  2
_OPEN
 10
3546.21224313135
 20
1175.765201275631
 30
0.0
 41
1.5
 42
1.5
 43
1.5
  0
INSERT
  5
4E5
  8
回08-記事
  6
CONTINUOUS
 62
     5
  2
_OPEN
 10
3546.71224313135
 20
1175.765201275631
 30
0.0
 41
1.5
 42
1.5
 43
1.5
 50
180.0
  0
TEXT
  5
4E6
  8
回08-記事
  6
CONTINUOUS
 62
     5
 10
3549.009093525052
 20
1176.665201275631
 30
0.0
 40
8.0
  1
(0.5)
  0
POINT
  5
4E7
  8
DEFPOINTS
  6
CONTINUOUS
 62
     0
 10
3546.21224313135
 20
1164.170100217472
 30
0.0
  0
POINT
  5
4E8
  8
DEFPOINTS
  6
CONTINUOUS
 62
     0
 10
3546.71224313135
 20
1171.170100217472
 30
0.0
  0
POINT
  5
4E9
  8
DEFPOINTS
  6
CONTINUOUS
 62
     0
 10
3546.71224313135
 20
1175.765201275631
 30
0.0
  0
ENDBLK
  5
4EB
  8
回07-寸法
  6
CONTINUOUS
 62
     7
  0
BLOCK
  8
回07-寸法
  2
*D4444
 70
     1
 10
0.0
 20
0.0
 30
0.0
  3
*D4444
  1

  0
LINE
  5
4ED
  8
回08-記事
  6
CONTINUOUS
 62
     5
 10
3974.212243131351
 20
1171.170100217472
 30
0.0
 11
3974.212243131351
 21
1180.348471299099
 31
0.0
  0
LINE
  5
4EE
  8
回08-記事
  6
CONTINUOUS
 62
     5
 10
3974.71224313135
 20
1164.170100217472
 30
0.0
 11
3974.71224313135
 21
1180.348471299099
 31
0.0
  0
LINE
  5
4EF
  8
回08-記事
  6
CONTINUOUS
 62
     5
 10
3976.21224313135
 20
1179.348471299099
 30
0.0
 11
3996.305943918752
 21
1179.348471299099
 31
0.0
  0
LINE
  5
4F0
  8
回08-記事
  6
CONTINUOUS
 62
     5
 10
3974.212243131351
 20
1179.348471299099
 30
0.0
 11
3974.71224313135
 21
1179.348471299099
 31
0.0
  0
LINE
  5
4F1
  8
回08-記事
  6
CONTINUOUS
 62
     5
 10
3972.712243131351
 20
1179.348471299099
 30
0.0
 11
3971.212243131351
 21
1179.348471299099
 31
0.0
  0
INSERT
  5
4F2
  8
回08-記事
  6
CONTINUOUS
 62
     5
  2
_OPEN
 10
3974.212243131351
 20
1179.348471299099
 30
0.0
 41
1.5
 42
1.5
 43
1.5
  0
INSERT
  5
4F3
  8
回08-記事
  6
CONTINUOUS
 62
     5
  2
_OPEN
 10
3974.71224313135
 20
1179.348471299099
 30
0.0
 41
1.5
 42
1.5
 43
1.5
 50
180.0
  0
TEXT
  5
4F4
  8
回08-記事
  6
CONTINUOUS
 62
     5
 10
3977.009093525051
 20
1180.248471299099
 30
0.0
 40
8.0
  1
(0.5)
  0
POINT
  5
4F5
  8
DEFPOINTS
  6
CONTINUOUS
 62
     0
 10
3974.212243131351
 20
1171.170100217472
 30
0.0
  0
POINT
  5
4F6
  8
DEFPOINTS
  6
CONTINUOUS
 62
     0
 10
3974.71224313135
 20
1164.170100217472
 30
0.0
  0
POINT
  5
4F7
  8
DEFPOINTS
  6
CONTINUOUS
 62
     0
 10
3974.71224313135
 20
1179.348471299099
 30
0.0
  0
ENDBLK
  5
4F9
  8
回07-寸法
  6
CONTINUOUS
 62
     7
  0
BLOCK
  8
回07-寸法
  2
*D4545
 70
     1
 10
0.0
 20
0.0
 30
0.0
  3
*D4545
  1

  0
LINE
  5
4FB
  8
回08-記事
  6
CONTINUOUS
 62
     5
 10
3974.212243131349
 20
1171.170100217472
 30
0.0
 11
3984.091969166343
 21
1171.170100217472
 31
0.0
  0
LINE
  5
4FC
  8
回08-記事
  6
CONTINUOUS
 62
     5
 10
3974.71224313135
 20
1158.17010021747
 30
0.0
 11
3984.091969166343
 21
1158.17010021747
 31
0.0
  0
LINE
  5
4FD
  8
回08-記事
  6
CONTINUOUS
 62
     5
 10
3983.091969166343
 20
1156.67010021747
 30
0.0
 11
3983.091969166343
 21
1128.402736384947
 31
0.0
  0
LINE
  5
4FE
  8
回08-記事
  6
CONTINUOUS
 62
     5
 10
3983.091969166343
 20
1171.170100217472
 30
0.0
 11
3983.091969166343
 21
1158.17010021747
 31
0.0
  0
LINE
  5
4FF
  8
回08-記事
  6
CONTINUOUS
 62
     5
 10
3983.091969166343
 20
1172.670100217472
 30
0.0
 11
3983.091969166343
 21
1174.170100217472
 31
0.0
  0
INSERT
  5
500
  8
回08-記事
  6
CONTINUOUS
 62
     5
  2
_OPEN
 10
3983.091969166343
 20
1171.170100217472
 30
0.0
 41
1.5
 42
1.5
 43
1.5
 50
270.0
  0
INSERT
  5
501
  8
回08-記事
  6
CONTINUOUS
 62
     5
  2
_OPEN
 10
3983.091969166343
 20
1158.17010021747
 30
0.0
 41
1.5
 42
1.5
 43
1.5
 50
90.0
  0
INSERT
  5
502
  8
回08-記事
  6
CONTINUOUS
 62
     5
 66
     1
  2
*X105105
 10
0.0
 20
0.0
 30
0.0
  0
SEQEND
  5
7B0
  8
回07-寸法
  6
CONTINUOUS
 62
     7
  0
POINT
  5
503
  8
DEFPOINTS
  6
CONTINUOUS
 62
     0
 10
3974.212243131349
 20
1171.170100217472
 30
0.0
  0
POINT
  5
504
  8
DEFPOINTS
  6
CONTINUOUS
 62
     0
 10
3974.71224313135
 20
1158.17010021747
 30
0.0
  0
POINT
  5
505
  8
DEFPOINTS
  6
CONTINUOUS
 62
     0
 10
3983.091969166343
 20
1158.17010021747
 30
0.0
  0
ENDBLK
  5
507
  8
回07-寸法
  6
CONTINUOUS
 62
     7
  0
BLOCK
  8
回07-寸法
  2
*D4646
 70
     1
 10
0.0
 20
0.0
 30
0.0
  3
*D4646
  1

  0
LINE
  5
509
  8
回08-記事
  6
CONTINUOUS
 62
     5
 10
3466.21224313135
 20
1167.170100217472
 30
0.0
 11
3457.706117354358
 21
1167.170100217472
 31
0.0
  0
LINE
  5
50A
  8
回08-記事
  6
CONTINUOUS
 62
     5
 10
3466.21224313135
 20
1160.170100217472
 30
0.0
 11
3457.706117354358
 21
1160.170100217472
 31
0.0
  0
LINE
  5
50B
  8
回08-記事
  6
CONTINUOUS
 62
     5
 10
3458.706117354358
 20
1168.670100217472
 30
0.0
 11
3458.706117354358
 21
1209.591283263123
 31
0.0
  0
LINE
  5
50C
  8
回08-記事
  6
CONTINUOUS
 62
     5
 10
3458.706117354358
 20
1167.170100217472
 30
0.0
 11
3458.706117354358
 21
1160.170100217472
 31
0.0
  0
LINE
  5
50D
  8
回08-記事
  6
CONTINUOUS
 62
     5
 10
3458.706117354358
 20
1158.670100217472
 30
0.0
 11
3458.706117354358
 21
1157.170100217472
 31
0.0
  0
INSERT
  5
50E
  8
回08-記事
  6
CONTINUOUS
 62
     5
  2
_OPEN
 10
3458.706117354358
 20
1167.170100217472
 30
0.0
 41
1.5
 42
1.5
 43
1.5
 50
270.0
  0
INSERT
  5
50F
  8
回08-記事
  6
CONTINUOUS
 62
     5
  2
_OPEN
 10
3458.706117354358
 20
1160.170100217472
 30
0.0
 41
1.5
 42
1.5
 43
1.5
 50
90.0
  0
INSERT
  5
510
  8
回08-記事
  6
CONTINUOUS
 62
     5
 66
     1
  2
*X106106
 10
0.0
 20
0.0
 30
0.0
  0
SEQEND
  5
7B6
  8
回07-寸法
  6
CONTINUOUS
 62
     7
  0
POINT
  5
511
  8
DEFPOINTS
  6
CONTINUOUS
 62
     0
 10
3466.21224313135
 20
1167.170100217472
 30
0.0
  0
POINT
  5
512
  8
DEFPOINTS
  6
CONTINUOUS
 62
     0
 10
3466.21224313135
 20
1160.170100217472
 30
0.0
  0
POINT
  5
513
  8
DEFPOINTS
  6
CONTINUOUS
 62
     0
 10
3458.706117354358
 20
1160.170100217472
 30
0.0
  0
ENDBLK
  5
515
  8
回07-寸法
  6
CONTINUOUS
 62
     7
  0
BLOCK
  8
回07-寸法
  2
*D4747
 70
     1
 10
0.0
 20
0.0
 30
0.0
  3
*D4747
  1

  0
LINE
  5
517
  8
回08-記事
  6
CONTINUOUS
 62
     5
 10
3466.21224313135
 20
1167.170100217472
 30
0.0
 11
3466.21224313135
 21
1175.451284107094
 31
0.0
  0
LINE
  5
518
  8
回08-記事
  6
CONTINUOUS
 62
     5
 10
3471.212243131351
 20
1167.170100217472
 30
0.0
 11
3471.212243131351
 21
1175.451284107094
 31
0.0
  0
LINE
  5
519
  8
回08-記事
  6
CONTINUOUS
 62
     5
 10
3472.712243131351
 20
1174.451284107094
 30
0.0
 11
3481.195085843824
 21
1174.451284107094
 31
0.0
  0
LINE
  5
51A
  8
回08-記事
  6
CONTINUOUS
 62
     5
 10
3466.21224313135
 20
1174.451284107094
 30
0.0
 11
3471.212243131351
 21
1174.451284107094
 31
0.0
  0
LINE
  5
51B
  8
回08-記事
  6
CONTINUOUS
 62
     5
 10
3464.71224313135
 20
1174.451284107094
 30
0.0
 11
3463.212243131351
 21
1174.451284107094
 31
0.0
  0
INSERT
  5
51C
  8
回08-記事
  6
CONTINUOUS
 62
     5
  2
_OPEN
 10
3466.21224313135
 20
1174.451284107094
 30
0.0
 41
1.5
 42
1.5
 43
1.5
  0
INSERT
  5
51D
  8
回08-記事
  6
CONTINUOUS
 62
     5
  2
_OPEN
 10
3471.212243131351
 20
1174.451284107094
 30
0.0
 41
1.5
 42
1.5
 43
1.5
 50
180.0
  0
TEXT
  5
51E
  8
回08-記事
  6
CONTINUOUS
 62
     5
 10
3476.295085843825
 20
1174.951284107094
 30
0.0
 40
8.0
  1
5
  0
POINT
  5
51F
  8
DEFPOINTS
  6
CONTINUOUS
 62
     0
 10
3466.21224313135
 20
1167.170100217472
 30
0.0
  0
POINT
  5
520
  8
DEFPOINTS
  6
CONTINUOUS
 62
     0
 10
3471.212243131351
 20
1167.170100217472
 30
0.0
  0
POINT
  5
521
  8
DEFPOINTS
  6
CONTINUOUS
 62
     0
 10
3471.212243131351
 20
1174.451284107094
 30
0.0
  0
ENDBLK
  5
523
  8
回07-寸法
  6
CONTINUOUS
 62
     7
  0
BLOCK
  8
回07-寸法
  2
*D4848
 70
     1
 10
0.0
 20
0.0
 30
0.0
  3
*D4848
  1

  0
LINE
  5
525
  8
回08-記事
  6
CONTINUOUS
 62
     5
 10
3466.212199620583
 20
1160.170100217473
 30
0.0
 11
3466.212199620583
 21
1144.281438756366
 31
0.0
  0
LINE
  5
526
  8
回08-記事
  6
CONTINUOUS
 62
     5
 10
3476.21224313135
 20
1160.170100217472
 30
0.0
 11
3476.21224313135
 21
1144.281438756366
 31
0.0
  0
LINE
  5
527
  8
回08-記事
  6
CONTINUOUS
 62
     5
 10
3464.712199620584
 20
1145.281438756366
 30
0.0
 11
3448.618498833182
 21
1145.281438756366
 31
0.0
  0
LINE
  5
528
  8
回08-記事
  6
CONTINUOUS
 62
     5
 10
3466.212199620583
 20
1145.281438756366
 30
0.0
 11
3476.21224313135
 21
1145.281438756366
 31
0.0
  0
LINE
  5
529
  8
回08-記事
  6
CONTINUOUS
 62
     5
 10
3477.71224313135
 20
1145.281438756366
 30
0.0
 11
3479.21224313135
 21
1145.281438756366
 31
0.0
  0
INSERT
  5
52A
  8
回08-記事
  6
CONTINUOUS
 62
     5
  2
_OPEN
 10
3466.212199620583
 20
1145.281438756366
 30
0.0
 41
1.5
 42
1.5
 43
1.5
  0
INSERT
  5
52B
  8
回08-記事
  6
CONTINUOUS
 62
     5
  2
_OPEN
 10
3476.21224313135
 20
1145.281438756366
 30
0.0
 41
1.5
 42
1.5
 43
1.5
 50
180.0
  0
TEXT
  5
52C
  8
回08-記事
  6
CONTINUOUS
 62
     5
 10
3447.915349226882
 20
1146.181438756366
 30
0.0
 40
8.0
  1
(10)
  0
POINT
  5
52D
  8
DEFPOINTS
  6
CONTINUOUS
 62
     0
 10
3466.212199620583
 20
1160.170100217473
 30
0.0
  0
POINT
  5
52E
  8
DEFPOINTS
  6
CONTINUOUS
 62
     0
 10
3476.21224313135
 20
1160.170100217472
 30
0.0
  0
POINT
  5
52F
  8
DEFPOINTS
  6
CONTINUOUS
 62
     0
 10
3476.21224313135
 20
1145.281438756366
 30
0.0
  0
ENDBLK
  5
531
  8
回07-寸法
  6
CONTINUOUS
 62
     7
  0
BLOCK
  8
回07-寸法
  2
*D4949
 70
     1
 10
0.0
 20
0.0
 30
0.0
  3
*D4949
  1

  0
LINE
  5
533
  8
回07-寸法
  6
CONTINUOUS
 62
     5
 10
3466.712199620842
 20
1341.11744829806
 30
0.0
 11
3454.769154572411
 21
1341.11744829806
 31
0.0
  0
LINE
  5
534
  8
回07-寸法
  6
CONTINUOUS
 62
     5
 10
3546.21224313135
 20
1219.231589173508
 30
0.0
 11
3454.769154572411
 21
1219.231589173508
 31
0.0
  0
LINE
  5
535
  8
回07-寸法
  6
CONTINUOUS
 62
     5
 10
3455.76915457241
 20
1339.61744829806
 30
0.0
 11
3455.76915457241
 21
1220.731589173508
 31
0.0
  0
INSERT
  5
536
  8
回07-寸法
  6
CONTINUOUS
 62
     5
  2
_OPEN
 10
3455.76915457241
 20
1341.11744829806
 30
0.0
 41
1.5
 42
1.5
 43
1.5
 50
90.0
  0
INSERT
  5
537
  8
回07-寸法
  6
CONTINUOUS
 62
     5
  2
_OPEN
 10
3455.76915457241
 20
1219.231589173508
 30
0.0
 41
1.5
 42
1.5
 43
1.5
 50
270.0
  0
TEXT
  5
538
  8
回07-寸法
  6
CONTINUOUS
 62
     5
 10
3454.869154572411
 20
1266.160077261676
 30
0.0
 40
8.0
  1
(121.9)
 50
90.0
  0
POINT
  5
539
  8
DEFPOINTS
  6
CONTINUOUS
 62
     0
 10
3466.712199620842
 20
1341.11744829806
 30
0.0
  0
POINT
  5
53A
  8
DEFPOINTS
  6
CONTINUOUS
 62
     0
 10
3546.21224313135
 20
1219.231589173508
 30
0.0
  0
POINT
  5
53B
  8
DEFPOINTS
  6
CONTINUOUS
 62
     0
 10
3455.76915457241
 20
1219.231589173508
 30
0.0
  0
ENDBLK
  5
53D
  8
回07-寸法
  6
CONTINUOUS
 62
     7
  0
BLOCK
  8
回07-寸法
  2
*D5050
 70
     1
 10
0.0
 20
0.0
 30
0.0
  3
*D5050
  1

  0
LINE
  5
53F
  8
回07-寸法
  6
CONTINUOUS
 62
     5
 10
3546.21224313135
 20
1335.565323753877
 30
0.0
 11
3546.21224313135
 21
1316.945922067789
 31
0.0
  0
LINE
  5
541
  8
回07-寸法
  6
CONTINUOUS
 62
     5
 10
3541.611740618788
 20
1336.331602017648
 30
0.0
 11
3541.611740618788
 21
1316.945922067789
 31
0.0
  0
LINE
  5
542
  8
回07-寸法
  6
CONTINUOUS
 62
     5
 10
3540.111740618788
 20
1317.945922067789
 30
0.0
 11
3521.088208962549
 21
1317.945922067789
 31
0.0
  0
LINE
  5
543
  8
回07-寸法
  6
CONTINUOUS
 62
     5
 10
3546.21224313135
 20
1317.945922067789
 30
0.0
 11
3541.611740618788
 21
1317.945922067789
 31
0.0
  0
LINE
  5
544
  8
回07-寸法
  6
CONTINUOUS
 62
     5
 10
3547.71224313135
 20
1317.945922067789
 30
0.0
 11
3549.21224313135
 21
1317.945922067789
 31
0.0
  0
INSERT
  5
545
  8
回07-寸法
  6
CONTINUOUS
 62
     5
  2
_OPEN
 10
3546.21224313135
 20
1317.945922067789
 30
0.0
 41
1.5
 42
1.5
 43
1.5
 50
180.0
  0
INSERT
  5
546
  8
回07-寸法
  6
CONTINUOUS
 62
     5
  2
_OPEN
 10
3541.611740618788
 20
1317.945922067789
 30
0.0
 41
1.5
 42
1.5
 43
1.5
  0
TEXT
  5
547
  8
回07-寸法
  6
CONTINUOUS
 62
     5
 10
3520.388208962549
 20
1318.445922067789
 30
0.0
 40
8.0
  1
4.6
  0
POINT
  5
548
  8
DEFPOINTS
  6
CONTINUOUS
 62
     0
 10
3546.21224313135
 20
1335.565323753877
 30
0.0
  0
POINT
  5
549
  8
DEFPOINTS
  6
CONTINUOUS
 62
     0
 10
3541.611740618788
 20
1336.331602017648
 30
0.0
  0
POINT
  5
54A
  8
DEFPOINTS
  6
CONTINUOUS
 62
     0
 10
3541.611740618788
 20
1317.945922067789
 30
0.0
  0
ENDBLK
  5
54C
  8
回07-寸法
  6
CONTINUOUS
 62
     7
  0
BLOCK
  8
回07-寸法
  2
*D5151
 70
     1
 10
0.0
 20
0.0
 30
0.0
  3
*D5151
  1

  0
LINE
  5
54E
  8
回07-寸法
 62
     5
 10
3466.712199620584
 20
1347.367448098344
 30
0.0
 11
3454.769154572412
 21
1347.367448098344
 31
0.0
  0
LINE
  5
54F
  8
回07-寸法
 62
     5
 10
3466.712199620584
 20
1341.117448098344
 30
0.0
 11
3454.769154572412
 21
1341.117448098344
 31
0.0
  0
LINE
  5
550
  8
回07-寸法
 62
     5
 10
3455.769154572412
 20
1348.867448098344
 30
0.0
 11
3455.769154572412
 21
1382.375602677383
 31
0.0
  0
LINE
  5
551
  8
回07-寸法
 62
     5
 10
3455.769154572412
 20
1347.367448098344
 30
0.0
 11
3455.769154572412
 21
1341.117448098344
 31
0.0
  0
LINE
  5
552
  8
回07-寸法
 62
     5
 10
3455.769154572412
 20
1339.617448098344
 30
0.0
 11
3455.769154572412
 21
1338.117448098344
 31
0.0
  0
INSERT
  5
553
  8
回07-寸法
  6
CONTINUOUS
 62
     5
  2
_OPEN
 10
3455.769154572412
 20
1347.367448098344
 30
0.0
 41
1.5
 42
1.5
 43
1.5
 50
270.0
  0
INSERT
  5
554
  8
回07-寸法
  6
CONTINUOUS
 62
     5
  2
_OPEN
 10
3455.769154572412
 20
1341.117448098344
 30
0.0
 41
1.5
 42
1.5
 43
1.5
 50
90.0
  0
INSERT
  5
555
  8
回07-寸法
  6
CONTINUOUS
 62
     5
 66
     1
  2
*X107107
 10
0.0
 20
0.0
 30
0.0
  0
SEQEND
  5
7BC
  8
回07-寸法
  6
CONTINUOUS
 62
     7
  0
POINT
  5
556
  8
DEFPOINTS
  6
CONTINUOUS
 62
     0
 10
3466.712199620584
 20
1347.367448098344
 30
0.0
  0
POINT
  5
557
  8
DEFPOINTS
  6
CONTINUOUS
 62
     0
 10
3466.712199620584
 20
1341.117448098344
 30
0.0
  0
POINT
  5
558
  8
DEFPOINTS
  6
CONTINUOUS
 62
     0
 10
3455.769154572412
 20
1341.117448098344
 30
0.0
  0
ENDBLK
  5
55A
  8
回07-寸法
  6
CONTINUOUS
 62
     7
  0
BLOCK
  8
回07-寸法
  2
*D5252
 70
     1
 10
0.0
 20
0.0
 30
0.0
  3
*D5252
  1

  0
LINE
  5
55C
  8
回07-寸法
  6
CONTINUOUS
 62
     5
 10
3546.21224313135
 20
1335.565323953593
 30
0.0
 11
3546.21224313135
 21
1306.337446047004
 31
0.0
  0
LINE
  5
55D
  8
回07-寸法
  6
CONTINUOUS
 62
     5
 10
3536.716312011324
 20
1341.024258642136
 30
0.0
 11
3536.716312011324
 21
1306.337446047004
 31
0.0
  0
LINE
  5
55E
  8
回07-寸法
  6
CONTINUOUS
 62
     5
 10
3535.216312011324
 20
1307.337446047004
 30
0.0
 11
3521.184941161425
 21
1307.337446047004
 31
0.0
  0
LINE
  5
55F
  8
回07-寸法
  6
CONTINUOUS
 62
     5
 10
3546.21224313135
 20
1307.337446047004
 30
0.0
 11
3536.716312011324
 21
1307.337446047004
 31
0.0
  0
LINE
  5
560
  8
回07-寸法
  6
CONTINUOUS
 62
     5
 10
3547.71224313135
 20
1307.337446047004
 30
0.0
 11
3549.21224313135
 21
1307.337446047004
 31
0.0
  0
INSERT
  5
561
  8
回07-寸法
  6
CONTINUOUS
 62
     5
  2
_OPEN
 10
3546.21224313135
 20
1307.337446047004
 30
0.0
 41
1.5
 42
1.5
 43
1.5
 50
180.0
  0
INSERT
  5
562
  8
回07-寸法
  6
CONTINUOUS
 62
     5
  2
_OPEN
 10
3536.716312011324
 20
1307.337446047004
 30
0.0
 41
1.5
 42
1.5
 43
1.5
  0
TEXT
  5
563
  8
回07-寸法
  6
CONTINUOUS
 62
     5
 10
3520.45605821321
 20
1307.837446047004
 30
0.0
 40
8.0
  1
9.5
  0
POINT
  5
564
  8
DEFPOINTS
  6
CONTINUOUS
 62
     0
 10
3546.21224313135
 20
1335.565323953593
 30
0.0
  0
POINT
  5
565
  8
DEFPOINTS
  6
CONTINUOUS
 62
     0
 10
3536.716312011324
 20
1341.024258642136
 30
0.0
  0
POINT
  5
566
  8
DEFPOINTS
  6
CONTINUOUS
 62
     0
 10
3536.716312011324
 20
1307.337446047004
 30
0.0
  0
ENDBLK
  5
568
  8
回07-寸法
  6
CONTINUOUS
 62
     7
  0
BLOCK
  8
回07-寸法
  2
*D5353
 70
     1
 10
0.0
 20
0.0
 30
0.0
  3
*D5353
  1

  0
LINE
  5
56A
  8
回07-寸法
  6
CONTINUOUS
 62
     5
 10
3546.21224313135
 20
1352.919572642535
 30
0.0
 11
3546.21224313135
 21
1375.147828953324
 31
0.0
  0
LINE
  5
56B
  8
回07-寸法
  6
CONTINUOUS
 62
     5
 10
3466.212199620583
 20
1346.867448098344
 30
0.0
 11
3466.212199620583
 21
1375.147828953324
 31
0.0
  0
LINE
  5
56C
  8
回07-寸法
  6
CONTINUOUS
 62
     5
 10
3544.71224313135
 20
1374.147828953325
 30
0.0
 11
3467.712199620583
 21
1374.147828953325
 31
0.0
  0
INSERT
  5
56D
  8
回07-寸法
  6
CONTINUOUS
 62
     5
  2
_OPEN
 10
3546.21224313135
 20
1374.147828953325
 30
0.0
 41
1.5
 42
1.5
 43
1.5
  0
INSERT
  5
56E
  8
回07-寸法
  6
CONTINUOUS
 62
     5
  2
_OPEN
 10
3466.212199620583
 20
1374.147828953325
 30
0.0
 41
1.5
 42
1.5
 43
1.5
 50
180.0
  0
INSERT
  5
56F
  8
回07-寸法
  6
CONTINUOUS
 62
     5
 66
     1
  2
*X108108
 10
0.0
 20
0.0
 30
0.0
  0
SEQEND
  5
7C2
  8
回07-寸法
  6
CONTINUOUS
 62
     7
  0
POINT
  5
570
  8
DEFPOINTS
  6
CONTINUOUS
 62
     0
 10
3546.21224313135
 20
1352.919572642535
 30
0.0
  0
POINT
  5
571
  8
DEFPOINTS
  6
CONTINUOUS
 62
     0
 10
3466.212199620583
 20
1346.867448098344
 30
0.0
  0
POINT
  5
572
  8
DEFPOINTS
  6
CONTINUOUS
 62
     0
 10
3466.212199620583
 20
1374.147828953325
 30
0.0
  0
ENDBLK
  5
574
  8
回07-寸法
  6
CONTINUOUS
 62
     7
  0
BLOCK
  8
回07-寸法
  2
*D5454
 70
     1
 10
0.0
 20
0.0
 30
0.0
  3
*D5454
  1

  0
LINE
  5
576
  8
回07-寸法
  6
CONTINUOUS
 62
     5
 10
3542.020313222985
 20
1352.241245064073
 30
0.0
 11
3517.650555295547
 21
1352.241245064073
 31
0.0
  0
LINE
  5
577
  8
回07-寸法
  6
CONTINUOUS
 62
     5
 10
3542.024486808691
 20
1336.242448098344
 30
0.0
 11
3517.650555295547
 21
1336.242448098344
 31
0.0
  0
LINE
  5
578
  8
回07-寸法
  6
CONTINUOUS
 62
     5
 10
3518.650555295547
 20
1334.742448098344
 30
0.0
 11
3518.650555295547
 21
1322.828243170746
 31
0.0
  0
LINE
  5
579
  8
回07-寸法
  6
CONTINUOUS
 62
     5
 10
3518.650555295547
 20
1352.241245064073
 30
0.0
 11
3518.650555295547
 21
1336.242448098344
 31
0.0
  0
LINE
  5
57A
  8
回07-寸法
  6
CONTINUOUS
 62
     5
 10
3518.650555295547
 20
1353.741245064073
 30
0.0
 11
3518.650555295547
 21
1355.241245064073
 31
0.0
  0
INSERT
  5
57B
  8
回07-寸法
  6
CONTINUOUS
 62
     5
  2
_OPEN
 10
3518.650555295547
 20
1352.241245064073
 30
0.0
 41
1.5
 42
1.5
 43
1.5
 50
270.0
  0
INSERT
  5
57C
  8
回07-寸法
  6
CONTINUOUS
 62
     5
  2
_OPEN
 10
3518.650555295547
 20
1336.242448098344
 30
0.0
 41
1.5
 42
1.5
 43
1.5
 50
90.0
  0
TEXT
  5
57D
  8
回07-寸法
  6
CONTINUOUS
 62
     5
 10
3518.150555295547
 20
1322.128243170746
 30
0.0
 40
8.0
  1
16
 50
90.0
  0
POINT
  5
57E
  8
DEFPOINTS
  6
CONTINUOUS
 62
     0
 10
3542.020313222985
 20
1352.241245064073
 30
0.0
  0
POINT
  5
57F
  8
DEFPOINTS
  6
CONTINUOUS
 62
     0
 10
3542.024486808691
 20
1336.242448098344
 30
0.0
  0
POINT
  5
580
  8
DEFPOINTS
  6
CONTINUOUS
 62
     0
 10
3518.650555295547
 20
1336.242448098344
 30
0.0
  0
ENDBLK
  5
582
  8
回07-寸法
  6
CONTINUOUS
 62
     7
  0
BLOCK
  8
回07-寸法
  2
*D5555
 70
     1
 10
0.0
 20
0.0
 30
0.0
  3
*D5555
  1

  0
LINE
  5
584
  8
回07-寸法
  6
CONTINUOUS
 62
     5
 10
3969.21224313135
 20
1462.481589173508
 30
0.0
 11
3969.21224313135
 21
1526.002248042381
 31
0.0
  0
LINE
  5
585
  8
回07-寸法
  6
CONTINUOUS
 62
     5
 10
3974.71224313135
 20
1469.231589173508
 30
0.0
 11
3974.71224313135
 21
1526.002248042381
 31
0.0
  0
LINE
  5
586
  8
回07-寸法
  6
CONTINUOUS
 62
     5
 10
3976.21224313135
 20
1525.002248042381
 30
0.0
 11
4046.269625021113
 21
1525.002248042381
 31
0.0
  0
LINE
  5
587
  8
回07-寸法
  6
CONTINUOUS
 62
     5
 10
3969.21224313135
 20
1525.002248042381
 30
0.0
 11
3974.71224313135
 21
1525.002248042381
 31
0.0
  0
LINE
  5
588
  8
回07-寸法
  6
CONTINUOUS
 62
     5
 10
3967.71224313135
 20
1525.002248042381
 30
0.0
 11
3966.21224313135
 21
1525.002248042381
 31
0.0
  0
INSERT
  5
589
  8
回07-寸法
  6
CONTINUOUS
 62
     5
  2
_OPEN
 10
3969.21224313135
 20
1525.002248042381
 30
0.0
 41
1.5
 42
1.5
 43
1.5
  0
INSERT
  5
58A
  8
回07-寸法
  6
CONTINUOUS
 62
     5
  2
_OPEN
 10
3974.71224313135
 20
1525.002248042381
 30
0.0
 41
1.5
 42
1.5
 43
1.5
 50
180.0
  0
INSERT
  5
58B
  8
回07-寸法
  6
CONTINUOUS
 62
     5
 66
     1
  2
*X109109
 10
0.0
 20
0.0
 30
0.0
  0
SEQEND
  5
7C8
  8
回07-寸法
  6
CONTINUOUS
 62
     7
  0
POINT
  5
58C
  8
DEFPOINTS
  6
CONTINUOUS
 62
     0
 10
3969.21224313135
 20
1462.481589173508
 30
0.0
  0
POINT
  5
58D
  8
DEFPOINTS
  6
CONTINUOUS
 62
     0
 10
3974.71224313135
 20
1469.231589173508
 30
0.0
  0
POINT
  5
58E
  8
DEFPOINTS
  6
CONTINUOUS
 62
     0
 10
3974.71224313135
 20
1525.002248042381
 30
0.0
  0
ENDBLK
  5
590
  8
回07-寸法
  6
CONTINUOUS
 62
     7
  0
BLOCK
  8
回07-寸法
  2
*D5656
 70
     1
 10
0.0
 20
0.0
 30
0.0
  3
*D5656
  1

  0
LINE
  5
592
  8
回07-寸法
  6
CONTINUOUS
 62
     5
 10
3968.712243131351
 20
1461.681589173508
 30
0.0
 11
3968.712243131351
 21
1516.002248042381
 31
0.0
  0
LINE
  5
593
  8
回07-寸法
  6
CONTINUOUS
 62
     5
 10
3974.71224313135
 20
1469.231589173508
 30
0.0
 11
3974.71224313135
 21
1516.002248042381
 31
0.0
  0
LINE
  5
594
  8
回07-寸法
  6
CONTINUOUS
 62
     5
 10
3976.21224313135
 20
1515.002248042381
 30
0.0
 11
3988.805943918752
 21
1515.002248042381
 31
0.0
  0
LINE
  5
595
  8
回07-寸法
  6
CONTINUOUS
 62
     5
 10
3968.712243131351
 20
1515.002248042381
 30
0.0
 11
3974.71224313135
 21
1515.002248042381
 31
0.0
  0
LINE
  5
596
  8
回07-寸法
  6
CONTINUOUS
 62
     5
 10
3967.212243131351
 20
1515.002248042381
 30
0.0
 11
3965.712243131349
 21
1515.002248042381
 31
0.0
  0
INSERT
  5
597
  8
回07-寸法
  6
CONTINUOUS
 62
     5
  2
_OPEN
 10
3968.712243131351
 20
1515.002248042381
 30
0.0
 41
1.5
 42
1.5
 43
1.5
  0
INSERT
  5
598
  8
回07-寸法
  6
CONTINUOUS
 62
     5
  2
_OPEN
 10
3974.71224313135
 20
1515.002248042381
 30
0.0
 41
1.5
 42
1.5
 43
1.5
 50
180.0
  0
TEXT
  5
599
  8
回07-寸法
  6
CONTINUOUS
 62
     5
 10
3977.50909352505
 20
1515.902248042381
 30
0.0
 40
8.0
  1
(6)
  0
POINT
  5
59A
  8
DEFPOINTS
  6
CONTINUOUS
 62
     0
 10
3968.712243131351
 20
1461.681589173508
 30
0.0
  0
POINT
  5
59B
  8
DEFPOINTS
  6
CONTINUOUS
 62
     0
 10
3974.71224313135
 20
1469.231589173508
 30
0.0
  0
POINT
  5
59C
  8
DEFPOINTS
  6
CONTINUOUS
 62
     0
 10
3974.71224313135
 20
1515.002248042381
 30
0.0
  0
ENDBLK
  5
59E
  8
回07-寸法
  6
CONTINUOUS
 62
     7
  0
BLOCK
  8
回07-寸法
  2
*D5757
 70
     1
 10
0.0
 20
0.0
 30
0.0
  3
*D5757
  1

  0
LINE
  5
5A0
  8
回07-寸法
  6
CONTINUOUS
 62
     5
 10
3966.712243131349
 20
1459.681589173508
 30
0.0
 11
3966.712243131349
 21
1506.002248042381
 31
0.0
  0
LINE
  5
5A1
  8
回07-寸法
  6
CONTINUOUS
 62
     5
 10
3974.71224313135
 20
1469.231589173508
 30
0.0
 11
3974.71224313135
 21
1506.002248042381
 31
0.0
  0
LINE
  5
5A2
  8
回07-寸法
  6
CONTINUOUS
 62
     5
 10
3976.21224313135
 20
1505.002248042381
 30
0.0
 11
3989.314507382891
 21
1505.002248042381
 31
0.0
  0
LINE
  5
5A3
  8
回07-寸法
  6
CONTINUOUS
 62
     5
 10
3966.712243131349
 20
1505.002248042381
 30
0.0
 11
3974.71224313135
 21
1505.002248042381
 31
0.0
  0
LINE
  5
5A4
  8
回07-寸法
  6
CONTINUOUS
 62
     5
 10
3965.212243131349
 20
1505.002248042381
 30
0.0
 11
3963.71224313135
 21
1505.002248042381
 31
0.0
  0
INSERT
  5
5A5
  8
回07-寸法
  6
CONTINUOUS
 62
     5
  2
_OPEN
 10
3966.712243131349
 20
1505.002248042381
 30
0.0
 41
1.5
 42
1.5
 43
1.5
  0
INSERT
  5
5A6
  8
回07-寸法
  6
CONTINUOUS
 62
     5
  2
_OPEN
 10
3974.71224313135
 20
1505.002248042381
 30
0.0
 41
1.5
 42
1.5
 43
1.5
 50
180.0
  0
TEXT
  5
5A7
  8
回07-寸法
  6
CONTINUOUS
 62
     5
 10
3978.017656989189
 20
1505.902248042381
 30
0.0
 40
8.0
  1
(8)
  0
POINT
  5
5A8
  8
DEFPOINTS
  6
CONTINUOUS
 62
     0
 10
3966.712243131349
 20
1459.681589173508
 30
0.0
  0
POINT
  5
5A9
  8
DEFPOINTS
  6
CONTINUOUS
 62
     0
 10
3974.71224313135
 20
1469.231589173508
 30
0.0
  0
POINT
  5
5AA
  8
DEFPOINTS
  6
CONTINUOUS
 62
     0
 10
3974.71224313135
 20
1505.002248042381
 30
0.0
  0
ENDBLK
  5
5AC
  8
回07-寸法
  6
CONTINUOUS
 62
     7
  0
BLOCK
  8
回07-寸法
  2
*D5858
 70
     1
 10
0.0
 20
0.0
 30
0.0
  3
*D5858
  1

  0
LINE
  5
5AE
  8
回07-寸法
  6
CONTINUOUS
 62
     5
 10
3969.21224313135
 20
1225.981589173508
 30
0.0
 11
4023.685634642911
 21
1225.981589173508
 31
0.0
  0
LINE
  5
5AF
  8
回07-寸法
  6
CONTINUOUS
 62
     5
 10
3974.71224313135
 20
1219.231589173509
 30
0.0
 11
4023.685634642911
 21
1219.231589173509
 31
0.0
  0
LINE
  5
5B0
  8
回07-寸法
  6
CONTINUOUS
 62
     5
 10
4022.68563464291
 20
1217.731589173509
 30
0.0
 11
4022.68563464291
 21
1139.279581299492
 31
0.0
  0
LINE
  5
5B1
  8
回07-寸法
  6
CONTINUOUS
 62
     5
 10
4022.68563464291
 20
1225.981589173508
 30
0.0
 11
4022.68563464291
 21
1219.231589173509
 31
0.0
  0
LINE
  5
5B2
  8
回07-寸法
  6
CONTINUOUS
 62
     5
 10
4022.68563464291
 20
1227.481589173508
 30
0.0
 11
4022.68563464291
 21
1228.981589173508
 31
0.0
  0
INSERT
  5
5B3
  8
回07-寸法
  6
CONTINUOUS
 62
     5
  2
_OPEN
 10
4022.68563464291
 20
1225.981589173508
 30
0.0
 41
1.5
 42
1.5
 43
1.5
 50
270.0
  0
INSERT
  5
5B4
  8
回07-寸法
  6
CONTINUOUS
 62
     5
  2
_OPEN
 10
4022.68563464291
 20
1219.231589173509
 30
0.0
 41
1.5
 42
1.5
 43
1.5
 50
90.0
  0
INSERT
  5
5B5
  8
回07-寸法
  6
CONTINUOUS
 62
     5
 66
     1
  2
*X110110
 10
0.0
 20
0.0
 30
0.0
  0
SEQEND
  5
7CE
  8
回07-寸法
  6
CONTINUOUS
 62
     7
  0
POINT
  5
5B6
  8
DEFPOINTS
  6
CONTINUOUS
 62
     0
 10
3969.21224313135
 20
1225.981589173508
 30
0.0
  0
POINT
  5
5B7
  8
DEFPOINTS
  6
CONTINUOUS
 62
     0
 10
3974.71224313135
 20
1219.231589173509
 30
0.0
  0
POINT
  5
5B8
  8
DEFPOINTS
  6
CONTINUOUS
 62
     0
 10
4022.68563464291
 20
1219.231589173509
 30
0.0
  0
ENDBLK
  5
5BA
  8
回07-寸法
  6
CONTINUOUS
 62
     7
  0
BLOCK
  8
回07-寸法
  2
*D5959
 70
     1
 10
0.0
 20
0.0
 30
0.0
  3
*D5959
  1

  0
LINE
  5
5BC
  8
回07-寸法
  6
CONTINUOUS
 62
     5
 10
3966.712243131349
 20
1459.681589173508
 30
0.0
 11
4003.68563464291
 21
1459.681589173508
 31
0.0
  0
LINE
  5
5BD
  8
回07-寸法
  6
CONTINUOUS
 62
     5
 10
3974.71224313135
 20
1469.231589173508
 30
0.0
 11
4003.68563464291
 21
1469.231589173508
 31
0.0
  0
LINE
  5
5BE
  8
回07-寸法
  6
CONTINUOUS
 62
     5
 10
4002.685634642911
 20
1470.731589173508
 30
0.0
 11
4002.685634642911
 21
1490.854172909126
 31
0.0
  0
LINE
  5
5BF
  8
回07-寸法
  6
CONTINUOUS
 62
     5
 10
4002.685634642911
 20
1459.681589173508
 30
0.0
 11
4002.685634642911
 21
1469.231589173508
 31
0.0
  0
LINE
  5
5C0
  8
回07-寸法
  6
CONTINUOUS
 62
     5
 10
4002.685634642911
 20
1458.181589173508
 30
0.0
 11
4002.685634642911
 21
1456.681589173508
 31
0.0
  0
INSERT
  5
5C1
  8
回07-寸法
  6
CONTINUOUS
 62
     5
  2
_OPEN
 10
4002.685634642911
 20
1459.681589173508
 30
0.0
 41
1.5
 42
1.5
 43
1.5
 50
90.0
  0
INSERT
  5
5C2
  8
回07-寸法
  6
CONTINUOUS
 62
     5
  2
_OPEN
 10
4002.685634642911
 20
1469.231589173508
 30
0.0
 41
1.5
 42
1.5
 43
1.5
 50
270.0
  0
TEXT
  5
5C3
  8
回07-寸法
  6
CONTINUOUS
 62
     5
 10
4001.78563464291
 20
1471.528439567209
 30
0.0
 40
8.0
  1
(9.6)
 50
90.0
  0
POINT
  5
5C4
  8
DEFPOINTS
  6
CONTINUOUS
 62
     0
 10
3966.712243131349
 20
1459.681589173508
 30
0.0
  0
POINT
  5
5C5
  8
DEFPOINTS
  6
CONTINUOUS
 62
     0
 10
3974.71224313135
 20
1469.231589173508
 30
0.0
  0
POINT
  5
5C6
  8
DEFPOINTS
  6
CONTINUOUS
 62
     0
 10
4002.685634642911
 20
1469.231589173508
 30
0.0
  0
ENDBLK
  5
5C8
  8
回07-寸法
  6
CONTINUOUS
 62
     7
  0
BLOCK
  8
回07-寸法
  2
*D6060
 70
     1
 10
0.0
 20
0.0
 30
0.0
  3
*D6060
  1

  0
LINE
  5
5CA
  8
回07-寸法
  6
CONTINUOUS
 62
     5
 10
3968.712243131351
 20
1461.681589173508
 30
0.0
 11
4013.685634642913
 21
1461.681589173508
 31
0.0
  0
LINE
  5
5CB
  8
回07-寸法
  6
CONTINUOUS
 62
     5
 10
3974.71224313135
 20
1469.231589173508
 30
0.0
 11
4013.685634642913
 21
1469.231589173508
 31
0.0
  0
LINE
  5
5CC
  8
回07-寸法
  6
CONTINUOUS
 62
     5
 10
4012.685634642912
 20
1470.731589173508
 30
0.0
 11
4012.685634642912
 21
1490.82528996091
 31
0.0
  0
LINE
  5
5CD
  8
回07-寸法
  6
CONTINUOUS
 62
     5
 10
4012.685634642912
 20
1461.681589173508
 30
0.0
 11
4012.685634642912
 21
1469.231589173508
 31
0.0
  0
LINE
  5
5CE
  8
回07-寸法
  6
CONTINUOUS
 62
     5
 10
4012.685634642912
 20
1460.181589173508
 30
0.0
 11
4012.685634642912
 21
1458.681589173508
 31
0.0
  0
INSERT
  5
5CF
  8
回07-寸法
  6
CONTINUOUS
 62
     5
  2
_OPEN
 10
4012.685634642912
 20
1461.681589173508
 30
0.0
 41
1.5
 42
1.5
 43
1.5
 50
90.0
  0
INSERT
  5
5D0
  8
回07-寸法
  6
CONTINUOUS
 62
     5
  2
_OPEN
 10
4012.685634642912
 20
1469.231589173508
 30
0.0
 41
1.5
 42
1.5
 43
1.5
 50
270.0
  0
TEXT
  5
5D1
  8
回07-寸法
  6
CONTINUOUS
 62
     5
 10
4011.785634642913
 20
1471.528439567209
 30
0.0
 40
8.0
  1
(7.6)
 50
90.0
  0
POINT
  5
5D2
  8
DEFPOINTS
  6
CONTINUOUS
 62
     0
 10
3968.712243131351
 20
1461.681589173508
 30
0.0
  0
POINT
  5
5D3
  8
DEFPOINTS
  6
CONTINUOUS
 62
     0
 10
3974.71224313135
 20
1469.231589173508
 30
0.0
  0
POINT
  5
5D4
  8
DEFPOINTS
  6
CONTINUOUS
 62
     0
 10
4012.685634642912
 20
1469.231589173508
 30
0.0
  0
ENDBLK
  5
5D6
  8
回07-寸法
  6
CONTINUOUS
 62
     7
  0
BLOCK
  8
回07-寸法
  2
*D6161
 70
     1
 10
0.0
 20
0.0
 30
0.0
  3
*D6161
  1

  0
LINE
  5
5D8
  8
回07-寸法
  6
CONTINUOUS
 62
     5
 10
3969.21224313135
 20
1462.481589173508
 30
0.0
 11
4023.685634642915
 21
1462.481589173508
 31
0.0
  0
LINE
  5
5D9
  8
回07-寸法
  6
CONTINUOUS
 62
     5
 10
3974.71224313135
 20
1469.231589173508
 30
0.0
 11
4023.685634642915
 21
1469.231589173508
 31
0.0
  0
LINE
  5
5DA
  8
回07-寸法
  6
CONTINUOUS
 62
     5
 10
4022.685634642915
 20
1470.731589173508
 30
0.0
 11
4022.685634642915
 21
1490.82528996091
 31
0.0
  0
LINE
  5
5DB
  8
回07-寸法
  6
CONTINUOUS
 62
     5
 10
4022.685634642915
 20
1462.481589173508
 30
0.0
 11
4022.685634642915
 21
1469.231589173508
 31
0.0
  0
LINE
  5
5DC
  8
回07-寸法
  6
CONTINUOUS
 62
     5
 10
4022.685634642915
 20
1460.981589173508
 30
0.0
 11
4022.685634642915
 21
1459.481589173508
 31
0.0
  0
INSERT
  5
5DD
  8
回07-寸法
  6
CONTINUOUS
 62
     5
  2
_OPEN
 10
4022.685634642915
 20
1462.481589173508
 30
0.0
 41
1.5
 42
1.5
 43
1.5
 50
90.0
  0
INSERT
  5
5DE
  8
回07-寸法
  6
CONTINUOUS
 62
     5
  2
_OPEN
 10
4022.685634642915
 20
1469.231589173508
 30
0.0
 41
1.5
 42
1.5
 43
1.5
 50
270.0
  0
TEXT
  5
5DF
  8
回07-寸法
  6
CONTINUOUS
 62
     5
 10
4021.785634642915
 20
1471.528439567209
 30
0.0
 40
8.0
  1
(6.8)
 50
90.0
  0
POINT
  5
5E0
  8
DEFPOINTS
  6
CONTINUOUS
 62
     0
 10
3969.21224313135
 20
1462.481589173508
 30
0.0
  0
POINT
  5
5E1
  8
DEFPOINTS
  6
CONTINUOUS
 62
     0
 10
3974.71224313135
 20
1469.231589173508
 30
0.0
  0
POINT
  5
5E2
  8
DEFPOINTS
  6
CONTINUOUS
 62
     0
 10
4022.685634642915
 20
1469.231589173508
 30
0.0
  0
ENDBLK
  5
5E4
  8
回07-寸法
  6
CONTINUOUS
 62
     7
  0
BLOCK
  8
回07-寸法
  2
*D6262
 70
     1
 10
0.0
 20
0.0
 30
0.0
  3
*D6262
  1

  0
LINE
  5
5E6
  8
回07-寸法
  6
CONTINUOUS
 62
     5
 10
3969.21224313135
 20
1462.481589173507
 30
0.0
 11
4023.685634642911
 21
1462.481589173507
 31
0.0
  0
LINE
  5
5E7
  8
回07-寸法
  6
CONTINUOUS
 62
     5
 10
3969.21224313135
 20
1225.981589173508
 30
0.0
 11
4023.685634642911
 21
1225.981589173508
 31
0.0
  0
LINE
  5
5E8
  8
回07-寸法
  6
CONTINUOUS
 62
     5
 10
4022.68563464291
 20
1460.981589173507
 30
0.0
 11
4022.68563464291
 21
1227.481589173508
 31
0.0
  0
INSERT
  5
5E9
  8
回07-寸法
  6
CONTINUOUS
 62
     5
  2
_OPEN
 10
4022.68563464291
 20
1462.481589173507
 30
0.0
 41
1.5
 42
1.5
 43
1.5
 50
90.0
  0
INSERT
  5
5EA
  8
回07-寸法
  6
CONTINUOUS
 62
     5
  2
_OPEN
 10
4022.68563464291
 20
1225.981589173508
 30
0.0
 41
1.5
 42
1.5
 43
1.5
 50
270.0
  0
TEXT
  5
5EB
  8
回07-寸法
  6
CONTINUOUS
 62
     5
 10
4022.185634642911
 20
1331.831589173508
 30
0.0
 40
8.0
  1
236.5
 50
90.0
  0
POINT
  5
5EC
  8
DEFPOINTS
  6
CONTINUOUS
 62
     0
 10
3969.21224313135
 20
1462.481589173507
 30
0.0
  0
POINT
  5
5ED
  8
DEFPOINTS
  6
CONTINUOUS
 62
     0
 10
3969.21224313135
 20
1225.981589173508
 30
0.0
  0
POINT
  5
5EE
  8
DEFPOINTS
  6
CONTINUOUS
 62
     0
 10
4022.68563464291
 20
1225.981589173508
 30
0.0
  0
ENDBLK
  5
5F0
  8
回07-寸法
  6
CONTINUOUS
 62
     7
  0
BLOCK
  8
回07-寸法
  2
*D6363
 70
     1
 10
0.0
 20
0.0
 30
0.0
  3
*D6363
  1

  0
LINE
  5
5F2
  8
回07-寸法
  6
CONTINUOUS
 62
     5
 10
3969.21224313135
 20
1462.481589173508
 30
0.0
 11
3969.21224313135
 21
1526.002248042381
 31
0.0
  0
LINE
  5
5F3
  8
回07-寸法
  6
CONTINUOUS
 62
     5
 10
3553.91224313135
 20
1462.481589173508
 30
0.0
 11
3553.91224313135
 21
1526.002248042381
 31
0.0
  0
LINE
  5
5F4
  8
回07-寸法
  6
CONTINUOUS
 62
     5
 10
3967.71224313135
 20
1525.002248042381
 30
0.0
 11
3555.41224313135
 21
1525.002248042381
 31
0.0
  0
INSERT
  5
5F5
  8
回07-寸法
  6
CONTINUOUS
 62
     5
  2
_OPEN
 10
3969.21224313135
 20
1525.002248042381
 30
0.0
 41
1.5
 42
1.5
 43
1.5
  0
INSERT
  5
5F6
  8
回07-寸法
  6
CONTINUOUS
 62
     5
  2
_OPEN
 10
3553.91224313135
 20
1525.002248042381
 30
0.0
 41
1.5
 42
1.5
 43
1.5
 50
180.0
  0
TEXT
  5
5F7
  8
回07-寸法
  6
CONTINUOUS
 62
     5
 10
3749.56224313135
 20
1525.502248042381
 30
0.0
 40
8.0
  1
415.3
  0
POINT
  5
5F8
  8
DEFPOINTS
  6
CONTINUOUS
 62
     0
 10
3969.21224313135
 20
1462.481589173508
 30
0.0
  0
POINT
  5
5F9
  8
DEFPOINTS
  6
CONTINUOUS
 62
     0
 10
3553.91224313135
 20
1462.481589173508
 30
0.0
  0
POINT
  5
5FA
  8
DEFPOINTS
  6
CONTINUOUS
 62
     0
 10
3553.91224313135
 20
1525.002248042381
 30
0.0
  0
ENDBLK
  5
5FC
  8
回07-寸法
  6
CONTINUOUS
 62
     7
  0
BLOCK
  8
回07-寸法
  2
*D6464
 70
     1
 10
0.0
 20
0.0
 30
0.0
  3
*D6464
  1

  0
LINE
  5
5FE
  8
回07-寸法
  6
CONTINUOUS
 62
     5
 10
3968.712243131351
 20
1226.781589173508
 30
0.0
 11
4013.68563464291
 21
1226.781589173508
 31
0.0
  0
LINE
  5
600
  8
回07-寸法
  6
CONTINUOUS
 62
     5
 10
3974.71224313135
 20
1219.231589173509
 30
0.0
 11
4013.68563464291
 21
1219.231589173509
 31
0.0
  0
LINE
  5
601
  8
回07-寸法
  6
CONTINUOUS
 62
     5
 10
4012.68563464291
 20
1217.731589173509
 30
0.0
 11
4012.68563464291
 21
1203.829823862916
 31
0.0
  0
LINE
  5
602
  8
回07-寸法
  6
CONTINUOUS
 62
     5
 10
4012.68563464291
 20
1226.781589173508
 30
0.0
 11
4012.68563464291
 21
1219.231589173509
 31
0.0
  0
LINE
  5
603
  8
回07-寸法
  6
CONTINUOUS
 62
     5
 10
4012.68563464291
 20
1228.281589173508
 30
0.0
 11
4012.68563464291
 21
1229.781589173508
 31
0.0
  0
INSERT
  5
604
  8
回07-寸法
  6
CONTINUOUS
 62
     5
  2
_OPEN
 10
4012.68563464291
 20
1226.781589173508
 30
0.0
 41
1.5
 42
1.5
 43
1.5
 50
270.0
  0
INSERT
  5
605
  8
回07-寸法
  6
CONTINUOUS
 62
     5
  2
_OPEN
 10
4012.68563464291
 20
1219.231589173509
 30
0.0
 41
1.5
 42
1.5
 43
1.5
 50
90.0
  0
TEXT
  5
606
  8
回07-寸法
  6
CONTINUOUS
 62
     5
 10
4012.18563464291
 20
1203.129823862916
 30
0.0
 40
8.0
  1
7.6
 50
90.0
  0
POINT
  5
607
  8
DEFPOINTS
  6
CONTINUOUS
 62
     0
 10
3968.712243131351
 20
1226.781589173508
 30
0.0
  0
POINT
  5
608
  8
DEFPOINTS
  6
CONTINUOUS
 62
     0
 10
3974.71224313135
 20
1219.231589173509
 30
0.0
  0
POINT
  5
609
  8
DEFPOINTS
  6
CONTINUOUS
 62
     0
 10
4012.68563464291
 20
1219.231589173509
 30
0.0
  0
ENDBLK
  5
60B
  8
回07-寸法
  6
CONTINUOUS
 62
     7
  0
BLOCK
  8
回07-寸法
  2
*D6565
 70
     1
 10
0.0
 20
0.0
 30
0.0
  3
*D6565
  1

  0
LINE
  5
60D
  8
回07-寸法
  6
CONTINUOUS
 62
     5
 10
3966.712243131349
 20
1228.781589173508
 30
0.0
 11
4003.68563464291
 21
1228.781589173508
 31
0.0
  0
LINE
  5
60E
  8
回07-寸法
  6
CONTINUOUS
 62
     5
 10
3974.71224313135
 20
1219.231589173509
 30
0.0
 11
4003.68563464291
 21
1219.231589173509
 31
0.0
  0
LINE
  5
60F
  8
回07-寸法
  6
CONTINUOUS
 62
     5
 10
4002.685634642911
 20
1217.731589173509
 30
0.0
 11
4002.685634642911
 21
1203.664138437972
 31
0.0
  0
LINE
  5
610
  8
回07-寸法
  6
CONTINUOUS
 62
     5
 10
4002.685634642911
 20
1228.781589173508
 30
0.0
 11
4002.685634642911
 21
1219.231589173509
 31
0.0
  0
LINE
  5
611
  8
回07-寸法
  6
CONTINUOUS
 62
     5
 10
4002.685634642911
 20
1230.281589173508
 30
0.0
 11
4002.685634642911
 21
1231.781589173508
 31
0.0
  0
INSERT
  5
612
  8
回07-寸法
  6
CONTINUOUS
 62
     5
  2
_OPEN
 10
4002.685634642911
 20
1228.781589173508
 30
0.0
 41
1.5
 42
1.5
 43
1.5
 50
270.0
  0
INSERT
  5
613
  8
回07-寸法
  6
CONTINUOUS
 62
     5
  2
_OPEN
 10
4002.685634642911
 20
1219.231589173509
 30
0.0
 41
1.5
 42
1.5
 43
1.5
 50
90.0
  0
TEXT
  5
614
  8
回07-寸法
  6
CONTINUOUS
 62
     5
 10
4002.18563464291
 20
1202.935255489757
 30
0.0
 40
8.0
  1
9.6
 50
90.0
  0
POINT
  5
615
  8
DEFPOINTS
  6
CONTINUOUS
 62
     0
 10
3966.712243131349
 20
1228.781589173508
 30
0.0
  0
POINT
  5
616
  8
DEFPOINTS
  6
CONTINUOUS
 62
     0
 10
3974.71224313135
 20
1219.231589173509
 30
0.0
  0
POINT
  5
617
  8
DEFPOINTS
  6
CONTINUOUS
 62
     0
 10
4002.685634642911
 20
1219.231589173509
 30
0.0
  0
ENDBLK
  5
619
  8
回07-寸法
  6
CONTINUOUS
 62
     7
  0
BLOCK
  8
回07-寸法
  2
*D6666
 70
     1
 10
0.0
 20
0.0
 30
0.0
  3
*D6666
  1

  0
LINE
  5
61B
  8
回07-寸法
  6
CONTINUOUS
 62
     5
 10
3974.71224313135
 20
1219.231589173509
 30
0.0
 11
4033.68563464291
 21
1219.231589173509
 31
0.0
  0
LINE
  5
61C
  8
回07-寸法
  6
CONTINUOUS
 62
     5
 10
3974.71224313135
 20
1469.231589173507
 30
0.0
 11
4033.68563464291
 21
1469.231589173507
 31
0.0
  0
LINE
  5
61D
  8
回07-寸法
  6
CONTINUOUS
 62
     5
 10
4032.685634642911
 20
1220.731589173509
 30
0.0
 11
4032.685634642911
 21
1467.731589173507
 31
0.0
  0
INSERT
  5
61E
  8
回07-寸法
  6
CONTINUOUS
 62
     5
  2
_OPEN
 10
4032.685634642911
 20
1219.231589173509
 30
0.0
 41
1.5
 42
1.5
 43
1.5
 50
270.0
  0
INSERT
  5
61F
  8
回07-寸法
  6
CONTINUOUS
 62
     5
  2
_OPEN
 10
4032.685634642911
 20
1469.231589173507
 30
0.0
 41
1.5
 42
1.5
 43
1.5
 50
90.0
  0
INSERT
  5
620
  8
回07-寸法
  6
CONTINUOUS
 62
     5
 66
     1
  2
*X111111
 10
0.0
 20
0.0
 30
0.0
  0
SEQEND
  5
7D4
  8
回07-寸法
  6
CONTINUOUS
 62
     7
  0
POINT
  5
621
  8
DEFPOINTS
  6
CONTINUOUS
 62
     0
 10
3974.71224313135
 20
1219.231589173509
 30
0.0
  0
POINT
  5
622
  8
DEFPOINTS
  6
CONTINUOUS
 62
     0
 10
3974.71224313135
 20
1469.231589173507
 30
0.0
  0
POINT
  5
623
  8
DEFPOINTS
  6
CONTINUOUS
 62
     0
 10
4032.685634642911
 20
1469.231589173507
 30
0.0
  0
ENDBLK
  5
625
  8
回07-寸法
  6
CONTINUOUS
 62
     7
  0
BLOCK
  8
回07-寸法
  2
*D6767
 70
     1
 10
0.0
 20
0.0
 30
0.0
  3
*D6767
  1

  0
LINE
  5
627
  8
回07-寸法
  6
CONTINUOUS
 62
     5
 10
3968.712243131351
 20
1461.681589173507
 30
0.0
 11
4013.68563464291
 21
1461.681589173507
 31
0.0
  0
LINE
  5
628
  8
回07-寸法
  6
CONTINUOUS
 62
     5
 10
3968.712243131351
 20
1226.781589173508
 30
0.0
 11
4013.68563464291
 21
1226.781589173508
 31
0.0
  0
LINE
  5
629
  8
回07-寸法
  6
CONTINUOUS
 62
     5
 10
4012.68563464291
 20
1460.181589173507
 30
0.0
 11
4012.68563464291
 21
1228.281589173508
 31
0.0
  0
INSERT
  5
62A
  8
回07-寸法
  6
CONTINUOUS
 62
     5
  2
_OPEN
 10
4012.68563464291
 20
1461.681589173507
 30
0.0
 41
1.5
 42
1.5
 43
1.5
 50
90.0
  0
INSERT
  5
62B
  8
回07-寸法
  6
CONTINUOUS
 62
     5
  2
_OPEN
 10
4012.68563464291
 20
1226.781589173508
 30
0.0
 41
1.5
 42
1.5
 43
1.5
 50
270.0
  0
INSERT
  5
62C
  8
回07-寸法
  6
CONTINUOUS
 62
     5
 66
     1
  2
*X112112
 10
0.0
 20
0.0
 30
0.0
  0
SEQEND
  5
7DA
  8
回07-寸法
  6
CONTINUOUS
 62
     7
  0
POINT
  5
62D
  8
DEFPOINTS
  6
CONTINUOUS
 62
     0
 10
3968.712243131351
 20
1461.681589173507
 30
0.0
  0
POINT
  5
62E
  8
DEFPOINTS
  6
CONTINUOUS
 62
     0
 10
3968.712243131351
 20
1226.781589173508
 30
0.0
  0
POINT
  5
62F
  8
DEFPOINTS
  6
CONTINUOUS
 62
     0
 10
4012.68563464291
 20
1226.781589173508
 30
0.0
  0
ENDBLK
  5
631
  8
回07-寸法
  6
CONTINUOUS
 62
     7
  0
BLOCK
  8
回07-寸法
  2
*D6868
 70
     1
 10
0.0
 20
0.0
 30
0.0
  3
*D6868
  1

  0
LINE
  5
633
  8
回07-寸法
  6
CONTINUOUS
 62
     5
 10
3966.712243131349
 20
1228.781589173508
 30
0.0
 11
4003.685634642911
 21
1228.781589173508
 31
0.0
  0
LINE
  5
634
  8
回07-寸法
  6
CONTINUOUS
 62
     5
 10
3966.712243131349
 20
1459.681589173508
 30
0.0
 11
4003.685634642911
 21
1459.681589173508
 31
0.0
  0
LINE
  5
635
  8
回07-寸法
  6
CONTINUOUS
 62
     5
 10
4002.685634642911
 20
1230.281589173508
 30
0.0
 11
4002.685634642911
 21
1458.181589173508
 31
0.0
  0
INSERT
  5
636
  8
回07-寸法
  6
CONTINUOUS
 62
     5
  2
_OPEN
 10
4002.685634642911
 20
1228.781589173508
 30
0.0
 41
1.5
 42
1.5
 43
1.5
 50
270.0
  0
INSERT
  5
637
  8
回07-寸法
  6
CONTINUOUS
 62
     5
  2
_OPEN
 10
4002.685634642911
 20
1459.681589173508
 30
0.0
 41
1.5
 42
1.5
 43
1.5
 50
90.0
  0
INSERT
  5
638
  8
回07-寸法
  6
CONTINUOUS
 62
     5
 66
     1
  2
*X113113
 10
0.0
 20
0.0
 30
0.0
  0
SEQEND
  5
7E0
  8
回07-寸法
  6
CONTINUOUS
 62
     7
  0
POINT
  5
639
  8
DEFPOINTS
  6
CONTINUOUS
 62
     0
 10
3966.712243131349
 20
1228.781589173508
 30
0.0
  0
POINT
  5
63A
  8
DEFPOINTS
  6
CONTINUOUS
 62
     0
 10
3966.712243131349
 20
1459.681589173508
 30
0.0
  0
POINT
  5
63B
  8
DEFPOINTS
  6
CONTINUOUS
 62
     0
 10
4002.685634642911
 20
1459.681589173508
 30
0.0
  0
ENDBLK
  5
63D
  8
回07-寸法
  6
CONTINUOUS
 62
     7
  0
BLOCK
  8
回07-寸法
  2
*D6969
 70
     1
 10
0.0
 20
0.0
 30
0.0
  3
*D6969
  1

  0
LINE
  5
63F
  8
回07-寸法
  6
CONTINUOUS
 62
     5
 10
3546.21224313135
 20
1469.231589173508
 30
0.0
 11
3546.21224313135
 21
1536.002248042381
 31
0.0
  0
LINE
  5
640
  8
回07-寸法
  6
CONTINUOUS
 62
     5
 10
3974.71224313135
 20
1469.231589173508
 30
0.0
 11
3974.71224313135
 21
1536.002248042381
 31
0.0
  0
LINE
  5
641
  8
回07-寸法
  6
CONTINUOUS
 62
     5
 10
3547.71224313135
 20
1535.002248042381
 30
0.0
 11
3973.21224313135
 21
1535.002248042381
 31
0.0
  0
INSERT
  5
642
  8
回07-寸法
  6
CONTINUOUS
 62
     5
  2
_OPEN
 10
3546.21224313135
 20
1535.002248042381
 30
0.0
 41
1.5
 42
1.5
 43
1.5
 50
180.0
  0
INSERT
  5
643
  8
回07-寸法
  6
CONTINUOUS
 62
     5
  2
_OPEN
 10
3974.71224313135
 20
1535.002248042381
 30
0.0
 41
1.5
 42
1.5
 43
1.5
  0
INSERT
  5
644
  8
回07-寸法
  6
CONTINUOUS
 62
     5
 66
     1
  2
*X114114
 10
0.0
 20
0.0
 30
0.0
  0
SEQEND
  5
7E6
  8
回07-寸法
  6
CONTINUOUS
 62
     7
  0
POINT
  5
645
  8
DEFPOINTS
  6
CONTINUOUS
 62
     0
 10
3546.21224313135
 20
1469.231589173508
 30
0.0
  0
POINT
  5
646
  8
DEFPOINTS
  6
CONTINUOUS
 62
     0
 10
3974.71224313135
 20
1469.231589173508
 30
0.0
  0
POINT
  5
647
  8
DEFPOINTS
  6
CONTINUOUS
 62
     0
 10
3974.71224313135
 20
1535.002248042381
 30
0.0
  0
ENDBLK
  5
649
  8
回07-寸法
  6
CONTINUOUS
 62
     7
  0
BLOCK
  8
回07-寸法
  2
*D7070
 70
     1
 10
0.0
 20
0.0
 30
0.0
  3
*D7070
  1

  0
LINE
  5
64B
  8
回07-寸法
  6
CONTINUOUS
 62
     5
 10
3554.41224313135
 20
1461.681589173508
 30
0.0
 11
3554.41224313135
 21
1516.002248042381
 31
0.0
  0
LINE
  5
64C
  8
回07-寸法
  6
CONTINUOUS
 62
     5
 10
3968.712243131351
 20
1461.681589173508
 30
0.0
 11
3968.712243131351
 21
1516.002248042381
 31
0.0
  0
LINE
  5
64D
  8
回07-寸法
  6
CONTINUOUS
 62
     5
 10
3555.91224313135
 20
1515.002248042381
 30
0.0
 11
3967.212243131351
 21
1515.002248042381
 31
0.0
  0
INSERT
  5
64E
  8
回07-寸法
  6
CONTINUOUS
 62
     5
  2
_OPEN
 10
3554.41224313135
 20
1515.002248042381
 30
0.0
 41
1.5
 42
1.5
 43
1.5
 50
180.0
  0
INSERT
  5
64F
  8
回07-寸法
  6
CONTINUOUS
 62
     5
  2
_OPEN
 10
3968.712243131351
 20
1515.002248042381
 30
0.0
 41
1.5
 42
1.5
 43
1.5
  0
INSERT
  5
650
  8
回07-寸法
  6
CONTINUOUS
 62
     5
 66
     1
  2
*X115115
 10
0.0
 20
0.0
 30
0.0
  0
SEQEND
  5
7EC
  8
回07-寸法
  6
CONTINUOUS
 62
     7
  0
POINT
  5
651
  8
DEFPOINTS
  6
CONTINUOUS
 62
     0
 10
3554.41224313135
 20
1461.681589173508
 30
0.0
  0
POINT
  5
652
  8
DEFPOINTS
  6
CONTINUOUS
 62
     0
 10
3968.712243131351
 20
1461.681589173508
 30
0.0
  0
POINT
  5
653
  8
DEFPOINTS
  6
CONTINUOUS
 62
     0
 10
3968.712243131351
 20
1515.002248042381
 30
0.0
  0
ENDBLK
  5
655
  8
回07-寸法
  6
CONTINUOUS
 62
     7
  0
BLOCK
  8
回07-寸法
  2
*D7171
 70
     1
 10
0.0
 20
0.0
 30
0.0
  3
*D7171
  1

  0
LINE
  5
657
  8
回07-寸法
  6
CONTINUOUS
 62
     5
 10
3556.41224313135
 20
1459.681589173508
 30
0.0
 11
3556.41224313135
 21
1506.002248042381
 31
0.0
  0
LINE
  5
658
  8
回07-寸法
  6
CONTINUOUS
 62
     5
 10
3966.712243131349
 20
1459.681589173508
 30
0.0
 11
3966.712243131349
 21
1506.002248042381
 31
0.0
  0
LINE
  5
659
  8
回07-寸法
  6
CONTINUOUS
 62
     5
 10
3557.91224313135
 20
1505.002248042381
 30
0.0
 11
3965.212243131349
 21
1505.002248042381
 31
0.0
  0
INSERT
  5
65A
  8
回07-寸法
  6
CONTINUOUS
 62
     5
  2
_OPEN
 10
3556.41224313135
 20
1505.002248042381
 30
0.0
 41
1.5
 42
1.5
 43
1.5
 50
180.0
  0
INSERT
  5
65B
  8
回07-寸法
  6
CONTINUOUS
 62
     5
  2
_OPEN
 10
3966.712243131349
 20
1505.002248042381
 30
0.0
 41
1.5
 42
1.5
 43
1.5
  0
INSERT
  5
65C
  8
回07-寸法
  6
CONTINUOUS
 62
     5
 66
     1
  2
*X116116
 10
0.0
 20
0.0
 30
0.0
  0
SEQEND
  5
7F2
  8
回07-寸法
  6
CONTINUOUS
 62
     7
  0
POINT
  5
65D
  8
DEFPOINTS
  6
CONTINUOUS
 62
     0
 10
3556.41224313135
 20
1459.681589173508
 30
0.0
  0
POINT
  5
65E
  8
DEFPOINTS
  6
CONTINUOUS
 62
     0
 10
3966.712243131349
 20
1459.681589173508
 30
0.0
  0
POINT
  5
65F
  8
DEFPOINTS
  6
CONTINUOUS
 62
     0
 10
3966.712243131349
 20
1505.002248042381
 30
0.0
  0
ENDBLK
  5
661
  8
回07-寸法
  6
CONTINUOUS
 62
     7
  0
BLOCK
  8
回07-寸法
  2
*D7272
 70
     1
 10
0.0
 20
0.0
 30
0.0
  3
*D7272
  1

  0
LINE
  5
663
  8
回07-寸法
  6
CONTINUOUS
 62
     5
 10
3553.91224313135
 20
1462.481589173508
 30
0.0
 11
3553.91224313135
 21
1526.002248042381
 31
0.0
  0
LINE
  5
664
  8
回07-寸法
  6
CONTINUOUS
 62
     5
 10
3546.21224313135
 20
1469.231589173506
 30
0.0
 11
3546.21224313135
 21
1526.002248042381
 31
0.0
  0
LINE
  5
665
  8
回07-寸法
  6
CONTINUOUS
 62
     5
 10
3544.71224313135
 20
1525.002248042381
 30
0.0
 11
3476.251711635287
 21
1525.002248042381
 31
0.0
  0
LINE
  5
666
  8
回07-寸法
  6
CONTINUOUS
 62
     5
 10
3553.91224313135
 20
1525.002248042381
 30
0.0
 11
3546.21224313135
 21
1525.002248042381
 31
0.0
  0
LINE
  5
667
  8
回07-寸法
  6
CONTINUOUS
 62
     5
 10
3555.41224313135
 20
1525.002248042381
 30
0.0
 11
3556.91224313135
 21
1525.002248042381
 31
0.0
  0
INSERT
  5
668
  8
回07-寸法
  6
CONTINUOUS
 62
     5
  2
_OPEN
 10
3553.91224313135
 20
1525.002248042381
 30
0.0
 41
1.5
 42
1.5
 43
1.5
 50
180.0
  0
INSERT
  5
669
  8
回07-寸法
  6
CONTINUOUS
 62
     5
  2
_OPEN
 10
3546.21224313135
 20
1525.002248042381
 30
0.0
 41
1.5
 42
1.5
 43
1.5
  0
INSERT
  5
66A
  8
回07-寸法
  6
CONTINUOUS
 62
     5
 66
     1
  2
*X117117
 10
0.0
 20
0.0
 30
0.0
  0
SEQEND
  5
7F8
  8
回07-寸法
  6
CONTINUOUS
 62
     7
  0
POINT
  5
66B
  8
DEFPOINTS
  6
CONTINUOUS
 62
     0
 10
3553.91224313135
 20
1462.481589173508
 30
0.0
  0
POINT
  5
66C
  8
DEFPOINTS
  6
CONTINUOUS
 62
     0
 10
3546.21224313135
 20
1469.231589173506
 30
0.0
  0
POINT
  5
66D
  8
DEFPOINTS
  6
CONTINUOUS
 62
     0
 10
3546.21224313135
 20
1525.002248042381
 30
0.0
  0
ENDBLK
  5
66F
  8
回07-寸法
  6
CONTINUOUS
 62
     7
  0
BLOCK
  8
回07-寸法
  2
*D7373
 70
     1
 10
0.0
 20
0.0
 30
0.0
  3
*D7373
  1

  0
LINE
  5
671
  8
回07-寸法
  6
CONTINUOUS
 62
     5
 10
3554.412243131349
 20
1461.681589173508
 30
0.0
 11
3554.412243131349
 21
1516.002248042381
 31
0.0
  0
LINE
  5
672
  8
回07-寸法
  6
CONTINUOUS
 62
     5
 10
3546.21224313135
 20
1469.231589173506
 30
0.0
 11
3546.21224313135
 21
1516.002248042381
 31
0.0
  0
LINE
  5
673
  8
回07-寸法
  6
CONTINUOUS
 62
     5
 10
3544.71224313135
 20
1515.002248042381
 30
0.0
 11
3530.771122416637
 21
1515.002248042381
 31
0.0
  0
LINE
  5
674
  8
回07-寸法
  6
CONTINUOUS
 62
     5
 10
3554.412243131349
 20
1515.002248042381
 30
0.0
 11
3546.21224313135
 21
1515.002248042381
 31
0.0
  0
LINE
  5
675
  8
回07-寸法
  6
CONTINUOUS
 62
     5
 10
3555.912243131349
 20
1515.002248042381
 30
0.0
 11
3557.412243131349
 21
1515.002248042381
 31
0.0
  0
INSERT
  5
676
  8
回07-寸法
  6
CONTINUOUS
 62
     5
  2
_OPEN
 10
3554.412243131349
 20
1515.002248042381
 30
0.0
 41
1.5
 42
1.5
 43
1.5
 50
180.0
  0
INSERT
  5
677
  8
回07-寸法
  6
CONTINUOUS
 62
     5
  2
_OPEN
 10
3546.21224313135
 20
1515.002248042381
 30
0.0
 41
1.5
 42
1.5
 43
1.5
  0
TEXT
  5
678
  8
回07-寸法
  6
CONTINUOUS
 62
     5
 10
3530.071122416637
 20
1515.502248042381
 30
0.0
 40
8.0
  1
8.2
  0
POINT
  5
679
  8
DEFPOINTS
  6
CONTINUOUS
 62
     0
 10
3554.412243131349
 20
1461.681589173508
 30
0.0
  0
POINT
  5
67A
  8
DEFPOINTS
  6
CONTINUOUS
 62
     0
 10
3546.21224313135
 20
1469.231589173506
 30
0.0
  0
POINT
  5
67B
  8
DEFPOINTS
  6
CONTINUOUS
 62
     0
 10
3546.21224313135
 20
1515.002248042381
 30
0.0
  0
ENDBLK
  5
67D
  8
回07-寸法
  6
CONTINUOUS
 62
     7
  0
BLOCK
  8
回07-寸法
  2
*D7474
 70
     1
 10
0.0
 20
0.0
 30
0.0
  3
*D7474
  1

  0
LINE
  5
67F
  8
回07-寸法
  6
CONTINUOUS
 62
     5
 10
3556.41224313135
 20
1459.681589173508
 30
0.0
 11
3556.41224313135
 21
1506.002248042381
 31
0.0
  0
LINE
  5
680
  8
回07-寸法
  6
CONTINUOUS
 62
     5
 10
3546.21224313135
 20
1469.231589173506
 30
0.0
 11
3546.21224313135
 21
1506.002248042381
 31
0.0
  0
LINE
  5
681
  8
回07-寸法
  6
CONTINUOUS
 62
     5
 10
3544.71224313135
 20
1505.002248042381
 30
0.0
 11
3526.771122416636
 21
1505.002248042381
 31
0.0
  0
LINE
  5
682
  8
回07-寸法
  6
CONTINUOUS
 62
     5
 10
3556.41224313135
 20
1505.002248042381
 30
0.0
 11
3546.21224313135
 21
1505.002248042381
 31
0.0
  0
LINE
  5
683
  8
回07-寸法
  6
CONTINUOUS
 62
     5
 10
3557.91224313135
 20
1505.002248042381
 30
0.0
 11
3559.41224313135
 21
1505.002248042381
 31
0.0
  0
INSERT
  5
684
  8
回07-寸法
  6
CONTINUOUS
 62
     5
  2
_OPEN
 10
3556.41224313135
 20
1505.002248042381
 30
0.0
 41
1.5
 42
1.5
 43
1.5
 50
180.0
  0
INSERT
  5
685
  8
回07-寸法
  6
CONTINUOUS
 62
     5
  2
_OPEN
 10
3546.21224313135
 20
1505.002248042381
 30
0.0
 41
1.5
 42
1.5
 43
1.5
  0
TEXT
  5
686
  8
回07-寸法
  6
CONTINUOUS
 62
     5
 10
3526.071122416637
 20
1505.502248042381
 30
0.0
 40
8.0
  1
10.2
  0
POINT
  5
687
  8
DEFPOINTS
  6
CONTINUOUS
 62
     0
 10
3556.41224313135
 20
1459.681589173508
 30
0.0
  0
POINT
  5
688
  8
DEFPOINTS
  6
CONTINUOUS
 62
     0
 10
3546.21224313135
 20
1469.231589173506
 30
0.0
  0
POINT
  5
689
  8
DEFPOINTS
  6
CONTINUOUS
 62
     0
 10
3546.21224313135
 20
1505.002248042381
 30
0.0
  0
ENDBLK
  5
68B
  8
回07-寸法
  6
CONTINUOUS
 62
     7
  0
BLOCK
  8
回07-寸法
  2
*D7575
 70
     1
 10
0.0
 20
0.0
 30
0.0
  3
*D7575
  1

  0
LINE
  5
68D
  8
回08-記事
  6
CONTINUOUS
 62
     5
 10
3789.56224313135
 20
1308.231589173508
 30
0.0
 11
3789.56224313135
 21
1291.906742549352
 31
0.0
  0
LINE
  5
68E
  8
回08-記事
  6
CONTINUOUS
 62
     5
 10
3793.56224313135
 20
1308.231589173508
 30
0.0
 11
3793.56224313135
 21
1291.906742549352
 31
0.0
  0
LINE
  5
68F
  8
回08-記事
  6
CONTINUOUS
 62
     5
 10
3795.06224313135
 20
1292.906742549352
 30
0.0
 11
3801.56224313135
 21
1292.906742549352
 31
0.0
  0
LINE
  5
690
  8
回08-記事
  6
CONTINUOUS
 62
     5
 10
3789.56224313135
 20
1292.906742549352
 30
0.0
 11
3793.56224313135
 21
1292.906742549352
 31
0.0
  0
LINE
  5
691
  8
回08-記事
  6
CONTINUOUS
 62
     5
 10
3788.06224313135
 20
1292.906742549352
 30
0.0
 11
3786.562243131351
 21
1292.906742549352
 31
0.0
  0
INSERT
  5
692
  8
回08-記事
  6
CONTINUOUS
 62
     5
  2
_OPEN
 10
3789.56224313135
 20
1292.906742549352
 30
0.0
 41
1.5
 42
1.5
 43
1.5
  0
INSERT
  5
693
  8
回08-記事
  6
CONTINUOUS
 62
     5
  2
_OPEN
 10
3793.56224313135
 20
1292.906742549352
 30
0.0
 41
1.5
 42
1.5
 43
1.5
 50
180.0
  0
TEXT
  5
694
  8
回08-記事
  6
CONTINUOUS
 62
     5
 10
3795.86224313135
 20
1293.406742549352
 30
0.0
 40
8.0
  1
4
  0
POINT
  5
695
  8
DEFPOINTS
  6
CONTINUOUS
 62
     0
 10
3789.56224313135
 20
1308.231589173508
 30
0.0
  0
POINT
  5
696
  8
DEFPOINTS
  6
CONTINUOUS
 62
     0
 10
3793.56224313135
 20
1308.231589173508
 30
0.0
  0
POINT
  5
697
  8
DEFPOINTS
  6
CONTINUOUS
 62
     0
 10
3793.56224313135
 20
1292.906742549352
 30
0.0
  0
ENDBLK
  5
699
  8
回07-寸法
  6
CONTINUOUS
 62
     7
  0
BLOCK
  8
回07-寸法
  2
*D7676
 70
     1
 10
0.0
 20
0.0
 30
0.0
  3
*D7676
  1

  0
LINE
  5
69B
  8
回08-記事
  6
CONTINUOUS
 62
     5
 10
3797.562243131351
 20
1320.231589173508
 30
0.0
 11
3812.596101424145
 21
1320.231589173508
 31
0.0
  0
LINE
  5
69C
  8
回08-記事
  6
CONTINUOUS
 62
     5
 10
3797.562243131351
 20
1316.231589173508
 30
0.0
 11
3812.596101424145
 21
1316.231589173508
 31
0.0
  0
LINE
  5
69D
  8
回08-記事
  6
CONTINUOUS
 62
     5
 10
3811.596101424145
 20
1314.731589173508
 30
0.0
 11
3811.596101424145
 21
1308.231589173508
 31
0.0
  0
LINE
  5
69E
  8
回08-記事
  6
CONTINUOUS
 62
     5
 10
3811.596101424145
 20
1320.231589173508
 30
0.0
 11
3811.596101424145
 21
1316.231589173508
 31
0.0
  0
LINE
  5
69F
  8
回08-記事
  6
CONTINUOUS
 62
     5
 10
3811.596101424145
 20
1321.731589173508
 30
0.0
 11
3811.596101424145
 21
1323.231589173508
 31
0.0
  0
INSERT
  5
6A0
  8
回08-記事
  6
CONTINUOUS
 62
     5
  2
_OPEN
 10
3811.596101424145
 20
1320.231589173508
 30
0.0
 41
1.5
 42
1.5
 43
1.5
 50
270.0
  0
INSERT
  5
6A1
  8
回08-記事
  6
CONTINUOUS
 62
     5
  2
_OPEN
 10
3811.596101424145
 20
1316.231589173508
 30
0.0
 41
1.5
 42
1.5
 43
1.5
 50
90.0
  0
TEXT
  5
6A2
  8
回08-記事
  6
CONTINUOUS
 62
     5
 10
3811.096101424145
 20
1307.531589173508
 30
0.0
 40
8.0
  1
4
 50
90.0
  0
POINT
  5
6A3
  8
DEFPOINTS
  6
CONTINUOUS
 62
     0
 10
3797.562243131351
 20
1320.231589173508
 30
0.0
  0
POINT
  5
6A4
  8
DEFPOINTS
  6
CONTINUOUS
 62
     0
 10
3797.562243131351
 20
1316.231589173508
 30
0.0
  0
POINT
  5
6A5
  8
DEFPOINTS
  6
CONTINUOUS
 62
     0
 10
3811.596101424145
 20
1316.231589173508
 30
0.0
  0
ENDBLK
  5
6A7
  8
回07-寸法
  6
CONTINUOUS
 62
     7
  0
BLOCK
  8
回07-寸法
  2
*X7777
 70
     1
 10
0.0
 20
0.0
 30
0.0
  3
*X7777
  1

  0
INSERT
  5
6AC
  8
回03-記事
  6
CONTINUOUS
 62
     5
  2
_OPEN
 10
3468.632318961481
 20
1167.170100217473
 30
0.0
 41
2.0
 42
2.0
 43
2.0
 50
335.7278179402576
  0
LINE
  5
6AD
  8
回03-記事
  6
CONTINUOUS
 62
     5
 10
3466.809113030566
 20
1167.992243838431
 30
0.0
 11
3449.221423984961
 21
1175.923112266984
 31
0.0
  0
LINE
  5
6AE
  8
回03-記事
  6
CONTINUOUS
 62
     5
 10
3449.221423984961
 20
1175.923112266984
 30
0.0
 11
3399.30642398496
 21
1175.923112266984
 31
0.0
  0
ENDBLK
  5
6B0
  8
回07-寸法
  6
CONTINUOUS
 62
     7
  0
BLOCK
  8
回07-寸法
  2
*X7878
 70
     1
 10
0.0
 20
0.0
 30
0.0
  3
*X7878
  1

  0
SOLID
  5
6B3
  8
回02-寸法
 62
     5
 10
3471.527926345283
 20
1459.215726642057
 30
0.0
 11
3472.137669490433
 21
1457.822631779191
 31
0.0
 12
3471.109070884092
 22
1458.942669683475
 32
0.0
 13
3471.109070884092
 23
1458.942669683475
 33
0.0
  0
LINE
  5
6B4
  8
回02-寸法
 62
     5
 10
3471.318498614687
 20
1459.079198162766
 30
0.0
 11
3468.200663516631
 21
1463.861798337829
 31
0.0
  0
LINE
  5
6B5
  8
回02-寸法
 62
     5
 10
3468.200663516631
 20
1463.861798337829
 30
0.0
 11
3466.200663516631
 21
1463.861798337829
 31
0.0
  0
ENDBLK
  5
6B7
  8
回07-寸法
  6
CONTINUOUS
 62
     7
  0
BLOCK
  8
回07-寸法
  2
*X7979
 70
     1
 10
0.0
 20
0.0
 30
0.0
  3
*X7979
  1

  0
INSERT
  5
6C6
  8
回03-記事
  6
CONTINUOUS
 62
     5
  2
_OPEN
 10
3468.826204452472
 20
1347.358639203977
 30
0.0
 41
2.0
 42
2.0
 43
2.0
 50
236.6265780747896
  0
LINE
  5
6C7
  8
回03-記事
  6
CONTINUOUS
 62
     5
 10
3469.926391284256
 20
1349.028845459255
 30
0.0
 11
3472.686377584961
 21
1353.218812336466
 31
0.0
  0
LINE
  5
6C8
  8
回03-記事
  6
CONTINUOUS
 62
     5
 10
3472.686377584961
 20
1353.218812336466
 30
0.0
 11
3475.186377584961
 21
1353.218812336466
 31
0.0
  0
ENDBLK
  5
6CA
  8
回07-寸法
  6
CONTINUOUS
 62
     7
  0
BLOCK
  8
回07-寸法
  2
*X8080
 70
     1
 10
0.0
 20
0.0
 30
0.0
  3
*X8080
  1

  0
SOLID
  5
6D7
  8
回07-寸法
  6
CONTINUOUS
 62
     5
 10
3545.114019969291
 20
1353.962937145181
 30
0.0
 11
3546.12677266725
 21
1352.828550979549
 31
0.0
 12
3544.800854331678
 22
1353.573158639593
 32
0.0
 13
3544.800854331678
 23
1353.573158639593
 33
0.0
  0
LINE
  5
6D8
  8
回07-寸法
  6
CONTINUOUS
 62
     5
 10
3544.957437150485
 20
1353.768047892387
 30
0.0
 11
3539.659944692342
 21
1358.02429234819
 31
0.0
  0
LINE
  5
6D9
  8
回07-寸法
  6
CONTINUOUS
 62
     5
 10
3539.659944692342
 20
1358.02429234819
 30
0.0
 11
3537.659944692342
 21
1358.02429234819
 31
0.0
  0
ENDBLK
  5
6DB
  8
回07-寸法
  6
CONTINUOUS
 62
     7
  0
BLOCK
  8
回07-寸法
  2
*X8181
 70
     1
 10
0.0
 20
0.0
 30
0.0
  3
*X8181
  1

  0
SOLID
  5
6DE
  8
回07-寸法
  6
CONTINUOUS
 62
     5
 10
3536.250624140222
 20
1348.901188169256
 30
0.0
 11
3536.682720441053
 21
1347.44317829727
 31
0.0
 12
3535.801112630434
 22
1348.682237484015
 32
0.0
 13
3535.801112630434
 23
1348.682237484015
 33
0.0
  0
LINE
  5
6DF
  8
回07-寸法
  6
CONTINUOUS
 62
     5
 10
3536.025868385328
 20
1348.791712826636
 30
0.0
 11
3533.781417255333
 21
1353.399629970062
 31
0.0
  0
LINE
  5
6E0
  8
回07-寸法
  6
CONTINUOUS
 62
     5
 10
3533.781417255333
 20
1353.399629970062
 30
0.0
 11
3531.781417255333
 21
1353.399629970062
 31
0.0
  0
ENDBLK
  5
6E2
  8
回07-寸法
  6
CONTINUOUS
 62
     7
  0
BLOCK
  8
回07-寸法
  2
*X8282
 70
     1
 10
0.0
 20
0.0
 30
0.0
  3
*X8282
  1

  0
TEXT
  5
6E5
  8
回08-記事
  6
CONTINUOUS
 62
     5
 10
3801.136584229387
 20
1329.355930271545
 30
0.0
 40
5.0
  1
φ0.05
  0
POLYLINE
  5
6E6
  8
回08-記事
  6
BYBLOCK
 62
     5
 66
     1
 10
0.0
 20
0.0
 30
0.0
  0
VERTEX
  5
AA4
  8
回08-記事
  6
BYBLOCK
 62
     5
 10
3799.034310038154
 20
1325.585479502112
 30
0.0
  0
VERTEX
  5
AA6
  8
回08-記事
  6
BYBLOCK
 62
     5
 10
3802.046584229387
 20
1328.355930271545
 30
0.0
  0
SEQEND
  5
AA5
  8
回07-寸法
  6
CONTINUOUS
 62
     7
  0
SOLID
  5
6EA
  8
回08-記事
  6
CONTINUOUS
 62
     5
 10
3799.259958426257
 20
1325.340135017645
 30
0.0
 11
3797.562243131351
 21
1324.231589173508
 31
0.0
 12
3798.808661650054
 22
1325.83082398658
 32
0.0
 13
3798.808661650054
 23
1325.83082398658
 33
0.0
  0
POLYLINE
  5
6EB
  8
回08-記事
  6
BYBLOCK
 62
     5
 66
     1
 10
0.0
 20
0.0
 30
0.0
  0
VERTEX
  5
AA7
  8
回08-記事
  6
BYBLOCK
 62
     5
 10
3802.046584229387
 20
1328.355930271545
 30
0.0
  0
VERTEX
  5
AA9
  8
回08-記事
  6
BYBLOCK
 62
     5
 10
3818.386584229387
 20
1328.355930271545
 30
0.0
  0
SEQEND
  5
AA8
  8
回07-寸法
  6
CONTINUOUS
 62
     7
  0
ENDBLK
  5
6F0
  8
回07-寸法
  6
CONTINUOUS
 62
     7
  0
BLOCK
  8
回07-寸法
  2
*X8383
 70
     1
 10
0.0
 20
0.0
 30
0.0
  3
*X8383
  1

  0
LINE
  5
6FD
  8
回08-記事
  6
CONTINUOUS
 62
     7
 10
3542.11224313135
 20
1340.911291470606
 30
0.0
 11
3544.193399958813
 21
1342.992448298068
 31
0.0
  0
LINE
  5
6FE
  8
回08-記事
  6
CONTINUOUS
 62
     7
 10
3542.11224313135
 20
1338.666227440338
 30
0.0
 11
3546.43846398908
 21
1342.992448298067
 31
0.0
  0
LINE
  5
6FF
  8
回08-記事
  6
CONTINUOUS
 62
     7
 10
3542.683528019349
 20
1336.992448298069
 30
0.0
 11
3548.683528019348
 21
1342.992448298068
 31
0.0
  0
LINE
  5
700
  8
回08-記事
  6
CONTINUOUS
 62
     7
 10
3544.928592049615
 20
1336.992448298068
 30
0.0
 11
3550.312243131351
 21
1342.376099379803
 31
0.0
  0
LINE
  5
701
  8
回08-記事
  6
CONTINUOUS
 62
     7
 10
3547.173656079883
 20
1336.992448298068
 30
0.0
 11
3550.31224313135
 21
1340.131035349536
 31
0.0
  0
LINE
  5
702
  8
回08-記事
  6
CONTINUOUS
 62
     7
 10
3549.41872011015
 20
1336.992448298069
 30
0.0
 11
3550.312243131351
 21
1337.885971319269
 31
0.0
  0
ENDBLK
  5
704
  8
回07-寸法
  6
CONTINUOUS
 62
     7
  0
BLOCK
  8
回07-寸法
  2
*X8484
 70
     1
 10
0.0
 20
0.0
 30
0.0
  3
*X8484
  1

  0
TEXT
  5
72E
  8
回08-記事
  6
CONTINUOUS
 62
     5
 10
2174.50623979298
 20
-1857.810527372292
 30
0.0
 40
8.0
  1
2.1
 50
90.0
  0
TEXT
  5
72F
  8
回08-記事
  6
CONTINUOUS
 62
     5
 10
2174.50623979298
 20
-1845.810527372293
 30
0.0
 40
5.0
  1
±0.2
 50
90.0
  0
ENDBLK
  5
731
  8
回07-寸法
  6
CONTINUOUS
 62
     7
  0
BLOCK
  8
回07-寸法
  2
*X8585
 70
     1
 10
0.0
 20
0.0
 30
0.0
  3
*X8585
  1

  0
TEXT
  5
734
  8
回07-寸法
  6
CONTINUOUS
 62
     5
 10
1688.987279404177
 20
-1610.865434803915
 30
0.0
 40
8.0
  1
80
  0
TEXT
  5
735
  8
回07-寸法
  6
CONTINUOUS
 62
     5
 10
1700.187279404177
 20
-1610.865434803915
 30
0.0
 40
5.599999999999998
  1
±1
  0
ENDBLK
  5
737
  8
回07-寸法
  6
CONTINUOUS
 62
     7
  0
BLOCK
  8
回07-寸法
  2
*X8686
 70
     1
 10
0.0
 20
0.0
 30
0.0
  3
*X8686
  1

  0
TEXT
  5
73A
  8
回07-寸法
 62
     5
 10
1647.183425199048
 20
-1635.438899371793
 30
0.0
 40
8.0
  1
6.25
 50
90.0
  0
TEXT
  5
73B
  8
回07-寸法
 62
     5
 10
1647.183425199048
 20
-1616.238899371793
 30
0.0
 40
5.599999999999998
  1
±0.2
 50
90.0
  0
ENDBLK
  5
73D
  8
回07-寸法
  6
CONTINUOUS
 62
     7
  0
BLOCK
  8
回07-寸法
  2
*X8787
 70
     1
 10
0.0
 20
0.0
 30
0.0
  3
*X8787
  1

  0
TEXT
  5
740
  8
回08-記事
  6
CONTINUOUS
 62
     5
 10
1650.121175382568
 20
-1806.541980494117
 30
0.0
 40
8.0
  1
0.3
 50
90.0
  0
TEXT
  5
741
  8
回08-記事
  6
CONTINUOUS
 62
     5
 10
1650.121175382568
 20
-1792.941980494117
 30
0.0
 40
5.599999999999998
  1
±0.05
 50
90.0
  0
ENDBLK
  5
743
  8
回07-寸法
  6
CONTINUOUS
 62
     7
  0
BLOCK
  8
回07-寸法
  2
*X8888
 70
     1
 10
0.0
 20
0.0
 30
0.0
  3
*X8888
  1

  0
TEXT
  5
746
  8
回07-寸法
  6
CONTINUOUS
 62
     5
 10
1667.466769663497
 20
-1459.761015714858
 30
0.0
 40
8.0
  1
7.7 
  0
TEXT
  5
747
  8
回07-寸法
  6
CONTINUOUS
 62
     5
 10
1685.866769663498
 20
-1459.761015714858
 30
0.0
 40
5.0
  1
(Insulation area)
  0
ENDBLK
  5
749
  8
回07-寸法
  6
CONTINUOUS
 62
     7
  0
BLOCK
  8
回07-寸法
  2
*X8989
 70
     1
 10
0.0
 20
0.0
 30
0.0
  3
*X8989
  1

  0
TEXT
  5
74C
  8
回07-寸法
  6
CONTINUOUS
 62
     5
 10
1911.928482261923
 20
-1479.711015714858
 30
0.0
 40
8.0
  1
410.3 
  0
TEXT
  5
74D
  8
回07-寸法
  6
CONTINUOUS
 62
     5
 10
1940.728482261923
 20
-1479.711015714858
 30
0.0
 40
6.0
  1
(ACTIVE AREA)
  0
ENDBLK
  5
74F
  8
回07-寸法
  6
CONTINUOUS
 62
     7
  0
BLOCK
  8
回07-寸法
  2
*X9090
 70
     1
 10
0.0
 20
0.0
 30
0.0
  3
*X9090
  1

  0
TEXT
  5
752
  8
回07-寸法
  6
CONTINUOUS
 62
     5
 10
1909.728482261923
 20
-1469.711015714858
 30
0.0
 40
8.0
  1
414.3 
  0
TEXT
  5
753
  8
回07-寸法
  6
CONTINUOUS
 62
     5
 10
1939.328482261923
 20
-1469.711015714858
 30
0.0
 40
6.0
  1
(VIEWING AREA)
  0
ENDBLK
  5
755
  8
回07-寸法
  6
CONTINUOUS
 62
     7
  0
BLOCK
  8
回07-寸法
  2
*X9191
 70
     1
 10
0.0
 20
0.0
 30
0.0
  3
*X9191
  1

  0
TEXT
  5
758
  8
回07-寸法
  6
CONTINUOUS
 62
     5
 10
1932.677301159561
 20
-1450.010228313283
 30
0.0
 40
8.0
  1
428.5
  0
TEXT
  5
759
  8
回07-寸法
  6
CONTINUOUS
 62
     5
 10
1958.27730115956
 20
-1450.010228313283
 30
0.0
 40
5.599999999999998
  1
±0.3
  0
ENDBLK
  5
75B
  8
回07-寸法
  6
CONTINUOUS
 62
     7
  0
BLOCK
  8
回07-寸法
  2
*X9292
 70
     1
 10
0.0
 20
0.0
 30
0.0
  3
*X9292
  1

  0
TEXT
  5
75E
  8
回07-寸法
  6
CONTINUOUS
 62
     5
 10
2193.799905269548
 20
-1683.244934955477
 30
0.0
 40
8.0
  1
230.9 
 50
90.0
  0
TEXT
  5
75F
  8
回07-寸法
  6
CONTINUOUS
 62
     5
 10
2193.799905269548
 20
-1653.616052007261
 30
0.0
 40
6.0
  1
(ACTIVE AREA)
 50
90.0
  0
ENDBLK
  5
761
  8
回07-寸法
  6
CONTINUOUS
 62
     7
  0
BLOCK
  8
回07-寸法
  2
*X9393
 70
     1
 10
0.0
 20
0.0
 30
0.0
  3
*X9393
  1

  0
TEXT
  5
764
  8
回07-寸法
  6
CONTINUOUS
 62
     5
 10
2203.799905269548
 20
-1685.444934955478
 30
0.0
 40
8.0
  1
234.9 
 50
90.0
  0
TEXT
  5
765
  8
回07-寸法
  6
CONTINUOUS
 62
     5
 10
2203.799905269548
 20
-1655.016052007262
 30
0.0
 40
6.0
  1
(VIEWING AREA)
 50
90.0
  0
ENDBLK
  5
767
  8
回07-寸法
  6
CONTINUOUS
 62
     7
  0
BLOCK
  8
回07-寸法
  2
*X9494
 70
     1
 10
0.0
 20
0.0
 30
0.0
  3
*X9494
  1

  0
TEXT
  5
76A
  8
回07-寸法
  6
CONTINUOUS
 62
     5
 10
2224.099905269548
 20
-1656.581674583731
 30
0.0
 40
8.0
  1
250
 50
90.0
  0
TEXT
  5
76B
  8
回07-寸法
  6
CONTINUOUS
 62
     5
 10
2224.099905269548
 20
-1639.781674583731
 30
0.0
 40
5.599999999999998
  1
±0.3
 50
90.0
  0
ENDBLK
  5
76D
  8
回07-寸法
  6
CONTINUOUS
 62
     7
  0
BLOCK
  8
回07-寸法
  2
*X9595
 70
     1
 10
0.0
 20
0.0
 30
0.0
  3
*X9595
  1

  0
TEXT
  5
770
  8
回07-寸法
  6
CONTINUOUS
 62
     5
 10
2213.800692671121
 20
-1846.933682457747
 30
0.0
 40
8.0
  1
6.8 
 50
90.0
  0
TEXT
  5
771
  8
回07-寸法
  6
CONTINUOUS
 62
     5
 10
2213.800692671121
 20
-1828.533682457747
 30
0.0
 40
6.0
  1
(Insulation area)
 50
90.0
  0
ENDBLK
  5
773
  8
回07-寸法
  6
CONTINUOUS
 62
     7
  0
BLOCK
  8
回07-寸法
  2
*X9696
 70
     1
 10
0.0
 20
0.0
 30
0.0
  3
*X9696
  1

  0
TEXT
  5
776
  8
回07-寸法
  6
CONTINUOUS
 62
     5
 10
2168.924151553262
 20
-1459.611015714858
 30
0.0
 40
8.0
  1
(5.5)
  0
TEXT
  5
777
  8
回07-寸法
  6
CONTINUOUS
 62
     5
 10
2188.924151553262
 20
-1459.611015714858
 30
0.0
 40
5.0
  1
(Insulation area)
  0
ENDBLK
  5
779
  8
回07-寸法
  6
CONTINUOUS
 62
     7
  0
BLOCK
  8
回07-寸法
  2
*X9797
 70
     1
 10
0.0
 20
0.0
 30
0.0
  3
*X9797
  1

  0
TEXT
  5
77C
  8
回02-寸法
  6
CONTINUOUS
 62
     5
 10
1625.660448740683
 20
-1569.31978151757
 30
0.0
 40
5.0
  1
6.25
 50
90.0
  0
TEXT
  5
77D
  8
回02-寸法
  6
CONTINUOUS
 62
     5
 10
1625.660448740683
 20
-1557.31978151757
 30
0.0
 40
3.0
  1
±0.2
 50
90.0
  0
ENDBLK
  5
77F
  8
回07-寸法
  6
CONTINUOUS
 62
     7
  0
BLOCK
  8
回07-寸法
  2
*X9898
 70
     1
 10
0.0
 20
0.0
 30
0.0
  3
*X9898
  1

  0
TEXT
  5
782
  8
回02-寸法
  6
CONTINUOUS
 62
     5
 10
1643.420635958888
 20
-1572.180252685293
 30
0.0
 40
5.0
  1
1.25
 50
90.0
  0
TEXT
  5
783
  8
回02-寸法
  6
CONTINUOUS
 62
     5
 10
1643.420635958888
 20
-1561.180252685293
 30
0.0
 40
3.0
  1
±0.2
 50
90.0
  0
ENDBLK
  5
785
  8
回07-寸法
  6
CONTINUOUS
 62
     7
  0
BLOCK
  8
回07-寸法
  2
*X9999
 70
     1
 10
0.0
 20
0.0
 30
0.0
  3
*X9999
  1

  0
TEXT
  5
788
  8
回02-寸法
  6
CONTINUOUS
 62
     5
 10
1634.953673890297
 20
-1570.946448950347
 30
0.0
 40
5.0
  1
3.75
 50
90.0
  0
TEXT
  5
789
  8
回02-寸法
  6
CONTINUOUS
 62
     5
 10
1634.953673890297
 20
-1558.946448950347
 30
0.0
 40
3.0
  1
±0.1
 50
90.0
  0
ENDBLK
  5
78B
  8
回07-寸法
  6
CONTINUOUS
 62
     7
  0
BLOCK
  8
回07-寸法
  2
*X100100
 70
     1
 10
0.0
 20
0.0
 30
0.0
  3
*X100100
  1

  0
TEXT
  5
78E
  8
回02-寸法
  6
CONTINUOUS
 62
     5
 10
1652.791089488131
 20
-1577.753754950347
 30
0.0
 40
5.0
  1
4-0.7
 50
90.0
  0
TEXT
  5
78F
  8
回02-寸法
  6
CONTINUOUS
 62
     5
 10
1652.791089488131
 20
-1561.753754950347
 30
0.0
 40
3.0
  1
±0.1
 50
90.0
  0
ENDBLK
  5
791
  8
回07-寸法
  6
CONTINUOUS
 62
     7
  0
BLOCK
  8
回07-寸法
  2
*X101101
 70
     1
 10
0.0
 20
0.0
 30
0.0
  3
*X101101
  1

  0
TEXT
  5
794
  8
回02-寸法
  6
CONTINUOUS
 62
     5
 10
3460.87603145992
 20
1407.759508806893
 30
0.0
 40
5.0
  1
4-0.7
 50
90.0
  0
TEXT
  5
795
  8
回02-寸法
  6
CONTINUOUS
 62
     5
 10
3460.87603145992
 20
1423.759508806893
 30
0.0
 40
3.0
  1
±0.1
 50
90.0
  0
ENDBLK
  5
797
  8
回07-寸法
  6
CONTINUOUS
 62
     7
  0
BLOCK
  8
回07-寸法
  2
*X102102
 70
     1
 10
0.0
 20
0.0
 30
0.0
  3
*X102102
  1

  0
TEXT
  5
79A
  8
回02-寸法
  6
CONTINUOUS
 62
     5
 10
3443.038615862086
 20
1414.566814806893
 30
0.0
 40
5.0
  1
3.75
 50
90.0
  0
TEXT
  5
79B
  8
回02-寸法
  6
CONTINUOUS
 62
     5
 10
3443.038615862086
 20
1426.566814806893
 30
0.0
 40
3.0
  1
±0.1
 50
90.0
  0
ENDBLK
  5
79D
  8
回07-寸法
  6
CONTINUOUS
 62
     7
  0
BLOCK
  8
回07-寸法
  2
*X103103
 70
     1
 10
0.0
 20
0.0
 30
0.0
  3
*X103103
  1

  0
TEXT
  5
7A0
  8
回02-寸法
  6
CONTINUOUS
 62
     5
 10
3451.506070056661
 20
1413.333011071946
 30
0.0
 40
5.0
  1
1.25
 50
90.0
  0
TEXT
  5
7A1
  8
回02-寸法
  6
CONTINUOUS
 62
     5
 10
3451.506070056661
 20
1424.333011071946
 30
0.0
 40
3.0
  1
±0.2
 50
90.0
  0
ENDBLK
  5
7A3
  8
回07-寸法
  6
CONTINUOUS
 62
     7
  0
BLOCK
  8
回07-寸法
  2
*X104104
 70
     1
 10
0.0
 20
0.0
 30
0.0
  3
*X104104
  1

  0
TEXT
  5
7A6
  8
回02-寸法
  6
CONTINUOUS
 62
     5
 10
3433.745882838457
 20
1416.43284543622
 30
0.0
 40
5.0
  1
6.25
 50
90.0
  0
TEXT
  5
7A7
  8
回02-寸法
  6
CONTINUOUS
 62
     5
 10
3433.745882838457
 20
1428.43284543622
 30
0.0
 40
3.0
  1
±0.2
 50
90.0
  0
ENDBLK
  5
7A9
  8
回07-寸法
  6
CONTINUOUS
 62
     7
  0
BLOCK
  8
回07-寸法
  2
*X105105
 70
     1
 10
0.0
 20
0.0
 30
0.0
  3
*X105105
  1

  0
TEXT
  5
7AC
  8
回08-記事
  6
CONTINUOUS
 62
     5
 10
3982.591969166343
 20
1127.702736384947
 30
0.0
 40
8.0
  1
2.1
 50
90.0
  0
TEXT
  5
7AD
  8
回08-記事
  6
CONTINUOUS
 62
     5
 10
3982.591969166343
 20
1139.702736384947
 30
0.0
 40
5.0
  1
±0.2
 50
90.0
  0
ENDBLK
  5
7AF
  8
回07-寸法
  6
CONTINUOUS
 62
     7
  0
BLOCK
  8
回07-寸法
  2
*X106106
 70
     1
 10
0.0
 20
0.0
 30
0.0
  3
*X106106
  1

  0
TEXT
  5
7B2
  8
回08-記事
  6
CONTINUOUS
 62
     5
 10
3458.206117354358
 20
1178.971283263122
 30
0.0
 40
8.0
  1
0.3
 50
90.0
  0
TEXT
  5
7B3
  8
回08-記事
  6
CONTINUOUS
 62
     5
 10
3458.206117354358
 20
1192.571283263122
 30
0.0
 40
5.599999999999998
  1
±0.05
 50
90.0
  0
ENDBLK
  5
7B5
  8
回07-寸法
  6
CONTINUOUS
 62
     7
  0
BLOCK
  8
回07-寸法
  2
*X107107
 70
     1
 10
0.0
 20
0.0
 30
0.0
  3
*X107107
  1

  0
TEXT
  5
7B8
  8
回07-寸法
  6
CONTINUOUS
 62
     5
 10
3455.269154572413
 20
1350.074364385446
 30
0.0
 40
8.0
  1
6.25
 50
90.0
  0
TEXT
  5
7B9
  8
回07-寸法
  6
CONTINUOUS
 62
     5
 10
3455.269154572413
 20
1369.274364385446
 30
0.0
 40
5.599999999999998
  1
±0.2
 50
90.0
  0
ENDBLK
  5
7BB
  8
回07-寸法
  6
CONTINUOUS
 62
     7
  0
BLOCK
  8
回07-寸法
  2
*X108108
 70
     1
 10
0.0
 20
0.0
 30
0.0
  3
*X108108
  1

  0
TEXT
  5
7BE
  8
回07-寸法
  6
CONTINUOUS
 62
     5
 10
3497.072221375967
 20
1374.647828953325
 30
0.0
 40
8.0
  1
80
  0
TEXT
  5
7BF
  8
回07-寸法
  6
CONTINUOUS
 62
     5
 10
3508.272221375966
 20
1374.647828953325
 30
0.0
 40
5.599999999999998
  1
±1
  0
ENDBLK
  5
7C1
  8
回07-寸法
  6
CONTINUOUS
 62
     7
  0
BLOCK
  8
回07-寸法
  2
*X109109
 70
     1
 10
0.0
 20
0.0
 30
0.0
  3
*X109109
  1

  0
TEXT
  5
7C4
  8
回07-寸法
  6
CONTINUOUS
 62
     5
 10
3977.009093525051
 20
1525.902248042381
 30
0.0
 40
8.0
  1
(5.5)
  0
TEXT
  5
7C5
  8
回07-寸法
  6
CONTINUOUS
 62
     5
 10
3997.009093525052
 20
1525.902248042381
 30
0.0
 40
5.0
  1
(Insulation area)
  0
ENDBLK
  5
7C7
  8
回07-寸法
  6
CONTINUOUS
 62
     7
  0
BLOCK
  8
回07-寸法
  2
*X110110
 70
     1
 10
0.0
 20
0.0
 30
0.0
  3
*X110110
  1

  0
TEXT
  5
7CA
  8
回07-寸法
  6
CONTINUOUS
 62
     5
 10
4021.885634642909
 20
1138.579581299492
 30
0.0
 40
8.0
  1
6.8 
 50
90.0
  0
TEXT
  5
7CB
  8
回07-寸法
  6
CONTINUOUS
 62
     5
 10
4021.885634642909
 20
1156.979581299492
 30
0.0
 40
6.0
  1
(Insulation area)
 50
90.0
  0
ENDBLK
  5
7CD
  8
回07-寸法
  6
CONTINUOUS
 62
     7
  0
BLOCK
  8
回07-寸法
  2
*X111111
 70
     1
 10
0.0
 20
0.0
 30
0.0
  3
*X111111
  1

  0
TEXT
  5
7D0
  8
回07-寸法
  6
CONTINUOUS
 62
     5
 10
4032.18563464291
 20
1328.931589173508
 30
0.0
 40
8.0
  1
250
 50
90.0
  0
TEXT
  5
7D1
  8
回07-寸法
  6
CONTINUOUS
 62
     5
 10
4032.18563464291
 20
1345.731589173508
 30
0.0
 40
5.599999999999998
  1
±0.3
 50
90.0
  0
ENDBLK
  5
7D3
  8
回07-寸法
  6
CONTINUOUS
 62
     7
  0
BLOCK
  8
回07-寸法
  2
*X112112
 70
     1
 10
0.0
 20
0.0
 30
0.0
  3
*X112112
  1

  0
TEXT
  5
7D6
  8
回07-寸法
  6
CONTINUOUS
 62
     5
 10
4011.885634642911
 20
1300.068328801762
 30
0.0
 40
8.0
  1
234.9 
 50
90.0
  0
TEXT
  5
7D7
  8
回07-寸法
  6
CONTINUOUS
 62
     5
 10
4011.885634642911
 20
1330.497211749978
 30
0.0
 40
6.0
  1
(VIEWING AREA)
 50
90.0
  0
ENDBLK
  5
7D9
  8
回07-寸法
  6
CONTINUOUS
 62
     7
  0
BLOCK
  8
回07-寸法
  2
*X113113
 70
     1
 10
0.0
 20
0.0
 30
0.0
  3
*X113113
  1

  0
TEXT
  5
7DC
  8
回07-寸法
  6
CONTINUOUS
 62
     5
 10
4001.885634642912
 20
1302.268328801762
 30
0.0
 40
8.0
  1
230.9 
 50
90.0
  0
TEXT
  5
7DD
  8
回07-寸法
  6
CONTINUOUS
 62
     5
 10
4001.885634642912
 20
1331.897211749978
 30
0.0
 40
6.0
  1
(ACTIVE AREA)
 50
90.0
  0
ENDBLK
  5
7DF
  8
回07-寸法
  6
CONTINUOUS
 62
     7
  0
BLOCK
  8
回07-寸法
  2
*X114114
 70
     1
 10
0.0
 20
0.0
 30
0.0
  3
*X114114
  1

  0
TEXT
  5
7E2
  8
回07-寸法
  6
CONTINUOUS
 62
     5
 10
3740.762243131351
 20
1535.502248042381
 30
0.0
 40
8.0
  1
428.5
  0
TEXT
  5
7E3
  8
回07-寸法
  6
CONTINUOUS
 62
     5
 10
3766.362243131351
 20
1535.502248042381
 30
0.0
 40
5.599999999999998
  1
±0.3
  0
ENDBLK
  5
7E5
  8
回07-寸法
  6
CONTINUOUS
 62
     7
  0
BLOCK
  8
回07-寸法
  2
*X115115
 70
     1
 10
0.0
 20
0.0
 30
0.0
  3
*X115115
  1

  0
TEXT
  5
7E8
  8
回07-寸法
  6
CONTINUOUS
 62
     5
 10
3717.813424233713
 20
1515.802248042381
 30
0.0
 40
8.0
  1
414.3 
  0
TEXT
  5
7E9
  8
回07-寸法
  6
CONTINUOUS
 62
     5
 10
3747.413424233712
 20
1515.802248042381
 30
0.0
 40
6.0
  1
(VIEWING AREA)
  0
ENDBLK
  5
7EB
  8
回07-寸法
  6
CONTINUOUS
 62
     7
  0
BLOCK
  8
回07-寸法
  2
*X116116
 70
     1
 10
0.0
 20
0.0
 30
0.0
  3
*X116116
  1

  0
TEXT
  5
7EE
  8
回07-寸法
  6
CONTINUOUS
 62
     5
 10
3720.013424233712
 20
1505.802248042381
 30
0.0
 40
8.0
  1
410.3 
  0
TEXT
  5
7EF
  8
回07-寸法
  6
CONTINUOUS
 62
     5
 10
3748.813424233713
 20
1505.802248042381
 30
0.0
 40
6.0
  1
(ACTIVE AREA)
  0
ENDBLK
  5
7F1
  8
回07-寸法
  6
CONTINUOUS
 62
     7
  0
BLOCK
  8
回07-寸法
  2
*X117117
 70
     1
 10
0.0
 20
0.0
 30
0.0
  3
*X117117
  1

  0
TEXT
  5
7F4
  8
回07-寸法
  6
CONTINUOUS
 62
     5
 10
3475.551711635287
 20
1525.752248042381
 30
0.0
 40
8.0
  1
7.7 
  0
TEXT
  5
7F5
  8
回07-寸法
  6
CONTINUOUS
 62
     5
 10
3493.951711635288
 20
1525.752248042381
 30
0.0
 40
5.0
  1
(Insulation area)
  0
ENDBLK
  5
7F7
  8
回07-寸法
  6
CONTINUOUS
 62
     7
  0
ENDSEC
  0
SECTION
  2
ENTITIES
  0
TEXT
  5
65
  8
回03-記事
  6
CONTINUOUS
 62
     5
 10
3602.142661489445
 20
1060.741405911707
 30
0.0
 40
8.640000000000002
  1
without affecting product specification.
  0
TEXT
  5
67
  8
回03-記事
  6
CONTINUOUS
 62
     5
 10
3602.142661489445
 20
1075.896876197267
 30
0.0
 40
8.640000000000002
  1
Edges and corners of ITO glass may be chamfered 
  0
TEXT
  5
68
  8
回03-記事
  6
CONTINUOUS
 62
     5
 10
3602.142661489445
 20
1091.052346482827
 30
0.0
 40
8.640000000000002
  1
Unit: mm
  0
TEXT
  5
69
  8
回03-記事
  6
CONTINUOUS
 62
     5
 10
3602.142661489445
 20
1106.207816768386
 30
0.0
 40
8.640000000000002
  1
EXCEPT WHERE INDICATED
  0
TEXT
  5
6A
  8
回03-記事
  6
CONTINUOUS
 62
     5
 10
3602.142661489445
 20
1121.363287053946
 30
0.0
 40
8.640000000000002
  1
TOLERANCE=±0.5mm
  0
TEXT
  5
6B
  8
回03-記事
  6
CONTINUOUS
 62
     5
 10
3398.40642398496
 20
1177.923112266984
 30
0.0
 40
6.0
  1
Trace Expose
1001
ACAD
1000
MTEXTBEGIN
1070
    73
1070
     1
1070
    44
1040
1.0
1070
    74
1070
     0
1000
MTEXTEND
  0
INSERT
  5
6C
  8
回03-記事
  6
CONTINUOUS
 62
     5
 66
     1
  2
*X7777
 10
0.0
 20
0.0
 30
0.0
  0
SEQEND
  5
6B1
  8
回07-寸法
  6
CONTINUOUS
 62
     7
  0
DIMENSION
  5
6E
  8
回02-寸法
  6
CONTINUOUS
 62
     7
  2
*D3939
 10
3461.37603145992
 20
1445.907508806894
 30
0.0
 11
3461.37603145992
 21
1419.209508806893
 31
0.0
 70
   160
  1
{\H0.625x;4-0.7\H0.6x;±0.1}
  3
STANDARD
 13
3471.759226977344
 23
1444.059508806894
 33
0.0
 14
3471.759226977344
 24
1445.907508806894
 34
0.0
 50
90.0
1001
ACAD
1000
DSTYLE
1002
{
1070
    41
1040
3.0
1070
    47
1040
0.3
1070
    48
1040
0.3
1070
   140
1040
6.0
1070
   141
1040
1.5
1070
   146
1040
0.7
1070
   271
1070
     1
1070
   272
1070
     1
1070
   283
1070
     0
1070
   288
1070
     0
1070
   341
1005
0
1070
   371
1070
    13
1070
   372
1070
    13
1002
}
  0
TEXT
  5
82
  8
回02-寸法
 62
     5
 10
3443.700663516631
 20
1464.361798337829
 30
0.0
 40
6.0
  1
2-R0.5
1001
ACAD
1000
MTEXTBEGIN
1070
    73
1070
     1
1070
    44
1040
1.0
1070
    74
1070
     0
1000
MTEXTEND
  0
INSERT
  5
83
  8
回02-寸法
 62
     1
 66
     1
  2
*X7878
 10
0.0
 20
0.0
 30
0.0
  0
SEQEND
  5
6B8
  8
回07-寸法
  6
CONTINUOUS
 62
     7
  0
TEXT
  5
84
  8
回03-記事
  6
CONTINUOUS
 62
     5
 10
3458.448444104988
 20
1474.376666962533
 30
0.0
 40
8.0
  1
SECTION A
  0
LINE
  5
85
  8
回03-記事
  6
CONTINUOUS
 62
     7
 10
3467.931733710369
 20
1444.983508806894
 30
0.0
 11
3489.726837070351
 21
1444.983508806894
 31
0.0
  0
LINE
  5
86
  8
回03-記事
  6
CONTINUOUS
 62
     7
 10
3467.931848578794
 20
1448.283508806893
 30
0.0
 11
3489.726837070351
 21
1448.283508806893
 31
0.0
  0
LINE
  5
87
  8
回03-記事
  6
CONTINUOUS
 62
     7
 10
3467.931733710369
 20
1454.883508806893
 30
0.0
 11
3489.726837070351
 21
1454.883508806893
 31
0.0
  0
DIMENSION
  5
88
  8
回02-寸法
  6
CONTINUOUS
 62
     5
  2
*D4040
 10
3443.538615862087
 20
1454.883508806893
 30
0.0
 11
3443.538615862087
 21
1424.016814806893
 31
0.0
 70
   160
  1
{\H0.625x;3.75\H0.6x;±0.1}
  3
STANDARD
 13
3467.931848578794
 23
1444.983508806894
 33
0.0
 14
3467.931733710369
 24
1454.883508806893
 34
0.0
 50
90.0
1001
ACAD
1000
DSTYLE
1002
{
1070
    41
1040
3.0
1070
    47
1040
0.3
1070
    48
1040
0.3
1070
   140
1040
6.0
1070
   141
1040
1.5
1070
   146
1040
0.7
1070
   271
1070
     1
1070
   272
1070
     1
1070
   283
1070
     0
1070
   288
1070
     0
1070
   341
1005
0
1070
   371
1070
    13
1070
   372
1070
    13
1002
}
  0
DIMENSION
  5
99
  8
回02-寸法
  6
CONTINUOUS
 62
     5
  2
*D4141
 10
3452.006070056661
 20
1444.983508806894
 30
0.0
 11
3452.006070056661
 21
1422.583342757286
 31
0.0
 70
   160
  1
{\H0.625x;1.25\H0.6x;±0.2}
  3
STANDARD
 13
3467.931848578794
 23
1448.283508806893
 33
0.0
 14
3467.931848578794
 24
1444.983508806894
 34
0.0
 50
90.0
1001
ACAD
1000
DSTYLE
1002
{
1070
    41
1040
3.0
1070
    47
1040
0.3
1070
    48
1040
0.3
1070
   140
1040
6.0
1070
   141
1040
1.5
1070
   146
1040
0.7
1070
   271
1070
     1
1070
   272
1070
     1
1070
   283
1070
     0
1070
   288
1070
     0
1070
   341
1005
0
1070
   371
1070
    13
1070
   372
1070
    13
1002
}
  0
POLYLINE
  5
AA
  8
回03-記事
  6
CONTINUOUS
 62
     8
 66
     1
 10
0.0
 20
0.0
 30
0.0
 40
1.847999999999999
 41
1.847999999999999
  0
VERTEX
  5
A5D
  8
回03-記事
  6
CONTINUOUS
 62
     8
 10
3471.759112108916
 20
1451.583508806893
 30
0.0
  0
VERTEX
  5
A5F
  8
回03-記事
  6
CONTINUOUS
 62
     8
 10
3484.959226977343
 20
1451.583508806893
 30
0.0
  0
SEQEND
  5
A5E
  8
回07-寸法
  6
CONTINUOUS
 62
     7
  0
POLYLINE
  5
AB
  8
回03-記事
  6
CONTINUOUS
 62
     8
 66
     1
 10
0.0
 20
0.0
 30
0.0
 40
1.847999999999999
 41
1.847999999999999
  0
VERTEX
  5
A60
  8
回03-記事
  6
CONTINUOUS
 62
     8
 10
3471.759112108916
 20
1454.883508806893
 30
0.0
  0
VERTEX
  5
A62
  8
回03-記事
  6
CONTINUOUS
 62
     8
 10
3484.959226977343
 20
1454.883508806893
 30
0.0
  0
SEQEND
  5
A61
  8
回07-寸法
  6
CONTINUOUS
 62
     7
  0
POLYLINE
  5
AC
  8
回03-記事
  6
CONTINUOUS
 62
     8
 66
     1
 10
0.0
 20
0.0
 30
0.0
 40
1.847999999999999
 41
1.847999999999999
  0
VERTEX
  5
A63
  8
回03-記事
  6
CONTINUOUS
 62
     8
 10
3471.759112108916
 20
1444.983508806894
 30
0.0
  0
VERTEX
  5
A65
  8
回03-記事
  6
CONTINUOUS
 62
     8
 10
3484.959226977343
 20
1444.983508806894
 30
0.0
  0
SEQEND
  5
A64
  8
回07-寸法
  6
CONTINUOUS
 62
     7
  0
POLYLINE
  5
AD
  8
回03-記事
  6
CONTINUOUS
 62
     8
 66
     1
 10
0.0
 20
0.0
 30
0.0
 40
1.847999999999999
 41
1.847999999999999
  0
VERTEX
  5
A66
  8
回03-記事
  6
CONTINUOUS
 62
     8
 10
3471.759112108916
 20
1448.283508806893
 30
0.0
  0
VERTEX
  5
A68
  8
回03-記事
  6
CONTINUOUS
 62
     8
 10
3484.959226977343
 20
1448.283508806893
 30
0.0
  0
SEQEND
  5
A67
  8
回07-寸法
  6
CONTINUOUS
 62
     7
  0
LINE
  5
AE
  8
回03-記事
  6
CONTINUOUS
 62
     8
 10
3473.079226977343
 20
1441.6835088069
 30
0.0
 11
3504.430102012989
 21
1441.6835088069
 31
0.0
  0
LINE
  5
AF
  8
回03-記事
  6
CONTINUOUS
 62
     8
 10
3471.759226977344
 20
1456.8635088069
 30
0.0
 11
3471.759226977344
 21
1443.003508806901
 31
0.0
  0
ARC
  5
B0
  8
回03-記事
  6
CONTINUOUS
 62
     8
 10
3473.079226977343
 20
1443.003508806901
 30
0.0
 40
1.32
 50
180.0
 51
270.0
  0
ARC
  5
B1
  8
回03-記事
  6
CONTINUOUS
 62
     8
 10
3473.079226977343
 20
1456.8635088069
 30
0.0
 40
1.32
 50
90.0
 51
180.0
  0
LINE
  5
B2
  8
回03-記事
  6
CONTINUOUS
 62
     8
 10
3473.079226977343
 20
1458.183508806899
 30
0.0
 11
3504.430102012989
 21
1458.183508806899
 31
0.0
  0
DIMENSION
  5
B3
  8
回02-寸法
  6
CONTINUOUS
 62
     5
  2
*D4242
 10
3434.245882838457
 20
1441.683508806901
 30
0.0
 11
3431.245882838457
 21
1426.183177121561
 31
0.0
 70
    32
  1
{\H0.625x;6.25\H0.6x;±0.2}
  3
STANDARD
 13
3473.079226977343
 23
1458.183508806899
 33
0.0
 14
3473.079226977343
 24
1441.683508806901
 34
0.0
 50
90.0
1001
ACAD
1000
DSTYLE
1002
{
1070
    41
1040
3.0
1070
    47
1040
0.3
1070
    48
1040
0.3
1070
   140
1040
6.0
1070
   141
1040
1.5
1070
   146
1040
0.7
1070
   271
1070
     1
1070
   272
1070
     1
1070
   283
1070
     0
1070
   288
1070
     0
1070
   341
1005
0
1070
   371
1070
    13
1070
   372
1070
    13
1002
}
  0
TEXT
  5
C4
  8
回03-記事
  6
CONTINUOUS
 62
     5
 10
3474.436377584961
 20
1353.718812336466
 30
0.0
 40
5.0
  1
A
1001
ACAD
1000
MTEXTBEGIN
1070
    73
1070
     1
1070
    44
1040
1.0
1070
    74
1070
     0
1000
MTEXTEND
  0
INSERT
  5
C5
  8
回03-記事
  6
CONTINUOUS
 62
     5
 66
     1
  2
*X7979
 10
0.0
 20
0.0
 30
0.0
  0
SEQEND
  5
6CB
  8
回07-寸法
  6
CONTINUOUS
 62
     7
  0
CIRCLE
  5
C6
  8
回03-記事
  6
CONTINUOUS
 62
     5
 10
3468.019667123868
 20
1343.988824193792
 30
0.0
 40
7.742816109002717
  0
TEXT
  5
C7
  8
回07-寸法
  6
CONTINUOUS
 62
     5
 10
4029.969377636537
 20
1470.432036143497
 30
0.0
 40
5.0
  1
(Insulation area)
 50
90.0
  0
ARC
  5
C8
  8
回08-記事
  6
CONTINUOUS
 62
     7
 10
3558.494224478594
 20
1164.170100217472
 30
0.0
 40
0.5
 50
0.0
 51
180.0
  0
ARC
  5
CC
  8
回08-記事
  6
CONTINUOUS
 62
     7
 10
3562.494224478594
 20
1164.170100217472
 30
0.0
 40
0.5
 50
0.0
 51
180.0
  0
ARC
  5
CD
  8
回08-記事
  6
CONTINUOUS
 62
     7
 10
3566.494224478594
 20
1164.170100217472
 30
0.0
 40
0.5
 50
0.0
 51
180.0
  0
ARC
  5
CE
  8
回08-記事
  6
CONTINUOUS
 62
     7
 10
3570.494224478595
 20
1164.170100217472
 30
0.0
 40
0.5
 50
0.0
 51
180.0
  0
ARC
  5
CF
  8
回08-記事
  6
CONTINUOUS
 62
     7
 10
3574.494224478595
 20
1164.170100217472
 30
0.0
 40
0.5
 50
0.0
 51
180.0
  0
ARC
  5
D0
  8
回08-記事
  6
CONTINUOUS
 62
     7
 10
3578.494224478595
 20
1164.170100217472
 30
0.0
 40
0.5
 50
0.0
 51
180.0
  0
ARC
  5
D1
  8
回08-記事
  6
CONTINUOUS
 62
     7
 10
3582.494224478594
 20
1164.170100217472
 30
0.0
 40
0.5
 50
0.0
 51
180.0
  0
ARC
  5
D2
  8
回08-記事
  6
CONTINUOUS
 62
     7
 10
3586.494224478594
 20
1164.170100217472
 30
0.0
 40
0.5
 50
0.0
 51
180.0
  0
ARC
  5
D3
  8
回08-記事
  6
CONTINUOUS
 62
     7
 10
3590.494224478594
 20
1164.170100217472
 30
0.0
 40
0.5
 50
0.0
 51
180.0
  0
ARC
  5
D4
  8
回08-記事
  6
CONTINUOUS
 62
     7
 10
3594.494224478594
 20
1164.170100217472
 30
0.0
 40
0.5
 50
0.0
 51
180.0
  0
ARC
  5
D5
  8
回08-記事
  6
CONTINUOUS
 62
     7
 10
3598.494224478594
 20
1164.170100217472
 30
0.0
 40
0.5
 50
0.0
 51
180.0
  0
ARC
  5
D6
  8
回08-記事
  6
CONTINUOUS
 62
     7
 10
3602.494224478595
 20
1164.170100217472
 30
0.0
 40
0.5
 50
0.0
 51
180.0
  0
ARC
  5
D7
  8
回08-記事
  6
CONTINUOUS
 62
     7
 10
3606.51224313135
 20
1164.170100217472
 30
0.0
 40
0.5
 50
0.0
 51
180.0
  0
ARC
  5
D8
  8
回08-記事
  6
CONTINUOUS
 62
     7
 10
3610.51224313135
 20
1164.170100217472
 30
0.0
 40
0.5
 50
0.0
 51
180.0
  0
ARC
  5
D9
  8
回08-記事
  6
CONTINUOUS
 62
     7
 10
3614.51224313135
 20
1164.170100217472
 30
0.0
 40
0.5
 50
0.0
 51
180.0
  0
ARC
  5
DA
  8
回08-記事
  6
CONTINUOUS
 62
     7
 10
3618.512243131351
 20
1164.170100217472
 30
0.0
 40
0.5
 50
0.0
 51
180.0
  0
ARC
  5
DB
  8
回08-記事
  6
CONTINUOUS
 62
     7
 10
3622.51224313135
 20
1164.170100217472
 30
0.0
 40
0.5
 50
0.0
 51
180.0
  0
ARC
  5
DC
  8
回08-記事
  6
CONTINUOUS
 62
     7
 10
3626.51224313135
 20
1164.170100217472
 30
0.0
 40
0.5
 50
0.0
 51
180.0
  0
ARC
  5
DD
  8
回08-記事
  6
CONTINUOUS
 62
     7
 10
3630.512243131349
 20
1164.170100217472
 30
0.0
 40
0.5
 50
0.0
 51
180.0
  0
ARC
  5
DE
  8
回08-記事
  6
CONTINUOUS
 62
     7
 10
3634.512243131349
 20
1164.170100217472
 30
0.0
 40
0.5
 50
0.0
 51
180.0
  0
ARC
  5
DF
  8
回08-記事
  6
CONTINUOUS
 62
     7
 10
3674.512243131351
 20
1164.170100217472
 30
0.0
 40
0.5
 50
0.0
 51
180.0
  0
ARC
  5
E0
  8
回08-記事
  6
CONTINUOUS
 62
     7
 10
3658.51224313135
 20
1164.170100217472
 30
0.0
 40
0.5
 50
0.0
 51
180.0
  0
ARC
  5
E1
  8
回08-記事
  6
CONTINUOUS
 62
     7
 10
3670.512243131349
 20
1164.170100217472
 30
0.0
 40
0.5
 50
0.0
 51
180.0
  0
ARC
  5
E2
  8
回08-記事
  6
CONTINUOUS
 62
     7
 10
3662.512243131349
 20
1164.170100217472
 30
0.0
 40
0.5
 50
0.0
 51
180.0
  0
ARC
  5
E3
  8
回08-記事
  6
CONTINUOUS
 62
     7
 10
3666.512243131349
 20
1164.170100217472
 30
0.0
 40
0.5
 50
0.0
 51
180.0
  0
ARC
  5
E4
  8
回08-記事
  6
CONTINUOUS
 62
     7
 10
3642.512243131351
 20
1164.170100217472
 30
0.0
 40
0.5
 50
0.0
 51
180.0
  0
ARC
  5
E5
  8
回08-記事
  6
CONTINUOUS
 62
     7
 10
3638.512243131351
 20
1164.170100217472
 30
0.0
 40
0.5
 50
0.0
 51
180.0
  0
ARC
  5
E6
  8
回08-記事
  6
CONTINUOUS
 62
     7
 10
3650.512243131351
 20
1164.170100217472
 30
0.0
 40
0.5
 50
0.0
 51
180.0
  0
ARC
  5
E7
  8
回08-記事
  6
CONTINUOUS
 62
     7
 10
3646.512243131351
 20
1164.170100217472
 30
0.0
 40
0.5
 50
0.0
 51
180.0
  0
ARC
  5
E8
  8
回08-記事
  6
CONTINUOUS
 62
     7
 10
3654.51224313135
 20
1164.170100217472
 30
0.0
 40
0.5
 50
0.0
 51
180.0
  0
ARC
  5
E9
  8
回08-記事
  6
CONTINUOUS
 62
     7
 10
3714.512243131351
 20
1164.170100217472
 30
0.0
 40
0.5
 50
0.0
 51
180.0
  0
ARC
  5
EA
  8
回08-記事
  6
CONTINUOUS
 62
     7
 10
3698.512243131349
 20
1164.170100217472
 30
0.0
 40
0.5
 50
0.0
 51
180.0
  0
ARC
  5
EB
  8
回08-記事
  6
CONTINUOUS
 62
     7
 10
3710.512243131351
 20
1164.170100217472
 30
0.0
 40
0.5
 50
0.0
 51
180.0
  0
ARC
  5
EC
  8
回08-記事
  6
CONTINUOUS
 62
     7
 10
3702.512243131349
 20
1164.170100217472
 30
0.0
 40
0.5
 50
0.0
 51
180.0
  0
ARC
  5
ED
  8
回08-記事
  6
CONTINUOUS
 62
     7
 10
3706.512243131351
 20
1164.170100217472
 30
0.0
 40
0.5
 50
0.0
 51
180.0
  0
ARC
  5
EE
  8
回08-記事
  6
CONTINUOUS
 62
     7
 10
3682.512243131351
 20
1164.170100217472
 30
0.0
 40
0.5
 50
0.0
 51
180.0
  0
ARC
  5
EF
  8
回08-記事
  6
CONTINUOUS
 62
     7
 10
3678.512243131351
 20
1164.170100217472
 30
0.0
 40
0.5
 50
0.0
 51
180.0
  0
ARC
  5
F0
  8
回08-記事
  6
CONTINUOUS
 62
     7
 10
3690.51224313135
 20
1164.170100217472
 30
0.0
 40
0.5
 50
0.0
 51
180.0
  0
ARC
  5
F1
  8
回08-記事
  6
CONTINUOUS
 62
     7
 10
3686.51224313135
 20
1164.170100217472
 30
0.0
 40
0.5
 50
0.0
 51
180.0
  0
ARC
  5
F2
  8
回08-記事
  6
CONTINUOUS
 62
     7
 10
3694.512243131349
 20
1164.170100217472
 30
0.0
 40
0.5
 50
0.0
 51
180.0
  0
ARC
  5
F3
  8
回08-記事
  6
CONTINUOUS
 62
     7
 10
3754.51224313135
 20
1164.170100217472
 30
0.0
 40
0.5
 50
0.0
 51
180.0
  0
ARC
  5
F4
  8
回08-記事
  6
CONTINUOUS
 62
     7
 10
3738.512243131351
 20
1164.170100217472
 30
0.0
 40
0.5
 50
0.0
 51
180.0
  0
ARC
  5
F5
  8
回08-記事
  6
CONTINUOUS
 62
     7
 10
3750.51224313135
 20
1164.170100217472
 30
0.0
 40
0.5
 50
0.0
 51
180.0
  0
ARC
  5
F6
  8
回08-記事
  6
CONTINUOUS
 62
     7
 10
3742.512243131351
 20
1164.170100217472
 30
0.0
 40
0.5
 50
0.0
 51
180.0
  0
ARC
  5
F7
  8
回08-記事
  6
CONTINUOUS
 62
     7
 10
3746.512243131351
 20
1164.170100217472
 30
0.0
 40
0.5
 50
0.0
 51
180.0
  0
ARC
  5
F8
  8
回08-記事
  6
CONTINUOUS
 62
     7
 10
3722.51224313135
 20
1164.170100217472
 30
0.0
 40
0.5
 50
0.0
 51
180.0
  0
ARC
  5
F9
  8
回08-記事
  6
CONTINUOUS
 62
     7
 10
3718.51224313135
 20
1164.170100217472
 30
0.0
 40
0.5
 50
0.0
 51
180.0
  0
ARC
  5
FA
  8
回08-記事
  6
CONTINUOUS
 62
     7
 10
3730.512243131349
 20
1164.170100217472
 30
0.0
 40
0.5
 50
0.0
 51
180.0
  0
ARC
  5
FB
  8
回08-記事
  6
CONTINUOUS
 62
     7
 10
3726.512243131349
 20
1164.170100217472
 30
0.0
 40
0.5
 50
0.0
 51
180.0
  0
ARC
  5
FC
  8
回08-記事
  6
CONTINUOUS
 62
     7
 10
3734.512243131349
 20
1164.170100217472
 30
0.0
 40
0.5
 50
0.0
 51
180.0
  0
POLYLINE
  5
FD
  8
回08-記事
  6
CONTINUOUS
 62
     7
 66
     1
 10
0.0
 20
0.0
 30
0.0
 70
     1
  0
VERTEX
  5
A69
  8
回08-記事
  6
CONTINUOUS
 62
     7
 10
3537.23224313135
 20
1164.170100217472
 30
0.0
  0
VERTEX
  5
A6B
  8
回08-記事
  6
CONTINUOUS
 62
     7
 10
3546.21224313135
 20
1164.170100217472
 30
0.0
  0
VERTEX
  5
A6C
  8
回08-記事
  6
CONTINUOUS
 62
     7
 10
3546.21224313135
 20
1162.670100217471
 30
0.0
  0
VERTEX
  5
A6D
  8
回08-記事
  6
CONTINUOUS
 62
     7
 10
3537.23224313135
 20
1162.670100217471
 30
0.0
  0
SEQEND
  5
A6A
  8
回07-寸法
  6
CONTINUOUS
 62
     7
  0
ARC
  5
FE
  8
回08-記事
  6
CONTINUOUS
 62
     7
 10
3966.512243131349
 20
1164.170100217472
 30
0.0
 40
0.5
 50
0.0
 51
180.0
  0
ARC
  5
FF
  8
回08-記事
  6
CONTINUOUS
 62
     7
 10
3962.512243131349
 20
1164.170100217472
 30
0.0
 40
0.5
 50
0.0
 51
180.0
  0
ARC
  5
100
  8
回08-記事
  6
CONTINUOUS
 62
     7
 10
3958.51224313135
 20
1164.170100217472
 30
0.0
 40
0.5
 50
0.0
 51
180.0
  0
ARC
  5
101
  8
回08-記事
  6
CONTINUOUS
 62
     7
 10
3950.512243131349
 20
1164.170100217472
 30
0.0
 40
0.5
 50
0.0
 51
180.0
  0
ARC
  5
102
  8
回08-記事
  6
CONTINUOUS
 62
     7
 10
3954.512243131349
 20
1164.170100217472
 30
0.0
 40
0.5
 50
0.0
 51
180.0
  0
LINE
  5
103
  8
回08-記事
  6
CONTINUOUS
 62
     7
 10
3974.212243131351
 20
1164.170100217472
 30
0.0
 11
3974.212243131351
 21
1171.170100217472
 31
0.0
  0
LINE
  5
104
  8
回08-記事
  6
CONTINUOUS
 62
     7
 10
3466.212199620583
 20
1160.170100217473
 30
0.0
 11
3466.212199620583
 21
1167.170100217473
 31
0.0
  0
LINE
  5
105
  8
回08-記事
  6
CONTINUOUS
 62
     7
 10
3538.465919881154
 20
1168.170100217472
 30
0.0
 11
3536.333237720385
 21
1171.05590307669
 31
0.0
  0
LINE
  5
106
  8
回08-記事
  6
CONTINUOUS
 62
     7
 10
3538.388504431277
 20
1163.593536393252
 30
0.0
 11
3536.333237720385
 21
1171.05590307669
 31
0.0
  0
LINE
  5
107
  8
回08-記事
  6
CONTINUOUS
 62
     7
 10
3475.254037367253
 20
1162.118661014247
 30
0.0
 11
3481.598762229622
 21
1159.964133254596
 31
0.0
  0
POLYLINE
  5
108
  8
回08-記事
  6
CONTINUOUS
 62
     7
 66
     1
 10
0.0
 20
0.0
 30
0.0
 70
     1
  0
VERTEX
  5
A6E
  8
回08-記事
  6
CONTINUOUS
 62
     7
 10
3471.212243131351
 20
1167.170100217472
 30
0.0
  0
VERTEX
  5
A70
  8
回08-記事
  6
CONTINUOUS
 62
     7
 10
3546.71224313135
 20
1167.170100217472
 30
0.0
  0
VERTEX
  5
A71
  8
回08-記事
  6
CONTINUOUS
 62
     7
 10
3546.71224313135
 20
1168.670100217472
 30
0.0
  0
VERTEX
  5
A72
  8
回08-記事
  6
CONTINUOUS
 62
     7
 10
3471.212243131351
 20
1168.670100217472
 30
0.0
  0
SEQEND
  5
A6F
  8
回07-寸法
  6
CONTINUOUS
 62
     7
  0
LINE
  5
109
  8
回08-記事
  6
CONTINUOUS
 62
     7
 10
3553.91224313135
 20
1167.170100217472
 30
0.0
 11
3553.91224313135
 21
1164.170100217472
 31
0.0
  0
DIMENSION
  5
10A
  8
回08-記事
  6
CONTINUOUS
 62
     7
  2
*D4343
 10
3546.71224313135
 20
1175.765201275631
 30
0.0
 11
3559.009093525052
 21
1180.665201275631
 31
0.0
 70
    32
  1
(<>)
  3
STANDARD
 13
3546.21224313135
 23
1164.170100217472
 33
0.0
 14
3546.71224313135
 24
1171.170100217472
 34
0.0
1001
ACAD
1000
DSTYLE
1002
{
1070
    41
1040
1.5
1070
    47
1040
0.3
1070
    48
1040
0.3
1070
   140
1040
8.0
1070
   141
1040
1.5
1070
   146
1040
0.7
1070
   271
1070
     1
1070
   272
1070
     1
1070
   283
1070
     0
1070
   288
1070
     0
1070
   341
1005
0
1070
   371
1070
    13
1070
   372
1070
    13
1002
}
  0
DIMENSION
  5
11B
  8
回08-記事
  6
CONTINUOUS
 62
     7
  2
*D4444
 10
3974.71224313135
 20
1179.348471299099
 30
0.0
 11
3987.009093525052
 21
1184.248471299099
 31
0.0
 70
    32
  1
(<>)
  3
STANDARD
 13
3974.212243131351
 23
1171.170100217472
 33
0.0
 14
3974.71224313135
 24
1164.170100217472
 34
0.0
1001
ACAD
1000
DSTYLE
1002
{
1070
    41
1040
1.5
1070
    47
1040
0.3
1070
    48
1040
0.3
1070
   140
1040
8.0
1070
   141
1040
1.5
1070
   146
1040
0.7
1070
   271
1070
     1
1070
   272
1070
     1
1070
   283
1070
     0
1070
   288
1070
     0
1070
   341
1005
0
1070
   371
1070
    13
1070
   372
1070
    13
1002
}
  0
LINE
  5
12C
  8
回08-記事
  6
CONTINUOUS
 62
     7
 10
3546.938197522513
 20
1156.747482433426
 30
0.0
 11
3549.942734715904
 21
1150.886757349222
 31
0.0
  0
TEXT
  5
12D
  8
回08-記事
  6
CONTINUOUS
 62
     7
 10
3549.91284253168
 20
1145.102755338185
 30
0.0
 40
5.0
  1
6
  0
LINE
  5
12E
  8
回08-記事
  6
CONTINUOUS
 62
     7
 10
3544.71224313135
 20
1156.670100217472
 30
0.0
 11
3544.71224313135
 21
1161.170100217472
 31
0.0
  0
LINE
  5
12F
  8
回08-記事
  6
CONTINUOUS
 62
     7
 10
3549.71224313135
 20
1156.670100217472
 30
0.0
 11
3544.71224313135
 21
1156.670100217472
 31
0.0
  0
LINE
  5
130
  8
回08-記事
  6
CONTINUOUS
 62
     7
 10
3549.71224313135
 20
1158.170100217472
 30
0.0
 11
3549.71224313135
 21
1156.670100217472
 31
0.0
  0
LINE
  5
131
  8
回08-記事
  6
CONTINUOUS
 62
     7
 10
3542.020760126949
 20
1161.170100217472
 30
0.0
 11
3544.71224313135
 21
1161.170100217472
 31
0.0
  0
LINE
  5
132
  8
回08-記事
  6
CONTINUOUS
 62
     7
 10
3542.020760126949
 20
1162.670100217471
 30
0.0
 11
3542.020760126949
 21
1161.170100217472
 31
0.0
  0
LINE
  5
133
  8
回08-記事
  6
CONTINUOUS
 62
     7
 10
3969.21224313135
 20
1164.170100217472
 30
0.0
 11
3969.21224313135
 21
1167.170100217472
 31
0.0
  0
LINE
  5
134
  8
回08-記事
  6
CONTINUOUS
 62
     7
 10
3974.71224313135
 20
1158.170100217472
 30
0.0
 11
3974.71224313135
 21
1164.170100217472
 31
0.0
  0
DIMENSION
  5
135
  8
回08-記事
  6
CONTINUOUS
 62
     5
  2
*D4545
 10
3983.091969166343
 20
1158.17010021747
 30
0.0
 11
3983.091969166343
 21
1139.928289193847
 31
0.0
 70
   160
  1
2.1{\H0.625x;±0.2}
  3
STANDARD
 13
3974.212243131349
 23
1171.170100217472
 33
0.0
 14
3974.71224313135
 24
1158.17010021747
 34
0.0
 50
90.0
1001
ACADSTRINGINFO
1000
MIFCodePage
1070
     1
1001
ACAD
1000
DSTYLE
1002
{
1070
    41
1040
1.5
1070
    47
1040
0.3
1070
    48
1040
0.3
1070
   140
1040
8.0
1070
   141
1040
1.5
1070
   146
1040
0.7
1070
   271
1070
     1
1070
   272
1070
     1
1070
   283
1070
     0
1070
   288
1070
     0
1070
   341
1005
0
1070
   371
1070
    13
1070
   372
1070
    13
1002
}
  0
ARC
  5
146
  8
回08-記事
  6
CONTINUOUS
 62
     7
 10
3942.51224313135
 20
1164.170100217472
 30
0.0
 40
0.5
 50
0.0
 51
180.0
  0
ARC
  5
147
  8
回08-記事
  6
CONTINUOUS
 62
     7
 10
3938.512243131351
 20
1164.170100217472
 30
0.0
 40
0.5
 50
0.0
 51
180.0
  0
ARC
  5
148
  8
回08-記事
  6
CONTINUOUS
 62
     7
 10
3946.51224313135
 20
1164.170100217472
 30
0.0
 40
0.5
 50
0.0
 51
180.0
  0
ARC
  5
149
  8
回08-記事
  6
CONTINUOUS
 62
     7
 10
3922.512243131349
 20
1164.170100217472
 30
0.0
 40
0.5
 50
0.0
 51
180.0
  0
ARC
  5
14A
  8
回08-記事
  6
CONTINUOUS
 62
     7
 10
3934.512243131349
 20
1164.170100217472
 30
0.0
 40
0.5
 50
0.0
 51
180.0
  0
ARC
  5
14B
  8
回08-記事
  6
CONTINUOUS
 62
     7
 10
3926.51224313135
 20
1164.170100217472
 30
0.0
 40
0.5
 50
0.0
 51
180.0
  0
ARC
  5
14C
  8
回08-記事
  6
CONTINUOUS
 62
     7
 10
3930.512243131349
 20
1164.170100217472
 30
0.0
 40
0.5
 50
0.0
 51
180.0
  0
ARC
  5
14D
  8
回08-記事
  6
CONTINUOUS
 62
     7
 10
3906.512243131351
 20
1164.170100217472
 30
0.0
 40
0.5
 50
0.0
 51
180.0
  0
ARC
  5
14E
  8
回08-記事
  6
CONTINUOUS
 62
     7
 10
3902.512243131349
 20
1164.170100217472
 30
0.0
 40
0.5
 50
0.0
 51
180.0
  0
ARC
  5
14F
  8
回08-記事
  6
CONTINUOUS
 62
     7
 10
3914.51224313135
 20
1164.170100217472
 30
0.0
 40
0.5
 50
0.0
 51
180.0
  0
ARC
  5
150
  8
回08-記事
  6
CONTINUOUS
 62
     7
 10
3910.51224313135
 20
1164.170100217472
 30
0.0
 40
0.5
 50
0.0
 51
180.0
  0
ARC
  5
151
  8
回08-記事
  6
CONTINUOUS
 62
     7
 10
3918.512243131349
 20
1164.170100217472
 30
0.0
 40
0.5
 50
0.0
 51
180.0
  0
ARC
  5
152
  8
回08-記事
  6
CONTINUOUS
 62
     7
 10
3886.512243131349
 20
1164.170100217472
 30
0.0
 40
0.5
 50
0.0
 51
180.0
  0
ARC
  5
153
  8
回08-記事
  6
CONTINUOUS
 62
     7
 10
3890.512243131349
 20
1164.170100217472
 30
0.0
 40
0.5
 50
0.0
 51
180.0
  0
ARC
  5
154
  8
回08-記事
  6
CONTINUOUS
 62
     7
 10
3894.51224313135
 20
1164.170100217472
 30
0.0
 40
0.5
 50
0.0
 51
180.0
  0
ARC
  5
155
  8
回08-記事
  6
CONTINUOUS
 62
     7
 10
3898.512243131349
 20
1164.170100217472
 30
0.0
 40
0.5
 50
0.0
 51
180.0
  0
ARC
  5
156
  8
回08-記事
  6
CONTINUOUS
 62
     7
 10
3866.512243131349
 20
1164.170100217472
 30
0.0
 40
0.5
 50
0.0
 51
180.0
  0
ARC
  5
157
  8
回08-記事
  6
CONTINUOUS
 62
     7
 10
3870.512243131349
 20
1164.170100217472
 30
0.0
 40
0.5
 50
0.0
 51
180.0
  0
ARC
  5
158
  8
回08-記事
  6
CONTINUOUS
 62
     7
 10
3874.512243131351
 20
1164.170100217472
 30
0.0
 40
0.5
 50
0.0
 51
180.0
  0
ARC
  5
159
  8
回08-記事
  6
CONTINUOUS
 62
     7
 10
3878.51224313135
 20
1164.170100217472
 30
0.0
 40
0.5
 50
0.0
 51
180.0
  0
ARC
  5
15A
  8
回08-記事
  6
CONTINUOUS
 62
     7
 10
3882.51224313135
 20
1164.170100217472
 30
0.0
 40
0.5
 50
0.0
 51
180.0
  0
ARC
  5
15B
  8
回08-記事
  6
CONTINUOUS
 62
     7
 10
3858.512243131349
 20
1164.170100217472
 30
0.0
 40
0.5
 50
0.0
 51
180.0
  0
ARC
  5
15C
  8
回08-記事
  6
CONTINUOUS
 62
     7
 10
3850.51224313135
 20
1164.170100217472
 30
0.0
 40
0.5
 50
0.0
 51
180.0
  0
ARC
  5
15D
  8
回08-記事
  6
CONTINUOUS
 62
     7
 10
3854.512243131349
 20
1164.170100217472
 30
0.0
 40
0.5
 50
0.0
 51
180.0
  0
ARC
  5
15E
  8
回08-記事
  6
CONTINUOUS
 62
     7
 10
3862.512243131349
 20
1164.170100217472
 30
0.0
 40
0.5
 50
0.0
 51
180.0
  0
LINE
  5
15F
  8
回08-記事
  6
CONTINUOUS
 62
     7
 10
3835.985838242621
 20
1160.034227796292
 30
0.0
 11
3841.974023447892
 21
1153.148358157519
 31
0.0
  0
ARC
  5
160
  8
回08-記事
  6
CONTINUOUS
 62
     7
 10
3838.512243131351
 20
1164.170100217472
 30
0.0
 40
0.5
 50
0.0
 51
180.0
  0
ARC
  5
161
  8
回08-記事
  6
CONTINUOUS
 62
     7
 10
3830.512243131349
 20
1164.170100217472
 30
0.0
 40
0.5
 50
0.0
 51
180.0
  0
ARC
  5
162
  8
回08-記事
  6
CONTINUOUS
 62
     7
 10
3834.512243131349
 20
1164.170100217472
 30
0.0
 40
0.5
 50
0.0
 51
180.0
  0
TEXT
  5
163
  8
回08-記事
  6
CONTINUOUS
 62
     7
 10
3842.660623667033
 20
1148.806699795963
 30
0.0
 40
5.0
  1
2
  0
ARC
  5
164
  8
回08-記事
  6
CONTINUOUS
 62
     7
 10
3842.512243131351
 20
1164.170100217472
 30
0.0
 40
0.5
 50
0.0
 51
180.0
  0
ARC
  5
165
  8
回08-記事
  6
CONTINUOUS
 62
     7
 10
3846.51224313135
 20
1164.170100217472
 30
0.0
 40
0.5
 50
0.0
 51
180.0
  0
ARC
  5
166
  8
回08-記事
  6
CONTINUOUS
 62
     7
 10
3818.51224313135
 20
1164.170100217472
 30
0.0
 40
0.5
 50
0.0
 51
180.0
  0
ARC
  5
167
  8
回08-記事
  6
CONTINUOUS
 62
     7
 10
3814.51224313135
 20
1164.170100217472
 30
0.0
 40
0.5
 50
0.0
 51
180.0
  0
ARC
  5
168
  8
回08-記事
  6
CONTINUOUS
 62
     7
 10
3822.512243131349
 20
1164.170100217472
 30
0.0
 40
0.5
 50
0.0
 51
180.0
  0
ARC
  5
169
  8
回08-記事
  6
CONTINUOUS
 62
     7
 10
3826.512243131349
 20
1164.170100217472
 30
0.0
 40
0.5
 50
0.0
 51
180.0
  0
ARC
  5
16A
  8
回08-記事
  6
CONTINUOUS
 62
     7
 10
3794.512243131349
 20
1164.170100217472
 30
0.0
 40
0.5
 50
0.0
 51
180.0
  0
ARC
  5
16B
  8
回08-記事
  6
CONTINUOUS
 62
     7
 10
3798.512243131349
 20
1164.170100217472
 30
0.0
 40
0.5
 50
0.0
 51
180.0
  0
ARC
  5
16C
  8
回08-記事
  6
CONTINUOUS
 62
     7
 10
3810.512243131351
 20
1164.170100217472
 30
0.0
 40
0.5
 50
0.0
 51
180.0
  0
ARC
  5
16D
  8
回08-記事
  6
CONTINUOUS
 62
     7
 10
3802.512243131349
 20
1164.170100217472
 30
0.0
 40
0.5
 50
0.0
 51
180.0
  0
ARC
  5
16E
  8
回08-記事
  6
CONTINUOUS
 62
     7
 10
3806.512243131351
 20
1164.170100217472
 30
0.0
 40
0.5
 50
0.0
 51
180.0
  0
ARC
  5
16F
  8
回08-記事
  6
CONTINUOUS
 62
     7
 10
3778.512243131351
 20
1164.170100217472
 30
0.0
 40
0.5
 50
0.0
 51
180.0
  0
TEXT
  5
170
  8
回08-記事
  6
CONTINUOUS
 62
     7
 10
3777.735407384126
 20
1176.500946311355
 30
0.0
 40
5.0
  1
1
  0
ARC
  5
171
  8
回08-記事
  6
CONTINUOUS
 62
     7
 10
3790.512243131349
 20
1164.170100217472
 30
0.0
 40
0.5
 50
0.0
 51
180.0
  0
ARC
  5
172
  8
回08-記事
  6
CONTINUOUS
 62
     7
 10
3782.51224313135
 20
1164.170100217472
 30
0.0
 40
0.5
 50
0.0
 51
180.0
  0
ARC
  5
173
  8
回08-記事
  6
CONTINUOUS
 62
     7
 10
3786.51224313135
 20
1164.170100217472
 30
0.0
 40
0.5
 50
0.0
 51
180.0
  0
LINE
  5
174
  8
回08-記事
  6
CONTINUOUS
 62
     7
 10
3786.930624582793
 20
1169.484827775779
 30
0.0
 11
3781.620346357421
 21
1175.354749435061
 31
0.0
  0
ARC
  5
175
  8
回08-記事
  6
CONTINUOUS
 62
     7
 10
3762.512243131349
 20
1164.170100217472
 30
0.0
 40
0.5
 50
0.0
 51
180.0
  0
ARC
  5
176
  8
回08-記事
  6
CONTINUOUS
 62
     7
 10
3758.512243131349
 20
1164.170100217472
 30
0.0
 40
0.5
 50
0.0
 51
180.0
  0
ARC
  5
177
  8
回08-記事
  6
CONTINUOUS
 62
     7
 10
3770.512243131349
 20
1164.170100217472
 30
0.0
 40
0.5
 50
0.0
 51
180.0
  0
ARC
  5
178
  8
回08-記事
  6
CONTINUOUS
 62
     7
 10
3766.512243131349
 20
1164.170100217472
 30
0.0
 40
0.5
 50
0.0
 51
180.0
  0
ARC
  5
179
  8
回08-記事
  6
CONTINUOUS
 62
     7
 10
3774.512243131351
 20
1164.170100217472
 30
0.0
 40
0.5
 50
0.0
 51
180.0
  0
LINE
  5
17A
  8
回08-記事
  6
CONTINUOUS
 62
     7
 10
3546.71224313135
 20
1167.170100217472
 30
0.0
 11
3546.71224313135
 21
1171.170100217472
 31
0.0
  0
LINE
  5
17B
  8
回08-記事
  6
CONTINUOUS
 62
     7
 10
3546.21224313135
 20
1158.170100217472
 30
0.0
 11
3546.21224313135
 21
1164.170100217472
 31
0.0
  0
LINE
  5
17C
  8
回08-記事
  6
CONTINUOUS
 62
     7
 10
3553.91224313135
 20
1164.170100217472
 30
0.0
 11
3553.91224313135
 21
1167.170100217472
 31
0.0
  0
LINE
  5
17D
  8
回08-記事
  6
CONTINUOUS
 62
     7
 10
3529.157729054947
 20
1165.508154748116
 30
0.0
 11
3532.162266248337
 21
1159.647429663912
 31
0.0
  0
TEXT
  5
17E
  8
回08-記事
  6
CONTINUOUS
 62
     7
 10
3532.132374064114
 20
1153.863427652875
 30
0.0
 40
5.0
  1
3
  0
TEXT
  5
17F
  8
回08-記事
  6
CONTINUOUS
 62
     7
 10
3534.237767096267
 20
1171.606255796917
 30
0.0
 40
5.0
  1
5
  0
LINE
  5
180
  8
回08-記事
  6
CONTINUOUS
 62
     7
 10
3476.21224313135
 20
1160.170100217472
 30
0.0
 11
3476.21224313135
 21
1164.170100217472
 31
0.0
  0
TEXT
  5
181
  8
回08-記事
  6
CONTINUOUS
 62
     7
 10
3480.960228851
 20
1157.779553938996
 30
0.0
 40
5.0
  1
4
  0
DIMENSION
  5
182
  8
回08-記事
  6
CONTINUOUS
 62
     5
  2
*D4646
 10
3458.706117354358
 20
1160.170100217472
 30
0.0
 11
3458.706117354358
 21
1194.628133656823
 31
0.0
 70
   160
  1
0.3{\H0.7x;±0.05}
  3
STANDARD
 13
3466.21224313135
 23
1167.170100217472
 33
0.0
 14
3466.21224313135
 24
1160.170100217472
 34
0.0
 50
90.0
1001
ACADSTRINGINFO
1000
MIFCodePage
1070
     1
1001
ACAD
1000
DSTYLE
1002
{
1070
    41
1040
1.5
1070
    47
1040
0.3
1070
    48
1040
0.3
1070
   140
1040
8.0
1070
   141
1040
1.5
1070
   146
1040
0.7
1070
   271
1070
     1
1070
   272
1070
     1
1070
   283
1070
     0
1070
   288
1070
     0
1070
   341
1005
0
1070
   371
1070
    13
1070
   372
1070
    13
1002
}
  0
DIMENSION
  5
193
  8
回08-記事
  6
CONTINUOUS
 62
     5
  2
*D4747
 10
3471.212243131351
 20
1174.451284107094
 30
0.0
 11
3479.095085843824
 21
1174.451284107094
 31
0.0
 70
   160
  3
STANDARD
 13
3466.21224313135
 23
1167.170100217472
 33
0.0
 14
3471.212243131351
 24
1167.170100217472
 34
0.0
1001
ACAD
1000
DSTYLE
1002
{
1070
    41
1040
1.5
1070
    47
1040
0.3
1070
    48
1040
0.3
1070
   140
1040
8.0
1070
   141
1040
1.5
1070
   146
1040
0.7
1070
   271
1070
     1
1070
   272
1070
     1
1070
   283
1070
     0
1070
   288
1070
     0
1070
   341
1005
0
1070
   371
1070
    13
1070
   372
1070
    13
1002
}
  0
LINE
  5
1A4
  8
回08-記事
  6
CONTINUOUS
 62
     7
 10
3466.21224313135
 20
1160.170100217472
 30
0.0
 11
3476.21224313135
 21
1160.170100217472
 31
0.0
  0
DIMENSION
  5
1A5
  8
回08-記事
  6
CONTINUOUS
 62
     5
  2
*D4848
 10
3476.21224313135
 20
1145.281438756366
 30
0.0
 11
3455.915349226881
 21
1145.281438756366
 31
0.0
 70
   160
  1
(<>)
  3
STANDARD
 13
3466.212199620583
 23
1160.170100217473
 33
0.0
 14
3476.21224313135
 24
1160.170100217472
 34
0.0
1001
ACAD
1000
DSTYLE
1002
{
1070
    41
1040
1.5
1070
    47
1040
0.3
1070
    48
1040
0.3
1070
   140
1040
8.0
1070
   141
1040
1.5
1070
   146
1040
0.7
1070
   271
1070
     1
1070
   272
1070
     1
1070
   283
1070
     0
1070
   288
1070
     0
1070
   341
1005
0
1070
   371
1070
    13
1070
   372
1070
    13
1002
}
  0
LINE
  5
1B6
  8
回08-記事
  6
CONTINUOUS
 62
     7
 10
3466.212199620583
 20
1164.170100217472
 30
0.0
 11
3974.71224313135
 21
1164.170100217472
 31
0.0
  0
LINE
  5
1B7
  8
回08-記事
  6
CONTINUOUS
 62
     7
 10
3466.21224313135
 20
1167.170100217472
 30
0.0
 11
3974.212243131351
 21
1167.170100217472
 31
0.0
  0
LINE
  5
1B8
  8
回08-記事
  6
CONTINUOUS
 62
     7
 10
3546.21224313135
 20
1158.170100217472
 30
0.0
 11
3974.71224313135
 21
1158.170100217472
 31
0.0
  0
LINE
  5
1B9
  8
回08-記事
  6
CONTINUOUS
 62
     7
 10
3546.71224313135
 20
1171.170100217472
 30
0.0
 11
3974.212243131351
 21
1171.170100217472
 31
0.0
  0
INSERT
  5
1BA
  8
回07-寸法
  6
CONTINUOUS
 62
     7
 66
     1
  2
*X8080
 10
0.0
 20
0.0
 30
0.0
  0
SEQEND
  5
6DC
  8
回07-寸法
  6
CONTINUOUS
 62
     7
  0
DIMENSION
  5
1BB
  8
回07-寸法
  6
CONTINUOUS
 62
     5
  2
*D4949
 10
3455.76915457241
 20
1219.231589173508
 30
0.0
 11
3450.867061386726
 21
1280.174518735784
 31
0.0
 70
    32
  1
(<>)
  3
STANDARD
 13
3466.712199620842
 23
1341.11744829806
 33
0.0
 14
3546.21224313135
 24
1219.231589173508
 34
0.0
 50
90.0
1001
ACAD
1000
DSTYLE
1002
{
1070
    41
1040
1.5
1070
    47
1040
0.3
1070
    48
1040
0.3
1070
   140
1040
8.0
1070
   141
1040
1.5
1070
   146
1040
0.7
1070
   271
1070
     1
1070
   272
1070
     1
1070
   283
1070
     0
1070
   288
1070
     0
1070
   341
1005
0
1070
   371
1070
    13
1070
   372
1070
    13
1002
}
  0
DIMENSION
  5
1CA
  8
回07-寸法
  6
CONTINUOUS
 62
     3
  2
*D5050
 10
3541.611740618788
 20
1317.945922067789
 30
0.0
 11
3527.591549076284
 21
1317.945922067789
 31
0.0
 70
   160
  3
STANDARD
 13
3546.21224313135
 23
1335.565323753877
 33
0.0
 14
3541.611740618788
 24
1336.331602017648
 34
0.0
1001
ACAD
1000
DSTYLE
1002
{
1070
    41
1040
1.5
1070
    47
1040
0.3
1070
    48
1040
0.3
1070
   140
1040
8.0
1070
   141
1040
1.5
1070
   146
1040
0.7
1070
   271
1070
     1
1070
   272
1070
     1
1070
   283
1070
     0
1070
   288
1070
     0
1070
   341
1005
0
1070
   371
1070
    13
1070
   372
1070
    13
1002
}
  0
TEXT
  5
1DB
  8
回07-寸法
  6
CONTINUOUS
 62
     5
 10
3531.722343559936
 20
1358.930929996008
 30
0.0
 40
3.0
  1
2-R2
1001
ACAD
1000
MTEXTBEGIN
1070
    73
1070
     1
1070
    44
1040
1.0
1070
    74
1070
     0
1000
MTEXTEND
  0
DIMENSION
  5
1DC
  8
回07-寸法
 62
     5
  2
*D5151
 10
3455.769154572412
 20
1341.117448098344
 30
0.0
 11
3455.769154572412
 21
1366.574983531415
 31
0.0
 70
   160
  1
<>
  3
STANDARD
 13
3466.712199620584
 23
1347.367448098344
 33
0.0
 14
3466.712199620584
 24
1341.117448098344
 34
0.0
 50
90.0
1001
ACAD
1000
DSTYLE
1002
{
1070
   147
1040
0.5
1070
    72
1070
     0
1070
    71
1070
     1
1070
    41
1040
1.5
1070
    47
1040
0.2
1070
    48
1040
0.2
1070
   140
1040
8.0
1070
   141
1040
1.5
1070
   146
1040
0.7
1070
   271
1070
     2
1070
   272
1070
     1
1070
   283
1070
     0
1070
   288
1070
     0
1070
   341
1005
0
1070
   371
1070
    13
1070
   372
1070
    13
1002
}
  0
DIMENSION
  5
1ED
  8
回07-寸法
  6
CONTINUOUS
 62
     5
  2
*D5252
 10
3536.716312011324
 20
1307.337446047004
 30
0.0
 11
3527.284941161425
 21
1307.337446047004
 31
0.0
 70
   160
  3
STANDARD
 13
3546.21224313135
 23
1335.565323953593
 33
0.0
 14
3536.716312011324
 24
1341.024258642136
 34
0.0
1001
ACAD
1000
DSTYLE
1002
{
1070
    41
1040
1.5
1070
    47
1040
0.3
1070
    48
1040
0.3
1070
   140
1040
8.0
1070
   141
1040
1.5
1070
   146
1040
0.7
1070
   271
1070
     1
1070
   272
1070
     1
1070
   283
1070
     0
1070
   288
1070
     0
1070
   341
1005
0
1070
   371
1070
    13
1070
   372
1070
    13
1002
}
  0
DIMENSION
  5
1FE
  8
回07-寸法
  6
CONTINUOUS
 62
     5
  2
*D5353
 10
3466.212199620583
 20
1374.147828953325
 30
0.0
 11
3506.212221375966
 21
1378.647828953325
 31
0.0
 70
    32
  3
STANDARD
 13
3546.21224313135
 23
1352.919572642535
 33
0.0
 14
3466.212199620583
 24
1346.867448098344
 34
0.0
1001
ACAD
1000
DSTYLE
1002
{
1070
   147
1040
0.5
1070
    72
1070
     0
1070
    71
1070
     1
1070
    41
1040
1.5
1070
    47
1040
1.0
1070
    48
1040
1.0
1070
   140
1040
8.0
1070
   141
1040
1.5
1070
   146
1040
0.7
1070
   271
1070
     1
1070
   272
1070
     1
1070
   283
1070
     0
1070
   288
1070
     0
1070
   341
1005
0
1070
   371
1070
    13
1070
   372
1070
    13
1002
}
  0
DIMENSION
  5
20D
  8
回07-寸法
  6
CONTINUOUS
 62
     7
  2
*D5454
 10
3518.650555295547
 20
1336.242448098344
 30
0.0
 11
3518.650555295547
 21
1326.931583284481
 31
0.0
 70
   160
  3
STANDARD
 13
3542.020313222985
 23
1352.241245064073
 33
0.0
 14
3542.024486808691
 24
1336.242448098344
 34
0.0
 50
90.0
1001
ACAD
1000
DSTYLE
1002
{
1070
    41
1040
1.5
1070
    47
1040
0.3
1070
    48
1040
0.3
1070
   140
1040
8.0
1070
   141
1040
1.5
1070
   146
1040
0.7
1070
   271
1070
     1
1070
   272
1070
     1
1070
   283
1070
     0
1070
   288
1070
     0
1070
   341
1005
0
1070
   371
1070
    13
1070
   372
1070
    13
1002
}
  0
TEXT
  5
21E
  8
回07-寸法
  6
CONTINUOUS
 62
     5
 10
3521.181417255333
 20
1353.899629970062
 30
0.0
 40
4.0
  1
4-R1
1001
ACAD
1000
MTEXTBEGIN
1070
    73
1070
     1
1070
    44
1040
1.0
1070
    74
1070
     0
1000
MTEXTEND
  0
INSERT
  5
21F
  8
回07-寸法
  6
CONTINUOUS
 62
     7
 66
     1
  2
*X8181
 10
0.0
 20
0.0
 30
0.0
  0
SEQEND
  5
6E3
  8
回07-寸法
  6
CONTINUOUS
 62
     7
  0
DIMENSION
  5
220
  8
回07-寸法
  6
CONTINUOUS
 62
     5
  2
*D5555
 10
3974.71224313135
 20
1525.002248042381
 30
0.0
 11
4011.990934076231
 21
1529.902248042381
 31
0.0
 70
    32
  1
(<>){\H0.625x;(Insulation area)}
  3
STANDARD
 13
3969.21224313135
 23
1462.481589173508
 33
0.0
 14
3974.71224313135
 24
1469.231589173508
 34
0.0
1001
ACADSTRINGINFO
1000
MIFCodePage
1070
     1
1001
ACAD
1000
DSTYLE
1002
{
1070
    41
1040
1.5
1070
    47
1040
0.3
1070
    48
1040
0.3
1070
   140
1040
8.0
1070
   141
1040
1.5
1070
   146
1040
0.7
1070
   271
1070
     1
1070
   272
1070
     1
1070
   283
1070
     0
1070
   288
1070
     0
1070
   341
1005
0
1070
   371
1070
    13
1070
   372
1070
    13
1002
}
  0
DIMENSION
  5
231
  8
回07-寸法
  6
CONTINUOUS
 62
     5
  2
*D5656
 10
3974.71224313135
 20
1515.002248042381
 30
0.0
 11
3983.50909352505
 21
1515.002248042381
 31
0.0
 70
   160
  1
(<>)
  3
STANDARD
 13
3968.712243131351
 23
1461.681589173508
 33
0.0
 14
3974.71224313135
 24
1469.231589173508
 34
0.0
1001
ACAD
1000
DSTYLE
1002
{
1070
    41
1040
1.5
1070
    47
1040
0.3
1070
    48
1040
0.3
1070
   140
1040
8.0
1070
   141
1040
1.5
1070
   146
1040
0.7
1070
   271
1070
     1
1070
   272
1070
     1
1070
   283
1070
     0
1070
   288
1070
     0
1070
   341
1005
0
1070
   371
1070
    13
1070
   372
1070
    13
1002
}
  0
DIMENSION
  5
242
  8
回07-寸法
  6
CONTINUOUS
 62
     5
  2
*D5757
 10
3974.71224313135
 20
1505.002248042381
 30
0.0
 11
3984.017656989189
 21
1505.002248042381
 31
0.0
 70
   160
  1
(<>)
  3
STANDARD
 13
3966.712243131349
 23
1459.681589173508
 33
0.0
 14
3974.71224313135
 24
1469.231589173508
 34
0.0
1001
ACAD
1000
DSTYLE
1002
{
1070
    41
1040
1.5
1070
    47
1040
0.3
1070
    48
1040
0.3
1070
   140
1040
8.0
1070
   141
1040
1.5
1070
   146
1040
0.7
1070
   271
1070
     1
1070
   272
1070
     1
1070
   283
1070
     0
1070
   288
1070
     0
1070
   341
1005
0
1070
   371
1070
    13
1070
   372
1070
    13
1002
}
  0
DIMENSION
  5
253
  8
回07-寸法
  6
CONTINUOUS
 62
     5
  2
*D5858
 10
4022.68563464291
 20
1219.231589173509
 30
0.0
 11
4022.68563464291
 21
1177.63590019713
 31
0.0
 70
   160
  1
<> {\H0.75x;(Insulation area)}
  3
STANDARD
 13
3969.21224313135
 23
1225.981589173508
 33
0.0
 14
3974.71224313135
 24
1219.231589173509
 34
0.0
 50
90.0
1001
ACADSTRINGINFO
1000
MIFCodePage
1070
     1
1001
ACAD
1000
DSTYLE
1002
{
1070
    41
1040
1.5
1070
    47
1040
0.3
1070
    48
1040
0.3
1070
   140
1040
8.0
1070
   141
1040
1.5
1070
   146
1040
0.7
1070
   271
1070
     1
1070
   272
1070
     1
1070
   283
1070
     0
1070
   288
1070
     0
1070
   341
1005
0
1070
   371
1070
    13
1070
   372
1070
    13
1002
}
  0
DIMENSION
  5
264
  8
回07-寸法
  6
CONTINUOUS
 62
     5
  2
*D5959
 10
4002.685634642911
 20
1469.231589173508
 30
0.0
 11
4002.685634642911
 21
1481.542881041317
 31
0.0
 70
   160
  1
(<>)
  3
STANDARD
 13
3966.712243131349
 23
1459.681589173508
 33
0.0
 14
3974.71224313135
 24
1469.231589173508
 34
0.0
 50
90.0
1001
ACAD
1000
DSTYLE
1002
{
1070
    41
1040
1.5
1070
    47
1040
0.3
1070
    48
1040
0.3
1070
   140
1040
8.0
1070
   141
1040
1.5
1070
   146
1040
0.7
1070
   271
1070
     1
1070
   272
1070
     1
1070
   283
1070
     0
1070
   288
1070
     0
1070
   341
1005
0
1070
   371
1070
    13
1070
   372
1070
    13
1002
}
  0
DIMENSION
  5
275
  8
回07-寸法
  6
CONTINUOUS
 62
     5
  2
*D6060
 10
4012.685634642912
 20
1469.231589173508
 30
0.0
 11
4007.785634642913
 21
1481.528439567209
 31
0.0
 70
    32
  1
(<>)
  3
STANDARD
 13
3968.712243131351
 23
1461.681589173508
 33
0.0
 14
3974.71224313135
 24
1469.231589173508
 34
0.0
 50
90.0
1001
ACAD
1000
DSTYLE
1002
{
1070
    41
1040
1.5
1070
    47
1040
0.3
1070
    48
1040
0.3
1070
   140
1040
8.0
1070
   141
1040
1.5
1070
   146
1040
0.7
1070
   271
1070
     1
1070
   272
1070
     1
1070
   283
1070
     0
1070
   288
1070
     0
1070
   341
1005
0
1070
   371
1070
    13
1070
   372
1070
    13
1002
}
  0
DIMENSION
  5
286
  8
回07-寸法
  6
CONTINUOUS
 62
     5
  2
*D6161
 10
4022.685634642915
 20
1469.231589173508
 30
0.0
 11
4017.785634642915
 21
1481.528439567209
 31
0.0
 70
    32
  1
(<>)
  3
STANDARD
 13
3969.21224313135
 23
1462.481589173508
 33
0.0
 14
3974.71224313135
 24
1469.231589173508
 34
0.0
 50
90.0
1001
ACADSTRINGINFO
1000
MIFCodePage
1070
     1
1001
ACAD
1000
DSTYLE
1002
{
1070
    41
1040
1.5
1070
    47
1040
0.3
1070
    48
1040
0.3
1070
   140
1040
8.0
1070
   141
1040
1.5
1070
   146
1040
0.7
1070
   271
1070
     1
1070
   272
1070
     1
1070
   283
1070
     0
1070
   288
1070
     0
1070
   341
1005
0
1070
   371
1070
    13
1070
   372
1070
    13
1002
}
  0
DIMENSION
  5
297
  8
回07-寸法
  6
CONTINUOUS
 62
     5
  2
*D6262
 10
4022.68563464291
 20
1225.981589173508
 30
0.0
 11
4022.68563464291
 21
1344.231589173508
 31
0.0
 70
   160
  3
STANDARD
 13
3969.21224313135
 23
1462.481589173507
 33
0.0
 14
3969.21224313135
 24
1225.981589173508
 34
0.0
 50
90.0
1001
ACAD
1000
DSTYLE
1002
{
1070
    41
1040
1.5
1070
    47
1040
0.3
1070
    48
1040
0.3
1070
   140
1040
8.0
1070
   141
1040
1.5
1070
   146
1040
0.7
1070
   271
1070
     1
1070
   272
1070
     1
1070
   283
1070
     0
1070
   288
1070
     0
1070
   341
1005
0
1070
   371
1070
    13
1070
   372
1070
    13
1002
}
  0
DIMENSION
  5
2A6
  8
回07-寸法
  6
CONTINUOUS
 62
     5
  2
*D6363
 10
3553.91224313135
 20
1525.002248042381
 30
0.0
 11
3761.562243131351
 21
1525.002248042381
 31
0.0
 70
   160
  3
STANDARD
 13
3969.21224313135
 23
1462.481589173508
 33
0.0
 14
3553.91224313135
 24
1462.481589173508
 34
0.0
1001
ACAD
1000
DSTYLE
1002
{
1070
    41
1040
1.5
1070
    47
1040
0.3
1070
    48
1040
0.3
1070
   140
1040
8.0
1070
   141
1040
1.5
1070
   146
1040
0.7
1070
   271
1070
     1
1070
   272
1070
     1
1070
   283
1070
     0
1070
   288
1070
     0
1070
   341
1005
0
1070
   371
1070
    13
1070
   372
1070
    13
1002
}
  0
DIMENSION
  5
2B5
  8
回07-寸法
  6
CONTINUOUS
 62
     1
  2
*D6464
 10
4012.68563464291
 20
1219.231589173509
 30
0.0
 11
4012.68563464291
 21
1209.933163976652
 31
0.0
 70
   160
  3
STANDARD
 13
3968.712243131351
 23
1226.781589173508
 33
0.0
 14
3974.71224313135
 24
1219.231589173509
 34
0.0
 50
90.0
1001
ACAD
1000
DSTYLE
1002
{
1070
    41
1040
1.5
1070
    47
1040
0.3
1070
    48
1040
0.3
1070
   140
1040
8.0
1070
   141
1040
1.5
1070
   146
1040
0.7
1070
   271
1070
     1
1070
   272
1070
     1
1070
   283
1070
     0
1070
   288
1070
     0
1070
   341
1005
0
1070
   371
1070
    13
1070
   372
1070
    13
1002
}
  0
DIMENSION
  5
2C6
  8
回07-寸法
  6
CONTINUOUS
 62
     1
  2
*D6565
 10
4002.685634642911
 20
1219.231589173509
 30
0.0
 11
4002.685634642911
 21
1209.767478551708
 31
0.0
 70
   160
  3
STANDARD
 13
3966.712243131349
 23
1228.781589173508
 33
0.0
 14
3974.71224313135
 24
1219.231589173509
 34
0.0
 50
90.0
1001
ACAD
1000
DSTYLE
1002
{
1070
    41
1040
1.5
1070
    47
1040
0.3
1070
    48
1040
0.3
1070
   140
1040
8.0
1070
   141
1040
1.5
1070
   146
1040
0.7
1070
   271
1070
     1
1070
   272
1070
     1
1070
   283
1070
     0
1070
   288
1070
     0
1070
   341
1005
0
1070
   371
1070
    13
1070
   372
1070
    13
1002
}
  0
DIMENSION
  5
2D7
  8
回07-寸法
  6
CONTINUOUS
 62
     1
  2
*D6666
 10
4032.685634642911
 20
1469.231589173507
 30
0.0
 11
4032.685634642911
 21
1344.231589173508
 31
0.0
 70
   160
  3
STANDARD
 13
3974.71224313135
 23
1219.231589173509
 33
0.0
 14
3974.71224313135
 24
1469.231589173507
 34
0.0
 50
90.0
1001
ACAD
1000
DSTYLE
1002
{
1070
   147
1040
0.5
1070
    72
1070
     0
1070
    71
1070
     1
1070
    41
1040
1.5
1070
    47
1040
0.3
1070
    48
1040
0.3
1070
   140
1040
8.0
1070
   141
1040
1.5
1070
   146
1040
0.7
1070
   271
1070
     1
1070
   272
1070
     1
1070
   283
1070
     0
1070
   288
1070
     0
1070
   341
1005
0
1070
   371
1070
    13
1070
   372
1070
    13
1002
}
  0
DIMENSION
  5
2E6
  8
回07-寸法
  6
CONTINUOUS
 62
     1
  2
*D6767
 10
4012.68563464291
 20
1226.781589173508
 30
0.0
 11
4012.68563464291
 21
1344.231589173508
 31
0.0
 70
   160
  1
<> {\H0.75x;(VIEWING AREA)}
  3
STANDARD
 13
3968.712243131351
 23
1461.681589173507
 33
0.0
 14
3968.712243131351
 24
1226.781589173508
 34
0.0
 50
90.0
1001
ACAD
1000
DSTYLE
1002
{
1070
    41
1040
1.5
1070
    47
1040
0.3
1070
    48
1040
0.3
1070
   140
1040
8.0
1070
   141
1040
1.5
1070
   146
1040
0.7
1070
   271
1070
     1
1070
   272
1070
     1
1070
   283
1070
     0
1070
   288
1070
     0
1070
   341
1005
0
1070
   371
1070
    13
1070
   372
1070
    13
1002
}
  0
DIMENSION
  5
2F5
  8
回07-寸法
  6
CONTINUOUS
 62
     1
  2
*D6868
 10
4002.685634642911
 20
1459.681589173508
 30
0.0
 11
4002.685634642911
 21
1344.231589173508
 31
0.0
 70
   160
  1
<> {\H0.75x;(ACTIVE AREA)}
  3
STANDARD
 13
3966.712243131349
 23
1228.781589173508
 33
0.0
 14
3966.712243131349
 24
1459.681589173508
 34
0.0
 50
90.0
1001
ACAD
1000
DSTYLE
1002
{
1070
    41
1040
1.5
1070
    47
1040
0.3
1070
    48
1040
0.3
1070
   140
1040
8.0
1070
   141
1040
1.5
1070
   146
1040
0.7
1070
   271
1070
     1
1070
   272
1070
     1
1070
   283
1070
     0
1070
   288
1070
     0
1070
   341
1005
0
1070
   371
1070
    13
1070
   372
1070
    13
1002
}
  0
DIMENSION
  5
304
  8
回07-寸法
  6
CONTINUOUS
 62
     1
  2
*D6969
 10
3974.71224313135
 20
1535.002248042381
 30
0.0
 11
3760.46224313135
 21
1535.002248042381
 31
0.0
 70
   160
  3
STANDARD
 13
3546.21224313135
 23
1469.231589173508
 33
0.0
 14
3974.71224313135
 24
1469.231589173508
 34
0.0
1001
ACAD
1000
DSTYLE
1002
{
1070
   147
1040
0.5
1070
    72
1070
     0
1070
    71
1070
     1
1070
    41
1040
1.5
1070
    47
1040
0.3
1070
    48
1040
0.3
1070
   140
1040
8.0
1070
   141
1040
1.5
1070
   146
1040
0.7
1070
   271
1070
     1
1070
   272
1070
     1
1070
   283
1070
     0
1070
   288
1070
     0
1070
   341
1005
0
1070
   371
1070
    13
1070
   372
1070
    13
1002
}
  0
DIMENSION
  5
313
  8
回07-寸法
  6
CONTINUOUS
 62
     1
  2
*D7070
 10
3968.712243131351
 20
1515.002248042381
 30
0.0
 11
3761.562243131351
 21
1515.002248042381
 31
0.0
 70
   160
  1
<> {\H0.75x;(VIEWING AREA)}
  3
STANDARD
 13
3554.41224313135
 23
1461.681589173508
 33
0.0
 14
3968.712243131351
 24
1461.681589173508
 34
0.0
1001
ACAD
1000
DSTYLE
1002
{
1070
    41
1040
1.5
1070
    47
1040
0.3
1070
    48
1040
0.3
1070
   140
1040
8.0
1070
   141
1040
1.5
1070
   146
1040
0.7
1070
   271
1070
     1
1070
   272
1070
     1
1070
   283
1070
     0
1070
   288
1070
     0
1070
   341
1005
0
1070
   371
1070
    13
1070
   372
1070
    13
1002
}
  0
DIMENSION
  5
322
  8
回07-寸法
  6
CONTINUOUS
 62
     1
  2
*D7171
 10
3966.712243131349
 20
1505.002248042381
 30
0.0
 11
3761.562243131351
 21
1505.002248042381
 31
0.0
 70
   160
  1
<> {\H0.75x;(ACTIVE AREA)}
  3
STANDARD
 13
3556.41224313135
 23
1459.681589173508
 33
0.0
 14
3966.712243131349
 24
1459.681589173508
 34
0.0
1001
ACAD
1000
DSTYLE
1002
{
1070
    41
1040
1.5
1070
    47
1040
0.3
1070
    48
1040
0.3
1070
   140
1040
8.0
1070
   141
1040
1.5
1070
   146
1040
0.7
1070
   271
1070
     1
1070
   272
1070
     1
1070
   283
1070
     0
1070
   288
1070
     0
1070
   341
1005
0
1070
   371
1070
    13
1070
   372
1070
    13
1002
}
  0
DIMENSION
  5
331
  8
回07-寸法
  6
CONTINUOUS
 62
     5
  2
*D7272
 10
3546.21224313135
 20
1525.002248042381
 30
0.0
 11
3509.731977383319
 21
1529.627248042381
 31
0.0
 70
    32
  1
<> {\H0.625x;(Insulation area)}
  3
STANDARD
 13
3553.91224313135
 23
1462.481589173508
 33
0.0
 14
3546.21224313135
 24
1469.231589173506
 34
0.0
1001
ACADSTRINGINFO
1000
MIFCodePage
1070
     1
1001
ACAD
1000
DSTYLE
1002
{
1070
    41
1040
1.5
1070
    47
1040
0.3
1070
    48
1040
0.3
1070
   140
1040
8.0
1070
   141
1040
1.5
1070
   146
1040
0.7
1070
   271
1070
     1
1070
   272
1070
     1
1070
   283
1070
     0
1070
   288
1070
     0
1070
   341
1005
0
1070
   371
1070
    13
1070
   372
1070
    13
1002
}
  0
DIMENSION
  5
342
  8
回07-寸法
  6
CONTINUOUS
 62
     1
  2
*D7373
 10
3546.21224313135
 20
1515.002248042381
 30
0.0
 11
3536.872006910878
 21
1515.002248042381
 31
0.0
 70
   160
  3
STANDARD
 13
3554.412243131349
 23
1461.681589173508
 33
0.0
 14
3546.21224313135
 24
1469.231589173506
 34
0.0
1001
ACAD
1000
DSTYLE
1002
{
1070
    41
1040
1.5
1070
    47
1040
0.3
1070
    48
1040
0.3
1070
   140
1040
8.0
1070
   141
1040
1.5
1070
   146
1040
0.7
1070
   271
1070
     1
1070
   272
1070
     1
1070
   283
1070
     0
1070
   288
1070
     0
1070
   341
1005
0
1070
   371
1070
    13
1070
   372
1070
    13
1002
}
  0
DIMENSION
  5
353
  8
回07-寸法
  6
CONTINUOUS
 62
     1
  2
*D7474
 10
3546.21224313135
 20
1505.002248042381
 30
0.0
 11
3534.872006910877
 21
1505.002248042381
 31
0.0
 70
   160
  3
STANDARD
 13
3556.41224313135
 23
1459.681589173508
 33
0.0
 14
3546.21224313135
 24
1469.231589173506
 34
0.0
1001
ACAD
1000
DSTYLE
1002
{
1070
    41
1040
1.5
1070
    47
1040
0.3
1070
    48
1040
0.3
1070
   140
1040
8.0
1070
   141
1040
1.5
1070
   146
1040
0.7
1070
   271
1070
     1
1070
   272
1070
     1
1070
   283
1070
     0
1070
   288
1070
     0
1070
   341
1005
0
1070
   371
1070
    13
1070
   372
1070
    13
1002
}
  0
TEXT
  5
364
  8
回08-記事
  6
CONTINUOUS
 62
     7
 10
3945.408732852601
 20
1349.357793861922
 30
0.0
 40
8.0
  1
XR
  0
TEXT
  5
365
  8
回08-記事
  6
CONTINUOUS
 62
     7
 10
3745.717151171851
 20
1444.434267742143
 30
0.0
 40
8.0
  1
YU
  0
TEXT
  5
366
  8
回08-記事
  6
CONTINUOUS
 62
     7
 10
3745.247524850027
 20
1233.414180875294
 30
0.0
 40
8.0
  1
YD
  0
TEXT
  5
367
  8
回08-記事
  6
CONTINUOUS
 62
     7
 10
3563.470862934252
 20
1350.102803351789
 30
0.0
 40
8.0
  1
XL
  0
LINE
  5
368
  8
回08-記事
  6
CENTER2
 62
     7
 10
3761.562243131351
 20
1463.681589173508
 30
0.0
 11
3761.562243131351
 21
1224.781589173508
 31
0.0
  0
LINE
  5
36A
  8
回08-記事
  6
CENTER2
 62
     7
 10
3544.21224313135
 20
1344.231589173508
 30
0.0
 11
3976.71224313135
 21
1344.231589173508
 31
0.0
  0
INSERT
  5
36B
  8
回07-寸法
  6
CONTINUOUS
 62
     7
 66
     1
  2
*X8282
 10
0.0
 20
0.0
 30
0.0
1001
ACADSTRINGINFO
1000
MIFCodePage
1070
     1
1001
ACAD_MLEADERVER
1070
     2
  0
SEQEND
  5
6F1
  8
回07-寸法
  6
CONTINUOUS
 62
     7
  0
DIMENSION
  5
36D
  8
回08-記事
  6
CONTINUOUS
 62
     7
  2
*D7575
 10
3793.56224313135
 20
1292.906742549352
 30
0.0
 11
3799.062243131351
 21
1297.406742549352
 31
0.0
 70
    32
  3
STANDARD
 13
3789.56224313135
 23
1308.231589173508
 33
0.0
 14
3793.56224313135
 24
1308.231589173508
 34
0.0
1001
ACAD
1000
DSTYLE
1002
{
1070
    41
1040
1.5
1070
    47
1040
0.3
1070
    48
1040
0.3
1070
   140
1040
8.0
1070
   141
1040
1.5
1070
   146
1040
0.7
1070
   271
1070
     1
1070
   272
1070
     1
1070
   283
1070
     0
1070
   288
1070
     0
1070
   341
1005
0
1070
   371
1070
    13
1070
   372
1070
    13
1002
}
  0
DIMENSION
  5
37E
  8
回08-記事
  6
CONTINUOUS
 62
     7
  2
*D7676
 10
3811.596101424145
 20
1316.231589173508
 30
0.0
 11
3807.096101424145
 21
1310.731589173508
 31
0.0
 70
    32
  3
STANDARD
 13
3797.562243131351
 23
1320.231589173508
 33
0.0
 14
3797.562243131351
 24
1316.231589173508
 34
0.0
 50
90.0
1001
ACAD
1000
DSTYLE
1002
{
1070
    41
1040
1.5
1070
    47
1040
0.3
1070
    48
1040
0.3
1070
   140
1040
8.0
1070
   141
1040
1.5
1070
   146
1040
0.7
1070
   271
1070
     1
1070
   272
1070
     1
1070
   283
1070
     0
1070
   288
1070
     0
1070
   341
1005
0
1070
   371
1070
    13
1070
   372
1070
    13
1002
}
  0
CIRCLE
  5
38F
  8
回08-記事
  6
CONTINUOUS
 62
     7
 10
3797.562243131351
 20
1344.231589173508
 30
0.0
 40
0.025
  0
CIRCLE
  5
390
  8
回08-記事
  6
CONTINUOUS
 62
     7
 10
3797.562243131351
 20
1340.231589173508
 30
0.0
 40
0.025
  0
CIRCLE
  5
391
  8
回08-記事
  6
CONTINUOUS
 62
     7
 10
3797.562243131351
 20
1336.231589173508
 30
0.0
 40
0.025
  0
CIRCLE
  5
392
  8
回08-記事
  6
CONTINUOUS
 62
     7
 10
3797.562243131351
 20
1332.231589173508
 30
0.0
 40
0.025
  0
CIRCLE
  5
393
  8
回08-記事
  6
CONTINUOUS
 62
     7
 10
3797.562243131351
 20
1328.231589173508
 30
0.0
 40
0.025
  0
CIRCLE
  5
394
  8
回08-記事
  6
CONTINUOUS
 62
     7
 10
3797.562243131351
 20
1324.231589173508
 30
0.0
 40
0.025
  0
CIRCLE
  5
395
  8
回08-記事
  6
CONTINUOUS
 62
     7
 10
3797.562243131351
 20
1320.231589173508
 30
0.0
 40
0.025
  0
CIRCLE
  5
396
  8
回08-記事
  6
CONTINUOUS
 62
     7
 10
3797.562243131351
 20
1316.231589173508
 30
0.0
 40
0.025
  0
CIRCLE
  5
397
  8
回08-記事
  6
CONTINUOUS
 62
     7
 10
3797.562243131351
 20
1312.231589173508
 30
0.0
 40
0.025
  0
CIRCLE
  5
398
  8
回08-記事
  6
CONTINUOUS
 62
     7
 10
3797.562243131351
 20
1308.231589173508
 30
0.0
 40
0.025
  0
CIRCLE
  5
399
  8
回08-記事
  6
CONTINUOUS
 62
     7
 10
3793.56224313135
 20
1344.231589173508
 30
0.0
 40
0.025
  0
CIRCLE
  5
39A
  8
回08-記事
  6
CONTINUOUS
 62
     7
 10
3793.56224313135
 20
1340.231589173508
 30
0.0
 40
0.025
  0
CIRCLE
  5
39B
  8
回08-記事
  6
CONTINUOUS
 62
     7
 10
3793.56224313135
 20
1336.231589173508
 30
0.0
 40
0.025
  0
CIRCLE
  5
39C
  8
回08-記事
  6
CONTINUOUS
 62
     7
 10
3793.56224313135
 20
1332.231589173508
 30
0.0
 40
0.025
  0
CIRCLE
  5
39D
  8
回08-記事
  6
CONTINUOUS
 62
     7
 10
3793.56224313135
 20
1328.231589173508
 30
0.0
 40
0.025
  0
CIRCLE
  5
39E
  8
回08-記事
  6
CONTINUOUS
 62
     7
 10
3793.56224313135
 20
1324.231589173508
 30
0.0
 40
0.025
  0
CIRCLE
  5
39F
  8
回08-記事
  6
CONTINUOUS
 62
     7
 10
3793.56224313135
 20
1320.231589173508
 30
0.0
 40
0.025
  0
CIRCLE
  5
3A0
  8
回08-記事
  6
CONTINUOUS
 62
     7
 10
3793.56224313135
 20
1316.231589173508
 30
0.0
 40
0.025
  0
CIRCLE
  5
3A1
  8
回08-記事
  6
CONTINUOUS
 62
     7
 10
3793.56224313135
 20
1312.231589173508
 30
0.0
 40
0.025
  0
CIRCLE
  5
3A2
  8
回08-記事
  6
CONTINUOUS
 62
     7
 10
3793.56224313135
 20
1308.231589173508
 30
0.0
 40
0.025
  0
CIRCLE
  5
3A3
  8
回08-記事
  6
CONTINUOUS
 62
     7
 10
3789.56224313135
 20
1344.231589173508
 30
0.0
 40
0.025
  0
CIRCLE
  5
3A4
  8
回08-記事
  6
CONTINUOUS
 62
     7
 10
3789.56224313135
 20
1340.231589173508
 30
0.0
 40
0.025
  0
CIRCLE
  5
3A5
  8
回08-記事
  6
CONTINUOUS
 62
     7
 10
3789.56224313135
 20
1336.231589173508
 30
0.0
 40
0.025
  0
CIRCLE
  5
3A6
  8
回08-記事
  6
CONTINUOUS
 62
     7
 10
3789.56224313135
 20
1332.231589173508
 30
0.0
 40
0.025
  0
CIRCLE
  5
3A7
  8
回08-記事
  6
CONTINUOUS
 62
     7
 10
3789.56224313135
 20
1328.231589173508
 30
0.0
 40
0.025
  0
CIRCLE
  5
3A8
  8
回08-記事
  6
CONTINUOUS
 62
     7
 10
3789.56224313135
 20
1324.231589173508
 30
0.0
 40
0.025
  0
CIRCLE
  5
3A9
  8
回08-記事
  6
CONTINUOUS
 62
     7
 10
3789.56224313135
 20
1320.231589173508
 30
0.0
 40
0.025
  0
CIRCLE
  5
3AA
  8
回08-記事
  6
CONTINUOUS
 62
     7
 10
3789.56224313135
 20
1316.231589173508
 30
0.0
 40
0.025
  0
CIRCLE
  5
3AB
  8
回08-記事
  6
CONTINUOUS
 62
     7
 10
3789.56224313135
 20
1312.231589173508
 30
0.0
 40
0.025
  0
CIRCLE
  5
3AC
  8
回08-記事
  6
CONTINUOUS
 62
     7
 10
3789.56224313135
 20
1308.231589173508
 30
0.0
 40
0.025
  0
CIRCLE
  5
3AD
  8
回08-記事
  6
CONTINUOUS
 62
     7
 10
3785.56224313135
 20
1344.231589173508
 30
0.0
 40
0.025
  0
CIRCLE
  5
3AE
  8
回08-記事
  6
CONTINUOUS
 62
     7
 10
3785.56224313135
 20
1340.231589173508
 30
0.0
 40
0.025
  0
CIRCLE
  5
3AF
  8
回08-記事
  6
CONTINUOUS
 62
     7
 10
3785.56224313135
 20
1336.231589173508
 30
0.0
 40
0.025
  0
CIRCLE
  5
3B0
  8
回08-記事
  6
CONTINUOUS
 62
     7
 10
3785.56224313135
 20
1332.231589173508
 30
0.0
 40
0.025
  0
CIRCLE
  5
3B1
  8
回08-記事
  6
CONTINUOUS
 62
     7
 10
3785.56224313135
 20
1328.231589173508
 30
0.0
 40
0.025
  0
CIRCLE
  5
3B2
  8
回08-記事
  6
CONTINUOUS
 62
     7
 10
3785.56224313135
 20
1324.231589173508
 30
0.0
 40
0.025
  0
CIRCLE
  5
3B3
  8
回08-記事
  6
CONTINUOUS
 62
     7
 10
3785.56224313135
 20
1320.231589173508
 30
0.0
 40
0.025
  0
CIRCLE
  5
3B4
  8
回08-記事
  6
CONTINUOUS
 62
     7
 10
3785.56224313135
 20
1316.231589173508
 30
0.0
 40
0.025
  0
CIRCLE
  5
3B5
  8
回08-記事
  6
CONTINUOUS
 62
     7
 10
3785.56224313135
 20
1312.231589173508
 30
0.0
 40
0.025
  0
CIRCLE
  5
3B6
  8
回08-記事
  6
CONTINUOUS
 62
     7
 10
3785.56224313135
 20
1308.231589173508
 30
0.0
 40
0.025
  0
CIRCLE
  5
3B7
  8
回08-記事
  6
CONTINUOUS
 62
     7
 10
3781.562243131349
 20
1344.231589173508
 30
0.0
 40
0.025
  0
CIRCLE
  5
3B8
  8
回08-記事
  6
CONTINUOUS
 62
     7
 10
3781.562243131349
 20
1340.231589173508
 30
0.0
 40
0.025
  0
CIRCLE
  5
3B9
  8
回08-記事
  6
CONTINUOUS
 62
     7
 10
3781.562243131349
 20
1336.231589173508
 30
0.0
 40
0.025
  0
CIRCLE
  5
3BA
  8
回08-記事
  6
CONTINUOUS
 62
     7
 10
3781.562243131349
 20
1332.231589173508
 30
0.0
 40
0.025
  0
CIRCLE
  5
3BB
  8
回08-記事
  6
CONTINUOUS
 62
     7
 10
3781.562243131349
 20
1328.231589173508
 30
0.0
 40
0.025
  0
CIRCLE
  5
3BC
  8
回08-記事
  6
CONTINUOUS
 62
     7
 10
3781.562243131349
 20
1324.231589173508
 30
0.0
 40
0.025
  0
CIRCLE
  5
3BD
  8
回08-記事
  6
CONTINUOUS
 62
     7
 10
3781.562243131349
 20
1320.231589173508
 30
0.0
 40
0.025
  0
CIRCLE
  5
3BE
  8
回08-記事
  6
CONTINUOUS
 62
     7
 10
3781.562243131349
 20
1316.231589173508
 30
0.0
 40
0.025
  0
CIRCLE
  5
3BF
  8
回08-記事
  6
CONTINUOUS
 62
     7
 10
3781.562243131349
 20
1312.231589173508
 30
0.0
 40
0.025
  0
CIRCLE
  5
3C0
  8
回08-記事
  6
CONTINUOUS
 62
     7
 10
3781.562243131349
 20
1308.231589173508
 30
0.0
 40
0.025
  0
CIRCLE
  5
3C1
  8
回08-記事
  6
CONTINUOUS
 62
     7
 10
3777.562243131349
 20
1344.231589173508
 30
0.0
 40
0.025
  0
CIRCLE
  5
3C2
  8
回08-記事
  6
CONTINUOUS
 62
     7
 10
3777.562243131349
 20
1340.231589173508
 30
0.0
 40
0.025
  0
CIRCLE
  5
3C3
  8
回08-記事
  6
CONTINUOUS
 62
     7
 10
3777.562243131349
 20
1336.231589173508
 30
0.0
 40
0.025
  0
CIRCLE
  5
3C4
  8
回08-記事
  6
CONTINUOUS
 62
     7
 10
3777.562243131349
 20
1332.231589173508
 30
0.0
 40
0.025
  0
CIRCLE
  5
3C5
  8
回08-記事
  6
CONTINUOUS
 62
     7
 10
3777.562243131349
 20
1328.231589173508
 30
0.0
 40
0.025
  0
CIRCLE
  5
3C6
  8
回08-記事
  6
CONTINUOUS
 62
     7
 10
3777.562243131349
 20
1324.231589173508
 30
0.0
 40
0.025
  0
CIRCLE
  5
3C7
  8
回08-記事
  6
CONTINUOUS
 62
     7
 10
3777.562243131349
 20
1320.231589173508
 30
0.0
 40
0.025
  0
CIRCLE
  5
3C8
  8
回08-記事
  6
CONTINUOUS
 62
     7
 10
3777.562243131349
 20
1316.231589173508
 30
0.0
 40
0.025
  0
CIRCLE
  5
3C9
  8
回08-記事
  6
CONTINUOUS
 62
     7
 10
3777.562243131349
 20
1312.231589173508
 30
0.0
 40
0.025
  0
CIRCLE
  5
3CA
  8
回08-記事
  6
CONTINUOUS
 62
     7
 10
3777.562243131349
 20
1308.231589173508
 30
0.0
 40
0.025
  0
CIRCLE
  5
3CB
  8
回08-記事
  6
CONTINUOUS
 62
     7
 10
3773.56224313135
 20
1344.231589173508
 30
0.0
 40
0.025
  0
CIRCLE
  5
3CC
  8
回08-記事
  6
CONTINUOUS
 62
     7
 10
3773.56224313135
 20
1340.231589173508
 30
0.0
 40
0.025
  0
CIRCLE
  5
3CD
  8
回08-記事
  6
CONTINUOUS
 62
     7
 10
3773.56224313135
 20
1336.231589173508
 30
0.0
 40
0.025
  0
CIRCLE
  5
3CE
  8
回08-記事
  6
CONTINUOUS
 62
     7
 10
3773.56224313135
 20
1332.231589173508
 30
0.0
 40
0.025
  0
CIRCLE
  5
3CF
  8
回08-記事
  6
CONTINUOUS
 62
     7
 10
3773.56224313135
 20
1328.231589173508
 30
0.0
 40
0.025
  0
CIRCLE
  5
3D0
  8
回08-記事
  6
CONTINUOUS
 62
     7
 10
3773.56224313135
 20
1324.231589173508
 30
0.0
 40
0.025
  0
CIRCLE
  5
3D1
  8
回08-記事
  6
CONTINUOUS
 62
     7
 10
3773.56224313135
 20
1320.231589173508
 30
0.0
 40
0.025
  0
CIRCLE
  5
3D2
  8
回08-記事
  6
CONTINUOUS
 62
     7
 10
3773.56224313135
 20
1316.231589173508
 30
0.0
 40
0.025
  0
CIRCLE
  5
3D3
  8
回08-記事
  6
CONTINUOUS
 62
     7
 10
3773.56224313135
 20
1312.231589173508
 30
0.0
 40
0.025
  0
CIRCLE
  5
3D4
  8
回08-記事
  6
CONTINUOUS
 62
     7
 10
3773.56224313135
 20
1308.231589173508
 30
0.0
 40
0.025
  0
CIRCLE
  5
3D5
  8
回08-記事
  6
CONTINUOUS
 62
     7
 10
3769.56224313135
 20
1344.231589173508
 30
0.0
 40
0.025
  0
CIRCLE
  5
3D6
  8
回08-記事
  6
CONTINUOUS
 62
     7
 10
3769.56224313135
 20
1340.231589173508
 30
0.0
 40
0.025
  0
CIRCLE
  5
3D7
  8
回08-記事
  6
CONTINUOUS
 62
     7
 10
3769.56224313135
 20
1336.231589173508
 30
0.0
 40
0.025
  0
CIRCLE
  5
3D8
  8
回08-記事
  6
CONTINUOUS
 62
     7
 10
3769.56224313135
 20
1332.231589173508
 30
0.0
 40
0.025
  0
CIRCLE
  5
3D9
  8
回08-記事
  6
CONTINUOUS
 62
     7
 10
3769.56224313135
 20
1328.231589173508
 30
0.0
 40
0.025
  0
CIRCLE
  5
3DA
  8
回08-記事
  6
CONTINUOUS
 62
     7
 10
3769.56224313135
 20
1324.231589173508
 30
0.0
 40
0.025
  0
CIRCLE
  5
3DB
  8
回08-記事
  6
CONTINUOUS
 62
     7
 10
3769.56224313135
 20
1320.231589173508
 30
0.0
 40
0.025
  0
CIRCLE
  5
3DC
  8
回08-記事
  6
CONTINUOUS
 62
     7
 10
3769.56224313135
 20
1316.231589173508
 30
0.0
 40
0.025
  0
CIRCLE
  5
3DD
  8
回08-記事
  6
CONTINUOUS
 62
     7
 10
3769.56224313135
 20
1312.231589173508
 30
0.0
 40
0.025
  0
CIRCLE
  5
3DE
  8
回08-記事
  6
CONTINUOUS
 62
     7
 10
3769.56224313135
 20
1308.231589173508
 30
0.0
 40
0.025
  0
CIRCLE
  5
3DF
  8
回08-記事
  6
CONTINUOUS
 62
     7
 10
3765.562243131351
 20
1344.231589173508
 30
0.0
 40
0.025
  0
CIRCLE
  5
3E0
  8
回08-記事
  6
CONTINUOUS
 62
     7
 10
3765.562243131351
 20
1340.231589173508
 30
0.0
 40
0.025
  0
CIRCLE
  5
3E1
  8
回08-記事
  6
CONTINUOUS
 62
     7
 10
3765.562243131351
 20
1336.231589173508
 30
0.0
 40
0.025
  0
CIRCLE
  5
3E2
  8
回08-記事
  6
CONTINUOUS
 62
     7
 10
3765.562243131351
 20
1332.231589173508
 30
0.0
 40
0.025
  0
CIRCLE
  5
3E3
  8
回08-記事
  6
CONTINUOUS
 62
     7
 10
3765.562243131351
 20
1328.231589173508
 30
0.0
 40
0.025
  0
CIRCLE
  5
3E4
  8
回08-記事
  6
CONTINUOUS
 62
     7
 10
3765.562243131351
 20
1324.231589173508
 30
0.0
 40
0.025
  0
CIRCLE
  5
3E5
  8
回08-記事
  6
CONTINUOUS
 62
     7
 10
3765.562243131351
 20
1320.231589173508
 30
0.0
 40
0.025
  0
CIRCLE
  5
3E6
  8
回08-記事
  6
CONTINUOUS
 62
     7
 10
3765.562243131351
 20
1316.231589173508
 30
0.0
 40
0.025
  0
CIRCLE
  5
3E7
  8
回08-記事
  6
CONTINUOUS
 62
     7
 10
3765.562243131351
 20
1312.231589173508
 30
0.0
 40
0.025
  0
CIRCLE
  5
3E8
  8
回08-記事
  6
CONTINUOUS
 62
     7
 10
3765.562243131351
 20
1308.231589173508
 30
0.0
 40
0.025
  0
CIRCLE
  5
3E9
  8
回08-記事
  6
CONTINUOUS
 62
     7
 10
3761.562243131351
 20
1344.231589173508
 30
0.0
 40
0.025
  0
CIRCLE
  5
3EA
  8
回08-記事
  6
CONTINUOUS
 62
     7
 10
3761.562243131351
 20
1340.231589173508
 30
0.0
 40
0.025
  0
CIRCLE
  5
3EB
  8
回08-記事
  6
CONTINUOUS
 62
     7
 10
3761.562243131351
 20
1336.231589173508
 30
0.0
 40
0.025
  0
CIRCLE
  5
3EC
  8
回08-記事
  6
CONTINUOUS
 62
     7
 10
3761.562243131351
 20
1332.231589173508
 30
0.0
 40
0.025
  0
CIRCLE
  5
3ED
  8
回08-記事
  6
CONTINUOUS
 62
     7
 10
3761.562243131351
 20
1328.231589173508
 30
0.0
 40
0.025
  0
CIRCLE
  5
3EE
  8
回08-記事
  6
CONTINUOUS
 62
     7
 10
3761.562243131351
 20
1324.231589173508
 30
0.0
 40
0.025
  0
CIRCLE
  5
3EF
  8
回08-記事
  6
CONTINUOUS
 62
     7
 10
3761.562243131351
 20
1320.231589173508
 30
0.0
 40
0.025
  0
CIRCLE
  5
3F0
  8
回08-記事
  6
CONTINUOUS
 62
     7
 10
3761.562243131351
 20
1316.231589173508
 30
0.0
 40
0.025
  0
CIRCLE
  5
3F1
  8
回08-記事
  6
CONTINUOUS
 62
     7
 10
3761.562243131351
 20
1312.231589173508
 30
0.0
 40
0.025
  0
CIRCLE
  5
3F2
  8
回08-記事
  6
CONTINUOUS
 62
     7
 10
3761.562243131351
 20
1308.231589173508
 30
0.0
 40
0.025
  0
POLYLINE
  5
3F3
  8
回08-記事
  6
PHANTOM2
 62
     7
 66
     1
 10
0.0
 20
0.0
 30
0.0
 70
     1
  0
VERTEX
  5
A73
  8
回08-記事
  6
PHANTOM2
 62
     7
 10
3553.91224313135
 20
1225.981589173508
 30
0.0
  0
VERTEX
  5
A75
  8
回08-記事
  6
PHANTOM2
 62
     7
 10
3969.21224313135
 20
1225.981589173508
 30
0.0
  0
VERTEX
  5
A76
  8
回08-記事
  6
PHANTOM2
 62
     7
 10
3969.21224313135
 20
1462.481589173508
 30
0.0
  0
VERTEX
  5
A77
  8
回08-記事
  6
PHANTOM2
 62
     7
 10
3553.91224313135
 20
1462.481589173508
 30
0.0
  0
SEQEND
  5
A74
  8
回07-寸法
  6
CONTINUOUS
 62
     7
  0
POLYLINE
  5
3F5
  8
回04-下接
  6
CONTINUOUS
 62
     7
 66
     1
 10
0.0
 20
0.0
 30
0.0
 70
     1
  0
VERTEX
  5
A78
  8
回04-下接
  6
CONTINUOUS
 62
     7
 10
3546.21224313135
 20
1469.231589173508
 30
0.0
  0
VERTEX
  5
A7A
  8
回04-下接
  6
CONTINUOUS
 62
     7
 10
3974.71224313135
 20
1469.231589173508
 30
0.0
  0
VERTEX
  5
A7B
  8
回04-下接
  6
CONTINUOUS
 62
     7
 10
3974.71224313135
 20
1219.231589173508
 30
0.0
  0
VERTEX
  5
A7C
  8
回04-下接
  6
CONTINUOUS
 62
     7
 10
3546.21224313135
 20
1219.231589173508
 30
0.0
  0
SEQEND
  5
A79
  8
回07-寸法
  6
CONTINUOUS
 62
     7
  0
TEXT
  5
3F9
  8
回08-記事
  6
CONTINUOUS
 62
     7
 10
3465.718120628149
 20
1341.579848119891
 30
0.0
 40
3.0
  1
1
 50
90.0
  0
TEXT
  5
3FA
  8
回08-記事
  6
CONTINUOUS
 62
     7
 10
3465.695227672359
 20
1345.031957490089
 30
0.0
 40
3.0
  1
4
 50
90.0
  0
INSERT
  5
3FB
  8
回08-記事
  6
CONTINUOUS
 62
     7
 66
     1
  2
*X8383
 10
0.0
 20
0.0
 30
0.0
1001
ACAD
1000
HATCH
1002
{
1070
    19
1000
ANSI31
1040
0.5
1040
6.283185307179585
1000
ASC_BOUNDS
1070
     1
1070
     2
1070
     1
1005
3FC
1000
ASC_SEEDPOINT
1011
3795.41705017324
1021
1127.242780216898
1031
0.0
1000
R14_HATCH_DATA
1000
3FB
1011
1.0
1021
0.0
1031
0.0
1011
0.0
1021
1.0
1031
0.0
1011
0.0
1021
0.0
1031
1.0
1040
0.0
1010
0.0
1020
0.0
1030
1.0
1000
ANSI31
1070
     0
1070
     1
1071
        1
1071
        1
1071
        4
1070
     1
1040
3550.312243131351
1040
1342.992448298068
1040
3542.112243131351
1040
1342.992448298068
1070
     1
1040
3542.112243131351
1040
1342.992448298068
1040
3542.112243131351
1040
1336.992448298068
1070
     1
1040
3542.112243131351
1040
1336.992448298068
1040
3550.312243131351
1040
1336.992448298068
1070
     1
1040
3550.312243131351
1040
1336.992448298068
1040
3550.312243131351
1040
1342.992448298068
1071
        1
1005
3FC
1070
     0
1070
     1
1040
6.283185307179585
1040
0.5
1070
     0
1070
     1
1040
0.7853981633974481
1040
3795.41705017324
1040
1127.242780216898
1040
-1.122532015133643
1040
1.122532015133643
1070
     0
1071
        1
1040
3795.41705017324
1040
1127.242780216898
1040
0.0
1002
}
  0
SEQEND
  5
705
  8
回07-寸法
  6
CONTINUOUS
 62
     7
  0
POLYLINE
  5
3FC
  8
回08-記事
  6
CONTINUOUS
 62
     7
 66
     1
 10
0.0
 20
0.0
 30
0.0
 70
     1
1001
ACAD
1000
ASC_BOUNDS
1002
{
1070
    19
1005
3FB
1002
}
  0
VERTEX
  5
A7D
  8
回08-記事
  6
CONTINUOUS
 62
     7
 10
3550.312243131351
 20
1342.992448298068
 30
0.0
  0
VERTEX
  5
A7F
  8
回08-記事
  6
CONTINUOUS
 62
     7
 10
3542.112243131351
 20
1342.992448298068
 30
0.0
  0
VERTEX
  5
A80
  8
回08-記事
  6
CONTINUOUS
 62
     7
 10
3542.112243131351
 20
1336.992448298068
 30
0.0
  0
VERTEX
  5
A81
  8
回08-記事
  6
CONTINUOUS
 62
     7
 10
3550.312243131351
 20
1336.992448298068
 30
0.0
  0
SEQEND
  5
A7E
  8
回07-寸法
  6
CONTINUOUS
 62
     7
  0
LINE
  5
3FD
  8
回05-ﾃｰﾙ
  6
BYBLOCK
 62
     7
 10
3546.71224313135
 20
1334.242448298068
 30
0.0
 11
3546.71224313135
 21
1334.242448298068
 31
0.0
  0
POLYLINE
  5
401
  8
回05-ﾃｰﾙ
  6
BYBLOCK
 62
     7
 66
     1
 10
0.0
 20
0.0
 30
0.0
  0
VERTEX
  5
A82
  8
回05-ﾃｰﾙ
  6
BYBLOCK
 62
     7
 10
3546.712243131351
 20
1354.242448298059
 30
0.0
  0
VERTEX
  5
A84
  8
回05-ﾃｰﾙ
  6
BYBLOCK
 62
     7
 10
3549.712243131351
 20
1354.242448298059
 30
0.0
  0
VERTEX
  5
A85
  8
回05-ﾃｰﾙ
  6
BYBLOCK
 62
     7
 10
3549.712243131351
 20
1344.742448298059
 30
0.0
  0
VERTEX
  5
A86
  8
回05-ﾃｰﾙ
  6
BYBLOCK
 62
     7
 10
3544.212243131351
 20
1344.742448298059
 30
0.0
 42
1.021970931653833
  0
VERTEX
  5
A87
  8
回05-ﾃｰﾙ
  6
BYBLOCK
 62
     7
 10
3544.233967628357
 20
1343.742920474781
 30
0.0
  0
VERTEX
  5
A88
  8
回05-ﾃｰﾙ
  6
BYBLOCK
 62
     7
 10
3549.712243131351
 20
1343.742448298059
 30
0.0
  0
VERTEX
  5
A89
  8
回05-ﾃｰﾙ
  6
BYBLOCK
 62
     7
 10
3549.712243131351
 20
1334.242448298059
 30
0.0
  0
VERTEX
  5
A8A
  8
回05-ﾃｰﾙ
  6
BYBLOCK
 62
     7
 10
3546.712243131351
 20
1334.242448298059
 30
0.0
 42
0.4142135623730951
  0
VERTEX
  5
A8B
  8
回05-ﾃｰﾙ
  6
BYBLOCK
 62
     7
 10
3544.712243131351
 20
1336.24244829806
 30
0.0
  0
VERTEX
  5
A8C
  8
回05-ﾃｰﾙ
  6
BYBLOCK
 62
     7
 10
3542.024486808691
 20
1336.24244829806
 30
0.0
 42
-0.1982610926034393
  0
VERTEX
  5
A8D
  8
回05-ﾃｰﾙ
  6
BYBLOCK
 62
     7
 10
3541.319154440174
 20
1336.533571545781
 30
0.0
  0
VERTEX
  5
A8E
  8
回05-ﾃｰﾙ
  6
BYBLOCK
 62
     7
 10
3537.008874199995
 20
1340.822300384758
 30
0.0
 42
0.1982460661155559
  0
VERTEX
  5
A8F
  8
回05-ﾃｰﾙ
  6
BYBLOCK
 62
     7
 10
3536.303599664338
 20
1341.113423630808
 30
0.0
  0
VERTEX
  5
A90
  8
回05-ﾃｰﾙ
  6
BYBLOCK
 62
     7
 10
3466.712199620583
 20
1341.11744829806
 30
0.0
 42
-0.4142135623730951
  0
VERTEX
  5
A91
  8
回05-ﾃｰﾙ
  6
BYBLOCK
 62
     7
 10
3466.212199620583
 20
1341.61744829806
 30
0.0
  0
VERTEX
  5
A92
  8
回05-ﾃｰﾙ
  6
BYBLOCK
 62
     7
 10
3466.212199620583
 20
1346.867448298059
 30
0.0
 42
-0.4142135623730951
  0
VERTEX
  5
A93
  8
回05-ﾃｰﾙ
  6
BYBLOCK
 62
     7
 10
3466.712199620583
 20
1347.36744829806
 30
0.0
  0
VERTEX
  5
A94
  8
回05-ﾃｰﾙ
  6
BYBLOCK
 62
     7
 10
3536.300980562574
 20
1347.36744829806
 30
0.0
 42
0.1983816813358623
  0
VERTEX
  5
A95
  8
回05-ﾃｰﾙ
  6
BYBLOCK
 62
     7
 10
3537.006641845664
 20
1347.658898967705
 30
0.0
  0
VERTEX
  5
A96
  8
回05-ﾃｰﾙ
  6
BYBLOCK
 62
     7
 10
3541.31509884386
 20
1351.949794694004
 30
0.0
 42
-0.1982655609048175
  0
VERTEX
  5
A97
  8
回05-ﾃｰﾙ
  6
BYBLOCK
 62
     7
 10
3542.020313222985
 20
1352.241245263788
 30
0.0
  0
VERTEX
  5
A98
  8
回05-ﾃｰﾙ
  6
BYBLOCK
 62
     7
 10
3544.713136939282
 20
1352.242448697506
 30
0.0
 42
0.4140826732844626
  0
VERTEX
  5
A99
  8
回05-ﾃｰﾙ
  6
BYBLOCK
 62
     7
 10
3546.712243131351
 20
1354.242448497783
 30
0.0
  0
SEQEND
  5
A83
  8
回07-寸法
  6
CONTINUOUS
 62
     7
  0
POLYLINE
  5
402
  8
回08-記事
  6
CONTINUOUS
 62
     7
 66
     1
 10
0.0
 20
0.0
 30
0.0
 70
     1
  0
VERTEX
  5
A9A
  8
回08-記事
  6
CONTINUOUS
 62
     7
 10
3554.41224313135
 20
1226.781589173508
 30
0.0
  0
VERTEX
  5
A9C
  8
回08-記事
  6
CONTINUOUS
 62
     7
 10
3968.712243131351
 20
1226.781589173508
 30
0.0
  0
VERTEX
  5
A9D
  8
回08-記事
  6
CONTINUOUS
 62
     7
 10
3968.712243131351
 20
1461.681589173508
 30
0.0
  0
VERTEX
  5
A9E
  8
回08-記事
  6
CONTINUOUS
 62
     7
 10
3554.41224313135
 20
1461.681589173508
 30
0.0
  0
SEQEND
  5
A9B
  8
回07-寸法
  6
CONTINUOUS
 62
     7
  0
POLYLINE
  5
403
  8
回08-記事
  6
CONTINUOUS
 62
     7
 66
     1
 10
0.0
 20
0.0
 30
0.0
 70
     1
  0
VERTEX
  5
A9F
  8
回08-記事
  6
CONTINUOUS
 62
     7
 10
3556.41224313135
 20
1228.781589173508
 30
0.0
  0
VERTEX
  5
AA1
  8
回08-記事
  6
CONTINUOUS
 62
     7
 10
3966.712243131349
 20
1228.781589173508
 30
0.0
  0
VERTEX
  5
AA2
  8
回08-記事
  6
CONTINUOUS
 62
     7
 10
3966.712243131349
 20
1459.681589173508
 30
0.0
  0
VERTEX
  5
AA3
  8
回08-記事
  6
CONTINUOUS
 62
     7
 10
3556.41224313135
 20
1459.681589173508
 30
0.0
  0
SEQEND
  5
AA0
  8
回07-寸法
  6
CONTINUOUS
 62
     7
  0
TEXT
  5
404
  8
回03-記事
  6
CONTINUOUS
 62
     7
 10
4071.167725175025
 20
1426.931366568391
 30
0.0
 40
9.599999999999999
  1
Pin Assignment
  0
LINE
  5
405
  8
回03-記事
  6
CONTINUOUS
 62
     7
 10
4135.49224819144
 20
1472.864675291073
 30
0.0
 11
4135.49224819144
 21
1519.664675291073
 31
0.0
  0
LINE
  5
406
  8
回03-記事
  6
CONTINUOUS
 62
     7
 10
4161.232248191438
 20
1447.124675291073
 30
0.0
 11
4161.232248191438
 21
1545.404675291073
 31
0.0
  0
TEXT
  5
407
  8
回03-記事
  6
CONTINUOUS
 62
     7
 10
4059.554195072792
 20
1515.990396228487
 30
0.0
 40
7.488000000000001
  1
3
  0
TEXT
  5
408
  8
回03-記事
  6
CONTINUOUS
 62
     7
 10
4059.126311420725
 20
1541.972077529119
 30
0.0
 40
7.488000000000001
  1
4
  0
LINE
  5
409
  8
回03-記事
  6
CONTINUOUS
 62
     7
 10
4123.885848191441
 20
1475.298275291072
 30
0.0
 11
4127.255448191441
 21
1468.559075291072
 31
0.0
  0
LINE
  5
40A
  8
回03-記事
  6
CONTINUOUS
 62
     7
 10
4127.255448191441
 20
1468.559075291072
 30
0.0
 11
4129.408248191441
 21
1472.864675291073
 31
0.0
  0
LINE
  5
40B
  8
回03-記事
  6
CONTINUOUS
 62
     7
 10
4117.146648191439
 20
1475.298275291072
 30
0.0
 11
4120.516248191441
 21
1468.559075291072
 31
0.0
  0
LINE
  5
40C
  8
回03-記事
  6
CONTINUOUS
 62
     7
 10
4113.777048191441
 20
1468.559075291072
 30
0.0
 11
4117.146648191439
 21
1475.298275291072
 31
0.0
  0
LINE
  5
40D
  8
回03-記事
  6
CONTINUOUS
 62
     7
 10
4120.516248191441
 20
1468.559075291072
 30
0.0
 11
4123.885848191441
 21
1475.298275291072
 31
0.0
  0
LINE
  5
40E
  8
回03-記事
  6
CONTINUOUS
 62
     7
 10
4103.668248191439
 20
1475.298275291072
 30
0.0
 11
4107.037848191441
 21
1468.559075291072
 31
0.0
  0
LINE
  5
40F
  8
回03-記事
  6
CONTINUOUS
 62
     7
 10
4103.106648191441
 20
1468.839875291072
 30
0.0
 11
4109.845848191441
 21
1472.209475291073
 31
0.0
  0
LINE
  5
410
  8
回03-記事
  6
CONTINUOUS
 62
     7
 10
4103.106648191441
 20
1468.839875291072
 30
0.0
 11
4109.845848191441
 21
1465.470275291074
 31
0.0
  0
LINE
  5
411
  8
回03-記事
  6
CONTINUOUS
 62
     7
 10
4103.106648191441
 20
1462.100675291072
 30
0.0
 11
4109.845848191441
 21
1465.470275291074
 31
0.0
  0
LINE
  5
412
  8
回03-記事
  6
CONTINUOUS
 62
     7
 10
4103.106648191441
 20
1455.361475291072
 30
0.0
 11
4109.845848191441
 21
1458.731075291073
 31
0.0
  0
LINE
  5
413
  8
回03-記事
  6
CONTINUOUS
 62
     7
 10
4103.106648191441
 20
1462.100675291072
 30
0.0
 11
4109.845848191441
 21
1458.731075291073
 31
0.0
  0
LINE
  5
414
  8
回03-記事
  6
CONTINUOUS
 62
     7
 10
4103.106648191441
 20
1475.579075291072
 30
0.0
 11
4109.845848191441
 21
1478.948675291072
 31
0.0
  0
LINE
  5
415
  8
回03-記事
  6
CONTINUOUS
 62
     7
 10
4103.106648191441
 20
1482.318275291072
 30
0.0
 11
4109.845848191441
 21
1485.687875291072
 31
0.0
  0
LINE
  5
416
  8
回03-記事
  6
CONTINUOUS
 62
     7
 10
4103.106648191441
 20
1482.318275291072
 30
0.0
 11
4109.845848191441
 21
1478.948675291072
 31
0.0
  0
LINE
  5
417
  8
回03-記事
  6
CONTINUOUS
 62
     7
 10
4103.106648191441
 20
1475.579075291072
 30
0.0
 11
4109.845848191441
 21
1472.209475291073
 31
0.0
  0
LINE
  5
418
  8
回03-記事
  6
CONTINUOUS
 62
     7
 10
4096.92904819144
 20
1475.298275291072
 30
0.0
 11
4100.298648191439
 21
1468.559075291072
 31
0.0
  0
LINE
  5
419
  8
回03-記事
  6
CONTINUOUS
 62
     7
 10
4093.559448191441
 20
1468.559075291072
 30
0.0
 11
4096.92904819144
 21
1475.298275291072
 31
0.0
  0
LINE
  5
41A
  8
回03-記事
  6
CONTINUOUS
 62
     7
 10
4088.03704819144
 20
1470.992675291072
 30
0.0
 11
4090.18984819144
 21
1475.298275291072
 31
0.0
  0
LINE
  5
41B
  8
回03-記事
  6
CONTINUOUS
 62
     7
 10
4090.18984819144
 20
1475.298275291072
 30
0.0
 11
4093.559448191441
 21
1468.559075291072
 31
0.0
  0
LINE
  5
41C
  8
回03-記事
  6
CONTINUOUS
 62
     7
 10
4100.298648191439
 20
1468.559075291072
 30
0.0
 11
4103.668248191439
 21
1475.298275291072
 31
0.0
  0
LINE
  5
41D
  8
回03-記事
  6
CONTINUOUS
 62
     7
 10
4106.476248191439
 20
1487.372675291072
 30
0.0
 11
4106.476248191439
 21
1492.988675291072
 31
0.0
  0
LINE
  5
41E
  8
回03-記事
  6
CONTINUOUS
 62
     7
 10
4107.037848191441
 20
1468.559075291072
 30
0.0
 11
4110.407448191441
 21
1475.298275291072
 31
0.0
  0
LINE
  5
41F
  8
回03-記事
  6
CONTINUOUS
 62
     7
 10
4106.476248191439
 20
1487.372675291072
 30
0.0
 11
4109.845848191441
 21
1485.687875291072
 31
0.0
  0
TEXT
  5
420
  8
回03-記事
  6
CONTINUOUS
 62
     7
 10
4108.314960069196
 20
1494.222820026848
 30
0.0
 40
6.551999999999998
  1
YU
  0
LINE
  5
421
  8
回03-記事
  6
CONTINUOUS
 62
     7
 10
4110.407448191441
 20
1475.298275291072
 30
0.0
 11
4113.777048191441
 21
1468.559075291072
 31
0.0
  0
LINE
  5
422
  8
回03-記事
  6
CONTINUOUS
 62
     7
 10
4106.476248191439
 20
1447.124675291073
 30
0.0
 11
4106.476248191439
 21
1453.676675291072
 31
0.0
  0
LINE
  5
423
  8
回03-記事
  6
CONTINUOUS
 62
     7
 10
4103.106648191441
 20
1455.361475291072
 30
0.0
 11
4106.476248191439
 21
1453.676675291072
 31
0.0
  0
TEXT
  5
424
  8
回03-記事
  6
CONTINUOUS
 62
     7
 10
4089.264494393034
 20
1449.793568721463
 30
0.0
 40
6.551999999999998
  1
YD
  0
TEXT
  5
425
  8
回03-記事
  6
CONTINUOUS
 62
     7
 10
4075.068728381371
 20
1473.737266487367
 30
0.0
 40
6.551999999999998
  1
XL
  0
TEXT
  5
426
  8
回03-記事
  6
CONTINUOUS
 62
     7
 10
4059.8445785651
 20
1467.282034954847
 30
0.0
 40
7.488000000000001
  1
1
  0
TEXT
  5
427
  8
回03-記事
  6
CONTINUOUS
 62
     7
 10
4059.270389011433
 20
1490.141141553547
 30
0.0
 40
7.488000000000001
  1
2
  0
LINE
  5
428
  8
回03-記事
  6
CONTINUOUS
 62
     7
 10
4067.16424819144
 20
1492.988675291072
 30
0.0
 11
4106.476248191439
 21
1492.988675291072
 31
0.0
  0
LINE
  5
429
  8
回03-記事
  6
CONTINUOUS
 62
     7
 10
4067.16424819144
 20
1470.992675291072
 30
0.0
 11
4088.03704819144
 21
1470.992675291072
 31
0.0
  0
LINE
  5
42A
  8
回03-記事
  6
CONTINUOUS
 62
     7
 10
4106.476248191439
 20
1447.124675291073
 30
0.0
 11
4161.232248191438
 21
1447.124675291073
 31
0.0
  0
LINE
  5
42B
  8
回03-記事
  6
CONTINUOUS
 62
     7
 10
4067.16424819144
 20
1545.404675291073
 30
0.0
 11
4161.232248191438
 21
1545.404675291073
 31
0.0
  0
LINE
  5
42C
  8
回03-記事
  6
CONTINUOUS
 62
     7
 10
4067.16424819144
 20
1519.664675291073
 30
0.0
 11
4135.49224819144
 21
1519.664675291073
 31
0.0
  0
LINE
  5
42D
  8
回03-記事
  6
CONTINUOUS
 62
     7
 10
4129.408248191441
 20
1472.864675291073
 30
0.0
 11
4135.49224819144
 21
1472.864675291073
 31
0.0
  0
TEXT
  5
42E
  8
回03-記事
  6
CONTINUOUS
 62
     7
 10
4129.764190005402
 20
1463.308829198334
 30
0.0
 40
6.551999999999998
  1
XR
  0
LINE
  5
42F
  8
回04-図面枠
  6
CONTINUOUS
 62
     7
 10
4161.752220898402
 20
1047.395621288704
 30
0.0
 11
4161.752220898402
 21
1067.195621288704
 31
0.0
  0
LINE
  5
431
  8
回04-図面枠
  6
CENTER2
 62
     7
 10
4172.082688696832
 20
1050.185390654006
 30
0.0
 11
4172.082688696832
 21
1064.045510936218
 31
0.0
  0
LINE
  5
432
  8
回04-図面枠
  6
CONTINUOUS
 62
     7
 10
4181.520345133708
 20
1054.189177831646
 30
0.0
 11
4191.758539334154
 21
1051.583028621614
 31
0.0
  0
LINE
  5
433
  8
回04-図面枠
  6
CONTINUOUS
 62
     7
 10
4181.520345133708
 20
1060.041723758577
 30
0.0
 11
4191.758539334154
 21
1062.647872968611
 31
0.0
  0
LINE
  5
434
  8
回04-図面枠
  6
CONTINUOUS
 62
     7
 10
4191.758539334154
 20
1062.647872968611
 30
0.0
 11
4191.758539334154
 21
1051.583028621614
 31
0.0
  0
LINE
  5
435
  8
回04-図面枠
  6
CONTINUOUS
 62
     7
 10
4181.520345133708
 20
1060.041723758577
 30
0.0
 11
4181.520345133708
 21
1054.189177831646
 31
0.0
  0
LINE
  5
436
  8
回04-図面枠
  6
CENTER2
 62
     7
 10
4165.728860158678
 20
1057.115450795112
 30
0.0
 11
4192.665933413876
 21
1057.115450795112
 31
0.0
  0
CIRCLE
  5
437
  8
回04-図面枠
  6
CONTINUOUS
 62
     7
 10
4172.082688696832
 20
1057.115450795112
 30
0.0
 40
2.926272963466085
  0
CIRCLE
  5
438
  8
回04-図面枠
  6
CONTINUOUS
 62
     7
 10
4172.082688696832
 20
1057.115450795112
 30
0.0
 40
5.532422173497662
  0
TEXT
  5
439
  8
回03-記事
  6
CONTINUOUS
 62
     7
 10
4094.447218700742
 20
1132.411683822737
 30
0.0
 40
6.676899102719997
  1
PROTECTION TAPE
  0
TEXT
  5
43A
  8
回03-記事
  6
CONTINUOUS
 62
     7
 10
4084.021943011363
 20
1132.376409065679
 30
0.0
 40
6.943975066828802
  1
6
  0
LINE
  5
43B
  8
回03-記事
  6
CONTINUOUS
 62
     7
 10
4080.474228510548
 20
1130.382595651346
 30
0.0
 11
4183.917659760445
 21
1130.382595651346
 31
0.0
  0
TEXT
  5
43C
  8
回03-記事
  6
CONTINUOUS
 62
     7
 10
4093.599638143717
 20
1155.269201950806
 30
0.0
 40
6.943975066828802
  1
STIFFENER
  0
TEXT
  5
43D
  8
回03-記事
  6
CONTINUOUS
 62
     7
 10
4093.599638143717
 20
1143.695910172759
 30
0.0
 40
6.943975066828802
  1
REINFORCEMENT FILM
  0
TEXT
  5
43E
  8
回03-記事
  6
CONTINUOUS
 62
     7
 10
4120.927767484924
 20
1202.02285332486
 30
0.0
 40
6.943975066828802
  1
ITEM
  0
LINE
  5
43F
  8
回03-記事
  6
CONTINUOUS
 62
     7
 10
4183.917659760445
 20
1130.382595651346
 30
0.0
 11
4183.917659760445
 21
1211.395638097682
 31
0.0
  0
TEXT
  5
440
  8
回03-記事
  6
CONTINUOUS
 62
     7
 10
4084.021943011363
 20
1167.096284399819
 30
0.0
 40
6.943975066828802
  1
3
  0
TEXT
  5
441
  8
回03-記事
  6
CONTINUOUS
 62
     7
 10
4084.021943011363
 20
1155.522992621774
 30
0.0
 40
6.943975066828802
  1
4
  0
TEXT
  5
442
  8
回03-記事
  6
CONTINUOUS
 62
     7
 10
4084.021943011363
 20
1178.669576177874
 30
0.0
 40
6.943975066828802
  1
2
  0
TEXT
  5
443
  8
回03-記事
  6
CONTINUOUS
 62
     7
 10
4084.021943011363
 20
1143.949700843728
 30
0.0
 40
6.943975066828802
  1
5
  0
LINE
  5
444
  8
回03-記事
  6
CONTINUOUS
 62
     7
 10
4092.515785420538
 20
1211.395638097682
 30
0.0
 11
4092.515785420538
 21
1130.382595651346
 31
0.0
  0
LINE
  5
445
  8
回03-記事
  6
CONTINUOUS
 62
     7
 10
4080.474228510548
 20
1211.395638097682
 30
0.0
 11
4080.474228510548
 21
1130.382595651346
 31
0.0
  0
TEXT
  5
446
  8
回03-記事
  6
CONTINUOUS
 62
     7
 10
4084.021943011363
 20
1190.242867955918
 30
0.0
 40
6.943975066828802
  1
1
  0
LINE
  5
447
  8
回03-記事
  6
CONTINUOUS
 62
     7
 10
4080.474228510548
 20
1141.955887429394
 30
0.0
 11
4183.917659760445
 21
1141.955887429394
 31
0.0
  0
LINE
  5
448
  8
回03-記事
  6
CONTINUOUS
 62
     7
 10
4080.474228510548
 20
1211.395638097682
 30
0.0
 11
4183.917659760445
 21
1211.395638097682
 31
0.0
  0
LINE
  5
449
  8
回03-記事
  6
CONTINUOUS
 62
     7
 10
4080.474228510548
 20
1188.249054541589
 30
0.0
 11
4183.917659760445
 21
1188.249054541582
 31
0.0
  0
LINE
  5
44A
  8
回03-記事
  6
CONTINUOUS
 62
     7
 10
4080.474228510548
 20
1199.822346319636
 30
0.0
 11
4183.917659760445
 21
1199.822346319636
 31
0.0
  0
LINE
  5
44B
  8
回03-記事
  6
CONTINUOUS
 62
     7
 10
4080.474228510548
 20
1153.529179207444
 30
0.0
 11
4183.917659760445
 21
1153.529179207444
 31
0.0
  0
LINE
  5
44C
  8
回03-記事
  6
CONTINUOUS
 62
     7
 10
4080.474228510548
 20
1165.102470985491
 30
0.0
 11
4183.917659760445
 21
1165.102470985491
 31
0.0
  0
LINE
  5
44D
  8
回03-記事
  6
CONTINUOUS
 62
     7
 10
4080.474228510548
 20
1176.675762763539
 30
0.0
 11
4183.917659760445
 21
1176.675762763539
 31
0.0
  0
TEXT
  5
44E
  8
回03-記事
  6
CONTINUOUS
 62
     7
 10
4093.599638143717
 20
1190.093907032322
 30
0.0
 40
6.943975066828802
  1
ITO FILM
  0
TEXT
  5
44F
  8
回03-記事
  6
CONTINUOUS
 62
     7
 10
4093.599638143717
 20
1178.520615254272
 30
0.0
 40
6.943975066828802
  1
ITO GLASS
  0
TEXT
  5
450
  8
回03-記事
  6
CONTINUOUS
 62
     7
 10
4093.599638143717
 20
1166.94732347622
 30
0.0
 40
6.943975066828802
  1
TAIL
  0
TEXT
  5
451
  8
回04-図面枠
 62
     7
 10
4081.829682232371
 20
1076.615093576593
 30
0.0
 40
9.899999999999996
  1
Sep/08/2023
 72
     1
 11
4120.439682232372
 21
1076.615093576593
 31
0.0
  0
TEXT
  5
452
  8
回04-図面枠
  6
CONTINUOUS
 62
     7
 10
4110.442127840733
 20
1098.275178669525
 30
0.0
 40
5.939999999999998
  1
DATE
  0
TEXT
  5
453
  8
回04-図面枠
 62
     7
 10
4065.102011414955
 20
1052.420282806345
 30
0.0
 40
9.899999999999996
  1
DMC Co., Ltd.
 72
     1
 11
4104.454511414955
 21
1052.420282806345
 31
0.0
  0
TEXT
  5
454
  8
回04-図面枠
 62
     7
 10
3933.329682232373
 20
1082.029548035263
 30
0.0
 40
9.899999999999996
  1
LST-185WB080A
 72
     1
 11
3981.839682232373
 21
1082.029548035263
 31
0.0
  0
TEXT
  5
455
  8
回04-図面枠
 62
     7
 10
3963.128682232373
 20
1098.771182069043
 30
0.0
 40
5.939999999999998
  1
PART　No.
 72
     1
 11
3981.839682232373
 21
1098.771182069043
 31
0.0
  0
LINE
  5
456
  8
回04-図面枠
 62
     7
 10
3923.429682232372
 20
1057.295621288704
 30
0.0
 11
4040.249682232373
 21
1057.295621288704
 31
0.0
  0
TEXT
  5
457
  8
回04-図面枠
 62
     7
 10
3935.507682232373
 20
1059.572682136848
 30
0.0
 40
5.939999999999998
  1
STANDARD TOUCHSCREEN
 72
     1
 11
3981.839682232373
 21
1059.572682136848
 31
0.0
  0
TEXT
  5
458
  8
回04-図面枠
 62
     7
 10
3948.872682232373
 20
1049.672682136849
 30
0.0
 40
5.939999999999998
  1
CIRCUIT　DRAWING
 72
     1
 11
3981.839682232373
 21
1049.672682136849
 31
0.0
  0
LINE
  5
459
  8
回04-図面枠
 62
     7
 10
4046.189682232372
 20
1106.795621288704
 30
0.0
 11
4046.189682232372
 21
1047.395621288704
 31
0.0
  0
TEXT
  5
45A
  8
回04-図面枠
 62
     7
 10
3972.335682232373
 20
1068.667988274063
 30
0.0
 40
5.939999999999998
  1
TYPE
 72
     1
 11
3981.839682232373
 21
1068.667988274063
 31
0.0
  0
LINE
  5
45B
  8
回04-図面枠
 62
     7
 10
3917.489682232373
 20
1106.795621288704
 30
0.0
 11
3917.489682232373
 21
1047.395621288704
 31
0.0
  0
LINE
  5
45C
  8
回04-図面枠
 62
     7
 10
3917.489682232373
 20
1077.095621288704
 30
0.0
 11
4046.189682232372
 21
1077.095621288704
 31
0.0
  0
LINE
  5
45D
  8
回04-図面枠
 62
     7
 10
3917.489682232373
 20
1067.195621288704
 30
0.0
 11
4194.689682232371
 21
1067.195621288704
 31
0.0
  0
LINE
  5
45E
  8
回04-図面枠
 62
     7
 10
3917.489682232373
 20
1106.795621288704
 30
0.0
 11
4194.689682232371
 21
1106.795621288704
 31
0.0
  0
LINE
  5
45F
  8
回04-図面枠
 62
     7
 10
3917.489682232373
 20
1096.895621288704
 30
0.0
 11
4194.689682232371
 21
1096.895621288704
 31
0.0
  0
TEXT
  5
460
  8
回04-図面枠
 62
     7
 10
4153.419067538025
 20
1587.768044414755
 30
0.0
 40
4.0
  1
J
  0
LINE
  5
461
  8
回04-図面枠
 62
     7
 10
4114.689682232373
 20
1592.395621288704
 30
0.0
 11
4114.689682232373
 21
1587.395621288704
 31
0.0
  0
TEXT
  5
462
  8
回04-図面枠
 62
     7
 10
4073.419067538025
 20
1587.768044414755
 30
0.0
 40
4.0
  1
I
  0
LINE
  5
463
  8
回04-図面枠
 62
     7
 10
4034.689682232373
 20
1592.395621288704
 30
0.0
 11
4034.689682232373
 21
1587.395621288704
 31
0.0
  0
TEXT
  5
464
  8
回04-図面枠
 62
     7
 10
4196.09410323603
 20
1540.184308584563
 30
0.0
 40
4.0
  1
1
  0
LINE
  5
465
  8
回04-図面枠
 62
     7
 10
4199.689682232373
 20
1497.395621288704
 30
0.0
 11
4194.689682232371
 21
1497.395621288704
 31
0.0
  0
TEXT
  5
466
  8
回04-図面枠
 62
     7
 10
4195.792604532728
 20
1450.184308584563
 30
0.0
 40
4.0
  1
2
  0
LINE
  5
467
  8
回04-図面枠
 62
     7
 10
4199.689682232373
 20
1407.395621288704
 30
0.0
 11
4194.689682232371
 21
1407.395621288704
 31
0.0
  0
TEXT
  5
468
  8
回04-図面枠
 62
     7
 10
4195.787123688529
 20
1360.184308584563
 30
0.0
 40
4.0
  1
3
  0
LINE
  5
469
  8
回04-図面枠
 62
     7
 10
4199.689682232373
 20
1317.395621288704
 30
0.0
 11
4194.689682232371
 21
1317.395621288704
 31
0.0
  0
TEXT
  5
46A
  8
回04-図面枠
 62
     7
 10
4195.714031568448
 20
1270.184308584563
 30
0.0
 40
4.0
  1
4
  0
LINE
  5
46B
  8
回04-図面枠
 62
     7
 10
4199.689682232373
 20
1227.395621288704
 30
0.0
 11
4194.689682232371
 21
1227.395621288704
 31
0.0
  0
TEXT
  5
46C
  8
回04-図面枠
 62
     7
 10
4195.714031568448
 20
1180.184308584563
 30
0.0
 40
4.0
  1
5
  0
LINE
  5
46D
  8
回04-図面枠
 62
     7
 10
4199.689682232373
 20
1137.395621288704
 30
0.0
 11
4194.689682232371
 21
1137.395621288704
 31
0.0
  0
TEXT
  5
46E
  8
回04-図面枠
 62
     7
 10
4195.714031568448
 20
1090.184308584563
 30
0.0
 40
4.0
  1
6
  0
TEXT
  5
46F
  8
回04-図面枠
 62
     7
 10
4153.419067538025
 20
1042.768044414755
 30
0.0
 40
4.0
  1
J
  0
LINE
  5
470
  8
回04-図面枠
 62
     7
 10
4114.689682232373
 20
1047.395621288704
 30
0.0
 11
4114.689682232373
 21
1042.395621288704
 31
0.0
  0
TEXT
  5
471
  8
回04-図面枠
 62
     7
 10
4073.419067538025
 20
1042.768044414755
 30
0.0
 40
4.0
  1
I
  0
LINE
  5
472
  8
回04-図面枠
 62
     7
 10
4034.689682232373
 20
1047.395621288704
 30
0.0
 11
4034.689682232373
 21
1042.395621288704
 31
0.0
  0
LINE
  5
473
  8
回04-図面枠
 62
     7
 10
4194.689682232371
 20
1587.395621288704
 30
0.0
 11
4194.689682232371
 21
1047.395621288704
 31
0.0
  0
LINE
  5
474
  8
回04-図面枠
 62
     7
 10
4199.689682232373
 20
1042.395621288704
 30
0.0
 11
4199.689682232373
 21
1592.395621288704
 31
0.0
  0
TEXT
  5
475
  8
回04-図面枠
 62
     7
 10
3993.419067538025
 20
1587.768044414755
 30
0.0
 40
4.0
  1
H
  0
LINE
  5
476
  8
回04-図面枠
 62
     7
 10
3954.689682232372
 20
1592.395621288704
 30
0.0
 11
3954.689682232372
 21
1587.395621288704
 31
0.0
  0
TEXT
  5
477
  8
回04-図面枠
 62
     7
 10
3913.419067538026
 20
1587.768044414755
 30
0.0
 40
4.0
  1
G
  0
LINE
  5
478
  8
回04-図面枠
 62
     7
 10
3874.689682232373
 20
1592.395621288704
 30
0.0
 11
3874.689682232373
 21
1587.395621288704
 31
0.0
  0
TEXT
  5
479
  8
回04-図面枠
 62
     7
 10
3833.419067538025
 20
1587.768044414755
 30
0.0
 40
4.0
  1
F
  0
LINE
  5
47A
  8
回04-図面枠
 62
     7
 10
3794.689682232372
 20
1592.395621288704
 30
0.0
 11
3794.689682232372
 21
1587.395621288704
 31
0.0
  0
TEXT
  5
47B
  8
回04-図面枠
 62
     7
 10
3753.419067538025
 20
1587.768044414755
 30
0.0
 40
4.0
  1
E
  0
LINE
  5
47C
  8
回04-図面枠
 62
     7
 10
3714.689682232374
 20
1592.395621288704
 30
0.0
 11
3714.689682232374
 21
1587.395621288704
 31
0.0
  0
TEXT
  5
47D
  8
回04-図面枠
 62
     7
 10
3673.419067538026
 20
1587.768044414755
 30
0.0
 40
4.0
  1
D
  0
LINE
  5
47E
  8
回04-図面枠
 62
     7
 10
3634.689682232373
 20
1592.395621288704
 30
0.0
 11
3634.689682232373
 21
1587.395621288704
 31
0.0
  0
TEXT
  5
47F
  8
回04-図面枠
 62
     7
 10
3593.419067538025
 20
1587.768044414755
 30
0.0
 40
4.0
  1
C
  0
LINE
  5
480
  8
回04-図面枠
 62
     7
 10
3554.689682232373
 20
1592.395621288704
 30
0.0
 11
3554.689682232373
 21
1587.395621288704
 31
0.0
  0
TEXT
  5
481
  8
回04-図面枠
 62
     7
 10
3513.419067538026
 20
1587.768044414755
 30
0.0
 40
4.0
  1
B
  0
LINE
  5
482
  8
回04-図面枠
 62
     7
 10
3474.689682232373
 20
1592.395621288704
 30
0.0
 11
3474.689682232373
 21
1587.395621288704
 31
0.0
  0
TEXT
  5
483
  8
回04-図面枠
 62
     7
 10
3433.419067538025
 20
1587.768044414755
 30
0.0
 40
4.0
  1
A
  0
TEXT
  5
484
  8
回04-図面枠
 62
     7
 10
3391.094103236031
 20
1540.184308584563
 30
0.0
 40
4.0
  1
1
  0
LINE
  5
485
  8
回04-図面枠
 62
     7
 10
3394.689682232372
 20
1497.395621288704
 30
0.0
 11
3389.689682232372
 21
1497.395621288704
 31
0.0
  0
TEXT
  5
486
  8
回04-図面枠
 62
     7
 10
3390.792604532729
 20
1450.184308584563
 30
0.0
 40
4.0
  1
2
  0
LINE
  5
487
  8
回04-図面枠
 62
     7
 10
3394.689682232372
 20
1407.395621288704
 30
0.0
 11
3389.689682232372
 21
1407.395621288704
 31
0.0
  0
TEXT
  5
488
  8
回04-図面枠
 62
     7
 10
3390.787123688529
 20
1360.184308584563
 30
0.0
 40
4.0
  1
3
  0
LINE
  5
489
  8
回04-図面枠
 62
     7
 10
3394.689682232372
 20
1317.395621288704
 30
0.0
 11
3389.689682232372
 21
1317.395621288704
 31
0.0
  0
TEXT
  5
48A
  8
回04-図面枠
 62
     7
 10
3390.71403156845
 20
1270.184308584563
 30
0.0
 40
4.0
  1
4
  0
LINE
  5
48B
  8
回04-図面枠
 62
     7
 10
3394.689682232372
 20
1227.395621288704
 30
0.0
 11
3389.689682232372
 21
1227.395621288704
 31
0.0
  0
TEXT
  5
48C
  8
回04-図面枠
 62
     7
 10
3390.71403156845
 20
1180.184308584563
 30
0.0
 40
4.0
  1
5
  0
TEXT
  5
48D
  8
回04-図面枠
 62
     7
 10
3993.419067538025
 20
1042.768044414755
 30
0.0
 40
4.0
  1
H
  0
LINE
  5
48E
  8
回04-図面枠
 62
     7
 10
3954.689682232372
 20
1047.395621288704
 30
0.0
 11
3954.689682232372
 21
1042.395621288704
 31
0.0
  0
TEXT
  5
48F
  8
回04-図面枠
 62
     7
 10
3913.419067538026
 20
1042.768044414755
 30
0.0
 40
4.0
  1
G
  0
LINE
  5
490
  8
回04-図面枠
 62
     7
 10
3874.689682232373
 20
1047.395621288704
 30
0.0
 11
3874.689682232373
 21
1042.395621288704
 31
0.0
  0
TEXT
  5
491
  8
回04-図面枠
 62
     7
 10
3833.419067538025
 20
1042.768044414755
 30
0.0
 40
4.0
  1
F
  0
LINE
  5
492
  8
回04-図面枠
 62
     7
 10
3794.689682232372
 20
1047.395621288704
 30
0.0
 11
3794.689682232372
 21
1042.395621288704
 31
0.0
  0
TEXT
  5
493
  8
回04-図面枠
 62
     7
 10
3753.419067538025
 20
1042.768044414755
 30
0.0
 40
4.0
  1
E
  0
LINE
  5
494
  8
回04-図面枠
 62
     7
 10
3714.689682232374
 20
1047.395621288704
 30
0.0
 11
3714.689682232374
 21
1042.395621288704
 31
0.0
  0
TEXT
  5
495
  8
回04-図面枠
 62
     7
 10
3673.419067538026
 20
1042.768044414755
 30
0.0
 40
4.0
  1
D
  0
LINE
  5
496
  8
回04-図面枠
 62
     7
 10
3634.689682232373
 20
1047.395621288704
 30
0.0
 11
3634.689682232373
 21
1042.395621288704
 31
0.0
  0
TEXT
  5
497
  8
回04-図面枠
 62
     7
 10
3593.419067538025
 20
1042.768044414755
 30
0.0
 40
4.0
  1
C
  0
LINE
  5
498
  8
回04-図面枠
 62
     7
 10
3554.689682232373
 20
1047.395621288704
 30
0.0
 11
3554.689682232373
 21
1042.395621288704
 31
0.0
  0
LINE
  5
499
  8
回04-図面枠
 62
     7
 10
3394.689682232372
 20
1137.395621288704
 30
0.0
 11
3389.689682232372
 21
1137.395621288704
 31
0.0
  0
TEXT
  5
49A
  8
回04-図面枠
 62
     7
 10
3390.71403156845
 20
1090.184308584563
 30
0.0
 40
4.0
  1
6
  0
TEXT
  5
49B
  8
回04-図面枠
 62
     7
 10
3513.419067538026
 20
1042.768044414755
 30
0.0
 40
4.0
  1
B
  0
LINE
  5
49C
  8
回04-図面枠
 62
     7
 10
3474.689682232373
 20
1047.395621288704
 30
0.0
 11
3474.689682232373
 21
1042.395621288704
 31
0.0
  0
TEXT
  5
49D
  8
回04-図面枠
 62
     7
 10
3433.419067538025
 20
1042.768044414755
 30
0.0
 40
4.0
  1
A
  0
LINE
  5
49E
  8
回04-図面枠
 62
     7
 10
3394.689682232372
 20
1587.395621288704
 30
0.0
 11
3394.689682232372
 21
1047.395621288704
 31
0.0
  0
LINE
  5
49F
  8
回04-図面枠
 62
     7
 10
3389.689682232372
 20
1042.395621288704
 30
0.0
 11
3389.689682232372
 21
1592.395621288704
 31
0.0
  0
LINE
  5
4A0
  8
回04-図面枠
 62
     7
 10
3394.689682232372
 20
1047.395621288704
 30
0.0
 11
4194.689682232371
 21
1047.395621288704
 31
0.0
  0
LINE
  5
4A1
  8
回04-図面枠
 62
     7
 10
4199.689682232373
 20
1042.395621288704
 30
0.0
 11
3389.689682232372
 21
1042.395621288704
 31
0.0
  0
LINE
  5
4A2
  8
回04-図面枠
 62
     7
 10
3394.689682232372
 20
1587.395621288704
 30
0.0
 11
4194.689682232371
 21
1587.395621288704
 31
0.0
  0
LINE
  5
4A3
  8
回04-図面枠
 62
     7
 10
4199.689682232373
 20
1592.395621288704
 30
0.0
 11
3389.689682232372
 21
1592.395621288704
 31
0.0
  0
ENDSEC
  0
EOF
