  0
SECTION
  2
HEADER
  9
$ACADVER
  1
AC1009
  9
$INSBASE
 10
0.0
 20
0.0
 30
0.0
  9
$EXTMIN
 10
14.09948123039976
 20
70.58028629765272
 30
0.0
  9
$EXTMAX
 10
961.7994812303995
 20
714.0802862976527
 30
0.0
  9
$LIMMIN
 10
0.0
 20
0.0
  9
$LIMMAX
 10
3000.0
 20
2500.0
  9
$ORTHOMODE
 70
     0
  9
$REGENMODE
 70
     1
  9
$FILLMODE
 70
     1
  9
$QTEXTMODE
 70
     0
  9
$MIRRTEXT
 70
     1
  9
$DRAGMODE
 70
     2
  9
$LTSCALE
 40
10.0
  9
$OSMODE
 70
   431
  9
$ATTMODE
 70
     1
  9
$TEXTSIZE
 40
8.0
  9
$TRACEWID
 40
1.0
  9
$TEXTSTYLE
  7
STANDARD
  9
$CLAYER
  8
回04-下接
  9
$CELTYPE
  6
CONTINUOUS
  9
$CECOLOR
 62
     1
  9
$DIMSCALE
 40
1.0
  9
$DIMASZ
 40
5.0
  9
$DIMEXO
 40
0.0
  9
$DIMDLI
 40
0.0
  9
$DIMRND
 40
0.0
  9
$DIMDLE
 40
0.0
  9
$DIMEXE
 40
1.0
  9
$DIMTP
 40
0.2
  9
$DIMTM
 40
0.2
  9
$DIMTXT
 40
8.0
  9
$DIMCEN
 40
1.5
  9
$DIMTSZ
 40
0.0
  9
$DIMTOL
 70
     0
  9
$DIMLIM
 70
     0
  9
$DIMTIH
 70
     0
  9
$DIMTOH
 70
     0
  9
$DIMSE1
 70
     0
  9
$DIMSE2
 70
     0
  9
$DIMTAD
 70
     3
  9
$DIMZIN
 70
     8
  9
$DIMBLK
  1
OPEN
  9
$DIMASO
 70
     1
  9
$DIMSHO
 70
     1
  9
$DIMPOST
  1

  9
$DIMAPOST
  1

  9
$DIMALT
 70
     0
  9
$DIMALTD
 70
     3
  9
$DIMALTF
 40
0.03937007874016
  9
$DIMLFAC
 40
1.0
  9
$DIMTOFL
 70
     1
  9
$DIMTVP
 40
0.0
  9
$DIMTIX
 70
     0
  9
$DIMSOXD
 70
     0
  9
$DIMSAH
 70
     0
  9
$DIMBLK1
  1

  9
$DIMBLK2
  1

  9
$DIMSTYLE
  2
DMC
  9
$DIMCLRD
 70
     5
  9
$DIMCLRE
 70
     5
  9
$DIMCLRT
 70
     5
  9
$DIMTFAC
 40
0.7
  9
$DIMGAP
 40
0.5
  9
$LUNITS
 70
     2
  9
$LUPREC
 70
     4
  9
$SKETCHINC
 40
1.0
  9
$FILLETRAD
 40
2.0
  9
$AUNITS
 70
     0
  9
$AUPREC
 70
     0
  9
$MENU
  1
.
  9
$ELEVATION
 40
0.0
  9
$PELEVATION
 40
0.0
  9
$THICKNESS
 40
0.0
  9
$LIMCHECK
 70
     0
  9
$BLIPMODE
 70
     0
  9
$CHAMFERA
 40
1.199999999999999
  9
$CHAMFERB
 40
1.199999999999999
  9
$SKPOLY
 70
     0
  9
$TDCREATE
 40
2451810.404221065
  9
$TDUPDATE
 40
2460196.569229537
  9
$TDINDWG
 40
5.253375417
  9
$TDUSRTIMER
 40
5.253374722
  9
$USRTIMER
 70
     1
  9
$ANGBASE
 50
0.0
  9
$ANGDIR
 70
     0
  9
$PDMODE
 70
     0
  9
$PDSIZE
 40
0.0
  9
$PLINEWID
 40
0.2
  9
$COORDS
 70
     2
  9
$SPLFRAME
 70
     0
  9
$SPLINETYPE
 70
     6
  9
$SPLINESEGS
 70
     8
  9
$ATTDIA
 70
     1
  9
$ATTREQ
 70
     1
  9
$HANDLING
 70
     1
  9
$HANDSEED
  5
76C
  9
$SURFTAB1
 70
     6
  9
$SURFTAB2
 70
     6
  9
$SURFTYPE
 70
     6
  9
$SURFU
 70
     6
  9
$SURFV
 70
     6
  9
$UCSNAME
  2

  9
$UCSORG
 10
0.0
 20
0.0
 30
0.0
  9
$UCSXDIR
 10
1.0
 20
0.0
 30
0.0
  9
$UCSYDIR
 10
0.0
 20
1.0
 30
0.0
  9
$PUCSNAME
  2

  9
$PUCSORG
 10
0.0
 20
0.0
 30
0.0
  9
$PUCSXDIR
 10
1.0
 20
0.0
 30
0.0
  9
$PUCSYDIR
 10
0.0
 20
1.0
 30
0.0
  9
$USERI1
 70
     0
  9
$USERI2
 70
     0
  9
$USERI3
 70
     0
  9
$USERI4
 70
     0
  9
$USERI5
 70
     0
  9
$USERR1
 40
0.0
  9
$USERR2
 40
0.0
  9
$USERR3
 40
0.0
  9
$USERR4
 40
0.0
  9
$USERR5
 40
0.0
  9
$WORLDVIEW
 70
     1
  9
$SHADEDGE
 70
     3
  9
$SHADEDIF
 70
    70
  9
$TILEMODE
 70
     1
  9
$MAXACTVP
 70
    64
  9
$PLIMCHECK
 70
     0
  9
$PEXTMIN
 10
1.000000000000000E+20
 20
1.000000000000000E+20
 30
1.000000000000000E+20
  9
$PEXTMAX
 10
-1.000000000000000E+20
 20
-1.000000000000000E+20
 30
-1.000000000000000E+20
  9
$PLIMMIN
 10
0.0
 20
0.0
  9
$PLIMMAX
 10
420.0
 20
297.0
  9
$UNITMODE
 70
     0
  9
$VISRETAIN
 70
     1
  9
$PLINEGEN
 70
     0
  9
$PSLTSCALE
 70
     1
  0
ENDSEC
  0
SECTION
  2
TABLES
  0
TABLE
  2
VPORT
 70
     1
  0
VPORT
  2
*ACTIVE
 70
     0
 10
0.0
 20
0.0
 11
1.0
 21
1.0
 12
564.9763400208917
 22
336.8806485804637
 13
0.0
 23
0.0
 14
10.0
 24
10.0
 15
10.0
 25
10.0
 16
0.0
 26
0.0
 36
1.0
 17
0.0
 27
0.0
 37
0.0
 40
1199.785161258873
 41
2.260387811634349
 42
50.0
 43
0.0
 44
0.0
 50
0.0
 51
0.0
 71
     0
 72
   500
 73
     1
 74
     3
 75
     0
 76
     0
 77
     0
 78
     0
  0
ENDTAB
  0
TABLE
  2
LTYPE
 70
     3
  0
LTYPE
  2
CONTINUOUS
 70
     0
  3
Solid line
 72
    65
 73
     0
 40
0.0
  0
LTYPE
  2
CENTER2
 70
     0
  3
Center (.5x) ___ _ ___ _ ___ _ ___ _ ___ _ ___
 72
    65
 73
     4
 40
28.575
 49
19.05
 49
-3.174999999999999
 49
3.174999999999999
 49
-3.174999999999999
  0
LTYPE
  2
PHANTOM2
 70
     0
  3
___ _ _ ___ _ _ ___ _ _ ___ _ _ ___ _ _ ___ _ _
 72
    65
 73
     6
 40
1.25
 49
0.625
 49
-0.125
 49
0.125
 49
-0.125
 49
0.125
 49
-0.125
  0
ENDTAB
  0
TABLE
  2
LAYER
 70
    10
  0
LAYER
  2
0
 70
     0
 62
     7
  6
CONTINUOUS
  0
LAYER
  2
DEFPOINTS
 70
     0
 62
     7
  6
CONTINUOUS
  0
LAYER
  2
回07-寸法
 70
     0
 62
     7
  6
CONTINUOUS
  0
LAYER
  2
回04-下接
 70
     0
 62
     7
  6
CONTINUOUS
  0
LAYER
  2
回08-記事
 70
     0
 62
     7
  6
CONTINUOUS
  0
LAYER
  2
回05-ﾃｰﾙ
 70
     0
 62
     7
  6
CONTINUOUS
  0
LAYER
  2
回90-枠1
 70
     0
 62
     7
  6
CONTINUOUS
  0
LAYER
  2
版07-GR
 70
     0
 62
     7
  6
CONTINUOUS
  0
LAYER
  2
回04-図面枠
 70
     0
 62
     7
  6
CONTINUOUS
  0
LAYER
  2
回03-記事
 70
     0
 62
     7
  6
CONTINUOUS
  0
ENDTAB
  0
TABLE
  2
STYLE
 70
     1
  0
STYLE
  2
STANDARD
 70
     0
 40
8.0
 41
1.0
 50
0.0
 71
     0
 42
8.0
  3
isocp.shx
  4
bigfont.shx
  0
ENDTAB
  0
TABLE
  2
VIEW
 70
     0
  0
ENDTAB
  0
TABLE
  2
UCS
 70
     0
  0
ENDTAB
  0
TABLE
  2
APPID
 70
     7
  0
APPID
  2
ACAD
 70
     0
  0
APPID
  2
ACAECLAYERSTANDARD
 70
     0
  0
APPID
  2
ACAD_PSEXT
 70
     0
  0
APPID
  2
ACAD_MLEADERVER
 70
     0
  0
APPID
  2
ACCMTRANSPARENCY
 70
     0
  0
APPID
  2
ACAD_NAV_VCDISPLAY
 70
     0
  0
APPID
  2
ACADSTRINGINFO
 70
     0
  0
ENDTAB
  0
TABLE
  2
DIMSTYLE
 70
     2
  0
DIMSTYLE
  2
DMC
 70
     0
  3

  4

  5
OPEN
  6

  7

 40
1.0
 41
2.0
 42
0.0
 43
0.0
 44
1.0
 45
0.0
 46
0.0
 47
0.0
 48
0.0
140
3.0
141
2.0
142
0.0
143
0.03937007874016
144
1.0
145
0.0
146
0.7
147
0.5
 71
     0
 72
     0
 73
     0
 74
     0
 75
     0
 76
     0
 77
     3
 78
     8
170
     0
171
     3
172
     1
173
     0
174
     0
175
     0
176
     5
177
     5
178
     5
  0
DIMSTYLE
  2
KOUSA
 70
     0
  3

  4

  5

  6
OPEN
  7
OPEN
 40
1.0
 41
2.0
 42
0.0
 43
0.0
 44
1.0
 45
0.0
 46
0.0
 47
0.1
 48
0.1
140
3.0
141
2.0
142
0.0
143
25.4
144
1.0
145
0.0
146
0.7
147
0.5
 71
     1
 72
     0
 73
     0
 74
     0
 75
     0
 76
     0
 77
     3
 78
     8
170
     0
171
     2
172
     1
173
     1
174
     0
175
     0
176
     5
177
     5
178
     5
  0
ENDTAB
  0
ENDSEC
  0
SECTION
  2
BLOCKS
  0
BLOCK
  8
0
  2
$MODEL_SPACE
 70
     0
 10
0.0
 20
0.0
 30
0.0
  3
$MODEL_SPACE
  1

  0
ENDBLK
  8
0
  5
20
  0
BLOCK
 67
     1
  8
0
  2
$PAPER_SPACE
 70
     0
 10
0.0
 20
0.0
 30
0.0
  3
$PAPER_SPACE
  1

  0
ENDBLK
  5
26
 67
     1
  8
0
  0
BLOCK
  8
0
  2
_OPEN
 70
     0
 10
0.0
 20
0.0
 30
0.0
  3
_OPEN
  1

  0
LINE
  5
14
  8
0
  6
CONTINUOUS
 62
     0
 10
-1.0
 20
0.1666666666666666
 30
0.0
 11
0.0
 21
0.0
 31
0.0
  0
LINE
  5
15
  8
0
  6
CONTINUOUS
 62
     0
 10
-1.0
 20
-0.1666666666666666
 30
0.0
 11
0.0
 21
0.0
 31
0.0
  0
LINE
  5
16
  8
0
  6
CONTINUOUS
 62
     0
 10
0.0
 20
0.0
 30
0.0
 11
-1.0
 21
0.0
 31
0.0
  0
ENDBLK
  5
17
  8
0
  0
BLOCK
  8
0
  2
*D1
 70
     1
 10
0.0
 20
0.0
 30
0.0
  3
*D1
  1

  0
LINE
  5
1A0
  8
回07-寸法
  6
CONTINUOUS
 62
     5
 10
173.3633973814612
 20
281.2443410175822
 30
0.0
 11
80.92030882252311
 21
281.2443410175822
 31
0.0
  0
LINE
  5
1A1
  8
回07-寸法
  6
CONTINUOUS
 62
     5
 10
92.86335387069447
 20
424.7193410175818
 30
0.0
 11
80.92030882252311
 21
424.7193410175818
 31
0.0
  0
LINE
  5
1A2
  8
回07-寸法
  6
CONTINUOUS
 62
     5
 10
81.92030882252311
 20
286.2443410175822
 30
0.0
 11
81.92030882252311
 21
419.7193410175819
 31
0.0
  0
INSERT
  5
1A3
  8
回07-寸法
  6
CONTINUOUS
 62
     5
 66
     1
  2
_OPEN
 10
81.92030882252311
 20
281.2443410175822
 30
0.0
 41
5.0
 42
5.0
 43
5.0
 50
270.0
  0
SEQEND
  5
1A4
  8
回04-下接
  6
CONTINUOUS
 62
     1
  0
INSERT
  5
1A5
  8
回07-寸法
  6
CONTINUOUS
 62
     5
 66
     1
  2
_OPEN
 10
81.92030882252311
 20
424.7193410175818
 30
0.0
 41
5.0
 42
5.0
 43
5.0
 50
90.0
  0
SEQEND
  5
1A6
  8
回04-下接
  6
CONTINUOUS
 62
     1
  0
TEXT
  5
1A7
  8
回07-寸法
  6
CONTINUOUS
 62
     5
 10
81.02030882252302
 20
344.8818410175819
 30
0.0
 40
8.0
  1
(143.48)
 50
90.0
1001
ACAD
1000
MTEXTBEGIN
1070
    73
1070
     1
1070
    44
1040
1.0
1070
    74
1070
     0
1000
MTEXTEND
  0
POINT
  5
1A8
  8
DEFPOINTS
  6
CONTINUOUS
 62
     0
 10
173.3633973814612
 20
281.2443410175822
 30
0.0
  0
POINT
  5
1A9
  8
DEFPOINTS
  6
CONTINUOUS
 62
     0
 10
92.86335387069447
 20
424.7193410175818
 30
0.0
  0
POINT
  5
1AA
  8
DEFPOINTS
  6
CONTINUOUS
 62
     0
 10
81.92030882252311
 20
424.7193410175818
 30
0.0
  0
ENDBLK
  5
1AB
  8
0
 62
     1
  0
BLOCK
  8
0
  2
*D2
 70
     1
 10
0.0
 20
0.0
 30
0.0
  3
*D2
  1

  0
LINE
  5
18F
  8
回07-寸法
  6
CONTINUOUS
 62
     5
 10
168.1756410588023
 20
419.8443410175818
 30
0.0
 11
130.7734403597687
 21
419.8443410175818
 31
0.0
  0
LINE
  5
190
  8
回07-寸法
  6
CONTINUOUS
 62
     5
 10
168.1714674730956
 20
435.84313798331
 30
0.0
 11
130.7734403597687
 21
435.84313798331
 31
0.0
  0
LINE
  5
191
  8
回07-寸法
  6
CONTINUOUS
 62
     5
 10
131.7734403597687
 20
414.8443410175818
 30
0.0
 11
131.7734403597687
 21
393.0970021743462
 31
0.0
  0
LINE
  5
192
  8
回07-寸法
  6
CONTINUOUS
 62
     5
 10
131.7734403597687
 20
419.8443410175818
 30
0.0
 11
131.7734403597687
 21
435.84313798331
 31
0.0
  0
LINE
  5
193
  8
回07-寸法
  6
CONTINUOUS
 62
     5
 10
131.7734403597687
 20
440.84313798331
 30
0.0
 11
131.7734403597687
 21
445.84313798331
 31
0.0
  0
INSERT
  5
194
  8
回07-寸法
  6
CONTINUOUS
 62
     5
 66
     1
  2
_OPEN
 10
131.7734403597687
 20
419.8443410175818
 30
0.0
 41
5.0
 42
5.0
 43
5.0
 50
90.0
  0
SEQEND
  5
195
  8
回04-下接
  6
CONTINUOUS
 62
     1
  0
INSERT
  5
196
  8
回07-寸法
  6
CONTINUOUS
 62
     5
 66
     1
  2
_OPEN
 10
131.7734403597687
 20
435.84313798331
 30
0.0
 41
5.0
 42
5.0
 43
5.0
 50
270.0
  0
SEQEND
  5
197
  8
回04-下接
  6
CONTINUOUS
 62
     1
  0
TEXT
  5
198
  8
回07-寸法
  6
CONTINUOUS
 62
     5
 10
131.2734403597687
 20
392.3970021743463
 30
0.0
 40
8.0
  1
16
 50
90.0
1001
ACAD
1000
MTEXTBEGIN
1070
    73
1070
     1
1070
    44
1040
1.0
1070
    74
1070
     0
1000
MTEXTEND
  0
POINT
  5
199
  8
DEFPOINTS
  6
CONTINUOUS
 62
     0
 10
168.1756410588023
 20
419.8443410175818
 30
0.0
  0
POINT
  5
19A
  8
DEFPOINTS
  6
CONTINUOUS
 62
     0
 10
168.1714674730956
 20
435.84313798331
 30
0.0
  0
POINT
  5
19B
  8
DEFPOINTS
  6
CONTINUOUS
 62
     0
 10
131.7734403597687
 20
435.84313798331
 30
0.0
  0
ENDBLK
  5
19C
  8
0
 62
     1
  0
BLOCK
  8
0
  2
*D3
 70
     1
 10
0.0
 20
0.0
 30
0.0
  3
*D3
  1

  0
LINE
  5
17E
  8
回07-寸法
  6
CONTINUOUS
 62
     5
 10
172.3633973814612
 20
419.1672166731143
 30
0.0
 11
172.3633973814612
 21
392.0324806346637
 31
0.0
  0
LINE
  5
17F
  8
回07-寸法
  6
CONTINUOUS
 62
     5
 10
162.8674662614339
 20
424.6261515613735
 30
0.0
 11
162.8674662614339
 21
392.0324806346637
 31
0.0
  0
LINE
  5
180
  8
回07-寸法
  6
CONTINUOUS
 62
     5
 10
157.8674662614339
 20
393.0324806346637
 30
0.0
 11
140.3360954115354
 21
393.0324806346637
 31
0.0
  0
LINE
  5
181
  8
回07-寸法
  6
CONTINUOUS
 62
     5
 10
172.3633973814612
 20
393.0324806346637
 30
0.0
 11
162.8674662614339
 21
393.0324806346637
 31
0.0
  0
LINE
  5
182
  8
回07-寸法
  6
CONTINUOUS
 62
     5
 10
177.3633973814612
 20
393.0324806346637
 30
0.0
 11
182.3633973814612
 21
393.0324806346637
 31
0.0
  0
INSERT
  5
183
  8
回07-寸法
  6
CONTINUOUS
 62
     5
 66
     1
  2
_OPEN
 10
172.3633973814612
 20
393.0324806346637
 30
0.0
 41
5.0
 42
5.0
 43
5.0
 50
180.0
  0
SEQEND
  5
184
  8
回04-下接
  6
CONTINUOUS
 62
     1
  0
INSERT
  5
185
  8
回07-寸法
  6
CONTINUOUS
 62
     5
 66
     1
  2
_OPEN
 10
162.8674662614339
 20
393.0324806346637
 30
0.0
 41
5.0
 42
5.0
 43
5.0
  0
SEQEND
  5
186
  8
回04-下接
  6
CONTINUOUS
 62
     1
  0
TEXT
  5
187
  8
回07-寸法
  6
CONTINUOUS
 62
     5
 10
139.6072124633196
 20
393.5324806346637
 30
0.0
 40
8.0
  1
9.5
1001
ACAD
1000
MTEXTBEGIN
1070
    73
1070
     1
1070
    44
1040
1.0
1070
    74
1070
     0
1000
MTEXTEND
  0
POINT
  5
188
  8
DEFPOINTS
  6
CONTINUOUS
 62
     0
 10
172.3633973814612
 20
419.1672166731143
 30
0.0
  0
POINT
  5
189
  8
DEFPOINTS
  6
CONTINUOUS
 62
     0
 10
162.8674662614339
 20
424.6261515613735
 30
0.0
  0
POINT
  5
18A
  8
DEFPOINTS
  6
CONTINUOUS
 62
     0
 10
162.8674662614339
 20
393.0324806346637
 30
0.0
  0
ENDBLK
  5
18B
  8
0
 62
     1
  0
BLOCK
  8
0
  2
*D4
 70
     1
 10
0.0
 20
0.0
 30
0.0
  3
*D4
  1

  0
LINE
  5
16C
  8
回07-寸法
 62
     5
 10
92.86335387069447
 20
430.9693410175818
 30
0.0
 11
80.92030882252311
 21
430.9693410175818
 31
0.0
  0
LINE
  5
16E
  8
回07-寸法
 62
     5
 10
92.86335387069447
 20
424.7193410175818
 30
0.0
 11
80.92030882252311
 21
424.7193410175818
 31
0.0
  0
LINE
  5
16F
  8
回07-寸法
 62
     5
 10
81.92030882252311
 20
435.9693410175818
 30
0.0
 11
81.92030882252311
 21
472.9774955966219
 31
0.0
  0
LINE
  5
170
  8
回07-寸法
 62
     5
 10
81.92030882252311
 20
430.9693410175818
 30
0.0
 11
81.92030882252311
 21
424.7193410175818
 31
0.0
  0
LINE
  5
171
  8
回07-寸法
 62
     5
 10
81.92030882252311
 20
419.7193410175819
 30
0.0
 11
81.92030882252311
 21
414.7193410175819
 31
0.0
  0
INSERT
  5
172
  8
回07-寸法
  6
CONTINUOUS
 62
     5
 66
     1
  2
_OPEN
 10
81.92030882252311
 20
430.9693410175818
 30
0.0
 41
5.0
 42
5.0
 43
5.0
 50
270.0
  0
SEQEND
  5
173
  8
回04-下接
  6
CONTINUOUS
 62
     1
  0
INSERT
  5
174
  8
回07-寸法
  6
CONTINUOUS
 62
     5
 66
     1
  2
_OPEN
 10
81.92030882252311
 20
424.7193410175818
 30
0.0
 41
5.0
 42
5.0
 43
5.0
 50
90.0
  0
SEQEND
  5
175
  8
回04-下接
  6
CONTINUOUS
 62
     1
  0
INSERT
  5
176
  8
回07-寸法
  6
CONTINUOUS
 62
     5
 66
     1
  2
*X84
 10
0.0
 20
0.0
 30
0.0
  0
SEQEND
  5
6F1
  8
回04-下接
  6
CONTINUOUS
 62
     1
  0
POINT
  5
177
  8
DEFPOINTS
  6
CONTINUOUS
 62
     0
 10
92.86335387069447
 20
430.9693410175818
 30
0.0
  0
POINT
  5
178
  8
DEFPOINTS
  6
CONTINUOUS
 62
     0
 10
92.86335387069447
 20
424.7193410175818
 30
0.0
  0
POINT
  5
179
  8
DEFPOINTS
  6
CONTINUOUS
 62
     0
 10
81.92030882252311
 20
424.7193410175818
 30
0.0
  0
ENDBLK
  5
17A
  8
0
 62
     1
  0
BLOCK
  8
0
  2
*D5
 70
     1
 10
0.0
 20
0.0
 30
0.0
  3
*D5
  1

  0
LINE
  5
158
  8
回07-寸法
  6
CONTINUOUS
 62
     5
 10
172.3633973814612
 20
419.1672166731145
 30
0.0
 11
172.3633973814612
 21
406.0398744428478
 31
0.0
  0
LINE
  5
15A
  8
回07-寸法
  6
CONTINUOUS
 62
     5
 10
167.7628948688989
 20
419.9334949368855
 30
0.0
 11
167.7628948688989
 21
406.0398744428478
 31
0.0
  0
LINE
  5
15B
  8
回07-寸法
  6
CONTINUOUS
 62
     5
 10
162.7628948688989
 20
407.0398744428477
 30
0.0
 11
139.9595547551631
 21
407.0398744428477
 31
0.0
  0
LINE
  5
15C
  8
回07-寸法
  6
CONTINUOUS
 62
     5
 10
172.3633973814612
 20
407.0398744428477
 30
0.0
 11
167.7628948688989
 21
407.0398744428477
 31
0.0
  0
LINE
  5
15D
  8
回07-寸法
  6
CONTINUOUS
 62
     5
 10
177.3633973814612
 20
407.0398744428477
 30
0.0
 11
182.3633973814612
 21
407.0398744428477
 31
0.0
  0
INSERT
  5
15E
  8
回07-寸法
  6
CONTINUOUS
 62
     5
 66
     1
  2
_OPEN
 10
172.3633973814612
 20
407.0398744428477
 30
0.0
 41
5.0
 42
5.0
 43
5.0
 50
180.0
  0
SEQEND
  5
15F
  8
回04-下接
  6
CONTINUOUS
 62
     1
  0
INSERT
  5
160
  8
回07-寸法
  6
CONTINUOUS
 62
     5
 66
     1
  2
_OPEN
 10
167.7628948688989
 20
407.0398744428477
 30
0.0
 41
5.0
 42
5.0
 43
5.0
  0
SEQEND
  5
161
  8
回04-下接
  6
CONTINUOUS
 62
     1
  0
TEXT
  5
162
  8
回07-寸法
  6
CONTINUOUS
 62
     5
 10
139.2595547551631
 20
407.5398744428477
 30
0.0
 40
8.0
  1
4.6
1001
ACAD
1000
MTEXTBEGIN
1070
    73
1070
     1
1070
    44
1040
1.0
1070
    74
1070
     0
1000
MTEXTEND
  0
POINT
  5
163
  8
DEFPOINTS
  6
CONTINUOUS
 62
     0
 10
172.3633973814612
 20
419.1672166731145
 30
0.0
  0
POINT
  5
164
  8
DEFPOINTS
  6
CONTINUOUS
 62
     0
 10
167.7628948688989
 20
419.9334949368855
 30
0.0
  0
POINT
  5
165
  8
DEFPOINTS
  6
CONTINUOUS
 62
     0
 10
167.7628948688989
 20
407.0398744428477
 30
0.0
  0
ENDBLK
  5
166
  8
0
 62
     1
  0
BLOCK
  8
0
  2
*D6
 70
     1
 10
0.0
 20
0.0
 30
0.0
  3
*D6
  1

  0
LINE
  5
145
  8
回07-寸法
  6
CONTINUOUS
 62
     5
 10
172.3633973814612
 20
436.5214655617733
 30
0.0
 11
172.3633973814612
 21
471.7354447479458
 31
0.0
  0
LINE
  5
147
  8
回07-寸法
  6
CONTINUOUS
 62
     5
 10
92.36335387069448
 20
430.4693410175823
 30
0.0
 11
92.36335387069448
 21
471.7354447479458
 31
0.0
  0
LINE
  5
148
  8
回07-寸法
  6
CONTINUOUS
 62
     5
 10
167.3633973814612
 20
470.7354447479458
 30
0.0
 11
97.36335387069448
 21
470.7354447479458
 31
0.0
  0
INSERT
  5
149
  8
回07-寸法
  6
CONTINUOUS
 62
     5
 66
     1
  2
_OPEN
 10
172.3633973814612
 20
470.7354447479458
 30
0.0
 41
5.0
 42
5.0
 43
5.0
  0
SEQEND
  5
14A
  8
回04-下接
  6
CONTINUOUS
 62
     1
  0
INSERT
  5
14B
  8
回07-寸法
  6
CONTINUOUS
 62
     5
 66
     1
  2
_OPEN
 10
92.36335387069448
 20
470.7354447479458
 30
0.0
 41
5.0
 42
5.0
 43
5.0
 50
180.0
  0
SEQEND
  5
14C
  8
回04-下接
  6
CONTINUOUS
 62
     1
  0
INSERT
  5
14D
  8
回07-寸法
  6
CONTINUOUS
 62
     5
 66
     1
  2
*X85
 10
0.0
 20
0.0
 30
0.0
  0
SEQEND
  5
6F7
  8
回04-下接
  6
CONTINUOUS
 62
     1
  0
POINT
  5
14E
  8
DEFPOINTS
  6
CONTINUOUS
 62
     0
 10
172.3633973814612
 20
436.5214655617733
 30
0.0
  0
POINT
  5
14F
  8
DEFPOINTS
  6
CONTINUOUS
 62
     0
 10
92.36335387069448
 20
430.4693410175823
 30
0.0
  0
POINT
  5
150
  8
DEFPOINTS
  6
CONTINUOUS
 62
     0
 10
92.36335387069448
 20
470.7354447479458
 30
0.0
  0
ENDBLK
  5
151
  8
0
 62
     1
  0
BLOCK
  8
0
  2
*D7
 70
     1
 10
0.0
 20
0.0
 30
0.0
  3
*D7
  1

  0
LINE
  5
2E7
  8
回07-寸法
  6
CONTINUOUS
 62
     5
 10
185.8033973814608
 20
561.9893410175816
 30
0.0
 11
185.8033973814608
 21
595.4443410175811
 31
0.0
  0
LINE
  5
2E8
  8
回07-寸法
  6
CONTINUOUS
 62
     5
 10
662.3633973814612
 20
561.9893410175816
 30
0.0
 11
662.3633973814612
 21
595.4443410175811
 31
0.0
  0
LINE
  5
2E9
  8
回07-寸法
  6
CONTINUOUS
 62
     5
 10
190.8033973814608
 20
594.4443410175811
 30
0.0
 11
657.3633973814613
 21
594.4443410175811
 31
0.0
  0
INSERT
  5
2EA
  8
回07-寸法
  6
CONTINUOUS
 62
     5
 66
     1
  2
_OPEN
 10
185.8033973814608
 20
594.4443410175811
 30
0.0
 41
5.0
 42
5.0
 43
5.0
 50
180.0
  0
SEQEND
  5
2EB
  8
回04-下接
  6
CONTINUOUS
 62
     1
  0
INSERT
  5
2EC
  8
回07-寸法
  6
CONTINUOUS
 62
     5
 66
     1
  2
_OPEN
 10
662.3633973814612
 20
594.4443410175811
 30
0.0
 41
5.0
 42
5.0
 43
5.0
  0
SEQEND
  5
2ED
  8
回04-下接
  6
CONTINUOUS
 62
     1
  0
TEXT
  5
2EE
  8
回07-寸法
  6
CONTINUOUS
 62
     5
 10
370.0849721846111
 20
595.344341017581
 30
0.0
 40
8.0
  1
476.56 (ACTIVE AREA)
1001
ACAD
1000
MTEXTBEGIN
1070
    73
1070
     1
1070
    44
1040
1.0
1070
    74
1070
     0
1000
MTEXTEND
  0
POINT
  5
2EF
  8
DEFPOINTS
  6
CONTINUOUS
 62
     0
 10
185.8033973814608
 20
561.9893410175816
 30
0.0
  0
POINT
  5
2F0
  8
DEFPOINTS
  6
CONTINUOUS
 62
     0
 10
662.3633973814612
 20
561.9893410175816
 30
0.0
  0
POINT
  5
2F1
  8
DEFPOINTS
  6
CONTINUOUS
 62
     0
 10
662.3633973814612
 20
594.4443410175811
 30
0.0
  0
ENDBLK
  5
2F2
  8
0
 62
     1
  0
BLOCK
  8
0
  2
*D8
 70
     1
 10
0.0
 20
0.0
 30
0.0
  3
*D8
  1

  0
LINE
  5
2D8
  8
回07-寸法
  6
CONTINUOUS
 62
     5
 10
183.8033973814608
 20
563.9893410175816
 30
0.0
 11
183.8033973814608
 21
610.4443410175811
 31
0.0
  0
LINE
  5
2D9
  8
回07-寸法
  6
CONTINUOUS
 62
     5
 10
664.3633973814612
 20
563.9893410175816
 30
0.0
 11
664.3633973814612
 21
610.4443410175811
 31
0.0
  0
LINE
  5
2DA
  8
回07-寸法
  6
CONTINUOUS
 62
     5
 10
188.8033973814608
 20
609.4443410175811
 30
0.0
 11
659.3633973814612
 21
609.4443410175811
 31
0.0
  0
INSERT
  5
2DB
  8
回07-寸法
  6
CONTINUOUS
 62
     5
 66
     1
  2
_OPEN
 10
183.8033973814608
 20
609.4443410175811
 30
0.0
 41
5.0
 42
5.0
 43
5.0
 50
180.0
  0
SEQEND
  5
2DC
  8
回04-下接
  6
CONTINUOUS
 62
     1
  0
INSERT
  5
2DD
  8
回07-寸法
  6
CONTINUOUS
 62
     5
 66
     1
  2
_OPEN
 10
664.3633973814612
 20
609.4443410175811
 30
0.0
 41
5.0
 42
5.0
 43
5.0
  0
SEQEND
  5
2DE
  8
回04-下接
  6
CONTINUOUS
 62
     1
  0
TEXT
  5
2DF
  8
回07-寸法
  6
CONTINUOUS
 62
     5
 10
367.6849721846111
 20
610.3443410175811
 30
0.0
 40
8.0
  1
480.56 (VIEWING AREA)
1001
ACAD
1000
MTEXTBEGIN
1070
    73
1070
     1
1070
    44
1040
1.0
1070
    74
1070
     0
1000
MTEXTEND
  0
POINT
  5
2E0
  8
DEFPOINTS
  6
CONTINUOUS
 62
     0
 10
183.8033973814608
 20
563.9893410175816
 30
0.0
  0
POINT
  5
2E1
  8
DEFPOINTS
  6
CONTINUOUS
 62
     0
 10
664.3633973814612
 20
563.9893410175816
 30
0.0
  0
POINT
  5
2E2
  8
DEFPOINTS
  6
CONTINUOUS
 62
     0
 10
664.3633973814612
 20
609.4443410175811
 30
0.0
  0
ENDBLK
  5
2E3
  8
0
 62
     1
  0
BLOCK
  8
0
  2
*D9
 70
     1
 10
0.0
 20
0.0
 30
0.0
  3
*D9
  1

  0
LINE
  5
2C9
  8
回07-寸法
  6
CONTINUOUS
 62
     5
 10
172.3633973814612
 20
574.4443410175818
 30
0.0
 11
172.3633973814612
 21
640.4443410175811
 31
0.0
  0
LINE
  5
2CA
  8
回07-寸法
  6
CONTINUOUS
 62
     5
 10
672.3633973814612
 20
574.4493714598872
 30
0.0
 11
672.3633973814612
 21
640.4443410175811
 31
0.0
  0
LINE
  5
2CB
  8
回07-寸法
  6
CONTINUOUS
 62
     5
 10
177.3633973814612
 20
639.4443410175811
 30
0.0
 11
667.3633973814612
 21
639.4443410175811
 31
0.0
  0
INSERT
  5
2CC
  8
回07-寸法
  6
CONTINUOUS
 62
     5
 66
     1
  2
_OPEN
 10
172.3633973814612
 20
639.4443410175811
 30
0.0
 41
5.0
 42
5.0
 43
5.0
 50
180.0
  0
SEQEND
  5
2CD
  8
回04-下接
  6
CONTINUOUS
 62
     1
  0
INSERT
  5
2CE
  8
回07-寸法
  6
CONTINUOUS
 62
     5
 66
     1
  2
_OPEN
 10
672.3633973814612
 20
639.4443410175811
 30
0.0
 41
5.0
 42
5.0
 43
5.0
  0
SEQEND
  5
2CF
  8
回04-下接
  6
CONTINUOUS
 62
     1
  0
INSERT
  5
2D0
  8
回07-寸法
  6
CONTINUOUS
 62
     5
 66
     1
  2
*X86
 10
0.0
 20
0.0
 30
0.0
  0
SEQEND
  5
6FD
  8
回04-下接
  6
CONTINUOUS
 62
     1
  0
POINT
  5
2D1
  8
DEFPOINTS
  6
CONTINUOUS
 62
     0
 10
172.3633973814612
 20
574.4443410175818
 30
0.0
  0
POINT
  5
2D2
  8
DEFPOINTS
  6
CONTINUOUS
 62
     0
 10
672.3633973814612
 20
574.4493714598872
 30
0.0
  0
POINT
  5
2D3
  8
DEFPOINTS
  6
CONTINUOUS
 62
     0
 10
672.3633973814612
 20
639.4443410175811
 30
0.0
  0
ENDBLK
  5
2D4
  8
0
 62
     1
  0
BLOCK
  8
0
  2
*D10
 70
     1
 10
0.0
 20
0.0
 30
0.0
  3
*D10
  1

  0
LINE
  5
2BA
  8
回07-寸法
  6
CONTINUOUS
 62
     5
 10
662.3633973814612
 20
293.6993410175817
 30
0.0
 11
723.3633973814612
 21
293.6993410175817
 31
0.0
  0
LINE
  5
2BB
  8
回07-寸法
  6
CONTINUOUS
 62
     5
 10
662.3633973814612
 20
561.9893410175816
 30
0.0
 11
723.3633973814612
 21
561.9893410175816
 31
0.0
  0
LINE
  5
2BC
  8
回07-寸法
  6
CONTINUOUS
 62
     5
 10
722.3633973814612
 20
298.6993410175817
 30
0.0
 11
722.3633973814612
 21
556.9893410175816
 31
0.0
  0
INSERT
  5
2BD
  8
回07-寸法
  6
CONTINUOUS
 62
     5
 66
     1
  2
_OPEN
 10
722.3633973814612
 20
293.6993410175817
 30
0.0
 41
5.0
 42
5.0
 43
5.0
 50
270.0
  0
SEQEND
  5
2BE
  8
回04-下接
  6
CONTINUOUS
 62
     1
  0
INSERT
  5
2BF
  8
回07-寸法
  6
CONTINUOUS
 62
     5
 66
     1
  2
_OPEN
 10
722.3633973814612
 20
561.9893410175816
 30
0.0
 41
5.0
 42
5.0
 43
5.0
 50
90.0
  0
SEQEND
  5
2C0
  8
回04-下接
  6
CONTINUOUS
 62
     1
  0
TEXT
  5
2C1
  8
回07-寸法
  6
CONTINUOUS
 62
     5
 10
721.4633973814612
 20
374.2314743466232
 30
0.0
 40
8.0
  1
268.29 (ACTIVE AREA)
 50
90.0
1001
ACAD
1000
MTEXTBEGIN
1070
    73
1070
     1
1070
    44
1040
1.0
1070
    74
1070
     0
1000
MTEXTEND
  0
POINT
  5
2C2
  8
DEFPOINTS
  6
CONTINUOUS
 62
     0
 10
662.3633973814612
 20
293.6993410175817
 30
0.0
  0
POINT
  5
2C3
  8
DEFPOINTS
  6
CONTINUOUS
 62
     0
 10
662.3633973814612
 20
561.9893410175816
 30
0.0
  0
POINT
  5
2C4
  8
DEFPOINTS
  6
CONTINUOUS
 62
     0
 10
722.3633973814612
 20
561.9893410175816
 30
0.0
  0
ENDBLK
  5
2C5
  8
0
 62
     1
  0
BLOCK
  8
0
  2
*D11
 70
     1
 10
0.0
 20
0.0
 30
0.0
  3
*D11
  1

  0
LINE
  5
2AB
  8
回07-寸法
  6
CONTINUOUS
 62
     5
 10
664.3633973814612
 20
563.9893410175816
 30
0.0
 11
738.3633973814612
 21
563.9893410175816
 31
0.0
  0
LINE
  5
2AC
  8
回07-寸法
  6
CONTINUOUS
 62
     5
 10
664.3633973814612
 20
291.6993410175816
 30
0.0
 11
738.3633973814612
 21
291.6993410175816
 31
0.0
  0
LINE
  5
2AD
  8
回07-寸法
  6
CONTINUOUS
 62
     5
 10
737.3633973814612
 20
558.9893410175816
 30
0.0
 11
737.3633973814612
 21
296.6993410175817
 31
0.0
  0
INSERT
  5
2AE
  8
回07-寸法
  6
CONTINUOUS
 62
     5
 66
     1
  2
_OPEN
 10
737.3633973814612
 20
563.9893410175816
 30
0.0
 41
5.0
 42
5.0
 43
5.0
 50
90.0
  0
SEQEND
  5
2AF
  8
回04-下接
  6
CONTINUOUS
 62
     1
  0
INSERT
  5
2B0
  8
回07-寸法
  6
CONTINUOUS
 62
     5
 66
     1
  2
_OPEN
 10
737.3633973814612
 20
291.6993410175816
 30
0.0
 41
5.0
 42
5.0
 43
5.0
 50
270.0
  0
SEQEND
  5
2B1
  8
回04-下接
  6
CONTINUOUS
 62
     1
  0
TEXT
  5
2B2
  8
回07-寸法
  6
CONTINUOUS
 62
     5
 10
736.4633973814611
 20
371.8314743466228
 30
0.0
 40
8.0
  1
272.29 (VIEWING AREA)
 50
90.0
1001
ACAD
1000
MTEXTBEGIN
1070
    73
1070
     1
1070
    44
1040
1.0
1070
    74
1070
     0
1000
MTEXTEND
  0
POINT
  5
2B3
  8
DEFPOINTS
  6
CONTINUOUS
 62
     0
 10
664.3633973814612
 20
563.9893410175816
 30
0.0
  0
POINT
  5
2B4
  8
DEFPOINTS
  6
CONTINUOUS
 62
     0
 10
664.3633973814612
 20
291.6993410175816
 30
0.0
  0
POINT
  5
2B5
  8
DEFPOINTS
  6
CONTINUOUS
 62
     0
 10
737.3633973814612
 20
291.6993410175816
 30
0.0
  0
ENDBLK
  5
2B6
  8
0
 62
     1
  0
BLOCK
  8
0
  2
*D12
 70
     1
 10
0.0
 20
0.0
 30
0.0
  3
*D12
  1

  0
LINE
  5
29C
  8
回07-寸法
  6
CONTINUOUS
 62
     5
 10
672.3633973814612
 20
281.2443410175822
 30
0.0
 11
768.3633973814612
 21
281.2443410175822
 31
0.0
  0
LINE
  5
29D
  8
回07-寸法
  6
CONTINUOUS
 62
     5
 10
672.3633973814612
 20
574.4493714598872
 30
0.0
 11
768.3633973814612
 21
574.4493714598872
 31
0.0
  0
LINE
  5
29E
  8
回07-寸法
  6
CONTINUOUS
 62
     5
 10
767.3633973814612
 20
286.2443410175822
 30
0.0
 11
767.3633973814612
 21
569.4493714598872
 31
0.0
  0
INSERT
  5
29F
  8
回07-寸法
  6
CONTINUOUS
 62
     5
 66
     1
  2
_OPEN
 10
767.3633973814612
 20
281.2443410175822
 30
0.0
 41
5.0
 42
5.0
 43
5.0
 50
270.0
  0
SEQEND
  5
2A0
  8
回04-下接
  6
CONTINUOUS
 62
     1
  0
INSERT
  5
2A1
  8
回07-寸法
  6
CONTINUOUS
 62
     5
 66
     1
  2
_OPEN
 10
767.3633973814612
 20
574.4493714598872
 30
0.0
 41
5.0
 42
5.0
 43
5.0
 50
90.0
  0
SEQEND
  5
2A2
  8
回04-下接
  6
CONTINUOUS
 62
     1
  0
INSERT
  5
2A3
  8
回07-寸法
  6
CONTINUOUS
 62
     5
 66
     1
  2
*X87
 10
0.0
 20
0.0
 30
0.0
  0
SEQEND
  5
703
  8
回04-下接
  6
CONTINUOUS
 62
     1
  0
POINT
  5
2A4
  8
DEFPOINTS
  6
CONTINUOUS
 62
     0
 10
672.3633973814612
 20
281.2443410175822
 30
0.0
  0
POINT
  5
2A5
  8
DEFPOINTS
  6
CONTINUOUS
 62
     0
 10
672.3633973814612
 20
574.4493714598872
 30
0.0
  0
POINT
  5
2A6
  8
DEFPOINTS
  6
CONTINUOUS
 62
     0
 10
767.3633973814612
 20
574.4493714598872
 30
0.0
  0
ENDBLK
  5
2A7
  8
0
 62
     1
  0
BLOCK
  8
0
  2
*D13
 70
     1
 10
0.0
 20
0.0
 30
0.0
  3
*D13
  1

  0
LINE
  5
28D
  8
回07-寸法
  6
CONTINUOUS
 62
     5
 10
182.8033973814608
 20
565.2893410175815
 30
0.0
 11
182.8033973814608
 21
625.444341017581
 31
0.0
  0
LINE
  5
28E
  8
回07-寸法
  6
CONTINUOUS
 62
     5
 10
665.3633973814613
 20
565.2893410175815
 30
0.0
 11
665.3633973814613
 21
625.444341017581
 31
0.0
  0
LINE
  5
28F
  8
回07-寸法
  6
CONTINUOUS
 62
     5
 10
187.8033973814608
 20
624.4443410175811
 30
0.0
 11
660.3633973814612
 21
624.4443410175811
 31
0.0
  0
INSERT
  5
290
  8
回07-寸法
  6
CONTINUOUS
 62
     5
 66
     1
  2
_OPEN
 10
182.8033973814608
 20
624.4443410175811
 30
0.0
 41
5.0
 42
5.0
 43
5.0
 50
180.0
  0
SEQEND
  5
291
  8
回04-下接
  6
CONTINUOUS
 62
     1
  0
INSERT
  5
292
  8
回07-寸法
  6
CONTINUOUS
 62
     5
 66
     1
  2
_OPEN
 10
665.3633973814613
 20
624.4443410175811
 30
0.0
 41
5.0
 42
5.0
 43
5.0
  0
SEQEND
  5
293
  8
回04-下接
  6
CONTINUOUS
 62
     1
  0
TEXT
  5
294
  8
回07-寸法
  6
CONTINUOUS
 62
     5
 10
408.4800572677259
 20
624.944341017581
 30
0.0
 40
8.0
  1
482.56
1001
ACAD
1000
MTEXTBEGIN
1070
    73
1070
     1
1070
    44
1040
1.0
1070
    74
1070
     0
1000
MTEXTEND
  0
POINT
  5
295
  8
DEFPOINTS
  6
CONTINUOUS
 62
     0
 10
182.8033973814608
 20
565.2893410175815
 30
0.0
  0
POINT
  5
296
  8
DEFPOINTS
  6
CONTINUOUS
 62
     0
 10
665.3633973814613
 20
565.2893410175815
 30
0.0
  0
POINT
  5
297
  8
DEFPOINTS
  6
CONTINUOUS
 62
     0
 10
665.3633973814613
 20
624.4443410175811
 30
0.0
  0
ENDBLK
  5
298
  8
0
 62
     1
  0
BLOCK
  8
0
  2
*D14
 70
     1
 10
0.0
 20
0.0
 30
0.0
  3
*D14
  1

  0
LINE
  5
27C
  8
回07-寸法
  6
CONTINUOUS
 62
     5
 10
665.3633973814613
 20
565.2893410175815
 30
0.0
 11
665.3633973814613
 21
625.444341017581
 31
0.0
  0
LINE
  5
27D
  8
回07-寸法
  6
CONTINUOUS
 62
     5
 10
672.3633973814612
 20
574.4493714598872
 30
0.0
 11
672.3633973814612
 21
625.444341017581
 31
0.0
  0
LINE
  5
27E
  8
回07-寸法
  6
CONTINUOUS
 62
     5
 10
677.3633973814612
 20
624.4443410175811
 30
0.0
 11
692.9570981688628
 21
624.4443410175811
 31
0.0
  0
LINE
  5
27F
  8
回07-寸法
  6
CONTINUOUS
 62
     5
 10
665.3633973814613
 20
624.4443410175811
 30
0.0
 11
672.3633973814612
 21
624.4443410175811
 31
0.0
  0
LINE
  5
280
  8
回07-寸法
  6
CONTINUOUS
 62
     5
 10
660.3633973814612
 20
624.4443410175811
 30
0.0
 11
655.3633973814612
 21
624.4443410175811
 31
0.0
  0
INSERT
  5
281
  8
回07-寸法
  6
CONTINUOUS
 62
     5
 66
     1
  2
_OPEN
 10
665.3633973814613
 20
624.4443410175811
 30
0.0
 41
5.0
 42
5.0
 43
5.0
  0
SEQEND
  5
282
  8
回04-下接
  6
CONTINUOUS
 62
     1
  0
INSERT
  5
283
  8
回07-寸法
  6
CONTINUOUS
 62
     5
 66
     1
  2
_OPEN
 10
672.3633973814612
 20
624.4443410175811
 30
0.0
 41
5.0
 42
5.0
 43
5.0
 50
180.0
  0
SEQEND
  5
284
  8
回04-下接
  6
CONTINUOUS
 62
     1
  0
TEXT
  5
285
  8
回07-寸法
  6
CONTINUOUS
 62
     5
 10
681.660247775162
 20
625.3443410175811
 30
0.0
 40
8.0
  1
(7)
1001
ACAD
1000
MTEXTBEGIN
1070
    73
1070
     1
1070
    44
1040
1.0
1070
    74
1070
     0
1000
MTEXTEND
  0
POINT
  5
286
  8
DEFPOINTS
  6
CONTINUOUS
 62
     0
 10
665.3633973814613
 20
565.2893410175815
 30
0.0
  0
POINT
  5
287
  8
DEFPOINTS
  6
CONTINUOUS
 62
     0
 10
672.3633973814612
 20
574.4493714598872
 30
0.0
  0
POINT
  5
288
  8
DEFPOINTS
  6
CONTINUOUS
 62
     0
 10
672.3633973814612
 20
624.4443410175811
 30
0.0
  0
ENDBLK
  5
289
  8
0
 62
     1
  0
BLOCK
  8
0
  2
*D15
 70
     1
 10
0.0
 20
0.0
 30
0.0
  3
*D15
  1

  0
LINE
  5
26B
  8
回07-寸法
  6
CONTINUOUS
 62
     5
 10
182.8033973814608
 20
565.2893410175815
 30
0.0
 11
182.8033973814608
 21
625.444341017581
 31
0.0
  0
LINE
  5
26C
  8
回07-寸法
  6
CONTINUOUS
 62
     5
 10
172.3633973814612
 20
574.4443410175818
 30
0.0
 11
172.3633973814612
 21
625.444341017581
 31
0.0
  0
LINE
  5
26D
  8
回07-寸法
  6
CONTINUOUS
 62
     5
 10
167.3633973814612
 20
624.4443410175811
 30
0.0
 11
67.95195594839038
 21
624.4443410175811
 31
0.0
  0
LINE
  5
26E
  8
回07-寸法
  6
CONTINUOUS
 62
     5
 10
182.8033973814608
 20
624.4443410175811
 30
0.0
 11
172.3633973814612
 21
624.4443410175811
 31
0.0
  0
LINE
  5
26F
  8
回07-寸法
  6
CONTINUOUS
 62
     5
 10
187.8033973814608
 20
624.4443410175811
 30
0.0
 11
192.8033973814608
 21
624.4443410175811
 31
0.0
  0
INSERT
  5
270
  8
回07-寸法
  6
CONTINUOUS
 62
     5
 66
     1
  2
_OPEN
 10
182.8033973814608
 20
624.4443410175811
 30
0.0
 41
5.0
 42
5.0
 43
5.0
 50
180.0
  0
SEQEND
  5
271
  8
回04-下接
  6
CONTINUOUS
 62
     1
  0
INSERT
  5
272
  8
回07-寸法
  6
CONTINUOUS
 62
     5
 66
     1
  2
_OPEN
 10
172.3633973814612
 20
624.4443410175811
 30
0.0
 41
5.0
 42
5.0
 43
5.0
  0
SEQEND
  5
273
  8
回04-下接
  6
CONTINUOUS
 62
     1
  0
INSERT
  5
274
  8
回07-寸法
  6
CONTINUOUS
 62
     5
 66
     1
  2
*X88
 10
0.0
 20
0.0
 30
0.0
  0
SEQEND
  5
709
  8
回04-下接
  6
CONTINUOUS
 62
     1
  0
POINT
  5
275
  8
DEFPOINTS
  6
CONTINUOUS
 62
     0
 10
182.8033973814608
 20
565.2893410175815
 30
0.0
  0
POINT
  5
276
  8
DEFPOINTS
  6
CONTINUOUS
 62
     0
 10
172.3633973814612
 20
574.4443410175818
 30
0.0
  0
POINT
  5
277
  8
DEFPOINTS
  6
CONTINUOUS
 62
     0
 10
172.3633973814612
 20
624.4443410175811
 30
0.0
  0
ENDBLK
  5
278
  8
0
 62
     1
  0
BLOCK
  8
0
  2
*D16
 70
     1
 10
0.0
 20
0.0
 30
0.0
  3
*D16
  1

  0
LINE
  5
25C
  8
回07-寸法
  6
CONTINUOUS
 62
     5
 10
665.3633973814613
 20
565.2893410175815
 30
0.0
 11
753.3633973814612
 21
565.2893410175815
 31
0.0
  0
LINE
  5
25D
  8
回07-寸法
  6
CONTINUOUS
 62
     5
 10
665.3633973814613
 20
290.3993410175817
 30
0.0
 11
753.3633973814612
 21
290.3993410175817
 31
0.0
  0
LINE
  5
25E
  8
回07-寸法
  6
CONTINUOUS
 62
     5
 10
752.3633973814612
 20
560.2893410175815
 30
0.0
 11
752.3633973814612
 21
295.3993410175817
 31
0.0
  0
INSERT
  5
25F
  8
回07-寸法
  6
CONTINUOUS
 62
     5
 66
     1
  2
_OPEN
 10
752.3633973814612
 20
565.2893410175815
 30
0.0
 41
5.0
 42
5.0
 43
5.0
 50
90.0
  0
SEQEND
  5
260
  8
回04-下接
  6
CONTINUOUS
 62
     1
  0
INSERT
  5
261
  8
回07-寸法
  6
CONTINUOUS
 62
     5
 66
     1
  2
_OPEN
 10
752.3633973814612
 20
290.3993410175817
 30
0.0
 41
5.0
 42
5.0
 43
5.0
 50
270.0
  0
SEQEND
  5
262
  8
回04-下接
  6
CONTINUOUS
 62
     1
  0
TEXT
  5
263
  8
回07-寸法
  6
CONTINUOUS
 62
     5
 10
751.8633973814612
 20
412.2298995434732
 30
0.0
 40
8.0
  1
274.89
 50
90.0
1001
ACAD
1000
MTEXTBEGIN
1070
    73
1070
     1
1070
    44
1040
1.0
1070
    74
1070
     0
1000
MTEXTEND
  0
POINT
  5
264
  8
DEFPOINTS
  6
CONTINUOUS
 62
     0
 10
665.3633973814613
 20
565.2893410175815
 30
0.0
  0
POINT
  5
265
  8
DEFPOINTS
  6
CONTINUOUS
 62
     0
 10
665.3633973814613
 20
290.3993410175817
 30
0.0
  0
POINT
  5
266
  8
DEFPOINTS
  6
CONTINUOUS
 62
     0
 10
752.3633973814612
 20
290.3993410175817
 30
0.0
  0
ENDBLK
  5
267
  8
0
 62
     1
  0
BLOCK
  8
0
  2
*D17
 70
     1
 10
0.0
 20
0.0
 30
0.0
  3
*D17
  1

  0
LINE
  5
24B
  8
回07-寸法
  6
CONTINUOUS
 62
     5
 10
665.3633973814613
 20
565.2893410175815
 30
0.0
 11
753.363397381458
 21
565.2893410175815
 31
0.0
  0
LINE
  5
24C
  8
回07-寸法
  6
CONTINUOUS
 62
     5
 10
672.3633973814612
 20
574.4493714598872
 30
0.0
 11
753.363397381458
 21
574.4493714598872
 31
0.0
  0
LINE
  5
24D
  8
回07-寸法
  6
CONTINUOUS
 62
     5
 10
752.3633973814581
 20
579.4493714598872
 30
0.0
 11
752.3633973814581
 21
677.2863862348747
 31
0.0
  0
LINE
  5
24E
  8
回07-寸法
  6
CONTINUOUS
 62
     5
 10
752.3633973814581
 20
565.2893410175815
 30
0.0
 11
752.3633973814581
 21
574.4493714598872
 31
0.0
  0
LINE
  5
24F
  8
回07-寸法
  6
CONTINUOUS
 62
     5
 10
752.3633973814581
 20
560.2893410175815
 30
0.0
 11
752.3633973814581
 21
555.2893410175816
 31
0.0
  0
INSERT
  5
250
  8
回07-寸法
  6
CONTINUOUS
 62
     5
 66
     1
  2
_OPEN
 10
752.3633973814581
 20
565.2893410175815
 30
0.0
 41
5.0
 42
5.0
 43
5.0
 50
90.0
  0
SEQEND
  5
251
  8
回04-下接
  6
CONTINUOUS
 62
     1
  0
INSERT
  5
252
  8
回07-寸法
  6
CONTINUOUS
 62
     5
 66
     1
  2
_OPEN
 10
752.3633973814581
 20
574.4493714598872
 30
0.0
 41
5.0
 42
5.0
 43
5.0
 50
270.0
  0
SEQEND
  5
253
  8
回04-下接
  6
CONTINUOUS
 62
     1
  0
INSERT
  5
254
  8
回07-寸法
  6
CONTINUOUS
 62
     5
 66
     1
  2
*X89
 10
0.0
 20
0.0
 30
0.0
  0
SEQEND
  5
70F
  8
回04-下接
  6
CONTINUOUS
 62
     1
  0
POINT
  5
255
  8
DEFPOINTS
  6
CONTINUOUS
 62
     0
 10
665.3633973814613
 20
565.2893410175815
 30
0.0
  0
POINT
  5
256
  8
DEFPOINTS
  6
CONTINUOUS
 62
     0
 10
672.3633973814612
 20
574.4493714598872
 30
0.0
  0
POINT
  5
257
  8
DEFPOINTS
  6
CONTINUOUS
 62
     0
 10
752.3633973814581
 20
574.4493714598872
 30
0.0
  0
ENDBLK
  5
258
  8
0
 62
     1
  0
BLOCK
  8
0
  2
*D18
 70
     1
 10
0.0
 20
0.0
 30
0.0
  3
*D18
  1

  0
LINE
  5
239
  8
回07-寸法
  6
CONTINUOUS
 62
     5
 10
665.3633973814613
 20
290.3993410175817
 30
0.0
 11
753.3633973814612
 21
290.3993410175817
 31
0.0
  0
LINE
  5
23B
  8
回07-寸法
  6
CONTINUOUS
 62
     5
 10
672.3633973814612
 20
281.2443410175822
 30
0.0
 11
753.3633973814612
 21
281.2443410175822
 31
0.0
  0
LINE
  5
23C
  8
回07-寸法
  6
CONTINUOUS
 62
     5
 10
752.3633973814612
 20
276.2443410175822
 30
0.0
 11
752.3633973814612
 21
179.0673741595622
 31
0.0
  0
LINE
  5
23D
  8
回07-寸法
  6
CONTINUOUS
 62
     5
 10
752.3633973814612
 20
290.3993410175817
 30
0.0
 11
752.3633973814612
 21
281.2443410175822
 31
0.0
  0
LINE
  5
23E
  8
回07-寸法
  6
CONTINUOUS
 62
     5
 10
752.3633973814612
 20
295.3993410175817
 30
0.0
 11
752.3633973814612
 21
300.3993410175817
 31
0.0
  0
INSERT
  5
23F
  8
回07-寸法
  6
CONTINUOUS
 62
     5
 66
     1
  2
_OPEN
 10
752.3633973814612
 20
290.3993410175817
 30
0.0
 41
5.0
 42
5.0
 43
5.0
 50
270.0
  0
SEQEND
  5
240
  8
回04-下接
  6
CONTINUOUS
 62
     1
  0
INSERT
  5
241
  8
回07-寸法
  6
CONTINUOUS
 62
     5
 66
     1
  2
_OPEN
 10
752.3633973814612
 20
281.2443410175822
 30
0.0
 41
5.0
 42
5.0
 43
5.0
 50
90.0
  0
SEQEND
  5
242
  8
回04-下接
  6
CONTINUOUS
 62
     1
  0
INSERT
  5
243
  8
回07-寸法
  6
CONTINUOUS
 62
     5
 66
     1
  2
*X90
 10
0.0
 20
0.0
 30
0.0
  0
SEQEND
  5
715
  8
回04-下接
  6
CONTINUOUS
 62
     1
  0
POINT
  5
244
  8
DEFPOINTS
  6
CONTINUOUS
 62
     0
 10
665.3633973814613
 20
290.3993410175817
 30
0.0
  0
POINT
  5
245
  8
DEFPOINTS
  6
CONTINUOUS
 62
     0
 10
672.3633973814612
 20
281.2443410175822
 30
0.0
  0
POINT
  5
246
  8
DEFPOINTS
  6
CONTINUOUS
 62
     0
 10
752.3633973814612
 20
281.2443410175822
 30
0.0
  0
ENDBLK
  5
247
  8
0
 62
     1
  0
BLOCK
  8
0
  2
*D19
 70
     1
 10
0.0
 20
0.0
 30
0.0
  3
*D19
  1

  0
LINE
  5
228
  8
回07-寸法
  6
CONTINUOUS
 62
     5
 10
185.8033973814608
 20
561.9893410175816
 30
0.0
 11
185.8033973814608
 21
595.4443410175811
 31
0.0
  0
LINE
  5
229
  8
回07-寸法
  6
CONTINUOUS
 62
     5
 10
172.3633973814612
 20
574.4443410175818
 30
0.0
 11
172.3633973814612
 21
595.4443410175811
 31
0.0
  0
LINE
  5
22A
  8
回07-寸法
  6
CONTINUOUS
 62
     5
 10
167.3633973814612
 20
594.4443410175811
 30
0.0
 11
138.9633973814613
 21
594.4443410175811
 31
0.0
  0
LINE
  5
22B
  8
回07-寸法
  6
CONTINUOUS
 62
     5
 10
185.8033973814608
 20
594.4443410175811
 30
0.0
 11
172.3633973814612
 21
594.4443410175811
 31
0.0
  0
LINE
  5
22C
  8
回07-寸法
  6
CONTINUOUS
 62
     5
 10
190.8033973814608
 20
594.4443410175811
 30
0.0
 11
195.8033973814608
 21
594.4443410175811
 31
0.0
  0
INSERT
  5
22D
  8
回07-寸法
  6
CONTINUOUS
 62
     5
 66
     1
  2
_OPEN
 10
185.8033973814608
 20
594.4443410175811
 30
0.0
 41
5.0
 42
5.0
 43
5.0
 50
180.0
  0
SEQEND
  5
22E
  8
回04-下接
  6
CONTINUOUS
 62
     1
  0
INSERT
  5
22F
  8
回07-寸法
  6
CONTINUOUS
 62
     5
 66
     1
  2
_OPEN
 10
172.3633973814612
 20
594.4443410175811
 30
0.0
 41
5.0
 42
5.0
 43
5.0
  0
SEQEND
  5
230
  8
回04-下接
  6
CONTINUOUS
 62
     1
  0
TEXT
  5
231
  8
回07-寸法
  6
CONTINUOUS
 62
     5
 10
138.2633973814613
 20
594.9443410175811
 30
0.0
 40
8.0
  1
13.44
1001
ACAD
1000
MTEXTBEGIN
1070
    73
1070
     1
1070
    44
1040
1.0
1070
    74
1070
     0
1000
MTEXTEND
  0
POINT
  5
232
  8
DEFPOINTS
  6
CONTINUOUS
 62
     0
 10
185.8033973814608
 20
561.9893410175816
 30
0.0
  0
POINT
  5
233
  8
DEFPOINTS
  6
CONTINUOUS
 62
     0
 10
172.3633973814612
 20
574.4443410175818
 30
0.0
  0
POINT
  5
234
  8
DEFPOINTS
  6
CONTINUOUS
 62
     0
 10
172.3633973814612
 20
594.4443410175811
 30
0.0
  0
ENDBLK
  5
235
  8
0
 62
     1
  0
BLOCK
  8
0
  2
*D20
 70
     1
 10
0.0
 20
0.0
 30
0.0
  3
*D20
  1

  0
LINE
  5
217
  8
回07-寸法
  6
CONTINUOUS
 62
     5
 10
183.8033973814608
 20
563.9893410175816
 30
0.0
 11
183.8033973814608
 21
610.4443410175811
 31
0.0
  0
LINE
  5
218
  8
回07-寸法
  6
CONTINUOUS
 62
     5
 10
172.3633973814612
 20
574.4443410175818
 30
0.0
 11
172.3633973814612
 21
610.4443410175811
 31
0.0
  0
LINE
  5
219
  8
回07-寸法
  6
CONTINUOUS
 62
     5
 10
167.3633973814612
 20
609.4443410175811
 30
0.0
 11
140.5633973814611
 21
609.4443410175811
 31
0.0
  0
LINE
  5
21A
  8
回07-寸法
  6
CONTINUOUS
 62
     5
 10
183.8033973814608
 20
609.4443410175811
 30
0.0
 11
172.3633973814612
 21
609.4443410175811
 31
0.0
  0
LINE
  5
21B
  8
回07-寸法
  6
CONTINUOUS
 62
     5
 10
188.8033973814608
 20
609.4443410175811
 30
0.0
 11
193.8033973814608
 21
609.4443410175811
 31
0.0
  0
INSERT
  5
21C
  8
回07-寸法
  6
CONTINUOUS
 62
     5
 66
     1
  2
_OPEN
 10
183.8033973814608
 20
609.4443410175811
 30
0.0
 41
5.0
 42
5.0
 43
5.0
 50
180.0
  0
SEQEND
  5
21D
  8
回04-下接
  6
CONTINUOUS
 62
     1
  0
INSERT
  5
21E
  8
回07-寸法
  6
CONTINUOUS
 62
     5
 66
     1
  2
_OPEN
 10
172.3633973814612
 20
609.4443410175811
 30
0.0
 41
5.0
 42
5.0
 43
5.0
  0
SEQEND
  5
21F
  8
回04-下接
  6
CONTINUOUS
 62
     1
  0
TEXT
  5
220
  8
回07-寸法
  6
CONTINUOUS
 62
     5
 10
139.8633973814611
 20
609.9443410175811
 30
0.0
 40
8.0
  1
11.44
1001
ACAD
1000
MTEXTBEGIN
1070
    73
1070
     1
1070
    44
1040
1.0
1070
    74
1070
     0
1000
MTEXTEND
  0
POINT
  5
221
  8
DEFPOINTS
  6
CONTINUOUS
 62
     0
 10
183.8033973814608
 20
563.9893410175816
 30
0.0
  0
POINT
  5
222
  8
DEFPOINTS
  6
CONTINUOUS
 62
     0
 10
172.3633973814612
 20
574.4443410175818
 30
0.0
  0
POINT
  5
223
  8
DEFPOINTS
  6
CONTINUOUS
 62
     0
 10
172.3633973814612
 20
609.4443410175811
 30
0.0
  0
ENDBLK
  5
224
  8
0
 62
     1
  0
BLOCK
  8
0
  2
*D21
 70
     1
 10
0.0
 20
0.0
 30
0.0
  3
*D21
  1

  0
LINE
  5
206
  8
回07-寸法
  6
CONTINUOUS
 62
     5
 10
662.3633973814612
 20
561.9893410175816
 30
0.0
 11
662.3633973814612
 21
595.4443410175811
 31
0.0
  0
LINE
  5
207
  8
回07-寸法
  6
CONTINUOUS
 62
     5
 10
672.3633973814612
 20
574.4493714598872
 30
0.0
 11
672.3633973814612
 21
595.4443410175811
 31
0.0
  0
LINE
  5
208
  8
回07-寸法
  6
CONTINUOUS
 62
     5
 10
677.3633973814612
 20
594.4443410175811
 30
0.0
 11
696.9570981688629
 21
594.4443410175811
 31
0.0
  0
LINE
  5
209
  8
回07-寸法
  6
CONTINUOUS
 62
     5
 10
662.3633973814612
 20
594.4443410175811
 30
0.0
 11
672.3633973814612
 21
594.4443410175811
 31
0.0
  0
LINE
  5
20A
  8
回07-寸法
  6
CONTINUOUS
 62
     5
 10
657.3633973814613
 20
594.4443410175811
 30
0.0
 11
652.3633973814612
 21
594.4443410175811
 31
0.0
  0
INSERT
  5
20B
  8
回07-寸法
  6
CONTINUOUS
 62
     5
 66
     1
  2
_OPEN
 10
662.3633973814612
 20
594.4443410175811
 30
0.0
 41
5.0
 42
5.0
 43
5.0
  0
SEQEND
  5
20C
  8
回04-下接
  6
CONTINUOUS
 62
     1
  0
INSERT
  5
20D
  8
回07-寸法
  6
CONTINUOUS
 62
     5
 66
     1
  2
_OPEN
 10
672.3633973814612
 20
594.4443410175811
 30
0.0
 41
5.0
 42
5.0
 43
5.0
 50
180.0
  0
SEQEND
  5
20E
  8
回04-下接
  6
CONTINUOUS
 62
     1
  0
TEXT
  5
20F
  8
回07-寸法
  6
CONTINUOUS
 62
     5
 10
681.6602477751621
 20
595.344341017581
 30
0.0
 40
8.0
  1
(10)
1001
ACAD
1000
MTEXTBEGIN
1070
    73
1070
     1
1070
    44
1040
1.0
1070
    74
1070
     0
1000
MTEXTEND
  0
POINT
  5
210
  8
DEFPOINTS
  6
CONTINUOUS
 62
     0
 10
662.3633973814612
 20
561.9893410175816
 30
0.0
  0
POINT
  5
211
  8
DEFPOINTS
  6
CONTINUOUS
 62
     0
 10
672.3633973814612
 20
574.4493714598872
 30
0.0
  0
POINT
  5
212
  8
DEFPOINTS
  6
CONTINUOUS
 62
     0
 10
672.3633973814612
 20
594.4443410175811
 30
0.0
  0
ENDBLK
  5
213
  8
0
 62
     1
  0
BLOCK
  8
0
  2
*D22
 70
     1
 10
0.0
 20
0.0
 30
0.0
  3
*D22
  1

  0
LINE
  5
1F5
  8
回07-寸法
  6
CONTINUOUS
 62
     5
 10
664.3633973814612
 20
563.9893410175816
 30
0.0
 11
664.3633973814612
 21
610.4443410175811
 31
0.0
  0
LINE
  5
1F6
  8
回07-寸法
  6
CONTINUOUS
 62
     5
 10
672.3633973814612
 20
574.4493714598872
 30
0.0
 11
672.3633973814612
 21
610.4443410175811
 31
0.0
  0
LINE
  5
1F7
  8
回07-寸法
  6
CONTINUOUS
 62
     5
 10
677.3633973814612
 20
609.4443410175811
 30
0.0
 11
692.9570981688629
 21
609.4443410175811
 31
0.0
  0
LINE
  5
1F8
  8
回07-寸法
  6
CONTINUOUS
 62
     5
 10
664.3633973814612
 20
609.4443410175811
 30
0.0
 11
672.3633973814612
 21
609.4443410175811
 31
0.0
  0
LINE
  5
1F9
  8
回07-寸法
  6
CONTINUOUS
 62
     5
 10
659.3633973814612
 20
609.4443410175811
 30
0.0
 11
654.3633973814612
 21
609.4443410175811
 31
0.0
  0
INSERT
  5
1FA
  8
回07-寸法
  6
CONTINUOUS
 62
     5
 66
     1
  2
_OPEN
 10
664.3633973814612
 20
609.4443410175811
 30
0.0
 41
5.0
 42
5.0
 43
5.0
  0
SEQEND
  5
1FB
  8
回04-下接
  6
CONTINUOUS
 62
     1
  0
INSERT
  5
1FC
  8
回07-寸法
  6
CONTINUOUS
 62
     5
 66
     1
  2
_OPEN
 10
672.3633973814612
 20
609.4443410175811
 30
0.0
 41
5.0
 42
5.0
 43
5.0
 50
180.0
  0
SEQEND
  5
1FD
  8
回04-下接
  6
CONTINUOUS
 62
     1
  0
TEXT
  5
1FE
  8
回07-寸法
  6
CONTINUOUS
 62
     5
 10
681.6602477751621
 20
610.3443410175811
 30
0.0
 40
8.0
  1
(8)
1001
ACAD
1000
MTEXTBEGIN
1070
    73
1070
     1
1070
    44
1040
1.0
1070
    74
1070
     0
1000
MTEXTEND
  0
POINT
  5
1FF
  8
DEFPOINTS
  6
CONTINUOUS
 62
     0
 10
664.3633973814612
 20
563.9893410175816
 30
0.0
  0
POINT
  5
200
  8
DEFPOINTS
  6
CONTINUOUS
 62
     0
 10
672.3633973814612
 20
574.4493714598872
 30
0.0
  0
POINT
  5
201
  8
DEFPOINTS
  6
CONTINUOUS
 62
     0
 10
672.3633973814612
 20
609.4443410175811
 30
0.0
  0
ENDBLK
  5
202
  8
0
 62
     1
  0
BLOCK
  8
0
  2
*D23
 70
     1
 10
0.0
 20
0.0
 30
0.0
  3
*D23
  1

  0
LINE
  5
1E4
  8
回07-寸法
  6
CONTINUOUS
 62
     5
 10
662.3633973814612
 20
561.9893410175816
 30
0.0
 11
723.3633973814612
 21
561.9893410175816
 31
0.0
  0
LINE
  5
1E5
  8
回07-寸法
  6
CONTINUOUS
 62
     5
 10
672.3633973814612
 20
574.4493714598872
 30
0.0
 11
723.3633973814612
 21
574.4493714598872
 31
0.0
  0
LINE
  5
1E6
  8
回07-寸法
  6
CONTINUOUS
 62
     5
 10
722.3633973814612
 20
579.4493714598872
 30
0.0
 11
722.3633973814612
 21
616.2380418049835
 31
0.0
  0
LINE
  5
1E7
  8
回07-寸法
  6
CONTINUOUS
 62
     5
 10
722.3633973814612
 20
561.9893410175816
 30
0.0
 11
722.3633973814612
 21
574.4493714598872
 31
0.0
  0
LINE
  5
1E8
  8
回07-寸法
  6
CONTINUOUS
 62
     5
 10
722.3633973814612
 20
556.9893410175816
 30
0.0
 11
722.3633973814612
 21
551.9893410175816
 31
0.0
  0
INSERT
  5
1E9
  8
回07-寸法
  6
CONTINUOUS
 62
     5
 66
     1
  2
_OPEN
 10
722.3633973814612
 20
561.9893410175816
 30
0.0
 41
5.0
 42
5.0
 43
5.0
 50
90.0
  0
SEQEND
  5
1EA
  8
回04-下接
  6
CONTINUOUS
 62
     1
  0
INSERT
  5
1EB
  8
回07-寸法
  6
CONTINUOUS
 62
     5
 66
     1
  2
_OPEN
 10
722.3633973814612
 20
574.4493714598872
 30
0.0
 41
5.0
 42
5.0
 43
5.0
 50
270.0
  0
SEQEND
  5
1EC
  8
回04-下接
  6
CONTINUOUS
 62
     1
  0
TEXT
  5
1ED
  8
回07-寸法
  6
CONTINUOUS
 62
     5
 10
721.4633973814612
 20
586.5411914112826
 30
0.0
 40
8.0
  1
(12.46)
 50
90.0
1001
ACAD
1000
MTEXTBEGIN
1070
    73
1070
     1
1070
    44
1040
1.0
1070
    74
1070
     0
1000
MTEXTEND
  0
POINT
  5
1EE
  8
DEFPOINTS
  6
CONTINUOUS
 62
     0
 10
662.3633973814612
 20
561.9893410175816
 30
0.0
  0
POINT
  5
1EF
  8
DEFPOINTS
  6
CONTINUOUS
 62
     0
 10
672.3633973814612
 20
574.4493714598872
 30
0.0
  0
POINT
  5
1F0
  8
DEFPOINTS
  6
CONTINUOUS
 62
     0
 10
722.3633973814612
 20
574.4493714598872
 30
0.0
  0
ENDBLK
  5
1F1
  8
0
 62
     1
  0
BLOCK
  8
0
  2
*D24
 70
     1
 10
0.0
 20
0.0
 30
0.0
  3
*D24
  1

  0
LINE
  5
1D3
  8
回07-寸法
  6
CONTINUOUS
 62
     5
 10
664.3633973814612
 20
563.9893410175816
 30
0.0
 11
738.3633973814612
 21
563.9893410175816
 31
0.0
  0
LINE
  5
1D4
  8
回07-寸法
  6
CONTINUOUS
 62
     5
 10
672.3633973814612
 20
574.4493714598872
 30
0.0
 11
738.3633973814612
 21
574.4493714598872
 31
0.0
  0
LINE
  5
1D5
  8
回07-寸法
  6
CONTINUOUS
 62
     5
 10
737.3633973814612
 20
579.4493714598872
 30
0.0
 11
737.3633973814612
 21
616.2380418049835
 31
0.0
  0
LINE
  5
1D6
  8
回07-寸法
  6
CONTINUOUS
 62
     5
 10
737.3633973814612
 20
563.9893410175816
 30
0.0
 11
737.3633973814612
 21
574.4493714598872
 31
0.0
  0
LINE
  5
1D7
  8
回07-寸法
  6
CONTINUOUS
 62
     5
 10
737.3633973814612
 20
558.9893410175816
 30
0.0
 11
737.3633973814612
 21
553.9893410175816
 31
0.0
  0
INSERT
  5
1D8
  8
回07-寸法
  6
CONTINUOUS
 62
     5
 66
     1
  2
_OPEN
 10
737.3633973814612
 20
563.9893410175816
 30
0.0
 41
5.0
 42
5.0
 43
5.0
 50
90.0
  0
SEQEND
  5
1D9
  8
回04-下接
  6
CONTINUOUS
 62
     1
  0
INSERT
  5
1DA
  8
回07-寸法
  6
CONTINUOUS
 62
     5
 66
     1
  2
_OPEN
 10
737.3633973814612
 20
574.4493714598872
 30
0.0
 41
5.0
 42
5.0
 43
5.0
 50
270.0
  0
SEQEND
  5
1DB
  8
回04-下接
  6
CONTINUOUS
 62
     1
  0
TEXT
  5
1DC
  8
回07-寸法
  6
CONTINUOUS
 62
     5
 10
736.4633973814611
 20
586.5411914112826
 30
0.0
 40
8.0
  1
(10.46)
 50
90.0
1001
ACAD
1000
MTEXTBEGIN
1070
    73
1070
     1
1070
    44
1040
1.0
1070
    74
1070
     0
1000
MTEXTEND
  0
POINT
  5
1DD
  8
DEFPOINTS
  6
CONTINUOUS
 62
     0
 10
664.3633973814612
 20
563.9893410175816
 30
0.0
  0
POINT
  5
1DE
  8
DEFPOINTS
  6
CONTINUOUS
 62
     0
 10
672.3633973814612
 20
574.4493714598872
 30
0.0
  0
POINT
  5
1DF
  8
DEFPOINTS
  6
CONTINUOUS
 62
     0
 10
737.3633973814612
 20
574.4493714598872
 30
0.0
  0
ENDBLK
  5
1E0
  8
0
 62
     1
  0
BLOCK
  8
0
  2
*D25
 70
     1
 10
0.0
 20
0.0
 30
0.0
  3
*D25
  1

  0
LINE
  5
1C2
  8
回07-寸法
  6
CONTINUOUS
 62
     5
 10
662.3633973814612
 20
293.6993410175817
 30
0.0
 11
723.3633973814612
 21
293.6993410175817
 31
0.0
  0
LINE
  5
1C3
  8
回07-寸法
  6
CONTINUOUS
 62
     5
 10
672.3633973814612
 20
281.2443410175822
 30
0.0
 11
723.3633973814612
 21
281.2443410175822
 31
0.0
  0
LINE
  5
1C4
  8
回07-寸法
  6
CONTINUOUS
 62
     5
 10
722.3633973814612
 20
276.2443410175822
 30
0.0
 11
722.3633973814612
 21
242.8786555926332
 31
0.0
  0
LINE
  5
1C5
  8
回07-寸法
  6
CONTINUOUS
 62
     5
 10
722.3633973814612
 20
293.6993410175817
 30
0.0
 11
722.3633973814612
 21
281.2443410175822
 31
0.0
  0
LINE
  5
1C6
  8
回07-寸法
  6
CONTINUOUS
 62
     5
 10
722.3633973814612
 20
298.6993410175817
 30
0.0
 11
722.3633973814612
 21
303.6993410175817
 31
0.0
  0
INSERT
  5
1C7
  8
回07-寸法
  6
CONTINUOUS
 62
     5
 66
     1
  2
_OPEN
 10
722.3633973814612
 20
293.6993410175817
 30
0.0
 41
5.0
 42
5.0
 43
5.0
 50
270.0
  0
SEQEND
  5
1C8
  8
回04-下接
  6
CONTINUOUS
 62
     1
  0
INSERT
  5
1C9
  8
回07-寸法
  6
CONTINUOUS
 62
     5
 66
     1
  2
_OPEN
 10
722.3633973814612
 20
281.2443410175822
 30
0.0
 41
5.0
 42
5.0
 43
5.0
 50
90.0
  0
SEQEND
  5
1CA
  8
回04-下接
  6
CONTINUOUS
 62
     1
  0
TEXT
  5
1CB
  8
回07-寸法
  6
CONTINUOUS
 62
     5
 10
721.8633973814612
 20
242.1786555926332
 30
0.0
 40
8.0
  1
12.455
 50
90.0
1001
ACAD
1000
MTEXTBEGIN
1070
    73
1070
     1
1070
    44
1040
1.0
1070
    74
1070
     0
1000
MTEXTEND
  0
POINT
  5
1CC
  8
DEFPOINTS
  6
CONTINUOUS
 62
     0
 10
662.3633973814612
 20
293.6993410175817
 30
0.0
  0
POINT
  5
1CD
  8
DEFPOINTS
  6
CONTINUOUS
 62
     0
 10
672.3633973814612
 20
281.2443410175822
 30
0.0
  0
POINT
  5
1CE
  8
DEFPOINTS
  6
CONTINUOUS
 62
     0
 10
722.3633973814612
 20
281.2443410175822
 30
0.0
  0
ENDBLK
  5
1CF
  8
0
 62
     1
  0
BLOCK
  8
0
  2
*D26
 70
     1
 10
0.0
 20
0.0
 30
0.0
  3
*D26
  1

  0
LINE
  5
1B1
  8
回07-寸法
  6
CONTINUOUS
 62
     5
 10
664.3633973814612
 20
291.6993410175816
 30
0.0
 11
738.3633973814612
 21
291.6993410175816
 31
0.0
  0
LINE
  5
1B2
  8
回07-寸法
  6
CONTINUOUS
 62
     5
 10
672.3633973814612
 20
281.2443410175822
 30
0.0
 11
738.3633973814612
 21
281.2443410175822
 31
0.0
  0
LINE
  5
1B3
  8
回07-寸法
  6
CONTINUOUS
 62
     5
 10
737.3633973814612
 20
276.2443410175822
 30
0.0
 11
737.3633973814612
 21
242.8786555926332
 31
0.0
  0
LINE
  5
1B4
  8
回07-寸法
  6
CONTINUOUS
 62
     5
 10
737.3633973814612
 20
291.6993410175816
 30
0.0
 11
737.3633973814612
 21
281.2443410175822
 31
0.0
  0
LINE
  5
1B5
  8
回07-寸法
  6
CONTINUOUS
 62
     5
 10
737.3633973814612
 20
296.6993410175817
 30
0.0
 11
737.3633973814612
 21
301.6993410175817
 31
0.0
  0
INSERT
  5
1B6
  8
回07-寸法
  6
CONTINUOUS
 62
     5
 66
     1
  2
_OPEN
 10
737.3633973814612
 20
291.6993410175816
 30
0.0
 41
5.0
 42
5.0
 43
5.0
 50
270.0
  0
SEQEND
  5
1B7
  8
回04-下接
  6
CONTINUOUS
 62
     1
  0
INSERT
  5
1B8
  8
回07-寸法
  6
CONTINUOUS
 62
     5
 66
     1
  2
_OPEN
 10
737.3633973814612
 20
281.2443410175822
 30
0.0
 41
5.0
 42
5.0
 43
5.0
 50
90.0
  0
SEQEND
  5
1B9
  8
回04-下接
  6
CONTINUOUS
 62
     1
  0
TEXT
  5
1BA
  8
回07-寸法
  6
CONTINUOUS
 62
     5
 10
736.8633973814612
 20
242.1786555926332
 30
0.0
 40
8.0
  1
10.455
 50
90.0
1001
ACAD
1000
MTEXTBEGIN
1070
    73
1070
     1
1070
    44
1040
1.0
1070
    74
1070
     0
1000
MTEXTEND
  0
POINT
  5
1BB
  8
DEFPOINTS
  6
CONTINUOUS
 62
     0
 10
664.3633973814612
 20
291.6993410175816
 30
0.0
  0
POINT
  5
1BC
  8
DEFPOINTS
  6
CONTINUOUS
 62
     0
 10
672.3633973814612
 20
281.2443410175822
 30
0.0
  0
POINT
  5
1BD
  8
DEFPOINTS
  6
CONTINUOUS
 62
     0
 10
737.3633973814612
 20
281.2443410175822
 30
0.0
  0
ENDBLK
  5
1BE
  8
0
 62
     1
  0
BLOCK
  8
0
  2
*D27
 70
     1
 10
0.0
 20
0.0
 30
0.0
  3
*D27
  1

  0
LINE
  5
415
  8
回07-寸法
  6
CONTINUOUS
 62
     5
 10
92.36339738146126
 20
242.2612451200619
 30
0.0
 11
74.37777246289716
 21
242.2612451200619
 31
0.0
  0
LINE
  5
416
  8
回07-寸法
  6
CONTINUOUS
 62
     5
 10
92.36339738146126
 20
237.0211313523053
 30
0.0
 11
74.37777246289716
 21
237.0211313523053
 31
0.0
  0
LINE
  5
417
  8
回07-寸法
  6
CONTINUOUS
 62
     5
 10
75.37777246289715
 20
232.0211313523052
 30
0.0
 11
75.37777246289715
 21
195.7905680709951
 31
0.0
  0
LINE
  5
418
  8
回07-寸法
  6
CONTINUOUS
 62
     5
 10
75.37777246289715
 20
242.2612451200619
 30
0.0
 11
75.37777246289715
 21
237.0211313523053
 31
0.0
  0
LINE
  5
419
  8
回07-寸法
  6
CONTINUOUS
 62
     5
 10
75.37777246289715
 20
247.2612451200618
 30
0.0
 11
75.37777246289715
 21
252.2612451200619
 31
0.0
  0
INSERT
  5
41A
  8
回07-寸法
  6
CONTINUOUS
 62
     5
 66
     1
  2
_OPEN
 10
75.37777246289715
 20
242.2612451200619
 30
0.0
 41
5.0
 42
5.0
 43
5.0
 50
270.0
  0
SEQEND
  5
41B
  8
回04-下接
  6
CONTINUOUS
 62
     1
  0
INSERT
  5
41C
  8
回07-寸法
  6
CONTINUOUS
 62
     5
 66
     1
  2
_OPEN
 10
75.37777246289715
 20
237.0211313523053
 30
0.0
 41
5.0
 42
5.0
 43
5.0
 50
90.0
  0
SEQEND
  5
41D
  8
回04-下接
  6
CONTINUOUS
 62
     1
  0
INSERT
  5
41E
  8
回07-寸法
  6
CONTINUOUS
 62
     5
 66
     1
  2
*X91
 10
0.0
 20
0.0
 30
0.0
  0
SEQEND
  5
71B
  8
回04-下接
  6
CONTINUOUS
 62
     1
  0
POINT
  5
41F
  8
DEFPOINTS
  6
CONTINUOUS
 62
     0
 10
92.36339738146126
 20
242.2612451200619
 30
0.0
  0
POINT
  5
420
  8
DEFPOINTS
  6
CONTINUOUS
 62
     0
 10
92.36339738146126
 20
237.0211313523053
 30
0.0
  0
POINT
  5
421
  8
DEFPOINTS
  6
CONTINUOUS
 62
     0
 10
75.37777246289715
 20
237.0211313523053
 30
0.0
  0
ENDBLK
  5
422
  8
0
 62
     1
  0
BLOCK
  8
0
  2
*D28
 70
     1
 10
0.0
 20
0.0
 30
0.0
  3
*D28
  1

  0
LINE
  5
403
  8
回07-寸法
  6
CONTINUOUS
 62
     5
 10
92.36339738146126
 20
237.0211313523053
 30
0.0
 11
92.36339738146126
 21
219.3278835239291
 31
0.0
  0
LINE
  5
404
  8
回07-寸法
  6
CONTINUOUS
 62
     5
 10
102.3633973814612
 20
237.0211313523053
 30
0.0
 11
102.3633973814612
 21
219.3278835239291
 31
0.0
  0
LINE
  5
405
  8
回07-寸法
  6
CONTINUOUS
 62
     5
 10
107.3633973814612
 20
220.3278835239292
 30
0.0
 11
126.9570981688629
 21
220.3278835239292
 31
0.0
  0
LINE
  5
406
  8
回07-寸法
  6
CONTINUOUS
 62
     5
 10
92.36339738146126
 20
220.3278835239292
 30
0.0
 11
102.3633973814612
 21
220.3278835239292
 31
0.0
  0
LINE
  5
407
  8
回07-寸法
  6
CONTINUOUS
 62
     5
 10
87.36339738146126
 20
220.3278835239292
 30
0.0
 11
82.36339738146126
 21
220.3278835239292
 31
0.0
  0
INSERT
  5
408
  8
回07-寸法
  6
CONTINUOUS
 62
     5
 66
     1
  2
_OPEN
 10
92.36339738146126
 20
220.3278835239292
 30
0.0
 41
5.0
 42
5.0
 43
5.0
  0
SEQEND
  5
409
  8
回04-下接
  6
CONTINUOUS
 62
     1
  0
INSERT
  5
40A
  8
回07-寸法
  6
CONTINUOUS
 62
     5
 66
     1
  2
_OPEN
 10
102.3633973814612
 20
220.3278835239292
 30
0.0
 41
5.0
 42
5.0
 43
5.0
 50
180.0
  0
SEQEND
  5
40B
  8
回04-下接
  6
CONTINUOUS
 62
     1
  0
TEXT
  5
40C
  8
回07-寸法
  6
CONTINUOUS
 62
     5
 10
111.6602477751621
 20
221.2278835239291
 30
0.0
 40
8.0
  1
(10)
1001
ACAD
1000
MTEXTBEGIN
1070
    73
1070
     1
1070
    44
1040
1.0
1070
    74
1070
     0
1000
MTEXTEND
  0
POINT
  5
40D
  8
DEFPOINTS
  6
CONTINUOUS
 62
     0
 10
92.36339738146126
 20
237.0211313523053
 30
0.0
  0
POINT
  5
40E
  8
DEFPOINTS
  6
CONTINUOUS
 62
     0
 10
102.3633973814612
 20
237.0211313523053
 30
0.0
  0
POINT
  5
40F
  8
DEFPOINTS
  6
CONTINUOUS
 62
     0
 10
102.3633973814612
 20
220.3278835239292
 30
0.0
  0
ENDBLK
  5
410
  8
0
 62
     1
  0
BLOCK
  8
0
  2
*D29
 70
     1
 10
0.0
 20
0.0
 30
0.0
  3
*D29
  1

  0
LINE
  5
3EE
  8
回07-寸法
  6
CONTINUOUS
 62
     5
 10
92.36339738146126
 20
242.2612451200619
 30
0.0
 11
92.36339738146126
 21
253.2876343145001
 31
0.0
  0
LINE
  5
3EF
  8
回07-寸法
  6
CONTINUOUS
 62
     5
 10
97.36339738146126
 20
243.2612451200623
 30
0.0
 11
97.36339738146126
 21
253.2876343145001
 31
0.0
  0
LINE
  5
3F0
  8
回07-寸法
  6
CONTINUOUS
 62
     5
 10
102.3633973814612
 20
252.2876343145001
 30
0.0
 11
111.7290828064106
 21
252.2876343145001
 31
0.0
  0
LINE
  5
3F1
  8
回07-寸法
  6
CONTINUOUS
 62
     5
 10
92.36339738146126
 20
252.2876343145001
 30
0.0
 11
97.36339738146126
 21
252.2876343145001
 31
0.0
  0
LINE
  5
3F2
  8
回07-寸法
  6
CONTINUOUS
 62
     5
 10
87.36339738146126
 20
252.2876343145001
 30
0.0
 11
82.36339738146126
 21
252.2876343145001
 31
0.0
  0
INSERT
  5
3F3
  8
回07-寸法
  6
CONTINUOUS
 62
     5
 66
     1
  2
_OPEN
 10
92.36339738146126
 20
252.2876343145001
 30
0.0
 41
5.0
 42
5.0
 43
5.0
  0
SEQEND
  5
3F4
  8
回04-下接
  6
CONTINUOUS
 62
     1
  0
INSERT
  5
3F5
  8
回07-寸法
  6
CONTINUOUS
 62
     5
 66
     1
  2
_OPEN
 10
97.36339738146126
 20
252.2876343145001
 30
0.0
 41
5.0
 42
5.0
 43
5.0
 50
180.0
  0
SEQEND
  5
3F6
  8
回04-下接
  6
CONTINUOUS
 62
     1
  0
TEXT
  5
3F7
  8
回07-寸法
  6
CONTINUOUS
 62
     5
 10
106.8290828064107
 20
252.7876343145001
 30
0.0
 40
8.0
  1
5
1001
ACAD
1000
MTEXTBEGIN
1070
    73
1070
     1
1070
    44
1040
1.0
1070
    74
1070
     0
1000
MTEXTEND
  0
POINT
  5
3F8
  8
DEFPOINTS
  6
CONTINUOUS
 62
     0
 10
92.36339738146126
 20
242.2612451200619
 30
0.0
  0
POINT
  5
3F9
  8
DEFPOINTS
  6
CONTINUOUS
 62
     0
 10
97.36339738146126
 20
243.2612451200623
 30
0.0
  0
POINT
  5
3FA
  8
DEFPOINTS
  6
CONTINUOUS
 62
     0
 10
97.36339738146126
 20
252.2876343145001
 30
0.0
  0
ENDBLK
  5
3FB
  8
0
 62
     1
  0
BLOCK
  8
0
  2
*D30
 70
     1
 10
0.0
 20
0.0
 30
0.0
  3
*D30
  1

  0
LINE
  5
3B5
  8
回07-寸法
  6
CONTINUOUS
 62
     5
 10
671.8633973814603
 20
245.0940248761392
 30
0.0
 11
686.2397849689163
 21
245.0940248761392
 31
0.0
  0
LINE
  5
3B6
  8
回07-寸法
  6
CONTINUOUS
 62
     5
 10
672.3633973814603
 20
236.0211313523052
 30
0.0
 11
686.2397849689163
 21
236.0211313523052
 31
0.0
  0
LINE
  5
3B7
  8
回07-寸法
  6
CONTINUOUS
 62
     5
 10
685.2397849689164
 20
231.0211313523053
 30
0.0
 11
685.2397849689164
 21
200.719804610944
 31
0.0
  0
LINE
  5
3B8
  8
回07-寸法
  6
CONTINUOUS
 62
     5
 10
685.2397849689164
 20
245.0940248761392
 30
0.0
 11
685.2397849689164
 21
236.0211313523052
 31
0.0
  0
LINE
  5
3B9
  8
回07-寸法
  6
CONTINUOUS
 62
     5
 10
685.2397849689164
 20
250.0940248761392
 30
0.0
 11
685.2397849689164
 21
255.0940248761392
 31
0.0
  0
INSERT
  5
3BA
  8
回07-寸法
  6
CONTINUOUS
 62
     5
 66
     1
  2
_OPEN
 10
685.2397849689164
 20
245.0940248761392
 30
0.0
 41
5.0
 42
5.0
 43
5.0
 50
270.0
  0
SEQEND
  5
3BB
  8
回04-下接
  6
CONTINUOUS
 62
     1
  0
INSERT
  5
3BC
  8
回07-寸法
  6
CONTINUOUS
 62
     5
 66
     1
  2
_OPEN
 10
685.2397849689164
 20
236.0211313523052
 30
0.0
 41
5.0
 42
5.0
 43
5.0
 50
90.0
  0
SEQEND
  5
3BD
  8
回04-下接
  6
CONTINUOUS
 62
     1
  0
INSERT
  5
3BE
  8
回07-寸法
  6
CONTINUOUS
 62
     5
 66
     1
  2
*X92
 10
0.0
 20
0.0
 30
0.0
  0
SEQEND
  5
721
  8
回04-下接
  6
CONTINUOUS
 62
     1
  0
POINT
  5
3BF
  8
DEFPOINTS
  6
CONTINUOUS
 62
     0
 10
671.8633973814603
 20
245.0940248761392
 30
0.0
  0
POINT
  5
3C0
  8
DEFPOINTS
  6
CONTINUOUS
 62
     0
 10
672.3633973814603
 20
236.0211313523052
 30
0.0
  0
POINT
  5
3C1
  8
DEFPOINTS
  6
CONTINUOUS
 62
     0
 10
685.2397849689164
 20
236.0211313523052
 30
0.0
  0
ENDBLK
  5
3C2
  8
0
 62
     1
  0
BLOCK
  8
0
  2
*D31
 70
     1
 10
0.0
 20
0.0
 30
0.0
  3
*D31
  1

  0
LINE
  5
398
  8
回07-寸法
  6
CONTINUOUS
 62
     5
 10
672.3633973814603
 20
242.2612451200614
 30
0.0
 11
672.3633973814603
 21
253.5860159828274
 31
0.0
  0
LINE
  5
399
  8
回07-寸法
  6
CONTINUOUS
 62
     5
 10
671.8633973814603
 20
245.0940248761392
 30
0.0
 11
671.8633973814603
 21
253.5860159828274
 31
0.0
  0
LINE
  5
39A
  8
回07-寸法
  6
CONTINUOUS
 62
     5
 10
666.8633973814603
 20
252.5860159828273
 30
0.0
 11
643.2696965940587
 21
252.5860159828273
 31
0.0
  0
LINE
  5
39B
  8
回07-寸法
  6
CONTINUOUS
 62
     5
 10
672.3633973814603
 20
252.5860159828273
 30
0.0
 11
671.8633973814603
 21
252.5860159828273
 31
0.0
  0
LINE
  5
39C
  8
回07-寸法
  6
CONTINUOUS
 62
     5
 10
677.3633973814603
 20
252.5860159828273
 30
0.0
 11
682.3633973814603
 21
252.5860159828273
 31
0.0
  0
INSERT
  5
39D
  8
回07-寸法
  6
CONTINUOUS
 62
     5
 66
     1
  2
_OPEN
 10
672.3633973814603
 20
252.5860159828273
 30
0.0
 41
5.0
 42
5.0
 43
5.0
 50
180.0
  0
SEQEND
  5
39E
  8
回04-下接
  6
CONTINUOUS
 62
     1
  0
INSERT
  5
39F
  8
回07-寸法
  6
CONTINUOUS
 62
     5
 66
     1
  2
_OPEN
 10
671.8633973814603
 20
252.5860159828273
 30
0.0
 41
5.0
 42
5.0
 43
5.0
  0
SEQEND
  5
3A0
  8
回04-下接
  6
CONTINUOUS
 62
     1
  0
TEXT
  5
3A1
  8
回07-寸法
  6
CONTINUOUS
 62
     5
 10
642.5665469877595
 20
253.4860159828274
 30
0.0
 40
8.0
  1
(0.5)
1001
ACAD
1000
MTEXTBEGIN
1070
    73
1070
     1
1070
    44
1040
1.0
1070
    74
1070
     0
1000
MTEXTEND
  0
POINT
  5
3A2
  8
DEFPOINTS
  6
CONTINUOUS
 62
     0
 10
672.3633973814603
 20
242.2612451200614
 30
0.0
  0
POINT
  5
3A3
  8
DEFPOINTS
  6
CONTINUOUS
 62
     0
 10
671.8633973814603
 20
245.0940248761392
 30
0.0
  0
POINT
  5
3A4
  8
DEFPOINTS
  6
CONTINUOUS
 62
     0
 10
671.8633973814603
 20
252.5860159828273
 30
0.0
  0
ENDBLK
  5
3A5
  8
0
 62
     1
  0
BLOCK
  8
0
  2
*D32
 70
     1
 10
0.0
 20
0.0
 30
0.0
  3
*D32
  1

  0
LINE
  5
387
  8
回07-寸法
  6
CONTINUOUS
 62
     5
 10
172.3633973814612
 20
240.0211313523052
 30
0.0
 11
172.3633973814612
 21
254.6813578484764
 31
0.0
  0
LINE
  5
388
  8
回07-寸法
  6
CONTINUOUS
 62
     5
 10
172.8633973814612
 20
245.0940248761392
 30
0.0
 11
172.8633973814612
 21
254.6813578484764
 31
0.0
  0
LINE
  5
389
  8
回07-寸法
  6
CONTINUOUS
 62
     5
 10
177.8633973814612
 20
253.6813578484764
 30
0.0
 11
201.4570981688629
 21
253.6813578484764
 31
0.0
  0
LINE
  5
38A
  8
回07-寸法
  6
CONTINUOUS
 62
     5
 10
172.3633973814612
 20
253.6813578484764
 30
0.0
 11
172.8633973814612
 21
253.6813578484764
 31
0.0
  0
LINE
  5
38B
  8
回07-寸法
  6
CONTINUOUS
 62
     5
 10
167.3633973814612
 20
253.6813578484764
 30
0.0
 11
162.3633973814612
 21
253.6813578484764
 31
0.0
  0
INSERT
  5
38C
  8
回07-寸法
  6
CONTINUOUS
 62
     5
 66
     1
  2
_OPEN
 10
172.3633973814612
 20
253.6813578484764
 30
0.0
 41
5.0
 42
5.0
 43
5.0
  0
SEQEND
  5
38D
  8
回04-下接
  6
CONTINUOUS
 62
     1
  0
INSERT
  5
38E
  8
回07-寸法
  6
CONTINUOUS
 62
     5
 66
     1
  2
_OPEN
 10
172.8633973814612
 20
253.6813578484764
 30
0.0
 41
5.0
 42
5.0
 43
5.0
 50
180.0
  0
SEQEND
  5
38F
  8
回04-下接
  6
CONTINUOUS
 62
     1
  0
TEXT
  5
390
  8
回07-寸法
  6
CONTINUOUS
 62
     5
 10
182.160247775162
 20
254.5813578484765
 30
0.0
 40
8.0
  1
(0.5)
1001
ACAD
1000
MTEXTBEGIN
1070
    73
1070
     1
1070
    44
1040
1.0
1070
    74
1070
     0
1000
MTEXTEND
  0
POINT
  5
391
  8
DEFPOINTS
  6
CONTINUOUS
 62
     0
 10
172.3633973814612
 20
240.0211313523052
 30
0.0
  0
POINT
  5
392
  8
DEFPOINTS
  6
CONTINUOUS
 62
     0
 10
172.8633973814612
 20
245.0940248761392
 30
0.0
  0
POINT
  5
393
  8
DEFPOINTS
  6
CONTINUOUS
 62
     0
 10
172.8633973814612
 20
253.6813578484764
 30
0.0
  0
ENDBLK
  5
394
  8
0
 62
     1
  0
BLOCK
  8
0
  2
*D33
 70
     1
 10
0.0
 20
0.0
 30
0.0
  3
*D33
  1

  0
LINE
  5
370
  8
回07-寸法
  6
CONTINUOUS
 62
     5
 10
460.0833973814615
 20
391.8443410175817
 30
0.0
 11
479.2168535283626
 21
391.8443410175817
 31
0.0
  0
LINE
  5
371
  8
回07-寸法
  6
CONTINUOUS
 62
     5
 10
460.0833973814615
 20
395.8443410175817
 30
0.0
 11
479.2168535283626
 21
395.8443410175817
 31
0.0
  0
LINE
  5
372
  8
回07-寸法
  6
CONTINUOUS
 62
     5
 10
478.2168535283626
 20
400.8443410175816
 30
0.0
 11
478.2168535283626
 21
410.8443410175821
 31
0.0
  0
LINE
  5
373
  8
回07-寸法
  6
CONTINUOUS
 62
     5
 10
478.2168535283626
 20
391.8443410175817
 30
0.0
 11
478.2168535283626
 21
395.8443410175817
 31
0.0
  0
LINE
  5
374
  8
回07-寸法
  6
CONTINUOUS
 62
     5
 10
478.2168535283626
 20
386.8443410175816
 30
0.0
 11
478.2168535283626
 21
381.8443410175817
 31
0.0
  0
INSERT
  5
375
  8
回07-寸法
  6
CONTINUOUS
 62
     5
 66
     1
  2
_OPEN
 10
478.2168535283626
 20
391.8443410175817
 30
0.0
 41
5.0
 42
5.0
 43
5.0
 50
90.0
  0
SEQEND
  5
376
  8
回04-下接
  6
CONTINUOUS
 62
     1
  0
INSERT
  5
377
  8
回07-寸法
  6
CONTINUOUS
 62
     5
 66
     1
  2
_OPEN
 10
478.2168535283626
 20
395.8443410175817
 30
0.0
 41
5.0
 42
5.0
 43
5.0
 50
270.0
  0
SEQEND
  5
378
  8
回04-下接
  6
CONTINUOUS
 62
     1
  0
TEXT
  5
379
  8
回07-寸法
  6
CONTINUOUS
 62
     5
 10
477.7168535283626
 20
405.1443410175821
 30
0.0
 40
8.0
  1
4
 50
90.0
1001
ACAD
1000
MTEXTBEGIN
1070
    73
1070
     1
1070
    44
1040
1.0
1070
    74
1070
     0
1000
MTEXTEND
  0
POINT
  5
37A
  8
DEFPOINTS
  6
CONTINUOUS
 62
     0
 10
460.0833973814615
 20
391.8443410175817
 30
0.0
  0
POINT
  5
37B
  8
DEFPOINTS
  6
CONTINUOUS
 62
     0
 10
460.0833973814615
 20
395.8443410175817
 30
0.0
  0
POINT
  5
37C
  8
DEFPOINTS
  6
CONTINUOUS
 62
     0
 10
478.2168535283626
 20
395.8443410175817
 30
0.0
  0
ENDBLK
  5
37D
  8
0
 62
     1
  0
BLOCK
  8
0
  2
*D34
 70
     1
 10
0.0
 20
0.0
 30
0.0
  3
*D34
  1

  0
LINE
  5
35F
  8
回07-寸法
  6
CONTINUOUS
 62
     5
 10
460.0833973814615
 20
391.8443410175817
 30
0.0
 11
460.0833973814615
 21
375.6324912896737
 31
0.0
  0
LINE
  5
360
  8
回07-寸法
  6
CONTINUOUS
 62
     5
 10
456.0833973814615
 20
391.8443410175817
 30
0.0
 11
456.0833973814615
 21
375.6324912896737
 31
0.0
  0
LINE
  5
361
  8
回07-寸法
  6
CONTINUOUS
 62
     5
 10
451.0833973814615
 20
376.6324912896737
 30
0.0
 11
441.0833973814614
 21
376.6324912896737
 31
0.0
  0
LINE
  5
362
  8
回07-寸法
  6
CONTINUOUS
 62
     5
 10
460.0833973814615
 20
376.6324912896737
 30
0.0
 11
456.0833973814615
 21
376.6324912896737
 31
0.0
  0
LINE
  5
363
  8
回07-寸法
  6
CONTINUOUS
 62
     5
 10
465.0833973814615
 20
376.6324912896737
 30
0.0
 11
470.0833973814614
 21
376.6324912896737
 31
0.0
  0
INSERT
  5
364
  8
回07-寸法
  6
CONTINUOUS
 62
     5
 66
     1
  2
_OPEN
 10
460.0833973814615
 20
376.6324912896737
 30
0.0
 41
5.0
 42
5.0
 43
5.0
 50
180.0
  0
SEQEND
  5
365
  8
回04-下接
  6
CONTINUOUS
 62
     1
  0
INSERT
  5
366
  8
回07-寸法
  6
CONTINUOUS
 62
     5
 66
     1
  2
_OPEN
 10
456.0833973814615
 20
376.6324912896737
 30
0.0
 41
5.0
 42
5.0
 43
5.0
  0
SEQEND
  5
367
  8
回04-下接
  6
CONTINUOUS
 62
     1
  0
TEXT
  5
368
  8
回07-寸法
  6
CONTINUOUS
 62
     5
 10
440.3833973814615
 20
377.1324912896737
 30
0.0
 40
8.0
  1
4
1001
ACAD
1000
MTEXTBEGIN
1070
    73
1070
     1
1070
    44
1040
1.0
1070
    74
1070
     0
1000
MTEXTEND
  0
POINT
  5
369
  8
DEFPOINTS
  6
CONTINUOUS
 62
     0
 10
460.0833973814615
 20
391.8443410175817
 30
0.0
  0
POINT
  5
36A
  8
DEFPOINTS
  6
CONTINUOUS
 62
     0
 10
456.0833973814615
 20
391.8443410175817
 30
0.0
  0
POINT
  5
36B
  8
DEFPOINTS
  6
CONTINUOUS
 62
     0
 10
456.0833973814615
 20
376.6324912896737
 30
0.0
  0
ENDBLK
  5
36C
  8
0
 62
     1
  0
BLOCK
  8
0
  2
*D35
 70
     1
 10
0.0
 20
0.0
 30
0.0
  3
*D35
  1

  0
LINE
  5
A6
  8
0
  6
CONTINUOUS
 62
     5
 10
97.11739878573418
 20
526.2479078014567
 30
0.0
 11
90.43676201707331
 21
526.2479078014567
 31
0.0
  0
LINE
  5
A7
  8
0
  6
CONTINUOUS
 62
     5
 10
97.11739878573418
 20
528.0959078014566
 30
0.0
 11
90.43676201707331
 21
528.0959078014566
 31
0.0
  0
LINE
  5
A8
  8
0
  6
CONTINUOUS
 62
     5
 10
91.4367620170733
 20
523.2479078014566
 30
0.0
 11
91.4367620170733
 21
486.8155724785804
 31
0.0
  0
LINE
  5
A9
  8
0
  6
CONTINUOUS
 62
     5
 10
91.4367620170733
 20
526.2479078014567
 30
0.0
 11
91.4367620170733
 21
528.0959078014566
 31
0.0
  0
LINE
  5
AA
  8
0
  6
CONTINUOUS
 62
     5
 10
91.4367620170733
 20
531.0959078014566
 30
0.0
 11
91.4367620170733
 21
534.0959078014566
 31
0.0
  0
INSERT
  5
AB
  8
0
  6
CONTINUOUS
 62
     5
 66
     1
  2
_OPEN
 10
91.4367620170733
 20
526.2479078014567
 30
0.0
 41
3.0
 42
3.0
 43
3.0
 50
90.0
  0
SEQEND
  5
AC
  8
回04-下接
  6
CONTINUOUS
 62
     1
  0
INSERT
  5
AD
  8
0
  6
CONTINUOUS
 62
     5
 66
     1
  2
_OPEN
 10
91.4367620170733
 20
528.0959078014566
 30
0.0
 41
3.0
 42
3.0
 43
3.0
 50
270.0
  0
SEQEND
  5
AE
  8
回04-下接
  6
CONTINUOUS
 62
     1
  0
TEXT
  5
AF
  8
0
  6
CONTINUOUS
 62
     5
 10
90.9367620170733
 20
486.5655724785804
 30
0.0
 40
5.0
  1
4-0.7±0.1
 50
90.0
1001
ACAD
1000
MTEXTBEGIN
1070
    73
1070
     1
1070
    44
1040
1.0
1070
    74
1070
     0
1000
MTEXTEND
  0
POINT
  5
B0
  8
DEFPOINTS
  6
CONTINUOUS
 62
     0
 10
97.11739878573418
 20
526.2479078014567
 30
0.0
  0
POINT
  5
B1
  8
DEFPOINTS
  6
CONTINUOUS
 62
     0
 10
97.11739878573418
 20
528.0959078014566
 30
0.0
  0
POINT
  5
B2
  8
DEFPOINTS
  6
CONTINUOUS
 62
     0
 10
91.4367620170733
 20
528.0959078014566
 30
0.0
  0
ENDBLK
  5
B3
  8
0
 62
     1
  0
BLOCK
  8
0
  2
*D36
 70
     1
 10
0.0
 20
0.0
 30
0.0
  3
*D36
  1

  0
LINE
  5
95
  8
0
  6
CONTINUOUS
 62
     5
 10
89.88310103618188
 20
527.1719078014569
 30
0.0
 11
81.7173563923634
 21
527.1719078014569
 31
0.0
  0
LINE
  5
96
  8
0
  6
CONTINUOUS
 62
     5
 10
89.88321590460783
 20
530.4719078014561
 30
0.0
 11
81.7173563923634
 21
530.4719078014561
 31
0.0
  0
LINE
  5
97
  8
0
  6
CONTINUOUS
 62
     5
 10
82.71735639236339
 20
524.1719078014568
 30
0.0
 11
82.71735639236339
 21
496.5070913617694
 31
0.0
  0
LINE
  5
98
  8
0
  6
CONTINUOUS
 62
     5
 10
82.71735639236339
 20
527.1719078014569
 30
0.0
 11
82.71735639236339
 21
530.4719078014561
 31
0.0
  0
LINE
  5
99
  8
0
  6
CONTINUOUS
 62
     5
 10
82.71735639236339
 20
533.4719078014561
 30
0.0
 11
82.71735639236339
 21
536.4719078014561
 31
0.0
  0
INSERT
  5
9A
  8
0
  6
CONTINUOUS
 62
     5
 66
     1
  2
_OPEN
 10
82.71735639236339
 20
527.1719078014569
 30
0.0
 41
3.0
 42
3.0
 43
3.0
 50
90.0
  0
SEQEND
  5
9B
  8
回04-下接
  6
CONTINUOUS
 62
     1
  0
INSERT
  5
9C
  8
0
  6
CONTINUOUS
 62
     5
 66
     1
  2
_OPEN
 10
82.71735639236339
 20
530.4719078014561
 30
0.0
 41
3.0
 42
3.0
 43
3.0
 50
270.0
  0
SEQEND
  5
9D
  8
回04-下接
  6
CONTINUOUS
 62
     1
  0
TEXT
  5
9E
  8
0
  6
CONTINUOUS
 62
     5
 10
82.2173563923634
 20
496.2570913617694
 30
0.0
 40
5.0
  1
1.25±0.2
 50
90.0
1001
ACAD
1000
MTEXTBEGIN
1070
    73
1070
     1
1070
    44
1040
1.0
1070
    74
1070
     0
1000
MTEXTEND
  0
POINT
  5
9F
  8
DEFPOINTS
  6
CONTINUOUS
 62
     0
 10
89.88310103618188
 20
527.1719078014569
 30
0.0
  0
POINT
  5
A0
  8
DEFPOINTS
  6
CONTINUOUS
 62
     0
 10
89.88321590460783
 20
530.4719078014561
 30
0.0
  0
POINT
  5
A1
  8
DEFPOINTS
  6
CONTINUOUS
 62
     0
 10
82.71735639236339
 20
530.4719078014561
 30
0.0
  0
ENDBLK
  5
A2
  8
0
 62
     1
  0
BLOCK
  8
0
  2
*D37
 70
     1
 10
0.0
 20
0.0
 30
0.0
  3
*D37
  1

  0
LINE
  5
84
  8
0
  6
CONTINUOUS
 62
     5
 10
89.88310103618188
 20
527.1719078014569
 30
0.0
 11
74.00870809065191
 21
527.1719078014569
 31
0.0
  0
LINE
  5
85
  8
0
  6
CONTINUOUS
 62
     5
 10
89.88310103618188
 20
537.0719078014565
 30
0.0
 11
74.00870809065191
 21
537.0719078014565
 31
0.0
  0
LINE
  5
86
  8
0
  6
CONTINUOUS
 62
     5
 10
75.0087080906519
 20
524.1719078014568
 30
0.0
 11
75.0087080906519
 21
496.4092771758934
 31
0.0
  0
LINE
  5
87
  8
0
  6
CONTINUOUS
 62
     5
 10
75.0087080906519
 20
527.1719078014569
 30
0.0
 11
75.0087080906519
 21
537.0719078014565
 31
0.0
  0
LINE
  5
88
  8
0
  6
CONTINUOUS
 62
     5
 10
75.0087080906519
 20
540.0719078014565
 30
0.0
 11
75.0087080906519
 21
543.0719078014565
 31
0.0
  0
INSERT
  5
89
  8
0
  6
CONTINUOUS
 62
     5
 66
     1
  2
_OPEN
 10
75.0087080906519
 20
527.1719078014569
 30
0.0
 41
3.0
 42
3.0
 43
3.0
 50
90.0
  0
SEQEND
  5
8A
  8
回04-下接
  6
CONTINUOUS
 62
     1
  0
INSERT
  5
8B
  8
0
  6
CONTINUOUS
 62
     5
 66
     1
  2
_OPEN
 10
75.0087080906519
 20
537.0719078014565
 30
0.0
 41
3.0
 42
3.0
 43
3.0
 50
270.0
  0
SEQEND
  5
8C
  8
回04-下接
  6
CONTINUOUS
 62
     1
  0
TEXT
  5
8D
  8
0
  6
CONTINUOUS
 62
     5
 10
74.5087080906519
 20
496.1592771758935
 30
0.0
 40
5.0
  1
3.75±0.1
 50
90.0
1001
ACAD
1000
MTEXTBEGIN
1070
    73
1070
     1
1070
    44
1040
1.0
1070
    74
1070
     0
1000
MTEXTEND
  0
POINT
  5
8E
  8
DEFPOINTS
  6
CONTINUOUS
 62
     0
 10
89.88310103618188
 20
527.1719078014569
 30
0.0
  0
POINT
  5
8F
  8
DEFPOINTS
  6
CONTINUOUS
 62
     0
 10
89.88310103618188
 20
537.0719078014565
 30
0.0
  0
POINT
  5
90
  8
DEFPOINTS
  6
CONTINUOUS
 62
     0
 10
75.0087080906519
 20
537.0719078014565
 30
0.0
  0
ENDBLK
  5
91
  8
0
 62
     1
  0
BLOCK
  8
0
  2
*D38
 70
     1
 10
0.0
 20
0.0
 30
0.0
  3
*D38
  1

  0
LINE
  5
71
  8
0
  6
CONTINUOUS
 62
     5
 10
95.03059430315715
 20
523.871907801463
 30
0.0
 11
64.53481983091433
 21
523.871907801463
 31
0.0
  0
LINE
  5
73
  8
0
  6
CONTINUOUS
 62
     5
 10
95.03059430315715
 20
540.3719078014634
 30
0.0
 11
64.53481983091433
 21
540.3719078014634
 31
0.0
  0
LINE
  5
74
  8
0
  6
CONTINUOUS
 62
     5
 10
65.53481983091433
 20
520.871907801463
 30
0.0
 11
65.53481983091433
 21
494.0716010555553
 31
0.0
  0
LINE
  5
75
  8
0
  6
CONTINUOUS
 62
     5
 10
65.53481983091433
 20
523.871907801463
 30
0.0
 11
65.53481983091433
 21
540.3719078014634
 31
0.0
  0
LINE
  5
76
  8
0
  6
CONTINUOUS
 62
     5
 10
65.53481983091433
 20
543.3719078014633
 30
0.0
 11
65.53481983091433
 21
546.3719078014634
 31
0.0
  0
INSERT
  5
77
  8
0
  6
CONTINUOUS
 62
     5
 66
     1
  2
_OPEN
 10
65.53481983091433
 20
523.871907801463
 30
0.0
 41
3.0
 42
3.0
 43
3.0
 50
90.0
  0
SEQEND
  5
78
  8
回04-下接
  6
CONTINUOUS
 62
     1
  0
INSERT
  5
79
  8
0
  6
CONTINUOUS
 62
     5
 66
     1
  2
_OPEN
 10
65.53481983091433
 20
540.3719078014634
 30
0.0
 41
3.0
 42
3.0
 43
3.0
 50
270.0
  0
SEQEND
  5
7A
  8
回04-下接
  6
CONTINUOUS
 62
     1
  0
TEXT
  5
7B
  8
0
  6
CONTINUOUS
 62
     5
 10
65.03481983091432
 20
493.8216010555553
 30
0.0
 40
5.0
  1
6.25±0.2
 50
90.0
1001
ACAD
1000
MTEXTBEGIN
1070
    73
1070
     1
1070
    44
1040
1.0
1070
    74
1070
     0
1000
MTEXTEND
  0
POINT
  5
7C
  8
DEFPOINTS
  6
CONTINUOUS
 62
     0
 10
95.03059430315715
 20
523.871907801463
 30
0.0
  0
POINT
  5
7E
  8
DEFPOINTS
  6
CONTINUOUS
 62
     0
 10
95.03059430315715
 20
540.3719078014634
 30
0.0
  0
POINT
  5
7F
  8
DEFPOINTS
  6
CONTINUOUS
 62
     0
 10
65.53481983091433
 20
540.3719078014634
 30
0.0
  0
ENDBLK
  5
80
  8
0
 62
     1
  0
BLOCK
  8
回04-下接
  2
*D39
 70
     1
 10
0.0
 20
0.0
 30
0.0
  3
*D39
  1

  0
LINE
  5
488
  8
0
  6
CONTINUOUS
 62
     5
 10
85.30373337689594
 20
454.72059843257
 30
0.0
 11
54.8079589046531
 21
454.72059843257
 31
0.0
  0
LINE
  5
489
  8
0
  6
CONTINUOUS
 62
     5
 10
85.30373337689594
 20
471.2205984325704
 30
0.0
 11
54.8079589046531
 21
471.2205984325704
 31
0.0
  0
LINE
  5
48A
  8
0
  6
CONTINUOUS
 62
     5
 10
55.8079589046531
 20
451.72059843257
 30
0.0
 11
55.8079589046531
 21
424.9202916866622
 31
0.0
  0
LINE
  5
48B
  8
0
  6
CONTINUOUS
 62
     5
 10
55.8079589046531
 20
454.72059843257
 30
0.0
 11
55.8079589046531
 21
471.2205984325704
 31
0.0
  0
LINE
  5
48C
  8
0
  6
CONTINUOUS
 62
     5
 10
55.8079589046531
 20
474.2205984325703
 30
0.0
 11
55.8079589046531
 21
477.2205984325704
 31
0.0
  0
INSERT
  5
48D
  8
0
  6
CONTINUOUS
 62
     5
  2
_OPEN
 10
55.8079589046531
 20
454.72059843257
 30
0.0
 41
3.0
 42
3.0
 43
3.0
 50
90.0
  0
INSERT
  5
48E
  8
0
  6
CONTINUOUS
 62
     5
  2
_OPEN
 10
55.8079589046531
 20
471.2205984325704
 30
0.0
 41
3.0
 42
3.0
 43
3.0
 50
270.0
  0
TEXT
  5
48F
  8
0
  6
CONTINUOUS
 62
     5
 10
55.3079589046531
 20
424.6702916866623
 30
0.0
 40
5.0
  1
6.25±0.2
 50
90.0
  0
POINT
  5
490
  8
DEFPOINTS
  6
CONTINUOUS
 62
     0
 10
85.30373337689594
 20
454.72059843257
 30
0.0
  0
POINT
  5
491
  8
DEFPOINTS
  6
CONTINUOUS
 62
     0
 10
85.30373337689594
 20
471.2205984325704
 30
0.0
  0
POINT
  5
492
  8
DEFPOINTS
  6
CONTINUOUS
 62
     0
 10
55.8079589046531
 20
471.2205984325704
 30
0.0
  0
ENDBLK
  5
494
  8
回04-下接
  6
CONTINUOUS
 62
     1
  0
BLOCK
  8
回04-下接
  2
*D40
 70
     1
 10
0.0
 20
0.0
 30
0.0
  3
*D40
  1

  0
LINE
  5
496
  8
0
  6
CONTINUOUS
 62
     5
 10
80.15624010992064
 20
458.0205984325639
 30
0.0
 11
64.28184716439068
 21
458.0205984325639
 31
0.0
  0
LINE
  5
497
  8
0
  6
CONTINUOUS
 62
     5
 10
80.15624010992064
 20
467.9205984325634
 30
0.0
 11
64.28184716439068
 21
467.9205984325634
 31
0.0
  0
LINE
  5
498
  8
0
  6
CONTINUOUS
 62
     5
 10
65.28184716439068
 20
455.0205984325638
 30
0.0
 11
65.28184716439068
 21
427.2579678070004
 31
0.0
  0
LINE
  5
499
  8
0
  6
CONTINUOUS
 62
     5
 10
65.28184716439068
 20
458.0205984325639
 30
0.0
 11
65.28184716439068
 21
467.9205984325634
 31
0.0
  0
LINE
  5
49A
  8
0
  6
CONTINUOUS
 62
     5
 10
65.28184716439068
 20
470.9205984325635
 30
0.0
 11
65.28184716439068
 21
473.9205984325635
 31
0.0
  0
INSERT
  5
49B
  8
0
  6
CONTINUOUS
 62
     5
  2
_OPEN
 10
65.28184716439068
 20
458.0205984325639
 30
0.0
 41
3.0
 42
3.0
 43
3.0
 50
90.0
  0
INSERT
  5
49C
  8
0
  6
CONTINUOUS
 62
     5
  2
_OPEN
 10
65.28184716439068
 20
467.9205984325634
 30
0.0
 41
3.0
 42
3.0
 43
3.0
 50
270.0
  0
TEXT
  5
49D
  8
0
  6
CONTINUOUS
 62
     5
 10
64.78184716439068
 20
427.0079678070005
 30
0.0
 40
5.0
  1
3.75±0.1
 50
90.0
  0
POINT
  5
49E
  8
DEFPOINTS
  6
CONTINUOUS
 62
     0
 10
80.15624010992064
 20
458.0205984325639
 30
0.0
  0
POINT
  5
49F
  8
DEFPOINTS
  6
CONTINUOUS
 62
     0
 10
80.15624010992064
 20
467.9205984325634
 30
0.0
  0
POINT
  5
4A0
  8
DEFPOINTS
  6
CONTINUOUS
 62
     0
 10
65.28184716439068
 20
467.9205984325634
 30
0.0
  0
ENDBLK
  5
4A2
  8
回04-下接
  6
CONTINUOUS
 62
     1
  0
BLOCK
  8
回04-下接
  2
*D41
 70
     1
 10
0.0
 20
0.0
 30
0.0
  3
*D41
  1

  0
LINE
  5
4A4
  8
0
  6
CONTINUOUS
 62
     5
 10
80.15624010992064
 20
458.0205984325639
 30
0.0
 11
71.99049546610218
 21
458.0205984325639
 31
0.0
  0
LINE
  5
4A5
  8
0
  6
CONTINUOUS
 62
     5
 10
80.1563549783466
 20
461.3205984325631
 30
0.0
 11
71.99049546610218
 21
461.3205984325631
 31
0.0
  0
LINE
  5
4A6
  8
0
  6
CONTINUOUS
 62
     5
 10
72.99049546610217
 20
455.0205984325638
 30
0.0
 11
72.99049546610217
 21
427.3557819928764
 31
0.0
  0
LINE
  5
4A7
  8
0
  6
CONTINUOUS
 62
     5
 10
72.99049546610217
 20
458.0205984325639
 30
0.0
 11
72.99049546610217
 21
461.3205984325631
 31
0.0
  0
LINE
  5
4A8
  8
0
  6
CONTINUOUS
 62
     5
 10
72.99049546610217
 20
464.3205984325631
 30
0.0
 11
72.99049546610217
 21
467.3205984325631
 31
0.0
  0
INSERT
  5
4A9
  8
0
  6
CONTINUOUS
 62
     5
  2
_OPEN
 10
72.99049546610217
 20
458.0205984325639
 30
0.0
 41
3.0
 42
3.0
 43
3.0
 50
90.0
  0
INSERT
  5
4AA
  8
0
  6
CONTINUOUS
 62
     5
  2
_OPEN
 10
72.99049546610217
 20
461.3205984325631
 30
0.0
 41
3.0
 42
3.0
 43
3.0
 50
270.0
  0
TEXT
  5
4AB
  8
0
  6
CONTINUOUS
 62
     5
 10
72.49049546610217
 20
427.1057819928763
 30
0.0
 40
5.0
  1
1.25±0.2
 50
90.0
  0
POINT
  5
4AC
  8
DEFPOINTS
  6
CONTINUOUS
 62
     0
 10
80.15624010992064
 20
458.0205984325639
 30
0.0
  0
POINT
  5
4AD
  8
DEFPOINTS
  6
CONTINUOUS
 62
     0
 10
80.1563549783466
 20
461.3205984325631
 30
0.0
  0
POINT
  5
4AE
  8
DEFPOINTS
  6
CONTINUOUS
 62
     0
 10
72.99049546610217
 20
461.3205984325631
 30
0.0
  0
ENDBLK
  5
4B0
  8
回04-下接
  6
CONTINUOUS
 62
     1
  0
BLOCK
  8
回04-下接
  2
*D42
 70
     1
 10
0.0
 20
0.0
 30
0.0
  3
*D42
  1

  0
LINE
  5
4B2
  8
0
  6
CONTINUOUS
 62
     5
 10
87.39053785947294
 20
457.0965984325637
 30
0.0
 11
80.70990109081208
 21
457.0965984325637
 31
0.0
  0
LINE
  5
4B3
  8
0
  6
CONTINUOUS
 62
     5
 10
87.39053785947294
 20
458.9445984325636
 30
0.0
 11
80.70990109081208
 21
458.9445984325636
 31
0.0
  0
LINE
  5
4B4
  8
0
  6
CONTINUOUS
 62
     5
 10
81.70990109081207
 20
454.0965984325636
 30
0.0
 11
81.70990109081207
 21
417.6642631096873
 31
0.0
  0
LINE
  5
4B5
  8
0
  6
CONTINUOUS
 62
     5
 10
81.70990109081207
 20
457.0965984325637
 30
0.0
 11
81.70990109081207
 21
458.9445984325636
 31
0.0
  0
LINE
  5
4B6
  8
0
  6
CONTINUOUS
 62
     5
 10
81.70990109081207
 20
461.9445984325635
 30
0.0
 11
81.70990109081207
 21
464.9445984325636
 31
0.0
  0
INSERT
  5
4B7
  8
0
  6
CONTINUOUS
 62
     5
  2
_OPEN
 10
81.70990109081207
 20
457.0965984325637
 30
0.0
 41
3.0
 42
3.0
 43
3.0
 50
90.0
  0
INSERT
  5
4B8
  8
0
  6
CONTINUOUS
 62
     5
  2
_OPEN
 10
81.70990109081207
 20
458.9445984325636
 30
0.0
 41
3.0
 42
3.0
 43
3.0
 50
270.0
  0
TEXT
  5
4B9
  8
0
  6
CONTINUOUS
 62
     5
 10
81.20990109081208
 20
417.4142631096874
 30
0.0
 40
5.0
  1
4-0.7±0.1
 50
90.0
  0
POINT
  5
4BA
  8
DEFPOINTS
  6
CONTINUOUS
 62
     0
 10
87.39053785947294
 20
457.0965984325637
 30
0.0
  0
POINT
  5
4BB
  8
DEFPOINTS
  6
CONTINUOUS
 62
     0
 10
87.39053785947294
 20
458.9445984325636
 30
0.0
  0
POINT
  5
4BC
  8
DEFPOINTS
  6
CONTINUOUS
 62
     0
 10
81.70990109081207
 20
458.9445984325636
 30
0.0
  0
ENDBLK
  5
4BE
  8
回04-下接
  6
CONTINUOUS
 62
     1
  0
BLOCK
  8
回04-下接
  2
*D43
 70
     1
 10
0.0
 20
0.0
 30
0.0
  3
*D43
  1

  0
LINE
  5
4C0
  8
回07-寸法
  6
CONTINUOUS
 62
     5
 10
162.6365364552
 20
367.3701561928803
 30
0.0
 11
162.6365364552
 21
402.5841353790528
 31
0.0
  0
LINE
  5
4C1
  8
回07-寸法
  6
CONTINUOUS
 62
     5
 10
82.63649294443325
 20
361.3180316486893
 30
0.0
 11
82.63649294443325
 21
402.5841353790528
 31
0.0
  0
LINE
  5
4C2
  8
回07-寸法
  6
CONTINUOUS
 62
     5
 10
157.6365364552
 20
401.5841353790528
 30
0.0
 11
87.63649294443325
 21
401.5841353790528
 31
0.0
  0
INSERT
  5
4C3
  8
回07-寸法
  6
CONTINUOUS
 62
     5
  2
_OPEN
 10
162.6365364552
 20
401.5841353790528
 30
0.0
 41
5.0
 42
5.0
 43
5.0
  0
INSERT
  5
4C4
  8
回07-寸法
  6
CONTINUOUS
 62
     5
  2
_OPEN
 10
82.63649294443325
 20
401.5841353790528
 30
0.0
 41
5.0
 42
5.0
 43
5.0
 50
180.0
  0
INSERT
  5
4C5
  8
回07-寸法
  6
CONTINUOUS
 62
     5
 66
     1
  2
*X93
 10
0.0
 20
0.0
 30
0.0
  0
SEQEND
  5
727
  8
回04-下接
  6
CONTINUOUS
 62
     1
  0
POINT
  5
4C6
  8
DEFPOINTS
  6
CONTINUOUS
 62
     0
 10
162.6365364552
 20
367.3701561928803
 30
0.0
  0
POINT
  5
4C7
  8
DEFPOINTS
  6
CONTINUOUS
 62
     0
 10
82.63649294443325
 20
361.3180316486893
 30
0.0
  0
POINT
  5
4C8
  8
DEFPOINTS
  6
CONTINUOUS
 62
     0
 10
82.63649294443325
 20
401.5841353790528
 30
0.0
  0
ENDBLK
  5
4CA
  8
回04-下接
  6
CONTINUOUS
 62
     1
  0
BLOCK
  8
回04-下接
  2
*D44
 70
     1
 10
0.0
 20
0.0
 30
0.0
  3
*D44
  1

  0
LINE
  5
4CC
  8
回07-寸法
  6
CONTINUOUS
 62
     5
 10
162.6365364552
 20
350.0159073042216
 30
0.0
 11
162.6365364552
 21
336.8885650739548
 31
0.0
  0
LINE
  5
4CD
  8
回07-寸法
  6
CONTINUOUS
 62
     5
 10
158.0360339426377
 20
350.7821855679926
 30
0.0
 11
158.0360339426377
 21
336.8885650739548
 31
0.0
  0
LINE
  5
4CE
  8
回07-寸法
  6
CONTINUOUS
 62
     5
 10
153.0360339426377
 20
337.8885650739548
 30
0.0
 11
130.2326938289019
 21
337.8885650739548
 31
0.0
  0
LINE
  5
4CF
  8
回07-寸法
  6
CONTINUOUS
 62
     5
 10
162.6365364552
 20
337.8885650739548
 30
0.0
 11
158.0360339426377
 21
337.8885650739548
 31
0.0
  0
LINE
  5
4D0
  8
回07-寸法
  6
CONTINUOUS
 62
     5
 10
167.6365364552
 20
337.8885650739548
 30
0.0
 11
172.6365364552
 21
337.8885650739548
 31
0.0
  0
INSERT
  5
4D1
  8
回07-寸法
  6
CONTINUOUS
 62
     5
  2
_OPEN
 10
162.6365364552
 20
337.8885650739548
 30
0.0
 41
5.0
 42
5.0
 43
5.0
 50
180.0
  0
INSERT
  5
4D2
  8
回07-寸法
  6
CONTINUOUS
 62
     5
  2
_OPEN
 10
158.0360339426377
 20
337.8885650739548
 30
0.0
 41
5.0
 42
5.0
 43
5.0
  0
TEXT
  5
4D3
  8
回07-寸法
  6
CONTINUOUS
 62
     5
 10
129.5326938289019
 20
338.3885650739548
 30
0.0
 40
8.0
  1
4.6
  0
POINT
  5
4D4
  8
DEFPOINTS
  6
CONTINUOUS
 62
     0
 10
162.6365364552
 20
350.0159073042216
 30
0.0
  0
POINT
  5
4D5
  8
DEFPOINTS
  6
CONTINUOUS
 62
     0
 10
158.0360339426377
 20
350.7821855679926
 30
0.0
  0
POINT
  5
4D6
  8
DEFPOINTS
  6
CONTINUOUS
 62
     0
 10
158.0360339426377
 20
337.8885650739548
 30
0.0
  0
ENDBLK
  5
4D8
  8
回04-下接
  6
CONTINUOUS
 62
     1
  0
BLOCK
  8
回04-下接
  2
*D45
 70
     1
 10
0.0
 20
0.0
 30
0.0
  3
*D45
  1

  0
LINE
  5
4DA
  8
回07-寸法
 62
     5
 10
83.13649294443326
 20
361.8180316486889
 30
0.0
 11
71.19344789626189
 21
361.8180316486889
 31
0.0
  0
LINE
  5
4DB
  8
回07-寸法
 62
     5
 10
83.13649294443326
 20
355.5680316486889
 30
0.0
 11
71.19344789626189
 21
355.5680316486889
 31
0.0
  0
LINE
  5
4DC
  8
回07-寸法
 62
     5
 10
72.19344789626188
 20
366.8180316486889
 30
0.0
 11
72.19344789626188
 21
403.8261862277289
 31
0.0
  0
LINE
  5
4DD
  8
回07-寸法
 62
     5
 10
72.19344789626188
 20
361.8180316486889
 30
0.0
 11
72.19344789626188
 21
355.5680316486889
 31
0.0
  0
LINE
  5
4DE
  8
回07-寸法
 62
     5
 10
72.19344789626188
 20
350.5680316486889
 30
0.0
 11
72.19344789626188
 21
345.5680316486889
 31
0.0
  0
INSERT
  5
4DF
  8
回07-寸法
  6
CONTINUOUS
 62
     5
  2
_OPEN
 10
72.19344789626188
 20
361.8180316486889
 30
0.0
 41
5.0
 42
5.0
 43
5.0
 50
270.0
  0
INSERT
  5
4E0
  8
回07-寸法
  6
CONTINUOUS
 62
     5
  2
_OPEN
 10
72.19344789626188
 20
355.5680316486889
 30
0.0
 41
5.0
 42
5.0
 43
5.0
 50
90.0
  0
INSERT
  5
4E1
  8
回07-寸法
  6
CONTINUOUS
 62
     5
 66
     1
  2
*X94
 10
0.0
 20
0.0
 30
0.0
  0
SEQEND
  5
72D
  8
回04-下接
  6
CONTINUOUS
 62
     1
  0
POINT
  5
4E2
  8
DEFPOINTS
  6
CONTINUOUS
 62
     0
 10
83.13649294443326
 20
361.8180316486889
 30
0.0
  0
POINT
  5
4E3
  8
DEFPOINTS
  6
CONTINUOUS
 62
     0
 10
83.13649294443326
 20
355.5680316486889
 30
0.0
  0
POINT
  5
4E4
  8
DEFPOINTS
  6
CONTINUOUS
 62
     0
 10
72.19344789626188
 20
355.5680316486889
 30
0.0
  0
ENDBLK
  5
4E6
  8
回04-下接
  6
CONTINUOUS
 62
     1
  0
BLOCK
  8
回04-下接
  2
*D46
 70
     1
 10
0.0
 20
0.0
 30
0.0
  3
*D46
  1

  0
LINE
  5
4E8
  8
回07-寸法
  6
CONTINUOUS
 62
     5
 10
162.6365364552
 20
350.0159073042214
 30
0.0
 11
162.6365364552
 21
322.8811712657706
 31
0.0
  0
LINE
  5
4E9
  8
回07-寸法
  6
CONTINUOUS
 62
     5
 10
153.1406053351727
 20
355.4748421924805
 30
0.0
 11
153.1406053351727
 21
322.8811712657706
 31
0.0
  0
LINE
  5
4EA
  8
回07-寸法
  6
CONTINUOUS
 62
     5
 10
148.1406053351727
 20
323.8811712657707
 30
0.0
 11
130.6092344852742
 21
323.8811712657707
 31
0.0
  0
LINE
  5
4EB
  8
回07-寸法
  6
CONTINUOUS
 62
     5
 10
162.6365364552
 20
323.8811712657707
 30
0.0
 11
153.1406053351727
 21
323.8811712657707
 31
0.0
  0
LINE
  5
4EC
  8
回07-寸法
  6
CONTINUOUS
 62
     5
 10
167.6365364552
 20
323.8811712657707
 30
0.0
 11
172.6365364552
 21
323.8811712657707
 31
0.0
  0
INSERT
  5
4ED
  8
回07-寸法
  6
CONTINUOUS
 62
     5
  2
_OPEN
 10
162.6365364552
 20
323.8811712657707
 30
0.0
 41
5.0
 42
5.0
 43
5.0
 50
180.0
  0
INSERT
  5
4EE
  8
回07-寸法
  6
CONTINUOUS
 62
     5
  2
_OPEN
 10
153.1406053351727
 20
323.8811712657707
 30
0.0
 41
5.0
 42
5.0
 43
5.0
  0
TEXT
  5
4EF
  8
回07-寸法
  6
CONTINUOUS
 62
     5
 10
129.8803515370584
 20
324.3811712657707
 30
0.0
 40
8.0
  1
9.5
  0
POINT
  5
4F0
  8
DEFPOINTS
  6
CONTINUOUS
 62
     0
 10
162.6365364552
 20
350.0159073042214
 30
0.0
  0
POINT
  5
4F1
  8
DEFPOINTS
  6
CONTINUOUS
 62
     0
 10
153.1406053351727
 20
355.4748421924805
 30
0.0
  0
POINT
  5
4F2
  8
DEFPOINTS
  6
CONTINUOUS
 62
     0
 10
153.1406053351727
 20
323.8811712657707
 30
0.0
  0
ENDBLK
  5
4F4
  8
回04-下接
  6
CONTINUOUS
 62
     1
  0
BLOCK
  8
回04-下接
  2
*D47
 70
     1
 10
0.0
 20
0.0
 30
0.0
  3
*D47
  1

  0
LINE
  5
4F6
  8
回07-寸法
  6
CONTINUOUS
 62
     5
 10
158.448780132541
 20
350.6930316486889
 30
0.0
 11
121.0465794335075
 21
350.6930316486889
 31
0.0
  0
LINE
  5
4F7
  8
回07-寸法
  6
CONTINUOUS
 62
     5
 10
158.4446065468344
 20
366.691828614417
 30
0.0
 11
121.0465794335075
 21
366.691828614417
 31
0.0
  0
LINE
  5
4F8
  8
回07-寸法
  6
CONTINUOUS
 62
     5
 10
122.0465794335075
 20
345.6930316486889
 30
0.0
 11
122.0465794335075
 21
323.9456928054533
 31
0.0
  0
LINE
  5
4F9
  8
回07-寸法
  6
CONTINUOUS
 62
     5
 10
122.0465794335075
 20
350.6930316486889
 30
0.0
 11
122.0465794335075
 21
366.691828614417
 31
0.0
  0
LINE
  5
4FA
  8
回07-寸法
  6
CONTINUOUS
 62
     5
 10
122.0465794335075
 20
371.691828614417
 30
0.0
 11
122.0465794335075
 21
376.6918286144171
 31
0.0
  0
INSERT
  5
4FB
  8
回07-寸法
  6
CONTINUOUS
 62
     5
  2
_OPEN
 10
122.0465794335075
 20
350.6930316486889
 30
0.0
 41
5.0
 42
5.0
 43
5.0
 50
90.0
  0
INSERT
  5
4FC
  8
回07-寸法
  6
CONTINUOUS
 62
     5
  2
_OPEN
 10
122.0465794335075
 20
366.691828614417
 30
0.0
 41
5.0
 42
5.0
 43
5.0
 50
270.0
  0
TEXT
  5
4FD
  8
回07-寸法
  6
CONTINUOUS
 62
     5
 10
121.5465794335075
 20
323.2456928054532
 30
0.0
 40
8.0
  1
16
 50
90.0
  0
POINT
  5
4FE
  8
DEFPOINTS
  6
CONTINUOUS
 62
     0
 10
158.448780132541
 20
350.6930316486889
 30
0.0
  0
POINT
  5
4FF
  8
DEFPOINTS
  6
CONTINUOUS
 62
     0
 10
158.4446065468344
 20
366.691828614417
 30
0.0
  0
POINT
  5
500
  8
DEFPOINTS
  6
CONTINUOUS
 62
     0
 10
122.0465794335075
 20
366.691828614417
 30
0.0
  0
ENDBLK
  5
502
  8
回04-下接
  6
CONTINUOUS
 62
     1
  0
BLOCK
  8
回04-下接
  2
*D48
 70
     1
 10
0.0
 20
0.0
 30
0.0
  3
*D48
  1

  0
LINE
  5
504
  8
回07-寸法
  6
CONTINUOUS
 62
     5
 10
163.6365364552
 20
212.0930316486892
 30
0.0
 11
71.19344789626189
 21
212.0930316486892
 31
0.0
  0
LINE
  5
505
  8
回07-寸法
  6
CONTINUOUS
 62
     5
 10
83.13649294443326
 20
355.5680316486889
 30
0.0
 11
71.19344789626189
 21
355.5680316486889
 31
0.0
  0
LINE
  5
506
  8
回07-寸法
  6
CONTINUOUS
 62
     5
 10
72.19344789626188
 20
217.0930316486892
 30
0.0
 11
72.19344789626188
 21
350.5680316486889
 31
0.0
  0
INSERT
  5
507
  8
回07-寸法
  6
CONTINUOUS
 62
     5
  2
_OPEN
 10
72.19344789626188
 20
212.0930316486892
 30
0.0
 41
5.0
 42
5.0
 43
5.0
 50
270.0
  0
INSERT
  5
508
  8
回07-寸法
  6
CONTINUOUS
 62
     5
  2
_OPEN
 10
72.19344789626188
 20
355.5680316486889
 30
0.0
 41
5.0
 42
5.0
 43
5.0
 50
90.0
  0
TEXT
  5
509
  8
回07-寸法
  6
CONTINUOUS
 62
     5
 10
71.2934478962618
 20
275.7305316486889
 30
0.0
 40
8.0
  1
(143.48)
 50
90.0
  0
POINT
  5
50A
  8
DEFPOINTS
  6
CONTINUOUS
 62
     0
 10
163.6365364552
 20
212.0930316486892
 30
0.0
  0
POINT
  5
50B
  8
DEFPOINTS
  6
CONTINUOUS
 62
     0
 10
83.13649294443326
 20
355.5680316486889
 30
0.0
  0
POINT
  5
50C
  8
DEFPOINTS
  6
CONTINUOUS
 62
     0
 10
72.19344789626188
 20
355.5680316486889
 30
0.0
  0
ENDBLK
  5
50E
  8
回04-下接
  6
CONTINUOUS
 62
     1
  0
BLOCK
  8
回04-下接
  2
*D49
 70
     1
 10
0.0
 20
0.0
 30
0.0
  3
*D49
  1

  0
LINE
  5
510
  8
回07-寸法
  6
CONTINUOUS
 62
     5
 10
654.6365364552
 20
222.5480316486887
 30
0.0
 11
728.6365364552
 21
222.5480316486887
 31
0.0
  0
LINE
  5
511
  8
回07-寸法
  6
CONTINUOUS
 62
     5
 10
662.6365364552
 20
212.0930316486892
 30
0.0
 11
728.6365364552
 21
212.0930316486892
 31
0.0
  0
LINE
  5
512
  8
回07-寸法
  6
CONTINUOUS
 62
     5
 10
727.6365364552
 20
207.0930316486892
 30
0.0
 11
727.6365364552
 21
173.7273462237402
 31
0.0
  0
LINE
  5
513
  8
回07-寸法
  6
CONTINUOUS
 62
     5
 10
727.6365364552
 20
222.5480316486887
 30
0.0
 11
727.6365364552
 21
212.0930316486892
 31
0.0
  0
LINE
  5
514
  8
回07-寸法
  6
CONTINUOUS
 62
     5
 10
727.6365364552
 20
227.5480316486887
 30
0.0
 11
727.6365364552
 21
232.5480316486887
 31
0.0
  0
INSERT
  5
515
  8
回07-寸法
  6
CONTINUOUS
 62
     5
  2
_OPEN
 10
727.6365364552
 20
222.5480316486887
 30
0.0
 41
5.0
 42
5.0
 43
5.0
 50
270.0
  0
INSERT
  5
516
  8
回07-寸法
  6
CONTINUOUS
 62
     5
  2
_OPEN
 10
727.6365364552
 20
212.0930316486892
 30
0.0
 41
5.0
 42
5.0
 43
5.0
 50
90.0
  0
TEXT
  5
517
  8
回07-寸法
  6
CONTINUOUS
 62
     5
 10
727.1365364552
 20
173.0273462237402
 30
0.0
 40
8.0
  1
10.455
 50
90.0
  0
POINT
  5
518
  8
DEFPOINTS
  6
CONTINUOUS
 62
     0
 10
654.6365364552
 20
222.5480316486887
 30
0.0
  0
POINT
  5
519
  8
DEFPOINTS
  6
CONTINUOUS
 62
     0
 10
662.6365364552
 20
212.0930316486892
 30
0.0
  0
POINT
  5
51A
  8
DEFPOINTS
  6
CONTINUOUS
 62
     0
 10
727.6365364552
 20
212.0930316486892
 30
0.0
  0
ENDBLK
  5
51C
  8
回04-下接
  6
CONTINUOUS
 62
     1
  0
BLOCK
  8
回04-下接
  2
*D50
 70
     1
 10
0.0
 20
0.0
 30
0.0
  3
*D50
  1

  0
LINE
  5
51E
  8
回07-寸法
  6
CONTINUOUS
 62
     5
 10
652.6365364552
 20
224.5480316486887
 30
0.0
 11
713.6365364552
 21
224.5480316486887
 31
0.0
  0
LINE
  5
51F
  8
回07-寸法
  6
CONTINUOUS
 62
     5
 10
662.6365364552
 20
212.0930316486892
 30
0.0
 11
713.6365364552
 21
212.0930316486892
 31
0.0
  0
LINE
  5
520
  8
回07-寸法
  6
CONTINUOUS
 62
     5
 10
712.6365364552
 20
207.0930316486892
 30
0.0
 11
712.6365364552
 21
173.7273462237402
 31
0.0
  0
LINE
  5
521
  8
回07-寸法
  6
CONTINUOUS
 62
     5
 10
712.6365364552
 20
224.5480316486887
 30
0.0
 11
712.6365364552
 21
212.0930316486892
 31
0.0
  0
LINE
  5
522
  8
回07-寸法
  6
CONTINUOUS
 62
     5
 10
712.6365364552
 20
229.5480316486887
 30
0.0
 11
712.6365364552
 21
234.5480316486887
 31
0.0
  0
INSERT
  5
523
  8
回07-寸法
  6
CONTINUOUS
 62
     5
  2
_OPEN
 10
712.6365364552
 20
224.5480316486887
 30
0.0
 41
5.0
 42
5.0
 43
5.0
 50
270.0
  0
INSERT
  5
524
  8
回07-寸法
  6
CONTINUOUS
 62
     5
  2
_OPEN
 10
712.6365364552
 20
212.0930316486892
 30
0.0
 41
5.0
 42
5.0
 43
5.0
 50
90.0
  0
TEXT
  5
525
  8
回07-寸法
  6
CONTINUOUS
 62
     5
 10
712.1365364552
 20
173.0273462237402
 30
0.0
 40
8.0
  1
12.455
 50
90.0
  0
POINT
  5
526
  8
DEFPOINTS
  6
CONTINUOUS
 62
     0
 10
652.6365364552
 20
224.5480316486887
 30
0.0
  0
POINT
  5
527
  8
DEFPOINTS
  6
CONTINUOUS
 62
     0
 10
662.6365364552
 20
212.0930316486892
 30
0.0
  0
POINT
  5
528
  8
DEFPOINTS
  6
CONTINUOUS
 62
     0
 10
712.6365364552
 20
212.0930316486892
 30
0.0
  0
ENDBLK
  5
52A
  8
回04-下接
  6
CONTINUOUS
 62
     1
  0
BLOCK
  8
回04-下接
  2
*D51
 70
     1
 10
0.0
 20
0.0
 30
0.0
  3
*D51
  1

  0
LINE
  5
52C
  8
回07-寸法
  6
CONTINUOUS
 62
     5
 10
654.6365364552
 20
494.8380316486886
 30
0.0
 11
728.6365364552
 21
494.8380316486886
 31
0.0
  0
LINE
  5
52D
  8
回07-寸法
  6
CONTINUOUS
 62
     5
 10
662.6365364552
 20
505.2980620909942
 30
0.0
 11
728.6365364552
 21
505.2980620909942
 31
0.0
  0
LINE
  5
52E
  8
回07-寸法
  6
CONTINUOUS
 62
     5
 10
727.6365364552
 20
510.2980620909942
 30
0.0
 11
727.6365364552
 21
547.0867324360905
 31
0.0
  0
LINE
  5
52F
  8
回07-寸法
  6
CONTINUOUS
 62
     5
 10
727.6365364552
 20
494.8380316486886
 30
0.0
 11
727.6365364552
 21
505.2980620909942
 31
0.0
  0
LINE
  5
530
  8
回07-寸法
  6
CONTINUOUS
 62
     5
 10
727.6365364552
 20
489.8380316486885
 30
0.0
 11
727.6365364552
 21
484.8380316486886
 31
0.0
  0
INSERT
  5
531
  8
回07-寸法
  6
CONTINUOUS
 62
     5
  2
_OPEN
 10
727.6365364552
 20
494.8380316486886
 30
0.0
 41
5.0
 42
5.0
 43
5.0
 50
90.0
  0
INSERT
  5
532
  8
回07-寸法
  6
CONTINUOUS
 62
     5
  2
_OPEN
 10
727.6365364552
 20
505.2980620909942
 30
0.0
 41
5.0
 42
5.0
 43
5.0
 50
270.0
  0
TEXT
  5
533
  8
回07-寸法
  6
CONTINUOUS
 62
     5
 10
726.7365364551999
 20
517.3898820423897
 30
0.0
 40
8.0
  1
(10.46)
 50
90.0
  0
POINT
  5
534
  8
DEFPOINTS
  6
CONTINUOUS
 62
     0
 10
654.6365364552
 20
494.8380316486886
 30
0.0
  0
POINT
  5
535
  8
DEFPOINTS
  6
CONTINUOUS
 62
     0
 10
662.6365364552
 20
505.2980620909942
 30
0.0
  0
POINT
  5
536
  8
DEFPOINTS
  6
CONTINUOUS
 62
     0
 10
727.6365364552
 20
505.2980620909942
 30
0.0
  0
ENDBLK
  5
538
  8
回04-下接
  6
CONTINUOUS
 62
     1
  0
BLOCK
  8
回04-下接
  2
*D52
 70
     1
 10
0.0
 20
0.0
 30
0.0
  3
*D52
  1

  0
LINE
  5
53A
  8
回07-寸法
  6
CONTINUOUS
 62
     5
 10
652.6365364552
 20
492.8380316486886
 30
0.0
 11
713.6365364552
 21
492.8380316486886
 31
0.0
  0
LINE
  5
53B
  8
回07-寸法
  6
CONTINUOUS
 62
     5
 10
662.6365364552
 20
505.2980620909942
 30
0.0
 11
713.6365364552
 21
505.2980620909942
 31
0.0
  0
LINE
  5
53C
  8
回07-寸法
  6
CONTINUOUS
 62
     5
 10
712.6365364552
 20
510.2980620909942
 30
0.0
 11
712.6365364552
 21
547.0867324360905
 31
0.0
  0
LINE
  5
53D
  8
回07-寸法
  6
CONTINUOUS
 62
     5
 10
712.6365364552
 20
492.8380316486886
 30
0.0
 11
712.6365364552
 21
505.2980620909942
 31
0.0
  0
LINE
  5
53E
  8
回07-寸法
  6
CONTINUOUS
 62
     5
 10
712.6365364552
 20
487.8380316486886
 30
0.0
 11
712.6365364552
 21
482.8380316486886
 31
0.0
  0
INSERT
  5
53F
  8
回07-寸法
  6
CONTINUOUS
 62
     5
  2
_OPEN
 10
712.6365364552
 20
492.8380316486886
 30
0.0
 41
5.0
 42
5.0
 43
5.0
 50
90.0
  0
INSERT
  5
540
  8
回07-寸法
  6
CONTINUOUS
 62
     5
  2
_OPEN
 10
712.6365364552
 20
505.2980620909942
 30
0.0
 41
5.0
 42
5.0
 43
5.0
 50
270.0
  0
TEXT
  5
541
  8
回07-寸法
  6
CONTINUOUS
 62
     5
 10
711.7365364551999
 20
517.3898820423897
 30
0.0
 40
8.0
  1
(12.46)
 50
90.0
  0
POINT
  5
542
  8
DEFPOINTS
  6
CONTINUOUS
 62
     0
 10
652.6365364552
 20
492.8380316486886
 30
0.0
  0
POINT
  5
543
  8
DEFPOINTS
  6
CONTINUOUS
 62
     0
 10
662.6365364552
 20
505.2980620909942
 30
0.0
  0
POINT
  5
544
  8
DEFPOINTS
  6
CONTINUOUS
 62
     0
 10
712.6365364552
 20
505.2980620909942
 30
0.0
  0
ENDBLK
  5
546
  8
回04-下接
  6
CONTINUOUS
 62
     1
  0
BLOCK
  8
回04-下接
  2
*D53
 70
     1
 10
0.0
 20
0.0
 30
0.0
  3
*D53
  1

  0
LINE
  5
548
  8
回07-寸法
  6
CONTINUOUS
 62
     5
 10
654.6365364552
 20
494.8380316486886
 30
0.0
 11
654.6365364552
 21
541.2930316486881
 31
0.0
  0
LINE
  5
549
  8
回07-寸法
  6
CONTINUOUS
 62
     5
 10
662.6365364552
 20
505.2980620909942
 30
0.0
 11
662.6365364552
 21
541.2930316486881
 31
0.0
  0
LINE
  5
54A
  8
回07-寸法
  6
CONTINUOUS
 62
     5
 10
667.6365364552
 20
540.2930316486881
 30
0.0
 11
683.2302372426016
 21
540.2930316486881
 31
0.0
  0
LINE
  5
54B
  8
回07-寸法
  6
CONTINUOUS
 62
     5
 10
654.6365364552
 20
540.2930316486881
 30
0.0
 11
662.6365364552
 21
540.2930316486881
 31
0.0
  0
LINE
  5
54C
  8
回07-寸法
  6
CONTINUOUS
 62
     5
 10
649.6365364552
 20
540.2930316486881
 30
0.0
 11
644.6365364552
 21
540.2930316486881
 31
0.0
  0
INSERT
  5
54D
  8
回07-寸法
  6
CONTINUOUS
 62
     5
  2
_OPEN
 10
654.6365364552
 20
540.2930316486881
 30
0.0
 41
5.0
 42
5.0
 43
5.0
  0
INSERT
  5
54E
  8
回07-寸法
  6
CONTINUOUS
 62
     5
  2
_OPEN
 10
662.6365364552
 20
540.2930316486881
 30
0.0
 41
5.0
 42
5.0
 43
5.0
 50
180.0
  0
TEXT
  5
54F
  8
回07-寸法
  6
CONTINUOUS
 62
     5
 10
671.9333868489009
 20
541.1930316486881
 30
0.0
 40
8.0
  1
(8)
  0
POINT
  5
550
  8
DEFPOINTS
  6
CONTINUOUS
 62
     0
 10
654.6365364552
 20
494.8380316486886
 30
0.0
  0
POINT
  5
551
  8
DEFPOINTS
  6
CONTINUOUS
 62
     0
 10
662.6365364552
 20
505.2980620909942
 30
0.0
  0
POINT
  5
552
  8
DEFPOINTS
  6
CONTINUOUS
 62
     0
 10
662.6365364552
 20
540.2930316486881
 30
0.0
  0
ENDBLK
  5
554
  8
回04-下接
  6
CONTINUOUS
 62
     1
  0
BLOCK
  8
回04-下接
  2
*D54
 70
     1
 10
0.0
 20
0.0
 30
0.0
  3
*D54
  1

  0
LINE
  5
556
  8
回07-寸法
  6
CONTINUOUS
 62
     5
 10
652.6365364552
 20
492.8380316486886
 30
0.0
 11
652.6365364552
 21
526.2930316486881
 31
0.0
  0
LINE
  5
557
  8
回07-寸法
  6
CONTINUOUS
 62
     5
 10
662.6365364552
 20
505.2980620909942
 30
0.0
 11
662.6365364552
 21
526.2930316486881
 31
0.0
  0
LINE
  5
558
  8
回07-寸法
  6
CONTINUOUS
 62
     5
 10
667.6365364552
 20
525.2930316486881
 30
0.0
 11
687.2302372426016
 21
525.2930316486881
 31
0.0
  0
LINE
  5
559
  8
回07-寸法
  6
CONTINUOUS
 62
     5
 10
652.6365364552
 20
525.2930316486881
 30
0.0
 11
662.6365364552
 21
525.2930316486881
 31
0.0
  0
LINE
  5
55A
  8
回07-寸法
  6
CONTINUOUS
 62
     5
 10
647.6365364552
 20
525.2930316486881
 30
0.0
 11
642.6365364552
 21
525.2930316486881
 31
0.0
  0
INSERT
  5
55B
  8
回07-寸法
  6
CONTINUOUS
 62
     5
  2
_OPEN
 10
652.6365364552
 20
525.2930316486881
 30
0.0
 41
5.0
 42
5.0
 43
5.0
  0
INSERT
  5
55C
  8
回07-寸法
  6
CONTINUOUS
 62
     5
  2
_OPEN
 10
662.6365364552
 20
525.2930316486881
 30
0.0
 41
5.0
 42
5.0
 43
5.0
 50
180.0
  0
TEXT
  5
55D
  8
回07-寸法
  6
CONTINUOUS
 62
     5
 10
671.9333868489009
 20
526.1930316486881
 30
0.0
 40
8.0
  1
(10)
  0
POINT
  5
55E
  8
DEFPOINTS
  6
CONTINUOUS
 62
     0
 10
652.6365364552
 20
492.8380316486886
 30
0.0
  0
POINT
  5
55F
  8
DEFPOINTS
  6
CONTINUOUS
 62
     0
 10
662.6365364552
 20
505.2980620909942
 30
0.0
  0
POINT
  5
560
  8
DEFPOINTS
  6
CONTINUOUS
 62
     0
 10
662.6365364552
 20
525.2930316486881
 30
0.0
  0
ENDBLK
  5
562
  8
回04-下接
  6
CONTINUOUS
 62
     1
  0
BLOCK
  8
回04-下接
  2
*D55
 70
     1
 10
0.0
 20
0.0
 30
0.0
  3
*D55
  1

  0
LINE
  5
564
  8
回07-寸法
  6
CONTINUOUS
 62
     5
 10
174.0765364551996
 20
494.8380316486886
 30
0.0
 11
174.0765364551996
 21
541.2930316486881
 31
0.0
  0
LINE
  5
565
  8
回07-寸法
  6
CONTINUOUS
 62
     5
 10
162.6365364552
 20
505.2930316486888
 30
0.0
 11
162.6365364552
 21
541.2930316486881
 31
0.0
  0
LINE
  5
566
  8
回07-寸法
  6
CONTINUOUS
 62
     5
 10
157.6365364552
 20
540.2930316486881
 30
0.0
 11
130.8365364551999
 21
540.2930316486881
 31
0.0
  0
LINE
  5
567
  8
回07-寸法
  6
CONTINUOUS
 62
     5
 10
174.0765364551996
 20
540.2930316486881
 30
0.0
 11
162.6365364552
 21
540.2930316486881
 31
0.0
  0
LINE
  5
568
  8
回07-寸法
  6
CONTINUOUS
 62
     5
 10
179.0765364551996
 20
540.2930316486881
 30
0.0
 11
184.0765364551996
 21
540.2930316486881
 31
0.0
  0
INSERT
  5
569
  8
回07-寸法
  6
CONTINUOUS
 62
     5
  2
_OPEN
 10
174.0765364551996
 20
540.2930316486881
 30
0.0
 41
5.0
 42
5.0
 43
5.0
 50
180.0
  0
INSERT
  5
56A
  8
回07-寸法
  6
CONTINUOUS
 62
     5
  2
_OPEN
 10
162.6365364552
 20
540.2930316486881
 30
0.0
 41
5.0
 42
5.0
 43
5.0
  0
TEXT
  5
56B
  8
回07-寸法
  6
CONTINUOUS
 62
     5
 10
130.1365364551999
 20
540.7930316486881
 30
0.0
 40
8.0
  1
11.44
  0
POINT
  5
56C
  8
DEFPOINTS
  6
CONTINUOUS
 62
     0
 10
174.0765364551996
 20
494.8380316486886
 30
0.0
  0
POINT
  5
56D
  8
DEFPOINTS
  6
CONTINUOUS
 62
     0
 10
162.6365364552
 20
505.2930316486888
 30
0.0
  0
POINT
  5
56E
  8
DEFPOINTS
  6
CONTINUOUS
 62
     0
 10
162.6365364552
 20
540.2930316486881
 30
0.0
  0
ENDBLK
  5
570
  8
回04-下接
  6
CONTINUOUS
 62
     1
  0
BLOCK
  8
回04-下接
  2
*D56
 70
     1
 10
0.0
 20
0.0
 30
0.0
  3
*D56
  1

  0
LINE
  5
572
  8
回07-寸法
  6
CONTINUOUS
 62
     5
 10
176.0765364551996
 20
492.8380316486886
 30
0.0
 11
176.0765364551996
 21
526.2930316486881
 31
0.0
  0
LINE
  5
573
  8
回07-寸法
  6
CONTINUOUS
 62
     5
 10
162.6365364552
 20
505.2930316486888
 30
0.0
 11
162.6365364552
 21
526.2930316486881
 31
0.0
  0
LINE
  5
574
  8
回07-寸法
  6
CONTINUOUS
 62
     5
 10
157.6365364552
 20
525.2930316486881
 30
0.0
 11
129.2365364552
 21
525.2930316486881
 31
0.0
  0
LINE
  5
575
  8
回07-寸法
  6
CONTINUOUS
 62
     5
 10
176.0765364551996
 20
525.2930316486881
 30
0.0
 11
162.6365364552
 21
525.2930316486881
 31
0.0
  0
LINE
  5
576
  8
回07-寸法
  6
CONTINUOUS
 62
     5
 10
181.0765364551996
 20
525.2930316486881
 30
0.0
 11
186.0765364551996
 21
525.2930316486881
 31
0.0
  0
INSERT
  5
577
  8
回07-寸法
  6
CONTINUOUS
 62
     5
  2
_OPEN
 10
176.0765364551996
 20
525.2930316486881
 30
0.0
 41
5.0
 42
5.0
 43
5.0
 50
180.0
  0
INSERT
  5
578
  8
回07-寸法
  6
CONTINUOUS
 62
     5
  2
_OPEN
 10
162.6365364552
 20
525.2930316486881
 30
0.0
 41
5.0
 42
5.0
 43
5.0
  0
TEXT
  5
579
  8
回07-寸法
  6
CONTINUOUS
 62
     5
 10
128.5365364552
 20
525.7930316486882
 30
0.0
 40
8.0
  1
13.44
  0
POINT
  5
57A
  8
DEFPOINTS
  6
CONTINUOUS
 62
     0
 10
176.0765364551996
 20
492.8380316486886
 30
0.0
  0
POINT
  5
57B
  8
DEFPOINTS
  6
CONTINUOUS
 62
     0
 10
162.6365364552
 20
505.2930316486888
 30
0.0
  0
POINT
  5
57C
  8
DEFPOINTS
  6
CONTINUOUS
 62
     0
 10
162.6365364552
 20
525.2930316486881
 30
0.0
  0
ENDBLK
  5
57E
  8
回04-下接
  6
CONTINUOUS
 62
     1
  0
BLOCK
  8
回04-下接
  2
*D57
 70
     1
 10
0.0
 20
0.0
 30
0.0
  3
*D57
  1

  0
LINE
  5
580
  8
回07-寸法
  6
CONTINUOUS
 62
     5
 10
655.6365364552
 20
221.2480316486887
 30
0.0
 11
743.6365364552
 21
221.2480316486887
 31
0.0
  0
LINE
  5
581
  8
回07-寸法
  6
CONTINUOUS
 62
     5
 10
662.6365364552
 20
212.0930316486892
 30
0.0
 11
743.6365364552
 21
212.0930316486892
 31
0.0
  0
LINE
  5
582
  8
回07-寸法
  6
CONTINUOUS
 62
     5
 10
742.6365364552
 20
207.0930316486892
 30
0.0
 11
742.6365364552
 21
109.9160647906691
 31
0.0
  0
LINE
  5
583
  8
回07-寸法
  6
CONTINUOUS
 62
     5
 10
742.6365364552
 20
221.2480316486887
 30
0.0
 11
742.6365364552
 21
212.0930316486892
 31
0.0
  0
LINE
  5
584
  8
回07-寸法
  6
CONTINUOUS
 62
     5
 10
742.6365364552
 20
226.2480316486887
 30
0.0
 11
742.6365364552
 21
231.2480316486887
 31
0.0
  0
INSERT
  5
585
  8
回07-寸法
  6
CONTINUOUS
 62
     5
  2
_OPEN
 10
742.6365364552
 20
221.2480316486887
 30
0.0
 41
5.0
 42
5.0
 43
5.0
 50
270.0
  0
INSERT
  5
586
  8
回07-寸法
  6
CONTINUOUS
 62
     5
  2
_OPEN
 10
742.6365364552
 20
212.0930316486892
 30
0.0
 41
5.0
 42
5.0
 43
5.0
 50
90.0
  0
INSERT
  5
587
  8
回07-寸法
  6
CONTINUOUS
 62
     5
 66
     1
  2
*X95
 10
0.0
 20
0.0
 30
0.0
  0
SEQEND
  5
733
  8
回04-下接
  6
CONTINUOUS
 62
     1
  0
POINT
  5
588
  8
DEFPOINTS
  6
CONTINUOUS
 62
     0
 10
655.6365364552
 20
221.2480316486887
 30
0.0
  0
POINT
  5
589
  8
DEFPOINTS
  6
CONTINUOUS
 62
     0
 10
662.6365364552
 20
212.0930316486892
 30
0.0
  0
POINT
  5
58A
  8
DEFPOINTS
  6
CONTINUOUS
 62
     0
 10
742.6365364552
 20
212.0930316486892
 30
0.0
  0
ENDBLK
  5
58C
  8
回04-下接
  6
CONTINUOUS
 62
     1
  0
BLOCK
  8
回04-下接
  2
*D58
 70
     1
 10
0.0
 20
0.0
 30
0.0
  3
*D58
  1

  0
LINE
  5
58E
  8
回07-寸法
  6
CONTINUOUS
 62
     5
 10
655.6365364552
 20
496.1380316486885
 30
0.0
 11
743.6365364551968
 21
496.1380316486885
 31
0.0
  0
LINE
  5
58F
  8
回07-寸法
  6
CONTINUOUS
 62
     5
 10
662.6365364552
 20
505.2980620909942
 30
0.0
 11
743.6365364551968
 21
505.2980620909942
 31
0.0
  0
LINE
  5
590
  8
回07-寸法
  6
CONTINUOUS
 62
     5
 10
742.6365364551968
 20
510.2980620909942
 30
0.0
 11
742.6365364551968
 21
608.1350768659818
 31
0.0
  0
LINE
  5
591
  8
回07-寸法
  6
CONTINUOUS
 62
     5
 10
742.6365364551968
 20
496.1380316486885
 30
0.0
 11
742.6365364551968
 21
505.2980620909942
 31
0.0
  0
LINE
  5
592
  8
回07-寸法
  6
CONTINUOUS
 62
     5
 10
742.6365364551968
 20
491.1380316486885
 30
0.0
 11
742.6365364551968
 21
486.1380316486886
 31
0.0
  0
INSERT
  5
593
  8
回07-寸法
  6
CONTINUOUS
 62
     5
  2
_OPEN
 10
742.6365364551968
 20
496.1380316486885
 30
0.0
 41
5.0
 42
5.0
 43
5.0
 50
90.0
  0
INSERT
  5
594
  8
回07-寸法
  6
CONTINUOUS
 62
     5
  2
_OPEN
 10
742.6365364551968
 20
505.2980620909942
 30
0.0
 41
5.0
 42
5.0
 43
5.0
 50
270.0
  0
INSERT
  5
595
  8
回07-寸法
  6
CONTINUOUS
 62
     5
 66
     1
  2
*X96
 10
0.0
 20
0.0
 30
0.0
  0
SEQEND
  5
739
  8
回04-下接
  6
CONTINUOUS
 62
     1
  0
POINT
  5
596
  8
DEFPOINTS
  6
CONTINUOUS
 62
     0
 10
655.6365364552
 20
496.1380316486885
 30
0.0
  0
POINT
  5
597
  8
DEFPOINTS
  6
CONTINUOUS
 62
     0
 10
662.6365364552
 20
505.2980620909942
 30
0.0
  0
POINT
  5
598
  8
DEFPOINTS
  6
CONTINUOUS
 62
     0
 10
742.6365364551968
 20
505.2980620909942
 30
0.0
  0
ENDBLK
  5
59A
  8
回04-下接
  6
CONTINUOUS
 62
     1
  0
BLOCK
  8
回04-下接
  2
*D59
 70
     1
 10
0.0
 20
0.0
 30
0.0
  3
*D59
  1

  0
LINE
  5
59C
  8
回07-寸法
  6
CONTINUOUS
 62
     5
 10
655.6365364552
 20
496.1380316486885
 30
0.0
 11
743.6365364552
 21
496.1380316486885
 31
0.0
  0
LINE
  5
59D
  8
回07-寸法
  6
CONTINUOUS
 62
     5
 10
655.6365364552
 20
221.2480316486887
 30
0.0
 11
743.6365364552
 21
221.2480316486887
 31
0.0
  0
LINE
  5
59E
  8
回07-寸法
  6
CONTINUOUS
 62
     5
 10
742.6365364552
 20
491.1380316486885
 30
0.0
 11
742.6365364552
 21
226.2480316486887
 31
0.0
  0
INSERT
  5
59F
  8
回07-寸法
  6
CONTINUOUS
 62
     5
  2
_OPEN
 10
742.6365364552
 20
496.1380316486885
 30
0.0
 41
5.0
 42
5.0
 43
5.0
 50
90.0
  0
INSERT
  5
5A0
  8
回07-寸法
  6
CONTINUOUS
 62
     5
  2
_OPEN
 10
742.6365364552
 20
221.2480316486887
 30
0.0
 41
5.0
 42
5.0
 43
5.0
 50
270.0
  0
TEXT
  5
5A1
  8
回07-寸法
  6
CONTINUOUS
 62
     5
 10
742.1365364552
 20
343.0785901745803
 30
0.0
 40
8.0
  1
274.89
 50
90.0
  0
POINT
  5
5A2
  8
DEFPOINTS
  6
CONTINUOUS
 62
     0
 10
655.6365364552
 20
496.1380316486885
 30
0.0
  0
POINT
  5
5A3
  8
DEFPOINTS
  6
CONTINUOUS
 62
     0
 10
655.6365364552
 20
221.2480316486887
 30
0.0
  0
POINT
  5
5A4
  8
DEFPOINTS
  6
CONTINUOUS
 62
     0
 10
742.6365364552
 20
221.2480316486887
 30
0.0
  0
ENDBLK
  5
5A6
  8
回04-下接
  6
CONTINUOUS
 62
     1
  0
BLOCK
  8
回04-下接
  2
*D60
 70
     1
 10
0.0
 20
0.0
 30
0.0
  3
*D60
  1

  0
LINE
  5
5A8
  8
回07-寸法
  6
CONTINUOUS
 62
     5
 10
173.0765364551996
 20
496.1380316486885
 30
0.0
 11
173.0765364551996
 21
556.2930316486881
 31
0.0
  0
LINE
  5
5A9
  8
回07-寸法
  6
CONTINUOUS
 62
     5
 10
162.6365364552
 20
505.2930316486888
 30
0.0
 11
162.6365364552
 21
556.2930316486881
 31
0.0
  0
LINE
  5
5AA
  8
回07-寸法
  6
CONTINUOUS
 62
     5
 10
157.6365364552
 20
555.2930316486881
 30
0.0
 11
58.22509502212915
 21
555.2930316486881
 31
0.0
  0
LINE
  5
5AB
  8
回07-寸法
  6
CONTINUOUS
 62
     5
 10
173.0765364551996
 20
555.2930316486881
 30
0.0
 11
162.6365364552
 21
555.2930316486881
 31
0.0
  0
LINE
  5
5AC
  8
回07-寸法
  6
CONTINUOUS
 62
     5
 10
178.0765364551996
 20
555.2930316486881
 30
0.0
 11
183.0765364551996
 21
555.2930316486881
 31
0.0
  0
INSERT
  5
5AD
  8
回07-寸法
  6
CONTINUOUS
 62
     5
  2
_OPEN
 10
173.0765364551996
 20
555.2930316486881
 30
0.0
 41
5.0
 42
5.0
 43
5.0
 50
180.0
  0
INSERT
  5
5AE
  8
回07-寸法
  6
CONTINUOUS
 62
     5
  2
_OPEN
 10
162.6365364552
 20
555.2930316486881
 30
0.0
 41
5.0
 42
5.0
 43
5.0
  0
INSERT
  5
5AF
  8
回07-寸法
  6
CONTINUOUS
 62
     5
 66
     1
  2
*X97
 10
0.0
 20
0.0
 30
0.0
  0
SEQEND
  5
73F
  8
回04-下接
  6
CONTINUOUS
 62
     1
  0
POINT
  5
5B0
  8
DEFPOINTS
  6
CONTINUOUS
 62
     0
 10
173.0765364551996
 20
496.1380316486885
 30
0.0
  0
POINT
  5
5B1
  8
DEFPOINTS
  6
CONTINUOUS
 62
     0
 10
162.6365364552
 20
505.2930316486888
 30
0.0
  0
POINT
  5
5B2
  8
DEFPOINTS
  6
CONTINUOUS
 62
     0
 10
162.6365364552
 20
555.2930316486881
 30
0.0
  0
ENDBLK
  5
5B4
  8
回04-下接
  6
CONTINUOUS
 62
     1
  0
BLOCK
  8
回04-下接
  2
*D61
 70
     1
 10
0.0
 20
0.0
 30
0.0
  3
*D61
  1

  0
LINE
  5
5B6
  8
回07-寸法
  6
CONTINUOUS
 62
     5
 10
655.6365364552
 20
496.1380316486885
 30
0.0
 11
655.6365364552
 21
556.2930316486881
 31
0.0
  0
LINE
  5
5B7
  8
回07-寸法
  6
CONTINUOUS
 62
     5
 10
662.6365364552
 20
505.2980620909942
 30
0.0
 11
662.6365364552
 21
556.2930316486881
 31
0.0
  0
LINE
  5
5B8
  8
回07-寸法
  6
CONTINUOUS
 62
     5
 10
667.6365364552
 20
555.2930316486881
 30
0.0
 11
683.2302372426015
 21
555.2930316486881
 31
0.0
  0
LINE
  5
5B9
  8
回07-寸法
  6
CONTINUOUS
 62
     5
 10
655.6365364552
 20
555.2930316486881
 30
0.0
 11
662.6365364552
 21
555.2930316486881
 31
0.0
  0
LINE
  5
5BA
  8
回07-寸法
  6
CONTINUOUS
 62
     5
 10
650.6365364552
 20
555.2930316486881
 30
0.0
 11
645.6365364552
 21
555.2930316486881
 31
0.0
  0
INSERT
  5
5BB
  8
回07-寸法
  6
CONTINUOUS
 62
     5
  2
_OPEN
 10
655.6365364552
 20
555.2930316486881
 30
0.0
 41
5.0
 42
5.0
 43
5.0
  0
INSERT
  5
5BC
  8
回07-寸法
  6
CONTINUOUS
 62
     5
  2
_OPEN
 10
662.6365364552
 20
555.2930316486881
 30
0.0
 41
5.0
 42
5.0
 43
5.0
 50
180.0
  0
TEXT
  5
5BD
  8
回07-寸法
  6
CONTINUOUS
 62
     5
 10
671.9333868489008
 20
556.1930316486881
 30
0.0
 40
8.0
  1
(7)
  0
POINT
  5
5BE
  8
DEFPOINTS
  6
CONTINUOUS
 62
     0
 10
655.6365364552
 20
496.1380316486885
 30
0.0
  0
POINT
  5
5BF
  8
DEFPOINTS
  6
CONTINUOUS
 62
     0
 10
662.6365364552
 20
505.2980620909942
 30
0.0
  0
POINT
  5
5C0
  8
DEFPOINTS
  6
CONTINUOUS
 62
     0
 10
662.6365364552
 20
555.2930316486881
 30
0.0
  0
ENDBLK
  5
5C2
  8
回04-下接
  6
CONTINUOUS
 62
     1
  0
BLOCK
  8
回04-下接
  2
*D62
 70
     1
 10
0.0
 20
0.0
 30
0.0
  3
*D62
  1

  0
LINE
  5
5C4
  8
回07-寸法
  6
CONTINUOUS
 62
     5
 10
173.0765364551996
 20
496.1380316486885
 30
0.0
 11
173.0765364551996
 21
556.2930316486881
 31
0.0
  0
LINE
  5
5C5
  8
回07-寸法
  6
CONTINUOUS
 62
     5
 10
655.6365364552
 20
496.1380316486885
 30
0.0
 11
655.6365364552
 21
556.2930316486881
 31
0.0
  0
LINE
  5
5C6
  8
回07-寸法
  6
CONTINUOUS
 62
     5
 10
178.0765364551996
 20
555.2930316486881
 30
0.0
 11
650.6365364552
 21
555.2930316486881
 31
0.0
  0
INSERT
  5
5C7
  8
回07-寸法
  6
CONTINUOUS
 62
     5
  2
_OPEN
 10
173.0765364551996
 20
555.2930316486881
 30
0.0
 41
5.0
 42
5.0
 43
5.0
 50
180.0
  0
INSERT
  5
5C8
  8
回07-寸法
  6
CONTINUOUS
 62
     5
  2
_OPEN
 10
655.6365364552
 20
555.2930316486881
 30
0.0
 41
5.0
 42
5.0
 43
5.0
  0
TEXT
  5
5C9
  8
回07-寸法
  6
CONTINUOUS
 62
     5
 10
398.7531963414647
 20
555.7930316486881
 30
0.0
 40
8.0
  1
482.56
  0
POINT
  5
5CA
  8
DEFPOINTS
  6
CONTINUOUS
 62
     0
 10
173.0765364551996
 20
496.1380316486885
 30
0.0
  0
POINT
  5
5CB
  8
DEFPOINTS
  6
CONTINUOUS
 62
     0
 10
655.6365364552
 20
496.1380316486885
 30
0.0
  0
POINT
  5
5CC
  8
DEFPOINTS
  6
CONTINUOUS
 62
     0
 10
655.6365364552
 20
555.2930316486881
 30
0.0
  0
ENDBLK
  5
5CE
  8
回04-下接
  6
CONTINUOUS
 62
     1
  0
BLOCK
  8
回04-下接
  2
*D63
 70
     1
 10
0.0
 20
0.0
 30
0.0
  3
*D63
  1

  0
LINE
  5
5D0
  8
回07-寸法
  6
CONTINUOUS
 62
     5
 10
662.6365364552
 20
212.0930316486892
 30
0.0
 11
758.6365364552
 21
212.0930316486892
 31
0.0
  0
LINE
  5
5D1
  8
回07-寸法
  6
CONTINUOUS
 62
     5
 10
662.6365364552
 20
505.2980620909942
 30
0.0
 11
758.6365364552
 21
505.2980620909942
 31
0.0
  0
LINE
  5
5D2
  8
回07-寸法
  6
CONTINUOUS
 62
     5
 10
757.6365364552
 20
217.0930316486892
 30
0.0
 11
757.6365364552
 21
500.2980620909942
 31
0.0
  0
INSERT
  5
5D3
  8
回07-寸法
  6
CONTINUOUS
 62
     5
  2
_OPEN
 10
757.6365364552
 20
212.0930316486892
 30
0.0
 41
5.0
 42
5.0
 43
5.0
 50
270.0
  0
INSERT
  5
5D4
  8
回07-寸法
  6
CONTINUOUS
 62
     5
  2
_OPEN
 10
757.6365364552
 20
505.2980620909942
 30
0.0
 41
5.0
 42
5.0
 43
5.0
 50
90.0
  0
INSERT
  5
5D5
  8
回07-寸法
  6
CONTINUOUS
 62
     5
 66
     1
  2
*X98
 10
0.0
 20
0.0
 30
0.0
  0
SEQEND
  5
745
  8
回04-下接
  6
CONTINUOUS
 62
     1
  0
POINT
  5
5D6
  8
DEFPOINTS
  6
CONTINUOUS
 62
     0
 10
662.6365364552
 20
212.0930316486892
 30
0.0
  0
POINT
  5
5D7
  8
DEFPOINTS
  6
CONTINUOUS
 62
     0
 10
662.6365364552
 20
505.2980620909942
 30
0.0
  0
POINT
  5
5D8
  8
DEFPOINTS
  6
CONTINUOUS
 62
     0
 10
757.6365364552
 20
505.2980620909942
 30
0.0
  0
ENDBLK
  5
5DA
  8
回04-下接
  6
CONTINUOUS
 62
     1
  0
BLOCK
  8
回04-下接
  2
*D64
 70
     1
 10
0.0
 20
0.0
 30
0.0
  3
*D64
  1

  0
LINE
  5
5DC
  8
回07-寸法
  6
CONTINUOUS
 62
     5
 10
654.6365364552
 20
494.8380316486886
 30
0.0
 11
728.6365364552
 21
494.8380316486886
 31
0.0
  0
LINE
  5
5DD
  8
回07-寸法
  6
CONTINUOUS
 62
     5
 10
654.6365364552
 20
222.5480316486887
 30
0.0
 11
728.6365364552
 21
222.5480316486887
 31
0.0
  0
LINE
  5
5DE
  8
回07-寸法
  6
CONTINUOUS
 62
     5
 10
727.6365364552
 20
489.8380316486885
 30
0.0
 11
727.6365364552
 21
227.5480316486887
 31
0.0
  0
INSERT
  5
5DF
  8
回07-寸法
  6
CONTINUOUS
 62
     5
  2
_OPEN
 10
727.6365364552
 20
494.8380316486886
 30
0.0
 41
5.0
 42
5.0
 43
5.0
 50
90.0
  0
INSERT
  5
5E0
  8
回07-寸法
  6
CONTINUOUS
 62
     5
  2
_OPEN
 10
727.6365364552
 20
222.5480316486887
 30
0.0
 41
5.0
 42
5.0
 43
5.0
 50
270.0
  0
TEXT
  5
5E1
  8
回07-寸法
  6
CONTINUOUS
 62
     5
 10
726.7365364551999
 20
302.6801649777298
 30
0.0
 40
8.0
  1
272.29 (VIEWING AREA)
 50
90.0
  0
POINT
  5
5E2
  8
DEFPOINTS
  6
CONTINUOUS
 62
     0
 10
654.6365364552
 20
494.8380316486886
 30
0.0
  0
POINT
  5
5E3
  8
DEFPOINTS
  6
CONTINUOUS
 62
     0
 10
654.6365364552
 20
222.5480316486887
 30
0.0
  0
POINT
  5
5E4
  8
DEFPOINTS
  6
CONTINUOUS
 62
     0
 10
727.6365364552
 20
222.5480316486887
 30
0.0
  0
ENDBLK
  5
5E6
  8
回04-下接
  6
CONTINUOUS
 62
     1
  0
BLOCK
  8
回04-下接
  2
*D65
 70
     1
 10
0.0
 20
0.0
 30
0.0
  3
*D65
  1

  0
LINE
  5
5E8
  8
回07-寸法
  6
CONTINUOUS
 62
     5
 10
652.6365364552
 20
224.5480316486887
 30
0.0
 11
713.6365364552
 21
224.5480316486887
 31
0.0
  0
LINE
  5
5E9
  8
回07-寸法
  6
CONTINUOUS
 62
     5
 10
652.6365364552
 20
492.8380316486886
 30
0.0
 11
713.6365364552
 21
492.8380316486886
 31
0.0
  0
LINE
  5
5EA
  8
回07-寸法
  6
CONTINUOUS
 62
     5
 10
712.6365364552
 20
229.5480316486887
 30
0.0
 11
712.6365364552
 21
487.8380316486886
 31
0.0
  0
INSERT
  5
5EB
  8
回07-寸法
  6
CONTINUOUS
 62
     5
  2
_OPEN
 10
712.6365364552
 20
224.5480316486887
 30
0.0
 41
5.0
 42
5.0
 43
5.0
 50
270.0
  0
INSERT
  5
5EC
  8
回07-寸法
  6
CONTINUOUS
 62
     5
  2
_OPEN
 10
712.6365364552
 20
492.8380316486886
 30
0.0
 41
5.0
 42
5.0
 43
5.0
 50
90.0
  0
TEXT
  5
5ED
  8
回07-寸法
  6
CONTINUOUS
 62
     5
 10
711.7365364551999
 20
305.0801649777302
 30
0.0
 40
8.0
  1
268.29 (ACTIVE AREA)
 50
90.0
  0
POINT
  5
5EE
  8
DEFPOINTS
  6
CONTINUOUS
 62
     0
 10
652.6365364552
 20
224.5480316486887
 30
0.0
  0
POINT
  5
5EF
  8
DEFPOINTS
  6
CONTINUOUS
 62
     0
 10
652.6365364552
 20
492.8380316486886
 30
0.0
  0
POINT
  5
5F0
  8
DEFPOINTS
  6
CONTINUOUS
 62
     0
 10
712.6365364552
 20
492.8380316486886
 30
0.0
  0
ENDBLK
  5
5F2
  8
回04-下接
  6
CONTINUOUS
 62
     1
  0
BLOCK
  8
回04-下接
  2
*D66
 70
     1
 10
0.0
 20
0.0
 30
0.0
  3
*D66
  1

  0
LINE
  5
5F4
  8
回07-寸法
  6
CONTINUOUS
 62
     5
 10
162.6365364552
 20
505.2930316486888
 30
0.0
 11
162.6365364552
 21
571.2930316486882
 31
0.0
  0
LINE
  5
5F5
  8
回07-寸法
  6
CONTINUOUS
 62
     5
 10
662.6365364552
 20
505.2980620909942
 30
0.0
 11
662.6365364552
 21
571.2930316486882
 31
0.0
  0
LINE
  5
5F6
  8
回07-寸法
  6
CONTINUOUS
 62
     5
 10
167.6365364552
 20
570.2930316486881
 30
0.0
 11
657.6365364552
 21
570.2930316486881
 31
0.0
  0
INSERT
  5
5F7
  8
回07-寸法
  6
CONTINUOUS
 62
     5
  2
_OPEN
 10
162.6365364552
 20
570.2930316486881
 30
0.0
 41
5.0
 42
5.0
 43
5.0
 50
180.0
  0
INSERT
  5
5F8
  8
回07-寸法
  6
CONTINUOUS
 62
     5
  2
_OPEN
 10
662.6365364552
 20
570.2930316486881
 30
0.0
 41
5.0
 42
5.0
 43
5.0
  0
INSERT
  5
5F9
  8
回07-寸法
  6
CONTINUOUS
 62
     5
 66
     1
  2
*X99
 10
0.0
 20
0.0
 30
0.0
  0
SEQEND
  5
74B
  8
回04-下接
  6
CONTINUOUS
 62
     1
  0
POINT
  5
5FA
  8
DEFPOINTS
  6
CONTINUOUS
 62
     0
 10
162.6365364552
 20
505.2930316486888
 30
0.0
  0
POINT
  5
5FB
  8
DEFPOINTS
  6
CONTINUOUS
 62
     0
 10
662.6365364552
 20
505.2980620909942
 30
0.0
  0
POINT
  5
5FC
  8
DEFPOINTS
  6
CONTINUOUS
 62
     0
 10
662.6365364552
 20
570.2930316486881
 30
0.0
  0
ENDBLK
  5
5FE
  8
回04-下接
  6
CONTINUOUS
 62
     1
  0
BLOCK
  8
回04-下接
  2
*D67
 70
     1
 10
0.0
 20
0.0
 30
0.0
  3
*D67
  1

  0
LINE
  5
600
  8
回07-寸法
  6
CONTINUOUS
 62
     5
 10
174.0765364551996
 20
494.8380316486886
 30
0.0
 11
174.0765364551996
 21
541.2930316486881
 31
0.0
  0
LINE
  5
601
  8
回07-寸法
  6
CONTINUOUS
 62
     5
 10
654.6365364552
 20
494.8380316486886
 30
0.0
 11
654.6365364552
 21
541.2930316486881
 31
0.0
  0
LINE
  5
602
  8
回07-寸法
  6
CONTINUOUS
 62
     5
 10
179.0765364551996
 20
540.2930316486881
 30
0.0
 11
649.6365364552
 21
540.2930316486881
 31
0.0
  0
INSERT
  5
603
  8
回07-寸法
  6
CONTINUOUS
 62
     5
  2
_OPEN
 10
174.0765364551996
 20
540.2930316486881
 30
0.0
 41
5.0
 42
5.0
 43
5.0
 50
180.0
  0
INSERT
  5
604
  8
回07-寸法
  6
CONTINUOUS
 62
     5
  2
_OPEN
 10
654.6365364552
 20
540.2930316486881
 30
0.0
 41
5.0
 42
5.0
 43
5.0
  0
TEXT
  5
605
  8
回07-寸法
  6
CONTINUOUS
 62
     5
 10
357.9581112583499
 20
541.1930316486881
 30
0.0
 40
8.0
  1
480.56 (VIEWING AREA)
  0
POINT
  5
606
  8
DEFPOINTS
  6
CONTINUOUS
 62
     0
 10
174.0765364551996
 20
494.8380316486886
 30
0.0
  0
POINT
  5
607
  8
DEFPOINTS
  6
CONTINUOUS
 62
     0
 10
654.6365364552
 20
494.8380316486886
 30
0.0
  0
POINT
  5
608
  8
DEFPOINTS
  6
CONTINUOUS
 62
     0
 10
654.6365364552
 20
540.2930316486881
 30
0.0
  0
ENDBLK
  5
60A
  8
回04-下接
  6
CONTINUOUS
 62
     1
  0
BLOCK
  8
回04-下接
  2
*D68
 70
     1
 10
0.0
 20
0.0
 30
0.0
  3
*D68
  1

  0
LINE
  5
60C
  8
回07-寸法
  6
CONTINUOUS
 62
     5
 10
176.0765364551996
 20
492.8380316486886
 30
0.0
 11
176.0765364551996
 21
526.2930316486881
 31
0.0
  0
LINE
  5
60D
  8
回07-寸法
  6
CONTINUOUS
 62
     5
 10
652.6365364552
 20
492.8380316486886
 30
0.0
 11
652.6365364552
 21
526.2930316486881
 31
0.0
  0
LINE
  5
60E
  8
回07-寸法
  6
CONTINUOUS
 62
     5
 10
181.0765364551996
 20
525.2930316486881
 30
0.0
 11
647.6365364552
 21
525.2930316486881
 31
0.0
  0
INSERT
  5
60F
  8
回07-寸法
  6
CONTINUOUS
 62
     5
  2
_OPEN
 10
176.0765364551996
 20
525.2930316486881
 30
0.0
 41
5.0
 42
5.0
 43
5.0
 50
180.0
  0
INSERT
  5
610
  8
回07-寸法
  6
CONTINUOUS
 62
     5
  2
_OPEN
 10
652.6365364552
 20
525.2930316486881
 30
0.0
 41
5.0
 42
5.0
 43
5.0
  0
TEXT
  5
611
  8
回07-寸法
  6
CONTINUOUS
 62
     5
 10
360.3581112583499
 20
526.1930316486881
 30
0.0
 40
8.0
  1
476.56 (ACTIVE AREA)
  0
POINT
  5
612
  8
DEFPOINTS
  6
CONTINUOUS
 62
     0
 10
176.0765364551996
 20
492.8380316486886
 30
0.0
  0
POINT
  5
613
  8
DEFPOINTS
  6
CONTINUOUS
 62
     0
 10
652.6365364552
 20
492.8380316486886
 30
0.0
  0
POINT
  5
614
  8
DEFPOINTS
  6
CONTINUOUS
 62
     0
 10
652.6365364552
 20
525.2930316486881
 30
0.0
  0
ENDBLK
  5
616
  8
回04-下接
  6
CONTINUOUS
 62
     1
  0
BLOCK
  8
回04-下接
  2
*D69
 70
     1
 10
0.0
 20
0.0
 30
0.0
  3
*D69
  1

  0
LINE
  5
618
  8
回07-寸法
  6
CONTINUOUS
 62
     5
 10
450.3565364552002
 20
322.6930316486886
 30
0.0
 11
450.3565364552002
 21
306.4811819207807
 31
0.0
  0
LINE
  5
619
  8
回07-寸法
  6
CONTINUOUS
 62
     5
 10
446.3565364552002
 20
322.6930316486886
 30
0.0
 11
446.3565364552002
 21
306.4811819207807
 31
0.0
  0
LINE
  5
61A
  8
回07-寸法
  6
CONTINUOUS
 62
     5
 10
441.3565364552002
 20
307.4811819207807
 30
0.0
 11
431.3565364552003
 21
307.4811819207807
 31
0.0
  0
LINE
  5
61B
  8
回07-寸法
  6
CONTINUOUS
 62
     5
 10
450.3565364552002
 20
307.4811819207807
 30
0.0
 11
446.3565364552002
 21
307.4811819207807
 31
0.0
  0
LINE
  5
61C
  8
回07-寸法
  6
CONTINUOUS
 62
     5
 10
455.3565364552002
 20
307.4811819207807
 30
0.0
 11
460.3565364552003
 21
307.4811819207807
 31
0.0
  0
INSERT
  5
61D
  8
回07-寸法
  6
CONTINUOUS
 62
     5
  2
_OPEN
 10
450.3565364552002
 20
307.4811819207807
 30
0.0
 41
5.0
 42
5.0
 43
5.0
 50
180.0
  0
INSERT
  5
61E
  8
回07-寸法
  6
CONTINUOUS
 62
     5
  2
_OPEN
 10
446.3565364552002
 20
307.4811819207807
 30
0.0
 41
5.0
 42
5.0
 43
5.0
  0
TEXT
  5
61F
  8
回07-寸法
  6
CONTINUOUS
 62
     5
 10
430.6565364552002
 20
307.9811819207807
 30
0.0
 40
8.0
  1
4
  0
POINT
  5
620
  8
DEFPOINTS
  6
CONTINUOUS
 62
     0
 10
450.3565364552002
 20
322.6930316486886
 30
0.0
  0
POINT
  5
621
  8
DEFPOINTS
  6
CONTINUOUS
 62
     0
 10
446.3565364552002
 20
322.6930316486886
 30
0.0
  0
POINT
  5
622
  8
DEFPOINTS
  6
CONTINUOUS
 62
     0
 10
446.3565364552002
 20
307.4811819207807
 30
0.0
  0
ENDBLK
  5
624
  8
回04-下接
  6
CONTINUOUS
 62
     1
  0
BLOCK
  8
回04-下接
  2
*D70
 70
     1
 10
0.0
 20
0.0
 30
0.0
  3
*D70
  1

  0
LINE
  5
626
  8
回07-寸法
  6
CONTINUOUS
 62
     5
 10
450.3565364552002
 20
322.6930316486886
 30
0.0
 11
469.4899926021014
 21
322.6930316486886
 31
0.0
  0
LINE
  5
627
  8
回07-寸法
  6
CONTINUOUS
 62
     5
 10
450.3565364552002
 20
326.6930316486886
 30
0.0
 11
469.4899926021014
 21
326.6930316486886
 31
0.0
  0
LINE
  5
628
  8
回07-寸法
  6
CONTINUOUS
 62
     5
 10
468.4899926021014
 20
331.6930316486887
 30
0.0
 11
468.4899926021014
 21
341.6930316486891
 31
0.0
  0
LINE
  5
629
  8
回07-寸法
  6
CONTINUOUS
 62
     5
 10
468.4899926021014
 20
322.6930316486886
 30
0.0
 11
468.4899926021014
 21
326.6930316486886
 31
0.0
  0
LINE
  5
62A
  8
回07-寸法
  6
CONTINUOUS
 62
     5
 10
468.4899926021014
 20
317.6930316486886
 30
0.0
 11
468.4899926021014
 21
312.6930316486887
 31
0.0
  0
INSERT
  5
62B
  8
回07-寸法
  6
CONTINUOUS
 62
     5
  2
_OPEN
 10
468.4899926021014
 20
322.6930316486886
 30
0.0
 41
5.0
 42
5.0
 43
5.0
 50
90.0
  0
INSERT
  5
62C
  8
回07-寸法
  6
CONTINUOUS
 62
     5
  2
_OPEN
 10
468.4899926021014
 20
326.6930316486886
 30
0.0
 41
5.0
 42
5.0
 43
5.0
 50
270.0
  0
TEXT
  5
62D
  8
回07-寸法
  6
CONTINUOUS
 62
     5
 10
467.9899926021015
 20
335.9930316486891
 30
0.0
 40
8.0
  1
4
 50
90.0
  0
POINT
  5
62E
  8
DEFPOINTS
  6
CONTINUOUS
 62
     0
 10
450.3565364552002
 20
322.6930316486886
 30
0.0
  0
POINT
  5
62F
  8
DEFPOINTS
  6
CONTINUOUS
 62
     0
 10
450.3565364552002
 20
326.6930316486886
 30
0.0
  0
POINT
  5
630
  8
DEFPOINTS
  6
CONTINUOUS
 62
     0
 10
468.4899926021014
 20
326.6930316486886
 30
0.0
  0
ENDBLK
  5
632
  8
回04-下接
  6
CONTINUOUS
 62
     1
  0
BLOCK
  8
回04-下接
  2
*D71
 70
     1
 10
0.0
 20
0.0
 30
0.0
  3
*D71
  1

  0
LINE
  5
634
  8
回07-寸法
  6
CONTINUOUS
 62
     5
 10
162.6365364552
 20
170.8698219834122
 30
0.0
 11
162.6365364552
 21
185.5300484795834
 31
0.0
  0
LINE
  5
635
  8
回07-寸法
  6
CONTINUOUS
 62
     5
 10
163.1365364552
 20
175.9427155072462
 30
0.0
 11
163.1365364552
 21
185.5300484795834
 31
0.0
  0
LINE
  5
636
  8
回07-寸法
  6
CONTINUOUS
 62
     5
 10
168.1365364552
 20
184.5300484795834
 30
0.0
 11
191.7302372426016
 21
184.5300484795834
 31
0.0
  0
LINE
  5
637
  8
回07-寸法
  6
CONTINUOUS
 62
     5
 10
162.6365364552
 20
184.5300484795834
 30
0.0
 11
163.1365364552
 21
184.5300484795834
 31
0.0
  0
LINE
  5
638
  8
回07-寸法
  6
CONTINUOUS
 62
     5
 10
157.6365364552
 20
184.5300484795834
 30
0.0
 11
152.6365364552
 21
184.5300484795834
 31
0.0
  0
INSERT
  5
639
  8
回07-寸法
  6
CONTINUOUS
 62
     5
  2
_OPEN
 10
162.6365364552
 20
184.5300484795834
 30
0.0
 41
5.0
 42
5.0
 43
5.0
  0
INSERT
  5
63A
  8
回07-寸法
  6
CONTINUOUS
 62
     5
  2
_OPEN
 10
163.1365364552
 20
184.5300484795834
 30
0.0
 41
5.0
 42
5.0
 43
5.0
 50
180.0
  0
TEXT
  5
63B
  8
回07-寸法
  6
CONTINUOUS
 62
     5
 10
172.4333868489008
 20
185.4300484795834
 30
0.0
 40
8.0
  1
(0.5)
  0
POINT
  5
63C
  8
DEFPOINTS
  6
CONTINUOUS
 62
     0
 10
162.6365364552
 20
170.8698219834122
 30
0.0
  0
POINT
  5
63D
  8
DEFPOINTS
  6
CONTINUOUS
 62
     0
 10
163.1365364552
 20
175.9427155072462
 30
0.0
  0
POINT
  5
63E
  8
DEFPOINTS
  6
CONTINUOUS
 62
     0
 10
163.1365364552
 20
184.5300484795834
 30
0.0
  0
ENDBLK
  5
640
  8
回04-下接
  6
CONTINUOUS
 62
     1
  0
BLOCK
  8
回04-下接
  2
*D72
 70
     1
 10
0.0
 20
0.0
 30
0.0
  3
*D72
  1

  0
LINE
  5
642
  8
回07-寸法
  6
CONTINUOUS
 62
     5
 10
662.6365364551991
 20
173.1099357511684
 30
0.0
 11
662.6365364551991
 21
184.4347066139343
 31
0.0
  0
LINE
  5
643
  8
回07-寸法
  6
CONTINUOUS
 62
     5
 10
662.1365364551991
 20
175.9427155072462
 30
0.0
 11
662.1365364551991
 21
184.4347066139343
 31
0.0
  0
LINE
  5
644
  8
回07-寸法
  6
CONTINUOUS
 62
     5
 10
657.1365364551991
 20
183.4347066139343
 30
0.0
 11
633.5428356677976
 21
183.4347066139343
 31
0.0
  0
LINE
  5
645
  8
回07-寸法
  6
CONTINUOUS
 62
     5
 10
662.6365364551991
 20
183.4347066139343
 30
0.0
 11
662.1365364551991
 21
183.4347066139343
 31
0.0
  0
LINE
  5
646
  8
回07-寸法
  6
CONTINUOUS
 62
     5
 10
667.636536455199
 20
183.4347066139343
 30
0.0
 11
672.6365364551991
 21
183.4347066139343
 31
0.0
  0
INSERT
  5
647
  8
回07-寸法
  6
CONTINUOUS
 62
     5
  2
_OPEN
 10
662.6365364551991
 20
183.4347066139343
 30
0.0
 41
5.0
 42
5.0
 43
5.0
 50
180.0
  0
INSERT
  5
648
  8
回07-寸法
  6
CONTINUOUS
 62
     5
  2
_OPEN
 10
662.1365364551991
 20
183.4347066139343
 30
0.0
 41
5.0
 42
5.0
 43
5.0
  0
TEXT
  5
649
  8
回07-寸法
  6
CONTINUOUS
 62
     5
 10
632.8396860614983
 20
184.3347066139343
 30
0.0
 40
8.0
  1
(0.5)
  0
POINT
  5
64A
  8
DEFPOINTS
  6
CONTINUOUS
 62
     0
 10
662.6365364551991
 20
173.1099357511684
 30
0.0
  0
POINT
  5
64B
  8
DEFPOINTS
  6
CONTINUOUS
 62
     0
 10
662.1365364551991
 20
175.9427155072462
 30
0.0
  0
POINT
  5
64C
  8
DEFPOINTS
  6
CONTINUOUS
 62
     0
 10
662.1365364551991
 20
183.4347066139343
 30
0.0
  0
ENDBLK
  5
64E
  8
回04-下接
  6
CONTINUOUS
 62
     1
  0
BLOCK
  8
回04-下接
  2
*D73
 70
     1
 10
0.0
 20
0.0
 30
0.0
  3
*D73
  1

  0
LINE
  5
650
  8
回07-寸法
  6
CONTINUOUS
 62
     5
 10
662.1365364551991
 20
175.9427155072462
 30
0.0
 11
676.5129240426552
 21
175.9427155072462
 31
0.0
  0
LINE
  5
651
  8
回07-寸法
  6
CONTINUOUS
 62
     5
 10
662.6365364551991
 20
166.8698219834122
 30
0.0
 11
676.5129240426552
 21
166.8698219834122
 31
0.0
  0
LINE
  5
652
  8
回07-寸法
  6
CONTINUOUS
 62
     5
 10
675.5129240426551
 20
161.8698219834122
 30
0.0
 11
675.5129240426551
 21
131.568495242051
 31
0.0
  0
LINE
  5
653
  8
回07-寸法
  6
CONTINUOUS
 62
     5
 10
675.5129240426551
 20
175.9427155072462
 30
0.0
 11
675.5129240426551
 21
166.8698219834122
 31
0.0
  0
LINE
  5
654
  8
回07-寸法
  6
CONTINUOUS
 62
     5
 10
675.5129240426551
 20
180.9427155072462
 30
0.0
 11
675.5129240426551
 21
185.9427155072462
 31
0.0
  0
INSERT
  5
655
  8
回07-寸法
  6
CONTINUOUS
 62
     5
  2
_OPEN
 10
675.5129240426551
 20
175.9427155072462
 30
0.0
 41
5.0
 42
5.0
 43
5.0
 50
270.0
  0
INSERT
  5
656
  8
回07-寸法
  6
CONTINUOUS
 62
     5
  2
_OPEN
 10
675.5129240426551
 20
166.8698219834122
 30
0.0
 41
5.0
 42
5.0
 43
5.0
 50
90.0
  0
INSERT
  5
657
  8
回07-寸法
  6
CONTINUOUS
 62
     5
 66
     1
  2
*X100
 10
0.0
 20
0.0
 30
0.0
  0
SEQEND
  5
751
  8
回04-下接
  6
CONTINUOUS
 62
     1
  0
POINT
  5
658
  8
DEFPOINTS
  6
CONTINUOUS
 62
     0
 10
662.1365364551991
 20
175.9427155072462
 30
0.0
  0
POINT
  5
659
  8
DEFPOINTS
  6
CONTINUOUS
 62
     0
 10
662.6365364551991
 20
166.8698219834122
 30
0.0
  0
POINT
  5
65A
  8
DEFPOINTS
  6
CONTINUOUS
 62
     0
 10
675.5129240426551
 20
166.8698219834122
 30
0.0
  0
ENDBLK
  5
65C
  8
回04-下接
  6
CONTINUOUS
 62
     1
  0
BLOCK
  8
回04-下接
  2
*D74
 70
     1
 10
0.0
 20
0.0
 30
0.0
  3
*D74
  1

  0
LINE
  5
65E
  8
回07-寸法
  6
CONTINUOUS
 62
     5
 10
82.63653645520003
 20
173.1099357511688
 30
0.0
 11
82.63653645520003
 21
184.1363249456071
 31
0.0
  0
LINE
  5
65F
  8
回07-寸法
  6
CONTINUOUS
 62
     5
 10
87.63653645520003
 20
174.1099357511693
 30
0.0
 11
87.63653645520003
 21
184.1363249456071
 31
0.0
  0
LINE
  5
660
  8
回07-寸法
  6
CONTINUOUS
 62
     5
 10
92.63653645520003
 20
183.1363249456071
 30
0.0
 11
102.0022218801494
 21
183.1363249456071
 31
0.0
  0
LINE
  5
661
  8
回07-寸法
  6
CONTINUOUS
 62
     5
 10
82.63653645520003
 20
183.1363249456071
 30
0.0
 11
87.63653645520003
 21
183.1363249456071
 31
0.0
  0
LINE
  5
662
  8
回07-寸法
  6
CONTINUOUS
 62
     5
 10
77.63653645520003
 20
183.1363249456071
 30
0.0
 11
72.63653645520003
 21
183.1363249456071
 31
0.0
  0
INSERT
  5
663
  8
回07-寸法
  6
CONTINUOUS
 62
     5
  2
_OPEN
 10
82.63653645520003
 20
183.1363249456071
 30
0.0
 41
5.0
 42
5.0
 43
5.0
  0
INSERT
  5
664
  8
回07-寸法
  6
CONTINUOUS
 62
     5
  2
_OPEN
 10
87.63653645520003
 20
183.1363249456071
 30
0.0
 41
5.0
 42
5.0
 43
5.0
 50
180.0
  0
TEXT
  5
665
  8
回07-寸法
  6
CONTINUOUS
 62
     5
 10
97.10222188014945
 20
183.6363249456071
 30
0.0
 40
8.0
  1
5
  0
POINT
  5
666
  8
DEFPOINTS
  6
CONTINUOUS
 62
     0
 10
82.63653645520003
 20
173.1099357511688
 30
0.0
  0
POINT
  5
667
  8
DEFPOINTS
  6
CONTINUOUS
 62
     0
 10
87.63653645520003
 20
174.1099357511693
 30
0.0
  0
POINT
  5
668
  8
DEFPOINTS
  6
CONTINUOUS
 62
     0
 10
87.63653645520003
 20
183.1363249456071
 30
0.0
  0
ENDBLK
  5
66A
  8
回04-下接
  6
CONTINUOUS
 62
     1
  0
BLOCK
  8
回04-下接
  2
*D75
 70
     1
 10
0.0
 20
0.0
 30
0.0
  3
*D75
  1

  0
LINE
  5
66C
  8
回07-寸法
  6
CONTINUOUS
 62
     5
 10
82.63653645520003
 20
167.8698219834122
 30
0.0
 11
82.63653645520003
 21
150.1765741550361
 31
0.0
  0
LINE
  5
66D
  8
回07-寸法
  6
CONTINUOUS
 62
     5
 10
92.63653645520003
 20
167.8698219834122
 30
0.0
 11
92.63653645520003
 21
150.1765741550361
 31
0.0
  0
LINE
  5
66E
  8
回07-寸法
  6
CONTINUOUS
 62
     5
 10
97.63653645520003
 20
151.1765741550361
 30
0.0
 11
117.2302372426017
 21
151.1765741550361
 31
0.0
  0
LINE
  5
66F
  8
回07-寸法
  6
CONTINUOUS
 62
     5
 10
82.63653645520003
 20
151.1765741550361
 30
0.0
 11
92.63653645520003
 21
151.1765741550361
 31
0.0
  0
LINE
  5
670
  8
回07-寸法
  6
CONTINUOUS
 62
     5
 10
77.63653645520003
 20
151.1765741550361
 30
0.0
 11
72.63653645520003
 21
151.1765741550361
 31
0.0
  0
INSERT
  5
671
  8
回07-寸法
  6
CONTINUOUS
 62
     5
  2
_OPEN
 10
82.63653645520003
 20
151.1765741550361
 30
0.0
 41
5.0
 42
5.0
 43
5.0
  0
INSERT
  5
672
  8
回07-寸法
  6
CONTINUOUS
 62
     5
  2
_OPEN
 10
92.63653645520003
 20
151.1765741550361
 30
0.0
 41
5.0
 42
5.0
 43
5.0
 50
180.0
  0
TEXT
  5
673
  8
回07-寸法
  6
CONTINUOUS
 62
     5
 10
101.9333868489009
 20
152.0765741550361
 30
0.0
 40
8.0
  1
(10)
  0
POINT
  5
674
  8
DEFPOINTS
  6
CONTINUOUS
 62
     0
 10
82.63653645520003
 20
167.8698219834122
 30
0.0
  0
POINT
  5
675
  8
DEFPOINTS
  6
CONTINUOUS
 62
     0
 10
92.63653645520003
 20
167.8698219834122
 30
0.0
  0
POINT
  5
676
  8
DEFPOINTS
  6
CONTINUOUS
 62
     0
 10
92.63653645520003
 20
151.1765741550361
 30
0.0
  0
ENDBLK
  5
678
  8
回04-下接
  6
CONTINUOUS
 62
     1
  0
BLOCK
  8
回04-下接
  2
*D76
 70
     1
 10
0.0
 20
0.0
 30
0.0
  3
*D76
  1

  0
LINE
  5
67A
  8
回07-寸法
  6
CONTINUOUS
 62
     5
 10
82.63653645520003
 20
173.1099357511688
 30
0.0
 11
64.65091153663593
 21
173.1099357511688
 31
0.0
  0
LINE
  5
67B
  8
回07-寸法
  6
CONTINUOUS
 62
     5
 10
82.63653645520003
 20
167.8698219834122
 30
0.0
 11
64.65091153663593
 21
167.8698219834122
 31
0.0
  0
LINE
  5
67C
  8
回07-寸法
  6
CONTINUOUS
 62
     5
 10
65.65091153663593
 20
162.8698219834122
 30
0.0
 11
65.65091153663593
 21
126.6392587021021
 31
0.0
  0
LINE
  5
67D
  8
回07-寸法
  6
CONTINUOUS
 62
     5
 10
65.65091153663593
 20
173.1099357511688
 30
0.0
 11
65.65091153663593
 21
167.8698219834122
 31
0.0
  0
LINE
  5
67E
  8
回07-寸法
  6
CONTINUOUS
 62
     5
 10
65.65091153663593
 20
178.1099357511688
 30
0.0
 11
65.65091153663593
 21
183.1099357511688
 31
0.0
  0
INSERT
  5
67F
  8
回07-寸法
  6
CONTINUOUS
 62
     5
  2
_OPEN
 10
65.65091153663593
 20
173.1099357511688
 30
0.0
 41
5.0
 42
5.0
 43
5.0
 50
270.0
  0
INSERT
  5
680
  8
回07-寸法
  6
CONTINUOUS
 62
     5
  2
_OPEN
 10
65.65091153663593
 20
167.8698219834122
 30
0.0
 41
5.0
 42
5.0
 43
5.0
 50
90.0
  0
INSERT
  5
681
  8
回07-寸法
  6
CONTINUOUS
 62
     5
 66
     1
  2
*X101
 10
0.0
 20
0.0
 30
0.0
  0
SEQEND
  5
757
  8
回04-下接
  6
CONTINUOUS
 62
     1
  0
POINT
  5
682
  8
DEFPOINTS
  6
CONTINUOUS
 62
     0
 10
82.63653645520003
 20
173.1099357511688
 30
0.0
  0
POINT
  5
683
  8
DEFPOINTS
  6
CONTINUOUS
 62
     0
 10
82.63653645520003
 20
167.8698219834122
 30
0.0
  0
POINT
  5
684
  8
DEFPOINTS
  6
CONTINUOUS
 62
     0
 10
65.65091153663593
 20
167.8698219834122
 30
0.0
  0
ENDBLK
  5
686
  8
回04-下接
  6
CONTINUOUS
 62
     1
  0
BLOCK
  8
回04-下接
  2
*X77
 70
     1
 10
0.0
 20
0.0
 30
0.0
  3
*X77
  1

  0
INSERT
  5
691
  8
回03-記事
  6
CONTINUOUS
 62
     5
  2
_OPEN
 10
85.25049777632171
 20
361.809222554606
 30
0.0
 41
2.0
 42
2.0
 43
2.0
 50
236.6265780747896
  0
LINE
  5
692
  8
回03-記事
  6
CONTINUOUS
 62
     5
 10
86.35068460810565
 20
363.4794288098839
 30
0.0
 11
89.11067090881056
 21
367.6693956870949
 31
0.0
  0
LINE
  5
693
  8
回03-記事
  6
CONTINUOUS
 62
     5
 10
89.11067090881056
 20
367.6693956870949
 30
0.0
 11
91.61067090881056
 21
367.6693956870949
 31
0.0
  0
ENDBLK
  5
695
  8
回04-下接
  6
CONTINUOUS
 62
     1
  0
BLOCK
  8
回04-下接
  2
*X78
 70
     1
 10
0.0
 20
0.0
 30
0.0
  3
*X78
  1

  0
INSERT
  5
698
  8
回03-記事
  6
CONTINUOUS
 62
     5
  2
_OPEN
 10
84.76642103621703
 20
173.1099357511697
 30
0.0
 41
5.0
 42
5.0
 43
5.0
 50
325.6442402697153
  0
LINE
  5
699
  8
回03-記事
  6
CONTINUOUS
 62
     5
 10
80.63867361136765
 20
175.931584417579
 30
0.0
 11
67.46433204914751
 21
184.9373106584998
 31
0.0
  0
LINE
  5
69A
  8
回03-記事
  6
CONTINUOUS
 62
     5
 10
67.46433204914751
 20
184.9373106584998
 30
0.0
 11
14.54933204914751
 21
184.9373106584998
 31
0.0
  0
ENDBLK
  5
69C
  8
回04-下接
  6
CONTINUOUS
 62
     1
  0
BLOCK
  8
回04-下接
  2
*X79
 70
     1
 10
0.0
 20
0.0
 30
0.0
  3
*X79
  1

  0
TEXT
  5
69F
  8
0
  6
CONTINUOUS
 62
     5
 10
56.10594849771896
 20
478.9883833117473
 30
0.0
 40
5.0
  1
2-R0.5
  7
Standard
  0
LINE
  5
6A0
  8
0
  6
BYBLOCK
 62
     5
 10
77.21594849771896
 20
477.9883833117473
 30
0.0
 11
76.85594849771895
 21
477.9883833117473
 31
0.0
  0
POLYLINE
  5
6A1
  8
0
  6
BYBLOCK
 62
     5
 66
     1
 10
0.0
 20
0.0
 30
0.0
  0
VERTEX
  5
6A2
  8
0
  6
BYBLOCK
 62
     5
 10
82.95613886335653
 20
472.2481929461096
 30
0.0
  0
VERTEX
  5
6A4
  8
0
  6
BYBLOCK
 62
     5
 10
77.21594849771896
 20
477.9883833117473
 30
0.0
  0
SEQEND
  5
6A3
  8
回04-下接
  6
CONTINUOUS
 62
     1
  0
SOLID
  5
6A5
  8
0
  6
CONTINUOUS
 62
     5
 10
83.19184112375204
 20
472.4838952065051
 30
0.0
 11
84.3703524257296
 21
470.8339793837366
 31
0.0
 12
82.720436602961
 22
472.0124906857141
 32
0.0
 13
82.720436602961
 23
472.0124906857141
 33
0.0
  0
POLYLINE
  5
6A6
  8
0
  6
BYBLOCK
 62
     5
 66
     1
 10
0.0
 20
0.0
 30
0.0
  0
VERTEX
  5
6A7
  8
0
  6
BYBLOCK
 62
     5
 10
56.85594849771895
 20
477.9883833117473
 30
0.0
  0
VERTEX
  5
6A9
  8
0
  6
BYBLOCK
 62
     5
 10
76.85594849771895
 20
477.9883833117473
 30
0.0
  0
SEQEND
  5
6A8
  8
回04-下接
  6
CONTINUOUS
 62
     1
  0
ENDBLK
  5
6AB
  8
回04-下接
  6
CONTINUOUS
 62
     1
  0
BLOCK
  8
回04-下接
  2
*X80
 70
     1
 10
0.0
 20
0.0
 30
0.0
  3
*X80
  1

  0
LINE
  5
6BA
  8
回08-記事
  6
CONTINUOUS
 62
     7
 10
158.5365364552005
 20
355.3618748212254
 30
0.0
 11
160.6176932826638
 21
357.4430316486887
 31
0.0
  0
LINE
  5
6BB
  8
回08-記事
  6
CONTINUOUS
 62
     7
 10
158.5365364552005
 20
353.1168107909581
 30
0.0
 11
162.862757312931
 21
357.4430316486886
 31
0.0
  0
LINE
  5
6BC
  8
回08-記事
  6
CONTINUOUS
 62
     7
 10
159.1078213431983
 20
351.4430316486887
 30
0.0
 11
165.1078213431983
 21
357.4430316486886
 31
0.0
  0
LINE
  5
6BD
  8
回08-記事
  6
CONTINUOUS
 62
     7
 10
161.3528853734656
 20
351.4430316486887
 30
0.0
 11
166.7365364552004
 21
356.8266827304234
 31
0.0
  0
LINE
  5
6BE
  8
回08-記事
  6
CONTINUOUS
 62
     7
 10
163.5979494037328
 20
351.4430316486886
 30
0.0
 11
166.7365364552004
 21
354.5816187001561
 31
0.0
  0
LINE
  5
6BF
  8
回08-記事
  6
CONTINUOUS
 62
     7
 10
165.8430134340001
 20
351.4430316486886
 30
0.0
 11
166.7365364552004
 21
352.3365546698889
 31
0.0
  0
ENDBLK
  5
6C1
  8
回04-下接
  6
CONTINUOUS
 62
     1
  0
BLOCK
  8
回04-下接
  2
*X81
 70
     1
 10
0.0
 20
0.0
 30
0.0
  3
*X81
  1

  0
SOLID
  5
6C9
  8
回07-寸法
  6
CONTINUOUS
 62
     5
 10
152.4274029464098
 20
363.8040603181422
 30
0.0
 11
153.1070137649037
 21
361.8937618476154
 31
0.0
 12
151.844582405617
 22
363.4803866218454
 32
0.0
 13
151.844582405617
 23
363.4803866218454
 33
0.0
  0
LINE
  5
6CA
  8
回07-寸法
  6
CONTINUOUS
 62
     5
 10
152.1359926760134
 20
363.6422234699939
 30
0.0
 11
149.3894175944213
 21
368.5878226728211
 31
0.0
  0
LINE
  5
6CB
  8
回07-寸法
  6
CONTINUOUS
 62
     5
 10
149.3894175944213
 20
368.5878226728211
 30
0.0
 11
146.8894175944212
 21
368.5878226728211
 31
0.0
  0
ENDBLK
  5
6CD
  8
回04-下接
  6
CONTINUOUS
 62
     1
  0
BLOCK
  8
回04-下接
  2
*X82
 70
     1
 10
0.0
 20
0.0
 30
0.0
  3
*X82
  1

  0
SOLID
  5
6D0
  8
回07-寸法
  6
CONTINUOUS
 62
     5
 10
161.7397218922308
 20
369.2688562782328
 30
0.0
 11
162.7496110733862
 21
367.5106654601199
 31
0.0
 12
161.2240864474999
 22
368.8462873103926
 32
0.0
 13
161.2240864474999
 23
368.8462873103926
 33
0.0
  0
LINE
  5
6D1
  8
回07-寸法
  6
CONTINUOUS
 62
     5
 10
161.4819041698654
 20
369.0575717943127
 30
0.0
 11
155.854682339497
 21
375.9241314613218
 31
0.0
  0
LINE
  5
6D2
  8
回07-寸法
  6
CONTINUOUS
 62
     5
 10
155.854682339497
 20
375.9241314613218
 30
0.0
 11
153.354682339497
 21
375.9241314613218
 31
0.0
  0
ENDBLK
  5
6D4
  8
回04-下接
  6
CONTINUOUS
 62
     1
  0
BLOCK
  8
回04-下接
  2
*X83
 70
     1
 10
0.0
 20
0.0
 30
0.0
  3
*X83
  1

  0
SOLID
  5
6DC
  8
回07-寸法
  6
CONTINUOUS
 62
     5
 10
451.8406153396283
 20
337.3477462971574
 30
0.0
 11
450.3565364552002
 21
334.6930316486886
 31
0.0
 12
450.8994063247505
 22
337.6855710894872
 32
0.0
 13
450.8994063247505
 23
337.6855710894872
 33
0.0
  0
LINE
  5
6DD
  8
回07-寸法
  6
CONTINUOUS
 62
     5
 10
451.3700108321894
 20
337.5166586933223
 30
0.0
 11
453.870540940007
 21
344.483351289271
 31
0.0
  0
LINE
  5
6DE
  8
回07-寸法
  6
CONTINUOUS
 62
     5
 10
453.870540940007
 20
344.483351289271
 30
0.0
 11
457.3705409400069
 21
344.483351289271
 31
0.0
  0
ENDBLK
  5
6E0
  8
回04-下接
  6
CONTINUOUS
 62
     1
  0
BLOCK
  8
回04-下接
  2
*X84
 70
     1
 10
0.0
 20
0.0
 30
0.0
  3
*X84
  1

  0
TEXT
  5
6ED
  8
回07-寸法
  6
CONTINUOUS
 62
     5
 10
81.42030882252312
 20
440.6762573046849
 30
0.0
 40
8.0
  1
6.25
 50
90.0
  0
TEXT
  5
6EE
  8
回07-寸法
  6
CONTINUOUS
 62
     5
 10
81.42030882252312
 20
459.8762573046849
 30
0.0
 40
5.599999999999999
  1
±0.2
 50
90.0
  0
ENDBLK
  5
6F0
  8
回04-下接
  6
CONTINUOUS
 62
     1
  0
BLOCK
  8
回04-下接
  2
*X85
 70
     1
 10
0.0
 20
0.0
 30
0.0
  3
*X85
  1

  0
TEXT
  5
6F3
  8
回07-寸法
  6
CONTINUOUS
 62
     5
 10
123.2233756260779
 20
471.2354447479458
 30
0.0
 40
8.0
  1
80
  0
TEXT
  5
6F4
  8
回07-寸法
  6
CONTINUOUS
 62
     5
 10
134.4233756260778
 20
471.2354447479458
 30
0.0
 40
5.599999999999999
  1
±1
  0
ENDBLK
  5
6F6
  8
回04-下接
  6
CONTINUOUS
 62
     1
  0
BLOCK
  8
回04-下接
  2
*X86
 70
     1
 10
0.0
 20
0.0
 30
0.0
  3
*X86
  1

  0
TEXT
  5
6F9
  8
回07-寸法
  6
CONTINUOUS
 62
     5
 10
408.7833973814615
 20
639.9443410175811
 30
0.0
 40
8.0
  1
500
  0
TEXT
  5
6FA
  8
回07-寸法
  6
CONTINUOUS
 62
     5
 10
425.5833973814615
 20
639.9443410175811
 30
0.0
 40
5.599999999999999
  1
±0.3
  0
ENDBLK
  5
6FC
  8
回04-下接
  6
CONTINUOUS
 62
     1
  0
BLOCK
  8
回04-下接
  2
*X87
 70
     1
 10
0.0
 20
0.0
 30
0.0
  3
*X87
  1

  0
TEXT
  5
6FF
  8
回07-寸法
  6
CONTINUOUS
 62
     5
 10
766.8633973814612
 20
402.9298995434734
 30
0.0
 40
8.0
  1
293.205
 50
90.0
  0
TEXT
  5
700
  8
回07-寸法
  6
CONTINUOUS
 62
     5
 10
766.8633973814612
 20
438.9587824916892
 30
0.0
 40
5.599999999999999
  1
±0.3
 50
90.0
  0
ENDBLK
  5
702
  8
回04-下接
  6
CONTINUOUS
 62
     1
  0
BLOCK
  8
回04-下接
  2
*X88
 70
     1
 10
0.0
 20
0.0
 30
0.0
  3
*X88
  1

  0
TEXT
  5
705
  8
回07-寸法
  6
CONTINUOUS
 62
     5
 10
67.25195594839037
 20
625.2776610175811
 30
0.0
 40
8.0
  1
10.44 
  0
TEXT
  5
706
  8
回07-寸法
  6
CONTINUOUS
 62
     5
 10
96.85195594839038
 20
625.2776610175811
 30
0.0
 40
6.6664
  1
(Insulation area)
  0
ENDBLK
  5
708
  8
回04-下接
  6
CONTINUOUS
 62
     1
  0
BLOCK
  8
回04-下接
  2
*X89
 70
     1
 10
0.0
 20
0.0
 30
0.0
  3
*X89
  1

  0
TEXT
  5
70B
  8
回07-寸法
  6
CONTINUOUS
 62
     5
 10
751.4633973814582
 20
583.746221853588
 30
0.0
 40
8.0
  1
(9.16)
 50
90.0
  0
TEXT
  5
70C
  8
回07-寸法
  6
CONTINUOUS
 62
     5
 10
751.4633973814582
 20
607.7751048018038
 30
0.0
 40
6.6664
  1
 (Insulation area)
 50
90.0
  0
ENDBLK
  5
70E
  8
回04-下接
  6
CONTINUOUS
 62
     1
  0
BLOCK
  8
回04-下接
  2
*X90
 70
     1
 10
0.0
 20
0.0
 30
0.0
  3
*X90
  1

  0
TEXT
  5
711
  8
回07-寸法
  6
CONTINUOUS
 62
     5
 10
751.5300773814613
 20
178.3384912113463
 30
0.0
 40
8.0
  1
9.155
 50
90.0
  0
TEXT
  5
712
  8
回07-寸法
  6
CONTINUOUS
 62
     5
 10
751.5300773814613
 20
201.5673741595622
 30
0.0
 40
6.6664
  1
 (Insulation area)
 50
90.0
  0
ENDBLK
  5
714
  8
回04-下接
  6
CONTINUOUS
 62
     1
  0
BLOCK
  8
回04-下接
  2
*X91
 70
     1
 10
0.0
 20
0.0
 30
0.0
  3
*X91
  1

  0
TEXT
  5
717
  8
回07-寸法
  6
CONTINUOUS
 62
     5
 10
74.87777246289716
 20
195.0968672835935
 30
0.0
 40
8.0
  1
0.3
 50
90.0
  0
TEXT
  5
718
  8
回07-寸法
  6
CONTINUOUS
 62
     5
 10
74.87777246289716
 20
208.6968672835935
 30
0.0
 40
6.0
  1
±0.05
 50
90.0
  0
ENDBLK
  5
71A
  8
回04-下接
  6
CONTINUOUS
 62
     1
  0
BLOCK
  8
回04-下接
  2
*X92
 70
     1
 10
0.0
 20
0.0
 30
0.0
  3
*X92
  1

  0
TEXT
  5
71D
  8
回07-寸法
  6
CONTINUOUS
 62
     5
 10
684.7397849689164
 20
200.019804610944
 30
0.0
 40
8.0
  1
2.1
 50
90.0
  0
TEXT
  5
71E
  8
回07-寸法
  6
CONTINUOUS
 62
     5
 10
684.7397849689164
 20
212.019804610944
 30
0.0
 40
6.0
  1
±0.2
 50
90.0
  0
ENDBLK
  5
720
  8
回04-下接
  6
CONTINUOUS
 62
     1
  0
BLOCK
  8
回04-下接
  2
*X93
 70
     1
 10
0.0
 20
0.0
 30
0.0
  3
*X93
  1

  0
TEXT
  5
723
  8
回07-寸法
  6
CONTINUOUS
 62
     5
 10
113.4965146998166
 20
402.0841353790528
 30
0.0
 40
8.0
  1
80
  0
TEXT
  5
724
  8
回07-寸法
  6
CONTINUOUS
 62
     5
 10
124.6965146998166
 20
402.0841353790528
 30
0.0
 40
5.599999999999999
  1
±1
  0
ENDBLK
  5
726
  8
回04-下接
  6
CONTINUOUS
 62
     1
  0
BLOCK
  8
回04-下接
  2
*X94
 70
     1
 10
0.0
 20
0.0
 30
0.0
  3
*X94
  1

  0
TEXT
  5
729
  8
回07-寸法
  6
CONTINUOUS
 62
     5
 10
71.69344789626189
 20
371.524947935792
 30
0.0
 40
8.0
  1
6.25
 50
90.0
  0
TEXT
  5
72A
  8
回07-寸法
  6
CONTINUOUS
 62
     5
 10
71.69344789626189
 20
390.7249479357919
 30
0.0
 40
5.599999999999999
  1
±0.2
 50
90.0
  0
ENDBLK
  5
72C
  8
回04-下接
  6
CONTINUOUS
 62
     1
  0
BLOCK
  8
回04-下接
  2
*X95
 70
     1
 10
0.0
 20
0.0
 30
0.0
  3
*X95
  1

  0
TEXT
  5
72F
  8
回07-寸法
  6
CONTINUOUS
 62
     5
 10
741.8032164551999
 20
109.1871818424532
 30
0.0
 40
8.0
  1
9.155
 50
90.0
  0
TEXT
  5
730
  8
回07-寸法
  6
CONTINUOUS
 62
     5
 10
741.8032164551999
 20
132.4160647906691
 30
0.0
 40
6.6664
  1
 (Insulation area)
 50
90.0
  0
ENDBLK
  5
732
  8
回04-下接
  6
CONTINUOUS
 62
     1
  0
BLOCK
  8
回04-下接
  2
*X96
 70
     1
 10
0.0
 20
0.0
 30
0.0
  3
*X96
  1

  0
TEXT
  5
735
  8
回07-寸法
  6
CONTINUOUS
 62
     5
 10
741.7365364551967
 20
514.5949124846951
 30
0.0
 40
8.0
  1
(9.16)
 50
90.0
  0
TEXT
  5
736
  8
回07-寸法
  6
CONTINUOUS
 62
     5
 10
741.7365364551967
 20
538.6237954329109
 30
0.0
 40
6.6664
  1
 (Insulation area)
 50
90.0
  0
ENDBLK
  5
738
  8
回04-下接
  6
CONTINUOUS
 62
     1
  0
BLOCK
  8
回04-下接
  2
*X97
 70
     1
 10
0.0
 20
0.0
 30
0.0
  3
*X97
  1

  0
TEXT
  5
73B
  8
回07-寸法
  6
CONTINUOUS
 62
     5
 10
57.52509502212916
 20
556.1263516486881
 30
0.0
 40
8.0
  1
10.44 
  0
TEXT
  5
73C
  8
回07-寸法
  6
CONTINUOUS
 62
     5
 10
87.12509502212915
 20
556.1263516486881
 30
0.0
 40
6.6664
  1
(Insulation area)
  0
ENDBLK
  5
73E
  8
回04-下接
  6
CONTINUOUS
 62
     1
  0
BLOCK
  8
回04-下接
  2
*X98
 70
     1
 10
0.0
 20
0.0
 30
0.0
  3
*X98
  1

  0
TEXT
  5
741
  8
回07-寸法
  6
CONTINUOUS
 62
     5
 10
757.1365364552
 20
333.7785901745804
 30
0.0
 40
8.0
  1
293.205
 50
90.0
  0
TEXT
  5
742
  8
回07-寸法
  6
CONTINUOUS
 62
     5
 10
757.1365364552
 20
369.8074731227962
 30
0.0
 40
5.599999999999999
  1
±0.3
 50
90.0
  0
ENDBLK
  5
744
  8
回04-下接
  6
CONTINUOUS
 62
     1
  0
BLOCK
  8
回04-下接
  2
*X99
 70
     1
 10
0.0
 20
0.0
 30
0.0
  3
*X99
  1

  0
TEXT
  5
747
  8
回07-寸法
  6
CONTINUOUS
 62
     5
 10
399.0565364552003
 20
570.7930316486881
 30
0.0
 40
8.0
  1
500
  0
TEXT
  5
748
  8
回07-寸法
  6
CONTINUOUS
 62
     5
 10
415.8565364552003
 20
570.7930316486881
 30
0.0
 40
5.599999999999999
  1
±0.3
  0
ENDBLK
  5
74A
  8
回04-下接
  6
CONTINUOUS
 62
     1
  0
BLOCK
  8
回04-下接
  2
*X100
 70
     1
 10
0.0
 20
0.0
 30
0.0
  3
*X100
  1

  0
TEXT
  5
74D
  8
回07-寸法
  6
CONTINUOUS
 62
     5
 10
675.0129240426551
 20
130.868495242051
 30
0.0
 40
8.0
  1
2.1
 50
90.0
  0
TEXT
  5
74E
  8
回07-寸法
  6
CONTINUOUS
 62
     5
 10
675.0129240426551
 20
142.868495242051
 30
0.0
 40
6.0
  1
±0.2
 50
90.0
  0
ENDBLK
  5
750
  8
回04-下接
  6
CONTINUOUS
 62
     1
  0
BLOCK
  8
回04-下接
  2
*X101
 70
     1
 10
0.0
 20
0.0
 30
0.0
  3
*X101
  1

  0
TEXT
  5
753
  8
回07-寸法
  6
CONTINUOUS
 62
     5
 10
65.15091153663593
 20
125.9455579147005
 30
0.0
 40
8.0
  1
0.3
 50
90.0
  0
TEXT
  5
754
  8
回07-寸法
  6
CONTINUOUS
 62
     5
 10
65.15091153663593
 20
139.5455579147005
 30
0.0
 40
6.0
  1
±0.05
 50
90.0
  0
ENDBLK
  5
756
  8
回04-下接
  6
CONTINUOUS
 62
     1
  0
ENDSEC
  0
SECTION
  2
ENTITIES
  0
TEXT
  5
63
  8
回03-記事
  6
CONTINUOUS
 62
     5
 10
276.4429818309168
 20
37.6500358921397
 30
0.0
 40
8.0
  1
without affecting product specification.
  0
TEXT
  5
65
  8
回03-記事
  6
CONTINUOUS
 62
     5
 10
276.4429818309168
 20
47.15865882979551
 30
0.0
 40
8.0
  1
Edges and corners of ITO glass may be chamfered 
  0
POLYLINE
  5
66
  8
回04-下接
  6
CONTINUOUS
 62
     7
 66
     1
 10
0.0
 20
0.0
 30
0.0
 70
     1
  0
VERTEX
  5
68B
  8
回04-下接
  6
CONTINUOUS
 62
     7
 10
162.6365364552
 20
212.0930316486887
 30
0.0
  0
VERTEX
  5
68D
  8
回04-下接
  6
CONTINUOUS
 62
     7
 10
662.6365364552
 20
212.0930316486887
 30
0.0
  0
VERTEX
  5
68E
  8
回04-下接
  6
CONTINUOUS
 62
     7
 10
662.6365364552
 20
505.2930316486888
 30
0.0
  0
VERTEX
  5
68F
  8
回04-下接
  6
CONTINUOUS
 62
     7
 10
162.6365364552
 20
505.2930316486888
 30
0.0
  0
SEQEND
  5
68C
  8
回04-下接
  6
CONTINUOUS
 62
     1
  0
TEXT
  5
67
  8
回03-記事
  6
CONTINUOUS
 62
     5
 10
90.86067090881057
 20
368.1693956870949
 30
0.0
 40
5.0
  1
A
1001
ACAD
1000
MTEXTBEGIN
1070
    73
1070
     1
1070
    44
1040
1.0
1070
    74
1070
     0
1000
MTEXTEND
  0
INSERT
  5
68
  8
回03-記事
  6
CONTINUOUS
 62
     5
 66
     1
  2
*X77
 10
0.0
 20
0.0
 30
0.0
  0
SEQEND
  5
696
  8
回04-下接
  6
CONTINUOUS
 62
     1
  0
CIRCLE
  5
69
  8
回03-記事
  6
CONTINUOUS
 62
     5
 10
84.44396044771725
 20
358.4394075444206
 30
0.0
 40
7.742816109002717
  0
TEXT
  5
6A
  8
回03-記事
  6
CONTINUOUS
 62
     5
 10
13.64933204914751
 20
186.9373106584998
 30
0.0
 40
6.0
  1
Trace Expose
1001
ACAD
1000
MTEXTBEGIN
1070
    73
1070
     1
1070
    44
1040
1.0
1070
    74
1070
     0
1000
MTEXTEND
  0
INSERT
  5
6B
  8
回03-記事
  6
CONTINUOUS
 62
     5
 66
     1
  2
*X78
 10
0.0
 20
0.0
 30
0.0
  0
SEQEND
  5
69D
  8
回04-下接
  6
CONTINUOUS
 62
     1
  0
INSERT
  5
6C
  8
回04-下接
  6
CONTINUOUS
 62
     1
 66
     1
  2
*X79
 10
0.0
 20
0.0
 30
0.0
1001
ACAD_MLEADERVER
1070
     2
  0
SEQEND
  5
6AC
  8
回04-下接
  6
CONTINUOUS
 62
     1
  0
DIMENSION
  5
6E
  8
0
  6
CONTINUOUS
 62
     1
  2
*D39
 10
55.8079589046531
 20
471.2205984325704
 30
0.0
 11
55.8079589046531
 21
436.6708444955627
 31
0.0
 70
   160
  1
{\H0.625x;6.25±0.2}
  3
DMC
 13
85.30373337689594
 23
454.72059843257
 33
0.0
 14
85.30373337689594
 24
471.2205984325704
 34
0.0
 50
90.0
1001
ACAD
1000
DSTYLE
1002
{
1070
    41
1040
3.0
1070
    47
1040
0.2
1070
    48
1040
0.2
1070
   140
1040
8.0
1070
   141
1040
1.5
1070
   271
1070
     3
1070
   272
1070
     3
1070
   371
1070
    13
1070
   372
1070
    13
1002
}
  0
DIMENSION
  5
81
  8
0
  6
CONTINUOUS
 62
     1
  2
*D40
 10
65.28184716439068
 20
467.9205984325634
 30
0.0
 11
65.28184716439068
 21
438.5079678070005
 31
0.0
 70
   160
  1
{\H0.625x;3.75±0.1}
  3
DMC
 13
80.15624010992064
 23
458.0205984325639
 33
0.0
 14
80.15624010992064
 24
467.9205984325634
 34
0.0
 50
90.0
1001
ACAD
1000
DSTYLE
1002
{
1070
    41
1040
3.0
1070
    47
1040
0.2
1070
    48
1040
0.2
1070
   140
1040
8.0
1070
   141
1040
1.5
1070
   271
1070
     3
1070
   272
1070
     3
1070
   371
1070
    13
1070
   372
1070
    13
1002
}
  0
DIMENSION
  5
92
  8
0
  6
CONTINUOUS
 62
     1
  2
*D41
 10
72.99049546610217
 20
461.3205984325631
 30
0.0
 11
72.99049546610217
 21
438.6063348017769
 31
0.0
 70
   160
  1
{\H0.625x;1.25±0.2}
  3
DMC
 13
80.15624010992064
 23
458.0205984325639
 33
0.0
 14
80.1563549783466
 24
461.3205984325631
 34
0.0
 50
90.0
1001
ACAD
1000
DSTYLE
1002
{
1070
    41
1040
3.0
1070
    47
1040
0.2
1070
    48
1040
0.2
1070
   140
1040
8.0
1070
   141
1040
1.5
1070
   271
1070
     3
1070
   272
1070
     3
1070
   371
1070
    13
1070
   372
1070
    13
1002
}
  0
DIMENSION
  5
A3
  8
0
  6
CONTINUOUS
 62
     1
  2
*D42
 10
81.70990109081207
 20
458.9445984325636
 30
0.0
 11
81.70990109081207
 21
430.9142631096873
 31
0.0
 70
   160
  1
{\H0.625x;4-0.7±0.1}
  3
DMC
 13
87.39053785947294
 23
457.0965984325637
 33
0.0
 14
87.39053785947294
 24
458.9445984325636
 34
0.0
 50
90.0
1001
ACAD
1000
DSTYLE
1002
{
1070
    41
1040
3.0
1070
    47
1040
0.2
1070
    48
1040
0.2
1070
   140
1040
8.0
1070
   141
1040
1.5
1070
   271
1070
     3
1070
   272
1070
     3
1070
   371
1070
    13
1070
   372
1070
    13
1002
}
  0
TEXT
  5
B4
  8
回03-記事
  6
CONTINUOUS
 62
     5
 10
70.67295050454117
 20
487.4137565882028
 30
0.0
 40
8.0
  1
SECTION A
  0
LINE
  5
B5
  8
回03-記事
  6
CONTINUOUS
 62
     7
 10
80.15624010992064
 20
458.0205984325639
 30
0.0
 11
101.9513434699035
 21
458.0205984325639
 31
0.0
  0
LINE
  5
B6
  8
回03-記事
  6
CONTINUOUS
 62
     7
 10
80.1563549783466
 20
461.3205984325631
 30
0.0
 11
101.9513434699035
 21
461.3205984325631
 31
0.0
  0
LINE
  5
B7
  8
回03-記事
  6
CONTINUOUS
 62
     7
 10
80.15624010992064
 20
467.9205984325634
 30
0.0
 11
101.9513434699035
 21
467.9205984325634
 31
0.0
  0
POLYLINE
  5
B8
  8
回03-記事
  6
CONTINUOUS
 62
     8
 66
     1
 10
0.0
 20
0.0
 30
0.0
 40
1.847999999999999
 41
1.847999999999999
  0
VERTEX
  5
6AD
  8
回03-記事
  6
CONTINUOUS
 62
     8
 10
83.98361850846937
 20
464.6205984325633
 30
0.0
  0
VERTEX
  5
6AF
  8
回03-記事
  6
CONTINUOUS
 62
     8
 10
97.18373337689605
 20
464.6205984325633
 30
0.0
  0
SEQEND
  5
6AE
  8
回04-下接
  6
CONTINUOUS
 62
     1
  0
POLYLINE
  5
B9
  8
回03-記事
  6
CONTINUOUS
 62
     8
 66
     1
 10
0.0
 20
0.0
 30
0.0
 40
1.847999999999999
 41
1.847999999999999
  0
VERTEX
  5
6B0
  8
回03-記事
  6
CONTINUOUS
 62
     8
 10
83.98361850846937
 20
467.9205984325634
 30
0.0
  0
VERTEX
  5
6B2
  8
回03-記事
  6
CONTINUOUS
 62
     8
 10
97.18373337689605
 20
467.9205984325634
 30
0.0
  0
SEQEND
  5
6B1
  8
回04-下接
  6
CONTINUOUS
 62
     1
  0
POLYLINE
  5
BA
  8
回03-記事
  6
CONTINUOUS
 62
     8
 66
     1
 10
0.0
 20
0.0
 30
0.0
 40
1.847999999999999
 41
1.847999999999999
  0
VERTEX
  5
6B3
  8
回03-記事
  6
CONTINUOUS
 62
     8
 10
83.98361850846937
 20
458.0205984325639
 30
0.0
  0
VERTEX
  5
6B5
  8
回03-記事
  6
CONTINUOUS
 62
     8
 10
97.18373337689605
 20
458.0205984325639
 30
0.0
  0
SEQEND
  5
6B4
  8
回04-下接
  6
CONTINUOUS
 62
     1
  0
POLYLINE
  5
BB
  8
回03-記事
  6
CONTINUOUS
 62
     8
 66
     1
 10
0.0
 20
0.0
 30
0.0
 40
1.847999999999999
 41
1.847999999999999
  0
VERTEX
  5
6B6
  8
回03-記事
  6
CONTINUOUS
 62
     8
 10
83.98361850846937
 20
461.3205984325631
 30
0.0
  0
VERTEX
  5
6B8
  8
回03-記事
  6
CONTINUOUS
 62
     8
 10
97.18373337689605
 20
461.3205984325631
 30
0.0
  0
SEQEND
  5
6B7
  8
回04-下接
  6
CONTINUOUS
 62
     1
  0
LINE
  5
BC
  8
回03-記事
  6
CONTINUOUS
 62
     8
 10
85.30373337689594
 20
454.72059843257
 30
0.0
 11
116.6546084125409
 21
454.72059843257
 31
0.0
  0
LINE
  5
BD
  8
回03-記事
  6
CONTINUOUS
 62
     8
 10
83.98373337689623
 20
469.9005984325703
 30
0.0
 11
83.98373337689623
 21
456.0405984325706
 31
0.0
  0
ARC
  5
BE
  8
回03-記事
  6
CONTINUOUS
 62
     8
 10
85.30373337689594
 20
456.0405984325706
 30
0.0
 40
1.32
 50
180.0
 51
270.0
  0
ARC
  5
BF
  8
回03-記事
  6
CONTINUOUS
 62
     8
 10
85.30373337689594
 20
469.9005984325703
 30
0.0
 40
1.32
 50
90.0
 51
180.0
  0
LINE
  5
C0
  8
回03-記事
  6
CONTINUOUS
 62
     8
 10
85.30373337689594
 20
471.2205984325691
 30
0.0
 11
116.6546084125409
 21
471.2205984325691
 31
0.0
  0
TEXT
  5
C1
  8
回03-記事
  6
CONTINUOUS
 62
     5
 10
276.4429818309168
 20
61.26311618731833
 30
0.0
 40
8.0
  1
Unit: mm
  0
TEXT
  5
C2
  8
回03-記事
  6
CONTINUOUS
 62
     5
 10
276.4429818309168
 20
75.02987730354888
 30
0.0
 40
8.0
  1
EXCEPT WHERE INDICATED
  0
TEXT
  5
C3
  8
回03-記事
  6
CONTINUOUS
 62
     5
 10
276.4429818309168
 20
88.80895196253787
 30
0.0
 40
8.0
  1
TOLERANCE=±0.5mm
  0
LINE
  5
C4
  8
回04-図面枠
  6
CONTINUOUS
 62
     7
 10
896.8164283031827
 20
7.278976928759846
 30
0.0
 11
896.8164283031827
 21
36.97897692875967
 31
0.0
  0
LINE
  5
C7
  8
回04-図面枠
  6
CENTER2
 62
     7
 10
912.3121300008294
 20
11.46363097671309
 30
0.0
 11
912.3121300008294
 21
32.25381140003009
 31
0.0
  0
LINE
  5
C9
  8
回04-図面枠
  6
CONTINUOUS
 62
     7
 10
926.4686146561405
 20
17.46931174317223
 30
0.0
 11
941.8259059568105
 21
13.56008792812434
 31
0.0
  0
LINE
  5
CA
  8
回04-図面枠
  6
CONTINUOUS
 62
     7
 10
926.4686146561405
 20
26.24813063357005
 30
0.0
 11
941.8259059568105
 21
30.1573544486202
 31
0.0
  0
LINE
  5
CB
  8
回04-図面枠
  6
CONTINUOUS
 62
     7
 10
941.8259059568105
 20
30.1573544486202
 30
0.0
 11
941.8259059568105
 21
13.56008792812434
 31
0.0
  0
LINE
  5
CC
  8
回04-図面枠
  6
CONTINUOUS
 62
     7
 10
926.4686146561405
 20
26.24813063357005
 30
0.0
 11
926.4686146561405
 21
17.46931174317223
 31
0.0
  0
LINE
  5
CD
  8
回04-図面枠
  6
CENTER2
 62
     7
 10
902.7813871935967
 20
21.85872118837204
 30
0.0
 11
943.1869970763944
 21
21.85872118837204
 31
0.0
  0
CIRCLE
  5
CE
  8
回04-図面枠
  6
CONTINUOUS
 62
     7
 10
912.3121300008294
 20
21.85872118837204
 30
0.0
 40
4.389409445199127
  0
CIRCLE
  5
CF
  8
回04-図面枠
  6
CONTINUOUS
 62
     7
 10
912.3121300008294
 20
21.85872118837204
 30
0.0
 40
8.298633260246493
  0
TEXT
  5
D0
  8
回04-図面枠
 62
     7
 10
776.932620304138
 20
51.10818536059349
 30
0.0
 40
14.85
  1
Sep/08/2023
 72
     1
 11
834.847620304138
 21
51.10818536059349
 31
0.0
  0
TEXT
  5
D1
  8
回04-図面枠
  6
CONTINUOUS
 62
     7
 10
819.8512887166796
 20
83.59831299999104
 30
0.0
 40
8.91
  1
DATE
  0
TEXT
  5
D2
  8
回04-図面枠
 62
     7
 10
751.8411140780119
 20
14.81596920522105
 30
0.0
 40
14.85
  1
DMC Co., Ltd.
 72
     1
 11
810.8698640780119
 21
14.81596920522105
 31
0.0
  0
TEXT
  5
D3
  8
回04-図面枠
 62
     7
 10
554.1826203041384
 20
59.22986704859858
 30
0.0
 40
14.85
  1
LST-215WB080A
 72
     1
 11
626.9476203041383
 21
59.22986704859858
 31
0.0
  0
TEXT
  5
D4
  8
回04-図面枠
 62
     7
 10
598.8811203041383
 20
84.34231809926831
 30
0.0
 40
8.91
  1
PART　No.
 72
     1
 11
626.9476203041383
 21
84.34231809926831
 31
0.0
  0
LINE
  5
D5
  8
回04-図面枠
 62
     7
 10
539.3326203041376
 20
22.12897692875976
 30
0.0
 11
714.5626203041381
 21
22.12897692875976
 31
0.0
  0
TEXT
  5
D6
  8
回04-図面枠
 62
     7
 10
557.4496203041383
 20
25.54456820097647
 30
0.0
 40
8.91
  1
STANDARD TOUCHSCREEN
 72
     1
 11
626.9476203041383
 21
25.54456820097647
 31
0.0
  0
TEXT
  5
D7
  8
回04-図面枠
 62
     7
 10
577.4971203041383
 20
10.69456820097656
 30
0.0
 40
8.91
  1
CIRCUIT　DRAWING
 72
     1
 11
626.9476203041383
 21
10.69456820097656
 31
0.0
  0
LINE
  5
D8
  8
回04-図面枠
 62
     7
 10
723.472620304138
 20
96.37897692875975
 30
0.0
 11
723.472620304138
 21
7.278976928759846
 31
0.0
  0
TEXT
  5
D9
  8
回04-図面枠
 62
     7
 10
612.6916203041384
 20
39.18752740679855
 30
0.0
 40
8.91
  1
TYPE
 72
     1
 11
626.9476203041383
 21
39.18752740679855
 31
0.0
  0
LINE
  5
DA
  8
回04-図面枠
 62
     7
 10
530.4226203041378
 20
96.37897692875975
 30
0.0
 11
530.4226203041378
 21
7.278976928759846
 31
0.0
  0
LINE
  5
DB
  8
回04-図面枠
 62
     7
 10
530.4226203041378
 20
51.82897692876048
 30
0.0
 11
723.472620304138
 21
51.82897692876048
 31
0.0
  0
LINE
  5
DC
  8
回04-図面枠
 62
     7
 10
530.4226203041378
 20
36.97897692875967
 30
0.0
 11
946.222620304138
 21
36.97897692875967
 31
0.0
  0
LINE
  5
DD
  8
回04-図面枠
 62
     7
 10
530.4226203041378
 20
96.37897692875975
 30
0.0
 11
946.222620304138
 21
96.37897692875975
 31
0.0
  0
LINE
  5
DE
  8
回04-図面枠
 62
     7
 10
530.4226203041378
 20
81.52897692875985
 30
0.0
 11
946.222620304138
 21
81.52897692875985
 31
0.0
  0
TEXT
  5
DF
  8
回90-枠1
 10
947.8657928784194
 20
583.8417410649153
 30
0.0
 40
4.68
  1
1
  0
TEXT
  5
E1
  8
回90-枠1
 10
897.9360011117512
 20
639.5147119862397
 30
0.0
 40
4.68
  1
J
  0
LINE
  5
E2
  8
回90-枠1
 10
952.0726203041384
 20
533.7789769287598
 30
0.0
 11
946.222620304138
 21
533.7789769287598
 31
0.0
  0
TEXT
  5
E3
  8
回90-枠1
 10
947.5130393955566
 20
478.5417410649151
 30
0.0
 40
4.68
  1
2
  0
LINE
  5
E4
  8
回90-枠1
 10
952.0726203041384
 20
428.4789769287598
 30
0.0
 11
946.222620304138
 21
428.4789769287598
 31
0.0
  0
TEXT
  5
E5
  8
回90-枠1
 10
947.5066268078414
 20
373.2417410649152
 30
0.0
 40
4.68
  1
3
  0
LINE
  5
E6
  8
回90-枠1
 10
952.0726203041384
 20
323.1789769287597
 30
0.0
 11
946.222620304138
 21
323.1789769287597
 31
0.0
  0
TEXT
  5
E7
  8
回90-枠1
 10
947.4211090273463
 20
267.9417410649152
 30
0.0
 40
4.68
  1
4
  0
LINE
  5
E8
  8
回90-枠1
 10
852.6226203041385
 20
644.9289769287597
 30
0.0
 11
852.6226203041385
 21
639.0789769287598
 31
0.0
  0
TEXT
  5
E9
  8
回90-枠1
 10
804.3360011117517
 20
639.5147119862397
 30
0.0
 40
4.68
  1
I
  0
LINE
  5
EA
  8
回90-枠1
 10
759.0226203041382
 20
644.9289769287597
 30
0.0
 11
759.0226203041382
 21
639.0789769287598
 31
0.0
  0
TEXT
  5
EB
  8
回90-枠1
 10
710.7360011117523
 20
639.5147119862397
 30
0.0
 40
4.68
  1
H
  0
LINE
  5
EC
  8
回90-枠1
 10
665.4226203041387
 20
644.9289769287597
 30
0.0
 11
665.4226203041387
 21
639.0789769287598
 31
0.0
  0
TEXT
  5
ED
  8
回90-枠1
 10
617.136001111752
 20
639.5147119862397
 30
0.0
 40
4.68
  1
G
  0
LINE
  5
EE
  8
回90-枠1
 10
952.0726203041384
 20
217.8789769287598
 30
0.0
 11
946.222620304138
 21
217.8789769287598
 31
0.0
  0
TEXT
  5
EF
  8
回90-枠1
 10
947.4211090273463
 20
162.641741064915
 30
0.0
 40
4.68
  1
5
  0
LINE
  5
F0
  8
回90-枠1
 10
952.0726203041384
 20
112.5789769287598
 30
0.0
 11
946.222620304138
 21
112.5789769287598
 31
0.0
  0
TEXT
  5
F1
  8
回90-枠1
 10
947.4211090273463
 20
57.34174106491508
 30
0.0
 40
4.68
  1
6
  0
TEXT
  5
F2
  8
回90-枠1
 10
897.9360011117512
 20
1.864711986239797
 30
0.0
 40
4.68
  1
J
  0
LINE
  5
F3
  8
回90-枠1
 10
852.6226203041385
 20
7.278976928759618
 30
0.0
 11
852.6226203041385
 21
1.428976928759709
 31
0.0
  0
TEXT
  5
F4
  8
回90-枠1
 10
804.3360011117517
 20
1.864711986239797
 30
0.0
 40
4.68
  1
I
  0
LINE
  5
F5
  8
回90-枠1
 10
759.0226203041382
 20
7.278976928759618
 30
0.0
 11
759.0226203041382
 21
1.428976928759709
 31
0.0
  0
TEXT
  5
F6
  8
回90-枠1
 10
710.7360011117523
 20
1.864711986239797
 30
0.0
 40
4.68
  1
H
  0
LINE
  5
F7
  8
回90-枠1
 10
665.4226203041387
 20
7.278976928759618
 30
0.0
 11
665.4226203041387
 21
1.428976928759709
 31
0.0
  0
TEXT
  5
F8
  8
回90-枠1
 10
617.136001111752
 20
1.864711986239797
 30
0.0
 40
4.68
  1
G
  0
LINE
  5
F9
  8
回90-枠1
 10
946.222620304138
 20
639.0789769287598
 30
0.0
 11
946.222620304138
 21
7.278976928759618
 31
0.0
  0
LINE
  5
FA
  8
回90-枠1
 10
952.0726203041384
 20
1.428976928759709
 30
0.0
 11
952.0726203041384
 21
644.9289769287597
 31
0.0
  0
LINE
  5
FB
  8
回90-枠1
 10
571.8226203041383
 20
644.9289769287597
 30
0.0
 11
571.8226203041383
 21
639.0789769287598
 31
0.0
  0
TEXT
  5
FC
  8
回90-枠1
 10
523.5360011117515
 20
639.5147119862397
 30
0.0
 40
4.68
  1
F
  0
LINE
  5
FD
  8
回90-枠1
 10
478.2226203041379
 20
644.9289769287597
 30
0.0
 11
478.2226203041379
 21
639.0789769287598
 31
0.0
  0
TEXT
  5
FE
  8
回90-枠1
 10
429.9360011117521
 20
639.5147119862397
 30
0.0
 40
4.68
  1
E
  0
LINE
  5
FF
  8
回90-枠1
 10
384.6226203041386
 20
644.9289769287597
 30
0.0
 11
384.6226203041386
 21
639.0789769287598
 31
0.0
  0
TEXT
  5
100
  8
回90-枠1
 10
336.3360011117518
 20
639.5147119862397
 30
0.0
 40
4.68
  1
D
  0
LINE
  5
101
  8
回90-枠1
 10
291.0226203041382
 20
644.9289769287597
 30
0.0
 11
291.0226203041382
 21
639.0789769287598
 31
0.0
  0
TEXT
  5
102
  8
回90-枠1
 10
242.7360011117514
 20
639.5147119862397
 30
0.0
 40
4.68
  1
C
  0
LINE
  5
103
  8
回90-枠1
 10
197.4226203041387
 20
644.9289769287597
 30
0.0
 11
197.4226203041387
 21
639.0789769287598
 31
0.0
  0
TEXT
  5
104
  8
回90-枠1
 10
149.1360011117519
 20
639.5147119862397
 30
0.0
 40
4.68
  1
B
  0
LINE
  5
105
  8
回90-枠1
 10
103.8226203041383
 20
644.9289769287597
 30
0.0
 11
103.8226203041383
 21
639.0789769287598
 31
0.0
  0
TEXT
  5
106
  8
回90-枠1
 10
55.5360011117516
 20
639.5147119862397
 30
0.0
 40
4.68
  1
A
  0
TEXT
  5
107
  8
回90-枠1
 10
6.015792878419915
 20
583.8417410649153
 30
0.0
 40
4.68
  1
1
  0
LINE
  5
108
  8
回90-枠1
 10
10.22262030413799
 20
533.7789769287598
 30
0.0
 11
4.372620304138536
 21
533.7789769287598
 31
0.0
  0
TEXT
  5
109
  8
回90-枠1
 10
5.663039395556324
 20
478.5417410649151
 30
0.0
 40
4.68
  1
2
  0
LINE
  5
10A
  8
回90-枠1
 10
10.22262030413799
 20
428.4789769287598
 30
0.0
 11
4.372620304138536
 21
428.4789769287598
 31
0.0
  0
TEXT
  5
10B
  8
回90-枠1
 10
5.65662680784203
 20
373.2417410649152
 30
0.0
 40
4.68
  1
3
  0
LINE
  5
10C
  8
回90-枠1
 10
10.22262030413799
 20
323.1789769287597
 30
0.0
 11
4.372620304138536
 21
323.1789769287597
 31
0.0
  0
TEXT
  5
10D
  8
回90-枠1
 10
5.571109027346892
 20
267.9417410649152
 30
0.0
 40
4.68
  1
4
  0
LINE
  5
10E
  8
回90-枠1
 10
571.8226203041383
 20
7.278976928759618
 30
0.0
 11
571.8226203041383
 21
1.428976928759709
 31
0.0
  0
TEXT
  5
10F
  8
回90-枠1
 10
523.5360011117515
 20
1.864711986239797
 30
0.0
 40
4.68
  1
F
  0
LINE
  5
110
  8
回90-枠1
 10
478.2226203041379
 20
7.278976928759618
 30
0.0
 11
478.2226203041379
 21
1.428976928759709
 31
0.0
  0
TEXT
  5
111
  8
回90-枠1
 10
429.9360011117521
 20
1.864711986239797
 30
0.0
 40
4.68
  1
E
  0
LINE
  5
112
  8
回90-枠1
 10
384.6226203041386
 20
7.278976928759618
 30
0.0
 11
384.6226203041386
 21
1.428976928759709
 31
0.0
  0
TEXT
  5
113
  8
回90-枠1
 10
336.3360011117518
 20
1.864711986239797
 30
0.0
 40
4.68
  1
D
  0
LINE
  5
114
  8
回90-枠1
 10
291.0226203041382
 20
7.278976928759618
 30
0.0
 11
291.0226203041382
 21
1.428976928759709
 31
0.0
  0
TEXT
  5
115
  8
回90-枠1
 10
242.7360011117514
 20
1.864711986239797
 30
0.0
 40
4.68
  1
C
  0
LINE
  5
116
  8
回90-枠1
 10
197.4226203041387
 20
7.278976928759618
 30
0.0
 11
197.4226203041387
 21
1.428976928759709
 31
0.0
  0
TEXT
  5
117
  8
回90-枠1
 10
149.1360011117519
 20
1.864711986239797
 30
0.0
 40
4.68
  1
B
  0
LINE
  5
118
  8
回90-枠1
 10
10.22262030413799
 20
217.8789769287598
 30
0.0
 11
4.372620304138536
 21
217.8789769287598
 31
0.0
  0
TEXT
  5
119
  8
回90-枠1
 10
5.571109027346892
 20
162.641741064915
 30
0.0
 40
4.68
  1
5
  0
LINE
  5
11A
  8
回90-枠1
 10
10.22262030413799
 20
112.5789769287598
 30
0.0
 11
4.372620304138536
 21
112.5789769287598
 31
0.0
  0
LINE
  5
11B
  8
回90-枠1
 10
103.8226203041383
 20
7.278976928759618
 30
0.0
 11
103.8226203041383
 21
1.428976928759709
 31
0.0
  0
TEXT
  5
11C
  8
回90-枠1
 10
55.5360011117516
 20
1.864711986239797
 30
0.0
 40
4.68
  1
A
  0
TEXT
  5
11D
  8
回90-枠1
 10
5.571109027346892
 20
57.34174106491508
 30
0.0
 40
4.68
  1
6
  0
LINE
  5
11E
  8
回90-枠1
 10
10.22262030413799
 20
639.0789769287598
 30
0.0
 11
10.22262030413799
 21
7.278976928759618
 31
0.0
  0
LINE
  5
11F
  8
回90-枠1
 10
4.372620304138536
 20
1.428976928759709
 30
0.0
 11
4.372620304138536
 21
644.9289769287597
 31
0.0
  0
LINE
  5
120
  8
回90-枠1
 10
10.22262030413799
 20
7.278976928759618
 30
0.0
 11
946.222620304138
 21
7.278976928759618
 31
0.0
  0
LINE
  5
121
  8
回90-枠1
 10
952.0726203041384
 20
1.428976928759709
 30
0.0
 11
4.372620304138536
 21
1.428976928759709
 31
0.0
  0
LINE
  5
122
  8
回90-枠1
 10
10.22262030413799
 20
639.0789769287598
 30
0.0
 11
946.222620304138
 21
639.0789769287598
 31
0.0
  0
LINE
  5
123
  8
回90-枠1
 10
952.0726203041384
 20
644.9289769287597
 30
0.0
 11
4.372620304138536
 21
644.9289769287597
 31
0.0
  0
TEXT
  5
124
  8
0
  6
CONTINUOUS
 62
     5
 10
668.6908252359432
 20
566.6139011099685
 30
0.0
 40
6.0
  1
(Insulation area)
  0
TEXT
  5
125
  8
回08-記事
  6
CONTINUOUS
 62
     7
 10
635.9078779004619
 20
362.7413666560555
 30
0.0
 40
8.0
  1
XR
  0
TEXT
  5
129
  8
回08-記事
  6
CONTINUOUS
 62
     7
 10
396.8615733354279
 20
478.6396252481908
 30
0.0
 40
8.0
  1
YU
  0
TEXT
  5
12A
  8
回08-記事
  6
CONTINUOUS
 62
     7
 10
399.4823971931499
 20
229.1320215069867
 30
0.0
 40
8.0
  1
YD
  0
TEXT
  5
12B
  8
回08-記事
  6
CONTINUOUS
 62
     7
 10
183.6637789606436
 20
366.3875248890303
 30
0.0
 40
8.0
  1
XL
  0
INSERT
  5
12C
  8
回08-記事
  6
CONTINUOUS
 62
     7
 66
     1
  2
*X80
 10
0.0
 20
0.0
 30
0.0
1001
ACAD
1000
HATCH
1002
{
1070
    19
1000
ANSI31
1040
0.5
1040
6.283185307179586
1000
ASC_BOUNDS
1070
     1
1070
     2
1070
     1
1005
12D
1000
ASC_SEEDPOINT
1011
411.8413434970896
1021
141.6933635675186
1031
0.0
1000
R14_HATCH_DATA
1000
12C
1011
1.0
1021
0.0
1031
0.0
1011
0.0
1021
1.0
1031
0.0
1011
0.0
1021
0.0
1031
1.0
1040
0.0
1010
0.0
1020
0.0
1030
1.0
1000
ANSI31
1070
     0
1070
     1
1071
        1
1071
        1
1071
        4
1070
     1
1040
158.5365364552006
1040
357.4430316486886
1040
158.5365364552006
1040
351.4430316486886
1070
     1
1040
158.5365364552006
1040
351.4430316486886
1040
166.7365364552004
1040
351.4430316486886
1070
     1
1040
166.7365364552004
1040
351.4430316486886
1040
166.7365364552004
1040
357.4430316486886
1070
     1
1040
166.7365364552004
1040
357.4430316486886
1040
158.5365364552006
1040
357.4430316486886
1071
        1
1005
12D
1070
     0
1070
     1
1040
6.283185307179586
1040
0.5
1070
     0
1070
     1
1040
0.7853981633974481
1040
411.8413434970896
1040
141.6933635675186
1040
-1.122532015133643
1040
1.122532015133644
1070
     0
1071
        1
1040
411.8413434970896
1040
141.6933635675186
1040
0.0
1002
}
  0
SEQEND
  5
6C2
  8
回04-下接
  6
CONTINUOUS
 62
     1
  0
POLYLINE
  5
12D
  8
回08-記事
  6
CONTINUOUS
 62
     7
 66
     1
 10
0.0
 20
0.0
 30
0.0
 70
     1
1001
ACAD
1000
ASC_BOUNDS
1002
{
1070
    19
1005
12C
1002
}
  0
VERTEX
  5
6C3
  8
回08-記事
  6
CONTINUOUS
 62
     7
 10
166.7365364552004
 20
357.4430316486886
 30
0.0
  0
VERTEX
  5
6C5
  8
回08-記事
  6
CONTINUOUS
 62
     7
 10
158.5365364552006
 20
357.4430316486886
 30
0.0
  0
VERTEX
  5
6C6
  8
回08-記事
  6
CONTINUOUS
 62
     7
 10
158.5365364552006
 20
351.4430316486886
 30
0.0
  0
VERTEX
  5
6C7
  8
回08-記事
  6
CONTINUOUS
 62
     7
 10
166.7365364552004
 20
351.4430316486886
 30
0.0
  0
SEQEND
  5
6C4
  8
回04-下接
  6
CONTINUOUS
 62
     1
  0
ARC
  5
12E
  8
回08-記事
  6
CONTINUOUS
 62
     7
 10
179.7553603517197
 20
170.8698219834122
 30
0.0
 40
1.0
 50
0.0
 51
180.0
  0
ARC
  5
12F
  8
回08-記事
  6
CONTINUOUS
 62
     7
 10
209.7553603517197
 20
170.8698219834122
 30
0.0
 40
1.0
 50
0.0
 51
180.0
  0
ARC
  5
130
  8
回08-記事
  6
CONTINUOUS
 62
     7
 10
219.7553603517197
 20
170.8698219834122
 30
0.0
 40
1.0
 50
0.0
 51
180.0
  0
ARC
  5
131
  8
回08-記事
  6
CONTINUOUS
 62
     7
 10
189.7553603517197
 20
170.8698219834122
 30
0.0
 40
1.0
 50
0.0
 51
180.0
  0
ARC
  5
132
  8
回08-記事
  6
CONTINUOUS
 62
     7
 10
199.7553603517197
 20
170.8698219834122
 30
0.0
 40
1.0
 50
0.0
 51
180.0
  0
ARC
  5
133
  8
回08-記事
  6
CONTINUOUS
 62
     7
 10
249.6365364551991
 20
170.8698219834122
 30
0.0
 40
1.0
 50
0.0
 51
180.0
  0
ARC
  5
134
  8
回08-記事
  6
CONTINUOUS
 62
     7
 10
259.6365364551991
 20
170.8698219834122
 30
0.0
 40
1.0
 50
0.0
 51
180.0
  0
ARC
  5
135
  8
回08-記事
  6
CONTINUOUS
 62
     7
 10
229.6365364551991
 20
170.8698219834122
 30
0.0
 40
1.0
 50
0.0
 51
180.0
  0
ARC
  5
136
  8
回08-記事
  6
CONTINUOUS
 62
     7
 10
239.6365364551991
 20
170.8698219834122
 30
0.0
 40
1.0
 50
0.0
 51
180.0
  0
ARC
  5
137
  8
回08-記事
  6
CONTINUOUS
 62
     7
 10
289.7553603517197
 20
170.8698219834122
 30
0.0
 40
1.0
 50
0.0
 51
180.0
  0
ARC
  5
138
  8
回08-記事
  6
CONTINUOUS
 62
     7
 10
299.7553603517197
 20
170.8698219834122
 30
0.0
 40
1.0
 50
0.0
 51
180.0
  0
ARC
  5
139
  8
回08-記事
  6
CONTINUOUS
 62
     7
 10
269.7553603517197
 20
170.8698219834122
 30
0.0
 40
1.0
 50
0.0
 51
180.0
  0
ARC
  5
13A
  8
回08-記事
  6
CONTINUOUS
 62
     7
 10
279.7553603517197
 20
170.8698219834122
 30
0.0
 40
1.0
 50
0.0
 51
180.0
  0
ARC
  5
13B
  8
回08-記事
  6
CONTINUOUS
 62
     7
 10
329.6365364551991
 20
170.8698219834122
 30
0.0
 40
1.0
 50
0.0
 51
180.0
  0
ARC
  5
13C
  8
回08-記事
  6
CONTINUOUS
 62
     7
 10
339.6365364551991
 20
170.8698219834122
 30
0.0
 40
1.0
 50
0.0
 51
180.0
  0
ARC
  5
13D
  8
回08-記事
  6
CONTINUOUS
 62
     7
 10
309.6365364551991
 20
170.8698219834122
 30
0.0
 40
1.0
 50
0.0
 51
180.0
  0
ARC
  5
13E
  8
回08-記事
  6
CONTINUOUS
 62
     7
 10
319.6365364551991
 20
170.8698219834122
 30
0.0
 40
1.0
 50
0.0
 51
180.0
  0
DIMENSION
  5
13F
  8
回07-寸法
  6
CONTINUOUS
 62
     7
  2
*D43
 10
82.63649294443325
 20
401.5841353790528
 30
0.0
 11
122.6365146998166
 21
401.5841353790528
 31
0.0
 70
   160
  3
DMC
 13
162.6365364552
 23
367.3701561928803
 33
0.0
 14
82.63649294443325
 24
361.3180316486893
 34
0.0
1001
ACAD
1000
DSTYLE
1002
{
1070
   147
1040
0.5
1070
    72
1070
     0
1070
    71
1070
     1
1070
    41
1040
5.0
1070
    47
1040
1.0
1070
    48
1040
1.0
1070
   140
1040
8.0
1070
   141
1040
1.5
1070
   271
1070
     3
1070
   272
1070
     3
1070
   371
1070
    13
1070
   372
1070
    13
1002
}
  0
TEXT
  5
152
  8
回07-寸法
  6
CONTINUOUS
 62
     5
 10
135.7318368544581
 20
369.0878226728211
 30
0.0
 40
5.0
  1
4-R1
1001
ACAD
1000
MTEXTBEGIN
1070
    73
1070
     1
1070
    44
1040
1.0
1070
    74
1070
     0
1000
MTEXTEND
  0
INSERT
  5
153
  8
回07-寸法
  6
CONTINUOUS
 62
     7
 66
     1
  2
*X81
 10
0.0
 20
0.0
 30
0.0
  0
SEQEND
  5
6CE
  8
回04-下接
  6
CONTINUOUS
 62
     1
  0
DIMENSION
  5
155
  8
回07-寸法
  6
CONTINUOUS
 62
     3
  2
*D44
 10
158.0360339426377
 20
337.8885650739548
 30
0.0
 11
136.7360339426375
 21
337.8885650739548
 31
0.0
 70
   160
  3
DMC
 13
162.6365364552
 23
350.0159073042216
 33
0.0
 14
158.0360339426377
 24
350.7821855679926
 34
0.0
1001
ACAD
1000
DSTYLE
1002
{
1070
    41
1040
5.0
1070
    47
1040
0.2
1070
    48
1040
0.2
1070
   140
1040
8.0
1070
   141
1040
1.5
1070
   271
1070
     1
1070
   272
1070
     3
1070
   371
1070
    13
1070
   372
1070
    13
1002
}
  0
TEXT
  5
167
  8
回07-寸法
  6
CONTINUOUS
 62
     5
 10
141.0539729945673
 20
376.2327894866329
 30
0.0
 40
5.0
  1
2-R2
1001
ACAD
1000
MTEXTBEGIN
1070
    73
1070
     1
1070
    44
1040
1.0
1070
    74
1070
     0
1000
MTEXTEND
  0
INSERT
  5
168
  8
回07-寸法
  6
CONTINUOUS
 62
     7
 66
     1
  2
*X82
 10
0.0
 20
0.0
 30
0.0
  0
SEQEND
  5
6D5
  8
回04-下接
  6
CONTINUOUS
 62
     1
  0
DIMENSION
  5
169
  8
回07-寸法
 62
     5
  2
*D45
 10
72.19344789626188
 20
355.5680316486889
 30
0.0
 11
72.19344789626188
 21
388.0255670817605
 31
0.0
 70
   160
  1
<>
  3
DMC
 13
83.13649294443326
 23
361.8180316486889
 33
0.0
 14
83.13649294443326
 24
355.5680316486889
 34
0.0
 50
90.0
1001
ACAD
1000
DSTYLE
1002
{
1070
   147
1040
0.5
1070
    72
1070
     0
1070
    71
1070
     1
1070
    41
1040
5.0
1070
    47
1040
0.2
1070
    48
1040
0.2
1070
   140
1040
8.0
1070
   141
1040
1.5
1070
   271
1070
     3
1070
   272
1070
     3
1070
   371
1070
    13
1070
   372
1070
    13
1002
}
  0
DIMENSION
  5
17B
  8
回07-寸法
  6
CONTINUOUS
 62
     5
  2
*D46
 10
153.1406053351727
 20
323.8811712657707
 30
0.0
 11
136.7092344852742
 21
323.8811712657707
 31
0.0
 70
   160
  3
DMC
 13
162.6365364552
 23
350.0159073042214
 33
0.0
 14
153.1406053351727
 24
355.4748421924805
 34
0.0
1001
ACAD
1000
DSTYLE
1002
{
1070
    41
1040
5.0
1070
    47
1040
0.2
1070
    48
1040
0.2
1070
   140
1040
8.0
1070
   141
1040
1.5
1070
   271
1070
     1
1070
   272
1070
     3
1070
   371
1070
    13
1070
   372
1070
    13
1002
}
  0
DIMENSION
  5
18C
  8
回07-寸法
  6
CONTINUOUS
 62
     5
  2
*D47
 10
122.0465794335075
 20
366.691828614417
 30
0.0
 11
122.0465794335075
 21
328.0490329191888
 31
0.0
 70
   160
  3
DMC
 13
158.448780132541
 23
350.6930316486889
 33
0.0
 14
158.4446065468344
 24
366.691828614417
 34
0.0
 50
90.0
1001
ACAD
1000
DSTYLE
1002
{
1070
    41
1040
5.0
1070
    47
1040
0.2
1070
    48
1040
0.2
1070
   140
1040
8.0
1070
   141
1040
1.5
1070
   271
1070
     1
1070
   272
1070
     3
1070
   371
1070
    13
1070
   372
1070
    13
1002
}
  0
DIMENSION
  5
19D
  8
回07-寸法
  6
CONTINUOUS
 62
     5
  2
*D48
 10
72.19344789626188
 20
355.5680316486889
 30
0.0
 11
72.19344789626188
 21
294.1305316486889
 31
0.0
 70
   160
  1
(<>)
  3
DMC
 13
163.6365364552
 23
212.0930316486892
 33
0.0
 14
83.13649294443326
 24
355.5680316486889
 34
0.0
 50
90.0
1001
ACAD
1000
DSTYLE
1002
{
1070
    41
1040
5.0
1070
    47
1040
0.2
1070
    48
1040
0.2
1070
   140
1040
8.0
1070
   141
1040
1.5
1070
   271
1070
     2
1070
   272
1070
     3
1070
   371
1070
    13
1070
   372
1070
    13
1002
}
  0
TEXT
  5
1AC
  8
回08-記事
  6
CONTINUOUS
 62
     7
 10
82.14241395199838
 20
356.0304314705119
 30
0.0
 40
3.0
  1
1
 50
90.0
  0
TEXT
  5
1AD
  8
回08-記事
  6
CONTINUOUS
 62
     7
 10
82.11952099620953
 20
359.4825408407098
 30
0.0
 40
3.0
  1
4
 50
90.0
  0
DIMENSION
  5
1AE
  8
回07-寸法
  6
CONTINUOUS
 62
     5
  2
*D49
 10
727.6365364552
 20
212.0930316486892
 30
0.0
 11
727.6365364552
 21
187.8273462237402
 31
0.0
 70
   160
  3
DMC
 13
654.6365364552
 23
222.5480316486887
 33
0.0
 14
662.6365364552
 24
212.0930316486892
 34
0.0
 50
90.0
1001
ACAD
1000
DSTYLE
1002
{
1070
    41
1040
5.0
1070
    47
1040
0.2
1070
    48
1040
0.2
1070
   140
1040
8.0
1070
   141
1040
1.5
1070
   271
1070
     3
1070
   272
1070
     3
1070
   371
1070
    13
1070
   372
1070
    13
1002
}
  0
DIMENSION
  5
1BF
  8
回07-寸法
  6
CONTINUOUS
 62
     5
  2
*D50
 10
712.6365364552
 20
212.0930316486892
 30
0.0
 11
712.6365364552
 21
187.8273462237402
 31
0.0
 70
   160
  3
DMC
 13
652.6365364552
 23
224.5480316486887
 33
0.0
 14
662.6365364552
 24
212.0930316486892
 34
0.0
 50
90.0
1001
ACAD
1000
DSTYLE
1002
{
1070
    41
1040
5.0
1070
    47
1040
0.2
1070
    48
1040
0.2
1070
   140
1040
8.0
1070
   141
1040
1.5
1070
   271
1070
     3
1070
   272
1070
     3
1070
   371
1070
    13
1070
   372
1070
    13
1002
}
  0
DIMENSION
  5
1D0
  8
回07-寸法
  6
CONTINUOUS
 62
     5
  2
*D51
 10
727.6365364552
 20
505.2980620909942
 30
0.0
 11
727.6365364552
 21
532.5898820423897
 31
0.0
 70
   160
  1
(<>)
  3
DMC
 13
654.6365364552
 23
494.8380316486886
 33
0.0
 14
662.6365364552
 24
505.2980620909942
 34
0.0
 50
90.0
1001
ACAD
1000
DSTYLE
1002
{
1070
    41
1040
5.0
1070
    47
1040
0.2
1070
    48
1040
0.2
1070
   140
1040
8.0
1070
   141
1040
1.5
1070
   271
1070
     3
1070
   272
1070
     3
1070
   371
1070
    13
1070
   372
1070
    13
1002
}
  0
DIMENSION
  5
1E1
  8
回07-寸法
  6
CONTINUOUS
 62
     5
  2
*D52
 10
712.6365364552
 20
505.2980620909942
 30
0.0
 11
712.6365364552
 21
532.5898820423897
 31
0.0
 70
   160
  1
(<>)
  3
DMC
 13
652.6365364552
 23
492.8380316486886
 33
0.0
 14
662.6365364552
 24
505.2980620909942
 34
0.0
 50
90.0
1001
ACAD
1000
DSTYLE
1002
{
1070
    41
1040
5.0
1070
    47
1040
0.2
1070
    48
1040
0.2
1070
   140
1040
8.0
1070
   141
1040
1.5
1070
   271
1070
     3
1070
   272
1070
     3
1070
   371
1070
    13
1070
   372
1070
    13
1002
}
  0
DIMENSION
  5
1F2
  8
回07-寸法
  6
CONTINUOUS
 62
     5
  2
*D53
 10
662.6365364552
 20
540.2930316486881
 30
0.0
 11
677.9333868489008
 21
540.2930316486881
 31
0.0
 70
   160
  1
(<>)
  3
DMC
 13
654.6365364552
 23
494.8380316486886
 33
0.0
 14
662.6365364552
 24
505.2980620909942
 34
0.0
1001
ACAD
1000
DSTYLE
1002
{
1070
    41
1040
5.0
1070
    47
1040
0.2
1070
    48
1040
0.2
1070
   140
1040
8.0
1070
   141
1040
1.5
1070
   271
1070
     3
1070
   272
1070
     3
1070
   371
1070
    13
1070
   372
1070
    13
1002
}
  0
DIMENSION
  5
203
  8
回07-寸法
  6
CONTINUOUS
 62
     5
  2
*D54
 10
662.6365364552
 20
525.2930316486881
 30
0.0
 11
679.9333868489009
 21
525.2930316486881
 31
0.0
 70
   160
  1
(<>)
  3
DMC
 13
652.6365364552
 23
492.8380316486886
 33
0.0
 14
662.6365364552
 24
505.2980620909942
 34
0.0
1001
ACAD
1000
DSTYLE
1002
{
1070
    41
1040
5.0
1070
    47
1040
0.2
1070
    48
1040
0.2
1070
   140
1040
8.0
1070
   141
1040
1.5
1070
   271
1070
     3
1070
   272
1070
     3
1070
   371
1070
    13
1070
   372
1070
    13
1002
}
  0
DIMENSION
  5
214
  8
回07-寸法
  6
CONTINUOUS
 62
     5
  2
*D55
 10
162.6365364552
 20
540.2930316486881
 30
0.0
 11
141.7365364551999
 21
540.2930316486881
 31
0.0
 70
   160
  3
DMC
 13
174.0765364551996
 23
494.8380316486886
 33
0.0
 14
162.6365364552
 24
505.2930316486888
 34
0.0
1001
ACAD
1000
DSTYLE
1002
{
1070
    41
1040
5.0
1070
    47
1040
0.2
1070
    48
1040
0.2
1070
   140
1040
8.0
1070
   141
1040
1.5
1070
   271
1070
     3
1070
   272
1070
     3
1070
   371
1070
    13
1070
   372
1070
    13
1002
}
  0
DIMENSION
  5
225
  8
回07-寸法
  6
CONTINUOUS
 62
     5
  2
*D56
 10
162.6365364552
 20
525.2930316486881
 30
0.0
 11
140.9365364552
 21
525.2930316486881
 31
0.0
 70
   160
  3
DMC
 13
176.0765364551996
 23
492.8380316486886
 33
0.0
 14
162.6365364552
 24
505.2930316486888
 34
0.0
1001
ACAD
1000
DSTYLE
1002
{
1070
    41
1040
5.0
1070
    47
1040
0.2
1070
    48
1040
0.2
1070
   140
1040
8.0
1070
   141
1040
1.5
1070
   271
1070
     3
1070
   272
1070
     3
1070
   371
1070
    13
1070
   372
1070
    13
1002
}
  0
DIMENSION
  5
236
  8
回07-寸法
  6
CONTINUOUS
 62
     8
  2
*D57
 10
742.6365364552
 20
212.0930316486892
 30
0.0
 11
742.6365364552
 21
155.9217055072046
 31
0.0
 70
   160
  1
<>{\H0.8333x; (Insulation area)}
  3
DMC
 13
655.6365364552
 23
221.2480316486887
 33
0.0
 14
662.6365364552
 24
212.0930316486892
 34
0.0
 50
90.0
1001
ACAD
1000
DSTYLE
1002
{
1070
    41
1040
5.0
1070
    47
1040
0.2
1070
    48
1040
0.2
1070
   140
1040
8.0
1070
   141
1040
1.5
1070
   271
1070
     3
1070
   272
1070
     3
1070
   371
1070
    13
1070
   372
1070
    13
1002
}
  0
DIMENSION
  5
248
  8
回07-寸法
  6
CONTINUOUS
 62
     8
  2
*D58
 10
742.6365364551968
 20
505.2980620909942
 30
0.0
 11
737.7365364551967
 21
561.716569478488
 31
0.0
 70
    32
  1
(<>){\H0.8333x; (Insulation area)}
  3
DMC
 13
655.6365364552
 23
496.1380316486885
 33
0.0
 14
662.6365364552
 24
505.2980620909942
 34
0.0
 50
90.0
1001
ACAD
1000
DSTYLE
1002
{
1070
    41
1040
5.0
1070
    47
1040
0.2
1070
    48
1040
0.2
1070
   140
1040
8.0
1070
   141
1040
1.5
1070
   272
1070
     3
1070
   371
1070
    13
1070
   372
1070
    13
1002
}
  0
DIMENSION
  5
259
  8
回07-寸法
  6
CONTINUOUS
 62
     8
  2
*D59
 10
742.6365364552
 20
221.2480316486887
 30
0.0
 11
742.6365364552
 21
358.6930316486882
 31
0.0
 70
   160
  3
DMC
 13
655.6365364552
 23
496.1380316486885
 33
0.0
 14
655.6365364552
 24
221.2480316486887
 34
0.0
 50
90.0
1001
ACAD
1000
DSTYLE
1002
{
1070
    41
1040
5.0
1070
    47
1040
0.2
1070
    48
1040
0.2
1070
   140
1040
8.0
1070
   141
1040
1.5
1070
   271
1070
     3
1070
   272
1070
     3
1070
   371
1070
    13
1070
   372
1070
    13
1002
}
  0
DIMENSION
  5
268
  8
回07-寸法
  6
CONTINUOUS
 62
     8
  2
*D60
 10
162.6365364552
 20
555.2930316486881
 30
0.0
 11
105.4308157386646
 21
559.9596916486881
 31
0.0
 70
    32
  1
<> {\H0.8333x;(Insulation area)}
  3
DMC
 13
173.0765364551996
 23
496.1380316486885
 33
0.0
 14
162.6365364552
 24
505.2930316486888
 34
0.0
1001
ACAD
1000
DSTYLE
1002
{
1070
    41
1040
5.0
1070
    47
1040
0.2
1070
    48
1040
0.2
1070
   140
1040
8.0
1070
   141
1040
1.5
1070
   271
1070
     3
1070
   272
1070
     3
1070
   371
1070
    13
1070
   372
1070
    13
1002
}
  0
DIMENSION
  5
279
  8
回07-寸法
  6
CONTINUOUS
 62
     8
  2
*D61
 10
662.6365364552
 20
555.2930316486881
 30
0.0
 11
677.9333868489008
 21
560.1930316486881
 31
0.0
 70
    32
  1
(<>)
  3
DMC
 13
655.6365364552
 23
496.1380316486885
 33
0.0
 14
662.6365364552
 24
505.2980620909942
 34
0.0
1001
ACAD
1000
DSTYLE
1002
{
1070
    41
1040
5.0
1070
    47
1040
0.2
1070
    48
1040
0.2
1070
   140
1040
8.0
1070
   141
1040
1.5
1070
   271
1070
     3
1070
   272
1070
     3
1070
   371
1070
    13
1070
   372
1070
    13
1002
}
  0
DIMENSION
  5
28A
  8
回07-寸法
  6
CONTINUOUS
 62
     8
  2
*D62
 10
655.6365364552
 20
555.2930316486881
 30
0.0
 11
414.3565364552002
 21
555.2930316486881
 31
0.0
 70
   160
  3
DMC
 13
173.0765364551996
 23
496.1380316486885
 33
0.0
 14
655.6365364552
 24
496.1380316486885
 34
0.0
1001
ACAD
1000
DSTYLE
1002
{
1070
    41
1040
5.0
1070
    47
1040
0.2
1070
    48
1040
0.2
1070
   140
1040
8.0
1070
   141
1040
1.5
1070
   271
1070
     3
1070
   272
1070
     3
1070
   371
1070
    13
1070
   372
1070
    13
1002
}
  0
DIMENSION
  5
299
  8
回07-寸法
  6
CONTINUOUS
 62
     7
  2
*D63
 10
757.6365364552
 20
505.2980620909942
 30
0.0
 11
757.6365364552
 21
358.6930316486884
 31
0.0
 70
   160
  3
DMC
 13
662.6365364552
 23
212.0930316486892
 33
0.0
 14
662.6365364552
 24
505.2980620909942
 34
0.0
 50
90.0
1001
ACAD
1000
DSTYLE
1002
{
1070
    41
1040
5.0
1070
    47
1040
0.3
1070
    48
1040
0.3
1070
    71
1070
     1
1070
   140
1040
8.0
1070
   141
1040
1.5
1070
   271
1070
     3
1070
   272
1070
     3
1070
   371
1070
    13
1070
   372
1070
    13
1002
}
  0
DIMENSION
  5
2A8
  8
回07-寸法
  6
CONTINUOUS
 62
     7
  2
*D64
 10
727.6365364552
 20
222.5480316486887
 30
0.0
 11
727.6365364552
 21
358.6930316486882
 31
0.0
 70
   160
  1
<> (VIEWING AREA)
  3
DMC
 13
654.6365364552
 23
494.8380316486886
 33
0.0
 14
654.6365364552
 24
222.5480316486887
 34
0.0
 50
90.0
1001
ACAD
1000
DSTYLE
1002
{
1070
    41
1040
5.0
1070
    47
1040
0.2
1070
    48
1040
0.2
1070
   140
1040
8.0
1070
   141
1040
1.5
1070
   271
1070
     3
1070
   272
1070
     3
1070
   371
1070
    13
1070
   372
1070
    13
1002
}
  0
DIMENSION
  5
2B7
  8
回07-寸法
  6
CONTINUOUS
 62
     7
  2
*D65
 10
712.6365364552
 20
492.8380316486886
 30
0.0
 11
712.6365364552
 21
358.6930316486887
 31
0.0
 70
   160
  1
<> (ACTIVE AREA)
  3
DMC
 13
652.6365364552
 23
224.5480316486887
 33
0.0
 14
652.6365364552
 24
492.8380316486886
 34
0.0
 50
90.0
1001
ACAD
1000
DSTYLE
1002
{
1070
    41
1040
5.0
1070
    47
1040
0.2
1070
    48
1040
0.2
1070
   140
1040
8.0
1070
   141
1040
1.5
1070
   271
1070
     3
1070
   272
1070
     3
1070
   371
1070
    13
1070
   372
1070
    13
1002
}
  0
DIMENSION
  5
2C6
  8
回07-寸法
  6
CONTINUOUS
 62
     7
  2
*D66
 10
662.6365364552
 20
570.2930316486881
 30
0.0
 11
414.3565364552002
 21
570.2930316486881
 31
0.0
 70
   160
  3
DMC
 13
162.6365364552
 23
505.2930316486888
 33
0.0
 14
662.6365364552
 24
505.2980620909942
 34
0.0
1001
ACAD
1000
DSTYLE
1002
{
1070
   147
1040
0.5
1070
    72
1070
     0
1070
    71
1070
     1
1070
    41
1040
5.0
1070
    47
1040
0.3
1070
    48
1040
0.3
1070
   140
1040
8.0
1070
   141
1040
1.5
1070
   271
1070
     3
1070
   272
1070
     3
1070
   371
1070
    13
1070
   372
1070
    13
1002
}
  0
DIMENSION
  5
2D5
  8
回07-寸法
  6
CONTINUOUS
 62
     7
  2
*D67
 10
654.6365364552
 20
540.2930316486881
 30
0.0
 11
414.3565364552002
 21
540.2930316486881
 31
0.0
 70
   160
  1
<> (VIEWING AREA)
  3
DMC
 13
174.0765364551996
 23
494.8380316486886
 33
0.0
 14
654.6365364552
 24
494.8380316486886
 34
0.0
1001
ACAD
1000
DSTYLE
1002
{
1070
    41
1040
5.0
1070
    47
1040
0.2
1070
    48
1040
0.2
1070
   140
1040
8.0
1070
   141
1040
1.5
1070
   271
1070
     3
1070
   272
1070
     3
1070
   371
1070
    13
1070
   372
1070
    13
1002
}
  0
DIMENSION
  5
2E4
  8
回07-寸法
  6
CONTINUOUS
 62
     7
  2
*D68
 10
652.6365364552
 20
525.2930316486881
 30
0.0
 11
414.3565364552002
 21
525.2930316486881
 31
0.0
 70
   160
  1
<> (ACTIVE AREA)
  3
DMC
 13
176.0765364551996
 23
492.8380316486886
 33
0.0
 14
652.6365364552
 24
492.8380316486886
 34
0.0
1001
ACAD
1000
DSTYLE
1002
{
1070
    41
1040
5.0
1070
    47
1040
0.2
1070
    48
1040
0.2
1070
   140
1040
8.0
1070
   141
1040
1.5
1070
   271
1070
     3
1070
   272
1070
     3
1070
   371
1070
    13
1070
   372
1070
    13
1002
}
  0
POLYLINE
  5
2F3
  8
版07-GR
  6
PHANTOM2
 62
     7
 66
     1
 10
0.0
 20
0.0
 30
0.0
 70
     1
  0
VERTEX
  5
6D6
  8
版07-GR
  6
PHANTOM2
 62
     7
 10
655.6365364552
 20
496.1380316486885
 30
0.0
  0
VERTEX
  5
6D8
  8
版07-GR
  6
PHANTOM2
 62
     7
 10
173.0765364551996
 20
496.1380316486885
 30
0.0
  0
VERTEX
  5
6D9
  8
版07-GR
  6
PHANTOM2
 62
     7
 10
173.0765364551996
 20
221.2480316486887
 30
0.0
  0
VERTEX
  5
6DA
  8
版07-GR
  6
PHANTOM2
 62
     7
 10
655.6365364552
 20
221.2480316486887
 30
0.0
  0
SEQEND
  5
6D7
  8
回04-下接
  6
CONTINUOUS
 62
     1
  0
TEXT
  5
2F7
  8
回07-寸法
  6
CONTINUOUS
 62
     5
 10
456.3705409400069
 20
343.983351289271
 30
0.0
 40
5.0
  1
φ0.05
1001
ACAD
1000
MTEXTBEGIN
1070
    73
1070
     1
1070
    44
1040
1.0
1070
    74
1070
     0
1000
MTEXTEND
  0
CIRCLE
  5
2F8
  8
回08-記事
  6
CONTINUOUS
 62
     7
 10
442.3565364552002
 20
322.6930316486886
 30
0.0
 40
0.025
  0
CIRCLE
  5
2F9
  8
回08-記事
  6
CONTINUOUS
 62
     7
 10
438.3565364552002
 20
322.6930316486886
 30
0.0
 40
0.025
  0
CIRCLE
  5
2FA
  8
回08-記事
  6
CONTINUOUS
 62
     7
 10
434.3565364552002
 20
322.6930316486886
 30
0.0
 40
0.025
  0
CIRCLE
  5
2FB
  8
回08-記事
  6
CONTINUOUS
 62
     7
 10
430.3565364552002
 20
322.6930316486886
 30
0.0
 40
0.025
  0
CIRCLE
  5
2FC
  8
回08-記事
  6
CONTINUOUS
 62
     7
 10
442.3565364552002
 20
326.6930316486886
 30
0.0
 40
0.025
  0
CIRCLE
  5
2FD
  8
回08-記事
  6
CONTINUOUS
 62
     7
 10
442.3565364552002
 20
330.6930316486886
 30
0.0
 40
0.025
  0
CIRCLE
  5
2FE
  8
回08-記事
  6
CONTINUOUS
 62
     7
 10
442.3565364552002
 20
334.6930316486886
 30
0.0
 40
0.025
  0
CIRCLE
  5
2FF
  8
回08-記事
  6
CONTINUOUS
 62
     7
 10
442.3565364552002
 20
338.6930316486886
 30
0.0
 40
0.025
  0
CIRCLE
  5
300
  8
回08-記事
  6
CONTINUOUS
 62
     7
 10
442.3565364552002
 20
342.6930316486886
 30
0.0
 40
0.025
  0
CIRCLE
  5
301
  8
回08-記事
  6
CONTINUOUS
 62
     7
 10
442.3565364552002
 20
346.6930316486886
 30
0.0
 40
0.025
  0
CIRCLE
  5
302
  8
回08-記事
  6
CONTINUOUS
 62
     7
 10
438.3565364552002
 20
326.6930316486886
 30
0.0
 40
0.025
  0
CIRCLE
  5
303
  8
回08-記事
  6
CONTINUOUS
 62
     7
 10
438.3565364552002
 20
330.6930316486886
 30
0.0
 40
0.025
  0
CIRCLE
  5
304
  8
回08-記事
  6
CONTINUOUS
 62
     7
 10
438.3565364552002
 20
334.6930316486886
 30
0.0
 40
0.025
  0
CIRCLE
  5
305
  8
回08-記事
  6
CONTINUOUS
 62
     7
 10
438.3565364552002
 20
338.6930316486886
 30
0.0
 40
0.025
  0
CIRCLE
  5
306
  8
回08-記事
  6
CONTINUOUS
 62
     7
 10
438.3565364552002
 20
342.6930316486886
 30
0.0
 40
0.025
  0
CIRCLE
  5
307
  8
回08-記事
  6
CONTINUOUS
 62
     7
 10
438.3565364552002
 20
346.6930316486886
 30
0.0
 40
0.025
  0
CIRCLE
  5
308
  8
回08-記事
  6
CONTINUOUS
 62
     7
 10
434.3565364552002
 20
326.6930316486886
 30
0.0
 40
0.025
  0
CIRCLE
  5
309
  8
回08-記事
  6
CONTINUOUS
 62
     7
 10
434.3565364552002
 20
330.6930316486886
 30
0.0
 40
0.025
  0
CIRCLE
  5
30A
  8
回08-記事
  6
CONTINUOUS
 62
     7
 10
434.3565364552002
 20
334.6930316486886
 30
0.0
 40
0.025
  0
CIRCLE
  5
30B
  8
回08-記事
  6
CONTINUOUS
 62
     7
 10
434.3565364552002
 20
338.6930316486886
 30
0.0
 40
0.025
  0
CIRCLE
  5
30C
  8
回08-記事
  6
CONTINUOUS
 62
     7
 10
434.3565364552002
 20
342.6930316486886
 30
0.0
 40
0.025
  0
CIRCLE
  5
30D
  8
回08-記事
  6
CONTINUOUS
 62
     7
 10
434.3565364552002
 20
346.6930316486886
 30
0.0
 40
0.025
  0
CIRCLE
  5
30E
  8
回08-記事
  6
CONTINUOUS
 62
     7
 10
430.3565364552002
 20
326.6930316486886
 30
0.0
 40
0.025
  0
CIRCLE
  5
30F
  8
回08-記事
  6
CONTINUOUS
 62
     7
 10
430.3565364552002
 20
330.6930316486886
 30
0.0
 40
0.025
  0
CIRCLE
  5
310
  8
回08-記事
  6
CONTINUOUS
 62
     7
 10
430.3565364552002
 20
334.6930316486886
 30
0.0
 40
0.025
  0
CIRCLE
  5
311
  8
回08-記事
  6
CONTINUOUS
 62
     7
 10
430.3565364552002
 20
338.6930316486886
 30
0.0
 40
0.025
  0
CIRCLE
  5
312
  8
回08-記事
  6
CONTINUOUS
 62
     7
 10
430.3565364552002
 20
342.6930316486886
 30
0.0
 40
0.025
  0
CIRCLE
  5
313
  8
回08-記事
  6
CONTINUOUS
 62
     7
 10
430.3565364552002
 20
346.6930316486886
 30
0.0
 40
0.025
  0
CIRCLE
  5
314
  8
回08-記事
  6
CONTINUOUS
 62
     7
 10
450.3565364552002
 20
322.6930316486886
 30
0.0
 40
0.025
  0
CIRCLE
  5
315
  8
回08-記事
  6
CONTINUOUS
 62
     7
 10
446.3565364552002
 20
322.6930316486886
 30
0.0
 40
0.025
  0
CIRCLE
  5
316
  8
回08-記事
  6
CONTINUOUS
 62
     7
 10
450.3565364552002
 20
326.6930316486886
 30
0.0
 40
0.025
  0
CIRCLE
  5
317
  8
回08-記事
  6
CONTINUOUS
 62
     7
 10
450.3565364552002
 20
330.6930316486886
 30
0.0
 40
0.025
  0
CIRCLE
  5
318
  8
回08-記事
  6
CONTINUOUS
 62
     7
 10
450.3565364552002
 20
334.6930316486886
 30
0.0
 40
0.025
  0
CIRCLE
  5
319
  8
回08-記事
  6
CONTINUOUS
 62
     7
 10
450.3565364552002
 20
338.6930316486886
 30
0.0
 40
0.025
  0
CIRCLE
  5
31A
  8
回08-記事
  6
CONTINUOUS
 62
     7
 10
450.3565364552002
 20
342.6930316486886
 30
0.0
 40
0.025
  0
CIRCLE
  5
31B
  8
回08-記事
  6
CONTINUOUS
 62
     7
 10
450.3565364552002
 20
346.6930316486886
 30
0.0
 40
0.025
  0
CIRCLE
  5
31C
  8
回08-記事
  6
CONTINUOUS
 62
     7
 10
446.3565364552002
 20
326.6930316486886
 30
0.0
 40
0.025
  0
CIRCLE
  5
31D
  8
回08-記事
  6
CONTINUOUS
 62
     7
 10
446.3565364552002
 20
330.6930316486886
 30
0.0
 40
0.025
  0
CIRCLE
  5
31E
  8
回08-記事
  6
CONTINUOUS
 62
     7
 10
446.3565364552002
 20
334.6930316486886
 30
0.0
 40
0.025
  0
CIRCLE
  5
31F
  8
回08-記事
  6
CONTINUOUS
 62
     7
 10
446.3565364552002
 20
338.6930316486886
 30
0.0
 40
0.025
  0
CIRCLE
  5
320
  8
回08-記事
  6
CONTINUOUS
 62
     7
 10
446.3565364552002
 20
342.6930316486886
 30
0.0
 40
0.025
  0
CIRCLE
  5
321
  8
回08-記事
  6
CONTINUOUS
 62
     7
 10
446.3565364552002
 20
346.6930316486886
 30
0.0
 40
0.025
  0
CIRCLE
  5
322
  8
回08-記事
  6
CONTINUOUS
 62
     7
 10
442.3565364552002
 20
350.6930316486887
 30
0.0
 40
0.025
  0
CIRCLE
  5
323
  8
回08-記事
  6
CONTINUOUS
 62
     7
 10
442.3565364552002
 20
354.6930316486887
 30
0.0
 40
0.025
  0
CIRCLE
  5
324
  8
回08-記事
  6
CONTINUOUS
 62
     7
 10
442.3565364552002
 20
358.6930316486887
 30
0.0
 40
0.025
  0
CIRCLE
  5
325
  8
回08-記事
  6
CONTINUOUS
 62
     7
 10
438.3565364552002
 20
350.6930316486887
 30
0.0
 40
0.025
  0
CIRCLE
  5
326
  8
回08-記事
  6
CONTINUOUS
 62
     7
 10
438.3565364552002
 20
354.6930316486887
 30
0.0
 40
0.025
  0
CIRCLE
  5
327
  8
回08-記事
  6
CONTINUOUS
 62
     7
 10
438.3565364552002
 20
358.6930316486887
 30
0.0
 40
0.025
  0
CIRCLE
  5
328
  8
回08-記事
  6
CONTINUOUS
 62
     7
 10
434.3565364552002
 20
350.6930316486887
 30
0.0
 40
0.025
  0
CIRCLE
  5
329
  8
回08-記事
  6
CONTINUOUS
 62
     7
 10
434.3565364552002
 20
354.6930316486887
 30
0.0
 40
0.025
  0
CIRCLE
  5
32A
  8
回08-記事
  6
CONTINUOUS
 62
     7
 10
434.3565364552002
 20
358.6930316486887
 30
0.0
 40
0.025
  0
CIRCLE
  5
32B
  8
回08-記事
  6
CONTINUOUS
 62
     7
 10
430.3565364552002
 20
350.6930316486887
 30
0.0
 40
0.025
  0
CIRCLE
  5
32C
  8
回08-記事
  6
CONTINUOUS
 62
     7
 10
430.3565364552002
 20
354.6930316486887
 30
0.0
 40
0.025
  0
CIRCLE
  5
32D
  8
回08-記事
  6
CONTINUOUS
 62
     7
 10
430.3565364552002
 20
358.6930316486887
 30
0.0
 40
0.025
  0
CIRCLE
  5
32E
  8
回08-記事
  6
CONTINUOUS
 62
     7
 10
450.3565364552002
 20
350.6930316486887
 30
0.0
 40
0.025
  0
CIRCLE
  5
32F
  8
回08-記事
  6
CONTINUOUS
 62
     7
 10
450.3565364552002
 20
354.6930316486887
 30
0.0
 40
0.025
  0
CIRCLE
  5
330
  8
回08-記事
  6
CONTINUOUS
 62
     7
 10
450.3565364552002
 20
358.6930316486887
 30
0.0
 40
0.025
  0
CIRCLE
  5
331
  8
回08-記事
  6
CONTINUOUS
 62
     7
 10
446.3565364552002
 20
350.6930316486887
 30
0.0
 40
0.025
  0
CIRCLE
  5
332
  8
回08-記事
  6
CONTINUOUS
 62
     7
 10
446.3565364552002
 20
354.6930316486887
 30
0.0
 40
0.025
  0
CIRCLE
  5
333
  8
回08-記事
  6
CONTINUOUS
 62
     7
 10
446.3565364552002
 20
358.6930316486887
 30
0.0
 40
0.025
  0
CIRCLE
  5
334
  8
回08-記事
  6
CONTINUOUS
 62
     7
 10
422.3565364552002
 20
322.6930316486886
 30
0.0
 40
0.025
  0
CIRCLE
  5
335
  8
回08-記事
  6
CONTINUOUS
 62
     7
 10
418.3565364552002
 20
322.6930316486886
 30
0.0
 40
0.025
  0
CIRCLE
  5
336
  8
回08-記事
  6
CONTINUOUS
 62
     7
 10
414.3565364552002
 20
322.6930316486886
 30
0.0
 40
0.025
  0
CIRCLE
  5
337
  8
回08-記事
  6
CONTINUOUS
 62
     7
 10
426.3565364552002
 20
322.6930316486886
 30
0.0
 40
0.025
  0
CIRCLE
  5
338
  8
回08-記事
  6
CONTINUOUS
 62
     7
 10
422.3565364552002
 20
326.6930316486886
 30
0.0
 40
0.025
  0
CIRCLE
  5
339
  8
回08-記事
  6
CONTINUOUS
 62
     7
 10
422.3565364552002
 20
330.6930316486886
 30
0.0
 40
0.025
  0
CIRCLE
  5
33A
  8
回08-記事
  6
CONTINUOUS
 62
     7
 10
422.3565364552002
 20
334.6930316486886
 30
0.0
 40
0.025
  0
CIRCLE
  5
33B
  8
回08-記事
  6
CONTINUOUS
 62
     7
 10
422.3565364552002
 20
338.6930316486886
 30
0.0
 40
0.025
  0
CIRCLE
  5
33C
  8
回08-記事
  6
CONTINUOUS
 62
     7
 10
422.3565364552002
 20
342.6930316486886
 30
0.0
 40
0.025
  0
CIRCLE
  5
33D
  8
回08-記事
  6
CONTINUOUS
 62
     7
 10
422.3565364552002
 20
346.6930316486886
 30
0.0
 40
0.025
  0
CIRCLE
  5
33E
  8
回08-記事
  6
CONTINUOUS
 62
     7
 10
418.3565364552002
 20
326.6930316486886
 30
0.0
 40
0.025
  0
CIRCLE
  5
33F
  8
回08-記事
  6
CONTINUOUS
 62
     7
 10
418.3565364552002
 20
330.6930316486886
 30
0.0
 40
0.025
  0
CIRCLE
  5
340
  8
回08-記事
  6
CONTINUOUS
 62
     7
 10
418.3565364552002
 20
334.6930316486886
 30
0.0
 40
0.025
  0
CIRCLE
  5
341
  8
回08-記事
  6
CONTINUOUS
 62
     7
 10
418.3565364552002
 20
338.6930316486886
 30
0.0
 40
0.025
  0
CIRCLE
  5
342
  8
回08-記事
  6
CONTINUOUS
 62
     7
 10
418.3565364552002
 20
342.6930316486886
 30
0.0
 40
0.025
  0
CIRCLE
  5
343
  8
回08-記事
  6
CONTINUOUS
 62
     7
 10
418.3565364552002
 20
346.6930316486886
 30
0.0
 40
0.025
  0
CIRCLE
  5
344
  8
回08-記事
  6
CONTINUOUS
 62
     7
 10
414.3565364552002
 20
326.6930316486886
 30
0.0
 40
0.025
  0
CIRCLE
  5
345
  8
回08-記事
  6
CONTINUOUS
 62
     7
 10
414.3565364552002
 20
330.6930316486886
 30
0.0
 40
0.025
  0
CIRCLE
  5
346
  8
回08-記事
  6
CONTINUOUS
 62
     7
 10
414.3565364552002
 20
334.6930316486886
 30
0.0
 40
0.025
  0
CIRCLE
  5
347
  8
回08-記事
  6
CONTINUOUS
 62
     7
 10
414.3565364552002
 20
338.6930316486886
 30
0.0
 40
0.025
  0
CIRCLE
  5
348
  8
回08-記事
  6
CONTINUOUS
 62
     7
 10
414.3565364552002
 20
342.6930316486886
 30
0.0
 40
0.025
  0
CIRCLE
  5
349
  8
回08-記事
  6
CONTINUOUS
 62
     7
 10
414.3565364552002
 20
346.6930316486886
 30
0.0
 40
0.025
  0
CIRCLE
  5
34A
  8
回08-記事
  6
CONTINUOUS
 62
     7
 10
426.3565364552002
 20
326.6930316486886
 30
0.0
 40
0.025
  0
CIRCLE
  5
34B
  8
回08-記事
  6
CONTINUOUS
 62
     7
 10
426.3565364552002
 20
330.6930316486886
 30
0.0
 40
0.025
  0
CIRCLE
  5
34C
  8
回08-記事
  6
CONTINUOUS
 62
     7
 10
426.3565364552002
 20
334.6930316486886
 30
0.0
 40
0.025
  0
CIRCLE
  5
34D
  8
回08-記事
  6
CONTINUOUS
 62
     7
 10
426.3565364552002
 20
338.6930316486886
 30
0.0
 40
0.025
  0
CIRCLE
  5
34E
  8
回08-記事
  6
CONTINUOUS
 62
     7
 10
426.3565364552002
 20
342.6930316486886
 30
0.0
 40
0.025
  0
CIRCLE
  5
34F
  8
回08-記事
  6
CONTINUOUS
 62
     7
 10
426.3565364552002
 20
346.6930316486886
 30
0.0
 40
0.025
  0
CIRCLE
  5
350
  8
回08-記事
  6
CONTINUOUS
 62
     7
 10
422.3565364552002
 20
350.6930316486887
 30
0.0
 40
0.025
  0
CIRCLE
  5
351
  8
回08-記事
  6
CONTINUOUS
 62
     7
 10
422.3565364552002
 20
354.6930316486887
 30
0.0
 40
0.025
  0
CIRCLE
  5
352
  8
回08-記事
  6
CONTINUOUS
 62
     7
 10
422.3565364552002
 20
358.6930316486887
 30
0.0
 40
0.025
  0
CIRCLE
  5
353
  8
回08-記事
  6
CONTINUOUS
 62
     7
 10
418.3565364552002
 20
350.6930316486887
 30
0.0
 40
0.025
  0
CIRCLE
  5
354
  8
回08-記事
  6
CONTINUOUS
 62
     7
 10
418.3565364552002
 20
354.6930316486887
 30
0.0
 40
0.025
  0
CIRCLE
  5
355
  8
回08-記事
  6
CONTINUOUS
 62
     7
 10
418.3565364552002
 20
358.6930316486887
 30
0.0
 40
0.025
  0
CIRCLE
  5
356
  8
回08-記事
  6
CONTINUOUS
 62
     7
 10
414.3565364552002
 20
350.6930316486887
 30
0.0
 40
0.025
  0
CIRCLE
  5
357
  8
回08-記事
  6
CONTINUOUS
 62
     7
 10
414.3565364552002
 20
354.6930316486887
 30
0.0
 40
0.025
  0
CIRCLE
  5
358
  8
回08-記事
  6
CONTINUOUS
 62
     7
 10
414.3565364552002
 20
358.6930316486887
 30
0.0
 40
0.025
  0
CIRCLE
  5
359
  8
回08-記事
  6
CONTINUOUS
 62
     7
 10
426.3565364552002
 20
350.6930316486887
 30
0.0
 40
0.025
  0
CIRCLE
  5
35A
  8
回08-記事
  6
CONTINUOUS
 62
     7
 10
426.3565364552002
 20
354.6930316486887
 30
0.0
 40
0.025
  0
CIRCLE
  5
35B
  8
回08-記事
  6
CONTINUOUS
 62
     7
 10
426.3565364552002
 20
358.6930316486887
 30
0.0
 40
0.025
  0
DIMENSION
  5
35C
  8
回07-寸法
  6
CONTINUOUS
 62
     5
  2
*D69
 10
446.3565364552002
 20
307.4811819207807
 30
0.0
 11
433.8565364552002
 21
307.4811819207807
 31
0.0
 70
   160
  3
DMC
 13
450.3565364552002
 23
322.6930316486886
 33
0.0
 14
446.3565364552002
 24
322.6930316486886
 34
0.0
1001
ACAD
1000
DSTYLE
1002
{
1070
    41
1040
5.0
1070
    47
1040
0.2
1070
    48
1040
0.2
1070
   140
1040
8.0
1070
   141
1040
1.5
1070
   271
1070
     3
1070
   272
1070
     3
1070
   371
1070
    13
1070
   372
1070
    13
1002
}
  0
DIMENSION
  5
36D
  8
回07-寸法
  6
CONTINUOUS
 62
     5
  2
*D70
 10
468.4899926021014
 20
326.6930316486886
 30
0.0
 11
468.4899926021014
 21
339.1930316486891
 31
0.0
 70
   160
  3
DMC
 13
450.3565364552002
 23
322.6930316486886
 33
0.0
 14
450.3565364552002
 24
326.6930316486886
 34
0.0
 50
90.0
1001
ACAD
1000
DSTYLE
1002
{
1070
    41
1040
5.0
1070
    47
1040
0.2
1070
    48
1040
0.2
1070
   140
1040
8.0
1070
   141
1040
1.5
1070
   271
1070
     3
1070
   272
1070
     3
1070
   371
1070
    13
1070
   372
1070
    13
1002
}
  0
INSERT
  5
37E
  8
回07-寸法
  6
CONTINUOUS
 62
     5
 66
     1
  2
*X83
 10
0.0
 20
0.0
 30
0.0
  0
SEQEND
  5
6E1
  8
回04-下接
  6
CONTINUOUS
 62
     1
  0
LINE
  5
37F
  8
回07-寸法
  6
CENTER2
 62
     7
 10
667.2254025565787
 20
358.6930316486887
 30
0.0
 11
173.0765364551996
 21
358.6930316486887
 31
0.0
  0
LINE
  5
380
  8
回07-寸法
  6
CENTER2
 62
     7
 10
414.3565364552002
 20
495.8380316486886
 30
0.0
 11
414.3565364552002
 21
221.5480316486887
 31
0.0
  0
LINE
  5
381
  8
回08-記事
  6
CONTINUOUS
 62
     7
 10
155.3345989951574
 20
170.3506388460614
 30
0.0
 11
155.0497794374039
 21
158.4032939653438
 31
0.0
  0
LINE
  5
382
  8
回08-記事
  6
CONTINUOUS
 62
     7
 10
152.8902756513559
 20
169.8698219834118
 30
0.0
 11
162.6365364552
 21
169.8698219834118
 31
0.0
  0
LINE
  5
383
  8
回08-記事
  6
CONTINUOUS
 62
     7
 10
152.8902756513559
 20
170.8698219834122
 30
0.0
 11
152.8902756513559
 21
169.8698219834118
 31
0.0
  0
DIMENSION
  5
384
  8
回07-寸法
  6
CONTINUOUS
 62
     7
  2
*D71
 10
163.1365364552
 20
184.5300484795834
 30
0.0
 11
182.4333868489008
 21
189.4300484795834
 31
0.0
 70
    32
  1
(<>)
  3
DMC
 13
162.6365364552
 23
170.8698219834122
 33
0.0
 14
163.1365364552
 24
175.9427155072462
 34
0.0
1001
ACAD
1000
DSTYLE
1002
{
1070
    41
1040
5.0
1070
    47
1040
0.2
1070
    48
1040
0.2
1070
   140
1040
8.0
1070
   141
1040
1.5
1070
   271
1070
     3
1070
   272
1070
     3
1070
   371
1070
    13
1070
   372
1070
    13
1002
}
  0
DIMENSION
  5
395
  8
回07-寸法
  6
CONTINUOUS
 62
     7
  2
*D72
 10
662.1365364551991
 20
183.4347066139343
 30
0.0
 11
642.8396860614983
 21
188.3347066139343
 31
0.0
 70
    32
  1
(<>)
  3
DMC
 13
662.6365364551991
 23
173.1099357511684
 33
0.0
 14
662.1365364551991
 24
175.9427155072462
 34
0.0
1001
ACAD
1000
DSTYLE
1002
{
1070
    41
1040
5.0
1070
    47
1040
0.2
1070
    48
1040
0.2
1070
   140
1040
8.0
1070
   141
1040
1.5
1070
   271
1070
     3
1070
   272
1070
     3
1070
   371
1070
    13
1070
   372
1070
    13
1002
}
  0
LINE
  5
3A6
  8
回08-記事
  6
CONTINUOUS
 62
     7
 10
662.1365364551991
 20
173.1099357511684
 30
0.0
 11
662.1365364551991
 21
175.9427155072462
 31
0.0
  0
LINE
  5
3A7
  8
回08-記事
  6
CONTINUOUS
 62
     7
 10
163.5471655974613
 20
165.4658215483613
 30
0.0
 11
175.2972047132532
 21
157.6414673233639
 31
0.0
  0
TEXT
  5
3A8
  8
回08-記事
  6
CONTINUOUS
 62
     7
 10
176.5023364020469
 20
154.0296172456309
 30
0.0
 40
7.0
  1
6
  0
LINE
  5
3A9
  8
回08-記事
  6
CONTINUOUS
 62
     7
 10
161.1125747164512
 20
165.4658215483613
 30
0.0
 11
166.1365364552
 21
165.4658215483613
 31
0.0
  0
LINE
  5
3AA
  8
回08-記事
  6
CONTINUOUS
 62
     7
 10
166.1365364552
 20
165.4658215483613
 30
0.0
 11
166.1365364552
 21
166.8698219834122
 31
0.0
  0
LINE
  5
3AB
  8
回08-記事
  6
CONTINUOUS
 62
     7
 10
161.1125747164512
 20
168.4333358889966
 30
0.0
 11
161.1125747164512
 21
165.4658215483613
 31
0.0
  0
LINE
  5
3AC
  8
回08-記事
  6
CONTINUOUS
 62
     7
 10
158.4450534508003
 20
168.4333358889966
 30
0.0
 11
161.1125747164512
 21
168.4333358889966
 31
0.0
  0
LINE
  5
3AD
  8
回08-記事
  6
CONTINUOUS
 62
     7
 10
158.4450534508003
 20
169.8698219834118
 30
0.0
 11
158.4450534508003
 21
168.4333358889966
 31
0.0
  0
ARC
  5
3AE
  8
回08-記事
  6
CONTINUOUS
 62
     7
 10
639.6365364551991
 20
170.8698219834122
 30
0.0
 40
1.0
 50
0.0
 51
180.0
  0
ARC
  5
3AF
  8
回08-記事
  6
CONTINUOUS
 62
     7
 10
649.6365364551991
 20
170.8698219834122
 30
0.0
 40
1.0
 50
0.0
 51
180.0
  0
LINE
  5
3B0
  8
回08-記事
  6
CONTINUOUS
 62
     7
 10
662.6365364552
 20
166.8698219834122
 30
0.0
 11
662.6365364552
 21
173.1099357511684
 31
0.0
  0
LINE
  5
3B1
  8
回08-記事
  6
CONTINUOUS
 62
     7
 10
655.6365364552
 20
173.1099357511684
 30
0.0
 11
655.6365364552
 21
170.8698219834122
 31
0.0
  0
DIMENSION
  5
3B2
  8
回07-寸法
  6
CONTINUOUS
 62
     5
  2
*D73
 10
675.5129240426551
 20
166.8698219834122
 30
0.0
 11
671.0129240426551
 21
144.2191586127316
 31
0.0
 70
    32
  1
2.1{\H0.75x;±0.2}
  3
DMC
 13
662.1365364551991
 23
175.9427155072462
 33
0.0
 14
662.6365364551991
 24
166.8698219834122
 34
0.0
 50
90.0
1001
ACAD
1000
DSTYLE
1002
{
1070
    41
1040
5.0
1070
    47
1040
0.2
1070
    48
1040
0.2
1070
   140
1040
8.0
1070
   141
1040
1.5
1070
   271
1070
     3
1070
   272
1070
     3
1070
   371
1070
    13
1070
   372
1070
    13
1002
}
  0
ARC
  5
3C3
  8
回08-記事
  6
CONTINUOUS
 62
     7
 10
619.6365364551991
 20
170.8698219834122
 30
0.0
 40
1.0
 50
0.0
 51
180.0
  0
ARC
  5
3C4
  8
回08-記事
  6
CONTINUOUS
 62
     7
 10
589.6365364551991
 20
170.8698219834122
 30
0.0
 40
1.0
 50
0.0
 51
180.0
  0
ARC
  5
3C5
  8
回08-記事
  6
CONTINUOUS
 62
     7
 10
599.6365364551991
 20
170.8698219834122
 30
0.0
 40
1.0
 50
0.0
 51
180.0
  0
ARC
  5
3C6
  8
回08-記事
  6
CONTINUOUS
 62
     7
 10
609.6365364551991
 20
170.8698219834122
 30
0.0
 40
1.0
 50
0.0
 51
180.0
  0
ARC
  5
3C7
  8
回08-記事
  6
CONTINUOUS
 62
     7
 10
569.6365364551991
 20
170.8698219834122
 30
0.0
 40
1.0
 50
0.0
 51
180.0
  0
ARC
  5
3C8
  8
回08-記事
  6
CONTINUOUS
 62
     7
 10
579.6365364551991
 20
170.8698219834122
 30
0.0
 40
1.0
 50
0.0
 51
180.0
  0
ARC
  5
3C9
  8
回08-記事
  6
CONTINUOUS
 62
     7
 10
539.6365364551991
 20
170.8698219834122
 30
0.0
 40
1.0
 50
0.0
 51
180.0
  0
ARC
  5
3CA
  8
回08-記事
  6
CONTINUOUS
 62
     7
 10
549.6365364551991
 20
170.8698219834122
 30
0.0
 40
1.0
 50
0.0
 51
180.0
  0
ARC
  5
3CB
  8
回08-記事
  6
CONTINUOUS
 62
     7
 10
559.6365364551991
 20
170.8698219834122
 30
0.0
 40
1.0
 50
0.0
 51
180.0
  0
ARC
  5
3CC
  8
回08-記事
  6
CONTINUOUS
 62
     7
 10
519.6365364551991
 20
170.8698219834122
 30
0.0
 40
1.0
 50
0.0
 51
180.0
  0
ARC
  5
3CD
  8
回08-記事
  6
CONTINUOUS
 62
     7
 10
529.6365364551991
 20
170.8698219834122
 30
0.0
 40
1.0
 50
0.0
 51
180.0
  0
ARC
  5
3CE
  8
回08-記事
  6
CONTINUOUS
 62
     7
 10
489.6365364551991
 20
170.8698219834122
 30
0.0
 40
1.0
 50
0.0
 51
180.0
  0
ARC
  5
3CF
  8
回08-記事
  6
CONTINUOUS
 62
     7
 10
499.6365364551991
 20
170.8698219834122
 30
0.0
 40
1.0
 50
0.0
 51
180.0
  0
ARC
  5
3D0
  8
回08-記事
  6
CONTINUOUS
 62
     7
 10
509.6365364551991
 20
170.8698219834122
 30
0.0
 40
1.0
 50
0.0
 51
180.0
  0
ARC
  5
3D1
  8
回08-記事
  6
CONTINUOUS
 62
     7
 10
469.6365364551991
 20
170.8698219834122
 30
0.0
 40
1.0
 50
0.0
 51
180.0
  0
ARC
  5
3D2
  8
回08-記事
  6
CONTINUOUS
 62
     7
 10
479.6365364551991
 20
170.8698219834122
 30
0.0
 40
1.0
 50
0.0
 51
180.0
  0
ARC
  5
3D3
  8
回08-記事
  6
CONTINUOUS
 62
     7
 10
449.6365364551991
 20
170.8698219834122
 30
0.0
 40
1.0
 50
0.0
 51
180.0
  0
ARC
  5
3D4
  8
回08-記事
  6
CONTINUOUS
 62
     7
 10
459.6365364551991
 20
170.8698219834122
 30
0.0
 40
1.0
 50
0.0
 51
180.0
  0
TEXT
  5
3D5
  8
回08-記事
  6
CONTINUOUS
 62
     7
 10
466.7913872821579
 20
186.175535382249
 30
0.0
 40
7.0
  1
1
  0
ARC
  5
3D6
  8
回08-記事
  6
CONTINUOUS
 62
     7
 10
419.6365364551991
 20
170.8698219834122
 30
0.0
 40
1.0
 50
0.0
 51
180.0
  0
ARC
  5
3D7
  8
回08-記事
  6
CONTINUOUS
 62
     7
 10
429.6365364551991
 20
170.8698219834122
 30
0.0
 40
1.0
 50
0.0
 51
180.0
  0
ARC
  5
3D8
  8
回08-記事
  6
CONTINUOUS
 62
     7
 10
399.6365364551991
 20
170.8698219834122
 30
0.0
 40
1.0
 50
0.0
 51
180.0
  0
ARC
  5
3D9
  8
回08-記事
  6
CONTINUOUS
 62
     7
 10
409.636536455199
 20
170.8698219834122
 30
0.0
 40
1.0
 50
0.0
 51
180.0
  0
ARC
  5
3DA
  8
回08-記事
  6
CONTINUOUS
 62
     7
 10
439.6365364551991
 20
170.8698219834122
 30
0.0
 40
1.0
 50
0.0
 51
180.0
  0
LINE
  5
3DB
  8
回08-記事
  6
CONTINUOUS
 62
     7
 10
449.5106020516129
 20
167.9413545086135
 30
0.0
 11
461.2606411674049
 21
160.4166698718308
 31
0.0
  0
ARC
  5
3DC
  8
回08-記事
  6
CONTINUOUS
 62
     7
 10
369.6365364551991
 20
170.8698219834122
 30
0.0
 40
1.0
 50
0.0
 51
180.0
  0
ARC
  5
3DD
  8
回08-記事
  6
CONTINUOUS
 62
     7
 10
379.6365364551991
 20
170.8698219834122
 30
0.0
 40
1.0
 50
0.0
 51
180.0
  0
ARC
  5
3DE
  8
回08-記事
  6
CONTINUOUS
 62
     7
 10
349.6365364551991
 20
170.8698219834122
 30
0.0
 40
1.0
 50
0.0
 51
180.0
  0
ARC
  5
3DF
  8
回08-記事
  6
CONTINUOUS
 62
     7
 10
359.6365364551991
 20
170.8698219834122
 30
0.0
 40
1.0
 50
0.0
 51
180.0
  0
LINE
  5
3E0
  8
回08-記事
  6
CONTINUOUS
 62
     7
 10
173.0765364551996
 20
173.1099357511688
 30
0.0
 11
173.0765364551996
 21
170.8698219834122
 31
0.0
  0
LINE
  5
3E1
  8
回08-記事
  6
CONTINUOUS
 62
     7
 10
163.1365364552
 20
173.1099357511688
 30
0.0
 11
163.1365364552
 21
175.9427155072462
 31
0.0
  0
TEXT
  5
3E2
  8
回08-記事
  6
CONTINUOUS
 62
     7
 10
154.8658607070363
 20
150.6884427835561
 30
0.0
 40
7.0
  1
5
  0
LINE
  5
3E3
  8
回08-記事
  6
CONTINUOUS
 62
     7
 10
162.6365364552
 20
166.8698219834122
 30
0.0
 11
162.6365364552
 21
170.8698219834122
 31
0.0
  0
LINE
  5
3E4
  8
回08-記事
  6
CONTINUOUS
 62
     7
 10
119.6426325166792
 20
171.9253635057557
 30
0.0
 11
118.435385008275
 21
179.7620753761952
 31
0.0
  0
TEXT
  5
3E5
  8
回08-記事
  6
CONTINUOUS
 62
     7
 10
116.1943930835894
 20
181.2045657496332
 30
0.0
 40
7.0
  1
3
  0
LINE
  5
3E6
  8
回08-記事
  6
CONTINUOUS
 62
     7
 10
456.2464798551598
 20
176.5439386322886
 30
0.0
 11
466.7913872821579
 21
187.0784991981799
 31
0.0
  0
TEXT
  5
3E7
  8
回08-記事
  6
CONTINUOUS
 62
     7
 10
462.4657728561985
 20
156.8048197940979
 30
0.0
 40
7.0
  1
2
  0
ARC
  5
3E8
  8
回08-記事
  6
CONTINUOUS
 62
     7
 10
389.6365364551991
 20
170.8698219834122
 30
0.0
 40
1.0
 50
0.0
 51
180.0
  0
LINE
  5
3E9
  8
回08-記事
  6
CONTINUOUS
 62
     7
 10
87.63653645520003
 20
173.1099357511688
 30
0.0
 11
87.63653645520003
 21
174.1099357511688
 31
0.0
  0
ARC
  5
3EA
  8
回08-記事
  6
CONTINUOUS
 62
     7
 10
629.6365364551991
 20
170.8698219834122
 30
0.0
 40
1.0
 50
0.0
 51
180.0
  0
DIMENSION
  5
3EB
  8
回07-寸法
  6
CONTINUOUS
 62
     5
  2
*D74
 10
87.63653645520003
 20
183.1363249456071
 30
0.0
 11
99.90222188014946
 21
183.1363249456071
 31
0.0
 70
   160
  3
DMC
 13
82.63653645520003
 23
173.1099357511688
 33
0.0
 14
87.63653645520003
 24
174.1099357511693
 34
0.0
1001
ACAD
1000
DSTYLE
1002
{
1070
    41
1040
5.0
1070
    47
1040
0.2
1070
    48
1040
0.2
1070
   140
1040
8.0
1070
   141
1040
1.5
1070
   271
1070
     3
1070
   272
1070
     3
1070
   371
1070
    13
1070
   372
1070
    13
1002
}
  0
TEXT
  5
3FC
  8
回08-記事
  6
CONTINUOUS
 62
     7
 10
100.2362439135247
 20
160.5276856411319
 30
0.0
 40
7.0
  1
4
  0
LINE
  5
3FD
  8
回08-記事
  6
CONTINUOUS
 62
     7
 10
92.63653645520003
 20
167.8698219834122
 30
0.0
 11
92.63653645520003
 21
170.8698219834122
 31
0.0
  0
LINE
  5
3FE
  8
回08-記事
  6
CONTINUOUS
 62
     7
 10
92.63653645520003
 20
167.8698219834122
 30
0.0
 11
82.63653645520003
 21
167.8698219834122
 31
0.0
  0
LINE
  5
3FF
  8
回08-記事
  6
CONTINUOUS
 62
     7
 10
98.89401267244444
 20
164.8877933115395
 30
0.0
 11
89.6661889907989
 21
168.9125059486113
 31
0.0
  0
DIMENSION
  5
400
  8
回07-寸法
  6
CONTINUOUS
 62
     5
  2
*D75
 10
92.63653645520003
 20
151.1765741550361
 30
0.0
 11
109.9333868489009
 21
151.1765741550361
 31
0.0
 70
   160
  1
(<>)
  3
DMC
 13
82.63653645520003
 23
167.8698219834122
 33
0.0
 14
92.63653645520003
 24
167.8698219834122
 34
0.0
1001
ACAD
1000
DSTYLE
1002
{
1070
    41
1040
5.0
1070
    47
1040
0.2
1070
    48
1040
0.2
1070
   140
1040
8.0
1070
   141
1040
1.5
1070
   271
1070
     3
1070
   272
1070
     3
1070
   371
1070
    13
1070
   372
1070
    13
1002
}
  0
LINE
  5
411
  8
回08-記事
  6
CONTINUOUS
 62
     7
 10
82.63653645520003
 20
167.8698219834122
 30
0.0
 11
82.63653645520003
 21
173.1099357511688
 31
0.0
  0
DIMENSION
  5
412
  8
回07-寸法
  6
CONTINUOUS
 62
     5
  2
*D76
 10
65.65091153663593
 20
167.8698219834122
 30
0.0
 11
65.65091153663593
 21
142.1924083084013
 31
0.0
 70
   160
  1
0.3{\H0.75x;±0.05}
  3
DMC
 13
82.63653645520003
 23
173.1099357511688
 33
0.0
 14
82.63653645520003
 24
167.8698219834122
 34
0.0
 50
90.0
1001
ACAD
1000
DSTYLE
1002
{
1070
    41
1040
5.0
1070
    47
1040
0.2
1070
    48
1040
0.2
1070
   140
1040
8.0
1070
   141
1040
1.5
1070
   271
1070
     3
1070
   272
1070
     3
1070
   371
1070
    13
1070
   372
1070
    13
1002
}
  0
LINE
  5
423
  8
回08-記事
  6
CONTINUOUS
 62
     7
 10
148.8612010809208
 20
173.8087324846573
 30
0.0
 11
155.0497794374039
 21
158.4032939653438
 31
0.0
  0
LINE
  5
424
  8
回08-記事
  6
CONTINUOUS
 62
     7
 10
163.1365364552
 20
174.1099357511693
 30
0.0
 11
87.63653645520003
 21
174.1099357511693
 31
0.0
  0
LINE
  5
425
  8
回08-記事
  6
CONTINUOUS
 62
     7
 10
662.6365364551991
 20
173.1099357511684
 30
0.0
 11
82.63649294443235
 21
173.1099357511684
 31
0.0
  0
LINE
  5
426
  8
回08-記事
  6
CONTINUOUS
 62
     7
 10
662.6365364551991
 20
170.8698219834122
 30
0.0
 11
82.63649294443235
 21
170.8698219834122
 31
0.0
  0
LINE
  5
427
  8
回08-記事
  6
CONTINUOUS
 62
     7
 10
662.1365364551991
 20
175.9427155072462
 30
0.0
 11
162.6365364552
 21
175.9427155072462
 31
0.0
  0
LINE
  5
428
  8
回08-記事
  6
CONTINUOUS
 62
     7
 10
662.6365364551991
 20
166.8698219834122
 30
0.0
 11
162.6365364552
 21
166.8698219834122
 31
0.0
  0
LINE
  5
429
  8
回05-ﾃｰﾙ
  6
BYBLOCK
 62
     7
 10
163.1365364552
 20
348.6930316486887
 30
0.0
 11
163.1365364552
 21
348.6930316486887
 31
0.0
  0
ARC
  5
42C
  8
回05-ﾃｰﾙ
  6
BYBLOCK
 62
     7
 10
152.7278351553266
 20
354.5640069831092
 30
0.0
 40
1.0
 50
45.14359814421456
 51
89.99668642115283
  0
ARC
  5
42D
  8
回05-ﾃｰﾙ
  6
BYBLOCK
 62
     7
 10
152.7252738864224
 20
362.8180316486891
 30
0.0
 40
1.0
 50
270.0
 51
314.8829928953715
  0
ARC
  5
42E
  8
回05-ﾃｰﾙ
  6
BYBLOCK
 62
     7
 10
158.4450534508003
 20
365.6918287142789
 30
0.0
 40
1.0
 50
90.02560571194576
 51
134.8829928953715
  0
ARC
  5
42F
  8
回05-ﾃｰﾙ
  6
BYBLOCK
 62
     7
 10
158.4487801325401
 20
351.6930316486891
 30
0.0
 40
1.0
 50
225.1435981442146
 51
270.0
  0
ARC
  5
430
  8
回05-ﾃｰﾙ
  6
BYBLOCK
 62
     7
 10
161.1365364552
 20
348.6930316486891
 30
0.0
 40
2.0
 50
0.0
 51
90.0
  0
ARC
  5
431
  8
回05-ﾃｰﾙ
  6
BYBLOCK
 62
     7
 10
161.1365364552
 20
368.6930318484123
 30
0.0
 40
2.0
 50
270.0256057119457
 51
0.0
  0
ARC
  5
432
  8
回05-ﾃｰﾙ
  6
BYBLOCK
 62
     7
 10
160.6365364552
 20
358.6930316486891
 30
0.0
 40
0.5
 50
90.0
 51
272.4902279154731
  0
LINE
  5
433
  8
回05-ﾃｰﾙ
  6
BYBLOCK
 62
     7
 10
166.1365364552
 20
358.1930316486886
 30
0.0
 11
160.6365364552
 21
358.1930316486886
 31
0.0
  0
LINE
  5
434
  8
回05-ﾃｰﾙ
  6
BYBLOCK
 62
     7
 10
160.6365364552
 20
359.1930316486886
 30
0.0
 11
166.1365364552
 21
359.1930316486886
 31
0.0
  0
LINE
  5
435
  8
回05-ﾃｰﾙ
  6
BYBLOCK
 62
     7
 10
166.1365364552
 20
358.1930316486886
 30
0.0
 11
166.1365364552
 21
348.6930316486887
 31
0.0
  0
LINE
  5
436
  8
回05-ﾃｰﾙ
  6
BYBLOCK
 62
     7
 10
153.4331675238443
 20
355.2728837353874
 30
0.0
 11
157.7434477640224
 21
350.98415489641
 31
0.0
  0
LINE
  5
437
  8
回05-ﾃｰﾙ
  6
BYBLOCK
 62
     7
 10
153.4309351695135
 20
362.1094823183343
 30
0.0
 11
157.7393921677091
 21
366.4003780446332
 31
0.0
  0
LINE
  5
438
  8
回05-ﾃｰﾙ
  6
BYBLOCK
 62
     7
 10
166.1365364552
 20
368.6930316486887
 30
0.0
 11
166.1365364552
 21
359.1930316486886
 31
0.0
  0
LINE
  5
439
  8
回05-ﾃｰﾙ
  6
BYBLOCK
 62
     7
 10
163.1365364552
 20
348.6930316486887
 30
0.0
 11
166.1365364552
 21
348.6930316486887
 31
0.0
  0
LINE
  5
43A
  8
回05-ﾃｰﾙ
  6
BYBLOCK
 62
     7
 10
166.1365364552
 20
368.6930316486887
 30
0.0
 11
163.1365364552
 21
368.6930316486887
 31
0.0
  0
LINE
  5
43B
  8
回05-ﾃｰﾙ
  6
BYBLOCK
 62
     7
 10
158.4487801325401
 20
350.6930316486887
 30
0.0
 11
161.1365364552
 21
350.6930316486887
 31
0.0
  0
LINE
  5
43C
  8
回05-ﾃｰﾙ
  6
BYBLOCK
 62
     7
 10
158.4446065468344
 20
366.6918286144168
 30
0.0
 11
161.1374302631318
 21
366.6930320481351
 31
0.0
  0
LINE
  5
43D
  8
回05-ﾃｰﾙ
  6
BYBLOCK
 62
     7
 10
82.63649294443235
 20
361.3180316486886
 30
0.0
 11
82.63649294443235
 21
356.0680316486886
 31
0.0
  0
ARC
  5
43E
  8
回05-ﾃｰﾙ
  6
BYBLOCK
 62
     7
 10
83.13649294443235
 20
356.0680316486891
 30
0.0
 40
0.5
 50
180.0
 51
270.0
  0
ARC
  5
43F
  8
回05-ﾃｰﾙ
  6
BYBLOCK
 62
     7
 10
83.13649294443235
 20
361.3180316486891
 30
0.0
 40
0.5
 50
90.0
 51
180.0
  0
LINE
  5
440
  8
回05-ﾃｰﾙ
  6
BYBLOCK
 62
     7
 10
83.13649294443235
 20
355.5680316486891
 30
0.0
 11
152.7278929881874
 21
355.5640069814367
 31
0.0
  0
LINE
  5
441
  8
回05-ﾃｰﾙ
  6
BYBLOCK
 62
     7
 10
83.13649294443235
 20
361.8180316486891
 30
0.0
 11
152.7252738864224
 21
361.8180316486891
 31
0.0
  0
POLYLINE
  5
442
  8
回08-記事
  6
CONTINUOUS
 62
     7
 66
     1
 10
0.0
 20
0.0
 30
0.0
 70
     1
  0
VERTEX
  5
6E2
  8
回08-記事
  6
CONTINUOUS
 62
     7
 10
174.0765364551996
 20
222.5480316486887
 30
0.0
  0
VERTEX
  5
6E4
  8
回08-記事
  6
CONTINUOUS
 62
     7
 10
654.6365364552
 20
222.5480316486887
 30
0.0
  0
VERTEX
  5
6E5
  8
回08-記事
  6
CONTINUOUS
 62
     7
 10
654.6365364552
 20
494.8380316486886
 30
0.0
  0
VERTEX
  5
6E6
  8
回08-記事
  6
CONTINUOUS
 62
     7
 10
174.0765364551996
 20
494.8380316486886
 30
0.0
  0
SEQEND
  5
6E3
  8
回04-下接
  6
CONTINUOUS
 62
     1
  0
POLYLINE
  5
443
  8
回08-記事
  6
CONTINUOUS
 62
     7
 66
     1
 10
0.0
 20
0.0
 30
0.0
 70
     1
  0
VERTEX
  5
6E7
  8
回08-記事
  6
CONTINUOUS
 62
     7
 10
176.0765364551996
 20
224.5480316486887
 30
0.0
  0
VERTEX
  5
6E9
  8
回08-記事
  6
CONTINUOUS
 62
     7
 10
652.6365364552
 20
224.5480316486887
 30
0.0
  0
VERTEX
  5
6EA
  8
回08-記事
  6
CONTINUOUS
 62
     7
 10
652.6365364552
 20
492.8380316486886
 30
0.0
  0
VERTEX
  5
6EB
  8
回08-記事
  6
CONTINUOUS
 62
     7
 10
176.0765364551996
 20
492.8380316486886
 30
0.0
  0
SEQEND
  5
6E8
  8
回04-下接
  6
CONTINUOUS
 62
     1
  0
TEXT
  5
444
  8
回03-記事
  6
CONTINUOUS
 62
     7
 10
808.4890263354157
 20
472.9137882266556
 30
0.0
 40
9.599999999999999
  1
Pin Assignment
  0
LINE
  5
445
  8
回03-記事
  6
CONTINUOUS
 62
     7
 10
872.8135493518299
 20
518.8470969493375
 30
0.0
 11
872.8135493518299
 21
565.6470969493375
 31
0.0
  0
LINE
  5
446
  8
回03-記事
  6
CONTINUOUS
 62
     7
 10
898.5535493518298
 20
493.1070969493377
 30
0.0
 11
898.5535493518298
 21
591.3870969493372
 31
0.0
  0
TEXT
  5
447
  8
回03-記事
  6
CONTINUOUS
 62
     7
 10
796.8754962331834
 20
561.9728178867517
 30
0.0
 40
7.488000000000001
  1
3
  0
TEXT
  5
448
  8
回03-記事
  6
CONTINUOUS
 62
     7
 10
796.4476125811168
 20
587.9544991873838
 30
0.0
 40
7.488000000000001
  1
4
  0
LINE
  5
449
  8
回03-記事
  6
CONTINUOUS
 62
     7
 10
861.2071493518312
 20
521.2806969493372
 30
0.0
 11
864.5767493518313
 21
514.5414969493367
 31
0.0
  0
LINE
  5
44A
  8
回03-記事
  6
CONTINUOUS
 62
     7
 10
864.5767493518313
 20
514.5414969493367
 30
0.0
 11
866.7295493518311
 21
518.8470969493375
 31
0.0
  0
LINE
  5
44B
  8
回03-記事
  6
CONTINUOUS
 62
     7
 10
854.4679493518295
 20
521.2806969493372
 30
0.0
 11
857.8375493518313
 21
514.5414969493367
 31
0.0
  0
LINE
  5
44C
  8
回03-記事
  6
CONTINUOUS
 62
     7
 10
851.0983493518313
 20
514.5414969493367
 30
0.0
 11
854.4679493518295
 21
521.2806969493372
 31
0.0
  0
LINE
  5
44D
  8
回03-記事
  6
CONTINUOUS
 62
     7
 10
857.8375493518313
 20
514.5414969493367
 30
0.0
 11
861.2071493518312
 21
521.2806969493372
 31
0.0
  0
LINE
  5
44E
  8
回03-記事
  6
CONTINUOUS
 62
     7
 10
840.9895493518295
 20
521.2806969493372
 30
0.0
 11
844.3591493518313
 21
514.5414969493367
 31
0.0
  0
LINE
  5
44F
  8
回03-記事
  6
CONTINUOUS
 62
     7
 10
840.4279493518304
 20
514.8222969493372
 30
0.0
 11
847.1671493518313
 21
518.1918969493376
 31
0.0
  0
LINE
  5
450
  8
回03-記事
  6
CONTINUOUS
 62
     7
 10
840.4279493518304
 20
514.8222969493372
 30
0.0
 11
847.1671493518313
 21
511.4526969493383
 31
0.0
  0
LINE
  5
451
  8
回03-記事
  6
CONTINUOUS
 62
     7
 10
840.4279493518304
 20
508.0830969493371
 30
0.0
 11
847.1671493518313
 21
511.4526969493383
 31
0.0
  0
LINE
  5
452
  8
回03-記事
  6
CONTINUOUS
 62
     7
 10
840.4279493518304
 20
501.3438969493371
 30
0.0
 11
847.1671493518313
 21
504.7134969493376
 31
0.0
  0
LINE
  5
453
  8
回03-記事
  6
CONTINUOUS
 62
     7
 10
840.4279493518304
 20
508.0830969493371
 30
0.0
 11
847.1671493518313
 21
504.7134969493376
 31
0.0
  0
LINE
  5
454
  8
回03-記事
  6
CONTINUOUS
 62
     7
 10
840.4279493518304
 20
521.5614969493372
 30
0.0
 11
847.1671493518313
 21
524.9310969493372
 31
0.0
  0
LINE
  5
455
  8
回03-記事
  6
CONTINUOUS
 62
     7
 10
840.4279493518304
 20
528.3006969493372
 30
0.0
 11
847.1671493518313
 21
531.6702969493367
 31
0.0
  0
LINE
  5
456
  8
回03-記事
  6
CONTINUOUS
 62
     7
 10
840.4279493518304
 20
528.3006969493372
 30
0.0
 11
847.1671493518313
 21
524.9310969493372
 31
0.0
  0
LINE
  5
457
  8
回03-記事
  6
CONTINUOUS
 62
     7
 10
840.4279493518304
 20
521.5614969493372
 30
0.0
 11
847.1671493518313
 21
518.1918969493376
 31
0.0
  0
LINE
  5
458
  8
回03-記事
  6
CONTINUOUS
 62
     7
 10
834.2503493518295
 20
521.2806969493372
 30
0.0
 11
837.6199493518296
 21
514.5414969493367
 31
0.0
  0
LINE
  5
459
  8
回03-記事
  6
CONTINUOUS
 62
     7
 10
830.8807493518314
 20
514.5414969493367
 30
0.0
 11
834.2503493518295
 21
521.2806969493372
 31
0.0
  0
LINE
  5
45A
  8
回03-記事
  6
CONTINUOUS
 62
     7
 10
825.3583493518314
 20
516.975096949337
 30
0.0
 11
827.51114935183
 21
521.2806969493372
 31
0.0
  0
LINE
  5
45B
  8
回03-記事
  6
CONTINUOUS
 62
     7
 10
827.51114935183
 20
521.2806969493372
 30
0.0
 11
830.8807493518314
 21
514.5414969493367
 31
0.0
  0
LINE
  5
45C
  8
回03-記事
  6
CONTINUOUS
 62
     7
 10
837.6199493518296
 20
514.5414969493367
 30
0.0
 11
840.9895493518295
 21
521.2806969493372
 31
0.0
  0
LINE
  5
45D
  8
回03-記事
  6
CONTINUOUS
 62
     7
 10
843.7975493518305
 20
533.3550969493367
 30
0.0
 11
843.7975493518305
 21
538.9710969493369
 31
0.0
  0
LINE
  5
45E
  8
回03-記事
  6
CONTINUOUS
 62
     7
 10
844.3591493518313
 20
514.5414969493367
 30
0.0
 11
847.7287493518312
 21
521.2806969493372
 31
0.0
  0
LINE
  5
45F
  8
回03-記事
  6
CONTINUOUS
 62
     7
 10
843.7975493518305
 20
533.3550969493367
 30
0.0
 11
847.1671493518313
 21
531.6702969493367
 31
0.0
  0
TEXT
  5
460
  8
回03-記事
  6
CONTINUOUS
 62
     7
 10
845.6362612295858
 20
540.2052416851124
 30
0.0
 40
6.551999999999999
  1
YU
  0
LINE
  5
461
  8
回03-記事
  6
CONTINUOUS
 62
     7
 10
847.7287493518312
 20
521.2806969493372
 30
0.0
 11
851.0983493518313
 21
514.5414969493367
 31
0.0
  0
LINE
  5
462
  8
回03-記事
  6
CONTINUOUS
 62
     7
 10
843.7975493518305
 20
493.1070969493377
 30
0.0
 11
843.7975493518305
 21
499.6590969493372
 31
0.0
  0
LINE
  5
463
  8
回03-記事
  6
CONTINUOUS
 62
     7
 10
840.4279493518304
 20
501.3438969493371
 30
0.0
 11
843.7975493518305
 21
499.6590969493372
 31
0.0
  0
TEXT
  5
464
  8
回03-記事
  6
CONTINUOUS
 62
     7
 10
826.5857955534231
 20
495.7759903797277
 30
0.0
 40
6.551999999999999
  1
YD
  0
TEXT
  5
465
  8
回03-記事
  6
CONTINUOUS
 62
     7
 10
812.3900295417612
 20
519.7196881456314
 30
0.0
 40
6.551999999999999
  1
XL
  0
TEXT
  5
466
  8
回03-記事
  6
CONTINUOUS
 62
     7
 10
797.1658797254915
 20
513.2644566131118
 30
0.0
 40
7.488000000000001
  1
1
  0
TEXT
  5
467
  8
回03-記事
  6
CONTINUOUS
 62
     7
 10
796.5916901718244
 20
536.1235632118121
 30
0.0
 40
7.488000000000001
  1
2
  0
LINE
  5
468
  8
回03-記事
  6
CONTINUOUS
 62
     7
 10
804.48554935183
 20
538.9710969493369
 30
0.0
 11
843.7975493518305
 21
538.9710969493369
 31
0.0
  0
LINE
  5
469
  8
回03-記事
  6
CONTINUOUS
 62
     7
 10
804.48554935183
 20
516.975096949337
 30
0.0
 11
825.3583493518314
 21
516.975096949337
 31
0.0
  0
LINE
  5
46A
  8
回03-記事
  6
CONTINUOUS
 62
     7
 10
843.7975493518305
 20
493.1070969493377
 30
0.0
 11
898.5535493518298
 21
493.1070969493377
 31
0.0
  0
LINE
  5
46B
  8
回03-記事
  6
CONTINUOUS
 62
     7
 10
804.48554935183
 20
591.3870969493372
 30
0.0
 11
898.5535493518298
 21
591.3870969493372
 31
0.0
  0
LINE
  5
46C
  8
回03-記事
  6
CONTINUOUS
 62
     7
 10
804.48554935183
 20
565.6470969493375
 30
0.0
 11
872.8135493518299
 21
565.6470969493375
 31
0.0
  0
LINE
  5
46D
  8
回03-記事
  6
CONTINUOUS
 62
     7
 10
866.7295493518311
 20
518.8470969493375
 30
0.0
 11
872.8135493518299
 21
518.8470969493375
 31
0.0
  0
TEXT
  5
46E
  8
回03-記事
  6
CONTINUOUS
 62
     7
 10
867.0854911657922
 20
509.2912508565984
 30
0.0
 40
6.551999999999999
  1
XR
  0
TEXT
  5
46F
  8
回03-記事
  6
CONTINUOUS
 62
     7
 10
816.9923877078407
 20
114.471038966767
 30
0.0
 40
8.012278923263997
  1
PROTECTION TAPE
  0
TEXT
  5
470
  8
回03-記事
  6
CONTINUOUS
 62
     7
 10
804.4820568805842
 20
114.4287092582976
 30
0.0
 40
8.332770080194563
  1
6
  0
LINE
  5
471
  8
回03-記事
  6
CONTINUOUS
 62
     7
 10
800.2247994796082
 20
112.0361331610979
 30
0.0
 11
924.3569169794835
 21
112.0361331610979
 31
0.0
  0
TEXT
  5
472
  8
回03-記事
  6
CONTINUOUS
 62
     7
 10
815.9752910394105
 20
141.9000607204502
 30
0.0
 40
8.332770080194563
  1
STIFFENER
  0
TEXT
  5
473
  8
回03-記事
  6
CONTINUOUS
 62
     7
 10
815.9752910394105
 20
128.0121105867937
 30
0.0
 40
8.332770080194563
  1
REINFORCEMENT FILM
  0
TEXT
  5
474
  8
回03-記事
  6
CONTINUOUS
 62
     7
 10
848.7690462488592
 20
198.0044423693138
 30
0.0
 40
8.332770080194563
  1
ITEM
  0
LINE
  5
475
  8
回03-記事
  6
CONTINUOUS
 62
     7
 10
924.3569169794835
 20
112.0361331610979
 30
0.0
 11
924.3569169794835
 21
209.2517840967011
 31
0.0
  0
TEXT
  5
476
  8
回03-記事
  6
CONTINUOUS
 62
     7
 10
804.4820568805842
 20
156.092559659266
 30
0.0
 40
8.332770080194563
  1
3
  0
TEXT
  5
477
  8
回03-記事
  6
CONTINUOUS
 62
     7
 10
804.4820568805842
 20
142.2046095256118
 30
0.0
 40
8.332770080194563
  1
4
  0
TEXT
  5
478
  8
回03-記事
  6
CONTINUOUS
 62
     7
 10
804.4820568805842
 20
169.980509792931
 30
0.0
 40
8.332770080194563
  1
2
  0
TEXT
  5
479
  8
回03-記事
  6
CONTINUOUS
 62
     7
 10
804.4820568805842
 20
128.3166593919554
 30
0.0
 40
8.332770080194563
  1
5
  0
LINE
  5
47A
  8
回03-記事
  6
CONTINUOUS
 62
     7
 10
814.6746677715935
 20
209.2517840967011
 30
0.0
 11
814.6746677715935
 21
112.0361331610979
 31
0.0
  0
LINE
  5
47B
  8
回03-記事
  6
CONTINUOUS
 62
     7
 10
800.2247994796082
 20
209.2517840967011
 30
0.0
 11
800.2247994796082
 21
112.0361331610979
 31
0.0
  0
TEXT
  5
47C
  8
回03-記事
  6
CONTINUOUS
 62
     7
 10
804.4820568805842
 20
183.8684599265843
 30
0.0
 40
8.332770080194563
  1
1
  0
LINE
  5
47D
  8
回03-記事
  6
CONTINUOUS
 62
     7
 10
800.2247994796082
 20
125.9240832947557
 30
0.0
 11
924.3569169794835
 21
125.9240832947557
 31
0.0
  0
LINE
  5
47E
  8
回03-記事
  6
CONTINUOUS
 62
     7
 10
800.2247994796082
 20
209.2517840967011
 30
0.0
 11
924.3569169794835
 21
209.2517840967011
 31
0.0
  0
LINE
  5
47F
  8
回03-記事
  6
CONTINUOUS
 62
     7
 10
800.2247994796082
 20
181.4758838293896
 30
0.0
 11
924.3569169794835
 21
181.4758838293805
 31
0.0
  0
LINE
  5
480
  8
回03-記事
  6
CONTINUOUS
 62
     7
 10
800.2247994796082
 20
195.3638339630455
 30
0.0
 11
924.3569169794835
 21
195.3638339630455
 31
0.0
  0
LINE
  5
481
  8
回03-記事
  6
CONTINUOUS
 62
     7
 10
800.2247994796082
 20
139.8120334284153
 30
0.0
 11
924.3569169794835
 21
139.8120334284153
 31
0.0
  0
LINE
  5
482
  8
回03-記事
  6
CONTINUOUS
 62
     7
 10
800.2247994796082
 20
153.6999835620717
 30
0.0
 11
924.3569169794835
 21
153.6999835620717
 31
0.0
  0
LINE
  5
483
  8
回03-記事
  6
CONTINUOUS
 62
     7
 10
800.2247994796082
 20
167.58793369573
 30
0.0
 11
924.3569169794835
 21
167.58793369573
 31
0.0
  0
TEXT
  5
484
  8
回03-記事
  6
CONTINUOUS
 62
     7
 10
815.9752910394105
 20
183.6897068182683
 30
0.0
 40
8.332770080194563
  1
ITO FILM
  0
TEXT
  5
485
  8
回03-記事
  6
CONTINUOUS
 62
     7
 10
815.9752910394105
 20
169.8017566846087
 30
0.0
 40
8.332770080194563
  1
ITO GLASS
  0
TEXT
  5
486
  8
回03-記事
  6
CONTINUOUS
 62
     7
 10
815.9752910394105
 20
155.9138065509468
 30
0.0
 40
8.332770080194563
  1
TAIL
  0
ENDSEC
  0
EOF
