  0
SECTION
  2
HEADER
  9
$ACADVER
  1
AC1009
  9
$INSBASE
 10
0.0
 20
0.0
 30
0.0
  9
$EXTMIN
 10
1341.959400629489
 20
-503.9814155066906
 30
0.0
  9
$EXTMAX
 10
1911.959400629489
 20
-108.9814155066908
 30
0.0
  9
$LIMMIN
 10
0.0
 20
0.0
  9
$LIMMAX
 10
3000.0
 20
2500.0
  9
$ORTHOMODE
 70
     0
  9
$REGENMODE
 70
     1
  9
$FILLMODE
 70
     1
  9
$QTEXTMODE
 70
     0
  9
$MIRRTEXT
 70
     1
  9
$DRAGMODE
 70
     2
  9
$LTSCALE
 40
1.0
  9
$OSMODE
 70
    37
  9
$ATTMODE
 70
     1
  9
$TEXTSIZE
 40
4.0
  9
$TRACEWID
 40
1.0
  9
$TEXTSTYLE
  7
STANDARD
  9
$CLAYER
  8
回04-下接
  9
$CELTYPE
  6
CONTINUOUS
  9
$CECOLOR
 62
     5
  9
$DIMSCALE
 40
1.0
  9
$DIMASZ
 40
2.0
  9
$DIMEXO
 40
0.0
  9
$DIMDLI
 40
0.0
  9
$DIMRND
 40
0.0
  9
$DIMDLE
 40
0.0
  9
$DIMEXE
 40
1.0
  9
$DIMTP
 40
0.0
  9
$DIMTM
 40
0.0
  9
$DIMTXT
 40
3.0
  9
$DIMCEN
 40
2.0
  9
$DIMTSZ
 40
0.0
  9
$DIMTOL
 70
     0
  9
$DIMLIM
 70
     0
  9
$DIMTIH
 70
     0
  9
$DIMTOH
 70
     0
  9
$DIMSE1
 70
     0
  9
$DIMSE2
 70
     0
  9
$DIMTAD
 70
     3
  9
$DIMZIN
 70
     8
  9
$DIMBLK
  1
OPEN
  9
$DIMASO
 70
     1
  9
$DIMSHO
 70
     1
  9
$DIMPOST
  1

  9
$DIMAPOST
  1

  9
$DIMALT
 70
     0
  9
$DIMALTD
 70
     3
  9
$DIMALTF
 40
0.03937007874016
  9
$DIMLFAC
 40
1.0
  9
$DIMTOFL
 70
     1
  9
$DIMTVP
 40
0.0
  9
$DIMTIX
 70
     0
  9
$DIMSOXD
 70
     0
  9
$DIMSAH
 70
     0
  9
$DIMBLK1
  1

  9
$DIMBLK2
  1

  9
$DIMSTYLE
  2
DMC
  9
$DIMCLRD
 70
     5
  9
$DIMCLRE
 70
     5
  9
$DIMCLRT
 70
     5
  9
$DIMTFAC
 40
0.7
  9
$DIMGAP
 40
0.5
  9
$LUNITS
 70
     2
  9
$LUPREC
 70
     4
  9
$SKETCHINC
 40
1.0
  9
$FILLETRAD
 40
1.0
  9
$AUNITS
 70
     0
  9
$AUPREC
 70
     0
  9
$MENU
  1
.
  9
$ELEVATION
 40
0.0
  9
$PELEVATION
 40
0.0
  9
$THICKNESS
 40
0.0
  9
$LIMCHECK
 70
     0
  9
$BLIPMODE
 70
     0
  9
$CHAMFERA
 40
1.0
  9
$CHAMFERB
 40
1.0
  9
$SKPOLY
 70
     0
  9
$TDCREATE
 40
2451810.779221065
  9
$TDUPDATE
 40
2460230.388039375
  9
$TDINDWG
 40
5.499266343
  9
$TDUSRTIMER
 40
5.499265000
  9
$USRTIMER
 70
     1
  9
$ANGBASE
 50
0.0
  9
$ANGDIR
 70
     0
  9
$PDMODE
 70
     0
  9
$PDSIZE
 40
0.0
  9
$PLINEWID
 40
0.125
  9
$COORDS
 70
     0
  9
$SPLFRAME
 70
     0
  9
$SPLINETYPE
 70
     6
  9
$SPLINESEGS
 70
     8
  9
$ATTDIA
 70
     1
  9
$ATTREQ
 70
     1
  9
$HANDLING
 70
     1
  9
$HANDSEED
  5
602
  9
$SURFTAB1
 70
     6
  9
$SURFTAB2
 70
     6
  9
$SURFTYPE
 70
     6
  9
$SURFU
 70
     6
  9
$SURFV
 70
     6
  9
$UCSNAME
  2

  9
$UCSORG
 10
0.0
 20
0.0
 30
0.0
  9
$UCSXDIR
 10
1.0
 20
0.0
 30
0.0
  9
$UCSYDIR
 10
0.0
 20
1.0
 30
0.0
  9
$PUCSNAME
  2

  9
$PUCSORG
 10
0.0
 20
0.0
 30
0.0
  9
$PUCSXDIR
 10
1.0
 20
0.0
 30
0.0
  9
$PUCSYDIR
 10
0.0
 20
1.0
 30
0.0
  9
$USERI1
 70
     0
  9
$USERI2
 70
     0
  9
$USERI3
 70
     0
  9
$USERI4
 70
     0
  9
$USERI5
 70
     0
  9
$USERR1
 40
0.0
  9
$USERR2
 40
0.0
  9
$USERR3
 40
0.0
  9
$USERR4
 40
0.0
  9
$USERR5
 40
0.0
  9
$WORLDVIEW
 70
     1
  9
$SHADEDGE
 70
     3
  9
$SHADEDIF
 70
    70
  9
$TILEMODE
 70
     1
  9
$MAXACTVP
 70
    64
  9
$PLIMCHECK
 70
     0
  9
$PEXTMIN
 10
1.000000000000000E+20
 20
1.000000000000000E+20
 30
1.000000000000000E+20
  9
$PEXTMAX
 10
-1.000000000000000E+20
 20
-1.000000000000000E+20
 30
-1.000000000000000E+20
  9
$PLIMMIN
 10
0.0
 20
0.0
  9
$PLIMMAX
 10
420.0
 20
297.0
  9
$UNITMODE
 70
     0
  9
$VISRETAIN
 70
     1
  9
$PLINEGEN
 70
     0
  9
$PSLTSCALE
 70
     1
  0
ENDSEC
  0
SECTION
  2
TABLES
  0
TABLE
  2
VPORT
 70
     1
  0
VPORT
  2
*ACTIVE
 70
     0
 10
0.0
 20
0.0
 11
1.0
 21
1.0
 12
1720.687548339376
 22
-305.4153232624883
 13
0.0
 23
0.0
 14
10.0
 24
10.0
 15
10.0
 25
10.0
 16
0.0
 26
0.0
 36
1.0
 17
0.0
 27
0.0
 37
0.0
 40
661.4112536197726
 41
1.853689567430025
 42
50.0
 43
0.0
 44
0.0
 50
0.0
 51
0.0
 71
     0
 72
   500
 73
     1
 74
     1
 75
     0
 76
     0
 77
     0
 78
     0
  0
ENDTAB
  0
TABLE
  2
LTYPE
 70
     3
  0
LTYPE
  2
CONTINUOUS
 70
     0
  3
Solid line
 72
    65
 73
     0
 40
0.0
  0
LTYPE
  2
PHANTOM2
 70
     0
  3
Phantom (.5x) ___ _ _ ___ _ _ ___ _ _ ___ _ _
 72
    65
 73
     6
 40
31.75
 49
15.875
 49
-3.174999999999998
 49
3.174999999999998
 49
-3.174999999999998
 49
3.174999999999998
 49
-3.174999999999998
  0
LTYPE
  2
CENTER2
 70
     0
  3
Center (.5x) ___ _ ___ _ ___ _ ___ _ ___ _ ___
 72
    65
 73
     4
 40
28.575
 49
19.05
 49
-3.174999999999998
 49
3.174999999999998
 49
-3.174999999999998
  0
ENDTAB
  0
TABLE
  2
LAYER
 70
    11
  0
LAYER
  2
0
 70
     0
 62
     7
  6
CONTINUOUS
  0
LAYER
  2
DEFPOINTS
 70
     0
 62
     7
  6
CONTINUOUS
  0
LAYER
  2
回04-下接
 70
     0
 62
     7
  6
CONTINUOUS
  0
LAYER
  2
回05-ﾃｰﾙ
 70
     0
 62
     7
  6
CONTINUOUS
  0
LAYER
  2
回07-寸法
 70
     0
 62
     7
  6
CONTINUOUS
  0
LAYER
  2
回08-記事
 70
     0
 62
     7
  6
CONTINUOUS
  0
LAYER
  2
回03-下ER
 70
     0
 62
     7
  6
CONTINUOUS
  0
LAYER
  2
回01-上ER
 70
     0
 62
     7
  6
CONTINUOUS
  0
LAYER
  2
回90-枠2
 70
     0
 62
     7
  6
CONTINUOUS
  0
LAYER
  2
回04-図面枠
 70
     0
 62
     7
  6
CONTINUOUS
  0
LAYER
  2
回03-記事
 70
     0
 62
     7
  6
CONTINUOUS
  0
ENDTAB
  0
TABLE
  2
STYLE
 70
     1
  0
STYLE
  2
STANDARD
 70
     0
 40
4.0
 41
1.0
 50
0.0
 71
     0
 42
4.0
  3
isocp.shx
  4
bigfont.shx
  0
ENDTAB
  0
TABLE
  2
VIEW
 70
     0
  0
ENDTAB
  0
TABLE
  2
UCS
 70
     0
  0
ENDTAB
  0
TABLE
  2
APPID
 70
     7
  0
APPID
  2
ACAD
 70
     0
  0
APPID
  2
ACAD_PSEXT
 70
     0
  0
APPID
  2
ACAECLAYERSTANDARD
 70
     0
  0
APPID
  2
GRADIENTCOLOR1ACI
 70
     0
  0
APPID
  2
GRADIENTCOLOR2ACI
 70
     0
  0
APPID
  2
ACAD_NAV_VCDISPLAY
 70
     0
  0
APPID
  2
ACAD_MLEADERVER
 70
     0
  0
ENDTAB
  0
TABLE
  2
DIMSTYLE
 70
     2
  0
DIMSTYLE
  2
DMC
 70
     0
  3

  4

  5
OPEN
  6

  7

 40
1.0
 41
2.0
 42
0.0
 43
0.0
 44
1.0
 45
0.0
 46
0.0
 47
0.0
 48
0.0
140
3.0
141
2.0
142
0.0
143
0.03937007874016
144
1.0
145
0.0
146
0.7
147
0.5
 71
     0
 72
     0
 73
     0
 74
     0
 75
     0
 76
     0
 77
     3
 78
     8
170
     0
171
     3
172
     1
173
     0
174
     0
175
     0
176
     5
177
     5
178
     5
  0
DIMSTYLE
  2
STANDARD
 70
     0
  3

  4

  5

  6

  7

 40
1.0
 41
0.18
 42
0.0625
 43
0.38
 44
0.18
 45
0.0
 46
0.0
 47
0.0
 48
0.0
140
0.18
141
0.09
142
0.0
143
25.4
144
1.0
145
0.0
146
1.0
147
0.09
 71
     0
 72
     0
 73
     1
 74
     1
 75
     0
 76
     0
 77
     0
 78
     0
170
     0
171
     2
172
     0
173
     0
174
     0
175
     0
176
     0
177
     0
178
     0
  0
ENDTAB
  0
ENDSEC
  0
SECTION
  2
BLOCKS
  0
BLOCK
  8
0
  2
$MODEL_SPACE
 70
     0
 10
0.0
 20
0.0
 30
0.0
  3
$MODEL_SPACE
  1

  0
ENDBLK
  8
0
  5
25
  0
BLOCK
 67
     1
  8
0
  2
$PAPER_SPACE
 70
     0
 10
0.0
 20
0.0
 30
0.0
  3
$PAPER_SPACE
  1

  0
ENDBLK
  5
2E
 67
     1
  8
0
  0
BLOCK
  8
0
  2
_OPEN
 70
     0
 10
0.0
 20
0.0
 30
0.0
  3
_OPEN
  1

  0
LINE
  5
18
  8
0
  6
CONTINUOUS
 62
     0
 10
-1.0
 20
0.1666666666666666
 30
0.0
 11
0.0
 21
0.0
 31
0.0
  0
LINE
  5
19
  8
0
  6
CONTINUOUS
 62
     0
 10
-1.0
 20
-0.1666666666666666
 30
0.0
 11
0.0
 21
0.0
 31
0.0
  0
LINE
  5
1A
  8
0
  6
CONTINUOUS
 62
     0
 10
0.0
 20
0.0
 30
0.0
 11
-1.0
 21
0.0
 31
0.0
  0
ENDBLK
  5
1B
  8
0
  0
BLOCK
  8
0
  2
*D1
 70
     1
 10
0.0
 20
0.0
 30
0.0
  3
*D1
  1

  0
LINE
  5
35D
  8
回07-寸法
  6
CONTINUOUS
 62
     5
 10
1725.051502394938
 20
-219.7084098246205
 30
0.0
 11
1725.051502394938
 21
-207.7030344681712
 31
0.0
  0
LINE
  5
35E
  8
回07-寸法
  6
CONTINUOUS
 62
     5
 10
1745.944686613909
 20
-219.2084098246205
 30
0.0
 11
1745.944686613909
 21
-207.7030344681712
 31
0.0
  0
LINE
  5
35F
  8
回07-寸法
  6
CONTINUOUS
 62
     5
 10
1726.551502394938
 20
-208.7030344681712
 30
0.0
 11
1744.444686613909
 21
-208.7030344681712
 31
0.0
  0
INSERT
  5
360
  8
回07-寸法
  6
CONTINUOUS
 62
     5
  2
_OPEN
 10
1725.051502394938
 20
-208.7030344681712
 30
0.0
 41
1.5
 42
1.5
 43
1.5
 50
180.0
  0
INSERT
  5
361
  8
回07-寸法
  6
CONTINUOUS
 62
     5
  2
_OPEN
 10
1745.944686613909
 20
-208.7030344681712
 30
0.0
 41
1.5
 42
1.5
 43
1.5
  0
INSERT
  5
362
  8
回07-寸法
  6
CONTINUOUS
 62
     5
 66
     1
  2
*X48
 10
0.0
 20
0.0
 30
0.0
  0
SEQEND
  5
5C4
  8
回04-下接
  6
CONTINUOUS
 62
     5
  0
POINT
  5
363
  8
DEFPOINTS
  6
CONTINUOUS
 62
     0
 10
1725.051502394938
 20
-219.7084098246205
 30
0.0
  0
POINT
  5
364
  8
DEFPOINTS
  6
CONTINUOUS
 62
     0
 10
1745.944686613909
 20
-219.2084098246205
 30
0.0
  0
POINT
  5
365
  8
DEFPOINTS
  6
CONTINUOUS
 62
     0
 10
1745.944686613909
 20
-208.7030344681712
 30
0.0
  0
ENDBLK
  5
366
  8
0
 62
     7
  0
BLOCK
  8
0
  2
*D2
 70
     1
 10
0.0
 20
0.0
 30
0.0
  3
*D2
  1

  0
LINE
  5
349
  8
回07-寸法
  6
CONTINUOUS
 62
     5
 10
1731.551502394938
 20
-389.8084340100272
 30
0.0
 11
1736.306562863824
 21
-389.8084340100272
 31
0.0
  0
LINE
  5
34A
  8
回07-寸法
  6
CONTINUOUS
 62
     5
 10
1731.551502394938
 20
-399.8084340100271
 30
0.0
 11
1736.306562863824
 21
-399.8084340100271
 31
0.0
  0
LINE
  5
34B
  8
回07-寸法
  6
CONTINUOUS
 62
     5
 10
1735.306562863824
 20
-391.3084340100271
 30
0.0
 11
1735.306562863824
 21
-398.3084340100272
 31
0.0
  0
INSERT
  5
34C
  8
回07-寸法
  6
CONTINUOUS
 62
     5
  2
_OPEN
 10
1735.306562863824
 20
-389.8084340100272
 30
0.0
 41
1.5
 42
1.5
 43
1.5
 50
90.0
  0
INSERT
  5
34D
  8
回07-寸法
  6
CONTINUOUS
 62
     5
  2
_OPEN
 10
1735.306562863824
 20
-399.8084340100271
 30
0.0
 41
1.5
 42
1.5
 43
1.5
 50
270.0
  0
TEXT
  5
34E
  8
回07-寸法
  6
CONTINUOUS
 62
     5
 10
1734.673228863824
 20
-397.4751140100273
 30
0.0
 40
2.666679999999999
  1
(10)
 50
90.0
1001
ACAD
1000
MTEXTBEGIN
1070
    73
1070
     1
1070
    44
1040
1.0
1070
    74
1070
     0
1000
MTEXTEND
  0
POINT
  5
34F
  8
DEFPOINTS
  6
CONTINUOUS
 62
     0
 10
1731.551502394938
 20
-389.8084340100272
 30
0.0
  0
POINT
  5
350
  8
DEFPOINTS
  6
CONTINUOUS
 62
     0
 10
1731.551502394938
 20
-399.8084340100271
 30
0.0
  0
POINT
  5
351
  8
DEFPOINTS
  6
CONTINUOUS
 62
     0
 10
1735.306562863824
 20
-399.8084340100271
 30
0.0
  0
ENDBLK
  5
352
  8
0
 62
     7
  0
BLOCK
  8
0
  2
*D3
 70
     1
 10
0.0
 20
0.0
 30
0.0
  3
*D3
  1

  0
LINE
  5
33A
  8
回07-寸法
  6
CONTINUOUS
 62
     5
 10
1731.551502394938
 20
-399.8084340100271
 30
0.0
 11
1731.551502394938
 21
-411.2308187365612
 31
0.0
  0
LINE
  5
33B
  8
回07-寸法
  6
CONTINUOUS
 62
     5
 10
1729.051502394938
 20
-399.8084340100271
 30
0.0
 11
1729.051502394938
 21
-411.2308187365612
 31
0.0
  0
LINE
  5
33C
  8
回07-寸法
  6
CONTINUOUS
 62
     5
 10
1727.551502394938
 20
-410.2308187365612
 30
0.0
 11
1710.981646788639
 21
-410.2308187365612
 31
0.0
  0
LINE
  5
33D
  8
回07-寸法
  6
CONTINUOUS
 62
     5
 10
1731.551502394938
 20
-410.2308187365612
 30
0.0
 11
1729.051502394938
 21
-410.2308187365612
 31
0.0
  0
LINE
  5
33E
  8
回07-寸法
  6
CONTINUOUS
 62
     5
 10
1733.051502394938
 20
-410.2308187365612
 30
0.0
 11
1734.551502394938
 21
-410.2308187365612
 31
0.0
  0
INSERT
  5
33F
  8
回07-寸法
  6
CONTINUOUS
 62
     5
  2
_OPEN
 10
1731.551502394938
 20
-410.2308187365612
 30
0.0
 41
1.5
 42
1.5
 43
1.5
 50
180.0
  0
INSERT
  5
340
  8
回07-寸法
  6
CONTINUOUS
 62
     5
  2
_OPEN
 10
1729.051502394938
 20
-410.2308187365612
 30
0.0
 41
1.5
 42
1.5
 43
1.5
  0
INSERT
  5
341
  8
回07-寸法
  6
CONTINUOUS
 62
     5
 66
     1
  2
*X49
 10
0.0
 20
0.0
 30
0.0
  0
SEQEND
  5
5CA
  8
回04-下接
  6
CONTINUOUS
 62
     5
  0
POINT
  5
342
  8
DEFPOINTS
  6
CONTINUOUS
 62
     0
 10
1731.551502394938
 20
-399.8084340100271
 30
0.0
  0
POINT
  5
343
  8
DEFPOINTS
  6
CONTINUOUS
 62
     0
 10
1729.051502394938
 20
-399.8084340100271
 30
0.0
  0
POINT
  5
344
  8
DEFPOINTS
  6
CONTINUOUS
 62
     0
 10
1729.051502394938
 20
-410.2308187365612
 30
0.0
  0
ENDBLK
  5
345
  8
0
 62
     7
  0
BLOCK
  8
0
  2
*D4
 70
     1
 10
0.0
 20
0.0
 30
0.0
  3
*D4
  1

  0
LINE
  5
3A2
  8
回07-寸法
  6
CONTINUOUS
 62
     5
 10
1729.051502394938
 20
-399.8084340100271
 30
0.0
 11
1720.185784413313
 21
-399.8084340100271
 31
0.0
  0
LINE
  5
3A3
  8
回07-寸法
  6
CONTINUOUS
 62
     5
 10
1728.351502394938
 20
-394.8084340100272
 30
0.0
 11
1720.185784413313
 21
-394.8084340100272
 31
0.0
  0
LINE
  5
3A4
  8
回07-寸法
  6
CONTINUOUS
 62
     5
 10
1721.185784413313
 20
-398.3084340100272
 30
0.0
 11
1721.185784413313
 21
-396.3084340100272
 31
0.0
  0
INSERT
  5
3A5
  8
回07-寸法
  6
CONTINUOUS
 62
     5
  2
_OPEN
 10
1721.185784413313
 20
-399.8084340100271
 30
0.0
 41
1.5
 42
1.5
 43
1.5
 50
270.0
  0
INSERT
  5
3A6
  8
回07-寸法
  6
CONTINUOUS
 62
     5
  2
_OPEN
 10
1721.185784413313
 20
-394.8084340100272
 30
0.0
 41
1.5
 42
1.5
 43
1.5
 50
90.0
  0
TEXT
  5
3A7
  8
回07-寸法
  6
CONTINUOUS
 62
     5
 10
1720.685784413313
 20
-398.7084340100269
 30
0.0
 40
4.0
  1
5
 50
90.0
1001
ACAD
1000
MTEXTBEGIN
1070
    73
1070
     1
1070
    44
1040
1.0
1070
    74
1070
     0
1000
MTEXTEND
  0
POINT
  5
3A8
  8
DEFPOINTS
  6
CONTINUOUS
 62
     0
 10
1729.051502394938
 20
-399.8084340100271
 30
0.0
  0
POINT
  5
3A9
  8
DEFPOINTS
  6
CONTINUOUS
 62
     0
 10
1728.351502394938
 20
-394.8084340100272
 30
0.0
  0
POINT
  5
3AA
  8
DEFPOINTS
  6
CONTINUOUS
 62
     0
 10
1721.185784413313
 20
-394.8084340100272
 30
0.0
  0
ENDBLK
  5
3AB
  8
0
 62
     7
  0
BLOCK
  8
0
  2
*D5
 70
     1
 10
0.0
 20
0.0
 30
0.0
  3
*D5
  1

  0
LINE
  5
395
  8
回07-寸法
  6
CONTINUOUS
 62
     5
 10
1738.944686613909
 20
-399.8084340100271
 30
0.0
 11
1749.060325204598
 21
-399.8084340100271
 31
0.0
  0
LINE
  5
396
  8
回07-寸法
  6
CONTINUOUS
 62
     5
 10
1739.644686613909
 20
-394.8084340100272
 30
0.0
 11
1749.060325204598
 21
-394.8084340100272
 31
0.0
  0
LINE
  5
397
  8
回07-寸法
  6
CONTINUOUS
 62
     5
 10
1748.060325204598
 20
-398.3084340100272
 30
0.0
 11
1748.060325204598
 21
-396.3084340100272
 31
0.0
  0
INSERT
  5
398
  8
回07-寸法
  6
CONTINUOUS
 62
     5
  2
_OPEN
 10
1748.060325204598
 20
-399.8084340100271
 30
0.0
 41
1.5
 42
1.5
 43
1.5
 50
270.0
  0
INSERT
  5
399
  8
回07-寸法
  6
CONTINUOUS
 62
     5
  2
_OPEN
 10
1748.060325204598
 20
-394.8084340100272
 30
0.0
 41
1.5
 42
1.5
 43
1.5
 50
90.0
  0
TEXT
  5
39A
  8
回07-寸法
  6
CONTINUOUS
 62
     5
 10
1747.560325204598
 20
-398.7084340100271
 30
0.0
 40
4.0
  1
5
 50
90.0
1001
ACAD
1000
MTEXTBEGIN
1070
    73
1070
     1
1070
    44
1040
1.0
1070
    74
1070
     0
1000
MTEXTEND
  0
POINT
  5
39B
  8
DEFPOINTS
  6
CONTINUOUS
 62
     0
 10
1738.944686613909
 20
-399.8084340100271
 30
0.0
  0
POINT
  5
39C
  8
DEFPOINTS
  6
CONTINUOUS
 62
     0
 10
1739.644686613909
 20
-394.8084340100272
 30
0.0
  0
POINT
  5
39D
  8
DEFPOINTS
  6
CONTINUOUS
 62
     0
 10
1748.060325204598
 20
-394.8084340100272
 30
0.0
  0
ENDBLK
  5
39E
  8
0
 62
     7
  0
BLOCK
  8
0
  2
*D6
 70
     1
 10
0.0
 20
0.0
 30
0.0
  3
*D6
  1

  0
LINE
  5
386
  8
回07-寸法
  6
CONTINUOUS
 62
     5
 10
1736.444686613908
 20
-399.8084340100271
 30
0.0
 11
1736.444686613908
 21
-417.5360589077536
 31
0.0
  0
LINE
  5
387
  8
回07-寸法
  6
CONTINUOUS
 62
     5
 10
1738.944686613909
 20
-399.8084340100271
 30
0.0
 11
1738.944686613909
 21
-417.5360589077536
 31
0.0
  0
LINE
  5
388
  8
回07-寸法
  6
CONTINUOUS
 62
     5
 10
1740.444686613909
 20
-416.5360589077536
 30
0.0
 11
1757.014542220208
 21
-416.5360589077536
 31
0.0
  0
LINE
  5
389
  8
回07-寸法
  6
CONTINUOUS
 62
     5
 10
1736.444686613908
 20
-416.5360589077536
 30
0.0
 11
1738.944686613909
 21
-416.5360589077536
 31
0.0
  0
LINE
  5
38A
  8
回07-寸法
  6
CONTINUOUS
 62
     5
 10
1734.944686613908
 20
-416.5360589077536
 30
0.0
 11
1733.444686613909
 21
-416.5360589077536
 31
0.0
  0
INSERT
  5
38B
  8
回07-寸法
  6
CONTINUOUS
 62
     5
  2
_OPEN
 10
1736.444686613908
 20
-416.5360589077536
 30
0.0
 41
1.5
 42
1.5
 43
1.5
  0
INSERT
  5
38C
  8
回07-寸法
  6
CONTINUOUS
 62
     5
  2
_OPEN
 10
1738.944686613909
 20
-416.5360589077536
 30
0.0
 41
1.5
 42
1.5
 43
1.5
 50
180.0
  0
INSERT
  5
38D
  8
回07-寸法
  6
CONTINUOUS
 62
     5
 66
     1
  2
*X50
 10
0.0
 20
0.0
 30
0.0
  0
SEQEND
  5
5D0
  8
回04-下接
  6
CONTINUOUS
 62
     5
  0
POINT
  5
38E
  8
DEFPOINTS
  6
CONTINUOUS
 62
     0
 10
1736.444686613908
 20
-399.8084340100271
 30
0.0
  0
POINT
  5
38F
  8
DEFPOINTS
  6
CONTINUOUS
 62
     0
 10
1738.944686613909
 20
-399.8084340100271
 30
0.0
  0
POINT
  5
390
  8
DEFPOINTS
  6
CONTINUOUS
 62
     0
 10
1738.944686613909
 20
-416.5360589077536
 30
0.0
  0
ENDBLK
  5
391
  8
0
 62
     7
  0
BLOCK
  8
0
  2
*D7
 70
     1
 10
0.0
 20
0.0
 30
0.0
  3
*D7
  1

  0
LINE
  5
165
  8
回07-寸法
  6
CONTINUOUS
 62
     5
 10
1569.309876887714
 20
-399.8084098246209
 30
0.0
 11
1529.820979327534
 21
-399.8084098246209
 31
0.0
  0
LINE
  5
166
  8
回07-寸法
  6
CONTINUOUS
 62
     5
 10
1562.061002203163
 20
-329.8084098246205
 30
0.0
 11
1529.820979327534
 21
-329.8084098246205
 31
0.0
  0
LINE
  5
167
  8
回07-寸法
  6
CONTINUOUS
 62
     5
 10
1530.820979327534
 20
-398.3084098246209
 30
0.0
 11
1530.820979327534
 21
-331.3084098246205
 31
0.0
  0
INSERT
  5
168
  8
回07-寸法
  6
CONTINUOUS
 62
     5
  2
_OPEN
 10
1530.820979327534
 20
-399.8084098246209
 30
0.0
 41
1.5
 42
1.5
 43
1.5
 50
270.0
  0
INSERT
  5
169
  8
回07-寸法
  6
CONTINUOUS
 62
     5
  2
_OPEN
 10
1530.820979327534
 20
-329.8084098246205
 30
0.0
 41
1.5
 42
1.5
 43
1.5
 50
90.0
  0
INSERT
  5
16A
  8
回07-寸法
  6
CONTINUOUS
 62
     5
 66
     1
  2
*X51
 10
0.0
 20
0.0
 30
0.0
  0
SEQEND
  5
5D6
  8
回04-下接
  6
CONTINUOUS
 62
     5
  0
POINT
  5
16B
  8
DEFPOINTS
  6
CONTINUOUS
 62
     0
 10
1569.309876887714
 20
-399.8084098246209
 30
0.0
  0
POINT
  5
16C
  8
DEFPOINTS
  6
CONTINUOUS
 62
     0
 10
1562.061002203163
 20
-329.8084098246205
 30
0.0
  0
POINT
  5
16D
  8
DEFPOINTS
  6
CONTINUOUS
 62
     0
 10
1530.820979327534
 20
-329.8084098246205
 30
0.0
  0
ENDBLK
  5
16E
  8
0
 62
     7
  0
BLOCK
  8
0
  2
*D8
 70
     1
 10
0.0
 20
0.0
 30
0.0
  3
*D8
  1

  0
LINE
  5
158
  8
回07-寸法
  6
CONTINUOUS
 62
     5
 10
1602.561002203163
 20
-329.8083614538082
 30
0.0
 11
1638.916336931114
 21
-329.8083614538082
 31
0.0
  0
LINE
  5
159
  8
回07-寸法
  6
CONTINUOUS
 62
     5
 10
1598.209876887715
 20
-399.8084098246211
 30
0.0
 11
1638.916336931114
 21
-399.8084098246211
 31
0.0
  0
LINE
  5
15A
  8
回07-寸法
  6
CONTINUOUS
 62
     5
 10
1637.916336931114
 20
-331.3083614538082
 30
0.0
 11
1637.916336931114
 21
-398.3084098246211
 31
0.0
  0
INSERT
  5
15B
  8
回07-寸法
  6
CONTINUOUS
 62
     5
  2
_OPEN
 10
1637.916336931114
 20
-329.8083614538082
 30
0.0
 41
1.5
 42
1.5
 43
1.5
 50
90.0
  0
INSERT
  5
15C
  8
回07-寸法
  6
CONTINUOUS
 62
     5
  2
_OPEN
 10
1637.916336931114
 20
-399.8084098246211
 30
0.0
 41
1.5
 42
1.5
 43
1.5
 50
270.0
  0
INSERT
  5
15D
  8
回07-寸法
  6
CONTINUOUS
 62
     5
 66
     1
  2
*X52
 10
0.0
 20
0.0
 30
0.0
  0
SEQEND
  5
5DC
  8
回04-下接
  6
CONTINUOUS
 62
     5
  0
POINT
  5
15E
  8
DEFPOINTS
  6
CONTINUOUS
 62
     0
 10
1602.561002203163
 20
-329.8083614538082
 30
0.0
  0
POINT
  5
15F
  8
DEFPOINTS
  6
CONTINUOUS
 62
     0
 10
1598.209876887715
 20
-399.8084098246211
 30
0.0
  0
POINT
  5
160
  8
DEFPOINTS
  6
CONTINUOUS
 62
     0
 10
1637.916336931114
 20
-399.8084098246211
 30
0.0
  0
ENDBLK
  5
161
  8
0
 62
     7
  0
BLOCK
  8
0
  2
*D9
 70
     1
 10
0.0
 20
0.0
 30
0.0
  3
*D9
  1

  0
LINE
  5
149
  8
回07-寸法
  6
CONTINUOUS
 62
     5
 10
1568.809876887714
 20
-399.7084098246208
 30
0.0
 11
1568.809876887714
 21
-424.513841040837
 31
0.0
  0
LINE
  5
14A
  8
回07-寸法
  6
CONTINUOUS
 62
     5
 10
1578.309876887714
 20
-399.708409824621
 30
0.0
 11
1578.309876887714
 21
-424.513841040837
 31
0.0
  0
LINE
  5
14B
  8
回07-寸法
  6
CONTINUOUS
 62
     5
 10
1567.309876887714
 20
-423.513841040837
 30
0.0
 11
1552.787034175239
 21
-423.513841040837
 31
0.0
  0
LINE
  5
14C
  8
回07-寸法
  6
CONTINUOUS
 62
     5
 10
1568.809876887714
 20
-423.513841040837
 30
0.0
 11
1578.309876887714
 21
-423.513841040837
 31
0.0
  0
LINE
  5
14D
  8
回07-寸法
  6
CONTINUOUS
 62
     5
 10
1579.809876887714
 20
-423.513841040837
 30
0.0
 11
1581.309876887714
 21
-423.513841040837
 31
0.0
  0
INSERT
  5
14E
  8
回07-寸法
  6
CONTINUOUS
 62
     5
  2
_OPEN
 10
1568.809876887714
 20
-423.513841040837
 30
0.0
 41
1.5
 42
1.5
 43
1.5
  0
INSERT
  5
14F
  8
回07-寸法
  6
CONTINUOUS
 62
     5
  2
_OPEN
 10
1578.309876887714
 20
-423.513841040837
 30
0.0
 41
1.5
 42
1.5
 43
1.5
 50
180.0
  0
INSERT
  5
150
  8
回07-寸法
  6
CONTINUOUS
 62
     5
 66
     1
  2
*X53
 10
0.0
 20
0.0
 30
0.0
  0
SEQEND
  5
5E2
  8
回04-下接
  6
CONTINUOUS
 62
     5
  0
POINT
  5
151
  8
DEFPOINTS
  6
CONTINUOUS
 62
     0
 10
1568.809876887714
 20
-399.7084098246208
 30
0.0
  0
POINT
  5
152
  8
DEFPOINTS
  6
CONTINUOUS
 62
     0
 10
1578.309876887714
 20
-399.708409824621
 30
0.0
  0
POINT
  5
153
  8
DEFPOINTS
  6
CONTINUOUS
 62
     0
 10
1578.309876887714
 20
-423.513841040837
 30
0.0
  0
ENDBLK
  5
154
  8
0
 62
     7
  0
BLOCK
  8
0
  2
*D10
 70
     1
 10
0.0
 20
0.0
 30
0.0
  3
*D10
  1

  0
LINE
  5
13C
  8
回07-寸法
  6
CONTINUOUS
 62
     5
 10
1515.211002393539
 20
-329.8084098246207
 30
0.0
 11
1515.211002393539
 21
-436.5957450427674
 31
0.0
  0
LINE
  5
13D
  8
回07-寸法
  6
CONTINUOUS
 62
     5
 10
1589.809876887715
 20
-399.708409824621
 30
0.0
 11
1589.809876887715
 21
-436.5957450427674
 31
0.0
  0
LINE
  5
13E
  8
回07-寸法
  6
CONTINUOUS
 62
     5
 10
1516.711002393539
 20
-435.5957450427674
 30
0.0
 11
1588.309876887715
 21
-435.5957450427674
 31
0.0
  0
INSERT
  5
13F
  8
回07-寸法
  6
CONTINUOUS
 62
     5
  2
_OPEN
 10
1515.211002393539
 20
-435.5957450427674
 30
0.0
 41
1.5
 42
1.5
 43
1.5
 50
180.0
  0
INSERT
  5
140
  8
回07-寸法
  6
CONTINUOUS
 62
     5
  2
_OPEN
 10
1589.809876887715
 20
-435.5957450427674
 30
0.0
 41
1.5
 42
1.5
 43
1.5
  0
TEXT
  5
141
  8
回07-寸法
  6
CONTINUOUS
 62
     5
 10
1545.910439640627
 20
-434.8957450427675
 30
0.0
 40
4.0
  1
(74.6)
1001
ACAD
1000
MTEXTBEGIN
1070
    73
1070
     1
1070
    44
1040
1.0
1070
    74
1070
     0
1000
MTEXTEND
  0
POINT
  5
142
  8
DEFPOINTS
  6
CONTINUOUS
 62
     0
 10
1515.211002393539
 20
-329.8084098246207
 30
0.0
  0
POINT
  5
143
  8
DEFPOINTS
  6
CONTINUOUS
 62
     0
 10
1589.809876887715
 20
-399.708409824621
 30
0.0
  0
POINT
  5
144
  8
DEFPOINTS
  6
CONTINUOUS
 62
     0
 10
1589.809876887715
 20
-435.5957450427674
 30
0.0
  0
ENDBLK
  5
145
  8
0
 62
     7
  0
BLOCK
  8
0
  2
*D11
 70
     1
 10
0.0
 20
0.0
 30
0.0
  3
*D11
  1

  0
LINE
  5
12D
  8
回07-寸法
  6
CONTINUOUS
 62
     5
 10
1589.809876887715
 20
-399.708409824621
 30
0.0
 11
1589.809876887715
 21
-436.5957450427674
 31
0.0
  0
LINE
  5
12E
  8
回07-寸法
  6
CONTINUOUS
 62
     5
 10
1598.309876887715
 20
-399.708409824621
 30
0.0
 11
1598.309876887715
 21
-436.5957450427674
 31
0.0
  0
LINE
  5
12F
  8
回07-寸法
  6
CONTINUOUS
 62
     5
 10
1599.809876887715
 20
-435.5957450427674
 30
0.0
 11
1614.249876887715
 21
-435.5957450427674
 31
0.0
  0
LINE
  5
130
  8
回07-寸法
  6
CONTINUOUS
 62
     5
 10
1589.809876887715
 20
-435.5957450427674
 30
0.0
 11
1598.309876887715
 21
-435.5957450427674
 31
0.0
  0
LINE
  5
131
  8
回07-寸法
  6
CONTINUOUS
 62
     5
 10
1588.309876887715
 20
-435.5957450427674
 30
0.0
 11
1586.809876887715
 21
-435.5957450427674
 31
0.0
  0
INSERT
  5
132
  8
回07-寸法
  6
CONTINUOUS
 62
     5
  2
_OPEN
 10
1589.809876887715
 20
-435.5957450427674
 30
0.0
 41
1.5
 42
1.5
 43
1.5
  0
INSERT
  5
133
  8
回07-寸法
  6
CONTINUOUS
 62
     5
  2
_OPEN
 10
1598.309876887715
 20
-435.5957450427674
 30
0.0
 41
1.5
 42
1.5
 43
1.5
 50
180.0
  0
INSERT
  5
134
  8
回07-寸法
  6
CONTINUOUS
 62
     5
 66
     1
  2
*X54
 10
0.0
 20
0.0
 30
0.0
  0
SEQEND
  5
5E8
  8
回04-下接
  6
CONTINUOUS
 62
     5
  0
POINT
  5
135
  8
DEFPOINTS
  6
CONTINUOUS
 62
     0
 10
1589.809876887715
 20
-399.708409824621
 30
0.0
  0
POINT
  5
136
  8
DEFPOINTS
  6
CONTINUOUS
 62
     0
 10
1598.309876887715
 20
-399.708409824621
 30
0.0
  0
POINT
  5
137
  8
DEFPOINTS
  6
CONTINUOUS
 62
     0
 10
1598.309876887715
 20
-435.5957450427674
 30
0.0
  0
ENDBLK
  5
138
  8
0
 62
     7
  0
BLOCK
  8
0
  2
*D12
 70
     1
 10
0.0
 20
0.0
 30
0.0
  3
*D12
  1

  0
LINE
  5
11C
  8
回07-寸法
  6
CONTINUOUS
 62
     5
 10
1562.137122670653
 20
-332.7084098246209
 30
0.0
 11
1557.649840483267
 21
-332.7084098246209
 31
0.0
  0
LINE
  5
11D
  8
回07-寸法
  6
CONTINUOUS
 62
     5
 10
1562.061002203164
 20
-329.8084098246208
 30
0.0
 11
1557.649840483267
 21
-329.8084098246208
 31
0.0
  0
LINE
  5
11E
  8
回07-寸法
  6
CONTINUOUS
 62
     5
 10
1558.649840483267
 20
-328.8084098246208
 30
0.0
 11
1558.649840483267
 21
-327.8084098246208
 31
0.0
  0
LINE
  5
11F
  8
回07-寸法
  6
CONTINUOUS
 62
     5
 10
1558.649840483267
 20
-333.7084098246208
 30
0.0
 11
1558.649840483267
 21
-349.3429700839044
 31
0.0
  0
LINE
  5
120
  8
回07-寸法
  6
CONTINUOUS
 62
     5
 10
1558.649840483267
 20
-329.8084098246208
 30
0.0
 11
1558.649840483267
 21
-332.7084098246209
 31
0.0
  0
INSERT
  5
121
  8
回07-寸法
  6
CONTINUOUS
 62
     5
 66
     1
  2
_OPEN
 10
1558.649840483267
 20
-329.8084098246208
 30
0.0
 50
270.0
  0
SEQEND
  5
122
  8
回04-下接
  6
CONTINUOUS
 62
     5
  0
INSERT
  5
123
  8
回07-寸法
  6
CONTINUOUS
 62
     5
 66
     1
  2
_OPEN
 10
1558.649840483267
 20
-332.7084098246209
 30
0.0
 50
90.0
  0
SEQEND
  5
124
  8
回04-下接
  6
CONTINUOUS
 62
     5
  0
TEXT
  5
125
  8
回07-寸法
  6
CONTINUOUS
 62
     5
 10
1558.149446782479
 20
-349.2562164613803
 30
0.0
 40
4.0
  1
2.9
 50
90.0
1001
ACAD
1000
MTEXTBEGIN
1070
    73
1070
     1
1070
    44
1040
1.0
1070
    74
1070
     0
1000
MTEXTEND
  0
POINT
  5
126
  8
DEFPOINTS
  6
CONTINUOUS
 62
     0
 10
1562.137122670653
 20
-332.7084098246209
 30
0.0
  0
POINT
  5
127
  8
DEFPOINTS
  6
CONTINUOUS
 62
     0
 10
1562.061002203164
 20
-329.8084098246208
 30
0.0
  0
POINT
  5
128
  8
DEFPOINTS
  6
CONTINUOUS
 62
     0
 10
1558.649840483267
 20
-329.8084098246208
 30
0.0
  0
ENDBLK
  5
129
  8
0
 62
     7
  0
BLOCK
  8
0
  2
*D13
 70
     1
 10
0.0
 20
0.0
 30
0.0
  3
*D13
  1

  0
LINE
  5
10B
  8
回07-寸法
  6
CONTINUOUS
 62
     5
 10
1568.733756420226
 20
-339.5203447691878
 30
0.0
 11
1552.095379444242
 21
-339.5203447691878
 31
0.0
  0
LINE
  5
10C
  8
回07-寸法
  6
CONTINUOUS
 62
     5
 10
1562.061002203164
 20
-329.8084098246208
 30
0.0
 11
1552.095379444242
 21
-329.8084098246208
 31
0.0
  0
LINE
  5
10D
  8
回07-寸法
  6
CONTINUOUS
 62
     5
 10
1553.095379444242
 20
-328.8084098246208
 30
0.0
 11
1553.095379444242
 21
-327.8084098246208
 31
0.0
  0
LINE
  5
10E
  8
回07-寸法
  6
CONTINUOUS
 62
     5
 10
1553.095379444242
 20
-340.5203447691878
 30
0.0
 11
1553.095379444242
 21
-351.1993832808252
 31
0.0
  0
LINE
  5
10F
  8
回07-寸法
  6
CONTINUOUS
 62
     5
 10
1553.095379444242
 20
-329.8084098246208
 30
0.0
 11
1553.095379444242
 21
-339.5203447691878
 31
0.0
  0
INSERT
  5
110
  8
回07-寸法
  6
CONTINUOUS
 62
     5
 66
     1
  2
_OPEN
 10
1553.095379444242
 20
-329.8084098246208
 30
0.0
 50
270.0
  0
SEQEND
  5
111
  8
回04-下接
  6
CONTINUOUS
 62
     5
  0
INSERT
  5
112
  8
回07-寸法
  6
CONTINUOUS
 62
     5
 66
     1
  2
_OPEN
 10
1553.095379444242
 20
-339.5203447691878
 30
0.0
 50
90.0
  0
SEQEND
  5
113
  8
回04-下接
  6
CONTINUOUS
 62
     5
  0
TEXT
  5
114
  8
回07-寸法
  6
CONTINUOUS
 62
     5
 10
1552.595379444242
 20
-351.2309820424587
 30
0.0
 40
4.0
  1
9.71
 50
90.0
1001
ACAD
1000
MTEXTBEGIN
1070
    73
1070
     1
1070
    44
1040
1.0
1070
    74
1070
     0
1000
MTEXTEND
  0
POINT
  5
115
  8
DEFPOINTS
  6
CONTINUOUS
 62
     0
 10
1568.733756420226
 20
-339.5203447691878
 30
0.0
  0
POINT
  5
116
  8
DEFPOINTS
  6
CONTINUOUS
 62
     0
 10
1562.061002203164
 20
-329.8084098246208
 30
0.0
  0
POINT
  5
117
  8
DEFPOINTS
  6
CONTINUOUS
 62
     0
 10
1553.095379444242
 20
-329.8084098246208
 30
0.0
  0
ENDBLK
  5
118
  8
0
 62
     7
  0
BLOCK
  8
0
  2
*D14
 70
     1
 10
0.0
 20
0.0
 30
0.0
  3
*D14
  1

  0
LINE
  5
FC
  8
回07-寸法
  6
CONTINUOUS
 62
     5
 10
1602.561002203163
 20
-329.8084098246205
 30
0.0
 11
1608.373674883085
 21
-329.8084098246205
 31
0.0
  0
LINE
  5
FD
  8
回07-寸法
  6
CONTINUOUS
 62
     5
 10
1602.484881735674
 20
-332.7084098246203
 30
0.0
 11
1608.373674883085
 21
-332.7084098246203
 31
0.0
  0
LINE
  5
FE
  8
回07-寸法
  6
CONTINUOUS
 62
     5
 10
1607.373674883085
 20
-334.2084098246203
 30
0.0
 11
1607.373674883085
 21
-345.5035792808313
 31
0.0
  0
LINE
  5
FF
  8
回07-寸法
  6
CONTINUOUS
 62
     5
 10
1607.373674883085
 20
-329.8084098246205
 30
0.0
 11
1607.373674883085
 21
-332.7084098246203
 31
0.0
  0
LINE
  5
100
  8
回07-寸法
  6
CONTINUOUS
 62
     5
 10
1607.373674883085
 20
-328.3084098246205
 30
0.0
 11
1607.373674883085
 21
-326.8084098246205
 31
0.0
  0
INSERT
  5
101
  8
回07-寸法
  6
CONTINUOUS
 62
     5
  2
_OPEN
 10
1607.373674883085
 20
-329.8084098246205
 30
0.0
 41
1.5
 42
1.5
 43
1.5
 50
270.0
  0
INSERT
  5
102
  8
回07-寸法
  6
CONTINUOUS
 62
     5
  2
_OPEN
 10
1607.373674883085
 20
-332.7084098246203
 30
0.0
 41
1.5
 42
1.5
 43
1.5
 50
90.0
  0
TEXT
  5
103
  8
回07-寸法
  6
CONTINUOUS
 62
     5
 10
1606.873674883085
 20
-345.6035792808311
 30
0.0
 40
4.0
  1
2.9
 50
90.0
1001
ACAD
1000
MTEXTBEGIN
1070
    73
1070
     1
1070
    44
1040
1.0
1070
    74
1070
     0
1000
MTEXTEND
  0
POINT
  5
104
  8
DEFPOINTS
  6
CONTINUOUS
 62
     0
 10
1602.561002203163
 20
-329.8084098246205
 30
0.0
  0
POINT
  5
105
  8
DEFPOINTS
  6
CONTINUOUS
 62
     0
 10
1602.484881735674
 20
-332.7084098246203
 30
0.0
  0
POINT
  5
106
  8
DEFPOINTS
  6
CONTINUOUS
 62
     0
 10
1607.373674883085
 20
-332.7084098246203
 30
0.0
  0
ENDBLK
  5
107
  8
0
 62
     7
  0
BLOCK
  8
0
  2
*D15
 70
     1
 10
0.0
 20
0.0
 30
0.0
  3
*D15
  1

  0
LINE
  5
ED
  8
回07-寸法
  6
CONTINUOUS
 62
     5
 10
1602.561002203163
 20
-329.8083614538084
 30
0.0
 11
1615.86321656839
 21
-329.8083614538084
 31
0.0
  0
LINE
  5
EE
  8
回07-寸法
  6
CONTINUOUS
 62
     5
 10
1598.385997355203
 20
-337.0225954000849
 30
0.0
 11
1615.86321656839
 21
-337.0225954000849
 31
0.0
  0
LINE
  5
EF
  8
回07-寸法
  6
CONTINUOUS
 62
     5
 10
1614.86321656839
 20
-338.5225954000849
 30
0.0
 11
1614.86321656839
 21
-348.6225954000848
 31
0.0
  0
LINE
  5
F0
  8
回07-寸法
  6
CONTINUOUS
 62
     5
 10
1614.86321656839
 20
-329.8083614538084
 30
0.0
 11
1614.86321656839
 21
-337.0225954000849
 31
0.0
  0
LINE
  5
F1
  8
回07-寸法
  6
CONTINUOUS
 62
     5
 10
1614.86321656839
 20
-328.3083614538085
 30
0.0
 11
1614.86321656839
 21
-326.8083614538085
 31
0.0
  0
INSERT
  5
F2
  8
回07-寸法
  6
CONTINUOUS
 62
     5
  2
_OPEN
 10
1614.86321656839
 20
-329.8083614538084
 30
0.0
 41
1.5
 42
1.5
 43
1.5
 50
270.0
  0
INSERT
  5
F3
  8
回07-寸法
  6
CONTINUOUS
 62
     5
  2
_OPEN
 10
1614.86321656839
 20
-337.0225954000849
 30
0.0
 41
1.5
 42
1.5
 43
1.5
 50
90.0
  0
TEXT
  5
F4
  8
回07-寸法
  6
CONTINUOUS
 62
     5
 10
1614.36321656839
 20
-348.7225954000846
 30
0.0
 40
4.0
  1
7.21
 50
90.0
1001
ACAD
1000
MTEXTBEGIN
1070
    73
1070
     1
1070
    44
1040
1.0
1070
    74
1070
     0
1000
MTEXTEND
  0
POINT
  5
F5
  8
DEFPOINTS
  6
CONTINUOUS
 62
     0
 10
1602.561002203163
 20
-329.8083614538084
 30
0.0
  0
POINT
  5
F6
  8
DEFPOINTS
  6
CONTINUOUS
 62
     0
 10
1598.385997355203
 20
-337.0225954000849
 30
0.0
  0
POINT
  5
F7
  8
DEFPOINTS
  6
CONTINUOUS
 62
     0
 10
1614.86321656839
 20
-337.0225954000849
 30
0.0
  0
ENDBLK
  5
F8
  8
0
 62
     7
  0
BLOCK
  8
0
  2
*D16
 70
     1
 10
0.0
 20
0.0
 30
0.0
  3
*D16
  1

  0
LINE
  5
E0
  8
回07-寸法
  6
CONTINUOUS
 62
     5
 10
1515.211002393539
 20
-329.8084098246207
 30
0.0
 11
1515.211002393539
 21
-424.513841040837
 31
0.0
  0
LINE
  5
E1
  8
回07-寸法
  6
CONTINUOUS
 62
     5
 10
1568.809876887714
 20
-399.7084098246208
 30
0.0
 11
1568.809876887714
 21
-424.513841040837
 31
0.0
  0
LINE
  5
E2
  8
回07-寸法
  6
CONTINUOUS
 62
     5
 10
1516.711002393539
 20
-423.513841040837
 30
0.0
 11
1567.309876887714
 21
-423.513841040837
 31
0.0
  0
INSERT
  5
E3
  8
回07-寸法
  6
CONTINUOUS
 62
     5
  2
_OPEN
 10
1515.211002393539
 20
-423.513841040837
 30
0.0
 41
1.5
 42
1.5
 43
1.5
 50
180.0
  0
INSERT
  5
E4
  8
回07-寸法
  6
CONTINUOUS
 62
     5
  2
_OPEN
 10
1568.809876887714
 20
-423.513841040837
 30
0.0
 41
1.5
 42
1.5
 43
1.5
  0
TEXT
  5
E5
  8
回07-寸法
  6
CONTINUOUS
 62
     5
 10
1527.385439545438
 20
-422.8138410408369
 30
0.0
 40
4.0
  1
(53.6)
1001
ACAD
1000
MTEXTBEGIN
1070
    73
1070
     1
1070
    44
1040
1.0
1070
    74
1070
     0
1000
MTEXTEND
  0
POINT
  5
E6
  8
DEFPOINTS
  6
CONTINUOUS
 62
     0
 10
1515.211002393539
 20
-329.8084098246207
 30
0.0
  0
POINT
  5
E7
  8
DEFPOINTS
  6
CONTINUOUS
 62
     0
 10
1568.809876887714
 20
-399.7084098246208
 30
0.0
  0
POINT
  5
E8
  8
DEFPOINTS
  6
CONTINUOUS
 62
     0
 10
1568.809876887714
 20
-423.513841040837
 30
0.0
  0
ENDBLK
  5
E9
  8
0
 62
     7
  0
BLOCK
  8
0
  2
*D17
 70
     1
 10
0.0
 20
0.0
 30
0.0
  3
*D17
  1

  0
LINE
  5
287
  8
回07-寸法
  6
CONTINUOUS
 62
     5
 10
1521.711002393539
 20
-318.6084098246206
 30
0.0
 11
1485.211002393539
 21
-318.6084098246206
 31
0.0
  0
LINE
  5
288
  8
回07-寸法
  6
CONTINUOUS
 62
     5
 10
1515.211002393539
 20
-329.8084098246206
 30
0.0
 11
1485.211002393539
 21
-329.8084098246206
 31
0.0
  0
LINE
  5
289
  8
回07-寸法
  6
CONTINUOUS
 62
     5
 10
1486.211002393539
 20
-331.3084098246207
 30
0.0
 11
1486.211002393539
 21
-343.1696995590712
 31
0.0
  0
LINE
  5
28A
  8
回07-寸法
  6
CONTINUOUS
 62
     5
 10
1486.211002393539
 20
-318.6084098246206
 30
0.0
 11
1486.211002393539
 21
-329.8084098246206
 31
0.0
  0
LINE
  5
28B
  8
回07-寸法
  6
CONTINUOUS
 62
     5
 10
1486.211002393539
 20
-317.1084098246207
 30
0.0
 11
1486.211002393539
 21
-315.6084098246207
 31
0.0
  0
INSERT
  5
28C
  8
回07-寸法
  6
CONTINUOUS
 62
     5
  2
_OPEN
 10
1486.211002393539
 20
-318.6084098246206
 30
0.0
 41
1.5
 42
1.5
 43
1.5
 50
270.0
  0
INSERT
  5
28D
  8
回07-寸法
  6
CONTINUOUS
 62
     5
  2
_OPEN
 10
1486.211002393539
 20
-329.8084098246206
 30
0.0
 41
1.5
 42
1.5
 43
1.5
 50
90.0
  0
TEXT
  5
28E
  8
回07-寸法
  6
CONTINUOUS
 62
     5
 10
1485.711002393539
 20
-343.2696995590711
 30
0.0
 40
4.0
  1
11.2
 50
90.0
1001
ACAD
1000
MTEXTBEGIN
1070
    73
1070
     1
1070
    44
1040
1.0
1070
    74
1070
     0
1000
MTEXTEND
  0
POINT
  5
28F
  8
DEFPOINTS
  6
CONTINUOUS
 62
     0
 10
1521.711002393539
 20
-318.6084098246206
 30
0.0
  0
POINT
  5
290
  8
DEFPOINTS
  6
CONTINUOUS
 62
     0
 10
1515.211002393539
 20
-329.8084098246206
 30
0.0
  0
POINT
  5
291
  8
DEFPOINTS
  6
CONTINUOUS
 62
     0
 10
1486.211002393539
 20
-329.8084098246206
 30
0.0
  0
ENDBLK
  5
292
  8
0
 62
     7
  0
BLOCK
  8
0
  2
*D18
 70
     1
 10
0.0
 20
0.0
 30
0.0
  3
*D18
  1

  0
LINE
  5
27A
  8
回07-寸法
  6
CONTINUOUS
 62
     5
 10
1515.211002393539
 20
-219.2084098246204
 30
0.0
 11
1515.211002393539
 21
-171.8284098246203
 31
0.0
  0
LINE
  5
27B
  8
回07-寸法
  6
CONTINUOUS
 62
     5
 10
1649.411002393539
 20
-219.2084098246205
 30
0.0
 11
1649.411002393539
 21
-171.8284098246203
 31
0.0
  0
LINE
  5
27C
  8
回07-寸法
  6
CONTINUOUS
 62
     5
 10
1516.711002393539
 20
-172.8284098246203
 30
0.0
 11
1647.911002393539
 21
-172.8284098246203
 31
0.0
  0
INSERT
  5
27D
  8
回07-寸法
  6
CONTINUOUS
 62
     5
  2
_OPEN
 10
1515.211002393539
 20
-172.8284098246203
 30
0.0
 41
1.5
 42
1.5
 43
1.5
 50
180.0
  0
INSERT
  5
27E
  8
回07-寸法
  6
CONTINUOUS
 62
     5
  2
_OPEN
 10
1649.411002393539
 20
-172.8284098246203
 30
0.0
 41
1.5
 42
1.5
 43
1.5
  0
INSERT
  5
27F
  8
回07-寸法
  6
CONTINUOUS
 62
     5
 66
     1
  2
*X55
 10
0.0
 20
0.0
 30
0.0
  0
SEQEND
  5
5EE
  8
回04-下接
  6
CONTINUOUS
 62
     5
  0
POINT
  5
280
  8
DEFPOINTS
  6
CONTINUOUS
 62
     0
 10
1515.211002393539
 20
-219.2084098246204
 30
0.0
  0
POINT
  5
281
  8
DEFPOINTS
  6
CONTINUOUS
 62
     0
 10
1649.411002393539
 20
-219.2084098246205
 30
0.0
  0
POINT
  5
282
  8
DEFPOINTS
  6
CONTINUOUS
 62
     0
 10
1649.411002393539
 20
-172.8284098246203
 30
0.0
  0
ENDBLK
  5
283
  8
0
 62
     7
  0
BLOCK
  8
0
  2
*D19
 70
     1
 10
0.0
 20
0.0
 30
0.0
  3
*D19
  1

  0
LINE
  5
26D
  8
回07-寸法
  6
CONTINUOUS
 62
     5
 10
1521.711002393539
 20
-226.2084098246205
 30
0.0
 11
1521.711002393539
 21
-189.8284098246203
 31
0.0
  0
LINE
  5
26E
  8
回07-寸法
  6
CONTINUOUS
 62
     5
 10
1642.911002393539
 20
-226.2084098246205
 30
0.0
 11
1642.911002393539
 21
-189.8284098246203
 31
0.0
  0
LINE
  5
26F
  8
回07-寸法
  6
CONTINUOUS
 62
     5
 10
1523.211002393539
 20
-190.8284098246203
 30
0.0
 11
1641.411002393539
 21
-190.8284098246203
 31
0.0
  0
INSERT
  5
270
  8
回07-寸法
  6
CONTINUOUS
 62
     5
  2
_OPEN
 10
1521.711002393539
 20
-190.8284098246203
 30
0.0
 41
1.5
 42
1.5
 43
1.5
 50
180.0
  0
INSERT
  5
271
  8
回07-寸法
  6
CONTINUOUS
 62
     5
  2
_OPEN
 10
1642.911002393539
 20
-190.8284098246203
 30
0.0
 41
1.5
 42
1.5
 43
1.5
  0
TEXT
  5
272
  8
回07-寸法
  6
CONTINUOUS
 62
     5
 10
1559.711789795114
 20
-189.3284098246203
 30
0.0
 40
4.0
  1
121.2(Viewing area)
1001
ACAD
1000
MTEXTBEGIN
1070
    73
1070
     1
1070
    44
1040
1.0
1070
    74
1070
     0
1000
MTEXTEND
  0
POINT
  5
273
  8
DEFPOINTS
  6
CONTINUOUS
 62
     0
 10
1521.711002393539
 20
-226.2084098246205
 30
0.0
  0
POINT
  5
274
  8
DEFPOINTS
  6
CONTINUOUS
 62
     0
 10
1642.911002393539
 20
-226.2084098246205
 30
0.0
  0
POINT
  5
275
  8
DEFPOINTS
  6
CONTINUOUS
 62
     0
 10
1642.911002393539
 20
-190.8284098246203
 30
0.0
  0
ENDBLK
  5
276
  8
0
 62
     7
  0
BLOCK
  8
0
  2
*D20
 70
     1
 10
0.0
 20
0.0
 30
0.0
  3
*D20
  1

  0
LINE
  5
260
  8
回07-寸法
  6
CONTINUOUS
 62
     5
 10
1521.211002393538
 20
-225.7084098246204
 30
0.0
 11
1521.211002393538
 21
-180.8284098246203
 31
0.0
  0
LINE
  5
261
  8
回07-寸法
  6
CONTINUOUS
 62
     5
 10
1643.411002393539
 20
-225.7084098246204
 30
0.0
 11
1643.411002393539
 21
-180.8284098246203
 31
0.0
  0
LINE
  5
262
  8
回07-寸法
  6
CONTINUOUS
 62
     5
 10
1522.711002393539
 20
-181.8284098246203
 30
0.0
 11
1641.911002393539
 21
-181.8284098246203
 31
0.0
  0
INSERT
  5
263
  8
回07-寸法
  6
CONTINUOUS
 62
     5
  2
_OPEN
 10
1521.211002393538
 20
-181.8284098246203
 30
0.0
 41
1.5
 42
1.5
 43
1.5
 50
180.0
  0
INSERT
  5
264
  8
回07-寸法
  6
CONTINUOUS
 62
     5
  2
_OPEN
 10
1643.411002393539
 20
-181.8284098246203
 30
0.0
 41
1.5
 42
1.5
 43
1.5
  0
TEXT
  5
265
  8
回07-寸法
  6
CONTINUOUS
 62
     5
 10
1576.510560146419
 20
-181.3284098246203
 30
0.0
 40
4.0
  1
122.2
1001
ACAD
1000
MTEXTBEGIN
1070
    73
1070
     1
1070
    44
1040
1.0
1070
    74
1070
     0
1000
MTEXTEND
  0
POINT
  5
266
  8
DEFPOINTS
  6
CONTINUOUS
 62
     0
 10
1521.211002393538
 20
-225.7084098246204
 30
0.0
  0
POINT
  5
267
  8
DEFPOINTS
  6
CONTINUOUS
 62
     0
 10
1643.411002393539
 20
-225.7084098246204
 30
0.0
  0
POINT
  5
268
  8
DEFPOINTS
  6
CONTINUOUS
 62
     0
 10
1643.411002393539
 20
-181.8284098246203
 30
0.0
  0
ENDBLK
  5
269
  8
0
 62
     7
  0
BLOCK
  8
0
  2
*D21
 70
     1
 10
0.0
 20
0.0
 30
0.0
  3
*D21
  1

  0
LINE
  5
253
  8
回07-寸法
  6
CONTINUOUS
 62
     5
 10
1523.711002393539
 20
-228.2084098246205
 30
0.0
 11
1523.711002393539
 21
-198.8284098246203
 31
0.0
  0
LINE
  5
254
  8
回07-寸法
  6
CONTINUOUS
 62
     5
 10
1640.911002393538
 20
-228.1934098246197
 30
0.0
 11
1640.911002393538
 21
-198.8284098246203
 31
0.0
  0
LINE
  5
255
  8
回07-寸法
  6
CONTINUOUS
 62
     5
 10
1525.211002393539
 20
-199.8284098246203
 30
0.0
 11
1639.411002393538
 21
-199.8284098246203
 31
0.0
  0
INSERT
  5
256
  8
回07-寸法
  6
CONTINUOUS
 62
     5
  2
_OPEN
 10
1523.711002393539
 20
-199.8284098246203
 30
0.0
 41
1.5
 42
1.5
 43
1.5
 50
180.0
  0
INSERT
  5
257
  8
回07-寸法
  6
CONTINUOUS
 62
     5
  2
_OPEN
 10
1640.911002393538
 20
-199.8284098246203
 30
0.0
 41
1.5
 42
1.5
 43
1.5
  0
TEXT
  5
258
  8
回07-寸法
  6
CONTINUOUS
 62
     5
 10
1561.111789795113
 20
-199.1284098246203
 30
0.0
 40
4.0
  1
117.2(Active area)
1001
ACAD
1000
MTEXTBEGIN
1070
    73
1070
     1
1070
    44
1040
1.0
1070
    74
1070
     0
1000
MTEXTEND
  0
POINT
  5
259
  8
DEFPOINTS
  6
CONTINUOUS
 62
     0
 10
1523.711002393539
 20
-228.2084098246205
 30
0.0
  0
POINT
  5
25A
  8
DEFPOINTS
  6
CONTINUOUS
 62
     0
 10
1640.911002393538
 20
-228.1934098246197
 30
0.0
  0
POINT
  5
25B
  8
DEFPOINTS
  6
CONTINUOUS
 62
     0
 10
1640.911002393538
 20
-199.8284098246203
 30
0.0
  0
ENDBLK
  5
25C
  8
0
 62
     7
  0
BLOCK
  8
0
  2
*D22
 70
     1
 10
0.0
 20
0.0
 30
0.0
  3
*D22
  1

  0
LINE
  5
246
  8
回07-寸法
  6
CONTINUOUS
 62
     5
 10
1515.211002393539
 20
-219.2084098246204
 30
0.0
 11
1467.211002393542
 21
-219.2084098246204
 31
0.0
  0
LINE
  5
247
  8
回07-寸法
  6
CONTINUOUS
 62
     5
 10
1515.211002393539
 20
-329.8084098246206
 30
0.0
 11
1467.211002393542
 21
-329.8084098246206
 31
0.0
  0
LINE
  5
248
  8
回07-寸法
  6
CONTINUOUS
 62
     5
 10
1468.211002393542
 20
-220.7084098246204
 30
0.0
 11
1468.211002393542
 21
-328.3084098246206
 31
0.0
  0
INSERT
  5
249
  8
回07-寸法
  6
CONTINUOUS
 62
     5
  2
_OPEN
 10
1468.211002393542
 20
-219.2084098246204
 30
0.0
 41
1.5
 42
1.5
 43
1.5
 50
90.0
  0
INSERT
  5
24A
  8
回07-寸法
  6
CONTINUOUS
 62
     5
  2
_OPEN
 10
1468.211002393542
 20
-329.8084098246206
 30
0.0
 41
1.5
 42
1.5
 43
1.5
 50
270.0
  0
INSERT
  5
24B
  8
回07-寸法
  6
CONTINUOUS
 62
     5
 66
     1
  2
*X56
 10
0.0
 20
0.0
 30
0.0
  0
SEQEND
  5
5F4
  8
回04-下接
  6
CONTINUOUS
 62
     5
  0
POINT
  5
24C
  8
DEFPOINTS
  6
CONTINUOUS
 62
     0
 10
1515.211002393539
 20
-219.2084098246204
 30
0.0
  0
POINT
  5
24D
  8
DEFPOINTS
  6
CONTINUOUS
 62
     0
 10
1515.211002393539
 20
-329.8084098246206
 30
0.0
  0
POINT
  5
24E
  8
DEFPOINTS
  6
CONTINUOUS
 62
     0
 10
1468.211002393542
 20
-329.8084098246206
 30
0.0
  0
ENDBLK
  5
24F
  8
0
 62
     7
  0
BLOCK
  8
0
  2
*D23
 70
     1
 10
0.0
 20
0.0
 30
0.0
  3
*D23
  1

  0
LINE
  5
239
  8
回07-寸法
  6
CONTINUOUS
 62
     5
 10
1523.711002393539
 20
-228.2084098246205
 30
0.0
 11
1494.211002393543
 21
-228.2084098246205
 31
0.0
  0
LINE
  5
23A
  8
回07-寸法
  6
CONTINUOUS
 62
     5
 10
1523.711002393539
 20
-316.6084098246206
 30
0.0
 11
1494.211002393543
 21
-316.6084098246206
 31
0.0
  0
LINE
  5
23B
  8
回07-寸法
  6
CONTINUOUS
 62
     5
 10
1495.211002393543
 20
-229.7084098246204
 30
0.0
 11
1495.211002393543
 21
-315.1084098246207
 31
0.0
  0
INSERT
  5
23C
  8
回07-寸法
  6
CONTINUOUS
 62
     5
  2
_OPEN
 10
1495.211002393543
 20
-228.2084098246205
 30
0.0
 41
1.5
 42
1.5
 43
1.5
 50
90.0
  0
INSERT
  5
23D
  8
回07-寸法
  6
CONTINUOUS
 62
     5
  2
_OPEN
 10
1495.211002393543
 20
-316.6084098246206
 30
0.0
 41
1.5
 42
1.5
 43
1.5
 50
270.0
  0
TEXT
  5
23E
  8
回07-寸法
  6
CONTINUOUS
 62
     5
 10
1494.511002393543
 20
-293.2076224230457
 30
0.0
 40
4.0
  1
88.4(Active area)
 50
90.0
1001
ACAD
1000
MTEXTBEGIN
1070
    73
1070
     1
1070
    44
1040
1.0
1070
    74
1070
     0
1000
MTEXTEND
  0
POINT
  5
23F
  8
DEFPOINTS
  6
CONTINUOUS
 62
     0
 10
1523.711002393539
 20
-228.2084098246205
 30
0.0
  0
POINT
  5
240
  8
DEFPOINTS
  6
CONTINUOUS
 62
     0
 10
1523.711002393539
 20
-316.6084098246206
 30
0.0
  0
POINT
  5
241
  8
DEFPOINTS
  6
CONTINUOUS
 62
     0
 10
1495.211002393543
 20
-316.6084098246206
 30
0.0
  0
ENDBLK
  5
242
  8
0
 62
     7
  0
BLOCK
  8
0
  2
*D24
 70
     1
 10
0.0
 20
0.0
 30
0.0
  3
*D24
  1

  0
LINE
  5
22C
  8
回07-寸法
  6
CONTINUOUS
 62
     5
 10
1521.711002393539
 20
-226.2084098246205
 30
0.0
 11
1485.211002393542
 21
-226.2084098246205
 31
0.0
  0
LINE
  5
22D
  8
回07-寸法
  6
CONTINUOUS
 62
     5
 10
1521.711002393539
 20
-318.6084098246206
 30
0.0
 11
1485.211002393542
 21
-318.6084098246206
 31
0.0
  0
LINE
  5
22E
  8
回07-寸法
  6
CONTINUOUS
 62
     5
 10
1486.211002393542
 20
-227.7084098246204
 30
0.0
 11
1486.211002393542
 21
-317.1084098246207
 31
0.0
  0
INSERT
  5
22F
  8
回07-寸法
  6
CONTINUOUS
 62
     5
  2
_OPEN
 10
1486.211002393542
 20
-226.2084098246205
 30
0.0
 41
1.5
 42
1.5
 43
1.5
 50
90.0
  0
INSERT
  5
230
  8
回07-寸法
  6
CONTINUOUS
 62
     5
  2
_OPEN
 10
1486.211002393542
 20
-318.6084098246206
 30
0.0
 41
1.5
 42
1.5
 43
1.5
 50
270.0
  0
TEXT
  5
231
  8
回07-寸法
  6
CONTINUOUS
 62
     5
 10
1484.711002393542
 20
-294.6220638971538
 30
0.0
 40
4.0
  1
92.4(Viewing area)
 50
90.0
1001
ACAD
1000
MTEXTBEGIN
1070
    73
1070
     1
1070
    44
1040
1.0
1070
    74
1070
     0
1000
MTEXTEND
  0
POINT
  5
232
  8
DEFPOINTS
  6
CONTINUOUS
 62
     0
 10
1521.711002393539
 20
-226.2084098246205
 30
0.0
  0
POINT
  5
233
  8
DEFPOINTS
  6
CONTINUOUS
 62
     0
 10
1521.711002393539
 20
-318.6084098246206
 30
0.0
  0
POINT
  5
234
  8
DEFPOINTS
  6
CONTINUOUS
 62
     0
 10
1486.211002393542
 20
-318.6084098246206
 30
0.0
  0
ENDBLK
  5
235
  8
0
 62
     7
  0
BLOCK
  8
0
  2
*D25
 70
     1
 10
0.0
 20
0.0
 30
0.0
  3
*D25
  1

  0
LINE
  5
21F
  8
回07-寸法
  6
CONTINUOUS
 62
     5
 10
1521.211002393538
 20
-225.7084098246204
 30
0.0
 11
1476.211002393542
 21
-225.7084098246204
 31
0.0
  0
LINE
  5
220
  8
回07-寸法
  6
CONTINUOUS
 62
     5
 10
1521.211002393538
 20
-319.1084098246207
 30
0.0
 11
1476.211002393542
 21
-319.1084098246207
 31
0.0
  0
LINE
  5
221
  8
回07-寸法
  6
CONTINUOUS
 62
     5
 10
1477.211002393542
 20
-227.2084098246204
 30
0.0
 11
1477.211002393542
 21
-317.6084098246207
 31
0.0
  0
INSERT
  5
222
  8
回07-寸法
  6
CONTINUOUS
 62
     5
  2
_OPEN
 10
1477.211002393542
 20
-225.7084098246204
 30
0.0
 41
1.5
 42
1.5
 43
1.5
 50
90.0
  0
INSERT
  5
223
  8
回07-寸法
  6
CONTINUOUS
 62
     5
  2
_OPEN
 10
1477.211002393542
 20
-319.1084098246207
 30
0.0
 41
1.5
 42
1.5
 43
1.5
 50
270.0
  0
TEXT
  5
224
  8
回07-寸法
  6
CONTINUOUS
 62
     5
 10
1476.711002393542
 20
-277.4228512987286
 30
0.0
 40
4.0
  1
93.4
 50
90.0
1001
ACAD
1000
MTEXTBEGIN
1070
    73
1070
     1
1070
    44
1040
1.0
1070
    74
1070
     0
1000
MTEXTEND
  0
POINT
  5
225
  8
DEFPOINTS
  6
CONTINUOUS
 62
     0
 10
1521.211002393538
 20
-225.7084098246204
 30
0.0
  0
POINT
  5
226
  8
DEFPOINTS
  6
CONTINUOUS
 62
     0
 10
1521.211002393538
 20
-319.1084098246207
 30
0.0
  0
POINT
  5
227
  8
DEFPOINTS
  6
CONTINUOUS
 62
     0
 10
1477.211002393542
 20
-319.1084098246207
 30
0.0
  0
ENDBLK
  5
228
  8
0
 62
     7
  0
BLOCK
  8
0
  2
*D26
 70
     1
 10
0.0
 20
0.0
 30
0.0
  3
*D26
  1

  0
LINE
  5
210
  8
回07-寸法
  6
CONTINUOUS
 62
     5
 10
1521.211002393538
 20
-225.7084098246204
 30
0.0
 11
1521.211002393538
 21
-180.8320792879694
 31
0.0
  0
LINE
  5
211
  8
回07-寸法
  6
CONTINUOUS
 62
     5
 10
1515.211002393539
 20
-219.2084098246204
 30
0.0
 11
1515.211002393539
 21
-180.8320792879694
 31
0.0
  0
LINE
  5
212
  8
回07-寸法
  6
CONTINUOUS
 62
     5
 10
1513.711002393539
 20
-181.8320792879694
 30
0.0
 11
1507.826827551287
 21
-181.8320792879694
 31
0.0
  0
LINE
  5
213
  8
回07-寸法
  6
CONTINUOUS
 62
     5
 10
1521.211002393538
 20
-181.8320792879694
 30
0.0
 11
1515.211002393539
 21
-181.8320792879694
 31
0.0
  0
LINE
  5
214
  8
回07-寸法
  6
CONTINUOUS
 62
     5
 10
1522.711002393539
 20
-181.8320792879694
 30
0.0
 11
1524.211002393539
 21
-181.8320792879694
 31
0.0
  0
INSERT
  5
215
  8
回07-寸法
  6
CONTINUOUS
 62
     5
  2
_OPEN
 10
1521.211002393538
 20
-181.8320792879694
 30
0.0
 41
1.5
 42
1.5
 43
1.5
 50
180.0
  0
INSERT
  5
216
  8
回07-寸法
  6
CONTINUOUS
 62
     5
  2
_OPEN
 10
1515.211002393539
 20
-181.8320792879694
 30
0.0
 41
1.5
 42
1.5
 43
1.5
  0
TEXT
  5
217
  8
回07-寸法
  6
CONTINUOUS
 62
     5
 10
1507.726827551287
 20
-181.3320792879694
 30
0.0
 40
4.0
  1
6
1001
ACAD
1000
MTEXTBEGIN
1070
    73
1070
     1
1070
    44
1040
1.0
1070
    74
1070
     0
1000
MTEXTEND
  0
POINT
  5
218
  8
DEFPOINTS
  6
CONTINUOUS
 62
     0
 10
1521.211002393538
 20
-225.7084098246204
 30
0.0
  0
POINT
  5
219
  8
DEFPOINTS
  6
CONTINUOUS
 62
     0
 10
1515.211002393539
 20
-219.2084098246204
 30
0.0
  0
POINT
  5
21A
  8
DEFPOINTS
  6
CONTINUOUS
 62
     0
 10
1515.211002393539
 20
-181.8320792879694
 30
0.0
  0
ENDBLK
  5
21B
  8
0
 62
     7
  0
BLOCK
  8
0
  2
*D27
 70
     1
 10
0.0
 20
0.0
 30
0.0
  3
*D27
  1

  0
LINE
  5
201
  8
回07-寸法
  6
CONTINUOUS
 62
     5
 10
1643.411002393539
 20
-225.7084098246204
 30
0.0
 11
1643.411002393539
 21
-180.8443161643572
 31
0.0
  0
LINE
  5
202
  8
回07-寸法
  6
CONTINUOUS
 62
     5
 10
1649.411002393539
 20
-219.2084098246205
 30
0.0
 11
1649.411002393539
 21
-180.8443161643572
 31
0.0
  0
LINE
  5
203
  8
回07-寸法
  6
CONTINUOUS
 62
     5
 10
1650.911002393539
 20
-181.8443161643572
 30
0.0
 11
1658.20785278724
 21
-181.8443161643572
 31
0.0
  0
LINE
  5
204
  8
回07-寸法
  6
CONTINUOUS
 62
     5
 10
1643.411002393539
 20
-181.8443161643572
 30
0.0
 11
1649.411002393539
 21
-181.8443161643572
 31
0.0
  0
LINE
  5
205
  8
回07-寸法
  6
CONTINUOUS
 62
     5
 10
1641.911002393539
 20
-181.8443161643572
 30
0.0
 11
1640.411002393539
 21
-181.8443161643572
 31
0.0
  0
INSERT
  5
206
  8
回07-寸法
  6
CONTINUOUS
 62
     5
  2
_OPEN
 10
1643.411002393539
 20
-181.8443161643572
 30
0.0
 41
1.5
 42
1.5
 43
1.5
  0
INSERT
  5
207
  8
回07-寸法
  6
CONTINUOUS
 62
     5
  2
_OPEN
 10
1649.411002393539
 20
-181.8443161643572
 30
0.0
 41
1.5
 42
1.5
 43
1.5
 50
180.0
  0
TEXT
  5
208
  8
回07-寸法
  6
CONTINUOUS
 62
     5
 10
1652.309427590389
 20
-181.1443161643571
 30
0.0
 40
4.0
  1
(6)
1001
ACAD
1000
MTEXTBEGIN
1070
    73
1070
     1
1070
    44
1040
1.0
1070
    74
1070
     0
1000
MTEXTEND
  0
POINT
  5
209
  8
DEFPOINTS
  6
CONTINUOUS
 62
     0
 10
1643.411002393539
 20
-225.7084098246204
 30
0.0
  0
POINT
  5
20A
  8
DEFPOINTS
  6
CONTINUOUS
 62
     0
 10
1649.411002393539
 20
-219.2084098246205
 30
0.0
  0
POINT
  5
20B
  8
DEFPOINTS
  6
CONTINUOUS
 62
     0
 10
1649.411002393539
 20
-181.8443161643572
 30
0.0
  0
ENDBLK
  5
20C
  8
0
 62
     7
  0
BLOCK
  8
0
  2
*D28
 70
     1
 10
0.0
 20
0.0
 30
0.0
  3
*D28
  1

  0
LINE
  5
1F2
  8
回07-寸法
  6
CONTINUOUS
 62
     5
 10
1523.711002393539
 20
-228.2084098246214
 30
0.0
 11
1523.711002393539
 21
-198.8284098246203
 31
0.0
  0
LINE
  5
1F3
  8
回07-寸法
  6
CONTINUOUS
 62
     5
 10
1515.211002393539
 20
-219.2084098246204
 30
0.0
 11
1515.211002393539
 21
-198.8284098246203
 31
0.0
  0
LINE
  5
1F4
  8
回07-寸法
  6
CONTINUOUS
 62
     5
 10
1513.711002393539
 20
-199.8284098246203
 30
0.0
 11
1504.128159681064
 21
-199.8284098246203
 31
0.0
  0
LINE
  5
1F5
  8
回07-寸法
  6
CONTINUOUS
 62
     5
 10
1523.711002393539
 20
-199.8284098246203
 30
0.0
 11
1515.211002393539
 21
-199.8284098246203
 31
0.0
  0
LINE
  5
1F6
  8
回07-寸法
  6
CONTINUOUS
 62
     5
 10
1525.211002393539
 20
-199.8284098246203
 30
0.0
 11
1526.711002393539
 21
-199.8284098246203
 31
0.0
  0
INSERT
  5
1F7
  8
回07-寸法
  6
CONTINUOUS
 62
     5
  2
_OPEN
 10
1523.711002393539
 20
-199.8284098246203
 30
0.0
 41
1.5
 42
1.5
 43
1.5
 50
180.0
  0
INSERT
  5
1F8
  8
回07-寸法
  6
CONTINUOUS
 62
     5
  2
_OPEN
 10
1515.211002393539
 20
-199.8284098246203
 30
0.0
 41
1.5
 42
1.5
 43
1.5
  0
TEXT
  5
1F9
  8
回07-寸法
  6
CONTINUOUS
 62
     5
 10
1504.028159681064
 20
-199.3284098246203
 30
0.0
 40
4.0
  1
8.5
1001
ACAD
1000
MTEXTBEGIN
1070
    73
1070
     1
1070
    44
1040
1.0
1070
    74
1070
     0
1000
MTEXTEND
  0
POINT
  5
1FA
  8
DEFPOINTS
  6
CONTINUOUS
 62
     0
 10
1523.711002393539
 20
-228.2084098246214
 30
0.0
  0
POINT
  5
1FB
  8
DEFPOINTS
  6
CONTINUOUS
 62
     0
 10
1515.211002393539
 20
-219.2084098246204
 30
0.0
  0
POINT
  5
1FC
  8
DEFPOINTS
  6
CONTINUOUS
 62
     0
 10
1515.211002393539
 20
-199.8284098246203
 30
0.0
  0
ENDBLK
  5
1FD
  8
0
 62
     7
  0
BLOCK
  8
0
  2
*D29
 70
     1
 10
0.0
 20
0.0
 30
0.0
  3
*D29
  1

  0
LINE
  5
1E3
  8
回07-寸法
  6
CONTINUOUS
 62
     5
 10
1521.711002393539
 20
-226.2084098246205
 30
0.0
 11
1521.711002393539
 21
-189.8284098246203
 31
0.0
  0
LINE
  5
1E4
  8
回07-寸法
  6
CONTINUOUS
 62
     5
 10
1515.211002393539
 20
-219.2084098246204
 30
0.0
 11
1515.211002393539
 21
-189.8284098246203
 31
0.0
  0
LINE
  5
1E5
  8
回07-寸法
  6
CONTINUOUS
 62
     5
 10
1513.711002393539
 20
-190.8284098246203
 30
0.0
 11
1505.408474641694
 21
-190.8284098246203
 31
0.0
  0
LINE
  5
1E6
  8
回07-寸法
  6
CONTINUOUS
 62
     5
 10
1521.711002393539
 20
-190.8284098246203
 30
0.0
 11
1515.211002393539
 21
-190.8284098246203
 31
0.0
  0
LINE
  5
1E7
  8
回07-寸法
  6
CONTINUOUS
 62
     5
 10
1523.211002393539
 20
-190.8284098246203
 30
0.0
 11
1524.711002393539
 21
-190.8284098246203
 31
0.0
  0
INSERT
  5
1E8
  8
回07-寸法
  6
CONTINUOUS
 62
     5
  2
_OPEN
 10
1521.711002393539
 20
-190.8284098246203
 30
0.0
 41
1.5
 42
1.5
 43
1.5
 50
180.0
  0
INSERT
  5
1E9
  8
回07-寸法
  6
CONTINUOUS
 62
     5
  2
_OPEN
 10
1515.211002393539
 20
-190.8284098246203
 30
0.0
 41
1.5
 42
1.5
 43
1.5
  0
TEXT
  5
1EA
  8
回07-寸法
  6
CONTINUOUS
 62
     5
 10
1505.308474641694
 20
-190.3284098246203
 30
0.0
 40
4.0
  1
6.5
1001
ACAD
1000
MTEXTBEGIN
1070
    73
1070
     1
1070
    44
1040
1.0
1070
    74
1070
     0
1000
MTEXTEND
  0
POINT
  5
1EB
  8
DEFPOINTS
  6
CONTINUOUS
 62
     0
 10
1521.711002393539
 20
-226.2084098246205
 30
0.0
  0
POINT
  5
1EC
  8
DEFPOINTS
  6
CONTINUOUS
 62
     0
 10
1515.211002393539
 20
-219.2084098246204
 30
0.0
  0
POINT
  5
1ED
  8
DEFPOINTS
  6
CONTINUOUS
 62
     0
 10
1515.211002393539
 20
-190.8284098246203
 30
0.0
  0
ENDBLK
  5
1EE
  8
0
 62
     7
  0
BLOCK
  8
0
  2
*D30
 70
     1
 10
0.0
 20
0.0
 30
0.0
  3
*D30
  1

  0
LINE
  5
1D4
  8
回07-寸法
  6
CONTINUOUS
 62
     5
 10
1640.911002393538
 20
-228.1934098246206
 30
0.0
 11
1640.911002393538
 21
-198.8284098246203
 31
0.0
  0
LINE
  5
1D5
  8
回07-寸法
  6
CONTINUOUS
 62
     5
 10
1649.411002393539
 20
-219.2084098246205
 30
0.0
 11
1649.411002393539
 21
-198.8284098246203
 31
0.0
  0
LINE
  5
1D6
  8
回07-寸法
  6
CONTINUOUS
 62
     5
 10
1650.911002393539
 20
-199.8284098246203
 30
0.0
 11
1662.20785278724
 21
-199.8284098246203
 31
0.0
  0
LINE
  5
1D7
  8
回07-寸法
  6
CONTINUOUS
 62
     5
 10
1640.911002393538
 20
-199.8284098246203
 30
0.0
 11
1649.411002393539
 21
-199.8284098246203
 31
0.0
  0
LINE
  5
1D8
  8
回07-寸法
  6
CONTINUOUS
 62
     5
 10
1639.411002393538
 20
-199.8284098246203
 30
0.0
 11
1637.911002393538
 21
-199.8284098246203
 31
0.0
  0
INSERT
  5
1D9
  8
回07-寸法
  6
CONTINUOUS
 62
     5
  2
_OPEN
 10
1640.911002393538
 20
-199.8284098246203
 30
0.0
 41
1.5
 42
1.5
 43
1.5
  0
INSERT
  5
1DA
  8
回07-寸法
  6
CONTINUOUS
 62
     5
  2
_OPEN
 10
1649.411002393539
 20
-199.8284098246203
 30
0.0
 41
1.5
 42
1.5
 43
1.5
 50
180.0
  0
TEXT
  5
1DB
  8
回07-寸法
  6
CONTINUOUS
 62
     5
 10
1652.309427590389
 20
-199.1284098246203
 30
0.0
 40
4.0
  1
(8.5)
1001
ACAD
1000
MTEXTBEGIN
1070
    73
1070
     1
1070
    44
1040
1.0
1070
    74
1070
     0
1000
MTEXTEND
  0
POINT
  5
1DC
  8
DEFPOINTS
  6
CONTINUOUS
 62
     0
 10
1640.911002393538
 20
-228.1934098246206
 30
0.0
  0
POINT
  5
1DD
  8
DEFPOINTS
  6
CONTINUOUS
 62
     0
 10
1649.411002393539
 20
-219.2084098246205
 30
0.0
  0
POINT
  5
1DE
  8
DEFPOINTS
  6
CONTINUOUS
 62
     0
 10
1649.411002393539
 20
-199.8284098246203
 30
0.0
  0
ENDBLK
  5
1DF
  8
0
 62
     7
  0
BLOCK
  8
0
  2
*D31
 70
     1
 10
0.0
 20
0.0
 30
0.0
  3
*D31
  1

  0
LINE
  5
1C5
  8
回07-寸法
  6
CONTINUOUS
 62
     5
 10
1642.911002393539
 20
-226.2084098246205
 30
0.0
 11
1642.911002393539
 21
-189.8284098246203
 31
0.0
  0
LINE
  5
1C6
  8
回07-寸法
  6
CONTINUOUS
 62
     5
 10
1649.411002393539
 20
-219.2084098246205
 30
0.0
 11
1649.411002393539
 21
-189.8284098246203
 31
0.0
  0
LINE
  5
1C7
  8
回07-寸法
  6
CONTINUOUS
 62
     5
 10
1650.911002393539
 20
-190.8284098246203
 30
0.0
 11
1662.20785278724
 21
-190.8284098246203
 31
0.0
  0
LINE
  5
1C8
  8
回07-寸法
  6
CONTINUOUS
 62
     5
 10
1642.911002393539
 20
-190.8284098246203
 30
0.0
 11
1649.411002393539
 21
-190.8284098246203
 31
0.0
  0
LINE
  5
1C9
  8
回07-寸法
  6
CONTINUOUS
 62
     5
 10
1641.411002393539
 20
-190.8284098246203
 30
0.0
 11
1639.911002393539
 21
-190.8284098246203
 31
0.0
  0
INSERT
  5
1CA
  8
回07-寸法
  6
CONTINUOUS
 62
     5
  2
_OPEN
 10
1642.911002393539
 20
-190.8284098246203
 30
0.0
 41
1.5
 42
1.5
 43
1.5
  0
INSERT
  5
1CB
  8
回07-寸法
  6
CONTINUOUS
 62
     5
  2
_OPEN
 10
1649.411002393539
 20
-190.8284098246203
 30
0.0
 41
1.5
 42
1.5
 43
1.5
 50
180.0
  0
TEXT
  5
1CC
  8
回07-寸法
  6
CONTINUOUS
 62
     5
 10
1652.309427590389
 20
-190.1284098246203
 30
0.0
 40
4.0
  1
(6.5)
1001
ACAD
1000
MTEXTBEGIN
1070
    73
1070
     1
1070
    44
1040
1.0
1070
    74
1070
     0
1000
MTEXTEND
  0
POINT
  5
1CD
  8
DEFPOINTS
  6
CONTINUOUS
 62
     0
 10
1642.911002393539
 20
-226.2084098246205
 30
0.0
  0
POINT
  5
1CE
  8
DEFPOINTS
  6
CONTINUOUS
 62
     0
 10
1649.411002393539
 20
-219.2084098246205
 30
0.0
  0
POINT
  5
1CF
  8
DEFPOINTS
  6
CONTINUOUS
 62
     0
 10
1649.411002393539
 20
-190.8284098246203
 30
0.0
  0
ENDBLK
  5
1D0
  8
0
 62
     7
  0
BLOCK
  8
0
  2
*D32
 70
     1
 10
0.0
 20
0.0
 30
0.0
  3
*D32
  1

  0
LINE
  5
1B6
  8
回07-寸法
  6
CONTINUOUS
 62
     5
 10
1521.211002393538
 20
-319.1084098246207
 30
0.0
 11
1476.226401682841
 21
-319.1084098246207
 31
0.0
  0
LINE
  5
1B7
  8
回07-寸法
  6
CONTINUOUS
 62
     5
 10
1515.211002393539
 20
-329.8084098246206
 30
0.0
 11
1476.226401682841
 21
-329.8084098246206
 31
0.0
  0
LINE
  5
1B8
  8
回07-寸法
  6
CONTINUOUS
 62
     5
 10
1477.226401682841
 20
-331.3084098246207
 30
0.0
 11
1477.226401682841
 21
-341.4084098246211
 31
0.0
  0
LINE
  5
1B9
  8
回07-寸法
  6
CONTINUOUS
 62
     5
 10
1477.226401682841
 20
-319.1084098246207
 30
0.0
 11
1477.226401682841
 21
-329.8084098246206
 31
0.0
  0
LINE
  5
1BA
  8
回07-寸法
  6
CONTINUOUS
 62
     5
 10
1477.226401682841
 20
-317.6084098246207
 30
0.0
 11
1477.226401682841
 21
-316.1084098246206
 31
0.0
  0
INSERT
  5
1BB
  8
回07-寸法
  6
CONTINUOUS
 62
     5
  2
_OPEN
 10
1477.226401682841
 20
-319.1084098246207
 30
0.0
 41
1.5
 42
1.5
 43
1.5
 50
270.0
  0
INSERT
  5
1BC
  8
回07-寸法
  6
CONTINUOUS
 62
     5
  2
_OPEN
 10
1477.226401682841
 20
-329.8084098246206
 30
0.0
 41
1.5
 42
1.5
 43
1.5
 50
90.0
  0
TEXT
  5
1BD
  8
回07-寸法
  6
CONTINUOUS
 62
     5
 10
1476.726401682841
 20
-341.5084098246209
 30
0.0
 40
4.0
  1
10.7
 50
90.0
1001
ACAD
1000
MTEXTBEGIN
1070
    73
1070
     1
1070
    44
1040
1.0
1070
    74
1070
     0
1000
MTEXTEND
  0
POINT
  5
1BE
  8
DEFPOINTS
  6
CONTINUOUS
 62
     0
 10
1521.211002393538
 20
-319.1084098246207
 30
0.0
  0
POINT
  5
1BF
  8
DEFPOINTS
  6
CONTINUOUS
 62
     0
 10
1515.211002393539
 20
-329.8084098246206
 30
0.0
  0
POINT
  5
1C0
  8
DEFPOINTS
  6
CONTINUOUS
 62
     0
 10
1477.226401682841
 20
-329.8084098246206
 30
0.0
  0
ENDBLK
  5
1C1
  8
0
 62
     7
  0
BLOCK
  8
0
  2
*D33
 70
     1
 10
0.0
 20
0.0
 30
0.0
  3
*D33
  1

  0
LINE
  5
1A7
  8
回07-寸法
  6
CONTINUOUS
 62
     5
 10
1523.711002393539
 20
-316.6084098246206
 30
0.0
 11
1494.211002393539
 21
-316.6084098246206
 31
0.0
  0
LINE
  5
1A8
  8
回07-寸法
  6
CONTINUOUS
 62
     5
 10
1515.211002393539
 20
-329.8084098246206
 30
0.0
 11
1494.211002393539
 21
-329.8084098246206
 31
0.0
  0
LINE
  5
1A9
  8
回07-寸法
  6
CONTINUOUS
 62
     5
 10
1495.211002393539
 20
-331.3084098246207
 30
0.0
 11
1495.211002393539
 21
-343.5081585499946
 31
0.0
  0
LINE
  5
1AA
  8
回07-寸法
  6
CONTINUOUS
 62
     5
 10
1495.211002393539
 20
-316.6084098246206
 30
0.0
 11
1495.211002393539
 21
-329.8084098246206
 31
0.0
  0
LINE
  5
1AB
  8
回07-寸法
  6
CONTINUOUS
 62
     5
 10
1495.211002393539
 20
-315.1084098246207
 30
0.0
 11
1495.211002393539
 21
-313.6084098246207
 31
0.0
  0
INSERT
  5
1AC
  8
回07-寸法
  6
CONTINUOUS
 62
     5
  2
_OPEN
 10
1495.211002393539
 20
-316.6084098246206
 30
0.0
 41
1.5
 42
1.5
 43
1.5
 50
270.0
  0
INSERT
  5
1AD
  8
回07-寸法
  6
CONTINUOUS
 62
     5
  2
_OPEN
 10
1495.211002393539
 20
-329.8084098246206
 30
0.0
 41
1.5
 42
1.5
 43
1.5
 50
90.0
  0
TEXT
  5
1AE
  8
回07-寸法
  6
CONTINUOUS
 62
     5
 10
1494.711002393539
 20
-343.6081585499944
 30
0.0
 40
4.0
  1
13.2
 50
90.0
1001
ACAD
1000
MTEXTBEGIN
1070
    73
1070
     1
1070
    44
1040
1.0
1070
    74
1070
     0
1000
MTEXTEND
  0
POINT
  5
1AF
  8
DEFPOINTS
  6
CONTINUOUS
 62
     0
 10
1523.711002393539
 20
-316.6084098246206
 30
0.0
  0
POINT
  5
1B0
  8
DEFPOINTS
  6
CONTINUOUS
 62
     0
 10
1515.211002393539
 20
-329.8084098246206
 30
0.0
  0
POINT
  5
1B1
  8
DEFPOINTS
  6
CONTINUOUS
 62
     0
 10
1495.211002393539
 20
-329.8084098246206
 30
0.0
  0
ENDBLK
  5
1B2
  8
0
 62
     7
  0
BLOCK
  8
0
  2
*D34
 70
     1
 10
0.0
 20
0.0
 30
0.0
  3
*D34
  1

  0
LINE
  5
198
  8
回07-寸法
  6
CONTINUOUS
 62
     5
 10
1521.211002393538
 20
-225.7084098246204
 30
0.0
 11
1476.211002393543
 21
-225.7084098246204
 31
0.0
  0
LINE
  5
199
  8
回07-寸法
  6
CONTINUOUS
 62
     5
 10
1515.211002393539
 20
-219.2084098246204
 30
0.0
 11
1476.211002393543
 21
-219.2084098246204
 31
0.0
  0
LINE
  5
19A
  8
回07-寸法
  6
CONTINUOUS
 62
     5
 10
1477.211002393543
 20
-217.7084098246204
 30
0.0
 11
1477.211002393543
 21
-206.4115594309196
 31
0.0
  0
LINE
  5
19B
  8
回07-寸法
  6
CONTINUOUS
 62
     5
 10
1477.211002393543
 20
-225.7084098246204
 30
0.0
 11
1477.211002393543
 21
-219.2084098246204
 31
0.0
  0
LINE
  5
19C
  8
回07-寸法
  6
CONTINUOUS
 62
     5
 10
1477.211002393543
 20
-227.2084098246204
 30
0.0
 11
1477.211002393543
 21
-228.7084098246205
 31
0.0
  0
INSERT
  5
19D
  8
回07-寸法
  6
CONTINUOUS
 62
     5
  2
_OPEN
 10
1477.211002393543
 20
-225.7084098246204
 30
0.0
 41
1.5
 42
1.5
 43
1.5
 50
90.0
  0
INSERT
  5
19E
  8
回07-寸法
  6
CONTINUOUS
 62
     5
  2
_OPEN
 10
1477.211002393543
 20
-219.2084098246204
 30
0.0
 41
1.5
 42
1.5
 43
1.5
 50
270.0
  0
TEXT
  5
19F
  8
回07-寸法
  6
CONTINUOUS
 62
     5
 10
1476.511002393543
 20
-216.3099846277701
 30
0.0
 40
4.0
  1
(6.5)
 50
90.0
1001
ACAD
1000
MTEXTBEGIN
1070
    73
1070
     1
1070
    44
1040
1.0
1070
    74
1070
     0
1000
MTEXTEND
  0
POINT
  5
1A0
  8
DEFPOINTS
  6
CONTINUOUS
 62
     0
 10
1521.211002393538
 20
-225.7084098246204
 30
0.0
  0
POINT
  5
1A1
  8
DEFPOINTS
  6
CONTINUOUS
 62
     0
 10
1515.211002393539
 20
-219.2084098246204
 30
0.0
  0
POINT
  5
1A2
  8
DEFPOINTS
  6
CONTINUOUS
 62
     0
 10
1477.211002393543
 20
-219.2084098246204
 30
0.0
  0
ENDBLK
  5
1A3
  8
0
 62
     7
  0
BLOCK
  8
0
  2
*D35
 70
     1
 10
0.0
 20
0.0
 30
0.0
  3
*D35
  1

  0
LINE
  5
189
  8
回07-寸法
  6
CONTINUOUS
 62
     5
 10
1521.711002393539
 20
-226.2084098246205
 30
0.0
 11
1485.211002393539
 21
-226.2084098246205
 31
0.0
  0
LINE
  5
18A
  8
回07-寸法
  6
CONTINUOUS
 62
     5
 10
1515.211002393539
 20
-219.2084098246204
 30
0.0
 11
1485.211002393539
 21
-219.2084098246204
 31
0.0
  0
LINE
  5
18B
  8
回07-寸法
  6
CONTINUOUS
 62
     5
 10
1486.211002393539
 20
-217.7084098246204
 30
0.0
 11
1486.211002393539
 21
-210.4115594309194
 31
0.0
  0
LINE
  5
18C
  8
回07-寸法
  6
CONTINUOUS
 62
     5
 10
1486.211002393539
 20
-226.2084098246205
 30
0.0
 11
1486.211002393539
 21
-219.2084098246204
 31
0.0
  0
LINE
  5
18D
  8
回07-寸法
  6
CONTINUOUS
 62
     5
 10
1486.211002393539
 20
-227.7084098246204
 30
0.0
 11
1486.211002393539
 21
-229.2084098246204
 31
0.0
  0
INSERT
  5
18E
  8
回07-寸法
  6
CONTINUOUS
 62
     5
  2
_OPEN
 10
1486.211002393539
 20
-226.2084098246205
 30
0.0
 41
1.5
 42
1.5
 43
1.5
 50
90.0
  0
INSERT
  5
18F
  8
回07-寸法
  6
CONTINUOUS
 62
     5
  2
_OPEN
 10
1486.211002393539
 20
-219.2084098246204
 30
0.0
 41
1.5
 42
1.5
 43
1.5
 50
270.0
  0
TEXT
  5
190
  8
回07-寸法
  6
CONTINUOUS
 62
     5
 10
1485.511002393538
 20
-216.3099846277698
 30
0.0
 40
4.0
  1
(7)
 50
90.0
1001
ACAD
1000
MTEXTBEGIN
1070
    73
1070
     1
1070
    44
1040
1.0
1070
    74
1070
     0
1000
MTEXTEND
  0
POINT
  5
191
  8
DEFPOINTS
  6
CONTINUOUS
 62
     0
 10
1521.711002393539
 20
-226.2084098246205
 30
0.0
  0
POINT
  5
192
  8
DEFPOINTS
  6
CONTINUOUS
 62
     0
 10
1515.211002393539
 20
-219.2084098246204
 30
0.0
  0
POINT
  5
193
  8
DEFPOINTS
  6
CONTINUOUS
 62
     0
 10
1486.211002393539
 20
-219.2084098246204
 30
0.0
  0
ENDBLK
  5
194
  8
0
 62
     7
  0
BLOCK
  8
0
  2
*D36
 70
     1
 10
0.0
 20
0.0
 30
0.0
  3
*D36
  1

  0
LINE
  5
17A
  8
回07-寸法
  6
CONTINUOUS
 62
     5
 10
1523.711002393539
 20
-228.2084098246205
 30
0.0
 11
1494.211002393539
 21
-228.2084098246205
 31
0.0
  0
LINE
  5
17B
  8
回07-寸法
  6
CONTINUOUS
 62
     5
 10
1515.211002393539
 20
-219.2084098246204
 30
0.0
 11
1494.211002393539
 21
-219.2084098246204
 31
0.0
  0
LINE
  5
17C
  8
回07-寸法
  6
CONTINUOUS
 62
     5
 10
1495.211002393539
 20
-217.7084098246204
 30
0.0
 11
1495.211002393539
 21
-206.9973500328769
 31
0.0
  0
LINE
  5
17D
  8
回07-寸法
  6
CONTINUOUS
 62
     5
 10
1495.211002393539
 20
-228.2084098246205
 30
0.0
 11
1495.211002393539
 21
-219.2084098246204
 31
0.0
  0
LINE
  5
17E
  8
回07-寸法
  6
CONTINUOUS
 62
     5
 10
1495.211002393539
 20
-229.7084098246204
 30
0.0
 11
1495.211002393539
 21
-231.2084098246204
 31
0.0
  0
INSERT
  5
17F
  8
回07-寸法
  6
CONTINUOUS
 62
     5
  2
_OPEN
 10
1495.211002393539
 20
-228.2084098246205
 30
0.0
 41
1.5
 42
1.5
 43
1.5
 50
90.0
  0
INSERT
  5
180
  8
回07-寸法
  6
CONTINUOUS
 62
     5
  2
_OPEN
 10
1495.211002393539
 20
-219.2084098246204
 30
0.0
 41
1.5
 42
1.5
 43
1.5
 50
270.0
  0
TEXT
  5
181
  8
回07-寸法
  6
CONTINUOUS
 62
     5
 10
1494.511002393539
 20
-212.9102167038352
 30
0.0
 40
4.0
  1
(9)
 50
90.0
1001
ACAD
1000
MTEXTBEGIN
1070
    73
1070
     1
1070
    44
1040
1.0
1070
    74
1070
     0
1000
MTEXTEND
  0
POINT
  5
182
  8
DEFPOINTS
  6
CONTINUOUS
 62
     0
 10
1523.711002393539
 20
-228.2084098246205
 30
0.0
  0
POINT
  5
183
  8
DEFPOINTS
  6
CONTINUOUS
 62
     0
 10
1515.211002393539
 20
-219.2084098246204
 30
0.0
  0
POINT
  5
184
  8
DEFPOINTS
  6
CONTINUOUS
 62
     0
 10
1495.211002393539
 20
-219.2084098246204
 30
0.0
  0
ENDBLK
  5
185
  8
0
 62
     7
  0
BLOCK
  8
0
  2
*D37
 70
     1
 10
0.0
 20
0.0
 30
0.0
  3
*D37
  1

  0
LINE
  5
C4
  8
回07-寸法
  6
CONTINUOUS
 62
     5
 10
1562.061002393539
 20
-329.8084098246206
 30
0.0
 11
1562.061002393539
 21
-357.2057875234784
 31
0.0
  0
LINE
  5
C5
  8
回07-寸法
  6
CONTINUOUS
 62
     5
 10
1581.061002393538
 20
-329.8084098246206
 30
0.0
 11
1581.061002393538
 21
-357.2057875234784
 31
0.0
  0
LINE
  5
C6
  8
回07-寸法
  6
CONTINUOUS
 62
     5
 10
1583.061002393538
 20
-356.2057875234784
 30
0.0
 11
1585.061002393538
 21
-356.2057875234784
 31
0.0
  0
LINE
  5
C7
  8
回07-寸法
  6
CONTINUOUS
 62
     5
 10
1560.061002393539
 20
-356.2057875234784
 30
0.0
 11
1553.174628477532
 21
-356.2057875234784
 31
0.0
  0
LINE
  5
C8
  8
回07-寸法
  6
CONTINUOUS
 62
     5
 10
1581.061002393538
 20
-356.2057875234784
 30
0.0
 11
1562.061002393539
 21
-356.2057875234784
 31
0.0
  0
INSERT
  5
C9
  8
回07-寸法
  6
CONTINUOUS
 62
     5
  2
_OPEN
 10
1581.061002393538
 20
-356.2057875234784
 30
0.0
 41
2.0
 42
2.0
 43
2.0
 50
180.0
  0
INSERT
  5
CA
  8
回07-寸法
  6
CONTINUOUS
 62
     5
  2
_OPEN
 10
1562.061002393539
 20
-356.2057875234784
 30
0.0
 41
2.0
 42
2.0
 43
2.0
  0
TEXT
  5
CB
  8
回07-寸法
  6
CONTINUOUS
 62
     5
 10
1553.210594698481
 20
-355.7057875234784
 30
0.0
 40
4.0
  1
19
1001
ACAD
1000
MTEXTBEGIN
1070
    73
1070
     1
1070
    44
1040
1.0
1070
    74
1070
     0
1000
MTEXTEND
  0
POINT
  5
CC
  8
DEFPOINTS
  6
CONTINUOUS
 62
     0
 10
1562.061002393539
 20
-329.8084098246206
 30
0.0
  0
POINT
  5
CD
  8
DEFPOINTS
  6
CONTINUOUS
 62
     0
 10
1581.061002393538
 20
-329.8084098246206
 30
0.0
  0
POINT
  5
CE
  8
DEFPOINTS
  6
CONTINUOUS
 62
     0
 10
1581.061002393538
 20
-356.2057875234784
 30
0.0
  0
ENDBLK
  5
CF
  8
0
 62
     7
  0
BLOCK
  8
0
  2
*D38
 70
     1
 10
0.0
 20
0.0
 30
0.0
  3
*D38
  1

  0
LINE
  5
B4
  8
回07-寸法
  6
CONTINUOUS
 62
     5
 10
1585.561002393539
 20
-329.8084098246206
 30
0.0
 11
1585.561002393539
 21
-357.2057875234784
 31
0.0
  0
LINE
  5
B5
  8
回07-寸法
  6
CONTINUOUS
 62
     5
 10
1602.561002393539
 20
-329.8083614538084
 30
0.0
 11
1602.561002393539
 21
-357.2057875234784
 31
0.0
  0
LINE
  5
B6
  8
回07-寸法
  6
CONTINUOUS
 62
     5
 10
1583.561002393539
 20
-356.2057875234784
 30
0.0
 11
1581.561002393539
 21
-356.2057875234784
 31
0.0
  0
LINE
  5
B7
  8
回07-寸法
  6
CONTINUOUS
 62
     5
 10
1604.561002393539
 20
-356.2057875234784
 30
0.0
 11
1611.161002393538
 21
-356.2057875234784
 31
0.0
  0
LINE
  5
B8
  8
回07-寸法
  6
CONTINUOUS
 62
     5
 10
1585.561002393539
 20
-356.2057875234784
 30
0.0
 11
1602.561002393539
 21
-356.2057875234784
 31
0.0
  0
INSERT
  5
B9
  8
回07-寸法
  6
CONTINUOUS
 62
     5
  2
_OPEN
 10
1585.561002393539
 20
-356.2057875234784
 30
0.0
 41
2.0
 42
2.0
 43
2.0
  0
INSERT
  5
BA
  8
回07-寸法
  6
CONTINUOUS
 62
     5
  2
_OPEN
 10
1602.561002393539
 20
-356.2057875234784
 30
0.0
 41
2.0
 42
2.0
 43
2.0
 50
180.0
  0
TEXT
  5
BB
  8
回07-寸法
  6
CONTINUOUS
 62
     5
 10
1606.461002393538
 20
-355.7057875234784
 30
0.0
 40
4.0
  1
17
1001
ACAD
1000
MTEXTBEGIN
1070
    73
1070
     1
1070
    44
1040
1.0
1070
    74
1070
     0
1000
MTEXTEND
  0
POINT
  5
BC
  8
DEFPOINTS
  6
CONTINUOUS
 62
     0
 10
1585.561002393539
 20
-329.8084098246206
 30
0.0
  0
POINT
  5
BE
  8
DEFPOINTS
  6
CONTINUOUS
 62
     0
 10
1602.561002393539
 20
-329.8083614538084
 30
0.0
  0
POINT
  5
BF
  8
DEFPOINTS
  6
CONTINUOUS
 62
     0
 10
1602.561002393539
 20
-356.2057875234784
 30
0.0
  0
ENDBLK
  5
C0
  8
0
 62
     7
  0
BLOCK
  8
回04-下接
  2
*X39
 70
     1
 10
0.0
 20
0.0
 30
0.0
  3
*X39
  1

  0
TEXT
  5
460
  8
回08-記事
  6
CONTINUOUS
 62
     5
 10
1534.875142764172
 20
-370.2673628850455
 30
0.0
 40
4.0
  1
･Part label
  0
TEXT
  5
461
  8
回08-記事
  6
CONTINUOUS
 62
     5
 10
1534.875142764172
 20
-376.9340295517122
 30
0.0
 40
4.0
  1
･Lot label
  0
ENDBLK
  5
463
  8
回04-下接
  6
CONTINUOUS
 62
     5
  0
BLOCK
  8
回04-下接
  2
*X40
 70
     1
 10
0.0
 20
0.0
 30
0.0
  3
*X40
  1

  0
INSERT
  5
466
  8
回08-記事
  6
CONTINUOUS
 62
     5
  2
_OPEN
 10
1573.210063516228
 20
-367.1422529982897
 30
0.0
 41
2.0
 42
2.0
 43
2.0
 50
41.82261151137582
  0
LINE
  5
467
  8
回08-記事
  6
CONTINUOUS
 62
     5
 10
1571.719637720796
 20
-368.4759062321967
 30
0.0
 11
1561.708476097505
 21
-377.4340295517122
 31
0.0
  0
LINE
  5
468
  8
回08-記事
  6
CONTINUOUS
 62
     5
 10
1561.708476097505
 20
-377.4340295517122
 30
0.0
 11
1561.708476097505
 21
-377.4340295517122
 31
0.0
  0
ENDBLK
  5
46A
  8
回04-下接
  6
CONTINUOUS
 62
     5
  0
BLOCK
  8
回04-下接
  2
*X41
 70
     1
 10
0.0
 20
0.0
 30
0.0
  3
*X41
  1

  0
LINE
  5
476
  8
回08-記事
  6
CONTINUOUS
 62
     7
 10
1571.309876887714
 20
-355.575979123964
 30
0.0
 11
1571.973458975507
 21
-354.9123970361709
 31
0.0
1001
GRADIENTCOLOR1ACI
1070
     5
1001
GRADIENTCOLOR2ACI
1070
     2
1001
ACAD
1010
0.0
1020
0.0
1030
0.0
  0
LINE
  5
477
  8
回08-記事
  6
CONTINUOUS
 62
     7
 10
1571.309876887714
 20
-357.8210431542314
 30
0.0
 11
1574.218523005774
 21
-354.912397036171
 31
0.0
1001
GRADIENTCOLOR1ACI
1070
     5
1001
GRADIENTCOLOR2ACI
1070
     2
1001
ACAD
1010
0.0
1020
0.0
1030
0.0
  0
LINE
  5
478
  8
回08-記事
  6
CONTINUOUS
 62
     7
 10
1571.309876887714
 20
-360.0661071844986
 30
0.0
 11
1575.809876887714
 21
-355.5661071844987
 31
0.0
1001
GRADIENTCOLOR1ACI
1070
     5
1001
GRADIENTCOLOR2ACI
1070
     2
1001
ACAD
1010
0.0
1020
0.0
1030
0.0
  0
LINE
  5
479
  8
回08-記事
  6
CONTINUOUS
 62
     7
 10
1571.309876887714
 20
-362.3111712147659
 30
0.0
 11
1575.809876887714
 21
-357.811171214766
 31
0.0
1001
GRADIENTCOLOR1ACI
1070
     5
1001
GRADIENTCOLOR2ACI
1070
     2
1001
ACAD
1010
0.0
1020
0.0
1030
0.0
  0
LINE
  5
47A
  8
回08-記事
  6
CONTINUOUS
 62
     7
 10
1571.309876887714
 20
-364.5562352450331
 30
0.0
 11
1575.809876887714
 21
-360.0562352450331
 31
0.0
1001
GRADIENTCOLOR1ACI
1070
     5
1001
GRADIENTCOLOR2ACI
1070
     2
1001
ACAD
1010
0.0
1020
0.0
1030
0.0
  0
LINE
  5
47B
  8
回08-記事
  6
CONTINUOUS
 62
     7
 10
1571.309876887714
 20
-366.8012992753004
 30
0.0
 11
1575.809876887714
 21
-362.3012992753006
 31
0.0
1001
GRADIENTCOLOR1ACI
1070
     5
1001
GRADIENTCOLOR2ACI
1070
     2
1001
ACAD
1010
0.0
1020
0.0
1030
0.0
  0
LINE
  5
47C
  8
回08-記事
  6
CONTINUOUS
 62
     7
 10
1571.309876887714
 20
-369.0463633055677
 30
0.0
 11
1575.809876887714
 21
-364.5463633055677
 31
0.0
1001
GRADIENTCOLOR1ACI
1070
     5
1001
GRADIENTCOLOR2ACI
1070
     2
1001
ACAD
1010
0.0
1020
0.0
1030
0.0
  0
LINE
  5
47D
  8
回08-記事
  6
CONTINUOUS
 62
     7
 10
1571.309876887714
 20
-371.291427335835
 30
0.0
 11
1575.809876887714
 21
-366.7914273358351
 31
0.0
1001
GRADIENTCOLOR1ACI
1070
     5
1001
GRADIENTCOLOR2ACI
1070
     2
1001
ACAD
1010
0.0
1020
0.0
1030
0.0
  0
LINE
  5
47E
  8
回08-記事
  6
CONTINUOUS
 62
     7
 10
1571.309876887714
 20
-373.5364913661024
 30
0.0
 11
1575.809876887714
 21
-369.0364913661026
 31
0.0
1001
GRADIENTCOLOR1ACI
1070
     5
1001
GRADIENTCOLOR2ACI
1070
     2
1001
ACAD
1010
0.0
1020
0.0
1030
0.0
  0
LINE
  5
47F
  8
回08-記事
  6
CONTINUOUS
 62
     7
 10
1571.309876887714
 20
-375.7815553963695
 30
0.0
 11
1575.809876887714
 21
-371.2815553963696
 31
0.0
1001
GRADIENTCOLOR1ACI
1070
     5
1001
GRADIENTCOLOR2ACI
1070
     2
1001
ACAD
1010
0.0
1020
0.0
1030
0.0
  0
LINE
  5
480
  8
回08-記事
  6
CONTINUOUS
 62
     7
 10
1571.309876887714
 20
-378.0266194266368
 30
0.0
 11
1575.809876887714
 21
-373.5266194266368
 31
0.0
1001
GRADIENTCOLOR1ACI
1070
     5
1001
GRADIENTCOLOR2ACI
1070
     2
1001
ACAD
1010
0.0
1020
0.0
1030
0.0
  0
LINE
  5
481
  8
回08-記事
  6
CONTINUOUS
 62
     7
 10
1571.309876887714
 20
-380.2716834569038
 30
0.0
 11
1575.809876887714
 21
-375.771683456904
 31
0.0
1001
GRADIENTCOLOR1ACI
1070
     5
1001
GRADIENTCOLOR2ACI
1070
     2
1001
ACAD
1010
0.0
1020
0.0
1030
0.0
  0
LINE
  5
482
  8
回08-記事
  6
CONTINUOUS
 62
     7
 10
1572.914227338714
 20
-380.9123970361712
 30
0.0
 11
1575.809876887714
 21
-378.0167474871715
 31
0.0
1001
GRADIENTCOLOR1ACI
1070
     5
1001
GRADIENTCOLOR2ACI
1070
     2
1001
ACAD
1010
0.0
1020
0.0
1030
0.0
  0
LINE
  5
483
  8
回08-記事
  6
CONTINUOUS
 62
     7
 10
1575.159291368981
 20
-380.9123970361712
 30
0.0
 11
1575.809876887714
 21
-380.2618115174386
 31
0.0
1001
GRADIENTCOLOR1ACI
1070
     5
1001
GRADIENTCOLOR2ACI
1070
     2
1001
ACAD
1010
0.0
1020
0.0
1030
0.0
  0
ENDBLK
  5
485
  8
回04-下接
  6
CONTINUOUS
 62
     5
  0
BLOCK
  8
回04-下接
  2
*X42
 70
     1
 10
0.0
 20
0.0
 30
0.0
  3
*X42
  1

  0
LINE
  5
491
  8
回08-記事
  6
CONTINUOUS
 62
     7
 10
1571.30987707809
 20
-355.5759791239639
 30
0.0
 11
1571.973459165883
 21
-354.9123970361707
 31
0.0
1001
GRADIENTCOLOR1ACI
1070
     5
1001
GRADIENTCOLOR2ACI
1070
     2
1001
ACAD
1010
0.0
1020
0.0
1030
0.0
  0
LINE
  5
492
  8
回08-記事
  6
CONTINUOUS
 62
     7
 10
1571.309877078089
 20
-357.8210431542312
 30
0.0
 11
1574.21852319615
 21
-354.9123970361705
 31
0.0
1001
GRADIENTCOLOR1ACI
1070
     5
1001
GRADIENTCOLOR2ACI
1070
     2
1001
ACAD
1010
0.0
1020
0.0
1030
0.0
  0
LINE
  5
493
  8
回08-記事
  6
CONTINUOUS
 62
     7
 10
1571.30987707809
 20
-360.0661071844982
 30
0.0
 11
1575.80987707809
 21
-355.5661071844982
 31
0.0
1001
GRADIENTCOLOR1ACI
1070
     5
1001
GRADIENTCOLOR2ACI
1070
     2
1001
ACAD
1010
0.0
1020
0.0
1030
0.0
  0
LINE
  5
494
  8
回08-記事
  6
CONTINUOUS
 62
     7
 10
1571.30987707809
 20
-362.3111712147657
 30
0.0
 11
1575.809877078089
 21
-357.8111712147656
 31
0.0
1001
GRADIENTCOLOR1ACI
1070
     5
1001
GRADIENTCOLOR2ACI
1070
     2
1001
ACAD
1010
0.0
1020
0.0
1030
0.0
  0
LINE
  5
495
  8
回08-記事
  6
CONTINUOUS
 62
     7
 10
1571.30987707809
 20
-364.5562352450329
 30
0.0
 11
1575.80987707809
 21
-360.0562352450328
 31
0.0
1001
GRADIENTCOLOR1ACI
1070
     5
1001
GRADIENTCOLOR2ACI
1070
     2
1001
ACAD
1010
0.0
1020
0.0
1030
0.0
  0
LINE
  5
496
  8
回08-記事
  6
CONTINUOUS
 62
     7
 10
1571.309877078089
 20
-366.8012992753002
 30
0.0
 11
1575.80987707809
 21
-362.3012992753001
 31
0.0
1001
GRADIENTCOLOR1ACI
1070
     5
1001
GRADIENTCOLOR2ACI
1070
     2
1001
ACAD
1010
0.0
1020
0.0
1030
0.0
  0
LINE
  5
497
  8
回08-記事
  6
CONTINUOUS
 62
     7
 10
1571.30987707809
 20
-369.0463633055674
 30
0.0
 11
1575.80987707809
 21
-364.5463633055672
 31
0.0
1001
GRADIENTCOLOR1ACI
1070
     5
1001
GRADIENTCOLOR2ACI
1070
     2
1001
ACAD
1010
0.0
1020
0.0
1030
0.0
  0
LINE
  5
498
  8
回08-記事
  6
CONTINUOUS
 62
     7
 10
1571.30987707809
 20
-371.2914273358345
 30
0.0
 11
1575.80987707809
 21
-366.7914273358344
 31
0.0
1001
GRADIENTCOLOR1ACI
1070
     5
1001
GRADIENTCOLOR2ACI
1070
     2
1001
ACAD
1010
0.0
1020
0.0
1030
0.0
  0
LINE
  5
499
  8
回08-記事
  6
CONTINUOUS
 62
     7
 10
1571.30987707809
 20
-373.5364913661018
 30
0.0
 11
1575.80987707809
 21
-369.0364913661017
 31
0.0
1001
GRADIENTCOLOR1ACI
1070
     5
1001
GRADIENTCOLOR2ACI
1070
     2
1001
ACAD
1010
0.0
1020
0.0
1030
0.0
  0
LINE
  5
49A
  8
回08-記事
  6
CONTINUOUS
 62
     7
 10
1571.309877078089
 20
-375.7815553963693
 30
0.0
 11
1575.80987707809
 21
-371.2815553963691
 31
0.0
1001
GRADIENTCOLOR1ACI
1070
     5
1001
GRADIENTCOLOR2ACI
1070
     2
1001
ACAD
1010
0.0
1020
0.0
1030
0.0
  0
LINE
  5
49B
  8
回08-記事
  6
CONTINUOUS
 62
     7
 10
1571.30987707809
 20
-378.0266194266363
 30
0.0
 11
1575.80987707809
 21
-373.5266194266362
 31
0.0
1001
GRADIENTCOLOR1ACI
1070
     5
1001
GRADIENTCOLOR2ACI
1070
     2
1001
ACAD
1010
0.0
1020
0.0
1030
0.0
  0
LINE
  5
49C
  8
回08-記事
  6
CONTINUOUS
 62
     7
 10
1571.30987707809
 20
-380.2716834569035
 30
0.0
 11
1575.80987707809
 21
-375.7716834569034
 31
0.0
1001
GRADIENTCOLOR1ACI
1070
     5
1001
GRADIENTCOLOR2ACI
1070
     2
1001
ACAD
1010
0.0
1020
0.0
1030
0.0
  0
LINE
  5
49D
  8
回08-記事
  6
CONTINUOUS
 62
     7
 10
1572.91422752909
 20
-380.9123970361704
 30
0.0
 11
1575.80987707809
 21
-378.0167474871709
 31
0.0
1001
GRADIENTCOLOR1ACI
1070
     5
1001
GRADIENTCOLOR2ACI
1070
     2
1001
ACAD
1010
0.0
1020
0.0
1030
0.0
  0
LINE
  5
49E
  8
回08-記事
  6
CONTINUOUS
 62
     7
 10
1575.159291559357
 20
-380.9123970361705
 30
0.0
 11
1575.80987707809
 21
-380.2618115174381
 31
0.0
1001
GRADIENTCOLOR1ACI
1070
     5
1001
GRADIENTCOLOR2ACI
1070
     2
1001
ACAD
1010
0.0
1020
0.0
1030
0.0
  0
ENDBLK
  5
4A0
  8
回04-下接
  6
CONTINUOUS
 62
     5
  0
BLOCK
  8
回04-下接
  2
*X43
 70
     1
 10
0.0
 20
0.0
 30
0.0
  3
*X43
  1

  0
SOLID
  5
50F
  8
回08-記事
  6
CONTINUOUS
 62
     5
 10
1735.636713840307
 20
-366.337146438239
 30
0.0
 11
1737.480084520736
 21
-367.1815963453668
 31
0.0
 12
1735.462479853154
 22
-366.980642329574
 32
0.0
 13
1735.462479853154
 23
-366.980642329574
 33
0.0
  0
LINE
  5
510
  8
回08-記事
  6
CONTINUOUS
 62
     5
 10
1735.549596846731
 20
-366.6588943839065
 30
0.0
 11
1720.111785876275
 21
-362.4789277446115
 31
0.0
  0
LINE
  5
511
  8
回08-記事
  6
CONTINUOUS
 62
     5
 10
1720.111785876275
 20
-362.4789277446115
 30
0.0
 11
1720.111785876275
 21
-362.4789277446115
 31
0.0
  0
ENDBLK
  5
513
  8
回04-下接
  6
CONTINUOUS
 62
     5
  0
BLOCK
  8
回04-下接
  2
*X44
 70
     1
 10
0.0
 20
0.0
 30
0.0
  3
*X44
  1

  0
SOLID
  5
516
  8
回08-記事
  6
CONTINUOUS
 62
     5
 10
1741.942048417012
 20
-366.4915087005798
 30
0.0
 11
1740.108119603118
 21
-367.356272377362
 31
0.0
 12
1741.562453234601
 22
-365.9434649596836
 32
0.0
 13
1741.562453234601
 23
-365.9434649596836
 33
0.0
  0
LINE
  5
517
  8
回08-記事
  6
CONTINUOUS
 62
     5
 10
1741.752250825807
 20
-366.2174868301317
 30
0.0
 11
1747.149826985181
 21
-362.4789277446115
 31
0.0
  0
LINE
  5
518
  8
回08-記事
  6
CONTINUOUS
 62
     5
 10
1747.149826985181
 20
-362.4789277446115
 30
0.0
 11
1747.149826985181
 21
-362.4789277446115
 31
0.0
  0
ENDBLK
  5
51A
  8
回04-下接
  6
CONTINUOUS
 62
     5
  0
BLOCK
  8
回04-下接
  2
*X45
 70
     1
 10
0.0
 20
0.0
 30
0.0
  3
*X45
  1

  0
LINE
  5
527
  8
回08-記事
  6
CONTINUOUS
 62
     7
 10
1739.644686613909
 20
-350.882511787752
 30
0.0
 11
1740.344686613908
 21
-350.1825117877528
 31
0.0
1001
GRADIENTCOLOR1ACI
1070
     5
1001
GRADIENTCOLOR2ACI
1070
     2
1001
ACAD
1010
0.0
1020
0.0
1030
0.0
  0
LINE
  5
528
  8
回08-記事
  6
CONTINUOUS
 62
     7
 10
1739.644686613909
 20
-352.2295502059123
 30
0.0
 11
1740.344686613908
 21
-351.529550205913
 31
0.0
1001
GRADIENTCOLOR1ACI
1070
     5
1001
GRADIENTCOLOR2ACI
1070
     2
1001
ACAD
1010
0.0
1020
0.0
1030
0.0
  0
LINE
  5
529
  8
回08-記事
  6
CONTINUOUS
 62
     7
 10
1739.644686613909
 20
-353.5765886240729
 30
0.0
 11
1740.344686613908
 21
-352.8765886240737
 31
0.0
1001
GRADIENTCOLOR1ACI
1070
     5
1001
GRADIENTCOLOR2ACI
1070
     2
1001
ACAD
1010
0.0
1020
0.0
1030
0.0
  0
LINE
  5
52A
  8
回08-記事
  6
CONTINUOUS
 62
     7
 10
1739.644686613909
 20
-354.9236270422331
 30
0.0
 11
1740.344686613908
 21
-354.223627042234
 31
0.0
1001
GRADIENTCOLOR1ACI
1070
     5
1001
GRADIENTCOLOR2ACI
1070
     2
1001
ACAD
1010
0.0
1020
0.0
1030
0.0
  0
LINE
  5
52B
  8
回08-記事
  6
CONTINUOUS
 62
     7
 10
1739.644686613909
 20
-356.2706654603937
 30
0.0
 11
1740.344686613908
 21
-355.5706654603945
 31
0.0
1001
GRADIENTCOLOR1ACI
1070
     5
1001
GRADIENTCOLOR2ACI
1070
     2
1001
ACAD
1010
0.0
1020
0.0
1030
0.0
  0
LINE
  5
52C
  8
回08-記事
  6
CONTINUOUS
 62
     7
 10
1739.644686613909
 20
-357.6177038785541
 30
0.0
 11
1740.344686613908
 21
-356.9177038785548
 31
0.0
1001
GRADIENTCOLOR1ACI
1070
     5
1001
GRADIENTCOLOR2ACI
1070
     2
1001
ACAD
1010
0.0
1020
0.0
1030
0.0
  0
LINE
  5
52D
  8
回08-記事
  6
CONTINUOUS
 62
     7
 10
1739.644686613909
 20
-358.9647422967146
 30
0.0
 11
1740.344686613908
 21
-358.2647422967153
 31
0.0
1001
GRADIENTCOLOR1ACI
1070
     5
1001
GRADIENTCOLOR2ACI
1070
     2
1001
ACAD
1010
0.0
1020
0.0
1030
0.0
  0
LINE
  5
52E
  8
回08-記事
  6
CONTINUOUS
 62
     7
 10
1739.644686613909
 20
-360.3117807148749
 30
0.0
 11
1740.344686613908
 21
-359.6117807148756
 31
0.0
1001
GRADIENTCOLOR1ACI
1070
     5
1001
GRADIENTCOLOR2ACI
1070
     2
1001
ACAD
1010
0.0
1020
0.0
1030
0.0
  0
LINE
  5
52F
  8
回08-記事
  6
CONTINUOUS
 62
     7
 10
1739.644686613909
 20
-361.6588191330354
 30
0.0
 11
1740.344686613908
 21
-360.9588191330363
 31
0.0
1001
GRADIENTCOLOR1ACI
1070
     5
1001
GRADIENTCOLOR2ACI
1070
     2
1001
ACAD
1010
0.0
1020
0.0
1030
0.0
  0
LINE
  5
530
  8
回08-記事
  6
CONTINUOUS
 62
     7
 10
1739.644686613909
 20
-363.0058575511957
 30
0.0
 11
1740.344686613908
 21
-362.3058575511964
 31
0.0
1001
GRADIENTCOLOR1ACI
1070
     5
1001
GRADIENTCOLOR2ACI
1070
     2
1001
ACAD
1010
0.0
1020
0.0
1030
0.0
  0
LINE
  5
531
  8
回08-記事
  6
CONTINUOUS
 62
     7
 10
1739.644686613909
 20
-364.3528959693563
 30
0.0
 11
1740.344686613908
 21
-363.652895969357
 31
0.0
1001
GRADIENTCOLOR1ACI
1070
     5
1001
GRADIENTCOLOR2ACI
1070
     2
1001
ACAD
1010
0.0
1020
0.0
1030
0.0
  0
LINE
  5
532
  8
回08-記事
  6
CONTINUOUS
 62
     7
 10
1739.644686613909
 20
-365.6999343875165
 30
0.0
 11
1740.344686613908
 21
-364.9999343875173
 31
0.0
1001
GRADIENTCOLOR1ACI
1070
     5
1001
GRADIENTCOLOR2ACI
1070
     2
1001
ACAD
1010
0.0
1020
0.0
1030
0.0
  0
LINE
  5
533
  8
回08-記事
  6
CONTINUOUS
 62
     7
 10
1739.644686613909
 20
-367.0469728056771
 30
0.0
 11
1740.344686613908
 21
-366.3469728056779
 31
0.0
1001
GRADIENTCOLOR1ACI
1070
     5
1001
GRADIENTCOLOR2ACI
1070
     2
1001
ACAD
1010
0.0
1020
0.0
1030
0.0
  0
LINE
  5
534
  8
回08-記事
  6
CONTINUOUS
 62
     7
 10
1739.644686613909
 20
-368.3940112238377
 30
0.0
 11
1740.344686613908
 21
-367.6940112238384
 31
0.0
1001
GRADIENTCOLOR1ACI
1070
     5
1001
GRADIENTCOLOR2ACI
1070
     2
1001
ACAD
1010
0.0
1020
0.0
1030
0.0
  0
LINE
  5
535
  8
回08-記事
  6
CONTINUOUS
 62
     7
 10
1739.644686613909
 20
-369.7410496419978
 30
0.0
 11
1740.344686613908
 21
-369.0410496419987
 31
0.0
1001
GRADIENTCOLOR1ACI
1070
     5
1001
GRADIENTCOLOR2ACI
1070
     2
1001
ACAD
1010
0.0
1020
0.0
1030
0.0
  0
LINE
  5
536
  8
回08-記事
  6
CONTINUOUS
 62
     7
 10
1739.644686613909
 20
-371.0880880601583
 30
0.0
 11
1740.344686613908
 21
-370.3880880601594
 31
0.0
1001
GRADIENTCOLOR1ACI
1070
     5
1001
GRADIENTCOLOR2ACI
1070
     2
1001
ACAD
1010
0.0
1020
0.0
1030
0.0
  0
LINE
  5
537
  8
回08-記事
  6
CONTINUOUS
 62
     7
 10
1739.644686613909
 20
-372.4351264783188
 30
0.0
 11
1740.344686613908
 21
-371.7351264783196
 31
0.0
1001
GRADIENTCOLOR1ACI
1070
     5
1001
GRADIENTCOLOR2ACI
1070
     2
1001
ACAD
1010
0.0
1020
0.0
1030
0.0
  0
LINE
  5
538
  8
回08-記事
  6
CONTINUOUS
 62
     7
 10
1739.644686613909
 20
-373.7821648964792
 30
0.0
 11
1740.344686613908
 21
-373.08216489648
 31
0.0
1001
GRADIENTCOLOR1ACI
1070
     5
1001
GRADIENTCOLOR2ACI
1070
     2
1001
ACAD
1010
0.0
1020
0.0
1030
0.0
  0
LINE
  5
539
  8
回08-記事
  6
CONTINUOUS
 62
     7
 10
1739.644686613909
 20
-375.1292033146395
 30
0.0
 11
1740.344686613908
 21
-374.4292033146404
 31
0.0
1001
GRADIENTCOLOR1ACI
1070
     5
1001
GRADIENTCOLOR2ACI
1070
     2
1001
ACAD
1010
0.0
1020
0.0
1030
0.0
  0
LINE
  5
53A
  8
回08-記事
  6
CONTINUOUS
 62
     7
 10
1740.329873152067
 20
-375.7910551946423
 30
0.0
 11
1740.344686613908
 21
-375.7762417328008
 31
0.0
1001
GRADIENTCOLOR1ACI
1070
     5
1001
GRADIENTCOLOR2ACI
1070
     2
1001
ACAD
1010
0.0
1020
0.0
1030
0.0
  0
ENDBLK
  5
53C
  8
回04-下接
  6
CONTINUOUS
 62
     5
  0
BLOCK
  8
回04-下接
  2
*X46
 70
     1
 10
0.0
 20
0.0
 30
0.0
  3
*X46
  1

  0
LINE
  5
53F
  8
回08-記事
  6
CONTINUOUS
 62
     7
 10
1730.051502394938
 20
-330.4877992928044
 30
0.0
 11
1731.030891863122
 21
-329.5084098246208
 31
0.0
1001
GRADIENTCOLOR1ACI
1070
     5
1001
GRADIENTCOLOR2ACI
1070
     2
1001
ACAD
1010
0.0
1020
0.0
1030
0.0
  0
LINE
  5
540
  8
回08-記事
  6
CONTINUOUS
 62
     7
 10
1730.051502394938
 20
-331.8348377109647
 30
0.0
 11
1730.751502394938
 21
-331.1348377109648
 31
0.0
1001
GRADIENTCOLOR1ACI
1070
     5
1001
GRADIENTCOLOR2ACI
1070
     2
1001
ACAD
1010
0.0
1020
0.0
1030
0.0
  0
LINE
  5
541
  8
回08-記事
  6
CONTINUOUS
 62
     7
 10
1731.377930281282
 20
-330.5084098246207
 30
0.0
 11
1732.377930281282
 21
-329.5084098246205
 31
0.0
1001
GRADIENTCOLOR1ACI
1070
     5
1001
GRADIENTCOLOR2ACI
1070
     2
1001
ACAD
1010
0.0
1020
0.0
1030
0.0
  0
LINE
  5
542
  8
回08-記事
  6
CONTINUOUS
 62
     7
 10
1730.051502394938
 20
-333.1818761291253
 30
0.0
 11
1730.751502394938
 21
-332.4818761291254
 31
0.0
1001
GRADIENTCOLOR1ACI
1070
     5
1001
GRADIENTCOLOR2ACI
1070
     2
1001
ACAD
1010
0.0
1020
0.0
1030
0.0
  0
LINE
  5
543
  8
回08-記事
  6
CONTINUOUS
 62
     7
 10
1732.724968699443
 20
-330.5084098246206
 30
0.0
 11
1733.724968699443
 21
-329.5084098246206
 31
0.0
1001
GRADIENTCOLOR1ACI
1070
     5
1001
GRADIENTCOLOR2ACI
1070
     2
1001
ACAD
1010
0.0
1020
0.0
1030
0.0
  0
LINE
  5
544
  8
回08-記事
  6
CONTINUOUS
 62
     7
 10
1730.656055488415
 20
-333.9243614538085
 30
0.0
 11
1730.751502394938
 21
-333.8289145472855
 31
0.0
1001
GRADIENTCOLOR1ACI
1070
     5
1001
GRADIENTCOLOR2ACI
1070
     2
1001
ACAD
1010
0.0
1020
0.0
1030
0.0
  0
LINE
  5
545
  8
回08-記事
  6
CONTINUOUS
 62
     7
 10
1734.072007117603
 20
-330.5084098246206
 30
0.0
 11
1735.072007117603
 21
-329.5084098246205
 31
0.0
1001
GRADIENTCOLOR1ACI
1070
     5
1001
GRADIENTCOLOR2ACI
1070
     2
1001
ACAD
1010
0.0
1020
0.0
1030
0.0
  0
LINE
  5
546
  8
回08-記事
  6
CONTINUOUS
 62
     7
 10
1735.419045535763
 20
-330.5084098246207
 30
0.0
 11
1736.419045535764
 21
-329.5084098246206
 31
0.0
1001
GRADIENTCOLOR1ACI
1070
     5
1001
GRADIENTCOLOR2ACI
1070
     2
1001
ACAD
1010
0.0
1020
0.0
1030
0.0
  0
LINE
  5
547
  8
回08-記事
  6
CONTINUOUS
 62
     7
 10
1736.766083953924
 20
-330.5084098246205
 30
0.0
 11
1737.766083953924
 21
-329.5084098246202
 31
0.0
1001
GRADIENTCOLOR1ACI
1070
     5
1001
GRADIENTCOLOR2ACI
1070
     2
1001
ACAD
1010
0.0
1020
0.0
1030
0.0
  0
LINE
  5
548
  8
回08-記事
  6
CONTINUOUS
 62
     7
 10
1739.644686613909
 20
-330.3238840009563
 30
0.0
 11
1740.160160790245
 21
-329.8084098246204
 31
0.0
1001
GRADIENTCOLOR1ACI
1070
     5
1001
GRADIENTCOLOR2ACI
1070
     2
1001
ACAD
1010
0.0
1020
0.0
1030
0.0
  0
LINE
  5
549
  8
回08-記事
  6
CONTINUOUS
 62
     7
 10
1739.644686613909
 20
-331.6709224191169
 30
0.0
 11
1740.344686613908
 21
-330.9709224191177
 31
0.0
1001
GRADIENTCOLOR1ACI
1070
     5
1001
GRADIENTCOLOR2ACI
1070
     2
1001
ACAD
1010
0.0
1020
0.0
1030
0.0
  0
LINE
  5
54A
  8
回08-記事
  6
CONTINUOUS
 62
     7
 10
1740.807199208405
 20
-330.5084098246206
 30
0.0
 11
1741.507199208405
 21
-329.8084098246205
 31
0.0
1001
GRADIENTCOLOR1ACI
1070
     5
1001
GRADIENTCOLOR2ACI
1070
     2
1001
ACAD
1010
0.0
1020
0.0
1030
0.0
  0
LINE
  5
54B
  8
回08-記事
  6
CONTINUOUS
 62
     7
 10
1739.644686613909
 20
-333.0179608372772
 30
0.0
 11
1740.344686613908
 21
-332.3179608372779
 31
0.0
1001
GRADIENTCOLOR1ACI
1070
     5
1001
GRADIENTCOLOR2ACI
1070
     2
1001
ACAD
1010
0.0
1020
0.0
1030
0.0
  0
LINE
  5
54C
  8
回08-記事
  6
CONTINUOUS
 62
     7
 10
1742.154237626566
 20
-330.5084098246204
 30
0.0
 11
1742.854237626566
 21
-329.8084098246206
 31
0.0
1001
GRADIENTCOLOR1ACI
1070
     5
1001
GRADIENTCOLOR2ACI
1070
     2
1001
ACAD
1010
0.0
1020
0.0
1030
0.0
  0
LINE
  5
54D
  8
回08-記事
  6
CONTINUOUS
 62
     7
 10
1740.085324415538
 20
-333.9243614538087
 30
0.0
 11
1740.344686613908
 21
-333.6649992554385
 31
0.0
1001
GRADIENTCOLOR1ACI
1070
     5
1001
GRADIENTCOLOR2ACI
1070
     2
1001
ACAD
1010
0.0
1020
0.0
1030
0.0
  0
LINE
  5
54E
  8
回08-記事
  6
CONTINUOUS
 62
     7
 10
1743.501276044726
 20
-330.5084098246205
 30
0.0
 11
1744.201276044726
 21
-329.8084098246206
 31
0.0
1001
GRADIENTCOLOR1ACI
1070
     5
1001
GRADIENTCOLOR2ACI
1070
     2
1001
ACAD
1010
0.0
1020
0.0
1030
0.0
  0
LINE
  5
54F
  8
回08-記事
  6
CONTINUOUS
 62
     7
 10
1745.944686613909
 20
-328.0649992554377
 30
0.0
 11
1746.644686613908
 21
-327.3649992554384
 31
0.0
1001
GRADIENTCOLOR1ACI
1070
     5
1001
GRADIENTCOLOR2ACI
1070
     2
1001
ACAD
1010
0.0
1020
0.0
1030
0.0
  0
LINE
  5
550
  8
回08-記事
  6
CONTINUOUS
 62
     7
 10
1744.848314462886
 20
-330.5084098246208
 30
0.0
 11
1745.548314462886
 21
-329.8084098246208
 31
0.0
1001
GRADIENTCOLOR1ACI
1070
     5
1001
GRADIENTCOLOR2ACI
1070
     2
1001
ACAD
1010
0.0
1020
0.0
1030
0.0
  0
LINE
  5
551
  8
回08-記事
  6
CONTINUOUS
 62
     7
 10
1745.944686613909
 20
-329.4120376735982
 30
0.0
 11
1746.644686613908
 21
-328.7120376735988
 31
0.0
1001
GRADIENTCOLOR1ACI
1070
     5
1001
GRADIENTCOLOR2ACI
1070
     2
1001
ACAD
1010
0.0
1020
0.0
1030
0.0
  0
LINE
  5
552
  8
回08-記事
  6
CONTINUOUS
 62
     7
 10
1746.195352881047
 20
-330.5084098246205
 30
0.0
 11
1746.644686613908
 21
-330.0590760917595
 31
0.0
1001
GRADIENTCOLOR1ACI
1070
     5
1001
GRADIENTCOLOR2ACI
1070
     2
1001
ACAD
1010
0.0
1020
0.0
1030
0.0
  0
ENDBLK
  5
554
  8
回04-下接
  6
CONTINUOUS
 62
     5
  0
BLOCK
  8
回04-下接
  2
*X47
 70
     1
 10
0.0
 20
0.0
 30
0.0
  3
*X47
  1

  0
LINE
  5
58A
  8
回08-記事
  6
CONTINUOUS
 62
     7
 10
1737.244686613908
 20
-350.8825117877531
 30
0.0
 11
1737.944686613908
 21
-350.1825117877532
 31
0.0
1001
GRADIENTCOLOR1ACI
1070
     5
1001
GRADIENTCOLOR2ACI
1070
     2
1001
ACAD
1010
0.0
1020
0.0
1030
0.0
  0
LINE
  5
58B
  8
回08-記事
  6
CONTINUOUS
 62
     7
 10
1737.244686613908
 20
-352.2295502059133
 30
0.0
 11
1737.944686613908
 21
-351.5295502059131
 31
0.0
1001
GRADIENTCOLOR1ACI
1070
     5
1001
GRADIENTCOLOR2ACI
1070
     2
1001
ACAD
1010
0.0
1020
0.0
1030
0.0
  0
LINE
  5
58C
  8
回08-記事
  6
CONTINUOUS
 62
     7
 10
1737.244686613908
 20
-353.5765886240738
 30
0.0
 11
1737.944686613908
 21
-352.8765886240738
 31
0.0
1001
GRADIENTCOLOR1ACI
1070
     5
1001
GRADIENTCOLOR2ACI
1070
     2
1001
ACAD
1010
0.0
1020
0.0
1030
0.0
  0
LINE
  5
58D
  8
回08-記事
  6
CONTINUOUS
 62
     7
 10
1737.244686613908
 20
-354.9236270422341
 30
0.0
 11
1737.944686613908
 21
-354.223627042234
 31
0.0
1001
GRADIENTCOLOR1ACI
1070
     5
1001
GRADIENTCOLOR2ACI
1070
     2
1001
ACAD
1010
0.0
1020
0.0
1030
0.0
  0
LINE
  5
58E
  8
回08-記事
  6
CONTINUOUS
 62
     7
 10
1737.244686613908
 20
-356.2706654603946
 30
0.0
 11
1737.944686613908
 21
-355.5706654603946
 31
0.0
1001
GRADIENTCOLOR1ACI
1070
     5
1001
GRADIENTCOLOR2ACI
1070
     2
1001
ACAD
1010
0.0
1020
0.0
1030
0.0
  0
LINE
  5
58F
  8
回08-記事
  6
CONTINUOUS
 62
     7
 10
1737.244686613908
 20
-357.6177038785553
 30
0.0
 11
1737.944686613908
 21
-356.9177038785551
 31
0.0
1001
GRADIENTCOLOR1ACI
1070
     5
1001
GRADIENTCOLOR2ACI
1070
     2
1001
ACAD
1010
0.0
1020
0.0
1030
0.0
  0
LINE
  5
590
  8
回08-記事
  6
CONTINUOUS
 62
     7
 10
1737.244686613908
 20
-358.9647422967156
 30
0.0
 11
1737.944686613908
 21
-358.2647422967156
 31
0.0
1001
GRADIENTCOLOR1ACI
1070
     5
1001
GRADIENTCOLOR2ACI
1070
     2
1001
ACAD
1010
0.0
1020
0.0
1030
0.0
  0
LINE
  5
591
  8
回08-記事
  6
CONTINUOUS
 62
     7
 10
1737.244686613908
 20
-360.3117807148761
 30
0.0
 11
1737.944686613908
 21
-359.6117807148762
 31
0.0
1001
GRADIENTCOLOR1ACI
1070
     5
1001
GRADIENTCOLOR2ACI
1070
     2
1001
ACAD
1010
0.0
1020
0.0
1030
0.0
  0
LINE
  5
592
  8
回08-記事
  6
CONTINUOUS
 62
     7
 10
1737.244686613908
 20
-361.6588191330365
 30
0.0
 11
1737.944686613908
 21
-360.9588191330362
 31
0.0
1001
GRADIENTCOLOR1ACI
1070
     5
1001
GRADIENTCOLOR2ACI
1070
     2
1001
ACAD
1010
0.0
1020
0.0
1030
0.0
  0
LINE
  5
593
  8
回08-記事
  6
CONTINUOUS
 62
     7
 10
1737.244686613908
 20
-363.0058575511969
 30
0.0
 11
1737.944686613908
 21
-362.305857551197
 31
0.0
1001
GRADIENTCOLOR1ACI
1070
     5
1001
GRADIENTCOLOR2ACI
1070
     2
1001
ACAD
1010
0.0
1020
0.0
1030
0.0
  0
LINE
  5
594
  8
回08-記事
  6
CONTINUOUS
 62
     7
 10
1737.244686613908
 20
-364.352895969357
 30
0.0
 11
1737.944686613908
 21
-363.652895969357
 31
0.0
1001
GRADIENTCOLOR1ACI
1070
     5
1001
GRADIENTCOLOR2ACI
1070
     2
1001
ACAD
1010
0.0
1020
0.0
1030
0.0
  0
LINE
  5
595
  8
回08-記事
  6
CONTINUOUS
 62
     7
 10
1737.244686613908
 20
-365.6999343875178
 30
0.0
 11
1737.944686613908
 21
-364.9999343875178
 31
0.0
1001
GRADIENTCOLOR1ACI
1070
     5
1001
GRADIENTCOLOR2ACI
1070
     2
1001
ACAD
1010
0.0
1020
0.0
1030
0.0
  0
LINE
  5
596
  8
回08-記事
  6
CONTINUOUS
 62
     7
 10
1737.244686613908
 20
-367.0469728056779
 30
0.0
 11
1737.944686613908
 21
-366.346972805678
 31
0.0
1001
GRADIENTCOLOR1ACI
1070
     5
1001
GRADIENTCOLOR2ACI
1070
     2
1001
ACAD
1010
0.0
1020
0.0
1030
0.0
  0
LINE
  5
597
  8
回08-記事
  6
CONTINUOUS
 62
     7
 10
1737.244686613908
 20
-368.3940112238385
 30
0.0
 11
1737.944686613908
 21
-367.6940112238385
 31
0.0
1001
GRADIENTCOLOR1ACI
1070
     5
1001
GRADIENTCOLOR2ACI
1070
     2
1001
ACAD
1010
0.0
1020
0.0
1030
0.0
  0
LINE
  5
598
  8
回08-記事
  6
CONTINUOUS
 62
     7
 10
1737.244686613908
 20
-369.7410496419987
 30
0.0
 11
1737.944686613908
 21
-369.0410496419988
 31
0.0
1001
GRADIENTCOLOR1ACI
1070
     5
1001
GRADIENTCOLOR2ACI
1070
     2
1001
ACAD
1010
0.0
1020
0.0
1030
0.0
  0
LINE
  5
599
  8
回08-記事
  6
CONTINUOUS
 62
     7
 10
1737.244686613908
 20
-371.0880880601594
 30
0.0
 11
1737.944686613908
 21
-370.3880880601594
 31
0.0
1001
GRADIENTCOLOR1ACI
1070
     5
1001
GRADIENTCOLOR2ACI
1070
     2
1001
ACAD
1010
0.0
1020
0.0
1030
0.0
  0
LINE
  5
59A
  8
回08-記事
  6
CONTINUOUS
 62
     7
 10
1737.244686613908
 20
-372.4351264783195
 30
0.0
 11
1737.944686613908
 21
-371.7351264783195
 31
0.0
1001
GRADIENTCOLOR1ACI
1070
     5
1001
GRADIENTCOLOR2ACI
1070
     2
1001
ACAD
1010
0.0
1020
0.0
1030
0.0
  0
LINE
  5
59B
  8
回08-記事
  6
CONTINUOUS
 62
     7
 10
1737.244686613908
 20
-373.7821648964803
 30
0.0
 11
1737.944686613908
 21
-373.0821648964801
 31
0.0
1001
GRADIENTCOLOR1ACI
1070
     5
1001
GRADIENTCOLOR2ACI
1070
     2
1001
ACAD
1010
0.0
1020
0.0
1030
0.0
  0
LINE
  5
59C
  8
回08-記事
  6
CONTINUOUS
 62
     7
 10
1737.244686613908
 20
-375.1292033146406
 30
0.0
 11
1737.944686613908
 21
-374.4292033146404
 31
0.0
1001
GRADIENTCOLOR1ACI
1070
     5
1001
GRADIENTCOLOR2ACI
1070
     2
1001
ACAD
1010
0.0
1020
0.0
1030
0.0
  0
LINE
  5
59D
  8
回08-記事
  6
CONTINUOUS
 62
     7
 10
1737.929873152066
 20
-375.7910551946424
 30
0.0
 11
1737.944686613908
 21
-375.776241732801
 31
0.0
1001
GRADIENTCOLOR1ACI
1070
     5
1001
GRADIENTCOLOR2ACI
1070
     2
1001
ACAD
1010
0.0
1020
0.0
1030
0.0
  0
ENDBLK
  5
59F
  8
回04-下接
  6
CONTINUOUS
 62
     5
  0
BLOCK
  8
回04-下接
  2
*X48
 70
     1
 10
0.0
 20
0.0
 30
0.0
  3
*X48
  1

  0
TEXT
  5
5C0
  8
回07-寸法
  6
CONTINUOUS
 62
     5
 10
1729.747873380863
 20
-208.2030344681712
 30
0.0
 40
4.0
  1
1.4
  0
TEXT
  5
5C1
  8
回07-寸法
  6
CONTINUOUS
 62
     5
 10
1736.147873380863
 20
-208.2030344681712
 30
0.0
 40
2.0
  1
±0.2
  0
ENDBLK
  5
5C3
  8
回04-下接
  6
CONTINUOUS
 62
     5
  0
BLOCK
  8
回04-下接
  2
*X49
 70
     1
 10
0.0
 20
0.0
 30
0.0
  3
*X49
  1

  0
TEXT
  5
5C6
  8
回07-寸法
  6
CONTINUOUS
 62
     5
 10
1710.884796394937
 20
-409.7308187365611
 30
0.0
 40
4.0
  1
0.3
  0
TEXT
  5
5C7
  8
回07-寸法
  6
CONTINUOUS
 62
     5
 10
1717.684796394937
 20
-409.7308187365611
 30
0.0
 40
2.666679999999999
  1
±0.05
  0
ENDBLK
  5
5C9
  8
回04-下接
  6
CONTINUOUS
 62
     5
  0
BLOCK
  8
回04-下接
  2
*X50
 70
     1
 10
0.0
 20
0.0
 30
0.0
  3
*X50
  1

  0
TEXT
  5
5CC
  8
回07-寸法
  6
CONTINUOUS
 62
     5
 10
1741.847836220207
 20
-416.0360589077536
 30
0.0
 40
4.0
  1
0.3
  0
TEXT
  5
5CD
  8
回07-寸法
  6
CONTINUOUS
 62
     5
 10
1748.647836220207
 20
-416.0360589077536
 30
0.0
 40
2.666679999999999
  1
±0.05
  0
ENDBLK
  5
5CF
  8
回04-下接
  6
CONTINUOUS
 62
     5
  0
BLOCK
  8
回04-下接
  2
*X51
 70
     1
 10
0.0
 20
0.0
 30
0.0
  3
*X51
  1

  0
TEXT
  5
5D2
  8
回07-寸法
  6
CONTINUOUS
 62
     5
 10
1530.320979327534
 20
-369.3784098246206
 30
0.0
 40
4.0
  1
70
 50
90.0
  0
TEXT
  5
5D3
  8
回07-寸法
  6
CONTINUOUS
 62
     5
 10
1530.320979327534
 20
-363.7784098246207
 30
0.0
 40
2.799999999999999
  1
±1
 50
90.0
  0
ENDBLK
  5
5D5
  8
回04-下接
  6
CONTINUOUS
 62
     5
  0
BLOCK
  8
回04-下接
  2
*X52
 70
     1
 10
0.0
 20
0.0
 30
0.0
  3
*X52
  1

  0
TEXT
  5
5D8
  8
回07-寸法
  6
CONTINUOUS
 62
     5
 10
1637.416336931114
 20
-369.3783856392147
 30
0.0
 40
4.0
  1
70
 50
90.0
  0
TEXT
  5
5D9
  8
回07-寸法
  6
CONTINUOUS
 62
     5
 10
1637.416336931114
 20
-363.7783856392148
 30
0.0
 40
2.799999999999999
  1
±1
 50
90.0
  0
ENDBLK
  5
5DB
  8
回04-下接
  6
CONTINUOUS
 62
     5
  0
BLOCK
  8
回04-下接
  2
*X53
 70
     1
 10
0.0
 20
0.0
 30
0.0
  3
*X53
  1

  0
TEXT
  5
5DE
  8
回07-寸法
  6
CONTINUOUS
 62
     5
 10
1552.672592701131
 20
-423.013841040837
 30
0.0
 40
4.0
  1
9.5
  0
TEXT
  5
5DF
  8
回07-寸法
  6
CONTINUOUS
 62
     5
 10
1559.487034175239
 20
-423.013841040837
 30
0.0
 40
2.799999999999999
  1
±0.1
  0
ENDBLK
  5
5E1
  8
回04-下接
  6
CONTINUOUS
 62
     5
  0
BLOCK
  8
回04-下接
  2
*X54
 70
     1
 10
0.0
 20
0.0
 30
0.0
  3
*X54
  1

  0
TEXT
  5
5E4
  8
回07-寸法
  6
CONTINUOUS
 62
     5
 10
1601.209876887715
 20
-435.0957450427674
 30
0.0
 40
4.0
  1
8.5
  0
TEXT
  5
5E5
  8
回07-寸法
  6
CONTINUOUS
 62
     5
 10
1608.009876887715
 20
-435.0957450427674
 30
0.0
 40
2.799999999999999
  1
±0.1
  0
ENDBLK
  5
5E7
  8
回04-下接
  6
CONTINUOUS
 62
     5
  0
BLOCK
  8
回04-下接
  2
*X55
 70
     1
 10
0.0
 20
0.0
 30
0.0
  3
*X55
  1

  0
TEXT
  5
5EA
  8
回07-寸法
  6
CONTINUOUS
 62
     5
 10
1572.861002393539
 20
-172.3284098246203
 30
0.0
 40
4.0
  1
134.2
  0
TEXT
  5
5EB
  8
回07-寸法
  6
CONTINUOUS
 62
     5
 10
1584.861002393539
 20
-172.3284098246203
 30
0.0
 40
2.799999999999999
  1
±0.3
  0
ENDBLK
  5
5ED
  8
回04-下接
  6
CONTINUOUS
 62
     5
  0
BLOCK
  8
回04-下接
  2
*X56
 70
     1
 10
0.0
 20
0.0
 30
0.0
  3
*X56
  1

  0
TEXT
  5
5F0
  8
回07-寸法
  6
CONTINUOUS
 62
     5
 10
1467.711002393541
 20
-283.3584098246204
 30
0.0
 40
4.0
  1
110.6
 50
90.0
  0
TEXT
  5
5F1
  8
回07-寸法
  6
CONTINUOUS
 62
     5
 10
1467.711002393541
 20
-272.5584098246204
 30
0.0
 40
2.799999999999999
  1
±0.3
 50
90.0
  0
ENDBLK
  5
5F3
  8
回04-下接
  6
CONTINUOUS
 62
     5
  0
ENDSEC
  0
SECTION
  2
ENTITIES
  0
TEXT
  5
6C
  8
回03-記事
  6
CONTINUOUS
 62
     5
 10
1515.50824568248
 20
-486.2613956694129
 30
0.0
 40
4.799999999999999
  1
without affecting product specification.
  0
TEXT
  5
6E
  8
回03-記事
  6
CONTINUOUS
 62
     5
 10
1515.50824568248
 20
-477.8416899552131
 30
0.0
 40
4.799999999999999
  1
Edges and corners of ITO glass may be chamfered 
  0
TEXT
  5
6F
  8
回03-記事
  6
CONTINUOUS
 62
     5
 10
1515.50824568248
 20
-469.4219842410133
 30
0.0
 40
4.799999999999999
  1
Unit: mm
  0
TEXT
  5
70
  8
回03-記事
  6
CONTINUOUS
 62
     5
 10
1515.50824568248
 20
-461.0022785268134
 30
0.0
 40
4.799999999999999
  1
EXCEPT WHERE INDICATED
  0
TEXT
  5
71
  8
回03-記事
  6
CONTINUOUS
 62
     5
 10
1515.50824568248
 20
-452.5825728126138
 30
0.0
 40
4.799999999999999
  1
TOLERANCE=±0.5mm
  0
LINE
  5
72
  8
回04-図面枠
  6
CONTINUOUS
 62
     7
 10
1880.343270258603
 20
-498.9814155066906
 30
0.0
 11
1880.343270258603
 21
-482.9814155066906
 31
0.0
  0
LINE
  5
75
  8
回04-図面枠
  6
CENTER2
 62
     7
 10
1888.691123025012
 20
-496.7270564236187
 30
0.0
 11
1888.691123025012
 21
-485.5269592258721
 31
0.0
  0
LINE
  5
77
  8
回04-図面枠
  6
CONTINUOUS
 62
     7
 10
1896.317512064911
 20
-493.4916728457281
 30
0.0
 11
1904.590800307696
 21
-495.5976520053495
 31
0.0
  0
LINE
  5
78
  8
回04-図面枠
  6
CONTINUOUS
 62
     7
 10
1896.317512064911
 20
-488.7623428037628
 30
0.0
 11
1904.590800307696
 21
-486.6563636441401
 31
0.0
  0
LINE
  5
79
  8
回04-図面枠
  6
CONTINUOUS
 62
     7
 10
1904.590800307696
 20
-486.6563636441401
 30
0.0
 11
1904.590800307696
 21
-495.5976520053495
 31
0.0
  0
LINE
  5
7A
  8
回04-図面枠
  6
CONTINUOUS
 62
     7
 10
1896.317512064911
 20
-488.7623428037628
 30
0.0
 11
1896.317512064911
 21
-493.4916728457281
 31
0.0
  0
LINE
  5
7B
  8
回04-図面枠
  6
CENTER2
 62
     7
 10
1883.556716125491
 20
-491.1270078247447
 30
0.0
 11
1905.324048048885
 21
-491.1270078247447
 31
0.0
  0
CIRCLE
  5
7C
  8
回04-図面枠
  6
CONTINUOUS
 62
     7
 10
1888.691123025012
 20
-491.1270078247447
 30
0.0
 40
2.364665020982694
  0
CIRCLE
  5
7D
  8
回04-図面枠
  6
CONTINUOUS
 62
     7
 10
1888.691123025012
 20
-491.1270078247447
 30
0.0
 40
4.47064418060417
  0
TEXT
  5
7E
  8
回03-記事
  6
CONTINUOUS
 10
1825.955389694838
 20
-430.2815669943417
 30
0.0
 40
5.395474022399999
  1
PROTECTION TAPE
  0
TEXT
  5
7F
  8
回03-記事
  6
CONTINUOUS
 10
1817.530924491299
 20
-430.3100718485291
 30
0.0
 40
5.611292983296002
  1
6
  0
LINE
  5
80
  8
回03-記事
  6
CONTINUOUS
 10
1814.664084490642
 20
-431.9212342035459
 30
0.0
 11
1898.254736005709
 21
-431.9212342035459
 31
0.0
  0
TEXT
  5
81
  8
回03-記事
  6
CONTINUOUS
 10
1825.270476113405
 20
-421.1630002468502
 30
0.0
 40
5.611292983296002
  1
STIFFENER
  0
TEXT
  5
82
  8
回03-記事
  6
CONTINUOUS
 10
1825.270476113405
 20
-411.810845274689
 30
0.0
 40
5.611292983296002
  1
REINFORCEMENT FILM
  0
TEXT
  5
83
  8
回03-記事
  6
CONTINUOUS
 10
1847.353812954784
 20
-374.0301168916163
 30
0.0
 40
5.611292983296002
  1
ITEM
  0
LINE
  5
84
  8
回03-記事
  6
CONTINUOUS
 10
1898.254736005709
 20
-431.9212342035459
 30
0.0
 11
1898.254736005709
 21
-366.4561493984261
 31
0.0
  0
TEXT
  5
85
  8
回03-記事
  6
CONTINUOUS
 10
1817.530924491299
 20
-402.2536069320526
 30
0.0
 40
5.611292983296002
  1
3
  0
TEXT
  5
86
  8
回03-記事
  6
CONTINUOUS
 10
1817.530924491299
 20
-411.6057619042096
 30
0.0
 40
5.611292983296002
  1
4
  0
TEXT
  5
87
  8
回03-記事
  6
CONTINUOUS
 10
1817.530924491299
 20
-392.9014519598871
 30
0.0
 40
5.611292983296002
  1
2
  0
TEXT
  5
88
  8
回03-記事
  6
CONTINUOUS
 10
1817.530924491299
 20
-420.9579168763693
 30
0.0
 40
5.611292983296002
  1
5
  0
LINE
  5
89
  8
回03-記事
  6
CONTINUOUS
 10
1824.394635529016
 20
-366.4561493984261
 30
0.0
 11
1824.394635529016
 21
-431.9212342035459
 31
0.0
  0
LINE
  5
8A
  8
回03-記事
  6
CONTINUOUS
 10
1814.664084490642
 20
-366.4561493984261
 30
0.0
 11
1814.664084490642
 21
-431.9212342035459
 31
0.0
  0
TEXT
  5
8B
  8
回03-記事
  6
CONTINUOUS
 10
1817.530924491299
 20
-383.5492969877303
 30
0.0
 40
5.611292983296002
  1
1
  0
LINE
  5
8C
  8
回03-記事
  6
CONTINUOUS
 10
1814.664084490642
 20
-422.569079231386
 30
0.0
 11
1898.254736005709
 21
-422.569079231386
 31
0.0
  0
LINE
  5
8D
  8
回03-記事
  6
CONTINUOUS
 10
1814.664084490642
 20
-366.4561493984261
 30
0.0
 11
1898.254736005709
 21
-366.4561493984261
 31
0.0
  0
LINE
  5
8E
  8
回03-記事
  6
CONTINUOUS
 10
1814.664084490642
 20
-385.1604593427442
 30
0.0
 11
1898.254736005709
 21
-385.16045934275
 31
0.0
  0
LINE
  5
8F
  8
回03-記事
  6
CONTINUOUS
 10
1814.664084490642
 20
-375.8083043705845
 30
0.0
 11
1898.254736005709
 21
-375.8083043705845
 31
0.0
  0
LINE
  5
90
  8
回03-記事
  6
CONTINUOUS
 10
1814.664084490642
 20
-413.2169242592248
 30
0.0
 11
1898.254736005709
 21
-413.2169242592248
 31
0.0
  0
LINE
  5
91
  8
回03-記事
  6
CONTINUOUS
 10
1814.664084490642
 20
-403.8647692870652
 30
0.0
 11
1898.254736005709
 21
-403.8647692870652
 31
0.0
  0
LINE
  5
92
  8
回03-記事
  6
CONTINUOUS
 10
1814.664084490642
 20
-394.5126143149054
 30
0.0
 11
1898.254736005709
 21
-394.5126143149054
 31
0.0
  0
TEXT
  5
93
  8
回03-記事
  6
CONTINUOUS
 10
1825.270476113405
 20
-383.6696694512428
 30
0.0
 40
5.611292983296002
  1
ITO FILM
  0
TEXT
  5
94
  8
回03-記事
  6
CONTINUOUS
 10
1825.270476113405
 20
-393.021824423404
 30
0.0
 40
5.611292983296002
  1
ITO GLASS
  0
TEXT
  5
95
  8
回03-記事
  6
CONTINUOUS
 10
1825.270476113405
 20
-402.3739793955666
 30
0.0
 40
5.611292983296002
  1
TAIL
  0
TEXT
  5
96
  8
回04-図面枠
 62
     7
 10
1817.359400629488
 20
-475.369720728599
 30
0.0
 40
8.0
  1
Oct/12/2023
 72
     1
 11
1846.959400629488
 21
-475.369720728599
 31
0.0
  0
TEXT
  5
97
  8
回04-図面枠
  6
CONTINUOUS
 62
     7
 10
1838.880568797861
 20
-457.8666216636031
 30
0.0
 40
4.799999999999999
  1
DATE
  0
TEXT
  5
98
  8
回04-図面枠
 62
     7
 10
1802.24209087804
 20
-494.9210829671834
 30
0.0
 40
8.0
  1
DMC Co., Ltd.
 72
     1
 11
1834.04209087804
 21
-494.9210829671834
 31
0.0
  0
TEXT
  5
99
  8
回04-図面枠
 62
     7
 10
1695.359400629489
 20
-470.9944039943196
 30
0.0
 40
8.0
  1
MTR-G057B070A
 72
     1
 11
1734.959400629489
 21
-470.9944039943196
 31
0.0
  0
TEXT
  5
9A
  8
回04-図面枠
 62
     7
 10
1719.839400629489
 20
-457.4658108357096
 30
0.0
 40
4.799999999999999
  1
PART　No.
 72
     1
 11
1734.959400629489
 21
-457.4658108357096
 31
0.0
  0
LINE
  5
9B
  8
回04-図面枠
 62
     7
 10
1687.759400629488
 20
-490.9814155066906
 30
0.0
 11
1782.159400629488
 21
-490.9814155066906
 31
0.0
  0
TEXT
  5
9C
  8
回04-図面枠
 62
     7
 10
1703.507400629489
 20
-489.1413663364732
 30
0.0
 40
4.799999999999999
  1
Multi Touch Resistive
 72
     1
 11
1734.959400629489
 21
-489.1413663364732
 31
0.0
  0
TEXT
  5
9D
  8
回04-図面枠
 62
     7
 10
1700.159400629489
 20
-497.1413663364733
 30
0.0
 40
4.799999999999999
  1
DIMENTIONAL　DRAWING
 72
     1
 11
1734.959400629489
 21
-497.1413663364733
 31
0.0
  0
LINE
  5
9E
  8
回04-図面枠
 62
     7
 10
1786.959400629489
 20
-450.9814155066908
 30
0.0
 11
1786.959400629489
 21
-498.9814155066906
 31
0.0
  0
TEXT
  5
9F
  8
回04-図面枠
 62
     7
 10
1727.279400629489
 20
-481.7916240033706
 30
0.0
 40
4.799999999999999
  1
TYPE
 72
     1
 11
1734.959400629489
 21
-481.7916240033706
 31
0.0
  0
LINE
  5
A0
  8
回04-図面枠
 62
     7
 10
1682.959400629489
 20
-450.9814155066908
 30
0.0
 11
1682.959400629489
 21
-498.9814155066906
 31
0.0
  0
LINE
  5
A1
  8
回04-図面枠
 62
     7
 10
1682.959400629489
 20
-474.9814155066906
 30
0.0
 11
1786.959400629489
 21
-474.9814155066906
 31
0.0
  0
LINE
  5
A2
  8
回04-図面枠
 62
     7
 10
1682.959400629489
 20
-482.9814155066906
 30
0.0
 11
1906.959400629489
 21
-482.9814155066906
 31
0.0
  0
LINE
  5
A3
  8
回04-図面枠
 62
     7
 10
1682.959400629489
 20
-450.9814155066908
 30
0.0
 11
1906.959400629489
 21
-450.9814155066908
 31
0.0
  0
LINE
  5
A4
  8
回04-図面枠
 62
     7
 10
1682.959400629489
 20
-458.9814155066908
 30
0.0
 11
1906.959400629489
 21
-458.9814155066908
 31
0.0
  0
TEXT
  5
A5
  8
回08-記事
  6
CONTINUOUS
 62
     7
 10
1599.768911970059
 20
-390.0578278260324
 30
0.0
 40
2.099999999999999
  1
(Conductor side near side)
  0
TEXT
  5
A9
  8
回08-記事
  6
CONTINUOUS
 62
     7
 10
1604.902656753915
 20
-385.8018234051656
 30
0.0
 40
2.099999999999999
  1
Tail-1
  0
TEXT
  5
AA
  8
回07-寸法
  6
CONTINUOUS
 62
     5
 10
1476.544584589119
 20
-371.8249610801568
 30
0.0
 40
3.0
  1
(Insulation area)
 50
90.0
  0
TEXT
  5
AE
  8
回07-寸法
  6
CONTINUOUS
 62
     5
 10
1653.603447351765
 20
-176.2172025592135
 30
0.0
 40
3.0
  1
(Insulation area)
  0
TEXT
  5
AF
  8
回07-寸法
  6
CONTINUOUS
 62
     5
 10
1475.513839937954
 20
-205.6742294984287
 30
0.0
 40
3.0
  1
(Insulation area)
 50
90.0
  0
TEXT
  5
B0
  8
回07-寸法
  6
CONTINUOUS
 62
     5
 10
1484.305621593725
 20
-176.2172025592135
 30
0.0
 40
3.0
  1
(Insulation area)
  0
DIMENSION
  5
B1
  8
回07-寸法
  6
CONTINUOUS
 62
     7
  2
*D38
 10
1602.561002393539
 20
-356.2057875234784
 30
0.0
 11
1608.861002393538
 21
-356.2057875234784
 31
0.0
 70
   128
  3
DMC
 13
1585.561002393539
 23
-329.8084098246206
 33
0.0
 14
1602.561002393539
 24
-329.8083614538084
 34
0.0
1001
ACAD
1000
DSTYLE
1002
{
1070
   371
1070
     9
1070
   372
1070
     9
1002
}
  0
DIMENSION
  5
C1
  8
回07-寸法
  6
CONTINUOUS
 62
     7
  2
*D37
 10
1581.061002393538
 20
-356.2057875234784
 30
0.0
 11
1555.617815435535
 21
-356.2057875234784
 31
0.0
 70
   128
  3
DMC
 13
1562.061002393539
 23
-329.8084098246206
 33
0.0
 14
1581.061002393538
 24
-329.8084098246206
 34
0.0
1001
ACAD
1000
DSTYLE
1002
{
1070
   371
1070
     9
1070
   372
1070
     9
1002
}
  0
ARC
  5
D0
  8
回08-記事
  6
CONTINUOUS
 62
     7
 10
1738.944686613909
 20
-307.0484098246204
 30
0.0
 40
0.5
 50
90.0
 51
270.0
  0
ARC
  5
D1
  8
回08-記事
  6
CONTINUOUS
 62
     7
 10
1738.944686613909
 20
-309.9284098246205
 30
0.0
 40
0.5
 50
90.0
 51
270.0
  0
ARC
  5
D2
  8
回08-記事
  6
CONTINUOUS
 62
     7
 10
1738.944686613909
 20
-312.8084098246203
 30
0.0
 40
0.5
 50
90.0
 51
270.0
  0
ARC
  5
D3
  8
回08-記事
  6
CONTINUOUS
 62
     7
 10
1738.944686613909
 20
-315.6884098246205
 30
0.0
 40
0.5
 50
90.0
 51
270.0
  0
ARC
  5
D4
  8
回08-記事
  6
CONTINUOUS
 62
     7
 10
1738.944686613909
 20
-289.7684098246203
 30
0.0
 40
0.5
 50
90.0
 51
270.0
  0
ARC
  5
D5
  8
回08-記事
  6
CONTINUOUS
 62
     7
 10
1738.944686613909
 20
-301.2884098246204
 30
0.0
 40
0.5
 50
90.0
 51
270.0
  0
ARC
  5
D6
  8
回08-記事
  6
CONTINUOUS
 62
     7
 10
1738.944686613909
 20
-304.1684098246205
 30
0.0
 40
0.5
 50
90.0
 51
270.0
  0
ARC
  5
D7
  8
回08-記事
  6
CONTINUOUS
 62
     7
 10
1738.944686613909
 20
-281.1284098246206
 30
0.0
 40
0.5
 50
90.0
 51
270.0
  0
ARC
  5
D8
  8
回08-記事
  6
CONTINUOUS
 62
     7
 10
1738.944686613909
 20
-284.0084098246205
 30
0.0
 40
0.5
 50
90.0
 51
270.0
  0
ARC
  5
D9
  8
回08-記事
  6
CONTINUOUS
 62
     7
 10
1738.944686613909
 20
-286.8884098246206
 30
0.0
 40
0.5
 50
90.0
 51
270.0
  0
ARC
  5
DA
  8
回08-記事
  6
CONTINUOUS
 62
     7
 10
1738.944686613909
 20
-292.6484098246206
 30
0.0
 40
0.5
 50
90.0
 51
270.0
  0
ARC
  5
DB
  8
回08-記事
  6
CONTINUOUS
 62
     7
 10
1738.944686613909
 20
-295.5284098246204
 30
0.0
 40
0.5
 50
90.0
 51
270.0
  0
ARC
  5
DC
  8
回08-記事
  6
CONTINUOUS
 62
     7
 10
1738.944686613909
 20
-298.4084098246206
 30
0.0
 40
0.5
 50
90.0
 51
270.0
  0
DIMENSION
  5
DD
  8
回07-寸法
  6
CONTINUOUS
 62
     5
  2
*D16
 10
1568.809876887714
 20
-423.513841040837
 30
0.0
 11
1533.785439545438
 21
-423.513841040837
 31
0.0
 70
   128
  1
(<>)
  3
DMC
 13
1515.211002393539
 23
-329.8084098246207
 33
0.0
 14
1568.809876887714
 24
-399.7084098246208
 34
0.0
1001
ACAD
1000
DSTYLE
1002
{
1070
    41
1040
1.5
1070
    47
1040
0.2
1070
    48
1040
0.2
1070
   140
1040
4.0
1070
   141
1040
1.5
1070
   371
1070
    13
1070
   372
1070
    13
1002
}
  0
DIMENSION
  5
EA
  8
回07-寸法
  6
CONTINUOUS
 62
     1
  2
*D15
 10
1614.86321656839
 20
-337.0225954000849
 30
0.0
 11
1612.36321656839
 21
-344.3225954000848
 31
0.0
 70
     0
  3
DMC
 13
1602.561002203163
 23
-329.8083614538084
 33
0.0
 14
1598.385997355203
 24
-337.0225954000849
 34
0.0
 50
90.0
1001
ACAD
1000
DSTYLE
1002
{
1070
    41
1040
1.5
1070
    47
1040
0.2
1070
    48
1040
0.2
1070
   140
1040
4.0
1070
   141
1040
1.5
1070
   371
1070
    13
1070
   372
1070
    13
1002
}
  0
DIMENSION
  5
F9
  8
回07-寸法
  6
CONTINUOUS
 62
     1
  2
*D14
 10
1607.373674883085
 20
-332.7084098246203
 30
0.0
 11
1607.373674883085
 21
-342.1963585437773
 31
0.0
 70
   128
  3
DMC
 13
1602.561002203163
 23
-329.8084098246205
 33
0.0
 14
1602.484881735674
 24
-332.7084098246203
 34
0.0
 50
90.0
1001
ACAD
1000
DSTYLE
1002
{
1070
    41
1040
1.5
1070
    47
1040
0.2
1070
    48
1040
0.2
1070
   140
1040
4.0
1070
   141
1040
1.5
1070
   371
1070
    13
1070
   372
1070
    13
1002
}
  0
DIMENSION
  5
108
  8
回07-寸法
  6
CONTINUOUS
 62
    18
  2
*D13
 10
1553.095379444242
 20
-329.8084098246208
 30
0.0
 11
1553.095379444242
 21
-346.8165405683508
 31
0.0
 70
   128
  3
DMC
 13
1568.733756420225
 23
-339.5203447691877
 33
0.0
 14
1562.061002203163
 24
-329.8084098246207
 34
0.0
 50
90.0
1001
ACAD
1000
DSTYLE
1002
{
1070
    41
1040
1.0
1070
    47
1040
0.2
1070
    48
1040
0.2
1070
   140
1040
2.0
1070
   371
1070
     9
1070
   372
1070
     9
1002
}
  0
DIMENSION
  5
119
  8
回07-寸法
  6
CONTINUOUS
 62
    18
  2
*D12
 10
1558.649840483267
 20
-329.8084098246208
 30
0.0
 11
1558.649840483267
 21
-345.8489957243265
 31
0.0
 70
   128
  3
DMC
 13
1562.137122670652
 23
-332.7084098246209
 33
0.0
 14
1562.061002203163
 24
-329.8084098246207
 34
0.0
 50
90.0
1001
ACAD
1000
DSTYLE
1002
{
1070
    41
1040
1.0
1070
    47
1040
0.2
1070
    48
1040
0.2
1070
   140
1040
2.0
1070
   371
1070
     9
1070
   372
1070
     9
1002
}
  0
DIMENSION
  5
12A
  8
回07-寸法
  6
CONTINUOUS
 62
     5
  2
*D11
 10
1598.309876887715
 20
-435.5957450427674
 30
0.0
 11
1607.779876887715
 21
-433.0957450427674
 31
0.0
 70
     0
  3
DMC
 13
1589.809876887715
 23
-399.708409824621
 33
0.0
 14
1598.309876887715
 24
-399.708409824621
 34
0.0
1001
ACAD
1000
DSTYLE
1002
{
1070
    41
1040
1.5
1070
    47
1040
0.1
1070
    48
1040
0.1
1070
    71
1070
     1
1070
   140
1040
4.0
1070
   141
1040
1.5
1070
   371
1070
    13
1070
   372
1070
    13
1002
}
  0
DIMENSION
  5
139
  8
回07-寸法
  6
CONTINUOUS
 62
     5
  2
*D10
 10
1589.809876887715
 20
-435.5957450427674
 30
0.0
 11
1552.510439640627
 21
-432.8957450427674
 31
0.0
 70
     0
  1
(<>)
  3
DMC
 13
1515.211002393539
 23
-329.8084098246207
 33
0.0
 14
1589.809876887715
 24
-399.708409824621
 34
0.0
1001
ACAD
1000
DSTYLE
1002
{
1070
    41
1040
1.5
1070
    47
1040
0.2
1070
    48
1040
0.2
1070
   140
1040
4.0
1070
   141
1040
1.5
1070
   371
1070
    13
1070
   372
1070
    13
1002
}
  0
DIMENSION
  5
146
  8
回07-寸法
  6
CONTINUOUS
 62
     5
  2
*D9
 10
1578.309876887714
 20
-423.513841040837
 30
0.0
 11
1559.257034175239
 21
-423.513841040837
 31
0.0
 70
   128
  3
DMC
 13
1568.809876887714
 23
-399.7084098246208
 33
0.0
 14
1578.309876887714
 24
-399.708409824621
 34
0.0
1001
ACAD
1000
DSTYLE
1002
{
1070
    41
1040
1.5
1070
    47
1040
0.1
1070
    48
1040
0.1
1070
    71
1070
     1
1070
   140
1040
4.0
1070
   141
1040
1.5
1070
   371
1070
    13
1070
   372
1070
    13
1002
}
  0
DIMENSION
  5
155
  8
回07-寸法
  6
CONTINUOUS
 62
     5
  2
*D8
 10
1637.916336931114
 20
-399.8084098246211
 30
0.0
 11
1637.916336931114
 21
-364.8083856392148
 31
0.0
 70
   128
  3
DMC
 13
1602.561002203163
 23
-329.8083614538082
 33
0.0
 14
1598.209876887715
 24
-399.8084098246211
 34
0.0
 50
90.0
1001
ACAD
1000
DSTYLE
1002
{
1070
    41
1040
1.5
1070
    47
1040
1.0
1070
    48
1040
1.0
1070
    71
1070
     1
1070
   140
1040
4.0
1070
   141
1040
1.5
1070
   371
1070
    13
1070
   372
1070
    13
1002
}
  0
DIMENSION
  5
162
  8
回07-寸法
  6
CONTINUOUS
 62
     5
  2
*D7
 10
1530.820979327534
 20
-329.8084098246205
 30
0.0
 11
1528.320979327534
 21
-364.8084098246207
 31
0.0
 70
     0
  3
DMC
 13
1569.309876887714
 23
-399.8084098246209
 33
0.0
 14
1562.061002203163
 24
-329.8084098246205
 34
0.0
 50
90.0
1001
ACAD
1000
DSTYLE
1002
{
1070
   147
1040
0.5
1070
    72
1070
     0
1070
    71
1070
     1
1070
    41
1040
1.5
1070
    47
1040
1.0
1070
    48
1040
1.0
1070
   140
1040
4.0
1070
   141
1040
1.5
1070
   371
1070
    13
1070
   372
1070
    13
1002
}
  0
INSERT
  5
16F
  8
回08-記事
  6
CONTINUOUS
 62
     5
 66
     1
  2
*X39
 10
0.0
 20
0.0
 30
0.0
  0
SEQEND
  5
464
  8
回04-下接
  6
CONTINUOUS
 62
     5
  0
INSERT
  5
170
  8
回08-記事
  6
CONTINUOUS
 62
     7
 66
     1
  2
*X40
 10
0.0
 20
0.0
 30
0.0
  0
SEQEND
  5
46B
  8
回04-下接
  6
CONTINUOUS
 62
     5
  0
POLYLINE
  5
171
  8
回08-記事
  6
CONTINUOUS
 62
     7
 66
     1
 10
0.0
 20
0.0
 30
0.0
 70
     1
  0
VERTEX
  5
46C
  8
回08-記事
  6
CONTINUOUS
 62
     7
 10
1571.809876887714
 20
-354.9123970361712
 30
0.0
  0
VERTEX
  5
46E
  8
回08-記事
  6
CONTINUOUS
 62
     7
 10
1575.309876887714
 20
-354.9123970361712
 30
0.0
 42
-0.4142135623730951
  0
VERTEX
  5
46F
  8
回08-記事
  6
CONTINUOUS
 62
     7
 10
1575.809876887714
 20
-355.4123970361712
 30
0.0
  0
VERTEX
  5
470
  8
回08-記事
  6
CONTINUOUS
 62
     7
 10
1575.809876887714
 20
-380.4123970361711
 30
0.0
 42
-0.4142135623730951
  0
VERTEX
  5
471
  8
回08-記事
  6
CONTINUOUS
 62
     7
 10
1575.309876887714
 20
-380.9123970361712
 30
0.0
  0
VERTEX
  5
472
  8
回08-記事
  6
CONTINUOUS
 62
     7
 10
1571.809876887714
 20
-380.9123970361712
 30
0.0
 42
-0.4142135623730951
  0
VERTEX
  5
473
  8
回08-記事
  6
CONTINUOUS
 62
     7
 10
1571.309876887714
 20
-380.4123970361711
 30
0.0
  0
VERTEX
  5
474
  8
回08-記事
  6
CONTINUOUS
 62
     7
 10
1571.309876887714
 20
-355.4123970361712
 30
0.0
 42
-0.4142135623730951
  0
SEQEND
  5
46D
  8
回04-下接
  6
CONTINUOUS
 62
     5
  0
INSERT
  5
172
  8
回08-記事
  6
CONTINUOUS
 62
     7
 66
     1
  2
*X41
 10
0.0
 20
0.0
 30
0.0
1001
GRADIENTCOLOR1ACI
1070
     5
1001
GRADIENTCOLOR2ACI
1070
     2
1001
ACAD
1010
0.0
1020
0.0
1030
0.0
  0
SEQEND
  5
486
  8
回04-下接
  6
CONTINUOUS
 62
     5
  0
TEXT
  5
175
  8
回08-記事
  6
CONTINUOUS
 62
     7
 10
1535.371643868671
 20
-390.0578278260324
 30
0.0
 40
2.099999999999999
  1
(Conductor side far side)
  0
TEXT
  5
176
  8
回08-記事
  6
CONTINUOUS
 62
     7
 10
1551.08864314124
 20
-385.8018234051656
 30
0.0
 40
2.099999999999999
  1
Tail-2
  0
DIMENSION
  5
177
  8
回07-寸法
  6
CONTINUOUS
 62
     5
  2
*D36
 10
1495.211002393539
 20
-219.2084098246204
 30
0.0
 11
1495.211002393539
 21
-209.9029959667813
 31
0.0
 70
   128
  1
(<>)
  3
DMC
 13
1523.711002393539
 23
-228.2084098246205
 33
0.0
 14
1515.211002393539
 24
-219.2084098246204
 34
0.0
 50
90.0
1001
ACAD
1000
DSTYLE
1002
{
1070
    41
1040
1.5
1070
    47
1040
0.2
1070
    48
1040
0.2
1070
   140
1040
4.0
1070
   141
1040
1.5
1070
   371
1070
    13
1070
   372
1070
    13
1002
}
  0
DIMENSION
  5
186
  8
回07-寸法
  6
CONTINUOUS
 62
     5
  2
*D35
 10
1486.211002393539
 20
-219.2084098246204
 30
0.0
 11
1486.211002393539
 21
-213.3099846277699
 31
0.0
 70
   128
  1
(<>)
  3
DMC
 13
1521.711002393539
 23
-226.2084098246205
 33
0.0
 14
1515.211002393539
 24
-219.2084098246204
 34
0.0
 50
90.0
1001
ACAD
1000
DSTYLE
1002
{
1070
    41
1040
1.5
1070
    47
1040
0.2
1070
    48
1040
0.2
1070
   140
1040
4.0
1070
   141
1040
1.5
1070
   371
1070
    13
1070
   372
1070
    13
1002
}
  0
DIMENSION
  5
195
  8
回07-寸法
  6
CONTINUOUS
 62
     5
  2
*D34
 10
1477.211002393543
 20
-219.2084098246204
 30
0.0
 11
1474.511002393543
 21
-211.30998462777
 31
0.0
 70
     0
  1
(<>)
  3
DMC
 13
1521.211002393538
 23
-225.7084098246204
 33
0.0
 14
1515.211002393539
 24
-219.2084098246204
 34
0.0
 50
90.0
1001
ACAD
1000
DSTYLE
1002
{
1070
    41
1040
1.5
1070
    47
1040
0.2
1070
    48
1040
0.2
1070
   140
1040
4.0
1070
   141
1040
1.5
1070
   371
1070
    13
1070
   372
1070
    13
1002
}
  0
DIMENSION
  5
1A4
  8
回07-寸法
  6
CONTINUOUS
 62
     5
  2
*D33
 10
1495.211002393539
 20
-329.8084098246206
 30
0.0
 11
1495.211002393539
 21
-339.2077163028742
 31
0.0
 70
   128
  3
DMC
 13
1523.711002393539
 23
-316.6084098246206
 33
0.0
 14
1515.211002393539
 24
-329.8084098246206
 34
0.0
 50
90.0
1001
ACAD
1000
DSTYLE
1002
{
1070
    41
1040
1.5
1070
    47
1040
0.2
1070
    48
1040
0.2
1070
   140
1040
4.0
1070
   141
1040
1.5
1070
   371
1070
    13
1070
   372
1070
    13
1002
}
  0
DIMENSION
  5
1B3
  8
回07-寸法
  6
CONTINUOUS
 62
     5
  2
*D32
 10
1477.226401682841
 20
-329.8084098246206
 30
0.0
 11
1477.226401682841
 21
-337.1084098246211
 31
0.0
 70
   128
  3
DMC
 13
1521.211002393538
 23
-319.1084098246207
 33
0.0
 14
1515.211002393539
 24
-329.8084098246206
 34
0.0
 50
90.0
1001
ACAD
1000
DSTYLE
1002
{
1070
    41
1040
1.5
1070
    47
1040
0.2
1070
    48
1040
0.2
1070
   140
1040
4.0
1070
   141
1040
1.5
1070
   371
1070
    13
1070
   372
1070
    13
1002
}
  0
DIMENSION
  5
1C2
  8
回07-寸法
  6
CONTINUOUS
 62
     5
  2
*D31
 10
1649.411002393539
 20
-190.8284098246203
 30
0.0
 11
1657.309427590389
 21
-188.1284098246203
 31
0.0
 70
     0
  1
(<>)
  3
DMC
 13
1642.911002393539
 23
-226.2084098246205
 33
0.0
 14
1649.411002393539
 24
-219.2084098246205
 34
0.0
1001
ACAD
1000
DSTYLE
1002
{
1070
    41
1040
1.5
1070
    47
1040
0.2
1070
    48
1040
0.2
1070
   140
1040
4.0
1070
   141
1040
1.5
1070
   371
1070
    13
1070
   372
1070
    13
1002
}
  0
DIMENSION
  5
1D1
  8
回07-寸法
  6
CONTINUOUS
 62
     5
  2
*D30
 10
1649.411002393539
 20
-199.8284098246203
 30
0.0
 11
1657.309427590389
 21
-199.8284098246203
 31
0.0
 70
   128
  1
(<>)
  3
DMC
 13
1640.911002393538
 23
-228.1934098246206
 33
0.0
 14
1649.411002393539
 24
-219.2084098246205
 34
0.0
1001
ACAD
1000
DSTYLE
1002
{
1070
    41
1040
1.5
1070
    47
1040
0.2
1070
    48
1040
0.2
1070
   140
1040
4.0
1070
   141
1040
1.5
1070
   371
1070
    13
1070
   372
1070
    13
1002
}
  0
DIMENSION
  5
1E0
  8
回07-寸法
  6
CONTINUOUS
 62
     5
  2
*D29
 10
1515.211002393539
 20
-190.8284098246203
 30
0.0
 11
1508.708474641694
 21
-190.8284098246203
 31
0.0
 70
   128
  3
DMC
 13
1521.711002393539
 23
-226.2084098246205
 33
0.0
 14
1515.211002393539
 24
-219.2084098246204
 34
0.0
1001
ACAD
1000
DSTYLE
1002
{
1070
    41
1040
1.5
1070
    47
1040
0.2
1070
    48
1040
0.2
1070
   140
1040
4.0
1070
   141
1040
1.5
1070
   371
1070
    13
1070
   372
1070
    13
1002
}
  0
DIMENSION
  5
1EF
  8
回07-寸法
  6
CONTINUOUS
 62
     5
  2
*D28
 10
1515.211002393539
 20
-199.8284098246203
 30
0.0
 11
1507.428159681064
 21
-199.8284098246203
 31
0.0
 70
   128
  3
DMC
 13
1523.711002393539
 23
-228.2084098246214
 33
0.0
 14
1515.211002393539
 24
-219.2084098246204
 34
0.0
1001
ACAD
1000
DSTYLE
1002
{
1070
    41
1040
1.5
1070
    47
1040
0.2
1070
    48
1040
0.2
1070
   140
1040
4.0
1070
   141
1040
1.5
1070
   371
1070
    13
1070
   372
1070
    13
1002
}
  0
DIMENSION
  5
1FE
  8
回07-寸法
  6
CONTINUOUS
 62
     5
  2
*D27
 10
1649.411002393539
 20
-181.8443161643572
 30
0.0
 11
1655.309427590389
 21
-181.8443161643572
 31
0.0
 70
   128
  1
(<>)
  3
DMC
 13
1643.411002393539
 23
-225.7084098246204
 33
0.0
 14
1649.411002393539
 24
-219.2084098246205
 34
0.0
1001
ACAD
1000
DSTYLE
1002
{
1070
    41
1040
1.5
1070
    47
1040
0.2
1070
    48
1040
0.2
1070
   140
1040
4.0
1070
   141
1040
1.5
1070
   371
1070
    13
1070
   372
1070
    13
1002
}
  0
DIMENSION
  5
20D
  8
回07-寸法
  6
CONTINUOUS
 62
     5
  2
*D26
 10
1515.211002393539
 20
-181.8320792879694
 30
0.0
 11
1509.128497608155
 21
-181.8320792879694
 31
0.0
 70
   128
  3
DMC
 13
1521.211002393538
 23
-225.7084098246204
 33
0.0
 14
1515.211002393539
 24
-219.2084098246204
 34
0.0
1001
ACAD
1000
DSTYLE
1002
{
1070
    41
1040
1.5
1070
    47
1040
0.2
1070
    48
1040
0.2
1070
   140
1040
4.0
1070
   141
1040
1.5
1070
   371
1070
    13
1070
   372
1070
    13
1002
}
  0
DIMENSION
  5
21C
  8
回07-寸法
  6
CONTINUOUS
 62
     5
  2
*D25
 10
1477.211002393542
 20
-319.1084098246207
 30
0.0
 11
1474.711002393542
 21
-272.4084098246205
 31
0.0
 70
     0
  3
DMC
 13
1521.211002393538
 23
-225.7084098246204
 33
0.0
 14
1521.211002393538
 24
-319.1084098246207
 34
0.0
 50
90.0
1001
ACAD
1000
DSTYLE
1002
{
1070
    41
1040
1.5
1070
    47
1040
0.2
1070
    48
1040
0.2
1070
   140
1040
4.0
1070
   141
1040
1.5
1070
   371
1070
    13
1070
   372
1070
    13
1002
}
  0
DIMENSION
  5
229
  8
回07-寸法
  6
CONTINUOUS
 62
     5
  2
*D24
 10
1486.211002393542
 20
-318.6084098246206
 30
0.0
 11
1483.111002393542
 21
-272.4084098246205
 31
0.0
 70
     0
  1
<>(Viewing area)
  3
DMC
 13
1521.711002393539
 23
-226.2084098246205
 33
0.0
 14
1521.711002393539
 24
-318.6084098246206
 34
0.0
 50
90.0
1001
ACAD
1000
DSTYLE
1002
{
1070
    41
1040
1.5
1070
    47
1040
0.2
1070
    48
1040
0.2
1070
   140
1040
4.0
1070
   141
1040
1.5
1070
   371
1070
    13
1070
   372
1070
    13
1002
}
  0
DIMENSION
  5
236
  8
回07-寸法
  6
CONTINUOUS
 62
     5
  2
*D23
 10
1495.211002393543
 20
-316.6084098246206
 30
0.0
 11
1492.511002393543
 21
-272.4084098246205
 31
0.0
 70
     0
  1
<>(Active area)
  3
DMC
 13
1523.711002393539
 23
-228.2084098246205
 33
0.0
 14
1523.711002393539
 24
-316.6084098246206
 34
0.0
 50
90.0
1001
ACAD
1000
DSTYLE
1002
{
1070
    41
1040
1.5
1070
    47
1040
0.2
1070
    48
1040
0.2
1070
   140
1040
4.0
1070
   141
1040
1.5
1070
   371
1070
    13
1070
   372
1070
    13
1002
}
  0
DIMENSION
  5
243
  8
回07-寸法
  6
CONTINUOUS
 62
     5
  2
*D22
 10
1468.211002393542
 20
-329.8084098246206
 30
0.0
 11
1465.711002393542
 21
-274.5084098246205
 31
0.0
 70
     0
  3
DMC
 13
1515.211002393539
 23
-219.2084098246204
 33
0.0
 14
1515.211002393539
 24
-329.8084098246206
 34
0.0
 50
90.0
1001
ACAD
1000
DSTYLE
1002
{
1070
   147
1040
0.5
1070
    72
1070
     0
1070
    71
1070
     1
1070
    41
1040
1.5
1070
    47
1040
0.3
1070
    48
1040
0.3
1070
   140
1040
4.0
1070
   141
1040
1.5
1070
   371
1070
    13
1070
   372
1070
    13
1002
}
  0
DIMENSION
  5
250
  8
回07-寸法
  6
CONTINUOUS
 62
     5
  2
*D21
 10
1640.911002393538
 20
-199.8284098246203
 30
0.0
 11
1582.311002393538
 21
-197.1284098246203
 31
0.0
 70
     0
  1
<>(Active area)
  3
DMC
 13
1523.711002393539
 23
-228.2084098246205
 33
0.0
 14
1640.911002393538
 24
-228.1934098246197
 34
0.0
1001
ACAD
1000
DSTYLE
1002
{
1070
    41
1040
1.5
1070
    47
1040
0.2
1070
    48
1040
0.2
1070
   140
1040
4.0
1070
   141
1040
1.5
1070
   371
1070
    13
1070
   372
1070
    13
1002
}
  0
DIMENSION
  5
25D
  8
回07-寸法
  6
CONTINUOUS
 62
     5
  2
*D20
 10
1643.411002393539
 20
-181.8284098246203
 30
0.0
 11
1582.311002393539
 21
-179.3284098246203
 31
0.0
 70
     0
  3
DMC
 13
1521.211002393538
 23
-225.7084098246204
 33
0.0
 14
1643.411002393539
 24
-225.7084098246204
 34
0.0
1001
ACAD
1000
DSTYLE
1002
{
1070
    41
1040
1.5
1070
    47
1040
0.2
1070
    48
1040
0.2
1070
   140
1040
4.0
1070
   141
1040
1.5
1070
   371
1070
    13
1070
   372
1070
    13
1002
}
  0
DIMENSION
  5
26A
  8
回07-寸法
  6
CONTINUOUS
 62
     5
  2
*D19
 10
1642.911002393539
 20
-190.8284098246203
 30
0.0
 11
1582.311002393539
 21
-187.7284098246203
 31
0.0
 70
     0
  1
<>(Viewing area)
  3
DMC
 13
1521.711002393539
 23
-226.2084098246205
 33
0.0
 14
1642.911002393539
 24
-226.2084098246205
 34
0.0
1001
ACAD
1000
DSTYLE
1002
{
1070
    41
1040
1.5
1070
    47
1040
0.2
1070
    48
1040
0.2
1070
   140
1040
4.0
1070
   141
1040
1.5
1070
   371
1070
    13
1070
   372
1070
    13
1002
}
  0
DIMENSION
  5
277
  8
回07-寸法
  6
CONTINUOUS
 62
     5
  2
*D18
 10
1649.411002393539
 20
-172.8284098246203
 30
0.0
 11
1582.311002393539
 21
-170.3284098246203
 31
0.0
 70
     0
  3
DMC
 13
1515.211002393539
 23
-219.2084098246204
 33
0.0
 14
1649.411002393539
 24
-219.2084098246205
 34
0.0
1001
ACAD
1000
DSTYLE
1002
{
1070
   147
1040
0.5
1070
    72
1070
     0
1070
    71
1070
     1
1070
    41
1040
1.5
1070
    47
1040
0.3
1070
    48
1040
0.3
1070
   140
1040
4.0
1070
   141
1040
1.5
1070
   371
1070
    13
1070
   372
1070
    13
1002
}
  0
DIMENSION
  5
284
  8
回07-寸法
  6
CONTINUOUS
 62
     5
  2
*D17
 10
1486.211002393539
 20
-329.8084098246206
 30
0.0
 11
1486.211002393539
 21
-339.2692573119509
 31
0.0
 70
   128
  3
DMC
 13
1521.711002393539
 23
-318.6084098246206
 33
0.0
 14
1515.211002393539
 24
-329.8084098246206
 34
0.0
 50
90.0
1001
ACAD
1000
DSTYLE
1002
{
1070
    41
1040
1.5
1070
    47
1040
0.2
1070
    48
1040
0.2
1070
   140
1040
4.0
1070
   141
1040
1.5
1070
   371
1070
    13
1070
   372
1070
    13
1002
}
  0
TEXT
  5
293
  8
回08-記事
  6
CONTINUOUS
 62
     7
 10
1525.245619158032
 20
-310.5290988343269
 30
0.0
 40
1.7
  1
L7
  0
TEXT
  5
294
  8
回08-記事
  6
CONTINUOUS
 62
     7
 10
1525.245619158032
 20
-297.172316793972
 30
0.0
 40
1.7
  1
L6
  0
TEXT
  5
295
  8
回08-記事
  6
CONTINUOUS
 62
     7
 10
1525.245619158032
 20
-286.0226932888084
 30
0.0
 40
1.7
  1
L5
  0
TEXT
  5
296
  8
回08-記事
  6
CONTINUOUS
 62
     7
 10
1525.245619158032
 20
-273.6659112484535
 30
0.0
 40
1.7
  1
L4
  0
TEXT
  5
297
  8
回08-記事
  6
CONTINUOUS
 62
     7
 10
1525.245619158032
 20
-261.3091292080986
 30
0.0
 40
1.7
  1
L3
  0
TEXT
  5
298
  8
回08-記事
  6
CONTINUOUS
 62
     7
 10
1525.245619158032
 20
-247.9523471677437
 30
0.0
 40
1.7
  1
L2
  0
TEXT
  5
299
  8
回08-記事
  6
CONTINUOUS
 62
     7
 10
1524.982917303893
 20
-230.535327749693
 30
0.0
 40
1.7
  1
SUL
 41
0.8
  0
TEXT
  5
29A
  8
回08-記事
  6
CONTINUOUS
 62
     7
 10
1525.245619158032
 20
-235.3562135610025
 30
0.0
 40
1.7
  1
L1
  0
TEXT
  5
29B
  8
回08-記事
  6
CONTINUOUS
 62
     7
 10
1637.962049417893
 20
-312.0893475438681
 30
0.0
 40
1.7
  1
R7
  0
TEXT
  5
29C
  8
回08-記事
  6
CONTINUOUS
 62
     7
 10
1637.962049417893
 20
-298.7325655035132
 30
0.0
 40
1.7
  1
R6
  0
TEXT
  5
29D
  8
回08-記事
  6
CONTINUOUS
 62
     7
 10
1637.962049417893
 20
-286.3757834631583
 30
0.0
 40
1.7
  1
R5
  0
TEXT
  5
29E
  8
回08-記事
  6
CONTINUOUS
 62
     7
 10
1637.962049417893
 20
-273.0190014228033
 30
0.0
 40
1.7
  1
R4
  0
TEXT
  5
29F
  8
回08-記事
  6
CONTINUOUS
 62
     7
 10
1637.254942636707
 20
-260.369326163635
 30
0.0
 40
1.7
  1
R3
  0
TEXT
  5
2A0
  8
回08-記事
  6
CONTINUOUS
 62
     7
 10
1637.254942636707
 20
-247.0125441232801
 30
0.0
 40
1.7
  1
R2
  0
TEXT
  5
2A1
  8
回08-記事
  6
CONTINUOUS
 62
     7
 10
1637.254942636707
 20
-235.4164105165389
 30
0.0
 40
1.7
  1
R1
  0
TEXT
  5
2A2
  8
回08-記事
  6
CONTINUOUS
 62
     7
 10
1633.148468754684
 20
-315.7395793859752
 30
0.0
 40
1.7
  1
D8
  0
TEXT
  5
2A3
  8
回08-記事
  6
CONTINUOUS
 62
     7
 10
1618.854525245054
 20
-315.7395793859752
 30
0.0
 40
1.7
  1
D7
  0
TEXT
  5
2A4
  8
回08-記事
  6
CONTINUOUS
 62
     7
 10
1603.675188501282
 20
-315.7395793859752
 30
0.0
 40
1.7
  1
D6
  0
TEXT
  5
2A5
  8
回08-記事
  6
CONTINUOUS
 62
     7
 10
1588.49585175751
 20
-315.7395793859752
 30
0.0
 40
1.7
  1
D5
  0
TEXT
  5
2A6
  8
回08-記事
  6
CONTINUOUS
 62
     7
 10
1573.316515013738
 20
-315.7395793859752
 30
0.0
 40
1.7
  1
D4
  0
TEXT
  5
2A7
  8
回08-記事
  6
CONTINUOUS
 62
     7
 10
1559.839798470769
 20
-315.7395793859752
 30
0.0
 40
1.7
  1
D3
  0
TEXT
  5
2A8
  8
回08-記事
  6
CONTINUOUS
 62
     7
 10
1544.660461726997
 20
-315.7395793859752
 30
0.0
 40
1.7
  1
D2
  0
TEXT
  5
2A9
  8
回08-記事
  6
CONTINUOUS
 62
     7
 10
1529.481124983225
 20
-315.7395793859752
 30
0.0
 40
1.7
  1
D1
  0
TEXT
  5
2AA
  8
回08-記事
  6
CONTINUOUS
 62
     7
 10
1632.910148340423
 20
-230.4396701472271
 30
0.0
 40
1.7
  1
U8
  0
TEXT
  5
2AB
  8
回08-記事
  6
CONTINUOUS
 62
     7
 10
1617.730811596651
 20
-230.4396701472271
 30
0.0
 40
1.7
  1
U7
  0
TEXT
  5
2AC
  8
回08-記事
  6
CONTINUOUS
 62
     7
 10
1602.91437311209
 20
-230.4396701472271
 30
0.0
 40
1.7
  1
U6
  0
TEXT
  5
2AD
  8
回08-記事
  6
CONTINUOUS
 62
     7
 10
1589.2169565585
 20
-230.4396701472271
 30
0.0
 40
1.7
  1
U5
  0
TEXT
  5
2AE
  8
回08-記事
  6
CONTINUOUS
 62
     7
 10
1574.037619814728
 20
-230.4396701472271
 30
0.0
 40
1.7
  1
U4
  0
TEXT
  5
2AF
  8
回08-記事
  6
CONTINUOUS
 62
     7
 10
1558.858283070956
 20
-230.4396701472271
 30
0.0
 40
1.7
  1
U3
  0
TEXT
  5
2B0
  8
回08-記事
  6
CONTINUOUS
 62
     7
 10
1543.678946327184
 20
-230.4396701472271
 30
0.0
 40
1.7
  1
U2
  0
TEXT
  5
2B1
  8
回08-記事
  6
CONTINUOUS
 62
     7
 10
1529.743590528911
 20
-230.4396701472271
 30
0.0
 40
1.7
  1
U1
  0
TEXT
  5
2B2
  8
回08-記事
  6
CONTINUOUS
 62
     7
 10
1598.864581773596
 20
-398.7323002851447
 30
0.0
 40
2.0
  1
1
  0
TEXT
  5
2B3
  8
回08-記事
  6
CONTINUOUS
 62
     7
 10
1586.152449221303
 20
-398.7323002851447
 30
0.0
 40
2.0
  1
16
  0
TEXT
  5
2B4
  8
回08-記事
  6
CONTINUOUS
 62
     7
 10
1578.727150758416
 20
-398.7323002851447
 30
0.0
 40
2.0
  1
17
  0
TEXT
  5
2B5
  8
回08-記事
  6
CONTINUOUS
 62
     7
 10
1565.123996167491
 20
-398.7323002851447
 30
0.0
 40
2.0
  1
34
  0
POLYLINE
  5
2B6
  8
回08-記事
  6
CONTINUOUS
 62
     7
 66
     1
 10
0.0
 20
0.0
 30
0.0
 70
     1
  0
VERTEX
  5
487
  8
回08-記事
  6
CONTINUOUS
 62
     7
 10
1571.80987707809
 20
-354.9123970361707
 30
0.0
  0
VERTEX
  5
489
  8
回08-記事
  6
CONTINUOUS
 62
     7
 10
1575.30987707809
 20
-354.9123970361707
 30
0.0
 42
-0.4142135623730951
  0
VERTEX
  5
48A
  8
回08-記事
  6
CONTINUOUS
 62
     7
 10
1575.80987707809
 20
-355.4123970361707
 30
0.0
  0
VERTEX
  5
48B
  8
回08-記事
  6
CONTINUOUS
 62
     7
 10
1575.80987707809
 20
-380.4123970361707
 30
0.0
 42
-0.4142135623730951
  0
VERTEX
  5
48C
  8
回08-記事
  6
CONTINUOUS
 62
     7
 10
1575.30987707809
 20
-380.9123970361707
 30
0.0
  0
VERTEX
  5
48D
  8
回08-記事
  6
CONTINUOUS
 62
     7
 10
1571.80987707809
 20
-380.9123970361707
 30
0.0
 42
-0.4142135623730951
  0
VERTEX
  5
48E
  8
回08-記事
  6
CONTINUOUS
 62
     7
 10
1571.30987707809
 20
-380.4123970361707
 30
0.0
  0
VERTEX
  5
48F
  8
回08-記事
  6
CONTINUOUS
 62
     7
 10
1571.30987707809
 20
-355.4123970361707
 30
0.0
 42
-0.4142135623730951
  0
SEQEND
  5
488
  8
回04-下接
  6
CONTINUOUS
 62
     5
  0
INSERT
  5
2B7
  8
回08-記事
  6
CONTINUOUS
 62
     7
 66
     1
  2
*X42
 10
0.0
 20
0.0
 30
0.0
1001
GRADIENTCOLOR1ACI
1070
     5
1001
GRADIENTCOLOR2ACI
1070
     2
1001
ACAD
1010
0.0
1020
0.0
1030
0.0
  0
SEQEND
  5
4A1
  8
回04-下接
  6
CONTINUOUS
 62
     5
  0
POLYLINE
  5
2B8
  8
回05-ﾃｰﾙ
  6
CONTINUOUS
 62
     7
 66
     1
 10
0.0
 20
0.0
 30
0.0
 70
     1
  0
VERTEX
  5
4A2
  8
回05-ﾃｰﾙ
  6
CONTINUOUS
 62
     7
 10
1598.602770296904
 20
-336.698172051263
 30
0.0
 42
0.1989123673796998
  0
VERTEX
  5
4A4
  8
回05-ﾃｰﾙ
  6
CONTINUOUS
 62
     7
 10
1598.30987707809
 20
-337.4052788324496
 30
0.0
  0
VERTEX
  5
4A5
  8
回05-ﾃｰﾙ
  6
CONTINUOUS
 62
     7
 10
1598.30987707809
 20
-399.7084098246205
 30
0.0
 42
-0.4142135623730951
  0
VERTEX
  5
4A6
  8
回05-ﾃｰﾙ
  6
CONTINUOUS
 62
     7
 10
1598.20987707809
 20
-399.8084098246207
 30
0.0
  0
VERTEX
  5
4A7
  8
回05-ﾃｰﾙ
  6
CONTINUOUS
 62
     7
 10
1589.90987707809
 20
-399.8084098246207
 30
0.0
 42
-0.4142135623730951
  0
VERTEX
  5
4A8
  8
回05-ﾃｰﾙ
  6
CONTINUOUS
 62
     7
 10
1589.80987707809
 20
-399.7084098246205
 30
0.0
  0
VERTEX
  5
4A9
  8
回05-ﾃｰﾙ
  6
CONTINUOUS
 62
     7
 10
1589.80987707809
 20
-337.4030282015527
 30
0.0
 42
0.1989123673796998
  0
VERTEX
  5
4AA
  8
回05-ﾃｰﾙ
  6
CONTINUOUS
 62
     7
 10
1589.516983859277
 20
-336.695921420366
 30
0.0
  0
VERTEX
  5
4AB
  8
回05-ﾃｰﾙ
  6
CONTINUOUS
 62
     7
 10
1585.853895612353
 20
-333.0328331734417
 30
0.0
 42
-0.1989123673796998
  0
VERTEX
  5
4AC
  8
回05-ﾃｰﾙ
  6
CONTINUOUS
 62
     7
 10
1585.561002393539
 20
-332.3257263922549
 30
0.0
  0
VERTEX
  5
4AD
  8
回05-ﾃｰﾙ
  6
CONTINUOUS
 62
     7
 10
1585.561002393539
 20
-326.6584098246202
 30
0.0
  0
VERTEX
  5
4AE
  8
回05-ﾃｰﾙ
  6
CONTINUOUS
 62
     7
 10
1602.561002393539
 20
-326.6584098246202
 30
0.0
  0
VERTEX
  5
4AF
  8
回05-ﾃｰﾙ
  6
CONTINUOUS
 62
     7
 10
1602.561002393539
 20
-332.3257263922547
 30
0.0
 42
-0.1989123673796998
  0
VERTEX
  5
4B0
  8
回05-ﾃｰﾙ
  6
CONTINUOUS
 62
     7
 10
1602.268109174725
 20
-333.0328331734414
 30
0.0
  0
SEQEND
  5
4A3
  8
回04-下接
  6
CONTINUOUS
 62
     5
  0
POLYLINE
  5
2BC
  8
回05-ﾃｰﾙ
  6
CONTINUOUS
 62
     7
 66
     1
 10
0.0
 20
0.0
 30
0.0
 70
     1
  0
VERTEX
  5
4B1
  8
回05-ﾃｰﾙ
  6
CONTINUOUS
 62
     7
 10
1562.353895612352
 20
-333.0328331734417
 30
0.0
  0
VERTEX
  5
4B3
  8
回05-ﾃｰﾙ
  6
CONTINUOUS
 62
     7
 10
1568.516983859276
 20
-339.1959214203658
 30
0.0
 42
-0.1989123673796998
  0
VERTEX
  5
4B4
  8
回05-ﾃｰﾙ
  6
CONTINUOUS
 62
     7
 10
1568.80987707809
 20
-339.9030282015524
 30
0.0
  0
VERTEX
  5
4B5
  8
回05-ﾃｰﾙ
  6
CONTINUOUS
 62
     7
 10
1568.80987707809
 20
-399.7084098246205
 30
0.0
 42
0.4142135623730951
  0
VERTEX
  5
4B6
  8
回05-ﾃｰﾙ
  6
CONTINUOUS
 62
     7
 10
1568.90987707809
 20
-399.8084098246205
 30
0.0
  0
VERTEX
  5
4B7
  8
回05-ﾃｰﾙ
  6
CONTINUOUS
 62
     7
 10
1578.209877078091
 20
-399.8084098246205
 30
0.0
 42
0.4142135623730951
  0
VERTEX
  5
4B8
  8
回05-ﾃｰﾙ
  6
CONTINUOUS
 62
     7
 10
1578.30987707809
 20
-399.7084098246205
 30
0.0
  0
VERTEX
  5
4B9
  8
回05-ﾃｰﾙ
  6
CONTINUOUS
 62
     7
 10
1578.30987707809
 20
-335.9052788324496
 30
0.0
 42
-0.1989123673796998
  0
VERTEX
  5
4BA
  8
回05-ﾃｰﾙ
  6
CONTINUOUS
 62
     7
 10
1578.602770296904
 20
-335.1981720512629
 30
0.0
  0
VERTEX
  5
4BB
  8
回05-ﾃｰﾙ
  6
CONTINUOUS
 62
     7
 10
1580.768109174725
 20
-333.0328331734417
 30
0.0
 42
0.1989123673796998
  0
VERTEX
  5
4BC
  8
回05-ﾃｰﾙ
  6
CONTINUOUS
 62
     7
 10
1581.061002393538
 20
-332.3257263922549
 30
0.0
  0
VERTEX
  5
4BD
  8
回05-ﾃｰﾙ
  6
CONTINUOUS
 62
     7
 10
1581.061002393538
 20
-326.6584098246204
 30
0.0
  0
VERTEX
  5
4BE
  8
回05-ﾃｰﾙ
  6
CONTINUOUS
 62
     7
 10
1562.061002393539
 20
-326.6584098246204
 30
0.0
  0
VERTEX
  5
4BF
  8
回05-ﾃｰﾙ
  6
CONTINUOUS
 62
     7
 10
1562.061002393539
 20
-332.3257263922552
 30
0.0
 42
0.1989123673796998
  0
SEQEND
  5
4B2
  8
回04-下接
  6
CONTINUOUS
 62
     5
  0
POLYLINE
  5
2BD
  8
回01-上ER
  6
CONTINUOUS
 62
     7
 66
     1
 10
0.0
 20
0.0
 30
0.0
  0
VERTEX
  5
4C0
  8
回01-上ER
  6
CONTINUOUS
 62
     7
 10
1523.711002393539
 20
-240.4834098246206
 30
0.0
  0
VERTEX
  5
4C2
  8
回01-上ER
  6
CONTINUOUS
 62
     7
 10
1640.911002393539
 20
-240.4834098246206
 30
0.0
  0
SEQEND
  5
4C1
  8
回04-下接
  6
CONTINUOUS
 62
     5
  0
POLYLINE
  5
2C1
  8
回01-上ER
  6
CONTINUOUS
 62
     7
 66
     1
 10
0.0
 20
0.0
 30
0.0
  0
VERTEX
  5
4C3
  8
回01-上ER
  6
CONTINUOUS
 62
     7
 10
1523.711002393539
 20
-253.1734098246206
 30
0.0
  0
VERTEX
  5
4C5
  8
回01-上ER
  6
CONTINUOUS
 62
     7
 10
1640.911002393539
 20
-253.1734098246206
 30
0.0
  0
SEQEND
  5
4C4
  8
回04-下接
  6
CONTINUOUS
 62
     5
  0
POLYLINE
  5
2C2
  8
回01-上ER
  6
CONTINUOUS
 62
     7
 66
     1
 10
0.0
 20
0.0
 30
0.0
  0
VERTEX
  5
4C6
  8
回01-上ER
  6
CONTINUOUS
 62
     7
 10
1640.911002393539
 20
-240.8834098246206
 30
0.0
  0
VERTEX
  5
4C8
  8
回01-上ER
  6
CONTINUOUS
 62
     7
 10
1523.711002393539
 20
-240.8834098246206
 30
0.0
  0
SEQEND
  5
4C7
  8
回04-下接
  6
CONTINUOUS
 62
     5
  0
POLYLINE
  5
2C3
  8
回01-上ER
  6
CONTINUOUS
 62
     7
 66
     1
 10
0.0
 20
0.0
 30
0.0
  0
VERTEX
  5
4C9
  8
回01-上ER
  6
CONTINUOUS
 62
     7
 10
1523.711002393539
 20
-265.8634098246206
 30
0.0
  0
VERTEX
  5
4CB
  8
回01-上ER
  6
CONTINUOUS
 62
     7
 10
1640.911002393539
 20
-265.8634098246206
 30
0.0
  0
SEQEND
  5
4CA
  8
回04-下接
  6
CONTINUOUS
 62
     5
  0
POLYLINE
  5
2C4
  8
回01-上ER
  6
CONTINUOUS
 62
     7
 66
     1
 10
0.0
 20
0.0
 30
0.0
  0
VERTEX
  5
4CC
  8
回01-上ER
  6
CONTINUOUS
 62
     7
 10
1640.911002393539
 20
-253.5734098246205
 30
0.0
  0
VERTEX
  5
4CE
  8
回01-上ER
  6
CONTINUOUS
 62
     7
 10
1523.711002393539
 20
-253.5734098246205
 30
0.0
  0
SEQEND
  5
4CD
  8
回04-下接
  6
CONTINUOUS
 62
     5
  0
POLYLINE
  5
2C5
  8
回01-上ER
  6
CONTINUOUS
 62
     7
 66
     1
 10
0.0
 20
0.0
 30
0.0
  0
VERTEX
  5
4CF
  8
回01-上ER
  6
CONTINUOUS
 62
     7
 10
1523.711002393539
 20
-278.5534098246206
 30
0.0
  0
VERTEX
  5
4D1
  8
回01-上ER
  6
CONTINUOUS
 62
     7
 10
1640.911002393539
 20
-278.5534098246206
 30
0.0
  0
SEQEND
  5
4D0
  8
回04-下接
  6
CONTINUOUS
 62
     5
  0
POLYLINE
  5
2C6
  8
回01-上ER
  6
CONTINUOUS
 62
     7
 66
     1
 10
0.0
 20
0.0
 30
0.0
  0
VERTEX
  5
4D2
  8
回01-上ER
  6
CONTINUOUS
 62
     7
 10
1640.911002393539
 20
-266.2634098246206
 30
0.0
  0
VERTEX
  5
4D4
  8
回01-上ER
  6
CONTINUOUS
 62
     7
 10
1523.711002393539
 20
-266.2634098246206
 30
0.0
  0
SEQEND
  5
4D3
  8
回04-下接
  6
CONTINUOUS
 62
     5
  0
POLYLINE
  5
2C7
  8
回01-上ER
  6
CONTINUOUS
 62
     7
 66
     1
 10
0.0
 20
0.0
 30
0.0
  0
VERTEX
  5
4D5
  8
回01-上ER
  6
CONTINUOUS
 62
     7
 10
1523.711002393539
 20
-291.2434098246206
 30
0.0
  0
VERTEX
  5
4D7
  8
回01-上ER
  6
CONTINUOUS
 62
     7
 10
1640.911002393539
 20
-291.2434098246206
 30
0.0
  0
SEQEND
  5
4D6
  8
回04-下接
  6
CONTINUOUS
 62
     5
  0
POLYLINE
  5
2C8
  8
回01-上ER
  6
CONTINUOUS
 62
     7
 66
     1
 10
0.0
 20
0.0
 30
0.0
  0
VERTEX
  5
4D8
  8
回01-上ER
  6
CONTINUOUS
 62
     7
 10
1640.911002393539
 20
-278.9534098246206
 30
0.0
  0
VERTEX
  5
4DA
  8
回01-上ER
  6
CONTINUOUS
 62
     7
 10
1523.711002393539
 20
-278.9534098246206
 30
0.0
  0
SEQEND
  5
4D9
  8
回04-下接
  6
CONTINUOUS
 62
     5
  0
POLYLINE
  5
2C9
  8
回01-上ER
  6
CONTINUOUS
 62
     7
 66
     1
 10
0.0
 20
0.0
 30
0.0
  0
VERTEX
  5
4DB
  8
回01-上ER
  6
CONTINUOUS
 62
     7
 10
1523.711002393539
 20
-303.9334098246206
 30
0.0
  0
VERTEX
  5
4DD
  8
回01-上ER
  6
CONTINUOUS
 62
     7
 10
1640.911002393539
 20
-303.9334098246206
 30
0.0
  0
SEQEND
  5
4DC
  8
回04-下接
  6
CONTINUOUS
 62
     5
  0
POLYLINE
  5
2CA
  8
回01-上ER
  6
CONTINUOUS
 62
     7
 66
     1
 10
0.0
 20
0.0
 30
0.0
  0
VERTEX
  5
4DE
  8
回01-上ER
  6
CONTINUOUS
 62
     7
 10
1640.911002393539
 20
-291.6434098246206
 30
0.0
  0
VERTEX
  5
4E0
  8
回01-上ER
  6
CONTINUOUS
 62
     7
 10
1523.711002393539
 20
-291.6434098246206
 30
0.0
  0
SEQEND
  5
4DF
  8
回04-下接
  6
CONTINUOUS
 62
     5
  0
POLYLINE
  5
2CB
  8
回01-上ER
  6
CONTINUOUS
 62
     7
 66
     1
 10
0.0
 20
0.0
 30
0.0
  0
VERTEX
  5
4E1
  8
回01-上ER
  6
CONTINUOUS
 62
     7
 10
1640.911002393539
 20
-304.3334098246206
 30
0.0
  0
VERTEX
  5
4E3
  8
回01-上ER
  6
CONTINUOUS
 62
     7
 10
1523.711002393539
 20
-304.3334098246206
 30
0.0
  0
SEQEND
  5
4E2
  8
回04-下接
  6
CONTINUOUS
 62
     5
  0
POLYLINE
  5
2CC
  8
回03-下ER
  6
CONTINUOUS
 62
     7
 66
     1
 10
0.0
 20
0.0
 30
0.0
  0
VERTEX
  5
4E4
  8
回03-下ER
  6
CONTINUOUS
 62
     7
 10
1626.611002393538
 20
-228.2084098246205
 30
0.0
  0
VERTEX
  5
4E6
  8
回03-下ER
  6
CONTINUOUS
 62
     7
 10
1626.611002393538
 20
-316.6084098246206
 30
0.0
  0
SEQEND
  5
4E5
  8
回04-下接
  6
CONTINUOUS
 62
     5
  0
POLYLINE
  5
2D0
  8
回03-下ER
  6
CONTINUOUS
 62
     7
 66
     1
 10
0.0
 20
0.0
 30
0.0
  0
VERTEX
  5
4E7
  8
回03-下ER
  6
CONTINUOUS
 62
     7
 10
1626.211002393539
 20
-316.6084098246206
 30
0.0
  0
VERTEX
  5
4E9
  8
回03-下ER
  6
CONTINUOUS
 62
     7
 10
1626.211002393539
 20
-228.2084098246205
 30
0.0
  0
SEQEND
  5
4E8
  8
回04-下接
  6
CONTINUOUS
 62
     5
  0
POLYLINE
  5
2D1
  8
回03-下ER
  6
CONTINUOUS
 62
     7
 66
     1
 10
0.0
 20
0.0
 30
0.0
  0
VERTEX
  5
4EA
  8
回03-下ER
  6
CONTINUOUS
 62
     7
 10
1611.911002393538
 20
-228.2084098246205
 30
0.0
  0
VERTEX
  5
4EC
  8
回03-下ER
  6
CONTINUOUS
 62
     7
 10
1611.911002393538
 20
-316.6084098246206
 30
0.0
  0
SEQEND
  5
4EB
  8
回04-下接
  6
CONTINUOUS
 62
     5
  0
POLYLINE
  5
2D2
  8
回03-下ER
  6
CONTINUOUS
 62
     7
 66
     1
 10
0.0
 20
0.0
 30
0.0
  0
VERTEX
  5
4ED
  8
回03-下ER
  6
CONTINUOUS
 62
     7
 10
1611.511002393539
 20
-316.6084098246206
 30
0.0
  0
VERTEX
  5
4EF
  8
回03-下ER
  6
CONTINUOUS
 62
     7
 10
1611.511002393539
 20
-228.2084098246205
 30
0.0
  0
SEQEND
  5
4EE
  8
回04-下接
  6
CONTINUOUS
 62
     5
  0
POLYLINE
  5
2D3
  8
回03-下ER
  6
CONTINUOUS
 62
     7
 66
     1
 10
0.0
 20
0.0
 30
0.0
  0
VERTEX
  5
4F0
  8
回03-下ER
  6
CONTINUOUS
 62
     7
 10
1597.211002393539
 20
-228.2084098246205
 30
0.0
  0
VERTEX
  5
4F2
  8
回03-下ER
  6
CONTINUOUS
 62
     7
 10
1597.211002393539
 20
-316.6084098246206
 30
0.0
  0
SEQEND
  5
4F1
  8
回04-下接
  6
CONTINUOUS
 62
     5
  0
POLYLINE
  5
2D4
  8
回03-下ER
  6
CONTINUOUS
 62
     7
 66
     1
 10
0.0
 20
0.0
 30
0.0
  0
VERTEX
  5
4F3
  8
回03-下ER
  6
CONTINUOUS
 62
     7
 10
1596.811002393539
 20
-316.6084098246206
 30
0.0
  0
VERTEX
  5
4F5
  8
回03-下ER
  6
CONTINUOUS
 62
     7
 10
1596.811002393539
 20
-228.2084098246205
 30
0.0
  0
SEQEND
  5
4F4
  8
回04-下接
  6
CONTINUOUS
 62
     5
  0
POLYLINE
  5
2D5
  8
回03-下ER
  6
CONTINUOUS
 62
     7
 66
     1
 10
0.0
 20
0.0
 30
0.0
  0
VERTEX
  5
4F6
  8
回03-下ER
  6
CONTINUOUS
 62
     7
 10
1582.511002393539
 20
-228.2084098246205
 30
0.0
  0
VERTEX
  5
4F8
  8
回03-下ER
  6
CONTINUOUS
 62
     7
 10
1582.511002393539
 20
-316.6084098246206
 30
0.0
  0
SEQEND
  5
4F7
  8
回04-下接
  6
CONTINUOUS
 62
     5
  0
POLYLINE
  5
2D6
  8
回03-下ER
  6
CONTINUOUS
 62
     7
 66
     1
 10
0.0
 20
0.0
 30
0.0
  0
VERTEX
  5
4F9
  8
回03-下ER
  6
CONTINUOUS
 62
     7
 10
1582.111002393539
 20
-316.6084098246206
 30
0.0
  0
VERTEX
  5
4FB
  8
回03-下ER
  6
CONTINUOUS
 62
     7
 10
1582.111002393539
 20
-228.2084098246205
 30
0.0
  0
SEQEND
  5
4FA
  8
回04-下接
  6
CONTINUOUS
 62
     5
  0
POLYLINE
  5
2D7
  8
回03-下ER
  6
CONTINUOUS
 62
     7
 66
     1
 10
0.0
 20
0.0
 30
0.0
  0
VERTEX
  5
4FC
  8
回03-下ER
  6
CONTINUOUS
 62
     7
 10
1567.811002393538
 20
-228.2084098246205
 30
0.0
  0
VERTEX
  5
4FE
  8
回03-下ER
  6
CONTINUOUS
 62
     7
 10
1567.811002393538
 20
-316.6084098246206
 30
0.0
  0
SEQEND
  5
4FD
  8
回04-下接
  6
CONTINUOUS
 62
     5
  0
POLYLINE
  5
2D8
  8
回03-下ER
  6
CONTINUOUS
 62
     7
 66
     1
 10
0.0
 20
0.0
 30
0.0
  0
VERTEX
  5
4FF
  8
回03-下ER
  6
CONTINUOUS
 62
     7
 10
1567.411002393539
 20
-316.6084098246206
 30
0.0
  0
VERTEX
  5
501
  8
回03-下ER
  6
CONTINUOUS
 62
     7
 10
1567.411002393539
 20
-228.2084098246205
 30
0.0
  0
SEQEND
  5
500
  8
回04-下接
  6
CONTINUOUS
 62
     5
  0
POLYLINE
  5
2D9
  8
回03-下ER
  6
CONTINUOUS
 62
     7
 66
     1
 10
0.0
 20
0.0
 30
0.0
  0
VERTEX
  5
502
  8
回03-下ER
  6
CONTINUOUS
 62
     7
 10
1553.111002393539
 20
-228.2084098246205
 30
0.0
  0
VERTEX
  5
504
  8
回03-下ER
  6
CONTINUOUS
 62
     7
 10
1553.111002393539
 20
-316.6084098246206
 30
0.0
  0
SEQEND
  5
503
  8
回04-下接
  6
CONTINUOUS
 62
     5
  0
POLYLINE
  5
2DA
  8
回03-下ER
  6
CONTINUOUS
 62
     7
 66
     1
 10
0.0
 20
0.0
 30
0.0
  0
VERTEX
  5
505
  8
回03-下ER
  6
CONTINUOUS
 62
     7
 10
1552.711002393539
 20
-316.6084098246206
 30
0.0
  0
VERTEX
  5
507
  8
回03-下ER
  6
CONTINUOUS
 62
     7
 10
1552.711002393539
 20
-228.2084098246205
 30
0.0
  0
SEQEND
  5
506
  8
回04-下接
  6
CONTINUOUS
 62
     5
  0
POLYLINE
  5
2DB
  8
回03-下ER
  6
CONTINUOUS
 62
     7
 66
     1
 10
0.0
 20
0.0
 30
0.0
  0
VERTEX
  5
508
  8
回03-下ER
  6
CONTINUOUS
 62
     7
 10
1538.411002393539
 20
-228.2084098246205
 30
0.0
  0
VERTEX
  5
50A
  8
回03-下ER
  6
CONTINUOUS
 62
     7
 10
1538.411002393539
 20
-316.6084098246206
 30
0.0
  0
SEQEND
  5
509
  8
回04-下接
  6
CONTINUOUS
 62
     5
  0
POLYLINE
  5
2DC
  8
回03-下ER
  6
CONTINUOUS
 62
     7
 66
     1
 10
0.0
 20
0.0
 30
0.0
  0
VERTEX
  5
50B
  8
回03-下ER
  6
CONTINUOUS
 62
     7
 10
1538.011002393539
 20
-316.6084098246206
 30
0.0
  0
VERTEX
  5
50D
  8
回03-下ER
  6
CONTINUOUS
 62
     7
 10
1538.011002393539
 20
-228.2084098246205
 30
0.0
  0
SEQEND
  5
50C
  8
回04-下接
  6
CONTINUOUS
 62
     5
  0
TEXT
  5
2DD
  8
回90-枠2
 10
1870.688785935141
 20
-113.6089923806396
 30
0.0
 40
4.0
  1
H
  0
LINE
  5
2DF
  8
回90-枠2
 10
1836.959400629489
 20
-108.9814155066908
 30
0.0
 11
1836.959400629489
 21
-113.9814155066908
 31
0.0
  0
LINE
  5
2E0
  8
回90-枠2
 10
1766.959400629488
 20
-108.9814155066908
 30
0.0
 11
1766.959400629488
 21
-113.9814155066908
 31
0.0
  0
TEXT
  5
2E1
  8
回90-枠2
 10
1730.688785935141
 20
-113.6089923806396
 30
0.0
 40
4.0
  1
F
  0
LINE
  5
2E2
  8
回90-枠2
 10
1696.959400629489
 20
-108.9814155066908
 30
0.0
 11
1696.959400629489
 21
-113.9814155066908
 31
0.0
  0
TEXT
  5
2E3
  8
回90-枠2
 10
1660.688785935141
 20
-113.6089923806396
 30
0.0
 40
4.0
  1
E
  0
TEXT
  5
2E4
  8
回90-枠2
 10
1800.688785935141
 20
-113.6089923806396
 30
0.0
 40
4.0
  1
G
  0
LINE
  5
2E5
  8
回90-枠2
 10
1626.959400629489
 20
-108.9814155066908
 30
0.0
 11
1626.959400629489
 21
-113.9814155066908
 31
0.0
  0
TEXT
  5
2E6
  8
回90-枠2
 10
1590.688785935141
 20
-113.6089923806396
 30
0.0
 40
4.0
  1
D
  0
LINE
  5
2E7
  8
回90-枠2
 10
1556.959400629489
 20
-108.9814155066908
 30
0.0
 11
1556.959400629489
 21
-113.9814155066908
 31
0.0
  0
TEXT
  5
2E8
  8
回90-枠2
 10
1520.688785935141
 20
-113.6089923806396
 30
0.0
 40
4.0
  1
C
  0
LINE
  5
2E9
  8
回90-枠2
 10
1486.959400629489
 20
-108.9814155066908
 30
0.0
 11
1486.959400629489
 21
-113.9814155066908
 31
0.0
  0
TEXT
  5
2EA
  8
回90-枠2
 10
1450.688785935141
 20
-113.6089923806396
 30
0.0
 40
4.0
  1
B
  0
LINE
  5
2EB
  8
回90-枠2
 10
1416.959400629489
 20
-108.9814155066908
 30
0.0
 11
1416.959400629489
 21
-113.9814155066908
 31
0.0
  0
TEXT
  5
2EC
  8
回90-枠2
 10
1380.688785935141
 20
-113.6089923806396
 30
0.0
 40
4.0
  1
A
  0
LINE
  5
2ED
  8
回90-枠2
 10
1911.959400629489
 20
-108.9814155066908
 30
0.0
 11
1341.959400629489
 21
-108.9814155066908
 31
0.0
  0
LINE
  5
2EE
  8
回90-枠2
 10
1346.959400629488
 20
-113.9814155066908
 30
0.0
 11
1906.959400629489
 21
-113.9814155066908
 31
0.0
  0
TEXT
  5
2EF
  8
回90-枠2
 10
1908.363821633148
 20
-154.6927282108315
 30
0.0
 40
4.0
  1
1
  0
LINE
  5
2F0
  8
回90-枠2
 10
1911.959400629489
 20
-190.9814155066908
 30
0.0
 11
1906.959400629489
 21
-190.9814155066908
 31
0.0
  0
TEXT
  5
2F1
  8
回90-枠2
 10
1908.062322929845
 20
-231.6927282108315
 30
0.0
 40
4.0
  1
2
  0
LINE
  5
2F2
  8
回90-枠2
 10
1911.959400629489
 20
-267.9814155066909
 30
0.0
 11
1906.959400629489
 21
-267.9814155066909
 31
0.0
  0
TEXT
  5
2F3
  8
回90-枠2
 10
1908.056842085645
 20
-308.6927282108316
 30
0.0
 40
4.0
  1
3
  0
LINE
  5
2F4
  8
回90-枠2
 10
1911.959400629489
 20
-344.9814155066909
 30
0.0
 11
1906.959400629489
 21
-344.9814155066909
 31
0.0
  0
TEXT
  5
2F5
  8
回90-枠2
 10
1907.983749965564
 20
-385.6927282108316
 30
0.0
 40
4.0
  1
4
  0
TEXT
  5
2F6
  8
回90-枠2
 10
1343.363821633148
 20
-154.6927282108315
 30
0.0
 40
4.0
  1
1
  0
LINE
  5
2F7
  8
回90-枠2
 10
1346.959400629488
 20
-190.9814155066908
 30
0.0
 11
1341.959400629489
 21
-190.9814155066908
 31
0.0
  0
TEXT
  5
2F8
  8
回90-枠2
 10
1343.062322929846
 20
-231.6927282108315
 30
0.0
 40
4.0
  1
2
  0
LINE
  5
2F9
  8
回90-枠2
 10
1346.959400629488
 20
-267.9814155066909
 30
0.0
 11
1341.959400629489
 21
-267.9814155066909
 31
0.0
  0
TEXT
  5
2FA
  8
回90-枠2
 10
1343.056842085645
 20
-308.6927282108316
 30
0.0
 40
4.0
  1
3
  0
LINE
  5
2FB
  8
回90-枠2
 10
1346.959400629488
 20
-344.9814155066909
 30
0.0
 11
1341.959400629489
 21
-344.9814155066909
 31
0.0
  0
TEXT
  5
2FC
  8
回90-枠2
 10
1342.983749965564
 20
-385.6927282108316
 30
0.0
 40
4.0
  1
4
  0
LINE
  5
2FD
  8
回90-枠2
 10
1911.959400629489
 20
-421.9814155066908
 30
0.0
 11
1906.959400629489
 21
-421.9814155066908
 31
0.0
  0
TEXT
  5
2FE
  8
回90-枠2
 10
1907.983749965564
 20
-462.6927282108313
 30
0.0
 40
4.0
  1
5
  0
TEXT
  5
2FF
  8
回90-枠2
 10
1870.688785935141
 20
-503.6089923806395
 30
0.0
 40
4.0
  1
H
  0
LINE
  5
300
  8
回90-枠2
 10
1836.959400629489
 20
-498.9814155066906
 30
0.0
 11
1836.959400629489
 21
-503.9814155066906
 31
0.0
  0
LINE
  5
301
  8
回90-枠2
 10
1766.959400629488
 20
-498.9814155066906
 30
0.0
 11
1766.959400629488
 21
-503.9814155066906
 31
0.0
  0
TEXT
  5
302
  8
回90-枠2
 10
1730.688785935141
 20
-503.6089923806395
 30
0.0
 40
4.0
  1
F
  0
LINE
  5
303
  8
回90-枠2
 10
1696.959400629489
 20
-498.9814155066906
 30
0.0
 11
1696.959400629489
 21
-503.9814155066906
 31
0.0
  0
TEXT
  5
304
  8
回90-枠2
 10
1660.688785935141
 20
-503.6089923806395
 30
0.0
 40
4.0
  1
E
  0
TEXT
  5
305
  8
回90-枠2
 10
1800.688785935141
 20
-503.6089923806395
 30
0.0
 40
4.0
  1
G
  0
LINE
  5
306
  8
回90-枠2
 10
1626.959400629489
 20
-498.9814155066906
 30
0.0
 11
1626.959400629489
 21
-503.9814155066906
 31
0.0
  0
TEXT
  5
307
  8
回90-枠2
 10
1590.688785935141
 20
-503.6089923806395
 30
0.0
 40
4.0
  1
D
  0
LINE
  5
308
  8
回90-枠2
 10
1556.959400629489
 20
-498.9814155066906
 30
0.0
 11
1556.959400629489
 21
-503.9814155066906
 31
0.0
  0
TEXT
  5
309
  8
回90-枠2
 10
1520.688785935141
 20
-503.6089923806395
 30
0.0
 40
4.0
  1
C
  0
LINE
  5
30A
  8
回90-枠2
 10
1486.959400629489
 20
-498.9814155066906
 30
0.0
 11
1486.959400629489
 21
-503.9814155066906
 31
0.0
  0
LINE
  5
30B
  8
回90-枠2
 10
1346.959400629488
 20
-421.9814155066908
 30
0.0
 11
1341.959400629489
 21
-421.9814155066908
 31
0.0
  0
TEXT
  5
30C
  8
回90-枠2
 10
1342.983749965564
 20
-462.6927282108313
 30
0.0
 40
4.0
  1
5
  0
TEXT
  5
30D
  8
回90-枠2
 10
1450.688785935141
 20
-503.6089923806395
 30
0.0
 40
4.0
  1
B
  0
LINE
  5
30E
  8
回90-枠2
 10
1416.959400629489
 20
-498.9814155066906
 30
0.0
 11
1416.959400629489
 21
-503.9814155066906
 31
0.0
  0
TEXT
  5
30F
  8
回90-枠2
 10
1380.688785935141
 20
-503.6089923806395
 30
0.0
 40
4.0
  1
A
  0
LINE
  5
310
  8
回90-枠2
 10
1346.959400629488
 20
-498.9814155066906
 30
0.0
 11
1906.959400629489
 21
-498.9814155066906
 31
0.0
  0
LINE
  5
311
  8
回90-枠2
 10
1911.959400629489
 20
-503.9814155066906
 30
0.0
 11
1341.959400629489
 21
-503.9814155066906
 31
0.0
  0
LINE
  5
312
  8
回90-枠2
 10
1911.959400629489
 20
-503.9814155066906
 30
0.0
 11
1911.959400629489
 21
-108.9814155066908
 31
0.0
  0
LINE
  5
313
  8
回90-枠2
 10
1906.959400629489
 20
-113.9814155066908
 30
0.0
 11
1906.959400629489
 21
-498.9814155066906
 31
0.0
  0
LINE
  5
314
  8
回90-枠2
 10
1341.959400629489
 20
-503.9814155066906
 30
0.0
 11
1341.959400629489
 21
-108.9814155066908
 31
0.0
  0
LINE
  5
315
  8
回90-枠2
 10
1346.959400629488
 20
-113.9814155066908
 30
0.0
 11
1346.959400629488
 21
-498.9814155066906
 31
0.0
  0
TEXT
  5
316
  8
回08-記事
  6
CONTINUOUS
 62
     5
 10
1682.680848561988
 20
-367.3755364533894
 30
0.0
 40
4.0
  1
MTR-G057B070A
  0
TEXT
  5
317
  8
回08-記事
  6
CONTINUOUS
 62
     5
 10
1687.411785876275
 20
-361.9789277446115
 30
0.0
 40
4.0
  1
Product label
1001
ACAD
1000
MTEXTBEGIN
1070
    73
1070
     1
1070
    44
1040
1.0
1070
    74
1070
     0
1000
MTEXTEND
  0
INSERT
  5
318
  8
回08-記事
  6
CONTINUOUS
 62
     7
 66
     1
  2
*X43
 10
0.0
 20
0.0
 30
0.0
  0
SEQEND
  5
514
  8
回04-下接
  6
CONTINUOUS
 62
     5
  0
TEXT
  5
31B
  8
回08-記事
  6
CONTINUOUS
 62
     5
 10
1747.049826985181
 20
-361.9789277446115
 30
0.0
 40
4.0
  1
Lot label
1001
ACAD
1000
MTEXTBEGIN
1070
    73
1070
     1
1070
    44
1040
1.0
1070
    74
1070
     0
1000
MTEXTEND
  0
INSERT
  5
31C
  8
回08-記事
  6
CONTINUOUS
 62
     7
 66
     1
  2
*X44
 10
0.0
 20
0.0
 30
0.0
  0
SEQEND
  5
51B
  8
回04-下接
  6
CONTINUOUS
 62
     5
  0
LINE
  5
31D
  8
回08-記事
  6
CONTINUOUS
 62
     7
 10
1753.692476991512
 20
-271.8419653064559
 30
0.0
 11
1743.746372066027
 21
-271.8308603191042
 31
0.0
  0
TEXT
  5
31E
  8
回08-記事
  6
CONTINUOUS
 62
     7
 10
1755.669356874081
 20
-273.6157333046767
 30
0.0
 40
4.0
  1
2
  0
ARC
  5
31F
  8
回08-記事
  6
CONTINUOUS
 62
     7
 10
1738.944686613909
 20
-229.2884098246204
 30
0.0
 40
0.5
 50
90.0
 51
270.0
  0
ARC
  5
320
  8
回08-記事
  6
CONTINUOUS
 62
     7
 10
1738.944686613909
 20
-232.1684098246205
 30
0.0
 40
0.5
 50
90.0
 51
270.0
  0
ARC
  5
321
  8
回08-記事
  6
CONTINUOUS
 62
     7
 10
1738.944686613909
 20
-246.5684098246204
 30
0.0
 40
0.5
 50
90.0
 51
270.0
  0
ARC
  5
322
  8
回08-記事
  6
CONTINUOUS
 62
     7
 10
1738.944686613909
 20
-249.4484098246205
 30
0.0
 40
0.5
 50
90.0
 51
270.0
  0
ARC
  5
323
  8
回08-記事
  6
CONTINUOUS
 62
     7
 10
1738.944686613909
 20
-263.8484098246204
 30
0.0
 40
0.5
 50
90.0
 51
270.0
  0
ARC
  5
324
  8
回08-記事
  6
CONTINUOUS
 62
     7
 10
1738.944686613909
 20
-275.3684098246203
 30
0.0
 40
0.5
 50
90.0
 51
270.0
  0
ARC
  5
325
  8
回08-記事
  6
CONTINUOUS
 62
     7
 10
1738.944686613909
 20
-278.2484098246205
 30
0.0
 40
0.5
 50
90.0
 51
270.0
  0
POLYLINE
  5
326
  8
回08-記事
  6
CONTINUOUS
 62
     7
 66
     1
 10
0.0
 20
0.0
 30
0.0
 70
     1
  0
VERTEX
  5
51C
  8
回08-記事
  6
CONTINUOUS
 62
     7
 10
1737.244686613908
 20
-349.7910551946424
 30
0.0
  0
VERTEX
  5
51E
  8
回08-記事
  6
CONTINUOUS
 62
     7
 10
1737.944686613908
 20
-349.7910551946424
 30
0.0
  0
VERTEX
  5
51F
  8
回08-記事
  6
CONTINUOUS
 62
     7
 10
1737.944686613908
 20
-375.7910551946423
 30
0.0
  0
VERTEX
  5
520
  8
回08-記事
  6
CONTINUOUS
 62
     7
 10
1737.244686613908
 20
-375.7910551946423
 30
0.0
  0
SEQEND
  5
51D
  8
回04-下接
  6
CONTINUOUS
 62
     5
  0
LINE
  5
327
  8
回08-記事
  6
CONTINUOUS
 62
     7
 10
1733.859467381243
 20
-383.7760379380762
 30
0.0
 11
1737.210550426207
 21
-391.229150906923
 31
0.0
  0
LINE
  5
328
  8
回08-記事
  6
CONTINUOUS
 62
     7
 10
1730.761295310393
 20
-390.5975329787712
 30
0.0
 11
1733.859467381243
 21
-383.7760379380762
 31
0.0
  0
LINE
  5
329
  8
回08-記事
  6
CONTINUOUS
 62
     7
 10
1729.517577918047
 20
-374.6837218950201
 30
0.0
 11
1725.656932086944
 21
-375.5056216971884
 31
0.0
  0
LINE
  5
32A
  8
回08-記事
  6
CONTINUOUS
 62
     7
 10
1728.70279814442
 20
-344.7321499859658
 30
0.0
 11
1726.166322996747
 21
-345.8090278052681
 31
0.0
  0
LINE
  5
32B
  8
回08-記事
  6
CONTINUOUS
 62
     7
 10
1744.738273947104
 20
-334.0923969365316
 30
0.0
 11
1743.775442930245
 21
-330.5657164773187
 31
0.0
  0
LINE
  5
32C
  8
回08-記事
  6
CONTINUOUS
 62
     7
 10
1735.350706919033
 20
-330.2451091628449
 30
0.0
 11
1744.738273947104
 21
-334.0923969365316
 31
0.0
  0
TEXT
  5
32D
  8
回08-記事
  6
CONTINUOUS
 62
     7
 10
1732.744877238013
 20
-383.2080465947513
 30
0.0
 40
4.0
  1
5
  0
TEXT
  5
32E
  8
回08-記事
  6
CONTINUOUS
 62
     7
 10
1722.445704720042
 20
-377.1789972979193
 30
0.0
 40
4.0
  1
3
  0
POLYLINE
  5
32F
  8
回08-記事
  6
CONTINUOUS
 62
     7
 66
     1
 10
0.0
 20
0.0
 30
0.0
 70
     1
  0
VERTEX
  5
521
  8
回08-記事
  6
CONTINUOUS
 62
     7
 10
1739.644686613909
 20
-349.7910551946424
 30
0.0
  0
VERTEX
  5
523
  8
回08-記事
  6
CONTINUOUS
 62
     7
 10
1740.344686613908
 20
-349.7910551946424
 30
0.0
  0
VERTEX
  5
524
  8
回08-記事
  6
CONTINUOUS
 62
     7
 10
1740.344686613908
 20
-375.7910551946423
 30
0.0
  0
VERTEX
  5
525
  8
回08-記事
  6
CONTINUOUS
 62
     7
 10
1739.644686613909
 20
-375.7910551946423
 30
0.0
  0
SEQEND
  5
522
  8
回04-下接
  6
CONTINUOUS
 62
     5
  0
INSERT
  5
330
  8
回08-記事
  6
CONTINUOUS
 62
     7
 66
     1
  2
*X45
 10
0.0
 20
0.0
 30
0.0
1001
GRADIENTCOLOR1ACI
1070
     5
1001
GRADIENTCOLOR2ACI
1070
     2
1001
ACAD
1010
0.0
1020
0.0
1030
0.0
  0
SEQEND
  5
53D
  8
回04-下接
  6
CONTINUOUS
 62
     5
  0
LINE
  5
331
  8
回08-記事
  6
CONTINUOUS
 62
     7
 10
1739.644686613909
 20
-329.8084098246205
 30
0.0
 11
1739.644686613909
 21
-333.9243614538087
 31
0.0
1001
ACAD
1000
ASC_BOUNDS
1002
{
1070
    19
1005
336
1002
}
  0
LINE
  5
332
  8
回08-記事
  6
CONTINUOUS
 62
     7
 10
1745.944686613909
 20
-329.8084098246205
 30
0.0
 11
1739.644686613909
 21
-329.8084098246205
 31
0.0
1001
ACAD
1000
ASC_BOUNDS
1002
{
1070
    19
1005
336
1002
}
  0
LINE
  5
333
  8
回08-記事
  6
CONTINUOUS
 62
     7
 10
1746.644686613908
 20
-330.5084098246206
 30
0.0
 11
1746.644686613908
 21
-327.0243614538086
 31
0.0
1001
ACAD
1000
ASC_BOUNDS
1002
{
1070
    19
1005
336
1002
}
  0
LINE
  5
334
  8
回08-記事
  6
CONTINUOUS
 62
     7
 10
1740.344686613908
 20
-333.9243614538087
 30
0.0
 11
1740.344686613908
 21
-330.5084098246206
 31
0.0
1001
ACAD
1000
ASC_BOUNDS
1002
{
1070
    19
1005
336
1002
}
  0
LINE
  5
335
  8
回08-記事
  6
CONTINUOUS
 62
     7
 10
1737.944686613908
 20
-330.5084098246206
 30
0.0
 11
1730.751502394938
 21
-330.5084098246206
 31
0.0
1001
ACAD
1000
ASC_BOUNDS
1002
{
1070
    19
1005
336
1002
}
  0
INSERT
  5
336
  8
回08-記事
  6
CONTINUOUS
 62
     7
 66
     1
  2
*X46
 10
0.0
 20
0.0
 30
0.0
1001
GRADIENTCOLOR1ACI
1070
     5
1001
GRADIENTCOLOR2ACI
1070
     2
1001
ACAD
1010
0.0
1020
0.0
1030
0.0
  0
SEQEND
  5
555
  8
回04-下接
  6
CONTINUOUS
 62
     5
  0
DIMENSION
  5
337
  8
回07-寸法
  6
CONTINUOUS
 62
     7
  2
*D3
 10
1729.051502394938
 20
-410.2308187365612
 30
0.0
 11
1718.516574591788
 21
-407.7308187365612
 31
0.0
 70
     0
  1
0.3{\H0.66667x;±0.05}
  3
DMC
 13
1731.551502394938
 23
-399.8084340100271
 33
0.0
 14
1729.051502394938
 24
-399.8084340100271
 34
0.0
1001
ACAD
1000
DSTYLE
1002
{
1070
    41
1040
1.5
1070
    47
1040
0.2
1070
    48
1040
0.2
1070
   140
1040
4.0
1070
   141
1040
1.5
1070
   371
1070
    13
1070
   372
1070
    13
1002
}
  0
DIMENSION
  5
346
  8
回07-寸法
  6
CONTINUOUS
 62
     7
  2
*D2
 10
1735.306562863824
 20
-399.8084340100271
 30
0.0
 11
1733.339888863824
 21
-394.8084340100272
 31
0.0
 70
     0
  1
{\H0.66667x;(<>)}
  3
DMC
 13
1731.551502394938
 23
-389.8084340100272
 33
0.0
 14
1731.551502394938
 24
-399.8084340100271
 34
0.0
 50
90.0
1001
ACAD
1000
DSTYLE
1002
{
1070
    41
1040
1.5
1070
    47
1040
0.2
1070
    48
1040
0.2
1070
   140
1040
4.0
1070
   141
1040
1.5
1070
   371
1070
    13
1070
   372
1070
    13
1002
}
  0
LINE
  5
353
  8
回08-記事
  6
CONTINUOUS
 62
     7
 10
1729.051502394938
 20
-319.1084098246207
 30
0.0
 11
1738.944686613909
 21
-319.1084098246207
 31
0.0
  0
POLYLINE
  5
354
  8
回08-記事
  6
CONTINUOUS
 62
     7
 66
     1
 10
0.0
 20
0.0
 30
0.0
 70
     1
  0
VERTEX
  5
556
  8
回08-記事
  6
CONTINUOUS
 62
     7
 10
1738.944686613909
 20
-371.0443614538101
 30
0.0
  0
VERTEX
  5
558
  8
回08-記事
  6
CONTINUOUS
 62
     7
 10
1738.944686613909
 20
-329.8084098246205
 30
0.0
  0
VERTEX
  5
559
  8
回08-記事
  6
CONTINUOUS
 62
     7
 10
1739.644686613909
 20
-329.8084098246205
 30
0.0
  0
VERTEX
  5
55A
  8
回08-記事
  6
CONTINUOUS
 62
     7
 10
1739.644686613909
 20
-371.0443614538101
 30
0.0
  0
VERTEX
  5
55B
  8
回08-記事
  6
CONTINUOUS
 62
     7
 10
1739.644686613909
 20
-394.808434010027
 30
0.0
  0
VERTEX
  5
55C
  8
回08-記事
  6
CONTINUOUS
 62
     7
 10
1738.944686613909
 20
-394.808434010027
 30
0.0
  0
VERTEX
  5
55D
  8
回08-記事
  6
CONTINUOUS
 62
     7
 10
1738.944686613909
 20
-371.0443614538101
 30
0.0
  0
VERTEX
  5
55E
  8
回08-記事
  6
CONTINUOUS
 62
     7
 10
1738.944686613909
 20
-399.8084340100271
 30
0.0
  0
VERTEX
  5
55F
  8
回08-記事
  6
CONTINUOUS
 62
     7
 10
1737.944686613908
 20
-399.8084340100271
 30
0.0
  0
VERTEX
  5
560
  8
回08-記事
  6
CONTINUOUS
 62
     7
 10
1737.944686613908
 20
-371.0443614538101
 30
0.0
  0
VERTEX
  5
561
  8
回08-記事
  6
CONTINUOUS
 62
     7
 10
1737.944686613908
 20
-326.6584098246207
 30
0.0
  0
VERTEX
  5
562
  8
回08-記事
  6
CONTINUOUS
 62
     7
 10
1738.944686613909
 20
-326.6584098246207
 30
0.0
  0
SEQEND
  5
557
  8
回04-下接
  6
CONTINUOUS
 62
     5
  0
POLYLINE
  5
355
  8
回08-記事
  6
CONTINUOUS
 62
     7
 66
     1
 10
0.0
 20
0.0
 30
0.0
 70
     1
  0
VERTEX
  5
563
  8
回08-記事
  6
CONTINUOUS
 62
     7
 10
1729.051502394938
 20
-371.0443614538101
 30
0.0
  0
VERTEX
  5
565
  8
回08-記事
  6
CONTINUOUS
 62
     7
 10
1729.051502394938
 20
-394.808434010027
 30
0.0
  0
VERTEX
  5
566
  8
回08-記事
  6
CONTINUOUS
 62
     7
 10
1728.351502394938
 20
-394.808434010027
 30
0.0
  0
VERTEX
  5
567
  8
回08-記事
  6
CONTINUOUS
 62
     7
 10
1728.351502394938
 20
-371.0443614538101
 30
0.0
  0
VERTEX
  5
568
  8
回08-記事
  6
CONTINUOUS
 62
     7
 10
1728.351502394938
 20
-329.3084098246205
 30
0.0
  0
VERTEX
  5
569
  8
回08-記事
  6
CONTINUOUS
 62
     7
 10
1729.051502394938
 20
-329.3084098246205
 30
0.0
  0
VERTEX
  5
56A
  8
回08-記事
  6
CONTINUOUS
 62
     7
 10
1729.051502394938
 20
-371.0443614538101
 30
0.0
  0
VERTEX
  5
56B
  8
回08-記事
  6
CONTINUOUS
 62
     7
 10
1729.051502394938
 20
-326.6584098246207
 30
0.0
  0
VERTEX
  5
56C
  8
回08-記事
  6
CONTINUOUS
 62
     7
 10
1730.051502394938
 20
-326.6584098246207
 30
0.0
  0
VERTEX
  5
56D
  8
回08-記事
  6
CONTINUOUS
 62
     7
 10
1730.051502394938
 20
-371.0443614538101
 30
0.0
  0
VERTEX
  5
56E
  8
回08-記事
  6
CONTINUOUS
 62
     7
 10
1730.051502394938
 20
-399.8084340100271
 30
0.0
  0
VERTEX
  5
56F
  8
回08-記事
  6
CONTINUOUS
 62
     7
 10
1729.051502394938
 20
-399.8084340100271
 30
0.0
  0
SEQEND
  5
564
  8
回04-下接
  6
CONTINUOUS
 62
     5
  0
POLYLINE
  5
356
  8
回08-記事
  6
CONTINUOUS
 62
     7
 66
     1
 10
0.0
 20
0.0
 30
0.0
  0
VERTEX
  5
570
  8
回08-記事
  6
CONTINUOUS
 62
     7
 10
1725.051502394938
 20
-279.2084098246206
 30
0.0
  0
VERTEX
  5
572
  8
回08-記事
  6
CONTINUOUS
 62
     7
 10
1725.051502394938
 20
-219.7084098246207
 30
0.0
  0
VERTEX
  5
573
  8
回08-記事
  6
CONTINUOUS
 62
     7
 10
1729.051502394938
 20
-219.7084098246207
 30
0.0
  0
VERTEX
  5
574
  8
回08-記事
  6
CONTINUOUS
 62
     7
 10
1729.051502394938
 20
-279.2084098246206
 30
0.0
  0
SEQEND
  5
571
  8
回04-下接
  6
CONTINUOUS
 62
     5
  0
POLYLINE
  5
357
  8
回08-記事
  6
CONTINUOUS
 62
     7
 66
     1
 10
0.0
 20
0.0
 30
0.0
  0
VERTEX
  5
575
  8
回08-記事
  6
CONTINUOUS
 62
     7
 10
1729.051502394938
 20
-279.2084098246206
 30
0.0
  0
VERTEX
  5
577
  8
回08-記事
  6
CONTINUOUS
 62
     7
 10
1729.051502394938
 20
-329.3084098246205
 30
0.0
  0
VERTEX
  5
578
  8
回08-記事
  6
CONTINUOUS
 62
     7
 10
1725.051502394938
 20
-329.3084098246205
 30
0.0
  0
VERTEX
  5
579
  8
回08-記事
  6
CONTINUOUS
 62
     7
 10
1725.051502394938
 20
-279.2084098246206
 30
0.0
  0
SEQEND
  5
576
  8
回04-下接
  6
CONTINUOUS
 62
     5
  0
POLYLINE
  5
358
  8
回08-記事
  6
CONTINUOUS
 62
     7
 66
     1
 10
0.0
 20
0.0
 30
0.0
  0
VERTEX
  5
57A
  8
回08-記事
  6
CONTINUOUS
 62
     7
 10
1738.944686613909
 20
-279.2084098246206
 30
0.0
  0
VERTEX
  5
57C
  8
回08-記事
  6
CONTINUOUS
 62
     7
 10
1738.944686613909
 20
-219.2084098246205
 30
0.0
  0
VERTEX
  5
57D
  8
回08-記事
  6
CONTINUOUS
 62
     7
 10
1745.944686613909
 20
-219.2084098246205
 30
0.0
  0
VERTEX
  5
57E
  8
回08-記事
  6
CONTINUOUS
 62
     7
 10
1745.944686613909
 20
-279.2084098246206
 30
0.0
  0
SEQEND
  5
57B
  8
回04-下接
  6
CONTINUOUS
 62
     5
  0
POLYLINE
  5
359
  8
回08-記事
  6
CONTINUOUS
 62
     7
 66
     1
 10
0.0
 20
0.0
 30
0.0
  0
VERTEX
  5
57F
  8
回08-記事
  6
CONTINUOUS
 62
     7
 10
1745.944686613909
 20
-279.2084098246206
 30
0.0
  0
VERTEX
  5
581
  8
回08-記事
  6
CONTINUOUS
 62
     7
 10
1745.944686613909
 20
-329.8084098246205
 30
0.0
  0
VERTEX
  5
582
  8
回08-記事
  6
CONTINUOUS
 62
     7
 10
1738.944686613909
 20
-329.8084098246205
 30
0.0
  0
VERTEX
  5
583
  8
回08-記事
  6
CONTINUOUS
 62
     7
 10
1738.944686613909
 20
-279.2084098246206
 30
0.0
  0
SEQEND
  5
580
  8
回04-下接
  6
CONTINUOUS
 62
     5
  0
DIMENSION
  5
35A
  8
回07-寸法
  6
CONTINUOUS
 62
     5
  2
*D1
 10
1745.944686613909
 20
-208.7030344681712
 30
0.0
 11
1735.498094504423
 21
-206.2030344681712
 31
0.0
 70
     0
  1
1.4{\H0.5x;±0.2}
  3
DMC
 13
1725.051502394938
 23
-219.7084098246205
 33
0.0
 14
1745.944686613909
 24
-219.2084098246205
 34
0.0
1001
ACAD
1000
DSTYLE
1002
{
1070
    41
1040
1.5
1070
    47
1040
0.2
1070
    48
1040
0.2
1070
   140
1040
4.0
1070
   141
1040
1.5
1070
   371
1070
    13
1070
   372
1070
    13
1002
}
  0
LINE
  5
367
  8
回08-記事
  6
CONTINUOUS
 62
     7
 10
1726.622744388308
 20
-271.2630158126578
 30
0.0
 11
1720.273564101533
 21
-271.8308603191042
 31
0.0
  0
TEXT
  5
368
  8
回08-記事
  6
CONTINUOUS
 62
     7
 10
1716.605018179177
 20
-273.7767745361462
 30
0.0
 40
4.0
  1
1
  0
ARC
  5
369
  8
回08-記事
  6
CONTINUOUS
 62
     7
 10
1738.944686613909
 20
-235.0484098246204
 30
0.0
 40
0.5
 50
90.0
 51
270.0
  0
ARC
  5
36A
  8
回08-記事
  6
CONTINUOUS
 62
     7
 10
1738.944686613909
 20
-237.9284098246206
 30
0.0
 40
0.5
 50
90.0
 51
270.0
  0
ARC
  5
36B
  8
回08-記事
  6
CONTINUOUS
 62
     7
 10
1738.944686613909
 20
-240.8084098246204
 30
0.0
 40
0.5
 50
90.0
 51
270.0
  0
ARC
  5
36C
  8
回08-記事
  6
CONTINUOUS
 62
     7
 10
1738.944686613909
 20
-243.6884098246205
 30
0.0
 40
0.5
 50
90.0
 51
270.0
  0
ARC
  5
36D
  8
回08-記事
  6
CONTINUOUS
 62
     7
 10
1738.944686613909
 20
-252.3284098246204
 30
0.0
 40
0.5
 50
90.0
 51
270.0
  0
ARC
  5
36E
  8
回08-記事
  6
CONTINUOUS
 62
     7
 10
1738.944686613909
 20
-255.2084098246205
 30
0.0
 40
0.5
 50
90.0
 51
270.0
  0
ARC
  5
36F
  8
回08-記事
  6
CONTINUOUS
 62
     7
 10
1738.944686613909
 20
-258.0884098246204
 30
0.0
 40
0.5
 50
90.0
 51
270.0
  0
ARC
  5
370
  8
回08-記事
  6
CONTINUOUS
 62
     7
 10
1738.944686613909
 20
-260.9684098246205
 30
0.0
 40
0.5
 50
90.0
 51
270.0
  0
ARC
  5
371
  8
回08-記事
  6
CONTINUOUS
 62
     7
 10
1738.944686613909
 20
-266.7284098246205
 30
0.0
 40
0.5
 50
90.0
 51
270.0
  0
ARC
  5
372
  8
回08-記事
  6
CONTINUOUS
 62
     7
 10
1738.944686613909
 20
-269.6084098246203
 30
0.0
 40
0.5
 50
90.0
 51
270.0
  0
ARC
  5
373
  8
回08-記事
  6
CONTINUOUS
 62
     7
 10
1738.944686613909
 20
-272.4884098246205
 30
0.0
 40
0.5
 50
90.0
 51
270.0
  0
POLYLINE
  5
374
  8
回08-記事
  6
CONTINUOUS
 62
     7
 66
     1
 10
0.0
 20
0.0
 30
0.0
 70
     1
  0
VERTEX
  5
584
  8
回08-記事
  6
CONTINUOUS
 62
     7
 10
1729.051502394938
 20
-219.7084098246205
 30
0.0
  0
VERTEX
  5
586
  8
回08-記事
  6
CONTINUOUS
 62
     7
 10
1738.944686613909
 20
-219.7084098246205
 30
0.0
  0
VERTEX
  5
587
  8
回08-記事
  6
CONTINUOUS
 62
     7
 10
1738.944686613909
 20
-225.7084098246205
 30
0.0
  0
VERTEX
  5
588
  8
回08-記事
  6
CONTINUOUS
 62
     7
 10
1729.051502394938
 20
-225.7084098246205
 30
0.0
  0
SEQEND
  5
585
  8
回04-下接
  6
CONTINUOUS
 62
     5
  0
INSERT
  5
375
  8
回08-記事
  6
CONTINUOUS
 62
     7
 66
     1
  2
*X47
 10
0.0
 20
0.0
 30
0.0
1001
GRADIENTCOLOR1ACI
1070
     5
1001
GRADIENTCOLOR2ACI
1070
     2
1001
ACAD
1010
0.0
1020
0.0
1030
0.0
  0
SEQEND
  5
5A0
  8
回04-下接
  6
CONTINUOUS
 62
     5
  0
LINE
  5
376
  8
回08-記事
  6
CONTINUOUS
 62
     7
 10
1725.656932086944
 20
-375.5056216971884
 30
0.0
 11
1738.188203249505
 21
-378.4138860658477
 31
0.0
  0
LINE
  5
377
  8
回08-記事
  6
CONTINUOUS
 62
     7
 10
1726.166322996747
 20
-345.8090278052681
 30
0.0
 11
1739.41941411077
 21
-347.772743782018
 31
0.0
  0
TEXT
  5
378
  8
回08-記事
  6
CONTINUOUS
 62
     7
 10
1745.889719994707
 20
-337.0805024108942
 30
0.0
 40
4.0
  1
6
  0
TEXT
  5
379
  8
回08-記事
  6
CONTINUOUS
 62
     7
 10
1722.506912916616
 20
-347.5383840645778
 30
0.0
 40
4.0
  1
4
  0
LINE
  5
37A
  8
回08-記事
  6
CONTINUOUS
 62
     7
 10
1745.944686613909
 20
-327.0243614538086
 30
0.0
 11
1745.944686613909
 21
-329.8084098246205
 31
0.0
1001
ACAD
1000
ASC_BOUNDS
1002
{
1070
    19
1005
336
1002
}
  0
LINE
  5
37B
  8
回08-記事
  6
CONTINUOUS
 62
     7
 10
1746.644686613908
 20
-327.0243614538086
 30
0.0
 11
1745.944686613909
 21
-327.0243614538086
 31
0.0
1001
ACAD
1000
ASC_BOUNDS
1002
{
1070
    19
1005
336
1002
}
  0
LINE
  5
37C
  8
回08-記事
  6
CONTINUOUS
 62
     7
 10
1739.644686613909
 20
-333.9243614538087
 30
0.0
 11
1740.344686613908
 21
-333.9243614538087
 31
0.0
1001
ACAD
1000
ASC_BOUNDS
1002
{
1070
    19
1005
336
1002
}
  0
LINE
  5
37D
  8
回08-記事
  6
CONTINUOUS
 62
     7
 10
1740.344686613908
 20
-330.5084098246206
 30
0.0
 11
1746.644686613908
 21
-330.5084098246206
 31
0.0
1001
ACAD
1000
ASC_BOUNDS
1002
{
1070
    19
1005
336
1002
}
  0
LINE
  5
37E
  8
回08-記事
  6
CONTINUOUS
 62
     7
 10
1730.751502394938
 20
-330.5084098246206
 30
0.0
 11
1730.751502394938
 21
-333.9243614538087
 31
0.0
1001
ACAD
1000
ASC_BOUNDS
1002
{
1070
    19
1005
336
1002
}
  0
LINE
  5
37F
  8
回08-記事
  6
CONTINUOUS
 62
     7
 10
1730.751502394938
 20
-333.9243614538087
 30
0.0
 11
1730.051502394938
 21
-333.9243614538087
 31
0.0
1001
ACAD
1000
ASC_BOUNDS
1002
{
1070
    19
1005
336
1002
}
  0
LINE
  5
380
  8
回08-記事
  6
CONTINUOUS
 62
     7
 10
1737.944686613908
 20
-329.5084098246206
 30
0.0
 11
1737.944686613908
 21
-330.5084098246206
 31
0.0
1001
ACAD
1000
ASC_BOUNDS
1002
{
1070
    19
1005
336
1002
}
  0
LINE
  5
381
  8
回08-記事
  6
CONTINUOUS
 62
     7
 10
1730.051502394938
 20
-329.5084098246206
 30
0.0
 11
1737.944686613908
 21
-329.5084098246206
 31
0.0
1001
ACAD
1000
ASC_BOUNDS
1002
{
1070
    19
1005
336
1002
}
  0
LINE
  5
382
  8
回08-記事
  6
CONTINUOUS
 62
     7
 10
1730.051502394938
 20
-333.9243614538087
 30
0.0
 11
1730.051502394938
 21
-329.5084098246206
 31
0.0
1001
ACAD
1000
ASC_BOUNDS
1002
{
1070
    19
1005
336
1002
}
  0
DIMENSION
  5
383
  8
回07-寸法
  6
CONTINUOUS
 62
     7
  2
*D6
 10
1738.944686613909
 20
-416.5360589077536
 30
0.0
 11
1749.479614417058
 21
-414.0360589077536
 31
0.0
 70
     0
  1
0.3{\H0.66667x;±0.05}
  3
DMC
 13
1736.444686613908
 23
-399.8084340100271
 33
0.0
 14
1738.944686613909
 24
-399.8084340100271
 34
0.0
1001
ACAD
1000
DSTYLE
1002
{
1070
    41
1040
1.5
1070
    47
1040
0.2
1070
    48
1040
0.2
1070
   140
1040
4.0
1070
   141
1040
1.5
1070
   371
1070
    13
1070
   372
1070
    13
1002
}
  0
DIMENSION
  5
392
  8
回07-寸法
  6
CONTINUOUS
 62
     7
  2
*D5
 10
1748.060325204598
 20
-394.8084340100272
 30
0.0
 11
1745.560325204598
 21
-397.3084340100271
 31
0.0
 70
     0
  3
DMC
 13
1738.944686613909
 23
-399.8084340100271
 33
0.0
 14
1739.644686613909
 24
-394.8084340100272
 34
0.0
 50
90.0
1001
ACAD
1000
DSTYLE
1002
{
1070
    41
1040
1.5
1070
    47
1040
0.2
1070
    48
1040
0.2
1070
   140
1040
4.0
1070
   141
1040
1.5
1070
   371
1070
    13
1070
   372
1070
    13
1002
}
  0
DIMENSION
  5
39F
  8
回07-寸法
  6
CONTINUOUS
 62
     7
  2
*D4
 10
1721.185784413313
 20
-394.8084340100272
 30
0.0
 11
1718.685784413313
 21
-397.3084340100271
 31
0.0
 70
     0
  3
DMC
 13
1729.051502394938
 23
-399.8084340100271
 33
0.0
 14
1728.351502394938
 24
-394.8084340100272
 34
0.0
 50
90.0
1001
ACAD
1000
DSTYLE
1002
{
1070
    41
1040
1.5
1070
    47
1040
0.2
1070
    48
1040
0.2
1070
   140
1040
4.0
1070
   141
1040
1.5
1070
   371
1070
    13
1070
   372
1070
    13
1002
}
  0
LINE
  5
3AC
  8
回08-記事
  6
CONTINUOUS
 62
     7
 10
1730.051502394938
 20
-329.5084098246206
 30
0.0
 11
1737.944686613908
 21
-329.5084098246206
 31
0.0
  0
POLYLINE
  5
3AD
  8
回08-記事
  6
CONTINUOUS
 62
     7
 66
     1
 10
0.0
 20
0.0
 30
0.0
 70
     1
  0
VERTEX
  5
5A1
  8
回08-記事
  6
CONTINUOUS
 62
     7
 10
1736.444686613908
 20
-389.8084340100272
 30
0.0
  0
VERTEX
  5
5A3
  8
回08-記事
  6
CONTINUOUS
 62
     7
 10
1737.944686613908
 20
-389.8084340100272
 30
0.0
  0
VERTEX
  5
5A4
  8
回08-記事
  6
CONTINUOUS
 62
     7
 10
1737.944686613908
 20
-399.8084340100271
 30
0.0
  0
VERTEX
  5
5A5
  8
回08-記事
  6
CONTINUOUS
 62
     7
 10
1736.444686613908
 20
-399.8084340100271
 30
0.0
  0
SEQEND
  5
5A2
  8
回04-下接
  6
CONTINUOUS
 62
     5
  0
POLYLINE
  5
3AE
  8
回08-記事
  6
CONTINUOUS
 62
     7
 66
     1
 10
0.0
 20
0.0
 30
0.0
 70
     1
  0
VERTEX
  5
5A6
  8
回08-記事
  6
CONTINUOUS
 62
     7
 10
1730.051502394938
 20
-389.8084340100272
 30
0.0
  0
VERTEX
  5
5A8
  8
回08-記事
  6
CONTINUOUS
 62
     7
 10
1731.551502394938
 20
-389.8084340100272
 30
0.0
  0
VERTEX
  5
5A9
  8
回08-記事
  6
CONTINUOUS
 62
     7
 10
1731.551502394938
 20
-399.8084340100271
 30
0.0
  0
VERTEX
  5
5AA
  8
回08-記事
  6
CONTINUOUS
 62
     7
 10
1730.051502394938
 20
-399.8084340100271
 30
0.0
  0
SEQEND
  5
5A7
  8
回04-下接
  6
CONTINUOUS
 62
     5
  0
TEXT
  5
3AF
  8
回08-記事
  6
CONTINUOUS
 62
     7
 10
1872.160318684831
 20
-299.1547259663851
 30
0.0
 40
4.105728
  1
U5
  0
TEXT
  5
3B0
  8
回08-記事
  6
CONTINUOUS
 62
     7
 10
1872.160318684831
 20
-230.7919411186081
 30
0.0
 40
4.105728
  1
D5
  0
TEXT
  5
3B1
  8
回08-記事
  6
CONTINUOUS
 62
     7
 10
1828.952749082761
 20
-217.5672421129529
 30
0.0
 40
4.105728
  1
R6
  0
TEXT
  5
3B2
  8
回08-記事
  6
CONTINUOUS
 62
     7
 10
1872.316960986916
 20
-183.1650665234647
 30
0.0
 40
4.105728
  1
U6
  0
TEXT
  5
3B3
  8
回08-記事
  6
CONTINUOUS
 62
     7
 10
1872.160318684831
 20
-217.0401659663851
 30
0.0
 40
4.105728
  1
D7
  0
TEXT
  5
3B4
  8
回08-記事
  6
CONTINUOUS
 62
     7
 10
1872.160318684831
 20
-264.940325966385
 30
0.0
 40
4.105728
  1
SDL
  0
TEXT
  5
3B5
  8
回08-記事
  6
CONTINUOUS
 62
     7
 10
1872.160318684831
 20
-271.7832059663845
 30
0.0
 40
4.105728
  1
U1
  0
TEXT
  5
3B6
  8
回08-記事
  6
CONTINUOUS
 62
     7
 10
1872.160318684831
 20
-278.6260859663846
 30
0.0
 40
4.105728
  1
U2
  0
TEXT
  5
3B7
  8
回08-記事
  6
CONTINUOUS
 62
     7
 10
1872.160318684831
 20
-285.4689659663847
 30
0.0
 40
4.105728
  1
U3
  0
TEXT
  5
3B8
  8
回08-記事
  6
CONTINUOUS
 62
     7
 10
1872.160318684831
 20
-292.3118459663849
 30
0.0
 40
4.105728
  1
U4
  0
TEXT
  5
3B9
  8
回08-記事
  6
CONTINUOUS
 62
     7
 10
1829.062464388931
 20
-285.4689659663847
 30
0.0
 40
4.105728
  1
SUL
  0
TEXT
  5
3BA
  8
回08-記事
  6
CONTINUOUS
 62
     7
 10
1829.062464388931
 20
-278.6260859663846
 30
0.0
 40
4.105728
  1
L1
  0
TEXT
  5
3BB
  8
回08-記事
  6
CONTINUOUS
 62
     7
 10
1829.062464388931
 20
-271.7832059663852
 30
0.0
 40
4.105728
  1
L2
  0
TEXT
  5
3BC
  8
回08-記事
  6
CONTINUOUS
 62
     7
 10
1829.062464388931
 20
-258.0974459663849
 30
0.0
 40
4.105728
  1
L4
  0
TEXT
  5
3BD
  8
回08-記事
  6
CONTINUOUS
 62
     7
 10
1829.062464388931
 20
-251.2545659663847
 30
0.0
 40
4.105728
  1
L5
  0
TEXT
  5
3BE
  8
回08-記事
  6
CONTINUOUS
 62
     7
 10
1829.062464388931
 20
-244.411685966385
 30
0.0
 40
4.105728
  1
L6
  0
TEXT
  5
3BF
  8
回08-記事
  6
CONTINUOUS
 62
     7
 10
1829.062464388931
 20
-237.5688059663848
 30
0.0
 40
4.105728
  1
L7
  0
TEXT
  5
3C0
  8
回08-記事
  6
CONTINUOUS
 62
     7
 10
1824.392139228335
 20
-164.4343998153354
 30
0.0
 40
4.104085708799997
  1
PIN ASSIGNMENT
  0
TEXT
  5
3C1
  8
回08-記事
  6
CONTINUOUS
 62
     7
 10
1871.820065706455
 20
-251.4169242743069
 30
0.0
 40
4.105728
  1
D2
  0
TEXT
  5
3C2
  8
回08-記事
  6
CONTINUOUS
 62
     7
 10
1872.223212427418
 20
-258.259804274307
 30
0.0
 40
4.105728
  1
D1
  0
TEXT
  5
3C3
  8
回08-記事
  6
CONTINUOUS
 62
     7
 10
1872.223212427418
 20
-244.5740442743067
 30
0.0
 40
4.105728
  1
D3
  0
TEXT
  5
3C4
  8
回08-記事
  6
CONTINUOUS
 62
     7
 10
1850.07079799763
 20
-258.0974459663849
 30
0.0
 40
4.105728
  1
28
  0
LINE
  5
3C5
  8
回08-記事
  6
CONTINUOUS
 62
     7
 10
1855.79031238988
 20
-201.5075117550746
 30
0.0
 11
1870.651236945883
 21
-201.5075117550746
 31
0.0
  0
LINE
  5
3C6
  8
回08-記事
  6
CONTINUOUS
 62
     7
 10
1855.79031238988
 20
-194.6646317550744
 30
0.0
 11
1870.651236945883
 21
-194.6646317550744
 31
0.0
  0
TEXT
  5
3C7
  8
回08-記事
  6
CONTINUOUS
 62
     7
 10
1850.075147012547
 20
-285.4689659663847
 30
0.0
 40
4.105728
  1
32
  0
LINE
  5
3C8
  8
回08-記事
  6
CONTINUOUS
 62
     7
 10
1855.79031238988
 20
-222.0361517550746
 30
0.0
 11
1870.651236945883
 21
-222.0361517550746
 31
0.0
  0
LINE
  5
3C9
  8
回08-記事
  6
CONTINUOUS
 62
     7
 10
1855.79031238988
 20
-215.1932717550744
 30
0.0
 11
1870.651236945883
 21
-215.1932717550744
 31
0.0
  0
TEXT
  5
3CA
  8
回08-記事
  6
CONTINUOUS
 62
     7
 10
1850.104663522727
 20
-299.1547259663846
 30
0.0
 40
4.105728
  1
34
  0
TEXT
  5
3CB
  8
回08-記事
  6
CONTINUOUS
 62
     7
 10
1872.535780557039
 20
-210.0634861075698
 30
0.0
 40
4.105728
  1
D8
  0
TEXT
  5
3CC
  8
回08-記事
  6
CONTINUOUS
 62
     7
 10
1872.535780557039
 20
-203.2206061075697
 30
0.0
 40
4.105728
  1
SUR
  0
LINE
  5
3CD
  8
回08-記事
  6
CONTINUOUS
 62
     7
 10
1855.79031238988
 20
-290.4649517550745
 30
0.0
 11
1870.651236945883
 21
-290.4649517550745
 31
0.0
  0
LINE
  5
3CE
  8
回08-記事
  6
CONTINUOUS
 62
     7
 10
1855.79031238988
 20
-269.9363117550745
 30
0.0
 11
1870.651236945883
 21
-269.9363117550745
 31
0.0
  0
LINE
  5
3CF
  8
回08-記事
  6
CONTINUOUS
 62
     7
 10
1855.79031238988
 20
-263.0934317550743
 30
0.0
 11
1870.651236945883
 21
-263.0934317550743
 31
0.0
  0
LINE
  5
3D0
  8
回08-記事
  6
CONTINUOUS
 62
     7
 10
1855.79031238988
 20
-249.4076717550745
 30
0.0
 11
1870.651236945883
 21
-249.4076717550745
 31
0.0
  0
LINE
  5
3D1
  8
回08-記事
  6
CONTINUOUS
 62
     7
 10
1855.79031238988
 20
-256.2505517550746
 30
0.0
 11
1870.651236945883
 21
-256.2505517550746
 31
0.0
  0
TEXT
  5
3D2
  8
回08-記事
  6
CONTINUOUS
 62
     7
 10
1849.739369357027
 20
-244.411685966385
 30
0.0
 40
4.105728
  1
26
  0
TEXT
  5
3D3
  8
回08-記事
  6
CONTINUOUS
 62
     7
 10
1829.062464388931
 20
-264.940325966385
 30
0.0
 40
4.105728
  1
L3
  0
TEXT
  5
3D4
  8
回08-記事
  6
CONTINUOUS
 62
     7
 10
1829.062464388931
 20
-189.6686459663849
 30
0.0
 40
4.105728
  1
R2
  0
TEXT
  5
3D5
  8
回08-記事
  6
CONTINUOUS
 62
     7
 10
1829.062464388931
 20
-231.009533748399
 30
0.0
 40
4.105728
  1
SDR
  0
TEXT
  5
3D6
  8
回08-記事
  6
CONTINUOUS
 62
     7
 10
1829.062464388931
 20
-210.1972859663849
 30
0.0
 40
4.105728
  1
R5
  0
TEXT
  5
3D7
  8
回08-記事
  6
CONTINUOUS
 62
     7
 10
1811.31314341748
 20
-173.3529837283554
 30
0.0
 40
4.105728
  1
Tail-1
  0
TEXT
  5
3D8
  8
回08-記事
  6
CONTINUOUS
 62
     7
 10
1829.062464388931
 20
-203.3544059663848
 30
0.0
 40
4.105728
  1
R4
  0
TEXT
  5
3D9
  8
回08-記事
  6
CONTINUOUS
 62
     7
 10
1808.329671960292
 20
-182.8257659663847
 30
0.0
 40
4.105728
  1
1
  0
LINE
  5
3DA
  8
回08-記事
  6
CONTINUOUS
 62
     7
 10
1812.69245809398
 20
-180.9788717550748
 30
0.0
 11
1827.553382649982
 21
-180.9788717550748
 31
0.0
  0
LINE
  5
3DB
  8
回08-記事
  6
CONTINUOUS
 62
     7
 10
1812.69245809398
 20
-187.8217517550749
 30
0.0
 11
1827.553382649982
 21
-187.8217517550749
 31
0.0
  0
LINE
  5
3DC
  8
回08-記事
  6
CONTINUOUS
 62
     7
 10
1812.69245809398
 20
-194.6646317550744
 30
0.0
 11
1827.553382649982
 21
-194.6646317550744
 31
0.0
  0
TEXT
  5
3DD
  8
回08-記事
  6
CONTINUOUS
 62
     7
 10
1808.329671960292
 20
-189.6686459663849
 30
0.0
 40
4.105728
  1
2
  0
LINE
  5
3DE
  8
回08-記事
  6
CONTINUOUS
 62
     7
 10
1812.69245809398
 20
-201.5075117550746
 30
0.0
 11
1827.553382649982
 21
-201.5075117550746
 31
0.0
  0
TEXT
  5
3DF
  8
回08-記事
  6
CONTINUOUS
 62
     7
 10
1808.329671960292
 20
-210.1972859663849
 30
0.0
 40
4.105728
  1
5
  0
TEXT
  5
3E0
  8
回08-記事
  6
CONTINUOUS
 62
     7
 10
1808.329671960292
 20
-203.3544059663848
 30
0.0
 40
4.105728
  1
4
  0
TEXT
  5
3E1
  8
回08-記事
  6
CONTINUOUS
 62
     7
 10
1808.329671960292
 20
-217.0401659663851
 30
0.0
 40
4.105728
  1
6
  0
LINE
  5
3E2
  8
回08-記事
  6
CONTINUOUS
 62
     7
 10
1812.69245809398
 20
-222.0361517550746
 30
0.0
 11
1827.553382649982
 21
-222.0361517550746
 31
0.0
  0
LINE
  5
3E3
  8
回08-記事
  6
CONTINUOUS
 62
     7
 10
1812.69245809398
 20
-215.1932717550744
 30
0.0
 11
1827.553382649982
 21
-215.1932717550744
 31
0.0
  0
TEXT
  5
3E4
  8
回08-記事
  6
CONTINUOUS
 62
     7
 10
1808.329671960292
 20
-230.7259259663847
 30
0.0
 40
4.105728
  1
8
  0
LINE
  5
3E5
  8
回08-記事
  6
CONTINUOUS
 62
     7
 10
1812.69245809398
 20
-228.8790317550747
 30
0.0
 11
1827.553382649982
 21
-228.8790317550747
 31
0.0
  0
LINE
  5
3E6
  8
回08-記事
  6
CONTINUOUS
 62
     7
 10
1812.69245809398
 20
-276.7791917550746
 30
0.0
 11
1827.553382649982
 21
-276.7791917550746
 31
0.0
  0
LINE
  5
3E7
  8
回08-記事
  6
CONTINUOUS
 62
     7
 10
1812.69245809398
 20
-263.0934317550743
 30
0.0
 11
1827.553382649982
 21
-263.0934317550743
 31
0.0
  0
LINE
  5
3E8
  8
回08-記事
  6
CONTINUOUS
 62
     7
 10
1812.69245809398
 20
-256.2505517550746
 30
0.0
 11
1827.553382649982
 21
-256.2505517550746
 31
0.0
  0
LINE
  5
3E9
  8
回08-記事
  6
CONTINUOUS
 62
     7
 10
1812.69245809398
 20
-269.9363117550745
 30
0.0
 11
1827.553382649982
 21
-269.9363117550745
 31
0.0
  0
LINE
  5
3EA
  8
回08-記事
  6
CONTINUOUS
 62
     7
 10
1812.69245809398
 20
-242.5647917550746
 30
0.0
 11
1827.553382649982
 21
-242.5647917550746
 31
0.0
  0
TEXT
  5
3EB
  8
回08-記事
  6
CONTINUOUS
 62
     7
 10
1849.739369357027
 20
-230.7259259663855
 30
0.0
 40
4.105728
  1
24
  0
TEXT
  5
3EC
  8
回08-記事
  6
CONTINUOUS
 62
     7
 10
1849.739369357027
 20
-223.8830459663852
 30
0.0
 40
4.105728
  1
23
  0
TEXT
  5
3ED
  8
回08-記事
  6
CONTINUOUS
 62
     7
 10
1849.739369357027
 20
-210.1972859663854
 30
0.0
 40
4.105728
  1
21
  0
TEXT
  5
3EE
  8
回08-記事
  6
CONTINUOUS
 62
     7
 10
1849.739369357027
 20
-196.5115259663851
 30
0.0
 40
4.105728
  1
19
  0
TEXT
  5
3EF
  8
回08-記事
  6
CONTINUOUS
 62
     7
 10
1849.739369357027
 20
-189.6686459663849
 30
0.0
 40
4.105728
  1
18
  0
TEXT
  5
3F0
  8
回08-記事
  6
CONTINUOUS
 62
     7
 10
1806.641515061126
 20
-285.4689659663847
 30
0.0
 40
4.105728
  1
16
  0
TEXT
  5
3F1
  8
回08-記事
  6
CONTINUOUS
 62
     7
 10
1806.394466677722
 20
-278.6260859663846
 30
0.0
 40
4.105728
  1
15
  0
TEXT
  5
3F2
  8
回08-記事
  6
CONTINUOUS
 62
     7
 10
1806.394466677722
 20
-264.940325966385
 30
0.0
 40
4.105728
  1
13
  0
TEXT
  5
3F3
  8
回08-記事
  6
CONTINUOUS
 62
     7
 10
1806.394466677722
 20
-251.2545659663851
 30
0.0
 40
4.105728
  1
11
  0
TEXT
  5
3F4
  8
回08-記事
  6
CONTINUOUS
 62
     7
 10
1806.394466677722
 20
-244.411685966385
 30
0.0
 40
4.105728
  1
10
  0
TEXT
  5
3F5
  8
回08-記事
  6
CONTINUOUS
 62
     7
 10
1872.223212427418
 20
-237.7311642743066
 30
0.0
 40
4.105728
  1
D4
  0
TEXT
  5
3F6
  8
回08-記事
  6
CONTINUOUS
 62
     7
 10
1872.160318684831
 20
-223.8830459663845
 30
0.0
 40
4.105728
  1
D6
  0
LINE
  5
3F7
  8
回08-記事
  6
CONTINUOUS
 62
     7
 10
1855.79031238988
 20
-180.9788717550748
 30
0.0
 11
1870.651236945883
 21
-180.9788717550748
 31
0.0
  0
TEXT
  5
3F8
  8
回08-記事
  6
CONTINUOUS
 62
     7
 10
1850.07079799763
 20
-251.2545659663847
 30
0.0
 40
4.105728
  1
27
  0
LINE
  5
3F9
  8
回08-記事
  6
CONTINUOUS
 62
     7
 10
1855.79031238988
 20
-187.8217517550749
 30
0.0
 11
1870.651236945883
 21
-187.8217517550749
 31
0.0
  0
TEXT
  5
3FA
  8
回08-記事
  6
CONTINUOUS
 62
     7
 10
1850.07079799763
 20
-264.940325966385
 30
0.0
 40
4.105728
  1
29
  0
TEXT
  5
3FB
  8
回08-記事
  6
CONTINUOUS
 62
     7
 10
1850.075147012547
 20
-271.7832059663845
 30
0.0
 40
4.105728
  1
30
  0
TEXT
  5
3FC
  8
回08-記事
  6
CONTINUOUS
 62
     7
 10
1850.075147012547
 20
-278.6260859663846
 30
0.0
 40
4.105728
  1
31
  0
LINE
  5
3FD
  8
回08-記事
  6
CONTINUOUS
 62
     7
 10
1855.79031238988
 20
-208.3503917550747
 30
0.0
 11
1870.651236945883
 21
-208.3503917550747
 31
0.0
  0
TEXT
  5
3FE
  8
回08-記事
  6
CONTINUOUS
 62
     7
 10
1850.104663522727
 20
-292.3118459663844
 30
0.0
 40
4.105728
  1
33
  0
LINE
  5
3FF
  8
回08-記事
  6
CONTINUOUS
 62
     7
 10
1855.79031238988
 20
-228.8790317550747
 30
0.0
 11
1870.651236945883
 21
-228.8790317550747
 31
0.0
  0
TEXT
  5
400
  8
回08-記事
  6
CONTINUOUS
 62
     7
 10
1872.535780557039
 20
-196.3777261075695
 30
0.0
 40
4.105728
  1
U8
  0
TEXT
  5
401
  8
回08-記事
  6
CONTINUOUS
 62
     7
 10
1872.535780557039
 20
-189.5348461075698
 30
0.0
 40
4.105728
  1
U7
  0
LINE
  5
402
  8
回08-記事
  6
CONTINUOUS
 62
     7
 10
1855.79031238988
 20
-297.3078317550746
 30
0.0
 11
1870.651236945883
 21
-297.3078317550746
 31
0.0
  0
LINE
  5
403
  8
回08-記事
  6
CONTINUOUS
 62
     7
 10
1855.79031238988
 20
-276.7791917550746
 30
0.0
 11
1870.651236945883
 21
-276.7791917550746
 31
0.0
  0
LINE
  5
404
  8
回08-記事
  6
CONTINUOUS
 62
     7
 10
1855.79031238988
 20
-283.6220717550748
 30
0.0
 11
1870.651236945883
 21
-283.6220717550748
 31
0.0
  0
LINE
  5
405
  8
回08-記事
  6
CONTINUOUS
 62
     7
 10
1855.79031238988
 20
-242.5647917550746
 30
0.0
 11
1870.651236945883
 21
-242.5647917550746
 31
0.0
  0
LINE
  5
406
  8
回08-記事
  6
CONTINUOUS
 62
     7
 10
1855.79031238988
 20
-235.7219117550749
 30
0.0
 11
1870.651236945883
 21
-235.7219117550749
 31
0.0
  0
TEXT
  5
407
  8
回08-記事
  6
CONTINUOUS
 62
     7
 10
1829.062464388931
 20
-196.5115259663851
 30
0.0
 40
4.105728
  1
R3
  0
TEXT
  5
408
  8
回08-記事
  6
CONTINUOUS
 62
     7
 10
1849.739369357027
 20
-237.5688059663855
 30
0.0
 40
4.105728
  1
25
  0
TEXT
  5
409
  8
回08-記事
  6
CONTINUOUS
 62
     7
 10
1829.062464388931
 20
-223.8830459663845
 30
0.0
 40
4.105728
  1
R7
  0
TEXT
  5
40A
  8
回08-記事
  6
CONTINUOUS
 62
     7
 10
1829.062464388931
 20
-182.8257659663847
 30
0.0
 40
4.105728
  1
R1
  0
TEXT
  5
40B
  8
回08-記事
  6
CONTINUOUS
 62
     7
 10
1855.317992448174
 20
-173.3529837283554
 30
0.0
 40
4.105728
  1
Tail-2
  0
TEXT
  5
40C
  8
回08-記事
  6
CONTINUOUS
 62
     7
 10
1808.329671960292
 20
-196.5115259663851
 30
0.0
 40
4.105728
  1
3
  0
LINE
  5
40D
  8
回08-記事
  6
CONTINUOUS
 62
     7
 10
1812.69245809398
 20
-208.3503917550747
 30
0.0
 11
1827.553382649982
 21
-208.3503917550747
 31
0.0
  0
TEXT
  5
40E
  8
回08-記事
  6
CONTINUOUS
 62
     7
 10
1808.329671960292
 20
-223.8830459663845
 30
0.0
 40
4.105728
  1
7
  0
LINE
  5
40F
  8
回08-記事
  6
CONTINUOUS
 62
     7
 10
1812.69245809398
 20
-283.6220717550748
 30
0.0
 11
1827.553382649982
 21
-283.6220717550748
 31
0.0
  0
LINE
  5
410
  8
回08-記事
  6
CONTINUOUS
 62
     7
 10
1812.69245809398
 20
-249.4076717550745
 30
0.0
 11
1827.553382649982
 21
-249.4076717550745
 31
0.0
  0
LINE
  5
411
  8
回08-記事
  6
CONTINUOUS
 62
     7
 10
1812.69245809398
 20
-235.7219117550749
 30
0.0
 11
1827.553382649982
 21
-235.7219117550749
 31
0.0
  0
TEXT
  5
412
  8
回08-記事
  6
CONTINUOUS
 62
     7
 10
1849.739369357027
 20
-217.0401659663851
 30
0.0
 40
4.105728
  1
22
  0
TEXT
  5
413
  8
回08-記事
  6
CONTINUOUS
 62
     7
 10
1849.739369357027
 20
-203.3544059663852
 30
0.0
 40
4.105728
  1
20
  0
TEXT
  5
414
  8
回08-記事
  6
CONTINUOUS
 62
     7
 10
1849.739369357027
 20
-182.8257659663854
 30
0.0
 40
4.105728
  1
17
  0
TEXT
  5
415
  8
回08-記事
  6
CONTINUOUS
 62
     7
 10
1806.394466677722
 20
-271.7832059663852
 30
0.0
 40
4.105728
  1
14
  0
TEXT
  5
416
  8
回08-記事
  6
CONTINUOUS
 62
     7
 10
1806.394466677722
 20
-258.0974459663849
 30
0.0
 40
4.105728
  1
12
  0
TEXT
  5
417
  8
回08-記事
  6
CONTINUOUS
 62
     7
 10
1808.329671960292
 20
-237.5688059663848
 30
0.0
 40
4.105728
  1
9
  0
LINE
  5
418
  8
回07-寸法
  6
CENTER2
 62
     1
 10
1519.711002393539
 20
-272.4084098246205
 30
0.0
 11
1644.911002393539
 21
-272.4084098246205
 31
0.0
  0
LINE
  5
419
  8
回07-寸法
  6
CENTER2
 62
     1
 10
1582.311002393539
 20
-224.2084098246205
 30
0.0
 11
1582.311002393539
 21
-320.6084098246206
 31
0.0
  0
POLYLINE
  5
41A
  8
回08-記事
  6
PHANTOM2
 62
     7
 66
     1
 10
0.0
 20
0.0
 30
0.0
 70
     1
  0
VERTEX
  5
5AB
  8
回08-記事
  6
PHANTOM2
 62
     7
 10
1521.211002393538
 20
-225.7084098246205
 30
0.0
  0
VERTEX
  5
5AD
  8
回08-記事
  6
PHANTOM2
 62
     7
 10
1643.411002393539
 20
-225.7084098246205
 30
0.0
  0
VERTEX
  5
5AE
  8
回08-記事
  6
PHANTOM2
 62
     7
 10
1643.411002393539
 20
-319.1084098246207
 30
0.0
  0
VERTEX
  5
5AF
  8
回08-記事
  6
PHANTOM2
 62
     7
 10
1521.211002393538
 20
-319.1084098246207
 30
0.0
  0
SEQEND
  5
5AC
  8
回04-下接
  6
CONTINUOUS
 62
     5
  0
POLYLINE
  5
41C
  8
回04-下接
  6
CONTINUOUS
 62
     7
 66
     1
 10
0.0
 20
0.0
 30
0.0
 70
     1
  0
VERTEX
  5
5B0
  8
回04-下接
  6
CONTINUOUS
 62
     7
 10
1515.211002393539
 20
-219.2084098246205
 30
0.0
  0
VERTEX
  5
5B2
  8
回04-下接
  6
CONTINUOUS
 62
     7
 10
1649.411002393539
 20
-219.2084098246205
 30
0.0
  0
VERTEX
  5
5B3
  8
回04-下接
  6
CONTINUOUS
 62
     7
 10
1649.411002393539
 20
-329.8084098246206
 30
0.0
  0
VERTEX
  5
5B4
  8
回04-下接
  6
CONTINUOUS
 62
     7
 10
1515.211002393539
 20
-329.8084098246206
 30
0.0
  0
SEQEND
  5
5B1
  8
回04-下接
  6
CONTINUOUS
 62
     5
  0
POLYLINE
  5
41D
  8
回08-記事
  6
CONTINUOUS
 62
     7
 66
     1
 10
0.0
 20
0.0
 30
0.0
 70
     1
  0
VERTEX
  5
5B5
  8
回08-記事
  6
CONTINUOUS
 62
     7
 10
1521.711002393539
 20
-226.2084098246205
 30
0.0
  0
VERTEX
  5
5B7
  8
回08-記事
  6
CONTINUOUS
 62
     7
 10
1642.911002393539
 20
-226.2084098246205
 30
0.0
  0
VERTEX
  5
5B8
  8
回08-記事
  6
CONTINUOUS
 62
     7
 10
1642.911002393539
 20
-318.6084098246206
 30
0.0
  0
VERTEX
  5
5B9
  8
回08-記事
  6
CONTINUOUS
 62
     7
 10
1521.711002393539
 20
-318.6084098246206
 30
0.0
  0
SEQEND
  5
5B6
  8
回04-下接
  6
CONTINUOUS
 62
     5
  0
POLYLINE
  5
41E
  8
回08-記事
  6
CONTINUOUS
 62
     7
 66
     1
 10
0.0
 20
0.0
 30
0.0
 70
     1
  0
VERTEX
  5
5BA
  8
回08-記事
  6
CONTINUOUS
 62
     7
 10
1523.711002393539
 20
-228.2084098246205
 30
0.0
  0
VERTEX
  5
5BC
  8
回08-記事
  6
CONTINUOUS
 62
     7
 10
1640.911002393539
 20
-228.2084098246205
 30
0.0
  0
VERTEX
  5
5BD
  8
回08-記事
  6
CONTINUOUS
 62
     7
 10
1640.911002393539
 20
-316.6084098246206
 30
0.0
  0
VERTEX
  5
5BE
  8
回08-記事
  6
CONTINUOUS
 62
     7
 10
1523.711002393539
 20
-316.6084098246206
 30
0.0
  0
SEQEND
  5
5BB
  8
回04-下接
  6
CONTINUOUS
 62
     5
  0
TEXT
  5
41F
  8
回08-記事
  6
CONTINUOUS
 62
     7
 10
1636.44923456161
 20
-231.2814268322128
 30
0.0
 40
1.7
  1
SUR
  0
TEXT
  5
420
  8
回08-記事
  6
CONTINUOUS
 62
     7
 10
1636.807945634662
 20
-315.9824477769491
 30
0.0
 40
1.7
  1
SDR
  0
TEXT
  5
421
  8
回08-記事
  6
CONTINUOUS
 62
     7
 10
1524.21314928684
 20
-316.0998128939402
 30
0.0
 40
1.7
  1
SDL
  0
ENDSEC
  0
EOF
