  0
SECTION
  2
HEADER
  9
$ACADVER
  1
AC1009
  9
$INSBASE
 10
0.0
 20
0.0
 30
0.0
  9
$EXTMIN
 10
615.1772570894246
 20
-922.6471711522902
 30
0.0
  9
$EXTMAX
 10
1185.177257089424
 20
-527.6471711522902
 30
0.0
  9
$LIMMIN
 10
0.0
 20
0.0
  9
$LIMMAX
 10
3000.0
 20
2500.0
  9
$ORTHOMODE
 70
     0
  9
$REGENMODE
 70
     1
  9
$FILLMODE
 70
     1
  9
$QTEXTMODE
 70
     0
  9
$MIRRTEXT
 70
     1
  9
$DRAGMODE
 70
     2
  9
$LTSCALE
 40
10.0
  9
$OSMODE
 70
    37
  9
$ATTMODE
 70
     1
  9
$TEXTSIZE
 40
4.0
  9
$TRACEWID
 40
1.0
  9
$TEXTSTYLE
  7
STANDARD
  9
$CLAYER
  8
0
  9
$CELTYPE
  6
CONTINUOUS
  9
$CECOLOR
 62
     1
  9
$DIMSCALE
 40
1.0
  9
$DIMASZ
 40
1.5
  9
$DIMEXO
 40
0.0
  9
$DIMDLI
 40
0.0
  9
$DIMRND
 40
0.0
  9
$DIMDLE
 40
0.0
  9
$DIMEXE
 40
1.0
  9
$DIMTP
 40
0.2
  9
$DIMTM
 40
0.2
  9
$DIMTXT
 40
4.0
  9
$DIMCEN
 40
1.5
  9
$DIMTSZ
 40
0.0
  9
$DIMTOL
 70
     0
  9
$DIMLIM
 70
     0
  9
$DIMTIH
 70
     0
  9
$DIMTOH
 70
     0
  9
$DIMSE1
 70
     0
  9
$DIMSE2
 70
     0
  9
$DIMTAD
 70
     3
  9
$DIMZIN
 70
     8
  9
$DIMBLK
  1
OPEN
  9
$DIMASO
 70
     1
  9
$DIMSHO
 70
     1
  9
$DIMPOST
  1

  9
$DIMAPOST
  1

  9
$DIMALT
 70
     0
  9
$DIMALTD
 70
     3
  9
$DIMALTF
 40
0.03937007874016
  9
$DIMLFAC
 40
1.0
  9
$DIMTOFL
 70
     1
  9
$DIMTVP
 40
0.0
  9
$DIMTIX
 70
     0
  9
$DIMSOXD
 70
     0
  9
$DIMSAH
 70
     0
  9
$DIMBLK1
  1

  9
$DIMBLK2
  1

  9
$DIMSTYLE
  2
DMC
  9
$DIMCLRD
 70
     5
  9
$DIMCLRE
 70
     5
  9
$DIMCLRT
 70
     5
  9
$DIMTFAC
 40
0.7
  9
$DIMGAP
 40
0.5
  9
$LUNITS
 70
     2
  9
$LUPREC
 70
     4
  9
$SKETCHINC
 40
1.0
  9
$FILLETRAD
 40
0.5
  9
$AUNITS
 70
     0
  9
$AUPREC
 70
     0
  9
$MENU
  1
.
  9
$ELEVATION
 40
0.0
  9
$PELEVATION
 40
0.0
  9
$THICKNESS
 40
0.0
  9
$LIMCHECK
 70
     0
  9
$BLIPMODE
 70
     0
  9
$CHAMFERA
 40
10.0
  9
$CHAMFERB
 40
10.0
  9
$SKPOLY
 70
     0
  9
$TDCREATE
 40
2451810.404221065
  9
$TDUPDATE
 40
2460230.387376447
  9
$TDINDWG
 40
4.491973519
  9
$TDUSRTIMER
 40
2458514.483728426
  9
$USRTIMER
 70
     1
  9
$ANGBASE
 50
0.0
  9
$ANGDIR
 70
     0
  9
$PDMODE
 70
     0
  9
$PDSIZE
 40
0.0
  9
$PLINEWID
 40
0.15
  9
$COORDS
 70
     0
  9
$SPLFRAME
 70
     0
  9
$SPLINETYPE
 70
     6
  9
$SPLINESEGS
 70
     8
  9
$ATTDIA
 70
     1
  9
$ATTREQ
 70
     1
  9
$HANDLING
 70
     1
  9
$HANDSEED
  5
AB2
  9
$SURFTAB1
 70
     6
  9
$SURFTAB2
 70
     6
  9
$SURFTYPE
 70
     6
  9
$SURFU
 70
     6
  9
$SURFV
 70
     6
  9
$UCSNAME
  2

  9
$UCSORG
 10
0.0
 20
0.0
 30
0.0
  9
$UCSXDIR
 10
1.0
 20
0.0
 30
0.0
  9
$UCSYDIR
 10
0.0
 20
1.0
 30
0.0
  9
$PUCSNAME
  2

  9
$PUCSORG
 10
0.0
 20
0.0
 30
0.0
  9
$PUCSXDIR
 10
1.0
 20
0.0
 30
0.0
  9
$PUCSYDIR
 10
0.0
 20
1.0
 30
0.0
  9
$USERI1
 70
     0
  9
$USERI2
 70
     0
  9
$USERI3
 70
     0
  9
$USERI4
 70
     0
  9
$USERI5
 70
     0
  9
$USERR1
 40
0.0
  9
$USERR2
 40
0.0
  9
$USERR3
 40
0.0
  9
$USERR4
 40
0.0
  9
$USERR5
 40
0.0
  9
$WORLDVIEW
 70
     1
  9
$SHADEDGE
 70
     3
  9
$SHADEDIF
 70
    70
  9
$TILEMODE
 70
     1
  9
$MAXACTVP
 70
    64
  9
$PLIMCHECK
 70
     0
  9
$PEXTMIN
 10
1.000000000000000E+20
 20
1.000000000000000E+20
 30
1.000000000000000E+20
  9
$PEXTMAX
 10
-1.000000000000000E+20
 20
-1.000000000000000E+20
 30
-1.000000000000000E+20
  9
$PLIMMIN
 10
0.0
 20
0.0
  9
$PLIMMAX
 10
420.0
 20
297.0
  9
$UNITMODE
 70
     0
  9
$VISRETAIN
 70
     1
  9
$PLINEGEN
 70
     0
  9
$PSLTSCALE
 70
     1
  0
ENDSEC
  0
SECTION
  2
TABLES
  0
TABLE
  2
VPORT
 70
     1
  0
VPORT
  2
*ACTIVE
 70
     0
 10
0.0
 20
0.0
 11
1.0
 21
1.0
 12
1023.941836932719
 22
-770.3369353097216
 13
0.0
 23
0.0
 14
10.0
 24
10.0
 15
10.0
 25
10.0
 16
0.0
 26
0.0
 36
1.0
 17
0.0
 27
0.0
 37
0.0
 40
575.2883991967896
 41
1.853689567430025
 42
50.0
 43
0.0
 44
0.0
 50
0.0
 51
0.0
 71
    16
 72
   500
 73
     1
 74
     1
 75
     0
 76
     0
 77
     0
 78
     0
  0
ENDTAB
  0
TABLE
  2
LTYPE
 70
     3
  0
LTYPE
  2
CONTINUOUS
 70
     0
  3
Solid line
 72
    65
 73
     0
 40
0.0
  0
LTYPE
  2
CENTER2
 70
     0
  3
Center (.5x) ___ _ ___ _ ___ _ ___ _ ___ _ ___
 72
    65
 73
     4
 40
28.575
 49
19.05
 49
-3.174999999999998
 49
3.174999999999998
 49
-3.174999999999998
  0
LTYPE
  2
PHANTOM2
 70
     0
  3
___ _ _ ___ _ _ ___ _ _ ___ _ _ ___ _ _ ___ _ _
 72
    65
 73
     6
 40
1.25
 49
0.625
 49
-0.125
 49
0.125
 49
-0.125
 49
0.125
 49
-0.125
  0
ENDTAB
  0
TABLE
  2
LAYER
 70
    11
  0
LAYER
  2
0
 70
     0
 62
     7
  6
CONTINUOUS
  0
LAYER
  2
DEFPOINTS
 70
     0
 62
     7
  6
CONTINUOUS
  0
LAYER
  2
回05-ﾃｰﾙ
 70
     0
 62
     7
  6
CONTINUOUS
  0
LAYER
  2
回07-寸法
 70
     0
 62
     7
  6
CONTINUOUS
  0
LAYER
  2
回03-下ER
 70
     0
 62
     7
  6
CONTINUOUS
  0
LAYER
  2
回90-枠2
 70
     0
 62
     7
  6
CONTINUOUS
  0
LAYER
  2
回04-下接
 70
     0
 62
     7
  6
CONTINUOUS
  0
LAYER
  2
回01-上ER
 70
     0
 62
     7
  6
CONTINUOUS
  0
LAYER
  2
回08-記事
 70
     0
 62
     7
  6
CONTINUOUS
  0
LAYER
  2
回04-図面枠
 70
     0
 62
     7
  6
CONTINUOUS
  0
LAYER
  2
回03-記事
 70
     0
 62
     7
  6
CONTINUOUS
  0
ENDTAB
  0
TABLE
  2
STYLE
 70
     2
  0
STYLE
  2
STANDARD
 70
     0
 40
4.0
 41
1.0
 50
0.0
 71
     0
 42
4.0
  3
isocp.shx
  4
bigfont.shx
  0
STYLE
  2
ANNOTATIVE
 70
     0
 40
0.0
 41
1.0
 50
0.0
 71
     0
 42
0.2
  3
txt.shx
  4

  0
ENDTAB
  0
TABLE
  2
VIEW
 70
     0
  0
ENDTAB
  0
TABLE
  2
UCS
 70
     0
  0
ENDTAB
  0
TABLE
  2
APPID
 70
     7
  0
APPID
  2
ACAD
 70
     0
  0
APPID
  2
ACADANNOTATIVE
 70
     0
  0
APPID
  2
ACAECLAYERSTANDARD
 70
     0
  0
APPID
  2
ACAD_PSEXT
 70
     0
  0
APPID
  2
GRADIENTCOLOR1ACI
 70
     0
  0
APPID
  2
GRADIENTCOLOR2ACI
 70
     0
  0
APPID
  2
ACAD_NAV_VCDISPLAY
 70
     0
  0
ENDTAB
  0
TABLE
  2
DIMSTYLE
 70
     2
  0
DIMSTYLE
  2
DMC
 70
     0
  3

  4

  5
OPEN
  6

  7

 40
1.0
 41
2.0
 42
0.0
 43
0.0
 44
1.0
 45
0.0
 46
0.0
 47
0.0
 48
0.0
140
3.0
141
2.0
142
0.0
143
0.03937007874016
144
1.0
145
0.0
146
0.7
147
0.5
 71
     0
 72
     0
 73
     0
 74
     0
 75
     0
 76
     0
 77
     3
 78
     8
170
     0
171
     3
172
     1
173
     0
174
     0
175
     0
176
     5
177
     5
178
     5
  0
DIMSTYLE
  2
STANDARD
 70
     0
  3

  4

  5

  6

  7

 40
1.0
 41
0.18
 42
0.0625
 43
0.38
 44
0.18
 45
0.0
 46
0.0
 47
0.0
 48
0.0
140
0.18
141
0.09
142
0.0
143
25.4
144
1.0
145
0.0
146
1.0
147
0.09
 71
     0
 72
     0
 73
     1
 74
     1
 75
     0
 76
     0
 77
     0
 78
     0
170
     0
171
     2
172
     0
173
     0
174
     0
175
     0
176
     0
177
     0
178
     0
  0
ENDTAB
  0
ENDSEC
  0
SECTION
  2
BLOCKS
  0
BLOCK
  8
0
  2
$MODEL_SPACE
 70
     0
 10
0.0
 20
0.0
 30
0.0
  3
$MODEL_SPACE
  1

  0
ENDBLK
  8
0
  5
1D
  0
BLOCK
 67
     1
  8
0
  2
$PAPER_SPACE
 70
     0
 10
0.0
 20
0.0
 30
0.0
  3
$PAPER_SPACE
  1

  0
ENDBLK
  5
23
 67
     1
  8
0
  0
BLOCK
  8
0
  2
_OPEN
 70
     0
 10
0.0
 20
0.0
 30
0.0
  3
_OPEN
  1

  0
LINE
  5
81A
  8
0
  6
BYBLOCK
 62
     0
 10
-1.0
 20
0.166667
 30
0.0
 11
0.0
 21
0.0
 31
0.0
  0
LINE
  5
81B
  8
0
  6
BYBLOCK
 62
     0
 10
-1.0
 20
-0.166667
 30
0.0
 11
0.0
 21
0.0
 31
0.0
  0
LINE
  5
81C
  8
0
  6
BYBLOCK
 62
     0
 10
0.0
 20
0.0
 30
0.0
 11
-1.0
 21
0.0
 31
0.0
  0
LINE
  5
11
  8
0
  6
CONTINUOUS
 62
     0
 10
-1.0
 20
0.1666666666666666
 30
0.0
 11
0.0
 21
0.0
 31
0.0
  0
LINE
  5
12
  8
0
  6
CONTINUOUS
 62
     0
 10
-1.0
 20
-0.1666666666666666
 30
0.0
 11
0.0
 21
0.0
 31
0.0
  0
LINE
  5
13
  8
0
  6
CONTINUOUS
 62
     0
 10
0.0
 20
0.0
 30
0.0
 11
-1.0
 21
0.0
 31
0.0
  0
ENDBLK
  5
14
  8
0
  0
BLOCK
  8
0
  2
*D11
 70
     1
 10
0.0
 20
0.0
 30
0.0
  3
*D11
  1

  0
LINE
  5
330
  8
回07-寸法
  6
CONTINUOUS
 62
     5
 10
989.7592046751206
 20
-557.0030403914614
 30
0.0
 11
989.7592046751206
 21
-544.9976650350122
 31
0.0
  0
LINE
  5
331
  8
回07-寸法
  6
CONTINUOUS
 62
     5
 10
1010.652388894091
 20
-556.5030403914614
 30
0.0
 11
1010.652388894091
 21
-544.9976650350122
 31
0.0
  0
LINE
  5
332
  8
回07-寸法
  6
CONTINUOUS
 62
     5
 10
991.2592046751203
 20
-545.9976650350122
 30
0.0
 11
1009.152388894091
 21
-545.9976650350122
 31
0.0
  0
INSERT
  5
333
  8
回07-寸法
  6
CONTINUOUS
 62
     5
  2
_OPEN
 10
989.7592046751206
 20
-545.9976650350122
 30
0.0
 41
1.5
 42
1.5
 43
1.5
 50
180.0
  0
INSERT
  5
334
  8
回07-寸法
  6
CONTINUOUS
 62
     5
  2
_OPEN
 10
1010.652388894091
 20
-545.9976650350122
 30
0.0
 41
1.5
 42
1.5
 43
1.5
  0
INSERT
  5
335
  8
回07-寸法
  6
CONTINUOUS
 62
     5
 66
     1
  2
*X8585
 10
0.0
 20
0.0
 30
0.0
  0
SEQEND
  5
74C
  8
0
  6
CONTINUOUS
 62
     1
  0
POINT
  5
336
  8
DEFPOINTS
  6
CONTINUOUS
 62
     0
 10
989.7592046751206
 20
-557.0030403914614
 30
0.0
  0
POINT
  5
337
  8
DEFPOINTS
  6
CONTINUOUS
 62
     0
 10
1010.652388894091
 20
-556.5030403914614
 30
0.0
  0
POINT
  5
338
  8
DEFPOINTS
  6
CONTINUOUS
 62
     0
 10
1010.652388894091
 20
-545.9976650350122
 30
0.0
  0
ENDBLK
  5
339
  8
0
 62
     1
  0
BLOCK
  8
0
  2
*D22
 70
     1
 10
0.0
 20
0.0
 30
0.0
  3
*D22
  1

  0
LINE
  5
31C
  8
回07-寸法
  6
CONTINUOUS
 62
     5
 10
996.2592046751208
 20
-727.9830403914627
 30
0.0
 11
1001.014265144003
 21
-727.9830403914627
 31
0.0
  0
LINE
  5
31D
  8
回07-寸法
  6
CONTINUOUS
 62
     5
 10
996.2592046751208
 20
-737.9830403914627
 30
0.0
 11
1001.014265144003
 21
-737.9830403914627
 31
0.0
  0
LINE
  5
31E
  8
回07-寸法
  6
CONTINUOUS
 62
     5
 10
1000.014265144002
 20
-729.4830403914627
 30
0.0
 11
1000.014265144002
 21
-736.4830403914627
 31
0.0
  0
INSERT
  5
31F
  8
回07-寸法
  6
CONTINUOUS
 62
     5
 66
     1
  2
_OPEN
 10
1000.014265144002
 20
-727.9830403914627
 30
0.0
 41
1.5
 42
1.5
 43
1.5
 50
90.0
  0
SEQEND
  5
320
  8
0
  6
CONTINUOUS
 62
     1
  0
INSERT
  5
321
  8
回07-寸法
  6
CONTINUOUS
 62
     5
 66
     1
  2
_OPEN
 10
1000.014265144002
 20
-737.9830403914627
 30
0.0
 41
1.5
 42
1.5
 43
1.5
 50
270.0
  0
SEQEND
  5
322
  8
0
  6
CONTINUOUS
 62
     1
  0
TEXT
  5
323
  8
回07-寸法
  6
CONTINUOUS
 62
     5
 10
999.3809311440024
 20
-735.649720391463
 30
0.0
 40
2.666679999999999
  1
(10)
 50
90.0
1001
ACAD
1000
MTEXTBEGIN
1070
    73
1070
     1
1070
    44
1040
1.0
1070
    74
1070
     0
1000
MTEXTEND
  0
POINT
  5
324
  8
DEFPOINTS
  6
CONTINUOUS
 62
     0
 10
996.2592046751208
 20
-727.9830403914627
 30
0.0
  0
POINT
  5
325
  8
DEFPOINTS
  6
CONTINUOUS
 62
     0
 10
996.2592046751208
 20
-737.9830403914627
 30
0.0
  0
POINT
  5
326
  8
DEFPOINTS
  6
CONTINUOUS
 62
     0
 10
1000.014265144002
 20
-737.9830403914627
 30
0.0
  0
ENDBLK
  5
327
  8
0
 62
     1
  0
BLOCK
  8
0
  2
*D33
 70
     1
 10
0.0
 20
0.0
 30
0.0
  3
*D33
  1

  0
LINE
  5
30B
  8
回07-寸法
  6
CONTINUOUS
 62
     5
 10
996.2592046751208
 20
-737.9830403914625
 30
0.0
 11
996.2592046751208
 21
-749.4054251179966
 31
0.0
  0
LINE
  5
30C
  8
回07-寸法
  6
CONTINUOUS
 62
     5
 10
993.7592046751204
 20
-737.9830403914625
 30
0.0
 11
993.7592046751204
 21
-749.4054251179966
 31
0.0
  0
LINE
  5
30D
  8
回07-寸法
  6
CONTINUOUS
 62
     5
 10
997.7592046751206
 20
-748.4054251179966
 30
0.0
 11
999.2592046751203
 21
-748.4054251179966
 31
0.0
  0
LINE
  5
30E
  8
回07-寸法
  6
CONTINUOUS
 62
     5
 10
992.2592046751203
 20
-748.4054251179966
 30
0.0
 11
975.5788915665704
 21
-748.4054251179966
 31
0.0
  0
LINE
  5
30F
  8
回07-寸法
  6
CONTINUOUS
 62
     5
 10
996.2592046751208
 20
-748.4054251179966
 30
0.0
 11
993.7592046751204
 21
-748.4054251179966
 31
0.0
  0
INSERT
  5
310
  8
回07-寸法
  6
CONTINUOUS
 62
     5
 66
     1
  2
_OPEN
 10
996.2592046751208
 20
-748.4054251179966
 30
0.0
 41
1.5
 42
1.5
 43
1.5
 50
180.0
  0
SEQEND
  5
311
  8
0
  6
CONTINUOUS
 62
     1
  0
INSERT
  5
312
  8
回07-寸法
  6
CONTINUOUS
 62
     5
 66
     1
  2
_OPEN
 10
993.7592046751204
 20
-748.4054251179966
 30
0.0
 41
1.5
 42
1.5
 43
1.5
  0
SEQEND
  5
313
  8
0
  6
CONTINUOUS
 62
     1
  0
INSERT
  5
314
  8
回07-寸法
  6
CONTINUOUS
 62
     5
 66
     1
  2
*X8686
 10
0.0
 20
0.0
 30
0.0
  0
SEQEND
  5
752
  8
0
  6
CONTINUOUS
 62
     1
  0
POINT
  5
315
  8
DEFPOINTS
  6
CONTINUOUS
 62
     0
 10
996.2592046751208
 20
-737.9830403914625
 30
0.0
  0
POINT
  5
316
  8
DEFPOINTS
  6
CONTINUOUS
 62
     0
 10
993.7592046751204
 20
-737.9830403914625
 30
0.0
  0
POINT
  5
317
  8
DEFPOINTS
  6
CONTINUOUS
 62
     0
 10
993.7592046751204
 20
-748.4054251179966
 30
0.0
  0
ENDBLK
  5
318
  8
0
 62
     1
  0
BLOCK
  8
0
  2
*D44
 70
     1
 10
0.0
 20
0.0
 30
0.0
  3
*D44
  1

  0
LINE
  5
2CF
  8
回07-寸法
  6
CONTINUOUS
 62
     5
 10
773.3070624899243
 20
-657.2830403914617
 30
0.0
 11
738.3070624899243
 21
-657.2830403914617
 31
0.0
  0
LINE
  5
2D0
  8
回07-寸法
  6
CONTINUOUS
 62
     5
 10
768.3070624899243
 20
-667.9830403914617
 30
0.0
 11
738.3070624899243
 21
-667.9830403914617
 31
0.0
  0
LINE
  5
2D1
  8
回07-寸法
  6
CONTINUOUS
 62
     5
 10
739.3070624899243
 20
-655.7830403914619
 30
0.0
 11
739.3070624899243
 21
-654.2830403914619
 31
0.0
  0
LINE
  5
2D2
  8
回07-寸法
  6
CONTINUOUS
 62
     5
 10
739.3070624899243
 20
-669.4830403914618
 30
0.0
 11
739.3070624899243
 21
-681.0658831039362
 31
0.0
  0
LINE
  5
2D3
  8
回07-寸法
  6
CONTINUOUS
 62
     5
 10
739.3070624899243
 20
-657.2830403914617
 30
0.0
 11
739.3070624899243
 21
-667.9830403914618
 31
0.0
  0
INSERT
  5
2D4
  8
回07-寸法
  6
CONTINUOUS
 62
     5
  2
_OPEN
 10
739.3070624899243
 20
-657.2830403914617
 30
0.0
 41
1.5
 42
1.5
 43
1.5
 50
270.0
  0
INSERT
  5
2D5
  8
回07-寸法
  6
CONTINUOUS
 62
     5
  2
_OPEN
 10
739.3070624899243
 20
-667.9830403914618
 30
0.0
 41
1.5
 42
1.5
 43
1.5
 50
90.0
  0
TEXT
  5
2D6
  8
回07-寸法
  6
CONTINUOUS
 62
     5
 10
738.8070624899239
 20
-681.1658831039363
 30
0.0
 40
4.0
  1
10.7
 50
90.0
1001
ACAD
1000
MTEXTBEGIN
1070
    73
1070
     1
1070
    44
1040
1.0
1070
    74
1070
     0
1000
MTEXTEND
  0
POINT
  5
2D7
  8
DEFPOINTS
  6
CONTINUOUS
 62
     0
 10
773.3070624899243
 20
-657.2830403914617
 30
0.0
  0
POINT
  5
2D8
  8
DEFPOINTS
  6
CONTINUOUS
 62
     0
 10
768.3070624899243
 20
-667.9830403914617
 30
0.0
  0
POINT
  5
2D9
  8
DEFPOINTS
  6
CONTINUOUS
 62
     0
 10
739.3070624899243
 20
-667.9830403914618
 30
0.0
  0
ENDBLK
  5
2DA
  8
0
 62
     1
  0
BLOCK
  8
0
  2
*D55
 70
     1
 10
0.0
 20
0.0
 30
0.0
  3
*D55
  1

  0
LINE
  5
2C2
  8
回07-寸法
  6
CONTINUOUS
 62
     5
 10
768.3070624899238
 20
-555.8830403914615
 30
0.0
 11
768.3070624899238
 21
-508.5030403914616
 31
0.0
  0
LINE
  5
2C3
  8
回07-寸法
  6
CONTINUOUS
 62
     5
 10
935.407062489924
 20
-555.8830403914615
 30
0.0
 11
935.407062489924
 21
-508.5030403914616
 31
0.0
  0
LINE
  5
2C4
  8
回07-寸法
  6
CONTINUOUS
 62
     5
 10
769.8070624899238
 20
-509.5030403914615
 30
0.0
 11
933.9070624899239
 21
-509.5030403914615
 31
0.0
  0
INSERT
  5
2C5
  8
回07-寸法
  6
CONTINUOUS
 62
     5
  2
_OPEN
 10
768.3070624899238
 20
-509.5030403914615
 30
0.0
 41
1.5
 42
1.5
 43
1.5
 50
180.0
  0
INSERT
  5
2C6
  8
回07-寸法
  6
CONTINUOUS
 62
     5
  2
_OPEN
 10
935.407062489924
 20
-509.5030403914615
 30
0.0
 41
1.5
 42
1.5
 43
1.5
  0
INSERT
  5
2C7
  8
回07-寸法
  6
CONTINUOUS
 62
     5
 66
     1
  2
*X8787
 10
0.0
 20
0.0
 30
0.0
  0
SEQEND
  5
758
  8
0
  6
CONTINUOUS
 62
     1
  0
POINT
  5
2C8
  8
DEFPOINTS
  6
CONTINUOUS
 62
     0
 10
768.3070624899238
 20
-555.8830403914615
 30
0.0
  0
POINT
  5
2C9
  8
DEFPOINTS
  6
CONTINUOUS
 62
     0
 10
935.407062489924
 20
-555.8830403914615
 30
0.0
  0
POINT
  5
2CA
  8
DEFPOINTS
  6
CONTINUOUS
 62
     0
 10
935.407062489924
 20
-509.5030403914615
 30
0.0
  0
ENDBLK
  5
2CB
  8
0
 62
     1
  0
BLOCK
  8
0
  2
*D66
 70
     1
 10
0.0
 20
0.0
 30
0.0
  3
*D66
  1

  0
LINE
  5
2B5
  8
回07-寸法
  6
CONTINUOUS
 62
     5
 10
773.3070624899238
 20
-561.7830403914616
 30
0.0
 11
773.3070624899238
 21
-526.5030403914614
 31
0.0
  0
LINE
  5
2B6
  8
回07-寸法
  6
CONTINUOUS
 62
     5
 10
930.4070624899239
 20
-561.7830403914616
 30
0.0
 11
930.4070624899239
 21
-526.5030403914614
 31
0.0
  0
LINE
  5
2B7
  8
回07-寸法
  6
CONTINUOUS
 62
     5
 10
774.807062489924
 20
-527.5030403914614
 30
0.0
 11
928.907062489924
 21
-527.5030403914614
 31
0.0
  0
INSERT
  5
2B8
  8
回07-寸法
  6
CONTINUOUS
 62
     5
  2
_OPEN
 10
773.3070624899238
 20
-527.5030403914614
 30
0.0
 41
1.5
 42
1.5
 43
1.5
 50
180.0
  0
INSERT
  5
2B9
  8
回07-寸法
  6
CONTINUOUS
 62
     5
  2
_OPEN
 10
930.4070624899239
 20
-527.5030403914614
 30
0.0
 41
1.5
 42
1.5
 43
1.5
  0
TEXT
  5
2BA
  8
回07-寸法
  6
CONTINUOUS
 62
     5
 10
829.2578498914988
 20
-525.9305530180463
 30
0.0
 40
4.0
  1
157.1(Viewing area)
1001
ACAD
1000
MTEXTBEGIN
1070
    73
1070
     1
1070
    44
1040
1.0
1070
    74
1070
     0
1000
MTEXTEND
  0
POINT
  5
2BB
  8
DEFPOINTS
  6
CONTINUOUS
 62
     0
 10
773.3070624899238
 20
-561.7830403914616
 30
0.0
  0
POINT
  5
2BC
  8
DEFPOINTS
  6
CONTINUOUS
 62
     0
 10
930.4070624899239
 20
-561.7830403914616
 30
0.0
  0
POINT
  5
2BD
  8
DEFPOINTS
  6
CONTINUOUS
 62
     0
 10
930.4070624899239
 20
-527.5030403914614
 30
0.0
  0
ENDBLK
  5
2BE
  8
0
 62
     1
  0
BLOCK
  8
0
  2
*D77
 70
     1
 10
0.0
 20
0.0
 30
0.0
  3
*D77
  1

  0
LINE
  5
2A8
  8
回07-寸法
  6
CONTINUOUS
 62
     5
 10
772.8070624899238
 20
-561.2830403914614
 30
0.0
 11
772.8070624899238
 21
-517.5030403914615
 31
0.0
  0
LINE
  5
2A9
  8
回07-寸法
  6
CONTINUOUS
 62
     5
 10
930.907062489924
 20
-561.2830403914614
 30
0.0
 11
930.907062489924
 21
-517.5030403914615
 31
0.0
  0
LINE
  5
2AA
  8
回07-寸法
  6
CONTINUOUS
 62
     5
 10
774.307062489924
 20
-518.5030403914614
 30
0.0
 11
929.4070624899239
 21
-518.5030403914614
 31
0.0
  0
INSERT
  5
2AB
  8
回07-寸法
  6
CONTINUOUS
 62
     5
  2
_OPEN
 10
772.8070624899238
 20
-518.5030403914614
 30
0.0
 41
1.5
 42
1.5
 43
1.5
 50
180.0
  0
INSERT
  5
2AC
  8
回07-寸法
  6
CONTINUOUS
 62
     5
  2
_OPEN
 10
930.907062489924
 20
-518.5030403914614
 30
0.0
 41
1.5
 42
1.5
 43
1.5
  0
TEXT
  5
2AD
  8
回07-寸法
  6
CONTINUOUS
 62
     5
 10
846.457062489924
 20
-518.0030403914615
 30
0.0
 40
4.0
  1
158.1
1001
ACAD
1000
MTEXTBEGIN
1070
    73
1070
     1
1070
    44
1040
1.0
1070
    74
1070
     0
1000
MTEXTEND
  0
POINT
  5
2AE
  8
DEFPOINTS
  6
CONTINUOUS
 62
     0
 10
772.8070624899238
 20
-561.2830403914614
 30
0.0
  0
POINT
  5
2AF
  8
DEFPOINTS
  6
CONTINUOUS
 62
     0
 10
930.907062489924
 20
-561.2830403914614
 30
0.0
  0
POINT
  5
2B0
  8
DEFPOINTS
  6
CONTINUOUS
 62
     0
 10
930.907062489924
 20
-518.5030403914614
 30
0.0
  0
ENDBLK
  5
2B1
  8
0
 62
     1
  0
BLOCK
  8
0
  2
*D88
 70
     1
 10
0.0
 20
0.0
 30
0.0
  3
*D88
  1

  0
LINE
  5
29B
  8
回07-寸法
  6
CONTINUOUS
 62
     5
 10
775.6570624899238
 20
-563.8130403914614
 30
0.0
 11
775.6570624899238
 21
-535.5030403914614
 31
0.0
  0
LINE
  5
29C
  8
回07-寸法
  6
CONTINUOUS
 62
     5
 10
928.0570624899235
 20
-563.8130403914606
 30
0.0
 11
928.0570624899235
 21
-535.5030403914614
 31
0.0
  0
LINE
  5
29D
  8
回07-寸法
  6
CONTINUOUS
 62
     5
 10
777.157062489924
 20
-536.5030403914614
 30
0.0
 11
926.5570624899238
 21
-536.5030403914614
 31
0.0
  0
INSERT
  5
29E
  8
回07-寸法
  6
CONTINUOUS
 62
     5
  2
_OPEN
 10
775.6570624899238
 20
-536.5030403914614
 30
0.0
 41
1.5
 42
1.5
 43
1.5
 50
180.0
  0
INSERT
  5
29F
  8
回07-寸法
  6
CONTINUOUS
 62
     5
  2
_OPEN
 10
928.0570624899235
 20
-536.5030403914614
 30
0.0
 41
1.5
 42
1.5
 43
1.5
  0
TEXT
  5
2A0
  8
回07-寸法
  6
CONTINUOUS
 62
     5
 10
830.0578498914987
 20
-535.8030403914615
 30
0.0
 40
4.0
  1
152.4(Active area)
1001
ACAD
1000
MTEXTBEGIN
1070
    73
1070
     1
1070
    44
1040
1.0
1070
    74
1070
     0
1000
MTEXTEND
  0
POINT
  5
2A1
  8
DEFPOINTS
  6
CONTINUOUS
 62
     0
 10
775.6570624899238
 20
-563.8130403914614
 30
0.0
  0
POINT
  5
2A2
  8
DEFPOINTS
  6
CONTINUOUS
 62
     0
 10
928.0570624899235
 20
-563.8130403914606
 30
0.0
  0
POINT
  5
2A3
  8
DEFPOINTS
  6
CONTINUOUS
 62
     0
 10
928.0570624899235
 20
-536.5030403914614
 30
0.0
  0
ENDBLK
  5
2A4
  8
0
 62
     1
  0
BLOCK
  8
0
  2
*D99
 70
     1
 10
0.0
 20
0.0
 30
0.0
  3
*D99
  1

  0
LINE
  5
28E
  8
回07-寸法
  6
CONTINUOUS
 62
     5
 10
768.3070624899243
 20
-555.8830403914618
 30
0.0
 11
720.3070624899244
 21
-555.8830403914618
 31
0.0
  0
LINE
  5
28F
  8
回07-寸法
  6
CONTINUOUS
 62
     5
 10
768.3070624899243
 20
-667.9830403914617
 30
0.0
 11
720.3070624899244
 21
-667.9830403914617
 31
0.0
  0
LINE
  5
290
  8
回07-寸法
  6
CONTINUOUS
 62
     5
 10
721.3070624899244
 20
-557.3830403914619
 30
0.0
 11
721.3070624899244
 21
-666.4830403914618
 31
0.0
  0
INSERT
  5
291
  8
回07-寸法
  6
CONTINUOUS
 62
     5
  2
_OPEN
 10
721.3070624899244
 20
-555.8830403914619
 30
0.0
 41
1.5
 42
1.5
 43
1.5
 50
90.0
  0
INSERT
  5
292
  8
回07-寸法
  6
CONTINUOUS
 62
     5
  2
_OPEN
 10
721.3070624899244
 20
-667.9830403914618
 30
0.0
 41
1.5
 42
1.5
 43
1.5
 50
270.0
  0
INSERT
  5
293
  8
回07-寸法
  6
CONTINUOUS
 62
     5
 66
     1
  2
*X8888
 10
0.0
 20
0.0
 30
0.0
  0
SEQEND
  5
75E
  8
0
  6
CONTINUOUS
 62
     1
  0
POINT
  5
294
  8
DEFPOINTS
  6
CONTINUOUS
 62
     0
 10
768.3070624899243
 20
-555.8830403914618
 30
0.0
  0
POINT
  5
295
  8
DEFPOINTS
  6
CONTINUOUS
 62
     0
 10
768.3070624899243
 20
-667.9830403914617
 30
0.0
  0
POINT
  5
296
  8
DEFPOINTS
  6
CONTINUOUS
 62
     0
 10
721.3070624899244
 20
-667.9830403914618
 30
0.0
  0
ENDBLK
  5
297
  8
0
 62
     1
  0
BLOCK
  8
0
  2
*D1010
 70
     1
 10
0.0
 20
0.0
 30
0.0
  3
*D1010
  1

  0
LINE
  5
281
  8
回07-寸法
  6
CONTINUOUS
 62
     5
 10
775.6570624899243
 20
-563.8130403914617
 30
0.0
 11
747.3070624899246
 21
-563.8130403914617
 31
0.0
  0
LINE
  5
282
  8
回07-寸法
  6
CONTINUOUS
 62
     5
 10
775.6570624899243
 20
-655.2530403914617
 30
0.0
 11
747.3070624899246
 21
-655.2530403914617
 31
0.0
  0
LINE
  5
283
  8
回07-寸法
  6
CONTINUOUS
 62
     5
 10
748.3070624899246
 20
-565.3130403914619
 30
0.0
 11
748.3070624899246
 21
-653.7530403914619
 31
0.0
  0
INSERT
  5
284
  8
回07-寸法
  6
CONTINUOUS
 62
     5
  2
_OPEN
 10
748.3070624899246
 20
-563.8130403914617
 30
0.0
 41
1.5
 42
1.5
 43
1.5
 50
90.0
  0
INSERT
  5
285
  8
回07-寸法
  6
CONTINUOUS
 62
     5
  2
_OPEN
 10
748.3070624899246
 20
-655.2530403914619
 30
0.0
 41
1.5
 42
1.5
 43
1.5
 50
270.0
  0
TEXT
  5
286
  8
回07-寸法
  6
CONTINUOUS
 62
     5
 10
747.6070624899242
 20
-631.5466944639949
 30
0.0
 40
4.0
  1
91.44(Active area)
 50
90.0
1001
ACAD
1000
MTEXTBEGIN
1070
    73
1070
     1
1070
    44
1040
1.0
1070
    74
1070
     0
1000
MTEXTEND
  0
POINT
  5
287
  8
DEFPOINTS
  6
CONTINUOUS
 62
     0
 10
775.6570624899243
 20
-563.8130403914617
 30
0.0
  0
POINT
  5
288
  8
DEFPOINTS
  6
CONTINUOUS
 62
     0
 10
775.6570624899243
 20
-655.2530403914617
 30
0.0
  0
POINT
  5
289
  8
DEFPOINTS
  6
CONTINUOUS
 62
     0
 10
748.3070624899246
 20
-655.2530403914619
 30
0.0
  0
ENDBLK
  5
28A
  8
0
 62
     1
  0
BLOCK
  8
0
  2
*D1111
 70
     1
 10
0.0
 20
0.0
 30
0.0
  3
*D1111
  1

  0
LINE
  5
274
  8
回07-寸法
  6
CONTINUOUS
 62
     5
 10
773.3070624899243
 20
-561.7830403914616
 30
0.0
 11
738.3070624899247
 21
-561.7830403914616
 31
0.0
  0
LINE
  5
275
  8
回07-寸法
  6
CONTINUOUS
 62
     5
 10
773.3070624899243
 20
-657.2830403914617
 30
0.0
 11
738.3070624899247
 21
-657.2830403914617
 31
0.0
  0
LINE
  5
276
  8
回07-寸法
  6
CONTINUOUS
 62
     5
 10
739.3070624899246
 20
-563.2830403914619
 30
0.0
 11
739.3070624899246
 21
-655.7830403914619
 31
0.0
  0
INSERT
  5
277
  8
回07-寸法
  6
CONTINUOUS
 62
     5
  2
_OPEN
 10
739.3070624899246
 20
-561.7830403914617
 30
0.0
 41
1.5
 42
1.5
 43
1.5
 50
90.0
  0
INSERT
  5
278
  8
回07-寸法
  6
CONTINUOUS
 62
     5
  2
_OPEN
 10
739.3070624899246
 20
-657.2830403914617
 30
0.0
 41
1.5
 42
1.5
 43
1.5
 50
270.0
  0
TEXT
  5
279
  8
回07-寸法
  6
CONTINUOUS
 62
     5
 10
737.7345751165091
 20
-631.546694463995
 30
0.0
 40
4.0
  1
95.5(Viewing area)
 50
90.0
1001
ACAD
1000
MTEXTBEGIN
1070
    73
1070
     1
1070
    44
1040
1.0
1070
    74
1070
     0
1000
MTEXTEND
  0
POINT
  5
27A
  8
DEFPOINTS
  6
CONTINUOUS
 62
     0
 10
773.3070624899243
 20
-561.7830403914616
 30
0.0
  0
POINT
  5
27B
  8
DEFPOINTS
  6
CONTINUOUS
 62
     0
 10
773.3070624899243
 20
-657.2830403914617
 30
0.0
  0
POINT
  5
27C
  8
DEFPOINTS
  6
CONTINUOUS
 62
     0
 10
739.3070624899246
 20
-657.2830403914617
 30
0.0
  0
ENDBLK
  5
27D
  8
0
 62
     1
  0
BLOCK
  8
0
  2
*D1212
 70
     1
 10
0.0
 20
0.0
 30
0.0
  3
*D1212
  1

  0
LINE
  5
267
  8
回07-寸法
  6
CONTINUOUS
 62
     5
 10
772.8070624899243
 20
-561.2830403914617
 30
0.0
 11
729.3070624899246
 21
-561.2830403914617
 31
0.0
  0
LINE
  5
268
  8
回07-寸法
  6
CONTINUOUS
 62
     5
 10
772.8070624899243
 20
-657.7830403914616
 30
0.0
 11
729.3070624899246
 21
-657.7830403914616
 31
0.0
  0
LINE
  5
269
  8
回07-寸法
  6
CONTINUOUS
 62
     5
 10
730.3070624899246
 20
-562.7830403914619
 30
0.0
 11
730.3070624899246
 21
-656.2830403914619
 31
0.0
  0
INSERT
  5
26A
  8
回07-寸法
  6
CONTINUOUS
 62
     5
  2
_OPEN
 10
730.3070624899246
 20
-561.2830403914617
 30
0.0
 41
1.5
 42
1.5
 43
1.5
 50
90.0
  0
INSERT
  5
26B
  8
回07-寸法
  6
CONTINUOUS
 62
     5
  2
_OPEN
 10
730.3070624899246
 20
-657.7830403914616
 30
0.0
 41
1.5
 42
1.5
 43
1.5
 50
270.0
  0
TEXT
  5
26C
  8
回07-寸法
  6
CONTINUOUS
 62
     5
 10
729.8070624899243
 20
-614.3474818655699
 30
0.0
 40
4.0
  1
96.5
 50
90.0
1001
ACAD
1000
MTEXTBEGIN
1070
    73
1070
     1
1070
    44
1040
1.0
1070
    74
1070
     0
1000
MTEXTEND
  0
POINT
  5
26D
  8
DEFPOINTS
  6
CONTINUOUS
 62
     0
 10
772.8070624899243
 20
-561.2830403914617
 30
0.0
  0
POINT
  5
26E
  8
DEFPOINTS
  6
CONTINUOUS
 62
     0
 10
772.8070624899243
 20
-657.7830403914616
 30
0.0
  0
POINT
  5
26F
  8
DEFPOINTS
  6
CONTINUOUS
 62
     0
 10
730.3070624899246
 20
-657.7830403914616
 30
0.0
  0
ENDBLK
  5
270
  8
0
 62
     1
  0
BLOCK
  8
0
  2
*D1313
 70
     1
 10
0.0
 20
0.0
 30
0.0
  3
*D1313
  1

  0
LINE
  5
258
  8
回07-寸法
  6
CONTINUOUS
 62
     5
 10
772.8070624899238
 20
-561.2830403914614
 30
0.0
 11
772.8070624899238
 21
-517.5030403914615
 31
0.0
  0
LINE
  5
259
  8
回07-寸法
  6
CONTINUOUS
 62
     5
 10
768.3070624899238
 20
-555.8830403914615
 30
0.0
 11
768.3070624899238
 21
-517.5030403914615
 31
0.0
  0
LINE
  5
25A
  8
回07-寸法
  6
CONTINUOUS
 62
     5
 10
774.307062489924
 20
-518.5030403914614
 30
0.0
 11
775.8070624899239
 21
-518.5030403914614
 31
0.0
  0
LINE
  5
25B
  8
回07-寸法
  6
CONTINUOUS
 62
     5
 10
766.807062489924
 20
-518.5030403914614
 30
0.0
 11
758.1413770649747
 21
-518.5030403914614
 31
0.0
  0
LINE
  5
25C
  8
回07-寸法
  6
CONTINUOUS
 62
     5
 10
772.8070624899238
 20
-518.5030403914614
 30
0.0
 11
768.3070624899238
 21
-518.5030403914614
 31
0.0
  0
INSERT
  5
25D
  8
回07-寸法
  6
CONTINUOUS
 62
     5
  2
_OPEN
 10
772.8070624899238
 20
-518.5030403914614
 30
0.0
 41
1.5
 42
1.5
 43
1.5
 50
180.0
  0
INSERT
  5
25E
  8
回07-寸法
  6
CONTINUOUS
 62
     5
  2
_OPEN
 10
768.3070624899238
 20
-518.5030403914614
 30
0.0
 41
1.5
 42
1.5
 43
1.5
  0
TEXT
  5
25F
  8
回07-寸法
  6
CONTINUOUS
 62
     5
 10
758.1242197774492
 20
-518.0030403914615
 30
0.0
 40
4.0
  1
4.5
1001
ACAD
1000
MTEXTBEGIN
1070
    73
1070
     1
1070
    44
1040
1.0
1070
    74
1070
     0
1000
MTEXTEND
  0
POINT
  5
260
  8
DEFPOINTS
  6
CONTINUOUS
 62
     0
 10
772.8070624899238
 20
-561.2830403914614
 30
0.0
  0
POINT
  5
261
  8
DEFPOINTS
  6
CONTINUOUS
 62
     0
 10
768.3070624899238
 20
-555.8830403914615
 30
0.0
  0
POINT
  5
262
  8
DEFPOINTS
  6
CONTINUOUS
 62
     0
 10
768.3070624899238
 20
-518.5030403914614
 30
0.0
  0
ENDBLK
  5
263
  8
0
 62
     1
  0
BLOCK
  8
0
  2
*D1414
 70
     1
 10
0.0
 20
0.0
 30
0.0
  3
*D1414
  1

  0
LINE
  5
249
  8
回07-寸法
  6
CONTINUOUS
 62
     5
 10
930.907062489924
 20
-561.2830403914614
 30
0.0
 11
930.907062489924
 21
-517.5030403914615
 31
0.0
  0
LINE
  5
24A
  8
回07-寸法
  6
CONTINUOUS
 62
     5
 10
935.407062489924
 20
-555.8830403914615
 30
0.0
 11
935.407062489924
 21
-517.5030403914615
 31
0.0
  0
LINE
  5
24B
  8
回07-寸法
  6
CONTINUOUS
 62
     5
 10
929.4070624899239
 20
-518.5030403914614
 30
0.0
 11
927.907062489924
 21
-518.5030403914614
 31
0.0
  0
LINE
  5
24C
  8
回07-寸法
  6
CONTINUOUS
 62
     5
 10
936.907062489924
 20
-518.5030403914614
 30
0.0
 11
948.6039128836248
 21
-518.5030403914614
 31
0.0
  0
LINE
  5
24D
  8
回07-寸法
  6
CONTINUOUS
 62
     5
 10
930.907062489924
 20
-518.5030403914614
 30
0.0
 11
935.407062489924
 21
-518.5030403914614
 31
0.0
  0
INSERT
  5
24E
  8
回07-寸法
  6
CONTINUOUS
 62
     5
  2
_OPEN
 10
930.907062489924
 20
-518.5030403914614
 30
0.0
 41
1.5
 42
1.5
 43
1.5
  0
INSERT
  5
24F
  8
回07-寸法
  6
CONTINUOUS
 62
     5
  2
_OPEN
 10
935.407062489924
 20
-518.5030403914614
 30
0.0
 41
1.5
 42
1.5
 43
1.5
 50
180.0
  0
TEXT
  5
250
  8
回07-寸法
  6
CONTINUOUS
 62
     5
 10
938.3054876867744
 20
-517.8030403914615
 30
0.0
 40
4.0
  1
(4.5)
1001
ACAD
1000
MTEXTBEGIN
1070
    73
1070
     1
1070
    44
1040
1.0
1070
    74
1070
     0
1000
MTEXTEND
  0
POINT
  5
251
  8
DEFPOINTS
  6
CONTINUOUS
 62
     0
 10
930.907062489924
 20
-561.2830403914614
 30
0.0
  0
POINT
  5
252
  8
DEFPOINTS
  6
CONTINUOUS
 62
     0
 10
935.407062489924
 20
-555.8830403914615
 30
0.0
  0
POINT
  5
253
  8
DEFPOINTS
  6
CONTINUOUS
 62
     0
 10
935.407062489924
 20
-518.5030403914614
 30
0.0
  0
ENDBLK
  5
254
  8
0
 62
     1
  0
BLOCK
  8
0
  2
*D1515
 70
     1
 10
0.0
 20
0.0
 30
0.0
  3
*D1515
  1

  0
LINE
  5
23A
  8
回07-寸法
  6
CONTINUOUS
 62
     5
 10
775.6570624899238
 20
-563.8130403914624
 30
0.0
 11
775.6570624899238
 21
-535.5030403914614
 31
0.0
  0
LINE
  5
23B
  8
回07-寸法
  6
CONTINUOUS
 62
     5
 10
768.3070624899238
 20
-555.8830403914615
 30
0.0
 11
768.3070624899238
 21
-535.5030403914614
 31
0.0
  0
LINE
  5
23C
  8
回07-寸法
  6
CONTINUOUS
 62
     5
 10
777.157062489924
 20
-536.5030403914614
 30
0.0
 11
778.657062489924
 21
-536.5030403914614
 31
0.0
  0
LINE
  5
23D
  8
回07-寸法
  6
CONTINUOUS
 62
     5
 10
766.807062489924
 20
-536.5030403914614
 30
0.0
 11
755.7413770649747
 21
-536.5030403914614
 31
0.0
  0
LINE
  5
23E
  8
回07-寸法
  6
CONTINUOUS
 62
     5
 10
775.6570624899238
 20
-536.5030403914614
 30
0.0
 11
768.3070624899238
 21
-536.5030403914614
 31
0.0
  0
INSERT
  5
23F
  8
回07-寸法
  6
CONTINUOUS
 62
     5
  2
_OPEN
 10
775.6570624899238
 20
-536.5030403914614
 30
0.0
 41
1.5
 42
1.5
 43
1.5
 50
180.0
  0
INSERT
  5
240
  8
回07-寸法
  6
CONTINUOUS
 62
     5
  2
_OPEN
 10
768.3070624899238
 20
-536.5030403914614
 30
0.0
 41
1.5
 42
1.5
 43
1.5
  0
TEXT
  5
241
  8
回07-寸法
  6
CONTINUOUS
 62
     5
 10
755.7242197774492
 20
-536.0030403914614
 30
0.0
 40
4.0
  1
7.35
1001
ACAD
1000
MTEXTBEGIN
1070
    73
1070
     1
1070
    44
1040
1.0
1070
    74
1070
     0
1000
MTEXTEND
  0
POINT
  5
242
  8
DEFPOINTS
  6
CONTINUOUS
 62
     0
 10
775.6570624899238
 20
-563.8130403914624
 30
0.0
  0
POINT
  5
243
  8
DEFPOINTS
  6
CONTINUOUS
 62
     0
 10
768.3070624899238
 20
-555.8830403914615
 30
0.0
  0
POINT
  5
244
  8
DEFPOINTS
  6
CONTINUOUS
 62
     0
 10
768.3070624899238
 20
-536.5030403914614
 30
0.0
  0
ENDBLK
  5
245
  8
0
 62
     1
  0
BLOCK
  8
0
  2
*D1616
 70
     1
 10
0.0
 20
0.0
 30
0.0
  3
*D1616
  1

  0
LINE
  5
22B
  8
回07-寸法
  6
CONTINUOUS
 62
     5
 10
773.3070624899238
 20
-561.7830403914616
 30
0.0
 11
773.3070624899238
 21
-526.5030403914614
 31
0.0
  0
LINE
  5
22C
  8
回07-寸法
  6
CONTINUOUS
 62
     5
 10
768.3070624899238
 20
-555.8830403914615
 30
0.0
 11
768.3070624899238
 21
-526.5030403914614
 31
0.0
  0
LINE
  5
22D
  8
回07-寸法
  6
CONTINUOUS
 62
     5
 10
774.807062489924
 20
-527.5030403914614
 30
0.0
 11
776.3070624899238
 21
-527.5030403914614
 31
0.0
  0
LINE
  5
22E
  8
回07-寸法
  6
CONTINUOUS
 62
     5
 10
766.807062489924
 20
-527.5030403914614
 30
0.0
 11
762.5413770649747
 21
-527.5030403914614
 31
0.0
  0
LINE
  5
22F
  8
回07-寸法
  6
CONTINUOUS
 62
     5
 10
773.3070624899238
 20
-527.5030403914614
 30
0.0
 11
768.3070624899238
 21
-527.5030403914614
 31
0.0
  0
INSERT
  5
230
  8
回07-寸法
  6
CONTINUOUS
 62
     5
  2
_OPEN
 10
773.3070624899238
 20
-527.5030403914614
 30
0.0
 41
1.5
 42
1.5
 43
1.5
 50
180.0
  0
INSERT
  5
231
  8
回07-寸法
  6
CONTINUOUS
 62
     5
  2
_OPEN
 10
768.3070624899238
 20
-527.5030403914614
 30
0.0
 41
1.5
 42
1.5
 43
1.5
  0
TEXT
  5
232
  8
回07-寸法
  6
CONTINUOUS
 62
     5
 10
762.5242197774491
 20
-527.0030403914614
 30
0.0
 40
4.0
  1
5
1001
ACAD
1000
MTEXTBEGIN
1070
    73
1070
     1
1070
    44
1040
1.0
1070
    74
1070
     0
1000
MTEXTEND
  0
POINT
  5
233
  8
DEFPOINTS
  6
CONTINUOUS
 62
     0
 10
773.3070624899238
 20
-561.7830403914616
 30
0.0
  0
POINT
  5
234
  8
DEFPOINTS
  6
CONTINUOUS
 62
     0
 10
768.3070624899238
 20
-555.8830403914615
 30
0.0
  0
POINT
  5
235
  8
DEFPOINTS
  6
CONTINUOUS
 62
     0
 10
768.3070624899238
 20
-527.5030403914614
 30
0.0
  0
ENDBLK
  5
236
  8
0
 62
     1
  0
BLOCK
  8
0
  2
*D1717
 70
     1
 10
0.0
 20
0.0
 30
0.0
  3
*D1717
  1

  0
LINE
  5
21C
  8
回07-寸法
  6
CONTINUOUS
 62
     5
 10
928.0570624899239
 20
-563.8130403914614
 30
0.0
 11
928.0570624899239
 21
-535.5030403914614
 31
0.0
  0
LINE
  5
21D
  8
回07-寸法
  6
CONTINUOUS
 62
     5
 10
935.407062489924
 20
-555.8830403914615
 30
0.0
 11
935.407062489924
 21
-535.5030403914614
 31
0.0
  0
LINE
  5
21E
  8
回07-寸法
  6
CONTINUOUS
 62
     5
 10
926.557062489924
 20
-536.5030403914614
 30
0.0
 11
925.0570624899239
 21
-536.5030403914614
 31
0.0
  0
LINE
  5
21F
  8
回07-寸法
  6
CONTINUOUS
 62
     5
 10
936.907062489924
 20
-536.5030403914614
 30
0.0
 11
951.0039128836247
 21
-536.5030403914614
 31
0.0
  0
LINE
  5
220
  8
回07-寸法
  6
CONTINUOUS
 62
     5
 10
928.0570624899239
 20
-536.5030403914614
 30
0.0
 11
935.407062489924
 21
-536.5030403914614
 31
0.0
  0
INSERT
  5
221
  8
回07-寸法
  6
CONTINUOUS
 62
     5
  2
_OPEN
 10
928.0570624899239
 20
-536.5030403914614
 30
0.0
 41
1.5
 42
1.5
 43
1.5
  0
INSERT
  5
222
  8
回07-寸法
  6
CONTINUOUS
 62
     5
  2
_OPEN
 10
935.407062489924
 20
-536.5030403914614
 30
0.0
 41
1.5
 42
1.5
 43
1.5
 50
180.0
  0
TEXT
  5
223
  8
回07-寸法
  6
CONTINUOUS
 62
     5
 10
938.3054876867744
 20
-535.8030403914615
 30
0.0
 40
4.0
  1
(7.35)
1001
ACAD
1000
MTEXTBEGIN
1070
    73
1070
     1
1070
    44
1040
1.0
1070
    74
1070
     0
1000
MTEXTEND
  0
POINT
  5
224
  8
DEFPOINTS
  6
CONTINUOUS
 62
     0
 10
928.0570624899239
 20
-563.8130403914614
 30
0.0
  0
POINT
  5
225
  8
DEFPOINTS
  6
CONTINUOUS
 62
     0
 10
935.407062489924
 20
-555.8830403914615
 30
0.0
  0
POINT
  5
226
  8
DEFPOINTS
  6
CONTINUOUS
 62
     0
 10
935.407062489924
 20
-536.5030403914614
 30
0.0
  0
ENDBLK
  5
227
  8
0
 62
     1
  0
BLOCK
  8
0
  2
*D1818
 70
     1
 10
0.0
 20
0.0
 30
0.0
  3
*D1818
  1

  0
LINE
  5
20D
  8
回07-寸法
  6
CONTINUOUS
 62
     5
 10
930.4070624899239
 20
-561.7830403914616
 30
0.0
 11
930.4070624899239
 21
-526.5030403914614
 31
0.0
  0
LINE
  5
20E
  8
回07-寸法
  6
CONTINUOUS
 62
     5
 10
935.407062489924
 20
-555.8830403914615
 30
0.0
 11
935.407062489924
 21
-526.5030403914614
 31
0.0
  0
LINE
  5
20F
  8
回07-寸法
  6
CONTINUOUS
 62
     5
 10
928.907062489924
 20
-527.5030403914614
 30
0.0
 11
927.4070624899239
 21
-527.5030403914614
 31
0.0
  0
LINE
  5
210
  8
回07-寸法
  6
CONTINUOUS
 62
     5
 10
936.907062489924
 20
-527.5030403914614
 30
0.0
 11
944.2039128836247
 21
-527.5030403914614
 31
0.0
  0
LINE
  5
211
  8
回07-寸法
  6
CONTINUOUS
 62
     5
 10
930.4070624899239
 20
-527.5030403914614
 30
0.0
 11
935.407062489924
 21
-527.5030403914614
 31
0.0
  0
INSERT
  5
212
  8
回07-寸法
  6
CONTINUOUS
 62
     5
  2
_OPEN
 10
930.4070624899239
 20
-527.5030403914614
 30
0.0
 41
1.5
 42
1.5
 43
1.5
  0
INSERT
  5
213
  8
回07-寸法
  6
CONTINUOUS
 62
     5
  2
_OPEN
 10
935.407062489924
 20
-527.5030403914614
 30
0.0
 41
1.5
 42
1.5
 43
1.5
 50
180.0
  0
TEXT
  5
214
  8
回07-寸法
  6
CONTINUOUS
 62
     5
 10
938.3054876867744
 20
-526.8030403914615
 30
0.0
 40
4.0
  1
(5)
1001
ACAD
1000
MTEXTBEGIN
1070
    73
1070
     1
1070
    44
1040
1.0
1070
    74
1070
     0
1000
MTEXTEND
  0
POINT
  5
215
  8
DEFPOINTS
  6
CONTINUOUS
 62
     0
 10
930.4070624899239
 20
-561.7830403914616
 30
0.0
  0
POINT
  5
216
  8
DEFPOINTS
  6
CONTINUOUS
 62
     0
 10
935.407062489924
 20
-555.8830403914615
 30
0.0
  0
POINT
  5
217
  8
DEFPOINTS
  6
CONTINUOUS
 62
     0
 10
935.407062489924
 20
-527.5030403914614
 30
0.0
  0
ENDBLK
  5
218
  8
0
 62
     1
  0
BLOCK
  8
0
  2
*D1919
 70
     1
 10
0.0
 20
0.0
 30
0.0
  3
*D1919
  1

  0
LINE
  5
1FE
  8
回07-寸法
  6
CONTINUOUS
 62
     5
 10
772.8070624899243
 20
-657.7830403914616
 30
0.0
 11
729.3070624899243
 21
-657.7830403914616
 31
0.0
  0
LINE
  5
1FF
  8
回07-寸法
  6
CONTINUOUS
 62
     5
 10
768.3070624899243
 20
-667.9830403914617
 30
0.0
 11
729.3070624899243
 21
-667.9830403914617
 31
0.0
  0
LINE
  5
200
  8
回07-寸法
  6
CONTINUOUS
 62
     5
 10
730.3070624899243
 20
-656.2830403914619
 30
0.0
 11
730.3070624899243
 21
-654.7830403914619
 31
0.0
  0
LINE
  5
201
  8
回07-寸法
  6
CONTINUOUS
 62
     5
 10
730.3070624899243
 20
-669.4830403914618
 30
0.0
 11
730.3070624899243
 21
-679.8232766119345
 31
0.0
  0
LINE
  5
202
  8
回07-寸法
  6
CONTINUOUS
 62
     5
 10
730.3070624899243
 20
-657.7830403914616
 30
0.0
 11
730.3070624899243
 21
-667.9830403914618
 31
0.0
  0
INSERT
  5
203
  8
回07-寸法
  6
CONTINUOUS
 62
     5
  2
_OPEN
 10
730.3070624899243
 20
-657.7830403914616
 30
0.0
 41
1.5
 42
1.5
 43
1.5
 50
270.0
  0
INSERT
  5
204
  8
回07-寸法
  6
CONTINUOUS
 62
     5
  2
_OPEN
 10
730.3070624899243
 20
-667.9830403914618
 30
0.0
 41
1.5
 42
1.5
 43
1.5
 50
90.0
  0
TEXT
  5
205
  8
回07-寸法
  6
CONTINUOUS
 62
     5
 10
729.8066687891368
 20
-679.8036007488187
 30
0.0
 40
4.0
  1
10.2
 50
90.0
1001
ACAD
1000
MTEXTBEGIN
1070
    73
1070
     1
1070
    44
1040
1.0
1070
    74
1070
     0
1000
MTEXTEND
  0
POINT
  5
206
  8
DEFPOINTS
  6
CONTINUOUS
 62
     0
 10
772.8070624899243
 20
-657.7830403914616
 30
0.0
  0
POINT
  5
207
  8
DEFPOINTS
  6
CONTINUOUS
 62
     0
 10
768.3070624899243
 20
-667.9830403914617
 30
0.0
  0
POINT
  5
208
  8
DEFPOINTS
  6
CONTINUOUS
 62
     0
 10
730.3070624899243
 20
-667.9830403914618
 30
0.0
  0
ENDBLK
  5
209
  8
0
 62
     1
  0
BLOCK
  8
0
  2
*D2020
 70
     1
 10
0.0
 20
0.0
 30
0.0
  3
*D2020
  1

  0
LINE
  5
1EF
  8
回07-寸法
  6
CONTINUOUS
 62
     5
 10
775.6570624899243
 20
-655.2530403914617
 30
0.0
 11
747.3070624899243
 21
-655.2530403914617
 31
0.0
  0
LINE
  5
1F0
  8
回07-寸法
  6
CONTINUOUS
 62
     5
 10
768.3070624899243
 20
-667.9830403914617
 30
0.0
 11
747.3070624899243
 21
-667.9830403914617
 31
0.0
  0
LINE
  5
1F1
  8
回07-寸法
  6
CONTINUOUS
 62
     5
 10
748.3070624899243
 20
-653.7530403914619
 30
0.0
 11
748.3070624899243
 21
-652.2530403914619
 31
0.0
  0
LINE
  5
1F2
  8
回07-寸法
  6
CONTINUOUS
 62
     5
 10
748.3070624899243
 20
-669.4830403914618
 30
0.0
 11
748.3070624899243
 21
-682.5487258164113
 31
0.0
  0
LINE
  5
1F3
  8
回07-寸法
  6
CONTINUOUS
 62
     5
 10
748.3070624899243
 20
-655.2530403914619
 30
0.0
 11
748.3070624899243
 21
-667.9830403914618
 31
0.0
  0
INSERT
  5
1F4
  8
回07-寸法
  6
CONTINUOUS
 62
     5
  2
_OPEN
 10
748.3070624899243
 20
-655.2530403914619
 30
0.0
 41
1.5
 42
1.5
 43
1.5
 50
270.0
  0
INSERT
  5
1F5
  8
回07-寸法
  6
CONTINUOUS
 62
     5
  2
_OPEN
 10
748.3070624899243
 20
-667.9830403914618
 30
0.0
 41
1.5
 42
1.5
 43
1.5
 50
90.0
  0
TEXT
  5
1F6
  8
回07-寸法
  6
CONTINUOUS
 62
     5
 10
747.8066687891367
 20
-682.5658831039365
 30
0.0
 40
4.0
  1
12.73
 50
90.0
1001
ACAD
1000
MTEXTBEGIN
1070
    73
1070
     1
1070
    44
1040
1.0
1070
    74
1070
     0
1000
MTEXTEND
  0
POINT
  5
1F7
  8
DEFPOINTS
  6
CONTINUOUS
 62
     0
 10
775.6570624899243
 20
-655.2530403914617
 30
0.0
  0
POINT
  5
1F8
  8
DEFPOINTS
  6
CONTINUOUS
 62
     0
 10
768.3070624899243
 20
-667.9830403914617
 30
0.0
  0
POINT
  5
1F9
  8
DEFPOINTS
  6
CONTINUOUS
 62
     0
 10
748.3070624899243
 20
-667.9830403914618
 30
0.0
  0
ENDBLK
  5
1FA
  8
0
 62
     1
  0
BLOCK
  8
0
  2
*D2121
 70
     1
 10
0.0
 20
0.0
 30
0.0
  3
*D2121
  1

  0
LINE
  5
1E0
  8
回07-寸法
  6
CONTINUOUS
 62
     5
 10
772.8070624899243
 20
-561.2830403914617
 30
0.0
 11
729.3070624899248
 21
-561.2830403914617
 31
0.0
  0
LINE
  5
1E1
  8
回07-寸法
  6
CONTINUOUS
 62
     5
 10
768.3070624899243
 20
-555.8830403914618
 30
0.0
 11
729.3070624899248
 21
-555.8830403914618
 31
0.0
  0
LINE
  5
1E2
  8
回07-寸法
  6
CONTINUOUS
 62
     5
 10
730.3070624899251
 20
-562.7830403914619
 30
0.0
 11
730.3070624899251
 21
-564.2830403914619
 31
0.0
  0
LINE
  5
1E3
  8
回07-寸法
  6
CONTINUOUS
 62
     5
 10
730.3070624899251
 20
-554.3830403914618
 30
0.0
 11
730.3070624899251
 21
-542.6861899977612
 31
0.0
  0
LINE
  5
1E4
  8
回07-寸法
  6
CONTINUOUS
 62
     5
 10
730.3070624899251
 20
-561.2830403914617
 30
0.0
 11
730.3070624899251
 21
-555.8830403914619
 31
0.0
  0
INSERT
  5
1E5
  8
回07-寸法
  6
CONTINUOUS
 62
     5
  2
_OPEN
 10
730.3070624899251
 20
-561.2830403914617
 30
0.0
 41
1.5
 42
1.5
 43
1.5
 50
90.0
  0
INSERT
  5
1E6
  8
回07-寸法
  6
CONTINUOUS
 62
     5
  2
_OPEN
 10
730.3070624899251
 20
-555.8830403914619
 30
0.0
 41
1.5
 42
1.5
 43
1.5
 50
270.0
  0
TEXT
  5
1E7
  8
回07-寸法
  6
CONTINUOUS
 62
     5
 10
729.6070624899248
 20
-552.9846151946112
 30
0.0
 40
4.0
  1
(5.4)
 50
90.0
1001
ACAD
1000
MTEXTBEGIN
1070
    73
1070
     1
1070
    44
1040
1.0
1070
    74
1070
     0
1000
MTEXTEND
  0
POINT
  5
1E8
  8
DEFPOINTS
  6
CONTINUOUS
 62
     0
 10
772.8070624899243
 20
-561.2830403914617
 30
0.0
  0
POINT
  5
1E9
  8
DEFPOINTS
  6
CONTINUOUS
 62
     0
 10
768.3070624899243
 20
-555.8830403914618
 30
0.0
  0
POINT
  5
1EA
  8
DEFPOINTS
  6
CONTINUOUS
 62
     0
 10
730.3070624899251
 20
-555.8830403914619
 30
0.0
  0
ENDBLK
  5
1EB
  8
0
 62
     1
  0
BLOCK
  8
0
  2
*D2222
 70
     1
 10
0.0
 20
0.0
 30
0.0
  3
*D2222
  1

  0
LINE
  5
1D1
  8
回07-寸法
  6
CONTINUOUS
 62
     5
 10
773.3070624899243
 20
-561.7830403914616
 30
0.0
 11
738.3070624899247
 21
-561.7830403914616
 31
0.0
  0
LINE
  5
1D2
  8
回07-寸法
  6
CONTINUOUS
 62
     5
 10
768.3070624899243
 20
-555.8830403914618
 30
0.0
 11
738.3070624899247
 21
-555.8830403914618
 31
0.0
  0
LINE
  5
1D3
  8
回07-寸法
  6
CONTINUOUS
 62
     5
 10
739.3070624899246
 20
-563.2830403914619
 30
0.0
 11
739.3070624899246
 21
-564.7830403914617
 31
0.0
  0
LINE
  5
1D4
  8
回07-寸法
  6
CONTINUOUS
 62
     5
 10
739.3070624899246
 20
-554.3830403914618
 30
0.0
 11
739.3070624899246
 21
-543.072212675784
 31
0.0
  0
LINE
  5
1D5
  8
回07-寸法
  6
CONTINUOUS
 62
     5
 10
739.3070624899246
 20
-561.7830403914617
 30
0.0
 11
739.3070624899246
 21
-555.8830403914619
 31
0.0
  0
INSERT
  5
1D6
  8
回07-寸法
  6
CONTINUOUS
 62
     5
  2
_OPEN
 10
739.3070624899246
 20
-561.7830403914617
 30
0.0
 41
1.5
 42
1.5
 43
1.5
 50
90.0
  0
INSERT
  5
1D7
  8
回07-寸法
  6
CONTINUOUS
 62
     5
  2
_OPEN
 10
739.3070624899246
 20
-555.8830403914619
 30
0.0
 41
1.5
 42
1.5
 43
1.5
 50
270.0
  0
TEXT
  5
1D8
  8
回07-寸法
  6
CONTINUOUS
 62
     5
 10
738.6071423647274
 20
-552.9848472706768
 30
0.0
 40
4.0
  1
(5.9)
 50
90.0
1001
ACAD
1000
MTEXTBEGIN
1070
    73
1070
     1
1070
    44
1040
1.0
1070
    74
1070
     0
1000
MTEXTEND
  0
POINT
  5
1D9
  8
DEFPOINTS
  6
CONTINUOUS
 62
     0
 10
773.3070624899243
 20
-561.7830403914616
 30
0.0
  0
POINT
  5
1DA
  8
DEFPOINTS
  6
CONTINUOUS
 62
     0
 10
768.3070624899243
 20
-555.8830403914618
 30
0.0
  0
POINT
  5
1DB
  8
DEFPOINTS
  6
CONTINUOUS
 62
     0
 10
739.3070624899246
 20
-555.8830403914619
 30
0.0
  0
ENDBLK
  5
1DC
  8
0
 62
     1
  0
BLOCK
  8
0
  2
*D2323
 70
     1
 10
0.0
 20
0.0
 30
0.0
  3
*D2323
  1

  0
LINE
  5
1C2
  8
回07-寸法
  6
CONTINUOUS
 62
     5
 10
775.6570624899243
 20
-563.8130403914617
 30
0.0
 11
747.3070624899243
 21
-563.8130403914617
 31
0.0
  0
LINE
  5
1C3
  8
回07-寸法
  6
CONTINUOUS
 62
     5
 10
768.3070624899243
 20
-555.8830403914618
 30
0.0
 11
747.3070624899243
 21
-555.8830403914618
 31
0.0
  0
LINE
  5
1C4
  8
回07-寸法
  6
CONTINUOUS
 62
     5
 10
748.3070624899243
 20
-565.3130403914619
 30
0.0
 11
748.3070624899243
 21
-566.8130403914617
 31
0.0
  0
LINE
  5
1C5
  8
回07-寸法
  6
CONTINUOUS
 62
     5
 10
748.3070624899243
 20
-554.3830403914618
 30
0.0
 11
748.3070624899243
 21
-540.2722126757836
 31
0.0
  0
LINE
  5
1C6
  8
回07-寸法
  6
CONTINUOUS
 62
     5
 10
748.3070624899243
 20
-563.8130403914617
 30
0.0
 11
748.3070624899243
 21
-555.8830403914619
 31
0.0
  0
INSERT
  5
1C7
  8
回07-寸法
  6
CONTINUOUS
 62
     5
  2
_OPEN
 10
748.3070624899243
 20
-563.8130403914617
 30
0.0
 41
1.5
 42
1.5
 43
1.5
 50
90.0
  0
INSERT
  5
1C8
  8
回07-寸法
  6
CONTINUOUS
 62
     5
  2
_OPEN
 10
748.3070624899243
 20
-555.8830403914619
 30
0.0
 41
1.5
 42
1.5
 43
1.5
 50
270.0
  0
TEXT
  5
1C9
  8
回07-寸法
  6
CONTINUOUS
 62
     5
 10
747.6071423647273
 20
-552.9848472706763
 30
0.0
 40
4.0
  1
(7.93)
 50
90.0
1001
ACAD
1000
MTEXTBEGIN
1070
    73
1070
     1
1070
    44
1040
1.0
1070
    74
1070
     0
1000
MTEXTEND
  0
POINT
  5
1CA
  8
DEFPOINTS
  6
CONTINUOUS
 62
     0
 10
775.6570624899243
 20
-563.8130403914617
 30
0.0
  0
POINT
  5
1CB
  8
DEFPOINTS
  6
CONTINUOUS
 62
     0
 10
768.3070624899243
 20
-555.8830403914618
 30
0.0
  0
POINT
  5
1CC
  8
DEFPOINTS
  6
CONTINUOUS
 62
     0
 10
748.3070624899243
 20
-555.8830403914619
 30
0.0
  0
ENDBLK
  5
1CD
  8
0
 62
     1
  0
BLOCK
  8
0
  2
*D2424
 70
     1
 10
0.0
 20
0.0
 30
0.0
  3
*D2424
  1

  0
LINE
  5
1B5
  8
回07-寸法
  6
CONTINUOUS
 62
     5
 10
838.8559371744756
 20
-737.9830403914625
 30
0.0
 11
799.367039614292
 21
-737.9830403914625
 31
0.0
  0
LINE
  5
1B6
  8
回07-寸法
  6
CONTINUOUS
 62
     5
 10
831.6070624899245
 20
-667.983040391462
 30
0.0
 11
799.367039614292
 21
-667.983040391462
 31
0.0
  0
LINE
  5
1B7
  8
回07-寸法
  6
CONTINUOUS
 62
     5
 10
800.367039614292
 20
-736.4830403914623
 30
0.0
 11
800.367039614292
 21
-669.483040391462
 31
0.0
  0
INSERT
  5
1B8
  8
回07-寸法
  6
CONTINUOUS
 62
     5
  2
_OPEN
 10
800.367039614292
 20
-737.9830403914625
 30
0.0
 41
1.5
 42
1.5
 43
1.5
 50
270.0
  0
INSERT
  5
1B9
  8
回07-寸法
  6
CONTINUOUS
 62
     5
  2
_OPEN
 10
800.367039614292
 20
-667.983040391462
 30
0.0
 41
1.5
 42
1.5
 43
1.5
 50
90.0
  0
INSERT
  5
1BA
  8
回07-寸法
  6
CONTINUOUS
 62
     5
 66
     1
  2
*X8989
 10
0.0
 20
0.0
 30
0.0
  0
SEQEND
  5
764
  8
0
  6
CONTINUOUS
 62
     1
  0
POINT
  5
1BB
  8
DEFPOINTS
  6
CONTINUOUS
 62
     0
 10
838.8559371744756
 20
-737.9830403914625
 30
0.0
  0
POINT
  5
1BC
  8
DEFPOINTS
  6
CONTINUOUS
 62
     0
 10
831.6070624899245
 20
-667.983040391462
 30
0.0
  0
POINT
  5
1BD
  8
DEFPOINTS
  6
CONTINUOUS
 62
     0
 10
800.367039614292
 20
-667.983040391462
 30
0.0
  0
ENDBLK
  5
1BE
  8
0
 62
     1
  0
BLOCK
  8
0
  2
*D2525
 70
     1
 10
0.0
 20
0.0
 30
0.0
  3
*D2525
  1

  0
LINE
  5
1A8
  8
回07-寸法
  6
CONTINUOUS
 62
     5
 10
872.1070624899248
 20
-667.9829920206497
 30
0.0
 11
909.1641053388128
 21
-667.9829920206497
 31
0.0
  0
LINE
  5
1A9
  8
回07-寸法
  6
CONTINUOUS
 62
     5
 10
867.7559371744763
 20
-737.9830403914627
 30
0.0
 11
909.1641053388128
 21
-737.9830403914627
 31
0.0
  0
LINE
  5
1AA
  8
回07-寸法
  6
CONTINUOUS
 62
     5
 10
908.1641053388127
 20
-669.4829920206497
 30
0.0
 11
908.1641053388127
 21
-736.4830403914627
 31
0.0
  0
INSERT
  5
1AB
  8
回07-寸法
  6
CONTINUOUS
 62
     5
  2
_OPEN
 10
908.1641053388127
 20
-667.9829920206497
 30
0.0
 41
1.5
 42
1.5
 43
1.5
 50
90.0
  0
INSERT
  5
1AC
  8
回07-寸法
  6
CONTINUOUS
 62
     5
  2
_OPEN
 10
908.1641053388127
 20
-737.9830403914627
 30
0.0
 41
1.5
 42
1.5
 43
1.5
 50
270.0
  0
INSERT
  5
1AD
  8
回07-寸法
  6
CONTINUOUS
 62
     5
 66
     1
  2
*X9090
 10
0.0
 20
0.0
 30
0.0
  0
SEQEND
  5
76A
  8
0
  6
CONTINUOUS
 62
     1
  0
POINT
  5
1AE
  8
DEFPOINTS
  6
CONTINUOUS
 62
     0
 10
872.1070624899248
 20
-667.9829920206497
 30
0.0
  0
POINT
  5
1AF
  8
DEFPOINTS
  6
CONTINUOUS
 62
     0
 10
867.7559371744763
 20
-737.9830403914627
 30
0.0
  0
POINT
  5
1B0
  8
DEFPOINTS
  6
CONTINUOUS
 62
     0
 10
908.1641053388127
 20
-737.9830403914627
 30
0.0
  0
ENDBLK
  5
1B1
  8
0
 62
     1
  0
BLOCK
  8
0
  2
*D2626
 70
     1
 10
0.0
 20
0.0
 30
0.0
  3
*D2626
  1

  0
LINE
  5
19B
  8
回07-寸法
  6
CONTINUOUS
 62
     5
 10
768.3070624899238
 20
-667.9830403914616
 30
0.0
 11
768.3070624899238
 21
-762.6884716076784
 31
0.0
  0
LINE
  5
19C
  8
回07-寸法
  6
CONTINUOUS
 62
     5
 10
838.3559371744754
 20
-737.8830403914621
 30
0.0
 11
838.3559371744754
 21
-762.6884716076784
 31
0.0
  0
LINE
  5
19D
  8
回07-寸法
  6
CONTINUOUS
 62
     5
 10
769.8070624899238
 20
-761.6884716076782
 30
0.0
 11
836.8559371744755
 21
-761.6884716076782
 31
0.0
  0
INSERT
  5
19E
  8
回07-寸法
  6
CONTINUOUS
 62
     5
  2
_OPEN
 10
768.3070624899238
 20
-761.6884716076782
 30
0.0
 41
1.5
 42
1.5
 43
1.5
 50
180.0
  0
INSERT
  5
19F
  8
回07-寸法
  6
CONTINUOUS
 62
     5
  2
_OPEN
 10
838.3559371744754
 20
-761.6884716076782
 30
0.0
 41
1.5
 42
1.5
 43
1.5
  0
TEXT
  5
1A0
  8
回07-寸法
  6
CONTINUOUS
 62
     5
 10
795.5314998321997
 20
-760.9884716076781
 30
0.0
 40
4.0
  1
(70.05)
1001
ACAD
1000
MTEXTBEGIN
1070
    73
1070
     1
1070
    44
1040
1.0
1070
    74
1070
     0
1000
MTEXTEND
  0
POINT
  5
1A1
  8
DEFPOINTS
  6
CONTINUOUS
 62
     0
 10
768.3070624899238
 20
-667.9830403914616
 30
0.0
  0
POINT
  5
1A2
  8
DEFPOINTS
  6
CONTINUOUS
 62
     0
 10
838.3559371744754
 20
-737.8830403914621
 30
0.0
  0
POINT
  5
1A3
  8
DEFPOINTS
  6
CONTINUOUS
 62
     0
 10
838.3559371744754
 20
-761.6884716076782
 30
0.0
  0
ENDBLK
  5
1A4
  8
0
 62
     1
  0
BLOCK
  8
0
  2
*D2727
 70
     1
 10
0.0
 20
0.0
 30
0.0
  3
*D2727
  1

  0
LINE
  5
18C
  8
回07-寸法
  6
CONTINUOUS
 62
     5
 10
838.3559371744754
 20
-737.8830403914621
 30
0.0
 11
838.3559371744754
 21
-762.6884716076784
 31
0.0
  0
LINE
  5
18D
  8
回07-寸法
  6
CONTINUOUS
 62
     5
 10
847.8559371744756
 20
-737.8830403914624
 30
0.0
 11
847.8559371744756
 21
-762.6884716076784
 31
0.0
  0
LINE
  5
18E
  8
回07-寸法
  6
CONTINUOUS
 62
     5
 10
849.3559371744757
 20
-761.6884716076782
 30
0.0
 11
850.8559371744757
 21
-761.6884716076782
 31
0.0
  0
LINE
  5
18F
  8
回07-寸法
  6
CONTINUOUS
 62
     5
 10
836.8559371744755
 20
-761.6884716076782
 30
0.0
 11
822.2502517495263
 21
-761.6884716076782
 31
0.0
  0
LINE
  5
190
  8
回07-寸法
  6
CONTINUOUS
 62
     5
 10
847.8559371744756
 20
-761.6884716076782
 30
0.0
 11
838.3559371744754
 21
-761.6884716076782
 31
0.0
  0
INSERT
  5
191
  8
回07-寸法
  6
CONTINUOUS
 62
     5
  2
_OPEN
 10
847.8559371744756
 20
-761.6884716076782
 30
0.0
 41
1.5
 42
1.5
 43
1.5
 50
180.0
  0
INSERT
  5
192
  8
回07-寸法
  6
CONTINUOUS
 62
     5
  2
_OPEN
 10
838.3559371744754
 20
-761.6884716076782
 30
0.0
 41
1.5
 42
1.5
 43
1.5
  0
INSERT
  5
193
  8
回07-寸法
  6
CONTINUOUS
 62
     5
 66
     1
  2
*X9191
 10
0.0
 20
0.0
 30
0.0
  0
SEQEND
  5
770
  8
0
  6
CONTINUOUS
 62
     1
  0
POINT
  5
194
  8
DEFPOINTS
  6
CONTINUOUS
 62
     0
 10
838.3559371744754
 20
-737.8830403914621
 30
0.0
  0
POINT
  5
195
  8
DEFPOINTS
  6
CONTINUOUS
 62
     0
 10
847.8559371744756
 20
-737.8830403914624
 30
0.0
  0
POINT
  5
196
  8
DEFPOINTS
  6
CONTINUOUS
 62
     0
 10
847.8559371744756
 20
-761.6884716076782
 30
0.0
  0
ENDBLK
  5
197
  8
0
 62
     1
  0
BLOCK
  8
0
  2
*D2828
 70
     1
 10
0.0
 20
0.0
 30
0.0
  3
*D2828
  1

  0
LINE
  5
17F
  8
回07-寸法
  6
CONTINUOUS
 62
     5
 10
768.3070624899238
 20
-667.9830403914616
 30
0.0
 11
768.3070624899238
 21
-774.7703756096089
 31
0.0
  0
LINE
  5
180
  8
回07-寸法
  6
CONTINUOUS
 62
     5
 10
859.3559371744756
 20
-737.8830403914624
 30
0.0
 11
859.3559371744756
 21
-774.7703756096089
 31
0.0
  0
LINE
  5
181
  8
回07-寸法
  6
CONTINUOUS
 62
     5
 10
769.8070624899238
 20
-773.7703756096089
 30
0.0
 11
857.8559371744759
 21
-773.7703756096089
 31
0.0
  0
INSERT
  5
182
  8
回07-寸法
  6
CONTINUOUS
 62
     5
  2
_OPEN
 10
768.3070624899238
 20
-773.7703756096089
 30
0.0
 41
1.5
 42
1.5
 43
1.5
 50
180.0
  0
INSERT
  5
183
  8
回07-寸法
  6
CONTINUOUS
 62
     5
  2
_OPEN
 10
859.3559371744756
 20
-773.7703756096089
 30
0.0
 41
1.5
 42
1.5
 43
1.5
  0
TEXT
  5
184
  8
回07-寸法
  6
CONTINUOUS
 62
     5
 10
806.424279095146
 20
-773.0694088915695
 30
0.0
 40
4.0
  1
(91.05)
1001
ACAD
1000
MTEXTBEGIN
1070
    73
1070
     1
1070
    44
1040
1.0
1070
    74
1070
     0
1000
MTEXTEND
  0
POINT
  5
185
  8
DEFPOINTS
  6
CONTINUOUS
 62
     0
 10
768.3070624899238
 20
-667.9830403914616
 30
0.0
  0
POINT
  5
186
  8
DEFPOINTS
  6
CONTINUOUS
 62
     0
 10
859.3559371744756
 20
-737.8830403914624
 30
0.0
  0
POINT
  5
187
  8
DEFPOINTS
  6
CONTINUOUS
 62
     0
 10
859.3559371744756
 20
-773.7703756096089
 30
0.0
  0
ENDBLK
  5
188
  8
0
 62
     1
  0
BLOCK
  8
0
  2
*D2929
 70
     1
 10
0.0
 20
0.0
 30
0.0
  3
*D2929
  1

  0
LINE
  5
170
  8
回07-寸法
  6
CONTINUOUS
 62
     5
 10
859.3559371744756
 20
-737.8830403914624
 30
0.0
 11
859.3559371744756
 21
-774.7703756096089
 31
0.0
  0
LINE
  5
171
  8
回07-寸法
  6
CONTINUOUS
 62
     5
 10
867.8559371744759
 20
-737.8830403914624
 30
0.0
 11
867.8559371744759
 21
-774.7703756096089
 31
0.0
  0
LINE
  5
172
  8
回07-寸法
  6
CONTINUOUS
 62
     5
 10
857.8559371744759
 20
-773.7703756096089
 30
0.0
 11
856.3559371744759
 21
-773.7703756096089
 31
0.0
  0
LINE
  5
173
  8
回07-寸法
  6
CONTINUOUS
 62
     5
 10
869.3559371744759
 20
-773.7703756096089
 30
0.0
 11
883.7959371744759
 21
-773.7703756096089
 31
0.0
  0
LINE
  5
174
  8
回07-寸法
  6
CONTINUOUS
 62
     5
 10
859.3559371744756
 20
-773.7703756096089
 30
0.0
 11
867.8559371744759
 21
-773.7703756096089
 31
0.0
  0
INSERT
  5
175
  8
回07-寸法
  6
CONTINUOUS
 62
     5
  2
_OPEN
 10
859.3559371744756
 20
-773.7703756096089
 30
0.0
 41
1.5
 42
1.5
 43
1.5
  0
INSERT
  5
176
  8
回07-寸法
  6
CONTINUOUS
 62
     5
  2
_OPEN
 10
867.8559371744759
 20
-773.7703756096089
 30
0.0
 41
1.5
 42
1.5
 43
1.5
 50
180.0
  0
INSERT
  5
177
  8
回07-寸法
  6
CONTINUOUS
 62
     5
 66
     1
  2
*X9292
 10
0.0
 20
0.0
 30
0.0
  0
SEQEND
  5
776
  8
0
  6
CONTINUOUS
 62
     1
  0
POINT
  5
178
  8
DEFPOINTS
  6
CONTINUOUS
 62
     0
 10
859.3559371744756
 20
-737.8830403914624
 30
0.0
  0
POINT
  5
179
  8
DEFPOINTS
  6
CONTINUOUS
 62
     0
 10
867.8559371744759
 20
-737.8830403914624
 30
0.0
  0
POINT
  5
17A
  8
DEFPOINTS
  6
CONTINUOUS
 62
     0
 10
867.8559371744759
 20
-773.7703756096089
 30
0.0
  0
ENDBLK
  5
17B
  8
0
 62
     1
  0
BLOCK
  8
0
  2
*D3030
 70
     1
 10
0.0
 20
0.0
 30
0.0
  3
*D3030
  1

  0
LINE
  5
37D
  8
回07-寸法
  6
CONTINUOUS
 62
     5
 10
993.7592046751213
 20
-737.9830403914627
 30
0.0
 11
984.8934866934913
 21
-737.9830403914627
 31
0.0
  0
LINE
  5
37E
  8
回07-寸法
  6
CONTINUOUS
 62
     5
 10
993.0592046751206
 20
-732.9830403914627
 30
0.0
 11
984.8934866934913
 21
-732.9830403914627
 31
0.0
  0
LINE
  5
37F
  8
回07-寸法
  6
CONTINUOUS
 62
     5
 10
985.8934866934914
 20
-736.4830403914627
 30
0.0
 11
985.8934866934914
 21
-734.4830403914627
 31
0.0
  0
INSERT
  5
380
  8
回07-寸法
  6
CONTINUOUS
 62
     5
 66
     1
  2
_OPEN
 10
985.8934866934914
 20
-737.9830403914627
 30
0.0
 41
1.5
 42
1.5
 43
1.5
 50
270.0
  0
SEQEND
  5
381
  8
0
  6
CONTINUOUS
 62
     1
  0
INSERT
  5
382
  8
回07-寸法
  6
CONTINUOUS
 62
     5
 66
     1
  2
_OPEN
 10
985.8934866934914
 20
-732.9830403914627
 30
0.0
 41
1.5
 42
1.5
 43
1.5
 50
90.0
  0
SEQEND
  5
383
  8
0
  6
CONTINUOUS
 62
     1
  0
TEXT
  5
384
  8
回07-寸法
  6
CONTINUOUS
 62
     5
 10
985.3934866934912
 20
-736.8830403914627
 30
0.0
 40
4.0
  1
5
 50
90.0
1001
ACAD
1000
MTEXTBEGIN
1070
    73
1070
     1
1070
    44
1040
1.0
1070
    74
1070
     0
1000
MTEXTEND
  0
POINT
  5
385
  8
DEFPOINTS
  6
CONTINUOUS
 62
     0
 10
993.7592046751213
 20
-737.9830403914627
 30
0.0
  0
POINT
  5
386
  8
DEFPOINTS
  6
CONTINUOUS
 62
     0
 10
993.0592046751206
 20
-732.9830403914627
 30
0.0
  0
POINT
  5
387
  8
DEFPOINTS
  6
CONTINUOUS
 62
     0
 10
985.8934866934914
 20
-732.9830403914627
 30
0.0
  0
ENDBLK
  5
388
  8
0
 62
     1
  0
BLOCK
  8
0
  2
*D3131
 70
     1
 10
0.0
 20
0.0
 30
0.0
  3
*D3131
  1

  0
LINE
  5
36E
  8
回07-寸法
  6
CONTINUOUS
 62
     5
 10
1003.652388894091
 20
-737.9830403914627
 30
0.0
 11
1013.768027484776
 21
-737.9830403914627
 31
0.0
  0
LINE
  5
36F
  8
回07-寸法
  6
CONTINUOUS
 62
     5
 10
1004.352388894091
 20
-732.9830403914627
 30
0.0
 11
1013.768027484776
 21
-732.9830403914627
 31
0.0
  0
LINE
  5
370
  8
回07-寸法
  6
CONTINUOUS
 62
     5
 10
1012.768027484777
 20
-736.4830403914627
 30
0.0
 11
1012.768027484777
 21
-734.4830403914627
 31
0.0
  0
INSERT
  5
371
  8
回07-寸法
  6
CONTINUOUS
 62
     5
 66
     1
  2
_OPEN
 10
1012.768027484777
 20
-737.9830403914627
 30
0.0
 41
1.5
 42
1.5
 43
1.5
 50
270.0
  0
SEQEND
  5
372
  8
0
  6
CONTINUOUS
 62
     1
  0
INSERT
  5
373
  8
回07-寸法
  6
CONTINUOUS
 62
     5
 66
     1
  2
_OPEN
 10
1012.768027484777
 20
-732.9830403914627
 30
0.0
 41
1.5
 42
1.5
 43
1.5
 50
90.0
  0
SEQEND
  5
374
  8
0
  6
CONTINUOUS
 62
     1
  0
TEXT
  5
375
  8
回07-寸法
  6
CONTINUOUS
 62
     5
 10
1012.268027484776
 20
-736.8830403914627
 30
0.0
 40
4.0
  1
5
 50
90.0
1001
ACAD
1000
MTEXTBEGIN
1070
    73
1070
     1
1070
    44
1040
1.0
1070
    74
1070
     0
1000
MTEXTEND
  0
POINT
  5
376
  8
DEFPOINTS
  6
CONTINUOUS
 62
     0
 10
1003.652388894091
 20
-737.9830403914627
 30
0.0
  0
POINT
  5
377
  8
DEFPOINTS
  6
CONTINUOUS
 62
     0
 10
1004.352388894091
 20
-732.9830403914627
 30
0.0
  0
POINT
  5
378
  8
DEFPOINTS
  6
CONTINUOUS
 62
     0
 10
1012.768027484777
 20
-732.9830403914627
 30
0.0
  0
ENDBLK
  5
379
  8
0
 62
     1
  0
BLOCK
  8
0
  2
*D3232
 70
     1
 10
0.0
 20
0.0
 30
0.0
  3
*D3232
  1

  0
LINE
  5
35D
  8
回07-寸法
  6
CONTINUOUS
 62
     5
 10
1001.152388894091
 20
-737.9830403914625
 30
0.0
 11
1001.152388894091
 21
-755.7106652891891
 31
0.0
  0
LINE
  5
35E
  8
回07-寸法
  6
CONTINUOUS
 62
     5
 10
1003.652388894091
 20
-737.9830403914625
 30
0.0
 11
1003.652388894091
 21
-755.7106652891891
 31
0.0
  0
LINE
  5
35F
  8
回07-寸法
  6
CONTINUOUS
 62
     5
 10
999.652388894091
 20
-754.7106652891891
 30
0.0
 11
998.1523888940911
 21
-754.7106652891891
 31
0.0
  0
LINE
  5
360
  8
回07-寸法
  6
CONTINUOUS
 62
     5
 10
1005.152388894091
 20
-754.7106652891891
 30
0.0
 11
1021.832702002641
 21
-754.7106652891891
 31
0.0
  0
LINE
  5
361
  8
回07-寸法
  6
CONTINUOUS
 62
     5
 10
1001.152388894091
 20
-754.7106652891891
 30
0.0
 11
1003.652388894091
 21
-754.7106652891891
 31
0.0
  0
INSERT
  5
362
  8
回07-寸法
  6
CONTINUOUS
 62
     5
 66
     1
  2
_OPEN
 10
1001.152388894091
 20
-754.7106652891891
 30
0.0
 41
1.5
 42
1.5
 43
1.5
  0
SEQEND
  5
363
  8
0
  6
CONTINUOUS
 62
     1
  0
INSERT
  5
364
  8
回07-寸法
  6
CONTINUOUS
 62
     5
 66
     1
  2
_OPEN
 10
1003.652388894091
 20
-754.7106652891891
 30
0.0
 41
1.5
 42
1.5
 43
1.5
 50
180.0
  0
SEQEND
  5
365
  8
0
  6
CONTINUOUS
 62
     1
  0
INSERT
  5
366
  8
回07-寸法
  6
CONTINUOUS
 62
     5
 66
     1
  2
*X9393
 10
0.0
 20
0.0
 30
0.0
  0
SEQEND
  5
77C
  8
0
  6
CONTINUOUS
 62
     1
  0
POINT
  5
367
  8
DEFPOINTS
  6
CONTINUOUS
 62
     0
 10
1001.152388894091
 20
-737.9830403914625
 30
0.0
  0
POINT
  5
368
  8
DEFPOINTS
  6
CONTINUOUS
 62
     0
 10
1003.652388894091
 20
-737.9830403914625
 30
0.0
  0
POINT
  5
369
  8
DEFPOINTS
  6
CONTINUOUS
 62
     0
 10
1003.652388894091
 20
-754.7106652891891
 30
0.0
  0
ENDBLK
  5
36A
  8
0
 62
     1
  0
BLOCK
  8
0
  2
*D3333
 70
     1
 10
0.0
 20
0.0
 30
0.0
  3
*D3333
  1

  0
LINE
  5
11E
  8
回07-寸法
  6
CONTINUOUS
 62
     5
 10
831.683182957413
 20
-670.8830403914624
 30
0.0
 11
827.195900770028
 21
-670.8830403914624
 31
0.0
  0
LINE
  5
11F
  8
回07-寸法
  6
CONTINUOUS
 62
     5
 10
831.6070624899245
 20
-667.9830403914622
 30
0.0
 11
827.195900770028
 21
-667.9830403914622
 31
0.0
  0
LINE
  5
120
  8
回07-寸法
  6
CONTINUOUS
 62
     5
 10
828.195900770028
 20
-666.9830403914622
 30
0.0
 11
828.195900770028
 21
-665.9830403914622
 31
0.0
  0
LINE
  5
121
  8
回07-寸法
  6
CONTINUOUS
 62
     5
 10
828.195900770028
 20
-671.8830403914624
 30
0.0
 11
828.195900770028
 21
-687.5176006507459
 31
0.0
  0
LINE
  5
122
  8
回07-寸法
  6
CONTINUOUS
 62
     5
 10
828.195900770028
 20
-667.9830403914622
 30
0.0
 11
828.195900770028
 21
-670.8830403914624
 31
0.0
  0
INSERT
  5
123
  8
回07-寸法
  6
CONTINUOUS
 62
     5
 66
     1
  2
_OPEN
 10
828.195900770028
 20
-667.9830403914622
 30
0.0
 50
270.0
  0
SEQEND
  5
124
  8
0
  6
CONTINUOUS
 62
     1
  0
INSERT
  5
125
  8
回07-寸法
  6
CONTINUOUS
 62
     5
 66
     1
  2
_OPEN
 10
828.195900770028
 20
-670.8830403914624
 30
0.0
 50
90.0
  0
SEQEND
  5
126
  8
0
  6
CONTINUOUS
 62
     1
  0
TEXT
  5
127
  8
回07-寸法
  6
CONTINUOUS
 62
     5
 10
827.6955070692403
 20
-687.4308470282215
 30
0.0
 40
4.0
  1
2.9
 50
90.0
1001
ACAD
1000
MTEXTBEGIN
1070
    73
1070
     1
1070
    44
1040
1.0
1070
    74
1070
     0
1000
MTEXTEND
  0
POINT
  5
128
  8
DEFPOINTS
  6
CONTINUOUS
 62
     0
 10
831.683182957413
 20
-670.8830403914624
 30
0.0
  0
POINT
  5
129
  8
DEFPOINTS
  6
CONTINUOUS
 62
     0
 10
831.6070624899245
 20
-667.9830403914622
 30
0.0
  0
POINT
  5
12A
  8
DEFPOINTS
  6
CONTINUOUS
 62
     0
 10
828.195900770028
 20
-667.9830403914622
 30
0.0
  0
ENDBLK
  5
12B
  8
0
 62
     1
  0
BLOCK
  8
0
  2
*D3434
 70
     1
 10
0.0
 20
0.0
 30
0.0
  3
*D3434
  1

  0
LINE
  5
10D
  8
回07-寸法
  6
CONTINUOUS
 62
     5
 10
838.279816706987
 20
-677.6949753360293
 30
0.0
 11
821.6414397310032
 21
-677.6949753360293
 31
0.0
  0
LINE
  5
10E
  8
回07-寸法
  6
CONTINUOUS
 62
     5
 10
831.6070624899245
 20
-667.9830403914622
 30
0.0
 11
821.6414397310032
 21
-667.9830403914622
 31
0.0
  0
LINE
  5
10F
  8
回07-寸法
  6
CONTINUOUS
 62
     5
 10
822.6414397310033
 20
-666.9830403914622
 30
0.0
 11
822.6414397310033
 21
-665.9830403914622
 31
0.0
  0
LINE
  5
110
  8
回07-寸法
  6
CONTINUOUS
 62
     5
 10
822.6414397310033
 20
-678.6949753360293
 30
0.0
 11
822.6414397310033
 21
-689.3740138476665
 31
0.0
  0
LINE
  5
111
  8
回07-寸法
  6
CONTINUOUS
 62
     5
 10
822.6414397310033
 20
-667.9830403914622
 30
0.0
 11
822.6414397310033
 21
-677.6949753360293
 31
0.0
  0
INSERT
  5
112
  8
回07-寸法
  6
CONTINUOUS
 62
     5
 66
     1
  2
_OPEN
 10
822.6414397310033
 20
-667.9830403914622
 30
0.0
 50
270.0
  0
SEQEND
  5
113
  8
0
  6
CONTINUOUS
 62
     1
  0
INSERT
  5
114
  8
回07-寸法
  6
CONTINUOUS
 62
     5
 66
     1
  2
_OPEN
 10
822.6414397310033
 20
-677.6949753360293
 30
0.0
 50
90.0
  0
SEQEND
  5
115
  8
0
  6
CONTINUOUS
 62
     1
  0
TEXT
  5
116
  8
回07-寸法
  6
CONTINUOUS
 62
     5
 10
822.1414397310027
 20
-689.4056126093
 30
0.0
 40
4.0
  1
9.71
 50
90.0
1001
ACAD
1000
MTEXTBEGIN
1070
    73
1070
     1
1070
    44
1040
1.0
1070
    74
1070
     0
1000
MTEXTEND
  0
POINT
  5
117
  8
DEFPOINTS
  6
CONTINUOUS
 62
     0
 10
838.279816706987
 20
-677.6949753360293
 30
0.0
  0
POINT
  5
118
  8
DEFPOINTS
  6
CONTINUOUS
 62
     0
 10
831.6070624899245
 20
-667.9830403914622
 30
0.0
  0
POINT
  5
119
  8
DEFPOINTS
  6
CONTINUOUS
 62
     0
 10
822.6414397310033
 20
-667.9830403914622
 30
0.0
  0
ENDBLK
  5
11A
  8
0
 62
     1
  0
BLOCK
  8
0
  2
*D3535
 70
     1
 10
0.0
 20
0.0
 30
0.0
  3
*D3535
  1

  0
LINE
  5
FC
  8
回07-寸法
  6
CONTINUOUS
 62
     5
 10
872.1070624899248
 20
-667.983040391462
 30
0.0
 11
877.9197351698464
 21
-667.983040391462
 31
0.0
  0
LINE
  5
FD
  8
回07-寸法
  6
CONTINUOUS
 62
     5
 10
872.030942022436
 20
-670.8830403914617
 30
0.0
 11
877.9197351698464
 21
-670.8830403914617
 31
0.0
  0
LINE
  5
FE
  8
回07-寸法
  6
CONTINUOUS
 62
     5
 10
876.9197351698464
 20
-666.4830403914621
 30
0.0
 11
876.9197351698464
 21
-664.983040391462
 31
0.0
  0
LINE
  5
FF
  8
回07-寸法
  6
CONTINUOUS
 62
     5
 10
876.9197351698464
 20
-672.3830403914619
 30
0.0
 11
876.9197351698464
 21
-683.8649634701968
 31
0.0
  0
LINE
  5
100
  8
回07-寸法
  6
CONTINUOUS
 62
     5
 10
876.9197351698464
 20
-667.983040391462
 30
0.0
 11
876.9197351698464
 21
-670.8830403914617
 31
0.0
  0
INSERT
  5
101
  8
回07-寸法
  6
CONTINUOUS
 62
     5
 66
     1
  2
_OPEN
 10
876.9197351698464
 20
-667.983040391462
 30
0.0
 41
1.5
 42
1.5
 43
1.5
 50
270.0
  0
SEQEND
  5
102
  8
0
  6
CONTINUOUS
 62
     1
  0
INSERT
  5
103
  8
回07-寸法
  6
CONTINUOUS
 62
     5
 66
     1
  2
_OPEN
 10
876.9197351698464
 20
-670.8830403914617
 30
0.0
 41
1.5
 42
1.5
 43
1.5
 50
90.0
  0
SEQEND
  5
104
  8
0
  6
CONTINUOUS
 62
     1
  0
TEXT
  5
105
  8
回07-寸法
  6
CONTINUOUS
 62
     5
 10
876.4193414690588
 20
-683.7782098476725
 30
0.0
 40
4.0
  1
2.9
 50
90.0
1001
ACAD
1000
MTEXTBEGIN
1070
    73
1070
     1
1070
    44
1040
1.0
1070
    74
1070
     0
1000
MTEXTEND
  0
POINT
  5
106
  8
DEFPOINTS
  6
CONTINUOUS
 62
     0
 10
872.1070624899248
 20
-667.983040391462
 30
0.0
  0
POINT
  5
107
  8
DEFPOINTS
  6
CONTINUOUS
 62
     0
 10
872.030942022436
 20
-670.8830403914617
 30
0.0
  0
POINT
  5
108
  8
DEFPOINTS
  6
CONTINUOUS
 62
     0
 10
876.9197351698464
 20
-670.8830403914617
 30
0.0
  0
ENDBLK
  5
109
  8
0
 62
     1
  0
BLOCK
  8
0
  2
*D3636
 70
     1
 10
0.0
 20
0.0
 30
0.0
  3
*D3636
  1

  0
LINE
  5
EB
  8
回07-寸法
  6
CONTINUOUS
 62
     5
 10
872.1070624899248
 20
-667.9829920206501
 30
0.0
 11
885.4092768551467
 21
-667.9829920206501
 31
0.0
  0
LINE
  5
EC
  8
回07-寸法
  6
CONTINUOUS
 62
     5
 10
867.932057641965
 20
-675.1972259669265
 30
0.0
 11
885.4092768551467
 21
-675.1972259669265
 31
0.0
  0
LINE
  5
ED
  8
回07-寸法
  6
CONTINUOUS
 62
     5
 10
884.4092768551467
 20
-666.48299202065
 30
0.0
 11
884.4092768551467
 21
-664.98299202065
 31
0.0
  0
LINE
  5
EE
  8
回07-寸法
  6
CONTINUOUS
 62
     5
 10
884.4092768551467
 20
-676.6972259669263
 30
0.0
 11
884.4092768551467
 21
-686.7972259669263
 31
0.0
  0
LINE
  5
EF
  8
回07-寸法
  6
CONTINUOUS
 62
     5
 10
884.4092768551467
 20
-667.9829920206501
 30
0.0
 11
884.4092768551467
 21
-675.1972259669265
 31
0.0
  0
INSERT
  5
F0
  8
回07-寸法
  6
CONTINUOUS
 62
     5
 66
     1
  2
_OPEN
 10
884.4092768551467
 20
-667.9829920206501
 30
0.0
 41
1.5
 42
1.5
 43
1.5
 50
270.0
  0
SEQEND
  5
F1
  8
0
  6
CONTINUOUS
 62
     1
  0
INSERT
  5
F2
  8
回07-寸法
  6
CONTINUOUS
 62
     5
 66
     1
  2
_OPEN
 10
884.4092768551467
 20
-675.1972259669265
 30
0.0
 41
1.5
 42
1.5
 43
1.5
 50
90.0
  0
SEQEND
  5
F3
  8
0
  6
CONTINUOUS
 62
     1
  0
TEXT
  5
F4
  8
回07-寸法
  6
CONTINUOUS
 62
     5
 10
883.9088831543588
 20
-686.8972259669265
 30
0.0
 40
4.0
  1
7.21
 50
90.0
1001
ACAD
1000
MTEXTBEGIN
1070
    73
1070
     1
1070
    44
1040
1.0
1070
    74
1070
     0
1000
MTEXTEND
  0
POINT
  5
F5
  8
DEFPOINTS
  6
CONTINUOUS
 62
     0
 10
872.1070624899248
 20
-667.9829920206501
 30
0.0
  0
POINT
  5
F6
  8
DEFPOINTS
  6
CONTINUOUS
 62
     0
 10
867.932057641965
 20
-675.1972259669265
 30
0.0
  0
POINT
  5
F7
  8
DEFPOINTS
  6
CONTINUOUS
 62
     0
 10
884.4092768551467
 20
-675.1972259669265
 30
0.0
  0
ENDBLK
  5
F8
  8
0
 62
     1
  0
BLOCK
  8
0
  2
*D3737
 70
     1
 10
0.0
 20
0.0
 30
0.0
  3
*D3737
  1

  0
LINE
  5
B9
  8
回07-寸法
  6
CONTINUOUS
 62
     5
 10
831.6070624899241
 20
-667.9830887622743
 30
0.0
 11
831.6070624899241
 21
-695.380466461132
 31
0.0
  0
LINE
  5
BA
  8
回07-寸法
  6
CONTINUOUS
 62
     5
 10
850.6070624899237
 20
-667.9830887622743
 30
0.0
 11
850.6070624899237
 21
-695.380466461132
 31
0.0
  0
LINE
  5
BB
  8
回07-寸法
  6
CONTINUOUS
 62
     5
 10
852.6070624899237
 20
-694.380466461132
 30
0.0
 11
854.6070624899236
 21
-694.380466461132
 31
0.0
  0
LINE
  5
BC
  8
回07-寸法
  6
CONTINUOUS
 62
     5
 10
829.6070624899241
 20
-694.380466461132
 30
0.0
 11
822.7206885739171
 21
-694.380466461132
 31
0.0
  0
LINE
  5
BD
  8
回07-寸法
  6
CONTINUOUS
 62
     5
 10
850.6070624899237
 20
-694.380466461132
 30
0.0
 11
831.6070624899241
 21
-694.380466461132
 31
0.0
  0
INSERT
  5
BE
  8
回07-寸法
  6
CONTINUOUS
 62
     5
  2
_OPEN
 10
850.6070624899237
 20
-694.380466461132
 30
0.0
 41
2.0
 42
2.0
 43
2.0
 50
180.0
  0
INSERT
  5
BF
  8
回07-寸法
  6
CONTINUOUS
 62
     5
  2
_OPEN
 10
831.6070624899241
 20
-694.380466461132
 30
0.0
 41
2.0
 42
2.0
 43
2.0
  0
TEXT
  5
C0
  8
回07-寸法
  6
CONTINUOUS
 62
     5
 10
822.7566547948667
 20
-693.880466461132
 30
0.0
 40
4.0
  1
19
1001
ACAD
1000
MTEXTBEGIN
1070
    73
1070
     1
1070
    44
1040
1.0
1070
    74
1070
     0
1000
MTEXTEND
  0
POINT
  5
C1
  8
DEFPOINTS
  6
CONTINUOUS
 62
     0
 10
831.6070624899241
 20
-667.9830887622743
 30
0.0
  0
POINT
  5
C2
  8
DEFPOINTS
  6
CONTINUOUS
 62
     0
 10
850.6070624899237
 20
-667.9830887622743
 30
0.0
  0
POINT
  5
C3
  8
DEFPOINTS
  6
CONTINUOUS
 62
     0
 10
850.6070624899237
 20
-694.380466461132
 30
0.0
  0
ENDBLK
  5
C4
  8
0
 62
     1
  0
BLOCK
  8
0
  2
*D3838
 70
     1
 10
0.0
 20
0.0
 30
0.0
  3
*D3838
  1

  0
LINE
  5
A9
  8
回07-寸法
  6
CONTINUOUS
 62
     5
 10
855.107062489924
 20
-667.9830887622743
 30
0.0
 11
855.107062489924
 21
-695.380466461132
 31
0.0
  0
LINE
  5
AA
  8
回07-寸法
  6
CONTINUOUS
 62
     5
 10
872.107062489924
 20
-667.983040391462
 30
0.0
 11
872.107062489924
 21
-695.380466461132
 31
0.0
  0
LINE
  5
AB
  8
回07-寸法
  6
CONTINUOUS
 62
     5
 10
853.1070624899241
 20
-694.380466461132
 30
0.0
 11
851.1070624899241
 21
-694.380466461132
 31
0.0
  0
LINE
  5
AC
  8
回07-寸法
  6
CONTINUOUS
 62
     5
 10
874.1070624899242
 20
-694.380466461132
 30
0.0
 11
880.7070624899241
 21
-694.380466461132
 31
0.0
  0
LINE
  5
AD
  8
回07-寸法
  6
CONTINUOUS
 62
     5
 10
855.107062489924
 20
-694.380466461132
 30
0.0
 11
872.107062489924
 21
-694.380466461132
 31
0.0
  0
INSERT
  5
AE
  8
回07-寸法
  6
CONTINUOUS
 62
     5
  2
_OPEN
 10
855.107062489924
 20
-694.380466461132
 30
0.0
 41
2.0
 42
2.0
 43
2.0
  0
INSERT
  5
AF
  8
回07-寸法
  6
CONTINUOUS
 62
     5
  2
_OPEN
 10
872.107062489924
 20
-694.380466461132
 30
0.0
 41
2.0
 42
2.0
 43
2.0
 50
180.0
  0
TEXT
  5
B0
  8
回07-寸法
  6
CONTINUOUS
 62
     5
 10
876.007062489924
 20
-693.880466461132
 30
0.0
 40
4.0
  1
17
1001
ACAD
1000
MTEXTBEGIN
1070
    73
1070
     1
1070
    44
1040
1.0
1070
    74
1070
     0
1000
MTEXTEND
  0
POINT
  5
B1
  8
DEFPOINTS
  6
CONTINUOUS
 62
     0
 10
855.107062489924
 20
-667.9830887622743
 30
0.0
  0
POINT
  5
B3
  8
DEFPOINTS
  6
CONTINUOUS
 62
     0
 10
872.107062489924
 20
-667.983040391462
 30
0.0
  0
POINT
  5
B4
  8
DEFPOINTS
  6
CONTINUOUS
 62
     0
 10
872.107062489924
 20
-694.380466461132
 30
0.0
  0
ENDBLK
  5
B5
  8
0
 62
     1
  0
BLOCK
  8
0
  2
*D3939
 70
     1
 10
0.0
 20
0.0
 30
0.0
  3
*D3939
  1

  0
LINE
  5
41E
  8
回07-寸法
  6
CONTINUOUS
 62
     5
 10
845.3802015636629
 20
-737.1343981311672
 30
0.0
 11
845.3802015636629
 21
-764.531775830025
 31
0.0
  0
LINE
  5
420
  8
回07-寸法
  6
CONTINUOUS
 62
     5
 10
862.3802015636629
 20
-737.1343497603549
 30
0.0
 11
862.3802015636629
 21
-764.531775830025
 31
0.0
  0
LINE
  5
421
  8
回07-寸法
  6
CONTINUOUS
 62
     5
 10
864.3802015636627
 20
-763.531775830025
 30
0.0
 11
870.9802015636627
 21
-763.531775830025
 31
0.0
  0
LINE
  5
422
  8
回07-寸法
  6
CONTINUOUS
 62
     5
 10
845.3802015636629
 20
-763.531775830025
 30
0.0
 11
862.3802015636629
 21
-763.531775830025
 31
0.0
  0
LINE
  5
423
  8
回07-寸法
  6
CONTINUOUS
 62
     5
 10
843.3802015636629
 20
-763.531775830025
 30
0.0
 11
841.380201563663
 21
-763.531775830025
 31
0.0
  0
INSERT
  5
424
  8
回07-寸法
  6
CONTINUOUS
 62
     5
  2
_OPEN
 10
845.3802015636629
 20
-763.531775830025
 30
0.0
 41
2.0
 42
2.0
 43
2.0
  0
INSERT
  5
425
  8
回07-寸法
  6
CONTINUOUS
 62
     5
  2
_OPEN
 10
862.3802015636629
 20
-763.531775830025
 30
0.0
 41
2.0
 42
2.0
 43
2.0
 50
180.0
  0
TEXT
  5
426
  8
回07-寸法
  6
CONTINUOUS
 62
     5
 10
866.2802015636627
 20
-763.031775830025
 30
0.0
 40
4.0
  1
17
  0
POINT
  5
427
  8
DEFPOINTS
  6
CONTINUOUS
 62
     0
 10
845.3802015636629
 20
-737.1343981311672
 30
0.0
  0
POINT
  5
428
  8
DEFPOINTS
  6
CONTINUOUS
 62
     0
 10
862.3802015636629
 20
-737.1343497603549
 30
0.0
  0
POINT
  5
429
  8
DEFPOINTS
  6
CONTINUOUS
 62
     0
 10
862.3802015636629
 20
-763.531775830025
 30
0.0
  0
ENDBLK
  5
42B
  8
0
  6
CONTINUOUS
 62
     1
  0
BLOCK
  8
0
  2
*D4040
 70
     1
 10
0.0
 20
0.0
 30
0.0
  3
*D4040
  1

  0
LINE
  5
42D
  8
回07-寸法
  6
CONTINUOUS
 62
     5
 10
821.8802015636629
 20
-737.1343981311672
 30
0.0
 11
821.8802015636629
 21
-764.531775830025
 31
0.0
  0
LINE
  5
42E
  8
回07-寸法
  6
CONTINUOUS
 62
     5
 10
840.8802015636624
 20
-737.1343981311672
 30
0.0
 11
840.8802015636624
 21
-764.531775830025
 31
0.0
  0
LINE
  5
42F
  8
回07-寸法
  6
CONTINUOUS
 62
     5
 10
819.8802015636626
 20
-763.531775830025
 30
0.0
 11
813.1297938686055
 21
-763.531775830025
 31
0.0
  0
LINE
  5
430
  8
回07-寸法
  6
CONTINUOUS
 62
     5
 10
821.8802015636629
 20
-763.531775830025
 30
0.0
 11
840.8802015636624
 21
-763.531775830025
 31
0.0
  0
LINE
  5
431
  8
回07-寸法
  6
CONTINUOUS
 62
     5
 10
842.8802015636625
 20
-763.531775830025
 30
0.0
 11
844.8802015636626
 21
-763.531775830025
 31
0.0
  0
INSERT
  5
432
  8
回07-寸法
  6
CONTINUOUS
 62
     5
  2
_OPEN
 10
821.8802015636629
 20
-763.531775830025
 30
0.0
 41
2.0
 42
2.0
 43
2.0
  0
INSERT
  5
433
  8
回07-寸法
  6
CONTINUOUS
 62
     5
  2
_OPEN
 10
840.8802015636624
 20
-763.531775830025
 30
0.0
 41
2.0
 42
2.0
 43
2.0
 50
180.0
  0
TEXT
  5
434
  8
回07-寸法
  6
CONTINUOUS
 62
     5
 10
813.0297938686052
 20
-763.031775830025
 30
0.0
 40
4.0
  1
19
  0
POINT
  5
435
  8
DEFPOINTS
  6
CONTINUOUS
 62
     0
 10
821.8802015636629
 20
-737.1343981311672
 30
0.0
  0
POINT
  5
436
  8
DEFPOINTS
  6
CONTINUOUS
 62
     0
 10
840.8802015636624
 20
-737.1343981311672
 30
0.0
  0
POINT
  5
437
  8
DEFPOINTS
  6
CONTINUOUS
 62
     0
 10
840.8802015636624
 20
-763.531775830025
 30
0.0
  0
ENDBLK
  5
439
  8
0
  6
CONTINUOUS
 62
     1
  0
BLOCK
  8
0
  2
*D4141
 70
     1
 10
0.0
 20
0.0
 30
0.0
  3
*D4141
  1

  0
LINE
  5
43B
  8
回07-寸法
  6
CONTINUOUS
 62
     5
 10
862.3802015636631
 20
-737.1343013895426
 30
0.0
 11
875.6824159288854
 21
-737.1343013895426
 31
0.0
  0
LINE
  5
43D
  8
回07-寸法
  6
CONTINUOUS
 62
     5
 10
858.2051967157033
 20
-744.348535335819
 30
0.0
 11
875.6824159288854
 21
-744.348535335819
 31
0.0
  0
LINE
  5
43E
  8
回07-寸法
  6
CONTINUOUS
 62
     5
 10
874.6824159288857
 20
-745.8485353358192
 30
0.0
 11
874.6824159288857
 21
-755.9485353358191
 31
0.0
  0
LINE
  5
43F
  8
回07-寸法
  6
CONTINUOUS
 62
     5
 10
874.6824159288857
 20
-737.1343013895426
 30
0.0
 11
874.6824159288857
 21
-744.348535335819
 31
0.0
  0
LINE
  5
440
  8
回07-寸法
  6
CONTINUOUS
 62
     5
 10
874.6824159288857
 20
-735.6343013895426
 30
0.0
 11
874.6824159288857
 21
-734.1343013895426
 31
0.0
  0
INSERT
  5
441
  8
回07-寸法
  6
CONTINUOUS
 62
     5
  2
_OPEN
 10
874.6824159288857
 20
-737.1343013895426
 30
0.0
 41
1.5
 42
1.5
 43
1.5
 50
270.0
  0
INSERT
  5
442
  8
回07-寸法
  6
CONTINUOUS
 62
     5
  2
_OPEN
 10
874.6824159288857
 20
-744.348535335819
 30
0.0
 41
1.5
 42
1.5
 43
1.5
 50
90.0
  0
TEXT
  5
443
  8
回07-寸法
  6
CONTINUOUS
 62
     5
 10
874.1824159288855
 20
-756.0485353358191
 30
0.0
 40
4.0
  1
7.21
 50
90.0
  0
POINT
  5
444
  8
DEFPOINTS
  6
CONTINUOUS
 62
     0
 10
862.3802015636631
 20
-737.1343013895426
 30
0.0
  0
POINT
  5
445
  8
DEFPOINTS
  6
CONTINUOUS
 62
     0
 10
858.2051967157033
 20
-744.348535335819
 30
0.0
  0
POINT
  5
446
  8
DEFPOINTS
  6
CONTINUOUS
 62
     0
 10
874.6824159288857
 20
-744.348535335819
 30
0.0
  0
ENDBLK
  5
448
  8
0
  6
CONTINUOUS
 62
     1
  0
BLOCK
  8
0
  2
*D4242
 70
     1
 10
0.0
 20
0.0
 30
0.0
  3
*D4242
  1

  0
LINE
  5
44A
  8
回07-寸法
  6
CONTINUOUS
 62
     5
 10
862.3802015636631
 20
-737.1343497603548
 30
0.0
 11
868.1928742435847
 21
-737.1343497603548
 31
0.0
  0
LINE
  5
44B
  8
回07-寸法
  6
CONTINUOUS
 62
     5
 10
862.3040810961743
 20
-740.0343497603546
 30
0.0
 11
868.1928742435847
 21
-740.0343497603546
 31
0.0
  0
LINE
  5
44C
  8
回07-寸法
  6
CONTINUOUS
 62
     5
 10
867.1928742435849
 20
-741.5343497603546
 30
0.0
 11
867.1928742435849
 21
-752.8295192165655
 31
0.0
  0
LINE
  5
44D
  8
回07-寸法
  6
CONTINUOUS
 62
     5
 10
867.1928742435849
 20
-737.1343497603548
 30
0.0
 11
867.1928742435849
 21
-740.0343497603546
 31
0.0
  0
LINE
  5
44E
  8
回07-寸法
  6
CONTINUOUS
 62
     5
 10
867.1928742435849
 20
-735.6343497603547
 30
0.0
 11
867.1928742435849
 21
-734.1343497603547
 31
0.0
  0
INSERT
  5
44F
  8
回07-寸法
  6
CONTINUOUS
 62
     5
  2
_OPEN
 10
867.1928742435849
 20
-737.1343497603548
 30
0.0
 41
1.5
 42
1.5
 43
1.5
 50
270.0
  0
INSERT
  5
450
  8
回07-寸法
  6
CONTINUOUS
 62
     5
  2
_OPEN
 10
867.1928742435849
 20
-740.0343497603546
 30
0.0
 41
1.5
 42
1.5
 43
1.5
 50
90.0
  0
TEXT
  5
451
  8
回07-寸法
  6
CONTINUOUS
 62
     5
 10
866.6928742435846
 20
-752.9295192165655
 30
0.0
 40
4.0
  1
2.9
 50
90.0
  0
POINT
  5
452
  8
DEFPOINTS
  6
CONTINUOUS
 62
     0
 10
862.3802015636631
 20
-737.1343497603548
 30
0.0
  0
POINT
  5
453
  8
DEFPOINTS
  6
CONTINUOUS
 62
     0
 10
862.3040810961743
 20
-740.0343497603546
 30
0.0
  0
POINT
  5
454
  8
DEFPOINTS
  6
CONTINUOUS
 62
     0
 10
867.1928742435849
 20
-740.0343497603546
 30
0.0
  0
ENDBLK
  5
456
  8
0
  6
CONTINUOUS
 62
     1
  0
BLOCK
  8
0
  2
*D4343
 70
     1
 10
0.0
 20
0.0
 30
0.0
  3
*D4343
  1

  0
LINE
  5
458
  8
回07-寸法
  6
CONTINUOUS
 62
     5
 10
828.5529557807253
 20
-746.846284704922
 30
0.0
 11
811.9145788047418
 21
-746.846284704922
 31
0.0
  0
LINE
  5
45A
  8
回07-寸法
  6
CONTINUOUS
 62
     5
 10
821.8802015636626
 20
-737.1343497603549
 30
0.0
 11
811.9145788047418
 21
-737.1343497603549
 31
0.0
  0
LINE
  5
45B
  8
回07-寸法
  6
CONTINUOUS
 62
     5
 10
812.9145788047416
 20
-747.846284704922
 30
0.0
 11
812.9145788047416
 21
-758.4424805040851
 31
0.0
  0
LINE
  5
45C
  8
回07-寸法
  6
CONTINUOUS
 62
     5
 10
812.9145788047416
 20
-746.846284704922
 30
0.0
 11
812.9145788047416
 21
-737.1343497603549
 31
0.0
  0
LINE
  5
45D
  8
回07-寸法
  6
CONTINUOUS
 62
     5
 10
812.9145788047416
 20
-736.1343497603551
 30
0.0
 11
812.9145788047416
 21
-735.1343497603551
 31
0.0
  0
INSERT
  5
45E
  8
回07-寸法
  6
CONTINUOUS
 62
     5
  2
_OPEN
 10
812.9145788047416
 20
-746.846284704922
 30
0.0
 50
90.0
  0
INSERT
  5
45F
  8
回07-寸法
  6
CONTINUOUS
 62
     5
  2
_OPEN
 10
812.9145788047416
 20
-737.1343497603549
 30
0.0
 50
270.0
  0
TEXT
  5
460
  8
回07-寸法
  6
CONTINUOUS
 62
     5
 10
812.4145788047417
 20
-758.556921978193
 30
0.0
 40
4.0
  1
9.71
 50
90.0
  0
POINT
  5
461
  8
DEFPOINTS
  6
CONTINUOUS
 62
     0
 10
828.5529557807253
 20
-746.846284704922
 30
0.0
  0
POINT
  5
462
  8
DEFPOINTS
  6
CONTINUOUS
 62
     0
 10
821.8802015636626
 20
-737.1343497603549
 30
0.0
  0
POINT
  5
463
  8
DEFPOINTS
  6
CONTINUOUS
 62
     0
 10
812.9145788047416
 20
-737.1343497603549
 30
0.0
  0
ENDBLK
  5
465
  8
0
  6
CONTINUOUS
 62
     1
  0
BLOCK
  8
0
  2
*D4444
 70
     1
 10
0.0
 20
0.0
 30
0.0
  3
*D4444
  1

  0
LINE
  5
467
  8
回07-寸法
  6
CONTINUOUS
 62
     5
 10
821.9563220311513
 20
-740.034349760355
 30
0.0
 11
817.4690398437665
 21
-740.034349760355
 31
0.0
  0
LINE
  5
468
  8
回07-寸法
  6
CONTINUOUS
 62
     5
 10
821.8802015636626
 20
-737.1343497603549
 30
0.0
 11
817.4690398437665
 21
-737.1343497603549
 31
0.0
  0
LINE
  5
469
  8
回07-寸法
  6
CONTINUOUS
 62
     5
 10
818.4690398437663
 20
-741.0343497603551
 30
0.0
 11
818.4690398437663
 21
-756.4821563971147
 31
0.0
  0
LINE
  5
46A
  8
回07-寸法
  6
CONTINUOUS
 62
     5
 10
818.4690398437663
 20
-740.034349760355
 30
0.0
 11
818.4690398437663
 21
-737.1343497603549
 31
0.0
  0
LINE
  5
46B
  8
回07-寸法
  6
CONTINUOUS
 62
     5
 10
818.4690398437663
 20
-736.1343497603551
 30
0.0
 11
818.4690398437663
 21
-735.1343497603551
 31
0.0
  0
INSERT
  5
46C
  8
回07-寸法
  6
CONTINUOUS
 62
     5
  2
_OPEN
 10
818.4690398437663
 20
-740.034349760355
 30
0.0
 50
90.0
  0
INSERT
  5
46D
  8
回07-寸法
  6
CONTINUOUS
 62
     5
  2
_OPEN
 10
818.4690398437663
 20
-737.1343497603549
 30
0.0
 50
270.0
  0
TEXT
  5
46E
  8
回07-寸法
  6
CONTINUOUS
 62
     5
 10
817.9690398437665
 20
-756.5821563971146
 30
0.0
 40
4.0
  1
2.9
 50
90.0
  0
POINT
  5
46F
  8
DEFPOINTS
  6
CONTINUOUS
 62
     0
 10
821.9563220311513
 20
-740.034349760355
 30
0.0
  0
POINT
  5
470
  8
DEFPOINTS
  6
CONTINUOUS
 62
     0
 10
821.8802015636626
 20
-737.1343497603549
 30
0.0
  0
POINT
  5
471
  8
DEFPOINTS
  6
CONTINUOUS
 62
     0
 10
818.4690398437663
 20
-737.1343497603549
 30
0.0
  0
ENDBLK
  5
473
  8
0
  6
CONTINUOUS
 62
     1
  0
BLOCK
  8
0
  2
*D4545
 70
     1
 10
0.0
 20
0.0
 30
0.0
  3
*D4545
  1

  0
LINE
  5
475
  8
回07-寸法
  6
CONTINUOUS
 62
     5
 10
849.6290762482145
 20
-807.0343497603554
 30
0.0
 11
849.6290762482145
 21
-843.9216849785019
 31
0.0
  0
LINE
  5
477
  8
回07-寸法
  6
CONTINUOUS
 62
     5
 10
858.1290762482147
 20
-807.0343497603554
 30
0.0
 11
858.1290762482147
 21
-843.9216849785019
 31
0.0
  0
LINE
  5
478
  8
回07-寸法
  6
CONTINUOUS
 62
     5
 10
859.6290762482146
 20
-842.9216849785017
 30
0.0
 11
874.0690762482147
 21
-842.9216849785017
 31
0.0
  0
LINE
  5
479
  8
回07-寸法
  6
CONTINUOUS
 62
     5
 10
849.6290762482145
 20
-842.9216849785017
 30
0.0
 11
858.1290762482147
 21
-842.9216849785017
 31
0.0
  0
LINE
  5
47A
  8
回07-寸法
  6
CONTINUOUS
 62
     5
 10
848.1290762482146
 20
-842.9216849785017
 30
0.0
 11
846.6290762482147
 21
-842.9216849785017
 31
0.0
  0
INSERT
  5
47B
  8
回07-寸法
  6
CONTINUOUS
 62
     5
  2
_OPEN
 10
849.6290762482145
 20
-842.9216849785017
 30
0.0
 41
1.5
 42
1.5
 43
1.5
  0
INSERT
  5
47C
  8
回07-寸法
  6
CONTINUOUS
 62
     5
  2
_OPEN
 10
858.1290762482147
 20
-842.9216849785017
 30
0.0
 41
1.5
 42
1.5
 43
1.5
 50
180.0
  0
INSERT
  5
47D
  8
回07-寸法
  6
CONTINUOUS
 62
     5
 66
     1
  2
*X9494
 10
0.0
 20
0.0
 30
0.0
  0
SEQEND
  5
782
  8
0
  6
CONTINUOUS
 62
     1
  0
POINT
  5
47E
  8
DEFPOINTS
  6
CONTINUOUS
 62
     0
 10
849.6290762482145
 20
-807.0343497603554
 30
0.0
  0
POINT
  5
47F
  8
DEFPOINTS
  6
CONTINUOUS
 62
     0
 10
858.1290762482147
 20
-807.0343497603554
 30
0.0
  0
POINT
  5
480
  8
DEFPOINTS
  6
CONTINUOUS
 62
     0
 10
858.1290762482147
 20
-842.9216849785017
 30
0.0
  0
ENDBLK
  5
482
  8
0
  6
CONTINUOUS
 62
     1
  0
BLOCK
  8
0
  2
*D4646
 70
     1
 10
0.0
 20
0.0
 30
0.0
  3
*D4646
  1

  0
LINE
  5
484
  8
回07-寸法
  6
CONTINUOUS
 62
     5
 10
758.5802015636627
 20
-737.1343497603544
 30
0.0
 11
758.5802015636627
 21
-843.9216849785019
 31
0.0
  0
LINE
  5
485
  8
回07-寸法
  6
CONTINUOUS
 62
     5
 10
849.6290762482145
 20
-807.0343497603554
 30
0.0
 11
849.6290762482145
 21
-843.9216849785019
 31
0.0
  0
LINE
  5
486
  8
回07-寸法
  6
CONTINUOUS
 62
     5
 10
760.0802015636627
 20
-842.9216849785017
 30
0.0
 11
848.1290762482146
 21
-842.9216849785017
 31
0.0
  0
INSERT
  5
487
  8
回07-寸法
  6
CONTINUOUS
 62
     5
  2
_OPEN
 10
758.5802015636627
 20
-842.9216849785017
 30
0.0
 41
1.5
 42
1.5
 43
1.5
 50
180.0
  0
INSERT
  5
488
  8
回07-寸法
  6
CONTINUOUS
 62
     5
  2
_OPEN
 10
849.6290762482145
 20
-842.9216849785017
 30
0.0
 41
1.5
 42
1.5
 43
1.5
  0
TEXT
  5
489
  8
回07-寸法
  6
CONTINUOUS
 62
     5
 10
796.6974181688847
 20
-842.2216849785016
 30
0.0
 40
4.0
  1
(91.05)
  0
POINT
  5
48A
  8
DEFPOINTS
  6
CONTINUOUS
 62
     0
 10
758.5802015636627
 20
-737.1343497603544
 30
0.0
  0
POINT
  5
48B
  8
DEFPOINTS
  6
CONTINUOUS
 62
     0
 10
849.6290762482145
 20
-807.0343497603554
 30
0.0
  0
POINT
  5
48C
  8
DEFPOINTS
  6
CONTINUOUS
 62
     0
 10
849.6290762482145
 20
-842.9216849785017
 30
0.0
  0
ENDBLK
  5
48E
  8
0
  6
CONTINUOUS
 62
     1
  0
BLOCK
  8
0
  2
*D4747
 70
     1
 10
0.0
 20
0.0
 30
0.0
  3
*D4747
  1

  0
LINE
  5
490
  8
回07-寸法
  6
CONTINUOUS
 62
     5
 10
828.6290762482142
 20
-807.034349760355
 30
0.0
 11
828.6290762482142
 21
-831.8397809765711
 31
0.0
  0
LINE
  5
491
  8
回07-寸法
  6
CONTINUOUS
 62
     5
 10
838.1290762482144
 20
-807.0343497603554
 30
0.0
 11
838.1290762482144
 21
-831.8397809765711
 31
0.0
  0
LINE
  5
492
  8
回07-寸法
  6
CONTINUOUS
 62
     5
 10
827.1290762482141
 20
-830.8397809765711
 30
0.0
 11
812.6062335357396
 21
-830.8397809765711
 31
0.0
  0
LINE
  5
493
  8
回07-寸法
  6
CONTINUOUS
 62
     5
 10
828.6290762482142
 20
-830.8397809765711
 30
0.0
 11
838.1290762482144
 21
-830.8397809765711
 31
0.0
  0
LINE
  5
494
  8
回07-寸法
  6
CONTINUOUS
 62
     5
 10
839.6290762482145
 20
-830.8397809765711
 30
0.0
 11
841.1290762482144
 21
-830.8397809765711
 31
0.0
  0
INSERT
  5
495
  8
回07-寸法
  6
CONTINUOUS
 62
     5
  2
_OPEN
 10
828.6290762482142
 20
-830.8397809765711
 30
0.0
 41
1.5
 42
1.5
 43
1.5
  0
INSERT
  5
496
  8
回07-寸法
  6
CONTINUOUS
 62
     5
  2
_OPEN
 10
838.1290762482144
 20
-830.8397809765711
 30
0.0
 41
1.5
 42
1.5
 43
1.5
 50
180.0
  0
INSERT
  5
497
  8
回07-寸法
  6
CONTINUOUS
 62
     5
 66
     1
  2
*X9595
 10
0.0
 20
0.0
 30
0.0
  0
SEQEND
  5
788
  8
0
  6
CONTINUOUS
 62
     1
  0
POINT
  5
498
  8
DEFPOINTS
  6
CONTINUOUS
 62
     0
 10
828.6290762482142
 20
-807.034349760355
 30
0.0
  0
POINT
  5
499
  8
DEFPOINTS
  6
CONTINUOUS
 62
     0
 10
838.1290762482144
 20
-807.0343497603554
 30
0.0
  0
POINT
  5
49A
  8
DEFPOINTS
  6
CONTINUOUS
 62
     0
 10
838.1290762482144
 20
-830.8397809765711
 30
0.0
  0
ENDBLK
  5
49C
  8
0
  6
CONTINUOUS
 62
     1
  0
BLOCK
  8
0
  2
*D4848
 70
     1
 10
0.0
 20
0.0
 30
0.0
  3
*D4848
  1

  0
LINE
  5
49E
  8
回07-寸法
  6
CONTINUOUS
 62
     5
 10
758.5802015636627
 20
-737.1343497603544
 30
0.0
 11
758.5802015636627
 21
-831.8397809765711
 31
0.0
  0
LINE
  5
49F
  8
回07-寸法
  6
CONTINUOUS
 62
     5
 10
828.6290762482142
 20
-807.034349760355
 30
0.0
 11
828.6290762482142
 21
-831.8397809765711
 31
0.0
  0
LINE
  5
4A0
  8
回07-寸法
  6
CONTINUOUS
 62
     5
 10
760.0802015636627
 20
-830.8397809765711
 30
0.0
 11
827.1290762482141
 21
-830.8397809765711
 31
0.0
  0
INSERT
  5
4A1
  8
回07-寸法
  6
CONTINUOUS
 62
     5
  2
_OPEN
 10
758.5802015636627
 20
-830.8397809765711
 30
0.0
 41
1.5
 42
1.5
 43
1.5
 50
180.0
  0
INSERT
  5
4A2
  8
回07-寸法
  6
CONTINUOUS
 62
     5
  2
_OPEN
 10
828.6290762482142
 20
-830.8397809765711
 30
0.0
 41
1.5
 42
1.5
 43
1.5
  0
TEXT
  5
4A3
  8
回07-寸法
  6
CONTINUOUS
 62
     5
 10
785.8046389059385
 20
-830.1397809765711
 30
0.0
 40
4.0
  1
(70.05)
  0
POINT
  5
4A4
  8
DEFPOINTS
  6
CONTINUOUS
 62
     0
 10
758.5802015636627
 20
-737.1343497603544
 30
0.0
  0
POINT
  5
4A5
  8
DEFPOINTS
  6
CONTINUOUS
 62
     0
 10
828.6290762482142
 20
-807.034349760355
 30
0.0
  0
POINT
  5
4A6
  8
DEFPOINTS
  6
CONTINUOUS
 62
     0
 10
828.6290762482142
 20
-830.8397809765711
 30
0.0
  0
ENDBLK
  5
4A8
  8
0
  6
CONTINUOUS
 62
     1
  0
BLOCK
  8
0
  2
*D4949
 70
     1
 10
0.0
 20
0.0
 30
0.0
  3
*D4949
  1

  0
LINE
  5
4AA
  8
回07-寸法
  6
CONTINUOUS
 62
     5
 10
862.3802015636631
 20
-737.1343013895425
 30
0.0
 11
899.4372444125515
 21
-737.1343013895425
 31
0.0
  0
LINE
  5
4AB
  8
回07-寸法
  6
CONTINUOUS
 62
     5
 10
858.0290762482146
 20
-807.1343497603555
 30
0.0
 11
899.4372444125515
 21
-807.1343497603555
 31
0.0
  0
LINE
  5
4AC
  8
回07-寸法
  6
CONTINUOUS
 62
     5
 10
898.4372444125515
 20
-738.6343013895425
 30
0.0
 11
898.4372444125515
 21
-805.6343497603553
 31
0.0
  0
INSERT
  5
4AD
  8
回07-寸法
  6
CONTINUOUS
 62
     5
  2
_OPEN
 10
898.4372444125515
 20
-737.1343013895425
 30
0.0
 41
1.5
 42
1.5
 43
1.5
 50
90.0
  0
INSERT
  5
4AE
  8
回07-寸法
  6
CONTINUOUS
 62
     5
  2
_OPEN
 10
898.4372444125515
 20
-807.1343497603555
 30
0.0
 41
1.5
 42
1.5
 43
1.5
 50
270.0
  0
INSERT
  5
4AF
  8
回07-寸法
  6
CONTINUOUS
 62
     5
 66
     1
  2
*X9696
 10
0.0
 20
0.0
 30
0.0
  0
SEQEND
  5
78E
  8
0
  6
CONTINUOUS
 62
     1
  0
POINT
  5
4B0
  8
DEFPOINTS
  6
CONTINUOUS
 62
     0
 10
862.3802015636631
 20
-737.1343013895425
 30
0.0
  0
POINT
  5
4B1
  8
DEFPOINTS
  6
CONTINUOUS
 62
     0
 10
858.0290762482146
 20
-807.1343497603555
 30
0.0
  0
POINT
  5
4B2
  8
DEFPOINTS
  6
CONTINUOUS
 62
     0
 10
898.4372444125515
 20
-807.1343497603555
 30
0.0
  0
ENDBLK
  5
4B4
  8
0
  6
CONTINUOUS
 62
     1
  0
BLOCK
  8
0
  2
*D5050
 70
     1
 10
0.0
 20
0.0
 30
0.0
  3
*D5050
  1

  0
LINE
  5
4B6
  8
回07-寸法
  6
CONTINUOUS
 62
     5
 10
829.1290762482141
 20
-807.1343497603551
 30
0.0
 11
789.6401786880306
 21
-807.1343497603551
 31
0.0
  0
LINE
  5
4B7
  8
回07-寸法
  6
CONTINUOUS
 62
     5
 10
821.8802015636626
 20
-737.1343497603548
 30
0.0
 11
789.6401786880306
 21
-737.1343497603548
 31
0.0
  0
LINE
  5
4B8
  8
回07-寸法
  6
CONTINUOUS
 62
     5
 10
790.6401786880307
 20
-805.6343497603553
 30
0.0
 11
790.6401786880307
 21
-738.6343497603547
 31
0.0
  0
INSERT
  5
4B9
  8
回07-寸法
  6
CONTINUOUS
 62
     5
  2
_OPEN
 10
790.6401786880307
 20
-807.1343497603551
 30
0.0
 41
1.5
 42
1.5
 43
1.5
 50
270.0
  0
INSERT
  5
4BA
  8
回07-寸法
  6
CONTINUOUS
 62
     5
  2
_OPEN
 10
790.6401786880307
 20
-737.1343497603548
 30
0.0
 41
1.5
 42
1.5
 43
1.5
 50
90.0
  0
INSERT
  5
4BB
  8
回07-寸法
  6
CONTINUOUS
 62
     5
 66
     1
  2
*X9797
 10
0.0
 20
0.0
 30
0.0
  0
SEQEND
  5
794
  8
0
  6
CONTINUOUS
 62
     1
  0
POINT
  5
4BC
  8
DEFPOINTS
  6
CONTINUOUS
 62
     0
 10
829.1290762482141
 20
-807.1343497603551
 30
0.0
  0
POINT
  5
4BD
  8
DEFPOINTS
  6
CONTINUOUS
 62
     0
 10
821.8802015636626
 20
-737.1343497603548
 30
0.0
  0
POINT
  5
4BE
  8
DEFPOINTS
  6
CONTINUOUS
 62
     0
 10
790.6401786880307
 20
-737.1343497603548
 30
0.0
  0
ENDBLK
  5
4C0
  8
0
  6
CONTINUOUS
 62
     1
  0
BLOCK
  8
0
  2
*D5151
 70
     1
 10
0.0
 20
0.0
 30
0.0
  3
*D5151
  1

  0
LINE
  5
4C2
  8
回07-寸法
  6
CONTINUOUS
 62
     5
 10
765.9302015636627
 20
-632.9643497603544
 30
0.0
 11
737.5802015636629
 21
-632.9643497603544
 31
0.0
  0
LINE
  5
4C3
  8
回07-寸法
  6
CONTINUOUS
 62
     5
 10
758.5802015636627
 20
-625.0343497603546
 30
0.0
 11
737.5802015636629
 21
-625.0343497603546
 31
0.0
  0
LINE
  5
4C4
  8
回07-寸法
  6
CONTINUOUS
 62
     5
 10
738.5802015636627
 20
-623.5343497603546
 30
0.0
 11
738.5802015636627
 21
-609.423057892546
 31
0.0
  0
LINE
  5
4C5
  8
回07-寸法
  6
CONTINUOUS
 62
     5
 10
738.5802015636627
 20
-632.9643497603544
 30
0.0
 11
738.5802015636627
 21
-625.0343497603546
 31
0.0
  0
LINE
  5
4C6
  8
回07-寸法
  6
CONTINUOUS
 62
     5
 10
738.5802015636627
 20
-634.4643497603543
 30
0.0
 11
738.5802015636627
 21
-635.9643497603546
 31
0.0
  0
INSERT
  5
4C7
  8
回07-寸法
  6
CONTINUOUS
 62
     5
  2
_OPEN
 10
738.5802015636627
 20
-632.9643497603544
 30
0.0
 41
1.5
 42
1.5
 43
1.5
 50
90.0
  0
INSERT
  5
4C8
  8
回07-寸法
  6
CONTINUOUS
 62
     5
  2
_OPEN
 10
738.5802015636627
 20
-625.0343497603546
 30
0.0
 41
1.5
 42
1.5
 43
1.5
 50
270.0
  0
TEXT
  5
4C9
  8
回07-寸法
  6
CONTINUOUS
 62
     5
 10
737.8802015636629
 20
-622.1359245635039
 30
0.0
 40
4.0
  1
(7.93)
 50
90.0
  0
POINT
  5
4CA
  8
DEFPOINTS
  6
CONTINUOUS
 62
     0
 10
765.9302015636627
 20
-632.9643497603544
 30
0.0
  0
POINT
  5
4CB
  8
DEFPOINTS
  6
CONTINUOUS
 62
     0
 10
758.5802015636627
 20
-625.0343497603546
 30
0.0
  0
POINT
  5
4CC
  8
DEFPOINTS
  6
CONTINUOUS
 62
     0
 10
738.5802015636627
 20
-625.0343497603546
 30
0.0
  0
ENDBLK
  5
4CE
  8
0
  6
CONTINUOUS
 62
     1
  0
BLOCK
  8
0
  2
*D5252
 70
     1
 10
0.0
 20
0.0
 30
0.0
  3
*D5252
  1

  0
LINE
  5
4D0
  8
回07-寸法
  6
CONTINUOUS
 62
     5
 10
763.5802015636627
 20
-630.9343497603545
 30
0.0
 11
728.5802015636633
 21
-630.9343497603545
 31
0.0
  0
LINE
  5
4D1
  8
回07-寸法
  6
CONTINUOUS
 62
     5
 10
758.5802015636627
 20
-625.0343497603546
 30
0.0
 11
728.5802015636633
 21
-625.0343497603546
 31
0.0
  0
LINE
  5
4D2
  8
回07-寸法
  6
CONTINUOUS
 62
     5
 10
729.5802015636633
 20
-623.5343497603546
 30
0.0
 11
729.5802015636633
 21
-612.2230578925458
 31
0.0
  0
LINE
  5
4D3
  8
回07-寸法
  6
CONTINUOUS
 62
     5
 10
729.5802015636633
 20
-630.9343497603545
 30
0.0
 11
729.5802015636633
 21
-625.0343497603546
 31
0.0
  0
LINE
  5
4D4
  8
回07-寸法
  6
CONTINUOUS
 62
     5
 10
729.5802015636633
 20
-632.4343497603543
 30
0.0
 11
729.5802015636633
 21
-633.9343497603545
 31
0.0
  0
INSERT
  5
4D5
  8
回07-寸法
  6
CONTINUOUS
 62
     5
  2
_OPEN
 10
729.5802015636633
 20
-630.9343497603545
 30
0.0
 41
1.5
 42
1.5
 43
1.5
 50
90.0
  0
INSERT
  5
4D6
  8
回07-寸法
  6
CONTINUOUS
 62
     5
  2
_OPEN
 10
729.5802015636633
 20
-625.0343497603546
 30
0.0
 41
1.5
 42
1.5
 43
1.5
 50
270.0
  0
TEXT
  5
4D7
  8
回07-寸法
  6
CONTINUOUS
 62
     5
 10
728.8802015636633
 20
-622.1359245635039
 30
0.0
 40
4.0
  1
(5.9)
 50
90.0
  0
POINT
  5
4D8
  8
DEFPOINTS
  6
CONTINUOUS
 62
     0
 10
763.5802015636627
 20
-630.9343497603545
 30
0.0
  0
POINT
  5
4D9
  8
DEFPOINTS
  6
CONTINUOUS
 62
     0
 10
758.5802015636627
 20
-625.0343497603546
 30
0.0
  0
POINT
  5
4DA
  8
DEFPOINTS
  6
CONTINUOUS
 62
     0
 10
729.5802015636633
 20
-625.0343497603546
 30
0.0
  0
ENDBLK
  5
4DC
  8
0
  6
CONTINUOUS
 62
     1
  0
BLOCK
  8
0
  2
*D5353
 70
     1
 10
0.0
 20
0.0
 30
0.0
  3
*D5353
  1

  0
LINE
  5
4DE
  8
回07-寸法
  6
CONTINUOUS
 62
     5
 10
763.0802015636627
 20
-630.4343497603545
 30
0.0
 11
719.580201563664
 21
-630.4343497603545
 31
0.0
  0
LINE
  5
4DF
  8
回07-寸法
  6
CONTINUOUS
 62
     5
 10
758.5802015636627
 20
-625.0343497603546
 30
0.0
 11
719.580201563664
 21
-625.0343497603546
 31
0.0
  0
LINE
  5
4E0
  8
回07-寸法
  6
CONTINUOUS
 62
     5
 10
720.5802015636638
 20
-623.5343497603546
 30
0.0
 11
720.5802015636638
 21
-611.8374993666539
 31
0.0
  0
LINE
  5
4E1
  8
回07-寸法
  6
CONTINUOUS
 62
     5
 10
720.5802015636638
 20
-630.4343497603545
 30
0.0
 11
720.5802015636638
 21
-625.0343497603546
 31
0.0
  0
LINE
  5
4E2
  8
回07-寸法
  6
CONTINUOUS
 62
     5
 10
720.5802015636638
 20
-631.9343497603544
 30
0.0
 11
720.5802015636638
 21
-633.4343497603545
 31
0.0
  0
INSERT
  5
4E3
  8
回07-寸法
  6
CONTINUOUS
 62
     5
  2
_OPEN
 10
720.5802015636638
 20
-630.4343497603545
 30
0.0
 41
1.5
 42
1.5
 43
1.5
 50
90.0
  0
INSERT
  5
4E4
  8
回07-寸法
  6
CONTINUOUS
 62
     5
  2
_OPEN
 10
720.5802015636638
 20
-625.0343497603546
 30
0.0
 41
1.5
 42
1.5
 43
1.5
 50
270.0
  0
TEXT
  5
4E5
  8
回07-寸法
  6
CONTINUOUS
 62
     5
 10
719.8802015636638
 20
-622.1359245635039
 30
0.0
 40
4.0
  1
(5.4)
 50
90.0
  0
POINT
  5
4E6
  8
DEFPOINTS
  6
CONTINUOUS
 62
     0
 10
763.0802015636627
 20
-630.4343497603545
 30
0.0
  0
POINT
  5
4E7
  8
DEFPOINTS
  6
CONTINUOUS
 62
     0
 10
758.5802015636627
 20
-625.0343497603546
 30
0.0
  0
POINT
  5
4E8
  8
DEFPOINTS
  6
CONTINUOUS
 62
     0
 10
720.5802015636638
 20
-625.0343497603546
 30
0.0
  0
ENDBLK
  5
4EA
  8
0
  6
CONTINUOUS
 62
     1
  0
BLOCK
  8
0
  2
*D5454
 70
     1
 10
0.0
 20
0.0
 30
0.0
  3
*D5454
  1

  0
LINE
  5
4EC
  8
回07-寸法
  6
CONTINUOUS
 62
     5
 10
765.9302015636627
 20
-724.4043497603544
 30
0.0
 11
737.5802015636629
 21
-724.4043497603544
 31
0.0
  0
LINE
  5
4ED
  8
回07-寸法
  6
CONTINUOUS
 62
     5
 10
758.5802015636627
 20
-737.1343497603544
 30
0.0
 11
737.5802015636629
 21
-737.1343497603544
 31
0.0
  0
LINE
  5
4EE
  8
回07-寸法
  6
CONTINUOUS
 62
     5
 10
738.5802015636627
 20
-738.6343497603546
 30
0.0
 11
738.5802015636627
 21
-751.6171924728296
 31
0.0
  0
LINE
  5
4EF
  8
回07-寸法
  6
CONTINUOUS
 62
     5
 10
738.5802015636627
 20
-724.4043497603544
 30
0.0
 11
738.5802015636627
 21
-737.1343497603544
 31
0.0
  0
LINE
  5
4F0
  8
回07-寸法
  6
CONTINUOUS
 62
     5
 10
738.5802015636627
 20
-722.9043497603544
 30
0.0
 11
738.5802015636627
 21
-721.4043497603544
 31
0.0
  0
INSERT
  5
4F1
  8
回07-寸法
  6
CONTINUOUS
 62
     5
  2
_OPEN
 10
738.5802015636627
 20
-724.4043497603544
 30
0.0
 41
1.5
 42
1.5
 43
1.5
 50
270.0
  0
INSERT
  5
4F2
  8
回07-寸法
  6
CONTINUOUS
 62
     5
  2
_OPEN
 10
738.5802015636627
 20
-737.1343497603544
 30
0.0
 41
1.5
 42
1.5
 43
1.5
 50
90.0
  0
TEXT
  5
4F3
  8
回07-寸法
  6
CONTINUOUS
 62
     5
 10
738.0802015636627
 20
-751.7171924728297
 30
0.0
 40
4.0
  1
12.73
 50
90.0
  0
POINT
  5
4F4
  8
DEFPOINTS
  6
CONTINUOUS
 62
     0
 10
765.9302015636627
 20
-724.4043497603544
 30
0.0
  0
POINT
  5
4F5
  8
DEFPOINTS
  6
CONTINUOUS
 62
     0
 10
758.5802015636627
 20
-737.1343497603544
 30
0.0
  0
POINT
  5
4F6
  8
DEFPOINTS
  6
CONTINUOUS
 62
     0
 10
738.5802015636627
 20
-737.1343497603544
 30
0.0
  0
ENDBLK
  5
4F8
  8
0
  6
CONTINUOUS
 62
     1
  0
BLOCK
  8
0
  2
*D5555
 70
     1
 10
0.0
 20
0.0
 30
0.0
  3
*D5555
  1

  0
LINE
  5
4FA
  8
回07-寸法
  6
CONTINUOUS
 62
     5
 10
763.0802015636627
 20
-726.9343497603545
 30
0.0
 11
719.5802015636631
 21
-726.9343497603545
 31
0.0
  0
LINE
  5
4FB
  8
回07-寸法
  6
CONTINUOUS
 62
     5
 10
758.5802015636627
 20
-737.1343497603544
 30
0.0
 11
719.5802015636631
 21
-737.1343497603544
 31
0.0
  0
LINE
  5
4FC
  8
回07-寸法
  6
CONTINUOUS
 62
     5
 10
720.580201563663
 20
-738.6343497603546
 30
0.0
 11
720.580201563663
 21
-748.8549101177116
 31
0.0
  0
LINE
  5
4FD
  8
回07-寸法
  6
CONTINUOUS
 62
     5
 10
720.580201563663
 20
-726.9343497603545
 30
0.0
 11
720.580201563663
 21
-737.1343497603544
 31
0.0
  0
LINE
  5
4FE
  8
回07-寸法
  6
CONTINUOUS
 62
     5
 10
720.580201563663
 20
-725.4343497603545
 30
0.0
 11
720.580201563663
 21
-723.9343497603543
 31
0.0
  0
INSERT
  5
4FF
  8
回07-寸法
  6
CONTINUOUS
 62
     5
  2
_OPEN
 10
720.580201563663
 20
-726.9343497603545
 30
0.0
 41
1.5
 42
1.5
 43
1.5
 50
270.0
  0
INSERT
  5
500
  8
回07-寸法
  6
CONTINUOUS
 62
     5
  2
_OPEN
 10
720.580201563663
 20
-737.1343497603544
 30
0.0
 41
1.5
 42
1.5
 43
1.5
 50
90.0
  0
TEXT
  5
501
  8
回07-寸法
  6
CONTINUOUS
 62
     5
 10
720.0802015636631
 20
-748.9549101177116
 30
0.0
 40
4.0
  1
10.2
 50
90.0
  0
POINT
  5
502
  8
DEFPOINTS
  6
CONTINUOUS
 62
     0
 10
763.0802015636627
 20
-726.9343497603545
 30
0.0
  0
POINT
  5
503
  8
DEFPOINTS
  6
CONTINUOUS
 62
     0
 10
758.5802015636627
 20
-737.1343497603544
 30
0.0
  0
POINT
  5
504
  8
DEFPOINTS
  6
CONTINUOUS
 62
     0
 10
720.580201563663
 20
-737.1343497603544
 30
0.0
  0
ENDBLK
  5
506
  8
0
  6
CONTINUOUS
 62
     1
  0
BLOCK
  8
0
  2
*D5656
 70
     1
 10
0.0
 20
0.0
 30
0.0
  3
*D5656
  1

  0
LINE
  5
508
  8
回07-寸法
  6
CONTINUOUS
 62
     5
 10
920.6802015636627
 20
-630.9343497603545
 30
0.0
 11
920.6802015636627
 21
-595.6543497603545
 31
0.0
  0
LINE
  5
509
  8
回07-寸法
  6
CONTINUOUS
 62
     5
 10
925.6802015636628
 20
-625.0343497603544
 30
0.0
 11
925.6802015636628
 21
-595.6543497603545
 31
0.0
  0
LINE
  5
50A
  8
回07-寸法
  6
CONTINUOUS
 62
     5
 10
927.1802015636627
 20
-596.6543497603545
 30
0.0
 11
934.4770519573636
 21
-596.6543497603545
 31
0.0
  0
LINE
  5
50B
  8
回07-寸法
  6
CONTINUOUS
 62
     5
 10
920.6802015636627
 20
-596.6543497603545
 30
0.0
 11
925.6802015636628
 21
-596.6543497603545
 31
0.0
  0
LINE
  5
50C
  8
回07-寸法
  6
CONTINUOUS
 62
     5
 10
919.1802015636627
 20
-596.6543497603545
 30
0.0
 11
917.6802015636628
 21
-596.6543497603545
 31
0.0
  0
INSERT
  5
50D
  8
回07-寸法
  6
CONTINUOUS
 62
     5
  2
_OPEN
 10
920.6802015636627
 20
-596.6543497603545
 30
0.0
 41
1.5
 42
1.5
 43
1.5
  0
INSERT
  5
50E
  8
回07-寸法
  6
CONTINUOUS
 62
     5
  2
_OPEN
 10
925.6802015636628
 20
-596.6543497603545
 30
0.0
 41
1.5
 42
1.5
 43
1.5
 50
180.0
  0
TEXT
  5
50F
  8
回07-寸法
  6
CONTINUOUS
 62
     5
 10
928.5786267605132
 20
-595.9543497603545
 30
0.0
 40
4.0
  1
(5)
  0
POINT
  5
510
  8
DEFPOINTS
  6
CONTINUOUS
 62
     0
 10
920.6802015636627
 20
-630.9343497603545
 30
0.0
  0
POINT
  5
511
  8
DEFPOINTS
  6
CONTINUOUS
 62
     0
 10
925.6802015636628
 20
-625.0343497603544
 30
0.0
  0
POINT
  5
512
  8
DEFPOINTS
  6
CONTINUOUS
 62
     0
 10
925.6802015636628
 20
-596.6543497603545
 30
0.0
  0
ENDBLK
  5
514
  8
0
  6
CONTINUOUS
 62
     1
  0
BLOCK
  8
0
  2
*D5757
 70
     1
 10
0.0
 20
0.0
 30
0.0
  3
*D5757
  1

  0
LINE
  5
516
  8
回07-寸法
  6
CONTINUOUS
 62
     5
 10
918.3302015636627
 20
-632.9643497603544
 30
0.0
 11
918.3302015636627
 21
-604.6543497603545
 31
0.0
  0
LINE
  5
517
  8
回07-寸法
  6
CONTINUOUS
 62
     5
 10
925.6802015636628
 20
-625.0343497603544
 30
0.0
 11
925.6802015636628
 21
-604.6543497603545
 31
0.0
  0
LINE
  5
518
  8
回07-寸法
  6
CONTINUOUS
 62
     5
 10
927.1802015636627
 20
-605.6543497603545
 30
0.0
 11
941.2770519573635
 21
-605.6543497603545
 31
0.0
  0
LINE
  5
519
  8
回07-寸法
  6
CONTINUOUS
 62
     5
 10
918.3302015636627
 20
-605.6543497603545
 30
0.0
 11
925.6802015636628
 21
-605.6543497603545
 31
0.0
  0
LINE
  5
51A
  8
回07-寸法
  6
CONTINUOUS
 62
     5
 10
916.8302015636625
 20
-605.6543497603545
 30
0.0
 11
915.3302015636628
 21
-605.6543497603545
 31
0.0
  0
INSERT
  5
51B
  8
回07-寸法
  6
CONTINUOUS
 62
     5
  2
_OPEN
 10
918.3302015636627
 20
-605.6543497603545
 30
0.0
 41
1.5
 42
1.5
 43
1.5
  0
INSERT
  5
51C
  8
回07-寸法
  6
CONTINUOUS
 62
     5
  2
_OPEN
 10
925.6802015636628
 20
-605.6543497603545
 30
0.0
 41
1.5
 42
1.5
 43
1.5
 50
180.0
  0
TEXT
  5
51D
  8
回07-寸法
  6
CONTINUOUS
 62
     5
 10
928.5786267605132
 20
-604.9543497603544
 30
0.0
 40
4.0
  1
(7.35)
  0
POINT
  5
51E
  8
DEFPOINTS
  6
CONTINUOUS
 62
     0
 10
918.3302015636627
 20
-632.9643497603544
 30
0.0
  0
POINT
  5
51F
  8
DEFPOINTS
  6
CONTINUOUS
 62
     0
 10
925.6802015636628
 20
-625.0343497603544
 30
0.0
  0
POINT
  5
520
  8
DEFPOINTS
  6
CONTINUOUS
 62
     0
 10
925.6802015636628
 20
-605.6543497603545
 30
0.0
  0
ENDBLK
  5
522
  8
0
  6
CONTINUOUS
 62
     1
  0
BLOCK
  8
0
  2
*D5858
 70
     1
 10
0.0
 20
0.0
 30
0.0
  3
*D5858
  1

  0
LINE
  5
524
  8
回07-寸法
  6
CONTINUOUS
 62
     5
 10
763.5802015636627
 20
-630.9343497603545
 30
0.0
 11
763.5802015636627
 21
-595.6543497603545
 31
0.0
  0
LINE
  5
525
  8
回07-寸法
  6
CONTINUOUS
 62
     5
 10
758.5802015636627
 20
-625.0343497603546
 30
0.0
 11
758.5802015636627
 21
-595.6543497603545
 31
0.0
  0
LINE
  5
526
  8
回07-寸法
  6
CONTINUOUS
 62
     5
 10
757.0802015636627
 20
-596.6543497603545
 30
0.0
 11
752.897358851188
 21
-596.6543497603545
 31
0.0
  0
LINE
  5
527
  8
回07-寸法
  6
CONTINUOUS
 62
     5
 10
763.5802015636627
 20
-596.6543497603545
 30
0.0
 11
758.5802015636627
 21
-596.6543497603545
 31
0.0
  0
LINE
  5
528
  8
回07-寸法
  6
CONTINUOUS
 62
     5
 10
765.0802015636627
 20
-596.6543497603545
 30
0.0
 11
766.5802015636627
 21
-596.6543497603545
 31
0.0
  0
INSERT
  5
529
  8
回07-寸法
  6
CONTINUOUS
 62
     5
  2
_OPEN
 10
763.5802015636627
 20
-596.6543497603545
 30
0.0
 41
1.5
 42
1.5
 43
1.5
 50
180.0
  0
INSERT
  5
52A
  8
回07-寸法
  6
CONTINUOUS
 62
     5
  2
_OPEN
 10
758.5802015636627
 20
-596.6543497603545
 30
0.0
 41
1.5
 42
1.5
 43
1.5
  0
TEXT
  5
52B
  8
回07-寸法
  6
CONTINUOUS
 62
     5
 10
752.7973588511882
 20
-596.1543497603545
 30
0.0
 40
4.0
  1
5
  0
POINT
  5
52C
  8
DEFPOINTS
  6
CONTINUOUS
 62
     0
 10
763.5802015636627
 20
-630.9343497603545
 30
0.0
  0
POINT
  5
52D
  8
DEFPOINTS
  6
CONTINUOUS
 62
     0
 10
758.5802015636627
 20
-625.0343497603546
 30
0.0
  0
POINT
  5
52E
  8
DEFPOINTS
  6
CONTINUOUS
 62
     0
 10
758.5802015636627
 20
-596.6543497603545
 30
0.0
  0
ENDBLK
  5
530
  8
0
  6
CONTINUOUS
 62
     1
  0
BLOCK
  8
0
  2
*D5959
 70
     1
 10
0.0
 20
0.0
 30
0.0
  3
*D5959
  1

  0
LINE
  5
532
  8
回07-寸法
  6
CONTINUOUS
 62
     5
 10
765.9302015636627
 20
-632.9643497603552
 30
0.0
 11
765.9302015636627
 21
-604.6543497603545
 31
0.0
  0
LINE
  5
533
  8
回07-寸法
  6
CONTINUOUS
 62
     5
 10
758.5802015636627
 20
-625.0343497603546
 30
0.0
 11
758.5802015636627
 21
-604.6543497603545
 31
0.0
  0
LINE
  5
534
  8
回07-寸法
  6
CONTINUOUS
 62
     5
 10
757.0802015636627
 20
-605.6543497603545
 30
0.0
 11
746.097358851188
 21
-605.6543497603545
 31
0.0
  0
LINE
  5
535
  8
回07-寸法
  6
CONTINUOUS
 62
     5
 10
765.9302015636627
 20
-605.6543497603545
 30
0.0
 11
758.5802015636627
 21
-605.6543497603545
 31
0.0
  0
LINE
  5
536
  8
回07-寸法
  6
CONTINUOUS
 62
     5
 10
767.4302015636627
 20
-605.6543497603545
 30
0.0
 11
768.9302015636627
 21
-605.6543497603545
 31
0.0
  0
INSERT
  5
537
  8
回07-寸法
  6
CONTINUOUS
 62
     5
  2
_OPEN
 10
765.9302015636627
 20
-605.6543497603545
 30
0.0
 41
1.5
 42
1.5
 43
1.5
 50
180.0
  0
INSERT
  5
538
  8
回07-寸法
  6
CONTINUOUS
 62
     5
  2
_OPEN
 10
758.5802015636627
 20
-605.6543497603545
 30
0.0
 41
1.5
 42
1.5
 43
1.5
  0
TEXT
  5
539
  8
回07-寸法
  6
CONTINUOUS
 62
     5
 10
745.997358851188
 20
-605.1543497603545
 30
0.0
 40
4.0
  1
7.35
  0
POINT
  5
53A
  8
DEFPOINTS
  6
CONTINUOUS
 62
     0
 10
765.9302015636627
 20
-632.9643497603552
 30
0.0
  0
POINT
  5
53B
  8
DEFPOINTS
  6
CONTINUOUS
 62
     0
 10
758.5802015636627
 20
-625.0343497603546
 30
0.0
  0
POINT
  5
53C
  8
DEFPOINTS
  6
CONTINUOUS
 62
     0
 10
758.5802015636627
 20
-605.6543497603545
 30
0.0
  0
ENDBLK
  5
53E
  8
0
  6
CONTINUOUS
 62
     1
  0
BLOCK
  8
0
  2
*D6060
 70
     1
 10
0.0
 20
0.0
 30
0.0
  3
*D6060
  1

  0
LINE
  5
540
  8
回07-寸法
  6
CONTINUOUS
 62
     5
 10
921.1802015636628
 20
-630.4343497603545
 30
0.0
 11
921.1802015636628
 21
-586.6543497603545
 31
0.0
  0
LINE
  5
541
  8
回07-寸法
  6
CONTINUOUS
 62
     5
 10
925.6802015636628
 20
-625.0343497603544
 30
0.0
 11
925.6802015636628
 21
-586.6543497603545
 31
0.0
  0
LINE
  5
542
  8
回07-寸法
  6
CONTINUOUS
 62
     5
 10
927.1802015636627
 20
-587.6543497603545
 30
0.0
 11
938.8770519573634
 21
-587.6543497603545
 31
0.0
  0
LINE
  5
543
  8
回07-寸法
  6
CONTINUOUS
 62
     5
 10
921.1802015636628
 20
-587.6543497603545
 30
0.0
 11
925.6802015636628
 21
-587.6543497603545
 31
0.0
  0
LINE
  5
544
  8
回07-寸法
  6
CONTINUOUS
 62
     5
 10
919.6802015636627
 20
-587.6543497603545
 30
0.0
 11
918.1802015636627
 21
-587.6543497603545
 31
0.0
  0
INSERT
  5
545
  8
回07-寸法
  6
CONTINUOUS
 62
     5
  2
_OPEN
 10
921.1802015636628
 20
-587.6543497603545
 30
0.0
 41
1.5
 42
1.5
 43
1.5
  0
INSERT
  5
546
  8
回07-寸法
  6
CONTINUOUS
 62
     5
  2
_OPEN
 10
925.6802015636628
 20
-587.6543497603545
 30
0.0
 41
1.5
 42
1.5
 43
1.5
 50
180.0
  0
TEXT
  5
547
  8
回07-寸法
  6
CONTINUOUS
 62
     5
 10
928.5786267605132
 20
-586.9543497603545
 30
0.0
 40
4.0
  1
(4.5)
  0
POINT
  5
548
  8
DEFPOINTS
  6
CONTINUOUS
 62
     0
 10
921.1802015636628
 20
-630.4343497603545
 30
0.0
  0
POINT
  5
549
  8
DEFPOINTS
  6
CONTINUOUS
 62
     0
 10
925.6802015636628
 20
-625.0343497603544
 30
0.0
  0
POINT
  5
54A
  8
DEFPOINTS
  6
CONTINUOUS
 62
     0
 10
925.6802015636628
 20
-587.6543497603545
 30
0.0
  0
ENDBLK
  5
54C
  8
0
  6
CONTINUOUS
 62
     1
  0
BLOCK
  8
0
  2
*D6161
 70
     1
 10
0.0
 20
0.0
 30
0.0
  3
*D6161
  1

  0
LINE
  5
54E
  8
回07-寸法
  6
CONTINUOUS
 62
     5
 10
763.0802015636627
 20
-630.4343497603545
 30
0.0
 11
763.0802015636627
 21
-586.6543497603545
 31
0.0
  0
LINE
  5
54F
  8
回07-寸法
  6
CONTINUOUS
 62
     5
 10
758.5802015636627
 20
-625.0343497603546
 30
0.0
 11
758.5802015636627
 21
-586.6543497603545
 31
0.0
  0
LINE
  5
550
  8
回07-寸法
  6
CONTINUOUS
 62
     5
 10
757.0802015636627
 20
-587.6543497603545
 30
0.0
 11
748.5802015636627
 21
-587.6543497603545
 31
0.0
  0
LINE
  5
551
  8
回07-寸法
  6
CONTINUOUS
 62
     5
 10
763.0802015636627
 20
-587.6543497603545
 30
0.0
 11
758.5802015636627
 21
-587.6543497603545
 31
0.0
  0
LINE
  5
552
  8
回07-寸法
  6
CONTINUOUS
 62
     5
 10
764.5802015636627
 20
-587.6543497603545
 30
0.0
 11
766.0802015636627
 21
-587.6543497603545
 31
0.0
  0
INSERT
  5
553
  8
回07-寸法
  6
CONTINUOUS
 62
     5
  2
_OPEN
 10
763.0802015636627
 20
-587.6543497603545
 30
0.0
 41
1.5
 42
1.5
 43
1.5
 50
180.0
  0
INSERT
  5
554
  8
回07-寸法
  6
CONTINUOUS
 62
     5
  2
_OPEN
 10
758.5802015636627
 20
-587.6543497603545
 30
0.0
 41
1.5
 42
1.5
 43
1.5
  0
TEXT
  5
555
  8
回07-寸法
  6
CONTINUOUS
 62
     5
 10
748.4802015636627
 20
-587.1543497603545
 30
0.0
 40
4.0
  1
4.5
  0
POINT
  5
556
  8
DEFPOINTS
  6
CONTINUOUS
 62
     0
 10
763.0802015636627
 20
-630.4343497603545
 30
0.0
  0
POINT
  5
557
  8
DEFPOINTS
  6
CONTINUOUS
 62
     0
 10
758.5802015636627
 20
-625.0343497603546
 30
0.0
  0
POINT
  5
558
  8
DEFPOINTS
  6
CONTINUOUS
 62
     0
 10
758.5802015636627
 20
-587.6543497603545
 30
0.0
  0
ENDBLK
  5
55A
  8
0
  6
CONTINUOUS
 62
     1
  0
BLOCK
  8
0
  2
*D6262
 70
     1
 10
0.0
 20
0.0
 30
0.0
  3
*D6262
  1

  0
LINE
  5
55C
  8
回07-寸法
  6
CONTINUOUS
 62
     5
 10
763.0802015636627
 20
-630.4343497603545
 30
0.0
 11
719.5802015636632
 21
-630.4343497603545
 31
0.0
  0
LINE
  5
55D
  8
回07-寸法
  6
CONTINUOUS
 62
     5
 10
763.0802015636627
 20
-726.9343497603545
 30
0.0
 11
719.5802015636632
 21
-726.9343497603545
 31
0.0
  0
LINE
  5
55E
  8
回07-寸法
  6
CONTINUOUS
 62
     5
 10
720.5802015636633
 20
-631.9343497603544
 30
0.0
 11
720.5802015636633
 21
-725.4343497603545
 31
0.0
  0
INSERT
  5
55F
  8
回07-寸法
  6
CONTINUOUS
 62
     5
  2
_OPEN
 10
720.5802015636633
 20
-630.4343497603545
 30
0.0
 41
1.5
 42
1.5
 43
1.5
 50
90.0
  0
INSERT
  5
560
  8
回07-寸法
  6
CONTINUOUS
 62
     5
  2
_OPEN
 10
720.5802015636633
 20
-726.9343497603545
 30
0.0
 41
1.5
 42
1.5
 43
1.5
 50
270.0
  0
TEXT
  5
561
  8
回07-寸法
  6
CONTINUOUS
 62
     5
 10
720.0802015636632
 20
-683.4987912344623
 30
0.0
 40
4.0
  1
96.5
 50
90.0
  0
POINT
  5
562
  8
DEFPOINTS
  6
CONTINUOUS
 62
     0
 10
763.0802015636627
 20
-630.4343497603545
 30
0.0
  0
POINT
  5
563
  8
DEFPOINTS
  6
CONTINUOUS
 62
     0
 10
763.0802015636627
 20
-726.9343497603545
 30
0.0
  0
POINT
  5
564
  8
DEFPOINTS
  6
CONTINUOUS
 62
     0
 10
720.5802015636633
 20
-726.9343497603545
 30
0.0
  0
ENDBLK
  5
566
  8
0
  6
CONTINUOUS
 62
     1
  0
BLOCK
  8
0
  2
*D6363
 70
     1
 10
0.0
 20
0.0
 30
0.0
  3
*D6363
  1

  0
LINE
  5
568
  8
回07-寸法
  6
CONTINUOUS
 62
     5
 10
763.5802015636627
 20
-630.9343497603545
 30
0.0
 11
728.5802015636633
 21
-630.9343497603545
 31
0.0
  0
LINE
  5
569
  8
回07-寸法
  6
CONTINUOUS
 62
     5
 10
763.5802015636627
 20
-726.4343497603545
 30
0.0
 11
728.5802015636633
 21
-726.4343497603545
 31
0.0
  0
LINE
  5
56A
  8
回07-寸法
  6
CONTINUOUS
 62
     5
 10
729.5802015636633
 20
-632.4343497603543
 30
0.0
 11
729.5802015636633
 21
-724.9343497603545
 31
0.0
  0
INSERT
  5
56B
  8
回07-寸法
  6
CONTINUOUS
 62
     5
  2
_OPEN
 10
729.5802015636633
 20
-630.9343497603545
 30
0.0
 41
1.5
 42
1.5
 43
1.5
 50
90.0
  0
INSERT
  5
56C
  8
回07-寸法
  6
CONTINUOUS
 62
     5
  2
_OPEN
 10
729.5802015636633
 20
-726.4343497603545
 30
0.0
 41
1.5
 42
1.5
 43
1.5
 50
270.0
  0
TEXT
  5
56D
  8
回07-寸法
  6
CONTINUOUS
 62
     5
 10
728.0802015636632
 20
-700.6980038328873
 30
0.0
 40
4.0
  1
95.5(Viewing area)
 50
90.0
  0
POINT
  5
56E
  8
DEFPOINTS
  6
CONTINUOUS
 62
     0
 10
763.5802015636627
 20
-630.9343497603545
 30
0.0
  0
POINT
  5
56F
  8
DEFPOINTS
  6
CONTINUOUS
 62
     0
 10
763.5802015636627
 20
-726.4343497603545
 30
0.0
  0
POINT
  5
570
  8
DEFPOINTS
  6
CONTINUOUS
 62
     0
 10
729.5802015636633
 20
-726.4343497603545
 30
0.0
  0
ENDBLK
  5
572
  8
0
  6
CONTINUOUS
 62
     1
  0
BLOCK
  8
0
  2
*D6464
 70
     1
 10
0.0
 20
0.0
 30
0.0
  3
*D6464
  1

  0
LINE
  5
574
  8
回07-寸法
  6
CONTINUOUS
 62
     5
 10
765.9302015636627
 20
-632.9643497603544
 30
0.0
 11
737.5802015636633
 21
-632.9643497603544
 31
0.0
  0
LINE
  5
575
  8
回07-寸法
  6
CONTINUOUS
 62
     5
 10
765.9302015636627
 20
-724.4043497603544
 30
0.0
 11
737.5802015636633
 21
-724.4043497603544
 31
0.0
  0
LINE
  5
576
  8
回07-寸法
  6
CONTINUOUS
 62
     5
 10
738.5802015636633
 20
-634.4643497603543
 30
0.0
 11
738.5802015636633
 21
-722.9043497603544
 31
0.0
  0
INSERT
  5
577
  8
回07-寸法
  6
CONTINUOUS
 62
     5
  2
_OPEN
 10
738.5802015636633
 20
-632.9643497603544
 30
0.0
 41
1.5
 42
1.5
 43
1.5
 50
90.0
  0
INSERT
  5
578
  8
回07-寸法
  6
CONTINUOUS
 62
     5
  2
_OPEN
 10
738.5802015636633
 20
-724.4043497603544
 30
0.0
 41
1.5
 42
1.5
 43
1.5
 50
270.0
  0
TEXT
  5
579
  8
回07-寸法
  6
CONTINUOUS
 62
     5
 10
737.8802015636631
 20
-700.6980038328876
 30
0.0
 40
4.0
  1
91.44(Active area)
 50
90.0
  0
POINT
  5
57A
  8
DEFPOINTS
  6
CONTINUOUS
 62
     0
 10
765.9302015636627
 20
-632.9643497603544
 30
0.0
  0
POINT
  5
57B
  8
DEFPOINTS
  6
CONTINUOUS
 62
     0
 10
765.9302015636627
 20
-724.4043497603544
 30
0.0
  0
POINT
  5
57C
  8
DEFPOINTS
  6
CONTINUOUS
 62
     0
 10
738.5802015636633
 20
-724.4043497603544
 30
0.0
  0
ENDBLK
  5
57E
  8
0
  6
CONTINUOUS
 62
     1
  0
BLOCK
  8
0
  2
*D6565
 70
     1
 10
0.0
 20
0.0
 30
0.0
  3
*D6565
  1

  0
LINE
  5
580
  8
回07-寸法
  6
CONTINUOUS
 62
     5
 10
758.5802015636627
 20
-625.0343497603546
 30
0.0
 11
710.5802015636632
 21
-625.0343497603546
 31
0.0
  0
LINE
  5
581
  8
回07-寸法
  6
CONTINUOUS
 62
     5
 10
758.5802015636627
 20
-737.1343497603544
 30
0.0
 11
710.5802015636632
 21
-737.1343497603544
 31
0.0
  0
LINE
  5
582
  8
回07-寸法
  6
CONTINUOUS
 62
     5
 10
711.5802015636631
 20
-626.5343497603546
 30
0.0
 11
711.5802015636631
 21
-735.6343497603544
 31
0.0
  0
INSERT
  5
583
  8
回07-寸法
  6
CONTINUOUS
 62
     5
  2
_OPEN
 10
711.5802015636631
 20
-625.0343497603546
 30
0.0
 41
1.5
 42
1.5
 43
1.5
 50
90.0
  0
INSERT
  5
584
  8
回07-寸法
  6
CONTINUOUS
 62
     5
  2
_OPEN
 10
711.5802015636631
 20
-737.1343497603544
 30
0.0
 41
1.5
 42
1.5
 43
1.5
 50
270.0
  0
INSERT
  5
585
  8
回07-寸法
  6
CONTINUOUS
 62
     5
 66
     1
  2
*X9898
 10
0.0
 20
0.0
 30
0.0
  0
SEQEND
  5
79A
  8
0
  6
CONTINUOUS
 62
     1
  0
POINT
  5
586
  8
DEFPOINTS
  6
CONTINUOUS
 62
     0
 10
758.5802015636627
 20
-625.0343497603546
 30
0.0
  0
POINT
  5
587
  8
DEFPOINTS
  6
CONTINUOUS
 62
     0
 10
758.5802015636627
 20
-737.1343497603544
 30
0.0
  0
POINT
  5
588
  8
DEFPOINTS
  6
CONTINUOUS
 62
     0
 10
711.5802015636631
 20
-737.1343497603544
 30
0.0
  0
ENDBLK
  5
58A
  8
0
  6
CONTINUOUS
 62
     1
  0
BLOCK
  8
0
  2
*D6666
 70
     1
 10
0.0
 20
0.0
 30
0.0
  3
*D6666
  1

  0
LINE
  5
58C
  8
回07-寸法
  6
CONTINUOUS
 62
     5
 10
765.9302015636627
 20
-632.9643497603544
 30
0.0
 11
765.9302015636627
 21
-604.6543497603545
 31
0.0
  0
LINE
  5
58D
  8
回07-寸法
  6
CONTINUOUS
 62
     5
 10
918.3302015636623
 20
-632.9643497603536
 30
0.0
 11
918.3302015636623
 21
-604.6543497603545
 31
0.0
  0
LINE
  5
58E
  8
回07-寸法
  6
CONTINUOUS
 62
     5
 10
767.4302015636627
 20
-605.6543497603545
 30
0.0
 11
916.8302015636625
 21
-605.6543497603545
 31
0.0
  0
INSERT
  5
58F
  8
回07-寸法
  6
CONTINUOUS
 62
     5
  2
_OPEN
 10
765.9302015636627
 20
-605.6543497603545
 30
0.0
 41
1.5
 42
1.5
 43
1.5
 50
180.0
  0
INSERT
  5
590
  8
回07-寸法
  6
CONTINUOUS
 62
     5
  2
_OPEN
 10
918.3302015636623
 20
-605.6543497603545
 30
0.0
 41
1.5
 42
1.5
 43
1.5
  0
TEXT
  5
591
  8
回07-寸法
  6
CONTINUOUS
 62
     5
 10
820.3309889652372
 20
-604.9543497603544
 30
0.0
 40
4.0
  1
152.4(Active area)
  0
POINT
  5
592
  8
DEFPOINTS
  6
CONTINUOUS
 62
     0
 10
765.9302015636627
 20
-632.9643497603544
 30
0.0
  0
POINT
  5
593
  8
DEFPOINTS
  6
CONTINUOUS
 62
     0
 10
918.3302015636623
 20
-632.9643497603536
 30
0.0
  0
POINT
  5
594
  8
DEFPOINTS
  6
CONTINUOUS
 62
     0
 10
918.3302015636623
 20
-605.6543497603545
 30
0.0
  0
ENDBLK
  5
596
  8
0
  6
CONTINUOUS
 62
     1
  0
BLOCK
  8
0
  2
*D6767
 70
     1
 10
0.0
 20
0.0
 30
0.0
  3
*D6767
  1

  0
LINE
  5
598
  8
回07-寸法
  6
CONTINUOUS
 62
     5
 10
763.0802015636627
 20
-630.4343497603545
 30
0.0
 11
763.0802015636627
 21
-586.6543497603545
 31
0.0
  0
LINE
  5
599
  8
回07-寸法
  6
CONTINUOUS
 62
     5
 10
921.1802015636628
 20
-630.4343497603545
 30
0.0
 11
921.1802015636628
 21
-586.6543497603545
 31
0.0
  0
LINE
  5
59A
  8
回07-寸法
  6
CONTINUOUS
 62
     5
 10
764.5802015636627
 20
-587.6543497603545
 30
0.0
 11
919.6802015636627
 21
-587.6543497603545
 31
0.0
  0
INSERT
  5
59B
  8
回07-寸法
  6
CONTINUOUS
 62
     5
  2
_OPEN
 10
763.0802015636627
 20
-587.6543497603545
 30
0.0
 41
1.5
 42
1.5
 43
1.5
 50
180.0
  0
INSERT
  5
59C
  8
回07-寸法
  6
CONTINUOUS
 62
     5
  2
_OPEN
 10
921.1802015636628
 20
-587.6543497603545
 30
0.0
 41
1.5
 42
1.5
 43
1.5
  0
TEXT
  5
59D
  8
回07-寸法
  6
CONTINUOUS
 62
     5
 10
836.7302015636626
 20
-587.1543497603545
 30
0.0
 40
4.0
  1
158.1
  0
POINT
  5
59E
  8
DEFPOINTS
  6
CONTINUOUS
 62
     0
 10
763.0802015636627
 20
-630.4343497603545
 30
0.0
  0
POINT
  5
59F
  8
DEFPOINTS
  6
CONTINUOUS
 62
     0
 10
921.1802015636628
 20
-630.4343497603545
 30
0.0
  0
POINT
  5
5A0
  8
DEFPOINTS
  6
CONTINUOUS
 62
     0
 10
921.1802015636628
 20
-587.6543497603545
 30
0.0
  0
ENDBLK
  5
5A2
  8
0
  6
CONTINUOUS
 62
     1
  0
BLOCK
  8
0
  2
*D6868
 70
     1
 10
0.0
 20
0.0
 30
0.0
  3
*D6868
  1

  0
LINE
  5
5A4
  8
回07-寸法
  6
CONTINUOUS
 62
     5
 10
763.5802015636627
 20
-630.9343497603545
 30
0.0
 11
763.5802015636627
 21
-595.6543497603545
 31
0.0
  0
LINE
  5
5A5
  8
回07-寸法
  6
CONTINUOUS
 62
     5
 10
920.6802015636627
 20
-630.9343497603545
 30
0.0
 11
920.6802015636627
 21
-595.6543497603545
 31
0.0
  0
LINE
  5
5A6
  8
回07-寸法
  6
CONTINUOUS
 62
     5
 10
765.0802015636627
 20
-596.6543497603545
 30
0.0
 11
919.1802015636627
 21
-596.6543497603545
 31
0.0
  0
INSERT
  5
5A7
  8
回07-寸法
  6
CONTINUOUS
 62
     5
  2
_OPEN
 10
763.5802015636627
 20
-596.6543497603545
 30
0.0
 41
1.5
 42
1.5
 43
1.5
 50
180.0
  0
INSERT
  5
5A8
  8
回07-寸法
  6
CONTINUOUS
 62
     5
  2
_OPEN
 10
920.6802015636627
 20
-596.6543497603545
 30
0.0
 41
1.5
 42
1.5
 43
1.5
  0
TEXT
  5
5A9
  8
回07-寸法
  6
CONTINUOUS
 62
     5
 10
819.5309889652374
 20
-595.1543497603545
 30
0.0
 40
4.0
  1
157.1(Viewing area)
  0
POINT
  5
5AA
  8
DEFPOINTS
  6
CONTINUOUS
 62
     0
 10
763.5802015636627
 20
-630.9343497603545
 30
0.0
  0
POINT
  5
5AB
  8
DEFPOINTS
  6
CONTINUOUS
 62
     0
 10
920.6802015636627
 20
-630.9343497603545
 30
0.0
  0
POINT
  5
5AC
  8
DEFPOINTS
  6
CONTINUOUS
 62
     0
 10
920.6802015636627
 20
-596.6543497603545
 30
0.0
  0
ENDBLK
  5
5AE
  8
0
  6
CONTINUOUS
 62
     1
  0
BLOCK
  8
0
  2
*D6969
 70
     1
 10
0.0
 20
0.0
 30
0.0
  3
*D6969
  1

  0
LINE
  5
5B0
  8
回07-寸法
  6
CONTINUOUS
 62
     5
 10
758.5802015636627
 20
-625.0343497603546
 30
0.0
 11
758.5802015636627
 21
-577.6543497603545
 31
0.0
  0
LINE
  5
5B1
  8
回07-寸法
  6
CONTINUOUS
 62
     5
 10
925.6802015636628
 20
-625.0343497603544
 30
0.0
 11
925.6802015636628
 21
-577.6543497603545
 31
0.0
  0
LINE
  5
5B2
  8
回07-寸法
  6
CONTINUOUS
 62
     5
 10
760.0802015636627
 20
-578.6543497603545
 30
0.0
 11
924.1802015636627
 21
-578.6543497603545
 31
0.0
  0
INSERT
  5
5B3
  8
回07-寸法
  6
CONTINUOUS
 62
     5
  2
_OPEN
 10
758.5802015636627
 20
-578.6543497603545
 30
0.0
 41
1.5
 42
1.5
 43
1.5
 50
180.0
  0
INSERT
  5
5B4
  8
回07-寸法
  6
CONTINUOUS
 62
     5
  2
_OPEN
 10
925.6802015636628
 20
-578.6543497603545
 30
0.0
 41
1.5
 42
1.5
 43
1.5
  0
INSERT
  5
5B5
  8
回07-寸法
  6
CONTINUOUS
 62
     5
 66
     1
  2
*X9999
 10
0.0
 20
0.0
 30
0.0
  0
SEQEND
  5
7A0
  8
0
  6
CONTINUOUS
 62
     1
  0
POINT
  5
5B6
  8
DEFPOINTS
  6
CONTINUOUS
 62
     0
 10
758.5802015636627
 20
-625.0343497603546
 30
0.0
  0
POINT
  5
5B7
  8
DEFPOINTS
  6
CONTINUOUS
 62
     0
 10
925.6802015636628
 20
-625.0343497603544
 30
0.0
  0
POINT
  5
5B8
  8
DEFPOINTS
  6
CONTINUOUS
 62
     0
 10
925.6802015636628
 20
-578.6543497603545
 30
0.0
  0
ENDBLK
  5
5BA
  8
0
  6
CONTINUOUS
 62
     1
  0
BLOCK
  8
0
  2
*D7070
 70
     1
 10
0.0
 20
0.0
 30
0.0
  3
*D7070
  1

  0
LINE
  5
5BC
  8
回07-寸法
  6
CONTINUOUS
 62
     5
 10
763.5802015636627
 20
-726.4343497603545
 30
0.0
 11
728.5802015636627
 21
-726.4343497603545
 31
0.0
  0
LINE
  5
5BD
  8
回07-寸法
  6
CONTINUOUS
 62
     5
 10
758.5802015636627
 20
-737.1343497603544
 30
0.0
 11
728.5802015636627
 21
-737.1343497603544
 31
0.0
  0
LINE
  5
5BE
  8
回07-寸法
  6
CONTINUOUS
 62
     5
 10
729.5802015636629
 20
-738.6343497603546
 30
0.0
 11
729.5802015636629
 21
-750.217192472829
 31
0.0
  0
LINE
  5
5BF
  8
回07-寸法
  6
CONTINUOUS
 62
     5
 10
729.5802015636629
 20
-726.4343497603545
 30
0.0
 11
729.5802015636629
 21
-737.1343497603544
 31
0.0
  0
LINE
  5
5C0
  8
回07-寸法
  6
CONTINUOUS
 62
     5
 10
729.5802015636629
 20
-724.9343497603545
 30
0.0
 11
729.5802015636629
 21
-723.4343497603545
 31
0.0
  0
INSERT
  5
5C1
  8
回07-寸法
  6
CONTINUOUS
 62
     5
  2
_OPEN
 10
729.5802015636629
 20
-726.4343497603545
 30
0.0
 41
1.5
 42
1.5
 43
1.5
 50
270.0
  0
INSERT
  5
5C2
  8
回07-寸法
  6
CONTINUOUS
 62
     5
  2
_OPEN
 10
729.5802015636629
 20
-737.1343497603544
 30
0.0
 41
1.5
 42
1.5
 43
1.5
 50
90.0
  0
TEXT
  5
5C3
  8
回07-寸法
  6
CONTINUOUS
 62
     5
 10
729.0802015636629
 20
-750.3171924728293
 30
0.0
 40
4.0
  1
10.7
 50
90.0
  0
POINT
  5
5C4
  8
DEFPOINTS
  6
CONTINUOUS
 62
     0
 10
763.5802015636627
 20
-726.4343497603545
 30
0.0
  0
POINT
  5
5C5
  8
DEFPOINTS
  6
CONTINUOUS
 62
     0
 10
758.5802015636627
 20
-737.1343497603544
 30
0.0
  0
POINT
  5
5C6
  8
DEFPOINTS
  6
CONTINUOUS
 62
     0
 10
729.5802015636629
 20
-737.1343497603544
 30
0.0
  0
ENDBLK
  5
5C8
  8
0
  6
CONTINUOUS
 62
     1
  0
BLOCK
  8
0
  2
*D7171
 70
     1
 10
0.0
 20
0.0
 30
0.0
  3
*D7171
  1

  0
LINE
  5
5CA
  8
回07-寸法
  6
CONTINUOUS
 62
     5
 10
986.5323437488594
 20
-807.1343497603555
 30
0.0
 11
986.5323437488594
 21
-818.5567344868896
 31
0.0
  0
LINE
  5
5CB
  8
回07-寸法
  6
CONTINUOUS
 62
     5
 10
984.0323437488594
 20
-807.1343497603555
 30
0.0
 11
984.0323437488594
 21
-818.5567344868896
 31
0.0
  0
LINE
  5
5CC
  8
回07-寸法
  6
CONTINUOUS
 62
     5
 10
982.5323437488592
 20
-817.5567344868895
 30
0.0
 11
965.96248814256
 21
-817.5567344868895
 31
0.0
  0
LINE
  5
5CD
  8
回07-寸法
  6
CONTINUOUS
 62
     5
 10
986.5323437488594
 20
-817.5567344868895
 30
0.0
 11
984.0323437488594
 21
-817.5567344868895
 31
0.0
  0
LINE
  5
5CE
  8
回07-寸法
  6
CONTINUOUS
 62
     5
 10
988.0323437488593
 20
-817.5567344868895
 30
0.0
 11
989.5323437488594
 21
-817.5567344868895
 31
0.0
  0
INSERT
  5
5CF
  8
回07-寸法
  6
CONTINUOUS
 62
     5
  2
_OPEN
 10
986.5323437488594
 20
-817.5567344868895
 30
0.0
 41
1.5
 42
1.5
 43
1.5
 50
180.0
  0
INSERT
  5
5D0
  8
回07-寸法
  6
CONTINUOUS
 62
     5
  2
_OPEN
 10
984.0323437488594
 20
-817.5567344868895
 30
0.0
 41
1.5
 42
1.5
 43
1.5
  0
INSERT
  5
5D1
  8
回07-寸法
  6
CONTINUOUS
 62
     5
 66
     1
  2
*X100100
 10
0.0
 20
0.0
 30
0.0
  0
SEQEND
  5
7A6
  8
0
  6
CONTINUOUS
 62
     1
  0
POINT
  5
5D2
  8
DEFPOINTS
  6
CONTINUOUS
 62
     0
 10
986.5323437488594
 20
-807.1343497603555
 30
0.0
  0
POINT
  5
5D3
  8
DEFPOINTS
  6
CONTINUOUS
 62
     0
 10
984.0323437488594
 20
-807.1343497603555
 30
0.0
  0
POINT
  5
5D4
  8
DEFPOINTS
  6
CONTINUOUS
 62
     0
 10
984.0323437488594
 20
-817.5567344868895
 30
0.0
  0
ENDBLK
  5
5D6
  8
0
  6
CONTINUOUS
 62
     1
  0
BLOCK
  8
0
  2
*D7272
 70
     1
 10
0.0
 20
0.0
 30
0.0
  3
*D7272
  1

  0
LINE
  5
5D8
  8
回07-寸法
  6
CONTINUOUS
 62
     5
 10
986.5323437488594
 20
-797.1343497603553
 30
0.0
 11
991.2874042177417
 21
-797.1343497603553
 31
0.0
  0
LINE
  5
5D9
  8
回07-寸法
  6
CONTINUOUS
 62
     5
 10
986.5323437488594
 20
-807.1343497603555
 30
0.0
 11
991.2874042177417
 21
-807.1343497603555
 31
0.0
  0
LINE
  5
5DA
  8
回07-寸法
  6
CONTINUOUS
 62
     5
 10
990.2874042177417
 20
-798.6343497603553
 30
0.0
 11
990.2874042177417
 21
-805.6343497603553
 31
0.0
  0
INSERT
  5
5DB
  8
回07-寸法
  6
CONTINUOUS
 62
     5
  2
_OPEN
 10
990.2874042177417
 20
-797.1343497603553
 30
0.0
 41
1.5
 42
1.5
 43
1.5
 50
90.0
  0
INSERT
  5
5DC
  8
回07-寸法
  6
CONTINUOUS
 62
     5
  2
_OPEN
 10
990.2874042177417
 20
-807.1343497603555
 30
0.0
 41
1.5
 42
1.5
 43
1.5
 50
270.0
  0
TEXT
  5
5DD
  8
回07-寸法
  6
CONTINUOUS
 62
     5
 10
989.6540702177416
 20
-804.8010297603552
 30
0.0
 40
2.666679999999999
  1
(10)
 50
90.0
  0
POINT
  5
5DE
  8
DEFPOINTS
  6
CONTINUOUS
 62
     0
 10
986.5323437488594
 20
-797.1343497603553
 30
0.0
  0
POINT
  5
5DF
  8
DEFPOINTS
  6
CONTINUOUS
 62
     0
 10
986.5323437488594
 20
-807.1343497603555
 30
0.0
  0
POINT
  5
5E0
  8
DEFPOINTS
  6
CONTINUOUS
 62
     0
 10
990.2874042177417
 20
-807.1343497603555
 30
0.0
  0
ENDBLK
  5
5E2
  8
0
  6
CONTINUOUS
 62
     1
  0
BLOCK
  8
0
  2
*D7373
 70
     1
 10
0.0
 20
0.0
 30
0.0
  3
*D7373
  1

  0
LINE
  5
5E4
  8
回07-寸法
  6
CONTINUOUS
 62
     5
 10
980.0323437488593
 20
-626.1543497603545
 30
0.0
 11
980.0323437488593
 21
-614.148974403905
 31
0.0
  0
LINE
  5
5E5
  8
回07-寸法
  6
CONTINUOUS
 62
     5
 10
1000.925527967829
 20
-625.6543497603545
 30
0.0
 11
1000.925527967829
 21
-614.148974403905
 31
0.0
  0
LINE
  5
5E6
  8
回07-寸法
  6
CONTINUOUS
 62
     5
 10
981.5323437488594
 20
-615.1489744039053
 30
0.0
 11
999.4255279678295
 21
-615.1489744039053
 31
0.0
  0
INSERT
  5
5E7
  8
回07-寸法
  6
CONTINUOUS
 62
     5
  2
_OPEN
 10
980.0323437488593
 20
-615.1489744039053
 30
0.0
 41
1.5
 42
1.5
 43
1.5
 50
180.0
  0
INSERT
  5
5E8
  8
回07-寸法
  6
CONTINUOUS
 62
     5
  2
_OPEN
 10
1000.925527967829
 20
-615.1489744039053
 30
0.0
 41
1.5
 42
1.5
 43
1.5
  0
INSERT
  5
5E9
  8
回07-寸法
  6
CONTINUOUS
 62
     5
 66
     1
  2
*X101101
 10
0.0
 20
0.0
 30
0.0
  0
SEQEND
  5
7AC
  8
0
  6
CONTINUOUS
 62
     1
  0
POINT
  5
5EA
  8
DEFPOINTS
  6
CONTINUOUS
 62
     0
 10
980.0323437488593
 20
-626.1543497603545
 30
0.0
  0
POINT
  5
5EB
  8
DEFPOINTS
  6
CONTINUOUS
 62
     0
 10
1000.925527967829
 20
-625.6543497603545
 30
0.0
  0
POINT
  5
5EC
  8
DEFPOINTS
  6
CONTINUOUS
 62
     0
 10
1000.925527967829
 20
-615.1489744039053
 30
0.0
  0
ENDBLK
  5
5EE
  8
0
  6
CONTINUOUS
 62
     1
  0
BLOCK
  8
0
  2
*D7474
 70
     1
 10
0.0
 20
0.0
 30
0.0
  3
*D7474
  1

  0
LINE
  5
5F0
  8
回07-寸法
  6
CONTINUOUS
 62
     5
 10
991.42552796783
 20
-807.1343497603555
 30
0.0
 11
991.42552796783
 21
-824.8619746580821
 31
0.0
  0
LINE
  5
5F1
  8
回07-寸法
  6
CONTINUOUS
 62
     5
 10
993.9255279678295
 20
-807.1343497603555
 30
0.0
 11
993.9255279678295
 21
-824.8619746580821
 31
0.0
  0
LINE
  5
5F2
  8
回07-寸法
  6
CONTINUOUS
 62
     5
 10
995.4255279678298
 20
-823.861974658082
 30
0.0
 11
1011.995383574129
 21
-823.861974658082
 31
0.0
  0
LINE
  5
5F3
  8
回07-寸法
  6
CONTINUOUS
 62
     5
 10
991.42552796783
 20
-823.861974658082
 30
0.0
 11
993.9255279678295
 21
-823.861974658082
 31
0.0
  0
LINE
  5
5F4
  8
回07-寸法
  6
CONTINUOUS
 62
     5
 10
989.9255279678298
 20
-823.861974658082
 30
0.0
 11
988.4255279678296
 21
-823.861974658082
 31
0.0
  0
INSERT
  5
5F5
  8
回07-寸法
  6
CONTINUOUS
 62
     5
  2
_OPEN
 10
991.42552796783
 20
-823.861974658082
 30
0.0
 41
1.5
 42
1.5
 43
1.5
  0
INSERT
  5
5F6
  8
回07-寸法
  6
CONTINUOUS
 62
     5
  2
_OPEN
 10
993.9255279678295
 20
-823.861974658082
 30
0.0
 41
1.5
 42
1.5
 43
1.5
 50
180.0
  0
INSERT
  5
5F7
  8
回07-寸法
  6
CONTINUOUS
 62
     5
 66
     1
  2
*X102102
 10
0.0
 20
0.0
 30
0.0
  0
SEQEND
  5
7B2
  8
0
  6
CONTINUOUS
 62
     1
  0
POINT
  5
5F8
  8
DEFPOINTS
  6
CONTINUOUS
 62
     0
 10
991.42552796783
 20
-807.1343497603555
 30
0.0
  0
POINT
  5
5F9
  8
DEFPOINTS
  6
CONTINUOUS
 62
     0
 10
993.9255279678295
 20
-807.1343497603555
 30
0.0
  0
POINT
  5
5FA
  8
DEFPOINTS
  6
CONTINUOUS
 62
     0
 10
993.9255279678295
 20
-823.861974658082
 30
0.0
  0
ENDBLK
  5
5FC
  8
0
  6
CONTINUOUS
 62
     1
  0
BLOCK
  8
0
  2
*D7575
 70
     1
 10
0.0
 20
0.0
 30
0.0
  3
*D7575
  1

  0
LINE
  5
5FE
  8
回07-寸法
  6
CONTINUOUS
 62
     5
 10
993.9255279678295
 20
-807.1343497603555
 30
0.0
 11
1004.041166558515
 21
-807.1343497603555
 31
0.0
  0
LINE
  5
5FF
  8
回07-寸法
  6
CONTINUOUS
 62
     5
 10
994.6255279678295
 20
-802.1343497603552
 30
0.0
 11
1004.041166558515
 21
-802.1343497603552
 31
0.0
  0
LINE
  5
600
  8
回07-寸法
  6
CONTINUOUS
 62
     5
 10
1003.041166558515
 20
-805.6343497603553
 30
0.0
 11
1003.041166558515
 21
-803.6343497603555
 31
0.0
  0
INSERT
  5
601
  8
回07-寸法
  6
CONTINUOUS
 62
     5
  2
_OPEN
 10
1003.041166558515
 20
-807.1343497603555
 30
0.0
 41
1.5
 42
1.5
 43
1.5
 50
270.0
  0
INSERT
  5
602
  8
回07-寸法
  6
CONTINUOUS
 62
     5
  2
_OPEN
 10
1003.041166558515
 20
-802.1343497603552
 30
0.0
 41
1.5
 42
1.5
 43
1.5
 50
90.0
  0
TEXT
  5
603
  8
回07-寸法
  6
CONTINUOUS
 62
     5
 10
1002.541166558515
 20
-806.0343497603552
 30
0.0
 40
4.0
  1
5
 50
90.0
  0
POINT
  5
604
  8
DEFPOINTS
  6
CONTINUOUS
 62
     0
 10
993.9255279678295
 20
-807.1343497603555
 30
0.0
  0
POINT
  5
605
  8
DEFPOINTS
  6
CONTINUOUS
 62
     0
 10
994.6255279678295
 20
-802.1343497603552
 30
0.0
  0
POINT
  5
606
  8
DEFPOINTS
  6
CONTINUOUS
 62
     0
 10
1003.041166558515
 20
-802.1343497603552
 30
0.0
  0
ENDBLK
  5
608
  8
0
  6
CONTINUOUS
 62
     1
  0
BLOCK
  8
0
  2
*D7676
 70
     1
 10
0.0
 20
0.0
 30
0.0
  3
*D7676
  1

  0
LINE
  5
60A
  8
回07-寸法
  6
CONTINUOUS
 62
     5
 10
984.0323437488594
 20
-807.1343497603555
 30
0.0
 11
975.1666257672303
 21
-807.1343497603555
 31
0.0
  0
LINE
  5
60B
  8
回07-寸法
  6
CONTINUOUS
 62
     5
 10
983.3323437488592
 20
-802.1343497603552
 30
0.0
 11
975.1666257672303
 21
-802.1343497603552
 31
0.0
  0
LINE
  5
60C
  8
回07-寸法
  6
CONTINUOUS
 62
     5
 10
976.1666257672303
 20
-805.6343497603553
 30
0.0
 11
976.1666257672303
 21
-803.6343497603555
 31
0.0
  0
INSERT
  5
60D
  8
回07-寸法
  6
CONTINUOUS
 62
     5
  2
_OPEN
 10
976.1666257672303
 20
-807.1343497603555
 30
0.0
 41
1.5
 42
1.5
 43
1.5
 50
270.0
  0
INSERT
  5
60E
  8
回07-寸法
  6
CONTINUOUS
 62
     5
  2
_OPEN
 10
976.1666257672303
 20
-802.1343497603552
 30
0.0
 41
1.5
 42
1.5
 43
1.5
 50
90.0
  0
TEXT
  5
60F
  8
回07-寸法
  6
CONTINUOUS
 62
     5
 10
975.6666257672302
 20
-806.0343497603552
 30
0.0
 40
4.0
  1
5
 50
90.0
  0
POINT
  5
610
  8
DEFPOINTS
  6
CONTINUOUS
 62
     0
 10
984.0323437488594
 20
-807.1343497603555
 30
0.0
  0
POINT
  5
611
  8
DEFPOINTS
  6
CONTINUOUS
 62
     0
 10
983.3323437488592
 20
-802.1343497603552
 30
0.0
  0
POINT
  5
612
  8
DEFPOINTS
  6
CONTINUOUS
 62
     0
 10
976.1666257672303
 20
-802.1343497603552
 30
0.0
  0
ENDBLK
  5
614
  8
0
  6
CONTINUOUS
 62
     1
  0
BLOCK
  8
0
  2
*X7777
 70
     1
 10
0.0
 20
0.0
 30
0.0
  3
*X7777
  1

  0
INSERT
  5
63C
  8
回08-記事
  6
CONTINUOUS
 62
     5
  2
_OPEN
 10
992.4609258746572
 20
-773.8915846519127
 30
0.0
 41
2.0
 42
2.0
 43
2.0
 50
342.2594612162769
  0
LINE
  5
63D
  8
回08-記事
  6
CONTINUOUS
 62
     5
 10
990.556033617238
 20
-773.2821705992147
 30
0.0
 11
977.7614338509151
 21
-769.1889160511572
 31
0.0
  0
LINE
  5
63E
  8
回08-記事
  6
CONTINUOUS
 62
     5
 10
977.7614338509151
 20
-769.1889160511572
 30
0.0
 11
943.661433850915
 21
-769.1889160511572
 31
0.0
  0
ENDBLK
  5
640
  8
0
  6
CONTINUOUS
 62
     1
  0
BLOCK
  8
0
  2
*X7878
 70
     1
 10
0.0
 20
0.0
 30
0.0
  3
*X7878
  1

  0
INSERT
  5
643
  8
回08-記事
  6
CONTINUOUS
 62
     5
  2
_OPEN
 10
995.0889609570396
 20
-774.0662606839078
 30
0.0
 41
2.0
 42
2.0
 43
2.0
 50
224.0506723783502
  0
LINE
  5
644
  8
回08-記事
  6
CONTINUOUS
 62
     5
 10
996.5264112837299
 20
-772.67567211848
 30
0.0
 11
1000.130668339102
 21
-769.1889160511572
 31
0.0
  0
LINE
  5
645
  8
回08-記事
  6
CONTINUOUS
 62
     5
 10
1000.130668339102
 20
-769.1889160511572
 30
0.0
 11
1023.430668339102
 21
-769.1889160511572
 31
0.0
  0
ENDBLK
  5
647
  8
0
  6
CONTINUOUS
 62
     1
  0
BLOCK
  8
0
  2
*X7979
 70
     1
 10
0.0
 20
0.0
 30
0.0
  3
*X7979
  1

  0
LINE
  5
654
  8
回08-記事
  6
CONTINUOUS
 62
     7
 10
994.62552796783
 20
-757.5925000942984
 30
0.0
 11
995.3255279678295
 21
-756.8925000942985
 31
0.0
1001
GRADIENTCOLOR1ACI
1070
     5
1001
GRADIENTCOLOR2ACI
1070
     2
1001
ACAD
1010
0.0
1020
0.0
1030
0.0
  0
LINE
  5
655
  8
回08-記事
  6
CONTINUOUS
 62
     7
 10
994.6255279678295
 20
-758.9395385124588
 30
0.0
 11
995.3255279678295
 21
-758.2395385124588
 31
0.0
1001
GRADIENTCOLOR1ACI
1070
     5
1001
GRADIENTCOLOR2ACI
1070
     2
1001
ACAD
1010
0.0
1020
0.0
1030
0.0
  0
LINE
  5
656
  8
回08-記事
  6
CONTINUOUS
 62
     7
 10
994.62552796783
 20
-760.286576930619
 30
0.0
 11
995.3255279678298
 21
-759.5865769306192
 31
0.0
1001
GRADIENTCOLOR1ACI
1070
     5
1001
GRADIENTCOLOR2ACI
1070
     2
1001
ACAD
1010
0.0
1020
0.0
1030
0.0
  0
LINE
  5
657
  8
回08-記事
  6
CONTINUOUS
 62
     7
 10
994.62552796783
 20
-761.6336153487796
 30
0.0
 11
995.3255279678295
 21
-760.9336153487797
 31
0.0
1001
GRADIENTCOLOR1ACI
1070
     5
1001
GRADIENTCOLOR2ACI
1070
     2
1001
ACAD
1010
0.0
1020
0.0
1030
0.0
  0
LINE
  5
658
  8
回08-記事
  6
CONTINUOUS
 62
     7
 10
994.6255279678295
 20
-762.9806537669401
 30
0.0
 11
995.3255279678295
 21
-762.2806537669402
 31
0.0
1001
GRADIENTCOLOR1ACI
1070
     5
1001
GRADIENTCOLOR2ACI
1070
     2
1001
ACAD
1010
0.0
1020
0.0
1030
0.0
  0
LINE
  5
659
  8
回08-記事
  6
CONTINUOUS
 62
     7
 10
994.62552796783
 20
-764.3276921851004
 30
0.0
 11
995.3255279678298
 21
-763.6276921851004
 31
0.0
1001
GRADIENTCOLOR1ACI
1070
     5
1001
GRADIENTCOLOR2ACI
1070
     2
1001
ACAD
1010
0.0
1020
0.0
1030
0.0
  0
LINE
  5
65A
  8
回08-記事
  6
CONTINUOUS
 62
     7
 10
994.62552796783
 20
-765.6747306032608
 30
0.0
 11
995.3255279678298
 21
-764.9747306032608
 31
0.0
1001
GRADIENTCOLOR1ACI
1070
     5
1001
GRADIENTCOLOR2ACI
1070
     2
1001
ACAD
1010
0.0
1020
0.0
1030
0.0
  0
LINE
  5
65B
  8
回08-記事
  6
CONTINUOUS
 62
     7
 10
994.6255279678295
 20
-767.0217690214212
 30
0.0
 11
995.3255279678295
 21
-766.3217690214215
 31
0.0
1001
GRADIENTCOLOR1ACI
1070
     5
1001
GRADIENTCOLOR2ACI
1070
     2
1001
ACAD
1010
0.0
1020
0.0
1030
0.0
  0
LINE
  5
65C
  8
回08-記事
  6
CONTINUOUS
 62
     7
 10
994.62552796783
 20
-768.3688074395817
 30
0.0
 11
995.3255279678298
 21
-767.6688074395817
 31
0.0
1001
GRADIENTCOLOR1ACI
1070
     5
1001
GRADIENTCOLOR2ACI
1070
     2
1001
ACAD
1010
0.0
1020
0.0
1030
0.0
  0
LINE
  5
65D
  8
回08-記事
  6
CONTINUOUS
 62
     7
 10
994.62552796783
 20
-769.7158458577421
 30
0.0
 11
995.3255279678295
 21
-769.0158458577423
 31
0.0
1001
GRADIENTCOLOR1ACI
1070
     5
1001
GRADIENTCOLOR2ACI
1070
     2
1001
ACAD
1010
0.0
1020
0.0
1030
0.0
  0
LINE
  5
65E
  8
回08-記事
  6
CONTINUOUS
 62
     7
 10
994.6255279678295
 20
-771.0628842759025
 30
0.0
 11
995.3255279678295
 21
-770.3628842759027
 31
0.0
1001
GRADIENTCOLOR1ACI
1070
     5
1001
GRADIENTCOLOR2ACI
1070
     2
1001
ACAD
1010
0.0
1020
0.0
1030
0.0
  0
LINE
  5
65F
  8
回08-記事
  6
CONTINUOUS
 62
     7
 10
994.6255279678295
 20
-772.4099226940631
 30
0.0
 11
995.3255279678295
 21
-771.7099226940631
 31
0.0
1001
GRADIENTCOLOR1ACI
1070
     5
1001
GRADIENTCOLOR2ACI
1070
     2
1001
ACAD
1010
0.0
1020
0.0
1030
0.0
  0
LINE
  5
660
  8
回08-記事
  6
CONTINUOUS
 62
     7
 10
994.6255279678295
 20
-773.7569611122235
 30
0.0
 11
995.3255279678295
 21
-773.0569611122238
 31
0.0
1001
GRADIENTCOLOR1ACI
1070
     5
1001
GRADIENTCOLOR2ACI
1070
     2
1001
ACAD
1010
0.0
1020
0.0
1030
0.0
  0
LINE
  5
661
  8
回08-記事
  6
CONTINUOUS
 62
     7
 10
994.62552796783
 20
-775.1039995303837
 30
0.0
 11
995.3255279678295
 21
-774.4039995303841
 31
0.0
1001
GRADIENTCOLOR1ACI
1070
     5
1001
GRADIENTCOLOR2ACI
1070
     2
1001
ACAD
1010
0.0
1020
0.0
1030
0.0
  0
LINE
  5
662
  8
回08-記事
  6
CONTINUOUS
 62
     7
 10
994.62552796783
 20
-776.4510379485443
 30
0.0
 11
995.3255279678295
 21
-775.7510379485442
 31
0.0
1001
GRADIENTCOLOR1ACI
1070
     5
1001
GRADIENTCOLOR2ACI
1070
     2
1001
ACAD
1010
0.0
1020
0.0
1030
0.0
  0
LINE
  5
663
  8
回08-記事
  6
CONTINUOUS
 62
     7
 10
994.6255279678295
 20
-777.7980763667046
 30
0.0
 11
995.3255279678295
 21
-777.0980763667047
 31
0.0
1001
GRADIENTCOLOR1ACI
1070
     5
1001
GRADIENTCOLOR2ACI
1070
     2
1001
ACAD
1010
0.0
1020
0.0
1030
0.0
  0
LINE
  5
664
  8
回08-記事
  6
CONTINUOUS
 62
     7
 10
994.6255279678295
 20
-779.1451147848651
 30
0.0
 11
995.3255279678295
 21
-778.4451147848651
 31
0.0
1001
GRADIENTCOLOR1ACI
1070
     5
1001
GRADIENTCOLOR2ACI
1070
     2
1001
ACAD
1010
0.0
1020
0.0
1030
0.0
  0
LINE
  5
665
  8
回08-記事
  6
CONTINUOUS
 62
     7
 10
994.6255279678295
 20
-780.4921532030256
 30
0.0
 11
995.3255279678295
 21
-779.7921532030256
 31
0.0
1001
GRADIENTCOLOR1ACI
1070
     5
1001
GRADIENTCOLOR2ACI
1070
     2
1001
ACAD
1010
0.0
1020
0.0
1030
0.0
  0
LINE
  5
666
  8
回08-記事
  6
CONTINUOUS
 62
     7
 10
994.6255279678295
 20
-781.8391916211862
 30
0.0
 11
995.3255279678295
 21
-781.1391916211862
 31
0.0
1001
GRADIENTCOLOR1ACI
1070
     5
1001
GRADIENTCOLOR2ACI
1070
     2
1001
ACAD
1010
0.0
1020
0.0
1030
0.0
  0
LINE
  5
667
  8
回08-記事
  6
CONTINUOUS
 62
     7
 10
995.3107145059879
 20
-782.5010435011882
 30
0.0
 11
995.3255279678295
 21
-782.4862300393464
 31
0.0
1001
GRADIENTCOLOR1ACI
1070
     5
1001
GRADIENTCOLOR2ACI
1070
     2
1001
ACAD
1010
0.0
1020
0.0
1030
0.0
  0
ENDBLK
  5
669
  8
0
  6
CONTINUOUS
 62
     1
  0
BLOCK
  8
0
  2
*X8080
 70
     1
 10
0.0
 20
0.0
 30
0.0
  3
*X8080
  1

  0
LINE
  5
66C
  8
回08-記事
  6
CONTINUOUS
 62
     7
 10
985.0323437488595
 20
-737.1977875993519
 30
0.0
 11
986.0117332170453
 21
-736.2183981311662
 31
0.0
1001
GRADIENTCOLOR1ACI
1070
     5
1001
GRADIENTCOLOR2ACI
1070
     2
1001
ACAD
1010
0.0
1020
0.0
1030
0.0
  0
LINE
  5
66D
  8
回08-記事
  6
CONTINUOUS
 62
     7
 10
985.0323437488594
 20
-738.5448260175124
 30
0.0
 11
985.7323437488593
 21
-737.8448260175125
 31
0.0
1001
GRADIENTCOLOR1ACI
1070
     5
1001
GRADIENTCOLOR2ACI
1070
     2
1001
ACAD
1010
0.0
1020
0.0
1030
0.0
  0
LINE
  5
66E
  8
回08-記事
  6
CONTINUOUS
 62
     7
 10
986.3587716352054
 20
-737.2183981311665
 30
0.0
 11
987.3587716352057
 21
-736.2183981311662
 31
0.0
1001
GRADIENTCOLOR1ACI
1070
     5
1001
GRADIENTCOLOR2ACI
1070
     2
1001
ACAD
1010
0.0
1020
0.0
1030
0.0
  0
LINE
  5
66F
  8
回08-記事
  6
CONTINUOUS
 62
     7
 10
985.0323437488595
 20
-739.8918644356728
 30
0.0
 11
985.7323437488593
 21
-739.1918644356731
 31
0.0
1001
GRADIENTCOLOR1ACI
1070
     5
1001
GRADIENTCOLOR2ACI
1070
     2
1001
ACAD
1010
0.0
1020
0.0
1030
0.0
  0
LINE
  5
670
  8
回08-記事
  6
CONTINUOUS
 62
     7
 10
987.7058100533659
 20
-737.2183981311662
 30
0.0
 11
988.7058100533659
 21
-736.2183981311662
 31
0.0
1001
GRADIENTCOLOR1ACI
1070
     5
1001
GRADIENTCOLOR2ACI
1070
     2
1001
ACAD
1010
0.0
1020
0.0
1030
0.0
  0
LINE
  5
671
  8
回08-記事
  6
CONTINUOUS
 62
     7
 10
985.636896842338
 20
-740.6343497603544
 30
0.0
 11
985.7323437488593
 21
-740.5389028538333
 31
0.0
1001
GRADIENTCOLOR1ACI
1070
     5
1001
GRADIENTCOLOR2ACI
1070
     2
1001
ACAD
1010
0.0
1020
0.0
1030
0.0
  0
LINE
  5
672
  8
回08-記事
  6
CONTINUOUS
 62
     7
 10
989.0528484715259
 20
-737.2183981311662
 30
0.0
 11
990.0528484715263
 21
-736.2183981311662
 31
0.0
1001
GRADIENTCOLOR1ACI
1070
     5
1001
GRADIENTCOLOR2ACI
1070
     2
1001
ACAD
1010
0.0
1020
0.0
1030
0.0
  0
LINE
  5
673
  8
回08-記事
  6
CONTINUOUS
 62
     7
 10
990.3998868896863
 20
-737.2183981311664
 30
0.0
 11
991.3998868896864
 21
-736.2183981311662
 31
0.0
1001
GRADIENTCOLOR1ACI
1070
     5
1001
GRADIENTCOLOR2ACI
1070
     2
1001
ACAD
1010
0.0
1020
0.0
1030
0.0
  0
LINE
  5
674
  8
回08-記事
  6
CONTINUOUS
 62
     7
 10
991.7469253078467
 20
-737.2183981311664
 30
0.0
 11
992.7469253078466
 21
-736.2183981311662
 31
0.0
1001
GRADIENTCOLOR1ACI
1070
     5
1001
GRADIENTCOLOR2ACI
1070
     2
1001
ACAD
1010
0.0
1020
0.0
1030
0.0
  0
LINE
  5
675
  8
回08-記事
  6
CONTINUOUS
 62
     7
 10
994.6255279678295
 20
-737.0338723075042
 30
0.0
 11
995.1410021441674
 21
-736.5183981311662
 31
0.0
1001
GRADIENTCOLOR1ACI
1070
     5
1001
GRADIENTCOLOR2ACI
1070
     2
1001
ACAD
1010
0.0
1020
0.0
1030
0.0
  0
LINE
  5
676
  8
回08-記事
  6
CONTINUOUS
 62
     7
 10
994.6255279678293
 20
-738.3809107256645
 30
0.0
 11
995.3255279678295
 21
-737.6809107256644
 31
0.0
1001
GRADIENTCOLOR1ACI
1070
     5
1001
GRADIENTCOLOR2ACI
1070
     2
1001
ACAD
1010
0.0
1020
0.0
1030
0.0
  0
LINE
  5
677
  8
回08-記事
  6
CONTINUOUS
 62
     7
 10
995.7880405623278
 20
-737.218398131166
 30
0.0
 11
996.4880405623279
 21
-736.5183981311661
 31
0.0
1001
GRADIENTCOLOR1ACI
1070
     5
1001
GRADIENTCOLOR2ACI
1070
     2
1001
ACAD
1010
0.0
1020
0.0
1030
0.0
  0
LINE
  5
678
  8
回08-記事
  6
CONTINUOUS
 62
     7
 10
994.6255279678295
 20
-739.7279491438247
 30
0.0
 11
995.3255279678295
 21
-739.0279491438249
 31
0.0
1001
GRADIENTCOLOR1ACI
1070
     5
1001
GRADIENTCOLOR2ACI
1070
     2
1001
ACAD
1010
0.0
1020
0.0
1030
0.0
  0
LINE
  5
679
  8
回08-記事
  6
CONTINUOUS
 62
     7
 10
997.135078980488
 20
-737.2183981311662
 30
0.0
 11
997.8350789804879
 21
-736.5183981311662
 31
0.0
1001
GRADIENTCOLOR1ACI
1070
     5
1001
GRADIENTCOLOR2ACI
1070
     2
1001
ACAD
1010
0.0
1020
0.0
1030
0.0
  0
LINE
  5
67A
  8
回08-記事
  6
CONTINUOUS
 62
     7
 10
995.0661657694599
 20
-740.6343497603544
 30
0.0
 11
995.3255279678295
 21
-740.3749875619848
 31
0.0
1001
GRADIENTCOLOR1ACI
1070
     5
1001
GRADIENTCOLOR2ACI
1070
     2
1001
ACAD
1010
0.0
1020
0.0
1030
0.0
  0
LINE
  5
67B
  8
回08-記事
  6
CONTINUOUS
 62
     7
 10
998.4821173986482
 20
-737.2183981311664
 30
0.0
 11
999.1821173986483
 21
-736.5183981311662
 31
0.0
1001
GRADIENTCOLOR1ACI
1070
     5
1001
GRADIENTCOLOR2ACI
1070
     2
1001
ACAD
1010
0.0
1020
0.0
1030
0.0
  0
LINE
  5
67C
  8
回08-記事
  6
CONTINUOUS
 62
     7
 10
1000.925527967829
 20
-734.7749875619847
 30
0.0
 11
1001.625527967829
 21
-734.074987561985
 31
0.0
1001
GRADIENTCOLOR1ACI
1070
     5
1001
GRADIENTCOLOR2ACI
1070
     2
1001
ACAD
1010
0.0
1020
0.0
1030
0.0
  0
LINE
  5
67D
  8
回08-記事
  6
CONTINUOUS
 62
     7
 10
999.8291558168084
 20
-737.2183981311664
 30
0.0
 11
1000.529155816809
 21
-736.5183981311661
 31
0.0
1001
GRADIENTCOLOR1ACI
1070
     5
1001
GRADIENTCOLOR2ACI
1070
     2
1001
ACAD
1010
0.0
1020
0.0
1030
0.0
  0
LINE
  5
67E
  8
回08-記事
  6
CONTINUOUS
 62
     7
 10
1000.925527967829
 20
-736.1220259801449
 30
0.0
 11
1001.625527967829
 21
-735.4220259801454
 31
0.0
1001
GRADIENTCOLOR1ACI
1070
     5
1001
GRADIENTCOLOR2ACI
1070
     2
1001
ACAD
1010
0.0
1020
0.0
1030
0.0
  0
LINE
  5
67F
  8
回08-記事
  6
CONTINUOUS
 62
     7
 10
1001.176194234969
 20
-737.2183981311664
 30
0.0
 11
1001.62552796783
 21
-736.7690643983055
 31
0.0
1001
GRADIENTCOLOR1ACI
1070
     5
1001
GRADIENTCOLOR2ACI
1070
     2
1001
ACAD
1010
0.0
1020
0.0
1030
0.0
  0
ENDBLK
  5
681
  8
0
  6
CONTINUOUS
 62
     1
  0
BLOCK
  8
0
  2
*X8181
 70
     1
 10
0.0
 20
0.0
 30
0.0
  3
*X8181
  1

  0
LINE
  5
6AD
  8
回08-記事
  6
CONTINUOUS
 62
     7
 10
992.2255279678294
 20
-757.5925000942985
 30
0.0
 11
992.9255279678296
 21
-756.8925000942985
 31
0.0
1001
GRADIENTCOLOR1ACI
1070
     5
1001
GRADIENTCOLOR2ACI
1070
     2
1001
ACAD
1010
0.0
1020
0.0
1030
0.0
  0
LINE
  5
6AE
  8
回08-記事
  6
CONTINUOUS
 62
     7
 10
992.2255279678298
 20
-758.9395385124588
 30
0.0
 11
992.9255279678296
 21
-758.2395385124588
 31
0.0
1001
GRADIENTCOLOR1ACI
1070
     5
1001
GRADIENTCOLOR2ACI
1070
     2
1001
ACAD
1010
0.0
1020
0.0
1030
0.0
  0
LINE
  5
6AF
  8
回08-記事
  6
CONTINUOUS
 62
     7
 10
992.2255279678294
 20
-760.2865769306195
 30
0.0
 11
992.9255279678296
 21
-759.5865769306192
 31
0.0
1001
GRADIENTCOLOR1ACI
1070
     5
1001
GRADIENTCOLOR2ACI
1070
     2
1001
ACAD
1010
0.0
1020
0.0
1030
0.0
  0
LINE
  5
6B0
  8
回08-記事
  6
CONTINUOUS
 62
     7
 10
992.2255279678294
 20
-761.6336153487797
 30
0.0
 11
992.9255279678296
 21
-760.9336153487797
 31
0.0
1001
GRADIENTCOLOR1ACI
1070
     5
1001
GRADIENTCOLOR2ACI
1070
     2
1001
ACAD
1010
0.0
1020
0.0
1030
0.0
  0
LINE
  5
6B1
  8
回08-記事
  6
CONTINUOUS
 62
     7
 10
992.2255279678294
 20
-762.9806537669403
 30
0.0
 11
992.9255279678296
 21
-762.2806537669402
 31
0.0
1001
GRADIENTCOLOR1ACI
1070
     5
1001
GRADIENTCOLOR2ACI
1070
     2
1001
ACAD
1010
0.0
1020
0.0
1030
0.0
  0
LINE
  5
6B2
  8
回08-記事
  6
CONTINUOUS
 62
     7
 10
992.2255279678294
 20
-764.3276921851005
 30
0.0
 11
992.9255279678296
 21
-763.6276921851004
 31
0.0
1001
GRADIENTCOLOR1ACI
1070
     5
1001
GRADIENTCOLOR2ACI
1070
     2
1001
ACAD
1010
0.0
1020
0.0
1030
0.0
  0
LINE
  5
6B3
  8
回08-記事
  6
CONTINUOUS
 62
     7
 10
992.2255279678294
 20
-765.6747306032611
 30
0.0
 11
992.9255279678296
 21
-764.9747306032609
 31
0.0
1001
GRADIENTCOLOR1ACI
1070
     5
1001
GRADIENTCOLOR2ACI
1070
     2
1001
ACAD
1010
0.0
1020
0.0
1030
0.0
  0
LINE
  5
6B4
  8
回08-記事
  6
CONTINUOUS
 62
     7
 10
992.2255279678294
 20
-767.0217690214215
 30
0.0
 11
992.9255279678296
 21
-766.3217690214212
 31
0.0
1001
GRADIENTCOLOR1ACI
1070
     5
1001
GRADIENTCOLOR2ACI
1070
     2
1001
ACAD
1010
0.0
1020
0.0
1030
0.0
  0
LINE
  5
6B5
  8
回08-記事
  6
CONTINUOUS
 62
     7
 10
992.2255279678294
 20
-768.3688074395819
 30
0.0
 11
992.9255279678296
 21
-767.6688074395817
 31
0.0
1001
GRADIENTCOLOR1ACI
1070
     5
1001
GRADIENTCOLOR2ACI
1070
     2
1001
ACAD
1010
0.0
1020
0.0
1030
0.0
  0
LINE
  5
6B6
  8
回08-記事
  6
CONTINUOUS
 62
     7
 10
992.2255279678294
 20
-769.7158458577423
 30
0.0
 11
992.9255279678296
 21
-769.0158458577423
 31
0.0
1001
GRADIENTCOLOR1ACI
1070
     5
1001
GRADIENTCOLOR2ACI
1070
     2
1001
ACAD
1010
0.0
1020
0.0
1030
0.0
  0
LINE
  5
6B7
  8
回08-記事
  6
CONTINUOUS
 62
     7
 10
992.2255279678298
 20
-771.0628842759025
 30
0.0
 11
992.9255279678296
 21
-770.3628842759025
 31
0.0
1001
GRADIENTCOLOR1ACI
1070
     5
1001
GRADIENTCOLOR2ACI
1070
     2
1001
ACAD
1010
0.0
1020
0.0
1030
0.0
  0
LINE
  5
6B8
  8
回08-記事
  6
CONTINUOUS
 62
     7
 10
992.2255279678294
 20
-772.4099226940633
 30
0.0
 11
992.9255279678296
 21
-771.7099226940631
 31
0.0
1001
GRADIENTCOLOR1ACI
1070
     5
1001
GRADIENTCOLOR2ACI
1070
     2
1001
ACAD
1010
0.0
1020
0.0
1030
0.0
  0
LINE
  5
6B9
  8
回08-記事
  6
CONTINUOUS
 62
     7
 10
992.2255279678298
 20
-773.7569611122235
 30
0.0
 11
992.9255279678296
 21
-773.0569611122233
 31
0.0
1001
GRADIENTCOLOR1ACI
1070
     5
1001
GRADIENTCOLOR2ACI
1070
     2
1001
ACAD
1010
0.0
1020
0.0
1030
0.0
  0
LINE
  5
6BA
  8
回08-記事
  6
CONTINUOUS
 62
     7
 10
992.2255279678296
 20
-775.1039995303839
 30
0.0
 11
992.9255279678296
 21
-774.4039995303841
 31
0.0
1001
GRADIENTCOLOR1ACI
1070
     5
1001
GRADIENTCOLOR2ACI
1070
     2
1001
ACAD
1010
0.0
1020
0.0
1030
0.0
  0
LINE
  5
6BB
  8
回08-記事
  6
CONTINUOUS
 62
     7
 10
992.2255279678294
 20
-776.4510379485443
 30
0.0
 11
992.9255279678296
 21
-775.7510379485442
 31
0.0
1001
GRADIENTCOLOR1ACI
1070
     5
1001
GRADIENTCOLOR2ACI
1070
     2
1001
ACAD
1010
0.0
1020
0.0
1030
0.0
  0
LINE
  5
6BC
  8
回08-記事
  6
CONTINUOUS
 62
     7
 10
992.2255279678298
 20
-777.7980763667045
 30
0.0
 11
992.9255279678296
 21
-777.0980763667047
 31
0.0
1001
GRADIENTCOLOR1ACI
1070
     5
1001
GRADIENTCOLOR2ACI
1070
     2
1001
ACAD
1010
0.0
1020
0.0
1030
0.0
  0
LINE
  5
6BD
  8
回08-記事
  6
CONTINUOUS
 62
     7
 10
992.2255279678296
 20
-779.1451147848651
 30
0.0
 11
992.9255279678296
 21
-778.4451147848651
 31
0.0
1001
GRADIENTCOLOR1ACI
1070
     5
1001
GRADIENTCOLOR2ACI
1070
     2
1001
ACAD
1010
0.0
1020
0.0
1030
0.0
  0
LINE
  5
6BE
  8
回08-記事
  6
CONTINUOUS
 62
     7
 10
992.2255279678294
 20
-780.4921532030258
 30
0.0
 11
992.9255279678296
 21
-779.7921532030256
 31
0.0
1001
GRADIENTCOLOR1ACI
1070
     5
1001
GRADIENTCOLOR2ACI
1070
     2
1001
ACAD
1010
0.0
1020
0.0
1030
0.0
  0
LINE
  5
6BF
  8
回08-記事
  6
CONTINUOUS
 62
     7
 10
992.2255279678296
 20
-781.839191621186
 30
0.0
 11
992.9255279678296
 21
-781.1391916211861
 31
0.0
1001
GRADIENTCOLOR1ACI
1070
     5
1001
GRADIENTCOLOR2ACI
1070
     2
1001
ACAD
1010
0.0
1020
0.0
1030
0.0
  0
LINE
  5
6C0
  8
回08-記事
  6
CONTINUOUS
 62
     7
 10
992.9107145059877
 20
-782.5010435011882
 30
0.0
 11
992.9255279678296
 21
-782.4862300393464
 31
0.0
1001
GRADIENTCOLOR1ACI
1070
     5
1001
GRADIENTCOLOR2ACI
1070
     2
1001
ACAD
1010
0.0
1020
0.0
1030
0.0
  0
ENDBLK
  5
6C2
  8
0
  6
CONTINUOUS
 62
     1
  0
BLOCK
  8
0
  2
*X8282
 70
     1
 10
0.0
 20
0.0
 30
0.0
  3
*X8282
  1

  0
TEXT
  5
6CF
  8
回08-記事
  6
CONTINUOUS
 62
     5
 10
794.6943421246714
 20
-772.534678870124
 30
0.0
 40
4.0
  1
･Part Label
  0
TEXT
  5
6D0
  8
回08-記事
  6
CONTINUOUS
 62
     5
 10
794.6943421246714
 20
-779.2013455367907
 30
0.0
 40
4.0
  1
･Lot label
  0
ENDBLK
  5
6D2
  8
0
  6
CONTINUOUS
 62
     1
  0
BLOCK
  8
0
  2
*X8383
 70
     1
 10
0.0
 20
0.0
 30
0.0
  3
*X8383
  1

  0
INSERT
  5
6D5
  8
回08-記事
  6
CONTINUOUS
 62
     5
  2
_OPEN
 10
833.029262876728
 20
-768.7308994633067
 30
0.0
 41
2.0
 42
2.0
 43
2.0
 50
52.88437396015607
  0
LINE
  5
6D6
  8
回08-記事
  6
CONTINUOUS
 62
     5
 10
831.8224119026082
 20
-770.3257382408218
 30
0.0
 11
824.7276754580049
 21
-779.7013455367907
 31
0.0
  0
LINE
  5
6D7
  8
回08-記事
  6
CONTINUOUS
 62
     5
 10
824.7276754580049
 20
-779.7013455367907
 30
0.0
 11
795.4943421246714
 21
-779.7013455367907
 31
0.0
  0
ENDBLK
  5
6D9
  8
0
  6
CONTINUOUS
 62
     1
  0
BLOCK
  8
0
  2
*X8484
 70
     1
 10
0.0
 20
0.0
 30
0.0
  3
*X8484
  1

  0
LINE
  5
6E5
  8
回08-記事
  6
CONTINUOUS
 62
     7
 10
831.1290762482142
 20
-757.1646255889811
 30
0.0
 11
831.7926583360073
 21
-756.501043501188
 31
0.0
1001
GRADIENTCOLOR1ACI
1070
     5
1001
GRADIENTCOLOR2ACI
1070
     2
1001
ACAD
1010
0.0
1020
0.0
1030
0.0
  0
LINE
  5
6E6
  8
回08-記事
  6
CONTINUOUS
 62
     7
 10
831.1290762482142
 20
-759.4096896192483
 30
0.0
 11
834.0377223662745
 21
-756.501043501188
 31
0.0
1001
GRADIENTCOLOR1ACI
1070
     5
1001
GRADIENTCOLOR2ACI
1070
     2
1001
ACAD
1010
0.0
1020
0.0
1030
0.0
  0
LINE
  5
6E7
  8
回08-記事
  6
CONTINUOUS
 62
     7
 10
831.1290762482141
 20
-761.6547536495156
 30
0.0
 11
835.6290762482142
 21
-757.1547536495156
 31
0.0
1001
GRADIENTCOLOR1ACI
1070
     5
1001
GRADIENTCOLOR2ACI
1070
     2
1001
ACAD
1010
0.0
1020
0.0
1030
0.0
  0
LINE
  5
6E8
  8
回08-記事
  6
CONTINUOUS
 62
     7
 10
831.1290762482142
 20
-763.8998176797827
 30
0.0
 11
835.6290762482142
 21
-759.3998176797827
 31
0.0
1001
GRADIENTCOLOR1ACI
1070
     5
1001
GRADIENTCOLOR2ACI
1070
     2
1001
ACAD
1010
0.0
1020
0.0
1030
0.0
  0
LINE
  5
6E9
  8
回08-記事
  6
CONTINUOUS
 62
     7
 10
831.1290762482142
 20
-766.1448817100501
 30
0.0
 11
835.6290762482142
 21
-761.6448817100502
 31
0.0
1001
GRADIENTCOLOR1ACI
1070
     5
1001
GRADIENTCOLOR2ACI
1070
     2
1001
ACAD
1010
0.0
1020
0.0
1030
0.0
  0
LINE
  5
6EA
  8
回08-記事
  6
CONTINUOUS
 62
     7
 10
831.1290762482142
 20
-768.3899457403172
 30
0.0
 11
835.6290762482142
 21
-763.8899457403172
 31
0.0
1001
GRADIENTCOLOR1ACI
1070
     5
1001
GRADIENTCOLOR2ACI
1070
     2
1001
ACAD
1010
0.0
1020
0.0
1030
0.0
  0
LINE
  5
6EB
  8
回08-記事
  6
CONTINUOUS
 62
     7
 10
831.1290762482142
 20
-770.6350097705847
 30
0.0
 11
835.6290762482142
 21
-766.1350097705847
 31
0.0
1001
GRADIENTCOLOR1ACI
1070
     5
1001
GRADIENTCOLOR2ACI
1070
     2
1001
ACAD
1010
0.0
1020
0.0
1030
0.0
  0
LINE
  5
6EC
  8
回08-記事
  6
CONTINUOUS
 62
     7
 10
831.1290762482142
 20
-772.8800738008518
 30
0.0
 11
835.6290762482142
 21
-768.3800738008518
 31
0.0
1001
GRADIENTCOLOR1ACI
1070
     5
1001
GRADIENTCOLOR2ACI
1070
     2
1001
ACAD
1010
0.0
1020
0.0
1030
0.0
  0
LINE
  5
6ED
  8
回08-記事
  6
CONTINUOUS
 62
     7
 10
831.1290762482142
 20
-775.1251378311191
 30
0.0
 11
835.6290762482144
 21
-770.6251378311188
 31
0.0
1001
GRADIENTCOLOR1ACI
1070
     5
1001
GRADIENTCOLOR2ACI
1070
     2
1001
ACAD
1010
0.0
1020
0.0
1030
0.0
  0
LINE
  5
6EE
  8
回08-記事
  6
CONTINUOUS
 62
     7
 10
831.1290762482142
 20
-777.3702018613862
 30
0.0
 11
835.6290762482142
 21
-772.8702018613866
 31
0.0
1001
GRADIENTCOLOR1ACI
1070
     5
1001
GRADIENTCOLOR2ACI
1070
     2
1001
ACAD
1010
0.0
1020
0.0
1030
0.0
  0
LINE
  5
6EF
  8
回08-記事
  6
CONTINUOUS
 62
     7
 10
831.1290762482142
 20
-779.6152658916537
 30
0.0
 11
835.6290762482142
 21
-775.1152658916537
 31
0.0
1001
GRADIENTCOLOR1ACI
1070
     5
1001
GRADIENTCOLOR2ACI
1070
     2
1001
ACAD
1010
0.0
1020
0.0
1030
0.0
  0
LINE
  5
6F0
  8
回08-記事
  6
CONTINUOUS
 62
     7
 10
831.1290762482142
 20
-781.8603299219208
 30
0.0
 11
835.6290762482142
 21
-777.3603299219209
 31
0.0
1001
GRADIENTCOLOR1ACI
1070
     5
1001
GRADIENTCOLOR2ACI
1070
     2
1001
ACAD
1010
0.0
1020
0.0
1030
0.0
  0
LINE
  5
6F1
  8
回08-記事
  6
CONTINUOUS
 62
     7
 10
832.7334266992142
 20
-782.5010435011882
 30
0.0
 11
835.6290762482142
 21
-779.6053939521881
 31
0.0
1001
GRADIENTCOLOR1ACI
1070
     5
1001
GRADIENTCOLOR2ACI
1070
     2
1001
ACAD
1010
0.0
1020
0.0
1030
0.0
  0
LINE
  5
6F2
  8
回08-記事
  6
CONTINUOUS
 62
     7
 10
834.9784907294816
 20
-782.501043501188
 30
0.0
 11
835.6290762482142
 21
-781.8504579824554
 31
0.0
1001
GRADIENTCOLOR1ACI
1070
     5
1001
GRADIENTCOLOR2ACI
1070
     2
1001
ACAD
1010
0.0
1020
0.0
1030
0.0
  0
ENDBLK
  5
6F4
  8
0
  6
CONTINUOUS
 62
     1
  0
BLOCK
  8
0
  2
*X8585
 70
     1
 10
0.0
 20
0.0
 30
0.0
  3
*X8585
  1

  0
TEXT
  5
748
  8
回07-寸法
  6
CONTINUOUS
 62
     5
 10
994.4555756610457
 20
-545.4976650350122
 30
0.0
 40
4.0
  1
1.4
  0
TEXT
  5
749
  8
回07-寸法
  6
CONTINUOUS
 62
     5
 10
1000.855575661045
 20
-545.4976650350122
 30
0.0
 40
2.0
  1
±0.2
  0
ENDBLK
  5
74B
  8
0
  6
CONTINUOUS
 62
     1
  0
BLOCK
  8
0
  2
*X8686
 70
     1
 10
0.0
 20
0.0
 30
0.0
  3
*X8686
  1

  0
TEXT
  5
74E
  8
回07-寸法
  6
CONTINUOUS
 62
     5
 10
975.5372699239952
 20
-747.9054251179966
 30
0.0
 40
4.0
  1
0.3
  0
TEXT
  5
74F
  8
回07-寸法
  6
CONTINUOUS
 62
     5
 10
982.3372699239952
 20
-747.9054251179966
 30
0.0
 40
2.666679999999999
  1
±0.05
  0
ENDBLK
  5
751
  8
0
  6
CONTINUOUS
 62
     1
  0
BLOCK
  8
0
  2
*X8787
 70
     1
 10
0.0
 20
0.0
 30
0.0
  3
*X8787
  1

  0
TEXT
  5
754
  8
回07-寸法
  6
CONTINUOUS
 62
     5
 10
843.0070624899236
 20
-509.0030403914616
 30
0.0
 40
4.0
  1
167.1
  0
TEXT
  5
755
  8
回07-寸法
  6
CONTINUOUS
 62
     5
 10
853.8070624899239
 20
-509.0030403914616
 30
0.0
 40
2.799999999999998
  1
±0.3
  0
ENDBLK
  5
757
  8
0
  6
CONTINUOUS
 62
     1
  0
BLOCK
  8
0
  2
*X8888
 70
     1
 10
0.0
 20
0.0
 30
0.0
  3
*X8888
  1

  0
TEXT
  5
75A
  8
回07-寸法
  6
CONTINUOUS
 62
     5
 10
720.8066687891367
 20
-620.3830403914619
 30
0.0
 40
4.0
  1
112.1
 50
90.0
  0
TEXT
  5
75B
  8
回07-寸法
  6
CONTINUOUS
 62
     5
 10
720.8066687891367
 20
-610.3830403914619
 30
0.0
 40
2.799999999999998
  1
±0.3
 50
90.0
  0
ENDBLK
  5
75D
  8
0
  6
CONTINUOUS
 62
     1
  0
BLOCK
  8
0
  2
*X8989
 70
     1
 10
0.0
 20
0.0
 30
0.0
  3
*X8989
  1

  0
TEXT
  5
760
  8
回07-寸法
  6
CONTINUOUS
 62
     5
 10
799.8670396142917
 20
-707.5530403914624
 30
0.0
 40
4.0
  1
70
 50
90.0
  0
TEXT
  5
761
  8
回07-寸法
  6
CONTINUOUS
 62
     5
 10
799.8670396142917
 20
-701.9530403914624
 30
0.0
 40
2.799999999999998
  1
±1
 50
90.0
  0
ENDBLK
  5
763
  8
0
  6
CONTINUOUS
 62
     1
  0
BLOCK
  8
0
  2
*X9090
 70
     1
 10
0.0
 20
0.0
 30
0.0
  3
*X9090
  1

  0
TEXT
  5
766
  8
回07-寸法
  6
CONTINUOUS
 62
     5
 10
907.6641053388124
 20
-707.5530162060561
 30
0.0
 40
4.0
  1
70
 50
90.0
  0
TEXT
  5
767
  8
回07-寸法
  6
CONTINUOUS
 62
     5
 10
907.6641053388124
 20
-701.9530162060561
 30
0.0
 40
2.799999999999998
  1
±1
 50
90.0
  0
ENDBLK
  5
769
  8
0
  6
CONTINUOUS
 62
     1
  0
BLOCK
  8
0
  2
*X9191
 70
     1
 10
0.0
 20
0.0
 30
0.0
  3
*X9191
  1

  0
TEXT
  5
76C
  8
回07-寸法
  6
CONTINUOUS
 62
     5
 10
822.2186529878927
 20
-761.1884716076782
 30
0.0
 40
4.0
  1
9.5
  0
TEXT
  5
76D
  8
回07-寸法
  6
CONTINUOUS
 62
     5
 10
829.0330944620006
 20
-761.1884716076782
 30
0.0
 40
2.799999999999998
  1
±0.1
  0
ENDBLK
  5
76F
  8
0
  6
CONTINUOUS
 62
     1
  0
BLOCK
  8
0
  2
*X9292
 70
     1
 10
0.0
 20
0.0
 30
0.0
  3
*X9292
  1

  0
TEXT
  5
772
  8
回07-寸法
  6
CONTINUOUS
 62
     5
 10
870.7559371744759
 20
-773.2703756096087
 30
0.0
 40
4.0
  1
8.5
  0
TEXT
  5
773
  8
回07-寸法
  6
CONTINUOUS
 62
     5
 10
877.5559371744757
 20
-773.2703756096087
 30
0.0
 40
2.799999999999998
  1
±0.1
  0
ENDBLK
  5
775
  8
0
  6
CONTINUOUS
 62
     1
  0
BLOCK
  8
0
  2
*X9393
 70
     1
 10
0.0
 20
0.0
 30
0.0
  3
*X9393
  1

  0
TEXT
  5
778
  8
回07-寸法
  6
CONTINUOUS
 62
     5
 10
1006.610767251515
 20
-754.2106652891891
 30
0.0
 40
4.0
  1
0.3
  0
TEXT
  5
779
  8
回07-寸法
  6
CONTINUOUS
 62
     5
 10
1013.410767251516
 20
-754.2106652891891
 30
0.0
 40
2.666679999999999
  1
±0.05
  0
ENDBLK
  5
77B
  8
0
  6
CONTINUOUS
 62
     1
  0
BLOCK
  8
0
  2
*X9494
 70
     1
 10
0.0
 20
0.0
 30
0.0
  3
*X9494
  1

  0
TEXT
  5
77E
  8
回07-寸法
  6
CONTINUOUS
 62
     5
 10
861.0290762482147
 20
-842.4216849785016
 30
0.0
 40
4.0
  1
8.5
  0
TEXT
  5
77F
  8
回07-寸法
  6
CONTINUOUS
 62
     5
 10
867.8290762482147
 20
-842.4216849785016
 30
0.0
 40
2.799999999999998
  1
±0.1
  0
ENDBLK
  5
781
  8
0
  6
CONTINUOUS
 62
     1
  0
BLOCK
  8
0
  2
*X9595
 70
     1
 10
0.0
 20
0.0
 30
0.0
  3
*X9595
  1

  0
TEXT
  5
784
  8
回07-寸法
  6
CONTINUOUS
 62
     5
 10
812.4917920616315
 20
-830.3397809765712
 30
0.0
 40
4.0
  1
9.5
  0
TEXT
  5
785
  8
回07-寸法
  6
CONTINUOUS
 62
     5
 10
819.3062335357396
 20
-830.3397809765712
 30
0.0
 40
2.799999999999998
  1
±0.1
  0
ENDBLK
  5
787
  8
0
  6
CONTINUOUS
 62
     1
  0
BLOCK
  8
0
  2
*X9696
 70
     1
 10
0.0
 20
0.0
 30
0.0
  3
*X9696
  1

  0
TEXT
  5
78A
  8
回07-寸法
  6
CONTINUOUS
 62
     5
 10
897.9372444125514
 20
-776.7043255749489
 30
0.0
 40
4.0
  1
70
 50
90.0
  0
TEXT
  5
78B
  8
回07-寸法
  6
CONTINUOUS
 62
     5
 10
897.9372444125514
 20
-771.1043255749489
 30
0.0
 40
2.799999999999998
  1
±1
 50
90.0
  0
ENDBLK
  5
78D
  8
0
  6
CONTINUOUS
 62
     1
  0
BLOCK
  8
0
  2
*X9797
 70
     1
 10
0.0
 20
0.0
 30
0.0
  3
*X9797
  1

  0
TEXT
  5
790
  8
回07-寸法
  6
CONTINUOUS
 62
     5
 10
790.1401786880307
 20
-776.704349760355
 30
0.0
 40
4.0
  1
70
 50
90.0
  0
TEXT
  5
791
  8
回07-寸法
  6
CONTINUOUS
 62
     5
 10
790.1401786880307
 20
-771.104349760355
 30
0.0
 40
2.799999999999998
  1
±1
 50
90.0
  0
ENDBLK
  5
793
  8
0
  6
CONTINUOUS
 62
     1
  0
BLOCK
  8
0
  2
*X9898
 70
     1
 10
0.0
 20
0.0
 30
0.0
  3
*X9898
  1

  0
TEXT
  5
796
  8
回07-寸法
  6
CONTINUOUS
 62
     5
 10
711.0802015636632
 20
-689.5343497603544
 30
0.0
 40
4.0
  1
112.1
 50
90.0
  0
TEXT
  5
797
  8
回07-寸法
  6
CONTINUOUS
 62
     5
 10
711.0802015636632
 20
-679.5343497603545
 30
0.0
 40
2.799999999999998
  1
±0.3
 50
90.0
  0
ENDBLK
  5
799
  8
0
  6
CONTINUOUS
 62
     1
  0
BLOCK
  8
0
  2
*X9999
 70
     1
 10
0.0
 20
0.0
 30
0.0
  3
*X9999
  1

  0
TEXT
  5
79C
  8
回07-寸法
  6
CONTINUOUS
 62
     5
 10
833.2802015636627
 20
-578.1543497603545
 30
0.0
 40
4.0
  1
167.1
  0
TEXT
  5
79D
  8
回07-寸法
  6
CONTINUOUS
 62
     5
 10
844.0802015636625
 20
-578.1543497603545
 30
0.0
 40
2.799999999999998
  1
±0.3
  0
ENDBLK
  5
79F
  8
0
  6
CONTINUOUS
 62
     1
  0
BLOCK
  8
0
  2
*X100100
 70
     1
 10
0.0
 20
0.0
 30
0.0
  3
*X100100
  1

  0
TEXT
  5
7A2
  8
回07-寸法
  6
CONTINUOUS
 62
     5
 10
965.8656377488593
 20
-817.0567344868896
 30
0.0
 40
4.0
  1
0.3
  0
TEXT
  5
7A3
  8
回07-寸法
  6
CONTINUOUS
 62
     5
 10
972.6656377488593
 20
-817.0567344868896
 30
0.0
 40
2.666679999999999
  1
±0.05
  0
ENDBLK
  5
7A5
  8
0
  6
CONTINUOUS
 62
     1
  0
BLOCK
  8
0
  2
*X101101
 70
     1
 10
0.0
 20
0.0
 30
0.0
  3
*X101101
  1

  0
TEXT
  5
7A8
  8
回07-寸法
  6
CONTINUOUS
 62
     5
 10
984.7287147347843
 20
-614.648974403905
 30
0.0
 40
4.0
  1
1.4
  0
TEXT
  5
7A9
  8
回07-寸法
  6
CONTINUOUS
 62
     5
 10
991.1287147347843
 20
-614.648974403905
 30
0.0
 40
2.0
  1
±0.2
  0
ENDBLK
  5
7AB
  8
0
  6
CONTINUOUS
 62
     1
  0
BLOCK
  8
0
  2
*X102102
 70
     1
 10
0.0
 20
0.0
 30
0.0
  3
*X102102
  1

  0
TEXT
  5
7AE
  8
回07-寸法
  6
CONTINUOUS
 62
     5
 10
996.8286775741287
 20
-823.3619746580821
 30
0.0
 40
4.0
  1
0.3
  0
TEXT
  5
7AF
  8
回07-寸法
  6
CONTINUOUS
 62
     5
 10
1003.628677574129
 20
-823.3619746580821
 30
0.0
 40
2.666679999999999
  1
±0.05
  0
ENDBLK
  5
7B1
  8
0
  6
CONTINUOUS
 62
     1
  0
ENDSEC
  0
SECTION
  2
ENTITIES
  0
TEXT
  5
5F
  8
回03-記事
  6
CONTINUOUS
 62
     5
 10
759.091839691509
 20
-908.7087603252928
 30
0.0
 40
5.712000000000001
  1
without affecting product specification.
  0
TEXT
  5
61
  8
回03-記事
  6
CONTINUOUS
 62
     5
 10
759.091839691509
 20
-898.6893105253951
 30
0.0
 40
5.712000000000001
  1
Edges and corners of ITO glass may be chamfered 
  0
TEXT
  5
62
  8
回03-記事
  6
CONTINUOUS
 62
     5
 10
759.091839691509
 20
-888.6698607254972
 30
0.0
 40
5.712000000000001
  1
Unit: mm
  0
TEXT
  5
63
  8
回03-記事
  6
CONTINUOUS
 62
     5
 10
759.091839691509
 20
-878.6504109255995
 30
0.0
 40
5.712000000000001
  1
EXCEPT WHERE INDICATED
  0
TEXT
  5
64
  8
回03-記事
  6
CONTINUOUS
 62
     5
 10
759.091839691509
 20
-868.6309611257019
 30
0.0
 40
5.712000000000001
  1
TOLERANCE=±0.5mm
  0
LINE
  5
65
  8
回04-図面枠
  6
CONTINUOUS
 62
     7
 10
1153.561126718539
 20
-917.6471711522903
 30
0.0
 11
1153.561126718539
 21
-901.6471711522903
 31
0.0
  0
LINE
  5
68
  8
回04-図面枠
  6
CENTER2
 62
     7
 10
1161.908979484948
 20
-915.3928120692183
 30
0.0
 11
1161.908979484948
 21
-904.1927148714718
 31
0.0
  0
LINE
  5
6A
  8
回04-図面枠
  6
CONTINUOUS
 62
     7
 10
1169.535368524847
 20
-912.1574284913277
 30
0.0
 11
1177.808656767632
 21
-914.2634076509493
 31
0.0
  0
LINE
  5
6B
  8
回04-図面枠
  6
CONTINUOUS
 62
     7
 10
1169.535368524847
 20
-907.4280984493624
 30
0.0
 11
1177.808656767632
 21
-905.3221192897396
 31
0.0
  0
LINE
  5
6C
  8
回04-図面枠
  6
CONTINUOUS
 62
     7
 10
1177.808656767632
 20
-905.3221192897396
 30
0.0
 11
1177.808656767632
 21
-914.2634076509493
 31
0.0
  0
LINE
  5
6D
  8
回04-図面枠
  6
CONTINUOUS
 62
     7
 10
1169.535368524847
 20
-907.4280984493624
 30
0.0
 11
1169.535368524847
 21
-912.1574284913277
 31
0.0
  0
LINE
  5
6E
  8
回04-図面枠
  6
CENTER2
 62
     7
 10
1156.774572585428
 20
-909.7927634703443
 30
0.0
 11
1178.541904508821
 21
-909.7927634703443
 31
0.0
  0
CIRCLE
  5
6F
  8
回04-図面枠
  6
CONTINUOUS
 62
     7
 10
1161.908979484948
 20
-909.7927634703443
 30
0.0
 40
2.364665020982694
  0
CIRCLE
  5
70
  8
回04-図面枠
  6
CONTINUOUS
 62
     7
 10
1161.908979484948
 20
-909.7927634703443
 30
0.0
 40
4.47064418060417
  0
TEXT
  5
71
  8
回03-記事
  6
CONTINUOUS
 10
1099.173246154774
 20
-848.9473226399411
 30
0.0
 40
5.395474022399999
  1
PROTECTION TAPE
  0
TEXT
  5
72
  8
回03-記事
  6
CONTINUOUS
 10
1090.748780951235
 20
-848.9758274941287
 30
0.0
 40
5.611292983296002
  1
6
  0
LINE
  5
73
  8
回03-記事
  6
CONTINUOUS
 10
1087.881940950578
 20
-850.5869898491456
 30
0.0
 11
1171.472592465645
 21
-850.5869898491456
 31
0.0
  0
TEXT
  5
74
  8
回03-記事
  6
CONTINUOUS
 10
1098.48833257334
 20
-839.8287558924499
 30
0.0
 40
5.611292983296002
  1
STIFFENER
  0
TEXT
  5
75
  8
回03-記事
  6
CONTINUOUS
 10
1098.48833257334
 20
-830.4766009202886
 30
0.0
 40
5.611292983296002
  1
REINFORCEMENT FILM
  0
TEXT
  5
76
  8
回03-記事
  6
CONTINUOUS
 10
1120.57166941472
 20
-792.6958725372156
 30
0.0
 40
5.611292983296002
  1
ITEM
  0
LINE
  5
77
  8
回03-記事
  6
CONTINUOUS
 10
1171.472592465645
 20
-850.5869898491456
 30
0.0
 11
1171.472592465645
 21
-785.1219050440255
 31
0.0
  0
TEXT
  5
78
  8
回03-記事
  6
CONTINUOUS
 10
1090.748780951235
 20
-820.9193625776523
 30
0.0
 40
5.611292983296002
  1
3
  0
TEXT
  5
79
  8
回03-記事
  6
CONTINUOUS
 10
1090.748780951235
 20
-830.2715175498091
 30
0.0
 40
5.611292983296002
  1
4
  0
TEXT
  5
7A
  8
回03-記事
  6
CONTINUOUS
 10
1090.748780951235
 20
-811.5672076054869
 30
0.0
 40
5.611292983296002
  1
2
  0
TEXT
  5
7B
  8
回03-記事
  6
CONTINUOUS
 10
1090.748780951235
 20
-839.623672521969
 30
0.0
 40
5.611292983296002
  1
5
  0
LINE
  5
7C
  8
回03-記事
  6
CONTINUOUS
 10
1097.612491988952
 20
-785.1219050440255
 30
0.0
 11
1097.612491988952
 21
-850.5869898491456
 31
0.0
  0
LINE
  5
7D
  8
回03-記事
  6
CONTINUOUS
 10
1087.881940950578
 20
-785.1219050440255
 30
0.0
 11
1087.881940950578
 21
-850.5869898491456
 31
0.0
  0
TEXT
  5
7E
  8
回03-記事
  6
CONTINUOUS
 10
1090.748780951235
 20
-802.2150526333296
 30
0.0
 40
5.611292983296002
  1
1
  0
LINE
  5
7F
  8
回03-記事
  6
CONTINUOUS
 10
1087.881940950578
 20
-841.2348348769858
 30
0.0
 11
1171.472592465645
 21
-841.2348348769858
 31
0.0
  0
LINE
  5
80
  8
回03-記事
  6
CONTINUOUS
 10
1087.881940950578
 20
-785.1219050440255
 30
0.0
 11
1171.472592465645
 21
-785.1219050440255
 31
0.0
  0
LINE
  5
81
  8
回03-記事
  6
CONTINUOUS
 10
1087.881940950578
 20
-803.8262149883436
 30
0.0
 11
1171.472592465645
 21
-803.8262149883497
 31
0.0
  0
LINE
  5
82
  8
回03-記事
  6
CONTINUOUS
 10
1087.881940950578
 20
-794.4740600161838
 30
0.0
 11
1171.472592465645
 21
-794.4740600161838
 31
0.0
  0
LINE
  5
83
  8
回03-記事
  6
CONTINUOUS
 10
1087.881940950578
 20
-831.8826799048245
 30
0.0
 11
1171.472592465645
 21
-831.8826799048245
 31
0.0
  0
LINE
  5
84
  8
回03-記事
  6
CONTINUOUS
 10
1087.881940950578
 20
-822.5305249326648
 30
0.0
 11
1171.472592465645
 21
-822.5305249326648
 31
0.0
  0
LINE
  5
85
  8
回03-記事
  6
CONTINUOUS
 10
1087.881940950578
 20
-813.1783699605049
 30
0.0
 11
1171.472592465645
 21
-813.1783699605049
 31
0.0
  0
TEXT
  5
86
  8
回03-記事
  6
CONTINUOUS
 10
1098.48833257334
 20
-802.3354250968422
 30
0.0
 40
5.611292983296002
  1
ITO FILM
  0
TEXT
  5
87
  8
回03-記事
  6
CONTINUOUS
 10
1098.48833257334
 20
-811.6875800690035
 30
0.0
 40
5.611292983296002
  1
ITO GLASS
  0
TEXT
  5
88
  8
回03-記事
  6
CONTINUOUS
 10
1098.48833257334
 20
-821.0397350411662
 30
0.0
 40
5.611292983296002
  1
TAIL
  0
TEXT
  5
89
  8
回04-図面枠
 62
     7
 10
1090.577257089425
 20
-894.0354763741986
 30
0.0
 40
8.0
  1
Oct/12/2023
 72
     1
 11
1120.177257089425
 21
-894.0354763741986
 31
0.0
  0
TEXT
  5
8A
  8
回04-図面枠
  6
CONTINUOUS
 62
     7
 10
1112.098425257797
 20
-876.5323773092028
 30
0.0
 40
4.799999999999999
  1
DATE
  0
TEXT
  5
8B
  8
回04-図面枠
 62
     7
 10
1075.459947337976
 20
-913.5868386127828
 30
0.0
 40
8.0
  1
DMC Co., Ltd.
 72
     1
 11
1107.259947337976
 21
-913.5868386127828
 31
0.0
  0
TEXT
  5
8C
  8
回04-図面枠
 62
     7
 10
964.177257089425
 20
-889.6601596399191
 30
0.0
 40
8.0
  1
MTR-G070WB070A
 72
     1
 11
1008.177257089425
 21
-889.6601596399191
 31
0.0
  0
TEXT
  5
8D
  8
回04-図面枠
 62
     7
 10
993.057257089425
 20
-876.1315664813094
 30
0.0
 40
4.799999999999999
  1
PART　No.
 72
     1
 11
1008.177257089425
 21
-876.1315664813094
 31
0.0
  0
LINE
  5
8E
  8
回04-図面枠
 62
     7
 10
960.9772570894245
 20
-909.6471711522903
 30
0.0
 11
1055.377257089424
 21
-909.6471711522903
 31
0.0
  0
TEXT
  5
8F
  8
回04-図面枠
 62
     7
 10
976.7252570894251
 20
-907.8071219820728
 30
0.0
 40
4.799999999999999
  1
Multi Touch Resistive
 72
     1
 11
1008.177257089425
 21
-907.8071219820728
 31
0.0
  0
TEXT
  5
90
  8
回04-図面枠
 62
     7
 10
973.3772570894251
 20
-915.8071219820728
 30
0.0
 40
4.799999999999999
  1
DIMENTIONAL　DRAWING
 72
     1
 11
1008.177257089425
 21
-915.8071219820728
 31
0.0
  0
LINE
  5
91
  8
回04-図面枠
 62
     7
 10
1060.177257089425
 20
-869.6471711522901
 30
0.0
 11
1060.177257089425
 21
-917.6471711522903
 31
0.0
  0
TEXT
  5
92
  8
回04-図面枠
 62
     7
 10
1000.497257089425
 20
-900.4573796489703
 30
0.0
 40
4.799999999999999
  1
TYPE
 72
     1
 11
1008.177257089425
 21
-900.4573796489703
 31
0.0
  0
LINE
  5
93
  8
回04-図面枠
 62
     7
 10
956.1772570894246
 20
-869.6471711522901
 30
0.0
 11
956.1772570894246
 21
-917.6471711522903
 31
0.0
  0
LINE
  5
94
  8
回04-図面枠
 62
     7
 10
956.1772570894246
 20
-893.6471711522901
 30
0.0
 11
1060.177257089425
 21
-893.6471711522901
 31
0.0
  0
LINE
  5
95
  8
回04-図面枠
 62
     7
 10
956.1772570894246
 20
-901.6471711522903
 30
0.0
 11
1180.177257089424
 21
-901.6471711522903
 31
0.0
  0
LINE
  5
96
  8
回04-図面枠
 62
     7
 10
956.1772570894246
 20
-869.6471711522901
 30
0.0
 11
1180.177257089424
 21
-869.6471711522901
 31
0.0
  0
LINE
  5
97
  8
回04-図面枠
 62
     7
 10
956.1772570894246
 20
-877.6471711522901
 30
0.0
 11
1180.177257089424
 21
-877.6471711522901
 31
0.0
  0
TEXT
  5
98
  8
回08-記事
  6
CONTINUOUS
 62
     7
 10
859.3382087769512
 20
-799.2036511744842
 30
0.0
 40
2.099999999999999
  1
(Conductor side near side)
  0
TEXT
  5
9C
  8
回08-記事
  6
CONTINUOUS
 62
     7
 10
864.4719535608071
 20
-794.9476467536174
 30
0.0
 40
2.099999999999999
  1
Tail-1
  0
TEXT
  5
9D
  8
回08-記事
  6
CONTINUOUS
 62
     7
 10
794.9409406755639
 20
-799.2036511744842
 30
0.0
 40
2.099999999999999
  1
(Conductor side far side)
  0
TEXT
  5
9E
  8
回08-記事
  6
CONTINUOUS
 62
     7
 10
810.6579399481324
 20
-794.9476467536174
 30
0.0
 40
2.099999999999999
  1
Tail-2
  0
TEXT
  5
9F
  8
回07-寸法
  6
CONTINUOUS
 62
     5
 10
939.5231817128568
 20
-586.1355150650044
 30
0.0
 40
3.0
  1
(Insulation area)
  0
TEXT
  5
A3
  8
回07-寸法
  6
CONTINUOUS
 62
     5
 10
719.725701646779
 20
-780.1709853653313
 30
0.0
 40
3.0
  1
(Insulation area)
 50
90.0
  0
TEXT
  5
A4
  8
回07-寸法
  6
CONTINUOUS
 62
     5
 10
718.1785420384892
 20
-611.0701470329834
 30
0.0
 40
3.0
  1
(Insulation area)
 50
90.0
  0
TEXT
  5
A5
  8
回07-寸法
  6
CONTINUOUS
 62
     5
 10
726.9703236942603
 20
-581.6131200937681
 30
0.0
 40
3.0
  1
(Insulation area)
  0
DIMENSION
  5
A6
  8
回07-寸法
  6
CONTINUOUS
 62
     7
  2
*D3939
 10
862.3802015636629
 20
-763.531775830025
 30
0.0
 11
868.6802015636628
 21
-763.531775830025
 31
0.0
 70
   160
  3
DMC
 13
845.3802015636629
 23
-737.1343981311672
 33
0.0
 14
862.3802015636629
 24
-737.1343497603549
 34
0.0
1001
ACAD
1000
DSTYLE
1002
{
1070
   371
1070
     9
1070
   372
1070
     9
1002
}
  0
DIMENSION
  5
B6
  8
回07-寸法
  6
CONTINUOUS
 62
     7
  2
*D4040
 10
840.8802015636624
 20
-763.531775830025
 30
0.0
 11
815.4370146056592
 21
-763.531775830025
 31
0.0
 70
   160
  3
DMC
 13
821.8802015636629
 23
-737.1343981311672
 33
0.0
 14
840.8802015636624
 24
-737.1343981311672
 34
0.0
1001
ACAD
1000
DSTYLE
1002
{
1070
   371
1070
     9
1070
   372
1070
     9
1002
}
  0
POLYLINE
  5
C5
  8
回05-ﾃｰﾙ
  6
CONTINUOUS
 62
     7
 66
     1
 10
0.0
 20
0.0
 30
0.0
 70
     1
  0
VERTEX
  5
9DE
  8
回05-ﾃｰﾙ
  6
CONTINUOUS
 62
     7
 10
858.4219694670279
 20
-744.0241119869977
 30
0.0
 42
0.1989123673796998
  0
VERTEX
  5
9E0
  8
回05-ﾃｰﾙ
  6
CONTINUOUS
 62
     7
 10
858.1290762482144
 20
-744.7312187681842
 30
0.0
  0
VERTEX
  5
9E1
  8
回05-ﾃｰﾙ
  6
CONTINUOUS
 62
     7
 10
858.1290762482144
 20
-807.0343497603554
 30
0.0
 42
-0.4142135623730951
  0
VERTEX
  5
9E2
  8
回05-ﾃｰﾙ
  6
CONTINUOUS
 62
     7
 10
858.0290762482144
 20
-807.1343497603555
 30
0.0
  0
VERTEX
  5
9E3
  8
回05-ﾃｰﾙ
  6
CONTINUOUS
 62
     7
 10
849.7290762482144
 20
-807.1343497603555
 30
0.0
 42
-0.4142135623730951
  0
VERTEX
  5
9E4
  8
回05-ﾃｰﾙ
  6
CONTINUOUS
 62
     7
 10
849.6290762482145
 20
-807.0343497603554
 30
0.0
  0
VERTEX
  5
9E5
  8
回05-ﾃｰﾙ
  6
CONTINUOUS
 62
     7
 10
849.6290762482145
 20
-744.7289681372874
 30
0.0
 42
0.1989123673796998
  0
VERTEX
  5
9E6
  8
回05-ﾃｰﾙ
  6
CONTINUOUS
 62
     7
 10
849.3361830294009
 20
-744.0218613561007
 30
0.0
  0
VERTEX
  5
9E7
  8
回05-ﾃｰﾙ
  6
CONTINUOUS
 62
     7
 10
845.6730947824766
 20
-740.3587731091761
 30
0.0
 42
-0.1989123673796998
  0
VERTEX
  5
9E8
  8
回05-ﾃｰﾙ
  6
CONTINUOUS
 62
     7
 10
845.3802015636631
 20
-739.6516663279896
 30
0.0
  0
VERTEX
  5
9E9
  8
回05-ﾃｰﾙ
  6
CONTINUOUS
 62
     7
 10
845.3802015636631
 20
-733.9843497603549
 30
0.0
  0
VERTEX
  5
9EA
  8
回05-ﾃｰﾙ
  6
CONTINUOUS
 62
     7
 10
862.3802015636631
 20
-733.9843497603549
 30
0.0
  0
VERTEX
  5
9EB
  8
回05-ﾃｰﾙ
  6
CONTINUOUS
 62
     7
 10
862.3802015636631
 20
-739.6516663279895
 30
0.0
 42
-0.1989123673796998
  0
VERTEX
  5
9EC
  8
回05-ﾃｰﾙ
  6
CONTINUOUS
 62
     7
 10
862.0873083448495
 20
-740.3587731091761
 30
0.0
  0
SEQEND
  5
9DF
  8
0
  6
CONTINUOUS
 62
     1
  0
POLYLINE
  5
C9
  8
回05-ﾃｰﾙ
  6
CONTINUOUS
 62
     7
 66
     1
 10
0.0
 20
0.0
 30
0.0
 70
     1
  0
VERTEX
  5
9ED
  8
回05-ﾃｰﾙ
  6
CONTINUOUS
 62
     7
 10
822.1730947824761
 20
-740.3587731091761
 30
0.0
  0
VERTEX
  5
9EF
  8
回05-ﾃｰﾙ
  6
CONTINUOUS
 62
     7
 10
828.3361830294005
 20
-746.5218613561004
 30
0.0
 42
-0.1989123673796998
  0
VERTEX
  5
9F0
  8
回05-ﾃｰﾙ
  6
CONTINUOUS
 62
     7
 10
828.629076248214
 20
-747.228968137287
 30
0.0
  0
VERTEX
  5
9F1
  8
回05-ﾃｰﾙ
  6
CONTINUOUS
 62
     7
 10
828.629076248214
 20
-807.0343497603554
 30
0.0
 42
0.4142135623730951
  0
VERTEX
  5
9F2
  8
回05-ﾃｰﾙ
  6
CONTINUOUS
 62
     7
 10
828.7290762482141
 20
-807.1343497603551
 30
0.0
  0
VERTEX
  5
9F3
  8
回05-ﾃｰﾙ
  6
CONTINUOUS
 62
     7
 10
838.0290762482141
 20
-807.1343497603551
 30
0.0
 42
0.4142135623730951
  0
VERTEX
  5
9F4
  8
回05-ﾃｰﾙ
  6
CONTINUOUS
 62
     7
 10
838.1290762482144
 20
-807.0343497603554
 30
0.0
  0
VERTEX
  5
9F5
  8
回05-ﾃｰﾙ
  6
CONTINUOUS
 62
     7
 10
838.1290762482144
 20
-743.2312187681842
 30
0.0
 42
-0.1989123673796998
  0
VERTEX
  5
9F6
  8
回05-ﾃｰﾙ
  6
CONTINUOUS
 62
     7
 10
838.4219694670278
 20
-742.5241119869976
 30
0.0
  0
VERTEX
  5
9F7
  8
回05-ﾃｰﾙ
  6
CONTINUOUS
 62
     7
 10
840.5873083448492
 20
-740.3587731091761
 30
0.0
 42
0.1989123673796998
  0
VERTEX
  5
9F8
  8
回05-ﾃｰﾙ
  6
CONTINUOUS
 62
     7
 10
840.8802015636625
 20
-739.6516663279896
 30
0.0
  0
VERTEX
  5
9F9
  8
回05-ﾃｰﾙ
  6
CONTINUOUS
 62
     7
 10
840.8802015636625
 20
-733.984349760355
 30
0.0
  0
VERTEX
  5
9FA
  8
回05-ﾃｰﾙ
  6
CONTINUOUS
 62
     7
 10
821.8802015636626
 20
-733.984349760355
 30
0.0
  0
VERTEX
  5
9FB
  8
回05-ﾃｰﾙ
  6
CONTINUOUS
 62
     7
 10
821.8802015636626
 20
-739.6516663279897
 30
0.0
 42
0.1989123673796998
  0
SEQEND
  5
9EE
  8
0
  6
CONTINUOUS
 62
     1
  0
TEXT
  5
CA
  8
回08-記事
  6
CONTINUOUS
 62
     7
 10
913.5848795119979
 20
-722.9336587866058
 30
0.0
 40
2.0
  1
SDR
  0
TEXT
  5
CB
  8
回08-記事
  6
CONTINUOUS
 62
     7
 10
766.5196142467341
 20
-722.9336587866058
 30
0.0
 40
2.0
  1
SDL
  0
TEXT
  5
CC
  8
回08-記事
  6
CONTINUOUS
 62
     7
 10
907.8404854619227
 20
-723.0810098372215
 30
0.0
 40
2.0
  1
D8
  0
TEXT
  5
CD
  8
回08-記事
  6
CONTINUOUS
 62
     7
 10
888.740485461923
 20
-723.0810098372215
 30
0.0
 40
2.0
  1
D7
  0
TEXT
  5
CE
  8
回08-記事
  6
CONTINUOUS
 62
     7
 10
869.6404854619229
 20
-723.0810098372215
 30
0.0
 40
2.0
  1
D6
  0
TEXT
  5
CF
  8
回08-記事
  6
CONTINUOUS
 62
     7
 10
850.5404854619229
 20
-723.0810098372215
 30
0.0
 40
2.0
  1
D5
  0
TEXT
  5
D0
  8
回08-記事
  6
CONTINUOUS
 62
     7
 10
831.4404854619228
 20
-723.0810098372215
 30
0.0
 40
2.0
  1
D4
  0
TEXT
  5
D1
  8
回08-記事
  6
CONTINUOUS
 62
     7
 10
812.3404854619229
 20
-723.0810098372215
 30
0.0
 40
2.0
  1
D3
  0
TEXT
  5
D2
  8
回08-記事
  6
CONTINUOUS
 62
     7
 10
793.2404854619229
 20
-723.0810098372215
 30
0.0
 40
2.0
  1
D2
  0
TEXT
  5
D3
  8
回08-記事
  6
CONTINUOUS
 62
     7
 10
774.1404854619229
 20
-723.0810098372215
 30
0.0
 40
2.0
  1
D1
  0
TEXT
  5
D4
  8
回08-記事
  6
CONTINUOUS
 62
     7
 10
915.0043310922956
 20
-643.4162269723432
 30
0.0
 40
2.0
  1
R1
  0
TEXT
  5
D5
  8
回08-記事
  6
CONTINUOUS
 62
     7
 10
915.0043310922956
 20
-661.6162269723433
 30
0.0
 40
2.0
  1
R2
  0
TEXT
  5
D6
  8
回08-記事
  6
CONTINUOUS
 62
     7
 10
915.0043310922956
 20
-679.8162269723433
 30
0.0
 40
2.0
  1
R3
  0
TEXT
  5
D7
  8
回08-記事
  6
CONTINUOUS
 62
     7
 10
915.0043310922956
 20
-698.0162269723432
 30
0.0
 40
2.0
  1
R4
  0
TEXT
  5
D8
  8
回08-記事
  6
CONTINUOUS
 62
     7
 10
915.0043310922956
 20
-716.2162269723433
 30
0.0
 40
2.0
  1
R5
  0
TEXT
  5
D9
  8
回08-記事
  6
CONTINUOUS
 62
     7
 10
913.5848795119979
 20
-636.7589674362188
 30
0.0
 40
2.0
  1
SUR
  0
TEXT
  5
DA
  8
回08-記事
  6
CONTINUOUS
 62
     7
 10
907.8404854619227
 20
-635.181149390459
 30
0.0
 40
2.0
  1
U8
  0
TEXT
  5
DB
  8
回08-記事
  6
CONTINUOUS
 62
     7
 10
888.740485461923
 20
-635.181149390459
 30
0.0
 40
2.0
  1
U7
  0
TEXT
  5
DC
  8
回08-記事
  6
CONTINUOUS
 62
     7
 10
869.6404854619229
 20
-635.181149390459
 30
0.0
 40
2.0
  1
U6
  0
TEXT
  5
DD
  8
回08-記事
  6
CONTINUOUS
 62
     7
 10
850.5404854619229
 20
-635.181149390459
 30
0.0
 40
2.0
  1
U5
  0
TEXT
  5
DE
  8
回08-記事
  6
CONTINUOUS
 62
     7
 10
831.4404854619228
 20
-635.181149390459
 30
0.0
 40
2.0
  1
U4
  0
TEXT
  5
DF
  8
回08-記事
  6
CONTINUOUS
 62
     7
 10
812.3404854619229
 20
-635.181149390459
 30
0.0
 40
2.0
  1
U3
  0
TEXT
  5
E0
  8
回08-記事
  6
CONTINUOUS
 62
     7
 10
793.2404854619229
 20
-635.181149390459
 30
0.0
 40
2.0
  1
U2
  0
TEXT
  5
E1
  8
回08-記事
  6
CONTINUOUS
 62
     7
 10
774.1404854619229
 20
-635.181149390459
 30
0.0
 40
2.0
  1
U1
  0
TEXT
  5
E2
  8
回08-記事
  6
CONTINUOUS
 62
     7
 10
766.5874624590725
 20
-643.4162269723432
 30
0.0
 40
2.0
  1
L1
  0
TEXT
  5
E3
  8
回08-記事
  6
CONTINUOUS
 62
     7
 10
766.5874624590725
 20
-661.6162269723433
 30
0.0
 40
2.0
  1
L2
  0
TEXT
  5
E4
  8
回08-記事
  6
CONTINUOUS
 62
     7
 10
766.5874624590725
 20
-679.8162269723433
 30
0.0
 40
2.0
  1
L3
  0
TEXT
  5
E5
  8
回08-記事
  6
CONTINUOUS
 62
     7
 10
766.5874624590725
 20
-698.0162269723432
 30
0.0
 40
2.0
  1
L4
  0
TEXT
  5
E6
  8
回08-記事
  6
CONTINUOUS
 62
     7
 10
766.5874624590725
 20
-716.2162269723433
 30
0.0
 40
2.0
  1
L5
  0
TEXT
  5
E7
  8
回08-記事
  6
CONTINUOUS
 62
     7
 10
766.5196142467341
 20
-636.7589674362188
 30
0.0
 40
2.0
  1
SUL
  0
DIMENSION
  5
E8
  8
回07-寸法
  6
CONTINUOUS
 62
     1
  2
*D4141
 10
874.6824159288857
 20
-744.348535335819
 30
0.0
 11
872.1824159288855
 21
-751.6485353358191
 31
0.0
 70
    32
  3
DMC
 13
862.3802015636631
 23
-737.1343013895426
 33
0.0
 14
858.2051967157033
 24
-744.348535335819
 34
0.0
 50
90.0
1001
ACAD
1000
DSTYLE
1002
{
1070
    41
1040
1.5
1070
    47
1040
0.2
1070
    48
1040
0.2
1070
   140
1040
4.0
1070
   141
1040
1.5
1070
   371
1070
    13
1070
   372
1070
    13
1002
}
  0
DIMENSION
  5
F9
  8
回07-寸法
  6
CONTINUOUS
 62
     1
  2
*D4242
 10
867.1928742435849
 20
-740.0343497603546
 30
0.0
 11
867.1928742435849
 21
-749.5222984795116
 31
0.0
 70
   160
  3
DMC
 13
862.3802015636631
 23
-737.1343497603548
 33
0.0
 14
862.3040810961743
 24
-740.0343497603546
 34
0.0
 50
90.0
1001
ACAD
1000
DSTYLE
1002
{
1070
    41
1040
1.5
1070
    47
1040
0.2
1070
    48
1040
0.2
1070
   140
1040
4.0
1070
   141
1040
1.5
1070
   371
1070
    13
1070
   372
1070
    13
1002
}
  0
DIMENSION
  5
10A
  8
回07-寸法
  6
CONTINUOUS
 62
    18
  2
*D4343
 10
812.9145788047416
 20
-737.1343497603549
 30
0.0
 11
812.9145788047416
 21
-754.142480504085
 31
0.0
 70
   160
  3
DMC
 13
828.5529557807253
 23
-746.846284704922
 33
0.0
 14
821.8802015636626
 24
-737.1343497603549
 34
0.0
 50
90.0
1001
ACAD
1000
DSTYLE
1002
{
1070
    41
1040
1.0
1070
    47
1040
0.2
1070
    48
1040
0.2
1070
   140
1040
2.0
1070
   371
1070
     9
1070
   372
1070
     9
1002
}
  0
DIMENSION
  5
11B
  8
回07-寸法
  6
CONTINUOUS
 62
    18
  2
*D4444
 10
818.4690398437663
 20
-737.1343497603549
 30
0.0
 11
818.4690398437663
 21
-753.1749356600608
 31
0.0
 70
   160
  3
DMC
 13
821.9563220311513
 23
-740.034349760355
 33
0.0
 14
821.8802015636626
 24
-737.1343497603549
 34
0.0
 50
90.0
1001
ACAD
1000
DSTYLE
1002
{
1070
    41
1040
1.0
1070
    47
1040
0.2
1070
    48
1040
0.2
1070
   140
1040
2.0
1070
   371
1070
     9
1070
   372
1070
     9
1002
}
  0
POLYLINE
  5
12C
  8
回08-記事
  6
PHANTOM2
 62
     7
 66
     1
 10
0.0
 20
0.0
 30
0.0
 70
     1
  0
VERTEX
  5
9FC
  8
回08-記事
  6
PHANTOM2
 62
     7
 10
763.0802015636627
 20
-630.4343497603547
 30
0.0
  0
VERTEX
  5
9FE
  8
回08-記事
  6
PHANTOM2
 62
     7
 10
921.1802015636628
 20
-630.4343497603547
 30
0.0
  0
VERTEX
  5
9FF
  8
回08-記事
  6
PHANTOM2
 62
     7
 10
921.1802015636628
 20
-726.9343497603547
 30
0.0
  0
VERTEX
  5
A00
  8
回08-記事
  6
PHANTOM2
 62
     7
 10
763.0802015636627
 20
-726.9343497603547
 30
0.0
  0
SEQEND
  5
9FD
  8
0
  6
CONTINUOUS
 62
     1
  0
TEXT
  5
12E
  8
回08-記事
  6
CONTINUOUS
 62
     7
 10
858.6837809437199
 20
-806.0582402208794
 30
0.0
 40
2.0
  1
1
  0
TEXT
  5
12F
  8
回08-記事
  6
CONTINUOUS
 62
     7
 10
845.9716483914267
 20
-806.0582402208794
 30
0.0
 40
2.0
  1
16
  0
TEXT
  5
130
  8
回08-記事
  6
CONTINUOUS
 62
     7
 10
838.5463499285394
 20
-806.0582402208794
 30
0.0
 40
2.0
  1
17
  0
TEXT
  5
131
  8
回08-記事
  6
CONTINUOUS
 62
     7
 10
824.9431953376149
 20
-806.0582402208794
 30
0.0
 40
2.0
  1
34
  0
TEXT
  5
132
  8
回90-枠2
 10
1143.906642395077
 20
-532.2747480262392
 30
0.0
 40
4.0
  1
H
  0
LINE
  5
136
  8
回90-枠2
 10
1110.177257089425
 20
-527.6471711522902
 30
0.0
 11
1110.177257089425
 21
-532.6471711522903
 31
0.0
  0
LINE
  5
137
  8
回90-枠2
 10
1040.177257089425
 20
-527.6471711522902
 30
0.0
 11
1040.177257089425
 21
-532.6471711522903
 31
0.0
  0
TEXT
  5
138
  8
回90-枠2
 10
1003.906642395077
 20
-532.2747480262392
 30
0.0
 40
4.0
  1
F
  0
LINE
  5
139
  8
回90-枠2
 10
970.1772570894247
 20
-527.6471711522902
 30
0.0
 11
970.1772570894247
 21
-532.6471711522903
 31
0.0
  0
TEXT
  5
13A
  8
回90-枠2
 10
933.906642395077
 20
-532.2747480262392
 30
0.0
 40
4.0
  1
E
  0
TEXT
  5
13B
  8
回90-枠2
 10
1073.906642395077
 20
-532.2747480262392
 30
0.0
 40
4.0
  1
G
  0
LINE
  5
13C
  8
回90-枠2
 10
900.1772570894246
 20
-527.6471711522902
 30
0.0
 11
900.1772570894246
 21
-532.6471711522903
 31
0.0
  0
TEXT
  5
13D
  8
回90-枠2
 10
863.9066423950771
 20
-532.2747480262392
 30
0.0
 40
4.0
  1
D
  0
LINE
  5
13E
  8
回90-枠2
 10
830.1772570894247
 20
-527.6471711522902
 30
0.0
 11
830.1772570894247
 21
-532.6471711522903
 31
0.0
  0
TEXT
  5
13F
  8
回90-枠2
 10
793.906642395077
 20
-532.2747480262392
 30
0.0
 40
4.0
  1
C
  0
LINE
  5
140
  8
回90-枠2
 10
760.1772570894246
 20
-527.6471711522902
 30
0.0
 11
760.1772570894246
 21
-532.6471711522903
 31
0.0
  0
TEXT
  5
141
  8
回90-枠2
 10
723.906642395077
 20
-532.2747480262392
 30
0.0
 40
4.0
  1
B
  0
LINE
  5
142
  8
回90-枠2
 10
690.1772570894246
 20
-527.6471711522902
 30
0.0
 11
690.1772570894246
 21
-532.6471711522903
 31
0.0
  0
TEXT
  5
143
  8
回90-枠2
 10
653.906642395077
 20
-532.2747480262392
 30
0.0
 40
4.0
  1
A
  0
LINE
  5
144
  8
回90-枠2
 10
1185.177257089424
 20
-527.6471711522902
 30
0.0
 11
615.1772570894246
 21
-527.6471711522902
 31
0.0
  0
LINE
  5
145
  8
回90-枠2
 10
620.1772570894246
 20
-532.6471711522903
 30
0.0
 11
1180.177257089424
 21
-532.6471711522903
 31
0.0
  0
TEXT
  5
146
  8
回90-枠2
 10
1181.581678093084
 20
-573.358483856431
 30
0.0
 40
4.0
  1
1
  0
LINE
  5
147
  8
回90-枠2
 10
1185.177257089424
 20
-609.6471711522903
 30
0.0
 11
1180.177257089424
 21
-609.6471711522903
 31
0.0
  0
TEXT
  5
148
  8
回90-枠2
 10
1181.280179389782
 20
-650.3584838564311
 30
0.0
 40
4.0
  1
2
  0
LINE
  5
149
  8
回90-枠2
 10
1185.177257089424
 20
-686.6471711522903
 30
0.0
 11
1180.177257089424
 21
-686.6471711522903
 31
0.0
  0
TEXT
  5
14A
  8
回90-枠2
 10
1181.274698545581
 20
-727.358483856431
 30
0.0
 40
4.0
  1
3
  0
LINE
  5
14B
  8
回90-枠2
 10
1185.177257089424
 20
-763.6471711522902
 30
0.0
 11
1180.177257089424
 21
-763.6471711522902
 31
0.0
  0
TEXT
  5
14C
  8
回90-枠2
 10
1181.2016064255
 20
-804.358483856431
 30
0.0
 40
4.0
  1
4
  0
TEXT
  5
14D
  8
回90-枠2
 10
616.5816780930838
 20
-573.358483856431
 30
0.0
 40
4.0
  1
1
  0
LINE
  5
14E
  8
回90-枠2
 10
620.1772570894246
 20
-609.6471711522903
 30
0.0
 11
615.1772570894246
 21
-609.6471711522903
 31
0.0
  0
TEXT
  5
14F
  8
回90-枠2
 10
616.2801793897821
 20
-650.3584838564311
 30
0.0
 40
4.0
  1
2
  0
LINE
  5
150
  8
回90-枠2
 10
620.1772570894246
 20
-686.6471711522903
 30
0.0
 11
615.1772570894246
 21
-686.6471711522903
 31
0.0
  0
TEXT
  5
151
  8
回90-枠2
 10
616.2746985455814
 20
-727.358483856431
 30
0.0
 40
4.0
  1
3
  0
LINE
  5
152
  8
回90-枠2
 10
620.1772570894246
 20
-763.6471711522902
 30
0.0
 11
615.1772570894246
 21
-763.6471711522902
 31
0.0
  0
TEXT
  5
153
  8
回90-枠2
 10
616.2016064255002
 20
-804.358483856431
 30
0.0
 40
4.0
  1
4
  0
LINE
  5
154
  8
回90-枠2
 10
1185.177257089424
 20
-840.6471711522902
 30
0.0
 11
1180.177257089424
 21
-840.6471711522902
 31
0.0
  0
TEXT
  5
155
  8
回90-枠2
 10
1181.2016064255
 20
-881.3584838564311
 30
0.0
 40
4.0
  1
5
  0
TEXT
  5
156
  8
回90-枠2
 10
1143.906642395077
 20
-922.2747480262393
 30
0.0
 40
4.0
  1
H
  0
LINE
  5
157
  8
回90-枠2
 10
1110.177257089425
 20
-917.6471711522903
 30
0.0
 11
1110.177257089425
 21
-922.6471711522902
 31
0.0
  0
LINE
  5
158
  8
回90-枠2
 10
1040.177257089425
 20
-917.6471711522903
 30
0.0
 11
1040.177257089425
 21
-922.6471711522902
 31
0.0
  0
TEXT
  5
159
  8
回90-枠2
 10
1003.906642395077
 20
-922.2747480262393
 30
0.0
 40
4.0
  1
F
  0
LINE
  5
15A
  8
回90-枠2
 10
970.1772570894247
 20
-917.6471711522903
 30
0.0
 11
970.1772570894247
 21
-922.6471711522902
 31
0.0
  0
TEXT
  5
15B
  8
回90-枠2
 10
933.906642395077
 20
-922.2747480262393
 30
0.0
 40
4.0
  1
E
  0
TEXT
  5
15C
  8
回90-枠2
 10
1073.906642395077
 20
-922.2747480262393
 30
0.0
 40
4.0
  1
G
  0
LINE
  5
15D
  8
回90-枠2
 10
900.1772570894246
 20
-917.6471711522903
 30
0.0
 11
900.1772570894246
 21
-922.6471711522902
 31
0.0
  0
TEXT
  5
15E
  8
回90-枠2
 10
863.9066423950771
 20
-922.2747480262393
 30
0.0
 40
4.0
  1
D
  0
LINE
  5
15F
  8
回90-枠2
 10
830.1772570894247
 20
-917.6471711522903
 30
0.0
 11
830.1772570894247
 21
-922.6471711522902
 31
0.0
  0
TEXT
  5
160
  8
回90-枠2
 10
793.906642395077
 20
-922.2747480262393
 30
0.0
 40
4.0
  1
C
  0
LINE
  5
161
  8
回90-枠2
 10
760.1772570894246
 20
-917.6471711522903
 30
0.0
 11
760.1772570894246
 21
-922.6471711522902
 31
0.0
  0
LINE
  5
162
  8
回90-枠2
 10
620.1772570894246
 20
-840.6471711522902
 30
0.0
 11
615.1772570894246
 21
-840.6471711522902
 31
0.0
  0
TEXT
  5
163
  8
回90-枠2
 10
616.2016064255002
 20
-881.3584838564311
 30
0.0
 40
4.0
  1
5
  0
TEXT
  5
164
  8
回90-枠2
 10
723.906642395077
 20
-922.2747480262393
 30
0.0
 40
4.0
  1
B
  0
LINE
  5
165
  8
回90-枠2
 10
690.1772570894246
 20
-917.6471711522903
 30
0.0
 11
690.1772570894246
 21
-922.6471711522902
 31
0.0
  0
TEXT
  5
166
  8
回90-枠2
 10
653.906642395077
 20
-922.2747480262393
 30
0.0
 40
4.0
  1
A
  0
LINE
  5
167
  8
回90-枠2
 10
620.1772570894246
 20
-917.6471711522903
 30
0.0
 11
1180.177257089424
 21
-917.6471711522903
 31
0.0
  0
LINE
  5
168
  8
回90-枠2
 10
1185.177257089424
 20
-922.6471711522902
 30
0.0
 11
615.1772570894246
 21
-922.6471711522902
 31
0.0
  0
LINE
  5
169
  8
回90-枠2
 10
1185.177257089424
 20
-922.6471711522902
 30
0.0
 11
1185.177257089424
 21
-527.6471711522902
 31
0.0
  0
LINE
  5
16A
  8
回90-枠2
 10
1180.177257089424
 20
-532.6471711522903
 30
0.0
 11
1180.177257089424
 21
-917.6471711522903
 31
0.0
  0
LINE
  5
16B
  8
回90-枠2
 10
615.1772570894246
 20
-922.6471711522902
 30
0.0
 11
615.1772570894246
 21
-527.6471711522902
 31
0.0
  0
LINE
  5
16C
  8
回90-枠2
 10
620.1772570894246
 20
-532.6471711522903
 30
0.0
 11
620.1772570894246
 21
-917.6471711522903
 31
0.0
  0
DIMENSION
  5
16D
  8
回07-寸法
  6
CONTINUOUS
 62
     5
  2
*D4545
 10
858.1290762482147
 20
-842.9216849785017
 30
0.0
 11
867.5990762482147
 21
-840.4216849785019
 31
0.0
 70
    32
  3
DMC
 13
849.6290762482145
 23
-807.0343497603554
 33
0.0
 14
858.1290762482147
 24
-807.0343497603554
 34
0.0
1001
ACAD
1000
DSTYLE
1002
{
1070
    41
1040
1.5
1070
    47
1040
0.1
1070
    48
1040
0.1
1070
    71
1070
     1
1070
   140
1040
4.0
1070
   141
1040
1.5
1070
   371
1070
    13
1070
   372
1070
    13
1002
}
  0
DIMENSION
  5
17C
  8
回07-寸法
  6
CONTINUOUS
 62
     5
  2
*D4646
 10
849.6290762482145
 20
-842.9216849785017
 30
0.0
 11
804.1046389059387
 21
-840.2216849785016
 31
0.0
 70
    32
  1
(<>)
  3
DMC
 13
758.5802015636627
 23
-737.1343497603544
 33
0.0
 14
849.6290762482145
 24
-807.0343497603554
 34
0.0
1001
ACAD
1000
DSTYLE
1002
{
1070
    41
1040
1.5
1070
    47
1040
0.2
1070
    48
1040
0.2
1070
   140
1040
4.0
1070
   141
1040
1.5
1070
   371
1070
    13
1070
   372
1070
    13
1002
}
  0
DIMENSION
  5
189
  8
回07-寸法
  6
CONTINUOUS
 62
     5
  2
*D4747
 10
838.1290762482144
 20
-830.8397809765711
 30
0.0
 11
819.0762335357396
 21
-830.8397809765711
 31
0.0
 70
   160
  3
DMC
 13
828.6290762482142
 23
-807.034349760355
 33
0.0
 14
838.1290762482144
 24
-807.0343497603554
 34
0.0
1001
ACAD
1000
DSTYLE
1002
{
1070
    41
1040
1.5
1070
    47
1040
0.1
1070
    48
1040
0.1
1070
    71
1070
     1
1070
   140
1040
4.0
1070
   141
1040
1.5
1070
   371
1070
    13
1070
   372
1070
    13
1002
}
  0
DIMENSION
  5
198
  8
回07-寸法
  6
CONTINUOUS
 62
     5
  2
*D4848
 10
828.6290762482142
 20
-830.8397809765711
 30
0.0
 11
793.6046389059383
 21
-830.8397809765711
 31
0.0
 70
   160
  1
(<>)
  3
DMC
 13
758.5802015636627
 23
-737.1343497603544
 33
0.0
 14
828.6290762482142
 24
-807.034349760355
 34
0.0
1001
ACAD
1000
DSTYLE
1002
{
1070
    41
1040
1.5
1070
    47
1040
0.2
1070
    48
1040
0.2
1070
   140
1040
4.0
1070
   141
1040
1.5
1070
   371
1070
    13
1070
   372
1070
    13
1002
}
  0
DIMENSION
  5
1A5
  8
回07-寸法
  6
CONTINUOUS
 62
     5
  2
*D4949
 10
898.4372444125515
 20
-807.1343497603555
 30
0.0
 11
895.9372444125515
 21
-772.134325574949
 31
0.0
 70
    32
  3
DMC
 13
862.3802015636631
 23
-737.1343013895425
 33
0.0
 14
858.0290762482146
 24
-807.1343497603555
 34
0.0
 50
90.0
1001
ACAD
1000
DSTYLE
1002
{
1070
   147
1040
0.5
1070
    72
1070
     0
1070
    71
1070
     1
1070
    41
1040
1.5
1070
    47
1040
1.0
1070
    48
1040
1.0
1070
   140
1040
4.0
1070
   141
1040
1.5
1070
   371
1070
    13
1070
   372
1070
    13
1002
}
  0
DIMENSION
  5
1B2
  8
回07-寸法
  6
CONTINUOUS
 62
     5
  2
*D5050
 10
790.6401786880307
 20
-737.1343497603548
 30
0.0
 11
788.1401786880307
 21
-772.1343497603551
 31
0.0
 70
    32
  3
DMC
 13
829.1290762482141
 23
-807.1343497603551
 33
0.0
 14
821.8802015636626
 24
-737.1343497603548
 34
0.0
 50
90.0
1001
ACAD
1000
DSTYLE
1002
{
1070
   147
1040
0.5
1070
    72
1070
     0
1070
    71
1070
     1
1070
    41
1040
1.5
1070
    47
1040
1.0
1070
    48
1040
1.0
1070
   140
1040
4.0
1070
   141
1040
1.5
1070
   371
1070
    13
1070
   372
1070
    13
1002
}
  0
DIMENSION
  5
1BF
  8
回07-寸法
  6
CONTINUOUS
 62
     5
  2
*D5151
 10
738.5802015636627
 20
-625.0343497603546
 30
0.0
 11
738.5802015636627
 21
-615.7287038264503
 31
0.0
 70
   160
  1
(<>)
  3
DMC
 13
765.9302015636627
 23
-632.9643497603544
 33
0.0
 14
758.5802015636627
 24
-625.0343497603546
 34
0.0
 50
90.0
1001
ACAD
1000
DSTYLE
1002
{
1070
    41
1040
1.5
1070
    47
1040
0.2
1070
    48
1040
0.2
1070
   140
1040
4.0
1070
   141
1040
1.5
1070
   371
1070
    13
1070
   372
1070
    13
1002
}
  0
DIMENSION
  5
1CE
  8
回07-寸法
  6
CONTINUOUS
 62
     5
  2
*D5252
 10
729.5802015636633
 20
-625.0343497603546
 30
0.0
 11
726.8791549708208
 21
-617.1287038264503
 31
0.0
 70
    32
  1
(<>)
  3
DMC
 13
763.5802015636627
 23
-630.9343497603545
 33
0.0
 14
758.5802015636627
 24
-625.0343497603546
 34
0.0
 50
90.0
1001
ACAD
1000
DSTYLE
1002
{
1070
    41
1040
1.5
1070
    47
1040
0.2
1070
    48
1040
0.2
1070
   140
1040
4.0
1070
   141
1040
1.5
1070
   371
1070
    13
1070
   372
1070
    13
1002
}
  0
DIMENSION
  5
1DD
  8
回07-寸法
  6
CONTINUOUS
 62
     5
  2
*D5353
 10
720.5802015636638
 20
-625.0343497603546
 30
0.0
 11
717.8802015636638
 21
-616.9359245635043
 31
0.0
 70
    32
  1
(<>)
  3
DMC
 13
763.0802015636627
 23
-630.4343497603545
 33
0.0
 14
758.5802015636627
 24
-625.0343497603546
 34
0.0
 50
90.0
1001
ACAD
1000
DSTYLE
1002
{
1070
    41
1040
1.5
1070
    47
1040
0.2
1070
    48
1040
0.2
1070
   140
1040
4.0
1070
   141
1040
1.5
1070
   371
1070
    13
1070
   372
1070
    13
1002
}
  0
DIMENSION
  5
1EC
  8
回07-寸法
  6
CONTINUOUS
 62
     5
  2
*D5454
 10
738.5802015636627
 20
-737.1343497603544
 30
0.0
 11
738.5802015636627
 21
-745.9171924728296
 31
0.0
 70
   160
  3
DMC
 13
765.9302015636627
 23
-724.4043497603544
 33
0.0
 14
758.5802015636627
 24
-737.1343497603544
 34
0.0
 50
90.0
1001
ACAD
1000
DSTYLE
1002
{
1070
    41
1040
1.5
1070
    47
1040
0.2
1070
    48
1040
0.2
1070
   140
1040
4.0
1070
   141
1040
1.5
1070
   371
1070
    13
1070
   372
1070
    13
1002
}
  0
DIMENSION
  5
1FB
  8
回07-寸法
  6
CONTINUOUS
 62
     5
  2
*D5555
 10
720.580201563663
 20
-737.1343497603544
 30
0.0
 11
720.580201563663
 21
-744.5544678705912
 31
0.0
 70
   160
  3
DMC
 13
763.0802015636627
 23
-726.9343497603545
 33
0.0
 14
758.5802015636627
 24
-737.1343497603544
 34
0.0
 50
90.0
1001
ACAD
1000
DSTYLE
1002
{
1070
    41
1040
1.5
1070
    47
1040
0.2
1070
    48
1040
0.2
1070
   140
1040
4.0
1070
   141
1040
1.5
1070
   371
1070
    13
1070
   372
1070
    13
1002
}
  0
DIMENSION
  5
20A
  8
回07-寸法
  6
CONTINUOUS
 62
     5
  2
*D5656
 10
925.6802015636628
 20
-596.6543497603545
 30
0.0
 11
931.5786267605133
 21
-593.9543497603543
 31
0.0
 70
    32
  1
(<>)
  3
DMC
 13
920.6802015636627
 23
-630.9343497603545
 33
0.0
 14
925.6802015636628
 24
-625.0343497603544
 34
0.0
1001
ACAD
1000
DSTYLE
1002
{
1070
    41
1040
1.5
1070
    47
1040
0.2
1070
    48
1040
0.2
1070
   140
1040
4.0
1070
   141
1040
1.5
1070
   371
1070
    13
1070
   372
1070
    13
1002
}
  0
DIMENSION
  5
219
  8
回07-寸法
  6
CONTINUOUS
 62
     5
  2
*D5757
 10
925.6802015636628
 20
-605.6543497603545
 30
0.0
 11
934.9786267605132
 21
-605.6543497603545
 31
0.0
 70
   160
  1
(<>)
  3
DMC
 13
918.3302015636627
 23
-632.9643497603544
 33
0.0
 14
925.6802015636628
 24
-625.0343497603544
 34
0.0
1001
ACAD
1000
DSTYLE
1002
{
1070
    41
1040
1.5
1070
    47
1040
0.2
1070
    48
1040
0.2
1070
   140
1040
4.0
1070
   141
1040
1.5
1070
   371
1070
    13
1070
   372
1070
    13
1002
}
  0
DIMENSION
  5
228
  8
回07-寸法
  6
CONTINUOUS
 62
     5
  2
*D5858
 10
758.5802015636627
 20
-596.6543497603545
 30
0.0
 11
754.197358851188
 21
-596.6543497603545
 31
0.0
 70
   160
  3
DMC
 13
763.5802015636627
 23
-630.9343497603545
 33
0.0
 14
758.5802015636627
 24
-625.0343497603546
 34
0.0
1001
ACAD
1000
DSTYLE
1002
{
1070
    41
1040
1.5
1070
    47
1040
0.2
1070
    48
1040
0.2
1070
   140
1040
4.0
1070
   141
1040
1.5
1070
   371
1070
    13
1070
   372
1070
    13
1002
}
  0
DIMENSION
  5
237
  8
回07-寸法
  6
CONTINUOUS
 62
     5
  2
*D5959
 10
758.5802015636627
 20
-605.6543497603545
 30
0.0
 11
750.797358851188
 21
-605.6543497603545
 31
0.0
 70
   160
  3
DMC
 13
765.9302015636627
 23
-632.9643497603552
 33
0.0
 14
758.5802015636627
 24
-625.0343497603546
 34
0.0
1001
ACAD
1000
DSTYLE
1002
{
1070
    41
1040
1.5
1070
    47
1040
0.2
1070
    48
1040
0.2
1070
   140
1040
4.0
1070
   141
1040
1.5
1070
   371
1070
    13
1070
   372
1070
    13
1002
}
  0
DIMENSION
  5
246
  8
回07-寸法
  6
CONTINUOUS
 62
     5
  2
*D6060
 10
925.6802015636628
 20
-587.6543497603545
 30
0.0
 11
933.7786267605133
 21
-584.9543497603543
 31
0.0
 70
    32
  1
(<>)
  3
DMC
 13
921.1802015636628
 23
-630.4343497603545
 33
0.0
 14
925.6802015636628
 24
-625.0343497603544
 34
0.0
1001
ACAD
1000
DSTYLE
1002
{
1070
    41
1040
1.5
1070
    47
1040
0.2
1070
    48
1040
0.2
1070
   140
1040
4.0
1070
   141
1040
1.5
1070
   371
1070
    13
1070
   372
1070
    13
1002
}
  0
DIMENSION
  5
255
  8
回07-寸法
  6
CONTINUOUS
 62
     5
  2
*D6161
 10
758.5802015636627
 20
-587.6543497603545
 30
0.0
 11
752.0802015636627
 21
-585.1543497603545
 31
0.0
 70
    32
  3
DMC
 13
763.0802015636627
 23
-630.4343497603545
 33
0.0
 14
758.5802015636627
 24
-625.0343497603546
 34
0.0
1001
ACAD
1000
DSTYLE
1002
{
1070
    41
1040
1.5
1070
    47
1040
0.2
1070
    48
1040
0.2
1070
   140
1040
4.0
1070
   141
1040
1.5
1070
   371
1070
    13
1070
   372
1070
    13
1002
}
  0
DIMENSION
  5
264
  8
回07-寸法
  6
CONTINUOUS
 62
     5
  2
*D6262
 10
720.5802015636633
 20
-726.9343497603545
 30
0.0
 11
718.0802015636633
 21
-678.6843497603545
 31
0.0
 70
    32
  3
DMC
 13
763.0802015636627
 23
-630.4343497603545
 33
0.0
 14
763.0802015636627
 24
-726.9343497603545
 34
0.0
 50
90.0
1001
ACAD
1000
DSTYLE
1002
{
1070
    41
1040
1.5
1070
    47
1040
0.2
1070
    48
1040
0.2
1070
   140
1040
4.0
1070
   141
1040
1.5
1070
   371
1070
    13
1070
   372
1070
    13
1002
}
  0
DIMENSION
  5
271
  8
回07-寸法
  6
CONTINUOUS
 62
     5
  2
*D6363
 10
729.5802015636633
 20
-726.4343497603545
 30
0.0
 11
726.4802015636631
 21
-678.6843497603545
 31
0.0
 70
    32
  1
<>(Viewing area)
  3
DMC
 13
763.5802015636627
 23
-630.9343497603545
 33
0.0
 14
763.5802015636627
 24
-726.4343497603545
 34
0.0
 50
90.0
1001
ACAD
1000
DSTYLE
1002
{
1070
    41
1040
1.5
1070
    47
1040
0.2
1070
    48
1040
0.2
1070
   140
1040
4.0
1070
   141
1040
1.5
1070
   371
1070
    13
1070
   372
1070
    13
1002
}
  0
DIMENSION
  5
27E
  8
回07-寸法
  6
CONTINUOUS
 62
     5
  2
*D6464
 10
738.5802015636633
 20
-724.4043497603544
 30
0.0
 11
735.8802015636634
 21
-678.6843497603545
 31
0.0
 70
    32
  1
<>(Active area)
  3
DMC
 13
765.9302015636627
 23
-632.9643497603544
 33
0.0
 14
765.9302015636627
 24
-724.4043497603544
 34
0.0
 50
90.0
1001
ACAD
1000
DSTYLE
1002
{
1070
    41
1040
1.5
1070
    47
1040
0.2
1070
    48
1040
0.2
1070
   140
1040
4.0
1070
   141
1040
1.5
1070
   371
1070
    13
1070
   372
1070
    13
1002
}
  0
DIMENSION
  5
28B
  8
回07-寸法
  6
CONTINUOUS
 62
     5
  2
*D6565
 10
711.5802015636631
 20
-737.1343497603544
 30
0.0
 11
709.0802015636632
 21
-681.0843497603546
 31
0.0
 70
    32
  3
DMC
 13
758.5802015636627
 23
-625.0343497603546
 33
0.0
 14
758.5802015636627
 24
-737.1343497603544
 34
0.0
 50
90.0
1001
ACAD
1000
DSTYLE
1002
{
1070
   147
1040
0.5
1070
    72
1070
     0
1070
    71
1070
     1
1070
    41
1040
1.5
1070
    47
1040
0.3
1070
    48
1040
0.3
1070
   140
1040
4.0
1070
   141
1040
1.5
1070
   371
1070
    13
1070
   372
1070
    13
1002
}
  0
DIMENSION
  5
298
  8
回07-寸法
  6
CONTINUOUS
 62
     5
  2
*D6666
 10
918.3302015636623
 20
-605.6543497603545
 30
0.0
 11
842.1302015636625
 21
-602.9543497603545
 31
0.0
 70
    32
  1
<>(Active area)
  3
DMC
 13
765.9302015636627
 23
-632.9643497603544
 33
0.0
 14
918.3302015636623
 24
-632.9643497603536
 34
0.0
1001
ACAD
1000
DSTYLE
1002
{
1070
    41
1040
1.5
1070
    47
1040
0.2
1070
    48
1040
0.2
1070
   140
1040
4.0
1070
   141
1040
1.5
1070
   371
1070
    13
1070
   372
1070
    13
1002
}
  0
DIMENSION
  5
2A5
  8
回07-寸法
  6
CONTINUOUS
 62
     5
  2
*D6767
 10
921.1802015636628
 20
-587.6543497603545
 30
0.0
 11
842.1302015636625
 21
-585.1543497603545
 31
0.0
 70
    32
  3
DMC
 13
763.0802015636627
 23
-630.4343497603545
 33
0.0
 14
921.1802015636628
 24
-630.4343497603545
 34
0.0
1001
ACAD
1000
DSTYLE
1002
{
1070
    41
1040
1.5
1070
    47
1040
0.2
1070
    48
1040
0.2
1070
   140
1040
4.0
1070
   141
1040
1.5
1070
   371
1070
    13
1070
   372
1070
    13
1002
}
  0
DIMENSION
  5
2B2
  8
回07-寸法
  6
CONTINUOUS
 62
     5
  2
*D6868
 10
920.6802015636627
 20
-596.6543497603545
 30
0.0
 11
842.1302015636625
 21
-593.5543497603545
 31
0.0
 70
    32
  1
<>(Viewing area)
  3
DMC
 13
763.5802015636627
 23
-630.9343497603545
 33
0.0
 14
920.6802015636627
 24
-630.9343497603545
 34
0.0
1001
ACAD
1000
DSTYLE
1002
{
1070
    41
1040
1.5
1070
    47
1040
0.2
1070
    48
1040
0.2
1070
   140
1040
4.0
1070
   141
1040
1.5
1070
   371
1070
    13
1070
   372
1070
    13
1002
}
  0
DIMENSION
  5
2BF
  8
回07-寸法
  6
CONTINUOUS
 62
     5
  2
*D6969
 10
925.6802015636628
 20
-578.6543497603545
 30
0.0
 11
842.1302015636625
 21
-576.1543497603545
 31
0.0
 70
    32
  3
DMC
 13
758.5802015636627
 23
-625.0343497603546
 33
0.0
 14
925.6802015636628
 24
-625.0343497603544
 34
0.0
1001
ACAD
1000
DSTYLE
1002
{
1070
   147
1040
0.5
1070
    72
1070
     0
1070
    71
1070
     1
1070
    41
1040
1.5
1070
    47
1040
0.3
1070
    48
1040
0.3
1070
   140
1040
4.0
1070
   141
1040
1.5
1070
   371
1070
    13
1070
   372
1070
    13
1002
}
  0
DIMENSION
  5
2CC
  8
回07-寸法
  6
CONTINUOUS
 62
     5
  2
*D7070
 10
729.5802015636629
 20
-737.1343497603544
 30
0.0
 11
729.5802015636629
 21
-745.9171924728291
 31
0.0
 70
   160
  3
DMC
 13
763.5802015636627
 23
-726.4343497603545
 33
0.0
 14
758.5802015636627
 24
-737.1343497603544
 34
0.0
 50
90.0
1001
ACAD
1000
DSTYLE
1002
{
1070
    41
1040
1.5
1070
    47
1040
0.2
1070
    48
1040
0.2
1070
   140
1040
4.0
1070
   141
1040
1.5
1070
   371
1070
    13
1070
   372
1070
    13
1002
}
  0
ARC
  5
2DB
  8
回08-記事
  6
CONTINUOUS
 62
     7
 10
993.9255279678295
 20
-632.8543497603545
 30
0.0
 40
0.5
 50
90.0
 51
270.0
  0
TEXT
  5
2DC
  8
回08-記事
  6
CONTINUOUS
 62
     5
 10
937.6616899159095
 20
-774.0855247599353
 30
0.0
 40
4.0
  1
MTR-G070WB070A
  0
TEXT
  5
2DD
  8
回08-記事
  6
CONTINUOUS
 62
     5
 10
943.0614338509148
 20
-768.6889160511571
 30
0.0
 40
4.0
  1
Product label
1001
ACAD
1000
MTEXTBEGIN
1070
    73
1070
     1
1070
    44
1040
1.0
1070
    74
1070
     0
1000
MTEXTEND
  0
INSERT
  5
2DE
  8
回08-記事
  6
CONTINUOUS
 62
     7
 66
     1
  2
*X7777
 10
0.0
 20
0.0
 30
0.0
  0
SEQEND
  5
641
  8
0
  6
CONTINUOUS
 62
     1
  0
TEXT
  5
2E0
  8
回08-記事
  6
CONTINUOUS
 62
     5
 10
1002.030668339102
 20
-768.6889160511571
 30
0.0
 40
4.0
  1
Lot label
1001
ACAD
1000
MTEXTBEGIN
1070
    73
1070
     1
1070
    44
1040
1.0
1070
    74
1070
     0
1000
MTEXTEND
  0
INSERT
  5
2E1
  8
回08-記事
  6
CONTINUOUS
 62
     7
 66
     1
  2
*X7878
 10
0.0
 20
0.0
 30
0.0
  0
SEQEND
  5
648
  8
0
  6
CONTINUOUS
 62
     1
  0
LINE
  5
2E2
  8
回08-記事
  6
CONTINUOUS
 62
     7
 10
1008.673318345433
 20
-678.2879052421898
 30
0.0
 11
998.7272134199477
 21
-678.2768002548382
 31
0.0
  0
TEXT
  5
2E3
  8
回08-記事
  6
CONTINUOUS
 62
     7
 10
1009.891151917087
 20
-679.6881267799018
 30
0.0
 40
4.0
  1
2
  0
ARC
  5
2E4
  8
回08-記事
  6
CONTINUOUS
 62
     7
 10
993.9255279678295
 20
-635.7343497603543
 30
0.0
 40
0.5
 50
90.0
 51
270.0
  0
ARC
  5
2E5
  8
回08-記事
  6
CONTINUOUS
 62
     7
 10
993.9255279678295
 20
-638.6143497603545
 30
0.0
 40
0.5
 50
90.0
 51
270.0
  0
ARC
  5
2E6
  8
回08-記事
  6
CONTINUOUS
 62
     7
 10
993.9255279678295
 20
-653.0143497603544
 30
0.0
 40
0.5
 50
90.0
 51
270.0
  0
ARC
  5
2E7
  8
回08-記事
  6
CONTINUOUS
 62
     7
 10
993.9255279678295
 20
-655.8943497603545
 30
0.0
 40
0.5
 50
90.0
 51
270.0
  0
ARC
  5
2E8
  8
回08-記事
  6
CONTINUOUS
 62
     7
 10
993.9255279678295
 20
-670.2943497603544
 30
0.0
 40
0.5
 50
90.0
 51
270.0
  0
ARC
  5
2E9
  8
回08-記事
  6
CONTINUOUS
 62
     7
 10
993.9255279678295
 20
-681.8143497603544
 30
0.0
 40
0.5
 50
90.0
 51
270.0
  0
ARC
  5
2EA
  8
回08-記事
  6
CONTINUOUS
 62
     7
 10
993.9255279678295
 20
-684.6943497603545
 30
0.0
 40
0.5
 50
90.0
 51
270.0
  0
ARC
  5
2EB
  8
回08-記事
  6
CONTINUOUS
 62
     7
 10
993.9255279678295
 20
-687.5743497603543
 30
0.0
 40
0.5
 50
90.0
 51
270.0
  0
ARC
  5
2EC
  8
回08-記事
  6
CONTINUOUS
 62
     7
 10
993.9255279678295
 20
-690.4543497603545
 30
0.0
 40
0.5
 50
90.0
 51
270.0
  0
ARC
  5
2ED
  8
回08-記事
  6
CONTINUOUS
 62
     7
 10
993.9255279678295
 20
-693.3343497603544
 30
0.0
 40
0.5
 50
90.0
 51
270.0
  0
ARC
  5
2EE
  8
回08-記事
  6
CONTINUOUS
 62
     7
 10
993.9255279678295
 20
-696.2143497603545
 30
0.0
 40
0.5
 50
90.0
 51
270.0
  0
ARC
  5
2EF
  8
回08-記事
  6
CONTINUOUS
 62
     7
 10
993.9255279678295
 20
-704.8543497603546
 30
0.0
 40
0.5
 50
90.0
 51
270.0
  0
ARC
  5
2F0
  8
回08-記事
  6
CONTINUOUS
 62
     7
 10
993.9255279678295
 20
-710.6143497603546
 30
0.0
 40
0.5
 50
90.0
 51
270.0
  0
ARC
  5
2F1
  8
回08-記事
  6
CONTINUOUS
 62
     7
 10
993.9255279678295
 20
-713.4943497603543
 30
0.0
 40
0.5
 50
90.0
 51
270.0
  0
ARC
  5
2F2
  8
回08-記事
  6
CONTINUOUS
 62
     7
 10
993.9255279678295
 20
-716.3743497603546
 30
0.0
 40
0.5
 50
90.0
 51
270.0
  0
ARC
  5
2F3
  8
回08-記事
  6
CONTINUOUS
 62
     7
 10
993.9255279678295
 20
-719.2543497603543
 30
0.0
 40
0.5
 50
90.0
 51
270.0
  0
ARC
  5
2F4
  8
回08-記事
  6
CONTINUOUS
 62
     7
 10
993.9255279678295
 20
-725.0143497603543
 30
0.0
 40
0.5
 50
90.0
 51
270.0
  0
POLYLINE
  5
2F5
  8
回08-記事
  6
CONTINUOUS
 62
     7
 66
     1
 10
0.0
 20
0.0
 30
0.0
 70
     1
  0
VERTEX
  5
A01
  8
回08-記事
  6
CONTINUOUS
 62
     7
 10
992.2255279678294
 20
-756.501043501188
 30
0.0
  0
VERTEX
  5
A03
  8
回08-記事
  6
CONTINUOUS
 62
     7
 10
992.9255279678296
 20
-756.501043501188
 30
0.0
  0
VERTEX
  5
A04
  8
回08-記事
  6
CONTINUOUS
 62
     7
 10
992.9255279678296
 20
-782.5010435011882
 30
0.0
  0
VERTEX
  5
A05
  8
回08-記事
  6
CONTINUOUS
 62
     7
 10
992.2255279678294
 20
-782.5010435011882
 30
0.0
  0
SEQEND
  5
A02
  8
0
  6
CONTINUOUS
 62
     1
  0
LINE
  5
2F6
  8
回08-記事
  6
CONTINUOUS
 62
     7
 10
988.8403087351653
 20
-791.1019536884047
 30
0.0
 11
992.1913917801282
 21
-798.5550666572512
 31
0.0
  0
LINE
  5
2F7
  8
回08-記事
  6
CONTINUOUS
 62
     7
 10
985.7421366643146
 20
-797.9234487290994
 30
0.0
 11
988.8403087351653
 21
-791.1019536884047
 31
0.0
  0
LINE
  5
2F8
  8
回08-記事
  6
CONTINUOUS
 62
     7
 10
984.4984192719682
 20
-781.3937102015659
 30
0.0
 11
980.637773440865
 21
-782.2156100037342
 31
0.0
  0
LINE
  5
2F9
  8
回08-記事
  6
CONTINUOUS
 62
     7
 10
983.6836394983407
 20
-751.4421382925116
 30
0.0
 11
981.1471643506679
 21
-752.5190161118138
 31
0.0
  0
LINE
  5
2FA
  8
回08-記事
  6
CONTINUOUS
 62
     7
 10
999.7191153010248
 20
-740.8023852430772
 30
0.0
 11
998.756284284166
 21
-737.2757047838644
 31
0.0
  0
LINE
  5
2FB
  8
回08-記事
  6
CONTINUOUS
 62
     7
 10
990.3315482729537
 20
-736.9550974693907
 30
0.0
 11
999.7191153010248
 21
-740.8023852430772
 31
0.0
  0
TEXT
  5
2FC
  8
回08-記事
  6
CONTINUOUS
 62
     7
 10
987.7257185919336
 20
-790.5339623450798
 30
0.0
 40
4.0
  1
5
  0
TEXT
  5
2FD
  8
回08-記事
  6
CONTINUOUS
 62
     7
 10
977.4265460739636
 20
-783.8889856044652
 30
0.0
 40
4.0
  1
3
  0
POLYLINE
  5
2FE
  8
回08-記事
  6
CONTINUOUS
 62
     7
 66
     1
 10
0.0
 20
0.0
 30
0.0
 70
     1
  0
VERTEX
  5
A06
  8
回08-記事
  6
CONTINUOUS
 62
     7
 10
994.6255279678295
 20
-756.501043501188
 30
0.0
  0
VERTEX
  5
A08
  8
回08-記事
  6
CONTINUOUS
 62
     7
 10
995.3255279678295
 20
-756.501043501188
 30
0.0
  0
VERTEX
  5
A09
  8
回08-記事
  6
CONTINUOUS
 62
     7
 10
995.3255279678295
 20
-782.5010435011882
 30
0.0
  0
VERTEX
  5
A0A
  8
回08-記事
  6
CONTINUOUS
 62
     7
 10
994.6255279678295
 20
-782.5010435011882
 30
0.0
  0
SEQEND
  5
A07
  8
0
  6
CONTINUOUS
 62
     1
  0
INSERT
  5
2FF
  8
回08-記事
  6
CONTINUOUS
 62
     7
 66
     1
  2
*X7979
 10
0.0
 20
0.0
 30
0.0
1001
GRADIENTCOLOR1ACI
1070
     5
1001
GRADIENTCOLOR2ACI
1070
     2
1001
ACAD
1010
0.0
1020
0.0
1030
0.0
  0
SEQEND
  5
66A
  8
0
  6
CONTINUOUS
 62
     1
  0
LINE
  5
302
  8
回08-記事
  6
CONTINUOUS
 62
     7
 10
994.6255279678295
 20
-736.5183981311662
 30
0.0
 11
994.6255279678295
 21
-740.6343497603544
 31
0.0
1001
ACAD
1000
ASC_BOUNDS
1002
{
1070
    19
1005
307
1002
}
  0
LINE
  5
303
  8
回08-記事
  6
CONTINUOUS
 62
     7
 10
1000.925527967829
 20
-736.5183981311662
 30
0.0
 11
994.6255279678295
 21
-736.5183981311662
 31
0.0
1001
ACAD
1000
ASC_BOUNDS
1002
{
1070
    19
1005
307
1002
}
  0
LINE
  5
304
  8
回08-記事
  6
CONTINUOUS
 62
     7
 10
1001.625527967829
 20
-737.2183981311664
 30
0.0
 11
1001.625527967829
 21
-733.7343497603543
 31
0.0
1001
ACAD
1000
ASC_BOUNDS
1002
{
1070
    19
1005
307
1002
}
  0
LINE
  5
305
  8
回08-記事
  6
CONTINUOUS
 62
     7
 10
995.3255279678295
 20
-740.6343497603544
 30
0.0
 11
995.3255279678295
 21
-737.2183981311664
 31
0.0
1001
ACAD
1000
ASC_BOUNDS
1002
{
1070
    19
1005
307
1002
}
  0
LINE
  5
306
  8
回08-記事
  6
CONTINUOUS
 62
     7
 10
992.9255279678296
 20
-737.2183981311664
 30
0.0
 11
985.7323437488593
 21
-737.2183981311664
 31
0.0
1001
ACAD
1000
ASC_BOUNDS
1002
{
1070
    19
1005
307
1002
}
  0
INSERT
  5
307
  8
回08-記事
  6
CONTINUOUS
 62
     7
 66
     1
  2
*X8080
 10
0.0
 20
0.0
 30
0.0
1001
GRADIENTCOLOR1ACI
1070
     5
1001
GRADIENTCOLOR2ACI
1070
     2
1001
ACAD
1010
0.0
1020
0.0
1030
0.0
  0
SEQEND
  5
682
  8
0
  6
CONTINUOUS
 62
     1
  0
DIMENSION
  5
308
  8
回07-寸法
  6
CONTINUOUS
 62
     7
  2
*D7171
 10
984.0323437488594
 20
-817.5567344868895
 30
0.0
 11
973.4974159457097
 21
-815.0567344868896
 31
0.0
 70
    32
  1
0.3{\H0.66667x;±0.05}
  3
DMC
 13
986.5323437488594
 23
-807.1343497603555
 33
0.0
 14
984.0323437488594
 24
-807.1343497603555
 34
0.0
1001
ACAD
1000
DSTYLE
1002
{
1070
    41
1040
1.5
1070
    47
1040
0.2
1070
    48
1040
0.2
1070
   140
1040
4.0
1070
   141
1040
1.5
1070
   371
1070
    13
1070
   372
1070
    13
1002
}
  0
DIMENSION
  5
319
  8
回07-寸法
  6
CONTINUOUS
 62
     7
  2
*D7272
 10
990.2874042177417
 20
-807.1343497603555
 30
0.0
 11
988.3207302177417
 21
-802.1343497603552
 31
0.0
 70
    32
  1
{\H0.66667x;(<>)}
  3
DMC
 13
986.5323437488594
 23
-797.1343497603553
 33
0.0
 14
986.5323437488594
 24
-807.1343497603555
 34
0.0
 50
90.0
1001
ACAD
1000
DSTYLE
1002
{
1070
    41
1040
1.5
1070
    47
1040
0.2
1070
    48
1040
0.2
1070
   140
1040
4.0
1070
   141
1040
1.5
1070
   371
1070
    13
1070
   372
1070
    13
1002
}
  0
LINE
  5
328
  8
回08-記事
  6
CONTINUOUS
 62
     7
 10
984.0323437488594
 20
-727.0143497603543
 30
0.0
 11
993.9255279678295
 21
-727.0143497603543
 31
0.0
  0
POLYLINE
  5
329
  8
回08-記事
  6
CONTINUOUS
 62
     7
 66
     1
 10
0.0
 20
0.0
 30
0.0
 70
     1
  0
VERTEX
  5
A0B
  8
回08-記事
  6
CONTINUOUS
 62
     7
 10
993.9255279678295
 20
-777.7543497603557
 30
0.0
  0
VERTEX
  5
A0D
  8
回08-記事
  6
CONTINUOUS
 62
     7
 10
993.9255279678295
 20
-736.5183981311662
 30
0.0
  0
VERTEX
  5
A0E
  8
回08-記事
  6
CONTINUOUS
 62
     7
 10
994.6255279678295
 20
-736.5183981311662
 30
0.0
  0
VERTEX
  5
A0F
  8
回08-記事
  6
CONTINUOUS
 62
     7
 10
994.6255279678295
 20
-777.7543497603557
 30
0.0
  0
VERTEX
  5
A10
  8
回08-記事
  6
CONTINUOUS
 62
     7
 10
994.6255279678295
 20
-802.1343497603552
 30
0.0
  0
VERTEX
  5
A11
  8
回08-記事
  6
CONTINUOUS
 62
     7
 10
993.9255279678295
 20
-802.1343497603552
 30
0.0
  0
VERTEX
  5
A12
  8
回08-記事
  6
CONTINUOUS
 62
     7
 10
993.9255279678295
 20
-777.7543497603557
 30
0.0
  0
VERTEX
  5
A13
  8
回08-記事
  6
CONTINUOUS
 62
     7
 10
993.9255279678295
 20
-807.1343497603555
 30
0.0
  0
VERTEX
  5
A14
  8
回08-記事
  6
CONTINUOUS
 62
     7
 10
992.9255279678296
 20
-807.1343497603555
 30
0.0
  0
VERTEX
  5
A15
  8
回08-記事
  6
CONTINUOUS
 62
     7
 10
992.9255279678296
 20
-777.7543497603557
 30
0.0
  0
VERTEX
  5
A16
  8
回08-記事
  6
CONTINUOUS
 62
     7
 10
992.9255279678296
 20
-733.3683981311665
 30
0.0
  0
VERTEX
  5
A17
  8
回08-記事
  6
CONTINUOUS
 62
     7
 10
993.9255279678295
 20
-733.3683981311665
 30
0.0
  0
SEQEND
  5
A0C
  8
0
  6
CONTINUOUS
 62
     1
  0
POLYLINE
  5
32A
  8
回08-記事
  6
CONTINUOUS
 62
     7
 66
     1
 10
0.0
 20
0.0
 30
0.0
 70
     1
  0
VERTEX
  5
A18
  8
回08-記事
  6
CONTINUOUS
 62
     7
 10
984.0323437488594
 20
-777.7543497603557
 30
0.0
  0
VERTEX
  5
A1A
  8
回08-記事
  6
CONTINUOUS
 62
     7
 10
984.0323437488594
 20
-802.1343497603552
 30
0.0
  0
VERTEX
  5
A1B
  8
回08-記事
  6
CONTINUOUS
 62
     7
 10
983.3323437488592
 20
-802.1343497603552
 30
0.0
  0
VERTEX
  5
A1C
  8
回08-記事
  6
CONTINUOUS
 62
     7
 10
983.3323437488592
 20
-777.7543497603557
 30
0.0
  0
VERTEX
  5
A1D
  8
回08-記事
  6
CONTINUOUS
 62
     7
 10
983.3323437488592
 20
-736.0183981311664
 30
0.0
  0
VERTEX
  5
A1E
  8
回08-記事
  6
CONTINUOUS
 62
     7
 10
984.0323437488594
 20
-736.0183981311664
 30
0.0
  0
VERTEX
  5
A1F
  8
回08-記事
  6
CONTINUOUS
 62
     7
 10
984.0323437488594
 20
-777.7543497603557
 30
0.0
  0
VERTEX
  5
A20
  8
回08-記事
  6
CONTINUOUS
 62
     7
 10
984.0323437488594
 20
-733.3683981311665
 30
0.0
  0
VERTEX
  5
A21
  8
回08-記事
  6
CONTINUOUS
 62
     7
 10
985.0323437488594
 20
-733.3683981311665
 30
0.0
  0
VERTEX
  5
A22
  8
回08-記事
  6
CONTINUOUS
 62
     7
 10
985.0323437488594
 20
-777.7543497603557
 30
0.0
  0
VERTEX
  5
A23
  8
回08-記事
  6
CONTINUOUS
 62
     7
 10
985.0323437488594
 20
-807.1343497603555
 30
0.0
  0
VERTEX
  5
A24
  8
回08-記事
  6
CONTINUOUS
 62
     7
 10
984.0323437488594
 20
-807.1343497603555
 30
0.0
  0
SEQEND
  5
A19
  8
0
  6
CONTINUOUS
 62
     1
  0
POLYLINE
  5
32B
  8
回08-記事
  6
CONTINUOUS
 62
     7
 66
     1
 10
0.0
 20
0.0
 30
0.0
 70
     1
  0
VERTEX
  5
A25
  8
回08-記事
  6
CONTINUOUS
 62
     7
 10
980.0323437488593
 20
-626.1543497603547
 30
0.0
  0
VERTEX
  5
A27
  8
回08-記事
  6
CONTINUOUS
 62
     7
 10
984.0323437488594
 20
-626.1543497603547
 30
0.0
  0
VERTEX
  5
A28
  8
回08-記事
  6
CONTINUOUS
 62
     7
 10
984.0323437488594
 20
-736.0183981311664
 30
0.0
  0
VERTEX
  5
A29
  8
回08-記事
  6
CONTINUOUS
 62
     7
 10
980.0323437488593
 20
-736.0183981311664
 30
0.0
  0
SEQEND
  5
A26
  8
0
  6
CONTINUOUS
 62
     1
  0
POLYLINE
  5
32C
  8
回08-記事
  6
CONTINUOUS
 62
     7
 66
     1
 10
0.0
 20
0.0
 30
0.0
 70
     1
  0
VERTEX
  5
A2A
  8
回08-記事
  6
CONTINUOUS
 62
     7
 10
993.9255279678295
 20
-625.6543497603545
 30
0.0
  0
VERTEX
  5
A2C
  8
回08-記事
  6
CONTINUOUS
 62
     7
 10
1000.925527967829
 20
-625.6543497603545
 30
0.0
  0
VERTEX
  5
A2D
  8
回08-記事
  6
CONTINUOUS
 62
     7
 10
1000.925527967829
 20
-736.5183981311662
 30
0.0
  0
VERTEX
  5
A2E
  8
回08-記事
  6
CONTINUOUS
 62
     7
 10
993.9255279678295
 20
-736.5183981311662
 30
0.0
  0
SEQEND
  5
A2B
  8
0
  6
CONTINUOUS
 62
     1
  0
DIMENSION
  5
32D
  8
回07-寸法
  6
CONTINUOUS
 62
     5
  2
*D7373
 10
1000.925527967829
 20
-615.1489744039053
 30
0.0
 11
990.4789358583446
 21
-612.6489744039051
 31
0.0
 70
    32
  1
1.4{\H0.5x;±0.2}
  3
DMC
 13
980.0323437488593
 23
-626.1543497603545
 33
0.0
 14
1000.925527967829
 24
-625.6543497603545
 34
0.0
1001
ACAD
1000
DSTYLE
1002
{
1070
    41
1040
1.5
1070
    47
1040
0.2
1070
    48
1040
0.2
1070
   140
1040
4.0
1070
   141
1040
1.5
1070
   371
1070
    13
1070
   372
1070
    13
1002
}
  0
LINE
  5
33A
  8
回08-記事
  6
CONTINUOUS
 62
     7
 10
981.6035857422287
 20
-677.7089557483917
 30
0.0
 11
975.2544054554544
 21
-678.2768002548382
 31
0.0
  0
TEXT
  5
33B
  8
回08-記事
  6
CONTINUOUS
 62
     7
 10
971.5858595330983
 20
-680.22271447188
 30
0.0
 40
4.0
  1
1
  0
ARC
  5
33C
  8
回08-記事
  6
CONTINUOUS
 62
     7
 10
993.9255279678295
 20
-641.4943497603545
 30
0.0
 40
0.5
 50
90.0
 51
270.0
  0
ARC
  5
33D
  8
回08-記事
  6
CONTINUOUS
 62
     7
 10
993.9255279678295
 20
-644.3743497603545
 30
0.0
 40
0.5
 50
90.0
 51
270.0
  0
ARC
  5
33E
  8
回08-記事
  6
CONTINUOUS
 62
     7
 10
993.9255279678295
 20
-647.2543497603543
 30
0.0
 40
0.5
 50
90.0
 51
270.0
  0
ARC
  5
33F
  8
回08-記事
  6
CONTINUOUS
 62
     7
 10
993.9255279678295
 20
-650.1343497603545
 30
0.0
 40
0.5
 50
90.0
 51
270.0
  0
ARC
  5
340
  8
回08-記事
  6
CONTINUOUS
 62
     7
 10
993.9255279678295
 20
-658.7743497603544
 30
0.0
 40
0.5
 50
90.0
 51
270.0
  0
ARC
  5
341
  8
回08-記事
  6
CONTINUOUS
 62
     7
 10
993.9255279678295
 20
-661.6543497603545
 30
0.0
 40
0.5
 50
90.0
 51
270.0
  0
ARC
  5
342
  8
回08-記事
  6
CONTINUOUS
 62
     7
 10
993.9255279678295
 20
-664.5343497603544
 30
0.0
 40
0.5
 50
90.0
 51
270.0
  0
ARC
  5
343
  8
回08-記事
  6
CONTINUOUS
 62
     7
 10
993.9255279678295
 20
-667.4143497603544
 30
0.0
 40
0.5
 50
90.0
 51
270.0
  0
ARC
  5
344
  8
回08-記事
  6
CONTINUOUS
 62
     7
 10
993.9255279678295
 20
-673.1743497603545
 30
0.0
 40
0.5
 50
90.0
 51
270.0
  0
ARC
  5
345
  8
回08-記事
  6
CONTINUOUS
 62
     7
 10
993.9255279678295
 20
-676.0543497603544
 30
0.0
 40
0.5
 50
90.0
 51
270.0
  0
ARC
  5
346
  8
回08-記事
  6
CONTINUOUS
 62
     7
 10
993.9255279678295
 20
-678.9343497603545
 30
0.0
 40
0.5
 50
90.0
 51
270.0
  0
ARC
  5
347
  8
回08-記事
  6
CONTINUOUS
 62
     7
 10
993.9255279678295
 20
-699.0943497603544
 30
0.0
 40
0.5
 50
90.0
 51
270.0
  0
ARC
  5
348
  8
回08-記事
  6
CONTINUOUS
 62
     7
 10
993.9255279678295
 20
-701.9743497603545
 30
0.0
 40
0.5
 50
90.0
 51
270.0
  0
ARC
  5
349
  8
回08-記事
  6
CONTINUOUS
 62
     7
 10
993.9255279678295
 20
-707.7343497603543
 30
0.0
 40
0.5
 50
90.0
 51
270.0
  0
POLYLINE
  5
34A
  8
回08-記事
  6
CONTINUOUS
 62
     7
 66
     1
 10
0.0
 20
0.0
 30
0.0
 70
     1
  0
VERTEX
  5
A2F
  8
回08-記事
  6
CONTINUOUS
 62
     7
 10
984.0323437488594
 20
-626.1543497603545
 30
0.0
  0
VERTEX
  5
A31
  8
回08-記事
  6
CONTINUOUS
 62
     7
 10
993.9255279678295
 20
-626.1543497603545
 30
0.0
  0
VERTEX
  5
A32
  8
回08-記事
  6
CONTINUOUS
 62
     7
 10
993.9255279678295
 20
-631.0543497603546
 30
0.0
  0
VERTEX
  5
A33
  8
回08-記事
  6
CONTINUOUS
 62
     7
 10
984.0323437488594
 20
-631.0543497603546
 30
0.0
  0
SEQEND
  5
A30
  8
0
  6
CONTINUOUS
 62
     1
  0
ARC
  5
34B
  8
回08-記事
  6
CONTINUOUS
 62
     7
 10
993.9255279678295
 20
-722.1343497603544
 30
0.0
 40
0.5
 50
90.0
 51
270.0
  0
INSERT
  5
34C
  8
回08-記事
  6
CONTINUOUS
 62
     7
 66
     1
  2
*X8181
 10
0.0
 20
0.0
 30
0.0
1001
GRADIENTCOLOR1ACI
1070
     5
1001
GRADIENTCOLOR2ACI
1070
     2
1001
ACAD
1010
0.0
1020
0.0
1030
0.0
  0
SEQEND
  5
6C3
  8
0
  6
CONTINUOUS
 62
     1
  0
LINE
  5
34D
  8
回08-記事
  6
CONTINUOUS
 62
     7
 10
980.637773440865
 20
-782.2156100037342
 30
0.0
 11
993.1690446034261
 21
-785.1238743723936
 31
0.0
  0
LINE
  5
34E
  8
回08-記事
  6
CONTINUOUS
 62
     7
 10
981.1471643506679
 20
-752.5190161118138
 30
0.0
 11
994.400255464691
 21
-754.4827320885636
 31
0.0
  0
TEXT
  5
34F
  8
回08-記事
  6
CONTINUOUS
 62
     7
 10
1000.870561348628
 20
-743.79049071744
 30
0.0
 40
4.0
  1
6
  0
TEXT
  5
350
  8
回08-記事
  6
CONTINUOUS
 62
     7
 10
977.4877542705374
 20
-754.2483723711236
 30
0.0
 40
4.0
  1
4
  0
LINE
  5
351
  8
回08-記事
  6
CONTINUOUS
 62
     7
 10
1000.925527967829
 20
-733.7343497603543
 30
0.0
 11
1000.925527967829
 21
-736.5183981311662
 31
0.0
1001
ACAD
1000
ASC_BOUNDS
1002
{
1070
    19
1005
307
1002
}
  0
LINE
  5
352
  8
回08-記事
  6
CONTINUOUS
 62
     7
 10
1001.625527967829
 20
-733.7343497603543
 30
0.0
 11
1000.925527967829
 21
-733.7343497603543
 31
0.0
1001
ACAD
1000
ASC_BOUNDS
1002
{
1070
    19
1005
307
1002
}
  0
LINE
  5
353
  8
回08-記事
  6
CONTINUOUS
 62
     7
 10
994.6255279678295
 20
-740.6343497603544
 30
0.0
 11
995.3255279678295
 21
-740.6343497603544
 31
0.0
1001
ACAD
1000
ASC_BOUNDS
1002
{
1070
    19
1005
307
1002
}
  0
LINE
  5
354
  8
回08-記事
  6
CONTINUOUS
 62
     7
 10
995.3255279678295
 20
-737.2183981311664
 30
0.0
 11
1001.625527967829
 21
-737.2183981311664
 31
0.0
1001
ACAD
1000
ASC_BOUNDS
1002
{
1070
    19
1005
307
1002
}
  0
LINE
  5
355
  8
回08-記事
  6
CONTINUOUS
 62
     7
 10
985.7323437488593
 20
-737.2183981311664
 30
0.0
 11
985.7323437488593
 21
-740.6343497603544
 31
0.0
1001
ACAD
1000
ASC_BOUNDS
1002
{
1070
    19
1005
307
1002
}
  0
LINE
  5
356
  8
回08-記事
  6
CONTINUOUS
 62
     7
 10
985.7323437488593
 20
-740.6343497603544
 30
0.0
 11
985.0323437488594
 21
-740.6343497603544
 31
0.0
1001
ACAD
1000
ASC_BOUNDS
1002
{
1070
    19
1005
307
1002
}
  0
LINE
  5
357
  8
回08-記事
  6
CONTINUOUS
 62
     7
 10
992.9255279678296
 20
-736.2183981311662
 30
0.0
 11
992.9255279678296
 21
-737.2183981311664
 31
0.0
1001
ACAD
1000
ASC_BOUNDS
1002
{
1070
    19
1005
307
1002
}
  0
LINE
  5
358
  8
回08-記事
  6
CONTINUOUS
 62
     7
 10
985.0323437488594
 20
-736.2183981311662
 30
0.0
 11
992.9255279678296
 21
-736.2183981311662
 31
0.0
1001
ACAD
1000
ASC_BOUNDS
1002
{
1070
    19
1005
307
1002
}
  0
LINE
  5
359
  8
回08-記事
  6
CONTINUOUS
 62
     7
 10
985.0323437488594
 20
-740.6343497603544
 30
0.0
 11
985.0323437488594
 21
-736.2183981311662
 31
0.0
1001
ACAD
1000
ASC_BOUNDS
1002
{
1070
    19
1005
307
1002
}
  0
DIMENSION
  5
35A
  8
回07-寸法
  6
CONTINUOUS
 62
     7
  2
*D7474
 10
993.9255279678295
 20
-823.861974658082
 30
0.0
 11
1004.460455770979
 21
-821.3619746580821
 31
0.0
 70
    32
  1
0.3{\H0.66667x;±0.05}
  3
DMC
 13
991.42552796783
 23
-807.1343497603555
 33
0.0
 14
993.9255279678295
 24
-807.1343497603555
 34
0.0
1001
ACAD
1000
DSTYLE
1002
{
1070
    41
1040
1.5
1070
    47
1040
0.2
1070
    48
1040
0.2
1070
   140
1040
4.0
1070
   141
1040
1.5
1070
   371
1070
    13
1070
   372
1070
    13
1002
}
  0
DIMENSION
  5
36B
  8
回07-寸法
  6
CONTINUOUS
 62
     7
  2
*D7575
 10
1003.041166558515
 20
-802.1343497603552
 30
0.0
 11
1000.541166558515
 21
-804.6343497603555
 31
0.0
 70
    32
  3
DMC
 13
993.9255279678295
 23
-807.1343497603555
 33
0.0
 14
994.6255279678295
 24
-802.1343497603552
 34
0.0
 50
90.0
1001
ACAD
1000
DSTYLE
1002
{
1070
    41
1040
1.5
1070
    47
1040
0.2
1070
    48
1040
0.2
1070
   140
1040
4.0
1070
   141
1040
1.5
1070
   371
1070
    13
1070
   372
1070
    13
1002
}
  0
DIMENSION
  5
37A
  8
回07-寸法
  6
CONTINUOUS
 62
     7
  2
*D7676
 10
976.1666257672303
 20
-802.1343497603552
 30
0.0
 11
973.6666257672302
 21
-804.6343497603555
 31
0.0
 70
    32
  3
DMC
 13
984.0323437488594
 23
-807.1343497603555
 33
0.0
 14
983.3323437488592
 24
-802.1343497603552
 34
0.0
 50
90.0
1001
ACAD
1000
DSTYLE
1002
{
1070
    41
1040
1.5
1070
    47
1040
0.2
1070
    48
1040
0.2
1070
   140
1040
4.0
1070
   141
1040
1.5
1070
   371
1070
    13
1070
   372
1070
    13
1002
}
  0
LINE
  5
389
  8
回08-記事
  6
CONTINUOUS
 62
     7
 10
985.0323437488594
 20
-736.2183981311662
 30
0.0
 11
992.9255279678296
 21
-736.2183981311662
 31
0.0
  0
POLYLINE
  5
38A
  8
回08-記事
  6
CONTINUOUS
 62
     7
 66
     1
 10
0.0
 20
0.0
 30
0.0
 70
     1
  0
VERTEX
  5
A34
  8
回08-記事
  6
CONTINUOUS
 62
     7
 10
991.42552796783
 20
-797.1343497603553
 30
0.0
  0
VERTEX
  5
A36
  8
回08-記事
  6
CONTINUOUS
 62
     7
 10
992.9255279678296
 20
-797.1343497603553
 30
0.0
  0
VERTEX
  5
A37
  8
回08-記事
  6
CONTINUOUS
 62
     7
 10
992.9255279678296
 20
-807.1343497603555
 30
0.0
  0
VERTEX
  5
A38
  8
回08-記事
  6
CONTINUOUS
 62
     7
 10
991.42552796783
 20
-807.1343497603555
 30
0.0
  0
SEQEND
  5
A35
  8
0
  6
CONTINUOUS
 62
     1
  0
POLYLINE
  5
38B
  8
回08-記事
  6
CONTINUOUS
 62
     7
 66
     1
 10
0.0
 20
0.0
 30
0.0
 70
     1
  0
VERTEX
  5
A39
  8
回08-記事
  6
CONTINUOUS
 62
     7
 10
985.0323437488594
 20
-797.1343497603553
 30
0.0
  0
VERTEX
  5
A3B
  8
回08-記事
  6
CONTINUOUS
 62
     7
 10
986.5323437488594
 20
-797.1343497603553
 30
0.0
  0
VERTEX
  5
A3C
  8
回08-記事
  6
CONTINUOUS
 62
     7
 10
986.5323437488594
 20
-807.1343497603555
 30
0.0
  0
VERTEX
  5
A3D
  8
回08-記事
  6
CONTINUOUS
 62
     7
 10
985.0323437488594
 20
-807.1343497603555
 30
0.0
  0
SEQEND
  5
A3A
  8
0
  6
CONTINUOUS
 62
     1
  0
INSERT
  5
38C
  8
回08-記事
  6
CONTINUOUS
 62
     5
 66
     1
  2
*X8282
 10
0.0
 20
0.0
 30
0.0
  0
SEQEND
  5
6D3
  8
0
  6
CONTINUOUS
 62
     1
  0
INSERT
  5
38D
  8
回08-記事
  6
CONTINUOUS
 62
     7
 66
     1
  2
*X8383
 10
0.0
 20
0.0
 30
0.0
  0
SEQEND
  5
6DA
  8
0
  6
CONTINUOUS
 62
     1
  0
POLYLINE
  5
38E
  8
回08-記事
  6
CONTINUOUS
 62
     7
 66
     1
 10
0.0
 20
0.0
 30
0.0
 70
     1
1001
ACAD
1000
ASC_BOUNDS
1002
{
1070
    19
1005
38F
1002
}
  0
VERTEX
  5
A3E
  8
回08-記事
  6
CONTINUOUS
 62
     7
 10
831.6290762482141
 20
-756.501043501188
 30
0.0
  0
VERTEX
  5
A40
  8
回08-記事
  6
CONTINUOUS
 62
     7
 10
835.1290762482141
 20
-756.501043501188
 30
0.0
 42
-0.4142135623730951
  0
VERTEX
  5
A41
  8
回08-記事
  6
CONTINUOUS
 62
     7
 10
835.6290762482142
 20
-757.001043501188
 30
0.0
  0
VERTEX
  5
A42
  8
回08-記事
  6
CONTINUOUS
 62
     7
 10
835.6290762482142
 20
-782.001043501188
 30
0.0
 42
-0.4142135623730951
  0
VERTEX
  5
A43
  8
回08-記事
  6
CONTINUOUS
 62
     7
 10
835.1290762482141
 20
-782.5010435011882
 30
0.0
  0
VERTEX
  5
A44
  8
回08-記事
  6
CONTINUOUS
 62
     7
 10
831.6290762482141
 20
-782.5010435011882
 30
0.0
 42
-0.4142135623730951
  0
VERTEX
  5
A45
  8
回08-記事
  6
CONTINUOUS
 62
     7
 10
831.1290762482142
 20
-782.001043501188
 30
0.0
  0
VERTEX
  5
A46
  8
回08-記事
  6
CONTINUOUS
 62
     7
 10
831.1290762482142
 20
-757.001043501188
 30
0.0
 42
-0.4142135623730951
  0
SEQEND
  5
A3F
  8
0
  6
CONTINUOUS
 62
     1
  0
INSERT
  5
38F
  8
回08-記事
  6
CONTINUOUS
 62
     7
 66
     1
  2
*X8484
 10
0.0
 20
0.0
 30
0.0
1001
GRADIENTCOLOR1ACI
1070
     5
1001
GRADIENTCOLOR2ACI
1070
     2
1001
ACAD
1010
0.0
1020
0.0
1030
0.0
  0
SEQEND
  5
6F5
  8
0
  6
CONTINUOUS
 62
     1
  0
TEXT
  5
390
  8
回08-記事
  6
CONTINUOUS
 62
     7
 10
1145.378175144768
 20
-717.8204816119845
 30
0.0
 40
4.105728
  1
U5
  0
TEXT
  5
391
  8
回08-記事
  6
CONTINUOUS
 62
     7
 10
1145.378175144768
 20
-649.4576967642076
 30
0.0
 40
4.105728
  1
D5
  0
TEXT
  5
392
  8
回08-記事
  6
CONTINUOUS
 62
     7
 10
1102.170605542697
 20
-636.2329977585525
 30
0.0
 40
4.105728
  1
NC
  0
TEXT
  5
393
  8
回08-記事
  6
CONTINUOUS
 62
     7
 10
1145.534817446851
 20
-601.8308221690642
 30
0.0
 40
4.105728
  1
U6
  0
TEXT
  5
394
  8
回08-記事
  6
CONTINUOUS
 62
     7
 10
1145.378175144768
 20
-635.7059216119846
 30
0.0
 40
4.105728
  1
D7
  0
TEXT
  5
395
  8
回08-記事
  6
CONTINUOUS
 62
     7
 10
1145.378175144768
 20
-683.6060816119847
 30
0.0
 40
4.105728
  1
SDL
  0
TEXT
  5
396
  8
回08-記事
  6
CONTINUOUS
 62
     7
 10
1145.378175144768
 20
-690.4489616119839
 30
0.0
 40
4.105728
  1
U1
  0
TEXT
  5
397
  8
回08-記事
  6
CONTINUOUS
 62
     7
 10
1145.378175144768
 20
-697.291841611984
 30
0.0
 40
4.105728
  1
U2
  0
TEXT
  5
398
  8
回08-記事
  6
CONTINUOUS
 62
     7
 10
1145.378175144768
 20
-704.1347216119842
 30
0.0
 40
4.105728
  1
U3
  0
TEXT
  5
399
  8
回08-記事
  6
CONTINUOUS
 62
     7
 10
1145.378175144768
 20
-710.9776016119845
 30
0.0
 40
4.105728
  1
U4
  0
TEXT
  5
39A
  8
回08-記事
  6
CONTINUOUS
 62
     7
 10
1102.280320848867
 20
-704.1347216119842
 30
0.0
 40
4.105728
  1
SUL
  0
TEXT
  5
39B
  8
回08-記事
  6
CONTINUOUS
 62
     7
 10
1102.280320848867
 20
-697.291841611984
 30
0.0
 40
4.105728
  1
L1
  0
TEXT
  5
39C
  8
回08-記事
  6
CONTINUOUS
 62
     7
 10
1102.280320848867
 20
-690.4489616119847
 30
0.0
 40
4.105728
  1
L2
  0
TEXT
  5
39D
  8
回08-記事
  6
CONTINUOUS
 62
     7
 10
1102.280320848867
 20
-676.7632016119843
 30
0.0
 40
4.105728
  1
L4
  0
TEXT
  5
39E
  8
回08-記事
  6
CONTINUOUS
 62
     7
 10
1102.280320848867
 20
-669.9203216119842
 30
0.0
 40
4.105728
  1
L5
  0
TEXT
  5
39F
  8
回08-記事
  6
CONTINUOUS
 62
     7
 10
1102.280320848867
 20
-663.0774416119844
 30
0.0
 40
4.105728
  1
NC
  0
TEXT
  5
3A0
  8
回08-記事
  6
CONTINUOUS
 62
     7
 10
1102.280320848867
 20
-656.2345616119844
 30
0.0
 40
4.105728
  1
NC
  0
TEXT
  5
3A1
  8
回08-記事
  6
CONTINUOUS
 62
     7
 10
1097.60999568827
 20
-583.100155460935
 30
0.0
 40
4.104085708799997
  1
PIN ASSIGNMENT
  0
TEXT
  5
3A2
  8
回08-記事
  6
CONTINUOUS
 62
     7
 10
1145.037922166391
 20
-670.0826799199063
 30
0.0
 40
4.105728
  1
D2
  0
TEXT
  5
3A3
  8
回08-記事
  6
CONTINUOUS
 62
     7
 10
1145.441068887353
 20
-676.9255599199066
 30
0.0
 40
4.105728
  1
D1
  0
TEXT
  5
3A4
  8
回08-記事
  6
CONTINUOUS
 62
     7
 10
1145.441068887353
 20
-663.2397999199062
 30
0.0
 40
4.105728
  1
D3
  0
TEXT
  5
3A5
  8
回08-記事
  6
CONTINUOUS
 62
     7
 10
1123.288654457566
 20
-676.7632016119843
 30
0.0
 40
4.105728
  1
28
  0
LINE
  5
3A6
  8
回08-記事
  6
CONTINUOUS
 62
     7
 10
1129.008168849816
 20
-620.1732674006741
 30
0.0
 11
1143.869093405819
 21
-620.1732674006741
 31
0.0
  0
LINE
  5
3A7
  8
回08-記事
  6
CONTINUOUS
 62
     7
 10
1129.008168849816
 20
-613.330387400674
 30
0.0
 11
1143.869093405819
 21
-613.330387400674
 31
0.0
  0
TEXT
  5
3A8
  8
回08-記事
  6
CONTINUOUS
 62
     7
 10
1123.293003472483
 20
-704.1347216119842
 30
0.0
 40
4.105728
  1
32
  0
LINE
  5
3A9
  8
回08-記事
  6
CONTINUOUS
 62
     7
 10
1129.008168849816
 20
-640.7019074006741
 30
0.0
 11
1143.869093405819
 21
-640.7019074006741
 31
0.0
  0
LINE
  5
3AA
  8
回08-記事
  6
CONTINUOUS
 62
     7
 10
1129.008168849816
 20
-633.8590274006739
 30
0.0
 11
1143.869093405819
 21
-633.8590274006739
 31
0.0
  0
TEXT
  5
3AB
  8
回08-記事
  6
CONTINUOUS
 62
     7
 10
1123.322519982662
 20
-717.8204816119841
 30
0.0
 40
4.105728
  1
34
  0
TEXT
  5
3AC
  8
回08-記事
  6
CONTINUOUS
 62
     7
 10
1145.753637016975
 20
-628.7292417531694
 30
0.0
 40
4.105728
  1
D8
  0
TEXT
  5
3AD
  8
回08-記事
  6
CONTINUOUS
 62
     7
 10
1145.753637016975
 20
-621.8863617531692
 30
0.0
 40
4.105728
  1
SUR
  0
LINE
  5
3AE
  8
回08-記事
  6
CONTINUOUS
 62
     7
 10
1129.008168849816
 20
-709.1307074006739
 30
0.0
 11
1143.869093405819
 21
-709.1307074006739
 31
0.0
  0
LINE
  5
3AF
  8
回08-記事
  6
CONTINUOUS
 62
     7
 10
1129.008168849816
 20
-688.6020674006739
 30
0.0
 11
1143.869093405819
 21
-688.6020674006739
 31
0.0
  0
LINE
  5
3B0
  8
回08-記事
  6
CONTINUOUS
 62
     7
 10
1129.008168849816
 20
-681.7591874006739
 30
0.0
 11
1143.869093405819
 21
-681.7591874006739
 31
0.0
  0
LINE
  5
3B1
  8
回08-記事
  6
CONTINUOUS
 62
     7
 10
1129.008168849816
 20
-668.0734274006741
 30
0.0
 11
1143.869093405819
 21
-668.0734274006741
 31
0.0
  0
LINE
  5
3B2
  8
回08-記事
  6
CONTINUOUS
 62
     7
 10
1129.008168849816
 20
-674.9163074006743
 30
0.0
 11
1143.869093405819
 21
-674.9163074006743
 31
0.0
  0
TEXT
  5
3B3
  8
回08-記事
  6
CONTINUOUS
 62
     7
 10
1122.957225816962
 20
-663.0774416119844
 30
0.0
 40
4.105728
  1
26
  0
TEXT
  5
3B4
  8
回08-記事
  6
CONTINUOUS
 62
     7
 10
1102.280320848867
 20
-683.6060816119847
 30
0.0
 40
4.105728
  1
L3
  0
TEXT
  5
3B5
  8
回08-記事
  6
CONTINUOUS
 62
     7
 10
1102.280320848867
 20
-608.3344016119845
 30
0.0
 40
4.105728
  1
R2
  0
TEXT
  5
3B6
  8
回08-記事
  6
CONTINUOUS
 62
     7
 10
1102.280320848867
 20
-649.6752893939985
 30
0.0
 40
4.105728
  1
SDR
  0
TEXT
  5
3B7
  8
回08-記事
  6
CONTINUOUS
 62
     7
 10
1102.280320848867
 20
-628.8630416119843
 30
0.0
 40
4.105728
  1
R5
  0
TEXT
  5
3B8
  8
回08-記事
  6
CONTINUOUS
 62
     7
 10
1084.530999877417
 20
-592.0187393739548
 30
0.0
 40
4.105728
  1
Tail-1
  0
TEXT
  5
3B9
  8
回08-記事
  6
CONTINUOUS
 62
     7
 10
1102.280320848867
 20
-622.0201616119842
 30
0.0
 40
4.105728
  1
R4
  0
TEXT
  5
3BA
  8
回08-記事
  6
CONTINUOUS
 62
     7
 10
1081.547528420228
 20
-601.4915216119844
 30
0.0
 40
4.105728
  1
1
  0
LINE
  5
3BB
  8
回08-記事
  6
CONTINUOUS
 62
     7
 10
1085.910314553915
 20
-599.6446274006744
 30
0.0
 11
1100.771239109918
 21
-599.6446274006744
 31
0.0
  0
LINE
  5
3BC
  8
回08-記事
  6
CONTINUOUS
 62
     7
 10
1085.910314553915
 20
-606.4875074006745
 30
0.0
 11
1100.771239109918
 21
-606.4875074006745
 31
0.0
  0
LINE
  5
3BD
  8
回08-記事
  6
CONTINUOUS
 62
     7
 10
1085.910314553915
 20
-613.330387400674
 30
0.0
 11
1100.771239109918
 21
-613.330387400674
 31
0.0
  0
TEXT
  5
3BE
  8
回08-記事
  6
CONTINUOUS
 62
     7
 10
1081.547528420228
 20
-608.3344016119845
 30
0.0
 40
4.105728
  1
2
  0
LINE
  5
3BF
  8
回08-記事
  6
CONTINUOUS
 62
     7
 10
1085.910314553915
 20
-620.1732674006741
 30
0.0
 11
1100.771239109918
 21
-620.1732674006741
 31
0.0
  0
TEXT
  5
3C0
  8
回08-記事
  6
CONTINUOUS
 62
     7
 10
1081.547528420228
 20
-628.8630416119843
 30
0.0
 40
4.105728
  1
5
  0
TEXT
  5
3C1
  8
回08-記事
  6
CONTINUOUS
 62
     7
 10
1081.547528420228
 20
-622.0201616119842
 30
0.0
 40
4.105728
  1
4
  0
TEXT
  5
3C2
  8
回08-記事
  6
CONTINUOUS
 62
     7
 10
1081.547528420228
 20
-635.7059216119846
 30
0.0
 40
4.105728
  1
6
  0
LINE
  5
3C3
  8
回08-記事
  6
CONTINUOUS
 62
     7
 10
1085.910314553915
 20
-640.7019074006741
 30
0.0
 11
1100.771239109918
 21
-640.7019074006741
 31
0.0
  0
LINE
  5
3C4
  8
回08-記事
  6
CONTINUOUS
 62
     7
 10
1085.910314553915
 20
-633.8590274006739
 30
0.0
 11
1100.771239109918
 21
-633.8590274006739
 31
0.0
  0
TEXT
  5
3C5
  8
回08-記事
  6
CONTINUOUS
 62
     7
 10
1081.547528420228
 20
-649.3916816119842
 30
0.0
 40
4.105728
  1
8
  0
LINE
  5
3C6
  8
回08-記事
  6
CONTINUOUS
 62
     7
 10
1085.910314553915
 20
-647.5447874006743
 30
0.0
 11
1100.771239109918
 21
-647.5447874006743
 31
0.0
  0
LINE
  5
3C7
  8
回08-記事
  6
CONTINUOUS
 62
     7
 10
1085.910314553915
 20
-695.4449474006743
 30
0.0
 11
1100.771239109918
 21
-695.4449474006743
 31
0.0
  0
LINE
  5
3C8
  8
回08-記事
  6
CONTINUOUS
 62
     7
 10
1085.910314553915
 20
-681.7591874006739
 30
0.0
 11
1100.771239109918
 21
-681.7591874006739
 31
0.0
  0
LINE
  5
3C9
  8
回08-記事
  6
CONTINUOUS
 62
     7
 10
1085.910314553915
 20
-674.9163074006743
 30
0.0
 11
1100.771239109918
 21
-674.9163074006743
 31
0.0
  0
LINE
  5
3CA
  8
回08-記事
  6
CONTINUOUS
 62
     7
 10
1085.910314553915
 20
-688.6020674006739
 30
0.0
 11
1100.771239109918
 21
-688.6020674006739
 31
0.0
  0
LINE
  5
3CB
  8
回08-記事
  6
CONTINUOUS
 62
     7
 10
1085.910314553915
 20
-661.2305474006741
 30
0.0
 11
1100.771239109918
 21
-661.2305474006741
 31
0.0
  0
TEXT
  5
3CC
  8
回08-記事
  6
CONTINUOUS
 62
     7
 10
1122.957225816962
 20
-649.3916816119848
 30
0.0
 40
4.105728
  1
24
  0
TEXT
  5
3CD
  8
回08-記事
  6
CONTINUOUS
 62
     7
 10
1122.957225816962
 20
-642.5488016119848
 30
0.0
 40
4.105728
  1
23
  0
TEXT
  5
3CE
  8
回08-記事
  6
CONTINUOUS
 62
     7
 10
1122.957225816962
 20
-628.863041611985
 30
0.0
 40
4.105728
  1
21
  0
TEXT
  5
3CF
  8
回08-記事
  6
CONTINUOUS
 62
     7
 10
1122.957225816962
 20
-615.1772816119846
 30
0.0
 40
4.105728
  1
19
  0
TEXT
  5
3D0
  8
回08-記事
  6
CONTINUOUS
 62
     7
 10
1122.957225816962
 20
-608.3344016119845
 30
0.0
 40
4.105728
  1
18
  0
TEXT
  5
3D1
  8
回08-記事
  6
CONTINUOUS
 62
     7
 10
1079.859371521062
 20
-704.1347216119842
 30
0.0
 40
4.105728
  1
16
  0
TEXT
  5
3D2
  8
回08-記事
  6
CONTINUOUS
 62
     7
 10
1079.612323137658
 20
-697.291841611984
 30
0.0
 40
4.105728
  1
15
  0
TEXT
  5
3D3
  8
回08-記事
  6
CONTINUOUS
 62
     7
 10
1079.612323137658
 20
-683.6060816119847
 30
0.0
 40
4.105728
  1
13
  0
TEXT
  5
3D4
  8
回08-記事
  6
CONTINUOUS
 62
     7
 10
1079.612323137658
 20
-669.9203216119848
 30
0.0
 40
4.105728
  1
11
  0
TEXT
  5
3D5
  8
回08-記事
  6
CONTINUOUS
 62
     7
 10
1079.612323137658
 20
-663.0774416119844
 30
0.0
 40
4.105728
  1
10
  0
TEXT
  5
3D6
  8
回08-記事
  6
CONTINUOUS
 62
     7
 10
1145.441068887353
 20
-656.3969199199061
 30
0.0
 40
4.105728
  1
D4
  0
TEXT
  5
3D7
  8
回08-記事
  6
CONTINUOUS
 62
     7
 10
1145.378175144767
 20
-642.5488016119841
 30
0.0
 40
4.105728
  1
D6
  0
LINE
  5
3D8
  8
回08-記事
  6
CONTINUOUS
 62
     7
 10
1129.008168849816
 20
-599.6446274006744
 30
0.0
 11
1143.869093405819
 21
-599.6446274006744
 31
0.0
  0
TEXT
  5
3D9
  8
回08-記事
  6
CONTINUOUS
 62
     7
 10
1123.288654457566
 20
-669.9203216119842
 30
0.0
 40
4.105728
  1
27
  0
LINE
  5
3DA
  8
回08-記事
  6
CONTINUOUS
 62
     7
 10
1129.008168849816
 20
-606.4875074006745
 30
0.0
 11
1143.869093405819
 21
-606.4875074006745
 31
0.0
  0
TEXT
  5
3DB
  8
回08-記事
  6
CONTINUOUS
 62
     7
 10
1123.288654457566
 20
-683.6060816119847
 30
0.0
 40
4.105728
  1
29
  0
TEXT
  5
3DC
  8
回08-記事
  6
CONTINUOUS
 62
     7
 10
1123.293003472483
 20
-690.4489616119839
 30
0.0
 40
4.105728
  1
30
  0
TEXT
  5
3DD
  8
回08-記事
  6
CONTINUOUS
 62
     7
 10
1123.293003472483
 20
-697.291841611984
 30
0.0
 40
4.105728
  1
31
  0
LINE
  5
3DE
  8
回08-記事
  6
CONTINUOUS
 62
     7
 10
1129.008168849816
 20
-627.0161474006743
 30
0.0
 11
1143.869093405819
 21
-627.0161474006743
 31
0.0
  0
TEXT
  5
3DF
  8
回08-記事
  6
CONTINUOUS
 62
     7
 10
1123.322519982662
 20
-710.9776016119838
 30
0.0
 40
4.105728
  1
33
  0
LINE
  5
3E0
  8
回08-記事
  6
CONTINUOUS
 62
     7
 10
1129.008168849816
 20
-647.5447874006743
 30
0.0
 11
1143.869093405819
 21
-647.5447874006743
 31
0.0
  0
TEXT
  5
3E1
  8
回08-記事
  6
CONTINUOUS
 62
     7
 10
1145.753637016975
 20
-615.043481753169
 30
0.0
 40
4.105728
  1
U8
  0
TEXT
  5
3E2
  8
回08-記事
  6
CONTINUOUS
 62
     7
 10
1145.753637016975
 20
-608.2006017531694
 30
0.0
 40
4.105728
  1
U7
  0
LINE
  5
3E3
  8
回08-記事
  6
CONTINUOUS
 62
     7
 10
1129.008168849816
 20
-715.9735874006742
 30
0.0
 11
1143.869093405819
 21
-715.9735874006742
 31
0.0
  0
LINE
  5
3E4
  8
回08-記事
  6
CONTINUOUS
 62
     7
 10
1129.008168849816
 20
-695.4449474006743
 30
0.0
 11
1143.869093405819
 21
-695.4449474006743
 31
0.0
  0
LINE
  5
3E5
  8
回08-記事
  6
CONTINUOUS
 62
     7
 10
1129.008168849816
 20
-702.2878274006743
 30
0.0
 11
1143.869093405819
 21
-702.2878274006743
 31
0.0
  0
LINE
  5
3E6
  8
回08-記事
  6
CONTINUOUS
 62
     7
 10
1129.008168849816
 20
-661.2305474006741
 30
0.0
 11
1143.869093405819
 21
-661.2305474006741
 31
0.0
  0
LINE
  5
3E7
  8
回08-記事
  6
CONTINUOUS
 62
     7
 10
1129.008168849816
 20
-654.3876674006743
 30
0.0
 11
1143.869093405819
 21
-654.3876674006743
 31
0.0
  0
TEXT
  5
3E8
  8
回08-記事
  6
CONTINUOUS
 62
     7
 10
1102.280320848867
 20
-615.1772816119846
 30
0.0
 40
4.105728
  1
R3
  0
TEXT
  5
3E9
  8
回08-記事
  6
CONTINUOUS
 62
     7
 10
1122.957225816962
 20
-656.2345616119849
 30
0.0
 40
4.105728
  1
25
  0
TEXT
  5
3EA
  8
回08-記事
  6
CONTINUOUS
 62
     7
 10
1102.280320848867
 20
-642.5488016119841
 30
0.0
 40
4.105728
  1
NC
  0
TEXT
  5
3EB
  8
回08-記事
  6
CONTINUOUS
 62
     7
 10
1102.280320848867
 20
-601.4915216119844
 30
0.0
 40
4.105728
  1
R1
  0
TEXT
  5
3EC
  8
回08-記事
  6
CONTINUOUS
 62
     7
 10
1128.53584890811
 20
-592.0187393739548
 30
0.0
 40
4.105728
  1
Tail-2
  0
TEXT
  5
3ED
  8
回08-記事
  6
CONTINUOUS
 62
     7
 10
1081.547528420228
 20
-615.1772816119846
 30
0.0
 40
4.105728
  1
3
  0
LINE
  5
3EE
  8
回08-記事
  6
CONTINUOUS
 62
     7
 10
1085.910314553915
 20
-627.0161474006743
 30
0.0
 11
1100.771239109918
 21
-627.0161474006743
 31
0.0
  0
TEXT
  5
3EF
  8
回08-記事
  6
CONTINUOUS
 62
     7
 10
1081.547528420228
 20
-642.5488016119841
 30
0.0
 40
4.105728
  1
7
  0
LINE
  5
3F0
  8
回08-記事
  6
CONTINUOUS
 62
     7
 10
1085.910314553915
 20
-702.2878274006743
 30
0.0
 11
1100.771239109918
 21
-702.2878274006743
 31
0.0
  0
LINE
  5
3F1
  8
回08-記事
  6
CONTINUOUS
 62
     7
 10
1085.910314553915
 20
-668.0734274006741
 30
0.0
 11
1100.771239109918
 21
-668.0734274006741
 31
0.0
  0
LINE
  5
3F2
  8
回08-記事
  6
CONTINUOUS
 62
     7
 10
1085.910314553915
 20
-654.3876674006743
 30
0.0
 11
1100.771239109918
 21
-654.3876674006743
 31
0.0
  0
TEXT
  5
3F3
  8
回08-記事
  6
CONTINUOUS
 62
     7
 10
1122.957225816962
 20
-635.7059216119846
 30
0.0
 40
4.105728
  1
22
  0
TEXT
  5
3F4
  8
回08-記事
  6
CONTINUOUS
 62
     7
 10
1122.957225816962
 20
-622.0201616119847
 30
0.0
 40
4.105728
  1
20
  0
TEXT
  5
3F5
  8
回08-記事
  6
CONTINUOUS
 62
     7
 10
1122.957225816962
 20
-601.491521611985
 30
0.0
 40
4.105728
  1
17
  0
TEXT
  5
3F6
  8
回08-記事
  6
CONTINUOUS
 62
     7
 10
1079.612323137658
 20
-690.4489616119847
 30
0.0
 40
4.105728
  1
14
  0
TEXT
  5
3F7
  8
回08-記事
  6
CONTINUOUS
 62
     7
 10
1079.612323137658
 20
-676.7632016119843
 30
0.0
 40
4.105728
  1
12
  0
TEXT
  5
3F8
  8
回08-記事
  6
CONTINUOUS
 62
     7
 10
1081.547528420228
 20
-656.2345616119844
 30
0.0
 40
4.105728
  1
9
  0
POLYLINE
  5
3F9
  8
回03-下ER
  6
CONTINUOUS
 62
     7
 66
     1
 10
0.0
 20
0.0
 30
0.0
  0
VERTEX
  5
A47
  8
回03-下ER
  6
CONTINUOUS
 62
     7
 10
899.6302015636629
 20
-632.9643497603548
 30
0.0
  0
VERTEX
  5
A49
  8
回03-下ER
  6
CONTINUOUS
 62
     7
 10
899.6302015636629
 20
-724.4043497603549
 30
0.0
  0
SEQEND
  5
A48
  8
0
  6
CONTINUOUS
 62
     1
  0
POLYLINE
  5
3FD
  8
回03-下ER
  6
CONTINUOUS
 62
     7
 66
     1
 10
0.0
 20
0.0
 30
0.0
  0
VERTEX
  5
A4A
  8
回03-下ER
  6
CONTINUOUS
 62
     7
 10
899.230201563663
 20
-724.4043497603549
 30
0.0
  0
VERTEX
  5
A4C
  8
回03-下ER
  6
CONTINUOUS
 62
     7
 10
899.230201563663
 20
-632.9643497603548
 30
0.0
  0
SEQEND
  5
A4B
  8
0
  6
CONTINUOUS
 62
     1
  0
POLYLINE
  5
3FE
  8
回03-下ER
  6
CONTINUOUS
 62
     7
 66
     1
 10
0.0
 20
0.0
 30
0.0
  0
VERTEX
  5
A4D
  8
回03-下ER
  6
CONTINUOUS
 62
     7
 10
880.5302015636629
 20
-632.9643497603548
 30
0.0
  0
VERTEX
  5
A4F
  8
回03-下ER
  6
CONTINUOUS
 62
     7
 10
880.5302015636629
 20
-724.4043497603549
 30
0.0
  0
SEQEND
  5
A4E
  8
0
  6
CONTINUOUS
 62
     1
  0
POLYLINE
  5
3FF
  8
回03-下ER
  6
CONTINUOUS
 62
     7
 66
     1
 10
0.0
 20
0.0
 30
0.0
  0
VERTEX
  5
A50
  8
回03-下ER
  6
CONTINUOUS
 62
     7
 10
880.1302015636629
 20
-724.4043497603549
 30
0.0
  0
VERTEX
  5
A52
  8
回03-下ER
  6
CONTINUOUS
 62
     7
 10
880.1302015636629
 20
-632.9643497603548
 30
0.0
  0
SEQEND
  5
A51
  8
0
  6
CONTINUOUS
 62
     1
  0
POLYLINE
  5
400
  8
回03-下ER
  6
CONTINUOUS
 62
     7
 66
     1
 10
0.0
 20
0.0
 30
0.0
  0
VERTEX
  5
A53
  8
回03-下ER
  6
CONTINUOUS
 62
     7
 10
861.4302015636628
 20
-632.9643497603548
 30
0.0
  0
VERTEX
  5
A55
  8
回03-下ER
  6
CONTINUOUS
 62
     7
 10
861.4302015636628
 20
-724.4043497603549
 30
0.0
  0
SEQEND
  5
A54
  8
0
  6
CONTINUOUS
 62
     1
  0
POLYLINE
  5
401
  8
回03-下ER
  6
CONTINUOUS
 62
     7
 66
     1
 10
0.0
 20
0.0
 30
0.0
  0
VERTEX
  5
A56
  8
回03-下ER
  6
CONTINUOUS
 62
     7
 10
861.0302015636627
 20
-724.4043497603549
 30
0.0
  0
VERTEX
  5
A58
  8
回03-下ER
  6
CONTINUOUS
 62
     7
 10
861.0302015636627
 20
-632.9643497603548
 30
0.0
  0
SEQEND
  5
A57
  8
0
  6
CONTINUOUS
 62
     1
  0
POLYLINE
  5
402
  8
回03-下ER
  6
CONTINUOUS
 62
     7
 66
     1
 10
0.0
 20
0.0
 30
0.0
  0
VERTEX
  5
A59
  8
回03-下ER
  6
CONTINUOUS
 62
     7
 10
842.3302015636629
 20
-632.9643497603548
 30
0.0
  0
VERTEX
  5
A5B
  8
回03-下ER
  6
CONTINUOUS
 62
     7
 10
842.3302015636629
 20
-724.4043497603549
 30
0.0
  0
SEQEND
  5
A5A
  8
0
  6
CONTINUOUS
 62
     1
  0
POLYLINE
  5
403
  8
回03-下ER
  6
CONTINUOUS
 62
     7
 66
     1
 10
0.0
 20
0.0
 30
0.0
  0
VERTEX
  5
A5C
  8
回03-下ER
  6
CONTINUOUS
 62
     7
 10
841.9302015636628
 20
-724.4043497603549
 30
0.0
  0
VERTEX
  5
A5E
  8
回03-下ER
  6
CONTINUOUS
 62
     7
 10
841.9302015636628
 20
-632.9643497603548
 30
0.0
  0
SEQEND
  5
A5D
  8
0
  6
CONTINUOUS
 62
     1
  0
POLYLINE
  5
404
  8
回03-下ER
  6
CONTINUOUS
 62
     7
 66
     1
 10
0.0
 20
0.0
 30
0.0
  0
VERTEX
  5
A5F
  8
回03-下ER
  6
CONTINUOUS
 62
     7
 10
823.2302015636626
 20
-632.9643497603548
 30
0.0
  0
VERTEX
  5
A61
  8
回03-下ER
  6
CONTINUOUS
 62
     7
 10
823.2302015636626
 20
-724.4043497603549
 30
0.0
  0
SEQEND
  5
A60
  8
0
  6
CONTINUOUS
 62
     1
  0
POLYLINE
  5
405
  8
回03-下ER
  6
CONTINUOUS
 62
     7
 66
     1
 10
0.0
 20
0.0
 30
0.0
  0
VERTEX
  5
A62
  8
回03-下ER
  6
CONTINUOUS
 62
     7
 10
822.8302015636629
 20
-724.4043497603549
 30
0.0
  0
VERTEX
  5
A64
  8
回03-下ER
  6
CONTINUOUS
 62
     7
 10
822.8302015636629
 20
-632.9643497603548
 30
0.0
  0
SEQEND
  5
A63
  8
0
  6
CONTINUOUS
 62
     1
  0
POLYLINE
  5
406
  8
回03-下ER
  6
CONTINUOUS
 62
     7
 66
     1
 10
0.0
 20
0.0
 30
0.0
  0
VERTEX
  5
A65
  8
回03-下ER
  6
CONTINUOUS
 62
     7
 10
804.1302015636627
 20
-632.9643497603548
 30
0.0
  0
VERTEX
  5
A67
  8
回03-下ER
  6
CONTINUOUS
 62
     7
 10
804.1302015636627
 20
-724.4043497603549
 30
0.0
  0
SEQEND
  5
A66
  8
0
  6
CONTINUOUS
 62
     1
  0
POLYLINE
  5
407
  8
回03-下ER
  6
CONTINUOUS
 62
     7
 66
     1
 10
0.0
 20
0.0
 30
0.0
  0
VERTEX
  5
A68
  8
回03-下ER
  6
CONTINUOUS
 62
     7
 10
803.7302015636626
 20
-724.4043497603549
 30
0.0
  0
VERTEX
  5
A6A
  8
回03-下ER
  6
CONTINUOUS
 62
     7
 10
803.7302015636626
 20
-632.9643497603548
 30
0.0
  0
SEQEND
  5
A69
  8
0
  6
CONTINUOUS
 62
     1
  0
POLYLINE
  5
408
  8
回03-下ER
  6
CONTINUOUS
 62
     7
 66
     1
 10
0.0
 20
0.0
 30
0.0
  0
VERTEX
  5
A6B
  8
回03-下ER
  6
CONTINUOUS
 62
     7
 10
785.0302015636627
 20
-632.9643497603548
 30
0.0
  0
VERTEX
  5
A6D
  8
回03-下ER
  6
CONTINUOUS
 62
     7
 10
785.0302015636627
 20
-724.4043497603549
 30
0.0
  0
SEQEND
  5
A6C
  8
0
  6
CONTINUOUS
 62
     1
  0
POLYLINE
  5
409
  8
回01-上ER
  6
CONTINUOUS
 62
     7
 66
     1
 10
0.0
 20
0.0
 30
0.0
  0
VERTEX
  5
A6E
  8
回01-上ER
  6
CONTINUOUS
 62
     7
 10
918.3302015636627
 20
-706.436349760355
 30
0.0
  0
VERTEX
  5
A70
  8
回01-上ER
  6
CONTINUOUS
 62
     7
 10
765.9302015636627
 20
-706.436349760355
 30
0.0
  0
SEQEND
  5
A6F
  8
0
  6
CONTINUOUS
 62
     1
  0
POLYLINE
  5
40D
  8
回01-上ER
  6
CONTINUOUS
 62
     7
 66
     1
 10
0.0
 20
0.0
 30
0.0
  0
VERTEX
  5
A71
  8
回01-上ER
  6
CONTINUOUS
 62
     7
 10
765.9302015636627
 20
-706.036349760355
 30
0.0
  0
VERTEX
  5
A73
  8
回01-上ER
  6
CONTINUOUS
 62
     7
 10
918.3302015636627
 20
-706.036349760355
 30
0.0
  0
SEQEND
  5
A72
  8
0
  6
CONTINUOUS
 62
     1
  0
POLYLINE
  5
40E
  8
回01-上ER
  6
CONTINUOUS
 62
     7
 66
     1
 10
0.0
 20
0.0
 30
0.0
  0
VERTEX
  5
A74
  8
回01-上ER
  6
CONTINUOUS
 62
     7
 10
918.3302015636627
 20
-688.0683497603548
 30
0.0
  0
VERTEX
  5
A76
  8
回01-上ER
  6
CONTINUOUS
 62
     7
 10
765.9302015636627
 20
-688.0683497603548
 30
0.0
  0
SEQEND
  5
A75
  8
0
  6
CONTINUOUS
 62
     1
  0
POLYLINE
  5
40F
  8
回01-上ER
  6
CONTINUOUS
 62
     7
 66
     1
 10
0.0
 20
0.0
 30
0.0
  0
VERTEX
  5
A77
  8
回01-上ER
  6
CONTINUOUS
 62
     7
 10
765.9302015636627
 20
-687.6683497603549
 30
0.0
  0
VERTEX
  5
A79
  8
回01-上ER
  6
CONTINUOUS
 62
     7
 10
918.3302015636627
 20
-687.6683497603549
 30
0.0
  0
SEQEND
  5
A78
  8
0
  6
CONTINUOUS
 62
     1
  0
POLYLINE
  5
410
  8
回01-上ER
  6
CONTINUOUS
 62
     7
 66
     1
 10
0.0
 20
0.0
 30
0.0
  0
VERTEX
  5
A7A
  8
回01-上ER
  6
CONTINUOUS
 62
     7
 10
918.3302015636627
 20
-669.700349760355
 30
0.0
  0
VERTEX
  5
A7C
  8
回01-上ER
  6
CONTINUOUS
 62
     7
 10
765.9302015636627
 20
-669.700349760355
 30
0.0
  0
SEQEND
  5
A7B
  8
0
  6
CONTINUOUS
 62
     1
  0
POLYLINE
  5
411
  8
回01-上ER
  6
CONTINUOUS
 62
     7
 66
     1
 10
0.0
 20
0.0
 30
0.0
  0
VERTEX
  5
A7D
  8
回01-上ER
  6
CONTINUOUS
 62
     7
 10
765.9302015636627
 20
-669.3003497603548
 30
0.0
  0
VERTEX
  5
A7F
  8
回01-上ER
  6
CONTINUOUS
 62
     7
 10
918.3302015636627
 20
-669.3003497603548
 30
0.0
  0
SEQEND
  5
A7E
  8
0
  6
CONTINUOUS
 62
     1
  0
POLYLINE
  5
412
  8
回01-上ER
  6
CONTINUOUS
 62
     7
 66
     1
 10
0.0
 20
0.0
 30
0.0
  0
VERTEX
  5
A80
  8
回01-上ER
  6
CONTINUOUS
 62
     7
 10
918.3302015636627
 20
-651.3323497603549
 30
0.0
  0
VERTEX
  5
A82
  8
回01-上ER
  6
CONTINUOUS
 62
     7
 10
765.9302015636627
 20
-651.3323497603549
 30
0.0
  0
SEQEND
  5
A81
  8
0
  6
CONTINUOUS
 62
     1
  0
POLYLINE
  5
413
  8
回01-上ER
  6
CONTINUOUS
 62
     7
 66
     1
 10
0.0
 20
0.0
 30
0.0
  0
VERTEX
  5
A83
  8
回01-上ER
  6
CONTINUOUS
 62
     7
 10
765.9302015636627
 20
-650.932349760355
 30
0.0
  0
VERTEX
  5
A85
  8
回01-上ER
  6
CONTINUOUS
 62
     7
 10
918.3302015636627
 20
-650.932349760355
 30
0.0
  0
SEQEND
  5
A84
  8
0
  6
CONTINUOUS
 62
     1
  0
POLYLINE
  5
414
  8
回03-下ER
  6
CONTINUOUS
 62
     7
 66
     1
 10
0.0
 20
0.0
 30
0.0
  0
VERTEX
  5
A86
  8
回03-下ER
  6
CONTINUOUS
 62
     7
 10
784.6302015636626
 20
-724.4043497603549
 30
0.0
  0
VERTEX
  5
A88
  8
回03-下ER
  6
CONTINUOUS
 62
     7
 10
784.6302015636626
 20
-632.9643497603548
 30
0.0
  0
SEQEND
  5
A87
  8
0
  6
CONTINUOUS
 62
     1
  0
LINE
  5
415
  8
回07-寸法
  6
CENTER2
 62
     1
 10
762.5802015636627
 20
-678.6843497603548
 30
0.0
 11
921.6802015636627
 21
-678.6843497603548
 31
0.0
  0
LINE
  5
416
  8
回07-寸法
  6
CENTER2
 62
     1
 10
842.1302015636626
 20
-726.8143497603547
 30
0.0
 11
842.1302015636626
 21
-630.5543497603547
 31
0.0
  0
POLYLINE
  5
417
  8
回04-下接
  6
CONTINUOUS
 62
     7
 66
     1
 10
0.0
 20
0.0
 30
0.0
 70
     1
  0
VERTEX
  5
A89
  8
回04-下接
  6
CONTINUOUS
 62
     7
 10
758.5802015636627
 20
-737.1343497603548
 30
0.0
  0
VERTEX
  5
A8B
  8
回04-下接
  6
CONTINUOUS
 62
     7
 10
925.6802015636628
 20
-737.1343497603548
 30
0.0
  0
VERTEX
  5
A8C
  8
回04-下接
  6
CONTINUOUS
 62
     7
 10
925.6802015636628
 20
-625.0343497603547
 30
0.0
  0
VERTEX
  5
A8D
  8
回04-下接
  6
CONTINUOUS
 62
     7
 10
758.5802015636627
 20
-625.0343497603547
 30
0.0
  0
SEQEND
  5
A8A
  8
0
  6
CONTINUOUS
 62
     1
  0
POLYLINE
  5
41B
  8
回08-記事
  6
CONTINUOUS
 62
     7
 66
     1
 10
0.0
 20
0.0
 30
0.0
 70
     1
  0
VERTEX
  5
A8E
  8
回08-記事
  6
CONTINUOUS
 62
     7
 10
763.5802015636627
 20
-630.9343497603548
 30
0.0
  0
VERTEX
  5
A90
  8
回08-記事
  6
CONTINUOUS
 62
     7
 10
920.6802015636627
 20
-630.9343497603548
 30
0.0
  0
VERTEX
  5
A91
  8
回08-記事
  6
CONTINUOUS
 62
     7
 10
920.6802015636627
 20
-726.4343497603549
 30
0.0
  0
VERTEX
  5
A92
  8
回08-記事
  6
CONTINUOUS
 62
     7
 10
763.5802015636627
 20
-726.4343497603549
 30
0.0
  0
SEQEND
  5
A8F
  8
0
  6
CONTINUOUS
 62
     1
  0
POLYLINE
  5
41C
  8
回08-記事
  6
CONTINUOUS
 62
     7
 66
     1
 10
0.0
 20
0.0
 30
0.0
 70
     1
  0
VERTEX
  5
A93
  8
回08-記事
  6
CONTINUOUS
 62
     7
 10
765.9302015636627
 20
-632.9643497603548
 30
0.0
  0
VERTEX
  5
A95
  8
回08-記事
  6
CONTINUOUS
 62
     7
 10
918.3302015636627
 20
-632.9643497603548
 30
0.0
  0
VERTEX
  5
A96
  8
回08-記事
  6
CONTINUOUS
 62
     7
 10
918.3302015636627
 20
-724.4043497603549
 30
0.0
  0
VERTEX
  5
A97
  8
回08-記事
  6
CONTINUOUS
 62
     7
 10
765.9302015636627
 20
-724.4043497603549
 30
0.0
  0
SEQEND
  5
A94
  8
0
  6
CONTINUOUS
 62
     1
  0
ENDSEC
  0
EOF
