  0
SECTION
  2
HEADER
  9
$ACADVER
  1
AC1009
  9
$INSBASE
 10
0.0
 20
0.0
 30
0.0
  9
$EXTMIN
 10
700.4951305449359
 20
-637.9231401048441
 30
0.0
  9
$EXTMAX
 10
1270.495130544936
 20
-242.9231401048442
 30
0.0
  9
$LIMMIN
 10
0.0
 20
0.0
  9
$LIMMAX
 10
3000.0
 20
2500.0
  9
$ORTHOMODE
 70
     0
  9
$REGENMODE
 70
     1
  9
$FILLMODE
 70
     1
  9
$QTEXTMODE
 70
     0
  9
$MIRRTEXT
 70
     1
  9
$DRAGMODE
 70
     2
  9
$LTSCALE
 40
10.0
  9
$OSMODE
 70
    37
  9
$ATTMODE
 70
     1
  9
$TEXTSIZE
 40
4.0
  9
$TRACEWID
 40
1.0
  9
$TEXTSTYLE
  7
STANDARD
  9
$CLAYER
  8
回04-下接
  9
$CELTYPE
  6
CONTINUOUS
  9
$CECOLOR
 62
     3
  9
$DIMSCALE
 40
1.0
  9
$DIMASZ
 40
1.5
  9
$DIMEXO
 40
0.0
  9
$DIMDLI
 40
0.0
  9
$DIMRND
 40
0.0
  9
$DIMDLE
 40
0.0
  9
$DIMEXE
 40
1.0
  9
$DIMTP
 40
0.2
  9
$DIMTM
 40
0.2
  9
$DIMTXT
 40
4.0
  9
$DIMCEN
 40
1.5
  9
$DIMTSZ
 40
0.0
  9
$DIMTOL
 70
     0
  9
$DIMLIM
 70
     0
  9
$DIMTIH
 70
     0
  9
$DIMTOH
 70
     0
  9
$DIMSE1
 70
     0
  9
$DIMSE2
 70
     0
  9
$DIMTAD
 70
     3
  9
$DIMZIN
 70
     8
  9
$DIMBLK
  1
OPEN
  9
$DIMASO
 70
     1
  9
$DIMSHO
 70
     1
  9
$DIMPOST
  1

  9
$DIMAPOST
  1

  9
$DIMALT
 70
     0
  9
$DIMALTD
 70
     3
  9
$DIMALTF
 40
0.03937007874016
  9
$DIMLFAC
 40
1.0
  9
$DIMTOFL
 70
     1
  9
$DIMTVP
 40
0.0
  9
$DIMTIX
 70
     0
  9
$DIMSOXD
 70
     0
  9
$DIMSAH
 70
     0
  9
$DIMBLK1
  1

  9
$DIMBLK2
  1

  9
$DIMSTYLE
  2
DMC
  9
$DIMCLRD
 70
     5
  9
$DIMCLRE
 70
     5
  9
$DIMCLRT
 70
     5
  9
$DIMTFAC
 40
0.7
  9
$DIMGAP
 40
0.5
  9
$LUNITS
 70
     2
  9
$LUPREC
 70
     4
  9
$SKETCHINC
 40
1.0
  9
$FILLETRAD
 40
0.5
  9
$AUNITS
 70
     0
  9
$AUPREC
 70
     0
  9
$MENU
  1
.
  9
$ELEVATION
 40
0.0
  9
$PELEVATION
 40
0.0
  9
$THICKNESS
 40
0.0
  9
$LIMCHECK
 70
     0
  9
$BLIPMODE
 70
     0
  9
$CHAMFERA
 40
10.0
  9
$CHAMFERB
 40
10.0
  9
$SKPOLY
 70
     0
  9
$TDCREATE
 40
2451810.404221065
  9
$TDUPDATE
 40
2460230.387059398
  9
$TDINDWG
 40
4.114269132
  9
$TDUSRTIMER
 40
4.114267870
  9
$USRTIMER
 70
     1
  9
$ANGBASE
 50
0.0
  9
$ANGDIR
 70
     0
  9
$PDMODE
 70
     0
  9
$PDSIZE
 40
0.0
  9
$PLINEWID
 40
0.2
  9
$COORDS
 70
     0
  9
$SPLFRAME
 70
     0
  9
$SPLINETYPE
 70
     6
  9
$SPLINESEGS
 70
     8
  9
$ATTDIA
 70
     1
  9
$ATTREQ
 70
     1
  9
$HANDLING
 70
     1
  9
$HANDSEED
  5
AE0
  9
$SURFTAB1
 70
     6
  9
$SURFTAB2
 70
     6
  9
$SURFTYPE
 70
     6
  9
$SURFU
 70
     6
  9
$SURFV
 70
     6
  9
$UCSNAME
  2

  9
$UCSORG
 10
0.0
 20
0.0
 30
0.0
  9
$UCSXDIR
 10
1.0
 20
0.0
 30
0.0
  9
$UCSYDIR
 10
0.0
 20
1.0
 30
0.0
  9
$PUCSNAME
  2

  9
$PUCSORG
 10
0.0
 20
0.0
 30
0.0
  9
$PUCSXDIR
 10
1.0
 20
0.0
 30
0.0
  9
$PUCSYDIR
 10
0.0
 20
1.0
 30
0.0
  9
$USERI1
 70
     0
  9
$USERI2
 70
     0
  9
$USERI3
 70
     0
  9
$USERI4
 70
     0
  9
$USERI5
 70
     0
  9
$USERR1
 40
0.0
  9
$USERR2
 40
0.0
  9
$USERR3
 40
0.0
  9
$USERR4
 40
0.0
  9
$USERR5
 40
0.0
  9
$WORLDVIEW
 70
     1
  9
$SHADEDGE
 70
     3
  9
$SHADEDIF
 70
    70
  9
$TILEMODE
 70
     1
  9
$MAXACTVP
 70
    64
  9
$PLIMCHECK
 70
     0
  9
$PEXTMIN
 10
1.000000000000000E+20
 20
1.000000000000000E+20
 30
1.000000000000000E+20
  9
$PEXTMAX
 10
-1.000000000000000E+20
 20
-1.000000000000000E+20
 30
-1.000000000000000E+20
  9
$PLIMMIN
 10
0.0
 20
0.0
  9
$PLIMMAX
 10
420.0
 20
297.0
  9
$UNITMODE
 70
     0
  9
$VISRETAIN
 70
     1
  9
$PLINEGEN
 70
     0
  9
$PSLTSCALE
 70
     1
  0
ENDSEC
  0
SECTION
  2
TABLES
  0
TABLE
  2
VPORT
 70
     1
  0
VPORT
  2
*ACTIVE
 70
     0
 10
0.0
 20
0.0
 11
1.0
 21
1.0
 12
1092.554911336244
 22
-459.6166924053582
 13
0.0
 23
0.0
 14
10.0
 24
10.0
 15
10.0
 25
10.0
 16
0.0
 26
0.0
 36
1.0
 17
0.0
 27
0.0
 37
0.0
 40
507.9409895090666
 41
1.853689567430025
 42
50.0
 43
0.0
 44
0.0
 50
0.0
 51
0.0
 71
     0
 72
   500
 73
     1
 74
     1
 75
     0
 76
     0
 77
     0
 78
     0
  0
ENDTAB
  0
TABLE
  2
LTYPE
 70
     3
  0
LTYPE
  2
CONTINUOUS
 70
     0
  3
Solid line
 72
    65
 73
     0
 40
0.0
  0
LTYPE
  2
CENTER2
 70
     0
  3
Center (.5x) ___ _ ___ _ ___ _ ___ _ ___ _ ___
 72
    65
 73
     4
 40
28.575
 49
19.05
 49
-3.174999999999998
 49
3.174999999999998
 49
-3.174999999999998
  0
LTYPE
  2
PHANTOM2
 70
     0
  3
___ _ _ ___ _ _ ___ _ _ ___ _ _ ___ _ _ ___ _ _
 72
    65
 73
     6
 40
1.25
 49
0.625
 49
-0.125
 49
0.125
 49
-0.125
 49
0.125
 49
-0.125
  0
ENDTAB
  0
TABLE
  2
LAYER
 70
    11
  0
LAYER
  2
0
 70
     0
 62
     7
  6
CONTINUOUS
  0
LAYER
  2
DEFPOINTS
 70
     0
 62
     7
  6
CONTINUOUS
  0
LAYER
  2
回05-ﾃｰﾙ
 70
     0
 62
     7
  6
CONTINUOUS
  0
LAYER
  2
回07-寸法
 70
     0
 62
     7
  6
CONTINUOUS
  0
LAYER
  2
回03-下ER
 70
     0
 62
     7
  6
CONTINUOUS
  0
LAYER
  2
回90-枠2
 70
     0
 62
     7
  6
CONTINUOUS
  0
LAYER
  2
回04-下接
 70
     0
 62
     7
  6
CONTINUOUS
  0
LAYER
  2
回01-上ER
 70
     0
 62
     7
  6
CONTINUOUS
  0
LAYER
  2
回08-記事
 70
     0
 62
     7
  6
CONTINUOUS
  0
LAYER
  2
回04-図面枠
 70
     0
 62
     7
  6
CONTINUOUS
  0
LAYER
  2
回03-記事
 70
     0
 62
     7
  6
CONTINUOUS
  0
ENDTAB
  0
TABLE
  2
STYLE
 70
     2
  0
STYLE
  2
STANDARD
 70
     0
 40
4.0
 41
1.0
 50
0.0
 71
     0
 42
4.0
  3
isocp.shx
  4
bigfont.shx
  0
STYLE
  2
ANNOTATIVE
 70
     0
 40
0.0
 41
1.0
 50
0.0
 71
     0
 42
0.2
  3
txt.shx
  4

  0
ENDTAB
  0
TABLE
  2
VIEW
 70
     0
  0
ENDTAB
  0
TABLE
  2
UCS
 70
     0
  0
ENDTAB
  0
TABLE
  2
APPID
 70
     7
  0
APPID
  2
ACAD
 70
     0
  0
APPID
  2
ACADANNOTATIVE
 70
     0
  0
APPID
  2
ACAECLAYERSTANDARD
 70
     0
  0
APPID
  2
ACAD_PSEXT
 70
     0
  0
APPID
  2
GRADIENTCOLOR1ACI
 70
     0
  0
APPID
  2
GRADIENTCOLOR2ACI
 70
     0
  0
APPID
  2
ACAD_NAV_VCDISPLAY
 70
     0
  0
ENDTAB
  0
TABLE
  2
DIMSTYLE
 70
     2
  0
DIMSTYLE
  2
DMC
 70
     0
  3

  4

  5
OPEN
  6

  7

 40
1.0
 41
2.0
 42
0.0
 43
0.0
 44
1.0
 45
0.0
 46
0.0
 47
0.0
 48
0.0
140
3.0
141
2.0
142
0.0
143
0.03937007874016
144
1.0
145
0.0
146
0.7
147
0.5
 71
     0
 72
     0
 73
     0
 74
     0
 75
     0
 76
     0
 77
     3
 78
     8
170
     0
171
     3
172
     1
173
     0
174
     0
175
     0
176
     5
177
     5
178
     5
  0
DIMSTYLE
  2
STANDARD
 70
     0
  3

  4

  5

  6

  7

 40
1.0
 41
0.18
 42
0.0625
 43
0.38
 44
0.18
 45
0.0
 46
0.0
 47
0.0
 48
0.0
140
0.18
141
0.09
142
0.0
143
25.4
144
1.0
145
0.0
146
1.0
147
0.09
 71
     0
 72
     0
 73
     1
 74
     1
 75
     0
 76
     0
 77
     0
 78
     0
170
     0
171
     2
172
     0
173
     0
174
     0
175
     0
176
     0
177
     0
178
     0
  0
ENDTAB
  0
ENDSEC
  0
SECTION
  2
BLOCKS
  0
BLOCK
  8
0
  2
$MODEL_SPACE
 70
     0
 10
0.0
 20
0.0
 30
0.0
  3
$MODEL_SPACE
  1

  0
ENDBLK
  8
0
  5
20
  0
BLOCK
 67
     1
  8
0
  2
$PAPER_SPACE
 70
     0
 10
0.0
 20
0.0
 30
0.0
  3
$PAPER_SPACE
  1

  0
ENDBLK
  5
26
 67
     1
  8
0
  0
BLOCK
  8
0
  2
_OPEN
 70
     0
 10
0.0
 20
0.0
 30
0.0
  3
_OPEN
  1

  0
LINE
  5
83C
  8
0
  6
BYBLOCK
 62
     0
 10
-1.0
 20
0.166667
 30
0.0
 11
0.0
 21
0.0
 31
0.0
  0
LINE
  5
83D
  8
0
  6
BYBLOCK
 62
     0
 10
-1.0
 20
-0.166667
 30
0.0
 11
0.0
 21
0.0
 31
0.0
  0
LINE
  5
83E
  8
0
  6
BYBLOCK
 62
     0
 10
0.0
 20
0.0
 30
0.0
 11
-1.0
 21
0.0
 31
0.0
  0
LINE
  5
14
  8
0
  6
CONTINUOUS
 62
     0
 10
-1.0
 20
0.1666666666666666
 30
0.0
 11
0.0
 21
0.0
 31
0.0
  0
LINE
  5
15
  8
0
  6
CONTINUOUS
 62
     0
 10
-1.0
 20
-0.1666666666666666
 30
0.0
 11
0.0
 21
0.0
 31
0.0
  0
LINE
  5
16
  8
0
  6
CONTINUOUS
 62
     0
 10
0.0
 20
0.0
 30
0.0
 11
-1.0
 21
0.0
 31
0.0
  0
ENDBLK
  5
17
  8
0
  0
BLOCK
  8
0
  2
*D11
 70
     1
 10
0.0
 20
0.0
 30
0.0
  3
*D11
  1

  0
LINE
  5
33B
  8
回07-寸法
  6
CONTINUOUS
 62
     5
 10
856.6793386102693
 20
-387.1737596110051
 30
0.0
 11
820.1793386102693
 21
-387.1737596110051
 31
0.0
  0
LINE
  5
33C
  8
回07-寸法
  6
CONTINUOUS
 62
     5
 10
850.1793386102692
 20
-397.8737596110052
 30
0.0
 11
820.1793386102693
 21
-397.8737596110052
 31
0.0
  0
LINE
  5
33D
  8
回07-寸法
  6
CONTINUOUS
 62
     5
 10
821.1793386102693
 20
-385.6737596110051
 30
0.0
 11
821.1793386102693
 21
-384.1737596110052
 31
0.0
  0
LINE
  5
33E
  8
回07-寸法
  6
CONTINUOUS
 62
     5
 10
821.1793386102693
 20
-399.3737596110052
 30
0.0
 11
821.1793386102693
 21
-409.4737596110051
 31
0.0
  0
LINE
  5
33F
  8
回07-寸法
  6
CONTINUOUS
 62
     5
 10
821.1793386102693
 20
-387.1737596110051
 30
0.0
 11
821.1793386102693
 21
-397.8737596110052
 31
0.0
  0
INSERT
  5
340
  8
回07-寸法
  6
CONTINUOUS
 62
     5
  2
_OPEN
 10
821.1793386102693
 20
-387.1737596110051
 30
0.0
 41
1.5
 42
1.5
 43
1.5
 50
270.0
  0
INSERT
  5
341
  8
回07-寸法
  6
CONTINUOUS
 62
     5
  2
_OPEN
 10
821.1793386102693
 20
-397.8737596110052
 30
0.0
 41
1.5
 42
1.5
 43
1.5
 50
90.0
  0
TEXT
  5
342
  8
回07-寸法
  6
CONTINUOUS
 62
     5
 10
820.6793386102686
 20
-409.5737596110051
 30
0.0
 40
4.0
  1
10.7
 50
90.0
1001
ACAD
1000
MTEXTBEGIN
1070
    73
1070
     1
1070
    44
1040
1.0
1070
    74
1070
     0
1000
MTEXTEND
  0
POINT
  5
343
  8
DEFPOINTS
  6
CONTINUOUS
 62
     0
 10
856.6793386102693
 20
-387.1737596110051
 30
0.0
  0
POINT
  5
344
  8
DEFPOINTS
  6
CONTINUOUS
 62
     0
 10
850.1793386102692
 20
-397.8737596110052
 30
0.0
  0
POINT
  5
345
  8
DEFPOINTS
  6
CONTINUOUS
 62
     0
 10
821.1793386102693
 20
-397.8737596110052
 30
0.0
  0
ENDBLK
  5
346
  8
0
 62
     3
  0
BLOCK
  8
0
  2
*D22
 70
     1
 10
0.0
 20
0.0
 30
0.0
  3
*D22
  1

  0
LINE
  5
32E
  8
回07-寸法
  6
CONTINUOUS
 62
     5
 10
850.1793386102686
 20
-247.373759611005
 30
0.0
 11
850.1793386102686
 21
-199.9937596110049
 31
0.0
  0
LINE
  5
32F
  8
回07-寸法
  6
CONTINUOUS
 62
     5
 10
1038.579338610269
 20
-247.3737596110047
 30
0.0
 11
1038.579338610269
 21
-199.9937596110049
 31
0.0
  0
LINE
  5
330
  8
回07-寸法
  6
CONTINUOUS
 62
     5
 10
851.6793386102687
 20
-200.9937596110049
 30
0.0
 11
1037.079338610269
 21
-200.9937596110049
 31
0.0
  0
INSERT
  5
331
  8
回07-寸法
  6
CONTINUOUS
 62
     5
  2
_OPEN
 10
850.1793386102686
 20
-200.9937596110049
 30
0.0
 41
1.5
 42
1.5
 43
1.5
 50
180.0
  0
INSERT
  5
332
  8
回07-寸法
  6
CONTINUOUS
 62
     5
  2
_OPEN
 10
1038.579338610269
 20
-200.9937596110049
 30
0.0
 41
1.5
 42
1.5
 43
1.5
  0
INSERT
  5
333
  8
回07-寸法
  6
CONTINUOUS
 62
     5
 66
     1
  2
*X8585
 10
0.0
 20
0.0
 30
0.0
  0
SEQEND
  5
76E
  8
回04-下接
  6
CONTINUOUS
 62
     3
  0
POINT
  5
334
  8
DEFPOINTS
  6
CONTINUOUS
 62
     0
 10
850.1793386102686
 20
-247.373759611005
 30
0.0
  0
POINT
  5
335
  8
DEFPOINTS
  6
CONTINUOUS
 62
     0
 10
1038.579338610269
 20
-247.3737596110047
 30
0.0
  0
POINT
  5
336
  8
DEFPOINTS
  6
CONTINUOUS
 62
     0
 10
1038.579338610269
 20
-200.9937596110049
 30
0.0
  0
ENDBLK
  5
337
  8
0
 62
     3
  0
BLOCK
  8
0
  2
*D33
 70
     1
 10
0.0
 20
0.0
 30
0.0
  3
*D33
  1

  0
LINE
  5
321
  8
回07-寸法
  6
CONTINUOUS
 62
     5
 10
856.6793386102688
 20
-254.373759611005
 30
0.0
 11
856.6793386102688
 21
-217.9937596110049
 31
0.0
  0
LINE
  5
322
  8
回07-寸法
  6
CONTINUOUS
 62
     5
 10
1032.079338610269
 20
-254.373759611005
 30
0.0
 11
1032.079338610269
 21
-217.9937596110049
 31
0.0
  0
LINE
  5
323
  8
回07-寸法
  6
CONTINUOUS
 62
     5
 10
858.1793386102686
 20
-218.9937596110048
 30
0.0
 11
1030.579338610269
 21
-218.9937596110048
 31
0.0
  0
INSERT
  5
324
  8
回07-寸法
  6
CONTINUOUS
 62
     5
  2
_OPEN
 10
856.6793386102688
 20
-218.9937596110048
 30
0.0
 41
1.5
 42
1.5
 43
1.5
 50
180.0
  0
INSERT
  5
325
  8
回07-寸法
  6
CONTINUOUS
 62
     5
  2
_OPEN
 10
1032.079338610269
 20
-218.9937596110048
 30
0.0
 41
1.5
 42
1.5
 43
1.5
  0
TEXT
  5
326
  8
回07-寸法
  6
CONTINUOUS
 62
     5
 10
921.1801260118434
 20
-217.4212722375896
 30
0.0
 40
4.0
  1
175.4(Viewing area)
1001
ACAD
1000
MTEXTBEGIN
1070
    73
1070
     1
1070
    44
1040
1.0
1070
    74
1070
     0
1000
MTEXTEND
  0
POINT
  5
327
  8
DEFPOINTS
  6
CONTINUOUS
 62
     0
 10
856.6793386102688
 20
-254.373759611005
 30
0.0
  0
POINT
  5
328
  8
DEFPOINTS
  6
CONTINUOUS
 62
     0
 10
1032.079338610269
 20
-254.373759611005
 30
0.0
  0
POINT
  5
329
  8
DEFPOINTS
  6
CONTINUOUS
 62
     0
 10
1032.079338610269
 20
-218.9937596110048
 30
0.0
  0
ENDBLK
  5
32A
  8
0
 62
     3
  0
BLOCK
  8
0
  2
*D44
 70
     1
 10
0.0
 20
0.0
 30
0.0
  3
*D44
  1

  0
LINE
  5
314
  8
回07-寸法
  6
CONTINUOUS
 62
     5
 10
856.1793386102689
 20
-253.873759611005
 30
0.0
 11
856.1793386102689
 21
-208.9937596110049
 31
0.0
  0
LINE
  5
315
  8
回07-寸法
  6
CONTINUOUS
 62
     5
 10
1032.579338610268
 20
-253.873759611005
 30
0.0
 11
1032.579338610268
 21
-208.9937596110049
 31
0.0
  0
LINE
  5
316
  8
回07-寸法
  6
CONTINUOUS
 62
     5
 10
857.6793386102687
 20
-209.9937596110049
 30
0.0
 11
1031.079338610268
 21
-209.9937596110049
 31
0.0
  0
INSERT
  5
317
  8
回07-寸法
  6
CONTINUOUS
 62
     5
  2
_OPEN
 10
856.1793386102689
 20
-209.9937596110049
 30
0.0
 41
1.5
 42
1.5
 43
1.5
 50
180.0
  0
INSERT
  5
318
  8
回07-寸法
  6
CONTINUOUS
 62
     5
  2
_OPEN
 10
1032.579338610268
 20
-209.9937596110049
 30
0.0
 41
1.5
 42
1.5
 43
1.5
  0
TEXT
  5
319
  8
回07-寸法
  6
CONTINUOUS
 62
     5
 10
938.3793386102688
 20
-209.4937596110049
 30
0.0
 40
4.0
  1
176.4
1001
ACAD
1000
MTEXTBEGIN
1070
    73
1070
     1
1070
    44
1040
1.0
1070
    74
1070
     0
1000
MTEXTEND
  0
POINT
  5
31A
  8
DEFPOINTS
  6
CONTINUOUS
 62
     0
 10
856.1793386102689
 20
-253.873759611005
 30
0.0
  0
POINT
  5
31B
  8
DEFPOINTS
  6
CONTINUOUS
 62
     0
 10
1032.579338610268
 20
-253.873759611005
 30
0.0
  0
POINT
  5
31C
  8
DEFPOINTS
  6
CONTINUOUS
 62
     0
 10
1032.579338610268
 20
-209.9937596110049
 30
0.0
  0
ENDBLK
  5
31D
  8
0
 62
     3
  0
BLOCK
  8
0
  2
*D55
 70
     1
 10
0.0
 20
0.0
 30
0.0
  3
*D55
  1

  0
LINE
  5
307
  8
回07-寸法
  6
CONTINUOUS
 62
     5
 10
858.6793386102687
 20
-256.373759611005
 30
0.0
 11
858.6793386102687
 21
-226.9937596110048
 31
0.0
  0
LINE
  5
308
  8
回07-寸法
  6
CONTINUOUS
 62
     5
 10
1030.079338610268
 20
-256.3737596110041
 30
0.0
 11
1030.079338610268
 21
-226.9937596110048
 31
0.0
  0
LINE
  5
309
  8
回07-寸法
  6
CONTINUOUS
 62
     5
 10
860.179338610269
 20
-227.9937596110049
 30
0.0
 11
1028.579338610269
 21
-227.9937596110049
 31
0.0
  0
INSERT
  5
30A
  8
回07-寸法
  6
CONTINUOUS
 62
     5
  2
_OPEN
 10
858.6793386102687
 20
-227.9937596110049
 30
0.0
 41
1.5
 42
1.5
 43
1.5
 50
180.0
  0
INSERT
  5
30B
  8
回07-寸法
  6
CONTINUOUS
 62
     5
  2
_OPEN
 10
1030.079338610268
 20
-227.9937596110049
 30
0.0
 41
1.5
 42
1.5
 43
1.5
  0
TEXT
  5
30C
  8
回07-寸法
  6
CONTINUOUS
 62
     5
 10
922.9801260118435
 20
-227.2937596110049
 30
0.0
 40
4.0
  1
171.4(Active area)
1001
ACAD
1000
MTEXTBEGIN
1070
    73
1070
     1
1070
    44
1040
1.0
1070
    74
1070
     0
1000
MTEXTEND
  0
POINT
  5
30D
  8
DEFPOINTS
  6
CONTINUOUS
 62
     0
 10
858.6793386102687
 20
-256.373759611005
 30
0.0
  0
POINT
  5
30E
  8
DEFPOINTS
  6
CONTINUOUS
 62
     0
 10
1030.079338610268
 20
-256.3737596110041
 30
0.0
  0
POINT
  5
30F
  8
DEFPOINTS
  6
CONTINUOUS
 62
     0
 10
1030.079338610268
 20
-227.9937596110049
 30
0.0
  0
ENDBLK
  5
310
  8
0
 62
     3
  0
BLOCK
  8
0
  2
*D66
 70
     1
 10
0.0
 20
0.0
 30
0.0
  3
*D66
  1

  0
LINE
  5
2FA
  8
回07-寸法
  6
CONTINUOUS
 62
     5
 10
850.1793386102692
 20
-247.3737596110051
 30
0.0
 11
802.1793386102709
 21
-247.3737596110051
 31
0.0
  0
LINE
  5
2FB
  8
回07-寸法
  6
CONTINUOUS
 62
     5
 10
850.1793386102692
 20
-397.8737596110052
 30
0.0
 11
802.1793386102709
 21
-397.8737596110052
 31
0.0
  0
LINE
  5
2FC
  8
回07-寸法
  6
CONTINUOUS
 62
     5
 10
803.1793386102709
 20
-248.8737596110051
 30
0.0
 11
803.1793386102709
 21
-396.3737596110052
 31
0.0
  0
INSERT
  5
2FD
  8
回07-寸法
  6
CONTINUOUS
 62
     5
  2
_OPEN
 10
803.1793386102709
 20
-247.3737596110051
 30
0.0
 41
1.5
 42
1.5
 43
1.5
 50
90.0
  0
INSERT
  5
2FE
  8
回07-寸法
  6
CONTINUOUS
 62
     5
  2
_OPEN
 10
803.1793386102709
 20
-397.8737596110052
 30
0.0
 41
1.5
 42
1.5
 43
1.5
 50
270.0
  0
INSERT
  5
2FF
  8
回07-寸法
  6
CONTINUOUS
 62
     5
 66
     1
  2
*X8686
 10
0.0
 20
0.0
 30
0.0
  0
SEQEND
  5
774
  8
回04-下接
  6
CONTINUOUS
 62
     3
  0
POINT
  5
300
  8
DEFPOINTS
  6
CONTINUOUS
 62
     0
 10
850.1793386102692
 20
-247.3737596110051
 30
0.0
  0
POINT
  5
301
  8
DEFPOINTS
  6
CONTINUOUS
 62
     0
 10
850.1793386102692
 20
-397.8737596110052
 30
0.0
  0
POINT
  5
302
  8
DEFPOINTS
  6
CONTINUOUS
 62
     0
 10
803.1793386102709
 20
-397.8737596110052
 30
0.0
  0
ENDBLK
  5
303
  8
0
 62
     3
  0
BLOCK
  8
0
  2
*D77
 70
     1
 10
0.0
 20
0.0
 30
0.0
  3
*D77
  1

  0
LINE
  5
2ED
  8
回07-寸法
  6
CONTINUOUS
 62
     5
 10
858.6793386102693
 20
-256.3737596110051
 30
0.0
 11
829.1793386102709
 21
-256.3737596110051
 31
0.0
  0
LINE
  5
2EE
  8
回07-寸法
  6
CONTINUOUS
 62
     5
 10
858.6793386102693
 20
-385.1732596110052
 30
0.0
 11
829.1793386102709
 21
-385.1732596110052
 31
0.0
  0
LINE
  5
2EF
  8
回07-寸法
  6
CONTINUOUS
 62
     5
 10
830.179338610271
 20
-257.8737596110051
 30
0.0
 11
830.179338610271
 21
-383.6732596110051
 31
0.0
  0
INSERT
  5
2F0
  8
回07-寸法
  6
CONTINUOUS
 62
     5
  2
_OPEN
 10
830.179338610271
 20
-256.3737596110051
 30
0.0
 41
1.5
 42
1.5
 43
1.5
 50
90.0
  0
INSERT
  5
2F1
  8
回07-寸法
  6
CONTINUOUS
 62
     5
  2
_OPEN
 10
830.179338610271
 20
-385.1732596110052
 30
0.0
 41
1.5
 42
1.5
 43
1.5
 50
270.0
  0
TEXT
  5
2F2
  8
回07-寸法
  6
CONTINUOUS
 62
     5
 10
829.4793386102705
 20
-342.3727222094304
 30
0.0
 40
4.0
  1
128.8(Active area)
 50
90.0
1001
ACAD
1000
MTEXTBEGIN
1070
    73
1070
     1
1070
    44
1040
1.0
1070
    74
1070
     0
1000
MTEXTEND
  0
POINT
  5
2F3
  8
DEFPOINTS
  6
CONTINUOUS
 62
     0
 10
858.6793386102693
 20
-256.3737596110051
 30
0.0
  0
POINT
  5
2F4
  8
DEFPOINTS
  6
CONTINUOUS
 62
     0
 10
858.6793386102693
 20
-385.1732596110052
 30
0.0
  0
POINT
  5
2F5
  8
DEFPOINTS
  6
CONTINUOUS
 62
     0
 10
830.179338610271
 20
-385.1732596110052
 30
0.0
  0
ENDBLK
  5
2F6
  8
0
 62
     3
  0
BLOCK
  8
0
  2
*D88
 70
     1
 10
0.0
 20
0.0
 30
0.0
  3
*D88
  1

  0
LINE
  5
2E0
  8
回07-寸法
  6
CONTINUOUS
 62
     5
 10
856.6793386102693
 20
-254.3737596110051
 30
0.0
 11
820.1793386102709
 21
-254.3737596110051
 31
0.0
  0
LINE
  5
2E1
  8
回07-寸法
  6
CONTINUOUS
 62
     5
 10
856.6793386102693
 20
-387.1737596110051
 30
0.0
 11
820.1793386102709
 21
-387.1737596110051
 31
0.0
  0
LINE
  5
2E2
  8
回07-寸法
  6
CONTINUOUS
 62
     5
 10
821.1793386102709
 20
-255.8737596110051
 30
0.0
 11
821.1793386102709
 21
-385.6737596110051
 31
0.0
  0
INSERT
  5
2E3
  8
回07-寸法
  6
CONTINUOUS
 62
     5
  2
_OPEN
 10
821.1793386102709
 20
-254.3737596110051
 30
0.0
 41
1.5
 42
1.5
 43
1.5
 50
90.0
  0
INSERT
  5
2E4
  8
回07-寸法
  6
CONTINUOUS
 62
     5
  2
_OPEN
 10
821.1793386102709
 20
-387.1737596110051
 30
0.0
 41
1.5
 42
1.5
 43
1.5
 50
270.0
  0
TEXT
  5
2E5
  8
回07-寸法
  6
CONTINUOUS
 62
     5
 10
819.6068512368553
 20
-343.7729722094307
 30
0.0
 40
4.0
  1
132.8(Viewing area)
 50
90.0
1001
ACAD
1000
MTEXTBEGIN
1070
    73
1070
     1
1070
    44
1040
1.0
1070
    74
1070
     0
1000
MTEXTEND
  0
POINT
  5
2E6
  8
DEFPOINTS
  6
CONTINUOUS
 62
     0
 10
856.6793386102693
 20
-254.3737596110051
 30
0.0
  0
POINT
  5
2E7
  8
DEFPOINTS
  6
CONTINUOUS
 62
     0
 10
856.6793386102693
 20
-387.1737596110051
 30
0.0
  0
POINT
  5
2E8
  8
DEFPOINTS
  6
CONTINUOUS
 62
     0
 10
821.1793386102709
 20
-387.1737596110051
 30
0.0
  0
ENDBLK
  5
2E9
  8
0
 62
     3
  0
BLOCK
  8
0
  2
*D99
 70
     1
 10
0.0
 20
0.0
 30
0.0
  3
*D99
  1

  0
LINE
  5
2D3
  8
回07-寸法
  6
CONTINUOUS
 62
     5
 10
856.1793386102692
 20
-253.8737596110051
 30
0.0
 11
811.1793386102709
 21
-253.8737596110051
 31
0.0
  0
LINE
  5
2D4
  8
回07-寸法
  6
CONTINUOUS
 62
     5
 10
856.1793386102692
 20
-387.6737596110051
 30
0.0
 11
811.1793386102709
 21
-387.6737596110051
 31
0.0
  0
LINE
  5
2D5
  8
回07-寸法
  6
CONTINUOUS
 62
     5
 10
812.1793386102709
 20
-255.3737596110051
 30
0.0
 11
812.1793386102709
 21
-386.1737596110052
 31
0.0
  0
INSERT
  5
2D6
  8
回07-寸法
  6
CONTINUOUS
 62
     5
  2
_OPEN
 10
812.1793386102709
 20
-253.8737596110051
 30
0.0
 41
1.5
 42
1.5
 43
1.5
 50
90.0
  0
INSERT
  5
2D7
  8
回07-寸法
  6
CONTINUOUS
 62
     5
  2
_OPEN
 10
812.1793386102709
 20
-387.6737596110051
 30
0.0
 41
1.5
 42
1.5
 43
1.5
 50
270.0
  0
TEXT
  5
2D8
  8
回07-寸法
  6
CONTINUOUS
 62
     5
 10
811.6793386102708
 20
-326.5737596110053
 30
0.0
 40
4.0
  1
133.8
 50
90.0
1001
ACAD
1000
MTEXTBEGIN
1070
    73
1070
     1
1070
    44
1040
1.0
1070
    74
1070
     0
1000
MTEXTEND
  0
POINT
  5
2D9
  8
DEFPOINTS
  6
CONTINUOUS
 62
     0
 10
856.1793386102692
 20
-253.8737596110051
 30
0.0
  0
POINT
  5
2DA
  8
DEFPOINTS
  6
CONTINUOUS
 62
     0
 10
856.1793386102692
 20
-387.6737596110051
 30
0.0
  0
POINT
  5
2DB
  8
DEFPOINTS
  6
CONTINUOUS
 62
     0
 10
812.1793386102709
 20
-387.6737596110051
 30
0.0
  0
ENDBLK
  5
2DC
  8
0
 62
     3
  0
BLOCK
  8
0
  2
*D1010
 70
     1
 10
0.0
 20
0.0
 30
0.0
  3
*D1010
  1

  0
LINE
  5
2C4
  8
回07-寸法
  6
CONTINUOUS
 62
     5
 10
856.1793386102689
 20
-253.873759611005
 30
0.0
 11
856.1793386102689
 21
-208.9937596110049
 31
0.0
  0
LINE
  5
2C5
  8
回07-寸法
  6
CONTINUOUS
 62
     5
 10
850.1793386102686
 20
-247.373759611005
 30
0.0
 11
850.1793386102686
 21
-208.9937596110049
 31
0.0
  0
LINE
  5
2C6
  8
回07-寸法
  6
CONTINUOUS
 62
     5
 10
857.6793386102687
 20
-209.9937596110049
 30
0.0
 11
859.179338610269
 21
-209.9937596110049
 31
0.0
  0
LINE
  5
2C7
  8
回07-寸法
  6
CONTINUOUS
 62
     5
 10
848.6793386102688
 20
-209.9937596110049
 30
0.0
 11
841.8187219995473
 21
-209.9937596110049
 31
0.0
  0
LINE
  5
2C8
  8
回07-寸法
  6
CONTINUOUS
 62
     5
 10
856.1793386102689
 20
-209.9937596110049
 30
0.0
 11
850.1793386102686
 21
-209.9937596110049
 31
0.0
  0
INSERT
  5
2C9
  8
回07-寸法
  6
CONTINUOUS
 62
     5
  2
_OPEN
 10
856.1793386102689
 20
-209.9937596110049
 30
0.0
 41
1.5
 42
1.5
 43
1.5
 50
180.0
  0
INSERT
  5
2CA
  8
回07-寸法
  6
CONTINUOUS
 62
     5
  2
_OPEN
 10
850.1793386102686
 20
-209.9937596110049
 30
0.0
 41
1.5
 42
1.5
 43
1.5
  0
TEXT
  5
2CB
  8
回07-寸法
  6
CONTINUOUS
 62
     5
 10
841.935949580475
 20
-209.4937596110049
 30
0.0
 40
4.0
  1
6
1001
ACAD
1000
MTEXTBEGIN
1070
    73
1070
     1
1070
    44
1040
1.0
1070
    74
1070
     0
1000
MTEXTEND
  0
POINT
  5
2CC
  8
DEFPOINTS
  6
CONTINUOUS
 62
     0
 10
856.1793386102689
 20
-253.873759611005
 30
0.0
  0
POINT
  5
2CD
  8
DEFPOINTS
  6
CONTINUOUS
 62
     0
 10
850.1793386102686
 20
-247.373759611005
 30
0.0
  0
POINT
  5
2CE
  8
DEFPOINTS
  6
CONTINUOUS
 62
     0
 10
850.1793386102686
 20
-209.9937596110049
 30
0.0
  0
ENDBLK
  5
2CF
  8
0
 62
     3
  0
BLOCK
  8
0
  2
*D1111
 70
     1
 10
0.0
 20
0.0
 30
0.0
  3
*D1111
  1

  0
LINE
  5
2B5
  8
回07-寸法
  6
CONTINUOUS
 62
     5
 10
1032.579338610268
 20
-253.873759611005
 30
0.0
 11
1032.579338610268
 21
-208.9937596110049
 31
0.0
  0
LINE
  5
2B6
  8
回07-寸法
  6
CONTINUOUS
 62
     5
 10
1038.579338610269
 20
-247.3737596110047
 30
0.0
 11
1038.579338610269
 21
-208.9937596110049
 31
0.0
  0
LINE
  5
2B7
  8
回07-寸法
  6
CONTINUOUS
 62
     5
 10
1031.079338610268
 20
-209.9937596110049
 30
0.0
 11
1029.579338610268
 21
-209.9937596110049
 31
0.0
  0
LINE
  5
2B8
  8
回07-寸法
  6
CONTINUOUS
 62
     5
 10
1040.079338610269
 20
-209.9937596110049
 30
0.0
 11
1047.376189003969
 21
-209.9937596110049
 31
0.0
  0
LINE
  5
2B9
  8
回07-寸法
  6
CONTINUOUS
 62
     5
 10
1032.579338610268
 20
-209.9937596110049
 30
0.0
 11
1038.579338610269
 21
-209.9937596110049
 31
0.0
  0
INSERT
  5
2BA
  8
回07-寸法
  6
CONTINUOUS
 62
     5
  2
_OPEN
 10
1032.579338610268
 20
-209.9937596110049
 30
0.0
 41
1.5
 42
1.5
 43
1.5
  0
INSERT
  5
2BB
  8
回07-寸法
  6
CONTINUOUS
 62
     5
  2
_OPEN
 10
1038.579338610269
 20
-209.9937596110049
 30
0.0
 41
1.5
 42
1.5
 43
1.5
 50
180.0
  0
TEXT
  5
2BC
  8
回07-寸法
  6
CONTINUOUS
 62
     5
 10
1041.477763807119
 20
-209.2937596110048
 30
0.0
 40
4.0
  1
(6)
1001
ACAD
1000
MTEXTBEGIN
1070
    73
1070
     1
1070
    44
1040
1.0
1070
    74
1070
     0
1000
MTEXTEND
  0
POINT
  5
2BD
  8
DEFPOINTS
  6
CONTINUOUS
 62
     0
 10
1032.579338610268
 20
-253.873759611005
 30
0.0
  0
POINT
  5
2BE
  8
DEFPOINTS
  6
CONTINUOUS
 62
     0
 10
1038.579338610269
 20
-247.3737596110047
 30
0.0
  0
POINT
  5
2BF
  8
DEFPOINTS
  6
CONTINUOUS
 62
     0
 10
1038.579338610269
 20
-209.9937596110049
 30
0.0
  0
ENDBLK
  5
2C0
  8
0
 62
     3
  0
BLOCK
  8
0
  2
*D1212
 70
     1
 10
0.0
 20
0.0
 30
0.0
  3
*D1212
  1

  0
LINE
  5
2A6
  8
回07-寸法
  6
CONTINUOUS
 62
     5
 10
858.6793386102687
 20
-256.3737596110059
 30
0.0
 11
858.6793386102687
 21
-226.9937596110048
 31
0.0
  0
LINE
  5
2A7
  8
回07-寸法
  6
CONTINUOUS
 62
     5
 10
850.1793386102686
 20
-247.373759611005
 30
0.0
 11
850.1793386102686
 21
-226.9937596110048
 31
0.0
  0
LINE
  5
2A8
  8
回07-寸法
  6
CONTINUOUS
 62
     5
 10
860.179338610269
 20
-227.9937596110049
 30
0.0
 11
861.6793386102687
 21
-227.9937596110049
 31
0.0
  0
LINE
  5
2A9
  8
回07-寸法
  6
CONTINUOUS
 62
     5
 10
848.6793386102688
 20
-227.9937596110049
 30
0.0
 11
839.0136531853196
 21
-227.9937596110049
 31
0.0
  0
LINE
  5
2AA
  8
回07-寸法
  6
CONTINUOUS
 62
     5
 10
858.6793386102687
 20
-227.9937596110049
 30
0.0
 11
850.1793386102686
 21
-227.9937596110049
 31
0.0
  0
INSERT
  5
2AB
  8
回07-寸法
  6
CONTINUOUS
 62
     5
  2
_OPEN
 10
858.6793386102687
 20
-227.9937596110049
 30
0.0
 41
1.5
 42
1.5
 43
1.5
 50
180.0
  0
INSERT
  5
2AC
  8
回07-寸法
  6
CONTINUOUS
 62
     5
  2
_OPEN
 10
850.1793386102686
 20
-227.9937596110049
 30
0.0
 41
1.5
 42
1.5
 43
1.5
  0
TEXT
  5
2AD
  8
回07-寸法
  6
CONTINUOUS
 62
     5
 10
838.9964958977941
 20
-227.4937596110049
 30
0.0
 40
4.0
  1
8.5
1001
ACAD
1000
MTEXTBEGIN
1070
    73
1070
     1
1070
    44
1040
1.0
1070
    74
1070
     0
1000
MTEXTEND
  0
POINT
  5
2AE
  8
DEFPOINTS
  6
CONTINUOUS
 62
     0
 10
858.6793386102687
 20
-256.3737596110059
 30
0.0
  0
POINT
  5
2AF
  8
DEFPOINTS
  6
CONTINUOUS
 62
     0
 10
850.1793386102686
 20
-247.373759611005
 30
0.0
  0
POINT
  5
2B0
  8
DEFPOINTS
  6
CONTINUOUS
 62
     0
 10
850.1793386102686
 20
-227.9937596110049
 30
0.0
  0
ENDBLK
  5
2B1
  8
0
 62
     3
  0
BLOCK
  8
0
  2
*D1313
 70
     1
 10
0.0
 20
0.0
 30
0.0
  3
*D1313
  1

  0
LINE
  5
297
  8
回07-寸法
  6
CONTINUOUS
 62
     5
 10
856.6793386102688
 20
-254.373759611005
 30
0.0
 11
856.6793386102688
 21
-217.9937596110049
 31
0.0
  0
LINE
  5
298
  8
回07-寸法
  6
CONTINUOUS
 62
     5
 10
850.1793386102686
 20
-247.373759611005
 30
0.0
 11
850.1793386102686
 21
-217.9937596110049
 31
0.0
  0
LINE
  5
299
  8
回07-寸法
  6
CONTINUOUS
 62
     5
 10
858.1793386102686
 20
-218.9937596110048
 30
0.0
 11
859.6793386102687
 21
-218.9937596110048
 31
0.0
  0
LINE
  5
29A
  8
回07-寸法
  6
CONTINUOUS
 62
     5
 10
848.6793386102688
 20
-218.9937596110048
 30
0.0
 11
840.1742831065796
 21
-218.9937596110048
 31
0.0
  0
LINE
  5
29B
  8
回07-寸法
  6
CONTINUOUS
 62
     5
 10
856.6793386102688
 20
-218.9937596110048
 30
0.0
 11
850.1793386102686
 21
-218.9937596110048
 31
0.0
  0
INSERT
  5
29C
  8
回07-寸法
  6
CONTINUOUS
 62
     5
  2
_OPEN
 10
856.6793386102688
 20
-218.9937596110048
 30
0.0
 41
1.5
 42
1.5
 43
1.5
 50
180.0
  0
INSERT
  5
29D
  8
回07-寸法
  6
CONTINUOUS
 62
     5
  2
_OPEN
 10
850.1793386102686
 20
-218.9937596110048
 30
0.0
 41
1.5
 42
1.5
 43
1.5
  0
TEXT
  5
29E
  8
回07-寸法
  6
CONTINUOUS
 62
     5
 10
840.2768108584242
 20
-218.4937596110049
 30
0.0
 40
4.0
  1
6.5
1001
ACAD
1000
MTEXTBEGIN
1070
    73
1070
     1
1070
    44
1040
1.0
1070
    74
1070
     0
1000
MTEXTEND
  0
POINT
  5
29F
  8
DEFPOINTS
  6
CONTINUOUS
 62
     0
 10
856.6793386102688
 20
-254.373759611005
 30
0.0
  0
POINT
  5
2A0
  8
DEFPOINTS
  6
CONTINUOUS
 62
     0
 10
850.1793386102686
 20
-247.373759611005
 30
0.0
  0
POINT
  5
2A1
  8
DEFPOINTS
  6
CONTINUOUS
 62
     0
 10
850.1793386102686
 20
-218.9937596110048
 30
0.0
  0
ENDBLK
  5
2A2
  8
0
 62
     3
  0
BLOCK
  8
0
  2
*D1414
 70
     1
 10
0.0
 20
0.0
 30
0.0
  3
*D1414
  1

  0
LINE
  5
288
  8
回07-寸法
  6
CONTINUOUS
 62
     5
 10
1030.079338610269
 20
-256.373759611005
 30
0.0
 11
1030.079338610269
 21
-226.9937596110048
 31
0.0
  0
LINE
  5
289
  8
回07-寸法
  6
CONTINUOUS
 62
     5
 10
1038.579338610269
 20
-247.3737596110047
 30
0.0
 11
1038.579338610269
 21
-226.9937596110048
 31
0.0
  0
LINE
  5
28A
  8
回07-寸法
  6
CONTINUOUS
 62
     5
 10
1028.579338610269
 20
-227.9937596110049
 30
0.0
 11
1027.079338610269
 21
-227.9937596110049
 31
0.0
  0
LINE
  5
28B
  8
回07-寸法
  6
CONTINUOUS
 62
     5
 10
1040.079338610269
 20
-227.9937596110049
 30
0.0
 11
1051.376189003969
 21
-227.9937596110049
 31
0.0
  0
LINE
  5
28C
  8
回07-寸法
  6
CONTINUOUS
 62
     5
 10
1030.079338610269
 20
-227.9937596110049
 30
0.0
 11
1038.579338610269
 21
-227.9937596110049
 31
0.0
  0
INSERT
  5
28D
  8
回07-寸法
  6
CONTINUOUS
 62
     5
  2
_OPEN
 10
1030.079338610269
 20
-227.9937596110049
 30
0.0
 41
1.5
 42
1.5
 43
1.5
  0
INSERT
  5
28E
  8
回07-寸法
  6
CONTINUOUS
 62
     5
  2
_OPEN
 10
1038.579338610269
 20
-227.9937596110049
 30
0.0
 41
1.5
 42
1.5
 43
1.5
 50
180.0
  0
TEXT
  5
28F
  8
回07-寸法
  6
CONTINUOUS
 62
     5
 10
1041.477763807119
 20
-227.2937596110049
 30
0.0
 40
4.0
  1
(8.5)
1001
ACAD
1000
MTEXTBEGIN
1070
    73
1070
     1
1070
    44
1040
1.0
1070
    74
1070
     0
1000
MTEXTEND
  0
POINT
  5
290
  8
DEFPOINTS
  6
CONTINUOUS
 62
     0
 10
1030.079338610269
 20
-256.373759611005
 30
0.0
  0
POINT
  5
291
  8
DEFPOINTS
  6
CONTINUOUS
 62
     0
 10
1038.579338610269
 20
-247.3737596110047
 30
0.0
  0
POINT
  5
292
  8
DEFPOINTS
  6
CONTINUOUS
 62
     0
 10
1038.579338610269
 20
-227.9937596110049
 30
0.0
  0
ENDBLK
  5
293
  8
0
 62
     3
  0
BLOCK
  8
0
  2
*D1515
 70
     1
 10
0.0
 20
0.0
 30
0.0
  3
*D1515
  1

  0
LINE
  5
279
  8
回07-寸法
  6
CONTINUOUS
 62
     5
 10
1032.079338610269
 20
-254.373759611005
 30
0.0
 11
1032.079338610269
 21
-217.9937596110049
 31
0.0
  0
LINE
  5
27A
  8
回07-寸法
  6
CONTINUOUS
 62
     5
 10
1038.579338610269
 20
-247.3737596110047
 30
0.0
 11
1038.579338610269
 21
-217.9937596110049
 31
0.0
  0
LINE
  5
27B
  8
回07-寸法
  6
CONTINUOUS
 62
     5
 10
1030.579338610269
 20
-218.9937596110048
 30
0.0
 11
1029.079338610269
 21
-218.9937596110048
 31
0.0
  0
LINE
  5
27C
  8
回07-寸法
  6
CONTINUOUS
 62
     5
 10
1040.079338610269
 20
-218.9937596110048
 30
0.0
 11
1051.376189003969
 21
-218.9937596110048
 31
0.0
  0
LINE
  5
27D
  8
回07-寸法
  6
CONTINUOUS
 62
     5
 10
1032.079338610269
 20
-218.9937596110048
 30
0.0
 11
1038.579338610269
 21
-218.9937596110048
 31
0.0
  0
INSERT
  5
27E
  8
回07-寸法
  6
CONTINUOUS
 62
     5
  2
_OPEN
 10
1032.079338610269
 20
-218.9937596110048
 30
0.0
 41
1.5
 42
1.5
 43
1.5
  0
INSERT
  5
27F
  8
回07-寸法
  6
CONTINUOUS
 62
     5
  2
_OPEN
 10
1038.579338610269
 20
-218.9937596110048
 30
0.0
 41
1.5
 42
1.5
 43
1.5
 50
180.0
  0
TEXT
  5
280
  8
回07-寸法
  6
CONTINUOUS
 62
     5
 10
1041.477763807119
 20
-218.2937596110048
 30
0.0
 40
4.0
  1
(6.5)
1001
ACAD
1000
MTEXTBEGIN
1070
    73
1070
     1
1070
    44
1040
1.0
1070
    74
1070
     0
1000
MTEXTEND
  0
POINT
  5
281
  8
DEFPOINTS
  6
CONTINUOUS
 62
     0
 10
1032.079338610269
 20
-254.373759611005
 30
0.0
  0
POINT
  5
282
  8
DEFPOINTS
  6
CONTINUOUS
 62
     0
 10
1038.579338610269
 20
-247.3737596110047
 30
0.0
  0
POINT
  5
283
  8
DEFPOINTS
  6
CONTINUOUS
 62
     0
 10
1038.579338610269
 20
-218.9937596110048
 30
0.0
  0
ENDBLK
  5
284
  8
0
 62
     3
  0
BLOCK
  8
0
  2
*D1616
 70
     1
 10
0.0
 20
0.0
 30
0.0
  3
*D1616
  1

  0
LINE
  5
26A
  8
回07-寸法
  6
CONTINUOUS
 62
     5
 10
856.1793386102692
 20
-387.6737596110051
 30
0.0
 11
811.17933861027
 21
-387.6737596110051
 31
0.0
  0
LINE
  5
26B
  8
回07-寸法
  6
CONTINUOUS
 62
     5
 10
850.1793386102692
 20
-397.8737596110052
 30
0.0
 11
811.17933861027
 21
-397.8737596110052
 31
0.0
  0
LINE
  5
26C
  8
回07-寸法
  6
CONTINUOUS
 62
     5
 10
812.17933861027
 20
-386.1737596110052
 30
0.0
 11
812.17933861027
 21
-384.6737596110052
 31
0.0
  0
LINE
  5
26D
  8
回07-寸法
  6
CONTINUOUS
 62
     5
 10
812.17933861027
 20
-399.3737596110052
 30
0.0
 11
812.17933861027
 21
-410.043238294831
 31
0.0
  0
LINE
  5
26E
  8
回07-寸法
  6
CONTINUOUS
 62
     5
 10
812.17933861027
 20
-387.6737596110051
 30
0.0
 11
812.17933861027
 21
-397.8737596110052
 31
0.0
  0
INSERT
  5
26F
  8
回07-寸法
  6
CONTINUOUS
 62
     5
  2
_OPEN
 10
812.17933861027
 20
-387.6737596110051
 30
0.0
 41
1.5
 42
1.5
 43
1.5
 50
270.0
  0
INSERT
  5
270
  8
回07-寸法
  6
CONTINUOUS
 62
     5
  2
_OPEN
 10
812.17933861027
 20
-397.8737596110052
 30
0.0
 41
1.5
 42
1.5
 43
1.5
 50
90.0
  0
TEXT
  5
271
  8
回07-寸法
  6
CONTINUOUS
 62
     5
 10
811.6789449094822
 20
-410.0235624317151
 30
0.0
 40
4.0
  1
10.2
 50
90.0
1001
ACAD
1000
MTEXTBEGIN
1070
    73
1070
     1
1070
    44
1040
1.0
1070
    74
1070
     0
1000
MTEXTEND
  0
POINT
  5
272
  8
DEFPOINTS
  6
CONTINUOUS
 62
     0
 10
856.1793386102692
 20
-387.6737596110051
 30
0.0
  0
POINT
  5
273
  8
DEFPOINTS
  6
CONTINUOUS
 62
     0
 10
850.1793386102692
 20
-397.8737596110052
 30
0.0
  0
POINT
  5
274
  8
DEFPOINTS
  6
CONTINUOUS
 62
     0
 10
812.17933861027
 20
-397.8737596110052
 30
0.0
  0
ENDBLK
  5
275
  8
0
 62
     3
  0
BLOCK
  8
0
  2
*D1717
 70
     1
 10
0.0
 20
0.0
 30
0.0
  3
*D1717
  1

  0
LINE
  5
25B
  8
回07-寸法
  6
CONTINUOUS
 62
     5
 10
858.6793386102693
 20
-385.1732596110052
 30
0.0
 11
829.1793386102693
 21
-385.1732596110052
 31
0.0
  0
LINE
  5
25C
  8
回07-寸法
  6
CONTINUOUS
 62
     5
 10
850.1793386102692
 20
-397.8737596110052
 30
0.0
 11
829.1793386102693
 21
-397.8737596110052
 31
0.0
  0
LINE
  5
25D
  8
回07-寸法
  6
CONTINUOUS
 62
     5
 10
830.1793386102692
 20
-383.6732596110051
 30
0.0
 11
830.1793386102692
 21
-382.1732596110051
 31
0.0
  0
LINE
  5
25E
  8
回07-寸法
  6
CONTINUOUS
 62
     5
 10
830.1793386102692
 20
-399.3737596110052
 30
0.0
 11
830.1793386102692
 21
-409.4737596110051
 31
0.0
  0
LINE
  5
25F
  8
回07-寸法
  6
CONTINUOUS
 62
     5
 10
830.1793386102692
 20
-385.1732596110052
 30
0.0
 11
830.1793386102692
 21
-397.8737596110052
 31
0.0
  0
INSERT
  5
260
  8
回07-寸法
  6
CONTINUOUS
 62
     5
  2
_OPEN
 10
830.1793386102692
 20
-385.1732596110052
 30
0.0
 41
1.5
 42
1.5
 43
1.5
 50
270.0
  0
INSERT
  5
261
  8
回07-寸法
  6
CONTINUOUS
 62
     5
  2
_OPEN
 10
830.1793386102692
 20
-397.8737596110052
 30
0.0
 41
1.5
 42
1.5
 43
1.5
 50
90.0
  0
TEXT
  5
262
  8
回07-寸法
  6
CONTINUOUS
 62
     5
 10
829.6789449094815
 20
-409.5737596110053
 30
0.0
 40
4.0
  1
12.7
 50
90.0
1001
ACAD
1000
MTEXTBEGIN
1070
    73
1070
     1
1070
    44
1040
1.0
1070
    74
1070
     0
1000
MTEXTEND
  0
POINT
  5
263
  8
DEFPOINTS
  6
CONTINUOUS
 62
     0
 10
858.6793386102693
 20
-385.1732596110052
 30
0.0
  0
POINT
  5
264
  8
DEFPOINTS
  6
CONTINUOUS
 62
     0
 10
850.1793386102692
 20
-397.8737596110052
 30
0.0
  0
POINT
  5
265
  8
DEFPOINTS
  6
CONTINUOUS
 62
     0
 10
830.1793386102692
 20
-397.8737596110052
 30
0.0
  0
ENDBLK
  5
266
  8
0
 62
     3
  0
BLOCK
  8
0
  2
*D1818
 70
     1
 10
0.0
 20
0.0
 30
0.0
  3
*D1818
  1

  0
LINE
  5
24C
  8
回07-寸法
  6
CONTINUOUS
 62
     5
 10
856.1793386102692
 20
-253.8737596110051
 30
0.0
 11
811.1793386102718
 21
-253.8737596110051
 31
0.0
  0
LINE
  5
24D
  8
回07-寸法
  6
CONTINUOUS
 62
     5
 10
850.1793386102692
 20
-247.3737596110051
 30
0.0
 11
811.1793386102718
 21
-247.3737596110051
 31
0.0
  0
LINE
  5
24E
  8
回07-寸法
  6
CONTINUOUS
 62
     5
 10
812.1793386102719
 20
-255.3737596110051
 30
0.0
 11
812.1793386102719
 21
-256.8737596110051
 31
0.0
  0
LINE
  5
24F
  8
回07-寸法
  6
CONTINUOUS
 62
     5
 10
812.1793386102719
 20
-245.8737596110051
 30
0.0
 11
812.1793386102719
 21
-234.5769092173043
 31
0.0
  0
LINE
  5
250
  8
回07-寸法
  6
CONTINUOUS
 62
     5
 10
812.1793386102719
 20
-253.8737596110051
 30
0.0
 11
812.1793386102719
 21
-247.3737596110051
 31
0.0
  0
INSERT
  5
251
  8
回07-寸法
  6
CONTINUOUS
 62
     5
  2
_OPEN
 10
812.1793386102719
 20
-253.8737596110051
 30
0.0
 41
1.5
 42
1.5
 43
1.5
 50
90.0
  0
INSERT
  5
252
  8
回07-寸法
  6
CONTINUOUS
 62
     5
  2
_OPEN
 10
812.1793386102719
 20
-247.3737596110051
 30
0.0
 41
1.5
 42
1.5
 43
1.5
 50
270.0
  0
TEXT
  5
253
  8
回07-寸法
  6
CONTINUOUS
 62
     5
 10
811.4793386102713
 20
-244.4753344141549
 30
0.0
 40
4.0
  1
(6.5)
 50
90.0
1001
ACAD
1000
MTEXTBEGIN
1070
    73
1070
     1
1070
    44
1040
1.0
1070
    74
1070
     0
1000
MTEXTEND
  0
POINT
  5
254
  8
DEFPOINTS
  6
CONTINUOUS
 62
     0
 10
856.1793386102692
 20
-253.8737596110051
 30
0.0
  0
POINT
  5
255
  8
DEFPOINTS
  6
CONTINUOUS
 62
     0
 10
850.1793386102692
 20
-247.3737596110051
 30
0.0
  0
POINT
  5
256
  8
DEFPOINTS
  6
CONTINUOUS
 62
     0
 10
812.1793386102719
 20
-247.3737596110051
 30
0.0
  0
ENDBLK
  5
257
  8
0
 62
     3
  0
BLOCK
  8
0
  2
*D1919
 70
     1
 10
0.0
 20
0.0
 30
0.0
  3
*D1919
  1

  0
LINE
  5
23D
  8
回07-寸法
  6
CONTINUOUS
 62
     5
 10
856.6793386102693
 20
-254.3737596110051
 30
0.0
 11
820.1793386102693
 21
-254.3737596110051
 31
0.0
  0
LINE
  5
23E
  8
回07-寸法
  6
CONTINUOUS
 62
     5
 10
850.1793386102692
 20
-247.3737596110051
 30
0.0
 11
820.1793386102693
 21
-247.3737596110051
 31
0.0
  0
LINE
  5
23F
  8
回07-寸法
  6
CONTINUOUS
 62
     5
 10
821.1793386102693
 20
-255.8737596110051
 30
0.0
 11
821.1793386102693
 21
-257.3737596110051
 31
0.0
  0
LINE
  5
240
  8
回07-寸法
  6
CONTINUOUS
 62
     5
 10
821.1793386102693
 20
-245.8737596110051
 30
0.0
 11
821.1793386102693
 21
-238.5769092173038
 31
0.0
  0
LINE
  5
241
  8
回07-寸法
  6
CONTINUOUS
 62
     5
 10
821.1793386102693
 20
-254.3737596110051
 30
0.0
 11
821.1793386102693
 21
-247.3737596110051
 31
0.0
  0
INSERT
  5
242
  8
回07-寸法
  6
CONTINUOUS
 62
     5
  2
_OPEN
 10
821.1793386102693
 20
-254.3737596110051
 30
0.0
 41
1.5
 42
1.5
 43
1.5
 50
90.0
  0
INSERT
  5
243
  8
回07-寸法
  6
CONTINUOUS
 62
     5
  2
_OPEN
 10
821.1793386102693
 20
-247.3737596110051
 30
0.0
 41
1.5
 42
1.5
 43
1.5
 50
270.0
  0
TEXT
  5
244
  8
回07-寸法
  6
CONTINUOUS
 62
     5
 10
820.4793386102689
 20
-244.4753344141543
 30
0.0
 40
4.0
  1
(7)
 50
90.0
1001
ACAD
1000
MTEXTBEGIN
1070
    73
1070
     1
1070
    44
1040
1.0
1070
    74
1070
     0
1000
MTEXTEND
  0
POINT
  5
245
  8
DEFPOINTS
  6
CONTINUOUS
 62
     0
 10
856.6793386102693
 20
-254.3737596110051
 30
0.0
  0
POINT
  5
246
  8
DEFPOINTS
  6
CONTINUOUS
 62
     0
 10
850.1793386102692
 20
-247.3737596110051
 30
0.0
  0
POINT
  5
247
  8
DEFPOINTS
  6
CONTINUOUS
 62
     0
 10
821.1793386102693
 20
-247.3737596110051
 30
0.0
  0
ENDBLK
  5
248
  8
0
 62
     3
  0
BLOCK
  8
0
  2
*D2020
 70
     1
 10
0.0
 20
0.0
 30
0.0
  3
*D2020
  1

  0
LINE
  5
22E
  8
回07-寸法
  6
CONTINUOUS
 62
     5
 10
858.6793386102693
 20
-256.3737596110051
 30
0.0
 11
829.1793386102693
 21
-256.3737596110051
 31
0.0
  0
LINE
  5
22F
  8
回07-寸法
  6
CONTINUOUS
 62
     5
 10
850.1793386102692
 20
-247.3737596110051
 30
0.0
 11
829.1793386102693
 21
-247.3737596110051
 31
0.0
  0
LINE
  5
230
  8
回07-寸法
  6
CONTINUOUS
 62
     5
 10
830.1793386102692
 20
-257.8737596110051
 30
0.0
 11
830.1793386102692
 21
-259.3737596110051
 31
0.0
  0
LINE
  5
231
  8
回07-寸法
  6
CONTINUOUS
 62
     5
 10
830.1793386102692
 20
-245.8737596110051
 30
0.0
 11
830.1793386102692
 21
-235.1629318953268
 31
0.0
  0
LINE
  5
232
  8
回07-寸法
  6
CONTINUOUS
 62
     5
 10
830.1793386102692
 20
-256.3737596110051
 30
0.0
 11
830.1793386102692
 21
-247.3737596110051
 31
0.0
  0
INSERT
  5
233
  8
回07-寸法
  6
CONTINUOUS
 62
     5
  2
_OPEN
 10
830.1793386102692
 20
-256.3737596110051
 30
0.0
 41
1.5
 42
1.5
 43
1.5
 50
90.0
  0
INSERT
  5
234
  8
回07-寸法
  6
CONTINUOUS
 62
     5
  2
_OPEN
 10
830.1793386102692
 20
-247.3737596110051
 30
0.0
 41
1.5
 42
1.5
 43
1.5
 50
270.0
  0
TEXT
  5
235
  8
回07-寸法
  6
CONTINUOUS
 62
     5
 10
829.4794184850722
 20
-241.0755664902198
 30
0.0
 40
4.0
  1
(9)
 50
90.0
1001
ACAD
1000
MTEXTBEGIN
1070
    73
1070
     1
1070
    44
1040
1.0
1070
    74
1070
     0
1000
MTEXTEND
  0
POINT
  5
236
  8
DEFPOINTS
  6
CONTINUOUS
 62
     0
 10
858.6793386102693
 20
-256.3737596110051
 30
0.0
  0
POINT
  5
237
  8
DEFPOINTS
  6
CONTINUOUS
 62
     0
 10
850.1793386102692
 20
-247.3737596110051
 30
0.0
  0
POINT
  5
238
  8
DEFPOINTS
  6
CONTINUOUS
 62
     0
 10
830.1793386102692
 20
-247.3737596110051
 30
0.0
  0
ENDBLK
  5
239
  8
0
 62
     3
  0
BLOCK
  8
0
  2
*D2121
 70
     1
 10
0.0
 20
0.0
 30
0.0
  3
*D2121
  1

  0
LINE
  5
1B3
  8
回07-寸法
  6
CONTINUOUS
 62
     5
 10
1102.171278215893
 20
-467.8737837964118
 30
0.0
 11
1093.305560234266
 21
-467.8737837964118
 31
0.0
  0
LINE
  5
1B4
  8
回07-寸法
  6
CONTINUOUS
 62
     5
 10
1101.471278215893
 20
-462.8737837964118
 30
0.0
 11
1093.305560234266
 21
-462.8737837964118
 31
0.0
  0
LINE
  5
1B5
  8
回07-寸法
  6
CONTINUOUS
 62
     5
 10
1094.305560234265
 20
-466.3737837964118
 30
0.0
 11
1094.305560234265
 21
-464.3737837964118
 31
0.0
  0
INSERT
  5
1B6
  8
回07-寸法
  6
CONTINUOUS
 62
     5
 66
     1
  2
_OPEN
 10
1094.305560234265
 20
-467.8737837964118
 30
0.0
 41
1.5
 42
1.5
 43
1.5
 50
270.0
  0
SEQEND
  5
1B7
  8
回04-下接
  6
CONTINUOUS
 62
     3
  0
INSERT
  5
1B8
  8
回07-寸法
  6
CONTINUOUS
 62
     5
 66
     1
  2
_OPEN
 10
1094.305560234265
 20
-462.8737837964118
 30
0.0
 41
1.5
 42
1.5
 43
1.5
 50
90.0
  0
SEQEND
  5
1B9
  8
回04-下接
  6
CONTINUOUS
 62
     3
  0
TEXT
  5
1BA
  8
回07-寸法
  6
CONTINUOUS
 62
     5
 10
1093.805560234265
 20
-466.7737837964118
 30
0.0
 40
4.0
  1
5
 50
90.0
1001
ACAD
1000
MTEXTBEGIN
1070
    73
1070
     1
1070
    44
1040
1.0
1070
    74
1070
     0
1000
MTEXTEND
  0
POINT
  5
1BB
  8
DEFPOINTS
  6
CONTINUOUS
 62
     0
 10
1102.171278215893
 20
-467.8737837964118
 30
0.0
  0
POINT
  5
1BC
  8
DEFPOINTS
  6
CONTINUOUS
 62
     0
 10
1101.471278215893
 20
-462.8737837964118
 30
0.0
  0
POINT
  5
1BD
  8
DEFPOINTS
  6
CONTINUOUS
 62
     0
 10
1094.305560234265
 20
-462.8737837964118
 30
0.0
  0
ENDBLK
  5
1BE
  8
0
 62
     3
  0
BLOCK
  8
0
  2
*D2222
 70
     1
 10
0.0
 20
0.0
 30
0.0
  3
*D2222
  1

  0
LINE
  5
1A4
  8
回07-寸法
  6
CONTINUOUS
 62
     5
 10
1112.064462434864
 20
-467.8737837964118
 30
0.0
 11
1122.18010102555
 21
-467.8737837964118
 31
0.0
  0
LINE
  5
1A5
  8
回07-寸法
  6
CONTINUOUS
 62
     5
 10
1112.764462434864
 20
-462.8737837964118
 30
0.0
 11
1122.18010102555
 21
-462.8737837964118
 31
0.0
  0
LINE
  5
1A6
  8
回07-寸法
  6
CONTINUOUS
 62
     5
 10
1121.180101025551
 20
-466.3737837964118
 30
0.0
 11
1121.180101025551
 21
-464.3737837964118
 31
0.0
  0
INSERT
  5
1A7
  8
回07-寸法
  6
CONTINUOUS
 62
     5
 66
     1
  2
_OPEN
 10
1121.180101025551
 20
-467.8737837964118
 30
0.0
 41
1.5
 42
1.5
 43
1.5
 50
270.0
  0
SEQEND
  5
1A8
  8
回04-下接
  6
CONTINUOUS
 62
     3
  0
INSERT
  5
1A9
  8
回07-寸法
  6
CONTINUOUS
 62
     5
 66
     1
  2
_OPEN
 10
1121.180101025551
 20
-462.8737837964118
 30
0.0
 41
1.5
 42
1.5
 43
1.5
 50
90.0
  0
SEQEND
  5
1AA
  8
回04-下接
  6
CONTINUOUS
 62
     3
  0
TEXT
  5
1AB
  8
回07-寸法
  6
CONTINUOUS
 62
     5
 10
1120.68010102555
 20
-466.7737837964118
 30
0.0
 40
4.0
  1
5
 50
90.0
1001
ACAD
1000
MTEXTBEGIN
1070
    73
1070
     1
1070
    44
1040
1.0
1070
    74
1070
     0
1000
MTEXTEND
  0
POINT
  5
1AC
  8
DEFPOINTS
  6
CONTINUOUS
 62
     0
 10
1112.064462434864
 20
-467.8737837964118
 30
0.0
  0
POINT
  5
1AD
  8
DEFPOINTS
  6
CONTINUOUS
 62
     0
 10
1112.764462434864
 20
-462.8737837964118
 30
0.0
  0
POINT
  5
1AE
  8
DEFPOINTS
  6
CONTINUOUS
 62
     0
 10
1121.180101025551
 20
-462.8737837964118
 30
0.0
  0
ENDBLK
  5
1AF
  8
0
 62
     3
  0
BLOCK
  8
0
  2
*D2323
 70
     1
 10
0.0
 20
0.0
 30
0.0
  3
*D2323
  1

  0
LINE
  5
193
  8
回07-寸法
  6
CONTINUOUS
 62
     5
 10
1109.564462434863
 20
-467.8737837964114
 30
0.0
 11
1109.564462434863
 21
-485.6014086941382
 31
0.0
  0
LINE
  5
194
  8
回07-寸法
  6
CONTINUOUS
 62
     5
 10
1112.064462434863
 20
-467.8737837964114
 30
0.0
 11
1112.064462434863
 21
-485.6014086941382
 31
0.0
  0
LINE
  5
195
  8
回07-寸法
  6
CONTINUOUS
 62
     5
 10
1108.064462434863
 20
-484.6014086941381
 30
0.0
 11
1106.564462434863
 21
-484.6014086941381
 31
0.0
  0
LINE
  5
196
  8
回07-寸法
  6
CONTINUOUS
 62
     5
 10
1113.564462434863
 20
-484.6014086941381
 30
0.0
 11
1130.244775543413
 21
-484.6014086941381
 31
0.0
  0
LINE
  5
197
  8
回07-寸法
  6
CONTINUOUS
 62
     5
 10
1109.564462434863
 20
-484.6014086941381
 30
0.0
 11
1112.064462434863
 21
-484.6014086941381
 31
0.0
  0
INSERT
  5
198
  8
回07-寸法
  6
CONTINUOUS
 62
     5
 66
     1
  2
_OPEN
 10
1109.564462434863
 20
-484.6014086941381
 30
0.0
 41
1.5
 42
1.5
 43
1.5
  0
SEQEND
  5
199
  8
回04-下接
  6
CONTINUOUS
 62
     3
  0
INSERT
  5
19A
  8
回07-寸法
  6
CONTINUOUS
 62
     5
 66
     1
  2
_OPEN
 10
1112.064462434863
 20
-484.6014086941381
 30
0.0
 41
1.5
 42
1.5
 43
1.5
 50
180.0
  0
SEQEND
  5
19B
  8
回04-下接
  6
CONTINUOUS
 62
     3
  0
INSERT
  5
19C
  8
回07-寸法
  6
CONTINUOUS
 62
     5
 66
     1
  2
*X8787
 10
0.0
 20
0.0
 30
0.0
  0
SEQEND
  5
77A
  8
回04-下接
  6
CONTINUOUS
 62
     3
  0
POINT
  5
19D
  8
DEFPOINTS
  6
CONTINUOUS
 62
     0
 10
1109.564462434863
 20
-467.8737837964114
 30
0.0
  0
POINT
  5
19E
  8
DEFPOINTS
  6
CONTINUOUS
 62
     0
 10
1112.064462434863
 20
-467.8737837964114
 30
0.0
  0
POINT
  5
19F
  8
DEFPOINTS
  6
CONTINUOUS
 62
     0
 10
1112.064462434863
 20
-484.6014086941381
 30
0.0
  0
ENDBLK
  5
1A0
  8
0
 62
     3
  0
BLOCK
  8
0
  2
*D2424
 70
     1
 10
0.0
 20
0.0
 30
0.0
  3
*D2424
  1

  0
LINE
  5
3D7
  8
回07-寸法
  6
CONTINUOUS
 62
     5
 10
931.3782132948203
 20
-467.8737837964114
 30
0.0
 11
891.8893157346381
 21
-467.8737837964114
 31
0.0
  0
LINE
  5
3D8
  8
回07-寸法
  6
CONTINUOUS
 62
     5
 10
924.1293386102693
 20
-397.8737837964112
 30
0.0
 11
891.8893157346381
 21
-397.8737837964112
 31
0.0
  0
LINE
  5
3D9
  8
回07-寸法
  6
CONTINUOUS
 62
     5
 10
892.8893157346381
 20
-466.3737837964117
 30
0.0
 11
892.8893157346381
 21
-399.3737837964112
 31
0.0
  0
INSERT
  5
3DA
  8
回07-寸法
  6
CONTINUOUS
 62
     5
  2
_OPEN
 10
892.8893157346381
 20
-467.8737837964115
 30
0.0
 41
1.5
 42
1.5
 43
1.5
 50
270.0
  0
INSERT
  5
3DB
  8
回07-寸法
  6
CONTINUOUS
 62
     5
  2
_OPEN
 10
892.8893157346381
 20
-397.8737837964112
 30
0.0
 41
1.5
 42
1.5
 43
1.5
 50
90.0
  0
INSERT
  5
3DC
  8
回07-寸法
  6
CONTINUOUS
 62
     5
 66
     1
  2
*X8888
 10
0.0
 20
0.0
 30
0.0
  0
SEQEND
  5
780
  8
回04-下接
  6
CONTINUOUS
 62
     3
  0
POINT
  5
3DD
  8
DEFPOINTS
  6
CONTINUOUS
 62
     0
 10
931.3782132948203
 20
-467.8737837964114
 30
0.0
  0
POINT
  5
3DE
  8
DEFPOINTS
  6
CONTINUOUS
 62
     0
 10
924.1293386102693
 20
-397.8737837964112
 30
0.0
  0
POINT
  5
3DF
  8
DEFPOINTS
  6
CONTINUOUS
 62
     0
 10
892.8893157346381
 20
-397.8737837964112
 30
0.0
  0
ENDBLK
  5
3E0
  8
0
 62
     3
  0
BLOCK
  8
0
  2
*D2525
 70
     1
 10
0.0
 20
0.0
 30
0.0
  3
*D2525
  1

  0
LINE
  5
3CA
  8
回07-寸法
  6
CONTINUOUS
 62
     5
 10
964.6293386102696
 20
-397.8737354255989
 30
0.0
 11
1001.686381459159
 21
-397.8737354255989
 31
0.0
  0
LINE
  5
3CB
  8
回07-寸法
  6
CONTINUOUS
 62
     5
 10
960.278213294821
 20
-467.8737837964118
 30
0.0
 11
1001.686381459159
 21
-467.8737837964118
 31
0.0
  0
LINE
  5
3CC
  8
回07-寸法
  6
CONTINUOUS
 62
     5
 10
1000.686381459159
 20
-399.3737354255989
 30
0.0
 11
1000.686381459159
 21
-466.3737837964118
 31
0.0
  0
INSERT
  5
3CD
  8
回07-寸法
  6
CONTINUOUS
 62
     5
  2
_OPEN
 10
1000.686381459159
 20
-397.8737354255989
 30
0.0
 41
1.5
 42
1.5
 43
1.5
 50
90.0
  0
INSERT
  5
3CE
  8
回07-寸法
  6
CONTINUOUS
 62
     5
  2
_OPEN
 10
1000.686381459159
 20
-467.8737837964118
 30
0.0
 41
1.5
 42
1.5
 43
1.5
 50
270.0
  0
INSERT
  5
3CF
  8
回07-寸法
  6
CONTINUOUS
 62
     5
 66
     1
  2
*X8989
 10
0.0
 20
0.0
 30
0.0
  0
SEQEND
  5
786
  8
回04-下接
  6
CONTINUOUS
 62
     3
  0
POINT
  5
3D0
  8
DEFPOINTS
  6
CONTINUOUS
 62
     0
 10
964.6293386102696
 20
-397.8737354255989
 30
0.0
  0
POINT
  5
3D1
  8
DEFPOINTS
  6
CONTINUOUS
 62
     0
 10
960.278213294821
 20
-467.8737837964118
 30
0.0
  0
POINT
  5
3D2
  8
DEFPOINTS
  6
CONTINUOUS
 62
     0
 10
1000.686381459159
 20
-467.8737837964118
 30
0.0
  0
ENDBLK
  5
3D3
  8
0
 62
     3
  0
BLOCK
  8
0
  2
*D2626
 70
     1
 10
0.0
 20
0.0
 30
0.0
  3
*D2626
  1

  0
LINE
  5
3BB
  8
回07-寸法
  6
CONTINUOUS
 62
     5
 10
930.8782132948202
 20
-467.7737837964112
 30
0.0
 11
930.8782132948202
 21
-492.5792150126274
 31
0.0
  0
LINE
  5
3BC
  8
回07-寸法
  6
CONTINUOUS
 62
     5
 10
940.3782132948204
 20
-467.7737837964113
 30
0.0
 11
940.3782132948204
 21
-492.5792150126274
 31
0.0
  0
LINE
  5
3BD
  8
回07-寸法
  6
CONTINUOUS
 62
     5
 10
941.8782132948203
 20
-491.5792150126273
 30
0.0
 11
943.3782132948204
 21
-491.5792150126273
 31
0.0
  0
LINE
  5
3BE
  8
回07-寸法
  6
CONTINUOUS
 62
     5
 10
929.37821329482
 20
-491.5792150126273
 30
0.0
 11
914.7725278698707
 21
-491.5792150126273
 31
0.0
  0
LINE
  5
3BF
  8
回07-寸法
  6
CONTINUOUS
 62
     5
 10
940.3782132948204
 20
-491.5792150126273
 30
0.0
 11
930.8782132948202
 21
-491.5792150126273
 31
0.0
  0
INSERT
  5
3C0
  8
回07-寸法
  6
CONTINUOUS
 62
     5
  2
_OPEN
 10
940.3782132948204
 20
-491.5792150126273
 30
0.0
 41
1.5
 42
1.5
 43
1.5
 50
180.0
  0
INSERT
  5
3C1
  8
回07-寸法
  6
CONTINUOUS
 62
     5
  2
_OPEN
 10
930.8782132948202
 20
-491.5792150126273
 30
0.0
 41
1.5
 42
1.5
 43
1.5
  0
INSERT
  5
3C2
  8
回07-寸法
  6
CONTINUOUS
 62
     5
 66
     1
  2
*X9090
 10
0.0
 20
0.0
 30
0.0
  0
SEQEND
  5
78C
  8
回04-下接
  6
CONTINUOUS
 62
     3
  0
POINT
  5
3C3
  8
DEFPOINTS
  6
CONTINUOUS
 62
     0
 10
930.8782132948202
 20
-467.7737837964112
 30
0.0
  0
POINT
  5
3C4
  8
DEFPOINTS
  6
CONTINUOUS
 62
     0
 10
940.3782132948204
 20
-467.7737837964113
 30
0.0
  0
POINT
  5
3C5
  8
DEFPOINTS
  6
CONTINUOUS
 62
     0
 10
940.3782132948204
 20
-491.5792150126273
 30
0.0
  0
ENDBLK
  5
3C6
  8
0
 62
     3
  0
BLOCK
  8
0
  2
*D2727
 70
     1
 10
0.0
 20
0.0
 30
0.0
  3
*D2727
  1

  0
LINE
  5
3AE
  8
回07-寸法
  6
CONTINUOUS
 62
     5
 10
850.1793386102686
 20
-397.873759611005
 30
0.0
 11
850.1793386102686
 21
-504.6611190145578
 31
0.0
  0
LINE
  5
3AF
  8
回07-寸法
  6
CONTINUOUS
 62
     5
 10
951.8782132948205
 20
-467.7737837964113
 30
0.0
 11
951.8782132948205
 21
-504.6611190145578
 31
0.0
  0
LINE
  5
3B0
  8
回07-寸法
  6
CONTINUOUS
 62
     5
 10
851.6793386102687
 20
-503.6611190145579
 30
0.0
 11
950.3782132948204
 21
-503.6611190145579
 31
0.0
  0
INSERT
  5
3B1
  8
回07-寸法
  6
CONTINUOUS
 62
     5
  2
_OPEN
 10
850.1793386102686
 20
-503.6611190145579
 30
0.0
 41
1.5
 42
1.5
 43
1.5
 50
180.0
  0
INSERT
  5
3B2
  8
回07-寸法
  6
CONTINUOUS
 62
     5
  2
_OPEN
 10
951.8782132948205
 20
-503.6611190145579
 30
0.0
 41
1.5
 42
1.5
 43
1.5
  0
TEXT
  5
3B3
  8
回07-寸法
  6
CONTINUOUS
 62
     5
 10
894.0287759525446
 20
-502.961119014558
 30
0.0
 40
4.0
  1
(101.7)
1001
ACAD
1000
MTEXTBEGIN
1070
    73
1070
     1
1070
    44
1040
1.0
1070
    74
1070
     0
1000
MTEXTEND
  0
POINT
  5
3B4
  8
DEFPOINTS
  6
CONTINUOUS
 62
     0
 10
850.1793386102686
 20
-397.873759611005
 30
0.0
  0
POINT
  5
3B5
  8
DEFPOINTS
  6
CONTINUOUS
 62
     0
 10
951.8782132948205
 20
-467.7737837964113
 30
0.0
  0
POINT
  5
3B6
  8
DEFPOINTS
  6
CONTINUOUS
 62
     0
 10
951.8782132948205
 20
-503.6611190145579
 30
0.0
  0
ENDBLK
  5
3B7
  8
0
 62
     3
  0
BLOCK
  8
0
  2
*D2828
 70
     1
 10
0.0
 20
0.0
 30
0.0
  3
*D2828
  1

  0
LINE
  5
39F
  8
回07-寸法
  6
CONTINUOUS
 62
     5
 10
951.8782132948205
 20
-467.7737837964113
 30
0.0
 11
951.8782132948205
 21
-504.6611190145578
 31
0.0
  0
LINE
  5
3A0
  8
回07-寸法
  6
CONTINUOUS
 62
     5
 10
960.3782132948206
 20
-467.7737837964113
 30
0.0
 11
960.3782132948206
 21
-504.6611190145578
 31
0.0
  0
LINE
  5
3A1
  8
回07-寸法
  6
CONTINUOUS
 62
     5
 10
950.3782132948204
 20
-503.6611190145579
 30
0.0
 11
948.8782132948204
 21
-503.6611190145579
 31
0.0
  0
LINE
  5
3A2
  8
回07-寸法
  6
CONTINUOUS
 62
     5
 10
961.8782132948204
 20
-503.6611190145579
 30
0.0
 11
976.3182132948207
 21
-503.6611190145579
 31
0.0
  0
LINE
  5
3A3
  8
回07-寸法
  6
CONTINUOUS
 62
     5
 10
951.8782132948205
 20
-503.6611190145579
 30
0.0
 11
960.3782132948206
 21
-503.6611190145579
 31
0.0
  0
INSERT
  5
3A4
  8
回07-寸法
  6
CONTINUOUS
 62
     5
  2
_OPEN
 10
951.8782132948205
 20
-503.6611190145579
 30
0.0
 41
1.5
 42
1.5
 43
1.5
  0
INSERT
  5
3A5
  8
回07-寸法
  6
CONTINUOUS
 62
     5
  2
_OPEN
 10
960.3782132948206
 20
-503.6611190145579
 30
0.0
 41
1.5
 42
1.5
 43
1.5
 50
180.0
  0
INSERT
  5
3A6
  8
回07-寸法
  6
CONTINUOUS
 62
     5
 66
     1
  2
*X9191
 10
0.0
 20
0.0
 30
0.0
  0
SEQEND
  5
792
  8
回04-下接
  6
CONTINUOUS
 62
     3
  0
POINT
  5
3A7
  8
DEFPOINTS
  6
CONTINUOUS
 62
     0
 10
951.8782132948205
 20
-467.7737837964113
 30
0.0
  0
POINT
  5
3A8
  8
DEFPOINTS
  6
CONTINUOUS
 62
     0
 10
960.3782132948206
 20
-467.7737837964113
 30
0.0
  0
POINT
  5
3A9
  8
DEFPOINTS
  6
CONTINUOUS
 62
     0
 10
960.3782132948206
 20
-503.6611190145579
 30
0.0
  0
ENDBLK
  5
3AA
  8
0
 62
     3
  0
BLOCK
  8
0
  2
*D2929
 70
     1
 10
0.0
 20
0.0
 30
0.0
  3
*D2929
  1

  0
LINE
  5
38A
  8
回07-寸法
  6
CONTINUOUS
 62
     5
 10
924.2054590777581
 20
-400.7737837964113
 30
0.0
 11
919.7181768903728
 21
-400.7737837964113
 31
0.0
  0
LINE
  5
38B
  8
回07-寸法
  6
CONTINUOUS
 62
     5
 10
924.1293386102693
 20
-397.8737837964114
 30
0.0
 11
919.7181768903728
 21
-397.8737837964114
 31
0.0
  0
LINE
  5
38C
  8
回07-寸法
  6
CONTINUOUS
 62
     5
 10
920.7181768903728
 20
-396.8737837964114
 30
0.0
 11
920.7181768903728
 21
-395.8737837964114
 31
0.0
  0
LINE
  5
38D
  8
回07-寸法
  6
CONTINUOUS
 62
     5
 10
920.7181768903728
 20
-401.7737837964113
 30
0.0
 11
920.7181768903728
 21
-417.408344055695
 31
0.0
  0
LINE
  5
38E
  8
回07-寸法
  6
CONTINUOUS
 62
     5
 10
920.7181768903728
 20
-397.8737837964114
 30
0.0
 11
920.7181768903728
 21
-400.7737837964113
 31
0.0
  0
INSERT
  5
38F
  8
回07-寸法
  6
CONTINUOUS
 62
     5
 66
     1
  2
_OPEN
 10
920.7181768903728
 20
-397.8737837964114
 30
0.0
 50
270.0
  0
SEQEND
  5
390
  8
回04-下接
  6
CONTINUOUS
 62
     3
  0
INSERT
  5
391
  8
回07-寸法
  6
CONTINUOUS
 62
     5
 66
     1
  2
_OPEN
 10
920.7181768903728
 20
-400.7737837964113
 30
0.0
 50
90.0
  0
SEQEND
  5
392
  8
回04-下接
  6
CONTINUOUS
 62
     3
  0
TEXT
  5
393
  8
回07-寸法
  6
CONTINUOUS
 62
     5
 10
920.2177831895848
 20
-417.3215904331708
 30
0.0
 40
4.0
  1
2.9
 50
90.0
1001
ACAD
1000
MTEXTBEGIN
1070
    73
1070
     1
1070
    44
1040
1.0
1070
    74
1070
     0
1000
MTEXTEND
  0
POINT
  5
394
  8
DEFPOINTS
  6
CONTINUOUS
 62
     0
 10
924.2054590777581
 20
-400.7737837964113
 30
0.0
  0
POINT
  5
395
  8
DEFPOINTS
  6
CONTINUOUS
 62
     0
 10
924.1293386102693
 20
-397.8737837964114
 30
0.0
  0
POINT
  5
396
  8
DEFPOINTS
  6
CONTINUOUS
 62
     0
 10
920.7181768903728
 20
-397.8737837964114
 30
0.0
  0
ENDBLK
  5
397
  8
0
 62
     3
  0
BLOCK
  8
0
  2
*D3030
 70
     1
 10
0.0
 20
0.0
 30
0.0
  3
*D3030
  1

  0
LINE
  5
379
  8
回07-寸法
  6
CONTINUOUS
 62
     5
 10
930.8020928273316
 20
-407.5857187409783
 30
0.0
 11
914.163715851348
 21
-407.5857187409783
 31
0.0
  0
LINE
  5
37A
  8
回07-寸法
  6
CONTINUOUS
 62
     5
 10
924.1293386102693
 20
-397.8737837964114
 30
0.0
 11
914.163715851348
 21
-397.8737837964114
 31
0.0
  0
LINE
  5
37B
  8
回07-寸法
  6
CONTINUOUS
 62
     5
 10
915.163715851348
 20
-396.8737837964114
 30
0.0
 11
915.163715851348
 21
-395.8737837964114
 31
0.0
  0
LINE
  5
37C
  8
回07-寸法
  6
CONTINUOUS
 62
     5
 10
915.163715851348
 20
-408.5857187409784
 30
0.0
 11
915.163715851348
 21
-419.2647572526158
 31
0.0
  0
LINE
  5
37D
  8
回07-寸法
  6
CONTINUOUS
 62
     5
 10
915.163715851348
 20
-397.8737837964114
 30
0.0
 11
915.163715851348
 21
-407.5857187409783
 31
0.0
  0
INSERT
  5
37E
  8
回07-寸法
  6
CONTINUOUS
 62
     5
 66
     1
  2
_OPEN
 10
915.163715851348
 20
-397.8737837964114
 30
0.0
 50
270.0
  0
SEQEND
  5
37F
  8
回04-下接
  6
CONTINUOUS
 62
     3
  0
INSERT
  5
380
  8
回07-寸法
  6
CONTINUOUS
 62
     5
 66
     1
  2
_OPEN
 10
915.163715851348
 20
-407.5857187409783
 30
0.0
 50
90.0
  0
SEQEND
  5
381
  8
回04-下接
  6
CONTINUOUS
 62
     3
  0
TEXT
  5
382
  8
回07-寸法
  6
CONTINUOUS
 62
     5
 10
914.6637158513476
 20
-419.2963560142491
 30
0.0
 40
4.0
  1
9.71
 50
90.0
1001
ACAD
1000
MTEXTBEGIN
1070
    73
1070
     1
1070
    44
1040
1.0
1070
    74
1070
     0
1000
MTEXTEND
  0
POINT
  5
383
  8
DEFPOINTS
  6
CONTINUOUS
 62
     0
 10
930.8020928273316
 20
-407.5857187409783
 30
0.0
  0
POINT
  5
384
  8
DEFPOINTS
  6
CONTINUOUS
 62
     0
 10
924.1293386102693
 20
-397.8737837964114
 30
0.0
  0
POINT
  5
385
  8
DEFPOINTS
  6
CONTINUOUS
 62
     0
 10
915.163715851348
 20
-397.8737837964114
 30
0.0
  0
ENDBLK
  5
386
  8
0
 62
     3
  0
BLOCK
  8
0
  2
*D3131
 70
     1
 10
0.0
 20
0.0
 30
0.0
  3
*D3131
  1

  0
LINE
  5
368
  8
回07-寸法
  6
CONTINUOUS
 62
     5
 10
964.6293386102696
 20
-397.8737837964112
 30
0.0
 11
970.442011290191
 21
-397.8737837964112
 31
0.0
  0
LINE
  5
369
  8
回07-寸法
  6
CONTINUOUS
 62
     5
 10
964.5532181427808
 20
-400.7737837964109
 30
0.0
 11
970.442011290191
 21
-400.7737837964109
 31
0.0
  0
LINE
  5
36A
  8
回07-寸法
  6
CONTINUOUS
 62
     5
 10
969.442011290191
 20
-396.3737837964112
 30
0.0
 11
969.442011290191
 21
-394.8737837964111
 31
0.0
  0
LINE
  5
36B
  8
回07-寸法
  6
CONTINUOUS
 62
     5
 10
969.442011290191
 20
-402.2737837964108
 30
0.0
 11
969.442011290191
 21
-413.7557068751458
 31
0.0
  0
LINE
  5
36C
  8
回07-寸法
  6
CONTINUOUS
 62
     5
 10
969.442011290191
 20
-397.8737837964112
 30
0.0
 11
969.442011290191
 21
-400.7737837964109
 31
0.0
  0
INSERT
  5
36D
  8
回07-寸法
  6
CONTINUOUS
 62
     5
 66
     1
  2
_OPEN
 10
969.442011290191
 20
-397.8737837964112
 30
0.0
 41
1.5
 42
1.5
 43
1.5
 50
270.0
  0
SEQEND
  5
36E
  8
回04-下接
  6
CONTINUOUS
 62
     3
  0
INSERT
  5
36F
  8
回07-寸法
  6
CONTINUOUS
 62
     5
 66
     1
  2
_OPEN
 10
969.442011290191
 20
-400.7737837964109
 30
0.0
 41
1.5
 42
1.5
 43
1.5
 50
90.0
  0
SEQEND
  5
370
  8
回04-下接
  6
CONTINUOUS
 62
     3
  0
TEXT
  5
371
  8
回07-寸法
  6
CONTINUOUS
 62
     5
 10
968.9416175894033
 20
-413.6689532526218
 30
0.0
 40
4.0
  1
2.9
 50
90.0
1001
ACAD
1000
MTEXTBEGIN
1070
    73
1070
     1
1070
    44
1040
1.0
1070
    74
1070
     0
1000
MTEXTEND
  0
POINT
  5
372
  8
DEFPOINTS
  6
CONTINUOUS
 62
     0
 10
964.6293386102696
 20
-397.8737837964112
 30
0.0
  0
POINT
  5
373
  8
DEFPOINTS
  6
CONTINUOUS
 62
     0
 10
964.5532181427808
 20
-400.7737837964109
 30
0.0
  0
POINT
  5
374
  8
DEFPOINTS
  6
CONTINUOUS
 62
     0
 10
969.442011290191
 20
-400.7737837964109
 30
0.0
  0
ENDBLK
  5
375
  8
0
 62
     3
  0
BLOCK
  8
0
  2
*D3232
 70
     1
 10
0.0
 20
0.0
 30
0.0
  3
*D3232
  1

  0
LINE
  5
357
  8
回07-寸法
  6
CONTINUOUS
 62
     5
 10
964.6293386102696
 20
-397.8737354255991
 30
0.0
 11
977.9315529754926
 21
-397.8737354255991
 31
0.0
  0
LINE
  5
358
  8
回07-寸法
  6
CONTINUOUS
 62
     5
 10
960.4543337623097
 20
-405.0879693718755
 30
0.0
 11
977.9315529754926
 21
-405.0879693718755
 31
0.0
  0
LINE
  5
359
  8
回07-寸法
  6
CONTINUOUS
 62
     5
 10
976.9315529754926
 20
-396.3737354255991
 30
0.0
 11
976.9315529754926
 21
-394.8737354255992
 31
0.0
  0
LINE
  5
35A
  8
回07-寸法
  6
CONTINUOUS
 62
     5
 10
976.9315529754926
 20
-406.5879693718755
 30
0.0
 11
976.9315529754926
 21
-416.6879693718755
 31
0.0
  0
LINE
  5
35B
  8
回07-寸法
  6
CONTINUOUS
 62
     5
 10
976.9315529754926
 20
-397.8737354255991
 30
0.0
 11
976.9315529754926
 21
-405.0879693718755
 31
0.0
  0
INSERT
  5
35C
  8
回07-寸法
  6
CONTINUOUS
 62
     5
 66
     1
  2
_OPEN
 10
976.9315529754926
 20
-397.8737354255991
 30
0.0
 41
1.5
 42
1.5
 43
1.5
 50
270.0
  0
SEQEND
  5
35D
  8
回04-下接
  6
CONTINUOUS
 62
     3
  0
INSERT
  5
35E
  8
回07-寸法
  6
CONTINUOUS
 62
     5
 66
     1
  2
_OPEN
 10
976.9315529754926
 20
-405.0879693718755
 30
0.0
 41
1.5
 42
1.5
 43
1.5
 50
90.0
  0
SEQEND
  5
35F
  8
回04-下接
  6
CONTINUOUS
 62
     3
  0
TEXT
  5
360
  8
回07-寸法
  6
CONTINUOUS
 62
     5
 10
976.431159274705
 20
-416.7879693718756
 30
0.0
 40
4.0
  1
7.21
 50
90.0
1001
ACAD
1000
MTEXTBEGIN
1070
    73
1070
     1
1070
    44
1040
1.0
1070
    74
1070
     0
1000
MTEXTEND
  0
POINT
  5
361
  8
DEFPOINTS
  6
CONTINUOUS
 62
     0
 10
964.6293386102696
 20
-397.8737354255991
 30
0.0
  0
POINT
  5
362
  8
DEFPOINTS
  6
CONTINUOUS
 62
     0
 10
960.4543337623097
 20
-405.0879693718755
 30
0.0
  0
POINT
  5
363
  8
DEFPOINTS
  6
CONTINUOUS
 62
     0
 10
976.9315529754926
 20
-405.0879693718755
 30
0.0
  0
ENDBLK
  5
364
  8
0
 62
     3
  0
BLOCK
  8
0
  2
*D3333
 70
     1
 10
0.0
 20
0.0
 30
0.0
  3
*D3333
  1

  0
LINE
  5
34A
  8
回07-寸法
  6
CONTINUOUS
 62
     5
 10
850.1793386102686
 20
-397.873759611005
 30
0.0
 11
850.1793386102686
 21
-492.5792150126274
 31
0.0
  0
LINE
  5
34B
  8
回07-寸法
  6
CONTINUOUS
 62
     5
 10
930.8782132948202
 20
-467.7737837964112
 30
0.0
 11
930.8782132948202
 21
-492.5792150126274
 31
0.0
  0
LINE
  5
34C
  8
回07-寸法
  6
CONTINUOUS
 62
     5
 10
851.6793386102687
 20
-491.5792150126273
 30
0.0
 11
929.37821329482
 21
-491.5792150126273
 31
0.0
  0
INSERT
  5
34D
  8
回07-寸法
  6
CONTINUOUS
 62
     5
  2
_OPEN
 10
850.1793386102686
 20
-491.5792150126273
 30
0.0
 41
1.5
 42
1.5
 43
1.5
 50
180.0
  0
INSERT
  5
34E
  8
回07-寸法
  6
CONTINUOUS
 62
     5
  2
_OPEN
 10
930.8782132948202
 20
-491.5792150126273
 30
0.0
 41
1.5
 42
1.5
 43
1.5
  0
TEXT
  5
34F
  8
回07-寸法
  6
CONTINUOUS
 62
     5
 10
889.4537759525444
 20
-490.8792150126275
 30
0.0
 40
4.0
  1
(80.7)
1001
ACAD
1000
MTEXTBEGIN
1070
    73
1070
     1
1070
    44
1040
1.0
1070
    74
1070
     0
1000
MTEXTEND
  0
POINT
  5
350
  8
DEFPOINTS
  6
CONTINUOUS
 62
     0
 10
850.1793386102686
 20
-397.873759611005
 30
0.0
  0
POINT
  5
351
  8
DEFPOINTS
  6
CONTINUOUS
 62
     0
 10
930.8782132948202
 20
-467.7737837964112
 30
0.0
  0
POINT
  5
352
  8
DEFPOINTS
  6
CONTINUOUS
 62
     0
 10
930.8782132948202
 20
-491.5792150126273
 30
0.0
  0
ENDBLK
  5
353
  8
0
 62
     3
  0
BLOCK
  8
0
  2
*D3434
 70
     1
 10
0.0
 20
0.0
 30
0.0
  3
*D3434
  1

  0
LINE
  5
166
  8
回07-寸法
  6
CONTINUOUS
 62
     5
 10
1098.171278215893
 20
-247.873759611005
 30
0.0
 11
1098.171278215893
 21
-235.8683842545556
 31
0.0
  0
LINE
  5
167
  8
回07-寸法
  6
CONTINUOUS
 62
     5
 10
1119.064462434863
 20
-247.373759611005
 30
0.0
 11
1119.064462434863
 21
-235.8683842545556
 31
0.0
  0
LINE
  5
168
  8
回07-寸法
  6
CONTINUOUS
 62
     5
 10
1099.671278215893
 20
-236.8683842545556
 30
0.0
 11
1117.564462434863
 21
-236.8683842545556
 31
0.0
  0
INSERT
  5
169
  8
回07-寸法
  6
CONTINUOUS
 62
     5
  2
_OPEN
 10
1098.171278215893
 20
-236.8683842545556
 30
0.0
 41
1.5
 42
1.5
 43
1.5
 50
180.0
  0
INSERT
  5
16A
  8
回07-寸法
  6
CONTINUOUS
 62
     5
  2
_OPEN
 10
1119.064462434863
 20
-236.8683842545556
 30
0.0
 41
1.5
 42
1.5
 43
1.5
  0
INSERT
  5
16B
  8
回07-寸法
  6
CONTINUOUS
 62
     5
 66
     1
  2
*X9292
 10
0.0
 20
0.0
 30
0.0
  0
SEQEND
  5
798
  8
回04-下接
  6
CONTINUOUS
 62
     3
  0
POINT
  5
16C
  8
DEFPOINTS
  6
CONTINUOUS
 62
     0
 10
1098.171278215893
 20
-247.873759611005
 30
0.0
  0
POINT
  5
16D
  8
DEFPOINTS
  6
CONTINUOUS
 62
     0
 10
1119.064462434863
 20
-247.373759611005
 30
0.0
  0
POINT
  5
16E
  8
DEFPOINTS
  6
CONTINUOUS
 62
     0
 10
1119.064462434863
 20
-236.8683842545556
 30
0.0
  0
ENDBLK
  5
16F
  8
0
 62
     3
  0
BLOCK
  8
0
  2
*D3535
 70
     1
 10
0.0
 20
0.0
 30
0.0
  3
*D3535
  1

  0
LINE
  5
152
  8
回07-寸法
  6
CONTINUOUS
 62
     5
 10
1104.671278215893
 20
-457.8737837964118
 30
0.0
 11
1109.426338684777
 21
-457.8737837964118
 31
0.0
  0
LINE
  5
153
  8
回07-寸法
  6
CONTINUOUS
 62
     5
 10
1104.671278215893
 20
-467.8737837964118
 30
0.0
 11
1109.426338684777
 21
-467.8737837964118
 31
0.0
  0
LINE
  5
154
  8
回07-寸法
  6
CONTINUOUS
 62
     5
 10
1108.426338684777
 20
-459.3737837964118
 30
0.0
 11
1108.426338684777
 21
-466.3737837964118
 31
0.0
  0
INSERT
  5
155
  8
回07-寸法
  6
CONTINUOUS
 62
     5
 66
     1
  2
_OPEN
 10
1108.426338684777
 20
-457.8737837964118
 30
0.0
 41
1.5
 42
1.5
 43
1.5
 50
90.0
  0
SEQEND
  5
156
  8
回04-下接
  6
CONTINUOUS
 62
     3
  0
INSERT
  5
157
  8
回07-寸法
  6
CONTINUOUS
 62
     5
 66
     1
  2
_OPEN
 10
1108.426338684777
 20
-467.8737837964118
 30
0.0
 41
1.5
 42
1.5
 43
1.5
 50
270.0
  0
SEQEND
  5
158
  8
回04-下接
  6
CONTINUOUS
 62
     3
  0
TEXT
  5
159
  8
回07-寸法
  6
CONTINUOUS
 62
     5
 10
1107.793004684777
 20
-465.5404637964119
 30
0.0
 40
2.666679999999999
  1
(10)
 50
90.0
1001
ACAD
1000
MTEXTBEGIN
1070
    73
1070
     1
1070
    44
1040
1.0
1070
    74
1070
     0
1000
MTEXTEND
  0
POINT
  5
15A
  8
DEFPOINTS
  6
CONTINUOUS
 62
     0
 10
1104.671278215893
 20
-457.8737837964118
 30
0.0
  0
POINT
  5
15B
  8
DEFPOINTS
  6
CONTINUOUS
 62
     0
 10
1104.671278215893
 20
-467.8737837964118
 30
0.0
  0
POINT
  5
15C
  8
DEFPOINTS
  6
CONTINUOUS
 62
     0
 10
1108.426338684777
 20
-467.8737837964118
 30
0.0
  0
ENDBLK
  5
15D
  8
0
 62
     3
  0
BLOCK
  8
0
  2
*D3636
 70
     1
 10
0.0
 20
0.0
 30
0.0
  3
*D3636
  1

  0
LINE
  5
141
  8
回07-寸法
  6
CONTINUOUS
 62
     5
 10
1104.671278215893
 20
-467.8737837964114
 30
0.0
 11
1104.671278215893
 21
-479.2961685229457
 31
0.0
  0
LINE
  5
142
  8
回07-寸法
  6
CONTINUOUS
 62
     5
 10
1102.171278215893
 20
-467.8737837964114
 30
0.0
 11
1102.171278215893
 21
-479.2961685229457
 31
0.0
  0
LINE
  5
143
  8
回07-寸法
  6
CONTINUOUS
 62
     5
 10
1106.171278215893
 20
-478.2961685229457
 30
0.0
 11
1107.671278215893
 21
-478.2961685229457
 31
0.0
  0
LINE
  5
144
  8
回07-寸法
  6
CONTINUOUS
 62
     5
 10
1100.671278215893
 20
-478.2961685229457
 30
0.0
 11
1083.990965107343
 21
-478.2961685229457
 31
0.0
  0
LINE
  5
145
  8
回07-寸法
  6
CONTINUOUS
 62
     5
 10
1104.671278215893
 20
-478.2961685229457
 30
0.0
 11
1102.171278215893
 21
-478.2961685229457
 31
0.0
  0
INSERT
  5
146
  8
回07-寸法
  6
CONTINUOUS
 62
     5
 66
     1
  2
_OPEN
 10
1104.671278215893
 20
-478.2961685229457
 30
0.0
 41
1.5
 42
1.5
 43
1.5
 50
180.0
  0
SEQEND
  5
147
  8
回04-下接
  6
CONTINUOUS
 62
     3
  0
INSERT
  5
148
  8
回07-寸法
  6
CONTINUOUS
 62
     5
 66
     1
  2
_OPEN
 10
1102.171278215893
 20
-478.2961685229457
 30
0.0
 41
1.5
 42
1.5
 43
1.5
  0
SEQEND
  5
149
  8
回04-下接
  6
CONTINUOUS
 62
     3
  0
INSERT
  5
14A
  8
回07-寸法
  6
CONTINUOUS
 62
     5
 66
     1
  2
*X9393
 10
0.0
 20
0.0
 30
0.0
  0
SEQEND
  5
79E
  8
回04-下接
  6
CONTINUOUS
 62
     3
  0
POINT
  5
14B
  8
DEFPOINTS
  6
CONTINUOUS
 62
     0
 10
1104.671278215893
 20
-467.8737837964114
 30
0.0
  0
POINT
  5
14C
  8
DEFPOINTS
  6
CONTINUOUS
 62
     0
 10
1102.171278215893
 20
-467.8737837964114
 30
0.0
  0
POINT
  5
14D
  8
DEFPOINTS
  6
CONTINUOUS
 62
     0
 10
1102.171278215893
 20
-478.2961685229457
 30
0.0
  0
ENDBLK
  5
14E
  8
0
 62
     3
  0
BLOCK
  8
0
  2
*D3737
 70
     1
 10
0.0
 20
0.0
 30
0.0
  3
*D3737
  1

  0
LINE
  5
BE
  8
回07-寸法
  6
CONTINUOUS
 62
     5
 10
924.1293386102688
 20
-397.8738321672234
 30
0.0
 11
924.1293386102688
 21
-425.2712098660811
 31
0.0
  0
LINE
  5
BF
  8
回07-寸法
  6
CONTINUOUS
 62
     5
 10
943.1293386102684
 20
-397.8738321672234
 30
0.0
 11
943.1293386102684
 21
-425.2712098660811
 31
0.0
  0
LINE
  5
C0
  8
回07-寸法
  6
CONTINUOUS
 62
     5
 10
945.1293386102683
 20
-424.2712098660812
 30
0.0
 11
947.1293386102685
 21
-424.2712098660812
 31
0.0
  0
LINE
  5
C1
  8
回07-寸法
  6
CONTINUOUS
 62
     5
 10
922.1293386102686
 20
-424.2712098660812
 30
0.0
 11
915.2429646942618
 21
-424.2712098660812
 31
0.0
  0
LINE
  5
C2
  8
回07-寸法
  6
CONTINUOUS
 62
     5
 10
943.1293386102684
 20
-424.2712098660812
 30
0.0
 11
924.1293386102688
 21
-424.2712098660812
 31
0.0
  0
INSERT
  5
C3
  8
回07-寸法
  6
CONTINUOUS
 62
     5
  2
_OPEN
 10
943.1293386102684
 20
-424.2712098660812
 30
0.0
 41
2.0
 42
2.0
 43
2.0
 50
180.0
  0
INSERT
  5
C4
  8
回07-寸法
  6
CONTINUOUS
 62
     5
  2
_OPEN
 10
924.1293386102688
 20
-424.2712098660812
 30
0.0
 41
2.0
 42
2.0
 43
2.0
  0
TEXT
  5
C5
  8
回07-寸法
  6
CONTINUOUS
 62
     5
 10
915.2789309152112
 20
-423.7712098660812
 30
0.0
 40
4.0
  1
19
1001
ACAD
1000
MTEXTBEGIN
1070
    73
1070
     1
1070
    44
1040
1.0
1070
    74
1070
     0
1000
MTEXTEND
  0
POINT
  5
C6
  8
DEFPOINTS
  6
CONTINUOUS
 62
     0
 10
924.1293386102688
 20
-397.8738321672234
 30
0.0
  0
POINT
  5
C7
  8
DEFPOINTS
  6
CONTINUOUS
 62
     0
 10
943.1293386102684
 20
-397.8738321672234
 30
0.0
  0
POINT
  5
C8
  8
DEFPOINTS
  6
CONTINUOUS
 62
     0
 10
943.1293386102684
 20
-424.2712098660812
 30
0.0
  0
ENDBLK
  5
C9
  8
0
 62
     3
  0
BLOCK
  8
0
  2
*D3838
 70
     1
 10
0.0
 20
0.0
 30
0.0
  3
*D3838
  1

  0
LINE
  5
AE
  8
回07-寸法
  6
CONTINUOUS
 62
     5
 10
947.6293386102687
 20
-397.8738321672234
 30
0.0
 11
947.6293386102687
 21
-425.2712098660811
 31
0.0
  0
LINE
  5
AF
  8
回07-寸法
  6
CONTINUOUS
 62
     5
 10
964.6293386102687
 20
-397.8737837964112
 30
0.0
 11
964.6293386102687
 21
-425.2712098660811
 31
0.0
  0
LINE
  5
B0
  8
回07-寸法
  6
CONTINUOUS
 62
     5
 10
945.6293386102688
 20
-424.2712098660812
 30
0.0
 11
943.6293386102688
 21
-424.2712098660812
 31
0.0
  0
LINE
  5
B1
  8
回07-寸法
  6
CONTINUOUS
 62
     5
 10
966.6293386102687
 20
-424.2712098660812
 30
0.0
 11
973.2293386102686
 21
-424.2712098660812
 31
0.0
  0
LINE
  5
B2
  8
回07-寸法
  6
CONTINUOUS
 62
     5
 10
947.6293386102687
 20
-424.2712098660812
 30
0.0
 11
964.6293386102687
 21
-424.2712098660812
 31
0.0
  0
INSERT
  5
B3
  8
回07-寸法
  6
CONTINUOUS
 62
     5
  2
_OPEN
 10
947.6293386102687
 20
-424.2712098660812
 30
0.0
 41
2.0
 42
2.0
 43
2.0
  0
INSERT
  5
B4
  8
回07-寸法
  6
CONTINUOUS
 62
     5
  2
_OPEN
 10
964.6293386102687
 20
-424.2712098660812
 30
0.0
 41
2.0
 42
2.0
 43
2.0
 50
180.0
  0
TEXT
  5
B5
  8
回07-寸法
  6
CONTINUOUS
 62
     5
 10
968.5293386102687
 20
-423.7712098660812
 30
0.0
 40
4.0
  1
17
1001
ACAD
1000
MTEXTBEGIN
1070
    73
1070
     1
1070
    44
1040
1.0
1070
    74
1070
     0
1000
MTEXTEND
  0
POINT
  5
B6
  8
DEFPOINTS
  6
CONTINUOUS
 62
     0
 10
947.6293386102687
 20
-397.8738321672234
 30
0.0
  0
POINT
  5
B8
  8
DEFPOINTS
  6
CONTINUOUS
 62
     0
 10
964.6293386102687
 20
-397.8737837964112
 30
0.0
  0
POINT
  5
B9
  8
DEFPOINTS
  6
CONTINUOUS
 62
     0
 10
964.6293386102687
 20
-424.2712098660812
 30
0.0
  0
ENDBLK
  5
BA
  8
0
 62
     3
  0
BLOCK
  8
回04-下接
  2
*D3939
 70
     1
 10
0.0
 20
0.0
 30
0.0
  3
*D3939
  1

  0
LINE
  5
434
  8
回07-寸法
  6
CONTINUOUS
 62
     5
 10
937.9024776840076
 20
-467.0251415361163
 30
0.0
 11
937.9024776840076
 21
-494.422519234974
 31
0.0
  0
LINE
  5
436
  8
回07-寸法
  6
CONTINUOUS
 62
     5
 10
954.9024776840076
 20
-467.0250931653042
 30
0.0
 11
954.9024776840076
 21
-494.422519234974
 31
0.0
  0
LINE
  5
437
  8
回07-寸法
  6
CONTINUOUS
 62
     5
 10
956.9024776840075
 20
-493.4225192349741
 30
0.0
 11
963.5024776840076
 21
-493.4225192349741
 31
0.0
  0
LINE
  5
438
  8
回07-寸法
  6
CONTINUOUS
 62
     5
 10
937.9024776840076
 20
-493.4225192349741
 30
0.0
 11
954.9024776840076
 21
-493.4225192349741
 31
0.0
  0
LINE
  5
439
  8
回07-寸法
  6
CONTINUOUS
 62
     5
 10
935.9024776840074
 20
-493.4225192349741
 30
0.0
 11
933.9024776840075
 21
-493.4225192349741
 31
0.0
  0
INSERT
  5
43A
  8
回07-寸法
  6
CONTINUOUS
 62
     5
  2
_OPEN
 10
937.9024776840076
 20
-493.4225192349741
 30
0.0
 41
2.0
 42
2.0
 43
2.0
  0
INSERT
  5
43B
  8
回07-寸法
  6
CONTINUOUS
 62
     5
  2
_OPEN
 10
954.9024776840076
 20
-493.4225192349741
 30
0.0
 41
2.0
 42
2.0
 43
2.0
 50
180.0
  0
TEXT
  5
43C
  8
回07-寸法
  6
CONTINUOUS
 62
     5
 10
958.8024776840075
 20
-492.9225192349742
 30
0.0
 40
4.0
  1
17
  0
POINT
  5
43D
  8
DEFPOINTS
  6
CONTINUOUS
 62
     0
 10
937.9024776840076
 20
-467.0251415361163
 30
0.0
  0
POINT
  5
43E
  8
DEFPOINTS
  6
CONTINUOUS
 62
     0
 10
954.9024776840076
 20
-467.0250931653042
 30
0.0
  0
POINT
  5
43F
  8
DEFPOINTS
  6
CONTINUOUS
 62
     0
 10
954.9024776840076
 20
-493.4225192349741
 30
0.0
  0
ENDBLK
  5
441
  8
回04-下接
  6
CONTINUOUS
 62
     3
  0
BLOCK
  8
回04-下接
  2
*D4040
 70
     1
 10
0.0
 20
0.0
 30
0.0
  3
*D4040
  1

  0
LINE
  5
443
  8
回07-寸法
  6
CONTINUOUS
 62
     5
 10
914.4024776840074
 20
-467.0251415361163
 30
0.0
 11
914.4024776840074
 21
-494.422519234974
 31
0.0
  0
LINE
  5
444
  8
回07-寸法
  6
CONTINUOUS
 62
     5
 10
933.4024776840072
 20
-467.0251415361163
 30
0.0
 11
933.4024776840072
 21
-494.422519234974
 31
0.0
  0
LINE
  5
445
  8
回07-寸法
  6
CONTINUOUS
 62
     5
 10
912.4024776840075
 20
-493.4225192349741
 30
0.0
 11
905.6520699889501
 21
-493.4225192349741
 31
0.0
  0
LINE
  5
446
  8
回07-寸法
  6
CONTINUOUS
 62
     5
 10
914.4024776840074
 20
-493.4225192349741
 30
0.0
 11
933.4024776840072
 21
-493.4225192349741
 31
0.0
  0
LINE
  5
447
  8
回07-寸法
  6
CONTINUOUS
 62
     5
 10
935.4024776840073
 20
-493.4225192349741
 30
0.0
 11
937.4024776840073
 21
-493.4225192349741
 31
0.0
  0
INSERT
  5
448
  8
回07-寸法
  6
CONTINUOUS
 62
     5
  2
_OPEN
 10
914.4024776840074
 20
-493.4225192349741
 30
0.0
 41
2.0
 42
2.0
 43
2.0
  0
INSERT
  5
449
  8
回07-寸法
  6
CONTINUOUS
 62
     5
  2
_OPEN
 10
933.4024776840072
 20
-493.4225192349741
 30
0.0
 41
2.0
 42
2.0
 43
2.0
 50
180.0
  0
TEXT
  5
44A
  8
回07-寸法
  6
CONTINUOUS
 62
     5
 10
905.5520699889502
 20
-492.9225192349742
 30
0.0
 40
4.0
  1
19
  0
POINT
  5
44B
  8
DEFPOINTS
  6
CONTINUOUS
 62
     0
 10
914.4024776840074
 20
-467.0251415361163
 30
0.0
  0
POINT
  5
44C
  8
DEFPOINTS
  6
CONTINUOUS
 62
     0
 10
933.4024776840072
 20
-467.0251415361163
 30
0.0
  0
POINT
  5
44D
  8
DEFPOINTS
  6
CONTINUOUS
 62
     0
 10
933.4024776840072
 20
-493.4225192349741
 30
0.0
  0
ENDBLK
  5
44F
  8
回04-下接
  6
CONTINUOUS
 62
     3
  0
BLOCK
  8
回04-下接
  2
*D4141
 70
     1
 10
0.0
 20
0.0
 30
0.0
  3
*D4141
  1

  0
LINE
  5
451
  8
回07-寸法
  6
CONTINUOUS
 62
     5
 10
1094.944417289632
 20
-537.0250931653044
 30
0.0
 11
1094.944417289632
 21
-548.4474778918387
 31
0.0
  0
LINE
  5
452
  8
回07-寸法
  6
CONTINUOUS
 62
     5
 10
1092.444417289631
 20
-537.0250931653044
 30
0.0
 11
1092.444417289631
 21
-548.4474778918387
 31
0.0
  0
LINE
  5
453
  8
回07-寸法
  6
CONTINUOUS
 62
     5
 10
1090.944417289631
 20
-547.4474778918387
 30
0.0
 11
1074.374561683332
 21
-547.4474778918387
 31
0.0
  0
LINE
  5
454
  8
回07-寸法
  6
CONTINUOUS
 62
     5
 10
1094.944417289632
 20
-547.4474778918387
 30
0.0
 11
1092.444417289631
 21
-547.4474778918387
 31
0.0
  0
LINE
  5
455
  8
回07-寸法
  6
CONTINUOUS
 62
     5
 10
1096.444417289632
 20
-547.4474778918387
 30
0.0
 11
1097.944417289631
 21
-547.4474778918387
 31
0.0
  0
INSERT
  5
456
  8
回07-寸法
  6
CONTINUOUS
 62
     5
  2
_OPEN
 10
1094.944417289632
 20
-547.4474778918387
 30
0.0
 41
1.5
 42
1.5
 43
1.5
 50
180.0
  0
INSERT
  5
457
  8
回07-寸法
  6
CONTINUOUS
 62
     5
  2
_OPEN
 10
1092.444417289631
 20
-547.4474778918387
 30
0.0
 41
1.5
 42
1.5
 43
1.5
  0
INSERT
  5
458
  8
回07-寸法
  6
CONTINUOUS
 62
     5
 66
     1
  2
*X9494
 10
0.0
 20
0.0
 30
0.0
  0
SEQEND
  5
7A4
  8
回04-下接
  6
CONTINUOUS
 62
     3
  0
POINT
  5
459
  8
DEFPOINTS
  6
CONTINUOUS
 62
     0
 10
1094.944417289632
 20
-537.0250931653044
 30
0.0
  0
POINT
  5
45A
  8
DEFPOINTS
  6
CONTINUOUS
 62
     0
 10
1092.444417289631
 20
-537.0250931653044
 30
0.0
  0
POINT
  5
45B
  8
DEFPOINTS
  6
CONTINUOUS
 62
     0
 10
1092.444417289631
 20
-547.4474778918387
 30
0.0
  0
ENDBLK
  5
45D
  8
回04-下接
  6
CONTINUOUS
 62
     3
  0
BLOCK
  8
回04-下接
  2
*D4242
 70
     1
 10
0.0
 20
0.0
 30
0.0
  3
*D4242
  1

  0
LINE
  5
45F
  8
回07-寸法
  6
CONTINUOUS
 62
     5
 10
1094.944417289632
 20
-527.0250931653046
 30
0.0
 11
1099.699477758516
 21
-527.0250931653046
 31
0.0
  0
LINE
  5
460
  8
回07-寸法
  6
CONTINUOUS
 62
     5
 10
1094.944417289632
 20
-537.0250931653044
 30
0.0
 11
1099.699477758516
 21
-537.0250931653044
 31
0.0
  0
LINE
  5
461
  8
回07-寸法
  6
CONTINUOUS
 62
     5
 10
1098.699477758516
 20
-528.5250931653044
 30
0.0
 11
1098.699477758516
 21
-535.5250931653046
 31
0.0
  0
INSERT
  5
462
  8
回07-寸法
  6
CONTINUOUS
 62
     5
  2
_OPEN
 10
1098.699477758516
 20
-527.0250931653046
 30
0.0
 41
1.5
 42
1.5
 43
1.5
 50
90.0
  0
INSERT
  5
463
  8
回07-寸法
  6
CONTINUOUS
 62
     5
  2
_OPEN
 10
1098.699477758516
 20
-537.0250931653044
 30
0.0
 41
1.5
 42
1.5
 43
1.5
 50
270.0
  0
TEXT
  5
464
  8
回07-寸法
  6
CONTINUOUS
 62
     5
 10
1098.066143758516
 20
-534.6917731653045
 30
0.0
 40
2.666679999999999
  1
(10)
 50
90.0
  0
POINT
  5
465
  8
DEFPOINTS
  6
CONTINUOUS
 62
     0
 10
1094.944417289632
 20
-527.0250931653046
 30
0.0
  0
POINT
  5
466
  8
DEFPOINTS
  6
CONTINUOUS
 62
     0
 10
1094.944417289632
 20
-537.0250931653044
 30
0.0
  0
POINT
  5
467
  8
DEFPOINTS
  6
CONTINUOUS
 62
     0
 10
1098.699477758516
 20
-537.0250931653044
 30
0.0
  0
ENDBLK
  5
469
  8
回04-下接
  6
CONTINUOUS
 62
     3
  0
BLOCK
  8
回04-下接
  2
*D4343
 70
     1
 10
0.0
 20
0.0
 30
0.0
  3
*D4343
  1

  0
LINE
  5
46B
  8
回07-寸法
  6
CONTINUOUS
 62
     5
 10
1088.444417289632
 20
-317.025068979898
 30
0.0
 11
1088.444417289632
 21
-305.0196936234486
 31
0.0
  0
LINE
  5
46D
  8
回07-寸法
  6
CONTINUOUS
 62
     5
 10
1109.337601508602
 20
-316.525068979898
 30
0.0
 11
1109.337601508602
 21
-305.0196936234486
 31
0.0
  0
LINE
  5
46E
  8
回07-寸法
  6
CONTINUOUS
 62
     5
 10
1089.944417289631
 20
-306.0196936234486
 30
0.0
 11
1107.837601508602
 21
-306.0196936234486
 31
0.0
  0
INSERT
  5
46F
  8
回07-寸法
  6
CONTINUOUS
 62
     5
  2
_OPEN
 10
1088.444417289632
 20
-306.0196936234486
 30
0.0
 41
1.5
 42
1.5
 43
1.5
 50
180.0
  0
INSERT
  5
470
  8
回07-寸法
  6
CONTINUOUS
 62
     5
  2
_OPEN
 10
1109.337601508602
 20
-306.0196936234486
 30
0.0
 41
1.5
 42
1.5
 43
1.5
  0
INSERT
  5
471
  8
回07-寸法
  6
CONTINUOUS
 62
     5
 66
     1
  2
*X9595
 10
0.0
 20
0.0
 30
0.0
  0
SEQEND
  5
7AA
  8
回04-下接
  6
CONTINUOUS
 62
     3
  0
POINT
  5
472
  8
DEFPOINTS
  6
CONTINUOUS
 62
     0
 10
1088.444417289632
 20
-317.025068979898
 30
0.0
  0
POINT
  5
473
  8
DEFPOINTS
  6
CONTINUOUS
 62
     0
 10
1109.337601508602
 20
-316.525068979898
 30
0.0
  0
POINT
  5
474
  8
DEFPOINTS
  6
CONTINUOUS
 62
     0
 10
1109.337601508602
 20
-306.0196936234486
 30
0.0
  0
ENDBLK
  5
476
  8
回04-下接
  6
CONTINUOUS
 62
     3
  0
BLOCK
  8
回04-下接
  2
*D4444
 70
     1
 10
0.0
 20
0.0
 30
0.0
  3
*D4444
  1

  0
LINE
  5
478
  8
回07-寸法
  6
CONTINUOUS
 62
     5
 10
1099.837601508602
 20
-537.0250931653044
 30
0.0
 11
1099.837601508602
 21
-554.7527180630311
 31
0.0
  0
LINE
  5
479
  8
回07-寸法
  6
CONTINUOUS
 62
     5
 10
1102.337601508602
 20
-537.0250931653044
 30
0.0
 11
1102.337601508602
 21
-554.7527180630311
 31
0.0
  0
LINE
  5
47A
  8
回07-寸法
  6
CONTINUOUS
 62
     5
 10
1103.837601508602
 20
-553.7527180630311
 30
0.0
 11
1120.407457114901
 21
-553.7527180630311
 31
0.0
  0
LINE
  5
47B
  8
回07-寸法
  6
CONTINUOUS
 62
     5
 10
1099.837601508602
 20
-553.7527180630311
 30
0.0
 11
1102.337601508602
 21
-553.7527180630311
 31
0.0
  0
LINE
  5
47C
  8
回07-寸法
  6
CONTINUOUS
 62
     5
 10
1098.337601508602
 20
-553.7527180630311
 30
0.0
 11
1096.837601508602
 21
-553.7527180630311
 31
0.0
  0
INSERT
  5
47D
  8
回07-寸法
  6
CONTINUOUS
 62
     5
  2
_OPEN
 10
1099.837601508602
 20
-553.7527180630311
 30
0.0
 41
1.5
 42
1.5
 43
1.5
  0
INSERT
  5
47E
  8
回07-寸法
  6
CONTINUOUS
 62
     5
  2
_OPEN
 10
1102.337601508602
 20
-553.7527180630311
 30
0.0
 41
1.5
 42
1.5
 43
1.5
 50
180.0
  0
INSERT
  5
47F
  8
回07-寸法
  6
CONTINUOUS
 62
     5
 66
     1
  2
*X9696
 10
0.0
 20
0.0
 30
0.0
  0
SEQEND
  5
7B0
  8
回04-下接
  6
CONTINUOUS
 62
     3
  0
POINT
  5
480
  8
DEFPOINTS
  6
CONTINUOUS
 62
     0
 10
1099.837601508602
 20
-537.0250931653044
 30
0.0
  0
POINT
  5
481
  8
DEFPOINTS
  6
CONTINUOUS
 62
     0
 10
1102.337601508602
 20
-537.0250931653044
 30
0.0
  0
POINT
  5
482
  8
DEFPOINTS
  6
CONTINUOUS
 62
     0
 10
1102.337601508602
 20
-553.7527180630311
 30
0.0
  0
ENDBLK
  5
484
  8
回04-下接
  6
CONTINUOUS
 62
     3
  0
BLOCK
  8
回04-下接
  2
*D4545
 70
     1
 10
0.0
 20
0.0
 30
0.0
  3
*D4545
  1

  0
LINE
  5
486
  8
回07-寸法
  6
CONTINUOUS
 62
     5
 10
1102.337601508602
 20
-537.0250931653044
 30
0.0
 11
1112.453240099289
 21
-537.0250931653044
 31
0.0
  0
LINE
  5
487
  8
回07-寸法
  6
CONTINUOUS
 62
     5
 10
1103.037601508602
 20
-532.0250931653045
 30
0.0
 11
1112.453240099289
 21
-532.0250931653045
 31
0.0
  0
LINE
  5
488
  8
回07-寸法
  6
CONTINUOUS
 62
     5
 10
1111.453240099289
 20
-535.5250931653046
 30
0.0
 11
1111.453240099289
 21
-533.5250931653046
 31
0.0
  0
INSERT
  5
489
  8
回07-寸法
  6
CONTINUOUS
 62
     5
  2
_OPEN
 10
1111.453240099289
 20
-537.0250931653044
 30
0.0
 41
1.5
 42
1.5
 43
1.5
 50
270.0
  0
INSERT
  5
48A
  8
回07-寸法
  6
CONTINUOUS
 62
     5
  2
_OPEN
 10
1111.453240099289
 20
-532.0250931653045
 30
0.0
 41
1.5
 42
1.5
 43
1.5
 50
90.0
  0
TEXT
  5
48B
  8
回07-寸法
  6
CONTINUOUS
 62
     5
 10
1110.953240099289
 20
-535.9250931653044
 30
0.0
 40
4.0
  1
5
 50
90.0
  0
POINT
  5
48C
  8
DEFPOINTS
  6
CONTINUOUS
 62
     0
 10
1102.337601508602
 20
-537.0250931653044
 30
0.0
  0
POINT
  5
48D
  8
DEFPOINTS
  6
CONTINUOUS
 62
     0
 10
1103.037601508602
 20
-532.0250931653045
 30
0.0
  0
POINT
  5
48E
  8
DEFPOINTS
  6
CONTINUOUS
 62
     0
 10
1111.453240099289
 20
-532.0250931653045
 30
0.0
  0
ENDBLK
  5
490
  8
回04-下接
  6
CONTINUOUS
 62
     3
  0
BLOCK
  8
回04-下接
  2
*D4646
 70
     1
 10
0.0
 20
0.0
 30
0.0
  3
*D4646
  1

  0
LINE
  5
492
  8
回07-寸法
  6
CONTINUOUS
 62
     5
 10
1092.444417289631
 20
-537.0250931653044
 30
0.0
 11
1083.578699308004
 21
-537.0250931653044
 31
0.0
  0
LINE
  5
493
  8
回07-寸法
  6
CONTINUOUS
 62
     5
 10
1091.744417289632
 20
-532.0250931653045
 30
0.0
 11
1083.578699308004
 21
-532.0250931653045
 31
0.0
  0
LINE
  5
494
  8
回07-寸法
  6
CONTINUOUS
 62
     5
 10
1084.578699308004
 20
-535.5250931653046
 30
0.0
 11
1084.578699308004
 21
-533.5250931653046
 31
0.0
  0
INSERT
  5
495
  8
回07-寸法
  6
CONTINUOUS
 62
     5
  2
_OPEN
 10
1084.578699308004
 20
-537.0250931653044
 30
0.0
 41
1.5
 42
1.5
 43
1.5
 50
270.0
  0
INSERT
  5
496
  8
回07-寸法
  6
CONTINUOUS
 62
     5
  2
_OPEN
 10
1084.578699308004
 20
-532.0250931653045
 30
0.0
 41
1.5
 42
1.5
 43
1.5
 50
90.0
  0
TEXT
  5
497
  8
回07-寸法
  6
CONTINUOUS
 62
     5
 10
1084.078699308004
 20
-535.9250931653044
 30
0.0
 40
4.0
  1
5
 50
90.0
  0
POINT
  5
498
  8
DEFPOINTS
  6
CONTINUOUS
 62
     0
 10
1092.444417289631
 20
-537.0250931653044
 30
0.0
  0
POINT
  5
499
  8
DEFPOINTS
  6
CONTINUOUS
 62
     0
 10
1091.744417289632
 20
-532.0250931653045
 30
0.0
  0
POINT
  5
49A
  8
DEFPOINTS
  6
CONTINUOUS
 62
     0
 10
1084.578699308004
 20
-532.0250931653045
 30
0.0
  0
ENDBLK
  5
49C
  8
回04-下接
  6
CONTINUOUS
 62
     3
  0
BLOCK
  8
回04-下接
  2
*D4747
 70
     1
 10
0.0
 20
0.0
 30
0.0
  3
*D4747
  1

  0
LINE
  5
49E
  8
回07-寸法
  6
CONTINUOUS
 62
     5
 10
848.9524776840077
 20
-325.525068979898
 30
0.0
 11
819.4524776840077
 21
-325.525068979898
 31
0.0
  0
LINE
  5
49F
  8
回07-寸法
  6
CONTINUOUS
 62
     5
 10
840.4524776840077
 20
-316.525068979898
 30
0.0
 11
819.4524776840077
 21
-316.525068979898
 31
0.0
  0
LINE
  5
4A0
  8
回07-寸法
  6
CONTINUOUS
 62
     5
 10
820.4524776840077
 20
-315.025068979898
 30
0.0
 11
820.4524776840077
 21
-304.3140091881546
 31
0.0
  0
LINE
  5
4A1
  8
回07-寸法
  6
CONTINUOUS
 62
     5
 10
820.4524776840077
 20
-325.525068979898
 30
0.0
 11
820.4524776840077
 21
-316.525068979898
 31
0.0
  0
LINE
  5
4A2
  8
回07-寸法
  6
CONTINUOUS
 62
     5
 10
820.4524776840077
 20
-327.025068979898
 30
0.0
 11
820.4524776840077
 21
-328.525068979898
 31
0.0
  0
INSERT
  5
4A3
  8
回07-寸法
  6
CONTINUOUS
 62
     5
  2
_OPEN
 10
820.4524776840077
 20
-325.525068979898
 30
0.0
 41
1.5
 42
1.5
 43
1.5
 50
90.0
  0
INSERT
  5
4A4
  8
回07-寸法
  6
CONTINUOUS
 62
     5
  2
_OPEN
 10
820.4524776840077
 20
-316.525068979898
 30
0.0
 41
1.5
 42
1.5
 43
1.5
 50
270.0
  0
TEXT
  5
4A5
  8
回07-寸法
  6
CONTINUOUS
 62
     5
 10
819.7524776840078
 20
-310.2268758591127
 30
0.0
 40
4.0
  1
(9)
 50
90.0
  0
POINT
  5
4A6
  8
DEFPOINTS
  6
CONTINUOUS
 62
     0
 10
848.9524776840077
 20
-325.525068979898
 30
0.0
  0
POINT
  5
4A7
  8
DEFPOINTS
  6
CONTINUOUS
 62
     0
 10
840.4524776840077
 20
-316.525068979898
 30
0.0
  0
POINT
  5
4A8
  8
DEFPOINTS
  6
CONTINUOUS
 62
     0
 10
820.4524776840077
 20
-316.525068979898
 30
0.0
  0
ENDBLK
  5
4AA
  8
回04-下接
  6
CONTINUOUS
 62
     3
  0
BLOCK
  8
回04-下接
  2
*D4848
 70
     1
 10
0.0
 20
0.0
 30
0.0
  3
*D4848
  1

  0
LINE
  5
4AC
  8
回07-寸法
  6
CONTINUOUS
 62
     5
 10
846.9524776840076
 20
-323.525068979898
 30
0.0
 11
810.4524776840076
 21
-323.525068979898
 31
0.0
  0
LINE
  5
4AD
  8
回07-寸法
  6
CONTINUOUS
 62
     5
 10
840.4524776840077
 20
-316.525068979898
 30
0.0
 11
810.4524776840076
 21
-316.525068979898
 31
0.0
  0
LINE
  5
4AE
  8
回07-寸法
  6
CONTINUOUS
 62
     5
 10
811.4524776840077
 20
-315.025068979898
 30
0.0
 11
811.4524776840077
 21
-307.728218586197
 31
0.0
  0
LINE
  5
4AF
  8
回07-寸法
  6
CONTINUOUS
 62
     5
 10
811.4524776840077
 20
-323.525068979898
 30
0.0
 11
811.4524776840077
 21
-316.525068979898
 31
0.0
  0
LINE
  5
4B0
  8
回07-寸法
  6
CONTINUOUS
 62
     5
 10
811.4524776840077
 20
-325.025068979898
 30
0.0
 11
811.4524776840077
 21
-326.525068979898
 31
0.0
  0
INSERT
  5
4B1
  8
回07-寸法
  6
CONTINUOUS
 62
     5
  2
_OPEN
 10
811.4524776840077
 20
-323.525068979898
 30
0.0
 41
1.5
 42
1.5
 43
1.5
 50
90.0
  0
INSERT
  5
4B2
  8
回07-寸法
  6
CONTINUOUS
 62
     5
  2
_OPEN
 10
811.4524776840077
 20
-316.525068979898
 30
0.0
 41
1.5
 42
1.5
 43
1.5
 50
270.0
  0
TEXT
  5
4B3
  8
回07-寸法
  6
CONTINUOUS
 62
     5
 10
810.7524776840078
 20
-313.6266437830475
 30
0.0
 40
4.0
  1
(7)
 50
90.0
  0
POINT
  5
4B4
  8
DEFPOINTS
  6
CONTINUOUS
 62
     0
 10
846.9524776840076
 20
-323.525068979898
 30
0.0
  0
POINT
  5
4B5
  8
DEFPOINTS
  6
CONTINUOUS
 62
     0
 10
840.4524776840077
 20
-316.525068979898
 30
0.0
  0
POINT
  5
4B6
  8
DEFPOINTS
  6
CONTINUOUS
 62
     0
 10
811.4524776840077
 20
-316.525068979898
 30
0.0
  0
ENDBLK
  5
4B8
  8
回04-下接
  6
CONTINUOUS
 62
     3
  0
BLOCK
  8
回04-下接
  2
*D4949
 70
     1
 10
0.0
 20
0.0
 30
0.0
  3
*D4949
  1

  0
LINE
  5
4BA
  8
回07-寸法
  6
CONTINUOUS
 62
     5
 10
846.4524776840077
 20
-323.025068979898
 30
0.0
 11
801.4524776840106
 21
-323.025068979898
 31
0.0
  0
LINE
  5
4BB
  8
回07-寸法
  6
CONTINUOUS
 62
     5
 10
840.4524776840077
 20
-316.525068979898
 30
0.0
 11
801.4524776840106
 21
-316.525068979898
 31
0.0
  0
LINE
  5
4BC
  8
回07-寸法
  6
CONTINUOUS
 62
     5
 10
802.4524776840106
 20
-315.025068979898
 30
0.0
 11
802.4524776840106
 21
-303.7282185861971
 31
0.0
  0
LINE
  5
4BD
  8
回07-寸法
  6
CONTINUOUS
 62
     5
 10
802.4524776840106
 20
-323.025068979898
 30
0.0
 11
802.4524776840106
 21
-316.525068979898
 31
0.0
  0
LINE
  5
4BE
  8
回07-寸法
  6
CONTINUOUS
 62
     5
 10
802.4524776840106
 20
-324.525068979898
 30
0.0
 11
802.4524776840106
 21
-326.025068979898
 31
0.0
  0
INSERT
  5
4BF
  8
回07-寸法
  6
CONTINUOUS
 62
     5
  2
_OPEN
 10
802.4524776840106
 20
-323.025068979898
 30
0.0
 41
1.5
 42
1.5
 43
1.5
 50
90.0
  0
INSERT
  5
4C0
  8
回07-寸法
  6
CONTINUOUS
 62
     5
  2
_OPEN
 10
802.4524776840106
 20
-316.525068979898
 30
0.0
 41
1.5
 42
1.5
 43
1.5
 50
270.0
  0
TEXT
  5
4C1
  8
回07-寸法
  6
CONTINUOUS
 62
     5
 10
801.7524776840106
 20
-313.6266437830475
 30
0.0
 40
4.0
  1
(6.5)
 50
90.0
  0
POINT
  5
4C2
  8
DEFPOINTS
  6
CONTINUOUS
 62
     0
 10
846.4524776840077
 20
-323.025068979898
 30
0.0
  0
POINT
  5
4C3
  8
DEFPOINTS
  6
CONTINUOUS
 62
     0
 10
840.4524776840077
 20
-316.525068979898
 30
0.0
  0
POINT
  5
4C4
  8
DEFPOINTS
  6
CONTINUOUS
 62
     0
 10
802.4524776840106
 20
-316.525068979898
 30
0.0
  0
ENDBLK
  5
4C6
  8
回04-下接
  6
CONTINUOUS
 62
     3
  0
BLOCK
  8
回04-下接
  2
*D5050
 70
     1
 10
0.0
 20
0.0
 30
0.0
  3
*D5050
  1

  0
LINE
  5
4C8
  8
回07-寸法
  6
CONTINUOUS
 62
     5
 10
848.9524776840077
 20
-454.3245689798978
 30
0.0
 11
819.4524776840077
 21
-454.3245689798978
 31
0.0
  0
LINE
  5
4C9
  8
回07-寸法
  6
CONTINUOUS
 62
     5
 10
840.4524776840077
 20
-467.0250689798979
 30
0.0
 11
819.4524776840077
 21
-467.0250689798979
 31
0.0
  0
LINE
  5
4CA
  8
回07-寸法
  6
CONTINUOUS
 62
     5
 10
820.4524776840077
 20
-468.5250689798978
 30
0.0
 11
820.4524776840077
 21
-478.6250689798983
 31
0.0
  0
LINE
  5
4CB
  8
回07-寸法
  6
CONTINUOUS
 62
     5
 10
820.4524776840077
 20
-454.3245689798978
 30
0.0
 11
820.4524776840077
 21
-467.0250689798979
 31
0.0
  0
LINE
  5
4CC
  8
回07-寸法
  6
CONTINUOUS
 62
     5
 10
820.4524776840077
 20
-452.8245689798978
 30
0.0
 11
820.4524776840077
 21
-451.3245689798978
 31
0.0
  0
INSERT
  5
4CD
  8
回07-寸法
  6
CONTINUOUS
 62
     5
  2
_OPEN
 10
820.4524776840077
 20
-454.3245689798978
 30
0.0
 41
1.5
 42
1.5
 43
1.5
 50
270.0
  0
INSERT
  5
4CE
  8
回07-寸法
  6
CONTINUOUS
 62
     5
  2
_OPEN
 10
820.4524776840077
 20
-467.0250689798979
 30
0.0
 41
1.5
 42
1.5
 43
1.5
 50
90.0
  0
TEXT
  5
4CF
  8
回07-寸法
  6
CONTINUOUS
 62
     5
 10
819.9524776840075
 20
-478.7250689798981
 30
0.0
 40
4.0
  1
12.7
 50
90.0
  0
POINT
  5
4D0
  8
DEFPOINTS
  6
CONTINUOUS
 62
     0
 10
848.9524776840077
 20
-454.3245689798978
 30
0.0
  0
POINT
  5
4D1
  8
DEFPOINTS
  6
CONTINUOUS
 62
     0
 10
840.4524776840077
 20
-467.0250689798979
 30
0.0
  0
POINT
  5
4D2
  8
DEFPOINTS
  6
CONTINUOUS
 62
     0
 10
820.4524776840077
 20
-467.0250689798979
 30
0.0
  0
ENDBLK
  5
4D4
  8
回04-下接
  6
CONTINUOUS
 62
     3
  0
BLOCK
  8
回04-下接
  2
*D5151
 70
     1
 10
0.0
 20
0.0
 30
0.0
  3
*D5151
  1

  0
LINE
  5
4D6
  8
回07-寸法
  6
CONTINUOUS
 62
     5
 10
846.4524776840077
 20
-456.8250689798978
 30
0.0
 11
801.4524776840085
 21
-456.8250689798978
 31
0.0
  0
LINE
  5
4D7
  8
回07-寸法
  6
CONTINUOUS
 62
     5
 10
840.4524776840077
 20
-467.0250689798979
 30
0.0
 11
801.4524776840085
 21
-467.0250689798979
 31
0.0
  0
LINE
  5
4D8
  8
回07-寸法
  6
CONTINUOUS
 62
     5
 10
802.4524776840085
 20
-468.5250689798978
 30
0.0
 11
802.4524776840085
 21
-479.0748718006081
 31
0.0
  0
LINE
  5
4D9
  8
回07-寸法
  6
CONTINUOUS
 62
     5
 10
802.4524776840085
 20
-456.8250689798978
 30
0.0
 11
802.4524776840085
 21
-467.0250689798979
 31
0.0
  0
LINE
  5
4DA
  8
回07-寸法
  6
CONTINUOUS
 62
     5
 10
802.4524776840085
 20
-455.3250689798978
 30
0.0
 11
802.4524776840085
 21
-453.8250689798978
 31
0.0
  0
INSERT
  5
4DB
  8
回07-寸法
  6
CONTINUOUS
 62
     5
  2
_OPEN
 10
802.4524776840085
 20
-456.8250689798978
 30
0.0
 41
1.5
 42
1.5
 43
1.5
 50
270.0
  0
INSERT
  5
4DC
  8
回07-寸法
  6
CONTINUOUS
 62
     5
  2
_OPEN
 10
802.4524776840085
 20
-467.0250689798979
 30
0.0
 41
1.5
 42
1.5
 43
1.5
 50
90.0
  0
TEXT
  5
4DD
  8
回07-寸法
  6
CONTINUOUS
 62
     5
 10
801.9524776840084
 20
-479.1748718006082
 30
0.0
 40
4.0
  1
10.2
 50
90.0
  0
POINT
  5
4DE
  8
DEFPOINTS
  6
CONTINUOUS
 62
     0
 10
846.4524776840077
 20
-456.8250689798978
 30
0.0
  0
POINT
  5
4DF
  8
DEFPOINTS
  6
CONTINUOUS
 62
     0
 10
840.4524776840077
 20
-467.0250689798979
 30
0.0
  0
POINT
  5
4E0
  8
DEFPOINTS
  6
CONTINUOUS
 62
     0
 10
802.4524776840085
 20
-467.0250689798979
 30
0.0
  0
ENDBLK
  5
4E2
  8
回04-下接
  6
CONTINUOUS
 62
     3
  0
BLOCK
  8
回04-下接
  2
*D5252
 70
     1
 10
0.0
 20
0.0
 30
0.0
  3
*D5252
  1

  0
LINE
  5
4E4
  8
回07-寸法
  6
CONTINUOUS
 62
     5
 10
1022.352477684007
 20
-323.525068979898
 30
0.0
 11
1022.352477684007
 21
-287.1450689798979
 31
0.0
  0
LINE
  5
4E5
  8
回07-寸法
  6
CONTINUOUS
 62
     5
 10
1028.852477684007
 20
-316.5250689798977
 30
0.0
 11
1028.852477684007
 21
-287.1450689798979
 31
0.0
  0
LINE
  5
4E6
  8
回07-寸法
  6
CONTINUOUS
 62
     5
 10
1030.352477684007
 20
-288.1450689798979
 30
0.0
 11
1041.649328077708
 21
-288.1450689798979
 31
0.0
  0
LINE
  5
4E7
  8
回07-寸法
  6
CONTINUOUS
 62
     5
 10
1022.352477684007
 20
-288.1450689798979
 30
0.0
 11
1028.852477684007
 21
-288.1450689798979
 31
0.0
  0
LINE
  5
4E8
  8
回07-寸法
  6
CONTINUOUS
 62
     5
 10
1020.852477684007
 20
-288.1450689798979
 30
0.0
 11
1019.352477684007
 21
-288.1450689798979
 31
0.0
  0
INSERT
  5
4E9
  8
回07-寸法
  6
CONTINUOUS
 62
     5
  2
_OPEN
 10
1022.352477684007
 20
-288.1450689798979
 30
0.0
 41
1.5
 42
1.5
 43
1.5
  0
INSERT
  5
4EA
  8
回07-寸法
  6
CONTINUOUS
 62
     5
  2
_OPEN
 10
1028.852477684007
 20
-288.1450689798979
 30
0.0
 41
1.5
 42
1.5
 43
1.5
 50
180.0
  0
TEXT
  5
4EB
  8
回07-寸法
  6
CONTINUOUS
 62
     5
 10
1031.750902880858
 20
-287.4450689798979
 30
0.0
 40
4.0
  1
(6.5)
  0
POINT
  5
4EC
  8
DEFPOINTS
  6
CONTINUOUS
 62
     0
 10
1022.352477684007
 20
-323.525068979898
 30
0.0
  0
POINT
  5
4ED
  8
DEFPOINTS
  6
CONTINUOUS
 62
     0
 10
1028.852477684007
 20
-316.5250689798977
 30
0.0
  0
POINT
  5
4EE
  8
DEFPOINTS
  6
CONTINUOUS
 62
     0
 10
1028.852477684007
 20
-288.1450689798979
 30
0.0
  0
ENDBLK
  5
4F0
  8
回04-下接
  6
CONTINUOUS
 62
     3
  0
BLOCK
  8
回04-下接
  2
*D5353
 70
     1
 10
0.0
 20
0.0
 30
0.0
  3
*D5353
  1

  0
LINE
  5
4F2
  8
回07-寸法
  6
CONTINUOUS
 62
     5
 10
1020.352477684008
 20
-325.525068979898
 30
0.0
 11
1020.352477684008
 21
-296.1450689798979
 31
0.0
  0
LINE
  5
4F3
  8
回07-寸法
  6
CONTINUOUS
 62
     5
 10
1028.852477684007
 20
-316.5250689798977
 30
0.0
 11
1028.852477684007
 21
-296.1450689798979
 31
0.0
  0
LINE
  5
4F4
  8
回07-寸法
  6
CONTINUOUS
 62
     5
 10
1030.352477684007
 20
-297.1450689798979
 30
0.0
 11
1041.649328077708
 21
-297.1450689798979
 31
0.0
  0
LINE
  5
4F5
  8
回07-寸法
  6
CONTINUOUS
 62
     5
 10
1020.352477684008
 20
-297.1450689798979
 30
0.0
 11
1028.852477684007
 21
-297.1450689798979
 31
0.0
  0
LINE
  5
4F6
  8
回07-寸法
  6
CONTINUOUS
 62
     5
 10
1018.852477684008
 20
-297.1450689798979
 30
0.0
 11
1017.352477684008
 21
-297.1450689798979
 31
0.0
  0
INSERT
  5
4F7
  8
回07-寸法
  6
CONTINUOUS
 62
     5
  2
_OPEN
 10
1020.352477684008
 20
-297.1450689798979
 30
0.0
 41
1.5
 42
1.5
 43
1.5
  0
INSERT
  5
4F8
  8
回07-寸法
  6
CONTINUOUS
 62
     5
  2
_OPEN
 10
1028.852477684007
 20
-297.1450689798979
 30
0.0
 41
1.5
 42
1.5
 43
1.5
 50
180.0
  0
TEXT
  5
4F9
  8
回07-寸法
  6
CONTINUOUS
 62
     5
 10
1031.750902880858
 20
-296.4450689798979
 30
0.0
 40
4.0
  1
(8.5)
  0
POINT
  5
4FA
  8
DEFPOINTS
  6
CONTINUOUS
 62
     0
 10
1020.352477684008
 20
-325.525068979898
 30
0.0
  0
POINT
  5
4FB
  8
DEFPOINTS
  6
CONTINUOUS
 62
     0
 10
1028.852477684007
 20
-316.5250689798977
 30
0.0
  0
POINT
  5
4FC
  8
DEFPOINTS
  6
CONTINUOUS
 62
     0
 10
1028.852477684007
 20
-297.1450689798979
 30
0.0
  0
ENDBLK
  5
4FE
  8
回04-下接
  6
CONTINUOUS
 62
     3
  0
BLOCK
  8
回04-下接
  2
*D5454
 70
     1
 10
0.0
 20
0.0
 30
0.0
  3
*D5454
  1

  0
LINE
  5
500
  8
回07-寸法
  6
CONTINUOUS
 62
     5
 10
846.9524776840076
 20
-323.525068979898
 30
0.0
 11
846.9524776840076
 21
-287.1450689798979
 31
0.0
  0
LINE
  5
501
  8
回07-寸法
  6
CONTINUOUS
 62
     5
 10
840.4524776840077
 20
-316.525068979898
 30
0.0
 11
840.4524776840077
 21
-287.1450689798979
 31
0.0
  0
LINE
  5
502
  8
回07-寸法
  6
CONTINUOUS
 62
     5
 10
838.9524776840076
 20
-288.1450689798979
 30
0.0
 11
830.6499499321629
 21
-288.1450689798979
 31
0.0
  0
LINE
  5
503
  8
回07-寸法
  6
CONTINUOUS
 62
     5
 10
846.9524776840076
 20
-288.1450689798979
 30
0.0
 11
840.4524776840077
 21
-288.1450689798979
 31
0.0
  0
LINE
  5
504
  8
回07-寸法
  6
CONTINUOUS
 62
     5
 10
848.4524776840077
 20
-288.1450689798979
 30
0.0
 11
849.9524776840077
 21
-288.1450689798979
 31
0.0
  0
INSERT
  5
505
  8
回07-寸法
  6
CONTINUOUS
 62
     5
  2
_OPEN
 10
846.9524776840076
 20
-288.1450689798979
 30
0.0
 41
1.5
 42
1.5
 43
1.5
 50
180.0
  0
INSERT
  5
506
  8
回07-寸法
  6
CONTINUOUS
 62
     5
  2
_OPEN
 10
840.4524776840077
 20
-288.1450689798979
 30
0.0
 41
1.5
 42
1.5
 43
1.5
  0
TEXT
  5
507
  8
回07-寸法
  6
CONTINUOUS
 62
     5
 10
830.5499499321628
 20
-287.6450689798978
 30
0.0
 40
4.0
  1
6.5
  0
POINT
  5
508
  8
DEFPOINTS
  6
CONTINUOUS
 62
     0
 10
846.9524776840076
 20
-323.525068979898
 30
0.0
  0
POINT
  5
509
  8
DEFPOINTS
  6
CONTINUOUS
 62
     0
 10
840.4524776840077
 20
-316.525068979898
 30
0.0
  0
POINT
  5
50A
  8
DEFPOINTS
  6
CONTINUOUS
 62
     0
 10
840.4524776840077
 20
-288.1450689798979
 30
0.0
  0
ENDBLK
  5
50C
  8
回04-下接
  6
CONTINUOUS
 62
     3
  0
BLOCK
  8
回04-下接
  2
*D5555
 70
     1
 10
0.0
 20
0.0
 30
0.0
  3
*D5555
  1

  0
LINE
  5
50E
  8
回07-寸法
  6
CONTINUOUS
 62
     5
 10
848.9524776840077
 20
-325.5250689798989
 30
0.0
 11
848.9524776840077
 21
-296.1450689798979
 31
0.0
  0
LINE
  5
50F
  8
回07-寸法
  6
CONTINUOUS
 62
     5
 10
840.4524776840077
 20
-316.525068979898
 30
0.0
 11
840.4524776840077
 21
-296.1450689798979
 31
0.0
  0
LINE
  5
510
  8
回07-寸法
  6
CONTINUOUS
 62
     5
 10
838.9524776840076
 20
-297.1450689798979
 30
0.0
 11
829.3696349715331
 21
-297.1450689798979
 31
0.0
  0
LINE
  5
511
  8
回07-寸法
  6
CONTINUOUS
 62
     5
 10
848.9524776840077
 20
-297.1450689798979
 30
0.0
 11
840.4524776840077
 21
-297.1450689798979
 31
0.0
  0
LINE
  5
512
  8
回07-寸法
  6
CONTINUOUS
 62
     5
 10
850.4524776840076
 20
-297.1450689798979
 30
0.0
 11
851.9524776840077
 21
-297.1450689798979
 31
0.0
  0
INSERT
  5
513
  8
回07-寸法
  6
CONTINUOUS
 62
     5
  2
_OPEN
 10
848.9524776840077
 20
-297.1450689798979
 30
0.0
 41
1.5
 42
1.5
 43
1.5
 50
180.0
  0
INSERT
  5
514
  8
回07-寸法
  6
CONTINUOUS
 62
     5
  2
_OPEN
 10
840.4524776840077
 20
-297.1450689798979
 30
0.0
 41
1.5
 42
1.5
 43
1.5
  0
TEXT
  5
515
  8
回07-寸法
  6
CONTINUOUS
 62
     5
 10
829.2696349715329
 20
-296.6450689798979
 30
0.0
 40
4.0
  1
8.5
  0
POINT
  5
516
  8
DEFPOINTS
  6
CONTINUOUS
 62
     0
 10
848.9524776840077
 20
-325.5250689798989
 30
0.0
  0
POINT
  5
517
  8
DEFPOINTS
  6
CONTINUOUS
 62
     0
 10
840.4524776840077
 20
-316.525068979898
 30
0.0
  0
POINT
  5
518
  8
DEFPOINTS
  6
CONTINUOUS
 62
     0
 10
840.4524776840077
 20
-297.1450689798979
 30
0.0
  0
ENDBLK
  5
51A
  8
回04-下接
  6
CONTINUOUS
 62
     3
  0
BLOCK
  8
回04-下接
  2
*D5656
 70
     1
 10
0.0
 20
0.0
 30
0.0
  3
*D5656
  1

  0
LINE
  5
51C
  8
回07-寸法
  6
CONTINUOUS
 62
     5
 10
1022.852477684007
 20
-323.025068979898
 30
0.0
 11
1022.852477684007
 21
-278.1450689798979
 31
0.0
  0
LINE
  5
51D
  8
回07-寸法
  6
CONTINUOUS
 62
     5
 10
1028.852477684007
 20
-316.5250689798977
 30
0.0
 11
1028.852477684007
 21
-278.1450689798979
 31
0.0
  0
LINE
  5
51E
  8
回07-寸法
  6
CONTINUOUS
 62
     5
 10
1030.352477684007
 20
-279.1450689798979
 30
0.0
 11
1037.649328077708
 21
-279.1450689798979
 31
0.0
  0
LINE
  5
51F
  8
回07-寸法
  6
CONTINUOUS
 62
     5
 10
1022.852477684007
 20
-279.1450689798979
 30
0.0
 11
1028.852477684007
 21
-279.1450689798979
 31
0.0
  0
LINE
  5
520
  8
回07-寸法
  6
CONTINUOUS
 62
     5
 10
1021.352477684007
 20
-279.1450689798979
 30
0.0
 11
1019.852477684007
 21
-279.1450689798979
 31
0.0
  0
INSERT
  5
521
  8
回07-寸法
  6
CONTINUOUS
 62
     5
  2
_OPEN
 10
1022.852477684007
 20
-279.1450689798979
 30
0.0
 41
1.5
 42
1.5
 43
1.5
  0
INSERT
  5
522
  8
回07-寸法
  6
CONTINUOUS
 62
     5
  2
_OPEN
 10
1028.852477684007
 20
-279.1450689798979
 30
0.0
 41
1.5
 42
1.5
 43
1.5
 50
180.0
  0
TEXT
  5
523
  8
回07-寸法
  6
CONTINUOUS
 62
     5
 10
1031.750902880858
 20
-278.4450689798979
 30
0.0
 40
4.0
  1
(6)
  0
POINT
  5
524
  8
DEFPOINTS
  6
CONTINUOUS
 62
     0
 10
1022.852477684007
 20
-323.025068979898
 30
0.0
  0
POINT
  5
525
  8
DEFPOINTS
  6
CONTINUOUS
 62
     0
 10
1028.852477684007
 20
-316.5250689798977
 30
0.0
  0
POINT
  5
526
  8
DEFPOINTS
  6
CONTINUOUS
 62
     0
 10
1028.852477684007
 20
-279.1450689798979
 30
0.0
  0
ENDBLK
  5
528
  8
回04-下接
  6
CONTINUOUS
 62
     3
  0
BLOCK
  8
回04-下接
  2
*D5757
 70
     1
 10
0.0
 20
0.0
 30
0.0
  3
*D5757
  1

  0
LINE
  5
52A
  8
回07-寸法
  6
CONTINUOUS
 62
     5
 10
846.4524776840077
 20
-323.025068979898
 30
0.0
 11
846.4524776840077
 21
-278.1450689798979
 31
0.0
  0
LINE
  5
52B
  8
回07-寸法
  6
CONTINUOUS
 62
     5
 10
840.4524776840077
 20
-316.525068979898
 30
0.0
 11
840.4524776840077
 21
-278.1450689798979
 31
0.0
  0
LINE
  5
52C
  8
回07-寸法
  6
CONTINUOUS
 62
     5
 10
838.9524776840076
 20
-279.1450689798979
 30
0.0
 11
832.3090886542138
 21
-279.1450689798979
 31
0.0
  0
LINE
  5
52D
  8
回07-寸法
  6
CONTINUOUS
 62
     5
 10
846.4524776840077
 20
-279.1450689798979
 30
0.0
 11
840.4524776840077
 21
-279.1450689798979
 31
0.0
  0
LINE
  5
52E
  8
回07-寸法
  6
CONTINUOUS
 62
     5
 10
847.9524776840076
 20
-279.1450689798979
 30
0.0
 11
849.4524776840076
 21
-279.1450689798979
 31
0.0
  0
INSERT
  5
52F
  8
回07-寸法
  6
CONTINUOUS
 62
     5
  2
_OPEN
 10
846.4524776840077
 20
-279.1450689798979
 30
0.0
 41
1.5
 42
1.5
 43
1.5
 50
180.0
  0
INSERT
  5
530
  8
回07-寸法
  6
CONTINUOUS
 62
     5
  2
_OPEN
 10
840.4524776840077
 20
-279.1450689798979
 30
0.0
 41
1.5
 42
1.5
 43
1.5
  0
TEXT
  5
531
  8
回07-寸法
  6
CONTINUOUS
 62
     5
 10
832.2090886542136
 20
-278.6450689798979
 30
0.0
 40
4.0
  1
6
  0
POINT
  5
532
  8
DEFPOINTS
  6
CONTINUOUS
 62
     0
 10
846.4524776840077
 20
-323.025068979898
 30
0.0
  0
POINT
  5
533
  8
DEFPOINTS
  6
CONTINUOUS
 62
     0
 10
840.4524776840077
 20
-316.525068979898
 30
0.0
  0
POINT
  5
534
  8
DEFPOINTS
  6
CONTINUOUS
 62
     0
 10
840.4524776840077
 20
-279.1450689798979
 30
0.0
  0
ENDBLK
  5
536
  8
回04-下接
  6
CONTINUOUS
 62
     3
  0
BLOCK
  8
回04-下接
  2
*D5858
 70
     1
 10
0.0
 20
0.0
 30
0.0
  3
*D5858
  1

  0
LINE
  5
538
  8
回07-寸法
  6
CONTINUOUS
 62
     5
 10
846.4524776840077
 20
-323.025068979898
 30
0.0
 11
801.4524776840097
 21
-323.025068979898
 31
0.0
  0
LINE
  5
539
  8
回07-寸法
  6
CONTINUOUS
 62
     5
 10
846.4524776840077
 20
-456.8250689798978
 30
0.0
 11
801.4524776840097
 21
-456.8250689798978
 31
0.0
  0
LINE
  5
53A
  8
回07-寸法
  6
CONTINUOUS
 62
     5
 10
802.4524776840097
 20
-324.525068979898
 30
0.0
 11
802.4524776840097
 21
-455.3250689798978
 31
0.0
  0
INSERT
  5
53B
  8
回07-寸法
  6
CONTINUOUS
 62
     5
  2
_OPEN
 10
802.4524776840097
 20
-323.025068979898
 30
0.0
 41
1.5
 42
1.5
 43
1.5
 50
90.0
  0
INSERT
  5
53C
  8
回07-寸法
  6
CONTINUOUS
 62
     5
  2
_OPEN
 10
802.4524776840097
 20
-456.8250689798978
 30
0.0
 41
1.5
 42
1.5
 43
1.5
 50
270.0
  0
TEXT
  5
53D
  8
回07-寸法
  6
CONTINUOUS
 62
     5
 10
801.9524776840095
 20
-395.725068979898
 30
0.0
 40
4.0
  1
133.8
 50
90.0
  0
POINT
  5
53E
  8
DEFPOINTS
  6
CONTINUOUS
 62
     0
 10
846.4524776840077
 20
-323.025068979898
 30
0.0
  0
POINT
  5
53F
  8
DEFPOINTS
  6
CONTINUOUS
 62
     0
 10
846.4524776840077
 20
-456.8250689798978
 30
0.0
  0
POINT
  5
540
  8
DEFPOINTS
  6
CONTINUOUS
 62
     0
 10
802.4524776840097
 20
-456.8250689798978
 30
0.0
  0
ENDBLK
  5
542
  8
回04-下接
  6
CONTINUOUS
 62
     3
  0
BLOCK
  8
回04-下接
  2
*D5959
 70
     1
 10
0.0
 20
0.0
 30
0.0
  3
*D5959
  1

  0
LINE
  5
544
  8
回07-寸法
  6
CONTINUOUS
 62
     5
 10
846.9524776840076
 20
-323.525068979898
 30
0.0
 11
810.4524776840097
 21
-323.525068979898
 31
0.0
  0
LINE
  5
545
  8
回07-寸法
  6
CONTINUOUS
 62
     5
 10
846.9524776840076
 20
-456.3250689798977
 30
0.0
 11
810.4524776840097
 21
-456.3250689798977
 31
0.0
  0
LINE
  5
546
  8
回07-寸法
  6
CONTINUOUS
 62
     5
 10
811.4524776840097
 20
-325.025068979898
 30
0.0
 11
811.4524776840097
 21
-454.8250689798978
 31
0.0
  0
INSERT
  5
547
  8
回07-寸法
  6
CONTINUOUS
 62
     5
  2
_OPEN
 10
811.4524776840097
 20
-323.525068979898
 30
0.0
 41
1.5
 42
1.5
 43
1.5
 50
90.0
  0
INSERT
  5
548
  8
回07-寸法
  6
CONTINUOUS
 62
     5
  2
_OPEN
 10
811.4524776840097
 20
-456.3250689798977
 30
0.0
 41
1.5
 42
1.5
 43
1.5
 50
270.0
  0
TEXT
  5
549
  8
回07-寸法
  6
CONTINUOUS
 62
     5
 10
809.9524776840095
 20
-412.9242815783231
 30
0.0
 40
4.0
  1
132.8(Viewing area)
 50
90.0
  0
POINT
  5
54A
  8
DEFPOINTS
  6
CONTINUOUS
 62
     0
 10
846.9524776840076
 20
-323.525068979898
 30
0.0
  0
POINT
  5
54B
  8
DEFPOINTS
  6
CONTINUOUS
 62
     0
 10
846.9524776840076
 20
-456.3250689798977
 30
0.0
  0
POINT
  5
54C
  8
DEFPOINTS
  6
CONTINUOUS
 62
     0
 10
811.4524776840097
 20
-456.3250689798977
 30
0.0
  0
ENDBLK
  5
54E
  8
回04-下接
  6
CONTINUOUS
 62
     3
  0
BLOCK
  8
回04-下接
  2
*D6060
 70
     1
 10
0.0
 20
0.0
 30
0.0
  3
*D6060
  1

  0
LINE
  5
550
  8
回07-寸法
  6
CONTINUOUS
 62
     5
 10
848.9524776840077
 20
-325.525068979898
 30
0.0
 11
819.4524776840097
 21
-325.525068979898
 31
0.0
  0
LINE
  5
551
  8
回07-寸法
  6
CONTINUOUS
 62
     5
 10
848.9524776840077
 20
-454.3245689798978
 30
0.0
 11
819.4524776840097
 21
-454.3245689798978
 31
0.0
  0
LINE
  5
552
  8
回07-寸法
  6
CONTINUOUS
 62
     5
 10
820.4524776840097
 20
-327.025068979898
 30
0.0
 11
820.4524776840097
 21
-452.8245689798978
 31
0.0
  0
INSERT
  5
553
  8
回07-寸法
  6
CONTINUOUS
 62
     5
  2
_OPEN
 10
820.4524776840097
 20
-325.525068979898
 30
0.0
 41
1.5
 42
1.5
 43
1.5
 50
90.0
  0
INSERT
  5
554
  8
回07-寸法
  6
CONTINUOUS
 62
     5
  2
_OPEN
 10
820.4524776840097
 20
-454.3245689798978
 30
0.0
 41
1.5
 42
1.5
 43
1.5
 50
270.0
  0
TEXT
  5
555
  8
回07-寸法
  6
CONTINUOUS
 62
     5
 10
819.7524776840097
 20
-411.5240315783231
 30
0.0
 40
4.0
  1
128.8(Active area)
 50
90.0
  0
POINT
  5
556
  8
DEFPOINTS
  6
CONTINUOUS
 62
     0
 10
848.9524776840077
 20
-325.525068979898
 30
0.0
  0
POINT
  5
557
  8
DEFPOINTS
  6
CONTINUOUS
 62
     0
 10
848.9524776840077
 20
-454.3245689798978
 30
0.0
  0
POINT
  5
558
  8
DEFPOINTS
  6
CONTINUOUS
 62
     0
 10
820.4524776840097
 20
-454.3245689798978
 30
0.0
  0
ENDBLK
  5
55A
  8
回04-下接
  6
CONTINUOUS
 62
     3
  0
BLOCK
  8
回04-下接
  2
*D6161
 70
     1
 10
0.0
 20
0.0
 30
0.0
  3
*D6161
  1

  0
LINE
  5
55C
  8
回07-寸法
  6
CONTINUOUS
 62
     5
 10
840.4524776840077
 20
-316.525068979898
 30
0.0
 11
792.4524776840097
 21
-316.525068979898
 31
0.0
  0
LINE
  5
55D
  8
回07-寸法
  6
CONTINUOUS
 62
     5
 10
840.4524776840077
 20
-467.0250689798979
 30
0.0
 11
792.4524776840097
 21
-467.0250689798979
 31
0.0
  0
LINE
  5
55E
  8
回07-寸法
  6
CONTINUOUS
 62
     5
 10
793.4524776840097
 20
-318.025068979898
 30
0.0
 11
793.4524776840097
 21
-465.525068979898
 31
0.0
  0
INSERT
  5
55F
  8
回07-寸法
  6
CONTINUOUS
 62
     5
  2
_OPEN
 10
793.4524776840097
 20
-316.525068979898
 30
0.0
 41
1.5
 42
1.5
 43
1.5
 50
90.0
  0
INSERT
  5
560
  8
回07-寸法
  6
CONTINUOUS
 62
     5
  2
_OPEN
 10
793.4524776840097
 20
-467.0250689798979
 30
0.0
 41
1.5
 42
1.5
 43
1.5
 50
270.0
  0
INSERT
  5
561
  8
回07-寸法
  6
CONTINUOUS
 62
     5
 66
     1
  2
*X9797
 10
0.0
 20
0.0
 30
0.0
  0
SEQEND
  5
7B6
  8
回04-下接
  6
CONTINUOUS
 62
     3
  0
POINT
  5
562
  8
DEFPOINTS
  6
CONTINUOUS
 62
     0
 10
840.4524776840077
 20
-316.525068979898
 30
0.0
  0
POINT
  5
563
  8
DEFPOINTS
  6
CONTINUOUS
 62
     0
 10
840.4524776840077
 20
-467.0250689798979
 30
0.0
  0
POINT
  5
564
  8
DEFPOINTS
  6
CONTINUOUS
 62
     0
 10
793.4524776840097
 20
-467.0250689798979
 30
0.0
  0
ENDBLK
  5
566
  8
回04-下接
  6
CONTINUOUS
 62
     3
  0
BLOCK
  8
回04-下接
  2
*D6262
 70
     1
 10
0.0
 20
0.0
 30
0.0
  3
*D6262
  1

  0
LINE
  5
568
  8
回07-寸法
  6
CONTINUOUS
 62
     5
 10
848.9524776840077
 20
-325.525068979898
 30
0.0
 11
848.9524776840077
 21
-296.1450689798979
 31
0.0
  0
LINE
  5
569
  8
回07-寸法
  6
CONTINUOUS
 62
     5
 10
1020.352477684007
 20
-325.5250689798971
 30
0.0
 11
1020.352477684007
 21
-296.1450689798979
 31
0.0
  0
LINE
  5
56A
  8
回07-寸法
  6
CONTINUOUS
 62
     5
 10
850.4524776840076
 20
-297.1450689798979
 30
0.0
 11
1018.852477684007
 21
-297.1450689798979
 31
0.0
  0
INSERT
  5
56B
  8
回07-寸法
  6
CONTINUOUS
 62
     5
  2
_OPEN
 10
848.9524776840077
 20
-297.1450689798979
 30
0.0
 41
1.5
 42
1.5
 43
1.5
 50
180.0
  0
INSERT
  5
56C
  8
回07-寸法
  6
CONTINUOUS
 62
     5
  2
_OPEN
 10
1020.352477684007
 20
-297.1450689798979
 30
0.0
 41
1.5
 42
1.5
 43
1.5
  0
TEXT
  5
56D
  8
回07-寸法
  6
CONTINUOUS
 62
     5
 10
913.2532650855825
 20
-296.4450689798979
 30
0.0
 40
4.0
  1
171.4(Active area)
  0
POINT
  5
56E
  8
DEFPOINTS
  6
CONTINUOUS
 62
     0
 10
848.9524776840077
 20
-325.525068979898
 30
0.0
  0
POINT
  5
56F
  8
DEFPOINTS
  6
CONTINUOUS
 62
     0
 10
1020.352477684007
 20
-325.5250689798971
 30
0.0
  0
POINT
  5
570
  8
DEFPOINTS
  6
CONTINUOUS
 62
     0
 10
1020.352477684007
 20
-297.1450689798979
 30
0.0
  0
ENDBLK
  5
572
  8
回04-下接
  6
CONTINUOUS
 62
     3
  0
BLOCK
  8
回04-下接
  2
*D6363
 70
     1
 10
0.0
 20
0.0
 30
0.0
  3
*D6363
  1

  0
LINE
  5
574
  8
回07-寸法
  6
CONTINUOUS
 62
     5
 10
846.4524776840077
 20
-323.025068979898
 30
0.0
 11
846.4524776840077
 21
-278.1450689798979
 31
0.0
  0
LINE
  5
575
  8
回07-寸法
  6
CONTINUOUS
 62
     5
 10
1022.852477684007
 20
-323.025068979898
 30
0.0
 11
1022.852477684007
 21
-278.1450689798979
 31
0.0
  0
LINE
  5
576
  8
回07-寸法
  6
CONTINUOUS
 62
     5
 10
847.9524776840076
 20
-279.1450689798979
 30
0.0
 11
1021.352477684007
 21
-279.1450689798979
 31
0.0
  0
INSERT
  5
577
  8
回07-寸法
  6
CONTINUOUS
 62
     5
  2
_OPEN
 10
846.4524776840077
 20
-279.1450689798979
 30
0.0
 41
1.5
 42
1.5
 43
1.5
 50
180.0
  0
INSERT
  5
578
  8
回07-寸法
  6
CONTINUOUS
 62
     5
  2
_OPEN
 10
1022.852477684007
 20
-279.1450689798979
 30
0.0
 41
1.5
 42
1.5
 43
1.5
  0
TEXT
  5
579
  8
回07-寸法
  6
CONTINUOUS
 62
     5
 10
928.6524776840074
 20
-278.6450689798979
 30
0.0
 40
4.0
  1
176.4
  0
POINT
  5
57A
  8
DEFPOINTS
  6
CONTINUOUS
 62
     0
 10
846.4524776840077
 20
-323.025068979898
 30
0.0
  0
POINT
  5
57B
  8
DEFPOINTS
  6
CONTINUOUS
 62
     0
 10
1022.852477684007
 20
-323.025068979898
 30
0.0
  0
POINT
  5
57C
  8
DEFPOINTS
  6
CONTINUOUS
 62
     0
 10
1022.852477684007
 20
-279.1450689798979
 30
0.0
  0
ENDBLK
  5
57E
  8
回04-下接
  6
CONTINUOUS
 62
     3
  0
BLOCK
  8
回04-下接
  2
*D6464
 70
     1
 10
0.0
 20
0.0
 30
0.0
  3
*D6464
  1

  0
LINE
  5
580
  8
回07-寸法
  6
CONTINUOUS
 62
     5
 10
846.9524776840076
 20
-323.525068979898
 30
0.0
 11
846.9524776840076
 21
-287.1450689798979
 31
0.0
  0
LINE
  5
581
  8
回07-寸法
  6
CONTINUOUS
 62
     5
 10
1022.352477684007
 20
-323.525068979898
 30
0.0
 11
1022.352477684007
 21
-287.1450689798979
 31
0.0
  0
LINE
  5
582
  8
回07-寸法
  6
CONTINUOUS
 62
     5
 10
848.4524776840077
 20
-288.1450689798979
 30
0.0
 11
1020.852477684007
 21
-288.1450689798979
 31
0.0
  0
INSERT
  5
583
  8
回07-寸法
  6
CONTINUOUS
 62
     5
  2
_OPEN
 10
846.9524776840076
 20
-288.1450689798979
 30
0.0
 41
1.5
 42
1.5
 43
1.5
 50
180.0
  0
INSERT
  5
584
  8
回07-寸法
  6
CONTINUOUS
 62
     5
  2
_OPEN
 10
1022.352477684007
 20
-288.1450689798979
 30
0.0
 41
1.5
 42
1.5
 43
1.5
  0
TEXT
  5
585
  8
回07-寸法
  6
CONTINUOUS
 62
     5
 10
911.4532650855824
 20
-286.6450689798978
 30
0.0
 40
4.0
  1
175.4(Viewing area)
  0
POINT
  5
586
  8
DEFPOINTS
  6
CONTINUOUS
 62
     0
 10
846.9524776840076
 20
-323.525068979898
 30
0.0
  0
POINT
  5
587
  8
DEFPOINTS
  6
CONTINUOUS
 62
     0
 10
1022.352477684007
 20
-323.525068979898
 30
0.0
  0
POINT
  5
588
  8
DEFPOINTS
  6
CONTINUOUS
 62
     0
 10
1022.352477684007
 20
-288.1450689798979
 30
0.0
  0
ENDBLK
  5
58A
  8
回04-下接
  6
CONTINUOUS
 62
     3
  0
BLOCK
  8
回04-下接
  2
*D6565
 70
     1
 10
0.0
 20
0.0
 30
0.0
  3
*D6565
  1

  0
LINE
  5
58C
  8
回07-寸法
  6
CONTINUOUS
 62
     5
 10
840.4524776840077
 20
-316.525068979898
 30
0.0
 11
840.4524776840077
 21
-269.1450689798979
 31
0.0
  0
LINE
  5
58D
  8
回07-寸法
  6
CONTINUOUS
 62
     5
 10
1028.852477684007
 20
-316.5250689798977
 30
0.0
 11
1028.852477684007
 21
-269.1450689798979
 31
0.0
  0
LINE
  5
58E
  8
回07-寸法
  6
CONTINUOUS
 62
     5
 10
841.9524776840077
 20
-270.1450689798979
 30
0.0
 11
1027.352477684007
 21
-270.1450689798979
 31
0.0
  0
INSERT
  5
58F
  8
回07-寸法
  6
CONTINUOUS
 62
     5
  2
_OPEN
 10
840.4524776840077
 20
-270.1450689798979
 30
0.0
 41
1.5
 42
1.5
 43
1.5
 50
180.0
  0
INSERT
  5
590
  8
回07-寸法
  6
CONTINUOUS
 62
     5
  2
_OPEN
 10
1028.852477684007
 20
-270.1450689798979
 30
0.0
 41
1.5
 42
1.5
 43
1.5
  0
INSERT
  5
591
  8
回07-寸法
  6
CONTINUOUS
 62
     5
 66
     1
  2
*X9898
 10
0.0
 20
0.0
 30
0.0
  0
SEQEND
  5
7BC
  8
回04-下接
  6
CONTINUOUS
 62
     3
  0
POINT
  5
592
  8
DEFPOINTS
  6
CONTINUOUS
 62
     0
 10
840.4524776840077
 20
-316.525068979898
 30
0.0
  0
POINT
  5
593
  8
DEFPOINTS
  6
CONTINUOUS
 62
     0
 10
1028.852477684007
 20
-316.5250689798977
 30
0.0
  0
POINT
  5
594
  8
DEFPOINTS
  6
CONTINUOUS
 62
     0
 10
1028.852477684007
 20
-270.1450689798979
 30
0.0
  0
ENDBLK
  5
596
  8
回04-下接
  6
CONTINUOUS
 62
     3
  0
BLOCK
  8
回04-下接
  2
*D6666
 70
     1
 10
0.0
 20
0.0
 30
0.0
  3
*D6666
  1

  0
LINE
  5
598
  8
回07-寸法
  6
CONTINUOUS
 62
     5
 10
846.9524776840076
 20
-456.3250689798977
 30
0.0
 11
810.4524776840076
 21
-456.3250689798977
 31
0.0
  0
LINE
  5
599
  8
回07-寸法
  6
CONTINUOUS
 62
     5
 10
840.4524776840077
 20
-467.0250689798979
 30
0.0
 11
810.4524776840076
 21
-467.0250689798979
 31
0.0
  0
LINE
  5
59A
  8
回07-寸法
  6
CONTINUOUS
 62
     5
 10
811.4524776840077
 20
-468.5250689798978
 30
0.0
 11
811.4524776840077
 21
-478.6250689798983
 31
0.0
  0
LINE
  5
59B
  8
回07-寸法
  6
CONTINUOUS
 62
     5
 10
811.4524776840077
 20
-456.3250689798977
 30
0.0
 11
811.4524776840077
 21
-467.0250689798979
 31
0.0
  0
LINE
  5
59C
  8
回07-寸法
  6
CONTINUOUS
 62
     5
 10
811.4524776840077
 20
-454.8250689798978
 30
0.0
 11
811.4524776840077
 21
-453.3250689798978
 31
0.0
  0
INSERT
  5
59D
  8
回07-寸法
  6
CONTINUOUS
 62
     5
  2
_OPEN
 10
811.4524776840077
 20
-456.3250689798977
 30
0.0
 41
1.5
 42
1.5
 43
1.5
 50
270.0
  0
INSERT
  5
59E
  8
回07-寸法
  6
CONTINUOUS
 62
     5
  2
_OPEN
 10
811.4524776840077
 20
-467.0250689798979
 30
0.0
 41
1.5
 42
1.5
 43
1.5
 50
90.0
  0
TEXT
  5
59F
  8
回07-寸法
  6
CONTINUOUS
 62
     5
 10
810.9524776840077
 20
-478.7250689798981
 30
0.0
 40
4.0
  1
10.7
 50
90.0
  0
POINT
  5
5A0
  8
DEFPOINTS
  6
CONTINUOUS
 62
     0
 10
846.9524776840076
 20
-456.3250689798977
 30
0.0
  0
POINT
  5
5A1
  8
DEFPOINTS
  6
CONTINUOUS
 62
     0
 10
840.4524776840077
 20
-467.0250689798979
 30
0.0
  0
POINT
  5
5A2
  8
DEFPOINTS
  6
CONTINUOUS
 62
     0
 10
811.4524776840077
 20
-467.0250689798979
 30
0.0
  0
ENDBLK
  5
5A4
  8
回04-下接
  6
CONTINUOUS
 62
     3
  0
BLOCK
  8
回04-下接
  2
*D6767
 70
     1
 10
0.0
 20
0.0
 30
0.0
  3
*D6767
  1

  0
LINE
  5
5A6
  8
回07-寸法
  6
CONTINUOUS
 62
     5
 10
840.4524776840077
 20
-467.0250689798979
 30
0.0
 11
840.4524776840077
 21
-561.7305243815203
 31
0.0
  0
LINE
  5
5A7
  8
回07-寸法
  6
CONTINUOUS
 62
     5
 10
921.1513523685589
 20
-536.9250931653041
 30
0.0
 11
921.1513523685589
 21
-561.7305243815203
 31
0.0
  0
LINE
  5
5A8
  8
回07-寸法
  6
CONTINUOUS
 62
     5
 10
841.9524776840077
 20
-560.7305243815203
 30
0.0
 11
919.651352368559
 21
-560.7305243815203
 31
0.0
  0
INSERT
  5
5A9
  8
回07-寸法
  6
CONTINUOUS
 62
     5
  2
_OPEN
 10
840.4524776840077
 20
-560.7305243815203
 30
0.0
 41
1.5
 42
1.5
 43
1.5
 50
180.0
  0
INSERT
  5
5AA
  8
回07-寸法
  6
CONTINUOUS
 62
     5
  2
_OPEN
 10
921.1513523685589
 20
-560.7305243815203
 30
0.0
 41
1.5
 42
1.5
 43
1.5
  0
TEXT
  5
5AB
  8
回07-寸法
  6
CONTINUOUS
 62
     5
 10
879.7269150262833
 20
-560.0305243815204
 30
0.0
 40
4.0
  1
(80.7)
  0
POINT
  5
5AC
  8
DEFPOINTS
  6
CONTINUOUS
 62
     0
 10
840.4524776840077
 20
-467.0250689798979
 30
0.0
  0
POINT
  5
5AD
  8
DEFPOINTS
  6
CONTINUOUS
 62
     0
 10
921.1513523685589
 20
-536.9250931653041
 30
0.0
  0
POINT
  5
5AE
  8
DEFPOINTS
  6
CONTINUOUS
 62
     0
 10
921.1513523685589
 20
-560.7305243815203
 30
0.0
  0
ENDBLK
  5
5B0
  8
回04-下接
  6
CONTINUOUS
 62
     3
  0
BLOCK
  8
回04-下接
  2
*D6868
 70
     1
 10
0.0
 20
0.0
 30
0.0
  3
*D6868
  1

  0
LINE
  5
5B2
  8
回07-寸法
  6
CONTINUOUS
 62
     5
 10
954.9024776840079
 20
-467.0250447944918
 30
0.0
 11
968.2046920492314
 21
-467.0250447944918
 31
0.0
  0
LINE
  5
5B4
  8
回07-寸法
  6
CONTINUOUS
 62
     5
 10
950.727472836048
 20
-474.2392787407682
 30
0.0
 11
968.2046920492314
 21
-474.2392787407682
 31
0.0
  0
LINE
  5
5B5
  8
回07-寸法
  6
CONTINUOUS
 62
     5
 10
967.2046920492315
 20
-475.7392787407682
 30
0.0
 11
967.2046920492315
 21
-485.8392787407681
 31
0.0
  0
LINE
  5
5B6
  8
回07-寸法
  6
CONTINUOUS
 62
     5
 10
967.2046920492315
 20
-467.0250447944918
 30
0.0
 11
967.2046920492315
 21
-474.2392787407682
 31
0.0
  0
LINE
  5
5B7
  8
回07-寸法
  6
CONTINUOUS
 62
     5
 10
967.2046920492315
 20
-465.5250447944919
 30
0.0
 11
967.2046920492315
 21
-464.0250447944918
 31
0.0
  0
INSERT
  5
5B8
  8
回07-寸法
  6
CONTINUOUS
 62
     5
  2
_OPEN
 10
967.2046920492315
 20
-467.0250447944918
 30
0.0
 41
1.5
 42
1.5
 43
1.5
 50
270.0
  0
INSERT
  5
5B9
  8
回07-寸法
  6
CONTINUOUS
 62
     5
  2
_OPEN
 10
967.2046920492315
 20
-474.2392787407682
 30
0.0
 41
1.5
 42
1.5
 43
1.5
 50
90.0
  0
TEXT
  5
5BA
  8
回07-寸法
  6
CONTINUOUS
 62
     5
 10
966.7046920492316
 20
-485.9392787407681
 30
0.0
 40
4.0
  1
7.21
 50
90.0
  0
POINT
  5
5BB
  8
DEFPOINTS
  6
CONTINUOUS
 62
     0
 10
954.9024776840079
 20
-467.0250447944918
 30
0.0
  0
POINT
  5
5BC
  8
DEFPOINTS
  6
CONTINUOUS
 62
     0
 10
950.727472836048
 20
-474.2392787407682
 30
0.0
  0
POINT
  5
5BD
  8
DEFPOINTS
  6
CONTINUOUS
 62
     0
 10
967.2046920492315
 20
-474.2392787407682
 30
0.0
  0
ENDBLK
  5
5BF
  8
回04-下接
  6
CONTINUOUS
 62
     3
  0
BLOCK
  8
回04-下接
  2
*D6969
 70
     1
 10
0.0
 20
0.0
 30
0.0
  3
*D6969
  1

  0
LINE
  5
5C1
  8
回07-寸法
  6
CONTINUOUS
 62
     5
 10
954.9024776840079
 20
-467.0250931653038
 30
0.0
 11
960.7151503639297
 21
-467.0250931653038
 31
0.0
  0
LINE
  5
5C2
  8
回07-寸法
  6
CONTINUOUS
 62
     5
 10
954.8263572165193
 20
-469.9250931653038
 30
0.0
 11
960.7151503639297
 21
-469.9250931653038
 31
0.0
  0
LINE
  5
5C3
  8
回07-寸法
  6
CONTINUOUS
 62
     5
 10
959.7151503639295
 20
-471.4250931653038
 30
0.0
 11
959.7151503639295
 21
-482.7202626215147
 31
0.0
  0
LINE
  5
5C4
  8
回07-寸法
  6
CONTINUOUS
 62
     5
 10
959.7151503639295
 20
-467.0250931653038
 30
0.0
 11
959.7151503639295
 21
-469.9250931653038
 31
0.0
  0
LINE
  5
5C5
  8
回07-寸法
  6
CONTINUOUS
 62
     5
 10
959.7151503639295
 20
-465.5250931653038
 30
0.0
 11
959.7151503639295
 21
-464.0250931653039
 31
0.0
  0
INSERT
  5
5C6
  8
回07-寸法
  6
CONTINUOUS
 62
     5
  2
_OPEN
 10
959.7151503639295
 20
-467.0250931653038
 30
0.0
 41
1.5
 42
1.5
 43
1.5
 50
270.0
  0
INSERT
  5
5C7
  8
回07-寸法
  6
CONTINUOUS
 62
     5
  2
_OPEN
 10
959.7151503639295
 20
-469.9250931653038
 30
0.0
 41
1.5
 42
1.5
 43
1.5
 50
90.0
  0
TEXT
  5
5C8
  8
回07-寸法
  6
CONTINUOUS
 62
     5
 10
959.2151503639296
 20
-482.8202626215149
 30
0.0
 40
4.0
  1
2.9
 50
90.0
  0
POINT
  5
5C9
  8
DEFPOINTS
  6
CONTINUOUS
 62
     0
 10
954.9024776840079
 20
-467.0250931653038
 30
0.0
  0
POINT
  5
5CA
  8
DEFPOINTS
  6
CONTINUOUS
 62
     0
 10
954.8263572165193
 20
-469.9250931653038
 30
0.0
  0
POINT
  5
5CB
  8
DEFPOINTS
  6
CONTINUOUS
 62
     0
 10
959.7151503639295
 20
-469.9250931653038
 30
0.0
  0
ENDBLK
  5
5CD
  8
回04-下接
  6
CONTINUOUS
 62
     3
  0
BLOCK
  8
回04-下接
  2
*D7070
 70
     1
 10
0.0
 20
0.0
 30
0.0
  3
*D7070
  1

  0
LINE
  5
5CF
  8
回07-寸法
  6
CONTINUOUS
 62
     5
 10
921.0752319010699
 20
-476.7370281098711
 30
0.0
 11
904.4368549250863
 21
-476.7370281098711
 31
0.0
  0
LINE
  5
5D1
  8
回07-寸法
  6
CONTINUOUS
 62
     5
 10
914.4024776840074
 20
-467.0250931653042
 30
0.0
 11
904.4368549250863
 21
-467.0250931653042
 31
0.0
  0
LINE
  5
5D2
  8
回07-寸法
  6
CONTINUOUS
 62
     5
 10
905.4368549250863
 20
-477.737028109871
 30
0.0
 11
905.4368549250863
 21
-488.3332239090342
 31
0.0
  0
LINE
  5
5D3
  8
回07-寸法
  6
CONTINUOUS
 62
     5
 10
905.4368549250863
 20
-476.7370281098711
 30
0.0
 11
905.4368549250863
 21
-467.0250931653042
 31
0.0
  0
LINE
  5
5D4
  8
回07-寸法
  6
CONTINUOUS
 62
     5
 10
905.4368549250863
 20
-466.0250931653041
 30
0.0
 11
905.4368549250863
 21
-465.025093165304
 31
0.0
  0
INSERT
  5
5D5
  8
回07-寸法
  6
CONTINUOUS
 62
     5
  2
_OPEN
 10
905.4368549250863
 20
-476.7370281098711
 30
0.0
 50
90.0
  0
INSERT
  5
5D6
  8
回07-寸法
  6
CONTINUOUS
 62
     5
  2
_OPEN
 10
905.4368549250863
 20
-467.0250931653042
 30
0.0
 50
270.0
  0
TEXT
  5
5D7
  8
回07-寸法
  6
CONTINUOUS
 62
     5
 10
904.9368549250862
 20
-488.447665383142
 30
0.0
 40
4.0
  1
9.71
 50
90.0
  0
POINT
  5
5D8
  8
DEFPOINTS
  6
CONTINUOUS
 62
     0
 10
921.0752319010699
 20
-476.7370281098711
 30
0.0
  0
POINT
  5
5D9
  8
DEFPOINTS
  6
CONTINUOUS
 62
     0
 10
914.4024776840074
 20
-467.0250931653042
 30
0.0
  0
POINT
  5
5DA
  8
DEFPOINTS
  6
CONTINUOUS
 62
     0
 10
905.4368549250863
 20
-467.0250931653042
 30
0.0
  0
ENDBLK
  5
5DC
  8
回04-下接
  6
CONTINUOUS
 62
     3
  0
BLOCK
  8
回04-下接
  2
*D7171
 70
     1
 10
0.0
 20
0.0
 30
0.0
  3
*D7171
  1

  0
LINE
  5
5DE
  8
回07-寸法
  6
CONTINUOUS
 62
     5
 10
914.4785981514962
 20
-469.9250931653041
 30
0.0
 11
909.9913159641111
 21
-469.9250931653041
 31
0.0
  0
LINE
  5
5DF
  8
回07-寸法
  6
CONTINUOUS
 62
     5
 10
914.4024776840074
 20
-467.0250931653042
 30
0.0
 11
909.9913159641111
 21
-467.0250931653042
 31
0.0
  0
LINE
  5
5E0
  8
回07-寸法
  6
CONTINUOUS
 62
     5
 10
910.9913159641111
 20
-470.9250931653041
 30
0.0
 11
910.9913159641111
 21
-486.3728998020639
 31
0.0
  0
LINE
  5
5E1
  8
回07-寸法
  6
CONTINUOUS
 62
     5
 10
910.9913159641111
 20
-469.9250931653041
 30
0.0
 11
910.9913159641111
 21
-467.0250931653042
 31
0.0
  0
LINE
  5
5E2
  8
回07-寸法
  6
CONTINUOUS
 62
     5
 10
910.9913159641111
 20
-466.0250931653041
 30
0.0
 11
910.9913159641111
 21
-465.025093165304
 31
0.0
  0
INSERT
  5
5E3
  8
回07-寸法
  6
CONTINUOUS
 62
     5
  2
_OPEN
 10
910.9913159641111
 20
-469.9250931653041
 30
0.0
 50
90.0
  0
INSERT
  5
5E4
  8
回07-寸法
  6
CONTINUOUS
 62
     5
  2
_OPEN
 10
910.9913159641111
 20
-467.0250931653042
 30
0.0
 50
270.0
  0
TEXT
  5
5E5
  8
回07-寸法
  6
CONTINUOUS
 62
     5
 10
910.4913159641112
 20
-486.4728998020638
 30
0.0
 40
4.0
  1
2.9
 50
90.0
  0
POINT
  5
5E6
  8
DEFPOINTS
  6
CONTINUOUS
 62
     0
 10
914.4785981514962
 20
-469.9250931653041
 30
0.0
  0
POINT
  5
5E7
  8
DEFPOINTS
  6
CONTINUOUS
 62
     0
 10
914.4024776840074
 20
-467.0250931653042
 30
0.0
  0
POINT
  5
5E8
  8
DEFPOINTS
  6
CONTINUOUS
 62
     0
 10
910.9913159641111
 20
-467.0250931653042
 30
0.0
  0
ENDBLK
  5
5EA
  8
回04-下接
  6
CONTINUOUS
 62
     3
  0
BLOCK
  8
回04-下接
  2
*D7272
 70
     1
 10
0.0
 20
0.0
 30
0.0
  3
*D7272
  1

  0
LINE
  5
5EC
  8
回07-寸法
  6
CONTINUOUS
 62
     5
 10
942.1513523685593
 20
-536.9250931653043
 30
0.0
 11
942.1513523685593
 21
-573.8124283834508
 31
0.0
  0
LINE
  5
5ED
  8
回07-寸法
  6
CONTINUOUS
 62
     5
 10
950.6513523685594
 20
-536.9250931653043
 30
0.0
 11
950.6513523685594
 21
-573.8124283834508
 31
0.0
  0
LINE
  5
5EE
  8
回07-寸法
  6
CONTINUOUS
 62
     5
 10
952.1513523685595
 20
-572.8124283834509
 30
0.0
 11
966.5913523685594
 21
-572.8124283834509
 31
0.0
  0
LINE
  5
5EF
  8
回07-寸法
  6
CONTINUOUS
 62
     5
 10
942.1513523685593
 20
-572.8124283834509
 30
0.0
 11
950.6513523685594
 21
-572.8124283834509
 31
0.0
  0
LINE
  5
5F0
  8
回07-寸法
  6
CONTINUOUS
 62
     5
 10
940.6513523685594
 20
-572.8124283834509
 30
0.0
 11
939.1513523685594
 21
-572.8124283834509
 31
0.0
  0
INSERT
  5
5F1
  8
回07-寸法
  6
CONTINUOUS
 62
     5
  2
_OPEN
 10
942.1513523685593
 20
-572.8124283834509
 30
0.0
 41
1.5
 42
1.5
 43
1.5
  0
INSERT
  5
5F2
  8
回07-寸法
  6
CONTINUOUS
 62
     5
  2
_OPEN
 10
950.6513523685594
 20
-572.8124283834509
 30
0.0
 41
1.5
 42
1.5
 43
1.5
 50
180.0
  0
INSERT
  5
5F3
  8
回07-寸法
  6
CONTINUOUS
 62
     5
 66
     1
  2
*X9999
 10
0.0
 20
0.0
 30
0.0
  0
SEQEND
  5
7C2
  8
回04-下接
  6
CONTINUOUS
 62
     3
  0
POINT
  5
5F4
  8
DEFPOINTS
  6
CONTINUOUS
 62
     0
 10
942.1513523685593
 20
-536.9250931653043
 30
0.0
  0
POINT
  5
5F5
  8
DEFPOINTS
  6
CONTINUOUS
 62
     0
 10
950.6513523685594
 20
-536.9250931653043
 30
0.0
  0
POINT
  5
5F6
  8
DEFPOINTS
  6
CONTINUOUS
 62
     0
 10
950.6513523685594
 20
-572.8124283834509
 30
0.0
  0
ENDBLK
  5
5F8
  8
回04-下接
  6
CONTINUOUS
 62
     3
  0
BLOCK
  8
回04-下接
  2
*D7373
 70
     1
 10
0.0
 20
0.0
 30
0.0
  3
*D7373
  1

  0
LINE
  5
5FA
  8
回07-寸法
  6
CONTINUOUS
 62
     5
 10
840.4524776840077
 20
-467.0250689798979
 30
0.0
 11
840.4524776840077
 21
-573.8124283834508
 31
0.0
  0
LINE
  5
5FB
  8
回07-寸法
  6
CONTINUOUS
 62
     5
 10
942.1513523685593
 20
-536.9250931653043
 30
0.0
 11
942.1513523685593
 21
-573.8124283834508
 31
0.0
  0
LINE
  5
5FC
  8
回07-寸法
  6
CONTINUOUS
 62
     5
 10
841.9524776840077
 20
-572.8124283834509
 30
0.0
 11
940.6513523685594
 21
-572.8124283834509
 31
0.0
  0
INSERT
  5
5FD
  8
回07-寸法
  6
CONTINUOUS
 62
     5
  2
_OPEN
 10
840.4524776840077
 20
-572.8124283834509
 30
0.0
 41
1.5
 42
1.5
 43
1.5
 50
180.0
  0
INSERT
  5
5FE
  8
回07-寸法
  6
CONTINUOUS
 62
     5
  2
_OPEN
 10
942.1513523685593
 20
-572.8124283834509
 30
0.0
 41
1.5
 42
1.5
 43
1.5
  0
TEXT
  5
5FF
  8
回07-寸法
  6
CONTINUOUS
 62
     5
 10
884.3019150262836
 20
-572.1124283834508
 30
0.0
 40
4.0
  1
(101.7)
  0
POINT
  5
600
  8
DEFPOINTS
  6
CONTINUOUS
 62
     0
 10
840.4524776840077
 20
-467.0250689798979
 30
0.0
  0
POINT
  5
601
  8
DEFPOINTS
  6
CONTINUOUS
 62
     0
 10
942.1513523685593
 20
-536.9250931653043
 30
0.0
  0
POINT
  5
602
  8
DEFPOINTS
  6
CONTINUOUS
 62
     0
 10
942.1513523685593
 20
-572.8124283834509
 30
0.0
  0
ENDBLK
  5
604
  8
回04-下接
  6
CONTINUOUS
 62
     3
  0
BLOCK
  8
回04-下接
  2
*D7474
 70
     1
 10
0.0
 20
0.0
 30
0.0
  3
*D7474
  1

  0
LINE
  5
606
  8
回07-寸法
  6
CONTINUOUS
 62
     5
 10
921.1513523685589
 20
-536.9250931653041
 30
0.0
 11
921.1513523685589
 21
-561.7305243815203
 31
0.0
  0
LINE
  5
607
  8
回07-寸法
  6
CONTINUOUS
 62
     5
 10
930.6513523685593
 20
-536.9250931653043
 30
0.0
 11
930.6513523685593
 21
-561.7305243815203
 31
0.0
  0
LINE
  5
608
  8
回07-寸法
  6
CONTINUOUS
 62
     5
 10
919.651352368559
 20
-560.7305243815203
 30
0.0
 11
905.1285096560842
 21
-560.7305243815203
 31
0.0
  0
LINE
  5
609
  8
回07-寸法
  6
CONTINUOUS
 62
     5
 10
921.1513523685589
 20
-560.7305243815203
 30
0.0
 11
930.6513523685593
 21
-560.7305243815203
 31
0.0
  0
LINE
  5
60A
  8
回07-寸法
  6
CONTINUOUS
 62
     5
 10
932.1513523685593
 20
-560.7305243815203
 30
0.0
 11
933.6513523685592
 21
-560.7305243815203
 31
0.0
  0
INSERT
  5
60B
  8
回07-寸法
  6
CONTINUOUS
 62
     5
  2
_OPEN
 10
921.1513523685589
 20
-560.7305243815203
 30
0.0
 41
1.5
 42
1.5
 43
1.5
  0
INSERT
  5
60C
  8
回07-寸法
  6
CONTINUOUS
 62
     5
  2
_OPEN
 10
930.6513523685593
 20
-560.7305243815203
 30
0.0
 41
1.5
 42
1.5
 43
1.5
 50
180.0
  0
INSERT
  5
60D
  8
回07-寸法
  6
CONTINUOUS
 62
     5
 66
     1
  2
*X100100
 10
0.0
 20
0.0
 30
0.0
  0
SEQEND
  5
7C8
  8
回04-下接
  6
CONTINUOUS
 62
     3
  0
POINT
  5
60E
  8
DEFPOINTS
  6
CONTINUOUS
 62
     0
 10
921.1513523685589
 20
-536.9250931653041
 30
0.0
  0
POINT
  5
60F
  8
DEFPOINTS
  6
CONTINUOUS
 62
     0
 10
930.6513523685593
 20
-536.9250931653043
 30
0.0
  0
POINT
  5
610
  8
DEFPOINTS
  6
CONTINUOUS
 62
     0
 10
930.6513523685593
 20
-560.7305243815203
 30
0.0
  0
ENDBLK
  5
612
  8
回04-下接
  6
CONTINUOUS
 62
     3
  0
BLOCK
  8
回04-下接
  2
*D7575
 70
     1
 10
0.0
 20
0.0
 30
0.0
  3
*D7575
  1

  0
LINE
  5
614
  8
回07-寸法
  6
CONTINUOUS
 62
     5
 10
954.9024776840079
 20
-467.0250447944916
 30
0.0
 11
991.9595205328976
 21
-467.0250447944916
 31
0.0
  0
LINE
  5
615
  8
回07-寸法
  6
CONTINUOUS
 62
     5
 10
950.5513523685593
 20
-537.0250931653044
 30
0.0
 11
991.9595205328976
 21
-537.0250931653044
 31
0.0
  0
LINE
  5
616
  8
回07-寸法
  6
CONTINUOUS
 62
     5
 10
990.9595205328976
 20
-468.5250447944916
 30
0.0
 11
990.9595205328976
 21
-535.5250931653046
 31
0.0
  0
INSERT
  5
617
  8
回07-寸法
  6
CONTINUOUS
 62
     5
  2
_OPEN
 10
990.9595205328976
 20
-467.0250447944916
 30
0.0
 41
1.5
 42
1.5
 43
1.5
 50
90.0
  0
INSERT
  5
618
  8
回07-寸法
  6
CONTINUOUS
 62
     5
  2
_OPEN
 10
990.9595205328976
 20
-537.0250931653044
 30
0.0
 41
1.5
 42
1.5
 43
1.5
 50
270.0
  0
INSERT
  5
619
  8
回07-寸法
  6
CONTINUOUS
 62
     5
 66
     1
  2
*X101101
 10
0.0
 20
0.0
 30
0.0
  0
SEQEND
  5
7CE
  8
回04-下接
  6
CONTINUOUS
 62
     3
  0
POINT
  5
61A
  8
DEFPOINTS
  6
CONTINUOUS
 62
     0
 10
954.9024776840079
 20
-467.0250447944916
 30
0.0
  0
POINT
  5
61B
  8
DEFPOINTS
  6
CONTINUOUS
 62
     0
 10
950.5513523685593
 20
-537.0250931653044
 30
0.0
  0
POINT
  5
61C
  8
DEFPOINTS
  6
CONTINUOUS
 62
     0
 10
990.9595205328976
 20
-537.0250931653044
 30
0.0
  0
ENDBLK
  5
61E
  8
回04-下接
  6
CONTINUOUS
 62
     3
  0
BLOCK
  8
回04-下接
  2
*D7676
 70
     1
 10
0.0
 20
0.0
 30
0.0
  3
*D7676
  1

  0
LINE
  5
620
  8
回07-寸法
  6
CONTINUOUS
 62
     5
 10
921.6513523685588
 20
-537.0250931653044
 30
0.0
 11
882.1624548083768
 21
-537.0250931653044
 31
0.0
  0
LINE
  5
621
  8
回07-寸法
  6
CONTINUOUS
 62
     5
 10
914.4024776840074
 20
-467.0250931653038
 30
0.0
 11
882.1624548083768
 21
-467.0250931653038
 31
0.0
  0
LINE
  5
622
  8
回07-寸法
  6
CONTINUOUS
 62
     5
 10
883.1624548083768
 20
-535.5250931653044
 30
0.0
 11
883.1624548083768
 21
-468.5250931653039
 31
0.0
  0
INSERT
  5
623
  8
回07-寸法
  6
CONTINUOUS
 62
     5
  2
_OPEN
 10
883.1624548083768
 20
-537.0250931653044
 30
0.0
 41
1.5
 42
1.5
 43
1.5
 50
270.0
  0
INSERT
  5
624
  8
回07-寸法
  6
CONTINUOUS
 62
     5
  2
_OPEN
 10
883.1624548083768
 20
-467.0250931653038
 30
0.0
 41
1.5
 42
1.5
 43
1.5
 50
90.0
  0
INSERT
  5
625
  8
回07-寸法
  6
CONTINUOUS
 62
     5
 66
     1
  2
*X102102
 10
0.0
 20
0.0
 30
0.0
  0
SEQEND
  5
7D4
  8
回04-下接
  6
CONTINUOUS
 62
     3
  0
POINT
  5
626
  8
DEFPOINTS
  6
CONTINUOUS
 62
     0
 10
921.6513523685588
 20
-537.0250931653044
 30
0.0
  0
POINT
  5
627
  8
DEFPOINTS
  6
CONTINUOUS
 62
     0
 10
914.4024776840074
 20
-467.0250931653038
 30
0.0
  0
POINT
  5
628
  8
DEFPOINTS
  6
CONTINUOUS
 62
     0
 10
883.1624548083768
 20
-467.0250931653038
 30
0.0
  0
ENDBLK
  5
62A
  8
回04-下接
  6
CONTINUOUS
 62
     3
  0
BLOCK
  8
回04-下接
  2
*X7777
 70
     1
 10
0.0
 20
0.0
 30
0.0
  3
*X7777
  1

  0
INSERT
  5
62F
  8
回08-記事
  6
CONTINUOUS
 62
     5
  2
_OPEN
 10
1100.872999415429
 20
-504.3982555006441
 30
0.0
 41
1.999999999999999
 42
1.999999999999999
 43
2.0
 50
342.7170464678791
  0
LINE
  5
630
  8
回08-記事
  6
CONTINUOUS
 62
     5
 10
1098.963300952783
 20
-503.8040738939218
 30
0.0
 11
1085.758632199088
 21
-499.6955868998888
 31
0.0
  0
LINE
  5
631
  8
回08-記事
  6
CONTINUOUS
 62
     5
 10
1085.758632199088
 20
-499.6955868998888
 30
0.0
 11
1051.658632199089
 21
-499.6955868998888
 31
0.0
  0
ENDBLK
  5
633
  8
回04-下接
  6
CONTINUOUS
 62
     3
  0
BLOCK
  8
回04-下接
  2
*X7878
 70
     1
 10
0.0
 20
0.0
 30
0.0
  3
*X7878
  1

  0
INSERT
  5
636
  8
回08-記事
  6
CONTINUOUS
 62
     5
  2
_OPEN
 10
1103.501034497812
 20
-504.5729315326394
 30
0.0
 41
2.0
 42
2.0
 43
2.0
 50
224.0506723783502
  0
LINE
  5
637
  8
回08-記事
  6
CONTINUOUS
 62
     5
 10
1104.938484824502
 20
-503.1823429672118
 30
0.0
 11
1108.542741879875
 21
-499.6955868998888
 31
0.0
  0
LINE
  5
638
  8
回08-記事
  6
CONTINUOUS
 62
     5
 10
1108.542741879875
 20
-499.6955868998888
 30
0.0
 11
1131.842741879874
 21
-499.6955868998888
 31
0.0
  0
ENDBLK
  5
63A
  8
回04-下接
  6
CONTINUOUS
 62
     3
  0
BLOCK
  8
回04-下接
  2
*X7979
 70
     1
 10
0.0
 20
0.0
 30
0.0
  3
*X7979
  1

  0
LINE
  5
647
  8
回08-記事
  6
CONTINUOUS
 62
     7
 10
1103.037601508602
 20
-488.0991709430323
 30
0.0
 11
1103.737601508602
 21
-487.3991709430321
 31
0.0
1001
GRADIENTCOLOR1ACI
1070
     5
1001
GRADIENTCOLOR2ACI
1070
     2
1001
ACAD
1010
0.0
1020
0.0
1030
0.0
  0
LINE
  5
648
  8
回08-記事
  6
CONTINUOUS
 62
     7
 10
1103.037601508602
 20
-489.4462093611926
 30
0.0
 11
1103.737601508602
 21
-488.7462093611926
 31
0.0
1001
GRADIENTCOLOR1ACI
1070
     5
1001
GRADIENTCOLOR2ACI
1070
     2
1001
ACAD
1010
0.0
1020
0.0
1030
0.0
  0
LINE
  5
649
  8
回08-記事
  6
CONTINUOUS
 62
     7
 10
1103.037601508602
 20
-490.7932477793528
 30
0.0
 11
1103.737601508602
 21
-490.0932477793528
 31
0.0
1001
GRADIENTCOLOR1ACI
1070
     5
1001
GRADIENTCOLOR2ACI
1070
     2
1001
ACAD
1010
0.0
1020
0.0
1030
0.0
  0
LINE
  5
64A
  8
回08-記事
  6
CONTINUOUS
 62
     7
 10
1103.037601508602
 20
-492.1402861975131
 30
0.0
 11
1103.737601508602
 21
-491.4402861975132
 31
0.0
1001
GRADIENTCOLOR1ACI
1070
     5
1001
GRADIENTCOLOR2ACI
1070
     2
1001
ACAD
1010
0.0
1020
0.0
1030
0.0
  0
LINE
  5
64B
  8
回08-記事
  6
CONTINUOUS
 62
     7
 10
1103.037601508602
 20
-493.4873246156735
 30
0.0
 11
1103.737601508602
 21
-492.7873246156734
 31
0.0
1001
GRADIENTCOLOR1ACI
1070
     5
1001
GRADIENTCOLOR2ACI
1070
     2
1001
ACAD
1010
0.0
1020
0.0
1030
0.0
  0
LINE
  5
64C
  8
回08-記事
  6
CONTINUOUS
 62
     7
 10
1103.037601508602
 20
-494.8343630338335
 30
0.0
 11
1103.737601508602
 21
-494.1343630338336
 31
0.0
1001
GRADIENTCOLOR1ACI
1070
     5
1001
GRADIENTCOLOR2ACI
1070
     2
1001
ACAD
1010
0.0
1020
0.0
1030
0.0
  0
LINE
  5
64D
  8
回08-記事
  6
CONTINUOUS
 62
     7
 10
1103.037601508602
 20
-496.1814014519941
 30
0.0
 11
1103.737601508602
 21
-495.481401451994
 31
0.0
1001
GRADIENTCOLOR1ACI
1070
     5
1001
GRADIENTCOLOR2ACI
1070
     2
1001
ACAD
1010
0.0
1020
0.0
1030
0.0
  0
LINE
  5
64E
  8
回08-記事
  6
CONTINUOUS
 62
     7
 10
1103.037601508602
 20
-497.5284398701544
 30
0.0
 11
1103.737601508602
 21
-496.8284398701543
 31
0.0
1001
GRADIENTCOLOR1ACI
1070
     5
1001
GRADIENTCOLOR2ACI
1070
     2
1001
ACAD
1010
0.0
1020
0.0
1030
0.0
  0
LINE
  5
64F
  8
回08-記事
  6
CONTINUOUS
 62
     7
 10
1103.037601508602
 20
-498.8754782883149
 30
0.0
 11
1103.737601508602
 21
-498.1754782883148
 31
0.0
1001
GRADIENTCOLOR1ACI
1070
     5
1001
GRADIENTCOLOR2ACI
1070
     2
1001
ACAD
1010
0.0
1020
0.0
1030
0.0
  0
LINE
  5
650
  8
回08-記事
  6
CONTINUOUS
 62
     7
 10
1103.037601508602
 20
-500.2225167064749
 30
0.0
 11
1103.737601508602
 21
-499.522516706475
 31
0.0
1001
GRADIENTCOLOR1ACI
1070
     5
1001
GRADIENTCOLOR2ACI
1070
     2
1001
ACAD
1010
0.0
1020
0.0
1030
0.0
  0
LINE
  5
651
  8
回08-記事
  6
CONTINUOUS
 62
     7
 10
1103.037601508602
 20
-501.5695551246351
 30
0.0
 11
1103.737601508602
 21
-500.8695551246352
 31
0.0
1001
GRADIENTCOLOR1ACI
1070
     5
1001
GRADIENTCOLOR2ACI
1070
     2
1001
ACAD
1010
0.0
1020
0.0
1030
0.0
  0
LINE
  5
652
  8
回08-記事
  6
CONTINUOUS
 62
     7
 10
1103.037601508602
 20
-502.9165935427958
 30
0.0
 11
1103.737601508602
 21
-502.2165935427956
 31
0.0
1001
GRADIENTCOLOR1ACI
1070
     5
1001
GRADIENTCOLOR2ACI
1070
     2
1001
ACAD
1010
0.0
1020
0.0
1030
0.0
  0
LINE
  5
653
  8
回08-記事
  6
CONTINUOUS
 62
     7
 10
1103.037601508602
 20
-504.2636319609559
 30
0.0
 11
1103.737601508602
 21
-503.5636319609558
 31
0.0
1001
GRADIENTCOLOR1ACI
1070
     5
1001
GRADIENTCOLOR2ACI
1070
     2
1001
ACAD
1010
0.0
1020
0.0
1030
0.0
  0
LINE
  5
654
  8
回08-記事
  6
CONTINUOUS
 62
     7
 10
1103.037601508602
 20
-505.6106703791162
 30
0.0
 11
1103.737601508602
 21
-504.9106703791162
 31
0.0
1001
GRADIENTCOLOR1ACI
1070
     5
1001
GRADIENTCOLOR2ACI
1070
     2
1001
ACAD
1010
0.0
1020
0.0
1030
0.0
  0
LINE
  5
655
  8
回08-記事
  6
CONTINUOUS
 62
     7
 10
1103.037601508602
 20
-506.9577087972766
 30
0.0
 11
1103.737601508602
 21
-506.2577087972766
 31
0.0
1001
GRADIENTCOLOR1ACI
1070
     5
1001
GRADIENTCOLOR2ACI
1070
     2
1001
ACAD
1010
0.0
1020
0.0
1030
0.0
  0
LINE
  5
656
  8
回08-記事
  6
CONTINUOUS
 62
     7
 10
1103.037601508602
 20
-508.3047472154368
 30
0.0
 11
1103.737601508602
 21
-507.6047472154368
 31
0.0
1001
GRADIENTCOLOR1ACI
1070
     5
1001
GRADIENTCOLOR2ACI
1070
     2
1001
ACAD
1010
0.0
1020
0.0
1030
0.0
  0
LINE
  5
657
  8
回08-記事
  6
CONTINUOUS
 62
     7
 10
1103.037601508602
 20
-509.6517856335971
 30
0.0
 11
1103.737601508602
 21
-508.9517856335969
 31
0.0
1001
GRADIENTCOLOR1ACI
1070
     5
1001
GRADIENTCOLOR2ACI
1070
     2
1001
ACAD
1010
0.0
1020
0.0
1030
0.0
  0
LINE
  5
658
  8
回08-記事
  6
CONTINUOUS
 62
     7
 10
1103.037601508602
 20
-510.9988240517576
 30
0.0
 11
1103.737601508602
 21
-510.2988240517572
 31
0.0
1001
GRADIENTCOLOR1ACI
1070
     5
1001
GRADIENTCOLOR2ACI
1070
     2
1001
ACAD
1010
0.0
1020
0.0
1030
0.0
  0
LINE
  5
659
  8
回08-記事
  6
CONTINUOUS
 62
     7
 10
1103.037601508602
 20
-512.3458624699179
 30
0.0
 11
1103.737601508602
 21
-511.6458624699176
 31
0.0
1001
GRADIENTCOLOR1ACI
1070
     5
1001
GRADIENTCOLOR2ACI
1070
     2
1001
ACAD
1010
0.0
1020
0.0
1030
0.0
  0
LINE
  5
65A
  8
回08-記事
  6
CONTINUOUS
 62
     7
 10
1103.72278804676
 20
-513.0077143499196
 30
0.0
 11
1103.737601508602
 21
-512.9929008880781
 31
0.0
1001
GRADIENTCOLOR1ACI
1070
     5
1001
GRADIENTCOLOR2ACI
1070
     2
1001
ACAD
1010
0.0
1020
0.0
1030
0.0
  0
ENDBLK
  5
65C
  8
回04-下接
  6
CONTINUOUS
 62
     3
  0
BLOCK
  8
回04-下接
  2
*X8080
 70
     1
 10
0.0
 20
0.0
 30
0.0
  3
*X8080
  1

  0
LINE
  5
65F
  8
回08-記事
  6
CONTINUOUS
 62
     7
 10
1093.444417289632
 20
-467.7044584480838
 30
0.0
 11
1094.423806757817
 21
-466.7250689798978
 31
0.0
1001
GRADIENTCOLOR1ACI
1070
     5
1001
GRADIENTCOLOR2ACI
1070
     2
1001
ACAD
1010
0.0
1020
0.0
1030
0.0
  0
LINE
  5
660
  8
回08-記事
  6
CONTINUOUS
 62
     7
 10
1093.444417289632
 20
-469.0514968662439
 30
0.0
 11
1094.144417289631
 21
-468.3514968662442
 31
0.0
1001
GRADIENTCOLOR1ACI
1070
     5
1001
GRADIENTCOLOR2ACI
1070
     2
1001
ACAD
1010
0.0
1020
0.0
1030
0.0
  0
LINE
  5
661
  8
回08-記事
  6
CONTINUOUS
 62
     7
 10
1094.770845175978
 20
-467.7250689798978
 30
0.0
 11
1095.770845175978
 21
-466.7250689798978
 31
0.0
1001
GRADIENTCOLOR1ACI
1070
     5
1001
GRADIENTCOLOR2ACI
1070
     2
1001
ACAD
1010
0.0
1020
0.0
1030
0.0
  0
LINE
  5
662
  8
回08-記事
  6
CONTINUOUS
 62
     7
 10
1093.444417289632
 20
-470.3985352844043
 30
0.0
 11
1094.144417289631
 21
-469.6985352844045
 31
0.0
1001
GRADIENTCOLOR1ACI
1070
     5
1001
GRADIENTCOLOR2ACI
1070
     2
1001
ACAD
1010
0.0
1020
0.0
1030
0.0
  0
LINE
  5
663
  8
回08-記事
  6
CONTINUOUS
 62
     7
 10
1096.117883594138
 20
-467.7250689798982
 30
0.0
 11
1097.117883594138
 21
-466.7250689798981
 31
0.0
1001
GRADIENTCOLOR1ACI
1070
     5
1001
GRADIENTCOLOR2ACI
1070
     2
1001
ACAD
1010
0.0
1020
0.0
1030
0.0
  0
LINE
  5
664
  8
回08-記事
  6
CONTINUOUS
 62
     7
 10
1094.04897038311
 20
-471.1410206090861
 30
0.0
 11
1094.144417289631
 21
-471.0455737025649
 31
0.0
1001
GRADIENTCOLOR1ACI
1070
     5
1001
GRADIENTCOLOR2ACI
1070
     2
1001
ACAD
1010
0.0
1020
0.0
1030
0.0
  0
LINE
  5
665
  8
回08-記事
  6
CONTINUOUS
 62
     7
 10
1097.464922012298
 20
-467.7250689798978
 30
0.0
 11
1098.464922012298
 21
-466.7250689798978
 31
0.0
1001
GRADIENTCOLOR1ACI
1070
     5
1001
GRADIENTCOLOR2ACI
1070
     2
1001
ACAD
1010
0.0
1020
0.0
1030
0.0
  0
LINE
  5
666
  8
回08-記事
  6
CONTINUOUS
 62
     7
 10
1098.811960430458
 20
-467.7250689798979
 30
0.0
 11
1099.811960430458
 21
-466.7250689798979
 31
0.0
1001
GRADIENTCOLOR1ACI
1070
     5
1001
GRADIENTCOLOR2ACI
1070
     2
1001
ACAD
1010
0.0
1020
0.0
1030
0.0
  0
LINE
  5
667
  8
回08-記事
  6
CONTINUOUS
 62
     7
 10
1100.158998848619
 20
-467.7250689798978
 30
0.0
 11
1101.158998848619
 21
-466.7250689798979
 31
0.0
1001
GRADIENTCOLOR1ACI
1070
     5
1001
GRADIENTCOLOR2ACI
1070
     2
1001
ACAD
1010
0.0
1020
0.0
1030
0.0
  0
LINE
  5
668
  8
回08-記事
  6
CONTINUOUS
 62
     7
 10
1103.037601508602
 20
-467.5405431562356
 30
0.0
 11
1103.553075684939
 21
-467.0250689798979
 31
0.0
1001
GRADIENTCOLOR1ACI
1070
     5
1001
GRADIENTCOLOR2ACI
1070
     2
1001
ACAD
1010
0.0
1020
0.0
1030
0.0
  0
LINE
  5
669
  8
回08-記事
  6
CONTINUOUS
 62
     7
 10
1103.037601508602
 20
-468.8875815743958
 30
0.0
 11
1103.737601508602
 21
-468.1875815743959
 31
0.0
1001
GRADIENTCOLOR1ACI
1070
     5
1001
GRADIENTCOLOR2ACI
1070
     2
1001
ACAD
1010
0.0
1020
0.0
1030
0.0
  0
LINE
  5
66A
  8
回08-記事
  6
CONTINUOUS
 62
     7
 10
1104.2001141031
 20
-467.7250689798978
 30
0.0
 11
1104.9001141031
 21
-467.0250689798979
 31
0.0
1001
GRADIENTCOLOR1ACI
1070
     5
1001
GRADIENTCOLOR2ACI
1070
     2
1001
ACAD
1010
0.0
1020
0.0
1030
0.0
  0
LINE
  5
66B
  8
回08-記事
  6
CONTINUOUS
 62
     7
 10
1103.037601508602
 20
-470.2346199925561
 30
0.0
 11
1103.737601508602
 21
-469.5346199925561
 31
0.0
1001
GRADIENTCOLOR1ACI
1070
     5
1001
GRADIENTCOLOR2ACI
1070
     2
1001
ACAD
1010
0.0
1020
0.0
1030
0.0
  0
LINE
  5
66C
  8
回08-記事
  6
CONTINUOUS
 62
     7
 10
1105.54715252126
 20
-467.7250689798978
 30
0.0
 11
1106.24715252126
 21
-467.0250689798979
 31
0.0
1001
GRADIENTCOLOR1ACI
1070
     5
1001
GRADIENTCOLOR2ACI
1070
     2
1001
ACAD
1010
0.0
1020
0.0
1030
0.0
  0
LINE
  5
66D
  8
回08-記事
  6
CONTINUOUS
 62
     7
 10
1103.478239310232
 20
-471.1410206090861
 30
0.0
 11
1103.737601508602
 21
-470.8816584107166
 31
0.0
1001
GRADIENTCOLOR1ACI
1070
     5
1001
GRADIENTCOLOR2ACI
1070
     2
1001
ACAD
1010
0.0
1020
0.0
1030
0.0
  0
LINE
  5
66E
  8
回08-記事
  6
CONTINUOUS
 62
     7
 10
1106.89419093942
 20
-467.7250689798979
 30
0.0
 11
1107.59419093942
 21
-467.0250689798979
 31
0.0
1001
GRADIENTCOLOR1ACI
1070
     5
1001
GRADIENTCOLOR2ACI
1070
     2
1001
ACAD
1010
0.0
1020
0.0
1030
0.0
  0
LINE
  5
66F
  8
回08-記事
  6
CONTINUOUS
 62
     7
 10
1109.337601508602
 20
-465.2816584107164
 30
0.0
 11
1110.037601508601
 21
-464.5816584107167
 31
0.0
1001
GRADIENTCOLOR1ACI
1070
     5
1001
GRADIENTCOLOR2ACI
1070
     2
1001
ACAD
1010
0.0
1020
0.0
1030
0.0
  0
LINE
  5
670
  8
回08-記事
  6
CONTINUOUS
 62
     7
 10
1108.241229357581
 20
-467.7250689798979
 30
0.0
 11
1108.941229357581
 21
-467.0250689798979
 31
0.0
1001
GRADIENTCOLOR1ACI
1070
     5
1001
GRADIENTCOLOR2ACI
1070
     2
1001
ACAD
1010
0.0
1020
0.0
1030
0.0
  0
LINE
  5
671
  8
回08-記事
  6
CONTINUOUS
 62
     7
 10
1109.337601508602
 20
-466.6286968288765
 30
0.0
 11
1110.037601508602
 21
-465.9286968288768
 31
0.0
1001
GRADIENTCOLOR1ACI
1070
     5
1001
GRADIENTCOLOR2ACI
1070
     2
1001
ACAD
1010
0.0
1020
0.0
1030
0.0
  0
LINE
  5
672
  8
回08-記事
  6
CONTINUOUS
 62
     7
 10
1109.588267775741
 20
-467.7250689798978
 30
0.0
 11
1110.037601508602
 21
-467.2757352470371
 31
0.0
1001
GRADIENTCOLOR1ACI
1070
     5
1001
GRADIENTCOLOR2ACI
1070
     2
1001
ACAD
1010
0.0
1020
0.0
1030
0.0
  0
ENDBLK
  5
674
  8
回04-下接
  6
CONTINUOUS
 62
     3
  0
BLOCK
  8
回04-下接
  2
*X8181
 70
     1
 10
0.0
 20
0.0
 30
0.0
  3
*X8181
  1

  0
LINE
  5
6A0
  8
回08-記事
  6
CONTINUOUS
 62
     7
 10
1100.637601508602
 20
-488.0991709430323
 30
0.0
 11
1101.337601508602
 21
-487.3991709430321
 31
0.0
1001
GRADIENTCOLOR1ACI
1070
     5
1001
GRADIENTCOLOR2ACI
1070
     2
1001
ACAD
1010
0.0
1020
0.0
1030
0.0
  0
LINE
  5
6A1
  8
回08-記事
  6
CONTINUOUS
 62
     7
 10
1100.637601508602
 20
-489.4462093611925
 30
0.0
 11
1101.337601508602
 21
-488.7462093611926
 31
0.0
1001
GRADIENTCOLOR1ACI
1070
     5
1001
GRADIENTCOLOR2ACI
1070
     2
1001
ACAD
1010
0.0
1020
0.0
1030
0.0
  0
LINE
  5
6A2
  8
回08-記事
  6
CONTINUOUS
 62
     7
 10
1100.637601508602
 20
-490.7932477793528
 30
0.0
 11
1101.337601508602
 21
-490.0932477793528
 31
0.0
1001
GRADIENTCOLOR1ACI
1070
     5
1001
GRADIENTCOLOR2ACI
1070
     2
1001
ACAD
1010
0.0
1020
0.0
1030
0.0
  0
LINE
  5
6A3
  8
回08-記事
  6
CONTINUOUS
 62
     7
 10
1100.637601508602
 20
-492.1402861975129
 30
0.0
 11
1101.337601508602
 21
-491.4402861975131
 31
0.0
1001
GRADIENTCOLOR1ACI
1070
     5
1001
GRADIENTCOLOR2ACI
1070
     2
1001
ACAD
1010
0.0
1020
0.0
1030
0.0
  0
LINE
  5
6A4
  8
回08-記事
  6
CONTINUOUS
 62
     7
 10
1100.637601508602
 20
-493.4873246156732
 30
0.0
 11
1101.337601508602
 21
-492.7873246156733
 31
0.0
1001
GRADIENTCOLOR1ACI
1070
     5
1001
GRADIENTCOLOR2ACI
1070
     2
1001
ACAD
1010
0.0
1020
0.0
1030
0.0
  0
LINE
  5
6A5
  8
回08-記事
  6
CONTINUOUS
 62
     7
 10
1100.637601508602
 20
-494.8343630338338
 30
0.0
 11
1101.337601508602
 21
-494.1343630338338
 31
0.0
1001
GRADIENTCOLOR1ACI
1070
     5
1001
GRADIENTCOLOR2ACI
1070
     2
1001
ACAD
1010
0.0
1020
0.0
1030
0.0
  0
LINE
  5
6A6
  8
回08-記事
  6
CONTINUOUS
 62
     7
 10
1100.637601508601
 20
-496.1814014519942
 30
0.0
 11
1101.337601508602
 21
-495.481401451994
 31
0.0
1001
GRADIENTCOLOR1ACI
1070
     5
1001
GRADIENTCOLOR2ACI
1070
     2
1001
ACAD
1010
0.0
1020
0.0
1030
0.0
  0
LINE
  5
6A7
  8
回08-記事
  6
CONTINUOUS
 62
     7
 10
1100.637601508602
 20
-497.5284398701543
 30
0.0
 11
1101.337601508602
 21
-496.8284398701543
 31
0.0
1001
GRADIENTCOLOR1ACI
1070
     5
1001
GRADIENTCOLOR2ACI
1070
     2
1001
ACAD
1010
0.0
1020
0.0
1030
0.0
  0
LINE
  5
6A8
  8
回08-記事
  6
CONTINUOUS
 62
     7
 10
1100.637601508602
 20
-498.8754782883146
 30
0.0
 11
1101.337601508602
 21
-498.1754782883146
 31
0.0
1001
GRADIENTCOLOR1ACI
1070
     5
1001
GRADIENTCOLOR2ACI
1070
     2
1001
ACAD
1010
0.0
1020
0.0
1030
0.0
  0
LINE
  5
6A9
  8
回08-記事
  6
CONTINUOUS
 62
     7
 10
1100.637601508602
 20
-500.2225167064748
 30
0.0
 11
1101.337601508602
 21
-499.5225167064748
 31
0.0
1001
GRADIENTCOLOR1ACI
1070
     5
1001
GRADIENTCOLOR2ACI
1070
     2
1001
ACAD
1010
0.0
1020
0.0
1030
0.0
  0
LINE
  5
6AA
  8
回08-記事
  6
CONTINUOUS
 62
     7
 10
1100.637601508602
 20
-501.5695551246353
 30
0.0
 11
1101.337601508602
 21
-500.8695551246352
 31
0.0
1001
GRADIENTCOLOR1ACI
1070
     5
1001
GRADIENTCOLOR2ACI
1070
     2
1001
ACAD
1010
0.0
1020
0.0
1030
0.0
  0
LINE
  5
6AB
  8
回08-記事
  6
CONTINUOUS
 62
     7
 10
1100.637601508601
 20
-502.9165935427958
 30
0.0
 11
1101.337601508602
 21
-502.2165935427956
 31
0.0
1001
GRADIENTCOLOR1ACI
1070
     5
1001
GRADIENTCOLOR2ACI
1070
     2
1001
ACAD
1010
0.0
1020
0.0
1030
0.0
  0
LINE
  5
6AC
  8
回08-記事
  6
CONTINUOUS
 62
     7
 10
1100.637601508602
 20
-504.2636319609559
 30
0.0
 11
1101.337601508602
 21
-503.5636319609559
 31
0.0
1001
GRADIENTCOLOR1ACI
1070
     5
1001
GRADIENTCOLOR2ACI
1070
     2
1001
ACAD
1010
0.0
1020
0.0
1030
0.0
  0
LINE
  5
6AD
  8
回08-記事
  6
CONTINUOUS
 62
     7
 10
1100.637601508602
 20
-505.6106703791162
 30
0.0
 11
1101.337601508602
 21
-504.9106703791162
 31
0.0
1001
GRADIENTCOLOR1ACI
1070
     5
1001
GRADIENTCOLOR2ACI
1070
     2
1001
ACAD
1010
0.0
1020
0.0
1030
0.0
  0
LINE
  5
6AE
  8
回08-記事
  6
CONTINUOUS
 62
     7
 10
1100.637601508602
 20
-506.9577087972763
 30
0.0
 11
1101.337601508602
 21
-506.2577087972765
 31
0.0
1001
GRADIENTCOLOR1ACI
1070
     5
1001
GRADIENTCOLOR2ACI
1070
     2
1001
ACAD
1010
0.0
1020
0.0
1030
0.0
  0
LINE
  5
6AF
  8
回08-記事
  6
CONTINUOUS
 62
     7
 10
1100.637601508602
 20
-508.3047472154368
 30
0.0
 11
1101.337601508602
 21
-507.6047472154368
 31
0.0
1001
GRADIENTCOLOR1ACI
1070
     5
1001
GRADIENTCOLOR2ACI
1070
     2
1001
ACAD
1010
0.0
1020
0.0
1030
0.0
  0
LINE
  5
6B0
  8
回08-記事
  6
CONTINUOUS
 62
     7
 10
1100.637601508602
 20
-509.6517856335973
 30
0.0
 11
1101.337601508602
 21
-508.9517856335971
 31
0.0
1001
GRADIENTCOLOR1ACI
1070
     5
1001
GRADIENTCOLOR2ACI
1070
     2
1001
ACAD
1010
0.0
1020
0.0
1030
0.0
  0
LINE
  5
6B1
  8
回08-記事
  6
CONTINUOUS
 62
     7
 10
1100.637601508601
 20
-510.9988240517576
 30
0.0
 11
1101.337601508602
 21
-510.2988240517576
 31
0.0
1001
GRADIENTCOLOR1ACI
1070
     5
1001
GRADIENTCOLOR2ACI
1070
     2
1001
ACAD
1010
0.0
1020
0.0
1030
0.0
  0
LINE
  5
6B2
  8
回08-記事
  6
CONTINUOUS
 62
     7
 10
1100.637601508602
 20
-512.3458624699178
 30
0.0
 11
1101.337601508602
 21
-511.6458624699178
 31
0.0
1001
GRADIENTCOLOR1ACI
1070
     5
1001
GRADIENTCOLOR2ACI
1070
     2
1001
ACAD
1010
0.0
1020
0.0
1030
0.0
  0
LINE
  5
6B3
  8
回08-記事
  6
CONTINUOUS
 62
     7
 10
1101.32278804676
 20
-513.0077143499196
 30
0.0
 11
1101.337601508602
 21
-512.9929008880781
 31
0.0
1001
GRADIENTCOLOR1ACI
1070
     5
1001
GRADIENTCOLOR2ACI
1070
     2
1001
ACAD
1010
0.0
1020
0.0
1030
0.0
  0
ENDBLK
  5
6B5
  8
回04-下接
  6
CONTINUOUS
 62
     3
  0
BLOCK
  8
回04-下接
  2
*X8282
 70
     1
 10
0.0
 20
0.0
 30
0.0
  3
*X8282
  1

  0
TEXT
  5
6C2
  8
回08-記事
  6
CONTINUOUS
 62
     5
 10
887.2166182450161
 20
-499.9573125948201
 30
0.0
 40
4.0
  1
･Part label
  0
TEXT
  5
6C3
  8
回08-記事
  6
CONTINUOUS
 62
     5
 10
887.2166182450161
 20
-506.6239792614868
 30
0.0
 40
4.0
  1
･Lot label
  0
ENDBLK
  5
6C5
  8
回04-下接
  6
CONTINUOUS
 62
     3
  0
BLOCK
  8
回04-下接
  2
*X8383
 70
     1
 10
0.0
 20
0.0
 30
0.0
  3
*X8383
  1

  0
INSERT
  5
6C8
  8
回08-記事
  6
CONTINUOUS
 62
     5
  2
_OPEN
 10
925.551538997073
 20
-504.3589363389731
 30
0.0
 41
1.5
 42
1.5
 43
1.5
 50
13.5176901445602
  0
LINE
  5
6C9
  8
回08-記事
  6
CONTINUOUS
 62
     5
 10
924.0930923008226
 20
-504.709554698728
 30
0.0
 11
914.0499515783496
 21
-507.1239792614868
 31
0.0
  0
LINE
  5
6CA
  8
回08-記事
  6
CONTINUOUS
 62
     5
 10
914.0499515783496
 20
-507.1239792614868
 30
0.0
 11
888.0166182450162
 21
-507.1239792614868
 31
0.0
  0
ENDBLK
  5
6CC
  8
回04-下接
  6
CONTINUOUS
 62
     3
  0
BLOCK
  8
回04-下接
  2
*X8484
 70
     1
 10
0.0
 20
0.0
 30
0.0
  3
*X8484
  1

  0
LINE
  5
6D8
  8
回08-記事
  6
CONTINUOUS
 62
     7
 10
923.6513523685587
 20
-492.7926624646475
 30
0.0
 11
924.3149344563519
 21
-492.1290803768544
 31
0.0
1001
GRADIENTCOLOR1ACI
1070
     5
1001
GRADIENTCOLOR2ACI
1070
     2
1001
ACAD
1010
0.0
1020
0.0
1030
0.0
  0
LINE
  5
6D9
  8
回08-記事
  6
CONTINUOUS
 62
     7
 10
923.6513523685587
 20
-495.0377264949148
 30
0.0
 11
926.5599984866193
 21
-492.1290803768544
 31
0.0
1001
GRADIENTCOLOR1ACI
1070
     5
1001
GRADIENTCOLOR2ACI
1070
     2
1001
ACAD
1010
0.0
1020
0.0
1030
0.0
  0
LINE
  5
6DA
  8
回08-記事
  6
CONTINUOUS
 62
     7
 10
923.6513523685587
 20
-497.2827905251818
 30
0.0
 11
928.1513523685593
 21
-492.7827905251818
 31
0.0
1001
GRADIENTCOLOR1ACI
1070
     5
1001
GRADIENTCOLOR2ACI
1070
     2
1001
ACAD
1010
0.0
1020
0.0
1030
0.0
  0
LINE
  5
6DB
  8
回08-記事
  6
CONTINUOUS
 62
     7
 10
923.6513523685587
 20
-499.5278545554493
 30
0.0
 11
928.1513523685593
 21
-495.0278545554491
 31
0.0
1001
GRADIENTCOLOR1ACI
1070
     5
1001
GRADIENTCOLOR2ACI
1070
     2
1001
ACAD
1010
0.0
1020
0.0
1030
0.0
  0
LINE
  5
6DC
  8
回08-記事
  6
CONTINUOUS
 62
     7
 10
923.6513523685587
 20
-501.7729185857164
 30
0.0
 11
928.1513523685593
 21
-497.2729185857164
 31
0.0
1001
GRADIENTCOLOR1ACI
1070
     5
1001
GRADIENTCOLOR2ACI
1070
     2
1001
ACAD
1010
0.0
1020
0.0
1030
0.0
  0
LINE
  5
6DD
  8
回08-記事
  6
CONTINUOUS
 62
     7
 10
923.6513523685587
 20
-504.0179826159837
 30
0.0
 11
928.1513523685587
 21
-499.5179826159836
 31
0.0
1001
GRADIENTCOLOR1ACI
1070
     5
1001
GRADIENTCOLOR2ACI
1070
     2
1001
ACAD
1010
0.0
1020
0.0
1030
0.0
  0
LINE
  5
6DE
  8
回08-記事
  6
CONTINUOUS
 62
     7
 10
923.6513523685587
 20
-506.2630466462511
 30
0.0
 11
928.1513523685587
 21
-501.7630466462511
 31
0.0
1001
GRADIENTCOLOR1ACI
1070
     5
1001
GRADIENTCOLOR2ACI
1070
     2
1001
ACAD
1010
0.0
1020
0.0
1030
0.0
  0
LINE
  5
6DF
  8
回08-記事
  6
CONTINUOUS
 62
     7
 10
923.6513523685587
 20
-508.5081106765183
 30
0.0
 11
928.1513523685587
 21
-504.0081106765183
 31
0.0
1001
GRADIENTCOLOR1ACI
1070
     5
1001
GRADIENTCOLOR2ACI
1070
     2
1001
ACAD
1010
0.0
1020
0.0
1030
0.0
  0
LINE
  5
6E0
  8
回08-記事
  6
CONTINUOUS
 62
     7
 10
923.6513523685587
 20
-510.7531747067857
 30
0.0
 11
928.1513523685587
 21
-506.2531747067857
 31
0.0
1001
GRADIENTCOLOR1ACI
1070
     5
1001
GRADIENTCOLOR2ACI
1070
     2
1001
ACAD
1010
0.0
1020
0.0
1030
0.0
  0
LINE
  5
6E1
  8
回08-記事
  6
CONTINUOUS
 62
     7
 10
923.6513523685587
 20
-512.9982387370528
 30
0.0
 11
928.1513523685587
 21
-508.4982387370528
 31
0.0
1001
GRADIENTCOLOR1ACI
1070
     5
1001
GRADIENTCOLOR2ACI
1070
     2
1001
ACAD
1010
0.0
1020
0.0
1030
0.0
  0
LINE
  5
6E2
  8
回08-記事
  6
CONTINUOUS
 62
     7
 10
923.6513523685587
 20
-515.24330276732
 30
0.0
 11
928.1513523685587
 21
-510.74330276732
 31
0.0
1001
GRADIENTCOLOR1ACI
1070
     5
1001
GRADIENTCOLOR2ACI
1070
     2
1001
ACAD
1010
0.0
1020
0.0
1030
0.0
  0
LINE
  5
6E3
  8
回08-記事
  6
CONTINUOUS
 62
     7
 10
923.6513523685587
 20
-517.4883667975873
 30
0.0
 11
928.1513523685587
 21
-512.9883667975873
 31
0.0
1001
GRADIENTCOLOR1ACI
1070
     5
1001
GRADIENTCOLOR2ACI
1070
     2
1001
ACAD
1010
0.0
1020
0.0
1030
0.0
  0
LINE
  5
6E4
  8
回08-記事
  6
CONTINUOUS
 62
     7
 10
925.2557028195594
 20
-518.1290803768545
 30
0.0
 11
928.1513523685587
 21
-515.2334308278546
 31
0.0
1001
GRADIENTCOLOR1ACI
1070
     5
1001
GRADIENTCOLOR2ACI
1070
     2
1001
ACAD
1010
0.0
1020
0.0
1030
0.0
  0
LINE
  5
6E5
  8
回08-記事
  6
CONTINUOUS
 62
     7
 10
927.5007668498259
 20
-518.1290803768547
 30
0.0
 11
928.1513523685587
 21
-517.4784948581218
 31
0.0
1001
GRADIENTCOLOR1ACI
1070
     5
1001
GRADIENTCOLOR2ACI
1070
     2
1001
ACAD
1010
0.0
1020
0.0
1030
0.0
  0
ENDBLK
  5
6E7
  8
回04-下接
  6
CONTINUOUS
 62
     3
  0
BLOCK
  8
回04-下接
  2
*X8585
 70
     1
 10
0.0
 20
0.0
 30
0.0
  3
*X8585
  1

  0
TEXT
  5
76A
  8
回07-寸法
  6
CONTINUOUS
 62
     5
 10
934.9293386102687
 20
-200.4937596110049
 30
0.0
 40
4.0
  1
188.4
  0
TEXT
  5
76B
  8
回07-寸法
  6
CONTINUOUS
 62
     5
 10
946.9293386102688
 20
-200.4937596110049
 30
0.0
 40
2.799999999999998
  1
±0.3
  0
ENDBLK
  5
76D
  8
回04-下接
  6
CONTINUOUS
 62
     3
  0
BLOCK
  8
回04-下接
  2
*X8686
 70
     1
 10
0.0
 20
0.0
 30
0.0
  3
*X8686
  1

  0
TEXT
  5
770
  8
回07-寸法
  6
CONTINUOUS
 62
     5
 10
802.6793386102706
 20
-331.8737596110052
 30
0.0
 40
4.0
  1
150.5
 50
90.0
  0
TEXT
  5
771
  8
回07-寸法
  6
CONTINUOUS
 62
     5
 10
802.6793386102706
 20
-320.2737596110052
 30
0.0
 40
2.799999999999998
  1
±0.3
 50
90.0
  0
ENDBLK
  5
773
  8
回04-下接
  6
CONTINUOUS
 62
     3
  0
BLOCK
  8
回04-下接
  2
*X8787
 70
     1
 10
0.0
 20
0.0
 30
0.0
  3
*X8787
  1

  0
TEXT
  5
776
  8
回07-寸法
  6
CONTINUOUS
 62
     5
 10
1115.022840792288
 20
-484.1014086941381
 30
0.0
 40
4.0
  1
0.3
  0
TEXT
  5
777
  8
回07-寸法
  6
CONTINUOUS
 62
     5
 10
1121.822840792288
 20
-484.1014086941381
 30
0.0
 40
2.666679999999999
  1
±0.05
  0
ENDBLK
  5
779
  8
回04-下接
  6
CONTINUOUS
 62
     3
  0
BLOCK
  8
回04-下接
  2
*X8888
 70
     1
 10
0.0
 20
0.0
 30
0.0
  3
*X8888
  1

  0
TEXT
  5
77C
  8
回07-寸法
  6
CONTINUOUS
 62
     5
 10
892.3893157346377
 20
-437.4437837964115
 30
0.0
 40
4.0
  1
70
 50
90.0
  0
TEXT
  5
77D
  8
回07-寸法
  6
CONTINUOUS
 62
     5
 10
892.3893157346377
 20
-431.8437837964113
 30
0.0
 40
2.799999999999998
  1
±1
 50
90.0
  0
ENDBLK
  5
77F
  8
回04-下接
  6
CONTINUOUS
 62
     3
  0
BLOCK
  8
回04-下接
  2
*X8989
 70
     1
 10
0.0
 20
0.0
 30
0.0
  3
*X8989
  1

  0
TEXT
  5
782
  8
回07-寸法
  6
CONTINUOUS
 62
     5
 10
1000.186381459158
 20
-437.4437596110055
 30
0.0
 40
4.0
  1
70
 50
90.0
  0
TEXT
  5
783
  8
回07-寸法
  6
CONTINUOUS
 62
     5
 10
1000.186381459158
 20
-431.8437596110054
 30
0.0
 40
2.799999999999998
  1
±1
 50
90.0
  0
ENDBLK
  5
785
  8
回04-下接
  6
CONTINUOUS
 62
     3
  0
BLOCK
  8
回04-下接
  2
*X9090
 70
     1
 10
0.0
 20
0.0
 30
0.0
  3
*X9090
  1

  0
TEXT
  5
788
  8
回07-寸法
  6
CONTINUOUS
 62
     5
 10
914.7409291082377
 20
-491.0792150126273
 30
0.0
 40
4.0
  1
9.5
  0
TEXT
  5
789
  8
回07-寸法
  6
CONTINUOUS
 62
     5
 10
921.5553705823454
 20
-491.0792150126273
 30
0.0
 40
2.799999999999998
  1
±0.1
  0
ENDBLK
  5
78B
  8
回04-下接
  6
CONTINUOUS
 62
     3
  0
BLOCK
  8
回04-下接
  2
*X9191
 70
     1
 10
0.0
 20
0.0
 30
0.0
  3
*X9191
  1

  0
TEXT
  5
78E
  8
回07-寸法
  6
CONTINUOUS
 62
     5
 10
963.2782132948204
 20
-503.161119014558
 30
0.0
 40
4.0
  1
8.5
  0
TEXT
  5
78F
  8
回07-寸法
  6
CONTINUOUS
 62
     5
 10
970.0782132948203
 20
-503.161119014558
 30
0.0
 40
2.799999999999998
  1
±0.1
  0
ENDBLK
  5
791
  8
回04-下接
  6
CONTINUOUS
 62
     3
  0
BLOCK
  8
回04-下接
  2
*X9292
 70
     1
 10
0.0
 20
0.0
 30
0.0
  3
*X9292
  1

  0
TEXT
  5
794
  8
回07-寸法
  6
CONTINUOUS
 62
     5
 10
1103.067649201818
 20
-236.3679905537682
 30
0.0
 40
4.0
  1
2.1
  0
TEXT
  5
795
  8
回07-寸法
  6
CONTINUOUS
 62
     5
 10
1109.067649201818
 20
-236.3679905537682
 30
0.0
 40
2.0
  1
±0.2
  0
ENDBLK
  5
797
  8
回04-下接
  6
CONTINUOUS
 62
     3
  0
BLOCK
  8
回04-下接
  2
*X9393
 70
     1
 10
0.0
 20
0.0
 30
0.0
  3
*X9393
  1

  0
TEXT
  5
79A
  8
回07-寸法
  6
CONTINUOUS
 62
     5
 10
1083.949343464767
 20
-477.7961685229457
 30
0.0
 40
4.0
  1
0.3
  0
TEXT
  5
79B
  8
回07-寸法
  6
CONTINUOUS
 62
     5
 10
1090.749343464767
 20
-477.7961685229457
 30
0.0
 40
2.666679999999999
  1
±0.05
  0
ENDBLK
  5
79D
  8
回04-下接
  6
CONTINUOUS
 62
     3
  0
BLOCK
  8
回04-下接
  2
*X9494
 70
     1
 10
0.0
 20
0.0
 30
0.0
  3
*X9494
  1

  0
TEXT
  5
7A0
  8
回07-寸法
  6
CONTINUOUS
 62
     5
 10
1074.277711289631
 20
-546.9474778918387
 30
0.0
 40
4.0
  1
0.3
  0
TEXT
  5
7A1
  8
回07-寸法
  6
CONTINUOUS
 62
     5
 10
1081.077711289631
 20
-546.9474778918387
 30
0.0
 40
2.666679999999999
  1
±0.05
  0
ENDBLK
  5
7A3
  8
回04-下接
  6
CONTINUOUS
 62
     3
  0
BLOCK
  8
回04-下接
  2
*X9595
 70
     1
 10
0.0
 20
0.0
 30
0.0
  3
*X9595
  1

  0
TEXT
  5
7A6
  8
回07-寸法
  6
CONTINUOUS
 62
     5
 10
1093.340788275557
 20
-305.5196936234486
 30
0.0
 40
4.0
  1
2.1
  0
TEXT
  5
7A7
  8
回07-寸法
  6
CONTINUOUS
 62
     5
 10
1099.340788275557
 20
-305.5196936234486
 30
0.0
 40
2.0
  1
±0.2
  0
ENDBLK
  5
7A9
  8
回04-下接
  6
CONTINUOUS
 62
     3
  0
BLOCK
  8
回04-下接
  2
*X9696
 70
     1
 10
0.0
 20
0.0
 30
0.0
  3
*X9696
  1

  0
TEXT
  5
7AC
  8
回07-寸法
  6
CONTINUOUS
 62
     5
 10
1105.240751114901
 20
-553.2527180630311
 30
0.0
 40
4.0
  1
0.3
  0
TEXT
  5
7AD
  8
回07-寸法
  6
CONTINUOUS
 62
     5
 10
1112.040751114901
 20
-553.2527180630311
 30
0.0
 40
2.666679999999999
  1
±0.05
  0
ENDBLK
  5
7AF
  8
回04-下接
  6
CONTINUOUS
 62
     3
  0
BLOCK
  8
回04-下接
  2
*X9797
 70
     1
 10
0.0
 20
0.0
 30
0.0
  3
*X9797
  1

  0
TEXT
  5
7B2
  8
回07-寸法
  6
CONTINUOUS
 62
     5
 10
792.9524776840097
 20
-401.0250689798979
 30
0.0
 40
4.0
  1
150.5
 50
90.0
  0
TEXT
  5
7B3
  8
回07-寸法
  6
CONTINUOUS
 62
     5
 10
792.9524776840097
 20
-389.425068979898
 30
0.0
 40
2.799999999999998
  1
±0.3
 50
90.0
  0
ENDBLK
  5
7B5
  8
回04-下接
  6
CONTINUOUS
 62
     3
  0
BLOCK
  8
回04-下接
  2
*X9898
 70
     1
 10
0.0
 20
0.0
 30
0.0
  3
*X9898
  1

  0
TEXT
  5
7B8
  8
回07-寸法
  6
CONTINUOUS
 62
     5
 10
925.2024776840075
 20
-269.6450689798979
 30
0.0
 40
4.0
  1
188.4
  0
TEXT
  5
7B9
  8
回07-寸法
  6
CONTINUOUS
 62
     5
 10
937.2024776840076
 20
-269.6450689798979
 30
0.0
 40
2.799999999999998
  1
±0.3
  0
ENDBLK
  5
7BB
  8
回04-下接
  6
CONTINUOUS
 62
     3
  0
BLOCK
  8
回04-下接
  2
*X9999
 70
     1
 10
0.0
 20
0.0
 30
0.0
  3
*X9999
  1

  0
TEXT
  5
7BE
  8
回07-寸法
  6
CONTINUOUS
 62
     5
 10
953.5513523685594
 20
-572.3124283834509
 30
0.0
 40
4.0
  1
8.5
  0
TEXT
  5
7BF
  8
回07-寸法
  6
CONTINUOUS
 62
     5
 10
960.3513523685592
 20
-572.3124283834509
 30
0.0
 40
2.799999999999998
  1
±0.1
  0
ENDBLK
  5
7C1
  8
回04-下接
  6
CONTINUOUS
 62
     3
  0
BLOCK
  8
回04-下接
  2
*X100100
 70
     1
 10
0.0
 20
0.0
 30
0.0
  3
*X100100
  1

  0
TEXT
  5
7C4
  8
回07-寸法
  6
CONTINUOUS
 62
     5
 10
905.0140681819764
 20
-560.2305243815203
 30
0.0
 40
4.0
  1
9.5
  0
TEXT
  5
7C5
  8
回07-寸法
  6
CONTINUOUS
 62
     5
 10
911.8285096560844
 20
-560.2305243815203
 30
0.0
 40
2.799999999999998
  1
±0.1
  0
ENDBLK
  5
7C7
  8
回04-下接
  6
CONTINUOUS
 62
     3
  0
BLOCK
  8
回04-下接
  2
*X101101
 70
     1
 10
0.0
 20
0.0
 30
0.0
  3
*X101101
  1

  0
TEXT
  5
7CA
  8
回07-寸法
  6
CONTINUOUS
 62
     5
 10
990.4595205328975
 20
-506.5950689798982
 30
0.0
 40
4.0
  1
70
 50
90.0
  0
TEXT
  5
7CB
  8
回07-寸法
  6
CONTINUOUS
 62
     5
 10
990.4595205328975
 20
-500.9950689798982
 30
0.0
 40
2.799999999999998
  1
±1
 50
90.0
  0
ENDBLK
  5
7CD
  8
回04-下接
  6
CONTINUOUS
 62
     3
  0
BLOCK
  8
回04-下接
  2
*X102102
 70
     1
 10
0.0
 20
0.0
 30
0.0
  3
*X102102
  1

  0
TEXT
  5
7D0
  8
回07-寸法
  6
CONTINUOUS
 62
     5
 10
882.6624548083769
 20
-506.595093165304
 30
0.0
 40
4.0
  1
70
 50
90.0
  0
TEXT
  5
7D1
  8
回07-寸法
  6
CONTINUOUS
 62
     5
 10
882.6624548083769
 20
-500.9950931653039
 30
0.0
 40
2.799999999999998
  1
±1
 50
90.0
  0
ENDBLK
  5
7D3
  8
回04-下接
  6
CONTINUOUS
 62
     3
  0
ENDSEC
  0
SECTION
  2
ENTITIES
  0
TEXT
  5
64
  8
回03-記事
  6
CONTINUOUS
 62
     5
 10
853.3760502117686
 20
-625.8511280291833
 30
0.0
 40
4.799999999999999
  1
without affecting product specification.
  0
TEXT
  5
66
  8
回03-記事
  6
CONTINUOUS
 62
     5
 10
853.3760502117686
 20
-617.4314223149836
 30
0.0
 40
4.799999999999999
  1
Edges and corners of ITO glass may be chamfered 
  0
TEXT
  5
67
  8
回03-記事
  6
CONTINUOUS
 62
     5
 10
853.3760502117686
 20
-609.0117166007837
 30
0.0
 40
4.799999999999999
  1
Unit: mm
  0
TEXT
  5
68
  8
回03-記事
  6
CONTINUOUS
 62
     5
 10
853.3760502117686
 20
-600.5920108865837
 30
0.0
 40
4.799999999999999
  1
EXCEPT WHERE INDICATED
  0
TEXT
  5
69
  8
回03-記事
  6
CONTINUOUS
 62
     5
 10
853.3760502117686
 20
-592.1723051723843
 30
0.0
 40
4.799999999999999
  1
TOLERANCE=±0.5mm
  0
LINE
  5
6A
  8
回04-図面枠
  6
CONTINUOUS
 62
     7
 10
1238.879000174051
 20
-632.9231401048441
 30
0.0
 11
1238.879000174051
 21
-616.9231401048441
 31
0.0
  0
LINE
  5
6D
  8
回04-図面枠
  6
CENTER2
 62
     7
 10
1247.22685294046
 20
-630.6687810217722
 30
0.0
 11
1247.22685294046
 21
-619.4686838240253
 31
0.0
  0
LINE
  5
6F
  8
回04-図面枠
  6
CONTINUOUS
 62
     7
 10
1254.853241980358
 20
-627.4333974438814
 30
0.0
 11
1263.126530223143
 21
-629.5393766035028
 31
0.0
  0
LINE
  5
70
  8
回04-図面枠
  6
CONTINUOUS
 62
     7
 10
1254.853241980358
 20
-622.7040674019161
 30
0.0
 11
1263.126530223143
 21
-620.5980882422934
 31
0.0
  0
LINE
  5
71
  8
回04-図面枠
  6
CONTINUOUS
 62
     7
 10
1263.126530223143
 20
-620.5980882422934
 30
0.0
 11
1263.126530223143
 21
-629.5393766035028
 31
0.0
  0
LINE
  5
72
  8
回04-図面枠
  6
CONTINUOUS
 62
     7
 10
1254.853241980358
 20
-622.7040674019161
 30
0.0
 11
1254.853241980358
 21
-627.4333974438814
 31
0.0
  0
LINE
  5
73
  8
回04-図面枠
  6
CENTER2
 62
     7
 10
1242.09244604094
 20
-625.068732422898
 30
0.0
 11
1263.859777964333
 21
-625.068732422898
 31
0.0
  0
CIRCLE
  5
74
  8
回04-図面枠
  6
CONTINUOUS
 62
     7
 10
1247.22685294046
 20
-625.068732422898
 30
0.0
 40
2.364665020982694
  0
CIRCLE
  5
75
  8
回04-図面枠
  6
CONTINUOUS
 62
     7
 10
1247.22685294046
 20
-625.068732422898
 30
0.0
 40
4.47064418060417
  0
TEXT
  5
76
  8
回03-記事
  6
CONTINUOUS
 10
1184.491119610285
 20
-564.2232915924949
 30
0.0
 40
5.395474022399999
  1
PROTECTION TAPE
  0
TEXT
  5
77
  8
回03-記事
  6
CONTINUOUS
 10
1176.066654406747
 20
-564.2517964466823
 30
0.0
 40
5.611292983296002
  1
6
  0
LINE
  5
78
  8
回03-記事
  6
CONTINUOUS
 10
1173.19981440609
 20
-565.8629588016991
 30
0.0
 11
1256.790465921156
 21
-565.8629588016991
 31
0.0
  0
TEXT
  5
79
  8
回03-記事
  6
CONTINUOUS
 10
1183.806206028852
 20
-555.1047248450037
 30
0.0
 40
5.611292983296002
  1
STIFFENER
  0
TEXT
  5
7A
  8
回03-記事
  6
CONTINUOUS
 10
1183.806206028852
 20
-545.7525698728423
 30
0.0
 40
5.611292983296002
  1
REINFORCEMENT FILM
  0
TEXT
  5
7B
  8
回03-記事
  6
CONTINUOUS
 10
1205.889542870231
 20
-507.9718414897696
 30
0.0
 40
5.611292983296002
  1
ITEM
  0
LINE
  5
7C
  8
回03-記事
  6
CONTINUOUS
 10
1256.790465921156
 20
-565.8629588016991
 30
0.0
 11
1256.790465921156
 21
-500.3978739965793
 31
0.0
  0
TEXT
  5
7D
  8
回03-記事
  6
CONTINUOUS
 10
1176.066654406747
 20
-536.1953315302058
 30
0.0
 40
5.611292983296002
  1
3
  0
TEXT
  5
7E
  8
回03-記事
  6
CONTINUOUS
 10
1176.066654406747
 20
-545.547486502363
 30
0.0
 40
5.611292983296002
  1
4
  0
TEXT
  5
7F
  8
回03-記事
  6
CONTINUOUS
 10
1176.066654406747
 20
-526.8431765580404
 30
0.0
 40
5.611292983296002
  1
2
  0
TEXT
  5
80
  8
回03-記事
  6
CONTINUOUS
 10
1176.066654406747
 20
-554.8996414745227
 30
0.0
 40
5.611292983296002
  1
5
  0
LINE
  5
81
  8
回03-記事
  6
CONTINUOUS
 10
1182.930365444463
 20
-500.3978739965793
 30
0.0
 11
1182.930365444463
 21
-565.8629588016991
 31
0.0
  0
LINE
  5
82
  8
回03-記事
  6
CONTINUOUS
 10
1173.19981440609
 20
-500.3978739965793
 30
0.0
 11
1173.19981440609
 21
-565.8629588016991
 31
0.0
  0
TEXT
  5
83
  8
回03-記事
  6
CONTINUOUS
 10
1176.066654406747
 20
-517.4910215858837
 30
0.0
 40
5.611292983296002
  1
1
  0
LINE
  5
84
  8
回03-記事
  6
CONTINUOUS
 10
1173.19981440609
 20
-556.5108038295394
 30
0.0
 11
1256.790465921156
 21
-556.5108038295394
 31
0.0
  0
LINE
  5
85
  8
回03-記事
  6
CONTINUOUS
 10
1173.19981440609
 20
-500.3978739965793
 30
0.0
 11
1256.790465921156
 21
-500.3978739965793
 31
0.0
  0
LINE
  5
86
  8
回03-記事
  6
CONTINUOUS
 10
1173.19981440609
 20
-519.1021839408973
 30
0.0
 11
1256.790465921156
 21
-519.1021839409033
 31
0.0
  0
LINE
  5
87
  8
回03-記事
  6
CONTINUOUS
 10
1173.19981440609
 20
-509.7500289687378
 30
0.0
 11
1256.790465921156
 21
-509.7500289687378
 31
0.0
  0
LINE
  5
88
  8
回03-記事
  6
CONTINUOUS
 10
1173.19981440609
 20
-547.1586488573781
 30
0.0
 11
1256.790465921156
 21
-547.1586488573781
 31
0.0
  0
LINE
  5
89
  8
回03-記事
  6
CONTINUOUS
 10
1173.19981440609
 20
-537.8064938852185
 30
0.0
 11
1256.790465921156
 21
-537.8064938852185
 31
0.0
  0
LINE
  5
8A
  8
回03-記事
  6
CONTINUOUS
 10
1173.19981440609
 20
-528.4543389130588
 30
0.0
 11
1256.790465921156
 21
-528.4543389130588
 31
0.0
  0
TEXT
  5
8B
  8
回03-記事
  6
CONTINUOUS
 10
1183.806206028852
 20
-517.6113940493959
 30
0.0
 40
5.611292983296002
  1
ITO FILM
  0
TEXT
  5
8C
  8
回03-記事
  6
CONTINUOUS
 10
1183.806206028852
 20
-526.9635490215573
 30
0.0
 40
5.611292983296002
  1
ITO GLASS
  0
TEXT
  5
8D
  8
回03-記事
  6
CONTINUOUS
 10
1183.806206028852
 20
-536.31570399372
 30
0.0
 40
5.611292983296002
  1
TAIL
  0
TEXT
  5
8E
  8
回04-図面枠
 62
     7
 10
1175.895130544936
 20
-609.3114453267522
 30
0.0
 40
8.0
  1
Oct/12/2023
 72
     1
 11
1205.495130544936
 21
-609.3114453267522
 31
0.0
  0
TEXT
  5
8F
  8
回04-図面枠
  6
CONTINUOUS
 62
     7
 10
1197.416298713308
 20
-591.8083462617564
 30
0.0
 40
4.799999999999999
  1
DATE
  0
TEXT
  5
90
  8
回04-図面枠
 62
     7
 10
1160.777820793487
 20
-628.8628075653366
 30
0.0
 40
8.0
  1
DMC Co., Ltd.
 72
     1
 11
1192.577820793487
 21
-628.8628075653366
 31
0.0
  0
TEXT
  5
91
  8
回04-図面枠
 62
     7
 10
1053.495130544936
 20
-604.9361285924731
 30
0.0
 40
8.0
  1
MTR-G084B070A
 72
     1
 11
1093.495130544936
 21
-604.9361285924731
 31
0.0
  0
TEXT
  5
92
  8
回04-図面枠
 62
     7
 10
1078.375130544936
 20
-591.4075354338631
 30
0.0
 40
4.799999999999999
  1
PART　No.
 72
     1
 11
1093.495130544936
 21
-591.4075354338631
 31
0.0
  0
LINE
  5
93
  8
回04-図面枠
 62
     7
 10
1046.295130544936
 20
-624.9231401048441
 30
0.0
 11
1140.695130544936
 21
-624.9231401048441
 31
0.0
  0
TEXT
  5
94
  8
回04-図面枠
 62
     7
 10
1062.043130544936
 20
-623.0830909346266
 30
0.0
 40
4.799999999999999
  1
Multi Touch Resistive
 72
     1
 11
1093.495130544936
 21
-623.0830909346266
 31
0.0
  0
TEXT
  5
95
  8
回04-図面枠
 62
     7
 10
1058.695130544936
 20
-631.0830909346266
 30
0.0
 40
4.799999999999999
  1
DIMENTIONAL　DRAWING
 72
     1
 11
1093.495130544936
 21
-631.0830909346266
 31
0.0
  0
LINE
  5
96
  8
回04-図面枠
 62
     7
 10
1145.495130544936
 20
-584.9231401048441
 30
0.0
 11
1145.495130544936
 21
-632.9231401048441
 31
0.0
  0
TEXT
  5
97
  8
回04-図面枠
 62
     7
 10
1085.815130544936
 20
-615.7333486015239
 30
0.0
 40
4.799999999999999
  1
TYPE
 72
     1
 11
1093.495130544936
 21
-615.7333486015239
 31
0.0
  0
LINE
  5
98
  8
回04-図面枠
 62
     7
 10
1041.495130544936
 20
-584.9231401048441
 30
0.0
 11
1041.495130544936
 21
-632.9231401048441
 31
0.0
  0
LINE
  5
99
  8
回04-図面枠
 62
     7
 10
1041.495130544936
 20
-608.9231401048441
 30
0.0
 11
1145.495130544936
 21
-608.9231401048441
 31
0.0
  0
LINE
  5
9A
  8
回04-図面枠
 62
     7
 10
1041.495130544936
 20
-616.9231401048441
 30
0.0
 11
1265.495130544936
 21
-616.9231401048441
 31
0.0
  0
LINE
  5
9B
  8
回04-図面枠
 62
     7
 10
1041.495130544936
 20
-584.9231401048441
 30
0.0
 11
1265.495130544936
 21
-584.9231401048441
 31
0.0
  0
LINE
  5
9C
  8
回04-図面枠
 62
     7
 10
1041.495130544936
 20
-592.9231401048441
 30
0.0
 11
1265.495130544936
 21
-592.9231401048441
 31
0.0
  0
TEXT
  5
9D
  8
回07-寸法
  6
CONTINUOUS
 62
     5
 10
801.2999350458519
 20
-510.6419105222368
 30
0.0
 40
3.0
  1
(Insulation area)
 50
90.0
  0
TEXT
  5
A1
  8
回07-寸法
  6
CONTINUOUS
 62
     5
 10
1038.895178376535
 20
-277.7935681148604
 30
0.0
 40
3.0
  1
(Insulation area)
  0
TEXT
  5
A2
  8
回07-寸法
  6
CONTINUOUS
 62
     5
 10
800.7297297040675
 20
-302.8580203471595
 30
0.0
 40
3.0
  1
(Insulation area)
 50
90.0
  0
TEXT
  5
A3
  8
回07-寸法
  6
CONTINUOUS
 62
     5
 10
809.5215113598385
 20
-273.4009934079443
 30
0.0
 40
3.0
  1
(Insulation area)
  0
TEXT
  5
A4
  8
回08-記事
  6
CONTINUOUS
 62
     7
 10
951.5725912623944
 20
-527.1629609524276
 30
0.0
 40
2.099999999999999
  1
(Conductor side near side)
  0
TEXT
  5
A8
  8
回08-記事
  6
CONTINUOUS
 62
     7
 10
956.7063360462507
 20
-522.9069565315609
 30
0.0
 40
2.099999999999999
  1
Tail-1
  0
TEXT
  5
A9
  8
回08-記事
  6
CONTINUOUS
 62
     7
 10
887.1753231610071
 20
-527.1629609524276
 30
0.0
 40
2.099999999999999
  1
(Conductor side far side)
  0
TEXT
  5
AA
  8
回08-記事
  6
CONTINUOUS
 62
     7
 10
902.8923224335756
 20
-522.9069565315609
 30
0.0
 40
2.099999999999999
  1
Tail-2
  0
DIMENSION
  5
AB
  8
回07-寸法
  6
CONTINUOUS
 62
     7
  2
*D3939
 10
954.9024776840076
 20
-493.4225192349741
 30
0.0
 11
961.2024776840076
 21
-493.4225192349741
 31
0.0
 70
   160
  3
DMC
 13
937.9024776840076
 23
-467.0251415361163
 33
0.0
 14
954.9024776840076
 24
-467.0250931653042
 34
0.0
1001
ACAD
1000
DSTYLE
1002
{
1070
   371
1070
     9
1070
   372
1070
     9
1002
}
  0
DIMENSION
  5
BB
  8
回07-寸法
  6
CONTINUOUS
 62
     7
  2
*D4040
 10
933.4024776840072
 20
-493.4225192349741
 30
0.0
 11
907.9592907260041
 21
-493.4225192349741
 31
0.0
 70
   160
  3
DMC
 13
914.4024776840074
 23
-467.0251415361163
 33
0.0
 14
933.4024776840072
 24
-467.0251415361163
 34
0.0
1001
ACAD
1000
DSTYLE
1002
{
1070
   371
1070
     9
1070
   372
1070
     9
1002
}
  0
ARC
  5
CA
  8
回08-記事
  6
CONTINUOUS
 62
     7
 10
1102.337601508602
 20
-453.3250689798978
 30
0.0
 40
0.5
 50
90.0
 51
270.0
  0
ARC
  5
CB
  8
回08-記事
  6
CONTINUOUS
 62
     7
 10
1102.337601508602
 20
-441.8050689798978
 30
0.0
 40
0.5
 50
90.0
 51
270.0
  0
ARC
  5
CC
  8
回08-記事
  6
CONTINUOUS
 62
     7
 10
1102.337601508602
 20
-444.6850689798978
 30
0.0
 40
0.5
 50
90.0
 51
270.0
  0
ARC
  5
CD
  8
回08-記事
  6
CONTINUOUS
 62
     7
 10
1102.337601508602
 20
-450.4450689798978
 30
0.0
 40
0.5
 50
90.0
 51
270.0
  0
ARC
  5
CE
  8
回08-記事
  6
CONTINUOUS
 62
     7
 10
1102.337601508602
 20
-447.5650689798978
 30
0.0
 40
0.5
 50
90.0
 51
270.0
  0
ARC
  5
CF
  8
回08-記事
  6
CONTINUOUS
 62
     7
 10
1102.337601508602
 20
-430.2850689798979
 30
0.0
 40
0.5
 50
90.0
 51
270.0
  0
ARC
  5
D0
  8
回08-記事
  6
CONTINUOUS
 62
     7
 10
1102.337601508602
 20
-433.1650689798978
 30
0.0
 40
0.5
 50
90.0
 51
270.0
  0
ARC
  5
D1
  8
回08-記事
  6
CONTINUOUS
 62
     7
 10
1102.337601508602
 20
-438.9250689798978
 30
0.0
 40
0.5
 50
90.0
 51
270.0
  0
ARC
  5
D2
  8
回08-記事
  6
CONTINUOUS
 62
     7
 10
1102.337601508602
 20
-436.0450689798978
 30
0.0
 40
0.5
 50
90.0
 51
270.0
  0
ARC
  5
D3
  8
回08-記事
  6
CONTINUOUS
 62
     7
 10
1102.337601508602
 20
-418.765068979898
 30
0.0
 40
0.5
 50
90.0
 51
270.0
  0
ARC
  5
D4
  8
回08-記事
  6
CONTINUOUS
 62
     7
 10
1102.337601508602
 20
-421.6450689798977
 30
0.0
 40
0.5
 50
90.0
 51
270.0
  0
ARC
  5
D5
  8
回08-記事
  6
CONTINUOUS
 62
     7
 10
1102.337601508602
 20
-427.4050689798978
 30
0.0
 40
0.5
 50
90.0
 51
270.0
  0
ARC
  5
D6
  8
回08-記事
  6
CONTINUOUS
 62
     7
 10
1102.337601508602
 20
-424.525068979898
 30
0.0
 40
0.5
 50
90.0
 51
270.0
  0
TEXT
  5
D7
  8
回90-枠2
 10
1229.224515850588
 20
-247.550716978793
 30
0.0
 40
4.0
  1
H
  0
LINE
  5
DB
  8
回90-枠2
 10
1195.495130544936
 20
-242.9231401048442
 30
0.0
 11
1195.495130544936
 21
-247.9231401048442
 31
0.0
  0
LINE
  5
DC
  8
回90-枠2
 10
1125.495130544936
 20
-242.9231401048442
 30
0.0
 11
1125.495130544936
 21
-247.9231401048442
 31
0.0
  0
TEXT
  5
DD
  8
回90-枠2
 10
1089.224515850588
 20
-247.550716978793
 30
0.0
 40
4.0
  1
F
  0
LINE
  5
DE
  8
回90-枠2
 10
1055.495130544936
 20
-242.9231401048442
 30
0.0
 11
1055.495130544936
 21
-247.9231401048442
 31
0.0
  0
TEXT
  5
DF
  8
回90-枠2
 10
1019.224515850588
 20
-247.550716978793
 30
0.0
 40
4.0
  1
E
  0
TEXT
  5
E0
  8
回90-枠2
 10
1159.224515850588
 20
-247.550716978793
 30
0.0
 40
4.0
  1
G
  0
LINE
  5
E1
  8
回90-枠2
 10
985.4951305449359
 20
-242.9231401048442
 30
0.0
 11
985.4951305449359
 21
-247.9231401048442
 31
0.0
  0
TEXT
  5
E2
  8
回90-枠2
 10
949.2245158505882
 20
-247.550716978793
 30
0.0
 40
4.0
  1
D
  0
LINE
  5
E3
  8
回90-枠2
 10
915.4951305449356
 20
-242.9231401048442
 30
0.0
 11
915.4951305449356
 21
-247.9231401048442
 31
0.0
  0
TEXT
  5
E4
  8
回90-枠2
 10
879.2245158505881
 20
-247.550716978793
 30
0.0
 40
4.0
  1
C
  0
LINE
  5
E5
  8
回90-枠2
 10
845.4951305449359
 20
-242.9231401048442
 30
0.0
 11
845.4951305449359
 21
-247.9231401048442
 31
0.0
  0
TEXT
  5
E6
  8
回90-枠2
 10
809.2245158505884
 20
-247.550716978793
 30
0.0
 40
4.0
  1
B
  0
LINE
  5
E7
  8
回90-枠2
 10
775.4951305449359
 20
-242.9231401048442
 30
0.0
 11
775.4951305449359
 21
-247.9231401048442
 31
0.0
  0
TEXT
  5
E8
  8
回90-枠2
 10
739.2245158505882
 20
-247.550716978793
 30
0.0
 40
4.0
  1
A
  0
LINE
  5
E9
  8
回90-枠2
 10
1270.495130544936
 20
-242.9231401048442
 30
0.0
 11
700.4951305449359
 21
-242.9231401048442
 31
0.0
  0
LINE
  5
EA
  8
回90-枠2
 10
705.4951305449359
 20
-247.9231401048442
 30
0.0
 11
1265.495130544936
 21
-247.9231401048442
 31
0.0
  0
TEXT
  5
EB
  8
回90-枠2
 10
1266.899551548595
 20
-288.6344528089848
 30
0.0
 40
4.0
  1
1
  0
LINE
  5
EC
  8
回90-枠2
 10
1270.495130544936
 20
-324.9231401048441
 30
0.0
 11
1265.495130544936
 21
-324.9231401048441
 31
0.0
  0
TEXT
  5
ED
  8
回90-枠2
 10
1266.598052845293
 20
-365.6344528089849
 30
0.0
 40
4.0
  1
2
  0
LINE
  5
EE
  8
回90-枠2
 10
1270.495130544936
 20
-401.9231401048442
 30
0.0
 11
1265.495130544936
 21
-401.9231401048442
 31
0.0
  0
TEXT
  5
EF
  8
回90-枠2
 10
1266.592572001092
 20
-442.6344528089849
 30
0.0
 40
4.0
  1
3
  0
LINE
  5
F0
  8
回90-枠2
 10
1270.495130544936
 20
-478.9231401048442
 30
0.0
 11
1265.495130544936
 21
-478.9231401048442
 31
0.0
  0
TEXT
  5
F1
  8
回90-枠2
 10
1266.519479881011
 20
-519.6344528089849
 30
0.0
 40
4.0
  1
4
  0
TEXT
  5
F2
  8
回90-枠2
 10
701.8995515485952
 20
-288.6344528089848
 30
0.0
 40
4.0
  1
1
  0
LINE
  5
F3
  8
回90-枠2
 10
705.4951305449359
 20
-324.9231401048441
 30
0.0
 11
700.4951305449359
 21
-324.9231401048441
 31
0.0
  0
TEXT
  5
F4
  8
回90-枠2
 10
701.5980528452934
 20
-365.6344528089849
 30
0.0
 40
4.0
  1
2
  0
LINE
  5
F5
  8
回90-枠2
 10
705.4951305449359
 20
-401.9231401048442
 30
0.0
 11
700.4951305449359
 21
-401.9231401048442
 31
0.0
  0
TEXT
  5
F6
  8
回90-枠2
 10
701.5925720010926
 20
-442.6344528089849
 30
0.0
 40
4.0
  1
3
  0
LINE
  5
F7
  8
回90-枠2
 10
705.4951305449359
 20
-478.9231401048442
 30
0.0
 11
700.4951305449359
 21
-478.9231401048442
 31
0.0
  0
TEXT
  5
F8
  8
回90-枠2
 10
701.5194798810115
 20
-519.6344528089849
 30
0.0
 40
4.0
  1
4
  0
LINE
  5
F9
  8
回90-枠2
 10
1270.495130544936
 20
-555.9231401048442
 30
0.0
 11
1265.495130544936
 21
-555.9231401048442
 31
0.0
  0
TEXT
  5
FA
  8
回90-枠2
 10
1266.519479881011
 20
-596.6344528089847
 30
0.0
 40
4.0
  1
5
  0
TEXT
  5
FB
  8
回90-枠2
 10
1229.224515850588
 20
-637.5507169787928
 30
0.0
 40
4.0
  1
H
  0
LINE
  5
FC
  8
回90-枠2
 10
1195.495130544936
 20
-632.9231401048441
 30
0.0
 11
1195.495130544936
 21
-637.9231401048441
 31
0.0
  0
LINE
  5
FD
  8
回90-枠2
 10
1125.495130544936
 20
-632.9231401048441
 30
0.0
 11
1125.495130544936
 21
-637.9231401048441
 31
0.0
  0
TEXT
  5
FE
  8
回90-枠2
 10
1089.224515850588
 20
-637.5507169787928
 30
0.0
 40
4.0
  1
F
  0
LINE
  5
FF
  8
回90-枠2
 10
1055.495130544936
 20
-632.9231401048441
 30
0.0
 11
1055.495130544936
 21
-637.9231401048441
 31
0.0
  0
TEXT
  5
100
  8
回90-枠2
 10
1019.224515850588
 20
-637.5507169787928
 30
0.0
 40
4.0
  1
E
  0
TEXT
  5
101
  8
回90-枠2
 10
1159.224515850588
 20
-637.5507169787928
 30
0.0
 40
4.0
  1
G
  0
LINE
  5
102
  8
回90-枠2
 10
985.4951305449359
 20
-632.9231401048441
 30
0.0
 11
985.4951305449359
 21
-637.9231401048441
 31
0.0
  0
TEXT
  5
103
  8
回90-枠2
 10
949.2245158505882
 20
-637.5507169787928
 30
0.0
 40
4.0
  1
D
  0
LINE
  5
104
  8
回90-枠2
 10
915.4951305449356
 20
-632.9231401048441
 30
0.0
 11
915.4951305449356
 21
-637.9231401048441
 31
0.0
  0
TEXT
  5
105
  8
回90-枠2
 10
879.2245158505881
 20
-637.5507169787928
 30
0.0
 40
4.0
  1
C
  0
LINE
  5
106
  8
回90-枠2
 10
845.4951305449359
 20
-632.9231401048441
 30
0.0
 11
845.4951305449359
 21
-637.9231401048441
 31
0.0
  0
LINE
  5
107
  8
回90-枠2
 10
705.4951305449359
 20
-555.9231401048442
 30
0.0
 11
700.4951305449359
 21
-555.9231401048442
 31
0.0
  0
TEXT
  5
108
  8
回90-枠2
 10
701.5194798810115
 20
-596.6344528089847
 30
0.0
 40
4.0
  1
5
  0
TEXT
  5
109
  8
回90-枠2
 10
809.2245158505884
 20
-637.5507169787928
 30
0.0
 40
4.0
  1
B
  0
LINE
  5
10A
  8
回90-枠2
 10
775.4951305449359
 20
-632.9231401048441
 30
0.0
 11
775.4951305449359
 21
-637.9231401048441
 31
0.0
  0
TEXT
  5
10B
  8
回90-枠2
 10
739.2245158505882
 20
-637.5507169787928
 30
0.0
 40
4.0
  1
A
  0
LINE
  5
10C
  8
回90-枠2
 10
705.4951305449359
 20
-632.9231401048441
 30
0.0
 11
1265.495130544936
 21
-632.9231401048441
 31
0.0
  0
LINE
  5
10D
  8
回90-枠2
 10
1270.495130544936
 20
-637.9231401048441
 30
0.0
 11
700.4951305449359
 21
-637.9231401048441
 31
0.0
  0
LINE
  5
10E
  8
回90-枠2
 10
1270.495130544936
 20
-637.9231401048441
 30
0.0
 11
1270.495130544936
 21
-242.9231401048442
 31
0.0
  0
LINE
  5
10F
  8
回90-枠2
 10
1265.495130544936
 20
-247.9231401048442
 30
0.0
 11
1265.495130544936
 21
-632.9231401048441
 31
0.0
  0
LINE
  5
110
  8
回90-枠2
 10
700.4951305449359
 20
-637.9231401048441
 30
0.0
 11
700.4951305449359
 21
-242.9231401048442
 31
0.0
  0
LINE
  5
111
  8
回90-枠2
 10
705.4951305449359
 20
-247.9231401048442
 30
0.0
 11
705.4951305449359
 21
-632.9231401048441
 31
0.0
  0
TEXT
  5
112
  8
回08-記事
  6
CONTINUOUS
 62
     5
 10
1046.073763456682
 20
-504.5921956086668
 30
0.0
 40
4.0
  1
MTR-G084B070A
  0
TEXT
  5
113
  8
回08-記事
  6
CONTINUOUS
 62
     5
 10
1051.058632199089
 20
-499.1955868998888
 30
0.0
 40
4.0
  1
Product label
1001
ACAD
1000
MTEXTBEGIN
1070
    73
1070
     1
1070
    44
1040
1.0
1070
    74
1070
     0
1000
MTEXTEND
  0
INSERT
  5
114
  8
回08-記事
  6
CONTINUOUS
 62
     7
 66
     1
  2
*X7777
 10
0.0
 20
0.0
 30
0.0
  0
SEQEND
  5
634
  8
回04-下接
  6
CONTINUOUS
 62
     3
  0
TEXT
  5
116
  8
回08-記事
  6
CONTINUOUS
 62
     5
 10
1110.442741879875
 20
-499.1955868998888
 30
0.0
 40
4.0
  1
Lot label
1001
ACAD
1000
MTEXTBEGIN
1070
    73
1070
     1
1070
    44
1040
1.0
1070
    74
1070
     0
1000
MTEXTEND
  0
INSERT
  5
117
  8
回08-記事
  6
CONTINUOUS
 62
     7
 66
     1
  2
*X7878
 10
0.0
 20
0.0
 30
0.0
  0
SEQEND
  5
63B
  8
回04-下接
  6
CONTINUOUS
 62
     3
  0
LINE
  5
118
  8
回08-記事
  6
CONTINUOUS
 62
     7
 10
1117.085391886205
 20
-369.1586244617334
 30
0.0
 11
1107.13928696072
 21
-369.1475194743818
 31
0.0
  0
TEXT
  5
119
  8
回08-記事
  6
CONTINUOUS
 62
     7
 10
1118.303225457859
 20
-370.5588459994453
 30
0.0
 40
4.0
  1
2
  0
ARC
  5
11A
  8
回08-記事
  6
CONTINUOUS
 62
     7
 10
1102.337601508602
 20
-326.6050689798979
 30
0.0
 40
0.5
 50
90.0
 51
270.0
  0
ARC
  5
11B
  8
回08-記事
  6
CONTINUOUS
 62
     7
 10
1102.337601508602
 20
-329.485068979898
 30
0.0
 40
0.5
 50
90.0
 51
270.0
  0
ARC
  5
11C
  8
回08-記事
  6
CONTINUOUS
 62
     7
 10
1102.337601508602
 20
-343.8850689798978
 30
0.0
 40
0.5
 50
90.0
 51
270.0
  0
ARC
  5
11D
  8
回08-記事
  6
CONTINUOUS
 62
     7
 10
1102.337601508602
 20
-346.765068979898
 30
0.0
 40
0.5
 50
90.0
 51
270.0
  0
ARC
  5
11E
  8
回08-記事
  6
CONTINUOUS
 62
     7
 10
1102.337601508602
 20
-361.1650689798978
 30
0.0
 40
0.5
 50
90.0
 51
270.0
  0
ARC
  5
11F
  8
回08-記事
  6
CONTINUOUS
 62
     7
 10
1102.337601508602
 20
-372.6850689798979
 30
0.0
 40
0.5
 50
90.0
 51
270.0
  0
ARC
  5
120
  8
回08-記事
  6
CONTINUOUS
 62
     7
 10
1102.337601508602
 20
-375.5650689798978
 30
0.0
 40
0.5
 50
90.0
 51
270.0
  0
ARC
  5
121
  8
回08-記事
  6
CONTINUOUS
 62
     7
 10
1102.337601508602
 20
-378.4450689798978
 30
0.0
 40
0.5
 50
90.0
 51
270.0
  0
ARC
  5
122
  8
回08-記事
  6
CONTINUOUS
 62
     7
 10
1102.337601508602
 20
-381.3250689798978
 30
0.0
 40
0.5
 50
90.0
 51
270.0
  0
ARC
  5
123
  8
回08-記事
  6
CONTINUOUS
 62
     7
 10
1102.337601508602
 20
-384.2050689798981
 30
0.0
 40
0.5
 50
90.0
 51
270.0
  0
ARC
  5
124
  8
回08-記事
  6
CONTINUOUS
 62
     7
 10
1102.337601508602
 20
-387.0850689798979
 30
0.0
 40
0.5
 50
90.0
 51
270.0
  0
ARC
  5
125
  8
回08-記事
  6
CONTINUOUS
 62
     7
 10
1102.337601508602
 20
-395.725068979898
 30
0.0
 40
0.5
 50
90.0
 51
270.0
  0
ARC
  5
126
  8
回08-記事
  6
CONTINUOUS
 62
     7
 10
1102.337601508602
 20
-401.485068979898
 30
0.0
 40
0.5
 50
90.0
 51
270.0
  0
ARC
  5
127
  8
回08-記事
  6
CONTINUOUS
 62
     7
 10
1102.337601508602
 20
-404.3650689798978
 30
0.0
 40
0.5
 50
90.0
 51
270.0
  0
ARC
  5
128
  8
回08-記事
  6
CONTINUOUS
 62
     7
 10
1102.337601508602
 20
-407.245068979898
 30
0.0
 40
0.5
 50
90.0
 51
270.0
  0
ARC
  5
129
  8
回08-記事
  6
CONTINUOUS
 62
     7
 10
1102.337601508602
 20
-410.1250689798978
 30
0.0
 40
0.5
 50
90.0
 51
270.0
  0
ARC
  5
12A
  8
回08-記事
  6
CONTINUOUS
 62
     7
 10
1102.337601508602
 20
-415.8850689798978
 30
0.0
 40
0.5
 50
90.0
 51
270.0
  0
POLYLINE
  5
12B
  8
回08-記事
  6
CONTINUOUS
 62
     7
 66
     1
 10
0.0
 20
0.0
 30
0.0
 70
     1
  0
VERTEX
  5
A00
  8
回08-記事
  6
CONTINUOUS
 62
     7
 10
1100.637601508602
 20
-487.0077143499198
 30
0.0
  0
VERTEX
  5
A02
  8
回08-記事
  6
CONTINUOUS
 62
     7
 10
1101.337601508602
 20
-487.0077143499198
 30
0.0
  0
VERTEX
  5
A03
  8
回08-記事
  6
CONTINUOUS
 62
     7
 10
1101.337601508602
 20
-513.0077143499196
 30
0.0
  0
VERTEX
  5
A04
  8
回08-記事
  6
CONTINUOUS
 62
     7
 10
1100.637601508602
 20
-513.0077143499196
 30
0.0
  0
SEQEND
  5
A01
  8
回04-下接
  6
CONTINUOUS
 62
     3
  0
LINE
  5
12C
  8
回08-記事
  6
CONTINUOUS
 62
     7
 10
1097.252382275937
 20
-520.9926970933536
 30
0.0
 11
1100.6034653209
 21
-528.4458100622003
 31
0.0
  0
LINE
  5
12D
  8
回08-記事
  6
CONTINUOUS
 62
     7
 10
1094.154210205087
 20
-527.8141921340488
 30
0.0
 11
1097.252382275937
 21
-520.9926970933536
 31
0.0
  0
LINE
  5
12E
  8
回08-記事
  6
CONTINUOUS
 62
     7
 10
1092.91049281274
 20
-511.9003810502975
 30
0.0
 11
1089.049846981637
 21
-512.7222808524659
 31
0.0
  0
LINE
  5
12F
  8
回08-記事
  6
CONTINUOUS
 62
     7
 10
1092.095713039113
 20
-481.9488091412432
 30
0.0
 11
1089.55923789144
 21
-483.0256869605455
 31
0.0
  0
LINE
  5
130
  8
回08-記事
  6
CONTINUOUS
 62
     7
 10
1108.131188841797
 20
-471.3090560918089
 30
0.0
 11
1107.168357824938
 21
-467.7823756325961
 31
0.0
  0
LINE
  5
131
  8
回08-記事
  6
CONTINUOUS
 62
     7
 10
1098.743621813726
 20
-467.4617683181223
 30
0.0
 11
1108.131188841797
 21
-471.3090560918089
 31
0.0
  0
TEXT
  5
132
  8
回08-記事
  6
CONTINUOUS
 62
     7
 10
1096.137792132706
 20
-520.4247057500288
 30
0.0
 40
4.0
  1
5
  0
TEXT
  5
133
  8
回08-記事
  6
CONTINUOUS
 62
     7
 10
1085.838619614736
 20
-514.3956564531968
 30
0.0
 40
4.0
  1
3
  0
POLYLINE
  5
134
  8
回08-記事
  6
CONTINUOUS
 62
     7
 66
     1
 10
0.0
 20
0.0
 30
0.0
 70
     1
  0
VERTEX
  5
A05
  8
回08-記事
  6
CONTINUOUS
 62
     7
 10
1103.037601508602
 20
-487.0077143499198
 30
0.0
  0
VERTEX
  5
A07
  8
回08-記事
  6
CONTINUOUS
 62
     7
 10
1103.737601508602
 20
-487.0077143499198
 30
0.0
  0
VERTEX
  5
A08
  8
回08-記事
  6
CONTINUOUS
 62
     7
 10
1103.737601508602
 20
-513.0077143499196
 30
0.0
  0
VERTEX
  5
A09
  8
回08-記事
  6
CONTINUOUS
 62
     7
 10
1103.037601508602
 20
-513.0077143499196
 30
0.0
  0
SEQEND
  5
A06
  8
回04-下接
  6
CONTINUOUS
 62
     3
  0
INSERT
  5
135
  8
回08-記事
  6
CONTINUOUS
 62
     7
 66
     1
  2
*X7979
 10
0.0
 20
0.0
 30
0.0
1001
GRADIENTCOLOR1ACI
1070
     5
1001
GRADIENTCOLOR2ACI
1070
     2
1001
ACAD
1010
0.0
1020
0.0
1030
0.0
  0
SEQEND
  5
65D
  8
回04-下接
  6
CONTINUOUS
 62
     3
  0
LINE
  5
138
  8
回08-記事
  6
CONTINUOUS
 62
     7
 10
1103.037601508602
 20
-467.0250689798979
 30
0.0
 11
1103.037601508602
 21
-471.1410206090861
 31
0.0
1001
ACAD
1000
ASC_BOUNDS
1002
{
1070
    19
1005
13D
1002
}
  0
LINE
  5
139
  8
回08-記事
  6
CONTINUOUS
 62
     7
 10
1109.337601508602
 20
-467.0250689798979
 30
0.0
 11
1103.037601508602
 21
-467.0250689798979
 31
0.0
1001
ACAD
1000
ASC_BOUNDS
1002
{
1070
    19
1005
13D
1002
}
  0
LINE
  5
13A
  8
回08-記事
  6
CONTINUOUS
 62
     7
 10
1110.037601508602
 20
-467.7250689798979
 30
0.0
 11
1110.037601508602
 21
-464.2410206090859
 31
0.0
1001
ACAD
1000
ASC_BOUNDS
1002
{
1070
    19
1005
13D
1002
}
  0
LINE
  5
13B
  8
回08-記事
  6
CONTINUOUS
 62
     7
 10
1103.737601508602
 20
-471.1410206090861
 30
0.0
 11
1103.737601508602
 21
-467.7250689798979
 31
0.0
1001
ACAD
1000
ASC_BOUNDS
1002
{
1070
    19
1005
13D
1002
}
  0
LINE
  5
13C
  8
回08-記事
  6
CONTINUOUS
 62
     7
 10
1101.337601508602
 20
-467.7250689798979
 30
0.0
 11
1094.144417289631
 21
-467.7250689798979
 31
0.0
1001
ACAD
1000
ASC_BOUNDS
1002
{
1070
    19
1005
13D
1002
}
  0
INSERT
  5
13D
  8
回08-記事
  6
CONTINUOUS
 62
     7
 66
     1
  2
*X8080
 10
0.0
 20
0.0
 30
0.0
1001
GRADIENTCOLOR1ACI
1070
     5
1001
GRADIENTCOLOR2ACI
1070
     2
1001
ACAD
1010
0.0
1020
0.0
1030
0.0
  0
SEQEND
  5
675
  8
回04-下接
  6
CONTINUOUS
 62
     3
  0
DIMENSION
  5
13E
  8
回07-寸法
  6
CONTINUOUS
 62
     7
  2
*D4141
 10
1092.444417289631
 20
-547.4474778918387
 30
0.0
 11
1081.909489486482
 21
-544.9474778918387
 31
0.0
 70
    32
  1
0.3{\H0.66667x;±0.05}
  3
DMC
 13
1094.944417289632
 23
-537.0250931653044
 33
0.0
 14
1092.444417289631
 24
-537.0250931653044
 34
0.0
1001
ACAD
1000
DSTYLE
1002
{
1070
    41
1040
1.5
1070
    47
1040
0.2
1070
    48
1040
0.2
1070
   140
1040
4.0
1070
   141
1040
1.5
1070
   371
1070
    13
1070
   372
1070
    13
1002
}
  0
DIMENSION
  5
14F
  8
回07-寸法
  6
CONTINUOUS
 62
     7
  2
*D4242
 10
1098.699477758516
 20
-537.0250931653044
 30
0.0
 11
1096.732803758516
 21
-532.0250931653045
 31
0.0
 70
    32
  1
{\H0.66667x;(<>)}
  3
DMC
 13
1094.944417289632
 23
-527.0250931653046
 33
0.0
 14
1094.944417289632
 24
-537.0250931653044
 34
0.0
 50
90.0
1001
ACAD
1000
DSTYLE
1002
{
1070
    41
1040
1.5
1070
    47
1040
0.2
1070
    48
1040
0.2
1070
   140
1040
4.0
1070
   141
1040
1.5
1070
   371
1070
    13
1070
   372
1070
    13
1002
}
  0
LINE
  5
15E
  8
回08-記事
  6
CONTINUOUS
 62
     7
 10
1092.444417289631
 20
-456.8250689798978
 30
0.0
 11
1102.337601508602
 21
-456.8250689798978
 31
0.0
  0
POLYLINE
  5
15F
  8
回08-記事
  6
CONTINUOUS
 62
     7
 66
     1
 10
0.0
 20
0.0
 30
0.0
 70
     1
  0
VERTEX
  5
A0A
  8
回08-記事
  6
CONTINUOUS
 62
     7
 10
1102.337601508602
 20
-508.2610206090873
 30
0.0
  0
VERTEX
  5
A0C
  8
回08-記事
  6
CONTINUOUS
 62
     7
 10
1102.337601508602
 20
-467.0250689798979
 30
0.0
  0
VERTEX
  5
A0D
  8
回08-記事
  6
CONTINUOUS
 62
     7
 10
1103.037601508602
 20
-467.0250689798979
 30
0.0
  0
VERTEX
  5
A0E
  8
回08-記事
  6
CONTINUOUS
 62
     7
 10
1103.037601508602
 20
-508.2610206090873
 30
0.0
  0
VERTEX
  5
A0F
  8
回08-記事
  6
CONTINUOUS
 62
     7
 10
1103.037601508602
 20
-532.0250931653045
 30
0.0
  0
VERTEX
  5
A10
  8
回08-記事
  6
CONTINUOUS
 62
     7
 10
1102.337601508602
 20
-532.0250931653045
 30
0.0
  0
VERTEX
  5
A11
  8
回08-記事
  6
CONTINUOUS
 62
     7
 10
1102.337601508602
 20
-508.2610206090873
 30
0.0
  0
VERTEX
  5
A12
  8
回08-記事
  6
CONTINUOUS
 62
     7
 10
1102.337601508602
 20
-537.0250931653044
 30
0.0
  0
VERTEX
  5
A13
  8
回08-記事
  6
CONTINUOUS
 62
     7
 10
1101.337601508602
 20
-537.0250931653044
 30
0.0
  0
VERTEX
  5
A14
  8
回08-記事
  6
CONTINUOUS
 62
     7
 10
1101.337601508602
 20
-508.2610206090873
 30
0.0
  0
VERTEX
  5
A15
  8
回08-記事
  6
CONTINUOUS
 62
     7
 10
1101.337601508602
 20
-463.8750689798981
 30
0.0
  0
VERTEX
  5
A16
  8
回08-記事
  6
CONTINUOUS
 62
     7
 10
1102.337601508602
 20
-463.8750689798981
 30
0.0
  0
SEQEND
  5
A0B
  8
回04-下接
  6
CONTINUOUS
 62
     3
  0
POLYLINE
  5
160
  8
回08-記事
  6
CONTINUOUS
 62
     7
 66
     1
 10
0.0
 20
0.0
 30
0.0
 70
     1
  0
VERTEX
  5
A17
  8
回08-記事
  6
CONTINUOUS
 62
     7
 10
1092.444417289631
 20
-508.2610206090873
 30
0.0
  0
VERTEX
  5
A19
  8
回08-記事
  6
CONTINUOUS
 62
     7
 10
1092.444417289631
 20
-532.0250931653045
 30
0.0
  0
VERTEX
  5
A1A
  8
回08-記事
  6
CONTINUOUS
 62
     7
 10
1091.744417289632
 20
-532.0250931653045
 30
0.0
  0
VERTEX
  5
A1B
  8
回08-記事
  6
CONTINUOUS
 62
     7
 10
1091.744417289632
 20
-508.2610206090873
 30
0.0
  0
VERTEX
  5
A1C
  8
回08-記事
  6
CONTINUOUS
 62
     7
 10
1091.744417289632
 20
-466.525068979898
 30
0.0
  0
VERTEX
  5
A1D
  8
回08-記事
  6
CONTINUOUS
 62
     7
 10
1092.444417289631
 20
-466.525068979898
 30
0.0
  0
VERTEX
  5
A1E
  8
回08-記事
  6
CONTINUOUS
 62
     7
 10
1092.444417289631
 20
-508.2610206090873
 30
0.0
  0
VERTEX
  5
A1F
  8
回08-記事
  6
CONTINUOUS
 62
     7
 10
1092.444417289631
 20
-463.8750689798981
 30
0.0
  0
VERTEX
  5
A20
  8
回08-記事
  6
CONTINUOUS
 62
     7
 10
1093.444417289632
 20
-463.8750689798981
 30
0.0
  0
VERTEX
  5
A21
  8
回08-記事
  6
CONTINUOUS
 62
     7
 10
1093.444417289632
 20
-508.2610206090873
 30
0.0
  0
VERTEX
  5
A22
  8
回08-記事
  6
CONTINUOUS
 62
     7
 10
1093.444417289632
 20
-537.0250931653044
 30
0.0
  0
VERTEX
  5
A23
  8
回08-記事
  6
CONTINUOUS
 62
     7
 10
1092.444417289631
 20
-537.0250931653044
 30
0.0
  0
SEQEND
  5
A18
  8
回04-下接
  6
CONTINUOUS
 62
     3
  0
POLYLINE
  5
161
  8
回08-記事
  6
CONTINUOUS
 62
     7
 66
     1
 10
0.0
 20
0.0
 30
0.0
 70
     1
  0
VERTEX
  5
A24
  8
回08-記事
  6
CONTINUOUS
 62
     7
 10
1088.444417289632
 20
-317.0250689798982
 30
0.0
  0
VERTEX
  5
A26
  8
回08-記事
  6
CONTINUOUS
 62
     7
 10
1092.444417289631
 20
-317.0250689798982
 30
0.0
  0
VERTEX
  5
A27
  8
回08-記事
  6
CONTINUOUS
 62
     7
 10
1092.444417289631
 20
-466.525068979898
 30
0.0
  0
VERTEX
  5
A28
  8
回08-記事
  6
CONTINUOUS
 62
     7
 10
1088.444417289632
 20
-466.525068979898
 30
0.0
  0
SEQEND
  5
A25
  8
回04-下接
  6
CONTINUOUS
 62
     3
  0
POLYLINE
  5
162
  8
回08-記事
  6
CONTINUOUS
 62
     7
 66
     1
 10
0.0
 20
0.0
 30
0.0
 70
     1
  0
VERTEX
  5
A29
  8
回08-記事
  6
CONTINUOUS
 62
     7
 10
1102.337601508602
 20
-316.525068979898
 30
0.0
  0
VERTEX
  5
A2B
  8
回08-記事
  6
CONTINUOUS
 62
     7
 10
1109.337601508602
 20
-316.525068979898
 30
0.0
  0
VERTEX
  5
A2C
  8
回08-記事
  6
CONTINUOUS
 62
     7
 10
1109.337601508602
 20
-467.0250689798979
 30
0.0
  0
VERTEX
  5
A2D
  8
回08-記事
  6
CONTINUOUS
 62
     7
 10
1102.337601508602
 20
-467.0250689798979
 30
0.0
  0
SEQEND
  5
A2A
  8
回04-下接
  6
CONTINUOUS
 62
     3
  0
DIMENSION
  5
163
  8
回07-寸法
  6
CONTINUOUS
 62
     5
  2
*D4343
 10
1109.337601508602
 20
-306.0196936234486
 30
0.0
 11
1098.891009399117
 21
-303.5196936234486
 31
0.0
 70
    32
  1
2.1{\H0.5x;±0.2}
  3
DMC
 13
1088.444417289632
 23
-317.025068979898
 33
0.0
 14
1109.337601508602
 24
-316.525068979898
 34
0.0
1001
ACAD
1000
DSTYLE
1002
{
1070
    41
1040
1.5
1070
    47
1040
0.2
1070
    48
1040
0.2
1070
   140
1040
4.0
1070
   141
1040
1.5
1070
   371
1070
    13
1070
   372
1070
    13
1002
}
  0
LINE
  5
170
  8
回08-記事
  6
CONTINUOUS
 62
     7
 10
1090.015659283001
 20
-368.5796749679353
 30
0.0
 11
1083.666478996226
 21
-369.1475194743818
 31
0.0
  0
TEXT
  5
171
  8
回08-記事
  6
CONTINUOUS
 62
     7
 10
1079.997933073871
 20
-371.0934336914236
 30
0.0
 40
4.0
  1
1
  0
ARC
  5
172
  8
回08-記事
  6
CONTINUOUS
 62
     7
 10
1102.337601508602
 20
-332.3650689798979
 30
0.0
 40
0.5
 50
90.0
 51
270.0
  0
ARC
  5
173
  8
回08-記事
  6
CONTINUOUS
 62
     7
 10
1102.337601508602
 20
-335.245068979898
 30
0.0
 40
0.5
 50
90.0
 51
270.0
  0
ARC
  5
174
  8
回08-記事
  6
CONTINUOUS
 62
     7
 10
1102.337601508602
 20
-338.1250689798979
 30
0.0
 40
0.5
 50
90.0
 51
270.0
  0
ARC
  5
175
  8
回08-記事
  6
CONTINUOUS
 62
     7
 10
1102.337601508602
 20
-341.005068979898
 30
0.0
 40
0.5
 50
90.0
 51
270.0
  0
ARC
  5
176
  8
回08-記事
  6
CONTINUOUS
 62
     7
 10
1102.337601508602
 20
-349.6450689798978
 30
0.0
 40
0.5
 50
90.0
 51
270.0
  0
ARC
  5
177
  8
回08-記事
  6
CONTINUOUS
 62
     7
 10
1102.337601508602
 20
-352.525068979898
 30
0.0
 40
0.5
 50
90.0
 51
270.0
  0
ARC
  5
178
  8
回08-記事
  6
CONTINUOUS
 62
     7
 10
1102.337601508602
 20
-355.4050689798978
 30
0.0
 40
0.5
 50
90.0
 51
270.0
  0
ARC
  5
179
  8
回08-記事
  6
CONTINUOUS
 62
     7
 10
1102.337601508602
 20
-358.285068979898
 30
0.0
 40
0.5
 50
90.0
 51
270.0
  0
ARC
  5
17A
  8
回08-記事
  6
CONTINUOUS
 62
     7
 10
1102.337601508602
 20
-364.045068979898
 30
0.0
 40
0.5
 50
90.0
 51
270.0
  0
ARC
  5
17B
  8
回08-記事
  6
CONTINUOUS
 62
     7
 10
1102.337601508602
 20
-366.9250689798979
 30
0.0
 40
0.5
 50
90.0
 51
270.0
  0
ARC
  5
17C
  8
回08-記事
  6
CONTINUOUS
 62
     7
 10
1102.337601508602
 20
-369.8050689798979
 30
0.0
 40
0.5
 50
90.0
 51
270.0
  0
ARC
  5
17D
  8
回08-記事
  6
CONTINUOUS
 62
     7
 10
1102.337601508602
 20
-389.965068979898
 30
0.0
 40
0.5
 50
90.0
 51
270.0
  0
ARC
  5
17E
  8
回08-記事
  6
CONTINUOUS
 62
     7
 10
1102.337601508602
 20
-392.8450689798978
 30
0.0
 40
0.5
 50
90.0
 51
270.0
  0
ARC
  5
17F
  8
回08-記事
  6
CONTINUOUS
 62
     7
 10
1102.337601508602
 20
-398.6050689798979
 30
0.0
 40
0.5
 50
90.0
 51
270.0
  0
POLYLINE
  5
180
  8
回08-記事
  6
CONTINUOUS
 62
     7
 66
     1
 10
0.0
 20
0.0
 30
0.0
 70
     1
  0
VERTEX
  5
A2E
  8
回08-記事
  6
CONTINUOUS
 62
     7
 10
1092.444417289631
 20
-317.025068979898
 30
0.0
  0
VERTEX
  5
A30
  8
回08-記事
  6
CONTINUOUS
 62
     7
 10
1102.337601508602
 20
-317.025068979898
 30
0.0
  0
VERTEX
  5
A31
  8
回08-記事
  6
CONTINUOUS
 62
     7
 10
1102.337601508602
 20
-323.025068979898
 30
0.0
  0
VERTEX
  5
A32
  8
回08-記事
  6
CONTINUOUS
 62
     7
 10
1092.444417289631
 20
-323.025068979898
 30
0.0
  0
SEQEND
  5
A2F
  8
回04-下接
  6
CONTINUOUS
 62
     3
  0
ARC
  5
181
  8
回08-記事
  6
CONTINUOUS
 62
     7
 10
1102.337601508602
 20
-413.005068979898
 30
0.0
 40
0.5
 50
90.0
 51
270.0
  0
INSERT
  5
182
  8
回08-記事
  6
CONTINUOUS
 62
     7
 66
     1
  2
*X8181
 10
0.0
 20
0.0
 30
0.0
1001
GRADIENTCOLOR1ACI
1070
     5
1001
GRADIENTCOLOR2ACI
1070
     2
1001
ACAD
1010
0.0
1020
0.0
1030
0.0
  0
SEQEND
  5
6B6
  8
回04-下接
  6
CONTINUOUS
 62
     3
  0
LINE
  5
183
  8
回08-記事
  6
CONTINUOUS
 62
     7
 10
1089.049846981637
 20
-512.7222808524659
 30
0.0
 11
1101.581118144198
 21
-515.6305452211252
 31
0.0
  0
LINE
  5
184
  8
回08-記事
  6
CONTINUOUS
 62
     7
 10
1089.55923789144
 20
-483.0256869605455
 30
0.0
 11
1102.812329005463
 21
-484.9894029372953
 31
0.0
  0
TEXT
  5
185
  8
回08-記事
  6
CONTINUOUS
 62
     7
 10
1109.2826348894
 20
-474.2971615661716
 30
0.0
 40
4.0
  1
6
  0
TEXT
  5
186
  8
回08-記事
  6
CONTINUOUS
 62
     7
 10
1085.899827811309
 20
-484.7550432198551
 30
0.0
 40
4.0
  1
4
  0
LINE
  5
187
  8
回08-記事
  6
CONTINUOUS
 62
     7
 10
1109.337601508602
 20
-464.2410206090859
 30
0.0
 11
1109.337601508602
 21
-467.0250689798979
 31
0.0
1001
ACAD
1000
ASC_BOUNDS
1002
{
1070
    19
1005
13D
1002
}
  0
LINE
  5
188
  8
回08-記事
  6
CONTINUOUS
 62
     7
 10
1110.037601508602
 20
-464.2410206090859
 30
0.0
 11
1109.337601508602
 21
-464.2410206090859
 31
0.0
1001
ACAD
1000
ASC_BOUNDS
1002
{
1070
    19
1005
13D
1002
}
  0
LINE
  5
189
  8
回08-記事
  6
CONTINUOUS
 62
     7
 10
1103.037601508602
 20
-471.1410206090861
 30
0.0
 11
1103.737601508602
 21
-471.1410206090861
 31
0.0
1001
ACAD
1000
ASC_BOUNDS
1002
{
1070
    19
1005
13D
1002
}
  0
LINE
  5
18A
  8
回08-記事
  6
CONTINUOUS
 62
     7
 10
1103.737601508602
 20
-467.7250689798979
 30
0.0
 11
1110.037601508602
 21
-467.7250689798979
 31
0.0
1001
ACAD
1000
ASC_BOUNDS
1002
{
1070
    19
1005
13D
1002
}
  0
LINE
  5
18B
  8
回08-記事
  6
CONTINUOUS
 62
     7
 10
1094.144417289631
 20
-467.7250689798979
 30
0.0
 11
1094.144417289631
 21
-471.1410206090861
 31
0.0
1001
ACAD
1000
ASC_BOUNDS
1002
{
1070
    19
1005
13D
1002
}
  0
LINE
  5
18C
  8
回08-記事
  6
CONTINUOUS
 62
     7
 10
1094.144417289631
 20
-471.1410206090861
 30
0.0
 11
1093.444417289632
 21
-471.1410206090861
 31
0.0
1001
ACAD
1000
ASC_BOUNDS
1002
{
1070
    19
1005
13D
1002
}
  0
LINE
  5
18D
  8
回08-記事
  6
CONTINUOUS
 62
     7
 10
1101.337601508602
 20
-466.7250689798979
 30
0.0
 11
1101.337601508602
 21
-467.7250689798979
 31
0.0
1001
ACAD
1000
ASC_BOUNDS
1002
{
1070
    19
1005
13D
1002
}
  0
LINE
  5
18E
  8
回08-記事
  6
CONTINUOUS
 62
     7
 10
1093.444417289632
 20
-466.7250689798979
 30
0.0
 11
1101.337601508602
 21
-466.7250689798979
 31
0.0
1001
ACAD
1000
ASC_BOUNDS
1002
{
1070
    19
1005
13D
1002
}
  0
LINE
  5
18F
  8
回08-記事
  6
CONTINUOUS
 62
     7
 10
1093.444417289632
 20
-471.1410206090861
 30
0.0
 11
1093.444417289632
 21
-466.7250689798979
 31
0.0
1001
ACAD
1000
ASC_BOUNDS
1002
{
1070
    19
1005
13D
1002
}
  0
DIMENSION
  5
190
  8
回07-寸法
  6
CONTINUOUS
 62
     7
  2
*D4444
 10
1102.337601508602
 20
-553.7527180630311
 30
0.0
 11
1112.872529311752
 21
-551.2527180630311
 31
0.0
 70
    32
  1
0.3{\H0.66667x;±0.05}
  3
DMC
 13
1099.837601508602
 23
-537.0250931653044
 33
0.0
 14
1102.337601508602
 24
-537.0250931653044
 34
0.0
1001
ACAD
1000
DSTYLE
1002
{
1070
    41
1040
1.5
1070
    47
1040
0.2
1070
    48
1040
0.2
1070
   140
1040
4.0
1070
   141
1040
1.5
1070
   371
1070
    13
1070
   372
1070
    13
1002
}
  0
DIMENSION
  5
1A1
  8
回07-寸法
  6
CONTINUOUS
 62
     7
  2
*D4545
 10
1111.453240099289
 20
-532.0250931653045
 30
0.0
 11
1108.953240099289
 21
-534.5250931653046
 31
0.0
 70
    32
  3
DMC
 13
1102.337601508602
 23
-537.0250931653044
 33
0.0
 14
1103.037601508602
 24
-532.0250931653045
 34
0.0
 50
90.0
1001
ACAD
1000
DSTYLE
1002
{
1070
    41
1040
1.5
1070
    47
1040
0.2
1070
    48
1040
0.2
1070
   140
1040
4.0
1070
   141
1040
1.5
1070
   371
1070
    13
1070
   372
1070
    13
1002
}
  0
DIMENSION
  5
1B0
  8
回07-寸法
  6
CONTINUOUS
 62
     7
  2
*D4646
 10
1084.578699308004
 20
-532.0250931653045
 30
0.0
 11
1082.078699308004
 21
-534.5250931653046
 31
0.0
 70
    32
  3
DMC
 13
1092.444417289631
 23
-537.0250931653044
 33
0.0
 14
1091.744417289632
 24
-532.0250931653045
 34
0.0
 50
90.0
1001
ACAD
1000
DSTYLE
1002
{
1070
    41
1040
1.5
1070
    47
1040
0.2
1070
    48
1040
0.2
1070
   140
1040
4.0
1070
   141
1040
1.5
1070
   371
1070
    13
1070
   372
1070
    13
1002
}
  0
LINE
  5
1BF
  8
回08-記事
  6
CONTINUOUS
 62
     7
 10
1093.444417289632
 20
-466.7250689798979
 30
0.0
 11
1101.337601508602
 21
-466.7250689798979
 31
0.0
  0
POLYLINE
  5
1C0
  8
回08-記事
  6
CONTINUOUS
 62
     7
 66
     1
 10
0.0
 20
0.0
 30
0.0
 70
     1
  0
VERTEX
  5
A33
  8
回08-記事
  6
CONTINUOUS
 62
     7
 10
1099.837601508602
 20
-527.0250931653046
 30
0.0
  0
VERTEX
  5
A35
  8
回08-記事
  6
CONTINUOUS
 62
     7
 10
1101.337601508602
 20
-527.0250931653046
 30
0.0
  0
VERTEX
  5
A36
  8
回08-記事
  6
CONTINUOUS
 62
     7
 10
1101.337601508602
 20
-537.0250931653044
 30
0.0
  0
VERTEX
  5
A37
  8
回08-記事
  6
CONTINUOUS
 62
     7
 10
1099.837601508602
 20
-537.0250931653044
 30
0.0
  0
SEQEND
  5
A34
  8
回04-下接
  6
CONTINUOUS
 62
     3
  0
POLYLINE
  5
1C1
  8
回08-記事
  6
CONTINUOUS
 62
     7
 66
     1
 10
0.0
 20
0.0
 30
0.0
 70
     1
  0
VERTEX
  5
A38
  8
回08-記事
  6
CONTINUOUS
 62
     7
 10
1093.444417289632
 20
-527.0250931653046
 30
0.0
  0
VERTEX
  5
A3A
  8
回08-記事
  6
CONTINUOUS
 62
     7
 10
1094.944417289632
 20
-527.0250931653046
 30
0.0
  0
VERTEX
  5
A3B
  8
回08-記事
  6
CONTINUOUS
 62
     7
 10
1094.944417289632
 20
-537.0250931653044
 30
0.0
  0
VERTEX
  5
A3C
  8
回08-記事
  6
CONTINUOUS
 62
     7
 10
1093.444417289632
 20
-537.0250931653044
 30
0.0
  0
SEQEND
  5
A39
  8
回04-下接
  6
CONTINUOUS
 62
     3
  0
TEXT
  5
1C2
  8
回08-記事
  6
CONTINUOUS
 62
     7
 10
1230.696048600279
 20
-433.0964505645384
 30
0.0
 40
4.105728
  1
U5
  0
TEXT
  5
1C3
  8
回08-記事
  6
CONTINUOUS
 62
     7
 10
1230.696048600279
 20
-364.7336657167614
 30
0.0
 40
4.105728
  1
D5
  0
TEXT
  5
1C4
  8
回08-記事
  6
CONTINUOUS
 62
     7
 10
1187.488478998209
 20
-351.5089667111063
 30
0.0
 40
4.105728
  1
R6
  0
TEXT
  5
1C5
  8
回08-記事
  6
CONTINUOUS
 62
     7
 10
1230.852690902363
 20
-317.1067911216181
 30
0.0
 40
4.105728
  1
U6
  0
TEXT
  5
1C6
  8
回08-記事
  6
CONTINUOUS
 62
     7
 10
1230.696048600279
 20
-350.9818905645385
 30
0.0
 40
4.105728
  1
D7
  0
TEXT
  5
1C7
  8
回08-記事
  6
CONTINUOUS
 62
     7
 10
1230.696048600279
 20
-398.8820505645384
 30
0.0
 40
4.105728
  1
SDL
  0
TEXT
  5
1C8
  8
回08-記事
  6
CONTINUOUS
 62
     7
 10
1230.696048600279
 20
-405.7249305645378
 30
0.0
 40
4.105728
  1
U1
  0
TEXT
  5
1C9
  8
回08-記事
  6
CONTINUOUS
 62
     7
 10
1230.696048600279
 20
-412.567810564538
 30
0.0
 40
4.105728
  1
U2
  0
TEXT
  5
1CA
  8
回08-記事
  6
CONTINUOUS
 62
     7
 10
1230.696048600279
 20
-419.4106905645381
 30
0.0
 40
4.105728
  1
U3
  0
TEXT
  5
1CB
  8
回08-記事
  6
CONTINUOUS
 62
     7
 10
1230.696048600279
 20
-426.2535705645381
 30
0.0
 40
4.105728
  1
U4
  0
TEXT
  5
1CC
  8
回08-記事
  6
CONTINUOUS
 62
     7
 10
1187.598194304378
 20
-419.4106905645381
 30
0.0
 40
4.105728
  1
SUL
  0
TEXT
  5
1CD
  8
回08-記事
  6
CONTINUOUS
 62
     7
 10
1187.598194304378
 20
-412.567810564538
 30
0.0
 40
4.105728
  1
L1
  0
TEXT
  5
1CE
  8
回08-記事
  6
CONTINUOUS
 62
     7
 10
1187.598194304378
 20
-405.7249305645385
 30
0.0
 40
4.105728
  1
L2
  0
TEXT
  5
1CF
  8
回08-記事
  6
CONTINUOUS
 62
     7
 10
1187.598194304378
 20
-392.0391705645382
 30
0.0
 40
4.105728
  1
L4
  0
TEXT
  5
1D0
  8
回08-記事
  6
CONTINUOUS
 62
     7
 10
1187.598194304378
 20
-385.1962905645381
 30
0.0
 40
4.105728
  1
L5
  0
TEXT
  5
1D1
  8
回08-記事
  6
CONTINUOUS
 62
     7
 10
1187.598194304378
 20
-378.3534105645383
 30
0.0
 40
4.105728
  1
L6
  0
TEXT
  5
1D2
  8
回08-記事
  6
CONTINUOUS
 62
     7
 10
1187.598194304378
 20
-371.5105305645382
 30
0.0
 40
4.105728
  1
L7
  0
TEXT
  5
1D3
  8
回08-記事
  6
CONTINUOUS
 62
     7
 10
1182.927869143782
 20
-298.3761244134888
 30
0.0
 40
4.104085708799997
  1
PIN ASSIGNMENT
  0
TEXT
  5
1D4
  8
回08-記事
  6
CONTINUOUS
 62
     7
 10
1230.355795621902
 20
-385.3586488724602
 30
0.0
 40
4.105728
  1
D2
  0
TEXT
  5
1D5
  8
回08-記事
  6
CONTINUOUS
 62
     7
 10
1230.758942342865
 20
-392.2015288724604
 30
0.0
 40
4.105728
  1
D1
  0
TEXT
  5
1D6
  8
回08-記事
  6
CONTINUOUS
 62
     7
 10
1230.758942342865
 20
-378.5157688724601
 30
0.0
 40
4.105728
  1
D3
  0
TEXT
  5
1D7
  8
回08-記事
  6
CONTINUOUS
 62
     7
 10
1208.606527913077
 20
-392.0391705645382
 30
0.0
 40
4.105728
  1
28
  0
LINE
  5
1D8
  8
回08-記事
  6
CONTINUOUS
 62
     7
 10
1214.326042305327
 20
-335.4492363532279
 30
0.0
 11
1229.18696686133
 21
-335.4492363532279
 31
0.0
  0
LINE
  5
1D9
  8
回08-記事
  6
CONTINUOUS
 62
     7
 10
1214.326042305327
 20
-328.6063563532278
 30
0.0
 11
1229.18696686133
 21
-328.6063563532278
 31
0.0
  0
TEXT
  5
1DA
  8
回08-記事
  6
CONTINUOUS
 62
     7
 10
1208.610876927994
 20
-419.4106905645381
 30
0.0
 40
4.105728
  1
32
  0
LINE
  5
1DB
  8
回08-記事
  6
CONTINUOUS
 62
     7
 10
1214.326042305327
 20
-355.9778763532278
 30
0.0
 11
1229.18696686133
 21
-355.9778763532278
 31
0.0
  0
LINE
  5
1DC
  8
回08-記事
  6
CONTINUOUS
 62
     7
 10
1214.326042305327
 20
-349.1349963532278
 30
0.0
 11
1229.18696686133
 21
-349.1349963532278
 31
0.0
  0
TEXT
  5
1DD
  8
回08-記事
  6
CONTINUOUS
 62
     7
 10
1208.640393438173
 20
-433.0964505645378
 30
0.0
 40
4.105728
  1
34
  0
TEXT
  5
1DE
  8
回08-記事
  6
CONTINUOUS
 62
     7
 10
1231.071510472486
 20
-344.0052107057232
 30
0.0
 40
4.105728
  1
D8
  0
TEXT
  5
1DF
  8
回08-記事
  6
CONTINUOUS
 62
     7
 10
1231.071510472486
 20
-337.162330705723
 30
0.0
 40
4.105728
  1
SUR
  0
LINE
  5
1E0
  8
回08-記事
  6
CONTINUOUS
 62
     7
 10
1214.326042305327
 20
-424.4066763532278
 30
0.0
 11
1229.18696686133
 21
-424.4066763532278
 31
0.0
  0
LINE
  5
1E1
  8
回08-記事
  6
CONTINUOUS
 62
     7
 10
1214.326042305327
 20
-403.8780363532278
 30
0.0
 11
1229.18696686133
 21
-403.8780363532278
 31
0.0
  0
LINE
  5
1E2
  8
回08-記事
  6
CONTINUOUS
 62
     7
 10
1214.326042305327
 20
-397.0351563532277
 30
0.0
 11
1229.18696686133
 21
-397.0351563532277
 31
0.0
  0
LINE
  5
1E3
  8
回08-記事
  6
CONTINUOUS
 62
     7
 10
1214.326042305327
 20
-383.3493963532279
 30
0.0
 11
1229.18696686133
 21
-383.3493963532279
 31
0.0
  0
LINE
  5
1E4
  8
回08-記事
  6
CONTINUOUS
 62
     7
 10
1214.326042305327
 20
-390.192276353228
 30
0.0
 11
1229.18696686133
 21
-390.192276353228
 31
0.0
  0
TEXT
  5
1E5
  8
回08-記事
  6
CONTINUOUS
 62
     7
 10
1208.275099272474
 20
-378.3534105645383
 30
0.0
 40
4.105728
  1
26
  0
TEXT
  5
1E6
  8
回08-記事
  6
CONTINUOUS
 62
     7
 10
1187.598194304378
 20
-398.8820505645384
 30
0.0
 40
4.105728
  1
L3
  0
TEXT
  5
1E7
  8
回08-記事
  6
CONTINUOUS
 62
     7
 10
1187.598194304378
 20
-323.6103705645383
 30
0.0
 40
4.105728
  1
R2
  0
TEXT
  5
1E8
  8
回08-記事
  6
CONTINUOUS
 62
     7
 10
1187.598194304378
 20
-364.9512583465524
 30
0.0
 40
4.105728
  1
SDR
  0
TEXT
  5
1E9
  8
回08-記事
  6
CONTINUOUS
 62
     7
 10
1187.598194304378
 20
-344.1390105645384
 30
0.0
 40
4.105728
  1
R5
  0
TEXT
  5
1EA
  8
回08-記事
  6
CONTINUOUS
 62
     7
 10
1169.848873332928
 20
-307.2947083265088
 30
0.0
 40
4.105728
  1
Tail-1
  0
TEXT
  5
1EB
  8
回08-記事
  6
CONTINUOUS
 62
     7
 10
1187.598194304378
 20
-337.2961305645381
 30
0.0
 40
4.105728
  1
R4
  0
TEXT
  5
1EC
  8
回08-記事
  6
CONTINUOUS
 62
     7
 10
1166.865401875739
 20
-316.7674905645382
 30
0.0
 40
4.105728
  1
1
  0
LINE
  5
1ED
  8
回08-記事
  6
CONTINUOUS
 62
     7
 10
1171.228188009427
 20
-314.9205963532282
 30
0.0
 11
1186.08911256543
 21
-314.9205963532282
 31
0.0
  0
LINE
  5
1EE
  8
回08-記事
  6
CONTINUOUS
 62
     7
 10
1171.228188009427
 20
-321.7634763532283
 30
0.0
 11
1186.08911256543
 21
-321.7634763532283
 31
0.0
  0
LINE
  5
1EF
  8
回08-記事
  6
CONTINUOUS
 62
     7
 10
1171.228188009427
 20
-328.6063563532278
 30
0.0
 11
1186.08911256543
 21
-328.6063563532278
 31
0.0
  0
TEXT
  5
1F0
  8
回08-記事
  6
CONTINUOUS
 62
     7
 10
1166.865401875739
 20
-323.6103705645383
 30
0.0
 40
4.105728
  1
2
  0
LINE
  5
1F1
  8
回08-記事
  6
CONTINUOUS
 62
     7
 10
1171.228188009427
 20
-335.4492363532279
 30
0.0
 11
1186.08911256543
 21
-335.4492363532279
 31
0.0
  0
TEXT
  5
1F2
  8
回08-記事
  6
CONTINUOUS
 62
     7
 10
1166.865401875739
 20
-344.1390105645384
 30
0.0
 40
4.105728
  1
5
  0
TEXT
  5
1F3
  8
回08-記事
  6
CONTINUOUS
 62
     7
 10
1166.865401875739
 20
-337.2961305645381
 30
0.0
 40
4.105728
  1
4
  0
TEXT
  5
1F4
  8
回08-記事
  6
CONTINUOUS
 62
     7
 10
1166.865401875739
 20
-350.9818905645385
 30
0.0
 40
4.105728
  1
6
  0
LINE
  5
1F5
  8
回08-記事
  6
CONTINUOUS
 62
     7
 10
1171.228188009427
 20
-355.9778763532278
 30
0.0
 11
1186.08911256543
 21
-355.9778763532278
 31
0.0
  0
LINE
  5
1F6
  8
回08-記事
  6
CONTINUOUS
 62
     7
 10
1171.228188009427
 20
-349.1349963532278
 30
0.0
 11
1186.08911256543
 21
-349.1349963532278
 31
0.0
  0
TEXT
  5
1F7
  8
回08-記事
  6
CONTINUOUS
 62
     7
 10
1166.865401875739
 20
-364.6676505645381
 30
0.0
 40
4.105728
  1
8
  0
LINE
  5
1F8
  8
回08-記事
  6
CONTINUOUS
 62
     7
 10
1171.228188009427
 20
-362.8207563532281
 30
0.0
 11
1186.08911256543
 21
-362.8207563532281
 31
0.0
  0
LINE
  5
1F9
  8
回08-記事
  6
CONTINUOUS
 62
     7
 10
1171.228188009427
 20
-410.720916353228
 30
0.0
 11
1186.08911256543
 21
-410.720916353228
 31
0.0
  0
LINE
  5
1FA
  8
回08-記事
  6
CONTINUOUS
 62
     7
 10
1171.228188009427
 20
-397.0351563532277
 30
0.0
 11
1186.08911256543
 21
-397.0351563532277
 31
0.0
  0
LINE
  5
1FB
  8
回08-記事
  6
CONTINUOUS
 62
     7
 10
1171.228188009427
 20
-390.192276353228
 30
0.0
 11
1186.08911256543
 21
-390.192276353228
 31
0.0
  0
LINE
  5
1FC
  8
回08-記事
  6
CONTINUOUS
 62
     7
 10
1171.228188009427
 20
-403.8780363532278
 30
0.0
 11
1186.08911256543
 21
-403.8780363532278
 31
0.0
  0
LINE
  5
1FD
  8
回08-記事
  6
CONTINUOUS
 62
     7
 10
1171.228188009427
 20
-376.506516353228
 30
0.0
 11
1186.08911256543
 21
-376.506516353228
 31
0.0
  0
TEXT
  5
1FE
  8
回08-記事
  6
CONTINUOUS
 62
     7
 10
1208.275099272474
 20
-364.6676505645388
 30
0.0
 40
4.105728
  1
24
  0
TEXT
  5
1FF
  8
回08-記事
  6
CONTINUOUS
 62
     7
 10
1208.275099272474
 20
-357.8247705645387
 30
0.0
 40
4.105728
  1
23
  0
TEXT
  5
200
  8
回08-記事
  6
CONTINUOUS
 62
     7
 10
1208.275099272474
 20
-344.1390105645388
 30
0.0
 40
4.105728
  1
21
  0
TEXT
  5
201
  8
回08-記事
  6
CONTINUOUS
 62
     7
 10
1208.275099272474
 20
-330.4532505645385
 30
0.0
 40
4.105728
  1
19
  0
TEXT
  5
202
  8
回08-記事
  6
CONTINUOUS
 62
     7
 10
1208.275099272474
 20
-323.6103705645383
 30
0.0
 40
4.105728
  1
18
  0
TEXT
  5
203
  8
回08-記事
  6
CONTINUOUS
 62
     7
 10
1165.177244976573
 20
-419.4106905645381
 30
0.0
 40
4.105728
  1
16
  0
TEXT
  5
204
  8
回08-記事
  6
CONTINUOUS
 62
     7
 10
1164.930196593169
 20
-412.567810564538
 30
0.0
 40
4.105728
  1
15
  0
TEXT
  5
205
  8
回08-記事
  6
CONTINUOUS
 62
     7
 10
1164.930196593169
 20
-398.8820505645384
 30
0.0
 40
4.105728
  1
13
  0
TEXT
  5
206
  8
回08-記事
  6
CONTINUOUS
 62
     7
 10
1164.930196593169
 20
-385.1962905645385
 30
0.0
 40
4.105728
  1
11
  0
TEXT
  5
207
  8
回08-記事
  6
CONTINUOUS
 62
     7
 10
1164.930196593169
 20
-378.3534105645383
 30
0.0
 40
4.105728
  1
10
  0
TEXT
  5
208
  8
回08-記事
  6
CONTINUOUS
 62
     7
 10
1230.758942342865
 20
-371.6728888724599
 30
0.0
 40
4.105728
  1
D4
  0
TEXT
  5
209
  8
回08-記事
  6
CONTINUOUS
 62
     7
 10
1230.696048600278
 20
-357.8247705645379
 30
0.0
 40
4.105728
  1
D6
  0
LINE
  5
20A
  8
回08-記事
  6
CONTINUOUS
 62
     7
 10
1214.326042305327
 20
-314.9205963532282
 30
0.0
 11
1229.18696686133
 21
-314.9205963532282
 31
0.0
  0
TEXT
  5
20B
  8
回08-記事
  6
CONTINUOUS
 62
     7
 10
1208.606527913077
 20
-385.1962905645381
 30
0.0
 40
4.105728
  1
27
  0
LINE
  5
20C
  8
回08-記事
  6
CONTINUOUS
 62
     7
 10
1214.326042305327
 20
-321.7634763532283
 30
0.0
 11
1229.18696686133
 21
-321.7634763532283
 31
0.0
  0
TEXT
  5
20D
  8
回08-記事
  6
CONTINUOUS
 62
     7
 10
1208.606527913077
 20
-398.8820505645384
 30
0.0
 40
4.105728
  1
29
  0
TEXT
  5
20E
  8
回08-記事
  6
CONTINUOUS
 62
     7
 10
1208.610876927994
 20
-405.7249305645378
 30
0.0
 40
4.105728
  1
30
  0
TEXT
  5
20F
  8
回08-記事
  6
CONTINUOUS
 62
     7
 10
1208.610876927994
 20
-412.567810564538
 30
0.0
 40
4.105728
  1
31
  0
LINE
  5
210
  8
回08-記事
  6
CONTINUOUS
 62
     7
 10
1214.326042305327
 20
-342.2921163532281
 30
0.0
 11
1229.18696686133
 21
-342.2921163532281
 31
0.0
  0
TEXT
  5
211
  8
回08-記事
  6
CONTINUOUS
 62
     7
 10
1208.640393438173
 20
-426.2535705645378
 30
0.0
 40
4.105728
  1
33
  0
LINE
  5
212
  8
回08-記事
  6
CONTINUOUS
 62
     7
 10
1214.326042305327
 20
-362.8207563532281
 30
0.0
 11
1229.18696686133
 21
-362.8207563532281
 31
0.0
  0
TEXT
  5
213
  8
回08-記事
  6
CONTINUOUS
 62
     7
 10
1231.071510472486
 20
-330.3194507057229
 30
0.0
 40
4.105728
  1
U8
  0
TEXT
  5
214
  8
回08-記事
  6
CONTINUOUS
 62
     7
 10
1231.071510472486
 20
-323.4765707057232
 30
0.0
 40
4.105728
  1
U7
  0
LINE
  5
215
  8
回08-記事
  6
CONTINUOUS
 62
     7
 10
1214.326042305327
 20
-431.2495563532278
 30
0.0
 11
1229.18696686133
 21
-431.2495563532278
 31
0.0
  0
LINE
  5
216
  8
回08-記事
  6
CONTINUOUS
 62
     7
 10
1214.326042305327
 20
-410.720916353228
 30
0.0
 11
1229.18696686133
 21
-410.720916353228
 31
0.0
  0
LINE
  5
217
  8
回08-記事
  6
CONTINUOUS
 62
     7
 10
1214.326042305327
 20
-417.5637963532281
 30
0.0
 11
1229.18696686133
 21
-417.5637963532281
 31
0.0
  0
LINE
  5
218
  8
回08-記事
  6
CONTINUOUS
 62
     7
 10
1214.326042305327
 20
-376.506516353228
 30
0.0
 11
1229.18696686133
 21
-376.506516353228
 31
0.0
  0
LINE
  5
219
  8
回08-記事
  6
CONTINUOUS
 62
     7
 10
1214.326042305327
 20
-369.6636363532281
 30
0.0
 11
1229.18696686133
 21
-369.6636363532281
 31
0.0
  0
TEXT
  5
21A
  8
回08-記事
  6
CONTINUOUS
 62
     7
 10
1187.598194304378
 20
-330.4532505645385
 30
0.0
 40
4.105728
  1
R3
  0
TEXT
  5
21B
  8
回08-記事
  6
CONTINUOUS
 62
     7
 10
1208.275099272474
 20
-371.5105305645389
 30
0.0
 40
4.105728
  1
25
  0
TEXT
  5
21C
  8
回08-記事
  6
CONTINUOUS
 62
     7
 10
1187.598194304378
 20
-357.8247705645379
 30
0.0
 40
4.105728
  1
R7
  0
TEXT
  5
21D
  8
回08-記事
  6
CONTINUOUS
 62
     7
 10
1187.598194304378
 20
-316.7674905645382
 30
0.0
 40
4.105728
  1
R1
  0
TEXT
  5
21E
  8
回08-記事
  6
CONTINUOUS
 62
     7
 10
1213.853722363621
 20
-307.2947083265088
 30
0.0
 40
4.105728
  1
Tail-2
  0
TEXT
  5
21F
  8
回08-記事
  6
CONTINUOUS
 62
     7
 10
1166.865401875739
 20
-330.4532505645385
 30
0.0
 40
4.105728
  1
3
  0
LINE
  5
220
  8
回08-記事
  6
CONTINUOUS
 62
     7
 10
1171.228188009427
 20
-342.2921163532281
 30
0.0
 11
1186.08911256543
 21
-342.2921163532281
 31
0.0
  0
TEXT
  5
221
  8
回08-記事
  6
CONTINUOUS
 62
     7
 10
1166.865401875739
 20
-357.8247705645379
 30
0.0
 40
4.105728
  1
7
  0
LINE
  5
222
  8
回08-記事
  6
CONTINUOUS
 62
     7
 10
1171.228188009427
 20
-417.5637963532281
 30
0.0
 11
1186.08911256543
 21
-417.5637963532281
 31
0.0
  0
LINE
  5
223
  8
回08-記事
  6
CONTINUOUS
 62
     7
 10
1171.228188009427
 20
-383.3493963532279
 30
0.0
 11
1186.08911256543
 21
-383.3493963532279
 31
0.0
  0
LINE
  5
224
  8
回08-記事
  6
CONTINUOUS
 62
     7
 10
1171.228188009427
 20
-369.6636363532281
 30
0.0
 11
1186.08911256543
 21
-369.6636363532281
 31
0.0
  0
TEXT
  5
225
  8
回08-記事
  6
CONTINUOUS
 62
     7
 10
1208.275099272474
 20
-350.9818905645385
 30
0.0
 40
4.105728
  1
22
  0
TEXT
  5
226
  8
回08-記事
  6
CONTINUOUS
 62
     7
 10
1208.275099272474
 20
-337.2961305645386
 30
0.0
 40
4.105728
  1
20
  0
TEXT
  5
227
  8
回08-記事
  6
CONTINUOUS
 62
     7
 10
1208.275099272474
 20
-316.7674905645388
 30
0.0
 40
4.105728
  1
17
  0
TEXT
  5
228
  8
回08-記事
  6
CONTINUOUS
 62
     7
 10
1164.930196593169
 20
-405.7249305645385
 30
0.0
 40
4.105728
  1
14
  0
TEXT
  5
229
  8
回08-記事
  6
CONTINUOUS
 62
     7
 10
1164.930196593169
 20
-392.0391705645382
 30
0.0
 40
4.105728
  1
12
  0
TEXT
  5
22A
  8
回08-記事
  6
CONTINUOUS
 62
     7
 10
1166.865401875739
 20
-371.5105305645382
 30
0.0
 40
4.105728
  1
9
  0
DIMENSION
  5
22B
  8
回07-寸法
  6
CONTINUOUS
 62
     5
  2
*D4747
 10
820.4524776840077
 20
-316.525068979898
 30
0.0
 11
820.4524776840077
 21
-307.2196551220589
 31
0.0
 70
   160
  1
(<>)
  3
DMC
 13
848.9524776840077
 23
-325.525068979898
 33
0.0
 14
840.4524776840077
 24
-316.525068979898
 34
0.0
 50
90.0
1001
ACAD
1000
DSTYLE
1002
{
1070
    41
1040
1.5
1070
    47
1040
0.2
1070
    48
1040
0.2
1070
   140
1040
4.0
1070
   141
1040
1.5
1070
   371
1070
    13
1070
   372
1070
    13
1002
}
  0
DIMENSION
  5
23A
  8
回07-寸法
  6
CONTINUOUS
 62
     5
  2
*D4848
 10
811.4524776840077
 20
-316.525068979898
 30
0.0
 11
811.4524776840077
 21
-310.6266437830474
 31
0.0
 70
   160
  1
(<>)
  3
DMC
 13
846.9524776840076
 23
-323.525068979898
 33
0.0
 14
840.4524776840077
 24
-316.525068979898
 34
0.0
 50
90.0
1001
ACAD
1000
DSTYLE
1002
{
1070
    41
1040
1.5
1070
    47
1040
0.2
1070
    48
1040
0.2
1070
   140
1040
4.0
1070
   141
1040
1.5
1070
   371
1070
    13
1070
   372
1070
    13
1002
}
  0
DIMENSION
  5
249
  8
回07-寸法
  6
CONTINUOUS
 62
     5
  2
*D4949
 10
802.4524776840106
 20
-316.525068979898
 30
0.0
 11
799.7524776840107
 21
-308.6266437830476
 31
0.0
 70
    32
  1
(<>)
  3
DMC
 13
846.4524776840077
 23
-323.025068979898
 33
0.0
 14
840.4524776840077
 24
-316.525068979898
 34
0.0
 50
90.0
1001
ACAD
1000
DSTYLE
1002
{
1070
    41
1040
1.5
1070
    47
1040
0.2
1070
    48
1040
0.2
1070
   140
1040
4.0
1070
   141
1040
1.5
1070
   371
1070
    13
1070
   372
1070
    13
1002
}
  0
DIMENSION
  5
258
  8
回07-寸法
  6
CONTINUOUS
 62
     5
  2
*D5050
 10
820.4524776840077
 20
-467.0250689798979
 30
0.0
 11
820.4524776840077
 21
-474.3250689798983
 31
0.0
 70
   160
  3
DMC
 13
848.9524776840077
 23
-454.3245689798978
 33
0.0
 14
840.4524776840077
 24
-467.0250689798979
 34
0.0
 50
90.0
1001
ACAD
1000
DSTYLE
1002
{
1070
    41
1040
1.5
1070
    47
1040
0.2
1070
    48
1040
0.2
1070
   140
1040
4.0
1070
   141
1040
1.5
1070
   371
1070
    13
1070
   372
1070
    13
1002
}
  0
DIMENSION
  5
267
  8
回07-寸法
  6
CONTINUOUS
 62
     5
  2
*D5151
 10
802.4524776840085
 20
-467.0250689798979
 30
0.0
 11
802.4524776840085
 21
-474.7744295534878
 31
0.0
 70
   160
  3
DMC
 13
846.4524776840077
 23
-456.8250689798978
 33
0.0
 14
840.4524776840077
 24
-467.0250689798979
 34
0.0
 50
90.0
1001
ACAD
1000
DSTYLE
1002
{
1070
    41
1040
1.5
1070
    47
1040
0.2
1070
    48
1040
0.2
1070
   140
1040
4.0
1070
   141
1040
1.5
1070
   371
1070
    13
1070
   372
1070
    13
1002
}
  0
DIMENSION
  5
276
  8
回07-寸法
  6
CONTINUOUS
 62
     5
  2
*D5252
 10
1028.852477684007
 20
-288.1450689798979
 30
0.0
 11
1036.750902880858
 21
-285.4450689798979
 31
0.0
 70
    32
  1
(<>)
  3
DMC
 13
1022.352477684007
 23
-323.525068979898
 33
0.0
 14
1028.852477684007
 24
-316.5250689798977
 34
0.0
1001
ACAD
1000
DSTYLE
1002
{
1070
    41
1040
1.5
1070
    47
1040
0.2
1070
    48
1040
0.2
1070
   140
1040
4.0
1070
   141
1040
1.5
1070
   371
1070
    13
1070
   372
1070
    13
1002
}
  0
DIMENSION
  5
285
  8
回07-寸法
  6
CONTINUOUS
 62
     5
  2
*D5353
 10
1028.852477684007
 20
-297.1450689798979
 30
0.0
 11
1036.750902880858
 21
-297.1450689798979
 31
0.0
 70
   160
  1
(<>)
  3
DMC
 13
1020.352477684008
 23
-325.525068979898
 33
0.0
 14
1028.852477684007
 24
-316.5250689798977
 34
0.0
1001
ACAD
1000
DSTYLE
1002
{
1070
    41
1040
1.5
1070
    47
1040
0.2
1070
    48
1040
0.2
1070
   140
1040
4.0
1070
   141
1040
1.5
1070
   371
1070
    13
1070
   372
1070
    13
1002
}
  0
DIMENSION
  5
294
  8
回07-寸法
  6
CONTINUOUS
 62
     5
  2
*D5454
 10
840.4524776840077
 20
-288.1450689798979
 30
0.0
 11
833.9499499321629
 21
-288.1450689798979
 31
0.0
 70
   160
  3
DMC
 13
846.9524776840076
 23
-323.525068979898
 33
0.0
 14
840.4524776840077
 24
-316.525068979898
 34
0.0
1001
ACAD
1000
DSTYLE
1002
{
1070
    41
1040
1.5
1070
    47
1040
0.2
1070
    48
1040
0.2
1070
   140
1040
4.0
1070
   141
1040
1.5
1070
   371
1070
    13
1070
   372
1070
    13
1002
}
  0
DIMENSION
  5
2A3
  8
回07-寸法
  6
CONTINUOUS
 62
     5
  2
*D5555
 10
840.4524776840077
 20
-297.1450689798979
 30
0.0
 11
832.669634971533
 21
-297.1450689798979
 31
0.0
 70
   160
  3
DMC
 13
848.9524776840077
 23
-325.5250689798989
 33
0.0
 14
840.4524776840077
 24
-316.525068979898
 34
0.0
1001
ACAD
1000
DSTYLE
1002
{
1070
    41
1040
1.5
1070
    47
1040
0.2
1070
    48
1040
0.2
1070
   140
1040
4.0
1070
   141
1040
1.5
1070
   371
1070
    13
1070
   372
1070
    13
1002
}
  0
DIMENSION
  5
2B2
  8
回07-寸法
  6
CONTINUOUS
 62
     5
  2
*D5656
 10
1028.852477684007
 20
-279.1450689798979
 30
0.0
 11
1034.750902880858
 21
-279.1450689798979
 31
0.0
 70
   160
  1
(<>)
  3
DMC
 13
1022.852477684007
 23
-323.025068979898
 33
0.0
 14
1028.852477684007
 24
-316.5250689798977
 34
0.0
1001
ACAD
1000
DSTYLE
1002
{
1070
    41
1040
1.5
1070
    47
1040
0.2
1070
    48
1040
0.2
1070
   140
1040
4.0
1070
   141
1040
1.5
1070
   371
1070
    13
1070
   372
1070
    13
1002
}
  0
DIMENSION
  5
2C1
  8
回07-寸法
  6
CONTINUOUS
 62
     5
  2
*D5757
 10
840.4524776840077
 20
-279.1450689798979
 30
0.0
 11
833.6107587110817
 21
-279.1450689798979
 31
0.0
 70
   160
  3
DMC
 13
846.4524776840077
 23
-323.025068979898
 33
0.0
 14
840.4524776840077
 24
-316.525068979898
 34
0.0
1001
ACAD
1000
DSTYLE
1002
{
1070
    41
1040
1.5
1070
    47
1040
0.2
1070
    48
1040
0.2
1070
   140
1040
4.0
1070
   141
1040
1.5
1070
   371
1070
    13
1070
   372
1070
    13
1002
}
  0
DIMENSION
  5
2D0
  8
回07-寸法
  6
CONTINUOUS
 62
     5
  2
*D5858
 10
802.4524776840097
 20
-456.8250689798978
 30
0.0
 11
799.9524776840098
 21
-389.925068979898
 31
0.0
 70
    32
  3
DMC
 13
846.4524776840077
 23
-323.025068979898
 33
0.0
 14
846.4524776840077
 24
-456.8250689798978
 34
0.0
 50
90.0
1001
ACAD
1000
DSTYLE
1002
{
1070
    41
1040
1.5
1070
    47
1040
0.2
1070
    48
1040
0.2
1070
   140
1040
4.0
1070
   141
1040
1.5
1070
   371
1070
    13
1070
   372
1070
    13
1002
}
  0
DIMENSION
  5
2DD
  8
回07-寸法
  6
CONTINUOUS
 62
     5
  2
*D5959
 10
811.4524776840097
 20
-456.3250689798977
 30
0.0
 11
808.3524776840095
 21
-389.925068979898
 31
0.0
 70
    32
  1
<>(Viewing area)
  3
DMC
 13
846.9524776840076
 23
-323.525068979898
 33
0.0
 14
846.9524776840076
 24
-456.3250689798977
 34
0.0
 50
90.0
1001
ACAD
1000
DSTYLE
1002
{
1070
    41
1040
1.5
1070
    47
1040
0.2
1070
    48
1040
0.2
1070
   140
1040
4.0
1070
   141
1040
1.5
1070
   371
1070
    13
1070
   372
1070
    13
1002
}
  0
DIMENSION
  5
2EA
  8
回07-寸法
  6
CONTINUOUS
 62
     5
  2
*D6060
 10
820.4524776840097
 20
-454.3245689798978
 30
0.0
 11
817.7524776840098
 21
-389.924818979898
 31
0.0
 70
    32
  1
<>(Active area)
  3
DMC
 13
848.9524776840077
 23
-325.525068979898
 33
0.0
 14
848.9524776840077
 24
-454.3245689798978
 34
0.0
 50
90.0
1001
ACAD
1000
DSTYLE
1002
{
1070
    41
1040
1.5
1070
    47
1040
0.2
1070
    48
1040
0.2
1070
   140
1040
4.0
1070
   141
1040
1.5
1070
   371
1070
    13
1070
   372
1070
    13
1002
}
  0
DIMENSION
  5
2F7
  8
回07-寸法
  6
CONTINUOUS
 62
     5
  2
*D6161
 10
793.4524776840097
 20
-467.0250689798979
 30
0.0
 11
790.9524776840097
 21
-391.775068979898
 31
0.0
 70
    32
  3
DMC
 13
840.4524776840077
 23
-316.525068979898
 33
0.0
 14
840.4524776840077
 24
-467.0250689798979
 34
0.0
 50
90.0
1001
ACAD
1000
DSTYLE
1002
{
1070
   147
1040
0.5
1070
    72
1070
     0
1070
    71
1070
     1
1070
    41
1040
1.5
1070
    47
1040
0.3
1070
    48
1040
0.3
1070
   140
1040
4.0
1070
   141
1040
1.5
1070
   371
1070
    13
1070
   372
1070
    13
1002
}
  0
DIMENSION
  5
304
  8
回07-寸法
  6
CONTINUOUS
 62
     5
  2
*D6262
 10
1020.352477684007
 20
-297.1450689798979
 30
0.0
 11
934.6524776840075
 21
-294.4450689798979
 31
0.0
 70
    32
  1
<>(Active area)
  3
DMC
 13
848.9524776840077
 23
-325.525068979898
 33
0.0
 14
1020.352477684007
 24
-325.5250689798971
 34
0.0
1001
ACAD
1000
DSTYLE
1002
{
1070
    41
1040
1.5
1070
    47
1040
0.2
1070
    48
1040
0.2
1070
   140
1040
4.0
1070
   141
1040
1.5
1070
   371
1070
    13
1070
   372
1070
    13
1002
}
  0
DIMENSION
  5
311
  8
回07-寸法
  6
CONTINUOUS
 62
     5
  2
*D6363
 10
1022.852477684007
 20
-279.1450689798979
 30
0.0
 11
934.6524776840075
 21
-276.6450689798979
 31
0.0
 70
    32
  3
DMC
 13
846.4524776840077
 23
-323.025068979898
 33
0.0
 14
1022.852477684007
 24
-323.025068979898
 34
0.0
1001
ACAD
1000
DSTYLE
1002
{
1070
    41
1040
1.5
1070
    47
1040
0.2
1070
    48
1040
0.2
1070
   140
1040
4.0
1070
   141
1040
1.5
1070
   371
1070
    13
1070
   372
1070
    13
1002
}
  0
DIMENSION
  5
31E
  8
回07-寸法
  6
CONTINUOUS
 62
     5
  2
*D6464
 10
1022.352477684007
 20
-288.1450689798979
 30
0.0
 11
934.6524776840075
 21
-285.0450689798979
 31
0.0
 70
    32
  1
<>(Viewing area)
  3
DMC
 13
846.9524776840076
 23
-323.525068979898
 33
0.0
 14
1022.352477684007
 24
-323.525068979898
 34
0.0
1001
ACAD
1000
DSTYLE
1002
{
1070
    41
1040
1.5
1070
    47
1040
0.2
1070
    48
1040
0.2
1070
   140
1040
4.0
1070
   141
1040
1.5
1070
   371
1070
    13
1070
   372
1070
    13
1002
}
  0
DIMENSION
  5
32B
  8
回07-寸法
  6
CONTINUOUS
 62
     5
  2
*D6565
 10
1028.852477684007
 20
-270.1450689798979
 30
0.0
 11
934.6524776840075
 21
-267.6450689798979
 31
0.0
 70
    32
  3
DMC
 13
840.4524776840077
 23
-316.525068979898
 33
0.0
 14
1028.852477684007
 24
-316.5250689798977
 34
0.0
1001
ACAD
1000
DSTYLE
1002
{
1070
   147
1040
0.5
1070
    72
1070
     0
1070
    71
1070
     1
1070
    41
1040
1.5
1070
    47
1040
0.3
1070
    48
1040
0.3
1070
   140
1040
4.0
1070
   141
1040
1.5
1070
   371
1070
    13
1070
   372
1070
    13
1002
}
  0
DIMENSION
  5
338
  8
回07-寸法
  6
CONTINUOUS
 62
     5
  2
*D6666
 10
811.4524776840077
 20
-467.0250689798979
 30
0.0
 11
811.4524776840077
 21
-474.3250689798983
 31
0.0
 70
   160
  3
DMC
 13
846.9524776840076
 23
-456.3250689798977
 33
0.0
 14
840.4524776840077
 24
-467.0250689798979
 34
0.0
 50
90.0
1001
ACAD
1000
DSTYLE
1002
{
1070
    41
1040
1.5
1070
    47
1040
0.2
1070
    48
1040
0.2
1070
   140
1040
4.0
1070
   141
1040
1.5
1070
   371
1070
    13
1070
   372
1070
    13
1002
}
  0
DIMENSION
  5
347
  8
回07-寸法
  6
CONTINUOUS
 62
     5
  2
*D6767
 10
921.1513523685589
 20
-560.7305243815203
 30
0.0
 11
886.1269150262831
 21
-560.7305243815203
 31
0.0
 70
   160
  1
(<>)
  3
DMC
 13
840.4524776840077
 23
-467.0250689798979
 33
0.0
 14
921.1513523685589
 24
-536.9250931653041
 34
0.0
1001
ACAD
1000
DSTYLE
1002
{
1070
    41
1040
1.5
1070
    47
1040
0.2
1070
    48
1040
0.2
1070
   140
1040
4.0
1070
   141
1040
1.5
1070
   371
1070
    13
1070
   372
1070
    13
1002
}
  0
DIMENSION
  5
354
  8
回07-寸法
  6
CONTINUOUS
 62
     1
  2
*D6868
 10
967.2046920492315
 20
-474.2392787407682
 30
0.0
 11
964.7046920492314
 21
-481.5392787407683
 31
0.0
 70
    32
  3
DMC
 13
954.9024776840079
 23
-467.0250447944918
 33
0.0
 14
950.727472836048
 24
-474.2392787407682
 34
0.0
 50
90.0
1001
ACAD
1000
DSTYLE
1002
{
1070
    41
1040
1.5
1070
    47
1040
0.2
1070
    48
1040
0.2
1070
   140
1040
4.0
1070
   141
1040
1.5
1070
   371
1070
    13
1070
   372
1070
    13
1002
}
  0
DIMENSION
  5
365
  8
回07-寸法
  6
CONTINUOUS
 62
     1
  2
*D6969
 10
959.7151503639295
 20
-469.9250931653038
 30
0.0
 11
959.7151503639295
 21
-479.4130418844607
 31
0.0
 70
   160
  3
DMC
 13
954.9024776840079
 23
-467.0250931653038
 33
0.0
 14
954.8263572165193
 24
-469.9250931653038
 34
0.0
 50
90.0
1001
ACAD
1000
DSTYLE
1002
{
1070
    41
1040
1.5
1070
    47
1040
0.2
1070
    48
1040
0.2
1070
   140
1040
4.0
1070
   141
1040
1.5
1070
   371
1070
    13
1070
   372
1070
    13
1002
}
  0
DIMENSION
  5
376
  8
回07-寸法
  6
CONTINUOUS
 62
    18
  2
*D7070
 10
905.4368549250863
 20
-467.0250931653042
 30
0.0
 11
905.4368549250863
 21
-484.0332239090343
 31
0.0
 70
   160
  3
DMC
 13
921.0752319010699
 23
-476.7370281098711
 33
0.0
 14
914.4024776840074
 24
-467.0250931653042
 34
0.0
 50
90.0
1001
ACAD
1000
DSTYLE
1002
{
1070
    41
1040
1.0
1070
    47
1040
0.2
1070
    48
1040
0.2
1070
   140
1040
2.0
1070
   371
1070
     9
1070
   372
1070
     9
1002
}
  0
DIMENSION
  5
387
  8
回07-寸法
  6
CONTINUOUS
 62
    18
  2
*D7171
 10
910.9913159641111
 20
-467.0250931653042
 30
0.0
 11
910.9913159641111
 21
-483.0656790650098
 31
0.0
 70
   160
  3
DMC
 13
914.4785981514962
 23
-469.9250931653041
 33
0.0
 14
914.4024776840074
 24
-467.0250931653042
 34
0.0
 50
90.0
1001
ACAD
1000
DSTYLE
1002
{
1070
    41
1040
1.0
1070
    47
1040
0.2
1070
    48
1040
0.2
1070
   140
1040
2.0
1070
   371
1070
     9
1070
   372
1070
     9
1002
}
  0
TEXT
  5
398
  8
回08-記事
  6
CONTINUOUS
 62
     7
 10
951.2060570640647
 20
-535.9489836258286
 30
0.0
 40
2.0
  1
1
  0
TEXT
  5
399
  8
回08-記事
  6
CONTINUOUS
 62
     7
 10
938.4939245117717
 20
-535.9489836258286
 30
0.0
 40
2.0
  1
16
  0
TEXT
  5
39A
  8
回08-記事
  6
CONTINUOUS
 62
     7
 10
931.0686260488839
 20
-535.9489836258286
 30
0.0
 40
2.0
  1
17
  0
TEXT
  5
39B
  8
回08-記事
  6
CONTINUOUS
 62
     7
 10
917.4654714579595
 20
-535.9489836258286
 30
0.0
 40
2.0
  1
34
  0
DIMENSION
  5
39C
  8
回07-寸法
  6
CONTINUOUS
 62
     5
  2
*D7272
 10
950.6513523685594
 20
-572.8124283834509
 30
0.0
 11
960.1213523685593
 21
-570.312428383451
 31
0.0
 70
    32
  3
DMC
 13
942.1513523685593
 23
-536.9250931653043
 33
0.0
 14
950.6513523685594
 24
-536.9250931653043
 34
0.0
1001
ACAD
1000
DSTYLE
1002
{
1070
    41
1040
1.5
1070
    47
1040
0.1
1070
    48
1040
0.1
1070
    71
1070
     1
1070
   140
1040
4.0
1070
   141
1040
1.5
1070
   371
1070
    13
1070
   372
1070
    13
1002
}
  0
DIMENSION
  5
3AB
  8
回07-寸法
  6
CONTINUOUS
 62
     5
  2
*D7373
 10
942.1513523685593
 20
-572.8124283834509
 30
0.0
 11
891.3019150262837
 21
-570.1124283834508
 31
0.0
 70
    32
  1
(<>)
  3
DMC
 13
840.4524776840077
 23
-467.0250689798979
 33
0.0
 14
942.1513523685593
 24
-536.9250931653043
 34
0.0
1001
ACAD
1000
DSTYLE
1002
{
1070
    41
1040
1.5
1070
    47
1040
0.2
1070
    48
1040
0.2
1070
   140
1040
4.0
1070
   141
1040
1.5
1070
   371
1070
    13
1070
   372
1070
    13
1002
}
  0
DIMENSION
  5
3B8
  8
回07-寸法
  6
CONTINUOUS
 62
     5
  2
*D7474
 10
930.6513523685593
 20
-560.7305243815203
 30
0.0
 11
911.5985096560844
 21
-560.7305243815203
 31
0.0
 70
   160
  3
DMC
 13
921.1513523685589
 23
-536.9250931653041
 33
0.0
 14
930.6513523685593
 24
-536.9250931653043
 34
0.0
1001
ACAD
1000
DSTYLE
1002
{
1070
    41
1040
1.5
1070
    47
1040
0.1
1070
    48
1040
0.1
1070
    71
1070
     1
1070
   140
1040
4.0
1070
   141
1040
1.5
1070
   371
1070
    13
1070
   372
1070
    13
1002
}
  0
DIMENSION
  5
3C7
  8
回07-寸法
  6
CONTINUOUS
 62
     5
  2
*D7575
 10
990.9595205328976
 20
-537.0250931653044
 30
0.0
 11
988.4595205328976
 21
-502.0250689798981
 31
0.0
 70
    32
  3
DMC
 13
954.9024776840079
 23
-467.0250447944916
 33
0.0
 14
950.5513523685593
 24
-537.0250931653044
 34
0.0
 50
90.0
1001
ACAD
1000
DSTYLE
1002
{
1070
   147
1040
0.5
1070
    72
1070
     0
1070
    71
1070
     1
1070
    41
1040
1.5
1070
    47
1040
1.0
1070
    48
1040
1.0
1070
   140
1040
4.0
1070
   141
1040
1.5
1070
   371
1070
    13
1070
   372
1070
    13
1002
}
  0
DIMENSION
  5
3D4
  8
回07-寸法
  6
CONTINUOUS
 62
     5
  2
*D7676
 10
883.1624548083768
 20
-467.0250931653038
 30
0.0
 11
880.6624548083769
 21
-502.025093165304
 31
0.0
 70
    32
  3
DMC
 13
921.6513523685588
 23
-537.0250931653044
 33
0.0
 14
914.4024776840074
 24
-467.0250931653038
 34
0.0
 50
90.0
1001
ACAD
1000
DSTYLE
1002
{
1070
   147
1040
0.5
1070
    72
1070
     0
1070
    71
1070
     1
1070
    41
1040
1.5
1070
    47
1040
1.0
1070
    48
1040
1.0
1070
   140
1040
4.0
1070
   141
1040
1.5
1070
   371
1070
    13
1070
   372
1070
    13
1002
}
  0
INSERT
  5
3E1
  8
回08-記事
  6
CONTINUOUS
 62
     5
 66
     1
  2
*X8282
 10
0.0
 20
0.0
 30
0.0
  0
SEQEND
  5
6C6
  8
回04-下接
  6
CONTINUOUS
 62
     3
  0
INSERT
  5
3E2
  8
回08-記事
  6
CONTINUOUS
 62
     7
 66
     1
  2
*X8383
 10
0.0
 20
0.0
 30
0.0
  0
SEQEND
  5
6CD
  8
回04-下接
  6
CONTINUOUS
 62
     3
  0
POLYLINE
  5
3E3
  8
回08-記事
  6
CONTINUOUS
 62
     7
 66
     1
 10
0.0
 20
0.0
 30
0.0
 70
     1
  0
VERTEX
  5
A3D
  8
回08-記事
  6
CONTINUOUS
 62
     7
 10
924.151352368559
 20
-492.1290803768546
 30
0.0
  0
VERTEX
  5
A3F
  8
回08-記事
  6
CONTINUOUS
 62
     7
 10
927.651352368559
 20
-492.1290803768546
 30
0.0
 42
-0.4142135623730951
  0
VERTEX
  5
A40
  8
回08-記事
  6
CONTINUOUS
 62
     7
 10
928.1513523685587
 20
-492.6290803768546
 30
0.0
  0
VERTEX
  5
A41
  8
回08-記事
  6
CONTINUOUS
 62
     7
 10
928.1513523685587
 20
-517.6290803768546
 30
0.0
 42
-0.4142135623730951
  0
VERTEX
  5
A42
  8
回08-記事
  6
CONTINUOUS
 62
     7
 10
927.651352368559
 20
-518.1290803768546
 30
0.0
  0
VERTEX
  5
A43
  8
回08-記事
  6
CONTINUOUS
 62
     7
 10
924.151352368559
 20
-518.1290803768546
 30
0.0
 42
-0.4142135623730951
  0
VERTEX
  5
A44
  8
回08-記事
  6
CONTINUOUS
 62
     7
 10
923.6513523685587
 20
-517.6290803768546
 30
0.0
  0
VERTEX
  5
A45
  8
回08-記事
  6
CONTINUOUS
 62
     7
 10
923.6513523685587
 20
-492.6290803768546
 30
0.0
 42
-0.4142135623730951
  0
SEQEND
  5
A3E
  8
回04-下接
  6
CONTINUOUS
 62
     3
  0
INSERT
  5
3E4
  8
回08-記事
  6
CONTINUOUS
 62
     7
 66
     1
  2
*X8484
 10
0.0
 20
0.0
 30
0.0
1001
GRADIENTCOLOR1ACI
1070
     5
1001
GRADIENTCOLOR2ACI
1070
     2
1001
ACAD
1010
0.0
1020
0.0
1030
0.0
  0
SEQEND
  5
6E8
  8
回04-下接
  6
CONTINUOUS
 62
     3
  0
LINE
  5
3E5
  8
回07-寸法
  6
CENTER2
 62
     1
 10
845.9524776840076
 20
-389.925068979898
 30
0.0
 11
1023.352477684007
 21
-389.925068979898
 31
0.0
  0
LINE
  5
3E6
  8
回07-寸法
  6
CENTER2
 62
     1
 10
934.6524776840075
 20
-457.3250689798978
 30
0.0
 11
934.6524776840075
 21
-322.525068979898
 31
0.0
  0
TEXT
  5
3E7
  8
回08-記事
  6
CONTINUOUS
 62
     7
 10
1017.02660721264
 20
-427.9364461918862
 30
0.0
 40
2.0
  1
R6
  0
TEXT
  5
3E8
  8
回08-記事
  6
CONTINUOUS
 62
     7
 10
1017.02660721264
 20
-446.1364461918861
 30
0.0
 40
2.0
  1
R7
  0
TEXT
  5
3E9
  8
回08-記事
  6
CONTINUOUS
 62
     7
 10
1017.02660721264
 20
-336.4224461918863
 30
0.0
 40
2.0
  1
R1
  0
TEXT
  5
3EA
  8
回08-記事
  6
CONTINUOUS
 62
     7
 10
1017.02660721264
 20
-354.6224461918864
 30
0.0
 40
2.0
  1
R2
  0
TEXT
  5
3EB
  8
回08-記事
  6
CONTINUOUS
 62
     7
 10
1017.02660721264
 20
-372.8224461918864
 30
0.0
 40
2.0
  1
R3
  0
TEXT
  5
3EC
  8
回08-記事
  6
CONTINUOUS
 62
     7
 10
1017.02660721264
 20
-391.0224461918862
 30
0.0
 40
2.0
  1
R4
  0
TEXT
  5
3ED
  8
回08-記事
  6
CONTINUOUS
 62
     7
 10
1017.02660721264
 20
-409.2224461918863
 30
0.0
 40
2.0
  1
R5
  0
TEXT
  5
3EE
  8
回08-記事
  6
CONTINUOUS
 62
     7
 10
849.6097385794175
 20
-427.4914461918866
 30
0.0
 40
2.0
  1
L6
  0
TEXT
  5
3EF
  8
回08-記事
  6
CONTINUOUS
 62
     7
 10
849.6097385794175
 20
-445.6914461918866
 30
0.0
 40
2.0
  1
L7
  0
TEXT
  5
3F0
  8
回08-記事
  6
CONTINUOUS
 62
     7
 10
849.6097385794175
 20
-335.9774461918868
 30
0.0
 40
2.0
  1
L1
  0
TEXT
  5
3F1
  8
回08-記事
  6
CONTINUOUS
 62
     7
 10
849.6097385794175
 20
-354.177446191887
 30
0.0
 40
2.0
  1
L2
  0
TEXT
  5
3F2
  8
回08-記事
  6
CONTINUOUS
 62
     7
 10
849.6097385794175
 20
-372.3774461918869
 30
0.0
 40
2.0
  1
L3
  0
TEXT
  5
3F3
  8
回08-記事
  6
CONTINUOUS
 62
     7
 10
849.6097385794175
 20
-390.5774461918867
 30
0.0
 40
2.0
  1
L4
  0
TEXT
  5
3F4
  8
回08-記事
  6
CONTINUOUS
 62
     7
 10
849.6097385794175
 20
-408.7774461918868
 30
0.0
 40
2.0
  1
L5
  0
TEXT
  5
3F5
  8
回08-記事
  6
CONTINUOUS
 62
     7
 10
1015.607155632342
 20
-452.8543780061489
 30
0.0
 40
2.0
  1
SDR
  0
TEXT
  5
3F6
  8
回08-記事
  6
CONTINUOUS
 62
     7
 10
850.5554622062907
 20
-452.8543780061489
 30
0.0
 40
2.0
  1
SDL
  0
TEXT
  5
3F7
  8
回08-記事
  6
CONTINUOUS
 62
     7
 10
1009.862761582267
 20
-453.0017290567643
 30
0.0
 40
2.0
  1
D8
  0
TEXT
  5
3F8
  8
回08-記事
  6
CONTINUOUS
 62
     7
 10
986.9713093007003
 20
-453.0017290567643
 30
0.0
 40
2.0
  1
D7
  0
TEXT
  5
3F9
  8
回08-記事
  6
CONTINUOUS
 62
     7
 10
965.4685969566212
 20
-453.0017290567643
 30
0.0
 40
2.0
  1
D6
  0
TEXT
  5
3FA
  8
回08-記事
  6
CONTINUOUS
 62
     7
 10
943.963218298629
 20
-453.0017290567643
 30
0.0
 40
2.0
  1
D5
  0
TEXT
  5
3FB
  8
回08-記事
  6
CONTINUOUS
 62
     7
 10
922.7619161992818
 20
-453.0017290567643
 30
0.0
 40
2.0
  1
D4
  0
TEXT
  5
3FC
  8
回08-記事
  6
CONTINUOUS
 62
     7
 10
900.9150742014673
 20
-453.0017290567643
 30
0.0
 40
2.0
  1
D3
  0
TEXT
  5
3FD
  8
回08-記事
  6
CONTINUOUS
 62
     7
 10
879.5245222009262
 20
-453.0017290567643
 30
0.0
 40
2.0
  1
D2
  0
TEXT
  5
3FE
  8
回08-記事
  6
CONTINUOUS
 62
     7
 10
858.1763334214793
 20
-453.0017290567643
 30
0.0
 40
2.0
  1
D1
  0
TEXT
  5
3FF
  8
回08-記事
  6
CONTINUOUS
 62
     7
 10
1014.286286249437
 20
-329.3201866557619
 30
0.0
 40
2.0
  1
SUR
  0
TEXT
  5
400
  8
回08-記事
  6
CONTINUOUS
 62
     7
 10
1008.541892199362
 20
-327.7423686100021
 30
0.0
 40
2.0
  1
U8
  0
TEXT
  5
401
  8
回08-記事
  6
CONTINUOUS
 62
     7
 10
986.809627528369
 20
-327.7423686100021
 30
0.0
 40
2.0
  1
U7
  0
TEXT
  5
402
  8
回08-記事
  6
CONTINUOUS
 62
     7
 10
965.6141056861827
 20
-327.7423686100021
 30
0.0
 40
2.0
  1
U6
  0
TEXT
  5
403
  8
回08-記事
  6
CONTINUOUS
 62
     7
 10
944.1765428735973
 20
-327.7423686100021
 30
0.0
 40
2.0
  1
U5
  0
TEXT
  5
404
  8
回08-記事
  6
CONTINUOUS
 62
     7
 10
922.5750406798191
 20
-327.7423686100021
 30
0.0
 40
2.0
  1
U4
  0
TEXT
  5
405
  8
回08-記事
  6
CONTINUOUS
 62
     7
 10
901.4298479454584
 20
-327.7423686100021
 30
0.0
 40
2.0
  1
U3
  0
TEXT
  5
406
  8
回08-記事
  6
CONTINUOUS
 62
     7
 10
879.4387014990938
 20
-327.7423686100021
 30
0.0
 40
2.0
  1
U2
  0
TEXT
  5
407
  8
回08-記事
  6
CONTINUOUS
 62
     7
 10
857.1627615822679
 20
-327.7423686100021
 30
0.0
 40
2.0
  1
U1
  0
TEXT
  5
408
  8
回08-記事
  6
CONTINUOUS
 62
     7
 10
849.541890367079
 20
-329.3201866557619
 30
0.0
 40
2.0
  1
SUL
  0
POLYLINE
  5
409
  8
回05-ﾃｰﾙ
  6
CONTINUOUS
 62
     7
 66
     1
 10
0.0
 20
0.0
 30
0.0
 70
     1
  0
VERTEX
  5
A46
  8
回05-ﾃｰﾙ
  6
CONTINUOUS
 62
     7
 10
950.9442455873726
 20
-473.9148553919467
 30
0.0
 42
0.1989123673796998
  0
VERTEX
  5
A48
  8
回05-ﾃｰﾙ
  6
CONTINUOUS
 62
     7
 10
950.6513523685589
 20
-474.6219621731333
 30
0.0
  0
VERTEX
  5
A49
  8
回05-ﾃｰﾙ
  6
CONTINUOUS
 62
     7
 10
950.6513523685589
 20
-536.9250931653043
 30
0.0
 42
-0.4142135623730951
  0
VERTEX
  5
A4A
  8
回05-ﾃｰﾙ
  6
CONTINUOUS
 62
     7
 10
950.5513523685593
 20
-537.0250931653044
 30
0.0
  0
VERTEX
  5
A4B
  8
回05-ﾃｰﾙ
  6
CONTINUOUS
 62
     7
 10
942.2513523685593
 20
-537.0250931653044
 30
0.0
 42
-0.4142135623730951
  0
VERTEX
  5
A4C
  8
回05-ﾃｰﾙ
  6
CONTINUOUS
 62
     7
 10
942.1513523685593
 20
-536.9250931653043
 30
0.0
  0
VERTEX
  5
A4D
  8
回05-ﾃｰﾙ
  6
CONTINUOUS
 62
     7
 10
942.1513523685593
 20
-474.6197115422366
 30
0.0
 42
0.1989123673796998
  0
VERTEX
  5
A4E
  8
回05-ﾃｰﾙ
  6
CONTINUOUS
 62
     7
 10
941.8584591497458
 20
-473.9126047610498
 30
0.0
  0
VERTEX
  5
A4F
  8
回05-ﾃｰﾙ
  6
CONTINUOUS
 62
     7
 10
938.1953709028211
 20
-470.2495165141255
 30
0.0
 42
-0.1989123673796998
  0
VERTEX
  5
A50
  8
回05-ﾃｰﾙ
  6
CONTINUOUS
 62
     7
 10
937.9024776840076
 20
-469.5424097329388
 30
0.0
  0
VERTEX
  5
A51
  8
回05-ﾃｰﾙ
  6
CONTINUOUS
 62
     7
 10
937.9024776840076
 20
-463.8750931653039
 30
0.0
  0
VERTEX
  5
A52
  8
回05-ﾃｰﾙ
  6
CONTINUOUS
 62
     7
 10
954.9024776840076
 20
-463.8750931653039
 30
0.0
  0
VERTEX
  5
A53
  8
回05-ﾃｰﾙ
  6
CONTINUOUS
 62
     7
 10
954.9024776840076
 20
-469.5424097329386
 30
0.0
 42
-0.1989123673796998
  0
VERTEX
  5
A54
  8
回05-ﾃｰﾙ
  6
CONTINUOUS
 62
     7
 10
954.6095844651942
 20
-470.2495165141252
 30
0.0
  0
SEQEND
  5
A47
  8
回04-下接
  6
CONTINUOUS
 62
     3
  0
POLYLINE
  5
40D
  8
回05-ﾃｰﾙ
  6
CONTINUOUS
 62
     7
 66
     1
 10
0.0
 20
0.0
 30
0.0
 70
     1
  0
VERTEX
  5
A55
  8
回05-ﾃｰﾙ
  6
CONTINUOUS
 62
     7
 10
914.695370902821
 20
-470.2495165141255
 30
0.0
  0
VERTEX
  5
A57
  8
回05-ﾃｰﾙ
  6
CONTINUOUS
 62
     7
 10
920.8584591497452
 20
-476.4126047610496
 30
0.0
 42
-0.1989123673796998
  0
VERTEX
  5
A58
  8
回05-ﾃｰﾙ
  6
CONTINUOUS
 62
     7
 10
921.1513523685589
 20
-477.1197115422364
 30
0.0
  0
VERTEX
  5
A59
  8
回05-ﾃｰﾙ
  6
CONTINUOUS
 62
     7
 10
921.1513523685589
 20
-536.9250931653043
 30
0.0
 42
0.4142135623730951
  0
VERTEX
  5
A5A
  8
回05-ﾃｰﾙ
  6
CONTINUOUS
 62
     7
 10
921.251352368559
 20
-537.0250931653044
 30
0.0
  0
VERTEX
  5
A5B
  8
回05-ﾃｰﾙ
  6
CONTINUOUS
 62
     7
 10
930.5513523685592
 20
-537.0250931653044
 30
0.0
 42
0.4142135623730951
  0
VERTEX
  5
A5C
  8
回05-ﾃｰﾙ
  6
CONTINUOUS
 62
     7
 10
930.6513523685593
 20
-536.9250931653043
 30
0.0
  0
VERTEX
  5
A5D
  8
回05-ﾃｰﾙ
  6
CONTINUOUS
 62
     7
 10
930.6513523685593
 20
-473.1219621731334
 30
0.0
 42
-0.1989123673796998
  0
VERTEX
  5
A5E
  8
回05-ﾃｰﾙ
  6
CONTINUOUS
 62
     7
 10
930.9442455873726
 20
-472.4148553919468
 30
0.0
  0
VERTEX
  5
A5F
  8
回05-ﾃｰﾙ
  6
CONTINUOUS
 62
     7
 10
933.1095844651937
 20
-470.2495165141255
 30
0.0
 42
0.1989123673796998
  0
VERTEX
  5
A60
  8
回05-ﾃｰﾙ
  6
CONTINUOUS
 62
     7
 10
933.4024776840072
 20
-469.5424097329388
 30
0.0
  0
VERTEX
  5
A61
  8
回05-ﾃｰﾙ
  6
CONTINUOUS
 62
     7
 10
933.4024776840072
 20
-463.8750931653041
 30
0.0
  0
VERTEX
  5
A62
  8
回05-ﾃｰﾙ
  6
CONTINUOUS
 62
     7
 10
914.4024776840074
 20
-463.8750931653041
 30
0.0
  0
VERTEX
  5
A63
  8
回05-ﾃｰﾙ
  6
CONTINUOUS
 62
     7
 10
914.4024776840074
 20
-469.5424097329389
 30
0.0
 42
0.1989123673796998
  0
SEQEND
  5
A56
  8
回04-下接
  6
CONTINUOUS
 62
     3
  0
POLYLINE
  5
40E
  8
回01-上ER
  6
CONTINUOUS
 62
     7
 66
     1
 10
0.0
 20
0.0
 30
0.0
  0
VERTEX
  5
A64
  8
回01-上ER
  6
CONTINUOUS
 62
     7
 10
848.9524776840077
 20
-343.582568979898
 30
0.0
  0
VERTEX
  5
A66
  8
回01-上ER
  6
CONTINUOUS
 62
     7
 10
1020.352477684007
 20
-343.582568979898
 30
0.0
  0
SEQEND
  5
A65
  8
回04-下接
  6
CONTINUOUS
 62
     3
  0
POLYLINE
  5
412
  8
回01-上ER
  6
CONTINUOUS
 62
     7
 66
     1
 10
0.0
 20
0.0
 30
0.0
  0
VERTEX
  5
A67
  8
回01-上ER
  6
CONTINUOUS
 62
     7
 10
1020.352477684007
 20
-343.982568979898
 30
0.0
  0
VERTEX
  5
A69
  8
回01-上ER
  6
CONTINUOUS
 62
     7
 10
848.9524776840077
 20
-343.982568979898
 30
0.0
  0
SEQEND
  5
A68
  8
回04-下接
  6
CONTINUOUS
 62
     3
  0
POLYLINE
  5
413
  8
回01-上ER
  6
CONTINUOUS
 62
     7
 66
     1
 10
0.0
 20
0.0
 30
0.0
  0
VERTEX
  5
A6A
  8
回01-上ER
  6
CONTINUOUS
 62
     7
 10
848.9524776840077
 20
-362.039568979898
 30
0.0
  0
VERTEX
  5
A6C
  8
回01-上ER
  6
CONTINUOUS
 62
     7
 10
1020.352477684007
 20
-362.039568979898
 30
0.0
  0
SEQEND
  5
A6B
  8
回04-下接
  6
CONTINUOUS
 62
     3
  0
POLYLINE
  5
414
  8
回01-上ER
  6
CONTINUOUS
 62
     7
 66
     1
 10
0.0
 20
0.0
 30
0.0
  0
VERTEX
  5
A6D
  8
回01-上ER
  6
CONTINUOUS
 62
     7
 10
1020.352477684007
 20
-362.4395689798979
 30
0.0
  0
VERTEX
  5
A6F
  8
回01-上ER
  6
CONTINUOUS
 62
     7
 10
848.9524776840077
 20
-362.4395689798979
 30
0.0
  0
SEQEND
  5
A6E
  8
回04-下接
  6
CONTINUOUS
 62
     3
  0
POLYLINE
  5
415
  8
回01-上ER
  6
CONTINUOUS
 62
     7
 66
     1
 10
0.0
 20
0.0
 30
0.0
  0
VERTEX
  5
A70
  8
回01-上ER
  6
CONTINUOUS
 62
     7
 10
848.9524776840077
 20
-380.496568979898
 30
0.0
  0
VERTEX
  5
A72
  8
回01-上ER
  6
CONTINUOUS
 62
     7
 10
1020.352477684007
 20
-380.496568979898
 30
0.0
  0
SEQEND
  5
A71
  8
回04-下接
  6
CONTINUOUS
 62
     3
  0
POLYLINE
  5
416
  8
回01-上ER
  6
CONTINUOUS
 62
     7
 66
     1
 10
0.0
 20
0.0
 30
0.0
  0
VERTEX
  5
A73
  8
回01-上ER
  6
CONTINUOUS
 62
     7
 10
1020.352477684007
 20
-380.8965689798979
 30
0.0
  0
VERTEX
  5
A75
  8
回01-上ER
  6
CONTINUOUS
 62
     7
 10
848.9524776840077
 20
-380.8965689798979
 30
0.0
  0
SEQEND
  5
A74
  8
回04-下接
  6
CONTINUOUS
 62
     3
  0
POLYLINE
  5
417
  8
回01-上ER
  6
CONTINUOUS
 62
     7
 66
     1
 10
0.0
 20
0.0
 30
0.0
  0
VERTEX
  5
A76
  8
回01-上ER
  6
CONTINUOUS
 62
     7
 10
848.9524776840077
 20
-398.953568979898
 30
0.0
  0
VERTEX
  5
A78
  8
回01-上ER
  6
CONTINUOUS
 62
     7
 10
1020.352477684007
 20
-398.953568979898
 30
0.0
  0
SEQEND
  5
A77
  8
回04-下接
  6
CONTINUOUS
 62
     3
  0
POLYLINE
  5
418
  8
回01-上ER
  6
CONTINUOUS
 62
     7
 66
     1
 10
0.0
 20
0.0
 30
0.0
  0
VERTEX
  5
A79
  8
回01-上ER
  6
CONTINUOUS
 62
     7
 10
1020.352477684007
 20
-399.3535689798978
 30
0.0
  0
VERTEX
  5
A7B
  8
回01-上ER
  6
CONTINUOUS
 62
     7
 10
848.9524776840077
 20
-399.3535689798978
 30
0.0
  0
SEQEND
  5
A7A
  8
回04-下接
  6
CONTINUOUS
 62
     3
  0
POLYLINE
  5
419
  8
回01-上ER
  6
CONTINUOUS
 62
     7
 66
     1
 10
0.0
 20
0.0
 30
0.0
  0
VERTEX
  5
A7C
  8
回01-上ER
  6
CONTINUOUS
 62
     7
 10
848.9524776840077
 20
-417.4105689798978
 30
0.0
  0
VERTEX
  5
A7E
  8
回01-上ER
  6
CONTINUOUS
 62
     7
 10
1020.352477684007
 20
-417.4105689798978
 30
0.0
  0
SEQEND
  5
A7D
  8
回04-下接
  6
CONTINUOUS
 62
     3
  0
POLYLINE
  5
41A
  8
回01-上ER
  6
CONTINUOUS
 62
     7
 66
     1
 10
0.0
 20
0.0
 30
0.0
  0
VERTEX
  5
A7F
  8
回01-上ER
  6
CONTINUOUS
 62
     7
 10
1020.352477684007
 20
-417.8105689798978
 30
0.0
  0
VERTEX
  5
A81
  8
回01-上ER
  6
CONTINUOUS
 62
     7
 10
848.9524776840077
 20
-417.8105689798978
 30
0.0
  0
SEQEND
  5
A80
  8
回04-下接
  6
CONTINUOUS
 62
     3
  0
POLYLINE
  5
41B
  8
回01-上ER
  6
CONTINUOUS
 62
     7
 66
     1
 10
0.0
 20
0.0
 30
0.0
  0
VERTEX
  5
A82
  8
回01-上ER
  6
CONTINUOUS
 62
     7
 10
848.9524776840077
 20
-435.8675689798978
 30
0.0
  0
VERTEX
  5
A84
  8
回01-上ER
  6
CONTINUOUS
 62
     7
 10
1020.352477684007
 20
-435.8675689798978
 30
0.0
  0
SEQEND
  5
A83
  8
回04-下接
  6
CONTINUOUS
 62
     3
  0
POLYLINE
  5
41C
  8
回01-上ER
  6
CONTINUOUS
 62
     7
 66
     1
 10
0.0
 20
0.0
 30
0.0
  0
VERTEX
  5
A85
  8
回01-上ER
  6
CONTINUOUS
 62
     7
 10
1020.352477684007
 20
-436.2675689798978
 30
0.0
  0
VERTEX
  5
A87
  8
回01-上ER
  6
CONTINUOUS
 62
     7
 10
848.9524776840077
 20
-436.2675689798978
 30
0.0
  0
SEQEND
  5
A86
  8
回04-下接
  6
CONTINUOUS
 62
     3
  0
POLYLINE
  5
41D
  8
回03-下ER
  6
CONTINUOUS
 62
     7
 66
     1
 10
0.0
 20
0.0
 30
0.0
  0
VERTEX
  5
A88
  8
回03-下ER
  6
CONTINUOUS
 62
     7
 10
999.2774776840075
 20
-325.525068979898
 30
0.0
  0
VERTEX
  5
A8A
  8
回03-下ER
  6
CONTINUOUS
 62
     7
 10
999.2774776840075
 20
-454.3250689798978
 30
0.0
  0
SEQEND
  5
A89
  8
回04-下接
  6
CONTINUOUS
 62
     3
  0
POLYLINE
  5
421
  8
回03-下ER
  6
CONTINUOUS
 62
     7
 66
     1
 10
0.0
 20
0.0
 30
0.0
  0
VERTEX
  5
A8B
  8
回03-下ER
  6
CONTINUOUS
 62
     7
 10
998.8774776840076
 20
-454.3250689798978
 30
0.0
  0
VERTEX
  5
A8D
  8
回03-下ER
  6
CONTINUOUS
 62
     7
 10
998.8774776840076
 20
-325.525068979898
 30
0.0
  0
SEQEND
  5
A8C
  8
回04-下接
  6
CONTINUOUS
 62
     3
  0
POLYLINE
  5
422
  8
回03-下ER
  6
CONTINUOUS
 62
     7
 66
     1
 10
0.0
 20
0.0
 30
0.0
  0
VERTEX
  5
A8E
  8
回03-下ER
  6
CONTINUOUS
 62
     7
 10
977.8024776840076
 20
-325.525068979898
 30
0.0
  0
VERTEX
  5
A90
  8
回03-下ER
  6
CONTINUOUS
 62
     7
 10
977.8024776840076
 20
-454.3250689798978
 30
0.0
  0
SEQEND
  5
A8F
  8
回04-下接
  6
CONTINUOUS
 62
     3
  0
POLYLINE
  5
423
  8
回03-下ER
  6
CONTINUOUS
 62
     7
 66
     1
 10
0.0
 20
0.0
 30
0.0
  0
VERTEX
  5
A91
  8
回03-下ER
  6
CONTINUOUS
 62
     7
 10
977.4024776840075
 20
-454.3250689798978
 30
0.0
  0
VERTEX
  5
A93
  8
回03-下ER
  6
CONTINUOUS
 62
     7
 10
977.4024776840075
 20
-325.525068979898
 30
0.0
  0
SEQEND
  5
A92
  8
回04-下接
  6
CONTINUOUS
 62
     3
  0
POLYLINE
  5
424
  8
回03-下ER
  6
CONTINUOUS
 62
     7
 66
     1
 10
0.0
 20
0.0
 30
0.0
  0
VERTEX
  5
A94
  8
回03-下ER
  6
CONTINUOUS
 62
     7
 10
956.3274776840076
 20
-325.525068979898
 30
0.0
  0
VERTEX
  5
A96
  8
回03-下ER
  6
CONTINUOUS
 62
     7
 10
956.3274776840076
 20
-454.3250689798978
 30
0.0
  0
SEQEND
  5
A95
  8
回04-下接
  6
CONTINUOUS
 62
     3
  0
POLYLINE
  5
425
  8
回03-下ER
  6
CONTINUOUS
 62
     7
 66
     1
 10
0.0
 20
0.0
 30
0.0
  0
VERTEX
  5
A97
  8
回03-下ER
  6
CONTINUOUS
 62
     7
 10
955.9274776840076
 20
-454.3250689798978
 30
0.0
  0
VERTEX
  5
A99
  8
回03-下ER
  6
CONTINUOUS
 62
     7
 10
955.9274776840076
 20
-325.525068979898
 30
0.0
  0
SEQEND
  5
A98
  8
回04-下接
  6
CONTINUOUS
 62
     3
  0
POLYLINE
  5
426
  8
回03-下ER
  6
CONTINUOUS
 62
     7
 66
     1
 10
0.0
 20
0.0
 30
0.0
  0
VERTEX
  5
A9A
  8
回03-下ER
  6
CONTINUOUS
 62
     7
 10
934.8524776840076
 20
-325.525068979898
 30
0.0
  0
VERTEX
  5
A9C
  8
回03-下ER
  6
CONTINUOUS
 62
     7
 10
934.8524776840076
 20
-454.3250689798978
 30
0.0
  0
SEQEND
  5
A9B
  8
回04-下接
  6
CONTINUOUS
 62
     3
  0
POLYLINE
  5
427
  8
回03-下ER
  6
CONTINUOUS
 62
     7
 66
     1
 10
0.0
 20
0.0
 30
0.0
  0
VERTEX
  5
A9D
  8
回03-下ER
  6
CONTINUOUS
 62
     7
 10
934.4524776840076
 20
-454.3250689798978
 30
0.0
  0
VERTEX
  5
A9F
  8
回03-下ER
  6
CONTINUOUS
 62
     7
 10
934.4524776840076
 20
-325.525068979898
 30
0.0
  0
SEQEND
  5
A9E
  8
回04-下接
  6
CONTINUOUS
 62
     3
  0
POLYLINE
  5
428
  8
回03-下ER
  6
CONTINUOUS
 62
     7
 66
     1
 10
0.0
 20
0.0
 30
0.0
  0
VERTEX
  5
AA0
  8
回03-下ER
  6
CONTINUOUS
 62
     7
 10
913.3774776840075
 20
-325.525068979898
 30
0.0
  0
VERTEX
  5
AA2
  8
回03-下ER
  6
CONTINUOUS
 62
     7
 10
913.3774776840075
 20
-454.3250689798978
 30
0.0
  0
SEQEND
  5
AA1
  8
回04-下接
  6
CONTINUOUS
 62
     3
  0
POLYLINE
  5
429
  8
回03-下ER
  6
CONTINUOUS
 62
     7
 66
     1
 10
0.0
 20
0.0
 30
0.0
  0
VERTEX
  5
AA3
  8
回03-下ER
  6
CONTINUOUS
 62
     7
 10
912.9774776840076
 20
-454.3250689798978
 30
0.0
  0
VERTEX
  5
AA5
  8
回03-下ER
  6
CONTINUOUS
 62
     7
 10
912.9774776840076
 20
-325.525068979898
 30
0.0
  0
SEQEND
  5
AA4
  8
回04-下接
  6
CONTINUOUS
 62
     3
  0
POLYLINE
  5
42A
  8
回03-下ER
  6
CONTINUOUS
 62
     7
 66
     1
 10
0.0
 20
0.0
 30
0.0
  0
VERTEX
  5
AA6
  8
回03-下ER
  6
CONTINUOUS
 62
     7
 10
891.9024776840075
 20
-325.525068979898
 30
0.0
  0
VERTEX
  5
AA8
  8
回03-下ER
  6
CONTINUOUS
 62
     7
 10
891.9024776840075
 20
-454.3250689798978
 30
0.0
  0
SEQEND
  5
AA7
  8
回04-下接
  6
CONTINUOUS
 62
     3
  0
POLYLINE
  5
42B
  8
回03-下ER
  6
CONTINUOUS
 62
     7
 66
     1
 10
0.0
 20
0.0
 30
0.0
  0
VERTEX
  5
AA9
  8
回03-下ER
  6
CONTINUOUS
 62
     7
 10
891.5024776840077
 20
-454.3250689798978
 30
0.0
  0
VERTEX
  5
AAB
  8
回03-下ER
  6
CONTINUOUS
 62
     7
 10
891.5024776840077
 20
-325.525068979898
 30
0.0
  0
SEQEND
  5
AAA
  8
回04-下接
  6
CONTINUOUS
 62
     3
  0
POLYLINE
  5
42C
  8
回03-下ER
  6
CONTINUOUS
 62
     7
 66
     1
 10
0.0
 20
0.0
 30
0.0
  0
VERTEX
  5
AAC
  8
回03-下ER
  6
CONTINUOUS
 62
     7
 10
870.4274776840078
 20
-325.525068979898
 30
0.0
  0
VERTEX
  5
AAE
  8
回03-下ER
  6
CONTINUOUS
 62
     7
 10
870.4274776840078
 20
-454.3250689798978
 30
0.0
  0
SEQEND
  5
AAD
  8
回04-下接
  6
CONTINUOUS
 62
     3
  0
POLYLINE
  5
42D
  8
回03-下ER
  6
CONTINUOUS
 62
     7
 66
     1
 10
0.0
 20
0.0
 30
0.0
  0
VERTEX
  5
AAF
  8
回03-下ER
  6
CONTINUOUS
 62
     7
 10
870.0274776840075
 20
-454.3250689798978
 30
0.0
  0
VERTEX
  5
AB1
  8
回03-下ER
  6
CONTINUOUS
 62
     7
 10
870.0274776840075
 20
-325.525068979898
 30
0.0
  0
SEQEND
  5
AB0
  8
回04-下接
  6
CONTINUOUS
 62
     3
  0
POLYLINE
  5
42E
  8
回08-記事
  6
PHANTOM2
 62
     7
 66
     1
 10
0.0
 20
0.0
 30
0.0
 70
     1
  0
VERTEX
  5
AB2
  8
回08-記事
  6
PHANTOM2
 62
     7
 10
846.4524776840077
 20
-456.8250689798978
 30
0.0
  0
VERTEX
  5
AB4
  8
回08-記事
  6
PHANTOM2
 62
     7
 10
1022.852477684007
 20
-456.8250689798978
 30
0.0
  0
VERTEX
  5
AB5
  8
回08-記事
  6
PHANTOM2
 62
     7
 10
1022.852477684007
 20
-323.025068979898
 30
0.0
  0
VERTEX
  5
AB6
  8
回08-記事
  6
PHANTOM2
 62
     7
 10
846.4524776840077
 20
-323.025068979898
 30
0.0
  0
SEQEND
  5
AB3
  8
回04-下接
  6
CONTINUOUS
 62
     3
  0
POLYLINE
  5
430
  8
回08-記事
  6
CONTINUOUS
 62
     7
 66
     1
 10
0.0
 20
0.0
 30
0.0
 70
     1
  0
VERTEX
  5
AB7
  8
回08-記事
  6
CONTINUOUS
 62
     7
 10
846.9524776840076
 20
-456.3250689798977
 30
0.0
  0
VERTEX
  5
AB9
  8
回08-記事
  6
CONTINUOUS
 62
     7
 10
1022.352477684007
 20
-456.3250689798977
 30
0.0
  0
VERTEX
  5
ABA
  8
回08-記事
  6
CONTINUOUS
 62
     7
 10
1022.352477684007
 20
-323.525068979898
 30
0.0
  0
VERTEX
  5
ABB
  8
回08-記事
  6
CONTINUOUS
 62
     7
 10
846.9524776840076
 20
-323.525068979898
 30
0.0
  0
SEQEND
  5
AB8
  8
回04-下接
  6
CONTINUOUS
 62
     3
  0
POLYLINE
  5
431
  8
回08-記事
  6
CONTINUOUS
 62
     7
 66
     1
 10
0.0
 20
0.0
 30
0.0
 70
     1
  0
VERTEX
  5
ABC
  8
回08-記事
  6
CONTINUOUS
 62
     7
 10
848.9524776840077
 20
-454.3250689798978
 30
0.0
  0
VERTEX
  5
ABE
  8
回08-記事
  6
CONTINUOUS
 62
     7
 10
1020.352477684007
 20
-454.3250689798978
 30
0.0
  0
VERTEX
  5
ABF
  8
回08-記事
  6
CONTINUOUS
 62
     7
 10
1020.352477684007
 20
-325.525068979898
 30
0.0
  0
VERTEX
  5
AC0
  8
回08-記事
  6
CONTINUOUS
 62
     7
 10
848.9524776840077
 20
-325.525068979898
 30
0.0
  0
SEQEND
  5
ABD
  8
回04-下接
  6
CONTINUOUS
 62
     3
  0
POLYLINE
  5
432
  8
回04-下接
  6
CONTINUOUS
 62
     7
 66
     1
 10
0.0
 20
0.0
 30
0.0
 70
     1
  0
VERTEX
  5
AC1
  8
回04-下接
  6
CONTINUOUS
 62
     7
 10
840.4524776840077
 20
-316.525068979898
 30
0.0
  0
VERTEX
  5
AC3
  8
回04-下接
  6
CONTINUOUS
 62
     7
 10
1028.852477684007
 20
-316.525068979898
 30
0.0
  0
VERTEX
  5
AC4
  8
回04-下接
  6
CONTINUOUS
 62
     7
 10
1028.852477684007
 20
-467.0250689798979
 30
0.0
  0
VERTEX
  5
AC5
  8
回04-下接
  6
CONTINUOUS
 62
     7
 10
840.4524776840077
 20
-467.0250689798979
 30
0.0
  0
SEQEND
  5
AC2
  8
回04-下接
  6
CONTINUOUS
 62
     3
  0
ENDSEC
  0
EOF
