  0
SECTION
  2
HEADER
  9
$ACADVER
  1
AC1009
  9
$INSBASE
 10
0.0
 20
0.0
 30
0.0
  9
$EXTMIN
 10
626.8295705380118
 20
-416.875149218954
 30
0.0
  9
$EXTMAX
 10
1196.829570538011
 20
-21.87514921895411
 30
0.0
  9
$LIMMIN
 10
0.0
 20
0.0
  9
$LIMMAX
 10
3000.0
 20
2500.0
  9
$ORTHOMODE
 70
     0
  9
$REGENMODE
 70
     1
  9
$FILLMODE
 70
     1
  9
$QTEXTMODE
 70
     0
  9
$MIRRTEXT
 70
     1
  9
$DRAGMODE
 70
     2
  9
$LTSCALE
 40
10.0
  9
$OSMODE
 70
    37
  9
$ATTMODE
 70
     1
  9
$TEXTSIZE
 40
3.0
  9
$TRACEWID
 40
1.0
  9
$TEXTSTYLE
  7
STANDARD
  9
$CLAYER
  8
0
  9
$CELTYPE
  6
CONTINUOUS
  9
$CECOLOR
 62
     5
  9
$DIMSCALE
 40
1.0
  9
$DIMASZ
 40
1.5
  9
$DIMEXO
 40
0.0
  9
$DIMDLI
 40
0.0
  9
$DIMRND
 40
0.0
  9
$DIMDLE
 40
0.0
  9
$DIMEXE
 40
1.0
  9
$DIMTP
 40
0.2
  9
$DIMTM
 40
0.2
  9
$DIMTXT
 40
3.0
  9
$DIMCEN
 40
1.5
  9
$DIMTSZ
 40
0.0
  9
$DIMTOL
 70
     0
  9
$DIMLIM
 70
     0
  9
$DIMTIH
 70
     0
  9
$DIMTOH
 70
     0
  9
$DIMSE1
 70
     0
  9
$DIMSE2
 70
     0
  9
$DIMTAD
 70
     3
  9
$DIMZIN
 70
     8
  9
$DIMBLK
  1
OPEN
  9
$DIMASO
 70
     1
  9
$DIMSHO
 70
     1
  9
$DIMPOST
  1

  9
$DIMAPOST
  1

  9
$DIMALT
 70
     0
  9
$DIMALTD
 70
     3
  9
$DIMALTF
 40
0.03937007874016
  9
$DIMLFAC
 40
1.0
  9
$DIMTOFL
 70
     1
  9
$DIMTVP
 40
0.0
  9
$DIMTIX
 70
     0
  9
$DIMSOXD
 70
     0
  9
$DIMSAH
 70
     0
  9
$DIMBLK1
  1

  9
$DIMBLK2
  1

  9
$DIMSTYLE
  2
DMC
  9
$DIMCLRD
 70
     5
  9
$DIMCLRE
 70
     5
  9
$DIMCLRT
 70
     5
  9
$DIMTFAC
 40
0.7
  9
$DIMGAP
 40
0.5
  9
$LUNITS
 70
     2
  9
$LUPREC
 70
     4
  9
$SKETCHINC
 40
1.0
  9
$FILLETRAD
 40
0.5
  9
$AUNITS
 70
     0
  9
$AUPREC
 70
     0
  9
$MENU
  1
.
  9
$ELEVATION
 40
0.0
  9
$PELEVATION
 40
0.0
  9
$THICKNESS
 40
0.0
  9
$LIMCHECK
 70
     0
  9
$BLIPMODE
 70
     0
  9
$CHAMFERA
 40
10.0
  9
$CHAMFERB
 40
10.0
  9
$SKPOLY
 70
     0
  9
$TDCREATE
 40
2451810.404221065
  9
$TDUPDATE
 40
2460230.386739063
  9
$TDINDWG
 40
3.920768600
  9
$TDUSRTIMER
 40
3.920767164
  9
$USRTIMER
 70
     1
  9
$ANGBASE
 50
0.0
  9
$ANGDIR
 70
     0
  9
$PDMODE
 70
     0
  9
$PDSIZE
 40
0.0
  9
$PLINEWID
 40
0.5
  9
$COORDS
 70
     0
  9
$SPLFRAME
 70
     0
  9
$SPLINETYPE
 70
     6
  9
$SPLINESEGS
 70
     8
  9
$ATTDIA
 70
     1
  9
$ATTREQ
 70
     1
  9
$HANDLING
 70
     1
  9
$HANDSEED
  5
BBC
  9
$SURFTAB1
 70
     6
  9
$SURFTAB2
 70
     6
  9
$SURFTYPE
 70
     6
  9
$SURFU
 70
     6
  9
$SURFV
 70
     6
  9
$UCSNAME
  2

  9
$UCSORG
 10
0.0
 20
0.0
 30
0.0
  9
$UCSXDIR
 10
1.0
 20
0.0
 30
0.0
  9
$UCSYDIR
 10
0.0
 20
1.0
 30
0.0
  9
$PUCSNAME
  2

  9
$PUCSORG
 10
0.0
 20
0.0
 30
0.0
  9
$PUCSXDIR
 10
1.0
 20
0.0
 30
0.0
  9
$PUCSYDIR
 10
0.0
 20
1.0
 30
0.0
  9
$USERI1
 70
     0
  9
$USERI2
 70
     0
  9
$USERI3
 70
     0
  9
$USERI4
 70
     0
  9
$USERI5
 70
     0
  9
$USERR1
 40
0.0
  9
$USERR2
 40
0.0
  9
$USERR3
 40
0.0
  9
$USERR4
 40
0.0
  9
$USERR5
 40
0.0
  9
$WORLDVIEW
 70
     1
  9
$SHADEDGE
 70
     3
  9
$SHADEDIF
 70
    70
  9
$TILEMODE
 70
     1
  9
$MAXACTVP
 70
    64
  9
$PLIMCHECK
 70
     0
  9
$PEXTMIN
 10
1.000000000000000E+20
 20
1.000000000000000E+20
 30
1.000000000000000E+20
  9
$PEXTMAX
 10
-1.000000000000000E+20
 20
-1.000000000000000E+20
 30
-1.000000000000000E+20
  9
$PLIMMIN
 10
0.0
 20
0.0
  9
$PLIMMAX
 10
420.0
 20
297.0
  9
$UNITMODE
 70
     0
  9
$VISRETAIN
 70
     1
  9
$PLINEGEN
 70
     0
  9
$PSLTSCALE
 70
     1
  0
ENDSEC
  0
SECTION
  2
TABLES
  0
TABLE
  2
VPORT
 70
     1
  0
VPORT
  2
*ACTIVE
 70
     0
 10
0.0
 20
0.0
 11
1.0
 21
1.0
 12
1079.476654744535
 22
-253.6933059220781
 13
0.0
 23
0.0
 14
10.0
 24
10.0
 15
10.0
 25
10.0
 16
0.0
 26
0.0
 36
1.0
 17
0.0
 27
0.0
 37
0.0
 40
752.8954611215974
 41
1.853689567430025
 42
50.0
 43
0.0
 44
0.0
 50
0.0
 51
0.0
 71
     0
 72
   500
 73
     1
 74
     1
 75
     0
 76
     0
 77
     0
 78
     0
  0
ENDTAB
  0
TABLE
  2
LTYPE
 70
     4
  0
LTYPE
  2
CONTINUOUS
 70
     0
  3
Solid line
 72
    65
 73
     0
 40
0.0
  0
LTYPE
  2
CENTER2
 70
     0
  3
Center (.5x) ___ _ ___ _ ___ _ ___ _ ___ _ ___
 72
    65
 73
     4
 40
28.575
 49
19.05
 49
-3.174999999999998
 49
3.174999999999998
 49
-3.174999999999998
  0
LTYPE
  2
PHANTOM2
 70
     0
  3
___ _ _ ___ _ _ ___ _ _ ___ _ _ ___ _ _ ___ _ _
 72
    65
 73
     6
 40
1.25
 49
0.625
 49
-0.125
 49
0.125
 49
-0.125
 49
0.125
 49
-0.125
  0
LTYPE
  2
DASHED2
 70
     0
  3
Dashed (.5x) _ _ _ _ _ _ _ _ _ _ _ _ _ _ _ _ _
 72
    65
 73
     2
 40
9.524999999999996
 49
6.349999999999998
 49
-3.174999999999998
  0
ENDTAB
  0
TABLE
  2
LAYER
 70
    10
  0
LAYER
  2
0
 70
     0
 62
     7
  6
CONTINUOUS
  0
LAYER
  2
DEFPOINTS
 70
     0
 62
     7
  6
CONTINUOUS
  0
LAYER
  2
回05-ﾃｰﾙ
 70
     0
 62
     7
  6
CONTINUOUS
  0
LAYER
  2
回07-寸法
 70
     0
 62
     7
  6
CONTINUOUS
  0
LAYER
  2
回03-下ER
 70
     0
 62
     7
  6
CONTINUOUS
  0
LAYER
  2
回90-枠2
 70
     0
 62
     7
  6
CONTINUOUS
  0
LAYER
  2
回04-下接
 70
     0
 62
     7
  6
CONTINUOUS
  0
LAYER
  2
回01-上ER
 70
     0
 62
     7
  6
CONTINUOUS
  0
LAYER
  2
回08-記事
 70
     0
 62
     7
  6
CONTINUOUS
  0
LAYER
  2
回03-記事
 70
     0
 62
     7
  6
CONTINUOUS
  0
ENDTAB
  0
TABLE
  2
STYLE
 70
     2
  0
STYLE
  2
STANDARD
 70
     0
 40
4.0
 41
1.0
 50
0.0
 71
     0
 42
3.0
  3
isocp.shx
  4
bigfont.shx
  0
STYLE
  2
ANNOTATIVE
 70
     0
 40
0.0
 41
1.0
 50
0.0
 71
     0
 42
0.2
  3
txt.shx
  4

  0
ENDTAB
  0
TABLE
  2
VIEW
 70
     0
  0
ENDTAB
  0
TABLE
  2
UCS
 70
     0
  0
ENDTAB
  0
TABLE
  2
APPID
 70
     6
  0
APPID
  2
ACAD
 70
     0
  0
APPID
  2
ACADANNOTATIVE
 70
     0
  0
APPID
  2
ACAD_PSEXT
 70
     0
  0
APPID
  2
GRADIENTCOLOR1ACI
 70
     0
  0
APPID
  2
GRADIENTCOLOR2ACI
 70
     0
  0
APPID
  2
ACAD_NAV_VCDISPLAY
 70
     0
  0
ENDTAB
  0
TABLE
  2
DIMSTYLE
 70
     2
  0
DIMSTYLE
  2
DMC
 70
     0
  3

  4

  5
OPEN
  6

  7

 40
1.0
 41
2.0
 42
0.0
 43
0.0
 44
1.0
 45
0.0
 46
0.0
 47
0.0
 48
0.0
140
3.0
141
2.0
142
0.0
143
0.03937007874016
144
1.0
145
0.0
146
0.7
147
0.5
 71
     0
 72
     0
 73
     0
 74
     0
 75
     0
 76
     0
 77
     3
 78
     8
170
     0
171
     3
172
     1
173
     0
174
     0
175
     0
176
     5
177
     5
178
     5
  0
DIMSTYLE
  2
STANDARD
 70
     0
  3

  4

  5

  6

  7

 40
1.0
 41
0.18
 42
0.0625
 43
0.38
 44
0.18
 45
0.0
 46
0.0
 47
0.0
 48
0.0
140
0.18
141
0.09
142
0.0
143
25.4
144
1.0
145
0.0
146
1.0
147
0.09
 71
     0
 72
     0
 73
     1
 74
     1
 75
     0
 76
     0
 77
     0
 78
     0
170
     0
171
     2
172
     0
173
     0
174
     0
175
     0
176
     0
177
     0
178
     0
  0
ENDTAB
  0
ENDSEC
  0
SECTION
  2
BLOCKS
  0
BLOCK
  8
0
  2
$MODEL_SPACE
 70
     0
 10
0.0
 20
0.0
 30
0.0
  3
$MODEL_SPACE
  1

  0
ENDBLK
  8
0
  5
1D
  0
BLOCK
 67
     1
  8
0
  2
$PAPER_SPACE
 70
     0
 10
0.0
 20
0.0
 30
0.0
  3
$PAPER_SPACE
  1

  0
ENDBLK
  5
23
 67
     1
  8
0
  0
BLOCK
  8
0
  2
_OPEN
 70
     0
 10
0.0
 20
0.0
 30
0.0
  3
_OPEN
  1

  0
LINE
  5
8EC
  8
0
  6
BYBLOCK
 62
     0
 10
-1.0
 20
0.166667
 30
0.0
 11
0.0
 21
0.0
 31
0.0
  0
LINE
  5
8ED
  8
0
  6
BYBLOCK
 62
     0
 10
-1.0
 20
-0.166667
 30
0.0
 11
0.0
 21
0.0
 31
0.0
  0
LINE
  5
8EE
  8
0
  6
BYBLOCK
 62
     0
 10
0.0
 20
0.0
 30
0.0
 11
-1.0
 21
0.0
 31
0.0
  0
LINE
  5
11
  8
0
  6
CONTINUOUS
 62
     0
 10
-1.0
 20
0.1666666666666666
 30
0.0
 11
0.0
 21
0.0
 31
0.0
  0
LINE
  5
12
  8
0
  6
CONTINUOUS
 62
     0
 10
-1.0
 20
-0.1666666666666666
 30
0.0
 11
0.0
 21
0.0
 31
0.0
  0
LINE
  5
13
  8
0
  6
CONTINUOUS
 62
     0
 10
0.0
 20
0.0
 30
0.0
 11
-1.0
 21
0.0
 31
0.0
  0
ENDBLK
  5
14
  8
0
  0
BLOCK
  8
0
  2
*D11
 70
     1
 10
0.0
 20
0.0
 30
0.0
  3
*D11
  1

  0
LINE
  5
436
  8
回07-寸法
  6
CONTINUOUS
 62
     5
 10
1007.150117552659
 20
-27.82930086661369
 30
0.0
 11
1007.150117552659
 21
-15.82392551016423
 31
0.0
  0
LINE
  5
437
  8
回07-寸法
  6
CONTINUOUS
 62
     5
 10
1028.043301771629
 20
-27.32930086661358
 30
0.0
 11
1028.043301771629
 21
-15.82392551016423
 31
0.0
  0
LINE
  5
438
  8
回07-寸法
  6
CONTINUOUS
 62
     5
 10
1008.650117552659
 20
-16.82392551016423
 30
0.0
 11
1026.543301771629
 21
-16.82392551016423
 31
0.0
  0
INSERT
  5
439
  8
回07-寸法
  6
CONTINUOUS
 62
     5
  2
_OPEN
 10
1007.150117552659
 20
-16.82392551016423
 30
0.0
 41
1.5
 42
1.5
 43
1.5
 50
180.0
  0
INSERT
  5
43A
  8
回07-寸法
  6
CONTINUOUS
 62
     5
  2
_OPEN
 10
1028.043301771629
 20
-16.82392551016423
 30
0.0
 41
1.5
 42
1.5
 43
1.5
  0
INSERT
  5
43B
  8
回07-寸法
  6
CONTINUOUS
 62
     5
 66
     1
  2
*X8787
 10
0.0
 20
0.0
 30
0.0
  0
SEQEND
  5
7F1
  8
0
  6
CONTINUOUS
 62
     5
  0
POINT
  5
43C
  8
DEFPOINTS
  6
CONTINUOUS
 62
     0
 10
1007.150117552659
 20
-27.82930086661369
 30
0.0
  0
POINT
  5
43D
  8
DEFPOINTS
  6
CONTINUOUS
 62
     0
 10
1028.043301771629
 20
-27.32930086661358
 30
0.0
  0
POINT
  5
43E
  8
DEFPOINTS
  6
CONTINUOUS
 62
     0
 10
1028.043301771629
 20
-16.82392551016423
 30
0.0
  0
ENDBLK
  5
43F
  8
0
 62
     5
  0
BLOCK
  8
0
  2
*D22
 70
     1
 10
0.0
 20
0.0
 30
0.0
  3
*D22
  1

  0
LINE
  5
421
  8
回07-寸法
  6
CONTINUOUS
 62
     5
 10
1013.650117552659
 20
-273.5252524958024
 30
0.0
 11
1018.40517802154
 21
-273.5252524958024
 31
0.0
  0
LINE
  5
422
  8
回07-寸法
  6
CONTINUOUS
 62
     5
 10
1013.650117552659
 20
-283.5252524958024
 30
0.0
 11
1018.40517802154
 21
-283.5252524958024
 31
0.0
  0
LINE
  5
423
  8
回07-寸法
  6
CONTINUOUS
 62
     5
 10
1017.40517802154
 20
-275.0252524958024
 30
0.0
 11
1017.40517802154
 21
-282.0252524958024
 31
0.0
  0
INSERT
  5
424
  8
回07-寸法
  6
CONTINUOUS
 62
     5
 66
     1
  2
_OPEN
 10
1017.40517802154
 20
-273.5252524958024
 30
0.0
 41
1.5
 42
1.5
 43
1.5
 50
90.0
  0
SEQEND
  5
425
  8
0
  6
CONTINUOUS
 62
     5
  0
INSERT
  5
426
  8
回07-寸法
  6
CONTINUOUS
 62
     5
 66
     1
  2
_OPEN
 10
1017.40517802154
 20
-283.5252524958024
 30
0.0
 41
1.5
 42
1.5
 43
1.5
 50
270.0
  0
SEQEND
  5
427
  8
0
  6
CONTINUOUS
 62
     5
  0
TEXT
  5
428
  8
回07-寸法
  6
CONTINUOUS
 62
     5
 10
1016.77184402154
 20
-281.1919324958022
 30
0.0
 40
2.666679999999999
  1
(10)
 50
90.0
1001
ACAD
1000
MTEXTBEGIN
1070
    73
1070
     1
1070
    44
1040
1.0
1070
    74
1070
     0
1000
MTEXTEND
  0
POINT
  5
429
  8
DEFPOINTS
  6
CONTINUOUS
 62
     0
 10
1013.650117552659
 20
-273.5252524958024
 30
0.0
  0
POINT
  5
42A
  8
DEFPOINTS
  6
CONTINUOUS
 62
     0
 10
1013.650117552659
 20
-283.5252524958024
 30
0.0
  0
POINT
  5
42B
  8
DEFPOINTS
  6
CONTINUOUS
 62
     0
 10
1017.40517802154
 20
-283.5252524958024
 30
0.0
  0
ENDBLK
  5
42C
  8
0
 62
     5
  0
BLOCK
  8
0
  2
*D33
 70
     1
 10
0.0
 20
0.0
 30
0.0
  3
*D33
  1

  0
LINE
  5
410
  8
回07-寸法
  6
CONTINUOUS
 62
     5
 10
1013.650117552659
 20
-283.5252524958024
 30
0.0
 11
1013.650117552659
 21
-294.9476372223365
 31
0.0
  0
LINE
  5
411
  8
回07-寸法
  6
CONTINUOUS
 62
     5
 10
1011.150117552659
 20
-283.5252524958024
 30
0.0
 11
1011.150117552659
 21
-294.9476372223365
 31
0.0
  0
LINE
  5
412
  8
回07-寸法
  6
CONTINUOUS
 62
     5
 10
1015.150117552659
 20
-293.9476372223365
 30
0.0
 11
1016.650117552659
 21
-293.9476372223365
 31
0.0
  0
LINE
  5
413
  8
回07-寸法
  6
CONTINUOUS
 62
     5
 10
1009.650117552659
 20
-293.9476372223365
 30
0.0
 11
992.9698044441092
 21
-293.9476372223365
 31
0.0
  0
LINE
  5
414
  8
回07-寸法
  6
CONTINUOUS
 62
     5
 10
1013.650117552659
 20
-293.9476372223365
 30
0.0
 11
1011.150117552659
 21
-293.9476372223365
 31
0.0
  0
INSERT
  5
415
  8
回07-寸法
  6
CONTINUOUS
 62
     5
 66
     1
  2
_OPEN
 10
1013.650117552659
 20
-293.9476372223365
 30
0.0
 41
1.5
 42
1.5
 43
1.5
 50
180.0
  0
SEQEND
  5
416
  8
0
  6
CONTINUOUS
 62
     5
  0
INSERT
  5
417
  8
回07-寸法
  6
CONTINUOUS
 62
     5
 66
     1
  2
_OPEN
 10
1011.150117552659
 20
-293.9476372223365
 30
0.0
 41
1.5
 42
1.5
 43
1.5
  0
SEQEND
  5
418
  8
0
  6
CONTINUOUS
 62
     5
  0
INSERT
  5
419
  8
回07-寸法
  6
CONTINUOUS
 62
     5
 66
     1
  2
*X8888
 10
0.0
 20
0.0
 30
0.0
  0
SEQEND
  5
7F7
  8
0
  6
CONTINUOUS
 62
     5
  0
POINT
  5
41A
  8
DEFPOINTS
  6
CONTINUOUS
 62
     0
 10
1013.650117552659
 20
-283.5252524958024
 30
0.0
  0
POINT
  5
41B
  8
DEFPOINTS
  6
CONTINUOUS
 62
     0
 10
1011.150117552659
 20
-283.5252524958024
 30
0.0
  0
POINT
  5
41C
  8
DEFPOINTS
  6
CONTINUOUS
 62
     0
 10
1011.150117552659
 20
-293.9476372223365
 30
0.0
  0
ENDBLK
  5
41D
  8
0
 62
     5
  0
BLOCK
  8
0
  2
*D44
 70
     1
 10
0.0
 20
0.0
 30
0.0
  3
*D44
  1

  0
LINE
  5
356
  8
回07-寸法
  6
CONTINUOUS
 62
     5
 10
743.0399246704228
 20
-172.8293008666135
 30
0.0
 11
705.0599246704227
 21
-172.8293008666135
 31
0.0
  0
LINE
  5
357
  8
回07-寸法
  6
CONTINUOUS
 62
     5
 10
738.0399246704228
 20
-183.5293008666135
 30
0.0
 11
705.0599246704227
 21
-183.5293008666135
 31
0.0
  0
LINE
  5
358
  8
回07-寸法
  6
CONTINUOUS
 62
     5
 10
706.0599246704228
 20
-171.3293008666135
 30
0.0
 11
706.0599246704228
 21
-169.8293008666135
 31
0.0
  0
LINE
  5
359
  8
回07-寸法
  6
CONTINUOUS
 62
     5
 10
706.0599246704228
 20
-185.0293008666135
 30
0.0
 11
706.0599246704228
 21
-195.1793008666135
 31
0.0
  0
LINE
  5
35A
  8
回07-寸法
  6
CONTINUOUS
 62
     5
 10
706.0599246704228
 20
-172.8293008666135
 30
0.0
 11
706.0599246704228
 21
-183.5293008666135
 31
0.0
  0
INSERT
  5
35B
  8
回07-寸法
  6
CONTINUOUS
 62
     5
  2
_OPEN
 10
706.0599246704228
 20
-172.8293008666135
 30
0.0
 41
1.5
 42
1.5
 43
1.5
 50
270.0
  0
INSERT
  5
35C
  8
回07-寸法
  6
CONTINUOUS
 62
     5
  2
_OPEN
 10
706.0599246704228
 20
-183.5293008666135
 30
0.0
 41
1.5
 42
1.5
 43
1.5
 50
90.0
  0
TEXT
  5
35D
  8
回07-寸法
  6
CONTINUOUS
 62
     5
 10
705.5599246704227
 20
-195.2793008666135
 30
0.0
 40
4.0
  1
10.7
 50
90.0
1001
ACAD
1000
MTEXTBEGIN
1070
    73
1070
     1
1070
    44
1040
1.0
1070
    74
1070
     0
1000
MTEXTEND
  0
POINT
  5
35E
  8
DEFPOINTS
  6
CONTINUOUS
 62
     0
 10
743.0399246704228
 20
-172.8293008666135
 30
0.0
  0
POINT
  5
35F
  8
DEFPOINTS
  6
CONTINUOUS
 62
     0
 10
738.0399246704228
 20
-183.5293008666135
 30
0.0
  0
POINT
  5
360
  8
DEFPOINTS
  6
CONTINUOUS
 62
     0
 10
706.0599246704228
 20
-183.5293008666135
 30
0.0
  0
ENDBLK
  5
361
  8
0
 62
     5
  0
BLOCK
  8
0
  2
*D55
 70
     1
 10
0.0
 20
0.0
 30
0.0
  3
*D55
  1

  0
LINE
  5
349
  8
回07-寸法
  6
CONTINUOUS
 62
     5
 10
738.0399246704228
 20
-27.32930086661347
 30
0.0
 11
738.0399246704228
 21
20.67069913338654
 31
0.0
  0
LINE
  5
34A
  8
回07-寸法
  6
CONTINUOUS
 62
     5
 10
969.0399246704227
 20
-27.32930086661358
 30
0.0
 11
969.0399246704227
 21
20.67069913338654
 31
0.0
  0
LINE
  5
34B
  8
回07-寸法
  6
CONTINUOUS
 62
     5
 10
739.5399246704227
 20
19.67069913338653
 30
0.0
 11
967.5399246704229
 21
19.67069913338653
 31
0.0
  0
INSERT
  5
34C
  8
回07-寸法
  6
CONTINUOUS
 62
     5
  2
_OPEN
 10
738.0399246704228
 20
19.67069913338653
 30
0.0
 41
1.5
 42
1.5
 43
1.5
 50
180.0
  0
INSERT
  5
34D
  8
回07-寸法
  6
CONTINUOUS
 62
     5
  2
_OPEN
 10
969.0399246704227
 20
19.67069913338653
 30
0.0
 41
1.5
 42
1.5
 43
1.5
  0
INSERT
  5
34E
  8
回07-寸法
  6
CONTINUOUS
 62
     5
 66
     1
  2
*X8989
 10
0.0
 20
0.0
 30
0.0
  0
SEQEND
  5
7FD
  8
0
  6
CONTINUOUS
 62
     5
  0
POINT
  5
34F
  8
DEFPOINTS
  6
CONTINUOUS
 62
     0
 10
738.0399246704228
 20
-27.32930086661347
 30
0.0
  0
POINT
  5
350
  8
DEFPOINTS
  6
CONTINUOUS
 62
     0
 10
969.0399246704227
 20
-27.32930086661358
 30
0.0
  0
POINT
  5
351
  8
DEFPOINTS
  6
CONTINUOUS
 62
     0
 10
969.0399246704227
 20
19.67069913338653
 30
0.0
  0
ENDBLK
  5
352
  8
0
 62
     5
  0
BLOCK
  8
0
  2
*D66
 70
     1
 10
0.0
 20
0.0
 30
0.0
  3
*D66
  1

  0
LINE
  5
33C
  8
回07-寸法
  6
CONTINUOUS
 62
     5
 10
743.0399246704228
 20
-33.22930086661344
 30
0.0
 11
743.0399246704228
 21
2.670699133386534
 31
0.0
  0
LINE
  5
33D
  8
回07-寸法
  6
CONTINUOUS
 62
     5
 10
964.0399246704228
 20
-33.22930086661356
 30
0.0
 11
964.0399246704228
 21
2.670699133386534
 31
0.0
  0
LINE
  5
33E
  8
回07-寸法
  6
CONTINUOUS
 62
     5
 10
744.5399246704227
 20
1.670699133386534
 30
0.0
 11
962.5399246704228
 21
1.670699133386534
 31
0.0
  0
INSERT
  5
33F
  8
回07-寸法
  6
CONTINUOUS
 62
     5
  2
_OPEN
 10
743.0399246704228
 20
1.670699133386534
 30
0.0
 41
1.5
 42
1.5
 43
1.5
 50
180.0
  0
INSERT
  5
340
  8
回07-寸法
  6
CONTINUOUS
 62
     5
  2
_OPEN
 10
964.0399246704228
 20
1.670699133386534
 30
0.0
 41
1.5
 42
1.5
 43
1.5
  0
TEXT
  5
341
  8
回07-寸法
  6
CONTINUOUS
 62
     5
 10
832.5407120719976
 20
3.243186506801824
 30
0.0
 40
4.0
  1
221(Viewing area)
1001
ACAD
1000
MTEXTBEGIN
1070
    73
1070
     1
1070
    44
1040
1.0
1070
    74
1070
     0
1000
MTEXTEND
  0
POINT
  5
342
  8
DEFPOINTS
  6
CONTINUOUS
 62
     0
 10
743.0399246704228
 20
-33.22930086661344
 30
0.0
  0
POINT
  5
343
  8
DEFPOINTS
  6
CONTINUOUS
 62
     0
 10
964.0399246704228
 20
-33.22930086661356
 30
0.0
  0
POINT
  5
344
  8
DEFPOINTS
  6
CONTINUOUS
 62
     0
 10
964.0399246704228
 20
1.670699133386534
 30
0.0
  0
ENDBLK
  5
345
  8
0
 62
     5
  0
BLOCK
  8
0
  2
*D77
 70
     1
 10
0.0
 20
0.0
 30
0.0
  3
*D77
  1

  0
LINE
  5
32F
  8
回07-寸法
  6
CONTINUOUS
 62
     5
 10
742.5399246704228
 20
-32.72930086661344
 30
0.0
 11
742.5399246704228
 21
11.67069913338653
 31
0.0
  0
LINE
  5
330
  8
回07-寸法
  6
CONTINUOUS
 62
     5
 10
964.5399246704227
 20
-32.72930086661356
 30
0.0
 11
964.5399246704227
 21
11.67069913338653
 31
0.0
  0
LINE
  5
331
  8
回07-寸法
  6
CONTINUOUS
 62
     5
 10
744.0399246704227
 20
10.67069913338653
 30
0.0
 11
963.0399246704227
 21
10.67069913338653
 31
0.0
  0
INSERT
  5
332
  8
回07-寸法
  6
CONTINUOUS
 62
     5
  2
_OPEN
 10
742.5399246704228
 20
10.67069913338653
 30
0.0
 41
1.5
 42
1.5
 43
1.5
 50
180.0
  0
INSERT
  5
333
  8
回07-寸法
  6
CONTINUOUS
 62
     5
  2
_OPEN
 10
964.5399246704227
 20
10.67069913338653
 30
0.0
 41
1.5
 42
1.5
 43
1.5
  0
TEXT
  5
334
  8
回07-寸法
  6
CONTINUOUS
 62
     5
 10
849.3394824233023
 20
11.17109283417393
 30
0.0
 40
4.0
  1
222
1001
ACAD
1000
MTEXTBEGIN
1070
    73
1070
     1
1070
    44
1040
1.0
1070
    74
1070
     0
1000
MTEXTEND
  0
POINT
  5
335
  8
DEFPOINTS
  6
CONTINUOUS
 62
     0
 10
742.5399246704228
 20
-32.72930086661344
 30
0.0
  0
POINT
  5
336
  8
DEFPOINTS
  6
CONTINUOUS
 62
     0
 10
964.5399246704227
 20
-32.72930086661356
 30
0.0
  0
POINT
  5
337
  8
DEFPOINTS
  6
CONTINUOUS
 62
     0
 10
964.5399246704227
 20
10.67069913338653
 30
0.0
  0
ENDBLK
  5
338
  8
0
 62
     5
  0
BLOCK
  8
0
  2
*D88
 70
     1
 10
0.0
 20
0.0
 30
0.0
  3
*D88
  1

  0
LINE
  5
322
  8
回07-寸法
  6
CONTINUOUS
 62
     5
 10
745.0599246704228
 20
-35.22930086661356
 30
0.0
 11
745.0599246704228
 21
-6.329300866613464
 31
0.0
  0
LINE
  5
323
  8
回07-寸法
  6
CONTINUOUS
 62
     5
 10
962.0199246704228
 20
-35.22930086661265
 30
0.0
 11
962.0199246704228
 21
-6.329300866613464
 31
0.0
  0
LINE
  5
324
  8
回07-寸法
  6
CONTINUOUS
 62
     5
 10
746.5599246704227
 20
-7.329300866613464
 30
0.0
 11
960.5199246704223
 21
-7.329300866613464
 31
0.0
  0
INSERT
  5
325
  8
回07-寸法
  6
CONTINUOUS
 62
     5
  2
_OPEN
 10
745.0599246704228
 20
-7.329300866613464
 30
0.0
 41
1.5
 42
1.5
 43
1.5
 50
180.0
  0
INSERT
  5
326
  8
回07-寸法
  6
CONTINUOUS
 62
     5
  2
_OPEN
 10
962.0199246704228
 20
-7.329300866613464
 30
0.0
 41
1.5
 42
1.5
 43
1.5
  0
TEXT
  5
327
  8
回07-寸法
  6
CONTINUOUS
 62
     5
 10
830.5334913349435
 20
-6.629300866613463
 30
0.0
 40
4.0
  1
216.96(Active area)
1001
ACAD
1000
MTEXTBEGIN
1070
    73
1070
     1
1070
    44
1040
1.0
1070
    74
1070
     0
1000
MTEXTEND
  0
POINT
  5
328
  8
DEFPOINTS
  6
CONTINUOUS
 62
     0
 10
745.0599246704228
 20
-35.22930086661356
 30
0.0
  0
POINT
  5
329
  8
DEFPOINTS
  6
CONTINUOUS
 62
     0
 10
962.0199246704228
 20
-35.22930086661265
 30
0.0
  0
POINT
  5
32A
  8
DEFPOINTS
  6
CONTINUOUS
 62
     0
 10
962.0199246704228
 20
-7.329300866613464
 30
0.0
  0
ENDBLK
  5
32B
  8
0
 62
     5
  0
BLOCK
  8
0
  2
*D99
 70
     1
 10
0.0
 20
0.0
 30
0.0
  3
*D99
  1

  0
LINE
  5
315
  8
回07-寸法
  6
CONTINUOUS
 62
     5
 10
738.0399246704228
 20
-27.32930086661347
 30
0.0
 11
685.0599246704227
 21
-27.32930086661347
 31
0.0
  0
LINE
  5
316
  8
回07-寸法
  6
CONTINUOUS
 62
     5
 10
738.0399246704228
 20
-183.5293008666135
 30
0.0
 11
685.0599246704227
 21
-183.5293008666135
 31
0.0
  0
LINE
  5
317
  8
回07-寸法
  6
CONTINUOUS
 62
     5
 10
686.0599246704228
 20
-28.82930086661345
 30
0.0
 11
686.0599246704228
 21
-182.0293008666135
 31
0.0
  0
INSERT
  5
318
  8
回07-寸法
  6
CONTINUOUS
 62
     5
  2
_OPEN
 10
686.0599246704228
 20
-27.32930086661345
 30
0.0
 41
1.5
 42
1.5
 43
1.5
 50
90.0
  0
INSERT
  5
319
  8
回07-寸法
  6
CONTINUOUS
 62
     5
  2
_OPEN
 10
686.0599246704228
 20
-183.5293008666135
 30
0.0
 41
1.5
 42
1.5
 43
1.5
 50
270.0
  0
INSERT
  5
31A
  8
回07-寸法
  6
CONTINUOUS
 62
     5
 66
     1
  2
*X9090
 10
0.0
 20
0.0
 30
0.0
  0
SEQEND
  5
803
  8
0
  6
CONTINUOUS
 62
     5
  0
POINT
  5
31B
  8
DEFPOINTS
  6
CONTINUOUS
 62
     0
 10
738.0399246704228
 20
-27.32930086661347
 30
0.0
  0
POINT
  5
31C
  8
DEFPOINTS
  6
CONTINUOUS
 62
     0
 10
738.0399246704228
 20
-183.5293008666135
 30
0.0
  0
POINT
  5
31D
  8
DEFPOINTS
  6
CONTINUOUS
 62
     0
 10
686.0599246704228
 20
-183.5293008666135
 30
0.0
  0
ENDBLK
  5
31E
  8
0
 62
     5
  0
BLOCK
  8
0
  2
*D1010
 70
     1
 10
0.0
 20
0.0
 30
0.0
  3
*D1010
  1

  0
LINE
  5
308
  8
回07-寸法
  6
CONTINUOUS
 62
     5
 10
745.0599246704228
 20
-35.22930086661356
 30
0.0
 11
715.0599246704228
 21
-35.22930086661356
 31
0.0
  0
LINE
  5
309
  8
回07-寸法
  6
CONTINUOUS
 62
     5
 10
745.0599246704228
 20
-170.8293008666135
 30
0.0
 11
715.0599246704228
 21
-170.8293008666135
 31
0.0
  0
LINE
  5
30A
  8
回07-寸法
  6
CONTINUOUS
 62
     5
 10
716.0599246704228
 20
-36.72930086661355
 30
0.0
 11
716.0599246704228
 21
-169.3293008666135
 31
0.0
  0
INSERT
  5
30B
  8
回07-寸法
  6
CONTINUOUS
 62
     5
  2
_OPEN
 10
716.0599246704228
 20
-35.22930086661354
 30
0.0
 41
1.5
 42
1.5
 43
1.5
 50
90.0
  0
INSERT
  5
30C
  8
回07-寸法
  6
CONTINUOUS
 62
     5
  2
_OPEN
 10
716.0599246704228
 20
-170.8293008666135
 30
0.0
 41
1.5
 42
1.5
 43
1.5
 50
270.0
  0
TEXT
  5
30D
  8
回07-寸法
  6
CONTINUOUS
 62
     5
 10
715.3599246704228
 20
-124.6285134650386
 30
0.0
 40
4.0
  1
135.6(Active area)
 50
90.0
1001
ACAD
1000
MTEXTBEGIN
1070
    73
1070
     1
1070
    44
1040
1.0
1070
    74
1070
     0
1000
MTEXTEND
  0
POINT
  5
30E
  8
DEFPOINTS
  6
CONTINUOUS
 62
     0
 10
745.0599246704228
 20
-35.22930086661356
 30
0.0
  0
POINT
  5
30F
  8
DEFPOINTS
  6
CONTINUOUS
 62
     0
 10
745.0599246704228
 20
-170.8293008666135
 30
0.0
  0
POINT
  5
310
  8
DEFPOINTS
  6
CONTINUOUS
 62
     0
 10
716.0599246704228
 20
-170.8293008666135
 30
0.0
  0
ENDBLK
  5
311
  8
0
 62
     5
  0
BLOCK
  8
0
  2
*D1111
 70
     1
 10
0.0
 20
0.0
 30
0.0
  3
*D1111
  1

  0
LINE
  5
2FB
  8
回07-寸法
  6
CONTINUOUS
 62
     5
 10
743.0399246704228
 20
-33.22930086661344
 30
0.0
 11
705.0599246704227
 21
-33.22930086661344
 31
0.0
  0
LINE
  5
2FC
  8
回07-寸法
  6
CONTINUOUS
 62
     5
 10
743.0399246704228
 20
-172.8293008666135
 30
0.0
 11
705.0599246704227
 21
-172.8293008666135
 31
0.0
  0
LINE
  5
2FD
  8
回07-寸法
  6
CONTINUOUS
 62
     5
 10
706.0599246704228
 20
-34.72930086661345
 30
0.0
 11
706.0599246704228
 21
-171.3293008666135
 31
0.0
  0
INSERT
  5
2FE
  8
回07-寸法
  6
CONTINUOUS
 62
     5
  2
_OPEN
 10
706.0599246704228
 20
-33.22930086661344
 30
0.0
 41
1.5
 42
1.5
 43
1.5
 50
90.0
  0
INSERT
  5
2FF
  8
回07-寸法
  6
CONTINUOUS
 62
     5
  2
_OPEN
 10
706.0599246704228
 20
-172.8293008666135
 30
0.0
 41
1.5
 42
1.5
 43
1.5
 50
270.0
  0
TEXT
  5
300
  8
回07-寸法
  6
CONTINUOUS
 62
     5
 10
704.4874372970074
 20
-126.0357342020925
 30
0.0
 40
4.0
  1
139.6(Viewing area)
 50
90.0
1001
ACAD
1000
MTEXTBEGIN
1070
    73
1070
     1
1070
    44
1040
1.0
1070
    74
1070
     0
1000
MTEXTEND
  0
POINT
  5
301
  8
DEFPOINTS
  6
CONTINUOUS
 62
     0
 10
743.0399246704228
 20
-33.22930086661344
 30
0.0
  0
POINT
  5
302
  8
DEFPOINTS
  6
CONTINUOUS
 62
     0
 10
743.0399246704228
 20
-172.8293008666135
 30
0.0
  0
POINT
  5
303
  8
DEFPOINTS
  6
CONTINUOUS
 62
     0
 10
706.0599246704228
 20
-172.8293008666135
 30
0.0
  0
ENDBLK
  5
304
  8
0
 62
     5
  0
BLOCK
  8
0
  2
*D1212
 70
     1
 10
0.0
 20
0.0
 30
0.0
  3
*D1212
  1

  0
LINE
  5
2EE
  8
回07-寸法
  6
CONTINUOUS
 62
     5
 10
742.5399246704228
 20
-32.72930086661344
 30
0.0
 11
695.0599246704228
 21
-32.72930086661344
 31
0.0
  0
LINE
  5
2EF
  8
回07-寸法
  6
CONTINUOUS
 62
     5
 10
742.5399246704228
 20
-173.3293008666135
 30
0.0
 11
695.0599246704228
 21
-173.3293008666135
 31
0.0
  0
LINE
  5
2F0
  8
回07-寸法
  6
CONTINUOUS
 62
     5
 10
696.0599246704227
 20
-34.22930086661344
 30
0.0
 11
696.0599246704227
 21
-171.8293008666135
 31
0.0
  0
INSERT
  5
2F1
  8
回07-寸法
  6
CONTINUOUS
 62
     5
  2
_OPEN
 10
696.0599246704227
 20
-32.72930086661343
 30
0.0
 41
1.5
 42
1.5
 43
1.5
 50
90.0
  0
INSERT
  5
2F2
  8
回07-寸法
  6
CONTINUOUS
 62
     5
  2
_OPEN
 10
696.0599246704227
 20
-173.3293008666135
 30
0.0
 41
1.5
 42
1.5
 43
1.5
 50
270.0
  0
TEXT
  5
2F3
  8
回07-寸法
  6
CONTINUOUS
 62
     5
 10
695.5599246704228
 20
-109.0309709234811
 30
0.0
 40
4.0
  1
140.6
 50
90.0
1001
ACAD
1000
MTEXTBEGIN
1070
    73
1070
     1
1070
    44
1040
1.0
1070
    74
1070
     0
1000
MTEXTEND
  0
POINT
  5
2F4
  8
DEFPOINTS
  6
CONTINUOUS
 62
     0
 10
742.5399246704228
 20
-32.72930086661344
 30
0.0
  0
POINT
  5
2F5
  8
DEFPOINTS
  6
CONTINUOUS
 62
     0
 10
742.5399246704228
 20
-173.3293008666135
 30
0.0
  0
POINT
  5
2F6
  8
DEFPOINTS
  6
CONTINUOUS
 62
     0
 10
696.0599246704227
 20
-173.3293008666135
 30
0.0
  0
ENDBLK
  5
2F7
  8
0
 62
     5
  0
BLOCK
  8
0
  2
*D1313
 70
     1
 10
0.0
 20
0.0
 30
0.0
  3
*D1313
  1

  0
LINE
  5
2DF
  8
回07-寸法
  6
CONTINUOUS
 62
     5
 10
742.5399246704228
 20
-32.72930086661344
 30
0.0
 11
742.5399246704228
 21
11.67069913338653
 31
0.0
  0
LINE
  5
2E0
  8
回07-寸法
  6
CONTINUOUS
 62
     5
 10
738.0399246704228
 20
-27.32930086661347
 30
0.0
 11
738.0399246704228
 21
11.67069913338653
 31
0.0
  0
LINE
  5
2E1
  8
回07-寸法
  6
CONTINUOUS
 62
     5
 10
744.0399246704227
 20
10.67069913338653
 30
0.0
 11
745.5399246704228
 21
10.67069913338653
 31
0.0
  0
LINE
  5
2E2
  8
回07-寸法
  6
CONTINUOUS
 62
     5
 10
736.5399246704228
 20
10.67069913338653
 30
0.0
 11
698.1836057727852
 21
10.67069913338653
 31
0.0
  0
LINE
  5
2E3
  8
回07-寸法
  6
CONTINUOUS
 62
     5
 10
742.5399246704228
 20
10.67069913338653
 30
0.0
 11
738.0399246704228
 21
10.67069913338653
 31
0.0
  0
INSERT
  5
2E4
  8
回07-寸法
  6
CONTINUOUS
 62
     5
  2
_OPEN
 10
742.5399246704228
 20
10.67069913338653
 30
0.0
 41
1.5
 42
1.5
 43
1.5
 50
180.0
  0
INSERT
  5
2E5
  8
回07-寸法
  6
CONTINUOUS
 62
     5
  2
_OPEN
 10
738.0399246704228
 20
10.67069913338653
 30
0.0
 41
1.5
 42
1.5
 43
1.5
  0
INSERT
  5
2E6
  8
回07-寸法
  6
CONTINUOUS
 62
     5
 66
     1
  2
*X9191
 10
0.0
 20
0.0
 30
0.0
  0
SEQEND
  5
809
  8
0
  6
CONTINUOUS
 62
     5
  0
POINT
  5
2E7
  8
DEFPOINTS
  6
CONTINUOUS
 62
     0
 10
742.5399246704228
 20
-32.72930086661344
 30
0.0
  0
POINT
  5
2E8
  8
DEFPOINTS
  6
CONTINUOUS
 62
     0
 10
738.0399246704228
 20
-27.32930086661347
 30
0.0
  0
POINT
  5
2E9
  8
DEFPOINTS
  6
CONTINUOUS
 62
     0
 10
738.0399246704228
 20
10.67069913338653
 30
0.0
  0
ENDBLK
  5
2EA
  8
0
 62
     5
  0
BLOCK
  8
0
  2
*D1414
 70
     1
 10
0.0
 20
0.0
 30
0.0
  3
*D1414
  1

  0
LINE
  5
2D0
  8
回07-寸法
  6
CONTINUOUS
 62
     5
 10
964.5399246704227
 20
-32.72930086661356
 30
0.0
 11
964.5399246704227
 21
11.67069913338653
 31
0.0
  0
LINE
  5
2D1
  8
回07-寸法
  6
CONTINUOUS
 62
     5
 10
969.0399246704227
 20
-27.32930086661358
 30
0.0
 11
969.0399246704227
 21
11.67069913338653
 31
0.0
  0
LINE
  5
2D2
  8
回07-寸法
  6
CONTINUOUS
 62
     5
 10
963.0399246704227
 20
10.67069913338653
 30
0.0
 11
961.5399246704228
 21
10.67069913338653
 31
0.0
  0
LINE
  5
2D3
  8
回07-寸法
  6
CONTINUOUS
 62
     5
 10
970.5399246704228
 20
10.67069913338653
 30
0.0
 11
1012.094668764911
 21
10.67069913338653
 31
0.0
  0
LINE
  5
2D4
  8
回07-寸法
  6
CONTINUOUS
 62
     5
 10
964.5399246704227
 20
10.67069913338653
 30
0.0
 11
969.0399246704227
 21
10.67069913338653
 31
0.0
  0
INSERT
  5
2D5
  8
回07-寸法
  6
CONTINUOUS
 62
     5
  2
_OPEN
 10
964.5399246704227
 20
10.67069913338653
 30
0.0
 41
1.5
 42
1.5
 43
1.5
  0
INSERT
  5
2D6
  8
回07-寸法
  6
CONTINUOUS
 62
     5
  2
_OPEN
 10
969.0399246704227
 20
10.67069913338653
 30
0.0
 41
1.5
 42
1.5
 43
1.5
 50
180.0
  0
INSERT
  5
2D7
  8
回07-寸法
  6
CONTINUOUS
 62
     5
 66
     1
  2
*X9292
 10
0.0
 20
0.0
 30
0.0
  0
SEQEND
  5
80F
  8
0
  6
CONTINUOUS
 62
     5
  0
POINT
  5
2D8
  8
DEFPOINTS
  6
CONTINUOUS
 62
     0
 10
964.5399246704227
 20
-32.72930086661356
 30
0.0
  0
POINT
  5
2D9
  8
DEFPOINTS
  6
CONTINUOUS
 62
     0
 10
969.0399246704227
 20
-27.32930086661358
 30
0.0
  0
POINT
  5
2DA
  8
DEFPOINTS
  6
CONTINUOUS
 62
     0
 10
969.0399246704227
 20
10.67069913338653
 30
0.0
  0
ENDBLK
  5
2DB
  8
0
 62
     5
  0
BLOCK
  8
0
  2
*D1515
 70
     1
 10
0.0
 20
0.0
 30
0.0
  3
*D1515
  1

  0
LINE
  5
2C1
  8
回07-寸法
  6
CONTINUOUS
 62
     5
 10
745.0599246704228
 20
-35.22930086661447
 30
0.0
 11
745.0599246704228
 21
-6.329300866613464
 31
0.0
  0
LINE
  5
2C2
  8
回07-寸法
  6
CONTINUOUS
 62
     5
 10
738.0399246704228
 20
-27.32930086661347
 30
0.0
 11
738.0399246704228
 21
-6.329300866613464
 31
0.0
  0
LINE
  5
2C3
  8
回07-寸法
  6
CONTINUOUS
 62
     5
 10
746.5599246704227
 20
-7.329300866613464
 30
0.0
 11
748.0599246704228
 21
-7.329300866613464
 31
0.0
  0
LINE
  5
2C4
  8
回07-寸法
  6
CONTINUOUS
 62
     5
 10
736.5399246704228
 20
-7.329300866613464
 30
0.0
 11
725.3996884499504
 21
-7.329300866613464
 31
0.0
  0
LINE
  5
2C5
  8
回07-寸法
  6
CONTINUOUS
 62
     5
 10
745.0599246704228
 20
-7.329300866613464
 30
0.0
 11
738.0399246704228
 21
-7.329300866613464
 31
0.0
  0
INSERT
  5
2C6
  8
回07-寸法
  6
CONTINUOUS
 62
     5
  2
_OPEN
 10
745.0599246704228
 20
-7.329300866613464
 30
0.0
 41
1.5
 42
1.5
 43
1.5
 50
180.0
  0
INSERT
  5
2C7
  8
回07-寸法
  6
CONTINUOUS
 62
     5
  2
_OPEN
 10
738.0399246704228
 20
-7.329300866613464
 30
0.0
 41
1.5
 42
1.5
 43
1.5
  0
TEXT
  5
2C8
  8
回07-寸法
  6
CONTINUOUS
 62
     5
 10
725.4193643130662
 20
-6.828907165826062
 30
0.0
 40
4.0
  1
7.02
1001
ACAD
1000
MTEXTBEGIN
1070
    73
1070
     1
1070
    44
1040
1.0
1070
    74
1070
     0
1000
MTEXTEND
  0
POINT
  5
2C9
  8
DEFPOINTS
  6
CONTINUOUS
 62
     0
 10
745.0599246704228
 20
-35.22930086661447
 30
0.0
  0
POINT
  5
2CA
  8
DEFPOINTS
  6
CONTINUOUS
 62
     0
 10
738.0399246704228
 20
-27.32930086661347
 30
0.0
  0
POINT
  5
2CB
  8
DEFPOINTS
  6
CONTINUOUS
 62
     0
 10
738.0399246704228
 20
-7.329300866613464
 30
0.0
  0
ENDBLK
  5
2CC
  8
0
 62
     5
  0
BLOCK
  8
0
  2
*D1616
 70
     1
 10
0.0
 20
0.0
 30
0.0
  3
*D1616
  1

  0
LINE
  5
2B2
  8
回07-寸法
  6
CONTINUOUS
 62
     5
 10
743.0399246704228
 20
-33.22930086661344
 30
0.0
 11
743.0399246704228
 21
2.670699133386534
 31
0.0
  0
LINE
  5
2B3
  8
回07-寸法
  6
CONTINUOUS
 62
     5
 10
738.0399246704228
 20
-27.32930086661347
 30
0.0
 11
738.0399246704228
 21
2.670699133386534
 31
0.0
  0
LINE
  5
2B4
  8
回07-寸法
  6
CONTINUOUS
 62
     5
 10
744.5399246704227
 20
1.670699133386534
 30
0.0
 11
746.0399246704228
 21
1.670699133386534
 31
0.0
  0
LINE
  5
2B5
  8
回07-寸法
  6
CONTINUOUS
 62
     5
 10
736.5399246704228
 20
1.670699133386534
 30
0.0
 11
732.2742392454736
 21
1.670699133386534
 31
0.0
  0
LINE
  5
2B6
  8
回07-寸法
  6
CONTINUOUS
 62
     5
 10
743.0399246704228
 20
1.670699133386534
 30
0.0
 11
738.0399246704228
 21
1.670699133386534
 31
0.0
  0
INSERT
  5
2B7
  8
回07-寸法
  6
CONTINUOUS
 62
     5
  2
_OPEN
 10
743.0399246704228
 20
1.670699133386534
 30
0.0
 41
1.5
 42
1.5
 43
1.5
 50
180.0
  0
INSERT
  5
2B8
  8
回07-寸法
  6
CONTINUOUS
 62
     5
  2
_OPEN
 10
738.0399246704228
 20
1.670699133386534
 30
0.0
 41
1.5
 42
1.5
 43
1.5
  0
TEXT
  5
2B9
  8
回07-寸法
  6
CONTINUOUS
 62
     5
 10
732.2570819579483
 20
2.170699133386534
 30
0.0
 40
4.0
  1
5
1001
ACAD
1000
MTEXTBEGIN
1070
    73
1070
     1
1070
    44
1040
1.0
1070
    74
1070
     0
1000
MTEXTEND
  0
POINT
  5
2BA
  8
DEFPOINTS
  6
CONTINUOUS
 62
     0
 10
743.0399246704228
 20
-33.22930086661344
 30
0.0
  0
POINT
  5
2BB
  8
DEFPOINTS
  6
CONTINUOUS
 62
     0
 10
738.0399246704228
 20
-27.32930086661347
 30
0.0
  0
POINT
  5
2BC
  8
DEFPOINTS
  6
CONTINUOUS
 62
     0
 10
738.0399246704228
 20
1.670699133386534
 30
0.0
  0
ENDBLK
  5
2BD
  8
0
 62
     5
  0
BLOCK
  8
0
  2
*D1717
 70
     1
 10
0.0
 20
0.0
 30
0.0
  3
*D1717
  1

  0
LINE
  5
2A3
  8
回07-寸法
  6
CONTINUOUS
 62
     5
 10
962.0199246704228
 20
-35.22930086661356
 30
0.0
 11
962.0199246704228
 21
-6.329300866613464
 31
0.0
  0
LINE
  5
2A4
  8
回07-寸法
  6
CONTINUOUS
 62
     5
 10
969.0399246704227
 20
-27.32930086661358
 30
0.0
 11
969.0399246704227
 21
-6.329300866613464
 31
0.0
  0
LINE
  5
2A5
  8
回07-寸法
  6
CONTINUOUS
 62
     5
 10
960.5199246704229
 20
-7.329300866613464
 30
0.0
 11
959.0199246704228
 21
-7.329300866613464
 31
0.0
  0
LINE
  5
2A6
  8
回07-寸法
  6
CONTINUOUS
 62
     5
 10
970.5399246704228
 20
-7.329300866613464
 30
0.0
 11
984.6367750641237
 21
-7.329300866613464
 31
0.0
  0
LINE
  5
2A7
  8
回07-寸法
  6
CONTINUOUS
 62
     5
 10
962.0199246704228
 20
-7.329300866613464
 30
0.0
 11
969.0399246704227
 21
-7.329300866613464
 31
0.0
  0
INSERT
  5
2A8
  8
回07-寸法
  6
CONTINUOUS
 62
     5
  2
_OPEN
 10
962.0199246704228
 20
-7.329300866613464
 30
0.0
 41
1.5
 42
1.5
 43
1.5
  0
INSERT
  5
2A9
  8
回07-寸法
  6
CONTINUOUS
 62
     5
  2
_OPEN
 10
969.0399246704227
 20
-7.329300866613464
 30
0.0
 41
1.5
 42
1.5
 43
1.5
 50
180.0
  0
TEXT
  5
2AA
  8
回07-寸法
  6
CONTINUOUS
 62
     5
 10
971.9383498672732
 20
-6.629300866613463
 30
0.0
 40
4.0
  1
(7.02)
1001
ACAD
1000
MTEXTBEGIN
1070
    73
1070
     1
1070
    44
1040
1.0
1070
    74
1070
     0
1000
MTEXTEND
  0
POINT
  5
2AB
  8
DEFPOINTS
  6
CONTINUOUS
 62
     0
 10
962.0199246704228
 20
-35.22930086661356
 30
0.0
  0
POINT
  5
2AC
  8
DEFPOINTS
  6
CONTINUOUS
 62
     0
 10
969.0399246704227
 20
-27.32930086661358
 30
0.0
  0
POINT
  5
2AD
  8
DEFPOINTS
  6
CONTINUOUS
 62
     0
 10
969.0399246704227
 20
-7.329300866613464
 30
0.0
  0
ENDBLK
  5
2AE
  8
0
 62
     5
  0
BLOCK
  8
0
  2
*D1818
 70
     1
 10
0.0
 20
0.0
 30
0.0
  3
*D1818
  1

  0
LINE
  5
294
  8
回07-寸法
  6
CONTINUOUS
 62
     5
 10
964.0399246704228
 20
-33.22930086661356
 30
0.0
 11
964.0399246704228
 21
2.670699133386534
 31
0.0
  0
LINE
  5
295
  8
回07-寸法
  6
CONTINUOUS
 62
     5
 10
969.0399246704227
 20
-27.32930086661358
 30
0.0
 11
969.0399246704227
 21
2.670699133386534
 31
0.0
  0
LINE
  5
296
  8
回07-寸法
  6
CONTINUOUS
 62
     5
 10
962.5399246704228
 20
1.670699133386534
 30
0.0
 11
961.0399246704227
 21
1.670699133386534
 31
0.0
  0
LINE
  5
297
  8
回07-寸法
  6
CONTINUOUS
 62
     5
 10
970.5399246704228
 20
1.670699133386534
 30
0.0
 11
977.8367750641237
 21
1.670699133386534
 31
0.0
  0
LINE
  5
298
  8
回07-寸法
  6
CONTINUOUS
 62
     5
 10
964.0399246704228
 20
1.670699133386534
 30
0.0
 11
969.0399246704227
 21
1.670699133386534
 31
0.0
  0
INSERT
  5
299
  8
回07-寸法
  6
CONTINUOUS
 62
     5
  2
_OPEN
 10
964.0399246704228
 20
1.670699133386534
 30
0.0
 41
1.5
 42
1.5
 43
1.5
  0
INSERT
  5
29A
  8
回07-寸法
  6
CONTINUOUS
 62
     5
  2
_OPEN
 10
969.0399246704227
 20
1.670699133386534
 30
0.0
 41
1.5
 42
1.5
 43
1.5
 50
180.0
  0
TEXT
  5
29B
  8
回07-寸法
  6
CONTINUOUS
 62
     5
 10
971.9383498672732
 20
2.370699133386536
 30
0.0
 40
4.0
  1
(5)
1001
ACAD
1000
MTEXTBEGIN
1070
    73
1070
     1
1070
    44
1040
1.0
1070
    74
1070
     0
1000
MTEXTEND
  0
POINT
  5
29C
  8
DEFPOINTS
  6
CONTINUOUS
 62
     0
 10
964.0399246704228
 20
-33.22930086661356
 30
0.0
  0
POINT
  5
29D
  8
DEFPOINTS
  6
CONTINUOUS
 62
     0
 10
969.0399246704227
 20
-27.32930086661358
 30
0.0
  0
POINT
  5
29E
  8
DEFPOINTS
  6
CONTINUOUS
 62
     0
 10
969.0399246704227
 20
1.670699133386534
 30
0.0
  0
ENDBLK
  5
29F
  8
0
 62
     5
  0
BLOCK
  8
0
  2
*D1919
 70
     1
 10
0.0
 20
0.0
 30
0.0
  3
*D1919
  1

  0
LINE
  5
285
  8
回07-寸法
  6
CONTINUOUS
 62
     5
 10
742.5399246704228
 20
-173.3293008666135
 30
0.0
 11
695.0599246704228
 21
-173.3293008666135
 31
0.0
  0
LINE
  5
286
  8
回07-寸法
  6
CONTINUOUS
 62
     5
 10
738.0399246704228
 20
-183.5293008666135
 30
0.0
 11
695.0599246704228
 21
-183.5293008666135
 31
0.0
  0
LINE
  5
287
  8
回07-寸法
  6
CONTINUOUS
 62
     5
 10
696.0599246704227
 20
-171.8293008666135
 30
0.0
 11
696.0599246704227
 21
-170.3293008666135
 31
0.0
  0
LINE
  5
288
  8
回07-寸法
  6
CONTINUOUS
 62
     5
 10
696.0599246704227
 20
-185.0293008666135
 30
0.0
 11
696.0599246704227
 21
-224.9856197642513
 31
0.0
  0
LINE
  5
289
  8
回07-寸法
  6
CONTINUOUS
 62
     5
 10
696.0599246704227
 20
-173.3293008666135
 30
0.0
 11
696.0599246704227
 21
-183.5293008666135
 31
0.0
  0
INSERT
  5
28A
  8
回07-寸法
  6
CONTINUOUS
 62
     5
  2
_OPEN
 10
696.0599246704227
 20
-173.3293008666135
 30
0.0
 41
1.5
 42
1.5
 43
1.5
 50
270.0
  0
INSERT
  5
28B
  8
回07-寸法
  6
CONTINUOUS
 62
     5
  2
_OPEN
 10
696.0599246704227
 20
-183.5293008666135
 30
0.0
 41
1.5
 42
1.5
 43
1.5
 50
90.0
  0
INSERT
  5
28C
  8
回07-寸法
  6
CONTINUOUS
 62
     5
 66
     1
  2
*X9393
 10
0.0
 20
0.0
 30
0.0
  0
SEQEND
  5
815
  8
0
  6
CONTINUOUS
 62
     5
  0
POINT
  5
28D
  8
DEFPOINTS
  6
CONTINUOUS
 62
     0
 10
742.5399246704228
 20
-173.3293008666135
 30
0.0
  0
POINT
  5
28E
  8
DEFPOINTS
  6
CONTINUOUS
 62
     0
 10
738.0399246704228
 20
-183.5293008666135
 30
0.0
  0
POINT
  5
28F
  8
DEFPOINTS
  6
CONTINUOUS
 62
     0
 10
696.0599246704227
 20
-183.5293008666135
 30
0.0
  0
ENDBLK
  5
290
  8
0
 62
     5
  0
BLOCK
  8
0
  2
*D2020
 70
     1
 10
0.0
 20
0.0
 30
0.0
  3
*D2020
  1

  0
LINE
  5
276
  8
回07-寸法
  6
CONTINUOUS
 62
     5
 10
745.0599246704228
 20
-170.8293008666135
 30
0.0
 11
715.0599246704228
 21
-170.8293008666135
 31
0.0
  0
LINE
  5
277
  8
回07-寸法
  6
CONTINUOUS
 62
     5
 10
738.0399246704228
 20
-183.5293008666135
 30
0.0
 11
715.0599246704228
 21
-183.5293008666135
 31
0.0
  0
LINE
  5
278
  8
回07-寸法
  6
CONTINUOUS
 62
     5
 10
716.0599246704228
 20
-169.3293008666135
 30
0.0
 11
716.0599246704228
 21
-167.8293008666135
 31
0.0
  0
LINE
  5
279
  8
回07-寸法
  6
CONTINUOUS
 62
     5
 10
716.0599246704228
 20
-185.0293008666135
 30
0.0
 11
716.0599246704228
 21
-195.1793008666135
 31
0.0
  0
LINE
  5
27A
  8
回07-寸法
  6
CONTINUOUS
 62
     5
 10
716.0599246704228
 20
-170.8293008666135
 30
0.0
 11
716.0599246704228
 21
-183.5293008666135
 31
0.0
  0
INSERT
  5
27B
  8
回07-寸法
  6
CONTINUOUS
 62
     5
  2
_OPEN
 10
716.0599246704228
 20
-170.8293008666135
 30
0.0
 41
1.5
 42
1.5
 43
1.5
 50
270.0
  0
INSERT
  5
27C
  8
回07-寸法
  6
CONTINUOUS
 62
     5
  2
_OPEN
 10
716.0599246704228
 20
-183.5293008666135
 30
0.0
 41
1.5
 42
1.5
 43
1.5
 50
90.0
  0
TEXT
  5
27D
  8
回07-寸法
  6
CONTINUOUS
 62
     5
 10
715.5595309696352
 20
-195.2793008666135
 30
0.0
 40
4.0
  1
12.7
 50
90.0
1001
ACAD
1000
MTEXTBEGIN
1070
    73
1070
     1
1070
    44
1040
1.0
1070
    74
1070
     0
1000
MTEXTEND
  0
POINT
  5
27E
  8
DEFPOINTS
  6
CONTINUOUS
 62
     0
 10
745.0599246704228
 20
-170.8293008666135
 30
0.0
  0
POINT
  5
27F
  8
DEFPOINTS
  6
CONTINUOUS
 62
     0
 10
738.0399246704228
 20
-183.5293008666135
 30
0.0
  0
POINT
  5
280
  8
DEFPOINTS
  6
CONTINUOUS
 62
     0
 10
716.0599246704228
 20
-183.5293008666135
 30
0.0
  0
ENDBLK
  5
281
  8
0
 62
     5
  0
BLOCK
  8
0
  2
*D2121
 70
     1
 10
0.0
 20
0.0
 30
0.0
  3
*D2121
  1

  0
LINE
  5
267
  8
回07-寸法
  6
CONTINUOUS
 62
     5
 10
742.5399246704228
 20
-32.72930086661344
 30
0.0
 11
695.0599246704228
 21
-32.72930086661344
 31
0.0
  0
LINE
  5
268
  8
回07-寸法
  6
CONTINUOUS
 62
     5
 10
738.0399246704228
 20
-27.32930086661347
 30
0.0
 11
695.0599246704228
 21
-27.32930086661347
 31
0.0
  0
LINE
  5
269
  8
回07-寸法
  6
CONTINUOUS
 62
     5
 10
696.0599246704227
 20
-34.22930086661344
 30
0.0
 11
696.0599246704227
 21
-35.72930086661344
 31
0.0
  0
LINE
  5
26A
  8
回07-寸法
  6
CONTINUOUS
 62
     5
 10
696.0599246704227
 20
-25.82930086661346
 30
0.0
 11
696.0599246704227
 21
15.7254432278747
 31
0.0
  0
LINE
  5
26B
  8
回07-寸法
  6
CONTINUOUS
 62
     5
 10
696.0599246704227
 20
-32.72930086661343
 30
0.0
 11
696.0599246704227
 21
-27.32930086661346
 31
0.0
  0
INSERT
  5
26C
  8
回07-寸法
  6
CONTINUOUS
 62
     5
  2
_OPEN
 10
696.0599246704227
 20
-32.72930086661343
 30
0.0
 41
1.5
 42
1.5
 43
1.5
 50
90.0
  0
INSERT
  5
26D
  8
回07-寸法
  6
CONTINUOUS
 62
     5
  2
_OPEN
 10
696.0599246704227
 20
-27.32930086661346
 30
0.0
 41
1.5
 42
1.5
 43
1.5
 50
270.0
  0
INSERT
  5
26E
  8
回07-寸法
  6
CONTINUOUS
 62
     5
 66
     1
  2
*X9494
 10
0.0
 20
0.0
 30
0.0
  0
SEQEND
  5
81B
  8
0
  6
CONTINUOUS
 62
     5
  0
POINT
  5
26F
  8
DEFPOINTS
  6
CONTINUOUS
 62
     0
 10
742.5399246704228
 20
-32.72930086661344
 30
0.0
  0
POINT
  5
270
  8
DEFPOINTS
  6
CONTINUOUS
 62
     0
 10
738.0399246704228
 20
-27.32930086661347
 30
0.0
  0
POINT
  5
271
  8
DEFPOINTS
  6
CONTINUOUS
 62
     0
 10
696.0599246704227
 20
-27.32930086661346
 30
0.0
  0
ENDBLK
  5
272
  8
0
 62
     5
  0
BLOCK
  8
0
  2
*D2222
 70
     1
 10
0.0
 20
0.0
 30
0.0
  3
*D2222
  1

  0
LINE
  5
258
  8
回07-寸法
  6
CONTINUOUS
 62
     5
 10
743.0399246704228
 20
-33.22930086661344
 30
0.0
 11
705.0599246704227
 21
-33.22930086661344
 31
0.0
  0
LINE
  5
259
  8
回07-寸法
  6
CONTINUOUS
 62
     5
 10
738.0399246704228
 20
-27.32930086661347
 30
0.0
 11
705.0599246704227
 21
-27.32930086661347
 31
0.0
  0
LINE
  5
25A
  8
回07-寸法
  6
CONTINUOUS
 62
     5
 10
706.0599246704228
 20
-34.72930086661345
 30
0.0
 11
706.0599246704228
 21
-36.22930086661344
 31
0.0
  0
LINE
  5
25B
  8
回07-寸法
  6
CONTINUOUS
 62
     5
 10
706.0599246704228
 20
-25.82930086661346
 30
0.0
 11
706.0599246704228
 21
-14.51847315093556
 31
0.0
  0
LINE
  5
25C
  8
回07-寸法
  6
CONTINUOUS
 62
     5
 10
706.0599246704228
 20
-33.22930086661344
 30
0.0
 11
706.0599246704228
 21
-27.32930086661346
 31
0.0
  0
INSERT
  5
25D
  8
回07-寸法
  6
CONTINUOUS
 62
     5
  2
_OPEN
 10
706.0599246704228
 20
-33.22930086661344
 30
0.0
 41
1.5
 42
1.5
 43
1.5
 50
90.0
  0
INSERT
  5
25E
  8
回07-寸法
  6
CONTINUOUS
 62
     5
  2
_OPEN
 10
706.0599246704228
 20
-27.32930086661346
 30
0.0
 41
1.5
 42
1.5
 43
1.5
 50
270.0
  0
TEXT
  5
25F
  8
回07-寸法
  6
CONTINUOUS
 62
     5
 10
705.3600045452258
 20
-24.43110774582829
 30
0.0
 40
4.0
  1
(5.9)
 50
90.0
1001
ACAD
1000
MTEXTBEGIN
1070
    73
1070
     1
1070
    44
1040
1.0
1070
    74
1070
     0
1000
MTEXTEND
  0
POINT
  5
260
  8
DEFPOINTS
  6
CONTINUOUS
 62
     0
 10
743.0399246704228
 20
-33.22930086661344
 30
0.0
  0
POINT
  5
261
  8
DEFPOINTS
  6
CONTINUOUS
 62
     0
 10
738.0399246704228
 20
-27.32930086661347
 30
0.0
  0
POINT
  5
262
  8
DEFPOINTS
  6
CONTINUOUS
 62
     0
 10
706.0599246704228
 20
-27.32930086661346
 30
0.0
  0
ENDBLK
  5
263
  8
0
 62
     5
  0
BLOCK
  8
0
  2
*D2323
 70
     1
 10
0.0
 20
0.0
 30
0.0
  3
*D2323
  1

  0
LINE
  5
249
  8
回07-寸法
  6
CONTINUOUS
 62
     5
 10
745.0599246704228
 20
-35.22930086661356
 30
0.0
 11
715.0599246704228
 21
-35.22930086661356
 31
0.0
  0
LINE
  5
24A
  8
回07-寸法
  6
CONTINUOUS
 62
     5
 10
738.0399246704228
 20
-27.32930086661347
 30
0.0
 11
715.0599246704228
 21
-27.32930086661347
 31
0.0
  0
LINE
  5
24B
  8
回07-寸法
  6
CONTINUOUS
 62
     5
 10
716.0599246704228
 20
-36.72930086661355
 30
0.0
 11
716.0599246704228
 21
-38.22930086661354
 31
0.0
  0
LINE
  5
24C
  8
回07-寸法
  6
CONTINUOUS
 62
     5
 10
716.0599246704228
 20
-25.82930086661346
 30
0.0
 11
716.0599246704228
 21
-13.87506811113675
 31
0.0
  0
LINE
  5
24D
  8
回07-寸法
  6
CONTINUOUS
 62
     5
 10
716.0599246704228
 20
-35.22930086661354
 30
0.0
 11
716.0599246704228
 21
-27.32930086661346
 31
0.0
  0
INSERT
  5
24E
  8
回07-寸法
  6
CONTINUOUS
 62
     5
  2
_OPEN
 10
716.0599246704228
 20
-35.22930086661354
 30
0.0
 41
1.5
 42
1.5
 43
1.5
 50
90.0
  0
INSERT
  5
24F
  8
回07-寸法
  6
CONTINUOUS
 62
     5
  2
_OPEN
 10
716.0599246704228
 20
-27.32930086661346
 30
0.0
 41
1.5
 42
1.5
 43
1.5
 50
270.0
  0
TEXT
  5
250
  8
回07-寸法
  6
CONTINUOUS
 62
     5
 10
715.3600045452257
 20
-23.78770270602945
 30
0.0
 40
4.0
  1
(7.9)
 50
90.0
1001
ACAD
1000
MTEXTBEGIN
1070
    73
1070
     1
1070
    44
1040
1.0
1070
    74
1070
     0
1000
MTEXTEND
  0
POINT
  5
251
  8
DEFPOINTS
  6
CONTINUOUS
 62
     0
 10
745.0599246704228
 20
-35.22930086661356
 30
0.0
  0
POINT
  5
252
  8
DEFPOINTS
  6
CONTINUOUS
 62
     0
 10
738.0399246704228
 20
-27.32930086661347
 30
0.0
  0
POINT
  5
253
  8
DEFPOINTS
  6
CONTINUOUS
 62
     0
 10
716.0599246704228
 20
-27.32930086661346
 30
0.0
  0
ENDBLK
  5
254
  8
0
 62
     5
  0
BLOCK
  8
0
  2
*D2424
 70
     1
 10
0.0
 20
0.0
 30
0.0
  3
*D2424
  1

  0
LINE
  5
23C
  8
回07-寸法
  6
CONTINUOUS
 62
     5
 10
837.6957175665676
 20
-283.5252524958023
 30
0.0
 11
794.9490706216217
 21
-283.5252524958023
 31
0.0
  0
LINE
  5
23D
  8
回07-寸法
  6
CONTINUOUS
 62
     5
 10
823.4468428820161
 20
-183.5293008666135
 30
0.0
 11
794.949070621622
 21
-183.5293008666135
 31
0.0
  0
LINE
  5
23E
  8
回07-寸法
  6
CONTINUOUS
 62
     5
 10
795.9490706216219
 20
-282.0252524958023
 30
0.0
 11
795.9490706216219
 21
-185.0293008666135
 31
0.0
  0
INSERT
  5
23F
  8
回07-寸法
  6
CONTINUOUS
 62
     5
  2
_OPEN
 10
795.9490706216219
 20
-283.5252524958023
 30
0.0
 41
1.5
 42
1.5
 43
1.5
 50
270.0
  0
INSERT
  5
240
  8
回07-寸法
  6
CONTINUOUS
 62
     5
  2
_OPEN
 10
795.949070621622
 20
-183.5293008666135
 30
0.0
 41
1.5
 42
1.5
 43
1.5
 50
90.0
  0
INSERT
  5
241
  8
回07-寸法
  6
CONTINUOUS
 62
     5
 66
     1
  2
*X9595
 10
0.0
 20
0.0
 30
0.0
  0
SEQEND
  5
821
  8
0
  6
CONTINUOUS
 62
     5
  0
POINT
  5
242
  8
DEFPOINTS
  6
CONTINUOUS
 62
     0
 10
837.6957175665676
 20
-283.5252524958023
 30
0.0
  0
POINT
  5
243
  8
DEFPOINTS
  6
CONTINUOUS
 62
     0
 10
823.4468428820161
 20
-183.5293008666135
 30
0.0
  0
POINT
  5
244
  8
DEFPOINTS
  6
CONTINUOUS
 62
     0
 10
795.949070621622
 20
-183.5293008666135
 30
0.0
  0
ENDBLK
  5
245
  8
0
 62
     5
  0
BLOCK
  8
0
  2
*D2525
 70
     1
 10
0.0
 20
0.0
 30
0.0
  3
*D2525
  1

  0
LINE
  5
22F
  8
回07-寸法
  6
CONTINUOUS
 62
     5
 10
886.446842882016
 20
-183.5292524958017
 30
0.0
 11
906.5140404917192
 21
-183.5292524958017
 31
0.0
  0
LINE
  5
230
  8
回07-寸法
  6
CONTINUOUS
 62
     5
 10
879.1957175665675
 20
-283.5252524958032
 30
0.0
 11
906.514040491719
 21
-283.5252524958032
 31
0.0
  0
LINE
  5
231
  8
回07-寸法
  6
CONTINUOUS
 62
     5
 10
905.5140404917192
 20
-185.0292524958016
 30
0.0
 11
905.5140404917192
 21
-282.0252524958032
 31
0.0
  0
INSERT
  5
232
  8
回07-寸法
  6
CONTINUOUS
 62
     5
  2
_OPEN
 10
905.5140404917192
 20
-183.5292524958017
 30
0.0
 41
1.5
 42
1.5
 43
1.5
 50
90.0
  0
INSERT
  5
233
  8
回07-寸法
  6
CONTINUOUS
 62
     5
  2
_OPEN
 10
905.5140404917192
 20
-283.5252524958033
 30
0.0
 41
1.5
 42
1.5
 43
1.5
 50
270.0
  0
INSERT
  5
234
  8
回07-寸法
  6
CONTINUOUS
 62
     5
 66
     1
  2
*X9696
 10
0.0
 20
0.0
 30
0.0
  0
SEQEND
  5
827
  8
0
  6
CONTINUOUS
 62
     5
  0
POINT
  5
235
  8
DEFPOINTS
  6
CONTINUOUS
 62
     0
 10
886.446842882016
 20
-183.5292524958017
 30
0.0
  0
POINT
  5
236
  8
DEFPOINTS
  6
CONTINUOUS
 62
     0
 10
879.1957175665675
 20
-283.5252524958032
 30
0.0
  0
POINT
  5
237
  8
DEFPOINTS
  6
CONTINUOUS
 62
     0
 10
905.5140404917192
 20
-283.5252524958033
 30
0.0
  0
ENDBLK
  5
238
  8
0
 62
     5
  0
BLOCK
  8
0
  2
*D2626
 70
     1
 10
0.0
 20
0.0
 30
0.0
  3
*D2626
  1

  0
LINE
  5
222
  8
回07-寸法
  6
CONTINUOUS
 62
     5
 10
738.0399246704228
 20
-183.5293008666135
 30
0.0
 11
738.0399246704228
 21
-299.5252524958021
 31
0.0
  0
LINE
  5
223
  8
回07-寸法
  6
CONTINUOUS
 62
     5
 10
837.1957175665675
 20
-283.0252524958023
 30
0.0
 11
837.1957175665675
 21
-299.5252524958021
 31
0.0
  0
LINE
  5
224
  8
回07-寸法
  6
CONTINUOUS
 62
     5
 10
739.5399246704227
 20
-298.5252524958021
 30
0.0
 11
835.6957175665677
 21
-298.5252524958021
 31
0.0
  0
INSERT
  5
225
  8
回07-寸法
  6
CONTINUOUS
 62
     5
  2
_OPEN
 10
738.0399246704228
 20
-298.5252524958021
 30
0.0
 41
1.5
 42
1.5
 43
1.5
 50
180.0
  0
INSERT
  5
226
  8
回07-寸法
  6
CONTINUOUS
 62
     5
  2
_OPEN
 10
837.1957175665675
 20
-298.5252524958021
 30
0.0
 41
1.5
 42
1.5
 43
1.5
  0
TEXT
  5
227
  8
回07-寸法
  6
CONTINUOUS
 62
     5
 10
780.2033796443871
 20
-297.8233190597233
 30
0.0
 40
4.0
  1
(99.16)
1001
ACAD
1000
MTEXTBEGIN
1070
    73
1070
     1
1070
    44
1040
1.0
1070
    74
1070
     0
1000
MTEXTEND
  0
POINT
  5
228
  8
DEFPOINTS
  6
CONTINUOUS
 62
     0
 10
738.0399246704228
 20
-183.5293008666135
 30
0.0
  0
POINT
  5
229
  8
DEFPOINTS
  6
CONTINUOUS
 62
     0
 10
837.1957175665675
 20
-283.0252524958023
 30
0.0
  0
POINT
  5
22A
  8
DEFPOINTS
  6
CONTINUOUS
 62
     0
 10
837.1957175665675
 20
-298.5252524958021
 30
0.0
  0
ENDBLK
  5
22B
  8
0
 62
     5
  0
BLOCK
  8
0
  2
*D2727
 70
     1
 10
0.0
 20
0.0
 30
0.0
  3
*D2727
  1

  0
LINE
  5
215
  8
回07-寸法
  6
CONTINUOUS
 62
     5
 10
837.1957175665675
 20
-283.0252524958023
 30
0.0
 11
837.1957175665675
 21
-299.5252524958021
 31
0.0
  0
LINE
  5
216
  8
回07-寸法
  6
CONTINUOUS
 62
     5
 10
854.6957175665678
 20
-283.0252524958023
 30
0.0
 11
854.6957175665678
 21
-299.5252524958021
 31
0.0
  0
LINE
  5
217
  8
回07-寸法
  6
CONTINUOUS
 62
     5
 10
838.6957175665678
 20
-298.5252524958021
 30
0.0
 11
853.1957175665677
 21
-298.5252524958021
 31
0.0
  0
INSERT
  5
218
  8
回07-寸法
  6
CONTINUOUS
 62
     5
  2
_OPEN
 10
837.1957175665675
 20
-298.5252524958021
 30
0.0
 41
1.5
 42
1.5
 43
1.5
 50
180.0
  0
INSERT
  5
219
  8
回07-寸法
  6
CONTINUOUS
 62
     5
  2
_OPEN
 10
854.6957175665678
 20
-298.5252524958021
 30
0.0
 41
1.5
 42
1.5
 43
1.5
  0
INSERT
  5
21A
  8
回07-寸法
  6
CONTINUOUS
 62
     5
 66
     1
  2
*X9797
 10
0.0
 20
0.0
 30
0.0
  0
SEQEND
  5
82D
  8
0
  6
CONTINUOUS
 62
     5
  0
POINT
  5
21B
  8
DEFPOINTS
  6
CONTINUOUS
 62
     0
 10
837.1957175665675
 20
-283.0252524958023
 30
0.0
  0
POINT
  5
21C
  8
DEFPOINTS
  6
CONTINUOUS
 62
     0
 10
854.6957175665678
 20
-283.0252524958023
 30
0.0
  0
POINT
  5
21D
  8
DEFPOINTS
  6
CONTINUOUS
 62
     0
 10
854.6957175665678
 20
-298.5252524958021
 30
0.0
  0
ENDBLK
  5
21E
  8
0
 62
     5
  0
BLOCK
  8
0
  2
*D2828
 70
     1
 10
0.0
 20
0.0
 30
0.0
  3
*D2828
  1

  0
LINE
  5
208
  8
回07-寸法
  6
CONTINUOUS
 62
     5
 10
738.0399246704228
 20
-183.5293008666135
 30
0.0
 11
738.0399246704228
 21
-308.5199727239401
 31
0.0
  0
LINE
  5
209
  8
回07-寸法
  6
CONTINUOUS
 62
     5
 10
866.1957175665676
 20
-283.0252524958023
 30
0.0
 11
866.1957175665676
 21
-308.5199727239401
 31
0.0
  0
LINE
  5
20A
  8
回07-寸法
  6
CONTINUOUS
 62
     5
 10
739.5399246704227
 20
-307.5199727239401
 30
0.0
 11
864.6957175665678
 21
-307.5199727239401
 31
0.0
  0
INSERT
  5
20B
  8
回07-寸法
  6
CONTINUOUS
 62
     5
  2
_OPEN
 10
738.0399246704228
 20
-307.5199727239401
 30
0.0
 41
1.5
 42
1.5
 43
1.5
 50
180.0
  0
INSERT
  5
20C
  8
回07-寸法
  6
CONTINUOUS
 62
     5
  2
_OPEN
 10
866.1957175665676
 20
-307.5199727239401
 30
0.0
 41
1.5
 42
1.5
 43
1.5
  0
TEXT
  5
20D
  8
回07-寸法
  6
CONTINUOUS
 62
     5
 10
793.7178211184951
 20
-306.8199727239401
 30
0.0
 40
4.0
  1
(128.16)
1001
ACAD
1000
MTEXTBEGIN
1070
    73
1070
     1
1070
    44
1040
1.0
1070
    74
1070
     0
1000
MTEXTEND
  0
POINT
  5
20E
  8
DEFPOINTS
  6
CONTINUOUS
 62
     0
 10
738.0399246704228
 20
-183.5293008666135
 30
0.0
  0
POINT
  5
20F
  8
DEFPOINTS
  6
CONTINUOUS
 62
     0
 10
866.1957175665676
 20
-283.0252524958023
 30
0.0
  0
POINT
  5
210
  8
DEFPOINTS
  6
CONTINUOUS
 62
     0
 10
866.1957175665676
 20
-307.5199727239401
 30
0.0
  0
ENDBLK
  5
211
  8
0
 62
     5
  0
BLOCK
  8
0
  2
*D2929
 70
     1
 10
0.0
 20
0.0
 30
0.0
  3
*D2929
  1

  0
LINE
  5
1F9
  8
回07-寸法
  6
CONTINUOUS
 62
     5
 10
866.1957175665676
 20
-283.0252524958023
 30
0.0
 11
866.1957175665676
 21
-308.5199727239401
 31
0.0
  0
LINE
  5
1FA
  8
回07-寸法
  6
CONTINUOUS
 62
     5
 10
879.6957175665678
 20
-283.0252524958032
 30
0.0
 11
879.6957175665678
 21
-308.5199727239401
 31
0.0
  0
LINE
  5
1FB
  8
回07-寸法
  6
CONTINUOUS
 62
     5
 10
864.6957175665678
 20
-307.5199727239401
 30
0.0
 11
863.1957175665675
 21
-307.5199727239401
 31
0.0
  0
LINE
  5
1FC
  8
回07-寸法
  6
CONTINUOUS
 62
     5
 10
881.1957175665677
 20
-307.5199727239401
 30
0.0
 11
897.6357175665677
 21
-307.5199727239401
 31
0.0
  0
LINE
  5
1FD
  8
回07-寸法
  6
CONTINUOUS
 62
     5
 10
866.1957175665676
 20
-307.5199727239401
 30
0.0
 11
879.6957175665678
 21
-307.5199727239401
 31
0.0
  0
INSERT
  5
1FE
  8
回07-寸法
  6
CONTINUOUS
 62
     5
  2
_OPEN
 10
866.1957175665676
 20
-307.5199727239401
 30
0.0
 41
1.5
 42
1.5
 43
1.5
  0
INSERT
  5
1FF
  8
回07-寸法
  6
CONTINUOUS
 62
     5
  2
_OPEN
 10
879.6957175665678
 20
-307.5199727239401
 30
0.0
 41
1.5
 42
1.5
 43
1.5
 50
180.0
  0
INSERT
  5
200
  8
回07-寸法
  6
CONTINUOUS
 62
     5
 66
     1
  2
*X9898
 10
0.0
 20
0.0
 30
0.0
  0
SEQEND
  5
833
  8
0
  6
CONTINUOUS
 62
     5
  0
POINT
  5
201
  8
DEFPOINTS
  6
CONTINUOUS
 62
     0
 10
866.1957175665676
 20
-283.0252524958023
 30
0.0
  0
POINT
  5
202
  8
DEFPOINTS
  6
CONTINUOUS
 62
     0
 10
879.6957175665678
 20
-283.0252524958032
 30
0.0
  0
POINT
  5
203
  8
DEFPOINTS
  6
CONTINUOUS
 62
     0
 10
879.6957175665678
 20
-307.5199727239401
 30
0.0
  0
ENDBLK
  5
204
  8
0
 62
     5
  0
BLOCK
  8
0
  2
*D3030
 70
     1
 10
0.0
 20
0.0
 30
0.0
  3
*D3030
  1

  0
LINE
  5
1EA
  8
回07-寸法
  6
CONTINUOUS
 62
     5
 10
823.4468428820161
 20
-183.5293008666135
 30
0.0
 11
820.1335157624836
 21
-183.5293008666135
 31
0.0
  0
LINE
  5
1EB
  8
回07-寸法
  6
CONTINUOUS
 62
     5
 10
823.4468428820161
 20
-187.1569418297695
 30
0.0
 11
820.1335157624836
 21
-187.1569418297695
 31
0.0
  0
LINE
  5
1EC
  8
回07-寸法
  6
CONTINUOUS
 62
     5
 10
821.1335157624835
 20
-182.0293008666135
 30
0.0
 11
821.1335157624835
 21
-180.5293008666135
 31
0.0
  0
LINE
  5
1ED
  8
回07-寸法
  6
CONTINUOUS
 62
     5
 10
821.1335157624835
 20
-188.6569418297695
 30
0.0
 11
821.1335157624835
 21
-196.9553670266199
 31
0.0
  0
LINE
  5
1EE
  8
回07-寸法
  6
CONTINUOUS
 62
     5
 10
821.1335157624835
 20
-183.5293008666135
 30
0.0
 11
821.1335157624835
 21
-187.1569418297695
 31
0.0
  0
INSERT
  5
1EF
  8
回07-寸法
  6
CONTINUOUS
 62
     5
  2
_OPEN
 10
821.1335157624835
 20
-183.5293008666135
 30
0.0
 41
1.5
 42
1.5
 43
1.5
 50
270.0
  0
INSERT
  5
1F0
  8
回07-寸法
  6
CONTINUOUS
 62
     5
  2
_OPEN
 10
821.1335157624835
 20
-187.1569418297695
 30
0.0
 41
1.5
 42
1.5
 43
1.5
 50
90.0
  0
TEXT
  5
1F1
  8
回07-寸法
  6
CONTINUOUS
 62
     5
 10
820.6335157624835
 20
-196.9578244850625
 30
0.0
 40
4.0
  1
3.6
 50
90.0
1001
ACAD
1000
MTEXTBEGIN
1070
    73
1070
     1
1070
    44
1040
1.0
1070
    74
1070
     0
1000
MTEXTEND
  0
POINT
  5
1F2
  8
DEFPOINTS
  6
CONTINUOUS
 62
     0
 10
823.4468428820161
 20
-183.5293008666135
 30
0.0
  0
POINT
  5
1F3
  8
DEFPOINTS
  6
CONTINUOUS
 62
     0
 10
823.4468428820161
 20
-187.1569418297695
 30
0.0
  0
POINT
  5
1F4
  8
DEFPOINTS
  6
CONTINUOUS
 62
     0
 10
821.1335157624835
 20
-187.1569418297695
 30
0.0
  0
ENDBLK
  5
1F5
  8
0
 62
     5
  0
BLOCK
  8
0
  2
*D3131
 70
     1
 10
0.0
 20
0.0
 30
0.0
  3
*D3131
  1

  0
LINE
  5
1DD
  8
回07-寸法
  6
CONTINUOUS
 62
     5
 10
823.4468428820161
 20
-183.5293008666135
 30
0.0
 11
812.9426444124474
 21
-183.5293008666135
 31
0.0
  0
LINE
  5
1DE
  8
回07-寸法
  6
CONTINUOUS
 62
     5
 10
837.1957175665675
 20
-200.9058165143211
 30
0.0
 11
812.9426444124474
 21
-200.9058165143211
 31
0.0
  0
LINE
  5
1DF
  8
回07-寸法
  6
CONTINUOUS
 62
     5
 10
813.9426444124474
 20
-185.0293008666135
 30
0.0
 11
813.9426444124474
 21
-199.405816514321
 31
0.0
  0
INSERT
  5
1E0
  8
回07-寸法
  6
CONTINUOUS
 62
     5
  2
_OPEN
 10
813.9426444124474
 20
-183.5293008666135
 30
0.0
 41
1.5
 42
1.5
 43
1.5
 50
90.0
  0
INSERT
  5
1E1
  8
回07-寸法
  6
CONTINUOUS
 62
     5
  2
_OPEN
 10
813.9426444124474
 20
-200.905816514321
 30
0.0
 41
1.5
 42
1.5
 43
1.5
 50
270.0
  0
TEXT
  5
1E2
  8
回07-寸法
  6
CONTINUOUS
 62
     5
 10
813.4426444124471
 20
-196.8175586904672
 30
0.0
 40
4.0
  1
17.4
 50
90.0
1001
ACAD
1000
MTEXTBEGIN
1070
    73
1070
     1
1070
    44
1040
1.0
1070
    74
1070
     0
1000
MTEXTEND
  0
POINT
  5
1E3
  8
DEFPOINTS
  6
CONTINUOUS
 62
     0
 10
823.4468428820161
 20
-183.5293008666135
 30
0.0
  0
POINT
  5
1E4
  8
DEFPOINTS
  6
CONTINUOUS
 62
     0
 10
837.1957175665675
 20
-200.9058165143211
 30
0.0
  0
POINT
  5
1E5
  8
DEFPOINTS
  6
CONTINUOUS
 62
     0
 10
813.9426444124474
 20
-200.905816514321
 30
0.0
  0
ENDBLK
  5
1E6
  8
0
 62
     5
  0
BLOCK
  8
0
  2
*D3232
 70
     1
 10
0.0
 20
0.0
 30
0.0
  3
*D3232
  1

  0
LINE
  5
1CE
  8
回07-寸法
  6
CONTINUOUS
 62
     5
 10
858.4468428820159
 20
-186.7427282673962
 30
0.0
 11
858.4468428820159
 21
-209.5016120845119
 31
0.0
  0
LINE
  5
1CF
  8
回07-寸法
  6
CONTINUOUS
 62
     5
 10
823.4468428820161
 20
-186.7427282673962
 30
0.0
 11
823.4468428820161
 21
-209.5016120845119
 31
0.0
  0
LINE
  5
1D0
  8
回07-寸法
  6
CONTINUOUS
 62
     5
 10
859.9468428820161
 20
-208.5016120845119
 30
0.0
 11
861.446842882016
 21
-208.5016120845119
 31
0.0
  0
LINE
  5
1D1
  8
回07-寸法
  6
CONTINUOUS
 62
     5
 10
821.946842882016
 20
-208.5016120845119
 30
0.0
 11
813.8811574570668
 21
-208.5016120845119
 31
0.0
  0
LINE
  5
1D2
  8
回07-寸法
  6
CONTINUOUS
 62
     5
 10
858.4468428820159
 20
-208.5016120845119
 30
0.0
 11
823.4468428820161
 21
-208.5016120845119
 31
0.0
  0
INSERT
  5
1D3
  8
回07-寸法
  6
CONTINUOUS
 62
     5
  2
_OPEN
 10
858.4468428820159
 20
-208.5016120845119
 30
0.0
 41
1.5
 42
1.5
 43
1.5
 50
180.0
  0
INSERT
  5
1D4
  8
回07-寸法
  6
CONTINUOUS
 62
     5
  2
_OPEN
 10
823.4468428820161
 20
-208.5016120845119
 30
0.0
 41
1.5
 42
1.5
 43
1.5
  0
TEXT
  5
1D5
  8
回07-寸法
  6
CONTINUOUS
 62
     5
 10
813.8640001695414
 20
-208.0016120845119
 30
0.0
 40
4.0
  1
35
1001
ACAD
1000
MTEXTBEGIN
1070
    73
1070
     1
1070
    44
1040
1.0
1070
    74
1070
     0
1000
MTEXTEND
  0
POINT
  5
1D6
  8
DEFPOINTS
  6
CONTINUOUS
 62
     0
 10
858.4468428820159
 20
-186.7427282673962
 30
0.0
  0
POINT
  5
1D7
  8
DEFPOINTS
  6
CONTINUOUS
 62
     0
 10
823.4468428820161
 20
-186.7427282673962
 30
0.0
  0
POINT
  5
1D8
  8
DEFPOINTS
  6
CONTINUOUS
 62
     0
 10
823.4468428820161
 20
-208.5016120845119
 30
0.0
  0
ENDBLK
  5
1D9
  8
0
 62
     5
  0
BLOCK
  8
0
  2
*D3333
 70
     1
 10
0.0
 20
0.0
 30
0.0
  3
*D3333
  1

  0
LINE
  5
1BF
  8
回07-寸法
  6
CONTINUOUS
 62
     5
 10
859.446842882016
 20
-186.6707222228514
 30
0.0
 11
859.446842882016
 21
-214.3047500431656
 31
0.0
  0
LINE
  5
1C0
  8
回07-寸法
  6
CONTINUOUS
 62
     5
 10
886.446842882016
 20
-186.6707222228514
 30
0.0
 11
886.446842882016
 21
-214.3047500431656
 31
0.0
  0
LINE
  5
1C1
  8
回07-寸法
  6
CONTINUOUS
 62
     5
 10
857.9468428820161
 20
-213.3047500431656
 30
0.0
 11
856.4468428820161
 21
-213.3047500431656
 31
0.0
  0
LINE
  5
1C2
  8
回07-寸法
  6
CONTINUOUS
 62
     5
 10
887.9468428820159
 20
-213.3047500431656
 30
0.0
 11
895.9484176851658
 21
-213.3047500431656
 31
0.0
  0
LINE
  5
1C3
  8
回07-寸法
  6
CONTINUOUS
 62
     5
 10
859.446842882016
 20
-213.3047500431656
 30
0.0
 11
886.446842882016
 21
-213.3047500431656
 31
0.0
  0
INSERT
  5
1C4
  8
回07-寸法
  6
CONTINUOUS
 62
     5
  2
_OPEN
 10
859.446842882016
 20
-213.3047500431656
 30
0.0
 41
1.5
 42
1.5
 43
1.5
  0
INSERT
  5
1C5
  8
回07-寸法
  6
CONTINUOUS
 62
     5
  2
_OPEN
 10
886.446842882016
 20
-213.3047500431656
 30
0.0
 41
1.5
 42
1.5
 43
1.5
 50
180.0
  0
TEXT
  5
1C6
  8
回07-寸法
  6
CONTINUOUS
 62
     5
 10
890.3976302835909
 20
-212.8043563423782
 30
0.0
 40
4.0
  1
27
1001
ACAD
1000
MTEXTBEGIN
1070
    73
1070
     1
1070
    44
1040
1.0
1070
    74
1070
     0
1000
MTEXTEND
  0
POINT
  5
1C7
  8
DEFPOINTS
  6
CONTINUOUS
 62
     0
 10
859.446842882016
 20
-186.6707222228514
 30
0.0
  0
POINT
  5
1C8
  8
DEFPOINTS
  6
CONTINUOUS
 62
     0
 10
886.446842882016
 20
-186.6707222228514
 30
0.0
  0
POINT
  5
1C9
  8
DEFPOINTS
  6
CONTINUOUS
 62
     0
 10
886.446842882016
 20
-213.3047500431656
 30
0.0
  0
ENDBLK
  5
1CA
  8
0
 62
     5
  0
BLOCK
  8
0
  2
*D3434
 70
     1
 10
0.0
 20
0.0
 30
0.0
  3
*D3434
  1

  0
LINE
  5
1B0
  8
回07-寸法
  6
CONTINUOUS
 62
     5
 10
886.446842882016
 20
-183.5293008666135
 30
0.0
 11
894.0572798420244
 21
-183.5293008666135
 31
0.0
  0
LINE
  5
1B1
  8
回07-寸法
  6
CONTINUOUS
 62
     5
 10
886.446842882016
 20
-187.0849357852248
 30
0.0
 11
894.0572798420244
 21
-187.0849357852248
 31
0.0
  0
LINE
  5
1B2
  8
回07-寸法
  6
CONTINUOUS
 62
     5
 10
893.0572798420243
 20
-182.0293008666135
 30
0.0
 11
893.0572798420243
 21
-180.5293008666135
 31
0.0
  0
LINE
  5
1B3
  8
回07-寸法
  6
CONTINUOUS
 62
     5
 10
893.0572798420243
 20
-188.5849357852249
 30
0.0
 11
893.0572798420243
 21
-203.2177924578761
 31
0.0
  0
LINE
  5
1B4
  8
回07-寸法
  6
CONTINUOUS
 62
     5
 10
893.0572798420243
 20
-183.5293008666135
 30
0.0
 11
893.0572798420243
 21
-187.0849357852248
 31
0.0
  0
INSERT
  5
1B5
  8
回07-寸法
  6
CONTINUOUS
 62
     5
  2
_OPEN
 10
893.0572798420243
 20
-183.5293008666135
 30
0.0
 41
1.5
 42
1.5
 43
1.5
 50
270.0
  0
INSERT
  5
1B6
  8
回07-寸法
  6
CONTINUOUS
 62
     5
  2
_OPEN
 10
893.0572798420243
 20
-187.0849357852248
 30
0.0
 41
1.5
 42
1.5
 43
1.5
 50
90.0
  0
TEXT
  5
1B7
  8
回07-寸法
  6
CONTINUOUS
 62
     5
 10
892.5572798420244
 20
-203.2202499163187
 30
0.0
 40
4.0
  1
3.6
 50
90.0
1001
ACAD
1000
MTEXTBEGIN
1070
    73
1070
     1
1070
    44
1040
1.0
1070
    74
1070
     0
1000
MTEXTEND
  0
POINT
  5
1B8
  8
DEFPOINTS
  6
CONTINUOUS
 62
     0
 10
886.446842882016
 20
-183.5293008666135
 30
0.0
  0
POINT
  5
1B9
  8
DEFPOINTS
  6
CONTINUOUS
 62
     0
 10
886.446842882016
 20
-187.0849357852248
 30
0.0
  0
POINT
  5
1BA
  8
DEFPOINTS
  6
CONTINUOUS
 62
     0
 10
893.0572798420243
 20
-187.0849357852248
 30
0.0
  0
ENDBLK
  5
1BB
  8
0
 62
     5
  0
BLOCK
  8
0
  2
*D3535
 70
     1
 10
0.0
 20
0.0
 30
0.0
  3
*D3535
  1

  0
LINE
  5
1A0
  8
回07-寸法
  6
CONTINUOUS
 62
     5
 10
886.446842882016
 20
-183.5293008666135
 30
0.0
 11
900.1419336218631
 21
-183.5293008666135
 31
0.0
  0
LINE
  5
1A1
  8
回07-寸法
  6
CONTINUOUS
 62
     5
 10
879.6957175665678
 20
-193.8360611006729
 30
0.0
 11
900.1419336218631
 21
-193.8360611006729
 31
0.0
  0
LINE
  5
1A2
  8
回07-寸法
  6
CONTINUOUS
 62
     5
 10
899.1419336218632
 20
-182.0293008666135
 30
0.0
 11
899.1419336218632
 21
-180.5293008666135
 31
0.0
  0
LINE
  5
1A3
  8
回07-寸法
  6
CONTINUOUS
 62
     5
 10
899.1419336218632
 20
-195.3360611006728
 30
0.0
 11
899.1419336218632
 21
-206.6017465256222
 31
0.0
  0
LINE
  5
1A4
  8
回07-寸法
  6
CONTINUOUS
 62
     5
 10
899.1419336218632
 20
-183.5293008666135
 30
0.0
 11
899.1419336218632
 21
-193.8360611006729
 31
0.0
  0
INSERT
  5
1A5
  8
回07-寸法
  6
CONTINUOUS
 62
     5
  2
_OPEN
 10
899.1419336218632
 20
-183.5293008666135
 30
0.0
 41
1.5
 42
1.5
 43
1.5
 50
270.0
  0
INSERT
  5
1A6
  8
回07-寸法
  6
CONTINUOUS
 62
     5
  2
_OPEN
 10
899.1419336218632
 20
-193.8360611006729
 30
0.0
 41
1.5
 42
1.5
 43
1.5
 50
90.0
  0
TEXT
  5
1A7
  8
回07-寸法
  6
CONTINUOUS
 62
     5
 10
898.6419336218633
 20
-206.6189038131475
 30
0.0
 40
4.0
  1
10.3
 50
90.0
1001
ACAD
1000
MTEXTBEGIN
1070
    73
1070
     1
1070
    44
1040
1.0
1070
    74
1070
     0
1000
MTEXTEND
  0
POINT
  5
1A8
  8
DEFPOINTS
  6
CONTINUOUS
 62
     0
 10
886.446842882016
 20
-183.5293008666135
 30
0.0
  0
POINT
  5
1AA
  8
DEFPOINTS
  6
CONTINUOUS
 62
     0
 10
879.6957175665678
 20
-193.8360611006729
 30
0.0
  0
POINT
  5
1AB
  8
DEFPOINTS
  6
CONTINUOUS
 62
     0
 10
899.1419336218632
 20
-193.8360611006729
 30
0.0
  0
ENDBLK
  5
1AC
  8
0
 62
     5
  0
BLOCK
  8
0
  2
*D3636
 70
     1
 10
0.0
 20
0.0
 30
0.0
  3
*D3636
  1

  0
LINE
  5
47D
  8
回07-寸法
  6
CONTINUOUS
 62
     5
 10
1011.150117552659
 20
-283.5252524958024
 30
0.0
 11
1002.284399571029
 21
-283.5252524958024
 31
0.0
  0
LINE
  5
47E
  8
回07-寸法
  6
CONTINUOUS
 62
     5
 10
1010.450117552659
 20
-278.5252524958024
 30
0.0
 11
1002.284399571029
 21
-278.5252524958024
 31
0.0
  0
LINE
  5
47F
  8
回07-寸法
  6
CONTINUOUS
 62
     5
 10
1003.284399571028
 20
-282.0252524958024
 30
0.0
 11
1003.284399571028
 21
-280.0252524958024
 31
0.0
  0
INSERT
  5
480
  8
回07-寸法
  6
CONTINUOUS
 62
     5
 66
     1
  2
_OPEN
 10
1003.284399571028
 20
-283.5252524958024
 30
0.0
 41
1.5
 42
1.5
 43
1.5
 50
270.0
  0
SEQEND
  5
481
  8
0
  6
CONTINUOUS
 62
     5
  0
INSERT
  5
482
  8
回07-寸法
  6
CONTINUOUS
 62
     5
 66
     1
  2
_OPEN
 10
1003.284399571028
 20
-278.5252524958024
 30
0.0
 41
1.5
 42
1.5
 43
1.5
 50
90.0
  0
SEQEND
  5
483
  8
0
  6
CONTINUOUS
 62
     5
  0
TEXT
  5
484
  8
回07-寸法
  6
CONTINUOUS
 62
     5
 10
1002.784399571029
 20
-282.4252524958023
 30
0.0
 40
4.0
  1
5
 50
90.0
1001
ACAD
1000
MTEXTBEGIN
1070
    73
1070
     1
1070
    44
1040
1.0
1070
    74
1070
     0
1000
MTEXTEND
  0
POINT
  5
485
  8
DEFPOINTS
  6
CONTINUOUS
 62
     0
 10
1011.150117552659
 20
-283.5252524958024
 30
0.0
  0
POINT
  5
486
  8
DEFPOINTS
  6
CONTINUOUS
 62
     0
 10
1010.450117552659
 20
-278.5252524958024
 30
0.0
  0
POINT
  5
487
  8
DEFPOINTS
  6
CONTINUOUS
 62
     0
 10
1003.284399571028
 20
-278.5252524958024
 30
0.0
  0
ENDBLK
  5
488
  8
0
 62
     5
  0
BLOCK
  8
0
  2
*D3737
 70
     1
 10
0.0
 20
0.0
 30
0.0
  3
*D3737
  1

  0
LINE
  5
46E
  8
回07-寸法
  6
CONTINUOUS
 62
     5
 10
1021.043301771629
 20
-283.5252524958024
 30
0.0
 11
1031.158940362313
 21
-283.5252524958024
 31
0.0
  0
LINE
  5
46F
  8
回07-寸法
  6
CONTINUOUS
 62
     5
 10
1021.743301771629
 20
-278.5252524958024
 30
0.0
 11
1031.158940362313
 21
-278.5252524958024
 31
0.0
  0
LINE
  5
470
  8
回07-寸法
  6
CONTINUOUS
 62
     5
 10
1030.158940362313
 20
-282.0252524958024
 30
0.0
 11
1030.158940362313
 21
-280.0252524958024
 31
0.0
  0
INSERT
  5
471
  8
回07-寸法
  6
CONTINUOUS
 62
     5
 66
     1
  2
_OPEN
 10
1030.158940362313
 20
-283.5252524958024
 30
0.0
 41
1.5
 42
1.5
 43
1.5
 50
270.0
  0
SEQEND
  5
472
  8
0
  6
CONTINUOUS
 62
     5
  0
INSERT
  5
473
  8
回07-寸法
  6
CONTINUOUS
 62
     5
 66
     1
  2
_OPEN
 10
1030.158940362313
 20
-278.5252524958024
 30
0.0
 41
1.5
 42
1.5
 43
1.5
 50
90.0
  0
SEQEND
  5
474
  8
0
  6
CONTINUOUS
 62
     5
  0
TEXT
  5
475
  8
回07-寸法
  6
CONTINUOUS
 62
     5
 10
1029.658940362313
 20
-282.4252524958022
 30
0.0
 40
4.0
  1
5
 50
90.0
1001
ACAD
1000
MTEXTBEGIN
1070
    73
1070
     1
1070
    44
1040
1.0
1070
    74
1070
     0
1000
MTEXTEND
  0
POINT
  5
476
  8
DEFPOINTS
  6
CONTINUOUS
 62
     0
 10
1021.043301771629
 20
-283.5252524958024
 30
0.0
  0
POINT
  5
477
  8
DEFPOINTS
  6
CONTINUOUS
 62
     0
 10
1021.743301771629
 20
-278.5252524958024
 30
0.0
  0
POINT
  5
478
  8
DEFPOINTS
  6
CONTINUOUS
 62
     0
 10
1030.158940362313
 20
-278.5252524958024
 30
0.0
  0
ENDBLK
  5
479
  8
0
 62
     5
  0
BLOCK
  8
0
  2
*D3838
 70
     1
 10
0.0
 20
0.0
 30
0.0
  3
*D3838
  1

  0
LINE
  5
45D
  8
回07-寸法
  6
CONTINUOUS
 62
     5
 10
1018.54330177163
 20
-283.5252524958024
 30
0.0
 11
1018.54330177163
 21
-301.2528773935291
 31
0.0
  0
LINE
  5
45E
  8
回07-寸法
  6
CONTINUOUS
 62
     5
 10
1021.043301771629
 20
-283.5252524958024
 30
0.0
 11
1021.043301771629
 21
-301.2528773935291
 31
0.0
  0
LINE
  5
45F
  8
回07-寸法
  6
CONTINUOUS
 62
     5
 10
1017.04330177163
 20
-300.252877393529
 30
0.0
 11
1015.543301771629
 21
-300.252877393529
 31
0.0
  0
LINE
  5
460
  8
回07-寸法
  6
CONTINUOUS
 62
     5
 10
1022.543301771629
 20
-300.252877393529
 30
0.0
 11
1039.223614880179
 21
-300.252877393529
 31
0.0
  0
LINE
  5
461
  8
回07-寸法
  6
CONTINUOUS
 62
     5
 10
1018.54330177163
 20
-300.252877393529
 30
0.0
 11
1021.043301771629
 21
-300.252877393529
 31
0.0
  0
INSERT
  5
462
  8
回07-寸法
  6
CONTINUOUS
 62
     5
 66
     1
  2
_OPEN
 10
1018.54330177163
 20
-300.252877393529
 30
0.0
 41
1.5
 42
1.5
 43
1.5
  0
SEQEND
  5
463
  8
0
  6
CONTINUOUS
 62
     5
  0
INSERT
  5
464
  8
回07-寸法
  6
CONTINUOUS
 62
     5
 66
     1
  2
_OPEN
 10
1021.043301771629
 20
-300.252877393529
 30
0.0
 41
1.5
 42
1.5
 43
1.5
 50
180.0
  0
SEQEND
  5
465
  8
0
  6
CONTINUOUS
 62
     5
  0
INSERT
  5
466
  8
回07-寸法
  6
CONTINUOUS
 62
     5
 66
     1
  2
*X9999
 10
0.0
 20
0.0
 30
0.0
  0
SEQEND
  5
839
  8
0
  6
CONTINUOUS
 62
     5
  0
POINT
  5
467
  8
DEFPOINTS
  6
CONTINUOUS
 62
     0
 10
1018.54330177163
 20
-283.5252524958024
 30
0.0
  0
POINT
  5
468
  8
DEFPOINTS
  6
CONTINUOUS
 62
     0
 10
1021.043301771629
 20
-283.5252524958024
 30
0.0
  0
POINT
  5
469
  8
DEFPOINTS
  6
CONTINUOUS
 62
     0
 10
1021.043301771629
 20
-300.252877393529
 30
0.0
  0
ENDBLK
  5
46A
  8
0
 62
     5
  0
BLOCK
  8
0
  2
*D3939
 70
     1
 10
0.0
 20
0.0
 30
0.0
  3
*D3939
  1

  0
LINE
  5
48E
  8
回07-寸法
  6
CONTINUOUS
 62
     5
 10
876.7199819557546
 20
-252.6806102355066
 30
0.0
 11
890.4150726956018
 21
-252.6806102355066
 31
0.0
  0
LINE
  5
490
  8
回07-寸法
  6
CONTINUOUS
 62
     5
 10
869.9688566403064
 20
-262.9873704695659
 30
0.0
 11
890.4150726956018
 21
-262.9873704695659
 31
0.0
  0
LINE
  5
491
  8
回07-寸法
  6
CONTINUOUS
 62
     5
 10
889.4150726956018
 20
-264.4873704695659
 30
0.0
 11
889.4150726956018
 21
-275.6702131820405
 31
0.0
  0
LINE
  5
492
  8
回07-寸法
  6
CONTINUOUS
 62
     5
 10
889.4150726956018
 20
-252.6806102355066
 30
0.0
 11
889.4150726956018
 21
-262.9873704695659
 31
0.0
  0
LINE
  5
493
  8
回07-寸法
  6
CONTINUOUS
 62
     5
 10
889.4150726956018
 20
-251.1806102355066
 30
0.0
 11
889.4150726956018
 21
-249.6806102355066
 31
0.0
  0
INSERT
  5
494
  8
回07-寸法
  6
CONTINUOUS
 62
     5
  2
_OPEN
 10
889.4150726956018
 20
-252.6806102355066
 30
0.0
 41
1.5
 42
1.5
 43
1.5
 50
270.0
  0
INSERT
  5
495
  8
回07-寸法
  6
CONTINUOUS
 62
     5
  2
_OPEN
 10
889.4150726956018
 20
-262.9873704695659
 30
0.0
 41
1.5
 42
1.5
 43
1.5
 50
90.0
  0
TEXT
  5
496
  8
回07-寸法
  6
CONTINUOUS
 62
     5
 10
888.9150726956017
 20
-275.7702131820405
 30
0.0
 40
4.0
  1
10.3
 50
90.0
  0
POINT
  5
497
  8
DEFPOINTS
  6
CONTINUOUS
 62
     0
 10
876.7199819557546
 20
-252.6806102355066
 30
0.0
  0
POINT
  5
498
  8
DEFPOINTS
  6
CONTINUOUS
 62
     0
 10
869.9688566403064
 20
-262.9873704695659
 30
0.0
  0
POINT
  5
499
  8
DEFPOINTS
  6
CONTINUOUS
 62
     0
 10
889.4150726956018
 20
-262.9873704695659
 30
0.0
  0
ENDBLK
  5
49B
  8
0
  6
CONTINUOUS
 62
     5
  0
BLOCK
  8
0
  2
*D4040
 70
     1
 10
0.0
 20
0.0
 30
0.0
  3
*D4040
  1

  0
LINE
  5
49D
  8
回07-寸法
  6
CONTINUOUS
 62
     5
 10
876.7199819557546
 20
-252.6806102355066
 30
0.0
 11
884.3304189157631
 21
-252.6806102355066
 31
0.0
  0
LINE
  5
49E
  8
回07-寸法
  6
CONTINUOUS
 62
     5
 10
876.7199819557546
 20
-256.2362451541179
 30
0.0
 11
884.3304189157631
 21
-256.2362451541179
 31
0.0
  0
LINE
  5
49F
  8
回07-寸法
  6
CONTINUOUS
 62
     5
 10
883.330418915763
 20
-257.7362451541179
 30
0.0
 11
883.330418915763
 21
-272.2715592852117
 31
0.0
  0
LINE
  5
4A0
  8
回07-寸法
  6
CONTINUOUS
 62
     5
 10
883.330418915763
 20
-252.6806102355066
 30
0.0
 11
883.330418915763
 21
-256.2362451541179
 31
0.0
  0
LINE
  5
4A1
  8
回07-寸法
  6
CONTINUOUS
 62
     5
 10
883.330418915763
 20
-251.1806102355066
 30
0.0
 11
883.330418915763
 21
-249.6806102355066
 31
0.0
  0
INSERT
  5
4A2
  8
回07-寸法
  6
CONTINUOUS
 62
     5
  2
_OPEN
 10
883.330418915763
 20
-252.6806102355066
 30
0.0
 41
1.5
 42
1.5
 43
1.5
 50
270.0
  0
INSERT
  5
4A3
  8
回07-寸法
  6
CONTINUOUS
 62
     5
  2
_OPEN
 10
883.330418915763
 20
-256.2362451541179
 30
0.0
 41
1.5
 42
1.5
 43
1.5
 50
90.0
  0
TEXT
  5
4A4
  8
回07-寸法
  6
CONTINUOUS
 62
     5
 10
882.8304189157632
 20
-272.3715592852117
 30
0.0
 40
4.0
  1
3.6
 50
90.0
  0
POINT
  5
4A5
  8
DEFPOINTS
  6
CONTINUOUS
 62
     0
 10
876.7199819557546
 20
-252.6806102355066
 30
0.0
  0
POINT
  5
4A6
  8
DEFPOINTS
  6
CONTINUOUS
 62
     0
 10
876.7199819557546
 20
-256.2362451541179
 30
0.0
  0
POINT
  5
4A7
  8
DEFPOINTS
  6
CONTINUOUS
 62
     0
 10
883.330418915763
 20
-256.2362451541179
 30
0.0
  0
ENDBLK
  5
4A9
  8
0
  6
CONTINUOUS
 62
     5
  0
BLOCK
  8
0
  2
*D4141
 70
     1
 10
0.0
 20
0.0
 30
0.0
  3
*D4141
  1

  0
LINE
  5
4AB
  8
回07-寸法
  6
CONTINUOUS
 62
     5
 10
849.7199819557549
 20
-255.8220315917445
 30
0.0
 11
849.7199819557549
 21
-283.4560594120587
 31
0.0
  0
LINE
  5
4AC
  8
回07-寸法
  6
CONTINUOUS
 62
     5
 10
876.7199819557546
 20
-255.8220315917445
 30
0.0
 11
876.7199819557546
 21
-283.4560594120587
 31
0.0
  0
LINE
  5
4AD
  8
回07-寸法
  6
CONTINUOUS
 62
     5
 10
878.2199819557549
 20
-282.4560594120587
 30
0.0
 11
886.1707693573297
 21
-282.4560594120587
 31
0.0
  0
LINE
  5
4AE
  8
回07-寸法
  6
CONTINUOUS
 62
     5
 10
849.7199819557549
 20
-282.4560594120587
 30
0.0
 11
876.7199819557546
 21
-282.4560594120587
 31
0.0
  0
LINE
  5
4AF
  8
回07-寸法
  6
CONTINUOUS
 62
     5
 10
848.2199819557546
 20
-282.4560594120587
 30
0.0
 11
846.7199819557547
 21
-282.4560594120587
 31
0.0
  0
INSERT
  5
4B0
  8
回07-寸法
  6
CONTINUOUS
 62
     5
  2
_OPEN
 10
849.7199819557549
 20
-282.4560594120587
 30
0.0
 41
1.5
 42
1.5
 43
1.5
  0
INSERT
  5
4B1
  8
回07-寸法
  6
CONTINUOUS
 62
     5
  2
_OPEN
 10
876.7199819557546
 20
-282.4560594120587
 30
0.0
 41
1.5
 42
1.5
 43
1.5
 50
180.0
  0
TEXT
  5
4B2
  8
回07-寸法
  6
CONTINUOUS
 62
     5
 10
880.6707693573295
 20
-281.9560594120586
 30
0.0
 40
4.0
  1
27
  0
POINT
  5
4B3
  8
DEFPOINTS
  6
CONTINUOUS
 62
     0
 10
849.7199819557549
 20
-255.8220315917445
 30
0.0
  0
POINT
  5
4B4
  8
DEFPOINTS
  6
CONTINUOUS
 62
     0
 10
876.7199819557546
 20
-255.8220315917445
 30
0.0
  0
POINT
  5
4B5
  8
DEFPOINTS
  6
CONTINUOUS
 62
     0
 10
876.7199819557546
 20
-282.4560594120587
 30
0.0
  0
ENDBLK
  5
4B7
  8
0
  6
CONTINUOUS
 62
     5
  0
BLOCK
  8
0
  2
*D4242
 70
     1
 10
0.0
 20
0.0
 30
0.0
  3
*D4242
  1

  0
LINE
  5
4B9
  8
回07-寸法
  6
CONTINUOUS
 62
     5
 10
848.7199819557549
 20
-255.8940376362892
 30
0.0
 11
848.7199819557549
 21
-278.6529214534049
 31
0.0
  0
LINE
  5
4BA
  8
回07-寸法
  6
CONTINUOUS
 62
     5
 10
813.7199819557547
 20
-255.8940376362892
 30
0.0
 11
813.7199819557547
 21
-278.6529214534049
 31
0.0
  0
LINE
  5
4BB
  8
回07-寸法
  6
CONTINUOUS
 62
     5
 10
812.2199819557549
 20
-277.6529214534049
 30
0.0
 11
804.2371392432801
 21
-277.6529214534049
 31
0.0
  0
LINE
  5
4BC
  8
回07-寸法
  6
CONTINUOUS
 62
     5
 10
848.7199819557549
 20
-277.6529214534049
 30
0.0
 11
813.7199819557547
 21
-277.6529214534049
 31
0.0
  0
LINE
  5
4BD
  8
回07-寸法
  6
CONTINUOUS
 62
     5
 10
850.2199819557548
 20
-277.6529214534049
 30
0.0
 11
851.7199819557546
 21
-277.6529214534049
 31
0.0
  0
INSERT
  5
4BE
  8
回07-寸法
  6
CONTINUOUS
 62
     5
  2
_OPEN
 10
848.7199819557549
 20
-277.6529214534049
 30
0.0
 41
1.5
 42
1.5
 43
1.5
 50
180.0
  0
INSERT
  5
4BF
  8
回07-寸法
  6
CONTINUOUS
 62
     5
  2
_OPEN
 10
813.7199819557547
 20
-277.6529214534049
 30
0.0
 41
1.5
 42
1.5
 43
1.5
  0
TEXT
  5
4C0
  8
回07-寸法
  6
CONTINUOUS
 62
     5
 10
804.1371392432802
 20
-277.1529214534049
 30
0.0
 40
4.0
  1
35
  0
POINT
  5
4C1
  8
DEFPOINTS
  6
CONTINUOUS
 62
     0
 10
848.7199819557549
 20
-255.8940376362892
 30
0.0
  0
POINT
  5
4C2
  8
DEFPOINTS
  6
CONTINUOUS
 62
     0
 10
813.7199819557547
 20
-255.8940376362892
 30
0.0
  0
POINT
  5
4C3
  8
DEFPOINTS
  6
CONTINUOUS
 62
     0
 10
813.7199819557547
 20
-277.6529214534049
 30
0.0
  0
ENDBLK
  5
4C5
  8
0
  6
CONTINUOUS
 62
     5
  0
BLOCK
  8
0
  2
*D4343
 70
     1
 10
0.0
 20
0.0
 30
0.0
  3
*D4343
  1

  0
LINE
  5
4C7
  8
回07-寸法
  6
CONTINUOUS
 62
     5
 10
813.7199819557547
 20
-252.6806102355066
 30
0.0
 11
803.2157834861861
 21
-252.6806102355066
 31
0.0
  0
LINE
  5
4C8
  8
回07-寸法
  6
CONTINUOUS
 62
     5
 10
827.4688566403064
 20
-270.0571258832141
 30
0.0
 11
803.2157834861861
 21
-270.0571258832141
 31
0.0
  0
LINE
  5
4C9
  8
回07-寸法
  6
CONTINUOUS
 62
     5
 10
804.2157834861862
 20
-254.1806102355066
 30
0.0
 11
804.2157834861862
 21
-268.5571258832141
 31
0.0
  0
INSERT
  5
4CA
  8
回07-寸法
  6
CONTINUOUS
 62
     5
  2
_OPEN
 10
804.2157834861862
 20
-252.6806102355066
 30
0.0
 41
1.5
 42
1.5
 43
1.5
 50
90.0
  0
INSERT
  5
4CB
  8
回07-寸法
  6
CONTINUOUS
 62
     5
  2
_OPEN
 10
804.2157834861862
 20
-270.0571258832141
 30
0.0
 41
1.5
 42
1.5
 43
1.5
 50
270.0
  0
TEXT
  5
4CC
  8
回07-寸法
  6
CONTINUOUS
 62
     5
 10
803.715783486186
 20
-265.9688680593603
 30
0.0
 40
4.0
  1
17.4
 50
90.0
  0
POINT
  5
4CD
  8
DEFPOINTS
  6
CONTINUOUS
 62
     0
 10
813.7199819557547
 20
-252.6806102355066
 30
0.0
  0
POINT
  5
4CE
  8
DEFPOINTS
  6
CONTINUOUS
 62
     0
 10
827.4688566403064
 20
-270.0571258832141
 30
0.0
  0
POINT
  5
4CF
  8
DEFPOINTS
  6
CONTINUOUS
 62
     0
 10
804.2157834861862
 20
-270.0571258832141
 30
0.0
  0
ENDBLK
  5
4D1
  8
0
  6
CONTINUOUS
 62
     5
  0
BLOCK
  8
0
  2
*D4444
 70
     1
 10
0.0
 20
0.0
 30
0.0
  3
*D4444
  1

  0
LINE
  5
4D3
  8
回07-寸法
  6
CONTINUOUS
 62
     5
 10
813.7199819557547
 20
-252.6806102355066
 30
0.0
 11
810.4066548362222
 21
-252.6806102355066
 31
0.0
  0
LINE
  5
4D4
  8
回07-寸法
  6
CONTINUOUS
 62
     5
 10
813.7199819557547
 20
-256.3082511986626
 30
0.0
 11
810.4066548362222
 21
-256.3082511986626
 31
0.0
  0
LINE
  5
4D5
  8
回07-寸法
  6
CONTINUOUS
 62
     5
 10
811.4066548362222
 20
-257.8082511986626
 30
0.0
 11
811.4066548362222
 21
-265.9115913123982
 31
0.0
  0
LINE
  5
4D6
  8
回07-寸法
  6
CONTINUOUS
 62
     5
 10
811.4066548362222
 20
-252.6806102355066
 30
0.0
 11
811.4066548362222
 21
-256.3082511986626
 31
0.0
  0
LINE
  5
4D7
  8
回07-寸法
  6
CONTINUOUS
 62
     5
 10
811.4066548362222
 20
-251.1806102355066
 30
0.0
 11
811.4066548362222
 21
-249.6806102355066
 31
0.0
  0
INSERT
  5
4D8
  8
回07-寸法
  6
CONTINUOUS
 62
     5
  2
_OPEN
 10
811.4066548362222
 20
-252.6806102355066
 30
0.0
 41
1.5
 42
1.5
 43
1.5
 50
270.0
  0
INSERT
  5
4D9
  8
回07-寸法
  6
CONTINUOUS
 62
     5
  2
_OPEN
 10
811.4066548362222
 20
-256.3082511986626
 30
0.0
 41
1.5
 42
1.5
 43
1.5
 50
90.0
  0
TEXT
  5
4DA
  8
回07-寸法
  6
CONTINUOUS
 62
     5
 10
810.9066548362221
 20
-266.0115913123981
 30
0.0
 40
4.0
  1
3.6
 50
90.0
  0
POINT
  5
4DB
  8
DEFPOINTS
  6
CONTINUOUS
 62
     0
 10
813.7199819557547
 20
-252.6806102355066
 30
0.0
  0
POINT
  5
4DC
  8
DEFPOINTS
  6
CONTINUOUS
 62
     0
 10
813.7199819557547
 20
-256.3082511986626
 30
0.0
  0
POINT
  5
4DD
  8
DEFPOINTS
  6
CONTINUOUS
 62
     0
 10
811.4066548362222
 20
-256.3082511986626
 30
0.0
  0
ENDBLK
  5
4DF
  8
0
  6
CONTINUOUS
 62
     5
  0
BLOCK
  8
0
  2
*D4545
 70
     1
 10
0.0
 20
0.0
 30
0.0
  3
*D4545
  1

  0
LINE
  5
4E1
  8
回07-寸法
  6
CONTINUOUS
 62
     5
 10
856.4688566403063
 20
-352.1765618646953
 30
0.0
 11
856.4688566403063
 21
-377.6712820928331
 31
0.0
  0
LINE
  5
4E2
  8
回07-寸法
  6
CONTINUOUS
 62
     5
 10
869.9688566403064
 20
-352.1765618646962
 30
0.0
 11
869.9688566403064
 21
-377.6712820928331
 31
0.0
  0
LINE
  5
4E3
  8
回07-寸法
  6
CONTINUOUS
 62
     5
 10
871.4688566403063
 20
-376.6712820928331
 30
0.0
 11
887.9088566403064
 21
-376.6712820928331
 31
0.0
  0
LINE
  5
4E4
  8
回07-寸法
  6
CONTINUOUS
 62
     5
 10
856.4688566403063
 20
-376.6712820928331
 30
0.0
 11
869.9688566403064
 21
-376.6712820928331
 31
0.0
  0
LINE
  5
4E5
  8
回07-寸法
  6
CONTINUOUS
 62
     5
 10
854.9688566403064
 20
-376.6712820928331
 30
0.0
 11
853.4688566403064
 21
-376.6712820928331
 31
0.0
  0
INSERT
  5
4E6
  8
回07-寸法
  6
CONTINUOUS
 62
     5
  2
_OPEN
 10
856.4688566403063
 20
-376.6712820928331
 30
0.0
 41
1.5
 42
1.5
 43
1.5
  0
INSERT
  5
4E7
  8
回07-寸法
  6
CONTINUOUS
 62
     5
  2
_OPEN
 10
869.9688566403064
 20
-376.6712820928331
 30
0.0
 41
1.5
 42
1.5
 43
1.5
 50
180.0
  0
INSERT
  5
4E8
  8
回07-寸法
  6
CONTINUOUS
 62
     5
 66
     1
  2
*X100100
 10
0.0
 20
0.0
 30
0.0
  0
SEQEND
  5
83F
  8
0
  6
CONTINUOUS
 62
     5
  0
POINT
  5
4E9
  8
DEFPOINTS
  6
CONTINUOUS
 62
     0
 10
856.4688566403063
 20
-352.1765618646953
 30
0.0
  0
POINT
  5
4EA
  8
DEFPOINTS
  6
CONTINUOUS
 62
     0
 10
869.9688566403064
 20
-352.1765618646962
 30
0.0
  0
POINT
  5
4EB
  8
DEFPOINTS
  6
CONTINUOUS
 62
     0
 10
869.9688566403064
 20
-376.6712820928331
 30
0.0
  0
ENDBLK
  5
4ED
  8
0
  6
CONTINUOUS
 62
     5
  0
BLOCK
  8
0
  2
*D4646
 70
     1
 10
0.0
 20
0.0
 30
0.0
  3
*D4646
  1

  0
LINE
  5
4EF
  8
回07-寸法
  6
CONTINUOUS
 62
     5
 10
728.3130637441615
 20
-252.6806102355066
 30
0.0
 11
728.3130637441615
 21
-377.6712820928331
 31
0.0
  0
LINE
  5
4F0
  8
回07-寸法
  6
CONTINUOUS
 62
     5
 10
856.4688566403063
 20
-352.1765618646953
 30
0.0
 11
856.4688566403063
 21
-377.6712820928331
 31
0.0
  0
LINE
  5
4F1
  8
回07-寸法
  6
CONTINUOUS
 62
     5
 10
729.8130637441617
 20
-376.6712820928331
 30
0.0
 11
854.9688566403064
 21
-376.6712820928331
 31
0.0
  0
INSERT
  5
4F2
  8
回07-寸法
  6
CONTINUOUS
 62
     5
  2
_OPEN
 10
728.3130637441615
 20
-376.6712820928331
 30
0.0
 41
1.5
 42
1.5
 43
1.5
 50
180.0
  0
INSERT
  5
4F3
  8
回07-寸法
  6
CONTINUOUS
 62
     5
  2
_OPEN
 10
856.4688566403063
 20
-376.6712820928331
 30
0.0
 41
1.5
 42
1.5
 43
1.5
  0
TEXT
  5
4F4
  8
回07-寸法
  6
CONTINUOUS
 62
     5
 10
783.9909601922338
 20
-375.9712820928331
 30
0.0
 40
4.0
  1
(128.16)
  0
POINT
  5
4F5
  8
DEFPOINTS
  6
CONTINUOUS
 62
     0
 10
728.3130637441615
 20
-252.6806102355066
 30
0.0
  0
POINT
  5
4F6
  8
DEFPOINTS
  6
CONTINUOUS
 62
     0
 10
856.4688566403063
 20
-352.1765618646953
 30
0.0
  0
POINT
  5
4F7
  8
DEFPOINTS
  6
CONTINUOUS
 62
     0
 10
856.4688566403063
 20
-376.6712820928331
 30
0.0
  0
ENDBLK
  5
4F9
  8
0
  6
CONTINUOUS
 62
     5
  0
BLOCK
  8
0
  2
*D4747
 70
     1
 10
0.0
 20
0.0
 30
0.0
  3
*D4747
  1

  0
LINE
  5
4FB
  8
回07-寸法
  6
CONTINUOUS
 62
     5
 10
827.4688566403064
 20
-352.1765618646953
 30
0.0
 11
827.4688566403064
 21
-368.6765618646952
 31
0.0
  0
LINE
  5
4FC
  8
回07-寸法
  6
CONTINUOUS
 62
     5
 10
844.9688566403064
 20
-352.1765618646953
 30
0.0
 11
844.9688566403064
 21
-368.6765618646952
 31
0.0
  0
LINE
  5
4FD
  8
回07-寸法
  6
CONTINUOUS
 62
     5
 10
828.9688566403064
 20
-367.6765618646951
 30
0.0
 11
843.4688566403064
 21
-367.6765618646951
 31
0.0
  0
INSERT
  5
4FE
  8
回07-寸法
  6
CONTINUOUS
 62
     5
  2
_OPEN
 10
827.4688566403064
 20
-367.6765618646951
 30
0.0
 41
1.5
 42
1.5
 43
1.5
 50
180.0
  0
INSERT
  5
4FF
  8
回07-寸法
  6
CONTINUOUS
 62
     5
  2
_OPEN
 10
844.9688566403064
 20
-367.6765618646951
 30
0.0
 41
1.5
 42
1.5
 43
1.5
  0
INSERT
  5
500
  8
回07-寸法
  6
CONTINUOUS
 62
     5
 66
     1
  2
*X101101
 10
0.0
 20
0.0
 30
0.0
  0
SEQEND
  5
845
  8
0
  6
CONTINUOUS
 62
     5
  0
POINT
  5
501
  8
DEFPOINTS
  6
CONTINUOUS
 62
     0
 10
827.4688566403064
 20
-352.1765618646953
 30
0.0
  0
POINT
  5
502
  8
DEFPOINTS
  6
CONTINUOUS
 62
     0
 10
844.9688566403064
 20
-352.1765618646953
 30
0.0
  0
POINT
  5
503
  8
DEFPOINTS
  6
CONTINUOUS
 62
     0
 10
844.9688566403064
 20
-367.6765618646951
 30
0.0
  0
ENDBLK
  5
505
  8
0
  6
CONTINUOUS
 62
     5
  0
BLOCK
  8
0
  2
*D4848
 70
     1
 10
0.0
 20
0.0
 30
0.0
  3
*D4848
  1

  0
LINE
  5
507
  8
回07-寸法
  6
CONTINUOUS
 62
     5
 10
728.3130637441615
 20
-252.6806102355066
 30
0.0
 11
728.3130637441615
 21
-368.6765618646952
 31
0.0
  0
LINE
  5
508
  8
回07-寸法
  6
CONTINUOUS
 62
     5
 10
827.4688566403064
 20
-352.1765618646953
 30
0.0
 11
827.4688566403064
 21
-368.6765618646952
 31
0.0
  0
LINE
  5
509
  8
回07-寸法
  6
CONTINUOUS
 62
     5
 10
729.8130637441617
 20
-367.6765618646951
 30
0.0
 11
825.9688566403063
 21
-367.6765618646951
 31
0.0
  0
INSERT
  5
50A
  8
回07-寸法
  6
CONTINUOUS
 62
     5
  2
_OPEN
 10
728.3130637441615
 20
-367.6765618646951
 30
0.0
 41
1.5
 42
1.5
 43
1.5
 50
180.0
  0
INSERT
  5
50B
  8
回07-寸法
  6
CONTINUOUS
 62
     5
  2
_OPEN
 10
827.4688566403064
 20
-367.6765618646951
 30
0.0
 41
1.5
 42
1.5
 43
1.5
  0
TEXT
  5
50C
  8
回07-寸法
  6
CONTINUOUS
 62
     5
 10
770.476518718126
 20
-366.9765618646952
 30
0.0
 40
4.0
  1
(99.16)
  0
POINT
  5
50D
  8
DEFPOINTS
  6
CONTINUOUS
 62
     0
 10
728.3130637441615
 20
-252.6806102355066
 30
0.0
  0
POINT
  5
50E
  8
DEFPOINTS
  6
CONTINUOUS
 62
     0
 10
827.4688566403064
 20
-352.1765618646953
 30
0.0
  0
POINT
  5
50F
  8
DEFPOINTS
  6
CONTINUOUS
 62
     0
 10
827.4688566403064
 20
-367.6765618646951
 30
0.0
  0
ENDBLK
  5
511
  8
0
  6
CONTINUOUS
 62
     5
  0
BLOCK
  8
0
  2
*D4949
 70
     1
 10
0.0
 20
0.0
 30
0.0
  3
*D4949
  1

  0
LINE
  5
513
  8
回07-寸法
  6
CONTINUOUS
 62
     5
 10
876.7199819557546
 20
-252.6805618646947
 30
0.0
 11
896.7871795654579
 21
-252.6805618646947
 31
0.0
  0
LINE
  5
514
  8
回07-寸法
  6
CONTINUOUS
 62
     5
 10
869.4688566403064
 20
-352.6765618646962
 30
0.0
 11
896.7871795654579
 21
-352.6765618646962
 31
0.0
  0
LINE
  5
515
  8
回07-寸法
  6
CONTINUOUS
 62
     5
 10
895.7871795654579
 20
-254.1805618646947
 30
0.0
 11
895.7871795654579
 21
-351.1765618646962
 31
0.0
  0
INSERT
  5
516
  8
回07-寸法
  6
CONTINUOUS
 62
     5
  2
_OPEN
 10
895.7871795654579
 20
-252.6805618646947
 30
0.0
 41
1.5
 42
1.5
 43
1.5
 50
90.0
  0
INSERT
  5
517
  8
回07-寸法
  6
CONTINUOUS
 62
     5
  2
_OPEN
 10
895.7871795654579
 20
-352.6765618646962
 30
0.0
 41
1.5
 42
1.5
 43
1.5
 50
270.0
  0
INSERT
  5
518
  8
回07-寸法
  6
CONTINUOUS
 62
     5
 66
     1
  2
*X102102
 10
0.0
 20
0.0
 30
0.0
  0
SEQEND
  5
84B
  8
0
  6
CONTINUOUS
 62
     5
  0
POINT
  5
519
  8
DEFPOINTS
  6
CONTINUOUS
 62
     0
 10
876.7199819557546
 20
-252.6805618646947
 30
0.0
  0
POINT
  5
51A
  8
DEFPOINTS
  6
CONTINUOUS
 62
     0
 10
869.4688566403064
 20
-352.6765618646962
 30
0.0
  0
POINT
  5
51B
  8
DEFPOINTS
  6
CONTINUOUS
 62
     0
 10
895.7871795654579
 20
-352.6765618646962
 30
0.0
  0
ENDBLK
  5
51D
  8
0
  6
CONTINUOUS
 62
     5
  0
BLOCK
  8
0
  2
*D5050
 70
     1
 10
0.0
 20
0.0
 30
0.0
  3
*D5050
  1

  0
LINE
  5
51F
  8
回07-寸法
  6
CONTINUOUS
 62
     5
 10
827.9688566403063
 20
-352.6765618646952
 30
0.0
 11
785.2222096953607
 21
-352.6765618646952
 31
0.0
  0
LINE
  5
520
  8
回07-寸法
  6
CONTINUOUS
 62
     5
 10
813.7199819557547
 20
-252.6806102355066
 30
0.0
 11
785.2222096953607
 21
-252.6806102355066
 31
0.0
  0
LINE
  5
521
  8
回07-寸法
  6
CONTINUOUS
 62
     5
 10
786.2222096953606
 20
-351.1765618646953
 30
0.0
 11
786.2222096953606
 21
-254.1806102355066
 31
0.0
  0
INSERT
  5
522
  8
回07-寸法
  6
CONTINUOUS
 62
     5
  2
_OPEN
 10
786.2222096953606
 20
-352.6765618646952
 30
0.0
 41
1.5
 42
1.5
 43
1.5
 50
270.0
  0
INSERT
  5
523
  8
回07-寸法
  6
CONTINUOUS
 62
     5
  2
_OPEN
 10
786.2222096953606
 20
-252.6806102355066
 30
0.0
 41
1.5
 42
1.5
 43
1.5
 50
90.0
  0
INSERT
  5
524
  8
回07-寸法
  6
CONTINUOUS
 62
     5
 66
     1
  2
*X103103
 10
0.0
 20
0.0
 30
0.0
  0
SEQEND
  5
851
  8
0
  6
CONTINUOUS
 62
     5
  0
POINT
  5
525
  8
DEFPOINTS
  6
CONTINUOUS
 62
     0
 10
827.9688566403063
 20
-352.6765618646952
 30
0.0
  0
POINT
  5
526
  8
DEFPOINTS
  6
CONTINUOUS
 62
     0
 10
813.7199819557547
 20
-252.6806102355066
 30
0.0
  0
POINT
  5
527
  8
DEFPOINTS
  6
CONTINUOUS
 62
     0
 10
786.2222096953606
 20
-252.6806102355066
 30
0.0
  0
ENDBLK
  5
529
  8
0
  6
CONTINUOUS
 62
     5
  0
BLOCK
  8
0
  2
*D5151
 70
     1
 10
0.0
 20
0.0
 30
0.0
  3
*D5151
  1

  0
LINE
  5
52B
  8
回07-寸法
  6
CONTINUOUS
 62
     5
 10
735.3330637441615
 20
-104.3806102355065
 30
0.0
 11
705.3330637441616
 21
-104.3806102355065
 31
0.0
  0
LINE
  5
52C
  8
回07-寸法
  6
CONTINUOUS
 62
     5
 10
728.3130637441615
 20
-96.48061023550647
 30
0.0
 11
705.3330637441616
 21
-96.48061023550647
 31
0.0
  0
LINE
  5
52D
  8
回07-寸法
  6
CONTINUOUS
 62
     5
 10
706.3330637441616
 20
-94.98061023550647
 30
0.0
 11
706.3330637441616
 21
-83.02614540396424
 31
0.0
  0
LINE
  5
52E
  8
回07-寸法
  6
CONTINUOUS
 62
     5
 10
706.3330637441616
 20
-104.3806102355065
 30
0.0
 11
706.3330637441616
 21
-96.48061023550647
 31
0.0
  0
LINE
  5
52F
  8
回07-寸法
  6
CONTINUOUS
 62
     5
 10
706.3330637441616
 20
-105.8806102355065
 30
0.0
 11
706.3330637441616
 21
-107.3806102355066
 31
0.0
  0
INSERT
  5
530
  8
回07-寸法
  6
CONTINUOUS
 62
     5
  2
_OPEN
 10
706.3330637441616
 20
-104.3806102355065
 30
0.0
 41
1.5
 42
1.5
 43
1.5
 50
90.0
  0
INSERT
  5
531
  8
回07-寸法
  6
CONTINUOUS
 62
     5
  2
_OPEN
 10
706.3330637441616
 20
-96.48061023550647
 30
0.0
 41
1.5
 42
1.5
 43
1.5
 50
270.0
  0
TEXT
  5
532
  8
回07-寸法
  6
CONTINUOUS
 62
     5
 10
705.6330637441616
 20
-92.93901207492252
 30
0.0
 40
4.0
  1
(7.9)
 50
90.0
  0
POINT
  5
533
  8
DEFPOINTS
  6
CONTINUOUS
 62
     0
 10
735.3330637441615
 20
-104.3806102355065
 30
0.0
  0
POINT
  5
534
  8
DEFPOINTS
  6
CONTINUOUS
 62
     0
 10
728.3130637441615
 20
-96.48061023550647
 30
0.0
  0
POINT
  5
535
  8
DEFPOINTS
  6
CONTINUOUS
 62
     0
 10
706.3330637441616
 20
-96.48061023550647
 30
0.0
  0
ENDBLK
  5
537
  8
0
  6
CONTINUOUS
 62
     5
  0
BLOCK
  8
0
  2
*D5252
 70
     1
 10
0.0
 20
0.0
 30
0.0
  3
*D5252
  1

  0
LINE
  5
539
  8
回07-寸法
  6
CONTINUOUS
 62
     5
 10
733.3130637441615
 20
-102.3806102355064
 30
0.0
 11
695.3330637441617
 21
-102.3806102355064
 31
0.0
  0
LINE
  5
53A
  8
回07-寸法
  6
CONTINUOUS
 62
     5
 10
728.3130637441615
 20
-96.48061023550647
 30
0.0
 11
695.3330637441617
 21
-96.48061023550647
 31
0.0
  0
LINE
  5
53B
  8
回07-寸法
  6
CONTINUOUS
 62
     5
 10
696.3330637441615
 20
-94.98061023550647
 30
0.0
 11
696.3330637441615
 21
-83.66931836769779
 31
0.0
  0
LINE
  5
53C
  8
回07-寸法
  6
CONTINUOUS
 62
     5
 10
696.3330637441615
 20
-102.3806102355064
 30
0.0
 11
696.3330637441615
 21
-96.48061023550647
 31
0.0
  0
LINE
  5
53D
  8
回07-寸法
  6
CONTINUOUS
 62
     5
 10
696.3330637441615
 20
-103.8806102355064
 30
0.0
 11
696.3330637441615
 21
-105.3806102355064
 31
0.0
  0
INSERT
  5
53E
  8
回07-寸法
  6
CONTINUOUS
 62
     5
  2
_OPEN
 10
696.3330637441615
 20
-102.3806102355064
 30
0.0
 41
1.5
 42
1.5
 43
1.5
 50
90.0
  0
INSERT
  5
53F
  8
回07-寸法
  6
CONTINUOUS
 62
     5
  2
_OPEN
 10
696.3330637441615
 20
-96.48061023550647
 30
0.0
 41
1.5
 42
1.5
 43
1.5
 50
270.0
  0
TEXT
  5
540
  8
回07-寸法
  6
CONTINUOUS
 62
     5
 10
695.6330637441616
 20
-93.582185038656
 30
0.0
 40
4.0
  1
(5.9)
 50
90.0
  0
POINT
  5
541
  8
DEFPOINTS
  6
CONTINUOUS
 62
     0
 10
733.3130637441615
 20
-102.3806102355064
 30
0.0
  0
POINT
  5
542
  8
DEFPOINTS
  6
CONTINUOUS
 62
     0
 10
728.3130637441615
 20
-96.48061023550647
 30
0.0
  0
POINT
  5
543
  8
DEFPOINTS
  6
CONTINUOUS
 62
     0
 10
696.3330637441615
 20
-96.48061023550647
 30
0.0
  0
ENDBLK
  5
545
  8
0
  6
CONTINUOUS
 62
     5
  0
BLOCK
  8
0
  2
*D5353
 70
     1
 10
0.0
 20
0.0
 30
0.0
  3
*D5353
  1

  0
LINE
  5
547
  8
回07-寸法
  6
CONTINUOUS
 62
     5
 10
732.8130637441615
 20
-101.8806102355064
 30
0.0
 11
685.3330637441615
 21
-101.8806102355064
 31
0.0
  0
LINE
  5
548
  8
回07-寸法
  6
CONTINUOUS
 62
     5
 10
728.3130637441615
 20
-96.48061023550647
 30
0.0
 11
685.3330637441615
 21
-96.48061023550647
 31
0.0
  0
LINE
  5
549
  8
回07-寸法
  6
CONTINUOUS
 62
     5
 10
686.3330637441615
 20
-94.98061023550647
 30
0.0
 11
686.3330637441615
 21
-53.42586614101836
 31
0.0
  0
LINE
  5
54A
  8
回07-寸法
  6
CONTINUOUS
 62
     5
 10
686.3330637441615
 20
-101.8806102355064
 30
0.0
 11
686.3330637441615
 21
-96.48061023550647
 31
0.0
  0
LINE
  5
54B
  8
回07-寸法
  6
CONTINUOUS
 62
     5
 10
686.3330637441615
 20
-103.3806102355064
 30
0.0
 11
686.3330637441615
 21
-104.8806102355064
 31
0.0
  0
INSERT
  5
54C
  8
回07-寸法
  6
CONTINUOUS
 62
     5
  2
_OPEN
 10
686.3330637441615
 20
-101.8806102355064
 30
0.0
 41
1.5
 42
1.5
 43
1.5
 50
90.0
  0
INSERT
  5
54D
  8
回07-寸法
  6
CONTINUOUS
 62
     5
  2
_OPEN
 10
686.3330637441615
 20
-96.48061023550647
 30
0.0
 41
1.5
 42
1.5
 43
1.5
 50
270.0
  0
INSERT
  5
54E
  8
回07-寸法
  6
CONTINUOUS
 62
     5
 66
     1
  2
*X104104
 10
0.0
 20
0.0
 30
0.0
  0
SEQEND
  5
857
  8
0
  6
CONTINUOUS
 62
     5
  0
POINT
  5
54F
  8
DEFPOINTS
  6
CONTINUOUS
 62
     0
 10
732.8130637441615
 20
-101.8806102355064
 30
0.0
  0
POINT
  5
550
  8
DEFPOINTS
  6
CONTINUOUS
 62
     0
 10
728.3130637441615
 20
-96.48061023550647
 30
0.0
  0
POINT
  5
551
  8
DEFPOINTS
  6
CONTINUOUS
 62
     0
 10
686.3330637441615
 20
-96.48061023550647
 30
0.0
  0
ENDBLK
  5
553
  8
0
  6
CONTINUOUS
 62
     5
  0
BLOCK
  8
0
  2
*D5454
 70
     1
 10
0.0
 20
0.0
 30
0.0
  3
*D5454
  1

  0
LINE
  5
555
  8
回07-寸法
  6
CONTINUOUS
 62
     5
 10
735.3330637441615
 20
-239.9806102355065
 30
0.0
 11
705.3330637441615
 21
-239.9806102355065
 31
0.0
  0
LINE
  5
556
  8
回07-寸法
  6
CONTINUOUS
 62
     5
 10
728.3130637441615
 20
-252.6806102355066
 30
0.0
 11
705.3330637441615
 21
-252.6806102355066
 31
0.0
  0
LINE
  5
557
  8
回07-寸法
  6
CONTINUOUS
 62
     5
 10
706.3330637441615
 20
-254.1806102355066
 30
0.0
 11
706.3330637441615
 21
-264.3306102355065
 31
0.0
  0
LINE
  5
558
  8
回07-寸法
  6
CONTINUOUS
 62
     5
 10
706.3330637441615
 20
-239.9806102355065
 30
0.0
 11
706.3330637441615
 21
-252.6806102355066
 31
0.0
  0
LINE
  5
559
  8
回07-寸法
  6
CONTINUOUS
 62
     5
 10
706.3330637441615
 20
-238.4806102355065
 30
0.0
 11
706.3330637441615
 21
-236.9806102355065
 31
0.0
  0
INSERT
  5
55A
  8
回07-寸法
  6
CONTINUOUS
 62
     5
  2
_OPEN
 10
706.3330637441615
 20
-239.9806102355065
 30
0.0
 41
1.5
 42
1.5
 43
1.5
 50
270.0
  0
INSERT
  5
55B
  8
回07-寸法
  6
CONTINUOUS
 62
     5
  2
_OPEN
 10
706.3330637441615
 20
-252.6806102355066
 30
0.0
 41
1.5
 42
1.5
 43
1.5
 50
90.0
  0
TEXT
  5
55C
  8
回07-寸法
  6
CONTINUOUS
 62
     5
 10
705.8330637441615
 20
-264.4306102355065
 30
0.0
 40
4.0
  1
12.7
 50
90.0
  0
POINT
  5
55D
  8
DEFPOINTS
  6
CONTINUOUS
 62
     0
 10
735.3330637441615
 20
-239.9806102355065
 30
0.0
  0
POINT
  5
55E
  8
DEFPOINTS
  6
CONTINUOUS
 62
     0
 10
728.3130637441615
 20
-252.6806102355066
 30
0.0
  0
POINT
  5
55F
  8
DEFPOINTS
  6
CONTINUOUS
 62
     0
 10
706.3330637441615
 20
-252.6806102355066
 30
0.0
  0
ENDBLK
  5
561
  8
0
  6
CONTINUOUS
 62
     5
  0
BLOCK
  8
0
  2
*D5555
 70
     1
 10
0.0
 20
0.0
 30
0.0
  3
*D5555
  1

  0
LINE
  5
563
  8
回07-寸法
  6
CONTINUOUS
 62
     5
 10
732.8130637441615
 20
-242.4806102355065
 30
0.0
 11
685.3330637441615
 21
-242.4806102355065
 31
0.0
  0
LINE
  5
564
  8
回07-寸法
  6
CONTINUOUS
 62
     5
 10
728.3130637441615
 20
-252.6806102355066
 30
0.0
 11
685.3330637441615
 21
-252.6806102355066
 31
0.0
  0
LINE
  5
565
  8
回07-寸法
  6
CONTINUOUS
 62
     5
 10
686.3330637441615
 20
-254.1806102355066
 30
0.0
 11
686.3330637441615
 21
-294.1369291331445
 31
0.0
  0
LINE
  5
566
  8
回07-寸法
  6
CONTINUOUS
 62
     5
 10
686.3330637441615
 20
-242.4806102355065
 30
0.0
 11
686.3330637441615
 21
-252.6806102355066
 31
0.0
  0
LINE
  5
567
  8
回07-寸法
  6
CONTINUOUS
 62
     5
 10
686.3330637441615
 20
-240.9806102355065
 30
0.0
 11
686.3330637441615
 21
-239.4806102355065
 31
0.0
  0
INSERT
  5
568
  8
回07-寸法
  6
CONTINUOUS
 62
     5
  2
_OPEN
 10
686.3330637441615
 20
-242.4806102355065
 30
0.0
 41
1.5
 42
1.5
 43
1.5
 50
270.0
  0
INSERT
  5
569
  8
回07-寸法
  6
CONTINUOUS
 62
     5
  2
_OPEN
 10
686.3330637441615
 20
-252.6806102355066
 30
0.0
 41
1.5
 42
1.5
 43
1.5
 50
90.0
  0
INSERT
  5
56A
  8
回07-寸法
  6
CONTINUOUS
 62
     5
 66
     1
  2
*X105105
 10
0.0
 20
0.0
 30
0.0
  0
SEQEND
  5
85D
  8
0
  6
CONTINUOUS
 62
     5
  0
POINT
  5
56B
  8
DEFPOINTS
  6
CONTINUOUS
 62
     0
 10
732.8130637441615
 20
-242.4806102355065
 30
0.0
  0
POINT
  5
56C
  8
DEFPOINTS
  6
CONTINUOUS
 62
     0
 10
728.3130637441615
 20
-252.6806102355066
 30
0.0
  0
POINT
  5
56D
  8
DEFPOINTS
  6
CONTINUOUS
 62
     0
 10
686.3330637441615
 20
-252.6806102355066
 30
0.0
  0
ENDBLK
  5
56F
  8
0
  6
CONTINUOUS
 62
     5
  0
BLOCK
  8
0
  2
*D5656
 70
     1
 10
0.0
 20
0.0
 30
0.0
  3
*D5656
  1

  0
LINE
  5
571
  8
回07-寸法
  6
CONTINUOUS
 62
     5
 10
954.3130637441617
 20
-102.3806102355065
 30
0.0
 11
954.3130637441617
 21
-66.48061023550646
 31
0.0
  0
LINE
  5
572
  8
回07-寸法
  6
CONTINUOUS
 62
     5
 10
959.3130637441616
 20
-96.4806102355066
 30
0.0
 11
959.3130637441616
 21
-66.48061023550646
 31
0.0
  0
LINE
  5
573
  8
回07-寸法
  6
CONTINUOUS
 62
     5
 10
960.8130637441616
 20
-67.48061023550646
 30
0.0
 11
968.1099141378624
 21
-67.48061023550646
 31
0.0
  0
LINE
  5
574
  8
回07-寸法
  6
CONTINUOUS
 62
     5
 10
954.3130637441617
 20
-67.48061023550646
 30
0.0
 11
959.3130637441616
 21
-67.48061023550646
 31
0.0
  0
LINE
  5
575
  8
回07-寸法
  6
CONTINUOUS
 62
     5
 10
952.8130637441616
 20
-67.48061023550646
 30
0.0
 11
951.3130637441618
 21
-67.48061023550646
 31
0.0
  0
INSERT
  5
576
  8
回07-寸法
  6
CONTINUOUS
 62
     5
  2
_OPEN
 10
954.3130637441617
 20
-67.48061023550646
 30
0.0
 41
1.5
 42
1.5
 43
1.5
  0
INSERT
  5
577
  8
回07-寸法
  6
CONTINUOUS
 62
     5
  2
_OPEN
 10
959.3130637441616
 20
-67.48061023550646
 30
0.0
 41
1.5
 42
1.5
 43
1.5
 50
180.0
  0
TEXT
  5
578
  8
回07-寸法
  6
CONTINUOUS
 62
     5
 10
962.2114889410118
 20
-66.78061023550647
 30
0.0
 40
4.0
  1
(5)
  0
POINT
  5
579
  8
DEFPOINTS
  6
CONTINUOUS
 62
     0
 10
954.3130637441617
 20
-102.3806102355065
 30
0.0
  0
POINT
  5
57A
  8
DEFPOINTS
  6
CONTINUOUS
 62
     0
 10
959.3130637441616
 20
-96.4806102355066
 30
0.0
  0
POINT
  5
57B
  8
DEFPOINTS
  6
CONTINUOUS
 62
     0
 10
959.3130637441616
 20
-67.48061023550646
 30
0.0
  0
ENDBLK
  5
57D
  8
0
  6
CONTINUOUS
 62
     5
  0
BLOCK
  8
0
  2
*D5757
 70
     1
 10
0.0
 20
0.0
 30
0.0
  3
*D5757
  1

  0
LINE
  5
57F
  8
回07-寸法
  6
CONTINUOUS
 62
     5
 10
952.2930637441616
 20
-104.3806102355065
 30
0.0
 11
952.2930637441616
 21
-75.48061023550649
 31
0.0
  0
LINE
  5
580
  8
回07-寸法
  6
CONTINUOUS
 62
     5
 10
959.3130637441616
 20
-96.4806102355066
 30
0.0
 11
959.3130637441616
 21
-75.48061023550649
 31
0.0
  0
LINE
  5
581
  8
回07-寸法
  6
CONTINUOUS
 62
     5
 10
960.8130637441616
 20
-76.48061023550646
 30
0.0
 11
974.9099141378623
 21
-76.48061023550646
 31
0.0
  0
LINE
  5
582
  8
回07-寸法
  6
CONTINUOUS
 62
     5
 10
952.2930637441616
 20
-76.48061023550646
 30
0.0
 11
959.3130637441616
 21
-76.48061023550646
 31
0.0
  0
LINE
  5
583
  8
回07-寸法
  6
CONTINUOUS
 62
     5
 10
950.7930637441617
 20
-76.48061023550646
 30
0.0
 11
949.2930637441617
 21
-76.48061023550646
 31
0.0
  0
INSERT
  5
584
  8
回07-寸法
  6
CONTINUOUS
 62
     5
  2
_OPEN
 10
952.2930637441616
 20
-76.48061023550646
 30
0.0
 41
1.5
 42
1.5
 43
1.5
  0
INSERT
  5
585
  8
回07-寸法
  6
CONTINUOUS
 62
     5
  2
_OPEN
 10
959.3130637441616
 20
-76.48061023550646
 30
0.0
 41
1.5
 42
1.5
 43
1.5
 50
180.0
  0
TEXT
  5
586
  8
回07-寸法
  6
CONTINUOUS
 62
     5
 10
962.2114889410118
 20
-75.78061023550647
 30
0.0
 40
4.0
  1
(7.02)
  0
POINT
  5
587
  8
DEFPOINTS
  6
CONTINUOUS
 62
     0
 10
952.2930637441616
 20
-104.3806102355065
 30
0.0
  0
POINT
  5
588
  8
DEFPOINTS
  6
CONTINUOUS
 62
     0
 10
959.3130637441616
 20
-96.4806102355066
 30
0.0
  0
POINT
  5
589
  8
DEFPOINTS
  6
CONTINUOUS
 62
     0
 10
959.3130637441616
 20
-76.48061023550646
 30
0.0
  0
ENDBLK
  5
58B
  8
0
  6
CONTINUOUS
 62
     5
  0
BLOCK
  8
0
  2
*D5858
 70
     1
 10
0.0
 20
0.0
 30
0.0
  3
*D5858
  1

  0
LINE
  5
58D
  8
回07-寸法
  6
CONTINUOUS
 62
     5
 10
733.3130637441615
 20
-102.3806102355064
 30
0.0
 11
733.3130637441615
 21
-66.48061023550646
 31
0.0
  0
LINE
  5
58E
  8
回07-寸法
  6
CONTINUOUS
 62
     5
 10
728.3130637441615
 20
-96.48061023550647
 30
0.0
 11
728.3130637441615
 21
-66.48061023550646
 31
0.0
  0
LINE
  5
58F
  8
回07-寸法
  6
CONTINUOUS
 62
     5
 10
726.8130637441617
 20
-67.48061023550646
 30
0.0
 11
722.630221031687
 21
-67.48061023550646
 31
0.0
  0
LINE
  5
590
  8
回07-寸法
  6
CONTINUOUS
 62
     5
 10
733.3130637441615
 20
-67.48061023550646
 30
0.0
 11
728.3130637441615
 21
-67.48061023550646
 31
0.0
  0
LINE
  5
591
  8
回07-寸法
  6
CONTINUOUS
 62
     5
 10
734.8130637441617
 20
-67.48061023550646
 30
0.0
 11
736.3130637441615
 21
-67.48061023550646
 31
0.0
  0
INSERT
  5
592
  8
回07-寸法
  6
CONTINUOUS
 62
     5
  2
_OPEN
 10
733.3130637441615
 20
-67.48061023550646
 30
0.0
 41
1.5
 42
1.5
 43
1.5
 50
180.0
  0
INSERT
  5
593
  8
回07-寸法
  6
CONTINUOUS
 62
     5
  2
_OPEN
 10
728.3130637441615
 20
-67.48061023550646
 30
0.0
 41
1.5
 42
1.5
 43
1.5
  0
TEXT
  5
594
  8
回07-寸法
  6
CONTINUOUS
 62
     5
 10
722.5302210316868
 20
-66.98061023550646
 30
0.0
 40
4.0
  1
5
  0
POINT
  5
595
  8
DEFPOINTS
  6
CONTINUOUS
 62
     0
 10
733.3130637441615
 20
-102.3806102355064
 30
0.0
  0
POINT
  5
596
  8
DEFPOINTS
  6
CONTINUOUS
 62
     0
 10
728.3130637441615
 20
-96.48061023550647
 30
0.0
  0
POINT
  5
597
  8
DEFPOINTS
  6
CONTINUOUS
 62
     0
 10
728.3130637441615
 20
-67.48061023550646
 30
0.0
  0
ENDBLK
  5
599
  8
0
  6
CONTINUOUS
 62
     5
  0
BLOCK
  8
0
  2
*D5959
 70
     1
 10
0.0
 20
0.0
 30
0.0
  3
*D5959
  1

  0
LINE
  5
59B
  8
回07-寸法
  6
CONTINUOUS
 62
     5
 10
735.3330637441615
 20
-104.3806102355075
 30
0.0
 11
735.3330637441615
 21
-75.48061023550649
 31
0.0
  0
LINE
  5
59C
  8
回07-寸法
  6
CONTINUOUS
 62
     5
 10
728.3130637441615
 20
-96.48061023550647
 30
0.0
 11
728.3130637441615
 21
-75.48061023550649
 31
0.0
  0
LINE
  5
59D
  8
回07-寸法
  6
CONTINUOUS
 62
     5
 10
726.8130637441617
 20
-76.48061023550646
 30
0.0
 11
715.7925033868049
 21
-76.48061023550646
 31
0.0
  0
LINE
  5
59E
  8
回07-寸法
  6
CONTINUOUS
 62
     5
 10
735.3330637441615
 20
-76.48061023550646
 30
0.0
 11
728.3130637441615
 21
-76.48061023550646
 31
0.0
  0
LINE
  5
59F
  8
回07-寸法
  6
CONTINUOUS
 62
     5
 10
736.8330637441617
 20
-76.48061023550646
 30
0.0
 11
738.3330637441615
 21
-76.48061023550646
 31
0.0
  0
INSERT
  5
5A0
  8
回07-寸法
  6
CONTINUOUS
 62
     5
  2
_OPEN
 10
735.3330637441615
 20
-76.48061023550646
 30
0.0
 41
1.5
 42
1.5
 43
1.5
 50
180.0
  0
INSERT
  5
5A1
  8
回07-寸法
  6
CONTINUOUS
 62
     5
  2
_OPEN
 10
728.3130637441615
 20
-76.48061023550646
 30
0.0
 41
1.5
 42
1.5
 43
1.5
  0
TEXT
  5
5A2
  8
回07-寸法
  6
CONTINUOUS
 62
     5
 10
715.6925033868048
 20
-75.98061023550648
 30
0.0
 40
4.0
  1
7.02
  0
POINT
  5
5A3
  8
DEFPOINTS
  6
CONTINUOUS
 62
     0
 10
735.3330637441615
 20
-104.3806102355075
 30
0.0
  0
POINT
  5
5A4
  8
DEFPOINTS
  6
CONTINUOUS
 62
     0
 10
728.3130637441615
 20
-96.48061023550647
 30
0.0
  0
POINT
  5
5A5
  8
DEFPOINTS
  6
CONTINUOUS
 62
     0
 10
728.3130637441615
 20
-76.48061023550646
 30
0.0
  0
ENDBLK
  5
5A7
  8
0
  6
CONTINUOUS
 62
     5
  0
BLOCK
  8
0
  2
*D6060
 70
     1
 10
0.0
 20
0.0
 30
0.0
  3
*D6060
  1

  0
LINE
  5
5A9
  8
回07-寸法
  6
CONTINUOUS
 62
     5
 10
954.8130637441616
 20
-101.8806102355065
 30
0.0
 11
954.8130637441616
 21
-57.48061023550647
 31
0.0
  0
LINE
  5
5AA
  8
回07-寸法
  6
CONTINUOUS
 62
     5
 10
959.3130637441616
 20
-96.4806102355066
 30
0.0
 11
959.3130637441616
 21
-57.48061023550647
 31
0.0
  0
LINE
  5
5AB
  8
回07-寸法
  6
CONTINUOUS
 62
     5
 10
960.8130637441616
 20
-58.48061023550648
 30
0.0
 11
1002.367807838649
 21
-58.48061023550648
 31
0.0
  0
LINE
  5
5AC
  8
回07-寸法
  6
CONTINUOUS
 62
     5
 10
954.8130637441616
 20
-58.48061023550648
 30
0.0
 11
959.3130637441616
 21
-58.48061023550648
 31
0.0
  0
LINE
  5
5AD
  8
回07-寸法
  6
CONTINUOUS
 62
     5
 10
953.3130637441617
 20
-58.48061023550648
 30
0.0
 11
951.8130637441617
 21
-58.48061023550648
 31
0.0
  0
INSERT
  5
5AE
  8
回07-寸法
  6
CONTINUOUS
 62
     5
  2
_OPEN
 10
954.8130637441616
 20
-58.48061023550648
 30
0.0
 41
1.5
 42
1.5
 43
1.5
  0
INSERT
  5
5AF
  8
回07-寸法
  6
CONTINUOUS
 62
     5
  2
_OPEN
 10
959.3130637441616
 20
-58.48061023550648
 30
0.0
 41
1.5
 42
1.5
 43
1.5
 50
180.0
  0
INSERT
  5
5B0
  8
回07-寸法
  6
CONTINUOUS
 62
     5
 66
     1
  2
*X106106
 10
0.0
 20
0.0
 30
0.0
  0
SEQEND
  5
863
  8
0
  6
CONTINUOUS
 62
     5
  0
POINT
  5
5B1
  8
DEFPOINTS
  6
CONTINUOUS
 62
     0
 10
954.8130637441616
 20
-101.8806102355065
 30
0.0
  0
POINT
  5
5B2
  8
DEFPOINTS
  6
CONTINUOUS
 62
     0
 10
959.3130637441616
 20
-96.4806102355066
 30
0.0
  0
POINT
  5
5B3
  8
DEFPOINTS
  6
CONTINUOUS
 62
     0
 10
959.3130637441616
 20
-58.48061023550648
 30
0.0
  0
ENDBLK
  5
5B5
  8
0
  6
CONTINUOUS
 62
     5
  0
BLOCK
  8
0
  2
*D6161
 70
     1
 10
0.0
 20
0.0
 30
0.0
  3
*D6161
  1

  0
LINE
  5
5B7
  8
回07-寸法
  6
CONTINUOUS
 62
     5
 10
732.8130637441615
 20
-101.8806102355064
 30
0.0
 11
732.8130637441615
 21
-57.48061023550647
 31
0.0
  0
LINE
  5
5B8
  8
回07-寸法
  6
CONTINUOUS
 62
     5
 10
728.3130637441615
 20
-96.48061023550647
 30
0.0
 11
728.3130637441615
 21
-57.48061023550647
 31
0.0
  0
LINE
  5
5B9
  8
回07-寸法
  6
CONTINUOUS
 62
     5
 10
726.8130637441617
 20
-58.48061023550648
 30
0.0
 11
688.4567448465237
 21
-58.48061023550648
 31
0.0
  0
LINE
  5
5BA
  8
回07-寸法
  6
CONTINUOUS
 62
     5
 10
732.8130637441615
 20
-58.48061023550648
 30
0.0
 11
728.3130637441615
 21
-58.48061023550648
 31
0.0
  0
LINE
  5
5BB
  8
回07-寸法
  6
CONTINUOUS
 62
     5
 10
734.3130637441617
 20
-58.48061023550648
 30
0.0
 11
735.8130637441615
 21
-58.48061023550648
 31
0.0
  0
INSERT
  5
5BC
  8
回07-寸法
  6
CONTINUOUS
 62
     5
  2
_OPEN
 10
732.8130637441615
 20
-58.48061023550648
 30
0.0
 41
1.5
 42
1.5
 43
1.5
 50
180.0
  0
INSERT
  5
5BD
  8
回07-寸法
  6
CONTINUOUS
 62
     5
  2
_OPEN
 10
728.3130637441615
 20
-58.48061023550648
 30
0.0
 41
1.5
 42
1.5
 43
1.5
  0
INSERT
  5
5BE
  8
回07-寸法
  6
CONTINUOUS
 62
     5
 66
     1
  2
*X107107
 10
0.0
 20
0.0
 30
0.0
  0
SEQEND
  5
869
  8
0
  6
CONTINUOUS
 62
     5
  0
POINT
  5
5BF
  8
DEFPOINTS
  6
CONTINUOUS
 62
     0
 10
732.8130637441615
 20
-101.8806102355064
 30
0.0
  0
POINT
  5
5C0
  8
DEFPOINTS
  6
CONTINUOUS
 62
     0
 10
728.3130637441615
 20
-96.48061023550647
 30
0.0
  0
POINT
  5
5C1
  8
DEFPOINTS
  6
CONTINUOUS
 62
     0
 10
728.3130637441615
 20
-58.48061023550648
 30
0.0
  0
ENDBLK
  5
5C3
  8
0
  6
CONTINUOUS
 62
     5
  0
BLOCK
  8
0
  2
*D6262
 70
     1
 10
0.0
 20
0.0
 30
0.0
  3
*D6262
  1

  0
LINE
  5
5C5
  8
回07-寸法
  6
CONTINUOUS
 62
     5
 10
732.8130637441615
 20
-101.8806102355064
 30
0.0
 11
685.3330637441615
 21
-101.8806102355064
 31
0.0
  0
LINE
  5
5C6
  8
回07-寸法
  6
CONTINUOUS
 62
     5
 10
732.8130637441615
 20
-242.4806102355065
 30
0.0
 11
685.3330637441615
 21
-242.4806102355065
 31
0.0
  0
LINE
  5
5C7
  8
回07-寸法
  6
CONTINUOUS
 62
     5
 10
686.3330637441615
 20
-103.3806102355064
 30
0.0
 11
686.3330637441615
 21
-240.9806102355065
 31
0.0
  0
INSERT
  5
5C8
  8
回07-寸法
  6
CONTINUOUS
 62
     5
  2
_OPEN
 10
686.3330637441615
 20
-101.8806102355064
 30
0.0
 41
1.5
 42
1.5
 43
1.5
 50
90.0
  0
INSERT
  5
5C9
  8
回07-寸法
  6
CONTINUOUS
 62
     5
  2
_OPEN
 10
686.3330637441615
 20
-242.4806102355065
 30
0.0
 41
1.5
 42
1.5
 43
1.5
 50
270.0
  0
TEXT
  5
5CA
  8
回07-寸法
  6
CONTINUOUS
 62
     5
 10
685.8330637441615
 20
-178.1822802923743
 30
0.0
 40
4.0
  1
140.6
 50
90.0
  0
POINT
  5
5CB
  8
DEFPOINTS
  6
CONTINUOUS
 62
     0
 10
732.8130637441615
 20
-101.8806102355064
 30
0.0
  0
POINT
  5
5CC
  8
DEFPOINTS
  6
CONTINUOUS
 62
     0
 10
732.8130637441615
 20
-242.4806102355065
 30
0.0
  0
POINT
  5
5CD
  8
DEFPOINTS
  6
CONTINUOUS
 62
     0
 10
686.3330637441615
 20
-242.4806102355065
 30
0.0
  0
ENDBLK
  5
5CF
  8
0
  6
CONTINUOUS
 62
     5
  0
BLOCK
  8
0
  2
*D6363
 70
     1
 10
0.0
 20
0.0
 30
0.0
  3
*D6363
  1

  0
LINE
  5
5D1
  8
回07-寸法
  6
CONTINUOUS
 62
     5
 10
733.3130637441615
 20
-102.3806102355064
 30
0.0
 11
695.3330637441617
 21
-102.3806102355064
 31
0.0
  0
LINE
  5
5D2
  8
回07-寸法
  6
CONTINUOUS
 62
     5
 10
733.3130637441615
 20
-241.9806102355065
 30
0.0
 11
695.3330637441617
 21
-241.9806102355065
 31
0.0
  0
LINE
  5
5D3
  8
回07-寸法
  6
CONTINUOUS
 62
     5
 10
696.3330637441615
 20
-103.8806102355064
 30
0.0
 11
696.3330637441615
 21
-240.4806102355065
 31
0.0
  0
INSERT
  5
5D4
  8
回07-寸法
  6
CONTINUOUS
 62
     5
  2
_OPEN
 10
696.3330637441615
 20
-102.3806102355064
 30
0.0
 41
1.5
 42
1.5
 43
1.5
 50
90.0
  0
INSERT
  5
5D5
  8
回07-寸法
  6
CONTINUOUS
 62
     5
  2
_OPEN
 10
696.3330637441615
 20
-241.9806102355065
 30
0.0
 41
1.5
 42
1.5
 43
1.5
 50
270.0
  0
TEXT
  5
5D6
  8
回07-寸法
  6
CONTINUOUS
 62
     5
 10
694.8330637441615
 20
-195.1870435709857
 30
0.0
 40
4.0
  1
139.6(Viewing area)
 50
90.0
  0
POINT
  5
5D7
  8
DEFPOINTS
  6
CONTINUOUS
 62
     0
 10
733.3130637441615
 20
-102.3806102355064
 30
0.0
  0
POINT
  5
5D8
  8
DEFPOINTS
  6
CONTINUOUS
 62
     0
 10
733.3130637441615
 20
-241.9806102355065
 30
0.0
  0
POINT
  5
5D9
  8
DEFPOINTS
  6
CONTINUOUS
 62
     0
 10
696.3330637441615
 20
-241.9806102355065
 30
0.0
  0
ENDBLK
  5
5DB
  8
0
  6
CONTINUOUS
 62
     5
  0
BLOCK
  8
0
  2
*D6464
 70
     1
 10
0.0
 20
0.0
 30
0.0
  3
*D6464
  1

  0
LINE
  5
5DD
  8
回07-寸法
  6
CONTINUOUS
 62
     5
 10
735.3330637441615
 20
-104.3806102355065
 30
0.0
 11
705.3330637441615
 21
-104.3806102355065
 31
0.0
  0
LINE
  5
5DE
  8
回07-寸法
  6
CONTINUOUS
 62
     5
 10
735.3330637441615
 20
-239.9806102355065
 30
0.0
 11
705.3330637441615
 21
-239.9806102355065
 31
0.0
  0
LINE
  5
5DF
  8
回07-寸法
  6
CONTINUOUS
 62
     5
 10
706.3330637441615
 20
-105.8806102355065
 30
0.0
 11
706.3330637441615
 21
-238.4806102355065
 31
0.0
  0
INSERT
  5
5E0
  8
回07-寸法
  6
CONTINUOUS
 62
     5
  2
_OPEN
 10
706.3330637441615
 20
-104.3806102355065
 30
0.0
 41
1.5
 42
1.5
 43
1.5
 50
90.0
  0
INSERT
  5
5E1
  8
回07-寸法
  6
CONTINUOUS
 62
     5
  2
_OPEN
 10
706.3330637441615
 20
-239.9806102355065
 30
0.0
 41
1.5
 42
1.5
 43
1.5
 50
270.0
  0
TEXT
  5
5E2
  8
回07-寸法
  6
CONTINUOUS
 62
     5
 10
705.6330637441615
 20
-193.7798228339317
 30
0.0
 40
4.0
  1
135.6(Active area)
 50
90.0
  0
POINT
  5
5E3
  8
DEFPOINTS
  6
CONTINUOUS
 62
     0
 10
735.3330637441615
 20
-104.3806102355065
 30
0.0
  0
POINT
  5
5E4
  8
DEFPOINTS
  6
CONTINUOUS
 62
     0
 10
735.3330637441615
 20
-239.9806102355065
 30
0.0
  0
POINT
  5
5E5
  8
DEFPOINTS
  6
CONTINUOUS
 62
     0
 10
706.3330637441615
 20
-239.9806102355065
 30
0.0
  0
ENDBLK
  5
5E7
  8
0
  6
CONTINUOUS
 62
     5
  0
BLOCK
  8
0
  2
*D6565
 70
     1
 10
0.0
 20
0.0
 30
0.0
  3
*D6565
  1

  0
LINE
  5
5E9
  8
回07-寸法
  6
CONTINUOUS
 62
     5
 10
728.3130637441615
 20
-96.48061023550647
 30
0.0
 11
675.3330637441615
 21
-96.48061023550647
 31
0.0
  0
LINE
  5
5EA
  8
回07-寸法
  6
CONTINUOUS
 62
     5
 10
728.3130637441615
 20
-252.6806102355066
 30
0.0
 11
675.3330637441615
 21
-252.6806102355066
 31
0.0
  0
LINE
  5
5EB
  8
回07-寸法
  6
CONTINUOUS
 62
     5
 10
676.3330637441615
 20
-97.98061023550648
 30
0.0
 11
676.3330637441615
 21
-251.1806102355066
 31
0.0
  0
INSERT
  5
5EC
  8
回07-寸法
  6
CONTINUOUS
 62
     5
  2
_OPEN
 10
676.3330637441615
 20
-96.48061023550647
 30
0.0
 41
1.5
 42
1.5
 43
1.5
 50
90.0
  0
INSERT
  5
5ED
  8
回07-寸法
  6
CONTINUOUS
 62
     5
  2
_OPEN
 10
676.3330637441615
 20
-252.6806102355066
 30
0.0
 41
1.5
 42
1.5
 43
1.5
 50
270.0
  0
INSERT
  5
5EE
  8
回07-寸法
  6
CONTINUOUS
 62
     5
 66
     1
  2
*X108108
 10
0.0
 20
0.0
 30
0.0
  0
SEQEND
  5
86F
  8
0
  6
CONTINUOUS
 62
     5
  0
POINT
  5
5EF
  8
DEFPOINTS
  6
CONTINUOUS
 62
     0
 10
728.3130637441615
 20
-96.48061023550647
 30
0.0
  0
POINT
  5
5F0
  8
DEFPOINTS
  6
CONTINUOUS
 62
     0
 10
728.3130637441615
 20
-252.6806102355066
 30
0.0
  0
POINT
  5
5F1
  8
DEFPOINTS
  6
CONTINUOUS
 62
     0
 10
676.3330637441615
 20
-252.6806102355066
 30
0.0
  0
ENDBLK
  5
5F3
  8
0
  6
CONTINUOUS
 62
     5
  0
BLOCK
  8
0
  2
*D6666
 70
     1
 10
0.0
 20
0.0
 30
0.0
  3
*D6666
  1

  0
LINE
  5
5F5
  8
回07-寸法
  6
CONTINUOUS
 62
     5
 10
735.3330637441615
 20
-104.3806102355065
 30
0.0
 11
735.3330637441615
 21
-75.48061023550649
 31
0.0
  0
LINE
  5
5F6
  8
回07-寸法
  6
CONTINUOUS
 62
     5
 10
952.2930637441614
 20
-104.3806102355056
 30
0.0
 11
952.2930637441614
 21
-75.48061023550649
 31
0.0
  0
LINE
  5
5F7
  8
回07-寸法
  6
CONTINUOUS
 62
     5
 10
736.8330637441617
 20
-76.48061023550646
 30
0.0
 11
950.7930637441614
 21
-76.48061023550646
 31
0.0
  0
INSERT
  5
5F8
  8
回07-寸法
  6
CONTINUOUS
 62
     5
  2
_OPEN
 10
735.3330637441615
 20
-76.48061023550646
 30
0.0
 41
1.5
 42
1.5
 43
1.5
 50
180.0
  0
INSERT
  5
5F9
  8
回07-寸法
  6
CONTINUOUS
 62
     5
  2
_OPEN
 10
952.2930637441614
 20
-76.48061023550646
 30
0.0
 41
1.5
 42
1.5
 43
1.5
  0
TEXT
  5
5FA
  8
回07-寸法
  6
CONTINUOUS
 62
     5
 10
820.8066304086823
 20
-75.78061023550647
 30
0.0
 40
4.0
  1
216.96(Active area)
  0
POINT
  5
5FB
  8
DEFPOINTS
  6
CONTINUOUS
 62
     0
 10
735.3330637441615
 20
-104.3806102355065
 30
0.0
  0
POINT
  5
5FC
  8
DEFPOINTS
  6
CONTINUOUS
 62
     0
 10
952.2930637441614
 20
-104.3806102355056
 30
0.0
  0
POINT
  5
5FD
  8
DEFPOINTS
  6
CONTINUOUS
 62
     0
 10
952.2930637441614
 20
-76.48061023550646
 30
0.0
  0
ENDBLK
  5
5FF
  8
0
  6
CONTINUOUS
 62
     5
  0
BLOCK
  8
0
  2
*D6767
 70
     1
 10
0.0
 20
0.0
 30
0.0
  3
*D6767
  1

  0
LINE
  5
601
  8
回07-寸法
  6
CONTINUOUS
 62
     5
 10
732.8130637441615
 20
-101.8806102355064
 30
0.0
 11
732.8130637441615
 21
-57.48061023550647
 31
0.0
  0
LINE
  5
602
  8
回07-寸法
  6
CONTINUOUS
 62
     5
 10
954.8130637441616
 20
-101.8806102355065
 30
0.0
 11
954.8130637441616
 21
-57.48061023550647
 31
0.0
  0
LINE
  5
603
  8
回07-寸法
  6
CONTINUOUS
 62
     5
 10
734.3130637441617
 20
-58.48061023550648
 30
0.0
 11
953.3130637441617
 21
-58.48061023550648
 31
0.0
  0
INSERT
  5
604
  8
回07-寸法
  6
CONTINUOUS
 62
     5
  2
_OPEN
 10
732.8130637441615
 20
-58.48061023550648
 30
0.0
 41
1.5
 42
1.5
 43
1.5
 50
180.0
  0
INSERT
  5
605
  8
回07-寸法
  6
CONTINUOUS
 62
     5
  2
_OPEN
 10
954.8130637441616
 20
-58.48061023550648
 30
0.0
 41
1.5
 42
1.5
 43
1.5
  0
TEXT
  5
606
  8
回07-寸法
  6
CONTINUOUS
 62
     5
 10
839.6126214970411
 20
-57.98061023550648
 30
0.0
 40
4.0
  1
222
  0
POINT
  5
607
  8
DEFPOINTS
  6
CONTINUOUS
 62
     0
 10
732.8130637441615
 20
-101.8806102355064
 30
0.0
  0
POINT
  5
608
  8
DEFPOINTS
  6
CONTINUOUS
 62
     0
 10
954.8130637441616
 20
-101.8806102355065
 30
0.0
  0
POINT
  5
609
  8
DEFPOINTS
  6
CONTINUOUS
 62
     0
 10
954.8130637441616
 20
-58.48061023550648
 30
0.0
  0
ENDBLK
  5
60B
  8
0
  6
CONTINUOUS
 62
     5
  0
BLOCK
  8
0
  2
*D6868
 70
     1
 10
0.0
 20
0.0
 30
0.0
  3
*D6868
  1

  0
LINE
  5
60D
  8
回07-寸法
  6
CONTINUOUS
 62
     5
 10
733.3130637441615
 20
-102.3806102355064
 30
0.0
 11
733.3130637441615
 21
-66.48061023550646
 31
0.0
  0
LINE
  5
60E
  8
回07-寸法
  6
CONTINUOUS
 62
     5
 10
954.3130637441617
 20
-102.3806102355065
 30
0.0
 11
954.3130637441617
 21
-66.48061023550646
 31
0.0
  0
LINE
  5
60F
  8
回07-寸法
  6
CONTINUOUS
 62
     5
 10
734.8130637441617
 20
-67.48061023550646
 30
0.0
 11
952.8130637441616
 21
-67.48061023550646
 31
0.0
  0
INSERT
  5
610
  8
回07-寸法
  6
CONTINUOUS
 62
     5
  2
_OPEN
 10
733.3130637441615
 20
-67.48061023550646
 30
0.0
 41
1.5
 42
1.5
 43
1.5
 50
180.0
  0
INSERT
  5
611
  8
回07-寸法
  6
CONTINUOUS
 62
     5
  2
_OPEN
 10
954.3130637441617
 20
-67.48061023550646
 30
0.0
 41
1.5
 42
1.5
 43
1.5
  0
TEXT
  5
612
  8
回07-寸法
  6
CONTINUOUS
 62
     5
 10
822.8138511457364
 20
-65.98061023550648
 30
0.0
 40
4.0
  1
221(Viewing area)
  0
POINT
  5
613
  8
DEFPOINTS
  6
CONTINUOUS
 62
     0
 10
733.3130637441615
 20
-102.3806102355064
 30
0.0
  0
POINT
  5
614
  8
DEFPOINTS
  6
CONTINUOUS
 62
     0
 10
954.3130637441617
 20
-102.3806102355065
 30
0.0
  0
POINT
  5
615
  8
DEFPOINTS
  6
CONTINUOUS
 62
     0
 10
954.3130637441617
 20
-67.48061023550646
 30
0.0
  0
ENDBLK
  5
617
  8
0
  6
CONTINUOUS
 62
     5
  0
BLOCK
  8
0
  2
*D6969
 70
     1
 10
0.0
 20
0.0
 30
0.0
  3
*D6969
  1

  0
LINE
  5
619
  8
回07-寸法
  6
CONTINUOUS
 62
     5
 10
728.3130637441615
 20
-96.48061023550647
 30
0.0
 11
728.3130637441615
 21
-48.48061023550648
 31
0.0
  0
LINE
  5
61A
  8
回07-寸法
  6
CONTINUOUS
 62
     5
 10
959.3130637441616
 20
-96.4806102355066
 30
0.0
 11
959.3130637441616
 21
-48.48061023550648
 31
0.0
  0
LINE
  5
61B
  8
回07-寸法
  6
CONTINUOUS
 62
     5
 10
729.8130637441617
 20
-49.48061023550646
 30
0.0
 11
957.8130637441617
 21
-49.48061023550646
 31
0.0
  0
INSERT
  5
61C
  8
回07-寸法
  6
CONTINUOUS
 62
     5
  2
_OPEN
 10
728.3130637441615
 20
-49.48061023550646
 30
0.0
 41
1.5
 42
1.5
 43
1.5
 50
180.0
  0
INSERT
  5
61D
  8
回07-寸法
  6
CONTINUOUS
 62
     5
  2
_OPEN
 10
959.3130637441616
 20
-49.48061023550646
 30
0.0
 41
1.5
 42
1.5
 43
1.5
  0
INSERT
  5
61E
  8
回07-寸法
  6
CONTINUOUS
 62
     5
 66
     1
  2
*X109109
 10
0.0
 20
0.0
 30
0.0
  0
SEQEND
  5
875
  8
0
  6
CONTINUOUS
 62
     5
  0
POINT
  5
61F
  8
DEFPOINTS
  6
CONTINUOUS
 62
     0
 10
728.3130637441615
 20
-96.48061023550647
 30
0.0
  0
POINT
  5
620
  8
DEFPOINTS
  6
CONTINUOUS
 62
     0
 10
959.3130637441616
 20
-96.4806102355066
 30
0.0
  0
POINT
  5
621
  8
DEFPOINTS
  6
CONTINUOUS
 62
     0
 10
959.3130637441616
 20
-49.48061023550646
 30
0.0
  0
ENDBLK
  5
623
  8
0
  6
CONTINUOUS
 62
     5
  0
BLOCK
  8
0
  2
*D7070
 70
     1
 10
0.0
 20
0.0
 30
0.0
  3
*D7070
  1

  0
LINE
  5
625
  8
回07-寸法
  6
CONTINUOUS
 62
     5
 10
733.3130637441615
 20
-241.9806102355065
 30
0.0
 11
695.3330637441617
 21
-241.9806102355065
 31
0.0
  0
LINE
  5
626
  8
回07-寸法
  6
CONTINUOUS
 62
     5
 10
728.3130637441615
 20
-252.6806102355066
 30
0.0
 11
695.3330637441617
 21
-252.6806102355066
 31
0.0
  0
LINE
  5
627
  8
回07-寸法
  6
CONTINUOUS
 62
     5
 10
696.3330637441615
 20
-254.1806102355066
 30
0.0
 11
696.3330637441615
 21
-264.3306102355065
 31
0.0
  0
LINE
  5
628
  8
回07-寸法
  6
CONTINUOUS
 62
     5
 10
696.3330637441615
 20
-241.9806102355065
 30
0.0
 11
696.3330637441615
 21
-252.6806102355066
 31
0.0
  0
LINE
  5
629
  8
回07-寸法
  6
CONTINUOUS
 62
     5
 10
696.3330637441615
 20
-240.4806102355065
 30
0.0
 11
696.3330637441615
 21
-238.9806102355065
 31
0.0
  0
INSERT
  5
62A
  8
回07-寸法
  6
CONTINUOUS
 62
     5
  2
_OPEN
 10
696.3330637441615
 20
-241.9806102355065
 30
0.0
 41
1.5
 42
1.5
 43
1.5
 50
270.0
  0
INSERT
  5
62B
  8
回07-寸法
  6
CONTINUOUS
 62
     5
  2
_OPEN
 10
696.3330637441615
 20
-252.6806102355066
 30
0.0
 41
1.5
 42
1.5
 43
1.5
 50
90.0
  0
TEXT
  5
62C
  8
回07-寸法
  6
CONTINUOUS
 62
     5
 10
695.8330637441616
 20
-264.4306102355065
 30
0.0
 40
4.0
  1
10.7
 50
90.0
  0
POINT
  5
62D
  8
DEFPOINTS
  6
CONTINUOUS
 62
     0
 10
733.3130637441615
 20
-241.9806102355065
 30
0.0
  0
POINT
  5
62E
  8
DEFPOINTS
  6
CONTINUOUS
 62
     0
 10
728.3130637441615
 20
-252.6806102355066
 30
0.0
  0
POINT
  5
62F
  8
DEFPOINTS
  6
CONTINUOUS
 62
     0
 10
696.3330637441615
 20
-252.6806102355066
 30
0.0
  0
ENDBLK
  5
631
  8
0
  6
CONTINUOUS
 62
     5
  0
BLOCK
  8
0
  2
*D7171
 70
     1
 10
0.0
 20
0.0
 30
0.0
  3
*D7171
  1

  0
LINE
  5
633
  8
回07-寸法
  6
CONTINUOUS
 62
     5
 10
1003.923256626398
 20
-352.6765618646954
 30
0.0
 11
1003.923256626398
 21
-364.0989465912296
 31
0.0
  0
LINE
  5
635
  8
回07-寸法
  6
CONTINUOUS
 62
     5
 10
1001.423256626398
 20
-352.6765618646954
 30
0.0
 11
1001.423256626398
 21
-364.0989465912296
 31
0.0
  0
LINE
  5
636
  8
回07-寸法
  6
CONTINUOUS
 62
     5
 10
999.923256626398
 20
-363.0989465912295
 30
0.0
 11
983.3534010200988
 21
-363.0989465912295
 31
0.0
  0
LINE
  5
637
  8
回07-寸法
  6
CONTINUOUS
 62
     5
 10
1003.923256626398
 20
-363.0989465912295
 30
0.0
 11
1001.423256626398
 21
-363.0989465912295
 31
0.0
  0
LINE
  5
638
  8
回07-寸法
  6
CONTINUOUS
 62
     5
 10
1005.423256626398
 20
-363.0989465912295
 30
0.0
 11
1006.923256626398
 21
-363.0989465912295
 31
0.0
  0
INSERT
  5
639
  8
回07-寸法
  6
CONTINUOUS
 62
     5
  2
_OPEN
 10
1003.923256626398
 20
-363.0989465912295
 30
0.0
 41
1.5
 42
1.5
 43
1.5
 50
180.0
  0
INSERT
  5
63A
  8
回07-寸法
  6
CONTINUOUS
 62
     5
  2
_OPEN
 10
1001.423256626398
 20
-363.0989465912295
 30
0.0
 41
1.5
 42
1.5
 43
1.5
  0
INSERT
  5
63B
  8
回07-寸法
  6
CONTINUOUS
 62
     5
 66
     1
  2
*X110110
 10
0.0
 20
0.0
 30
0.0
  0
SEQEND
  5
87B
  8
0
  6
CONTINUOUS
 62
     5
  0
POINT
  5
63C
  8
DEFPOINTS
  6
CONTINUOUS
 62
     0
 10
1003.923256626398
 20
-352.6765618646954
 30
0.0
  0
POINT
  5
63D
  8
DEFPOINTS
  6
CONTINUOUS
 62
     0
 10
1001.423256626398
 20
-352.6765618646954
 30
0.0
  0
POINT
  5
63E
  8
DEFPOINTS
  6
CONTINUOUS
 62
     0
 10
1001.423256626398
 20
-363.0989465912295
 30
0.0
  0
ENDBLK
  5
640
  8
0
  6
CONTINUOUS
 62
     5
  0
BLOCK
  8
0
  2
*D7272
 70
     1
 10
0.0
 20
0.0
 30
0.0
  3
*D7272
  1

  0
LINE
  5
642
  8
回07-寸法
  6
CONTINUOUS
 62
     5
 10
1003.923256626398
 20
-342.6765618646954
 30
0.0
 11
1008.678317095279
 21
-342.6765618646954
 31
0.0
  0
LINE
  5
643
  8
回07-寸法
  6
CONTINUOUS
 62
     5
 10
1003.923256626398
 20
-352.6765618646954
 30
0.0
 11
1008.678317095279
 21
-352.6765618646954
 31
0.0
  0
LINE
  5
644
  8
回07-寸法
  6
CONTINUOUS
 62
     5
 10
1007.678317095279
 20
-344.1765618646954
 30
0.0
 11
1007.678317095279
 21
-351.1765618646955
 31
0.0
  0
INSERT
  5
645
  8
回07-寸法
  6
CONTINUOUS
 62
     5
  2
_OPEN
 10
1007.678317095279
 20
-342.6765618646954
 30
0.0
 41
1.5
 42
1.5
 43
1.5
 50
90.0
  0
INSERT
  5
646
  8
回07-寸法
  6
CONTINUOUS
 62
     5
  2
_OPEN
 10
1007.678317095279
 20
-352.6765618646954
 30
0.0
 41
1.5
 42
1.5
 43
1.5
 50
270.0
  0
TEXT
  5
647
  8
回07-寸法
  6
CONTINUOUS
 62
     5
 10
1007.044983095279
 20
-350.3432418646953
 30
0.0
 40
2.666679999999999
  1
(10)
 50
90.0
  0
POINT
  5
648
  8
DEFPOINTS
  6
CONTINUOUS
 62
     0
 10
1003.923256626398
 20
-342.6765618646954
 30
0.0
  0
POINT
  5
649
  8
DEFPOINTS
  6
CONTINUOUS
 62
     0
 10
1003.923256626398
 20
-352.6765618646954
 30
0.0
  0
POINT
  5
64A
  8
DEFPOINTS
  6
CONTINUOUS
 62
     0
 10
1007.678317095279
 20
-352.6765618646954
 30
0.0
  0
ENDBLK
  5
64C
  8
0
  6
CONTINUOUS
 62
     5
  0
BLOCK
  8
0
  2
*D7373
 70
     1
 10
0.0
 20
0.0
 30
0.0
  3
*D7373
  1

  0
LINE
  5
64E
  8
回07-寸法
  6
CONTINUOUS
 62
     5
 10
997.423256626398
 20
-96.98061023550673
 30
0.0
 11
997.423256626398
 21
-84.97523487905723
 31
0.0
  0
LINE
  5
64F
  8
回07-寸法
  6
CONTINUOUS
 62
     5
 10
1018.316440845368
 20
-96.4806102355066
 30
0.0
 11
1018.316440845368
 21
-84.97523487905723
 31
0.0
  0
LINE
  5
650
  8
回07-寸法
  6
CONTINUOUS
 62
     5
 10
998.923256626398
 20
-85.97523487905723
 30
0.0
 11
1016.816440845368
 21
-85.97523487905723
 31
0.0
  0
INSERT
  5
651
  8
回07-寸法
  6
CONTINUOUS
 62
     5
  2
_OPEN
 10
997.423256626398
 20
-85.97523487905723
 30
0.0
 41
1.5
 42
1.5
 43
1.5
 50
180.0
  0
INSERT
  5
652
  8
回07-寸法
  6
CONTINUOUS
 62
     5
  2
_OPEN
 10
1018.316440845368
 20
-85.97523487905723
 30
0.0
 41
1.5
 42
1.5
 43
1.5
  0
INSERT
  5
653
  8
回07-寸法
  6
CONTINUOUS
 62
     5
 66
     1
  2
*X111111
 10
0.0
 20
0.0
 30
0.0
  0
SEQEND
  5
881
  8
0
  6
CONTINUOUS
 62
     5
  0
POINT
  5
654
  8
DEFPOINTS
  6
CONTINUOUS
 62
     0
 10
997.423256626398
 20
-96.98061023550673
 30
0.0
  0
POINT
  5
655
  8
DEFPOINTS
  6
CONTINUOUS
 62
     0
 10
1018.316440845368
 20
-96.4806102355066
 30
0.0
  0
POINT
  5
656
  8
DEFPOINTS
  6
CONTINUOUS
 62
     0
 10
1018.316440845368
 20
-85.97523487905723
 30
0.0
  0
ENDBLK
  5
658
  8
0
  6
CONTINUOUS
 62
     5
  0
BLOCK
  8
0
  2
*D7474
 70
     1
 10
0.0
 20
0.0
 30
0.0
  3
*D7474
  1

  0
LINE
  5
65A
  8
回07-寸法
  6
CONTINUOUS
 62
     5
 10
1008.816440845368
 20
-352.6765618646954
 30
0.0
 11
1008.816440845368
 21
-370.4041867624221
 31
0.0
  0
LINE
  5
65B
  8
回07-寸法
  6
CONTINUOUS
 62
     5
 10
1011.316440845368
 20
-352.6765618646954
 30
0.0
 11
1011.316440845368
 21
-370.4041867624221
 31
0.0
  0
LINE
  5
65C
  8
回07-寸法
  6
CONTINUOUS
 62
     5
 10
1012.816440845368
 20
-369.4041867624221
 30
0.0
 11
1029.386296451667
 21
-369.4041867624221
 31
0.0
  0
LINE
  5
65D
  8
回07-寸法
  6
CONTINUOUS
 62
     5
 10
1008.816440845368
 20
-369.4041867624221
 30
0.0
 11
1011.316440845368
 21
-369.4041867624221
 31
0.0
  0
LINE
  5
65E
  8
回07-寸法
  6
CONTINUOUS
 62
     5
 10
1007.316440845368
 20
-369.4041867624221
 30
0.0
 11
1005.816440845368
 21
-369.4041867624221
 31
0.0
  0
INSERT
  5
65F
  8
回07-寸法
  6
CONTINUOUS
 62
     5
  2
_OPEN
 10
1008.816440845368
 20
-369.4041867624221
 30
0.0
 41
1.5
 42
1.5
 43
1.5
  0
INSERT
  5
660
  8
回07-寸法
  6
CONTINUOUS
 62
     5
  2
_OPEN
 10
1011.316440845368
 20
-369.4041867624221
 30
0.0
 41
1.5
 42
1.5
 43
1.5
 50
180.0
  0
INSERT
  5
661
  8
回07-寸法
  6
CONTINUOUS
 62
     5
 66
     1
  2
*X112112
 10
0.0
 20
0.0
 30
0.0
  0
SEQEND
  5
887
  8
0
  6
CONTINUOUS
 62
     5
  0
POINT
  5
662
  8
DEFPOINTS
  6
CONTINUOUS
 62
     0
 10
1008.816440845368
 20
-352.6765618646954
 30
0.0
  0
POINT
  5
663
  8
DEFPOINTS
  6
CONTINUOUS
 62
     0
 10
1011.316440845368
 20
-352.6765618646954
 30
0.0
  0
POINT
  5
664
  8
DEFPOINTS
  6
CONTINUOUS
 62
     0
 10
1011.316440845368
 20
-369.4041867624221
 30
0.0
  0
ENDBLK
  5
666
  8
0
  6
CONTINUOUS
 62
     5
  0
BLOCK
  8
0
  2
*D7575
 70
     1
 10
0.0
 20
0.0
 30
0.0
  3
*D7575
  1

  0
LINE
  5
668
  8
回07-寸法
  6
CONTINUOUS
 62
     5
 10
1011.316440845368
 20
-352.6765618646954
 30
0.0
 11
1021.432079436052
 21
-352.6765618646954
 31
0.0
  0
LINE
  5
669
  8
回07-寸法
  6
CONTINUOUS
 62
     5
 10
1012.016440845368
 20
-347.6765618646954
 30
0.0
 11
1021.432079436052
 21
-347.6765618646954
 31
0.0
  0
LINE
  5
66A
  8
回07-寸法
  6
CONTINUOUS
 62
     5
 10
1020.432079436052
 20
-351.1765618646955
 30
0.0
 11
1020.432079436052
 21
-349.1765618646955
 31
0.0
  0
INSERT
  5
66B
  8
回07-寸法
  6
CONTINUOUS
 62
     5
  2
_OPEN
 10
1020.432079436052
 20
-352.6765618646954
 30
0.0
 41
1.5
 42
1.5
 43
1.5
 50
270.0
  0
INSERT
  5
66C
  8
回07-寸法
  6
CONTINUOUS
 62
     5
  2
_OPEN
 10
1020.432079436052
 20
-347.6765618646954
 30
0.0
 41
1.5
 42
1.5
 43
1.5
 50
90.0
  0
TEXT
  5
66D
  8
回07-寸法
  6
CONTINUOUS
 62
     5
 10
1019.932079436052
 20
-351.5765618646955
 30
0.0
 40
4.0
  1
5
 50
90.0
  0
POINT
  5
66E
  8
DEFPOINTS
  6
CONTINUOUS
 62
     0
 10
1011.316440845368
 20
-352.6765618646954
 30
0.0
  0
POINT
  5
66F
  8
DEFPOINTS
  6
CONTINUOUS
 62
     0
 10
1012.016440845368
 20
-347.6765618646954
 30
0.0
  0
POINT
  5
670
  8
DEFPOINTS
  6
CONTINUOUS
 62
     0
 10
1020.432079436052
 20
-347.6765618646954
 30
0.0
  0
ENDBLK
  5
672
  8
0
  6
CONTINUOUS
 62
     5
  0
BLOCK
  8
0
  2
*D7676
 70
     1
 10
0.0
 20
0.0
 30
0.0
  3
*D7676
  1

  0
LINE
  5
674
  8
回07-寸法
  6
CONTINUOUS
 62
     5
 10
1001.423256626398
 20
-352.6765618646954
 30
0.0
 11
992.5575386447675
 21
-352.6765618646954
 31
0.0
  0
LINE
  5
675
  8
回07-寸法
  6
CONTINUOUS
 62
     5
 10
1000.723256626398
 20
-347.6765618646954
 30
0.0
 11
992.5575386447675
 21
-347.6765618646954
 31
0.0
  0
LINE
  5
676
  8
回07-寸法
  6
CONTINUOUS
 62
     5
 10
993.5575386447677
 20
-351.1765618646955
 30
0.0
 11
993.5575386447677
 21
-349.1765618646955
 31
0.0
  0
INSERT
  5
677
  8
回07-寸法
  6
CONTINUOUS
 62
     5
  2
_OPEN
 10
993.5575386447677
 20
-352.6765618646954
 30
0.0
 41
1.5
 42
1.5
 43
1.5
 50
270.0
  0
INSERT
  5
678
  8
回07-寸法
  6
CONTINUOUS
 62
     5
  2
_OPEN
 10
993.5575386447677
 20
-347.6765618646954
 30
0.0
 41
1.5
 42
1.5
 43
1.5
 50
90.0
  0
TEXT
  5
679
  8
回07-寸法
  6
CONTINUOUS
 62
     5
 10
993.0575386447676
 20
-351.5765618646954
 30
0.0
 40
4.0
  1
5
 50
90.0
  0
POINT
  5
67A
  8
DEFPOINTS
  6
CONTINUOUS
 62
     0
 10
1001.423256626398
 20
-352.6765618646954
 30
0.0
  0
POINT
  5
67B
  8
DEFPOINTS
  6
CONTINUOUS
 62
     0
 10
1000.723256626398
 20
-347.6765618646954
 30
0.0
  0
POINT
  5
67C
  8
DEFPOINTS
  6
CONTINUOUS
 62
     0
 10
993.5575386447677
 20
-347.6765618646954
 30
0.0
  0
ENDBLK
  5
67E
  8
0
  6
CONTINUOUS
 62
     5
  0
BLOCK
  8
0
  2
*X7777
 70
     1
 10
0.0
 20
0.0
 30
0.0
  3
*X7777
  1

  0
TEXT
  5
683
  8
回08-記事
  6
CONTINUOUS
 62
     5
 10
789.1357925646815
 20
-285.612829665023
 30
0.0
 40
4.0
  1
･Part No. label
  0
TEXT
  5
684
  8
回08-記事
  6
CONTINUOUS
 62
     5
 10
789.1357925646815
 20
-292.2794963316897
 30
0.0
 40
4.0
  1
･Lot label
  0
ENDBLK
  5
686
  8
0
  6
CONTINUOUS
 62
     5
  0
BLOCK
  8
0
  2
*X7878
 70
     1
 10
0.0
 20
0.0
 30
0.0
  3
*X7878
  1

  0
INSERT
  5
689
  8
回08-記事
  6
CONTINUOUS
 62
     5
  2
_OPEN
 10
834.7121250572271
 20
-290.0144534091761
 30
0.0
 41
1.5
 42
1.5
 43
1.5
 50
19.88883671840717
  0
LINE
  5
68A
  8
回08-記事
  6
CONTINUOUS
 62
     5
 10
833.3015934161881
 20
-290.5247479218132
 30
0.0
 11
827.0691258980146
 21
-292.7794963316897
 31
0.0
  0
LINE
  5
68B
  8
回08-記事
  6
CONTINUOUS
 62
     5
 10
827.0691258980146
 20
-292.7794963316897
 30
0.0
 11
789.9357925646816
 21
-292.7794963316897
 31
0.0
  0
ENDBLK
  5
68D
  8
0
  6
CONTINUOUS
 62
     5
  0
BLOCK
  8
0
  2
*X7979
 70
     1
 10
0.0
 20
0.0
 30
0.0
  3
*X7979
  1

  0
INSERT
  5
690
  8
回08-記事
  6
CONTINUOUS
 62
     5
  2
_OPEN
 10
1009.851838752195
 20
-291.0477836600232
 30
0.0
 41
2.0
 42
2.0
 43
2.0
 50
340.8150911237184
  0
LINE
  5
691
  8
回08-記事
  6
CONTINUOUS
 62
     5
 10
1007.962912836999
 20
-290.3905478675555
 30
0.0
 11
996.3361527649905
 21
-286.3451150592679
 31
0.0
  0
LINE
  5
692
  8
回08-記事
  6
CONTINUOUS
 62
     5
 10
996.3361527649905
 20
-286.3451150592679
 30
0.0
 11
960.6361527649903
 21
-286.3451150592679
 31
0.0
  0
ENDBLK
  5
694
  8
0
  6
CONTINUOUS
 62
     5
  0
BLOCK
  8
0
  2
*X8080
 70
     1
 10
0.0
 20
0.0
 30
0.0
  3
*X8080
  1

  0
LINE
  5
71E
  8
回08-記事
  6
CONTINUOUS
 62
     7
 10
850.2199819557548
 20
-249.5331834044341
 30
0.0
 11
850.6725551246825
 21
-249.0806102355066
 31
0.0
1001
GRADIENTCOLOR1ACI
1070
     5
1001
GRADIENTCOLOR2ACI
1070
     2
1001
ACAD
1010
0.0
1020
0.0
1030
0.0
  0
LINE
  5
71F
  8
回08-記事
  6
CONTINUOUS
 62
     7
 10
850.2199819557548
 20
-251.7782474347015
 30
0.0
 11
852.9176191549495
 21
-249.0806102355067
 31
0.0
1001
GRADIENTCOLOR1ACI
1070
     5
1001
GRADIENTCOLOR2ACI
1070
     2
1001
ACAD
1010
0.0
1020
0.0
1030
0.0
  0
LINE
  5
720
  8
回08-記事
  6
CONTINUOUS
 62
     7
 10
850.2199819557548
 20
-254.0233114649687
 30
0.0
 11
855.1626831852168
 21
-249.0806102355066
 31
0.0
1001
GRADIENTCOLOR1ACI
1070
     5
1001
GRADIENTCOLOR2ACI
1070
     2
1001
ACAD
1010
0.0
1020
0.0
1030
0.0
  0
LINE
  5
721
  8
回08-記事
  6
CONTINUOUS
 62
     7
 10
850.2199819557548
 20
-256.268375495236
 30
0.0
 11
857.4077472154842
 21
-249.0806102355066
 31
0.0
1001
GRADIENTCOLOR1ACI
1070
     5
1001
GRADIENTCOLOR2ACI
1070
     2
1001
ACAD
1010
0.0
1020
0.0
1030
0.0
  0
LINE
  5
722
  8
回08-記事
  6
CONTINUOUS
 62
     7
 10
852.4528112457515
 20
-256.2806102355068
 30
0.0
 11
859.6528112457516
 21
-249.0806102355067
 31
0.0
1001
GRADIENTCOLOR1ACI
1070
     5
1001
GRADIENTCOLOR2ACI
1070
     2
1001
ACAD
1010
0.0
1020
0.0
1030
0.0
  0
LINE
  5
723
  8
回08-記事
  6
CONTINUOUS
 62
     7
 10
854.6978752760185
 20
-256.2806102355067
 30
0.0
 11
861.8978752760186
 21
-249.0806102355067
 31
0.0
1001
GRADIENTCOLOR1ACI
1070
     5
1001
GRADIENTCOLOR2ACI
1070
     2
1001
ACAD
1010
0.0
1020
0.0
1030
0.0
  0
LINE
  5
724
  8
回08-記事
  6
CONTINUOUS
 62
     7
 10
856.9429393062861
 20
-256.2806102355066
 30
0.0
 11
864.1429393062862
 21
-249.0806102355066
 31
0.0
1001
GRADIENTCOLOR1ACI
1070
     5
1001
GRADIENTCOLOR2ACI
1070
     2
1001
ACAD
1010
0.0
1020
0.0
1030
0.0
  0
LINE
  5
725
  8
回08-記事
  6
CONTINUOUS
 62
     7
 10
859.1880033365532
 20
-256.2806102355067
 30
0.0
 11
866.3880033365531
 21
-249.0806102355067
 31
0.0
1001
GRADIENTCOLOR1ACI
1070
     5
1001
GRADIENTCOLOR2ACI
1070
     2
1001
ACAD
1010
0.0
1020
0.0
1030
0.0
  0
LINE
  5
726
  8
回08-記事
  6
CONTINUOUS
 62
     7
 10
861.4330673668206
 20
-256.2806102355066
 30
0.0
 11
868.6330673668207
 21
-249.0806102355066
 31
0.0
1001
GRADIENTCOLOR1ACI
1070
     5
1001
GRADIENTCOLOR2ACI
1070
     2
1001
ACAD
1010
0.0
1020
0.0
1030
0.0
  0
LINE
  5
727
  8
回08-記事
  6
CONTINUOUS
 62
     7
 10
863.6781313970876
 20
-256.2806102355068
 30
0.0
 11
870.8781313970877
 21
-249.0806102355066
 31
0.0
1001
GRADIENTCOLOR1ACI
1070
     5
1001
GRADIENTCOLOR2ACI
1070
     2
1001
ACAD
1010
0.0
1020
0.0
1030
0.0
  0
LINE
  5
728
  8
回08-記事
  6
CONTINUOUS
 62
     7
 10
865.923195427355
 20
-256.2806102355066
 30
0.0
 11
873.1231954273551
 21
-249.0806102355066
 31
0.0
1001
GRADIENTCOLOR1ACI
1070
     5
1001
GRADIENTCOLOR2ACI
1070
     2
1001
ACAD
1010
0.0
1020
0.0
1030
0.0
  0
LINE
  5
729
  8
回08-記事
  6
CONTINUOUS
 62
     7
 10
868.1682594576221
 20
-256.2806102355067
 30
0.0
 11
875.3682594576224
 21
-249.0806102355067
 31
0.0
1001
GRADIENTCOLOR1ACI
1070
     5
1001
GRADIENTCOLOR2ACI
1070
     2
1001
ACAD
1010
0.0
1020
0.0
1030
0.0
  0
LINE
  5
72A
  8
回08-記事
  6
CONTINUOUS
 62
     7
 10
870.4133234878897
 20
-256.2806102355066
 30
0.0
 11
876.2199819557549
 21
-250.4739517676414
 31
0.0
1001
GRADIENTCOLOR1ACI
1070
     5
1001
GRADIENTCOLOR2ACI
1070
     2
1001
ACAD
1010
0.0
1020
0.0
1030
0.0
  0
LINE
  5
72B
  8
回08-記事
  6
CONTINUOUS
 62
     7
 10
872.6583875181569
 20
-256.2806102355066
 30
0.0
 11
876.2199819557549
 21
-252.7190157979087
 31
0.0
1001
GRADIENTCOLOR1ACI
1070
     5
1001
GRADIENTCOLOR2ACI
1070
     2
1001
ACAD
1010
0.0
1020
0.0
1030
0.0
  0
LINE
  5
72C
  8
回08-記事
  6
CONTINUOUS
 62
     7
 10
874.903451548424
 20
-256.2806102355066
 30
0.0
 11
876.2199819557549
 21
-254.9640798281759
 31
0.0
1001
GRADIENTCOLOR1ACI
1070
     5
1001
GRADIENTCOLOR2ACI
1070
     2
1001
ACAD
1010
0.0
1020
0.0
1030
0.0
  0
ENDBLK
  5
72E
  8
0
  6
CONTINUOUS
 62
     5
  0
BLOCK
  8
0
  2
*X8181
 70
     1
 10
0.0
 20
0.0
 30
0.0
  3
*X8181
  1

  0
LINE
  5
731
  8
回08-記事
  6
CONTINUOUS
 62
     7
 10
814.2199819557546
 20
-249.6121589201574
 30
0.0
 11
814.7515306404054
 21
-249.0806102355067
 31
0.0
1001
GRADIENTCOLOR1ACI
1070
     5
1001
GRADIENTCOLOR2ACI
1070
     2
1001
ACAD
1010
0.0
1020
0.0
1030
0.0
  0
LINE
  5
732
  8
回08-記事
  6
CONTINUOUS
 62
     7
 10
814.2199819557546
 20
-251.8572229504246
 30
0.0
 11
816.9965946706726
 21
-249.0806102355066
 31
0.0
1001
GRADIENTCOLOR1ACI
1070
     5
1001
GRADIENTCOLOR2ACI
1070
     2
1001
ACAD
1010
0.0
1020
0.0
1030
0.0
  0
LINE
  5
733
  8
回08-記事
  6
CONTINUOUS
 62
     7
 10
814.2199819557546
 20
-254.1022869806919
 30
0.0
 11
819.24165870094
 21
-249.0806102355066
 31
0.0
1001
GRADIENTCOLOR1ACI
1070
     5
1001
GRADIENTCOLOR2ACI
1070
     2
1001
ACAD
1010
0.0
1020
0.0
1030
0.0
  0
LINE
  5
734
  8
回08-記事
  6
CONTINUOUS
 62
     7
 10
814.2867227312073
 20
-256.2806102355066
 30
0.0
 11
821.4867227312074
 21
-249.0806102355066
 31
0.0
1001
GRADIENTCOLOR1ACI
1070
     5
1001
GRADIENTCOLOR2ACI
1070
     2
1001
ACAD
1010
0.0
1020
0.0
1030
0.0
  0
LINE
  5
735
  8
回08-記事
  6
CONTINUOUS
 62
     7
 10
816.5317867614746
 20
-256.2806102355066
 30
0.0
 11
823.7317867614747
 21
-249.0806102355066
 31
0.0
1001
GRADIENTCOLOR1ACI
1070
     5
1001
GRADIENTCOLOR2ACI
1070
     2
1001
ACAD
1010
0.0
1020
0.0
1030
0.0
  0
LINE
  5
736
  8
回08-記事
  6
CONTINUOUS
 62
     7
 10
818.7768507917418
 20
-256.2806102355067
 30
0.0
 11
825.9768507917419
 21
-249.0806102355067
 31
0.0
1001
GRADIENTCOLOR1ACI
1070
     5
1001
GRADIENTCOLOR2ACI
1070
     2
1001
ACAD
1010
0.0
1020
0.0
1030
0.0
  0
LINE
  5
737
  8
回08-記事
  6
CONTINUOUS
 62
     7
 10
821.0219148220092
 20
-256.2806102355066
 30
0.0
 11
828.2219148220091
 21
-249.0806102355067
 31
0.0
1001
GRADIENTCOLOR1ACI
1070
     5
1001
GRADIENTCOLOR2ACI
1070
     2
1001
ACAD
1010
0.0
1020
0.0
1030
0.0
  0
LINE
  5
738
  8
回08-記事
  6
CONTINUOUS
 62
     7
 10
823.2669788522763
 20
-256.2806102355066
 30
0.0
 11
830.4669788522765
 21
-249.0806102355066
 31
0.0
1001
GRADIENTCOLOR1ACI
1070
     5
1001
GRADIENTCOLOR2ACI
1070
     2
1001
ACAD
1010
0.0
1020
0.0
1030
0.0
  0
LINE
  5
739
  8
回08-記事
  6
CONTINUOUS
 62
     7
 10
825.5120428825438
 20
-256.2806102355066
 30
0.0
 11
832.7120428825436
 21
-249.0806102355067
 31
0.0
1001
GRADIENTCOLOR1ACI
1070
     5
1001
GRADIENTCOLOR2ACI
1070
     2
1001
ACAD
1010
0.0
1020
0.0
1030
0.0
  0
LINE
  5
73A
  8
回08-記事
  6
CONTINUOUS
 62
     7
 10
827.7571069128111
 20
-256.2806102355066
 30
0.0
 11
834.957106912811
 21
-249.0806102355067
 31
0.0
1001
GRADIENTCOLOR1ACI
1070
     5
1001
GRADIENTCOLOR2ACI
1070
     2
1001
ACAD
1010
0.0
1020
0.0
1030
0.0
  0
LINE
  5
73B
  8
回08-記事
  6
CONTINUOUS
 62
     7
 10
830.0021709430783
 20
-256.2806102355066
 30
0.0
 11
837.2021709430782
 21
-249.0806102355066
 31
0.0
1001
GRADIENTCOLOR1ACI
1070
     5
1001
GRADIENTCOLOR2ACI
1070
     2
1001
ACAD
1010
0.0
1020
0.0
1030
0.0
  0
LINE
  5
73C
  8
回08-記事
  6
CONTINUOUS
 62
     7
 10
832.2472349733457
 20
-256.2806102355065
 30
0.0
 11
839.4472349733458
 21
-249.0806102355066
 31
0.0
1001
GRADIENTCOLOR1ACI
1070
     5
1001
GRADIENTCOLOR2ACI
1070
     2
1001
ACAD
1010
0.0
1020
0.0
1030
0.0
  0
LINE
  5
73D
  8
回08-記事
  6
CONTINUOUS
 62
     7
 10
834.4922990036128
 20
-256.2806102355067
 30
0.0
 11
841.6922990036127
 21
-249.0806102355067
 31
0.0
1001
GRADIENTCOLOR1ACI
1070
     5
1001
GRADIENTCOLOR2ACI
1070
     2
1001
ACAD
1010
0.0
1020
0.0
1030
0.0
  0
LINE
  5
73E
  8
回08-記事
  6
CONTINUOUS
 62
     7
 10
836.7373630338803
 20
-256.2806102355066
 30
0.0
 11
843.9373630338803
 21
-249.0806102355066
 31
0.0
1001
GRADIENTCOLOR1ACI
1070
     5
1001
GRADIENTCOLOR2ACI
1070
     2
1001
ACAD
1010
0.0
1020
0.0
1030
0.0
  0
LINE
  5
73F
  8
回08-記事
  6
CONTINUOUS
 62
     7
 10
838.9824270641476
 20
-256.2806102355066
 30
0.0
 11
846.1824270641475
 21
-249.0806102355066
 31
0.0
1001
GRADIENTCOLOR1ACI
1070
     5
1001
GRADIENTCOLOR2ACI
1070
     2
1001
ACAD
1010
0.0
1020
0.0
1030
0.0
  0
LINE
  5
740
  8
回08-記事
  6
CONTINUOUS
 62
     7
 10
841.2274910944146
 20
-256.2806102355067
 30
0.0
 11
848.2199819557546
 21
-249.2881193741666
 31
0.0
1001
GRADIENTCOLOR1ACI
1070
     5
1001
GRADIENTCOLOR2ACI
1070
     2
1001
ACAD
1010
0.0
1020
0.0
1030
0.0
  0
LINE
  5
741
  8
回08-記事
  6
CONTINUOUS
 62
     7
 10
843.472555124682
 20
-256.2806102355067
 30
0.0
 11
848.2199819557546
 21
-251.5331834044339
 31
0.0
1001
GRADIENTCOLOR1ACI
1070
     5
1001
GRADIENTCOLOR2ACI
1070
     2
1001
ACAD
1010
0.0
1020
0.0
1030
0.0
  0
LINE
  5
742
  8
回08-記事
  6
CONTINUOUS
 62
     7
 10
845.7176191549491
 20
-256.2806102355066
 30
0.0
 11
848.2199819557546
 21
-253.7782474347011
 31
0.0
1001
GRADIENTCOLOR1ACI
1070
     5
1001
GRADIENTCOLOR2ACI
1070
     2
1001
ACAD
1010
0.0
1020
0.0
1030
0.0
  0
LINE
  5
743
  8
回08-記事
  6
CONTINUOUS
 62
     7
 10
847.9626831852167
 20
-256.2806102355067
 30
0.0
 11
848.2199819557546
 21
-256.0233114649685
 31
0.0
1001
GRADIENTCOLOR1ACI
1070
     5
1001
GRADIENTCOLOR2ACI
1070
     2
1001
ACAD
1010
0.0
1020
0.0
1030
0.0
  0
ENDBLK
  5
745
  8
0
  6
CONTINUOUS
 62
     5
  0
BLOCK
  8
0
  2
*X8282
 70
     1
 10
0.0
 20
0.0
 30
0.0
  3
*X8282
  1

  0
LINE
  5
756
  8
回08-記事
  6
CONTINUOUS
 62
     7
 10
834.0171081073796
 20
-278.4481795348504
 30
0.0
 11
834.6806901951724
 21
-277.7845974470575
 31
0.0
1001
GRADIENTCOLOR1ACI
1070
     5
1001
GRADIENTCOLOR2ACI
1070
     2
1001
ACAD
1010
0.0
1020
0.0
1030
0.0
  0
LINE
  5
757
  8
回08-記事
  6
CONTINUOUS
 62
     7
 10
834.0171081073798
 20
-280.6932435651176
 30
0.0
 11
836.9257542254397
 21
-277.7845974470574
 31
0.0
1001
GRADIENTCOLOR1ACI
1070
     5
1001
GRADIENTCOLOR2ACI
1070
     2
1001
ACAD
1010
0.0
1020
0.0
1030
0.0
  0
LINE
  5
758
  8
回08-記事
  6
CONTINUOUS
 62
     7
 10
834.0171081073796
 20
-282.9383075953849
 30
0.0
 11
838.5171081073798
 21
-278.4383075953848
 31
0.0
1001
GRADIENTCOLOR1ACI
1070
     5
1001
GRADIENTCOLOR2ACI
1070
     2
1001
ACAD
1010
0.0
1020
0.0
1030
0.0
  0
LINE
  5
759
  8
回08-記事
  6
CONTINUOUS
 62
     7
 10
834.0171081073796
 20
-285.1833716256522
 30
0.0
 11
838.5171081073798
 21
-280.683371625652
 31
0.0
1001
GRADIENTCOLOR1ACI
1070
     5
1001
GRADIENTCOLOR2ACI
1070
     2
1001
ACAD
1010
0.0
1020
0.0
1030
0.0
  0
LINE
  5
75A
  8
回08-記事
  6
CONTINUOUS
 62
     7
 10
834.0171081073792
 20
-287.4284356559195
 30
0.0
 11
838.5171081073796
 21
-282.9284356559194
 31
0.0
1001
GRADIENTCOLOR1ACI
1070
     5
1001
GRADIENTCOLOR2ACI
1070
     2
1001
ACAD
1010
0.0
1020
0.0
1030
0.0
  0
LINE
  5
75B
  8
回08-記事
  6
CONTINUOUS
 62
     7
 10
834.0171081073796
 20
-289.6734996861867
 30
0.0
 11
838.5171081073798
 21
-285.1734996861866
 31
0.0
1001
GRADIENTCOLOR1ACI
1070
     5
1001
GRADIENTCOLOR2ACI
1070
     2
1001
ACAD
1010
0.0
1020
0.0
1030
0.0
  0
LINE
  5
75C
  8
回08-記事
  6
CONTINUOUS
 62
     7
 10
834.0171081073792
 20
-291.9185637164541
 30
0.0
 11
838.5171081073796
 21
-287.418563716454
 31
0.0
1001
GRADIENTCOLOR1ACI
1070
     5
1001
GRADIENTCOLOR2ACI
1070
     2
1001
ACAD
1010
0.0
1020
0.0
1030
0.0
  0
LINE
  5
75D
  8
回08-記事
  6
CONTINUOUS
 62
     7
 10
834.0171081073796
 20
-294.1636277467212
 30
0.0
 11
838.5171081073798
 21
-289.6636277467211
 31
0.0
1001
GRADIENTCOLOR1ACI
1070
     5
1001
GRADIENTCOLOR2ACI
1070
     2
1001
ACAD
1010
0.0
1020
0.0
1030
0.0
  0
LINE
  5
75E
  8
回08-記事
  6
CONTINUOUS
 62
     7
 10
834.0171081073792
 20
-296.4086917769886
 30
0.0
 11
838.5171081073792
 21
-291.9086917769885
 31
0.0
1001
GRADIENTCOLOR1ACI
1070
     5
1001
GRADIENTCOLOR2ACI
1070
     2
1001
ACAD
1010
0.0
1020
0.0
1030
0.0
  0
LINE
  5
75F
  8
回08-記事
  6
CONTINUOUS
 62
     7
 10
834.0171081073796
 20
-298.6537558072557
 30
0.0
 11
838.5171081073796
 21
-294.1537558072557
 31
0.0
1001
GRADIENTCOLOR1ACI
1070
     5
1001
GRADIENTCOLOR2ACI
1070
     2
1001
ACAD
1010
0.0
1020
0.0
1030
0.0
  0
LINE
  5
760
  8
回08-記事
  6
CONTINUOUS
 62
     7
 10
834.0171081073792
 20
-300.8988198375231
 30
0.0
 11
838.5171081073792
 21
-296.3988198375231
 31
0.0
1001
GRADIENTCOLOR1ACI
1070
     5
1001
GRADIENTCOLOR2ACI
1070
     2
1001
ACAD
1010
0.0
1020
0.0
1030
0.0
  0
LINE
  5
761
  8
回08-記事
  6
CONTINUOUS
 62
     7
 10
834.0171081073792
 20
-303.1438838677903
 30
0.0
 11
838.5171081073798
 21
-298.6438838677901
 31
0.0
1001
GRADIENTCOLOR1ACI
1070
     5
1001
GRADIENTCOLOR2ACI
1070
     2
1001
ACAD
1010
0.0
1020
0.0
1030
0.0
  0
LINE
  5
762
  8
回08-記事
  6
CONTINUOUS
 62
     7
 10
835.6214585583796
 20
-303.7845974470575
 30
0.0
 11
838.5171081073792
 21
-300.8889478980576
 31
0.0
1001
GRADIENTCOLOR1ACI
1070
     5
1001
GRADIENTCOLOR2ACI
1070
     2
1001
ACAD
1010
0.0
1020
0.0
1030
0.0
  0
LINE
  5
763
  8
回08-記事
  6
CONTINUOUS
 62
     7
 10
837.8665225886466
 20
-303.7845974470575
 30
0.0
 11
838.5171081073796
 21
-303.1340119283247
 31
0.0
1001
GRADIENTCOLOR1ACI
1070
     5
1001
GRADIENTCOLOR2ACI
1070
     2
1001
ACAD
1010
0.0
1020
0.0
1030
0.0
  0
ENDBLK
  5
765
  8
0
  6
CONTINUOUS
 62
     5
  0
BLOCK
  8
0
  2
*X8383
 70
     1
 10
0.0
 20
0.0
 30
0.0
  3
*X8383
  1

  0
INSERT
  5
768
  8
回08-記事
  6
CONTINUOUS
 62
     5
  2
_OPEN
 10
1012.479873834578
 20
-291.2224596920183
 30
0.0
 41
2.0
 42
2.0
 43
2.0
 50
224.0506723783509
  0
LINE
  5
769
  8
回08-記事
  6
CONTINUOUS
 62
     5
 10
1013.917324161268
 20
-289.8318711265908
 30
0.0
 11
1017.521581216641
 21
-286.3451150592679
 31
0.0
  0
LINE
  5
76A
  8
回08-記事
  6
CONTINUOUS
 62
     5
 10
1017.521581216641
 20
-286.3451150592679
 30
0.0
 11
1040.821581216641
 21
-286.3451150592679
 31
0.0
  0
ENDBLK
  5
76C
  8
0
  6
CONTINUOUS
 62
     5
  0
BLOCK
  8
0
  2
*X8484
 70
     1
 10
0.0
 20
0.0
 30
0.0
  3
*X8484
  1

  0
LINE
  5
779
  8
回08-記事
  6
CONTINUOUS
 62
     7
 10
1012.016440845368
 20
-274.7486991024111
 30
0.0
 11
1012.716440845368
 21
-274.0486991024113
 31
0.0
1001
GRADIENTCOLOR1ACI
1070
     5
1001
GRADIENTCOLOR2ACI
1070
     2
1001
ACAD
1010
0.0
1020
0.0
1030
0.0
  0
LINE
  5
77A
  8
回08-記事
  6
CONTINUOUS
 62
     7
 10
1012.016440845368
 20
-276.0957375205715
 30
0.0
 11
1012.716440845368
 21
-275.3957375205714
 31
0.0
1001
GRADIENTCOLOR1ACI
1070
     5
1001
GRADIENTCOLOR2ACI
1070
     2
1001
ACAD
1010
0.0
1020
0.0
1030
0.0
  0
LINE
  5
77B
  8
回08-記事
  6
CONTINUOUS
 62
     7
 10
1012.016440845368
 20
-277.442775938732
 30
0.0
 11
1012.716440845368
 21
-276.7427759387319
 31
0.0
1001
GRADIENTCOLOR1ACI
1070
     5
1001
GRADIENTCOLOR2ACI
1070
     2
1001
ACAD
1010
0.0
1020
0.0
1030
0.0
  0
LINE
  5
77C
  8
回08-記事
  6
CONTINUOUS
 62
     7
 10
1012.016440845368
 20
-278.7898143568922
 30
0.0
 11
1012.716440845368
 21
-278.0898143568921
 31
0.0
1001
GRADIENTCOLOR1ACI
1070
     5
1001
GRADIENTCOLOR2ACI
1070
     2
1001
ACAD
1010
0.0
1020
0.0
1030
0.0
  0
LINE
  5
77D
  8
回08-記事
  6
CONTINUOUS
 62
     7
 10
1012.016440845368
 20
-280.1368527750524
 30
0.0
 11
1012.716440845368
 21
-279.4368527750525
 31
0.0
1001
GRADIENTCOLOR1ACI
1070
     5
1001
GRADIENTCOLOR2ACI
1070
     2
1001
ACAD
1010
0.0
1020
0.0
1030
0.0
  0
LINE
  5
77E
  8
回08-記事
  6
CONTINUOUS
 62
     7
 10
1012.016440845368
 20
-281.4838911932129
 30
0.0
 11
1012.716440845368
 21
-280.7838911932129
 31
0.0
1001
GRADIENTCOLOR1ACI
1070
     5
1001
GRADIENTCOLOR2ACI
1070
     2
1001
ACAD
1010
0.0
1020
0.0
1030
0.0
  0
LINE
  5
77F
  8
回08-記事
  6
CONTINUOUS
 62
     7
 10
1012.016440845368
 20
-282.8309296113732
 30
0.0
 11
1012.716440845368
 21
-282.1309296113731
 31
0.0
1001
GRADIENTCOLOR1ACI
1070
     5
1001
GRADIENTCOLOR2ACI
1070
     2
1001
ACAD
1010
0.0
1020
0.0
1030
0.0
  0
LINE
  5
780
  8
回08-記事
  6
CONTINUOUS
 62
     7
 10
1012.016440845368
 20
-284.1779680295334
 30
0.0
 11
1012.716440845368
 21
-283.4779680295331
 31
0.0
1001
GRADIENTCOLOR1ACI
1070
     5
1001
GRADIENTCOLOR2ACI
1070
     2
1001
ACAD
1010
0.0
1020
0.0
1030
0.0
  0
LINE
  5
781
  8
回08-記事
  6
CONTINUOUS
 62
     7
 10
1012.016440845368
 20
-285.5250064476938
 30
0.0
 11
1012.716440845368
 21
-284.8250064476937
 31
0.0
1001
GRADIENTCOLOR1ACI
1070
     5
1001
GRADIENTCOLOR2ACI
1070
     2
1001
ACAD
1010
0.0
1020
0.0
1030
0.0
  0
LINE
  5
782
  8
回08-記事
  6
CONTINUOUS
 62
     7
 10
1012.016440845368
 20
-286.872044865854
 30
0.0
 11
1012.716440845368
 21
-286.1720448658538
 31
0.0
1001
GRADIENTCOLOR1ACI
1070
     5
1001
GRADIENTCOLOR2ACI
1070
     2
1001
ACAD
1010
0.0
1020
0.0
1030
0.0
  0
LINE
  5
783
  8
回08-記事
  6
CONTINUOUS
 62
     7
 10
1012.016440845368
 20
-288.2190832840143
 30
0.0
 11
1012.716440845368
 21
-287.5190832840143
 31
0.0
1001
GRADIENTCOLOR1ACI
1070
     5
1001
GRADIENTCOLOR2ACI
1070
     2
1001
ACAD
1010
0.0
1020
0.0
1030
0.0
  0
LINE
  5
784
  8
回08-記事
  6
CONTINUOUS
 62
     7
 10
1012.016440845368
 20
-289.5661217021746
 30
0.0
 11
1012.716440845368
 21
-288.8661217021745
 31
0.0
1001
GRADIENTCOLOR1ACI
1070
     5
1001
GRADIENTCOLOR2ACI
1070
     2
1001
ACAD
1010
0.0
1020
0.0
1030
0.0
  0
LINE
  5
785
  8
回08-記事
  6
CONTINUOUS
 62
     7
 10
1012.016440845368
 20
-290.9131601203349
 30
0.0
 11
1012.716440845368
 21
-290.2131601203349
 31
0.0
1001
GRADIENTCOLOR1ACI
1070
     5
1001
GRADIENTCOLOR2ACI
1070
     2
1001
ACAD
1010
0.0
1020
0.0
1030
0.0
  0
LINE
  5
786
  8
回08-記事
  6
CONTINUOUS
 62
     7
 10
1012.016440845368
 20
-292.2601985384954
 30
0.0
 11
1012.716440845368
 21
-291.5601985384952
 31
0.0
1001
GRADIENTCOLOR1ACI
1070
     5
1001
GRADIENTCOLOR2ACI
1070
     2
1001
ACAD
1010
0.0
1020
0.0
1030
0.0
  0
LINE
  5
787
  8
回08-記事
  6
CONTINUOUS
 62
     7
 10
1012.016440845368
 20
-293.6072369566556
 30
0.0
 11
1012.716440845368
 21
-292.9072369566554
 31
0.0
1001
GRADIENTCOLOR1ACI
1070
     5
1001
GRADIENTCOLOR2ACI
1070
     2
1001
ACAD
1010
0.0
1020
0.0
1030
0.0
  0
LINE
  5
788
  8
回08-記事
  6
CONTINUOUS
 62
     7
 10
1012.016440845368
 20
-294.9542753748158
 30
0.0
 11
1012.716440845368
 21
-294.2542753748157
 31
0.0
1001
GRADIENTCOLOR1ACI
1070
     5
1001
GRADIENTCOLOR2ACI
1070
     2
1001
ACAD
1010
0.0
1020
0.0
1030
0.0
  0
LINE
  5
789
  8
回08-記事
  6
CONTINUOUS
 62
     7
 10
1012.016440845368
 20
-296.3013137929763
 30
0.0
 11
1012.716440845368
 21
-295.6013137929761
 31
0.0
1001
GRADIENTCOLOR1ACI
1070
     5
1001
GRADIENTCOLOR2ACI
1070
     2
1001
ACAD
1010
0.0
1020
0.0
1030
0.0
  0
LINE
  5
78A
  8
回08-記事
  6
CONTINUOUS
 62
     7
 10
1012.016440845368
 20
-297.6483522111365
 30
0.0
 11
1012.716440845368
 21
-296.9483522111365
 31
0.0
1001
GRADIENTCOLOR1ACI
1070
     5
1001
GRADIENTCOLOR2ACI
1070
     2
1001
ACAD
1010
0.0
1020
0.0
1030
0.0
  0
LINE
  5
78B
  8
回08-記事
  6
CONTINUOUS
 62
     7
 10
1012.016440845368
 20
-298.9953906292966
 30
0.0
 11
1012.716440845368
 21
-298.2953906292966
 31
0.0
1001
GRADIENTCOLOR1ACI
1070
     5
1001
GRADIENTCOLOR2ACI
1070
     2
1001
ACAD
1010
0.0
1020
0.0
1030
0.0
  0
LINE
  5
78C
  8
回08-記事
  6
CONTINUOUS
 62
     7
 10
1012.701627383526
 20
-299.6572425092988
 30
0.0
 11
1012.716440845368
 21
-299.6424290474572
 31
0.0
1001
GRADIENTCOLOR1ACI
1070
     5
1001
GRADIENTCOLOR2ACI
1070
     2
1001
ACAD
1010
0.0
1020
0.0
1030
0.0
  0
ENDBLK
  5
78E
  8
0
  6
CONTINUOUS
 62
     5
  0
BLOCK
  8
0
  2
*X8585
 70
     1
 10
0.0
 20
0.0
 30
0.0
  3
*X8585
  1

  0
LINE
  5
791
  8
回08-記事
  6
CONTINUOUS
 62
     7
 10
1002.423256626398
 20
-253.3599997036924
 30
0.0
 11
1003.402646094584
 21
-252.3806102355066
 31
0.0
1001
GRADIENTCOLOR1ACI
1070
     5
1001
GRADIENTCOLOR2ACI
1070
     2
1001
ACAD
1010
0.0
1020
0.0
1030
0.0
  0
LINE
  5
792
  8
回08-記事
  6
CONTINUOUS
 62
     7
 10
1002.423256626398
 20
-254.7070381218527
 30
0.0
 11
1003.123256626398
 21
-254.0070381218529
 31
0.0
1001
GRADIENTCOLOR1ACI
1070
     5
1001
GRADIENTCOLOR2ACI
1070
     2
1001
ACAD
1010
0.0
1020
0.0
1030
0.0
  0
LINE
  5
793
  8
回08-記事
  6
CONTINUOUS
 62
     7
 10
1003.749684512744
 20
-253.3806102355067
 30
0.0
 11
1004.749684512744
 21
-252.3806102355067
 31
0.0
1001
GRADIENTCOLOR1ACI
1070
     5
1001
GRADIENTCOLOR2ACI
1070
     2
1001
ACAD
1010
0.0
1020
0.0
1030
0.0
  0
LINE
  5
794
  8
回08-記事
  6
CONTINUOUS
 62
     7
 10
1002.423256626398
 20
-256.0540765400129
 30
0.0
 11
1003.123256626398
 21
-255.3540765400132
 31
0.0
1001
GRADIENTCOLOR1ACI
1070
     5
1001
GRADIENTCOLOR2ACI
1070
     2
1001
ACAD
1010
0.0
1020
0.0
1030
0.0
  0
LINE
  5
795
  8
回08-記事
  6
CONTINUOUS
 62
     7
 10
1005.096722930904
 20
-253.3806102355065
 30
0.0
 11
1006.096722930904
 21
-252.3806102355067
 31
0.0
1001
GRADIENTCOLOR1ACI
1070
     5
1001
GRADIENTCOLOR2ACI
1070
     2
1001
ACAD
1010
0.0
1020
0.0
1030
0.0
  0
LINE
  5
796
  8
回08-記事
  6
CONTINUOUS
 62
     7
 10
1006.443761349065
 20
-253.3806102355064
 30
0.0
 11
1007.443761349065
 21
-252.3806102355065
 31
0.0
1001
GRADIENTCOLOR1ACI
1070
     5
1001
GRADIENTCOLOR2ACI
1070
     2
1001
ACAD
1010
0.0
1020
0.0
1030
0.0
  0
LINE
  5
797
  8
回08-記事
  6
CONTINUOUS
 62
     7
 10
1007.790799767225
 20
-253.3806102355065
 30
0.0
 11
1008.790799767225
 21
-252.3806102355067
 31
0.0
1001
GRADIENTCOLOR1ACI
1070
     5
1001
GRADIENTCOLOR2ACI
1070
     2
1001
ACAD
1010
0.0
1020
0.0
1030
0.0
  0
LINE
  5
798
  8
回08-記事
  6
CONTINUOUS
 62
     7
 10
1009.137838185385
 20
-253.3806102355066
 30
0.0
 11
1010.137838185385
 21
-252.3806102355065
 31
0.0
1001
GRADIENTCOLOR1ACI
1070
     5
1001
GRADIENTCOLOR2ACI
1070
     2
1001
ACAD
1010
0.0
1020
0.0
1030
0.0
  0
LINE
  5
799
  8
回08-記事
  6
CONTINUOUS
 62
     7
 10
1012.016440845368
 20
-253.1960844118444
 30
0.0
 11
1012.531915021706
 21
-252.6806102355066
 31
0.0
1001
GRADIENTCOLOR1ACI
1070
     5
1001
GRADIENTCOLOR2ACI
1070
     2
1001
ACAD
1010
0.0
1020
0.0
1030
0.0
  0
LINE
  5
79A
  8
回08-記事
  6
CONTINUOUS
 62
     7
 10
1012.016440845368
 20
-254.5431228300047
 30
0.0
 11
1012.716440845368
 21
-253.8431228300046
 31
0.0
1001
GRADIENTCOLOR1ACI
1070
     5
1001
GRADIENTCOLOR2ACI
1070
     2
1001
ACAD
1010
0.0
1020
0.0
1030
0.0
  0
LINE
  5
79B
  8
回08-記事
  6
CONTINUOUS
 62
     7
 10
1013.178953439866
 20
-253.3806102355066
 30
0.0
 11
1013.878953439866
 21
-252.6806102355067
 31
0.0
1001
GRADIENTCOLOR1ACI
1070
     5
1001
GRADIENTCOLOR2ACI
1070
     2
1001
ACAD
1010
0.0
1020
0.0
1030
0.0
  0
LINE
  5
79C
  8
回08-記事
  6
CONTINUOUS
 62
     7
 10
1012.016440845368
 20
-255.890161248165
 30
0.0
 11
1012.716440845368
 21
-255.1901612481649
 31
0.0
1001
GRADIENTCOLOR1ACI
1070
     5
1001
GRADIENTCOLOR2ACI
1070
     2
1001
ACAD
1010
0.0
1020
0.0
1030
0.0
  0
LINE
  5
79D
  8
回08-記事
  6
CONTINUOUS
 62
     7
 10
1014.525991858027
 20
-253.3806102355064
 30
0.0
 11
1015.225991858026
 21
-252.6806102355066
 31
0.0
1001
GRADIENTCOLOR1ACI
1070
     5
1001
GRADIENTCOLOR2ACI
1070
     2
1001
ACAD
1010
0.0
1020
0.0
1030
0.0
  0
LINE
  5
79E
  8
回08-記事
  6
CONTINUOUS
 62
     7
 10
1018.316440845368
 20
-249.5901612481648
 30
0.0
 11
1018.825991858027
 21
-249.0806102355065
 31
0.0
1001
GRADIENTCOLOR1ACI
1070
     5
1001
GRADIENTCOLOR2ACI
1070
     2
1001
ACAD
1010
0.0
1020
0.0
1030
0.0
  0
LINE
  5
79F
  8
回08-記事
  6
CONTINUOUS
 62
     7
 10
1015.873030276187
 20
-253.3806102355064
 30
0.0
 11
1016.573030276187
 21
-252.6806102355067
 31
0.0
1001
GRADIENTCOLOR1ACI
1070
     5
1001
GRADIENTCOLOR2ACI
1070
     2
1001
ACAD
1010
0.0
1020
0.0
1030
0.0
  0
LINE
  5
7A0
  8
回08-記事
  6
CONTINUOUS
 62
     7
 10
1018.316440845368
 20
-250.9371996663252
 30
0.0
 11
1019.016440845368
 21
-250.2371996663253
 31
0.0
1001
GRADIENTCOLOR1ACI
1070
     5
1001
GRADIENTCOLOR2ACI
1070
     2
1001
ACAD
1010
0.0
1020
0.0
1030
0.0
  0
LINE
  5
7A1
  8
回08-記事
  6
CONTINUOUS
 62
     7
 10
1017.220068694347
 20
-253.3806102355066
 30
0.0
 11
1017.920068694347
 21
-252.6806102355068
 31
0.0
1001
GRADIENTCOLOR1ACI
1070
     5
1001
GRADIENTCOLOR2ACI
1070
     2
1001
ACAD
1010
0.0
1020
0.0
1030
0.0
  0
LINE
  5
7A2
  8
回08-記事
  6
CONTINUOUS
 62
     7
 10
1018.316440845368
 20
-252.2842380844855
 30
0.0
 11
1019.016440845368
 21
-251.5842380844855
 31
0.0
1001
GRADIENTCOLOR1ACI
1070
     5
1001
GRADIENTCOLOR2ACI
1070
     2
1001
ACAD
1010
0.0
1020
0.0
1030
0.0
  0
LINE
  5
7A3
  8
回08-記事
  6
CONTINUOUS
 62
     7
 10
1018.567107112507
 20
-253.3806102355066
 30
0.0
 11
1019.016440845368
 21
-252.9312765026461
 31
0.0
1001
GRADIENTCOLOR1ACI
1070
     5
1001
GRADIENTCOLOR2ACI
1070
     2
1001
ACAD
1010
0.0
1020
0.0
1030
0.0
  0
ENDBLK
  5
7A5
  8
0
  6
CONTINUOUS
 62
     5
  0
BLOCK
  8
0
  2
*X8686
 70
     1
 10
0.0
 20
0.0
 30
0.0
  3
*X8686
  1

  0
LINE
  5
7C6
  8
回08-記事
  6
CONTINUOUS
 62
     7
 10
1009.616440845368
 20
-274.7486991024112
 30
0.0
 11
1010.316440845368
 21
-274.0486991024111
 31
0.0
1001
GRADIENTCOLOR1ACI
1070
     5
1001
GRADIENTCOLOR2ACI
1070
     2
1001
ACAD
1010
0.0
1020
0.0
1030
0.0
  0
LINE
  5
7C7
  8
回08-記事
  6
CONTINUOUS
 62
     7
 10
1009.616440845368
 20
-276.0957375205715
 30
0.0
 11
1010.316440845368
 21
-275.3957375205714
 31
0.0
1001
GRADIENTCOLOR1ACI
1070
     5
1001
GRADIENTCOLOR2ACI
1070
     2
1001
ACAD
1010
0.0
1020
0.0
1030
0.0
  0
LINE
  5
7C8
  8
回08-記事
  6
CONTINUOUS
 62
     7
 10
1009.616440845368
 20
-277.4427759387319
 30
0.0
 11
1010.316440845368
 21
-276.7427759387317
 31
0.0
1001
GRADIENTCOLOR1ACI
1070
     5
1001
GRADIENTCOLOR2ACI
1070
     2
1001
ACAD
1010
0.0
1020
0.0
1030
0.0
  0
LINE
  5
7C9
  8
回08-記事
  6
CONTINUOUS
 62
     7
 10
1009.616440845368
 20
-278.789814356892
 30
0.0
 11
1010.316440845368
 21
-278.0898143568919
 31
0.0
1001
GRADIENTCOLOR1ACI
1070
     5
1001
GRADIENTCOLOR2ACI
1070
     2
1001
ACAD
1010
0.0
1020
0.0
1030
0.0
  0
LINE
  5
7CA
  8
回08-記事
  6
CONTINUOUS
 62
     7
 10
1009.616440845368
 20
-280.1368527750524
 30
0.0
 11
1010.316440845368
 21
-279.4368527750523
 31
0.0
1001
GRADIENTCOLOR1ACI
1070
     5
1001
GRADIENTCOLOR2ACI
1070
     2
1001
ACAD
1010
0.0
1020
0.0
1030
0.0
  0
LINE
  5
7CB
  8
回08-記事
  6
CONTINUOUS
 62
     7
 10
1009.616440845368
 20
-281.4838911932126
 30
0.0
 11
1010.316440845368
 21
-280.7838911932127
 31
0.0
1001
GRADIENTCOLOR1ACI
1070
     5
1001
GRADIENTCOLOR2ACI
1070
     2
1001
ACAD
1010
0.0
1020
0.0
1030
0.0
  0
LINE
  5
7CC
  8
回08-記事
  6
CONTINUOUS
 62
     7
 10
1009.616440845368
 20
-282.8309296113729
 30
0.0
 11
1010.316440845368
 21
-282.1309296113729
 31
0.0
1001
GRADIENTCOLOR1ACI
1070
     5
1001
GRADIENTCOLOR2ACI
1070
     2
1001
ACAD
1010
0.0
1020
0.0
1030
0.0
  0
LINE
  5
7CD
  8
回08-記事
  6
CONTINUOUS
 62
     7
 10
1009.616440845368
 20
-284.1779680295332
 30
0.0
 11
1010.316440845368
 21
-283.4779680295333
 31
0.0
1001
GRADIENTCOLOR1ACI
1070
     5
1001
GRADIENTCOLOR2ACI
1070
     2
1001
ACAD
1010
0.0
1020
0.0
1030
0.0
  0
LINE
  5
7CE
  8
回08-記事
  6
CONTINUOUS
 62
     7
 10
1009.616440845368
 20
-285.5250064476937
 30
0.0
 11
1010.316440845368
 21
-284.8250064476937
 31
0.0
1001
GRADIENTCOLOR1ACI
1070
     5
1001
GRADIENTCOLOR2ACI
1070
     2
1001
ACAD
1010
0.0
1020
0.0
1030
0.0
  0
LINE
  5
7CF
  8
回08-記事
  6
CONTINUOUS
 62
     7
 10
1009.616440845368
 20
-286.8720448658539
 30
0.0
 11
1010.316440845368
 21
-286.1720448658539
 31
0.0
1001
GRADIENTCOLOR1ACI
1070
     5
1001
GRADIENTCOLOR2ACI
1070
     2
1001
ACAD
1010
0.0
1020
0.0
1030
0.0
  0
LINE
  5
7D0
  8
回08-記事
  6
CONTINUOUS
 62
     7
 10
1009.616440845368
 20
-288.2190832840143
 30
0.0
 11
1010.316440845368
 21
-287.5190832840143
 31
0.0
1001
GRADIENTCOLOR1ACI
1070
     5
1001
GRADIENTCOLOR2ACI
1070
     2
1001
ACAD
1010
0.0
1020
0.0
1030
0.0
  0
LINE
  5
7D1
  8
回08-記事
  6
CONTINUOUS
 62
     7
 10
1009.616440845368
 20
-289.5661217021745
 30
0.0
 11
1010.316440845368
 21
-288.8661217021745
 31
0.0
1001
GRADIENTCOLOR1ACI
1070
     5
1001
GRADIENTCOLOR2ACI
1070
     2
1001
ACAD
1010
0.0
1020
0.0
1030
0.0
  0
LINE
  5
7D2
  8
回08-記事
  6
CONTINUOUS
 62
     7
 10
1009.616440845368
 20
-290.9131601203348
 30
0.0
 11
1010.316440845368
 21
-290.2131601203348
 31
0.0
1001
GRADIENTCOLOR1ACI
1070
     5
1001
GRADIENTCOLOR2ACI
1070
     2
1001
ACAD
1010
0.0
1020
0.0
1030
0.0
  0
LINE
  5
7D3
  8
回08-記事
  6
CONTINUOUS
 62
     7
 10
1009.616440845368
 20
-292.2601985384953
 30
0.0
 11
1010.316440845368
 21
-291.5601985384952
 31
0.0
1001
GRADIENTCOLOR1ACI
1070
     5
1001
GRADIENTCOLOR2ACI
1070
     2
1001
ACAD
1010
0.0
1020
0.0
1030
0.0
  0
LINE
  5
7D4
  8
回08-記事
  6
CONTINUOUS
 62
     7
 10
1009.616440845368
 20
-293.6072369566555
 30
0.0
 11
1010.316440845368
 21
-292.9072369566554
 31
0.0
1001
GRADIENTCOLOR1ACI
1070
     5
1001
GRADIENTCOLOR2ACI
1070
     2
1001
ACAD
1010
0.0
1020
0.0
1030
0.0
  0
LINE
  5
7D5
  8
回08-記事
  6
CONTINUOUS
 62
     7
 10
1009.616440845368
 20
-294.9542753748158
 30
0.0
 11
1010.316440845368
 21
-294.2542753748157
 31
0.0
1001
GRADIENTCOLOR1ACI
1070
     5
1001
GRADIENTCOLOR2ACI
1070
     2
1001
ACAD
1010
0.0
1020
0.0
1030
0.0
  0
LINE
  5
7D6
  8
回08-記事
  6
CONTINUOUS
 62
     7
 10
1009.616440845368
 20
-296.3013137929761
 30
0.0
 11
1010.316440845368
 21
-295.601313792976
 31
0.0
1001
GRADIENTCOLOR1ACI
1070
     5
1001
GRADIENTCOLOR2ACI
1070
     2
1001
ACAD
1010
0.0
1020
0.0
1030
0.0
  0
LINE
  5
7D7
  8
回08-記事
  6
CONTINUOUS
 62
     7
 10
1009.616440845368
 20
-297.6483522111365
 30
0.0
 11
1010.316440845368
 21
-296.9483522111364
 31
0.0
1001
GRADIENTCOLOR1ACI
1070
     5
1001
GRADIENTCOLOR2ACI
1070
     2
1001
ACAD
1010
0.0
1020
0.0
1030
0.0
  0
LINE
  5
7D8
  8
回08-記事
  6
CONTINUOUS
 62
     7
 10
1009.616440845368
 20
-298.9953906292968
 30
0.0
 11
1010.316440845368
 21
-298.2953906292968
 31
0.0
1001
GRADIENTCOLOR1ACI
1070
     5
1001
GRADIENTCOLOR2ACI
1070
     2
1001
ACAD
1010
0.0
1020
0.0
1030
0.0
  0
LINE
  5
7D9
  8
回08-記事
  6
CONTINUOUS
 62
     7
 10
1010.301627383526
 20
-299.6572425092988
 30
0.0
 11
1010.316440845368
 21
-299.642429047457
 31
0.0
1001
GRADIENTCOLOR1ACI
1070
     5
1001
GRADIENTCOLOR2ACI
1070
     2
1001
ACAD
1010
0.0
1020
0.0
1030
0.0
  0
ENDBLK
  5
7DB
  8
0
  6
CONTINUOUS
 62
     5
  0
BLOCK
  8
0
  2
*X8787
 70
     1
 10
0.0
 20
0.0
 30
0.0
  3
*X8787
  1

  0
TEXT
  5
7ED
  8
回07-寸法
  6
CONTINUOUS
 62
     5
 10
1012.046488538584
 20
-16.32353180937682
 30
0.0
 40
4.0
  1
2.1
  0
TEXT
  5
7EE
  8
回07-寸法
  6
CONTINUOUS
 62
     5
 10
1018.046488538584
 20
-16.32353180937682
 30
0.0
 40
2.0
  1
±0.2
  0
ENDBLK
  5
7F0
  8
0
  6
CONTINUOUS
 62
     5
  0
BLOCK
  8
0
  2
*X8888
 70
     1
 10
0.0
 20
0.0
 30
0.0
  3
*X8888
  1

  0
TEXT
  5
7F3
  8
回07-寸法
  6
CONTINUOUS
 62
     5
 10
992.9281828015337
 20
-293.4476372223365
 30
0.0
 40
4.0
  1
0.3
  0
TEXT
  5
7F4
  8
回07-寸法
  6
CONTINUOUS
 62
     5
 10
999.7281828015337
 20
-293.4476372223365
 30
0.0
 40
2.666679999999999
  1
±0.05
  0
ENDBLK
  5
7F6
  8
0
  6
CONTINUOUS
 62
     5
  0
BLOCK
  8
0
  2
*X8989
 70
     1
 10
0.0
 20
0.0
 30
0.0
  3
*X8989
  1

  0
TEXT
  5
7F9
  8
回07-寸法
  6
CONTINUOUS
 62
     5
 10
846.2899246704228
 20
20.17109283417394
 30
0.0
 40
4.0
  1
231
  0
TEXT
  5
7FA
  8
回07-寸法
  6
CONTINUOUS
 62
     5
 10
853.8899246704229
 20
20.17109283417394
 30
0.0
 40
2.799999999999998
  1
±0.3
  0
ENDBLK
  5
7FC
  8
0
  6
CONTINUOUS
 62
     5
  0
BLOCK
  8
0
  2
*X9090
 70
     1
 10
0.0
 20
0.0
 30
0.0
  3
*X9090
  1

  0
TEXT
  5
7FF
  8
回07-寸法
  6
CONTINUOUS
 62
     5
 10
685.5595309696354
 20
-114.6793008666134
 30
0.0
 40
4.0
  1
156.2
 50
90.0
  0
TEXT
  5
800
  8
回07-寸法
  6
CONTINUOUS
 62
     5
 10
685.5595309696354
 20
-103.0793008666134
 30
0.0
 40
2.799999999999998
  1
±0.3
 50
90.0
  0
ENDBLK
  5
802
  8
0
  6
CONTINUOUS
 62
     5
  0
BLOCK
  8
0
  2
*X9191
 70
     1
 10
0.0
 20
0.0
 30
0.0
  3
*X9191
  1

  0
TEXT
  5
805
  8
回07-寸法
  6
CONTINUOUS
 62
     5
 10
698.083605772785
 20
11.32069913338654
 30
0.0
 40
4.0
  1
4.5
  0
TEXT
  5
806
  8
回07-寸法
  6
CONTINUOUS
 62
     5
 10
705.2836057727851
 20
11.32069913338654
 30
0.0
 40
3.0
  1
(Insulation area)
  0
ENDBLK
  5
808
  8
0
  6
CONTINUOUS
 62
     5
  0
BLOCK
  8
0
  2
*X9292
 70
     1
 10
0.0
 20
0.0
 30
0.0
  3
*X9292
  1

  0
TEXT
  5
80B
  8
回07-寸法
  6
CONTINUOUS
 62
     5
 10
971.9383498672732
 20
11.37069913338653
 30
0.0
 40
4.0
  1
(4.5)
  0
TEXT
  5
80C
  8
回07-寸法
  6
CONTINUOUS
 62
     5
 10
982.3383498672733
 20
11.37069913338653
 30
0.0
 40
3.0
  1
(Insulation area)
  0
ENDBLK
  5
80E
  8
0
  6
CONTINUOUS
 62
     5
  0
BLOCK
  8
0
  2
*X9393
 70
     1
 10
0.0
 20
0.0
 30
0.0
  3
*X9393
  1

  0
TEXT
  5
811
  8
回07-寸法
  6
CONTINUOUS
 62
     5
 10
695.4095309696352
 20
-225.0856197642513
 30
0.0
 40
4.0
  1
10.2
 50
90.0
  0
TEXT
  5
812
  8
回07-寸法
  6
CONTINUOUS
 62
     5
 10
695.4095309696352
 20
-216.2856197642514
 30
0.0
 40
3.0
  1
(Insulation area)
 50
90.0
  0
ENDBLK
  5
814
  8
0
  6
CONTINUOUS
 62
     5
  0
BLOCK
  8
0
  2
*X9494
 70
     1
 10
0.0
 20
0.0
 30
0.0
  3
*X9494
  1

  0
TEXT
  5
817
  8
回07-寸法
  6
CONTINUOUS
 62
     5
 10
695.3599246704229
 20
-24.43087566976283
 30
0.0
 40
4.0
  1
(5.4)
 50
90.0
  0
TEXT
  5
818
  8
回07-寸法
  6
CONTINUOUS
 62
     5
 10
695.3599246704229
 20
-14.03087566976285
 30
0.0
 40
3.0
  1
(Insulation area)
 50
90.0
  0
ENDBLK
  5
81A
  8
0
  6
CONTINUOUS
 62
     5
  0
BLOCK
  8
0
  2
*X9595
 70
     1
 10
0.0
 20
0.0
 30
0.0
  3
*X9595
  1

  0
TEXT
  5
81D
  8
回07-寸法
  6
CONTINUOUS
 62
     5
 10
795.449070621622
 20
-239.0972766812077
 30
0.0
 40
4.0
  1
100
 50
90.0
  0
TEXT
  5
81E
  8
回07-寸法
  6
CONTINUOUS
 62
     5
 10
795.449070621622
 20
-231.4972766812077
 30
0.0
 40
2.799999999999998
  1
±1
 50
90.0
  0
ENDBLK
  5
820
  8
0
  6
CONTINUOUS
 62
     5
  0
BLOCK
  8
0
  2
*X9696
 70
     1
 10
0.0
 20
0.0
 30
0.0
  3
*X9696
  1

  0
TEXT
  5
823
  8
回07-寸法
  6
CONTINUOUS
 62
     5
 10
905.0140404917192
 20
-239.0972524958023
 30
0.0
 40
4.0
  1
100
 50
90.0
  0
TEXT
  5
824
  8
回07-寸法
  6
CONTINUOUS
 62
     5
 10
905.0140404917192
 20
-231.4972524958023
 30
0.0
 40
2.799999999999998
  1
±1
 50
90.0
  0
ENDBLK
  5
826
  8
0
  6
CONTINUOUS
 62
     5
  0
BLOCK
  8
0
  2
*X9797
 70
     1
 10
0.0
 20
0.0
 30
0.0
  3
*X9797
  1

  0
TEXT
  5
829
  8
回07-寸法
  6
CONTINUOUS
 62
     5
 10
838.3757175665675
 20
-298.0252524958022
 30
0.0
 40
4.0
  1
17.5
  0
TEXT
  5
82A
  8
回07-寸法
  6
CONTINUOUS
 62
     5
 10
847.1757175665675
 20
-298.0252524958022
 30
0.0
 40
2.799999999999998
  1
±0.1
  0
ENDBLK
  5
82C
  8
0
  6
CONTINUOUS
 62
     5
  0
BLOCK
  8
0
  2
*X9898
 70
     1
 10
0.0
 20
0.0
 30
0.0
  3
*X9898
  1

  0
TEXT
  5
82F
  8
回07-寸法
  6
CONTINUOUS
 62
     5
 10
882.5957175665676
 20
-307.0199727239401
 30
0.0
 40
4.0
  1
13.5
  0
TEXT
  5
830
  8
回07-寸法
  6
CONTINUOUS
 62
     5
 10
891.3957175665675
 20
-307.0199727239401
 30
0.0
 40
2.799999999999998
  1
±0.1
  0
ENDBLK
  5
832
  8
0
  6
CONTINUOUS
 62
     5
  0
BLOCK
  8
0
  2
*X9999
 70
     1
 10
0.0
 20
0.0
 30
0.0
  3
*X9999
  1

  0
TEXT
  5
835
  8
回07-寸法
  6
CONTINUOUS
 62
     5
 10
1024.001680129054
 20
-299.752877393529
 30
0.0
 40
4.0
  1
0.3
  0
TEXT
  5
836
  8
回07-寸法
  6
CONTINUOUS
 62
     5
 10
1030.801680129054
 20
-299.752877393529
 30
0.0
 40
2.666679999999999
  1
±0.05
  0
ENDBLK
  5
838
  8
0
  6
CONTINUOUS
 62
     5
  0
BLOCK
  8
0
  2
*X100100
 70
     1
 10
0.0
 20
0.0
 30
0.0
  3
*X100100
  1

  0
TEXT
  5
83B
  8
回07-寸法
  6
CONTINUOUS
 62
     5
 10
872.8688566403063
 20
-376.1712820928331
 30
0.0
 40
4.0
  1
13.5
  0
TEXT
  5
83C
  8
回07-寸法
  6
CONTINUOUS
 62
     5
 10
881.6688566403064
 20
-376.1712820928331
 30
0.0
 40
2.799999999999998
  1
±0.1
  0
ENDBLK
  5
83E
  8
0
  6
CONTINUOUS
 62
     5
  0
BLOCK
  8
0
  2
*X101101
 70
     1
 10
0.0
 20
0.0
 30
0.0
  3
*X101101
  1

  0
TEXT
  5
841
  8
回07-寸法
  6
CONTINUOUS
 62
     5
 10
828.6488566403061
 20
-367.1765618646952
 30
0.0
 40
4.0
  1
17.5
  0
TEXT
  5
842
  8
回07-寸法
  6
CONTINUOUS
 62
     5
 10
837.4488566403062
 20
-367.1765618646952
 30
0.0
 40
2.799999999999998
  1
±0.1
  0
ENDBLK
  5
844
  8
0
  6
CONTINUOUS
 62
     5
  0
BLOCK
  8
0
  2
*X102102
 70
     1
 10
0.0
 20
0.0
 30
0.0
  3
*X102102
  1

  0
TEXT
  5
847
  8
回07-寸法
  6
CONTINUOUS
 62
     5
 10
895.2871795654578
 20
-308.2485618646954
 30
0.0
 40
4.0
  1
100
 50
90.0
  0
TEXT
  5
848
  8
回07-寸法
  6
CONTINUOUS
 62
     5
 10
895.2871795654578
 20
-300.6485618646954
 30
0.0
 40
2.799999999999998
  1
±1
 50
90.0
  0
ENDBLK
  5
84A
  8
0
  6
CONTINUOUS
 62
     5
  0
BLOCK
  8
0
  2
*X103103
 70
     1
 10
0.0
 20
0.0
 30
0.0
  3
*X103103
  1

  0
TEXT
  5
84D
  8
回07-寸法
  6
CONTINUOUS
 62
     5
 10
785.7222096953607
 20
-308.2485860501009
 30
0.0
 40
4.0
  1
100
 50
90.0
  0
TEXT
  5
84E
  8
回07-寸法
  6
CONTINUOUS
 62
     5
 10
785.7222096953607
 20
-300.6485860501009
 30
0.0
 40
2.799999999999998
  1
±1
 50
90.0
  0
ENDBLK
  5
850
  8
0
  6
CONTINUOUS
 62
     5
  0
BLOCK
  8
0
  2
*X104104
 70
     1
 10
0.0
 20
0.0
 30
0.0
  3
*X104104
  1

  0
TEXT
  5
853
  8
回07-寸法
  6
CONTINUOUS
 62
     5
 10
685.6330637441615
 20
-93.582185038656
 30
0.0
 40
4.0
  1
(5.4)
 50
90.0
  0
TEXT
  5
854
  8
回07-寸法
  6
CONTINUOUS
 62
     5
 10
685.6330637441615
 20
-83.18218503865603
 30
0.0
 40
3.0
  1
(Insulation area)
 50
90.0
  0
ENDBLK
  5
856
  8
0
  6
CONTINUOUS
 62
     5
  0
BLOCK
  8
0
  2
*X105105
 70
     1
 10
0.0
 20
0.0
 30
0.0
  3
*X105105
  1

  0
TEXT
  5
859
  8
回07-寸法
  6
CONTINUOUS
 62
     5
 10
685.6830637441613
 20
-294.2369291331445
 30
0.0
 40
4.0
  1
10.2
 50
90.0
  0
TEXT
  5
85A
  8
回07-寸法
  6
CONTINUOUS
 62
     5
 10
685.6830637441613
 20
-285.4369291331445
 30
0.0
 40
3.0
  1
(Insulation area)
 50
90.0
  0
ENDBLK
  5
85C
  8
0
  6
CONTINUOUS
 62
     5
  0
BLOCK
  8
0
  2
*X106106
 70
     1
 10
0.0
 20
0.0
 30
0.0
  3
*X106106
  1

  0
TEXT
  5
85F
  8
回07-寸法
  6
CONTINUOUS
 62
     5
 10
962.2114889410118
 20
-57.78061023550646
 30
0.0
 40
4.0
  1
(4.5)
  0
TEXT
  5
860
  8
回07-寸法
  6
CONTINUOUS
 62
     5
 10
972.6114889410119
 20
-57.78061023550646
 30
0.0
 40
3.0
  1
(Insulation area)
  0
ENDBLK
  5
862
  8
0
  6
CONTINUOUS
 62
     5
  0
BLOCK
  8
0
  2
*X107107
 70
     1
 10
0.0
 20
0.0
 30
0.0
  3
*X107107
  1

  0
TEXT
  5
865
  8
回07-寸法
  6
CONTINUOUS
 62
     5
 10
688.3567448465237
 20
-57.83061023550647
 30
0.0
 40
4.0
  1
4.5
  0
TEXT
  5
866
  8
回07-寸法
  6
CONTINUOUS
 62
     5
 10
695.5567448465237
 20
-57.83061023550647
 30
0.0
 40
3.0
  1
(Insulation area)
  0
ENDBLK
  5
868
  8
0
  6
CONTINUOUS
 62
     5
  0
BLOCK
  8
0
  2
*X108108
 70
     1
 10
0.0
 20
0.0
 30
0.0
  3
*X108108
  1

  0
TEXT
  5
86B
  8
回07-寸法
  6
CONTINUOUS
 62
     5
 10
675.8330637441615
 20
-183.8306102355066
 30
0.0
 40
4.0
  1
156.2
 50
90.0
  0
TEXT
  5
86C
  8
回07-寸法
  6
CONTINUOUS
 62
     5
 10
675.8330637441615
 20
-172.2306102355065
 30
0.0
 40
2.799999999999998
  1
±0.3
 50
90.0
  0
ENDBLK
  5
86E
  8
0
  6
CONTINUOUS
 62
     5
  0
BLOCK
  8
0
  2
*X109109
 70
     1
 10
0.0
 20
0.0
 30
0.0
  3
*X109109
  1

  0
TEXT
  5
871
  8
回07-寸法
  6
CONTINUOUS
 62
     5
 10
836.5630637441615
 20
-48.98061023550646
 30
0.0
 40
4.0
  1
231
  0
TEXT
  5
872
  8
回07-寸法
  6
CONTINUOUS
 62
     5
 10
844.1630637441615
 20
-48.98061023550646
 30
0.0
 40
2.799999999999998
  1
±0.3
  0
ENDBLK
  5
874
  8
0
  6
CONTINUOUS
 62
     5
  0
BLOCK
  8
0
  2
*X110110
 70
     1
 10
0.0
 20
0.0
 30
0.0
  3
*X110110
  1

  0
TEXT
  5
877
  8
回07-寸法
  6
CONTINUOUS
 62
     5
 10
983.256550626398
 20
-362.5989465912295
 30
0.0
 40
4.0
  1
0.3
  0
TEXT
  5
878
  8
回07-寸法
  6
CONTINUOUS
 62
     5
 10
990.056550626398
 20
-362.5989465912295
 30
0.0
 40
2.666679999999999
  1
±0.05
  0
ENDBLK
  5
87A
  8
0
  6
CONTINUOUS
 62
     5
  0
BLOCK
  8
0
  2
*X111111
 70
     1
 10
0.0
 20
0.0
 30
0.0
  3
*X111111
  1

  0
TEXT
  5
87D
  8
回07-寸法
  6
CONTINUOUS
 62
     5
 10
1002.319627612323
 20
-85.47523487905724
 30
0.0
 40
4.0
  1
2.1
  0
TEXT
  5
87E
  8
回07-寸法
  6
CONTINUOUS
 62
     5
 10
1008.319627612323
 20
-85.47523487905724
 30
0.0
 40
2.0
  1
±0.2
  0
ENDBLK
  5
880
  8
0
  6
CONTINUOUS
 62
     5
  0
BLOCK
  8
0
  2
*X112112
 70
     1
 10
0.0
 20
0.0
 30
0.0
  3
*X112112
  1

  0
TEXT
  5
883
  8
回07-寸法
  6
CONTINUOUS
 62
     5
 10
1014.219590451667
 20
-368.904186762422
 30
0.0
 40
4.0
  1
0.3
  0
TEXT
  5
884
  8
回07-寸法
  6
CONTINUOUS
 62
     5
 10
1021.019590451667
 20
-368.904186762422
 30
0.0
 40
2.666679999999999
  1
±0.05
  0
ENDBLK
  5
886
  8
0
  6
CONTINUOUS
 62
     5
  0
ENDSEC
  0
SECTION
  2
ENTITIES
  0
TEXT
  5
5C
  8
回03-記事
  6
CONTINUOUS
 62
     5
 10
897.4734225288878
 20
-402.2730792396223
 30
0.0
 40
3.839999999999999
  1
without affecting product specification.
  0
TEXT
  5
5E
  8
回03-記事
  6
CONTINUOUS
 62
     5
 10
897.4734225288878
 20
-395.5373146682625
 30
0.0
 40
3.839999999999999
  1
Edges and corners of ITO glass may be chamfered 
  0
TEXT
  5
5F
  8
回03-記事
  6
CONTINUOUS
 62
     5
 10
897.4734225288878
 20
-388.8015500969027
 30
0.0
 40
3.839999999999999
  1
Unit: mm
  0
TEXT
  5
60
  8
回03-記事
  6
CONTINUOUS
 62
     5
 10
897.4734225288878
 20
-382.0657855255428
 30
0.0
 40
3.839999999999999
  1
EXCEPT WHERE INDICATED
  0
TEXT
  5
61
  8
回03-記事
  6
CONTINUOUS
 62
     5
 10
897.4734225288878
 20
-375.3300209541831
 30
0.0
 40
3.839999999999999
  1
TOLERANCE=±0.5mm
  0
TEXT
  5
62
  8
回08-記事
  6
CONTINUOUS
 62
     5
 10
955.8730007266486
 20
-291.2417237680458
 30
0.0
 40
4.0
  1
MTR-G101WB100B
  0
TEXT
  5
66
  8
回08-記事
  6
CONTINUOUS
 62
     7
 10
870.9950951786865
 20
-359.768878483096
 30
0.0
 40
2.5
  1
(Conductor side near side)
  0
TEXT
  5
67
  8
回08-記事
  6
CONTINUOUS
 62
     7
 10
792.4294242701177
 20
-359.8855056988127
 30
0.0
 40
2.5
  1
(Conductor side far side)
 41
0.9
  0
TEXT
  5
68
  8
回08-記事
  6
CONTINUOUS
 62
     7
 10
871.8116547174746
 20
-356.5691362004685
 30
0.0
 40
2.399999999999999
  1
Tail-1
  0
TEXT
  5
69
  8
回08-記事
  6
CONTINUOUS
 62
     7
 10
815.9993706684886
 20
-356.577725658842
 30
0.0
 40
2.399999999999999
  1
Tail-2
  0
TEXT
  5
6A
  8
回08-記事
  6
CONTINUOUS
 62
     7
 10
1103.268236687971
 20
-369.695371762782
 30
0.0
 40
4.5
  1
PROTECTION TAPE
  0
TEXT
  5
6B
  8
回08-記事
  6
CONTINUOUS
 62
     7
 10
1095.010690259707
 20
-369.6184430211058
 30
0.0
 40
4.679999999999999
  1
6
  0
LINE
  5
6C
  8
回08-記事
  6
CONTINUOUS
 62
     7
 10
1092.619652892202
 20
-370.9622045826427
 30
0.0
 11
1186.713465747363
 21
-370.9622045826427
 31
0.0
  0
TEXT
  5
6D
  8
回08-記事
  6
CONTINUOUS
 62
     7
 10
1102.965726861661
 20
-362.2663628329927
 30
0.0
 40
4.679999999999999
  1
STIFFENER
  0
TEXT
  5
6E
  8
回08-記事
  6
CONTINUOUS
 62
     7
 10
1102.965726861661
 20
-354.4663628329927
 30
0.0
 40
4.679999999999999
  1
REINFORCEMENT FILM
  0
LINE
  5
6F
  8
回08-記事
  6
CONTINUOUS
 62
     7
 10
1186.713465747363
 20
-370.9622045826427
 30
0.0
 11
1186.713465747363
 21
-324.1622045826427
 31
0.0
  0
TEXT
  5
70
  8
回08-記事
  6
CONTINUOUS
 62
     7
 10
1095.010690259707
 20
-346.2184430211058
 30
0.0
 40
4.679999999999999
  1
3
  0
TEXT
  5
71
  8
回08-記事
  6
CONTINUOUS
 62
     7
 10
1095.010690259707
 20
-354.0184430211056
 30
0.0
 40
4.679999999999999
  1
4
  0
TEXT
  5
72
  8
回08-記事
  6
CONTINUOUS
 62
     7
 10
1095.010690259707
 20
-338.4184430211058
 30
0.0
 40
4.679999999999999
  1
2
  0
TEXT
  5
73
  8
回08-記事
  6
CONTINUOUS
 62
     7
 10
1095.010690259707
 20
-361.8184430211058
 30
0.0
 40
4.679999999999999
  1
5
  0
LINE
  5
74
  8
回08-記事
  6
CONTINUOUS
 62
     7
 10
1100.735247461068
 20
-324.1622045826427
 30
0.0
 11
1100.735247461068
 21
-370.9622045826427
 31
0.0
  0
LINE
  5
75
  8
回08-記事
  6
CONTINUOUS
 62
     7
 10
1092.619652892203
 20
-324.1622045826427
 30
0.0
 11
1092.619652892203
 21
-370.9622045826427
 31
0.0
  0
TEXT
  5
76
  8
回08-記事
  6
CONTINUOUS
 62
     7
 10
1095.010690259707
 20
-330.6184430211059
 30
0.0
 40
4.679999999999999
  1
1
  0
LINE
  5
77
  8
回08-記事
  6
CONTINUOUS
 62
     7
 10
1092.619652892202
 20
-363.1622045826429
 30
0.0
 11
1186.713465747363
 21
-363.1622045826429
 31
0.0
  0
LINE
  5
78
  8
回08-記事
  6
CONTINUOUS
 62
     7
 10
1092.619652892203
 20
-331.9622045826428
 30
0.0
 11
1186.713465747364
 21
-331.9622045826428
 31
0.0
  0
LINE
  5
79
  8
回08-記事
  6
CONTINUOUS
 62
     7
 10
1092.619652892203
 20
-324.1622045826426
 30
0.0
 11
1186.713465747364
 21
-324.1622045826426
 31
0.0
  0
LINE
  5
7A
  8
回08-記事
  6
CONTINUOUS
 62
     7
 10
1092.619652892202
 20
-355.3622045826427
 30
0.0
 11
1186.713465747363
 21
-355.3622045826427
 31
0.0
  0
LINE
  5
7B
  8
回08-記事
  6
CONTINUOUS
 62
     7
 10
1092.619652892202
 20
-347.5622045826429
 30
0.0
 11
1186.713465747363
 21
-347.5622045826429
 31
0.0
  0
LINE
  5
7C
  8
回08-記事
  6
CONTINUOUS
 62
     7
 10
1092.619652892202
 20
-339.7622045826428
 30
0.0
 11
1186.713465747363
 21
-339.7622045826428
 31
0.0
  0
TEXT
  5
7D
  8
回08-記事
  6
CONTINUOUS
 62
     7
 10
1102.965726861661
 20
-331.0663628329927
 30
0.0
 40
4.679999999999999
  1
ITO FILM (ANTI-GLARE)
  0
TEXT
  5
7E
  8
回08-記事
  6
CONTINUOUS
 62
     7
 10
1102.965726861661
 20
-338.8663628329927
 30
0.0
 40
4.679999999999999
  1
ITO GLASS
  0
TEXT
  5
7F
  8
回08-記事
  6
CONTINUOUS
 62
     7
 10
1102.965726861661
 20
-346.6663628329928
 30
0.0
 40
4.679999999999999
  1
FPC
  0
LINE
  5
80
  8
回08-記事
  6
CONTINUOUS
 62
     7
 10
1026.064231222971
 20
-194.4501173465302
 30
0.0
 11
1016.118126297486
 21
-194.4390123591785
 31
0.0
  0
TEXT
  5
81
  8
回08-記事
  6
CONTINUOUS
 62
     7
 10
1027.282064794626
 20
-195.8503388842422
 30
0.0
 40
4.0
  1
2
  0
LINE
  5
82
  8
回08-記事
  6
CONTINUOUS
 62
     7
 10
1006.231221612704
 20
-336.6441657927446
 30
0.0
 11
1009.582304657667
 21
-344.0972787615912
 31
0.0
  0
LINE
  5
83
  8
回08-記事
  6
CONTINUOUS
 62
     7
 10
1003.133049541853
 20
-343.4656608334397
 30
0.0
 11
1006.231221612704
 21
-336.6441657927446
 31
0.0
  0
LINE
  5
84
  8
回08-記事
  6
CONTINUOUS
 62
     7
 10
1001.889332149507
 20
-304.167512720958
 30
0.0
 11
998.0286863184035
 21
-304.9894125231264
 31
0.0
  0
LINE
  5
85
  8
回08-記事
  6
CONTINUOUS
 62
     7
 10
1001.074552375879
 20
-267.6043503968519
 30
0.0
 11
998.5380772282068
 21
-268.6812282161542
 31
0.0
  0
LINE
  5
86
  8
回08-記事
  6
CONTINUOUS
 62
     7
 10
1017.110028178564
 20
-256.9645973474177
 30
0.0
 11
1016.147197161704
 21
-253.4379168882048
 31
0.0
  0
LINE
  5
87
  8
回08-記事
  6
CONTINUOUS
 62
     7
 10
1007.722461150492
 20
-253.117309573731
 30
0.0
 11
1017.110028178564
 21
-256.9645973474177
 31
0.0
  0
TEXT
  5
88
  8
回08-記事
  6
CONTINUOUS
 62
     7
 10
1005.116631469472
 20
-336.0761744494197
 30
0.0
 40
4.0
  1
5
  0
TEXT
  5
89
  8
回08-記事
  6
CONTINUOUS
 62
     7
 10
994.8174589515025
 20
-306.6627881238573
 30
0.0
 40
4.0
  1
3
  0
LINE
  5
8A
  8
回08-記事
  6
CONTINUOUS
 62
     7
 10
998.9944986197674
 20
-193.8711678527322
 30
0.0
 11
992.6453183329932
 21
-194.4390123591785
 31
0.0
  0
TEXT
  5
8B
  8
回08-記事
  6
CONTINUOUS
 62
     7
 10
988.9767724106372
 20
-196.3849265762205
 30
0.0
 40
4.0
  1
1
  0
LINE
  5
8C
  8
回08-記事
  6
CONTINUOUS
 62
     7
 10
998.0286863184035
 20
-304.9894125231264
 30
0.0
 11
1010.559957480964
 21
-307.8976768917857
 31
0.0
  0
LINE
  5
8D
  8
回08-記事
  6
CONTINUOUS
 62
     7
 10
998.5380772282068
 20
-268.6812282161542
 30
0.0
 11
1011.79116834223
 21
-270.6449441929041
 31
0.0
  0
TEXT
  5
8E
  8
回08-記事
  6
CONTINUOUS
 62
     7
 10
1018.261474226167
 20
-259.9527028217803
 30
0.0
 40
4.0
  1
6
  0
TEXT
  5
8F
  8
回08-記事
  6
CONTINUOUS
 62
     7
 10
994.878667148076
 20
-270.410584475464
 30
0.0
 40
4.0
  1
4
  0
INSERT
  5
90
  8
回08-記事
  6
CONTINUOUS
 62
     5
 66
     1
  2
*X7777
 10
0.0
 20
0.0
 30
0.0
  0
SEQEND
  5
687
  8
0
  6
CONTINUOUS
 62
     5
  0
INSERT
  5
91
  8
回08-記事
  6
CONTINUOUS
 62
     7
 66
     1
  2
*X7878
 10
0.0
 20
0.0
 30
0.0
  0
SEQEND
  5
68E
  8
0
  6
CONTINUOUS
 62
     5
  0
TEXT
  5
92
  8
回08-記事
  6
CONTINUOUS
 62
     5
 10
960.0361527649903
 20
-285.8451150592679
 30
0.0
 40
4.0
  1
Part No. label
1001
ACAD
1000
MTEXTBEGIN
1070
    73
1070
     1
1070
    44
1040
1.0
1070
    74
1070
     0
1000
MTEXTEND
  0
INSERT
  5
93
  8
回08-記事
  6
CONTINUOUS
 62
     7
 66
     1
  2
*X7979
 10
0.0
 20
0.0
 30
0.0
  0
SEQEND
  5
695
  8
0
  6
CONTINUOUS
 62
     5
  0
POLYLINE
  5
95
  8
回01-上ER
  6
CONTINUOUS
 62
     7
 66
     1
 10
0.0
 20
0.0
 30
0.0
 70
     1
  0
VERTEX
  5
AD8
  8
回01-上ER
  6
CONTINUOUS
 62
     7
 10
735.3330637441615
 20
-104.3806102355066
 30
0.0
  0
VERTEX
  5
ADA
  8
回01-上ER
  6
CONTINUOUS
 62
     7
 10
952.2930637441616
 20
-104.3806102355066
 30
0.0
  0
VERTEX
  5
ADB
  8
回01-上ER
  6
CONTINUOUS
 62
     7
 10
952.2930637441616
 20
-120.9806102355065
 30
0.0
  0
VERTEX
  5
ADC
  8
回01-上ER
  6
CONTINUOUS
 62
     7
 10
735.3330637441615
 20
-120.9806102355065
 30
0.0
  0
SEQEND
  5
AD9
  8
0
  6
CONTINUOUS
 62
     5
  0
POLYLINE
  5
99
  8
回01-上ER
  6
CONTINUOUS
 62
     7
 66
     1
 10
0.0
 20
0.0
 30
0.0
 70
     1
  0
VERTEX
  5
ADD
  8
回01-上ER
  6
CONTINUOUS
 62
     7
 10
735.3330637441615
 20
-121.3806102355066
 30
0.0
  0
VERTEX
  5
ADF
  8
回01-上ER
  6
CONTINUOUS
 62
     7
 10
952.2930637441616
 20
-121.3806102355066
 30
0.0
  0
VERTEX
  5
AE0
  8
回01-上ER
  6
CONTINUOUS
 62
     7
 10
952.2930637441616
 20
-137.9806102355065
 30
0.0
  0
VERTEX
  5
AE1
  8
回01-上ER
  6
CONTINUOUS
 62
     7
 10
735.3330637441615
 20
-137.9806102355065
 30
0.0
  0
SEQEND
  5
ADE
  8
0
  6
CONTINUOUS
 62
     5
  0
POLYLINE
  5
9A
  8
回01-上ER
  6
CONTINUOUS
 62
     7
 66
     1
 10
0.0
 20
0.0
 30
0.0
 70
     1
  0
VERTEX
  5
AE2
  8
回01-上ER
  6
CONTINUOUS
 62
     7
 10
735.3330637441615
 20
-138.3806102355066
 30
0.0
  0
VERTEX
  5
AE4
  8
回01-上ER
  6
CONTINUOUS
 62
     7
 10
952.2930637441616
 20
-138.3806102355066
 30
0.0
  0
VERTEX
  5
AE5
  8
回01-上ER
  6
CONTINUOUS
 62
     7
 10
952.2930637441616
 20
-154.9806102355065
 30
0.0
  0
VERTEX
  5
AE6
  8
回01-上ER
  6
CONTINUOUS
 62
     7
 10
735.3330637441615
 20
-154.9806102355065
 30
0.0
  0
SEQEND
  5
AE3
  8
0
  6
CONTINUOUS
 62
     5
  0
POLYLINE
  5
9B
  8
回01-上ER
  6
CONTINUOUS
 62
     7
 66
     1
 10
0.0
 20
0.0
 30
0.0
 70
     1
  0
VERTEX
  5
AE7
  8
回01-上ER
  6
CONTINUOUS
 62
     7
 10
735.3330637441615
 20
-155.3806102355066
 30
0.0
  0
VERTEX
  5
AE9
  8
回01-上ER
  6
CONTINUOUS
 62
     7
 10
952.2930637441616
 20
-155.3806102355066
 30
0.0
  0
VERTEX
  5
AEA
  8
回01-上ER
  6
CONTINUOUS
 62
     7
 10
952.2930637441616
 20
-171.9806102355065
 30
0.0
  0
VERTEX
  5
AEB
  8
回01-上ER
  6
CONTINUOUS
 62
     7
 10
735.3330637441615
 20
-171.9806102355065
 30
0.0
  0
SEQEND
  5
AE8
  8
0
  6
CONTINUOUS
 62
     5
  0
POLYLINE
  5
9C
  8
回01-上ER
  6
CONTINUOUS
 62
     7
 66
     1
 10
0.0
 20
0.0
 30
0.0
 70
     1
  0
VERTEX
  5
AEC
  8
回01-上ER
  6
CONTINUOUS
 62
     7
 10
735.3330637441615
 20
-172.3806102355066
 30
0.0
  0
VERTEX
  5
AEE
  8
回01-上ER
  6
CONTINUOUS
 62
     7
 10
952.2930637441616
 20
-172.3806102355066
 30
0.0
  0
VERTEX
  5
AEF
  8
回01-上ER
  6
CONTINUOUS
 62
     7
 10
952.2930637441616
 20
-188.9806102355065
 30
0.0
  0
VERTEX
  5
AF0
  8
回01-上ER
  6
CONTINUOUS
 62
     7
 10
735.3330637441615
 20
-188.9806102355065
 30
0.0
  0
SEQEND
  5
AED
  8
0
  6
CONTINUOUS
 62
     5
  0
POLYLINE
  5
9D
  8
回01-上ER
  6
CONTINUOUS
 62
     7
 66
     1
 10
0.0
 20
0.0
 30
0.0
 70
     1
  0
VERTEX
  5
AF1
  8
回01-上ER
  6
CONTINUOUS
 62
     7
 10
735.3330637441615
 20
-189.3806102355066
 30
0.0
  0
VERTEX
  5
AF3
  8
回01-上ER
  6
CONTINUOUS
 62
     7
 10
952.2930637441616
 20
-189.3806102355066
 30
0.0
  0
VERTEX
  5
AF4
  8
回01-上ER
  6
CONTINUOUS
 62
     7
 10
952.2930637441616
 20
-205.9806102355065
 30
0.0
  0
VERTEX
  5
AF5
  8
回01-上ER
  6
CONTINUOUS
 62
     7
 10
735.3330637441615
 20
-205.9806102355065
 30
0.0
  0
SEQEND
  5
AF2
  8
0
  6
CONTINUOUS
 62
     5
  0
POLYLINE
  5
9E
  8
回01-上ER
  6
CONTINUOUS
 62
     7
 66
     1
 10
0.0
 20
0.0
 30
0.0
 70
     1
  0
VERTEX
  5
AF6
  8
回01-上ER
  6
CONTINUOUS
 62
     7
 10
735.3330637441615
 20
-206.3806102355066
 30
0.0
  0
VERTEX
  5
AF8
  8
回01-上ER
  6
CONTINUOUS
 62
     7
 10
952.2930637441616
 20
-206.3806102355066
 30
0.0
  0
VERTEX
  5
AF9
  8
回01-上ER
  6
CONTINUOUS
 62
     7
 10
952.2930637441616
 20
-222.9806102355065
 30
0.0
  0
VERTEX
  5
AFA
  8
回01-上ER
  6
CONTINUOUS
 62
     7
 10
735.3330637441615
 20
-222.9806102355065
 30
0.0
  0
SEQEND
  5
AF7
  8
0
  6
CONTINUOUS
 62
     5
  0
POLYLINE
  5
9F
  8
回01-上ER
  6
CONTINUOUS
 62
     7
 66
     1
 10
0.0
 20
0.0
 30
0.0
 70
     1
  0
VERTEX
  5
AFB
  8
回01-上ER
  6
CONTINUOUS
 62
     7
 10
735.3330637441615
 20
-223.3806102355066
 30
0.0
  0
VERTEX
  5
AFD
  8
回01-上ER
  6
CONTINUOUS
 62
     7
 10
952.2930637441616
 20
-223.3806102355066
 30
0.0
  0
VERTEX
  5
AFE
  8
回01-上ER
  6
CONTINUOUS
 62
     7
 10
952.2930637441616
 20
-239.9806102355065
 30
0.0
  0
VERTEX
  5
AFF
  8
回01-上ER
  6
CONTINUOUS
 62
     7
 10
735.3330637441615
 20
-239.9806102355065
 30
0.0
  0
SEQEND
  5
AFC
  8
0
  6
CONTINUOUS
 62
     5
  0
POLYLINE
  5
A0
  8
回08-記事
  6
PHANTOM2
 62
     7
 66
     1
 10
0.0
 20
0.0
 30
0.0
 70
     1
  0
VERTEX
  5
B00
  8
回08-記事
  6
PHANTOM2
 62
     7
 10
732.8130637441615
 20
-101.8806102355065
 30
0.0
  0
VERTEX
  5
B02
  8
回08-記事
  6
PHANTOM2
 62
     7
 10
954.8130637441616
 20
-101.8806102355065
 30
0.0
  0
VERTEX
  5
B03
  8
回08-記事
  6
PHANTOM2
 62
     7
 10
954.8130637441616
 20
-242.4806102355065
 30
0.0
  0
VERTEX
  5
B04
  8
回08-記事
  6
PHANTOM2
 62
     7
 10
732.8130637441615
 20
-242.4806102355065
 30
0.0
  0
SEQEND
  5
B01
  8
0
  6
CONTINUOUS
 62
     5
  0
POLYLINE
  5
A2
  8
回08-記事
  6
CONTINUOUS
 62
     7
 66
     1
 10
0.0
 20
0.0
 30
0.0
 70
     1
  0
VERTEX
  5
B05
  8
回08-記事
  6
CONTINUOUS
 62
     7
 10
733.3130637441615
 20
-102.3806102355065
 30
0.0
  0
VERTEX
  5
B07
  8
回08-記事
  6
CONTINUOUS
 62
     7
 10
954.3130637441617
 20
-102.3806102355065
 30
0.0
  0
VERTEX
  5
B08
  8
回08-記事
  6
CONTINUOUS
 62
     7
 10
954.3130637441617
 20
-241.9806102355065
 30
0.0
  0
VERTEX
  5
B09
  8
回08-記事
  6
CONTINUOUS
 62
     7
 10
733.3130637441615
 20
-241.9806102355065
 30
0.0
  0
SEQEND
  5
B06
  8
0
  6
CONTINUOUS
 62
     5
  0
POLYLINE
  5
A3
  8
回08-記事
  6
CONTINUOUS
 62
     7
 66
     1
 10
0.0
 20
0.0
 30
0.0
 70
     1
  0
VERTEX
  5
B0A
  8
回08-記事
  6
CONTINUOUS
 62
     7
 10
735.3330637441615
 20
-104.3806102355065
 30
0.0
  0
VERTEX
  5
B0C
  8
回08-記事
  6
CONTINUOUS
 62
     7
 10
952.2930637441616
 20
-104.3806102355065
 30
0.0
  0
VERTEX
  5
B0D
  8
回08-記事
  6
CONTINUOUS
 62
     7
 10
952.2930637441616
 20
-239.9806102355065
 30
0.0
  0
VERTEX
  5
B0E
  8
回08-記事
  6
CONTINUOUS
 62
     7
 10
735.3330637441615
 20
-239.9806102355065
 30
0.0
  0
SEQEND
  5
B0B
  8
0
  6
CONTINUOUS
 62
     5
  0
POLYLINE
  5
A4
  8
回03-下ER
  6
CONTINUOUS
 62
     7
 66
     1
 10
0.0
 20
0.0
 30
0.0
 70
     1
  0
VERTEX
  5
B0F
  8
回03-下ER
  6
CONTINUOUS
 62
     7
 10
937.1690637441613
 20
-104.3806102355066
 30
0.0
  0
VERTEX
  5
B11
  8
回03-下ER
  6
CONTINUOUS
 62
     7
 10
952.2950637441612
 20
-104.3806102355066
 30
0.0
  0
VERTEX
  5
B12
  8
回03-下ER
  6
CONTINUOUS
 62
     7
 10
952.2950637441612
 20
-239.9806102355065
 30
0.0
  0
VERTEX
  5
B13
  8
回03-下ER
  6
CONTINUOUS
 62
     7
 10
937.1690637441613
 20
-239.9806102355065
 30
0.0
  0
SEQEND
  5
B10
  8
0
  6
CONTINUOUS
 62
     5
  0
POLYLINE
  5
A8
  8
回03-下ER
  6
CONTINUOUS
 62
     7
 66
     1
 10
0.0
 20
0.0
 30
0.0
 70
     1
  0
VERTEX
  5
B14
  8
回03-下ER
  6
CONTINUOUS
 62
     7
 10
921.6430637441614
 20
-104.3806102355066
 30
0.0
  0
VERTEX
  5
B16
  8
回03-下ER
  6
CONTINUOUS
 62
     7
 10
936.7690637441612
 20
-104.3806102355066
 30
0.0
  0
VERTEX
  5
B17
  8
回03-下ER
  6
CONTINUOUS
 62
     7
 10
936.7690637441612
 20
-239.9806102355065
 30
0.0
  0
VERTEX
  5
B18
  8
回03-下ER
  6
CONTINUOUS
 62
     7
 10
921.6430637441614
 20
-239.9806102355065
 30
0.0
  0
SEQEND
  5
B15
  8
0
  6
CONTINUOUS
 62
     5
  0
POLYLINE
  5
A9
  8
回03-下ER
  6
CONTINUOUS
 62
     7
 66
     1
 10
0.0
 20
0.0
 30
0.0
 70
     1
  0
VERTEX
  5
B19
  8
回03-下ER
  6
CONTINUOUS
 62
     7
 10
906.1170637441612
 20
-104.3806102355066
 30
0.0
  0
VERTEX
  5
B1B
  8
回03-下ER
  6
CONTINUOUS
 62
     7
 10
921.2430637441611
 20
-104.3806102355066
 30
0.0
  0
VERTEX
  5
B1C
  8
回03-下ER
  6
CONTINUOUS
 62
     7
 10
921.2430637441611
 20
-239.9806102355065
 30
0.0
  0
VERTEX
  5
B1D
  8
回03-下ER
  6
CONTINUOUS
 62
     7
 10
906.1170637441612
 20
-239.9806102355065
 30
0.0
  0
SEQEND
  5
B1A
  8
0
  6
CONTINUOUS
 62
     5
  0
POLYLINE
  5
AA
  8
回03-下ER
  6
CONTINUOUS
 62
     7
 66
     1
 10
0.0
 20
0.0
 30
0.0
 70
     1
  0
VERTEX
  5
B1E
  8
回03-下ER
  6
CONTINUOUS
 62
     7
 10
890.5910637441614
 20
-104.3806102355066
 30
0.0
  0
VERTEX
  5
B20
  8
回03-下ER
  6
CONTINUOUS
 62
     7
 10
905.7170637441616
 20
-104.3806102355066
 30
0.0
  0
VERTEX
  5
B21
  8
回03-下ER
  6
CONTINUOUS
 62
     7
 10
905.7170637441616
 20
-239.9806102355065
 30
0.0
  0
VERTEX
  5
B22
  8
回03-下ER
  6
CONTINUOUS
 62
     7
 10
890.5910637441614
 20
-239.9806102355065
 30
0.0
  0
SEQEND
  5
B1F
  8
0
  6
CONTINUOUS
 62
     5
  0
POLYLINE
  5
AB
  8
回03-下ER
  6
CONTINUOUS
 62
     7
 66
     1
 10
0.0
 20
0.0
 30
0.0
 70
     1
  0
VERTEX
  5
B23
  8
回03-下ER
  6
CONTINUOUS
 62
     7
 10
875.0650637441616
 20
-104.3806102355066
 30
0.0
  0
VERTEX
  5
B25
  8
回03-下ER
  6
CONTINUOUS
 62
     7
 10
890.1910637441615
 20
-104.3806102355066
 30
0.0
  0
VERTEX
  5
B26
  8
回03-下ER
  6
CONTINUOUS
 62
     7
 10
890.1910637441615
 20
-239.9806102355065
 30
0.0
  0
VERTEX
  5
B27
  8
回03-下ER
  6
CONTINUOUS
 62
     7
 10
875.0650637441616
 20
-239.9806102355065
 30
0.0
  0
SEQEND
  5
B24
  8
0
  6
CONTINUOUS
 62
     5
  0
POLYLINE
  5
AC
  8
回03-下ER
  6
CONTINUOUS
 62
     7
 66
     1
 10
0.0
 20
0.0
 30
0.0
 70
     1
  0
VERTEX
  5
B28
  8
回03-下ER
  6
CONTINUOUS
 62
     7
 10
859.5390637441617
 20
-104.3806102355066
 30
0.0
  0
VERTEX
  5
B2A
  8
回03-下ER
  6
CONTINUOUS
 62
     7
 10
874.6650637441616
 20
-104.3806102355066
 30
0.0
  0
VERTEX
  5
B2B
  8
回03-下ER
  6
CONTINUOUS
 62
     7
 10
874.6650637441616
 20
-239.9806102355065
 30
0.0
  0
VERTEX
  5
B2C
  8
回03-下ER
  6
CONTINUOUS
 62
     7
 10
859.5390637441617
 20
-239.9806102355065
 30
0.0
  0
SEQEND
  5
B29
  8
0
  6
CONTINUOUS
 62
     5
  0
POLYLINE
  5
AD
  8
回03-下ER
  6
CONTINUOUS
 62
     7
 66
     1
 10
0.0
 20
0.0
 30
0.0
 70
     1
  0
VERTEX
  5
B2D
  8
回03-下ER
  6
CONTINUOUS
 62
     7
 10
844.0130637441615
 20
-104.3806102355066
 30
0.0
  0
VERTEX
  5
B2F
  8
回03-下ER
  6
CONTINUOUS
 62
     7
 10
859.1390637441618
 20
-104.3806102355066
 30
0.0
  0
VERTEX
  5
B30
  8
回03-下ER
  6
CONTINUOUS
 62
     7
 10
859.1390637441618
 20
-239.9806102355065
 30
0.0
  0
VERTEX
  5
B31
  8
回03-下ER
  6
CONTINUOUS
 62
     7
 10
844.0130637441615
 20
-239.9806102355065
 30
0.0
  0
SEQEND
  5
B2E
  8
0
  6
CONTINUOUS
 62
     5
  0
POLYLINE
  5
AE
  8
回03-下ER
  6
CONTINUOUS
 62
     7
 66
     1
 10
0.0
 20
0.0
 30
0.0
 70
     1
  0
VERTEX
  5
B32
  8
回03-下ER
  6
CONTINUOUS
 62
     7
 10
828.4870637441617
 20
-104.3806102355066
 30
0.0
  0
VERTEX
  5
B34
  8
回03-下ER
  6
CONTINUOUS
 62
     7
 10
843.6130637441616
 20
-104.3806102355066
 30
0.0
  0
VERTEX
  5
B35
  8
回03-下ER
  6
CONTINUOUS
 62
     7
 10
843.6130637441616
 20
-239.9806102355065
 30
0.0
  0
VERTEX
  5
B36
  8
回03-下ER
  6
CONTINUOUS
 62
     7
 10
828.4870637441617
 20
-239.9806102355065
 30
0.0
  0
SEQEND
  5
B33
  8
0
  6
CONTINUOUS
 62
     5
  0
POLYLINE
  5
AF
  8
回03-下ER
  6
CONTINUOUS
 62
     7
 66
     1
 10
0.0
 20
0.0
 30
0.0
 70
     1
  0
VERTEX
  5
B37
  8
回03-下ER
  6
CONTINUOUS
 62
     7
 10
812.9610637441617
 20
-104.3806102355066
 30
0.0
  0
VERTEX
  5
B39
  8
回03-下ER
  6
CONTINUOUS
 62
     7
 10
828.0870637441617
 20
-104.3806102355066
 30
0.0
  0
VERTEX
  5
B3A
  8
回03-下ER
  6
CONTINUOUS
 62
     7
 10
828.0870637441617
 20
-239.9806102355065
 30
0.0
  0
VERTEX
  5
B3B
  8
回03-下ER
  6
CONTINUOUS
 62
     7
 10
812.9610637441617
 20
-239.9806102355065
 30
0.0
  0
SEQEND
  5
B38
  8
0
  6
CONTINUOUS
 62
     5
  0
POLYLINE
  5
B0
  8
回03-下ER
  6
CONTINUOUS
 62
     7
 66
     1
 10
0.0
 20
0.0
 30
0.0
 70
     1
  0
VERTEX
  5
B3C
  8
回03-下ER
  6
CONTINUOUS
 62
     7
 10
797.4350637441617
 20
-104.3806102355066
 30
0.0
  0
VERTEX
  5
B3E
  8
回03-下ER
  6
CONTINUOUS
 62
     7
 10
812.5610637441615
 20
-104.3806102355066
 30
0.0
  0
VERTEX
  5
B3F
  8
回03-下ER
  6
CONTINUOUS
 62
     7
 10
812.5610637441615
 20
-239.9806102355065
 30
0.0
  0
VERTEX
  5
B40
  8
回03-下ER
  6
CONTINUOUS
 62
     7
 10
797.4350637441617
 20
-239.9806102355065
 30
0.0
  0
SEQEND
  5
B3D
  8
0
  6
CONTINUOUS
 62
     5
  0
POLYLINE
  5
B1
  8
回03-下ER
  6
CONTINUOUS
 62
     7
 66
     1
 10
0.0
 20
0.0
 30
0.0
 70
     1
  0
VERTEX
  5
B41
  8
回03-下ER
  6
CONTINUOUS
 62
     7
 10
781.9090637441616
 20
-104.3806102355066
 30
0.0
  0
VERTEX
  5
B43
  8
回03-下ER
  6
CONTINUOUS
 62
     7
 10
797.0350637441616
 20
-104.3806102355066
 30
0.0
  0
VERTEX
  5
B44
  8
回03-下ER
  6
CONTINUOUS
 62
     7
 10
797.0350637441616
 20
-239.9806102355065
 30
0.0
  0
VERTEX
  5
B45
  8
回03-下ER
  6
CONTINUOUS
 62
     7
 10
781.9090637441616
 20
-239.9806102355065
 30
0.0
  0
SEQEND
  5
B42
  8
0
  6
CONTINUOUS
 62
     5
  0
POLYLINE
  5
B2
  8
回03-下ER
  6
CONTINUOUS
 62
     7
 66
     1
 10
0.0
 20
0.0
 30
0.0
 70
     1
  0
VERTEX
  5
B46
  8
回03-下ER
  6
CONTINUOUS
 62
     7
 10
766.3830637441616
 20
-104.3806102355066
 30
0.0
  0
VERTEX
  5
B48
  8
回03-下ER
  6
CONTINUOUS
 62
     7
 10
781.5090637441617
 20
-104.3806102355066
 30
0.0
  0
VERTEX
  5
B49
  8
回03-下ER
  6
CONTINUOUS
 62
     7
 10
781.5090637441617
 20
-239.9806102355065
 30
0.0
  0
VERTEX
  5
B4A
  8
回03-下ER
  6
CONTINUOUS
 62
     7
 10
766.3830637441616
 20
-239.9806102355065
 30
0.0
  0
SEQEND
  5
B47
  8
0
  6
CONTINUOUS
 62
     5
  0
POLYLINE
  5
B3
  8
回03-下ER
  6
CONTINUOUS
 62
     7
 66
     1
 10
0.0
 20
0.0
 30
0.0
 70
     1
  0
VERTEX
  5
B4B
  8
回03-下ER
  6
CONTINUOUS
 62
     7
 10
750.8570637441618
 20
-104.3806102355066
 30
0.0
  0
VERTEX
  5
B4D
  8
回03-下ER
  6
CONTINUOUS
 62
     7
 10
765.9830637441616
 20
-104.3806102355066
 30
0.0
  0
VERTEX
  5
B4E
  8
回03-下ER
  6
CONTINUOUS
 62
     7
 10
765.9830637441616
 20
-239.9806102355065
 30
0.0
  0
VERTEX
  5
B4F
  8
回03-下ER
  6
CONTINUOUS
 62
     7
 10
750.8570637441618
 20
-239.9806102355065
 30
0.0
  0
SEQEND
  5
B4C
  8
0
  6
CONTINUOUS
 62
     5
  0
POLYLINE
  5
B4
  8
回03-下ER
  6
CONTINUOUS
 62
     7
 66
     1
 10
0.0
 20
0.0
 30
0.0
 70
     1
  0
VERTEX
  5
B50
  8
回03-下ER
  6
CONTINUOUS
 62
     7
 10
735.3310637441618
 20
-104.3806102355066
 30
0.0
  0
VERTEX
  5
B52
  8
回03-下ER
  6
CONTINUOUS
 62
     7
 10
750.4570637441617
 20
-104.3806102355066
 30
0.0
  0
VERTEX
  5
B53
  8
回03-下ER
  6
CONTINUOUS
 62
     7
 10
750.4570637441617
 20
-239.9806102355065
 30
0.0
  0
VERTEX
  5
B54
  8
回03-下ER
  6
CONTINUOUS
 62
     7
 10
735.3310637441618
 20
-239.9806102355065
 30
0.0
  0
SEQEND
  5
B51
  8
0
  6
CONTINUOUS
 62
     5
  0
TEXT
  5
B5
  8
回08-記事
  6
CONTINUOUS
 62
     7
 10
822.7095069551811
 20
-351.7105838636417
 30
0.0
 40
3.0
  1
60
  0
TEXT
  5
B6
  8
回08-記事
  6
CONTINUOUS
 62
     7
 10
845.4715245872373
 20
-351.7105838636417
 30
0.0
 40
3.0
  1
27
  0
TEXT
  5
B7
  8
回08-記事
  6
CONTINUOUS
 62
     7
 10
851.7643834730275
 20
-351.7105838636417
 30
0.0
 40
3.0
  1
26
  0
TEXT
  5
B8
  8
回08-記事
  6
CONTINUOUS
 62
     7
 10
870.9741456320804
 20
-351.7105838636417
 30
0.0
 40
3.0
  1
1
  0
TEXT
  5
B9
  8
回90-枠2
 10
1124.964472521511
 20
-390.9279610047367
 30
0.0
 40
5.877614223360004
  1
Oct/12/2023
  0
TEXT
  5
BD
  8
回90-枠2
 10
1036.747654562127
 20
-390.9279610047367
 30
0.0
 40
5.877614223360004
  1
MTR-G101WB100B
  0
LINE
  5
BE
  8
回90-枠2
  6
CONTINUOUS
 62
     7
 10
1027.256372283931
 20
-376.6094638787943
 30
0.0
 11
1191.829570538011
 21
-376.6094638787943
 31
0.0
  0
TEXT
  5
BF
  8
回90-枠2
 10
1139.019941264324
 20
-381.2929492586706
 30
0.0
 40
4.114329956352001
  1
DATE
  0
LINE
  5
C0
  8
回90-枠2
  6
CONTINUOUS
 62
     7
 10
1027.256372283931
 20
-376.6094638787943
 30
0.0
 11
1191.829570538011
 21
-376.6094638787943
 31
0.0
  0
TEXT
  5
C1
  8
回90-枠2
 10
1126.246588363849
 20
-406.1538223510614
 30
0.0
 40
5.877614223360004
  1
DMC Co., Ltd.
  0
LINE
  5
C2
  8
回90-枠2
 10
1103.665357187612
 20
-376.6094638787943
 30
0.0
 11
1103.665357187612
 21
-411.875149218954
 31
0.0
  0
TEXT
  5
C3
  8
回90-枠2
 10
1045.332262822602
 20
-404.7602583451221
 30
0.0
 40
3.526568534016003
  1
Multi Touch Resistive
  0
LINE
  5
C4
  8
回90-枠2
 10
1027.256372283931
 20
-376.6094638787943
 30
0.0
 11
1027.256372283931
 21
-411.875149218954
 31
0.0
  0
TEXT
  5
C5
  8
回90-枠2
 10
1060.203803698479
 20
-399.0656579169845
 30
0.0
 40
3.526568534016003
  1
TYPE
  0
LINE
  5
C6
  8
回90-枠2
 10
1030.782940817947
 20
-405.9975349955941
 30
0.0
 11
1100.138788653595
 21
-405.9975349955941
 31
0.0
  0
TEXT
  5
C7
  8
回90-枠2
 10
1042.622447300002
 20
-411.0388470271701
 30
0.0
 40
3.526568534016003
  1
DIMENSIONAL DRAWING
  0
TEXT
  5
C8
  8
回90-枠2
 10
1055.230626145164
 20
-381.4730701810777
 30
0.0
 40
4.114329956352001
  1
PART No.
  0
LINE
  5
C9
  8
回90-枠2
 10
1027.256372283931
 20
-394.2423065488741
 30
0.0
 11
1191.829570538011
 21
-394.2423065488741
 31
0.0
  0
LINE
  5
CA
  8
回90-枠2
 10
1027.256372283931
 20
-400.1199207722341
 30
0.0
 11
1103.665357187612
 21
-400.1199207722341
 31
0.0
  0
LINE
  5
CB
  8
回90-枠2
 10
1027.256372283931
 20
-382.4870781021541
 30
0.0
 11
1191.829570538011
 21
-382.4870781021541
 31
0.0
  0
TEXT
  5
CC
  8
回08-記事
  6
CONTINUOUS
 62
     7
 10
1132.580607561467
 20
-61.139577573184
 30
0.0
 40
3.5
  1
PIN ASSIGNMENT
  0
TEXT
  5
CD
  8
回08-記事
  6
CONTINUOUS
 62
     7
 10
1126.729989300106
 20
-70.07638521581049
 30
0.0
 40
3.5
  1
Tail-1
  0
TEXT
  5
CE
  8
回08-記事
  6
CONTINUOUS
 62
     7
 10
1157.253066945881
 20
-70.07638521581049
 30
0.0
 40
3.5
  1
Tail-2
  0
TEXT
  5
CF
  8
回08-記事
  6
CONTINUOUS
 62
     7
 10
1169.144495138446
 20
-236.2265215129168
 30
0.0
 40
3.0
  1
NC
  0
TEXT
  5
D0
  8
回08-記事
  6
CONTINUOUS
 62
     7
 10
1169.144495138446
 20
-105.5897215129167
 30
0.0
 40
3.0
  1
NC
  0
TEXT
  5
D1
  8
回08-記事
  6
CONTINUOUS
 62
     7
 10
1169.144495138446
 20
-115.2665215129167
 30
0.0
 40
3.0
  1
NC
  0
TEXT
  5
D2
  8
回08-記事
  6
CONTINUOUS
 62
     7
 10
1169.144495138446
 20
-153.9737215129167
 30
0.0
 40
3.0
  1
NC
  0
TEXT
  5
D3
  8
回08-記事
  6
CONTINUOUS
 62
     7
 10
1138.671264828214
 20
-153.9737215129167
 30
0.0
 40
3.0
  1
NC
  0
TEXT
  5
D4
  8
回08-記事
  6
CONTINUOUS
 62
     7
 10
1138.671264828214
 20
-149.1353215129167
 30
0.0
 40
3.0
  1
NC
  0
TEXT
  5
D5
  8
回08-記事
  6
CONTINUOUS
 62
     7
 10
1138.671264828214
 20
-144.2969215129166
 30
0.0
 40
3.0
  1
NC
  0
TEXT
  5
D6
  8
回08-記事
  6
CONTINUOUS
 62
     7
 10
1138.671264828214
 20
-139.4585215129167
 30
0.0
 40
3.0
  1
NC
  0
TEXT
  5
D7
  8
回08-記事
  6
CONTINUOUS
 62
     7
 10
1138.671264828214
 20
-129.7817215129167
 30
0.0
 40
3.0
  1
NC
  0
TEXT
  5
D8
  8
回08-記事
  6
CONTINUOUS
 62
     7
 10
1138.671264828214
 20
-124.9433215129166
 30
0.0
 40
3.0
  1
NC
  0
TEXT
  5
D9
  8
回08-記事
  6
CONTINUOUS
 62
     7
 10
1138.671264828214
 20
-120.1049215129166
 30
0.0
 40
3.0
  1
NC
  0
TEXT
  5
DA
  8
回08-記事
  6
CONTINUOUS
 62
     7
 10
1138.671264828214
 20
-115.2665215129167
 30
0.0
 40
3.0
  1
NC
  0
TEXT
  5
DB
  8
回08-記事
  6
CONTINUOUS
 62
     7
 10
1169.144495138446
 20
-76.55932151291669
 30
0.0
 40
3.0
  1
U9
  0
TEXT
  5
DC
  8
回08-記事
  6
CONTINUOUS
 62
     7
 10
1169.42954837549
 20
-231.3881215129167
 30
0.0
 40
3.0
  1
U8
  0
LINE
  5
DD
  8
回08-記事
  6
CONTINUOUS
 62
     7
 10
1157.569743212722
 20
-234.9206367170408
 30
0.0
 11
1168.077467646261
 21
-234.9206367170408
 31
0.0
  0
LINE
  5
DE
  8
回08-記事
  6
CONTINUOUS
 62
     7
 10
1157.569743212722
 20
-230.0822367170408
 30
0.0
 11
1168.077467646261
 21
-230.0822367170408
 31
0.0
  0
TEXT
  5
DF
  8
回08-記事
  6
CONTINUOUS
 62
     7
 10
1152.291298644039
 20
-236.2265215129166
 30
0.0
 40
3.0
  1
60
  0
TEXT
  5
E0
  8
回08-記事
  6
CONTINUOUS
 62
     7
 10
1152.291298644039
 20
-231.3881215129167
 30
0.0
 40
3.0
  1
59
  0
TEXT
  5
E1
  8
回08-記事
  6
CONTINUOUS
 62
     7
 10
1169.144495138446
 20
-207.1961215129167
 30
0.0
 40
3.0
  1
U3
  0
TEXT
  5
E2
  8
回08-記事
  6
CONTINUOUS
 62
     7
 10
1169.42954837549
 20
-226.5497215129167
 30
0.0
 40
3.0
  1
U7
  0
TEXT
  5
E3
  8
回08-記事
  6
CONTINUOUS
 62
     7
 10
1169.42954837549
 20
-221.7113215129166
 30
0.0
 40
3.0
  1
U6
  0
TEXT
  5
E4
  8
回08-記事
  6
CONTINUOUS
 62
     7
 10
1169.42954837549
 20
-216.8729215129167
 30
0.0
 40
3.0
  1
U5
  0
TEXT
  5
E5
  8
回08-記事
  6
CONTINUOUS
 62
     7
 10
1169.42954837549
 20
-212.0345215129167
 30
0.0
 40
3.0
  1
U4
  0
LINE
  5
E6
  8
回08-記事
  6
CONTINUOUS
 62
     7
 10
1157.569743212722
 20
-225.2438367170408
 30
0.0
 11
1168.077467646261
 21
-225.2438367170408
 31
0.0
  0
LINE
  5
E7
  8
回08-記事
  6
CONTINUOUS
 62
     7
 10
1157.569743212722
 20
-220.4054367170408
 30
0.0
 11
1168.077467646261
 21
-220.4054367170408
 31
0.0
  0
LINE
  5
E8
  8
回08-記事
  6
CONTINUOUS
 62
     7
 10
1157.569743212722
 20
-215.5670367170408
 30
0.0
 11
1168.077467646261
 21
-215.5670367170408
 31
0.0
  0
LINE
  5
E9
  8
回08-記事
  6
CONTINUOUS
 62
     7
 10
1157.569743212722
 20
-210.7286367170408
 30
0.0
 11
1168.077467646261
 21
-210.7286367170408
 31
0.0
  0
LINE
  5
EA
  8
回08-記事
  6
CONTINUOUS
 62
     7
 10
1157.569743212722
 20
-205.8902367170408
 30
0.0
 11
1168.077467646261
 21
-205.8902367170408
 31
0.0
  0
LINE
  5
EB
  8
回08-記事
  6
CONTINUOUS
 62
     7
 10
1157.569743212722
 20
-201.0518367170408
 30
0.0
 11
1168.077467646261
 21
-201.0518367170408
 31
0.0
  0
TEXT
  5
EC
  8
回08-記事
  6
CONTINUOUS
 62
     7
 10
1152.291298644039
 20
-226.5497215129167
 30
0.0
 40
3.0
  1
58
  0
TEXT
  5
ED
  8
回08-記事
  6
CONTINUOUS
 62
     7
 10
1152.291298644039
 20
-221.7113215129166
 30
0.0
 40
3.0
  1
57
  0
TEXT
  5
EE
  8
回08-記事
  6
CONTINUOUS
 62
     7
 10
1152.291298644039
 20
-216.8729215129167
 30
0.0
 40
3.0
  1
56
  0
TEXT
  5
EF
  8
回08-記事
  6
CONTINUOUS
 62
     7
 10
1152.291298644039
 20
-212.0345215129167
 30
0.0
 40
3.0
  1
55
  0
TEXT
  5
F0
  8
回08-記事
  6
CONTINUOUS
 62
     7
 10
1152.291298644039
 20
-207.1961215129167
 30
0.0
 40
3.0
  1
54
  0
TEXT
  5
F1
  8
回08-記事
  6
CONTINUOUS
 62
     7
 10
1152.291298644039
 20
-202.3577215129167
 30
0.0
 40
3.0
  1
53
  0
TEXT
  5
F2
  8
回08-記事
  6
CONTINUOUS
 62
     7
 10
1169.42954837549
 20
-202.3577215129167
 30
0.0
 40
3.0
  1
U2
  0
TEXT
  5
F3
  8
回08-記事
  6
CONTINUOUS
 62
     7
 10
1169.42954837549
 20
-192.6809215129167
 30
0.0
 40
3.0
  1
SDL
  0
TEXT
  5
F4
  8
回08-記事
  6
CONTINUOUS
 62
     7
 10
1169.144495138446
 20
-86.23612151291672
 30
0.0
 40
3.0
  1
U11
  0
TEXT
  5
F5
  8
回08-記事
  6
CONTINUOUS
 62
     7
 10
1169.42954837549
 20
-197.5193215129167
 30
0.0
 40
3.0
  1
U1
  0
LINE
  5
F6
  8
回08-記事
  6
CONTINUOUS
 62
     7
 10
1157.569743212722
 20
-196.2134367170406
 30
0.0
 11
1168.077467646261
 21
-196.2134367170406
 31
0.0
  0
LINE
  5
F7
  8
回08-記事
  6
CONTINUOUS
 62
     7
 10
1157.569743212722
 20
-191.3750367170409
 30
0.0
 11
1168.077467646261
 21
-191.3750367170409
 31
0.0
  0
TEXT
  5
F8
  8
回08-記事
  6
CONTINUOUS
 62
     7
 10
1152.291298644039
 20
-197.5193215129167
 30
0.0
 40
3.0
  1
52
  0
TEXT
  5
F9
  8
回08-記事
  6
CONTINUOUS
 62
     7
 10
1152.291298644039
 20
-192.6809215129167
 30
0.0
 40
3.0
  1
51
  0
TEXT
  5
FA
  8
回08-記事
  6
CONTINUOUS
 62
     7
 10
1169.144495138446
 20
-134.6201215129166
 30
0.0
 40
3.0
  1
D11
  0
TEXT
  5
FB
  8
回08-記事
  6
CONTINUOUS
 62
     7
 10
1169.144495138446
 20
-81.39772151291669
 30
0.0
 40
3.0
  1
U10
  0
TEXT
  5
FC
  8
回08-記事
  6
CONTINUOUS
 62
     7
 10
1169.144495138446
 20
-168.4889215129166
 30
0.0
 40
3.0
  1
D5
  0
TEXT
  5
FD
  8
回08-記事
  6
CONTINUOUS
 62
     7
 10
1169.144495138446
 20
-163.6505215129167
 30
0.0
 40
3.0
  1
D6
  0
TEXT
  5
FE
  8
回08-記事
  6
CONTINUOUS
 62
     7
 10
1169.144495138446
 20
-158.8121215129167
 30
0.0
 40
3.0
  1
D7
  0
TEXT
  5
FF
  8
回08-記事
  6
CONTINUOUS
 62
     7
 10
1169.144495138446
 20
-124.9433215129166
 30
0.0
 40
3.0
  1
D13
  0
TEXT
  5
100
  8
回08-記事
  6
CONTINUOUS
 62
     7
 10
1169.144495138446
 20
-120.1049215129167
 30
0.0
 40
3.0
  1
D14
  0
TEXT
  5
101
  8
回08-記事
  6
CONTINUOUS
 62
     7
 10
1169.144495138446
 20
-110.4281215129166
 30
0.0
 40
3.0
  1
SUR
  0
TEXT
  5
102
  8
回08-記事
  6
CONTINUOUS
 62
     7
 10
1169.144495138446
 20
-100.7513215129166
 30
0.0
 40
3.0
  1
U14
  0
TEXT
  5
103
  8
回08-記事
  6
CONTINUOUS
 62
     7
 10
1169.144495138446
 20
-95.91292151291662
 30
0.0
 40
3.0
  1
U13
  0
TEXT
  5
104
  8
回08-記事
  6
CONTINUOUS
 62
     7
 10
1169.144495138446
 20
-91.07452151291672
 30
0.0
 40
3.0
  1
U12
  0
LINE
  5
105
  8
回08-記事
  6
CONTINUOUS
 62
     7
 10
1157.569743212722
 20
-75.25343671704064
 30
0.0
 11
1168.077467646261
 21
-75.25343671704064
 31
0.0
  0
TEXT
  5
106
  8
回08-記事
  6
CONTINUOUS
 62
     7
 10
1152.525642127294
 20
-76.55932151291669
 30
0.0
 40
3.0
  1
27
  0
LINE
  5
107
  8
回08-記事
  6
CONTINUOUS
 62
     7
 10
1157.569743212722
 20
-80.09183671704063
 30
0.0
 11
1168.077467646261
 21
-80.09183671704063
 31
0.0
  0
TEXT
  5
108
  8
回08-記事
  6
CONTINUOUS
 62
     7
 10
1152.525642127294
 20
-81.39772151291669
 30
0.0
 40
3.0
  1
28
  0
LINE
  5
109
  8
回08-記事
  6
CONTINUOUS
 62
     7
 10
1157.569743212722
 20
-84.93023671704078
 30
0.0
 11
1168.077467646261
 21
-84.93023671704078
 31
0.0
  0
TEXT
  5
10A
  8
回08-記事
  6
CONTINUOUS
 62
     7
 10
1152.525642127294
 20
-86.23612151291672
 30
0.0
 40
3.0
  1
29
  0
LINE
  5
10B
  8
回08-記事
  6
CONTINUOUS
 62
     7
 10
1157.569743212722
 20
-89.76863671704069
 30
0.0
 11
1168.077467646261
 21
-89.76863671704069
 31
0.0
  0
TEXT
  5
10C
  8
回08-記事
  6
CONTINUOUS
 62
     7
 10
1152.528717188347
 20
-91.07452151291672
 30
0.0
 40
3.0
  1
30
  0
LINE
  5
10D
  8
回08-記事
  6
CONTINUOUS
 62
     7
 10
1157.569743212722
 20
-94.60703671704068
 30
0.0
 11
1168.077467646261
 21
-94.60703671704068
 31
0.0
  0
TEXT
  5
10E
  8
回08-記事
  6
CONTINUOUS
 62
     7
 10
1152.528717188347
 20
-95.91292151291662
 30
0.0
 40
3.0
  1
31
  0
LINE
  5
10F
  8
回08-記事
  6
CONTINUOUS
 62
     7
 10
1157.569743212722
 20
-99.44543671704071
 30
0.0
 11
1168.077467646261
 21
-99.44543671704071
 31
0.0
  0
TEXT
  5
110
  8
回08-記事
  6
CONTINUOUS
 62
     7
 10
1152.528717188347
 20
-100.7513215129166
 30
0.0
 40
3.0
  1
32
  0
LINE
  5
111
  8
回08-記事
  6
CONTINUOUS
 62
     7
 10
1157.569743212722
 20
-104.2838367170407
 30
0.0
 11
1168.077467646261
 21
-104.2838367170407
 31
0.0
  0
TEXT
  5
112
  8
回08-記事
  6
CONTINUOUS
 62
     7
 10
1152.549587448069
 20
-105.5897215129166
 30
0.0
 40
3.0
  1
33
  0
LINE
  5
113
  8
回08-記事
  6
CONTINUOUS
 62
     7
 10
1157.569743212722
 20
-109.1222367170407
 30
0.0
 11
1168.077467646261
 21
-109.1222367170407
 31
0.0
  0
TEXT
  5
114
  8
回08-記事
  6
CONTINUOUS
 62
     7
 10
1152.549587448069
 20
-110.4281215129166
 30
0.0
 40
3.0
  1
34
  0
TEXT
  5
115
  8
回08-記事
  6
CONTINUOUS
 62
     7
 10
1169.42954837549
 20
-187.8425215129166
 30
0.0
 40
3.0
  1
D1
  0
TEXT
  5
116
  8
回08-記事
  6
CONTINUOUS
 62
     7
 10
1169.42954837549
 20
-183.0041215129165
 30
0.0
 40
3.0
  1
D2
  0
TEXT
  5
117
  8
回08-記事
  6
CONTINUOUS
 62
     7
 10
1169.42954837549
 20
-178.1657215129167
 30
0.0
 40
3.0
  1
D3
  0
TEXT
  5
118
  8
回08-記事
  6
CONTINUOUS
 62
     7
 10
1169.42954837549
 20
-173.3273215129166
 30
0.0
 40
3.0
  1
D4
  0
TEXT
  5
119
  8
回08-記事
  6
CONTINUOUS
 62
     7
 10
1169.144495138446
 20
-149.1353215129167
 30
0.0
 40
3.0
  1
D8
  0
TEXT
  5
11A
  8
回08-記事
  6
CONTINUOUS
 62
     7
 10
1169.144495138446
 20
-144.2969215129166
 30
0.0
 40
3.0
  1
D9
  0
TEXT
  5
11B
  8
回08-記事
  6
CONTINUOUS
 62
     7
 10
1169.144495138446
 20
-139.4585215129166
 30
0.0
 40
3.0
  1
D10
  0
TEXT
  5
11C
  8
回08-記事
  6
CONTINUOUS
 62
     7
 10
1169.144495138446
 20
-129.7817215129166
 30
0.0
 40
3.0
  1
D12
  0
LINE
  5
11D
  8
回08-記事
  6
CONTINUOUS
 62
     7
 10
1157.569743212722
 20
-186.5366367170406
 30
0.0
 11
1168.077467646261
 21
-186.5366367170406
 31
0.0
  0
LINE
  5
11E
  8
回08-記事
  6
CONTINUOUS
 62
     7
 10
1157.569743212722
 20
-181.6982367170408
 30
0.0
 11
1168.077467646261
 21
-181.6982367170408
 31
0.0
  0
LINE
  5
11F
  8
回08-記事
  6
CONTINUOUS
 62
     7
 10
1157.569743212722
 20
-176.8598367170408
 30
0.0
 11
1168.077467646261
 21
-176.8598367170408
 31
0.0
  0
LINE
  5
120
  8
回08-記事
  6
CONTINUOUS
 62
     7
 10
1157.569743212722
 20
-172.0214367170406
 30
0.0
 11
1168.077467646261
 21
-172.0214367170406
 31
0.0
  0
LINE
  5
121
  8
回08-記事
  6
CONTINUOUS
 62
     7
 10
1157.569743212722
 20
-167.1830367170408
 30
0.0
 11
1168.077467646261
 21
-167.1830367170408
 31
0.0
  0
LINE
  5
122
  8
回08-記事
  6
CONTINUOUS
 62
     7
 10
1157.569743212722
 20
-162.3446367170407
 30
0.0
 11
1168.077467646261
 21
-162.3446367170407
 31
0.0
  0
LINE
  5
123
  8
回08-記事
  6
CONTINUOUS
 62
     7
 10
1157.569743212722
 20
-157.5062367170407
 30
0.0
 11
1168.077467646261
 21
-157.5062367170407
 31
0.0
  0
LINE
  5
124
  8
回08-記事
  6
CONTINUOUS
 62
     7
 10
1157.569743212722
 20
-152.6678367170407
 30
0.0
 11
1168.077467646261
 21
-152.6678367170407
 31
0.0
  0
LINE
  5
125
  8
回08-記事
  6
CONTINUOUS
 62
     7
 10
1157.569743212722
 20
-147.8294367170408
 30
0.0
 11
1168.077467646261
 21
-147.8294367170408
 31
0.0
  0
LINE
  5
126
  8
回08-記事
  6
CONTINUOUS
 62
     7
 10
1157.569743212722
 20
-142.9910367170407
 30
0.0
 11
1168.077467646261
 21
-142.9910367170407
 31
0.0
  0
LINE
  5
127
  8
回08-記事
  6
CONTINUOUS
 62
     7
 10
1157.569743212722
 20
-138.1526367170407
 30
0.0
 11
1168.077467646261
 21
-138.1526367170407
 31
0.0
  0
LINE
  5
128
  8
回08-記事
  6
CONTINUOUS
 62
     7
 10
1157.569743212722
 20
-133.3142367170407
 30
0.0
 11
1168.077467646261
 21
-133.3142367170407
 31
0.0
  0
LINE
  5
129
  8
回08-記事
  6
CONTINUOUS
 62
     7
 10
1157.569743212722
 20
-128.4758367170408
 30
0.0
 11
1168.077467646261
 21
-128.4758367170408
 31
0.0
  0
LINE
  5
12A
  8
回08-記事
  6
CONTINUOUS
 62
     7
 10
1157.569743212722
 20
-123.6374367170406
 30
0.0
 11
1168.077467646261
 21
-123.6374367170406
 31
0.0
  0
LINE
  5
12B
  8
回08-記事
  6
CONTINUOUS
 62
     7
 10
1157.569743212722
 20
-118.7990367170407
 30
0.0
 11
1168.077467646261
 21
-118.7990367170407
 31
0.0
  0
LINE
  5
12C
  8
回08-記事
  6
CONTINUOUS
 62
     7
 10
1157.569743212722
 20
-113.9606367170408
 30
0.0
 11
1168.077467646261
 21
-113.9606367170408
 31
0.0
  0
TEXT
  5
12D
  8
回08-記事
  6
CONTINUOUS
 62
     7
 10
1152.291298644039
 20
-187.8425215129166
 30
0.0
 40
3.0
  1
50
  0
TEXT
  5
12E
  8
回08-記事
  6
CONTINUOUS
 62
     7
 10
1152.039455370694
 20
-183.0041215129165
 30
0.0
 40
3.0
  1
49
  0
TEXT
  5
12F
  8
回08-記事
  6
CONTINUOUS
 62
     7
 10
1152.068446539075
 20
-178.1657215129166
 30
0.0
 40
3.0
  1
48
  0
TEXT
  5
130
  8
回08-記事
  6
CONTINUOUS
 62
     7
 10
1152.036861118157
 20
-173.3273215129166
 30
0.0
 40
3.0
  1
47
  0
TEXT
  5
131
  8
回08-記事
  6
CONTINUOUS
 62
     7
 10
1152.036861118157
 20
-168.4889215129166
 30
0.0
 40
3.0
  1
46
  0
TEXT
  5
132
  8
回08-記事
  6
CONTINUOUS
 62
     7
 10
1152.009867154377
 20
-163.6505215129167
 30
0.0
 40
3.0
  1
45
  0
TEXT
  5
133
  8
回08-記事
  6
CONTINUOUS
 62
     7
 10
1152.009867154377
 20
-158.8121215129167
 30
0.0
 40
3.0
  1
44
  0
TEXT
  5
134
  8
回08-記事
  6
CONTINUOUS
 62
     7
 10
1152.002105531205
 20
-153.9737215129166
 30
0.0
 40
3.0
  1
43
  0
TEXT
  5
135
  8
回08-記事
  6
CONTINUOUS
 62
     7
 10
1152.002105531205
 20
-149.1353215129167
 30
0.0
 40
3.0
  1
42
  0
TEXT
  5
136
  8
回08-記事
  6
CONTINUOUS
 62
     7
 10
1152.116617968905
 20
-144.2969215129166
 30
0.0
 40
3.0
  1
41
  0
TEXT
  5
137
  8
回08-記事
  6
CONTINUOUS
 62
     7
 10
1152.116617968905
 20
-139.4585215129166
 30
0.0
 40
3.0
  1
40
  0
TEXT
  5
138
  8
回08-記事
  6
CONTINUOUS
 62
     7
 10
1152.402033300548
 20
-134.6201215129166
 30
0.0
 40
3.0
  1
39
  0
TEXT
  5
139
  8
回08-記事
  6
CONTINUOUS
 62
     7
 10
1152.402033300548
 20
-129.7817215129166
 30
0.0
 40
3.0
  1
38
  0
TEXT
  5
13A
  8
回08-記事
  6
CONTINUOUS
 62
     7
 10
1152.401853657806
 20
-124.9433215129166
 30
0.0
 40
3.0
  1
37
  0
TEXT
  5
13B
  8
回08-記事
  6
CONTINUOUS
 62
     7
 10
1152.401853657806
 20
-120.1049215129167
 30
0.0
 40
3.0
  1
36
  0
TEXT
  5
13C
  8
回08-記事
  6
CONTINUOUS
 62
     7
 10
1152.549587448069
 20
-115.2665215129166
 30
0.0
 40
3.0
  1
35
  0
TEXT
  5
13D
  8
回08-記事
  6
CONTINUOUS
 62
     7
 10
1138.956318065257
 20
-197.5193215129167
 30
0.0
 40
3.0
  1
SUL
  0
TEXT
  5
13E
  8
回08-記事
  6
CONTINUOUS
 62
     7
 10
1138.956318065257
 20
-187.8425215129166
 30
0.0
 40
3.0
  1
L2
  0
TEXT
  5
13F
  8
回08-記事
  6
CONTINUOUS
 62
     7
 10
1138.671264828214
 20
-86.23612151291672
 30
0.0
 40
3.0
  1
R3
  0
TEXT
  5
140
  8
回08-記事
  6
CONTINUOUS
 62
     7
 10
1138.956318065257
 20
-192.6809215129167
 30
0.0
 40
3.0
  1
L1
  0
LINE
  5
141
  8
回08-記事
  6
CONTINUOUS
 62
     7
 10
1127.096512902491
 20
-196.2134367170406
 30
0.0
 11
1137.604237336028
 21
-196.2134367170406
 31
0.0
  0
LINE
  5
142
  8
回08-記事
  6
CONTINUOUS
 62
     7
 10
1127.096512902491
 20
-191.3750367170409
 30
0.0
 11
1137.604237336028
 21
-191.3750367170409
 31
0.0
  0
TEXT
  5
143
  8
回08-記事
  6
CONTINUOUS
 62
     7
 10
1122.818068333806
 20
-197.5193215129167
 30
0.0
 40
3.0
  1
26
  0
TEXT
  5
144
  8
回08-記事
  6
CONTINUOUS
 62
     7
 10
1122.818068333806
 20
-192.6809215129167
 30
0.0
 40
3.0
  1
25
  0
TEXT
  5
145
  8
回08-記事
  6
CONTINUOUS
 62
     7
 10
1138.671264828214
 20
-134.6201215129166
 30
0.0
 40
3.0
  1
SDR
  0
TEXT
  5
146
  8
回08-記事
  6
CONTINUOUS
 62
     7
 10
1138.671264828214
 20
-81.39772151291669
 30
0.0
 40
3.0
  1
R2
  0
TEXT
  5
147
  8
回08-記事
  6
CONTINUOUS
 62
     7
 10
1138.671264828214
 20
-163.6505215129167
 30
0.0
 40
3.0
  1
L7
  0
TEXT
  5
148
  8
回08-記事
  6
CONTINUOUS
 62
     7
 10
1138.671264828214
 20
-158.8121215129167
 30
0.0
 40
3.0
  1
L8
  0
TEXT
  5
149
  8
回08-記事
  6
CONTINUOUS
 62
     7
 10
1138.671264828214
 20
-110.4281215129166
 30
0.0
 40
3.0
  1
R8
  0
TEXT
  5
14A
  8
回08-記事
  6
CONTINUOUS
 62
     7
 10
1138.671264828214
 20
-105.5897215129166
 30
0.0
 40
3.0
  1
R7
  0
TEXT
  5
14B
  8
回08-記事
  6
CONTINUOUS
 62
     7
 10
1138.671264828214
 20
-100.7513215129166
 30
0.0
 40
3.0
  1
R6
  0
TEXT
  5
14C
  8
回08-記事
  6
CONTINUOUS
 62
     7
 10
1138.671264828214
 20
-95.91292151291662
 30
0.0
 40
3.0
  1
R5
  0
TEXT
  5
14D
  8
回08-記事
  6
CONTINUOUS
 62
     7
 10
1138.671264828214
 20
-91.07452151291672
 30
0.0
 40
3.0
  1
R4
  0
TEXT
  5
14E
  8
回08-記事
  6
CONTINUOUS
 62
     7
 10
1138.671264828214
 20
-76.55932151291669
 30
0.0
 40
3.0
  1
R1
  0
LINE
  5
14F
  8
回08-記事
  6
CONTINUOUS
 62
     7
 10
1127.096512902491
 20
-75.25343671704064
 30
0.0
 11
1137.604237336028
 21
-75.25343671704064
 31
0.0
  0
TEXT
  5
150
  8
回08-記事
  6
CONTINUOUS
 62
     7
 10
1124.011714626146
 20
-76.55932151291669
 30
0.0
 40
3.0
  1
1
  0
LINE
  5
151
  8
回08-記事
  6
CONTINUOUS
 62
     7
 10
1127.096512902491
 20
-80.09183671704063
 30
0.0
 11
1137.604237336028
 21
-80.09183671704063
 31
0.0
  0
TEXT
  5
152
  8
回08-記事
  6
CONTINUOUS
 62
     7
 10
1124.011714626146
 20
-81.39772151291669
 30
0.0
 40
3.0
  1
2
  0
LINE
  5
153
  8
回08-記事
  6
CONTINUOUS
 62
     7
 10
1127.096512902491
 20
-84.93023671704078
 30
0.0
 11
1137.604237336028
 21
-84.93023671704078
 31
0.0
  0
TEXT
  5
154
  8
回08-記事
  6
CONTINUOUS
 62
     7
 10
1124.011714626146
 20
-86.23612151291672
 30
0.0
 40
3.0
  1
3
  0
LINE
  5
155
  8
回08-記事
  6
CONTINUOUS
 62
     7
 10
1127.096512902491
 20
-89.76863671704069
 30
0.0
 11
1137.604237336028
 21
-89.76863671704069
 31
0.0
  0
TEXT
  5
156
  8
回08-記事
  6
CONTINUOUS
 62
     7
 10
1124.011714626146
 20
-91.07452151291672
 30
0.0
 40
3.0
  1
4
  0
LINE
  5
157
  8
回08-記事
  6
CONTINUOUS
 62
     7
 10
1127.096512902491
 20
-94.60703671704068
 30
0.0
 11
1137.604237336028
 21
-94.60703671704068
 31
0.0
  0
TEXT
  5
158
  8
回08-記事
  6
CONTINUOUS
 62
     7
 10
1124.011714626146
 20
-95.91292151291662
 30
0.0
 40
3.0
  1
5
  0
LINE
  5
159
  8
回08-記事
  6
CONTINUOUS
 62
     7
 10
1127.096512902491
 20
-99.44543671704071
 30
0.0
 11
1137.604237336028
 21
-99.44543671704071
 31
0.0
  0
TEXT
  5
15A
  8
回08-記事
  6
CONTINUOUS
 62
     7
 10
1124.011714626146
 20
-100.7513215129166
 30
0.0
 40
3.0
  1
6
  0
LINE
  5
15B
  8
回08-記事
  6
CONTINUOUS
 62
     7
 10
1127.096512902491
 20
-104.2838367170407
 30
0.0
 11
1137.604237336028
 21
-104.2838367170407
 31
0.0
  0
TEXT
  5
15C
  8
回08-記事
  6
CONTINUOUS
 62
     7
 10
1124.011714626146
 20
-105.5897215129166
 30
0.0
 40
3.0
  1
7
  0
LINE
  5
15D
  8
回08-記事
  6
CONTINUOUS
 62
     7
 10
1127.096512902491
 20
-109.1222367170407
 30
0.0
 11
1137.604237336028
 21
-109.1222367170407
 31
0.0
  0
TEXT
  5
15E
  8
回08-記事
  6
CONTINUOUS
 62
     7
 10
1124.011714626146
 20
-110.4281215129166
 30
0.0
 40
3.0
  1
8
  0
TEXT
  5
15F
  8
回08-記事
  6
CONTINUOUS
 62
     7
 10
1138.956318065257
 20
-183.0041215129165
 30
0.0
 40
3.0
  1
L3
  0
TEXT
  5
160
  8
回08-記事
  6
CONTINUOUS
 62
     7
 10
1138.956318065257
 20
-178.1657215129166
 30
0.0
 40
3.0
  1
L4
  0
TEXT
  5
161
  8
回08-記事
  6
CONTINUOUS
 62
     7
 10
1138.956318065257
 20
-173.3273215129166
 30
0.0
 40
3.0
  1
L5
  0
TEXT
  5
162
  8
回08-記事
  6
CONTINUOUS
 62
     7
 10
1138.956318065257
 20
-168.4889215129166
 30
0.0
 40
3.0
  1
L6
  0
LINE
  5
163
  8
回08-記事
  6
CONTINUOUS
 62
     7
 10
1127.096512902491
 20
-186.5366367170406
 30
0.0
 11
1137.604237336028
 21
-186.5366367170406
 31
0.0
  0
LINE
  5
164
  8
回08-記事
  6
CONTINUOUS
 62
     7
 10
1127.096512902491
 20
-181.6982367170408
 30
0.0
 11
1137.604237336028
 21
-181.6982367170408
 31
0.0
  0
LINE
  5
165
  8
回08-記事
  6
CONTINUOUS
 62
     7
 10
1127.096512902491
 20
-176.8598367170408
 30
0.0
 11
1137.604237336028
 21
-176.8598367170408
 31
0.0
  0
LINE
  5
166
  8
回08-記事
  6
CONTINUOUS
 62
     7
 10
1127.096512902491
 20
-172.0214367170406
 30
0.0
 11
1137.604237336028
 21
-172.0214367170406
 31
0.0
  0
LINE
  5
167
  8
回08-記事
  6
CONTINUOUS
 62
     7
 10
1127.096512902491
 20
-167.1830367170408
 30
0.0
 11
1137.604237336028
 21
-167.1830367170408
 31
0.0
  0
LINE
  5
168
  8
回08-記事
  6
CONTINUOUS
 62
     7
 10
1127.096512902491
 20
-162.3446367170407
 30
0.0
 11
1137.604237336028
 21
-162.3446367170407
 31
0.0
  0
LINE
  5
169
  8
回08-記事
  6
CONTINUOUS
 62
     7
 10
1127.096512902491
 20
-157.5062367170407
 30
0.0
 11
1137.604237336028
 21
-157.5062367170407
 31
0.0
  0
LINE
  5
16A
  8
回08-記事
  6
CONTINUOUS
 62
     7
 10
1127.096512902491
 20
-152.6678367170407
 30
0.0
 11
1137.604237336028
 21
-152.6678367170407
 31
0.0
  0
LINE
  5
16B
  8
回08-記事
  6
CONTINUOUS
 62
     7
 10
1127.096512902491
 20
-147.8294367170408
 30
0.0
 11
1137.604237336028
 21
-147.8294367170408
 31
0.0
  0
LINE
  5
16C
  8
回08-記事
  6
CONTINUOUS
 62
     7
 10
1127.096512902491
 20
-142.9910367170407
 30
0.0
 11
1137.604237336028
 21
-142.9910367170407
 31
0.0
  0
LINE
  5
16D
  8
回08-記事
  6
CONTINUOUS
 62
     7
 10
1127.096512902491
 20
-138.1526367170407
 30
0.0
 11
1137.604237336028
 21
-138.1526367170407
 31
0.0
  0
LINE
  5
16E
  8
回08-記事
  6
CONTINUOUS
 62
     7
 10
1127.096512902491
 20
-133.3142367170407
 30
0.0
 11
1137.604237336028
 21
-133.3142367170407
 31
0.0
  0
LINE
  5
16F
  8
回08-記事
  6
CONTINUOUS
 62
     7
 10
1127.096512902491
 20
-128.4758367170408
 30
0.0
 11
1137.604237336028
 21
-128.4758367170408
 31
0.0
  0
LINE
  5
170
  8
回08-記事
  6
CONTINUOUS
 62
     7
 10
1127.096512902491
 20
-123.6374367170406
 30
0.0
 11
1137.604237336028
 21
-123.6374367170406
 31
0.0
  0
LINE
  5
171
  8
回08-記事
  6
CONTINUOUS
 62
     7
 10
1127.096512902491
 20
-118.7990367170407
 30
0.0
 11
1137.604237336028
 21
-118.7990367170407
 31
0.0
  0
LINE
  5
172
  8
回08-記事
  6
CONTINUOUS
 62
     7
 10
1127.096512902491
 20
-113.9606367170408
 30
0.0
 11
1137.604237336028
 21
-113.9606367170408
 31
0.0
  0
TEXT
  5
173
  8
回08-記事
  6
CONTINUOUS
 62
     7
 10
1122.818068333806
 20
-187.8425215129166
 30
0.0
 40
3.0
  1
24
  0
TEXT
  5
174
  8
回08-記事
  6
CONTINUOUS
 62
     7
 10
1122.818068333806
 20
-183.0041215129165
 30
0.0
 40
3.0
  1
23
  0
TEXT
  5
175
  8
回08-記事
  6
CONTINUOUS
 62
     7
 10
1122.818068333806
 20
-178.1657215129166
 30
0.0
 40
3.0
  1
22
  0
TEXT
  5
176
  8
回08-記事
  6
CONTINUOUS
 62
     7
 10
1122.818068333806
 20
-173.3273215129166
 30
0.0
 40
3.0
  1
21
  0
TEXT
  5
177
  8
回08-記事
  6
CONTINUOUS
 62
     7
 10
1122.818068333806
 20
-168.4889215129166
 30
0.0
 40
3.0
  1
20
  0
TEXT
  5
178
  8
回08-記事
  6
CONTINUOUS
 62
     7
 10
1122.818068333806
 20
-163.6505215129167
 30
0.0
 40
3.0
  1
19
  0
TEXT
  5
179
  8
回08-記事
  6
CONTINUOUS
 62
     7
 10
1122.818068333806
 20
-158.8121215129167
 30
0.0
 40
3.0
  1
18
  0
TEXT
  5
17A
  8
回08-記事
  6
CONTINUOUS
 62
     7
 10
1122.818068333806
 20
-153.9737215129166
 30
0.0
 40
3.0
  1
17
  0
TEXT
  5
17B
  8
回08-記事
  6
CONTINUOUS
 62
     7
 10
1122.818068333806
 20
-149.1353215129167
 30
0.0
 40
3.0
  1
16
  0
TEXT
  5
17C
  8
回08-記事
  6
CONTINUOUS
 62
     7
 10
1122.643387658672
 20
-144.2969215129166
 30
0.0
 40
3.0
  1
15
  0
TEXT
  5
17D
  8
回08-記事
  6
CONTINUOUS
 62
     7
 10
1122.643387658672
 20
-139.4585215129166
 30
0.0
 40
3.0
  1
14
  0
TEXT
  5
17E
  8
回08-記事
  6
CONTINUOUS
 62
     7
 10
1122.643387658672
 20
-134.6201215129166
 30
0.0
 40
3.0
  1
13
  0
TEXT
  5
17F
  8
回08-記事
  6
CONTINUOUS
 62
     7
 10
1122.643387658672
 20
-129.7817215129166
 30
0.0
 40
3.0
  1
12
  0
TEXT
  5
180
  8
回08-記事
  6
CONTINUOUS
 62
     7
 10
1122.643387658672
 20
-124.9433215129166
 30
0.0
 40
3.0
  1
11
  0
TEXT
  5
181
  8
回08-記事
  6
CONTINUOUS
 62
     7
 10
1122.643387658672
 20
-120.1049215129167
 30
0.0
 40
3.0
  1
10
  0
TEXT
  5
182
  8
回08-記事
  6
CONTINUOUS
 62
     7
 10
1124.011714626146
 20
-115.2665215129166
 30
0.0
 40
3.0
  1
9
  0
POLYLINE
  5
183
  8
回08-記事
  6
DASHED2
 62
     7
 66
     1
 10
0.0
 20
0.0
 30
0.0
 70
     1
1001
ACAD
1000
ASC_BOUNDS
1002
{
1070
    19
1005
186
1002
}
  0
VERTEX
  5
B55
  8
回08-記事
  6
DASHED2
 62
     7
 10
850.2199819557548
 20
-256.2806102355066
 30
0.0
  0
VERTEX
  5
B57
  8
回08-記事
  6
DASHED2
 62
     7
 10
876.2199819557549
 20
-256.2806102355066
 30
0.0
  0
VERTEX
  5
B58
  8
回08-記事
  6
DASHED2
 62
     7
 10
876.2199819557549
 20
-249.0806102355066
 30
0.0
  0
VERTEX
  5
B59
  8
回08-記事
  6
DASHED2
 62
     7
 10
850.2199819557548
 20
-249.0806102355066
 30
0.0
  0
SEQEND
  5
B56
  8
0
  6
CONTINUOUS
 62
     5
  0
POLYLINE
  5
185
  8
回08-記事
  6
DASHED2
 62
     7
 66
     1
 10
0.0
 20
0.0
 30
0.0
 70
     1
1001
ACAD
1000
ASC_BOUNDS
1002
{
1070
    19
1005
189
1002
}
  0
VERTEX
  5
B5A
  8
回08-記事
  6
DASHED2
 62
     7
 10
814.2199819557546
 20
-256.2806102355066
 30
0.0
  0
VERTEX
  5
B5C
  8
回08-記事
  6
DASHED2
 62
     7
 10
848.2199819557546
 20
-256.2806102355066
 30
0.0
  0
VERTEX
  5
B5D
  8
回08-記事
  6
DASHED2
 62
     7
 10
848.2199819557546
 20
-249.0806102355066
 30
0.0
  0
VERTEX
  5
B5E
  8
回08-記事
  6
DASHED2
 62
     7
 10
814.2199819557546
 20
-249.0806102355066
 30
0.0
  0
SEQEND
  5
B5B
  8
0
  6
CONTINUOUS
 62
     5
  0
INSERT
  5
186
  8
回08-記事
  6
CONTINUOUS
 62
     7
 66
     1
  2
*X8080
 10
0.0
 20
0.0
 30
0.0
1001
GRADIENTCOLOR1ACI
1070
     5
1001
GRADIENTCOLOR2ACI
1070
     2
1001
ACAD
1010
0.0
1020
0.0
1030
0.0
  0
SEQEND
  5
72F
  8
0
  6
CONTINUOUS
 62
     5
  0
INSERT
  5
189
  8
回08-記事
  6
CONTINUOUS
 62
     7
 66
     1
  2
*X8181
 10
0.0
 20
0.0
 30
0.0
1001
GRADIENTCOLOR1ACI
1070
     5
1001
GRADIENTCOLOR2ACI
1070
     2
1001
ACAD
1010
0.0
1020
0.0
1030
0.0
  0
SEQEND
  5
746
  8
0
  6
CONTINUOUS
 62
     5
  0
ARC
  5
18A
  8
回08-記事
  6
CONTINUOUS
 62
     7
 10
1011.316440845368
 20
-102.9365618646948
 30
0.0
 40
0.5
 50
90.0
 51
270.0
  0
ARC
  5
18B
  8
回08-記事
  6
CONTINUOUS
 62
     7
 10
1011.316440845368
 20
-117.3365618646948
 30
0.0
 40
0.5
 50
90.0
 51
270.0
  0
ARC
  5
18C
  8
回08-記事
  6
CONTINUOUS
 62
     7
 10
1011.316440845368
 20
-120.2165618646948
 30
0.0
 40
0.5
 50
90.0
 51
270.0
  0
ARC
  5
18D
  8
回08-記事
  6
CONTINUOUS
 62
     7
 10
1011.316440845368
 20
-105.8165618646948
 30
0.0
 40
0.5
 50
90.0
 51
270.0
  0
ARC
  5
18E
  8
回08-記事
  6
CONTINUOUS
 62
     7
 10
1011.316440845368
 20
-108.6965618646948
 30
0.0
 40
0.5
 50
90.0
 51
270.0
  0
ARC
  5
18F
  8
回08-記事
  6
CONTINUOUS
 62
     7
 10
1011.316440845368
 20
-111.5765618646948
 30
0.0
 40
0.5
 50
90.0
 51
270.0
  0
ARC
  5
190
  8
回08-記事
  6
CONTINUOUS
 62
     7
 10
1011.316440845368
 20
-114.4565618646948
 30
0.0
 40
0.5
 50
90.0
 51
270.0
  0
ARC
  5
191
  8
回08-記事
  6
CONTINUOUS
 62
     7
 10
1011.316440845368
 20
-123.0965618646948
 30
0.0
 40
0.5
 50
90.0
 51
270.0
  0
ARC
  5
192
  8
回08-記事
  6
CONTINUOUS
 62
     7
 10
1011.316440845368
 20
-125.9765618646948
 30
0.0
 40
0.5
 50
90.0
 51
270.0
  0
ARC
  5
193
  8
回08-記事
  6
CONTINUOUS
 62
     7
 10
1011.316440845368
 20
-128.8565618646948
 30
0.0
 40
0.5
 50
90.0
 51
270.0
  0
ARC
  5
194
  8
回08-記事
  6
CONTINUOUS
 62
     7
 10
1011.316440845368
 20
-143.2565618646948
 30
0.0
 40
0.5
 50
90.0
 51
270.0
  0
ARC
  5
195
  8
回08-記事
  6
CONTINUOUS
 62
     7
 10
1011.316440845368
 20
-146.1365618646948
 30
0.0
 40
0.5
 50
90.0
 51
270.0
  0
ARC
  5
196
  8
回08-記事
  6
CONTINUOUS
 62
     7
 10
1011.316440845368
 20
-131.7365618646948
 30
0.0
 40
0.5
 50
90.0
 51
270.0
  0
ARC
  5
197
  8
回08-記事
  6
CONTINUOUS
 62
     7
 10
1011.316440845368
 20
-134.6165618646948
 30
0.0
 40
0.5
 50
90.0
 51
270.0
  0
ARC
  5
198
  8
回08-記事
  6
CONTINUOUS
 62
     7
 10
1011.316440845368
 20
-137.4965618646948
 30
0.0
 40
0.5
 50
90.0
 51
270.0
  0
ARC
  5
199
  8
回08-記事
  6
CONTINUOUS
 62
     7
 10
1011.316440845368
 20
-140.3765618646948
 30
0.0
 40
0.5
 50
90.0
 51
270.0
  0
DIMENSION
  5
19A
  8
回07-寸法
  6
CONTINUOUS
 62
     5
  2
*D3939
 10
889.4150726956018
 20
-262.9873704695659
 30
0.0
 11
889.4150726956018
 21
-271.3702131820404
 31
0.0
 70
   160
  3
DMC
 13
876.7199819557546
 23
-252.6806102355066
 33
0.0
 14
869.9688566403064
 24
-262.9873704695659
 34
0.0
 50
90.0
1001
ACAD
1000
DSTYLE
1002
{
1070
   271
1070
     1
1070
    41
1040
1.5
1070
    47
1040
0.2
1070
    48
1040
0.2
1070
   141
1040
1.5
1070
   371
1070
    13
1070
   372
1070
    13
1002
}
  0
DIMENSION
  5
1AD
  8
回07-寸法
  6
CONTINUOUS
 62
     5
  2
*D4040
 10
883.330418915763
 20
-256.2362451541179
 30
0.0
 11
883.330418915763
 21
-268.9698892283439
 31
0.0
 70
   160
  3
DMC
 13
876.7199819557546
 23
-252.6806102355066
 33
0.0
 14
876.7199819557546
 24
-256.2362451541179
 34
0.0
 50
90.0
1001
ACAD
1000
DSTYLE
1002
{
1070
   271
1070
     1
1070
    41
1040
1.5
1070
    47
1040
0.2
1070
    48
1040
0.2
1070
   141
1040
1.5
1070
   371
1070
    13
1070
   372
1070
    13
1002
}
  0
DIMENSION
  5
1BC
  8
回07-寸法
  6
CONTINUOUS
 62
     5
  2
*D4141
 10
876.7199819557546
 20
-282.4560594120587
 30
0.0
 11
883.4707693573296
 21
-282.4560594120587
 31
0.0
 70
   160
  3
DMC
 13
849.7199819557549
 23
-255.8220315917445
 33
0.0
 14
876.7199819557546
 24
-255.8220315917445
 34
0.0
1001
ACAD
1000
DSTYLE
1002
{
1070
    41
1040
1.5
1070
    47
1040
0.2
1070
    48
1040
0.2
1070
   141
1040
1.5
1070
   371
1070
    13
1070
   372
1070
    13
1002
}
  0
DIMENSION
  5
1CB
  8
回07-寸法
  6
CONTINUOUS
 62
     5
  2
*D4242
 10
813.7199819557547
 20
-277.6529214534049
 30
0.0
 11
806.9371392432801
 21
-277.6529214534049
 31
0.0
 70
   160
  3
DMC
 13
848.7199819557549
 23
-255.8940376362892
 33
0.0
 14
813.7199819557547
 24
-255.8940376362892
 34
0.0
1001
ACAD
1000
DSTYLE
1002
{
1070
    41
1040
1.5
1070
    47
1040
0.2
1070
    48
1040
0.2
1070
   141
1040
1.5
1070
   371
1070
    13
1070
   372
1070
    13
1002
}
  0
DIMENSION
  5
1DA
  8
回07-寸法
  6
CONTINUOUS
 62
     5
  2
*D4343
 10
804.2157834861862
 20
-270.0571258832141
 30
0.0
 11
801.7157834861862
 21
-261.3688680593603
 31
0.0
 70
    32
  3
DMC
 13
813.7199819557547
 23
-252.6806102355066
 33
0.0
 14
827.4688566403064
 24
-270.0571258832141
 34
0.0
 50
90.0
1001
ACAD
1000
DSTYLE
1002
{
1070
   271
1070
     1
1070
    41
1040
1.5
1070
    47
1040
0.2
1070
    48
1040
0.2
1070
   141
1040
1.5
1070
   371
1070
    13
1070
   372
1070
    13
1002
}
  0
DIMENSION
  5
1E7
  8
回07-寸法
  6
CONTINUOUS
 62
     5
  2
*D4444
 10
811.4066548362222
 20
-256.3082511986626
 30
0.0
 11
808.9066548362222
 21
-262.6099212555303
 31
0.0
 70
    32
  3
DMC
 13
813.7199819557547
 23
-252.6806102355066
 33
0.0
 14
813.7199819557547
 24
-256.3082511986626
 34
0.0
 50
90.0
1001
ACAD
1000
DSTYLE
1002
{
1070
   271
1070
     1
1070
    41
1040
1.5
1070
    47
1040
0.2
1070
    48
1040
0.2
1070
   141
1040
1.5
1070
   371
1070
    13
1070
   372
1070
    13
1002
}
  0
DIMENSION
  5
1F6
  8
回07-寸法
  6
CONTINUOUS
 62
     5
  2
*D4545
 10
869.9688566403064
 20
-376.6712820928331
 30
0.0
 11
880.4388566403064
 21
-374.1712820928331
 31
0.0
 70
    32
  3
DMC
 13
856.4688566403063
 23
-352.1765618646953
 33
0.0
 14
869.9688566403064
 24
-352.1765618646962
 34
0.0
1001
ACAD
1000
DSTYLE
1002
{
1070
    41
1040
1.5
1070
    47
1040
0.1
1070
    48
1040
0.1
1070
    71
1070
     1
1070
   141
1040
1.5
1070
   371
1070
    13
1070
   372
1070
    13
1002
}
  0
DIMENSION
  5
205
  8
回07-寸法
  6
CONTINUOUS
 62
     5
  2
*D4646
 10
856.4688566403063
 20
-376.6712820928331
 30
0.0
 11
792.3909601922339
 21
-373.9712820928331
 31
0.0
 70
    32
  1
(<>)
  3
DMC
 13
728.3130637441615
 23
-252.6806102355066
 33
0.0
 14
856.4688566403063
 24
-352.1765618646953
 34
0.0
1001
ACAD
1000
DSTYLE
1002
{
1070
    41
1040
1.5
1070
    47
1040
0.2
1070
    48
1040
0.2
1070
   141
1040
1.5
1070
   371
1070
    13
1070
   372
1070
    13
1002
}
  0
DIMENSION
  5
212
  8
回07-寸法
  6
CONTINUOUS
 62
     5
  2
*D4747
 10
844.9688566403064
 20
-367.6765618646951
 30
0.0
 11
836.2188566403064
 21
-365.1765618646952
 31
0.0
 70
    32
  3
DMC
 13
827.4688566403064
 23
-352.1765618646953
 33
0.0
 14
844.9688566403064
 24
-352.1765618646953
 34
0.0
1001
ACAD
1000
DSTYLE
1002
{
1070
    41
1040
1.5
1070
    47
1040
0.1
1070
    48
1040
0.1
1070
    71
1070
     1
1070
   141
1040
1.5
1070
   371
1070
    13
1070
   372
1070
    13
1002
}
  0
DIMENSION
  5
21F
  8
回07-寸法
  6
CONTINUOUS
 62
     5
  2
*D4848
 10
827.4688566403064
 20
-367.6765618646951
 30
0.0
 11
777.8909601922339
 21
-364.9765618646952
 31
0.0
 70
    32
  1
(<>)
  3
DMC
 13
728.3130637441615
 23
-252.6806102355066
 33
0.0
 14
827.4688566403064
 24
-352.1765618646953
 34
0.0
1001
ACAD
1000
DSTYLE
1002
{
1070
    41
1040
1.5
1070
    47
1040
0.2
1070
    48
1040
0.2
1070
   141
1040
1.5
1070
   371
1070
    13
1070
   372
1070
    13
1002
}
  0
DIMENSION
  5
22C
  8
回07-寸法
  6
CONTINUOUS
 62
     5
  2
*D4949
 10
895.7871795654579
 20
-352.6765618646962
 30
0.0
 11
893.2871795654579
 21
-302.6785618646954
 31
0.0
 70
    32
  3
DMC
 13
876.7199819557546
 23
-252.6805618646947
 33
0.0
 14
869.4688566403064
 24
-352.6765618646962
 34
0.0
 50
90.0
1001
ACAD
1000
DSTYLE
1002
{
1070
    41
1040
1.5
1070
    47
1040
1.0
1070
    48
1040
1.0
1070
    71
1070
     1
1070
   141
1040
1.5
1070
   371
1070
    13
1070
   372
1070
    13
1002
}
  0
DIMENSION
  5
239
  8
回07-寸法
  6
CONTINUOUS
 62
     5
  2
*D5050
 10
786.2222096953606
 20
-252.6806102355066
 30
0.0
 11
783.7222096953606
 21
-302.6785860501009
 31
0.0
 70
    32
  3
DMC
 13
827.9688566403063
 23
-352.6765618646952
 33
0.0
 14
813.7199819557547
 24
-252.6806102355066
 34
0.0
 50
90.0
1001
ACAD
1000
DSTYLE
1002
{
1070
    41
1040
1.5
1070
    47
1040
1.0
1070
    48
1040
1.0
1070
    71
1070
     1
1070
   141
1040
1.5
1070
   371
1070
    13
1070
   372
1070
    13
1002
}
  0
DIMENSION
  5
246
  8
回07-寸法
  6
CONTINUOUS
 62
     5
  2
*D5151
 10
706.3330637441616
 20
-96.48061023550647
 30
0.0
 11
706.3330637441616
 21
-87.93179133786859
 31
0.0
 70
   160
  1
(<>)
  3
DMC
 13
735.3330637441615
 23
-104.3806102355065
 33
0.0
 14
728.3130637441615
 24
-96.48061023550647
 34
0.0
 50
90.0
1001
ACAD
1000
DSTYLE
1002
{
1070
    41
1040
1.5
1070
    47
1040
0.2
1070
    48
1040
0.2
1070
   141
1040
1.5
1070
   371
1070
    13
1070
   372
1070
    13
1002
}
  0
DIMENSION
  5
255
  8
回07-寸法
  6
CONTINUOUS
 62
     5
  2
*D5252
 10
696.3330637441615
 20
-96.48061023550647
 30
0.0
 11
693.6320171513191
 21
-88.57496430160214
 31
0.0
 70
    32
  1
(<>)
  3
DMC
 13
733.3130637441615
 23
-102.3806102355064
 33
0.0
 14
728.3130637441615
 24
-96.48061023550647
 34
0.0
 50
90.0
1001
ACAD
1000
DSTYLE
1002
{
1070
    41
1040
1.5
1070
    47
1040
0.2
1070
    48
1040
0.2
1070
   141
1040
1.5
1070
   371
1070
    13
1070
   372
1070
    13
1002
}
  0
DIMENSION
  5
264
  8
回07-寸法
  6
CONTINUOUS
 62
     5
  2
*D5353
 10
686.3330637441615
 20
-96.48061023550647
 30
0.0
 11
683.6330637441615
 21
-73.45323818826241
 31
0.0
 70
    32
  1
(<>){\H0.75x;(Insulation area)}
  3
DMC
 13
732.8130637441615
 23
-101.8806102355064
 33
0.0
 14
728.3130637441615
 24
-96.48061023550647
 34
0.0
 50
90.0
1001
ACAD
1000
DSTYLE
1002
{
1070
    41
1040
1.5
1070
    47
1040
0.2
1070
    48
1040
0.2
1070
   141
1040
1.5
1070
   371
1070
    13
1070
   372
1070
    13
1002
}
  0
DIMENSION
  5
273
  8
回07-寸法
  6
CONTINUOUS
 62
     5
  2
*D5454
 10
706.3330637441615
 20
-252.6806102355066
 30
0.0
 11
706.3330637441615
 21
-260.0306102355065
 31
0.0
 70
   160
  3
DMC
 13
735.3330637441615
 23
-239.9806102355065
 33
0.0
 14
728.3130637441615
 24
-252.6806102355066
 34
0.0
 50
90.0
1001
ACAD
1000
DSTYLE
1002
{
1070
    41
1040
1.5
1070
    47
1040
0.2
1070
    48
1040
0.2
1070
   141
1040
1.5
1070
   371
1070
    13
1070
   372
1070
    13
1002
}
  0
DIMENSION
  5
282
  8
回07-寸法
  6
CONTINUOUS
 62
     5
  2
*D5555
 10
686.3330637441615
 20
-252.6806102355066
 30
0.0
 11
683.7580637441615
 21
-274.9087696843255
 31
0.0
 70
    32
  1
<>{\H0.75x;(Insulation area)}
  3
DMC
 13
732.8130637441615
 23
-242.4806102355065
 33
0.0
 14
728.3130637441615
 24
-252.6806102355066
 34
0.0
 50
90.0
1001
ACAD
1000
DSTYLE
1002
{
1070
    41
1040
1.5
1070
    47
1040
0.2
1070
    48
1040
0.2
1070
   141
1040
1.5
1070
   371
1070
    13
1070
   372
1070
    13
1002
}
  0
DIMENSION
  5
291
  8
回07-寸法
  6
CONTINUOUS
 62
     5
  2
*D5656
 10
959.3130637441616
 20
-67.48061023550646
 30
0.0
 11
965.2114889410119
 21
-64.78061023550647
 31
0.0
 70
    32
  1
(<>)
  3
DMC
 13
954.3130637441617
 23
-102.3806102355065
 33
0.0
 14
959.3130637441616
 24
-96.4806102355066
 34
0.0
1001
ACAD
1000
DSTYLE
1002
{
1070
    41
1040
1.5
1070
    47
1040
0.2
1070
    48
1040
0.2
1070
   141
1040
1.5
1070
   371
1070
    13
1070
   372
1070
    13
1002
}
  0
DIMENSION
  5
2A0
  8
回07-寸法
  6
CONTINUOUS
 62
     5
  2
*D5757
 10
959.3130637441616
 20
-76.48061023550646
 30
0.0
 11
968.611488941012
 21
-76.48061023550646
 31
0.0
 70
   160
  1
(<>)
  3
DMC
 13
952.2930637441616
 23
-104.3806102355065
 33
0.0
 14
959.3130637441616
 24
-96.4806102355066
 34
0.0
1001
ACAD
1000
DSTYLE
1002
{
1070
    41
1040
1.5
1070
    47
1040
0.2
1070
    48
1040
0.2
1070
   141
1040
1.5
1070
   371
1070
    13
1070
   372
1070
    13
1002
}
  0
DIMENSION
  5
2AF
  8
回07-寸法
  6
CONTINUOUS
 62
     5
  2
*D5858
 10
728.3130637441615
 20
-67.48061023550646
 30
0.0
 11
723.930221031687
 21
-67.48061023550646
 31
0.0
 70
   160
  3
DMC
 13
733.3130637441615
 23
-102.3806102355064
 33
0.0
 14
728.3130637441615
 24
-96.48061023550647
 34
0.0
1001
ACAD
1000
DSTYLE
1002
{
1070
    41
1040
1.5
1070
    47
1040
0.2
1070
    48
1040
0.2
1070
   141
1040
1.5
1070
   371
1070
    13
1070
   372
1070
    13
1002
}
  0
DIMENSION
  5
2BE
  8
回07-寸法
  6
CONTINUOUS
 62
     5
  2
*D5959
 10
728.3130637441615
 20
-76.48061023550646
 30
0.0
 11
720.4929456339252
 21
-76.48061023550646
 31
0.0
 70
   160
  3
DMC
 13
735.3330637441615
 23
-104.3806102355075
 33
0.0
 14
728.3130637441615
 24
-96.48061023550647
 34
0.0
1001
ACAD
1000
DSTYLE
1002
{
1070
    41
1040
1.5
1070
    47
1040
0.2
1070
    48
1040
0.2
1070
   141
1040
1.5
1070
   371
1070
    13
1070
   372
1070
    13
1002
}
  0
DIMENSION
  5
2CD
  8
回07-寸法
  6
CONTINUOUS
 62
     5
  2
*D6060
 10
959.3130637441616
 20
-58.48061023550648
 30
0.0
 11
982.3404357914055
 21
-55.78061023550646
 31
0.0
 70
    32
  1
(<>){\H0.75x;(Insulation area)}
  3
DMC
 13
954.8130637441616
 23
-101.8806102355065
 33
0.0
 14
959.3130637441616
 24
-96.4806102355066
 34
0.0
1001
ACAD
1000
DSTYLE
1002
{
1070
    41
1040
1.5
1070
    47
1040
0.2
1070
    48
1040
0.2
1070
   141
1040
1.5
1070
   371
1070
    13
1070
   372
1070
    13
1002
}
  0
DIMENSION
  5
2DC
  8
回07-寸法
  6
CONTINUOUS
 62
     5
  2
*D6161
 10
728.3130637441615
 20
-58.48061023550648
 30
0.0
 11
706.8849042953427
 21
-55.90561023550646
 31
0.0
 70
    32
  1
<>{\H0.75x;(Insulation area)}
  3
DMC
 13
732.8130637441615
 23
-101.8806102355064
 33
0.0
 14
728.3130637441615
 24
-96.48061023550647
 34
0.0
1001
ACAD
1000
DSTYLE
1002
{
1070
    41
1040
1.5
1070
    47
1040
0.2
1070
    48
1040
0.2
1070
   141
1040
1.5
1070
   371
1070
    13
1070
   372
1070
    13
1002
}
  0
DIMENSION
  5
2EB
  8
回07-寸法
  6
CONTINUOUS
 62
     5
  2
*D6262
 10
686.3330637441615
 20
-242.4806102355065
 30
0.0
 11
683.8330637441615
 21
-172.1806102355065
 31
0.0
 70
    32
  3
DMC
 13
732.8130637441615
 23
-101.8806102355064
 33
0.0
 14
732.8130637441615
 24
-242.4806102355065
 34
0.0
 50
90.0
1001
ACAD
1000
DSTYLE
1002
{
1070
    41
1040
1.5
1070
    47
1040
0.2
1070
    48
1040
0.2
1070
   141
1040
1.5
1070
   371
1070
    13
1070
   372
1070
    13
1002
}
  0
DIMENSION
  5
2F8
  8
回07-寸法
  6
CONTINUOUS
 62
     5
  2
*D6363
 10
696.3330637441615
 20
-241.9806102355065
 30
0.0
 11
693.2330637441615
 21
-172.1806102355065
 31
0.0
 70
    32
  1
<>(Viewing area)
  3
DMC
 13
733.3130637441615
 23
-102.3806102355064
 33
0.0
 14
733.3130637441615
 24
-241.9806102355065
 34
0.0
 50
90.0
1001
ACAD
1000
DSTYLE
1002
{
1070
    41
1040
1.5
1070
    47
1040
0.2
1070
    48
1040
0.2
1070
   141
1040
1.5
1070
   371
1070
    13
1070
   372
1070
    13
1002
}
  0
DIMENSION
  5
305
  8
回07-寸法
  6
CONTINUOUS
 62
     5
  2
*D6464
 10
706.3330637441615
 20
-239.9806102355065
 30
0.0
 11
703.6330637441615
 21
-172.1806102355065
 31
0.0
 70
    32
  1
<>(Active area)
  3
DMC
 13
735.3330637441615
 23
-104.3806102355065
 33
0.0
 14
735.3330637441615
 24
-239.9806102355065
 34
0.0
 50
90.0
1001
ACAD
1000
DSTYLE
1002
{
1070
    41
1040
1.5
1070
    47
1040
0.2
1070
    48
1040
0.2
1070
   141
1040
1.5
1070
   371
1070
    13
1070
   372
1070
    13
1002
}
  0
DIMENSION
  5
312
  8
回07-寸法
  6
CONTINUOUS
 62
     5
  2
*D6565
 10
676.3330637441615
 20
-252.6806102355066
 30
0.0
 11
673.8330637441615
 21
-174.5806102355065
 31
0.0
 70
    32
  3
DMC
 13
728.3130637441615
 23
-96.48061023550647
 33
0.0
 14
728.3130637441615
 24
-252.6806102355066
 34
0.0
 50
90.0
1001
ACAD
1000
DSTYLE
1002
{
1070
    41
1040
1.5
1070
    47
1040
0.3
1070
    48
1040
0.3
1070
    71
1070
     1
1070
   141
1040
1.5
1070
   371
1070
    13
1070
   372
1070
    13
1002
}
  0
DIMENSION
  5
31F
  8
回07-寸法
  6
CONTINUOUS
 62
     5
  2
*D6666
 10
952.2930637441614
 20
-76.48061023550646
 30
0.0
 11
843.8130637441615
 21
-73.78061023550647
 31
0.0
 70
    32
  1
<>(Active area)
  3
DMC
 13
735.3330637441615
 23
-104.3806102355065
 33
0.0
 14
952.2930637441614
 24
-104.3806102355056
 34
0.0
1001
ACAD
1000
DSTYLE
1002
{
1070
    41
1040
1.5
1070
    47
1040
0.2
1070
    48
1040
0.2
1070
   141
1040
1.5
1070
   371
1070
    13
1070
   372
1070
    13
1002
}
  0
DIMENSION
  5
32C
  8
回07-寸法
  6
CONTINUOUS
 62
     5
  2
*D6767
 10
954.8130637441616
 20
-58.48061023550648
 30
0.0
 11
843.8130637441615
 21
-55.98061023550648
 31
0.0
 70
    32
  3
DMC
 13
732.8130637441615
 23
-101.8806102355064
 33
0.0
 14
954.8130637441616
 24
-101.8806102355065
 34
0.0
1001
ACAD
1000
DSTYLE
1002
{
1070
    41
1040
1.5
1070
    47
1040
0.2
1070
    48
1040
0.2
1070
   141
1040
1.5
1070
   371
1070
    13
1070
   372
1070
    13
1002
}
  0
DIMENSION
  5
339
  8
回07-寸法
  6
CONTINUOUS
 62
     5
  2
*D6868
 10
954.3130637441617
 20
-67.48061023550646
 30
0.0
 11
843.8130637441615
 21
-64.38061023550648
 31
0.0
 70
    32
  1
<>(Viewing area)
  3
DMC
 13
733.3130637441615
 23
-102.3806102355064
 33
0.0
 14
954.3130637441617
 24
-102.3806102355065
 34
0.0
1001
ACAD
1000
DSTYLE
1002
{
1070
    41
1040
1.5
1070
    47
1040
0.2
1070
    48
1040
0.2
1070
   141
1040
1.5
1070
   371
1070
    13
1070
   372
1070
    13
1002
}
  0
DIMENSION
  5
346
  8
回07-寸法
  6
CONTINUOUS
 62
     5
  2
*D6969
 10
959.3130637441616
 20
-49.48061023550646
 30
0.0
 11
843.8130637441615
 21
-46.98061023550646
 31
0.0
 70
    32
  3
DMC
 13
728.3130637441615
 23
-96.48061023550647
 33
0.0
 14
959.3130637441616
 24
-96.4806102355066
 34
0.0
1001
ACAD
1000
DSTYLE
1002
{
1070
   147
1040
0.5
1070
    72
1070
     0
1070
    71
1070
     1
1070
    41
1040
1.5
1070
    47
1040
0.3
1070
    48
1040
0.3
1070
   141
1040
1.5
1070
   371
1070
    13
1070
   372
1070
    13
1002
}
  0
DIMENSION
  5
353
  8
回07-寸法
  6
CONTINUOUS
 62
     5
  2
*D7070
 10
696.3330637441615
 20
-252.6806102355066
 30
0.0
 11
696.3330637441615
 21
-260.0306102355065
 31
0.0
 70
   160
  3
DMC
 13
733.3130637441615
 23
-241.9806102355065
 33
0.0
 14
728.3130637441615
 24
-252.6806102355066
 34
0.0
 50
90.0
1001
ACAD
1000
DSTYLE
1002
{
1070
    41
1040
1.5
1070
    47
1040
0.2
1070
    48
1040
0.2
1070
   141
1040
1.5
1070
   371
1070
    13
1070
   372
1070
    13
1002
}
  0
TEXT
  5
362
  8
回08-記事
  6
CONTINUOUS
 62
     7
 10
947.5539899320127
 20
-235.5760713817729
 30
0.0
 40
2.0
  1
SDR
  0
TEXT
  5
363
  8
回08-記事
  6
CONTINUOUS
 62
     7
 10
948.8267216087038
 20
-232.7440234793124
 30
0.0
 40
2.0
  1
R8
  0
TEXT
  5
364
  8
回08-記事
  6
CONTINUOUS
 62
     7
 10
948.8267216087038
 20
-215.8370612843576
 30
0.0
 40
2.0
  1
R7
  0
TEXT
  5
365
  8
回08-記事
  6
CONTINUOUS
 62
     7
 10
948.8267216087038
 20
-198.8620129229574
 30
0.0
 40
2.0
  1
R6
  0
TEXT
  5
366
  8
回08-記事
  6
CONTINUOUS
 62
     7
 10
948.8267216087038
 20
-181.8188783951123
 30
0.0
 40
2.0
  1
R5
  0
TEXT
  5
367
  8
回08-記事
  6
CONTINUOUS
 62
     7
 10
948.8267216087038
 20
-164.9247632373882
 30
0.0
 40
2.0
  1
R4
  0
TEXT
  5
368
  8
回08-記事
  6
CONTINUOUS
 62
     7
 10
948.8267216087038
 20
-147.825993002412
 30
0.0
 40
2.0
  1
R3
  0
TEXT
  5
369
  8
回08-記事
  6
CONTINUOUS
 62
     7
 10
948.8267216087038
 20
-130.9005377530517
 30
0.0
 40
2.0
  1
R2
  0
TEXT
  5
36A
  8
回08-記事
  6
CONTINUOUS
 62
     7
 10
948.8267216087038
 20
-113.5700700014463
 30
0.0
 40
2.0
  1
R1
  0
TEXT
  5
36B
  8
回08-記事
  6
CONTINUOUS
 62
     7
 10
947.6151999793007
 20
-107.1302077044938
 30
0.0
 40
2.0
  1
SUR
  0
TEXT
  5
36C
  8
回08-記事
  6
CONTINUOUS
 62
     7
 10
735.7575852687574
 20
-109.963051904173
 30
0.0
 40
2.0
  1
SUL
  0
TEXT
  5
36D
  8
回08-記事
  6
CONTINUOUS
 62
     7
 10
736.1415635097992
 20
-232.5647201671626
 30
0.0
 40
2.0
  1
L8
  0
TEXT
  5
36E
  8
回08-記事
  6
CONTINUOUS
 62
     7
 10
736.1415635097992
 20
-215.7673074034121
 30
0.0
 40
2.0
  1
L7
  0
TEXT
  5
36F
  8
回08-記事
  6
CONTINUOUS
 62
     7
 10
736.1415635097992
 20
-198.6469967258329
 30
0.0
 40
2.0
  1
L6
  0
TEXT
  5
370
  8
回08-記事
  6
CONTINUOUS
 62
     7
 10
736.1415635097992
 20
-181.7580850878194
 30
0.0
 40
2.0
  1
L5
  0
TEXT
  5
371
  8
回08-記事
  6
CONTINUOUS
 62
     7
 10
736.1415635097992
 20
-164.5518422375681
 30
0.0
 40
2.0
  1
L4
  0
TEXT
  5
372
  8
回08-記事
  6
CONTINUOUS
 62
     7
 10
736.1415635097992
 20
-147.6270611706655
 30
0.0
 40
2.0
  1
L3
  0
TEXT
  5
373
  8
回08-記事
  6
CONTINUOUS
 62
     7
 10
736.1415635097992
 20
-130.6744507703102
 30
0.0
 40
2.0
  1
L2
  0
TEXT
  5
374
  8
回08-記事
  6
CONTINUOUS
 62
     7
 10
736.1415635097992
 20
-113.3627766374257
 30
0.0
 40
2.0
  1
L1
  0
LINE
  5
375
  8
回07-寸法
  6
CENTER2
 62
     5
 10
955.2930637441617
 20
-172.1806102355065
 30
0.0
 11
732.3330637441615
 21
-172.1806102355065
 31
0.0
  0
LINE
  5
377
  8
回07-寸法
  6
CENTER2
 62
     5
 10
843.8130637441615
 20
-100.8806102355065
 30
0.0
 11
843.8130637441615
 21
-243.4806102355065
 31
0.0
  0
POLYLINE
  5
378
  8
回04-下接
  6
CONTINUOUS
 62
     7
 66
     1
 10
0.0
 20
0.0
 30
0.0
 70
     1
  0
VERTEX
  5
B5F
  8
回04-下接
  6
CONTINUOUS
 62
     7
 10
728.3130637441615
 20
-252.6806102355066
 30
0.0
  0
VERTEX
  5
B61
  8
回04-下接
  6
CONTINUOUS
 62
     7
 10
959.3130637441616
 20
-252.6806102355066
 30
0.0
  0
VERTEX
  5
B62
  8
回04-下接
  6
CONTINUOUS
 62
     7
 10
959.3130637441616
 20
-96.4806102355066
 30
0.0
  0
VERTEX
  5
B63
  8
回04-下接
  6
CONTINUOUS
 62
     7
 10
728.3130637441615
 20
-96.4806102355066
 30
0.0
  0
SEQEND
  5
B60
  8
0
  6
CONTINUOUS
 62
     5
  0
TEXT
  5
37C
  8
回08-記事
  6
CONTINUOUS
 62
     7
 10
942.7114789519295
 20
-107.0717197423655
 30
0.0
 40
2.0
  1
U14
  0
TEXT
  5
37D
  8
回08-記事
  6
CONTINUOUS
 62
     7
 10
927.2140964989658
 20
-107.0717197423655
 30
0.0
 40
2.0
  1
U13
  0
TEXT
  5
37E
  8
回08-記事
  6
CONTINUOUS
 62
     7
 10
911.1994303519391
 20
-107.0717197423655
 30
0.0
 40
2.0
  1
U12
  0
TEXT
  5
37F
  8
回08-記事
  6
CONTINUOUS
 62
     7
 10
896.0979576867407
 20
-107.0717197423655
 30
0.0
 40
2.0
  1
U11
  0
TEXT
  5
380
  8
回08-記事
  6
CONTINUOUS
 62
     7
 10
880.4834840773782
 20
-107.0717197423655
 30
0.0
 40
2.0
  1
U10
  0
TEXT
  5
381
  8
回08-記事
  6
CONTINUOUS
 62
     7
 10
865.5206218911937
 20
-107.0717197423655
 30
0.0
 40
2.0
  1
U9
  0
TEXT
  5
382
  8
回08-記事
  6
CONTINUOUS
 62
     7
 10
849.7391351122482
 20
-107.0717197423655
 30
0.0
 40
2.0
  1
U8
  0
TEXT
  5
383
  8
回08-記事
  6
CONTINUOUS
 62
     7
 10
834.2297419564079
 20
-107.0717197423655
 30
0.0
 40
2.0
  1
U7
  0
TEXT
  5
384
  8
回08-記事
  6
CONTINUOUS
 62
     7
 10
819.02107385602
 20
-107.0717197423655
 30
0.0
 40
2.0
  1
U6
  0
TEXT
  5
385
  8
回08-記事
  6
CONTINUOUS
 62
     7
 10
803.2630278306212
 20
-107.0717197423655
 30
0.0
 40
2.0
  1
U5
  0
TEXT
  5
386
  8
回08-記事
  6
CONTINUOUS
 62
     7
 10
787.9073948976805
 20
-107.0717197423655
 30
0.0
 40
2.0
  1
U4
  0
TEXT
  5
387
  8
回08-記事
  6
CONTINUOUS
 62
     7
 10
772.2107889137442
 20
-107.0717197423655
 30
0.0
 40
2.0
  1
U3
  0
TEXT
  5
388
  8
回08-記事
  6
CONTINUOUS
 62
     7
 10
756.6642304977014
 20
-107.0717197423655
 30
0.0
 40
2.0
  1
U2
  0
TEXT
  5
389
  8
回08-記事
  6
CONTINUOUS
 62
     7
 10
742.018446644515
 20
-107.0717197423655
 30
0.0
 40
2.0
  1
U1
  0
TEXT
  5
38A
  8
回08-記事
  6
CONTINUOUS
 62
     7
 10
736.9419472120446
 20
-239.3148894961813
 30
0.0
 40
2.0
  1
SDL
  0
TEXT
  5
38B
  8
回08-記事
  6
CONTINUOUS
 62
     7
 10
942.769719141942
 20
-239.3017264174829
 30
0.0
 40
2.0
  1
D14
  0
TEXT
  5
38C
  8
回08-記事
  6
CONTINUOUS
 62
     7
 10
927.0684691373103
 20
-239.3017264174829
 30
0.0
 40
2.0
  1
D13
  0
TEXT
  5
38D
  8
回08-記事
  6
CONTINUOUS
 62
     7
 10
911.5119628467438
 20
-239.3017264174829
 30
0.0
 40
2.0
  1
D12
  0
TEXT
  5
38E
  8
回08-記事
  6
CONTINUOUS
 62
     7
 10
896.2703006037624
 20
-239.3017264174829
 30
0.0
 40
2.0
  1
D11
  0
TEXT
  5
38F
  8
回08-記事
  6
CONTINUOUS
 62
     7
 10
880.6997133133021
 20
-239.3017264174829
 30
0.0
 40
2.0
  1
D10
  0
TEXT
  5
390
  8
回08-記事
  6
CONTINUOUS
 62
     7
 10
865.5547555443487
 20
-239.3017264174829
 30
0.0
 40
2.0
  1
D9
  0
TEXT
  5
391
  8
回08-記事
  6
CONTINUOUS
 62
     7
 10
849.9405882547639
 20
-239.3017264174829
 30
0.0
 40
2.0
  1
D8
  0
TEXT
  5
392
  8
回08-記事
  6
CONTINUOUS
 62
     7
 10
834.571130504508
 20
-239.3017264174829
 30
0.0
 40
2.0
  1
D7
  0
TEXT
  5
393
  8
回08-記事
  6
CONTINUOUS
 62
     7
 10
819.0068727085106
 20
-239.3017264174829
 30
0.0
 40
2.0
  1
D6
  0
TEXT
  5
394
  8
回08-記事
  6
CONTINUOUS
 62
     7
 10
803.4205969274983
 20
-239.3017264174829
 30
0.0
 40
2.0
  1
D5
  0
TEXT
  5
395
  8
回08-記事
  6
CONTINUOUS
 62
     7
 10
787.8235555960717
 20
-239.3017264174829
 30
0.0
 40
2.0
  1
D4
  0
TEXT
  5
396
  8
回08-記事
  6
CONTINUOUS
 62
     7
 10
772.3105288364645
 20
-239.3017264174829
 30
0.0
 40
2.0
  1
D3
  0
TEXT
  5
397
  8
回08-記事
  6
CONTINUOUS
 62
     7
 10
756.8240102160635
 20
-239.3017264174829
 30
0.0
 40
2.0
  1
D2
  0
TEXT
  5
398
  8
回08-記事
  6
CONTINUOUS
 62
     7
 10
742.0963276541931
 20
-239.3017264174829
 30
0.0
 40
2.0
  1
D1
  0
POLYLINE
  5
399
  8
回08-記事
  6
CONTINUOUS
 62
     7
 66
     1
 10
0.0
 20
0.0
 30
0.0
 70
     1
1001
ACAD
1000
ASC_BOUNDS
1002
{
1070
    19
1005
39A
1002
}
  0
VERTEX
  5
B64
  8
回08-記事
  6
CONTINUOUS
 62
     7
 10
834.5171081073797
 20
-277.7845974470575
 30
0.0
  0
VERTEX
  5
B66
  8
回08-記事
  6
CONTINUOUS
 62
     7
 10
838.0171081073795
 20
-277.7845974470575
 30
0.0
 42
-0.4142135623730951
  0
VERTEX
  5
B67
  8
回08-記事
  6
CONTINUOUS
 62
     7
 10
838.5171081073796
 20
-278.2845974470575
 30
0.0
  0
VERTEX
  5
B68
  8
回08-記事
  6
CONTINUOUS
 62
     7
 10
838.5171081073796
 20
-303.2845974470575
 30
0.0
 42
-0.4142135623730951
  0
VERTEX
  5
B69
  8
回08-記事
  6
CONTINUOUS
 62
     7
 10
838.0171081073795
 20
-303.7845974470575
 30
0.0
  0
VERTEX
  5
B6A
  8
回08-記事
  6
CONTINUOUS
 62
     7
 10
834.5171081073797
 20
-303.7845974470575
 30
0.0
 42
-0.4142135623730951
  0
VERTEX
  5
B6B
  8
回08-記事
  6
CONTINUOUS
 62
     7
 10
834.0171081073796
 20
-303.2845974470575
 30
0.0
  0
VERTEX
  5
B6C
  8
回08-記事
  6
CONTINUOUS
 62
     7
 10
834.0171081073796
 20
-278.2845974470575
 30
0.0
 42
-0.4142135623730951
  0
SEQEND
  5
B65
  8
0
  6
CONTINUOUS
 62
     5
  0
INSERT
  5
39A
  8
回08-記事
  6
CONTINUOUS
 62
     7
 66
     1
  2
*X8282
 10
0.0
 20
0.0
 30
0.0
1001
GRADIENTCOLOR1ACI
1070
     5
1001
GRADIENTCOLOR2ACI
1070
     2
1001
ACAD
1010
0.0
1020
0.0
1030
0.0
  0
SEQEND
  5
766
  8
0
  6
CONTINUOUS
 62
     5
  0
LINE
  5
39B
  8
回05-ﾃｰﾙ
  6
CONTINUOUS
 62
     7
 10
848.4270887369415
 20
-256.6011444174752
 30
0.0
 11
845.2617498591196
 21
-259.7664832952968
 31
0.0
  0
ARC
  5
39F
  8
回05-ﾃｰﾙ
  6
CONTINUOUS
 62
     7
 10
826.4688566403064
 20
-270.4713394455863
 30
0.0
 40
1.0
 50
0.0
 51
45.0000000000087
  0
LINE
  5
3A0
  8
回05-ﾃｰﾙ
  6
CONTINUOUS
 62
     7
 10
814.0128751745685
 20
-256.6011444174752
 30
0.0
 11
827.1759634214927
 21
-269.7642326643996
 31
0.0
  0
ARC
  5
3A1
  8
回05-ﾃｰﾙ
  6
CONTINUOUS
 62
     7
 10
814.7199819557549
 20
-255.8940376362885
 30
0.0
 40
1.0
 50
180.0
 51
225.0000000000086
  0
LINE
  5
3A2
  8
回05-ﾃｰﾙ
  6
CONTINUOUS
 62
     7
 10
813.7199819557547
 20
-252.6806102355066
 30
0.0
 11
813.7199819557547
 21
-255.8940376362885
 31
0.0
  0
ARC
  5
3A3
  8
回05-ﾃｰﾙ
  6
CONTINUOUS
 62
     7
 10
847.7199819557549
 20
-255.8940376362885
 30
0.0
 40
1.0
 50
314.9999999999913
 51
0.0
  0
LINE
  5
3A4
  8
回05-ﾃｰﾙ
  6
CONTINUOUS
 62
     7
 10
848.7199819557549
 20
-255.8940376362885
 30
0.0
 11
848.7199819557549
 21
-252.6806102355066
 31
0.0
  0
ARC
  5
3A5
  8
回05-ﾃｰﾙ
  6
CONTINUOUS
 62
     7
 10
827.9688566403061
 20
-352.1765618646952
 30
0.0
 40
0.5
 50
180.0
 51
270.0
  0
LINE
  5
3A6
  8
回05-ﾃｰﾙ
  6
CONTINUOUS
 62
     7
 10
827.4688566403064
 20
-270.4713394455863
 30
0.0
 11
827.4688566403064
 21
-352.1765618646952
 31
0.0
  0
LINE
  5
3A7
  8
回05-ﾃｰﾙ
  6
CONTINUOUS
 62
     7
 10
827.9688566403061
 20
-352.6765618646952
 30
0.0
 11
844.4688566403062
 21
-352.6765618646952
 31
0.0
  0
ARC
  5
3A8
  8
回05-ﾃｰﾙ
  6
CONTINUOUS
 62
     7
 10
844.4688566403062
 20
-352.1765618646952
 30
0.0
 40
0.5
 50
270.0
 51
0.0
  0
ARC
  5
3A9
  8
回05-ﾃｰﾙ
  6
CONTINUOUS
 62
     7
 10
845.9688566403064
 20
-260.4735900764834
 30
0.0
 40
1.0
 50
134.9999999999913
 51
180.0
  0
LINE
  5
3AA
  8
回05-ﾃｰﾙ
  6
CONTINUOUS
 62
     7
 10
844.9688566403061
 20
-352.1765618646952
 30
0.0
 11
844.9688566403061
 21
-260.4735900764834
 31
0.0
  0
ARC
  5
3AB
  8
回05-ﾃｰﾙ
  6
CONTINUOUS
 62
     7
 10
870.9688566403064
 20
-263.4015840319386
 30
0.0
 40
1.0
 50
134.9999999999913
 51
180.0
  0
LINE
  5
3AC
  8
回05-ﾃｰﾙ
  6
CONTINUOUS
 62
     7
 10
870.2617498591196
 20
-262.6944772507521
 30
0.0
 11
876.4270887369415
 21
-256.5291383729303
 31
0.0
  0
ARC
  5
3AD
  8
回05-ﾃｰﾙ
  6
CONTINUOUS
 62
     7
 10
855.4688566403063
 20
-263.3993334010414
 30
0.0
 40
1.0
 50
0.0
 51
45.0000000000087
  0
LINE
  5
3AE
  8
回05-ﾃｰﾙ
  6
CONTINUOUS
 62
     7
 10
856.1759634214928
 20
-262.692226619855
 30
0.0
 11
850.0128751745682
 21
-256.5291383729303
 31
0.0
  0
ARC
  5
3AF
  8
回05-ﾃｰﾙ
  6
CONTINUOUS
 62
     7
 10
850.7199819557547
 20
-255.8220315917439
 30
0.0
 40
1.0
 50
180.0
 51
225.0000000000086
  0
LINE
  5
3B0
  8
回05-ﾃｰﾙ
  6
CONTINUOUS
 62
     7
 10
849.7199819557549
 20
-255.8220315917439
 30
0.0
 11
849.7199819557549
 21
-252.6806102355066
 31
0.0
  0
ARC
  5
3B1
  8
回05-ﾃｰﾙ
  6
CONTINUOUS
 62
     7
 10
875.7199819557547
 20
-255.8220315917439
 30
0.0
 40
1.0
 50
314.9999999999913
 51
0.0
  0
LINE
  5
3B2
  8
回05-ﾃｰﾙ
  6
CONTINUOUS
 62
     7
 10
876.7199819557546
 20
-255.8220315917439
 30
0.0
 11
876.7199819557546
 21
-252.6806102355067
 31
0.0
  0
ARC
  5
3B3
  8
回05-ﾃｰﾙ
  6
CONTINUOUS
 62
     7
 10
856.9688566403062
 20
-352.1765618646953
 30
0.0
 40
0.5
 50
180.0
 51
270.0
  0
LINE
  5
3B4
  8
回05-ﾃｰﾙ
  6
CONTINUOUS
 62
     7
 10
856.4688566403061
 20
-352.1765618646953
 30
0.0
 11
856.4688566403061
 21
-263.3993334010414
 31
0.0
  0
LINE
  5
3B5
  8
回05-ﾃｰﾙ
  6
CONTINUOUS
 62
     7
 10
856.9688566403062
 20
-352.6765618646952
 30
0.0
 11
869.4688566403062
 21
-352.6765618646952
 31
0.0
  0
ARC
  5
3B6
  8
回05-ﾃｰﾙ
  6
CONTINUOUS
 62
     7
 10
869.4688566403062
 20
-352.1765618646953
 30
0.0
 40
0.5
 50
270.0
 51
0.0
  0
LINE
  5
3B7
  8
回05-ﾃｰﾙ
  6
CONTINUOUS
 62
     7
 10
869.9688566403061
 20
-352.1765618646953
 30
0.0
 11
869.9688566403061
 21
-263.4015840319386
 31
0.0
  0
TEXT
  5
3B8
  8
回90-枠2
 10
1155.558955843664
 20
-26.50272609290289
 30
0.0
 40
4.0
  1
H
  0
LINE
  5
3B9
  8
回90-枠2
 10
1121.829570538011
 20
-21.87514921895411
 30
0.0
 11
1121.829570538011
 21
-26.87514921895411
 31
0.0
  0
LINE
  5
3BA
  8
回90-枠2
 10
1051.829570538012
 20
-21.87514921895411
 30
0.0
 11
1051.829570538012
 21
-26.87514921895411
 31
0.0
  0
TEXT
  5
3BB
  8
回90-枠2
 10
1015.558955843664
 20
-26.50272609290289
 30
0.0
 40
4.0
  1
F
  0
LINE
  5
3BC
  8
回90-枠2
 10
981.8295705380116
 20
-21.87514921895411
 30
0.0
 11
981.8295705380116
 21
-26.87514921895411
 31
0.0
  0
TEXT
  5
3BD
  8
回90-枠2
 10
945.558955843664
 20
-26.50272609290289
 30
0.0
 40
4.0
  1
E
  0
TEXT
  5
3BE
  8
回90-枠2
 10
1085.558955843664
 20
-26.50272609290289
 30
0.0
 40
4.0
  1
G
  0
LINE
  5
3BF
  8
回90-枠2
 10
911.8295705380116
 20
-21.87514921895411
 30
0.0
 11
911.8295705380116
 21
-26.87514921895411
 31
0.0
  0
TEXT
  5
3C0
  8
回90-枠2
 10
875.5589558436641
 20
-26.50272609290289
 30
0.0
 40
4.0
  1
D
  0
LINE
  5
3C1
  8
回90-枠2
 10
841.8295705380117
 20
-21.87514921895411
 30
0.0
 11
841.8295705380117
 21
-26.87514921895411
 31
0.0
  0
TEXT
  5
3C2
  8
回90-枠2
 10
805.558955843664
 20
-26.50272609290289
 30
0.0
 40
4.0
  1
C
  0
LINE
  5
3C3
  8
回90-枠2
 10
771.8295705380118
 20
-21.87514921895411
 30
0.0
 11
771.8295705380118
 21
-26.87514921895411
 31
0.0
  0
TEXT
  5
3C4
  8
回90-枠2
 10
735.5589558436641
 20
-26.50272609290289
 30
0.0
 40
4.0
  1
B
  0
LINE
  5
3C5
  8
回90-枠2
 10
701.8295705380118
 20
-21.87514921895411
 30
0.0
 11
701.8295705380118
 21
-26.87514921895411
 31
0.0
  0
TEXT
  5
3C6
  8
回90-枠2
 10
665.558955843664
 20
-26.50272609290289
 30
0.0
 40
4.0
  1
A
  0
LINE
  5
3C7
  8
回90-枠2
 10
1196.829570538011
 20
-21.87514921895411
 30
0.0
 11
626.8295705380118
 21
-21.87514921895411
 31
0.0
  0
LINE
  5
3C8
  8
回90-枠2
 10
631.8295705380116
 20
-26.87514921895411
 30
0.0
 11
1191.829570538011
 21
-26.87514921895411
 31
0.0
  0
TEXT
  5
3C9
  8
回90-枠2
 10
1193.233991541671
 20
-67.58646192309481
 30
0.0
 40
4.0
  1
1
  0
LINE
  5
3CA
  8
回90-枠2
 10
1196.829570538011
 20
-103.8751492189541
 30
0.0
 11
1191.829570538011
 21
-103.8751492189541
 31
0.0
  0
TEXT
  5
3CB
  8
回90-枠2
 10
1192.932492838369
 20
-144.5864619230948
 30
0.0
 40
4.0
  1
2
  0
LINE
  5
3CC
  8
回90-枠2
 10
1196.829570538011
 20
-180.8751492189541
 30
0.0
 11
1191.829570538011
 21
-180.8751492189541
 31
0.0
  0
TEXT
  5
3CD
  8
回90-枠2
 10
1192.927011994168
 20
-221.5864619230948
 30
0.0
 40
4.0
  1
3
  0
LINE
  5
3CE
  8
回90-枠2
 10
1196.829570538011
 20
-257.8751492189541
 30
0.0
 11
1191.829570538011
 21
-257.8751492189541
 31
0.0
  0
TEXT
  5
3CF
  8
回90-枠2
 10
1192.853919874087
 20
-298.5864619230948
 30
0.0
 40
4.0
  1
4
  0
TEXT
  5
3D0
  8
回90-枠2
 10
628.2339915416708
 20
-67.58646192309481
 30
0.0
 40
4.0
  1
1
  0
LINE
  5
3D1
  8
回90-枠2
 10
631.8295705380116
 20
-103.8751492189541
 30
0.0
 11
626.8295705380118
 21
-103.8751492189541
 31
0.0
  0
TEXT
  5
3D2
  8
回90-枠2
 10
627.9324928383691
 20
-144.5864619230948
 30
0.0
 40
4.0
  1
2
  0
LINE
  5
3D3
  8
回90-枠2
 10
631.8295705380116
 20
-180.8751492189541
 30
0.0
 11
626.8295705380118
 21
-180.8751492189541
 31
0.0
  0
TEXT
  5
3D4
  8
回90-枠2
 10
627.9270119941684
 20
-221.5864619230948
 30
0.0
 40
4.0
  1
3
  0
LINE
  5
3D5
  8
回90-枠2
 10
631.8295705380116
 20
-257.8751492189541
 30
0.0
 11
626.8295705380118
 21
-257.8751492189541
 31
0.0
  0
TEXT
  5
3D6
  8
回90-枠2
 10
627.8539198740872
 20
-298.5864619230948
 30
0.0
 40
4.0
  1
4
  0
LINE
  5
3D7
  8
回90-枠2
 10
1196.829570538011
 20
-334.8751492189541
 30
0.0
 11
1191.829570538011
 21
-334.8751492189541
 31
0.0
  0
TEXT
  5
3D8
  8
回90-枠2
 10
1192.853919874087
 20
-375.5864619230948
 30
0.0
 40
4.0
  1
5
  0
TEXT
  5
3D9
  8
回90-枠2
 10
1155.558955843664
 20
-416.5027260929027
 30
0.0
 40
4.0
  1
H
  0
LINE
  5
3DA
  8
回90-枠2
 10
1121.829570538011
 20
-411.875149218954
 30
0.0
 11
1121.829570538011
 21
-416.875149218954
 31
0.0
  0
LINE
  5
3DB
  8
回90-枠2
 10
1051.829570538012
 20
-411.875149218954
 30
0.0
 11
1051.829570538012
 21
-416.875149218954
 31
0.0
  0
TEXT
  5
3DC
  8
回90-枠2
 10
1015.558955843664
 20
-416.5027260929027
 30
0.0
 40
4.0
  1
F
  0
LINE
  5
3DD
  8
回90-枠2
 10
981.8295705380116
 20
-411.875149218954
 30
0.0
 11
981.8295705380116
 21
-416.875149218954
 31
0.0
  0
TEXT
  5
3DE
  8
回90-枠2
 10
945.558955843664
 20
-416.5027260929027
 30
0.0
 40
4.0
  1
E
  0
TEXT
  5
3DF
  8
回90-枠2
 10
1085.558955843664
 20
-416.5027260929027
 30
0.0
 40
4.0
  1
G
  0
LINE
  5
3E0
  8
回90-枠2
 10
911.8295705380116
 20
-411.875149218954
 30
0.0
 11
911.8295705380116
 21
-416.875149218954
 31
0.0
  0
TEXT
  5
3E1
  8
回90-枠2
 10
875.5589558436641
 20
-416.5027260929027
 30
0.0
 40
4.0
  1
D
  0
LINE
  5
3E2
  8
回90-枠2
 10
841.8295705380117
 20
-411.875149218954
 30
0.0
 11
841.8295705380117
 21
-416.875149218954
 31
0.0
  0
TEXT
  5
3E3
  8
回90-枠2
 10
805.558955843664
 20
-416.5027260929027
 30
0.0
 40
4.0
  1
C
  0
LINE
  5
3E4
  8
回90-枠2
 10
771.8295705380118
 20
-411.875149218954
 30
0.0
 11
771.8295705380118
 21
-416.875149218954
 31
0.0
  0
LINE
  5
3E5
  8
回90-枠2
 10
631.8295705380116
 20
-334.8751492189541
 30
0.0
 11
626.8295705380118
 21
-334.8751492189541
 31
0.0
  0
TEXT
  5
3E6
  8
回90-枠2
 10
627.8539198740872
 20
-375.5864619230948
 30
0.0
 40
4.0
  1
5
  0
TEXT
  5
3E7
  8
回90-枠2
 10
735.5589558436641
 20
-416.5027260929027
 30
0.0
 40
4.0
  1
B
  0
LINE
  5
3E8
  8
回90-枠2
 10
701.8295705380118
 20
-411.875149218954
 30
0.0
 11
701.8295705380118
 21
-416.875149218954
 31
0.0
  0
TEXT
  5
3E9
  8
回90-枠2
 10
665.558955843664
 20
-416.5027260929027
 30
0.0
 40
4.0
  1
A
  0
LINE
  5
3EA
  8
回90-枠2
 10
631.8295705380116
 20
-411.875149218954
 30
0.0
 11
1191.829570538011
 21
-411.875149218954
 31
0.0
  0
LINE
  5
3EB
  8
回90-枠2
 10
1196.829570538011
 20
-416.875149218954
 30
0.0
 11
626.8295705380118
 21
-416.875149218954
 31
0.0
  0
LINE
  5
3EC
  8
回90-枠2
 10
1196.829570538011
 20
-416.875149218954
 30
0.0
 11
1196.829570538011
 21
-21.87514921895411
 31
0.0
  0
LINE
  5
3ED
  8
回90-枠2
 10
1191.829570538011
 20
-26.87514921895411
 30
0.0
 11
1191.829570538011
 21
-411.875149218954
 31
0.0
  0
LINE
  5
3EE
  8
回90-枠2
 10
626.8295705380118
 20
-416.875149218954
 30
0.0
 11
626.8295705380118
 21
-21.87514921895411
 31
0.0
  0
LINE
  5
3EF
  8
回90-枠2
 10
631.8295705380116
 20
-26.87514921895411
 30
0.0
 11
631.8295705380116
 21
-411.875149218954
 31
0.0
  0
ARC
  5
3F0
  8
回08-記事
  6
CONTINUOUS
 62
     7
 10
1011.316440845368
 20
-149.0165618646948
 30
0.0
 40
0.5
 50
90.0
 51
270.0
  0
TEXT
  5
3F1
  8
回08-記事
  6
CONTINUOUS
 62
     5
 10
1019.421581216641
 20
-285.8451150592679
 30
0.0
 40
4.0
  1
Lot label
1001
ACAD
1000
MTEXTBEGIN
1070
    73
1070
     1
1070
    44
1040
1.0
1070
    74
1070
     0
1000
MTEXTEND
  0
INSERT
  5
3F2
  8
回08-記事
  6
CONTINUOUS
 62
     7
 66
     1
  2
*X8383
 10
0.0
 20
0.0
 30
0.0
  0
SEQEND
  5
76D
  8
0
  6
CONTINUOUS
 62
     5
  0
ARC
  5
3F3
  8
回08-記事
  6
CONTINUOUS
 62
     7
 10
1011.316440845368
 20
-151.8965618646948
 30
0.0
 40
0.5
 50
90.0
 51
270.0
  0
ARC
  5
3F4
  8
回08-記事
  6
CONTINUOUS
 62
     7
 10
1011.316440845368
 20
-154.7765618646947
 30
0.0
 40
0.5
 50
90.0
 51
270.0
  0
ARC
  5
3F5
  8
回08-記事
  6
CONTINUOUS
 62
     7
 10
1011.316440845368
 20
-169.1765618646947
 30
0.0
 40
0.5
 50
90.0
 51
270.0
  0
ARC
  5
3F6
  8
回08-記事
  6
CONTINUOUS
 62
     7
 10
1011.316440845368
 20
-172.0565618646946
 30
0.0
 40
0.5
 50
90.0
 51
270.0
  0
ARC
  5
3F7
  8
回08-記事
  6
CONTINUOUS
 62
     7
 10
1011.316440845368
 20
-186.4565618646946
 30
0.0
 40
0.5
 50
90.0
 51
270.0
  0
ARC
  5
3F8
  8
回08-記事
  6
CONTINUOUS
 62
     7
 10
1011.316440845368
 20
-197.9765618646947
 30
0.0
 40
0.5
 50
90.0
 51
270.0
  0
ARC
  5
3F9
  8
回08-記事
  6
CONTINUOUS
 62
     7
 10
1011.316440845368
 20
-200.8565618646947
 30
0.0
 40
0.5
 50
90.0
 51
270.0
  0
ARC
  5
3FA
  8
回08-記事
  6
CONTINUOUS
 62
     7
 10
1011.316440845368
 20
-203.7365618646947
 30
0.0
 40
0.5
 50
90.0
 51
270.0
  0
ARC
  5
3FB
  8
回08-記事
  6
CONTINUOUS
 62
     7
 10
1011.316440845368
 20
-206.6165618646948
 30
0.0
 40
0.5
 50
90.0
 51
270.0
  0
ARC
  5
3FC
  8
回08-記事
  6
CONTINUOUS
 62
     7
 10
1011.316440845368
 20
-209.4965618646948
 30
0.0
 40
0.5
 50
90.0
 51
270.0
  0
ARC
  5
3FD
  8
回08-記事
  6
CONTINUOUS
 62
     7
 10
1011.316440845368
 20
-212.3765618646948
 30
0.0
 40
0.5
 50
90.0
 51
270.0
  0
ARC
  5
3FE
  8
回08-記事
  6
CONTINUOUS
 62
     7
 10
1011.316440845368
 20
-221.0165618646948
 30
0.0
 40
0.5
 50
90.0
 51
270.0
  0
ARC
  5
3FF
  8
回08-記事
  6
CONTINUOUS
 62
     7
 10
1011.316440845368
 20
-226.7765618646948
 30
0.0
 40
0.5
 50
90.0
 51
270.0
  0
ARC
  5
400
  8
回08-記事
  6
CONTINUOUS
 62
     7
 10
1011.316440845368
 20
-229.6565618646948
 30
0.0
 40
0.5
 50
90.0
 51
270.0
  0
ARC
  5
401
  8
回08-記事
  6
CONTINUOUS
 62
     7
 10
1011.316440845368
 20
-232.5365618646948
 30
0.0
 40
0.5
 50
90.0
 51
270.0
  0
ARC
  5
402
  8
回08-記事
  6
CONTINUOUS
 62
     7
 10
1011.316440845368
 20
-235.4165618646947
 30
0.0
 40
0.5
 50
90.0
 51
270.0
  0
ARC
  5
403
  8
回08-記事
  6
CONTINUOUS
 62
     7
 10
1011.316440845368
 20
-241.1765618646946
 30
0.0
 40
0.5
 50
90.0
 51
270.0
  0
POLYLINE
  5
404
  8
回08-記事
  6
CONTINUOUS
 62
     7
 66
     1
 10
0.0
 20
0.0
 30
0.0
 70
     1
  0
VERTEX
  5
B6D
  8
回08-記事
  6
CONTINUOUS
 62
     7
 10
1009.616440845368
 20
-273.6572425092989
 30
0.0
  0
VERTEX
  5
B6F
  8
回08-記事
  6
CONTINUOUS
 62
     7
 10
1010.316440845368
 20
-273.6572425092989
 30
0.0
  0
VERTEX
  5
B70
  8
回08-記事
  6
CONTINUOUS
 62
     7
 10
1010.316440845368
 20
-299.6572425092988
 30
0.0
  0
VERTEX
  5
B71
  8
回08-記事
  6
CONTINUOUS
 62
     7
 10
1009.616440845368
 20
-299.6572425092988
 30
0.0
  0
SEQEND
  5
B6E
  8
0
  6
CONTINUOUS
 62
     5
  0
POLYLINE
  5
405
  8
回08-記事
  6
CONTINUOUS
 62
     7
 66
     1
 10
0.0
 20
0.0
 30
0.0
 70
     1
  0
VERTEX
  5
B72
  8
回08-記事
  6
CONTINUOUS
 62
     7
 10
1012.016440845368
 20
-273.6572425092989
 30
0.0
  0
VERTEX
  5
B74
  8
回08-記事
  6
CONTINUOUS
 62
     7
 10
1012.716440845368
 20
-273.6572425092989
 30
0.0
  0
VERTEX
  5
B75
  8
回08-記事
  6
CONTINUOUS
 62
     7
 10
1012.716440845368
 20
-299.6572425092988
 30
0.0
  0
VERTEX
  5
B76
  8
回08-記事
  6
CONTINUOUS
 62
     7
 10
1012.016440845368
 20
-299.6572425092988
 30
0.0
  0
SEQEND
  5
B73
  8
0
  6
CONTINUOUS
 62
     5
  0
INSERT
  5
406
  8
回08-記事
  6
CONTINUOUS
 62
     7
 66
     1
  2
*X8484
 10
0.0
 20
0.0
 30
0.0
1001
GRADIENTCOLOR1ACI
1070
     5
1001
GRADIENTCOLOR2ACI
1070
     2
1001
ACAD
1010
0.0
1020
0.0
1030
0.0
  0
SEQEND
  5
78F
  8
0
  6
CONTINUOUS
 62
     5
  0
LINE
  5
407
  8
回08-記事
  6
CONTINUOUS
 62
     7
 10
1012.016440845368
 20
-252.6806102355067
 30
0.0
 11
1012.016440845368
 21
-256.2806102355066
 31
0.0
1001
ACAD
1000
ASC_BOUNDS
1002
{
1070
    19
1005
40C
1002
}
  0
LINE
  5
408
  8
回08-記事
  6
CONTINUOUS
 62
     7
 10
1018.316440845368
 20
-252.6806102355067
 30
0.0
 11
1012.016440845368
 21
-252.6806102355067
 31
0.0
1001
ACAD
1000
ASC_BOUNDS
1002
{
1070
    19
1005
40C
1002
}
  0
LINE
  5
409
  8
回08-記事
  6
CONTINUOUS
 62
     7
 10
1019.016440845368
 20
-253.3806102355066
 30
0.0
 11
1019.016440845368
 21
-249.0806102355066
 31
0.0
1001
ACAD
1000
ASC_BOUNDS
1002
{
1070
    19
1005
40C
1002
}
  0
LINE
  5
40A
  8
回08-記事
  6
CONTINUOUS
 62
     7
 10
1012.716440845368
 20
-256.2806102355066
 30
0.0
 11
1012.716440845368
 21
-253.3806102355066
 31
0.0
1001
ACAD
1000
ASC_BOUNDS
1002
{
1070
    19
1005
40C
1002
}
  0
LINE
  5
40B
  8
回08-記事
  6
CONTINUOUS
 62
     7
 10
1010.316440845368
 20
-253.3806102355066
 30
0.0
 11
1003.123256626398
 21
-253.3806102355066
 31
0.0
1001
ACAD
1000
ASC_BOUNDS
1002
{
1070
    19
1005
40C
1002
}
  0
INSERT
  5
40C
  8
回08-記事
  6
CONTINUOUS
 62
     7
 66
     1
  2
*X8585
 10
0.0
 20
0.0
 30
0.0
1001
GRADIENTCOLOR1ACI
1070
     5
1001
GRADIENTCOLOR2ACI
1070
     2
1001
ACAD
1010
0.0
1020
0.0
1030
0.0
  0
SEQEND
  5
7A6
  8
0
  6
CONTINUOUS
 62
     5
  0
DIMENSION
  5
40D
  8
回07-寸法
  6
CONTINUOUS
 62
     7
  2
*D7171
 10
1001.423256626398
 20
-363.0989465912295
 30
0.0
 11
990.8883288232484
 21
-360.5989465912295
 31
0.0
 70
    32
  1
0.3{\H0.66667x;±0.05}
  3
DMC
 13
1003.923256626398
 23
-352.6765618646954
 33
0.0
 14
1001.423256626398
 24
-352.6765618646954
 34
0.0
1001
ACAD
1000
DSTYLE
1002
{
1070
    41
1040
1.5
1070
    47
1040
0.2
1070
    48
1040
0.2
1070
   141
1040
1.5
1070
   371
1070
    13
1070
   372
1070
    13
1002
}
  0
DIMENSION
  5
41E
  8
回07-寸法
  6
CONTINUOUS
 62
     7
  2
*D7272
 10
1007.678317095279
 20
-352.6765618646954
 30
0.0
 11
1005.711643095279
 21
-347.6765618646954
 31
0.0
 70
    32
  1
{\H0.66667x;(<>)}
  3
DMC
 13
1003.923256626398
 23
-342.6765618646954
 33
0.0
 14
1003.923256626398
 24
-352.6765618646954
 34
0.0
 50
90.0
1001
ACAD
1000
DSTYLE
1002
{
1070
    41
1040
1.5
1070
    47
1040
0.2
1070
    48
1040
0.2
1070
   141
1040
1.5
1070
   371
1070
    13
1070
   372
1070
    13
1002
}
  0
LINE
  5
42D
  8
回08-記事
  6
CONTINUOUS
 62
     7
 10
1001.423256626398
 20
-243.1765618646946
 30
0.0
 11
1011.316440845368
 21
-243.1765618646946
 31
0.0
  0
POLYLINE
  5
42E
  8
回08-記事
  6
CONTINUOUS
 62
     7
 66
     1
 10
0.0
 20
0.0
 30
0.0
 70
     1
  0
VERTEX
  5
B77
  8
回08-記事
  6
CONTINUOUS
 62
     7
 10
1012.016440845368
 20
-347.6765618646954
 30
0.0
  0
VERTEX
  5
B79
  8
回08-記事
  6
CONTINUOUS
 62
     7
 10
1011.316440845368
 20
-347.6765618646954
 30
0.0
  0
VERTEX
  5
B7A
  8
回08-記事
  6
CONTINUOUS
 62
     7
 10
1011.316440845368
 20
-252.6806102355067
 30
0.0
  0
VERTEX
  5
B7B
  8
回08-記事
  6
CONTINUOUS
 62
     7
 10
1012.016440845368
 20
-252.6806102355067
 30
0.0
  0
SEQEND
  5
B78
  8
0
  6
CONTINUOUS
 62
     5
  0
POLYLINE
  5
42F
  8
回08-記事
  6
CONTINUOUS
 62
     7
 66
     1
 10
0.0
 20
0.0
 30
0.0
 70
     1
  0
VERTEX
  5
B7C
  8
回08-記事
  6
CONTINUOUS
 62
     7
 10
1000.723256626398
 20
-252.1806102355065
 30
0.0
  0
VERTEX
  5
B7E
  8
回08-記事
  6
CONTINUOUS
 62
     7
 10
1001.423256626398
 20
-252.1806102355065
 30
0.0
  0
VERTEX
  5
B7F
  8
回08-記事
  6
CONTINUOUS
 62
     7
 10
1001.423256626398
 20
-347.6765618646954
 30
0.0
  0
VERTEX
  5
B80
  8
回08-記事
  6
CONTINUOUS
 62
     7
 10
1000.723256626398
 20
-347.6765618646954
 30
0.0
  0
SEQEND
  5
B7D
  8
0
  6
CONTINUOUS
 62
     5
  0
POLYLINE
  5
430
  8
回08-記事
  6
CONTINUOUS
 62
     7
 66
     1
 10
0.0
 20
0.0
 30
0.0
 70
     1
  0
VERTEX
  5
B81
  8
回08-記事
  6
CONTINUOUS
 62
     7
 10
1010.316440845368
 20
-249.5306102355068
 30
0.0
  0
VERTEX
  5
B83
  8
回08-記事
  6
CONTINUOUS
 62
     7
 10
1011.316440845368
 20
-249.5306102355068
 30
0.0
  0
VERTEX
  5
B84
  8
回08-記事
  6
CONTINUOUS
 62
     7
 10
1011.316440845368
 20
-352.6765618646954
 30
0.0
  0
VERTEX
  5
B85
  8
回08-記事
  6
CONTINUOUS
 62
     7
 10
1010.316440845368
 20
-352.6765618646954
 30
0.0
  0
SEQEND
  5
B82
  8
0
  6
CONTINUOUS
 62
     5
  0
POLYLINE
  5
431
  8
回08-記事
  6
CONTINUOUS
 62
     7
 66
     1
 10
0.0
 20
0.0
 30
0.0
 70
     1
  0
VERTEX
  5
B86
  8
回08-記事
  6
CONTINUOUS
 62
     7
 10
997.423256626398
 20
-96.98061023550677
 30
0.0
  0
VERTEX
  5
B88
  8
回08-記事
  6
CONTINUOUS
 62
     7
 10
1001.423256626398
 20
-96.98061023550677
 30
0.0
  0
VERTEX
  5
B89
  8
回08-記事
  6
CONTINUOUS
 62
     7
 10
1001.423256626398
 20
-252.1806102355065
 30
0.0
  0
VERTEX
  5
B8A
  8
回08-記事
  6
CONTINUOUS
 62
     7
 10
997.423256626398
 20
-252.1806102355065
 30
0.0
  0
SEQEND
  5
B87
  8
0
  6
CONTINUOUS
 62
     5
  0
POLYLINE
  5
432
  8
回08-記事
  6
CONTINUOUS
 62
     7
 66
     1
 10
0.0
 20
0.0
 30
0.0
 70
     1
  0
VERTEX
  5
B8B
  8
回08-記事
  6
CONTINUOUS
 62
     7
 10
1011.316440845368
 20
-96.4806102355066
 30
0.0
  0
VERTEX
  5
B8D
  8
回08-記事
  6
CONTINUOUS
 62
     7
 10
1018.316440845368
 20
-96.4806102355066
 30
0.0
  0
VERTEX
  5
B8E
  8
回08-記事
  6
CONTINUOUS
 62
     7
 10
1018.316440845368
 20
-252.6806102355067
 30
0.0
  0
VERTEX
  5
B8F
  8
回08-記事
  6
CONTINUOUS
 62
     7
 10
1011.316440845368
 20
-252.6806102355067
 30
0.0
  0
SEQEND
  5
B8C
  8
0
  6
CONTINUOUS
 62
     5
  0
DIMENSION
  5
433
  8
回07-寸法
  6
CONTINUOUS
 62
     5
  2
*D7373
 10
1018.316440845368
 20
-85.97523487905723
 30
0.0
 11
1007.869848735883
 21
-83.47523487905723
 31
0.0
 70
    32
  1
2.1{\H0.5x;±0.2}
  3
DMC
 13
997.423256626398
 23
-96.98061023550673
 33
0.0
 14
1018.316440845368
 24
-96.4806102355066
 34
0.0
1001
ACAD
1000
DSTYLE
1002
{
1070
    41
1040
1.5
1070
    47
1040
0.2
1070
    48
1040
0.2
1070
   141
1040
1.5
1070
   371
1070
    13
1070
   372
1070
    13
1002
}
  0
ARC
  5
440
  8
回08-記事
  6
CONTINUOUS
 62
     7
 10
1011.316440845368
 20
-157.6565618646946
 30
0.0
 40
0.5
 50
90.0
 51
270.0
  0
ARC
  5
441
  8
回08-記事
  6
CONTINUOUS
 62
     7
 10
1011.316440845368
 20
-160.5365618646947
 30
0.0
 40
0.5
 50
90.0
 51
270.0
  0
ARC
  5
442
  8
回08-記事
  6
CONTINUOUS
 62
     7
 10
1011.316440845368
 20
-163.4165618646947
 30
0.0
 40
0.5
 50
90.0
 51
270.0
  0
ARC
  5
443
  8
回08-記事
  6
CONTINUOUS
 62
     7
 10
1011.316440845368
 20
-166.2965618646947
 30
0.0
 40
0.5
 50
90.0
 51
270.0
  0
ARC
  5
444
  8
回08-記事
  6
CONTINUOUS
 62
     7
 10
1011.316440845368
 20
-174.9365618646947
 30
0.0
 40
0.5
 50
90.0
 51
270.0
  0
ARC
  5
445
  8
回08-記事
  6
CONTINUOUS
 62
     7
 10
1011.316440845368
 20
-177.8165618646946
 30
0.0
 40
0.5
 50
90.0
 51
270.0
  0
ARC
  5
446
  8
回08-記事
  6
CONTINUOUS
 62
     7
 10
1011.316440845368
 20
-180.6965618646946
 30
0.0
 40
0.5
 50
90.0
 51
270.0
  0
ARC
  5
447
  8
回08-記事
  6
CONTINUOUS
 62
     7
 10
1011.316440845368
 20
-183.5765618646946
 30
0.0
 40
0.5
 50
90.0
 51
270.0
  0
ARC
  5
448
  8
回08-記事
  6
CONTINUOUS
 62
     7
 10
1011.316440845368
 20
-189.3365618646946
 30
0.0
 40
0.5
 50
90.0
 51
270.0
  0
ARC
  5
449
  8
回08-記事
  6
CONTINUOUS
 62
     7
 10
1011.316440845368
 20
-192.2165618646947
 30
0.0
 40
0.5
 50
90.0
 51
270.0
  0
ARC
  5
44A
  8
回08-記事
  6
CONTINUOUS
 62
     7
 10
1011.316440845368
 20
-195.0965618646947
 30
0.0
 40
0.5
 50
90.0
 51
270.0
  0
ARC
  5
44B
  8
回08-記事
  6
CONTINUOUS
 62
     7
 10
1011.316440845368
 20
-215.2565618646948
 30
0.0
 40
0.5
 50
90.0
 51
270.0
  0
ARC
  5
44C
  8
回08-記事
  6
CONTINUOUS
 62
     7
 10
1011.316440845368
 20
-218.1365618646948
 30
0.0
 40
0.5
 50
90.0
 51
270.0
  0
ARC
  5
44D
  8
回08-記事
  6
CONTINUOUS
 62
     7
 10
1011.316440845368
 20
-223.8965618646948
 30
0.0
 40
0.5
 50
90.0
 51
270.0
  0
POLYLINE
  5
44E
  8
回08-記事
  6
CONTINUOUS
 62
     7
 66
     1
 10
0.0
 20
0.0
 30
0.0
 70
     1
  0
VERTEX
  5
B90
  8
回08-記事
  6
CONTINUOUS
 62
     7
 10
1001.423256626398
 20
-96.98061023550673
 30
0.0
  0
VERTEX
  5
B92
  8
回08-記事
  6
CONTINUOUS
 62
     7
 10
1011.316440845368
 20
-96.98061023550673
 30
0.0
  0
VERTEX
  5
B93
  8
回08-記事
  6
CONTINUOUS
 62
     7
 10
1011.316440845368
 20
-101.8806102355066
 30
0.0
  0
VERTEX
  5
B94
  8
回08-記事
  6
CONTINUOUS
 62
     7
 10
1001.423256626398
 20
-101.8806102355066
 30
0.0
  0
SEQEND
  5
B91
  8
0
  6
CONTINUOUS
 62
     5
  0
ARC
  5
44F
  8
回08-記事
  6
CONTINUOUS
 62
     7
 10
1011.316440845368
 20
-238.2965618646947
 30
0.0
 40
0.5
 50
90.0
 51
270.0
  0
INSERT
  5
450
  8
回08-記事
  6
CONTINUOUS
 62
     7
 66
     1
  2
*X8686
 10
0.0
 20
0.0
 30
0.0
1001
GRADIENTCOLOR1ACI
1070
     5
1001
GRADIENTCOLOR2ACI
1070
     2
1001
ACAD
1010
0.0
1020
0.0
1030
0.0
  0
SEQEND
  5
7DC
  8
0
  6
CONTINUOUS
 62
     5
  0
LINE
  5
451
  8
回08-記事
  6
CONTINUOUS
 62
     7
 10
1018.316440845368
 20
-249.0806102355066
 30
0.0
 11
1018.316440845368
 21
-252.6806102355067
 31
0.0
1001
ACAD
1000
ASC_BOUNDS
1002
{
1070
    19
1005
40C
1002
}
  0
LINE
  5
452
  8
回08-記事
  6
CONTINUOUS
 62
     7
 10
1019.016440845368
 20
-249.0806102355066
 30
0.0
 11
1018.316440845368
 21
-249.0806102355066
 31
0.0
1001
ACAD
1000
ASC_BOUNDS
1002
{
1070
    19
1005
40C
1002
}
  0
LINE
  5
453
  8
回08-記事
  6
CONTINUOUS
 62
     7
 10
1012.016440845368
 20
-256.2806102355066
 30
0.0
 11
1012.716440845368
 21
-256.2806102355066
 31
0.0
1001
ACAD
1000
ASC_BOUNDS
1002
{
1070
    19
1005
40C
1002
}
  0
LINE
  5
454
  8
回08-記事
  6
CONTINUOUS
 62
     7
 10
1012.716440845368
 20
-253.3806102355066
 30
0.0
 11
1019.016440845368
 21
-253.3806102355066
 31
0.0
1001
ACAD
1000
ASC_BOUNDS
1002
{
1070
    19
1005
40C
1002
}
  0
LINE
  5
455
  8
回08-記事
  6
CONTINUOUS
 62
     7
 10
1003.123256626398
 20
-253.3806102355066
 30
0.0
 11
1003.123256626398
 21
-256.2806102355066
 31
0.0
1001
ACAD
1000
ASC_BOUNDS
1002
{
1070
    19
1005
40C
1002
}
  0
LINE
  5
456
  8
回08-記事
  6
CONTINUOUS
 62
     7
 10
1003.123256626398
 20
-256.2806102355066
 30
0.0
 11
1002.423256626398
 21
-256.2806102355066
 31
0.0
1001
ACAD
1000
ASC_BOUNDS
1002
{
1070
    19
1005
40C
1002
}
  0
LINE
  5
457
  8
回08-記事
  6
CONTINUOUS
 62
     7
 10
1010.316440845368
 20
-252.3806102355066
 30
0.0
 11
1010.316440845368
 21
-253.3806102355066
 31
0.0
1001
ACAD
1000
ASC_BOUNDS
1002
{
1070
    19
1005
40C
1002
}
  0
LINE
  5
458
  8
回08-記事
  6
CONTINUOUS
 62
     7
 10
1002.423256626398
 20
-252.3806102355066
 30
0.0
 11
1010.316440845368
 21
-252.3806102355066
 31
0.0
1001
ACAD
1000
ASC_BOUNDS
1002
{
1070
    19
1005
40C
1002
}
  0
LINE
  5
459
  8
回08-記事
  6
CONTINUOUS
 62
     7
 10
1002.423256626398
 20
-256.2806102355066
 30
0.0
 11
1002.423256626398
 21
-252.3806102355066
 31
0.0
1001
ACAD
1000
ASC_BOUNDS
1002
{
1070
    19
1005
40C
1002
}
  0
DIMENSION
  5
45A
  8
回07-寸法
  6
CONTINUOUS
 62
     7
  2
*D7474
 10
1011.316440845368
 20
-369.4041867624221
 30
0.0
 11
1021.851368648518
 21
-366.904186762422
 31
0.0
 70
    32
  1
0.3{\H0.66667x;±0.05}
  3
DMC
 13
1008.816440845368
 23
-352.6765618646954
 33
0.0
 14
1011.316440845368
 24
-352.6765618646954
 34
0.0
1001
ACAD
1000
DSTYLE
1002
{
1070
    41
1040
1.5
1070
    47
1040
0.2
1070
    48
1040
0.2
1070
   141
1040
1.5
1070
   371
1070
    13
1070
   372
1070
    13
1002
}
  0
DIMENSION
  5
46B
  8
回07-寸法
  6
CONTINUOUS
 62
     7
  2
*D7575
 10
1020.432079436052
 20
-347.6765618646954
 30
0.0
 11
1017.932079436052
 21
-350.1765618646954
 31
0.0
 70
    32
  3
DMC
 13
1011.316440845368
 23
-352.6765618646954
 33
0.0
 14
1012.016440845368
 24
-347.6765618646954
 34
0.0
 50
90.0
1001
ACAD
1000
DSTYLE
1002
{
1070
    41
1040
1.5
1070
    47
1040
0.2
1070
    48
1040
0.2
1070
   141
1040
1.5
1070
   371
1070
    13
1070
   372
1070
    13
1002
}
  0
DIMENSION
  5
47A
  8
回07-寸法
  6
CONTINUOUS
 62
     7
  2
*D7676
 10
993.5575386447677
 20
-347.6765618646954
 30
0.0
 11
991.0575386447677
 21
-350.1765618646954
 31
0.0
 70
    32
  3
DMC
 13
1001.423256626398
 23
-352.6765618646954
 33
0.0
 14
1000.723256626398
 24
-347.6765618646954
 34
0.0
 50
90.0
1001
ACAD
1000
DSTYLE
1002
{
1070
    41
1040
1.5
1070
    47
1040
0.2
1070
    48
1040
0.2
1070
   141
1040
1.5
1070
   371
1070
    13
1070
   372
1070
    13
1002
}
  0
LINE
  5
489
  8
回08-記事
  6
CONTINUOUS
 62
     7
 10
1002.423256626398
 20
-252.3806102355066
 30
0.0
 11
1010.316440845368
 21
-252.3806102355066
 31
0.0
  0
POLYLINE
  5
48A
  8
回08-記事
  6
CONTINUOUS
 62
     7
 66
     1
 10
0.0
 20
0.0
 30
0.0
 70
     1
  0
VERTEX
  5
B95
  8
回08-記事
  6
CONTINUOUS
 62
     7
 10
1008.816440845368
 20
-342.6765618646954
 30
0.0
  0
VERTEX
  5
B97
  8
回08-記事
  6
CONTINUOUS
 62
     7
 10
1010.316440845368
 20
-342.6765618646954
 30
0.0
  0
VERTEX
  5
B98
  8
回08-記事
  6
CONTINUOUS
 62
     7
 10
1010.316440845368
 20
-352.6765618646954
 30
0.0
  0
VERTEX
  5
B99
  8
回08-記事
  6
CONTINUOUS
 62
     7
 10
1008.816440845368
 20
-352.6765618646954
 30
0.0
  0
SEQEND
  5
B96
  8
0
  6
CONTINUOUS
 62
     5
  0
POLYLINE
  5
48B
  8
回08-記事
  6
CONTINUOUS
 62
     7
 66
     1
 10
0.0
 20
0.0
 30
0.0
 70
     1
  0
VERTEX
  5
B9A
  8
回08-記事
  6
CONTINUOUS
 62
     7
 10
1002.423256626398
 20
-342.6765618646954
 30
0.0
  0
VERTEX
  5
B9C
  8
回08-記事
  6
CONTINUOUS
 62
     7
 10
1003.923256626398
 20
-342.6765618646954
 30
0.0
  0
VERTEX
  5
B9D
  8
回08-記事
  6
CONTINUOUS
 62
     7
 10
1003.923256626398
 20
-352.6765618646954
 30
0.0
  0
VERTEX
  5
B9E
  8
回08-記事
  6
CONTINUOUS
 62
     7
 10
1002.423256626398
 20
-352.6765618646954
 30
0.0
  0
SEQEND
  5
B9B
  8
0
  6
CONTINUOUS
 62
     5
  0
POLYLINE
  5
48C
  8
回08-記事
  6
CONTINUOUS
 62
     7
 66
     1
 10
0.0
 20
0.0
 30
0.0
 70
     1
  0
VERTEX
  5
B9F
  8
回08-記事
  6
CONTINUOUS
 62
     7
 10
1001.423256626398
 20
-249.5306102355068
 30
0.0
  0
VERTEX
  5
BA1
  8
回08-記事
  6
CONTINUOUS
 62
     7
 10
1002.423256626398
 20
-249.5306102355068
 30
0.0
  0
VERTEX
  5
BA2
  8
回08-記事
  6
CONTINUOUS
 62
     7
 10
1002.423256626398
 20
-352.6765618646954
 30
0.0
  0
VERTEX
  5
BA3
  8
回08-記事
  6
CONTINUOUS
 62
     7
 10
1001.423256626398
 20
-352.6765618646954
 30
0.0
  0
SEQEND
  5
BA0
  8
0
  6
CONTINUOUS
 62
     5
  0
ENDSEC
  0
EOF
