  0
SECTION
  2
HEADER
  9
$ACADVER
  1
AC1009
  9
$INSBASE
 10
0.0
 20
0.0
 30
0.0
  9
$EXTMIN
 10
2056.153778572312
 20
-7.836858359789004
 30
0.0
  9
$EXTMAX
 10
2626.153778572312
 20
387.1631416402109
 30
0.0
  9
$LIMMIN
 10
0.0
 20
0.0
  9
$LIMMAX
 10
3000.0
 20
2500.0
  9
$ORTHOMODE
 70
     0
  9
$REGENMODE
 70
     1
  9
$FILLMODE
 70
     1
  9
$QTEXTMODE
 70
     0
  9
$MIRRTEXT
 70
     1
  9
$DRAGMODE
 70
     2
  9
$LTSCALE
 40
10.0
  9
$OSMODE
 70
    37
  9
$ATTMODE
 70
     1
  9
$TEXTSIZE
 40
3.0
  9
$TRACEWID
 40
1.0
  9
$TEXTSTYLE
  7
STANDARD
  9
$CLAYER
  8
0
  9
$CELTYPE
  6
CONTINUOUS
  9
$CECOLOR
 62
     7
  9
$DIMSCALE
 40
1.0
  9
$DIMASZ
 40
1.5
  9
$DIMEXO
 40
0.0
  9
$DIMDLI
 40
0.0
  9
$DIMRND
 40
0.0
  9
$DIMDLE
 40
0.0
  9
$DIMEXE
 40
1.0
  9
$DIMTP
 40
0.2
  9
$DIMTM
 40
0.2
  9
$DIMTXT
 40
3.0
  9
$DIMCEN
 40
1.5
  9
$DIMTSZ
 40
0.0
  9
$DIMTOL
 70
     0
  9
$DIMLIM
 70
     0
  9
$DIMTIH
 70
     0
  9
$DIMTOH
 70
     0
  9
$DIMSE1
 70
     0
  9
$DIMSE2
 70
     0
  9
$DIMTAD
 70
     3
  9
$DIMZIN
 70
     8
  9
$DIMBLK
  1
OPEN
  9
$DIMASO
 70
     1
  9
$DIMSHO
 70
     1
  9
$DIMPOST
  1

  9
$DIMAPOST
  1

  9
$DIMALT
 70
     0
  9
$DIMALTD
 70
     3
  9
$DIMALTF
 40
0.03937007874016
  9
$DIMLFAC
 40
1.0
  9
$DIMTOFL
 70
     1
  9
$DIMTVP
 40
0.0
  9
$DIMTIX
 70
     0
  9
$DIMSOXD
 70
     0
  9
$DIMSAH
 70
     0
  9
$DIMBLK1
  1

  9
$DIMBLK2
  1

  9
$DIMSTYLE
  2
DMC
  9
$DIMCLRD
 70
     5
  9
$DIMCLRE
 70
     5
  9
$DIMCLRT
 70
     5
  9
$DIMTFAC
 40
0.7
  9
$DIMGAP
 40
0.5
  9
$LUNITS
 70
     2
  9
$LUPREC
 70
     4
  9
$SKETCHINC
 40
1.0
  9
$FILLETRAD
 40
0.5
  9
$AUNITS
 70
     0
  9
$AUPREC
 70
     0
  9
$MENU
  1
.
  9
$ELEVATION
 40
0.0
  9
$PELEVATION
 40
0.0
  9
$THICKNESS
 40
0.0
  9
$LIMCHECK
 70
     0
  9
$BLIPMODE
 70
     0
  9
$CHAMFERA
 40
1.5
  9
$CHAMFERB
 40
1.5
  9
$SKPOLY
 70
     0
  9
$TDCREATE
 40
2451810.779221065
  9
$TDUPDATE
 40
2460230.386420139
  9
$TDINDWG
 40
3.314994167
  9
$TDUSRTIMER
 40
3.314992431
  9
$USRTIMER
 70
     1
  9
$ANGBASE
 50
0.0
  9
$ANGDIR
 70
     0
  9
$PDMODE
 70
     0
  9
$PDSIZE
 40
0.0
  9
$PLINEWID
 40
0.5
  9
$COORDS
 70
     0
  9
$SPLFRAME
 70
     0
  9
$SPLINETYPE
 70
     6
  9
$SPLINESEGS
 70
     8
  9
$ATTDIA
 70
     1
  9
$ATTREQ
 70
     1
  9
$HANDLING
 70
     1
  9
$HANDSEED
  5
C60
  9
$SURFTAB1
 70
     6
  9
$SURFTAB2
 70
     6
  9
$SURFTYPE
 70
     6
  9
$SURFU
 70
     6
  9
$SURFV
 70
     6
  9
$UCSNAME
  2

  9
$UCSORG
 10
0.0
 20
0.0
 30
0.0
  9
$UCSXDIR
 10
1.0
 20
0.0
 30
0.0
  9
$UCSYDIR
 10
0.0
 20
1.0
 30
0.0
  9
$PUCSNAME
  2

  9
$PUCSORG
 10
0.0
 20
0.0
 30
0.0
  9
$PUCSXDIR
 10
1.0
 20
0.0
 30
0.0
  9
$PUCSYDIR
 10
0.0
 20
1.0
 30
0.0
  9
$USERI1
 70
     0
  9
$USERI2
 70
     0
  9
$USERI3
 70
     0
  9
$USERI4
 70
     0
  9
$USERI5
 70
     0
  9
$USERR1
 40
0.0
  9
$USERR2
 40
0.0
  9
$USERR3
 40
0.0
  9
$USERR4
 40
0.0
  9
$USERR5
 40
0.0
  9
$WORLDVIEW
 70
     1
  9
$SHADEDGE
 70
     3
  9
$SHADEDIF
 70
    70
  9
$TILEMODE
 70
     1
  9
$MAXACTVP
 70
    64
  9
$PLIMCHECK
 70
     0
  9
$PEXTMIN
 10
1.000000000000000E+20
 20
1.000000000000000E+20
 30
1.000000000000000E+20
  9
$PEXTMAX
 10
-1.000000000000000E+20
 20
-1.000000000000000E+20
 30
-1.000000000000000E+20
  9
$PLIMMIN
 10
0.0
 20
0.0
  9
$PLIMMAX
 10
420.0
 20
297.0
  9
$UNITMODE
 70
     0
  9
$VISRETAIN
 70
     1
  9
$PLINEGEN
 70
     0
  9
$PSLTSCALE
 70
     1
  0
ENDSEC
  0
SECTION
  2
TABLES
  0
TABLE
  2
VPORT
 70
     1
  0
VPORT
  2
*ACTIVE
 70
     0
 10
0.0
 20
0.0
 11
1.0
 21
1.0
 12
2446.747895724764
 22
178.0277608587672
 13
0.0
 23
0.0
 14
10.0
 24
10.0
 15
10.0
 25
10.0
 16
0.0
 26
0.0
 36
1.0
 17
0.0
 27
0.0
 37
0.0
 40
470.1142488554697
 41
1.853689567430025
 42
50.0
 43
0.0
 44
0.0
 50
0.0
 51
0.0
 71
     0
 72
   500
 73
     1
 74
     1
 75
     0
 76
     0
 77
     0
 78
     0
  0
ENDTAB
  0
TABLE
  2
LTYPE
 70
     4
  0
LTYPE
  2
CONTINUOUS
 70
     0
  3
Solid line
 72
    65
 73
     0
 40
0.0
  0
LTYPE
  2
CENTER2
 70
     0
  3
Center (.5x) ___ _ ___ _ ___ _ ___ _ ___ _ ___
 72
    65
 73
     4
 40
28.575
 49
19.05
 49
-3.174999999999998
 49
3.174999999999998
 49
-3.174999999999998
  0
LTYPE
  2
DASHED2
 70
     0
  3
Dashed (.5x) _ _ _ _ _ _ _ _ _ _ _ _ _ _ _ _ _
 72
    65
 73
     2
 40
9.524999999999996
 49
6.349999999999998
 49
-3.174999999999998
  0
LTYPE
  2
PHANTOM2
 70
     0
  3
___ _ _ ___ _ _ ___ _ _ ___ _ _ ___ _ _ ___ _ _
 72
    65
 73
     6
 40
1.25
 49
0.625
 49
-0.125
 49
0.125
 49
-0.125
 49
0.125
 49
-0.125
  0
ENDTAB
  0
TABLE
  2
LAYER
 70
    10
  0
LAYER
  2
0
 70
     0
 62
     7
  6
CONTINUOUS
  0
LAYER
  2
DEFPOINTS
 70
     0
 62
     7
  6
CONTINUOUS
  0
LAYER
  2
回05-ﾃｰﾙ
 70
     0
 62
     7
  6
CONTINUOUS
  0
LAYER
  2
回07-寸法
 70
     0
 62
     7
  6
CONTINUOUS
  0
LAYER
  2
回03-下ER
 70
     0
 62
     7
  6
CONTINUOUS
  0
LAYER
  2
回90-枠2
 70
     0
 62
     7
  6
CONTINUOUS
  0
LAYER
  2
回04-下接
 70
     0
 62
     7
  6
CONTINUOUS
  0
LAYER
  2
回01-上ER
 70
     0
 62
     7
  6
CONTINUOUS
  0
LAYER
  2
回08-記事
 70
     0
 62
     7
  6
CONTINUOUS
  0
LAYER
  2
回03-記事
 70
     0
 62
     7
  6
CONTINUOUS
  0
ENDTAB
  0
TABLE
  2
STYLE
 70
     2
  0
STYLE
  2
STANDARD
 70
     0
 40
3.0
 41
1.0
 50
0.0
 71
     0
 42
3.0
  3
isocp.shx
  4
bigfont.shx
  0
STYLE
  2
ANNOTATIVE
 70
     0
 40
0.0
 41
1.0
 50
0.0
 71
     0
 42
0.2
  3
txt.shx
  4

  0
ENDTAB
  0
TABLE
  2
VIEW
 70
     0
  0
ENDTAB
  0
TABLE
  2
UCS
 70
     0
  0
ENDTAB
  0
TABLE
  2
APPID
 70
     7
  0
APPID
  2
ACAD
 70
     0
  0
APPID
  2
ACADANNOTATIVE
 70
     0
  0
APPID
  2
ACAD_PSEXT
 70
     0
  0
APPID
  2
GRADIENTCOLOR1ACI
 70
     0
  0
APPID
  2
GRADIENTCOLOR2ACI
 70
     0
  0
APPID
  2
ACADSTRINGINFO
 70
     0
  0
APPID
  2
ACAD_NAV_VCDISPLAY
 70
     0
  0
ENDTAB
  0
TABLE
  2
DIMSTYLE
 70
     1
  0
DIMSTYLE
  2
DMC
 70
     0
  3

  4

  5
OPEN
  6

  7

 40
1.0
 41
2.0
 42
0.0
 43
0.0
 44
1.0
 45
0.0
 46
0.0
 47
0.0
 48
0.0
140
3.0
141
2.0
142
0.0
143
0.03937007874016
144
1.0
145
0.0
146
0.7
147
0.5
 71
     0
 72
     0
 73
     0
 74
     0
 75
     0
 76
     0
 77
     3
 78
     8
170
     0
171
     3
172
     1
173
     0
174
     0
175
     0
176
     5
177
     5
178
     5
  0
ENDTAB
  0
ENDSEC
  0
SECTION
  2
BLOCKS
  0
BLOCK
  8
0
  2
$MODEL_SPACE
 70
     0
 10
0.0
 20
0.0
 30
0.0
  3
$MODEL_SPACE
  1

  0
ENDBLK
  8
0
  5
22
  0
BLOCK
 67
     1
  8
0
  2
$PAPER_SPACE
 70
     0
 10
0.0
 20
0.0
 30
0.0
  3
$PAPER_SPACE
  1

  0
ENDBLK
  5
2B
 67
     1
  8
0
  0
BLOCK
  8
0
  2
_OPEN
 70
     0
 10
0.0
 20
0.0
 30
0.0
  3
_OPEN
  1

  0
LINE
  5
97F
  8
0
  6
BYBLOCK
 62
     0
 10
-1.0
 20
0.166667
 30
0.0
 11
0.0
 21
0.0
 31
0.0
  0
LINE
  5
980
  8
0
  6
BYBLOCK
 62
     0
 10
-1.0
 20
-0.166667
 30
0.0
 11
0.0
 21
0.0
 31
0.0
  0
LINE
  5
981
  8
0
  6
BYBLOCK
 62
     0
 10
0.0
 20
0.0
 30
0.0
 11
-1.0
 21
0.0
 31
0.0
  0
LINE
  5
15
  8
0
  6
CONTINUOUS
 62
     0
 10
-1.0
 20
0.1666666666666666
 30
0.0
 11
0.0
 21
0.0
 31
0.0
  0
LINE
  5
16
  8
0
  6
CONTINUOUS
 62
     0
 10
-1.0
 20
-0.1666666666666666
 30
0.0
 11
0.0
 21
0.0
 31
0.0
  0
LINE
  5
17
  8
0
  6
CONTINUOUS
 62
     0
 10
0.0
 20
0.0
 30
0.0
 11
-1.0
 21
0.0
 31
0.0
  0
ENDBLK
  5
18
  8
0
  0
BLOCK
  8
0
  2
*D11
 70
     1
 10
0.0
 20
0.0
 30
0.0
  3
*D11
  1

  0
LINE
  5
18A
  8
回07-寸法
  6
CONTINUOUS
 62
     5
 10
2178.7065109483
 20
230.1021957876989
 30
0.0
 11
2153.056510948299
 21
230.1021957876989
 31
0.0
  0
LINE
  5
18B
  8
回07-寸法
  6
CONTINUOUS
 62
     5
 10
2178.706510948299
 20
388.5021957876986
 30
0.0
 11
2153.056510948299
 21
388.5021957876986
 31
0.0
  0
LINE
  5
18C
  8
回07-寸法
  6
CONTINUOUS
 62
     5
 10
2154.056510948299
 20
231.6021957876989
 30
0.0
 11
2154.056510948299
 21
387.0021957876986
 31
0.0
  0
INSERT
  5
18D
  8
回07-寸法
  6
CONTINUOUS
 62
     5
 66
     1
  2
_OPEN
 10
2154.056510948299
 20
230.1021957876989
 30
0.0
 41
1.5
 42
1.5
 43
1.5
 50
270.0
  0
SEQEND
  5
18E
  8
0
  6
CONTINUOUS
 62
     7
  0
INSERT
  5
18F
  8
回07-寸法
  6
CONTINUOUS
 62
     5
 66
     1
  2
_OPEN
 10
2154.056510948299
 20
388.5021957876986
 30
0.0
 41
1.5
 42
1.5
 43
1.5
 50
90.0
  0
SEQEND
  5
190
  8
0
  6
CONTINUOUS
 62
     7
  0
TEXT
  5
191
  8
回07-寸法
  6
CONTINUOUS
 62
     5
 10
2153.406510948299
 20
292.9527863388801
 30
0.0
 40
3.0
  1
158.4(Active area)
 50
90.0
1001
ACAD
1000
MTEXTBEGIN
1070
    73
1070
     1
1070
    44
1040
1.0
1070
    74
1070
     0
1000
MTEXTEND
  0
POINT
  5
192
  8
DEFPOINTS
  6
CONTINUOUS
 62
     0
 10
2178.7065109483
 20
230.1021957876989
 30
0.0
  0
POINT
  5
193
  8
DEFPOINTS
  6
CONTINUOUS
 62
     0
 10
2178.706510948299
 20
388.5021957876986
 30
0.0
  0
POINT
  5
194
  8
DEFPOINTS
  6
CONTINUOUS
 62
     0
 10
2154.056510948299
 20
388.5021957876986
 30
0.0
  0
ENDBLK
  5
195
  8
0
 62
     5
  0
BLOCK
  8
0
  2
*D22
 70
     1
 10
0.0
 20
0.0
 30
0.0
  3
*D22
  1

  0
LINE
  5
17B
  8
回07-寸法
  6
CONTINUOUS
 62
     5
 10
2176.5565109483
 20
390.9021957876984
 30
0.0
 11
2145.056510948299
 21
390.9021957876984
 31
0.0
  0
LINE
  5
17C
  8
回07-寸法
  6
CONTINUOUS
 62
     5
 10
2176.5565109483
 20
227.7021957876987
 30
0.0
 11
2145.056510948299
 21
227.7021957876987
 31
0.0
  0
LINE
  5
17D
  8
回07-寸法
  6
CONTINUOUS
 62
     5
 10
2146.0565109483
 20
389.4021957876984
 30
0.0
 11
2146.0565109483
 21
229.2021957876987
 31
0.0
  0
INSERT
  5
17E
  8
回07-寸法
  6
CONTINUOUS
 62
     5
 66
     1
  2
_OPEN
 10
2146.0565109483
 20
390.9021957876984
 30
0.0
 41
1.5
 42
1.5
 43
1.5
 50
90.0
  0
SEQEND
  5
17F
  8
0
  6
CONTINUOUS
 62
     7
  0
INSERT
  5
180
  8
回07-寸法
  6
CONTINUOUS
 62
     5
 66
     1
  2
_OPEN
 10
2146.0565109483
 20
227.7021957876987
 30
0.0
 41
1.5
 42
1.5
 43
1.5
 50
270.0
  0
SEQEND
  5
181
  8
0
  6
CONTINUOUS
 62
     7
  0
TEXT
  5
182
  8
回07-寸法
  6
CONTINUOUS
 62
     5
 10
2144.8065109483
 20
292.0527863388798
 30
0.0
 40
3.0
  1
163.2(Viewing area)
 50
90.0
1001
ACAD
1000
MTEXTBEGIN
1070
    73
1070
     1
1070
    44
1040
1.0
1070
    74
1070
     0
1000
MTEXTEND
  0
POINT
  5
183
  8
DEFPOINTS
  6
CONTINUOUS
 62
     0
 10
2176.5565109483
 20
390.9021957876984
 30
0.0
  0
POINT
  5
184
  8
DEFPOINTS
  6
CONTINUOUS
 62
     0
 10
2176.5565109483
 20
227.7021957876987
 30
0.0
  0
POINT
  5
185
  8
DEFPOINTS
  6
CONTINUOUS
 62
     0
 10
2146.0565109483
 20
227.7021957876987
 30
0.0
  0
ENDBLK
  5
186
  8
0
 62
     5
  0
BLOCK
  8
0
  2
*D33
 70
     1
 10
0.0
 20
0.0
 30
0.0
  3
*D33
  1

  0
LINE
  5
16C
  8
回07-寸法
  6
CONTINUOUS
 62
     5
 10
2170.056510948299
 20
397.9021957876986
 30
0.0
 11
2129.056510948299
 21
397.9021957876986
 31
0.0
  0
LINE
  5
16D
  8
回07-寸法
  6
CONTINUOUS
 62
     5
 10
2170.056510948299
 20
217.0021957876988
 30
0.0
 11
2129.056510948299
 21
217.0021957876988
 31
0.0
  0
LINE
  5
16E
  8
回07-寸法
  6
CONTINUOUS
 62
     5
 10
2130.0565109483
 20
396.4021957876986
 30
0.0
 11
2130.0565109483
 21
218.5021957876987
 31
0.0
  0
INSERT
  5
16F
  8
回07-寸法
  6
CONTINUOUS
 62
     5
 66
     1
  2
_OPEN
 10
2130.0565109483
 20
397.9021957876986
 30
0.0
 41
1.5
 42
1.5
 43
1.5
 50
90.0
  0
SEQEND
  5
170
  8
0
  6
CONTINUOUS
 62
     7
  0
INSERT
  5
171
  8
回07-寸法
  6
CONTINUOUS
 62
     5
 66
     1
  2
_OPEN
 10
2130.0565109483
 20
217.0021957876988
 30
0.0
 41
1.5
 42
1.5
 43
1.5
 50
270.0
  0
SEQEND
  5
172
  8
0
  6
CONTINUOUS
 62
     7
  0
INSERT
  5
173
  8
回07-寸法
  6
CONTINUOUS
 62
     5
 66
     1
  2
*X8787
 10
0.0
 20
0.0
 30
0.0
  0
SEQEND
  5
886
  8
0
  6
CONTINUOUS
 62
     7
  0
POINT
  5
174
  8
DEFPOINTS
  6
CONTINUOUS
 62
     0
 10
2170.056510948299
 20
397.9021957876986
 30
0.0
  0
POINT
  5
175
  8
DEFPOINTS
  6
CONTINUOUS
 62
     0
 10
2170.056510948299
 20
217.0021957876988
 30
0.0
  0
POINT
  5
176
  8
DEFPOINTS
  6
CONTINUOUS
 62
     0
 10
2130.0565109483
 20
217.0021957876988
 30
0.0
  0
ENDBLK
  5
177
  8
0
 62
     5
  0
BLOCK
  8
0
  2
*D44
 70
     1
 10
0.0
 20
0.0
 30
0.0
  3
*D44
  1

  0
LINE
  5
15D
  8
回07-寸法
  6
CONTINUOUS
 62
     5
 10
2176.0565109483
 20
227.2021957876987
 30
0.0
 11
2137.056510948299
 21
227.2021957876987
 31
0.0
  0
LINE
  5
15E
  8
回07-寸法
  6
CONTINUOUS
 62
     5
 10
2176.0565109483
 20
391.4021957876983
 30
0.0
 11
2137.056510948299
 21
391.4021957876983
 31
0.0
  0
LINE
  5
15F
  8
回07-寸法
  6
CONTINUOUS
 62
     5
 10
2138.0565109483
 20
228.7021957876987
 30
0.0
 11
2138.0565109483
 21
389.9021957876984
 31
0.0
  0
INSERT
  5
160
  8
回07-寸法
  6
CONTINUOUS
 62
     5
 66
     1
  2
_OPEN
 10
2138.0565109483
 20
227.2021957876987
 30
0.0
 41
1.5
 42
1.5
 43
1.5
 50
270.0
  0
SEQEND
  5
161
  8
0
  6
CONTINUOUS
 62
     7
  0
INSERT
  5
162
  8
回07-寸法
  6
CONTINUOUS
 62
     5
 66
     1
  2
_OPEN
 10
2138.0565109483
 20
391.4021957876983
 30
0.0
 41
1.5
 42
1.5
 43
1.5
 50
90.0
  0
SEQEND
  5
163
  8
0
  6
CONTINUOUS
 62
     7
  0
TEXT
  5
164
  8
回07-寸法
  6
CONTINUOUS
 62
     5
 10
2137.5565109483
 20
304.8018641023586
 30
0.0
 40
3.0
  1
164.2
 50
90.0
1001
ACAD
1000
MTEXTBEGIN
1070
    73
1070
     1
1070
    44
1040
1.0
1070
    74
1070
     0
1000
MTEXTEND
  0
POINT
  5
165
  8
DEFPOINTS
  6
CONTINUOUS
 62
     0
 10
2176.0565109483
 20
227.2021957876987
 30
0.0
  0
POINT
  5
166
  8
DEFPOINTS
  6
CONTINUOUS
 62
     0
 10
2176.0565109483
 20
391.4021957876983
 30
0.0
  0
POINT
  5
167
  8
DEFPOINTS
  6
CONTINUOUS
 62
     0
 10
2138.0565109483
 20
391.4021957876983
 30
0.0
  0
ENDBLK
  5
168
  8
0
 62
     5
  0
BLOCK
  8
0
  2
*D55
 70
     1
 10
0.0
 20
0.0
 30
0.0
  3
*D55
  1

  0
LINE
  5
221
  8
回07-寸法
  6
CONTINUOUS
 62
     5
 10
2176.5565109483
 20
227.7021957876987
 30
0.0
 11
2145.056510948299
 21
227.7021957876987
 31
0.0
  0
LINE
  5
222
  8
回07-寸法
  6
CONTINUOUS
 62
     5
 10
2170.056510948299
 20
217.0021957876988
 30
0.0
 11
2145.056510948299
 21
217.0021957876988
 31
0.0
  0
LINE
  5
223
  8
回07-寸法
  6
CONTINUOUS
 62
     5
 10
2146.0565109483
 20
215.5021957876988
 30
0.0
 11
2146.0565109483
 21
205.902195787699
 31
0.0
  0
LINE
  5
224
  8
回07-寸法
  6
CONTINUOUS
 62
     5
 10
2146.0565109483
 20
227.7021957876987
 30
0.0
 11
2146.0565109483
 21
217.0021957876988
 31
0.0
  0
LINE
  5
225
  8
回07-寸法
  6
CONTINUOUS
 62
     5
 10
2146.0565109483
 20
229.2021957876987
 30
0.0
 11
2146.0565109483
 21
230.7021957876987
 31
0.0
  0
INSERT
  5
226
  8
回07-寸法
  6
CONTINUOUS
 62
     5
 66
     1
  2
_OPEN
 10
2146.0565109483
 20
227.7021957876987
 30
0.0
 41
1.5
 42
1.5
 43
1.5
 50
270.0
  0
SEQEND
  5
227
  8
0
  6
CONTINUOUS
 62
     7
  0
INSERT
  5
228
  8
回07-寸法
  6
CONTINUOUS
 62
     5
 66
     1
  2
_OPEN
 10
2146.0565109483
 20
217.0021957876988
 30
0.0
 41
1.5
 42
1.5
 43
1.5
 50
90.0
  0
SEQEND
  5
229
  8
0
  6
CONTINUOUS
 62
     7
  0
TEXT
  5
22A
  8
回07-寸法
  6
CONTINUOUS
 62
     5
 10
2145.5565109483
 20
205.9521957876991
 30
0.0
 40
3.0
  1
10.7
 50
90.0
1001
ACAD
1000
MTEXTBEGIN
1070
    73
1070
     1
1070
    44
1040
1.0
1070
    74
1070
     0
1000
MTEXTEND
  0
POINT
  5
22B
  8
DEFPOINTS
  6
CONTINUOUS
 62
     0
 10
2176.5565109483
 20
227.7021957876987
 30
0.0
  0
POINT
  5
22C
  8
DEFPOINTS
  6
CONTINUOUS
 62
     0
 10
2170.056510948299
 20
217.0021957876988
 30
0.0
  0
POINT
  5
22D
  8
DEFPOINTS
  6
CONTINUOUS
 62
     0
 10
2146.0565109483
 20
217.0021957876988
 30
0.0
  0
ENDBLK
  5
22E
  8
0
 62
     5
  0
BLOCK
  8
0
  2
*D66
 70
     1
 10
0.0
 20
0.0
 30
0.0
  3
*D66
  1

  0
LINE
  5
210
  8
回07-寸法
  6
CONTINUOUS
 62
     5
 10
2178.706510948299
 20
230.1021957876987
 30
0.0
 11
2153.056510948299
 21
230.1021957876987
 31
0.0
  0
LINE
  5
211
  8
回07-寸法
  6
CONTINUOUS
 62
     5
 10
2170.056510948299
 20
217.0021957876988
 30
0.0
 11
2153.056510948299
 21
217.0021957876988
 31
0.0
  0
LINE
  5
212
  8
回07-寸法
  6
CONTINUOUS
 62
     5
 10
2154.056510948299
 20
215.5021957876988
 30
0.0
 11
2154.056510948299
 21
205.5986423971057
 31
0.0
  0
LINE
  5
213
  8
回07-寸法
  6
CONTINUOUS
 62
     5
 10
2154.056510948299
 20
230.1021957876987
 30
0.0
 11
2154.056510948299
 21
217.0021957876988
 31
0.0
  0
LINE
  5
214
  8
回07-寸法
  6
CONTINUOUS
 62
     5
 10
2154.056510948299
 20
231.6021957876987
 30
0.0
 11
2154.056510948299
 21
233.1021957876987
 31
0.0
  0
INSERT
  5
215
  8
回07-寸法
  6
CONTINUOUS
 62
     5
 66
     1
  2
_OPEN
 10
2154.056510948299
 20
230.1021957876987
 30
0.0
 41
1.5
 42
1.5
 43
1.5
 50
270.0
  0
SEQEND
  5
216
  8
0
  6
CONTINUOUS
 62
     7
  0
INSERT
  5
217
  8
回07-寸法
  6
CONTINUOUS
 62
     5
 66
     1
  2
_OPEN
 10
2154.056510948299
 20
217.0021957876988
 30
0.0
 41
1.5
 42
1.5
 43
1.5
 50
90.0
  0
SEQEND
  5
218
  8
0
  6
CONTINUOUS
 62
     7
  0
TEXT
  5
219
  8
回07-寸法
  6
CONTINUOUS
 62
     5
 10
2153.5565109483
 20
205.648642397106
 30
0.0
 40
3.0
  1
13.1
 50
90.0
1001
ACAD
1000
MTEXTBEGIN
1070
    73
1070
     1
1070
    44
1040
1.0
1070
    74
1070
     0
1000
MTEXTEND
  0
POINT
  5
21A
  8
DEFPOINTS
  6
CONTINUOUS
 62
     0
 10
2178.706510948299
 20
230.1021957876987
 30
0.0
  0
POINT
  5
21B
  8
DEFPOINTS
  6
CONTINUOUS
 62
     0
 10
2170.056510948299
 20
217.0021957876988
 30
0.0
  0
POINT
  5
21C
  8
DEFPOINTS
  6
CONTINUOUS
 62
     0
 10
2154.056510948299
 20
217.0021957876988
 30
0.0
  0
ENDBLK
  5
21D
  8
0
 62
     5
  0
BLOCK
  8
0
  2
*D77
 70
     1
 10
0.0
 20
0.0
 30
0.0
  3
*D77
  1

  0
LINE
  5
1FF
  8
回07-寸法
  6
CONTINUOUS
 62
     5
 10
2176.0565109483
 20
227.2021957876987
 30
0.0
 11
2137.056510948299
 21
227.2021957876987
 31
0.0
  0
LINE
  5
200
  8
回07-寸法
  6
CONTINUOUS
 62
     5
 10
2170.056510948299
 20
217.0021957876988
 30
0.0
 11
2137.056510948299
 21
217.0021957876988
 31
0.0
  0
LINE
  5
201
  8
回07-寸法
  6
CONTINUOUS
 62
     5
 10
2138.0565109483
 20
215.5021957876988
 30
0.0
 11
2138.0565109483
 21
187.3470079786438
 31
0.0
  0
LINE
  5
202
  8
回07-寸法
  6
CONTINUOUS
 62
     5
 10
2138.0565109483
 20
227.2021957876987
 30
0.0
 11
2138.0565109483
 21
217.0021957876988
 31
0.0
  0
LINE
  5
203
  8
回07-寸法
  6
CONTINUOUS
 62
     5
 10
2138.0565109483
 20
228.7021957876987
 30
0.0
 11
2138.0565109483
 21
230.2021957876986
 31
0.0
  0
INSERT
  5
204
  8
回07-寸法
  6
CONTINUOUS
 62
     5
 66
     1
  2
_OPEN
 10
2138.0565109483
 20
227.2021957876987
 30
0.0
 41
1.5
 42
1.5
 43
1.5
 50
270.0
  0
SEQEND
  5
205
  8
0
  6
CONTINUOUS
 62
     7
  0
INSERT
  5
206
  8
回07-寸法
  6
CONTINUOUS
 62
     5
 66
     1
  2
_OPEN
 10
2138.0565109483
 20
217.0021957876988
 30
0.0
 41
1.5
 42
1.5
 43
1.5
 50
90.0
  0
SEQEND
  5
207
  8
0
  6
CONTINUOUS
 62
     7
  0
INSERT
  5
208
  8
回07-寸法
  6
CONTINUOUS
 62
     5
 66
     1
  2
*X8888
 10
0.0
 20
0.0
 30
0.0
  0
SEQEND
  5
88C
  8
0
  6
CONTINUOUS
 62
     7
  0
POINT
  5
209
  8
DEFPOINTS
  6
CONTINUOUS
 62
     0
 10
2176.0565109483
 20
227.2021957876987
 30
0.0
  0
POINT
  5
20A
  8
DEFPOINTS
  6
CONTINUOUS
 62
     0
 10
2170.056510948299
 20
217.0021957876988
 30
0.0
  0
POINT
  5
20B
  8
DEFPOINTS
  6
CONTINUOUS
 62
     0
 10
2138.0565109483
 20
217.0021957876988
 30
0.0
  0
ENDBLK
  5
20C
  8
0
 62
     5
  0
BLOCK
  8
0
  2
*D88
 70
     1
 10
0.0
 20
0.0
 30
0.0
  3
*D88
  1

  0
LINE
  5
1EE
  8
回07-寸法
  6
CONTINUOUS
 62
     5
 10
2178.7065109583
 20
388.5021957876986
 30
0.0
 11
2153.056510948299
 21
388.5021957876986
 31
0.0
  0
LINE
  5
1EF
  8
回07-寸法
  6
CONTINUOUS
 62
     5
 10
2170.056510948299
 20
397.9021957876986
 30
0.0
 11
2153.056510948299
 21
397.9021957876986
 31
0.0
  0
LINE
  5
1F0
  8
回07-寸法
  6
CONTINUOUS
 62
     5
 10
2154.056510948299
 20
399.4021957876986
 30
0.0
 11
2154.056510948299
 21
408.8106646885553
 31
0.0
  0
LINE
  5
1F1
  8
回07-寸法
  6
CONTINUOUS
 62
     5
 10
2154.056510948299
 20
388.5021957876986
 30
0.0
 11
2154.056510948299
 21
397.9021957876986
 31
0.0
  0
LINE
  5
1F2
  8
回07-寸法
  6
CONTINUOUS
 62
     5
 10
2154.056510948299
 20
387.0021957876986
 30
0.0
 11
2154.056510948299
 21
385.5021957876986
 31
0.0
  0
INSERT
  5
1F3
  8
回07-寸法
  6
CONTINUOUS
 62
     5
 66
     1
  2
_OPEN
 10
2154.056510948299
 20
388.5021957876986
 30
0.0
 41
1.5
 42
1.5
 43
1.5
 50
90.0
  0
SEQEND
  5
1F4
  8
0
  6
CONTINUOUS
 62
     7
  0
INSERT
  5
1F5
  8
回07-寸法
  6
CONTINUOUS
 62
     5
 66
     1
  2
_OPEN
 10
2154.056510948299
 20
397.9021957876986
 30
0.0
 41
1.5
 42
1.5
 43
1.5
 50
270.0
  0
SEQEND
  5
1F6
  8
0
  6
CONTINUOUS
 62
     7
  0
TEXT
  5
1F7
  8
回07-寸法
  6
CONTINUOUS
 62
     5
 10
2153.4065109483
 20
400.9510146853361
 30
0.0
 40
3.0
  1
(9.4)
 50
90.0
1001
ACAD
1000
MTEXTBEGIN
1070
    73
1070
     1
1070
    44
1040
1.0
1070
    74
1070
     0
1000
MTEXTEND
  0
POINT
  5
1F8
  8
DEFPOINTS
  6
CONTINUOUS
 62
     0
 10
2178.7065109583
 20
388.5021957876986
 30
0.0
  0
POINT
  5
1F9
  8
DEFPOINTS
  6
CONTINUOUS
 62
     0
 10
2170.056510948299
 20
397.9021957876986
 30
0.0
  0
POINT
  5
1FA
  8
DEFPOINTS
  6
CONTINUOUS
 62
     0
 10
2154.056510948299
 20
397.9021957876986
 30
0.0
  0
ENDBLK
  5
1FB
  8
0
 62
     5
  0
BLOCK
  8
0
  2
*D99
 70
     1
 10
0.0
 20
0.0
 30
0.0
  3
*D99
  1

  0
LINE
  5
1DD
  8
回07-寸法
  6
CONTINUOUS
 62
     5
 10
2176.5565109483
 20
390.9021957876986
 30
0.0
 11
2145.056510948299
 21
390.9021957876986
 31
0.0
  0
LINE
  5
1DE
  8
回07-寸法
  6
CONTINUOUS
 62
     5
 10
2170.056510948299
 20
397.9021957876986
 30
0.0
 11
2145.056510948299
 21
397.9021957876986
 31
0.0
  0
LINE
  5
1DF
  8
回07-寸法
  6
CONTINUOUS
 62
     5
 10
2146.0565109483
 20
399.4021957876986
 30
0.0
 11
2146.0565109483
 21
405.4998335829744
 31
0.0
  0
LINE
  5
1E0
  8
回07-寸法
  6
CONTINUOUS
 62
     5
 10
2146.0565109483
 20
390.9021957876986
 30
0.0
 11
2146.0565109483
 21
397.9021957876986
 31
0.0
  0
LINE
  5
1E1
  8
回07-寸法
  6
CONTINUOUS
 62
     5
 10
2146.0565109483
 20
389.4021957876986
 30
0.0
 11
2146.0565109483
 21
387.9021957876986
 31
0.0
  0
INSERT
  5
1E2
  8
回07-寸法
  6
CONTINUOUS
 62
     5
 66
     1
  2
_OPEN
 10
2146.0565109483
 20
390.9021957876986
 30
0.0
 41
1.5
 42
1.5
 43
1.5
 50
90.0
  0
SEQEND
  5
1E3
  8
0
  6
CONTINUOUS
 62
     7
  0
INSERT
  5
1E4
  8
回07-寸法
  6
CONTINUOUS
 62
     5
 66
     1
  2
_OPEN
 10
2146.0565109483
 20
397.9021957876986
 30
0.0
 41
1.5
 42
1.5
 43
1.5
 50
270.0
  0
SEQEND
  5
1E5
  8
0
  6
CONTINUOUS
 62
     7
  0
TEXT
  5
1E6
  8
回07-寸法
  6
CONTINUOUS
 62
     5
 10
2145.4065109483
 20
400.9510146853367
 30
0.0
 40
3.0
  1
(7)
 50
90.0
1001
ACAD
1000
MTEXTBEGIN
1070
    73
1070
     1
1070
    44
1040
1.0
1070
    74
1070
     0
1000
MTEXTEND
  0
POINT
  5
1E7
  8
DEFPOINTS
  6
CONTINUOUS
 62
     0
 10
2176.5565109483
 20
390.9021957876986
 30
0.0
  0
POINT
  5
1E8
  8
DEFPOINTS
  6
CONTINUOUS
 62
     0
 10
2170.056510948299
 20
397.9021957876986
 30
0.0
  0
POINT
  5
1E9
  8
DEFPOINTS
  6
CONTINUOUS
 62
     0
 10
2146.0565109483
 20
397.9021957876986
 30
0.0
  0
ENDBLK
  5
1EA
  8
0
 62
     5
  0
BLOCK
  8
0
  2
*D1010
 70
     1
 10
0.0
 20
0.0
 30
0.0
  3
*D1010
  1

  0
LINE
  5
1CC
  8
回07-寸法
  6
CONTINUOUS
 62
     5
 10
2176.0565109483
 20
391.4021957876986
 30
0.0
 11
2137.056510948299
 21
391.4021957876986
 31
0.0
  0
LINE
  5
1CD
  8
回07-寸法
  6
CONTINUOUS
 62
     5
 10
2170.056510948299
 20
397.9021957876986
 30
0.0
 11
2137.056510948299
 21
397.9021957876986
 31
0.0
  0
LINE
  5
1CE
  8
回07-寸法
  6
CONTINUOUS
 62
     5
 10
2138.0565109483
 20
399.4021957876986
 30
0.0
 11
2138.0565109483
 21
428.4553248048243
 31
0.0
  0
LINE
  5
1CF
  8
回07-寸法
  6
CONTINUOUS
 62
     5
 10
2138.0565109483
 20
391.4021957876986
 30
0.0
 11
2138.0565109483
 21
397.9021957876986
 31
0.0
  0
LINE
  5
1D0
  8
回07-寸法
  6
CONTINUOUS
 62
     5
 10
2138.0565109483
 20
389.9021957876986
 30
0.0
 11
2138.0565109483
 21
388.4021957876986
 31
0.0
  0
INSERT
  5
1D1
  8
回07-寸法
  6
CONTINUOUS
 62
     5
 66
     1
  2
_OPEN
 10
2138.0565109483
 20
391.4021957876986
 30
0.0
 41
1.5
 42
1.5
 43
1.5
 50
90.0
  0
SEQEND
  5
1D2
  8
0
  6
CONTINUOUS
 62
     7
  0
INSERT
  5
1D3
  8
回07-寸法
  6
CONTINUOUS
 62
     5
 66
     1
  2
_OPEN
 10
2138.0565109483
 20
397.9021957876986
 30
0.0
 41
1.5
 42
1.5
 43
1.5
 50
270.0
  0
SEQEND
  5
1D4
  8
0
  6
CONTINUOUS
 62
     7
  0
INSERT
  5
1D5
  8
回07-寸法
  6
CONTINUOUS
 62
     5
 66
     1
  2
*X8989
 10
0.0
 20
0.0
 30
0.0
  0
SEQEND
  5
892
  8
0
  6
CONTINUOUS
 62
     7
  0
POINT
  5
1D6
  8
DEFPOINTS
  6
CONTINUOUS
 62
     0
 10
2176.0565109483
 20
391.4021957876986
 30
0.0
  0
POINT
  5
1D7
  8
DEFPOINTS
  6
CONTINUOUS
 62
     0
 10
2170.056510948299
 20
397.9021957876986
 30
0.0
  0
POINT
  5
1D8
  8
DEFPOINTS
  6
CONTINUOUS
 62
     0
 10
2138.0565109483
 20
397.9021957876986
 30
0.0
  0
ENDBLK
  5
1D9
  8
0
 62
     5
  0
BLOCK
  8
0
  2
*D1111
 70
     1
 10
0.0
 20
0.0
 30
0.0
  3
*D1111
  1

  0
LINE
  5
11B
  8
回07-寸法
  6
CONTINUOUS
 62
     5
 10
2389.906510948299
 20
388.5021957876987
 30
0.0
 11
2389.906510948299
 21
412.9021957876985
 31
0.0
  0
LINE
  5
11C
  8
回07-寸法
  6
CONTINUOUS
 62
     5
 10
2178.706510948299
 20
388.502195787699
 30
0.0
 11
2178.706510948299
 21
412.9021957876985
 31
0.0
  0
LINE
  5
11D
  8
回07-寸法
  6
CONTINUOUS
 62
     5
 10
2388.4065109483
 20
411.9021957876985
 30
0.0
 11
2180.206510948299
 21
411.9021957876985
 31
0.0
  0
INSERT
  5
11E
  8
回07-寸法
  6
CONTINUOUS
 62
     5
 66
     1
  2
_OPEN
 10
2389.906510948299
 20
411.9021957876985
 30
0.0
 41
1.5
 42
1.5
 43
1.5
  0
SEQEND
  5
11F
  8
0
  6
CONTINUOUS
 62
     7
  0
INSERT
  5
120
  8
回07-寸法
  6
CONTINUOUS
 62
     5
 66
     1
  2
_OPEN
 10
2178.706510948299
 20
411.9021957876985
 30
0.0
 41
1.5
 42
1.5
 43
1.5
 50
180.0
  0
SEQEND
  5
121
  8
0
  6
CONTINUOUS
 62
     7
  0
TEXT
  5
122
  8
回07-寸法
  6
CONTINUOUS
 62
     5
 10
2268.407101499481
 20
412.5521957876984
 30
0.0
 40
3.0
  1
211.2(Active area)
1001
ACAD
1000
MTEXTBEGIN
1070
    73
1070
     1
1070
    44
1040
1.0
1070
    74
1070
     0
1000
MTEXTEND
  0
POINT
  5
123
  8
DEFPOINTS
  6
CONTINUOUS
 62
     0
 10
2389.906510948299
 20
388.5021957876987
 30
0.0
  0
POINT
  5
124
  8
DEFPOINTS
  6
CONTINUOUS
 62
     0
 10
2178.706510948299
 20
388.502195787699
 30
0.0
  0
POINT
  5
125
  8
DEFPOINTS
  6
CONTINUOUS
 62
     0
 10
2178.706510948299
 20
411.9021957876985
 30
0.0
  0
ENDBLK
  5
126
  8
0
 62
     5
  0
BLOCK
  8
0
  2
*D1212
 70
     1
 10
0.0
 20
0.0
 30
0.0
  3
*D1212
  1

  0
LINE
  5
10C
  8
回07-寸法
  6
CONTINUOUS
 62
     5
 10
2176.5565109483
 20
390.9021957876986
 30
0.0
 11
2176.5565109483
 21
420.9021957876985
 31
0.0
  0
LINE
  5
10D
  8
回07-寸法
  6
CONTINUOUS
 62
     5
 10
2392.0565109483
 20
390.9021957876986
 30
0.0
 11
2392.0565109483
 21
420.9021957876985
 31
0.0
  0
LINE
  5
10E
  8
回07-寸法
  6
CONTINUOUS
 62
     5
 10
2178.0565109483
 20
419.9021957876984
 30
0.0
 11
2390.5565109483
 21
419.9021957876984
 31
0.0
  0
INSERT
  5
10F
  8
回07-寸法
  6
CONTINUOUS
 62
     5
 66
     1
  2
_OPEN
 10
2176.5565109483
 20
419.9021957876984
 30
0.0
 41
1.5
 42
1.5
 43
1.5
 50
180.0
  0
SEQEND
  5
110
  8
0
  6
CONTINUOUS
 62
     7
  0
INSERT
  5
111
  8
回07-寸法
  6
CONTINUOUS
 62
     5
 66
     1
  2
_OPEN
 10
2392.0565109483
 20
419.9021957876984
 30
0.0
 41
1.5
 42
1.5
 43
1.5
  0
SEQEND
  5
112
  8
0
  6
CONTINUOUS
 62
     7
  0
TEXT
  5
113
  8
回07-寸法
  6
CONTINUOUS
 62
     5
 10
2267.057101499481
 20
421.1521957876986
 30
0.0
 40
3.0
  1
215.5(Viewing area)
1001
ACAD
1000
MTEXTBEGIN
1070
    73
1070
     1
1070
    44
1040
1.0
1070
    74
1070
     0
1000
MTEXTEND
  0
POINT
  5
114
  8
DEFPOINTS
  6
CONTINUOUS
 62
     0
 10
2176.5565109483
 20
390.9021957876986
 30
0.0
  0
POINT
  5
115
  8
DEFPOINTS
  6
CONTINUOUS
 62
     0
 10
2392.0565109483
 20
390.9021957876986
 30
0.0
  0
POINT
  5
116
  8
DEFPOINTS
  6
CONTINUOUS
 62
     0
 10
2392.0565109483
 20
419.9021957876984
 30
0.0
  0
ENDBLK
  5
117
  8
0
 62
     5
  0
BLOCK
  8
0
  2
*D1313
 70
     1
 10
0.0
 20
0.0
 30
0.0
  3
*D1313
  1

  0
LINE
  5
FD
  8
回07-寸法
  6
CONTINUOUS
 62
     5
 10
2398.556510948299
 20
397.9021957876986
 30
0.0
 11
2398.556510948299
 21
436.9021957876985
 31
0.0
  0
LINE
  5
FE
  8
回07-寸法
  6
CONTINUOUS
 62
     5
 10
2170.056510948299
 20
397.9021957876977
 30
0.0
 11
2170.056510948299
 21
436.9021957876985
 31
0.0
  0
LINE
  5
FF
  8
回07-寸法
  6
CONTINUOUS
 62
     5
 10
2397.0565109483
 20
435.9021957876985
 30
0.0
 11
2171.556510948299
 21
435.9021957876985
 31
0.0
  0
INSERT
  5
100
  8
回07-寸法
  6
CONTINUOUS
 62
     5
 66
     1
  2
_OPEN
 10
2398.556510948299
 20
435.9021957876985
 30
0.0
 41
1.5
 42
1.5
 43
1.5
  0
SEQEND
  5
101
  8
0
  6
CONTINUOUS
 62
     7
  0
INSERT
  5
102
  8
回07-寸法
  6
CONTINUOUS
 62
     5
 66
     1
  2
_OPEN
 10
2170.056510948299
 20
435.9021957876985
 30
0.0
 41
1.5
 42
1.5
 43
1.5
 50
180.0
  0
SEQEND
  5
103
  8
0
  6
CONTINUOUS
 62
     7
  0
INSERT
  5
104
  8
回07-寸法
  6
CONTINUOUS
 62
     5
 66
     1
  2
*X9090
 10
0.0
 20
0.0
 30
0.0
  0
SEQEND
  5
898
  8
0
  6
CONTINUOUS
 62
     7
  0
POINT
  5
105
  8
DEFPOINTS
  6
CONTINUOUS
 62
     0
 10
2398.556510948299
 20
397.9021957876986
 30
0.0
  0
POINT
  5
106
  8
DEFPOINTS
  6
CONTINUOUS
 62
     0
 10
2170.056510948299
 20
397.9021957876977
 30
0.0
  0
POINT
  5
107
  8
DEFPOINTS
  6
CONTINUOUS
 62
     0
 10
2170.056510948299
 20
435.9021957876985
 30
0.0
  0
ENDBLK
  5
108
  8
0
 62
     5
  0
BLOCK
  8
0
  2
*D1414
 70
     1
 10
0.0
 20
0.0
 30
0.0
  3
*D1414
  1

  0
LINE
  5
1BB
  8
回07-寸法
  6
CONTINUOUS
 62
     5
 10
2178.7065109583
 20
388.502195787699
 30
0.0
 11
2178.7065109583
 21
412.9021957860318
 31
0.0
  0
LINE
  5
1BC
  8
回07-寸法
  6
CONTINUOUS
 62
     5
 10
2170.056510948299
 20
397.9021957876977
 30
0.0
 11
2170.056510948299
 21
412.9021957860318
 31
0.0
  0
LINE
  5
1BD
  8
回07-寸法
  6
CONTINUOUS
 62
     5
 10
2168.5565109483
 20
411.9021957860319
 30
0.0
 11
2159.694378913943
 21
411.9021957860319
 31
0.0
  0
LINE
  5
1BE
  8
回07-寸法
  6
CONTINUOUS
 62
     5
 10
2178.7065109583
 20
411.9021957860319
 30
0.0
 11
2170.056510948299
 21
411.9021957860319
 31
0.0
  0
LINE
  5
1BF
  8
回07-寸法
  6
CONTINUOUS
 62
     5
 10
2180.2065109583
 20
411.9021957860319
 30
0.0
 11
2181.7065109583
 21
411.9021957860319
 31
0.0
  0
INSERT
  5
1C0
  8
回07-寸法
  6
CONTINUOUS
 62
     5
 66
     1
  2
_OPEN
 10
2178.7065109583
 20
411.9021957860319
 30
0.0
 41
1.5
 42
1.5
 43
1.5
 50
180.0
  0
SEQEND
  5
1C1
  8
0
  6
CONTINUOUS
 62
     7
  0
INSERT
  5
1C2
  8
回07-寸法
  6
CONTINUOUS
 62
     5
 66
     1
  2
_OPEN
 10
2170.056510948299
 20
411.9021957860319
 30
0.0
 41
1.5
 42
1.5
 43
1.5
  0
SEQEND
  5
1C3
  8
0
  6
CONTINUOUS
 62
     7
  0
TEXT
  5
1C4
  8
回07-寸法
  6
CONTINUOUS
 62
     5
 10
2159.744378913943
 20
412.4021957860318
 30
0.0
 40
3.0
  1
8.65
1001
ACAD
1000
MTEXTBEGIN
1070
    73
1070
     1
1070
    44
1040
1.0
1070
    74
1070
     0
1000
MTEXTEND
  0
POINT
  5
1C5
  8
DEFPOINTS
  6
CONTINUOUS
 62
     0
 10
2178.7065109583
 20
388.502195787699
 30
0.0
  0
POINT
  5
1C6
  8
DEFPOINTS
  6
CONTINUOUS
 62
     0
 10
2170.056510948299
 20
397.9021957876977
 30
0.0
  0
POINT
  5
1C7
  8
DEFPOINTS
  6
CONTINUOUS
 62
     0
 10
2170.056510948299
 20
411.9021957860319
 30
0.0
  0
ENDBLK
  5
1C8
  8
0
 62
     5
  0
BLOCK
  8
0
  2
*D1515
 70
     1
 10
0.0
 20
0.0
 30
0.0
  3
*D1515
  1

  0
LINE
  5
1AA
  8
回07-寸法
  6
CONTINUOUS
 62
     5
 10
2176.5565109483
 20
390.9021957876986
 30
0.0
 11
2176.5565109483
 21
420.9021957876985
 31
0.0
  0
LINE
  5
1AB
  8
回07-寸法
  6
CONTINUOUS
 62
     5
 10
2170.056510948299
 20
397.9021957876977
 30
0.0
 11
2170.056510948299
 21
420.9021957876985
 31
0.0
  0
LINE
  5
1AC
  8
回07-寸法
  6
CONTINUOUS
 62
     5
 10
2168.5565109483
 20
419.9021957876984
 30
0.0
 11
2161.704615134416
 21
419.9021957876984
 31
0.0
  0
LINE
  5
1AD
  8
回07-寸法
  6
CONTINUOUS
 62
     5
 10
2176.5565109483
 20
419.9021957876984
 30
0.0
 11
2170.056510948299
 21
419.9021957876984
 31
0.0
  0
LINE
  5
1AE
  8
回07-寸法
  6
CONTINUOUS
 62
     5
 10
2178.0565109483
 20
419.9021957876984
 30
0.0
 11
2179.5565109483
 21
419.9021957876984
 31
0.0
  0
INSERT
  5
1AF
  8
回07-寸法
  6
CONTINUOUS
 62
     5
 66
     1
  2
_OPEN
 10
2176.5565109483
 20
419.9021957876984
 30
0.0
 41
1.5
 42
1.5
 43
1.5
 50
180.0
  0
SEQEND
  5
1B0
  8
0
  6
CONTINUOUS
 62
     7
  0
INSERT
  5
1B1
  8
回07-寸法
  6
CONTINUOUS
 62
     5
 66
     1
  2
_OPEN
 10
2170.056510948299
 20
419.9021957876984
 30
0.0
 41
1.5
 42
1.5
 43
1.5
  0
SEQEND
  5
1B2
  8
0
  6
CONTINUOUS
 62
     7
  0
TEXT
  5
1B3
  8
回07-寸法
  6
CONTINUOUS
 62
     5
 10
2161.754615134416
 20
420.4021957876985
 30
0.0
 40
3.0
  1
6.5
1001
ACAD
1000
MTEXTBEGIN
1070
    73
1070
     1
1070
    44
1040
1.0
1070
    74
1070
     0
1000
MTEXTEND
  0
POINT
  5
1B4
  8
DEFPOINTS
  6
CONTINUOUS
 62
     0
 10
2176.5565109483
 20
390.9021957876986
 30
0.0
  0
POINT
  5
1B5
  8
DEFPOINTS
  6
CONTINUOUS
 62
     0
 10
2170.056510948299
 20
397.9021957876977
 30
0.0
  0
POINT
  5
1B6
  8
DEFPOINTS
  6
CONTINUOUS
 62
     0
 10
2170.056510948299
 20
419.9021957876984
 30
0.0
  0
ENDBLK
  5
1B7
  8
0
 62
     5
  0
BLOCK
  8
0
  2
*D1616
 70
     1
 10
0.0
 20
0.0
 30
0.0
  3
*D1616
  1

  0
LINE
  5
199
  8
回07-寸法
  6
CONTINUOUS
 62
     5
 10
2176.0565109483
 20
391.4021957876986
 30
0.0
 11
2176.0565109483
 21
428.9021957876985
 31
0.0
  0
LINE
  5
19A
  8
回07-寸法
  6
CONTINUOUS
 62
     5
 10
2170.056510948299
 20
397.9021957876986
 30
0.0
 11
2170.056510948299
 21
428.9021957876985
 31
0.0
  0
LINE
  5
19B
  8
回07-寸法
  6
CONTINUOUS
 62
     5
 10
2168.5565109483
 20
427.9021957876985
 30
0.0
 11
2144.901323139245
 21
427.9021957876985
 31
0.0
  0
LINE
  5
19C
  8
回07-寸法
  6
CONTINUOUS
 62
     5
 10
2176.0565109483
 20
427.9021957876985
 30
0.0
 11
2170.056510948299
 21
427.9021957876985
 31
0.0
  0
LINE
  5
19D
  8
回07-寸法
  6
CONTINUOUS
 62
     5
 10
2177.5565109483
 20
427.9021957876985
 30
0.0
 11
2179.056510948299
 21
427.9021957876985
 31
0.0
  0
INSERT
  5
19E
  8
回07-寸法
  6
CONTINUOUS
 62
     5
 66
     1
  2
_OPEN
 10
2176.0565109483
 20
427.9021957876985
 30
0.0
 41
1.5
 42
1.5
 43
1.5
 50
180.0
  0
SEQEND
  5
19F
  8
0
  6
CONTINUOUS
 62
     7
  0
INSERT
  5
1A0
  8
回07-寸法
  6
CONTINUOUS
 62
     5
 66
     1
  2
_OPEN
 10
2170.056510948299
 20
427.9021957876985
 30
0.0
 41
1.5
 42
1.5
 43
1.5
  0
SEQEND
  5
1A1
  8
0
  6
CONTINUOUS
 62
     7
  0
INSERT
  5
1A2
  8
回07-寸法
  6
CONTINUOUS
 62
     5
 66
     1
  2
*X9191
 10
0.0
 20
0.0
 30
0.0
  0
SEQEND
  5
89E
  8
0
  6
CONTINUOUS
 62
     7
  0
POINT
  5
1A3
  8
DEFPOINTS
  6
CONTINUOUS
 62
     0
 10
2176.0565109483
 20
391.4021957876986
 30
0.0
  0
POINT
  5
1A4
  8
DEFPOINTS
  6
CONTINUOUS
 62
     0
 10
2170.056510948299
 20
397.9021957876986
 30
0.0
  0
POINT
  5
1A5
  8
DEFPOINTS
  6
CONTINUOUS
 62
     0
 10
2170.056510948299
 20
427.9021957876985
 30
0.0
  0
ENDBLK
  5
1A6
  8
0
 62
     5
  0
BLOCK
  8
0
  2
*D1717
 70
     1
 10
0.0
 20
0.0
 30
0.0
  3
*D1717
  1

  0
LINE
  5
ED
  8
回07-寸法
  6
CONTINUOUS
 62
     5
 10
2392.5565109483
 20
391.4021957876986
 30
0.0
 11
2392.5565109483
 21
428.9021957876985
 31
0.0
  0
LINE
  5
EE
  8
回07-寸法
  6
CONTINUOUS
 62
     5
 10
2176.0565109483
 20
391.4021957876986
 30
0.0
 11
2176.0565109483
 21
428.9021957876985
 31
0.0
  0
LINE
  5
EF
  8
回07-寸法
  6
CONTINUOUS
 62
     5
 10
2391.056510948299
 20
427.9021957876985
 30
0.0
 11
2177.5565109483
 21
427.9021957876985
 31
0.0
  0
INSERT
  5
F0
  8
回07-寸法
  6
CONTINUOUS
 62
     5
 66
     1
  2
_OPEN
 10
2392.5565109483
 20
427.9021957876985
 30
0.0
 41
1.5
 42
1.5
 43
1.5
  0
SEQEND
  5
F1
  8
0
  6
CONTINUOUS
 62
     7
  0
INSERT
  5
F2
  8
回07-寸法
  6
CONTINUOUS
 62
     5
 66
     1
  2
_OPEN
 10
2176.0565109483
 20
427.9021957876985
 30
0.0
 41
1.5
 42
1.5
 43
1.5
 50
180.0
  0
SEQEND
  5
F3
  8
0
  6
CONTINUOUS
 62
     7
  0
TEXT
  5
F4
  8
回07-寸法
  6
CONTINUOUS
 62
     5
 10
2279.9565109483
 20
428.4021957876985
 30
0.0
 40
3.0
  1
216.5
1001
ACAD
1000
MTEXTBEGIN
1070
    73
1070
     1
1070
    44
1040
1.0
1070
    74
1070
     0
1000
MTEXTEND
  0
POINT
  5
F5
  8
DEFPOINTS
  6
CONTINUOUS
 62
     0
 10
2392.5565109483
 20
391.4021957876986
 30
0.0
  0
POINT
  5
F7
  8
DEFPOINTS
  6
CONTINUOUS
 62
     0
 10
2176.0565109483
 20
391.4021957876986
 30
0.0
  0
POINT
  5
F8
  8
DEFPOINTS
  6
CONTINUOUS
 62
     0
 10
2176.0565109483
 20
427.9021957876985
 30
0.0
  0
ENDBLK
  5
F9
  8
0
 62
     5
  0
BLOCK
  8
0
  2
*D1818
 70
     1
 10
0.0
 20
0.0
 30
0.0
  3
*D1818
  1

  0
LINE
  5
14C
  8
回07-寸法
  6
CONTINUOUS
 62
     5
 10
2392.0565109483
 20
390.9021957876997
 30
0.0
 11
2392.0565109483
 21
420.9021957876985
 31
0.0
  0
LINE
  5
14D
  8
回07-寸法
  6
CONTINUOUS
 62
     5
 10
2398.556510948299
 20
397.9021957876986
 30
0.0
 11
2398.556510948299
 21
420.9021957876985
 31
0.0
  0
LINE
  5
14E
  8
回07-寸法
  6
CONTINUOUS
 62
     5
 10
2400.0565109483
 20
419.9021957876984
 30
0.0
 11
2409.154148743575
 21
419.9021957876984
 31
0.0
  0
LINE
  5
14F
  8
回07-寸法
  6
CONTINUOUS
 62
     5
 10
2392.0565109483
 20
419.9021957876984
 30
0.0
 11
2398.556510948299
 21
419.9021957876984
 31
0.0
  0
LINE
  5
150
  8
回07-寸法
  6
CONTINUOUS
 62
     5
 10
2390.5565109483
 20
419.9021957876984
 30
0.0
 11
2389.0565109483
 21
419.9021957876984
 31
0.0
  0
INSERT
  5
151
  8
回07-寸法
  6
CONTINUOUS
 62
     5
 66
     1
  2
_OPEN
 10
2392.0565109483
 20
419.9021957876984
 30
0.0
 41
1.5
 42
1.5
 43
1.5
  0
SEQEND
  5
152
  8
0
  6
CONTINUOUS
 62
     7
  0
INSERT
  5
153
  8
回07-寸法
  6
CONTINUOUS
 62
     5
 66
     1
  2
_OPEN
 10
2398.556510948299
 20
419.9021957876984
 30
0.0
 41
1.5
 42
1.5
 43
1.5
 50
180.0
  0
SEQEND
  5
154
  8
0
  6
CONTINUOUS
 62
     7
  0
TEXT
  5
155
  8
回07-寸法
  6
CONTINUOUS
 62
     5
 10
2401.605329845938
 20
420.5521957876984
 30
0.0
 40
3.0
  1
(6.5)
1001
ACAD
1000
MTEXTBEGIN
1070
    73
1070
     1
1070
    44
1040
1.0
1070
    74
1070
     0
1000
MTEXTEND
  0
POINT
  5
156
  8
DEFPOINTS
  6
CONTINUOUS
 62
     0
 10
2392.0565109483
 20
390.9021957876997
 30
0.0
  0
POINT
  5
157
  8
DEFPOINTS
  6
CONTINUOUS
 62
     0
 10
2398.556510948299
 20
397.9021957876986
 30
0.0
  0
POINT
  5
158
  8
DEFPOINTS
  6
CONTINUOUS
 62
     0
 10
2398.556510948299
 20
419.9021957876984
 30
0.0
  0
ENDBLK
  5
159
  8
0
 62
     5
  0
BLOCK
  8
0
  2
*D1919
 70
     1
 10
0.0
 20
0.0
 30
0.0
  3
*D1919
  1

  0
LINE
  5
13B
  8
回07-寸法
  6
CONTINUOUS
 62
     5
 10
2389.906510948299
 20
388.5021957876986
 30
0.0
 11
2389.906510948299
 21
412.9021957876985
 31
0.0
  0
LINE
  5
13C
  8
回07-寸法
  6
CONTINUOUS
 62
     5
 10
2398.556510948299
 20
397.9021957876986
 30
0.0
 11
2398.556510948299
 21
412.9021957876985
 31
0.0
  0
LINE
  5
13D
  8
回07-寸法
  6
CONTINUOUS
 62
     5
 10
2400.0565109483
 20
411.9021957876985
 30
0.0
 11
2411.254148743576
 21
411.9021957876985
 31
0.0
  0
LINE
  5
13E
  8
回07-寸法
  6
CONTINUOUS
 62
     5
 10
2389.906510948299
 20
411.9021957876985
 30
0.0
 11
2398.556510948299
 21
411.9021957876985
 31
0.0
  0
LINE
  5
13F
  8
回07-寸法
  6
CONTINUOUS
 62
     5
 10
2388.4065109483
 20
411.9021957876985
 30
0.0
 11
2386.9065109483
 21
411.9021957876985
 31
0.0
  0
INSERT
  5
140
  8
回07-寸法
  6
CONTINUOUS
 62
     5
 66
     1
  2
_OPEN
 10
2389.906510948299
 20
411.9021957876985
 30
0.0
 41
1.5
 42
1.5
 43
1.5
  0
SEQEND
  5
141
  8
0
  6
CONTINUOUS
 62
     7
  0
INSERT
  5
142
  8
回07-寸法
  6
CONTINUOUS
 62
     5
 66
     1
  2
_OPEN
 10
2398.556510948299
 20
411.9021957876985
 30
0.0
 41
1.5
 42
1.5
 43
1.5
 50
180.0
  0
SEQEND
  5
143
  8
0
  6
CONTINUOUS
 62
     7
  0
TEXT
  5
144
  8
回07-寸法
  6
CONTINUOUS
 62
     5
 10
2401.605329845938
 20
412.5521957876984
 30
0.0
 40
3.0
  1
(8.65)
1001
ACAD
1000
MTEXTBEGIN
1070
    73
1070
     1
1070
    44
1040
1.0
1070
    74
1070
     0
1000
MTEXTEND
  0
POINT
  5
145
  8
DEFPOINTS
  6
CONTINUOUS
 62
     0
 10
2389.906510948299
 20
388.5021957876986
 30
0.0
  0
POINT
  5
146
  8
DEFPOINTS
  6
CONTINUOUS
 62
     0
 10
2398.556510948299
 20
397.9021957876986
 30
0.0
  0
POINT
  5
147
  8
DEFPOINTS
  6
CONTINUOUS
 62
     0
 10
2398.556510948299
 20
411.9021957876985
 30
0.0
  0
ENDBLK
  5
148
  8
0
 62
     5
  0
BLOCK
  8
0
  2
*D2020
 70
     1
 10
0.0
 20
0.0
 30
0.0
  3
*D2020
  1

  0
LINE
  5
12A
  8
回07-寸法
  6
CONTINUOUS
 62
     5
 10
2392.5565109483
 20
391.4021957876986
 30
0.0
 11
2392.5565109483
 21
428.9021957876985
 31
0.0
  0
LINE
  5
12B
  8
回07-寸法
  6
CONTINUOUS
 62
     5
 10
2398.556510948299
 20
397.9021957876986
 30
0.0
 11
2398.556510948299
 21
428.9021957876985
 31
0.0
  0
LINE
  5
12C
  8
回07-寸法
  6
CONTINUOUS
 62
     5
 10
2400.0565109483
 20
427.9021957876985
 30
0.0
 11
2426.110517654993
 21
427.9021957876985
 31
0.0
  0
LINE
  5
12D
  8
回07-寸法
  6
CONTINUOUS
 62
     5
 10
2392.5565109483
 20
427.9021957876985
 30
0.0
 11
2398.556510948299
 21
427.9021957876985
 31
0.0
  0
LINE
  5
12E
  8
回07-寸法
  6
CONTINUOUS
 62
     5
 10
2391.056510948299
 20
427.9021957876985
 30
0.0
 11
2389.556510948299
 21
427.9021957876985
 31
0.0
  0
INSERT
  5
12F
  8
回07-寸法
  6
CONTINUOUS
 62
     5
 66
     1
  2
_OPEN
 10
2392.5565109483
 20
427.9021957876985
 30
0.0
 41
1.5
 42
1.5
 43
1.5
  0
SEQEND
  5
130
  8
0
  6
CONTINUOUS
 62
     7
  0
INSERT
  5
131
  8
回07-寸法
  6
CONTINUOUS
 62
     5
 66
     1
  2
_OPEN
 10
2398.556510948299
 20
427.9021957876985
 30
0.0
 41
1.5
 42
1.5
 43
1.5
 50
180.0
  0
SEQEND
  5
132
  8
0
  6
CONTINUOUS
 62
     7
  0
INSERT
  5
133
  8
回07-寸法
  6
CONTINUOUS
 62
     5
 66
     1
  2
*X9292
 10
0.0
 20
0.0
 30
0.0
  0
SEQEND
  5
8A4
  8
0
  6
CONTINUOUS
 62
     7
  0
POINT
  5
134
  8
DEFPOINTS
  6
CONTINUOUS
 62
     0
 10
2392.5565109483
 20
391.4021957876986
 30
0.0
  0
POINT
  5
135
  8
DEFPOINTS
  6
CONTINUOUS
 62
     0
 10
2398.556510948299
 20
397.9021957876986
 30
0.0
  0
POINT
  5
136
  8
DEFPOINTS
  6
CONTINUOUS
 62
     0
 10
2398.556510948299
 20
427.9021957876985
 30
0.0
  0
ENDBLK
  5
137
  8
0
 62
     5
  0
BLOCK
  8
0
  2
*D2121
 70
     1
 10
0.0
 20
0.0
 30
0.0
  3
*D2121
  1

  0
LINE
  5
483
  8
回07-寸法
  6
CONTINUOUS
 62
     5
 10
2262.055371792742
 20
117.5062441585098
 30
0.0
 11
2262.055371792742
 21
101.0062441585097
 31
0.0
  0
LINE
  5
484
  8
回07-寸法
  6
CONTINUOUS
 62
     5
 10
2170.056510948299
 20
217.0021957876985
 30
0.0
 11
2170.056510948299
 21
101.0062441585097
 31
0.0
  0
LINE
  5
485
  8
回07-寸法
  6
CONTINUOUS
 62
     5
 10
2260.555371792742
 20
102.0062441585097
 30
0.0
 11
2171.556510948299
 21
102.0062441585097
 31
0.0
  0
INSERT
  5
486
  8
回07-寸法
  6
CONTINUOUS
 62
     5
 66
     1
  2
_OPEN
 10
2262.055371792742
 20
102.0062441585097
 30
0.0
 41
1.5
 42
1.5
 43
1.5
 50
360.0
  0
SEQEND
  5
487
  8
0
  6
CONTINUOUS
 62
     7
  0
INSERT
  5
488
  8
回07-寸法
  6
CONTINUOUS
 62
     5
 66
     1
  2
_OPEN
 10
2170.056510948299
 20
102.0062441585097
 30
0.0
 41
1.5
 42
1.5
 43
1.5
 50
180.0
  0
SEQEND
  5
489
  8
0
  6
CONTINUOUS
 62
     7
  0
TEXT
  5
48A
  8
回07-寸法
  6
CONTINUOUS
 62
     5
 10
2212.750525817731
 20
102.6562441585097
 30
0.0
 40
3.0
  1
(92)
1001
ACAD
1000
MTEXTBEGIN
1070
    73
1070
     1
1070
    44
1040
1.0
1070
    74
1070
     0
1000
MTEXTEND
  0
POINT
  5
48B
  8
DEFPOINTS
  6
CONTINUOUS
 62
     0
 10
2262.055371792742
 20
117.5062441585098
 30
0.0
  0
POINT
  5
48C
  8
DEFPOINTS
  6
CONTINUOUS
 62
     0
 10
2170.056510948299
 20
217.0021957876985
 30
0.0
  0
POINT
  5
48D
  8
DEFPOINTS
  6
CONTINUOUS
 62
     0
 10
2170.056510948299
 20
102.0062441585097
 30
0.0
  0
ENDBLK
  5
48E
  8
0
 62
     5
  0
BLOCK
  8
0
  2
*D2222
 70
     1
 10
0.0
 20
0.0
 30
0.0
  3
*D2222
  1

  0
LINE
  5
474
  8
回07-寸法
  6
CONTINUOUS
 62
     5
 10
2170.056510948299
 20
217.0021957876988
 30
0.0
 11
2170.056510948299
 21
92.0115239303718
 31
0.0
  0
LINE
  5
475
  8
回07-寸法
  6
CONTINUOUS
 62
     5
 10
2291.055371792742
 20
117.5062441585098
 30
0.0
 11
2291.055371792742
 21
92.0115239303718
 31
0.0
  0
LINE
  5
476
  8
回07-寸法
  6
CONTINUOUS
 62
     5
 10
2171.556510948299
 20
93.01152393037179
 30
0.0
 11
2289.555371792742
 21
93.01152393037179
 31
0.0
  0
INSERT
  5
477
  8
回07-寸法
  6
CONTINUOUS
 62
     5
 66
     1
  2
_OPEN
 10
2170.056510948299
 20
93.01152393037179
 30
0.0
 41
1.5
 42
1.5
 43
1.5
 50
180.0
  0
SEQEND
  5
478
  8
0
  6
CONTINUOUS
 62
     7
  0
INSERT
  5
479
  8
回07-寸法
  6
CONTINUOUS
 62
     5
 66
     1
  2
_OPEN
 10
2291.055371792742
 20
93.01152393037179
 30
0.0
 41
1.5
 42
1.5
 43
1.5
  0
SEQEND
  5
47A
  8
0
  6
CONTINUOUS
 62
     7
  0
TEXT
  5
47B
  8
回07-寸法
  6
CONTINUOUS
 62
     5
 10
2226.805941370521
 20
93.66152393037181
 30
0.0
 40
3.0
  1
(121)
1001
ACAD
1000
MTEXTBEGIN
1070
    73
1070
     1
1070
    44
1040
1.0
1070
    74
1070
     0
1000
MTEXTEND
  0
POINT
  5
47C
  8
DEFPOINTS
  6
CONTINUOUS
 62
     0
 10
2170.056510948299
 20
217.0021957876988
 30
0.0
  0
POINT
  5
47D
  8
DEFPOINTS
  6
CONTINUOUS
 62
     0
 10
2291.055371792742
 20
117.5062441585098
 30
0.0
  0
POINT
  5
47E
  8
DEFPOINTS
  6
CONTINUOUS
 62
     0
 10
2291.055371792742
 20
93.01152393037179
 30
0.0
  0
ENDBLK
  5
47F
  8
0
 62
     5
  0
BLOCK
  8
0
  2
*D2323
 70
     1
 10
0.0
 20
0.0
 30
0.0
  3
*D2323
  1

  0
LINE
  5
465
  8
回07-寸法
  6
CONTINUOUS
 62
     5
 10
2248.306497108191
 20
217.0021957876988
 30
0.0
 11
2217.570772939501
 21
217.0021957876988
 31
0.0
  0
LINE
  5
466
  8
回07-寸法
  6
CONTINUOUS
 62
     5
 10
2262.555371792743
 20
117.0062441585096
 30
0.0
 11
2217.570772939501
 21
117.0062441585096
 31
0.0
  0
LINE
  5
467
  8
回07-寸法
  6
CONTINUOUS
 62
     5
 10
2218.5707729395
 20
215.5021957876988
 30
0.0
 11
2218.5707729395
 21
118.5062441585096
 31
0.0
  0
INSERT
  5
468
  8
回07-寸法
  6
CONTINUOUS
 62
     5
 66
     1
  2
_OPEN
 10
2218.5707729395
 20
217.0021957876988
 30
0.0
 41
1.5
 42
1.5
 43
1.5
 50
90.0
  0
SEQEND
  5
469
  8
0
  6
CONTINUOUS
 62
     7
  0
INSERT
  5
46A
  8
回07-寸法
  6
CONTINUOUS
 62
     5
 66
     1
  2
_OPEN
 10
2218.5707729395
 20
117.0062441585096
 30
0.0
 41
1.5
 42
1.5
 43
1.5
 50
270.0
  0
SEQEND
  5
46B
  8
0
  6
CONTINUOUS
 62
     7
  0
INSERT
  5
46C
  8
回07-寸法
  6
CONTINUOUS
 62
     5
 66
     1
  2
*X9393
 10
0.0
 20
0.0
 30
0.0
  0
SEQEND
  5
8AA
  8
0
  6
CONTINUOUS
 62
     7
  0
POINT
  5
46D
  8
DEFPOINTS
  6
CONTINUOUS
 62
     0
 10
2248.306497108191
 20
217.0021957876988
 30
0.0
  0
POINT
  5
46E
  8
DEFPOINTS
  6
CONTINUOUS
 62
     0
 10
2262.555371792743
 20
117.0062441585096
 30
0.0
  0
POINT
  5
46F
  8
DEFPOINTS
  6
CONTINUOUS
 62
     0
 10
2218.5707729395
 20
117.0062441585096
 30
0.0
  0
ENDBLK
  5
470
  8
0
 62
     5
  0
BLOCK
  8
0
  2
*D2424
 70
     1
 10
0.0
 20
0.0
 30
0.0
  3
*D2424
  1

  0
LINE
  5
454
  8
回07-寸法
  6
CONTINUOUS
 62
     5
 10
2304.555371792742
 20
117.5021957876979
 30
0.0
 11
2304.555371792742
 21
92.0115239303718
 31
0.0
  0
LINE
  5
455
  8
回07-寸法
  6
CONTINUOUS
 62
     5
 10
2291.055371792742
 20
117.5021957876988
 30
0.0
 11
2291.055371792742
 21
92.0115239303718
 31
0.0
  0
LINE
  5
456
  8
回07-寸法
  6
CONTINUOUS
 62
     5
 10
2306.055371792743
 20
93.01152393037179
 30
0.0
 11
2319.283433800617
 21
93.01152393037179
 31
0.0
  0
LINE
  5
457
  8
回07-寸法
  6
CONTINUOUS
 62
     5
 10
2304.555371792742
 20
93.01152393037179
 30
0.0
 11
2291.055371792742
 21
93.01152393037179
 31
0.0
  0
LINE
  5
458
  8
回07-寸法
  6
CONTINUOUS
 62
     5
 10
2289.555371792742
 20
93.01152393037179
 30
0.0
 11
2288.055371792742
 21
93.01152393037179
 31
0.0
  0
INSERT
  5
459
  8
回07-寸法
  6
CONTINUOUS
 62
     5
 66
     1
  2
_OPEN
 10
2304.555371792742
 20
93.01152393037179
 30
0.0
 41
1.5
 42
1.5
 43
1.5
 50
180.0
  0
SEQEND
  5
45A
  8
0
  6
CONTINUOUS
 62
     7
  0
INSERT
  5
45B
  8
回07-寸法
  6
CONTINUOUS
 62
     5
 66
     1
  2
_OPEN
 10
2291.055371792742
 20
93.01152393037179
 30
0.0
 41
1.5
 42
1.5
 43
1.5
  0
SEQEND
  5
45C
  8
0
  6
CONTINUOUS
 62
     7
  0
INSERT
  5
45D
  8
回07-寸法
  6
CONTINUOUS
 62
     5
 66
     1
  2
*X9494
 10
0.0
 20
0.0
 30
0.0
  0
SEQEND
  5
8B0
  8
0
  6
CONTINUOUS
 62
     7
  0
POINT
  5
45E
  8
DEFPOINTS
  6
CONTINUOUS
 62
     0
 10
2304.555371792742
 20
117.5021957876979
 30
0.0
  0
POINT
  5
45F
  8
DEFPOINTS
  6
CONTINUOUS
 62
     0
 10
2291.055371792742
 20
117.5021957876988
 30
0.0
  0
POINT
  5
460
  8
DEFPOINTS
  6
CONTINUOUS
 62
     0
 10
2291.055371792742
 20
93.01152393037179
 30
0.0
  0
ENDBLK
  5
461
  8
0
 62
     5
  0
BLOCK
  8
0
  2
*D2525
 70
     1
 10
0.0
 20
0.0
 30
0.0
  3
*D2525
  1

  0
LINE
  5
445
  8
回07-寸法
  6
CONTINUOUS
 62
     5
 10
2279.555371792742
 20
117.5021957876988
 30
0.0
 11
2279.555371792742
 21
101.0062441585098
 31
0.0
  0
LINE
  5
446
  8
回07-寸法
  6
CONTINUOUS
 62
     5
 10
2262.055371792742
 20
117.5021957876988
 30
0.0
 11
2262.055371792742
 21
101.0062441585098
 31
0.0
  0
LINE
  5
447
  8
回07-寸法
  6
CONTINUOUS
 62
     5
 10
2278.055371792742
 20
102.0062441585098
 30
0.0
 11
2263.555371792742
 21
102.0062441585098
 31
0.0
  0
INSERT
  5
448
  8
回07-寸法
  6
CONTINUOUS
 62
     5
 66
     1
  2
_OPEN
 10
2279.555371792742
 20
102.0062441585098
 30
0.0
 41
1.5
 42
1.5
 43
1.5
  0
SEQEND
  5
449
  8
0
  6
CONTINUOUS
 62
     7
  0
INSERT
  5
44A
  8
回07-寸法
  6
CONTINUOUS
 62
     5
 66
     1
  2
_OPEN
 10
2262.055371792742
 20
102.0062441585098
 30
0.0
 41
1.5
 42
1.5
 43
1.5
 50
180.0
  0
SEQEND
  5
44B
  8
0
  6
CONTINUOUS
 62
     7
  0
INSERT
  5
44C
  8
回07-寸法
  6
CONTINUOUS
 62
     5
 66
     1
  2
*X9595
 10
0.0
 20
0.0
 30
0.0
  0
SEQEND
  5
8B6
  8
0
  6
CONTINUOUS
 62
     7
  0
POINT
  5
44D
  8
DEFPOINTS
  6
CONTINUOUS
 62
     0
 10
2279.555371792742
 20
117.5021957876988
 30
0.0
  0
POINT
  5
44E
  8
DEFPOINTS
  6
CONTINUOUS
 62
     0
 10
2262.055371792742
 20
117.5021957876988
 30
0.0
  0
POINT
  5
44F
  8
DEFPOINTS
  6
CONTINUOUS
 62
     0
 10
2262.055371792742
 20
102.0062441585098
 30
0.0
  0
ENDBLK
  5
450
  8
0
 62
     5
  0
BLOCK
  8
0
  2
*D2626
 70
     1
 10
0.0
 20
0.0
 30
0.0
  3
*D2626
  1

  0
LINE
  5
434
  8
回07-寸法
  6
CONTINUOUS
 62
     5
 10
2248.306497108191
 20
217.0021957876988
 30
0.0
 11
2241.201474654822
 21
217.0021957876988
 31
0.0
  0
LINE
  5
435
  8
回07-寸法
  6
CONTINUOUS
 62
     5
 10
2248.306497108191
 20
213.3745548245425
 30
0.0
 11
2241.201474654822
 21
213.3745548245425
 31
0.0
  0
LINE
  5
436
  8
回07-寸法
  6
CONTINUOUS
 62
     5
 10
2242.201474654822
 20
211.8745548245425
 30
0.0
 11
2242.201474654822
 21
205.0988928330727
 31
0.0
  0
LINE
  5
437
  8
回07-寸法
  6
CONTINUOUS
 62
     5
 10
2242.201474654822
 20
217.0021957876988
 30
0.0
 11
2242.201474654822
 21
213.3745548245425
 31
0.0
  0
LINE
  5
438
  8
回07-寸法
  6
CONTINUOUS
 62
     5
 10
2242.201474654822
 20
218.5021957876987
 30
0.0
 11
2242.201474654822
 21
220.0021957876987
 31
0.0
  0
INSERT
  5
439
  8
回07-寸法
  6
CONTINUOUS
 62
     5
 66
     1
  2
_OPEN
 10
2242.201474654822
 20
217.0021957876988
 30
0.0
 41
1.5
 42
1.5
 43
1.5
 50
270.0
  0
SEQEND
  5
43A
  8
0
  6
CONTINUOUS
 62
     7
  0
INSERT
  5
43B
  8
回07-寸法
  6
CONTINUOUS
 62
     5
 66
     1
  2
_OPEN
 10
2242.201474654822
 20
213.3745548245425
 30
0.0
 41
1.5
 42
1.5
 43
1.5
 50
90.0
  0
SEQEND
  5
43C
  8
0
  6
CONTINUOUS
 62
     7
  0
TEXT
  5
43D
  8
回07-寸法
  6
CONTINUOUS
 62
     5
 10
2241.701474654822
 20
205.148892833073
 30
0.0
 40
3.0
  1
3.6
 50
90.0
1001
ACAD
1000
MTEXTBEGIN
1070
    73
1070
     1
1070
    44
1040
1.0
1070
    74
1070
     0
1000
MTEXTEND
  0
POINT
  5
43E
  8
DEFPOINTS
  6
CONTINUOUS
 62
     0
 10
2248.306497108191
 20
217.0021957876988
 30
0.0
  0
POINT
  5
43F
  8
DEFPOINTS
  6
CONTINUOUS
 62
     0
 10
2248.306497108191
 20
213.3745548245425
 30
0.0
  0
POINT
  5
440
  8
DEFPOINTS
  6
CONTINUOUS
 62
     0
 10
2242.201474654822
 20
213.3745548245425
 30
0.0
  0
ENDBLK
  5
441
  8
0
 62
     5
  0
BLOCK
  8
0
  2
*D2727
 70
     1
 10
0.0
 20
0.0
 30
0.0
  3
*D2727
  1

  0
LINE
  5
425
  8
回07-寸法
  6
CONTINUOUS
 62
     5
 10
2248.306497108191
 20
217.0021957876988
 30
0.0
 11
2236.541575901699
 21
217.0021957876988
 31
0.0
  0
LINE
  5
426
  8
回07-寸法
  6
CONTINUOUS
 62
     5
 10
2262.055371792742
 20
199.6256801399909
 30
0.0
 11
2236.541575901699
 21
199.6256801399909
 31
0.0
  0
LINE
  5
427
  8
回07-寸法
  6
CONTINUOUS
 62
     5
 10
2237.541575901699
 20
215.5021957876988
 30
0.0
 11
2237.541575901699
 21
201.1256801399909
 31
0.0
  0
INSERT
  5
428
  8
回07-寸法
  6
CONTINUOUS
 62
     5
 66
     1
  2
_OPEN
 10
2237.541575901699
 20
217.0021957876988
 30
0.0
 41
1.5
 42
1.5
 43
1.5
 50
90.0
  0
SEQEND
  5
429
  8
0
  6
CONTINUOUS
 62
     7
  0
INSERT
  5
42A
  8
回07-寸法
  6
CONTINUOUS
 62
     5
 66
     1
  2
_OPEN
 10
2237.541575901699
 20
199.6256801399909
 30
0.0
 41
1.5
 42
1.5
 43
1.5
 50
270.0
  0
SEQEND
  5
42B
  8
0
  6
CONTINUOUS
 62
     7
  0
TEXT
  5
42C
  8
回07-寸法
  6
CONTINUOUS
 62
     5
 10
2237.041575901699
 20
205.652782811848
 30
0.0
 40
3.0
  1
17.4
 50
90.0
1001
ACAD
1000
MTEXTBEGIN
1070
    73
1070
     1
1070
    44
1040
1.0
1070
    74
1070
     0
1000
MTEXTEND
  0
POINT
  5
42D
  8
DEFPOINTS
  6
CONTINUOUS
 62
     0
 10
2248.306497108191
 20
217.0021957876988
 30
0.0
  0
POINT
  5
42E
  8
DEFPOINTS
  6
CONTINUOUS
 62
     0
 10
2262.055371792742
 20
199.6256801399909
 30
0.0
  0
POINT
  5
42F
  8
DEFPOINTS
  6
CONTINUOUS
 62
     0
 10
2237.541575901699
 20
199.6256801399909
 30
0.0
  0
ENDBLK
  5
430
  8
0
 62
     5
  0
BLOCK
  8
0
  2
*D2828
 70
     1
 10
0.0
 20
0.0
 30
0.0
  3
*D2828
  1

  0
LINE
  5
414
  8
回07-寸法
  6
CONTINUOUS
 62
     5
 10
2311.306497108191
 20
217.0021957876982
 30
0.0
 11
2318.562693105274
 21
217.0021957876982
 31
0.0
  0
LINE
  5
415
  8
回07-寸法
  6
CONTINUOUS
 62
     5
 10
2311.306497108191
 20
213.4465608690871
 30
0.0
 11
2318.562693105274
 21
213.4465608690871
 31
0.0
  0
LINE
  5
416
  8
回07-寸法
  6
CONTINUOUS
 62
     5
 10
2317.562693105275
 20
211.9465608690871
 30
0.0
 11
2317.562693105275
 21
200.3454683451472
 31
0.0
  0
LINE
  5
417
  8
回07-寸法
  6
CONTINUOUS
 62
     5
 10
2317.562693105275
 20
217.0021957876982
 30
0.0
 11
2317.562693105275
 21
213.4465608690871
 31
0.0
  0
LINE
  5
418
  8
回07-寸法
  6
CONTINUOUS
 62
     5
 10
2317.562693105275
 20
218.5021957876982
 30
0.0
 11
2317.562693105275
 21
220.0021957876982
 31
0.0
  0
INSERT
  5
419
  8
回07-寸法
  6
CONTINUOUS
 62
     5
 66
     1
  2
_OPEN
 10
2317.562693105275
 20
217.0021957876982
 30
0.0
 41
1.5
 42
1.5
 43
1.5
 50
270.0
  0
SEQEND
  5
41A
  8
0
  6
CONTINUOUS
 62
     7
  0
INSERT
  5
41B
  8
回07-寸法
  6
CONTINUOUS
 62
     5
 66
     1
  2
_OPEN
 10
2317.562693105275
 20
213.4465608690871
 30
0.0
 41
1.5
 42
1.5
 43
1.5
 50
90.0
  0
SEQEND
  5
41C
  8
0
  6
CONTINUOUS
 62
     7
  0
TEXT
  5
41D
  8
回07-寸法
  6
CONTINUOUS
 62
     5
 10
2317.062693105274
 20
200.3954683451475
 30
0.0
 40
3.0
  1
3.6
 50
90.0
1001
ACAD
1000
MTEXTBEGIN
1070
    73
1070
     1
1070
    44
1040
1.0
1070
    74
1070
     0
1000
MTEXTEND
  0
POINT
  5
41E
  8
DEFPOINTS
  6
CONTINUOUS
 62
     0
 10
2311.306497108191
 20
217.0021957876982
 30
0.0
  0
POINT
  5
41F
  8
DEFPOINTS
  6
CONTINUOUS
 62
     0
 10
2311.306497108191
 20
213.4465608690871
 30
0.0
  0
POINT
  5
420
  8
DEFPOINTS
  6
CONTINUOUS
 62
     0
 10
2317.562693105275
 20
213.4465608690871
 30
0.0
  0
ENDBLK
  5
421
  8
0
 62
     5
  0
BLOCK
  8
0
  2
*D2929
 70
     1
 10
0.0
 20
0.0
 30
0.0
  3
*D2929
  1

  0
LINE
  5
403
  8
回07-寸法
  6
CONTINUOUS
 62
     5
 10
2311.306497108191
 20
217.0021957876982
 30
0.0
 11
2325.898798295871
 21
217.0021957876982
 31
0.0
  0
LINE
  5
404
  8
回07-寸法
  6
CONTINUOUS
 62
     5
 10
2304.555371792742
 20
206.6954355536391
 30
0.0
 11
2325.898798295871
 21
206.6954355536391
 31
0.0
  0
LINE
  5
405
  8
回07-寸法
  6
CONTINUOUS
 62
     5
 10
2324.898798295871
 20
205.1954355536391
 30
0.0
 11
2324.898798295871
 21
196.9333035192832
 31
0.0
  0
LINE
  5
406
  8
回07-寸法
  6
CONTINUOUS
 62
     5
 10
2324.898798295871
 20
217.0021957876982
 30
0.0
 11
2324.898798295871
 21
206.6954355536391
 31
0.0
  0
LINE
  5
407
  8
回07-寸法
  6
CONTINUOUS
 62
     5
 10
2324.898798295871
 20
218.5021957876982
 30
0.0
 11
2324.898798295871
 21
220.0021957876982
 31
0.0
  0
INSERT
  5
408
  8
回07-寸法
  6
CONTINUOUS
 62
     5
 66
     1
  2
_OPEN
 10
2324.898798295871
 20
217.0021957876982
 30
0.0
 41
1.5
 42
1.5
 43
1.5
 50
270.0
  0
SEQEND
  5
409
  8
0
  6
CONTINUOUS
 62
     7
  0
INSERT
  5
40A
  8
回07-寸法
  6
CONTINUOUS
 62
     5
 66
     1
  2
_OPEN
 10
2324.898798295871
 20
206.6954355536391
 30
0.0
 41
1.5
 42
1.5
 43
1.5
 50
90.0
  0
SEQEND
  5
40B
  8
0
  6
CONTINUOUS
 62
     7
  0
TEXT
  5
40C
  8
回07-寸法
  6
CONTINUOUS
 62
     5
 10
2324.398798295871
 20
196.9833035192831
 30
0.0
 40
3.0
  1
10.3
 50
90.0
1001
ACAD
1000
MTEXTBEGIN
1070
    73
1070
     1
1070
    44
1040
1.0
1070
    74
1070
     0
1000
MTEXTEND
  0
POINT
  5
40D
  8
DEFPOINTS
  6
CONTINUOUS
 62
     0
 10
2311.306497108191
 20
217.0021957876982
 30
0.0
  0
POINT
  5
40E
  8
DEFPOINTS
  6
CONTINUOUS
 62
     0
 10
2304.555371792742
 20
206.6954355536391
 30
0.0
  0
POINT
  5
40F
  8
DEFPOINTS
  6
CONTINUOUS
 62
     0
 10
2324.898798295871
 20
206.6954355536391
 30
0.0
  0
ENDBLK
  5
410
  8
0
 62
     5
  0
BLOCK
  8
0
  2
*D3030
 70
     1
 10
0.0
 20
0.0
 30
0.0
  3
*D3030
  1

  0
LINE
  5
3F2
  8
回07-寸法
  6
CONTINUOUS
 62
     5
 10
2283.306497108191
 20
213.784720016105
 30
0.0
 11
2283.306497108191
 21
193.4121306462341
 31
0.0
  0
LINE
  5
3F3
  8
回07-寸法
  6
CONTINUOUS
 62
     5
 10
2248.306497108191
 20
213.7887683869158
 30
0.0
 11
2248.306497108191
 21
193.4121306462341
 31
0.0
  0
LINE
  5
3F4
  8
回07-寸法
  6
CONTINUOUS
 62
     5
 10
2246.806497108191
 20
194.4121306462341
 30
0.0
 11
2239.501802417084
 21
194.4121306462341
 31
0.0
  0
LINE
  5
3F5
  8
回07-寸法
  6
CONTINUOUS
 62
     5
 10
2283.306497108191
 20
194.4121306462341
 30
0.0
 11
2248.306497108191
 21
194.4121306462341
 31
0.0
  0
LINE
  5
3F6
  8
回07-寸法
  6
CONTINUOUS
 62
     5
 10
2284.806497108191
 20
194.4121306462341
 30
0.0
 11
2286.306497108191
 21
194.4121306462341
 31
0.0
  0
INSERT
  5
3F7
  8
回07-寸法
  6
CONTINUOUS
 62
     5
 66
     1
  2
_OPEN
 10
2283.306497108191
 20
194.4121306462341
 30
0.0
 41
1.5
 42
1.5
 43
1.5
 50
180.0
  0
SEQEND
  5
3F8
  8
0
  6
CONTINUOUS
 62
     7
  0
INSERT
  5
3F9
  8
回07-寸法
  6
CONTINUOUS
 62
     5
 66
     1
  2
_OPEN
 10
2248.306497108191
 20
194.4121306462341
 30
0.0
 41
1.5
 42
1.5
 43
1.5
  0
SEQEND
  5
3FA
  8
0
  6
CONTINUOUS
 62
     7
  0
TEXT
  5
3FB
  8
回07-寸法
  6
CONTINUOUS
 62
     5
 10
2239.551802417084
 20
194.9121306462343
 30
0.0
 40
3.0
  1
35
1001
ACAD
1000
MTEXTBEGIN
1070
    73
1070
     1
1070
    44
1040
1.0
1070
    74
1070
     0
1000
MTEXTEND
  0
POINT
  5
3FC
  8
DEFPOINTS
  6
CONTINUOUS
 62
     0
 10
2283.306497108191
 20
213.784720016105
 30
0.0
  0
POINT
  5
3FD
  8
DEFPOINTS
  6
CONTINUOUS
 62
     0
 10
2248.306497108191
 20
213.7887683869158
 30
0.0
  0
POINT
  5
3FE
  8
DEFPOINTS
  6
CONTINUOUS
 62
     0
 10
2248.306497108191
 20
194.4121306462341
 30
0.0
  0
ENDBLK
  5
3FF
  8
0
 62
     5
  0
BLOCK
  8
0
  2
*D3131
 70
     1
 10
0.0
 20
0.0
 30
0.0
  3
*D3131
  1

  0
LINE
  5
3E1
  8
回07-寸法
  6
CONTINUOUS
 62
     5
 10
2284.306497108191
 20
213.8567260606496
 30
0.0
 11
2284.306497108191
 21
190.0492657177768
 31
0.0
  0
LINE
  5
3E2
  8
回07-寸法
  6
CONTINUOUS
 62
     5
 10
2311.306497108191
 20
213.8607744314604
 30
0.0
 11
2311.306497108191
 21
190.0492657177768
 31
0.0
  0
LINE
  5
3E3
  8
回07-寸法
  6
CONTINUOUS
 62
     5
 10
2312.806497108191
 20
191.0492657177768
 30
0.0
 11
2319.76998136016
 21
191.0492657177768
 31
0.0
  0
LINE
  5
3E4
  8
回07-寸法
  6
CONTINUOUS
 62
     5
 10
2284.306497108191
 20
191.0492657177768
 30
0.0
 11
2311.306497108191
 21
191.0492657177768
 31
0.0
  0
LINE
  5
3E5
  8
回07-寸法
  6
CONTINUOUS
 62
     5
 10
2282.806497108191
 20
191.0492657177768
 30
0.0
 11
2281.306497108191
 21
191.0492657177768
 31
0.0
  0
INSERT
  5
3E6
  8
回07-寸法
  6
CONTINUOUS
 62
     5
 66
     1
  2
_OPEN
 10
2284.306497108191
 20
191.0492657177768
 30
0.0
 41
1.5
 42
1.5
 43
1.5
  0
SEQEND
  5
3E7
  8
0
  6
CONTINUOUS
 62
     7
  0
INSERT
  5
3E8
  8
回07-寸法
  6
CONTINUOUS
 62
     5
 66
     1
  2
_OPEN
 10
2311.306497108191
 20
191.0492657177768
 30
0.0
 41
1.5
 42
1.5
 43
1.5
 50
180.0
  0
SEQEND
  5
3E9
  8
0
  6
CONTINUOUS
 62
     7
  0
TEXT
  5
3EA
  8
回07-寸法
  6
CONTINUOUS
 62
     5
 10
2315.519981360159
 20
191.5492657177768
 30
0.0
 40
3.0
  1
27
1001
ACAD
1000
MTEXTBEGIN
1070
    73
1070
     1
1070
    44
1040
1.0
1070
    74
1070
     0
1000
MTEXTEND
  0
POINT
  5
3EB
  8
DEFPOINTS
  6
CONTINUOUS
 62
     0
 10
2284.306497108191
 20
213.8567260606496
 30
0.0
  0
POINT
  5
3EC
  8
DEFPOINTS
  6
CONTINUOUS
 62
     0
 10
2311.306497108191
 20
213.8607744314604
 30
0.0
  0
POINT
  5
3ED
  8
DEFPOINTS
  6
CONTINUOUS
 62
     0
 10
2311.306497108191
 20
191.0492657177768
 30
0.0
  0
ENDBLK
  5
3EE
  8
0
 62
     5
  0
BLOCK
  8
0
  2
*D3232
 70
     1
 10
0.0
 20
0.0
 30
0.0
  3
*D3232
  1

  0
LINE
  5
3D2
  8
回07-寸法
  6
CONTINUOUS
 62
     5
 10
2304.055371792742
 20
117.0062441585087
 30
0.0
 11
2333.506870963372
 21
117.0062441585087
 31
0.0
  0
LINE
  5
3D3
  8
回07-寸法
  6
CONTINUOUS
 62
     5
 10
2311.306497108191
 20
217.0021957876984
 30
0.0
 11
2333.506870963372
 21
217.0021957876984
 31
0.0
  0
LINE
  5
3D4
  8
回07-寸法
  6
CONTINUOUS
 62
     5
 10
2332.506870963372
 20
118.5062441585087
 30
0.0
 11
2332.506870963372
 21
215.5021957876984
 31
0.0
  0
INSERT
  5
3D5
  8
回07-寸法
  6
CONTINUOUS
 62
     5
 66
     1
  2
_OPEN
 10
2332.506870963372
 20
117.0062441585087
 30
0.0
 41
1.5
 42
1.5
 43
1.5
 50
270.0
  0
SEQEND
  5
3D6
  8
0
  6
CONTINUOUS
 62
     7
  0
INSERT
  5
3D7
  8
回07-寸法
  6
CONTINUOUS
 62
     5
 66
     1
  2
_OPEN
 10
2332.506870963372
 20
217.0021957876984
 30
0.0
 41
1.5
 42
1.5
 43
1.5
 50
90.0
  0
SEQEND
  5
3D8
  8
0
  6
CONTINUOUS
 62
     7
  0
INSERT
  5
3D9
  8
回07-寸法
  6
CONTINUOUS
 62
     5
 66
     1
  2
*X9696
 10
0.0
 20
0.0
 30
0.0
  0
SEQEND
  5
8BC
  8
0
  6
CONTINUOUS
 62
     7
  0
POINT
  5
3DA
  8
DEFPOINTS
  6
CONTINUOUS
 62
     0
 10
2304.055371792742
 20
117.0062441585087
 30
0.0
  0
POINT
  5
3DB
  8
DEFPOINTS
  6
CONTINUOUS
 62
     0
 10
2311.306497108191
 20
217.0021957876984
 30
0.0
  0
POINT
  5
3DC
  8
DEFPOINTS
  6
CONTINUOUS
 62
     0
 10
2332.506870963372
 20
217.0021957876984
 30
0.0
  0
ENDBLK
  5
3DD
  8
0
 62
     5
  0
BLOCK
  8
0
  2
*D3333
 70
     1
 10
0.0
 20
0.0
 30
0.0
  3
*D3333
  1

  0
LINE
  5
3B7
  8
回07-寸法
  6
CONTINUOUS
 62
     5
 10
2433.782190661424
 20
397.4021957876986
 30
0.0
 11
2433.782190661424
 21
405.4052197414883
 31
0.0
  0
LINE
  5
3B8
  8
回07-寸法
  6
CONTINUOUS
 62
     5
 10
2454.675374880394
 20
397.9021957876986
 30
0.0
 11
2454.675374880394
 21
405.4052197414883
 31
0.0
  0
LINE
  5
3B9
  8
回07-寸法
  6
CONTINUOUS
 62
     5
 10
2435.282190661423
 20
404.4052197414885
 30
0.0
 11
2453.175374880394
 21
404.4052197414885
 31
0.0
  0
INSERT
  5
3BA
  8
回07-寸法
  6
CONTINUOUS
 62
     5
 66
     1
  2
_OPEN
 10
2433.782190661424
 20
404.4052197414885
 30
0.0
 41
1.5
 42
1.5
 43
1.5
 50
180.0
  0
SEQEND
  5
3BB
  8
0
  6
CONTINUOUS
 62
     7
  0
INSERT
  5
3BC
  8
回07-寸法
  6
CONTINUOUS
 62
     5
 66
     1
  2
_OPEN
 10
2454.675374880394
 20
404.4052197414885
 30
0.0
 41
1.5
 42
1.5
 43
1.5
  0
SEQEND
  5
3BD
  8
0
  6
CONTINUOUS
 62
     7
  0
INSERT
  5
3BE
  8
回07-寸法
  6
CONTINUOUS
 62
     5
 66
     1
  2
*X9797
 10
0.0
 20
0.0
 30
0.0
  0
SEQEND
  5
8C2
  8
0
  6
CONTINUOUS
 62
     7
  0
POINT
  5
3BF
  8
DEFPOINTS
  6
CONTINUOUS
 62
     0
 10
2433.782190661424
 20
397.4021957876986
 30
0.0
  0
POINT
  5
3C0
  8
DEFPOINTS
  6
CONTINUOUS
 62
     0
 10
2454.675374880394
 20
397.9021957876986
 30
0.0
  0
POINT
  5
3C1
  8
DEFPOINTS
  6
CONTINUOUS
 62
     0
 10
2454.675374880394
 20
404.4052197414885
 30
0.0
  0
ENDBLK
  5
3C2
  8
0
 62
     5
  0
BLOCK
  8
0
  2
*D3434
 70
     1
 10
0.0
 20
0.0
 30
0.0
  3
*D3434
  1

  0
LINE
  5
3A8
  8
回08-記事
  6
CONTINUOUS
 62
     5
 10
2437.782190661424
 20
117.00624415851
 30
0.0
 11
2428.820780492453
 21
117.00624415851
 31
0.0
  0
LINE
  5
3A9
  8
回08-記事
  6
CONTINUOUS
 62
     5
 10
2437.082190661424
 20
122.00624415851
 30
0.0
 11
2428.820780492453
 21
122.00624415851
 31
0.0
  0
LINE
  5
3AA
  8
回08-記事
  6
CONTINUOUS
 62
     5
 10
2429.820780492452
 20
118.50624415851
 30
0.0
 11
2429.820780492452
 21
120.50624415851
 31
0.0
  0
INSERT
  5
3AB
  8
回08-記事
  6
CONTINUOUS
 62
     5
 66
     1
  2
_OPEN
 10
2429.820780492452
 20
117.00624415851
 30
0.0
 41
1.5
 42
1.5
 43
1.5
 50
270.0
  0
SEQEND
  5
3AC
  8
0
  6
CONTINUOUS
 62
     7
  0
INSERT
  5
3AD
  8
回08-記事
  6
CONTINUOUS
 62
     5
 66
     1
  2
_OPEN
 10
2429.820780492452
 20
122.00624415851
 30
0.0
 41
1.5
 42
1.5
 43
1.5
 50
90.0
  0
SEQEND
  5
3AE
  8
0
  6
CONTINUOUS
 62
     7
  0
TEXT
  5
3AF
  8
回08-記事
  6
CONTINUOUS
 62
     5
 10
2429.320780492453
 20
118.4562441585103
 30
0.0
 40
3.0
  1
5
 50
90.0
1001
ACAD
1000
MTEXTBEGIN
1070
    73
1070
     1
1070
    44
1040
1.0
1070
    74
1070
     0
1000
MTEXTEND
  0
POINT
  5
3B0
  8
DEFPOINTS
  6
CONTINUOUS
 62
     0
 10
2437.782190661424
 20
117.00624415851
 30
0.0
  0
POINT
  5
3B1
  8
DEFPOINTS
  6
CONTINUOUS
 62
     0
 10
2437.082190661424
 20
122.00624415851
 30
0.0
  0
POINT
  5
3B2
  8
DEFPOINTS
  6
CONTINUOUS
 62
     0
 10
2429.820780492452
 20
122.00624415851
 30
0.0
  0
ENDBLK
  5
3B3
  8
0
 62
     5
  0
BLOCK
  8
0
  2
*D3535
 70
     1
 10
0.0
 20
0.0
 30
0.0
  3
*D3535
  1

  0
LINE
  5
399
  8
回08-記事
  6
CONTINUOUS
 62
     5
 10
2447.675374880394
 20
117.00624415851
 30
0.0
 11
2460.949960446312
 21
117.00624415851
 31
0.0
  0
LINE
  5
39A
  8
回08-記事
  6
CONTINUOUS
 62
     5
 10
2448.375374880394
 20
122.00624415851
 30
0.0
 11
2460.949960446312
 21
122.00624415851
 31
0.0
  0
LINE
  5
39B
  8
回08-記事
  6
CONTINUOUS
 62
     5
 10
2459.949960446311
 20
118.50624415851
 30
0.0
 11
2459.949960446311
 21
120.50624415851
 31
0.0
  0
INSERT
  5
39C
  8
回08-記事
  6
CONTINUOUS
 62
     5
 66
     1
  2
_OPEN
 10
2459.949960446311
 20
117.00624415851
 30
0.0
 41
1.5
 42
1.5
 43
1.5
 50
270.0
  0
SEQEND
  5
39D
  8
0
  6
CONTINUOUS
 62
     7
  0
INSERT
  5
39E
  8
回08-記事
  6
CONTINUOUS
 62
     5
 66
     1
  2
_OPEN
 10
2459.949960446311
 20
122.00624415851
 30
0.0
 41
1.5
 42
1.5
 43
1.5
 50
90.0
  0
SEQEND
  5
39F
  8
0
  6
CONTINUOUS
 62
     7
  0
TEXT
  5
3A0
  8
回08-記事
  6
CONTINUOUS
 62
     5
 10
2459.449960446312
 20
118.4562441585103
 30
0.0
 40
3.0
  1
5
 50
90.0
1001
ACAD
1000
MTEXTBEGIN
1070
    73
1070
     1
1070
    44
1040
1.0
1070
    74
1070
     0
1000
MTEXTEND
  0
POINT
  5
3A1
  8
DEFPOINTS
  6
CONTINUOUS
 62
     0
 10
2447.675374880394
 20
117.00624415851
 30
0.0
  0
POINT
  5
3A2
  8
DEFPOINTS
  6
CONTINUOUS
 62
     0
 10
2448.375374880394
 20
122.00624415851
 30
0.0
  0
POINT
  5
3A3
  8
DEFPOINTS
  6
CONTINUOUS
 62
     0
 10
2459.949960446311
 20
122.00624415851
 30
0.0
  0
ENDBLK
  5
3A4
  8
0
 62
     5
  0
BLOCK
  8
0
  2
*D3636
 70
     1
 10
0.0
 20
0.0
 30
0.0
  3
*D3636
  1

  0
LINE
  5
38A
  8
回08-記事
  6
CONTINUOUS
 62
     5
 10
2440.282190661424
 20
127.00624415851
 30
0.0
 11
2445.556723525787
 21
127.00624415851
 31
0.0
  0
LINE
  5
38B
  8
回08-記事
  6
CONTINUOUS
 62
     5
 10
2440.282190661424
 20
117.00624415851
 30
0.0
 11
2445.556723525787
 21
117.00624415851
 31
0.0
  0
LINE
  5
38C
  8
回08-記事
  6
CONTINUOUS
 62
     5
 10
2444.556723525785
 20
125.50624415851
 30
0.0
 11
2444.556723525785
 21
118.50624415851
 31
0.0
  0
INSERT
  5
38D
  8
回08-記事
  6
CONTINUOUS
 62
     5
 66
     1
  2
_OPEN
 10
2444.556723525785
 20
127.00624415851
 30
0.0
 41
1.5
 42
1.5
 43
1.5
 50
90.0
  0
SEQEND
  5
38E
  8
0
  6
CONTINUOUS
 62
     7
  0
INSERT
  5
38F
  8
回08-記事
  6
CONTINUOUS
 62
     5
 66
     1
  2
_OPEN
 10
2444.556723525785
 20
117.00624415851
 30
0.0
 41
1.5
 42
1.5
 43
1.5
 50
270.0
  0
SEQEND
  5
390
  8
0
  6
CONTINUOUS
 62
     7
  0
TEXT
  5
391
  8
回08-記事
  6
CONTINUOUS
 62
     5
 10
2443.956723025785
 20
120.0062341585098
 30
0.0
 40
2.00001
  1
(10)
 50
90.0
1001
ACAD
1000
MTEXTBEGIN
1070
    73
1070
     1
1070
    44
1040
1.0
1070
    74
1070
     0
1000
MTEXTEND
  0
POINT
  5
392
  8
DEFPOINTS
  6
CONTINUOUS
 62
     0
 10
2440.282190661424
 20
127.00624415851
 30
0.0
  0
POINT
  5
393
  8
DEFPOINTS
  6
CONTINUOUS
 62
     0
 10
2440.282190661424
 20
117.00624415851
 30
0.0
  0
POINT
  5
394
  8
DEFPOINTS
  6
CONTINUOUS
 62
     0
 10
2444.556723525785
 20
117.00624415851
 30
0.0
  0
ENDBLK
  5
395
  8
0
 62
     5
  0
BLOCK
  8
0
  2
*D3737
 70
     1
 10
0.0
 20
0.0
 30
0.0
  3
*D3737
  1

  0
LINE
  5
379
  8
回08-記事
  6
CONTINUOUS
 62
     5
 10
2440.282190661424
 20
117.00624415851
 30
0.0
 11
2440.282190661424
 21
111.3560861077298
 31
0.0
  0
LINE
  5
37A
  8
回08-記事
  6
CONTINUOUS
 62
     5
 10
2437.782190661424
 20
117.00624415851
 30
0.0
 11
2437.782190661424
 21
111.3560861077298
 31
0.0
  0
LINE
  5
37B
  8
回08-記事
  6
CONTINUOUS
 62
     5
 10
2436.282190661424
 20
112.3560861077298
 30
0.0
 11
2423.229533456699
 21
112.3560861077298
 31
0.0
  0
LINE
  5
37C
  8
回08-記事
  6
CONTINUOUS
 62
     5
 10
2440.282190661424
 20
112.3560861077298
 30
0.0
 11
2437.782190661424
 21
112.3560861077298
 31
0.0
  0
LINE
  5
37D
  8
回08-記事
  6
CONTINUOUS
 62
     5
 10
2441.782190661424
 20
112.3560861077298
 30
0.0
 11
2443.282190661424
 21
112.3560861077298
 31
0.0
  0
INSERT
  5
37E
  8
回08-記事
  6
CONTINUOUS
 62
     5
 66
     1
  2
_OPEN
 10
2440.282190661424
 20
112.3560861077298
 30
0.0
 41
1.5
 42
1.5
 43
1.5
 50
180.0
  0
SEQEND
  5
37F
  8
0
  6
CONTINUOUS
 62
     7
  0
INSERT
  5
380
  8
回08-記事
  6
CONTINUOUS
 62
     5
 66
     1
  2
_OPEN
 10
2437.782190661424
 20
112.3560861077298
 30
0.0
 41
1.5
 42
1.5
 43
1.5
  0
SEQEND
  5
381
  8
0
  6
CONTINUOUS
 62
     7
  0
INSERT
  5
382
  8
回08-記事
  6
CONTINUOUS
 62
     5
 66
     1
  2
*X9898
 10
0.0
 20
0.0
 30
0.0
  0
SEQEND
  5
8C8
  8
0
  6
CONTINUOUS
 62
     7
  0
POINT
  5
383
  8
DEFPOINTS
  6
CONTINUOUS
 62
     0
 10
2440.282190661424
 20
117.00624415851
 30
0.0
  0
POINT
  5
384
  8
DEFPOINTS
  6
CONTINUOUS
 62
     0
 10
2437.782190661424
 20
117.00624415851
 30
0.0
  0
POINT
  5
385
  8
DEFPOINTS
  6
CONTINUOUS
 62
     0
 10
2437.782190661424
 20
112.3560861077298
 30
0.0
  0
ENDBLK
  5
386
  8
0
 62
     5
  0
BLOCK
  8
0
  2
*D3838
 70
     1
 10
0.0
 20
0.0
 30
0.0
  3
*D3838
  1

  0
LINE
  5
368
  8
回08-記事
  6
CONTINUOUS
 62
     5
 10
2445.175374880394
 20
117.00624415851
 30
0.0
 11
2445.175374880394
 21
108.5583365776623
 31
0.0
  0
LINE
  5
369
  8
回08-記事
  6
CONTINUOUS
 62
     5
 10
2447.675374880394
 20
117.00624415851
 30
0.0
 11
2447.675374880394
 21
108.5583365776623
 31
0.0
  0
LINE
  5
36A
  8
回08-記事
  6
CONTINUOUS
 62
     5
 10
2449.175374880394
 20
109.5583365776623
 30
0.0
 11
2462.228032085119
 21
109.5583365776623
 31
0.0
  0
LINE
  5
36B
  8
回08-記事
  6
CONTINUOUS
 62
     5
 10
2445.175374880394
 20
109.5583365776623
 30
0.0
 11
2447.675374880394
 21
109.5583365776623
 31
0.0
  0
LINE
  5
36C
  8
回08-記事
  6
CONTINUOUS
 62
     5
 10
2443.675374880394
 20
109.5583365776623
 30
0.0
 11
2442.175374880394
 21
109.5583365776623
 31
0.0
  0
INSERT
  5
36D
  8
回08-記事
  6
CONTINUOUS
 62
     5
 66
     1
  2
_OPEN
 10
2445.175374880394
 20
109.5583365776623
 30
0.0
 41
1.5
 42
1.5
 43
1.5
  0
SEQEND
  5
36E
  8
0
  6
CONTINUOUS
 62
     7
  0
INSERT
  5
36F
  8
回08-記事
  6
CONTINUOUS
 62
     5
 66
     1
  2
_OPEN
 10
2447.675374880394
 20
109.5583365776623
 30
0.0
 41
1.5
 42
1.5
 43
1.5
 50
180.0
  0
SEQEND
  5
370
  8
0
  6
CONTINUOUS
 62
     7
  0
INSERT
  5
371
  8
回08-記事
  6
CONTINUOUS
 62
     5
 66
     1
  2
*X9999
 10
0.0
 20
0.0
 30
0.0
  0
SEQEND
  5
8CE
  8
0
  6
CONTINUOUS
 62
     7
  0
POINT
  5
372
  8
DEFPOINTS
  6
CONTINUOUS
 62
     0
 10
2445.175374880394
 20
117.00624415851
 30
0.0
  0
POINT
  5
373
  8
DEFPOINTS
  6
CONTINUOUS
 62
     0
 10
2447.675374880394
 20
117.00624415851
 30
0.0
  0
POINT
  5
374
  8
DEFPOINTS
  6
CONTINUOUS
 62
     0
 10
2447.675374880394
 20
109.5583365776623
 30
0.0
  0
ENDBLK
  5
375
  8
0
 62
     5
  0
BLOCK
  8
0
  2
*D3939
 70
     1
 10
0.0
 20
0.0
 30
0.0
  3
*D3939
  1

  0
LINE
  5
4F0
  8
回07-寸法
  6
CONTINUOUS
 62
     5
 10
2382.829650022038
 20
322.2508864188057
 30
0.0
 11
2382.829650022038
 21
359.7508864188055
 31
0.0
  0
LINE
  5
4F2
  8
回07-寸法
  6
CONTINUOUS
 62
     5
 10
2166.329650022039
 20
322.2508864188057
 30
0.0
 11
2166.329650022039
 21
359.7508864188057
 31
0.0
  0
LINE
  5
4F3
  8
回07-寸法
  6
CONTINUOUS
 62
     5
 10
2381.329650022038
 20
358.7508864188055
 30
0.0
 11
2167.829650022039
 21
358.7508864188056
 31
0.0
  0
INSERT
  5
4F4
  8
回07-寸法
  6
CONTINUOUS
 62
     5
  2
_OPEN
 10
2382.829650022038
 20
358.7508864188055
 30
0.0
 41
1.5
 42
1.5
 43
1.5
 50
360.0
  0
INSERT
  5
4F5
  8
回07-寸法
  6
CONTINUOUS
 62
     5
  2
_OPEN
 10
2166.329650022039
 20
358.7508864188056
 30
0.0
 41
1.5
 42
1.5
 43
1.5
 50
180.0
  0
TEXT
  5
4F6
  8
回07-寸法
  6
CONTINUOUS
 62
     5
 10
2270.229650022039
 20
359.2508864188055
 30
0.0
 40
3.0
  1
216.5
  0
POINT
  5
4F7
  8
DEFPOINTS
  6
CONTINUOUS
 62
     0
 10
2382.829650022038
 20
322.2508864188057
 30
0.0
  0
POINT
  5
4F8
  8
DEFPOINTS
  6
CONTINUOUS
 62
     0
 10
2166.329650022039
 20
322.2508864188057
 30
0.0
  0
POINT
  5
4F9
  8
DEFPOINTS
  6
CONTINUOUS
 62
     0
 10
2166.329650022039
 20
358.7508864188056
 30
0.0
  0
ENDBLK
  5
4FB
  8
0
  6
CONTINUOUS
 62
     7
  0
BLOCK
  8
0
  2
*D4040
 70
     1
 10
0.0
 20
0.0
 30
0.0
  3
*D4040
  1

  0
LINE
  5
4FD
  8
回07-寸法
  6
CONTINUOUS
 62
     5
 10
2388.829650022039
 20
328.7508864188056
 30
0.0
 11
2388.829650022039
 21
367.7508864188056
 31
0.0
  0
LINE
  5
4FF
  8
回07-寸法
  6
CONTINUOUS
 62
     5
 10
2160.329650022038
 20
328.7508864188047
 30
0.0
 11
2160.329650022038
 21
367.7508864188056
 31
0.0
  0
LINE
  5
500
  8
回07-寸法
  6
CONTINUOUS
 62
     5
 10
2387.329650022039
 20
366.7508864188056
 30
0.0
 11
2161.829650022038
 21
366.7508864188056
 31
0.0
  0
INSERT
  5
501
  8
回07-寸法
  6
CONTINUOUS
 62
     5
  2
_OPEN
 10
2388.829650022039
 20
366.7508864188056
 30
0.0
 41
1.5
 42
1.5
 43
1.5
  0
INSERT
  5
502
  8
回07-寸法
  6
CONTINUOUS
 62
     5
  2
_OPEN
 10
2160.329650022038
 20
366.7508864188056
 30
0.0
 41
1.5
 42
1.5
 43
1.5
 50
180.0
  0
INSERT
  5
503
  8
回07-寸法
  6
CONTINUOUS
 62
     5
 66
     1
  2
*X100100
 10
0.0
 20
0.0
 30
0.0
  0
SEQEND
  5
8D4
  8
0
  6
CONTINUOUS
 62
     7
  0
POINT
  5
504
  8
DEFPOINTS
  6
CONTINUOUS
 62
     0
 10
2388.829650022039
 20
328.7508864188056
 30
0.0
  0
POINT
  5
505
  8
DEFPOINTS
  6
CONTINUOUS
 62
     0
 10
2160.329650022038
 20
328.7508864188047
 30
0.0
  0
POINT
  5
506
  8
DEFPOINTS
  6
CONTINUOUS
 62
     0
 10
2160.329650022038
 20
366.7508864188056
 30
0.0
  0
ENDBLK
  5
508
  8
0
  6
CONTINUOUS
 62
     7
  0
BLOCK
  8
0
  2
*D4141
 70
     1
 10
0.0
 20
0.0
 30
0.0
  3
*D4141
  1

  0
LINE
  5
50A
  8
回07-寸法
  6
CONTINUOUS
 62
     5
 10
2166.829650022039
 20
321.7508864188056
 30
0.0
 11
2166.829650022039
 21
351.7508864188056
 31
0.0
  0
LINE
  5
50B
  8
回07-寸法
  6
CONTINUOUS
 62
     5
 10
2382.329650022039
 20
321.7508864188056
 30
0.0
 11
2382.329650022039
 21
351.7508864188056
 31
0.0
  0
LINE
  5
50C
  8
回07-寸法
  6
CONTINUOUS
 62
     5
 10
2168.329650022039
 20
350.7508864188056
 30
0.0
 11
2380.829650022039
 21
350.7508864188056
 31
0.0
  0
INSERT
  5
50D
  8
回07-寸法
  6
CONTINUOUS
 62
     5
  2
_OPEN
 10
2166.829650022039
 20
350.7508864188056
 30
0.0
 41
1.5
 42
1.5
 43
1.5
 50
180.0
  0
INSERT
  5
50E
  8
回07-寸法
  6
CONTINUOUS
 62
     5
  2
_OPEN
 10
2382.329650022039
 20
350.7508864188056
 30
0.0
 41
1.5
 42
1.5
 43
1.5
  0
TEXT
  5
50F
  8
回07-寸法
  6
CONTINUOUS
 62
     5
 10
2257.33024057322
 20
352.0008864188056
 30
0.0
 40
3.0
  1
215.5(Viewing area)
  0
POINT
  5
510
  8
DEFPOINTS
  6
CONTINUOUS
 62
     0
 10
2166.829650022039
 20
321.7508864188056
 30
0.0
  0
POINT
  5
511
  8
DEFPOINTS
  6
CONTINUOUS
 62
     0
 10
2382.329650022039
 20
321.7508864188056
 30
0.0
  0
POINT
  5
512
  8
DEFPOINTS
  6
CONTINUOUS
 62
     0
 10
2382.329650022039
 20
350.7508864188056
 30
0.0
  0
ENDBLK
  5
514
  8
0
  6
CONTINUOUS
 62
     7
  0
BLOCK
  8
0
  2
*D4242
 70
     1
 10
0.0
 20
0.0
 30
0.0
  3
*D4242
  1

  0
LINE
  5
516
  8
回07-寸法
  6
CONTINUOUS
 62
     5
 10
2380.179650022038
 20
319.3508864188057
 30
0.0
 11
2380.179650022038
 21
343.7508864188056
 31
0.0
  0
LINE
  5
517
  8
回07-寸法
  6
CONTINUOUS
 62
     5
 10
2168.979650022038
 20
319.3508864188059
 30
0.0
 11
2168.979650022038
 21
343.7508864188056
 31
0.0
  0
LINE
  5
518
  8
回07-寸法
  6
CONTINUOUS
 62
     5
 10
2378.679650022038
 20
342.7508864188056
 30
0.0
 11
2170.479650022038
 21
342.7508864188056
 31
0.0
  0
INSERT
  5
519
  8
回07-寸法
  6
CONTINUOUS
 62
     5
  2
_OPEN
 10
2380.179650022038
 20
342.7508864188056
 30
0.0
 41
1.5
 42
1.5
 43
1.5
  0
INSERT
  5
51A
  8
回07-寸法
  6
CONTINUOUS
 62
     5
  2
_OPEN
 10
2168.979650022038
 20
342.7508864188056
 30
0.0
 41
1.5
 42
1.5
 43
1.5
 50
180.0
  0
TEXT
  5
51B
  8
回07-寸法
  6
CONTINUOUS
 62
     5
 10
2258.68024057322
 20
343.4008864188056
 30
0.0
 40
3.0
  1
211.2(Active area)
  0
POINT
  5
51C
  8
DEFPOINTS
  6
CONTINUOUS
 62
     0
 10
2380.179650022038
 20
319.3508864188057
 30
0.0
  0
POINT
  5
51D
  8
DEFPOINTS
  6
CONTINUOUS
 62
     0
 10
2168.979650022038
 20
319.3508864188059
 30
0.0
  0
POINT
  5
51E
  8
DEFPOINTS
  6
CONTINUOUS
 62
     0
 10
2168.979650022038
 20
342.7508864188056
 30
0.0
  0
ENDBLK
  5
520
  8
0
  6
CONTINUOUS
 62
     7
  0
BLOCK
  8
0
  2
*D4343
 70
     1
 10
0.0
 20
0.0
 30
0.0
  3
*D4343
  1

  0
LINE
  5
522
  8
回07-寸法
  6
CONTINUOUS
 62
     5
 10
2382.829650022038
 20
322.2508864188057
 30
0.0
 11
2382.829650022038
 21
359.7508864188057
 31
0.0
  0
LINE
  5
523
  8
回07-寸法
  6
CONTINUOUS
 62
     5
 10
2388.829650022039
 20
328.7508864188056
 30
0.0
 11
2388.829650022039
 21
359.7508864188057
 31
0.0
  0
LINE
  5
524
  8
回07-寸法
  6
CONTINUOUS
 62
     5
 10
2390.329650022039
 20
358.7508864188056
 30
0.0
 11
2416.383656728732
 21
358.7508864188056
 31
0.0
  0
LINE
  5
525
  8
回07-寸法
  6
CONTINUOUS
 62
     5
 10
2382.829650022038
 20
358.7508864188056
 30
0.0
 11
2388.829650022039
 21
358.7508864188056
 31
0.0
  0
LINE
  5
526
  8
回07-寸法
  6
CONTINUOUS
 62
     5
 10
2381.329650022038
 20
358.7508864188056
 30
0.0
 11
2379.829650022038
 21
358.7508864188056
 31
0.0
  0
INSERT
  5
527
  8
回07-寸法
  6
CONTINUOUS
 62
     5
  2
_OPEN
 10
2382.829650022038
 20
358.7508864188056
 30
0.0
 41
1.5
 42
1.5
 43
1.5
  0
INSERT
  5
528
  8
回07-寸法
  6
CONTINUOUS
 62
     5
  2
_OPEN
 10
2388.829650022039
 20
358.7508864188056
 30
0.0
 41
1.5
 42
1.5
 43
1.5
 50
180.0
  0
INSERT
  5
529
  8
回07-寸法
  6
CONTINUOUS
 62
     5
 66
     1
  2
*X101101
 10
0.0
 20
0.0
 30
0.0
  0
SEQEND
  5
8DA
  8
0
  6
CONTINUOUS
 62
     7
  0
POINT
  5
52A
  8
DEFPOINTS
  6
CONTINUOUS
 62
     0
 10
2382.829650022038
 20
322.2508864188057
 30
0.0
  0
POINT
  5
52B
  8
DEFPOINTS
  6
CONTINUOUS
 62
     0
 10
2388.829650022039
 20
328.7508864188056
 30
0.0
  0
POINT
  5
52C
  8
DEFPOINTS
  6
CONTINUOUS
 62
     0
 10
2388.829650022039
 20
358.7508864188056
 30
0.0
  0
ENDBLK
  5
52E
  8
0
  6
CONTINUOUS
 62
     7
  0
BLOCK
  8
0
  2
*D4444
 70
     1
 10
0.0
 20
0.0
 30
0.0
  3
*D4444
  1

  0
LINE
  5
530
  8
回07-寸法
  6
CONTINUOUS
 62
     5
 10
2380.179650022038
 20
319.3508864188056
 30
0.0
 11
2380.179650022038
 21
343.7508864188056
 31
0.0
  0
LINE
  5
531
  8
回07-寸法
  6
CONTINUOUS
 62
     5
 10
2388.829650022039
 20
328.7508864188056
 30
0.0
 11
2388.829650022039
 21
343.7508864188056
 31
0.0
  0
LINE
  5
532
  8
回07-寸法
  6
CONTINUOUS
 62
     5
 10
2390.329650022039
 20
342.7508864188056
 30
0.0
 11
2401.527287817315
 21
342.7508864188056
 31
0.0
  0
LINE
  5
533
  8
回07-寸法
  6
CONTINUOUS
 62
     5
 10
2380.179650022038
 20
342.7508864188056
 30
0.0
 11
2388.829650022039
 21
342.7508864188056
 31
0.0
  0
LINE
  5
534
  8
回07-寸法
  6
CONTINUOUS
 62
     5
 10
2378.679650022038
 20
342.7508864188056
 30
0.0
 11
2377.179650022038
 21
342.7508864188056
 31
0.0
  0
INSERT
  5
535
  8
回07-寸法
  6
CONTINUOUS
 62
     5
  2
_OPEN
 10
2380.179650022038
 20
342.7508864188056
 30
0.0
 41
1.5
 42
1.5
 43
1.5
  0
INSERT
  5
536
  8
回07-寸法
  6
CONTINUOUS
 62
     5
  2
_OPEN
 10
2388.829650022039
 20
342.7508864188056
 30
0.0
 41
1.5
 42
1.5
 43
1.5
 50
180.0
  0
TEXT
  5
537
  8
回07-寸法
  6
CONTINUOUS
 62
     5
 10
2391.878468919677
 20
343.4008864188056
 30
0.0
 40
3.0
  1
(8.65)
  0
POINT
  5
538
  8
DEFPOINTS
  6
CONTINUOUS
 62
     0
 10
2380.179650022038
 20
319.3508864188056
 30
0.0
  0
POINT
  5
539
  8
DEFPOINTS
  6
CONTINUOUS
 62
     0
 10
2388.829650022039
 20
328.7508864188056
 30
0.0
  0
POINT
  5
53A
  8
DEFPOINTS
  6
CONTINUOUS
 62
     0
 10
2388.829650022039
 20
342.7508864188056
 30
0.0
  0
ENDBLK
  5
53C
  8
0
  6
CONTINUOUS
 62
     7
  0
BLOCK
  8
0
  2
*D4545
 70
     1
 10
0.0
 20
0.0
 30
0.0
  3
*D4545
  1

  0
LINE
  5
53E
  8
回07-寸法
  6
CONTINUOUS
 62
     5
 10
2382.329650022039
 20
321.7508864188066
 30
0.0
 11
2382.329650022039
 21
351.7508864188056
 31
0.0
  0
LINE
  5
53F
  8
回07-寸法
  6
CONTINUOUS
 62
     5
 10
2388.829650022039
 20
328.7508864188056
 30
0.0
 11
2388.829650022039
 21
351.7508864188056
 31
0.0
  0
LINE
  5
540
  8
回07-寸法
  6
CONTINUOUS
 62
     5
 10
2390.329650022039
 20
350.7508864188056
 30
0.0
 11
2399.427287817314
 21
350.7508864188056
 31
0.0
  0
LINE
  5
541
  8
回07-寸法
  6
CONTINUOUS
 62
     5
 10
2382.329650022039
 20
350.7508864188056
 30
0.0
 11
2388.829650022039
 21
350.7508864188056
 31
0.0
  0
LINE
  5
542
  8
回07-寸法
  6
CONTINUOUS
 62
     5
 10
2380.829650022039
 20
350.7508864188056
 30
0.0
 11
2379.329650022039
 21
350.7508864188056
 31
0.0
  0
INSERT
  5
543
  8
回07-寸法
  6
CONTINUOUS
 62
     5
  2
_OPEN
 10
2382.329650022039
 20
350.7508864188056
 30
0.0
 41
1.5
 42
1.5
 43
1.5
  0
INSERT
  5
544
  8
回07-寸法
  6
CONTINUOUS
 62
     5
  2
_OPEN
 10
2388.829650022039
 20
350.7508864188056
 30
0.0
 41
1.5
 42
1.5
 43
1.5
 50
180.0
  0
TEXT
  5
545
  8
回07-寸法
  6
CONTINUOUS
 62
     5
 10
2391.878468919677
 20
351.4008864188056
 30
0.0
 40
3.0
  1
(6.5)
  0
POINT
  5
546
  8
DEFPOINTS
  6
CONTINUOUS
 62
     0
 10
2382.329650022039
 20
321.7508864188066
 30
0.0
  0
POINT
  5
547
  8
DEFPOINTS
  6
CONTINUOUS
 62
     0
 10
2388.829650022039
 20
328.7508864188056
 30
0.0
  0
POINT
  5
548
  8
DEFPOINTS
  6
CONTINUOUS
 62
     0
 10
2388.829650022039
 20
350.7508864188056
 30
0.0
  0
ENDBLK
  5
54A
  8
0
  6
CONTINUOUS
 62
     7
  0
BLOCK
  8
0
  2
*D4646
 70
     1
 10
0.0
 20
0.0
 30
0.0
  3
*D4646
  1

  0
LINE
  5
54C
  8
回07-寸法
  6
CONTINUOUS
 62
     5
 10
2166.329650022039
 20
158.0508864188056
 30
0.0
 11
2127.329650022039
 21
158.0508864188056
 31
0.0
  0
LINE
  5
54D
  8
回07-寸法
  6
CONTINUOUS
 62
     5
 10
2166.329650022039
 20
322.2508864188053
 30
0.0
 11
2127.329650022039
 21
322.2508864188053
 31
0.0
  0
LINE
  5
54E
  8
回07-寸法
  6
CONTINUOUS
 62
     5
 10
2128.329650022038
 20
159.5508864188056
 30
0.0
 11
2128.329650022038
 21
320.7508864188053
 31
0.0
  0
INSERT
  5
54F
  8
回07-寸法
  6
CONTINUOUS
 62
     5
  2
_OPEN
 10
2128.329650022038
 20
158.0508864188056
 30
0.0
 41
1.5
 42
1.5
 43
1.5
 50
270.0
  0
INSERT
  5
550
  8
回07-寸法
  6
CONTINUOUS
 62
     5
  2
_OPEN
 10
2128.329650022038
 20
322.2508864188053
 30
0.0
 41
1.5
 42
1.5
 43
1.5
 50
90.0
  0
TEXT
  5
551
  8
回07-寸法
  6
CONTINUOUS
 62
     5
 10
2127.829650022039
 20
235.6505547334655
 30
0.0
 40
3.0
  1
164.2
 50
90.0
  0
POINT
  5
552
  8
DEFPOINTS
  6
CONTINUOUS
 62
     0
 10
2166.329650022039
 20
158.0508864188056
 30
0.0
  0
POINT
  5
553
  8
DEFPOINTS
  6
CONTINUOUS
 62
     0
 10
2166.329650022039
 20
322.2508864188053
 30
0.0
  0
POINT
  5
554
  8
DEFPOINTS
  6
CONTINUOUS
 62
     0
 10
2128.329650022038
 20
322.2508864188053
 30
0.0
  0
ENDBLK
  5
556
  8
0
  6
CONTINUOUS
 62
     7
  0
BLOCK
  8
0
  2
*D4747
 70
     1
 10
0.0
 20
0.0
 30
0.0
  3
*D4747
  1

  0
LINE
  5
558
  8
回07-寸法
  6
CONTINUOUS
 62
     5
 10
2160.329650022038
 20
328.7508864188056
 30
0.0
 11
2119.329650022038
 21
328.7508864188056
 31
0.0
  0
LINE
  5
559
  8
回07-寸法
  6
CONTINUOUS
 62
     5
 10
2160.329650022038
 20
147.8508864188057
 30
0.0
 11
2119.329650022038
 21
147.8508864188057
 31
0.0
  0
LINE
  5
55A
  8
回07-寸法
  6
CONTINUOUS
 62
     5
 10
2120.329650022039
 20
327.2508864188056
 30
0.0
 11
2120.329650022039
 21
149.3508864188057
 31
0.0
  0
INSERT
  5
55B
  8
回07-寸法
  6
CONTINUOUS
 62
     5
  2
_OPEN
 10
2120.329650022039
 20
328.7508864188056
 30
0.0
 41
1.5
 42
1.5
 43
1.5
 50
90.0
  0
INSERT
  5
55C
  8
回07-寸法
  6
CONTINUOUS
 62
     5
  2
_OPEN
 10
2120.329650022039
 20
147.8508864188057
 30
0.0
 41
1.5
 42
1.5
 43
1.5
 50
270.0
  0
INSERT
  5
55D
  8
回07-寸法
  6
CONTINUOUS
 62
     5
 66
     1
  2
*X102102
 10
0.0
 20
0.0
 30
0.0
  0
SEQEND
  5
8E0
  8
0
  6
CONTINUOUS
 62
     7
  0
POINT
  5
55E
  8
DEFPOINTS
  6
CONTINUOUS
 62
     0
 10
2160.329650022038
 20
328.7508864188056
 30
0.0
  0
POINT
  5
55F
  8
DEFPOINTS
  6
CONTINUOUS
 62
     0
 10
2160.329650022038
 20
147.8508864188057
 30
0.0
  0
POINT
  5
560
  8
DEFPOINTS
  6
CONTINUOUS
 62
     0
 10
2120.329650022039
 20
147.8508864188057
 30
0.0
  0
ENDBLK
  5
562
  8
0
  6
CONTINUOUS
 62
     7
  0
BLOCK
  8
0
  2
*D4848
 70
     1
 10
0.0
 20
0.0
 30
0.0
  3
*D4848
  1

  0
LINE
  5
564
  8
回07-寸法
  6
CONTINUOUS
 62
     5
 10
2166.829650022039
 20
321.7508864188054
 30
0.0
 11
2135.329650022038
 21
321.7508864188054
 31
0.0
  0
LINE
  5
565
  8
回07-寸法
  6
CONTINUOUS
 62
     5
 10
2166.829650022039
 20
158.5508864188056
 30
0.0
 11
2135.329650022038
 21
158.5508864188056
 31
0.0
  0
LINE
  5
566
  8
回07-寸法
  6
CONTINUOUS
 62
     5
 10
2136.329650022039
 20
320.2508864188053
 30
0.0
 11
2136.329650022039
 21
160.0508864188056
 31
0.0
  0
INSERT
  5
567
  8
回07-寸法
  6
CONTINUOUS
 62
     5
  2
_OPEN
 10
2136.329650022039
 20
321.7508864188054
 30
0.0
 41
1.5
 42
1.5
 43
1.5
 50
90.0
  0
INSERT
  5
568
  8
回07-寸法
  6
CONTINUOUS
 62
     5
  2
_OPEN
 10
2136.329650022039
 20
158.5508864188056
 30
0.0
 41
1.5
 42
1.5
 43
1.5
 50
270.0
  0
TEXT
  5
569
  8
回07-寸法
  6
CONTINUOUS
 62
     5
 10
2135.079650022039
 20
222.9014769699865
 30
0.0
 40
3.0
  1
163.2(Viewing area)
 50
90.0
  0
POINT
  5
56A
  8
DEFPOINTS
  6
CONTINUOUS
 62
     0
 10
2166.829650022039
 20
321.7508864188054
 30
0.0
  0
POINT
  5
56B
  8
DEFPOINTS
  6
CONTINUOUS
 62
     0
 10
2166.829650022039
 20
158.5508864188056
 30
0.0
  0
POINT
  5
56C
  8
DEFPOINTS
  6
CONTINUOUS
 62
     0
 10
2136.329650022039
 20
158.5508864188056
 30
0.0
  0
ENDBLK
  5
56E
  8
0
  6
CONTINUOUS
 62
     7
  0
BLOCK
  8
0
  2
*D4949
 70
     1
 10
0.0
 20
0.0
 30
0.0
  3
*D4949
  1

  0
LINE
  5
570
  8
回07-寸法
  6
CONTINUOUS
 62
     5
 10
2168.979650022039
 20
160.9508864188059
 30
0.0
 11
2143.329650022039
 21
160.9508864188059
 31
0.0
  0
LINE
  5
571
  8
回07-寸法
  6
CONTINUOUS
 62
     5
 10
2168.979650022038
 20
319.3508864188056
 30
0.0
 11
2143.329650022039
 21
319.3508864188056
 31
0.0
  0
LINE
  5
572
  8
回07-寸法
  6
CONTINUOUS
 62
     5
 10
2144.329650022038
 20
162.4508864188058
 30
0.0
 11
2144.329650022038
 21
317.8508864188056
 31
0.0
  0
INSERT
  5
573
  8
回07-寸法
  6
CONTINUOUS
 62
     5
  2
_OPEN
 10
2144.329650022038
 20
160.9508864188059
 30
0.0
 41
1.5
 42
1.5
 43
1.5
 50
270.0
  0
INSERT
  5
574
  8
回07-寸法
  6
CONTINUOUS
 62
     5
  2
_OPEN
 10
2144.329650022038
 20
319.3508864188056
 30
0.0
 41
1.5
 42
1.5
 43
1.5
 50
90.0
  0
TEXT
  5
575
  8
回07-寸法
  6
CONTINUOUS
 62
     5
 10
2143.679650022038
 20
223.8014769699871
 30
0.0
 40
3.0
  1
158.4(Active area)
 50
90.0
  0
POINT
  5
576
  8
DEFPOINTS
  6
CONTINUOUS
 62
     0
 10
2168.979650022039
 20
160.9508864188059
 30
0.0
  0
POINT
  5
577
  8
DEFPOINTS
  6
CONTINUOUS
 62
     0
 10
2168.979650022038
 20
319.3508864188056
 30
0.0
  0
POINT
  5
578
  8
DEFPOINTS
  6
CONTINUOUS
 62
     0
 10
2144.329650022038
 20
319.3508864188056
 30
0.0
  0
ENDBLK
  5
57A
  8
0
  6
CONTINUOUS
 62
     7
  0
BLOCK
  8
0
  2
*D5050
 70
     1
 10
0.0
 20
0.0
 30
0.0
  3
*D5050
  1

  0
LINE
  5
57C
  8
回07-寸法
  6
CONTINUOUS
 62
     5
 10
2166.329650022039
 20
322.2508864188057
 30
0.0
 11
2166.329650022039
 21
359.7508864188057
 31
0.0
  0
LINE
  5
57D
  8
回07-寸法
  6
CONTINUOUS
 62
     5
 10
2160.329650022038
 20
328.7508864188056
 30
0.0
 11
2160.329650022038
 21
359.7508864188057
 31
0.0
  0
LINE
  5
57E
  8
回07-寸法
  6
CONTINUOUS
 62
     5
 10
2158.829650022039
 20
358.7508864188056
 30
0.0
 11
2135.174462212984
 21
358.7508864188056
 31
0.0
  0
LINE
  5
57F
  8
回07-寸法
  6
CONTINUOUS
 62
     5
 10
2166.329650022039
 20
358.7508864188056
 30
0.0
 11
2160.329650022038
 21
358.7508864188056
 31
0.0
  0
LINE
  5
580
  8
回07-寸法
  6
CONTINUOUS
 62
     5
 10
2167.829650022039
 20
358.7508864188056
 30
0.0
 11
2169.329650022039
 21
358.7508864188056
 31
0.0
  0
INSERT
  5
581
  8
回07-寸法
  6
CONTINUOUS
 62
     5
  2
_OPEN
 10
2166.329650022039
 20
358.7508864188056
 30
0.0
 41
1.5
 42
1.5
 43
1.5
 50
180.0
  0
INSERT
  5
582
  8
回07-寸法
  6
CONTINUOUS
 62
     5
  2
_OPEN
 10
2160.329650022038
 20
358.7508864188056
 30
0.0
 41
1.5
 42
1.5
 43
1.5
  0
INSERT
  5
583
  8
回07-寸法
  6
CONTINUOUS
 62
     5
 66
     1
  2
*X103103
 10
0.0
 20
0.0
 30
0.0
  0
SEQEND
  5
8E6
  8
0
  6
CONTINUOUS
 62
     7
  0
POINT
  5
584
  8
DEFPOINTS
  6
CONTINUOUS
 62
     0
 10
2166.329650022039
 20
322.2508864188057
 30
0.0
  0
POINT
  5
585
  8
DEFPOINTS
  6
CONTINUOUS
 62
     0
 10
2160.329650022038
 20
328.7508864188056
 30
0.0
  0
POINT
  5
586
  8
DEFPOINTS
  6
CONTINUOUS
 62
     0
 10
2160.329650022038
 20
358.7508864188056
 30
0.0
  0
ENDBLK
  5
588
  8
0
  6
CONTINUOUS
 62
     7
  0
BLOCK
  8
0
  2
*D5151
 70
     1
 10
0.0
 20
0.0
 30
0.0
  3
*D5151
  1

  0
LINE
  5
58A
  8
回07-寸法
  6
CONTINUOUS
 62
     5
 10
2166.829650022039
 20
321.7508864188056
 30
0.0
 11
2166.829650022039
 21
351.7508864188056
 31
0.0
  0
LINE
  5
58B
  8
回07-寸法
  6
CONTINUOUS
 62
     5
 10
2160.329650022038
 20
328.7508864188047
 30
0.0
 11
2160.329650022038
 21
351.7508864188056
 31
0.0
  0
LINE
  5
58C
  8
回07-寸法
  6
CONTINUOUS
 62
     5
 10
2158.829650022039
 20
350.7508864188056
 30
0.0
 11
2151.977754208155
 21
350.7508864188056
 31
0.0
  0
LINE
  5
58D
  8
回07-寸法
  6
CONTINUOUS
 62
     5
 10
2166.829650022039
 20
350.7508864188056
 30
0.0
 11
2160.329650022038
 21
350.7508864188056
 31
0.0
  0
LINE
  5
58E
  8
回07-寸法
  6
CONTINUOUS
 62
     5
 10
2168.329650022039
 20
350.7508864188056
 30
0.0
 11
2169.829650022039
 21
350.7508864188056
 31
0.0
  0
INSERT
  5
58F
  8
回07-寸法
  6
CONTINUOUS
 62
     5
  2
_OPEN
 10
2166.829650022039
 20
350.7508864188056
 30
0.0
 41
1.5
 42
1.5
 43
1.5
 50
180.0
  0
INSERT
  5
590
  8
回07-寸法
  6
CONTINUOUS
 62
     5
  2
_OPEN
 10
2160.329650022038
 20
350.7508864188056
 30
0.0
 41
1.5
 42
1.5
 43
1.5
  0
TEXT
  5
591
  8
回07-寸法
  6
CONTINUOUS
 62
     5
 10
2152.027754208155
 20
351.2508864188057
 30
0.0
 40
3.0
  1
6.5
  0
POINT
  5
592
  8
DEFPOINTS
  6
CONTINUOUS
 62
     0
 10
2166.829650022039
 20
321.7508864188056
 30
0.0
  0
POINT
  5
593
  8
DEFPOINTS
  6
CONTINUOUS
 62
     0
 10
2160.329650022038
 20
328.7508864188047
 30
0.0
  0
POINT
  5
594
  8
DEFPOINTS
  6
CONTINUOUS
 62
     0
 10
2160.329650022038
 20
350.7508864188056
 30
0.0
  0
ENDBLK
  5
596
  8
0
  6
CONTINUOUS
 62
     7
  0
BLOCK
  8
0
  2
*D5252
 70
     1
 10
0.0
 20
0.0
 30
0.0
  3
*D5252
  1

  0
LINE
  5
598
  8
回07-寸法
  6
CONTINUOUS
 62
     5
 10
2168.979650032039
 20
319.3508864188059
 30
0.0
 11
2168.979650032039
 21
343.7508864171389
 31
0.0
  0
LINE
  5
599
  8
回07-寸法
  6
CONTINUOUS
 62
     5
 10
2160.329650022038
 20
328.7508864188047
 30
0.0
 11
2160.329650022038
 21
343.7508864171389
 31
0.0
  0
LINE
  5
59A
  8
回07-寸法
  6
CONTINUOUS
 62
     5
 10
2158.829650022039
 20
342.7508864171389
 30
0.0
 11
2149.967517987682
 21
342.7508864171389
 31
0.0
  0
LINE
  5
59B
  8
回07-寸法
  6
CONTINUOUS
 62
     5
 10
2168.979650032039
 20
342.7508864171389
 30
0.0
 11
2160.329650022038
 21
342.7508864171389
 31
0.0
  0
LINE
  5
59C
  8
回07-寸法
  6
CONTINUOUS
 62
     5
 10
2170.479650032039
 20
342.7508864171389
 30
0.0
 11
2171.979650032039
 21
342.7508864171389
 31
0.0
  0
INSERT
  5
59D
  8
回07-寸法
  6
CONTINUOUS
 62
     5
  2
_OPEN
 10
2168.979650032039
 20
342.7508864171389
 30
0.0
 41
1.5
 42
1.5
 43
1.5
 50
180.0
  0
INSERT
  5
59E
  8
回07-寸法
  6
CONTINUOUS
 62
     5
  2
_OPEN
 10
2160.329650022038
 20
342.7508864171389
 30
0.0
 41
1.5
 42
1.5
 43
1.5
  0
TEXT
  5
59F
  8
回07-寸法
  6
CONTINUOUS
 62
     5
 10
2150.017517987682
 20
343.2508864171389
 30
0.0
 40
3.0
  1
8.65
  0
POINT
  5
5A0
  8
DEFPOINTS
  6
CONTINUOUS
 62
     0
 10
2168.979650032039
 20
319.3508864188059
 30
0.0
  0
POINT
  5
5A1
  8
DEFPOINTS
  6
CONTINUOUS
 62
     0
 10
2160.329650022038
 20
328.7508864188047
 30
0.0
  0
POINT
  5
5A2
  8
DEFPOINTS
  6
CONTINUOUS
 62
     0
 10
2160.329650022038
 20
342.7508864171389
 30
0.0
  0
ENDBLK
  5
5A4
  8
0
  6
CONTINUOUS
 62
     7
  0
BLOCK
  8
0
  2
*D5353
 70
     1
 10
0.0
 20
0.0
 30
0.0
  3
*D5353
  1

  0
LINE
  5
5A6
  8
回07-寸法
  6
CONTINUOUS
 62
     5
 10
2166.329650022039
 20
322.2508864188057
 30
0.0
 11
2127.329650022039
 21
322.2508864188057
 31
0.0
  0
LINE
  5
5A7
  8
回07-寸法
  6
CONTINUOUS
 62
     5
 10
2160.329650022038
 20
328.7508864188056
 30
0.0
 11
2127.329650022039
 21
328.7508864188056
 31
0.0
  0
LINE
  5
5A8
  8
回07-寸法
  6
CONTINUOUS
 62
     5
 10
2128.329650022038
 20
330.2508864188056
 30
0.0
 11
2128.329650022038
 21
359.3040154359313
 31
0.0
  0
LINE
  5
5A9
  8
回07-寸法
  6
CONTINUOUS
 62
     5
 10
2128.329650022038
 20
322.2508864188057
 30
0.0
 11
2128.329650022038
 21
328.7508864188056
 31
0.0
  0
LINE
  5
5AA
  8
回07-寸法
  6
CONTINUOUS
 62
     5
 10
2128.329650022038
 20
320.7508864188056
 30
0.0
 11
2128.329650022038
 21
319.2508864188056
 31
0.0
  0
INSERT
  5
5AB
  8
回07-寸法
  6
CONTINUOUS
 62
     5
  2
_OPEN
 10
2128.329650022038
 20
322.2508864188057
 30
0.0
 41
1.5
 42
1.5
 43
1.5
 50
90.0
  0
INSERT
  5
5AC
  8
回07-寸法
  6
CONTINUOUS
 62
     5
  2
_OPEN
 10
2128.329650022038
 20
328.7508864188056
 30
0.0
 41
1.5
 42
1.5
 43
1.5
 50
270.0
  0
INSERT
  5
5AD
  8
回07-寸法
  6
CONTINUOUS
 62
     5
 66
     1
  2
*X104104
 10
0.0
 20
0.0
 30
0.0
  0
SEQEND
  5
8EC
  8
0
  6
CONTINUOUS
 62
     7
  0
POINT
  5
5AE
  8
DEFPOINTS
  6
CONTINUOUS
 62
     0
 10
2166.329650022039
 20
322.2508864188057
 30
0.0
  0
POINT
  5
5AF
  8
DEFPOINTS
  6
CONTINUOUS
 62
     0
 10
2160.329650022038
 20
328.7508864188056
 30
0.0
  0
POINT
  5
5B0
  8
DEFPOINTS
  6
CONTINUOUS
 62
     0
 10
2128.329650022038
 20
328.7508864188056
 30
0.0
  0
ENDBLK
  5
5B2
  8
0
  6
CONTINUOUS
 62
     7
  0
BLOCK
  8
0
  2
*D5454
 70
     1
 10
0.0
 20
0.0
 30
0.0
  3
*D5454
  1

  0
LINE
  5
5B4
  8
回07-寸法
  6
CONTINUOUS
 62
     5
 10
2166.829650022039
 20
321.7508864188056
 30
0.0
 11
2135.329650022038
 21
321.7508864188056
 31
0.0
  0
LINE
  5
5B5
  8
回07-寸法
  6
CONTINUOUS
 62
     5
 10
2160.329650022038
 20
328.7508864188056
 30
0.0
 11
2135.329650022038
 21
328.7508864188056
 31
0.0
  0
LINE
  5
5B6
  8
回07-寸法
  6
CONTINUOUS
 62
     5
 10
2136.329650022039
 20
330.2508864188056
 30
0.0
 11
2136.329650022039
 21
336.3485242140815
 31
0.0
  0
LINE
  5
5B7
  8
回07-寸法
  6
CONTINUOUS
 62
     5
 10
2136.329650022039
 20
321.7508864188056
 30
0.0
 11
2136.329650022039
 21
328.7508864188056
 31
0.0
  0
LINE
  5
5B8
  8
回07-寸法
  6
CONTINUOUS
 62
     5
 10
2136.329650022039
 20
320.2508864188057
 30
0.0
 11
2136.329650022039
 21
318.7508864188056
 31
0.0
  0
INSERT
  5
5B9
  8
回07-寸法
  6
CONTINUOUS
 62
     5
  2
_OPEN
 10
2136.329650022039
 20
321.7508864188056
 30
0.0
 41
1.5
 42
1.5
 43
1.5
 50
90.0
  0
INSERT
  5
5BA
  8
回07-寸法
  6
CONTINUOUS
 62
     5
  2
_OPEN
 10
2136.329650022039
 20
328.7508864188056
 30
0.0
 41
1.5
 42
1.5
 43
1.5
 50
270.0
  0
TEXT
  5
5BB
  8
回07-寸法
  6
CONTINUOUS
 62
     5
 10
2135.679650022038
 20
331.7997053164436
 30
0.0
 40
3.0
  1
(7)
 50
90.0
  0
POINT
  5
5BC
  8
DEFPOINTS
  6
CONTINUOUS
 62
     0
 10
2166.829650022039
 20
321.7508864188056
 30
0.0
  0
POINT
  5
5BD
  8
DEFPOINTS
  6
CONTINUOUS
 62
     0
 10
2160.329650022038
 20
328.7508864188056
 30
0.0
  0
POINT
  5
5BE
  8
DEFPOINTS
  6
CONTINUOUS
 62
     0
 10
2136.329650022039
 20
328.7508864188056
 30
0.0
  0
ENDBLK
  5
5C0
  8
0
  6
CONTINUOUS
 62
     7
  0
BLOCK
  8
0
  2
*D5555
 70
     1
 10
0.0
 20
0.0
 30
0.0
  3
*D5555
  1

  0
LINE
  5
5C2
  8
回07-寸法
  6
CONTINUOUS
 62
     5
 10
2168.979650032039
 20
319.3508864188056
 30
0.0
 11
2143.329650022039
 21
319.3508864188056
 31
0.0
  0
LINE
  5
5C3
  8
回07-寸法
  6
CONTINUOUS
 62
     5
 10
2160.329650022038
 20
328.7508864188056
 30
0.0
 11
2143.329650022039
 21
328.7508864188056
 31
0.0
  0
LINE
  5
5C4
  8
回07-寸法
  6
CONTINUOUS
 62
     5
 10
2144.329650022038
 20
330.2508864188056
 30
0.0
 11
2144.329650022038
 21
339.6593553196624
 31
0.0
  0
LINE
  5
5C5
  8
回07-寸法
  6
CONTINUOUS
 62
     5
 10
2144.329650022038
 20
319.3508864188056
 30
0.0
 11
2144.329650022038
 21
328.7508864188056
 31
0.0
  0
LINE
  5
5C6
  8
回07-寸法
  6
CONTINUOUS
 62
     5
 10
2144.329650022038
 20
317.8508864188056
 30
0.0
 11
2144.329650022038
 21
316.3508864188056
 31
0.0
  0
INSERT
  5
5C7
  8
回07-寸法
  6
CONTINUOUS
 62
     5
  2
_OPEN
 10
2144.329650022038
 20
319.3508864188056
 30
0.0
 41
1.5
 42
1.5
 43
1.5
 50
90.0
  0
INSERT
  5
5C8
  8
回07-寸法
  6
CONTINUOUS
 62
     5
  2
_OPEN
 10
2144.329650022038
 20
328.7508864188056
 30
0.0
 41
1.5
 42
1.5
 43
1.5
 50
270.0
  0
TEXT
  5
5C9
  8
回07-寸法
  6
CONTINUOUS
 62
     5
 10
2143.679650022038
 20
331.7997053164433
 30
0.0
 40
3.0
  1
(9.4)
 50
90.0
  0
POINT
  5
5CA
  8
DEFPOINTS
  6
CONTINUOUS
 62
     0
 10
2168.979650032039
 20
319.3508864188056
 30
0.0
  0
POINT
  5
5CB
  8
DEFPOINTS
  6
CONTINUOUS
 62
     0
 10
2160.329650022038
 20
328.7508864188056
 30
0.0
  0
POINT
  5
5CC
  8
DEFPOINTS
  6
CONTINUOUS
 62
     0
 10
2144.329650022038
 20
328.7508864188056
 30
0.0
  0
ENDBLK
  5
5CE
  8
0
  6
CONTINUOUS
 62
     7
  0
BLOCK
  8
0
  2
*D5656
 70
     1
 10
0.0
 20
0.0
 30
0.0
  3
*D5656
  1

  0
LINE
  5
5D0
  8
回07-寸法
  6
CONTINUOUS
 62
     5
 10
2166.329650022039
 20
158.0508864188056
 30
0.0
 11
2127.329650022039
 21
158.0508864188056
 31
0.0
  0
LINE
  5
5D1
  8
回07-寸法
  6
CONTINUOUS
 62
     5
 10
2160.329650022038
 20
147.8508864188057
 30
0.0
 11
2127.329650022039
 21
147.8508864188057
 31
0.0
  0
LINE
  5
5D2
  8
回07-寸法
  6
CONTINUOUS
 62
     5
 10
2128.329650022038
 20
146.3508864188057
 30
0.0
 11
2128.329650022038
 21
118.1956986097508
 31
0.0
  0
LINE
  5
5D3
  8
回07-寸法
  6
CONTINUOUS
 62
     5
 10
2128.329650022038
 20
158.0508864188056
 30
0.0
 11
2128.329650022038
 21
147.8508864188057
 31
0.0
  0
LINE
  5
5D4
  8
回07-寸法
  6
CONTINUOUS
 62
     5
 10
2128.329650022038
 20
159.5508864188056
 30
0.0
 11
2128.329650022038
 21
161.0508864188056
 31
0.0
  0
INSERT
  5
5D5
  8
回07-寸法
  6
CONTINUOUS
 62
     5
  2
_OPEN
 10
2128.329650022038
 20
158.0508864188056
 30
0.0
 41
1.5
 42
1.5
 43
1.5
 50
270.0
  0
INSERT
  5
5D6
  8
回07-寸法
  6
CONTINUOUS
 62
     5
  2
_OPEN
 10
2128.329650022038
 20
147.8508864188057
 30
0.0
 41
1.5
 42
1.5
 43
1.5
 50
90.0
  0
INSERT
  5
5D7
  8
回07-寸法
  6
CONTINUOUS
 62
     5
 66
     1
  2
*X105105
 10
0.0
 20
0.0
 30
0.0
  0
SEQEND
  5
8F2
  8
0
  6
CONTINUOUS
 62
     7
  0
POINT
  5
5D8
  8
DEFPOINTS
  6
CONTINUOUS
 62
     0
 10
2166.329650022039
 20
158.0508864188056
 30
0.0
  0
POINT
  5
5D9
  8
DEFPOINTS
  6
CONTINUOUS
 62
     0
 10
2160.329650022038
 20
147.8508864188057
 30
0.0
  0
POINT
  5
5DA
  8
DEFPOINTS
  6
CONTINUOUS
 62
     0
 10
2128.329650022038
 20
147.8508864188057
 30
0.0
  0
ENDBLK
  5
5DC
  8
0
  6
CONTINUOUS
 62
     7
  0
BLOCK
  8
0
  2
*D5757
 70
     1
 10
0.0
 20
0.0
 30
0.0
  3
*D5757
  1

  0
LINE
  5
5DE
  8
回07-寸法
  6
CONTINUOUS
 62
     5
 10
2168.979650022038
 20
160.9508864188056
 30
0.0
 11
2143.329650022039
 21
160.9508864188056
 31
0.0
  0
LINE
  5
5DF
  8
回07-寸法
  6
CONTINUOUS
 62
     5
 10
2160.329650022038
 20
147.8508864188057
 30
0.0
 11
2143.329650022039
 21
147.8508864188057
 31
0.0
  0
LINE
  5
5E0
  8
回07-寸法
  6
CONTINUOUS
 62
     5
 10
2144.329650022038
 20
146.3508864188057
 30
0.0
 11
2144.329650022038
 21
136.4473330282127
 31
0.0
  0
LINE
  5
5E1
  8
回07-寸法
  6
CONTINUOUS
 62
     5
 10
2144.329650022038
 20
160.9508864188056
 30
0.0
 11
2144.329650022038
 21
147.8508864188057
 31
0.0
  0
LINE
  5
5E2
  8
回07-寸法
  6
CONTINUOUS
 62
     5
 10
2144.329650022038
 20
162.4508864188056
 30
0.0
 11
2144.329650022038
 21
163.9508864188056
 31
0.0
  0
INSERT
  5
5E3
  8
回07-寸法
  6
CONTINUOUS
 62
     5
  2
_OPEN
 10
2144.329650022038
 20
160.9508864188056
 30
0.0
 41
1.5
 42
1.5
 43
1.5
 50
270.0
  0
INSERT
  5
5E4
  8
回07-寸法
  6
CONTINUOUS
 62
     5
  2
_OPEN
 10
2144.329650022038
 20
147.8508864188057
 30
0.0
 41
1.5
 42
1.5
 43
1.5
 50
90.0
  0
TEXT
  5
5E5
  8
回07-寸法
  6
CONTINUOUS
 62
     5
 10
2143.829650022039
 20
136.4973330282128
 30
0.0
 40
3.0
  1
13.1
 50
90.0
  0
POINT
  5
5E6
  8
DEFPOINTS
  6
CONTINUOUS
 62
     0
 10
2168.979650022038
 20
160.9508864188056
 30
0.0
  0
POINT
  5
5E7
  8
DEFPOINTS
  6
CONTINUOUS
 62
     0
 10
2160.329650022038
 20
147.8508864188057
 30
0.0
  0
POINT
  5
5E8
  8
DEFPOINTS
  6
CONTINUOUS
 62
     0
 10
2144.329650022038
 20
147.8508864188057
 30
0.0
  0
ENDBLK
  5
5EA
  8
0
  6
CONTINUOUS
 62
     7
  0
BLOCK
  8
0
  2
*D5858
 70
     1
 10
0.0
 20
0.0
 30
0.0
  3
*D5858
  1

  0
LINE
  5
5EC
  8
回07-寸法
  6
CONTINUOUS
 62
     5
 10
2166.829650022039
 20
158.5508864188056
 30
0.0
 11
2135.329650022038
 21
158.5508864188056
 31
0.0
  0
LINE
  5
5ED
  8
回07-寸法
  6
CONTINUOUS
 62
     5
 10
2160.329650022038
 20
147.8508864188057
 30
0.0
 11
2135.329650022038
 21
147.8508864188057
 31
0.0
  0
LINE
  5
5EE
  8
回07-寸法
  6
CONTINUOUS
 62
     5
 10
2136.329650022039
 20
146.3508864188057
 30
0.0
 11
2136.329650022039
 21
136.7508864188059
 31
0.0
  0
LINE
  5
5EF
  8
回07-寸法
  6
CONTINUOUS
 62
     5
 10
2136.329650022039
 20
158.5508864188056
 30
0.0
 11
2136.329650022039
 21
147.8508864188057
 31
0.0
  0
LINE
  5
5F0
  8
回07-寸法
  6
CONTINUOUS
 62
     5
 10
2136.329650022039
 20
160.0508864188056
 30
0.0
 11
2136.329650022039
 21
161.5508864188056
 31
0.0
  0
INSERT
  5
5F1
  8
回07-寸法
  6
CONTINUOUS
 62
     5
  2
_OPEN
 10
2136.329650022039
 20
158.5508864188056
 30
0.0
 41
1.5
 42
1.5
 43
1.5
 50
270.0
  0
INSERT
  5
5F2
  8
回07-寸法
  6
CONTINUOUS
 62
     5
  2
_OPEN
 10
2136.329650022039
 20
147.8508864188057
 30
0.0
 41
1.5
 42
1.5
 43
1.5
 50
90.0
  0
TEXT
  5
5F3
  8
回07-寸法
  6
CONTINUOUS
 62
     5
 10
2135.829650022039
 20
136.8008864188061
 30
0.0
 40
3.0
  1
10.7
 50
90.0
  0
POINT
  5
5F4
  8
DEFPOINTS
  6
CONTINUOUS
 62
     0
 10
2166.829650022039
 20
158.5508864188056
 30
0.0
  0
POINT
  5
5F5
  8
DEFPOINTS
  6
CONTINUOUS
 62
     0
 10
2160.329650022038
 20
147.8508864188057
 30
0.0
  0
POINT
  5
5F6
  8
DEFPOINTS
  6
CONTINUOUS
 62
     0
 10
2136.329650022039
 20
147.8508864188057
 30
0.0
  0
ENDBLK
  5
5F8
  8
0
  6
CONTINUOUS
 62
     7
  0
BLOCK
  8
0
  2
*D5959
 70
     1
 10
0.0
 20
0.0
 30
0.0
  3
*D5959
  1

  0
LINE
  5
5FA
  8
回08-記事
  6
CONTINUOUS
 62
     5
 10
2435.448513954133
 20
47.85493478961696
 30
0.0
 11
2435.448513954133
 21
39.40702720876934
 31
0.0
  0
LINE
  5
5FB
  8
回08-記事
  6
CONTINUOUS
 62
     5
 10
2437.948513954133
 20
47.85493478961696
 30
0.0
 11
2437.948513954133
 21
39.40702720876934
 31
0.0
  0
LINE
  5
5FC
  8
回08-記事
  6
CONTINUOUS
 62
     5
 10
2439.448513954133
 20
40.40702720876932
 30
0.0
 11
2452.501171158858
 21
40.40702720876932
 31
0.0
  0
LINE
  5
5FD
  8
回08-記事
  6
CONTINUOUS
 62
     5
 10
2435.448513954133
 20
40.40702720876932
 30
0.0
 11
2437.948513954133
 21
40.40702720876932
 31
0.0
  0
LINE
  5
5FE
  8
回08-記事
  6
CONTINUOUS
 62
     5
 10
2433.948513954133
 20
40.40702720876932
 30
0.0
 11
2432.448513954133
 21
40.40702720876932
 31
0.0
  0
INSERT
  5
5FF
  8
回08-記事
  6
CONTINUOUS
 62
     5
  2
_OPEN
 10
2435.448513954133
 20
40.40702720876932
 30
0.0
 41
1.5
 42
1.5
 43
1.5
  0
INSERT
  5
600
  8
回08-記事
  6
CONTINUOUS
 62
     5
  2
_OPEN
 10
2437.948513954133
 20
40.40702720876932
 30
0.0
 41
1.5
 42
1.5
 43
1.5
 50
180.0
  0
INSERT
  5
601
  8
回08-記事
  6
CONTINUOUS
 62
     5
 66
     1
  2
*X106106
 10
0.0
 20
0.0
 30
0.0
  0
SEQEND
  5
8F8
  8
0
  6
CONTINUOUS
 62
     7
  0
POINT
  5
602
  8
DEFPOINTS
  6
CONTINUOUS
 62
     0
 10
2435.448513954133
 20
47.85493478961696
 30
0.0
  0
POINT
  5
603
  8
DEFPOINTS
  6
CONTINUOUS
 62
     0
 10
2437.948513954133
 20
47.85493478961696
 30
0.0
  0
POINT
  5
604
  8
DEFPOINTS
  6
CONTINUOUS
 62
     0
 10
2437.948513954133
 20
40.40702720876932
 30
0.0
  0
ENDBLK
  5
606
  8
0
  6
CONTINUOUS
 62
     7
  0
BLOCK
  8
0
  2
*D6060
 70
     1
 10
0.0
 20
0.0
 30
0.0
  3
*D6060
  1

  0
LINE
  5
608
  8
回08-記事
  6
CONTINUOUS
 62
     5
 10
2430.555329735163
 20
47.85493478961696
 30
0.0
 11
2430.555329735163
 21
42.20477673883677
 31
0.0
  0
LINE
  5
609
  8
回08-記事
  6
CONTINUOUS
 62
     5
 10
2428.055329735163
 20
47.85493478961696
 30
0.0
 11
2428.055329735163
 21
42.20477673883677
 31
0.0
  0
LINE
  5
60A
  8
回08-記事
  6
CONTINUOUS
 62
     5
 10
2426.555329735163
 20
43.20477673883678
 30
0.0
 11
2413.502672530438
 21
43.20477673883678
 31
0.0
  0
LINE
  5
60B
  8
回08-記事
  6
CONTINUOUS
 62
     5
 10
2430.555329735163
 20
43.20477673883678
 30
0.0
 11
2428.055329735163
 21
43.20477673883678
 31
0.0
  0
LINE
  5
60C
  8
回08-記事
  6
CONTINUOUS
 62
     5
 10
2432.055329735163
 20
43.20477673883678
 30
0.0
 11
2433.555329735163
 21
43.20477673883678
 31
0.0
  0
INSERT
  5
60D
  8
回08-記事
  6
CONTINUOUS
 62
     5
  2
_OPEN
 10
2430.555329735163
 20
43.20477673883678
 30
0.0
 41
1.5
 42
1.5
 43
1.5
 50
180.0
  0
INSERT
  5
60E
  8
回08-記事
  6
CONTINUOUS
 62
     5
  2
_OPEN
 10
2428.055329735163
 20
43.20477673883678
 30
0.0
 41
1.5
 42
1.5
 43
1.5
  0
INSERT
  5
60F
  8
回08-記事
  6
CONTINUOUS
 62
     5
 66
     1
  2
*X107107
 10
0.0
 20
0.0
 30
0.0
  0
SEQEND
  5
8FE
  8
0
  6
CONTINUOUS
 62
     7
  0
POINT
  5
610
  8
DEFPOINTS
  6
CONTINUOUS
 62
     0
 10
2430.555329735163
 20
47.85493478961696
 30
0.0
  0
POINT
  5
611
  8
DEFPOINTS
  6
CONTINUOUS
 62
     0
 10
2428.055329735163
 20
47.85493478961696
 30
0.0
  0
POINT
  5
612
  8
DEFPOINTS
  6
CONTINUOUS
 62
     0
 10
2428.055329735163
 20
43.20477673883678
 30
0.0
  0
ENDBLK
  5
614
  8
0
  6
CONTINUOUS
 62
     7
  0
BLOCK
  8
0
  2
*D6161
 70
     1
 10
0.0
 20
0.0
 30
0.0
  3
*D6161
  1

  0
LINE
  5
616
  8
回08-記事
  6
CONTINUOUS
 62
     5
 10
2430.555329735163
 20
57.85493478961697
 30
0.0
 11
2435.829862599524
 21
57.85493478961697
 31
0.0
  0
LINE
  5
617
  8
回08-記事
  6
CONTINUOUS
 62
     5
 10
2430.555329735163
 20
47.85493478961696
 30
0.0
 11
2435.829862599524
 21
47.85493478961696
 31
0.0
  0
LINE
  5
618
  8
回08-記事
  6
CONTINUOUS
 62
     5
 10
2434.829862599524
 20
56.35493478961698
 30
0.0
 11
2434.829862599524
 21
49.35493478961697
 31
0.0
  0
INSERT
  5
619
  8
回08-記事
  6
CONTINUOUS
 62
     5
  2
_OPEN
 10
2434.829862599524
 20
57.85493478961697
 30
0.0
 41
1.5
 42
1.5
 43
1.5
 50
90.0
  0
INSERT
  5
61A
  8
回08-記事
  6
CONTINUOUS
 62
     5
  2
_OPEN
 10
2434.829862599524
 20
47.85493478961696
 30
0.0
 41
1.5
 42
1.5
 43
1.5
 50
270.0
  0
TEXT
  5
61B
  8
回08-記事
  6
CONTINUOUS
 62
     5
 10
2434.229862099524
 20
50.85492478961668
 30
0.0
 40
2.00001
  1
(10)
 50
90.0
  0
POINT
  5
61C
  8
DEFPOINTS
  6
CONTINUOUS
 62
     0
 10
2430.555329735163
 20
57.85493478961697
 30
0.0
  0
POINT
  5
61D
  8
DEFPOINTS
  6
CONTINUOUS
 62
     0
 10
2430.555329735163
 20
47.85493478961696
 30
0.0
  0
POINT
  5
61E
  8
DEFPOINTS
  6
CONTINUOUS
 62
     0
 10
2434.829862599524
 20
47.85493478961696
 30
0.0
  0
ENDBLK
  5
620
  8
0
  6
CONTINUOUS
 62
     7
  0
BLOCK
  8
0
  2
*D6262
 70
     1
 10
0.0
 20
0.0
 30
0.0
  3
*D6262
  1

  0
LINE
  5
622
  8
回08-記事
  6
CONTINUOUS
 62
     5
 10
2437.948513954133
 20
47.85493478961696
 30
0.0
 11
2451.223099520051
 21
47.85493478961696
 31
0.0
  0
LINE
  5
623
  8
回08-記事
  6
CONTINUOUS
 62
     5
 10
2438.648513954133
 20
52.85493478961697
 30
0.0
 11
2451.223099520051
 21
52.85493478961697
 31
0.0
  0
LINE
  5
624
  8
回08-記事
  6
CONTINUOUS
 62
     5
 10
2450.22309952005
 20
49.35493478961697
 30
0.0
 11
2450.22309952005
 21
51.35493478961698
 31
0.0
  0
INSERT
  5
625
  8
回08-記事
  6
CONTINUOUS
 62
     5
  2
_OPEN
 10
2450.22309952005
 20
47.85493478961696
 30
0.0
 41
1.5
 42
1.5
 43
1.5
 50
270.0
  0
INSERT
  5
626
  8
回08-記事
  6
CONTINUOUS
 62
     5
  2
_OPEN
 10
2450.22309952005
 20
52.85493478961697
 30
0.0
 41
1.5
 42
1.5
 43
1.5
 50
90.0
  0
TEXT
  5
627
  8
回08-記事
  6
CONTINUOUS
 62
     5
 10
2449.72309952005
 20
49.30493478961715
 30
0.0
 40
3.0
  1
5
 50
90.0
  0
POINT
  5
628
  8
DEFPOINTS
  6
CONTINUOUS
 62
     0
 10
2437.948513954133
 20
47.85493478961696
 30
0.0
  0
POINT
  5
629
  8
DEFPOINTS
  6
CONTINUOUS
 62
     0
 10
2438.648513954133
 20
52.85493478961697
 30
0.0
  0
POINT
  5
62A
  8
DEFPOINTS
  6
CONTINUOUS
 62
     0
 10
2450.22309952005
 20
52.85493478961697
 30
0.0
  0
ENDBLK
  5
62C
  8
0
  6
CONTINUOUS
 62
     7
  0
BLOCK
  8
0
  2
*D6363
 70
     1
 10
0.0
 20
0.0
 30
0.0
  3
*D6363
  1

  0
LINE
  5
62E
  8
回08-記事
  6
CONTINUOUS
 62
     5
 10
2428.055329735163
 20
47.85493478961696
 30
0.0
 11
2419.09391956619
 21
47.85493478961696
 31
0.0
  0
LINE
  5
62F
  8
回08-記事
  6
CONTINUOUS
 62
     5
 10
2427.355329735163
 20
52.85493478961697
 30
0.0
 11
2419.09391956619
 21
52.85493478961697
 31
0.0
  0
LINE
  5
630
  8
回08-記事
  6
CONTINUOUS
 62
     5
 10
2420.09391956619
 20
49.35493478961697
 30
0.0
 11
2420.09391956619
 21
51.35493478961698
 31
0.0
  0
INSERT
  5
631
  8
回08-記事
  6
CONTINUOUS
 62
     5
  2
_OPEN
 10
2420.09391956619
 20
47.85493478961696
 30
0.0
 41
1.5
 42
1.5
 43
1.5
 50
270.0
  0
INSERT
  5
632
  8
回08-記事
  6
CONTINUOUS
 62
     5
  2
_OPEN
 10
2420.09391956619
 20
52.85493478961697
 30
0.0
 41
1.5
 42
1.5
 43
1.5
 50
90.0
  0
TEXT
  5
633
  8
回08-記事
  6
CONTINUOUS
 62
     5
 10
2419.593919566191
 20
49.30493478961715
 30
0.0
 40
3.0
  1
5
 50
90.0
  0
POINT
  5
634
  8
DEFPOINTS
  6
CONTINUOUS
 62
     0
 10
2428.055329735163
 20
47.85493478961696
 30
0.0
  0
POINT
  5
635
  8
DEFPOINTS
  6
CONTINUOUS
 62
     0
 10
2427.355329735163
 20
52.85493478961697
 30
0.0
  0
POINT
  5
636
  8
DEFPOINTS
  6
CONTINUOUS
 62
     0
 10
2420.09391956619
 20
52.85493478961697
 30
0.0
  0
ENDBLK
  5
638
  8
0
  6
CONTINUOUS
 62
     7
  0
BLOCK
  8
0
  2
*D6464
 70
     1
 10
0.0
 20
0.0
 30
0.0
  3
*D6464
  1

  0
LINE
  5
63A
  8
回07-寸法
  6
CONTINUOUS
 62
     5
 10
2424.055329735163
 20
328.2508864188056
 30
0.0
 11
2424.055329735163
 21
336.2539103725955
 31
0.0
  0
LINE
  5
63B
  8
回07-寸法
  6
CONTINUOUS
 62
     5
 10
2444.948513954133
 20
328.7508864188056
 30
0.0
 11
2444.948513954133
 21
336.2539103725955
 31
0.0
  0
LINE
  5
63C
  8
回07-寸法
  6
CONTINUOUS
 62
     5
 10
2425.555329735163
 20
335.2539103725955
 30
0.0
 11
2443.448513954133
 21
335.2539103725955
 31
0.0
  0
INSERT
  5
63D
  8
回07-寸法
  6
CONTINUOUS
 62
     5
  2
_OPEN
 10
2424.055329735163
 20
335.2539103725955
 30
0.0
 41
1.5
 42
1.5
 43
1.5
 50
180.0
  0
INSERT
  5
63E
  8
回07-寸法
  6
CONTINUOUS
 62
     5
  2
_OPEN
 10
2444.948513954133
 20
335.2539103725955
 30
0.0
 41
1.5
 42
1.5
 43
1.5
  0
INSERT
  5
63F
  8
回07-寸法
  6
CONTINUOUS
 62
     5
 66
     1
  2
*X108108
 10
0.0
 20
0.0
 30
0.0
  0
SEQEND
  5
904
  8
0
  6
CONTINUOUS
 62
     7
  0
POINT
  5
640
  8
DEFPOINTS
  6
CONTINUOUS
 62
     0
 10
2424.055329735163
 20
328.2508864188056
 30
0.0
  0
POINT
  5
641
  8
DEFPOINTS
  6
CONTINUOUS
 62
     0
 10
2444.948513954133
 20
328.7508864188056
 30
0.0
  0
POINT
  5
642
  8
DEFPOINTS
  6
CONTINUOUS
 62
     0
 10
2444.948513954133
 20
335.2539103725955
 30
0.0
  0
ENDBLK
  5
644
  8
0
  6
CONTINUOUS
 62
     7
  0
BLOCK
  8
0
  2
*D6565
 70
     1
 10
0.0
 20
0.0
 30
0.0
  3
*D6565
  1

  0
LINE
  5
646
  8
回07-寸法
  6
CONTINUOUS
 62
     5
 10
2294.328510866481
 20
47.85493478961572
 30
0.0
 11
2323.780010037111
 21
47.85493478961572
 31
0.0
  0
LINE
  5
648
  8
回07-寸法
  6
CONTINUOUS
 62
     5
 10
2301.57963618193
 20
147.8508864188054
 30
0.0
 11
2323.780010037111
 21
147.8508864188054
 31
0.0
  0
LINE
  5
649
  8
回07-寸法
  6
CONTINUOUS
 62
     5
 10
2322.780010037112
 20
49.35493478961571
 30
0.0
 11
2322.780010037112
 21
146.3508864188054
 31
0.0
  0
INSERT
  5
64A
  8
回07-寸法
  6
CONTINUOUS
 62
     5
  2
_OPEN
 10
2322.780010037112
 20
47.85493478961572
 30
0.0
 41
1.5
 42
1.5
 43
1.5
 50
270.0
  0
INSERT
  5
64B
  8
回07-寸法
  6
CONTINUOUS
 62
     5
  2
_OPEN
 10
2322.780010037112
 20
147.8508864188054
 30
0.0
 41
1.5
 42
1.5
 43
1.5
 50
90.0
  0
INSERT
  5
64C
  8
回07-寸法
  6
CONTINUOUS
 62
     5
 66
     1
  2
*X109109
 10
0.0
 20
0.0
 30
0.0
  0
SEQEND
  5
90A
  8
0
  6
CONTINUOUS
 62
     7
  0
POINT
  5
64D
  8
DEFPOINTS
  6
CONTINUOUS
 62
     0
 10
2294.328510866481
 20
47.85493478961572
 30
0.0
  0
POINT
  5
64E
  8
DEFPOINTS
  6
CONTINUOUS
 62
     0
 10
2301.57963618193
 20
147.8508864188054
 30
0.0
  0
POINT
  5
64F
  8
DEFPOINTS
  6
CONTINUOUS
 62
     0
 10
2322.780010037112
 20
147.8508864188054
 30
0.0
  0
ENDBLK
  5
651
  8
0
  6
CONTINUOUS
 62
     7
  0
BLOCK
  8
0
  2
*D6666
 70
     1
 10
0.0
 20
0.0
 30
0.0
  3
*D6666
  1

  0
LINE
  5
653
  8
回07-寸法
  6
CONTINUOUS
 62
     5
 10
2274.579636181929
 20
144.7054166917566
 30
0.0
 11
2274.579636181929
 21
120.8979563488838
 31
0.0
  0
LINE
  5
655
  8
回07-寸法
  6
CONTINUOUS
 62
     5
 10
2301.57963618193
 20
144.7094650625674
 30
0.0
 11
2301.57963618193
 21
120.8979563488838
 31
0.0
  0
LINE
  5
656
  8
回07-寸法
  6
CONTINUOUS
 62
     5
 10
2303.07963618193
 20
121.8979563488838
 30
0.0
 11
2310.043120433898
 21
121.8979563488838
 31
0.0
  0
LINE
  5
657
  8
回07-寸法
  6
CONTINUOUS
 62
     5
 10
2274.579636181929
 20
121.8979563488838
 30
0.0
 11
2301.57963618193
 21
121.8979563488838
 31
0.0
  0
LINE
  5
658
  8
回07-寸法
  6
CONTINUOUS
 62
     5
 10
2273.079636181929
 20
121.8979563488838
 30
0.0
 11
2271.579636181929
 21
121.8979563488838
 31
0.0
  0
INSERT
  5
659
  8
回07-寸法
  6
CONTINUOUS
 62
     5
  2
_OPEN
 10
2274.579636181929
 20
121.8979563488838
 30
0.0
 41
1.5
 42
1.5
 43
1.5
  0
INSERT
  5
65A
  8
回07-寸法
  6
CONTINUOUS
 62
     5
  2
_OPEN
 10
2301.57963618193
 20
121.8979563488838
 30
0.0
 41
1.5
 42
1.5
 43
1.5
 50
180.0
  0
TEXT
  5
65B
  8
回07-寸法
  6
CONTINUOUS
 62
     5
 10
2305.793120433898
 20
122.3979563488838
 30
0.0
 40
3.0
  1
27
  0
POINT
  5
65C
  8
DEFPOINTS
  6
CONTINUOUS
 62
     0
 10
2274.579636181929
 20
144.7054166917566
 30
0.0
  0
POINT
  5
65D
  8
DEFPOINTS
  6
CONTINUOUS
 62
     0
 10
2301.57963618193
 20
144.7094650625674
 30
0.0
  0
POINT
  5
65E
  8
DEFPOINTS
  6
CONTINUOUS
 62
     0
 10
2301.57963618193
 20
121.8979563488838
 30
0.0
  0
ENDBLK
  5
660
  8
0
  6
CONTINUOUS
 62
     7
  0
BLOCK
  8
0
  2
*D6767
 70
     1
 10
0.0
 20
0.0
 30
0.0
  3
*D6767
  1

  0
LINE
  5
662
  8
回07-寸法
  6
CONTINUOUS
 62
     5
 10
2273.57963618193
 20
144.633410647212
 30
0.0
 11
2273.57963618193
 21
124.2608212773412
 31
0.0
  0
LINE
  5
663
  8
回07-寸法
  6
CONTINUOUS
 62
     5
 10
2238.579636181929
 20
144.6374590180228
 30
0.0
 11
2238.579636181929
 21
124.2608212773412
 31
0.0
  0
LINE
  5
664
  8
回07-寸法
  6
CONTINUOUS
 62
     5
 10
2237.079636181929
 20
125.2608212773412
 30
0.0
 11
2229.774941490823
 21
125.2608212773412
 31
0.0
  0
LINE
  5
665
  8
回07-寸法
  6
CONTINUOUS
 62
     5
 10
2273.57963618193
 20
125.2608212773412
 30
0.0
 11
2238.579636181929
 21
125.2608212773412
 31
0.0
  0
LINE
  5
666
  8
回07-寸法
  6
CONTINUOUS
 62
     5
 10
2275.07963618193
 20
125.2608212773412
 30
0.0
 11
2276.57963618193
 21
125.2608212773412
 31
0.0
  0
INSERT
  5
667
  8
回07-寸法
  6
CONTINUOUS
 62
     5
  2
_OPEN
 10
2273.57963618193
 20
125.2608212773412
 30
0.0
 41
1.5
 42
1.5
 43
1.5
 50
180.0
  0
INSERT
  5
668
  8
回07-寸法
  6
CONTINUOUS
 62
     5
  2
_OPEN
 10
2238.579636181929
 20
125.2608212773412
 30
0.0
 41
1.5
 42
1.5
 43
1.5
  0
TEXT
  5
669
  8
回07-寸法
  6
CONTINUOUS
 62
     5
 10
2229.824941490823
 20
125.7608212773412
 30
0.0
 40
3.0
  1
35
  0
POINT
  5
66A
  8
DEFPOINTS
  6
CONTINUOUS
 62
     0
 10
2273.57963618193
 20
144.633410647212
 30
0.0
  0
POINT
  5
66B
  8
DEFPOINTS
  6
CONTINUOUS
 62
     0
 10
2238.579636181929
 20
144.6374590180228
 30
0.0
  0
POINT
  5
66C
  8
DEFPOINTS
  6
CONTINUOUS
 62
     0
 10
2238.579636181929
 20
125.2608212773412
 30
0.0
  0
ENDBLK
  5
66E
  8
0
  6
CONTINUOUS
 62
     7
  0
BLOCK
  8
0
  2
*D6868
 70
     1
 10
0.0
 20
0.0
 30
0.0
  3
*D6868
  1

  0
LINE
  5
670
  8
回07-寸法
  6
CONTINUOUS
 62
     5
 10
2301.57963618193
 20
147.8508864188051
 30
0.0
 11
2316.17193736961
 21
147.8508864188051
 31
0.0
  0
LINE
  5
671
  8
回07-寸法
  6
CONTINUOUS
 62
     5
 10
2294.828510866481
 20
137.5441261847461
 30
0.0
 11
2316.17193736961
 21
137.5441261847461
 31
0.0
  0
LINE
  5
672
  8
回07-寸法
  6
CONTINUOUS
 62
     5
 10
2315.17193736961
 20
136.0441261847461
 30
0.0
 11
2315.17193736961
 21
127.7819941503902
 31
0.0
  0
LINE
  5
673
  8
回07-寸法
  6
CONTINUOUS
 62
     5
 10
2315.17193736961
 20
147.8508864188051
 30
0.0
 11
2315.17193736961
 21
137.5441261847461
 31
0.0
  0
LINE
  5
674
  8
回07-寸法
  6
CONTINUOUS
 62
     5
 10
2315.17193736961
 20
149.3508864188052
 30
0.0
 11
2315.17193736961
 21
150.8508864188051
 31
0.0
  0
INSERT
  5
675
  8
回07-寸法
  6
CONTINUOUS
 62
     5
  2
_OPEN
 10
2315.17193736961
 20
147.8508864188051
 30
0.0
 41
1.5
 42
1.5
 43
1.5
 50
270.0
  0
INSERT
  5
676
  8
回07-寸法
  6
CONTINUOUS
 62
     5
  2
_OPEN
 10
2315.17193736961
 20
137.5441261847461
 30
0.0
 41
1.5
 42
1.5
 43
1.5
 50
90.0
  0
TEXT
  5
677
  8
回07-寸法
  6
CONTINUOUS
 62
     5
 10
2314.67193736961
 20
127.8319941503905
 30
0.0
 40
3.0
  1
10.3
 50
90.0
  0
POINT
  5
678
  8
DEFPOINTS
  6
CONTINUOUS
 62
     0
 10
2301.57963618193
 20
147.8508864188051
 30
0.0
  0
POINT
  5
679
  8
DEFPOINTS
  6
CONTINUOUS
 62
     0
 10
2294.828510866481
 20
137.5441261847461
 30
0.0
  0
POINT
  5
67A
  8
DEFPOINTS
  6
CONTINUOUS
 62
     0
 10
2315.17193736961
 20
137.5441261847461
 30
0.0
  0
ENDBLK
  5
67C
  8
0
  6
CONTINUOUS
 62
     7
  0
BLOCK
  8
0
  2
*D6969
 70
     1
 10
0.0
 20
0.0
 30
0.0
  3
*D6969
  1

  0
LINE
  5
67E
  8
回07-寸法
  6
CONTINUOUS
 62
     5
 10
2301.57963618193
 20
147.8508864188051
 30
0.0
 11
2308.835832179013
 21
147.8508864188051
 31
0.0
  0
LINE
  5
67F
  8
回07-寸法
  6
CONTINUOUS
 62
     5
 10
2301.57963618193
 20
144.2952515001941
 30
0.0
 11
2308.835832179013
 21
144.2952515001941
 31
0.0
  0
LINE
  5
680
  8
回07-寸法
  6
CONTINUOUS
 62
     5
 10
2307.835832179013
 20
142.7952515001941
 30
0.0
 11
2307.835832179013
 21
131.1941589762542
 31
0.0
  0
LINE
  5
681
  8
回07-寸法
  6
CONTINUOUS
 62
     5
 10
2307.835832179013
 20
147.8508864188051
 30
0.0
 11
2307.835832179013
 21
144.2952515001941
 31
0.0
  0
LINE
  5
682
  8
回07-寸法
  6
CONTINUOUS
 62
     5
 10
2307.835832179013
 20
149.3508864188052
 30
0.0
 11
2307.835832179013
 21
150.8508864188051
 31
0.0
  0
INSERT
  5
683
  8
回07-寸法
  6
CONTINUOUS
 62
     5
  2
_OPEN
 10
2307.835832179013
 20
147.8508864188051
 30
0.0
 41
1.5
 42
1.5
 43
1.5
 50
270.0
  0
INSERT
  5
684
  8
回07-寸法
  6
CONTINUOUS
 62
     5
  2
_OPEN
 10
2307.835832179013
 20
144.2952515001941
 30
0.0
 41
1.5
 42
1.5
 43
1.5
 50
90.0
  0
TEXT
  5
685
  8
回07-寸法
  6
CONTINUOUS
 62
     5
 10
2307.335832179013
 20
131.2441589762542
 30
0.0
 40
3.0
  1
3.6
 50
90.0
  0
POINT
  5
686
  8
DEFPOINTS
  6
CONTINUOUS
 62
     0
 10
2301.57963618193
 20
147.8508864188051
 30
0.0
  0
POINT
  5
687
  8
DEFPOINTS
  6
CONTINUOUS
 62
     0
 10
2301.57963618193
 20
144.2952515001941
 30
0.0
  0
POINT
  5
688
  8
DEFPOINTS
  6
CONTINUOUS
 62
     0
 10
2307.835832179013
 20
144.2952515001941
 30
0.0
  0
ENDBLK
  5
68A
  8
0
  6
CONTINUOUS
 62
     7
  0
BLOCK
  8
0
  2
*D7070
 70
     1
 10
0.0
 20
0.0
 30
0.0
  3
*D7070
  1

  0
LINE
  5
68C
  8
回07-寸法
  6
CONTINUOUS
 62
     5
 10
2238.579636181929
 20
147.8508864188057
 30
0.0
 11
2226.814714975438
 21
147.8508864188057
 31
0.0
  0
LINE
  5
68D
  8
回07-寸法
  6
CONTINUOUS
 62
     5
 10
2252.328510866481
 20
130.4743707710979
 30
0.0
 11
2226.814714975438
 21
130.4743707710979
 31
0.0
  0
LINE
  5
68E
  8
回07-寸法
  6
CONTINUOUS
 62
     5
 10
2227.814714975438
 20
146.3508864188057
 30
0.0
 11
2227.814714975438
 21
131.9743707710979
 31
0.0
  0
INSERT
  5
68F
  8
回07-寸法
  6
CONTINUOUS
 62
     5
  2
_OPEN
 10
2227.814714975438
 20
147.8508864188057
 30
0.0
 41
1.5
 42
1.5
 43
1.5
 50
90.0
  0
INSERT
  5
690
  8
回07-寸法
  6
CONTINUOUS
 62
     5
  2
_OPEN
 10
2227.814714975438
 20
130.4743707710979
 30
0.0
 41
1.5
 42
1.5
 43
1.5
 50
270.0
  0
TEXT
  5
691
  8
回07-寸法
  6
CONTINUOUS
 62
     5
 10
2227.314714975438
 20
136.5014734429551
 30
0.0
 40
3.0
  1
17.4
 50
90.0
  0
POINT
  5
692
  8
DEFPOINTS
  6
CONTINUOUS
 62
     0
 10
2238.579636181929
 20
147.8508864188057
 30
0.0
  0
POINT
  5
693
  8
DEFPOINTS
  6
CONTINUOUS
 62
     0
 10
2252.328510866481
 20
130.4743707710979
 30
0.0
  0
POINT
  5
694
  8
DEFPOINTS
  6
CONTINUOUS
 62
     0
 10
2227.814714975438
 20
130.4743707710979
 30
0.0
  0
ENDBLK
  5
696
  8
0
  6
CONTINUOUS
 62
     7
  0
BLOCK
  8
0
  2
*D7171
 70
     1
 10
0.0
 20
0.0
 30
0.0
  3
*D7171
  1

  0
LINE
  5
698
  8
回07-寸法
  6
CONTINUOUS
 62
     5
 10
2238.579636181929
 20
147.8508864188057
 30
0.0
 11
2231.474613728561
 21
147.8508864188057
 31
0.0
  0
LINE
  5
699
  8
回07-寸法
  6
CONTINUOUS
 62
     5
 10
2238.579636181929
 20
144.2232454556494
 30
0.0
 11
2231.474613728561
 21
144.2232454556494
 31
0.0
  0
LINE
  5
69A
  8
回07-寸法
  6
CONTINUOUS
 62
     5
 10
2232.474613728561
 20
142.7232454556494
 30
0.0
 11
2232.474613728561
 21
135.9475834641797
 31
0.0
  0
LINE
  5
69B
  8
回07-寸法
  6
CONTINUOUS
 62
     5
 10
2232.474613728561
 20
147.8508864188057
 30
0.0
 11
2232.474613728561
 21
144.2232454556494
 31
0.0
  0
LINE
  5
69C
  8
回07-寸法
  6
CONTINUOUS
 62
     5
 10
2232.474613728561
 20
149.3508864188057
 30
0.0
 11
2232.474613728561
 21
150.8508864188057
 31
0.0
  0
INSERT
  5
69D
  8
回07-寸法
  6
CONTINUOUS
 62
     5
  2
_OPEN
 10
2232.474613728561
 20
147.8508864188057
 30
0.0
 41
1.5
 42
1.5
 43
1.5
 50
270.0
  0
INSERT
  5
69E
  8
回07-寸法
  6
CONTINUOUS
 62
     5
  2
_OPEN
 10
2232.474613728561
 20
144.2232454556494
 30
0.0
 41
1.5
 42
1.5
 43
1.5
 50
90.0
  0
TEXT
  5
69F
  8
回07-寸法
  6
CONTINUOUS
 62
     5
 10
2231.974613728561
 20
135.99758346418
 30
0.0
 40
3.0
  1
3.6
 50
90.0
  0
POINT
  5
6A0
  8
DEFPOINTS
  6
CONTINUOUS
 62
     0
 10
2238.579636181929
 20
147.8508864188057
 30
0.0
  0
POINT
  5
6A1
  8
DEFPOINTS
  6
CONTINUOUS
 62
     0
 10
2238.579636181929
 20
144.2232454556494
 30
0.0
  0
POINT
  5
6A2
  8
DEFPOINTS
  6
CONTINUOUS
 62
     0
 10
2232.474613728561
 20
144.2232454556494
 30
0.0
  0
ENDBLK
  5
6A4
  8
0
  6
CONTINUOUS
 62
     7
  0
BLOCK
  8
0
  2
*D7272
 70
     1
 10
0.0
 20
0.0
 30
0.0
  3
*D7272
  1

  0
LINE
  5
6A6
  8
回07-寸法
  6
CONTINUOUS
 62
     5
 10
2269.828510866481
 20
48.35088641880584
 30
0.0
 11
2269.828510866481
 21
31.85493478961681
 31
0.0
  0
LINE
  5
6A8
  8
回07-寸法
  6
CONTINUOUS
 62
     5
 10
2252.328510866481
 20
48.35088641880584
 30
0.0
 11
2252.328510866481
 21
31.85493478961681
 31
0.0
  0
LINE
  5
6A9
  8
回07-寸法
  6
CONTINUOUS
 62
     5
 10
2268.328510866481
 20
32.85493478961681
 30
0.0
 11
2253.828510866481
 21
32.85493478961681
 31
0.0
  0
INSERT
  5
6AA
  8
回07-寸法
  6
CONTINUOUS
 62
     5
  2
_OPEN
 10
2269.828510866481
 20
32.85493478961681
 30
0.0
 41
1.5
 42
1.5
 43
1.5
  0
INSERT
  5
6AB
  8
回07-寸法
  6
CONTINUOUS
 62
     5
  2
_OPEN
 10
2252.328510866481
 20
32.85493478961681
 30
0.0
 41
1.5
 42
1.5
 43
1.5
 50
180.0
  0
INSERT
  5
6AC
  8
回07-寸法
  6
CONTINUOUS
 62
     5
 66
     1
  2
*X110110
 10
0.0
 20
0.0
 30
0.0
  0
SEQEND
  5
910
  8
0
  6
CONTINUOUS
 62
     7
  0
POINT
  5
6AD
  8
DEFPOINTS
  6
CONTINUOUS
 62
     0
 10
2269.828510866481
 20
48.35088641880584
 30
0.0
  0
POINT
  5
6AE
  8
DEFPOINTS
  6
CONTINUOUS
 62
     0
 10
2252.328510866481
 20
48.35088641880584
 30
0.0
  0
POINT
  5
6AF
  8
DEFPOINTS
  6
CONTINUOUS
 62
     0
 10
2252.328510866481
 20
32.85493478961681
 30
0.0
  0
ENDBLK
  5
6B1
  8
0
  6
CONTINUOUS
 62
     7
  0
BLOCK
  8
0
  2
*D7373
 70
     1
 10
0.0
 20
0.0
 30
0.0
  3
*D7373
  1

  0
LINE
  5
6B3
  8
回07-寸法
  6
CONTINUOUS
 62
     5
 10
2294.828510866481
 20
48.35088641880495
 30
0.0
 11
2294.828510866481
 21
22.86021456147879
 31
0.0
  0
LINE
  5
6B4
  8
回07-寸法
  6
CONTINUOUS
 62
     5
 10
2281.328510866481
 20
48.35088641880584
 30
0.0
 11
2281.328510866481
 21
22.86021456147879
 31
0.0
  0
LINE
  5
6B5
  8
回07-寸法
  6
CONTINUOUS
 62
     5
 10
2296.328510866481
 20
23.86021456147879
 30
0.0
 11
2309.556572874355
 21
23.86021456147878
 31
0.0
  0
LINE
  5
6B6
  8
回07-寸法
  6
CONTINUOUS
 62
     5
 10
2294.828510866481
 20
23.86021456147879
 30
0.0
 11
2281.328510866481
 21
23.86021456147879
 31
0.0
  0
LINE
  5
6B7
  8
回07-寸法
  6
CONTINUOUS
 62
     5
 10
2279.828510866481
 20
23.86021456147879
 30
0.0
 11
2278.328510866481
 21
23.86021456147879
 31
0.0
  0
INSERT
  5
6B8
  8
回07-寸法
  6
CONTINUOUS
 62
     5
  2
_OPEN
 10
2294.828510866481
 20
23.86021456147879
 30
0.0
 41
1.5
 42
1.5
 43
1.5
 50
180.0
  0
INSERT
  5
6B9
  8
回07-寸法
  6
CONTINUOUS
 62
     5
  2
_OPEN
 10
2281.328510866481
 20
23.86021456147879
 30
0.0
 41
1.5
 42
1.5
 43
1.5
 50
360.0
  0
INSERT
  5
6BA
  8
回07-寸法
  6
CONTINUOUS
 62
     5
 66
     1
  2
*X111111
 10
0.0
 20
0.0
 30
0.0
  0
SEQEND
  5
916
  8
0
  6
CONTINUOUS
 62
     7
  0
POINT
  5
6BB
  8
DEFPOINTS
  6
CONTINUOUS
 62
     0
 10
2294.828510866481
 20
48.35088641880495
 30
0.0
  0
POINT
  5
6BC
  8
DEFPOINTS
  6
CONTINUOUS
 62
     0
 10
2281.328510866481
 20
48.35088641880584
 30
0.0
  0
POINT
  5
6BD
  8
DEFPOINTS
  6
CONTINUOUS
 62
     0
 10
2281.328510866481
 20
23.86021456147879
 30
0.0
  0
ENDBLK
  5
6BF
  8
0
  6
CONTINUOUS
 62
     7
  0
BLOCK
  8
0
  2
*D7474
 70
     1
 10
0.0
 20
0.0
 30
0.0
  3
*D7474
  1

  0
LINE
  5
6C1
  8
回07-寸法
  6
CONTINUOUS
 62
     5
 10
2238.579636181929
 20
147.8508864188057
 30
0.0
 11
2207.84391201324
 21
147.8508864188057
 31
0.0
  0
LINE
  5
6C2
  8
回07-寸法
  6
CONTINUOUS
 62
     5
 10
2252.828510866482
 20
47.85493478961663
 30
0.0
 11
2207.84391201324
 21
47.85493478961663
 31
0.0
  0
LINE
  5
6C3
  8
回07-寸法
  6
CONTINUOUS
 62
     5
 10
2208.843912013239
 20
146.3508864188057
 30
0.0
 11
2208.843912013239
 21
49.35493478961664
 31
0.0
  0
INSERT
  5
6C4
  8
回07-寸法
  6
CONTINUOUS
 62
     5
  2
_OPEN
 10
2208.843912013239
 20
147.8508864188057
 30
0.0
 41
1.5
 42
1.5
 43
1.5
 50
90.0
  0
INSERT
  5
6C5
  8
回07-寸法
  6
CONTINUOUS
 62
     5
  2
_OPEN
 10
2208.843912013239
 20
47.85493478961663
 30
0.0
 41
1.5
 42
1.5
 43
1.5
 50
270.0
  0
INSERT
  5
6C6
  8
回07-寸法
  6
CONTINUOUS
 62
     5
 66
     1
  2
*X112112
 10
0.0
 20
0.0
 30
0.0
  0
SEQEND
  5
91C
  8
0
  6
CONTINUOUS
 62
     7
  0
POINT
  5
6C7
  8
DEFPOINTS
  6
CONTINUOUS
 62
     0
 10
2238.579636181929
 20
147.8508864188057
 30
0.0
  0
POINT
  5
6C8
  8
DEFPOINTS
  6
CONTINUOUS
 62
     0
 10
2252.828510866482
 20
47.85493478961663
 30
0.0
  0
POINT
  5
6C9
  8
DEFPOINTS
  6
CONTINUOUS
 62
     0
 10
2208.843912013239
 20
47.85493478961663
 30
0.0
  0
ENDBLK
  5
6CB
  8
0
  6
CONTINUOUS
 62
     7
  0
BLOCK
  8
0
  2
*D7575
 70
     1
 10
0.0
 20
0.0
 30
0.0
  3
*D7575
  1

  0
LINE
  5
6CD
  8
回07-寸法
  6
CONTINUOUS
 62
     5
 10
2160.329650022038
 20
147.8508864188057
 30
0.0
 11
2160.329650022038
 21
22.86021456147878
 31
0.0
  0
LINE
  5
6CE
  8
回07-寸法
  6
CONTINUOUS
 62
     5
 10
2281.328510866481
 20
48.35493478961679
 30
0.0
 11
2281.328510866481
 21
22.86021456147878
 31
0.0
  0
LINE
  5
6CF
  8
回07-寸法
  6
CONTINUOUS
 62
     5
 10
2161.829650022038
 20
23.86021456147878
 30
0.0
 11
2279.828510866481
 21
23.86021456147878
 31
0.0
  0
INSERT
  5
6D0
  8
回07-寸法
  6
CONTINUOUS
 62
     5
  2
_OPEN
 10
2160.329650022038
 20
23.86021456147878
 30
0.0
 41
1.5
 42
1.5
 43
1.5
 50
180.0
  0
INSERT
  5
6D1
  8
回07-寸法
  6
CONTINUOUS
 62
     5
  2
_OPEN
 10
2281.328510866481
 20
23.86021456147878
 30
0.0
 41
1.5
 42
1.5
 43
1.5
  0
TEXT
  5
6D2
  8
回07-寸法
  6
CONTINUOUS
 62
     5
 10
2217.079080444261
 20
24.51021456147879
 30
0.0
 40
3.0
  1
(121)
  0
POINT
  5
6D3
  8
DEFPOINTS
  6
CONTINUOUS
 62
     0
 10
2160.329650022038
 20
147.8508864188057
 30
0.0
  0
POINT
  5
6D4
  8
DEFPOINTS
  6
CONTINUOUS
 62
     0
 10
2281.328510866481
 20
48.35493478961679
 30
0.0
  0
POINT
  5
6D5
  8
DEFPOINTS
  6
CONTINUOUS
 62
     0
 10
2281.328510866481
 20
23.86021456147878
 30
0.0
  0
ENDBLK
  5
6D7
  8
0
  6
CONTINUOUS
 62
     7
  0
BLOCK
  8
0
  2
*D7676
 70
     1
 10
0.0
 20
0.0
 30
0.0
  3
*D7676
  1

  0
LINE
  5
6D9
  8
回07-寸法
  6
CONTINUOUS
 62
     5
 10
2252.328510866481
 20
48.35493478961679
 30
0.0
 11
2252.328510866481
 21
31.85493478961668
 31
0.0
  0
LINE
  5
6DA
  8
回07-寸法
  6
CONTINUOUS
 62
     5
 10
2160.329650022038
 20
147.8508864188055
 30
0.0
 11
2160.329650022038
 21
31.8549347896167
 31
0.0
  0
LINE
  5
6DB
  8
回07-寸法
  6
CONTINUOUS
 62
     5
 10
2250.828510866481
 20
32.85493478961668
 30
0.0
 11
2161.829650022038
 21
32.85493478961669
 31
0.0
  0
INSERT
  5
6DC
  8
回07-寸法
  6
CONTINUOUS
 62
     5
  2
_OPEN
 10
2252.328510866481
 20
32.85493478961668
 30
0.0
 41
1.5
 42
1.5
 43
1.5
 50
360.0
  0
INSERT
  5
6DD
  8
回07-寸法
  6
CONTINUOUS
 62
     5
  2
_OPEN
 10
2160.329650022038
 20
32.85493478961669
 30
0.0
 41
1.5
 42
1.5
 43
1.5
 50
180.0
  0
TEXT
  5
6DE
  8
回07-寸法
  6
CONTINUOUS
 62
     5
 10
2203.02366489147
 20
33.50493478961669
 30
0.0
 40
3.0
  1
(92)
  0
POINT
  5
6DF
  8
DEFPOINTS
  6
CONTINUOUS
 62
     0
 10
2252.328510866481
 20
48.35493478961679
 30
0.0
  0
POINT
  5
6E0
  8
DEFPOINTS
  6
CONTINUOUS
 62
     0
 10
2160.329650022038
 20
147.8508864188055
 30
0.0
  0
POINT
  5
6E1
  8
DEFPOINTS
  6
CONTINUOUS
 62
     0
 10
2160.329650022038
 20
32.85493478961669
 30
0.0
  0
ENDBLK
  5
6E3
  8
0
  6
CONTINUOUS
 62
     7
  0
BLOCK
  8
0
  2
*X7777
 70
     1
 10
0.0
 20
0.0
 30
0.0
  3
*X7777
  1

  0
TEXT
  5
76F
  8
回08-記事
  6
CONTINUOUS
 62
     5
 10
2214.133110404103
 20
113.6534783518651
 30
0.0
 40
4.0
  1
･Part No. label
  0
TEXT
  5
770
  8
回08-記事
  6
CONTINUOUS
 62
     5
 10
2214.133110404103
 20
106.9868116851985
 30
0.0
 40
4.0
  1
･Lot label
  0
ENDBLK
  5
772
  8
0
  6
CONTINUOUS
 62
     7
  0
BLOCK
  8
0
  2
*X7878
 70
     1
 10
0.0
 20
0.0
 30
0.0
  3
*X7878
  1

  0
INSERT
  5
775
  8
回08-記事
  6
CONTINUOUS
 62
     5
  2
_OPEN
 10
2259.709442896649
 20
109.2518546077121
 30
0.0
 41
1.5
 42
1.5
 43
1.5
 50
19.88883671840717
  0
LINE
  5
776
  8
回08-記事
  6
CONTINUOUS
 62
     5
 10
2258.298911255609
 20
108.7415600950749
 30
0.0
 11
2252.066443737436
 21
106.4868116851985
 31
0.0
  0
LINE
  5
777
  8
回08-記事
  6
CONTINUOUS
 62
     5
 10
2252.066443737436
 20
106.4868116851985
 30
0.0
 11
2214.933110404103
 21
106.4868116851985
 31
0.0
  0
ENDBLK
  5
779
  8
0
  6
CONTINUOUS
 62
     7
  0
BLOCK
  8
0
  2
*X7979
 70
     1
 10
0.0
 20
0.0
 30
0.0
  3
*X7979
  1

  0
LINE
  5
786
  8
回08-記事
  6
PHANTOM2
 62
     7
 10
2276.408864715771
 20
144.2191727184142
 30
0.0
 11
2275.07963618193
 21
145.5484012522565
 31
0.0
1001
GRADIENTCOLOR1ACI
1070
     5
1001
GRADIENTCOLOR2ACI
1070
     2
1001
ACAD
1010
0.0
1020
0.0
1030
0.0
  0
LINE
  5
787
  8
回08-記事
  6
PHANTOM2
 62
     7
 10
2277.755903133932
 20
144.2191727184142
 30
0.0
 11
2275.07963618193
 21
146.8954396704168
 31
0.0
1001
GRADIENTCOLOR1ACI
1070
     5
1001
GRADIENTCOLOR2ACI
1070
     2
1001
ACAD
1010
0.0
1020
0.0
1030
0.0
  0
LINE
  5
788
  8
回08-記事
  6
PHANTOM2
 62
     7
 10
2279.102941552093
 20
144.2191727184142
 30
0.0
 11
2275.07963618193
 21
148.2424780885778
 31
0.0
1001
GRADIENTCOLOR1ACI
1070
     5
1001
GRADIENTCOLOR2ACI
1070
     2
1001
ACAD
1010
0.0
1020
0.0
1030
0.0
  0
LINE
  5
789
  8
回08-記事
  6
PHANTOM2
 62
     7
 10
2280.449979970254
 20
144.2191727184142
 30
0.0
 11
2275.07963618193
 21
149.5895165067379
 31
0.0
1001
GRADIENTCOLOR1ACI
1070
     5
1001
GRADIENTCOLOR2ACI
1070
     2
1001
ACAD
1010
0.0
1020
0.0
1030
0.0
  0
LINE
  5
78A
  8
回08-記事
  6
PHANTOM2
 62
     7
 10
2281.797018388413
 20
144.2191727184145
 30
0.0
 11
2275.07963618193
 21
150.9365549248989
 31
0.0
1001
GRADIENTCOLOR1ACI
1070
     5
1001
GRADIENTCOLOR2ACI
1070
     2
1001
ACAD
1010
0.0
1020
0.0
1030
0.0
  0
LINE
  5
78B
  8
回08-記事
  6
PHANTOM2
 62
     7
 10
2283.144056806575
 20
144.2191727184145
 30
0.0
 11
2275.944056806574
 21
151.4191727184145
 31
0.0
1001
GRADIENTCOLOR1ACI
1070
     5
1001
GRADIENTCOLOR2ACI
1070
     2
1001
ACAD
1010
0.0
1020
0.0
1030
0.0
  0
LINE
  5
78C
  8
回08-記事
  6
PHANTOM2
 62
     7
 10
2284.491095224735
 20
144.2191727184145
 30
0.0
 11
2277.291095224736
 21
151.4191727184145
 31
0.0
1001
GRADIENTCOLOR1ACI
1070
     5
1001
GRADIENTCOLOR2ACI
1070
     2
1001
ACAD
1010
0.0
1020
0.0
1030
0.0
  0
LINE
  5
78D
  8
回08-記事
  6
PHANTOM2
 62
     7
 10
2285.838133642895
 20
144.2191727184145
 30
0.0
 11
2278.638133642895
 21
151.4191727184145
 31
0.0
1001
GRADIENTCOLOR1ACI
1070
     5
1001
GRADIENTCOLOR2ACI
1070
     2
1001
ACAD
1010
0.0
1020
0.0
1030
0.0
  0
LINE
  5
78E
  8
回08-記事
  6
PHANTOM2
 62
     7
 10
2287.185172061056
 20
144.2191727184142
 30
0.0
 11
2279.985172061056
 21
151.419172718414
 31
0.0
1001
GRADIENTCOLOR1ACI
1070
     5
1001
GRADIENTCOLOR2ACI
1070
     2
1001
ACAD
1010
0.0
1020
0.0
1030
0.0
  0
LINE
  5
78F
  8
回08-記事
  6
PHANTOM2
 62
     7
 10
2288.532210479217
 20
144.2191727184145
 30
0.0
 11
2281.332210479217
 21
151.4191727184145
 31
0.0
1001
GRADIENTCOLOR1ACI
1070
     5
1001
GRADIENTCOLOR2ACI
1070
     2
1001
ACAD
1010
0.0
1020
0.0
1030
0.0
  0
LINE
  5
790
  8
回08-記事
  6
PHANTOM2
 62
     7
 10
2289.879248897377
 20
144.2191727184142
 30
0.0
 11
2282.679248897377
 21
151.4191727184143
 31
0.0
1001
GRADIENTCOLOR1ACI
1070
     5
1001
GRADIENTCOLOR2ACI
1070
     2
1001
ACAD
1010
0.0
1020
0.0
1030
0.0
  0
LINE
  5
791
  8
回08-記事
  6
PHANTOM2
 62
     7
 10
2291.226287315538
 20
144.219172718414
 30
0.0
 11
2284.026287315537
 21
151.4191727184145
 31
0.0
1001
GRADIENTCOLOR1ACI
1070
     5
1001
GRADIENTCOLOR2ACI
1070
     2
1001
ACAD
1010
0.0
1020
0.0
1030
0.0
  0
LINE
  5
792
  8
回08-記事
  6
PHANTOM2
 62
     7
 10
2292.573325733698
 20
144.2191727184142
 30
0.0
 11
2285.373325733698
 21
151.4191727184143
 31
0.0
1001
GRADIENTCOLOR1ACI
1070
     5
1001
GRADIENTCOLOR2ACI
1070
     2
1001
ACAD
1010
0.0
1020
0.0
1030
0.0
  0
LINE
  5
793
  8
回08-記事
  6
PHANTOM2
 62
     7
 10
2293.920364151859
 20
144.2191727184142
 30
0.0
 11
2286.720364151859
 21
151.4191727184143
 31
0.0
1001
GRADIENTCOLOR1ACI
1070
     5
1001
GRADIENTCOLOR2ACI
1070
     2
1001
ACAD
1010
0.0
1020
0.0
1030
0.0
  0
LINE
  5
794
  8
回08-記事
  6
PHANTOM2
 62
     7
 10
2295.267402570019
 20
144.2191727184145
 30
0.0
 11
2288.067402570019
 21
151.4191727184143
 31
0.0
1001
GRADIENTCOLOR1ACI
1070
     5
1001
GRADIENTCOLOR2ACI
1070
     2
1001
ACAD
1010
0.0
1020
0.0
1030
0.0
  0
LINE
  5
795
  8
回08-記事
  6
PHANTOM2
 62
     7
 10
2296.61444098818
 20
144.2191727184142
 30
0.0
 11
2289.41444098818
 21
151.4191727184145
 31
0.0
1001
GRADIENTCOLOR1ACI
1070
     5
1001
GRADIENTCOLOR2ACI
1070
     2
1001
ACAD
1010
0.0
1020
0.0
1030
0.0
  0
LINE
  5
796
  8
回08-記事
  6
PHANTOM2
 62
     7
 10
2297.961479406341
 20
144.2191727184142
 30
0.0
 11
2290.76147940634
 21
151.4191727184143
 31
0.0
1001
GRADIENTCOLOR1ACI
1070
     5
1001
GRADIENTCOLOR2ACI
1070
     2
1001
ACAD
1010
0.0
1020
0.0
1030
0.0
  0
LINE
  5
797
  8
回08-記事
  6
PHANTOM2
 62
     7
 10
2299.308517824501
 20
144.2191727184142
 30
0.0
 11
2292.108517824501
 21
151.4191727184143
 31
0.0
1001
GRADIENTCOLOR1ACI
1070
     5
1001
GRADIENTCOLOR2ACI
1070
     2
1001
ACAD
1010
0.0
1020
0.0
1030
0.0
  0
LINE
  5
798
  8
回08-記事
  6
PHANTOM2
 62
     7
 10
2300.655556242661
 20
144.2191727184145
 30
0.0
 11
2293.455556242661
 21
151.4191727184143
 31
0.0
1001
GRADIENTCOLOR1ACI
1070
     5
1001
GRADIENTCOLOR2ACI
1070
     2
1001
ACAD
1010
0.0
1020
0.0
1030
0.0
  0
LINE
  5
799
  8
回08-記事
  6
PHANTOM2
 62
     7
 10
2301.079636181929
 20
145.142131197307
 30
0.0
 11
2294.802594660822
 21
151.4191727184143
 31
0.0
1001
GRADIENTCOLOR1ACI
1070
     5
1001
GRADIENTCOLOR2ACI
1070
     2
1001
ACAD
1010
0.0
1020
0.0
1030
0.0
  0
LINE
  5
79A
  8
回08-記事
  6
PHANTOM2
 62
     7
 10
2301.079636181929
 20
146.4891696154673
 30
0.0
 11
2296.149633078982
 21
151.4191727184145
 31
0.0
1001
GRADIENTCOLOR1ACI
1070
     5
1001
GRADIENTCOLOR2ACI
1070
     2
1001
ACAD
1010
0.0
1020
0.0
1030
0.0
  0
LINE
  5
79B
  8
回08-記事
  6
PHANTOM2
 62
     7
 10
2301.079636181929
 20
147.836208033628
 30
0.0
 11
2297.496671497143
 21
151.4191727184145
 31
0.0
1001
GRADIENTCOLOR1ACI
1070
     5
1001
GRADIENTCOLOR2ACI
1070
     2
1001
ACAD
1010
0.0
1020
0.0
1030
0.0
  0
LINE
  5
79C
  8
回08-記事
  6
PHANTOM2
 62
     7
 10
2301.079636181929
 20
149.1832464517881
 30
0.0
 11
2298.843709915304
 21
151.4191727184143
 31
0.0
1001
GRADIENTCOLOR1ACI
1070
     5
1001
GRADIENTCOLOR2ACI
1070
     2
1001
ACAD
1010
0.0
1020
0.0
1030
0.0
  0
LINE
  5
79D
  8
回08-記事
  6
PHANTOM2
 62
     7
 10
2301.079636181929
 20
150.5302848699489
 30
0.0
 11
2300.190748333465
 21
151.419172718414
 31
0.0
1001
GRADIENTCOLOR1ACI
1070
     5
1001
GRADIENTCOLOR2ACI
1070
     2
1001
ACAD
1010
0.0
1020
0.0
1030
0.0
  0
ENDBLK
  5
79F
  8
0
  6
CONTINUOUS
 62
     7
  0
BLOCK
  8
0
  2
*X8080
 70
     1
 10
0.0
 20
0.0
 30
0.0
  3
*X8080
  1

  0
LINE
  5
7A2
  8
回08-記事
  6
PHANTOM2
 62
     7
 10
2240.038827425441
 20
144.2191727184142
 30
0.0
 11
2239.07963618193
 21
145.1783639619256
 31
0.0
1001
GRADIENTCOLOR1ACI
1070
     5
1001
GRADIENTCOLOR2ACI
1070
     2
1001
ACAD
1010
0.0
1020
0.0
1030
0.0
  0
LINE
  5
7A3
  8
回08-記事
  6
PHANTOM2
 62
     7
 10
2241.385865843601
 20
144.2191727184142
 30
0.0
 11
2239.07963618193
 21
146.5254023800862
 31
0.0
1001
GRADIENTCOLOR1ACI
1070
     5
1001
GRADIENTCOLOR2ACI
1070
     2
1001
ACAD
1010
0.0
1020
0.0
1030
0.0
  0
LINE
  5
7A4
  8
回08-記事
  6
PHANTOM2
 62
     7
 10
2242.732904261762
 20
144.219172718414
 30
0.0
 11
2239.07963618193
 21
147.8724407982467
 31
0.0
1001
GRADIENTCOLOR1ACI
1070
     5
1001
GRADIENTCOLOR2ACI
1070
     2
1001
ACAD
1010
0.0
1020
0.0
1030
0.0
  0
LINE
  5
7A5
  8
回08-記事
  6
PHANTOM2
 62
     7
 10
2244.079942679922
 20
144.2191727184145
 30
0.0
 11
2239.07963618193
 21
149.219479216407
 31
0.0
1001
GRADIENTCOLOR1ACI
1070
     5
1001
GRADIENTCOLOR2ACI
1070
     2
1001
ACAD
1010
0.0
1020
0.0
1030
0.0
  0
LINE
  5
7A6
  8
回08-記事
  6
PHANTOM2
 62
     7
 10
2245.426981098083
 20
144.219172718414
 30
0.0
 11
2239.07963618193
 21
150.5665176345678
 31
0.0
1001
GRADIENTCOLOR1ACI
1070
     5
1001
GRADIENTCOLOR2ACI
1070
     2
1001
ACAD
1010
0.0
1020
0.0
1030
0.0
  0
LINE
  5
7A7
  8
回08-記事
  6
PHANTOM2
 62
     7
 10
2246.774019516244
 20
144.219172718414
 30
0.0
 11
2239.574019516243
 21
151.4191727184143
 31
0.0
1001
GRADIENTCOLOR1ACI
1070
     5
1001
GRADIENTCOLOR2ACI
1070
     2
1001
ACAD
1010
0.0
1020
0.0
1030
0.0
  0
LINE
  5
7A8
  8
回08-記事
  6
PHANTOM2
 62
     7
 10
2248.121057934405
 20
144.2191727184142
 30
0.0
 11
2240.921057934404
 21
151.4191727184143
 31
0.0
1001
GRADIENTCOLOR1ACI
1070
     5
1001
GRADIENTCOLOR2ACI
1070
     2
1001
ACAD
1010
0.0
1020
0.0
1030
0.0
  0
LINE
  5
7A9
  8
回08-記事
  6
PHANTOM2
 62
     7
 10
2249.468096352564
 20
144.2191727184142
 30
0.0
 11
2242.268096352565
 21
151.4191727184143
 31
0.0
1001
GRADIENTCOLOR1ACI
1070
     5
1001
GRADIENTCOLOR2ACI
1070
     2
1001
ACAD
1010
0.0
1020
0.0
1030
0.0
  0
LINE
  5
7AA
  8
回08-記事
  6
PHANTOM2
 62
     7
 10
2250.815134770725
 20
144.2191727184142
 30
0.0
 11
2243.615134770725
 21
151.4191727184143
 31
0.0
1001
GRADIENTCOLOR1ACI
1070
     5
1001
GRADIENTCOLOR2ACI
1070
     2
1001
ACAD
1010
0.0
1020
0.0
1030
0.0
  0
LINE
  5
7AB
  8
回08-記事
  6
PHANTOM2
 62
     7
 10
2252.162173188887
 20
144.2191727184142
 30
0.0
 11
2244.962173188886
 21
151.4191727184143
 31
0.0
1001
GRADIENTCOLOR1ACI
1070
     5
1001
GRADIENTCOLOR2ACI
1070
     2
1001
ACAD
1010
0.0
1020
0.0
1030
0.0
  0
LINE
  5
7AC
  8
回08-記事
  6
PHANTOM2
 62
     7
 10
2253.509211607047
 20
144.2191727184142
 30
0.0
 11
2246.309211607046
 21
151.4191727184143
 31
0.0
1001
GRADIENTCOLOR1ACI
1070
     5
1001
GRADIENTCOLOR2ACI
1070
     2
1001
ACAD
1010
0.0
1020
0.0
1030
0.0
  0
LINE
  5
7AD
  8
回08-記事
  6
PHANTOM2
 62
     7
 10
2254.856250025207
 20
144.2191727184142
 30
0.0
 11
2247.656250025207
 21
151.4191727184143
 31
0.0
1001
GRADIENTCOLOR1ACI
1070
     5
1001
GRADIENTCOLOR2ACI
1070
     2
1001
ACAD
1010
0.0
1020
0.0
1030
0.0
  0
LINE
  5
7AE
  8
回08-記事
  6
PHANTOM2
 62
     7
 10
2256.203288443368
 20
144.2191727184142
 30
0.0
 11
2249.003288443367
 21
151.4191727184145
 31
0.0
1001
GRADIENTCOLOR1ACI
1070
     5
1001
GRADIENTCOLOR2ACI
1070
     2
1001
ACAD
1010
0.0
1020
0.0
1030
0.0
  0
LINE
  5
7AF
  8
回08-記事
  6
PHANTOM2
 62
     7
 10
2257.550326861528
 20
144.2191727184142
 30
0.0
 11
2250.350326861529
 21
151.419172718414
 31
0.0
1001
GRADIENTCOLOR1ACI
1070
     5
1001
GRADIENTCOLOR2ACI
1070
     2
1001
ACAD
1010
0.0
1020
0.0
1030
0.0
  0
LINE
  5
7B0
  8
回08-記事
  6
PHANTOM2
 62
     7
 10
2258.897365279688
 20
144.2191727184145
 30
0.0
 11
2251.697365279688
 21
151.4191727184145
 31
0.0
1001
GRADIENTCOLOR1ACI
1070
     5
1001
GRADIENTCOLOR2ACI
1070
     2
1001
ACAD
1010
0.0
1020
0.0
1030
0.0
  0
LINE
  5
7B1
  8
回08-記事
  6
PHANTOM2
 62
     7
 10
2260.244403697849
 20
144.2191727184142
 30
0.0
 11
2253.044403697849
 21
151.4191727184145
 31
0.0
1001
GRADIENTCOLOR1ACI
1070
     5
1001
GRADIENTCOLOR2ACI
1070
     2
1001
ACAD
1010
0.0
1020
0.0
1030
0.0
  0
LINE
  5
7B2
  8
回08-記事
  6
PHANTOM2
 62
     7
 10
2261.59144211601
 20
144.2191727184145
 30
0.0
 11
2254.391442116009
 21
151.4191727184145
 31
0.0
1001
GRADIENTCOLOR1ACI
1070
     5
1001
GRADIENTCOLOR2ACI
1070
     2
1001
ACAD
1010
0.0
1020
0.0
1030
0.0
  0
LINE
  5
7B3
  8
回08-記事
  6
PHANTOM2
 62
     7
 10
2262.93848053417
 20
144.2191727184142
 30
0.0
 11
2255.73848053417
 21
151.4191727184143
 31
0.0
1001
GRADIENTCOLOR1ACI
1070
     5
1001
GRADIENTCOLOR2ACI
1070
     2
1001
ACAD
1010
0.0
1020
0.0
1030
0.0
  0
LINE
  5
7B4
  8
回08-記事
  6
PHANTOM2
 62
     7
 10
2264.28551895233
 20
144.2191727184142
 30
0.0
 11
2257.08551895233
 21
151.4191727184145
 31
0.0
1001
GRADIENTCOLOR1ACI
1070
     5
1001
GRADIENTCOLOR2ACI
1070
     2
1001
ACAD
1010
0.0
1020
0.0
1030
0.0
  0
LINE
  5
7B5
  8
回08-記事
  6
PHANTOM2
 62
     7
 10
2265.632557370491
 20
144.219172718414
 30
0.0
 11
2258.432557370491
 21
151.4191727184143
 31
0.0
1001
GRADIENTCOLOR1ACI
1070
     5
1001
GRADIENTCOLOR2ACI
1070
     2
1001
ACAD
1010
0.0
1020
0.0
1030
0.0
  0
LINE
  5
7B6
  8
回08-記事
  6
PHANTOM2
 62
     7
 10
2266.979595788651
 20
144.2191727184145
 30
0.0
 11
2259.779595788652
 21
151.4191727184143
 31
0.0
1001
GRADIENTCOLOR1ACI
1070
     5
1001
GRADIENTCOLOR2ACI
1070
     2
1001
ACAD
1010
0.0
1020
0.0
1030
0.0
  0
LINE
  5
7B7
  8
回08-記事
  6
PHANTOM2
 62
     7
 10
2268.326634206812
 20
144.2191727184142
 30
0.0
 11
2261.126634206812
 21
151.4191727184145
 31
0.0
1001
GRADIENTCOLOR1ACI
1070
     5
1001
GRADIENTCOLOR2ACI
1070
     2
1001
ACAD
1010
0.0
1020
0.0
1030
0.0
  0
LINE
  5
7B8
  8
回08-記事
  6
PHANTOM2
 62
     7
 10
2269.673672624973
 20
144.2191727184145
 30
0.0
 11
2262.473672624973
 21
151.4191727184143
 31
0.0
1001
GRADIENTCOLOR1ACI
1070
     5
1001
GRADIENTCOLOR2ACI
1070
     2
1001
ACAD
1010
0.0
1020
0.0
1030
0.0
  0
LINE
  5
7B9
  8
回08-記事
  6
PHANTOM2
 62
     7
 10
2271.020711043133
 20
144.2191727184145
 30
0.0
 11
2263.820711043133
 21
151.4191727184143
 31
0.0
1001
GRADIENTCOLOR1ACI
1070
     5
1001
GRADIENTCOLOR2ACI
1070
     2
1001
ACAD
1010
0.0
1020
0.0
1030
0.0
  0
LINE
  5
7BA
  8
回08-記事
  6
PHANTOM2
 62
     7
 10
2272.367749461294
 20
144.2191727184142
 30
0.0
 11
2265.167749461294
 21
151.4191727184143
 31
0.0
1001
GRADIENTCOLOR1ACI
1070
     5
1001
GRADIENTCOLOR2ACI
1070
     2
1001
ACAD
1010
0.0
1020
0.0
1030
0.0
  0
LINE
  5
7BB
  8
回08-記事
  6
PHANTOM2
 62
     7
 10
2273.079636181929
 20
144.8543244159389
 30
0.0
 11
2266.514787879454
 21
151.4191727184145
 31
0.0
1001
GRADIENTCOLOR1ACI
1070
     5
1001
GRADIENTCOLOR2ACI
1070
     2
1001
ACAD
1010
0.0
1020
0.0
1030
0.0
  0
LINE
  5
7BC
  8
回08-記事
  6
PHANTOM2
 62
     7
 10
2273.079636181929
 20
146.2013628340999
 30
0.0
 11
2267.861826297615
 21
151.4191727184143
 31
0.0
1001
GRADIENTCOLOR1ACI
1070
     5
1001
GRADIENTCOLOR2ACI
1070
     2
1001
ACAD
1010
0.0
1020
0.0
1030
0.0
  0
LINE
  5
7BD
  8
回08-記事
  6
PHANTOM2
 62
     7
 10
2273.079636181929
 20
147.5484012522602
 30
0.0
 11
2269.208864715775
 21
151.4191727184145
 31
0.0
1001
GRADIENTCOLOR1ACI
1070
     5
1001
GRADIENTCOLOR2ACI
1070
     2
1001
ACAD
1010
0.0
1020
0.0
1030
0.0
  0
LINE
  5
7BE
  8
回08-記事
  6
PHANTOM2
 62
     7
 10
2273.079636181929
 20
148.8954396704209
 30
0.0
 11
2270.555903133936
 21
151.4191727184143
 31
0.0
1001
GRADIENTCOLOR1ACI
1070
     5
1001
GRADIENTCOLOR2ACI
1070
     2
1001
ACAD
1010
0.0
1020
0.0
1030
0.0
  0
LINE
  5
7BF
  8
回08-記事
  6
PHANTOM2
 62
     7
 10
2273.079636181929
 20
150.2424780885811
 30
0.0
 11
2271.902941552097
 21
151.4191727184145
 31
0.0
1001
GRADIENTCOLOR1ACI
1070
     5
1001
GRADIENTCOLOR2ACI
1070
     2
1001
ACAD
1010
0.0
1020
0.0
1030
0.0
  0
ENDBLK
  5
7C1
  8
0
  6
CONTINUOUS
 62
     7
  0
BLOCK
  8
0
  2
*X8181
 70
     1
 10
0.0
 20
0.0
 30
0.0
  3
*X8181
  1

  0
INSERT
  5
7C4
  8
回08-記事
  6
CONTINUOUS
 62
     5
  2
_OPEN
 10
2436.704748445492
 20
110.6963356814413
 30
0.0
 41
1.5
 42
1.5
 43
1.5
 50
339.5487501114318
  0
LINE
  5
7C5
  8
回08-記事
  6
CONTINUOUS
 62
     5
 10
2435.299293709346
 20
111.2204511120911
 30
0.0
 11
2424.094190787873
 21
115.3990042821966
 31
0.0
  0
LINE
  5
7C6
  8
回08-記事
  6
CONTINUOUS
 62
     5
 10
2424.094190787873
 20
115.3990042821966
 30
0.0
 11
2388.894190787874
 21
115.3990042821966
 31
0.0
  0
ENDBLK
  5
7C8
  8
0
  6
CONTINUOUS
 62
     7
  0
BLOCK
  8
0
  2
*X8282
 70
     1
 10
0.0
 20
0.0
 30
0.0
  3
*X8282
  1

  0
INSERT
  5
7CB
  8
回08-記事
  6
CONTINUOUS
 62
     5
  2
_OPEN
 10
2438.958389248867
 20
110.7613913238902
 30
0.0
 41
1.5
 42
1.5
 43
1.5
 50
207.8999606854051
  0
LINE
  5
7CC
  8
回08-記事
  6
CONTINUOUS
 62
     5
 10
2440.284038175618
 20
111.4632851356619
 30
0.0
 11
2443.819853082957
 21
113.3353996547849
 31
0.0
  0
LINE
  5
7CD
  8
回08-記事
  6
CONTINUOUS
 62
     5
 10
2443.819853082957
 20
113.3353996547849
 30
0.0
 11
2471.819853082957
 21
113.3353996547849
 31
0.0
  0
ENDBLK
  5
7CF
  8
0
  6
CONTINUOUS
 62
     7
  0
BLOCK
  8
0
  2
*X8383
 70
     1
 10
0.0
 20
0.0
 30
0.0
  3
*X8383
  1

  0
LINE
  5
7D7
  8
回08-記事
  6
CONTINUOUS
 62
     7
 10
2436.248513954133
 20
125.7827975519003
 30
0.0
 11
2436.948513954133
 21
126.4827975519002
 31
0.0
1001
GRADIENTCOLOR1ACI
1070
     5
1001
GRADIENTCOLOR2ACI
1070
     2
1001
ACAD
1010
0.0
1020
0.0
1030
0.0
  0
LINE
  5
7D8
  8
回08-記事
  6
CONTINUOUS
 62
     7
 10
2436.248513954133
 20
124.4357591337403
 30
0.0
 11
2436.948513954133
 21
125.1357591337402
 31
0.0
1001
GRADIENTCOLOR1ACI
1070
     5
1001
GRADIENTCOLOR2ACI
1070
     2
1001
ACAD
1010
0.0
1020
0.0
1030
0.0
  0
LINE
  5
7D9
  8
回08-記事
  6
CONTINUOUS
 62
     7
 10
2436.248513954133
 20
123.0887207155801
 30
0.0
 11
2436.948513954133
 21
123.7887207155799
 31
0.0
1001
GRADIENTCOLOR1ACI
1070
     5
1001
GRADIENTCOLOR2ACI
1070
     2
1001
ACAD
1010
0.0
1020
0.0
1030
0.0
  0
LINE
  5
7DA
  8
回08-記事
  6
CONTINUOUS
 62
     7
 10
2436.248513954133
 20
121.7416822974201
 30
0.0
 11
2436.948513954133
 21
122.4416822974196
 31
0.0
1001
GRADIENTCOLOR1ACI
1070
     5
1001
GRADIENTCOLOR2ACI
1070
     2
1001
ACAD
1010
0.0
1020
0.0
1030
0.0
  0
LINE
  5
7DB
  8
回08-記事
  6
CONTINUOUS
 62
     7
 10
2436.248513954133
 20
120.3946438792595
 30
0.0
 11
2436.948513954133
 21
121.0946438792594
 31
0.0
1001
GRADIENTCOLOR1ACI
1070
     5
1001
GRADIENTCOLOR2ACI
1070
     2
1001
ACAD
1010
0.0
1020
0.0
1030
0.0
  0
LINE
  5
7DC
  8
回08-記事
  6
CONTINUOUS
 62
     7
 10
2436.248513954133
 20
119.0476054610996
 30
0.0
 11
2436.948513954133
 21
119.7476054610991
 31
0.0
1001
GRADIENTCOLOR1ACI
1070
     5
1001
GRADIENTCOLOR2ACI
1070
     2
1001
ACAD
1010
0.0
1020
0.0
1030
0.0
  0
LINE
  5
7DD
  8
回08-記事
  6
CONTINUOUS
 62
     7
 10
2436.248513954133
 20
117.7005670429394
 30
0.0
 11
2436.948513954133
 21
118.400567042939
 31
0.0
1001
GRADIENTCOLOR1ACI
1070
     5
1001
GRADIENTCOLOR2ACI
1070
     2
1001
ACAD
1010
0.0
1020
0.0
1030
0.0
  0
LINE
  5
7DE
  8
回08-記事
  6
CONTINUOUS
 62
     7
 10
2436.248513954133
 20
116.353528624779
 30
0.0
 11
2436.948513954133
 21
117.0535286247787
 31
0.0
1001
GRADIENTCOLOR1ACI
1070
     5
1001
GRADIENTCOLOR2ACI
1070
     2
1001
ACAD
1010
0.0
1020
0.0
1030
0.0
  0
LINE
  5
7DF
  8
回08-記事
  6
CONTINUOUS
 62
     7
 10
2436.248513954133
 20
115.0064902066189
 30
0.0
 11
2436.948513954133
 21
115.7064902066188
 31
0.0
1001
GRADIENTCOLOR1ACI
1070
     5
1001
GRADIENTCOLOR2ACI
1070
     2
1001
ACAD
1010
0.0
1020
0.0
1030
0.0
  0
LINE
  5
7E0
  8
回08-記事
  6
CONTINUOUS
 62
     7
 10
2436.248513954133
 20
113.6594517884586
 30
0.0
 11
2436.948513954133
 21
114.3594517884585
 31
0.0
1001
GRADIENTCOLOR1ACI
1070
     5
1001
GRADIENTCOLOR2ACI
1070
     2
1001
ACAD
1010
0.0
1020
0.0
1030
0.0
  0
LINE
  5
7E1
  8
回08-記事
  6
CONTINUOUS
 62
     7
 10
2436.248513954133
 20
112.3124133702987
 30
0.0
 11
2436.948513954133
 21
113.0124133702982
 31
0.0
1001
GRADIENTCOLOR1ACI
1070
     5
1001
GRADIENTCOLOR2ACI
1070
     2
1001
ACAD
1010
0.0
1020
0.0
1030
0.0
  0
LINE
  5
7E2
  8
回08-記事
  6
CONTINUOUS
 62
     7
 10
2436.248513954133
 20
110.9653749521379
 30
0.0
 11
2436.948513954133
 21
111.6653749521377
 31
0.0
1001
GRADIENTCOLOR1ACI
1070
     5
1001
GRADIENTCOLOR2ACI
1070
     2
1001
ACAD
1010
0.0
1020
0.0
1030
0.0
  0
LINE
  5
7E3
  8
回08-記事
  6
CONTINUOUS
 62
     7
 10
2436.248513954133
 20
109.6183365339781
 30
0.0
 11
2436.948513954133
 21
110.3183365339778
 31
0.0
1001
GRADIENTCOLOR1ACI
1070
     5
1001
GRADIENTCOLOR2ACI
1070
     2
1001
ACAD
1010
0.0
1020
0.0
1030
0.0
  0
LINE
  5
7E4
  8
回08-記事
  6
CONTINUOUS
 62
     7
 10
2436.248513954133
 20
108.2712981158179
 30
0.0
 11
2436.948513954133
 21
108.9712981158175
 31
0.0
1001
GRADIENTCOLOR1ACI
1070
     5
1001
GRADIENTCOLOR2ACI
1070
     2
1001
ACAD
1010
0.0
1020
0.0
1030
0.0
  0
LINE
  5
7E5
  8
回08-記事
  6
CONTINUOUS
 62
     7
 10
2436.248513954133
 20
106.9242596976577
 30
0.0
 11
2436.948513954133
 21
107.6242596976572
 31
0.0
1001
GRADIENTCOLOR1ACI
1070
     5
1001
GRADIENTCOLOR2ACI
1070
     2
1001
ACAD
1010
0.0
1020
0.0
1030
0.0
  0
LINE
  5
7E6
  8
回08-記事
  6
CONTINUOUS
 62
     7
 10
2436.248513954133
 20
105.5772212794971
 30
0.0
 11
2436.948513954133
 21
106.277221279497
 31
0.0
1001
GRADIENTCOLOR1ACI
1070
     5
1001
GRADIENTCOLOR2ACI
1070
     2
1001
ACAD
1010
0.0
1020
0.0
1030
0.0
  0
LINE
  5
7E7
  8
回08-記事
  6
CONTINUOUS
 62
     7
 10
2436.248513954133
 20
104.2301828613368
 30
0.0
 11
2436.948513954133
 21
104.9301828613367
 31
0.0
1001
GRADIENTCOLOR1ACI
1070
     5
1001
GRADIENTCOLOR2ACI
1070
     2
1001
ACAD
1010
0.0
1020
0.0
1030
0.0
  0
LINE
  5
7E8
  8
回08-記事
  6
CONTINUOUS
 62
     7
 10
2436.248513954133
 20
102.8831444431768
 30
0.0
 11
2436.948513954133
 21
103.5831444431764
 31
0.0
1001
GRADIENTCOLOR1ACI
1070
     5
1001
GRADIENTCOLOR2ACI
1070
     2
1001
ACAD
1010
0.0
1020
0.0
1030
0.0
  0
LINE
  5
7E9
  8
回08-記事
  6
CONTINUOUS
 62
     7
 10
2436.248513954133
 20
101.5361060250167
 30
0.0
 11
2436.948513954133
 21
102.2361060250163
 31
0.0
1001
GRADIENTCOLOR1ACI
1070
     5
1001
GRADIENTCOLOR2ACI
1070
     2
1001
ACAD
1010
0.0
1020
0.0
1030
0.0
  0
LINE
  5
7EA
  8
回08-記事
  6
CONTINUOUS
 62
     7
 10
2436.93370049229
 20
100.8742541450134
 30
0.0
 11
2436.948513954133
 21
100.8890676068559
 31
0.0
1001
GRADIENTCOLOR1ACI
1070
     5
1001
GRADIENTCOLOR2ACI
1070
     2
1001
ACAD
1010
0.0
1020
0.0
1030
0.0
  0
ENDBLK
  5
7EC
  8
0
  6
CONTINUOUS
 62
     7
  0
BLOCK
  8
0
  2
*X8484
 70
     1
 10
0.0
 20
0.0
 30
0.0
  3
*X8484
  1

  0
LINE
  5
7F4
  8
回08-記事
  6
CONTINUOUS
 62
     7
 10
2438.648513954133
 20
125.7827975519003
 30
0.0
 11
2439.348513954133
 21
126.4827975518999
 31
0.0
1001
GRADIENTCOLOR1ACI
1070
     5
1001
GRADIENTCOLOR2ACI
1070
     2
1001
ACAD
1010
0.0
1020
0.0
1030
0.0
  0
LINE
  5
7F5
  8
回08-記事
  6
CONTINUOUS
 62
     7
 10
2438.648513954133
 20
124.4357591337397
 30
0.0
 11
2439.348513954133
 21
125.1357591337395
 31
0.0
1001
GRADIENTCOLOR1ACI
1070
     5
1001
GRADIENTCOLOR2ACI
1070
     2
1001
ACAD
1010
0.0
1020
0.0
1030
0.0
  0
LINE
  5
7F6
  8
回08-記事
  6
CONTINUOUS
 62
     7
 10
2438.648513954133
 20
123.0887207155796
 30
0.0
 11
2439.348513954133
 21
123.7887207155793
 31
0.0
1001
GRADIENTCOLOR1ACI
1070
     5
1001
GRADIENTCOLOR2ACI
1070
     2
1001
ACAD
1010
0.0
1020
0.0
1030
0.0
  0
LINE
  5
7F7
  8
回08-記事
  6
CONTINUOUS
 62
     7
 10
2438.648513954133
 20
121.7416822974196
 30
0.0
 11
2439.348513954133
 21
122.4416822974192
 31
0.0
1001
GRADIENTCOLOR1ACI
1070
     5
1001
GRADIENTCOLOR2ACI
1070
     2
1001
ACAD
1010
0.0
1020
0.0
1030
0.0
  0
LINE
  5
7F8
  8
回08-記事
  6
CONTINUOUS
 62
     7
 10
2438.648513954133
 20
120.3946438792592
 30
0.0
 11
2439.348513954132
 21
121.0946438792587
 31
0.0
1001
GRADIENTCOLOR1ACI
1070
     5
1001
GRADIENTCOLOR2ACI
1070
     2
1001
ACAD
1010
0.0
1020
0.0
1030
0.0
  0
LINE
  5
7F9
  8
回08-記事
  6
CONTINUOUS
 62
     7
 10
2438.648513954133
 20
119.0476054610992
 30
0.0
 11
2439.348513954133
 21
119.7476054610988
 31
0.0
1001
GRADIENTCOLOR1ACI
1070
     5
1001
GRADIENTCOLOR2ACI
1070
     2
1001
ACAD
1010
0.0
1020
0.0
1030
0.0
  0
LINE
  5
7FA
  8
回08-記事
  6
CONTINUOUS
 62
     7
 10
2438.648513954133
 20
117.7005670429388
 30
0.0
 11
2439.348513954133
 21
118.4005670429387
 31
0.0
1001
GRADIENTCOLOR1ACI
1070
     5
1001
GRADIENTCOLOR2ACI
1070
     2
1001
ACAD
1010
0.0
1020
0.0
1030
0.0
  0
LINE
  5
7FB
  8
回08-記事
  6
CONTINUOUS
 62
     7
 10
2438.648513954133
 20
116.3535286247784
 30
0.0
 11
2439.348513954132
 21
117.0535286247781
 31
0.0
1001
GRADIENTCOLOR1ACI
1070
     5
1001
GRADIENTCOLOR2ACI
1070
     2
1001
ACAD
1010
0.0
1020
0.0
1030
0.0
  0
LINE
  5
7FC
  8
回08-記事
  6
CONTINUOUS
 62
     7
 10
2438.648513954133
 20
115.0064902066181
 30
0.0
 11
2439.348513954133
 21
115.706490206618
 31
0.0
1001
GRADIENTCOLOR1ACI
1070
     5
1001
GRADIENTCOLOR2ACI
1070
     2
1001
ACAD
1010
0.0
1020
0.0
1030
0.0
  0
LINE
  5
7FD
  8
回08-記事
  6
CONTINUOUS
 62
     7
 10
2438.648513954133
 20
113.6594517884581
 30
0.0
 11
2439.348513954133
 21
114.359451788458
 31
0.0
1001
GRADIENTCOLOR1ACI
1070
     5
1001
GRADIENTCOLOR2ACI
1070
     2
1001
ACAD
1010
0.0
1020
0.0
1030
0.0
  0
LINE
  5
7FE
  8
回08-記事
  6
CONTINUOUS
 62
     7
 10
2438.648513954133
 20
112.3124133702978
 30
0.0
 11
2439.348513954133
 21
113.0124133702977
 31
0.0
1001
GRADIENTCOLOR1ACI
1070
     5
1001
GRADIENTCOLOR2ACI
1070
     2
1001
ACAD
1010
0.0
1020
0.0
1030
0.0
  0
LINE
  5
7FF
  8
回08-記事
  6
CONTINUOUS
 62
     7
 10
2438.648513954133
 20
110.9653749521375
 30
0.0
 11
2439.348513954133
 21
111.6653749521375
 31
0.0
1001
GRADIENTCOLOR1ACI
1070
     5
1001
GRADIENTCOLOR2ACI
1070
     2
1001
ACAD
1010
0.0
1020
0.0
1030
0.0
  0
LINE
  5
800
  8
回08-記事
  6
CONTINUOUS
 62
     7
 10
2438.648513954133
 20
109.6183365339774
 30
0.0
 11
2439.348513954132
 21
110.318336533977
 31
0.0
1001
GRADIENTCOLOR1ACI
1070
     5
1001
GRADIENTCOLOR2ACI
1070
     2
1001
ACAD
1010
0.0
1020
0.0
1030
0.0
  0
LINE
  5
801
  8
回08-記事
  6
CONTINUOUS
 62
     7
 10
2438.648513954133
 20
108.2712981158173
 30
0.0
 11
2439.348513954133
 21
108.9712981158169
 31
0.0
1001
GRADIENTCOLOR1ACI
1070
     5
1001
GRADIENTCOLOR2ACI
1070
     2
1001
ACAD
1010
0.0
1020
0.0
1030
0.0
  0
LINE
  5
802
  8
回08-記事
  6
CONTINUOUS
 62
     7
 10
2438.648513954133
 20
106.9242596976569
 30
0.0
 11
2439.348513954133
 21
107.6242596976568
 31
0.0
1001
GRADIENTCOLOR1ACI
1070
     5
1001
GRADIENTCOLOR2ACI
1070
     2
1001
ACAD
1010
0.0
1020
0.0
1030
0.0
  0
LINE
  5
803
  8
回08-記事
  6
CONTINUOUS
 62
     7
 10
2438.648513954133
 20
105.5772212794968
 30
0.0
 11
2439.348513954133
 21
106.2772212794966
 31
0.0
1001
GRADIENTCOLOR1ACI
1070
     5
1001
GRADIENTCOLOR2ACI
1070
     2
1001
ACAD
1010
0.0
1020
0.0
1030
0.0
  0
LINE
  5
804
  8
回08-記事
  6
CONTINUOUS
 62
     7
 10
2438.648513954133
 20
104.2301828613366
 30
0.0
 11
2439.348513954133
 21
104.9301828613362
 31
0.0
1001
GRADIENTCOLOR1ACI
1070
     5
1001
GRADIENTCOLOR2ACI
1070
     2
1001
ACAD
1010
0.0
1020
0.0
1030
0.0
  0
LINE
  5
805
  8
回08-記事
  6
CONTINUOUS
 62
     7
 10
2438.648513954133
 20
102.8831444431764
 30
0.0
 11
2439.348513954133
 21
103.5831444431761
 31
0.0
1001
GRADIENTCOLOR1ACI
1070
     5
1001
GRADIENTCOLOR2ACI
1070
     2
1001
ACAD
1010
0.0
1020
0.0
1030
0.0
  0
LINE
  5
806
  8
回08-記事
  6
CONTINUOUS
 62
     7
 10
2438.648513954133
 20
101.5361060250161
 30
0.0
 11
2439.348513954133
 21
102.2361060250161
 31
0.0
1001
GRADIENTCOLOR1ACI
1070
     5
1001
GRADIENTCOLOR2ACI
1070
     2
1001
ACAD
1010
0.0
1020
0.0
1030
0.0
  0
LINE
  5
807
  8
回08-記事
  6
CONTINUOUS
 62
     7
 10
2439.33370049229
 20
100.8742541450134
 30
0.0
 11
2439.348513954132
 21
100.8890676068552
 31
0.0
1001
GRADIENTCOLOR1ACI
1070
     5
1001
GRADIENTCOLOR2ACI
1070
     2
1001
ACAD
1010
0.0
1020
0.0
1030
0.0
  0
ENDBLK
  5
809
  8
0
  6
CONTINUOUS
 62
     7
  0
BLOCK
  8
0
  2
*X8585
 70
     1
 10
0.0
 20
0.0
 30
0.0
  3
*X8585
  1

  0
LINE
  5
80C
  8
回08-記事
  6
CONTINUOUS
 62
     7
 10
2429.055329735164
 20
147.1714969506188
 30
0.0
 11
2430.03471920335
 21
148.150886418806
 31
0.0
1001
GRADIENTCOLOR1ACI
1070
     5
1001
GRADIENTCOLOR2ACI
1070
     2
1001
ACAD
1010
0.0
1020
0.0
1030
0.0
  0
LINE
  5
80D
  8
回08-記事
  6
CONTINUOUS
 62
     7
 10
2429.055329735164
 20
145.8244585324587
 30
0.0
 11
2429.755329735162
 21
146.5244585324583
 31
0.0
1001
GRADIENTCOLOR1ACI
1070
     5
1001
GRADIENTCOLOR2ACI
1070
     2
1001
ACAD
1010
0.0
1020
0.0
1030
0.0
  0
LINE
  5
80E
  8
回08-記事
  6
CONTINUOUS
 62
     7
 10
2430.38175762151
 20
147.1508864188055
 30
0.0
 11
2431.38175762151
 21
148.150886418806
 31
0.0
1001
GRADIENTCOLOR1ACI
1070
     5
1001
GRADIENTCOLOR2ACI
1070
     2
1001
ACAD
1010
0.0
1020
0.0
1030
0.0
  0
LINE
  5
80F
  8
回08-記事
  6
CONTINUOUS
 62
     7
 10
2429.055329735164
 20
144.4774201142982
 30
0.0
 11
2429.755329735162
 21
145.1774201142978
 31
0.0
1001
GRADIENTCOLOR1ACI
1070
     5
1001
GRADIENTCOLOR2ACI
1070
     2
1001
ACAD
1010
0.0
1020
0.0
1030
0.0
  0
LINE
  5
810
  8
回08-記事
  6
CONTINUOUS
 62
     7
 10
2431.72879603967
 20
147.1508864188061
 30
0.0
 11
2432.72879603967
 21
148.1508864188058
 31
0.0
1001
GRADIENTCOLOR1ACI
1070
     5
1001
GRADIENTCOLOR2ACI
1070
     2
1001
ACAD
1010
0.0
1020
0.0
1030
0.0
  0
LINE
  5
811
  8
回08-記事
  6
CONTINUOUS
 62
     7
 10
2433.07583445783
 20
147.1508864188059
 30
0.0
 11
2434.075834457831
 21
148.150886418806
 31
0.0
1001
GRADIENTCOLOR1ACI
1070
     5
1001
GRADIENTCOLOR2ACI
1070
     2
1001
ACAD
1010
0.0
1020
0.0
1030
0.0
  0
LINE
  5
812
  8
回08-記事
  6
CONTINUOUS
 62
     7
 10
2434.422872875991
 20
147.1508864188061
 30
0.0
 11
2435.422872875991
 21
148.1508864188061
 31
0.0
1001
GRADIENTCOLOR1ACI
1070
     5
1001
GRADIENTCOLOR2ACI
1070
     2
1001
ACAD
1010
0.0
1020
0.0
1030
0.0
  0
LINE
  5
813
  8
回08-記事
  6
CONTINUOUS
 62
     7
 10
2435.769911294151
 20
147.1508864188062
 30
0.0
 11
2436.769911294151
 21
148.1508864188062
 31
0.0
1001
GRADIENTCOLOR1ACI
1070
     5
1001
GRADIENTCOLOR2ACI
1070
     2
1001
ACAD
1010
0.0
1020
0.0
1030
0.0
  0
LINE
  5
814
  8
回08-記事
  6
CONTINUOUS
 62
     7
 10
2438.648513954133
 20
147.3354122424674
 30
0.0
 11
2439.163988130471
 21
147.8508864188054
 31
0.0
1001
GRADIENTCOLOR1ACI
1070
     5
1001
GRADIENTCOLOR2ACI
1070
     2
1001
ACAD
1010
0.0
1020
0.0
1030
0.0
  0
LINE
  5
815
  8
回08-記事
  6
CONTINUOUS
 62
     7
 10
2438.648513954133
 20
145.9883738243071
 30
0.0
 11
2439.348513954133
 21
146.6883738243071
 31
0.0
1001
GRADIENTCOLOR1ACI
1070
     5
1001
GRADIENTCOLOR2ACI
1070
     2
1001
ACAD
1010
0.0
1020
0.0
1030
0.0
  0
LINE
  5
816
  8
回08-記事
  6
CONTINUOUS
 62
     7
 10
2439.811026548632
 20
147.1508864188061
 30
0.0
 11
2440.511026548631
 21
147.8508864188055
 31
0.0
1001
GRADIENTCOLOR1ACI
1070
     5
1001
GRADIENTCOLOR2ACI
1070
     2
1001
ACAD
1010
0.0
1020
0.0
1030
0.0
  0
LINE
  5
817
  8
回08-記事
  6
CONTINUOUS
 62
     7
 10
2438.648513954133
 20
144.6413354061468
 30
0.0
 11
2439.348513954133
 21
145.3413354061468
 31
0.0
1001
GRADIENTCOLOR1ACI
1070
     5
1001
GRADIENTCOLOR2ACI
1070
     2
1001
ACAD
1010
0.0
1020
0.0
1030
0.0
  0
LINE
  5
818
  8
回08-記事
  6
CONTINUOUS
 62
     7
 10
2441.158064966792
 20
147.150886418806
 30
0.0
 11
2441.858064966792
 21
147.8508864188057
 31
0.0
1001
GRADIENTCOLOR1ACI
1070
     5
1001
GRADIENTCOLOR2ACI
1070
     2
1001
ACAD
1010
0.0
1020
0.0
1030
0.0
  0
LINE
  5
819
  8
回08-記事
  6
CONTINUOUS
 62
     7
 10
2444.948513954133
 20
150.941335406147
 30
0.0
 11
2445.4263512664
 21
151.4191727184144
 31
0.0
1001
GRADIENTCOLOR1ACI
1070
     5
1001
GRADIENTCOLOR2ACI
1070
     2
1001
ACAD
1010
0.0
1020
0.0
1030
0.0
  0
LINE
  5
81A
  8
回08-記事
  6
CONTINUOUS
 62
     7
 10
2442.505103384953
 20
147.1508864188061
 30
0.0
 11
2443.205103384952
 21
147.8508864188056
 31
0.0
1001
GRADIENTCOLOR1ACI
1070
     5
1001
GRADIENTCOLOR2ACI
1070
     2
1001
ACAD
1010
0.0
1020
0.0
1030
0.0
  0
LINE
  5
81B
  8
回08-記事
  6
CONTINUOUS
 62
     7
 10
2444.948513954133
 20
149.5942969879866
 30
0.0
 11
2445.648513954133
 21
150.2942969879865
 31
0.0
1001
GRADIENTCOLOR1ACI
1070
     5
1001
GRADIENTCOLOR2ACI
1070
     2
1001
ACAD
1010
0.0
1020
0.0
1030
0.0
  0
LINE
  5
81C
  8
回08-記事
  6
CONTINUOUS
 62
     7
 10
2443.852141803112
 20
147.1508864188062
 30
0.0
 11
2444.552141803112
 21
147.8508864188059
 31
0.0
1001
GRADIENTCOLOR1ACI
1070
     5
1001
GRADIENTCOLOR2ACI
1070
     2
1001
ACAD
1010
0.0
1020
0.0
1030
0.0
  0
LINE
  5
81D
  8
回08-記事
  6
CONTINUOUS
 62
     7
 10
2444.948513954133
 20
148.2472585698268
 30
0.0
 11
2445.648513954133
 21
148.9472585698267
 31
0.0
1001
GRADIENTCOLOR1ACI
1070
     5
1001
GRADIENTCOLOR2ACI
1070
     2
1001
ACAD
1010
0.0
1020
0.0
1030
0.0
  0
LINE
  5
81E
  8
回08-記事
  6
CONTINUOUS
 62
     7
 10
2445.199180221273
 20
147.1508864188059
 30
0.0
 11
2445.648513954133
 21
147.6002201516661
 31
0.0
1001
GRADIENTCOLOR1ACI
1070
     5
1001
GRADIENTCOLOR2ACI
1070
     2
1001
ACAD
1010
0.0
1020
0.0
1030
0.0
  0
ENDBLK
  5
820
  8
0
  6
CONTINUOUS
 62
     7
  0
BLOCK
  8
0
  2
*X8686
 70
     1
 10
0.0
 20
0.0
 30
0.0
  3
*X8686
  1

  0
LINE
  5
854
  8
回08-記事
  6
CONTINUOUS
 62
     7
 10
2259.264425946801
 20
127.4328133010197
 30
0.0
 11
2259.701818419983
 21
127.8702057742021
 31
0.0
1001
GRADIENTCOLOR1ACI
1070
     5
1001
GRADIENTCOLOR2ACI
1070
     2
1001
ACAD
1010
0.0
1020
0.0
1030
0.0
  0
LINE
  5
855
  8
回08-記事
  6
CONTINUOUS
 62
     7
 10
2259.264425946801
 20
126.0857748828596
 30
0.0
 11
2261.048856838144
 21
127.8702057742022
 31
0.0
1001
GRADIENTCOLOR1ACI
1070
     5
1001
GRADIENTCOLOR2ACI
1070
     2
1001
ACAD
1010
0.0
1020
0.0
1030
0.0
  0
LINE
  5
856
  8
回08-記事
  6
CONTINUOUS
 62
     7
 10
2259.2644259468
 20
124.7387364646988
 30
0.0
 11
2262.395895256304
 21
127.8702057742022
 31
0.0
1001
GRADIENTCOLOR1ACI
1070
     5
1001
GRADIENTCOLOR2ACI
1070
     2
1001
ACAD
1010
0.0
1020
0.0
1030
0.0
  0
LINE
  5
857
  8
回08-記事
  6
CONTINUOUS
 62
     7
 10
2259.264425946801
 20
123.391698046539
 30
0.0
 11
2263.2644259468
 21
127.3916980465389
 31
0.0
1001
GRADIENTCOLOR1ACI
1070
     5
1001
GRADIENTCOLOR2ACI
1070
     2
1001
ACAD
1010
0.0
1020
0.0
1030
0.0
  0
LINE
  5
858
  8
回08-記事
  6
CONTINUOUS
 62
     7
 10
2259.264425946801
 20
122.0446596283791
 30
0.0
 11
2263.264425946801
 21
126.0446596283791
 31
0.0
1001
GRADIENTCOLOR1ACI
1070
     5
1001
GRADIENTCOLOR2ACI
1070
     2
1001
ACAD
1010
0.0
1020
0.0
1030
0.0
  0
LINE
  5
859
  8
回08-記事
  6
CONTINUOUS
 62
     7
 10
2259.264425946801
 20
120.6976212102186
 30
0.0
 11
2263.2644259468
 21
124.6976212102183
 31
0.0
1001
GRADIENTCOLOR1ACI
1070
     5
1001
GRADIENTCOLOR2ACI
1070
     2
1001
ACAD
1010
0.0
1020
0.0
1030
0.0
  0
LINE
  5
85A
  8
回08-記事
  6
CONTINUOUS
 62
     7
 10
2259.264425946801
 20
119.3505827920585
 30
0.0
 11
2263.2644259468
 21
123.3505827920582
 31
0.0
1001
GRADIENTCOLOR1ACI
1070
     5
1001
GRADIENTCOLOR2ACI
1070
     2
1001
ACAD
1010
0.0
1020
0.0
1030
0.0
  0
LINE
  5
85B
  8
回08-記事
  6
CONTINUOUS
 62
     7
 10
2259.264425946801
 20
118.0035443738981
 30
0.0
 11
2263.2644259468
 21
122.0035443738978
 31
0.0
1001
GRADIENTCOLOR1ACI
1070
     5
1001
GRADIENTCOLOR2ACI
1070
     2
1001
ACAD
1010
0.0
1020
0.0
1030
0.0
  0
LINE
  5
85C
  8
回08-記事
  6
CONTINUOUS
 62
     7
 10
2259.264425946801
 20
116.6565059557378
 30
0.0
 11
2263.2644259468
 21
120.6565059557377
 31
0.0
1001
GRADIENTCOLOR1ACI
1070
     5
1001
GRADIENTCOLOR2ACI
1070
     2
1001
ACAD
1010
0.0
1020
0.0
1030
0.0
  0
LINE
  5
85D
  8
回08-記事
  6
CONTINUOUS
 62
     7
 10
2259.264425946801
 20
115.3094675375775
 30
0.0
 11
2263.2644259468
 21
119.3094675375772
 31
0.0
1001
GRADIENTCOLOR1ACI
1070
     5
1001
GRADIENTCOLOR2ACI
1070
     2
1001
ACAD
1010
0.0
1020
0.0
1030
0.0
  0
LINE
  5
85E
  8
回08-記事
  6
CONTINUOUS
 62
     7
 10
2259.264425946801
 20
113.9624291194176
 30
0.0
 11
2263.2644259468
 21
117.9624291194173
 31
0.0
1001
GRADIENTCOLOR1ACI
1070
     5
1001
GRADIENTCOLOR2ACI
1070
     2
1001
ACAD
1010
0.0
1020
0.0
1030
0.0
  0
LINE
  5
85F
  8
回08-記事
  6
CONTINUOUS
 62
     7
 10
2259.264425946801
 20
112.6153907012573
 30
0.0
 11
2263.2644259468
 21
116.6153907012571
 31
0.0
1001
GRADIENTCOLOR1ACI
1070
     5
1001
GRADIENTCOLOR2ACI
1070
     2
1001
ACAD
1010
0.0
1020
0.0
1030
0.0
  0
LINE
  5
860
  8
回08-記事
  6
CONTINUOUS
 62
     7
 10
2259.264425946801
 20
111.268352283097
 30
0.0
 11
2263.2644259468
 21
115.2683522830967
 31
0.0
1001
GRADIENTCOLOR1ACI
1070
     5
1001
GRADIENTCOLOR2ACI
1070
     2
1001
ACAD
1010
0.0
1020
0.0
1030
0.0
  0
LINE
  5
861
  8
回08-記事
  6
CONTINUOUS
 62
     7
 10
2259.264425946801
 20
109.9213138649367
 30
0.0
 11
2263.2644259468
 21
113.9213138649366
 31
0.0
1001
GRADIENTCOLOR1ACI
1070
     5
1001
GRADIENTCOLOR2ACI
1070
     2
1001
ACAD
1010
0.0
1020
0.0
1030
0.0
  0
LINE
  5
862
  8
回08-記事
  6
CONTINUOUS
 62
     7
 10
2259.264425946801
 20
108.5742754467764
 30
0.0
 11
2263.2644259468
 21
112.5742754467761
 31
0.0
1001
GRADIENTCOLOR1ACI
1070
     5
1001
GRADIENTCOLOR2ACI
1070
     2
1001
ACAD
1010
0.0
1020
0.0
1030
0.0
  0
LINE
  5
863
  8
回08-記事
  6
CONTINUOUS
 62
     7
 10
2259.264425946801
 20
107.2272370286163
 30
0.0
 11
2263.2644259468
 21
111.227237028616
 31
0.0
1001
GRADIENTCOLOR1ACI
1070
     5
1001
GRADIENTCOLOR2ACI
1070
     2
1001
ACAD
1010
0.0
1020
0.0
1030
0.0
  0
LINE
  5
864
  8
回08-記事
  6
CONTINUOUS
 62
     7
 10
2259.264425946801
 20
105.8801986104562
 30
0.0
 11
2263.2644259468
 21
109.8801986104561
 31
0.0
1001
GRADIENTCOLOR1ACI
1070
     5
1001
GRADIENTCOLOR2ACI
1070
     2
1001
ACAD
1010
0.0
1020
0.0
1030
0.0
  0
LINE
  5
865
  8
回08-記事
  6
CONTINUOUS
 62
     7
 10
2259.264425946801
 20
104.5331601922959
 30
0.0
 11
2263.2644259468
 21
108.5331601922955
 31
0.0
1001
GRADIENTCOLOR1ACI
1070
     5
1001
GRADIENTCOLOR2ACI
1070
     2
1001
ACAD
1010
0.0
1020
0.0
1030
0.0
  0
LINE
  5
866
  8
回08-記事
  6
CONTINUOUS
 62
     7
 10
2259.264425946801
 20
103.1861217741356
 30
0.0
 11
2263.2644259468
 21
107.1861217741353
 31
0.0
1001
GRADIENTCOLOR1ACI
1070
     5
1001
GRADIENTCOLOR2ACI
1070
     2
1001
ACAD
1010
0.0
1020
0.0
1030
0.0
  0
LINE
  5
867
  8
回08-記事
  6
CONTINUOUS
 62
     7
 10
2259.295548365028
 20
101.8702057742025
 30
0.0
 11
2263.2644259468
 21
105.8390833559754
 31
0.0
1001
GRADIENTCOLOR1ACI
1070
     5
1001
GRADIENTCOLOR2ACI
1070
     2
1001
ACAD
1010
0.0
1020
0.0
1030
0.0
  0
LINE
  5
868
  8
回08-記事
  6
CONTINUOUS
 62
     7
 10
2260.642586783188
 20
101.8702057742024
 30
0.0
 11
2263.2644259468
 21
104.4920449378146
 31
0.0
1001
GRADIENTCOLOR1ACI
1070
     5
1001
GRADIENTCOLOR2ACI
1070
     2
1001
ACAD
1010
0.0
1020
0.0
1030
0.0
  0
LINE
  5
869
  8
回08-記事
  6
CONTINUOUS
 62
     7
 10
2261.989625201348
 20
101.8702057742025
 30
0.0
 11
2263.2644259468
 21
103.1450065196548
 31
0.0
1001
GRADIENTCOLOR1ACI
1070
     5
1001
GRADIENTCOLOR2ACI
1070
     2
1001
ACAD
1010
0.0
1020
0.0
1030
0.0
  0
ENDBLK
  5
86B
  8
0
  6
CONTINUOUS
 62
     7
  0
BLOCK
  8
0
  2
*X8787
 70
     1
 10
0.0
 20
0.0
 30
0.0
  3
*X8787
  1

  0
TEXT
  5
882
  8
回07-寸法
  6
CONTINUOUS
 62
     5
 10
2129.5565109483
 20
300.5092802349082
 30
0.0
 40
3.0
  1
180.9
 50
90.0
  0
TEXT
  5
883
  8
回07-寸法
  6
CONTINUOUS
 62
     5
 10
2129.5565109483
 20
309.220111340489
 30
0.0
 40
2.1
  1
±0.3
 50
90.0
  0
ENDBLK
  5
885
  8
0
  6
CONTINUOUS
 62
     7
  0
BLOCK
  8
0
  2
*X8888
 70
     1
 10
0.0
 20
0.0
 30
0.0
  3
*X8888
  1

  0
TEXT
  5
888
  8
回07-寸法
  6
CONTINUOUS
 62
     5
 10
2137.456505948299
 20
187.397007978644
 30
0.0
 40
3.0
  1
10.2
 50
90.0
  0
TEXT
  5
889
  8
回07-寸法
  6
CONTINUOUS
 62
     5
 10
2137.456505948299
 20
193.997007978644
 30
0.0
 40
2.000099999999999
  1
(Insulation area)
 50
90.0
  0
ENDBLK
  5
88B
  8
0
  6
CONTINUOUS
 62
     7
  0
BLOCK
  8
0
  2
*X8989
 70
     1
 10
0.0
 20
0.0
 30
0.0
  3
*X8989
  1

  0
TEXT
  5
88E
  8
回07-寸法
  6
CONTINUOUS
 62
     5
 10
2137.4065109483
 20
400.9510146853361
 30
0.0
 40
3.0
  1
(6.5)
 50
90.0
  0
TEXT
  5
88F
  8
回07-寸法
  6
CONTINUOUS
 62
     5
 10
2137.4065109483
 20
408.4510146853363
 30
0.0
 40
2.00001
  1
(Insulation area)
 50
90.0
  0
ENDBLK
  5
891
  8
0
  6
CONTINUOUS
 62
     7
  0
BLOCK
  8
0
  2
*X9090
 70
     1
 10
0.0
 20
0.0
 30
0.0
  3
*X9090
  1

  0
TEXT
  5
894
  8
回07-寸法
  6
CONTINUOUS
 62
     5
 10
2277.0690109483
 20
436.4021957876984
 30
0.0
 40
3.0
  1
228.5
  0
TEXT
  5
895
  8
回07-寸法
  6
CONTINUOUS
 62
     5
 10
2286.3690109483
 20
436.4021957876984
 30
0.0
 40
2.1
  1
±0.3
  0
ENDBLK
  5
897
  8
0
  6
CONTINUOUS
 62
     7
  0
BLOCK
  8
0
  2
*X9191
 70
     1
 10
0.0
 20
0.0
 30
0.0
  3
*X9191
  1

  0
TEXT
  5
89A
  8
回07-寸法
  6
CONTINUOUS
 62
     5
 10
2144.951323139245
 20
428.5022007876985
 30
0.0
 40
3.0
  1
6
  0
TEXT
  5
89B
  8
回07-寸法
  6
CONTINUOUS
 62
     5
 10
2147.051323139245
 20
428.5022007876985
 30
0.0
 40
2.000099999999999
  1
(Insulation area)
  0
ENDBLK
  5
89D
  8
0
  6
CONTINUOUS
 62
     7
  0
BLOCK
  8
0
  2
*X9292
 70
     1
 10
0.0
 20
0.0
 30
0.0
  3
*X9292
  1

  0
TEXT
  5
8A0
  8
回07-寸法
  6
CONTINUOUS
 62
     5
 10
2401.605329845938
 20
428.5521957876984
 30
0.0
 40
3.0
  1
(6)
  0
TEXT
  5
8A1
  8
回07-寸法
  6
CONTINUOUS
 62
     5
 10
2406.105329845937
 20
428.5521957876984
 30
0.0
 40
2.000099999999999
  1
(Insulation area)
  0
ENDBLK
  5
8A3
  8
0
  6
CONTINUOUS
 62
     7
  0
BLOCK
  8
0
  2
*X9393
 70
     1
 10
0.0
 20
0.0
 30
0.0
  3
*X9393
  1

  0
TEXT
  5
8A6
  8
回07-寸法
  6
CONTINUOUS
 62
     5
 10
2218.0707729395
 20
163.8226716022936
 30
0.0
 40
3.0
  1
100
 50
90.0
  0
TEXT
  5
8A7
  8
回07-寸法
  6
CONTINUOUS
 62
     5
 10
2218.0707729395
 20
169.5226716022935
 30
0.0
 40
2.1
  1
±1
 50
90.0
  0
ENDBLK
  5
8A9
  8
0
  6
CONTINUOUS
 62
     7
  0
BLOCK
  8
0
  2
*X9494
 70
     1
 10
0.0
 20
0.0
 30
0.0
  3
*X9494
  1

  0
TEXT
  5
8AC
  8
回07-寸法
  6
CONTINUOUS
 62
     5
 10
2307.878433800617
 20
93.5115239303718
 30
0.0
 40
3.0
  1
13.5
  0
TEXT
  5
8AD
  8
回07-寸法
  6
CONTINUOUS
 62
     5
 10
2314.478433800617
 20
93.5115239303718
 30
0.0
 40
2.1
  1
±0.1
  0
ENDBLK
  5
8AF
  8
0
  6
CONTINUOUS
 62
     7
  0
BLOCK
  8
0
  2
*X9595
 70
     1
 10
0.0
 20
0.0
 30
0.0
  3
*X9595
  1

  0
TEXT
  5
8B2
  8
回07-寸法
  6
CONTINUOUS
 62
     5
 10
2265.127871792742
 20
102.5062441585098
 30
0.0
 40
3.0
  1
17.5
  0
TEXT
  5
8B3
  8
回07-寸法
  6
CONTINUOUS
 62
     5
 10
2271.727871792743
 20
102.5062441585098
 30
0.0
 40
2.1
  1
±0.1
  0
ENDBLK
  5
8B5
  8
0
  6
CONTINUOUS
 62
     7
  0
BLOCK
  8
0
  2
*X9696
 70
     1
 10
0.0
 20
0.0
 30
0.0
  3
*X9696
  1

  0
TEXT
  5
8B8
  8
回07-寸法
  6
CONTINUOUS
 62
     5
 10
2332.006870963372
 20
162.826719973104
 30
0.0
 40
3.0
  1
100
 50
90.0
  0
TEXT
  5
8B9
  8
回07-寸法
  6
CONTINUOUS
 62
     5
 10
2332.006870963372
 20
168.5267199731038
 30
0.0
 40
2.1
  1
±1
 50
90.0
  0
ENDBLK
  5
8BB
  8
0
  6
CONTINUOUS
 62
     7
  0
BLOCK
  8
0
  2
*X9797
 70
     1
 10
0.0
 20
0.0
 30
0.0
  3
*X9797
  1

  0
TEXT
  5
8BE
  8
回07-寸法
  6
CONTINUOUS
 62
     5
 10
2439.503449136293
 20
404.9052197414883
 30
0.0
 40
3.0
  1
2.1
  0
TEXT
  5
8BF
  8
回07-寸法
  6
CONTINUOUS
 62
     5
 10
2444.003449136293
 20
404.9052197414883
 30
0.0
 40
2.000099999999999
  1
±0.2
  0
ENDBLK
  5
8C1
  8
0
  6
CONTINUOUS
 62
     7
  0
BLOCK
  8
0
  2
*X9898
 70
     1
 10
0.0
 20
0.0
 30
0.0
  3
*X9898
  1

  0
TEXT
  5
8C4
  8
回08-記事
  6
CONTINUOUS
 62
     5
 10
2423.281895661423
 20
112.8560861077298
 30
0.0
 40
3.0
  1
0.3
  0
TEXT
  5
8C5
  8
回08-記事
  6
CONTINUOUS
 62
     5
 10
2428.381895661424
 20
112.8560861077298
 30
0.0
 40
2.000099999999999
  1
±0.05
  0
ENDBLK
  5
8C7
  8
0
  6
CONTINUOUS
 62
     7
  0
BLOCK
  8
0
  2
*X9999
 70
     1
 10
0.0
 20
0.0
 30
0.0
  3
*X9999
  1

  0
TEXT
  5
8CA
  8
回08-記事
  6
CONTINUOUS
 62
     5
 10
2450.727737085119
 20
110.0583365776623
 30
0.0
 40
3.0
  1
0.3
  0
TEXT
  5
8CB
  8
回08-記事
  6
CONTINUOUS
 62
     5
 10
2455.827737085118
 20
110.0583365776623
 30
0.0
 40
2.000099999999999
  1
±0.05
  0
ENDBLK
  5
8CD
  8
0
  6
CONTINUOUS
 62
     7
  0
BLOCK
  8
0
  2
*X100100
 70
     1
 10
0.0
 20
0.0
 30
0.0
  3
*X100100
  1

  0
TEXT
  5
8D0
  8
回07-寸法
  6
CONTINUOUS
 62
     5
 10
2267.342150022039
 20
367.2508864188056
 30
0.0
 40
3.0
  1
228.5
  0
TEXT
  5
8D1
  8
回07-寸法
  6
CONTINUOUS
 62
     5
 10
2276.642150022039
 20
367.2508864188056
 30
0.0
 40
2.1
  1
±0.3
  0
ENDBLK
  5
8D3
  8
0
  6
CONTINUOUS
 62
     7
  0
BLOCK
  8
0
  2
*X101101
 70
     1
 10
0.0
 20
0.0
 30
0.0
  3
*X101101
  1

  0
TEXT
  5
8D6
  8
回07-寸法
  6
CONTINUOUS
 62
     5
 10
2391.878468919677
 20
359.4008864188054
 30
0.0
 40
3.0
  1
(6)
  0
TEXT
  5
8D7
  8
回07-寸法
  6
CONTINUOUS
 62
     5
 10
2396.378468919676
 20
359.4008864188054
 30
0.0
 40
2.000099999999999
  1
(Insulation area)
  0
ENDBLK
  5
8D9
  8
0
  6
CONTINUOUS
 62
     7
  0
BLOCK
  8
0
  2
*X102102
 70
     1
 10
0.0
 20
0.0
 30
0.0
  3
*X102102
  1

  0
TEXT
  5
8DC
  8
回07-寸法
  6
CONTINUOUS
 62
     5
 10
2119.829650022039
 20
231.3579708660152
 30
0.0
 40
3.0
  1
180.9
 50
90.0
  0
TEXT
  5
8DD
  8
回07-寸法
  6
CONTINUOUS
 62
     5
 10
2119.829650022039
 20
240.0688019715961
 30
0.0
 40
2.1
  1
±0.3
 50
90.0
  0
ENDBLK
  5
8DF
  8
0
  6
CONTINUOUS
 62
     7
  0
BLOCK
  8
0
  2
*X103103
 70
     1
 10
0.0
 20
0.0
 30
0.0
  3
*X103103
  1

  0
TEXT
  5
8E2
  8
回07-寸法
  6
CONTINUOUS
 62
     5
 10
2135.224462212984
 20
359.3508914188057
 30
0.0
 40
3.0
  1
6
  0
TEXT
  5
8E3
  8
回07-寸法
  6
CONTINUOUS
 62
     5
 10
2137.324462212984
 20
359.3508914188057
 30
0.0
 40
2.000099999999999
  1
(Insulation area)
  0
ENDBLK
  5
8E5
  8
0
  6
CONTINUOUS
 62
     7
  0
BLOCK
  8
0
  2
*X104104
 70
     1
 10
0.0
 20
0.0
 30
0.0
  3
*X104104
  1

  0
TEXT
  5
8E8
  8
回07-寸法
  6
CONTINUOUS
 62
     5
 10
2127.679650022038
 20
331.7997053164433
 30
0.0
 40
3.0
  1
(6.5)
 50
90.0
  0
TEXT
  5
8E9
  8
回07-寸法
  6
CONTINUOUS
 62
     5
 10
2127.679650022038
 20
339.2997053164434
 30
0.0
 40
2.00001
  1
(Insulation area)
 50
90.0
  0
ENDBLK
  5
8EB
  8
0
  6
CONTINUOUS
 62
     7
  0
BLOCK
  8
0
  2
*X105105
 70
     1
 10
0.0
 20
0.0
 30
0.0
  3
*X105105
  1

  0
TEXT
  5
8EE
  8
回07-寸法
  6
CONTINUOUS
 62
     5
 10
2127.729645022038
 20
118.2456986097509
 30
0.0
 40
3.0
  1
10.2
 50
90.0
  0
TEXT
  5
8EF
  8
回07-寸法
  6
CONTINUOUS
 62
     5
 10
2127.729645022038
 20
124.8456986097508
 30
0.0
 40
2.000099999999999
  1
(Insulation area)
 50
90.0
  0
ENDBLK
  5
8F1
  8
0
  6
CONTINUOUS
 62
     7
  0
BLOCK
  8
0
  2
*X106106
 70
     1
 10
0.0
 20
0.0
 30
0.0
  3
*X106106
  1

  0
TEXT
  5
8F4
  8
回08-記事
  6
CONTINUOUS
 62
     5
 10
2441.000876158858
 20
40.90702720876932
 30
0.0
 40
3.0
  1
0.3
  0
TEXT
  5
8F5
  8
回08-記事
  6
CONTINUOUS
 62
     5
 10
2446.100876158857
 20
40.90702720876932
 30
0.0
 40
2.000099999999999
  1
±0.05
  0
ENDBLK
  5
8F7
  8
0
  6
CONTINUOUS
 62
     7
  0
BLOCK
  8
0
  2
*X107107
 70
     1
 10
0.0
 20
0.0
 30
0.0
  3
*X107107
  1

  0
TEXT
  5
8FA
  8
回08-記事
  6
CONTINUOUS
 62
     5
 10
2413.555034735163
 20
43.70477673883678
 30
0.0
 40
3.0
  1
0.3
  0
TEXT
  5
8FB
  8
回08-記事
  6
CONTINUOUS
 62
     5
 10
2418.655034735162
 20
43.70477673883678
 30
0.0
 40
2.000099999999999
  1
±0.05
  0
ENDBLK
  5
8FD
  8
0
  6
CONTINUOUS
 62
     7
  0
BLOCK
  8
0
  2
*X108108
 70
     1
 10
0.0
 20
0.0
 30
0.0
  3
*X108108
  1

  0
TEXT
  5
900
  8
回07-寸法
  6
CONTINUOUS
 62
     5
 10
2429.776588210032
 20
335.7539103725955
 30
0.0
 40
3.0
  1
2.1
  0
TEXT
  5
901
  8
回07-寸法
  6
CONTINUOUS
 62
     5
 10
2434.276588210032
 20
335.7539103725955
 30
0.0
 40
2.000099999999999
  1
±0.2
  0
ENDBLK
  5
903
  8
0
  6
CONTINUOUS
 62
     7
  0
BLOCK
  8
0
  2
*X109109
 70
     1
 10
0.0
 20
0.0
 30
0.0
  3
*X109109
  1

  0
TEXT
  5
906
  8
回07-寸法
  6
CONTINUOUS
 62
     5
 10
2322.280010037111
 20
93.6754106042108
 30
0.0
 40
3.0
  1
100
 50
90.0
  0
TEXT
  5
907
  8
回07-寸法
  6
CONTINUOUS
 62
     5
 10
2322.280010037111
 20
99.37541060421064
 30
0.0
 40
2.1
  1
±1
 50
90.0
  0
ENDBLK
  5
909
  8
0
  6
CONTINUOUS
 62
     7
  0
BLOCK
  8
0
  2
*X110110
 70
     1
 10
0.0
 20
0.0
 30
0.0
  3
*X110110
  1

  0
TEXT
  5
90C
  8
回07-寸法
  6
CONTINUOUS
 62
     5
 10
2255.401010866481
 20
33.35493478961681
 30
0.0
 40
3.0
  1
17.5
  0
TEXT
  5
90D
  8
回07-寸法
  6
CONTINUOUS
 62
     5
 10
2262.001010866482
 20
33.35493478961681
 30
0.0
 40
2.1
  1
±0.1
  0
ENDBLK
  5
90F
  8
0
  6
CONTINUOUS
 62
     7
  0
BLOCK
  8
0
  2
*X111111
 70
     1
 10
0.0
 20
0.0
 30
0.0
  3
*X111111
  1

  0
TEXT
  5
912
  8
回07-寸法
  6
CONTINUOUS
 62
     5
 10
2298.151572874355
 20
24.36021456147879
 30
0.0
 40
3.0
  1
13.5
  0
TEXT
  5
913
  8
回07-寸法
  6
CONTINUOUS
 62
     5
 10
2304.751572874355
 20
24.36021456147879
 30
0.0
 40
2.1
  1
±0.1
  0
ENDBLK
  5
915
  8
0
  6
CONTINUOUS
 62
     7
  0
BLOCK
  8
0
  2
*X112112
 70
     1
 10
0.0
 20
0.0
 30
0.0
  3
*X112112
  1

  0
TEXT
  5
918
  8
回07-寸法
  6
CONTINUOUS
 62
     5
 10
2208.343912013239
 20
94.67136223340046
 30
0.0
 40
3.0
  1
100
 50
90.0
  0
TEXT
  5
919
  8
回07-寸法
  6
CONTINUOUS
 62
     5
 10
2208.343912013239
 20
100.3713622334003
 30
0.0
 40
2.1
  1
±1
 50
90.0
  0
ENDBLK
  5
91B
  8
0
  6
CONTINUOUS
 62
     7
  0
ENDSEC
  0
SECTION
  2
ENTITIES
  0
TEXT
  5
6D
  8
回03-記事
  6
CONTINUOUS
 62
     5
 10
2325.352198767964
 20
3.208809024176601
 30
0.0
 40
3.839999999999999
  1
without affecting product specification.
  0
TEXT
  5
6F
  8
回03-記事
  6
CONTINUOUS
 62
     5
 10
2325.352198767964
 20
9.944573595536596
 30
0.0
 40
3.839999999999999
  1
Edges and corners of ITO glass may be chamfered 
  0
TEXT
  5
70
  8
回03-記事
  6
CONTINUOUS
 62
     5
 10
2325.352198767964
 20
16.68033816689642
 30
0.0
 40
3.839999999999999
  1
Unit: mm
  0
TEXT
  5
71
  8
回03-記事
  6
CONTINUOUS
 62
     5
 10
2325.352198767964
 20
23.41610273825624
 30
0.0
 40
3.839999999999999
  1
EXCEPT WHERE INDICATED
  0
TEXT
  5
72
  8
回03-記事
  6
CONTINUOUS
 62
     5
 10
2325.352198767964
 20
30.15186730961595
 30
0.0
 40
3.839999999999999
  1
TOLERANCE=±0.5mm
  0
TEXT
  5
73
  8
回08-記事
  6
CONTINUOUS
 62
     5
 10
2388.529588924671
 20
109.796899574621
 30
0.0
 40
4.0
  1
MTR-G104B100B
  0
TEXT
  5
78
  8
回08-記事
  6
CONTINUOUS
 62
     7
 10
2295.854749404862
 20
40.76261817121589
 30
0.0
 40
2.5
  1
(Conductor side near side)
  0
TEXT
  5
79
  8
回08-記事
  6
CONTINUOUS
 62
     7
 10
2217.289078496293
 20
40.64599095549934
 30
0.0
 40
2.5
  1
(Conductor side far side)
 41
0.9
  0
TEXT
  5
7A
  8
回08-記事
  6
CONTINUOUS
 62
     7
 10
2296.67130894365
 20
43.96236045384344
 30
0.0
 40
2.399999999999999
  1
Tail-1
  0
TEXT
  5
7B
  8
回08-記事
  6
CONTINUOUS
 62
     7
 10
2240.859024894664
 20
43.9537709954699
 30
0.0
 40
2.399999999999999
  1
Tail-2
  0
TEXT
  5
7C
  8
回08-記事
  6
CONTINUOUS
 62
     7
 10
2414.334767763975
 20
240.1564023810818
 30
0.0
 40
4.0
  1
1
  0
TEXT
  5
7D
  8
回08-記事
  6
CONTINUOUS
 62
     7
 10
2452.680858690744
 20
230.1577711082364
 30
0.0
 40
4.0
  1
2
  0
TEXT
  5
7E
  8
回08-記事
  6
CONTINUOUS
 62
     7
 10
2451.437468744736
 20
139.5050010213564
 30
0.0
 40
4.0
  1
6
  0
LINE
  5
7F
  8
回08-記事
  6
CONTINUOUS
 62
     7
 10
2451.834207240491
 20
232.4404271295069
 30
0.0
 11
2443.034754691277
 21
235.218118933577
 31
0.0
  0
LINE
  5
80
  8
回08-記事
  6
CONTINUOUS
 62
     7
 10
2418.245672368092
 20
242.450177987267
 30
0.0
 11
2426.210057832481
 21
239.5157855863052
 31
0.0
  0
LINE
  5
81
  8
回08-記事
  6
CONTINUOUS
 62
     7
 10
2433.391657599004
 20
64.11972510411314
 30
0.0
 11
2429.805329735163
 21
57.39812992601954
 31
0.0
  0
LINE
  5
82
  8
回08-記事
  6
CONTINUOUS
 62
     7
 10
2436.489829669855
 20
57.29823006341812
 30
0.0
 11
2433.391657599004
 21
64.11972510411314
 31
0.0
  0
TEXT
  5
83
  8
回08-記事
  6
CONTINUOUS
 62
     7
 10
2432.204321618312
 20
64.2150376644996
 30
0.0
 40
3.0
  1
5
  0
LINE
  5
84
  8
回08-記事
  6
CONTINUOUS
 62
     7
 10
2420.564449402451
 20
129.8979060975249
 30
0.0
 11
2437.421123589791
 21
138.283759460458
 31
0.0
  0
LINE
  5
85
  8
回08-記事
  6
CONTINUOUS
 62
     7
 10
2428.607433473417
 20
127.8311314763242
 30
0.0
 11
2420.564449402451
 21
129.8979060975249
 31
0.0
  0
TEXT
  5
86
  8
回08-記事
  6
CONTINUOUS
 62
     7
 10
2415.946819629388
 20
127.9302613889559
 30
0.0
 40
4.0
  1
3
  0
LINE
  5
87
  8
回08-記事
  6
CONTINUOUS
 62
     7
 10
2449.172102393677
 20
87.14374502367091
 30
0.0
 11
2438.215622283813
 21
93.49456682942957
 31
0.0
  0
LINE
  5
88
  8
回08-記事
  6
CONTINUOUS
 62
     7
 10
2427.674720797108
 20
86.56518783663804
 30
0.0
 11
2449.172102393677
 21
87.14374502367091
 31
0.0
  0
TEXT
  5
89
  8
回08-記事
  6
CONTINUOUS
 62
     7
 10
2449.219832462407
 20
85.27682289098185
 30
0.0
 40
4.0
  1
4
  0
LINE
  5
8A
  8
回08-記事
  6
CONTINUOUS
 62
     7
 10
2451.654201387638
 20
141.7551873382295
 30
0.0
 11
2432.781233469159
 21
147.5307676097201
 31
0.0
  0
LINE
  5
8B
  8
回08-記事
  6
CONTINUOUS
 62
     7
 10
2445.356250779516
 20
148.2471207706085
 30
0.0
 11
2451.654201387638
 21
141.7551873382295
 31
0.0
  0
TEXT
  5
8C
  8
回08-記事
  6
CONTINUOUS
 62
     7
 10
2532.592444722272
 20
39.34291909638302
 30
0.0
 40
4.5
  1
PROTECTION TAPE
  0
TEXT
  5
8D
  8
回08-記事
  6
CONTINUOUS
 62
     7
 10
2524.334898294008
 20
39.41984783805919
 30
0.0
 40
4.679999999999999
  1
6
  0
LINE
  5
8E
  8
回08-記事
  6
CONTINUOUS
 62
     7
 10
2521.943860926503
 20
38.07608627652229
 30
0.0
 11
2616.037673781664
 21
38.07608627652229
 31
0.0
  0
TEXT
  5
8F
  8
回08-記事
  6
CONTINUOUS
 62
     7
 10
2532.289934895962
 20
46.7719280261723
 30
0.0
 40
4.679999999999999
  1
STIFFENER
  0
TEXT
  5
90
  8
回08-記事
  6
CONTINUOUS
 62
     7
 10
2532.289934895962
 20
54.57192802617237
 30
0.0
 40
4.679999999999999
  1
REINFORCEMENT FILM
  0
LINE
  5
91
  8
回08-記事
  6
CONTINUOUS
 62
     7
 10
2616.037673781664
 20
38.07608627652229
 30
0.0
 11
2616.037673781664
 21
84.87608627652234
 31
0.0
  0
TEXT
  5
92
  8
回08-記事
  6
CONTINUOUS
 62
     7
 10
2524.334898294008
 20
62.81984783805921
 30
0.0
 40
4.679999999999999
  1
3
  0
TEXT
  5
93
  8
回08-記事
  6
CONTINUOUS
 62
     7
 10
2524.334898294008
 20
55.01984783805932
 30
0.0
 40
4.679999999999999
  1
4
  0
TEXT
  5
94
  8
回08-記事
  6
CONTINUOUS
 62
     7
 10
2524.334898294008
 20
70.6198478380593
 30
0.0
 40
4.679999999999999
  1
2
  0
TEXT
  5
95
  8
回08-記事
  6
CONTINUOUS
 62
     7
 10
2524.334898294008
 20
47.21984783805925
 30
0.0
 40
4.679999999999999
  1
5
  0
LINE
  5
96
  8
回08-記事
  6
CONTINUOUS
 62
     7
 10
2530.059455495369
 20
84.87608627652234
 30
0.0
 11
2530.059455495369
 21
38.07608627652229
 31
0.0
  0
LINE
  5
97
  8
回08-記事
  6
CONTINUOUS
 62
     7
 10
2521.943860926503
 20
84.87608627652234
 30
0.0
 11
2521.943860926503
 21
38.07608627652229
 31
0.0
  0
TEXT
  5
98
  8
回08-記事
  6
CONTINUOUS
 62
     7
 10
2524.334898294008
 20
78.41984783805918
 30
0.0
 40
4.679999999999999
  1
1
  0
LINE
  5
99
  8
回08-記事
  6
CONTINUOUS
 62
     7
 10
2521.943860926503
 20
45.87608627652218
 30
0.0
 11
2616.037673781664
 21
45.87608627652218
 31
0.0
  0
LINE
  5
9A
  8
回08-記事
  6
CONTINUOUS
 62
     7
 10
2521.943860926503
 20
77.07608627652229
 30
0.0
 11
2616.037673781664
 21
77.07608627652229
 31
0.0
  0
LINE
  5
9B
  8
回08-記事
  6
CONTINUOUS
 62
     7
 10
2521.943860926503
 20
84.87608627652234
 30
0.0
 11
2616.037673781664
 21
84.87608627652234
 31
0.0
  0
LINE
  5
9C
  8
回08-記事
  6
CONTINUOUS
 62
     7
 10
2521.943860926503
 20
53.67608627652223
 30
0.0
 11
2616.037673781664
 21
53.67608627652223
 31
0.0
  0
LINE
  5
9D
  8
回08-記事
  6
CONTINUOUS
 62
     7
 10
2521.943860926503
 20
61.47608627652212
 30
0.0
 11
2616.037673781664
 21
61.47608627652212
 31
0.0
  0
LINE
  5
9E
  8
回08-記事
  6
CONTINUOUS
 62
     7
 10
2521.943860926503
 20
69.27608627652222
 30
0.0
 11
2616.037673781664
 21
69.27608627652222
 31
0.0
  0
TEXT
  5
9F
  8
回08-記事
  6
CONTINUOUS
 62
     7
 10
2532.289934895962
 20
77.97192802617241
 30
0.0
 40
4.679999999999999
  1
ITO FILM (ANTI-GLARE)
  0
TEXT
  5
A0
  8
回08-記事
  6
CONTINUOUS
 62
     7
 10
2532.289934895962
 20
70.17192802617234
 30
0.0
 40
4.679999999999999
  1
ITO GLASS
  0
TEXT
  5
A1
  8
回08-記事
  6
CONTINUOUS
 62
     7
 10
2532.289934895962
 20
62.37192802617228
 30
0.0
 40
4.679999999999999
  1
FPC
  0
LINE
  5
A2
  8
回07-寸法
  6
CENTER2
 62
     5
 10
2165.829650022038
 20
240.1508864188056
 30
0.0
 11
2383.329650022039
 21
240.1508864188056
 31
0.0
  0
POLYLINE
  5
A7
  8
回01-上ER
  6
CONTINUOUS
 62
     7
 66
     1
 10
0.0
 20
0.0
 30
0.0
 70
     1
  0
VERTEX
  5
B6A
  8
回01-上ER
  6
CONTINUOUS
 62
     7
 10
2168.979650022038
 20
319.3488864188055
 30
0.0
  0
VERTEX
  5
B6C
  8
回01-上ER
  6
CONTINUOUS
 62
     7
 10
2380.179650022038
 20
319.3488864188055
 30
0.0
  0
VERTEX
  5
B6D
  8
回01-上ER
  6
CONTINUOUS
 62
     7
 10
2380.179650022038
 20
306.5158864188055
 30
0.0
  0
VERTEX
  5
B6E
  8
回01-上ER
  6
CONTINUOUS
 62
     7
 10
2168.979650022038
 20
306.5158864188055
 30
0.0
  0
SEQEND
  5
B6B
  8
0
  6
CONTINUOUS
 62
     7
  0
POLYLINE
  5
AB
  8
回01-上ER
  6
CONTINUOUS
 62
     7
 66
     1
 10
0.0
 20
0.0
 30
0.0
 70
     1
  0
VERTEX
  5
B6F
  8
回01-上ER
  6
CONTINUOUS
 62
     7
 10
2168.979650022038
 20
306.1158864188056
 30
0.0
  0
VERTEX
  5
B71
  8
回01-上ER
  6
CONTINUOUS
 62
     7
 10
2380.179650022038
 20
306.1158864188056
 30
0.0
  0
VERTEX
  5
B72
  8
回01-上ER
  6
CONTINUOUS
 62
     7
 10
2380.179650022038
 20
293.2828864188055
 30
0.0
  0
VERTEX
  5
B73
  8
回01-上ER
  6
CONTINUOUS
 62
     7
 10
2168.979650022038
 20
293.2828864188055
 30
0.0
  0
SEQEND
  5
B70
  8
0
  6
CONTINUOUS
 62
     7
  0
POLYLINE
  5
AC
  8
回01-上ER
  6
CONTINUOUS
 62
     7
 66
     1
 10
0.0
 20
0.0
 30
0.0
 70
     1
  0
VERTEX
  5
B74
  8
回01-上ER
  6
CONTINUOUS
 62
     7
 10
2168.979650022038
 20
292.8828864188055
 30
0.0
  0
VERTEX
  5
B76
  8
回01-上ER
  6
CONTINUOUS
 62
     7
 10
2380.179650022038
 20
292.8828864188055
 30
0.0
  0
VERTEX
  5
B77
  8
回01-上ER
  6
CONTINUOUS
 62
     7
 10
2380.179650022038
 20
280.0498864188055
 30
0.0
  0
VERTEX
  5
B78
  8
回01-上ER
  6
CONTINUOUS
 62
     7
 10
2168.979650022038
 20
280.0498864188055
 30
0.0
  0
SEQEND
  5
B75
  8
0
  6
CONTINUOUS
 62
     7
  0
POLYLINE
  5
AD
  8
回01-上ER
  6
CONTINUOUS
 62
     7
 66
     1
 10
0.0
 20
0.0
 30
0.0
 70
     1
  0
VERTEX
  5
B79
  8
回01-上ER
  6
CONTINUOUS
 62
     7
 10
2168.979650022038
 20
279.6498864188056
 30
0.0
  0
VERTEX
  5
B7B
  8
回01-上ER
  6
CONTINUOUS
 62
     7
 10
2380.179650022038
 20
279.6498864188056
 30
0.0
  0
VERTEX
  5
B7C
  8
回01-上ER
  6
CONTINUOUS
 62
     7
 10
2380.179650022038
 20
266.8168864188055
 30
0.0
  0
VERTEX
  5
B7D
  8
回01-上ER
  6
CONTINUOUS
 62
     7
 10
2168.979650022038
 20
266.8168864188055
 30
0.0
  0
SEQEND
  5
B7A
  8
0
  6
CONTINUOUS
 62
     7
  0
POLYLINE
  5
AE
  8
回01-上ER
  6
CONTINUOUS
 62
     7
 66
     1
 10
0.0
 20
0.0
 30
0.0
 70
     1
  0
VERTEX
  5
B7E
  8
回01-上ER
  6
CONTINUOUS
 62
     7
 10
2168.979650022038
 20
266.4168864188055
 30
0.0
  0
VERTEX
  5
B80
  8
回01-上ER
  6
CONTINUOUS
 62
     7
 10
2380.179650022038
 20
266.4168864188055
 30
0.0
  0
VERTEX
  5
B81
  8
回01-上ER
  6
CONTINUOUS
 62
     7
 10
2380.179650022038
 20
253.5838864188055
 30
0.0
  0
VERTEX
  5
B82
  8
回01-上ER
  6
CONTINUOUS
 62
     7
 10
2168.979650022038
 20
253.5838864188055
 30
0.0
  0
SEQEND
  5
B7F
  8
0
  6
CONTINUOUS
 62
     7
  0
POLYLINE
  5
AF
  8
回01-上ER
  6
CONTINUOUS
 62
     7
 66
     1
 10
0.0
 20
0.0
 30
0.0
 70
     1
  0
VERTEX
  5
B83
  8
回01-上ER
  6
CONTINUOUS
 62
     7
 10
2168.979650022038
 20
253.1838864188056
 30
0.0
  0
VERTEX
  5
B85
  8
回01-上ER
  6
CONTINUOUS
 62
     7
 10
2380.179650022038
 20
253.1838864188056
 30
0.0
  0
VERTEX
  5
B86
  8
回01-上ER
  6
CONTINUOUS
 62
     7
 10
2380.179650022038
 20
240.3508864188055
 30
0.0
  0
VERTEX
  5
B87
  8
回01-上ER
  6
CONTINUOUS
 62
     7
 10
2168.979650022038
 20
240.3508864188055
 30
0.0
  0
SEQEND
  5
B84
  8
0
  6
CONTINUOUS
 62
     7
  0
POLYLINE
  5
B0
  8
回01-上ER
  6
CONTINUOUS
 62
     7
 66
     1
 10
0.0
 20
0.0
 30
0.0
 70
     1
  0
VERTEX
  5
B88
  8
回01-上ER
  6
CONTINUOUS
 62
     7
 10
2168.979650022038
 20
239.9508864188056
 30
0.0
  0
VERTEX
  5
B8A
  8
回01-上ER
  6
CONTINUOUS
 62
     7
 10
2380.179650022038
 20
239.9508864188056
 30
0.0
  0
VERTEX
  5
B8B
  8
回01-上ER
  6
CONTINUOUS
 62
     7
 10
2380.179650022038
 20
227.1178864188056
 30
0.0
  0
VERTEX
  5
B8C
  8
回01-上ER
  6
CONTINUOUS
 62
     7
 10
2168.979650022038
 20
227.1178864188056
 30
0.0
  0
SEQEND
  5
B89
  8
0
  6
CONTINUOUS
 62
     7
  0
POLYLINE
  5
B1
  8
回01-上ER
  6
CONTINUOUS
 62
     7
 66
     1
 10
0.0
 20
0.0
 30
0.0
 70
     1
  0
VERTEX
  5
B8D
  8
回01-上ER
  6
CONTINUOUS
 62
     7
 10
2168.979650022038
 20
226.7178864188056
 30
0.0
  0
VERTEX
  5
B8F
  8
回01-上ER
  6
CONTINUOUS
 62
     7
 10
2380.179650022038
 20
226.7178864188056
 30
0.0
  0
VERTEX
  5
B90
  8
回01-上ER
  6
CONTINUOUS
 62
     7
 10
2380.179650022038
 20
213.8848864188056
 30
0.0
  0
VERTEX
  5
B91
  8
回01-上ER
  6
CONTINUOUS
 62
     7
 10
2168.979650022038
 20
213.8848864188056
 30
0.0
  0
SEQEND
  5
B8E
  8
0
  6
CONTINUOUS
 62
     7
  0
POLYLINE
  5
B2
  8
回01-上ER
  6
CONTINUOUS
 62
     7
 66
     1
 10
0.0
 20
0.0
 30
0.0
 70
     1
  0
VERTEX
  5
B92
  8
回01-上ER
  6
CONTINUOUS
 62
     7
 10
2168.979650022038
 20
213.4848864188056
 30
0.0
  0
VERTEX
  5
B94
  8
回01-上ER
  6
CONTINUOUS
 62
     7
 10
2380.179650022038
 20
213.4848864188056
 30
0.0
  0
VERTEX
  5
B95
  8
回01-上ER
  6
CONTINUOUS
 62
     7
 10
2380.179650022038
 20
200.6518864188056
 30
0.0
  0
VERTEX
  5
B96
  8
回01-上ER
  6
CONTINUOUS
 62
     7
 10
2168.979650022038
 20
200.6518864188056
 30
0.0
  0
SEQEND
  5
B93
  8
0
  6
CONTINUOUS
 62
     7
  0
POLYLINE
  5
B3
  8
回01-上ER
  6
CONTINUOUS
 62
     7
 66
     1
 10
0.0
 20
0.0
 30
0.0
 70
     1
  0
VERTEX
  5
B97
  8
回01-上ER
  6
CONTINUOUS
 62
     7
 10
2168.979650022038
 20
200.2518864188057
 30
0.0
  0
VERTEX
  5
B99
  8
回01-上ER
  6
CONTINUOUS
 62
     7
 10
2380.179650022038
 20
200.2518864188057
 30
0.0
  0
VERTEX
  5
B9A
  8
回01-上ER
  6
CONTINUOUS
 62
     7
 10
2380.179650022038
 20
187.4188864188056
 30
0.0
  0
VERTEX
  5
B9B
  8
回01-上ER
  6
CONTINUOUS
 62
     7
 10
2168.979650022038
 20
187.4188864188056
 30
0.0
  0
SEQEND
  5
B98
  8
0
  6
CONTINUOUS
 62
     7
  0
POLYLINE
  5
B4
  8
回01-上ER
  6
CONTINUOUS
 62
     7
 66
     1
 10
0.0
 20
0.0
 30
0.0
 70
     1
  0
VERTEX
  5
B9C
  8
回01-上ER
  6
CONTINUOUS
 62
     7
 10
2168.979650022038
 20
187.0188864188055
 30
0.0
  0
VERTEX
  5
B9E
  8
回01-上ER
  6
CONTINUOUS
 62
     7
 10
2380.179650022038
 20
187.0188864188055
 30
0.0
  0
VERTEX
  5
B9F
  8
回01-上ER
  6
CONTINUOUS
 62
     7
 10
2380.179650022038
 20
174.1858864188056
 30
0.0
  0
VERTEX
  5
BA0
  8
回01-上ER
  6
CONTINUOUS
 62
     7
 10
2168.979650022038
 20
174.1858864188056
 30
0.0
  0
SEQEND
  5
B9D
  8
0
  6
CONTINUOUS
 62
     7
  0
POLYLINE
  5
B5
  8
回01-上ER
  6
CONTINUOUS
 62
     7
 66
     1
 10
0.0
 20
0.0
 30
0.0
 70
     1
  0
VERTEX
  5
BA1
  8
回01-上ER
  6
CONTINUOUS
 62
     7
 10
2168.979650022038
 20
173.7858864188055
 30
0.0
  0
VERTEX
  5
BA3
  8
回01-上ER
  6
CONTINUOUS
 62
     7
 10
2380.179650022038
 20
173.7858864188055
 30
0.0
  0
VERTEX
  5
BA4
  8
回01-上ER
  6
CONTINUOUS
 62
     7
 10
2380.179650022038
 20
160.9528864188056
 30
0.0
  0
VERTEX
  5
BA5
  8
回01-上ER
  6
CONTINUOUS
 62
     7
 10
2168.979650022038
 20
160.9528864188056
 30
0.0
  0
SEQEND
  5
BA2
  8
0
  6
CONTINUOUS
 62
     7
  0
POLYLINE
  5
B6
  8
回03-下ER
  6
CONTINUOUS
 62
     7
 66
     1
 10
0.0
 20
0.0
 30
0.0
 70
     1
  0
VERTEX
  5
BA6
  8
回03-下ER
  6
CONTINUOUS
 62
     7
 10
2366.435655359152
 20
160.9508864188056
 30
0.0
  0
VERTEX
  5
BA8
  8
回03-下ER
  6
CONTINUOUS
 62
     7
 10
2380.141655359153
 20
160.9508864188056
 30
0.0
  0
VERTEX
  5
BA9
  8
回03-下ER
  6
CONTINUOUS
 62
     7
 10
2380.141655359153
 20
319.3508864188056
 30
0.0
  0
VERTEX
  5
BAA
  8
回03-下ER
  6
CONTINUOUS
 62
     7
 10
2366.435655359152
 20
319.3508864188056
 30
0.0
  0
SEQEND
  5
BA7
  8
0
  6
CONTINUOUS
 62
     7
  0
POLYLINE
  5
BA
  8
回03-下ER
  6
CONTINUOUS
 62
     7
 66
     1
 10
0.0
 20
0.0
 30
0.0
 70
     1
  0
VERTEX
  5
BAB
  8
回03-下ER
  6
CONTINUOUS
 62
     7
 10
2352.332012120787
 20
160.9508864188056
 30
0.0
  0
VERTEX
  5
BAD
  8
回03-下ER
  6
CONTINUOUS
 62
     7
 10
2366.038012120787
 20
160.9508864188056
 30
0.0
  0
VERTEX
  5
BAE
  8
回03-下ER
  6
CONTINUOUS
 62
     7
 10
2366.038012120787
 20
319.3508864188056
 30
0.0
  0
VERTEX
  5
BAF
  8
回03-下ER
  6
CONTINUOUS
 62
     7
 10
2352.332012120787
 20
319.3508864188056
 30
0.0
  0
SEQEND
  5
BAC
  8
0
  6
CONTINUOUS
 62
     7
  0
POLYLINE
  5
BB
  8
回03-下ER
  6
CONTINUOUS
 62
     7
 66
     1
 10
0.0
 20
0.0
 30
0.0
 70
     1
  0
VERTEX
  5
BB0
  8
回03-下ER
  6
CONTINUOUS
 62
     7
 10
2338.228368882422
 20
160.9508864188056
 30
0.0
  0
VERTEX
  5
BB2
  8
回03-下ER
  6
CONTINUOUS
 62
     7
 10
2351.934368882422
 20
160.9508864188056
 30
0.0
  0
VERTEX
  5
BB3
  8
回03-下ER
  6
CONTINUOUS
 62
     7
 10
2351.934368882422
 20
319.3508864188056
 30
0.0
  0
VERTEX
  5
BB4
  8
回03-下ER
  6
CONTINUOUS
 62
     7
 10
2338.228368882422
 20
319.3508864188056
 30
0.0
  0
SEQEND
  5
BB1
  8
0
  6
CONTINUOUS
 62
     7
  0
POLYLINE
  5
BC
  8
回03-下ER
  6
CONTINUOUS
 62
     7
 66
     1
 10
0.0
 20
0.0
 30
0.0
 70
     1
  0
VERTEX
  5
BB5
  8
回03-下ER
  6
CONTINUOUS
 62
     7
 10
2324.124725644057
 20
160.9508864188056
 30
0.0
  0
VERTEX
  5
BB7
  8
回03-下ER
  6
CONTINUOUS
 62
     7
 10
2337.830725644057
 20
160.9508864188056
 30
0.0
  0
VERTEX
  5
BB8
  8
回03-下ER
  6
CONTINUOUS
 62
     7
 10
2337.830725644057
 20
319.3508864188056
 30
0.0
  0
VERTEX
  5
BB9
  8
回03-下ER
  6
CONTINUOUS
 62
     7
 10
2324.124725644057
 20
319.3508864188056
 30
0.0
  0
SEQEND
  5
BB6
  8
0
  6
CONTINUOUS
 62
     7
  0
POLYLINE
  5
BD
  8
回03-下ER
  6
CONTINUOUS
 62
     7
 66
     1
 10
0.0
 20
0.0
 30
0.0
 70
     1
  0
VERTEX
  5
BBA
  8
回03-下ER
  6
CONTINUOUS
 62
     7
 10
2310.021082405691
 20
160.9508864188056
 30
0.0
  0
VERTEX
  5
BBC
  8
回03-下ER
  6
CONTINUOUS
 62
     7
 10
2323.727082405691
 20
160.9508864188056
 30
0.0
  0
VERTEX
  5
BBD
  8
回03-下ER
  6
CONTINUOUS
 62
     7
 10
2323.727082405691
 20
319.3508864188056
 30
0.0
  0
VERTEX
  5
BBE
  8
回03-下ER
  6
CONTINUOUS
 62
     7
 10
2310.021082405691
 20
319.3508864188056
 30
0.0
  0
SEQEND
  5
BBB
  8
0
  6
CONTINUOUS
 62
     7
  0
POLYLINE
  5
BE
  8
回03-下ER
  6
CONTINUOUS
 62
     7
 66
     1
 10
0.0
 20
0.0
 30
0.0
 70
     1
  0
VERTEX
  5
BBF
  8
回03-下ER
  6
CONTINUOUS
 62
     7
 10
2295.917439167326
 20
160.9508864188056
 30
0.0
  0
VERTEX
  5
BC1
  8
回03-下ER
  6
CONTINUOUS
 62
     7
 10
2309.623439167326
 20
160.9508864188056
 30
0.0
  0
VERTEX
  5
BC2
  8
回03-下ER
  6
CONTINUOUS
 62
     7
 10
2309.623439167326
 20
319.3508864188056
 30
0.0
  0
VERTEX
  5
BC3
  8
回03-下ER
  6
CONTINUOUS
 62
     7
 10
2295.917439167326
 20
319.3508864188056
 30
0.0
  0
SEQEND
  5
BC0
  8
0
  6
CONTINUOUS
 62
     7
  0
POLYLINE
  5
BF
  8
回03-下ER
  6
CONTINUOUS
 62
     7
 66
     1
 10
0.0
 20
0.0
 30
0.0
 70
     1
  0
VERTEX
  5
BC4
  8
回03-下ER
  6
CONTINUOUS
 62
     7
 10
2281.813795928961
 20
160.9508864188056
 30
0.0
  0
VERTEX
  5
BC6
  8
回03-下ER
  6
CONTINUOUS
 62
     7
 10
2295.519795928961
 20
160.9508864188056
 30
0.0
  0
VERTEX
  5
BC7
  8
回03-下ER
  6
CONTINUOUS
 62
     7
 10
2295.519795928961
 20
319.3508864188056
 30
0.0
  0
VERTEX
  5
BC8
  8
回03-下ER
  6
CONTINUOUS
 62
     7
 10
2281.813795928961
 20
319.3508864188056
 30
0.0
  0
SEQEND
  5
BC5
  8
0
  6
CONTINUOUS
 62
     7
  0
POLYLINE
  5
C0
  8
回03-下ER
  6
CONTINUOUS
 62
     7
 66
     1
 10
0.0
 20
0.0
 30
0.0
 70
     1
  0
VERTEX
  5
BC9
  8
回03-下ER
  6
CONTINUOUS
 62
     7
 10
2267.710152690595
 20
160.9508864188056
 30
0.0
  0
VERTEX
  5
BCB
  8
回03-下ER
  6
CONTINUOUS
 62
     7
 10
2281.416152690596
 20
160.9508864188056
 30
0.0
  0
VERTEX
  5
BCC
  8
回03-下ER
  6
CONTINUOUS
 62
     7
 10
2281.416152690596
 20
319.3508864188056
 30
0.0
  0
VERTEX
  5
BCD
  8
回03-下ER
  6
CONTINUOUS
 62
     7
 10
2267.710152690595
 20
319.3508864188056
 30
0.0
  0
SEQEND
  5
BCA
  8
0
  6
CONTINUOUS
 62
     7
  0
POLYLINE
  5
C1
  8
回03-下ER
  6
CONTINUOUS
 62
     7
 66
     1
 10
0.0
 20
0.0
 30
0.0
 70
     1
  0
VERTEX
  5
BCE
  8
回03-下ER
  6
CONTINUOUS
 62
     7
 10
2253.60650945223
 20
160.9508864188056
 30
0.0
  0
VERTEX
  5
BD0
  8
回03-下ER
  6
CONTINUOUS
 62
     7
 10
2267.31250945223
 20
160.9508864188056
 30
0.0
  0
VERTEX
  5
BD1
  8
回03-下ER
  6
CONTINUOUS
 62
     7
 10
2267.31250945223
 20
319.3508864188056
 30
0.0
  0
VERTEX
  5
BD2
  8
回03-下ER
  6
CONTINUOUS
 62
     7
 10
2253.60650945223
 20
319.3508864188056
 30
0.0
  0
SEQEND
  5
BCF
  8
0
  6
CONTINUOUS
 62
     7
  0
POLYLINE
  5
C2
  8
回03-下ER
  6
CONTINUOUS
 62
     7
 66
     1
 10
0.0
 20
0.0
 30
0.0
 70
     1
  0
VERTEX
  5
BD3
  8
回03-下ER
  6
CONTINUOUS
 62
     7
 10
2239.502866213865
 20
160.9508864188056
 30
0.0
  0
VERTEX
  5
BD5
  8
回03-下ER
  6
CONTINUOUS
 62
     7
 10
2253.208866213865
 20
160.9508864188056
 30
0.0
  0
VERTEX
  5
BD6
  8
回03-下ER
  6
CONTINUOUS
 62
     7
 10
2253.208866213865
 20
319.3508864188056
 30
0.0
  0
VERTEX
  5
BD7
  8
回03-下ER
  6
CONTINUOUS
 62
     7
 10
2239.502866213865
 20
319.3508864188056
 30
0.0
  0
SEQEND
  5
BD4
  8
0
  6
CONTINUOUS
 62
     7
  0
POLYLINE
  5
C3
  8
回03-下ER
  6
CONTINUOUS
 62
     7
 66
     1
 10
0.0
 20
0.0
 30
0.0
 70
     1
  0
VERTEX
  5
BD8
  8
回03-下ER
  6
CONTINUOUS
 62
     7
 10
2225.3992229755
 20
160.9508864188056
 30
0.0
  0
VERTEX
  5
BDA
  8
回03-下ER
  6
CONTINUOUS
 62
     7
 10
2239.1052229755
 20
160.9508864188056
 30
0.0
  0
VERTEX
  5
BDB
  8
回03-下ER
  6
CONTINUOUS
 62
     7
 10
2239.1052229755
 20
319.3508864188056
 30
0.0
  0
VERTEX
  5
BDC
  8
回03-下ER
  6
CONTINUOUS
 62
     7
 10
2225.3992229755
 20
319.3508864188056
 30
0.0
  0
SEQEND
  5
BD9
  8
0
  6
CONTINUOUS
 62
     7
  0
POLYLINE
  5
C4
  8
回03-下ER
  6
CONTINUOUS
 62
     7
 66
     1
 10
0.0
 20
0.0
 30
0.0
 70
     1
  0
VERTEX
  5
BDD
  8
回03-下ER
  6
CONTINUOUS
 62
     7
 10
2211.295579737134
 20
160.9508864188056
 30
0.0
  0
VERTEX
  5
BDF
  8
回03-下ER
  6
CONTINUOUS
 62
     7
 10
2225.001579737134
 20
160.9508864188056
 30
0.0
  0
VERTEX
  5
BE0
  8
回03-下ER
  6
CONTINUOUS
 62
     7
 10
2225.001579737134
 20
319.3508864188056
 30
0.0
  0
VERTEX
  5
BE1
  8
回03-下ER
  6
CONTINUOUS
 62
     7
 10
2211.295579737134
 20
319.3508864188056
 30
0.0
  0
SEQEND
  5
BDE
  8
0
  6
CONTINUOUS
 62
     7
  0
POLYLINE
  5
C5
  8
回03-下ER
  6
CONTINUOUS
 62
     7
 66
     1
 10
0.0
 20
0.0
 30
0.0
 70
     1
  0
VERTEX
  5
BE2
  8
回03-下ER
  6
CONTINUOUS
 62
     7
 10
2197.191936498769
 20
160.9508864188056
 30
0.0
  0
VERTEX
  5
BE4
  8
回03-下ER
  6
CONTINUOUS
 62
     7
 10
2210.897936498769
 20
160.9508864188056
 30
0.0
  0
VERTEX
  5
BE5
  8
回03-下ER
  6
CONTINUOUS
 62
     7
 10
2210.897936498769
 20
319.3508864188056
 30
0.0
  0
VERTEX
  5
BE6
  8
回03-下ER
  6
CONTINUOUS
 62
     7
 10
2197.191936498769
 20
319.3508864188056
 30
0.0
  0
SEQEND
  5
BE3
  8
0
  6
CONTINUOUS
 62
     7
  0
POLYLINE
  5
C6
  8
回03-下ER
  6
CONTINUOUS
 62
     7
 66
     1
 10
0.0
 20
0.0
 30
0.0
 70
     1
  0
VERTEX
  5
BE7
  8
回03-下ER
  6
CONTINUOUS
 62
     7
 10
2183.088293260404
 20
160.9508864188056
 30
0.0
  0
VERTEX
  5
BE9
  8
回03-下ER
  6
CONTINUOUS
 62
     7
 10
2196.794293260404
 20
160.9508864188056
 30
0.0
  0
VERTEX
  5
BEA
  8
回03-下ER
  6
CONTINUOUS
 62
     7
 10
2196.794293260404
 20
319.3508864188056
 30
0.0
  0
VERTEX
  5
BEB
  8
回03-下ER
  6
CONTINUOUS
 62
     7
 10
2183.088293260404
 20
319.3508864188056
 30
0.0
  0
SEQEND
  5
BE8
  8
0
  6
CONTINUOUS
 62
     7
  0
POLYLINE
  5
C7
  8
回03-下ER
  6
CONTINUOUS
 62
     7
 66
     1
 10
0.0
 20
0.0
 30
0.0
 70
     1
  0
VERTEX
  5
BEC
  8
回03-下ER
  6
CONTINUOUS
 62
     7
 10
2168.984650022038
 20
160.9508864188056
 30
0.0
  0
VERTEX
  5
BEE
  8
回03-下ER
  6
CONTINUOUS
 62
     7
 10
2182.690650022038
 20
160.9508864188056
 30
0.0
  0
VERTEX
  5
BEF
  8
回03-下ER
  6
CONTINUOUS
 62
     7
 10
2182.690650022038
 20
319.3508864188056
 30
0.0
  0
VERTEX
  5
BF0
  8
回03-下ER
  6
CONTINUOUS
 62
     7
 10
2168.984650022038
 20
319.3508864188056
 30
0.0
  0
SEQEND
  5
BED
  8
0
  6
CONTINUOUS
 62
     7
  0
TEXT
  5
C8
  8
回08-記事
  6
CONTINUOUS
 62
     7
 10
2563.469225152677
 20
367.7312874451613
 30
0.0
 40
3.5
  1
PIN ASSIGNMENT
  0
TEXT
  5
C9
  8
回08-記事
  6
CONTINUOUS
 62
     7
 10
2247.569161181356
 20
48.82091279067018
 30
0.0
 40
3.0
  1
60
  0
TEXT
  5
CA
  8
回08-記事
  6
CONTINUOUS
 62
     7
 10
2270.331178813413
 20
48.82091279067018
 30
0.0
 40
3.0
  1
27
  0
TEXT
  5
CB
  8
回08-記事
  6
CONTINUOUS
 62
     7
 10
2276.624037699203
 20
48.82091279067018
 30
0.0
 40
3.0
  1
26
  0
TEXT
  5
CC
  8
回08-記事
  6
CONTINUOUS
 62
     7
 10
2295.833799858256
 20
48.82091279067018
 30
0.0
 40
3.0
  1
1
  0
TEXT
  5
CD
  8
回90-枠2
 10
2554.288680555813
 20
18.11032985442847
 30
0.0
 40
5.877614223360004
  1
Oct/12/2023
  0
TEXT
  5
D1
  8
回90-枠2
 10
2469.613375629605
 20
18.11032985442847
 30
0.0
 40
5.877614223360004
  1
MTR-G104B100B
  0
LINE
  5
D2
  8
回90-枠2
  6
CONTINUOUS
 62
     7
 10
2456.580580318232
 20
32.42882698037073
 30
0.0
 11
2621.153778572312
 21
32.42882698037073
 31
0.0
  0
TEXT
  5
D3
  8
回90-枠2
 10
2568.344149298625
 20
27.74534160049433
 30
0.0
 40
4.114329956352001
  1
DATE
  0
LINE
  5
D4
  8
回90-枠2
  6
CONTINUOUS
 62
     7
 10
2456.580580318232
 20
32.42882698037073
 30
0.0
 11
2621.153778572312
 21
32.42882698037073
 31
0.0
  0
TEXT
  5
D5
  8
回90-枠2
 10
2555.57079639815
 20
2.884468508103451
 30
0.0
 40
5.877614223360004
  1
DMC Co., Ltd.
  0
LINE
  5
D6
  8
回90-枠2
 10
2532.989565221913
 20
32.42882698037073
 30
0.0
 11
2532.989565221913
 21
-2.836858359789005
 31
0.0
  0
TEXT
  5
D7
  8
回90-枠2
 10
2474.656470856903
 20
4.278032514042877
 30
0.0
 40
3.526568534016003
  1
Multi Touch Resistive
  0
LINE
  5
D8
  8
回90-枠2
 10
2456.580580318232
 20
32.42882698037073
 30
0.0
 11
2456.580580318232
 21
-2.836858359789005
 31
0.0
  0
TEXT
  5
D9
  8
回90-枠2
 10
2489.52801173278
 20
9.972632942180496
 30
0.0
 40
3.526568534016003
  1
TYPE
  0
LINE
  5
DA
  8
回90-枠2
 10
2460.107148852249
 20
3.040755863570836
 30
0.0
 11
2529.462996687896
 21
3.040755863570836
 31
0.0
  0
TEXT
  5
DB
  8
回90-枠2
 10
2471.946655334303
 20
-2.00055616800506
 30
0.0
 40
3.526568534016003
  1
DIMENSIONAL DRAWING
  0
TEXT
  5
DC
  8
回90-枠2
 10
2484.554834179466
 20
27.56522067808731
 30
0.0
 40
4.114329956352001
  1
PART No.
  0
LINE
  5
DD
  8
回90-枠2
 10
2456.580580318232
 20
14.79598431029097
 30
0.0
 11
2621.153778572312
 21
14.79598431029097
 31
0.0
  0
LINE
  5
DE
  8
回90-枠2
 10
2456.580580318232
 20
8.918370086930906
 30
0.0
 11
2532.989565221913
 21
8.918370086930906
 31
0.0
  0
LINE
  5
DF
  8
回90-枠2
 10
2456.580580318232
 20
26.55121275701089
 30
0.0
 11
2621.153778572312
 21
26.55121275701089
 31
0.0
  0
INSERT
  5
E0
  8
回08-記事
  6
CONTINUOUS
 62
     5
 66
     1
  2
*X7777
 10
0.0
 20
0.0
 30
0.0
  0
SEQEND
  5
773
  8
0
  6
CONTINUOUS
 62
     7
  0
INSERT
  5
E1
  8
回08-記事
  6
CONTINUOUS
 62
     7
 66
     1
  2
*X7878
 10
0.0
 20
0.0
 30
0.0
  0
SEQEND
  5
77A
  8
0
  6
CONTINUOUS
 62
     7
  0
POLYLINE
  5
E2
  8
回08-記事
  6
DASHED2
 62
     7
 66
     1
 10
0.0
 20
0.0
 30
0.0
 70
     1
1001
ACAD
1000
ASC_BOUNDS
1002
{
1070
    19
1005
E5
1002
}
  0
VERTEX
  5
BF1
  8
回08-記事
  6
DASHED2
 62
     7
 10
2275.07963618193
 20
144.2191727184143
 30
0.0
  0
VERTEX
  5
BF3
  8
回08-記事
  6
DASHED2
 62
     7
 10
2301.079636181929
 20
144.2191727184143
 30
0.0
  0
VERTEX
  5
BF4
  8
回08-記事
  6
DASHED2
 62
     7
 10
2301.079636181929
 20
151.4191727184143
 30
0.0
  0
VERTEX
  5
BF5
  8
回08-記事
  6
DASHED2
 62
     7
 10
2275.07963618193
 20
151.4191727184143
 30
0.0
  0
SEQEND
  5
BF2
  8
0
  6
CONTINUOUS
 62
     7
  0
POLYLINE
  5
E4
  8
回08-記事
  6
DASHED2
 62
     7
 66
     1
 10
0.0
 20
0.0
 30
0.0
 70
     1
1001
ACAD
1000
ASC_BOUNDS
1002
{
1070
    19
1005
E9
1002
}
  0
VERTEX
  5
BF6
  8
回08-記事
  6
DASHED2
 62
     7
 10
2239.07963618193
 20
144.2191727184143
 30
0.0
  0
VERTEX
  5
BF8
  8
回08-記事
  6
DASHED2
 62
     7
 10
2273.079636181929
 20
144.2191727184143
 30
0.0
  0
VERTEX
  5
BF9
  8
回08-記事
  6
DASHED2
 62
     7
 10
2273.079636181929
 20
151.4191727184143
 30
0.0
  0
VERTEX
  5
BFA
  8
回08-記事
  6
DASHED2
 62
     7
 10
2239.07963618193
 20
151.4191727184143
 30
0.0
  0
SEQEND
  5
BF7
  8
0
  6
CONTINUOUS
 62
     7
  0
INSERT
  5
E5
  8
回08-記事
  6
PHANTOM2
 62
     7
 66
     1
  2
*X7979
 10
0.0
 20
0.0
 30
0.0
1001
GRADIENTCOLOR1ACI
1070
     5
1001
GRADIENTCOLOR2ACI
1070
     2
1001
ACAD
1010
0.0
1020
0.0
1030
0.0
  0
SEQEND
  5
7A0
  8
0
  6
CONTINUOUS
 62
     7
  0
INSERT
  5
E9
  8
回08-記事
  6
PHANTOM2
 62
     7
 66
     1
  2
*X8080
 10
0.0
 20
0.0
 30
0.0
1001
GRADIENTCOLOR1ACI
1070
     5
1001
GRADIENTCOLOR2ACI
1070
     2
1001
ACAD
1010
0.0
1020
0.0
1030
0.0
  0
SEQEND
  5
7C2
  8
0
  6
CONTINUOUS
 62
     7
  0
DIMENSION
  5
EA
  8
回07-寸法
  6
CONTINUOUS
 62
     7
  2
*D3939
 10
2166.329650022039
 20
358.7508864188056
 30
0.0
 11
2274.579650022038
 21
360.7508864188055
 31
0.0
 70
    32
  3
DMC
 13
2382.829650022038
 23
322.2508864188057
 33
0.0
 14
2166.329650022039
 24
322.2508864188057
 34
0.0
 50
180.0
1001
ACAD
1000
DSTYLE
1002
{
1070
    41
1040
1.5
1070
    47
1040
0.2
1070
    48
1040
0.2
1070
   141
1040
1.5
1070
   371
1070
     0
1070
   372
1070
     0
1002
}
  0
DIMENSION
  5
FA
  8
回07-寸法
  6
CONTINUOUS
 62
     5
  2
*D4040
 10
2160.329650022038
 20
366.7508864188056
 30
0.0
 11
2274.579650022038
 21
366.7508864188056
 31
0.0
 70
   160
  3
DMC
 13
2388.829650022039
 23
328.7508864188056
 33
0.0
 14
2160.329650022038
 24
328.7508864188047
 34
0.0
 50
180.0
1001
ACAD
1000
DSTYLE
1002
{
1070
    41
1040
1.5
1070
    47
1040
0.3
1070
    48
1040
0.3
1070
    71
1070
     1
1070
   141
1040
1.5
1070
   371
1070
     0
1070
   372
1070
     0
1002
}
  0
DIMENSION
  5
109
  8
回07-寸法
  6
CONTINUOUS
 62
     5
  2
*D4141
 10
2382.329650022039
 20
350.7508864188056
 30
0.0
 11
2274.579650022038
 21
350.7508864188056
 31
0.0
 70
   160
  1
<>(Viewing area)
  3
DMC
 13
2166.829650022039
 23
321.7508864188056
 33
0.0
 14
2382.329650022039
 24
321.7508864188056
 34
0.0
 50
180.0
1001
ACAD
1000
DSTYLE
1002
{
1070
    41
1040
1.5
1070
    47
1040
0.2
1070
    48
1040
0.2
1070
   141
1040
1.5
1070
   371
1070
     0
1070
   372
1070
     0
1002
}
  0
DIMENSION
  5
118
  8
回07-寸法
  6
CONTINUOUS
 62
     5
  2
*D4242
 10
2168.979650022038
 20
342.7508864188056
 30
0.0
 11
2274.579650022038
 21
344.9008864188054
 31
0.0
 70
    32
  1
<>(Active area)
  3
DMC
 13
2380.179650022038
 23
319.3508864188057
 33
0.0
 14
2168.979650022038
 24
319.3508864188059
 34
0.0
 50
180.0
1001
ACAD
1000
DSTYLE
1002
{
1070
    41
1040
1.5
1070
    47
1040
0.2
1070
    48
1040
0.2
1070
   141
1040
1.5
1070
   371
1070
     0
1070
   372
1070
     0
1002
}
  0
DIMENSION
  5
127
  8
回07-寸法
  6
CONTINUOUS
 62
     7
  2
*D4343
 10
2388.829650022039
 20
358.7508864188056
 30
0.0
 11
2404.106653375385
 21
360.9008864188055
 31
0.0
 70
    32
  1
(<>){\H0.6667x;(Insulation area)}
  3
DMC
 13
2382.829650022038
 23
322.2508864188057
 33
0.0
 14
2388.829650022039
 24
328.7508864188056
 34
0.0
 50
180.0
1001
ACADSTRINGINFO
1000
MIFCodePage
1070
     1
1001
ACAD
1000
DSTYLE
1002
{
1070
    41
1040
1.5
1070
    47
1040
0.2
1070
    48
1040
0.2
1070
   141
1040
1.5
1070
   271
1070
     3
1070
   272
1070
     3
1070
   371
1070
     0
1070
   372
1070
     0
1002
}
  0
DIMENSION
  5
138
  8
回07-寸法
  6
CONTINUOUS
 62
     5
  2
*D4444
 10
2388.829650022039
 20
342.7508864188056
 30
0.0
 11
2396.678468919677
 21
342.7508864188056
 31
0.0
 70
   160
  1
(<>)
  3
DMC
 13
2380.179650022038
 23
319.3508864188056
 33
0.0
 14
2388.829650022039
 24
328.7508864188056
 34
0.0
 50
180.0
1001
ACAD
1000
DSTYLE
1002
{
1070
    41
1040
1.5
1070
    47
1040
0.2
1070
    48
1040
0.2
1070
   141
1040
1.5
1070
   271
1070
     3
1070
   272
1070
     3
1070
   371
1070
     0
1070
   372
1070
     0
1002
}
  0
DIMENSION
  5
149
  8
回07-寸法
  6
CONTINUOUS
 62
     5
  2
*D4545
 10
2388.829650022039
 20
350.7508864188056
 30
0.0
 11
2395.628468919676
 21
352.9008864188055
 31
0.0
 70
    32
  1
(<>)
  3
DMC
 13
2382.329650022039
 23
321.7508864188066
 33
0.0
 14
2388.829650022039
 24
328.7508864188056
 34
0.0
 50
180.0
1001
ACAD
1000
DSTYLE
1002
{
1070
    41
1040
1.5
1070
    47
1040
0.2
1070
    48
1040
0.2
1070
   141
1040
1.5
1070
   271
1070
     3
1070
   272
1070
     3
1070
   371
1070
     0
1070
   372
1070
     0
1002
}
  0
DIMENSION
  5
15A
  8
回07-寸法
  6
CONTINUOUS
 62
     7
  2
*D4646
 10
2128.329650022038
 20
322.2508864188053
 30
0.0
 11
2126.329650022038
 21
240.1508864188055
 31
0.0
 70
    32
  3
DMC
 13
2166.329650022039
 23
158.0508864188056
 33
0.0
 14
2166.329650022039
 24
322.2508864188053
 34
0.0
 50
270.0
1001
ACAD
1000
DSTYLE
1002
{
1070
    41
1040
1.5
1070
    47
1040
0.2
1070
    48
1040
0.2
1070
   141
1040
1.5
1070
   371
1070
     0
1070
   372
1070
     0
1002
}
  0
DIMENSION
  5
169
  8
回07-寸法
  6
CONTINUOUS
 62
     5
  2
*D4747
 10
2120.329650022039
 20
147.8508864188057
 30
0.0
 11
2120.329650022039
 21
238.3008864188056
 31
0.0
 70
   160
  3
DMC
 13
2160.329650022038
 23
328.7508864188056
 33
0.0
 14
2160.329650022038
 24
147.8508864188057
 34
0.0
 50
270.0
1001
ACAD
1000
DSTYLE
1002
{
1070
    41
1040
1.5
1070
    47
1040
0.3
1070
    48
1040
0.3
1070
    71
1070
     1
1070
   141
1040
1.5
1070
   371
1070
     0
1070
   372
1070
     0
1002
}
  0
DIMENSION
  5
178
  8
回07-寸法
  6
CONTINUOUS
 62
     5
  2
*D4848
 10
2136.329650022039
 20
158.5508864188056
 30
0.0
 11
2136.329650022039
 21
240.1508864188055
 31
0.0
 70
   160
  1
<>(Viewing area)
  3
DMC
 13
2166.829650022039
 23
321.7508864188054
 33
0.0
 14
2166.829650022039
 24
158.5508864188056
 34
0.0
 50
270.0
1001
ACAD
1000
DSTYLE
1002
{
1070
    41
1040
1.5
1070
    47
1040
0.2
1070
    48
1040
0.2
1070
   141
1040
1.5
1070
   371
1070
     0
1070
   372
1070
     0
1002
}
  0
DIMENSION
  5
187
  8
回07-寸法
  6
CONTINUOUS
 62
     5
  2
*D4949
 10
2144.329650022038
 20
319.3508864188056
 30
0.0
 11
2144.329650022038
 21
240.1508864188058
 31
0.0
 70
   160
  1
<>(Active area)
  3
DMC
 13
2168.979650022039
 23
160.9508864188059
 33
0.0
 14
2168.979650022038
 24
319.3508864188056
 34
0.0
 50
270.0
1001
ACAD
1000
DSTYLE
1002
{
1070
    41
1040
1.5
1070
    47
1040
0.2
1070
    48
1040
0.2
1070
   141
1040
1.5
1070
   371
1070
     0
1070
   372
1070
     0
1002
}
  0
DIMENSION
  5
196
  8
回07-寸法
  6
CONTINUOUS
 62
     7
  2
*D5050
 10
2160.329650022038
 20
358.7508864188056
 30
0.0
 11
2146.252056117511
 21
360.8008889188056
 31
0.0
 70
    32
  1
<>{\H0.6667x;(Insulation area)}
  3
DMC
 13
2166.329650022039
 23
322.2508864188057
 33
0.0
 14
2160.329650022038
 24
328.7508864188056
 34
0.0
 50
180.0
1001
ACADSTRINGINFO
1000
MIFCodePage
1070
     1
1001
ACAD
1000
DSTYLE
1002
{
1070
    41
1040
1.5
1070
    47
1040
0.2
1070
    48
1040
0.2
1070
   141
1040
1.5
1070
   371
1070
     0
1070
   372
1070
     0
1002
}
  0
DIMENSION
  5
1A7
  8
回07-寸法
  6
CONTINUOUS
 62
     5
  2
*D5151
 10
2160.329650022038
 20
350.7508864188056
 30
0.0
 11
2154.577754208155
 21
350.7508864188056
 31
0.0
 70
   160
  3
DMC
 13
2166.829650022039
 23
321.7508864188056
 33
0.0
 14
2160.329650022038
 24
328.7508864188047
 34
0.0
 50
180.0
1001
ACAD
1000
DSTYLE
1002
{
1070
    41
1040
1.5
1070
    47
1040
0.2
1070
    48
1040
0.2
1070
   141
1040
1.5
1070
   371
1070
     0
1070
   372
1070
     0
1002
}
  0
DIMENSION
  5
1B8
  8
回07-寸法
  6
CONTINUOUS
 62
     5
  2
*D5252
 10
2160.329650022038
 20
342.7508864171389
 30
0.0
 11
2153.617517987682
 21
342.7508864171389
 31
0.0
 70
   160
  3
DMC
 13
2168.979650032039
 23
319.3508864188059
 33
0.0
 14
2160.329650022038
 24
328.7508864188047
 34
0.0
 50
180.0
1001
ACAD
1000
DSTYLE
1002
{
1070
    41
1040
1.5
1070
    47
1040
0.2
1070
    48
1040
0.2
1070
   141
1040
1.5
1070
   371
1070
     0
1070
   372
1070
     0
1002
}
  0
DIMENSION
  5
1C9
  8
回07-寸法
  6
CONTINUOUS
 62
     7
  2
*D5353
 10
2128.329650022038
 20
328.7508864188056
 30
0.0
 11
2126.179650022038
 21
345.5274509273684
 31
0.0
 70
    32
  1
(<>){\H0.66667x;(Insulation area)}
  3
DMC
 13
2166.329650022039
 23
322.2508864188057
 33
0.0
 14
2160.329650022038
 24
328.7508864188056
 34
0.0
 50
90.0
1001
ACAD
1000
DSTYLE
1002
{
1070
    41
1040
1.5
1070
    47
1040
0.2
1070
    48
1040
0.2
1070
   141
1040
1.5
1070
   271
1070
     3
1070
   272
1070
     3
1070
   371
1070
     0
1070
   372
1070
     0
1002
}
  0
DIMENSION
  5
1DA
  8
回07-寸法
  6
CONTINUOUS
 62
     7
  2
*D5454
 10
2136.329650022039
 20
328.7508864188056
 30
0.0
 11
2136.329650022039
 21
334.0497053164437
 31
0.0
 70
   160
  1
(<>)
  3
DMC
 13
2166.829650022039
 23
321.7508864188056
 33
0.0
 14
2160.329650022038
 24
328.7508864188056
 34
0.0
 50
90.0
1001
ACAD
1000
DSTYLE
1002
{
1070
    41
1040
1.5
1070
    47
1040
0.2
1070
    48
1040
0.2
1070
   141
1040
1.5
1070
   271
1070
     3
1070
   272
1070
     3
1070
   371
1070
     0
1070
   372
1070
     0
1002
}
  0
DIMENSION
  5
1EB
  8
回07-寸法
  6
CONTINUOUS
 62
     7
  2
*D5555
 10
2144.329650022038
 20
328.7508864188056
 30
0.0
 11
2144.329650022038
 21
335.705120869234
 31
0.0
 70
   160
  1
(<>)
  3
DMC
 13
2168.979650032039
 23
319.3508864188056
 33
0.0
 14
2160.329650022038
 24
328.7508864188056
 34
0.0
 50
90.0
1001
ACAD
1000
DSTYLE
1002
{
1070
    41
1040
1.5
1070
    47
1040
0.2
1070
    48
1040
0.2
1070
   141
1040
1.5
1070
   271
1070
     3
1070
   272
1070
     3
1070
   371
1070
     0
1070
   372
1070
     0
1002
}
  0
DIMENSION
  5
1FC
  8
回07-寸法
  6
CONTINUOUS
 62
     7
  2
*D5656
 10
2128.329650022038
 20
147.8508864188057
 30
0.0
 11
2128.329650022038
 21
131.5232925142783
 31
0.0
 70
   160
  1
<>{\H0.6667x;(Insulation area)}
  3
DMC
 13
2166.329650022039
 23
158.0508864188056
 33
0.0
 14
2160.329650022038
 24
147.8508864188057
 34
0.0
 50
270.0
1001
ACADSTRINGINFO
1000
MIFCodePage
1070
     1
1001
ACAD
1000
DSTYLE
1002
{
1070
    41
1040
1.5
1070
    47
1040
0.2
1070
    48
1040
0.2
1070
   141
1040
1.5
1070
   371
1070
     0
1070
   372
1070
     0
1002
}
  0
DIMENSION
  5
20D
  8
回07-寸法
  6
CONTINUOUS
 62
     5
  2
*D5757
 10
2144.329650022038
 20
147.8508864188057
 30
0.0
 11
2144.329650022038
 21
139.4973330282129
 31
0.0
 70
   160
  3
DMC
 13
2168.979650022038
 23
160.9508864188056
 33
0.0
 14
2160.329650022038
 24
147.8508864188057
 34
0.0
 50
270.0
1001
ACAD
1000
DSTYLE
1002
{
1070
    41
1040
1.5
1070
    47
1040
0.2
1070
    48
1040
0.2
1070
   141
1040
1.5
1070
   371
1070
     0
1070
   372
1070
     0
1002
}
  0
DIMENSION
  5
21E
  8
回07-寸法
  6
CONTINUOUS
 62
     5
  2
*D5858
 10
2136.329650022039
 20
147.8508864188057
 30
0.0
 11
2136.329650022039
 21
140.1008864188058
 31
0.0
 70
   160
  3
DMC
 13
2166.829650022039
 23
158.5508864188056
 33
0.0
 14
2160.329650022038
 24
147.8508864188057
 34
0.0
 50
270.0
1001
ACAD
1000
DSTYLE
1002
{
1070
    41
1040
1.5
1070
    47
1040
0.2
1070
    48
1040
0.2
1070
   141
1040
1.5
1070
   371
1070
     0
1070
   372
1070
     0
1002
}
  0
LINE
  5
22F
  8
回07-寸法
  6
CENTER2
 62
     5
 10
2274.579650022038
 20
322.7508864188056
 30
0.0
 11
2274.579650022038
 21
157.5508864188056
 31
0.0
  0
TEXT
  5
230
  8
回08-記事
  6
CONTINUOUS
 62
     7
 10
2604.639908274796
 20
165.3122899753265
 30
0.0
 40
3.42144
  1
NC
  0
TEXT
  5
231
  8
回08-記事
  6
CONTINUOUS
 62
     7
 10
2604.639908274796
 20
262.2530899753266
 30
0.0
 40
3.42144
  1
NC
  0
TEXT
  5
232
  8
回08-記事
  6
CONTINUOUS
 62
     7
 10
2604.639908274796
 20
353.4914899753266
 30
0.0
 40
3.42144
  1
U9
  0
TEXT
  5
233
  8
回08-記事
  6
CONTINUOUS
 62
     7
 10
2604.975863875598
 20
171.0146899753267
 30
0.0
 40
3.42144
  1
U8
  0
LINE
  5
234
  8
回08-記事
  6
CONTINUOUS
 62
     7
 10
2590.998236362337
 20
166.8513684847518
 30
0.0
 11
2603.382340159005
 21
166.8513684847518
 31
0.0
  0
LINE
  5
235
  8
回08-記事
  6
CONTINUOUS
 62
     7
 10
2590.998236362337
 20
172.5537684847517
 30
0.0
 11
2603.382340159005
 21
172.5537684847517
 31
0.0
  0
TEXT
  5
236
  8
回08-記事
  6
CONTINUOUS
 62
     7
 10
2585.955783834958
 20
165.3122899753268
 30
0.0
 40
3.42144
  1
60
  0
TEXT
  5
237
  8
回08-記事
  6
CONTINUOUS
 62
     7
 10
2585.955783834958
 20
171.0146899753267
 30
0.0
 40
3.42144
  1
59
  0
TEXT
  5
238
  8
回08-記事
  6
CONTINUOUS
 62
     7
 10
2604.639908274796
 20
199.5266899753266
 30
0.0
 40
3.42144
  1
U3
  0
TEXT
  5
239
  8
回08-記事
  6
CONTINUOUS
 62
     7
 10
2604.975863875598
 20
176.7170899753265
 30
0.0
 40
3.42144
  1
U7
  0
TEXT
  5
23A
  8
回08-記事
  6
CONTINUOUS
 62
     7
 10
2604.975863875598
 20
182.4194899753267
 30
0.0
 40
3.42144
  1
U6
  0
TEXT
  5
23B
  8
回08-記事
  6
CONTINUOUS
 62
     7
 10
2604.975863875598
 20
188.1218899753266
 30
0.0
 40
3.42144
  1
U5
  0
TEXT
  5
23C
  8
回08-記事
  6
CONTINUOUS
 62
     7
 10
2604.975863875598
 20
193.8242899753265
 30
0.0
 40
3.42144
  1
U4
  0
LINE
  5
23D
  8
回08-記事
  6
CONTINUOUS
 62
     7
 10
2590.998236362337
 20
178.2561684847518
 30
0.0
 11
2603.382340159005
 21
178.2561684847518
 31
0.0
  0
LINE
  5
23E
  8
回08-記事
  6
CONTINUOUS
 62
     7
 10
2590.998236362337
 20
183.9585684847517
 30
0.0
 11
2603.382340159005
 21
183.9585684847517
 31
0.0
  0
LINE
  5
23F
  8
回08-記事
  6
CONTINUOUS
 62
     7
 10
2590.998236362337
 20
189.6609684847516
 30
0.0
 11
2603.382340159005
 21
189.6609684847516
 31
0.0
  0
LINE
  5
240
  8
回08-記事
  6
CONTINUOUS
 62
     7
 10
2590.998236362337
 20
195.3633684847518
 30
0.0
 11
2603.382340159005
 21
195.3633684847518
 31
0.0
  0
LINE
  5
241
  8
回08-記事
  6
CONTINUOUS
 62
     7
 10
2590.998236362337
 20
201.0657684847517
 30
0.0
 11
2603.382340159005
 21
201.0657684847517
 31
0.0
  0
LINE
  5
242
  8
回08-記事
  6
CONTINUOUS
 62
     7
 10
2590.998236362337
 20
206.7681684847518
 30
0.0
 11
2603.382340159005
 21
206.7681684847518
 31
0.0
  0
TEXT
  5
243
  8
回08-記事
  6
CONTINUOUS
 62
     7
 10
2585.955783834958
 20
176.7170899753265
 30
0.0
 40
3.42144
  1
58
  0
TEXT
  5
244
  8
回08-記事
  6
CONTINUOUS
 62
     7
 10
2585.955783834958
 20
182.4194899753267
 30
0.0
 40
3.42144
  1
57
  0
TEXT
  5
245
  8
回08-記事
  6
CONTINUOUS
 62
     7
 10
2585.955783834958
 20
188.1218899753266
 30
0.0
 40
3.42144
  1
56
  0
TEXT
  5
246
  8
回08-記事
  6
CONTINUOUS
 62
     7
 10
2585.955783834958
 20
193.8242899753265
 30
0.0
 40
3.42144
  1
55
  0
TEXT
  5
247
  8
回08-記事
  6
CONTINUOUS
 62
     7
 10
2585.955783834958
 20
199.5266899753266
 30
0.0
 40
3.42144
  1
54
  0
TEXT
  5
248
  8
回08-記事
  6
CONTINUOUS
 62
     7
 10
2585.955783834958
 20
205.2290899753265
 30
0.0
 40
3.42144
  1
53
  0
TEXT
  5
249
  8
回08-記事
  6
CONTINUOUS
 62
     7
 10
2604.975863875598
 20
205.2290899753265
 30
0.0
 40
3.42144
  1
U2
  0
TEXT
  5
24A
  8
回08-記事
  6
CONTINUOUS
 62
     7
 10
2604.975863875598
 20
216.6338899753266
 30
0.0
 40
3.42144
  1
SDL
  0
TEXT
  5
24B
  8
回08-記事
  6
CONTINUOUS
 62
     7
 10
2604.639908274796
 20
342.0866899753267
 30
0.0
 40
3.42144
  1
U11
  0
TEXT
  5
24C
  8
回08-記事
  6
CONTINUOUS
 62
     7
 10
2604.975863875598
 20
210.9314899753266
 30
0.0
 40
3.42144
  1
U1
  0
LINE
  5
24D
  8
回08-記事
  6
CONTINUOUS
 62
     7
 10
2590.998236362337
 20
212.4705684847517
 30
0.0
 11
2603.382340159005
 21
212.4705684847517
 31
0.0
  0
LINE
  5
24E
  8
回08-記事
  6
CONTINUOUS
 62
     7
 10
2590.998236362337
 20
218.1729684847518
 30
0.0
 11
2603.382340159005
 21
218.1729684847518
 31
0.0
  0
TEXT
  5
24F
  8
回08-記事
  6
CONTINUOUS
 62
     7
 10
2585.955783834958
 20
210.9314899753266
 30
0.0
 40
3.42144
  1
52
  0
TEXT
  5
250
  8
回08-記事
  6
CONTINUOUS
 62
     7
 10
2585.955783834958
 20
216.6338899753266
 30
0.0
 40
3.42144
  1
51
  0
TEXT
  5
251
  8
回08-記事
  6
CONTINUOUS
 62
     7
 10
2604.639908274796
 20
285.0626899753267
 30
0.0
 40
3.42144
  1
D11
  0
TEXT
  5
252
  8
回08-記事
  6
CONTINUOUS
 62
     7
 10
2604.639908274796
 20
347.7890899753267
 30
0.0
 40
3.42144
  1
U10
  0
TEXT
  5
253
  8
回08-記事
  6
CONTINUOUS
 62
     7
 10
2604.639908274796
 20
245.1458899753267
 30
0.0
 40
3.42144
  1
D5
  0
TEXT
  5
254
  8
回08-記事
  6
CONTINUOUS
 62
     7
 10
2604.639908274796
 20
250.8482899753265
 30
0.0
 40
3.42144
  1
D6
  0
TEXT
  5
255
  8
回08-記事
  6
CONTINUOUS
 62
     7
 10
2604.639908274796
 20
256.5506899753267
 30
0.0
 40
3.42144
  1
D7
  0
TEXT
  5
256
  8
回08-記事
  6
CONTINUOUS
 62
     7
 10
2604.639908274796
 20
296.4674899753266
 30
0.0
 40
3.42144
  1
D13
  0
TEXT
  5
257
  8
回08-記事
  6
CONTINUOUS
 62
     7
 10
2604.639908274796
 20
302.1698899753266
 30
0.0
 40
3.42144
  1
D14
  0
TEXT
  5
258
  8
回08-記事
  6
CONTINUOUS
 62
     7
 10
2604.639908274796
 20
307.8722899753266
 30
0.0
 40
3.42144
  1
D15
  0
TEXT
  5
259
  8
回08-記事
  6
CONTINUOUS
 62
     7
 10
2604.639908274796
 20
313.5746899753266
 30
0.0
 40
3.42144
  1
SUR
  0
TEXT
  5
25A
  8
回08-記事
  6
CONTINUOUS
 62
     7
 10
2604.639908274796
 20
319.2770899753266
 30
0.0
 40
3.42144
  1
U15
  0
TEXT
  5
25B
  8
回08-記事
  6
CONTINUOUS
 62
     7
 10
2604.639908274796
 20
324.9794899753267
 30
0.0
 40
3.42144
  1
U14
  0
TEXT
  5
25C
  8
回08-記事
  6
CONTINUOUS
 62
     7
 10
2604.639908274796
 20
330.6818899753267
 30
0.0
 40
3.42144
  1
U13
  0
TEXT
  5
25D
  8
回08-記事
  6
CONTINUOUS
 62
     7
 10
2604.639908274796
 20
336.3842899753267
 30
0.0
 40
3.42144
  1
U12
  0
LINE
  5
25E
  8
回08-記事
  6
CONTINUOUS
 62
     7
 10
2590.998236362337
 20
355.0305684847519
 30
0.0
 11
2603.382340159005
 21
355.0305684847519
 31
0.0
  0
TEXT
  5
25F
  8
回08-記事
  6
CONTINUOUS
 62
     7
 10
2586.231974368795
 20
353.4914899753266
 30
0.0
 40
3.42144
  1
27
  0
LINE
  5
260
  8
回08-記事
  6
CONTINUOUS
 62
     7
 10
2590.998236362337
 20
349.3281684847516
 30
0.0
 11
2603.382340159005
 21
349.3281684847516
 31
0.0
  0
TEXT
  5
261
  8
回08-記事
  6
CONTINUOUS
 62
     7
 10
2586.231974368795
 20
347.7890899753267
 30
0.0
 40
3.42144
  1
28
  0
LINE
  5
262
  8
回08-記事
  6
CONTINUOUS
 62
     7
 10
2590.998236362337
 20
343.6257684847519
 30
0.0
 11
2603.382340159005
 21
343.6257684847519
 31
0.0
  0
TEXT
  5
263
  8
回08-記事
  6
CONTINUOUS
 62
     7
 10
2586.231974368795
 20
342.0866899753267
 30
0.0
 40
3.42144
  1
29
  0
LINE
  5
264
  8
回08-記事
  6
CONTINUOUS
 62
     7
 10
2590.998236362337
 20
337.9233684847517
 30
0.0
 11
2603.382340159005
 21
337.9233684847517
 31
0.0
  0
TEXT
  5
265
  8
回08-記事
  6
CONTINUOUS
 62
     7
 10
2586.235598547893
 20
336.3842899753267
 30
0.0
 40
3.42144
  1
30
  0
LINE
  5
266
  8
回08-記事
  6
CONTINUOUS
 62
     7
 10
2590.998236362337
 20
332.2209684847518
 30
0.0
 11
2603.382340159005
 21
332.2209684847518
 31
0.0
  0
TEXT
  5
267
  8
回08-記事
  6
CONTINUOUS
 62
     7
 10
2586.235598547893
 20
330.6818899753267
 30
0.0
 40
3.42144
  1
31
  0
LINE
  5
268
  8
回08-記事
  6
CONTINUOUS
 62
     7
 10
2590.998236362337
 20
326.5185684847519
 30
0.0
 11
2603.382340159005
 21
326.5185684847519
 31
0.0
  0
TEXT
  5
269
  8
回08-記事
  6
CONTINUOUS
 62
     7
 10
2586.235598547893
 20
324.9794899753267
 30
0.0
 40
3.42144
  1
32
  0
LINE
  5
26A
  8
回08-記事
  6
CONTINUOUS
 62
     7
 10
2590.998236362337
 20
320.8161684847518
 30
0.0
 11
2603.382340159005
 21
320.8161684847518
 31
0.0
  0
TEXT
  5
26B
  8
回08-記事
  6
CONTINUOUS
 62
     7
 10
2586.260195639709
 20
319.2770899753266
 30
0.0
 40
3.42144
  1
33
  0
LINE
  5
26C
  8
回08-記事
  6
CONTINUOUS
 62
     7
 10
2590.998236362337
 20
315.1137684847519
 30
0.0
 11
2603.382340159005
 21
315.1137684847519
 31
0.0
  0
TEXT
  5
26D
  8
回08-記事
  6
CONTINUOUS
 62
     7
 10
2586.260195639709
 20
313.5746899753266
 30
0.0
 40
3.42144
  1
34
  0
TEXT
  5
26E
  8
回08-記事
  6
CONTINUOUS
 62
     7
 10
2604.975863875598
 20
222.3362899753267
 30
0.0
 40
3.42144
  1
D1
  0
TEXT
  5
26F
  8
回08-記事
  6
CONTINUOUS
 62
     7
 10
2604.975863875598
 20
228.0386899753266
 30
0.0
 40
3.42144
  1
D2
  0
TEXT
  5
270
  8
回08-記事
  6
CONTINUOUS
 62
     7
 10
2604.975863875598
 20
233.7410899753267
 30
0.0
 40
3.42144
  1
D3
  0
TEXT
  5
271
  8
回08-記事
  6
CONTINUOUS
 62
     7
 10
2604.975863875598
 20
239.4434899753266
 30
0.0
 40
3.42144
  1
D4
  0
TEXT
  5
272
  8
回08-記事
  6
CONTINUOUS
 62
     7
 10
2604.639908274796
 20
267.9554899753266
 30
0.0
 40
3.42144
  1
D8
  0
TEXT
  5
273
  8
回08-記事
  6
CONTINUOUS
 62
     7
 10
2604.639908274796
 20
273.6578899753267
 30
0.0
 40
3.42144
  1
D9
  0
TEXT
  5
274
  8
回08-記事
  6
CONTINUOUS
 62
     7
 10
2604.639908274796
 20
279.3602899753266
 30
0.0
 40
3.42144
  1
D10
  0
TEXT
  5
275
  8
回08-記事
  6
CONTINUOUS
 62
     7
 10
2604.639908274796
 20
290.7650899753268
 30
0.0
 40
3.42144
  1
D12
  0
LINE
  5
276
  8
回08-記事
  6
CONTINUOUS
 62
     7
 10
2590.998236362337
 20
223.8753684847517
 30
0.0
 11
2603.382340159005
 21
223.8753684847517
 31
0.0
  0
LINE
  5
277
  8
回08-記事
  6
CONTINUOUS
 62
     7
 10
2590.998236362337
 20
229.5777684847518
 30
0.0
 11
2603.382340159005
 21
229.5777684847518
 31
0.0
  0
LINE
  5
278
  8
回08-記事
  6
CONTINUOUS
 62
     7
 10
2590.998236362337
 20
235.2801684847518
 30
0.0
 11
2603.382340159005
 21
235.2801684847518
 31
0.0
  0
LINE
  5
279
  8
回08-記事
  6
CONTINUOUS
 62
     7
 10
2590.998236362337
 20
240.9825684847519
 30
0.0
 11
2603.382340159005
 21
240.9825684847519
 31
0.0
  0
LINE
  5
27A
  8
回08-記事
  6
CONTINUOUS
 62
     7
 10
2590.998236362337
 20
246.6849684847518
 30
0.0
 11
2603.382340159005
 21
246.6849684847518
 31
0.0
  0
LINE
  5
27B
  8
回08-記事
  6
CONTINUOUS
 62
     7
 10
2590.998236362337
 20
252.3873684847519
 30
0.0
 11
2603.382340159005
 21
252.3873684847519
 31
0.0
  0
LINE
  5
27C
  8
回08-記事
  6
CONTINUOUS
 62
     7
 10
2590.998236362337
 20
258.0897684847518
 30
0.0
 11
2603.382340159005
 21
258.0897684847518
 31
0.0
  0
LINE
  5
27D
  8
回08-記事
  6
CONTINUOUS
 62
     7
 10
2590.998236362337
 20
263.7921684847519
 30
0.0
 11
2603.382340159005
 21
263.7921684847519
 31
0.0
  0
LINE
  5
27E
  8
回08-記事
  6
CONTINUOUS
 62
     7
 10
2590.998236362337
 20
269.4945684847518
 30
0.0
 11
2603.382340159005
 21
269.4945684847518
 31
0.0
  0
LINE
  5
27F
  8
回08-記事
  6
CONTINUOUS
 62
     7
 10
2590.998236362337
 20
275.1969684847519
 30
0.0
 11
2603.382340159005
 21
275.1969684847519
 31
0.0
  0
LINE
  5
280
  8
回08-記事
  6
CONTINUOUS
 62
     7
 10
2590.998236362337
 20
280.8993684847518
 30
0.0
 11
2603.382340159005
 21
280.8993684847518
 31
0.0
  0
LINE
  5
281
  8
回08-記事
  6
CONTINUOUS
 62
     7
 10
2590.998236362337
 20
286.601768484752
 30
0.0
 11
2603.382340159005
 21
286.601768484752
 31
0.0
  0
LINE
  5
282
  8
回08-記事
  6
CONTINUOUS
 62
     7
 10
2590.998236362337
 20
292.3041684847519
 30
0.0
 11
2603.382340159005
 21
292.3041684847519
 31
0.0
  0
LINE
  5
283
  8
回08-記事
  6
CONTINUOUS
 62
     7
 10
2590.998236362337
 20
298.006568484752
 30
0.0
 11
2603.382340159005
 21
298.006568484752
 31
0.0
  0
LINE
  5
284
  8
回08-記事
  6
CONTINUOUS
 62
     7
 10
2590.998236362337
 20
303.7089684847519
 30
0.0
 11
2603.382340159005
 21
303.7089684847519
 31
0.0
  0
LINE
  5
285
  8
回08-記事
  6
CONTINUOUS
 62
     7
 10
2590.998236362337
 20
309.4113684847518
 30
0.0
 11
2603.382340159005
 21
309.4113684847518
 31
0.0
  0
TEXT
  5
286
  8
回08-記事
  6
CONTINUOUS
 62
     7
 10
2585.955783834958
 20
222.3362899753267
 30
0.0
 40
3.42144
  1
50
  0
TEXT
  5
287
  8
回08-記事
  6
CONTINUOUS
 62
     7
 10
2585.658968548518
 20
228.0386899753266
 30
0.0
 40
3.42144
  1
49
  0
TEXT
  5
288
  8
回08-記事
  6
CONTINUOUS
 62
     7
 10
2585.693136711251
 20
233.7410899753267
 30
0.0
 40
3.42144
  1
48
  0
TEXT
  5
289
  8
回08-記事
  6
CONTINUOUS
 62
     7
 10
2585.655911036597
 20
239.4434899753266
 30
0.0
 40
3.42144
  1
47
  0
TEXT
  5
28A
  8
回08-記事
  6
CONTINUOUS
 62
     7
 10
2585.655911036597
 20
245.1458899753267
 30
0.0
 40
3.42144
  1
46
  0
TEXT
  5
28B
  8
回08-記事
  6
CONTINUOUS
 62
     7
 10
2585.624096722143
 20
250.8482899753265
 30
0.0
 40
3.42144
  1
45
  0
TEXT
  5
28C
  8
回08-記事
  6
CONTINUOUS
 62
     7
 10
2585.624096722143
 20
256.5506899753267
 30
0.0
 40
3.42144
  1
44
  0
TEXT
  5
28D
  8
回08-記事
  6
CONTINUOUS
 62
     7
 10
2585.614949094832
 20
262.2530899753266
 30
0.0
 40
3.42144
  1
43
  0
TEXT
  5
28E
  8
回08-記事
  6
CONTINUOUS
 62
     7
 10
2585.614949094832
 20
267.9554899753266
 30
0.0
 40
3.42144
  1
42
  0
TEXT
  5
28F
  8
回08-記事
  6
CONTINUOUS
 62
     7
 10
2585.749910182122
 20
273.6578899753267
 30
0.0
 40
3.42144
  1
41
  0
TEXT
  5
290
  8
回08-記事
  6
CONTINUOUS
 62
     7
 10
2585.749910182122
 20
279.3602899753266
 30
0.0
 40
3.42144
  1
40
  0
TEXT
  5
291
  8
回08-記事
  6
CONTINUOUS
 62
     7
 10
2586.086292537273
 20
285.0626899753267
 30
0.0
 40
3.42144
  1
39
  0
TEXT
  5
292
  8
回08-記事
  6
CONTINUOUS
 62
     7
 10
2586.086292537273
 20
290.7650899753268
 30
0.0
 40
3.42144
  1
38
  0
TEXT
  5
293
  8
回08-記事
  6
CONTINUOUS
 62
     7
 10
2586.086080815471
 20
296.4674899753266
 30
0.0
 40
3.42144
  1
37
  0
TEXT
  5
294
  8
回08-記事
  6
CONTINUOUS
 62
     7
 10
2586.086080815471
 20
302.1698899753266
 30
0.0
 40
3.42144
  1
36
  0
TEXT
  5
295
  8
回08-記事
  6
CONTINUOUS
 62
     7
 10
2586.260195639709
 20
307.8722899753266
 30
0.0
 40
3.42144
  1
35
  0
TEXT
  5
296
  8
回08-記事
  6
CONTINUOUS
 62
     7
 10
2569.06098529568
 20
210.9314899753266
 30
0.0
 40
3.42144
  1
SUL
  0
TEXT
  5
297
  8
回08-記事
  6
CONTINUOUS
 62
     7
 10
2569.06098529568
 20
222.3362899753267
 30
0.0
 40
3.42144
  1
L2
  0
TEXT
  5
298
  8
回08-記事
  6
CONTINUOUS
 62
     7
 10
2568.72502969488
 20
342.0866899753267
 30
0.0
 40
3.42144
  1
R3
  0
TEXT
  5
299
  8
回08-記事
  6
CONTINUOUS
 62
     7
 10
2569.06098529568
 20
216.6338899753266
 30
0.0
 40
3.42144
  1
L1
  0
LINE
  5
29A
  8
回08-記事
  6
CONTINUOUS
 62
     7
 10
2555.08335778242
 20
212.4705684847517
 30
0.0
 11
2567.467461579088
 21
212.4705684847517
 31
0.0
  0
LINE
  5
29B
  8
回08-記事
  6
CONTINUOUS
 62
     7
 10
2555.08335778242
 20
218.1729684847518
 30
0.0
 11
2567.467461579088
 21
218.1729684847518
 31
0.0
  0
TEXT
  5
29C
  8
回08-記事
  6
CONTINUOUS
 62
     7
 10
2550.040905255043
 20
210.9314899753266
 30
0.0
 40
3.42144
  1
26
  0
TEXT
  5
29D
  8
回08-記事
  6
CONTINUOUS
 62
     7
 10
2550.040905255043
 20
216.6338899753266
 30
0.0
 40
3.42144
  1
25
  0
TEXT
  5
29E
  8
回08-記事
  6
CONTINUOUS
 62
     7
 10
2568.72502969488
 20
285.0626899753267
 30
0.0
 40
3.42144
  1
SDR
  0
TEXT
  5
29F
  8
回08-記事
  6
CONTINUOUS
 62
     7
 10
2568.72502969488
 20
347.7890899753267
 30
0.0
 40
3.42144
  1
R2
  0
TEXT
  5
2A0
  8
回08-記事
  6
CONTINUOUS
 62
     7
 10
2568.72502969488
 20
250.8482899753265
 30
0.0
 40
3.42144
  1
L7
  0
TEXT
  5
2A1
  8
回08-記事
  6
CONTINUOUS
 62
     7
 10
2568.72502969488
 20
256.5506899753267
 30
0.0
 40
3.42144
  1
L8
  0
TEXT
  5
2A2
  8
回08-記事
  6
CONTINUOUS
 62
     7
 10
2568.72502969488
 20
262.2530899753266
 30
0.0
 40
3.42144
  1
L9
  0
TEXT
  5
2A3
  8
回08-記事
  6
CONTINUOUS
 62
     7
 10
2568.72502969488
 20
296.4674899753266
 30
0.0
 40
3.42144
  1
R11
  0
TEXT
  5
2A4
  8
回08-記事
  6
CONTINUOUS
 62
     7
 10
2568.72502969488
 20
302.1698899753266
 30
0.0
 40
3.42144
  1
R10
  0
TEXT
  5
2A5
  8
回08-記事
  6
CONTINUOUS
 62
     7
 10
2568.72502969488
 20
307.8722899753266
 30
0.0
 40
3.42144
  1
R9
  0
TEXT
  5
2A6
  8
回08-記事
  6
CONTINUOUS
 62
     7
 10
2568.72502969488
 20
313.5746899753266
 30
0.0
 40
3.42144
  1
R8
  0
TEXT
  5
2A7
  8
回08-記事
  6
CONTINUOUS
 62
     7
 10
2568.72502969488
 20
319.2770899753266
 30
0.0
 40
3.42144
  1
R7
  0
TEXT
  5
2A8
  8
回08-記事
  6
CONTINUOUS
 62
     7
 10
2568.72502969488
 20
324.9794899753267
 30
0.0
 40
3.42144
  1
R6
  0
TEXT
  5
2A9
  8
回08-記事
  6
CONTINUOUS
 62
     7
 10
2568.72502969488
 20
330.6818899753267
 30
0.0
 40
3.42144
  1
R5
  0
TEXT
  5
2AA
  8
回08-記事
  6
CONTINUOUS
 62
     7
 10
2568.72502969488
 20
336.3842899753267
 30
0.0
 40
3.42144
  1
R4
  0
TEXT
  5
2AB
  8
回08-記事
  6
CONTINUOUS
 62
     7
 10
2568.72502969488
 20
353.4914899753266
 30
0.0
 40
3.42144
  1
R1
  0
TEXT
  5
2AC
  8
回08-記事
  6
CONTINUOUS
 62
     7
 10
2553.933928885337
 20
361.3854751736846
 30
0.0
 40
3.5
  1
Tail-1
  0
TEXT
  5
2AD
  8
回08-記事
  6
CONTINUOUS
 62
     7
 10
2590.604636410914
 20
361.3854751736846
 30
0.0
 40
3.5
  1
Tail-2
  0
LINE
  5
2AE
  8
回08-記事
  6
CONTINUOUS
 62
     7
 10
2555.08335778242
 20
355.0305684847519
 30
0.0
 11
2567.467461579088
 21
355.0305684847519
 31
0.0
  0
TEXT
  5
2AF
  8
回08-記事
  6
CONTINUOUS
 62
     7
 10
2551.447702671013
 20
353.4914899753266
 30
0.0
 40
3.42144
  1
1
  0
LINE
  5
2B0
  8
回08-記事
  6
CONTINUOUS
 62
     7
 10
2555.08335778242
 20
349.3281684847516
 30
0.0
 11
2567.467461579088
 21
349.3281684847516
 31
0.0
  0
TEXT
  5
2B1
  8
回08-記事
  6
CONTINUOUS
 62
     7
 10
2551.447702671013
 20
347.7890899753267
 30
0.0
 40
3.42144
  1
2
  0
LINE
  5
2B2
  8
回08-記事
  6
CONTINUOUS
 62
     7
 10
2555.08335778242
 20
343.6257684847519
 30
0.0
 11
2567.467461579088
 21
343.6257684847519
 31
0.0
  0
TEXT
  5
2B3
  8
回08-記事
  6
CONTINUOUS
 62
     7
 10
2551.447702671013
 20
342.0866899753267
 30
0.0
 40
3.42144
  1
3
  0
LINE
  5
2B4
  8
回08-記事
  6
CONTINUOUS
 62
     7
 10
2555.08335778242
 20
337.9233684847517
 30
0.0
 11
2567.467461579088
 21
337.9233684847517
 31
0.0
  0
TEXT
  5
2B5
  8
回08-記事
  6
CONTINUOUS
 62
     7
 10
2551.447702671013
 20
336.3842899753267
 30
0.0
 40
3.42144
  1
4
  0
LINE
  5
2B6
  8
回08-記事
  6
CONTINUOUS
 62
     7
 10
2555.08335778242
 20
332.2209684847518
 30
0.0
 11
2567.467461579088
 21
332.2209684847518
 31
0.0
  0
TEXT
  5
2B7
  8
回08-記事
  6
CONTINUOUS
 62
     7
 10
2551.447702671013
 20
330.6818899753267
 30
0.0
 40
3.42144
  1
5
  0
LINE
  5
2B8
  8
回08-記事
  6
CONTINUOUS
 62
     7
 10
2555.08335778242
 20
326.5185684847519
 30
0.0
 11
2567.467461579088
 21
326.5185684847519
 31
0.0
  0
TEXT
  5
2B9
  8
回08-記事
  6
CONTINUOUS
 62
     7
 10
2551.447702671013
 20
324.9794899753267
 30
0.0
 40
3.42144
  1
6
  0
LINE
  5
2BA
  8
回08-記事
  6
CONTINUOUS
 62
     7
 10
2555.08335778242
 20
320.8161684847518
 30
0.0
 11
2567.467461579088
 21
320.8161684847518
 31
0.0
  0
TEXT
  5
2BB
  8
回08-記事
  6
CONTINUOUS
 62
     7
 10
2551.447702671013
 20
319.2770899753266
 30
0.0
 40
3.42144
  1
7
  0
LINE
  5
2BC
  8
回08-記事
  6
CONTINUOUS
 62
     7
 10
2555.08335778242
 20
315.1137684847519
 30
0.0
 11
2567.467461579088
 21
315.1137684847519
 31
0.0
  0
TEXT
  5
2BD
  8
回08-記事
  6
CONTINUOUS
 62
     7
 10
2551.447702671013
 20
313.5746899753266
 30
0.0
 40
3.42144
  1
8
  0
TEXT
  5
2BE
  8
回08-記事
  6
CONTINUOUS
 62
     7
 10
2569.06098529568
 20
228.0386899753266
 30
0.0
 40
3.42144
  1
L3
  0
TEXT
  5
2BF
  8
回08-記事
  6
CONTINUOUS
 62
     7
 10
2569.06098529568
 20
233.7410899753267
 30
0.0
 40
3.42144
  1
L4
  0
TEXT
  5
2C0
  8
回08-記事
  6
CONTINUOUS
 62
     7
 10
2569.06098529568
 20
239.4434899753266
 30
0.0
 40
3.42144
  1
L5
  0
TEXT
  5
2C1
  8
回08-記事
  6
CONTINUOUS
 62
     7
 10
2569.06098529568
 20
245.1458899753267
 30
0.0
 40
3.42144
  1
L6
  0
TEXT
  5
2C2
  8
回08-記事
  6
CONTINUOUS
 62
     7
 10
2568.72502969488
 20
267.9554899753266
 30
0.0
 40
3.42144
  1
L10
  0
TEXT
  5
2C3
  8
回08-記事
  6
CONTINUOUS
 62
     7
 10
2568.72502969488
 20
273.6578899753267
 30
0.0
 40
3.42144
  1
L11
  0
TEXT
  5
2C4
  8
回08-記事
  6
CONTINUOUS
 62
     7
 10
2568.72502969488
 20
279.3602899753266
 30
0.0
 40
3.42144
  1
L12
  0
TEXT
  5
2C5
  8
回08-記事
  6
CONTINUOUS
 62
     7
 10
2568.72502969488
 20
290.7650899753268
 30
0.0
 40
3.42144
  1
R12
  0
LINE
  5
2C6
  8
回08-記事
  6
CONTINUOUS
 62
     7
 10
2555.08335778242
 20
223.8753684847517
 30
0.0
 11
2567.467461579088
 21
223.8753684847517
 31
0.0
  0
LINE
  5
2C7
  8
回08-記事
  6
CONTINUOUS
 62
     7
 10
2555.08335778242
 20
229.5777684847518
 30
0.0
 11
2567.467461579088
 21
229.5777684847518
 31
0.0
  0
LINE
  5
2C8
  8
回08-記事
  6
CONTINUOUS
 62
     7
 10
2555.08335778242
 20
235.2801684847518
 30
0.0
 11
2567.467461579088
 21
235.2801684847518
 31
0.0
  0
LINE
  5
2C9
  8
回08-記事
  6
CONTINUOUS
 62
     7
 10
2555.08335778242
 20
240.9825684847519
 30
0.0
 11
2567.467461579088
 21
240.9825684847519
 31
0.0
  0
LINE
  5
2CA
  8
回08-記事
  6
CONTINUOUS
 62
     7
 10
2555.08335778242
 20
246.6849684847518
 30
0.0
 11
2567.467461579088
 21
246.6849684847518
 31
0.0
  0
LINE
  5
2CB
  8
回08-記事
  6
CONTINUOUS
 62
     7
 10
2555.08335778242
 20
252.3873684847519
 30
0.0
 11
2567.467461579088
 21
252.3873684847519
 31
0.0
  0
LINE
  5
2CC
  8
回08-記事
  6
CONTINUOUS
 62
     7
 10
2555.08335778242
 20
258.0897684847518
 30
0.0
 11
2567.467461579088
 21
258.0897684847518
 31
0.0
  0
LINE
  5
2CD
  8
回08-記事
  6
CONTINUOUS
 62
     7
 10
2555.08335778242
 20
263.7921684847519
 30
0.0
 11
2567.467461579088
 21
263.7921684847519
 31
0.0
  0
LINE
  5
2CE
  8
回08-記事
  6
CONTINUOUS
 62
     7
 10
2555.08335778242
 20
269.4945684847518
 30
0.0
 11
2567.467461579088
 21
269.4945684847518
 31
0.0
  0
LINE
  5
2CF
  8
回08-記事
  6
CONTINUOUS
 62
     7
 10
2555.08335778242
 20
275.1969684847519
 30
0.0
 11
2567.467461579088
 21
275.1969684847519
 31
0.0
  0
LINE
  5
2D0
  8
回08-記事
  6
CONTINUOUS
 62
     7
 10
2555.08335778242
 20
280.8993684847518
 30
0.0
 11
2567.467461579088
 21
280.8993684847518
 31
0.0
  0
LINE
  5
2D1
  8
回08-記事
  6
CONTINUOUS
 62
     7
 10
2555.08335778242
 20
286.601768484752
 30
0.0
 11
2567.467461579088
 21
286.601768484752
 31
0.0
  0
LINE
  5
2D2
  8
回08-記事
  6
CONTINUOUS
 62
     7
 10
2555.08335778242
 20
292.3041684847519
 30
0.0
 11
2567.467461579088
 21
292.3041684847519
 31
0.0
  0
LINE
  5
2D3
  8
回08-記事
  6
CONTINUOUS
 62
     7
 10
2555.08335778242
 20
298.006568484752
 30
0.0
 11
2567.467461579088
 21
298.006568484752
 31
0.0
  0
LINE
  5
2D4
  8
回08-記事
  6
CONTINUOUS
 62
     7
 10
2555.08335778242
 20
303.7089684847519
 30
0.0
 11
2567.467461579088
 21
303.7089684847519
 31
0.0
  0
LINE
  5
2D5
  8
回08-記事
  6
CONTINUOUS
 62
     7
 10
2555.08335778242
 20
309.4113684847518
 30
0.0
 11
2567.467461579088
 21
309.4113684847518
 31
0.0
  0
TEXT
  5
2D6
  8
回08-記事
  6
CONTINUOUS
 62
     7
 10
2550.040905255043
 20
222.3362899753267
 30
0.0
 40
3.42144
  1
24
  0
TEXT
  5
2D7
  8
回08-記事
  6
CONTINUOUS
 62
     7
 10
2550.040905255043
 20
228.0386899753266
 30
0.0
 40
3.42144
  1
23
  0
TEXT
  5
2D8
  8
回08-記事
  6
CONTINUOUS
 62
     7
 10
2550.040905255043
 20
233.7410899753267
 30
0.0
 40
3.42144
  1
22
  0
TEXT
  5
2D9
  8
回08-記事
  6
CONTINUOUS
 62
     7
 10
2550.040905255043
 20
239.4434899753266
 30
0.0
 40
3.42144
  1
21
  0
TEXT
  5
2DA
  8
回08-記事
  6
CONTINUOUS
 62
     7
 10
2550.040905255043
 20
245.1458899753267
 30
0.0
 40
3.42144
  1
20
  0
TEXT
  5
2DB
  8
回08-記事
  6
CONTINUOUS
 62
     7
 10
2550.040905255043
 20
250.8482899753265
 30
0.0
 40
3.42144
  1
19
  0
TEXT
  5
2DC
  8
回08-記事
  6
CONTINUOUS
 62
     7
 10
2550.040905255043
 20
256.5506899753267
 30
0.0
 40
3.42144
  1
18
  0
TEXT
  5
2DD
  8
回08-記事
  6
CONTINUOUS
 62
     7
 10
2550.040905255043
 20
262.2530899753266
 30
0.0
 40
3.42144
  1
17
  0
TEXT
  5
2DE
  8
回08-記事
  6
CONTINUOUS
 62
     7
 10
2550.040905255043
 20
267.9554899753266
 30
0.0
 40
3.42144
  1
16
  0
TEXT
  5
2DF
  8
回08-記事
  6
CONTINUOUS
 62
     7
 10
2549.835031602205
 20
273.6578899753267
 30
0.0
 40
3.42144
  1
15
  0
TEXT
  5
2E0
  8
回08-記事
  6
CONTINUOUS
 62
     7
 10
2549.835031602205
 20
279.3602899753266
 30
0.0
 40
3.42144
  1
14
  0
TEXT
  5
2E1
  8
回08-記事
  6
CONTINUOUS
 62
     7
 10
2549.835031602205
 20
285.0626899753267
 30
0.0
 40
3.42144
  1
13
  0
TEXT
  5
2E2
  8
回08-記事
  6
CONTINUOUS
 62
     7
 10
2549.835031602205
 20
290.7650899753268
 30
0.0
 40
3.42144
  1
12
  0
TEXT
  5
2E3
  8
回08-記事
  6
CONTINUOUS
 62
     7
 10
2549.835031602205
 20
296.4674899753266
 30
0.0
 40
3.42144
  1
11
  0
TEXT
  5
2E4
  8
回08-記事
  6
CONTINUOUS
 62
     7
 10
2549.835031602205
 20
302.1698899753266
 30
0.0
 40
3.42144
  1
10
  0
TEXT
  5
2E5
  8
回08-記事
  6
CONTINUOUS
 62
     7
 10
2551.447702671013
 20
307.8722899753266
 30
0.0
 40
3.42144
  1
9
  0
TEXT
  5
2E6
  8
回90-枠2
 10
2584.883163877965
 20
382.5355647662622
 30
0.0
 40
4.0
  1
H
  0
LINE
  5
2E7
  8
回90-枠2
 10
2551.153778572312
 20
387.1631416402109
 30
0.0
 11
2551.153778572312
 21
382.1631416402109
 31
0.0
  0
LINE
  5
2E8
  8
回90-枠2
 10
2481.153778572312
 20
387.1631416402109
 30
0.0
 11
2481.153778572312
 21
382.1631416402109
 31
0.0
  0
TEXT
  5
2E9
  8
回90-枠2
 10
2444.883163877965
 20
382.5355647662622
 30
0.0
 40
4.0
  1
F
  0
LINE
  5
2EA
  8
回90-枠2
 10
2411.153778572312
 20
387.1631416402109
 30
0.0
 11
2411.153778572312
 21
382.1631416402109
 31
0.0
  0
TEXT
  5
2EB
  8
回90-枠2
 10
2374.883163877965
 20
382.5355647662622
 30
0.0
 40
4.0
  1
E
  0
TEXT
  5
2EC
  8
回90-枠2
 10
2514.883163877966
 20
382.5355647662622
 30
0.0
 40
4.0
  1
G
  0
LINE
  5
2ED
  8
回90-枠2
 10
2341.153778572312
 20
387.1631416402109
 30
0.0
 11
2341.153778572312
 21
382.1631416402109
 31
0.0
  0
TEXT
  5
2EE
  8
回90-枠2
 10
2304.883163877965
 20
382.5355647662622
 30
0.0
 40
4.0
  1
D
  0
LINE
  5
2EF
  8
回90-枠2
 10
2271.153778572312
 20
387.1631416402109
 30
0.0
 11
2271.153778572312
 21
382.1631416402109
 31
0.0
  0
TEXT
  5
2F0
  8
回90-枠2
 10
2234.883163877965
 20
382.5355647662622
 30
0.0
 40
4.0
  1
C
  0
LINE
  5
2F1
  8
回90-枠2
 10
2201.153778572312
 20
387.1631416402109
 30
0.0
 11
2201.153778572312
 21
382.1631416402109
 31
0.0
  0
TEXT
  5
2F2
  8
回90-枠2
 10
2164.883163877965
 20
382.5355647662622
 30
0.0
 40
4.0
  1
B
  0
LINE
  5
2F3
  8
回90-枠2
 10
2131.153778572312
 20
387.1631416402109
 30
0.0
 11
2131.153778572312
 21
382.1631416402109
 31
0.0
  0
TEXT
  5
2F4
  8
回90-枠2
 10
2094.883163877965
 20
382.5355647662622
 30
0.0
 40
4.0
  1
A
  0
LINE
  5
2F5
  8
回90-枠2
 10
2626.153778572312
 20
387.1631416402109
 30
0.0
 11
2056.153778572312
 21
387.1631416402109
 31
0.0
  0
LINE
  5
2F6
  8
回90-枠2
 10
2061.153778572312
 20
382.1631416402109
 30
0.0
 11
2621.153778572312
 21
382.1631416402109
 31
0.0
  0
TEXT
  5
2F7
  8
回90-枠2
 10
2622.558199575971
 20
341.4518289360702
 30
0.0
 40
4.0
  1
1
  0
LINE
  5
2F8
  8
回90-枠2
 10
2626.153778572312
 20
305.163141640211
 30
0.0
 11
2621.153778572312
 21
305.163141640211
 31
0.0
  0
TEXT
  5
2F9
  8
回90-枠2
 10
2622.25670087267
 20
264.4518289360702
 30
0.0
 40
4.0
  1
2
  0
LINE
  5
2FA
  8
回90-枠2
 10
2626.153778572312
 20
228.163141640211
 30
0.0
 11
2621.153778572312
 21
228.163141640211
 31
0.0
  0
TEXT
  5
2FB
  8
回90-枠2
 10
2622.251220028469
 20
187.4518289360701
 30
0.0
 40
4.0
  1
3
  0
LINE
  5
2FC
  8
回90-枠2
 10
2626.153778572312
 20
151.163141640211
 30
0.0
 11
2621.153778572312
 21
151.163141640211
 31
0.0
  0
TEXT
  5
2FD
  8
回90-枠2
 10
2622.178127908388
 20
110.4518289360703
 30
0.0
 40
4.0
  1
4
  0
TEXT
  5
2FE
  8
回90-枠2
 10
2057.558199575972
 20
341.4518289360702
 30
0.0
 40
4.0
  1
1
  0
LINE
  5
2FF
  8
回90-枠2
 10
2061.153778572312
 20
305.163141640211
 30
0.0
 11
2056.153778572312
 21
305.163141640211
 31
0.0
  0
TEXT
  5
300
  8
回90-枠2
 10
2057.25670087267
 20
264.4518289360702
 30
0.0
 40
4.0
  1
2
  0
LINE
  5
301
  8
回90-枠2
 10
2061.153778572312
 20
228.163141640211
 30
0.0
 11
2056.153778572312
 21
228.163141640211
 31
0.0
  0
TEXT
  5
302
  8
回90-枠2
 10
2057.251220028469
 20
187.4518289360701
 30
0.0
 40
4.0
  1
3
  0
LINE
  5
303
  8
回90-枠2
 10
2061.153778572312
 20
151.163141640211
 30
0.0
 11
2056.153778572312
 21
151.163141640211
 31
0.0
  0
TEXT
  5
304
  8
回90-枠2
 10
2057.178127908388
 20
110.4518289360703
 30
0.0
 40
4.0
  1
4
  0
LINE
  5
305
  8
回90-枠2
 10
2626.153778572312
 20
74.16314164021098
 30
0.0
 11
2621.153778572312
 21
74.16314164021098
 31
0.0
  0
TEXT
  5
306
  8
回90-枠2
 10
2622.178127908388
 20
33.4518289360703
 30
0.0
 40
4.0
  1
5
  0
TEXT
  5
307
  8
回90-枠2
 10
2584.883163877965
 20
-7.464435233737787
 30
0.0
 40
4.0
  1
H
  0
LINE
  5
308
  8
回90-枠2
 10
2551.153778572312
 20
-2.836858359789005
 30
0.0
 11
2551.153778572312
 21
-7.836858359789004
 31
0.0
  0
LINE
  5
309
  8
回90-枠2
 10
2481.153778572312
 20
-2.836858359789005
 30
0.0
 11
2481.153778572312
 21
-7.836858359789004
 31
0.0
  0
TEXT
  5
30A
  8
回90-枠2
 10
2444.883163877965
 20
-7.464435233737787
 30
0.0
 40
4.0
  1
F
  0
LINE
  5
30B
  8
回90-枠2
 10
2411.153778572312
 20
-2.836858359789005
 30
0.0
 11
2411.153778572312
 21
-7.836858359789004
 31
0.0
  0
TEXT
  5
30C
  8
回90-枠2
 10
2374.883163877965
 20
-7.464435233737787
 30
0.0
 40
4.0
  1
E
  0
TEXT
  5
30D
  8
回90-枠2
 10
2514.883163877966
 20
-7.464435233737787
 30
0.0
 40
4.0
  1
G
  0
LINE
  5
30E
  8
回90-枠2
 10
2341.153778572312
 20
-2.836858359789005
 30
0.0
 11
2341.153778572312
 21
-7.836858359789004
 31
0.0
  0
TEXT
  5
30F
  8
回90-枠2
 10
2304.883163877965
 20
-7.464435233737787
 30
0.0
 40
4.0
  1
D
  0
LINE
  5
310
  8
回90-枠2
 10
2271.153778572312
 20
-2.836858359789005
 30
0.0
 11
2271.153778572312
 21
-7.836858359789004
 31
0.0
  0
TEXT
  5
311
  8
回90-枠2
 10
2234.883163877965
 20
-7.464435233737787
 30
0.0
 40
4.0
  1
C
  0
LINE
  5
312
  8
回90-枠2
 10
2201.153778572312
 20
-2.836858359789005
 30
0.0
 11
2201.153778572312
 21
-7.836858359789004
 31
0.0
  0
LINE
  5
313
  8
回90-枠2
 10
2061.153778572312
 20
74.16314164021098
 30
0.0
 11
2056.153778572312
 21
74.16314164021098
 31
0.0
  0
TEXT
  5
314
  8
回90-枠2
 10
2057.178127908388
 20
33.4518289360703
 30
0.0
 40
4.0
  1
5
  0
TEXT
  5
315
  8
回90-枠2
 10
2164.883163877965
 20
-7.464435233737787
 30
0.0
 40
4.0
  1
B
  0
LINE
  5
316
  8
回90-枠2
 10
2131.153778572312
 20
-2.836858359789005
 30
0.0
 11
2131.153778572312
 21
-7.836858359789004
 31
0.0
  0
TEXT
  5
317
  8
回90-枠2
 10
2094.883163877965
 20
-7.464435233737787
 30
0.0
 40
4.0
  1
A
  0
LINE
  5
318
  8
回90-枠2
 10
2061.153778572312
 20
-2.836858359789005
 30
0.0
 11
2621.153778572312
 21
-2.836858359789005
 31
0.0
  0
LINE
  5
319
  8
回90-枠2
 10
2626.153778572312
 20
-7.836858359789004
 30
0.0
 11
2056.153778572312
 21
-7.836858359789004
 31
0.0
  0
LINE
  5
31A
  8
回90-枠2
 10
2626.153778572312
 20
-7.836858359789004
 30
0.0
 11
2626.153778572312
 21
387.1631416402109
 31
0.0
  0
LINE
  5
31B
  8
回90-枠2
 10
2621.153778572312
 20
382.1631416402109
 30
0.0
 11
2621.153778572312
 21
-2.836858359789005
 31
0.0
  0
LINE
  5
31C
  8
回90-枠2
 10
2056.153778572312
 20
-7.836858359789004
 30
0.0
 11
2056.153778572312
 21
387.1631416402109
 31
0.0
  0
LINE
  5
31D
  8
回90-枠2
 10
2061.153778572312
 20
382.1631416402109
 30
0.0
 11
2061.153778572312
 21
-2.836858359789005
 31
0.0
  0
TEXT
  5
31E
  8
回08-記事
  6
CONTINUOUS
 62
     5
 10
2388.294190787874
 20
115.8990042821966
 30
0.0
 40
4.0
  1
Part No. label
1001
ACAD
1000
MTEXTBEGIN
1070
    73
1070
     1
1070
    44
1040
1.0
1070
    74
1070
     0
1000
MTEXTEND
  0
INSERT
  5
31F
  8
回08-記事
  6
CONTINUOUS
 62
     7
 66
     1
  2
*X8181
 10
0.0
 20
0.0
 30
0.0
  0
SEQEND
  5
7C9
  8
0
  6
CONTINUOUS
 62
     7
  0
TEXT
  5
320
  8
回08-記事
  6
CONTINUOUS
 62
     5
 10
2445.069853082957
 20
113.8353996547849
 30
0.0
 40
5.0
  1
Lot label
1001
ACAD
1000
MTEXTBEGIN
1070
    73
1070
     1
1070
    44
1040
1.0
1070
    74
1070
     0
1000
MTEXTEND
  0
INSERT
  5
321
  8
回08-記事
  6
CONTINUOUS
 62
     7
 66
     1
  2
*X8282
 10
0.0
 20
0.0
 30
0.0
  0
SEQEND
  5
7D0
  8
0
  6
CONTINUOUS
 62
     7
  0
POLYLINE
  5
322
  8
回08-記事
  6
CONTINUOUS
 62
     7
 66
     1
 10
0.0
 20
0.0
 30
0.0
 70
     1
  0
VERTEX
  5
BFB
  8
回08-記事
  6
CONTINUOUS
 62
     7
 10
2436.248513954133
 20
126.8742541450134
 30
0.0
  0
VERTEX
  5
BFD
  8
回08-記事
  6
CONTINUOUS
 62
     7
 10
2436.948513954133
 20
126.8742541450134
 30
0.0
  0
VERTEX
  5
BFE
  8
回08-記事
  6
CONTINUOUS
 62
     7
 10
2436.948513954133
 20
100.8742541450134
 30
0.0
  0
VERTEX
  5
BFF
  8
回08-記事
  6
CONTINUOUS
 62
     7
 10
2436.248513954133
 20
100.8742541450134
 30
0.0
  0
SEQEND
  5
BFC
  8
0
  6
CONTINUOUS
 62
     7
  0
INSERT
  5
323
  8
回08-記事
  6
CONTINUOUS
 62
     7
 66
     1
  2
*X8383
 10
0.0
 20
0.0
 30
0.0
1001
GRADIENTCOLOR1ACI
1070
     5
1001
GRADIENTCOLOR2ACI
1070
     2
1001
ACAD
1010
0.0
1020
0.0
1030
0.0
  0
SEQEND
  5
7ED
  8
0
  6
CONTINUOUS
 62
     7
  0
ARC
  5
324
  8
回08-記事
  6
CONTINUOUS
 62
     7
 10
2437.948513954133
 20
176.0658864188061
 30
0.0
 40
0.416177340283639
 50
90.0
 51
270.0
  0
ARC
  5
325
  8
回08-記事
  6
CONTINUOUS
 62
     7
 10
2437.948513954133
 20
172.565886418806
 30
0.0
 40
0.416177340283639
 50
90.0
 51
270.0
  0
ARC
  5
326
  8
回08-記事
  6
CONTINUOUS
 62
     7
 10
2437.948513954133
 20
169.0658864188061
 30
0.0
 40
0.416177340283639
 50
90.0
 51
270.0
  0
ARC
  5
327
  8
回08-記事
  6
CONTINUOUS
 62
     7
 10
2437.948513954133
 20
165.5658864188061
 30
0.0
 40
0.416177340283639
 50
90.0
 51
270.0
  0
ARC
  5
328
  8
回08-記事
  6
CONTINUOUS
 62
     7
 10
2437.948513954133
 20
162.0658864188061
 30
0.0
 40
0.416177340283639
 50
90.0
 51
270.0
  0
ARC
  5
329
  8
回08-記事
  6
CONTINUOUS
 62
     7
 10
2437.948513954133
 20
158.5658864188061
 30
0.0
 40
0.416177340283639
 50
90.0
 51
270.0
  0
ARC
  5
32A
  8
回08-記事
  6
CONTINUOUS
 62
     7
 10
2437.948513954133
 20
186.5658864188061
 30
0.0
 40
0.416177340283639
 50
90.0
 51
270.0
  0
ARC
  5
32B
  8
回08-記事
  6
CONTINUOUS
 62
     7
 10
2437.948513954133
 20
183.0658864188061
 30
0.0
 40
0.416177340283639
 50
90.0
 51
270.0
  0
ARC
  5
32C
  8
回08-記事
  6
CONTINUOUS
 62
     7
 10
2437.948513954133
 20
179.5658864188061
 30
0.0
 40
0.416177340283639
 50
90.0
 51
270.0
  0
ARC
  5
32D
  8
回08-記事
  6
CONTINUOUS
 62
     7
 10
2437.948513954133
 20
207.5658864188061
 30
0.0
 40
0.416177340283639
 50
90.0
 51
270.0
  0
ARC
  5
32E
  8
回08-記事
  6
CONTINUOUS
 62
     7
 10
2437.948513954133
 20
204.0658864188061
 30
0.0
 40
0.416177340283639
 50
90.0
 51
270.0
  0
ARC
  5
32F
  8
回08-記事
  6
CONTINUOUS
 62
     7
 10
2437.948513954133
 20
200.5658864188061
 30
0.0
 40
0.416177340283639
 50
90.0
 51
270.0
  0
ARC
  5
330
  8
回08-記事
  6
CONTINUOUS
 62
     7
 10
2437.948513954133
 20
197.0658864188061
 30
0.0
 40
0.416177340283639
 50
90.0
 51
270.0
  0
ARC
  5
331
  8
回08-記事
  6
CONTINUOUS
 62
     7
 10
2437.948513954133
 20
193.5658864188061
 30
0.0
 40
0.416177340283639
 50
90.0
 51
270.0
  0
ARC
  5
332
  8
回08-記事
  6
CONTINUOUS
 62
     7
 10
2437.948513954133
 20
190.0658864188061
 30
0.0
 40
0.416177340283639
 50
90.0
 51
270.0
  0
ARC
  5
333
  8
回08-記事
  6
CONTINUOUS
 62
     7
 10
2437.948513954133
 20
186.5658864188061
 30
0.0
 40
0.416177340283639
 50
90.0
 51
270.0
  0
ARC
  5
334
  8
回08-記事
  6
CONTINUOUS
 62
     7
 10
2437.948513954133
 20
253.0658864188061
 30
0.0
 40
0.416177340283639
 50
90.0
 51
270.0
  0
ARC
  5
335
  8
回08-記事
  6
CONTINUOUS
 62
     7
 10
2437.948513954133
 20
249.5658864188061
 30
0.0
 40
0.416177340283639
 50
90.0
 51
270.0
  0
ARC
  5
336
  8
回08-記事
  6
CONTINUOUS
 62
     7
 10
2437.948513954133
 20
246.0658864188061
 30
0.0
 40
0.416177340283639
 50
90.0
 51
270.0
  0
ARC
  5
337
  8
回08-記事
  6
CONTINUOUS
 62
     7
 10
2437.948513954133
 20
242.5658864188061
 30
0.0
 40
0.416177340283639
 50
90.0
 51
270.0
  0
ARC
  5
338
  8
回08-記事
  6
CONTINUOUS
 62
     7
 10
2437.948513954133
 20
239.0658864188061
 30
0.0
 40
0.416177340283639
 50
90.0
 51
270.0
  0
ARC
  5
339
  8
回08-記事
  6
CONTINUOUS
 62
     7
 10
2437.948513954133
 20
235.5658864188061
 30
0.0
 40
0.416177340283639
 50
90.0
 51
270.0
  0
ARC
  5
33A
  8
回08-記事
  6
CONTINUOUS
 62
     7
 10
2437.948513954133
 20
232.0658864188061
 30
0.0
 40
0.416177340283639
 50
90.0
 51
270.0
  0
ARC
  5
33B
  8
回08-記事
  6
CONTINUOUS
 62
     7
 10
2437.948513954133
 20
228.5658864188061
 30
0.0
 40
0.416177340283639
 50
90.0
 51
270.0
  0
ARC
  5
33C
  8
回08-記事
  6
CONTINUOUS
 62
     7
 10
2437.948513954133
 20
225.0658864188061
 30
0.0
 40
0.416177340283639
 50
90.0
 51
270.0
  0
ARC
  5
33D
  8
回08-記事
  6
CONTINUOUS
 62
     7
 10
2437.948513954133
 20
221.5658864188061
 30
0.0
 40
0.416177340283639
 50
90.0
 51
270.0
  0
ARC
  5
33E
  8
回08-記事
  6
CONTINUOUS
 62
     7
 10
2437.948513954133
 20
218.0658864188061
 30
0.0
 40
0.416177340283639
 50
90.0
 51
270.0
  0
ARC
  5
33F
  8
回08-記事
  6
CONTINUOUS
 62
     7
 10
2437.948513954133
 20
214.5658864188061
 30
0.0
 40
0.416177340283639
 50
90.0
 51
270.0
  0
ARC
  5
340
  8
回08-記事
  6
CONTINUOUS
 62
     7
 10
2437.948513954133
 20
211.0658864188061
 30
0.0
 40
0.416177340283639
 50
90.0
 51
270.0
  0
ARC
  5
341
  8
回08-記事
  6
CONTINUOUS
 62
     7
 10
2437.948513954133
 20
319.5658864188059
 30
0.0
 40
0.416177340283639
 50
90.0
 51
270.0
  0
ARC
  5
342
  8
回08-記事
  6
CONTINUOUS
 62
     7
 10
2437.948513954133
 20
316.0658864188059
 30
0.0
 40
0.416177340283639
 50
90.0
 51
270.0
  0
ARC
  5
343
  8
回08-記事
  6
CONTINUOUS
 62
     7
 10
2437.948513954133
 20
312.5658864188058
 30
0.0
 40
0.416177340283639
 50
90.0
 51
270.0
  0
ARC
  5
344
  8
回08-記事
  6
CONTINUOUS
 62
     7
 10
2437.948513954133
 20
309.0658864188059
 30
0.0
 40
0.416177340283639
 50
90.0
 51
270.0
  0
ARC
  5
345
  8
回08-記事
  6
CONTINUOUS
 62
     7
 10
2437.948513954133
 20
305.5658864188059
 30
0.0
 40
0.416177340283639
 50
90.0
 51
270.0
  0
ARC
  5
346
  8
回08-記事
  6
CONTINUOUS
 62
     7
 10
2437.948513954133
 20
302.0658864188058
 30
0.0
 40
0.416177340283639
 50
90.0
 51
270.0
  0
ARC
  5
347
  8
回08-記事
  6
CONTINUOUS
 62
     7
 10
2437.948513954133
 20
298.5658864188059
 30
0.0
 40
0.416177340283639
 50
90.0
 51
270.0
  0
ARC
  5
348
  8
回08-記事
  6
CONTINUOUS
 62
     7
 10
2437.948513954133
 20
295.0658864188059
 30
0.0
 40
0.416177340283639
 50
90.0
 51
270.0
  0
ARC
  5
349
  8
回08-記事
  6
CONTINUOUS
 62
     7
 10
2437.948513954133
 20
291.5658864188058
 30
0.0
 40
0.416177340283639
 50
90.0
 51
270.0
  0
ARC
  5
34A
  8
回08-記事
  6
CONTINUOUS
 62
     7
 10
2437.948513954133
 20
288.0658864188059
 30
0.0
 40
0.416177340283639
 50
90.0
 51
270.0
  0
ARC
  5
34B
  8
回08-記事
  6
CONTINUOUS
 62
     7
 10
2437.948513954133
 20
284.5658864188059
 30
0.0
 40
0.416177340283639
 50
90.0
 51
270.0
  0
ARC
  5
34C
  8
回08-記事
  6
CONTINUOUS
 62
     7
 10
2437.948513954133
 20
281.0658864188058
 30
0.0
 40
0.416177340283639
 50
90.0
 51
270.0
  0
ARC
  5
34D
  8
回08-記事
  6
CONTINUOUS
 62
     7
 10
2437.948513954133
 20
277.5658864188059
 30
0.0
 40
0.416177340283639
 50
90.0
 51
270.0
  0
ARC
  5
34E
  8
回08-記事
  6
CONTINUOUS
 62
     7
 10
2437.948513954133
 20
274.0658864188059
 30
0.0
 40
0.416177340283639
 50
90.0
 51
270.0
  0
ARC
  5
34F
  8
回08-記事
  6
CONTINUOUS
 62
     7
 10
2437.948513954133
 20
270.5658864188059
 30
0.0
 40
0.416177340283639
 50
90.0
 51
270.0
  0
ARC
  5
350
  8
回08-記事
  6
CONTINUOUS
 62
     7
 10
2437.948513954133
 20
267.0658864188059
 30
0.0
 40
0.416177340283639
 50
90.0
 51
270.0
  0
ARC
  5
351
  8
回08-記事
  6
CONTINUOUS
 62
     7
 10
2437.948513954133
 20
263.5658864188059
 30
0.0
 40
0.416177340283639
 50
90.0
 51
270.0
  0
ARC
  5
352
  8
回08-記事
  6
CONTINUOUS
 62
     7
 10
2437.948513954133
 20
260.0658864188061
 30
0.0
 40
0.416177340283639
 50
90.0
 51
270.0
  0
ARC
  5
353
  8
回08-記事
  6
CONTINUOUS
 62
     7
 10
2437.948513954133
 20
256.5658864188061
 30
0.0
 40
0.416177340283639
 50
90.0
 51
270.0
  0
POLYLINE
  5
354
  8
回08-記事
  6
CONTINUOUS
 62
     7
 66
     1
 10
0.0
 20
0.0
 30
0.0
 70
     1
  0
VERTEX
  5
C00
  8
回08-記事
  6
CONTINUOUS
 62
     7
 10
2438.648513954133
 20
126.8742541450134
 30
0.0
  0
VERTEX
  5
C02
  8
回08-記事
  6
CONTINUOUS
 62
     7
 10
2439.348513954133
 20
126.8742541450134
 30
0.0
  0
VERTEX
  5
C03
  8
回08-記事
  6
CONTINUOUS
 62
     7
 10
2439.348513954133
 20
100.8742541450134
 30
0.0
  0
VERTEX
  5
C04
  8
回08-記事
  6
CONTINUOUS
 62
     7
 10
2438.648513954133
 20
100.8742541450134
 30
0.0
  0
SEQEND
  5
C01
  8
0
  6
CONTINUOUS
 62
     7
  0
INSERT
  5
355
  8
回08-記事
  6
CONTINUOUS
 62
     7
 66
     1
  2
*X8484
 10
0.0
 20
0.0
 30
0.0
1001
GRADIENTCOLOR1ACI
1070
     5
1001
GRADIENTCOLOR2ACI
1070
     2
1001
ACAD
1010
0.0
1020
0.0
1030
0.0
  0
SEQEND
  5
80A
  8
0
  6
CONTINUOUS
 62
     7
  0
LINE
  5
356
  8
回08-記事
  6
CONTINUOUS
 62
     7
 10
2438.648513954133
 20
147.8508864188057
 30
0.0
 11
2438.648513954133
 21
144.2191727184143
 31
0.0
1001
ACAD
1000
ASC_BOUNDS
1002
{
1070
    19
1005
364
1002
}
  0
LINE
  5
357
  8
回08-記事
  6
CONTINUOUS
 62
     7
 10
2444.948513954133
 20
147.8508864188057
 30
0.0
 11
2438.648513954133
 21
147.8508864188057
 31
0.0
1001
ACAD
1000
ASC_BOUNDS
1002
{
1070
    19
1005
364
1002
}
  0
LINE
  5
358
  8
回08-記事
  6
CONTINUOUS
 62
     7
 10
2444.948513954133
 20
151.4191727184143
 30
0.0
 11
2444.948513954133
 21
147.8508864188057
 31
0.0
1001
ACAD
1000
ASC_BOUNDS
1002
{
1070
    19
1005
364
1002
}
  0
LINE
  5
359
  8
回08-記事
  6
CONTINUOUS
 62
     7
 10
2445.648513954133
 20
151.4191727184143
 30
0.0
 11
2444.948513954133
 21
151.4191727184143
 31
0.0
1001
ACAD
1000
ASC_BOUNDS
1002
{
1070
    19
1005
364
1002
}
  0
LINE
  5
35A
  8
回08-記事
  6
CONTINUOUS
 62
     7
 10
2445.648513954133
 20
147.1508864188059
 30
0.0
 11
2445.648513954133
 21
151.4191727184143
 31
0.0
1001
ACAD
1000
ASC_BOUNDS
1002
{
1070
    19
1005
364
1002
}
  0
LINE
  5
35B
  8
回08-記事
  6
CONTINUOUS
 62
     7
 10
2439.348513954133
 20
147.1508864188059
 30
0.0
 11
2445.648513954133
 21
147.1508864188059
 31
0.0
1001
ACAD
1000
ASC_BOUNDS
1002
{
1070
    19
1005
364
1002
}
  0
LINE
  5
35C
  8
回08-記事
  6
CONTINUOUS
 62
     7
 10
2439.348513954133
 20
144.2191727184143
 30
0.0
 11
2439.348513954133
 21
147.1508864188059
 31
0.0
1001
ACAD
1000
ASC_BOUNDS
1002
{
1070
    19
1005
364
1002
}
  0
LINE
  5
35D
  8
回08-記事
  6
CONTINUOUS
 62
     7
 10
2438.648513954133
 20
144.2191727184143
 30
0.0
 11
2439.348513954133
 21
144.2191727184143
 31
0.0
1001
ACAD
1000
ASC_BOUNDS
1002
{
1070
    19
1005
364
1002
}
  0
LINE
  5
35E
  8
回08-記事
  6
CONTINUOUS
 62
     7
 10
2429.755329735162
 20
144.2191727184143
 30
0.0
 11
2429.055329735164
 21
144.2191727184143
 31
0.0
1001
ACAD
1000
ASC_BOUNDS
1002
{
1070
    19
1005
364
1002
}
  0
LINE
  5
35F
  8
回08-記事
  6
CONTINUOUS
 62
     7
 10
2429.755329735162
 20
147.1508864188059
 30
0.0
 11
2429.755329735162
 21
144.2191727184143
 31
0.0
1001
ACAD
1000
ASC_BOUNDS
1002
{
1070
    19
1005
364
1002
}
  0
LINE
  5
360
  8
回08-記事
  6
CONTINUOUS
 62
     7
 10
2436.948513954133
 20
147.1508864188059
 30
0.0
 11
2429.755329735162
 21
147.1508864188059
 31
0.0
1001
ACAD
1000
ASC_BOUNDS
1002
{
1070
    19
1005
364
1002
}
  0
LINE
  5
361
  8
回08-記事
  6
CONTINUOUS
 62
     7
 10
2436.948513954133
 20
148.1508864188059
 30
0.0
 11
2436.948513954133
 21
147.1508864188059
 31
0.0
1001
ACAD
1000
ASC_BOUNDS
1002
{
1070
    19
1005
364
1002
}
  0
LINE
  5
362
  8
回08-記事
  6
CONTINUOUS
 62
     7
 10
2429.055329735164
 20
148.1508864188059
 30
0.0
 11
2436.948513954133
 21
148.1508864188059
 31
0.0
1001
ACAD
1000
ASC_BOUNDS
1002
{
1070
    19
1005
364
1002
}
  0
LINE
  5
363
  8
回08-記事
  6
CONTINUOUS
 62
     7
 10
2429.055329735164
 20
144.2191727184143
 30
0.0
 11
2429.055329735164
 21
148.1508864188059
 31
0.0
1001
ACAD
1000
ASC_BOUNDS
1002
{
1070
    19
1005
364
1002
}
  0
INSERT
  5
364
  8
回08-記事
  6
CONTINUOUS
 62
     7
 66
     1
  2
*X8585
 10
0.0
 20
0.0
 30
0.0
1001
GRADIENTCOLOR1ACI
1070
     5
1001
GRADIENTCOLOR2ACI
1070
     2
1001
ACAD
1010
0.0
1020
0.0
1030
0.0
  0
SEQEND
  5
821
  8
0
  6
CONTINUOUS
 62
     7
  0
DIMENSION
  5
365
  8
回08-記事
  6
CONTINUOUS
 62
     7
  2
*D5959
 10
2437.948513954133
 20
40.40702720876932
 30
0.0
 11
2446.724842556495
 21
42.40702720876933
 31
0.0
 70
    32
  1
0.3{\H0.6667x;±0.05}
  3
DMC
 13
2435.448513954133
 23
47.85493478961696
 33
0.0
 14
2437.948513954133
 24
47.85493478961696
 34
0.0
1001
ACADSTRINGINFO
1000
MIFCodePage
1070
     1
1001
ACAD
1000
DSTYLE
1002
{
1070
    41
1040
1.5
1070
    47
1040
0.2
1070
    48
1040
0.2
1070
   141
1040
1.5
1070
   371
1070
     0
1070
   372
1070
     0
1002
}
  0
DIMENSION
  5
376
  8
回08-記事
  6
CONTINUOUS
 62
     7
  2
*D6060
 10
2428.055329735163
 20
43.20477673883678
 30
0.0
 11
2419.2790011328
 21
45.20477673883678
 31
0.0
 70
    32
  1
0.3{\H0.6667x;±0.05}
  3
DMC
 13
2430.555329735163
 23
47.85493478961696
 33
0.0
 14
2428.055329735163
 24
47.85493478961696
 34
0.0
1001
ACADSTRINGINFO
1000
MIFCodePage
1070
     1
1001
ACAD
1000
DSTYLE
1002
{
1070
    41
1040
1.5
1070
    47
1040
0.2
1070
    48
1040
0.2
1070
   141
1040
1.5
1070
   371
1070
     0
1070
   372
1070
     0
1002
}
  0
DIMENSION
  5
387
  8
回08-記事
  6
CONTINUOUS
 62
     7
  2
*D6161
 10
2434.829862599524
 20
47.85493478961696
 30
0.0
 11
2434.829862599524
 21
52.85493478961697
 31
0.0
 70
   160
  1
{\H0.66667x;(<>)}
  3
DMC
 13
2430.555329735163
 23
57.85493478961697
 33
0.0
 14
2430.555329735163
 24
47.85493478961696
 34
0.0
 50
90.0
1001
ACAD
1000
DSTYLE
1002
{
1070
    41
1040
1.5
1070
    47
1040
0.2
1070
    48
1040
0.2
1070
   141
1040
1.5
1070
   371
1070
    13
1070
   372
1070
    13
1002
}
  0
DIMENSION
  5
396
  8
回08-記事
  6
CONTINUOUS
 62
     7
  2
*D6262
 10
2450.22309952005
 20
52.85493478961697
 30
0.0
 11
2448.22309952005
 21
50.35493478961697
 31
0.0
 70
    32
  3
DMC
 13
2437.948513954133
 23
47.85493478961696
 33
0.0
 14
2438.648513954133
 24
52.85493478961697
 34
0.0
 50
90.0
1001
ACAD
1000
DSTYLE
1002
{
1070
    41
1040
1.5
1070
    47
1040
0.2
1070
    48
1040
0.2
1070
   141
1040
1.5
1070
   371
1070
     0
1070
   372
1070
     0
1002
}
  0
DIMENSION
  5
3A5
  8
回08-記事
  6
CONTINUOUS
 62
     7
  2
*D6363
 10
2420.09391956619
 20
52.85493478961697
 30
0.0
 11
2420.09391956619
 21
50.35493478961697
 31
0.0
 70
   160
  3
DMC
 13
2428.055329735163
 23
47.85493478961696
 33
0.0
 14
2427.355329735163
 24
52.85493478961697
 34
0.0
 50
90.0
1001
ACAD
1000
DSTYLE
1002
{
1070
    41
1040
1.5
1070
    47
1040
0.2
1070
    48
1040
0.2
1070
   141
1040
1.5
1070
   371
1070
     0
1070
   372
1070
     0
1002
}
  0
DIMENSION
  5
3B4
  8
回07-寸法
  6
CONTINUOUS
 62
     7
  2
*D6464
 10
2444.948513954133
 20
335.2539103725955
 30
0.0
 11
2434.501921844648
 21
335.2539103725955
 31
0.0
 70
   160
  1
2.1{\H0.6667x;±0.2}
  3
DMC
 13
2424.055329735163
 23
328.2508864188056
 33
0.0
 14
2444.948513954133
 24
328.7508864188056
 34
0.0
1001
ACADSTRINGINFO
1000
MIFCodePage
1070
     1
1001
ACAD
1000
DSTYLE
1002
{
1070
    41
1040
1.5
1070
    47
1040
0.2
1070
    48
1040
0.2
1070
   141
1040
1.5
1070
   371
1070
     0
1070
   372
1070
     0
1002
}
  0
LINE
  5
3C3
  8
回08-記事
  6
CONTINUOUS
 62
     7
 10
2428.055329735163
 20
322.2508864188058
 30
0.0
 11
2437.948513954133
 21
322.2508864188058
 31
0.0
  0
LINE
  5
3C4
  8
回08-記事
  6
CONTINUOUS
 62
     7
 10
2428.055329735163
 20
157.4508864188062
 30
0.0
 11
2437.948513954133
 21
157.4508864188062
 31
0.0
  0
LINE
  5
3C5
  8
回08-記事
  6
CONTINUOUS
 62
     7
 10
2429.055329735164
 20
148.1508864188059
 30
0.0
 11
2436.948513954133
 21
148.1508864188059
 31
0.0
  0
LINE
  5
3C6
  8
回08-記事
  6
CONTINUOUS
 62
     7
 10
2428.055329735163
 20
328.2508864188056
 30
0.0
 11
2437.948513954133
 21
328.2508864188056
 31
0.0
  0
POLYLINE
  5
3C7
  8
回08-記事
  6
CONTINUOUS
 62
     7
 66
     1
 10
0.0
 20
0.0
 30
0.0
 70
     1
  0
VERTEX
  5
C05
  8
回08-記事
  6
CONTINUOUS
 62
     7
 10
2438.648513954133
 20
52.85493478961697
 30
0.0
  0
VERTEX
  5
C07
  8
回08-記事
  6
CONTINUOUS
 62
     7
 10
2437.948513954133
 20
52.85493478961697
 30
0.0
  0
VERTEX
  5
C08
  8
回08-記事
  6
CONTINUOUS
 62
     7
 10
2437.948513954133
 20
147.8508864188057
 30
0.0
  0
VERTEX
  5
C09
  8
回08-記事
  6
CONTINUOUS
 62
     7
 10
2438.648513954133
 20
147.8508864188057
 30
0.0
  0
SEQEND
  5
C06
  8
0
  6
CONTINUOUS
 62
     7
  0
POLYLINE
  5
3C8
  8
回08-記事
  6
CONTINUOUS
 62
     7
 66
     1
 10
0.0
 20
0.0
 30
0.0
 70
     1
  0
VERTEX
  5
C0A
  8
回08-記事
  6
CONTINUOUS
 62
     7
 10
2427.355329735163
 20
148.3508864188057
 30
0.0
  0
VERTEX
  5
C0C
  8
回08-記事
  6
CONTINUOUS
 62
     7
 10
2428.055329735163
 20
148.3508864188057
 30
0.0
  0
VERTEX
  5
C0D
  8
回08-記事
  6
CONTINUOUS
 62
     7
 10
2428.055329735163
 20
52.85493478961697
 30
0.0
  0
VERTEX
  5
C0E
  8
回08-記事
  6
CONTINUOUS
 62
     7
 10
2427.355329735163
 20
52.85493478961697
 30
0.0
  0
SEQEND
  5
C0B
  8
0
  6
CONTINUOUS
 62
     7
  0
POLYLINE
  5
3C9
  8
回08-記事
  6
CONTINUOUS
 62
     7
 66
     1
 10
0.0
 20
0.0
 30
0.0
 70
     1
  0
VERTEX
  5
C0F
  8
回08-記事
  6
CONTINUOUS
 62
     7
 10
2435.448513954133
 20
57.85493478961697
 30
0.0
  0
VERTEX
  5
C11
  8
回08-記事
  6
CONTINUOUS
 62
     7
 10
2436.948513954133
 20
57.85493478961697
 30
0.0
  0
VERTEX
  5
C12
  8
回08-記事
  6
CONTINUOUS
 62
     7
 10
2436.948513954133
 20
47.85493478961696
 30
0.0
  0
VERTEX
  5
C13
  8
回08-記事
  6
CONTINUOUS
 62
     7
 10
2435.448513954133
 20
47.85493478961696
 30
0.0
  0
SEQEND
  5
C10
  8
0
  6
CONTINUOUS
 62
     7
  0
POLYLINE
  5
3CA
  8
回08-記事
  6
CONTINUOUS
 62
     7
 66
     1
 10
0.0
 20
0.0
 30
0.0
 70
     1
  0
VERTEX
  5
C14
  8
回08-記事
  6
CONTINUOUS
 62
     7
 10
2429.055329735164
 20
57.85493478961697
 30
0.0
  0
VERTEX
  5
C16
  8
回08-記事
  6
CONTINUOUS
 62
     7
 10
2430.555329735163
 20
57.85493478961697
 30
0.0
  0
VERTEX
  5
C17
  8
回08-記事
  6
CONTINUOUS
 62
     7
 10
2430.555329735163
 20
47.85493478961696
 30
0.0
  0
VERTEX
  5
C18
  8
回08-記事
  6
CONTINUOUS
 62
     7
 10
2429.055329735164
 20
47.85493478961696
 30
0.0
  0
SEQEND
  5
C15
  8
0
  6
CONTINUOUS
 62
     7
  0
POLYLINE
  5
3CB
  8
回08-記事
  6
CONTINUOUS
 62
     7
 66
     1
 10
0.0
 20
0.0
 30
0.0
 70
     1
  0
VERTEX
  5
C19
  8
回08-記事
  6
CONTINUOUS
 62
     7
 10
2436.948513954133
 20
151.0008864188058
 30
0.0
  0
VERTEX
  5
C1B
  8
回08-記事
  6
CONTINUOUS
 62
     7
 10
2437.948513954133
 20
151.0008864188058
 30
0.0
  0
VERTEX
  5
C1C
  8
回08-記事
  6
CONTINUOUS
 62
     7
 10
2437.948513954133
 20
47.85493478961696
 30
0.0
  0
VERTEX
  5
C1D
  8
回08-記事
  6
CONTINUOUS
 62
     7
 10
2436.948513954133
 20
47.85493478961696
 30
0.0
  0
SEQEND
  5
C1A
  8
0
  6
CONTINUOUS
 62
     7
  0
POLYLINE
  5
3CC
  8
回08-記事
  6
CONTINUOUS
 62
     7
 66
     1
 10
0.0
 20
0.0
 30
0.0
 70
     1
  0
VERTEX
  5
C1E
  8
回08-記事
  6
CONTINUOUS
 62
     7
 10
2428.055329735163
 20
151.0008864188058
 30
0.0
  0
VERTEX
  5
C20
  8
回08-記事
  6
CONTINUOUS
 62
     7
 10
2429.055329735164
 20
151.0008864188058
 30
0.0
  0
VERTEX
  5
C21
  8
回08-記事
  6
CONTINUOUS
 62
     7
 10
2429.055329735164
 20
47.85493478961696
 30
0.0
  0
VERTEX
  5
C22
  8
回08-記事
  6
CONTINUOUS
 62
     7
 10
2428.055329735163
 20
47.85493478961696
 30
0.0
  0
SEQEND
  5
C1F
  8
0
  6
CONTINUOUS
 62
     7
  0
POLYLINE
  5
3CD
  8
回08-記事
  6
CONTINUOUS
 62
     7
 66
     1
 10
0.0
 20
0.0
 30
0.0
 70
     1
  0
VERTEX
  5
C23
  8
回08-記事
  6
CONTINUOUS
 62
     7
 10
2424.055329735163
 20
328.2508864188056
 30
0.0
  0
VERTEX
  5
C25
  8
回08-記事
  6
CONTINUOUS
 62
     7
 10
2428.055329735163
 20
328.2508864188056
 30
0.0
  0
VERTEX
  5
C26
  8
回08-記事
  6
CONTINUOUS
 62
     7
 10
2428.055329735163
 20
148.350886418806
 30
0.0
  0
VERTEX
  5
C27
  8
回08-記事
  6
CONTINUOUS
 62
     7
 10
2424.055329735163
 20
148.350886418806
 30
0.0
  0
SEQEND
  5
C24
  8
0
  6
CONTINUOUS
 62
     7
  0
POLYLINE
  5
3CE
  8
回08-記事
  6
CONTINUOUS
 62
     7
 66
     1
 10
0.0
 20
0.0
 30
0.0
 70
     1
  0
VERTEX
  5
C28
  8
回08-記事
  6
CONTINUOUS
 62
     7
 10
2437.948513954133
 20
328.7508864188056
 30
0.0
  0
VERTEX
  5
C2A
  8
回08-記事
  6
CONTINUOUS
 62
     7
 10
2444.948513954133
 20
328.7508864188056
 30
0.0
  0
VERTEX
  5
C2B
  8
回08-記事
  6
CONTINUOUS
 62
     7
 10
2444.948513954133
 20
147.8508864188057
 30
0.0
  0
VERTEX
  5
C2C
  8
回08-記事
  6
CONTINUOUS
 62
     7
 10
2437.948513954133
 20
147.8508864188057
 30
0.0
  0
SEQEND
  5
C29
  8
0
  6
CONTINUOUS
 62
     7
  0
DIMENSION
  5
3CF
  8
回07-寸法
  6
CONTINUOUS
 62
    18
  2
*D6565
 10
2322.780010037112
 20
147.8508864188054
 30
0.0
 11
2320.780010037111
 21
97.85291060421057
 31
0.0
 70
    32
  3
DMC
 13
2294.328510866481
 23
47.85493478961572
 33
0.0
 14
2301.57963618193
 24
147.8508864188054
 34
0.0
 50
90.0
1001
ACAD
1000
DSTYLE
1002
{
1070
   147
1040
0.5
1070
    72
1070
     0
1070
    41
1040
1.5
1070
    47
1040
1.0
1070
    48
1040
1.0
1070
    71
1070
     1
1070
   141
1040
1.5
1070
   271
1070
     0
1070
   371
1070
     0
1070
   372
1070
     0
1002
}
  0
DIMENSION
  5
3DE
  8
回07-寸法
  6
CONTINUOUS
 62
     1
  2
*D6666
 10
2301.57963618193
 20
121.8979563488838
 30
0.0
 11
2307.893120433898
 21
121.8979563488838
 31
0.0
 70
   160
  3
DMC
 13
2274.579636181929
 23
144.7054166917566
 33
0.0
 14
2301.57963618193
 24
144.7094650625674
 34
0.0
1001
ACAD
1000
DSTYLE
1002
{
1070
    41
1040
1.5
1070
    47
1040
0.2
1070
    48
1040
0.2
1070
   141
1040
1.5
1070
   271
1070
     1
1070
   371
1070
     0
1070
   372
1070
     0
1002
}
  0
DIMENSION
  5
3EF
  8
回07-寸法
  6
CONTINUOUS
 62
     1
  2
*D6767
 10
2238.579636181929
 20
125.2608212773412
 30
0.0
 11
2231.924941490823
 21
125.2608212773412
 31
0.0
 70
   160
  3
DMC
 13
2273.57963618193
 23
144.633410647212
 33
0.0
 14
2238.579636181929
 24
144.6374590180228
 34
0.0
1001
ACAD
1000
DSTYLE
1002
{
1070
    41
1040
1.5
1070
    47
1040
0.2
1070
    48
1040
0.2
1070
   141
1040
1.5
1070
   271
1070
     1
1070
   371
1070
     0
1070
   372
1070
     0
1002
}
  0
DIMENSION
  5
400
  8
回07-寸法
  6
CONTINUOUS
 62
     1
  2
*D6868
 10
2315.17193736961
 20
137.5441261847461
 30
0.0
 11
2315.17193736961
 21
131.1319941503901
 31
0.0
 70
   160
  3
DMC
 13
2301.57963618193
 23
147.8508864188051
 33
0.0
 14
2294.828510866481
 24
137.5441261847461
 34
0.0
 50
90.0
1001
ACAD
1000
DSTYLE
1002
{
1070
    41
1040
1.5
1070
    47
1040
0.2
1070
    48
1040
0.2
1070
   141
1040
1.5
1070
   271
1070
     1
1070
   371
1070
     0
1070
   372
1070
     0
1002
}
  0
DIMENSION
  5
411
  8
回07-寸法
  6
CONTINUOUS
 62
     1
  2
*D6969
 10
2307.835832179013
 20
144.2952515001941
 30
0.0
 11
2307.835832179013
 21
133.7954115189051
 31
0.0
 70
   160
  3
DMC
 13
2301.57963618193
 23
147.8508864188051
 33
0.0
 14
2301.57963618193
 24
144.2952515001941
 34
0.0
 50
90.0
1001
ACAD
1000
DSTYLE
1002
{
1070
    41
1040
1.5
1070
    47
1040
0.2
1070
    48
1040
0.2
1070
   141
1040
1.5
1070
   271
1070
     1
1070
   371
1070
     0
1070
   372
1070
     0
1002
}
  0
DIMENSION
  5
422
  8
回07-寸法
  6
CONTINUOUS
 62
     1
  2
*D7070
 10
2227.814714975438
 20
130.4743707710979
 30
0.0
 11
2227.814714975438
 21
139.9514734429549
 31
0.0
 70
   160
  3
DMC
 13
2238.579636181929
 23
147.8508864188057
 33
0.0
 14
2252.328510866481
 24
130.4743707710979
 34
0.0
 50
90.0
1001
ACAD
1000
DSTYLE
1002
{
1070
    41
1040
1.5
1070
    47
1040
0.2
1070
    48
1040
0.2
1070
   141
1040
1.5
1070
   271
1070
     1
1070
   371
1070
     0
1070
   372
1070
     0
1002
}
  0
DIMENSION
  5
431
  8
回07-寸法
  6
CONTINUOUS
 62
     1
  2
*D7171
 10
2232.474613728561
 20
144.2232454556494
 30
0.0
 11
2232.474613728561
 21
138.5488360068306
 31
0.0
 70
   160
  3
DMC
 13
2238.579636181929
 23
147.8508864188057
 33
0.0
 14
2238.579636181929
 24
144.2232454556494
 34
0.0
 50
90.0
1001
ACAD
1000
DSTYLE
1002
{
1070
    41
1040
1.5
1070
    47
1040
0.2
1070
    48
1040
0.2
1070
   141
1040
1.5
1070
   271
1070
     1
1070
   371
1070
     0
1070
   372
1070
     0
1002
}
  0
DIMENSION
  5
442
  8
回07-寸法
  6
CONTINUOUS
 62
     6
  2
*D7272
 10
2252.328510866481
 20
32.85493478961681
 30
0.0
 11
2261.078510866481
 21
32.85493478961681
 31
0.0
 70
   160
  3
DMC
 13
2269.828510866481
 23
48.35088641880584
 33
0.0
 14
2252.328510866481
 24
48.35088641880584
 34
0.0
 50
180.0
1001
ACAD
1000
DSTYLE
1002
{
1070
    41
1040
1.5
1070
    47
1040
0.1
1070
    48
1040
0.1
1070
    71
1070
     1
1070
   141
1040
1.5
1070
   371
1070
     0
1070
   372
1070
     0
1002
}
  0
DIMENSION
  5
451
  8
回07-寸法
  6
CONTINUOUS
 62
     6
  2
*D7373
 10
2281.328510866481
 20
23.86021456147879
 30
0.0
 11
2303.829072874355
 21
23.86021456147878
 31
0.0
 70
   160
  3
DMC
 13
2294.828510866481
 23
48.35088641880495
 33
0.0
 14
2281.328510866481
 24
48.35088641880584
 34
0.0
 50
180.0
1001
ACAD
1000
DSTYLE
1002
{
1070
    41
1040
1.5
1070
    47
1040
0.1
1070
    48
1040
0.1
1070
    71
1070
     1
1070
   141
1040
1.5
1070
   371
1070
     0
1070
   372
1070
     0
1002
}
  0
DIMENSION
  5
462
  8
回07-寸法
  6
CONTINUOUS
 62
     5
  2
*D7474
 10
2208.843912013239
 20
47.85493478961663
 30
0.0
 11
2208.843912013239
 21
98.84886223340023
 31
0.0
 70
   160
  3
DMC
 13
2238.579636181929
 23
147.8508864188057
 33
0.0
 14
2252.828510866482
 24
47.85493478961663
 34
0.0
 50
270.0
1001
ACAD
1000
DSTYLE
1002
{
1070
   147
1040
0.5
1070
    72
1070
     0
1070
    41
1040
1.5
1070
    47
1040
1.0
1070
    48
1040
1.0
1070
    71
1070
     1
1070
   141
1040
1.5
1070
   271
1070
     0
1070
   371
1070
     0
1070
   372
1070
     0
1002
}
  0
DIMENSION
  5
471
  8
回07-寸法
  6
CONTINUOUS
 62
    18
  2
*D7575
 10
2281.328510866481
 20
23.86021456147878
 30
0.0
 11
2220.829080444261
 21
26.01021456147879
 31
0.0
 70
    32
  1
(<>)
  3
DMC
 13
2160.329650022038
 23
147.8508864188057
 33
0.0
 14
2281.328510866481
 24
48.35493478961679
 34
0.0
1001
ACAD
1000
DSTYLE
1002
{
1070
    41
1040
1.5
1070
    47
1040
0.2
1070
    48
1040
0.2
1070
   141
1040
1.5
1070
   371
1070
     0
1070
   372
1070
     0
1002
}
  0
DIMENSION
  5
480
  8
回07-寸法
  6
CONTINUOUS
 62
     6
  2
*D7676
 10
2160.329650022038
 20
32.85493478961669
 30
0.0
 11
2206.329080444261
 21
35.00571973424854
 31
0.0
 70
    32
  1
(<>)
  3
DMC
 13
2252.328510866481
 23
48.35493478961679
 33
0.0
 14
2160.329650022038
 24
147.8508864188055
 34
0.0
 50
180.0
1001
ACAD
1000
DSTYLE
1002
{
1070
    41
1040
1.5
1070
    47
1040
0.2
1070
    48
1040
0.2
1070
   141
1040
1.5
1070
   371
1070
     0
1070
   372
1070
     0
1002
}
  0
POLYLINE
  5
48F
  8
回08-記事
  6
CONTINUOUS
 62
     7
 66
     1
 10
0.0
 20
0.0
 30
0.0
 70
     1
  0
VERTEX
  5
C2D
  8
回08-記事
  6
CONTINUOUS
 62
     7
 10
2259.764425946801
 20
127.8702057742024
 30
0.0
  0
VERTEX
  5
C2F
  8
回08-記事
  6
CONTINUOUS
 62
     7
 10
2262.764425946801
 20
127.8702057742024
 30
0.0
 42
-0.4142135623730951
  0
VERTEX
  5
C30
  8
回08-記事
  6
CONTINUOUS
 62
     7
 10
2263.2644259468
 20
127.3702057742024
 30
0.0
  0
VERTEX
  5
C31
  8
回08-記事
  6
CONTINUOUS
 62
     7
 10
2263.2644259468
 20
102.3702057742024
 30
0.0
 42
-0.4142135623730951
  0
VERTEX
  5
C32
  8
回08-記事
  6
CONTINUOUS
 62
     7
 10
2262.764425946801
 20
101.8702057742024
 30
0.0
  0
VERTEX
  5
C33
  8
回08-記事
  6
CONTINUOUS
 62
     7
 10
2259.764425946801
 20
101.8702057742024
 30
0.0
 42
-0.4142135623730951
  0
VERTEX
  5
C34
  8
回08-記事
  6
CONTINUOUS
 62
     7
 10
2259.264425946801
 20
102.3702057742024
 30
0.0
  0
VERTEX
  5
C35
  8
回08-記事
  6
CONTINUOUS
 62
     7
 10
2259.264425946801
 20
127.3702057742024
 30
0.0
 42
-0.4142135623730951
  0
SEQEND
  5
C2E
  8
0
  6
CONTINUOUS
 62
     7
  0
INSERT
  5
490
  8
回08-記事
  6
CONTINUOUS
 62
     7
 66
     1
  2
*X8686
 10
0.0
 20
0.0
 30
0.0
1001
GRADIENTCOLOR1ACI
1070
     5
1001
GRADIENTCOLOR2ACI
1070
     2
1001
ACAD
1010
0.0
1020
0.0
1030
0.0
  0
SEQEND
  5
86C
  8
0
  6
CONTINUOUS
 62
     7
  0
LINE
  5
491
  8
回05-ﾃｰﾙ
  6
CONTINUOUS
 62
     7
 10
2273.286742963116
 20
143.9303522368363
 30
0.0
 11
2270.121404085295
 21
140.7650133590149
 31
0.0
  0
ARC
  5
495
  8
回05-ﾃｰﾙ
  6
CONTINUOUS
 62
     7
 10
2251.328510866482
 20
130.0601572087252
 30
0.0
 40
1.0
 50
0.0
 51
45.00000000000864
  0
LINE
  5
496
  8
回05-ﾃｰﾙ
  6
CONTINUOUS
 62
     7
 10
2238.872529400742
 20
143.9303522368363
 30
0.0
 11
2252.035617647667
 21
130.7672639899118
 31
0.0
  0
ARC
  5
497
  8
回05-ﾃｰﾙ
  6
CONTINUOUS
 62
     7
 10
2239.579636181929
 20
144.6374590180229
 30
0.0
 40
1.0
 50
180.0
 51
225.0000000000086
  0
LINE
  5
498
  8
回05-ﾃｰﾙ
  6
CONTINUOUS
 62
     7
 10
2238.579636181929
 20
147.8508864188056
 30
0.0
 11
2238.579636181929
 21
144.6374590180229
 31
0.0
  0
ARC
  5
499
  8
回05-ﾃｰﾙ
  6
CONTINUOUS
 62
     7
 10
2272.57963618193
 20
144.6374590180229
 30
0.0
 40
1.0
 50
314.9999999999914
 51
0.0
  0
LINE
  5
49A
  8
回05-ﾃｰﾙ
  6
CONTINUOUS
 62
     7
 10
2273.57963618193
 20
144.6374590180229
 30
0.0
 11
2273.57963618193
 21
147.8508864188056
 31
0.0
  0
ARC
  5
49B
  8
回05-ﾃｰﾙ
  6
CONTINUOUS
 62
     7
 10
2252.828510866482
 20
48.35493478961679
 30
0.0
 40
0.5
 50
180.0
 51
270.0
  0
LINE
  5
49C
  8
回05-ﾃｰﾙ
  6
CONTINUOUS
 62
     7
 10
2252.328510866481
 20
130.0601572087252
 30
0.0
 11
2252.328510866481
 21
48.35493478961679
 31
0.0
  0
LINE
  5
49D
  8
回05-ﾃｰﾙ
  6
CONTINUOUS
 62
     7
 10
2252.828510866482
 20
47.85493478961678
 30
0.0
 11
2269.328510866481
 21
47.85493478961678
 31
0.0
  0
ARC
  5
49E
  8
回05-ﾃｰﾙ
  6
CONTINUOUS
 62
     7
 10
2269.328510866481
 20
48.35493478961679
 30
0.0
 40
0.5
 50
270.0
 51
0.0
  0
ARC
  5
49F
  8
回05-ﾃｰﾙ
  6
CONTINUOUS
 62
     7
 10
2270.828510866481
 20
140.0579065778283
 30
0.0
 40
1.0
 50
134.9999999999913
 51
180.0
  0
LINE
  5
4A0
  8
回05-ﾃｰﾙ
  6
CONTINUOUS
 62
     7
 10
2269.828510866481
 20
48.35493478961679
 30
0.0
 11
2269.828510866481
 21
140.0579065778283
 31
0.0
  0
ARC
  5
4A1
  8
回05-ﾃｰﾙ
  6
CONTINUOUS
 62
     7
 10
2295.828510866481
 20
137.1299126223729
 30
0.0
 40
1.0
 50
134.9999999999913
 51
180.0
  0
LINE
  5
4A2
  8
回05-ﾃｰﾙ
  6
CONTINUOUS
 62
     7
 10
2295.121404085294
 20
137.8370194035596
 30
0.0
 11
2301.286742963116
 21
144.0023582813809
 31
0.0
  0
ARC
  5
4A3
  8
回05-ﾃｰﾙ
  6
CONTINUOUS
 62
     7
 10
2280.328510866481
 20
137.1321632532707
 30
0.0
 40
1.0
 50
0.0
 51
45.00000000000864
  0
LINE
  5
4A4
  8
回05-ﾃｰﾙ
  6
CONTINUOUS
 62
     7
 10
2281.035617647667
 20
137.8392700344565
 30
0.0
 11
2274.872529400743
 21
144.0023582813818
 31
0.0
  0
ARC
  5
4A5
  8
回05-ﾃｰﾙ
  6
CONTINUOUS
 62
     7
 10
2275.579636181929
 20
144.7094650625676
 30
0.0
 40
1.0
 50
180.0
 51
225.0000000000086
  0
LINE
  5
4A6
  8
回05-ﾃｰﾙ
  6
CONTINUOUS
 62
     7
 10
2274.579636181929
 20
144.7094650625676
 30
0.0
 11
2274.579636181929
 21
147.8508864188056
 31
0.0
  0
ARC
  5
4A7
  8
回05-ﾃｰﾙ
  6
CONTINUOUS
 62
     7
 10
2300.579636181929
 20
144.7094650625676
 30
0.0
 40
1.0
 50
314.9999999999914
 51
0.0
  0
LINE
  5
4A8
  8
回05-ﾃｰﾙ
  6
CONTINUOUS
 62
     7
 10
2301.57963618193
 20
144.7094650625676
 30
0.0
 11
2301.57963618193
 21
147.8508864188056
 31
0.0
  0
ARC
  5
4A9
  8
回05-ﾃｰﾙ
  6
CONTINUOUS
 62
     7
 10
2281.828510866481
 20
48.35493478961679
 30
0.0
 40
0.5
 50
180.0
 51
270.0
  0
LINE
  5
4AA
  8
回05-ﾃｰﾙ
  6
CONTINUOUS
 62
     7
 10
2281.328510866481
 20
48.35493478961679
 30
0.0
 11
2281.328510866481
 21
137.1321632532707
 31
0.0
  0
LINE
  5
4AB
  8
回05-ﾃｰﾙ
  6
CONTINUOUS
 62
     7
 10
2281.828510866481
 20
47.85493478961678
 30
0.0
 11
2294.328510866481
 21
47.85493478961678
 31
0.0
  0
ARC
  5
4AC
  8
回05-ﾃｰﾙ
  6
CONTINUOUS
 62
     7
 10
2294.328510866481
 20
48.35493478961589
 30
0.0
 40
0.5
 50
270.0
 51
0.0
  0
LINE
  5
4AD
  8
回05-ﾃｰﾙ
  6
CONTINUOUS
 62
     7
 10
2294.828510866481
 20
48.35493478961589
 30
0.0
 11
2294.828510866481
 21
137.1299126223729
 31
0.0
  0
TEXT
  5
4AE
  8
回08-記事
  6
CONTINUOUS
 62
     7
 10
2171.587193267143
 20
161.8130323561419
 30
0.0
 40
2.0
  1
SDL
  0
TEXT
  5
4AF
  8
回08-記事
  6
CONTINUOUS
 62
     7
 10
2166.940694176318
 20
317.4268671535169
 30
0.0
 40
0.9
  1
SUL
  0
TEXT
  5
4B0
  8
回08-記事
  6
CONTINUOUS
 62
     7
 10
2377.334363183329
 20
315.3372093424672
 30
0.0
 40
0.9
  1
SUR
  0
TEXT
  5
4B1
  8
回08-記事
  6
CONTINUOUS
 62
     7
 10
2380.175603411803
 20
161.377604345225
 30
0.0
 40
0.9
  1
SDR
  0
TEXT
  5
4B2
  8
回08-記事
  6
CONTINUOUS
 62
     7
 10
2380.186089492902
 20
166.9855895309492
 30
0.0
 40
1.049999999999998
  1
R12
  0
TEXT
  5
4B3
  8
回08-記事
  6
CONTINUOUS
 62
     7
 10
2380.221433176323
 20
180.1521131490023
 30
0.0
 40
1.049999999999998
  1
R11
  0
TEXT
  5
4B4
  8
回08-記事
  6
CONTINUOUS
 62
     7
 10
2380.244394143821
 20
193.1813342290282
 30
0.0
 40
1.049999999999998
  1
R10
  0
TEXT
  5
4B5
  8
回08-記事
  6
CONTINUOUS
 62
     7
 10
2380.511438793901
 20
206.9008434611677
 30
0.0
 40
1.049999999999998
  1
R9
  0
TEXT
  5
4B6
  8
回08-記事
  6
CONTINUOUS
 62
     7
 10
2380.492482857041
 20
219.8311621034619
 30
0.0
 40
1.049999999999998
  1
R8
  0
TEXT
  5
4B7
  8
回08-記事
  6
CONTINUOUS
 62
     7
 10
2380.524554168954
 20
233.0547404110806
 30
0.0
 40
1.049999999999998
  1
R7
  0
TEXT
  5
4B8
  8
回08-記事
  6
CONTINUOUS
 62
     7
 10
2380.505895955767
 20
246.1668791451669
 30
0.0
 40
1.049999999999998
  1
R6
  0
TEXT
  5
4B9
  8
回08-記事
  6
CONTINUOUS
 62
     7
 10
2380.512640044202
 20
259.6602310271444
 30
0.0
 40
1.049999999999998
  1
R5
  0
TEXT
  5
4BA
  8
回08-記事
  6
CONTINUOUS
 62
     7
 10
2380.474800659723
 20
272.8277031776162
 30
0.0
 40
1.049999999999998
  1
R4
  0
TEXT
  5
4BB
  8
回08-記事
  6
CONTINUOUS
 62
     7
 10
2380.513289858482
 20
286.1301341495734
 30
0.0
 40
1.049999999999998
  1
R3
  0
TEXT
  5
4BC
  8
回08-記事
  6
CONTINUOUS
 62
     7
 10
2380.497116990745
 20
299.1873217489419
 30
0.0
 40
1.049999999999998
  1
R2
  0
TEXT
  5
4BD
  8
回08-記事
  6
CONTINUOUS
 62
     7
 10
2380.511708039659
 20
312.3292666425834
 30
0.0
 40
1.049999999999998
  1
R1
  0
TEXT
  5
4BE
  8
回08-記事
  6
CONTINUOUS
 62
     7
 10
2166.990903966835
 20
166.9924376072171
 30
0.0
 40
1.049999999999998
  1
L12
  0
TEXT
  5
4BF
  8
回08-記事
  6
CONTINUOUS
 62
     7
 10
2167.003801874162
 20
180.1550349194345
 30
0.0
 40
1.049999999999998
  1
L11
  0
TEXT
  5
4C0
  8
回08-記事
  6
CONTINUOUS
 62
     7
 10
2166.978351246379
 20
193.1901656969037
 30
0.0
 40
1.049999999999998
  1
L10
  0
TEXT
  5
4C1
  8
回08-記事
  6
CONTINUOUS
 62
     7
 10
2167.207470215263
 20
206.8908189986909
 30
0.0
 40
1.049999999999998
  1
L9
  0
TEXT
  5
4C2
  8
回08-記事
  6
CONTINUOUS
 62
     7
 10
2167.207470215263
 20
219.8657097646958
 30
0.0
 40
1.049999999999998
  1
L8
  0
TEXT
  5
4C3
  8
回08-記事
  6
CONTINUOUS
 62
     7
 10
2167.241951794482
 20
233.0910729941892
 30
0.0
 40
1.049999999999998
  1
L7
  0
TEXT
  5
4C4
  8
回08-記事
  6
CONTINUOUS
 62
     7
 10
2167.215550176877
 20
246.1368849715335
 30
0.0
 40
1.049999999999998
  1
L6
  0
TEXT
  5
4C5
  8
回08-記事
  6
CONTINUOUS
 62
     7
 10
2167.243398990427
 20
259.6743088857238
 30
0.0
 40
1.049999999999998
  1
L5
  0
TEXT
  5
4C6
  8
回08-記事
  6
CONTINUOUS
 62
     7
 10
2167.234788304002
 20
272.8449291317625
 30
0.0
 40
1.049999999999998
  1
L4
  0
TEXT
  5
4C7
  8
回08-記事
  6
CONTINUOUS
 62
     7
 10
2167.256928589721
 20
286.1695155933822
 30
0.0
 40
1.049999999999998
  1
L3
  0
TEXT
  5
4C8
  8
回08-記事
  6
CONTINUOUS
 62
     7
 10
2167.252693146849
 20
299.228967314573
 30
0.0
 40
1.049999999999998
  1
L2
  0
TEXT
  5
4C9
  8
回08-記事
  6
CONTINUOUS
 62
     7
 10
2167.243598335842
 20
312.3644854448881
 30
0.0
 40
1.049999999999998
  1
L1
  0
TEXT
  5
4CA
  8
回08-記事
  6
CONTINUOUS
 62
     7
 10
2358.193872193671
 20
161.6557566277692
 30
0.0
 40
2.0
  1
D14
  0
TEXT
  5
4CB
  8
回08-記事
  6
CONTINUOUS
 62
     7
 10
2344.112544399902
 20
161.6557566277692
 30
0.0
 40
2.0
  1
D13
  0
TEXT
  5
4CC
  8
回08-記事
  6
CONTINUOUS
 62
     7
 10
2329.682095325017
 20
161.6557566277692
 30
0.0
 40
2.0
  1
D12
  0
TEXT
  5
4CD
  8
回08-記事
  6
CONTINUOUS
 62
     7
 10
2316.084508425409
 20
161.6557566277692
 30
0.0
 40
2.0
  1
D11
  0
TEXT
  5
4CE
  8
回08-記事
  6
CONTINUOUS
 62
     7
 10
2287.664361864906
 20
161.6557566277692
 30
0.0
 40
2.0
  1
D9
  0
TEXT
  5
4CF
  8
回08-記事
  6
CONTINUOUS
 62
     7
 10
2273.30085356794
 20
161.6557566277692
 30
0.0
 40
2.0
  1
D8
  0
TEXT
  5
4D0
  8
回08-記事
  6
CONTINUOUS
 62
     7
 10
2259.506154841373
 20
161.6557566277692
 30
0.0
 40
2.0
  1
D7
  0
TEXT
  5
4D1
  8
回08-記事
  6
CONTINUOUS
 62
     7
 10
2245.361566445365
 20
161.6557566277692
 30
0.0
 40
2.0
  1
D6
  0
TEXT
  5
4D2
  8
回08-記事
  6
CONTINUOUS
 62
     7
 10
2217.203354366646
 20
161.6557566277692
 30
0.0
 40
2.0
  1
D4
  0
TEXT
  5
4D3
  8
回08-記事
  6
CONTINUOUS
 62
     7
 10
2203.058765970637
 20
161.6557566277692
 30
0.0
 40
2.0
  1
D3
  0
TEXT
  5
4D4
  8
回08-記事
  6
CONTINUOUS
 62
     7
 10
2188.914177574629
 20
161.6557566277692
 30
0.0
 40
2.0
  1
D2
  0
TEXT
  5
4D5
  8
回08-記事
  6
CONTINUOUS
 62
     7
 10
2371.425632948803
 20
161.6067226878896
 30
0.0
 40
2.0
  1
D15
  0
TEXT
  5
4D6
  8
回08-記事
  6
CONTINUOUS
 62
     7
 10
2301.122064174865
 20
161.634295355466
 30
0.0
 40
2.0
  1
D10
  0
TEXT
  5
4D7
  8
回08-記事
  6
CONTINUOUS
 62
     7
 10
2231.106317492114
 20
161.5893841215342
 30
0.0
 40
2.0
  1
D5
  0
TEXT
  5
4D8
  8
回08-記事
  6
CONTINUOUS
 62
     7
 10
2174.638619410135
 20
161.6557566277692
 30
0.0
 40
2.0
  1
D1
  0
TEXT
  5
4D9
  8
回08-記事
  6
CONTINUOUS
 62
     7
 10
2358.193872193671
 20
316.2731827477241
 30
0.0
 40
2.0
  1
U14
  0
TEXT
  5
4DA
  8
回08-記事
  6
CONTINUOUS
 62
     7
 10
2344.112544399902
 20
316.2731827477241
 30
0.0
 40
2.0
  1
U13
  0
TEXT
  5
4DB
  8
回08-記事
  6
CONTINUOUS
 62
     7
 10
2329.682095325017
 20
316.2731827477241
 30
0.0
 40
2.0
  1
U12
  0
TEXT
  5
4DC
  8
回08-記事
  6
CONTINUOUS
 62
     7
 10
2316.084508425409
 20
316.2731827477241
 30
0.0
 40
2.0
  1
U11
  0
TEXT
  5
4DD
  8
回08-記事
  6
CONTINUOUS
 62
     7
 10
2287.664361864906
 20
316.2731827477241
 30
0.0
 40
2.0
  1
U9
  0
TEXT
  5
4DE
  8
回08-記事
  6
CONTINUOUS
 62
     7
 10
2273.30085356794
 20
316.2731827477241
 30
0.0
 40
2.0
  1
U8
  0
TEXT
  5
4DF
  8
回08-記事
  6
CONTINUOUS
 62
     7
 10
2259.506154841373
 20
316.2731827477241
 30
0.0
 40
2.0
  1
U7
  0
TEXT
  5
4E0
  8
回08-記事
  6
CONTINUOUS
 62
     7
 10
2245.361566445365
 20
316.2731827477241
 30
0.0
 40
2.0
  1
U6
  0
TEXT
  5
4E1
  8
回08-記事
  6
CONTINUOUS
 62
     7
 10
2217.203354366646
 20
316.2731827477241
 30
0.0
 40
2.0
  1
U4
  0
TEXT
  5
4E2
  8
回08-記事
  6
CONTINUOUS
 62
     7
 10
2203.058765970637
 20
316.2731827477241
 30
0.0
 40
2.0
  1
U3
  0
TEXT
  5
4E3
  8
回08-記事
  6
CONTINUOUS
 62
     7
 10
2188.914177574629
 20
316.2731827477241
 30
0.0
 40
2.0
  1
U2
  0
TEXT
  5
4E4
  8
回08-記事
  6
CONTINUOUS
 62
     7
 10
2371.425632948803
 20
316.2241488078445
 30
0.0
 40
2.0
  1
U15
  0
TEXT
  5
4E5
  8
回08-記事
  6
CONTINUOUS
 62
     7
 10
2301.122064174865
 20
316.2517214754209
 30
0.0
 40
2.0
  1
U10
  0
TEXT
  5
4E6
  8
回08-記事
  6
CONTINUOUS
 62
     7
 10
2231.106317492114
 20
316.2068102414892
 30
0.0
 40
2.0
  1
U5
  0
TEXT
  5
4E7
  8
回08-記事
  6
CONTINUOUS
 62
     7
 10
2174.638619410135
 20
316.2731827477241
 30
0.0
 40
2.0
  1
U1
  0
POLYLINE
  5
4E8
  8
回04-下接
  6
CONTINUOUS
 62
     7
 66
     1
 10
0.0
 20
0.0
 30
0.0
 70
     1
  0
VERTEX
  5
C36
  8
回04-下接
  6
CONTINUOUS
 62
     7
 10
2160.329650022038
 20
147.8508864188056
 30
0.0
  0
VERTEX
  5
C38
  8
回04-下接
  6
CONTINUOUS
 62
     7
 10
2388.829650022039
 20
147.8508864188056
 30
0.0
  0
VERTEX
  5
C39
  8
回04-下接
  6
CONTINUOUS
 62
     7
 10
2388.829650022039
 20
328.7508864188056
 30
0.0
  0
VERTEX
  5
C3A
  8
回04-下接
  6
CONTINUOUS
 62
     7
 10
2160.329650022038
 20
328.7508864188056
 30
0.0
  0
SEQEND
  5
C37
  8
0
  6
CONTINUOUS
 62
     7
  0
POLYLINE
  5
4EC
  8
回08-記事
  6
PHANTOM2
 62
     7
 66
     1
 10
0.0
 20
0.0
 30
0.0
 70
     1
  0
VERTEX
  5
C3B
  8
回08-記事
  6
PHANTOM2
 62
     7
 10
2166.329650022039
 20
158.0508864188056
 30
0.0
  0
VERTEX
  5
C3D
  8
回08-記事
  6
PHANTOM2
 62
     7
 10
2382.829650022038
 20
158.0508864188056
 30
0.0
  0
VERTEX
  5
C3E
  8
回08-記事
  6
PHANTOM2
 62
     7
 10
2382.829650022038
 20
322.2508864188057
 30
0.0
  0
VERTEX
  5
C3F
  8
回08-記事
  6
PHANTOM2
 62
     7
 10
2166.329650022039
 20
322.2508864188057
 30
0.0
  0
SEQEND
  5
C3C
  8
0
  6
CONTINUOUS
 62
     7
  0
POLYLINE
  5
4ED
  8
回08-記事
  6
CONTINUOUS
 62
     7
 66
     1
 10
0.0
 20
0.0
 30
0.0
 70
     1
  0
VERTEX
  5
C40
  8
回08-記事
  6
CONTINUOUS
 62
     7
 10
2166.829650022039
 20
158.5508864188056
 30
0.0
  0
VERTEX
  5
C42
  8
回08-記事
  6
CONTINUOUS
 62
     7
 10
2382.329650022039
 20
158.5508864188056
 30
0.0
  0
VERTEX
  5
C43
  8
回08-記事
  6
CONTINUOUS
 62
     7
 10
2382.329650022039
 20
321.7508864188056
 30
0.0
  0
VERTEX
  5
C44
  8
回08-記事
  6
CONTINUOUS
 62
     7
 10
2166.829650022039
 20
321.7508864188056
 30
0.0
  0
SEQEND
  5
C41
  8
0
  6
CONTINUOUS
 62
     7
  0
POLYLINE
  5
4EE
  8
回08-記事
  6
CONTINUOUS
 62
     7
 66
     1
 10
0.0
 20
0.0
 30
0.0
 70
     1
  0
VERTEX
  5
C45
  8
回08-記事
  6
CONTINUOUS
 62
     7
 10
2168.979650022038
 20
319.3508864188056
 30
0.0
  0
VERTEX
  5
C47
  8
回08-記事
  6
CONTINUOUS
 62
     7
 10
2380.179650022038
 20
319.3508864188056
 30
0.0
  0
VERTEX
  5
C48
  8
回08-記事
  6
CONTINUOUS
 62
     7
 10
2380.179650022038
 20
160.9508864188056
 30
0.0
  0
VERTEX
  5
C49
  8
回08-記事
  6
CONTINUOUS
 62
     7
 10
2168.979650022038
 20
160.9508864188056
 30
0.0
  0
SEQEND
  5
C46
  8
0
  6
CONTINUOUS
 62
     7
  0
ENDSEC
  0
EOF
