  0
SECTION
  2
HEADER
  9
$ACADVER
  1
AC1009
  9
$INSBASE
 10
0.0
 20
0.0
 30
0.0
  9
$EXTMIN
 10
3443.503667121074
 20
164.1017312057312
 30
0.0
  9
$EXTMAX
 10
4013.503667121073
 20
559.101731205731
 30
0.0
  9
$LIMMIN
 10
0.0
 20
0.0
  9
$LIMMAX
 10
3000.0
 20
2500.0
  9
$ORTHOMODE
 70
     0
  9
$REGENMODE
 70
     1
  9
$FILLMODE
 70
     1
  9
$QTEXTMODE
 70
     0
  9
$MIRRTEXT
 70
     1
  9
$DRAGMODE
 70
     2
  9
$LTSCALE
 40
10.0
  9
$OSMODE
 70
    37
  9
$ATTMODE
 70
     1
  9
$TEXTSIZE
 40
3.0
  9
$TRACEWID
 40
1.0
  9
$TEXTSTYLE
  7
STANDARD
  9
$CLAYER
  8
0
  9
$CELTYPE
  6
CONTINUOUS
  9
$CECOLOR
 62
     5
  9
$DIMSCALE
 40
1.0
  9
$DIMASZ
 40
1.5
  9
$DIMEXO
 40
0.0
  9
$DIMDLI
 40
0.0
  9
$DIMRND
 40
0.0
  9
$DIMDLE
 40
0.0
  9
$DIMEXE
 40
1.0
  9
$DIMTP
 40
0.2
  9
$DIMTM
 40
0.2
  9
$DIMTXT
 40
3.0
  9
$DIMCEN
 40
1.5
  9
$DIMTSZ
 40
0.0
  9
$DIMTOL
 70
     0
  9
$DIMLIM
 70
     0
  9
$DIMTIH
 70
     0
  9
$DIMTOH
 70
     0
  9
$DIMSE1
 70
     0
  9
$DIMSE2
 70
     0
  9
$DIMTAD
 70
     3
  9
$DIMZIN
 70
     8
  9
$DIMBLK
  1
OPEN
  9
$DIMASO
 70
     1
  9
$DIMSHO
 70
     1
  9
$DIMPOST
  1

  9
$DIMAPOST
  1

  9
$DIMALT
 70
     0
  9
$DIMALTD
 70
     3
  9
$DIMALTF
 40
0.03937007874016
  9
$DIMLFAC
 40
1.0
  9
$DIMTOFL
 70
     1
  9
$DIMTVP
 40
0.0
  9
$DIMTIX
 70
     0
  9
$DIMSOXD
 70
     0
  9
$DIMSAH
 70
     0
  9
$DIMBLK1
  1

  9
$DIMBLK2
  1

  9
$DIMSTYLE
  2
DMC
  9
$DIMCLRD
 70
     5
  9
$DIMCLRE
 70
     5
  9
$DIMCLRT
 70
     5
  9
$DIMTFAC
 40
0.7
  9
$DIMGAP
 40
0.5
  9
$LUNITS
 70
     2
  9
$LUPREC
 70
     4
  9
$SKETCHINC
 40
1.0
  9
$FILLETRAD
 40
0.5
  9
$AUNITS
 70
     0
  9
$AUPREC
 70
     0
  9
$MENU
  1
.
  9
$ELEVATION
 40
0.0
  9
$PELEVATION
 40
0.0
  9
$THICKNESS
 40
0.0
  9
$LIMCHECK
 70
     0
  9
$BLIPMODE
 70
     0
  9
$CHAMFERA
 40
10.0
  9
$CHAMFERB
 40
10.0
  9
$SKPOLY
 70
     0
  9
$TDCREATE
 40
2451811.529221065
  9
$TDUPDATE
 40
2460231.114339734
  9
$TDINDWG
 40
2.547464583
  9
$TDUSRTIMER
 40
2.547463889
  9
$USRTIMER
 70
     1
  9
$ANGBASE
 50
0.0
  9
$ANGDIR
 70
     0
  9
$PDMODE
 70
     0
  9
$PDSIZE
 40
0.0
  9
$PLINEWID
 40
0.5
  9
$COORDS
 70
     0
  9
$SPLFRAME
 70
     0
  9
$SPLINETYPE
 70
     6
  9
$SPLINESEGS
 70
     8
  9
$ATTDIA
 70
     1
  9
$ATTREQ
 70
     1
  9
$HANDLING
 70
     1
  9
$HANDSEED
  5
893
  9
$SURFTAB1
 70
     6
  9
$SURFTAB2
 70
     6
  9
$SURFTYPE
 70
     6
  9
$SURFU
 70
     6
  9
$SURFV
 70
     6
  9
$UCSNAME
  2

  9
$UCSORG
 10
0.0
 20
0.0
 30
0.0
  9
$UCSXDIR
 10
1.0
 20
0.0
 30
0.0
  9
$UCSYDIR
 10
0.0
 20
1.0
 30
0.0
  9
$PUCSNAME
  2

  9
$PUCSORG
 10
0.0
 20
0.0
 30
0.0
  9
$PUCSXDIR
 10
1.0
 20
0.0
 30
0.0
  9
$PUCSYDIR
 10
0.0
 20
1.0
 30
0.0
  9
$USERI1
 70
     0
  9
$USERI2
 70
     0
  9
$USERI3
 70
     0
  9
$USERI4
 70
     0
  9
$USERI5
 70
     0
  9
$USERR1
 40
0.0
  9
$USERR2
 40
0.0
  9
$USERR3
 40
0.0
  9
$USERR4
 40
0.0
  9
$USERR5
 40
0.0
  9
$WORLDVIEW
 70
     1
  9
$SHADEDGE
 70
     3
  9
$SHADEDIF
 70
    70
  9
$TILEMODE
 70
     1
  9
$MAXACTVP
 70
    64
  9
$PLIMCHECK
 70
     0
  9
$PEXTMIN
 10
1.000000000000000E+20
 20
1.000000000000000E+20
 30
1.000000000000000E+20
  9
$PEXTMAX
 10
-1.000000000000000E+20
 20
-1.000000000000000E+20
 30
-1.000000000000000E+20
  9
$PLIMMIN
 10
0.0
 20
0.0
  9
$PLIMMAX
 10
420.0
 20
297.0
  9
$UNITMODE
 70
     0
  9
$VISRETAIN
 70
     1
  9
$PLINEGEN
 70
     0
  9
$PSLTSCALE
 70
     1
  0
ENDSEC
  0
SECTION
  2
TABLES
  0
TABLE
  2
VPORT
 70
     1
  0
VPORT
  2
*ACTIVE
 70
     0
 10
0.0
 20
0.0
 11
1.0
 21
1.0
 12
3821.221376380377
 22
368.6329617889226
 13
0.0
 23
0.0
 14
10.0
 24
10.0
 15
10.0
 25
10.0
 16
0.0
 26
0.0
 36
1.0
 17
0.0
 27
0.0
 37
0.0
 40
591.44118871255
 41
1.853689567430025
 42
50.0
 43
0.0
 44
0.0
 50
0.0
 51
0.0
 71
     0
 72
   500
 73
     1
 74
     1
 75
     0
 76
     0
 77
     0
 78
     0
  0
ENDTAB
  0
TABLE
  2
LTYPE
 70
     4
  0
LTYPE
  2
CONTINUOUS
 70
     0
  3
Solid line
 72
    65
 73
     0
 40
0.0
  0
LTYPE
  2
CENTER2
 70
     0
  3
Center (.5x) ___ _ ___ _ ___ _ ___ _ ___ _ ___
 72
    65
 73
     4
 40
28.575
 49
19.05
 49
-3.174999999999999
 49
3.174999999999999
 49
-3.174999999999999
  0
LTYPE
  2
DASHED2
 70
     0
  3
Dashed (.5x) _ _ _ _ _ _ _ _ _ _ _ _ _ _ _ _ _
 72
    65
 73
     2
 40
9.524999999999998
 49
6.349999999999999
 49
-3.174999999999999
  0
LTYPE
  2
PHANTOM2
 70
     0
  3
___ _ _ ___ _ _ ___ _ _ ___ _ _ ___ _ _ ___ _ _
 72
    65
 73
     6
 40
1.25
 49
0.625
 49
-0.125
 49
0.125
 49
-0.125
 49
0.125
 49
-0.125
  0
ENDTAB
  0
TABLE
  2
LAYER
 70
    10
  0
LAYER
  2
0
 70
     0
 62
     7
  6
CONTINUOUS
  0
LAYER
  2
DEFPOINTS
 70
     0
 62
     7
  6
CONTINUOUS
  0
LAYER
  2
回05-ﾃｰﾙ
 70
     0
 62
     7
  6
CONTINUOUS
  0
LAYER
  2
回07-寸法
 70
     0
 62
     7
  6
CONTINUOUS
  0
LAYER
  2
回03-下ER
 70
     0
 62
     7
  6
CONTINUOUS
  0
LAYER
  2
回90-枠2
 70
     0
 62
     7
  6
CONTINUOUS
  0
LAYER
  2
回04-下接
 70
     0
 62
     7
  6
CONTINUOUS
  0
LAYER
  2
回01-上ER
 70
     0
 62
     7
  6
CONTINUOUS
  0
LAYER
  2
回08-記事
 70
     0
 62
     7
  6
CONTINUOUS
  0
LAYER
  2
回03-記事
 70
     0
 62
     7
  6
CONTINUOUS
  0
ENDTAB
  0
TABLE
  2
STYLE
 70
     1
  0
STYLE
  2
STANDARD
 70
     0
 40
3.0
 41
1.0
 50
0.0
 71
     0
 42
3.0
  3
isocp.shx
  4
bigfont.shx
  0
ENDTAB
  0
TABLE
  2
VIEW
 70
     0
  0
ENDTAB
  0
TABLE
  2
UCS
 70
     0
  0
ENDTAB
  0
TABLE
  2
APPID
 70
     6
  0
APPID
  2
ACAD
 70
     0
  0
APPID
  2
ACAD_PSEXT
 70
     0
  0
APPID
  2
GRADIENTCOLOR1ACI
 70
     0
  0
APPID
  2
GRADIENTCOLOR2ACI
 70
     0
  0
APPID
  2
ACADSTRINGINFO
 70
     0
  0
APPID
  2
ACAD_NAV_VCDISPLAY
 70
     0
  0
ENDTAB
  0
TABLE
  2
DIMSTYLE
 70
     1
  0
DIMSTYLE
  2
DMC
 70
     0
  3

  4

  5
OPEN
  6

  7

 40
1.0
 41
2.0
 42
0.0
 43
0.0
 44
1.0
 45
0.0
 46
0.0
 47
0.0
 48
0.0
140
3.0
141
2.0
142
0.0
143
0.03937007874016
144
1.0
145
0.0
146
0.7
147
0.5
 71
     0
 72
     0
 73
     0
 74
     0
 75
     0
 76
     0
 77
     3
 78
     8
170
     0
171
     3
172
     1
173
     0
174
     0
175
     0
176
     5
177
     5
178
     5
  0
ENDTAB
  0
ENDSEC
  0
SECTION
  2
BLOCKS
  0
BLOCK
  8
0
  2
$MODEL_SPACE
 70
     0
 10
0.0
 20
0.0
 30
0.0
  3
$MODEL_SPACE
  1

  0
ENDBLK
  8
0
  5
22
  0
BLOCK
 67
     1
  8
0
  2
$PAPER_SPACE
 70
     0
 10
0.0
 20
0.0
 30
0.0
  3
$PAPER_SPACE
  1

  0
ENDBLK
  5
2B
 67
     1
  8
0
  0
BLOCK
  8
0
  2
_OPEN
 70
     0
 10
0.0
 20
0.0
 30
0.0
  3
_OPEN
  1

  0
LINE
  5
15
  8
0
  6
CONTINUOUS
 62
     0
 10
-1.0
 20
0.1666666666666666
 30
0.0
 11
0.0
 21
0.0
 31
0.0
  0
LINE
  5
16
  8
0
  6
CONTINUOUS
 62
     0
 10
-1.0
 20
-0.1666666666666666
 30
0.0
 11
0.0
 21
0.0
 31
0.0
  0
LINE
  5
17
  8
0
  6
CONTINUOUS
 62
     0
 10
0.0
 20
0.0
 30
0.0
 11
-1.0
 21
0.0
 31
0.0
  0
ENDBLK
  5
18
  8
0
  0
BLOCK
  8
0
  2
*D1
 70
     1
 10
0.0
 20
0.0
 30
0.0
  3
*D1
  1

  0
LINE
  5
297
  8
回07-寸法
  6
CONTINUOUS
 62
     5
 10
3614.797765933178
 20
310.0693609215374
 30
0.0
 11
3587.030009105557
 21
310.0693609215374
 31
0.0
  0
LINE
  5
298
  8
回07-寸法
  6
CONTINUOUS
 62
     5
 10
3629.04664061773
 20
210.0734092923483
 30
0.0
 11
3587.030009105557
 21
210.0734092923483
 31
0.0
  0
LINE
  5
299
  8
回07-寸法
  6
CONTINUOUS
 62
     5
 10
3588.030009105557
 20
308.5693609215374
 30
0.0
 11
3588.030009105557
 21
211.5734092923483
 31
0.0
  0
INSERT
  5
29A
  8
回07-寸法
  6
CONTINUOUS
 62
     5
 66
     1
  2
_OPEN
 10
3588.030009105557
 20
310.0693609215374
 30
0.0
 41
1.5
 42
1.5
 43
1.5
 50
90.0
  0
SEQEND
  5
29B
  8
0
  6
CONTINUOUS
 62
     5
  0
INSERT
  5
29C
  8
回07-寸法
  6
CONTINUOUS
 62
     5
 66
     1
  2
_OPEN
 10
3588.030009105557
 20
210.0734092923483
 30
0.0
 41
1.5
 42
1.5
 43
1.5
 50
270.0
  0
SEQEND
  5
29D
  8
0
  6
CONTINUOUS
 62
     5
  0
INSERT
  5
29E
  8
回07-寸法
  6
CONTINUOUS
 62
     5
 66
     1
  2
*X80
 10
0.0
 20
0.0
 30
0.0
  0
SEQEND
  5
7EF
  8
0
  6
CONTINUOUS
 62
     5
  0
POINT
  5
29F
  8
DEFPOINTS
  6
CONTINUOUS
 62
     0
 10
3614.797765933178
 20
310.0693609215374
 30
0.0
  0
POINT
  5
2A0
  8
DEFPOINTS
  6
CONTINUOUS
 62
     0
 10
3629.04664061773
 20
210.0734092923483
 30
0.0
  0
POINT
  5
2A1
  8
DEFPOINTS
  6
CONTINUOUS
 62
     0
 10
3588.030009105557
 20
210.0734092923483
 30
0.0
  0
ENDBLK
  5
2A2
  8
0
 62
     5
  0
BLOCK
  8
0
  2
*D2
 70
     1
 10
0.0
 20
0.0
 30
0.0
  3
*D2
  1

  0
LINE
  5
288
  8
回07-寸法
  6
CONTINUOUS
 62
     5
 10
3671.04664061773
 20
210.5693609215366
 30
0.0
 11
3671.04664061773
 21
185.0786890642104
 31
0.0
  0
LINE
  5
289
  8
回07-寸法
  6
CONTINUOUS
 62
     5
 10
3657.54664061773
 20
210.5693609215375
 30
0.0
 11
3657.54664061773
 21
185.0786890642104
 31
0.0
  0
LINE
  5
28A
  8
回07-寸法
  6
CONTINUOUS
 62
     5
 10
3669.54664061773
 20
186.0786890642104
 30
0.0
 11
3659.04664061773
 21
186.0786890642104
 31
0.0
  0
INSERT
  5
28B
  8
回07-寸法
  6
CONTINUOUS
 62
     5
 66
     1
  2
_OPEN
 10
3671.04664061773
 20
186.0786890642104
 30
0.0
 41
1.5
 42
1.5
 43
1.5
  0
SEQEND
  5
28C
  8
0
  6
CONTINUOUS
 62
     5
  0
INSERT
  5
28D
  8
回07-寸法
  6
CONTINUOUS
 62
     5
 66
     1
  2
_OPEN
 10
3657.54664061773
 20
186.0786890642104
 30
0.0
 41
1.5
 42
1.5
 43
1.5
 50
180.0
  0
SEQEND
  5
28E
  8
0
  6
CONTINUOUS
 62
     5
  0
INSERT
  5
28F
  8
回07-寸法
  6
CONTINUOUS
 62
     5
 66
     1
  2
*X81
 10
0.0
 20
0.0
 30
0.0
  0
SEQEND
  5
7F5
  8
0
  6
CONTINUOUS
 62
     5
  0
POINT
  5
290
  8
DEFPOINTS
  6
CONTINUOUS
 62
     0
 10
3671.04664061773
 20
210.5693609215366
 30
0.0
  0
POINT
  5
291
  8
DEFPOINTS
  6
CONTINUOUS
 62
     0
 10
3657.54664061773
 20
210.5693609215375
 30
0.0
  0
POINT
  5
292
  8
DEFPOINTS
  6
CONTINUOUS
 62
     0
 10
3657.54664061773
 20
186.0786890642104
 30
0.0
  0
ENDBLK
  5
293
  8
0
 62
     5
  0
BLOCK
  8
0
  2
*D3
 70
     1
 10
0.0
 20
0.0
 30
0.0
  3
*D3
  1

  0
LINE
  5
279
  8
回07-寸法
  6
CONTINUOUS
 62
     5
 10
3646.04664061773
 20
210.5693609215375
 30
0.0
 11
3646.04664061773
 21
194.0734092923484
 31
0.0
  0
LINE
  5
27A
  8
回07-寸法
  6
CONTINUOUS
 62
     5
 10
3628.54664061773
 20
210.5693609215375
 30
0.0
 11
3628.54664061773
 21
194.0734092923484
 31
0.0
  0
LINE
  5
27B
  8
回07-寸法
  6
CONTINUOUS
 62
     5
 10
3644.54664061773
 20
195.0734092923484
 30
0.0
 11
3630.04664061773
 21
195.0734092923484
 31
0.0
  0
INSERT
  5
27C
  8
回07-寸法
  6
CONTINUOUS
 62
     5
 66
     1
  2
_OPEN
 10
3646.04664061773
 20
195.0734092923484
 30
0.0
 41
1.5
 42
1.5
 43
1.5
  0
SEQEND
  5
27D
  8
0
  6
CONTINUOUS
 62
     5
  0
INSERT
  5
27E
  8
回07-寸法
  6
CONTINUOUS
 62
     5
 66
     1
  2
_OPEN
 10
3628.54664061773
 20
195.0734092923484
 30
0.0
 41
1.5
 42
1.5
 43
1.5
 50
180.0
  0
SEQEND
  5
27F
  8
0
  6
CONTINUOUS
 62
     5
  0
INSERT
  5
280
  8
回07-寸法
  6
CONTINUOUS
 62
     5
 66
     1
  2
*X82
 10
0.0
 20
0.0
 30
0.0
  0
SEQEND
  5
7FB
  8
0
  6
CONTINUOUS
 62
     5
  0
POINT
  5
281
  8
DEFPOINTS
  6
CONTINUOUS
 62
     0
 10
3646.04664061773
 20
210.5693609215375
 30
0.0
  0
POINT
  5
282
  8
DEFPOINTS
  6
CONTINUOUS
 62
     0
 10
3628.54664061773
 20
210.5693609215375
 30
0.0
  0
POINT
  5
283
  8
DEFPOINTS
  6
CONTINUOUS
 62
     0
 10
3628.54664061773
 20
195.0734092923484
 30
0.0
  0
ENDBLK
  5
284
  8
0
 62
     5
  0
BLOCK
  8
0
  2
*D4
 70
     1
 10
0.0
 20
0.0
 30
0.0
  3
*D4
  1

  0
LINE
  5
268
  8
回07-寸法
  6
CONTINUOUS
 62
     5
 10
3614.797765933178
 20
310.0693609215374
 30
0.0
 11
3607.692743479809
 21
310.0693609215374
 31
0.0
  0
LINE
  5
269
  8
回07-寸法
  6
CONTINUOUS
 62
     5
 10
3614.797765933178
 20
306.4417199583811
 30
0.0
 11
3607.692743479809
 21
306.4417199583811
 31
0.0
  0
LINE
  5
26A
  8
回07-寸法
  6
CONTINUOUS
 62
     5
 10
3608.692743479809
 20
304.9417199583811
 30
0.0
 11
3608.692743479809
 21
298.1660579669104
 31
0.0
  0
LINE
  5
26B
  8
回07-寸法
  6
CONTINUOUS
 62
     5
 10
3608.692743479809
 20
310.0693609215374
 30
0.0
 11
3608.692743479809
 21
306.4417199583811
 31
0.0
  0
LINE
  5
26C
  8
回07-寸法
  6
CONTINUOUS
 62
     5
 10
3608.692743479809
 20
311.5693609215374
 30
0.0
 11
3608.692743479809
 21
313.0693609215374
 31
0.0
  0
INSERT
  5
26D
  8
回07-寸法
  6
CONTINUOUS
 62
     5
 66
     1
  2
_OPEN
 10
3608.692743479809
 20
310.0693609215374
 30
0.0
 41
1.5
 42
1.5
 43
1.5
 50
270.0
  0
SEQEND
  5
26E
  8
0
  6
CONTINUOUS
 62
     5
  0
INSERT
  5
26F
  8
回07-寸法
  6
CONTINUOUS
 62
     5
 66
     1
  2
_OPEN
 10
3608.692743479809
 20
306.4417199583811
 30
0.0
 41
1.5
 42
1.5
 43
1.5
 50
90.0
  0
SEQEND
  5
270
  8
0
  6
CONTINUOUS
 62
     5
  0
TEXT
  5
271
  8
回07-寸法
  6
CONTINUOUS
 62
     5
 10
3608.19274347981
 20
298.2160579669107
 30
0.0
 40
3.0
  1
3.6
 50
90.0
1001
ACAD
1000
MTEXTBEGIN
1070
    73
1070
     1
1070
    44
1040
1.0
1070
    74
1070
     0
1000
MTEXTEND
  0
POINT
  5
272
  8
DEFPOINTS
  6
CONTINUOUS
 62
     0
 10
3614.797765933178
 20
310.0693609215374
 30
0.0
  0
POINT
  5
273
  8
DEFPOINTS
  6
CONTINUOUS
 62
     0
 10
3614.797765933178
 20
306.4417199583811
 30
0.0
  0
POINT
  5
274
  8
DEFPOINTS
  6
CONTINUOUS
 62
     0
 10
3608.692743479809
 20
306.4417199583811
 30
0.0
  0
ENDBLK
  5
275
  8
0
 62
     5
  0
BLOCK
  8
0
  2
*D5
 70
     1
 10
0.0
 20
0.0
 30
0.0
  3
*D5
  1

  0
LINE
  5
259
  8
回07-寸法
  6
CONTINUOUS
 62
     5
 10
3614.797765933178
 20
310.0693609215374
 30
0.0
 11
3603.032844726687
 21
310.0693609215374
 31
0.0
  0
LINE
  5
25A
  8
回07-寸法
  6
CONTINUOUS
 62
     5
 10
3628.54664061773
 20
292.6928452738295
 30
0.0
 11
3603.032844726687
 21
292.6928452738295
 31
0.0
  0
LINE
  5
25B
  8
回07-寸法
  6
CONTINUOUS
 62
     5
 10
3604.032844726687
 20
308.5693609215374
 30
0.0
 11
3604.032844726687
 21
294.1928452738295
 31
0.0
  0
INSERT
  5
25C
  8
回07-寸法
  6
CONTINUOUS
 62
     5
 66
     1
  2
_OPEN
 10
3604.032844726687
 20
310.0693609215374
 30
0.0
 41
1.5
 42
1.5
 43
1.5
 50
90.0
  0
SEQEND
  5
25D
  8
0
  6
CONTINUOUS
 62
     5
  0
INSERT
  5
25E
  8
回07-寸法
  6
CONTINUOUS
 62
     5
 66
     1
  2
_OPEN
 10
3604.032844726687
 20
292.6928452738295
 30
0.0
 41
1.5
 42
1.5
 43
1.5
 50
270.0
  0
SEQEND
  5
25F
  8
0
  6
CONTINUOUS
 62
     5
  0
TEXT
  5
260
  8
回07-寸法
  6
CONTINUOUS
 62
     5
 10
3603.532844726686
 20
298.7199479456867
 30
0.0
 40
3.0
  1
17.4
 50
90.0
1001
ACAD
1000
MTEXTBEGIN
1070
    73
1070
     1
1070
    44
1040
1.0
1070
    74
1070
     0
1000
MTEXTEND
  0
POINT
  5
261
  8
DEFPOINTS
  6
CONTINUOUS
 62
     0
 10
3614.797765933178
 20
310.0693609215374
 30
0.0
  0
POINT
  5
262
  8
DEFPOINTS
  6
CONTINUOUS
 62
     0
 10
3628.54664061773
 20
292.6928452738295
 30
0.0
  0
POINT
  5
263
  8
DEFPOINTS
  6
CONTINUOUS
 62
     0
 10
3604.032844726687
 20
292.6928452738295
 30
0.0
  0
ENDBLK
  5
264
  8
0
 62
     5
  0
BLOCK
  8
0
  2
*D6
 70
     1
 10
0.0
 20
0.0
 30
0.0
  3
*D6
  1

  0
LINE
  5
248
  8
回07-寸法
  6
CONTINUOUS
 62
     5
 10
3677.797765933178
 20
310.0693609215368
 30
0.0
 11
3685.053961930262
 21
310.0693609215368
 31
0.0
  0
LINE
  5
249
  8
回07-寸法
  6
CONTINUOUS
 62
     5
 10
3677.797765933178
 20
306.5137260029258
 30
0.0
 11
3685.053961930262
 21
306.5137260029258
 31
0.0
  0
LINE
  5
24A
  8
回07-寸法
  6
CONTINUOUS
 62
     5
 10
3684.053961930262
 20
305.0137260029258
 30
0.0
 11
3684.053961930262
 21
293.4126334789858
 31
0.0
  0
LINE
  5
24B
  8
回07-寸法
  6
CONTINUOUS
 62
     5
 10
3684.053961930262
 20
310.0693609215368
 30
0.0
 11
3684.053961930262
 21
306.5137260029258
 31
0.0
  0
LINE
  5
24C
  8
回07-寸法
  6
CONTINUOUS
 62
     5
 10
3684.053961930262
 20
311.5693609215368
 30
0.0
 11
3684.053961930262
 21
313.0693609215368
 31
0.0
  0
INSERT
  5
24D
  8
回07-寸法
  6
CONTINUOUS
 62
     5
 66
     1
  2
_OPEN
 10
3684.053961930262
 20
310.0693609215368
 30
0.0
 41
1.5
 42
1.5
 43
1.5
 50
270.0
  0
SEQEND
  5
24E
  8
0
  6
CONTINUOUS
 62
     5
  0
INSERT
  5
24F
  8
回07-寸法
  6
CONTINUOUS
 62
     5
 66
     1
  2
_OPEN
 10
3684.053961930262
 20
306.5137260029258
 30
0.0
 41
1.5
 42
1.5
 43
1.5
 50
90.0
  0
SEQEND
  5
250
  8
0
  6
CONTINUOUS
 62
     5
  0
TEXT
  5
251
  8
回07-寸法
  6
CONTINUOUS
 62
     5
 10
3683.553961930261
 20
293.4626334789859
 30
0.0
 40
3.0
  1
3.6
 50
90.0
1001
ACAD
1000
MTEXTBEGIN
1070
    73
1070
     1
1070
    44
1040
1.0
1070
    74
1070
     0
1000
MTEXTEND
  0
POINT
  5
252
  8
DEFPOINTS
  6
CONTINUOUS
 62
     0
 10
3677.797765933178
 20
310.0693609215368
 30
0.0
  0
POINT
  5
253
  8
DEFPOINTS
  6
CONTINUOUS
 62
     0
 10
3677.797765933178
 20
306.5137260029258
 30
0.0
  0
POINT
  5
254
  8
DEFPOINTS
  6
CONTINUOUS
 62
     0
 10
3684.053961930262
 20
306.5137260029258
 30
0.0
  0
ENDBLK
  5
255
  8
0
 62
     5
  0
BLOCK
  8
0
  2
*D7
 70
     1
 10
0.0
 20
0.0
 30
0.0
  3
*D7
  1

  0
LINE
  5
237
  8
回07-寸法
  6
CONTINUOUS
 62
     5
 10
3677.797765933178
 20
310.0693609215368
 30
0.0
 11
3692.390067120858
 21
310.0693609215368
 31
0.0
  0
LINE
  5
238
  8
回07-寸法
  6
CONTINUOUS
 62
     5
 10
3671.04664061773
 20
299.7626006874778
 30
0.0
 11
3692.390067120858
 21
299.7626006874778
 31
0.0
  0
LINE
  5
239
  8
回07-寸法
  6
CONTINUOUS
 62
     5
 10
3691.390067120858
 20
298.2626006874777
 30
0.0
 11
3691.390067120858
 21
290.0004686531209
 31
0.0
  0
LINE
  5
23A
  8
回07-寸法
  6
CONTINUOUS
 62
     5
 10
3691.390067120858
 20
310.0693609215368
 30
0.0
 11
3691.390067120858
 21
299.7626006874778
 31
0.0
  0
LINE
  5
23B
  8
回07-寸法
  6
CONTINUOUS
 62
     5
 10
3691.390067120858
 20
311.5693609215368
 30
0.0
 11
3691.390067120858
 21
313.0693609215368
 31
0.0
  0
INSERT
  5
23C
  8
回07-寸法
  6
CONTINUOUS
 62
     5
 66
     1
  2
_OPEN
 10
3691.390067120858
 20
310.0693609215368
 30
0.0
 41
1.5
 42
1.5
 43
1.5
 50
270.0
  0
SEQEND
  5
23D
  8
0
  6
CONTINUOUS
 62
     5
  0
INSERT
  5
23E
  8
回07-寸法
  6
CONTINUOUS
 62
     5
 66
     1
  2
_OPEN
 10
3691.390067120858
 20
299.7626006874778
 30
0.0
 41
1.5
 42
1.5
 43
1.5
 50
90.0
  0
SEQEND
  5
23F
  8
0
  6
CONTINUOUS
 62
     5
  0
TEXT
  5
240
  8
回07-寸法
  6
CONTINUOUS
 62
     5
 10
3690.890067120858
 20
290.0504686531212
 30
0.0
 40
3.0
  1
10.3
 50
90.0
1001
ACAD
1000
MTEXTBEGIN
1070
    73
1070
     1
1070
    44
1040
1.0
1070
    74
1070
     0
1000
MTEXTEND
  0
POINT
  5
241
  8
DEFPOINTS
  6
CONTINUOUS
 62
     0
 10
3677.797765933178
 20
310.0693609215368
 30
0.0
  0
POINT
  5
242
  8
DEFPOINTS
  6
CONTINUOUS
 62
     0
 10
3671.04664061773
 20
299.7626006874778
 30
0.0
  0
POINT
  5
243
  8
DEFPOINTS
  6
CONTINUOUS
 62
     0
 10
3691.390067120858
 20
299.7626006874778
 30
0.0
  0
ENDBLK
  5
244
  8
0
 62
     5
  0
BLOCK
  8
0
  2
*D8
 70
     1
 10
0.0
 20
0.0
 30
0.0
  3
*D8
  1

  0
LINE
  5
226
  8
回07-寸法
  6
CONTINUOUS
 62
     5
 10
3649.797765933178
 20
306.8518851499437
 30
0.0
 11
3649.797765933178
 21
286.4792957800729
 31
0.0
  0
LINE
  5
227
  8
回07-寸法
  6
CONTINUOUS
 62
     5
 10
3614.797765933178
 20
306.8559335207544
 30
0.0
 11
3614.797765933178
 21
286.4792957800729
 31
0.0
  0
LINE
  5
228
  8
回07-寸法
  6
CONTINUOUS
 62
     5
 10
3613.297765933179
 20
287.4792957800729
 30
0.0
 11
3605.993071242072
 21
287.4792957800729
 31
0.0
  0
LINE
  5
229
  8
回07-寸法
  6
CONTINUOUS
 62
     5
 10
3649.797765933178
 20
287.4792957800729
 30
0.0
 11
3614.797765933178
 21
287.4792957800729
 31
0.0
  0
LINE
  5
22A
  8
回07-寸法
  6
CONTINUOUS
 62
     5
 10
3651.297765933178
 20
287.4792957800729
 30
0.0
 11
3652.797765933178
 21
287.4792957800729
 31
0.0
  0
INSERT
  5
22B
  8
回07-寸法
  6
CONTINUOUS
 62
     5
 66
     1
  2
_OPEN
 10
3649.797765933178
 20
287.4792957800729
 30
0.0
 41
1.5
 42
1.5
 43
1.5
 50
180.0
  0
SEQEND
  5
22C
  8
0
  6
CONTINUOUS
 62
     5
  0
INSERT
  5
22D
  8
回07-寸法
  6
CONTINUOUS
 62
     5
 66
     1
  2
_OPEN
 10
3614.797765933178
 20
287.4792957800729
 30
0.0
 41
1.5
 42
1.5
 43
1.5
  0
SEQEND
  5
22E
  8
0
  6
CONTINUOUS
 62
     5
  0
TEXT
  5
22F
  8
回07-寸法
  6
CONTINUOUS
 62
     5
 10
3606.043071242072
 20
287.9792957800729
 30
0.0
 40
3.0
  1
35
1001
ACAD
1000
MTEXTBEGIN
1070
    73
1070
     1
1070
    44
1040
1.0
1070
    74
1070
     0
1000
MTEXTEND
  0
POINT
  5
230
  8
DEFPOINTS
  6
CONTINUOUS
 62
     0
 10
3649.797765933178
 20
306.8518851499437
 30
0.0
  0
POINT
  5
231
  8
DEFPOINTS
  6
CONTINUOUS
 62
     0
 10
3614.797765933178
 20
306.8559335207544
 30
0.0
  0
POINT
  5
232
  8
DEFPOINTS
  6
CONTINUOUS
 62
     0
 10
3614.797765933178
 20
287.4792957800729
 30
0.0
  0
ENDBLK
  5
233
  8
0
 62
     5
  0
BLOCK
  8
0
  2
*D9
 70
     1
 10
0.0
 20
0.0
 30
0.0
  3
*D9
  1

  0
LINE
  5
215
  8
回07-寸法
  6
CONTINUOUS
 62
     5
 10
3650.797765933179
 20
306.9238911944883
 30
0.0
 11
3650.797765933179
 21
283.1164308516155
 31
0.0
  0
LINE
  5
216
  8
回07-寸法
  6
CONTINUOUS
 62
     5
 10
3677.797765933178
 20
306.9279395652991
 30
0.0
 11
3677.797765933178
 21
283.1164308516155
 31
0.0
  0
LINE
  5
217
  8
回07-寸法
  6
CONTINUOUS
 62
     5
 10
3679.297765933178
 20
284.1164308516155
 30
0.0
 11
3686.261250185147
 21
284.1164308516155
 31
0.0
  0
LINE
  5
218
  8
回07-寸法
  6
CONTINUOUS
 62
     5
 10
3650.797765933179
 20
284.1164308516155
 30
0.0
 11
3677.797765933178
 21
284.1164308516155
 31
0.0
  0
LINE
  5
219
  8
回07-寸法
  6
CONTINUOUS
 62
     5
 10
3649.297765933179
 20
284.1164308516155
 30
0.0
 11
3647.797765933179
 21
284.1164308516155
 31
0.0
  0
INSERT
  5
21A
  8
回07-寸法
  6
CONTINUOUS
 62
     5
 66
     1
  2
_OPEN
 10
3650.797765933179
 20
284.1164308516155
 30
0.0
 41
1.5
 42
1.5
 43
1.5
  0
SEQEND
  5
21B
  8
0
  6
CONTINUOUS
 62
     5
  0
INSERT
  5
21C
  8
回07-寸法
  6
CONTINUOUS
 62
     5
 66
     1
  2
_OPEN
 10
3677.797765933178
 20
284.1164308516155
 30
0.0
 41
1.5
 42
1.5
 43
1.5
 50
180.0
  0
SEQEND
  5
21D
  8
0
  6
CONTINUOUS
 62
     5
  0
TEXT
  5
21E
  8
回07-寸法
  6
CONTINUOUS
 62
     5
 10
3682.011250185147
 20
284.6164308516155
 30
0.0
 40
3.0
  1
27
1001
ACAD
1000
MTEXTBEGIN
1070
    73
1070
     1
1070
    44
1040
1.0
1070
    74
1070
     0
1000
MTEXTEND
  0
POINT
  5
21F
  8
DEFPOINTS
  6
CONTINUOUS
 62
     0
 10
3650.797765933179
 20
306.9238911944883
 30
0.0
  0
POINT
  5
220
  8
DEFPOINTS
  6
CONTINUOUS
 62
     0
 10
3677.797765933178
 20
306.9279395652991
 30
0.0
  0
POINT
  5
221
  8
DEFPOINTS
  6
CONTINUOUS
 62
     0
 10
3677.797765933178
 20
284.1164308516155
 30
0.0
  0
ENDBLK
  5
222
  8
0
 62
     5
  0
BLOCK
  8
0
  2
*D10
 70
     1
 10
0.0
 20
0.0
 30
0.0
  3
*D10
  1

  0
LINE
  5
206
  8
回07-寸法
  6
CONTINUOUS
 62
     5
 10
3670.54664061773
 20
210.0734092923474
 30
0.0
 11
3699.343077525603
 21
210.0734092923474
 31
0.0
  0
LINE
  5
207
  8
回07-寸法
  6
CONTINUOUS
 62
     5
 10
3677.797765933178
 20
310.0693609215371
 30
0.0
 11
3699.343077525603
 21
310.0693609215371
 31
0.0
  0
LINE
  5
208
  8
回07-寸法
  6
CONTINUOUS
 62
     5
 10
3698.343077525602
 20
211.5734092923474
 30
0.0
 11
3698.343077525602
 21
308.5693609215371
 31
0.0
  0
INSERT
  5
209
  8
回07-寸法
  6
CONTINUOUS
 62
     5
 66
     1
  2
_OPEN
 10
3698.343077525602
 20
210.0734092923474
 30
0.0
 41
1.5
 42
1.5
 43
1.5
 50
270.0
  0
SEQEND
  5
20A
  8
0
  6
CONTINUOUS
 62
     5
  0
INSERT
  5
20B
  8
回07-寸法
  6
CONTINUOUS
 62
     5
 66
     1
  2
_OPEN
 10
3698.343077525602
 20
310.0693609215371
 30
0.0
 41
1.5
 42
1.5
 43
1.5
 50
90.0
  0
SEQEND
  5
20C
  8
0
  6
CONTINUOUS
 62
     5
  0
INSERT
  5
20D
  8
回07-寸法
  6
CONTINUOUS
 62
     5
 66
     1
  2
*X83
 10
0.0
 20
0.0
 30
0.0
  0
SEQEND
  5
801
  8
0
  6
CONTINUOUS
 62
     5
  0
POINT
  5
20E
  8
DEFPOINTS
  6
CONTINUOUS
 62
     0
 10
3670.54664061773
 20
210.0734092923474
 30
0.0
  0
POINT
  5
20F
  8
DEFPOINTS
  6
CONTINUOUS
 62
     0
 10
3677.797765933178
 20
310.0693609215371
 30
0.0
  0
POINT
  5
210
  8
DEFPOINTS
  6
CONTINUOUS
 62
     0
 10
3698.343077525602
 20
310.0693609215371
 30
0.0
  0
ENDBLK
  5
211
  8
0
 62
     5
  0
BLOCK
  8
0
  2
*D11
 70
     1
 10
0.0
 20
0.0
 30
0.0
  3
*D11
  1

  0
LINE
  5
444
  8
回07-寸法
  6
CONTINUOUS
 62
     5
 10
3527.794048589736
 20
323.1693609215375
 30
0.0
 11
3502.144048589736
 21
323.1693609215375
 31
0.0
  0
LINE
  5
445
  8
回07-寸法
  6
CONTINUOUS
 62
     5
 10
3527.794048589735
 20
507.6693609215372
 30
0.0
 11
3502.144048589736
 21
507.6693609215372
 31
0.0
  0
LINE
  5
446
  8
回07-寸法
  6
CONTINUOUS
 62
     5
 10
3503.144048589736
 20
324.6693609215375
 30
0.0
 11
3503.144048589736
 21
506.1693609215373
 31
0.0
  0
INSERT
  5
447
  8
回07-寸法
  6
CONTINUOUS
 62
     5
 66
     1
  2
_OPEN
 10
3503.144048589736
 20
323.1693609215375
 30
0.0
 41
1.5
 42
1.5
 43
1.5
 50
270.0
  0
SEQEND
  5
448
  8
0
  6
CONTINUOUS
 62
     5
  0
INSERT
  5
449
  8
回07-寸法
  6
CONTINUOUS
 62
     5
 66
     1
  2
_OPEN
 10
3503.144048589736
 20
507.6693609215372
 30
0.0
 41
1.5
 42
1.5
 43
1.5
 50
90.0
  0
SEQEND
  5
44A
  8
0
  6
CONTINUOUS
 62
     5
  0
TEXT
  5
44B
  8
回07-寸法
  6
CONTINUOUS
 62
     5
 10
3502.494048589736
 20
398.7699514727187
 30
0.0
 40
3.0
  1
184.5(Active Area)
 50
90.0
1001
ACAD
1000
MTEXTBEGIN
1070
    73
1070
     1
1070
    44
1040
1.0
1070
    74
1070
     0
1000
MTEXTEND
  0
POINT
  5
44C
  8
DEFPOINTS
  6
CONTINUOUS
 62
     0
 10
3527.794048589736
 20
323.1693609215375
 30
0.0
  0
POINT
  5
44D
  8
DEFPOINTS
  6
CONTINUOUS
 62
     0
 10
3527.794048589735
 20
507.6693609215372
 30
0.0
  0
POINT
  5
44E
  8
DEFPOINTS
  6
CONTINUOUS
 62
     0
 10
3503.144048589736
 20
507.6693609215372
 30
0.0
  0
ENDBLK
  5
44F
  8
0
 62
     5
  0
BLOCK
  8
0
  2
*D12
 70
     1
 10
0.0
 20
0.0
 30
0.0
  3
*D12
  1

  0
LINE
  5
435
  8
回07-寸法
  6
CONTINUOUS
 62
     5
 10
3525.644048589735
 20
510.0693609215372
 30
0.0
 11
3494.144048589736
 21
510.0693609215372
 31
0.0
  0
LINE
  5
436
  8
回07-寸法
  6
CONTINUOUS
 62
     5
 10
3525.644048589736
 20
320.7693609215373
 30
0.0
 11
3494.144048589736
 21
320.7693609215373
 31
0.0
  0
LINE
  5
437
  8
回07-寸法
  6
CONTINUOUS
 62
     5
 10
3495.144048589736
 20
508.5693609215373
 30
0.0
 11
3495.144048589736
 21
322.2693609215373
 31
0.0
  0
INSERT
  5
438
  8
回07-寸法
  6
CONTINUOUS
 62
     5
 66
     1
  2
_OPEN
 10
3495.144048589736
 20
510.0693609215372
 30
0.0
 41
1.5
 42
1.5
 43
1.5
 50
90.0
  0
SEQEND
  5
439
  8
0
  6
CONTINUOUS
 62
     5
  0
INSERT
  5
43A
  8
回07-寸法
  6
CONTINUOUS
 62
     5
 66
     1
  2
_OPEN
 10
3495.144048589736
 20
320.7693609215373
 30
0.0
 41
1.5
 42
1.5
 43
1.5
 50
270.0
  0
SEQEND
  5
43B
  8
0
  6
CONTINUOUS
 62
     5
  0
TEXT
  5
43C
  8
回07-寸法
  6
CONTINUOUS
 62
     5
 10
3493.894048589736
 20
397.8645359199277
 30
0.0
 40
3.0
  1
189.3(Viewing Area)
 50
90.0
1001
ACAD
1000
MTEXTBEGIN
1070
    73
1070
     1
1070
    44
1040
1.0
1070
    74
1070
     0
1000
MTEXTEND
  0
POINT
  5
43D
  8
DEFPOINTS
  6
CONTINUOUS
 62
     0
 10
3525.644048589735
 20
510.0693609215372
 30
0.0
  0
POINT
  5
43E
  8
DEFPOINTS
  6
CONTINUOUS
 62
     0
 10
3525.644048589736
 20
320.7693609215373
 30
0.0
  0
POINT
  5
43F
  8
DEFPOINTS
  6
CONTINUOUS
 62
     0
 10
3495.144048589736
 20
320.7693609215373
 30
0.0
  0
ENDBLK
  5
440
  8
0
 62
     5
  0
BLOCK
  8
0
  2
*D13
 70
     1
 10
0.0
 20
0.0
 30
0.0
  3
*D13
  1

  0
LINE
  5
426
  8
回07-寸法
  6
CONTINUOUS
 62
     5
 10
3519.144048589736
 20
517.0693609215373
 30
0.0
 11
3478.144048589735
 21
517.0693609215373
 31
0.0
  0
LINE
  5
427
  8
回07-寸法
  6
CONTINUOUS
 62
     5
 10
3519.144048589736
 20
310.0693609215374
 30
0.0
 11
3478.144048589735
 21
310.0693609215374
 31
0.0
  0
LINE
  5
428
  8
回07-寸法
  6
CONTINUOUS
 62
     5
 10
3479.144048589736
 20
515.5693609215372
 30
0.0
 11
3479.144048589736
 21
311.5693609215374
 31
0.0
  0
INSERT
  5
429
  8
回07-寸法
  6
CONTINUOUS
 62
     5
 66
     1
  2
_OPEN
 10
3479.144048589736
 20
517.0693609215373
 30
0.0
 41
1.5
 42
1.5
 43
1.5
 50
90.0
  0
SEQEND
  5
42A
  8
0
  6
CONTINUOUS
 62
     5
  0
INSERT
  5
42B
  8
回07-寸法
  6
CONTINUOUS
 62
     5
 66
     1
  2
_OPEN
 10
3479.144048589736
 20
310.0693609215374
 30
0.0
 41
1.5
 42
1.5
 43
1.5
 50
270.0
  0
SEQEND
  5
42C
  8
0
  6
CONTINUOUS
 62
     5
  0
INSERT
  5
42D
  8
回07-寸法
  6
CONTINUOUS
 62
     5
 66
     1
  2
*X84
 10
0.0
 20
0.0
 30
0.0
  0
SEQEND
  5
807
  8
0
  6
CONTINUOUS
 62
     5
  0
POINT
  5
42E
  8
DEFPOINTS
  6
CONTINUOUS
 62
     0
 10
3519.144048589736
 20
517.0693609215373
 30
0.0
  0
POINT
  5
42F
  8
DEFPOINTS
  6
CONTINUOUS
 62
     0
 10
3519.144048589736
 20
310.0693609215374
 30
0.0
  0
POINT
  5
430
  8
DEFPOINTS
  6
CONTINUOUS
 62
     0
 10
3479.144048589736
 20
310.0693609215374
 30
0.0
  0
ENDBLK
  5
431
  8
0
 62
     5
  0
BLOCK
  8
0
  2
*D14
 70
     1
 10
0.0
 20
0.0
 30
0.0
  3
*D14
  1

  0
LINE
  5
417
  8
回07-寸法
  6
CONTINUOUS
 62
     5
 10
3525.144048589736
 20
320.2693609215373
 30
0.0
 11
3486.144048589737
 21
320.2693609215373
 31
0.0
  0
LINE
  5
418
  8
回07-寸法
  6
CONTINUOUS
 62
     5
 10
3525.144048589736
 20
510.5693609215372
 30
0.0
 11
3486.144048589737
 21
510.5693609215372
 31
0.0
  0
LINE
  5
419
  8
回07-寸法
  6
CONTINUOUS
 62
     5
 10
3487.144048589737
 20
321.7693609215373
 30
0.0
 11
3487.144048589737
 21
509.0693609215373
 31
0.0
  0
INSERT
  5
41A
  8
回07-寸法
  6
CONTINUOUS
 62
     5
 66
     1
  2
_OPEN
 10
3487.144048589737
 20
320.2693609215373
 30
0.0
 41
1.5
 42
1.5
 43
1.5
 50
270.0
  0
SEQEND
  5
41B
  8
0
  6
CONTINUOUS
 62
     5
  0
INSERT
  5
41C
  8
回07-寸法
  6
CONTINUOUS
 62
     5
 66
     1
  2
_OPEN
 10
3487.144048589737
 20
510.5693609215372
 30
0.0
 41
1.5
 42
1.5
 43
1.5
 50
90.0
  0
SEQEND
  5
41D
  8
0
  6
CONTINUOUS
 62
     5
  0
TEXT
  5
41E
  8
回07-寸法
  6
CONTINUOUS
 62
     5
 10
3486.644048589737
 20
411.0639453687467
 30
0.0
 40
3.0
  1
190.3
 50
90.0
1001
ACAD
1000
MTEXTBEGIN
1070
    73
1070
     1
1070
    44
1040
1.0
1070
    74
1070
     0
1000
MTEXTEND
  0
POINT
  5
41F
  8
DEFPOINTS
  6
CONTINUOUS
 62
     0
 10
3525.144048589736
 20
320.2693609215373
 30
0.0
  0
POINT
  5
420
  8
DEFPOINTS
  6
CONTINUOUS
 62
     0
 10
3525.144048589736
 20
510.5693609215372
 30
0.0
  0
POINT
  5
421
  8
DEFPOINTS
  6
CONTINUOUS
 62
     0
 10
3487.144048589737
 20
510.5693609215372
 30
0.0
  0
ENDBLK
  5
422
  8
0
 62
     5
  0
BLOCK
  8
0
  2
*D15
 70
     1
 10
0.0
 20
0.0
 30
0.0
  3
*D15
  1

  0
LINE
  5
406
  8
回07-寸法
  6
CONTINUOUS
 62
     5
 10
3525.644048589735
 20
320.7693609215373
 30
0.0
 11
3494.144048589736
 21
320.7693609215373
 31
0.0
  0
LINE
  5
407
  8
回07-寸法
  6
CONTINUOUS
 62
     5
 10
3519.144048589736
 20
310.0693609215374
 30
0.0
 11
3494.144048589736
 21
310.0693609215374
 31
0.0
  0
LINE
  5
408
  8
回07-寸法
  6
CONTINUOUS
 62
     5
 10
3495.144048589736
 20
308.5693609215374
 30
0.0
 11
3495.144048589736
 21
298.9693609215376
 31
0.0
  0
LINE
  5
409
  8
回07-寸法
  6
CONTINUOUS
 62
     5
 10
3495.144048589736
 20
320.7693609215373
 30
0.0
 11
3495.144048589736
 21
310.0693609215374
 31
0.0
  0
LINE
  5
40A
  8
回07-寸法
  6
CONTINUOUS
 62
     5
 10
3495.144048589736
 20
322.2693609215373
 30
0.0
 11
3495.144048589736
 21
323.7693609215373
 31
0.0
  0
INSERT
  5
40B
  8
回07-寸法
  6
CONTINUOUS
 62
     5
 66
     1
  2
_OPEN
 10
3495.144048589736
 20
320.7693609215373
 30
0.0
 41
1.5
 42
1.5
 43
1.5
 50
270.0
  0
SEQEND
  5
40C
  8
0
  6
CONTINUOUS
 62
     5
  0
INSERT
  5
40D
  8
回07-寸法
  6
CONTINUOUS
 62
     5
 66
     1
  2
_OPEN
 10
3495.144048589736
 20
310.0693609215374
 30
0.0
 41
1.5
 42
1.5
 43
1.5
 50
90.0
  0
SEQEND
  5
40E
  8
0
  6
CONTINUOUS
 62
     5
  0
TEXT
  5
40F
  8
回07-寸法
  6
CONTINUOUS
 62
     5
 10
3494.644048589736
 20
299.019360921538
 30
0.0
 40
3.0
  1
10.7
 50
90.0
1001
ACAD
1000
MTEXTBEGIN
1070
    73
1070
     1
1070
    44
1040
1.0
1070
    74
1070
     0
1000
MTEXTEND
  0
POINT
  5
410
  8
DEFPOINTS
  6
CONTINUOUS
 62
     0
 10
3525.644048589735
 20
320.7693609215373
 30
0.0
  0
POINT
  5
411
  8
DEFPOINTS
  6
CONTINUOUS
 62
     0
 10
3519.144048589736
 20
310.0693609215374
 30
0.0
  0
POINT
  5
412
  8
DEFPOINTS
  6
CONTINUOUS
 62
     0
 10
3495.144048589736
 20
310.0693609215374
 30
0.0
  0
ENDBLK
  5
413
  8
0
 62
     5
  0
BLOCK
  8
0
  2
*D16
 70
     1
 10
0.0
 20
0.0
 30
0.0
  3
*D16
  1

  0
LINE
  5
3F5
  8
回07-寸法
  6
CONTINUOUS
 62
     5
 10
3527.794048589735
 20
323.1693609215373
 30
0.0
 11
3502.144048589736
 21
323.1693609215373
 31
0.0
  0
LINE
  5
3F6
  8
回07-寸法
  6
CONTINUOUS
 62
     5
 10
3519.144048589736
 20
310.0693609215374
 30
0.0
 11
3502.144048589736
 21
310.0693609215374
 31
0.0
  0
LINE
  5
3F7
  8
回07-寸法
  6
CONTINUOUS
 62
     5
 10
3503.144048589736
 20
308.5693609215374
 30
0.0
 11
3503.144048589736
 21
298.6658075309443
 31
0.0
  0
LINE
  5
3F8
  8
回07-寸法
  6
CONTINUOUS
 62
     5
 10
3503.144048589736
 20
323.1693609215373
 30
0.0
 11
3503.144048589736
 21
310.0693609215374
 31
0.0
  0
LINE
  5
3F9
  8
回07-寸法
  6
CONTINUOUS
 62
     5
 10
3503.144048589736
 20
324.6693609215373
 30
0.0
 11
3503.144048589736
 21
326.1693609215373
 31
0.0
  0
INSERT
  5
3FA
  8
回07-寸法
  6
CONTINUOUS
 62
     5
 66
     1
  2
_OPEN
 10
3503.144048589736
 20
323.1693609215373
 30
0.0
 41
1.5
 42
1.5
 43
1.5
 50
270.0
  0
SEQEND
  5
3FB
  8
0
  6
CONTINUOUS
 62
     5
  0
INSERT
  5
3FC
  8
回07-寸法
  6
CONTINUOUS
 62
     5
 66
     1
  2
_OPEN
 10
3503.144048589736
 20
310.0693609215374
 30
0.0
 41
1.5
 42
1.5
 43
1.5
 50
90.0
  0
SEQEND
  5
3FD
  8
0
  6
CONTINUOUS
 62
     5
  0
TEXT
  5
3FE
  8
回07-寸法
  6
CONTINUOUS
 62
     5
 10
3502.644048589735
 20
298.7158075309444
 30
0.0
 40
3.0
  1
13.1
 50
90.0
1001
ACAD
1000
MTEXTBEGIN
1070
    73
1070
     1
1070
    44
1040
1.0
1070
    74
1070
     0
1000
MTEXTEND
  0
POINT
  5
3FF
  8
DEFPOINTS
  6
CONTINUOUS
 62
     0
 10
3527.794048589735
 20
323.1693609215373
 30
0.0
  0
POINT
  5
400
  8
DEFPOINTS
  6
CONTINUOUS
 62
     0
 10
3519.144048589736
 20
310.0693609215374
 30
0.0
  0
POINT
  5
401
  8
DEFPOINTS
  6
CONTINUOUS
 62
     0
 10
3503.144048589736
 20
310.0693609215374
 30
0.0
  0
ENDBLK
  5
402
  8
0
 62
     5
  0
BLOCK
  8
0
  2
*D17
 70
     1
 10
0.0
 20
0.0
 30
0.0
  3
*D17
  1

  0
LINE
  5
3E4
  8
回07-寸法
  6
CONTINUOUS
 62
     5
 10
3525.144048589736
 20
320.2693609215373
 30
0.0
 11
3486.144048589736
 21
320.2693609215373
 31
0.0
  0
LINE
  5
3E5
  8
回07-寸法
  6
CONTINUOUS
 62
     5
 10
3519.144048589736
 20
310.0693609215374
 30
0.0
 11
3486.144048589736
 21
310.0693609215374
 31
0.0
  0
LINE
  5
3E6
  8
回07-寸法
  6
CONTINUOUS
 62
     5
 10
3487.144048589736
 20
308.5693609215374
 30
0.0
 11
3487.144048589736
 21
280.4141731124814
 31
0.0
  0
LINE
  5
3E7
  8
回07-寸法
  6
CONTINUOUS
 62
     5
 10
3487.144048589736
 20
320.2693609215373
 30
0.0
 11
3487.144048589736
 21
310.0693609215374
 31
0.0
  0
LINE
  5
3E8
  8
回07-寸法
  6
CONTINUOUS
 62
     5
 10
3487.144048589736
 20
321.7693609215373
 30
0.0
 11
3487.144048589736
 21
323.2693609215373
 31
0.0
  0
INSERT
  5
3E9
  8
回07-寸法
  6
CONTINUOUS
 62
     5
 66
     1
  2
_OPEN
 10
3487.144048589736
 20
320.2693609215373
 30
0.0
 41
1.5
 42
1.5
 43
1.5
 50
270.0
  0
SEQEND
  5
3EA
  8
0
  6
CONTINUOUS
 62
     5
  0
INSERT
  5
3EB
  8
回07-寸法
  6
CONTINUOUS
 62
     5
 66
     1
  2
_OPEN
 10
3487.144048589736
 20
310.0693609215374
 30
0.0
 41
1.5
 42
1.5
 43
1.5
 50
90.0
  0
SEQEND
  5
3EC
  8
0
  6
CONTINUOUS
 62
     5
  0
INSERT
  5
3ED
  8
回07-寸法
  6
CONTINUOUS
 62
     5
 66
     1
  2
*X85
 10
0.0
 20
0.0
 30
0.0
  0
SEQEND
  5
80D
  8
0
  6
CONTINUOUS
 62
     5
  0
POINT
  5
3EE
  8
DEFPOINTS
  6
CONTINUOUS
 62
     0
 10
3525.144048589736
 20
320.2693609215373
 30
0.0
  0
POINT
  5
3EF
  8
DEFPOINTS
  6
CONTINUOUS
 62
     0
 10
3519.144048589736
 20
310.0693609215374
 30
0.0
  0
POINT
  5
3F0
  8
DEFPOINTS
  6
CONTINUOUS
 62
     0
 10
3487.144048589736
 20
310.0693609215374
 30
0.0
  0
ENDBLK
  5
3F1
  8
0
 62
     5
  0
BLOCK
  8
0
  2
*D18
 70
     1
 10
0.0
 20
0.0
 30
0.0
  3
*D18
  1

  0
LINE
  5
3D5
  8
回07-寸法
  6
CONTINUOUS
 62
     5
 10
3628.546657007304
 20
210.5693609215375
 30
0.0
 11
3628.546657007304
 21
194.0734092923484
 31
0.0
  0
LINE
  5
3D6
  8
回07-寸法
  6
CONTINUOUS
 62
     5
 10
3519.144048589736
 20
310.0693609215372
 30
0.0
 11
3519.144048589736
 21
194.0734092923484
 31
0.0
  0
LINE
  5
3D7
  8
回07-寸法
  6
CONTINUOUS
 62
     5
 10
3627.046657007304
 20
195.0734092923484
 30
0.0
 11
3520.644048589736
 21
195.0734092923484
 31
0.0
  0
INSERT
  5
3D8
  8
回07-寸法
  6
CONTINUOUS
 62
     5
 66
     1
  2
_OPEN
 10
3628.546657007304
 20
195.0734092923484
 30
0.0
 41
1.5
 42
1.5
 43
1.5
  0
SEQEND
  5
3D9
  8
0
  6
CONTINUOUS
 62
     5
  0
INSERT
  5
3DA
  8
回07-寸法
  6
CONTINUOUS
 62
     5
 66
     1
  2
_OPEN
 10
3519.144048589736
 20
195.0734092923484
 30
0.0
 41
1.5
 42
1.5
 43
1.5
 50
180.0
  0
SEQEND
  5
3DB
  8
0
  6
CONTINUOUS
 62
     5
  0
TEXT
  5
3DC
  8
回07-寸法
  6
CONTINUOUS
 62
     5
 10
3568.139937245729
 20
195.7234092923484
 30
0.0
 40
3.0
  1
(109.4)
1001
ACAD
1000
MTEXTBEGIN
1070
    73
1070
     1
1070
    44
1040
1.0
1070
    74
1070
     0
1000
MTEXTEND
  0
POINT
  5
3DD
  8
DEFPOINTS
  6
CONTINUOUS
 62
     0
 10
3628.546657007304
 20
210.5693609215375
 30
0.0
  0
POINT
  5
3DE
  8
DEFPOINTS
  6
CONTINUOUS
 62
     0
 10
3519.144048589736
 20
310.0693609215372
 30
0.0
  0
POINT
  5
3DF
  8
DEFPOINTS
  6
CONTINUOUS
 62
     0
 10
3519.144048589736
 20
195.0734092923484
 30
0.0
  0
ENDBLK
  5
3E0
  8
0
 62
     5
  0
BLOCK
  8
0
  2
*D19
 70
     1
 10
0.0
 20
0.0
 30
0.0
  3
*D19
  1

  0
LINE
  5
3C6
  8
回07-寸法
  6
CONTINUOUS
 62
     5
 10
3519.144048589736
 20
310.0693609215374
 30
0.0
 11
3519.144048589736
 21
185.0786890642104
 31
0.0
  0
LINE
  5
3C7
  8
回07-寸法
  6
CONTINUOUS
 62
     5
 10
3657.546640617729
 20
210.5734092923484
 30
0.0
 11
3657.546640617729
 21
185.0786890642104
 31
0.0
  0
LINE
  5
3C8
  8
回07-寸法
  6
CONTINUOUS
 62
     5
 10
3520.644048589736
 20
186.0786890642104
 30
0.0
 11
3656.046640617729
 21
186.0786890642104
 31
0.0
  0
INSERT
  5
3C9
  8
回07-寸法
  6
CONTINUOUS
 62
     5
 66
     1
  2
_OPEN
 10
3519.144048589736
 20
186.0786890642104
 30
0.0
 41
1.5
 42
1.5
 43
1.5
 50
180.0
  0
SEQEND
  5
3CA
  8
0
  6
CONTINUOUS
 62
     5
  0
INSERT
  5
3CB
  8
回07-寸法
  6
CONTINUOUS
 62
     5
 66
     1
  2
_OPEN
 10
3657.546640617729
 20
186.0786890642104
 30
0.0
 41
1.5
 42
1.5
 43
1.5
  0
SEQEND
  5
3CC
  8
0
  6
CONTINUOUS
 62
     5
  0
TEXT
  5
3CD
  8
回07-寸法
  6
CONTINUOUS
 62
     5
 10
3582.645344603732
 20
186.7286890642104
 30
0.0
 40
3.0
  1
(138.4)
1001
ACAD
1000
MTEXTBEGIN
1070
    73
1070
     1
1070
    44
1040
1.0
1070
    74
1070
     0
1000
MTEXTEND
  0
POINT
  5
3CE
  8
DEFPOINTS
  6
CONTINUOUS
 62
     0
 10
3519.144048589736
 20
310.0693609215374
 30
0.0
  0
POINT
  5
3CF
  8
DEFPOINTS
  6
CONTINUOUS
 62
     0
 10
3657.546640617729
 20
210.5734092923484
 30
0.0
  0
POINT
  5
3D0
  8
DEFPOINTS
  6
CONTINUOUS
 62
     0
 10
3657.546640617729
 20
186.0786890642104
 30
0.0
  0
ENDBLK
  5
3D1
  8
0
 62
     5
  0
BLOCK
  8
0
  2
*D20
 70
     1
 10
0.0
 20
0.0
 30
0.0
  3
*D20
  1

  0
LINE
  5
3B7
  8
回07-寸法
  6
CONTINUOUS
 62
     5
 10
3773.794048589735
 20
507.6693609215374
 30
0.0
 11
3773.794048589735
 21
530.0693609215373
 31
0.0
  0
LINE
  5
3B8
  8
回07-寸法
  6
CONTINUOUS
 62
     5
 10
3527.794048589735
 20
507.6693609215376
 30
0.0
 11
3527.794048589735
 21
530.0693609215373
 31
0.0
  0
LINE
  5
3B9
  8
回07-寸法
  6
CONTINUOUS
 62
     5
 10
3772.294048589735
 20
529.0693609215373
 30
0.0
 11
3529.294048589735
 21
529.0693609215373
 31
0.0
  0
INSERT
  5
3BA
  8
回07-寸法
  6
CONTINUOUS
 62
     5
 66
     1
  2
_OPEN
 10
3773.794048589735
 20
529.0693609215373
 30
0.0
 41
1.5
 42
1.5
 43
1.5
  0
SEQEND
  5
3BB
  8
0
  6
CONTINUOUS
 62
     5
  0
INSERT
  5
3BC
  8
回07-寸法
  6
CONTINUOUS
 62
     5
 66
     1
  2
_OPEN
 10
3527.794048589735
 20
529.0693609215373
 30
0.0
 41
1.5
 42
1.5
 43
1.5
 50
180.0
  0
SEQEND
  5
3BD
  8
0
  6
CONTINUOUS
 62
     5
  0
TEXT
  5
3BE
  8
回07-寸法
  6
CONTINUOUS
 62
     5
 10
3635.344639140916
 20
529.7193609215372
 30
0.0
 40
3.0
  1
246(Active Area)
1001
ACAD
1000
MTEXTBEGIN
1070
    73
1070
     1
1070
    44
1040
1.0
1070
    74
1070
     0
1000
MTEXTEND
  0
POINT
  5
3BF
  8
DEFPOINTS
  6
CONTINUOUS
 62
     0
 10
3773.794048589735
 20
507.6693609215374
 30
0.0
  0
POINT
  5
3C0
  8
DEFPOINTS
  6
CONTINUOUS
 62
     0
 10
3527.794048589735
 20
507.6693609215376
 30
0.0
  0
POINT
  5
3C1
  8
DEFPOINTS
  6
CONTINUOUS
 62
     0
 10
3527.794048589735
 20
529.0693609215373
 30
0.0
  0
ENDBLK
  5
3C2
  8
0
 62
     5
  0
BLOCK
  8
0
  2
*D21
 70
     1
 10
0.0
 20
0.0
 30
0.0
  3
*D21
  1

  0
LINE
  5
3A8
  8
回07-寸法
  6
CONTINUOUS
 62
     5
 10
3525.644048589735
 20
510.0693609215372
 30
0.0
 11
3525.644048589735
 21
536.0693609215372
 31
0.0
  0
LINE
  5
3A9
  8
回07-寸法
  6
CONTINUOUS
 62
     5
 10
3775.944048589735
 20
510.0693609215361
 30
0.0
 11
3775.944048589735
 21
536.0693609215372
 31
0.0
  0
LINE
  5
3AA
  8
回07-寸法
  6
CONTINUOUS
 62
     5
 10
3527.144048589735
 20
535.0693609215372
 30
0.0
 11
3774.444048589736
 21
535.0693609215372
 31
0.0
  0
INSERT
  5
3AB
  8
回07-寸法
  6
CONTINUOUS
 62
     5
 66
     1
  2
_OPEN
 10
3525.644048589735
 20
535.0693609215372
 30
0.0
 41
1.5
 42
1.5
 43
1.5
 50
180.0
  0
SEQEND
  5
3AC
  8
0
  6
CONTINUOUS
 62
     5
  0
INSERT
  5
3AD
  8
回07-寸法
  6
CONTINUOUS
 62
     5
 66
     1
  2
_OPEN
 10
3775.944048589735
 20
535.0693609215372
 30
0.0
 41
1.5
 42
1.5
 43
1.5
  0
SEQEND
  5
3AE
  8
0
  6
CONTINUOUS
 62
     5
  0
TEXT
  5
3AF
  8
回07-寸法
  6
CONTINUOUS
 62
     5
 10
3632.944639140916
 20
536.3193609215374
 30
0.0
 40
3.0
  1
250.3(Viewing Area)
1001
ACAD
1000
MTEXTBEGIN
1070
    73
1070
     1
1070
    44
1040
1.0
1070
    74
1070
     0
1000
MTEXTEND
  0
POINT
  5
3B0
  8
DEFPOINTS
  6
CONTINUOUS
 62
     0
 10
3525.644048589735
 20
510.0693609215372
 30
0.0
  0
POINT
  5
3B1
  8
DEFPOINTS
  6
CONTINUOUS
 62
     0
 10
3775.944048589735
 20
510.0693609215361
 30
0.0
  0
POINT
  5
3B2
  8
DEFPOINTS
  6
CONTINUOUS
 62
     0
 10
3775.944048589735
 20
535.0693609215372
 30
0.0
  0
ENDBLK
  5
3B3
  8
0
 62
     5
  0
BLOCK
  8
0
  2
*D22
 70
     1
 10
0.0
 20
0.0
 30
0.0
  3
*D22
  1

  0
LINE
  5
399
  8
回07-寸法
  6
CONTINUOUS
 62
     5
 10
3782.444048589736
 20
517.0693609215373
 30
0.0
 11
3782.444048589736
 21
548.0693609215372
 31
0.0
  0
LINE
  5
39A
  8
回07-寸法
  6
CONTINUOUS
 62
     5
 10
3519.144048589736
 20
517.0693609215363
 30
0.0
 11
3519.144048589736
 21
548.0693609215372
 31
0.0
  0
LINE
  5
39B
  8
回07-寸法
  6
CONTINUOUS
 62
     5
 10
3780.944048589736
 20
547.0693609215373
 30
0.0
 11
3520.644048589736
 21
547.0693609215373
 31
0.0
  0
INSERT
  5
39C
  8
回07-寸法
  6
CONTINUOUS
 62
     5
 66
     1
  2
_OPEN
 10
3782.444048589736
 20
547.0693609215373
 30
0.0
 41
1.5
 42
1.5
 43
1.5
  0
SEQEND
  5
39D
  8
0
  6
CONTINUOUS
 62
     5
  0
INSERT
  5
39E
  8
回07-寸法
  6
CONTINUOUS
 62
     5
 66
     1
  2
_OPEN
 10
3519.144048589736
 20
547.0693609215373
 30
0.0
 41
1.5
 42
1.5
 43
1.5
 50
180.0
  0
SEQEND
  5
39F
  8
0
  6
CONTINUOUS
 62
     5
  0
INSERT
  5
3A0
  8
回07-寸法
  6
CONTINUOUS
 62
     5
 66
     1
  2
*X86
 10
0.0
 20
0.0
 30
0.0
  0
SEQEND
  5
813
  8
0
  6
CONTINUOUS
 62
     5
  0
POINT
  5
3A1
  8
DEFPOINTS
  6
CONTINUOUS
 62
     0
 10
3782.444048589736
 20
517.0693609215373
 30
0.0
  0
POINT
  5
3A2
  8
DEFPOINTS
  6
CONTINUOUS
 62
     0
 10
3519.144048589736
 20
517.0693609215363
 30
0.0
  0
POINT
  5
3A3
  8
DEFPOINTS
  6
CONTINUOUS
 62
     0
 10
3519.144048589736
 20
547.0693609215373
 30
0.0
  0
ENDBLK
  5
3A4
  8
0
 62
     5
  0
BLOCK
  8
0
  2
*D23
 70
     1
 10
0.0
 20
0.0
 30
0.0
  3
*D23
  1

  0
LINE
  5
388
  8
回07-寸法
  6
CONTINUOUS
 62
     5
 10
3527.794048599736
 20
507.6693609215376
 30
0.0
 11
3527.794048599736
 21
530.0693609198706
 31
0.0
  0
LINE
  5
389
  8
回07-寸法
  6
CONTINUOUS
 62
     5
 10
3519.144048589736
 20
517.0693609215363
 30
0.0
 11
3519.144048589736
 21
530.0693609198706
 31
0.0
  0
LINE
  5
38A
  8
回07-寸法
  6
CONTINUOUS
 62
     5
 10
3517.644048589736
 20
529.0693609198706
 30
0.0
 11
3506.390495199142
 21
529.0693609198706
 31
0.0
  0
LINE
  5
38B
  8
回07-寸法
  6
CONTINUOUS
 62
     5
 10
3527.794048599736
 20
529.0693609198706
 30
0.0
 11
3519.144048589736
 21
529.0693609198706
 31
0.0
  0
LINE
  5
38C
  8
回07-寸法
  6
CONTINUOUS
 62
     5
 10
3529.294048599736
 20
529.0693609198706
 30
0.0
 11
3530.794048599736
 21
529.0693609198706
 31
0.0
  0
INSERT
  5
38D
  8
回07-寸法
  6
CONTINUOUS
 62
     5
 66
     1
  2
_OPEN
 10
3527.794048599736
 20
529.0693609198706
 30
0.0
 41
1.5
 42
1.5
 43
1.5
 50
180.0
  0
SEQEND
  5
38E
  8
0
  6
CONTINUOUS
 62
     5
  0
INSERT
  5
38F
  8
回07-寸法
  6
CONTINUOUS
 62
     5
 66
     1
  2
_OPEN
 10
3519.144048589736
 20
529.0693609198706
 30
0.0
 41
1.5
 42
1.5
 43
1.5
  0
SEQEND
  5
390
  8
0
  6
CONTINUOUS
 62
     5
  0
TEXT
  5
391
  8
回07-寸法
  6
CONTINUOUS
 62
     5
 10
3506.440495199142
 20
529.5693609198706
 30
0.0
 40
3.0
  1
8.65
1001
ACAD
1000
MTEXTBEGIN
1070
    73
1070
     1
1070
    44
1040
1.0
1070
    74
1070
     0
1000
MTEXTEND
  0
POINT
  5
392
  8
DEFPOINTS
  6
CONTINUOUS
 62
     0
 10
3527.794048599736
 20
507.6693609215376
 30
0.0
  0
POINT
  5
393
  8
DEFPOINTS
  6
CONTINUOUS
 62
     0
 10
3519.144048589736
 20
517.0693609215363
 30
0.0
  0
POINT
  5
394
  8
DEFPOINTS
  6
CONTINUOUS
 62
     0
 10
3519.144048589736
 20
529.0693609198706
 30
0.0
  0
ENDBLK
  5
395
  8
0
 62
     5
  0
BLOCK
  8
0
  2
*D24
 70
     1
 10
0.0
 20
0.0
 30
0.0
  3
*D24
  1

  0
LINE
  5
377
  8
回07-寸法
  6
CONTINUOUS
 62
     5
 10
3525.644048589735
 20
510.0693609215372
 30
0.0
 11
3525.644048589735
 21
536.0693609215372
 31
0.0
  0
LINE
  5
378
  8
回07-寸法
  6
CONTINUOUS
 62
     5
 10
3519.144048589736
 20
517.0693609215363
 30
0.0
 11
3519.144048589736
 21
536.0693609215372
 31
0.0
  0
LINE
  5
379
  8
回07-寸法
  6
CONTINUOUS
 62
     5
 10
3517.644048589736
 20
535.0693609215372
 30
0.0
 11
3505.790888899929
 21
535.0693609215372
 31
0.0
  0
LINE
  5
37A
  8
回07-寸法
  6
CONTINUOUS
 62
     5
 10
3525.644048589735
 20
535.0693609215372
 30
0.0
 11
3519.144048589736
 21
535.0693609215372
 31
0.0
  0
LINE
  5
37B
  8
回07-寸法
  6
CONTINUOUS
 62
     5
 10
3527.144048589735
 20
535.0693609215372
 30
0.0
 11
3528.644048589735
 21
535.0693609215372
 31
0.0
  0
INSERT
  5
37C
  8
回07-寸法
  6
CONTINUOUS
 62
     5
 66
     1
  2
_OPEN
 10
3525.644048589735
 20
535.0693609215372
 30
0.0
 41
1.5
 42
1.5
 43
1.5
 50
180.0
  0
SEQEND
  5
37D
  8
0
  6
CONTINUOUS
 62
     5
  0
INSERT
  5
37E
  8
回07-寸法
  6
CONTINUOUS
 62
     5
 66
     1
  2
_OPEN
 10
3519.144048589736
 20
535.0693609215372
 30
0.0
 41
1.5
 42
1.5
 43
1.5
  0
SEQEND
  5
37F
  8
0
  6
CONTINUOUS
 62
     5
  0
TEXT
  5
380
  8
回07-寸法
  6
CONTINUOUS
 62
     5
 10
3505.84088889993
 20
535.5693609215372
 30
0.0
 40
3.0
  1
6.5
1001
ACAD
1000
MTEXTBEGIN
1070
    73
1070
     1
1070
    44
1040
1.0
1070
    74
1070
     0
1000
MTEXTEND
  0
POINT
  5
381
  8
DEFPOINTS
  6
CONTINUOUS
 62
     0
 10
3525.644048589735
 20
510.0693609215372
 30
0.0
  0
POINT
  5
382
  8
DEFPOINTS
  6
CONTINUOUS
 62
     0
 10
3519.144048589736
 20
517.0693609215363
 30
0.0
  0
POINT
  5
383
  8
DEFPOINTS
  6
CONTINUOUS
 62
     0
 10
3519.144048589736
 20
535.0693609215372
 30
0.0
  0
ENDBLK
  5
384
  8
0
 62
     5
  0
BLOCK
  8
0
  2
*D25
 70
     1
 10
0.0
 20
0.0
 30
0.0
  3
*D25
  1

  0
LINE
  5
366
  8
回07-寸法
  6
CONTINUOUS
 62
     5
 10
3525.144048589736
 20
510.5693609215372
 30
0.0
 11
3525.144048589736
 21
542.0693609215373
 31
0.0
  0
LINE
  5
367
  8
回07-寸法
  6
CONTINUOUS
 62
     5
 10
3519.144048589736
 20
517.0693609215373
 30
0.0
 11
3519.144048589736
 21
542.0693609215373
 31
0.0
  0
LINE
  5
368
  8
回07-寸法
  6
CONTINUOUS
 62
     5
 10
3517.644048589736
 20
541.0693609215372
 30
0.0
 11
3493.98886078068
 21
541.0693609215372
 31
0.0
  0
LINE
  5
369
  8
回07-寸法
  6
CONTINUOUS
 62
     5
 10
3525.144048589736
 20
541.0693609215372
 30
0.0
 11
3519.144048589736
 21
541.0693609215372
 31
0.0
  0
LINE
  5
36A
  8
回07-寸法
  6
CONTINUOUS
 62
     5
 10
3526.644048589736
 20
541.0693609215372
 30
0.0
 11
3528.144048589735
 21
541.0693609215372
 31
0.0
  0
INSERT
  5
36B
  8
回07-寸法
  6
CONTINUOUS
 62
     5
 66
     1
  2
_OPEN
 10
3525.144048589736
 20
541.0693609215372
 30
0.0
 41
1.5
 42
1.5
 43
1.5
 50
180.0
  0
SEQEND
  5
36C
  8
0
  6
CONTINUOUS
 62
     5
  0
INSERT
  5
36D
  8
回07-寸法
  6
CONTINUOUS
 62
     5
 66
     1
  2
_OPEN
 10
3519.144048589736
 20
541.0693609215372
 30
0.0
 41
1.5
 42
1.5
 43
1.5
  0
SEQEND
  5
36E
  8
0
  6
CONTINUOUS
 62
     5
  0
INSERT
  5
36F
  8
回07-寸法
  6
CONTINUOUS
 62
     5
 66
     1
  2
*X87
 10
0.0
 20
0.0
 30
0.0
  0
SEQEND
  5
819
  8
0
  6
CONTINUOUS
 62
     5
  0
POINT
  5
370
  8
DEFPOINTS
  6
CONTINUOUS
 62
     0
 10
3525.144048589736
 20
510.5693609215372
 30
0.0
  0
POINT
  5
371
  8
DEFPOINTS
  6
CONTINUOUS
 62
     0
 10
3519.144048589736
 20
517.0693609215373
 30
0.0
  0
POINT
  5
372
  8
DEFPOINTS
  6
CONTINUOUS
 62
     0
 10
3519.144048589736
 20
541.0693609215372
 30
0.0
  0
ENDBLK
  5
373
  8
0
 62
     5
  0
BLOCK
  8
0
  2
*D26
 70
     1
 10
0.0
 20
0.0
 30
0.0
  3
*D26
  1

  0
LINE
  5
357
  8
回07-寸法
  6
CONTINUOUS
 62
     5
 10
3776.444048589735
 20
510.5693609215372
 30
0.0
 11
3776.444048589735
 21
542.0693609215373
 31
0.0
  0
LINE
  5
358
  8
回07-寸法
  6
CONTINUOUS
 62
     5
 10
3525.144048589736
 20
510.5693609215372
 30
0.0
 11
3525.144048589736
 21
542.0693609215373
 31
0.0
  0
LINE
  5
359
  8
回07-寸法
  6
CONTINUOUS
 62
     5
 10
3774.944048589735
 20
541.0693609215372
 30
0.0
 11
3526.644048589736
 21
541.0693609215372
 31
0.0
  0
INSERT
  5
35A
  8
回07-寸法
  6
CONTINUOUS
 62
     5
 66
     1
  2
_OPEN
 10
3776.444048589735
 20
541.0693609215372
 30
0.0
 41
1.5
 42
1.5
 43
1.5
  0
SEQEND
  5
35B
  8
0
  6
CONTINUOUS
 62
     5
  0
INSERT
  5
35C
  8
回07-寸法
  6
CONTINUOUS
 62
     5
 66
     1
  2
_OPEN
 10
3525.144048589736
 20
541.0693609215372
 30
0.0
 41
1.5
 42
1.5
 43
1.5
 50
180.0
  0
SEQEND
  5
35D
  8
0
  6
CONTINUOUS
 62
     5
  0
TEXT
  5
35E
  8
回07-寸法
  6
CONTINUOUS
 62
     5
 10
3646.444048589736
 20
541.5693609215373
 30
0.0
 40
3.0
  1
251.3
1001
ACAD
1000
MTEXTBEGIN
1070
    73
1070
     1
1070
    44
1040
1.0
1070
    74
1070
     0
1000
MTEXTEND
  0
POINT
  5
35F
  8
DEFPOINTS
  6
CONTINUOUS
 62
     0
 10
3776.444048589735
 20
510.5693609215372
 30
0.0
  0
POINT
  5
360
  8
DEFPOINTS
  6
CONTINUOUS
 62
     0
 10
3525.144048589736
 20
510.5693609215372
 30
0.0
  0
POINT
  5
361
  8
DEFPOINTS
  6
CONTINUOUS
 62
     0
 10
3525.144048589736
 20
541.0693609215372
 30
0.0
  0
ENDBLK
  5
362
  8
0
 62
     5
  0
BLOCK
  8
0
  2
*D27
 70
     1
 10
0.0
 20
0.0
 30
0.0
  3
*D27
  1

  0
LINE
  5
33C
  8
回07-寸法
  6
CONTINUOUS
 62
     5
 10
3809.159326026993
 20
516.5693609215373
 30
0.0
 11
3809.159326026993
 21
522.6945202674415
 31
0.0
  0
LINE
  5
33D
  8
回07-寸法
  6
CONTINUOUS
 62
     5
 10
3830.052510245964
 20
517.0693609215373
 30
0.0
 11
3830.052510245964
 21
522.6945202674415
 31
0.0
  0
LINE
  5
33E
  8
回07-寸法
  6
CONTINUOUS
 62
     5
 10
3810.659326026993
 20
521.6945202674415
 30
0.0
 11
3828.552510245964
 21
521.6945202674415
 31
0.0
  0
INSERT
  5
33F
  8
回07-寸法
  6
CONTINUOUS
 62
     5
 66
     1
  2
_OPEN
 10
3809.159326026993
 20
521.6945202674415
 30
0.0
 41
1.5
 42
1.5
 43
1.5
 50
180.0
  0
SEQEND
  5
340
  8
0
  6
CONTINUOUS
 62
     5
  0
INSERT
  5
341
  8
回07-寸法
  6
CONTINUOUS
 62
     5
 66
     1
  2
_OPEN
 10
3830.052510245964
 20
521.6945202674415
 30
0.0
 41
1.5
 42
1.5
 43
1.5
  0
SEQEND
  5
342
  8
0
  6
CONTINUOUS
 62
     5
  0
INSERT
  5
343
  8
回07-寸法
  6
CONTINUOUS
 62
     5
 66
     1
  2
*X88
 10
0.0
 20
0.0
 30
0.0
  0
SEQEND
  5
81F
  8
0
  6
CONTINUOUS
 62
     5
  0
POINT
  5
344
  8
DEFPOINTS
  6
CONTINUOUS
 62
     0
 10
3809.159326026993
 20
516.5693609215373
 30
0.0
  0
POINT
  5
345
  8
DEFPOINTS
  6
CONTINUOUS
 62
     0
 10
3830.052510245964
 20
517.0693609215373
 30
0.0
  0
POINT
  5
346
  8
DEFPOINTS
  6
CONTINUOUS
 62
     0
 10
3830.052510245964
 20
521.6945202674415
 30
0.0
  0
ENDBLK
  5
347
  8
0
 62
     5
  0
BLOCK
  8
0
  2
*D28
 70
     1
 10
0.0
 20
0.0
 30
0.0
  3
*D28
  1

  0
LINE
  5
32D
  8
回08-記事
  6
CONTINUOUS
 62
     5
 10
3813.159326026993
 20
210.0734092923486
 30
0.0
 11
3804.197915858022
 21
210.0734092923486
 31
0.0
  0
LINE
  5
32E
  8
回08-記事
  6
CONTINUOUS
 62
     5
 10
3812.459326026993
 20
215.0734092923486
 30
0.0
 11
3804.197915858022
 21
215.0734092923486
 31
0.0
  0
LINE
  5
32F
  8
回08-記事
  6
CONTINUOUS
 62
     5
 10
3805.197915858022
 20
211.5734092923486
 30
0.0
 11
3805.197915858022
 21
213.5734092923486
 31
0.0
  0
INSERT
  5
330
  8
回08-記事
  6
CONTINUOUS
 62
     5
 66
     1
  2
_OPEN
 10
3805.197915858022
 20
210.0734092923486
 30
0.0
 41
1.5
 42
1.5
 43
1.5
 50
270.0
  0
SEQEND
  5
331
  8
0
  6
CONTINUOUS
 62
     5
  0
INSERT
  5
332
  8
回08-記事
  6
CONTINUOUS
 62
     5
 66
     1
  2
_OPEN
 10
3805.197915858022
 20
215.0734092923486
 30
0.0
 41
1.5
 42
1.5
 43
1.5
 50
90.0
  0
SEQEND
  5
333
  8
0
  6
CONTINUOUS
 62
     5
  0
TEXT
  5
334
  8
回08-記事
  6
CONTINUOUS
 62
     5
 10
3804.697915858021
 20
211.5234092923488
 30
0.0
 40
3.0
  1
5
 50
90.0
1001
ACAD
1000
MTEXTBEGIN
1070
    73
1070
     1
1070
    44
1040
1.0
1070
    74
1070
     0
1000
MTEXTEND
  0
POINT
  5
335
  8
DEFPOINTS
  6
CONTINUOUS
 62
     0
 10
3813.159326026993
 20
210.0734092923486
 30
0.0
  0
POINT
  5
336
  8
DEFPOINTS
  6
CONTINUOUS
 62
     0
 10
3812.459326026993
 20
215.0734092923486
 30
0.0
  0
POINT
  5
337
  8
DEFPOINTS
  6
CONTINUOUS
 62
     0
 10
3805.197915858022
 20
215.0734092923486
 30
0.0
  0
ENDBLK
  5
338
  8
0
 62
     5
  0
BLOCK
  8
0
  2
*D29
 70
     1
 10
0.0
 20
0.0
 30
0.0
  3
*D29
  1

  0
LINE
  5
31E
  8
回08-記事
  6
CONTINUOUS
 62
     5
 10
3823.052510245964
 20
210.0734092923486
 30
0.0
 11
3836.327095811883
 21
210.0734092923486
 31
0.0
  0
LINE
  5
31F
  8
回08-記事
  6
CONTINUOUS
 62
     5
 10
3823.752510245964
 20
215.0734092923486
 30
0.0
 11
3836.327095811883
 21
215.0734092923486
 31
0.0
  0
LINE
  5
320
  8
回08-記事
  6
CONTINUOUS
 62
     5
 10
3835.327095811883
 20
211.5734092923486
 30
0.0
 11
3835.327095811883
 21
213.5734092923486
 31
0.0
  0
INSERT
  5
321
  8
回08-記事
  6
CONTINUOUS
 62
     5
 66
     1
  2
_OPEN
 10
3835.327095811883
 20
210.0734092923486
 30
0.0
 41
1.5
 42
1.5
 43
1.5
 50
270.0
  0
SEQEND
  5
322
  8
0
  6
CONTINUOUS
 62
     5
  0
INSERT
  5
323
  8
回08-記事
  6
CONTINUOUS
 62
     5
 66
     1
  2
_OPEN
 10
3835.327095811883
 20
215.0734092923486
 30
0.0
 41
1.5
 42
1.5
 43
1.5
 50
90.0
  0
SEQEND
  5
324
  8
0
  6
CONTINUOUS
 62
     5
  0
TEXT
  5
325
  8
回08-記事
  6
CONTINUOUS
 62
     5
 10
3834.827095811883
 20
211.5234092923488
 30
0.0
 40
3.0
  1
5
 50
90.0
1001
ACAD
1000
MTEXTBEGIN
1070
    73
1070
     1
1070
    44
1040
1.0
1070
    74
1070
     0
1000
MTEXTEND
  0
POINT
  5
326
  8
DEFPOINTS
  6
CONTINUOUS
 62
     0
 10
3823.052510245964
 20
210.0734092923486
 30
0.0
  0
POINT
  5
327
  8
DEFPOINTS
  6
CONTINUOUS
 62
     0
 10
3823.752510245964
 20
215.0734092923486
 30
0.0
  0
POINT
  5
328
  8
DEFPOINTS
  6
CONTINUOUS
 62
     0
 10
3835.327095811883
 20
215.0734092923486
 30
0.0
  0
ENDBLK
  5
329
  8
0
 62
     5
  0
BLOCK
  8
0
  2
*D30
 70
     1
 10
0.0
 20
0.0
 30
0.0
  3
*D30
  1

  0
LINE
  5
30F
  8
回08-記事
  6
CONTINUOUS
 62
     5
 10
3815.659326026994
 20
220.0734092923486
 30
0.0
 11
3820.933858891356
 21
220.0734092923486
 31
0.0
  0
LINE
  5
310
  8
回08-記事
  6
CONTINUOUS
 62
     5
 10
3815.659326026994
 20
210.0734092923486
 30
0.0
 11
3820.933858891356
 21
210.0734092923486
 31
0.0
  0
LINE
  5
311
  8
回08-記事
  6
CONTINUOUS
 62
     5
 10
3819.933858891356
 20
218.5734092923486
 30
0.0
 11
3819.933858891356
 21
211.5734092923486
 31
0.0
  0
INSERT
  5
312
  8
回08-記事
  6
CONTINUOUS
 62
     5
 66
     1
  2
_OPEN
 10
3819.933858891356
 20
220.0734092923486
 30
0.0
 41
1.5
 42
1.5
 43
1.5
 50
90.0
  0
SEQEND
  5
313
  8
0
  6
CONTINUOUS
 62
     5
  0
INSERT
  5
314
  8
回08-記事
  6
CONTINUOUS
 62
     5
 66
     1
  2
_OPEN
 10
3819.933858891356
 20
210.0734092923486
 30
0.0
 41
1.5
 42
1.5
 43
1.5
 50
270.0
  0
SEQEND
  5
315
  8
0
  6
CONTINUOUS
 62
     5
  0
TEXT
  5
316
  8
回08-記事
  6
CONTINUOUS
 62
     5
 10
3819.333858391355
 20
213.0733992923483
 30
0.0
 40
2.00001
  1
(10)
 50
90.0
1001
ACAD
1000
MTEXTBEGIN
1070
    73
1070
     1
1070
    44
1040
1.0
1070
    74
1070
     0
1000
MTEXTEND
  0
POINT
  5
317
  8
DEFPOINTS
  6
CONTINUOUS
 62
     0
 10
3815.659326026994
 20
220.0734092923486
 30
0.0
  0
POINT
  5
318
  8
DEFPOINTS
  6
CONTINUOUS
 62
     0
 10
3815.659326026994
 20
210.0734092923486
 30
0.0
  0
POINT
  5
319
  8
DEFPOINTS
  6
CONTINUOUS
 62
     0
 10
3819.933858891356
 20
210.0734092923486
 30
0.0
  0
ENDBLK
  5
31A
  8
0
 62
     5
  0
BLOCK
  8
0
  2
*D31
 70
     1
 10
0.0
 20
0.0
 30
0.0
  3
*D31
  1

  0
LINE
  5
2FE
  8
回08-記事
  6
CONTINUOUS
 62
     5
 10
3815.659326026994
 20
210.0734092923486
 30
0.0
 11
3815.659326026994
 21
204.4232512415685
 31
0.0
  0
LINE
  5
2FF
  8
回08-記事
  6
CONTINUOUS
 62
     5
 10
3813.159326026993
 20
210.0734092923486
 30
0.0
 11
3813.159326026993
 21
204.4232512415685
 31
0.0
  0
LINE
  5
300
  8
回08-記事
  6
CONTINUOUS
 62
     5
 10
3811.659326026994
 20
205.4232512415684
 30
0.0
 11
3798.606668822269
 21
205.4232512415684
 31
0.0
  0
LINE
  5
301
  8
回08-記事
  6
CONTINUOUS
 62
     5
 10
3815.659326026994
 20
205.4232512415684
 30
0.0
 11
3813.159326026993
 21
205.4232512415684
 31
0.0
  0
LINE
  5
302
  8
回08-記事
  6
CONTINUOUS
 62
     5
 10
3817.159326026994
 20
205.4232512415684
 30
0.0
 11
3818.659326026994
 21
205.4232512415684
 31
0.0
  0
INSERT
  5
303
  8
回08-記事
  6
CONTINUOUS
 62
     5
 66
     1
  2
_OPEN
 10
3815.659326026994
 20
205.4232512415684
 30
0.0
 41
1.5
 42
1.5
 43
1.5
 50
180.0
  0
SEQEND
  5
304
  8
0
  6
CONTINUOUS
 62
     5
  0
INSERT
  5
305
  8
回08-記事
  6
CONTINUOUS
 62
     5
 66
     1
  2
_OPEN
 10
3813.159326026993
 20
205.4232512415684
 30
0.0
 41
1.5
 42
1.5
 43
1.5
  0
SEQEND
  5
306
  8
0
  6
CONTINUOUS
 62
     5
  0
INSERT
  5
307
  8
回08-記事
  6
CONTINUOUS
 62
     5
 66
     1
  2
*X89
 10
0.0
 20
0.0
 30
0.0
  0
SEQEND
  5
825
  8
0
  6
CONTINUOUS
 62
     5
  0
POINT
  5
308
  8
DEFPOINTS
  6
CONTINUOUS
 62
     0
 10
3815.659326026994
 20
210.0734092923486
 30
0.0
  0
POINT
  5
309
  8
DEFPOINTS
  6
CONTINUOUS
 62
     0
 10
3813.159326026993
 20
210.0734092923486
 30
0.0
  0
POINT
  5
30A
  8
DEFPOINTS
  6
CONTINUOUS
 62
     0
 10
3813.159326026993
 20
205.4232512415684
 30
0.0
  0
ENDBLK
  5
30B
  8
0
 62
     5
  0
BLOCK
  8
0
  2
*D32
 70
     1
 10
0.0
 20
0.0
 30
0.0
  3
*D32
  1

  0
LINE
  5
2ED
  8
回08-記事
  6
CONTINUOUS
 62
     5
 10
3820.552510245964
 20
210.0734092923486
 30
0.0
 11
3820.552510245964
 21
201.625501711501
 31
0.0
  0
LINE
  5
2EE
  8
回08-記事
  6
CONTINUOUS
 62
     5
 10
3823.052510245964
 20
210.0734092923486
 30
0.0
 11
3823.052510245964
 21
201.625501711501
 31
0.0
  0
LINE
  5
2EF
  8
回08-記事
  6
CONTINUOUS
 62
     5
 10
3824.552510245964
 20
202.625501711501
 30
0.0
 11
3837.605167450688
 21
202.625501711501
 31
0.0
  0
LINE
  5
2F0
  8
回08-記事
  6
CONTINUOUS
 62
     5
 10
3820.552510245964
 20
202.625501711501
 30
0.0
 11
3823.052510245964
 21
202.625501711501
 31
0.0
  0
LINE
  5
2F1
  8
回08-記事
  6
CONTINUOUS
 62
     5
 10
3819.052510245964
 20
202.625501711501
 30
0.0
 11
3817.552510245964
 21
202.625501711501
 31
0.0
  0
INSERT
  5
2F2
  8
回08-記事
  6
CONTINUOUS
 62
     5
 66
     1
  2
_OPEN
 10
3820.552510245964
 20
202.625501711501
 30
0.0
 41
1.5
 42
1.5
 43
1.5
  0
SEQEND
  5
2F3
  8
0
  6
CONTINUOUS
 62
     5
  0
INSERT
  5
2F4
  8
回08-記事
  6
CONTINUOUS
 62
     5
 66
     1
  2
_OPEN
 10
3823.052510245964
 20
202.625501711501
 30
0.0
 41
1.5
 42
1.5
 43
1.5
 50
180.0
  0
SEQEND
  5
2F5
  8
0
  6
CONTINUOUS
 62
     5
  0
INSERT
  5
2F6
  8
回08-記事
  6
CONTINUOUS
 62
     5
 66
     1
  2
*X90
 10
0.0
 20
0.0
 30
0.0
  0
SEQEND
  5
82B
  8
0
  6
CONTINUOUS
 62
     5
  0
POINT
  5
2F7
  8
DEFPOINTS
  6
CONTINUOUS
 62
     0
 10
3820.552510245964
 20
210.0734092923486
 30
0.0
  0
POINT
  5
2F8
  8
DEFPOINTS
  6
CONTINUOUS
 62
     0
 10
3823.052510245964
 20
210.0734092923486
 30
0.0
  0
POINT
  5
2F9
  8
DEFPOINTS
  6
CONTINUOUS
 62
     0
 10
3823.052510245964
 20
202.625501711501
 30
0.0
  0
ENDBLK
  5
2FA
  8
0
 62
     5
  0
BLOCK
  8
0
  2
*D33
 70
     1
 10
0.0
 20
0.0
 30
0.0
  3
*D33
  1

  0
LINE
  5
13F
  8
回07-寸法
  6
CONTINUOUS
 62
     5
 10
3527.794048599736
 20
507.6693609215372
 30
0.0
 11
3502.144048589736
 21
507.6693609215372
 31
0.0
  0
LINE
  5
140
  8
回07-寸法
  6
CONTINUOUS
 62
     5
 10
3519.144048589736
 20
517.0693609215373
 30
0.0
 11
3502.144048589736
 21
517.0693609215373
 31
0.0
  0
LINE
  5
141
  8
回07-寸法
  6
CONTINUOUS
 62
     5
 10
3503.144048589736
 20
518.5693609215372
 30
0.0
 11
3503.144048589736
 21
530.2803626942646
 31
0.0
  0
LINE
  5
142
  8
回07-寸法
  6
CONTINUOUS
 62
     5
 10
3503.144048589736
 20
507.6693609215372
 30
0.0
 11
3503.144048589736
 21
517.0693609215373
 31
0.0
  0
LINE
  5
143
  8
回07-寸法
  6
CONTINUOUS
 62
     5
 10
3503.144048589736
 20
506.1693609215373
 30
0.0
 11
3503.144048589736
 21
504.6693609215373
 31
0.0
  0
INSERT
  5
144
  8
回07-寸法
  6
CONTINUOUS
 62
     5
 66
     1
  2
_OPEN
 10
3503.144048589736
 20
507.6693609215372
 30
0.0
 41
1.5
 42
1.5
 43
1.5
 50
90.0
  0
SEQEND
  5
145
  8
0
  6
CONTINUOUS
 62
     5
  0
INSERT
  5
146
  8
回07-寸法
  6
CONTINUOUS
 62
     5
 66
     1
  2
_OPEN
 10
3503.144048589736
 20
517.0693609215373
 30
0.0
 41
1.5
 42
1.5
 43
1.5
 50
270.0
  0
SEQEND
  5
147
  8
0
  6
CONTINUOUS
 62
     5
  0
TEXT
  5
148
  8
回07-寸法
  6
CONTINUOUS
 62
     5
 10
3502.494048589735
 20
522.4207126910455
 30
0.0
 40
3.0
  1
(9.4)
 50
90.0
1001
ACAD
1000
MTEXTBEGIN
1070
    73
1070
     1
1070
    44
1040
1.0
1070
    74
1070
     0
1000
MTEXTEND
  0
POINT
  5
149
  8
DEFPOINTS
  6
CONTINUOUS
 62
     0
 10
3527.794048599736
 20
507.6693609215372
 30
0.0
  0
POINT
  5
14A
  8
DEFPOINTS
  6
CONTINUOUS
 62
     0
 10
3519.144048589736
 20
517.0693609215373
 30
0.0
  0
POINT
  5
14B
  8
DEFPOINTS
  6
CONTINUOUS
 62
     0
 10
3503.144048589736
 20
517.0693609215373
 30
0.0
  0
ENDBLK
  5
14C
  8
0
 62
     5
  0
BLOCK
  8
0
  2
*D34
 70
     1
 10
0.0
 20
0.0
 30
0.0
  3
*D34
  1

  0
LINE
  5
12E
  8
回07-寸法
  6
CONTINUOUS
 62
     5
 10
3525.644048589735
 20
510.0693609215375
 30
0.0
 11
3494.144048589736
 21
510.0693609215375
 31
0.0
  0
LINE
  5
12F
  8
回07-寸法
  6
CONTINUOUS
 62
     5
 10
3519.144048589736
 20
517.0693609215373
 30
0.0
 11
3494.144048589736
 21
517.0693609215373
 31
0.0
  0
LINE
  5
130
  8
回07-寸法
  6
CONTINUOUS
 62
     5
 10
3495.144048589736
 20
518.5693609215372
 30
0.0
 11
3495.144048589736
 21
525.8662113152378
 31
0.0
  0
LINE
  5
131
  8
回07-寸法
  6
CONTINUOUS
 62
     5
 10
3495.144048589736
 20
510.0693609215375
 30
0.0
 11
3495.144048589736
 21
517.0693609215373
 31
0.0
  0
LINE
  5
132
  8
回07-寸法
  6
CONTINUOUS
 62
     5
 10
3495.144048589736
 20
508.5693609215375
 30
0.0
 11
3495.144048589736
 21
507.0693609215375
 31
0.0
  0
INSERT
  5
133
  8
回07-寸法
  6
CONTINUOUS
 62
     5
 66
     1
  2
_OPEN
 10
3495.144048589736
 20
510.0693609215375
 30
0.0
 41
1.5
 42
1.5
 43
1.5
 50
90.0
  0
SEQEND
  5
134
  8
0
  6
CONTINUOUS
 62
     5
  0
INSERT
  5
135
  8
回07-寸法
  6
CONTINUOUS
 62
     5
 66
     1
  2
_OPEN
 10
3495.144048589736
 20
517.0693609215373
 30
0.0
 41
1.5
 42
1.5
 43
1.5
 50
270.0
  0
SEQEND
  5
136
  8
0
  6
CONTINUOUS
 62
     5
  0
TEXT
  5
137
  8
回07-寸法
  6
CONTINUOUS
 62
     5
 10
3494.494048589736
 20
521.3173924175999
 30
0.0
 40
3.0
  1
(7)
 50
90.0
1001
ACAD
1000
MTEXTBEGIN
1070
    73
1070
     1
1070
    44
1040
1.0
1070
    74
1070
     0
1000
MTEXTEND
  0
POINT
  5
138
  8
DEFPOINTS
  6
CONTINUOUS
 62
     0
 10
3525.644048589735
 20
510.0693609215375
 30
0.0
  0
POINT
  5
139
  8
DEFPOINTS
  6
CONTINUOUS
 62
     0
 10
3519.144048589736
 20
517.0693609215373
 30
0.0
  0
POINT
  5
13A
  8
DEFPOINTS
  6
CONTINUOUS
 62
     0
 10
3495.144048589736
 20
517.0693609215373
 30
0.0
  0
ENDBLK
  5
13B
  8
0
 62
     5
  0
BLOCK
  8
0
  2
*D35
 70
     1
 10
0.0
 20
0.0
 30
0.0
  3
*D35
  1

  0
LINE
  5
11D
  8
回07-寸法
  6
CONTINUOUS
 62
     5
 10
3525.144048589736
 20
510.5693609215375
 30
0.0
 11
3486.144048589737
 21
510.5693609215375
 31
0.0
  0
LINE
  5
11E
  8
回07-寸法
  6
CONTINUOUS
 62
     5
 10
3519.144048589736
 20
517.0693609215373
 30
0.0
 11
3486.144048589737
 21
517.0693609215373
 31
0.0
  0
LINE
  5
11F
  8
回07-寸法
  6
CONTINUOUS
 62
     5
 10
3487.144048589737
 20
518.5693609215372
 30
0.0
 11
3487.144048589737
 21
547.6224899386629
 31
0.0
  0
LINE
  5
120
  8
回07-寸法
  6
CONTINUOUS
 62
     5
 10
3487.144048589737
 20
510.5693609215375
 30
0.0
 11
3487.144048589737
 21
517.0693609215373
 31
0.0
  0
LINE
  5
121
  8
回07-寸法
  6
CONTINUOUS
 62
     5
 10
3487.144048589737
 20
509.0693609215374
 30
0.0
 11
3487.144048589737
 21
507.5693609215375
 31
0.0
  0
INSERT
  5
122
  8
回07-寸法
  6
CONTINUOUS
 62
     5
 66
     1
  2
_OPEN
 10
3487.144048589737
 20
510.5693609215375
 30
0.0
 41
1.5
 42
1.5
 43
1.5
 50
90.0
  0
SEQEND
  5
123
  8
0
  6
CONTINUOUS
 62
     5
  0
INSERT
  5
124
  8
回07-寸法
  6
CONTINUOUS
 62
     5
 66
     1
  2
_OPEN
 10
3487.144048589737
 20
517.0693609215373
 30
0.0
 41
1.5
 42
1.5
 43
1.5
 50
270.0
  0
SEQEND
  5
125
  8
0
  6
CONTINUOUS
 62
     5
  0
INSERT
  5
126
  8
回07-寸法
  6
CONTINUOUS
 62
     5
 66
     1
  2
*X91
 10
0.0
 20
0.0
 30
0.0
  0
SEQEND
  5
831
  8
0
  6
CONTINUOUS
 62
     5
  0
POINT
  5
127
  8
DEFPOINTS
  6
CONTINUOUS
 62
     0
 10
3525.144048589736
 20
510.5693609215375
 30
0.0
  0
POINT
  5
128
  8
DEFPOINTS
  6
CONTINUOUS
 62
     0
 10
3519.144048589736
 20
517.0693609215373
 30
0.0
  0
POINT
  5
129
  8
DEFPOINTS
  6
CONTINUOUS
 62
     0
 10
3487.144048589737
 20
517.0693609215373
 30
0.0
  0
ENDBLK
  5
12A
  8
0
 62
     5
  0
BLOCK
  8
0
  2
*D36
 70
     1
 10
0.0
 20
0.0
 30
0.0
  3
*D36
  1

  0
LINE
  5
10C
  8
回07-寸法
  6
CONTINUOUS
 62
     5
 10
3775.944048589735
 20
510.0693609215372
 30
0.0
 11
3775.944048589735
 21
536.0693609215372
 31
0.0
  0
LINE
  5
10D
  8
回07-寸法
  6
CONTINUOUS
 62
     5
 10
3782.444048589736
 20
517.0693609215373
 30
0.0
 11
3782.444048589736
 21
536.0693609215372
 31
0.0
  0
LINE
  5
10E
  8
回07-寸法
  6
CONTINUOUS
 62
     5
 10
3783.944048589736
 20
535.0693609215372
 30
0.0
 11
3793.041686385012
 21
535.0693609215372
 31
0.0
  0
LINE
  5
10F
  8
回07-寸法
  6
CONTINUOUS
 62
     5
 10
3775.944048589735
 20
535.0693609215372
 30
0.0
 11
3782.444048589736
 21
535.0693609215372
 31
0.0
  0
LINE
  5
110
  8
回07-寸法
  6
CONTINUOUS
 62
     5
 10
3774.444048589736
 20
535.0693609215372
 30
0.0
 11
3772.944048589736
 21
535.0693609215372
 31
0.0
  0
INSERT
  5
111
  8
回07-寸法
  6
CONTINUOUS
 62
     5
 66
     1
  2
_OPEN
 10
3775.944048589735
 20
535.0693609215372
 30
0.0
 41
1.5
 42
1.5
 43
1.5
  0
SEQEND
  5
112
  8
0
  6
CONTINUOUS
 62
     5
  0
INSERT
  5
113
  8
回07-寸法
  6
CONTINUOUS
 62
     5
 66
     1
  2
_OPEN
 10
3782.444048589736
 20
535.0693609215372
 30
0.0
 41
1.5
 42
1.5
 43
1.5
 50
180.0
  0
SEQEND
  5
114
  8
0
  6
CONTINUOUS
 62
     5
  0
TEXT
  5
115
  8
回07-寸法
  6
CONTINUOUS
 62
     5
 10
3785.492867487374
 20
535.7193609215372
 30
0.0
 40
3.0
  1
(6.5)
1001
ACAD
1000
MTEXTBEGIN
1070
    73
1070
     1
1070
    44
1040
1.0
1070
    74
1070
     0
1000
MTEXTEND
  0
POINT
  5
116
  8
DEFPOINTS
  6
CONTINUOUS
 62
     0
 10
3775.944048589735
 20
510.0693609215372
 30
0.0
  0
POINT
  5
117
  8
DEFPOINTS
  6
CONTINUOUS
 62
     0
 10
3782.444048589736
 20
517.0693609215373
 30
0.0
  0
POINT
  5
118
  8
DEFPOINTS
  6
CONTINUOUS
 62
     0
 10
3782.444048589736
 20
535.0693609215372
 30
0.0
  0
ENDBLK
  5
119
  8
0
 62
     5
  0
BLOCK
  8
0
  2
*D37
 70
     1
 10
0.0
 20
0.0
 30
0.0
  3
*D37
  1

  0
LINE
  5
FB
  8
回07-寸法
  6
CONTINUOUS
 62
     5
 10
3773.794048589735
 20
507.6693609215372
 30
0.0
 11
3773.794048589735
 21
530.0693609215373
 31
0.0
  0
LINE
  5
FC
  8
回07-寸法
  6
CONTINUOUS
 62
     5
 10
3782.444048589736
 20
517.0693609215373
 30
0.0
 11
3782.444048589736
 21
530.0693609215373
 31
0.0
  0
LINE
  5
FD
  8
回07-寸法
  6
CONTINUOUS
 62
     5
 10
3783.944048589736
 20
529.0693609215373
 30
0.0
 11
3798.290898983437
 21
529.0693609215373
 31
0.0
  0
LINE
  5
FE
  8
回07-寸法
  6
CONTINUOUS
 62
     5
 10
3773.794048589735
 20
529.0693609215373
 30
0.0
 11
3782.444048589736
 21
529.0693609215373
 31
0.0
  0
LINE
  5
FF
  8
回07-寸法
  6
CONTINUOUS
 62
     5
 10
3772.294048589735
 20
529.0693609215373
 30
0.0
 11
3770.794048589735
 21
529.0693609215373
 31
0.0
  0
INSERT
  5
100
  8
回07-寸法
  6
CONTINUOUS
 62
     5
 66
     1
  2
_OPEN
 10
3773.794048589735
 20
529.0693609215373
 30
0.0
 41
1.5
 42
1.5
 43
1.5
  0
SEQEND
  5
101
  8
0
  6
CONTINUOUS
 62
     5
  0
INSERT
  5
102
  8
回07-寸法
  6
CONTINUOUS
 62
     5
 66
     1
  2
_OPEN
 10
3782.444048589736
 20
529.0693609215373
 30
0.0
 41
1.5
 42
1.5
 43
1.5
 50
180.0
  0
SEQEND
  5
103
  8
0
  6
CONTINUOUS
 62
     5
  0
TEXT
  5
104
  8
回07-寸法
  6
CONTINUOUS
 62
     5
 10
3788.642080085799
 20
529.7193609215372
 30
0.0
 40
3.0
  1
(8.65)
1001
ACAD
1000
MTEXTBEGIN
1070
    73
1070
     1
1070
    44
1040
1.0
1070
    74
1070
     0
1000
MTEXTEND
  0
POINT
  5
105
  8
DEFPOINTS
  6
CONTINUOUS
 62
     0
 10
3773.794048589735
 20
507.6693609215372
 30
0.0
  0
POINT
  5
106
  8
DEFPOINTS
  6
CONTINUOUS
 62
     0
 10
3782.444048589736
 20
517.0693609215373
 30
0.0
  0
POINT
  5
107
  8
DEFPOINTS
  6
CONTINUOUS
 62
     0
 10
3782.444048589736
 20
529.0693609215373
 30
0.0
  0
ENDBLK
  5
108
  8
0
 62
     5
  0
BLOCK
  8
0
  2
*D38
 70
     1
 10
0.0
 20
0.0
 30
0.0
  3
*D38
  1

  0
LINE
  5
E9
  8
回07-寸法
  6
CONTINUOUS
 62
     5
 10
3776.444048589735
 20
510.5693609215372
 30
0.0
 11
3776.444048589735
 21
542.0693609215373
 31
0.0
  0
LINE
  5
EA
  8
回07-寸法
  6
CONTINUOUS
 62
     5
 10
3782.444048589736
 20
517.0693609215373
 30
0.0
 11
3782.444048589736
 21
542.0693609215373
 31
0.0
  0
LINE
  5
EB
  8
回07-寸法
  6
CONTINUOUS
 62
     5
 10
3783.944048589736
 20
541.0693609215372
 30
0.0
 11
3809.998055296428
 21
541.0693609215372
 31
0.0
  0
LINE
  5
EC
  8
回07-寸法
  6
CONTINUOUS
 62
     5
 10
3776.444048589735
 20
541.0693609215372
 30
0.0
 11
3782.444048589736
 21
541.0693609215372
 31
0.0
  0
LINE
  5
ED
  8
回07-寸法
  6
CONTINUOUS
 62
     5
 10
3774.944048589735
 20
541.0693609215372
 30
0.0
 11
3773.444048589735
 21
541.0693609215372
 31
0.0
  0
INSERT
  5
EE
  8
回07-寸法
  6
CONTINUOUS
 62
     5
 66
     1
  2
_OPEN
 10
3776.444048589735
 20
541.0693609215372
 30
0.0
 41
1.5
 42
1.5
 43
1.5
  0
SEQEND
  5
EF
  8
0
  6
CONTINUOUS
 62
     5
  0
INSERT
  5
F0
  8
回07-寸法
  6
CONTINUOUS
 62
     5
 66
     1
  2
_OPEN
 10
3782.444048589736
 20
541.0693609215372
 30
0.0
 41
1.5
 42
1.5
 43
1.5
 50
180.0
  0
SEQEND
  5
F1
  8
0
  6
CONTINUOUS
 62
     5
  0
INSERT
  5
F2
  8
回07-寸法
  6
CONTINUOUS
 62
     5
 66
     1
  2
*X92
 10
0.0
 20
0.0
 30
0.0
  0
SEQEND
  5
837
  8
0
  6
CONTINUOUS
 62
     5
  0
POINT
  5
F3
  8
DEFPOINTS
  6
CONTINUOUS
 62
     0
 10
3776.444048589735
 20
510.5693609215372
 30
0.0
  0
POINT
  5
F5
  8
DEFPOINTS
  6
CONTINUOUS
 62
     0
 10
3782.444048589736
 20
517.0693609215373
 30
0.0
  0
POINT
  5
F6
  8
DEFPOINTS
  6
CONTINUOUS
 62
     0
 10
3782.444048589736
 20
541.0693609215372
 30
0.0
  0
ENDBLK
  5
F7
  8
0
 62
     5
  0
BLOCK
  8
0
  2
*D39
 70
     1
 10
0.0
 20
0.0
 30
0.0
  3
*D39
  1

  0
LINE
  5
4E7
  8
回07-寸法
  6
CONTINUOUS
 62
     5
 10
3766.717187663474
 20
441.4180515526442
 30
0.0
 11
3766.717187663474
 21
472.9180515526443
 31
0.0
  0
LINE
  5
4E9
  8
回07-寸法
  6
CONTINUOUS
 62
     5
 10
3772.717187663474
 20
447.9180515526443
 30
0.0
 11
3772.717187663474
 21
472.9180515526443
 31
0.0
  0
LINE
  5
4EA
  8
回07-寸法
  6
CONTINUOUS
 62
     5
 10
3774.217187663474
 20
471.9180515526442
 30
0.0
 11
3800.271194370167
 21
471.9180515526442
 31
0.0
  0
LINE
  5
4EB
  8
回07-寸法
  6
CONTINUOUS
 62
     5
 10
3766.717187663474
 20
471.9180515526442
 30
0.0
 11
3772.717187663474
 21
471.9180515526442
 31
0.0
  0
LINE
  5
4EC
  8
回07-寸法
  6
CONTINUOUS
 62
     5
 10
3765.217187663474
 20
471.9180515526442
 30
0.0
 11
3763.717187663474
 21
471.9180515526442
 31
0.0
  0
INSERT
  5
4ED
  8
回07-寸法
  6
CONTINUOUS
 62
     5
  2
_OPEN
 10
3766.717187663474
 20
471.9180515526442
 30
0.0
 41
1.5
 42
1.5
 43
1.5
  0
INSERT
  5
4EE
  8
回07-寸法
  6
CONTINUOUS
 62
     5
  2
_OPEN
 10
3772.717187663474
 20
471.9180515526442
 30
0.0
 41
1.5
 42
1.5
 43
1.5
 50
180.0
  0
INSERT
  5
4EF
  8
回07-寸法
  6
CONTINUOUS
 62
     5
 66
     1
  2
*X93
 10
0.0
 20
0.0
 30
0.0
  0
SEQEND
  5
83D
  8
0
  6
CONTINUOUS
 62
     5
  0
POINT
  5
4F0
  8
DEFPOINTS
  6
CONTINUOUS
 62
     0
 10
3766.717187663474
 20
441.4180515526442
 30
0.0
  0
POINT
  5
4F1
  8
DEFPOINTS
  6
CONTINUOUS
 62
     0
 10
3772.717187663474
 20
447.9180515526443
 30
0.0
  0
POINT
  5
4F2
  8
DEFPOINTS
  6
CONTINUOUS
 62
     0
 10
3772.717187663474
 20
471.9180515526442
 30
0.0
  0
ENDBLK
  5
4F4
  8
0
  6
CONTINUOUS
 62
     5
  0
BLOCK
  8
0
  2
*D40
 70
     1
 10
0.0
 20
0.0
 30
0.0
  3
*D40
  1

  0
LINE
  5
4F6
  8
回07-寸法
  6
CONTINUOUS
 62
     5
 10
3764.067187663474
 20
438.5180515526442
 30
0.0
 11
3764.067187663474
 21
460.9180515526443
 31
0.0
  0
LINE
  5
4F8
  8
回07-寸法
  6
CONTINUOUS
 62
     5
 10
3772.717187663474
 20
447.9180515526443
 30
0.0
 11
3772.717187663474
 21
460.9180515526443
 31
0.0
  0
LINE
  5
4F9
  8
回07-寸法
  6
CONTINUOUS
 62
     5
 10
3774.217187663474
 20
459.9180515526442
 30
0.0
 11
3788.564038057175
 21
459.9180515526442
 31
0.0
  0
LINE
  5
4FA
  8
回07-寸法
  6
CONTINUOUS
 62
     5
 10
3764.067187663474
 20
459.9180515526442
 30
0.0
 11
3772.717187663474
 21
459.9180515526442
 31
0.0
  0
LINE
  5
4FB
  8
回07-寸法
  6
CONTINUOUS
 62
     5
 10
3762.567187663474
 20
459.9180515526442
 30
0.0
 11
3761.067187663474
 21
459.9180515526442
 31
0.0
  0
INSERT
  5
4FC
  8
回07-寸法
  6
CONTINUOUS
 62
     5
  2
_OPEN
 10
3764.067187663474
 20
459.9180515526442
 30
0.0
 41
1.5
 42
1.5
 43
1.5
  0
INSERT
  5
4FD
  8
回07-寸法
  6
CONTINUOUS
 62
     5
  2
_OPEN
 10
3772.717187663474
 20
459.9180515526442
 30
0.0
 41
1.5
 42
1.5
 43
1.5
 50
180.0
  0
TEXT
  5
4FE
  8
回07-寸法
  6
CONTINUOUS
 62
     5
 10
3778.915219159537
 20
460.5680515526442
 30
0.0
 40
3.0
  1
(8.65)
  0
POINT
  5
4FF
  8
DEFPOINTS
  6
CONTINUOUS
 62
     0
 10
3764.067187663474
 20
438.5180515526442
 30
0.0
  0
POINT
  5
500
  8
DEFPOINTS
  6
CONTINUOUS
 62
     0
 10
3772.717187663474
 20
447.9180515526443
 30
0.0
  0
POINT
  5
501
  8
DEFPOINTS
  6
CONTINUOUS
 62
     0
 10
3772.717187663474
 20
459.9180515526442
 30
0.0
  0
ENDBLK
  5
503
  8
0
  6
CONTINUOUS
 62
     5
  0
BLOCK
  8
0
  2
*D41
 70
     1
 10
0.0
 20
0.0
 30
0.0
  3
*D41
  1

  0
LINE
  5
505
  8
回07-寸法
  6
CONTINUOUS
 62
     5
 10
3766.217187663474
 20
440.9180515526442
 30
0.0
 11
3766.217187663474
 21
466.9180515526442
 31
0.0
  0
LINE
  5
506
  8
回07-寸法
  6
CONTINUOUS
 62
     5
 10
3772.717187663474
 20
447.9180515526443
 30
0.0
 11
3772.717187663474
 21
466.9180515526442
 31
0.0
  0
LINE
  5
507
  8
回07-寸法
  6
CONTINUOUS
 62
     5
 10
3774.217187663474
 20
465.9180515526442
 30
0.0
 11
3783.31482545875
 21
465.9180515526442
 31
0.0
  0
LINE
  5
508
  8
回07-寸法
  6
CONTINUOUS
 62
     5
 10
3766.217187663474
 20
465.9180515526442
 30
0.0
 11
3772.717187663474
 21
465.9180515526442
 31
0.0
  0
LINE
  5
509
  8
回07-寸法
  6
CONTINUOUS
 62
     5
 10
3764.717187663474
 20
465.9180515526442
 30
0.0
 11
3763.217187663474
 21
465.9180515526442
 31
0.0
  0
INSERT
  5
50A
  8
回07-寸法
  6
CONTINUOUS
 62
     5
  2
_OPEN
 10
3766.217187663474
 20
465.9180515526442
 30
0.0
 41
1.5
 42
1.5
 43
1.5
  0
INSERT
  5
50B
  8
回07-寸法
  6
CONTINUOUS
 62
     5
  2
_OPEN
 10
3772.717187663474
 20
465.9180515526442
 30
0.0
 41
1.5
 42
1.5
 43
1.5
 50
180.0
  0
TEXT
  5
50C
  8
回07-寸法
  6
CONTINUOUS
 62
     5
 10
3775.766006561112
 20
466.5680515526442
 30
0.0
 40
3.0
  1
(6.5)
  0
POINT
  5
50D
  8
DEFPOINTS
  6
CONTINUOUS
 62
     0
 10
3766.217187663474
 20
440.9180515526442
 30
0.0
  0
POINT
  5
50E
  8
DEFPOINTS
  6
CONTINUOUS
 62
     0
 10
3772.717187663474
 20
447.9180515526443
 30
0.0
  0
POINT
  5
50F
  8
DEFPOINTS
  6
CONTINUOUS
 62
     0
 10
3772.717187663474
 20
465.9180515526442
 30
0.0
  0
ENDBLK
  5
511
  8
0
  6
CONTINUOUS
 62
     5
  0
BLOCK
  8
0
  2
*D42
 70
     1
 10
0.0
 20
0.0
 30
0.0
  3
*D42
  1

  0
LINE
  5
513
  8
回07-寸法
  6
CONTINUOUS
 62
     5
 10
3515.417187663473
 20
441.4180515526445
 30
0.0
 11
3476.417187663475
 21
441.4180515526445
 31
0.0
  0
LINE
  5
514
  8
回07-寸法
  6
CONTINUOUS
 62
     5
 10
3509.417187663474
 20
447.9180515526443
 30
0.0
 11
3476.417187663475
 21
447.9180515526443
 31
0.0
  0
LINE
  5
515
  8
回07-寸法
  6
CONTINUOUS
 62
     5
 10
3477.417187663475
 20
449.4180515526442
 30
0.0
 11
3477.417187663475
 21
478.4711805697699
 31
0.0
  0
LINE
  5
516
  8
回07-寸法
  6
CONTINUOUS
 62
     5
 10
3477.417187663475
 20
441.4180515526445
 30
0.0
 11
3477.417187663475
 21
447.9180515526443
 31
0.0
  0
LINE
  5
517
  8
回07-寸法
  6
CONTINUOUS
 62
     5
 10
3477.417187663475
 20
439.9180515526444
 30
0.0
 11
3477.417187663475
 21
438.4180515526445
 31
0.0
  0
INSERT
  5
518
  8
回07-寸法
  6
CONTINUOUS
 62
     5
  2
_OPEN
 10
3477.417187663475
 20
441.4180515526445
 30
0.0
 41
1.5
 42
1.5
 43
1.5
 50
90.0
  0
INSERT
  5
519
  8
回07-寸法
  6
CONTINUOUS
 62
     5
  2
_OPEN
 10
3477.417187663475
 20
447.9180515526443
 30
0.0
 41
1.5
 42
1.5
 43
1.5
 50
270.0
  0
INSERT
  5
51A
  8
回07-寸法
  6
CONTINUOUS
 62
     5
 66
     1
  2
*X94
 10
0.0
 20
0.0
 30
0.0
  0
SEQEND
  5
843
  8
0
  6
CONTINUOUS
 62
     5
  0
POINT
  5
51B
  8
DEFPOINTS
  6
CONTINUOUS
 62
     0
 10
3515.417187663473
 20
441.4180515526445
 30
0.0
  0
POINT
  5
51C
  8
DEFPOINTS
  6
CONTINUOUS
 62
     0
 10
3509.417187663474
 20
447.9180515526443
 30
0.0
  0
POINT
  5
51D
  8
DEFPOINTS
  6
CONTINUOUS
 62
     0
 10
3477.417187663475
 20
447.9180515526443
 30
0.0
  0
ENDBLK
  5
51F
  8
0
  6
CONTINUOUS
 62
     5
  0
BLOCK
  8
0
  2
*D43
 70
     1
 10
0.0
 20
0.0
 30
0.0
  3
*D43
  1

  0
LINE
  5
521
  8
回07-寸法
  6
CONTINUOUS
 62
     5
 10
3515.917187663474
 20
440.9180515526444
 30
0.0
 11
3484.417187663475
 21
440.9180515526444
 31
0.0
  0
LINE
  5
522
  8
回07-寸法
  6
CONTINUOUS
 62
     5
 10
3509.417187663474
 20
447.9180515526443
 30
0.0
 11
3484.417187663475
 21
447.9180515526443
 31
0.0
  0
LINE
  5
523
  8
回07-寸法
  6
CONTINUOUS
 62
     5
 10
3485.417187663474
 20
449.4180515526442
 30
0.0
 11
3485.417187663474
 21
456.7149019463448
 31
0.0
  0
LINE
  5
524
  8
回07-寸法
  6
CONTINUOUS
 62
     5
 10
3485.417187663474
 20
440.9180515526444
 30
0.0
 11
3485.417187663474
 21
447.9180515526443
 31
0.0
  0
LINE
  5
525
  8
回07-寸法
  6
CONTINUOUS
 62
     5
 10
3485.417187663474
 20
439.4180515526445
 30
0.0
 11
3485.417187663474
 21
437.9180515526445
 31
0.0
  0
INSERT
  5
526
  8
回07-寸法
  6
CONTINUOUS
 62
     5
  2
_OPEN
 10
3485.417187663474
 20
440.9180515526444
 30
0.0
 41
1.5
 42
1.5
 43
1.5
 50
90.0
  0
INSERT
  5
527
  8
回07-寸法
  6
CONTINUOUS
 62
     5
  2
_OPEN
 10
3485.417187663474
 20
447.9180515526443
 30
0.0
 41
1.5
 42
1.5
 43
1.5
 50
270.0
  0
TEXT
  5
528
  8
回07-寸法
  6
CONTINUOUS
 62
     5
 10
3484.767187663475
 20
452.1660830487071
 30
0.0
 40
3.0
  1
(7)
 50
90.0
  0
POINT
  5
529
  8
DEFPOINTS
  6
CONTINUOUS
 62
     0
 10
3515.917187663474
 20
440.9180515526444
 30
0.0
  0
POINT
  5
52A
  8
DEFPOINTS
  6
CONTINUOUS
 62
     0
 10
3509.417187663474
 20
447.9180515526443
 30
0.0
  0
POINT
  5
52B
  8
DEFPOINTS
  6
CONTINUOUS
 62
     0
 10
3485.417187663474
 20
447.9180515526443
 30
0.0
  0
ENDBLK
  5
52D
  8
0
  6
CONTINUOUS
 62
     5
  0
BLOCK
  8
0
  2
*D44
 70
     1
 10
0.0
 20
0.0
 30
0.0
  3
*D44
  1

  0
LINE
  5
52F
  8
回07-寸法
  6
CONTINUOUS
 62
     5
 10
3518.067187673474
 20
438.5180515526442
 30
0.0
 11
3492.417187663475
 21
438.5180515526442
 31
0.0
  0
LINE
  5
530
  8
回07-寸法
  6
CONTINUOUS
 62
     5
 10
3509.417187663474
 20
447.9180515526443
 30
0.0
 11
3492.417187663475
 21
447.9180515526443
 31
0.0
  0
LINE
  5
531
  8
回07-寸法
  6
CONTINUOUS
 62
     5
 10
3493.417187663475
 20
449.4180515526442
 30
0.0
 11
3493.417187663475
 21
461.1290533253715
 31
0.0
  0
LINE
  5
532
  8
回07-寸法
  6
CONTINUOUS
 62
     5
 10
3493.417187663475
 20
438.5180515526442
 30
0.0
 11
3493.417187663475
 21
447.9180515526443
 31
0.0
  0
LINE
  5
533
  8
回07-寸法
  6
CONTINUOUS
 62
     5
 10
3493.417187663475
 20
437.0180515526443
 30
0.0
 11
3493.417187663475
 21
435.5180515526442
 31
0.0
  0
INSERT
  5
534
  8
回07-寸法
  6
CONTINUOUS
 62
     5
  2
_OPEN
 10
3493.417187663475
 20
438.5180515526442
 30
0.0
 41
1.5
 42
1.5
 43
1.5
 50
90.0
  0
INSERT
  5
535
  8
回07-寸法
  6
CONTINUOUS
 62
     5
  2
_OPEN
 10
3493.417187663475
 20
447.9180515526443
 30
0.0
 41
1.5
 42
1.5
 43
1.5
 50
270.0
  0
TEXT
  5
536
  8
回07-寸法
  6
CONTINUOUS
 62
     5
 10
3492.767187663475
 20
453.2694033221523
 30
0.0
 40
3.0
  1
(9.4)
 50
90.0
  0
POINT
  5
537
  8
DEFPOINTS
  6
CONTINUOUS
 62
     0
 10
3518.067187673474
 20
438.5180515526442
 30
0.0
  0
POINT
  5
538
  8
DEFPOINTS
  6
CONTINUOUS
 62
     0
 10
3509.417187663474
 20
447.9180515526443
 30
0.0
  0
POINT
  5
539
  8
DEFPOINTS
  6
CONTINUOUS
 62
     0
 10
3493.417187663475
 20
447.9180515526443
 30
0.0
  0
ENDBLK
  5
53B
  8
0
  6
CONTINUOUS
 62
     5
  0
BLOCK
  8
0
  2
*D45
 70
     1
 10
0.0
 20
0.0
 30
0.0
  3
*D45
  1

  0
LINE
  5
53D
  8
回07-寸法
  6
CONTINUOUS
 62
     5
 10
3660.819779691468
 20
140.9220999234543
 30
0.0
 11
3689.616216599341
 21
140.9220999234543
 31
0.0
  0
LINE
  5
53F
  8
回07-寸法
  6
CONTINUOUS
 62
     5
 10
3668.070905006918
 20
240.918051552644
 30
0.0
 11
3689.616216599341
 21
240.918051552644
 31
0.0
  0
LINE
  5
540
  8
回07-寸法
  6
CONTINUOUS
 62
     5
 10
3688.616216599341
 20
142.4220999234544
 30
0.0
 11
3688.616216599341
 21
239.4180515526441
 31
0.0
  0
INSERT
  5
541
  8
回07-寸法
  6
CONTINUOUS
 62
     5
  2
_OPEN
 10
3688.616216599341
 20
140.9220999234543
 30
0.0
 41
1.5
 42
1.5
 43
1.5
 50
270.0
  0
INSERT
  5
542
  8
回07-寸法
  6
CONTINUOUS
 62
     5
  2
_OPEN
 10
3688.616216599341
 20
240.918051552644
 30
0.0
 41
1.5
 42
1.5
 43
1.5
 50
90.0
  0
INSERT
  5
543
  8
回07-寸法
  6
CONTINUOUS
 62
     5
 66
     1
  2
*X95
 10
0.0
 20
0.0
 30
0.0
  0
SEQEND
  5
849
  8
0
  6
CONTINUOUS
 62
     5
  0
POINT
  5
544
  8
DEFPOINTS
  6
CONTINUOUS
 62
     0
 10
3660.819779691468
 20
140.9220999234543
 30
0.0
  0
POINT
  5
545
  8
DEFPOINTS
  6
CONTINUOUS
 62
     0
 10
3668.070905006918
 20
240.918051552644
 30
0.0
  0
POINT
  5
546
  8
DEFPOINTS
  6
CONTINUOUS
 62
     0
 10
3688.616216599341
 20
240.918051552644
 30
0.0
  0
ENDBLK
  5
548
  8
0
  6
CONTINUOUS
 62
     5
  0
BLOCK
  8
0
  2
*D46
 70
     1
 10
0.0
 20
0.0
 30
0.0
  3
*D46
  1

  0
LINE
  5
54A
  8
回07-寸法
  6
CONTINUOUS
 62
     5
 10
3641.070905006917
 20
237.7725818255953
 30
0.0
 11
3641.070905006917
 21
213.9651214827225
 31
0.0
  0
LINE
  5
54C
  8
回07-寸法
  6
CONTINUOUS
 62
     5
 10
3668.070905006918
 20
237.7766301964061
 30
0.0
 11
3668.070905006918
 21
213.9651214827225
 31
0.0
  0
LINE
  5
54D
  8
回07-寸法
  6
CONTINUOUS
 62
     5
 10
3669.570905006918
 20
214.9651214827225
 30
0.0
 11
3676.534389258886
 21
214.9651214827225
 31
0.0
  0
LINE
  5
54E
  8
回07-寸法
  6
CONTINUOUS
 62
     5
 10
3641.070905006917
 20
214.9651214827225
 30
0.0
 11
3668.070905006918
 21
214.9651214827225
 31
0.0
  0
LINE
  5
54F
  8
回07-寸法
  6
CONTINUOUS
 62
     5
 10
3639.570905006917
 20
214.9651214827225
 30
0.0
 11
3638.070905006917
 21
214.9651214827225
 31
0.0
  0
INSERT
  5
550
  8
回07-寸法
  6
CONTINUOUS
 62
     5
  2
_OPEN
 10
3641.070905006917
 20
214.9651214827225
 30
0.0
 41
1.5
 42
1.5
 43
1.5
  0
INSERT
  5
551
  8
回07-寸法
  6
CONTINUOUS
 62
     5
  2
_OPEN
 10
3668.070905006918
 20
214.9651214827225
 30
0.0
 41
1.5
 42
1.5
 43
1.5
 50
180.0
  0
TEXT
  5
552
  8
回07-寸法
  6
CONTINUOUS
 62
     5
 10
3672.284389258886
 20
215.4651214827225
 30
0.0
 40
3.0
  1
27
  0
POINT
  5
553
  8
DEFPOINTS
  6
CONTINUOUS
 62
     0
 10
3641.070905006917
 20
237.7725818255953
 30
0.0
  0
POINT
  5
554
  8
DEFPOINTS
  6
CONTINUOUS
 62
     0
 10
3668.070905006918
 20
237.7766301964061
 30
0.0
  0
POINT
  5
555
  8
DEFPOINTS
  6
CONTINUOUS
 62
     0
 10
3668.070905006918
 20
214.9651214827225
 30
0.0
  0
ENDBLK
  5
557
  8
0
  6
CONTINUOUS
 62
     5
  0
BLOCK
  8
0
  2
*D47
 70
     1
 10
0.0
 20
0.0
 30
0.0
  3
*D47
  1

  0
LINE
  5
559
  8
回07-寸法
  6
CONTINUOUS
 62
     5
 10
3640.070905006917
 20
237.7005757810506
 30
0.0
 11
3640.070905006917
 21
217.3279864111799
 31
0.0
  0
LINE
  5
55A
  8
回07-寸法
  6
CONTINUOUS
 62
     5
 10
3605.070905006917
 20
237.7046241518614
 30
0.0
 11
3605.070905006917
 21
217.3279864111799
 31
0.0
  0
LINE
  5
55B
  8
回07-寸法
  6
CONTINUOUS
 62
     5
 10
3603.570905006917
 20
218.3279864111799
 30
0.0
 11
3596.26621031581
 21
218.3279864111799
 31
0.0
  0
LINE
  5
55C
  8
回07-寸法
  6
CONTINUOUS
 62
     5
 10
3640.070905006917
 20
218.3279864111799
 30
0.0
 11
3605.070905006917
 21
218.3279864111799
 31
0.0
  0
LINE
  5
55D
  8
回07-寸法
  6
CONTINUOUS
 62
     5
 10
3641.570905006918
 20
218.3279864111799
 30
0.0
 11
3643.070905006918
 21
218.3279864111799
 31
0.0
  0
INSERT
  5
55E
  8
回07-寸法
  6
CONTINUOUS
 62
     5
  2
_OPEN
 10
3640.070905006917
 20
218.3279864111799
 30
0.0
 41
1.5
 42
1.5
 43
1.5
 50
180.0
  0
INSERT
  5
55F
  8
回07-寸法
  6
CONTINUOUS
 62
     5
  2
_OPEN
 10
3605.070905006917
 20
218.3279864111799
 30
0.0
 41
1.5
 42
1.5
 43
1.5
  0
TEXT
  5
560
  8
回07-寸法
  6
CONTINUOUS
 62
     5
 10
3596.316210315811
 20
218.8279864111799
 30
0.0
 40
3.0
  1
35
  0
POINT
  5
561
  8
DEFPOINTS
  6
CONTINUOUS
 62
     0
 10
3640.070905006917
 20
237.7005757810506
 30
0.0
  0
POINT
  5
562
  8
DEFPOINTS
  6
CONTINUOUS
 62
     0
 10
3605.070905006917
 20
237.7046241518614
 30
0.0
  0
POINT
  5
563
  8
DEFPOINTS
  6
CONTINUOUS
 62
     0
 10
3605.070905006917
 20
218.3279864111799
 30
0.0
  0
ENDBLK
  5
565
  8
0
  6
CONTINUOUS
 62
     5
  0
BLOCK
  8
0
  2
*D48
 70
     1
 10
0.0
 20
0.0
 30
0.0
  3
*D48
  1

  0
LINE
  5
567
  8
回07-寸法
  6
CONTINUOUS
 62
     5
 10
3668.070905006918
 20
240.9180515526438
 30
0.0
 11
3682.663206194597
 21
240.9180515526438
 31
0.0
  0
LINE
  5
568
  8
回07-寸法
  6
CONTINUOUS
 62
     5
 10
3661.319779691468
 20
230.6112913185847
 30
0.0
 11
3682.663206194597
 21
230.6112913185847
 31
0.0
  0
LINE
  5
569
  8
回07-寸法
  6
CONTINUOUS
 62
     5
 10
3681.663206194597
 20
229.1112913185847
 30
0.0
 11
3681.663206194597
 21
220.8491592842279
 31
0.0
  0
LINE
  5
56A
  8
回07-寸法
  6
CONTINUOUS
 62
     5
 10
3681.663206194597
 20
240.9180515526438
 30
0.0
 11
3681.663206194597
 21
230.6112913185847
 31
0.0
  0
LINE
  5
56B
  8
回07-寸法
  6
CONTINUOUS
 62
     5
 10
3681.663206194597
 20
242.4180515526438
 30
0.0
 11
3681.663206194597
 21
243.9180515526438
 31
0.0
  0
INSERT
  5
56C
  8
回07-寸法
  6
CONTINUOUS
 62
     5
  2
_OPEN
 10
3681.663206194597
 20
240.9180515526438
 30
0.0
 41
1.5
 42
1.5
 43
1.5
 50
270.0
  0
INSERT
  5
56D
  8
回07-寸法
  6
CONTINUOUS
 62
     5
  2
_OPEN
 10
3681.663206194597
 20
230.6112913185847
 30
0.0
 41
1.5
 42
1.5
 43
1.5
 50
90.0
  0
TEXT
  5
56E
  8
回07-寸法
  6
CONTINUOUS
 62
     5
 10
3681.163206194597
 20
220.8991592842281
 30
0.0
 40
3.0
  1
10.3
 50
90.0
  0
POINT
  5
56F
  8
DEFPOINTS
  6
CONTINUOUS
 62
     0
 10
3668.070905006918
 20
240.9180515526438
 30
0.0
  0
POINT
  5
570
  8
DEFPOINTS
  6
CONTINUOUS
 62
     0
 10
3661.319779691468
 20
230.6112913185847
 30
0.0
  0
POINT
  5
571
  8
DEFPOINTS
  6
CONTINUOUS
 62
     0
 10
3681.663206194597
 20
230.6112913185847
 30
0.0
  0
ENDBLK
  5
573
  8
0
  6
CONTINUOUS
 62
     5
  0
BLOCK
  8
0
  2
*D49
 70
     1
 10
0.0
 20
0.0
 30
0.0
  3
*D49
  1

  0
LINE
  5
575
  8
回07-寸法
  6
CONTINUOUS
 62
     5
 10
3668.070905006918
 20
240.9180515526438
 30
0.0
 11
3675.327101004001
 21
240.9180515526438
 31
0.0
  0
LINE
  5
576
  8
回07-寸法
  6
CONTINUOUS
 62
     5
 10
3668.070905006918
 20
237.3624166340327
 30
0.0
 11
3675.327101004001
 21
237.3624166340327
 31
0.0
  0
LINE
  5
577
  8
回07-寸法
  6
CONTINUOUS
 62
     5
 10
3674.327101004001
 20
235.8624166340328
 30
0.0
 11
3674.327101004001
 21
224.2613241100928
 31
0.0
  0
LINE
  5
578
  8
回07-寸法
  6
CONTINUOUS
 62
     5
 10
3674.327101004001
 20
240.9180515526438
 30
0.0
 11
3674.327101004001
 21
237.3624166340327
 31
0.0
  0
LINE
  5
579
  8
回07-寸法
  6
CONTINUOUS
 62
     5
 10
3674.327101004001
 20
242.4180515526438
 30
0.0
 11
3674.327101004001
 21
243.9180515526438
 31
0.0
  0
INSERT
  5
57A
  8
回07-寸法
  6
CONTINUOUS
 62
     5
  2
_OPEN
 10
3674.327101004001
 20
240.9180515526438
 30
0.0
 41
1.5
 42
1.5
 43
1.5
 50
270.0
  0
INSERT
  5
57B
  8
回07-寸法
  6
CONTINUOUS
 62
     5
  2
_OPEN
 10
3674.327101004001
 20
237.3624166340327
 30
0.0
 41
1.5
 42
1.5
 43
1.5
 50
90.0
  0
TEXT
  5
57C
  8
回07-寸法
  6
CONTINUOUS
 62
     5
 10
3673.827101004001
 20
224.3113241100932
 30
0.0
 40
3.0
  1
3.6
 50
90.0
  0
POINT
  5
57D
  8
DEFPOINTS
  6
CONTINUOUS
 62
     0
 10
3668.070905006918
 20
240.9180515526438
 30
0.0
  0
POINT
  5
57E
  8
DEFPOINTS
  6
CONTINUOUS
 62
     0
 10
3668.070905006918
 20
237.3624166340327
 30
0.0
  0
POINT
  5
57F
  8
DEFPOINTS
  6
CONTINUOUS
 62
     0
 10
3674.327101004001
 20
237.3624166340327
 30
0.0
  0
ENDBLK
  5
581
  8
0
  6
CONTINUOUS
 62
     5
  0
BLOCK
  8
0
  2
*D50
 70
     1
 10
0.0
 20
0.0
 30
0.0
  3
*D50
  1

  0
LINE
  5
583
  8
回07-寸法
  6
CONTINUOUS
 62
     5
 10
3605.070905006917
 20
240.9180515526444
 30
0.0
 11
3593.305983800425
 21
240.9180515526444
 31
0.0
  0
LINE
  5
584
  8
回07-寸法
  6
CONTINUOUS
 62
     5
 10
3618.819779691469
 20
223.5415359049365
 30
0.0
 11
3593.305983800425
 21
223.5415359049365
 31
0.0
  0
LINE
  5
585
  8
回07-寸法
  6
CONTINUOUS
 62
     5
 10
3594.305983800426
 20
239.4180515526444
 30
0.0
 11
3594.305983800426
 21
225.0415359049366
 31
0.0
  0
INSERT
  5
586
  8
回07-寸法
  6
CONTINUOUS
 62
     5
  2
_OPEN
 10
3594.305983800426
 20
240.9180515526444
 30
0.0
 41
1.5
 42
1.5
 43
1.5
 50
90.0
  0
INSERT
  5
587
  8
回07-寸法
  6
CONTINUOUS
 62
     5
  2
_OPEN
 10
3594.305983800426
 20
223.5415359049365
 30
0.0
 41
1.5
 42
1.5
 43
1.5
 50
270.0
  0
TEXT
  5
588
  8
回07-寸法
  6
CONTINUOUS
 62
     5
 10
3593.805983800426
 20
229.5686385767936
 30
0.0
 40
3.0
  1
17.4
 50
90.0
  0
POINT
  5
589
  8
DEFPOINTS
  6
CONTINUOUS
 62
     0
 10
3605.070905006917
 20
240.9180515526444
 30
0.0
  0
POINT
  5
58A
  8
DEFPOINTS
  6
CONTINUOUS
 62
     0
 10
3618.819779691469
 20
223.5415359049365
 30
0.0
  0
POINT
  5
58B
  8
DEFPOINTS
  6
CONTINUOUS
 62
     0
 10
3594.305983800426
 20
223.5415359049365
 30
0.0
  0
ENDBLK
  5
58D
  8
0
  6
CONTINUOUS
 62
     5
  0
BLOCK
  8
0
  2
*D51
 70
     1
 10
0.0
 20
0.0
 30
0.0
  3
*D51
  1

  0
LINE
  5
58F
  8
回07-寸法
  6
CONTINUOUS
 62
     5
 10
3605.070905006917
 20
240.9180515526444
 30
0.0
 11
3597.965882553548
 21
240.9180515526444
 31
0.0
  0
LINE
  5
590
  8
回07-寸法
  6
CONTINUOUS
 62
     5
 10
3605.070905006917
 20
237.2904105894881
 30
0.0
 11
3597.965882553548
 21
237.2904105894881
 31
0.0
  0
LINE
  5
591
  8
回07-寸法
  6
CONTINUOUS
 62
     5
 10
3598.965882553548
 20
235.7904105894881
 30
0.0
 11
3598.965882553548
 21
229.0147485980174
 31
0.0
  0
LINE
  5
592
  8
回07-寸法
  6
CONTINUOUS
 62
     5
 10
3598.965882553548
 20
240.9180515526444
 30
0.0
 11
3598.965882553548
 21
237.2904105894881
 31
0.0
  0
LINE
  5
593
  8
回07-寸法
  6
CONTINUOUS
 62
     5
 10
3598.965882553548
 20
242.4180515526444
 30
0.0
 11
3598.965882553548
 21
243.9180515526444
 31
0.0
  0
INSERT
  5
594
  8
回07-寸法
  6
CONTINUOUS
 62
     5
  2
_OPEN
 10
3598.965882553548
 20
240.9180515526444
 30
0.0
 41
1.5
 42
1.5
 43
1.5
 50
270.0
  0
INSERT
  5
595
  8
回07-寸法
  6
CONTINUOUS
 62
     5
  2
_OPEN
 10
3598.965882553548
 20
237.2904105894881
 30
0.0
 41
1.5
 42
1.5
 43
1.5
 50
90.0
  0
TEXT
  5
596
  8
回07-寸法
  6
CONTINUOUS
 62
     5
 10
3598.465882553548
 20
229.0647485980175
 30
0.0
 40
3.0
  1
3.6
 50
90.0
  0
POINT
  5
597
  8
DEFPOINTS
  6
CONTINUOUS
 62
     0
 10
3605.070905006917
 20
240.9180515526444
 30
0.0
  0
POINT
  5
598
  8
DEFPOINTS
  6
CONTINUOUS
 62
     0
 10
3605.070905006917
 20
237.2904105894881
 30
0.0
  0
POINT
  5
599
  8
DEFPOINTS
  6
CONTINUOUS
 62
     0
 10
3598.965882553548
 20
237.2904105894881
 30
0.0
  0
ENDBLK
  5
59B
  8
0
  6
CONTINUOUS
 62
     5
  0
BLOCK
  8
0
  2
*D52
 70
     1
 10
0.0
 20
0.0
 30
0.0
  3
*D52
  1

  0
LINE
  5
59D
  8
回07-寸法
  6
CONTINUOUS
 62
     5
 10
3636.319779691469
 20
141.4180515526445
 30
0.0
 11
3636.319779691469
 21
124.9220999234554
 31
0.0
  0
LINE
  5
59F
  8
回07-寸法
  6
CONTINUOUS
 62
     5
 10
3618.819779691469
 20
141.4180515526445
 30
0.0
 11
3618.819779691469
 21
124.9220999234554
 31
0.0
  0
LINE
  5
5A0
  8
回07-寸法
  6
CONTINUOUS
 62
     5
 10
3634.819779691468
 20
125.9220999234554
 30
0.0
 11
3620.319779691469
 21
125.9220999234554
 31
0.0
  0
INSERT
  5
5A1
  8
回07-寸法
  6
CONTINUOUS
 62
     5
  2
_OPEN
 10
3636.319779691469
 20
125.9220999234554
 30
0.0
 41
1.5
 42
1.5
 43
1.5
  0
INSERT
  5
5A2
  8
回07-寸法
  6
CONTINUOUS
 62
     5
  2
_OPEN
 10
3618.819779691469
 20
125.9220999234554
 30
0.0
 41
1.5
 42
1.5
 43
1.5
 50
180.0
  0
INSERT
  5
5A3
  8
回07-寸法
  6
CONTINUOUS
 62
     5
 66
     1
  2
*X96
 10
0.0
 20
0.0
 30
0.0
  0
SEQEND
  5
84F
  8
0
  6
CONTINUOUS
 62
     5
  0
POINT
  5
5A4
  8
DEFPOINTS
  6
CONTINUOUS
 62
     0
 10
3636.319779691469
 20
141.4180515526445
 30
0.0
  0
POINT
  5
5A5
  8
DEFPOINTS
  6
CONTINUOUS
 62
     0
 10
3618.819779691469
 20
141.4180515526445
 30
0.0
  0
POINT
  5
5A6
  8
DEFPOINTS
  6
CONTINUOUS
 62
     0
 10
3618.819779691469
 20
125.9220999234554
 30
0.0
  0
ENDBLK
  5
5A8
  8
0
  6
CONTINUOUS
 62
     5
  0
BLOCK
  8
0
  2
*D53
 70
     1
 10
0.0
 20
0.0
 30
0.0
  3
*D53
  1

  0
LINE
  5
5AA
  8
回07-寸法
  6
CONTINUOUS
 62
     5
 10
3661.319779691468
 20
141.4180515526436
 30
0.0
 11
3661.319779691468
 21
115.9273796953173
 31
0.0
  0
LINE
  5
5AB
  8
回07-寸法
  6
CONTINUOUS
 62
     5
 10
3647.819779691469
 20
141.4180515526445
 30
0.0
 11
3647.819779691469
 21
115.9273796953173
 31
0.0
  0
LINE
  5
5AC
  8
回07-寸法
  6
CONTINUOUS
 62
     5
 10
3659.819779691468
 20
116.9273796953173
 30
0.0
 11
3649.319779691469
 21
116.9273796953173
 31
0.0
  0
INSERT
  5
5AD
  8
回07-寸法
  6
CONTINUOUS
 62
     5
  2
_OPEN
 10
3661.319779691468
 20
116.9273796953173
 30
0.0
 41
1.5
 42
1.5
 43
1.5
  0
INSERT
  5
5AE
  8
回07-寸法
  6
CONTINUOUS
 62
     5
  2
_OPEN
 10
3647.819779691469
 20
116.9273796953173
 30
0.0
 41
1.5
 42
1.5
 43
1.5
 50
180.0
  0
INSERT
  5
5AF
  8
回07-寸法
  6
CONTINUOUS
 62
     5
 66
     1
  2
*X97
 10
0.0
 20
0.0
 30
0.0
  0
SEQEND
  5
855
  8
0
  6
CONTINUOUS
 62
     5
  0
POINT
  5
5B0
  8
DEFPOINTS
  6
CONTINUOUS
 62
     0
 10
3661.319779691468
 20
141.4180515526436
 30
0.0
  0
POINT
  5
5B1
  8
DEFPOINTS
  6
CONTINUOUS
 62
     0
 10
3647.819779691469
 20
141.4180515526445
 30
0.0
  0
POINT
  5
5B2
  8
DEFPOINTS
  6
CONTINUOUS
 62
     0
 10
3647.819779691469
 20
116.9273796953173
 30
0.0
  0
ENDBLK
  5
5B4
  8
0
  6
CONTINUOUS
 62
     5
  0
BLOCK
  8
0
  2
*D54
 70
     1
 10
0.0
 20
0.0
 30
0.0
  3
*D54
  1

  0
LINE
  5
5B6
  8
回07-寸法
  6
CONTINUOUS
 62
     5
 10
3605.070905006917
 20
240.9180515526444
 30
0.0
 11
3577.303148179296
 21
240.9180515526444
 31
0.0
  0
LINE
  5
5B7
  8
回07-寸法
  6
CONTINUOUS
 62
     5
 10
3619.319779691468
 20
140.9220999234553
 30
0.0
 11
3577.303148179296
 21
140.9220999234553
 31
0.0
  0
LINE
  5
5B8
  8
回07-寸法
  6
CONTINUOUS
 62
     5
 10
3578.303148179296
 20
239.4180515526444
 30
0.0
 11
3578.303148179296
 21
142.4220999234552
 31
0.0
  0
INSERT
  5
5B9
  8
回07-寸法
  6
CONTINUOUS
 62
     5
  2
_OPEN
 10
3578.303148179296
 20
240.9180515526444
 30
0.0
 41
1.5
 42
1.5
 43
1.5
 50
90.0
  0
INSERT
  5
5BA
  8
回07-寸法
  6
CONTINUOUS
 62
     5
  2
_OPEN
 10
3578.303148179296
 20
140.9220999234553
 30
0.0
 41
1.5
 42
1.5
 43
1.5
 50
270.0
  0
INSERT
  5
5BB
  8
回07-寸法
  6
CONTINUOUS
 62
     5
 66
     1
  2
*X98
 10
0.0
 20
0.0
 30
0.0
  0
SEQEND
  5
85B
  8
0
  6
CONTINUOUS
 62
     5
  0
POINT
  5
5BC
  8
DEFPOINTS
  6
CONTINUOUS
 62
     0
 10
3605.070905006917
 20
240.9180515526444
 30
0.0
  0
POINT
  5
5BD
  8
DEFPOINTS
  6
CONTINUOUS
 62
     0
 10
3619.319779691468
 20
140.9220999234553
 30
0.0
  0
POINT
  5
5BE
  8
DEFPOINTS
  6
CONTINUOUS
 62
     0
 10
3578.303148179296
 20
140.9220999234553
 30
0.0
  0
ENDBLK
  5
5C0
  8
0
  6
CONTINUOUS
 62
     5
  0
BLOCK
  8
0
  2
*D55
 70
     1
 10
0.0
 20
0.0
 30
0.0
  3
*D55
  1

  0
LINE
  5
5C2
  8
回08-記事
  6
CONTINUOUS
 62
     5
 10
3810.825649319703
 20
140.9220999234556
 30
0.0
 11
3810.825649319703
 21
132.4741923426079
 31
0.0
  0
LINE
  5
5C3
  8
回08-記事
  6
CONTINUOUS
 62
     5
 10
3813.325649319703
 20
140.9220999234556
 30
0.0
 11
3813.325649319703
 21
132.4741923426079
 31
0.0
  0
LINE
  5
5C4
  8
回08-記事
  6
CONTINUOUS
 62
     5
 10
3814.825649319703
 20
133.474192342608
 30
0.0
 11
3827.878306524427
 21
133.474192342608
 31
0.0
  0
LINE
  5
5C5
  8
回08-記事
  6
CONTINUOUS
 62
     5
 10
3810.825649319703
 20
133.474192342608
 30
0.0
 11
3813.325649319703
 21
133.474192342608
 31
0.0
  0
LINE
  5
5C6
  8
回08-記事
  6
CONTINUOUS
 62
     5
 10
3809.325649319703
 20
133.474192342608
 30
0.0
 11
3807.825649319703
 21
133.474192342608
 31
0.0
  0
INSERT
  5
5C7
  8
回08-記事
  6
CONTINUOUS
 62
     5
  2
_OPEN
 10
3810.825649319703
 20
133.474192342608
 30
0.0
 41
1.5
 42
1.5
 43
1.5
  0
INSERT
  5
5C8
  8
回08-記事
  6
CONTINUOUS
 62
     5
  2
_OPEN
 10
3813.325649319703
 20
133.474192342608
 30
0.0
 41
1.5
 42
1.5
 43
1.5
 50
180.0
  0
INSERT
  5
5C9
  8
回08-記事
  6
CONTINUOUS
 62
     5
 66
     1
  2
*X99
 10
0.0
 20
0.0
 30
0.0
  0
SEQEND
  5
861
  8
0
  6
CONTINUOUS
 62
     5
  0
POINT
  5
5CA
  8
DEFPOINTS
  6
CONTINUOUS
 62
     0
 10
3810.825649319703
 20
140.9220999234556
 30
0.0
  0
POINT
  5
5CB
  8
DEFPOINTS
  6
CONTINUOUS
 62
     0
 10
3813.325649319703
 20
140.9220999234556
 30
0.0
  0
POINT
  5
5CC
  8
DEFPOINTS
  6
CONTINUOUS
 62
     0
 10
3813.325649319703
 20
133.474192342608
 30
0.0
  0
ENDBLK
  5
5CE
  8
0
  6
CONTINUOUS
 62
     5
  0
BLOCK
  8
0
  2
*D56
 70
     1
 10
0.0
 20
0.0
 30
0.0
  3
*D56
  1

  0
LINE
  5
5D0
  8
回08-記事
  6
CONTINUOUS
 62
     5
 10
3805.932465100732
 20
140.9220999234556
 30
0.0
 11
3805.932465100732
 21
135.2719418726754
 31
0.0
  0
LINE
  5
5D1
  8
回08-記事
  6
CONTINUOUS
 62
     5
 10
3803.432465100732
 20
140.9220999234556
 30
0.0
 11
3803.432465100732
 21
135.2719418726754
 31
0.0
  0
LINE
  5
5D2
  8
回08-記事
  6
CONTINUOUS
 62
     5
 10
3801.932465100732
 20
136.2719418726754
 30
0.0
 11
3788.879807896007
 21
136.2719418726754
 31
0.0
  0
LINE
  5
5D3
  8
回08-記事
  6
CONTINUOUS
 62
     5
 10
3805.932465100732
 20
136.2719418726754
 30
0.0
 11
3803.432465100732
 21
136.2719418726754
 31
0.0
  0
LINE
  5
5D4
  8
回08-記事
  6
CONTINUOUS
 62
     5
 10
3807.432465100731
 20
136.2719418726754
 30
0.0
 11
3808.932465100732
 21
136.2719418726754
 31
0.0
  0
INSERT
  5
5D5
  8
回08-記事
  6
CONTINUOUS
 62
     5
  2
_OPEN
 10
3805.932465100732
 20
136.2719418726754
 30
0.0
 41
1.5
 42
1.5
 43
1.5
 50
180.0
  0
INSERT
  5
5D6
  8
回08-記事
  6
CONTINUOUS
 62
     5
  2
_OPEN
 10
3803.432465100732
 20
136.2719418726754
 30
0.0
 41
1.5
 42
1.5
 43
1.5
  0
INSERT
  5
5D7
  8
回08-記事
  6
CONTINUOUS
 62
     5
 66
     1
  2
*X100
 10
0.0
 20
0.0
 30
0.0
  0
SEQEND
  5
867
  8
0
  6
CONTINUOUS
 62
     5
  0
POINT
  5
5D8
  8
DEFPOINTS
  6
CONTINUOUS
 62
     0
 10
3805.932465100732
 20
140.9220999234556
 30
0.0
  0
POINT
  5
5D9
  8
DEFPOINTS
  6
CONTINUOUS
 62
     0
 10
3803.432465100732
 20
140.9220999234556
 30
0.0
  0
POINT
  5
5DA
  8
DEFPOINTS
  6
CONTINUOUS
 62
     0
 10
3803.432465100732
 20
136.2719418726754
 30
0.0
  0
ENDBLK
  5
5DC
  8
0
  6
CONTINUOUS
 62
     5
  0
BLOCK
  8
0
  2
*D57
 70
     1
 10
0.0
 20
0.0
 30
0.0
  3
*D57
  1

  0
LINE
  5
5DE
  8
回08-記事
  6
CONTINUOUS
 62
     5
 10
3805.932465100732
 20
150.9220999234556
 30
0.0
 11
3811.206997965094
 21
150.9220999234556
 31
0.0
  0
LINE
  5
5DF
  8
回08-記事
  6
CONTINUOUS
 62
     5
 10
3805.932465100732
 20
140.9220999234556
 30
0.0
 11
3811.206997965094
 21
140.9220999234556
 31
0.0
  0
LINE
  5
5E0
  8
回08-記事
  6
CONTINUOUS
 62
     5
 10
3810.206997965094
 20
149.4220999234556
 30
0.0
 11
3810.206997965094
 21
142.4220999234556
 31
0.0
  0
INSERT
  5
5E1
  8
回08-記事
  6
CONTINUOUS
 62
     5
  2
_OPEN
 10
3810.206997965094
 20
150.9220999234556
 30
0.0
 41
1.5
 42
1.5
 43
1.5
 50
90.0
  0
INSERT
  5
5E2
  8
回08-記事
  6
CONTINUOUS
 62
     5
  2
_OPEN
 10
3810.206997965094
 20
140.9220999234556
 30
0.0
 41
1.5
 42
1.5
 43
1.5
 50
270.0
  0
TEXT
  5
5E3
  8
回08-記事
  6
CONTINUOUS
 62
     5
 10
3809.606997465095
 20
143.9220899234556
 30
0.0
 40
2.00001
  1
(10)
 50
90.0
  0
POINT
  5
5E4
  8
DEFPOINTS
  6
CONTINUOUS
 62
     0
 10
3805.932465100732
 20
150.9220999234556
 30
0.0
  0
POINT
  5
5E5
  8
DEFPOINTS
  6
CONTINUOUS
 62
     0
 10
3805.932465100732
 20
140.9220999234556
 30
0.0
  0
POINT
  5
5E6
  8
DEFPOINTS
  6
CONTINUOUS
 62
     0
 10
3810.206997965094
 20
140.9220999234556
 30
0.0
  0
ENDBLK
  5
5E8
  8
0
  6
CONTINUOUS
 62
     5
  0
BLOCK
  8
0
  2
*D58
 70
     1
 10
0.0
 20
0.0
 30
0.0
  3
*D58
  1

  0
LINE
  5
5EA
  8
回08-記事
  6
CONTINUOUS
 62
     5
 10
3813.325649319703
 20
140.9220999234556
 30
0.0
 11
3826.600234885622
 21
140.9220999234556
 31
0.0
  0
LINE
  5
5EB
  8
回08-記事
  6
CONTINUOUS
 62
     5
 10
3814.025649319703
 20
145.9220999234556
 30
0.0
 11
3826.600234885622
 21
145.9220999234556
 31
0.0
  0
LINE
  5
5EC
  8
回08-記事
  6
CONTINUOUS
 62
     5
 10
3825.600234885622
 20
142.4220999234556
 30
0.0
 11
3825.600234885622
 21
144.4220999234556
 31
0.0
  0
INSERT
  5
5ED
  8
回08-記事
  6
CONTINUOUS
 62
     5
  2
_OPEN
 10
3825.600234885622
 20
140.9220999234556
 30
0.0
 41
1.5
 42
1.5
 43
1.5
 50
270.0
  0
INSERT
  5
5EE
  8
回08-記事
  6
CONTINUOUS
 62
     5
  2
_OPEN
 10
3825.600234885622
 20
145.9220999234556
 30
0.0
 41
1.5
 42
1.5
 43
1.5
 50
90.0
  0
TEXT
  5
5EF
  8
回08-記事
  6
CONTINUOUS
 62
     5
 10
3825.100234885622
 20
142.3720999234561
 30
0.0
 40
3.0
  1
5
 50
90.0
  0
POINT
  5
5F0
  8
DEFPOINTS
  6
CONTINUOUS
 62
     0
 10
3813.325649319703
 20
140.9220999234556
 30
0.0
  0
POINT
  5
5F1
  8
DEFPOINTS
  6
CONTINUOUS
 62
     0
 10
3814.025649319703
 20
145.9220999234556
 30
0.0
  0
POINT
  5
5F2
  8
DEFPOINTS
  6
CONTINUOUS
 62
     0
 10
3825.600234885622
 20
145.9220999234556
 30
0.0
  0
ENDBLK
  5
5F4
  8
0
  6
CONTINUOUS
 62
     5
  0
BLOCK
  8
0
  2
*D59
 70
     1
 10
0.0
 20
0.0
 30
0.0
  3
*D59
  1

  0
LINE
  5
5F6
  8
回08-記事
  6
CONTINUOUS
 62
     5
 10
3803.432465100732
 20
140.9220999234556
 30
0.0
 11
3794.471054931761
 21
140.9220999234556
 31
0.0
  0
LINE
  5
5F7
  8
回08-記事
  6
CONTINUOUS
 62
     5
 10
3802.732465100732
 20
145.9220999234556
 30
0.0
 11
3794.471054931761
 21
145.9220999234556
 31
0.0
  0
LINE
  5
5F8
  8
回08-記事
  6
CONTINUOUS
 62
     5
 10
3795.47105493176
 20
142.4220999234556
 30
0.0
 11
3795.47105493176
 21
144.4220999234556
 31
0.0
  0
INSERT
  5
5F9
  8
回08-記事
  6
CONTINUOUS
 62
     5
  2
_OPEN
 10
3795.47105493176
 20
140.9220999234556
 30
0.0
 41
1.5
 42
1.5
 43
1.5
 50
270.0
  0
INSERT
  5
5FA
  8
回08-記事
  6
CONTINUOUS
 62
     5
  2
_OPEN
 10
3795.47105493176
 20
145.9220999234556
 30
0.0
 41
1.5
 42
1.5
 43
1.5
 50
90.0
  0
TEXT
  5
5FB
  8
回08-記事
  6
CONTINUOUS
 62
     5
 10
3794.971054931761
 20
142.3720999234561
 30
0.0
 40
3.0
  1
5
 50
90.0
  0
POINT
  5
5FC
  8
DEFPOINTS
  6
CONTINUOUS
 62
     0
 10
3803.432465100732
 20
140.9220999234556
 30
0.0
  0
POINT
  5
5FD
  8
DEFPOINTS
  6
CONTINUOUS
 62
     0
 10
3802.732465100732
 20
145.9220999234556
 30
0.0
  0
POINT
  5
5FE
  8
DEFPOINTS
  6
CONTINUOUS
 62
     0
 10
3795.47105493176
 20
145.9220999234556
 30
0.0
  0
ENDBLK
  5
600
  8
0
  6
CONTINUOUS
 62
     5
  0
BLOCK
  8
0
  2
*D60
 70
     1
 10
0.0
 20
0.0
 30
0.0
  3
*D60
  1

  0
LINE
  5
602
  8
回07-寸法
  6
CONTINUOUS
 62
     5
 10
3799.432465100732
 20
447.4180515526442
 30
0.0
 11
3799.432465100732
 21
453.5432108985485
 31
0.0
  0
LINE
  5
603
  8
回07-寸法
  6
CONTINUOUS
 62
     5
 10
3820.325649319702
 20
447.9180515526443
 30
0.0
 11
3820.325649319702
 21
453.5432108985485
 31
0.0
  0
LINE
  5
604
  8
回07-寸法
  6
CONTINUOUS
 62
     5
 10
3800.932465100732
 20
452.5432108985485
 30
0.0
 11
3818.825649319702
 21
452.5432108985485
 31
0.0
  0
INSERT
  5
605
  8
回07-寸法
  6
CONTINUOUS
 62
     5
  2
_OPEN
 10
3799.432465100732
 20
452.5432108985485
 30
0.0
 41
1.5
 42
1.5
 43
1.5
 50
180.0
  0
INSERT
  5
606
  8
回07-寸法
  6
CONTINUOUS
 62
     5
  2
_OPEN
 10
3820.325649319702
 20
452.5432108985485
 30
0.0
 41
1.5
 42
1.5
 43
1.5
  0
INSERT
  5
607
  8
回07-寸法
  6
CONTINUOUS
 62
     5
 66
     1
  2
*X101
 10
0.0
 20
0.0
 30
0.0
  0
SEQEND
  5
86D
  8
0
  6
CONTINUOUS
 62
     5
  0
POINT
  5
608
  8
DEFPOINTS
  6
CONTINUOUS
 62
     0
 10
3799.432465100732
 20
447.4180515526442
 30
0.0
  0
POINT
  5
609
  8
DEFPOINTS
  6
CONTINUOUS
 62
     0
 10
3820.325649319702
 20
447.9180515526443
 30
0.0
  0
POINT
  5
60A
  8
DEFPOINTS
  6
CONTINUOUS
 62
     0
 10
3820.325649319702
 20
452.5432108985485
 30
0.0
  0
ENDBLK
  5
60C
  8
0
  6
CONTINUOUS
 62
     5
  0
BLOCK
  8
0
  2
*D61
 70
     1
 10
0.0
 20
0.0
 30
0.0
  3
*D61
  1

  0
LINE
  5
60E
  8
回07-寸法
  6
CONTINUOUS
 62
     5
 10
3766.717187663474
 20
441.4180515526442
 30
0.0
 11
3766.717187663474
 21
472.9180515526442
 31
0.0
  0
LINE
  5
60F
  8
回07-寸法
  6
CONTINUOUS
 62
     5
 10
3515.417187663473
 20
441.4180515526442
 30
0.0
 11
3515.417187663473
 21
472.9180515526443
 31
0.0
  0
LINE
  5
610
  8
回07-寸法
  6
CONTINUOUS
 62
     5
 10
3765.217187663474
 20
471.9180515526442
 30
0.0
 11
3516.917187663473
 21
471.9180515526442
 31
0.0
  0
INSERT
  5
611
  8
回07-寸法
  6
CONTINUOUS
 62
     5
  2
_OPEN
 10
3766.717187663474
 20
471.9180515526442
 30
0.0
 41
1.5
 42
1.5
 43
1.5
 50
360.0
  0
INSERT
  5
612
  8
回07-寸法
  6
CONTINUOUS
 62
     5
  2
_OPEN
 10
3515.417187663473
 20
471.9180515526442
 30
0.0
 41
1.5
 42
1.5
 43
1.5
 50
180.0
  0
TEXT
  5
613
  8
回07-寸法
  6
CONTINUOUS
 62
     5
 10
3636.717187663474
 20
472.4180515526442
 30
0.0
 40
3.0
  1
251.3
  0
POINT
  5
614
  8
DEFPOINTS
  6
CONTINUOUS
 62
     0
 10
3766.717187663474
 20
441.4180515526442
 30
0.0
  0
POINT
  5
615
  8
DEFPOINTS
  6
CONTINUOUS
 62
     0
 10
3515.417187663473
 20
441.4180515526442
 30
0.0
  0
POINT
  5
616
  8
DEFPOINTS
  6
CONTINUOUS
 62
     0
 10
3515.417187663473
 20
471.9180515526442
 30
0.0
  0
ENDBLK
  5
618
  8
0
  6
CONTINUOUS
 62
     5
  0
BLOCK
  8
0
  2
*D62
 70
     1
 10
0.0
 20
0.0
 30
0.0
  3
*D62
  1

  0
LINE
  5
61A
  8
回07-寸法
  6
CONTINUOUS
 62
     5
 10
3515.417187663473
 20
441.4180515526442
 30
0.0
 11
3515.417187663473
 21
472.9180515526443
 31
0.0
  0
LINE
  5
61B
  8
回07-寸法
  6
CONTINUOUS
 62
     5
 10
3509.417187663474
 20
447.9180515526443
 30
0.0
 11
3509.417187663474
 21
472.9180515526443
 31
0.0
  0
LINE
  5
61C
  8
回07-寸法
  6
CONTINUOUS
 62
     5
 10
3507.917187663474
 20
471.9180515526442
 30
0.0
 11
3484.261999854419
 21
471.9180515526442
 31
0.0
  0
LINE
  5
61D
  8
回07-寸法
  6
CONTINUOUS
 62
     5
 10
3515.417187663473
 20
471.9180515526442
 30
0.0
 11
3509.417187663474
 21
471.9180515526442
 31
0.0
  0
LINE
  5
61E
  8
回07-寸法
  6
CONTINUOUS
 62
     5
 10
3516.917187663473
 20
471.9180515526442
 30
0.0
 11
3518.417187663473
 21
471.9180515526442
 31
0.0
  0
INSERT
  5
61F
  8
回07-寸法
  6
CONTINUOUS
 62
     5
  2
_OPEN
 10
3515.417187663473
 20
471.9180515526442
 30
0.0
 41
1.5
 42
1.5
 43
1.5
 50
180.0
  0
INSERT
  5
620
  8
回07-寸法
  6
CONTINUOUS
 62
     5
  2
_OPEN
 10
3509.417187663474
 20
471.9180515526442
 30
0.0
 41
1.5
 42
1.5
 43
1.5
  0
INSERT
  5
621
  8
回07-寸法
  6
CONTINUOUS
 62
     5
 66
     1
  2
*X102
 10
0.0
 20
0.0
 30
0.0
  0
SEQEND
  5
873
  8
0
  6
CONTINUOUS
 62
     5
  0
POINT
  5
622
  8
DEFPOINTS
  6
CONTINUOUS
 62
     0
 10
3515.417187663473
 20
441.4180515526442
 30
0.0
  0
POINT
  5
623
  8
DEFPOINTS
  6
CONTINUOUS
 62
     0
 10
3509.417187663474
 20
447.9180515526443
 30
0.0
  0
POINT
  5
624
  8
DEFPOINTS
  6
CONTINUOUS
 62
     0
 10
3509.417187663474
 20
471.9180515526442
 30
0.0
  0
ENDBLK
  5
626
  8
0
  6
CONTINUOUS
 62
     5
  0
BLOCK
  8
0
  2
*D63
 70
     1
 10
0.0
 20
0.0
 30
0.0
  3
*D63
  1

  0
LINE
  5
628
  8
回07-寸法
  6
CONTINUOUS
 62
     5
 10
3515.917187663474
 20
440.9180515526442
 30
0.0
 11
3515.917187663474
 21
466.9180515526442
 31
0.0
  0
LINE
  5
629
  8
回07-寸法
  6
CONTINUOUS
 62
     5
 10
3509.417187663474
 20
447.9180515526433
 30
0.0
 11
3509.417187663474
 21
466.9180515526442
 31
0.0
  0
LINE
  5
62A
  8
回07-寸法
  6
CONTINUOUS
 62
     5
 10
3507.917187663474
 20
465.9180515526442
 30
0.0
 11
3496.064027973669
 21
465.9180515526442
 31
0.0
  0
LINE
  5
62B
  8
回07-寸法
  6
CONTINUOUS
 62
     5
 10
3515.917187663474
 20
465.9180515526442
 30
0.0
 11
3509.417187663474
 21
465.9180515526442
 31
0.0
  0
LINE
  5
62C
  8
回07-寸法
  6
CONTINUOUS
 62
     5
 10
3517.417187663474
 20
465.9180515526442
 30
0.0
 11
3518.917187663474
 21
465.9180515526442
 31
0.0
  0
INSERT
  5
62D
  8
回07-寸法
  6
CONTINUOUS
 62
     5
  2
_OPEN
 10
3515.917187663474
 20
465.9180515526442
 30
0.0
 41
1.5
 42
1.5
 43
1.5
 50
180.0
  0
INSERT
  5
62E
  8
回07-寸法
  6
CONTINUOUS
 62
     5
  2
_OPEN
 10
3509.417187663474
 20
465.9180515526442
 30
0.0
 41
1.5
 42
1.5
 43
1.5
  0
TEXT
  5
62F
  8
回07-寸法
  6
CONTINUOUS
 62
     5
 10
3496.114027973669
 20
466.4180515526442
 30
0.0
 40
3.0
  1
6.5
  0
POINT
  5
630
  8
DEFPOINTS
  6
CONTINUOUS
 62
     0
 10
3515.917187663474
 20
440.9180515526442
 30
0.0
  0
POINT
  5
631
  8
DEFPOINTS
  6
CONTINUOUS
 62
     0
 10
3509.417187663474
 20
447.9180515526433
 30
0.0
  0
POINT
  5
632
  8
DEFPOINTS
  6
CONTINUOUS
 62
     0
 10
3509.417187663474
 20
465.9180515526442
 30
0.0
  0
ENDBLK
  5
634
  8
0
  6
CONTINUOUS
 62
     5
  0
BLOCK
  8
0
  2
*D64
 70
     1
 10
0.0
 20
0.0
 30
0.0
  3
*D64
  1

  0
LINE
  5
636
  8
回07-寸法
  6
CONTINUOUS
 62
     5
 10
3518.067187673474
 20
438.5180515526446
 30
0.0
 11
3518.067187673474
 21
460.9180515509776
 31
0.0
  0
LINE
  5
637
  8
回07-寸法
  6
CONTINUOUS
 62
     5
 10
3509.417187663474
 20
447.9180515526433
 30
0.0
 11
3509.417187663474
 21
460.9180515509776
 31
0.0
  0
LINE
  5
638
  8
回07-寸法
  6
CONTINUOUS
 62
     5
 10
3507.917187663474
 20
459.9180515509776
 30
0.0
 11
3496.663634272881
 21
459.9180515509776
 31
0.0
  0
LINE
  5
639
  8
回07-寸法
  6
CONTINUOUS
 62
     5
 10
3518.067187673474
 20
459.9180515509776
 30
0.0
 11
3509.417187663474
 21
459.9180515509776
 31
0.0
  0
LINE
  5
63A
  8
回07-寸法
  6
CONTINUOUS
 62
     5
 10
3519.567187673474
 20
459.9180515509776
 30
0.0
 11
3521.067187673474
 21
459.9180515509776
 31
0.0
  0
INSERT
  5
63B
  8
回07-寸法
  6
CONTINUOUS
 62
     5
  2
_OPEN
 10
3518.067187673474
 20
459.9180515509776
 30
0.0
 41
1.5
 42
1.5
 43
1.5
 50
180.0
  0
INSERT
  5
63C
  8
回07-寸法
  6
CONTINUOUS
 62
     5
  2
_OPEN
 10
3509.417187663474
 20
459.9180515509776
 30
0.0
 41
1.5
 42
1.5
 43
1.5
  0
TEXT
  5
63D
  8
回07-寸法
  6
CONTINUOUS
 62
     5
 10
3496.713634272881
 20
460.4180515509776
 30
0.0
 40
3.0
  1
8.65
  0
POINT
  5
63E
  8
DEFPOINTS
  6
CONTINUOUS
 62
     0
 10
3518.067187673474
 20
438.5180515526446
 30
0.0
  0
POINT
  5
63F
  8
DEFPOINTS
  6
CONTINUOUS
 62
     0
 10
3509.417187663474
 20
447.9180515526433
 30
0.0
  0
POINT
  5
640
  8
DEFPOINTS
  6
CONTINUOUS
 62
     0
 10
3509.417187663474
 20
459.9180515509776
 30
0.0
  0
ENDBLK
  5
642
  8
0
  6
CONTINUOUS
 62
     5
  0
BLOCK
  8
0
  2
*D65
 70
     1
 10
0.0
 20
0.0
 30
0.0
  3
*D65
  1

  0
LINE
  5
644
  8
回07-寸法
  6
CONTINUOUS
 62
     5
 10
3772.717187663474
 20
447.9180515526443
 30
0.0
 11
3772.717187663474
 21
478.9180515526442
 31
0.0
  0
LINE
  5
645
  8
回07-寸法
  6
CONTINUOUS
 62
     5
 10
3509.417187663474
 20
447.9180515526433
 30
0.0
 11
3509.417187663474
 21
478.9180515526442
 31
0.0
  0
LINE
  5
646
  8
回07-寸法
  6
CONTINUOUS
 62
     5
 10
3771.217187663474
 20
477.9180515526443
 30
0.0
 11
3510.917187663474
 21
477.9180515526443
 31
0.0
  0
INSERT
  5
647
  8
回07-寸法
  6
CONTINUOUS
 62
     5
  2
_OPEN
 10
3772.717187663474
 20
477.9180515526443
 30
0.0
 41
1.5
 42
1.5
 43
1.5
  0
INSERT
  5
648
  8
回07-寸法
  6
CONTINUOUS
 62
     5
  2
_OPEN
 10
3509.417187663474
 20
477.9180515526443
 30
0.0
 41
1.5
 42
1.5
 43
1.5
 50
180.0
  0
INSERT
  5
649
  8
回07-寸法
  6
CONTINUOUS
 62
     5
 66
     1
  2
*X103
 10
0.0
 20
0.0
 30
0.0
  0
SEQEND
  5
879
  8
0
  6
CONTINUOUS
 62
     5
  0
POINT
  5
64A
  8
DEFPOINTS
  6
CONTINUOUS
 62
     0
 10
3772.717187663474
 20
447.9180515526443
 30
0.0
  0
POINT
  5
64B
  8
DEFPOINTS
  6
CONTINUOUS
 62
     0
 10
3509.417187663474
 20
447.9180515526433
 30
0.0
  0
POINT
  5
64C
  8
DEFPOINTS
  6
CONTINUOUS
 62
     0
 10
3509.417187663474
 20
477.9180515526443
 30
0.0
  0
ENDBLK
  5
64E
  8
0
  6
CONTINUOUS
 62
     5
  0
BLOCK
  8
0
  2
*D66
 70
     1
 10
0.0
 20
0.0
 30
0.0
  3
*D66
  1

  0
LINE
  5
650
  8
回07-寸法
  6
CONTINUOUS
 62
     5
 10
3515.917187663474
 20
440.9180515526442
 30
0.0
 11
3515.917187663474
 21
466.9180515526442
 31
0.0
  0
LINE
  5
651
  8
回07-寸法
  6
CONTINUOUS
 62
     5
 10
3766.217187663474
 20
440.9180515526431
 30
0.0
 11
3766.217187663474
 21
466.9180515526442
 31
0.0
  0
LINE
  5
652
  8
回07-寸法
  6
CONTINUOUS
 62
     5
 10
3517.417187663474
 20
465.9180515526442
 30
0.0
 11
3764.717187663474
 21
465.9180515526442
 31
0.0
  0
INSERT
  5
653
  8
回07-寸法
  6
CONTINUOUS
 62
     5
  2
_OPEN
 10
3515.917187663474
 20
465.9180515526442
 30
0.0
 41
1.5
 42
1.5
 43
1.5
 50
180.0
  0
INSERT
  5
654
  8
回07-寸法
  6
CONTINUOUS
 62
     5
  2
_OPEN
 10
3766.217187663474
 20
465.9180515526442
 30
0.0
 41
1.5
 42
1.5
 43
1.5
  0
TEXT
  5
655
  8
回07-寸法
  6
CONTINUOUS
 62
     5
 10
3623.217778214656
 20
467.1680515526443
 30
0.0
 40
3.0
  1
250.3(Viewing Area)
  0
POINT
  5
656
  8
DEFPOINTS
  6
CONTINUOUS
 62
     0
 10
3515.917187663474
 20
440.9180515526442
 30
0.0
  0
POINT
  5
657
  8
DEFPOINTS
  6
CONTINUOUS
 62
     0
 10
3766.217187663474
 20
440.9180515526431
 30
0.0
  0
POINT
  5
658
  8
DEFPOINTS
  6
CONTINUOUS
 62
     0
 10
3766.217187663474
 20
465.9180515526442
 30
0.0
  0
ENDBLK
  5
65A
  8
0
  6
CONTINUOUS
 62
     5
  0
BLOCK
  8
0
  2
*D67
 70
     1
 10
0.0
 20
0.0
 30
0.0
  3
*D67
  1

  0
LINE
  5
65C
  8
回07-寸法
  6
CONTINUOUS
 62
     5
 10
3764.067187663474
 20
438.5180515526443
 30
0.0
 11
3764.067187663474
 21
460.9180515526442
 31
0.0
  0
LINE
  5
65D
  8
回07-寸法
  6
CONTINUOUS
 62
     5
 10
3518.067187663474
 20
438.5180515526446
 30
0.0
 11
3518.067187663474
 21
460.9180515526443
 31
0.0
  0
LINE
  5
65E
  8
回07-寸法
  6
CONTINUOUS
 62
     5
 10
3762.567187663474
 20
459.9180515526442
 30
0.0
 11
3519.567187663474
 21
459.9180515526442
 31
0.0
  0
INSERT
  5
65F
  8
回07-寸法
  6
CONTINUOUS
 62
     5
  2
_OPEN
 10
3764.067187663474
 20
459.9180515526442
 30
0.0
 41
1.5
 42
1.5
 43
1.5
 50
360.0
  0
INSERT
  5
660
  8
回07-寸法
  6
CONTINUOUS
 62
     5
  2
_OPEN
 10
3518.067187663474
 20
459.9180515526442
 30
0.0
 41
1.5
 42
1.5
 43
1.5
 50
180.0
  0
TEXT
  5
661
  8
回07-寸法
  6
CONTINUOUS
 62
     5
 10
3625.617778214656
 20
460.5680515526442
 30
0.0
 40
3.0
  1
246(Active Area)
  0
POINT
  5
662
  8
DEFPOINTS
  6
CONTINUOUS
 62
     0
 10
3764.067187663474
 20
438.5180515526443
 30
0.0
  0
POINT
  5
663
  8
DEFPOINTS
  6
CONTINUOUS
 62
     0
 10
3518.067187663474
 20
438.5180515526446
 30
0.0
  0
POINT
  5
664
  8
DEFPOINTS
  6
CONTINUOUS
 62
     0
 10
3518.067187663474
 20
459.9180515526442
 30
0.0
  0
ENDBLK
  5
666
  8
0
  6
CONTINUOUS
 62
     5
  0
BLOCK
  8
0
  2
*D68
 70
     1
 10
0.0
 20
0.0
 30
0.0
  3
*D68
  1

  0
LINE
  5
668
  8
回07-寸法
  6
CONTINUOUS
 62
     5
 10
3509.417187663474
 20
240.9180515526444
 30
0.0
 11
3509.417187663474
 21
115.9273796953173
 31
0.0
  0
LINE
  5
669
  8
回07-寸法
  6
CONTINUOUS
 62
     5
 10
3647.819779691469
 20
141.4220999234554
 30
0.0
 11
3647.819779691469
 21
115.9273796953173
 31
0.0
  0
LINE
  5
66A
  8
回07-寸法
  6
CONTINUOUS
 62
     5
 10
3510.917187663474
 20
116.9273796953173
 30
0.0
 11
3646.319779691469
 21
116.9273796953173
 31
0.0
  0
INSERT
  5
66B
  8
回07-寸法
  6
CONTINUOUS
 62
     5
  2
_OPEN
 10
3509.417187663474
 20
116.9273796953173
 30
0.0
 41
1.5
 42
1.5
 43
1.5
 50
180.0
  0
INSERT
  5
66C
  8
回07-寸法
  6
CONTINUOUS
 62
     5
  2
_OPEN
 10
3647.819779691469
 20
116.9273796953173
 30
0.0
 41
1.5
 42
1.5
 43
1.5
  0
TEXT
  5
66D
  8
回07-寸法
  6
CONTINUOUS
 62
     5
 10
3572.918483677471
 20
117.5773796953174
 30
0.0
 40
3.0
  1
(138.4)
  0
POINT
  5
66E
  8
DEFPOINTS
  6
CONTINUOUS
 62
     0
 10
3509.417187663474
 20
240.9180515526444
 30
0.0
  0
POINT
  5
66F
  8
DEFPOINTS
  6
CONTINUOUS
 62
     0
 10
3647.819779691469
 20
141.4220999234554
 30
0.0
  0
POINT
  5
670
  8
DEFPOINTS
  6
CONTINUOUS
 62
     0
 10
3647.819779691469
 20
116.9273796953173
 30
0.0
  0
ENDBLK
  5
672
  8
0
  6
CONTINUOUS
 62
     5
  0
BLOCK
  8
0
  2
*D69
 70
     1
 10
0.0
 20
0.0
 30
0.0
  3
*D69
  1

  0
LINE
  5
674
  8
回07-寸法
  6
CONTINUOUS
 62
     5
 10
3618.819796081043
 20
141.4180515526445
 30
0.0
 11
3618.819796081043
 21
124.9220999234553
 31
0.0
  0
LINE
  5
675
  8
回07-寸法
  6
CONTINUOUS
 62
     5
 10
3509.417187663474
 20
240.9180515526442
 30
0.0
 11
3509.417187663474
 21
124.9220999234554
 31
0.0
  0
LINE
  5
676
  8
回07-寸法
  6
CONTINUOUS
 62
     5
 10
3617.319796081043
 20
125.9220999234553
 30
0.0
 11
3510.917187663474
 21
125.9220999234554
 31
0.0
  0
INSERT
  5
677
  8
回07-寸法
  6
CONTINUOUS
 62
     5
  2
_OPEN
 10
3618.819796081043
 20
125.9220999234553
 30
0.0
 41
1.5
 42
1.5
 43
1.5
 50
360.0
  0
INSERT
  5
678
  8
回07-寸法
  6
CONTINUOUS
 62
     5
  2
_OPEN
 10
3509.417187663474
 20
125.9220999234554
 30
0.0
 41
1.5
 42
1.5
 43
1.5
 50
180.0
  0
TEXT
  5
679
  8
回07-寸法
  6
CONTINUOUS
 62
     5
 10
3558.413076319468
 20
126.5720999234554
 30
0.0
 40
3.0
  1
(109.4)
  0
POINT
  5
67A
  8
DEFPOINTS
  6
CONTINUOUS
 62
     0
 10
3618.819796081043
 20
141.4180515526445
 30
0.0
  0
POINT
  5
67B
  8
DEFPOINTS
  6
CONTINUOUS
 62
     0
 10
3509.417187663474
 20
240.9180515526442
 30
0.0
  0
POINT
  5
67C
  8
DEFPOINTS
  6
CONTINUOUS
 62
     0
 10
3509.417187663474
 20
125.9220999234554
 30
0.0
  0
ENDBLK
  5
67E
  8
0
  6
CONTINUOUS
 62
     5
  0
BLOCK
  8
0
  2
*D70
 70
     1
 10
0.0
 20
0.0
 30
0.0
  3
*D70
  1

  0
LINE
  5
680
  8
回07-寸法
  6
CONTINUOUS
 62
     5
 10
3515.417187663473
 20
251.1180515526443
 30
0.0
 11
3476.417187663475
 21
251.1180515526443
 31
0.0
  0
LINE
  5
681
  8
回07-寸法
  6
CONTINUOUS
 62
     5
 10
3509.417187663474
 20
240.9180515526444
 30
0.0
 11
3476.417187663475
 21
240.9180515526444
 31
0.0
  0
LINE
  5
682
  8
回07-寸法
  6
CONTINUOUS
 62
     5
 10
3477.417187663475
 20
239.4180515526444
 30
0.0
 11
3477.417187663475
 21
211.2628637435884
 31
0.0
  0
LINE
  5
683
  8
回07-寸法
  6
CONTINUOUS
 62
     5
 10
3477.417187663475
 20
251.1180515526443
 30
0.0
 11
3477.417187663475
 21
240.9180515526444
 31
0.0
  0
LINE
  5
684
  8
回07-寸法
  6
CONTINUOUS
 62
     5
 10
3477.417187663475
 20
252.6180515526443
 30
0.0
 11
3477.417187663475
 21
254.1180515526443
 31
0.0
  0
INSERT
  5
685
  8
回07-寸法
  6
CONTINUOUS
 62
     5
  2
_OPEN
 10
3477.417187663475
 20
251.1180515526443
 30
0.0
 41
1.5
 42
1.5
 43
1.5
 50
270.0
  0
INSERT
  5
686
  8
回07-寸法
  6
CONTINUOUS
 62
     5
  2
_OPEN
 10
3477.417187663475
 20
240.9180515526444
 30
0.0
 41
1.5
 42
1.5
 43
1.5
 50
90.0
  0
INSERT
  5
687
  8
回07-寸法
  6
CONTINUOUS
 62
     5
 66
     1
  2
*X104
 10
0.0
 20
0.0
 30
0.0
  0
SEQEND
  5
87F
  8
0
  6
CONTINUOUS
 62
     5
  0
POINT
  5
688
  8
DEFPOINTS
  6
CONTINUOUS
 62
     0
 10
3515.417187663473
 20
251.1180515526443
 30
0.0
  0
POINT
  5
689
  8
DEFPOINTS
  6
CONTINUOUS
 62
     0
 10
3509.417187663474
 20
240.9180515526444
 30
0.0
  0
POINT
  5
68A
  8
DEFPOINTS
  6
CONTINUOUS
 62
     0
 10
3477.417187663475
 20
240.9180515526444
 30
0.0
  0
ENDBLK
  5
68C
  8
0
  6
CONTINUOUS
 62
     5
  0
BLOCK
  8
0
  2
*D71
 70
     1
 10
0.0
 20
0.0
 30
0.0
  3
*D71
  1

  0
LINE
  5
68E
  8
回07-寸法
  6
CONTINUOUS
 62
     5
 10
3518.067187663474
 20
254.0180515526443
 30
0.0
 11
3492.417187663475
 21
254.0180515526443
 31
0.0
  0
LINE
  5
68F
  8
回07-寸法
  6
CONTINUOUS
 62
     5
 10
3509.417187663474
 20
240.9180515526444
 30
0.0
 11
3492.417187663475
 21
240.9180515526444
 31
0.0
  0
LINE
  5
690
  8
回07-寸法
  6
CONTINUOUS
 62
     5
 10
3493.417187663475
 20
239.4180515526444
 30
0.0
 11
3493.417187663475
 21
229.5144981620513
 31
0.0
  0
LINE
  5
691
  8
回07-寸法
  6
CONTINUOUS
 62
     5
 10
3493.417187663475
 20
254.0180515526443
 30
0.0
 11
3493.417187663475
 21
240.9180515526444
 31
0.0
  0
LINE
  5
692
  8
回07-寸法
  6
CONTINUOUS
 62
     5
 10
3493.417187663475
 20
255.5180515526443
 30
0.0
 11
3493.417187663475
 21
257.0180515526443
 31
0.0
  0
INSERT
  5
693
  8
回07-寸法
  6
CONTINUOUS
 62
     5
  2
_OPEN
 10
3493.417187663475
 20
254.0180515526443
 30
0.0
 41
1.5
 42
1.5
 43
1.5
 50
270.0
  0
INSERT
  5
694
  8
回07-寸法
  6
CONTINUOUS
 62
     5
  2
_OPEN
 10
3493.417187663475
 20
240.9180515526444
 30
0.0
 41
1.5
 42
1.5
 43
1.5
 50
90.0
  0
TEXT
  5
695
  8
回07-寸法
  6
CONTINUOUS
 62
     5
 10
3492.917187663475
 20
229.5644981620517
 30
0.0
 40
3.0
  1
13.1
 50
90.0
  0
POINT
  5
696
  8
DEFPOINTS
  6
CONTINUOUS
 62
     0
 10
3518.067187663474
 20
254.0180515526443
 30
0.0
  0
POINT
  5
697
  8
DEFPOINTS
  6
CONTINUOUS
 62
     0
 10
3509.417187663474
 20
240.9180515526444
 30
0.0
  0
POINT
  5
698
  8
DEFPOINTS
  6
CONTINUOUS
 62
     0
 10
3493.417187663475
 20
240.9180515526444
 30
0.0
  0
ENDBLK
  5
69A
  8
0
  6
CONTINUOUS
 62
     5
  0
BLOCK
  8
0
  2
*D72
 70
     1
 10
0.0
 20
0.0
 30
0.0
  3
*D72
  1

  0
LINE
  5
69C
  8
回07-寸法
  6
CONTINUOUS
 62
     5
 10
3515.917187663474
 20
251.6180515526443
 30
0.0
 11
3484.417187663475
 21
251.6180515526443
 31
0.0
  0
LINE
  5
69D
  8
回07-寸法
  6
CONTINUOUS
 62
     5
 10
3509.417187663474
 20
240.9180515526444
 30
0.0
 11
3484.417187663475
 21
240.9180515526444
 31
0.0
  0
LINE
  5
69E
  8
回07-寸法
  6
CONTINUOUS
 62
     5
 10
3485.417187663474
 20
239.4180515526444
 30
0.0
 11
3485.417187663474
 21
229.8180515526446
 31
0.0
  0
LINE
  5
69F
  8
回07-寸法
  6
CONTINUOUS
 62
     5
 10
3485.417187663474
 20
251.6180515526443
 30
0.0
 11
3485.417187663474
 21
240.9180515526444
 31
0.0
  0
LINE
  5
6A0
  8
回07-寸法
  6
CONTINUOUS
 62
     5
 10
3485.417187663474
 20
253.1180515526443
 30
0.0
 11
3485.417187663474
 21
254.6180515526443
 31
0.0
  0
INSERT
  5
6A1
  8
回07-寸法
  6
CONTINUOUS
 62
     5
  2
_OPEN
 10
3485.417187663474
 20
251.6180515526443
 30
0.0
 41
1.5
 42
1.5
 43
1.5
 50
270.0
  0
INSERT
  5
6A2
  8
回07-寸法
  6
CONTINUOUS
 62
     5
  2
_OPEN
 10
3485.417187663474
 20
240.9180515526444
 30
0.0
 41
1.5
 42
1.5
 43
1.5
 50
90.0
  0
TEXT
  5
6A3
  8
回07-寸法
  6
CONTINUOUS
 62
     5
 10
3484.917187663475
 20
229.8680515526448
 30
0.0
 40
3.0
  1
10.7
 50
90.0
  0
POINT
  5
6A4
  8
DEFPOINTS
  6
CONTINUOUS
 62
     0
 10
3515.917187663474
 20
251.6180515526443
 30
0.0
  0
POINT
  5
6A5
  8
DEFPOINTS
  6
CONTINUOUS
 62
     0
 10
3509.417187663474
 20
240.9180515526444
 30
0.0
  0
POINT
  5
6A6
  8
DEFPOINTS
  6
CONTINUOUS
 62
     0
 10
3485.417187663474
 20
240.9180515526444
 30
0.0
  0
ENDBLK
  5
6A8
  8
0
  6
CONTINUOUS
 62
     5
  0
BLOCK
  8
0
  2
*D73
 70
     1
 10
0.0
 20
0.0
 30
0.0
  3
*D73
  1

  0
LINE
  5
6AA
  8
回07-寸法
  6
CONTINUOUS
 62
     5
 10
3515.417187663473
 20
251.1180515526443
 30
0.0
 11
3476.417187663475
 21
251.1180515526443
 31
0.0
  0
LINE
  5
6AB
  8
回07-寸法
  6
CONTINUOUS
 62
     5
 10
3515.417187663473
 20
441.4180515526442
 30
0.0
 11
3476.417187663475
 21
441.4180515526442
 31
0.0
  0
LINE
  5
6AC
  8
回07-寸法
  6
CONTINUOUS
 62
     5
 10
3477.417187663475
 20
252.6180515526443
 30
0.0
 11
3477.417187663475
 21
439.9180515526443
 31
0.0
  0
INSERT
  5
6AD
  8
回07-寸法
  6
CONTINUOUS
 62
     5
  2
_OPEN
 10
3477.417187663475
 20
251.1180515526443
 30
0.0
 41
1.5
 42
1.5
 43
1.5
 50
270.0
  0
INSERT
  5
6AE
  8
回07-寸法
  6
CONTINUOUS
 62
     5
  2
_OPEN
 10
3477.417187663475
 20
441.4180515526442
 30
0.0
 41
1.5
 42
1.5
 43
1.5
 50
90.0
  0
TEXT
  5
6AF
  8
回07-寸法
  6
CONTINUOUS
 62
     5
 10
3476.917187663476
 20
341.9126359998541
 30
0.0
 40
3.0
  1
190.3
 50
90.0
  0
POINT
  5
6B0
  8
DEFPOINTS
  6
CONTINUOUS
 62
     0
 10
3515.417187663473
 20
251.1180515526443
 30
0.0
  0
POINT
  5
6B1
  8
DEFPOINTS
  6
CONTINUOUS
 62
     0
 10
3515.417187663473
 20
441.4180515526442
 30
0.0
  0
POINT
  5
6B2
  8
DEFPOINTS
  6
CONTINUOUS
 62
     0
 10
3477.417187663475
 20
441.4180515526442
 30
0.0
  0
ENDBLK
  5
6B4
  8
0
  6
CONTINUOUS
 62
     5
  0
BLOCK
  8
0
  2
*D74
 70
     1
 10
0.0
 20
0.0
 30
0.0
  3
*D74
  1

  0
LINE
  5
6B6
  8
回07-寸法
  6
CONTINUOUS
 62
     5
 10
3509.417187663474
 20
447.9180515526443
 30
0.0
 11
3468.417187663474
 21
447.9180515526443
 31
0.0
  0
LINE
  5
6B7
  8
回07-寸法
  6
CONTINUOUS
 62
     5
 10
3509.417187663474
 20
240.9180515526444
 30
0.0
 11
3468.417187663474
 21
240.9180515526444
 31
0.0
  0
LINE
  5
6B8
  8
回07-寸法
  6
CONTINUOUS
 62
     5
 10
3469.417187663474
 20
446.4180515526442
 30
0.0
 11
3469.417187663474
 21
242.4180515526444
 31
0.0
  0
INSERT
  5
6B9
  8
回07-寸法
  6
CONTINUOUS
 62
     5
  2
_OPEN
 10
3469.417187663474
 20
447.9180515526443
 30
0.0
 41
1.5
 42
1.5
 43
1.5
 50
90.0
  0
INSERT
  5
6BA
  8
回07-寸法
  6
CONTINUOUS
 62
     5
  2
_OPEN
 10
3469.417187663474
 20
240.9180515526444
 30
0.0
 41
1.5
 42
1.5
 43
1.5
 50
270.0
  0
INSERT
  5
6BB
  8
回07-寸法
  6
CONTINUOUS
 62
     5
 66
     1
  2
*X105
 10
0.0
 20
0.0
 30
0.0
  0
SEQEND
  5
885
  8
0
  6
CONTINUOUS
 62
     5
  0
POINT
  5
6BC
  8
DEFPOINTS
  6
CONTINUOUS
 62
     0
 10
3509.417187663474
 20
447.9180515526443
 30
0.0
  0
POINT
  5
6BD
  8
DEFPOINTS
  6
CONTINUOUS
 62
     0
 10
3509.417187663474
 20
240.9180515526444
 30
0.0
  0
POINT
  5
6BE
  8
DEFPOINTS
  6
CONTINUOUS
 62
     0
 10
3469.417187663474
 20
240.9180515526444
 30
0.0
  0
ENDBLK
  5
6C0
  8
0
  6
CONTINUOUS
 62
     5
  0
BLOCK
  8
0
  2
*D75
 70
     1
 10
0.0
 20
0.0
 30
0.0
  3
*D75
  1

  0
LINE
  5
6C2
  8
回07-寸法
  6
CONTINUOUS
 62
     5
 10
3515.917187663474
 20
440.9180515526442
 30
0.0
 11
3484.417187663475
 21
440.9180515526442
 31
0.0
  0
LINE
  5
6C3
  8
回07-寸法
  6
CONTINUOUS
 62
     5
 10
3515.917187663474
 20
251.6180515526443
 30
0.0
 11
3484.417187663475
 21
251.6180515526443
 31
0.0
  0
LINE
  5
6C4
  8
回07-寸法
  6
CONTINUOUS
 62
     5
 10
3485.417187663474
 20
439.4180515526442
 30
0.0
 11
3485.417187663474
 21
253.1180515526443
 31
0.0
  0
INSERT
  5
6C5
  8
回07-寸法
  6
CONTINUOUS
 62
     5
  2
_OPEN
 10
3485.417187663474
 20
440.9180515526442
 30
0.0
 41
1.5
 42
1.5
 43
1.5
 50
90.0
  0
INSERT
  5
6C6
  8
回07-寸法
  6
CONTINUOUS
 62
     5
  2
_OPEN
 10
3485.417187663474
 20
251.6180515526443
 30
0.0
 41
1.5
 42
1.5
 43
1.5
 50
270.0
  0
TEXT
  5
6C7
  8
回07-寸法
  6
CONTINUOUS
 62
     5
 10
3484.167187663475
 20
328.7132265510349
 30
0.0
 40
3.0
  1
189.3(Viewing Area)
 50
90.0
  0
POINT
  5
6C8
  8
DEFPOINTS
  6
CONTINUOUS
 62
     0
 10
3515.917187663474
 20
440.9180515526442
 30
0.0
  0
POINT
  5
6C9
  8
DEFPOINTS
  6
CONTINUOUS
 62
     0
 10
3515.917187663474
 20
251.6180515526443
 30
0.0
  0
POINT
  5
6CA
  8
DEFPOINTS
  6
CONTINUOUS
 62
     0
 10
3485.417187663474
 20
251.6180515526443
 30
0.0
  0
ENDBLK
  5
6CC
  8
0
  6
CONTINUOUS
 62
     5
  0
BLOCK
  8
0
  2
*D76
 70
     1
 10
0.0
 20
0.0
 30
0.0
  3
*D76
  1

  0
LINE
  5
6CE
  8
回07-寸法
  6
CONTINUOUS
 62
     5
 10
3518.067187663474
 20
254.0180515526445
 30
0.0
 11
3492.417187663475
 21
254.0180515526445
 31
0.0
  0
LINE
  5
6CF
  8
回07-寸法
  6
CONTINUOUS
 62
     5
 10
3518.067187663474
 20
438.5180515526442
 30
0.0
 11
3492.417187663475
 21
438.5180515526442
 31
0.0
  0
LINE
  5
6D0
  8
回07-寸法
  6
CONTINUOUS
 62
     5
 10
3493.417187663475
 20
255.5180515526445
 30
0.0
 11
3493.417187663475
 21
437.0180515526443
 31
0.0
  0
INSERT
  5
6D1
  8
回07-寸法
  6
CONTINUOUS
 62
     5
  2
_OPEN
 10
3493.417187663475
 20
254.0180515526445
 30
0.0
 41
1.5
 42
1.5
 43
1.5
 50
270.0
  0
INSERT
  5
6D2
  8
回07-寸法
  6
CONTINUOUS
 62
     5
  2
_OPEN
 10
3493.417187663475
 20
438.5180515526442
 30
0.0
 41
1.5
 42
1.5
 43
1.5
 50
90.0
  0
TEXT
  5
6D3
  8
回07-寸法
  6
CONTINUOUS
 62
     5
 10
3492.767187663475
 20
329.6186421038255
 30
0.0
 40
3.0
  1
184.5(Active Area)
 50
90.0
  0
POINT
  5
6D4
  8
DEFPOINTS
  6
CONTINUOUS
 62
     0
 10
3518.067187663474
 20
254.0180515526445
 30
0.0
  0
POINT
  5
6D5
  8
DEFPOINTS
  6
CONTINUOUS
 62
     0
 10
3518.067187663474
 20
438.5180515526442
 30
0.0
  0
POINT
  5
6D6
  8
DEFPOINTS
  6
CONTINUOUS
 62
     0
 10
3493.417187663475
 20
438.5180515526442
 30
0.0
  0
ENDBLK
  5
6D8
  8
0
  6
CONTINUOUS
 62
     5
  0
BLOCK
  8
0
  2
*X77
 70
     1
 10
0.0
 20
0.0
 30
0.0
  3
*X77
  1

  0
LINE
  5
76E
  8
回08-記事
  6
PHANTOM2
 62
     7
 10
3641.916675243766
 20
237.2863378522517
 30
0.0
 11
3641.570905006918
 21
237.6321080891001
 31
0.0
1001
GradientColor1ACI
1070
     5
1001
GradientColor2ACI
1070
     2
1001
ACAD
1010
0.0
1020
0.0
1030
0.0
  0
LINE
  5
76F
  8
回08-記事
  6
PHANTOM2
 62
     7
 10
3644.161739274033
 20
237.2863378522521
 30
0.0
 11
3641.570905006918
 21
239.8771721193676
 31
0.0
1001
GradientColor1ACI
1070
     5
1001
GradientColor2ACI
1070
     2
1001
ACAD
1010
0.0
1020
0.0
1030
0.0
  0
LINE
  5
770
  8
回08-記事
  6
PHANTOM2
 62
     7
 10
3646.406803304302
 20
237.2863378522516
 30
0.0
 11
3641.570905006918
 21
242.1222361496351
 31
0.0
1001
GradientColor1ACI
1070
     5
1001
GradientColor2ACI
1070
     2
1001
ACAD
1010
0.0
1020
0.0
1030
0.0
  0
LINE
  5
771
  8
回08-記事
  6
PHANTOM2
 62
     7
 10
3648.651867334569
 20
237.2863378522524
 30
0.0
 11
3641.570905006918
 21
244.3673001799025
 31
0.0
1001
GradientColor1ACI
1070
     5
1001
GradientColor2ACI
1070
     2
1001
ACAD
1010
0.0
1020
0.0
1030
0.0
  0
LINE
  5
772
  8
回08-記事
  6
PHANTOM2
 62
     7
 10
3650.896931364836
 20
237.2863378522519
 30
0.0
 11
3643.696931364836
 21
244.4863378522524
 31
0.0
1001
GradientColor1ACI
1070
     5
1001
GradientColor2ACI
1070
     2
1001
ACAD
1010
0.0
1020
0.0
1030
0.0
  0
LINE
  5
773
  8
回08-記事
  6
PHANTOM2
 62
     7
 10
3653.141995395104
 20
237.2863378522519
 30
0.0
 11
3645.941995395104
 21
244.4863378522522
 31
0.0
1001
GradientColor1ACI
1070
     5
1001
GradientColor2ACI
1070
     2
1001
ACAD
1010
0.0
1020
0.0
1030
0.0
  0
LINE
  5
774
  8
回08-記事
  6
PHANTOM2
 62
     7
 10
3655.387059425371
 20
237.2863378522521
 30
0.0
 11
3648.187059425371
 21
244.4863378522524
 31
0.0
1001
GradientColor1ACI
1070
     5
1001
GradientColor2ACI
1070
     2
1001
ACAD
1010
0.0
1020
0.0
1030
0.0
  0
LINE
  5
775
  8
回08-記事
  6
PHANTOM2
 62
     7
 10
3657.632123455638
 20
237.2863378522525
 30
0.0
 11
3650.432123455638
 21
244.4863378522523
 31
0.0
1001
GradientColor1ACI
1070
     5
1001
GradientColor2ACI
1070
     2
1001
ACAD
1010
0.0
1020
0.0
1030
0.0
  0
LINE
  5
776
  8
回08-記事
  6
PHANTOM2
 62
     7
 10
3659.877187485906
 20
237.286337852252
 30
0.0
 11
3652.677187485906
 21
244.4863378522522
 31
0.0
1001
GradientColor1ACI
1070
     5
1001
GradientColor2ACI
1070
     2
1001
ACAD
1010
0.0
1020
0.0
1030
0.0
  0
LINE
  5
777
  8
回08-記事
  6
PHANTOM2
 62
     7
 10
3662.122251516173
 20
237.2863378522521
 30
0.0
 11
3654.922251516173
 21
244.4863378522523
 31
0.0
1001
GradientColor1ACI
1070
     5
1001
GradientColor2ACI
1070
     2
1001
ACAD
1010
0.0
1020
0.0
1030
0.0
  0
LINE
  5
778
  8
回08-記事
  6
PHANTOM2
 62
     7
 10
3664.367315546441
 20
237.2863378522521
 30
0.0
 11
3657.16731554644
 21
244.4863378522521
 31
0.0
1001
GradientColor1ACI
1070
     5
1001
GradientColor2ACI
1070
     2
1001
ACAD
1010
0.0
1020
0.0
1030
0.0
  0
LINE
  5
779
  8
回08-記事
  6
PHANTOM2
 62
     7
 10
3666.612379576708
 20
237.2863378522521
 30
0.0
 11
3659.412379576707
 21
244.4863378522526
 31
0.0
1001
GradientColor1ACI
1070
     5
1001
GradientColor2ACI
1070
     2
1001
ACAD
1010
0.0
1020
0.0
1030
0.0
  0
LINE
  5
77A
  8
回08-記事
  6
PHANTOM2
 62
     7
 10
3667.570905006918
 20
238.5728764523101
 30
0.0
 11
3661.657443606975
 21
244.4863378522521
 31
0.0
1001
GradientColor1ACI
1070
     5
1001
GradientColor2ACI
1070
     2
1001
ACAD
1010
0.0
1020
0.0
1030
0.0
  0
LINE
  5
77B
  8
回08-記事
  6
PHANTOM2
 62
     7
 10
3667.570905006918
 20
240.8179404825776
 30
0.0
 11
3663.902507637243
 21
244.4863378522522
 31
0.0
1001
GradientColor1ACI
1070
     5
1001
GradientColor2ACI
1070
     2
1001
ACAD
1010
0.0
1020
0.0
1030
0.0
  0
LINE
  5
77C
  8
回08-記事
  6
PHANTOM2
 62
     7
 10
3667.570905006918
 20
243.0630045128449
 30
0.0
 11
3666.147571667511
 21
244.4863378522521
 31
0.0
1001
GradientColor1ACI
1070
     5
1001
GradientColor2ACI
1070
     2
1001
ACAD
1010
0.0
1020
0.0
1030
0.0
  0
ENDBLK
  5
77E
  8
0
  6
CONTINUOUS
 62
     5
  0
BLOCK
  8
0
  2
*X78
 70
     1
 10
0.0
 20
0.0
 30
0.0
  3
*X78
  1

  0
LINE
  5
781
  8
回08-記事
  6
PHANTOM2
 62
     7
 10
3605.995650759489
 20
237.2863378522514
 30
0.0
 11
3605.570905006918
 21
237.7110836048231
 31
0.0
1001
GradientColor1ACI
1070
     5
1001
GradientColor2ACI
1070
     2
1001
ACAD
1010
0.0
1020
0.0
1030
0.0
  0
LINE
  5
782
  8
回08-記事
  6
PHANTOM2
 62
     7
 10
3608.240714789757
 20
237.2863378522517
 30
0.0
 11
3605.570905006918
 21
239.956147635091
 31
0.0
1001
GradientColor1ACI
1070
     5
1001
GradientColor2ACI
1070
     2
1001
ACAD
1010
0.0
1020
0.0
1030
0.0
  0
LINE
  5
783
  8
回08-記事
  6
PHANTOM2
 62
     7
 10
3610.485778820024
 20
237.2863378522518
 30
0.0
 11
3605.570905006918
 21
242.2012116653583
 31
0.0
1001
GradientColor1ACI
1070
     5
1001
GradientColor2ACI
1070
     2
1001
ACAD
1010
0.0
1020
0.0
1030
0.0
  0
LINE
  5
784
  8
回08-記事
  6
PHANTOM2
 62
     7
 10
3612.730842850292
 20
237.2863378522521
 30
0.0
 11
3605.570905006918
 21
244.4462756956255
 31
0.0
1001
GradientColor1ACI
1070
     5
1001
GradientColor2ACI
1070
     2
1001
ACAD
1010
0.0
1020
0.0
1030
0.0
  0
LINE
  5
785
  8
回08-記事
  6
PHANTOM2
 62
     7
 10
3614.975906880559
 20
237.2863378522518
 30
0.0
 11
3607.775906880558
 21
244.4863378522523
 31
0.0
1001
GradientColor1ACI
1070
     5
1001
GradientColor2ACI
1070
     2
1001
ACAD
1010
0.0
1020
0.0
1030
0.0
  0
LINE
  5
786
  8
回08-記事
  6
PHANTOM2
 62
     7
 10
3617.220970910826
 20
237.2863378522521
 30
0.0
 11
3610.020970910826
 21
244.4863378522524
 31
0.0
1001
GradientColor1ACI
1070
     5
1001
GradientColor2ACI
1070
     2
1001
ACAD
1010
0.0
1020
0.0
1030
0.0
  0
LINE
  5
787
  8
回08-記事
  6
PHANTOM2
 62
     7
 10
3619.466034941093
 20
237.2863378522519
 30
0.0
 11
3612.266034941093
 21
244.4863378522518
 31
0.0
1001
GradientColor1ACI
1070
     5
1001
GradientColor2ACI
1070
     2
1001
ACAD
1010
0.0
1020
0.0
1030
0.0
  0
LINE
  5
788
  8
回08-記事
  6
PHANTOM2
 62
     7
 10
3621.711098971361
 20
237.2863378522521
 30
0.0
 11
3614.511098971361
 21
244.4863378522521
 31
0.0
1001
GradientColor1ACI
1070
     5
1001
GradientColor2ACI
1070
     2
1001
ACAD
1010
0.0
1020
0.0
1030
0.0
  0
LINE
  5
789
  8
回08-記事
  6
PHANTOM2
 62
     7
 10
3623.956163001628
 20
237.2863378522521
 30
0.0
 11
3616.756163001629
 21
244.4863378522519
 31
0.0
1001
GradientColor1ACI
1070
     5
1001
GradientColor2ACI
1070
     2
1001
ACAD
1010
0.0
1020
0.0
1030
0.0
  0
LINE
  5
78A
  8
回08-記事
  6
PHANTOM2
 62
     7
 10
3626.201227031895
 20
237.2863378522524
 30
0.0
 11
3619.001227031896
 21
244.4863378522522
 31
0.0
1001
GradientColor1ACI
1070
     5
1001
GradientColor2ACI
1070
     2
1001
ACAD
1010
0.0
1020
0.0
1030
0.0
  0
LINE
  5
78B
  8
回08-記事
  6
PHANTOM2
 62
     7
 10
3628.446291062163
 20
237.2863378522518
 30
0.0
 11
3621.246291062163
 21
244.4863378522519
 31
0.0
1001
GradientColor1ACI
1070
     5
1001
GradientColor2ACI
1070
     2
1001
ACAD
1010
0.0
1020
0.0
1030
0.0
  0
LINE
  5
78C
  8
回08-記事
  6
PHANTOM2
 62
     7
 10
3630.691355092432
 20
237.2863378522519
 30
0.0
 11
3623.491355092431
 21
244.4863378522521
 31
0.0
1001
GradientColor1ACI
1070
     5
1001
GradientColor2ACI
1070
     2
1001
ACAD
1010
0.0
1020
0.0
1030
0.0
  0
LINE
  5
78D
  8
回08-記事
  6
PHANTOM2
 62
     7
 10
3632.936419122699
 20
237.2863378522518
 30
0.0
 11
3625.736419122699
 21
244.4863378522519
 31
0.0
1001
GradientColor1ACI
1070
     5
1001
GradientColor2ACI
1070
     2
1001
ACAD
1010
0.0
1020
0.0
1030
0.0
  0
LINE
  5
78E
  8
回08-記事
  6
PHANTOM2
 62
     7
 10
3635.181483152966
 20
237.2863378522521
 30
0.0
 11
3627.981483152966
 21
244.4863378522524
 31
0.0
1001
GradientColor1ACI
1070
     5
1001
GradientColor2ACI
1070
     2
1001
ACAD
1010
0.0
1020
0.0
1030
0.0
  0
LINE
  5
78F
  8
回08-記事
  6
PHANTOM2
 62
     7
 10
3637.426547183233
 20
237.2863378522519
 30
0.0
 11
3630.226547183234
 21
244.4863378522518
 31
0.0
1001
GradientColor1ACI
1070
     5
1001
GradientColor2ACI
1070
     2
1001
ACAD
1010
0.0
1020
0.0
1030
0.0
  0
LINE
  5
790
  8
回08-記事
  6
PHANTOM2
 62
     7
 10
3639.570905006916
 20
237.3870440588361
 30
0.0
 11
3632.471611213501
 21
244.4863378522521
 31
0.0
1001
GradientColor1ACI
1070
     5
1001
GradientColor2ACI
1070
     2
1001
ACAD
1010
0.0
1020
0.0
1030
0.0
  0
LINE
  5
791
  8
回08-記事
  6
PHANTOM2
 62
     7
 10
3639.570905006918
 20
239.6321080891028
 30
0.0
 11
3634.716675243768
 21
244.4863378522523
 31
0.0
1001
GradientColor1ACI
1070
     5
1001
GradientColor2ACI
1070
     2
1001
ACAD
1010
0.0
1020
0.0
1030
0.0
  0
LINE
  5
792
  8
回08-記事
  6
PHANTOM2
 62
     7
 10
3639.570905006917
 20
241.8771721193708
 30
0.0
 11
3636.961739274036
 21
244.4863378522518
 31
0.0
1001
GradientColor1ACI
1070
     5
1001
GradientColor2ACI
1070
     2
1001
ACAD
1010
0.0
1020
0.0
1030
0.0
  0
LINE
  5
793
  8
回08-記事
  6
PHANTOM2
 62
     7
 10
3639.570905006917
 20
244.1222361496383
 30
0.0
 11
3639.206803304303
 21
244.4863378522519
 31
0.0
1001
GradientColor1ACI
1070
     5
1001
GradientColor2ACI
1070
     2
1001
ACAD
1010
0.0
1020
0.0
1030
0.0
  0
ENDBLK
  5
795
  8
0
  6
CONTINUOUS
 62
     5
  0
BLOCK
  8
0
  2
*X79
 70
     1
 10
0.0
 20
0.0
 30
0.0
  3
*X79
  1

  0
LINE
  5
798
  8
回08-記事
  6
CONTINUOUS
 62
     7
 10
3804.432465100732
 20
240.2386620844573
 30
0.0
 11
3805.411854568919
 21
241.2180515526442
 31
0.0
1001
GradientColor1ACI
1070
     5
1001
GradientColor2ACI
1070
     2
1001
ACAD
1010
0.0
1020
0.0
1030
0.0
  0
LINE
  5
799
  8
回08-記事
  6
CONTINUOUS
 62
     7
 10
3804.432465100732
 20
238.8916236662974
 30
0.0
 11
3805.132465100733
 21
239.591623666298
 31
0.0
1001
GradientColor1ACI
1070
     5
1001
GradientColor2ACI
1070
     2
1001
ACAD
1010
0.0
1020
0.0
1030
0.0
  0
LINE
  5
79A
  8
回08-記事
  6
CONTINUOUS
 62
     7
 10
3805.75889298708
 20
240.2180515526449
 30
0.0
 11
3806.75889298708
 21
241.2180515526447
 31
0.0
1001
GradientColor1ACI
1070
     5
1001
GradientColor2ACI
1070
     2
1001
ACAD
1010
0.0
1020
0.0
1030
0.0
  0
LINE
  5
79B
  8
回08-記事
  6
CONTINUOUS
 62
     7
 10
3804.432465100732
 20
237.5445852481371
 30
0.0
 11
3805.132465100733
 21
238.2445852481381
 31
0.0
1001
GradientColor1ACI
1070
     5
1001
GradientColor2ACI
1070
     2
1001
ACAD
1010
0.0
1020
0.0
1030
0.0
  0
LINE
  5
79C
  8
回08-記事
  6
CONTINUOUS
 62
     7
 10
3807.10593140524
 20
240.2180515526448
 30
0.0
 11
3808.10593140524
 21
241.218051552645
 31
0.0
1001
GradientColor1ACI
1070
     5
1001
GradientColor2ACI
1070
     2
1001
ACAD
1010
0.0
1020
0.0
1030
0.0
  0
LINE
  5
79D
  8
回08-記事
  6
CONTINUOUS
 62
     7
 10
3808.4529698234
 20
240.2180515526444
 30
0.0
 11
3809.4529698234
 21
241.2180515526446
 31
0.0
1001
GradientColor1ACI
1070
     5
1001
GradientColor2ACI
1070
     2
1001
ACAD
1010
0.0
1020
0.0
1030
0.0
  0
LINE
  5
79E
  8
回08-記事
  6
CONTINUOUS
 62
     7
 10
3809.800008241559
 20
240.2180515526446
 30
0.0
 11
3810.80000824156
 21
241.2180515526448
 31
0.0
1001
GradientColor1ACI
1070
     5
1001
GradientColor2ACI
1070
     2
1001
ACAD
1010
0.0
1020
0.0
1030
0.0
  0
LINE
  5
79F
  8
回08-記事
  6
CONTINUOUS
 62
     7
 10
3811.14704665972
 20
240.2180515526442
 30
0.0
 11
3812.14704665972
 21
241.2180515526447
 31
0.0
1001
GradientColor1ACI
1070
     5
1001
GradientColor2ACI
1070
     2
1001
ACAD
1010
0.0
1020
0.0
1030
0.0
  0
LINE
  5
7A0
  8
回08-記事
  6
CONTINUOUS
 62
     7
 10
3814.025649319703
 20
240.4025773763069
 30
0.0
 11
3814.541123496041
 21
240.9180515526444
 31
0.0
1001
GradientColor1ACI
1070
     5
1001
GradientColor2ACI
1070
     2
1001
ACAD
1010
0.0
1020
0.0
1030
0.0
  0
LINE
  5
7A1
  8
回08-記事
  6
CONTINUOUS
 62
     7
 10
3814.025649319703
 20
239.0555389581466
 30
0.0
 11
3814.725649319703
 21
239.7555389581467
 31
0.0
1001
GradientColor1ACI
1070
     5
1001
GradientColor2ACI
1070
     2
1001
ACAD
1010
0.0
1020
0.0
1030
0.0
  0
LINE
  5
7A2
  8
回08-記事
  6
CONTINUOUS
 62
     7
 10
3815.188161914201
 20
240.2180515526445
 30
0.0
 11
3815.8881619142
 21
240.9180515526443
 31
0.0
1001
GradientColor1ACI
1070
     5
1001
GradientColor2ACI
1070
     2
1001
ACAD
1010
0.0
1020
0.0
1030
0.0
  0
LINE
  5
7A3
  8
回08-記事
  6
CONTINUOUS
 62
     7
 10
3814.025649319703
 20
237.7085005399867
 30
0.0
 11
3814.725649319703
 21
238.4085005399871
 31
0.0
1001
GradientColor1ACI
1070
     5
1001
GradientColor2ACI
1070
     2
1001
ACAD
1010
0.0
1020
0.0
1030
0.0
  0
LINE
  5
7A4
  8
回08-記事
  6
CONTINUOUS
 62
     7
 10
3816.535200332361
 20
240.2180515526445
 30
0.0
 11
3817.235200332361
 21
240.9180515526446
 31
0.0
1001
GradientColor1ACI
1070
     5
1001
GradientColor2ACI
1070
     2
1001
ACAD
1010
0.0
1020
0.0
1030
0.0
  0
LINE
  5
7A5
  8
回08-記事
  6
CONTINUOUS
 62
     7
 10
3820.325649319702
 20
244.0085005399859
 30
0.0
 11
3820.803486631968
 21
244.4863378522518
 31
0.0
1001
GradientColor1ACI
1070
     5
1001
GradientColor2ACI
1070
     2
1001
ACAD
1010
0.0
1020
0.0
1030
0.0
  0
LINE
  5
7A6
  8
回08-記事
  6
CONTINUOUS
 62
     7
 10
3817.882238750522
 20
240.2180515526444
 30
0.0
 11
3818.582238750521
 21
240.9180515526442
 31
0.0
1001
GradientColor1ACI
1070
     5
1001
GradientColor2ACI
1070
     2
1001
ACAD
1010
0.0
1020
0.0
1030
0.0
  0
LINE
  5
7A7
  8
回08-記事
  6
CONTINUOUS
 62
     7
 10
3820.325649319702
 20
242.6614621218256
 30
0.0
 11
3821.025649319703
 21
243.3614621218266
 31
0.0
1001
GradientColor1ACI
1070
     5
1001
GradientColor2ACI
1070
     2
1001
ACAD
1010
0.0
1020
0.0
1030
0.0
  0
LINE
  5
7A8
  8
回08-記事
  6
CONTINUOUS
 62
     7
 10
3819.229277168682
 20
240.2180515526447
 30
0.0
 11
3819.929277168681
 21
240.9180515526444
 31
0.0
1001
GradientColor1ACI
1070
     5
1001
GradientColor2ACI
1070
     2
1001
ACAD
1010
0.0
1020
0.0
1030
0.0
  0
LINE
  5
7A9
  8
回08-記事
  6
CONTINUOUS
 62
     7
 10
3820.325649319702
 20
241.3144237036656
 30
0.0
 11
3821.025649319704
 21
242.0144237036667
 31
0.0
1001
GradientColor1ACI
1070
     5
1001
GradientColor2ACI
1070
     2
1001
ACAD
1010
0.0
1020
0.0
1030
0.0
  0
LINE
  5
7AA
  8
回08-記事
  6
CONTINUOUS
 62
     7
 10
3820.576315586841
 20
240.2180515526442
 30
0.0
 11
3821.025649319704
 21
240.6673852855064
 31
0.0
1001
GradientColor1ACI
1070
     5
1001
GradientColor2ACI
1070
     2
1001
ACAD
1010
0.0
1020
0.0
1030
0.0
  0
ENDBLK
  5
7AC
  8
0
  6
CONTINUOUS
 62
     5
  0
BLOCK
  8
0
  2
*X80
 70
     1
 10
0.0
 20
0.0
 30
0.0
  3
*X80
  1

  0
TEXT
  5
7EB
  8
回07-寸法
  6
CONTINUOUS
 62
     5
 10
3587.530009105557
 20
255.8398367361319
 30
0.0
 40
3.0
  1
100
 50
90.0
  0
TEXT
  5
7EC
  8
回07-寸法
  6
CONTINUOUS
 62
     5
 10
3587.530009105557
 20
261.5398367361318
 30
0.0
 40
2.1
  1
±0.1
 50
90.0
  0
ENDBLK
  5
7EE
  8
0
  6
CONTINUOUS
 62
     5
  0
BLOCK
  8
0
  2
*X81
 70
     1
 10
0.0
 20
0.0
 30
0.0
  3
*X81
  1

  0
TEXT
  5
7F1
  8
回07-寸法
  6
CONTINUOUS
 62
     5
 10
3658.61914061773
 20
186.5786890642104
 30
0.0
 40
3.0
  1
13.5
  0
TEXT
  5
7F2
  8
回07-寸法
  6
CONTINUOUS
 62
     5
 10
3665.21914061773
 20
186.5786890642104
 30
0.0
 40
2.1
  1
±0.1
  0
ENDBLK
  5
7F4
  8
0
  6
CONTINUOUS
 62
     5
  0
BLOCK
  8
0
  2
*X82
 70
     1
 10
0.0
 20
0.0
 30
0.0
  3
*X82
  1

  0
TEXT
  5
7F7
  8
回07-寸法
  6
CONTINUOUS
 62
     5
 10
3631.61914061773
 20
195.5734092923484
 30
0.0
 40
3.0
  1
17.5
  0
TEXT
  5
7F8
  8
回07-寸法
  6
CONTINUOUS
 62
     5
 10
3638.21914061773
 20
195.5734092923484
 30
0.0
 40
2.1
  1
±0.1
  0
ENDBLK
  5
7FA
  8
0
  6
CONTINUOUS
 62
     5
  0
BLOCK
  8
0
  2
*X83
 70
     1
 10
0.0
 20
0.0
 30
0.0
  3
*X83
  1

  0
TEXT
  5
7FD
  8
回07-寸法
  6
CONTINUOUS
 62
     5
 10
3697.843077525603
 20
254.8438851069422
 30
0.0
 40
3.0
  1
100
 50
90.0
  0
TEXT
  5
7FE
  8
回07-寸法
  6
CONTINUOUS
 62
     5
 10
3697.843077525603
 20
260.5438851069421
 30
0.0
 40
2.1
  1
±0.1
 50
90.0
  0
ENDBLK
  5
800
  8
0
  6
CONTINUOUS
 62
     5
  0
BLOCK
  8
0
  2
*X84
 70
     1
 10
0.0
 20
0.0
 30
0.0
  3
*X84
  1

  0
TEXT
  5
803
  8
回07-寸法
  6
CONTINUOUS
 62
     5
 10
3478.644048589735
 20
407.8318609215375
 30
0.0
 40
3.0
  1
207
 50
90.0
  0
TEXT
  5
804
  8
回07-寸法
  6
CONTINUOUS
 62
     5
 10
3478.644048589735
 20
414.1318609215377
 30
0.0
 40
2.1
  1
±0.3
 50
90.0
  0
ENDBLK
  5
806
  8
0
  6
CONTINUOUS
 62
     5
  0
BLOCK
  8
0
  2
*X85
 70
     1
 10
0.0
 20
0.0
 30
0.0
  3
*X85
  1

  0
TEXT
  5
809
  8
回07-寸法
  6
CONTINUOUS
 62
     5
 10
3486.544043589736
 20
280.4641731124816
 30
0.0
 40
3.0
  1
10.2
 50
90.0
  0
TEXT
  5
80A
  8
回07-寸法
  6
CONTINUOUS
 62
     5
 10
3486.544043589736
 20
287.0641731124815
 30
0.0
 40
2.000099999999999
  1
(Insulation area)
 50
90.0
  0
ENDBLK
  5
80C
  8
0
  6
CONTINUOUS
 62
     5
  0
BLOCK
  8
0
  2
*X86
 70
     1
 10
0.0
 20
0.0
 30
0.0
  3
*X86
  1

  0
TEXT
  5
80F
  8
回07-寸法
  6
CONTINUOUS
 62
     5
 10
3643.556548589736
 20
547.5693609215372
 30
0.0
 40
3.0
  1
263.3
  0
TEXT
  5
810
  8
回07-寸法
  6
CONTINUOUS
 62
     5
 10
3652.856548589736
 20
547.5693609215372
 30
0.0
 40
2.1
  1
±0.3
  0
ENDBLK
  5
812
  8
0
  6
CONTINUOUS
 62
     5
  0
BLOCK
  8
0
  2
*X87
 70
     1
 10
0.0
 20
0.0
 30
0.0
  3
*X87
  1

  0
TEXT
  5
815
  8
回07-寸法
  6
CONTINUOUS
 62
     5
 10
3494.03886078068
 20
541.6693659215373
 30
0.0
 40
3.0
  1
6
  0
TEXT
  5
816
  8
回07-寸法
  6
CONTINUOUS
 62
     5
 10
3496.138860780681
 20
541.6693659215373
 30
0.0
 40
2.000099999999999
  1
(Insulation area)
  0
ENDBLK
  5
818
  8
0
  6
CONTINUOUS
 62
     5
  0
BLOCK
  8
0
  2
*X88
 70
     1
 10
0.0
 20
0.0
 30
0.0
  3
*X88
  1

  0
TEXT
  5
81B
  8
回07-寸法
  6
CONTINUOUS
 62
     5
 10
3814.880584501862
 20
522.1945202674415
 30
0.0
 40
3.0
  1
2.1
  0
TEXT
  5
81C
  8
回07-寸法
  6
CONTINUOUS
 62
     5
 10
3819.380584501863
 20
522.1945202674415
 30
0.0
 40
2.000099999999999
  1
±0.2
  0
ENDBLK
  5
81E
  8
0
  6
CONTINUOUS
 62
     5
  0
BLOCK
  8
0
  2
*X89
 70
     1
 10
0.0
 20
0.0
 30
0.0
  3
*X89
  1

  0
TEXT
  5
821
  8
回08-記事
  6
CONTINUOUS
 62
     5
 10
3798.659031026993
 20
205.9232512415684
 30
0.0
 40
3.0
  1
0.3
  0
TEXT
  5
822
  8
回08-記事
  6
CONTINUOUS
 62
     5
 10
3803.759031026993
 20
205.9232512415684
 30
0.0
 40
2.000099999999999
  1
±0.05
  0
ENDBLK
  5
824
  8
0
  6
CONTINUOUS
 62
     5
  0
BLOCK
  8
0
  2
*X90
 70
     1
 10
0.0
 20
0.0
 30
0.0
  3
*X90
  1

  0
TEXT
  5
827
  8
回08-記事
  6
CONTINUOUS
 62
     5
 10
3826.104872450688
 20
203.125501711501
 30
0.0
 40
3.0
  1
0.3
  0
TEXT
  5
828
  8
回08-記事
  6
CONTINUOUS
 62
     5
 10
3831.204872450688
 20
203.125501711501
 30
0.0
 40
2.000099999999999
  1
±0.05
  0
ENDBLK
  5
82A
  8
0
  6
CONTINUOUS
 62
     5
  0
BLOCK
  8
0
  2
*X91
 70
     1
 10
0.0
 20
0.0
 30
0.0
  3
*X91
  1

  0
TEXT
  5
82D
  8
回07-寸法
  6
CONTINUOUS
 62
     5
 10
3486.494048589737
 20
520.118179819175
 30
0.0
 40
3.0
  1
(6.5)
 50
90.0
  0
TEXT
  5
82E
  8
回07-寸法
  6
CONTINUOUS
 62
     5
 10
3486.494048589737
 20
527.6181798191751
 30
0.0
 40
2.00001
  1
(Insulation area)
 50
90.0
  0
ENDBLK
  5
830
  8
0
  6
CONTINUOUS
 62
     5
  0
BLOCK
  8
0
  2
*X92
 70
     1
 10
0.0
 20
0.0
 30
0.0
  3
*X92
  1

  0
TEXT
  5
833
  8
回07-寸法
  6
CONTINUOUS
 62
     5
 10
3785.492867487374
 20
541.7193609215372
 30
0.0
 40
3.0
  1
(6)
  0
TEXT
  5
834
  8
回07-寸法
  6
CONTINUOUS
 62
     5
 10
3789.992867487374
 20
541.7193609215372
 30
0.0
 40
2.000099999999999
  1
(Insulation area)
  0
ENDBLK
  5
836
  8
0
  6
CONTINUOUS
 62
     5
  0
BLOCK
  8
0
  2
*X93
 70
     1
 10
0.0
 20
0.0
 30
0.0
  3
*X93
  1

  0
TEXT
  5
839
  8
回07-寸法
  6
CONTINUOUS
 62
     5
 10
3775.766006561112
 20
472.5680515526442
 30
0.0
 40
3.0
  1
(6)
  0
TEXT
  5
83A
  8
回07-寸法
  6
CONTINUOUS
 62
     5
 10
3780.266006561112
 20
472.5680515526442
 30
0.0
 40
2.000099999999999
  1
(Insulation area)
  0
ENDBLK
  5
83C
  8
0
  6
CONTINUOUS
 62
     5
  0
BLOCK
  8
0
  2
*X94
 70
     1
 10
0.0
 20
0.0
 30
0.0
  3
*X94
  1

  0
TEXT
  5
83F
  8
回07-寸法
  6
CONTINUOUS
 62
     5
 10
3476.767187663476
 20
450.9668704502819
 30
0.0
 40
3.0
  1
(6.5)
 50
90.0
  0
TEXT
  5
840
  8
回07-寸法
  6
CONTINUOUS
 62
     5
 10
3476.767187663476
 20
458.4668704502819
 30
0.0
 40
2.00001
  1
(Insulation area)
 50
90.0
  0
ENDBLK
  5
842
  8
0
  6
CONTINUOUS
 62
     5
  0
BLOCK
  8
0
  2
*X95
 70
     1
 10
0.0
 20
0.0
 30
0.0
  3
*X95
  1

  0
TEXT
  5
845
  8
回07-寸法
  6
CONTINUOUS
 62
     5
 10
3688.116216599341
 20
185.692575738049
 30
0.0
 40
3.0
  1
100
 50
90.0
  0
TEXT
  5
846
  8
回07-寸法
  6
CONTINUOUS
 62
     5
 10
3688.116216599341
 20
191.3925757380489
 30
0.0
 40
2.1
  1
±0.1
 50
90.0
  0
ENDBLK
  5
848
  8
0
  6
CONTINUOUS
 62
     5
  0
BLOCK
  8
0
  2
*X96
 70
     1
 10
0.0
 20
0.0
 30
0.0
  3
*X96
  1

  0
TEXT
  5
84B
  8
回07-寸法
  6
CONTINUOUS
 62
     5
 10
3621.892279691468
 20
126.4220999234554
 30
0.0
 40
3.0
  1
17.5
  0
TEXT
  5
84C
  8
回07-寸法
  6
CONTINUOUS
 62
     5
 10
3628.492279691469
 20
126.4220999234554
 30
0.0
 40
2.1
  1
±0.1
  0
ENDBLK
  5
84E
  8
0
  6
CONTINUOUS
 62
     5
  0
BLOCK
  8
0
  2
*X97
 70
     1
 10
0.0
 20
0.0
 30
0.0
  3
*X97
  1

  0
TEXT
  5
851
  8
回07-寸法
  6
CONTINUOUS
 62
     5
 10
3648.892279691469
 20
117.4273796953174
 30
0.0
 40
3.0
  1
13.5
  0
TEXT
  5
852
  8
回07-寸法
  6
CONTINUOUS
 62
     5
 10
3655.492279691469
 20
117.4273796953174
 30
0.0
 40
2.1
  1
±0.1
  0
ENDBLK
  5
854
  8
0
  6
CONTINUOUS
 62
     5
  0
BLOCK
  8
0
  2
*X98
 70
     1
 10
0.0
 20
0.0
 30
0.0
  3
*X98
  1

  0
TEXT
  5
857
  8
回07-寸法
  6
CONTINUOUS
 62
     5
 10
3577.803148179296
 20
186.6885273672387
 30
0.0
 40
3.0
  1
100
 50
90.0
  0
TEXT
  5
858
  8
回07-寸法
  6
CONTINUOUS
 62
     5
 10
3577.803148179296
 20
192.3885273672386
 30
0.0
 40
2.1
  1
±0.1
 50
90.0
  0
ENDBLK
  5
85A
  8
0
  6
CONTINUOUS
 62
     5
  0
BLOCK
  8
0
  2
*X99
 70
     1
 10
0.0
 20
0.0
 30
0.0
  3
*X99
  1

  0
TEXT
  5
85D
  8
回08-記事
  6
CONTINUOUS
 62
     5
 10
3816.378011524427
 20
133.974192342608
 30
0.0
 40
3.0
  1
0.3
  0
TEXT
  5
85E
  8
回08-記事
  6
CONTINUOUS
 62
     5
 10
3821.478011524427
 20
133.974192342608
 30
0.0
 40
2.000099999999999
  1
±0.05
  0
ENDBLK
  5
860
  8
0
  6
CONTINUOUS
 62
     5
  0
BLOCK
  8
0
  2
*X100
 70
     1
 10
0.0
 20
0.0
 30
0.0
  3
*X100
  1

  0
TEXT
  5
863
  8
回08-記事
  6
CONTINUOUS
 62
     5
 10
3788.932170100732
 20
136.7719418726754
 30
0.0
 40
3.0
  1
0.3
  0
TEXT
  5
864
  8
回08-記事
  6
CONTINUOUS
 62
     5
 10
3794.032170100731
 20
136.7719418726754
 30
0.0
 40
2.000099999999999
  1
±0.05
  0
ENDBLK
  5
866
  8
0
  6
CONTINUOUS
 62
     5
  0
BLOCK
  8
0
  2
*X101
 70
     1
 10
0.0
 20
0.0
 30
0.0
  3
*X101
  1

  0
TEXT
  5
869
  8
回07-寸法
  6
CONTINUOUS
 62
     5
 10
3805.153723575601
 20
453.0432108985485
 30
0.0
 40
3.0
  1
2.1
  0
TEXT
  5
86A
  8
回07-寸法
  6
CONTINUOUS
 62
     5
 10
3809.653723575601
 20
453.0432108985485
 30
0.0
 40
2.000099999999999
  1
±0.2
  0
ENDBLK
  5
86C
  8
0
  6
CONTINUOUS
 62
     5
  0
BLOCK
  8
0
  2
*X102
 70
     1
 10
0.0
 20
0.0
 30
0.0
  3
*X102
  1

  0
TEXT
  5
86F
  8
回07-寸法
  6
CONTINUOUS
 62
     5
 10
3484.311999854419
 20
472.5180565526442
 30
0.0
 40
3.0
  1
6
  0
TEXT
  5
870
  8
回07-寸法
  6
CONTINUOUS
 62
     5
 10
3486.411999854419
 20
472.5180565526442
 30
0.0
 40
2.000099999999999
  1
(Insulation area)
  0
ENDBLK
  5
872
  8
0
  6
CONTINUOUS
 62
     5
  0
BLOCK
  8
0
  2
*X103
 70
     1
 10
0.0
 20
0.0
 30
0.0
  3
*X103
  1

  0
TEXT
  5
875
  8
回07-寸法
  6
CONTINUOUS
 62
     5
 10
3633.829687663475
 20
478.4180515526442
 30
0.0
 40
3.0
  1
263.3
  0
TEXT
  5
876
  8
回07-寸法
  6
CONTINUOUS
 62
     5
 10
3643.129687663475
 20
478.4180515526442
 30
0.0
 40
2.1
  1
±0.3
  0
ENDBLK
  5
878
  8
0
  6
CONTINUOUS
 62
     5
  0
BLOCK
  8
0
  2
*X104
 70
     1
 10
0.0
 20
0.0
 30
0.0
  3
*X104
  1

  0
TEXT
  5
87B
  8
回07-寸法
  6
CONTINUOUS
 62
     5
 10
3476.817182663474
 20
211.3128637435884
 30
0.0
 40
3.0
  1
10.2
 50
90.0
  0
TEXT
  5
87C
  8
回07-寸法
  6
CONTINUOUS
 62
     5
 10
3476.817182663474
 20
217.9128637435884
 30
0.0
 40
2.000099999999999
  1
(Insulation area)
 50
90.0
  0
ENDBLK
  5
87E
  8
0
  6
CONTINUOUS
 62
     5
  0
BLOCK
  8
0
  2
*X105
 70
     1
 10
0.0
 20
0.0
 30
0.0
  3
*X105
  1

  0
TEXT
  5
881
  8
回07-寸法
  6
CONTINUOUS
 62
     5
 10
3468.917187663474
 20
338.6805515526444
 30
0.0
 40
3.0
  1
207
 50
90.0
  0
TEXT
  5
882
  8
回07-寸法
  6
CONTINUOUS
 62
     5
 10
3468.917187663474
 20
344.9805515526445
 30
0.0
 40
2.1
  1
±0.3
 50
90.0
  0
ENDBLK
  5
884
  8
0
  6
CONTINUOUS
 62
     5
  0
ENDSEC
  0
SECTION
  2
ENTITIES
  0
TEXT
  5
6B
  8
回03-記事
  6
CONTINUOUS
 62
     5
 10
3709.331335659101
 20
104.1803861279224
 30
0.0
 40
3.59424
  1
without affecting product specification.
  0
TEXT
  5
6D
  8
回03-記事
  6
CONTINUOUS
 62
     5
 10
3709.331335659101
 20
110.4850617667153
 30
0.0
 40
3.59424
  1
Edges and corners of ITO glass may be chamfered 
  0
TEXT
  5
6E
  8
回03-記事
  6
CONTINUOUS
 62
     5
 10
3709.331335659101
 20
116.7897374055081
 30
0.0
 40
3.59424
  1
Unit: mm
  0
TEXT
  5
6F
  8
回03-記事
  6
CONTINUOUS
 62
     5
 10
3709.331335659101
 20
123.0944130443009
 30
0.0
 40
3.59424
  1
EXCEPT WHERE INDICATED
  0
TEXT
  5
70
  8
回03-記事
  6
CONTINUOUS
 62
     5
 10
3709.331335659101
 20
129.3990886830936
 30
0.0
 40
3.59424
  1
TOLERANCE=±0.5mm
  0
TEXT
  5
71
  8
回08-記事
  6
CONTINUOUS
 62
     7
 10
3662.346018229849
 20
133.8297833050545
 30
0.0
 40
2.5
  1
(Conductor side near side)
  0
TEXT
  5
76
  8
回08-記事
  6
CONTINUOUS
 62
     7
 10
3583.78034732128
 20
133.7131560893379
 30
0.0
 40
2.5
  1
(Conductor side far side)
 41
0.9
  0
TEXT
  5
77
  8
回08-記事
  6
CONTINUOUS
 62
     7
 10
3663.162577768637
 20
137.029525587682
 30
0.0
 40
2.4
  1
Tail-1
  0
TEXT
  5
78
  8
回08-記事
  6
CONTINUOUS
 62
     7
 10
3607.350293719651
 20
137.0209361293085
 30
0.0
 40
2.4
  1
Tail-2
  0
TEXT
  5
79
  8
回08-記事
  6
CONTINUOUS
 62
     7
 10
3910.215472344772
 20
142.1301992930102
 30
0.0
 40
4.5
  1
PROTECTION TAPE
  0
TEXT
  5
7A
  8
回08-記事
  6
CONTINUOUS
 62
     7
 10
3901.957925916509
 20
142.2071280346863
 30
0.0
 40
4.68
  1
6
  0
LINE
  5
7B
  8
回08-記事
  6
CONTINUOUS
 62
     7
 10
3899.566888549004
 20
140.8633664731494
 30
0.0
 11
3993.660701404165
 21
140.8633664731494
 31
0.0
  0
TEXT
  5
7C
  8
回08-記事
  6
CONTINUOUS
 62
     7
 10
3909.912962518463
 20
149.5592082227995
 30
0.0
 40
4.68
  1
STIFFENER
  0
TEXT
  5
7D
  8
回08-記事
  6
CONTINUOUS
 62
     7
 10
3909.912962518463
 20
157.3592082227995
 30
0.0
 40
4.68
  1
REINFORCEMENT FILM
  0
LINE
  5
7E
  8
回08-記事
  6
CONTINUOUS
 62
     7
 10
3993.660701404165
 20
140.8633664731494
 30
0.0
 11
3993.660701404165
 21
187.6633664731495
 31
0.0
  0
TEXT
  5
7F
  8
回08-記事
  6
CONTINUOUS
 62
     7
 10
3901.957925916509
 20
165.6071280346864
 30
0.0
 40
4.68
  1
3
  0
TEXT
  5
80
  8
回08-記事
  6
CONTINUOUS
 62
     7
 10
3901.957925916509
 20
157.8071280346865
 30
0.0
 40
4.68
  1
4
  0
TEXT
  5
81
  8
回08-記事
  6
CONTINUOUS
 62
     7
 10
3901.957925916509
 20
173.4071280346864
 30
0.0
 40
4.68
  1
2
  0
TEXT
  5
82
  8
回08-記事
  6
CONTINUOUS
 62
     7
 10
3901.957925916509
 20
150.0071280346864
 30
0.0
 40
4.68
  1
5
  0
LINE
  5
83
  8
回08-記事
  6
CONTINUOUS
 62
     7
 10
3907.682483117869
 20
187.6633664731495
 30
0.0
 11
3907.682483117869
 21
140.8633664731494
 31
0.0
  0
LINE
  5
84
  8
回08-記事
  6
CONTINUOUS
 62
     7
 10
3899.566888549004
 20
187.6633664731495
 30
0.0
 11
3899.566888549004
 21
140.8633664731494
 31
0.0
  0
TEXT
  5
85
  8
回08-記事
  6
CONTINUOUS
 62
     7
 10
3901.957925916509
 20
181.2071280346863
 30
0.0
 40
4.68
  1
1
  0
LINE
  5
86
  8
回08-記事
  6
CONTINUOUS
 62
     7
 10
3899.566888549004
 20
148.6633664731494
 30
0.0
 11
3993.660701404165
 21
148.6633664731494
 31
0.0
  0
LINE
  5
87
  8
回08-記事
  6
CONTINUOUS
 62
     7
 10
3899.566888549004
 20
179.8633664731495
 30
0.0
 11
3993.660701404165
 21
179.8633664731495
 31
0.0
  0
LINE
  5
88
  8
回08-記事
  6
CONTINUOUS
 62
     7
 10
3899.566888549004
 20
187.6633664731495
 30
0.0
 11
3993.660701404165
 21
187.6633664731495
 31
0.0
  0
LINE
  5
89
  8
回08-記事
  6
CONTINUOUS
 62
     7
 10
3899.566888549004
 20
156.4633664731494
 30
0.0
 11
3993.660701404165
 21
156.4633664731494
 31
0.0
  0
LINE
  5
8A
  8
回08-記事
  6
CONTINUOUS
 62
     7
 10
3899.566888549004
 20
164.2633664731494
 30
0.0
 11
3993.660701404165
 21
164.2633664731494
 31
0.0
  0
LINE
  5
8B
  8
回08-記事
  6
CONTINUOUS
 62
     7
 10
3899.566888549004
 20
172.0633664731494
 30
0.0
 11
3993.660701404165
 21
172.0633664731494
 31
0.0
  0
TEXT
  5
8C
  8
回08-記事
  6
CONTINUOUS
 62
     7
 10
3909.912962518463
 20
180.7592082227996
 30
0.0
 40
4.68
  1
ITO FILM (ANTI-GLARE)
  0
TEXT
  5
8D
  8
回08-記事
  6
CONTINUOUS
 62
     7
 10
3909.912962518463
 20
172.9592082227995
 30
0.0
 40
4.68
  1
ITO GLASS
  0
TEXT
  5
8E
  8
回08-記事
  6
CONTINUOUS
 62
     7
 10
3909.912962518463
 20
165.1592082227994
 30
0.0
 40
4.68
  1
FPC
  0
TEXT
  5
8F
  8
回08-記事
  6
CONTINUOUS
 62
     7
 10
3789.711903129545
 20
348.6474815183442
 30
0.0
 40
4.0
  1
1
  0
TEXT
  5
90
  8
回08-記事
  6
CONTINUOUS
 62
     7
 10
3828.057994056314
 20
338.6488502454989
 30
0.0
 40
4.0
  1
2
  0
TEXT
  5
91
  8
回08-記事
  6
CONTINUOUS
 62
     7
 10
3826.814604110305
 20
232.572166155195
 30
0.0
 40
4.0
  1
6
  0
LINE
  5
92
  8
回08-記事
  6
CONTINUOUS
 62
     7
 10
3827.211342606061
 20
340.9315062667693
 30
0.0
 11
3818.411890056847
 21
343.7091980708395
 31
0.0
  0
LINE
  5
93
  8
回08-記事
  6
CONTINUOUS
 62
     7
 10
3793.622807733662
 20
350.9412571245294
 30
0.0
 11
3801.58719319805
 21
348.0068647235676
 31
0.0
  0
LINE
  5
94
  8
回08-記事
  6
CONTINUOUS
 62
     7
 10
3808.768792964574
 20
157.1868902379518
 30
0.0
 11
3805.182465100732
 21
150.4652950598582
 31
0.0
  0
LINE
  5
95
  8
回08-記事
  6
CONTINUOUS
 62
     7
 10
3811.866965035425
 20
150.3653951972567
 30
0.0
 11
3808.768792964574
 21
157.1868902379518
 31
0.0
  0
TEXT
  5
96
  8
回08-記事
  6
CONTINUOUS
 62
     7
 10
3807.581456983881
 20
157.2822027983382
 30
0.0
 40
3.0
  1
5
  0
LINE
  5
97
  8
回08-記事
  6
CONTINUOUS
 62
     7
 10
3795.941584768022
 20
222.9650712313635
 30
0.0
 11
3812.798258955361
 21
231.3509245942967
 31
0.0
  0
LINE
  5
98
  8
回08-記事
  6
CONTINUOUS
 62
     7
 10
3803.984568838987
 20
220.8982966101629
 30
0.0
 11
3795.941584768022
 21
222.9650712313635
 31
0.0
  0
TEXT
  5
99
  8
回08-記事
  6
CONTINUOUS
 62
     7
 10
3791.323954994958
 20
220.9974265227946
 30
0.0
 40
4.0
  1
3
  0
LINE
  5
9A
  8
回08-記事
  6
CONTINUOUS
 62
     7
 10
3824.549237759248
 20
180.2109101575095
 30
0.0
 11
3813.592757649383
 21
186.5617319632682
 31
0.0
  0
LINE
  5
9B
  8
回08-記事
  6
CONTINUOUS
 62
     7
 10
3803.051856162678
 20
179.6323529704767
 30
0.0
 11
3824.549237759248
 21
180.2109101575095
 31
0.0
  0
TEXT
  5
9C
  8
回08-記事
  6
CONTINUOUS
 62
     7
 10
3824.596967827977
 20
178.3439880248204
 30
0.0
 40
4.0
  1
4
  0
LINE
  5
9D
  8
回08-記事
  6
CONTINUOUS
 62
     7
 10
3827.031336753208
 20
234.8223524720682
 30
0.0
 11
3808.15836883473
 21
240.5979327435587
 31
0.0
  0
LINE
  5
9E
  8
回08-記事
  6
CONTINUOUS
 62
     7
 10
3820.733386145086
 20
241.3142859044472
 30
0.0
 11
3827.031336753208
 21
234.8223524720682
 31
0.0
  0
POLYLINE
  5
9F
  8
回01-上ER
  6
CONTINUOUS
 62
     7
 66
     1
 10
0.0
 20
0.0
 30
0.0
 70
     1
  0
VERTEX
  5
6DC
  8
回01-上ER
  6
CONTINUOUS
 62
     7
 10
3518.067187663474
 20
438.5160515526435
 30
0.0
  0
VERTEX
  5
6DE
  8
回01-上ER
  6
CONTINUOUS
 62
     7
 10
3764.067187663474
 20
438.5160515526435
 30
0.0
  0
VERTEX
  5
6DF
  8
回01-上ER
  6
CONTINUOUS
 62
     7
 10
3764.067187663474
 20
423.5080515526434
 30
0.0
  0
VERTEX
  5
6E0
  8
回01-上ER
  6
CONTINUOUS
 62
     7
 10
3518.067187663474
 20
423.5080515526434
 30
0.0
  0
SEQEND
  5
6DD
  8
0
  6
CONTINUOUS
 62
     5
  0
POLYLINE
  5
A3
  8
回01-上ER
  6
CONTINUOUS
 62
     7
 66
     1
 10
0.0
 20
0.0
 30
0.0
 70
     1
  0
VERTEX
  5
6E1
  8
回01-上ER
  6
CONTINUOUS
 62
     7
 10
3518.067187663474
 20
423.1080515526436
 30
0.0
  0
VERTEX
  5
6E3
  8
回01-上ER
  6
CONTINUOUS
 62
     7
 10
3764.067187663474
 20
423.1080515526436
 30
0.0
  0
VERTEX
  5
6E4
  8
回01-上ER
  6
CONTINUOUS
 62
     7
 10
3764.067187663474
 20
408.1000515526436
 30
0.0
  0
VERTEX
  5
6E5
  8
回01-上ER
  6
CONTINUOUS
 62
     7
 10
3518.067187663474
 20
408.1000515526436
 30
0.0
  0
SEQEND
  5
6E2
  8
0
  6
CONTINUOUS
 62
     5
  0
POLYLINE
  5
A4
  8
回01-上ER
  6
CONTINUOUS
 62
     7
 66
     1
 10
0.0
 20
0.0
 30
0.0
 70
     1
  0
VERTEX
  5
6E6
  8
回01-上ER
  6
CONTINUOUS
 62
     7
 10
3518.067187663474
 20
407.7000515526436
 30
0.0
  0
VERTEX
  5
6E8
  8
回01-上ER
  6
CONTINUOUS
 62
     7
 10
3764.067187663474
 20
407.7000515526436
 30
0.0
  0
VERTEX
  5
6E9
  8
回01-上ER
  6
CONTINUOUS
 62
     7
 10
3764.067187663474
 20
392.6920515526437
 30
0.0
  0
VERTEX
  5
6EA
  8
回01-上ER
  6
CONTINUOUS
 62
     7
 10
3518.067187663474
 20
392.6920515526437
 30
0.0
  0
SEQEND
  5
6E7
  8
0
  6
CONTINUOUS
 62
     5
  0
POLYLINE
  5
A5
  8
回01-上ER
  6
CONTINUOUS
 62
     7
 66
     1
 10
0.0
 20
0.0
 30
0.0
 70
     1
  0
VERTEX
  5
6EB
  8
回01-上ER
  6
CONTINUOUS
 62
     7
 10
3518.067187663474
 20
392.2920515526437
 30
0.0
  0
VERTEX
  5
6ED
  8
回01-上ER
  6
CONTINUOUS
 62
     7
 10
3764.067187663474
 20
392.2920515526437
 30
0.0
  0
VERTEX
  5
6EE
  8
回01-上ER
  6
CONTINUOUS
 62
     7
 10
3764.067187663474
 20
377.2840515526437
 30
0.0
  0
VERTEX
  5
6EF
  8
回01-上ER
  6
CONTINUOUS
 62
     7
 10
3518.067187663474
 20
377.2840515526437
 30
0.0
  0
SEQEND
  5
6EC
  8
0
  6
CONTINUOUS
 62
     5
  0
POLYLINE
  5
A6
  8
回01-上ER
  6
CONTINUOUS
 62
     7
 66
     1
 10
0.0
 20
0.0
 30
0.0
 70
     1
  0
VERTEX
  5
6F0
  8
回01-上ER
  6
CONTINUOUS
 62
     7
 10
3518.067187663474
 20
376.8840515526438
 30
0.0
  0
VERTEX
  5
6F2
  8
回01-上ER
  6
CONTINUOUS
 62
     7
 10
3764.067187663474
 20
376.8840515526438
 30
0.0
  0
VERTEX
  5
6F3
  8
回01-上ER
  6
CONTINUOUS
 62
     7
 10
3764.067187663474
 20
361.8760515526438
 30
0.0
  0
VERTEX
  5
6F4
  8
回01-上ER
  6
CONTINUOUS
 62
     7
 10
3518.067187663474
 20
361.8760515526438
 30
0.0
  0
SEQEND
  5
6F1
  8
0
  6
CONTINUOUS
 62
     5
  0
POLYLINE
  5
A7
  8
回01-上ER
  6
CONTINUOUS
 62
     7
 66
     1
 10
0.0
 20
0.0
 30
0.0
 70
     1
  0
VERTEX
  5
6F5
  8
回01-上ER
  6
CONTINUOUS
 62
     7
 10
3518.067187663474
 20
361.4760515526439
 30
0.0
  0
VERTEX
  5
6F7
  8
回01-上ER
  6
CONTINUOUS
 62
     7
 10
3764.067187663474
 20
361.4760515526439
 30
0.0
  0
VERTEX
  5
6F8
  8
回01-上ER
  6
CONTINUOUS
 62
     7
 10
3764.067187663474
 20
346.4680515526439
 30
0.0
  0
VERTEX
  5
6F9
  8
回01-上ER
  6
CONTINUOUS
 62
     7
 10
3518.067187663474
 20
346.4680515526439
 30
0.0
  0
SEQEND
  5
6F6
  8
0
  6
CONTINUOUS
 62
     5
  0
POLYLINE
  5
A8
  8
回01-上ER
  6
CONTINUOUS
 62
     7
 66
     1
 10
0.0
 20
0.0
 30
0.0
 70
     1
  0
VERTEX
  5
6FA
  8
回01-上ER
  6
CONTINUOUS
 62
     7
 10
3518.067187663474
 20
346.0680515526439
 30
0.0
  0
VERTEX
  5
6FC
  8
回01-上ER
  6
CONTINUOUS
 62
     7
 10
3764.067187663474
 20
346.0680515526439
 30
0.0
  0
VERTEX
  5
6FD
  8
回01-上ER
  6
CONTINUOUS
 62
     7
 10
3764.067187663474
 20
331.060051552644
 30
0.0
  0
VERTEX
  5
6FE
  8
回01-上ER
  6
CONTINUOUS
 62
     7
 10
3518.067187663474
 20
331.060051552644
 30
0.0
  0
SEQEND
  5
6FB
  8
0
  6
CONTINUOUS
 62
     5
  0
POLYLINE
  5
A9
  8
回01-上ER
  6
CONTINUOUS
 62
     7
 66
     1
 10
0.0
 20
0.0
 30
0.0
 70
     1
  0
VERTEX
  5
6FF
  8
回01-上ER
  6
CONTINUOUS
 62
     7
 10
3518.067187663474
 20
330.660051552644
 30
0.0
  0
VERTEX
  5
701
  8
回01-上ER
  6
CONTINUOUS
 62
     7
 10
3764.067187663474
 20
330.660051552644
 30
0.0
  0
VERTEX
  5
702
  8
回01-上ER
  6
CONTINUOUS
 62
     7
 10
3764.067187663474
 20
315.652051552644
 30
0.0
  0
VERTEX
  5
703
  8
回01-上ER
  6
CONTINUOUS
 62
     7
 10
3518.067187663474
 20
315.652051552644
 30
0.0
  0
SEQEND
  5
700
  8
0
  6
CONTINUOUS
 62
     5
  0
POLYLINE
  5
AA
  8
回01-上ER
  6
CONTINUOUS
 62
     7
 66
     1
 10
0.0
 20
0.0
 30
0.0
 70
     1
  0
VERTEX
  5
704
  8
回01-上ER
  6
CONTINUOUS
 62
     7
 10
3518.067187663474
 20
315.2520515526441
 30
0.0
  0
VERTEX
  5
706
  8
回01-上ER
  6
CONTINUOUS
 62
     7
 10
3764.067187663474
 20
315.2520515526441
 30
0.0
  0
VERTEX
  5
707
  8
回01-上ER
  6
CONTINUOUS
 62
     7
 10
3764.067187663474
 20
300.2440515526441
 30
0.0
  0
VERTEX
  5
708
  8
回01-上ER
  6
CONTINUOUS
 62
     7
 10
3518.067187663474
 20
300.2440515526441
 30
0.0
  0
SEQEND
  5
705
  8
0
  6
CONTINUOUS
 62
     5
  0
POLYLINE
  5
AB
  8
回01-上ER
  6
CONTINUOUS
 62
     7
 66
     1
 10
0.0
 20
0.0
 30
0.0
 70
     1
  0
VERTEX
  5
709
  8
回01-上ER
  6
CONTINUOUS
 62
     7
 10
3518.067187663474
 20
299.8440515526442
 30
0.0
  0
VERTEX
  5
70B
  8
回01-上ER
  6
CONTINUOUS
 62
     7
 10
3764.067187663474
 20
299.8440515526442
 30
0.0
  0
VERTEX
  5
70C
  8
回01-上ER
  6
CONTINUOUS
 62
     7
 10
3764.067187663474
 20
284.8360515526442
 30
0.0
  0
VERTEX
  5
70D
  8
回01-上ER
  6
CONTINUOUS
 62
     7
 10
3518.067187663474
 20
284.8360515526442
 30
0.0
  0
SEQEND
  5
70A
  8
0
  6
CONTINUOUS
 62
     5
  0
POLYLINE
  5
AC
  8
回01-上ER
  6
CONTINUOUS
 62
     7
 66
     1
 10
0.0
 20
0.0
 30
0.0
 70
     1
  0
VERTEX
  5
70E
  8
回01-上ER
  6
CONTINUOUS
 62
     7
 10
3518.067187663474
 20
284.4360515526442
 30
0.0
  0
VERTEX
  5
710
  8
回01-上ER
  6
CONTINUOUS
 62
     7
 10
3764.067187663474
 20
284.4360515526442
 30
0.0
  0
VERTEX
  5
711
  8
回01-上ER
  6
CONTINUOUS
 62
     7
 10
3764.067187663474
 20
269.4280515526443
 30
0.0
  0
VERTEX
  5
712
  8
回01-上ER
  6
CONTINUOUS
 62
     7
 10
3518.067187663474
 20
269.4280515526443
 30
0.0
  0
SEQEND
  5
70F
  8
0
  6
CONTINUOUS
 62
     5
  0
POLYLINE
  5
AD
  8
回01-上ER
  6
CONTINUOUS
 62
     7
 66
     1
 10
0.0
 20
0.0
 30
0.0
 70
     1
  0
VERTEX
  5
713
  8
回01-上ER
  6
CONTINUOUS
 62
     7
 10
3518.067187663474
 20
269.0280515526443
 30
0.0
  0
VERTEX
  5
715
  8
回01-上ER
  6
CONTINUOUS
 62
     7
 10
3764.067187663474
 20
269.0280515526443
 30
0.0
  0
VERTEX
  5
716
  8
回01-上ER
  6
CONTINUOUS
 62
     7
 10
3764.067187663474
 20
254.0200515526443
 30
0.0
  0
VERTEX
  5
717
  8
回01-上ER
  6
CONTINUOUS
 62
     7
 10
3518.067187663474
 20
254.0200515526443
 30
0.0
  0
SEQEND
  5
714
  8
0
  6
CONTINUOUS
 62
     5
  0
POLYLINE
  5
AE
  8
回03-下ER
  6
CONTINUOUS
 62
     7
 66
     1
 10
0.0
 20
0.0
 30
0.0
 70
     1
  0
VERTEX
  5
718
  8
回03-下ER
  6
CONTINUOUS
 62
     7
 10
3748.036187663478
 20
254.0180515526443
 30
0.0
  0
VERTEX
  5
71A
  8
回03-下ER
  6
CONTINUOUS
 62
     7
 10
3764.062187663478
 20
254.0180515526443
 30
0.0
  0
VERTEX
  5
71B
  8
回03-下ER
  6
CONTINUOUS
 62
     7
 10
3764.062187663478
 20
438.5180515526442
 30
0.0
  0
VERTEX
  5
71C
  8
回03-下ER
  6
CONTINUOUS
 62
     7
 10
3748.036187663478
 20
438.5180515526442
 30
0.0
  0
SEQEND
  5
719
  8
0
  6
CONTINUOUS
 62
     5
  0
POLYLINE
  5
B2
  8
回03-下ER
  6
CONTINUOUS
 62
     7
 66
     1
 10
0.0
 20
0.0
 30
0.0
 70
     1
  0
VERTEX
  5
71D
  8
回03-下ER
  6
CONTINUOUS
 62
     7
 10
3731.610187663477
 20
254.0180515526443
 30
0.0
  0
VERTEX
  5
71F
  8
回03-下ER
  6
CONTINUOUS
 62
     7
 10
3747.636187663478
 20
254.0180515526443
 30
0.0
  0
VERTEX
  5
720
  8
回03-下ER
  6
CONTINUOUS
 62
     7
 10
3747.636187663478
 20
438.5180515526442
 30
0.0
  0
VERTEX
  5
721
  8
回03-下ER
  6
CONTINUOUS
 62
     7
 10
3731.610187663477
 20
438.5180515526442
 30
0.0
  0
SEQEND
  5
71E
  8
0
  6
CONTINUOUS
 62
     5
  0
POLYLINE
  5
B3
  8
回03-下ER
  6
CONTINUOUS
 62
     7
 66
     1
 10
0.0
 20
0.0
 30
0.0
 70
     1
  0
VERTEX
  5
722
  8
回03-下ER
  6
CONTINUOUS
 62
     7
 10
3715.184187663477
 20
254.0180515526443
 30
0.0
  0
VERTEX
  5
724
  8
回03-下ER
  6
CONTINUOUS
 62
     7
 10
3731.210187663478
 20
254.0180515526443
 30
0.0
  0
VERTEX
  5
725
  8
回03-下ER
  6
CONTINUOUS
 62
     7
 10
3731.210187663478
 20
438.5180515526442
 30
0.0
  0
VERTEX
  5
726
  8
回03-下ER
  6
CONTINUOUS
 62
     7
 10
3715.184187663477
 20
438.5180515526442
 30
0.0
  0
SEQEND
  5
723
  8
0
  6
CONTINUOUS
 62
     5
  0
POLYLINE
  5
B4
  8
回03-下ER
  6
CONTINUOUS
 62
     7
 66
     1
 10
0.0
 20
0.0
 30
0.0
 70
     1
  0
VERTEX
  5
727
  8
回03-下ER
  6
CONTINUOUS
 62
     7
 10
3698.758187663478
 20
254.0180515526443
 30
0.0
  0
VERTEX
  5
729
  8
回03-下ER
  6
CONTINUOUS
 62
     7
 10
3714.784187663478
 20
254.0180515526443
 30
0.0
  0
VERTEX
  5
72A
  8
回03-下ER
  6
CONTINUOUS
 62
     7
 10
3714.784187663478
 20
438.5180515526442
 30
0.0
  0
VERTEX
  5
72B
  8
回03-下ER
  6
CONTINUOUS
 62
     7
 10
3698.758187663478
 20
438.5180515526442
 30
0.0
  0
SEQEND
  5
728
  8
0
  6
CONTINUOUS
 62
     5
  0
POLYLINE
  5
B5
  8
回03-下ER
  6
CONTINUOUS
 62
     7
 66
     1
 10
0.0
 20
0.0
 30
0.0
 70
     1
  0
VERTEX
  5
72C
  8
回03-下ER
  6
CONTINUOUS
 62
     7
 10
3682.332187663477
 20
254.0180515526443
 30
0.0
  0
VERTEX
  5
72E
  8
回03-下ER
  6
CONTINUOUS
 62
     7
 10
3698.358187663477
 20
254.0180515526443
 30
0.0
  0
VERTEX
  5
72F
  8
回03-下ER
  6
CONTINUOUS
 62
     7
 10
3698.358187663477
 20
438.5180515526442
 30
0.0
  0
VERTEX
  5
730
  8
回03-下ER
  6
CONTINUOUS
 62
     7
 10
3682.332187663477
 20
438.5180515526442
 30
0.0
  0
SEQEND
  5
72D
  8
0
  6
CONTINUOUS
 62
     5
  0
POLYLINE
  5
B6
  8
回03-下ER
  6
CONTINUOUS
 62
     7
 66
     1
 10
0.0
 20
0.0
 30
0.0
 70
     1
  0
VERTEX
  5
731
  8
回03-下ER
  6
CONTINUOUS
 62
     7
 10
3665.906187663477
 20
254.0180515526443
 30
0.0
  0
VERTEX
  5
733
  8
回03-下ER
  6
CONTINUOUS
 62
     7
 10
3681.932187663477
 20
254.0180515526443
 30
0.0
  0
VERTEX
  5
734
  8
回03-下ER
  6
CONTINUOUS
 62
     7
 10
3681.932187663477
 20
438.5180515526442
 30
0.0
  0
VERTEX
  5
735
  8
回03-下ER
  6
CONTINUOUS
 62
     7
 10
3665.906187663477
 20
438.5180515526442
 30
0.0
  0
SEQEND
  5
732
  8
0
  6
CONTINUOUS
 62
     5
  0
POLYLINE
  5
B7
  8
回03-下ER
  6
CONTINUOUS
 62
     7
 66
     1
 10
0.0
 20
0.0
 30
0.0
 70
     1
  0
VERTEX
  5
736
  8
回03-下ER
  6
CONTINUOUS
 62
     7
 10
3649.480187663477
 20
254.0180515526443
 30
0.0
  0
VERTEX
  5
738
  8
回03-下ER
  6
CONTINUOUS
 62
     7
 10
3665.506187663476
 20
254.0180515526443
 30
0.0
  0
VERTEX
  5
739
  8
回03-下ER
  6
CONTINUOUS
 62
     7
 10
3665.506187663476
 20
438.5180515526442
 30
0.0
  0
VERTEX
  5
73A
  8
回03-下ER
  6
CONTINUOUS
 62
     7
 10
3649.480187663477
 20
438.5180515526442
 30
0.0
  0
SEQEND
  5
737
  8
0
  6
CONTINUOUS
 62
     5
  0
POLYLINE
  5
B8
  8
回03-下ER
  6
CONTINUOUS
 62
     7
 66
     1
 10
0.0
 20
0.0
 30
0.0
 70
     1
  0
VERTEX
  5
73B
  8
回03-下ER
  6
CONTINUOUS
 62
     7
 10
3633.054187663476
 20
254.0180515526443
 30
0.0
  0
VERTEX
  5
73D
  8
回03-下ER
  6
CONTINUOUS
 62
     7
 10
3649.080187663476
 20
254.0180515526443
 30
0.0
  0
VERTEX
  5
73E
  8
回03-下ER
  6
CONTINUOUS
 62
     7
 10
3649.080187663476
 20
438.5180515526442
 30
0.0
  0
VERTEX
  5
73F
  8
回03-下ER
  6
CONTINUOUS
 62
     7
 10
3633.054187663476
 20
438.5180515526442
 30
0.0
  0
SEQEND
  5
73C
  8
0
  6
CONTINUOUS
 62
     5
  0
POLYLINE
  5
B9
  8
回03-下ER
  6
CONTINUOUS
 62
     7
 66
     1
 10
0.0
 20
0.0
 30
0.0
 70
     1
  0
VERTEX
  5
740
  8
回03-下ER
  6
CONTINUOUS
 62
     7
 10
3616.628187663476
 20
254.0180515526443
 30
0.0
  0
VERTEX
  5
742
  8
回03-下ER
  6
CONTINUOUS
 62
     7
 10
3632.654187663476
 20
254.0180515526443
 30
0.0
  0
VERTEX
  5
743
  8
回03-下ER
  6
CONTINUOUS
 62
     7
 10
3632.654187663476
 20
438.5180515526442
 30
0.0
  0
VERTEX
  5
744
  8
回03-下ER
  6
CONTINUOUS
 62
     7
 10
3616.628187663476
 20
438.5180515526442
 30
0.0
  0
SEQEND
  5
741
  8
0
  6
CONTINUOUS
 62
     5
  0
POLYLINE
  5
BA
  8
回03-下ER
  6
CONTINUOUS
 62
     7
 66
     1
 10
0.0
 20
0.0
 30
0.0
 70
     1
  0
VERTEX
  5
745
  8
回03-下ER
  6
CONTINUOUS
 62
     7
 10
3600.202187663476
 20
254.0180515526443
 30
0.0
  0
VERTEX
  5
747
  8
回03-下ER
  6
CONTINUOUS
 62
     7
 10
3616.228187663475
 20
254.0180515526443
 30
0.0
  0
VERTEX
  5
748
  8
回03-下ER
  6
CONTINUOUS
 62
     7
 10
3616.228187663475
 20
438.5180515526442
 30
0.0
  0
VERTEX
  5
749
  8
回03-下ER
  6
CONTINUOUS
 62
     7
 10
3600.202187663476
 20
438.5180515526442
 30
0.0
  0
SEQEND
  5
746
  8
0
  6
CONTINUOUS
 62
     5
  0
POLYLINE
  5
BB
  8
回03-下ER
  6
CONTINUOUS
 62
     7
 66
     1
 10
0.0
 20
0.0
 30
0.0
 70
     1
  0
VERTEX
  5
74A
  8
回03-下ER
  6
CONTINUOUS
 62
     7
 10
3583.776187663475
 20
254.0180515526443
 30
0.0
  0
VERTEX
  5
74C
  8
回03-下ER
  6
CONTINUOUS
 62
     7
 10
3599.802187663476
 20
254.0180515526443
 30
0.0
  0
VERTEX
  5
74D
  8
回03-下ER
  6
CONTINUOUS
 62
     7
 10
3599.802187663476
 20
438.5180515526442
 30
0.0
  0
VERTEX
  5
74E
  8
回03-下ER
  6
CONTINUOUS
 62
     7
 10
3583.776187663475
 20
438.5180515526442
 30
0.0
  0
SEQEND
  5
74B
  8
0
  6
CONTINUOUS
 62
     5
  0
POLYLINE
  5
BC
  8
回03-下ER
  6
CONTINUOUS
 62
     7
 66
     1
 10
0.0
 20
0.0
 30
0.0
 70
     1
  0
VERTEX
  5
74F
  8
回03-下ER
  6
CONTINUOUS
 62
     7
 10
3567.350187663475
 20
254.0180515526443
 30
0.0
  0
VERTEX
  5
751
  8
回03-下ER
  6
CONTINUOUS
 62
     7
 10
3583.376187663475
 20
254.0180515526443
 30
0.0
  0
VERTEX
  5
752
  8
回03-下ER
  6
CONTINUOUS
 62
     7
 10
3583.376187663475
 20
438.5180515526442
 30
0.0
  0
VERTEX
  5
753
  8
回03-下ER
  6
CONTINUOUS
 62
     7
 10
3567.350187663475
 20
438.5180515526442
 30
0.0
  0
SEQEND
  5
750
  8
0
  6
CONTINUOUS
 62
     5
  0
POLYLINE
  5
BD
  8
回03-下ER
  6
CONTINUOUS
 62
     7
 66
     1
 10
0.0
 20
0.0
 30
0.0
 70
     1
  0
VERTEX
  5
754
  8
回03-下ER
  6
CONTINUOUS
 62
     7
 10
3550.924187663476
 20
254.0180515526443
 30
0.0
  0
VERTEX
  5
756
  8
回03-下ER
  6
CONTINUOUS
 62
     7
 10
3566.950187663475
 20
254.0180515526443
 30
0.0
  0
VERTEX
  5
757
  8
回03-下ER
  6
CONTINUOUS
 62
     7
 10
3566.950187663475
 20
438.5180515526442
 30
0.0
  0
VERTEX
  5
758
  8
回03-下ER
  6
CONTINUOUS
 62
     7
 10
3550.924187663476
 20
438.5180515526442
 30
0.0
  0
SEQEND
  5
755
  8
0
  6
CONTINUOUS
 62
     5
  0
POLYLINE
  5
BE
  8
回03-下ER
  6
CONTINUOUS
 62
     7
 66
     1
 10
0.0
 20
0.0
 30
0.0
 70
     1
  0
VERTEX
  5
759
  8
回03-下ER
  6
CONTINUOUS
 62
     7
 10
3534.498187663475
 20
254.0180515526443
 30
0.0
  0
VERTEX
  5
75B
  8
回03-下ER
  6
CONTINUOUS
 62
     7
 10
3550.524187663475
 20
254.0180515526443
 30
0.0
  0
VERTEX
  5
75C
  8
回03-下ER
  6
CONTINUOUS
 62
     7
 10
3550.524187663475
 20
438.5180515526442
 30
0.0
  0
VERTEX
  5
75D
  8
回03-下ER
  6
CONTINUOUS
 62
     7
 10
3534.498187663475
 20
438.5180515526442
 30
0.0
  0
SEQEND
  5
75A
  8
0
  6
CONTINUOUS
 62
     5
  0
POLYLINE
  5
BF
  8
回03-下ER
  6
CONTINUOUS
 62
     7
 66
     1
 10
0.0
 20
0.0
 30
0.0
 70
     1
  0
VERTEX
  5
75E
  8
回03-下ER
  6
CONTINUOUS
 62
     7
 10
3518.072187663474
 20
254.0180515526443
 30
0.0
  0
VERTEX
  5
760
  8
回03-下ER
  6
CONTINUOUS
 62
     7
 10
3534.098187663474
 20
254.0180515526443
 30
0.0
  0
VERTEX
  5
761
  8
回03-下ER
  6
CONTINUOUS
 62
     7
 10
3534.098187663474
 20
438.5180515526442
 30
0.0
  0
VERTEX
  5
762
  8
回03-下ER
  6
CONTINUOUS
 62
     7
 10
3518.072187663474
 20
438.5180515526442
 30
0.0
  0
SEQEND
  5
75F
  8
0
  6
CONTINUOUS
 62
     5
  0
TEXT
  5
C0
  8
回08-記事
  6
CONTINUOUS
 62
     7
 10
3614.060430006344
 20
141.8880779245087
 30
0.0
 40
3.0
  1
60
  0
TEXT
  5
C1
  8
回08-記事
  6
CONTINUOUS
 62
     7
 10
3636.8224476384
 20
141.8880779245087
 30
0.0
 40
3.0
  1
27
  0
TEXT
  5
C2
  8
回08-記事
  6
CONTINUOUS
 62
     7
 10
3643.11530652419
 20
141.8880779245087
 30
0.0
 40
3.0
  1
26
  0
TEXT
  5
C3
  8
回08-記事
  6
CONTINUOUS
 62
     7
 10
3662.325068683243
 20
141.8880779245087
 30
0.0
 40
3.0
  1
1
  0
TEXT
  5
C4
  8
回90-枠2
 10
3931.911708178314
 20
120.8976100510556
 30
0.0
 40
5.877614223360004
  1
Oct/12/2023
  0
TEXT
  5
C8
  8
回90-枠2
 10
3847.236403252106
 20
120.8976100510556
 30
0.0
 40
5.877614223360004
  1
MTR-G121B100B
  0
LINE
  5
C9
  8
回90-枠2
  6
CONTINUOUS
 62
     7
 10
3834.203607940733
 20
135.2161071769979
 30
0.0
 11
3998.776806194813
 21
135.2161071769979
 31
0.0
  0
TEXT
  5
CA
  8
回90-枠2
 10
3945.967176921126
 20
130.5326217971215
 30
0.0
 40
4.114329956352002
  1
DATE
  0
LINE
  5
CB
  8
回90-枠2
  6
CONTINUOUS
 62
     7
 10
3834.203607940733
 20
135.2161071769979
 30
0.0
 11
3998.776806194813
 21
135.2161071769979
 31
0.0
  0
TEXT
  5
CC
  8
回90-枠2
 10
3933.193824020651
 20
105.6717487047306
 30
0.0
 40
5.877614223360004
  1
DMC Co., Ltd.
  0
LINE
  5
CD
  8
回90-枠2
 10
3910.612592844414
 20
135.2161071769979
 30
0.0
 11
3910.612592844414
 21
99.95042183683819
 31
0.0
  0
TEXT
  5
CE
  8
回90-枠2
 10
3852.279498479404
 20
107.0653127106701
 30
0.0
 40
3.526568534016003
  1
Multi Touch Resistive
  0
LINE
  5
CF
  8
回90-枠2
 10
3834.203607940733
 20
135.2161071769979
 30
0.0
 11
3834.203607940733
 21
99.95042183683819
 31
0.0
  0
TEXT
  5
D0
  8
回90-枠2
 10
3867.151039355281
 20
112.7599131388077
 30
0.0
 40
3.526568534016003
  1
TYPE
  0
LINE
  5
D1
  8
回90-枠2
 10
3837.73017647475
 20
105.828036060198
 30
0.0
 11
3907.086024310397
 21
105.828036060198
 31
0.0
  0
TEXT
  5
D2
  8
回90-枠2
 10
3849.569682956803
 20
100.7867240286221
 30
0.0
 40
3.526568534016003
  1
DIMENSIONAL DRAWING
  0
TEXT
  5
D3
  8
回90-枠2
 10
3862.177861801966
 20
130.3525008747145
 30
0.0
 40
4.114329956352002
  1
PART No.
  0
LINE
  5
D4
  8
回90-枠2
 10
3834.203607940733
 20
117.5832645069181
 30
0.0
 11
3998.776806194813
 21
117.5832645069181
 31
0.0
  0
LINE
  5
D5
  8
回90-枠2
 10
3834.203607940733
 20
111.7056502835581
 30
0.0
 11
3910.612592844414
 21
111.7056502835581
 31
0.0
  0
LINE
  5
D6
  8
回90-枠2
 10
3834.203607940733
 20
129.3384929536381
 30
0.0
 11
3998.776806194813
 21
129.3384929536381
 31
0.0
  0
TEXT
  5
D7
  8
回08-記事
  6
CONTINUOUS
 62
     7
 10
3941.086542788534
 20
476.1728839744684
 30
0.0
 40
3.5
  1
PIN ASSIGNMENT
  0
POLYLINE
  5
D8
  8
回08-記事
  6
DASHED2
 62
     7
 66
     1
 10
0.0
 20
0.0
 30
0.0
 70
     1
1001
ACAD
1000
ASC_BOUNDS
1002
{
1070
    19
1005
DB
1002
}
  0
VERTEX
  5
763
  8
回08-記事
  6
DASHED2
 62
     7
 10
3641.570905006918
 20
237.286337852252
 30
0.0
  0
VERTEX
  5
765
  8
回08-記事
  6
DASHED2
 62
     7
 10
3667.570905006917
 20
237.286337852252
 30
0.0
  0
VERTEX
  5
766
  8
回08-記事
  6
DASHED2
 62
     7
 10
3667.570905006917
 20
244.486337852252
 30
0.0
  0
VERTEX
  5
767
  8
回08-記事
  6
DASHED2
 62
     7
 10
3641.570905006918
 20
244.486337852252
 30
0.0
  0
SEQEND
  5
764
  8
0
  6
CONTINUOUS
 62
     5
  0
POLYLINE
  5
DA
  8
回08-記事
  6
DASHED2
 62
     7
 66
     1
 10
0.0
 20
0.0
 30
0.0
 70
     1
1001
ACAD
1000
ASC_BOUNDS
1002
{
1070
    19
1005
DF
1002
}
  0
VERTEX
  5
768
  8
回08-記事
  6
DASHED2
 62
     7
 10
3605.570905006918
 20
237.286337852252
 30
0.0
  0
VERTEX
  5
76A
  8
回08-記事
  6
DASHED2
 62
     7
 10
3639.570905006917
 20
237.286337852252
 30
0.0
  0
VERTEX
  5
76B
  8
回08-記事
  6
DASHED2
 62
     7
 10
3639.570905006917
 20
244.486337852252
 30
0.0
  0
VERTEX
  5
76C
  8
回08-記事
  6
DASHED2
 62
     7
 10
3605.570905006918
 20
244.486337852252
 30
0.0
  0
SEQEND
  5
769
  8
0
  6
CONTINUOUS
 62
     5
  0
INSERT
  5
DB
  8
回08-記事
  6
PHANTOM2
 62
     7
 66
     1
  2
*X77
 10
0.0
 20
0.0
 30
0.0
1001
GRADIENTCOLOR1ACI
1070
     5
1001
GRADIENTCOLOR2ACI
1070
     2
1001
ACAD
1010
0.0
1020
0.0
1030
0.0
  0
SEQEND
  5
77F
  8
0
  6
CONTINUOUS
 62
     5
  0
INSERT
  5
DF
  8
回08-記事
  6
PHANTOM2
 62
     7
 66
     1
  2
*X78
 10
0.0
 20
0.0
 30
0.0
1001
GRADIENTCOLOR1ACI
1070
     5
1001
GRADIENTCOLOR2ACI
1070
     2
1001
ACAD
1010
0.0
1020
0.0
1030
0.0
  0
SEQEND
  5
796
  8
0
  6
CONTINUOUS
 62
     5
  0
LINE
  5
E0
  8
回07-寸法
  6
CENTER2
 62
     5
 10
3641.067187663475
 20
250.6180515526443
 30
0.0
 11
3641.067187663475
 21
441.9180515526442
 31
0.0
  0
LINE
  5
E5
  8
回07-寸法
  6
CENTER2
 62
     5
 10
3514.917187663474
 20
346.2680515526443
 30
0.0
 11
3767.217187663475
 21
346.2680515526443
 31
0.0
  0
DIMENSION
  5
E6
  8
回07-寸法
  6
CONTINUOUS
 62
     7
  2
*D39
 10
3772.717187663474
 20
471.9180515526442
 30
0.0
 11
3787.994191016821
 21
474.0680515526442
 31
0.0
 70
    32
  1
(<>){\H0.6667x;(Insulation area)}
  3
DMC
 13
3766.717187663474
 23
441.4180515526442
 33
0.0
 14
3772.717187663474
 24
447.9180515526443
 34
0.0
 50
180.0
1001
ACADSTRINGINFO
1000
MIFCodePage
1070
     1
1001
ACAD
1000
DSTYLE
1002
{
1070
    41
1040
1.5
1070
    47
1040
0.2
1070
    48
1040
0.2
1070
   141
1040
1.5
1070
   271
1070
     3
1070
   272
1070
     3
1070
   371
1070
     0
1070
   372
1070
     0
1002
}
  0
DIMENSION
  5
F8
  8
回07-寸法
  6
CONTINUOUS
 62
     5
  2
*D40
 10
3772.717187663474
 20
459.9180515526442
 30
0.0
 11
3783.715219159538
 21
459.9180515526442
 31
0.0
 70
   160
  1
(<>)
  3
DMC
 13
3764.067187663474
 23
438.5180515526442
 33
0.0
 14
3772.717187663474
 24
447.9180515526443
 34
0.0
 50
180.0
1001
ACAD
1000
DSTYLE
1002
{
1070
    41
1040
1.5
1070
    47
1040
0.2
1070
    48
1040
0.2
1070
   141
1040
1.5
1070
   271
1070
     3
1070
   272
1070
     3
1070
   371
1070
     0
1070
   372
1070
     0
1002
}
  0
DIMENSION
  5
109
  8
回07-寸法
  6
CONTINUOUS
 62
     5
  2
*D41
 10
3772.717187663474
 20
465.9180515526442
 30
0.0
 11
3779.516006561112
 21
468.0680515526442
 31
0.0
 70
    32
  1
(<>)
  3
DMC
 13
3766.217187663474
 23
440.9180515526442
 33
0.0
 14
3772.717187663474
 24
447.9180515526443
 34
0.0
 50
180.0
1001
ACAD
1000
DSTYLE
1002
{
1070
    41
1040
1.5
1070
    47
1040
0.2
1070
    48
1040
0.2
1070
   141
1040
1.5
1070
   271
1070
     3
1070
   272
1070
     3
1070
   371
1070
     0
1070
   372
1070
     0
1002
}
  0
DIMENSION
  5
11A
  8
回07-寸法
  6
CONTINUOUS
 62
     7
  2
*D42
 10
3477.417187663475
 20
447.9180515526443
 30
0.0
 11
3475.267187663476
 21
464.694616061207
 31
0.0
 70
    32
  1
(<>){\H0.66667x;(Insulation area)}
  3
DMC
 13
3515.417187663473
 23
441.4180515526445
 33
0.0
 14
3509.417187663474
 24
447.9180515526443
 34
0.0
 50
90.0
1001
ACAD
1000
DSTYLE
1002
{
1070
    41
1040
1.5
1070
    47
1040
0.2
1070
    48
1040
0.2
1070
   141
1040
1.5
1070
   271
1070
     3
1070
   272
1070
     3
1070
   371
1070
     0
1070
   372
1070
     0
1002
}
  0
DIMENSION
  5
12B
  8
回07-寸法
  6
CONTINUOUS
 62
     7
  2
*D43
 10
3485.417187663474
 20
447.9180515526443
 30
0.0
 11
3485.417187663474
 21
454.4160830487069
 31
0.0
 70
   160
  1
(<>)
  3
DMC
 13
3515.917187663474
 23
440.9180515526444
 33
0.0
 14
3509.417187663474
 24
447.9180515526443
 34
0.0
 50
90.0
1001
ACAD
1000
DSTYLE
1002
{
1070
    41
1040
1.5
1070
    47
1040
0.2
1070
    48
1040
0.2
1070
   141
1040
1.5
1070
   271
1070
     3
1070
   272
1070
     3
1070
   371
1070
     0
1070
   372
1070
     0
1002
}
  0
DIMENSION
  5
13C
  8
回07-寸法
  6
CONTINUOUS
 62
     7
  2
*D44
 10
3493.417187663475
 20
447.9180515526443
 30
0.0
 11
3493.417187663475
 21
457.1748188749431
 31
0.0
 70
   160
  1
(<>)
  3
DMC
 13
3518.067187673474
 23
438.5180515526442
 33
0.0
 14
3509.417187663474
 24
447.9180515526443
 34
0.0
 50
90.0
1001
ACAD
1000
DSTYLE
1002
{
1070
    41
1040
1.5
1070
    47
1040
0.2
1070
    48
1040
0.2
1070
   141
1040
1.5
1070
   271
1070
     3
1070
   272
1070
     3
1070
   371
1070
     0
1070
   372
1070
     0
1002
}
  0
TEXT
  5
14D
  8
回08-記事
  6
CONTINUOUS
 62
     7
 10
3982.262935897296
 20
273.674188367824
 30
0.0
 40
3.42144
  1
NC
  0
TEXT
  5
14E
  8
回08-記事
  6
CONTINUOUS
 62
     7
 10
3982.262935897296
 20
370.6149883678241
 30
0.0
 40
3.42144
  1
NC
  0
TEXT
  5
14F
  8
回08-記事
  6
CONTINUOUS
 62
     7
 10
3982.262935897296
 20
461.853388367824
 30
0.0
 40
3.42144
  1
U9
  0
TEXT
  5
150
  8
回08-記事
  6
CONTINUOUS
 62
     7
 10
3982.598891498098
 20
279.3765883678241
 30
0.0
 40
3.42144
  1
U8
  0
LINE
  5
151
  8
回08-記事
  6
CONTINUOUS
 62
     7
 10
3968.621263984836
 20
275.2132668772493
 30
0.0
 11
3981.005367781506
 21
275.2132668772493
 31
0.0
  0
LINE
  5
152
  8
回08-記事
  6
CONTINUOUS
 62
     7
 10
3968.621263984836
 20
280.9156668772492
 30
0.0
 11
3981.005367781506
 21
280.9156668772492
 31
0.0
  0
TEXT
  5
153
  8
回08-記事
  6
CONTINUOUS
 62
     7
 10
3963.578811457459
 20
273.6741883678242
 30
0.0
 40
3.42144
  1
60
  0
TEXT
  5
154
  8
回08-記事
  6
CONTINUOUS
 62
     7
 10
3963.578811457459
 20
279.3765883678241
 30
0.0
 40
3.42144
  1
59
  0
TEXT
  5
155
  8
回08-記事
  6
CONTINUOUS
 62
     7
 10
3982.262935897296
 20
307.8885883678241
 30
0.0
 40
3.42144
  1
U3
  0
TEXT
  5
156
  8
回08-記事
  6
CONTINUOUS
 62
     7
 10
3982.598891498098
 20
285.078988367824
 30
0.0
 40
3.42144
  1
U7
  0
TEXT
  5
157
  8
回08-記事
  6
CONTINUOUS
 62
     7
 10
3982.598891498098
 20
290.7813883678242
 30
0.0
 40
3.42144
  1
U6
  0
TEXT
  5
158
  8
回08-記事
  6
CONTINUOUS
 62
     7
 10
3982.598891498098
 20
296.483788367824
 30
0.0
 40
3.42144
  1
U5
  0
TEXT
  5
159
  8
回08-記事
  6
CONTINUOUS
 62
     7
 10
3982.598891498098
 20
302.1861883678239
 30
0.0
 40
3.42144
  1
U4
  0
LINE
  5
15A
  8
回08-記事
  6
CONTINUOUS
 62
     7
 10
3968.621263984836
 20
286.6180668772493
 30
0.0
 11
3981.005367781506
 21
286.6180668772493
 31
0.0
  0
LINE
  5
15B
  8
回08-記事
  6
CONTINUOUS
 62
     7
 10
3968.621263984836
 20
292.3204668772492
 30
0.0
 11
3981.005367781506
 21
292.3204668772492
 31
0.0
  0
LINE
  5
15C
  8
回08-記事
  6
CONTINUOUS
 62
     7
 10
3968.621263984836
 20
298.0228668772491
 30
0.0
 11
3981.005367781506
 21
298.0228668772491
 31
0.0
  0
LINE
  5
15D
  8
回08-記事
  6
CONTINUOUS
 62
     7
 10
3968.621263984836
 20
303.7252668772492
 30
0.0
 11
3981.005367781506
 21
303.7252668772492
 31
0.0
  0
LINE
  5
15E
  8
回08-記事
  6
CONTINUOUS
 62
     7
 10
3968.621263984836
 20
309.4276668772491
 30
0.0
 11
3981.005367781506
 21
309.4276668772491
 31
0.0
  0
LINE
  5
15F
  8
回08-記事
  6
CONTINUOUS
 62
     7
 10
3968.621263984836
 20
315.1300668772492
 30
0.0
 11
3981.005367781506
 21
315.1300668772492
 31
0.0
  0
TEXT
  5
160
  8
回08-記事
  6
CONTINUOUS
 62
     7
 10
3963.578811457459
 20
285.078988367824
 30
0.0
 40
3.42144
  1
58
  0
TEXT
  5
161
  8
回08-記事
  6
CONTINUOUS
 62
     7
 10
3963.578811457459
 20
290.7813883678242
 30
0.0
 40
3.42144
  1
57
  0
TEXT
  5
162
  8
回08-記事
  6
CONTINUOUS
 62
     7
 10
3963.578811457459
 20
296.483788367824
 30
0.0
 40
3.42144
  1
56
  0
TEXT
  5
163
  8
回08-記事
  6
CONTINUOUS
 62
     7
 10
3963.578811457459
 20
302.1861883678239
 30
0.0
 40
3.42144
  1
55
  0
TEXT
  5
164
  8
回08-記事
  6
CONTINUOUS
 62
     7
 10
3963.578811457459
 20
307.8885883678241
 30
0.0
 40
3.42144
  1
54
  0
TEXT
  5
165
  8
回08-記事
  6
CONTINUOUS
 62
     7
 10
3963.578811457459
 20
313.590988367824
 30
0.0
 40
3.42144
  1
53
  0
TEXT
  5
166
  8
回08-記事
  6
CONTINUOUS
 62
     7
 10
3982.598891498098
 20
313.590988367824
 30
0.0
 40
3.42144
  1
U2
  0
TEXT
  5
167
  8
回08-記事
  6
CONTINUOUS
 62
     7
 10
3982.598891498098
 20
324.995788367824
 30
0.0
 40
3.42144
  1
SDL
  0
TEXT
  5
168
  8
回08-記事
  6
CONTINUOUS
 62
     7
 10
3982.262935897296
 20
450.4485883678241
 30
0.0
 40
3.42144
  1
U11
  0
TEXT
  5
169
  8
回08-記事
  6
CONTINUOUS
 62
     7
 10
3982.598891498098
 20
319.2933883678241
 30
0.0
 40
3.42144
  1
U1
  0
LINE
  5
16A
  8
回08-記事
  6
CONTINUOUS
 62
     7
 10
3968.621263984836
 20
320.8324668772491
 30
0.0
 11
3981.005367781506
 21
320.8324668772491
 31
0.0
  0
LINE
  5
16B
  8
回08-記事
  6
CONTINUOUS
 62
     7
 10
3968.621263984836
 20
326.5348668772493
 30
0.0
 11
3981.005367781506
 21
326.5348668772493
 31
0.0
  0
TEXT
  5
16C
  8
回08-記事
  6
CONTINUOUS
 62
     7
 10
3963.578811457459
 20
319.2933883678241
 30
0.0
 40
3.42144
  1
52
  0
TEXT
  5
16D
  8
回08-記事
  6
CONTINUOUS
 62
     7
 10
3963.578811457459
 20
324.995788367824
 30
0.0
 40
3.42144
  1
51
  0
TEXT
  5
16E
  8
回08-記事
  6
CONTINUOUS
 62
     7
 10
3982.262935897296
 20
393.4245883678241
 30
0.0
 40
3.42144
  1
D11
  0
TEXT
  5
16F
  8
回08-記事
  6
CONTINUOUS
 62
     7
 10
3982.262935897296
 20
456.1509883678241
 30
0.0
 40
3.42144
  1
U10
  0
TEXT
  5
170
  8
回08-記事
  6
CONTINUOUS
 62
     7
 10
3982.262935897296
 20
353.5077883678241
 30
0.0
 40
3.42144
  1
D5
  0
TEXT
  5
171
  8
回08-記事
  6
CONTINUOUS
 62
     7
 10
3982.262935897296
 20
359.2101883678241
 30
0.0
 40
3.42144
  1
D6
  0
TEXT
  5
172
  8
回08-記事
  6
CONTINUOUS
 62
     7
 10
3982.262935897296
 20
364.9125883678242
 30
0.0
 40
3.42144
  1
D7
  0
TEXT
  5
173
  8
回08-記事
  6
CONTINUOUS
 62
     7
 10
3982.262935897296
 20
404.829388367824
 30
0.0
 40
3.42144
  1
D13
  0
TEXT
  5
174
  8
回08-記事
  6
CONTINUOUS
 62
     7
 10
3982.262935897296
 20
410.531788367824
 30
0.0
 40
3.42144
  1
D14
  0
TEXT
  5
175
  8
回08-記事
  6
CONTINUOUS
 62
     7
 10
3982.262935897296
 20
416.234188367824
 30
0.0
 40
3.42144
  1
D15
  0
TEXT
  5
176
  8
回08-記事
  6
CONTINUOUS
 62
     7
 10
3982.262935897296
 20
421.936588367824
 30
0.0
 40
3.42144
  1
SUR
  0
TEXT
  5
177
  8
回08-記事
  6
CONTINUOUS
 62
     7
 10
3982.262935897296
 20
427.638988367824
 30
0.0
 40
3.42144
  1
U15
  0
TEXT
  5
178
  8
回08-記事
  6
CONTINUOUS
 62
     7
 10
3982.262935897296
 20
433.341388367824
 30
0.0
 40
3.42144
  1
U14
  0
TEXT
  5
179
  8
回08-記事
  6
CONTINUOUS
 62
     7
 10
3982.262935897296
 20
439.0437883678241
 30
0.0
 40
3.42144
  1
U13
  0
TEXT
  5
17A
  8
回08-記事
  6
CONTINUOUS
 62
     7
 10
3982.262935897296
 20
444.7461883678241
 30
0.0
 40
3.42144
  1
U12
  0
LINE
  5
17B
  8
回08-記事
  6
CONTINUOUS
 62
     7
 10
3968.621263984836
 20
463.3924668772492
 30
0.0
 11
3981.005367781506
 21
463.3924668772492
 31
0.0
  0
TEXT
  5
17C
  8
回08-記事
  6
CONTINUOUS
 62
     7
 10
3963.855001991296
 20
461.853388367824
 30
0.0
 40
3.42144
  1
27
  0
LINE
  5
17D
  8
回08-記事
  6
CONTINUOUS
 62
     7
 10
3968.621263984836
 20
457.6900668772491
 30
0.0
 11
3981.005367781506
 21
457.6900668772491
 31
0.0
  0
TEXT
  5
17E
  8
回08-記事
  6
CONTINUOUS
 62
     7
 10
3963.855001991296
 20
456.1509883678241
 30
0.0
 40
3.42144
  1
28
  0
LINE
  5
17F
  8
回08-記事
  6
CONTINUOUS
 62
     7
 10
3968.621263984836
 20
451.9876668772493
 30
0.0
 11
3981.005367781506
 21
451.9876668772493
 31
0.0
  0
TEXT
  5
180
  8
回08-記事
  6
CONTINUOUS
 62
     7
 10
3963.855001991296
 20
450.4485883678241
 30
0.0
 40
3.42144
  1
29
  0
LINE
  5
181
  8
回08-記事
  6
CONTINUOUS
 62
     7
 10
3968.621263984836
 20
446.2852668772491
 30
0.0
 11
3981.005367781506
 21
446.2852668772491
 31
0.0
  0
TEXT
  5
182
  8
回08-記事
  6
CONTINUOUS
 62
     7
 10
3963.858626170392
 20
444.7461883678241
 30
0.0
 40
3.42144
  1
30
  0
LINE
  5
183
  8
回08-記事
  6
CONTINUOUS
 62
     7
 10
3968.621263984836
 20
440.5828668772493
 30
0.0
 11
3981.005367781506
 21
440.5828668772493
 31
0.0
  0
TEXT
  5
184
  8
回08-記事
  6
CONTINUOUS
 62
     7
 10
3963.858626170392
 20
439.0437883678241
 30
0.0
 40
3.42144
  1
31
  0
LINE
  5
185
  8
回08-記事
  6
CONTINUOUS
 62
     7
 10
3968.621263984836
 20
434.8804668772493
 30
0.0
 11
3981.005367781506
 21
434.8804668772493
 31
0.0
  0
TEXT
  5
186
  8
回08-記事
  6
CONTINUOUS
 62
     7
 10
3963.858626170392
 20
433.341388367824
 30
0.0
 40
3.42144
  1
32
  0
LINE
  5
187
  8
回08-記事
  6
CONTINUOUS
 62
     7
 10
3968.621263984836
 20
429.1780668772492
 30
0.0
 11
3981.005367781506
 21
429.1780668772492
 31
0.0
  0
TEXT
  5
188
  8
回08-記事
  6
CONTINUOUS
 62
     7
 10
3963.88322326221
 20
427.638988367824
 30
0.0
 40
3.42144
  1
33
  0
LINE
  5
189
  8
回08-記事
  6
CONTINUOUS
 62
     7
 10
3968.621263984836
 20
423.4756668772493
 30
0.0
 11
3981.005367781506
 21
423.4756668772493
 31
0.0
  0
TEXT
  5
18A
  8
回08-記事
  6
CONTINUOUS
 62
     7
 10
3963.88322326221
 20
421.936588367824
 30
0.0
 40
3.42144
  1
34
  0
TEXT
  5
18B
  8
回08-記事
  6
CONTINUOUS
 62
     7
 10
3982.598891498098
 20
330.6981883678241
 30
0.0
 40
3.42144
  1
D1
  0
TEXT
  5
18C
  8
回08-記事
  6
CONTINUOUS
 62
     7
 10
3982.598891498098
 20
336.400588367824
 30
0.0
 40
3.42144
  1
D2
  0
TEXT
  5
18D
  8
回08-記事
  6
CONTINUOUS
 62
     7
 10
3982.598891498098
 20
342.1029883678242
 30
0.0
 40
3.42144
  1
D3
  0
TEXT
  5
18E
  8
回08-記事
  6
CONTINUOUS
 62
     7
 10
3982.598891498098
 20
347.805388367824
 30
0.0
 40
3.42144
  1
D4
  0
TEXT
  5
18F
  8
回08-記事
  6
CONTINUOUS
 62
     7
 10
3982.262935897296
 20
376.317388367824
 30
0.0
 40
3.42144
  1
D8
  0
TEXT
  5
190
  8
回08-記事
  6
CONTINUOUS
 62
     7
 10
3982.262935897296
 20
382.0197883678241
 30
0.0
 40
3.42144
  1
D9
  0
TEXT
  5
191
  8
回08-記事
  6
CONTINUOUS
 62
     7
 10
3982.262935897296
 20
387.722188367824
 30
0.0
 40
3.42144
  1
D10
  0
TEXT
  5
192
  8
回08-記事
  6
CONTINUOUS
 62
     7
 10
3982.262935897296
 20
399.1269883678242
 30
0.0
 40
3.42144
  1
D12
  0
LINE
  5
193
  8
回08-記事
  6
CONTINUOUS
 62
     7
 10
3968.621263984836
 20
332.2372668772492
 30
0.0
 11
3981.005367781506
 21
332.2372668772492
 31
0.0
  0
LINE
  5
194
  8
回08-記事
  6
CONTINUOUS
 62
     7
 10
3968.621263984836
 20
337.9396668772493
 30
0.0
 11
3981.005367781506
 21
337.9396668772493
 31
0.0
  0
LINE
  5
195
  8
回08-記事
  6
CONTINUOUS
 62
     7
 10
3968.621263984836
 20
343.6420668772492
 30
0.0
 11
3981.005367781506
 21
343.6420668772492
 31
0.0
  0
LINE
  5
196
  8
回08-記事
  6
CONTINUOUS
 62
     7
 10
3968.621263984836
 20
349.3444668772493
 30
0.0
 11
3981.005367781506
 21
349.3444668772493
 31
0.0
  0
LINE
  5
197
  8
回08-記事
  6
CONTINUOUS
 62
     7
 10
3968.621263984836
 20
355.0468668772492
 30
0.0
 11
3981.005367781506
 21
355.0468668772492
 31
0.0
  0
LINE
  5
198
  8
回08-記事
  6
CONTINUOUS
 62
     7
 10
3968.621263984836
 20
360.7492668772493
 30
0.0
 11
3981.005367781506
 21
360.7492668772493
 31
0.0
  0
LINE
  5
199
  8
回08-記事
  6
CONTINUOUS
 62
     7
 10
3968.621263984836
 20
366.4516668772492
 30
0.0
 11
3981.005367781506
 21
366.4516668772492
 31
0.0
  0
LINE
  5
19A
  8
回08-記事
  6
CONTINUOUS
 62
     7
 10
3968.621263984836
 20
372.1540668772494
 30
0.0
 11
3981.005367781506
 21
372.1540668772494
 31
0.0
  0
LINE
  5
19B
  8
回08-記事
  6
CONTINUOUS
 62
     7
 10
3968.621263984836
 20
377.8564668772493
 30
0.0
 11
3981.005367781506
 21
377.8564668772493
 31
0.0
  0
LINE
  5
19C
  8
回08-記事
  6
CONTINUOUS
 62
     7
 10
3968.621263984836
 20
383.5588668772494
 30
0.0
 11
3981.005367781506
 21
383.5588668772494
 31
0.0
  0
LINE
  5
19D
  8
回08-記事
  6
CONTINUOUS
 62
     7
 10
3968.621263984836
 20
389.2612668772493
 30
0.0
 11
3981.005367781506
 21
389.2612668772493
 31
0.0
  0
LINE
  5
19E
  8
回08-記事
  6
CONTINUOUS
 62
     7
 10
3968.621263984836
 20
394.9636668772494
 30
0.0
 11
3981.005367781506
 21
394.9636668772494
 31
0.0
  0
LINE
  5
19F
  8
回08-記事
  6
CONTINUOUS
 62
     7
 10
3968.621263984836
 20
400.6660668772493
 30
0.0
 11
3981.005367781506
 21
400.6660668772493
 31
0.0
  0
LINE
  5
1A0
  8
回08-記事
  6
CONTINUOUS
 62
     7
 10
3968.621263984836
 20
406.3684668772494
 30
0.0
 11
3981.005367781506
 21
406.3684668772494
 31
0.0
  0
LINE
  5
1A1
  8
回08-記事
  6
CONTINUOUS
 62
     7
 10
3968.621263984836
 20
412.0708668772492
 30
0.0
 11
3981.005367781506
 21
412.0708668772492
 31
0.0
  0
LINE
  5
1A2
  8
回08-記事
  6
CONTINUOUS
 62
     7
 10
3968.621263984836
 20
417.7732668772492
 30
0.0
 11
3981.005367781506
 21
417.7732668772492
 31
0.0
  0
TEXT
  5
1A3
  8
回08-記事
  6
CONTINUOUS
 62
     7
 10
3963.578811457459
 20
330.6981883678241
 30
0.0
 40
3.42144
  1
50
  0
TEXT
  5
1A4
  8
回08-記事
  6
CONTINUOUS
 62
     7
 10
3963.281996171017
 20
336.400588367824
 30
0.0
 40
3.42144
  1
49
  0
TEXT
  5
1A5
  8
回08-記事
  6
CONTINUOUS
 62
     7
 10
3963.316164333751
 20
342.1029883678242
 30
0.0
 40
3.42144
  1
48
  0
TEXT
  5
1A6
  8
回08-記事
  6
CONTINUOUS
 62
     7
 10
3963.278938659098
 20
347.805388367824
 30
0.0
 40
3.42144
  1
47
  0
TEXT
  5
1A7
  8
回08-記事
  6
CONTINUOUS
 62
     7
 10
3963.278938659098
 20
353.5077883678241
 30
0.0
 40
3.42144
  1
46
  0
TEXT
  5
1A8
  8
回08-記事
  6
CONTINUOUS
 62
     7
 10
3963.247124344644
 20
359.2101883678241
 30
0.0
 40
3.42144
  1
45
  0
TEXT
  5
1A9
  8
回08-記事
  6
CONTINUOUS
 62
     7
 10
3963.247124344644
 20
364.9125883678242
 30
0.0
 40
3.42144
  1
44
  0
TEXT
  5
1AA
  8
回08-記事
  6
CONTINUOUS
 62
     7
 10
3963.237976717333
 20
370.6149883678241
 30
0.0
 40
3.42144
  1
43
  0
TEXT
  5
1AB
  8
回08-記事
  6
CONTINUOUS
 62
     7
 10
3963.237976717333
 20
376.317388367824
 30
0.0
 40
3.42144
  1
42
  0
TEXT
  5
1AC
  8
回08-記事
  6
CONTINUOUS
 62
     7
 10
3963.372937804622
 20
382.0197883678241
 30
0.0
 40
3.42144
  1
41
  0
TEXT
  5
1AD
  8
回08-記事
  6
CONTINUOUS
 62
     7
 10
3963.372937804622
 20
387.722188367824
 30
0.0
 40
3.42144
  1
40
  0
TEXT
  5
1AE
  8
回08-記事
  6
CONTINUOUS
 62
     7
 10
3963.709320159774
 20
393.4245883678241
 30
0.0
 40
3.42144
  1
39
  0
TEXT
  5
1AF
  8
回08-記事
  6
CONTINUOUS
 62
     7
 10
3963.709320159774
 20
399.1269883678242
 30
0.0
 40
3.42144
  1
38
  0
TEXT
  5
1B0
  8
回08-記事
  6
CONTINUOUS
 62
     7
 10
3963.70910843797
 20
404.829388367824
 30
0.0
 40
3.42144
  1
37
  0
TEXT
  5
1B1
  8
回08-記事
  6
CONTINUOUS
 62
     7
 10
3963.70910843797
 20
410.531788367824
 30
0.0
 40
3.42144
  1
36
  0
TEXT
  5
1B2
  8
回08-記事
  6
CONTINUOUS
 62
     7
 10
3963.88322326221
 20
416.234188367824
 30
0.0
 40
3.42144
  1
35
  0
TEXT
  5
1B3
  8
回08-記事
  6
CONTINUOUS
 62
     7
 10
3946.684012918181
 20
319.2933883678241
 30
0.0
 40
3.42144
  1
SUL
  0
TEXT
  5
1B4
  8
回08-記事
  6
CONTINUOUS
 62
     7
 10
3946.684012918181
 20
330.6981883678241
 30
0.0
 40
3.42144
  1
L2
  0
TEXT
  5
1B5
  8
回08-記事
  6
CONTINUOUS
 62
     7
 10
3946.348057317379
 20
450.4485883678241
 30
0.0
 40
3.42144
  1
R3
  0
TEXT
  5
1B6
  8
回08-記事
  6
CONTINUOUS
 62
     7
 10
3946.684012918181
 20
324.995788367824
 30
0.0
 40
3.42144
  1
L1
  0
LINE
  5
1B7
  8
回08-記事
  6
CONTINUOUS
 62
     7
 10
3932.70638540492
 20
320.8324668772491
 30
0.0
 11
3945.090489201589
 21
320.8324668772491
 31
0.0
  0
LINE
  5
1B8
  8
回08-記事
  6
CONTINUOUS
 62
     7
 10
3932.70638540492
 20
326.5348668772493
 30
0.0
 11
3945.090489201589
 21
326.5348668772493
 31
0.0
  0
TEXT
  5
1B9
  8
回08-記事
  6
CONTINUOUS
 62
     7
 10
3927.663932877542
 20
319.2933883678241
 30
0.0
 40
3.42144
  1
26
  0
TEXT
  5
1BA
  8
回08-記事
  6
CONTINUOUS
 62
     7
 10
3927.663932877542
 20
324.995788367824
 30
0.0
 40
3.42144
  1
25
  0
TEXT
  5
1BB
  8
回08-記事
  6
CONTINUOUS
 62
     7
 10
3946.348057317379
 20
393.4245883678241
 30
0.0
 40
3.42144
  1
SDR
  0
TEXT
  5
1BC
  8
回08-記事
  6
CONTINUOUS
 62
     7
 10
3946.348057317379
 20
456.1509883678241
 30
0.0
 40
3.42144
  1
R2
  0
TEXT
  5
1BD
  8
回08-記事
  6
CONTINUOUS
 62
     7
 10
3946.348057317379
 20
359.2101883678241
 30
0.0
 40
3.42144
  1
L7
  0
TEXT
  5
1BE
  8
回08-記事
  6
CONTINUOUS
 62
     7
 10
3946.348057317379
 20
364.9125883678242
 30
0.0
 40
3.42144
  1
L8
  0
TEXT
  5
1BF
  8
回08-記事
  6
CONTINUOUS
 62
     7
 10
3946.348057317379
 20
370.6149883678241
 30
0.0
 40
3.42144
  1
L9
  0
TEXT
  5
1C0
  8
回08-記事
  6
CONTINUOUS
 62
     7
 10
3946.348057317379
 20
404.829388367824
 30
0.0
 40
3.42144
  1
R11
  0
TEXT
  5
1C1
  8
回08-記事
  6
CONTINUOUS
 62
     7
 10
3946.348057317379
 20
410.531788367824
 30
0.0
 40
3.42144
  1
R10
  0
TEXT
  5
1C2
  8
回08-記事
  6
CONTINUOUS
 62
     7
 10
3946.348057317379
 20
416.234188367824
 30
0.0
 40
3.42144
  1
R9
  0
TEXT
  5
1C3
  8
回08-記事
  6
CONTINUOUS
 62
     7
 10
3946.348057317379
 20
421.936588367824
 30
0.0
 40
3.42144
  1
R8
  0
TEXT
  5
1C4
  8
回08-記事
  6
CONTINUOUS
 62
     7
 10
3946.348057317379
 20
427.638988367824
 30
0.0
 40
3.42144
  1
R7
  0
TEXT
  5
1C5
  8
回08-記事
  6
CONTINUOUS
 62
     7
 10
3946.348057317379
 20
433.341388367824
 30
0.0
 40
3.42144
  1
R6
  0
TEXT
  5
1C6
  8
回08-記事
  6
CONTINUOUS
 62
     7
 10
3946.348057317379
 20
439.0437883678241
 30
0.0
 40
3.42144
  1
R5
  0
TEXT
  5
1C7
  8
回08-記事
  6
CONTINUOUS
 62
     7
 10
3946.348057317379
 20
444.7461883678241
 30
0.0
 40
3.42144
  1
R4
  0
TEXT
  5
1C8
  8
回08-記事
  6
CONTINUOUS
 62
     7
 10
3946.348057317379
 20
461.853388367824
 30
0.0
 40
3.42144
  1
R1
  0
TEXT
  5
1C9
  8
回08-記事
  6
CONTINUOUS
 62
     7
 10
3931.556956507837
 20
469.747373566182
 30
0.0
 40
3.42144
  1
Tail-1
  0
TEXT
  5
1CA
  8
回08-記事
  6
CONTINUOUS
 62
     7
 10
3968.227664033415
 20
469.747373566182
 30
0.0
 40
3.42144
  1
Tail-2
  0
LINE
  5
1CB
  8
回08-記事
  6
CONTINUOUS
 62
     7
 10
3932.70638540492
 20
463.3924668772492
 30
0.0
 11
3945.090489201589
 21
463.3924668772492
 31
0.0
  0
TEXT
  5
1CC
  8
回08-記事
  6
CONTINUOUS
 62
     7
 10
3929.070730293513
 20
461.853388367824
 30
0.0
 40
3.42144
  1
1
  0
LINE
  5
1CD
  8
回08-記事
  6
CONTINUOUS
 62
     7
 10
3932.70638540492
 20
457.6900668772491
 30
0.0
 11
3945.090489201589
 21
457.6900668772491
 31
0.0
  0
TEXT
  5
1CE
  8
回08-記事
  6
CONTINUOUS
 62
     7
 10
3929.070730293513
 20
456.1509883678241
 30
0.0
 40
3.42144
  1
2
  0
LINE
  5
1CF
  8
回08-記事
  6
CONTINUOUS
 62
     7
 10
3932.70638540492
 20
451.9876668772493
 30
0.0
 11
3945.090489201589
 21
451.9876668772493
 31
0.0
  0
TEXT
  5
1D0
  8
回08-記事
  6
CONTINUOUS
 62
     7
 10
3929.070730293513
 20
450.4485883678241
 30
0.0
 40
3.42144
  1
3
  0
LINE
  5
1D1
  8
回08-記事
  6
CONTINUOUS
 62
     7
 10
3932.70638540492
 20
446.2852668772491
 30
0.0
 11
3945.090489201589
 21
446.2852668772491
 31
0.0
  0
TEXT
  5
1D2
  8
回08-記事
  6
CONTINUOUS
 62
     7
 10
3929.070730293513
 20
444.7461883678241
 30
0.0
 40
3.42144
  1
4
  0
LINE
  5
1D3
  8
回08-記事
  6
CONTINUOUS
 62
     7
 10
3932.70638540492
 20
440.5828668772493
 30
0.0
 11
3945.090489201589
 21
440.5828668772493
 31
0.0
  0
TEXT
  5
1D4
  8
回08-記事
  6
CONTINUOUS
 62
     7
 10
3929.070730293513
 20
439.0437883678241
 30
0.0
 40
3.42144
  1
5
  0
LINE
  5
1D5
  8
回08-記事
  6
CONTINUOUS
 62
     7
 10
3932.70638540492
 20
434.8804668772493
 30
0.0
 11
3945.090489201589
 21
434.8804668772493
 31
0.0
  0
TEXT
  5
1D6
  8
回08-記事
  6
CONTINUOUS
 62
     7
 10
3929.070730293513
 20
433.341388367824
 30
0.0
 40
3.42144
  1
6
  0
LINE
  5
1D7
  8
回08-記事
  6
CONTINUOUS
 62
     7
 10
3932.70638540492
 20
429.1780668772492
 30
0.0
 11
3945.090489201589
 21
429.1780668772492
 31
0.0
  0
TEXT
  5
1D8
  8
回08-記事
  6
CONTINUOUS
 62
     7
 10
3929.070730293513
 20
427.638988367824
 30
0.0
 40
3.42144
  1
7
  0
LINE
  5
1D9
  8
回08-記事
  6
CONTINUOUS
 62
     7
 10
3932.70638540492
 20
423.4756668772493
 30
0.0
 11
3945.090489201589
 21
423.4756668772493
 31
0.0
  0
TEXT
  5
1DA
  8
回08-記事
  6
CONTINUOUS
 62
     7
 10
3929.070730293513
 20
421.936588367824
 30
0.0
 40
3.42144
  1
8
  0
TEXT
  5
1DB
  8
回08-記事
  6
CONTINUOUS
 62
     7
 10
3946.684012918181
 20
336.400588367824
 30
0.0
 40
3.42144
  1
L3
  0
TEXT
  5
1DC
  8
回08-記事
  6
CONTINUOUS
 62
     7
 10
3946.684012918181
 20
342.1029883678242
 30
0.0
 40
3.42144
  1
L4
  0
TEXT
  5
1DD
  8
回08-記事
  6
CONTINUOUS
 62
     7
 10
3946.684012918181
 20
347.805388367824
 30
0.0
 40
3.42144
  1
L5
  0
TEXT
  5
1DE
  8
回08-記事
  6
CONTINUOUS
 62
     7
 10
3946.684012918181
 20
353.5077883678241
 30
0.0
 40
3.42144
  1
L6
  0
TEXT
  5
1DF
  8
回08-記事
  6
CONTINUOUS
 62
     7
 10
3946.348057317379
 20
376.317388367824
 30
0.0
 40
3.42144
  1
L10
  0
TEXT
  5
1E0
  8
回08-記事
  6
CONTINUOUS
 62
     7
 10
3946.348057317379
 20
382.0197883678241
 30
0.0
 40
3.42144
  1
L11
  0
TEXT
  5
1E1
  8
回08-記事
  6
CONTINUOUS
 62
     7
 10
3946.348057317379
 20
387.722188367824
 30
0.0
 40
3.42144
  1
L12
  0
TEXT
  5
1E2
  8
回08-記事
  6
CONTINUOUS
 62
     7
 10
3946.348057317379
 20
399.1269883678242
 30
0.0
 40
3.42144
  1
R12
  0
LINE
  5
1E3
  8
回08-記事
  6
CONTINUOUS
 62
     7
 10
3932.70638540492
 20
332.2372668772492
 30
0.0
 11
3945.090489201589
 21
332.2372668772492
 31
0.0
  0
LINE
  5
1E4
  8
回08-記事
  6
CONTINUOUS
 62
     7
 10
3932.70638540492
 20
337.9396668772493
 30
0.0
 11
3945.090489201589
 21
337.9396668772493
 31
0.0
  0
LINE
  5
1E5
  8
回08-記事
  6
CONTINUOUS
 62
     7
 10
3932.70638540492
 20
343.6420668772492
 30
0.0
 11
3945.090489201589
 21
343.6420668772492
 31
0.0
  0
LINE
  5
1E6
  8
回08-記事
  6
CONTINUOUS
 62
     7
 10
3932.70638540492
 20
349.3444668772493
 30
0.0
 11
3945.090489201589
 21
349.3444668772493
 31
0.0
  0
LINE
  5
1E7
  8
回08-記事
  6
CONTINUOUS
 62
     7
 10
3932.70638540492
 20
355.0468668772492
 30
0.0
 11
3945.090489201589
 21
355.0468668772492
 31
0.0
  0
LINE
  5
1E8
  8
回08-記事
  6
CONTINUOUS
 62
     7
 10
3932.70638540492
 20
360.7492668772493
 30
0.0
 11
3945.090489201589
 21
360.7492668772493
 31
0.0
  0
LINE
  5
1E9
  8
回08-記事
  6
CONTINUOUS
 62
     7
 10
3932.70638540492
 20
366.4516668772492
 30
0.0
 11
3945.090489201589
 21
366.4516668772492
 31
0.0
  0
LINE
  5
1EA
  8
回08-記事
  6
CONTINUOUS
 62
     7
 10
3932.70638540492
 20
372.1540668772494
 30
0.0
 11
3945.090489201589
 21
372.1540668772494
 31
0.0
  0
LINE
  5
1EB
  8
回08-記事
  6
CONTINUOUS
 62
     7
 10
3932.70638540492
 20
377.8564668772493
 30
0.0
 11
3945.090489201589
 21
377.8564668772493
 31
0.0
  0
LINE
  5
1EC
  8
回08-記事
  6
CONTINUOUS
 62
     7
 10
3932.70638540492
 20
383.5588668772494
 30
0.0
 11
3945.090489201589
 21
383.5588668772494
 31
0.0
  0
LINE
  5
1ED
  8
回08-記事
  6
CONTINUOUS
 62
     7
 10
3932.70638540492
 20
389.2612668772493
 30
0.0
 11
3945.090489201589
 21
389.2612668772493
 31
0.0
  0
LINE
  5
1EE
  8
回08-記事
  6
CONTINUOUS
 62
     7
 10
3932.70638540492
 20
394.9636668772494
 30
0.0
 11
3945.090489201589
 21
394.9636668772494
 31
0.0
  0
LINE
  5
1EF
  8
回08-記事
  6
CONTINUOUS
 62
     7
 10
3932.70638540492
 20
400.6660668772493
 30
0.0
 11
3945.090489201589
 21
400.6660668772493
 31
0.0
  0
LINE
  5
1F0
  8
回08-記事
  6
CONTINUOUS
 62
     7
 10
3932.70638540492
 20
406.3684668772494
 30
0.0
 11
3945.090489201589
 21
406.3684668772494
 31
0.0
  0
LINE
  5
1F1
  8
回08-記事
  6
CONTINUOUS
 62
     7
 10
3932.70638540492
 20
412.0708668772492
 30
0.0
 11
3945.090489201589
 21
412.0708668772492
 31
0.0
  0
LINE
  5
1F2
  8
回08-記事
  6
CONTINUOUS
 62
     7
 10
3932.70638540492
 20
417.7732668772492
 30
0.0
 11
3945.090489201589
 21
417.7732668772492
 31
0.0
  0
TEXT
  5
1F3
  8
回08-記事
  6
CONTINUOUS
 62
     7
 10
3927.663932877542
 20
330.6981883678241
 30
0.0
 40
3.42144
  1
24
  0
TEXT
  5
1F4
  8
回08-記事
  6
CONTINUOUS
 62
     7
 10
3927.663932877542
 20
336.400588367824
 30
0.0
 40
3.42144
  1
23
  0
TEXT
  5
1F5
  8
回08-記事
  6
CONTINUOUS
 62
     7
 10
3927.663932877542
 20
342.1029883678242
 30
0.0
 40
3.42144
  1
22
  0
TEXT
  5
1F6
  8
回08-記事
  6
CONTINUOUS
 62
     7
 10
3927.663932877542
 20
347.805388367824
 30
0.0
 40
3.42144
  1
21
  0
TEXT
  5
1F7
  8
回08-記事
  6
CONTINUOUS
 62
     7
 10
3927.663932877542
 20
353.5077883678241
 30
0.0
 40
3.42144
  1
20
  0
TEXT
  5
1F8
  8
回08-記事
  6
CONTINUOUS
 62
     7
 10
3927.663932877542
 20
359.2101883678241
 30
0.0
 40
3.42144
  1
19
  0
TEXT
  5
1F9
  8
回08-記事
  6
CONTINUOUS
 62
     7
 10
3927.663932877542
 20
364.9125883678242
 30
0.0
 40
3.42144
  1
18
  0
TEXT
  5
1FA
  8
回08-記事
  6
CONTINUOUS
 62
     7
 10
3927.663932877542
 20
370.6149883678241
 30
0.0
 40
3.42144
  1
17
  0
TEXT
  5
1FB
  8
回08-記事
  6
CONTINUOUS
 62
     7
 10
3927.663932877542
 20
376.317388367824
 30
0.0
 40
3.42144
  1
16
  0
TEXT
  5
1FC
  8
回08-記事
  6
CONTINUOUS
 62
     7
 10
3927.458059224706
 20
382.0197883678241
 30
0.0
 40
3.42144
  1
15
  0
TEXT
  5
1FD
  8
回08-記事
  6
CONTINUOUS
 62
     7
 10
3927.458059224706
 20
387.722188367824
 30
0.0
 40
3.42144
  1
14
  0
TEXT
  5
1FE
  8
回08-記事
  6
CONTINUOUS
 62
     7
 10
3927.458059224706
 20
393.4245883678241
 30
0.0
 40
3.42144
  1
13
  0
TEXT
  5
1FF
  8
回08-記事
  6
CONTINUOUS
 62
     7
 10
3927.458059224706
 20
399.1269883678242
 30
0.0
 40
3.42144
  1
12
  0
TEXT
  5
200
  8
回08-記事
  6
CONTINUOUS
 62
     7
 10
3927.458059224706
 20
404.829388367824
 30
0.0
 40
3.42144
  1
11
  0
TEXT
  5
201
  8
回08-記事
  6
CONTINUOUS
 62
     7
 10
3927.458059224706
 20
410.531788367824
 30
0.0
 40
3.42144
  1
10
  0
TEXT
  5
202
  8
回08-記事
  6
CONTINUOUS
 62
     7
 10
3929.070730293513
 20
416.234188367824
 30
0.0
 40
3.42144
  1
9
  0
DIMENSION
  5
203
  8
回07-寸法
  6
CONTINUOUS
 62
    18
  2
*D45
 10
3688.616216599341
 20
240.918051552644
 30
0.0
 11
3686.616216599341
 21
190.9200757380492
 31
0.0
 70
    32
  3
DMC
 13
3660.819779691468
 23
140.9220999234543
 33
0.0
 14
3668.070905006918
 24
240.918051552644
 34
0.0
 50
90.0
1001
ACAD
1000
DSTYLE
1002
{
1070
    41
1040
1.5
1070
    47
1040
0.1
1070
    48
1040
0.1
1070
    71
1070
     1
1070
   141
1040
1.5
1070
   271
1070
     0
1070
   371
1070
     0
1070
   372
1070
     0
1002
}
  0
DIMENSION
  5
212
  8
回07-寸法
  6
CONTINUOUS
 62
     1
  2
*D46
 10
3668.070905006918
 20
214.9651214827225
 30
0.0
 11
3674.384389258886
 21
214.9651214827225
 31
0.0
 70
   160
  3
DMC
 13
3641.070905006917
 23
237.7725818255953
 33
0.0
 14
3668.070905006918
 24
237.7766301964061
 34
0.0
1001
ACAD
1000
DSTYLE
1002
{
1070
    41
1040
1.5
1070
    47
1040
0.2
1070
    48
1040
0.2
1070
   141
1040
1.5
1070
   271
1070
     1
1070
   371
1070
     0
1070
   372
1070
     0
1002
}
  0
DIMENSION
  5
223
  8
回07-寸法
  6
CONTINUOUS
 62
     1
  2
*D47
 10
3605.070905006917
 20
218.3279864111799
 30
0.0
 11
3598.416210315811
 21
218.3279864111799
 31
0.0
 70
   160
  3
DMC
 13
3640.070905006917
 23
237.7005757810506
 33
0.0
 14
3605.070905006917
 24
237.7046241518614
 34
0.0
1001
ACAD
1000
DSTYLE
1002
{
1070
    41
1040
1.5
1070
    47
1040
0.2
1070
    48
1040
0.2
1070
   141
1040
1.5
1070
   271
1070
     1
1070
   371
1070
     0
1070
   372
1070
     0
1002
}
  0
DIMENSION
  5
234
  8
回07-寸法
  6
CONTINUOUS
 62
     1
  2
*D48
 10
3681.663206194597
 20
230.6112913185847
 30
0.0
 11
3681.663206194597
 21
224.1991592842278
 31
0.0
 70
   160
  3
DMC
 13
3668.070905006918
 23
240.9180515526438
 33
0.0
 14
3661.319779691468
 24
230.6112913185847
 34
0.0
 50
90.0
1001
ACAD
1000
DSTYLE
1002
{
1070
    41
1040
1.5
1070
    47
1040
0.2
1070
    48
1040
0.2
1070
   141
1040
1.5
1070
   271
1070
     1
1070
   371
1070
     0
1070
   372
1070
     0
1002
}
  0
DIMENSION
  5
245
  8
回07-寸法
  6
CONTINUOUS
 62
     1
  2
*D49
 10
3674.327101004001
 20
237.3624166340327
 30
0.0
 11
3674.327101004001
 21
226.8625766527437
 31
0.0
 70
   160
  3
DMC
 13
3668.070905006918
 23
240.9180515526438
 33
0.0
 14
3668.070905006918
 24
237.3624166340327
 34
0.0
 50
90.0
1001
ACAD
1000
DSTYLE
1002
{
1070
    41
1040
1.5
1070
    47
1040
0.2
1070
    48
1040
0.2
1070
   141
1040
1.5
1070
   271
1070
     1
1070
   371
1070
     0
1070
   372
1070
     0
1002
}
  0
DIMENSION
  5
256
  8
回07-寸法
  6
CONTINUOUS
 62
     1
  2
*D50
 10
3594.305983800426
 20
223.5415359049365
 30
0.0
 11
3594.305983800426
 21
233.0186385767935
 31
0.0
 70
   160
  3
DMC
 13
3605.070905006917
 23
240.9180515526444
 33
0.0
 14
3618.819779691469
 24
223.5415359049365
 34
0.0
 50
90.0
1001
ACAD
1000
DSTYLE
1002
{
1070
    41
1040
1.5
1070
    47
1040
0.2
1070
    48
1040
0.2
1070
   141
1040
1.5
1070
   271
1070
     1
1070
   371
1070
     0
1070
   372
1070
     0
1002
}
  0
DIMENSION
  5
265
  8
回07-寸法
  6
CONTINUOUS
 62
     1
  2
*D51
 10
3598.965882553548
 20
237.2904105894881
 30
0.0
 11
3598.965882553548
 21
231.6160011406682
 31
0.0
 70
   160
  3
DMC
 13
3605.070905006917
 23
240.9180515526444
 33
0.0
 14
3605.070905006917
 24
237.2904105894881
 34
0.0
 50
90.0
1001
ACAD
1000
DSTYLE
1002
{
1070
    41
1040
1.5
1070
    47
1040
0.2
1070
    48
1040
0.2
1070
   141
1040
1.5
1070
   271
1070
     1
1070
   371
1070
     0
1070
   372
1070
     0
1002
}
  0
DIMENSION
  5
276
  8
回07-寸法
  6
CONTINUOUS
 62
     6
  2
*D52
 10
3618.819779691469
 20
125.9220999234554
 30
0.0
 11
3627.569779691468
 21
125.9220999234554
 31
0.0
 70
   160
  3
DMC
 13
3636.319779691469
 23
141.4180515526445
 33
0.0
 14
3618.819779691469
 24
141.4180515526445
 34
0.0
 50
180.0
1001
ACAD
1000
DSTYLE
1002
{
1070
    41
1040
1.5
1070
    47
1040
0.1
1070
    48
1040
0.1
1070
    71
1070
     1
1070
   141
1040
1.5
1070
   371
1070
     0
1070
   372
1070
     0
1002
}
  0
DIMENSION
  5
285
  8
回07-寸法
  6
CONTINUOUS
 62
     6
  2
*D53
 10
3647.819779691469
 20
116.9273796953173
 30
0.0
 11
3654.569779691468
 21
116.9273796953173
 31
0.0
 70
   160
  3
DMC
 13
3661.319779691468
 23
141.4180515526436
 33
0.0
 14
3647.819779691469
 24
141.4180515526445
 34
0.0
 50
180.0
1001
ACAD
1000
DSTYLE
1002
{
1070
    41
1040
1.5
1070
    47
1040
0.1
1070
    48
1040
0.1
1070
    71
1070
     1
1070
   141
1040
1.5
1070
   371
1070
     0
1070
   372
1070
     0
1002
}
  0
DIMENSION
  5
294
  8
回07-寸法
  6
CONTINUOUS
 62
     5
  2
*D54
 10
3578.303148179296
 20
140.9220999234553
 30
0.0
 11
3578.303148179296
 21
191.9160273672389
 31
0.0
 70
   160
  3
DMC
 13
3605.070905006917
 23
240.9180515526444
 33
0.0
 14
3619.319779691468
 24
140.9220999234553
 34
0.0
 50
270.0
1001
ACAD
1000
DSTYLE
1002
{
1070
   147
1040
0.5
1070
    72
1070
     0
1070
    71
1070
     1
1070
   271
1070
     0
1070
    41
1040
1.5
1070
    47
1040
0.1
1070
    48
1040
0.1
1070
   141
1040
1.5
1070
   371
1070
     0
1070
   372
1070
     0
1002
}
  0
ARC
  5
2A3
  8
回08-記事
  6
CONTINUOUS
 62
     7
 10
3813.325649319703
 20
269.1330515526447
 30
0.0
 40
0.4161773402836389
 50
90.0
 51
270.0
  0
ARC
  5
2A4
  8
回08-記事
  6
CONTINUOUS
 62
     7
 10
3813.325649319703
 20
265.6330515526448
 30
0.0
 40
0.4161773402836389
 50
90.0
 51
270.0
  0
ARC
  5
2A5
  8
回08-記事
  6
CONTINUOUS
 62
     7
 10
3813.325649319703
 20
262.1330515526448
 30
0.0
 40
0.4161773402836389
 50
90.0
 51
270.0
  0
ARC
  5
2A6
  8
回08-記事
  6
CONTINUOUS
 62
     7
 10
3813.325649319703
 20
258.6330515526447
 30
0.0
 40
0.4161773402836389
 50
90.0
 51
270.0
  0
ARC
  5
2A7
  8
回08-記事
  6
CONTINUOUS
 62
     7
 10
3813.325649319703
 20
255.1330515526448
 30
0.0
 40
0.4161773402836389
 50
90.0
 51
270.0
  0
ARC
  5
2A8
  8
回08-記事
  6
CONTINUOUS
 62
     7
 10
3813.325649319703
 20
251.6330515526448
 30
0.0
 40
0.4161773402836389
 50
90.0
 51
270.0
  0
ARC
  5
2A9
  8
回08-記事
  6
CONTINUOUS
 62
     7
 10
3813.325649319703
 20
279.6330515526447
 30
0.0
 40
0.4161773402836389
 50
90.0
 51
270.0
  0
ARC
  5
2AA
  8
回08-記事
  6
CONTINUOUS
 62
     7
 10
3813.325649319703
 20
276.1330515526448
 30
0.0
 40
0.4161773402836389
 50
90.0
 51
270.0
  0
ARC
  5
2AB
  8
回08-記事
  6
CONTINUOUS
 62
     7
 10
3813.325649319703
 20
272.6330515526448
 30
0.0
 40
0.4161773402836389
 50
90.0
 51
270.0
  0
ARC
  5
2AC
  8
回08-記事
  6
CONTINUOUS
 62
     7
 10
3813.325649319703
 20
440.6330515526445
 30
0.0
 40
0.4161773402836389
 50
90.0
 51
270.0
  0
ARC
  5
2AD
  8
回08-記事
  6
CONTINUOUS
 62
     7
 10
3813.325649319703
 20
437.1330515526445
 30
0.0
 40
0.4161773402836389
 50
90.0
 51
270.0
  0
ARC
  5
2AE
  8
回08-記事
  6
CONTINUOUS
 62
     7
 10
3813.325649319703
 20
433.6330515526445
 30
0.0
 40
0.4161773402836389
 50
90.0
 51
270.0
  0
ARC
  5
2AF
  8
回08-記事
  6
CONTINUOUS
 62
     7
 10
3813.325649319703
 20
430.1330515526445
 30
0.0
 40
0.4161773402836389
 50
90.0
 51
270.0
  0
ARC
  5
2B0
  8
回08-記事
  6
CONTINUOUS
 62
     7
 10
3813.325649319703
 20
426.6330515526445
 30
0.0
 40
0.4161773402836389
 50
90.0
 51
270.0
  0
ARC
  5
2B1
  8
回08-記事
  6
CONTINUOUS
 62
     7
 10
3813.325649319703
 20
300.6330515526447
 30
0.0
 40
0.4161773402836389
 50
90.0
 51
270.0
  0
ARC
  5
2B2
  8
回08-記事
  6
CONTINUOUS
 62
     7
 10
3813.325649319703
 20
297.1330515526448
 30
0.0
 40
0.4161773402836389
 50
90.0
 51
270.0
  0
ARC
  5
2B3
  8
回08-記事
  6
CONTINUOUS
 62
     7
 10
3813.325649319703
 20
293.6330515526448
 30
0.0
 40
0.4161773402836389
 50
90.0
 51
270.0
  0
ARC
  5
2B4
  8
回08-記事
  6
CONTINUOUS
 62
     7
 10
3813.325649319703
 20
290.1330515526447
 30
0.0
 40
0.4161773402836389
 50
90.0
 51
270.0
  0
ARC
  5
2B5
  8
回08-記事
  6
CONTINUOUS
 62
     7
 10
3813.325649319703
 20
286.6330515526448
 30
0.0
 40
0.4161773402836389
 50
90.0
 51
270.0
  0
ARC
  5
2B6
  8
回08-記事
  6
CONTINUOUS
 62
     7
 10
3813.325649319703
 20
283.1330515526448
 30
0.0
 40
0.4161773402836389
 50
90.0
 51
270.0
  0
ARC
  5
2B7
  8
回08-記事
  6
CONTINUOUS
 62
     7
 10
3813.325649319703
 20
279.6330515526447
 30
0.0
 40
0.4161773402836389
 50
90.0
 51
270.0
  0
ARC
  5
2B8
  8
回08-記事
  6
CONTINUOUS
 62
     7
 10
3813.325649319703
 20
346.1330515526447
 30
0.0
 40
0.4161773402836389
 50
90.0
 51
270.0
  0
ARC
  5
2B9
  8
回08-記事
  6
CONTINUOUS
 62
     7
 10
3813.325649319703
 20
342.6330515526448
 30
0.0
 40
0.4161773402836389
 50
90.0
 51
270.0
  0
ARC
  5
2BA
  8
回08-記事
  6
CONTINUOUS
 62
     7
 10
3813.325649319703
 20
339.1330515526448
 30
0.0
 40
0.4161773402836389
 50
90.0
 51
270.0
  0
ARC
  5
2BB
  8
回08-記事
  6
CONTINUOUS
 62
     7
 10
3813.325649319703
 20
335.6330515526448
 30
0.0
 40
0.4161773402836389
 50
90.0
 51
270.0
  0
ARC
  5
2BC
  8
回08-記事
  6
CONTINUOUS
 62
     7
 10
3813.325649319703
 20
332.1330515526448
 30
0.0
 40
0.4161773402836389
 50
90.0
 51
270.0
  0
ARC
  5
2BD
  8
回08-記事
  6
CONTINUOUS
 62
     7
 10
3813.325649319703
 20
328.6330515526448
 30
0.0
 40
0.4161773402836389
 50
90.0
 51
270.0
  0
ARC
  5
2BE
  8
回08-記事
  6
CONTINUOUS
 62
     7
 10
3813.325649319703
 20
325.1330515526448
 30
0.0
 40
0.4161773402836389
 50
90.0
 51
270.0
  0
ARC
  5
2BF
  8
回08-記事
  6
CONTINUOUS
 62
     7
 10
3813.325649319703
 20
321.6330515526447
 30
0.0
 40
0.4161773402836389
 50
90.0
 51
270.0
  0
ARC
  5
2C0
  8
回08-記事
  6
CONTINUOUS
 62
     7
 10
3813.325649319703
 20
318.1330515526448
 30
0.0
 40
0.4161773402836389
 50
90.0
 51
270.0
  0
ARC
  5
2C1
  8
回08-記事
  6
CONTINUOUS
 62
     7
 10
3813.325649319703
 20
314.6330515526448
 30
0.0
 40
0.4161773402836389
 50
90.0
 51
270.0
  0
ARC
  5
2C2
  8
回08-記事
  6
CONTINUOUS
 62
     7
 10
3813.325649319703
 20
311.1330515526447
 30
0.0
 40
0.4161773402836389
 50
90.0
 51
270.0
  0
ARC
  5
2C3
  8
回08-記事
  6
CONTINUOUS
 62
     7
 10
3813.325649319703
 20
307.6330515526448
 30
0.0
 40
0.4161773402836389
 50
90.0
 51
270.0
  0
ARC
  5
2C4
  8
回08-記事
  6
CONTINUOUS
 62
     7
 10
3813.325649319703
 20
304.1330515526448
 30
0.0
 40
0.4161773402836389
 50
90.0
 51
270.0
  0
ARC
  5
2C5
  8
回08-記事
  6
CONTINUOUS
 62
     7
 10
3813.325649319703
 20
423.1330515526445
 30
0.0
 40
0.4161773402836389
 50
90.0
 51
270.0
  0
ARC
  5
2C6
  8
回08-記事
  6
CONTINUOUS
 62
     7
 10
3813.325649319703
 20
419.6330515526445
 30
0.0
 40
0.4161773402836389
 50
90.0
 51
270.0
  0
ARC
  5
2C7
  8
回08-記事
  6
CONTINUOUS
 62
     7
 10
3813.325649319703
 20
416.1330515526445
 30
0.0
 40
0.4161773402836389
 50
90.0
 51
270.0
  0
ARC
  5
2C8
  8
回08-記事
  6
CONTINUOUS
 62
     7
 10
3813.325649319703
 20
412.6330515526445
 30
0.0
 40
0.4161773402836389
 50
90.0
 51
270.0
  0
ARC
  5
2C9
  8
回08-記事
  6
CONTINUOUS
 62
     7
 10
3813.325649319703
 20
409.1330515526445
 30
0.0
 40
0.4161773402836389
 50
90.0
 51
270.0
  0
ARC
  5
2CA
  8
回08-記事
  6
CONTINUOUS
 62
     7
 10
3813.325649319703
 20
405.6330515526445
 30
0.0
 40
0.4161773402836389
 50
90.0
 51
270.0
  0
ARC
  5
2CB
  8
回08-記事
  6
CONTINUOUS
 62
     7
 10
3813.325649319703
 20
402.1330515526445
 30
0.0
 40
0.4161773402836389
 50
90.0
 51
270.0
  0
ARC
  5
2CC
  8
回08-記事
  6
CONTINUOUS
 62
     7
 10
3813.325649319703
 20
398.6330515526445
 30
0.0
 40
0.4161773402836389
 50
90.0
 51
270.0
  0
ARC
  5
2CD
  8
回08-記事
  6
CONTINUOUS
 62
     7
 10
3813.325649319703
 20
395.1330515526445
 30
0.0
 40
0.4161773402836389
 50
90.0
 51
270.0
  0
ARC
  5
2CE
  8
回08-記事
  6
CONTINUOUS
 62
     7
 10
3813.325649319703
 20
391.6330515526445
 30
0.0
 40
0.4161773402836389
 50
90.0
 51
270.0
  0
ARC
  5
2CF
  8
回08-記事
  6
CONTINUOUS
 62
     7
 10
3813.325649319703
 20
388.1330515526445
 30
0.0
 40
0.4161773402836389
 50
90.0
 51
270.0
  0
ARC
  5
2D0
  8
回08-記事
  6
CONTINUOUS
 62
     7
 10
3813.325649319703
 20
384.6330515526446
 30
0.0
 40
0.4161773402836389
 50
90.0
 51
270.0
  0
ARC
  5
2D1
  8
回08-記事
  6
CONTINUOUS
 62
     7
 10
3813.325649319703
 20
381.1330515526445
 30
0.0
 40
0.4161773402836389
 50
90.0
 51
270.0
  0
ARC
  5
2D2
  8
回08-記事
  6
CONTINUOUS
 62
     7
 10
3813.325649319703
 20
377.6330515526445
 30
0.0
 40
0.4161773402836389
 50
90.0
 51
270.0
  0
ARC
  5
2D3
  8
回08-記事
  6
CONTINUOUS
 62
     7
 10
3813.325649319703
 20
374.1330515526446
 30
0.0
 40
0.4161773402836389
 50
90.0
 51
270.0
  0
ARC
  5
2D4
  8
回08-記事
  6
CONTINUOUS
 62
     7
 10
3813.325649319703
 20
370.6330515526445
 30
0.0
 40
0.4161773402836389
 50
90.0
 51
270.0
  0
ARC
  5
2D5
  8
回08-記事
  6
CONTINUOUS
 62
     7
 10
3813.325649319703
 20
367.1330515526445
 30
0.0
 40
0.4161773402836389
 50
90.0
 51
270.0
  0
ARC
  5
2D6
  8
回08-記事
  6
CONTINUOUS
 62
     7
 10
3813.325649319703
 20
363.6330515526446
 30
0.0
 40
0.4161773402836389
 50
90.0
 51
270.0
  0
ARC
  5
2D7
  8
回08-記事
  6
CONTINUOUS
 62
     7
 10
3813.325649319703
 20
360.1330515526445
 30
0.0
 40
0.4161773402836389
 50
90.0
 51
270.0
  0
ARC
  5
2D8
  8
回08-記事
  6
CONTINUOUS
 62
     7
 10
3813.325649319703
 20
356.6330515526445
 30
0.0
 40
0.4161773402836389
 50
90.0
 51
270.0
  0
ARC
  5
2D9
  8
回08-記事
  6
CONTINUOUS
 62
     7
 10
3813.325649319703
 20
353.1330515526448
 30
0.0
 40
0.4161773402836389
 50
90.0
 51
270.0
  0
ARC
  5
2DA
  8
回08-記事
  6
CONTINUOUS
 62
     7
 10
3813.325649319703
 20
349.6330515526448
 30
0.0
 40
0.4161773402836389
 50
90.0
 51
270.0
  0
LINE
  5
2DB
  8
回08-記事
  6
CONTINUOUS
 62
     7
 10
3814.025649319703
 20
240.9180515526444
 30
0.0
 11
3814.025649319703
 21
237.286337852252
 31
0.0
  0
LINE
  5
2DC
  8
回08-記事
  6
CONTINUOUS
 62
     7
 10
3820.325649319702
 20
240.9180515526444
 30
0.0
 11
3814.025649319703
 21
240.9180515526444
 31
0.0
  0
LINE
  5
2DD
  8
回08-記事
  6
CONTINUOUS
 62
     7
 10
3820.325649319702
 20
244.486337852252
 30
0.0
 11
3820.325649319702
 21
240.9180515526444
 31
0.0
  0
LINE
  5
2DE
  8
回08-記事
  6
CONTINUOUS
 62
     7
 10
3821.025649319703
 20
244.486337852252
 30
0.0
 11
3820.325649319702
 21
244.486337852252
 31
0.0
  0
LINE
  5
2DF
  8
回08-記事
  6
CONTINUOUS
 62
     7
 10
3821.025649319703
 20
240.2180515526445
 30
0.0
 11
3821.025649319703
 21
244.486337852252
 31
0.0
  0
LINE
  5
2E0
  8
回08-記事
  6
CONTINUOUS
 62
     7
 10
3814.725649319703
 20
240.2180515526445
 30
0.0
 11
3821.025649319703
 21
240.2180515526445
 31
0.0
  0
LINE
  5
2E1
  8
回08-記事
  6
CONTINUOUS
 62
     7
 10
3814.725649319703
 20
237.286337852252
 30
0.0
 11
3814.725649319703
 21
240.2180515526445
 31
0.0
  0
LINE
  5
2E2
  8
回08-記事
  6
CONTINUOUS
 62
     7
 10
3814.025649319703
 20
237.286337852252
 30
0.0
 11
3814.725649319703
 21
237.286337852252
 31
0.0
  0
LINE
  5
2E3
  8
回08-記事
  6
CONTINUOUS
 62
     7
 10
3805.132465100733
 20
237.286337852252
 30
0.0
 11
3804.432465100732
 21
237.286337852252
 31
0.0
  0
LINE
  5
2E4
  8
回08-記事
  6
CONTINUOUS
 62
     7
 10
3805.132465100733
 20
240.2180515526445
 30
0.0
 11
3805.132465100733
 21
237.286337852252
 31
0.0
  0
LINE
  5
2E5
  8
回08-記事
  6
CONTINUOUS
 62
     7
 10
3812.325649319703
 20
240.2180515526445
 30
0.0
 11
3805.132465100733
 21
240.2180515526445
 31
0.0
  0
LINE
  5
2E6
  8
回08-記事
  6
CONTINUOUS
 62
     7
 10
3812.325649319703
 20
241.2180515526446
 30
0.0
 11
3812.325649319703
 21
240.2180515526445
 31
0.0
  0
LINE
  5
2E7
  8
回08-記事
  6
CONTINUOUS
 62
     7
 10
3804.432465100732
 20
241.2180515526446
 30
0.0
 11
3812.325649319703
 21
241.2180515526446
 31
0.0
  0
LINE
  5
2E8
  8
回08-記事
  6
CONTINUOUS
 62
     7
 10
3804.432465100732
 20
237.286337852252
 30
0.0
 11
3804.432465100732
 21
241.2180515526446
 31
0.0
  0
INSERT
  5
2E9
  8
回08-記事
  6
CONTINUOUS
 62
     7
 66
     1
  2
*X79
 10
0.0
 20
0.0
 30
0.0
1001
GRADIENTCOLOR1ACI
1070
     5
1001
GRADIENTCOLOR2ACI
1070
     2
1001
ACAD
1010
0.0
1020
0.0
1030
0.0
  0
SEQEND
  5
7AD
  8
0
  6
CONTINUOUS
 62
     5
  0
DIMENSION
  5
2EA
  8
回08-記事
  6
CONTINUOUS
 62
     7
  2
*D55
 10
3813.325649319703
 20
133.474192342608
 30
0.0
 11
3822.101977922065
 21
135.474192342608
 31
0.0
 70
    32
  1
0.3{\H0.6667x;±0.05}
  3
DMC
 13
3810.825649319703
 23
140.9220999234556
 33
0.0
 14
3813.325649319703
 24
140.9220999234556
 34
0.0
1001
ACADSTRINGINFO
1000
MIFCodePage
1070
     1
1001
ACAD
1000
DSTYLE
1002
{
1070
    41
1040
1.5
1070
    47
1040
0.2
1070
    48
1040
0.2
1070
   141
1040
1.5
1070
   371
1070
     0
1070
   372
1070
     0
1002
}
  0
DIMENSION
  5
2FB
  8
回08-記事
  6
CONTINUOUS
 62
     7
  2
*D56
 10
3803.432465100732
 20
136.2719418726754
 30
0.0
 11
3794.65613649837
 21
138.2719418726754
 31
0.0
 70
    32
  1
0.3{\H0.6667x;±0.05}
  3
DMC
 13
3805.932465100732
 23
140.9220999234556
 33
0.0
 14
3803.432465100732
 24
140.9220999234556
 34
0.0
1001
ACADSTRINGINFO
1000
MIFCodePage
1070
     1
1001
ACAD
1000
DSTYLE
1002
{
1070
    41
1040
1.5
1070
    47
1040
0.2
1070
    48
1040
0.2
1070
   141
1040
1.5
1070
   371
1070
     0
1070
   372
1070
     0
1002
}
  0
DIMENSION
  5
30C
  8
回08-記事
  6
CONTINUOUS
 62
     7
  2
*D57
 10
3810.206997965094
 20
140.9220999234556
 30
0.0
 11
3810.206997965094
 21
145.9220999234556
 31
0.0
 70
   160
  1
{\H0.66667x;(<>)}
  3
DMC
 13
3805.932465100732
 23
150.9220999234556
 33
0.0
 14
3805.932465100732
 24
140.9220999234556
 34
0.0
 50
90.0
1001
ACAD
1000
DSTYLE
1002
{
1070
    41
1040
1.5
1070
    47
1040
0.2
1070
    48
1040
0.2
1070
   141
1040
1.5
1070
   371
1070
    13
1070
   372
1070
    13
1002
}
  0
DIMENSION
  5
31B
  8
回08-記事
  6
CONTINUOUS
 62
     7
  2
*D58
 10
3825.600234885622
 20
145.9220999234556
 30
0.0
 11
3823.600234885622
 21
143.4220999234556
 31
0.0
 70
    32
  3
DMC
 13
3813.325649319703
 23
140.9220999234556
 33
0.0
 14
3814.025649319703
 24
145.9220999234556
 34
0.0
 50
90.0
1001
ACAD
1000
DSTYLE
1002
{
1070
    41
1040
1.5
1070
    47
1040
0.2
1070
    48
1040
0.2
1070
   141
1040
1.5
1070
   371
1070
     0
1070
   372
1070
     0
1002
}
  0
DIMENSION
  5
32A
  8
回08-記事
  6
CONTINUOUS
 62
     7
  2
*D59
 10
3795.47105493176
 20
145.9220999234556
 30
0.0
 11
3795.47105493176
 21
143.4220999234556
 31
0.0
 70
   160
  3
DMC
 13
3803.432465100732
 23
140.9220999234556
 33
0.0
 14
3802.732465100732
 24
145.9220999234556
 34
0.0
 50
90.0
1001
ACAD
1000
DSTYLE
1002
{
1070
    41
1040
1.5
1070
    47
1040
0.2
1070
    48
1040
0.2
1070
   141
1040
1.5
1070
   371
1070
     0
1070
   372
1070
     0
1002
}
  0
DIMENSION
  5
339
  8
回07-寸法
  6
CONTINUOUS
 62
     7
  2
*D60
 10
3820.325649319702
 20
452.5432108985485
 30
0.0
 11
3809.879057210217
 21
452.5432108985485
 31
0.0
 70
   160
  1
2.1{\H0.6667x;±0.2}
  3
DMC
 13
3799.432465100732
 23
447.4180515526442
 33
0.0
 14
3820.325649319702
 24
447.9180515526443
 34
0.0
1001
ACADSTRINGINFO
1000
MIFCodePage
1070
     1
1001
ACAD
1000
DSTYLE
1002
{
1070
    41
1040
1.5
1070
    47
1040
0.2
1070
    48
1040
0.2
1070
   141
1040
1.5
1070
   371
1070
     0
1070
   372
1070
     0
1002
}
  0
LINE
  5
348
  8
回08-記事
  6
CONTINUOUS
 62
     7
 10
3803.432465100732
 20
441.4180515526442
 30
0.0
 11
3813.325649319703
 21
441.4180515526442
 31
0.0
  0
LINE
  5
349
  8
回08-記事
  6
CONTINUOUS
 62
     7
 10
3803.432465100732
 20
250.5180515526449
 30
0.0
 11
3813.325649319703
 21
250.5180515526449
 31
0.0
  0
LINE
  5
34A
  8
回08-記事
  6
CONTINUOUS
 62
     7
 10
3804.432465100732
 20
241.2180515526446
 30
0.0
 11
3812.325649319703
 21
241.2180515526446
 31
0.0
  0
LINE
  5
34B
  8
回08-記事
  6
CONTINUOUS
 62
     7
 10
3803.432465100733
 20
447.418051552644
 30
0.0
 11
3813.325649319703
 21
447.418051552644
 31
0.0
  0
POLYLINE
  5
34C
  8
回08-記事
  6
CONTINUOUS
 62
     7
 66
     1
 10
0.0
 20
0.0
 30
0.0
 70
     1
  0
VERTEX
  5
7AE
  8
回08-記事
  6
CONTINUOUS
 62
     7
 10
3814.025649319703
 20
145.9220999234556
 30
0.0
  0
VERTEX
  5
7B0
  8
回08-記事
  6
CONTINUOUS
 62
     7
 10
3813.325649319703
 20
145.9220999234556
 30
0.0
  0
VERTEX
  5
7B1
  8
回08-記事
  6
CONTINUOUS
 62
     7
 10
3813.325649319703
 20
240.9180515526444
 30
0.0
  0
VERTEX
  5
7B2
  8
回08-記事
  6
CONTINUOUS
 62
     7
 10
3814.025649319703
 20
240.9180515526444
 30
0.0
  0
SEQEND
  5
7AF
  8
0
  6
CONTINUOUS
 62
     5
  0
POLYLINE
  5
34D
  8
回08-記事
  6
CONTINUOUS
 62
     7
 66
     1
 10
0.0
 20
0.0
 30
0.0
 70
     1
  0
VERTEX
  5
7B3
  8
回08-記事
  6
CONTINUOUS
 62
     7
 10
3802.732465100732
 20
241.4180515526444
 30
0.0
  0
VERTEX
  5
7B5
  8
回08-記事
  6
CONTINUOUS
 62
     7
 10
3803.432465100732
 20
241.4180515526444
 30
0.0
  0
VERTEX
  5
7B6
  8
回08-記事
  6
CONTINUOUS
 62
     7
 10
3803.432465100732
 20
145.9220999234556
 30
0.0
  0
VERTEX
  5
7B7
  8
回08-記事
  6
CONTINUOUS
 62
     7
 10
3802.732465100732
 20
145.9220999234556
 30
0.0
  0
SEQEND
  5
7B4
  8
0
  6
CONTINUOUS
 62
     5
  0
POLYLINE
  5
34E
  8
回08-記事
  6
CONTINUOUS
 62
     7
 66
     1
 10
0.0
 20
0.0
 30
0.0
 70
     1
  0
VERTEX
  5
7B8
  8
回08-記事
  6
CONTINUOUS
 62
     7
 10
3810.825649319703
 20
150.9220999234556
 30
0.0
  0
VERTEX
  5
7BA
  8
回08-記事
  6
CONTINUOUS
 62
     7
 10
3812.325649319703
 20
150.9220999234556
 30
0.0
  0
VERTEX
  5
7BB
  8
回08-記事
  6
CONTINUOUS
 62
     7
 10
3812.325649319703
 20
140.9220999234556
 30
0.0
  0
VERTEX
  5
7BC
  8
回08-記事
  6
CONTINUOUS
 62
     7
 10
3810.825649319703
 20
140.9220999234556
 30
0.0
  0
SEQEND
  5
7B9
  8
0
  6
CONTINUOUS
 62
     5
  0
POLYLINE
  5
34F
  8
回08-記事
  6
CONTINUOUS
 62
     7
 66
     1
 10
0.0
 20
0.0
 30
0.0
 70
     1
  0
VERTEX
  5
7BD
  8
回08-記事
  6
CONTINUOUS
 62
     7
 10
3804.432465100732
 20
150.9220999234556
 30
0.0
  0
VERTEX
  5
7BF
  8
回08-記事
  6
CONTINUOUS
 62
     7
 10
3805.932465100732
 20
150.9220999234556
 30
0.0
  0
VERTEX
  5
7C0
  8
回08-記事
  6
CONTINUOUS
 62
     7
 10
3805.932465100732
 20
140.9220999234556
 30
0.0
  0
VERTEX
  5
7C1
  8
回08-記事
  6
CONTINUOUS
 62
     7
 10
3804.432465100732
 20
140.9220999234556
 30
0.0
  0
SEQEND
  5
7BE
  8
0
  6
CONTINUOUS
 62
     5
  0
POLYLINE
  5
350
  8
回08-記事
  6
CONTINUOUS
 62
     7
 66
     1
 10
0.0
 20
0.0
 30
0.0
 70
     1
  0
VERTEX
  5
7C2
  8
回08-記事
  6
CONTINUOUS
 62
     7
 10
3812.325649319703
 20
244.0680515526445
 30
0.0
  0
VERTEX
  5
7C4
  8
回08-記事
  6
CONTINUOUS
 62
     7
 10
3813.325649319703
 20
244.0680515526445
 30
0.0
  0
VERTEX
  5
7C5
  8
回08-記事
  6
CONTINUOUS
 62
     7
 10
3813.325649319703
 20
140.9220999234556
 30
0.0
  0
VERTEX
  5
7C6
  8
回08-記事
  6
CONTINUOUS
 62
     7
 10
3812.325649319703
 20
140.9220999234556
 30
0.0
  0
SEQEND
  5
7C3
  8
0
  6
CONTINUOUS
 62
     5
  0
POLYLINE
  5
351
  8
回08-記事
  6
CONTINUOUS
 62
     7
 66
     1
 10
0.0
 20
0.0
 30
0.0
 70
     1
  0
VERTEX
  5
7C7
  8
回08-記事
  6
CONTINUOUS
 62
     7
 10
3803.432465100732
 20
244.0680515526445
 30
0.0
  0
VERTEX
  5
7C9
  8
回08-記事
  6
CONTINUOUS
 62
     7
 10
3804.432465100732
 20
244.0680515526445
 30
0.0
  0
VERTEX
  5
7CA
  8
回08-記事
  6
CONTINUOUS
 62
     7
 10
3804.432465100732
 20
140.9220999234556
 30
0.0
  0
VERTEX
  5
7CB
  8
回08-記事
  6
CONTINUOUS
 62
     7
 10
3803.432465100732
 20
140.9220999234556
 30
0.0
  0
SEQEND
  5
7C8
  8
0
  6
CONTINUOUS
 62
     5
  0
POLYLINE
  5
352
  8
回08-記事
  6
CONTINUOUS
 62
     7
 66
     1
 10
0.0
 20
0.0
 30
0.0
 70
     1
  0
VERTEX
  5
7CC
  8
回08-記事
  6
CONTINUOUS
 62
     7
 10
3799.432465100732
 20
447.4180515526442
 30
0.0
  0
VERTEX
  5
7CE
  8
回08-記事
  6
CONTINUOUS
 62
     7
 10
3803.432465100733
 20
447.4180515526442
 30
0.0
  0
VERTEX
  5
7CF
  8
回08-記事
  6
CONTINUOUS
 62
     7
 10
3803.432465100733
 20
241.4180515526446
 30
0.0
  0
VERTEX
  5
7D0
  8
回08-記事
  6
CONTINUOUS
 62
     7
 10
3799.432465100732
 20
241.4180515526446
 30
0.0
  0
SEQEND
  5
7CD
  8
0
  6
CONTINUOUS
 62
     5
  0
POLYLINE
  5
353
  8
回08-記事
  6
CONTINUOUS
 62
     7
 66
     1
 10
0.0
 20
0.0
 30
0.0
 70
     1
  0
VERTEX
  5
7D1
  8
回08-記事
  6
CONTINUOUS
 62
     7
 10
3813.325649319703
 20
447.9180515526443
 30
0.0
  0
VERTEX
  5
7D3
  8
回08-記事
  6
CONTINUOUS
 62
     7
 10
3820.325649319702
 20
447.9180515526443
 30
0.0
  0
VERTEX
  5
7D4
  8
回08-記事
  6
CONTINUOUS
 62
     7
 10
3820.325649319702
 20
240.9180515526444
 30
0.0
  0
VERTEX
  5
7D5
  8
回08-記事
  6
CONTINUOUS
 62
     7
 10
3813.325649319703
 20
240.9180515526444
 30
0.0
  0
SEQEND
  5
7D2
  8
0
  6
CONTINUOUS
 62
     5
  0
DIMENSION
  5
354
  8
回07-寸法
  6
CONTINUOUS
 62
     7
  2
*D61
 10
3515.417187663473
 20
471.9180515526442
 30
0.0
 11
3641.067187663474
 21
473.9180515526442
 31
0.0
 70
    32
  3
DMC
 13
3766.717187663474
 23
441.4180515526442
 33
0.0
 14
3515.417187663473
 24
441.4180515526442
 34
0.0
 50
180.0
1001
ACAD
1000
DSTYLE
1002
{
1070
    41
1040
1.5
1070
    47
1040
0.2
1070
    48
1040
0.2
1070
   141
1040
1.5
1070
   371
1070
     0
1070
   372
1070
     0
1002
}
  0
DIMENSION
  5
363
  8
回07-寸法
  6
CONTINUOUS
 62
     7
  2
*D62
 10
3509.417187663474
 20
471.9180515526442
 30
0.0
 11
3495.339593758946
 21
473.9680540526443
 31
0.0
 70
    32
  1
<>{\H0.6667x;(Insulation area)}
  3
DMC
 13
3515.417187663473
 23
441.4180515526442
 33
0.0
 14
3509.417187663474
 24
447.9180515526443
 34
0.0
 50
180.0
1001
ACADSTRINGINFO
1000
MIFCodePage
1070
     1
1001
ACAD
1000
DSTYLE
1002
{
1070
    41
1040
1.5
1070
    47
1040
0.2
1070
    48
1040
0.2
1070
   141
1040
1.5
1070
   371
1070
     0
1070
   372
1070
     0
1002
}
  0
DIMENSION
  5
374
  8
回07-寸法
  6
CONTINUOUS
 62
     5
  2
*D63
 10
3509.417187663474
 20
465.9180515526442
 30
0.0
 11
3498.664027973668
 21
465.9180515526442
 31
0.0
 70
   160
  3
DMC
 13
3515.917187663474
 23
440.9180515526442
 33
0.0
 14
3509.417187663474
 24
447.9180515526433
 34
0.0
 50
180.0
1001
ACAD
1000
DSTYLE
1002
{
1070
    41
1040
1.5
1070
    47
1040
0.2
1070
    48
1040
0.2
1070
   141
1040
1.5
1070
   371
1070
     0
1070
   372
1070
     0
1002
}
  0
DIMENSION
  5
385
  8
回07-寸法
  6
CONTINUOUS
 62
     5
  2
*D64
 10
3509.417187663474
 20
459.9180515509776
 30
0.0
 11
3500.31363427288
 21
459.9180515509776
 31
0.0
 70
   160
  3
DMC
 13
3518.067187673474
 23
438.5180515526446
 33
0.0
 14
3509.417187663474
 24
447.9180515526433
 34
0.0
 50
180.0
1001
ACAD
1000
DSTYLE
1002
{
1070
    41
1040
1.5
1070
    47
1040
0.2
1070
    48
1040
0.2
1070
   141
1040
1.5
1070
   371
1070
     0
1070
   372
1070
     0
1002
}
  0
DIMENSION
  5
396
  8
回07-寸法
  6
CONTINUOUS
 62
     5
  2
*D65
 10
3509.417187663474
 20
477.9180515526443
 30
0.0
 11
3641.067187663475
 21
477.9180515526443
 31
0.0
 70
   160
  3
DMC
 13
3772.717187663474
 23
447.9180515526443
 33
0.0
 14
3509.417187663474
 24
447.9180515526433
 34
0.0
 50
180.0
1001
ACAD
1000
DSTYLE
1002
{
1070
    41
1040
1.5
1070
    47
1040
0.3
1070
    48
1040
0.3
1070
    71
1070
     1
1070
   141
1040
1.5
1070
   371
1070
     0
1070
   372
1070
     0
1002
}
  0
DIMENSION
  5
3A5
  8
回07-寸法
  6
CONTINUOUS
 62
     5
  2
*D66
 10
3766.217187663474
 20
465.9180515526442
 30
0.0
 11
3641.067187663475
 21
465.9180515526442
 31
0.0
 70
   160
  1
<>(Viewing Area)
  3
DMC
 13
3515.917187663474
 23
440.9180515526442
 33
0.0
 14
3766.217187663474
 24
440.9180515526431
 34
0.0
 50
180.0
1001
ACAD
1000
DSTYLE
1002
{
1070
    41
1040
1.5
1070
    47
1040
0.2
1070
    48
1040
0.2
1070
   141
1040
1.5
1070
   371
1070
     0
1070
   372
1070
     0
1002
}
  0
DIMENSION
  5
3B4
  8
回07-寸法
  6
CONTINUOUS
 62
     5
  2
*D67
 10
3518.067187663474
 20
459.9180515526442
 30
0.0
 11
3641.067187663475
 21
462.0680515526442
 31
0.0
 70
    32
  1
<>(Active Area)
  3
DMC
 13
3764.067187663474
 23
438.5180515526443
 33
0.0
 14
3518.067187663474
 24
438.5180515526446
 34
0.0
 50
180.0
1001
ACAD
1000
DSTYLE
1002
{
1070
    41
1040
1.5
1070
    47
1040
0.2
1070
    48
1040
0.2
1070
   141
1040
1.5
1070
   371
1070
     0
1070
   372
1070
     0
1002
}
  0
DIMENSION
  5
3C3
  8
回07-寸法
  6
CONTINUOUS
 62
    18
  2
*D68
 10
3647.819779691469
 20
116.9273796953173
 30
0.0
 11
3578.618483677471
 21
119.0773796953173
 31
0.0
 70
    32
  1
(<>)
  3
DMC
 13
3509.417187663474
 23
240.9180515526444
 33
0.0
 14
3647.819779691469
 24
141.4220999234554
 34
0.0
1001
ACAD
1000
DSTYLE
1002
{
1070
    41
1040
1.5
1070
    47
1040
0.2
1070
    48
1040
0.2
1070
   141
1040
1.5
1070
   371
1070
     0
1070
   372
1070
     0
1002
}
  0
DIMENSION
  5
3D2
  8
回07-寸法
  6
CONTINUOUS
 62
     6
  2
*D69
 10
3509.417187663474
 20
125.9220999234554
 30
0.0
 11
3564.118491872259
 21
128.0720999234554
 31
0.0
 70
    32
  1
(<>)
  3
DMC
 13
3618.819796081043
 23
141.4180515526445
 33
0.0
 14
3509.417187663474
 24
240.9180515526442
 34
0.0
 50
180.0
1001
ACAD
1000
DSTYLE
1002
{
1070
    41
1040
1.5
1070
    47
1040
0.2
1070
    48
1040
0.2
1070
   141
1040
1.5
1070
   371
1070
     0
1070
   372
1070
     0
1002
}
  0
DIMENSION
  5
3E1
  8
回07-寸法
  6
CONTINUOUS
 62
     7
  2
*D70
 10
3477.417187663475
 20
240.9180515526444
 30
0.0
 11
3477.417187663475
 21
224.5904576481159
 31
0.0
 70
   160
  1
<>{\H0.6667x;(Insulation area)}
  3
DMC
 13
3515.417187663473
 23
251.1180515526443
 33
0.0
 14
3509.417187663474
 24
240.9180515526444
 34
0.0
 50
270.0
1001
ACADSTRINGINFO
1000
MIFCodePage
1070
     1
1001
ACAD
1000
DSTYLE
1002
{
1070
    41
1040
1.5
1070
    47
1040
0.2
1070
    48
1040
0.2
1070
   141
1040
1.5
1070
   371
1070
     0
1070
   372
1070
     0
1002
}
  0
DIMENSION
  5
3F2
  8
回07-寸法
  6
CONTINUOUS
 62
     5
  2
*D71
 10
3493.417187663475
 20
240.9180515526444
 30
0.0
 11
3493.417187663475
 21
232.5644981620515
 31
0.0
 70
   160
  3
DMC
 13
3518.067187663474
 23
254.0180515526443
 33
0.0
 14
3509.417187663474
 24
240.9180515526444
 34
0.0
 50
270.0
1001
ACAD
1000
DSTYLE
1002
{
1070
    41
1040
1.5
1070
    47
1040
0.2
1070
    48
1040
0.2
1070
   141
1040
1.5
1070
   371
1070
     0
1070
   372
1070
     0
1002
}
  0
DIMENSION
  5
403
  8
回07-寸法
  6
CONTINUOUS
 62
     5
  2
*D72
 10
3485.417187663474
 20
240.9180515526444
 30
0.0
 11
3485.417187663474
 21
233.1680515526445
 31
0.0
 70
   160
  3
DMC
 13
3515.917187663474
 23
251.6180515526443
 33
0.0
 14
3509.417187663474
 24
240.9180515526444
 34
0.0
 50
270.0
1001
ACAD
1000
DSTYLE
1002
{
1070
    41
1040
1.5
1070
    47
1040
0.2
1070
    48
1040
0.2
1070
   141
1040
1.5
1070
   371
1070
     0
1070
   372
1070
     0
1002
}
  0
DIMENSION
  5
414
  8
回07-寸法
  6
CONTINUOUS
 62
     7
  2
*D73
 10
3477.417187663475
 20
441.4180515526442
 30
0.0
 11
3475.417187663476
 21
346.2680515526443
 31
0.0
 70
    32
  3
DMC
 13
3515.417187663473
 23
251.1180515526443
 33
0.0
 14
3515.417187663473
 24
441.4180515526442
 34
0.0
 50
270.0
1001
ACAD
1000
DSTYLE
1002
{
1070
    41
1040
1.5
1070
    47
1040
0.2
1070
    48
1040
0.2
1070
   141
1040
1.5
1070
   371
1070
     0
1070
   372
1070
     0
1002
}
  0
DIMENSION
  5
423
  8
回07-寸法
  6
CONTINUOUS
 62
     5
  2
*D74
 10
3469.417187663474
 20
240.9180515526444
 30
0.0
 11
3469.417187663474
 21
344.4180515526443
 31
0.0
 70
   160
  3
DMC
 13
3509.417187663474
 23
447.9180515526443
 33
0.0
 14
3509.417187663474
 24
240.9180515526444
 34
0.0
 50
270.0
1001
ACAD
1000
DSTYLE
1002
{
1070
    41
1040
1.5
1070
    47
1040
0.3
1070
    48
1040
0.3
1070
    71
1070
     1
1070
   141
1040
1.5
1070
   371
1070
     0
1070
   372
1070
     0
1002
}
  0
DIMENSION
  5
432
  8
回07-寸法
  6
CONTINUOUS
 62
     5
  2
*D75
 10
3485.417187663474
 20
251.6180515526443
 30
0.0
 11
3485.417187663474
 21
346.2680515526439
 31
0.0
 70
   160
  1
<>(Viewing Area)
  3
DMC
 13
3515.917187663474
 23
440.9180515526442
 33
0.0
 14
3515.917187663474
 24
251.6180515526443
 34
0.0
 50
270.0
1001
ACAD
1000
DSTYLE
1002
{
1070
    41
1040
1.5
1070
    47
1040
0.2
1070
    48
1040
0.2
1070
   141
1040
1.5
1070
   371
1070
     0
1070
   372
1070
     0
1002
}
  0
DIMENSION
  5
441
  8
回07-寸法
  6
CONTINUOUS
 62
     5
  2
*D76
 10
3493.417187663475
 20
438.5180515526442
 30
0.0
 11
3493.417187663475
 21
346.2680515526444
 31
0.0
 70
   160
  1
<>(Active Area)
  3
DMC
 13
3518.067187663474
 23
254.0180515526445
 33
0.0
 14
3518.067187663474
 24
438.5180515526442
 34
0.0
 50
270.0
1001
ACAD
1000
DSTYLE
1002
{
1070
    41
1040
1.5
1070
    47
1040
0.2
1070
    48
1040
0.2
1070
   141
1040
1.5
1070
   371
1070
     0
1070
   372
1070
     0
1002
}
  0
TEXT
  5
450
  8
回90-枠2
 10
3962.506191500466
 20
485.3228449628892
 30
0.0
 40
4.0
  1
H
  0
LINE
  5
451
  8
回90-枠2
 10
3928.776806194813
 20
489.950421836838
 30
0.0
 11
3928.776806194813
 21
484.950421836838
 31
0.0
  0
LINE
  5
452
  8
回90-枠2
 10
3858.776806194813
 20
489.950421836838
 30
0.0
 11
3858.776806194813
 21
484.950421836838
 31
0.0
  0
TEXT
  5
453
  8
回90-枠2
 10
3822.506191500465
 20
485.3228449628892
 30
0.0
 40
4.0
  1
F
  0
LINE
  5
454
  8
回90-枠2
 10
3788.776806194813
 20
489.950421836838
 30
0.0
 11
3788.776806194813
 21
484.950421836838
 31
0.0
  0
TEXT
  5
455
  8
回90-枠2
 10
3752.506191500466
 20
485.3228449628892
 30
0.0
 40
4.0
  1
E
  0
TEXT
  5
456
  8
回90-枠2
 10
3892.506191500466
 20
485.3228449628892
 30
0.0
 40
4.0
  1
G
  0
LINE
  5
457
  8
回90-枠2
 10
3718.776806194813
 20
489.950421836838
 30
0.0
 11
3718.776806194813
 21
484.950421836838
 31
0.0
  0
TEXT
  5
458
  8
回90-枠2
 10
3682.506191500465
 20
485.3228449628892
 30
0.0
 40
4.0
  1
D
  0
LINE
  5
459
  8
回90-枠2
 10
3648.776806194813
 20
489.950421836838
 30
0.0
 11
3648.776806194813
 21
484.950421836838
 31
0.0
  0
TEXT
  5
45A
  8
回90-枠2
 10
3612.506191500466
 20
485.3228449628892
 30
0.0
 40
4.0
  1
C
  0
LINE
  5
45B
  8
回90-枠2
 10
3578.776806194813
 20
489.950421836838
 30
0.0
 11
3578.776806194813
 21
484.950421836838
 31
0.0
  0
TEXT
  5
45C
  8
回90-枠2
 10
3542.506191500466
 20
485.3228449628892
 30
0.0
 40
4.0
  1
B
  0
LINE
  5
45D
  8
回90-枠2
 10
3508.776806194813
 20
489.950421836838
 30
0.0
 11
3508.776806194813
 21
484.950421836838
 31
0.0
  0
TEXT
  5
45E
  8
回90-枠2
 10
3472.506191500465
 20
485.3228449628892
 30
0.0
 40
4.0
  1
A
  0
LINE
  5
45F
  8
回90-枠2
 10
4003.776806194813
 20
489.950421836838
 30
0.0
 11
3433.776806194813
 21
489.950421836838
 31
0.0
  0
LINE
  5
460
  8
回90-枠2
 10
3438.776806194813
 20
484.950421836838
 30
0.0
 11
3998.776806194813
 21
484.950421836838
 31
0.0
  0
TEXT
  5
461
  8
回90-枠2
 10
4000.181227198472
 20
444.2391091326974
 30
0.0
 40
4.0
  1
1
  0
LINE
  5
462
  8
回90-枠2
 10
4003.776806194813
 20
407.9504218368381
 30
0.0
 11
3998.776806194813
 21
407.9504218368381
 31
0.0
  0
TEXT
  5
463
  8
回90-枠2
 10
3999.87972849517
 20
367.2391091326974
 30
0.0
 40
4.0
  1
2
  0
LINE
  5
464
  8
回90-枠2
 10
4003.776806194813
 20
330.9504218368382
 30
0.0
 11
3998.776806194813
 21
330.9504218368382
 31
0.0
  0
TEXT
  5
465
  8
回90-枠2
 10
3999.87424765097
 20
290.2391091326974
 30
0.0
 40
4.0
  1
3
  0
LINE
  5
466
  8
回90-枠2
 10
4003.776806194813
 20
253.9504218368382
 30
0.0
 11
3998.776806194813
 21
253.9504218368382
 31
0.0
  0
TEXT
  5
467
  8
回90-枠2
 10
3999.801155530889
 20
213.2391091326975
 30
0.0
 40
4.0
  1
4
  0
TEXT
  5
468
  8
回90-枠2
 10
3435.181227198472
 20
444.2391091326974
 30
0.0
 40
4.0
  1
1
  0
LINE
  5
469
  8
回90-枠2
 10
3438.776806194813
 20
407.9504218368381
 30
0.0
 11
3433.776806194813
 21
407.9504218368381
 31
0.0
  0
TEXT
  5
46A
  8
回90-枠2
 10
3434.87972849517
 20
367.2391091326974
 30
0.0
 40
4.0
  1
2
  0
LINE
  5
46B
  8
回90-枠2
 10
3438.776806194813
 20
330.9504218368382
 30
0.0
 11
3433.776806194813
 21
330.9504218368382
 31
0.0
  0
TEXT
  5
46C
  8
回90-枠2
 10
3434.87424765097
 20
290.2391091326974
 30
0.0
 40
4.0
  1
3
  0
LINE
  5
46D
  8
回90-枠2
 10
3438.776806194813
 20
253.9504218368382
 30
0.0
 11
3433.776806194813
 21
253.9504218368382
 31
0.0
  0
TEXT
  5
46E
  8
回90-枠2
 10
3434.801155530889
 20
213.2391091326975
 30
0.0
 40
4.0
  1
4
  0
LINE
  5
46F
  8
回90-枠2
 10
4003.776806194813
 20
176.9504218368382
 30
0.0
 11
3998.776806194813
 21
176.9504218368382
 31
0.0
  0
TEXT
  5
470
  8
回90-枠2
 10
3999.801155530889
 20
136.2391091326975
 30
0.0
 40
4.0
  1
5
  0
TEXT
  5
471
  8
回90-枠2
 10
3962.506191500466
 20
95.32284496288941
 30
0.0
 40
4.0
  1
H
  0
LINE
  5
472
  8
回90-枠2
 10
3928.776806194813
 20
99.95042183683819
 30
0.0
 11
3928.776806194813
 21
94.95042183683819
 31
0.0
  0
LINE
  5
473
  8
回90-枠2
 10
3858.776806194813
 20
99.95042183683819
 30
0.0
 11
3858.776806194813
 21
94.95042183683819
 31
0.0
  0
TEXT
  5
474
  8
回90-枠2
 10
3822.506191500465
 20
95.32284496288941
 30
0.0
 40
4.0
  1
F
  0
LINE
  5
475
  8
回90-枠2
 10
3788.776806194813
 20
99.95042183683819
 30
0.0
 11
3788.776806194813
 21
94.95042183683819
 31
0.0
  0
TEXT
  5
476
  8
回90-枠2
 10
3752.506191500466
 20
95.32284496288941
 30
0.0
 40
4.0
  1
E
  0
TEXT
  5
477
  8
回90-枠2
 10
3892.506191500466
 20
95.32284496288941
 30
0.0
 40
4.0
  1
G
  0
LINE
  5
478
  8
回90-枠2
 10
3718.776806194813
 20
99.95042183683819
 30
0.0
 11
3718.776806194813
 21
94.95042183683819
 31
0.0
  0
TEXT
  5
479
  8
回90-枠2
 10
3682.506191500465
 20
95.32284496288941
 30
0.0
 40
4.0
  1
D
  0
LINE
  5
47A
  8
回90-枠2
 10
3648.776806194813
 20
99.95042183683819
 30
0.0
 11
3648.776806194813
 21
94.95042183683819
 31
0.0
  0
TEXT
  5
47B
  8
回90-枠2
 10
3612.506191500466
 20
95.32284496288941
 30
0.0
 40
4.0
  1
C
  0
LINE
  5
47C
  8
回90-枠2
 10
3578.776806194813
 20
99.95042183683819
 30
0.0
 11
3578.776806194813
 21
94.95042183683819
 31
0.0
  0
LINE
  5
47D
  8
回90-枠2
 10
3438.776806194813
 20
176.9504218368382
 30
0.0
 11
3433.776806194813
 21
176.9504218368382
 31
0.0
  0
TEXT
  5
47E
  8
回90-枠2
 10
3434.801155530889
 20
136.2391091326975
 30
0.0
 40
4.0
  1
5
  0
TEXT
  5
47F
  8
回90-枠2
 10
3542.506191500466
 20
95.32284496288941
 30
0.0
 40
4.0
  1
B
  0
LINE
  5
480
  8
回90-枠2
 10
3508.776806194813
 20
99.95042183683819
 30
0.0
 11
3508.776806194813
 21
94.95042183683819
 31
0.0
  0
TEXT
  5
481
  8
回90-枠2
 10
3472.506191500465
 20
95.32284496288941
 30
0.0
 40
4.0
  1
A
  0
LINE
  5
482
  8
回90-枠2
 10
3438.776806194813
 20
99.95042183683819
 30
0.0
 11
3998.776806194813
 21
99.95042183683819
 31
0.0
  0
LINE
  5
483
  8
回90-枠2
 10
4003.776806194813
 20
94.95042183683819
 30
0.0
 11
3433.776806194813
 21
94.95042183683819
 31
0.0
  0
LINE
  5
484
  8
回90-枠2
 10
4003.776806194813
 20
94.95042183683819
 30
0.0
 11
4003.776806194813
 21
489.950421836838
 31
0.0
  0
LINE
  5
485
  8
回90-枠2
 10
3998.776806194813
 20
484.950421836838
 30
0.0
 11
3998.776806194813
 21
99.95042183683819
 31
0.0
  0
LINE
  5
486
  8
回90-枠2
 10
3433.776806194813
 20
94.95042183683819
 30
0.0
 11
3433.776806194813
 21
489.950421836838
 31
0.0
  0
LINE
  5
487
  8
回90-枠2
 10
3438.776806194813
 20
484.950421836838
 30
0.0
 11
3438.776806194813
 21
99.95042183683819
 31
0.0
  0
TEXT
  5
488
  8
回08-記事
  6
CONTINUOUS
 62
     7
 10
3760.036079823943
 20
261.0584873148602
 30
0.0
 40
2.0
  1
R12
  0
TEXT
  5
489
  8
回08-記事
  6
CONTINUOUS
 62
     7
 10
3518.652044262324
 20
261.0239117823707
 30
0.0
 40
2.0
  1
L12
  0
TEXT
  5
48A
  8
回08-記事
  6
CONTINUOUS
 62
     7
 10
3760.036079823943
 20
276.4584873148602
 30
0.0
 40
2.0
  1
R11
  0
TEXT
  5
48B
  8
回08-記事
  6
CONTINUOUS
 62
     7
 10
3518.652044262324
 20
276.4239117823707
 30
0.0
 40
2.0
  1
L11
  0
TEXT
  5
48C
  8
回08-記事
  6
CONTINUOUS
 62
     7
 10
3760.036079823943
 20
291.8584873148601
 30
0.0
 40
2.0
  1
R10
  0
TEXT
  5
48D
  8
回08-記事
  6
CONTINUOUS
 62
     7
 10
3518.652044262324
 20
291.8239117823707
 30
0.0
 40
2.0
  1
L10
  0
TEXT
  5
48E
  8
回08-記事
  6
CONTINUOUS
 62
     7
 10
3760.834685898041
 20
307.2584873148601
 30
0.0
 40
2.0
  1
R9
  0
TEXT
  5
48F
  8
回08-記事
  6
CONTINUOUS
 62
     7
 10
3518.902595888859
 20
307.2239117823707
 30
0.0
 40
2.0
  1
L9
  0
TEXT
  5
490
  8
回08-記事
  6
CONTINUOUS
 62
     7
 10
3760.834685898041
 20
322.6584873148602
 30
0.0
 40
2.0
  1
R8
  0
TEXT
  5
491
  8
回08-記事
  6
CONTINUOUS
 62
     7
 10
3518.902595888859
 20
322.6239117823707
 30
0.0
 40
2.0
  1
L8
  0
TEXT
  5
492
  8
回08-記事
  6
CONTINUOUS
 62
     7
 10
3760.834685898041
 20
338.0584873148602
 30
0.0
 40
2.0
  1
R7
  0
TEXT
  5
493
  8
回08-記事
  6
CONTINUOUS
 62
     7
 10
3518.902595888859
 20
338.0239117823707
 30
0.0
 40
2.0
  1
L7
  0
TEXT
  5
494
  8
回08-記事
  6
CONTINUOUS
 62
     7
 10
3760.834685898041
 20
353.4584873148602
 30
0.0
 40
2.0
  1
R6
  0
TEXT
  5
495
  8
回08-記事
  6
CONTINUOUS
 62
     7
 10
3518.902595888859
 20
353.4239117823708
 30
0.0
 40
2.0
  1
L6
  0
TEXT
  5
496
  8
回08-記事
  6
CONTINUOUS
 62
     7
 10
3760.834685898041
 20
368.8584873148601
 30
0.0
 40
2.0
  1
R5
  0
TEXT
  5
497
  8
回08-記事
  6
CONTINUOUS
 62
     7
 10
3518.902595888859
 20
368.8239117823707
 30
0.0
 40
2.0
  1
L5
  0
TEXT
  5
498
  8
回08-記事
  6
CONTINUOUS
 62
     7
 10
3760.834685898041
 20
384.2584873148602
 30
0.0
 40
2.0
  1
R4
  0
TEXT
  5
499
  8
回08-記事
  6
CONTINUOUS
 62
     7
 10
3518.902595888859
 20
384.2239117823707
 30
0.0
 40
2.0
  1
L4
  0
TEXT
  5
49A
  8
回08-記事
  6
CONTINUOUS
 62
     7
 10
3760.834685898041
 20
399.6584873148602
 30
0.0
 40
2.0
  1
R3
  0
TEXT
  5
49B
  8
回08-記事
  6
CONTINUOUS
 62
     7
 10
3518.902595888859
 20
399.6239117823707
 30
0.0
 40
2.0
  1
L3
  0
TEXT
  5
49C
  8
回08-記事
  6
CONTINUOUS
 62
     7
 10
3760.834685898041
 20
415.0584873148601
 30
0.0
 40
2.0
  1
R2
  0
TEXT
  5
49D
  8
回08-記事
  6
CONTINUOUS
 62
     7
 10
3518.902595888859
 20
415.0239117823707
 30
0.0
 40
2.0
  1
L2
  0
TEXT
  5
49E
  8
回08-記事
  6
CONTINUOUS
 62
     7
 10
3754.795427320345
 20
254.5407567899347
 30
0.0
 40
2.0
  1
D15
  0
TEXT
  5
49F
  8
回08-記事
  6
CONTINUOUS
 62
     7
 10
3754.757216293779
 20
435.822479221031
 30
0.0
 40
2.0
  1
U15
  0
TEXT
  5
4A0
  8
回08-記事
  6
CONTINUOUS
 62
     7
 10
3738.375427320346
 20
254.5407567899347
 30
0.0
 40
2.0
  1
D14
  0
TEXT
  5
4A1
  8
回08-記事
  6
CONTINUOUS
 62
     7
 10
3738.33721629378
 20
435.822479221031
 30
0.0
 40
2.0
  1
U14
  0
TEXT
  5
4A2
  8
回08-記事
  6
CONTINUOUS
 62
     7
 10
3721.955427320346
 20
254.5407567899347
 30
0.0
 40
2.0
  1
D13
  0
TEXT
  5
4A3
  8
回08-記事
  6
CONTINUOUS
 62
     7
 10
3721.91721629378
 20
435.822479221031
 30
0.0
 40
2.0
  1
U13
  0
TEXT
  5
4A4
  8
回08-記事
  6
CONTINUOUS
 62
     7
 10
3705.535427320346
 20
254.5407567899347
 30
0.0
 40
2.0
  1
D12
  0
TEXT
  5
4A5
  8
回08-記事
  6
CONTINUOUS
 62
     7
 10
3705.49721629378
 20
435.822479221031
 30
0.0
 40
2.0
  1
U12
  0
TEXT
  5
4A6
  8
回08-記事
  6
CONTINUOUS
 62
     7
 10
3689.115427320345
 20
254.5407567899347
 30
0.0
 40
2.0
  1
D11
  0
TEXT
  5
4A7
  8
回08-記事
  6
CONTINUOUS
 62
     7
 10
3689.077216293779
 20
435.822479221031
 30
0.0
 40
2.0
  1
U11
  0
TEXT
  5
4A8
  8
回08-記事
  6
CONTINUOUS
 62
     7
 10
3672.695427320345
 20
254.5407567899347
 30
0.0
 40
2.0
  1
D10
  0
TEXT
  5
4A9
  8
回08-記事
  6
CONTINUOUS
 62
     7
 10
3672.657216293779
 20
435.822479221031
 30
0.0
 40
2.0
  1
U10
  0
TEXT
  5
4AA
  8
回08-記事
  6
CONTINUOUS
 62
     7
 10
3656.275427320345
 20
254.5407567899347
 30
0.0
 40
2.0
  1
D9
  0
TEXT
  5
4AB
  8
回08-記事
  6
CONTINUOUS
 62
     7
 10
3656.237216293779
 20
435.822479221031
 30
0.0
 40
2.0
  1
U9
  0
TEXT
  5
4AC
  8
回08-記事
  6
CONTINUOUS
 62
     7
 10
3639.855427320345
 20
254.5407567899347
 30
0.0
 40
2.0
  1
D8
  0
TEXT
  5
4AD
  8
回08-記事
  6
CONTINUOUS
 62
     7
 10
3639.817216293779
 20
435.822479221031
 30
0.0
 40
2.0
  1
U8
  0
TEXT
  5
4AE
  8
回08-記事
  6
CONTINUOUS
 62
     7
 10
3623.435427320345
 20
254.5407567899347
 30
0.0
 40
2.0
  1
D7
  0
TEXT
  5
4AF
  8
回08-記事
  6
CONTINUOUS
 62
     7
 10
3623.397216293779
 20
435.822479221031
 30
0.0
 40
2.0
  1
U7
  0
TEXT
  5
4B0
  8
回08-記事
  6
CONTINUOUS
 62
     7
 10
3607.015427320345
 20
254.5407567899347
 30
0.0
 40
2.0
  1
D6
  0
TEXT
  5
4B1
  8
回08-記事
  6
CONTINUOUS
 62
     7
 10
3606.977216293779
 20
435.822479221031
 30
0.0
 40
2.0
  1
U6
  0
TEXT
  5
4B2
  8
回08-記事
  6
CONTINUOUS
 62
     7
 10
3590.595427320346
 20
254.5407567899347
 30
0.0
 40
2.0
  1
D5
  0
TEXT
  5
4B3
  8
回08-記事
  6
CONTINUOUS
 62
     7
 10
3590.557216293779
 20
435.822479221031
 30
0.0
 40
2.0
  1
U5
  0
TEXT
  5
4B4
  8
回08-記事
  6
CONTINUOUS
 62
     7
 10
3574.175427320346
 20
254.5407567899347
 30
0.0
 40
2.0
  1
D4
  0
TEXT
  5
4B5
  8
回08-記事
  6
CONTINUOUS
 62
     7
 10
3574.137216293779
 20
435.822479221031
 30
0.0
 40
2.0
  1
U4
  0
TEXT
  5
4B6
  8
回08-記事
  6
CONTINUOUS
 62
     7
 10
3557.755427320345
 20
254.5407567899347
 30
0.0
 40
2.0
  1
D3
  0
TEXT
  5
4B7
  8
回08-記事
  6
CONTINUOUS
 62
     7
 10
3557.717216293779
 20
435.822479221031
 30
0.0
 40
2.0
  1
U3
  0
TEXT
  5
4B8
  8
回08-記事
  6
CONTINUOUS
 62
     7
 10
3541.335427320346
 20
254.5407567899347
 30
0.0
 40
2.0
  1
D2
  0
TEXT
  5
4B9
  8
回08-記事
  6
CONTINUOUS
 62
     7
 10
3541.29721629378
 20
435.822479221031
 30
0.0
 40
2.0
  1
U2
  0
TEXT
  5
4BA
  8
回08-記事
  6
CONTINUOUS
 62
     7
 10
3518.807823317197
 20
434.5090464009038
 30
0.0
 40
1.5
  1
SUL
  0
TEXT
  5
4BB
  8
回08-記事
  6
CONTINUOUS
 62
     7
 10
3759.745727829726
 20
436.0258324929788
 30
0.0
 40
1.5
  1
SUR
  0
TEXT
  5
4BC
  8
回08-記事
  6
CONTINUOUS
 62
     7
 10
3518.836825271825
 20
254.5977105472807
 30
0.0
 40
1.5
  1
SDL
  0
TEXT
  5
4BD
  8
回08-記事
  6
CONTINUOUS
 62
     7
 10
3760.185132311961
 20
258.8099611885538
 30
0.0
 40
1.5
  1
SDR
  0
TEXT
  5
4BE
  8
回08-記事
  6
CONTINUOUS
 62
     7
 10
3524.915427320346
 20
254.5407567899347
 30
0.0
 40
2.0
  1
D1
  0
TEXT
  5
4BF
  8
回08-記事
  6
CONTINUOUS
 62
     7
 10
3760.834685898041
 20
430.4584873148601
 30
0.0
 40
2.0
  1
R1
  0
TEXT
  5
4C0
  8
回08-記事
  6
CONTINUOUS
 62
     7
 10
3518.902595888859
 20
430.4239117823707
 30
0.0
 40
2.0
  1
L1
  0
TEXT
  5
4C1
  8
回08-記事
  6
CONTINUOUS
 62
     7
 10
3524.87721629378
 20
435.822479221031
 30
0.0
 40
2.0
  1
U1
  0
LINE
  5
4C2
  8
回05-ﾃｰﾙ
  6
CONTINUOUS
 62
     7
 10
3639.778011788104
 20
236.9975173706749
 30
0.0
 11
3636.612672910282
 21
233.8321784928535
 31
0.0
  0
ARC
  5
4C6
  8
回05-ﾃｰﾙ
  6
CONTINUOUS
 62
     7
 10
3617.819779691468
 20
223.1273223425638
 30
0.0
 40
1.0
 50
0.0
 51
45.00000000001864
  0
LINE
  5
4C7
  8
回05-ﾃｰﾙ
  6
CONTINUOUS
 62
     7
 10
3605.363798225731
 20
236.9975173706749
 30
0.0
 11
3618.526886472655
 21
223.8344291237504
 31
0.0
  0
ARC
  5
4C8
  8
回05-ﾃｰﾙ
  6
CONTINUOUS
 62
     7
 10
3606.070905006917
 20
237.7046241518615
 30
0.0
 40
1.0
 50
180.0
 51
225.0000000000186
  0
LINE
  5
4C9
  8
回05-ﾃｰﾙ
  6
CONTINUOUS
 62
     7
 10
3605.070905006917
 20
240.9180515526443
 30
0.0
 11
3605.070905006917
 21
237.7046241518615
 31
0.0
  0
ARC
  5
4CA
  8
回05-ﾃｰﾙ
  6
CONTINUOUS
 62
     7
 10
3639.070905006917
 20
237.7046241518615
 30
0.0
 40
1.0
 50
314.9999999999814
 51
0.0
  0
LINE
  5
4CB
  8
回05-ﾃｰﾙ
  6
CONTINUOUS
 62
     7
 10
3640.070905006917
 20
237.7046241518615
 30
0.0
 11
3640.070905006917
 21
240.9180515526443
 31
0.0
  0
ARC
  5
4CC
  8
回05-ﾃｰﾙ
  6
CONTINUOUS
 62
     7
 10
3619.319779691468
 20
141.4220999234554
 30
0.0
 40
0.5
 50
180.0
 51
270.0
  0
LINE
  5
4CD
  8
回05-ﾃｰﾙ
  6
CONTINUOUS
 62
     7
 10
3618.819779691469
 20
223.1273223425638
 30
0.0
 11
3618.819779691469
 21
141.4220999234554
 31
0.0
  0
LINE
  5
4CE
  8
回05-ﾃｰﾙ
  6
CONTINUOUS
 62
     7
 10
3619.319779691468
 20
140.9220999234554
 30
0.0
 11
3635.819779691468
 21
140.9220999234554
 31
0.0
  0
ARC
  5
4CF
  8
回05-ﾃｰﾙ
  6
CONTINUOUS
 62
     7
 10
3635.819779691468
 20
141.4220999234554
 30
0.0
 40
0.5
 50
270.0
 51
0.0
  0
ARC
  5
4D0
  8
回05-ﾃｰﾙ
  6
CONTINUOUS
 62
     7
 10
3637.319779691468
 20
233.1250717116668
 30
0.0
 40
1.0
 50
134.9999999999814
 51
180.0
  0
LINE
  5
4D1
  8
回05-ﾃｰﾙ
  6
CONTINUOUS
 62
     7
 10
3636.319779691469
 20
141.4220999234554
 30
0.0
 11
3636.319779691469
 21
233.1250717116668
 31
0.0
  0
ARC
  5
4D2
  8
回05-ﾃｰﾙ
  6
CONTINUOUS
 62
     7
 10
3662.319779691468
 20
230.1970777562115
 30
0.0
 40
1.0
 50
134.9999999999814
 51
180.0
  0
LINE
  5
4D3
  8
回05-ﾃｰﾙ
  6
CONTINUOUS
 62
     7
 10
3661.612672910282
 20
230.9041845373982
 30
0.0
 11
3667.778011788104
 21
237.0695234152195
 31
0.0
  0
ARC
  5
4D4
  8
回05-ﾃｰﾙ
  6
CONTINUOUS
 62
     7
 10
3646.819779691469
 20
230.1993283871094
 30
0.0
 40
1.0
 50
0.0
 51
45.00000000001864
  0
LINE
  5
4D5
  8
回05-ﾃｰﾙ
  6
CONTINUOUS
 62
     7
 10
3647.526886472655
 20
230.9064351682951
 30
0.0
 11
3641.363798225731
 21
237.0695234152204
 31
0.0
  0
ARC
  5
4D6
  8
回05-ﾃｰﾙ
  6
CONTINUOUS
 62
     7
 10
3642.070905006917
 20
237.7766301964062
 30
0.0
 40
1.0
 50
180.0
 51
225.0000000000186
  0
LINE
  5
4D7
  8
回05-ﾃｰﾙ
  6
CONTINUOUS
 62
     7
 10
3641.070905006917
 20
237.7766301964062
 30
0.0
 11
3641.070905006917
 21
240.9180515526443
 31
0.0
  0
ARC
  5
4D8
  8
回05-ﾃｰﾙ
  6
CONTINUOUS
 62
     7
 10
3667.070905006917
 20
237.7766301964062
 30
0.0
 40
1.0
 50
314.9999999999814
 51
0.0
  0
LINE
  5
4D9
  8
回05-ﾃｰﾙ
  6
CONTINUOUS
 62
     7
 10
3668.070905006918
 20
237.7766301964062
 30
0.0
 11
3668.070905006918
 21
240.9180515526443
 31
0.0
  0
ARC
  5
4DA
  8
回05-ﾃｰﾙ
  6
CONTINUOUS
 62
     7
 10
3648.319779691468
 20
141.4220999234554
 30
0.0
 40
0.5
 50
180.0
 51
270.0
  0
LINE
  5
4DB
  8
回05-ﾃｰﾙ
  6
CONTINUOUS
 62
     7
 10
3647.819779691469
 20
141.4220999234554
 30
0.0
 11
3647.819779691469
 21
230.1993283871094
 31
0.0
  0
LINE
  5
4DC
  8
回05-ﾃｰﾙ
  6
CONTINUOUS
 62
     7
 10
3648.319779691468
 20
140.9220999234554
 30
0.0
 11
3660.819779691468
 21
140.9220999234554
 31
0.0
  0
ARC
  5
4DD
  8
回05-ﾃｰﾙ
  6
CONTINUOUS
 62
     7
 10
3660.819779691468
 20
141.4220999234545
 30
0.0
 40
0.5
 50
270.0
 51
0.0
  0
LINE
  5
4DE
  8
回05-ﾃｰﾙ
  6
CONTINUOUS
 62
     7
 10
3661.319779691468
 20
141.4220999234545
 30
0.0
 11
3661.319779691468
 21
230.1970777562115
 31
0.0
  0
POLYLINE
  5
4DF
  8
回04-下接
  6
CONTINUOUS
 62
     7
 66
     1
 10
0.0
 20
0.0
 30
0.0
 70
     1
  0
VERTEX
  5
7D6
  8
回04-下接
  6
CONTINUOUS
 62
     7
 10
3509.417187663474
 20
447.9180515526443
 30
0.0
  0
VERTEX
  5
7D8
  8
回04-下接
  6
CONTINUOUS
 62
     7
 10
3772.717187663474
 20
447.9180515526443
 30
0.0
  0
VERTEX
  5
7D9
  8
回04-下接
  6
CONTINUOUS
 62
     7
 10
3772.717187663474
 20
240.9180515526443
 30
0.0
  0
VERTEX
  5
7DA
  8
回04-下接
  6
CONTINUOUS
 62
     7
 10
3509.417187663474
 20
240.9180515526443
 30
0.0
  0
SEQEND
  5
7D7
  8
0
  6
CONTINUOUS
 62
     5
  0
POLYLINE
  5
4E3
  8
回08-記事
  6
PHANTOM2
 62
     7
 66
     1
 10
0.0
 20
0.0
 30
0.0
 70
     1
  0
VERTEX
  5
7DB
  8
回08-記事
  6
PHANTOM2
 62
     7
 10
3515.417187663473
 20
441.4180515526442
 30
0.0
  0
VERTEX
  5
7DD
  8
回08-記事
  6
PHANTOM2
 62
     7
 10
3766.717187663474
 20
441.4180515526442
 30
0.0
  0
VERTEX
  5
7DE
  8
回08-記事
  6
PHANTOM2
 62
     7
 10
3766.717187663474
 20
251.1180515526443
 30
0.0
  0
VERTEX
  5
7DF
  8
回08-記事
  6
PHANTOM2
 62
     7
 10
3515.417187663473
 20
251.1180515526443
 30
0.0
  0
SEQEND
  5
7DC
  8
0
  6
CONTINUOUS
 62
     5
  0
POLYLINE
  5
4E4
  8
回08-記事
  6
CONTINUOUS
 62
     7
 66
     1
 10
0.0
 20
0.0
 30
0.0
 70
     1
  0
VERTEX
  5
7E0
  8
回08-記事
  6
CONTINUOUS
 62
     7
 10
3515.917187663474
 20
440.9180515526442
 30
0.0
  0
VERTEX
  5
7E2
  8
回08-記事
  6
CONTINUOUS
 62
     7
 10
3766.217187663474
 20
440.9180515526442
 30
0.0
  0
VERTEX
  5
7E3
  8
回08-記事
  6
CONTINUOUS
 62
     7
 10
3766.217187663474
 20
251.6180515526443
 30
0.0
  0
VERTEX
  5
7E4
  8
回08-記事
  6
CONTINUOUS
 62
     7
 10
3515.917187663474
 20
251.6180515526443
 30
0.0
  0
SEQEND
  5
7E1
  8
0
  6
CONTINUOUS
 62
     5
  0
POLYLINE
  5
4E5
  8
回08-記事
  6
CONTINUOUS
 62
     7
 66
     1
 10
0.0
 20
0.0
 30
0.0
 70
     1
  0
VERTEX
  5
7E5
  8
回08-記事
  6
CONTINUOUS
 62
     7
 10
3518.067187663474
 20
438.5180515526442
 30
0.0
  0
VERTEX
  5
7E7
  8
回08-記事
  6
CONTINUOUS
 62
     7
 10
3764.067187663474
 20
438.5180515526442
 30
0.0
  0
VERTEX
  5
7E8
  8
回08-記事
  6
CONTINUOUS
 62
     7
 10
3764.067187663474
 20
254.0180515526443
 30
0.0
  0
VERTEX
  5
7E9
  8
回08-記事
  6
CONTINUOUS
 62
     7
 10
3518.067187663474
 20
254.0180515526443
 30
0.0
  0
SEQEND
  5
7E6
  8
0
  6
CONTINUOUS
 62
     5
  0
ENDSEC
  0
EOF
